  0
SECTION
  2
HEADER
  9
$ACADVER
  1
AC1015
  9
$ACADMAINTVER
 70
     6
  9
$DWGCODEPAGE
  3
ANSI_1252
  9
$INSBASE
 10
0.0
 20
0.0
 30
0.0
  9
$EXTMIN
 10
0.0
 20
-0.0000000000000107
 30
0.0
  9
$EXTMAX
 10
63.59999999999999
 20
93.96
 30
0.0
  9
$LIMMIN
 10
0.0
 20
0.0
  9
$LIMMAX
 10
63.59999999999999
 20
93.95999999999999
  9
$ORTHOMODE
 70
     1
  9
$REGENMODE
 70
     1
  9
$FILLMODE
 70
     1
  9
$QTEXTMODE
 70
     0
  9
$MIRRTEXT
 70
     0
  9
$LTSCALE
 40
2.75
  9
$ATTMODE
 70
     1
  9
$TEXTSIZE
 40
0.75
  9
$TRACEWID
 40
0.05
  9
$TEXTSTYLE
  7
TXT
  9
$CLAYER
  8
TEXT
  9
$CELTYPE
  6
ByLayer
  9
$CECOLOR
 62
   256
  9
$CELTSCALE
 40
1.0
  9
$DISPSILH
 70
     0
  9
$DIMSCALE
 40
6.0
  9
$DIMASZ
 40
0.18
  9
$DIMEXO
 40
0.063
  9
$DIMDLI
 40
0.281
  9
$DIMRND
 40
0.0
  9
$DIMDLE
 40
0.0
  9
$DIMEXE
 40
0.093
  9
$DIMTP
 40
0.0
  9
$DIMTM
 40
0.0
  9
$DIMTXT
 40
0.125
  9
$DIMCEN
 40
0.09
  9
$DIMTSZ
 40
0.0
  9
$DIMTOL
 70
     0
  9
$DIMLIM
 70
     0
  9
$DIMTIH
 70
     1
  9
$DIMTOH
 70
     1
  9
$DIMSE1
 70
     0
  9
$DIMSE2
 70
     0
  9
$DIMTAD
 70
     0
  9
$DIMZIN
 70
     0
  9
$DIMBLK
  1

  9
$DIMASO
 70
     1
  9
$DIMSHO
 70
     1
  9
$DIMPOST
  1

  9
$DIMAPOST
  1

  9
$DIMALT
 70
     0
  9
$DIMALTD
 70
     2
  9
$DIMALTF
 40
25.4
  9
$DIMLFAC
 40
1.0
  9
$DIMTOFL
 70
     0
  9
$DIMTVP
 40
0.0
  9
$DIMTIX
 70
     0
  9
$DIMSOXD
 70
     0
  9
$DIMSAH
 70
     0
  9
$DIMBLK1
  1

  9
$DIMBLK2
  1

  9
$DIMSTYLE
  2
23NSTD
  9
$DIMCLRD
 70
     0
  9
$DIMCLRE
 70
     0
  9
$DIMCLRT
 70
     0
  9
$DIMTFAC
 40
1.0
  9
$DIMGAP
 40
0.09
  9
$DIMJUST
 70
     0
  9
$DIMSD1
 70
     0
  9
$DIMSD2
 70
     0
  9
$DIMTOLJ
 70
     1
  9
$DIMTZIN
 70
     0
  9
$DIMALTZ
 70
     0
  9
$DIMALTTZ
 70
     0
  9
$DIMUPT
 70
     0
  9
$DIMDEC
 70
     3
  9
$DIMTDEC
 70
     3
  9
$DIMALTU
 70
     2
  9
$DIMALTTD
 70
     2
  9
$DIMTXSTY
  7
TXT
  9
$DIMAUNIT
 70
     0
  9
$DIMADEC
 70
     0
  9
$DIMALTRND
 40
0.0
  9
$DIMAZIN
 70
     0
  9
$DIMDSEP
 70
    46
  9
$DIMATFIT
 70
     1
  9
$DIMFRAC
 70
     0
  9
$DIMLDRBLK
  1

  9
$DIMLUNIT
 70
     2
  9
$DIMLWD
 70
    -2
  9
$DIMLWE
 70
    -2
  9
$DIMTMOVE
 70
     0
  9
$LUNITS
 70
     2
  9
$LUPREC
 70
     8
  9
$SKETCHINC
 40
0.1
  9
$FILLETRAD
 40
0.0
  9
$AUNITS
 70
     0
  9
$AUPREC
 70
     0
  9
$MENU
  1
acad
  9
$ELEVATION
 40
0.0
  9
$PELEVATION
 40
0.0
  9
$THICKNESS
 40
0.0
  9
$LIMCHECK
 70
     0
  9
$CHAMFERA
 40
0.0
  9
$CHAMFERB
 40
0.0
  9
$CHAMFERC
 40
0.0
  9
$CHAMFERD
 40
0.0
  9
$SKPOLY
 70
     0
  9
$TDCREATE
 40
2451403.612101157
  9
$TDUCREATE
 40
2451403.820434491
  9
$TDUPDATE
 40
2453431.649706122
  9
$TDUUPDATE
 40
2453431.858039456
  9
$TDINDWG
 40
0.1442414120
  9
$TDUSRTIMER
 40
0.1442414120
  9
$USRTIMER
 70
     1
  9
$ANGBASE
 50
0.0
  9
$ANGDIR
 70
     0
  9
$PDMODE
 70
    34
  9
$PDSIZE
 40
0.0
  9
$PLINEWID
 40
0.0
  9
$SPLFRAME
 70
     0
  9
$SPLINETYPE
 70
     6
  9
$SPLINESEGS
 70
     8
  9
$HANDSEED
  5
2941
  9
$SURFTAB1
 70
     6
  9
$SURFTAB2
 70
     6
  9
$SURFTYPE
 70
     6
  9
$SURFU
 70
     6
  9
$SURFV
 70
     6
  9
$UCSBASE
  2

  9
$UCSNAME
  2

  9
$UCSORG
 10
0.0
 20
0.0
 30
0.0
  9
$UCSXDIR
 10
1.0
 20
0.0
 30
0.0
  9
$UCSYDIR
 10
0.0
 20
1.0
 30
0.0
  9
$UCSORTHOREF
  2

  9
$UCSORTHOVIEW
 70
     0
  9
$UCSORGTOP
 10
0.0
 20
0.0
 30
0.0
  9
$UCSORGBOTTOM
 10
0.0
 20
0.0
 30
0.0
  9
$UCSORGLEFT
 10
0.0
 20
0.0
 30
0.0
  9
$UCSORGRIGHT
 10
0.0
 20
0.0
 30
0.0
  9
$UCSORGFRONT
 10
0.0
 20
0.0
 30
0.0
  9
$UCSORGBACK
 10
0.0
 20
0.0
 30
0.0
  9
$PUCSBASE
  2

  9
$PUCSNAME
  2

  9
$PUCSORG
 10
0.0
 20
0.0
 30
0.0
  9
$PUCSXDIR
 10
1.0
 20
0.0
 30
0.0
  9
$PUCSYDIR
 10
0.0
 20
1.0
 30
0.0
  9
$PUCSORTHOREF
  2

  9
$PUCSORTHOVIEW
 70
     0
  9
$PUCSORGTOP
 10
0.0
 20
0.0
 30
0.0
  9
$PUCSORGBOTTOM
 10
0.0
 20
0.0
 30
0.0
  9
$PUCSORGLEFT
 10
0.0
 20
0.0
 30
0.0
  9
$PUCSORGRIGHT
 10
0.0
 20
0.0
 30
0.0
  9
$PUCSORGFRONT
 10
0.0
 20
0.0
 30
0.0
  9
$PUCSORGBACK
 10
0.0
 20
0.0
 30
0.0
  9
$USERI1
 70
     0
  9
$USERI2
 70
     0
  9
$USERI3
 70
     0
  9
$USERI4
 70
     0
  9
$USERI5
 70
     0
  9
$USERR1
 40
0.0
  9
$USERR2
 40
0.0
  9
$USERR3
 40
0.0
  9
$USERR4
 40
0.0
  9
$USERR5
 40
0.0
  9
$WORLDVIEW
 70
     1
  9
$SHADEDGE
 70
     3
  9
$SHADEDIF
 70
    70
  9
$TILEMODE
 70
     1
  9
$MAXACTVP
 70
    16
  9
$PINSBASE
 10
0.0
 20
0.0
 30
0.0
  9
$PLIMCHECK
 70
     0
  9
$PEXTMIN
 10
1.000000000000000E+20
 20
1.000000000000000E+20
 30
1.000000000000000E+20
  9
$PEXTMAX
 10
-1.000000000000000E+20
 20
-1.000000000000000E+20
 30
-1.000000000000000E+20
  9
$PLIMMIN
 10
0.0
 20
0.0
  9
$PLIMMAX
 10
12.0
 20
9.0
  9
$UNITMODE
 70
     0
  9
$VISRETAIN
 70
     0
  9
$PLINEGEN
 70
     0
  9
$PSLTSCALE
 70
     0
  9
$TREEDEPTH
 70
  3020
  9
$CMLSTYLE
  2
Standard
  9
$CMLJUST
 70
     0
  9
$CMLSCALE
 40
1.0
  9
$PROXYGRAPHICS
 70
     1
  9
$MEASUREMENT
 70
     0
  9
$CELWEIGHT
370
    -1
  9
$ENDCAPS
280
     0
  9
$JOINSTYLE
280
     0
  9
$LWDISPLAY
290
     0
  9
$INSUNITS
 70
     0
  9
$HYPERLINKBASE
  1

  9
$STYLESHEET
  1
monochrome.ctb
  9
$XEDIT
290
     1
  9
$CEPSNTYPE
380
     0
  9
$PSTYLEMODE
290
     1
  9
$FINGERPRINTGUID
  2
{432CE55F-1168-11D4-813D-00C04F604D21}
  9
$VERSIONGUID
  2
{419FFD5B-2AC1-44F7-91BB-7311BF55A0E9}
  9
$EXTNAMES
290
     1
  9
$PSVPSCALE
 40
0.0
  9
$OLESTARTUP
290
     0
  0
ENDSEC
  0
SECTION
  2
CLASSES
  0
CLASS
  1
ACDBDICTIONARYWDFLT
  2
AcDbDictionaryWithDefault
  3
AutoCAD 2000
 90
        0
280
     0
281
     0
  0
CLASS
  1
ACDBPLACEHOLDER
  2
AcDbPlaceHolder
  3
AutoCAD 2000
 90
        0
280
     0
281
     0
  0
CLASS
  1
LAYOUT
  2
AcDbLayout
  3
AutoCAD 2000
 90
        0
280
     0
281
     0
  0
ENDSEC
  0
SECTION
  2
TABLES
  0
TABLE
  2
VPORT
  5
8
330
0
100
AcDbSymbolTable
 70
     2
  0
VPORT
  5
2940
330
8
100
AcDbSymbolTableRecord
100
AcDbViewportTableRecord
  2
*Active
 70
     0
 10
0.0
 20
0.0
 11
1.0
 21
1.0
 12
31.79991054948617
 22
46.97881887542241
 13
0.0
 23
0.0
 14
1.0
 24
1.0
 15
0.0
 25
0.0
 16
0.0
 26
0.0
 36
1.0
 17
0.0
 27
0.0
 37
0.0
 40
94.9713097817024
 41
1.780130293159609
 42
50.0
 43
0.0
 44
0.0
 50
0.0
 51
0.0
 71
     0
 72
  5000
 73
     1
 74
     0
 75
     0
 76
     0
 77
     0
 78
     0
281
     0
 65
     1
110
0.0
120
0.0
130
0.0
111
1.0
121
0.0
131
0.0
112
0.0
122
1.0
132
0.0
 79
     0
146
0.0
  0
ENDTAB
  0
TABLE
  2
LTYPE
  5
5
330
0
100
AcDbSymbolTable
 70
     5
  0
LTYPE
  5
13
330
5
100
AcDbSymbolTableRecord
100
AcDbLinetypeTableRecord
  2
ByBlock
 70
     0
  3

 72
    65
 73
     0
 40
0.0
  0
LTYPE
  5
14
330
5
100
AcDbSymbolTableRecord
100
AcDbLinetypeTableRecord
  2
ByLayer
 70
     0
  3

 72
    65
 73
     0
 40
0.0
  0
LTYPE
  5
15
330
5
100
AcDbSymbolTableRecord
100
AcDbLinetypeTableRecord
  2
CONTINUOUS
 70
     0
  3
Solid line
 72
    65
 73
     0
 40
0.0
  0
LTYPE
  5
68
330
5
100
AcDbSymbolTableRecord
100
AcDbLinetypeTableRecord
  2
CENTER
 70
     0
  3
____ _ ____ _ ____ _ ____ _ ____ _ ____ _ ____ 
 72
    65
 73
     4
 40
2.0
 49
1.25
 74
     0
 49
-0.25
 74
     0
 49
0.25
 74
     0
 49
-0.25
 74
     0
  0
LTYPE
  5
69
330
5
100
AcDbSymbolTableRecord
100
AcDbLinetypeTableRecord
  2
PHANTOM
 70
     0
  3
______  __  __  ______  __  __  ______  __  __ 
 72
    65
 73
     6
 40
2.5
 49
1.25
 74
     0
 49
-0.25
 74
     0
 49
0.25
 74
     0
 49
-0.25
 74
     0
 49
0.25
 74
     0
 49
-0.25
 74
     0
  0
LTYPE
  5
6A
330
5
100
AcDbSymbolTableRecord
100
AcDbLinetypeTableRecord
  2
HIDDEN
 70
     0
  3
__ __ __ __ __ __ __ __ __ __ __ __ __ __ __ __
 72
    65
 73
     2
 40
0.375
 49
0.25
 74
     0
 49
-0.125
 74
     0
  0
LTYPE
  5
E64
330
5
100
AcDbSymbolTableRecord
100
AcDbLinetypeTableRecord
  2
HIDDEN2
 70
     0
  3
Hidden (.5x) _ _ _ _ _ _ _ _ _ _ _ _ _ _ _ _ _
 72
    65
 73
     2
 40
0.1875
 49
0.125
 74
     0
 49
-0.0625
 74
     0
  0
ENDTAB
  0
TABLE
  2
LAYER
  5
2
330
0
100
AcDbSymbolTable
 70
    11
  0
LAYER
  5
10
330
2
100
AcDbSymbolTableRecord
100
AcDbLayerTableRecord
  2
0
 70
     0
 62
     7
  6
CONTINUOUS
370
    -3
390
F
  0
LAYER
  5
6F
330
2
100
AcDbSymbolTableRecord
100
AcDbLayerTableRecord
  2
TEXT
 70
     0
 62
     1
  6
CONTINUOUS
370
    -3
390
F
  0
LAYER
  5
70
330
2
100
AcDbSymbolTableRecord
100
AcDbLayerTableRecord
  2
TITLE
 70
     0
 62
     8
  6
CONTINUOUS
370
    -3
390
F
  0
LAYER
  5
71
330
2
100
AcDbSymbolTableRecord
100
AcDbLayerTableRecord
  2
DIM
 70
     0
 62
     2
  6
CONTINUOUS
370
    -3
390
F
  0
LAYER
  5
72
330
2
100
AcDbSymbolTableRecord
100
AcDbLayerTableRecord
  2
CENTER
 70
     0
 62
     3
  6
CENTER
370
    -3
390
F
  0
LAYER
  5
73
330
2
100
AcDbSymbolTableRecord
100
AcDbLayerTableRecord
  2
OBJECT
 70
     0
 62
     7
  6
CONTINUOUS
370
    -3
390
F
  0
LAYER
  5
74
330
2
100
AcDbSymbolTableRecord
100
AcDbLayerTableRecord
  2
DEFPOINTS
 70
     0
 62
     7
  6
CONTINUOUS
290
     0
370
    -3
390
F
  0
LAYER
  5
75
330
2
100
AcDbSymbolTableRecord
100
AcDbLayerTableRecord
  2
BEND
 70
     0
 62
     4
  6
PHANTOM
370
    -3
390
F
  0
LAYER
  5
76
330
2
100
AcDbSymbolTableRecord
100
AcDbLayerTableRecord
  2
HIDDEN
 70
     0
 62
     6
  6
HIDDEN
370
    -3
390
F
  0
LAYER
  5
77
330
2
100
AcDbSymbolTableRecord
100
AcDbLayerTableRecord
  2
FRAME
 70
     0
 62
    61
  6
CONTINUOUS
370
    -3
390
F
  0
LAYER
  5
78
330
2
100
AcDbSymbolTableRecord
100
AcDbLayerTableRecord
  2
DOOR
 70
     0
 62
   141
  6
CONTINUOUS
370
    -3
390
F
  0
ENDTAB
  0
TABLE
  2
STYLE
  5
3
330
0
100
AcDbSymbolTable
 70
     2
  0
STYLE
  5
11
330
3
100
AcDbSymbolTableRecord
100
AcDbTextStyleTableRecord
  2
STANDARD
 70
     0
 40
0.0
 41
1.0
 50
0.0
 71
     0
 42
0.18
  3
txt
  4

  0
STYLE
  5
67
330
3
100
AcDbSymbolTableRecord
100
AcDbTextStyleTableRecord
  2
TXT
 70
     0
 40
0.0
 41
0.75
 50
0.0
 71
     0
 42
0.75
  3
txt
  4

  0
ENDTAB
  0
TABLE
  2
VIEW
  5
6
330
0
100
AcDbSymbolTable
 70
     0
  0
ENDTAB
  0
TABLE
  2
UCS
  5
7
330
0
100
AcDbSymbolTable
 70
     0
  0
ENDTAB
  0
TABLE
  2
APPID
  5
9
330
0
100
AcDbSymbolTable
 70
     2
  0
APPID
  5
12
330
9
100
AcDbSymbolTableRecord
100
AcDbRegAppTableRecord
  2
ACAD
 70
     0
  0
APPID
  5
28A1
330
9
100
AcDbSymbolTableRecord
100
AcDbRegAppTableRecord
  2
DCO15
 70
     0
  0
ENDTAB
  0
TABLE
  2
DIMSTYLE
  5
A
330
0
100
AcDbSymbolTable
 70
     2
100
AcDbDimStyleTable
 71
     2
340
6D
340
6E
  0
DIMSTYLE
105
6D
102
{ACAD_REACTORS
330
2156
102
}
330
A
100
AcDbSymbolTableRecord
100
AcDbDimStyleTableRecord
  2
23NSTD
 70
     0
 40
6.0
 42
0.063
 43
0.281
 44
0.093
140
0.125
271
     3
272
     3
289
     1
340
67
  0
DIMSTYLE
105
6E
102
{ACAD_REACTORS
330
2158
330
2154
102
}
330
A
100
AcDbSymbolTableRecord
100
AcDbDimStyleTableRecord
  2
23NSTDI
 70
     0
 40
6.0
 42
0.063
 43
0.281
 44
0.093
140
0.125
174
     1
271
     3
272
     3
340
67
  0
ENDTAB
  0
TABLE
  2
BLOCK_RECORD
  5
1
330
0
100
AcDbSymbolTable
 70
    21
  0
BLOCK_RECORD
  5
1E
330
1
100
AcDbSymbolTableRecord
100
AcDbBlockTableRecord
  2
*Model_Space
340
21
  0
BLOCK_RECORD
  5
1A
330
1
100
AcDbSymbolTableRecord
100
AcDbBlockTableRecord
  2
*Paper_Space
340
1D
  0
BLOCK_RECORD
  5
16B7
330
1
100
AcDbSymbolTableRecord
100
AcDbBlockTableRecord
  2
HB
340
0
102
{BLKREFS
331
179C
102
}
  0
BLOCK_RECORD
  5
1F52
330
1
100
AcDbSymbolTableRecord
100
AcDbBlockTableRecord
  2
*D1
340
0
  0
BLOCK_RECORD
  5
1F5F
330
1
100
AcDbSymbolTableRecord
100
AcDbBlockTableRecord
  2
*D2
340
0
  0
BLOCK_RECORD
  5
1F6C
330
1
100
AcDbSymbolTableRecord
100
AcDbBlockTableRecord
  2
*D3
340
0
  0
BLOCK_RECORD
  5
1F79
330
1
100
AcDbSymbolTableRecord
100
AcDbBlockTableRecord
  2
*D4
340
0
  0
BLOCK_RECORD
  5
1F86
330
1
100
AcDbSymbolTableRecord
100
AcDbBlockTableRecord
  2
*D5
340
0
  0
BLOCK_RECORD
  5
1F93
330
1
100
AcDbSymbolTableRecord
100
AcDbBlockTableRecord
  2
*D6
340
0
  0
BLOCK_RECORD
  5
1FA0
330
1
100
AcDbSymbolTableRecord
100
AcDbBlockTableRecord
  2
*D7
340
0
  0
BLOCK_RECORD
  5
1FAD
330
1
100
AcDbSymbolTableRecord
100
AcDbBlockTableRecord
  2
*D8
340
0
  0
BLOCK_RECORD
  5
1FBA
330
1
100
AcDbSymbolTableRecord
100
AcDbBlockTableRecord
  2
*D9
340
0
  0
BLOCK_RECORD
  5
1FC7
330
1
100
AcDbSymbolTableRecord
100
AcDbBlockTableRecord
  2
*D10
340
0
  0
BLOCK_RECORD
  5
1FD4
330
1
100
AcDbSymbolTableRecord
100
AcDbBlockTableRecord
  2
*D11
340
0
  0
BLOCK_RECORD
  5
1FE1
330
1
100
AcDbSymbolTableRecord
100
AcDbBlockTableRecord
  2
*D12
340
0
  0
BLOCK_RECORD
  5
1FEE
330
1
100
AcDbSymbolTableRecord
100
AcDbBlockTableRecord
  2
*D13
340
0
  0
BLOCK_RECORD
  5
1FFC
330
1
100
AcDbSymbolTableRecord
100
AcDbBlockTableRecord
  2
*D14
340
0
  0
BLOCK_RECORD
  5
2009
330
1
100
AcDbSymbolTableRecord
100
AcDbBlockTableRecord
  2
*D15
340
0
  0
BLOCK_RECORD
  5
2016
330
1
100
AcDbSymbolTableRecord
100
AcDbBlockTableRecord
  2
*D16
340
0
  0
BLOCK_RECORD
  5
2023
330
1
100
AcDbSymbolTableRecord
100
AcDbBlockTableRecord
  2
*D17
340
0
  0
BLOCK_RECORD
  5
2030
330
1
100
AcDbSymbolTableRecord
100
AcDbBlockTableRecord
  2
*D18
340
0
  0
BLOCK_RECORD
  5
203D
330
1
100
AcDbSymbolTableRecord
100
AcDbBlockTableRecord
  2
*D19
340
0
  0
BLOCK_RECORD
  5
204A
330
1
100
AcDbSymbolTableRecord
100
AcDbBlockTableRecord
  2
*D20
340
0
  0
ENDTAB
  0
ENDSEC
  0
SECTION
  2
BLOCKS
  0
BLOCK
  5
7B
330
1E
100
AcDbEntity
  8
0
100
AcDbBlockBegin
  2
*Model_Space
 70
     0
 10
0.0
 20
0.0
 30
0.0
  3
*Model_Space
  1

  0
ENDBLK
  5
7C
330
1E
100
AcDbEntity
  8
0
100
AcDbBlockEnd
  0
BLOCK
  5
79
330
1A
100
AcDbEntity
 67
     1
  8
0
100
AcDbBlockBegin
  2
*Paper_Space
 70
     0
 10
0.0
 20
0.0
 30
0.0
  3
*Paper_Space
  1

  0
ENDBLK
  5
7A
330
1A
100
AcDbEntity
 67
     1
  8
0
100
AcDbBlockEnd
  0
BLOCK
  5
16C9
330
16B7
100
AcDbEntity
  8
0
100
AcDbBlockBegin
  2
HB
 70
     0
 10
0.0
 20
0.0
 30
0.0
  3
HB
  1

  0
TEXT
  5
28A2
330
16B7
100
AcDbEntity
  8
TEXT
100
AcDbText
 10
0.2078333333333363
 20
15.22007919564008
 30
0.0
 40
0.125
  1
NAME
  7
TXT
 72
     1
 11
0.437000000000003
 21
15.22007919564008
 31
0.0
100
AcDbText
  0
TEXT
  5
28A3
330
16B7
100
AcDbEntity
  8
TEXT
100
AcDbText
 10
0.2078333333333363
 20
15.42841252897341
 30
0.0
 40
0.125
  1
PART
  7
TXT
 72
     1
 11
0.437000000000003
 21
15.42841252897341
 31
0.0
100
AcDbText
  0
TEXT
  5
28A4
330
16B7
100
AcDbEntity
  8
TEXT
100
AcDbText
 10
4.561999999999998
 20
15.22007919564008
 30
0.0
 40
0.125
  1
No.
  7
TXT
 72
     1
 11
4.686999999999998
 21
15.22007919564008
 31
0.0
100
AcDbText
  0
TEXT
  5
28A5
330
16B7
100
AcDbEntity
  8
TEXT
100
AcDbText
 10
4.457833333333331
 20
15.42841252897341
 30
0.0
 40
0.125
  1
PART
  7
TXT
 72
     1
 11
4.686999999999998
 21
15.42841252897341
 31
0.0
100
AcDbText
  0
LINE
  5
28A6
330
16B7
100
AcDbEntity
  8
TITLE
100
AcDbLine
 10
5.062000000000002
 20
15.598
 30
0.0
 11
5.062000000000002
 21
15.17999999999999
 31
0.0
  0
LINE
  5
28A7
330
16B7
100
AcDbEntity
  8
TITLE
100
AcDbLine
 10
4.312000000000002
 20
15.598
 30
0.0
 11
4.312000000000002
 21
15.17999999999999
 31
0.0
  0
LINE
  5
28A8
330
16B7
100
AcDbEntity
  8
TITLE
100
AcDbLine
 10
4.25
 20
15.598
 30
0.0
 11
4.25
 21
15.17999999999999
 31
0.0
  0
LINE
  5
28A9
330
16B7
100
AcDbEntity
  8
TITLE
100
AcDbLine
 10
0.8120000000000029
 20
15.17999999999999
 30
0.0
 11
0.8120000000000011
 21
15.598
 31
0.0
  0
LINE
  5
28AA
330
16B7
100
AcDbEntity
  8
TITLE
100
AcDbLine
 10
0.0620000000000012
 20
15.17999999999999
 30
0.0
 11
10.538
 21
15.17999999999999
 31
0.0
  0
LINE
  5
28AB
330
16B7
100
AcDbEntity
  8
TITLE
100
AcDbLine
 10
10.538
 20
0.0619999999999994
 30
0.0
 11
0.0619999999999976
 21
0.0620000000000012
 31
0.0
  0
LINE
  5
28AC
330
16B7
100
AcDbEntity
  8
TITLE
100
AcDbLine
 10
10.538
 20
15.598
 30
0.0
 11
10.538
 21
0.0619999999999994
 31
0.0
  0
LINE
  5
28AD
330
16B7
100
AcDbEntity
  8
TITLE
100
AcDbLine
 10
0.0620000000000012
 20
15.598
 30
0.0
 11
10.538
 21
15.598
 31
0.0
  0
LINE
  5
28AE
330
16B7
100
AcDbEntity
  8
TITLE
100
AcDbLine
 10
0.0619999999999976
 20
0.0620000000000012
 30
0.0
 11
0.0620000000000012
 21
15.598
 31
0.0
  0
LINE
  5
28AF
330
16B7
100
AcDbEntity
  8
TITLE
100
AcDbLine
 10
0.0
 20
0.0
 30
0.0
 11
0.0
 21
15.66
 31
0.0
  0
LINE
  5
28B0
330
16B7
100
AcDbEntity
  8
TITLE
100
AcDbLine
 10
10.6
 20
-0.0000000000000018
 30
0.0
 11
0.0
 21
0.0
 31
0.0
  0
LINE
  5
28B1
330
16B7
100
AcDbEntity
  8
TITLE
100
AcDbLine
 10
10.6
 20
15.65999999999999
 30
0.0
 11
10.6
 21
-0.0000000000000018
 31
0.0
  0
LINE
  5
28B2
330
16B7
100
AcDbEntity
  8
TITLE
100
AcDbLine
 10
0.0
 20
15.66
 30
0.0
 11
10.6
 21
15.65999999999999
 31
0.0
  0
LINE
  5
28B3
330
16B7
100
AcDbEntity
  8
TITLE
100
AcDbLine
 10
8.500025722444004
 20
15.598
 30
0.0
 11
8.500025722444004
 21
15.17999999999999
 31
0.0
  0
TEXT
  5
28B4
330
16B7
100
AcDbEntity
  8
TEXT
100
AcDbText
 10
8.728692389110667
 20
15.42841252897341
 30
0.0
 40
0.125
  1
REV.
  7
TXT
 72
     1
 11
8.937025722444001
 21
15.42841252897341
 31
0.0
100
AcDbText
  0
TEXT
  5
28B5
330
16B7
100
AcDbEntity
  8
TEXT
100
AcDbText
 10
8.707859055777335
 20
15.22007919564008
 30
0.0
 40
0.125
  1
DATE
  7
TXT
 72
     1
 11
8.937025722444001
 21
15.22007919564008
 31
0.0
100
AcDbText
  0
LINE
  5
28B6
330
16B7
100
AcDbEntity
  8
TITLE
100
AcDbLine
 10
8.562025722444005
 20
15.598
 30
0.0
 11
8.562025722444005
 21
15.17999999999999
 31
0.0
  0
LINE
  5
28B7
330
16B7
100
AcDbEntity
  8
TITLE
100
AcDbLine
 10
9.312025722444005
 20
15.598
 30
0.0
 11
9.312025722444005
 21
15.17999999999999
 31
0.0
  0
ENDBLK
  5
16CA
330
16B7
100
AcDbEntity
  8
0
100
AcDbBlockEnd
  0
BLOCK
  5
1F5D
330
1F52
100
AcDbEntity
  8
0
100
AcDbBlockBegin
  2
*D1
 70
     1
 10
0.0
 20
0.0
 30
0.0
  3
*D1
  1

  0
LINE
  5
2862
330
1F52
100
AcDbEntity
  8
DIM
 62
     0
370
    -2
100
AcDbLine
 10
27.47336787803188
 20
61.70281001401967
 30
0.0
 11
35.74180220833739
 21
61.70281001401967
 31
0.0
  0
LINE
  5
2863
330
1F52
100
AcDbEntity
  8
DIM
 62
     0
370
    -2
100
AcDbLine
 10
28.09836787803188
 20
63.31206001401962
 30
0.0
 11
35.74180220833739
 21
63.31206001401962
 31
0.0
  0
LINE
  5
2864
330
1F52
100
AcDbEntity
  8
DIM
 62
     0
370
    -2
100
AcDbLine
 10
35.18380220833739
 20
60.62281001401967
 30
0.0
 11
35.18380220833739
 21
59.54281001401967
 31
0.0
  0
LINE
  5
2865
330
1F52
100
AcDbEntity
  8
DIM
 62
     0
370
    -2
100
AcDbLine
 10
35.18380220833739
 20
64.39206001401962
 30
0.0
 11
35.18380220833739
 21
65.47206001401962
 31
0.0
  0
SOLID
  5
2866
330
1F52
100
AcDbEntity
  8
DIM
 62
     0
100
AcDbTrace
 10
35.0038022083374
 20
60.62281001401967
 30
0.0
 11
35.3638022083374
 21
60.62281001401967
 31
0.0
 12
35.18380220833739
 22
61.70281001401967
 32
0.0
 13
35.18380220833739
 23
61.70281001401967
 33
0.0
  0
SOLID
  5
2867
330
1F52
100
AcDbEntity
  8
DIM
 62
     0
100
AcDbTrace
 10
35.0038022083374
 20
64.39206001401962
 30
0.0
 11
35.3638022083374
 21
64.39206001401962
 31
0.0
 12
35.18380220833739
 22
63.31206001401962
 32
0.0
 13
35.18380220833739
 23
63.31206001401962
 33
0.0
  0
MTEXT
  5
2868
330
1F52
100
AcDbEntity
  8
DIM
 62
     0
100
AcDbMText
 10
35.18380220833739
 20
62.50743501401966
 30
0.0
 40
0.75
 41
0.0
 71
     5
 72
     1
  1
\A1;1.609
  7
TXT
 73
     1
 44
1.0
  0
POINT
  5
2869
330
1F52
100
AcDbEntity
  8
DEFPOINTS
 62
     0
100
AcDbPoint
 10
27.09536787803187
 20
61.70281001401967
 30
0.0
  0
POINT
  5
286A
330
1F52
100
AcDbEntity
  8
DEFPOINTS
 62
     0
100
AcDbPoint
 10
27.72036787803187
 20
63.31206001401962
 30
0.0
  0
POINT
  5
286B
330
1F52
100
AcDbEntity
  8
DEFPOINTS
 62
     0
100
AcDbPoint
 10
35.18380220833739
 20
63.31206001401962
 30
0.0
  0
ENDBLK
  5
1F5E
330
1F52
100
AcDbEntity
  8
0
100
AcDbBlockEnd
  0
BLOCK
  5
1F6A
330
1F5F
100
AcDbEntity
  8
0
100
AcDbBlockBegin
  2
*D2
 70
     1
 10
0.0
 20
0.0
 30
0.0
  3
*D2
  1

  0
LINE
  5
281C
330
1F5F
100
AcDbEntity
  8
DIM
 62
     0
370
    -2
100
AcDbLine
 10
27.47336787803188
 20
26.64081001401968
 30
0.0
 11
35.74180220833739
 21
26.64081001401968
 31
0.0
  0
LINE
  5
281D
330
1F5F
100
AcDbEntity
  8
DIM
 62
     0
370
    -2
100
AcDbLine
 10
28.09836787803188
 20
25.03156001401967
 30
0.0
 11
35.74180220833739
 21
25.03156001401967
 31
0.0
  0
LINE
  5
281E
330
1F5F
100
AcDbEntity
  8
DIM
 62
     0
370
    -2
100
AcDbLine
 10
35.18380220833739
 20
27.72081001401968
 30
0.0
 11
35.18380220833739
 21
28.80081001401968
 31
0.0
  0
LINE
  5
281F
330
1F5F
100
AcDbEntity
  8
DIM
 62
     0
370
    -2
100
AcDbLine
 10
35.18380220833739
 20
23.95156001401967
 30
0.0
 11
35.18380220833739
 21
22.87156001401967
 31
0.0
  0
SOLID
  5
2820
330
1F5F
100
AcDbEntity
  8
DIM
 62
     0
100
AcDbTrace
 10
35.0038022083374
 20
27.72081001401968
 30
0.0
 11
35.3638022083374
 21
27.72081001401968
 31
0.0
 12
35.18380220833739
 22
26.64081001401968
 32
0.0
 13
35.18380220833739
 23
26.64081001401968
 33
0.0
  0
SOLID
  5
2821
330
1F5F
100
AcDbEntity
  8
DIM
 62
     0
100
AcDbTrace
 10
35.0038022083374
 20
23.95156001401967
 30
0.0
 11
35.3638022083374
 21
23.95156001401967
 31
0.0
 12
35.18380220833739
 22
25.03156001401967
 32
0.0
 13
35.18380220833739
 23
25.03156001401967
 33
0.0
  0
MTEXT
  5
2822
330
1F5F
100
AcDbEntity
  8
DIM
 62
     0
100
AcDbMText
 10
35.18380220833739
 20
25.83618501401968
 30
0.0
 40
0.75
 41
0.0
 71
     5
 72
     1
  1
\A1;1.609
  7
TXT
 73
     1
 44
1.0
  0
POINT
  5
2823
330
1F5F
100
AcDbEntity
  8
DEFPOINTS
 62
     0
100
AcDbPoint
 10
27.09536787803187
 20
26.64081001401968
 30
0.0
  0
POINT
  5
2824
330
1F5F
100
AcDbEntity
  8
DEFPOINTS
 62
     0
100
AcDbPoint
 10
27.72036787803187
 20
25.03156001401967
 30
0.0
  0
POINT
  5
2825
330
1F5F
100
AcDbEntity
  8
DEFPOINTS
 62
     0
100
AcDbPoint
 10
35.18380220833739
 20
25.03156001401967
 30
0.0
  0
ENDBLK
  5
1F6B
330
1F5F
100
AcDbEntity
  8
0
100
AcDbBlockEnd
  0
BLOCK
  5
1F77
330
1F6C
100
AcDbEntity
  8
0
100
AcDbBlockBegin
  2
*D3
 70
     1
 10
0.0
 20
0.0
 30
0.0
  3
*D3
  1

  0
LINE
  5
27E0
330
1F6C
100
AcDbEntity
  8
DIM
 62
     0
370
    -2
100
AcDbLine
 10
27.47336787803188
 20
26.64081001401968
 30
0.0
 11
35.74180220833738
 21
26.64081001401968
 31
0.0
  0
LINE
  5
27E1
330
1F6C
100
AcDbEntity
  8
DIM
 62
     0
370
    -2
100
AcDbLine
 10
27.47336787803188
 20
61.70281001401967
 30
0.0
 11
35.74180220833739
 21
61.70281001401967
 31
0.0
  0
LINE
  5
27E2
330
1F6C
100
AcDbEntity
  8
DIM
 62
     0
370
    -2
100
AcDbLine
 10
35.18380220833739
 20
27.72081001401968
 30
0.0
 11
35.18380220833739
 21
43.25681001401967
 31
0.0
  0
LINE
  5
27E3
330
1F6C
100
AcDbEntity
  8
DIM
 62
     0
370
    -2
100
AcDbLine
 10
35.18380220833739
 20
60.62281001401967
 30
0.0
 11
35.18380220833739
 21
45.08681001401967
 31
0.0
  0
SOLID
  5
27E4
330
1F6C
100
AcDbEntity
  8
DIM
 62
     0
100
AcDbTrace
 10
35.00380220833739
 20
27.72081001401968
 30
0.0
 11
35.36380220833739
 21
27.72081001401968
 31
0.0
 12
35.18380220833739
 22
26.64081001401968
 32
0.0
 13
35.18380220833739
 23
26.64081001401968
 33
0.0
  0
SOLID
  5
27E5
330
1F6C
100
AcDbEntity
  8
DIM
 62
     0
100
AcDbTrace
 10
35.0038022083374
 20
60.62281001401967
 30
0.0
 11
35.3638022083374
 21
60.62281001401967
 31
0.0
 12
35.18380220833739
 22
61.70281001401967
 32
0.0
 13
35.18380220833739
 23
61.70281001401967
 33
0.0
  0
MTEXT
  5
27E6
330
1F6C
100
AcDbEntity
  8
DIM
 62
     0
100
AcDbMText
 10
35.18380220833738
 20
44.17181001401968
 30
0.0
 40
0.75
 41
0.0
 71
     5
 72
     1
  1
\A1;B %%p0.031
  7
TXT
 73
     1
 44
1.0
  0
POINT
  5
27E7
330
1F6C
100
AcDbEntity
  8
DEFPOINTS
 62
     0
100
AcDbPoint
 10
27.09536787803187
 20
26.64081001401968
 30
0.0
  0
POINT
  5
27E8
330
1F6C
100
AcDbEntity
  8
DEFPOINTS
 62
     0
100
AcDbPoint
 10
27.09536787803187
 20
61.70281001401967
 30
0.0
  0
POINT
  5
27E9
330
1F6C
100
AcDbEntity
  8
DEFPOINTS
 62
     0
100
AcDbPoint
 10
35.18380220833739
 20
61.70281001401967
 30
0.0
  0
ENDBLK
  5
1F78
330
1F6C
100
AcDbEntity
  8
0
100
AcDbBlockEnd
  0
BLOCK
  5
1F84
330
1F79
100
AcDbEntity
  8
0
100
AcDbBlockBegin
  2
*D4
 70
     1
 10
0.0
 20
0.0
 30
0.0
  3
*D4
  1

  0
LINE
  5
27EA
330
1F79
100
AcDbEntity
  8
DIM
 62
     0
370
    -2
100
AcDbLine
 10
28.09836787803188
 20
25.03156001401967
 30
0.0
 11
40.64218076411822
 21
25.03156001401967
 31
0.0
  0
LINE
  5
27EB
330
1F79
100
AcDbEntity
  8
DIM
 62
     0
370
    -2
100
AcDbLine
 10
28.09836787803188
 20
63.31206001401962
 30
0.0
 11
40.64218076411822
 21
63.31206001401962
 31
0.0
  0
LINE
  5
27EC
330
1F79
100
AcDbEntity
  8
DIM
 62
     0
370
    -2
100
AcDbLine
 10
40.08418076411822
 20
26.11156001401967
 30
0.0
 11
40.08418076411822
 21
43.25681001401965
 31
0.0
  0
LINE
  5
27ED
330
1F79
100
AcDbEntity
  8
DIM
 62
     0
370
    -2
100
AcDbLine
 10
40.08418076411823
 20
62.23206001401962
 30
0.0
 11
40.08418076411822
 21
45.08681001401964
 31
0.0
  0
SOLID
  5
27EE
330
1F79
100
AcDbEntity
  8
DIM
 62
     0
100
AcDbTrace
 10
39.90418076411822
 20
26.11156001401967
 30
0.0
 11
40.26418076411822
 21
26.11156001401967
 31
0.0
 12
40.08418076411822
 22
25.03156001401967
 32
0.0
 13
40.08418076411822
 23
25.03156001401967
 33
0.0
  0
SOLID
  5
27EF
330
1F79
100
AcDbEntity
  8
DIM
 62
     0
100
AcDbTrace
 10
39.90418076411823
 20
62.23206001401962
 30
0.0
 11
40.26418076411823
 21
62.23206001401962
 31
0.0
 12
40.08418076411823
 22
63.31206001401962
 32
0.0
 13
40.08418076411823
 23
63.31206001401962
 33
0.0
  0
MTEXT
  5
27F0
330
1F79
100
AcDbEntity
  8
DIM
 62
     0
100
AcDbMText
 10
40.08418076411821
 20
44.17181001401965
 30
0.0
 40
0.75
 41
0.0
 71
     5
 72
     1
  1
\A1;A %%p0.062
  7
TXT
 73
     1
 44
1.0
  0
POINT
  5
27F1
330
1F79
100
AcDbEntity
  8
DEFPOINTS
 62
     0
100
AcDbPoint
 10
27.72036787803187
 20
25.03156001401967
 30
0.0
  0
POINT
  5
27F2
330
1F79
100
AcDbEntity
  8
DEFPOINTS
 62
     0
100
AcDbPoint
 10
27.72036787803187
 20
63.31206001401962
 30
0.0
  0
POINT
  5
27F3
330
1F79
100
AcDbEntity
  8
DEFPOINTS
 62
     0
100
AcDbPoint
 10
40.08418076411823
 20
63.31206001401962
 30
0.0
  0
ENDBLK
  5
1F85
330
1F79
100
AcDbEntity
  8
0
100
AcDbBlockEnd
  0
BLOCK
  5
1F91
330
1F86
100
AcDbEntity
  8
0
100
AcDbBlockBegin
  2
*D5
 70
     1
 10
0.0
 20
0.0
 30
0.0
  3
*D5
  1

  0
LINE
  5
292A
330
1F86
100
AcDbEntity
  8
DIM
 62
     0
370
    -2
100
AcDbLine
 10
27.47336787803188
 20
62.67181001401969
 30
0.0
 11
30.98315593405418
 21
62.67181001401969
 31
0.0
  0
LINE
  5
292B
330
1F86
100
AcDbEntity
  8
DIM
 62
     0
370
    -2
100
AcDbLine
 10
27.47336787803188
 20
25.67181001401968
 30
0.0
 11
30.98315593405417
 21
25.67181001401968
 31
0.0
  0
LINE
  5
292C
330
1F86
100
AcDbEntity
  8
DIM
 62
     0
370
    -2
100
AcDbLine
 10
30.42515593405418
 20
61.59181001401968
 30
0.0
 11
30.42515593405417
 21
45.08681001401968
 31
0.0
  0
LINE
  5
292D
330
1F86
100
AcDbEntity
  8
DIM
 62
     0
370
    -2
100
AcDbLine
 10
30.42515593405417
 20
26.75181001401968
 30
0.0
 11
30.42515593405417
 21
43.25681001401968
 31
0.0
  0
SOLID
  5
292E
330
1F86
100
AcDbEntity
  8
DIM
 62
     0
100
AcDbTrace
 10
30.24515593405418
 20
61.59181001401968
 30
0.0
 11
30.60515593405418
 21
61.59181001401968
 31
0.0
 12
30.42515593405418
 22
62.67181001401969
 32
0.0
 13
30.42515593405418
 23
62.67181001401969
 33
0.0
  0
SOLID
  5
292F
330
1F86
100
AcDbEntity
  8
DIM
 62
     0
100
AcDbTrace
 10
30.24515593405417
 20
26.75181001401968
 30
0.0
 11
30.60515593405417
 21
26.75181001401968
 31
0.0
 12
30.42515593405417
 22
25.67181001401968
 32
0.0
 13
30.42515593405417
 23
25.67181001401968
 33
0.0
  0
MTEXT
  5
2930
330
1F86
100
AcDbEntity
  8
DIM
 62
     0
100
AcDbMText
 10
30.42515593405417
 20
44.17181001401969
 30
0.0
 40
0.75
 41
0.0
 71
     5
 72
     1
  1
\A1;C
  7
TXT
 73
     1
 44
1.0
  0
POINT
  5
2931
330
1F86
100
AcDbEntity
  8
DEFPOINTS
 62
     0
100
AcDbPoint
 10
27.09536787803187
 20
62.67181001401969
 30
0.0
  0
POINT
  5
2932
330
1F86
100
AcDbEntity
  8
DEFPOINTS
 62
     0
100
AcDbPoint
 10
27.09536787803187
 20
25.67181001401968
 30
0.0
  0
POINT
  5
2933
330
1F86
100
AcDbEntity
  8
DEFPOINTS
 62
     0
100
AcDbPoint
 10
30.42515593405417
 20
25.67181001401968
 30
0.0
  0
ENDBLK
  5
1F92
330
1F86
100
AcDbEntity
  8
0
100
AcDbBlockEnd
  0
BLOCK
  5
1F9E
330
1F93
100
AcDbEntity
  8
0
100
AcDbBlockBegin
  2
*D6
 70
     1
 10
0.0
 20
0.0
 30
0.0
  3
*D6
  1

  0
LINE
  5
2858
330
1F93
100
AcDbEntity
  8
DIM
 62
     0
370
    -2
100
AcDbLine
 10
8.717367878031893
 20
60.67181001401968
 30
0.0
 11
3.03729797074791
 21
60.67181001401968
 31
0.0
  0
LINE
  5
2859
330
1F93
100
AcDbEntity
  8
DIM
 62
     0
370
    -2
100
AcDbLine
 10
8.717367878031879
 20
49.67181001401968
 30
0.0
 11
3.037297970747907
 21
49.67181001401968
 31
0.0
  0
LINE
  5
285A
330
1F93
100
AcDbEntity
  8
DIM
 62
     0
370
    -2
100
AcDbLine
 10
3.595297970747909
 20
59.59181001401969
 30
0.0
 11
3.595297970747908
 21
56.08681001401969
 31
0.0
  0
LINE
  5
285B
330
1F93
100
AcDbEntity
  8
DIM
 62
     0
370
    -2
100
AcDbLine
 10
3.595297970747907
 20
50.75181001401968
 30
0.0
 11
3.595297970747908
 21
54.25681001401969
 31
0.0
  0
SOLID
  5
285C
330
1F93
100
AcDbEntity
  8
DIM
 62
     0
100
AcDbTrace
 10
3.415297970747909
 20
59.59181001401969
 30
0.0
 11
3.775297970747909
 21
59.59181001401969
 31
0.0
 12
3.595297970747909
 22
60.67181001401968
 32
0.0
 13
3.595297970747909
 23
60.67181001401968
 33
0.0
  0
SOLID
  5
285D
330
1F93
100
AcDbEntity
  8
DIM
 62
     0
100
AcDbTrace
 10
3.415297970747907
 20
50.75181001401968
 30
0.0
 11
3.775297970747907
 21
50.75181001401968
 31
0.0
 12
3.595297970747907
 22
49.67181001401968
 32
0.0
 13
3.595297970747907
 23
49.67181001401968
 33
0.0
  0
MTEXT
  5
285E
330
1F93
100
AcDbEntity
  8
DIM
 62
     0
100
AcDbMText
 10
3.595297970747899
 20
55.17181001401969
 30
0.0
 40
0.75
 41
0.0
 71
     5
 72
     1
  1
\A1;D
  7
TXT
 73
     1
 44
1.0
  0
POINT
  5
285F
330
1F93
100
AcDbEntity
  8
DEFPOINTS
 62
     0
100
AcDbPoint
 10
9.095367878031893
 20
60.67181001401968
 30
0.0
  0
POINT
  5
2860
330
1F93
100
AcDbEntity
  8
DEFPOINTS
 62
     0
100
AcDbPoint
 10
9.095367878031879
 20
49.67181001401968
 30
0.0
  0
POINT
  5
2861
330
1F93
100
AcDbEntity
  8
DEFPOINTS
 62
     0
100
AcDbPoint
 10
3.595297970747907
 20
49.67181001401968
 30
0.0
  0
ENDBLK
  5
1F9F
330
1F93
100
AcDbEntity
  8
0
100
AcDbBlockEnd
  0
BLOCK
  5
1FAB
330
1FA0
100
AcDbEntity
  8
0
100
AcDbBlockBegin
  2
*D7
 70
     1
 10
0.0
 20
0.0
 30
0.0
  3
*D7
  1

  0
LINE
  5
2826
330
1FA0
100
AcDbEntity
  8
DIM
 62
     0
370
    -2
100
AcDbLine
 10
9.095367878031879
 20
50.04981001401969
 30
0.0
 11
9.095367878031879
 21
51.72391639771876
 31
0.0
  0
LINE
  5
2827
330
1FA0
100
AcDbEntity
  8
DIM
 62
     0
370
    -2
100
AcDbLine
 10
25.09536787803188
 20
50.04981001401969
 30
0.0
 11
25.09536787803188
 21
51.72391639771876
 31
0.0
  0
LINE
  5
2828
330
1FA0
100
AcDbEntity
  8
DIM
 62
     0
370
    -2
100
AcDbLine
 10
10.17536787803188
 20
51.16591639771876
 30
0.0
 11
15.38349287803188
 21
51.16591639771876
 31
0.0
  0
LINE
  5
2829
330
1FA0
100
AcDbEntity
  8
DIM
 62
     0
370
    -2
100
AcDbLine
 10
24.01536787803188
 20
51.16591639771876
 30
0.0
 11
18.80724287803188
 21
51.16591639771876
 31
0.0
  0
SOLID
  5
282A
330
1FA0
100
AcDbEntity
  8
DIM
 62
     0
100
AcDbTrace
 10
10.17536787803188
 20
51.34591639771876
 30
0.0
 11
10.17536787803188
 21
50.98591639771876
 31
0.0
 12
9.095367878031879
 22
51.16591639771876
 32
0.0
 13
9.095367878031879
 23
51.16591639771876
 33
0.0
  0
SOLID
  5
282B
330
1FA0
100
AcDbEntity
  8
DIM
 62
     0
100
AcDbTrace
 10
24.01536787803188
 20
51.34591639771876
 30
0.0
 11
24.01536787803188
 21
50.98591639771876
 31
0.0
 12
25.09536787803188
 22
51.16591639771876
 32
0.0
 13
25.09536787803188
 23
51.16591639771876
 33
0.0
  0
MTEXT
  5
282C
330
1FA0
100
AcDbEntity
  8
DIM
 62
     0
100
AcDbMText
 10
17.09536787803187
 20
51.16591639771876
 30
0.0
 40
0.75
 41
0.0
 71
     5
 72
     1
  1
\A1;16.000
  7
TXT
 73
     1
 44
1.0
  0
POINT
  5
282D
330
1FA0
100
AcDbEntity
  8
DEFPOINTS
 62
     0
100
AcDbPoint
 10
9.095367878031879
 20
49.67181001401968
 30
0.0
  0
POINT
  5
282E
330
1FA0
100
AcDbEntity
  8
DEFPOINTS
 62
     0
100
AcDbPoint
 10
25.09536787803188
 20
49.67181001401968
 30
0.0
  0
POINT
  5
282F
330
1FA0
100
AcDbEntity
  8
DEFPOINTS
 62
     0
100
AcDbPoint
 10
25.09536787803188
 20
51.16591639771876
 30
0.0
  0
ENDBLK
  5
1FAC
330
1FA0
100
AcDbEntity
  8
0
100
AcDbBlockEnd
  0
BLOCK
  5
1FB8
330
1FAD
100
AcDbEntity
  8
0
100
AcDbBlockBegin
  2
*D8
 70
     1
 10
0.0
 20
0.0
 30
0.0
  3
*D8
  1

  0
LINE
  5
2812
330
1FAD
100
AcDbEntity
  8
DIM
 62
     0
370
    -2
100
AcDbLine
 10
8.717367878031893
 20
27.67181001401968
 30
0.0
 11
3.037297970747908
 21
27.67181001401968
 31
0.0
  0
LINE
  5
2813
330
1FAD
100
AcDbEntity
  8
DIM
 62
     0
370
    -2
100
AcDbLine
 10
6.092367878031893
 20
25.03156001401967
 30
0.0
 11
3.037297970747907
 21
25.03156001401967
 31
0.0
  0
LINE
  5
2814
330
1FAD
100
AcDbEntity
  8
DIM
 62
     0
370
    -2
100
AcDbLine
 10
3.595297970747907
 20
28.75181001401968
 30
0.0
 11
3.595297970747908
 21
29.83181001401968
 31
0.0
  0
LINE
  5
2815
330
1FAD
100
AcDbEntity
  8
DIM
 62
     0
370
    -2
100
AcDbLine
 10
3.595297970747906
 20
23.95156001401967
 30
0.0
 11
3.595297970747906
 21
22.87156001401967
 31
0.0
  0
SOLID
  5
2816
330
1FAD
100
AcDbEntity
  8
DIM
 62
     0
100
AcDbTrace
 10
3.415297970747907
 20
28.75181001401968
 30
0.0
 11
3.775297970747907
 21
28.75181001401968
 31
0.0
 12
3.595297970747907
 22
27.67181001401968
 32
0.0
 13
3.595297970747907
 23
27.67181001401968
 33
0.0
  0
SOLID
  5
2817
330
1FAD
100
AcDbEntity
  8
DIM
 62
     0
100
AcDbTrace
 10
3.415297970747906
 20
23.95156001401967
 30
0.0
 11
3.775297970747907
 21
23.95156001401967
 31
0.0
 12
3.595297970747907
 22
25.03156001401967
 32
0.0
 13
3.595297970747907
 23
25.03156001401967
 33
0.0
  0
MTEXT
  5
2818
330
1FAD
100
AcDbEntity
  8
DIM
 62
     0
100
AcDbMText
 10
3.595297970747903
 20
26.35168501401968
 30
0.0
 40
0.75
 41
0.0
 71
     5
 72
     1
  1
\A1;E
  7
TXT
 73
     1
 44
1.0
  0
POINT
  5
2819
330
1FAD
100
AcDbEntity
  8
DEFPOINTS
 62
     0
100
AcDbPoint
 10
9.095367878031893
 20
27.67181001401968
 30
0.0
  0
POINT
  5
281A
330
1FAD
100
AcDbEntity
  8
DEFPOINTS
 62
     0
100
AcDbPoint
 10
6.470367878031893
 20
25.03156001401967
 30
0.0
  0
POINT
  5
281B
330
1FAD
100
AcDbEntity
  8
DEFPOINTS
 62
     0
100
AcDbPoint
 10
3.595297970747907
 20
25.03156001401967
 30
0.0
  0
ENDBLK
  5
1FB9
330
1FAD
100
AcDbEntity
  8
0
100
AcDbBlockEnd
  0
BLOCK
  5
1FC5
330
1FBA
100
AcDbEntity
  8
0
100
AcDbBlockBegin
  2
*D9
 70
     1
 10
0.0
 20
0.0
 30
0.0
  3
*D9
  1

  0
LINE
  5
2808
330
1FBA
100
AcDbEntity
  8
DIM
 62
     0
370
    -2
100
AcDbLine
 10
8.717367878031879
 20
38.67181001401968
 30
0.0
 11
3.037297970747909
 21
38.67181001401968
 31
0.0
  0
LINE
  5
2809
330
1FBA
100
AcDbEntity
  8
DIM
 62
     0
370
    -2
100
AcDbLine
 10
8.717367878031893
 20
27.67181001401968
 30
0.0
 11
3.037297970747907
 21
27.67181001401968
 31
0.0
  0
LINE
  5
280A
330
1FBA
100
AcDbEntity
  8
DIM
 62
     0
370
    -2
100
AcDbLine
 10
3.595297970747909
 20
37.59181001401968
 30
0.0
 11
3.595297970747908
 21
34.08681001401968
 31
0.0
  0
LINE
  5
280B
330
1FBA
100
AcDbEntity
  8
DIM
 62
     0
370
    -2
100
AcDbLine
 10
3.595297970747907
 20
28.75181001401968
 30
0.0
 11
3.595297970747908
 21
32.25681001401968
 31
0.0
  0
SOLID
  5
280C
330
1FBA
100
AcDbEntity
  8
DIM
 62
     0
100
AcDbTrace
 10
3.415297970747909
 20
37.59181001401968
 30
0.0
 11
3.775297970747909
 21
37.59181001401968
 31
0.0
 12
3.595297970747909
 22
38.67181001401968
 32
0.0
 13
3.595297970747909
 23
38.67181001401968
 33
0.0
  0
SOLID
  5
280D
330
1FBA
100
AcDbEntity
  8
DIM
 62
     0
100
AcDbTrace
 10
3.415297970747907
 20
28.75181001401968
 30
0.0
 11
3.775297970747907
 21
28.75181001401968
 31
0.0
 12
3.595297970747907
 22
27.67181001401968
 32
0.0
 13
3.595297970747907
 23
27.67181001401968
 33
0.0
  0
MTEXT
  5
280E
330
1FBA
100
AcDbEntity
  8
DIM
 62
     0
100
AcDbMText
 10
3.595297970747903
 20
33.17181001401968
 30
0.0
 40
0.75
 41
0.0
 71
     5
 72
     1
  1
\A1;D
  7
TXT
 73
     1
 44
1.0
  0
POINT
  5
280F
330
1FBA
100
AcDbEntity
  8
DEFPOINTS
 62
     0
100
AcDbPoint
 10
9.095367878031879
 20
38.67181001401968
 30
0.0
  0
POINT
  5
2810
330
1FBA
100
AcDbEntity
  8
DEFPOINTS
 62
     0
100
AcDbPoint
 10
9.095367878031893
 20
27.67181001401968
 30
0.0
  0
POINT
  5
2811
330
1FBA
100
AcDbEntity
  8
DEFPOINTS
 62
     0
100
AcDbPoint
 10
3.595297970747907
 20
27.67181001401968
 30
0.0
  0
ENDBLK
  5
1FC6
330
1FBA
100
AcDbEntity
  8
0
100
AcDbBlockEnd
  0
BLOCK
  5
1FD2
330
1FC7
100
AcDbEntity
  8
0
100
AcDbBlockBegin
  2
*D10
 70
     1
 10
0.0
 20
0.0
 30
0.0
  3
*D10
  1

  0
LINE
  5
27CC
330
1FC7
100
AcDbEntity
  8
DIM
 62
     0
370
    -2
100
AcDbLine
 10
8.717367878031879
 20
49.67181001401968
 30
0.0
 11
3.037297970747909
 21
49.67181001401968
 31
0.0
  0
LINE
  5
27CD
330
1FC7
100
AcDbEntity
  8
DIM
 62
     0
370
    -2
100
AcDbLine
 10
8.717367878031879
 20
38.67181001401968
 30
0.0
 11
3.037297970747907
 21
38.67181001401968
 31
0.0
  0
LINE
  5
27CE
330
1FC7
100
AcDbEntity
  8
DIM
 62
     0
370
    -2
100
AcDbLine
 10
3.595297970747909
 20
48.59181001401968
 30
0.0
 11
3.595297970747909
 21
45.08681001401968
 31
0.0
  0
LINE
  5
27CF
330
1FC7
100
AcDbEntity
  8
DIM
 62
     0
370
    -2
100
AcDbLine
 10
3.595297970747907
 20
39.75181001401968
 30
0.0
 11
3.595297970747908
 21
43.25681001401968
 31
0.0
  0
SOLID
  5
27D0
330
1FC7
100
AcDbEntity
  8
DIM
 62
     0
100
AcDbTrace
 10
3.415297970747909
 20
48.59181001401968
 30
0.0
 11
3.775297970747909
 21
48.59181001401968
 31
0.0
 12
3.59529797074791
 22
49.67181001401968
 32
0.0
 13
3.59529797074791
 23
49.67181001401968
 33
0.0
  0
SOLID
  5
27D1
330
1FC7
100
AcDbEntity
  8
DIM
 62
     0
100
AcDbTrace
 10
3.415297970747907
 20
39.75181001401968
 30
0.0
 11
3.775297970747907
 21
39.75181001401968
 31
0.0
 12
3.595297970747907
 22
38.67181001401968
 32
0.0
 13
3.595297970747907
 23
38.67181001401968
 33
0.0
  0
MTEXT
  5
27D2
330
1FC7
100
AcDbEntity
  8
DIM
 62
     0
100
AcDbMText
 10
3.595297970747901
 20
44.17181001401968
 30
0.0
 40
0.75
 41
0.0
 71
     5
 72
     1
  1
\A1;D
  7
TXT
 73
     1
 44
1.0
  0
POINT
  5
27D3
330
1FC7
100
AcDbEntity
  8
DEFPOINTS
 62
     0
100
AcDbPoint
 10
9.095367878031879
 20
49.67181001401968
 30
0.0
  0
POINT
  5
27D4
330
1FC7
100
AcDbEntity
  8
DEFPOINTS
 62
     0
100
AcDbPoint
 10
9.095367878031879
 20
38.67181001401968
 30
0.0
  0
POINT
  5
27D5
330
1FC7
100
AcDbEntity
  8
DEFPOINTS
 62
     0
100
AcDbPoint
 10
3.595297970747907
 20
38.67181001401968
 30
0.0
  0
ENDBLK
  5
1FD3
330
1FC7
100
AcDbEntity
  8
0
100
AcDbBlockEnd
  0
BLOCK
  5
1FDF
330
1FD4
100
AcDbEntity
  8
0
100
AcDbBlockBegin
  2
*D11
 70
     1
 10
0.0
 20
0.0
 30
0.0
  3
*D11
  1

  0
LINE
  5
27F4
330
1FD4
100
AcDbEntity
  8
DIM
 62
     0
370
    -2
100
AcDbLine
 10
7.939367878031902
 20
41.30769185344348
 30
0.0
 11
7.939367878031902
 21
42.22119185344348
 31
0.0
  0
LINE
  5
27F5
330
1FD4
100
AcDbEntity
  8
DIM
 62
     0
370
    -2
100
AcDbLine
 10
26.25136787803188
 20
41.30769185344348
 30
0.0
 11
26.25136787803188
 21
42.22119185344348
 31
0.0
  0
LINE
  5
27F6
330
1FD4
100
AcDbEntity
  8
DIM
 62
     0
370
    -2
100
AcDbLine
 10
9.019367878031902
 20
41.66319185344348
 30
0.0
 11
13.64911787803189
 21
41.66319185344348
 31
0.0
  0
LINE
  5
27F7
330
1FD4
100
AcDbEntity
  8
DIM
 62
     0
370
    -2
100
AcDbLine
 10
25.17136787803188
 20
41.66319185344348
 30
0.0
 11
20.54161787803189
 21
41.66319185344348
 31
0.0
  0
SOLID
  5
27F8
330
1FD4
100
AcDbEntity
  8
DIM
 62
     0
100
AcDbTrace
 10
9.019367878031902
 20
41.84319185344348
 30
0.0
 11
9.019367878031902
 21
41.48319185344347
 31
0.0
 12
7.939367878031902
 22
41.66319185344348
 32
0.0
 13
7.939367878031902
 23
41.66319185344348
 33
0.0
  0
SOLID
  5
27F9
330
1FD4
100
AcDbEntity
  8
DIM
 62
     0
100
AcDbTrace
 10
25.17136787803188
 20
41.84319185344348
 30
0.0
 11
25.17136787803188
 21
41.48319185344347
 31
0.0
 12
26.25136787803188
 22
41.66319185344348
 32
0.0
 13
26.25136787803188
 23
41.66319185344348
 33
0.0
  0
MTEXT
  5
27FA
330
1FD4
100
AcDbEntity
  8
DIM
 62
     0
100
AcDbMText
 10
17.09536787803189
 20
41.66319185344348
 30
0.0
 40
0.75
 41
0.0
 71
     5
 72
     1
  1
\A1;18.312 %%p0.062
  7
TXT
 73
     1
 44
1.0
  0
POINT
  5
27FB
330
1FD4
100
AcDbEntity
  8
DEFPOINTS
 62
     0
100
AcDbPoint
 10
7.939367878031902
 20
40.92969185344348
 30
0.0
  0
POINT
  5
27FC
330
1FD4
100
AcDbEntity
  8
DEFPOINTS
 62
     0
100
AcDbPoint
 10
26.25136787803188
 20
40.92969185344348
 30
0.0
  0
POINT
  5
27FD
330
1FD4
100
AcDbEntity
  8
DEFPOINTS
 62
     0
100
AcDbPoint
 10
26.25136787803188
 20
41.66319185344348
 30
0.0
  0
ENDBLK
  5
1FE0
330
1FD4
100
AcDbEntity
  8
0
100
AcDbBlockEnd
  0
BLOCK
  5
1FEC
330
1FE1
100
AcDbEntity
  8
0
100
AcDbBlockBegin
  2
*D12
 70
     1
 10
0.0
 20
0.0
 30
0.0
  3
*D12
  1

  0
LINE
  5
27FE
330
1FE1
100
AcDbEntity
  8
DIM
 62
     0
370
    -2
100
AcDbLine
 10
8.189367878031902
 20
40.28821637206279
 30
0.0
 11
8.189367878031902
 21
40.46821637206279
 31
0.0
  0
LINE
  5
27FF
330
1FE1
100
AcDbEntity
  8
DIM
 62
     0
370
    -2
100
AcDbLine
 10
26.00136787803188
 20
40.28821637206279
 30
0.0
 11
26.00136787803188
 21
40.46821637206279
 31
0.0
  0
LINE
  5
2800
330
1FE1
100
AcDbEntity
  8
DIM
 62
     0
370
    -2
100
AcDbLine
 10
9.269367878031902
 20
39.91021637206279
 30
0.0
 11
13.64911787803189
 21
39.91021637206279
 31
0.0
  0
LINE
  5
2801
330
1FE1
100
AcDbEntity
  8
DIM
 62
     0
370
    -2
100
AcDbLine
 10
24.92136787803188
 20
39.91021637206279
 30
0.0
 11
20.54161787803189
 21
39.91021637206279
 31
0.0
  0
SOLID
  5
2802
330
1FE1
100
AcDbEntity
  8
DIM
 62
     0
100
AcDbTrace
 10
9.269367878031902
 20
40.09021637206279
 30
0.0
 11
9.269367878031902
 21
39.73021637206279
 31
0.0
 12
8.189367878031902
 22
39.91021637206279
 32
0.0
 13
8.189367878031902
 23
39.91021637206279
 33
0.0
  0
SOLID
  5
2803
330
1FE1
100
AcDbEntity
  8
DIM
 62
     0
100
AcDbTrace
 10
24.92136787803188
 20
40.09021637206279
 30
0.0
 11
24.92136787803188
 21
39.73021637206279
 31
0.0
 12
26.00136787803188
 22
39.91021637206279
 32
0.0
 13
26.00136787803188
 23
39.91021637206279
 33
0.0
  0
MTEXT
  5
2804
330
1FE1
100
AcDbEntity
  8
DIM
 62
     0
100
AcDbMText
 10
17.09536787803189
 20
39.91021637206279
 30
0.0
 40
0.75
 41
0.0
 71
     5
 72
     1
  1
\A1;17.812 %%p0.062
  7
TXT
 73
     1
 44
1.0
  0
POINT
  5
2805
330
1FE1
100
AcDbEntity
  8
DEFPOINTS
 62
     0
100
AcDbPoint
 10
8.189367878031902
 20
39.91021637206279
 30
0.0
  0
POINT
  5
2806
330
1FE1
100
AcDbEntity
  8
DEFPOINTS
 62
     0
100
AcDbPoint
 10
26.00136787803188
 20
39.91021637206279
 30
0.0
  0
POINT
  5
2807
330
1FE1
100
AcDbEntity
  8
DEFPOINTS
 62
     0
100
AcDbPoint
 10
26.00136787803188
 20
39.91021637206279
 30
0.0
  0
ENDBLK
  5
1FED
330
1FE1
100
AcDbEntity
  8
0
100
AcDbBlockEnd
  0
BLOCK
  5
1FFA
330
1FEE
100
AcDbEntity
  8
0
100
AcDbBlockBegin
  2
*D13
 70
     1
 10
0.0
 20
0.0
 30
0.0
  3
*D13
  1

  0
LINE
  5
2881
330
1FEE
100
AcDbEntity
  8
DIM
 62
     0
370
    -2
100
AcDbLine
 10
27.47336787803188
 20
25.67181001401968
 30
0.0
 11
30.98315593405418
 21
25.67181001401968
 31
0.0
  0
LINE
  5
2882
330
1FEE
100
AcDbEntity
  8
DIM
 62
     0
370
    -2
100
AcDbLine
 10
28.09836787803188
 20
25.03156001401967
 30
0.0
 11
30.98315593405418
 21
25.03156001401967
 31
0.0
  0
LINE
  5
2883
330
1FEE
100
AcDbEntity
  8
DIM
 62
     0
370
    -2
100
AcDbLine
 10
30.42515593405417
 20
26.75181001401968
 30
0.0
 11
30.42515593405417
 21
27.83181001401968
 31
0.0
  0
LINE
  5
2884
330
1FEE
100
AcDbEntity
  8
DIM
 62
     0
370
    -2
100
AcDbLine
 10
30.42515593405417
 20
23.95156001401967
 30
0.0
 11
30.42515593405417
 21
22.67008384775612
 31
0.0
  0
LINE
  5
2885
330
1FEE
100
AcDbEntity
  8
DIM
 62
     0
370
    -2
100
AcDbLine
 10
30.42515593405417
 20
22.67008384775612
 30
0.0
 11
29.34515593405417
 21
22.67008384775612
 31
0.0
  0
SOLID
  5
2886
330
1FEE
100
AcDbEntity
  8
DIM
 62
     0
100
AcDbTrace
 10
30.24515593405418
 20
26.75181001401968
 30
0.0
 11
30.60515593405417
 21
26.75181001401968
 31
0.0
 12
30.42515593405417
 22
25.67181001401968
 32
0.0
 13
30.42515593405417
 23
25.67181001401968
 33
0.0
  0
SOLID
  5
2887
330
1FEE
100
AcDbEntity
  8
DIM
 62
     0
100
AcDbTrace
 10
30.24515593405417
 20
23.95156001401967
 30
0.0
 11
30.60515593405417
 21
23.95156001401967
 31
0.0
 12
30.42515593405417
 22
25.03156001401967
 32
0.0
 13
30.42515593405417
 23
25.03156001401967
 33
0.0
  0
MTEXT
  5
2888
330
1FEE
100
AcDbEntity
  8
DIM
 62
     0
100
AcDbMText
 10
27.77390593405417
 20
22.67008384775613
 30
0.0
 40
0.75
 41
0.0
 71
     5
 72
     1
  1
\A1;0.640
  7
TXT
 73
     1
 44
1.0
  0
POINT
  5
2889
330
1FEE
100
AcDbEntity
  8
DEFPOINTS
 62
     0
100
AcDbPoint
 10
27.09536787803187
 20
25.67181001401968
 30
0.0
  0
POINT
  5
288A
330
1FEE
100
AcDbEntity
  8
DEFPOINTS
 62
     0
100
AcDbPoint
 10
27.72036787803187
 20
25.03156001401967
 30
0.0
  0
POINT
  5
288B
330
1FEE
100
AcDbEntity
  8
DEFPOINTS
 62
     0
100
AcDbPoint
 10
30.42515593405417
 20
25.03156001401967
 30
0.0
  0
ENDBLK
  5
1FFB
330
1FEE
100
AcDbEntity
  8
0
100
AcDbBlockEnd
  0
BLOCK
  5
2007
330
1FFC
100
AcDbEntity
  8
0
100
AcDbBlockBegin
  2
*D14
 70
     1
 10
0.0
 20
0.0
 30
0.0
  3
*D14
  1

  0
LINE
  5
2830
330
1FFC
100
AcDbEntity
  8
DIM
 62
     0
370
    -2
100
AcDbLine
 10
7.095367878031893
 20
63.05181001401968
 30
0.0
 11
7.095367878031893
 21
67.18064505487063
 31
0.0
  0
LINE
  5
2831
330
1FFC
100
AcDbEntity
  8
DIM
 62
     0
370
    -2
100
AcDbLine
 10
27.09536787803187
 20
63.05181001401968
 30
0.0
 11
27.09536787803187
 21
67.18064505487063
 31
0.0
  0
LINE
  5
2832
330
1FFC
100
AcDbEntity
  8
DIM
 62
     0
370
    -2
100
AcDbLine
 10
8.175367878031893
 20
66.62264505487063
 30
0.0
 11
13.64911787803188
 21
66.62264505487063
 31
0.0
  0
LINE
  5
2833
330
1FFC
100
AcDbEntity
  8
DIM
 62
     0
370
    -2
100
AcDbLine
 10
26.01536787803188
 20
66.62264505487063
 30
0.0
 11
20.54161787803188
 21
66.62264505487063
 31
0.0
  0
SOLID
  5
2834
330
1FFC
100
AcDbEntity
  8
DIM
 62
     0
100
AcDbTrace
 10
8.175367878031893
 20
66.80264505487063
 30
0.0
 11
8.175367878031893
 21
66.44264505487062
 31
0.0
 12
7.095367878031893
 22
66.62264505487063
 32
0.0
 13
7.095367878031893
 23
66.62264505487063
 33
0.0
  0
SOLID
  5
2835
330
1FFC
100
AcDbEntity
  8
DIM
 62
     0
100
AcDbTrace
 10
26.01536787803188
 20
66.80264505487063
 30
0.0
 11
26.01536787803188
 21
66.44264505487062
 31
0.0
 12
27.09536787803187
 22
66.62264505487063
 32
0.0
 13
27.09536787803187
 23
66.62264505487063
 33
0.0
  0
MTEXT
  5
2836
330
1FFC
100
AcDbEntity
  8
DIM
 62
     0
100
AcDbMText
 10
17.09536787803188
 20
66.62264505487063
 30
0.0
 40
0.75
 41
0.0
 71
     5
 72
     1
  1
\A1;20.000 %%p0.062
  7
TXT
 73
     1
 44
1.0
  0
POINT
  5
2837
330
1FFC
100
AcDbEntity
  8
DEFPOINTS
 62
     0
100
AcDbPoint
 10
7.095367878031893
 20
62.67381001401968
 30
0.0
  0
POINT
  5
2838
330
1FFC
100
AcDbEntity
  8
DEFPOINTS
 62
     0
100
AcDbPoint
 10
27.09536787803187
 20
62.67381001401968
 30
0.0
  0
POINT
  5
2839
330
1FFC
100
AcDbEntity
  8
DEFPOINTS
 62
     0
100
AcDbPoint
 10
27.09536787803187
 20
66.62264505487063
 30
0.0
  0
ENDBLK
  5
2008
330
1FFC
100
AcDbEntity
  8
0
100
AcDbBlockEnd
  0
BLOCK
  5
2014
330
2009
100
AcDbEntity
  8
0
100
AcDbBlockBegin
  2
*D15
 70
     1
 10
0.0
 20
0.0
 30
0.0
  3
*D15
  1

  0
LINE
  5
283A
330
2009
100
AcDbEntity
  8
DIM
 62
     0
370
    -2
100
AcDbLine
 10
6.470367878031893
 20
63.69006001401969
 30
0.0
 11
6.470367878031893
 21
68.82668783155359
 31
0.0
  0
LINE
  5
283B
330
2009
100
AcDbEntity
  8
DIM
 62
     0
370
    -2
100
AcDbLine
 10
27.72036787803187
 20
63.69006001401962
 30
0.0
 11
27.72036787803187
 21
68.82668783155359
 31
0.0
  0
LINE
  5
283C
330
2009
100
AcDbEntity
  8
DIM
 62
     0
370
    -2
100
AcDbLine
 10
7.550367878031893
 20
68.26868783155358
 30
0.0
 11
13.60224287803188
 21
68.26868783155358
 31
0.0
  0
LINE
  5
283D
330
2009
100
AcDbEntity
  8
DIM
 62
     0
370
    -2
100
AcDbLine
 10
26.64036787803188
 20
68.26868783155358
 30
0.0
 11
20.58849287803187
 21
68.26868783155358
 31
0.0
  0
SOLID
  5
283E
330
2009
100
AcDbEntity
  8
DIM
 62
     0
100
AcDbTrace
 10
7.550367878031893
 20
68.44868783155359
 30
0.0
 11
7.550367878031893
 21
68.08868783155357
 31
0.0
 12
6.470367878031893
 22
68.26868783155358
 32
0.0
 13
6.470367878031893
 23
68.26868783155358
 33
0.0
  0
SOLID
  5
283F
330
2009
100
AcDbEntity
  8
DIM
 62
     0
100
AcDbTrace
 10
26.64036787803188
 20
68.44868783155359
 30
0.0
 11
26.64036787803188
 21
68.08868783155357
 31
0.0
 12
27.72036787803187
 22
68.26868783155358
 32
0.0
 13
27.72036787803187
 23
68.26868783155358
 33
0.0
  0
MTEXT
  5
2840
330
2009
100
AcDbEntity
  8
DIM
 62
     0
100
AcDbMText
 10
17.09536787803187
 20
68.26868783155358
 30
0.0
 40
0.75
 41
0.0
 71
     5
 72
     1
  1
\A1;21.250 %%p0.062
  7
TXT
 73
     1
 44
1.0
  0
POINT
  5
2841
330
2009
100
AcDbEntity
  8
DEFPOINTS
 62
     0
100
AcDbPoint
 10
6.470367878031893
 20
63.31206001401969
 30
0.0
  0
POINT
  5
2842
330
2009
100
AcDbEntity
  8
DEFPOINTS
 62
     0
100
AcDbPoint
 10
27.72036787803187
 20
63.31206001401962
 30
0.0
  0
POINT
  5
2843
330
2009
100
AcDbEntity
  8
DEFPOINTS
 62
     0
100
AcDbPoint
 10
27.72036787803187
 20
68.26868783155358
 30
0.0
  0
ENDBLK
  5
2015
330
2009
100
AcDbEntity
  8
0
100
AcDbBlockEnd
  0
BLOCK
  5
2021
330
2016
100
AcDbEntity
  8
0
100
AcDbBlockBegin
  2
*D16
 70
     1
 10
0.0
 20
0.0
 30
0.0
  3
*D16
  1

  0
LINE
  5
284E
330
2016
100
AcDbEntity
  8
DIM
 62
     0
370
    -2
100
AcDbLine
 10
8.717367878031893
 20
60.67181001401968
 30
0.0
 11
3.037297970747906
 21
60.67181001401968
 31
0.0
  0
LINE
  5
284F
330
2016
100
AcDbEntity
  8
DIM
 62
     0
370
    -2
100
AcDbLine
 10
6.092367878031893
 20
63.31206001401969
 30
0.0
 11
3.037297970747907
 21
63.31206001401969
 31
0.0
  0
LINE
  5
2850
330
2016
100
AcDbEntity
  8
DIM
 62
     0
370
    -2
100
AcDbLine
 10
3.595297970747906
 20
59.59181001401969
 30
0.0
 11
3.595297970747906
 21
58.51181001401968
 31
0.0
  0
LINE
  5
2851
330
2016
100
AcDbEntity
  8
DIM
 62
     0
370
    -2
100
AcDbLine
 10
3.595297970747907
 20
64.39206001401969
 30
0.0
 11
3.595297970747907
 21
65.47206001401969
 31
0.0
  0
SOLID
  5
2852
330
2016
100
AcDbEntity
  8
DIM
 62
     0
100
AcDbTrace
 10
3.415297970747906
 20
59.59181001401969
 30
0.0
 11
3.775297970747906
 21
59.59181001401969
 31
0.0
 12
3.595297970747906
 22
60.67181001401968
 32
0.0
 13
3.595297970747906
 23
60.67181001401968
 33
0.0
  0
SOLID
  5
2853
330
2016
100
AcDbEntity
  8
DIM
 62
     0
100
AcDbTrace
 10
3.415297970747907
 20
64.39206001401969
 30
0.0
 11
3.775297970747907
 21
64.39206001401969
 31
0.0
 12
3.595297970747907
 22
63.31206001401969
 32
0.0
 13
3.595297970747907
 23
63.31206001401969
 33
0.0
  0
MTEXT
  5
2854
330
2016
100
AcDbEntity
  8
DIM
 62
     0
100
AcDbMText
 10
3.595297970747897
 20
61.99193501401969
 30
0.0
 40
0.75
 41
0.0
 71
     5
 72
     1
  1
\A1;E
  7
TXT
 73
     1
 44
1.0
  0
POINT
  5
2855
330
2016
100
AcDbEntity
  8
DEFPOINTS
 62
     0
100
AcDbPoint
 10
9.095367878031893
 20
60.67181001401968
 30
0.0
  0
POINT
  5
2856
330
2016
100
AcDbEntity
  8
DEFPOINTS
 62
     0
100
AcDbPoint
 10
6.470367878031893
 20
63.31206001401969
 30
0.0
  0
POINT
  5
2857
330
2016
100
AcDbEntity
  8
DEFPOINTS
 62
     0
100
AcDbPoint
 10
3.595297970747907
 20
63.31206001401969
 30
0.0
  0
ENDBLK
  5
2022
330
2016
100
AcDbEntity
  8
0
100
AcDbBlockEnd
  0
BLOCK
  5
202E
330
2023
100
AcDbEntity
  8
0
100
AcDbBlockBegin
  2
*D17
 70
     1
 10
0.0
 20
0.0
 30
0.0
  3
*D17
  1

  0
LINE
  5
2844
330
2023
100
AcDbEntity
  8
DIM
 62
     0
370
    -2
100
AcDbLine
 10
7.095367878031893
 20
63.05181001401968
 30
0.0
 11
7.095367878031893
 21
67.18064505487063
 31
0.0
  0
LINE
  5
2845
330
2023
100
AcDbEntity
  8
DIM
 62
     0
370
    -2
100
AcDbLine
 10
6.470367878031893
 20
63.69006001401969
 30
0.0
 11
6.470367878031893
 21
67.18064505487063
 31
0.0
  0
LINE
  5
2846
330
2023
100
AcDbEntity
  8
DIM
 62
     0
370
    -2
100
AcDbLine
 10
8.175367878031893
 20
66.62264505487063
 30
0.0
 11
9.255367878031893
 21
66.62264505487063
 31
0.0
  0
LINE
  5
2847
330
2023
100
AcDbEntity
  8
DIM
 62
     0
370
    -2
100
AcDbLine
 10
5.390367878031893
 20
66.62264505487063
 30
0.0
 11
4.310367878031893
 21
66.62264505487063
 31
0.0
  0
SOLID
  5
2848
330
2023
100
AcDbEntity
  8
DIM
 62
     0
100
AcDbTrace
 10
8.175367878031893
 20
66.80264505487063
 30
0.0
 11
8.175367878031893
 21
66.44264505487062
 31
0.0
 12
7.095367878031893
 22
66.62264505487063
 32
0.0
 13
7.095367878031893
 23
66.62264505487063
 33
0.0
  0
SOLID
  5
2849
330
2023
100
AcDbEntity
  8
DIM
 62
     0
100
AcDbTrace
 10
5.390367878031893
 20
66.80264505487063
 30
0.0
 11
5.390367878031893
 21
66.44264505487062
 31
0.0
 12
6.470367878031893
 22
66.62264505487063
 32
0.0
 13
6.470367878031893
 23
66.62264505487063
 33
0.0
  0
MTEXT
  5
284A
330
2023
100
AcDbEntity
  8
DIM
 62
     0
100
AcDbMText
 10
2.692242878031893
 20
66.62264505487063
 30
0.0
 40
0.75
 41
0.0
 71
     5
 72
     1
  1
\A1;0.625
  7
TXT
 73
     1
 44
1.0
  0
POINT
  5
284B
330
2023
100
AcDbEntity
  8
DEFPOINTS
 62
     0
100
AcDbPoint
 10
7.095367878031893
 20
62.67381001401968
 30
0.0
  0
POINT
  5
284C
330
2023
100
AcDbEntity
  8
DEFPOINTS
 62
     0
100
AcDbPoint
 10
6.470367878031893
 20
63.31206001401969
 30
0.0
  0
POINT
  5
284D
330
2023
100
AcDbEntity
  8
DEFPOINTS
 62
     0
100
AcDbPoint
 10
6.470367878031893
 20
66.62264505487063
 30
0.0
  0
ENDBLK
  5
202F
330
2023
100
AcDbEntity
  8
0
100
AcDbBlockEnd
  0
BLOCK
  5
203B
330
2030
100
AcDbEntity
  8
0
100
AcDbBlockBegin
  2
*D18
 70
     1
 10
0.0
 20
0.0
 30
0.0
  3
*D18
  1

  0
LINE
  5
27C2
330
2030
100
AcDbEntity
  8
DIM
 62
     0
370
    -2
100
AcDbLine
 10
28.09836787803188
 20
90.11087030581936
 30
0.0
 11
32.06036379600524
 21
90.11087030581935
 31
0.0
  0
LINE
  5
27C3
330
2030
100
AcDbEntity
  8
DIM
 62
     0
370
    -2
100
AcDbLine
 10
28.09836787803188
 20
72.11087030581936
 30
0.0
 11
32.06036379600523
 21
72.11087030581935
 31
0.0
  0
LINE
  5
27C4
330
2030
100
AcDbEntity
  8
DIM
 62
     0
370
    -2
100
AcDbLine
 10
31.50236379600524
 20
89.03087030581936
 30
0.0
 11
31.50236379600524
 21
82.02587030581936
 31
0.0
  0
LINE
  5
27C5
330
2030
100
AcDbEntity
  8
DIM
 62
     0
370
    -2
100
AcDbLine
 10
31.50236379600524
 20
73.19087030581936
 30
0.0
 11
31.50236379600524
 21
80.19587030581936
 31
0.0
  0
SOLID
  5
27C6
330
2030
100
AcDbEntity
  8
DIM
 62
     0
100
AcDbTrace
 10
31.32236379600524
 20
89.03087030581936
 30
0.0
 11
31.68236379600524
 21
89.03087030581936
 31
0.0
 12
31.50236379600524
 22
90.11087030581936
 32
0.0
 13
31.50236379600524
 23
90.11087030581936
 33
0.0
  0
SOLID
  5
27C7
330
2030
100
AcDbEntity
  8
DIM
 62
     0
100
AcDbTrace
 10
31.32236379600524
 20
73.19087030581936
 30
0.0
 11
31.68236379600524
 21
73.19087030581936
 31
0.0
 12
31.50236379600524
 22
72.11087030581936
 32
0.0
 13
31.50236379600524
 23
72.11087030581936
 33
0.0
  0
MTEXT
  5
27C8
330
2030
100
AcDbEntity
  8
DIM
 62
     0
100
AcDbMText
 10
31.50236379600523
 20
81.11087030581936
 30
0.0
 40
0.75
 41
0.0
 71
     5
 72
     1
  1
\A1;18.000 %%p0.062
  7
TXT
 73
     1
 44
1.0
  0
POINT
  5
27C9
330
2030
100
AcDbEntity
  8
DEFPOINTS
 62
     0
100
AcDbPoint
 10
27.72036787803187
 20
90.11087030581936
 30
0.0
  0
POINT
  5
27CA
330
2030
100
AcDbEntity
  8
DEFPOINTS
 62
     0
100
AcDbPoint
 10
27.72036787803187
 20
72.11087030581936
 30
0.0
  0
POINT
  5
27CB
330
2030
100
AcDbEntity
  8
DEFPOINTS
 62
     0
100
AcDbPoint
 10
31.50236379600524
 20
72.11087030581936
 30
0.0
  0
ENDBLK
  5
203C
330
2030
100
AcDbEntity
  8
0
100
AcDbBlockEnd
  0
BLOCK
  5
2048
330
203D
100
AcDbEntity
  8
0
100
AcDbBlockBegin
  2
*D19
 70
     1
 10
0.0
 20
0.0
 30
0.0
  3
*D19
  1

  0
LINE
  5
286C
330
203D
100
AcDbEntity
  8
DIM
 62
     0
370
    -2
100
AcDbLine
 10
27.09536787803187
 20
63.05181001401968
 30
0.0
 11
27.09536787803187
 21
67.18064505487063
 31
0.0
  0
LINE
  5
286D
330
203D
100
AcDbEntity
  8
DIM
 62
     0
370
    -2
100
AcDbLine
 10
27.72036787803187
 20
63.69006001401962
 30
0.0
 11
27.72036787803187
 21
67.18064505487063
 31
0.0
  0
LINE
  5
286E
330
203D
100
AcDbEntity
  8
DIM
 62
     0
370
    -2
100
AcDbLine
 10
26.01536787803188
 20
66.62264505487063
 30
0.0
 11
24.93536787803188
 21
66.62264505487063
 31
0.0
  0
LINE
  5
286F
330
203D
100
AcDbEntity
  8
DIM
 62
     0
370
    -2
100
AcDbLine
 10
28.80036787803188
 20
66.62264505487063
 30
0.0
 11
29.88036787803188
 21
66.62264505487063
 31
0.0
  0
SOLID
  5
2870
330
203D
100
AcDbEntity
  8
DIM
 62
     0
100
AcDbTrace
 10
26.01536787803188
 20
66.80264505487063
 30
0.0
 11
26.01536787803188
 21
66.44264505487062
 31
0.0
 12
27.09536787803187
 22
66.62264505487063
 32
0.0
 13
27.09536787803187
 23
66.62264505487063
 33
0.0
  0
SOLID
  5
2871
330
203D
100
AcDbEntity
  8
DIM
 62
     0
100
AcDbTrace
 10
28.80036787803188
 20
66.80264505487063
 30
0.0
 11
28.80036787803188
 21
66.44264505487062
 31
0.0
 12
27.72036787803187
 22
66.62264505487063
 32
0.0
 13
27.72036787803187
 23
66.62264505487063
 33
0.0
  0
MTEXT
  5
2872
330
203D
100
AcDbEntity
  8
DIM
 62
     0
100
AcDbMText
 10
31.49849287803188
 20
66.62264505487063
 30
0.0
 40
0.75
 41
0.0
 71
     5
 72
     1
  1
\A1;0.625
  7
TXT
 73
     1
 44
1.0
  0
POINT
  5
2873
330
203D
100
AcDbEntity
  8
DEFPOINTS
 62
     0
100
AcDbPoint
 10
27.09536787803187
 20
62.67381001401968
 30
0.0
  0
POINT
  5
2874
330
203D
100
AcDbEntity
  8
DEFPOINTS
 62
     0
100
AcDbPoint
 10
27.72036787803187
 20
63.31206001401962
 30
0.0
  0
POINT
  5
2875
330
203D
100
AcDbEntity
  8
DEFPOINTS
 62
     0
100
AcDbPoint
 10
27.72036787803187
 20
66.62264505487063
 30
0.0
  0
ENDBLK
  5
2049
330
203D
100
AcDbEntity
  8
0
100
AcDbBlockEnd
  0
BLOCK
  5
2056
330
204A
100
AcDbEntity
  8
0
100
AcDbBlockBegin
  2
*D20
 70
     1
 10
0.0
 20
0.0
 30
0.0
  3
*D20
  1

  0
LINE
  5
2876
330
204A
100
AcDbEntity
  8
DIM
 62
     0
370
    -2
100
AcDbLine
 10
27.47336787803188
 20
62.67181001401969
 30
0.0
 11
30.98315593405417
 21
62.67181001401969
 31
0.0
  0
LINE
  5
2877
330
204A
100
AcDbEntity
  8
DIM
 62
     0
370
    -2
100
AcDbLine
 10
28.09836787803188
 20
63.31206001401962
 30
0.0
 11
30.98315593405417
 21
63.31206001401962
 31
0.0
  0
LINE
  5
2878
330
204A
100
AcDbEntity
  8
DIM
 62
     0
370
    -2
100
AcDbLine
 10
30.42515593405417
 20
61.59181001401968
 30
0.0
 11
30.42515593405417
 21
60.51181001401968
 31
0.0
  0
LINE
  5
2879
330
204A
100
AcDbEntity
  8
DIM
 62
     0
370
    -2
100
AcDbLine
 10
30.42515593405417
 20
64.39206001401963
 30
0.0
 11
30.42515593405417
 21
65.47206001401963
 31
0.0
  0
LINE
  5
287A
330
204A
100
AcDbEntity
  8
DIM
 62
     0
370
    -2
100
AcDbLine
 10
30.42515593405417
 20
65.47206001401963
 30
0.0
 11
31.50515593405417
 21
65.47206001401963
 31
0.0
  0
SOLID
  5
287B
330
204A
100
AcDbEntity
  8
DIM
 62
     0
100
AcDbTrace
 10
30.24515593405417
 20
61.59181001401968
 30
0.0
 11
30.60515593405417
 21
61.59181001401968
 31
0.0
 12
30.42515593405417
 22
62.67181001401969
 32
0.0
 13
30.42515593405417
 23
62.67181001401969
 33
0.0
  0
SOLID
  5
287C
330
204A
100
AcDbEntity
  8
DIM
 62
     0
100
AcDbTrace
 10
30.24515593405417
 20
64.39206001401963
 30
0.0
 11
30.60515593405417
 21
64.39206001401963
 31
0.0
 12
30.42515593405417
 22
63.31206001401962
 32
0.0
 13
30.42515593405417
 23
63.31206001401962
 33
0.0
  0
MTEXT
  5
287D
330
204A
100
AcDbEntity
  8
DIM
 62
     0
100
AcDbMText
 10
33.07640593405416
 20
65.47206001401963
 30
0.0
 40
0.75
 41
0.0
 71
     5
 72
     1
  1
\A1;0.640
  7
TXT
 73
     1
 44
1.0
  0
POINT
  5
287E
330
204A
100
AcDbEntity
  8
DEFPOINTS
 62
     0
100
AcDbPoint
 10
27.09536787803187
 20
62.67181001401969
 30
0.0
  0
POINT
  5
287F
330
204A
100
AcDbEntity
  8
DEFPOINTS
 62
     0
100
AcDbPoint
 10
27.72036787803187
 20
63.31206001401962
 30
0.0
  0
POINT
  5
2880
330
204A
100
AcDbEntity
  8
DEFPOINTS
 62
     0
100
AcDbPoint
 10
30.42515593405417
 20
63.31206001401962
 30
0.0
  0
ENDBLK
  5
2057
330
204A
100
AcDbEntity
  8
0
100
AcDbBlockEnd
  0
ENDSEC
  0
SECTION
  2
ENTITIES
  0
TEXT
  5
A1C
330
1E
100
AcDbEntity
  8
TEXT
100
AcDbText
 10
40.21399153171427
 20
88.17072361636576
 30
0.0
 40
0.75
  1
%%UMATERIAL:
 41
0.75
  7
TXT
100
AcDbText
  0
TEXT
  5
A1D
330
1E
100
AcDbEntity
  8
TEXT
100
AcDbText
 10
41.03223591030501
 20
86.92072361636576
 30
0.0
 40
0.75
  1
ALL PARTS
 41
0.75
  7
TXT
100
AcDbText
  0
TEXT
  5
A1E
330
1E
100
AcDbEntity
  8
TEXT
100
AcDbText
 10
41.03223591030501
 20
83.67819026396658
 30
0.0
 40
0.75
  1
ALL PARTS
 41
0.75
  7
TXT
100
AcDbText
  0
TEXT
  5
A1F
330
1E
100
AcDbEntity
  8
TEXT
100
AcDbText
 10
3.231476928224026
 20
14.94646977722583
 30
0.0
 40
0.75
  1
%%UNOTE:
 41
0.75
  7
TXT
100
AcDbText
  0
TEXT
  5
A20
330
1E
100
AcDbEntity
  8
TEXT
100
AcDbText
 10
40.21399153171427
 20
84.92619026396658
 30
0.0
 40
0.75
  1
%%UFINISH:
 41
0.75
  7
TXT
100
AcDbText
  0
TEXT
  5
A21
330
1E
100
AcDbEntity
  8
TEXT
100
AcDbText
 10
52.39948762700425
 20
83.67819026396658
 30
0.0
 40
0.75
  1
BLACK
 41
0.75
  7
TXT
100
AcDbText
  0
TEXT
  5
A22
330
1E
100
AcDbEntity
  8
TEXT
100
AcDbText
 10
52.39948762700425
 20
86.92072361636576
 30
0.0
 40
0.75
  1
14 GA. STEEL
 41
0.75
  7
TXT
100
AcDbText
  0
LINE
  5
A23
330
1E
100
AcDbEntity
  8
TEXT
100
AcDbLine
 10
46.2775933458303
 20
83.68369804642396
 30
0.0
 11
51.7578082228154
 21
83.68369804642396
 31
0.0
  0
LINE
  5
A24
330
1E
100
AcDbEntity
  8
TEXT
100
AcDbLine
 10
46.2775933458303
 20
86.92223139882313
 30
0.0
 11
51.7578082228154
 21
86.92223139882313
 31
0.0
  0
TEXT
  5
A25
330
1E
100
AcDbEntity
  8
TEXT
100
AcDbText
 10
3.231476928224026
 20
12.37248231884429
 30
0.0
 40
0.75
  1
2.) SWING ARM RAILS PIERCED 0.281 DIA. HOLES ON E.I.A. UNIVERSAL SPACING.
 41
0.75
  7
TXT
100
AcDbText
  0
TEXT
  5
A90
330
1E
100
AcDbEntity
  8
TEXT
100
AcDbText
 10
3.231476928224026
 20
11.12248231884429
 30
0.0
 40
0.75
  1
3.) UNITS SUPPLIED WITH QTY. (6) VELCRO STRAPS 1" WIDE x 8" LG.
 41
0.75
  7
TXT
100
AcDbText
  0
INSERT
  5
179C
330
1E
100
AcDbEntity
  8
TEXT
100
AcDbBlockReference
  2
HB
 10
0.0
 20
0.0
 30
0.0
 41
6.0
 42
6.0
 43
6.0
  0
TEXT
  5
1DD8
330
1E
100
AcDbEntity
  8
TEXT
100
AcDbText
 10
8.576625000000012
 20
91.77150000000001
 30
0.0
 40
1.125
  1
SWING FRAME RACK
 41
0.75
  7
TXT
 72
     4
 11
15.18600000000001
 21
92.33400000000001
 31
0.0
100
AcDbText
  0
TEXT
  5
1DD9
330
1E
100
AcDbEntity
  8
TEXT
100
AcDbText
 10
33.09232716733201
 20
91.77150000000001
 30
0.0
 40
1.125
  1
SF-2184  &  SF-2194
 41
0.75
  7
TXT
 72
     4
 11
40.68607716733201
 21
92.33400000000001
 31
0.0
100
AcDbText
  0
LINE
  5
1DEA
330
1E
100
AcDbEntity
  8
TITLE
100
AcDbLine
 10
10.84799999999998
 20
4.115999999999996
 30
0.0
 11
10.84799999999998
 21
0.3719999999999963
 31
0.0
  0
LINE
  5
1DEB
330
1E
100
AcDbEntity
  8
TITLE
100
AcDbLine
 10
21.32399999999999
 20
4.115999999999996
 30
0.0
 11
21.32399999999999
 21
0.3719999999999963
 31
0.0
  0
LINE
  5
1DEC
330
1E
100
AcDbEntity
  8
TITLE
100
AcDbLine
 10
31.79999999999999
 20
4.115999999999996
 30
0.0
 11
31.79999999999999
 21
0.3719999999999963
 31
0.0
  0
LINE
  5
1DEE
330
1E
100
AcDbEntity
  8
TITLE
100
AcDbLine
 10
42.27599999999998
 20
4.115999999999996
 30
0.0
 11
42.27599999999998
 21
0.3719999999999963
 31
0.0
  0
LINE
  5
1DF1
330
1E
100
AcDbEntity
  8
TITLE
100
AcDbLine
 10
63.228
 20
1.619999999999996
 30
0.0
 11
0.3719999999999871
 21
1.619999999999996
 31
0.0
  0
LINE
  5
1DF2
330
1E
100
AcDbEntity
  8
TITLE
100
AcDbLine
 10
63.228
 20
2.867999999999996
 30
0.0
 11
0.3719999999999871
 21
2.867999999999996
 31
0.0
  0
LINE
  5
1DF3
330
1E
100
AcDbEntity
  8
TITLE
100
AcDbLine
 10
63.228
 20
4.115999999999996
 30
0.0
 11
0.3719999999999871
 21
4.115999999999996
 31
0.0
  0
TEXT
  5
1DF4
330
1E
100
AcDbEntity
  8
TEXT
100
AcDbText
 10
3.609360823390843
 20
3.174495494391891
 30
0.0
 40
0.75
  1
PART No.
 41
0.75
  7
TXT
 72
     1
 11
5.578110823390843
 21
3.174495494391891
 31
0.0
100
AcDbText
  0
TEXT
  5
1DF5
330
1E
100
AcDbEntity
  8
TEXT
100
AcDbText
 10
3.796860823390843
 20
1.924495494391891
 30
0.0
 40
0.75
  1
SF-2184
 41
0.75
  7
TXT
 72
     1
 11
5.578110823390843
 21
1.924495494391891
 31
0.0
100
AcDbText
  0
TEXT
  5
1DF6
330
1E
100
AcDbEntity
  8
TEXT
100
AcDbText
 10
3.796860823390843
 20
0.6744954943918913
 30
0.0
 40
0.75
  1
SF-2194
 41
0.75
  7
TXT
 72
     1
 11
5.578110823390843
 21
0.6744954943918913
 31
0.0
100
AcDbText
  0
TEXT
  5
1DF7
330
1E
100
AcDbEntity
  8
TEXT
100
AcDbText
 10
14.74161082339085
 20
1.924495494391891
 30
0.0
 40
0.75
  1
24.281
 41
0.75
  7
TXT
 72
     1
 11
16.05411082339085
 21
1.924495494391891
 31
0.0
100
AcDbText
  0
TEXT
  5
1DF8
330
1E
100
AcDbEntity
  8
TEXT
100
AcDbText
 10
14.74161082339085
 20
0.6744954943918913
 30
0.0
 40
0.75
  1
38.281
 41
0.75
  7
TXT
 72
     1
 11
16.05411082339085
 21
0.6744954943918913
 31
0.0
100
AcDbText
  0
TEXT
  5
1DF9
330
1E
100
AcDbEntity
  8
TEXT
100
AcDbText
 10
15.86661082339085
 20
3.174495494391891
 30
0.0
 40
0.75
  1
A
 41
0.75
  7
TXT
 72
     1
 11
16.05411082339085
 21
3.174495494391891
 31
0.0
100
AcDbText
  0
TEXT
  5
1DFA
330
1E
100
AcDbEntity
  8
TEXT
100
AcDbText
 10
26.34261082339084
 20
3.174495494391891
 30
0.0
 40
0.75
  1
B
 41
0.75
  7
TXT
 72
     1
 11
26.53011082339084
 21
3.174495494391891
 31
0.0
100
AcDbText
  0
TEXT
  5
1DFB
330
1E
100
AcDbEntity
  8
TEXT
100
AcDbText
 10
25.17073582339084
 20
0.6744954943918913
 30
0.0
 40
0.75
  1
35.062
 41
0.75
  7
TXT
 72
     1
 11
26.53011082339084
 21
0.6744954943918913
 31
0.0
100
AcDbText
  0
TEXT
  5
1DFC
330
1E
100
AcDbEntity
  8
TEXT
100
AcDbText
 10
25.26448582339084
 20
1.924495494391891
 30
0.0
 40
0.75
  1
21.062
 41
0.75
  7
TXT
 72
     1
 11
26.53011082339084
 21
1.924495494391891
 31
0.0
100
AcDbText
  0
TEXT
  5
1DFD
330
1E
100
AcDbEntity
  8
TEXT
100
AcDbText
 10
35.74048582339084
 20
1.924495494391891
 30
0.0
 40
0.75
  1
23.000
 41
0.75
  7
TXT
 72
     1
 11
37.00611082339084
 21
1.924495494391891
 31
0.0
100
AcDbText
  0
TEXT
  5
1DFE
330
1E
100
AcDbEntity
  8
TEXT
100
AcDbText
 10
35.74048582339084
 20
0.6744954943918913
 30
0.0
 40
0.75
  1
37.000
 41
0.75
  7
TXT
 72
     1
 11
37.00611082339084
 21
0.6744954943918913
 31
0.0
100
AcDbText
  0
TEXT
  5
1DFF
330
1E
100
AcDbEntity
  8
TEXT
100
AcDbText
 10
36.81861082339084
 20
3.174495494391891
 30
0.0
 40
0.75
  1
C
 41
0.75
  7
TXT
 72
     1
 11
37.00611082339084
 21
3.174495494391891
 31
0.0
100
AcDbText
  0
TEXT
  5
1E00
330
1E
100
AcDbEntity
  8
TEXT
100
AcDbText
 10
46.40448582339086
 20
0.6744954943918913
 30
0.0
 40
0.75
  1
11.000
 41
0.75
  7
TXT
 72
     1
 11
47.48261082339086
 21
0.6744954943918913
 31
0.0
100
AcDbText
  0
TEXT
  5
1E01
330
1E
100
AcDbEntity
  8
TEXT
100
AcDbText
 10
46.49823582339086
 20
1.924495494391891
 30
0.0
 40
0.75
  1
7.000
 41
0.75
  7
TXT
 72
     1
 11
47.48261082339086
 21
1.924495494391891
 31
0.0
100
AcDbText
  0
TEXT
  5
1E02
330
1E
100
AcDbEntity
  8
TEXT
100
AcDbText
 10
47.29511082339086
 20
3.174495494391891
 30
0.0
 40
0.75
  1
D
 41
0.75
  7
TXT
 72
     1
 11
47.48261082339086
 21
3.174495494391891
 31
0.0
100
AcDbText
  0
TEXT
  5
1E10
330
1E
100
AcDbEntity
  8
TEXT
100
AcDbText
 10
3.231476928224026
 20
13.62248231884429
 30
0.0
 40
0.75
  1
1.) UNITS SUPPLIED UNASSEMBLED (KNOCKED DOWN)
 41
0.75
  7
TXT
100
AcDbText
  0
LINE
  5
2104
330
1E
100
AcDbEntity
  8
FRAME
100
AcDbLine
 10
61.40649346694534
 20
25.10956001401974
 30
0.0
 11
61.40649346694534
 21
63.23406001401962
 31
0.0
  0
LINE
  5
2105
330
1E
100
AcDbEntity
  8
FRAME
100
AcDbLine
 10
61.40649346694534
 20
63.23406001401962
 30
0.0
 11
43.4064934669453
 21
63.23406001401963
 31
0.0
  0
LINE
  5
2106
330
1E
100
AcDbEntity
  8
FRAME
100
AcDbLine
 10
43.4064934669453
 20
63.23406001401963
 30
0.0
 11
43.4064934669453
 21
62.23406001401961
 31
0.0
  0
LINE
  5
2107
330
1E
100
AcDbEntity
  8
FRAME
100
AcDbLine
 10
58.40649346694533
 20
31.55023989961062
 30
0.0
 11
58.4064934669453
 21
56.79338012842873
 31
0.0
  0
LINE
  5
2108
330
1E
100
AcDbEntity
  8
FRAME
100
AcDbLine
 10
43.4064934669453
 20
62.23406001401961
 30
0.0
 11
56.90898028249751
 21
58.72922800473415
 31
0.0
  0
LWPOLYLINE
  5
2109
330
1E
100
AcDbEntity
  8
FRAME
100
AcDbPolyline
 90
        4
 70
     1
 43
0.0
 10
59.28152736896845
 20
44.48442156801983
 10
59.28152736896845
 20
43.85919846001951
 42
1.0
 10
59.53145956492216
 20
43.85919846001951
 10
59.53145956492216
 20
44.48442156801983
 42
1.0
  0
LWPOLYLINE
  5
210A
330
1E
100
AcDbEntity
  8
FRAME
100
AcDbPolyline
 90
        4
 70
     1
 43
0.0
 10
60.28152736896846
 20
44.48442156801983
 10
60.28152736896846
 20
43.85919846001951
 42
1.0
 10
60.53145956492215
 20
43.85919846001951
 10
60.53145956492215
 20
44.48442156801983
 42
1.0
  0
LWPOLYLINE
  5
210B
330
1E
100
AcDbEntity
  8
FRAME
100
AcDbPolyline
 90
        4
 70
     1
 43
0.0
 10
60.28152736896846
 20
59.48442156801984
 10
60.28152736896846
 20
58.85919846001953
 42
1.0
 10
60.53145956492215
 20
58.85919846001953
 10
60.53145956492215
 20
59.48442156801984
 42
1.0
  0
LWPOLYLINE
  5
210C
330
1E
100
AcDbEntity
  8
FRAME
100
AcDbPolyline
 90
        4
 70
     1
 43
0.0
 10
59.28152736896845
 20
59.48442156801984
 10
59.28152736896845
 20
58.85919846001953
 42
1.0
 10
59.53145956492216
 20
58.85919846001953
 10
59.53145956492216
 20
59.48442156801984
 42
1.0
  0
LWPOLYLINE
  5
210D
330
1E
100
AcDbEntity
  8
FRAME
100
AcDbPolyline
 90
        4
 70
     1
 43
0.0
 10
60.28152736896846
 20
29.48442156801983
 10
60.28152736896846
 20
28.85919846001952
 42
1.0
 10
60.53145956492215
 20
28.85919846001952
 10
60.53145956492215
 20
29.48442156801983
 42
1.0
  0
LWPOLYLINE
  5
210E
330
1E
100
AcDbEntity
  8
FRAME
100
AcDbPolyline
 90
        4
 70
     1
 43
0.0
 10
59.28152736896845
 20
29.48442156801983
 10
59.28152736896845
 20
28.85919846001952
 42
1.0
 10
59.53145956492216
 20
28.85919846001952
 10
59.53145956492216
 20
29.48442156801983
 42
1.0
  0
LWPOLYLINE
  5
210F
330
1E
100
AcDbEntity
  8
FRAME
100
AcDbPolyline
 90
        4
 70
     1
 43
0.0
 10
48.09388191294516
 20
61.85902611199648
 10
48.71910502094547
 20
61.85902611199648
 42
-1.0
 10
48.71910502094547
 20
61.60909391604275
 10
48.09388191294516
 20
61.60909391604275
 42
-1.0
  0
LWPOLYLINE
  5
2110
330
1E
100
AcDbEntity
  8
FRAME
100
AcDbPolyline
 90
        4
 70
     1
 43
0.0
 10
48.09388191294516
 20
62.85902611199647
 10
48.71910502094547
 20
62.85902611199647
 42
-1.0
 10
48.71910502094547
 20
62.60909391604275
 10
48.09388191294516
 20
62.60909391604275
 42
-1.0
  0
LWPOLYLINE
  5
2111
330
1E
100
AcDbEntity
  8
FRAME
100
AcDbPolyline
 90
        4
 70
     1
 43
0.0
 10
56.15695361767973
 20
61.85902611199648
 10
56.71910502094545
 20
61.85902611199648
 42
-1.0
 10
56.71910502094545
 20
61.60909391604275
 10
56.15695361767973
 20
61.60909391604275
 42
-1.0
  0
LWPOLYLINE
  5
2112
330
1E
100
AcDbEntity
  8
FRAME
100
AcDbPolyline
 90
        4
 70
     1
 43
0.0
 10
56.15695361767973
 20
62.85902611199647
 10
56.71910502094545
 20
62.85902611199647
 42
-1.0
 10
56.71910502094545
 20
62.60909391604275
 10
56.15695361767973
 20
62.60909391604275
 42
-1.0
  0
LINE
  5
2113
330
1E
100
AcDbEntity
  8
FRAME
100
AcDbLine
 10
27.72036787803187
 20
25.10956001401969
 30
0.0
 11
27.72036787803187
 21
28.92599672015141
 31
0.0
  0
LINE
  5
2114
330
1E
100
AcDbEntity
  8
FRAME
100
AcDbLine
 10
27.72036787803187
 20
26.10956001401968
 30
0.0
 11
27.64236787803187
 21
26.10956001401968
 31
0.0
  0
LINE
  5
2115
330
1E
100
AcDbEntity
  8
FRAME
100
AcDbLine
 10
27.72036787803187
 20
62.23406001401968
 30
0.0
 11
27.64236787803187
 21
62.23406001401968
 31
0.0
  0
DIMENSION
  5
2116
330
1E
100
AcDbEntity
  8
DIM
100
AcDbDimension
  2
*D4
 10
40.08418076411823
 20
63.31206001401962
 30
0.0
 11
40.08418076411821
 21
44.17181001401965
 31
0.0
 70
    32
  1
A %%p0.062
 71
     5
 42
38.28049999999994
  3
23NSTD
100
AcDbAlignedDimension
 13
27.72036787803187
 23
25.03156001401967
 33
0.0
 14
27.72036787803187
 24
63.31206001401962
 34
0.0
 50
90.0
100
AcDbRotatedDimension
  0
CIRCLE
  5
2117
330
1E
100
AcDbEntity
  8
DOOR
100
AcDbCircle
 10
7.939367878031902
 20
26.92181001401968
 30
0.0
 40
0.1
  0
CIRCLE
  5
2118
330
1E
100
AcDbEntity
  8
DOOR
100
AcDbCircle
 10
7.939367878031902
 20
27.54681001401968
 30
0.0
 40
0.1
  0
CIRCLE
  5
2119
330
1E
100
AcDbEntity
  8
DOOR
100
AcDbCircle
 10
7.939367878031902
 20
28.17181001401968
 30
0.0
 40
0.1
  0
LINE
  5
211A
330
1E
100
AcDbEntity
  8
DOOR
100
AcDbLine
 10
8.189367878031887
 20
61.70281001401967
 30
0.0
 11
8.189367878031902
 21
26.64081001401967
 31
0.0
  0
LINE
  5
211B
330
1E
100
AcDbEntity
  8
DOOR
100
AcDbLine
 10
7.095367878031893
 20
26.64081001401967
 30
0.0
 11
27.09536787803187
 21
26.64081001401967
 31
0.0
  0
LINE
  5
211C
330
1E
100
AcDbEntity
  8
DOOR
100
AcDbLine
 10
26.00136787803188
 20
61.70281001401967
 30
0.0
 11
26.00136787803188
 21
26.64081001401967
 31
0.0
  0
CIRCLE
  5
211D
330
1E
100
AcDbEntity
  8
DOOR
100
AcDbCircle
 10
26.25136787803188
 20
27.54681001401968
 30
0.0
 40
0.1
  0
CIRCLE
  5
211E
330
1E
100
AcDbEntity
  8
DOOR
100
AcDbCircle
 10
26.25136787803188
 20
26.92181001401968
 30
0.0
 40
0.1
  0
CIRCLE
  5
211F
330
1E
100
AcDbEntity
  8
DOOR
100
AcDbCircle
 10
26.25136787803188
 20
28.17181001401968
 30
0.0
 40
0.1
  0
LINE
  5
2120
330
1E
100
AcDbEntity
  8
DOOR
100
AcDbLine
 10
7.095367878031893
 20
61.70281001401967
 30
0.0
 11
27.09536787803187
 21
61.70281001401967
 31
0.0
  0
LINE
  5
2121
330
1E
100
AcDbEntity
  8
DOOR
100
AcDbLine
 10
27.09536787803187
 20
25.67181001401968
 30
0.0
 11
27.09536787803187
 21
62.67181001401969
 31
0.0
  0
LINE
  5
2122
330
1E
100
AcDbEntity
  8
DOOR
100
AcDbLine
 10
7.095367878031893
 20
25.67181001401968
 30
0.0
 11
7.095367878031893
 21
62.67181001401969
 31
0.0
  0
LINE
  5
2123
330
1E
100
AcDbEntity
  8
DOOR
100
AcDbLine
 10
7.095367878031893
 20
62.67181001401969
 30
0.0
 11
27.09536787803187
 21
62.67181001401969
 31
0.0
  0
LINE
  5
2124
330
1E
100
AcDbEntity
  8
DOOR
100
AcDbLine
 10
7.095367878031893
 20
25.67181001401968
 30
0.0
 11
27.09536787803187
 21
25.67181001401968
 31
0.0
  0
DIMENSION
  5
2125
330
1E
100
AcDbEntity
  8
DIM
100
AcDbDimension
  2
*D12
 10
26.00136787803188
 20
39.91021637206279
 30
0.0
 11
17.09536787803189
 21
39.91021637206279
 31
0.0
 70
    32
  1
<> %%p0.062
 71
     5
 42
17.81199999999998
  3
23NSTD
100
AcDbAlignedDimension
 13
8.189367878031902
 23
39.91021637206279
 33
0.0
 14
26.00136787803188
 24
39.91021637206279
 34
0.0
100
AcDbRotatedDimension
  0
DIMENSION
  5
2126
330
1E
100
AcDbEntity
  8
DIM
100
AcDbDimension
  2
*D11
 10
26.25136787803188
 20
41.66319185344348
 30
0.0
 11
17.09536787803189
 21
41.66319185344348
 31
0.0
 70
    32
  1
<> %%p0.062
 71
     5
 42
18.31199999999998
  3
23NSTD
100
AcDbAlignedDimension
 13
7.939367878031902
 23
40.92969185344348
 33
0.0
 14
26.25136787803188
 24
40.92969185344348
 34
0.0
100
AcDbRotatedDimension
  0
DIMENSION
  5
2127
330
1E
100
AcDbEntity
  8
DIM
100
AcDbDimension
  2
*D7
 10
25.09536787803188
 20
51.16591639771876
 30
0.0
 11
17.09536787803187
 21
51.16591639771876
 31
0.0
 70
    32
 71
     5
 42
16.0
  3
23NSTD
100
AcDbAlignedDimension
 13
9.095367878031879
 23
49.67181001401968
 33
0.0
 14
25.09536787803188
 24
49.67181001401968
 34
0.0
100
AcDbRotatedDimension
  0
LINE
  5
2128
330
1E
100
AcDbEntity
  8
HIDDEN
100
AcDbLine
 10
6.470367878031893
 20
72.11087030581936
 30
0.0
 11
9.970367878031879
 21
72.11087030581936
 31
0.0
  0
LINE
  5
2129
330
1E
100
AcDbEntity
  8
FRAME
100
AcDbLine
 10
6.564367878031887
 20
74.21987030581935
 30
0.0
 11
27.62636787803188
 21
74.21987030581935
 31
0.0
  0
LWPOLYLINE
  5
212A
330
1E
100
AcDbEntity
  8
FRAME
100
AcDbPolyline
 90
        4
 70
     1
 43
0.0
 10
6.845401780055027
 20
88.3607587518192
 10
6.845401780055027
 20
88.98598185981951
 42
-1.0
 10
7.095333976008745
 20
88.98598185981951
 10
7.095333976008745
 20
88.3607587518192
 42
-1.0
  0
LWPOLYLINE
  5
212B
330
1E
100
AcDbEntity
  8
FRAME
100
AcDbPolyline
 90
        4
 70
     1
 43
0.0
 10
7.845401780055027
 20
88.3607587518192
 10
7.845401780055027
 20
88.98598185981951
 42
-1.0
 10
8.095333976008745
 20
88.98598185981951
 10
8.095333976008745
 20
88.3607587518192
 42
-1.0
  0
LWPOLYLINE
  5
212C
330
1E
100
AcDbEntity
  8
FRAME
100
AcDbPolyline
 90
        4
 70
     1
 43
0.0
 10
7.845401780055027
 20
75.36075875181921
 10
7.845401780055027
 20
75.98598185981952
 42
-1.0
 10
8.095333976008745
 20
75.98598185981952
 10
8.095333976008745
 20
75.36075875181921
 42
-1.0
  0
LWPOLYLINE
  5
212D
330
1E
100
AcDbEntity
  8
FRAME
100
AcDbPolyline
 90
        4
 70
     1
 43
0.0
 10
6.845401780055027
 20
75.36075875181921
 10
6.845401780055027
 20
75.98598185981952
 42
-1.0
 10
7.095333976008745
 20
75.98598185981952
 10
7.095333976008745
 20
75.36075875181921
 42
-1.0
  0
LINE
  5
212E
330
1E
100
AcDbEntity
  8
FRAME
100
AcDbLine
 10
6.470367878031893
 20
90.11087030581936
 30
0.0
 11
9.970367878031879
 21
90.11087030581938
 31
0.0
  0
LINE
  5
212F
330
1E
100
AcDbEntity
  8
FRAME
100
AcDbLine
 10
9.970367878031879
 20
90.03287030581937
 30
0.0
 11
9.970367878031879
 21
90.11087030581938
 31
0.0
  0
LWPOLYLINE
  5
2130
330
1E
100
AcDbEntity
  8
FRAME
100
AcDbPolyline
 90
        4
 70
     1
 43
0.0
 10
6.845401780055027
 20
81.8607587518192
 10
6.845401780055027
 20
82.48598185981952
 42
-1.0
 10
7.095333976008745
 20
82.48598185981952
 10
7.095333976008745
 20
81.8607587518192
 42
-1.0
  0
LWPOLYLINE
  5
2131
330
1E
100
AcDbEntity
  8
FRAME
100
AcDbPolyline
 90
        4
 70
     1
 43
0.0
 10
7.845401780055027
 20
81.8607587518192
 10
7.845401780055027
 20
82.48598185981952
 42
-1.0
 10
8.095333976008745
 20
82.48598185981952
 10
8.095333976008745
 20
81.8607587518192
 42
-1.0
  0
LWPOLYLINE
  5
2132
330
1E
100
AcDbEntity
  8
FRAME
100
AcDbPolyline
 90
        4
 70
     1
 43
0.0
 10
12.7827563240317
 20
73.48590420784249
 10
13.40797943203205
 20
73.48590420784249
 42
1.0
 10
13.40797943203205
 20
73.73583640379623
 10
12.7827563240317
 20
73.73583640379623
 42
1.0
  0
LWPOLYLINE
  5
2133
330
1E
100
AcDbEntity
  8
FRAME
100
AcDbPolyline
 90
        4
 70
     1
 43
0.0
 10
12.7827563240317
 20
72.48590420784251
 10
13.40797943203205
 20
72.48590420784251
 42
1.0
 10
13.40797943203205
 20
72.73583640379623
 10
12.7827563240317
 20
72.73583640379623
 42
1.0
  0
LWPOLYLINE
  5
2134
330
1E
100
AcDbEntity
  8
FRAME
100
AcDbPolyline
 90
        4
 70
     1
 43
0.0
 10
20.7827563240317
 20
72.48590420784251
 10
21.40797943203204
 20
72.48590420784251
 42
1.0
 10
21.40797943203204
 20
72.73583640379623
 10
20.7827563240317
 20
72.73583640379623
 42
1.0
  0
LWPOLYLINE
  5
2135
330
1E
100
AcDbEntity
  8
FRAME
100
AcDbPolyline
 90
        4
 70
     1
 43
0.0
 10
20.7827563240317
 20
73.48590420784249
 10
21.40797943203204
 20
73.48590420784249
 42
1.0
 10
21.40797943203204
 20
73.73583640379623
 10
20.7827563240317
 20
73.73583640379623
 42
1.0
  0
LWPOLYLINE
  5
2136
330
1E
100
AcDbEntity
  8
FRAME
100
AcDbPolyline
 90
        4
 70
     1
 43
0.0
 10
27.34533397600873
 20
75.36075875181921
 10
27.34533397600873
 20
75.98598185981952
 42
1.0
 10
27.09540178005502
 20
75.98598185981952
 10
27.09540178005502
 20
75.36075875181921
 42
1.0
  0
LWPOLYLINE
  5
2137
330
1E
100
AcDbEntity
  8
FRAME
100
AcDbPolyline
 90
        4
 70
     1
 43
0.0
 10
26.34533397600873
 20
75.36075875181921
 10
26.34533397600873
 20
75.98598185981952
 42
1.0
 10
26.09540178005502
 20
75.98598185981952
 10
26.09540178005502
 20
75.36075875181921
 42
1.0
  0
LINE
  5
2138
330
1E
100
AcDbEntity
  8
FRAME
100
AcDbLine
 10
27.72036787803187
 20
90.11087030581936
 30
0.0
 11
24.22036787803188
 21
90.11087030581938
 31
0.0
  0
LWPOLYLINE
  5
2139
330
1E
100
AcDbEntity
  8
FRAME
100
AcDbPolyline
 90
        4
 70
     1
 43
0.0
 10
26.34533397600873
 20
81.8607587518192
 10
26.34533397600873
 20
82.48598185981952
 42
1.0
 10
26.09540178005502
 20
82.48598185981952
 10
26.09540178005502
 20
81.8607587518192
 42
1.0
  0
LWPOLYLINE
  5
213A
330
1E
100
AcDbEntity
  8
FRAME
100
AcDbPolyline
 90
        4
 70
     1
 43
0.0
 10
27.34533397600873
 20
81.8607587518192
 10
27.34533397600873
 20
82.48598185981952
 42
1.0
 10
27.09540178005502
 20
82.48598185981952
 10
27.09540178005502
 20
81.8607587518192
 42
1.0
  0
LWPOLYLINE
  5
213B
330
1E
100
AcDbEntity
  8
FRAME
100
AcDbPolyline
 90
        4
 70
     1
 43
0.0
 10
26.34533397600873
 20
88.3607587518192
 10
26.34533397600873
 20
88.98598185981951
 42
1.0
 10
26.09540178005502
 20
88.98598185981951
 10
26.09540178005502
 20
88.3607587518192
 42
1.0
  0
LWPOLYLINE
  5
213C
330
1E
100
AcDbEntity
  8
FRAME
100
AcDbPolyline
 90
        4
 70
     1
 43
0.0
 10
27.34533397600873
 20
88.3607587518192
 10
27.34533397600873
 20
88.98598185981951
 42
1.0
 10
27.09540178005502
 20
88.98598185981951
 10
27.09540178005502
 20
88.3607587518192
 42
1.0
  0
LINE
  5
213D
330
1E
100
AcDbEntity
  8
FRAME
100
AcDbLine
 10
24.22036787803188
 20
90.03287030581937
 30
0.0
 11
24.22036787803188
 21
90.11087030581938
 31
0.0
  0
LWPOLYLINE
  5
213E
330
1E
100
AcDbEntity
  8
FRAME
100
AcDbPolyline
 90
        8
 70
     1
 43
0.0
 10
24.98636787803187
 20
49.98381001401968
 10
24.98636787803187
 20
49.90510221277481
 42
0.6365407878720918
 10
24.98636787803187
 20
49.43851781526456
 10
24.98636787803187
 20
49.35981001401969
 42
1.0
 10
25.20436787803189
 20
49.35981001401969
 10
25.20436787803189
 20
49.43851781526456
 42
0.6365407878720908
 10
25.20436787803189
 20
49.90510221277481
 10
25.20436787803189
 20
49.98381001401968
 42
1.0
  0
LWPOLYLINE
  5
213F
330
1E
100
AcDbEntity
  8
FRAME
100
AcDbPolyline
 90
        8
 70
     1
 43
0.0
 10
24.98636787803187
 20
38.98381001401968
 10
24.98636787803187
 20
38.9051022127748
 42
0.6365407878720918
 10
24.98636787803187
 20
38.43851781526456
 10
24.98636787803187
 20
38.35981001401968
 42
1.0
 10
25.20436787803189
 20
38.35981001401968
 10
25.20436787803189
 20
38.43851781526456
 42
0.6365407878720908
 10
25.20436787803189
 20
38.9051022127748
 10
25.20436787803189
 20
38.98381001401968
 42
1.0
  0
LWPOLYLINE
  5
2140
330
1E
100
AcDbEntity
  8
FRAME
100
AcDbPolyline
 90
        8
 70
     1
 43
0.0
 10
8.986367878031884
 20
38.98381001401968
 10
8.986367878031884
 20
38.9051022127748
 42
0.6365407878720918
 10
8.986367878031884
 20
38.43851781526456
 10
8.986367878031884
 20
38.35981001401968
 42
1.0
 10
9.204367878031888
 20
38.35981001401968
 10
9.204367878031888
 20
38.43851781526456
 42
0.6365407878720908
 10
9.204367878031888
 20
38.9051022127748
 10
9.204367878031888
 20
38.98381001401968
 42
1.0
  0
LWPOLYLINE
  5
2141
330
1E
100
AcDbEntity
  8
FRAME
100
AcDbPolyline
 90
        8
 70
     1
 43
0.0
 10
8.986367878031884
 20
49.98381001401968
 10
8.986367878031884
 20
49.90510221277481
 42
0.6365407878720918
 10
8.986367878031884
 20
49.43851781526456
 10
8.986367878031884
 20
49.35981001401969
 42
1.0
 10
9.204367878031888
 20
49.35981001401969
 10
9.204367878031888
 20
49.43851781526456
 42
0.6365407878720908
 10
9.204367878031888
 20
49.90510221277481
 10
9.204367878031888
 20
49.98381001401968
 42
1.0
  0
LINE
  5
2142
330
1E
100
AcDbEntity
  8
DOOR
100
AcDbLine
 10
43.4064934669453
 20
61.70281001401967
 30
0.0
 11
43.48449346694531
 21
61.70281001401967
 31
0.0
  0
LINE
  5
2143
330
1E
100
AcDbEntity
  8
DOOR
100
AcDbLine
 10
43.4064934669453
 20
61.70281001401967
 30
0.0
 11
43.4064934669453
 21
62.23406001401961
 31
0.0
  0
LWPOLYLINE
  5
2144
330
1E
100
AcDbEntity
  8
DOOR
100
AcDbPolyline
 90
        4
 70
     1
 43
0.0
 10
43.78152736896845
 20
59.48442156801984
 10
43.78152736896845
 20
58.85919846001953
 42
1.0
 10
44.03145956492216
 20
58.85919846001953
 10
44.03145956492216
 20
59.48442156801984
 42
1.0
  0
LWPOLYLINE
  5
2145
330
1E
100
AcDbEntity
  8
DOOR
100
AcDbPolyline
 90
        4
 70
     1
 43
0.0
 10
44.78152736896842
 20
59.48442156801984
 10
44.78152736896842
 20
58.85919846001953
 42
1.0
 10
45.03145956492216
 20
58.85919846001953
 10
45.03145956492216
 20
59.48442156801984
 42
1.0
  0
LWPOLYLINE
  5
2146
330
1E
100
AcDbEntity
  8
DOOR
100
AcDbPolyline
 90
        4
 70
     1
 43
0.0
 10
43.78152736896845
 20
29.48442156801984
 10
43.78152736896845
 20
28.85919846001952
 42
1.0
 10
44.03145956492216
 20
28.85919846001952
 10
44.03145956492216
 20
29.48442156801984
 42
1.0
  0
LWPOLYLINE
  5
2147
330
1E
100
AcDbEntity
  8
DOOR
100
AcDbPolyline
 90
        4
 70
     1
 43
0.0
 10
44.78152736896842
 20
29.48442156801984
 10
44.78152736896842
 20
28.85919846001952
 42
1.0
 10
45.03145956492216
 20
28.85919846001952
 10
45.03145956492216
 20
29.48442156801984
 42
1.0
  0
LWPOLYLINE
  5
2148
330
1E
100
AcDbEntity
  8
DOOR
100
AcDbPolyline
 90
        4
 70
     1
 43
0.0
 10
44.78152736896842
 20
44.48442156801983
 10
44.78152736896842
 20
43.85919846001951
 42
1.0
 10
45.03145956492216
 20
43.85919846001951
 10
45.03145956492216
 20
44.48442156801983
 42
1.0
  0
LWPOLYLINE
  5
2149
330
1E
100
AcDbEntity
  8
DOOR
100
AcDbPolyline
 90
        4
 70
     1
 43
0.0
 10
43.78152736896845
 20
44.48442156801983
 10
43.78152736896845
 20
43.85919846001951
 42
1.0
 10
44.03145956492216
 20
43.85919846001951
 10
44.03145956492216
 20
44.48442156801983
 42
1.0
  0
DIMENSION
  5
214A
330
1E
100
AcDbEntity
  8
DIM
100
AcDbDimension
  2
*D18
 10
31.50236379600524
 20
72.11087030581936
 30
0.0
 11
31.50236379600523
 21
81.11087030581936
 31
0.0
 70
    32
  1
<> %%p0.062
 71
     5
 42
18.0
  3
23NSTD
100
AcDbAlignedDimension
 13
27.72036787803187
 23
90.11087030581936
 33
0.0
 14
27.72036787803187
 24
72.11087030581936
 34
0.0
 50
90.0
100
AcDbRotatedDimension
  0
DIMENSION
  5
214B
330
1E
100
AcDbEntity
  8
DIM
100
AcDbDimension
  2
*D3
 10
35.18380220833739
 20
61.70281001401967
 30
0.0
 11
35.18380220833738
 21
44.17181001401968
 31
0.0
 70
    32
  1
B %%p0.031
 71
     5
 42
35.06199999999999
  3
23NSTD
100
AcDbAlignedDimension
 13
27.09536787803187
 23
26.64081001401968
 33
0.0
 14
27.09536787803187
 24
61.70281001401967
 34
0.0
 50
90.0
100
AcDbRotatedDimension
  0
DIMENSION
  5
214C
330
1E
100
AcDbEntity
  8
DIM
100
AcDbDimension
  2
*D16
 10
3.595297970747907
 20
63.31206001401969
 30
0.0
 11
3.595297970747897
 21
61.99193501401969
 31
0.0
 70
    32
  1
E
 71
     5
 42
2.640250000000008
  3
23NSTD
100
AcDbAlignedDimension
 13
9.095367878031893
 23
60.67181001401968
 33
0.0
 14
6.470367878031893
 24
63.31206001401969
 34
0.0
 50
90.0
100
AcDbRotatedDimension
  0
DIMENSION
  5
214D
330
1E
100
AcDbEntity
  8
DIM
100
AcDbDimension
  2
*D6
 10
3.595297970747907
 20
49.67181001401968
 30
0.0
 11
3.595297970747899
 21
55.17181001401969
 31
0.0
 70
    32
  1
D
 71
     5
 42
11.0
  3
23NSTD
100
AcDbAlignedDimension
 13
9.095367878031893
 23
60.67181001401968
 33
0.0
 14
9.095367878031879
 24
49.67181001401968
 34
0.0
 50
90.0
100
AcDbRotatedDimension
  0
DIMENSION
  5
214E
330
1E
100
AcDbEntity
  8
DIM
100
AcDbDimension
  2
*D10
 10
3.595297970747907
 20
38.67181001401968
 30
0.0
 11
3.595297970747901
 21
44.17181001401968
 31
0.0
 70
    32
  1
D
 71
     5
 42
11.0
  3
23NSTD
100
AcDbAlignedDimension
 13
9.095367878031879
 23
49.67181001401968
 33
0.0
 14
9.095367878031879
 24
38.67181001401968
 34
0.0
 50
90.0
100
AcDbRotatedDimension
  0
DIMENSION
  5
214F
330
1E
100
AcDbEntity
  8
DIM
100
AcDbDimension
  2
*D9
 10
3.595297970747907
 20
27.67181001401968
 30
0.0
 11
3.595297970747903
 21
33.17181001401968
 31
0.0
 70
    32
  1
D
 71
     5
 42
11.0
  3
23NSTD
100
AcDbAlignedDimension
 13
9.095367878031879
 23
38.67181001401968
 33
0.0
 14
9.095367878031893
 24
27.67181001401968
 34
0.0
 50
90.0
100
AcDbRotatedDimension
  0
DIMENSION
  5
2150
330
1E
100
AcDbEntity
  8
DIM
100
AcDbDimension
  2
*D15
 10
27.72036787803187
 20
68.26868783155358
 30
0.0
 11
17.09536787803187
 21
68.26868783155358
 31
0.0
 70
   160
  1
<> %%p0.062
 71
     5
 42
21.24999999999998
  3
23NSTD
100
AcDbAlignedDimension
 13
6.470367878031893
 23
63.31206001401969
 33
0.0
 14
27.72036787803187
 24
63.31206001401962
 34
0.0
 50
180.0
100
AcDbRotatedDimension
  0
DIMENSION
  5
2151
330
1E
100
AcDbEntity
  8
DIM
100
AcDbDimension
  2
*D14
 10
27.09536787803187
 20
66.62264505487063
 30
0.0
 11
17.09536787803188
 21
66.62264505487063
 31
0.0
 70
    32
  1
<> %%p0.062
 71
     5
 42
19.99999999999998
  3
23NSTD
100
AcDbAlignedDimension
 13
7.095367878031893
 23
62.67381001401968
 33
0.0
 14
27.09536787803187
 24
62.67381001401968
 34
0.0
100
AcDbRotatedDimension
  0
DIMENSION
  5
2152
330
1E
100
AcDbEntity
  8
DIM
100
AcDbDimension
  2
*D17
 10
6.470367878031893
 20
66.62264505487063
 30
0.0
 11
2.692242878031893
 21
66.62264505487063
 31
0.0
 70
    32
 71
     5
 42
0.625
  3
23NSTD
100
AcDbAlignedDimension
 13
7.095367878031893
 23
62.67381001401968
 33
0.0
 14
6.470367878031893
 24
63.31206001401969
 34
0.0
100
AcDbRotatedDimension
  0
DIMENSION
  5
2153
330
1E
100
AcDbEntity
  8
DIM
100
AcDbDimension
  2
*D19
 10
27.72036787803187
 20
66.62264505487063
 30
0.0
 11
31.49849287803188
 21
66.62264505487063
 31
0.0
 70
    32
 71
     5
 42
0.625
  3
23NSTD
100
AcDbAlignedDimension
 13
27.09536787803187
 23
62.67381001401968
 33
0.0
 14
27.72036787803187
 24
63.31206001401962
 34
0.0
100
AcDbRotatedDimension
  0
DIMENSION
  5
2154
330
1E
100
AcDbEntity
  8
DIM
100
AcDbDimension
  2
*D2
 10
35.18380220833739
 20
25.03156001401967
 30
0.0
 11
35.18380220833739
 21
25.83618501401968
 31
0.0
 70
    32
 71
     5
 42
1.609250000000006
  3
23NSTDI
100
AcDbAlignedDimension
 13
27.09536787803187
 23
26.64081001401968
 33
0.0
 14
27.72036787803187
 24
25.03156001401967
 34
0.0
 50
90.0
100
AcDbRotatedDimension
  0
DIMENSION
  5
2155
330
1E
100
AcDbEntity
  8
DIM
100
AcDbDimension
  2
*D13
 10
30.42515593405417
 20
25.03156001401967
 30
0.0
 11
27.77390593405417
 21
22.67008384775613
 31
0.0
 70
   160
 71
     5
 42
0.6402500000000054
  3
23NSTD
100
AcDbAlignedDimension
 13
27.09536787803187
 23
25.67181001401968
 33
0.0
 14
27.72036787803187
 24
25.03156001401967
 34
0.0
 50
90.0
100
AcDbRotatedDimension
  0
DIMENSION
  5
2156
330
1E
100
AcDbEntity
  8
DIM
100
AcDbDimension
  2
*D5
 10
30.42515593405417
 20
25.67181001401968
 30
0.0
 11
30.42515593405417
 21
44.17181001401969
 31
0.0
 70
    32
  1
C
 71
     5
 42
37.0
  3
23NSTD
100
AcDbAlignedDimension
 13
27.09536787803187
 23
62.67181001401969
 33
0.0
 14
27.09536787803187
 24
25.67181001401968
 34
0.0
 50
90.0
100
AcDbRotatedDimension
1001
ACAD
1000
DSTYLE
1002
{
1070
   283
1070
     1
1070
   146
1040
0.8
1070
    48
1040
0.031
1070
   147
1040
0.09
1070
    72
1070
     0
1070
    71
1070
     0
1002
}
  0
DIMENSION
  5
2157
330
1E
100
AcDbEntity
  8
DIM
100
AcDbDimension
  2
*D20
 10
30.42515593405417
 20
63.31206001401962
 30
0.0
 11
33.07640593405416
 21
65.47206001401963
 31
0.0
 70
    32
 71
     5
 42
0.6402499999999379
  3
23NSTD
100
AcDbAlignedDimension
 13
27.09536787803187
 23
62.67181001401969
 33
0.0
 14
27.72036787803187
 24
63.31206001401962
 34
0.0
 50
90.0
100
AcDbRotatedDimension
  0
DIMENSION
  5
2158
330
1E
100
AcDbEntity
  8
DIM
100
AcDbDimension
  2
*D1
 10
35.18380220833739
 20
63.31206001401962
 30
0.0
 11
35.18380220833739
 21
62.50743501401966
 31
0.0
 70
    32
 71
     5
 42
1.609249999999946
  3
23NSTDI
100
AcDbAlignedDimension
 13
27.09536787803187
 23
61.70281001401967
 33
0.0
 14
27.72036787803187
 24
63.31206001401962
 34
0.0
 50
90.0
100
AcDbRotatedDimension
  0
DIMENSION
  5
2159
330
1E
100
AcDbEntity
  8
DIM
100
AcDbDimension
  2
*D8
 10
3.595297970747907
 20
25.03156001401967
 30
0.0
 11
3.595297970747903
 21
26.35168501401968
 31
0.0
 70
    32
  1
E
 71
     5
 42
2.640250000000008
  3
23NSTD
100
AcDbAlignedDimension
 13
9.095367878031893
 23
27.67181001401968
 33
0.0
 14
6.470367878031893
 24
25.03156001401967
 34
0.0
 50
90.0
100
AcDbRotatedDimension
  0
TEXT
  5
215A
330
1E
100
AcDbEntity
  8
TEXT
100
AcDbText
 10
14.9015273121779
 20
70.05974836797403
 30
0.0
 40
0.78125
  1
%%UTOP VIEW
 41
0.75
  7
TXT
 72
     4
 11
17.2550429371779
 21
70.37224836797403
 31
0.0
100
AcDbText
  0
TEXT
  5
215B
330
1E
100
AcDbEntity
  8
TEXT
100
AcDbText
 10
14.3155898121779
 20
23.15143807617434
 30
0.0
 40
0.78125
  1
%%UFRONT VIEW
 41
0.75
  7
TXT
 72
     4
 11
17.2550429371779
 21
23.46393807617434
 31
0.0
100
AcDbText
  0
TEXT
  5
215C
330
1E
100
AcDbEntity
  8
TEXT
100
AcDbText
 10
48.35718415109133
 20
22.92043807617435
 30
0.0
 40
0.78125
  1
%%URIGHT SIDE VIEW
 41
0.75
  7
TXT
 72
     4
 11
52.56616852609133
 21
23.23293807617435
 31
0.0
100
AcDbText
  0
LINE
  5
2161
330
1E
100
AcDbEntity
  8
FRAME
100
AcDbLine
 10
27.64236787803187
 20
25.18756001401968
 30
0.0
 11
27.64236787803187
 21
28.92599672015141
 31
0.0
  0
LINE
  5
2162
330
1E
100
AcDbEntity
  8
FRAME
100
AcDbLine
 10
6.564367878031887
 20
63.31206001401969
 30
0.0
 11
27.62636787803188
 21
63.31206001401962
 31
0.0
  0
LINE
  5
2163
330
1E
100
AcDbEntity
  8
HIDDEN
100
AcDbLine
 10
6.470367878031879
 20
63.23406001401969
 30
0.0
 11
27.72036787803187
 21
63.23406001401967
 31
0.0
  0
LINE
  5
2164
330
1E
100
AcDbEntity
  8
FRAME
100
AcDbLine
 10
9.970367878031879
 20
26.64081001401967
 30
0.0
 11
9.970367878031879
 21
61.70281001401967
 31
0.0
  0
LINE
  5
2165
330
1E
100
AcDbEntity
  8
FRAME
100
AcDbLine
 10
24.22036787803188
 20
26.64081001401967
 30
0.0
 11
24.22036787803188
 21
61.70281001401967
 31
0.0
  0
LINE
  5
2166
330
1E
100
AcDbEntity
  8
DOOR
100
AcDbLine
 10
43.48449346694531
 20
26.12980642495564
 30
0.0
 11
43.48449346694531
 21
62.2138136030837
 31
0.0
  0
LINE
  5
2167
330
1E
100
AcDbEntity
  8
DOOR
100
AcDbLine
 10
45.3284934669453
 20
26.60845234503004
 30
0.0
 11
45.3284934669453
 21
61.73516768300932
 31
0.0
  0
LINE
  5
2168
330
1E
100
AcDbEntity
  8
FRAME
100
AcDbLine
 10
61.40649346694534
 20
25.10956001401974
 30
0.0
 11
43.4064934669453
 21
25.10956001401974
 31
0.0
  0
LINE
  5
2169
330
1E
100
AcDbEntity
  8
FRAME
100
AcDbLine
 10
43.4064934669453
 20
25.10956001401974
 30
0.0
 11
43.4064934669453
 21
26.10956001401974
 31
0.0
  0
LINE
  5
216A
330
1E
100
AcDbEntity
  8
DOOR
100
AcDbLine
 10
43.4064934669453
 20
26.64081001401969
 30
0.0
 11
43.4064934669453
 21
26.10956001401974
 31
0.0
  0
LINE
  5
216B
330
1E
100
AcDbEntity
  8
DOOR
100
AcDbLine
 10
43.4064934669453
 20
26.64081001401969
 30
0.0
 11
43.48449346694531
 21
26.64081001401969
 31
0.0
  0
LWPOLYLINE
  5
216C
330
1E
100
AcDbEntity
  8
FRAME
100
AcDbPolyline
 90
        4
 70
     1
 43
0.0
 10
48.09388191294516
 20
26.48459391604289
 10
48.71910502094547
 20
26.48459391604289
 42
1.0
 10
48.71910502094547
 20
26.73452611199661
 10
48.09388191294516
 20
26.73452611199661
 42
1.0
  0
LWPOLYLINE
  5
216D
330
1E
100
AcDbEntity
  8
FRAME
100
AcDbPolyline
 90
        4
 70
     1
 43
0.0
 10
48.09388191294516
 20
25.48459391604289
 10
48.71910502094547
 20
25.48459391604289
 42
1.0
 10
48.71910502094547
 20
25.73452611199661
 10
48.09388191294516
 20
25.73452611199661
 42
1.0
  0
LWPOLYLINE
  5
216E
330
1E
100
AcDbEntity
  8
FRAME
100
AcDbPolyline
 90
        4
 70
     1
 43
0.0
 10
56.0938819129451
 20
26.48459391604289
 10
56.71910502094545
 20
26.48459391604289
 42
1.0
 10
56.71910502094545
 20
26.73452611199661
 10
56.0938819129451
 20
26.73452611199661
 42
1.0
  0
LWPOLYLINE
  5
216F
330
1E
100
AcDbEntity
  8
FRAME
100
AcDbPolyline
 90
        4
 70
     1
 43
0.0
 10
56.0938819129451
 20
25.48459391604289
 10
56.71910502094545
 20
25.48459391604289
 42
1.0
 10
56.71910502094545
 20
25.73452611199661
 10
56.0938819129451
 20
25.73452611199661
 42
1.0
  0
LINE
  5
2170
330
1E
100
AcDbEntity
  8
FRAME
100
AcDbLine
 10
43.4064934669453
 20
26.10956001401974
 30
0.0
 11
56.90898028249751
 21
29.61439202330521
 31
0.0
  0
LINE
  5
2171
330
1E
100
AcDbEntity
  8
OBJECT
100
AcDbLine
 10
27.34711787803189
 20
28.29681001401968
 30
0.0
 11
27.34711787803189
 21
28.73849672015141
 31
0.0
  0
LINE
  5
2172
330
1E
100
AcDbEntity
  8
OBJECT
100
AcDbLine
 10
27.15961787803189
 20
28.29681001401968
 30
0.0
 11
27.15961787803189
 21
28.73849672015141
 31
0.0
  0
LINE
  5
2173
330
1E
100
AcDbEntity
  8
OBJECT
100
AcDbLine
 10
27.09536787803187
 20
28.29681001401968
 30
0.0
 11
27.41136787803188
 21
28.29681001401968
 31
0.0
  0
LINE
  5
2174
330
1E
100
AcDbEntity
  8
OBJECT
100
AcDbLine
 10
27.41136787803188
 20
26.29681001401968
 30
0.0
 11
27.09536787803187
 21
26.29681001401968
 31
0.0
  0
LINE
  5
2175
330
1E
100
AcDbEntity
  8
OBJECT
100
AcDbLine
 10
27.34711787803189
 20
26.79681001401968
 30
0.0
 11
27.34711787803189
 21
27.79681001401968
 31
0.0
  0
LINE
  5
2176
330
1E
100
AcDbEntity
  8
OBJECT
100
AcDbLine
 10
27.15961787803189
 20
26.79681001401968
 30
0.0
 11
27.15961787803189
 21
27.79681001401968
 31
0.0
  0
LINE
  5
2177
330
1E
100
AcDbEntity
  8
OBJECT
100
AcDbLine
 10
27.14394175665722
 20
27.07358900896558
 30
0.0
 11
27.35515751828231
 21
27.02071566450378
 31
0.0
  0
ARC
  5
2178
330
1E
100
AcDbEntity
  8
OBJECT
100
AcDbCircle
 10
27.35765751828228
 20
27.03296311321768
 30
0.0
 40
0.0125
100
AcDbArc
 50
258.4630409672001
 51
73.42903577620035
  0
LINE
  5
2179
330
1E
100
AcDbEntity
  8
OBJECT
100
AcDbLine
 10
27.41136787803188
 20
26.79681001401968
 30
0.0
 11
27.09536787803187
 21
26.79681001401968
 31
0.0
  0
LINE
  5
217A
330
1E
100
AcDbEntity
  8
OBJECT
100
AcDbLine
 10
27.41136787803188
 20
26.29681001401968
 30
0.0
 11
27.41136787803188
 21
26.79681001401968
 31
0.0
  0
LINE
  5
217B
330
1E
100
AcDbEntity
  8
OBJECT
100
AcDbLine
 10
27.24119407356193
 20
26.82181001401967
 30
0.0
 11
27.24119407356193
 21
26.79681001401968
 31
0.0
  0
ARC
  5
217C
330
1E
100
AcDbEntity
  8
OBJECT
100
AcDbCircle
 10
27.15796291901102
 20
26.80931001401968
 30
0.0
 40
0.0125
100
AcDbArc
 50
90.0
 51
270.0
  0
LINE
  5
217D
330
1E
100
AcDbEntity
  8
OBJECT
100
AcDbLine
 10
27.14807054958015
 20
26.97036802682879
 30
0.0
 11
27.3509569469679
 21
26.91957976039847
 31
0.0
  0
ARC
  5
217E
330
1E
100
AcDbEntity
  8
OBJECT
100
AcDbCircle
 10
27.35345694696786
 20
26.93182720911239
 30
0.0
 40
0.0125
100
AcDbArc
 50
258.4630409672001
 51
73.42903577620205
  0
LINE
  5
217F
330
1E
100
AcDbEntity
  8
OBJECT
100
AcDbLine
 10
27.15356451652843
 20
26.99476413359282
 30
0.0
 11
27.35701226124817
 21
26.9438353458746
 31
0.0
  0
ARC
  5
2180
330
1E
100
AcDbEntity
  8
OBJECT
100
AcDbCircle
 10
27.1510645165284
 20
26.98251668487891
 30
0.0
 40
0.0125
100
AcDbArc
 50
78.46304096716024
 51
256.1784363499843
  0
LINE
  5
2181
330
1E
100
AcDbEntity
  8
OBJECT
100
AcDbLine
 10
27.15192050600791
 20
26.88119122525843
 30
0.0
 11
27.34757834479538
 21
26.83221247373312
 31
0.0
  0
ARC
  5
2182
330
1E
100
AcDbEntity
  8
OBJECT
100
AcDbCircle
 10
27.35007834479537
 20
26.84445992244704
 30
0.0
 40
0.0125
100
AcDbArc
 50
258.4630409672001
 51
73.42903577619949
  0
LINE
  5
2183
330
1E
100
AcDbEntity
  8
OBJECT
100
AcDbLine
 10
27.15742042682055
 20
26.90558584159997
 30
0.0
 11
27.35363754483666
 21
26.85646708649217
 31
0.0
  0
ARC
  5
2184
330
1E
100
AcDbEntity
  8
OBJECT
100
AcDbCircle
 10
27.15492042682055
 20
26.89333839288604
 30
0.0
 40
0.0125
100
AcDbArc
 50
78.46304096716024
 51
256.1784363499843
  0
LINE
  5
2185
330
1E
100
AcDbEntity
  8
OBJECT
100
AcDbLine
 10
27.15796291901102
 20
26.82181001401967
 30
0.0
 11
27.24119407356193
 21
26.82181001401967
 31
0.0
  0
LINE
  5
2186
330
1E
100
AcDbEntity
  8
OBJECT
100
AcDbLine
 10
27.09536787803187
 20
27.79681001401968
 30
0.0
 11
27.41136787803188
 21
27.79681001401968
 31
0.0
  0
ARC
  5
2187
330
1E
100
AcDbEntity
  8
OBJECT
100
AcDbCircle
 10
27.36336787803188
 20
27.72815341666163
 30
0.0
 40
0.0125
100
AcDbArc
 50
258.4630409672001
 51
73.42903577620035
  0
LINE
  5
2188
330
1E
100
AcDbEntity
  8
OBJECT
100
AcDbLine
 10
27.14037897102963
 20
27.77110064584601
 30
0.0
 11
27.36086787803188
 21
27.71590596794773
 31
0.0
  0
LINE
  5
2189
330
1E
100
AcDbEntity
  8
OBJECT
100
AcDbLine
 10
27.14943784825265
 20
27.09798458386968
 30
0.0
 11
27.36120807710099
 21
27.04497244040791
 31
0.0
  0
ARC
  5
218A
330
1E
100
AcDbEntity
  8
OBJECT
100
AcDbCircle
 10
27.14693784825266
 20
27.08573713515576
 30
0.0
 40
0.0125
100
AcDbArc
 50
78.46304096716024
 51
256.1784363499843
  0
ARC
  5
218B
330
1E
100
AcDbEntity
  8
OBJECT
100
AcDbCircle
 10
27.14336787803188
 20
27.18663080077877
 30
0.0
 40
0.0125
100
AcDbArc
 50
78.46304096716024
 51
256.1784363499843
  0
ARC
  5
218C
330
1E
100
AcDbEntity
  8
OBJECT
100
AcDbCircle
 10
27.36164042777414
 20
27.13196607708789
 30
0.0
 40
0.0125
100
AcDbArc
 50
258.4630409672001
 51
73.6483430709159
  0
LINE
  5
218D
330
1E
100
AcDbEntity
  8
OBJECT
100
AcDbLine
 10
27.14586787803188
 20
27.19887824949269
 30
0.0
 11
27.36517771049219
 21
27.14397872766572
 31
0.0
  0
LINE
  5
218E
330
1E
100
AcDbEntity
  8
OBJECT
100
AcDbLine
 10
27.14037897102963
 20
27.17448087607948
 30
0.0
 11
27.35914042777418
 21
27.11971862837397
 31
0.0
  0
ARC
  5
218F
330
1E
100
AcDbEntity
  8
OBJECT
100
AcDbCircle
 10
27.14336787803188
 20
27.28663080077876
 30
0.0
 40
0.0125
100
AcDbArc
 50
78.46304096716024
 51
256.1784363499843
  0
ARC
  5
2190
330
1E
100
AcDbEntity
  8
OBJECT
100
AcDbCircle
 10
27.36336787803188
 20
27.23153364689511
 30
0.0
 40
0.0125
100
AcDbArc
 50
258.4630409672001
 51
73.42903577620035
  0
LINE
  5
2191
330
1E
100
AcDbEntity
  8
OBJECT
100
AcDbLine
 10
27.14586787803188
 20
27.29887824949268
 30
0.0
 11
27.36693876854514
 21
27.24353788448084
 31
0.0
  0
LINE
  5
2192
330
1E
100
AcDbEntity
  8
OBJECT
100
AcDbLine
 10
27.14037897102963
 20
27.27448087607949
 30
0.0
 11
27.36086787803188
 21
27.21928619818119
 31
0.0
  0
ARC
  5
2193
330
1E
100
AcDbEntity
  8
OBJECT
100
AcDbCircle
 10
27.14336787803188
 20
27.38663080077877
 30
0.0
 40
0.0125
100
AcDbArc
 50
78.46304096716024
 51
256.1784363499843
  0
ARC
  5
2194
330
1E
100
AcDbEntity
  8
OBJECT
100
AcDbCircle
 10
27.36336787803188
 20
27.33153364689512
 30
0.0
 40
0.0125
100
AcDbArc
 50
258.4630409672001
 51
73.42903577620035
  0
LINE
  5
2195
330
1E
100
AcDbEntity
  8
OBJECT
100
AcDbLine
 10
27.14586787803188
 20
27.39887824949267
 30
0.0
 11
27.36693876854514
 21
27.34353788448083
 31
0.0
  0
LINE
  5
2196
330
1E
100
AcDbEntity
  8
OBJECT
100
AcDbLine
 10
27.14037897102963
 20
27.37448087607948
 30
0.0
 11
27.36086787803188
 21
27.3192861981812
 31
0.0
  0
ARC
  5
2197
330
1E
100
AcDbEntity
  8
OBJECT
100
AcDbCircle
 10
27.14336787803188
 20
27.48663080077876
 30
0.0
 40
0.0125
100
AcDbArc
 50
78.46304096716024
 51
256.1784363499843
  0
ARC
  5
2198
330
1E
100
AcDbEntity
  8
OBJECT
100
AcDbCircle
 10
27.36336787803188
 20
27.43153364689511
 30
0.0
 40
0.0125
100
AcDbArc
 50
258.4630409672001
 51
73.42903577620035
  0
LINE
  5
2199
330
1E
100
AcDbEntity
  8
OBJECT
100
AcDbLine
 10
27.14586787803188
 20
27.49887824949269
 30
0.0
 11
27.36693876854514
 21
27.44353788448083
 31
0.0
  0
LINE
  5
219A
330
1E
100
AcDbEntity
  8
OBJECT
100
AcDbLine
 10
27.14037897102963
 20
27.47448087607949
 30
0.0
 11
27.36086787803188
 21
27.41928619818119
 31
0.0
  0
ARC
  5
219B
330
1E
100
AcDbEntity
  8
OBJECT
100
AcDbCircle
 10
27.14336787803188
 20
27.58663080077877
 30
0.0
 40
0.0125
100
AcDbArc
 50
78.46304096716024
 51
256.1784363499843
  0
ARC
  5
219C
330
1E
100
AcDbEntity
  8
OBJECT
100
AcDbCircle
 10
27.36336787803188
 20
27.53153364689511
 30
0.0
 40
0.0125
100
AcDbArc
 50
258.4630409672001
 51
73.42903577620035
  0
LINE
  5
219D
330
1E
100
AcDbEntity
  8
OBJECT
100
AcDbLine
 10
27.14586787803188
 20
27.59887824949268
 30
0.0
 11
27.36693876854514
 21
27.54353788448083
 31
0.0
  0
LINE
  5
219E
330
1E
100
AcDbEntity
  8
OBJECT
100
AcDbLine
 10
27.14037897102963
 20
27.57448087607949
 30
0.0
 11
27.36086787803188
 21
27.5192861981812
 31
0.0
  0
ARC
  5
219F
330
1E
100
AcDbEntity
  8
OBJECT
100
AcDbCircle
 10
27.14336787803188
 20
27.68663080077876
 30
0.0
 40
0.0125
100
AcDbArc
 50
78.46304096716024
 51
256.1784363499843
  0
ARC
  5
21A0
330
1E
100
AcDbEntity
  8
OBJECT
100
AcDbCircle
 10
27.36336787803188
 20
27.63153364689511
 30
0.0
 40
0.0125
100
AcDbArc
 50
258.4630409672001
 51
73.42903577620035
  0
LINE
  5
21A1
330
1E
100
AcDbEntity
  8
OBJECT
100
AcDbLine
 10
27.14586787803188
 20
27.69887824949269
 30
0.0
 11
27.36693876854514
 21
27.64353788448083
 31
0.0
  0
LINE
  5
21A2
330
1E
100
AcDbEntity
  8
OBJECT
100
AcDbLine
 10
27.14037897102963
 20
27.67448087607948
 30
0.0
 11
27.36086787803188
 21
27.61928619818119
 31
0.0
  0
LINE
  5
21A3
330
1E
100
AcDbEntity
  8
OBJECT
100
AcDbLine
 10
27.41136787803188
 20
27.79681001401968
 30
0.0
 11
27.41136787803188
 21
28.29681001401968
 31
0.0
  0
LINE
  5
21A4
330
1E
100
AcDbEntity
  8
OBJECT
100
AcDbLine
 10
27.26460523600417
 20
27.77181001401967
 30
0.0
 11
27.26460523600417
 21
27.79681001401968
 31
0.0
  0
ARC
  5
21A5
330
1E
100
AcDbEntity
  8
OBJECT
100
AcDbCircle
 10
27.14336787803188
 20
27.7832505705453
 30
0.0
 40
0.0125
100
AcDbArc
 50
78.46304096716024
 51
256.1784363499843
  0
LINE
  5
21A6
330
1E
100
AcDbEntity
  8
OBJECT
100
AcDbLine
 10
27.14586787803188
 20
27.79549801925921
 30
0.0
 11
27.36693876854514
 21
27.74015765424736
 31
0.0
  0
ARC
  5
21A7
330
1E
100
AcDbEntity
  8
OBJECT
100
AcDbCircle
 10
27.36336787803188
 20
27.78431001401967
 30
0.0
 40
0.0125
100
AcDbArc
 50
270.0
 51
90.0
  0
LINE
  5
21A8
330
1E
100
AcDbEntity
  8
OBJECT
100
AcDbLine
 10
27.36336787803188
 20
27.77181001401967
 30
0.0
 11
27.26460523600417
 21
27.77181001401967
 31
0.0
  0
ARC
  5
21A9
330
1E
100
AcDbEntity
  8
OBJECT
100
AcDbCircle
 10
27.53461787803189
 20
28.73849672015141
 30
0.0
 40
0.375
100
AcDbArc
 50
90.0
 51
180.0
  0
ARC
  5
21AA
330
1E
100
AcDbEntity
  8
OBJECT
100
AcDbCircle
 10
27.53461787803189
 20
28.73849672015141
 30
0.0
 40
0.1875
100
AcDbArc
 50
90.0
 51
180.0
  0
LINE
  5
21AB
330
1E
100
AcDbEntity
  8
OBJECT
100
AcDbLine
 10
27.81586787803189
 20
28.92599672015141
 30
0.0
 11
27.81586787803189
 21
29.11349672015141
 31
0.0
  0
LINE
  5
21AC
330
1E
100
AcDbEntity
  8
OBJECT
100
AcDbLine
 10
27.53461787803189
 20
29.11349672015141
 30
0.0
 11
27.81586787803189
 21
29.11349672015141
 31
0.0
  0
LINE
  5
21AD
330
1E
100
AcDbEntity
  8
OBJECT
100
AcDbLine
 10
27.53461787803189
 20
28.92599672015141
 30
0.0
 11
27.81586787803189
 21
28.92599672015141
 31
0.0
  0
LINE
  5
21AE
330
1E
100
AcDbEntity
  8
OBJECT
100
AcDbLine
 10
27.09536787803187
 20
28.29681001401968
 30
0.0
 11
27.09536787803187
 21
26.29681001401968
 31
0.0
  0
LINE
  5
21AF
330
1E
100
AcDbEntity
  8
OBJECT
100
AcDbLine
 10
27.15536787803188
 20
27.79681001401968
 30
0.0
 11
27.15536787803188
 21
26.79681001401968
 31
0.0
  0
LINE
  5
21B0
330
1E
100
AcDbEntity
  8
FRAME
100
AcDbLine
 10
27.72036787803187
 20
29.11349672015141
 30
0.0
 11
27.72036787803176
 21
59.23012330788794
 31
0.0
  0
LINE
  5
21B1
330
1E
100
AcDbEntity
  8
FRAME
100
AcDbLine
 10
27.64236787803187
 20
29.11349672015141
 30
0.0
 11
27.64236787803187
 21
59.23012330788794
 31
0.0
  0
LINE
  5
21B2
330
1E
100
AcDbEntity
  8
OBJECT
100
AcDbLine
 10
43.73624346694533
 20
24.92599672015141
 30
0.0
 11
43.73624346694533
 21
25.03156001401972
 31
0.0
  0
LINE
  5
21B3
330
1E
100
AcDbEntity
  8
OBJECT
100
AcDbLine
 10
43.54874346694532
 20
24.92599672015141
 30
0.0
 11
43.54874346694532
 21
25.03156001401974
 31
0.0
  0
LINE
  5
21B4
330
1E
100
AcDbEntity
  8
OBJECT
100
AcDbLine
 10
43.54874346694532
 20
24.92599672015141
 30
0.0
 11
43.73624346694533
 21
24.92599672015141
 31
0.0
  0
LINE
  5
21B5
330
1E
100
AcDbEntity
  8
OBJECT
100
AcDbLine
 10
43.61124346694532
 20
24.86349672015141
 30
0.0
 11
43.54874346694532
 21
24.92599672015141
 31
0.0
  0
LINE
  5
21B6
330
1E
100
AcDbEntity
  8
OBJECT
100
AcDbLine
 10
43.73624346694533
 20
24.92599672015141
 30
0.0
 11
43.67374346694532
 21
24.86349672015141
 31
0.0
  0
LINE
  5
21B7
330
1E
100
AcDbEntity
  8
OBJECT
100
AcDbLine
 10
43.61124346694532
 20
24.86349672015141
 30
0.0
 11
43.67374346694532
 21
24.86349672015141
 31
0.0
  0
LINE
  5
21B8
330
1E
100
AcDbEntity
  8
OBJECT
100
AcDbLine
 10
43.54874346694532
 20
28.29681001401967
 30
0.0
 11
43.54874346694532
 21
29.01974672015141
 31
0.0
  0
LINE
  5
21B9
330
1E
100
AcDbEntity
  8
OBJECT
100
AcDbLine
 10
43.73624346694533
 20
28.29681001401967
 30
0.0
 11
43.73624346694533
 21
29.01974672015141
 31
0.0
  0
LINE
  5
21BA
330
1E
100
AcDbEntity
  8
OBJECT
100
AcDbLine
 10
43.48449346694531
 20
28.29681001401967
 30
0.0
 11
44.64249346694532
 21
28.29681001401967
 31
0.0
  0
LINE
  5
21BB
330
1E
100
AcDbEntity
  8
OBJECT
100
AcDbLine
 10
44.12788058322155
 20
26.29681001401967
 30
0.0
 11
43.48449346694531
 21
26.29681001401968
 31
0.0
  0
LINE
  5
21BC
330
1E
100
AcDbEntity
  8
OBJECT
100
AcDbLine
 10
44.64249346694532
 20
26.4303877565425
 30
0.0
 11
44.64249346694532
 21
28.29681001401967
 31
0.0
  0
LINE
  5
21BD
330
1E
100
AcDbEntity
  8
OBJECT
100
AcDbLine
 10
43.76749346694532
 20
26.79681001401967
 30
0.0
 11
43.76749346694532
 21
27.79681001401967
 31
0.0
  0
LINE
  5
21BE
330
1E
100
AcDbEntity
  8
OBJECT
100
AcDbLine
 10
43.73624346694533
 20
26.79681001401967
 30
0.0
 11
43.73624346694533
 21
27.79681001401967
 31
0.0
  0
LINE
  5
21BF
330
1E
100
AcDbEntity
  8
OBJECT
100
AcDbLine
 10
43.54874346694532
 20
26.79681001401967
 30
0.0
 11
43.54874346694532
 21
27.79681001401967
 31
0.0
  0
LINE
  5
21C0
330
1E
100
AcDbEntity
  8
OBJECT
100
AcDbLine
 10
43.53306734557065
 20
27.07358900896559
 30
0.0
 11
43.74428310719571
 21
27.02071566450377
 31
0.0
  0
ARC
  5
21C1
330
1E
100
AcDbEntity
  8
OBJECT
100
AcDbCircle
 10
43.74678310719571
 20
27.0329631132177
 30
0.0
 40
0.0125
100
AcDbArc
 50
258.4630409672001
 51
73.42903577620035
  0
LINE
  5
21C2
330
1E
100
AcDbEntity
  8
OBJECT
100
AcDbLine
 10
43.80049346694531
 20
26.79681001401967
 30
0.0
 11
43.48449346694531
 21
26.79681001401967
 31
0.0
  0
LINE
  5
21C3
330
1E
100
AcDbEntity
  8
OBJECT
100
AcDbLine
 10
43.8004934669453
 20
26.29681001401967
 30
0.0
 11
43.80049346694531
 21
26.79681001401967
 31
0.0
  0
LINE
  5
21C4
330
1E
100
AcDbEntity
  8
OBJECT
100
AcDbLine
 10
43.63031966247532
 20
26.82181001401968
 30
0.0
 11
43.63031966247532
 21
26.79681001401967
 31
0.0
  0
ARC
  5
21C5
330
1E
100
AcDbEntity
  8
OBJECT
100
AcDbCircle
 10
43.54708850792445
 20
26.80931001401968
 30
0.0
 40
0.0125
100
AcDbArc
 50
90.0
 51
270.0
  0
LINE
  5
21C6
330
1E
100
AcDbEntity
  8
OBJECT
100
AcDbLine
 10
43.53719613849358
 20
26.97036802682879
 30
0.0
 11
43.74008253588129
 21
26.91957976039847
 31
0.0
  0
ARC
  5
21C7
330
1E
100
AcDbEntity
  8
OBJECT
100
AcDbCircle
 10
43.7425825358813
 20
26.93182720911239
 30
0.0
 40
0.0125
100
AcDbArc
 50
258.4630409672001
 51
73.42903577620205
  0
LINE
  5
21C8
330
1E
100
AcDbEntity
  8
OBJECT
100
AcDbLine
 10
43.54269010544183
 20
26.99476413359281
 30
0.0
 11
43.74613785016157
 21
26.94383534587459
 31
0.0
  0
ARC
  5
21C9
330
1E
100
AcDbEntity
  8
OBJECT
100
AcDbCircle
 10
43.54019010544184
 20
26.98251668487891
 30
0.0
 40
0.0125
100
AcDbArc
 50
78.46304096716024
 51
256.1784363499843
  0
LINE
  5
21CA
330
1E
100
AcDbEntity
  8
OBJECT
100
AcDbLine
 10
43.54104609492131
 20
26.88119122525844
 30
0.0
 11
43.73670393370881
 21
26.83221247373311
 31
0.0
  0
ARC
  5
21CB
330
1E
100
AcDbEntity
  8
OBJECT
100
AcDbCircle
 10
43.7392039337088
 20
26.84445992244703
 30
0.0
 40
0.0125
100
AcDbArc
 50
258.4630409672001
 51
73.42903577619949
  0
LINE
  5
21CC
330
1E
100
AcDbEntity
  8
OBJECT
100
AcDbLine
 10
43.54654601573398
 20
26.90558584159996
 30
0.0
 11
43.74276313375008
 21
26.85646708649216
 31
0.0
  0
ARC
  5
21CD
330
1E
100
AcDbEntity
  8
OBJECT
100
AcDbCircle
 10
43.54404601573398
 20
26.89333839288604
 30
0.0
 40
0.0125
100
AcDbArc
 50
78.46304096716024
 51
256.1784363499843
  0
LINE
  5
21CE
330
1E
100
AcDbEntity
  8
OBJECT
100
AcDbLine
 10
43.54708850792445
 20
26.82181001401968
 30
0.0
 11
43.63031966247532
 21
26.82181001401968
 31
0.0
  0
LINE
  5
21CF
330
1E
100
AcDbEntity
  8
OBJECT
100
AcDbLine
 10
43.48449346694531
 20
26.29681001401968
 30
0.0
 11
43.48449346694531
 21
26.79681001401967
 31
0.0
  0
LINE
  5
21D0
330
1E
100
AcDbEntity
  8
OBJECT
100
AcDbLine
 10
43.48449346694531
 20
27.79681001401967
 30
0.0
 11
43.80049346694531
 21
27.79681001401967
 31
0.0
  0
ARC
  5
21D1
330
1E
100
AcDbEntity
  8
OBJECT
100
AcDbCircle
 10
43.75249346694531
 20
27.72815341666163
 30
0.0
 40
0.0125
100
AcDbArc
 50
258.4630409672001
 51
73.42903577620035
  0
LINE
  5
21D2
330
1E
100
AcDbEntity
  8
OBJECT
100
AcDbLine
 10
43.52950455994306
 20
27.77110064584601
 30
0.0
 11
43.74999346694531
 21
27.71590596794772
 31
0.0
  0
LINE
  5
21D3
330
1E
100
AcDbEntity
  8
OBJECT
100
AcDbLine
 10
43.53856343716609
 20
27.09798458386968
 30
0.0
 11
43.7503336660144
 21
27.04497244040791
 31
0.0
  0
ARC
  5
21D4
330
1E
100
AcDbEntity
  8
OBJECT
100
AcDbCircle
 10
43.53606343716606
 20
27.08573713515576
 30
0.0
 40
0.0125
100
AcDbArc
 50
78.46304096716024
 51
256.1784363499843
  0
ARC
  5
21D5
330
1E
100
AcDbEntity
  8
OBJECT
100
AcDbCircle
 10
43.53249346694531
 20
27.18663080077876
 30
0.0
 40
0.0125
100
AcDbArc
 50
78.46304096716024
 51
256.1784363499843
  0
ARC
  5
21D6
330
1E
100
AcDbEntity
  8
OBJECT
100
AcDbCircle
 10
43.75076601668758
 20
27.13196607708789
 30
0.0
 40
0.0125
100
AcDbArc
 50
258.4630409672001
 51
73.6483430709159
  0
LINE
  5
21D7
330
1E
100
AcDbEntity
  8
OBJECT
100
AcDbLine
 10
43.53499346694531
 20
27.19887824949268
 30
0.0
 11
43.75430329940559
 21
27.14397872766571
 31
0.0
  0
LINE
  5
21D8
330
1E
100
AcDbEntity
  8
OBJECT
100
AcDbLine
 10
43.52950455994306
 20
27.17448087607949
 30
0.0
 11
43.74826601668758
 21
27.11971862837396
 31
0.0
  0
ARC
  5
21D9
330
1E
100
AcDbEntity
  8
OBJECT
100
AcDbCircle
 10
43.53249346694531
 20
27.28663080077877
 30
0.0
 40
0.0125
100
AcDbArc
 50
78.46304096716024
 51
256.1784363499843
  0
ARC
  5
21DA
330
1E
100
AcDbEntity
  8
OBJECT
100
AcDbCircle
 10
43.75249346694531
 20
27.2315336468951
 30
0.0
 40
0.0125
100
AcDbArc
 50
258.4630409672001
 51
73.42903577620035
  0
LINE
  5
21DB
330
1E
100
AcDbEntity
  8
OBJECT
100
AcDbLine
 10
43.53499346694531
 20
27.29887824949268
 30
0.0
 11
43.75606435745857
 21
27.24353788448083
 31
0.0
  0
LINE
  5
21DC
330
1E
100
AcDbEntity
  8
OBJECT
100
AcDbLine
 10
43.52950455994306
 20
27.27448087607948
 30
0.0
 11
43.74999346694531
 21
27.2192861981812
 31
0.0
  0
ARC
  5
21DD
330
1E
100
AcDbEntity
  8
OBJECT
100
AcDbCircle
 10
43.53249346694531
 20
27.38663080077877
 30
0.0
 40
0.0125
100
AcDbArc
 50
78.46304096716024
 51
256.1784363499843
  0
ARC
  5
21DE
330
1E
100
AcDbEntity
  8
OBJECT
100
AcDbCircle
 10
43.75249346694531
 20
27.33153364689512
 30
0.0
 40
0.0125
100
AcDbArc
 50
258.4630409672001
 51
73.42903577620035
  0
LINE
  5
21DF
330
1E
100
AcDbEntity
  8
OBJECT
100
AcDbLine
 10
43.53499346694531
 20
27.39887824949267
 30
0.0
 11
43.75606435745857
 21
27.34353788448083
 31
0.0
  0
LINE
  5
21E0
330
1E
100
AcDbEntity
  8
OBJECT
100
AcDbLine
 10
43.52950455994306
 20
27.37448087607948
 30
0.0
 11
43.74999346694531
 21
27.31928619818119
 31
0.0
  0
ARC
  5
21E1
330
1E
100
AcDbEntity
  8
OBJECT
100
AcDbCircle
 10
43.53249346694531
 20
27.48663080077876
 30
0.0
 40
0.0125
100
AcDbArc
 50
78.46304096716024
 51
256.1784363499843
  0
ARC
  5
21E2
330
1E
100
AcDbEntity
  8
OBJECT
100
AcDbCircle
 10
43.75249346694531
 20
27.43153364689511
 30
0.0
 40
0.0125
100
AcDbArc
 50
258.4630409672001
 51
73.42903577620035
  0
LINE
  5
21E3
330
1E
100
AcDbEntity
  8
OBJECT
100
AcDbLine
 10
43.53499346694531
 20
27.49887824949268
 30
0.0
 11
43.75606435745857
 21
27.44353788448082
 31
0.0
  0
LINE
  5
21E4
330
1E
100
AcDbEntity
  8
OBJECT
100
AcDbLine
 10
43.52950455994306
 20
27.47448087607949
 30
0.0
 11
43.74999346694531
 21
27.41928619818119
 31
0.0
  0
ARC
  5
21E5
330
1E
100
AcDbEntity
  8
OBJECT
100
AcDbCircle
 10
43.53249346694531
 20
27.58663080077877
 30
0.0
 40
0.0125
100
AcDbArc
 50
78.46304096716024
 51
256.1784363499843
  0
ARC
  5
21E6
330
1E
100
AcDbEntity
  8
OBJECT
100
AcDbCircle
 10
43.75249346694531
 20
27.5315336468951
 30
0.0
 40
0.0125
100
AcDbArc
 50
258.4630409672001
 51
73.42903577620035
  0
LINE
  5
21E7
330
1E
100
AcDbEntity
  8
OBJECT
100
AcDbLine
 10
43.53499346694531
 20
27.59887824949267
 30
0.0
 11
43.75606435745857
 21
27.54353788448083
 31
0.0
  0
LINE
  5
21E8
330
1E
100
AcDbEntity
  8
OBJECT
100
AcDbLine
 10
43.52950455994306
 20
27.57448087607948
 30
0.0
 11
43.74999346694531
 21
27.51928619818119
 31
0.0
  0
ARC
  5
21E9
330
1E
100
AcDbEntity
  8
OBJECT
100
AcDbCircle
 10
43.53249346694531
 20
27.68663080077876
 30
0.0
 40
0.0125
100
AcDbArc
 50
78.46304096716024
 51
256.1784363499843
  0
ARC
  5
21EA
330
1E
100
AcDbEntity
  8
OBJECT
100
AcDbCircle
 10
43.75249346694531
 20
27.63153364689511
 30
0.0
 40
0.0125
100
AcDbArc
 50
258.4630409672001
 51
73.42903577620035
  0
LINE
  5
21EB
330
1E
100
AcDbEntity
  8
OBJECT
100
AcDbLine
 10
43.53499346694531
 20
27.69887824949268
 30
0.0
 11
43.75606435745857
 21
27.64353788448083
 31
0.0
  0
LINE
  5
21EC
330
1E
100
AcDbEntity
  8
OBJECT
100
AcDbLine
 10
43.52950455994306
 20
27.67448087607947
 30
0.0
 11
43.74999346694531
 21
27.61928619818119
 31
0.0
  0
LINE
  5
21ED
330
1E
100
AcDbEntity
  8
OBJECT
100
AcDbLine
 10
43.80049346694531
 20
27.79681001401967
 30
0.0
 11
43.80049346694531
 21
28.29681001401967
 31
0.0
  0
LINE
  5
21EE
330
1E
100
AcDbEntity
  8
OBJECT
100
AcDbLine
 10
43.6537308249176
 20
27.77181001401967
 30
0.0
 11
43.6537308249176
 21
27.79681001401967
 31
0.0
  0
ARC
  5
21EF
330
1E
100
AcDbEntity
  8
OBJECT
100
AcDbCircle
 10
43.53249346694531
 20
27.7832505705453
 30
0.0
 40
0.0125
100
AcDbArc
 50
78.46304096716024
 51
256.1784363499843
  0
LINE
  5
21F0
330
1E
100
AcDbEntity
  8
OBJECT
100
AcDbLine
 10
43.53499346694531
 20
27.7954980192592
 30
0.0
 11
43.75606435745857
 21
27.74015765424736
 31
0.0
  0
ARC
  5
21F1
330
1E
100
AcDbEntity
  8
OBJECT
100
AcDbCircle
 10
43.75249346694531
 20
27.78431001401967
 30
0.0
 40
0.0125
100
AcDbArc
 50
270.0
 51
90.0
  0
LINE
  5
21F2
330
1E
100
AcDbEntity
  8
OBJECT
100
AcDbLine
 10
43.75249346694531
 20
27.77181001401967
 30
0.0
 11
43.6537308249176
 21
27.77181001401967
 31
0.0
  0
LINE
  5
21F3
330
1E
100
AcDbEntity
  8
OBJECT
100
AcDbLine
 10
43.48449346694531
 20
27.79681001401967
 30
0.0
 11
43.48449346694531
 21
28.29681001401967
 31
0.0
  0
LINE
  5
21F4
330
1E
100
AcDbEntity
  8
OBJECT
100
AcDbLine
 10
43.76749346694532
 20
61.54681001401969
 30
0.0
 11
43.76749346694532
 21
60.54681001401969
 31
0.0
  0
LINE
  5
21F5
330
1E
100
AcDbEntity
  8
OBJECT
100
AcDbLine
 10
43.73624346694533
 20
61.54681001401969
 30
0.0
 11
43.73624346694533
 21
60.54681001401969
 31
0.0
  0
LINE
  5
21F6
330
1E
100
AcDbEntity
  8
OBJECT
100
AcDbLine
 10
43.54874346694532
 20
61.54681001401969
 30
0.0
 11
43.54874346694532
 21
60.54681001401969
 31
0.0
  0
LINE
  5
21F7
330
1E
100
AcDbEntity
  8
OBJECT
100
AcDbLine
 10
44.64249346694532
 20
61.91323227149686
 30
0.0
 11
44.64249346694532
 21
60.04681001401969
 31
0.0
  0
LINE
  5
21F8
330
1E
100
AcDbEntity
  8
OBJECT
100
AcDbLine
 10
43.63031966247532
 20
61.52181001401968
 30
0.0
 11
43.63031966247532
 21
61.54681001401969
 31
0.0
  0
ARC
  5
21F9
330
1E
100
AcDbEntity
  8
OBJECT
100
AcDbCircle
 10
43.54708850792445
 20
61.53431001401969
 30
0.0
 40
0.0125
100
AcDbArc
 50
90.0
 51
270.0
  0
LINE
  5
21FA
330
1E
100
AcDbEntity
  8
OBJECT
100
AcDbLine
 10
44.12788058322156
 20
62.04681001401969
 30
0.0
 11
43.48449346694531
 21
62.04681001401969
 31
0.0
  0
LINE
  5
21FB
330
1E
100
AcDbEntity
  8
OBJECT
100
AcDbLine
 10
43.73624346694533
 20
63.41762330788796
 30
0.0
 11
43.73624346694533
 21
63.31206001401963
 31
0.0
  0
LINE
  5
21FC
330
1E
100
AcDbEntity
  8
OBJECT
100
AcDbLine
 10
43.54874346694532
 20
63.41762330788796
 30
0.0
 11
43.54874346694532
 21
63.31206001401962
 31
0.0
  0
LINE
  5
21FD
330
1E
100
AcDbEntity
  8
OBJECT
100
AcDbLine
 10
43.73624346694533
 20
63.41762330788796
 30
0.0
 11
43.67374346694532
 21
63.48012330788796
 31
0.0
  0
LINE
  5
21FE
330
1E
100
AcDbEntity
  8
OBJECT
100
AcDbLine
 10
43.61124346694532
 20
63.48012330788796
 30
0.0
 11
43.54874346694532
 21
63.41762330788796
 31
0.0
  0
LINE
  5
21FF
330
1E
100
AcDbEntity
  8
OBJECT
100
AcDbLine
 10
43.61124346694532
 20
63.48012330788796
 30
0.0
 11
43.67374346694532
 21
63.48012330788796
 31
0.0
  0
LINE
  5
2200
330
1E
100
AcDbEntity
  8
OBJECT
100
AcDbLine
 10
43.54874346694532
 20
63.41762330788796
 30
0.0
 11
43.73624346694533
 21
63.41762330788796
 31
0.0
  0
LINE
  5
2201
330
1E
100
AcDbEntity
  8
OBJECT
100
AcDbLine
 10
43.80049346694531
 20
62.0468100140197
 30
0.0
 11
43.80049346694531
 21
61.54681001401969
 31
0.0
  0
LINE
  5
2202
330
1E
100
AcDbEntity
  8
OBJECT
100
AcDbLine
 10
43.48449346694531
 20
62.04681001401969
 30
0.0
 11
43.48449346694531
 21
61.54681001401969
 31
0.0
  0
LINE
  5
2203
330
1E
100
AcDbEntity
  8
OBJECT
100
AcDbLine
 10
43.80049346694531
 20
61.54681001401969
 30
0.0
 11
43.48449346694531
 21
61.54681001401969
 31
0.0
  0
LINE
  5
2204
330
1E
100
AcDbEntity
  8
OBJECT
100
AcDbLine
 10
43.48449346694531
 20
60.04681001401969
 30
0.0
 11
44.64249346694532
 21
60.04681001401969
 31
0.0
  0
LINE
  5
2205
330
1E
100
AcDbEntity
  8
OBJECT
100
AcDbLine
 10
43.80049346694531
 20
60.54681001401969
 30
0.0
 11
43.80049346694531
 21
60.04681001401969
 31
0.0
  0
LINE
  5
2206
330
1E
100
AcDbEntity
  8
OBJECT
100
AcDbLine
 10
43.48449346694531
 20
60.54681001401969
 30
0.0
 11
43.48449346694531
 21
60.04681001401969
 31
0.0
  0
ARC
  5
2207
330
1E
100
AcDbEntity
  8
OBJECT
100
AcDbCircle
 10
43.74678310719571
 20
61.31065691482167
 30
0.0
 40
0.0125
100
AcDbArc
 50
286.5709642237996
 51
101.5369590327998
  0
ARC
  5
2208
330
1E
100
AcDbEntity
  8
OBJECT
100
AcDbCircle
 10
43.7425825358813
 20
61.41179281892697
 30
0.0
 40
0.0125
100
AcDbArc
 50
286.5709642237979
 51
101.5369590327998
  0
ARC
  5
2209
330
1E
100
AcDbEntity
  8
OBJECT
100
AcDbCircle
 10
43.7392039337088
 20
61.49916010559233
 30
0.0
 40
0.0125
100
AcDbArc
 50
286.5709642238005
 51
101.5369590327998
  0
ARC
  5
220A
330
1E
100
AcDbEntity
  8
OBJECT
100
AcDbCircle
 10
43.75249346694531
 20
60.61546661137773
 30
0.0
 40
0.0125
100
AcDbArc
 50
286.5709642237996
 51
101.5369590327998
  0
ARC
  5
220B
330
1E
100
AcDbEntity
  8
OBJECT
100
AcDbCircle
 10
43.75249346694531
 20
60.91208638114426
 30
0.0
 40
0.0125
100
AcDbArc
 50
286.5709642237996
 51
101.5369590327998
  0
ARC
  5
220C
330
1E
100
AcDbEntity
  8
OBJECT
100
AcDbCircle
 10
43.75249346694531
 20
60.81208638114426
 30
0.0
 40
0.0125
100
AcDbArc
 50
286.5709642237996
 51
101.5369590327998
  0
ARC
  5
220D
330
1E
100
AcDbEntity
  8
OBJECT
100
AcDbCircle
 10
43.75249346694531
 20
60.71208638114425
 30
0.0
 40
0.0125
100
AcDbArc
 50
286.5709642237996
 51
101.5369590327998
  0
LINE
  5
220E
330
1E
100
AcDbEntity
  8
OBJECT
100
AcDbLine
 10
43.6537308249176
 20
60.5718100140197
 30
0.0
 11
43.6537308249176
 21
60.54681001401969
 31
0.0
  0
ARC
  5
220F
330
1E
100
AcDbEntity
  8
OBJECT
100
AcDbCircle
 10
43.75249346694531
 20
60.55931001401969
 30
0.0
 40
0.0125
100
AcDbArc
 50
270.0
 51
90.0
  0
LINE
  5
2210
330
1E
100
AcDbEntity
  8
OBJECT
100
AcDbLine
 10
43.75249346694531
 20
60.5718100140197
 30
0.0
 11
43.6537308249176
 21
60.5718100140197
 31
0.0
  0
ARC
  5
2211
330
1E
100
AcDbEntity
  8
OBJECT
100
AcDbCircle
 10
43.75076601668758
 20
61.21165395095148
 30
0.0
 40
0.0125
100
AcDbArc
 50
286.351656929084
 51
101.5369590327998
  0
ARC
  5
2212
330
1E
100
AcDbEntity
  8
OBJECT
100
AcDbCircle
 10
43.75249346694531
 20
61.11208638114426
 30
0.0
 40
0.0125
100
AcDbArc
 50
286.5709642237996
 51
101.5369590327998
  0
ARC
  5
2213
330
1E
100
AcDbEntity
  8
OBJECT
100
AcDbCircle
 10
43.75249346694531
 20
61.01208638114425
 30
0.0
 40
0.0125
100
AcDbArc
 50
286.5709642237996
 51
101.5369590327998
  0
ARC
  5
2214
330
1E
100
AcDbEntity
  8
OBJECT
100
AcDbCircle
 10
43.53606343716606
 20
61.25788289288361
 30
0.0
 40
0.0125
100
AcDbArc
 50
103.8215636500156
 51
281.5369590328397
  0
ARC
  5
2215
330
1E
100
AcDbEntity
  8
OBJECT
100
AcDbCircle
 10
43.54019010544184
 20
61.36110334316046
 30
0.0
 40
0.0125
100
AcDbArc
 50
103.8215636500156
 51
281.5369590328397
  0
ARC
  5
2216
330
1E
100
AcDbEntity
  8
OBJECT
100
AcDbCircle
 10
43.54404601573398
 20
61.45028163515332
 30
0.0
 40
0.0125
100
AcDbArc
 50
103.8215636500156
 51
281.5369590328397
  0
LINE
  5
2217
330
1E
100
AcDbEntity
  8
OBJECT
100
AcDbLine
 10
43.54708850792445
 20
61.52181001401968
 30
0.0
 11
43.63031966247532
 21
61.52181001401968
 31
0.0
  0
ARC
  5
2218
330
1E
100
AcDbEntity
  8
OBJECT
100
AcDbCircle
 10
43.53249346694531
 20
60.9569892272606
 30
0.0
 40
0.0125
100
AcDbArc
 50
103.8215636500156
 51
281.5369590328397
  0
ARC
  5
2219
330
1E
100
AcDbEntity
  8
OBJECT
100
AcDbCircle
 10
43.53249346694531
 20
60.8569892272606
 30
0.0
 40
0.0125
100
AcDbArc
 50
103.8215636500156
 51
281.5369590328397
  0
ARC
  5
221A
330
1E
100
AcDbEntity
  8
OBJECT
100
AcDbCircle
 10
43.53249346694531
 20
60.7569892272606
 30
0.0
 40
0.0125
100
AcDbArc
 50
103.8215636500156
 51
281.5369590328397
  0
ARC
  5
221B
330
1E
100
AcDbEntity
  8
OBJECT
100
AcDbCircle
 10
43.53249346694531
 20
60.6569892272606
 30
0.0
 40
0.0125
100
AcDbArc
 50
103.8215636500156
 51
281.5369590328397
  0
ARC
  5
221C
330
1E
100
AcDbEntity
  8
OBJECT
100
AcDbCircle
 10
43.53249346694531
 20
60.56036945749407
 30
0.0
 40
0.0125
100
AcDbArc
 50
103.8215636500156
 51
281.5369590328397
  0
ARC
  5
221D
330
1E
100
AcDbEntity
  8
OBJECT
100
AcDbCircle
 10
43.53249346694531
 20
61.1569892272606
 30
0.0
 40
0.0125
100
AcDbArc
 50
103.8215636500156
 51
281.5369590328397
  0
ARC
  5
221E
330
1E
100
AcDbEntity
  8
OBJECT
100
AcDbCircle
 10
43.53249346694531
 20
61.05698922726059
 30
0.0
 40
0.0125
100
AcDbArc
 50
103.8215636500156
 51
281.5369590328397
  0
LINE
  5
221F
330
1E
100
AcDbEntity
  8
OBJECT
100
AcDbLine
 10
43.53856343716609
 20
61.24563544416968
 30
0.0
 11
43.7503336660144
 21
61.29864758763146
 31
0.0
  0
LINE
  5
2220
330
1E
100
AcDbEntity
  8
OBJECT
100
AcDbLine
 10
43.53306734557065
 20
61.27003101907377
 30
0.0
 11
43.74428310719571
 21
61.32290436353559
 31
0.0
  0
LINE
  5
2221
330
1E
100
AcDbEntity
  8
OBJECT
100
AcDbLine
 10
43.53719613849358
 20
61.37325200121058
 30
0.0
 11
43.74008253588129
 21
61.4240402676409
 31
0.0
  0
LINE
  5
2222
330
1E
100
AcDbEntity
  8
OBJECT
100
AcDbLine
 10
43.54269010544183
 20
61.34885589444655
 30
0.0
 11
43.74613785016157
 21
61.39978468216477
 31
0.0
  0
LINE
  5
2223
330
1E
100
AcDbEntity
  8
OBJECT
100
AcDbLine
 10
43.54104609492131
 20
61.46242880278093
 30
0.0
 11
43.73670393370881
 21
61.51140755430625
 31
0.0
  0
LINE
  5
2224
330
1E
100
AcDbEntity
  8
OBJECT
100
AcDbLine
 10
43.54654601573398
 20
61.4380341864394
 30
0.0
 11
43.74276313375008
 21
61.4871529415472
 31
0.0
  0
LINE
  5
2225
330
1E
100
AcDbEntity
  8
OBJECT
100
AcDbLine
 10
43.48449346694531
 20
60.54681001401969
 30
0.0
 11
43.80049346694531
 21
60.54681001401969
 31
0.0
  0
LINE
  5
2226
330
1E
100
AcDbEntity
  8
OBJECT
100
AcDbLine
 10
43.52950455994306
 20
60.57251938219335
 30
0.0
 11
43.74999346694531
 21
60.62771406009164
 31
0.0
  0
LINE
  5
2227
330
1E
100
AcDbEntity
  8
OBJECT
100
AcDbLine
 10
43.53499346694531
 20
60.84474177854668
 30
0.0
 11
43.75606435745857
 21
60.90008214355854
 31
0.0
  0
LINE
  5
2228
330
1E
100
AcDbEntity
  8
OBJECT
100
AcDbLine
 10
43.52950455994306
 20
60.86913915195988
 30
0.0
 11
43.74999346694531
 21
60.92433382985817
 31
0.0
  0
LINE
  5
2229
330
1E
100
AcDbEntity
  8
OBJECT
100
AcDbLine
 10
43.53499346694531
 20
60.74474177854669
 30
0.0
 11
43.75606435745857
 21
60.80008214355853
 31
0.0
  0
LINE
  5
222A
330
1E
100
AcDbEntity
  8
OBJECT
100
AcDbLine
 10
43.52950455994306
 20
60.76913915195988
 30
0.0
 11
43.74999346694531
 21
60.82433382985817
 31
0.0
  0
LINE
  5
222B
330
1E
100
AcDbEntity
  8
OBJECT
100
AcDbLine
 10
43.53499346694531
 20
60.64474177854668
 30
0.0
 11
43.75606435745857
 21
60.70008214355854
 31
0.0
  0
LINE
  5
222C
330
1E
100
AcDbEntity
  8
OBJECT
100
AcDbLine
 10
43.52950455994306
 20
60.66913915195989
 30
0.0
 11
43.74999346694531
 21
60.72433382985817
 31
0.0
  0
LINE
  5
222D
330
1E
100
AcDbEntity
  8
OBJECT
100
AcDbLine
 10
43.53499346694531
 20
60.54812200878016
 30
0.0
 11
43.75606435745857
 21
60.603462373792
 31
0.0
  0
LINE
  5
222E
330
1E
100
AcDbEntity
  8
OBJECT
100
AcDbLine
 10
43.53499346694531
 20
61.14474177854668
 30
0.0
 11
43.75430329940559
 21
61.19964130037365
 31
0.0
  0
LINE
  5
222F
330
1E
100
AcDbEntity
  8
OBJECT
100
AcDbLine
 10
43.52950455994306
 20
61.16913915195987
 30
0.0
 11
43.74826601668758
 21
61.2239013996654
 31
0.0
  0
LINE
  5
2230
330
1E
100
AcDbEntity
  8
OBJECT
100
AcDbLine
 10
43.53499346694531
 20
61.04474177854669
 30
0.0
 11
43.75606435745857
 21
61.10008214355853
 31
0.0
  0
LINE
  5
2231
330
1E
100
AcDbEntity
  8
OBJECT
100
AcDbLine
 10
43.52950455994306
 20
61.06913915195988
 30
0.0
 11
43.74999346694531
 21
61.12433382985816
 31
0.0
  0
LINE
  5
2232
330
1E
100
AcDbEntity
  8
OBJECT
100
AcDbLine
 10
43.53499346694531
 20
60.94474177854669
 30
0.0
 11
43.75606435745857
 21
61.00008214355853
 31
0.0
  0
LINE
  5
2233
330
1E
100
AcDbEntity
  8
OBJECT
100
AcDbLine
 10
43.52950455994306
 20
60.96913915195989
 30
0.0
 11
43.74999346694531
 21
61.02433382985817
 31
0.0
  0
ARC
  5
2234
330
1E
100
AcDbEntity
  8
OBJECT
100
AcDbCircle
 10
27.15796291901102
 20
61.53431001401969
 30
0.0
 40
0.0125
100
AcDbArc
 50
90.0
 51
270.0
  0
LINE
  5
2235
330
1E
100
AcDbEntity
  8
OBJECT
100
AcDbLine
 10
27.24119407356193
 20
61.52181001401968
 30
0.0
 11
27.24119407356193
 21
61.54681001401969
 31
0.0
  0
LINE
  5
2236
330
1E
100
AcDbEntity
  8
OBJECT
100
AcDbLine
 10
27.15961787803189
 20
61.54681001401969
 30
0.0
 11
27.15961787803189
 21
60.54681001401967
 31
0.0
  0
LINE
  5
2237
330
1E
100
AcDbEntity
  8
OBJECT
100
AcDbLine
 10
27.34711787803189
 20
61.54681001401969
 30
0.0
 11
27.34711787803189
 21
60.54681001401967
 31
0.0
  0
LINE
  5
2238
330
1E
100
AcDbEntity
  8
OBJECT
100
AcDbLine
 10
27.15536787803188
 20
60.54681001401967
 30
0.0
 11
27.15536787803188
 21
61.54681001401969
 31
0.0
  0
LINE
  5
2239
330
1E
100
AcDbEntity
  8
OBJECT
100
AcDbLine
 10
27.09536787803187
 20
60.04681001401968
 30
0.0
 11
27.09536787803187
 21
62.04681001401969
 31
0.0
  0
LINE
  5
223A
330
1E
100
AcDbEntity
  8
OBJECT
100
AcDbLine
 10
27.15961787803189
 20
63.41762330788795
 30
0.0
 11
27.15961787803189
 21
63.31206001401962
 31
0.0
  0
LINE
  5
223B
330
1E
100
AcDbEntity
  8
OBJECT
100
AcDbLine
 10
27.34711787803189
 20
63.41762330788795
 30
0.0
 11
27.34711787803189
 21
63.31206001401962
 31
0.0
  0
LINE
  5
223C
330
1E
100
AcDbEntity
  8
OBJECT
100
AcDbLine
 10
27.22211787803189
 20
63.48012330788795
 30
0.0
 11
27.28461787803189
 21
63.48012330788795
 31
0.0
  0
LINE
  5
223D
330
1E
100
AcDbEntity
  8
OBJECT
100
AcDbLine
 10
27.34711787803189
 20
63.41762330788795
 30
0.0
 11
27.28461787803189
 21
63.48012330788795
 31
0.0
  0
LINE
  5
223E
330
1E
100
AcDbEntity
  8
OBJECT
100
AcDbLine
 10
27.22211787803189
 20
63.48012330788795
 30
0.0
 11
27.15961787803189
 21
63.41762330788795
 31
0.0
  0
LINE
  5
223F
330
1E
100
AcDbEntity
  8
OBJECT
100
AcDbLine
 10
27.15961787803189
 20
63.41762330788795
 30
0.0
 11
27.34711787803189
 21
63.41762330788795
 31
0.0
  0
LINE
  5
2240
330
1E
100
AcDbEntity
  8
OBJECT
100
AcDbLine
 10
27.41136787803188
 20
61.54681001401969
 30
0.0
 11
27.09536787803187
 21
61.54681001401969
 31
0.0
  0
LINE
  5
2241
330
1E
100
AcDbEntity
  8
OBJECT
100
AcDbLine
 10
27.41136787803188
 20
62.04681001401969
 30
0.0
 11
27.09536787803187
 21
62.04681001401969
 31
0.0
  0
LINE
  5
2242
330
1E
100
AcDbEntity
  8
OBJECT
100
AcDbLine
 10
27.41136787803188
 20
62.04681001401969
 30
0.0
 11
27.41136787803188
 21
61.54681001401969
 31
0.0
  0
LINE
  5
2243
330
1E
100
AcDbEntity
  8
OBJECT
100
AcDbLine
 10
27.81586787803189
 20
59.41762330788794
 30
0.0
 11
27.81586787803189
 21
59.23012330788794
 31
0.0
  0
ARC
  5
2244
330
1E
100
AcDbEntity
  8
OBJECT
100
AcDbCircle
 10
27.53461787803189
 20
59.60512330788795
 30
0.0
 40
0.375
100
AcDbArc
 50
180.0
 51
270.0
  0
LINE
  5
2245
330
1E
100
AcDbEntity
  8
OBJECT
100
AcDbLine
 10
27.41136787803188
 20
60.54681001401967
 30
0.0
 11
27.41136787803188
 21
60.04681001401968
 31
0.0
  0
LINE
  5
2246
330
1E
100
AcDbEntity
  8
OBJECT
100
AcDbLine
 10
27.36336787803188
 20
60.57181001401968
 30
0.0
 11
27.26460523600417
 21
60.57181001401968
 31
0.0
  0
ARC
  5
2247
330
1E
100
AcDbEntity
  8
OBJECT
100
AcDbCircle
 10
27.36336787803188
 20
60.55931001401968
 30
0.0
 40
0.0125
100
AcDbArc
 50
270.0
 51
90.0
  0
LINE
  5
2248
330
1E
100
AcDbEntity
  8
OBJECT
100
AcDbLine
 10
27.14586787803188
 20
60.54812200878014
 30
0.0
 11
27.36693876854514
 21
60.60346237379199
 31
0.0
  0
ARC
  5
2249
330
1E
100
AcDbEntity
  8
OBJECT
100
AcDbCircle
 10
27.14336787803188
 20
60.56036945749407
 30
0.0
 40
0.0125
100
AcDbArc
 50
103.8215636500156
 51
281.5369590328397
  0
LINE
  5
224A
330
1E
100
AcDbEntity
  8
OBJECT
100
AcDbLine
 10
27.26460523600417
 20
60.57181001401968
 30
0.0
 11
27.26460523600417
 21
60.54681001401967
 31
0.0
  0
ARC
  5
224B
330
1E
100
AcDbEntity
  8
OBJECT
100
AcDbCircle
 10
27.14336787803188
 20
60.65698922726059
 30
0.0
 40
0.0125
100
AcDbArc
 50
103.8215636500156
 51
281.5369590328397
  0
LINE
  5
224C
330
1E
100
AcDbEntity
  8
OBJECT
100
AcDbLine
 10
27.14037897102963
 20
60.57251938219334
 30
0.0
 11
27.36086787803188
 21
60.62771406009164
 31
0.0
  0
ARC
  5
224D
330
1E
100
AcDbEntity
  8
OBJECT
100
AcDbCircle
 10
27.36336787803188
 20
60.61546661137771
 30
0.0
 40
0.0125
100
AcDbArc
 50
286.5709642237996
 51
101.5369590327998
  0
LINE
  5
224E
330
1E
100
AcDbEntity
  8
OBJECT
100
AcDbLine
 10
27.09536787803187
 20
60.54681001401967
 30
0.0
 11
27.41136787803188
 21
60.54681001401967
 31
0.0
  0
LINE
  5
224F
330
1E
100
AcDbEntity
  8
OBJECT
100
AcDbLine
 10
27.14037897102963
 20
60.96913915195987
 30
0.0
 11
27.36086787803188
 21
61.02433382985817
 31
0.0
  0
LINE
  5
2250
330
1E
100
AcDbEntity
  8
OBJECT
100
AcDbLine
 10
27.14586787803188
 20
60.94474177854667
 30
0.0
 11
27.36693876854514
 21
61.00008214355852
 31
0.0
  0
ARC
  5
2251
330
1E
100
AcDbEntity
  8
OBJECT
100
AcDbCircle
 10
27.36336787803188
 20
61.01208638114425
 30
0.0
 40
0.0125
100
AcDbArc
 50
286.5709642237996
 51
101.5369590327998
  0
LINE
  5
2252
330
1E
100
AcDbEntity
  8
OBJECT
100
AcDbLine
 10
27.14037897102963
 20
61.06913915195988
 30
0.0
 11
27.36086787803188
 21
61.12433382985816
 31
0.0
  0
LINE
  5
2253
330
1E
100
AcDbEntity
  8
OBJECT
100
AcDbLine
 10
27.14586787803188
 20
61.04474177854669
 30
0.0
 11
27.36693876854514
 21
61.10008214355853
 31
0.0
  0
ARC
  5
2254
330
1E
100
AcDbEntity
  8
OBJECT
100
AcDbCircle
 10
27.36336787803188
 20
61.11208638114424
 30
0.0
 40
0.0125
100
AcDbArc
 50
286.5709642237996
 51
101.5369590327998
  0
ARC
  5
2255
330
1E
100
AcDbEntity
  8
OBJECT
100
AcDbCircle
 10
27.14336787803188
 20
61.05698922726059
 30
0.0
 40
0.0125
100
AcDbArc
 50
103.8215636500156
 51
281.5369590328397
  0
LINE
  5
2256
330
1E
100
AcDbEntity
  8
OBJECT
100
AcDbLine
 10
27.14037897102963
 20
61.16913915195987
 30
0.0
 11
27.35914042777418
 21
61.22390139966539
 31
0.0
  0
LINE
  5
2257
330
1E
100
AcDbEntity
  8
OBJECT
100
AcDbLine
 10
27.14586787803188
 20
61.14474177854668
 30
0.0
 11
27.36517771049219
 21
61.19964130037365
 31
0.0
  0
ARC
  5
2258
330
1E
100
AcDbEntity
  8
OBJECT
100
AcDbCircle
 10
27.36164042777414
 20
61.21165395095148
 30
0.0
 40
0.0125
100
AcDbArc
 50
286.351656929084
 51
101.5369590327998
  0
ARC
  5
2259
330
1E
100
AcDbEntity
  8
OBJECT
100
AcDbCircle
 10
27.14336787803188
 20
61.15698922726059
 30
0.0
 40
0.0125
100
AcDbArc
 50
103.8215636500156
 51
281.5369590328397
  0
ARC
  5
225A
330
1E
100
AcDbEntity
  8
OBJECT
100
AcDbCircle
 10
27.14693784825266
 20
61.25788289288359
 30
0.0
 40
0.0125
100
AcDbArc
 50
103.8215636500156
 51
281.5369590328397
  0
LINE
  5
225B
330
1E
100
AcDbEntity
  8
OBJECT
100
AcDbLine
 10
27.14943784825265
 20
61.24563544416968
 30
0.0
 11
27.36120807710099
 21
61.29864758763146
 31
0.0
  0
LINE
  5
225C
330
1E
100
AcDbEntity
  8
OBJECT
100
AcDbLine
 10
27.15796291901102
 20
61.52181001401968
 30
0.0
 11
27.24119407356193
 21
61.52181001401968
 31
0.0
  0
ARC
  5
225D
330
1E
100
AcDbEntity
  8
OBJECT
100
AcDbCircle
 10
27.15492042682055
 20
61.4502816351533
 30
0.0
 40
0.0125
100
AcDbArc
 50
103.8215636500156
 51
281.5369590328397
  0
LINE
  5
225E
330
1E
100
AcDbEntity
  8
OBJECT
100
AcDbLine
 10
27.15742042682055
 20
61.4380341864394
 30
0.0
 11
27.35363754483666
 21
61.4871529415472
 31
0.0
  0
ARC
  5
225F
330
1E
100
AcDbEntity
  8
OBJECT
100
AcDbCircle
 10
27.35007834479537
 20
61.49916010559233
 30
0.0
 40
0.0125
100
AcDbArc
 50
286.5709642238005
 51
101.5369590327998
  0
LINE
  5
2260
330
1E
100
AcDbEntity
  8
OBJECT
100
AcDbLine
 10
27.15192050600791
 20
61.46242880278093
 30
0.0
 11
27.34757834479538
 21
61.51140755430624
 31
0.0
  0
ARC
  5
2261
330
1E
100
AcDbEntity
  8
OBJECT
100
AcDbCircle
 10
27.1510645165284
 20
61.36110334316046
 30
0.0
 40
0.0125
100
AcDbArc
 50
103.8215636500156
 51
281.5369590328397
  0
LINE
  5
2262
330
1E
100
AcDbEntity
  8
OBJECT
100
AcDbLine
 10
27.15356451652843
 20
61.34885589444653
 30
0.0
 11
27.35701226124817
 21
61.39978468216477
 31
0.0
  0
ARC
  5
2263
330
1E
100
AcDbEntity
  8
OBJECT
100
AcDbCircle
 10
27.35345694696786
 20
61.41179281892697
 30
0.0
 40
0.0125
100
AcDbArc
 50
286.5709642237971
 51
101.5369590327998
  0
LINE
  5
2264
330
1E
100
AcDbEntity
  8
OBJECT
100
AcDbLine
 10
27.14807054958015
 20
61.37325200121057
 30
0.0
 11
27.3509569469679
 21
61.4240402676409
 31
0.0
  0
ARC
  5
2265
330
1E
100
AcDbEntity
  8
OBJECT
100
AcDbCircle
 10
27.35765751828228
 20
61.31065691482167
 30
0.0
 40
0.0125
100
AcDbArc
 50
286.5709642237996
 51
101.5369590327998
  0
LINE
  5
2266
330
1E
100
AcDbEntity
  8
OBJECT
100
AcDbLine
 10
27.14394175665722
 20
61.27003101907377
 30
0.0
 11
27.35515751828231
 21
61.32290436353559
 31
0.0
  0
ARC
  5
2267
330
1E
100
AcDbEntity
  8
OBJECT
100
AcDbCircle
 10
27.36336787803188
 20
60.71208638114425
 30
0.0
 40
0.0125
100
AcDbArc
 50
286.5709642237996
 51
101.5369590327998
  0
LINE
  5
2268
330
1E
100
AcDbEntity
  8
OBJECT
100
AcDbLine
 10
27.14037897102963
 20
60.76913915195987
 30
0.0
 11
27.36086787803188
 21
60.82433382985817
 31
0.0
  0
LINE
  5
2269
330
1E
100
AcDbEntity
  8
OBJECT
100
AcDbLine
 10
27.14586787803188
 20
60.74474177854668
 30
0.0
 11
27.36693876854514
 21
60.80008214355853
 31
0.0
  0
ARC
  5
226A
330
1E
100
AcDbEntity
  8
OBJECT
100
AcDbCircle
 10
27.36336787803188
 20
60.81208638114425
 30
0.0
 40
0.0125
100
AcDbArc
 50
286.5709642237996
 51
101.5369590327998
  0
ARC
  5
226B
330
1E
100
AcDbEntity
  8
OBJECT
100
AcDbCircle
 10
27.14336787803188
 20
60.7569892272606
 30
0.0
 40
0.0125
100
AcDbArc
 50
103.8215636500156
 51
281.5369590328397
  0
LINE
  5
226C
330
1E
100
AcDbEntity
  8
OBJECT
100
AcDbLine
 10
27.14037897102963
 20
60.86913915195988
 30
0.0
 11
27.36086787803188
 21
60.92433382985817
 31
0.0
  0
LINE
  5
226D
330
1E
100
AcDbEntity
  8
OBJECT
100
AcDbLine
 10
27.14586787803188
 20
60.84474177854668
 30
0.0
 11
27.36693876854514
 21
60.90008214355853
 31
0.0
  0
ARC
  5
226E
330
1E
100
AcDbEntity
  8
OBJECT
100
AcDbCircle
 10
27.36336787803188
 20
60.91208638114424
 30
0.0
 40
0.0125
100
AcDbArc
 50
286.5709642237996
 51
101.5369590327998
  0
ARC
  5
226F
330
1E
100
AcDbEntity
  8
OBJECT
100
AcDbCircle
 10
27.14336787803188
 20
60.85698922726059
 30
0.0
 40
0.0125
100
AcDbArc
 50
103.8215636500156
 51
281.5369590328397
  0
ARC
  5
2270
330
1E
100
AcDbEntity
  8
OBJECT
100
AcDbCircle
 10
27.14336787803188
 20
60.9569892272606
 30
0.0
 40
0.0125
100
AcDbArc
 50
103.8215636500156
 51
281.5369590328397
  0
LINE
  5
2271
330
1E
100
AcDbEntity
  8
OBJECT
100
AcDbLine
 10
27.14037897102963
 20
60.66913915195987
 30
0.0
 11
27.36086787803188
 21
60.72433382985816
 31
0.0
  0
LINE
  5
2272
330
1E
100
AcDbEntity
  8
OBJECT
100
AcDbLine
 10
27.14586787803188
 20
60.64474177854668
 30
0.0
 11
27.36693876854514
 21
60.70008214355852
 31
0.0
  0
LINE
  5
2273
330
1E
100
AcDbEntity
  8
OBJECT
100
AcDbLine
 10
27.53461787803189
 20
59.41762330788794
 30
0.0
 11
27.81586787803189
 21
59.41762330788794
 31
0.0
  0
LINE
  5
2274
330
1E
100
AcDbEntity
  8
OBJECT
100
AcDbLine
 10
27.15961787803189
 20
60.04681001401968
 30
0.0
 11
27.15961787803189
 21
59.60512330788795
 31
0.0
  0
LINE
  5
2275
330
1E
100
AcDbEntity
  8
OBJECT
100
AcDbLine
 10
27.34711787803189
 20
60.04681001401968
 30
0.0
 11
27.34711787803189
 21
59.60512330788795
 31
0.0
  0
LINE
  5
2276
330
1E
100
AcDbEntity
  8
OBJECT
100
AcDbLine
 10
27.09536787803187
 20
60.04681001401968
 30
0.0
 11
27.41136787803188
 21
60.04681001401968
 31
0.0
  0
ARC
  5
2277
330
1E
100
AcDbEntity
  8
OBJECT
100
AcDbCircle
 10
27.53461787803189
 20
59.60512330788795
 30
0.0
 40
0.1875
100
AcDbArc
 50
180.0
 51
270.0
  0
LINE
  5
2278
330
1E
100
AcDbEntity
  8
OBJECT
100
AcDbLine
 10
27.53461787803189
 20
59.23012330788794
 30
0.0
 11
27.81586787803189
 21
59.23012330788794
 31
0.0
  0
CIRCLE
  5
2279
330
1E
100
AcDbEntity
  8
OBJECT
100
AcDbCircle
 10
43.64249346694532
 20
29.01974672015141
 30
0.0
 40
0.09375
  0
LINE
  5
227A
330
1E
100
AcDbEntity
  8
OBJECT
100
AcDbLine
 10
43.73624346694533
 20
60.04681001401969
 30
0.0
 11
43.73624346694533
 21
59.32387330788795
 31
0.0
  0
LINE
  5
227B
330
1E
100
AcDbEntity
  8
OBJECT
100
AcDbLine
 10
43.54874346694532
 20
60.04681001401969
 30
0.0
 11
43.54874346694532
 21
59.32387330788795
 31
0.0
  0
CIRCLE
  5
227C
330
1E
100
AcDbEntity
  8
OBJECT
100
AcDbCircle
 10
43.64249346694532
 20
59.32387330788795
 30
0.0
 40
0.09375
  0
LINE
  5
227D
330
1E
100
AcDbEntity
  8
OBJECT
100
AcDbLine
 10
43.54874346694532
 20
26.14648375704067
 30
0.0
 11
43.54874346694532
 21
26.29681001401968
 31
0.0
  0
LINE
  5
227E
330
1E
100
AcDbEntity
  8
OBJECT
100
AcDbLine
 10
43.54874346694532
 20
62.19713627099871
 30
0.0
 11
43.54874346694532
 21
62.04681001401969
 31
0.0
  0
LINE
  5
227F
330
1E
100
AcDbEntity
  8
OBJECT
100
AcDbLine
 10
27.34711787803189
 20
25.59356001401974
 30
0.0
 11
27.34711787803189
 21
26.29681001401968
 31
0.0
  0
LINE
  5
2280
330
1E
100
AcDbEntity
  8
OBJECT
100
AcDbLine
 10
27.15961787803189
 20
25.59356001401974
 30
0.0
 11
27.15961787803189
 21
26.29681001401968
 31
0.0
  0
LINE
  5
2281
330
1E
100
AcDbEntity
  8
OBJECT
100
AcDbLine
 10
27.34711787803189
 20
62.75006001401962
 30
0.0
 11
27.34711787803189
 21
62.04681001401969
 31
0.0
  0
LINE
  5
2282
330
1E
100
AcDbEntity
  8
OBJECT
100
AcDbLine
 10
27.15961787803189
 20
62.75006001401962
 30
0.0
 11
27.15961787803189
 21
62.04681001401969
 31
0.0
  0
LINE
  5
2283
330
1E
100
AcDbEntity
  8
FRAME
100
AcDbLine
 10
27.72036787803187
 20
59.41762330788794
 30
0.0
 11
27.72036787803187
 21
63.23406001401967
 31
0.0
  0
LINE
  5
2284
330
1E
100
AcDbEntity
  8
FRAME
100
AcDbLine
 10
27.64236787803187
 20
59.41762330788794
 30
0.0
 11
27.64236787803187
 21
63.15606001401967
 31
0.0
  0
CIRCLE
  5
2285
330
1E
100
AcDbEntity
  8
OBJECT
100
AcDbCircle
 10
27.25336787803189
 20
72.34687030581937
 30
0.0
 40
0.094
  0
CIRCLE
  5
2286
330
1E
100
AcDbEntity
  8
OBJECT
100
AcDbCircle
 10
27.25336787803189
 20
72.34687030581937
 30
0.0
 40
0.03125
  0
LWPOLYLINE
  5
228B
330
1E
100
AcDbEntity
  8
HIDDEN
  6
HIDDEN2
100
AcDbPolyline
 90
        4
 70
     0
 43
0.0
 10
7.558367878031887
 20
63.31206001401969
 10
7.558367878031887
 20
62.32781001401969
 10
7.882367878031885
 20
62.32781001401969
 10
7.882367878031885
 20
63.31206001401969
  0
LWPOLYLINE
  5
228C
330
1E
100
AcDbEntity
  8
OBJECT
100
AcDbPolyline
 90
        4
 70
     1
 43
0.0
 10
7.438117878031889
 20
63.53081001401967
 10
7.438117878031889
 20
63.31206001401968
 10
8.002617878031884
 20
63.31206001401969
 10
8.002617878031884
 20
63.53081001401969
  0
LINE
  5
228D
330
1E
100
AcDbEntity
  8
OBJECT
100
AcDbLine
 10
7.861492878031896
 20
63.53081001401969
 30
0.0
 11
7.861492878031896
 21
63.31206001401969
 31
0.0
  0
LINE
  5
228E
330
1E
100
AcDbEntity
  8
OBJECT
100
AcDbLine
 10
7.579242878031891
 20
63.53081001401969
 30
0.0
 11
7.579242878031891
 21
63.31206001401969
 31
0.0
  0
LINE
  5
228F
330
1E
100
AcDbEntity
  8
HIDDEN
100
AcDbLine
 10
7.532867878031893
 20
63.15606001401969
 30
0.0
 11
7.532867878031879
 21
63.23406001401967
 31
0.0
  0
LINE
  5
2290
330
1E
100
AcDbEntity
  8
HIDDEN
100
AcDbLine
 10
7.907867878031893
 20
63.15606001401969
 30
0.0
 11
7.907867878031893
 21
63.23406001401967
 31
0.0
  0
LINE
  5
2291
330
1E
100
AcDbEntity
  8
CENTER
100
AcDbLine
 10
7.720367878031893
 20
62.70306001401968
 30
0.0
 11
7.720367878031879
 21
63.31206001401969
 31
0.0
  0
LWPOLYLINE
  5
2293
330
1E
100
AcDbEntity
  8
OBJECT
100
AcDbPolyline
 90
        6
 70
     1
 43
0.0
 10
7.579242878031891
 20
72.98030597603752
 10
7.438117878031903
 20
72.73587030581936
 10
7.579242878031891
 20
72.49143463560121
 10
7.861492878031896
 20
72.49143463560121
 10
8.002617878031884
 20
72.73587030581936
 10
7.861492878031896
 20
72.98030597603752
  0
LINE
  5
2294
330
1E
100
AcDbEntity
  8
HIDDEN
100
AcDbLine
 10
7.923492878031893
 20
63.23406001401967
 30
0.0
 11
7.923492878031893
 21
63.31206001401969
 31
0.0
  0
LINE
  5
2295
330
1E
100
AcDbEntity
  8
HIDDEN
100
AcDbLine
 10
7.517242878031893
 20
63.23406001401967
 30
0.0
 11
7.517242878031893
 21
63.31206001401969
 31
0.0
  0
CIRCLE
  5
2296
330
1E
100
AcDbEntity
  8
FRAME
100
AcDbCircle
 10
26.47036787803187
 20
72.73587030581936
 30
0.0
 40
0.2031250000000071
  0
CIRCLE
  5
2297
330
1E
100
AcDbEntity
  8
FRAME
100
AcDbCircle
 10
6.937367878031892
 20
72.34687030581937
 30
0.0
 40
0.125
  0
CIRCLE
  5
2298
330
1E
100
AcDbEntity
  8
FRAME
100
AcDbCircle
 10
27.25336787803189
 20
72.34687030581937
 30
0.0
 40
0.125
  0
LINE
  5
2299
330
1E
100
AcDbEntity
  8
FRAME
100
AcDbLine
 10
6.548367878031896
 20
25.18756001401968
 30
0.0
 11
6.548367878031911
 21
63.15606001401966
 31
0.0
  0
LINE
  5
229A
330
1E
100
AcDbEntity
  8
FRAME
100
AcDbLine
 10
6.47036787803205
 20
25.10956001401968
 30
0.0
 11
6.470367878031879
 21
63.23406001401969
 31
0.0
  0
LINE
  5
229B
330
1E
100
AcDbEntity
  8
FRAME
100
AcDbLine
 10
6.470367878031908
 20
62.23406001401968
 30
0.0
 11
6.548367878031911
 21
62.23406001401968
 31
0.0
  0
LINE
  5
229C
330
1E
100
AcDbEntity
  8
HIDDEN
100
AcDbLine
 10
9.970367878031879
 20
74.14187030581932
 30
0.0
 11
24.22036787803188
 21
74.14187030581935
 31
0.0
  0
ARC
  5
229D
330
1E
100
AcDbEntity
  8
OBJECT
100
AcDbCircle
 10
6.970367878031893
 20
63.15844984452819
 30
0.0
 40
0.2716101694915042
100
AcDbArc
 50
34.4407585499535
 51
145.5592414500538
  0
LWPOLYLINE
  5
229E
330
1E
100
AcDbEntity
  8
HIDDEN
  6
HIDDEN2
100
AcDbPolyline
 90
        4
 70
     0
 43
0.0
 10
7.065367878031892
 20
63.31206001401969
 10
7.065367878031892
 20
62.99906001401969
 10
6.875367878031894
 20
62.99906001401969
 10
6.875367878031894
 20
63.31206001401969
  0
ARC
  5
229F
330
1E
100
AcDbEntity
  8
OBJECT
100
AcDbCircle
 10
27.23930536819938
 20
63.15844984452818
 30
0.0
 40
0.2716101694915042
100
AcDbArc
 50
34.44075854994617
 51
66.61307707887783
  0
ARC
  5
22A0
330
1E
100
AcDbEntity
  8
OBJECT
100
AcDbCircle
 10
25.72036787803188
 20
63.15844984452818
 30
0.0
 40
0.2716101694915042
100
AcDbArc
 50
34.44075854994617
 51
145.5592414500464
  0
ARC
  5
22A1
330
1E
100
AcDbEntity
  8
OBJECT
100
AcDbCircle
 10
27.23930536819938
 20
63.15844984452818
 30
0.0
 40
0.2716101694915042
100
AcDbArc
 50
107.0609718236883
 51
145.5592414500464
  0
ARC
  5
22B0
330
1E
100
AcDbEntity
  8
FRAME
100
AcDbCircle
 10
56.4064934669453
 20
56.79338012842873
 30
0.0
 40
2.0
100
AcDbArc
 50
0.0
 51
75.44889715180355
  0
ARC
  5
22B1
330
1E
100
AcDbEntity
  8
FRAME
100
AcDbCircle
 10
56.40649346694534
 20
31.55023989961062
 30
0.0
 40
2.0
100
AcDbArc
 50
284.5511028481964
 51
0.0000000000001018
  0
LINE
  5
22B2
330
1E
100
AcDbEntity
  8
FRAME
100
AcDbLine
 10
24.22036787803188
 20
90.03287030581937
 30
0.0
 11
24.22036787803188
 21
74.21987030581935
 31
0.0
  0
LINE
  5
22B3
330
1E
100
AcDbEntity
  8
FRAME
100
AcDbLine
 10
9.970367878031879
 20
90.03287030581937
 30
0.0
 11
9.970367878031879
 21
74.21987030581935
 31
0.0
  0
LINE
  5
22B4
330
1E
100
AcDbEntity
  8
FRAME
100
AcDbLine
 10
27.72036787803187
 20
72.11087030581936
 30
0.0
 11
27.72036787803187
 21
90.11087030581936
 31
0.0
  0
LINE
  5
22B5
330
1E
100
AcDbEntity
  8
HIDDEN
100
AcDbLine
 10
24.22036787803188
 20
74.14187030581935
 30
0.0
 11
24.22036787803188
 21
72.11087030581936
 31
0.0
  0
CIRCLE
  5
22B6
330
1E
100
AcDbEntity
  8
HIDDEN
100
AcDbCircle
 10
7.720367878031879
 20
72.73587030581937
 30
0.0
 40
0.203
  0
LINE
  5
22B7
330
1E
100
AcDbEntity
  8
FRAME
100
AcDbLine
 10
6.470367878031893
 20
72.11087030581936
 30
0.0
 11
6.470367878031893
 21
90.11087030581936
 31
0.0
  0
LINE
  5
22B8
330
1E
100
AcDbEntity
  8
HIDDEN
100
AcDbLine
 10
9.970367878031879
 20
74.14187030581932
 30
0.0
 11
9.970367878031879
 21
72.11087030581936
 31
0.0
  0
LINE
  5
22B9
330
1E
100
AcDbEntity
  8
HIDDEN
100
AcDbLine
 10
9.970367878031879
 20
61.70281001401967
 30
0.0
 11
9.970367878031879
 21
63.23406001401967
 31
0.0
  0
LINE
  5
22BA
330
1E
100
AcDbEntity
  8
HIDDEN
100
AcDbLine
 10
6.548367878031911
 20
63.15606001401967
 30
0.0
 11
9.970367878031879
 21
63.15606001401967
 31
0.0
  0
ARC
  5
22BB
330
1E
100
AcDbEntity
  8
OBJECT
100
AcDbCircle
 10
8.470367878031893
 20
63.15844984452819
 30
0.0
 40
0.2716101694915042
100
AcDbArc
 50
34.4407585499535
 51
145.5592414500538
  0
LWPOLYLINE
  5
22BC
330
1E
100
AcDbEntity
  8
HIDDEN
  6
HIDDEN2
100
AcDbPolyline
 90
        4
 70
     0
 43
0.0
 10
8.565367878031892
 20
63.31206001401969
 10
8.565367878031892
 20
62.99906001401969
 10
8.375367878031894
 20
62.99906001401969
 10
8.375367878031894
 20
63.31206001401969
  0
ARC
  5
22BD
330
1E
100
AcDbEntity
  8
OBJECT
100
AcDbCircle
 10
8.970367878031893
 20
63.15844984452819
 30
0.0
 40
0.2716101694915042
100
AcDbArc
 50
34.4407585499535
 51
145.5592414500538
  0
LWPOLYLINE
  5
22BE
330
1E
100
AcDbEntity
  8
HIDDEN
  6
HIDDEN2
100
AcDbPolyline
 90
        4
 70
     0
 43
0.0
 10
9.065367878031892
 20
63.31206001401969
 10
9.065367878031892
 20
62.99906001401969
 10
8.875367878031894
 20
62.99906001401969
 10
8.875367878031894
 20
63.31206001401969
  0
LINE
  5
22BF
330
1E
100
AcDbEntity
  8
HIDDEN
100
AcDbLine
 10
24.22036787803188
 20
61.70281001401967
 30
0.0
 11
24.22036787803188
 21
63.23406001401967
 31
0.0
  0
ARC
  5
22C0
330
1E
100
AcDbEntity
  8
OBJECT
100
AcDbCircle
 10
25.22036787803187
 20
63.15844984452818
 30
0.0
 40
0.2716101694915042
100
AcDbArc
 50
34.44075854994617
 51
145.5592414500464
  0
LINE
  5
22C1
330
1E
100
AcDbEntity
  8
HIDDEN
100
AcDbLine
 10
24.22036787803188
 20
26.64081001401967
 30
0.0
 11
24.22036787803188
 21
25.10956001401968
 31
0.0
  0
LINE
  5
22C2
330
1E
100
AcDbEntity
  8
HIDDEN
100
AcDbLine
 10
9.970367878031879
 20
26.64081001401967
 30
0.0
 11
9.970367878031879
 21
25.10956001401968
 31
0.0
  0
CIRCLE
  5
22C3
330
1E
100
AcDbEntity
  8
OBJECT
100
AcDbCircle
 10
6.970367878031879
 20
73.61087030581936
 30
0.0
 40
0.25
  0
CIRCLE
  5
22C4
330
1E
100
AcDbEntity
  8
OBJECT
100
AcDbCircle
 10
8.470367878031879
 20
73.61087030581936
 30
0.0
 40
0.25
  0
CIRCLE
  5
22C5
330
1E
100
AcDbEntity
  8
OBJECT
100
AcDbCircle
 10
8.970367878031879
 20
72.42287030581938
 30
0.0
 40
0.25
  0
CIRCLE
  5
22C6
330
1E
100
AcDbEntity
  8
OBJECT
100
AcDbCircle
 10
27.22036787803188
 20
73.61087030581936
 30
0.0
 40
0.25
  0
CIRCLE
  5
22C7
330
1E
100
AcDbEntity
  8
OBJECT
100
AcDbCircle
 10
25.72036787803188
 20
73.61087030581936
 30
0.0
 40
0.25
  0
CIRCLE
  5
22C8
330
1E
100
AcDbEntity
  8
OBJECT
100
AcDbCircle
 10
25.22036787803187
 20
72.42287030581936
 30
0.0
 40
0.25
  0
CIRCLE
  5
22C9
330
1E
100
AcDbEntity
  8
FRAME
100
AcDbCircle
 10
6.970367878031893
 20
87.11087030581936
 30
0.0
 40
0.109
  0
CIRCLE
  5
22CA
330
1E
100
AcDbEntity
  8
FRAME
100
AcDbCircle
 10
27.22036787803188
 20
87.11087030581936
 30
0.0
 40
0.109
  0
CIRCLE
  5
22CB
330
1E
100
AcDbEntity
  8
FRAME
100
AcDbCircle
 10
6.970367878031893
 20
77.11087030581936
 30
0.0
 40
0.109
  0
CIRCLE
  5
22CC
330
1E
100
AcDbEntity
  8
FRAME
100
AcDbCircle
 10
27.22036787803188
 20
77.11087030581936
 30
0.0
 40
0.109
  0
LINE
  5
22CD
330
1E
100
AcDbEntity
  8
FRAME
100
AcDbLine
 10
6.564367878031887
 20
71.80687030581937
 30
0.0
 11
6.564367878031887
 21
74.21987030581935
 31
0.0
  0
LINE
  5
22CE
330
1E
100
AcDbEntity
  8
FRAME
100
AcDbLine
 10
27.62636787803188
 20
71.80687030581937
 30
0.0
 11
27.62636787803188
 21
74.21987030581935
 31
0.0
  0
LINE
  5
22CF
330
1E
100
AcDbEntity
  8
FRAME
100
AcDbLine
 10
27.62636787803188
 20
71.80687030581937
 30
0.0
 11
6.564367878031887
 21
71.80687030581937
 31
0.0
  0
LINE
  5
22D0
330
1E
100
AcDbEntity
  8
HIDDEN
100
AcDbLine
 10
27.72036787803187
 20
72.11087030581936
 30
0.0
 11
24.22036787803188
 21
72.11087030581936
 31
0.0
  0
ARC
  5
22D1
330
1E
100
AcDbEntity
  8
OBJECT
100
AcDbCircle
 10
44.9052434669453
 20
63.15844984452818
 30
0.0
 40
0.2716101694915042
100
AcDbArc
 50
34.44075854994617
 51
145.5592414500464
  0
ARC
  5
22D2
330
1E
100
AcDbEntity
  8
OBJECT
100
AcDbCircle
 10
44.9052434669453
 20
25.18517018351118
 30
0.0
 40
0.2716101694915042
100
AcDbArc
 50
214.4407585499535
 51
325.5592414500538
  0
LINE
  5
22D3
330
1E
100
AcDbEntity
  8
FRAME
100
AcDbLine
 10
27.62636787803188
 20
63.31206001401962
 30
0.0
 11
27.62636787803188
 21
62.75006001401962
 31
0.0
  0
LINE
  5
22D4
330
1E
100
AcDbEntity
  8
FRAME
100
AcDbLine
 10
6.564367878031887
 20
62.75006001401968
 30
0.0
 11
27.62636787803188
 21
62.75006001401962
 31
0.0
  0
LINE
  5
22D5
330
1E
100
AcDbEntity
  8
FRAME
100
AcDbLine
 10
6.564367878031887
 20
63.31206001401969
 30
0.0
 11
6.564367878031887
 21
62.75006001401968
 31
0.0
  0
LINE
  5
22D6
330
1E
100
AcDbEntity
  8
HIDDEN
100
AcDbLine
 10
27.62636787803188
 20
73.04887030581937
 30
0.0
 11
6.564367878031887
 21
73.04887030581937
 31
0.0
  0
LINE
  5
22D7
330
1E
100
AcDbEntity
  8
HIDDEN
100
AcDbLine
 10
6.564367878031887
 20
62.82806001401969
 30
0.0
 11
27.62636787803188
 21
62.82806001401962
 31
0.0
  0
LWPOLYLINE
  5
22D8
330
1E
100
AcDbEntity
  8
HIDDEN
  6
HIDDEN2
100
AcDbPolyline
 90
        4
 70
     0
 43
0.0
 10
25.62536787803188
 20
63.31206001401969
 10
25.62536787803188
 20
62.99906001401969
 10
25.81536787803187
 20
62.99906001401969
 10
25.81536787803187
 20
63.31206001401969
  0
LWPOLYLINE
  5
22D9
330
1E
100
AcDbEntity
  8
HIDDEN
  6
HIDDEN2
100
AcDbPolyline
 90
        4
 70
     0
 43
0.0
 10
25.12536787803188
 20
63.31206001401969
 10
25.12536787803188
 20
62.99906001401969
 10
25.31536787803188
 20
62.99906001401969
 10
25.31536787803188
 20
63.31206001401969
  0
LINE
  5
22DA
330
1E
100
AcDbEntity
  8
HIDDEN
100
AcDbLine
 10
27.64236787803184
 20
63.15606001401967
 30
0.0
 11
24.22036787803188
 21
63.15606001401967
 31
0.0
  0
LINE
  5
22DB
330
1E
100
AcDbEntity
  8
HIDDEN
100
AcDbLine
 10
6.470367878031879
 20
25.10956001401968
 30
0.0
 11
27.72036787803187
 21
25.10956001401969
 31
0.0
  0
LINE
  5
22DC
330
1E
100
AcDbEntity
  8
HIDDEN
100
AcDbLine
 10
6.564367878031887
 20
25.51556001401968
 30
0.0
 11
27.62636787803188
 21
25.51556001401973
 31
0.0
  0
LINE
  5
22DD
330
1E
100
AcDbEntity
  8
FRAME
100
AcDbLine
 10
6.564367878031887
 20
25.59356001401968
 30
0.0
 11
27.62636787803188
 21
25.59356001401974
 31
0.0
  0
LINE
  5
22DE
330
1E
100
AcDbEntity
  8
FRAME
100
AcDbLine
 10
6.564367878031887
 20
25.03156001401967
 30
0.0
 11
27.62636787803188
 21
25.03156001401974
 31
0.0
  0
LINE
  5
22DF
330
1E
100
AcDbEntity
  8
HIDDEN
  6
HIDDEN2
100
AcDbLine
 10
27.15961787803189
 20
63.29491577486855
 30
0.0
 11
27.15961787803189
 21
62.76652140024989
 31
0.0
  0
LINE
  5
22E0
330
1E
100
AcDbEntity
  8
HIDDEN
  6
HIDDEN2
100
AcDbLine
 10
27.34711787803189
 20
63.29491577486855
 30
0.0
 11
27.34711787803189
 21
62.76652140024989
 31
0.0
  0
LINE
  5
22E1
330
1E
100
AcDbEntity
  8
FRAME
  6
HIDDEN
100
AcDbLine
 10
6.548367878031896
 20
90.03287030581935
 30
0.0
 11
9.970367878031879
 21
90.03287030581937
 31
0.0
  0
LINE
  5
22E2
330
1E
100
AcDbEntity
  8
FRAME
  6
HIDDEN
100
AcDbLine
 10
6.548367878031896
 20
72.11087030581936
 30
0.0
 11
6.548367878031896
 21
90.03287030581935
 31
0.0
  0
LINE
  5
22E3
330
1E
100
AcDbEntity
  8
FRAME
  6
HIDDEN
100
AcDbLine
 10
27.64236787803187
 20
72.11087030581936
 30
0.0
 11
27.64236787803187
 21
90.03287030581935
 31
0.0
  0
LINE
  5
22E4
330
1E
100
AcDbEntity
  8
FRAME
  6
HIDDEN
100
AcDbLine
 10
27.64236787803187
 20
90.03287030581935
 30
0.0
 11
24.22036787803188
 21
90.03287030581937
 31
0.0
  0
LINE
  5
22E5
330
1E
100
AcDbEntity
  8
HIDDEN
100
AcDbLine
 10
27.62636787803188
 20
71.88487030581938
 30
0.0
 11
6.564367878031887
 21
71.88487030581938
 31
0.0
  0
LINE
  5
22E6
330
1E
100
AcDbEntity
  8
DOOR
  6
HIDDEN
100
AcDbLine
 10
45.25049346694532
 20
26.58820593409414
 30
0.0
 11
45.25049346694527
 21
61.75541409394523
 31
0.0
  0
LINE
  5
22E7
330
1E
100
AcDbEntity
  8
DOOR
  6
HIDDEN
100
AcDbLine
 10
43.56249346694531
 20
29.19362475714145
 30
0.0
 11
43.56249346694531
 21
59.14999527089792
 31
0.0
  0
LINE
  5
22E8
330
1E
100
AcDbEntity
  8
FRAME
  6
HIDDEN
100
AcDbLine
 10
61.32849346694531
 20
63.15606001401961
 30
0.0
 11
43.4064934669453
 21
63.15606001401963
 31
0.0
  0
LINE
  5
22E9
330
1E
100
AcDbEntity
  8
FRAME
  6
HIDDEN
100
AcDbLine
 10
61.32849346694531
 20
25.18756001401975
 30
0.0
 11
61.32849346694531
 21
63.15606001401961
 31
0.0
  0
LINE
  5
22EA
330
1E
100
AcDbEntity
  8
FRAME
  6
HIDDEN
100
AcDbLine
 10
61.32849346694531
 20
25.18756001401975
 30
0.0
 11
43.4064934669453
 21
25.18756001401975
 31
0.0
  0
LINE
  5
22EB
330
1E
100
AcDbEntity
  8
DOOR
  6
HIDDEN
100
AcDbLine
 10
7.173367878031896
 20
25.74981001401968
 30
0.0
 11
7.173367878031896
 21
62.59381001401968
 31
0.0
  0
LINE
  5
22EC
330
1E
100
AcDbEntity
  8
DOOR
  6
HIDDEN
100
AcDbLine
 10
7.173367878031896
 20
62.59381001401968
 30
0.0
 11
27.01736787803187
 21
62.59381001401968
 31
0.0
  0
LINE
  5
22ED
330
1E
100
AcDbEntity
  8
DOOR
  6
HIDDEN
100
AcDbLine
 10
27.01736787803187
 20
25.74981001401968
 30
0.0
 11
27.01736787803187
 21
62.59381001401968
 31
0.0
  0
LINE
  5
22EE
330
1E
100
AcDbEntity
  8
DOOR
  6
HIDDEN
100
AcDbLine
 10
7.173367878031896
 20
25.74981001401968
 30
0.0
 11
27.01736787803187
 21
25.74981001401968
 31
0.0
  0
LINE
  5
22EF
330
1E
100
AcDbEntity
  8
OBJECT
100
AcDbLine
 10
25.62490846257168
 20
73.51541089035918
 30
0.0
 11
25.81582729349205
 21
73.70632972127954
 31
0.0
  0
LINE
  5
22F0
330
1E
100
AcDbEntity
  8
OBJECT
100
AcDbLine
 10
25.81582729349205
 20
73.51541089035918
 30
0.0
 11
25.62490846257168
 21
73.70632972127954
 31
0.0
  0
LINE
  5
22F1
330
1E
100
AcDbEntity
  8
OBJECT
100
AcDbLine
 10
27.31582729349208
 20
73.51541089035918
 30
0.0
 11
27.12490846257168
 21
73.70632972127954
 31
0.0
  0
LINE
  5
22F2
330
1E
100
AcDbEntity
  8
OBJECT
100
AcDbLine
 10
27.12490846257168
 20
73.51541089035918
 30
0.0
 11
27.31582729349208
 21
73.70632972127954
 31
0.0
  0
LINE
  5
22F3
330
1E
100
AcDbEntity
  8
OBJECT
100
AcDbLine
 10
25.31582729349207
 20
72.32741089035918
 30
0.0
 11
25.12490846257168
 21
72.51832972127954
 31
0.0
  0
LINE
  5
22F4
330
1E
100
AcDbEntity
  8
OBJECT
100
AcDbLine
 10
25.12490846257168
 20
72.32741089035918
 30
0.0
 11
25.31582729349207
 21
72.51832972127954
 31
0.0
  0
LINE
  5
22F5
330
1E
100
AcDbEntity
  8
OBJECT
100
AcDbLine
 10
7.065827293492077
 20
73.51541089035918
 30
0.0
 11
6.87490846257171
 21
73.70632972127954
 31
0.0
  0
LINE
  5
22F6
330
1E
100
AcDbEntity
  8
OBJECT
100
AcDbLine
 10
6.87490846257171
 20
73.51541089035918
 30
0.0
 11
7.065827293492077
 21
73.70632972127954
 31
0.0
  0
LINE
  5
22F7
330
1E
100
AcDbEntity
  8
OBJECT
100
AcDbLine
 10
8.565827293492077
 20
73.51541089035918
 30
0.0
 11
8.37490846257171
 21
73.70632972127954
 31
0.0
  0
LINE
  5
22F8
330
1E
100
AcDbEntity
  8
OBJECT
100
AcDbLine
 10
8.37490846257171
 20
73.51541089035918
 30
0.0
 11
8.565827293492077
 21
73.70632972127954
 31
0.0
  0
LINE
  5
22F9
330
1E
100
AcDbEntity
  8
OBJECT
100
AcDbLine
 10
9.065827293492077
 20
72.32741089035918
 30
0.0
 11
8.87490846257171
 21
72.51832972127956
 31
0.0
  0
LINE
  5
22FA
330
1E
100
AcDbEntity
  8
OBJECT
100
AcDbLine
 10
8.87490846257171
 20
72.32741089035918
 30
0.0
 11
9.065827293492077
 21
72.51832972127956
 31
0.0
  0
LWPOLYLINE
  5
22FB
330
1E
100
AcDbEntity
  8
HIDDEN
  6
HIDDEN2
100
AcDbPolyline
 90
        4
 70
     0
 43
0.0
 10
25.09836787803186
 20
63.09406001401967
 10
25.09836787803186
 20
62.90006001401967
 10
25.34236787803189
 20
62.90006001401967
 10
25.34236787803189
 20
63.09406001401967
  0
LWPOLYLINE
  5
22FC
330
1E
100
AcDbEntity
  8
HIDDEN
100
AcDbPolyline
 90
        4
 70
     0
 43
0.0
 10
25.45636787803187
 20
63.15606001401967
 10
25.45636787803187
 20
63.09406001401967
 10
24.98436787803189
 20
63.09406001401967
 10
24.98436787803189
 20
63.15606001401967
  0
LWPOLYLINE
  5
22FD
330
1E
100
AcDbEntity
  8
HIDDEN
  6
HIDDEN2
100
AcDbPolyline
 90
        4
 70
     0
 43
0.0
 10
26.28336787803187
 20
63.09406001401967
 10
26.28336787803187
 20
62.82106001401968
 10
26.65736787803189
 20
62.82106001401968
 10
26.65736787803189
 20
63.09406001401967
  0
LWPOLYLINE
  5
22FE
330
1E
100
AcDbEntity
  8
HIDDEN
100
AcDbPolyline
 90
        4
 70
     0
 43
0.0
 10
26.74636787803189
 20
63.15606001401967
 10
26.74636787803189
 20
63.09406001401967
 10
26.19436787803187
 20
63.09406001401967
 10
26.19436787803187
 20
63.15606001401967
  0
LWPOLYLINE
  5
22FF
330
1E
100
AcDbEntity
  8
HIDDEN
100
AcDbPolyline
 90
        4
 70
     0
 43
0.0
 10
25.95636787803186
 20
63.15606001401967
 10
25.95636787803186
 20
63.09406001401967
 10
25.48436787803189
 20
63.09406001401967
 10
25.48436787803189
 20
63.15606001401967
  0
LWPOLYLINE
  5
2300
330
1E
100
AcDbEntity
  8
HIDDEN
  6
HIDDEN2
100
AcDbPolyline
 90
        4
 70
     0
 43
0.0
 10
25.59836787803186
 20
63.09406001401967
 10
25.59836787803186
 20
62.90006001401967
 10
25.84236787803189
 20
62.90006001401967
 10
25.84236787803189
 20
63.09406001401967
  0
LWPOLYLINE
  5
2301
330
1E
100
AcDbEntity
  8
HIDDEN
  6
HIDDEN2
100
AcDbPolyline
 90
        4
 70
     0
 43
0.0
 10
27.09836787803186
 20
63.09406001401967
 10
27.09836787803186
 20
62.90006001401967
 10
27.34236787803189
 20
62.90006001401967
 10
27.34236787803189
 20
63.09406001401967
  0
LWPOLYLINE
  5
2302
330
1E
100
AcDbEntity
  8
HIDDEN
100
AcDbPolyline
 90
        4
 70
     0
 43
0.0
 10
27.45636787803187
 20
63.15606001401967
 10
27.45636787803187
 20
63.09406001401967
 10
26.98436787803188
 20
63.09406001401967
 10
26.98436787803188
 20
63.15606001401967
  0
LWPOLYLINE
  5
2303
330
1E
100
AcDbEntity
  8
HIDDEN
100
AcDbPolyline
 90
        4
 70
     0
 43
0.0
 10
7.444367878031883
 20
63.15606001401967
 10
7.444367878031883
 20
63.09406001401967
 10
7.99636787803189
 20
63.09406001401967
 10
7.99636787803189
 20
63.15606001401967
  0
LWPOLYLINE
  5
2304
330
1E
100
AcDbEntity
  8
HIDDEN
  6
HIDDEN2
100
AcDbPolyline
 90
        4
 70
     0
 43
0.0
 10
7.907367878031891
 20
63.09406001401967
 10
7.907367878031891
 20
62.82106001401968
 10
7.533367878031896
 20
62.82106001401968
 10
7.533367878031896
 20
63.09406001401967
  0
LWPOLYLINE
  5
2305
330
1E
100
AcDbEntity
  8
HIDDEN
100
AcDbPolyline
 90
        4
 70
     0
 43
0.0
 10
8.234367878031889
 20
63.15606001401967
 10
8.234367878031889
 20
63.09406001401967
 10
8.706367878031898
 20
63.09406001401967
 10
8.706367878031898
 20
63.15606001401967
  0
LWPOLYLINE
  5
2306
330
1E
100
AcDbEntity
  8
HIDDEN
  6
HIDDEN2
100
AcDbPolyline
 90
        4
 70
     0
 43
0.0
 10
9.092367878031893
 20
63.09406001401967
 10
9.092367878031893
 20
62.90006001401967
 10
8.848367878031893
 20
62.90006001401967
 10
8.848367878031893
 20
63.09406001401967
  0
LWPOLYLINE
  5
2307
330
1E
100
AcDbEntity
  8
HIDDEN
100
AcDbPolyline
 90
        4
 70
     0
 43
0.0
 10
8.734367878031889
 20
63.15606001401967
 10
8.734367878031889
 20
63.09406001401967
 10
9.206367878031883
 20
63.09406001401967
 10
9.206367878031883
 20
63.15606001401967
  0
LWPOLYLINE
  5
2308
330
1E
100
AcDbEntity
  8
HIDDEN
  6
HIDDEN2
100
AcDbPolyline
 90
        4
 70
     0
 43
0.0
 10
8.592367878031893
 20
63.09406001401967
 10
8.592367878031893
 20
62.90006001401967
 10
8.348367878031893
 20
62.90006001401967
 10
8.348367878031893
 20
63.09406001401967
  0
LWPOLYLINE
  5
2309
330
1E
100
AcDbEntity
  8
HIDDEN
100
AcDbPolyline
 90
        4
 70
     0
 43
0.0
 10
6.734367878031889
 20
63.15606001401967
 10
6.734367878031889
 20
63.09406001401967
 10
7.206367878031898
 20
63.09406001401967
 10
7.206367878031898
 20
63.15606001401967
  0
LWPOLYLINE
  5
230A
330
1E
100
AcDbEntity
  8
HIDDEN
  6
HIDDEN2
100
AcDbPolyline
 90
        4
 70
     0
 43
0.0
 10
7.092367878031893
 20
63.09406001401967
 10
7.092367878031893
 20
62.90006001401967
 10
6.848367878031893
 20
62.90006001401967
 10
6.848367878031893
 20
63.09406001401967
  0
LINE
  5
230B
330
1E
100
AcDbEntity
  8
HIDDEN
100
AcDbLine
 10
6.548367878031911
 20
25.18756001401968
 30
0.0
 11
9.970367878031879
 21
25.18756001401968
 31
0.0
  0
LWPOLYLINE
  5
230C
330
1E
100
AcDbEntity
  8
HIDDEN
  6
HIDDEN2
100
AcDbPolyline
 90
        4
 70
     0
 43
0.0
 10
7.907367878031891
 20
25.24956001401968
 10
7.907367878031891
 20
25.52256001401968
 10
7.533367878031896
 20
25.52256001401968
 10
7.533367878031896
 20
25.24956001401968
  0
LWPOLYLINE
  5
230D
330
1E
100
AcDbEntity
  8
HIDDEN
  6
HIDDEN2
100
AcDbPolyline
 90
        4
 70
     0
 43
0.0
 10
7.558367878031887
 20
25.03156001401967
 10
7.558367878031887
 20
26.01581001401967
 10
7.882367878031885
 20
26.01581001401967
 10
7.882367878031885
 20
25.03156001401967
  0
LINE
  5
230E
330
1E
100
AcDbEntity
  8
CENTER
100
AcDbLine
 10
7.720367878031893
 20
25.64056001401967
 30
0.0
 11
7.720367878031879
 21
25.03156001401967
 31
0.0
  0
LINE
  5
230F
330
1E
100
AcDbEntity
  8
FRAME
100
AcDbLine
 10
6.564367878031887
 20
25.03156001401967
 30
0.0
 11
6.564367878031887
 21
25.59356001401967
 31
0.0
  0
LINE
  5
2313
330
1E
100
AcDbEntity
  8
FRAME
100
AcDbLine
 10
6.470367878031908
 20
26.10956001401969
 30
0.0
 11
6.548367878031911
 21
26.10956001401969
 31
0.0
  0
LWPOLYLINE
  5
2316
330
1E
100
AcDbEntity
  8
HIDDEN
100
AcDbPolyline
 90
        4
 70
     0
 43
0.0
 10
7.444367878031883
 20
25.18756001401968
 10
7.444367878031883
 20
25.24956001401968
 10
7.99636787803189
 20
25.24956001401968
 10
7.99636787803189
 20
25.18756001401968
  0
LWPOLYLINE
  5
2317
330
1E
100
AcDbEntity
  8
OBJECT
100
AcDbPolyline
 90
        4
 70
     1
 43
0.0
 10
7.438117878031889
 20
24.81281001401967
 10
7.438117878031889
 20
25.03156001401968
 10
8.002617878031884
 20
25.03156001401967
 10
8.002617878031884
 20
24.81281001401967
  0
LWPOLYLINE
  5
2318
330
1E
100
AcDbEntity
  8
HIDDEN
100
AcDbPolyline
 90
        4
 70
     0
 43
0.0
 10
6.734367878031889
 20
25.18756001401968
 10
6.734367878031889
 20
25.24956001401968
 10
7.206367878031898
 20
25.24956001401968
 10
7.206367878031898
 20
25.18756001401968
  0
LWPOLYLINE
  5
2319
330
1E
100
AcDbEntity
  8
HIDDEN
  6
HIDDEN2
100
AcDbPolyline
 90
        4
 70
     0
 43
0.0
 10
7.092367878031893
 20
25.24956001401968
 10
7.092367878031893
 20
25.44356001401968
 10
6.848367878031893
 20
25.44356001401968
 10
6.848367878031893
 20
25.24956001401968
  0
LWPOLYLINE
  5
231A
330
1E
100
AcDbEntity
  8
HIDDEN
  6
HIDDEN2
100
AcDbPolyline
 90
        4
 70
     0
 43
0.0
 10
7.065367878031892
 20
25.03156001401966
 10
7.065367878031892
 20
25.34456001401967
 10
6.875367878031894
 20
25.34456001401967
 10
6.875367878031894
 20
25.03156001401967
  0
ARC
  5
231B
330
1E
100
AcDbEntity
  8
OBJECT
100
AcDbCircle
 10
6.970367878031893
 20
25.18517018351116
 30
0.0
 40
0.2716101694915042
100
AcDbArc
 50
214.4407585499461
 51
325.5592414500465
  0
LINE
  5
231C
330
1E
100
AcDbEntity
  8
OBJECT
100
AcDbLine
 10
7.579242878031891
 20
24.81281001401967
 30
0.0
 11
7.579242878031891
 21
25.03156001401967
 31
0.0
  0
LINE
  5
231D
330
1E
100
AcDbEntity
  8
HIDDEN
100
AcDbLine
 10
7.532867878031893
 20
25.18756001401966
 30
0.0
 11
7.532867878031879
 21
25.10956001401968
 31
0.0
  0
LINE
  5
231E
330
1E
100
AcDbEntity
  8
HIDDEN
100
AcDbLine
 10
7.517242878031893
 20
25.10956001401968
 30
0.0
 11
7.517242878031893
 21
25.03156001401967
 31
0.0
  0
LWPOLYLINE
  5
231F
330
1E
100
AcDbEntity
  8
HIDDEN
100
AcDbPolyline
 90
        4
 70
     0
 43
0.0
 10
8.234367878031889
 20
25.18756001401968
 10
8.234367878031889
 20
25.24956001401968
 10
8.706367878031898
 20
25.24956001401968
 10
8.706367878031898
 20
25.18756001401968
  0
ARC
  5
2320
330
1E
100
AcDbEntity
  8
OBJECT
100
AcDbCircle
 10
8.470367878031893
 20
25.18517018351116
 30
0.0
 40
0.2716101694915042
100
AcDbArc
 50
214.4407585499461
 51
325.5592414500465
  0
LWPOLYLINE
  5
2321
330
1E
100
AcDbEntity
  8
HIDDEN
  6
HIDDEN2
100
AcDbPolyline
 90
        4
 70
     0
 43
0.0
 10
8.592367878031893
 20
25.24956001401968
 10
8.592367878031893
 20
25.44356001401968
 10
8.348367878031893
 20
25.44356001401968
 10
8.348367878031893
 20
25.24956001401968
  0
LWPOLYLINE
  5
2322
330
1E
100
AcDbEntity
  8
HIDDEN
  6
HIDDEN2
100
AcDbPolyline
 90
        4
 70
     0
 43
0.0
 10
8.565367878031892
 20
25.03156001401966
 10
8.565367878031892
 20
25.34456001401967
 10
8.375367878031894
 20
25.34456001401967
 10
8.375367878031894
 20
25.03156001401967
  0
LINE
  5
2323
330
1E
100
AcDbEntity
  8
OBJECT
100
AcDbLine
 10
7.861492878031896
 20
24.81281001401967
 30
0.0
 11
7.861492878031896
 21
25.03156001401967
 31
0.0
  0
LINE
  5
2324
330
1E
100
AcDbEntity
  8
HIDDEN
100
AcDbLine
 10
7.907867878031893
 20
25.18756001401966
 30
0.0
 11
7.907867878031893
 21
25.10956001401968
 31
0.0
  0
LINE
  5
2325
330
1E
100
AcDbEntity
  8
HIDDEN
100
AcDbLine
 10
7.923492878031893
 20
25.10956001401968
 30
0.0
 11
7.923492878031893
 21
25.03156001401967
 31
0.0
  0
LWPOLYLINE
  5
2326
330
1E
100
AcDbEntity
  8
HIDDEN
  6
HIDDEN2
100
AcDbPolyline
 90
        4
 70
     0
 43
0.0
 10
9.092367878031893
 20
25.24956001401968
 10
9.092367878031893
 20
25.44356001401968
 10
8.848367878031893
 20
25.44356001401968
 10
8.848367878031893
 20
25.24956001401968
  0
LWPOLYLINE
  5
2327
330
1E
100
AcDbEntity
  8
HIDDEN
100
AcDbPolyline
 90
        4
 70
     0
 43
0.0
 10
8.734367878031889
 20
25.18756001401968
 10
8.734367878031889
 20
25.24956001401968
 10
9.206367878031883
 20
25.24956001401968
 10
9.206367878031883
 20
25.18756001401968
  0
LWPOLYLINE
  5
2328
330
1E
100
AcDbEntity
  8
HIDDEN
  6
HIDDEN2
100
AcDbPolyline
 90
        4
 70
     0
 43
0.0
 10
9.065367878031892
 20
25.03156001401966
 10
9.065367878031892
 20
25.34456001401967
 10
8.875367878031894
 20
25.34456001401967
 10
8.875367878031894
 20
25.03156001401967
  0
ARC
  5
2329
330
1E
100
AcDbEntity
  8
OBJECT
100
AcDbCircle
 10
8.970367878031893
 20
25.18517018351116
 30
0.0
 40
0.2716101694915042
100
AcDbArc
 50
214.4407585499461
 51
325.5592414500465
  0
LWPOLYLINE
  5
232A
330
1E
100
AcDbEntity
  8
HIDDEN
  6
HIDDEN2
100
AcDbPolyline
 90
        4
 70
     0
 43
0.0
 10
26.28336787803187
 20
25.24956001401968
 10
26.28336787803187
 20
25.52256001401968
 10
26.65736787803189
 20
25.52256001401968
 10
26.65736787803189
 20
25.24956001401968
  0
LWPOLYLINE
  5
232B
330
1E
100
AcDbEntity
  8
HIDDEN
100
AcDbPolyline
 90
        4
 70
     0
 43
0.0
 10
26.74636787803189
 20
25.18756001401968
 10
26.74636787803189
 20
25.24956001401968
 10
26.19436787803187
 20
25.24956001401968
 10
26.19436787803187
 20
25.18756001401968
  0
LINE
  5
232C
330
1E
100
AcDbEntity
  8
HIDDEN
100
AcDbLine
 10
27.64236787803184
 20
25.18756001401968
 30
0.0
 11
24.22036787803188
 21
25.18756001401968
 31
0.0
  0
LWPOLYLINE
  5
232D
330
1E
100
AcDbEntity
  8
HIDDEN
100
AcDbPolyline
 90
        4
 70
     0
 43
0.0
 10
25.95636787803186
 20
25.18756001401968
 10
25.95636787803186
 20
25.24956001401968
 10
25.48436787803189
 20
25.24956001401968
 10
25.48436787803189
 20
25.18756001401968
  0
LWPOLYLINE
  5
232E
330
1E
100
AcDbEntity
  8
HIDDEN
100
AcDbPolyline
 90
        4
 70
     0
 43
0.0
 10
25.45636787803187
 20
25.18756001401968
 10
25.45636787803187
 20
25.24956001401968
 10
24.98436787803189
 20
25.24956001401968
 10
24.98436787803189
 20
25.18756001401968
  0
LWPOLYLINE
  5
232F
330
1E
100
AcDbEntity
  8
HIDDEN
  6
HIDDEN2
100
AcDbPolyline
 90
        4
 70
     0
 43
0.0
 10
25.09836787803186
 20
25.24956001401968
 10
25.09836787803186
 20
25.44356001401968
 10
25.34236787803189
 20
25.44356001401968
 10
25.34236787803189
 20
25.24956001401968
  0
LWPOLYLINE
  5
2330
330
1E
100
AcDbEntity
  8
HIDDEN
  6
HIDDEN2
100
AcDbPolyline
 90
        4
 70
     0
 43
0.0
 10
25.12536787803188
 20
25.03156001401966
 10
25.12536787803188
 20
25.34456001401967
 10
25.31536787803188
 20
25.34456001401967
 10
25.31536787803188
 20
25.03156001401967
  0
ARC
  5
2331
330
1E
100
AcDbEntity
  8
OBJECT
100
AcDbCircle
 10
25.22036787803187
 20
25.18517018351118
 30
0.0
 40
0.2716101694915042
100
AcDbArc
 50
214.4407585499535
 51
325.5592414500538
  0
LWPOLYLINE
  5
2332
330
1E
100
AcDbEntity
  8
HIDDEN
  6
HIDDEN2
100
AcDbPolyline
 90
        4
 70
     0
 43
0.0
 10
25.59836787803186
 20
25.24956001401968
 10
25.59836787803186
 20
25.44356001401968
 10
25.84236787803189
 20
25.44356001401968
 10
25.84236787803189
 20
25.24956001401968
  0
LWPOLYLINE
  5
2333
330
1E
100
AcDbEntity
  8
HIDDEN
  6
HIDDEN2
100
AcDbPolyline
 90
        4
 70
     0
 43
0.0
 10
25.62536787803188
 20
25.03156001401966
 10
25.62536787803188
 20
25.34456001401967
 10
25.81536787803187
 20
25.34456001401967
 10
25.81536787803187
 20
25.03156001401967
  0
ARC
  5
2334
330
1E
100
AcDbEntity
  8
OBJECT
100
AcDbCircle
 10
25.72036787803188
 20
25.18517018351118
 30
0.0
 40
0.2716101694915042
100
AcDbArc
 50
214.4407585499535
 51
325.5592414500538
  0
LINE
  5
2335
330
1E
100
AcDbEntity
  8
FRAME
100
AcDbLine
 10
27.62636787803188
 20
25.03156001401974
 30
0.0
 11
27.62636787803188
 21
25.59356001401974
 31
0.0
  0
LINE
  5
2336
330
1E
100
AcDbEntity
  8
HIDDEN
  6
HIDDEN2
100
AcDbLine
 10
27.15961787803189
 20
25.04870425317081
 30
0.0
 11
27.15961787803189
 21
25.57709862778947
 31
0.0
  0
LINE
  5
2337
330
1E
100
AcDbEntity
  8
HIDDEN
  6
HIDDEN2
100
AcDbLine
 10
27.34711787803189
 20
25.04870425317081
 30
0.0
 11
27.34711787803189
 21
25.57709862778947
 31
0.0
  0
LINE
  5
2338
330
1E
100
AcDbEntity
  8
FRAME
100
AcDbLine
 10
27.72036787803187
 20
26.10956001401969
 30
0.0
 11
27.64236787803187
 21
26.10956001401969
 31
0.0
  0
LWPOLYLINE
  5
2339
330
1E
100
AcDbEntity
  8
HIDDEN
  6
HIDDEN2
100
AcDbPolyline
 90
        4
 70
     0
 43
0.0
 10
27.09836787803186
 20
25.24956001401968
 10
27.09836787803186
 20
25.44356001401968
 10
27.34236787803189
 20
25.44356001401968
 10
27.34236787803189
 20
25.24956001401968
  0
LWPOLYLINE
  5
233A
330
1E
100
AcDbEntity
  8
HIDDEN
100
AcDbPolyline
 90
        4
 70
     0
 43
0.0
 10
27.45636787803187
 20
25.18756001401968
 10
27.45636787803187
 20
25.24956001401968
 10
26.98436787803188
 20
25.24956001401968
 10
26.98436787803188
 20
25.18756001401968
  0
LINE
  5
233B
330
1E
100
AcDbEntity
  8
OBJECT
100
AcDbLine
 10
27.22211787803189
 20
24.86349672015141
 30
0.0
 11
27.15961787803189
 21
24.92599672015141
 31
0.0
  0
LINE
  5
233C
330
1E
100
AcDbEntity
  8
OBJECT
100
AcDbLine
 10
27.15961787803189
 20
24.92599672015141
 30
0.0
 11
27.34711787803189
 21
24.92599672015141
 31
0.0
  0
LINE
  5
233D
330
1E
100
AcDbEntity
  8
OBJECT
100
AcDbLine
 10
27.15961787803189
 20
24.92599672015141
 30
0.0
 11
27.15961787803189
 21
25.03156001401974
 31
0.0
  0
ARC
  5
233E
330
1E
100
AcDbEntity
  8
OBJECT
100
AcDbCircle
 10
27.23930536819938
 20
25.18517018351118
 30
0.0
 40
0.2716101694915042
100
AcDbArc
 50
214.4407585499535
 51
252.9390281763116
  0
LINE
  5
233F
330
1E
100
AcDbEntity
  8
OBJECT
100
AcDbLine
 10
27.34711787803189
 20
24.92599672015141
 30
0.0
 11
27.34711787803189
 21
25.03156001401974
 31
0.0
  0
LINE
  5
2340
330
1E
100
AcDbEntity
  8
OBJECT
100
AcDbLine
 10
27.22211787803189
 20
24.86349672015141
 30
0.0
 11
27.28461787803189
 21
24.86349672015141
 31
0.0
  0
LINE
  5
2341
330
1E
100
AcDbEntity
  8
OBJECT
100
AcDbLine
 10
27.34711787803189
 20
24.92599672015141
 30
0.0
 11
27.28461787803189
 21
24.86349672015141
 31
0.0
  0
ARC
  5
2342
330
1E
100
AcDbEntity
  8
OBJECT
100
AcDbCircle
 10
27.23930536819938
 20
25.18517018351118
 30
0.0
 40
0.2716101694915042
100
AcDbArc
 50
293.3869229211221
 51
325.5592414500538
  0
LINE
  5
2343
330
1E
100
AcDbEntity
  8
DOOR
100
AcDbLine
 10
45.40649346694531
 20
61.70281001401967
 30
0.0
 11
45.40649346694531
 21
61.71492127207341
 31
0.0
  0
LINE
  5
2344
330
1E
100
AcDbEntity
  8
DOOR
100
AcDbLine
 10
45.40649346694531
 20
61.70281001401967
 30
0.0
 11
45.3284934669453
 21
61.70281001401967
 31
0.0
  0
LINE
  5
2345
330
1E
100
AcDbEntity
  8
DOOR
100
AcDbLine
 10
45.40649346694531
 20
26.64081001401966
 30
0.0
 11
45.40649346694531
 21
26.62869875596595
 31
0.0
  0
LINE
  5
2346
330
1E
100
AcDbEntity
  8
DOOR
100
AcDbLine
 10
45.40649346694531
 20
26.64081001401966
 30
0.0
 11
45.3284934669453
 21
26.64081001401966
 31
0.0
  0
LWPOLYLINE
  5
2359
330
1E
100
AcDbEntity
  8
FRAME
100
AcDbPolyline
 90
        8
 70
     1
 43
0.0
 10
8.986367878031884
 20
60.98381001401968
 10
8.986367878031884
 20
60.9051022127748
 42
0.6365407878720918
 10
8.986367878031884
 20
60.43851781526456
 10
8.986367878031884
 20
60.35981001401968
 42
1.0
 10
9.204367878031888
 20
60.35981001401968
 10
9.204367878031888
 20
60.43851781526456
 42
0.6365407878720908
 10
9.204367878031888
 20
60.9051022127748
 10
9.204367878031888
 20
60.98381001401968
 42
1.0
  0
LWPOLYLINE
  5
235A
330
1E
100
AcDbEntity
  8
FRAME
100
AcDbPolyline
 90
        8
 70
     1
 43
0.0
 10
24.98636787803187
 20
60.98381001401968
 10
24.98636787803187
 20
60.9051022127748
 42
0.6365407878720918
 10
24.98636787803187
 20
60.43851781526456
 10
24.98636787803187
 20
60.35981001401968
 42
1.0
 10
25.20436787803189
 20
60.35981001401968
 10
25.20436787803189
 20
60.43851781526456
 42
0.6365407878720908
 10
25.20436787803189
 20
60.9051022127748
 10
25.20436787803189
 20
60.98381001401968
 42
1.0
  0
LWPOLYLINE
  5
235B
330
1E
100
AcDbEntity
  8
FRAME
100
AcDbPolyline
 90
        8
 70
     1
 43
0.0
 10
8.986367878031884
 20
27.98381001401967
 10
8.986367878031884
 20
27.9051022127748
 42
0.6365407878720918
 10
8.986367878031884
 20
27.43851781526455
 10
8.986367878031884
 20
27.35981001401968
 42
1.0
 10
9.204367878031888
 20
27.35981001401968
 10
9.204367878031888
 20
27.43851781526455
 42
0.6365407878720908
 10
9.204367878031888
 20
27.9051022127748
 10
9.204367878031888
 20
27.98381001401967
 42
1.0
  0
LWPOLYLINE
  5
235C
330
1E
100
AcDbEntity
  8
FRAME
100
AcDbPolyline
 90
        8
 70
     1
 43
0.0
 10
24.98636787803187
 20
27.98381001401967
 10
24.98636787803187
 20
27.9051022127748
 42
0.6365407878720918
 10
24.98636787803187
 20
27.43851781526455
 10
24.98636787803187
 20
27.35981001401968
 42
1.0
 10
25.20436787803189
 20
27.35981001401968
 10
25.20436787803189
 20
27.43851781526455
 42
0.6365407878720908
 10
25.20436787803189
 20
27.9051022127748
 10
25.20436787803189
 20
27.98381001401967
 42
1.0
  0
CIRCLE
  5
235D
330
1E
100
AcDbEntity
  8
DOOR
100
AcDbCircle
 10
7.939367878031902
 20
28.67181001401968
 30
0.0
 40
0.1
  0
CIRCLE
  5
235E
330
1E
100
AcDbEntity
  8
DOOR
100
AcDbCircle
 10
7.939367878031902
 20
29.92181001401968
 30
0.0
 40
0.1
  0
CIRCLE
  5
235F
330
1E
100
AcDbEntity
  8
DOOR
100
AcDbCircle
 10
7.939367878031902
 20
29.29681001401968
 30
0.0
 40
0.1
  0
CIRCLE
  5
2360
330
1E
100
AcDbEntity
  8
DOOR
100
AcDbCircle
 10
26.25136787803188
 20
28.67181001401968
 30
0.0
 40
0.1
  0
CIRCLE
  5
2361
330
1E
100
AcDbEntity
  8
DOOR
100
AcDbCircle
 10
26.25136787803188
 20
29.92181001401968
 30
0.0
 40
0.1
  0
CIRCLE
  5
2362
330
1E
100
AcDbEntity
  8
DOOR
100
AcDbCircle
 10
26.25136787803188
 20
29.29681001401968
 30
0.0
 40
0.1
  0
CIRCLE
  5
2363
330
1E
100
AcDbEntity
  8
DOOR
100
AcDbCircle
 10
7.939367878031902
 20
30.42181001401968
 30
0.0
 40
0.1
  0
CIRCLE
  5
2364
330
1E
100
AcDbEntity
  8
DOOR
100
AcDbCircle
 10
7.939367878031902
 20
31.67181001401968
 30
0.0
 40
0.1
  0
CIRCLE
  5
2365
330
1E
100
AcDbEntity
  8
DOOR
100
AcDbCircle
 10
7.939367878031902
 20
31.04681001401968
 30
0.0
 40
0.1
  0
CIRCLE
  5
2366
330
1E
100
AcDbEntity
  8
DOOR
100
AcDbCircle
 10
26.25136787803188
 20
30.42181001401968
 30
0.0
 40
0.1
  0
CIRCLE
  5
2367
330
1E
100
AcDbEntity
  8
DOOR
100
AcDbCircle
 10
26.25136787803188
 20
31.67181001401968
 30
0.0
 40
0.1
  0
CIRCLE
  5
2368
330
1E
100
AcDbEntity
  8
DOOR
100
AcDbCircle
 10
26.25136787803188
 20
31.04681001401968
 30
0.0
 40
0.1
  0
CIRCLE
  5
2369
330
1E
100
AcDbEntity
  8
DOOR
100
AcDbCircle
 10
7.939367878031902
 20
32.17181001401968
 30
0.0
 40
0.1
  0
CIRCLE
  5
236A
330
1E
100
AcDbEntity
  8
DOOR
100
AcDbCircle
 10
7.939367878031902
 20
33.42181001401968
 30
0.0
 40
0.1
  0
CIRCLE
  5
236B
330
1E
100
AcDbEntity
  8
DOOR
100
AcDbCircle
 10
7.939367878031902
 20
32.79681001401968
 30
0.0
 40
0.1
  0
CIRCLE
  5
236C
330
1E
100
AcDbEntity
  8
DOOR
100
AcDbCircle
 10
26.25136787803188
 20
32.17181001401968
 30
0.0
 40
0.1
  0
CIRCLE
  5
236D
330
1E
100
AcDbEntity
  8
DOOR
100
AcDbCircle
 10
26.25136787803188
 20
33.42181001401968
 30
0.0
 40
0.1
  0
CIRCLE
  5
236E
330
1E
100
AcDbEntity
  8
DOOR
100
AcDbCircle
 10
26.25136787803188
 20
32.79681001401968
 30
0.0
 40
0.1
  0
CIRCLE
  5
236F
330
1E
100
AcDbEntity
  8
DOOR
100
AcDbCircle
 10
7.939367878031902
 20
33.92181001401968
 30
0.0
 40
0.1
  0
CIRCLE
  5
2370
330
1E
100
AcDbEntity
  8
DOOR
100
AcDbCircle
 10
7.939367878031902
 20
35.17181001401968
 30
0.0
 40
0.1
  0
CIRCLE
  5
2371
330
1E
100
AcDbEntity
  8
DOOR
100
AcDbCircle
 10
7.939367878031902
 20
34.54681001401968
 30
0.0
 40
0.1
  0
CIRCLE
  5
2372
330
1E
100
AcDbEntity
  8
DOOR
100
AcDbCircle
 10
26.25136787803188
 20
33.92181001401968
 30
0.0
 40
0.1
  0
CIRCLE
  5
2373
330
1E
100
AcDbEntity
  8
DOOR
100
AcDbCircle
 10
26.25136787803188
 20
35.17181001401968
 30
0.0
 40
0.1
  0
CIRCLE
  5
2374
330
1E
100
AcDbEntity
  8
DOOR
100
AcDbCircle
 10
26.25136787803188
 20
34.54681001401968
 30
0.0
 40
0.1
  0
CIRCLE
  5
2375
330
1E
100
AcDbEntity
  8
DOOR
100
AcDbCircle
 10
7.939367878031902
 20
35.67181001401968
 30
0.0
 40
0.1
  0
CIRCLE
  5
2376
330
1E
100
AcDbEntity
  8
DOOR
100
AcDbCircle
 10
7.939367878031902
 20
36.92181001401968
 30
0.0
 40
0.1
  0
CIRCLE
  5
2377
330
1E
100
AcDbEntity
  8
DOOR
100
AcDbCircle
 10
7.939367878031902
 20
36.29681001401968
 30
0.0
 40
0.1
  0
CIRCLE
  5
2378
330
1E
100
AcDbEntity
  8
DOOR
100
AcDbCircle
 10
26.25136787803188
 20
35.67181001401968
 30
0.0
 40
0.1
  0
CIRCLE
  5
2379
330
1E
100
AcDbEntity
  8
DOOR
100
AcDbCircle
 10
26.25136787803188
 20
36.92181001401968
 30
0.0
 40
0.1
  0
CIRCLE
  5
237A
330
1E
100
AcDbEntity
  8
DOOR
100
AcDbCircle
 10
26.25136787803188
 20
36.29681001401968
 30
0.0
 40
0.1
  0
CIRCLE
  5
237B
330
1E
100
AcDbEntity
  8
DOOR
100
AcDbCircle
 10
7.939367878031902
 20
37.42181001401968
 30
0.0
 40
0.1
  0
CIRCLE
  5
237C
330
1E
100
AcDbEntity
  8
DOOR
100
AcDbCircle
 10
7.939367878031902
 20
38.67181001401968
 30
0.0
 40
0.1
  0
CIRCLE
  5
237D
330
1E
100
AcDbEntity
  8
DOOR
100
AcDbCircle
 10
7.939367878031902
 20
38.04681001401968
 30
0.0
 40
0.1
  0
CIRCLE
  5
237E
330
1E
100
AcDbEntity
  8
DOOR
100
AcDbCircle
 10
26.25136787803188
 20
37.42181001401968
 30
0.0
 40
0.1
  0
CIRCLE
  5
237F
330
1E
100
AcDbEntity
  8
DOOR
100
AcDbCircle
 10
26.25136787803188
 20
38.67181001401968
 30
0.0
 40
0.1
  0
CIRCLE
  5
2380
330
1E
100
AcDbEntity
  8
DOOR
100
AcDbCircle
 10
26.25136787803188
 20
38.04681001401968
 30
0.0
 40
0.1
  0
CIRCLE
  5
2381
330
1E
100
AcDbEntity
  8
DOOR
100
AcDbCircle
 10
7.939367878031902
 20
39.17181001401968
 30
0.0
 40
0.1
  0
CIRCLE
  5
2382
330
1E
100
AcDbEntity
  8
DOOR
100
AcDbCircle
 10
7.939367878031902
 20
40.42181001401968
 30
0.0
 40
0.1
  0
CIRCLE
  5
2383
330
1E
100
AcDbEntity
  8
DOOR
100
AcDbCircle
 10
7.939367878031902
 20
39.79681001401968
 30
0.0
 40
0.1
  0
CIRCLE
  5
2384
330
1E
100
AcDbEntity
  8
DOOR
100
AcDbCircle
 10
26.25136787803188
 20
39.17181001401968
 30
0.0
 40
0.1
  0
CIRCLE
  5
2385
330
1E
100
AcDbEntity
  8
DOOR
100
AcDbCircle
 10
26.25136787803188
 20
40.42181001401968
 30
0.0
 40
0.1
  0
CIRCLE
  5
2386
330
1E
100
AcDbEntity
  8
DOOR
100
AcDbCircle
 10
26.25136787803188
 20
39.79681001401968
 30
0.0
 40
0.1
  0
CIRCLE
  5
2387
330
1E
100
AcDbEntity
  8
DOOR
100
AcDbCircle
 10
7.939367878031902
 20
40.92181001401968
 30
0.0
 40
0.1
  0
CIRCLE
  5
2388
330
1E
100
AcDbEntity
  8
DOOR
100
AcDbCircle
 10
7.939367878031902
 20
42.17181001401968
 30
0.0
 40
0.1
  0
CIRCLE
  5
2389
330
1E
100
AcDbEntity
  8
DOOR
100
AcDbCircle
 10
7.939367878031902
 20
41.54681001401968
 30
0.0
 40
0.1
  0
CIRCLE
  5
238A
330
1E
100
AcDbEntity
  8
DOOR
100
AcDbCircle
 10
26.25136787803188
 20
40.92181001401968
 30
0.0
 40
0.1
  0
CIRCLE
  5
238B
330
1E
100
AcDbEntity
  8
DOOR
100
AcDbCircle
 10
26.25136787803188
 20
42.17181001401968
 30
0.0
 40
0.1
  0
CIRCLE
  5
238C
330
1E
100
AcDbEntity
  8
DOOR
100
AcDbCircle
 10
26.25136787803188
 20
41.54681001401968
 30
0.0
 40
0.1
  0
CIRCLE
  5
238D
330
1E
100
AcDbEntity
  8
DOOR
100
AcDbCircle
 10
7.939367878031902
 20
42.67181001401968
 30
0.0
 40
0.1
  0
CIRCLE
  5
238E
330
1E
100
AcDbEntity
  8
DOOR
100
AcDbCircle
 10
7.939367878031902
 20
43.92181001401968
 30
0.0
 40
0.1
  0
CIRCLE
  5
238F
330
1E
100
AcDbEntity
  8
DOOR
100
AcDbCircle
 10
7.939367878031902
 20
43.29681001401968
 30
0.0
 40
0.1
  0
CIRCLE
  5
2390
330
1E
100
AcDbEntity
  8
DOOR
100
AcDbCircle
 10
26.25136787803188
 20
42.67181001401968
 30
0.0
 40
0.1
  0
CIRCLE
  5
2391
330
1E
100
AcDbEntity
  8
DOOR
100
AcDbCircle
 10
26.25136787803188
 20
43.92181001401968
 30
0.0
 40
0.1
  0
CIRCLE
  5
2392
330
1E
100
AcDbEntity
  8
DOOR
100
AcDbCircle
 10
26.25136787803188
 20
43.29681001401968
 30
0.0
 40
0.1
  0
CIRCLE
  5
2393
330
1E
100
AcDbEntity
  8
DOOR
100
AcDbCircle
 10
7.939367878031902
 20
44.42181001401968
 30
0.0
 40
0.1
  0
CIRCLE
  5
2394
330
1E
100
AcDbEntity
  8
DOOR
100
AcDbCircle
 10
7.939367878031902
 20
45.67181001401968
 30
0.0
 40
0.1
  0
CIRCLE
  5
2395
330
1E
100
AcDbEntity
  8
DOOR
100
AcDbCircle
 10
7.939367878031902
 20
45.04681001401968
 30
0.0
 40
0.1
  0
CIRCLE
  5
2396
330
1E
100
AcDbEntity
  8
DOOR
100
AcDbCircle
 10
26.25136787803188
 20
44.42181001401968
 30
0.0
 40
0.1
  0
CIRCLE
  5
2397
330
1E
100
AcDbEntity
  8
DOOR
100
AcDbCircle
 10
26.25136787803188
 20
45.67181001401968
 30
0.0
 40
0.1
  0
CIRCLE
  5
2398
330
1E
100
AcDbEntity
  8
DOOR
100
AcDbCircle
 10
26.25136787803188
 20
45.04681001401968
 30
0.0
 40
0.1
  0
CIRCLE
  5
2399
330
1E
100
AcDbEntity
  8
DOOR
100
AcDbCircle
 10
7.939367878031902
 20
46.17181001401968
 30
0.0
 40
0.1
  0
CIRCLE
  5
239A
330
1E
100
AcDbEntity
  8
DOOR
100
AcDbCircle
 10
7.939367878031902
 20
47.42181001401968
 30
0.0
 40
0.1
  0
CIRCLE
  5
239B
330
1E
100
AcDbEntity
  8
DOOR
100
AcDbCircle
 10
7.939367878031902
 20
46.79681001401968
 30
0.0
 40
0.1
  0
CIRCLE
  5
239C
330
1E
100
AcDbEntity
  8
DOOR
100
AcDbCircle
 10
26.25136787803188
 20
46.17181001401968
 30
0.0
 40
0.1
  0
CIRCLE
  5
239D
330
1E
100
AcDbEntity
  8
DOOR
100
AcDbCircle
 10
26.25136787803188
 20
47.42181001401968
 30
0.0
 40
0.1
  0
CIRCLE
  5
239E
330
1E
100
AcDbEntity
  8
DOOR
100
AcDbCircle
 10
26.25136787803188
 20
46.79681001401968
 30
0.0
 40
0.1
  0
CIRCLE
  5
239F
330
1E
100
AcDbEntity
  8
DOOR
100
AcDbCircle
 10
7.939367878031902
 20
47.92181001401968
 30
0.0
 40
0.1
  0
CIRCLE
  5
23A0
330
1E
100
AcDbEntity
  8
DOOR
100
AcDbCircle
 10
7.939367878031902
 20
49.17181001401968
 30
0.0
 40
0.1
  0
CIRCLE
  5
23A1
330
1E
100
AcDbEntity
  8
DOOR
100
AcDbCircle
 10
7.939367878031902
 20
48.54681001401968
 30
0.0
 40
0.1
  0
CIRCLE
  5
23A2
330
1E
100
AcDbEntity
  8
DOOR
100
AcDbCircle
 10
26.25136787803188
 20
47.92181001401968
 30
0.0
 40
0.1
  0
CIRCLE
  5
23A3
330
1E
100
AcDbEntity
  8
DOOR
100
AcDbCircle
 10
26.25136787803188
 20
49.17181001401968
 30
0.0
 40
0.1
  0
CIRCLE
  5
23A4
330
1E
100
AcDbEntity
  8
DOOR
100
AcDbCircle
 10
26.25136787803188
 20
48.54681001401968
 30
0.0
 40
0.1
  0
CIRCLE
  5
23A5
330
1E
100
AcDbEntity
  8
DOOR
100
AcDbCircle
 10
7.939367878031902
 20
49.67181001401968
 30
0.0
 40
0.1
  0
CIRCLE
  5
23A6
330
1E
100
AcDbEntity
  8
DOOR
100
AcDbCircle
 10
7.939367878031902
 20
50.92181001401968
 30
0.0
 40
0.1
  0
CIRCLE
  5
23A7
330
1E
100
AcDbEntity
  8
DOOR
100
AcDbCircle
 10
7.939367878031902
 20
50.29681001401968
 30
0.0
 40
0.1
  0
CIRCLE
  5
23A8
330
1E
100
AcDbEntity
  8
DOOR
100
AcDbCircle
 10
26.25136787803188
 20
49.67181001401968
 30
0.0
 40
0.1
  0
CIRCLE
  5
23A9
330
1E
100
AcDbEntity
  8
DOOR
100
AcDbCircle
 10
26.25136787803188
 20
50.92181001401968
 30
0.0
 40
0.1
  0
CIRCLE
  5
23AA
330
1E
100
AcDbEntity
  8
DOOR
100
AcDbCircle
 10
26.25136787803188
 20
50.29681001401968
 30
0.0
 40
0.1
  0
CIRCLE
  5
23AB
330
1E
100
AcDbEntity
  8
DOOR
100
AcDbCircle
 10
7.939367878031902
 20
51.42181001401969
 30
0.0
 40
0.1
  0
CIRCLE
  5
23AC
330
1E
100
AcDbEntity
  8
DOOR
100
AcDbCircle
 10
7.939367878031902
 20
52.67181001401969
 30
0.0
 40
0.1
  0
CIRCLE
  5
23AD
330
1E
100
AcDbEntity
  8
DOOR
100
AcDbCircle
 10
7.939367878031902
 20
52.04681001401969
 30
0.0
 40
0.1
  0
CIRCLE
  5
23AE
330
1E
100
AcDbEntity
  8
DOOR
100
AcDbCircle
 10
26.25136787803188
 20
51.42181001401969
 30
0.0
 40
0.1
  0
CIRCLE
  5
23AF
330
1E
100
AcDbEntity
  8
DOOR
100
AcDbCircle
 10
26.25136787803188
 20
52.67181001401969
 30
0.0
 40
0.1
  0
CIRCLE
  5
23B0
330
1E
100
AcDbEntity
  8
DOOR
100
AcDbCircle
 10
26.25136787803188
 20
52.04681001401969
 30
0.0
 40
0.1
  0
CIRCLE
  5
23B1
330
1E
100
AcDbEntity
  8
DOOR
100
AcDbCircle
 10
7.939367878031902
 20
53.17181001401968
 30
0.0
 40
0.1
  0
CIRCLE
  5
23B2
330
1E
100
AcDbEntity
  8
DOOR
100
AcDbCircle
 10
7.939367878031902
 20
54.42181001401968
 30
0.0
 40
0.1
  0
CIRCLE
  5
23B3
330
1E
100
AcDbEntity
  8
DOOR
100
AcDbCircle
 10
7.939367878031902
 20
53.79681001401968
 30
0.0
 40
0.1
  0
CIRCLE
  5
23B4
330
1E
100
AcDbEntity
  8
DOOR
100
AcDbCircle
 10
26.25136787803188
 20
53.17181001401968
 30
0.0
 40
0.1
  0
CIRCLE
  5
23B5
330
1E
100
AcDbEntity
  8
DOOR
100
AcDbCircle
 10
26.25136787803188
 20
54.42181001401968
 30
0.0
 40
0.1
  0
CIRCLE
  5
23B6
330
1E
100
AcDbEntity
  8
DOOR
100
AcDbCircle
 10
26.25136787803188
 20
53.79681001401968
 30
0.0
 40
0.1
  0
CIRCLE
  5
23B7
330
1E
100
AcDbEntity
  8
DOOR
100
AcDbCircle
 10
7.939367878031902
 20
54.92181001401968
 30
0.0
 40
0.1
  0
CIRCLE
  5
23B8
330
1E
100
AcDbEntity
  8
DOOR
100
AcDbCircle
 10
7.939367878031902
 20
56.17181001401968
 30
0.0
 40
0.1
  0
CIRCLE
  5
23B9
330
1E
100
AcDbEntity
  8
DOOR
100
AcDbCircle
 10
7.939367878031902
 20
55.54681001401968
 30
0.0
 40
0.1
  0
CIRCLE
  5
23BA
330
1E
100
AcDbEntity
  8
DOOR
100
AcDbCircle
 10
26.25136787803188
 20
54.92181001401968
 30
0.0
 40
0.1
  0
CIRCLE
  5
23BB
330
1E
100
AcDbEntity
  8
DOOR
100
AcDbCircle
 10
26.25136787803188
 20
56.17181001401968
 30
0.0
 40
0.1
  0
CIRCLE
  5
23BC
330
1E
100
AcDbEntity
  8
DOOR
100
AcDbCircle
 10
26.25136787803188
 20
55.54681001401968
 30
0.0
 40
0.1
  0
CIRCLE
  5
23BD
330
1E
100
AcDbEntity
  8
DOOR
100
AcDbCircle
 10
7.939367878031902
 20
56.67181001401968
 30
0.0
 40
0.1
  0
CIRCLE
  5
23BE
330
1E
100
AcDbEntity
  8
DOOR
100
AcDbCircle
 10
7.939367878031902
 20
57.92181001401968
 30
0.0
 40
0.1
  0
CIRCLE
  5
23BF
330
1E
100
AcDbEntity
  8
DOOR
100
AcDbCircle
 10
7.939367878031902
 20
57.29681001401968
 30
0.0
 40
0.1
  0
CIRCLE
  5
23C0
330
1E
100
AcDbEntity
  8
DOOR
100
AcDbCircle
 10
26.25136787803188
 20
56.67181001401968
 30
0.0
 40
0.1
  0
CIRCLE
  5
23C1
330
1E
100
AcDbEntity
  8
DOOR
100
AcDbCircle
 10
26.25136787803188
 20
57.92181001401968
 30
0.0
 40
0.1
  0
CIRCLE
  5
23C2
330
1E
100
AcDbEntity
  8
DOOR
100
AcDbCircle
 10
26.25136787803188
 20
57.29681001401968
 30
0.0
 40
0.1
  0
CIRCLE
  5
23C3
330
1E
100
AcDbEntity
  8
DOOR
100
AcDbCircle
 10
7.939367878031902
 20
58.42181001401968
 30
0.0
 40
0.1
  0
CIRCLE
  5
23C4
330
1E
100
AcDbEntity
  8
DOOR
100
AcDbCircle
 10
7.939367878031902
 20
59.67181001401968
 30
0.0
 40
0.1
  0
CIRCLE
  5
23C5
330
1E
100
AcDbEntity
  8
DOOR
100
AcDbCircle
 10
7.939367878031902
 20
59.04681001401968
 30
0.0
 40
0.1
  0
CIRCLE
  5
23C6
330
1E
100
AcDbEntity
  8
DOOR
100
AcDbCircle
 10
26.25136787803188
 20
58.42181001401968
 30
0.0
 40
0.1
  0
CIRCLE
  5
23C7
330
1E
100
AcDbEntity
  8
DOOR
100
AcDbCircle
 10
26.25136787803188
 20
59.67181001401968
 30
0.0
 40
0.1
  0
CIRCLE
  5
23C8
330
1E
100
AcDbEntity
  8
DOOR
100
AcDbCircle
 10
26.25136787803188
 20
59.04681001401968
 30
0.0
 40
0.1
  0
CIRCLE
  5
23C9
330
1E
100
AcDbEntity
  8
DOOR
100
AcDbCircle
 10
7.939367878031902
 20
60.17181001401969
 30
0.0
 40
0.1
  0
CIRCLE
  5
23CA
330
1E
100
AcDbEntity
  8
DOOR
100
AcDbCircle
 10
7.939367878031902
 20
61.42181001401969
 30
0.0
 40
0.1
  0
CIRCLE
  5
23CB
330
1E
100
AcDbEntity
  8
DOOR
100
AcDbCircle
 10
7.939367878031902
 20
60.79681001401969
 30
0.0
 40
0.1
  0
CIRCLE
  5
23CC
330
1E
100
AcDbEntity
  8
DOOR
100
AcDbCircle
 10
26.25136787803188
 20
60.17181001401969
 30
0.0
 40
0.1
  0
CIRCLE
  5
23CD
330
1E
100
AcDbEntity
  8
DOOR
100
AcDbCircle
 10
26.25136787803188
 20
61.42181001401969
 30
0.0
 40
0.1
  0
CIRCLE
  5
23CE
330
1E
100
AcDbEntity
  8
DOOR
100
AcDbCircle
 10
26.25136787803188
 20
60.79681001401969
 30
0.0
 40
0.1
  0
TEXT
  5
254C
330
1E
100
AcDbEntity
  8
DIM
100
AcDbText
 10
30.92933338572985
 20
44.56699208241238
 30
0.0
 40
0.5620000000000001
  1
-0.031
 41
0.75
  7
TXT
100
AcDbText
  0
TEXT
  5
254D
330
1E
100
AcDbEntity
  8
DIM
100
AcDbText
 10
30.92933338572985
 20
45.35032541574572
 30
0.0
 40
0.5620000000000001
  1
+0.000
 41
0.75
  7
TXT
100
AcDbText
  0
LINE
  5
288E
330
1E
100
AcDbEntity
  8
TITLE
100
AcDbLine
 10
52.75199999999999
 20
4.115999999999996
 30
0.0
 11
52.75199999999999
 21
0.3719999999999963
 31
0.0
  0
TEXT
  5
288F
330
1E
100
AcDbEntity
  8
TEXT
100
AcDbText
 10
56.97373582339084
 20
1.924495494391891
 30
0.0
 40
0.75
  1
1.640
 41
0.75
  7
TXT
 72
     1
 11
57.95811082339084
 21
1.924495494391891
 31
0.0
100
AcDbText
  0
TEXT
  5
2890
330
1E
100
AcDbEntity
  8
TEXT
100
AcDbText
 10
56.87998582339083
 20
0.6744954943918913
 30
0.0
 40
0.75
  1
2.640
 41
0.75
  7
TXT
 72
     1
 11
57.95811082339084
 21
0.6744954943918913
 31
0.0
100
AcDbText
  0
TEXT
  5
2891
330
1E
100
AcDbEntity
  8
TEXT
100
AcDbText
 10
57.77061082339084
 20
3.174495494391891
 30
0.0
 40
0.75
  1
E
 41
0.75
  7
TXT
 72
     1
 11
57.95811082339084
 21
3.174495494391891
 31
0.0
100
AcDbText
  0
TEXT
  5
28BC
330
1E
100
AcDbEntity
  8
TEXT
100
AcDbText
 10
57.72195216733202
 20
91.95899999999999
 30
0.0
 40
0.75
  1
2-28-05
 41
0.75
  7
TXT
 72
     4
 11
59.55007716733202
 21
92.33400000000001
 31
0.0
100
AcDbText
  0
LINE
  5
28BF
330
1E
100
AcDbEntity
  8
OBJECT
100
AcDbLine
 10
43.73624346694533
 20
62.14846701394123
 30
0.0
 11
43.73624346694533
 21
62.04681001401969
 31
0.0
  0
LINE
  5
28C0
330
1E
100
AcDbEntity
  8
OBJECT
100
AcDbLine
 10
43.73624346694535
 20
26.19515301409814
 30
0.0
 11
43.73624346694534
 21
26.29681001401967
 31
0.0
  0
LWPOLYLINE
  5
28CB
330
1E
100
AcDbEntity
  8
FRAME
100
AcDbPolyline
 90
        5
 70
     0
 43
0.0
 10
43.40649346694531
 20
62.75006001401963
 10
43.38349346694531
 20
62.75006001401963
 42
-0.9999999999999998
 10
43.38349346694532
 20
63.31206001401963
 10
45.51549346694531
 20
63.31206001401963
 10
45.51549346694531
 20
63.23406001401963
  0
LWPOLYLINE
  5
28CC
330
1E
100
AcDbEntity
  8
FRAME
100
AcDbPolyline
 90
        4
 70
     0
 43
0.0
 10
45.43749346694531
 20
63.23406001401963
 10
43.38349346694531
 20
63.23406001401963
 42
0.9999999999999998
 10
43.38349346694532
 20
62.82806001401963
 10
43.40649346694531
 20
62.82806001401963
  0
LWPOLYLINE
  5
28CD
330
1E
100
AcDbEntity
  8
FRAME
  6
HIDDEN2
100
AcDbPolyline
 90
        4
 70
     0
 43
0.0
 10
43.46849346694531
 20
62.82806001401963
 10
44.35249346694531
 20
62.82806001401963
 10
44.35249346694531
 20
62.75006001401963
 10
43.46849346694531
 20
62.75006001401963
  0
LWPOLYLINE
  5
28CE
330
1E
100
AcDbEntity
  8
FRAME
  6
HIDDEN2
100
AcDbPolyline
 90
        4
 70
     0
 43
0.0
 10
45.51549346694531
 20
63.17206001401963
 10
45.51549346694531
 20
61.95306001401963
 10
45.43749346694531
 20
61.95306001401963
 10
45.43749346694531
 20
63.17206001401963
  0
LWPOLYLINE
  5
28D7
330
1E
100
AcDbEntity
  8
FRAME
100
AcDbPolyline
 90
        5
 70
     0
 43
0.0
 10
43.40649346694532
 20
25.59356001401967
 10
43.38349346694532
 20
25.59356001401967
 42
0.9999999999999998
 10
43.38349346694533
 20
25.03156001401967
 10
45.51549346694531
 20
25.03156001401967
 10
45.51549346694531
 20
25.10956001401967
  0
LWPOLYLINE
  5
28D8
330
1E
100
AcDbEntity
  8
FRAME
100
AcDbPolyline
 90
        4
 70
     0
 43
0.0
 10
45.43749346694532
 20
25.10956001401967
 10
43.38349346694532
 20
25.10956001401967
 42
-0.9999999999999998
 10
43.38349346694533
 20
25.51556001401967
 10
43.40649346694532
 20
25.51556001401967
  0
LWPOLYLINE
  5
28D9
330
1E
100
AcDbEntity
  8
FRAME
  6
HIDDEN2
100
AcDbPolyline
 90
        4
 70
     0
 43
0.0
 10
43.46849346694532
 20
25.51556001401967
 10
44.35249346694532
 20
25.51556001401967
 10
44.35249346694532
 20
25.59356001401967
 10
43.46849346694532
 20
25.59356001401967
  0
LWPOLYLINE
  5
28DA
330
1E
100
AcDbEntity
  8
FRAME
  6
HIDDEN2
100
AcDbPolyline
 90
        4
 70
     0
 43
0.0
 10
45.51549346694531
 20
25.17156001401967
 10
45.51549346694531
 20
26.39056001401967
 10
45.43749346694532
 20
26.39056001401967
 10
45.43749346694532
 20
25.17156001401967
  0
LWPOLYLINE
  5
28E1
330
1E
100
AcDbEntity
  8
OBJECT
100
AcDbPolyline
 90
        4
 70
     1
 43
0.0
 10
7.405367878031894
 20
62.67206001401968
 10
8.035367878031893
 20
62.67206001401968
 10
8.035367878031893
 20
62.73406001401968
 10
7.405367878031894
 20
62.73406001401968
  0
LWPOLYLINE
  5
28E2
330
1E
100
AcDbEntity
  8
OBJECT
100
AcDbPolyline
 90
        4
 70
     1
 43
0.0
 10
7.405367878031894
 20
25.60956001401968
 10
8.035367878031893
 20
25.60956001401968
 10
8.035367878031893
 20
25.67156001401968
 10
7.405367878031894
 20
25.67156001401968
  0
TEXT
  5
28E9
330
1E
100
AcDbEntity
  8
TEXT
100
AcDbText
 10
3.231476928224026
 20
9.872482318844291
 30
0.0
 40
0.75
  1
4.) SF-2184 SUPPLIED WITH QTY. (12) CLIP NUTS #12-24.
 41
0.75
  7
TXT
100
AcDbText
  0
TEXT
  5
28EA
330
1E
100
AcDbEntity
  8
TEXT
100
AcDbText
 10
3.231476928224026
 20
8.622482318844291
 30
0.0
 40
0.75
  1
5.) SF-2194 SUPPLIED WITH QTY. (20) CLIP NUTS #12-24.
 41
0.75
  7
TXT
100
AcDbText
  0
TEXT
  5
28EB
330
1E
100
AcDbEntity
  8
TEXT
100
AcDbText
 10
3.231476928224026
 20
7.372482318844291
 30
0.0
 40
0.75
  1
6.) PANEL MOUNTING HARDWARE (USE #9260 SCREW #12-24 x 1/2 LG. ORDER SEPARATELY).
 41
0.75
  7
TXT
100
AcDbText
  0
ENDSEC
  0
SECTION
  2
OBJECTS
  0
DICTIONARY
  5
C
330
0
100
AcDbDictionary
281
     1
  3
ACAD_GROUP
350
D
  3
ACAD_LAYOUT
350
19
  3
ACAD_MLINESTYLE
350
16
  3
ACAD_PLOTSETTINGS
350
18
  3
ACAD_PLOTSTYLENAME
350
E
  0
DICTIONARY
  5
D
102
{ACAD_REACTORS
330
C
102
}
330
C
100
AcDbDictionary
281
     1
  0
DICTIONARY
  5
19
102
{ACAD_REACTORS
330
C
102
}
330
C
100
AcDbDictionary
281
     1
  3
Layout1
350
1D
  3
Model
350
21
  0
DICTIONARY
  5
16
102
{ACAD_REACTORS
330
C
102
}
330
C
100
AcDbDictionary
281
     1
  3
Standard
350
17
  0
DICTIONARY
  5
18
102
{ACAD_REACTORS
330
C
102
}
330
C
100
AcDbDictionary
281
     1
  0
ACDBDICTIONARYWDFLT
  5
E
102
{ACAD_REACTORS
330
C
102
}
330
C
100
AcDbDictionary
281
     1
  3
Normal
350
F
100
AcDbDictionaryWithDefault
340
F
  0
LAYOUT
  5
1D
102
{ACAD_REACTORS
330
19
102
}
330
19
100
AcDbPlotSettings
  1

  2
None
  4

  6

 40
0.0
 41
0.0
 42
0.0
 43
0.0
 44
0.0
 45
0.0
 46
0.0
 47
0.0
 48
0.0
 49
0.0
140
0.0
141
0.0
142
1.0
143
1.0
 70
   688
 72
     0
 73
     0
 74
     5
  7
monochrome.ctb
 75
    16
147
1.0
148
0.0
149
0.0
100
AcDbLayout
  1
Layout1
 70
     0
 71
     1
 10
0.0
 20
0.0
 11
12.0
 21
9.0
 12
0.0
 22
0.0
 32
0.0
 14
1.000000000000000E+20
 24
1.000000000000000E+20
 34
1.000000000000000E+20
 15
-1.000000000000000E+20
 25
-1.000000000000000E+20
 35
-1.000000000000000E+20
146
0.0
 13
0.0
 23
0.0
 33
0.0
 16
1.0
 26
0.0
 36
0.0
 17
0.0
 27
1.0
 37
0.0
 76
     0
330
1A
  0
LAYOUT
  5
21
102
{ACAD_REACTORS
330
19
102
}
330
19
100
AcDbPlotSettings
  1

  2
RICOH1060
  4
Letter
  6

 40
7.143749713897705
 41
5.027085304260253
 42
7.14373779296875
 43
5.027069091796875
 44
215.8999938964843
 45
279.3999938964843
 46
9.651999999999999
 47
0.0
 48
0.0
 49
0.0
140
0.0
141
0.0
142
1.0
143
8.861404667858783
 70
 11956
 72
     0
 73
     0
 74
     1
  7
monochrome.ctb
 75
     0
147
0.1128489260429672
148
0.0773846938334145
149
0.0381848003418895
100
AcDbLayout
  1
Model
 70
     1
 71
     0
 10
0.0
 20
0.0
 11
12.0
 21
9.0
 12
0.0
 22
0.0
 32
0.0
 14
0.0
 24
0.0
 34
0.0
 15
0.0
 25
0.0
 35
0.0
146
0.0
 13
0.0
 23
0.0
 33
0.0
 16
1.0
 26
0.0
 36
0.0
 17
0.0
 27
1.0
 37
0.0
 76
     0
330
1E
  0
MLINESTYLE
  5
17
102
{ACAD_REACTORS
330
16
102
}
330
16
100
AcDbMlineStyle
  2
STANDARD
 70
     0
  3

 62
   256
 51
90.0
 52
90.0
 71
     2
 49
0.5
 62
   256
  6
BYLAYER
 49
-0.5
 62
   256
  6
BYLAYER
  0
ACDBPLACEHOLDER
  5
F
102
{ACAD_REACTORS
330
E
102
}
330
E
  0
ENDSEC
  0
EOF
