  0
SECTION
  2
HEADER
  9
$ACADVER
  1
AC1009
  9
$INSBASE
 10
0.0
 20
0.0
 30
0.0
  9
$EXTMIN
 10
-0.4224900463671589
 20
-0.0037838909819072
 30
-0.0015258207003583
  9
$EXTMAX
 10
80.962470891627532
 20
124.0037844684018
 30
0.0000000349246037
  9
$LIMMIN
 10
0.0
 20
0.0
  9
$LIMMAX
 10
80.959999999999994
 20
124.0
  9
$ORTHOMODE
 70
     1
  9
$REGENMODE
 70
     0
  9
$FILLMODE
 70
     1
  9
$QTEXTMODE
 70
     0
  9
$MIRRTEXT
 70
     0
  9
$DRAGMODE
 70
     2
  9
$LTSCALE
 40
2.5
  9
$OSMODE
 70
    37
  9
$ATTMODE
 70
     1
  9
$TEXTSIZE
 40
1.0
  9
$TRACEWID
 40
0.05
  9
$TEXTSTYLE
  7
TXT
  9
$CLAYER
  8
OBJECT
  9
$CELTYPE
  6
BYLAYER
  9
$CECOLOR
 62
   256
  9
$DIMSCALE
 40
8.0
  9
$DIMASZ
 40
0.18
  9
$DIMEXO
 40
0.063
  9
$DIMDLI
 40
0.281
  9
$DIMRND
 40
0.0
  9
$DIMDLE
 40
0.0
  9
$DIMEXE
 40
0.093
  9
$DIMTP
 40
0.0
  9
$DIMTM
 40
0.0
  9
$DIMTXT
 40
0.125
  9
$DIMCEN
 40
0.09
  9
$DIMTSZ
 40
0.0
  9
$DIMTOL
 70
     0
  9
$DIMLIM
 70
     0
  9
$DIMTIH
 70
     1
  9
$DIMTOH
 70
     1
  9
$DIMSE1
 70
     0
  9
$DIMSE2
 70
     0
  9
$DIMTAD
 70
     0
  9
$DIMZIN
 70
     0
  9
$DIMBLK
  1

  9
$DIMASO
 70
     1
  9
$DIMSHO
 70
     1
  9
$DIMPOST
  1

  9
$DIMAPOST
  1

  9
$DIMALT
 70
     0
  9
$DIMALTD
 70
     2
  9
$DIMALTF
 40
25.399999999999999
  9
$DIMLFAC
 40
1.0
  9
$DIMTOFL
 70
     0
  9
$DIMTVP
 40
0.0
  9
$DIMTIX
 70
     0
  9
$DIMSOXD
 70
     0
  9
$DIMSAH
 70
     0
  9
$DIMBLK1
  1

  9
$DIMBLK2
  1

  9
$DIMSTYLE
  2
23NSTD
  9
$DIMCLRD
 70
     0
  9
$DIMCLRE
 70
     0
  9
$DIMCLRT
 70
     0
  9
$DIMTFAC
 40
1.0
  9
$DIMGAP
 40
0.09
  9
$LUNITS
 70
     2
  9
$LUPREC
 70
     3
  9
$SKETCHINC
 40
0.1
  9
$FILLETRAD
 40
0.0
  9
$AUNITS
 70
     0
  9
$AUPREC
 70
     0
  9
$MENU
  1
acad
  9
$ELEVATION
 40
0.0
  9
$PELEVATION
 40
0.0
  9
$THICKNESS
 40
0.0
  9
$LIMCHECK
 70
     0
  9
$BLIPMODE
 70
     0
  9
$CHAMFERA
 40
0.0
  9
$CHAMFERB
 40
0.0
  9
$SKPOLY
 70
     0
  9
$TDCREATE
 40
2449888.6592495372
  9
$TDUPDATE
 40
2451802.3982758098
  9
$TDINDWG
 40
0.2960554514
  9
$TDUSRTIMER
 40
0.2960554514
  9
$USRTIMER
 70
     1
  9
$ANGBASE
 50
0.0
  9
$ANGDIR
 70
     0
  9
$PDMODE
 70
     0
  9
$PDSIZE
 40
0.0
  9
$PLINEWID
 40
0.0
  9
$COORDS
 70
     0
  9
$SPLFRAME
 70
     0
  9
$SPLINETYPE
 70
     6
  9
$SPLINESEGS
 70
     8
  9
$ATTDIA
 70
     0
  9
$ATTREQ
 70
     1
  9
$HANDLING
 70
  4097
  9
$HANDSEED
  5
7D6
  9
$SURFTAB1
 70
     6
  9
$SURFTAB2
 70
     6
  9
$SURFTYPE
 70
     6
  9
$SURFU
 70
     6
  9
$SURFV
 70
     6
  9
$UCSNAME
  2

  9
$UCSORG
 10
0.0
 20
0.0
 30
0.0
  9
$UCSXDIR
 10
1.0
 20
0.0
 30
0.0
  9
$UCSYDIR
 10
0.0
 20
1.0
 30
0.0
  9
$PUCSNAME
  2

  9
$PUCSORG
 10
0.0
 20
0.0
 30
0.0
  9
$PUCSXDIR
 10
1.0
 20
0.0
 30
0.0
  9
$PUCSYDIR
 10
0.0
 20
1.0
 30
0.0
  9
$USERI1
 70
     0
  9
$USERI2
 70
     0
  9
$USERI3
 70
     0
  9
$USERI4
 70
     0
  9
$USERI5
 70
     0
  9
$USERR1
 40
0.0
  9
$USERR2
 40
0.0
  9
$USERR3
 40
0.0
  9
$USERR4
 40
0.0
  9
$USERR5
 40
0.0
  9
$WORLDVIEW
 70
     1
  9
$SHADEDGE
 70
     3
  9
$SHADEDIF
 70
    70
  9
$TILEMODE
 70
     1
  9
$MAXACTVP
 70
    16
  9
$PLIMCHECK
 70
     0
  9
$PEXTMIN
 10
1.0000000000000000E+020
 20
1.0000000000000000E+020
 30
1.0000000000000000E+020
  9
$PEXTMAX
 10
-1.0000000000000000E+020
 20
-1.0000000000000000E+020
 30
-1.0000000000000000E+020
  9
$PLIMMIN
 10
0.0
 20
0.0
  9
$PLIMMAX
 10
12.0
 20
9.0
  9
$UNITMODE
 70
     0
  9
$VISRETAIN
 70
     0
  9
$PLINEGEN
 70
     0
  9
$PSLTSCALE
 70
     1
  0
ENDSEC
  0
SECTION
  2
TABLES
  0
TABLE
  2
VPORT
 70
     2
  0
VPORT
  2
*ACTIVE
 70
     0
 10
0.0
 20
0.0
 11
1.0
 21
1.0
 12
40.26999042263018
 22
62.000000288709991
 13
0.0
 23
0.0
 14
1.0
 24
1.0
 15
0.0
 25
0.0
 16
0.0
 26
0.0
 36
1.0
 17
0.0
 27
0.0
 37
0.0
 40
125.4035259769378
 41
1.8139097744360899
 42
50.0
 43
0.0
 44
0.0
 50
0.0
 51
0.0
 71
     0
 72
   100
 73
     1
 74
     0
 75
     0
 76
     0
 77
     0
 78
     0
  0
ENDTAB
  0
TABLE
  2
LTYPE
 70
     5
  0
LTYPE
  2
CONTINUOUS
 70
     0
  3
Solid line
 72
    65
 73
     0
 40
0.0
  0
LTYPE
  2
HIDDEN
 70
     0
  3
_ _ _ _ _ _ _ _ _ _ _ _ _ _ _ _ _ _ _ _ _ _ _
 72
    65
 73
     2
 40
0.375
 49
0.25
 49
-0.125
  0
LTYPE
  2
PHANTOM
 70
     0
  3
_____ _ _ _____ _ _ _____ _ _ _____ _ _ ____
 72
    65
 73
     6
 40
2.5
 49
1.25
 49
-0.25
 49
0.25
 49
-0.25
 49
0.25
 49
-0.25
  0
LTYPE
  2
CENTER
 70
     0
  3
____ _ ____ _ ____ _ ____ _ ____ _ ____ _ ____
 72
    65
 73
     4
 40
2.0
 49
1.25
 49
-0.25
 49
0.25
 49
-0.25
  0
LTYPE
  2
HIDDEN2
 70
     0
  3
_ _ _ _ _ _ _ _ _ _ _ _ _ _ _ _ _ _ _ _ _ _ _ _
 72
    65
 73
     2
 40
0.1875
 49
0.125
 49
-0.0625
  0
ENDTAB
  0
TABLE
  2
LAYER
 70
    11
  0
LAYER
  2
0
 70
     0
 62
     7
  6
CONTINUOUS
  0
LAYER
  2
OBJECT
 70
     0
 62
     7
  6
CONTINUOUS
  0
LAYER
  2
DIM
 70
     0
 62
     7
  6
CONTINUOUS
  0
LAYER
  2
HIDDEN
 70
     0
 62
     7
  6
HIDDEN
  0
LAYER
  2
BEND
 70
     0
 62
     7
  6
PHANTOM
  0
LAYER
  2
TEXT
 70
     0
 62
     7
  6
CONTINUOUS
  0
LAYER
  2
TITLE
 70
     0
 62
     7
  6
CONTINUOUS
  0
LAYER
  2
CENTER
 70
     0
 62
     7
  6
CENTER
  0
LAYER
  2
DEFPOINTS
 70
     0
 62
     7
  6
CONTINUOUS
  0
LAYER
  2
ANGLE
 70
     0
 62
     7
  6
CONTINUOUS
  0
LAYER
  2
BRACKET
 70
     0
 62
     7
  6
CONTINUOUS
  0
ENDTAB
  0
TABLE
  2
STYLE
 70
     2
  0
STYLE
  2
STANDARD
 70
     0
 40
0.0
 41
1.0
 50
0.0
 71
     0
 42
0.2
  3
txt
  4

  0
STYLE
  2
TXT
 70
     0
 40
0.0
 41
0.75
 50
0.0
 71
     0
 42
1.0
  3
TXT.shx
  4

  0
ENDTAB
  0
TABLE
  2
VIEW
 70
     0
  0
ENDTAB
  0
TABLE
  2
UCS
 70
     0
  0
ENDTAB
  0
TABLE
  2
APPID
 70
     1
  0
APPID
  2
ACAD
 70
     0
  0
ENDTAB
  0
TABLE
  2
DIMSTYLE
 70
     2
  0
DIMSTYLE
  2
23NSTD
 70
     0
  3

  4

  5

  6

  7

 40
8.0
 41
0.18
 42
0.063
 43
0.281
 44
0.093
 45
0.0
 46
0.0
 47
0.0
 48
0.0
140
0.125
141
0.09
142
0.0
143
25.399999999999999
144
1.0
145
0.0
146
1.0
147
0.09
 71
     0
 72
     0
 73
     1
 74
     1
 75
     0
 76
     0
 77
     0
 78
     0
170
     0
171
     2
172
     0
173
     0
174
     0
175
     0
176
     0
177
     0
178
     0
  0
DIMSTYLE
  2
23NSTDI
 70
     0
  3

  4

  5

  6

  7

 40
8.0
 41
0.18
 42
0.063
 43
0.281
 44
0.093
 45
0.0
 46
0.0
 47
0.0
 48
0.0
140
0.125
141
0.09
142
0.0
143
25.399999999999999
144
1.0
145
0.0
146
1.0
147
0.09
 71
     0
 72
     0
 73
     1
 74
     1
 75
     0
 76
     0
 77
     0
 78
     0
170
     0
171
     2
172
     0
173
     0
174
     1
175
     0
176
     0
177
     0
178
     0
  0
ENDTAB
  0
ENDSEC
  0
SECTION
  2
BLOCKS
  0
BLOCK
  8
0
  2
$MODEL_SPACE
 70
     0
 10
0.0
 20
0.0
 30
0.0
  3
$MODEL_SPACE
  1

  0
ENDBLK
  5
20
  8
0
  0
BLOCK
 67
     1
  8
0
  2
$PAPER_SPACE
 70
     0
 10
0.0
 20
0.0
 30
0.0
  3
$PAPER_SPACE
  1

  0
ENDBLK
  5
1C
 67
     1
  8
0
  0
BLOCK
  8
0
  2
HB
 70
     0
 10
0.0
 20
0.0
 30
0.0
  3
HB
  1

  0
TEXT
  5
37
  8
TEXT
 10
0.2078333333333334
 20
15.060079
 30
0.0
 40
0.125
  1
NAME
 72
     1
 11
0.4370000000000001
 21
15.060079
 31
0.0
  0
TEXT
  5
38
  8
TEXT
 10
0.2078333333333334
 20
15.268413000000001
 30
0.0
 40
0.125
  1
PART
 72
     1
 11
0.4370000000000001
 21
15.268413000000001
 31
0.0
  0
TEXT
  5
39
  8
TEXT
 10
5.3719999999999999
 20
15.060079
 30
0.0
 40
0.125
  1
No.
 72
     1
 11
5.4969999999999999
 21
15.060079
 31
0.0
  0
TEXT
  5
3A
  8
TEXT
 10
5.2678333333333329
 20
15.268413000000001
 30
0.0
 40
0.125
  1
PART
 72
     1
 11
5.4969999999999999
 21
15.268413000000001
 31
0.0
  0
LINE
  5
3B
  8
TITLE
 10
5.8719999999999999
 20
15.438000000000001
 30
0.0
 11
5.8719999999999999
 21
15.019999999999991
 31
0.0
  0
LINE
  5
3C
  8
TITLE
 10
5.1219999999999999
 20
15.438000000000001
 30
0.0
 11
5.1219999999999999
 21
15.019999999999991
 31
0.0
  0
LINE
  5
3D
  8
TITLE
 10
5.0599999999999987
 20
15.438000000000001
 30
0.0
 11
5.0599999999999987
 21
15.019999999999991
 31
0.0
  0
LINE
  5
3E
  8
TITLE
 10
0.8120000000000001
 20
15.019999999999991
 30
0.0
 11
0.8120000000000001
 21
15.438000000000001
 31
0.0
  0
LINE
  5
3F
  8
TITLE
 10
0.062
 20
15.019999999999991
 30
0.0
 11
10.058
 21
15.019999999999991
 31
0.0
  0
LINE
  5
40
  8
TITLE
 10
10.058
 20
0.062
 30
0.0
 11
0.062
 21
0.062
 31
0.0
  0
LINE
  5
41
  8
TITLE
 10
10.058
 20
15.438000000000001
 30
0.0
 11
10.058
 21
0.062
 31
0.0
  0
LINE
  5
42
  8
TITLE
 10
0.062
 20
15.438000000000001
 30
0.0
 11
10.058
 21
15.438000000000001
 31
0.0
  0
LINE
  5
43
  8
TITLE
 10
0.062
 20
0.062
 30
0.0
 11
0.062
 21
15.438000000000001
 31
0.0
  0
LINE
  5
44
  8
TITLE
 10
0.0
 20
0.0
 30
0.0
 11
0.0
 21
15.5
 31
0.0
  0
LINE
  5
45
  8
TITLE
 10
10.119999999999999
 20
0.0
 30
0.0
 11
0.0
 21
0.0
 31
0.0
  0
LINE
  5
46
  8
TITLE
 10
10.119999999999999
 20
15.5
 30
0.0
 11
10.119999999999999
 21
0.0
 31
0.0
  0
LINE
  5
47
  8
TITLE
 10
0.0
 20
15.5
 30
0.0
 11
10.119999999999999
 21
15.5
 31
0.0
  0
ENDBLK
  5
48
  8
0
  0
BLOCK
  8
0
  2
*D1
 70
     1
 10
0.0
 20
0.0
 30
0.0
  3
*D1
  1

  0
LINE
  5
4B
  8
0
  6
BYBLOCK
 62
     0
 10
25.574698999999999
 20
29.676521000000001
 30
0.0
 11
25.574698999999999
 21
31.426552000000001
 31
0.0
  0
LINE
  5
4C
  8
0
  6
BYBLOCK
 62
     0
 10
28.949698999999988
 20
29.551521000000001
 30
0.0
 11
28.949698999999988
 21
31.426552000000001
 31
0.0
  0
LINE
  5
4D
  8
0
  6
BYBLOCK
 62
     0
 10
24.134698999999991
 20
30.682552000000001
 30
0.0
 11
22.694699
 21
30.682552000000001
 31
0.0
  0
LINE
  5
4E
  8
0
  6
BYBLOCK
 62
     0
 10
30.389699
 20
30.682552000000001
 30
0.0
 11
31.829698999999991
 21
30.682552000000001
 31
0.0
  0
SOLID
  5
4F
  8
0
  6
BYBLOCK
 62
     0
 10
24.134698999999991
 20
30.922552
 30
0.0
 11
24.134698999999991
 21
30.442551999999999
 31
0.0
 12
25.574698999999999
 22
30.682552000000001
 32
0.0
 13
25.574698999999999
 23
30.682552000000001
 33
0.0
  0
SOLID
  5
50
  8
0
  6
BYBLOCK
 62
     0
 10
30.389699
 20
30.922552
 30
0.0
 11
30.389699
 21
30.442551999999999
 31
0.0
 12
28.949698999999988
 22
30.682552000000001
 32
0.0
 13
28.949698999999988
 23
30.682552000000001
 33
0.0
  0
TEXT
  5
51
  8
0
  6
BYBLOCK
 62
     0
 10
32.54969899999999
 20
30.182552000000001
 30
0.0
 40
1.0
  1
3.375
 41
0.75
  7
TXT
 72
     1
 11
34.04969899999999
 21
30.682552000000001
 31
0.0
 73
     2
  0
POINT
  5
52
  8
DEFPOINTS
  6
BYBLOCK
 62
     0
 10
25.574698999999999
 20
29.172521
 30
0.0
  0
POINT
  5
53
  8
DEFPOINTS
  6
BYBLOCK
 62
     0
 10
28.949698999999988
 20
29.047521
 30
0.0
  0
POINT
  5
54
  8
DEFPOINTS
  6
BYBLOCK
 62
     0
 10
28.949698999999988
 20
30.682552000000001
 30
0.0
  0
ENDBLK
  5
55
  8
0
  0
BLOCK
  8
0
  2
*D2
 70
     1
 10
0.0
 20
0.0
 30
0.0
  3
*D2
  1

  0
LINE
  5
58
  8
0
  6
BYBLOCK
 62
     0
 10
11.824272000000001
 20
29.676521000000001
 30
0.0
 11
11.824272000000001
 21
31.426552000000001
 31
0.0
  0
LINE
  5
59
  8
0
  6
BYBLOCK
 62
     0
 10
8.4492720000000006
 20
29.551521000000001
 30
0.0
 11
8.4492720000000006
 21
31.426552000000001
 31
0.0
  0
LINE
  5
5A
  8
0
  6
BYBLOCK
 62
     0
 10
13.264272
 20
30.682552000000001
 30
0.0
 11
14.704272
 21
30.682552000000001
 31
0.0
  0
LINE
  5
5B
  8
0
  6
BYBLOCK
 62
     0
 10
7.0092720000000002
 20
30.682552000000001
 30
0.0
 11
5.5692719999999989
 21
30.682552000000001
 31
0.0
  0
SOLID
  5
5C
  8
0
  6
BYBLOCK
 62
     0
 10
13.264272
 20
30.922552
 30
0.0
 11
13.264272
 21
30.442551999999999
 31
0.0
 12
11.824272000000001
 22
30.682552000000001
 32
0.0
 13
11.824272000000001
 23
30.682552000000001
 33
0.0
  0
SOLID
  5
5D
  8
0
  6
BYBLOCK
 62
     0
 10
7.0092720000000002
 20
30.922552
 30
0.0
 11
7.0092720000000002
 21
30.442551999999999
 31
0.0
 12
8.4492720000000006
 22
30.682552000000001
 32
0.0
 13
8.4492720000000006
 23
30.682552000000001
 33
0.0
  0
TEXT
  5
5E
  8
0
  6
BYBLOCK
 62
     0
 10
1.849272
 20
30.182552000000001
 30
0.0
 40
1.0
  1
3.375
 41
0.75
  7
TXT
 72
     1
 11
3.349272
 21
30.682552000000001
 31
0.0
 73
     2
  0
POINT
  5
5F
  8
DEFPOINTS
  6
BYBLOCK
 62
     0
 10
11.824272000000001
 20
29.172521
 30
0.0
  0
POINT
  5
60
  8
DEFPOINTS
  6
BYBLOCK
 62
     0
 10
8.4492720000000006
 20
29.047521
 30
0.0
  0
POINT
  5
61
  8
DEFPOINTS
  6
BYBLOCK
 62
     0
 10
8.4492720000000006
 20
30.682552000000001
 30
0.0
  0
ENDBLK
  5
62
  8
0
  0
BLOCK
  8
0
  2
*D3
 70
     1
 10
0.0
 20
0.0
 30
0.0
  3
*D3
  1

  0
LINE
  5
65
  8
0
  6
BYBLOCK
 62
     0
 10
149.99480399999999
 20
67.561110999999997
 30
0.0
 11
149.99480399999999
 21
68.056822999999994
 31
0.0
  0
LINE
  5
66
  8
0
  6
BYBLOCK
 62
     0
 10
167.74680399999991
 20
67.561110999999997
 30
0.0
 11
167.74680399999991
 21
68.056822999999994
 31
0.0
  0
LINE
  5
67
  8
0
  6
BYBLOCK
 62
     0
 10
151.43480400000001
 20
67.312822999999995
 30
0.0
 11
156.40080399999999
 21
67.312822999999995
 31
0.0
  0
LINE
  5
68
  8
0
  6
BYBLOCK
 62
     0
 10
166.30680399999989
 20
67.312822999999995
 30
0.0
 11
161.34080399999991
 21
67.312822999999995
 31
0.0
  0
SOLID
  5
69
  8
0
  6
BYBLOCK
 62
     0
 10
151.43480400000001
 20
67.552823000000004
 30
0.0
 11
151.43480400000001
 21
67.072823
 31
0.0
 12
149.99480399999999
 22
67.312822999999995
 32
0.0
 13
149.99480399999999
 23
67.312822999999995
 33
0.0
  0
SOLID
  5
6A
  8
0
  6
BYBLOCK
 62
     0
 10
166.30680399999989
 20
67.552823000000004
 30
0.0
 11
166.30680399999989
 21
67.072823
 31
0.0
 12
167.74680399999991
 22
67.312822999999995
 32
0.0
 13
167.74680399999991
 23
67.312822999999995
 33
0.0
  0
TEXT
  5
6B
  8
0
  6
BYBLOCK
 62
     0
 10
157.12080399999991
 20
66.812822999999995
 30
0.0
 40
1.0
  1
17.752
 41
0.75
  7
TXT
 72
     1
 11
158.87080399999999
 21
67.312822999999995
 31
0.0
 73
     2
  0
POINT
  5
6C
  8
DEFPOINTS
  6
BYBLOCK
 62
     0
 10
149.99480399999999
 20
67.057110999999992
 30
0.0
  0
POINT
  5
6D
  8
DEFPOINTS
  6
BYBLOCK
 62
     0
 10
167.74680399999991
 20
67.057110999999992
 30
0.0
  0
POINT
  5
6E
  8
DEFPOINTS
  6
BYBLOCK
 62
     0
 10
167.74680399999991
 20
67.312822999999995
 30
0.0
  0
ENDBLK
  5
6F
  8
0
  0
BLOCK
  8
0
  2
*D4
 70
     1
 10
0.0
 20
0.0
 30
0.0
  3
*D4
  1

  0
LINE
  5
72
  8
0
  6
BYBLOCK
 62
     0
 10
95.822967000000006
 20
77.652638999999994
 30
0.0
 11
95.822967000000006
 21
81.455576000000008
 31
0.0
  0
LINE
  5
73
  8
0
  6
BYBLOCK
 62
     0
 10
111.82339399999989
 20
77.652638999999994
 30
0.0
 11
111.82339399999989
 21
81.455576000000008
 31
0.0
  0
LINE
  5
74
  8
0
  6
BYBLOCK
 62
     0
 10
97.262967000000003
 20
80.711576000000008
 30
0.0
 11
101.54068099999991
 21
80.711576000000008
 31
0.0
  0
LINE
  5
75
  8
0
  6
BYBLOCK
 62
     0
 10
110.3833939999999
 20
80.711576000000008
 30
0.0
 11
106.1056809999999
 21
80.711576000000008
 31
0.0
  0
SOLID
  5
76
  8
0
  6
BYBLOCK
 62
     0
 10
97.262967000000003
 20
80.951576000000003
 30
0.0
 11
97.262967000000003
 21
80.471575999999999
 31
0.0
 12
95.822967000000006
 22
80.711576000000008
 32
0.0
 13
95.822967000000006
 23
80.711576000000008
 33
0.0
  0
SOLID
  5
77
  8
0
  6
BYBLOCK
 62
     0
 10
110.3833939999999
 20
80.951576000000003
 30
0.0
 11
110.3833939999999
 21
80.471575999999999
 31
0.0
 12
111.82339399999989
 22
80.711576000000008
 32
0.0
 13
111.82339399999989
 23
80.711576000000008
 33
0.0
  0
TEXT
  5
78
  8
0
  6
BYBLOCK
 62
     0
 10
102.26068100000001
 20
80.211575999999994
 30
0.0
 40
1.0
  1
16.000
 41
0.75
  7
TXT
 72
     1
 11
103.82318100000001
 21
80.711576000000008
 31
0.0
 73
     2
  0
POINT
  5
79
  8
DEFPOINTS
  6
BYBLOCK
 62
     0
 10
95.822967000000006
 20
77.148639000000003
 30
0.0
  0
POINT
  5
7A
  8
DEFPOINTS
  6
BYBLOCK
 62
     0
 10
111.82339399999989
 20
77.148639000000003
 30
0.0
  0
POINT
  5
7B
  8
DEFPOINTS
  6
BYBLOCK
 62
     0
 10
111.82339399999989
 20
80.711576000000008
 30
0.0
  0
ENDBLK
  5
7C
  8
0
  0
BLOCK
  8
0
  2
*D5
 70
     1
 10
0.0
 20
0.0
 30
0.0
  3
*D5
  1

  0
LINE
  5
7F
  8
0
  6
BYBLOCK
 62
     0
 10
111.82339399999989
 20
77.652638999999994
 30
0.0
 11
111.82339399999989
 21
81.455576000000008
 31
0.0
  0
LINE
  5
80
  8
0
  6
BYBLOCK
 62
     0
 10
114.07339399999999
 20
78.652639000000008
 30
0.0
 11
114.07339399999999
 21
81.455576000000008
 31
0.0
  0
LINE
  5
81
  8
0
  6
BYBLOCK
 62
     0
 10
110.3833939999999
 20
80.711576000000008
 30
0.0
 11
108.9433939999999
 21
80.711576000000008
 31
0.0
  0
LINE
  5
82
  8
0
  6
BYBLOCK
 62
     0
 10
115.51339400000001
 20
80.711576000000008
 30
0.0
 11
116.9533939999999
 21
80.711576000000008
 31
0.0
  0
SOLID
  5
83
  8
0
  6
BYBLOCK
 62
     0
 10
110.3833939999999
 20
80.951576000000003
 30
0.0
 11
110.3833939999999
 21
80.471575999999999
 31
0.0
 12
111.82339399999989
 22
80.711576000000008
 32
0.0
 13
111.82339399999989
 23
80.711576000000008
 33
0.0
  0
SOLID
  5
84
  8
0
  6
BYBLOCK
 62
     0
 10
115.51339400000001
 20
80.951576000000003
 30
0.0
 11
115.51339400000001
 21
80.471575999999999
 31
0.0
 12
114.07339399999999
 22
80.711576000000008
 32
0.0
 13
114.07339399999999
 23
80.711576000000008
 33
0.0
  0
TEXT
  5
85
  8
0
  6
BYBLOCK
 62
     0
 10
117.6733939999999
 20
80.211575999999994
 30
0.0
 40
1.0
  1
2.250
 41
0.75
  7
TXT
 72
     1
 11
119.1108939999999
 21
80.711576000000008
 31
0.0
 73
     2
  0
POINT
  5
86
  8
DEFPOINTS
  6
BYBLOCK
 62
     0
 10
111.82339399999989
 20
77.148639000000003
 30
0.0
  0
POINT
  5
87
  8
DEFPOINTS
  6
BYBLOCK
 62
     0
 10
114.07339399999999
 20
78.148639000000003
 30
0.0
  0
POINT
  5
88
  8
DEFPOINTS
  6
BYBLOCK
 62
     0
 10
114.07339399999999
 20
80.711576000000008
 30
0.0
  0
ENDBLK
  5
89
  8
0
  0
BLOCK
  8
0
  2
*D6
 70
     1
 10
0.0
 20
0.0
 30
0.0
  3
*D6
  1

  0
LINE
  5
8C
  8
0
  6
BYBLOCK
 62
     0
 10
163.683854
 20
74.435139000000007
 30
0.0
 11
162.83935399999999
 21
74.435139000000007
 31
0.0
  0
LINE
  5
8D
  8
0
  6
BYBLOCK
 62
     0
 10
163.683854
 20
78.335639
 30
0.0
 11
162.83935399999999
 21
78.335639
 31
0.0
  0
LINE
  5
8E
  8
0
  6
BYBLOCK
 62
     0
 10
163.58335400000001
 20
72.995138999999995
 30
0.0
 11
163.58335400000001
 21
71.555138999999997
 31
0.0
  0
LINE
  5
8F
  8
0
  6
BYBLOCK
 62
     0
 10
163.58335400000001
 20
79.775638999999984
 30
0.0
 11
163.58335400000001
 21
81.215638999999996
 31
0.0
  0
SOLID
  5
90
  8
0
  6
BYBLOCK
 62
     0
 10
163.34335400000001
 20
72.995138999999995
 30
0.0
 11
163.82335399999991
 21
72.995138999999995
 31
0.0
 12
163.58335400000001
 22
74.435139000000007
 32
0.0
 13
163.58335400000001
 23
74.435139000000007
 33
0.0
  0
SOLID
  5
91
  8
0
  6
BYBLOCK
 62
     0
 10
163.34335400000001
 20
79.775638999999984
 30
0.0
 11
163.82335399999991
 21
79.775638999999984
 31
0.0
 12
163.58335400000001
 22
78.335639
 32
0.0
 13
163.58335400000001
 23
78.335639
 33
0.0
  0
TEXT
  5
92
  8
0
  6
BYBLOCK
 62
     0
 10
162.20835400000001
 20
75.885389000000004
 30
0.0
 40
1.0
  1
3.900
 41
0.75
  7
TXT
 72
     1
 11
163.58335400000001
 21
76.385389000000004
 31
0.0
 73
     2
  0
POINT
  5
93
  8
DEFPOINTS
  6
BYBLOCK
 62
     0
 10
164.18785399999999
 20
74.435139000000007
 30
0.0
  0
POINT
  5
94
  8
DEFPOINTS
  6
BYBLOCK
 62
     0
 10
164.18785399999999
 20
78.335639
 30
0.0
  0
POINT
  5
95
  8
DEFPOINTS
  6
BYBLOCK
 62
     0
 10
163.58335400000001
 20
78.335639
 30
0.0
  0
ENDBLK
  5
96
  8
0
  0
BLOCK
  8
0
  2
*D7
 70
     1
 10
0.0
 20
0.0
 30
0.0
  3
*D7
  1

  0
LINE
  5
99
  8
0
  6
BYBLOCK
 62
     0
 10
163.683854
 20
32.373139000000002
 30
0.0
 11
162.83935399999999
 21
32.373139000000002
 31
0.0
  0
LINE
  5
9A
  8
0
  6
BYBLOCK
 62
     0
 10
163.683854
 20
28.472639000000001
 30
0.0
 11
162.83935399999999
 21
28.472639000000001
 31
0.0
  0
LINE
  5
9B
  8
0
  6
BYBLOCK
 62
     0
 10
163.58335400000001
 20
33.813139
 30
0.0
 11
163.58335400000001
 21
35.253138999999997
 31
0.0
  0
LINE
  5
9C
  8
0
  6
BYBLOCK
 62
     0
 10
163.58335400000001
 20
27.032639
 30
0.0
 11
163.58335400000001
 21
25.592638999999998
 31
0.0
  0
SOLID
  5
9D
  8
0
  6
BYBLOCK
 62
     0
 10
163.34335400000001
 20
33.813139
 30
0.0
 11
163.82335399999991
 21
33.813139
 31
0.0
 12
163.58335400000001
 22
32.373139000000002
 32
0.0
 13
163.58335400000001
 23
32.373139000000002
 33
0.0
  0
SOLID
  5
9E
  8
0
  6
BYBLOCK
 62
     0
 10
163.34335400000001
 20
27.032639
 30
0.0
 11
163.82335399999991
 21
27.032639
 31
0.0
 12
163.58335400000001
 22
28.472639000000001
 32
0.0
 13
163.58335400000001
 23
28.472639000000001
 33
0.0
  0
TEXT
  5
9F
  8
0
  6
BYBLOCK
 62
     0
 10
162.20835400000001
 20
29.922889000000001
 30
0.0
 40
1.0
  1
3.900
 41
0.75
  7
TXT
 72
     1
 11
163.58335400000001
 21
30.422889000000001
 31
0.0
 73
     2
  0
POINT
  5
A0
  8
DEFPOINTS
  6
BYBLOCK
 62
     0
 10
164.18785399999999
 20
32.373139000000002
 30
0.0
  0
POINT
  5
A1
  8
DEFPOINTS
  6
BYBLOCK
 62
     0
 10
164.18785399999999
 20
28.472639000000001
 30
0.0
  0
POINT
  5
A2
  8
DEFPOINTS
  6
BYBLOCK
 62
     0
 10
163.58335400000001
 20
28.472639000000001
 30
0.0
  0
ENDBLK
  5
A3
  8
0
  0
BLOCK
  8
0
  2
*D8
 70
     1
 10
0.0
 20
0.0
 30
0.0
  3
*D8
  1

  0
LINE
  5
A6
  8
0
  6
BYBLOCK
 62
     0
 10
95.318967000000001
 20
31.659638999999999
 30
0.0
 11
89.26050699999999
 21
31.659638999999999
 31
0.0
  0
LINE
  5
A7
  8
0
  6
BYBLOCK
 62
     0
 10
95.318967000000001
 20
29.659638999999999
 30
0.0
 11
89.26050699999999
 21
29.659638999999999
 31
0.0
  0
LINE
  5
A8
  8
0
  6
BYBLOCK
 62
     0
 10
90.004507000000004
 20
33.099639000000003
 30
0.0
 11
90.004507000000004
 21
34.539639000000001
 31
0.0
  0
LINE
  5
A9
  8
0
  6
BYBLOCK
 62
     0
 10
90.004507000000004
 20
28.219639000000001
 30
0.0
 11
90.004507000000004
 21
26.779639
 31
0.0
  0
SOLID
  5
AA
  8
0
  6
BYBLOCK
 62
     0
 10
89.764506999999995
 20
33.099639000000003
 30
0.0
 11
90.244506999999999
 21
33.099639000000003
 31
0.0
 12
90.004507000000004
 22
31.659638999999999
 32
0.0
 13
90.004507000000004
 23
31.659638999999999
 33
0.0
  0
SOLID
  5
AB
  8
0
  6
BYBLOCK
 62
     0
 10
89.764506999999995
 20
28.219639000000001
 30
0.0
 11
90.244506999999999
 21
28.219639000000001
 31
0.0
 12
90.004507000000004
 22
29.659638999999999
 32
0.0
 13
90.004507000000004
 23
29.659638999999999
 33
0.0
  0
TEXT
  5
AC
  8
0
  6
BYBLOCK
 62
     0
 10
88.692006999999975
 20
30.159638999999999
 30
0.0
 40
1.0
  1
2.000
 41
0.75
  7
TXT
 72
     1
 11
90.004507000000004
 21
30.659638999999999
 31
0.0
 73
     2
  0
POINT
  5
AD
  8
DEFPOINTS
  6
BYBLOCK
 62
     0
 10
95.822967000000006
 20
31.659638999999999
 30
0.0
  0
POINT
  5
AE
  8
DEFPOINTS
  6
BYBLOCK
 62
     0
 10
95.822967000000006
 20
29.659638999999999
 30
0.0
  0
POINT
  5
AF
  8
DEFPOINTS
  6
BYBLOCK
 62
     0
 10
90.004507000000004
 20
29.659638999999999
 30
0.0
  0
ENDBLK
  5
B0
  8
0
  0
BLOCK
  8
0
  2
*D9
 70
     1
 10
0.0
 20
0.0
 30
0.0
  3
*D9
  1

  0
LINE
  5
B3
  8
0
  6
BYBLOCK
 62
     0
 10
95.318967000000001
 20
77.148639000000003
 30
0.0
 11
86.819695999999993
 21
77.148639000000003
 31
0.0
  0
LINE
  5
B4
  8
0
  6
BYBLOCK
 62
     0
 10
93.069181
 20
78.335639
 30
0.0
 11
86.819695999999993
 21
78.335639
 31
0.0
  0
LINE
  5
B5
  8
0
  6
BYBLOCK
 62
     0
 10
87.563695999999993
 20
75.708639000000005
 30
0.0
 11
87.563695999999993
 21
74.268638999999993
 31
0.0
  0
LINE
  5
B6
  8
0
  6
BYBLOCK
 62
     0
 10
87.563695999999993
 20
79.775638999999984
 30
0.0
 11
87.563695999999993
 21
81.215638999999996
 31
0.0
  0
LINE
  5
B7
  8
0
  6
BYBLOCK
 62
     0
 10
87.563695999999993
 20
81.215638999999996
 30
0.0
 11
89.003695999999991
 21
81.215638999999996
 31
0.0
  0
SOLID
  5
B8
  8
0
  6
BYBLOCK
 62
     0
 10
87.323695999999998
 20
75.708639000000005
 30
0.0
 11
87.803696000000002
 21
75.708639000000005
 31
0.0
 12
87.563695999999993
 22
77.148639000000003
 32
0.0
 13
87.563695999999993
 23
77.148639000000003
 33
0.0
  0
SOLID
  5
B9
  8
0
  6
BYBLOCK
 62
     0
 10
87.323695999999998
 20
79.775638999999984
 30
0.0
 11
87.803696000000002
 21
79.775638999999984
 31
0.0
 12
87.563695999999993
 22
78.335639
 32
0.0
 13
87.563695999999993
 23
78.335639
 33
0.0
  0
TEXT
  5
BA
  8
0
  6
BYBLOCK
 62
     0
 10
89.723695999999975
 20
80.715638999999996
 30
0.0
 40
1.0
  1
1.187
 41
0.75
  7
TXT
 72
     1
 11
90.973695999999975
 21
81.215638999999996
 31
0.0
 73
     2
  0
POINT
  5
BB
  8
DEFPOINTS
  6
BYBLOCK
 62
     0
 10
95.822967000000006
 20
77.148639000000003
 30
0.0
  0
POINT
  5
BC
  8
DEFPOINTS
  6
BYBLOCK
 62
     0
 10
93.573181000000005
 20
78.335639
 30
0.0
  0
POINT
  5
BD
  8
DEFPOINTS
  6
BYBLOCK
 62
     0
 10
87.563695999999993
 20
78.335639
 30
0.0
  0
ENDBLK
  5
BE
  8
0
  0
BLOCK
  8
0
  2
*D10
 70
     1
 10
0.0
 20
0.0
 30
0.0
  3
*D10
  1

  0
LINE
  5
C1
  8
0
  6
BYBLOCK
 62
     0
 10
95.318967000000001
 20
75.148639000000003
 30
0.0
 11
89.26050699999999
 21
75.148639000000003
 31
0.0
  0
LINE
  5
C2
  8
0
  6
BYBLOCK
 62
     0
 10
95.318967000000001
 20
77.148639000000003
 30
0.0
 11
89.26050699999999
 21
77.148639000000003
 31
0.0
  0
LINE
  5
C3
  8
0
  6
BYBLOCK
 62
     0
 10
90.004507000000004
 20
73.708639000000005
 30
0.0
 11
90.004507000000004
 21
72.268639000000007
 31
0.0
  0
LINE
  5
C4
  8
0
  6
BYBLOCK
 62
     0
 10
90.004507000000004
 20
78.588639000000001
 30
0.0
 11
90.004507000000004
 21
80.028638999999984
 31
0.0
  0
SOLID
  5
C5
  8
0
  6
BYBLOCK
 62
     0
 10
89.764506999999995
 20
73.708639000000005
 30
0.0
 11
90.244506999999999
 21
73.708639000000005
 31
0.0
 12
90.004507000000004
 22
75.148639000000003
 32
0.0
 13
90.004507000000004
 23
75.148639000000003
 33
0.0
  0
SOLID
  5
C6
  8
0
  6
BYBLOCK
 62
     0
 10
89.764506999999995
 20
78.588639000000001
 30
0.0
 11
90.244506999999999
 21
78.588639000000001
 31
0.0
 12
90.004507000000004
 22
77.148639000000003
 32
0.0
 13
90.004507000000004
 23
77.148639000000003
 33
0.0
  0
TEXT
  5
C7
  8
0
  6
BYBLOCK
 62
     0
 10
88.692006999999975
 20
75.648639000000003
 30
0.0
 40
1.0
  1
2.000
 41
0.75
  7
TXT
 72
     1
 11
90.004507000000004
 21
76.148639000000003
 31
0.0
 73
     2
  0
POINT
  5
C8
  8
DEFPOINTS
  6
BYBLOCK
 62
     0
 10
95.822967000000006
 20
75.148639000000003
 30
0.0
  0
POINT
  5
C9
  8
DEFPOINTS
  6
BYBLOCK
 62
     0
 10
95.822967000000006
 20
77.148639000000003
 30
0.0
  0
POINT
  5
CA
  8
DEFPOINTS
  6
BYBLOCK
 62
     0
 10
90.004507000000004
 20
77.148639000000003
 30
0.0
  0
ENDBLK
  5
CB
  8
0
  0
BLOCK
  8
0
  2
*D11
 70
     1
 10
0.0
 20
0.0
 30
0.0
  3
*D11
  1

  0
LINE
  5
CE
  8
0
  6
BYBLOCK
 62
     0
 10
128.243112
 20
78.273639000000003
 30
0.0
 11
124.43432
 21
78.273639000000003
 31
0.0
  0
LINE
  5
CF
  8
0
  6
BYBLOCK
 62
     0
 10
128.13411199999999
 20
74.335639
 30
0.0
 11
124.43432
 21
74.335639
 31
0.0
  0
LINE
  5
D0
  8
0
  6
BYBLOCK
 62
     0
 10
125.1783199999999
 20
79.713639000000001
 30
0.0
 11
125.1783199999999
 21
81.153638999999998
 31
0.0
  0
LINE
  5
D1
  8
0
  6
BYBLOCK
 62
     0
 10
125.1783199999999
 20
72.895639000000003
 30
0.0
 11
125.1783199999999
 21
71.455639000000005
 31
0.0
  0
SOLID
  5
D2
  8
0
  6
BYBLOCK
 62
     0
 10
124.93832
 20
79.713639000000001
 30
0.0
 11
125.41831999999989
 21
79.713639000000001
 31
0.0
 12
125.1783199999999
 22
78.273639000000003
 32
0.0
 13
125.1783199999999
 23
78.273639000000003
 33
0.0
  0
SOLID
  5
D3
  8
0
  6
BYBLOCK
 62
     0
 10
124.93832
 20
72.895639000000003
 30
0.0
 11
125.41831999999989
 21
72.895639000000003
 31
0.0
 12
125.1783199999999
 22
74.335639
 32
0.0
 13
125.1783199999999
 23
74.335639
 33
0.0
  0
TEXT
  5
D4
  8
0
  6
BYBLOCK
 62
     0
 10
123.67832
 20
75.804638999999995
 30
0.0
 40
1.0
  1
3.938
 41
0.75
  7
TXT
 72
     1
 11
125.1783199999999
 21
76.304638999999995
 31
0.0
 73
     2
  0
POINT
  5
D5
  8
DEFPOINTS
  6
BYBLOCK
 62
     0
 10
128.74711199999999
 20
78.273639000000003
 30
0.0
  0
POINT
  5
D6
  8
DEFPOINTS
  6
BYBLOCK
 62
     0
 10
128.63811200000001
 20
74.335639
 30
0.0
  0
POINT
  5
D7
  8
DEFPOINTS
  6
BYBLOCK
 62
     0
 10
125.1783199999999
 20
74.335639
 30
0.0
  0
ENDBLK
  5
D8
  8
0
  0
BLOCK
  8
0
  2
*D12
 70
     1
 10
0.0
 20
0.0
 30
0.0
  3
*D12
  1

  0
LINE
  5
DB
  8
0
  6
BYBLOCK
 62
     0
 10
128.243112
 20
28.534638999999999
 30
0.0
 11
124.43432
 21
28.534638999999999
 31
0.0
  0
LINE
  5
DC
  8
0
  6
BYBLOCK
 62
     0
 10
128.13411199999999
 20
32.472639000000001
 30
0.0
 11
124.43432
 21
32.472639000000001
 31
0.0
  0
LINE
  5
DD
  8
0
  6
BYBLOCK
 62
     0
 10
125.1783199999999
 20
27.094639000000001
 30
0.0
 11
125.1783199999999
 21
25.654639
 31
0.0
  0
LINE
  5
DE
  8
0
  6
BYBLOCK
 62
     0
 10
125.1783199999999
 20
33.912638999999999
 30
0.0
 11
125.1783199999999
 21
35.352639000000003
 31
0.0
  0
SOLID
  5
DF
  8
0
  6
BYBLOCK
 62
     0
 10
124.93832
 20
27.094639000000001
 30
0.0
 11
125.41831999999989
 21
27.094639000000001
 31
0.0
 12
125.1783199999999
 22
28.534638999999999
 32
0.0
 13
125.1783199999999
 23
28.534638999999999
 33
0.0
  0
SOLID
  5
E0
  8
0
  6
BYBLOCK
 62
     0
 10
124.93832
 20
33.912638999999999
 30
0.0
 11
125.41831999999989
 21
33.912638999999999
 31
0.0
 12
125.1783199999999
 22
32.472639000000001
 32
0.0
 13
125.1783199999999
 23
32.472639000000001
 33
0.0
  0
TEXT
  5
E1
  8
0
  6
BYBLOCK
 62
     0
 10
123.67832
 20
30.003638999999989
 30
0.0
 40
1.0
  1
3.938
 41
0.75
  7
TXT
 72
     1
 11
125.1783199999999
 21
30.503639
 31
0.0
 73
     2
  0
POINT
  5
E2
  8
DEFPOINTS
  6
BYBLOCK
 62
     0
 10
128.74711199999999
 20
28.534638999999999
 30
0.0
  0
POINT
  5
E3
  8
DEFPOINTS
  6
BYBLOCK
 62
     0
 10
128.63811200000001
 20
32.472639000000001
 30
0.0
  0
POINT
  5
E4
  8
DEFPOINTS
  6
BYBLOCK
 62
     0
 10
125.1783199999999
 20
32.472639000000001
 30
0.0
  0
ENDBLK
  5
E5
  8
0
  0
BLOCK
  8
0
  2
*D13
 70
     1
 10
0.0
 20
0.0
 30
0.0
  3
*D13
  1

  0
LINE
  5
E8
  8
0
  6
BYBLOCK
 62
     0
 10
149.71480399999999
 20
64.095639000000006
 30
0.0
 11
149.71480399999999
 21
65.419790000000006
 31
0.0
  0
LINE
  5
E9
  8
0
  6
BYBLOCK
 62
     0
 10
168.026804
 20
64.095639000000006
 30
0.0
 11
168.026804
 21
65.419790000000006
 31
0.0
  0
LINE
  5
EA
  8
0
  6
BYBLOCK
 62
     0
 10
151.15480400000001
 20
64.675790000000006
 30
0.0
 11
156.52580399999991
 21
64.675790000000006
 31
0.0
  0
LINE
  5
EB
  8
0
  6
BYBLOCK
 62
     0
 10
166.586804
 20
64.675790000000006
 30
0.0
 11
161.21580399999991
 21
64.675790000000006
 31
0.0
  0
SOLID
  5
EC
  8
0
  6
BYBLOCK
 62
     0
 10
151.15480400000001
 20
64.915790000000001
 30
0.0
 11
151.15480400000001
 21
64.435789999999983
 31
0.0
 12
149.71480399999999
 22
64.675790000000006
 32
0.0
 13
149.71480399999999
 23
64.675790000000006
 33
0.0
  0
SOLID
  5
ED
  8
0
  6
BYBLOCK
 62
     0
 10
166.586804
 20
64.915790000000001
 30
0.0
 11
166.586804
 21
64.435789999999983
 31
0.0
 12
168.026804
 22
64.675790000000006
 32
0.0
 13
168.026804
 23
64.675790000000006
 33
0.0
  0
TEXT
  5
EE
  8
0
  6
BYBLOCK
 62
     0
 10
157.24580399999991
 20
64.175790000000006
 30
0.0
 40
1.0
  1
18.312
 41
0.75
  7
TXT
 72
     1
 11
158.87080399999999
 21
64.675790000000006
 31
0.0
 73
     2
  0
POINT
  5
EF
  8
DEFPOINTS
  6
BYBLOCK
 62
     0
 10
149.71480399999999
 20
63.591639000000001
 30
0.0
  0
POINT
  5
F0
  8
DEFPOINTS
  6
BYBLOCK
 62
     0
 10
168.026804
 20
63.591639000000001
 30
0.0
  0
POINT
  5
F1
  8
DEFPOINTS
  6
BYBLOCK
 62
     0
 10
168.026804
 20
64.675790000000006
 30
0.0
  0
ENDBLK
  5
F2
  8
0
  0
BLOCK
  8
0
  2
*D14
 70
     1
 10
0.0
 20
0.0
 30
0.0
  3
*D14
  1

  0
LINE
  5
F5
  8
0
  6
BYBLOCK
 62
     0
 10
155.6342249999999
 20
74.435139000000007
 30
0.0
 11
157.51866100000001
 21
74.435139000000007
 31
0.0
  0
LINE
  5
F6
  8
0
  6
BYBLOCK
 62
     0
 10
150.21901800000001
 20
74.154139000000001
 30
0.0
 11
157.51866100000001
 21
74.154139000000001
 31
0.0
  0
LINE
  5
F7
  8
0
  6
BYBLOCK
 62
     0
 10
156.77466100000001
 20
75.875139000000004
 30
0.0
 11
156.77466100000001
 21
77.315139000000002
 31
0.0
  0
LINE
  5
F8
  8
0
  6
BYBLOCK
 62
     0
 10
156.77466100000001
 20
72.714139000000003
 30
0.0
 11
156.77466100000001
 21
71.274139000000005
 31
0.0
  0
LINE
  5
F9
  8
0
  6
BYBLOCK
 62
     0
 10
156.77466100000001
 20
71.274139000000005
 30
0.0
 11
155.33466100000001
 21
71.274139000000005
 31
0.0
  0
SOLID
  5
FA
  8
0
  6
BYBLOCK
 62
     0
 10
156.53466099999989
 20
75.875139000000004
 30
0.0
 11
157.01466099999999
 21
75.875139000000004
 31
0.0
 12
156.77466100000001
 22
74.435139000000007
 32
0.0
 13
156.77466100000001
 23
74.435139000000007
 33
0.0
  0
SOLID
  5
FB
  8
0
  6
BYBLOCK
 62
     0
 10
156.53466099999989
 20
72.714139000000003
 30
0.0
 11
157.01466099999999
 21
72.714139000000003
 31
0.0
 12
156.77466100000001
 22
74.154139000000001
 32
0.0
 13
156.77466100000001
 23
74.154139000000001
 33
0.0
  0
TEXT
  5
FC
  8
0
  6
BYBLOCK
 62
     0
 10
151.98966100000001
 20
70.774139000000005
 30
0.0
 40
1.0
  1
0.281
 41
0.75
  7
TXT
 72
     1
 11
153.30216100000001
 21
71.274139000000005
 31
0.0
 73
     2
  0
POINT
  5
FD
  8
DEFPOINTS
  6
BYBLOCK
 62
     0
 10
155.13022499999991
 20
74.435139000000007
 30
0.0
  0
POINT
  5
FE
  8
DEFPOINTS
  6
BYBLOCK
 62
     0
 10
149.71501799999999
 20
74.154139000000001
 30
0.0
  0
POINT
  5
FF
  8
DEFPOINTS
  6
BYBLOCK
 62
     0
 10
156.77466100000001
 20
74.154139000000001
 30
0.0
  0
ENDBLK
  5
100
  8
0
  0
BLOCK
  8
0
  2
*D15
 70
     1
 10
0.0
 20
0.0
 30
0.0
  3
*D15
  1

  0
LINE
  5
103
  8
0
  6
BYBLOCK
 62
     0
 10
153.11057899999989
 20
32.373139000000002
 30
0.0
 11
154.99501499999991
 21
32.373139000000002
 31
0.0
  0
LINE
  5
104
  8
0
  6
BYBLOCK
 62
     0
 10
150.21901800000001
 20
32.654139000000001
 30
0.0
 11
154.99501499999991
 21
32.654139000000001
 31
0.0
  0
LINE
  5
105
  8
0
  6
BYBLOCK
 62
     0
 10
154.251015
 20
30.933139000000001
 30
0.0
 11
154.251015
 21
29.493138999999999
 31
0.0
  0
LINE
  5
106
  8
0
  6
BYBLOCK
 62
     0
 10
154.251015
 20
34.094138999999998
 30
0.0
 11
154.251015
 21
35.534139000000003
 31
0.0
  0
LINE
  5
107
  8
0
  6
BYBLOCK
 62
     0
 10
154.251015
 20
35.534139000000003
 30
0.0
 11
155.69101499999999
 21
35.534139000000003
 31
0.0
  0
SOLID
  5
108
  8
0
  6
BYBLOCK
 62
     0
 10
154.0110149999999
 20
30.933139000000001
 30
0.0
 11
154.49101499999989
 21
30.933139000000001
 31
0.0
 12
154.251015
 22
32.373139000000002
 32
0.0
 13
154.251015
 23
32.373139000000002
 33
0.0
  0
SOLID
  5
109
  8
0
  6
BYBLOCK
 62
     0
 10
154.0110149999999
 20
34.094138999999998
 30
0.0
 11
154.49101499999989
 21
34.094138999999998
 31
0.0
 12
154.251015
 22
32.654139000000001
 32
0.0
 13
154.251015
 23
32.654139000000001
 33
0.0
  0
TEXT
  5
10A
  8
0
  6
BYBLOCK
 62
     0
 10
156.41101499999991
 20
35.034139000000003
 30
0.0
 40
1.0
  1
0.281
 41
0.75
  7
TXT
 72
     1
 11
157.72351499999991
 21
35.534139000000003
 31
0.0
 73
     2
  0
POINT
  5
10B
  8
DEFPOINTS
  6
BYBLOCK
 62
     0
 10
152.60657900000001
 20
32.373139000000002
 30
0.0
  0
POINT
  5
10C
  8
DEFPOINTS
  6
BYBLOCK
 62
     0
 10
149.71501799999999
 20
32.654139000000001
 30
0.0
  0
POINT
  5
10D
  8
DEFPOINTS
  6
BYBLOCK
 62
     0
 10
154.251015
 20
32.654139000000001
 30
0.0
  0
ENDBLK
  5
10E
  8
0
  0
BLOCK
  8
0
  2
*D16
 70
     1
 10
0.0
 20
0.0
 30
0.0
  3
*D16
  1

  0
LINE
  5
111
  8
0
  6
BYBLOCK
 62
     0
 10
93.573181000000005
 20
80.750360999999998
 30
0.0
 11
93.573181000000005
 21
85.614298000000005
 31
0.0
  0
LINE
  5
112
  8
0
  6
BYBLOCK
 62
     0
 10
114.07318100000001
 20
80.750360999999998
 30
0.0
 11
114.07318100000001
 21
85.614298000000005
 31
0.0
  0
LINE
  5
113
  8
0
  6
BYBLOCK
 62
     0
 10
95.013181000000003
 20
84.870298000000005
 30
0.0
 11
101.41568100000001
 21
84.870298000000005
 31
0.0
  0
LINE
  5
114
  8
0
  6
BYBLOCK
 62
     0
 10
112.63318099999999
 20
84.870298000000005
 30
0.0
 11
106.230681
 21
84.870298000000005
 31
0.0
  0
SOLID
  5
115
  8
0
  6
BYBLOCK
 62
     0
 10
95.013181000000003
 20
85.110298000000014
 30
0.0
 11
95.013181000000003
 21
84.630297999999996
 31
0.0
 12
93.573181000000005
 22
84.870298000000005
 32
0.0
 13
93.573181000000005
 23
84.870298000000005
 33
0.0
  0
SOLID
  5
116
  8
0
  6
BYBLOCK
 62
     0
 10
112.63318099999999
 20
85.110298000000014
 30
0.0
 11
112.63318099999999
 21
84.630297999999996
 31
0.0
 12
114.07318100000001
 22
84.870298000000005
 32
0.0
 13
114.07318100000001
 23
84.870298000000005
 33
0.0
  0
TEXT
  5
117
  8
0
  6
BYBLOCK
 62
     0
 10
102.13568100000001
 20
84.370297999999991
 30
0.0
 40
1.0
  1
20.500
 41
0.75
  7
TXT
 72
     1
 11
103.82318100000001
 21
84.870298000000005
 31
0.0
 73
     2
  0
POINT
  5
118
  8
DEFPOINTS
  6
BYBLOCK
 62
     0
 10
93.573181000000005
 20
80.246360999999993
 30
0.0
  0
POINT
  5
119
  8
DEFPOINTS
  6
BYBLOCK
 62
     0
 10
114.07318100000001
 20
80.246360999999993
 30
0.0
  0
POINT
  5
11A
  8
DEFPOINTS
  6
BYBLOCK
 62
     0
 10
114.07318100000001
 20
84.870298000000005
 30
0.0
  0
ENDBLK
  5
11B
  8
0
  0
BLOCK
  8
0
  2
*D17
 70
     1
 10
0.0
 20
0.0
 30
0.0
  3
*D17
  1

  0
LINE
  5
11E
  8
0
  6
BYBLOCK
 62
     0
 10
95.318967000000001
 20
33.570360999999998
 30
0.0
 11
89.26050699999999
 21
33.570360999999998
 31
0.0
  0
LINE
  5
11F
  8
0
  6
BYBLOCK
 62
     0
 10
95.318967000000001
 20
77.059360999999996
 30
0.0
 11
89.26050699999999
 21
77.059360999999996
 31
0.0
  0
LINE
  5
120
  8
0
  6
BYBLOCK
 62
     0
 10
90.004507000000004
 20
35.010360999999989
 30
0.0
 11
90.004507000000004
 21
54.094861000000002
 31
0.0
  0
LINE
  5
121
  8
0
  6
BYBLOCK
 62
     0
 10
90.004507000000004
 20
75.619360999999998
 30
0.0
 11
90.004507000000004
 21
56.534860999999999
 31
0.0
  0
SOLID
  5
122
  8
0
  6
BYBLOCK
 62
     0
 10
89.764506999999995
 20
35.010360999999989
 30
0.0
 11
90.244506999999999
 21
35.010360999999989
 31
0.0
 12
90.004507000000004
 22
33.570360999999998
 32
0.0
 13
90.004507000000004
 23
33.570360999999998
 33
0.0
  0
SOLID
  5
123
  8
0
  6
BYBLOCK
 62
     0
 10
89.764506999999995
 20
75.619360999999998
 30
0.0
 11
90.244506999999999
 21
75.619360999999998
 31
0.0
 12
90.004507000000004
 22
77.059360999999996
 32
0.0
 13
90.004507000000004
 23
77.059360999999996
 33
0.0
  0
TEXT
  5
124
  8
0
  6
BYBLOCK
 62
     0
 10
89.75450699999999
 20
54.814861000000001
 30
0.0
 40
1.0
  1
C
 41
0.75
  7
TXT
 72
     1
 11
90.004507000000004
 21
55.314861000000001
 31
0.0
 73
     2
  0
POINT
  5
125
  8
DEFPOINTS
  6
BYBLOCK
 62
     0
 10
95.822967000000006
 20
33.570360999999998
 30
0.0
  0
POINT
  5
126
  8
DEFPOINTS
  6
BYBLOCK
 62
     0
 10
95.822967000000006
 20
77.059360999999996
 30
0.0
  0
POINT
  5
127
  8
DEFPOINTS
  6
BYBLOCK
 62
     0
 10
90.004507000000004
 20
77.059360999999996
 30
0.0
  0
ENDBLK
  5
128
  8
0
  0
BLOCK
  8
0
  2
*D18
 70
     1
 10
0.0
 20
0.0
 30
0.0
  3
*D18
  1

  0
LINE
  5
12B
  8
0
  6
BYBLOCK
 62
     0
 10
29.825979999999991
 20
49.438384999999997
 30
0.0
 11
33.178230999999997
 21
49.438384999999997
 31
0.0
  0
LINE
  5
12C
  8
0
  6
BYBLOCK
 62
     0
 10
29.950980000000001
 20
99.301384999999996
 30
0.0
 11
33.178230999999997
 21
99.301384999999996
 31
0.0
  0
LINE
  5
12D
  8
0
  6
BYBLOCK
 62
     0
 10
32.43423099999999
 20
50.878385000000002
 30
0.0
 11
32.43423099999999
 21
73.149884999999998
 31
0.0
  0
LINE
  5
12E
  8
0
  6
BYBLOCK
 62
     0
 10
32.43423099999999
 20
97.861384999999984
 30
0.0
 11
32.43423099999999
 21
75.589884999999995
 31
0.0
  0
SOLID
  5
12F
  8
0
  6
BYBLOCK
 62
     0
 10
32.194231000000002
 20
50.878385000000002
 30
0.0
 11
32.674230999999999
 21
50.878385000000002
 31
0.0
 12
32.43423099999999
 22
49.438384999999997
 32
0.0
 13
32.43423099999999
 23
49.438384999999997
 33
0.0
  0
SOLID
  5
130
  8
0
  6
BYBLOCK
 62
     0
 10
32.194231000000002
 20
97.861384999999984
 30
0.0
 11
32.674230999999999
 21
97.861384999999984
 31
0.0
 12
32.43423099999999
 22
99.301384999999996
 32
0.0
 13
32.43423099999999
 23
99.301384999999996
 33
0.0
  0
TEXT
  5
131
  8
0
  6
BYBLOCK
 62
     0
 10
32.18423099999999
 20
73.869884999999996
 30
0.0
 40
1.0
  1
B
 41
0.75
  7
TXT
 72
     1
 11
32.43423099999999
 21
74.369884999999996
 31
0.0
 73
     2
  0
POINT
  5
132
  8
DEFPOINTS
  6
BYBLOCK
 62
     0
 10
29.321979999999989
 20
49.438384999999997
 30
0.0
  0
POINT
  5
133
  8
DEFPOINTS
  6
BYBLOCK
 62
     0
 10
29.44698
 20
99.301384999999996
 30
0.0
  0
POINT
  5
134
  8
DEFPOINTS
  6
BYBLOCK
 62
     0
 10
32.43423099999999
 20
99.301384999999996
 30
0.0
  0
ENDBLK
  5
135
  8
0
  0
BLOCK
  8
0
  2
*D19
 70
     1
 10
0.0
 20
0.0
 30
0.0
  3
*D19
  1

  0
LINE
  5
138
  8
0
  6
BYBLOCK
 62
     0
 10
57.693209000000003
 20
53.369884999999996
 30
0.0
 11
54.032530000000001
 21
53.369884999999996
 31
0.0
  0
LINE
  5
139
  8
0
  6
BYBLOCK
 62
     0
 10
57.677208999999998
 20
95.369884999999996
 30
0.0
 11
54.032530000000001
 21
95.369884999999996
 31
0.0
  0
LINE
  5
13A
  8
0
  6
BYBLOCK
 62
     0
 10
54.776530000000001
 20
54.809884999999987
 30
0.0
 11
54.776530000000001
 21
73.149884999999998
 31
0.0
  0
LINE
  5
13B
  8
0
  6
BYBLOCK
 62
     0
 10
54.776530000000001
 20
93.929884999999985
 30
0.0
 11
54.776530000000001
 21
75.589884999999995
 31
0.0
  0
SOLID
  5
13C
  8
0
  6
BYBLOCK
 62
     0
 10
54.536529999999999
 20
54.809884999999987
 30
0.0
 11
55.01653000000001
 21
54.809884999999987
 31
0.0
 12
54.776530000000001
 22
53.369884999999996
 32
0.0
 13
54.776530000000001
 23
53.369884999999996
 33
0.0
  0
SOLID
  5
13D
  8
0
  6
BYBLOCK
 62
     0
 10
54.536529999999999
 20
93.929884999999985
 30
0.0
 11
55.01653000000001
 21
93.929884999999985
 31
0.0
 12
54.776530000000001
 22
95.369884999999996
 32
0.0
 13
54.776530000000001
 23
95.369884999999996
 33
0.0
  0
TEXT
  5
13E
  8
0
  6
BYBLOCK
 62
     0
 10
54.526530000000008
 20
73.869884999999996
 30
0.0
 40
1.0
  1
A
 41
0.75
  7
TXT
 72
     1
 11
54.776530000000001
 21
74.369884999999996
 31
0.0
 73
     2
  0
POINT
  5
13F
  8
DEFPOINTS
  6
BYBLOCK
 62
     0
 10
58.197209000000001
 20
53.369884999999996
 30
0.0
  0
POINT
  5
140
  8
DEFPOINTS
  6
BYBLOCK
 62
     0
 10
58.181209000000003
 20
95.369884999999996
 30
0.0
  0
POINT
  5
141
  8
DEFPOINTS
  6
BYBLOCK
 62
     0
 10
54.776530000000001
 20
95.369884999999996
 30
0.0
  0
ENDBLK
  5
142
  8
0
  0
BLOCK
  8
0
  2
*D20
 70
     1
 10
0.0
 20
0.0
 30
0.0
  3
*D20
  1

  0
LINE
  5
145
  8
0
  6
BYBLOCK
 62
     0
 10
41.406356999999993
 20
99.680885000000004
 30
0.0
 11
41.406356999999993
 21
102.421322
 31
0.0
  0
LINE
  5
146
  8
0
  6
BYBLOCK
 62
     0
 10
49.406357
 20
99.743385000000004
 30
0.0
 11
49.406357
 21
102.421322
 31
0.0
  0
LINE
  5
147
  8
0
  6
BYBLOCK
 62
     0
 10
42.84635699999999
 20
101.677322
 30
0.0
 11
44.436357000000001
 21
101.677322
 31
0.0
  0
LINE
  5
148
  8
0
  6
BYBLOCK
 62
     0
 10
47.966357000000002
 20
101.677322
 30
0.0
 11
46.376356999999992
 21
101.677322
 31
0.0
  0
SOLID
  5
149
  8
0
  6
BYBLOCK
 62
     0
 10
42.84635699999999
 20
101.917322
 30
0.0
 11
42.84635699999999
 21
101.4373219999999
 31
0.0
 12
41.406356999999993
 22
101.677322
 32
0.0
 13
41.406356999999993
 23
101.677322
 33
0.0
  0
SOLID
  5
14A
  8
0
  6
BYBLOCK
 62
     0
 10
47.966357000000002
 20
101.917322
 30
0.0
 11
47.966357000000002
 21
101.4373219999999
 31
0.0
 12
49.406357
 22
101.677322
 32
0.0
 13
49.406357
 23
101.677322
 33
0.0
  0
TEXT
  5
14B
  8
0
  6
BYBLOCK
 62
     0
 10
45.156356999999993
 20
101.177322
 30
0.0
 40
1.0
  1
D
 41
0.75
  7
TXT
 72
     1
 11
45.406357
 21
101.677322
 31
0.0
 73
     2
  0
POINT
  5
14C
  8
DEFPOINTS
  6
BYBLOCK
 62
     0
 10
41.406356999999993
 20
99.176884999999999
 30
0.0
  0
POINT
  5
14D
  8
DEFPOINTS
  6
BYBLOCK
 62
     0
 10
49.406357
 20
99.239384999999999
 30
0.0
  0
POINT
  5
14E
  8
DEFPOINTS
  6
BYBLOCK
 62
     0
 10
49.406357
 20
101.677322
 30
0.0
  0
ENDBLK
  5
14F
  8
0
  0
BLOCK
  8
0
  2
*D21
 70
     1
 10
0.0
 20
0.0
 30
0.0
  3
*D21
  1

  0
LINE
  5
152
  8
0
  6
BYBLOCK
 62
     0
 10
41.406356999999993
 20
99.680885000000004
 30
0.0
 11
41.406356999999993
 21
104.66932199999989
 31
0.0
  0
LINE
  5
153
  8
0
  6
BYBLOCK
 62
     0
 10
49.500357000000001
 20
99.805385000000015
 30
0.0
 11
49.500357000000001
 21
104.66932199999989
 31
0.0
  0
LINE
  5
154
  8
0
  6
BYBLOCK
 62
     0
 10
42.84635699999999
 20
103.92532199999989
 30
0.0
 11
44.483356999999998
 21
103.92532199999989
 31
0.0
  0
LINE
  5
155
  8
0
  6
BYBLOCK
 62
     0
 10
48.060357000000003
 20
103.92532199999989
 30
0.0
 11
46.423357000000003
 21
103.92532199999989
 31
0.0
  0
SOLID
  5
156
  8
0
  6
BYBLOCK
 62
     0
 10
42.84635699999999
 20
104.165322
 30
0.0
 11
42.84635699999999
 21
103.685322
 31
0.0
 12
41.406356999999993
 22
103.92532199999989
 32
0.0
 13
41.406356999999993
 23
103.92532199999989
 33
0.0
  0
SOLID
  5
157
  8
0
  6
BYBLOCK
 62
     0
 10
48.060357000000003
 20
104.165322
 30
0.0
 11
48.060357000000003
 21
103.685322
 31
0.0
 12
49.500357000000001
 22
103.92532199999989
 32
0.0
 13
49.500357000000001
 23
103.92532199999989
 33
0.0
  0
TEXT
  5
158
  8
0
  6
BYBLOCK
 62
     0
 10
45.203356999999997
 20
103.42532199999989
 30
0.0
 40
1.0
  1
E
 41
0.75
  7
TXT
 72
     1
 11
45.453356999999997
 21
103.92532199999989
 31
0.0
 73
     2
  0
POINT
  5
159
  8
DEFPOINTS
  6
BYBLOCK
 62
     0
 10
41.406356999999993
 20
99.176884999999999
 30
0.0
  0
POINT
  5
15A
  8
DEFPOINTS
  6
BYBLOCK
 62
     0
 10
49.500357000000001
 20
99.301384999999996
 30
0.0
  0
POINT
  5
15B
  8
DEFPOINTS
  6
BYBLOCK
 62
     0
 10
49.500357000000001
 20
103.92532199999989
 30
0.0
  0
ENDBLK
  5
15C
  8
0
  0
BLOCK
  8
0
  2
*D22
 70
     1
 10
0.0
 20
0.0
 30
0.0
  3
*D22
  1

  0
LINE
  5
197
  8
DIM
 62
     0
 10
58.49841099999999
 20
85.061385000000001
 30
0.0
 11
58.49841099999999
 21
86.385535999999988
 31
0.0
  0
LINE
  5
198
  8
DIM
 62
     0
 10
76.810411000000002
 20
85.061385000000001
 30
0.0
 11
76.810411000000002
 21
86.385535999999988
 31
0.0
  0
LINE
  5
199
  8
DIM
 62
     0
 10
59.938411000000002
 20
85.641536000000002
 30
0.0
 11
65.309410999999983
 21
85.641536000000002
 31
0.0
  0
LINE
  5
19A
  8
DIM
 62
     0
 10
75.370411000000004
 20
85.641536000000002
 30
0.0
 11
69.999410999999995
 21
85.641536000000002
 31
0.0
  0
SOLID
  5
19B
  8
DIM
 62
     0
 10
59.938411000000002
 20
85.881535999999997
 30
0.0
 11
59.938411000000002
 21
85.401536000000007
 31
0.0
 12
58.49841099999999
 22
85.641536000000002
 32
0.0
 13
58.49841099999999
 23
85.641536000000002
 33
0.0
  0
SOLID
  5
19C
  8
DIM
 62
     0
 10
75.370411000000004
 20
85.881535999999997
 30
0.0
 11
75.370411000000004
 21
85.401536000000007
 31
0.0
 12
76.810411000000002
 22
85.641536000000002
 32
0.0
 13
76.810411000000002
 23
85.641536000000002
 33
0.0
  0
TEXT
  5
19D
  8
OBJECT
 62
     0
 10
66.029410999999996
 20
85.141536000000002
 30
0.0
 40
1.0
  1
18.312
 41
0.75
  7
TXT
  0
POINT
  5
19E
  8
DEFPOINTS
 62
     0
 10
58.49841099999999
 20
84.557384999999996
 30
0.0
  0
POINT
  5
19F
  8
DEFPOINTS
 62
     0
 10
76.810411000000002
 20
84.557384999999996
 30
0.0
  0
POINT
  5
1A0
  8
DEFPOINTS
 62
     0
 10
76.810411000000002
 20
85.641536000000002
 30
0.0
  0
ENDBLK
  5
1A2
  8
0
  0
BLOCK
  8
0
  2
*D23
 70
     1
 10
0.0
 20
0.0
 30
0.0
  3
*D23
  1

  0
LINE
  5
1A5
  8
DIM
 62
     0
 10
58.778410999999998
 20
88.526857000000007
 30
0.0
 11
58.778410999999998
 21
89.02256899999999
 31
0.0
  0
LINE
  5
1A6
  8
DIM
 62
     0
 10
76.530411000000001
 20
88.526857000000007
 30
0.0
 11
76.530411000000001
 21
89.02256899999999
 31
0.0
  0
LINE
  5
1A7
  8
DIM
 62
     0
 10
60.218410999999989
 20
88.278568999999976
 30
0.0
 11
65.184410999999997
 21
88.278568999999976
 31
0.0
  0
LINE
  5
1A8
  8
DIM
 62
     0
 10
75.090411000000003
 20
88.278568999999976
 30
0.0
 11
70.124410999999995
 21
88.278568999999976
 31
0.0
  0
SOLID
  5
1A9
  8
DIM
 62
     0
 10
60.218410999999989
 20
88.518568999999985
 30
0.0
 11
60.218410999999989
 21
88.038568999999995
 31
0.0
 12
58.778410999999998
 22
88.278568999999976
 32
0.0
 13
58.778410999999998
 23
88.278568999999976
 33
0.0
  0
SOLID
  5
1AA
  8
DIM
 62
     0
 10
75.090411000000003
 20
88.518568999999985
 30
0.0
 11
75.090411000000003
 21
88.038568999999995
 31
0.0
 12
76.530411000000001
 22
88.278568999999976
 32
0.0
 13
76.530411000000001
 23
88.278568999999976
 33
0.0
  0
TEXT
  5
1AB
  8
OBJECT
 62
     0
 10
65.904410999999996
 20
87.77856899999999
 30
0.0
 40
1.0
  1
17.752
 41
0.75
  7
TXT
  0
POINT
  5
1AC
  8
DEFPOINTS
 62
     0
 10
58.778410999999998
 20
88.022857000000002
 30
0.0
  0
POINT
  5
1AD
  8
DEFPOINTS
 62
     0
 10
76.530411000000001
 20
88.022857000000002
 30
0.0
  0
POINT
  5
1AE
  8
DEFPOINTS
 62
     0
 10
76.530411000000001
 20
88.278568999999976
 30
0.0
  0
ENDBLK
  5
1B0
  8
0
  0
BLOCK
  8
0
  2
*D24
 70
     1
 10
0.0
 20
0.0
 30
0.0
  3
*D24
  1

  0
LINE
  5
1B3
  8
DIM
 62
     0
 10
57.693209000000003
 20
53.369884999999996
 30
0.0
 11
54.032530000000001
 21
53.369884999999996
 31
0.0
  0
LINE
  5
1B4
  8
DIM
 62
     0
 10
57.677208999999998
 20
95.369884999999996
 30
0.0
 11
54.032530000000008
 21
95.369884999999996
 31
0.0
  0
LINE
  5
1B5
  8
DIM
 62
     0
 10
54.776530000000001
 20
54.809884999999987
 30
0.0
 11
54.776530000000001
 21
73.149884999999998
 31
0.0
  0
LINE
  5
1B6
  8
DIM
 62
     0
 10
54.776530000000001
 20
93.929884999999985
 30
0.0
 11
54.776530000000001
 21
75.589884999999995
 31
0.0
  0
SOLID
  5
1B7
  8
DIM
 62
     0
 10
54.536529999999999
 20
54.809884999999987
 30
0.0
 11
55.01653000000001
 21
54.809884999999987
 31
0.0
 12
54.776530000000001
 22
53.369884999999996
 32
0.0
 13
54.776530000000001
 23
53.369884999999996
 33
0.0
  0
SOLID
  5
1B8
  8
DIM
 62
     0
 10
54.536529999999999
 20
93.929884999999985
 30
0.0
 11
55.01653000000001
 21
93.929884999999985
 31
0.0
 12
54.776530000000001
 22
95.369884999999996
 32
0.0
 13
54.776530000000001
 23
95.369884999999996
 33
0.0
  0
TEXT
  5
1B9
  8
OBJECT
 62
     0
 10
54.526529999999987
 20
73.869885000000011
 30
0.0
 40
1.0
  1
A
 41
0.75
  7
TXT
  0
POINT
  5
1BA
  8
DEFPOINTS
 62
     0
 10
58.197209000000001
 20
53.369884999999996
 30
0.0
  0
POINT
  5
1BB
  8
DEFPOINTS
 62
     0
 10
58.181209000000003
 20
95.369884999999996
 30
0.0
  0
POINT
  5
1BC
  8
DEFPOINTS
 62
     0
 10
54.776530000000001
 20
95.369884999999996
 30
0.0
  0
ENDBLK
  5
1BE
  8
0
  0
BLOCK
  8
0
  2
*D25
 70
     1
 10
0.0
 20
0.0
 30
0.0
  3
*D25
  1

  0
LINE
  5
1C4
  8
DIM
 62
     0
 10
64.41783199999999
 20
95.400885000000017
 30
0.0
 11
66.302267999999984
 21
95.400885000000017
 31
0.0
  0
LINE
  5
1C5
  8
DIM
 62
     0
 10
59.002625000000002
 20
95.119884999999996
 30
0.0
 11
66.302267999999984
 21
95.119884999999996
 31
0.0
  0
LINE
  5
1C6
  8
DIM
 62
     0
 10
65.558268000000012
 20
96.840885000000014
 30
0.0
 11
65.558268000000012
 21
98.280884999999984
 31
0.0
  0
LINE
  5
1C7
  8
DIM
 62
     0
 10
65.558267999999998
 20
93.679884999999999
 30
0.0
 11
65.558267999999998
 21
92.239885000000001
 31
0.0
  0
TEXT
  5
1C8
  8
OBJECT
 62
     0
 10
67.349767999999983
 20
94.760385000000014
 30
0.0
 40
1.0
  1
0.281
 41
0.75
  7
TXT
  0
SOLID
  5
1C9
  8
DIM
 62
     0
 10
65.318268000000003
 20
96.840885000000014
 30
0.0
 11
65.798268000000007
 21
96.840885000000014
 31
0.0
 12
65.558267999999998
 22
95.400885000000017
 32
0.0
 13
65.558267999999998
 23
95.400885000000017
 33
0.0
  0
SOLID
  5
1CA
  8
DIM
 62
     0
 10
65.318268000000003
 20
93.679884999999999
 30
0.0
 11
65.798267999999993
 21
93.679884999999999
 31
0.0
 12
65.558267999999998
 22
95.119884999999996
 32
0.0
 13
65.558267999999998
 23
95.119884999999996
 33
0.0
  0
POINT
  5
1CB
  8
DEFPOINTS
 62
     0
 10
63.913831999999992
 20
95.400885000000017
 30
0.0
  0
POINT
  5
1CC
  8
DEFPOINTS
 62
     0
 10
58.498624999999997
 20
95.119884999999996
 30
0.0
  0
POINT
  5
1CD
  8
DEFPOINTS
 62
     0
 10
65.558267999999998
 20
95.119884999999996
 30
0.0
  0
ENDBLK
  5
1CF
  8
0
  0
BLOCK
  8
0
  2
*D26
 70
     1
 10
0.0
 20
0.0
 30
0.0
  3
*D26
  1

  0
LINE
  5
1D2
  8
DIM
 62
     0
 10
61.894185999999991
 20
53.338884999999998
 30
0.0
 11
63.778620999999987
 21
53.338884999999998
 31
0.0
  0
LINE
  5
1D3
  8
DIM
 62
     0
 10
59.002625000000002
 20
53.619884999999989
 30
0.0
 11
63.778620999999987
 21
53.619884999999989
 31
0.0
  0
LINE
  5
1D4
  8
DIM
 62
     0
 10
63.034620999999987
 20
51.898885
 30
0.0
 11
63.034620999999987
 21
50.458885000000002
 31
0.0
  0
LINE
  5
1D5
  8
DIM
 62
     0
 10
63.034620999999987
 20
55.059884999999987
 30
0.0
 11
63.034620999999987
 21
56.499884999999999
 31
0.0
  0
TEXT
  5
1D6
  8
OBJECT
 62
     0
 10
64.826120999999986
 20
52.979385000000001
 30
0.0
 40
1.0
  1
0.281
 41
0.75
  7
TXT
  0
SOLID
  5
1D7
  8
DIM
 62
     0
 10
62.794620999999992
 20
51.898885
 30
0.0
 11
63.274620999999989
 21
51.898885
 31
0.0
 12
63.034620999999987
 22
53.338884999999998
 32
0.0
 13
63.034620999999987
 23
53.338884999999998
 33
0.0
  0
SOLID
  5
1D8
  8
DIM
 62
     0
 10
62.794620999999992
 20
55.059884999999987
 30
0.0
 11
63.274620999999989
 21
55.059884999999987
 31
0.0
 12
63.034620999999987
 22
53.619884999999989
 32
0.0
 13
63.034620999999987
 23
53.619884999999989
 33
0.0
  0
POINT
  5
1D9
  8
DEFPOINTS
 62
     0
 10
61.390185999999993
 20
53.338884999999998
 30
0.0
  0
POINT
  5
1DA
  8
DEFPOINTS
 62
     0
 10
58.498624999999997
 20
53.619884999999989
 30
0.0
  0
POINT
  5
1DB
  8
DEFPOINTS
 62
     0
 10
63.034620999999987
 20
53.619884999999989
 30
0.0
  0
ENDBLK
  5
1DD
  8
0
  0
BLOCK
  8
0
  2
*D27
 70
     1
 10
0.0
 20
0.0
 30
0.0
  3
*D27
  1

  0
LINE
  5
4EB
  8
DIM
 62
     0
 10
11.196553
 20
98.618385000000004
 30
0.0
 11
11.196553
 21
102.421322
 31
0.0
  0
LINE
  5
4EC
  8
DIM
 62
     0
 10
27.19698
 20
98.618385000000004
 30
0.0
 11
27.19698
 21
102.421322
 31
0.0
  0
LINE
  5
4ED
  8
DIM
 62
     0
 10
12.63655299999999
 20
101.677322
 30
0.0
 11
16.9142665
 21
101.677322
 31
0.0
  0
LINE
  5
4EE
  8
DIM
 62
     0
 10
25.756979999999999
 20
101.677322
 30
0.0
 11
21.479266500000001
 21
101.677322
 31
0.0
  0
SOLID
  5
4EF
  8
DIM
 62
     0
 10
12.63655299999999
 20
101.917322
 30
0.0
 11
12.63655299999999
 21
101.43732199999999
 31
0.0
 12
11.196553
 22
101.677322
 32
0.0
 13
11.196553
 23
101.677322
 33
0.0
  0
SOLID
  5
4F0
  8
DIM
 62
     0
 10
25.756979999999999
 20
101.917322
 30
0.0
 11
25.756979999999999
 21
101.43732199999999
 31
0.0
 12
27.19698
 22
101.677322
 32
0.0
 13
27.19698
 23
101.677322
 33
0.0
  0
TEXT
  5
4F1
  8
OBJECT
 62
     0
 10
17.634266499999988
 20
101.177322
 30
0.0
 40
1.0
  1
16.000
 41
0.75
  7
TXT
  0
POINT
  5
4F2
  8
DEFPOINTS
 62
     0
 10
11.196553
 20
98.114385000000013
 30
0.0
  0
POINT
  5
4F3
  8
DEFPOINTS
 62
     0
 10
27.19698
 20
98.114385000000013
 30
0.0
  0
POINT
  5
4F4
  8
DEFPOINTS
 62
     0
 10
27.19698
 20
101.677322
 30
0.0
  0
ENDBLK
  5
4F6
  8
0
  0
BLOCK
  8
0
  2
*D28
 70
     1
 10
0.0
 20
0.0
 30
0.0
  3
*D28
  1

  0
LINE
  5
4F9
  8
DIM
 62
     0
 10
27.19698
 20
98.618385000000004
 30
0.0
 11
27.19698
 21
102.421322
 31
0.0
  0
LINE
  5
4FA
  8
DIM
 62
     0
 10
29.44698
 20
99.618385000000004
 30
0.0
 11
29.44698
 21
102.421322
 31
0.0
  0
LINE
  5
4FB
  8
DIM
 62
     0
 10
25.756979999999999
 20
101.677322
 30
0.0
 11
24.316980000000001
 21
101.677322
 31
0.0
  0
LINE
  5
4FC
  8
DIM
 62
     0
 10
30.886980000000001
 20
101.677322
 30
0.0
 11
32.326979999999999
 21
101.677322
 31
0.0
  0
TEXT
  5
4FD
  8
OBJECT
 62
     0
 10
26.88448
 20
103.2813219999999
 30
0.0
 40
1.0
  1
2.250
 41
0.75
  7
TXT
  0
SOLID
  5
4FE
  8
DIM
 62
     0
 10
25.756979999999999
 20
101.917322
 30
0.0
 11
25.756979999999999
 21
101.43732199999999
 31
0.0
 12
27.19698
 22
101.677322
 32
0.0
 13
27.19698
 23
101.677322
 33
0.0
  0
SOLID
  5
4FF
  8
DIM
 62
     0
 10
30.886980000000001
 20
101.917322
 30
0.0
 11
30.886980000000001
 21
101.43732199999999
 31
0.0
 12
29.44698
 22
101.677322
 32
0.0
 13
29.44698
 23
101.677322
 33
0.0
  0
POINT
  5
500
  8
DEFPOINTS
 62
     0
 10
27.19698
 20
98.114385000000013
 30
0.0
  0
POINT
  5
501
  8
DEFPOINTS
 62
     0
 10
29.44698
 20
99.114384999999999
 30
0.0
  0
POINT
  5
502
  8
DEFPOINTS
 62
     0
 10
29.44698
 20
101.677322
 30
0.0
  0
ENDBLK
  5
504
  8
0
  0
BLOCK
  8
0
  2
*D29
 70
     1
 10
0.0
 20
0.0
 30
0.0
  3
*D29
  1

  0
LINE
  5
507
  8
DIM
 62
     0
 10
10.692553
 20
52.625384999999987
 30
0.0
 11
4.6340919999999901
 21
52.625384999999987
 31
0.0
  0
LINE
  5
508
  8
DIM
 62
     0
 10
10.692553
 20
96.114384999999999
 30
0.0
 11
4.634091999999999
 21
96.114384999999999
 31
0.0
  0
LINE
  5
509
  8
DIM
 62
     0
 10
5.3780919999999899
 20
54.065384999999992
 30
0.0
 11
5.3780919999999943
 21
73.149884999999998
 31
0.0
  0
LINE
  5
50A
  8
DIM
 62
     0
 10
5.3780919999999988
 20
94.674385000000001
 30
0.0
 11
5.3780919999999952
 21
75.589884999999995
 31
0.0
  0
SOLID
  5
50B
  8
DIM
 62
     0
 10
5.1380919999999897
 20
54.065384999999992
 30
0.0
 11
5.6180919999999901
 21
54.065384999999992
 31
0.0
 12
5.378091999999989
 22
52.625384999999987
 32
0.0
 13
5.378091999999989
 23
52.625384999999987
 33
0.0
  0
SOLID
  5
50C
  8
DIM
 62
     0
 10
5.1380919999999994
 20
94.674385000000001
 30
0.0
 11
5.618091999999999
 21
94.674385000000001
 31
0.0
 12
5.3780919999999988
 22
96.114384999999999
 32
0.0
 13
5.3780919999999988
 23
96.114384999999999
 33
0.0
  0
TEXT
  5
50D
  8
OBJECT
 62
     0
 10
5.1280919999999819
 20
73.869884999999996
 30
0.0
 40
1.0
  1
C
 41
0.75
  7
TXT
  0
POINT
  5
50E
  8
DEFPOINTS
 62
     0
 10
11.196553
 20
52.625384999999987
 30
0.0
  0
POINT
  5
50F
  8
DEFPOINTS
 62
     0
 10
11.196553
 20
96.114384999999999
 30
0.0
  0
POINT
  5
510
  8
DEFPOINTS
 62
     0
 10
5.3780919999999988
 20
96.114384999999999
 30
0.0
  0
ENDBLK
  5
512
  8
0
  0
BLOCK
  8
0
  2
*D30
 70
     1
 10
0.0
 20
0.0
 30
0.0
  3
*D30
  1

  0
LINE
  5
515
  8
DIM
 62
     0
 10
10.692553
 20
96.114384999999999
 30
0.0
 11
4.6340919999999981
 21
96.114384999999999
 31
0.0
  0
LINE
  5
516
  8
DIM
 62
     0
 10
10.692553
 20
98.114385000000013
 30
0.0
 11
4.634091999999999
 21
98.114385000000013
 31
0.0
  0
LINE
  5
517
  8
DIM
 62
     0
 10
5.3780919999999979
 20
94.674385000000001
 30
0.0
 11
5.378091999999997
 21
93.234384999999989
 31
0.0
  0
LINE
  5
518
  8
DIM
 62
     0
 10
5.3780919999999988
 20
99.554384999999996
 30
0.0
 11
5.3780919999999988
 21
100.99438499999989
 31
0.0
  0
SOLID
  5
519
  8
DIM
 62
     0
 10
5.1380919999999977
 20
94.674385000000001
 30
0.0
 11
5.6180919999999981
 21
94.674385000000001
 31
0.0
 12
5.3780919999999979
 22
96.114384999999999
 32
0.0
 13
5.3780919999999979
 23
96.114384999999999
 33
0.0
  0
SOLID
  5
51A
  8
DIM
 62
     0
 10
5.1380919999999994
 20
99.554384999999996
 30
0.0
 11
5.618091999999999
 21
99.554384999999996
 31
0.0
 12
5.3780919999999988
 22
98.114385000000013
 32
0.0
 13
5.3780919999999988
 23
98.114385000000013
 33
0.0
  0
TEXT
  5
51B
  8
OBJECT
 62
     0
 10
4.0655919999999828
 20
96.614384999999999
 30
0.0
 40
1.0
  1
2.000
 41
0.75
  7
TXT
  0
POINT
  5
51C
  8
DEFPOINTS
 62
     0
 10
11.196553
 20
96.114384999999999
 30
0.0
  0
POINT
  5
51D
  8
DEFPOINTS
 62
     0
 10
11.196553
 20
98.114385000000013
 30
0.0
  0
POINT
  5
51E
  8
DEFPOINTS
 62
     0
 10
5.3780919999999988
 20
98.114385000000013
 30
0.0
  0
ENDBLK
  5
520
  8
0
  0
BLOCK
  8
0
  2
*D31
 70
     1
 10
0.0
 20
0.0
 30
0.0
  3
*D31
  1

  0
LINE
  5
523
  8
DIM
 62
     0
 10
29.825980000000001
 20
49.438384999999997
 30
0.0
 11
33.17823099999999
 21
49.438384999999997
 31
0.0
  0
LINE
  5
524
  8
DIM
 62
     0
 10
29.950980000000001
 20
99.301384999999996
 30
0.0
 11
33.178230999999997
 21
99.301384999999982
 31
0.0
  0
LINE
  5
525
  8
DIM
 62
     0
 10
32.43423099999999
 20
50.878385000000002
 30
0.0
 11
32.43423099999999
 21
73.149884999999983
 31
0.0
  0
LINE
  5
526
  8
DIM
 62
     0
 10
32.43423099999999
 20
97.861384999999984
 30
0.0
 11
32.43423099999999
 21
75.589884999999981
 31
0.0
  0
SOLID
  5
527
  8
DIM
 62
     0
 10
32.194230999999981
 20
50.878385000000002
 30
0.0
 11
32.674230999999992
 21
50.878385000000002
 31
0.0
 12
32.43423099999999
 22
49.438384999999997
 32
0.0
 13
32.43423099999999
 23
49.438384999999997
 33
0.0
  0
SOLID
  5
528
  8
DIM
 62
     0
 10
32.194230999999988
 20
97.861384999999984
 30
0.0
 11
32.674230999999999
 21
97.861384999999984
 31
0.0
 12
32.43423099999999
 22
99.301384999999982
 32
0.0
 13
32.43423099999999
 23
99.301384999999982
 33
0.0
  0
TEXT
  5
529
  8
OBJECT
 62
     0
 10
32.184230999999983
 20
73.869884999999996
 30
0.0
 40
1.0
  1
B
 41
0.75
  7
TXT
  0
POINT
  5
52A
  8
DEFPOINTS
 62
     0
 10
29.321979999999989
 20
49.438384999999997
 30
0.0
  0
POINT
  5
52B
  8
DEFPOINTS
 62
     0
 10
29.44698
 20
99.301384999999996
 30
0.0
  0
POINT
  5
52C
  8
DEFPOINTS
 62
     0
 10
32.43423099999999
 20
99.301384999999982
 30
0.0
  0
ENDBLK
  5
52E
  8
0
  0
BLOCK
  8
0
  2
*D32
 70
     1
 10
0.0
 20
0.0
 30
0.0
  3
*D32
  1

  0
LINE
  5
592
  8
DIM
 62
     0
 10
10.692553
 20
98.114385000000013
 30
0.0
 11
2.193282
 21
98.114385000000013
 31
0.0
  0
LINE
  5
593
  8
DIM
 62
     0
 10
8.4427669999999981
 20
99.301384999999996
 30
0.0
 11
2.193282
 21
99.301384999999996
 31
0.0
  0
LINE
  5
594
  8
DIM
 62
     0
 10
2.9372819999999988
 20
96.674385000000015
 30
0.0
 11
2.9372819999999988
 21
95.234385000000003
 31
0.0
  0
LINE
  5
595
  8
DIM
 62
     0
 10
2.9372820000000002
 20
100.74138499999999
 30
0.0
 11
2.9372820000000002
 21
102.18138500000001
 31
0.0
  0
TEXT
  5
596
  8
OBJECT
 62
     0
 10
-0.4167180000000162
 20
98.207885000000005
 30
0.0
 40
1.0
  1
1.187
 41
0.75
  7
TXT
  0
SOLID
  5
597
  8
DIM
 62
     0
 10
2.6972819999999991
 20
96.674385000000015
 30
0.0
 11
3.1772819999999991
 21
96.674385000000015
 31
0.0
 12
2.9372819999999988
 22
98.114385000000013
 32
0.0
 13
2.9372819999999988
 23
98.114385000000013
 33
0.0
  0
SOLID
  5
598
  8
DIM
 62
     0
 10
2.697282
 20
100.74138499999999
 30
0.0
 11
3.1772819999999991
 21
100.74138499999999
 31
0.0
 12
2.9372820000000002
 22
99.301384999999996
 32
0.0
 13
2.9372820000000002
 23
99.301384999999996
 33
0.0
  0
POINT
  5
599
  8
DEFPOINTS
 62
     0
 10
11.196553
 20
98.114385000000013
 30
0.0
  0
POINT
  5
59A
  8
DEFPOINTS
 62
     0
 10
8.9467669999999995
 20
99.301384999999996
 30
0.0
  0
POINT
  5
59B
  8
DEFPOINTS
 62
     0
 10
2.9372820000000002
 20
99.301384999999996
 30
0.0
  0
ENDBLK
  5
59D
  8
0
  0
BLOCK
  8
0
  2
*D33
 70
     1
 10
0.0
 20
0.0
 30
0.0
  3
*D33
  1

  0
LINE
  5
5A0
  8
DIM
 62
     0
 10
8.9467669999999995
 20
99.805385000000015
 30
0.0
 11
8.9467669999999995
 21
104.66932199999989
 31
0.0
  0
LINE
  5
5A1
  8
DIM
 62
     0
 10
29.446767000000001
 20
99.805385000000015
 30
0.0
 11
29.446767000000001
 21
104.66932199999989
 31
0.0
  0
LINE
  5
5A2
  8
DIM
 62
     0
 10
10.38676699999999
 20
103.92532199999989
 30
0.0
 11
16.789266999999992
 21
103.92532199999989
 31
0.0
  0
LINE
  5
5A3
  8
DIM
 62
     0
 10
28.006766999999989
 20
103.92532199999989
 30
0.0
 11
21.604266999999989
 21
103.92532199999989
 31
0.0
  0
SOLID
  5
5A4
  8
DIM
 62
     0
 10
10.38676699999999
 20
104.1653219999999
 30
0.0
 11
10.38676699999999
 21
103.685322
 31
0.0
 12
8.9467669999999995
 22
103.92532199999989
 32
0.0
 13
8.9467669999999995
 23
103.92532199999989
 33
0.0
  0
SOLID
  5
5A5
  8
DIM
 62
     0
 10
28.006766999999989
 20
104.1653219999999
 30
0.0
 11
28.006766999999989
 21
103.685322
 31
0.0
 12
29.446767000000001
 22
103.92532199999989
 32
0.0
 13
29.446767000000001
 23
103.92532199999989
 33
0.0
  0
TEXT
  5
5A6
  8
OBJECT
 62
     0
 10
17.509266999999991
 20
103.42532199999989
 30
0.0
 40
1.0
  1
20.500
 41
0.75
  7
TXT
  0
POINT
  5
5A7
  8
DEFPOINTS
 62
     0
 10
8.9467669999999995
 20
99.301384999999996
 30
0.0
  0
POINT
  5
5A8
  8
DEFPOINTS
 62
     0
 10
29.446767000000001
 20
99.301384999999996
 30
0.0
  0
POINT
  5
5A9
  8
DEFPOINTS
 62
     0
 10
29.446767000000001
 20
103.92532199999989
 30
0.0
  0
ENDBLK
  5
5AB
  8
0
  0
BLOCK
  8
0
  2
*D34
 70
     1
 10
0.0
 20
0.0
 30
0.0
  3
*D34
  1

  0
LINE
  5
5AE
  8
DIM
 62
     0
 10
41.406356999999993
 20
99.680885000000004
 30
0.0
 11
41.406356999999993
 21
102.421322
 31
0.0
  0
LINE
  5
5AF
  8
DIM
 62
     0
 10
49.406357
 20
99.743385000000004
 30
0.0
 11
49.406357
 21
102.421322
 31
0.0
  0
LINE
  5
5B0
  8
DIM
 62
     0
 10
42.84635699999999
 20
101.677322
 30
0.0
 11
44.436357000000001
 21
101.677322
 31
0.0
  0
LINE
  5
5B1
  8
DIM
 62
     0
 10
47.966357000000002
 20
101.677322
 30
0.0
 11
46.376356999999992
 21
101.677322
 31
0.0
  0
SOLID
  5
5B2
  8
DIM
 62
     0
 10
42.84635699999999
 20
101.917322
 30
0.0
 11
42.84635699999999
 21
101.43732199999999
 31
0.0
 12
41.406356999999993
 22
101.677322
 32
0.0
 13
41.406356999999993
 23
101.677322
 33
0.0
  0
SOLID
  5
5B3
  8
DIM
 62
     0
 10
47.966357000000002
 20
101.917322
 30
0.0
 11
47.966357000000002
 21
101.43732199999999
 31
0.0
 12
49.406357
 22
101.677322
 32
0.0
 13
49.406357
 23
101.677322
 33
0.0
  0
TEXT
  5
5B4
  8
OBJECT
 62
     0
 10
45.156356999999993
 20
101.177322
 30
0.0
 40
1.0
  1
D
 41
0.75
  7
TXT
  0
POINT
  5
5B5
  8
DEFPOINTS
 62
     0
 10
41.406356999999993
 20
99.176884999999999
 30
0.0
  0
POINT
  5
5B6
  8
DEFPOINTS
 62
     0
 10
49.406357
 20
99.239384999999999
 30
0.0
  0
POINT
  5
5B7
  8
DEFPOINTS
 62
     0
 10
49.406357
 20
101.677322
 30
0.0
  0
ENDBLK
  5
5B9
  8
0
  0
BLOCK
  8
0
  2
*D35
 70
     1
 10
0.0
 20
0.0
 30
0.0
  3
*D35
  1

  0
LINE
  5
5BC
  8
DIM
 62
     0
 10
41.406356999999993
 20
99.680885000000004
 30
0.0
 11
41.406356999999993
 21
104.66932199999989
 31
0.0
  0
LINE
  5
5BD
  8
DIM
 62
     0
 10
49.500357000000001
 20
99.805385000000015
 30
0.0
 11
49.500357000000001
 21
104.66932199999989
 31
0.0
  0
LINE
  5
5BE
  8
DIM
 62
     0
 10
42.84635699999999
 20
103.92532199999989
 30
0.0
 11
44.483356999999998
 21
103.92532199999989
 31
0.0
  0
LINE
  5
5BF
  8
DIM
 62
     0
 10
48.060357000000003
 20
103.92532199999989
 30
0.0
 11
46.423356999999989
 21
103.92532199999989
 31
0.0
  0
SOLID
  5
5C0
  8
DIM
 62
     0
 10
42.84635699999999
 20
104.1653219999999
 30
0.0
 11
42.84635699999999
 21
103.685322
 31
0.0
 12
41.406356999999993
 22
103.92532199999989
 32
0.0
 13
41.406356999999993
 23
103.92532199999989
 33
0.0
  0
SOLID
  5
5C1
  8
DIM
 62
     0
 10
48.060357000000003
 20
104.1653219999999
 30
0.0
 11
48.060357000000003
 21
103.685322
 31
0.0
 12
49.500357000000001
 22
103.92532199999989
 32
0.0
 13
49.500357000000001
 23
103.92532199999989
 33
0.0
  0
TEXT
  5
5C2
  8
OBJECT
 62
     0
 10
45.20335699999999
 20
103.42532199999989
 30
0.0
 40
1.0
  1
E
 41
0.75
  7
TXT
  0
POINT
  5
5C3
  8
DEFPOINTS
 62
     0
 10
41.406356999999993
 20
99.176884999999999
 30
0.0
  0
POINT
  5
5C4
  8
DEFPOINTS
 62
     0
 10
49.500357000000001
 20
99.301384999999996
 30
0.0
  0
POINT
  5
5C5
  8
DEFPOINTS
 62
     0
 10
49.500357000000001
 20
103.92532199999989
 30
0.0
  0
ENDBLK
  5
5C7
  8
0
  0
BLOCK
  8
0
  2
*D36
 70
     1
 10
0.0
 20
0.0
 30
0.0
  3
*D36
  1

  0
LINE
  5
5CA
  8
DIM
 62
     0
 10
41.011356999999997
 20
99.239384999999999
 30
0.0
 11
37.202565
 21
99.239384999999999
 31
0.0
  0
LINE
  5
5CB
  8
DIM
 62
     0
 10
40.902357000000002
 20
95.301384999999996
 30
0.0
 11
37.202565
 21
95.301384999999996
 31
0.0
  0
LINE
  5
5CC
  8
DIM
 62
     0
 10
37.946565
 20
100.6793849999999
 30
0.0
 11
37.946565
 21
102.11938499999989
 31
0.0
  0
LINE
  5
5CD
  8
DIM
 62
     0
 10
37.946565
 20
93.861384999999984
 30
0.0
 11
37.946565
 21
92.421385000000015
 31
0.0
  0
SOLID
  5
5CE
  8
DIM
 62
     0
 10
37.706564999999991
 20
100.6793849999999
 30
0.0
 11
38.186565000000002
 21
100.6793849999999
 31
0.0
 12
37.946565
 22
99.239384999999999
 32
0.0
 13
37.946565
 23
99.239384999999999
 33
0.0
  0
SOLID
  5
5CF
  8
DIM
 62
     0
 10
37.706564999999991
 20
93.861384999999984
 30
0.0
 11
38.186565000000002
 21
93.861384999999984
 31
0.0
 12
37.946565
 22
95.301384999999996
 32
0.0
 13
37.946565
 23
95.301384999999996
 33
0.0
  0
TEXT
  5
5D0
  8
OBJECT
 62
     0
 10
36.446564999999978
 20
96.770385000000005
 30
0.0
 40
1.0
  1
3.938
 41
0.75
  7
TXT
  0
POINT
  5
5D1
  8
DEFPOINTS
 62
     0
 10
41.515357000000002
 20
99.239384999999999
 30
0.0
  0
POINT
  5
5D2
  8
DEFPOINTS
 62
     0
 10
41.406356999999993
 20
95.301384999999996
 30
0.0
  0
POINT
  5
5D3
  8
DEFPOINTS
 62
     0
 10
37.946565
 20
95.301384999999996
 30
0.0
  0
ENDBLK
  5
5D5
  8
0
  0
BLOCK
  8
0
  2
*D37
 70
     1
 10
0.0
 20
0.0
 30
0.0
  3
*D37
  1

  0
LINE
  5
5D8
  8
DIM
 62
     0
 10
41.011356999999997
 20
49.500384999999987
 30
0.0
 11
37.202565
 21
49.500384999999987
 31
0.0
  0
LINE
  5
5D9
  8
DIM
 62
     0
 10
40.902357000000002
 20
53.438384999999997
 30
0.0
 11
37.202565
 21
53.438384999999997
 31
0.0
  0
LINE
  5
5DA
  8
DIM
 62
     0
 10
37.946565
 20
48.060384999999989
 30
0.0
 11
37.946564999999993
 21
46.620384999999992
 31
0.0
  0
LINE
  5
5DB
  8
DIM
 62
     0
 10
37.946565
 20
54.878384999999987
 30
0.0
 11
37.946565
 21
56.318384999999999
 31
0.0
  0
SOLID
  5
5DC
  8
DIM
 62
     0
 10
37.706564999999991
 20
48.060384999999989
 30
0.0
 11
38.186565000000002
 21
48.060384999999989
 31
0.0
 12
37.946565
 22
49.500384999999987
 32
0.0
 13
37.946565
 23
49.500384999999987
 33
0.0
  0
SOLID
  5
5DD
  8
DIM
 62
     0
 10
37.706564999999991
 20
54.878384999999987
 30
0.0
 11
38.186565000000002
 21
54.878384999999987
 31
0.0
 12
37.946565
 22
53.438384999999997
 32
0.0
 13
37.946565
 23
53.438384999999997
 33
0.0
  0
TEXT
  5
5DE
  8
OBJECT
 62
     0
 10
36.446564999999978
 20
50.969385000000003
 30
0.0
 40
1.0
  1
3.938
 41
0.75
  7
TXT
  0
POINT
  5
5DF
  8
DEFPOINTS
 62
     0
 10
41.515357000000002
 20
49.500384999999987
 30
0.0
  0
POINT
  5
5E0
  8
DEFPOINTS
 62
     0
 10
41.406356999999993
 20
53.438384999999997
 30
0.0
  0
POINT
  5
5E1
  8
DEFPOINTS
 62
     0
 10
37.946565
 20
53.438384999999997
 30
0.0
  0
ENDBLK
  5
5E3
  8
0
  0
BLOCK
  8
0
  2
*D38
 70
     1
 10
0.0
 20
0.0
 30
0.0
  3
*D38
  1

  0
LINE
  5
5E6
  8
DIM
 62
     0
 10
10.692553
 20
52.625384999999987
 30
0.0
 11
4.634091999999999
 21
52.625384999999987
 31
0.0
  0
LINE
  5
5E7
  8
DIM
 62
     0
 10
10.692553
 20
50.625384999999987
 30
0.0
 11
4.634091999999999
 21
50.625384999999987
 31
0.0
  0
LINE
  5
5E8
  8
DIM
 62
     0
 10
5.3780919999999997
 20
54.065384999999992
 30
0.0
 11
5.3780919999999997
 21
55.505384999999997
 31
0.0
  0
LINE
  5
5E9
  8
DIM
 62
     0
 10
5.3780919999999979
 20
49.185384999999997
 30
0.0
 11
5.3780919999999979
 21
47.745384999999992
 31
0.0
  0
SOLID
  5
5EA
  8
DIM
 62
     0
 10
5.1380920000000003
 20
54.065384999999992
 30
0.0
 11
5.6180919999999999
 21
54.065384999999992
 31
0.0
 12
5.3780919999999988
 22
52.625384999999987
 32
0.0
 13
5.3780919999999988
 23
52.625384999999987
 33
0.0
  0
SOLID
  5
5EB
  8
DIM
 62
     0
 10
5.1380919999999977
 20
49.185384999999997
 30
0.0
 11
5.6180919999999981
 21
49.185384999999997
 31
0.0
 12
5.3780919999999988
 22
50.625384999999987
 32
0.0
 13
5.3780919999999988
 23
50.625384999999987
 33
0.0
  0
TEXT
  5
5EC
  8
OBJECT
 62
     0
 10
4.0655919999999908
 20
51.125384999999987
 30
0.0
 40
1.0
  1
2.000
 41
0.75
  7
TXT
  0
POINT
  5
5ED
  8
DEFPOINTS
 62
     0
 10
11.196553
 20
52.625384999999987
 30
0.0
  0
POINT
  5
5EE
  8
DEFPOINTS
 62
     0
 10
11.196553
 20
50.625384999999987
 30
0.0
  0
POINT
  5
5EF
  8
DEFPOINTS
 62
     0
 10
5.3780919999999988
 20
50.625384999999987
 30
0.0
  0
ENDBLK
  5
5F1
  8
0
  0
BLOCK
  8
0
  2
*D39
 70
     1
 10
0.0
 20
0.0
 30
0.0
  3
*D39
  1

  0
LINE
  5
5F4
  8
DIM
 62
     0
 10
72.467461
 20
95.400885000000017
 30
0.0
 11
71.622960999999975
 21
95.400885000000017
 31
0.0
  0
LINE
  5
5F5
  8
DIM
 62
     0
 10
72.467461
 20
99.301384999999996
 30
0.0
 11
71.622961000000004
 21
99.301384999999996
 31
0.0
  0
LINE
  5
5F6
  8
DIM
 62
     0
 10
72.366960999999989
 20
93.960885000000005
 30
0.0
 11
72.366960999999989
 21
92.520885000000007
 31
0.0
  0
LINE
  5
5F7
  8
DIM
 62
     0
 10
72.366961000000003
 20
100.74138499999999
 30
0.0
 11
72.366961000000003
 21
102.18138500000001
 31
0.0
  0
SOLID
  5
5F8
  8
DIM
 62
     0
 10
72.126960999999994
 20
93.960885000000005
 30
0.0
 11
72.606960999999984
 21
93.960885000000005
 31
0.0
 12
72.366960999999989
 22
95.400885000000017
 32
0.0
 13
72.366960999999989
 23
95.400885000000017
 33
0.0
  0
SOLID
  5
5F9
  8
DIM
 62
     0
 10
72.126961000000009
 20
100.74138499999999
 30
0.0
 11
72.606960999999998
 21
100.74138499999999
 31
0.0
 12
72.366961000000003
 22
99.301384999999996
 32
0.0
 13
72.366961000000003
 23
99.301384999999996
 33
0.0
  0
TEXT
  5
5FA
  8
OBJECT
 62
     0
 10
71.054460999999975
 20
96.851135000000014
 30
0.0
 40
1.0
  1
3.901
 41
0.75
  7
TXT
  0
POINT
  5
5FB
  8
DEFPOINTS
 62
     0
 10
72.971461000000005
 20
95.400885000000017
 30
0.0
  0
POINT
  5
5FC
  8
DEFPOINTS
 62
     0
 10
72.971461000000005
 20
99.301384999999996
 30
0.0
  0
POINT
  5
5FD
  8
DEFPOINTS
 62
     0
 10
72.366961000000003
 20
99.301384999999996
 30
0.0
  0
ENDBLK
  5
5FF
  8
0
  0
BLOCK
  8
0
  2
*D40
 70
     1
 10
0.0
 20
0.0
 30
0.0
  3
*D40
  1

  0
LINE
  5
602
  8
DIM
 62
     0
 10
72.467461
 20
53.338884999999998
 30
0.0
 11
71.622961000000004
 21
53.338884999999998
 31
0.0
  0
LINE
  5
603
  8
DIM
 62
     0
 10
72.467461
 20
49.438384999999997
 30
0.0
 11
71.622961000000004
 21
49.438384999999997
 31
0.0
  0
LINE
  5
604
  8
DIM
 62
     0
 10
72.366961000000003
 20
54.778884999999988
 30
0.0
 11
72.366961000000003
 21
56.218885
 31
0.0
  0
LINE
  5
605
  8
DIM
 62
     0
 10
72.366961000000003
 20
47.998384999999992
 30
0.0
 11
72.366961000000003
 21
46.558384999999987
 31
0.0
  0
SOLID
  5
606
  8
DIM
 62
     0
 10
72.126961000000009
 20
54.778884999999988
 30
0.0
 11
72.606960999999998
 21
54.778884999999988
 31
0.0
 12
72.366961000000003
 22
53.338884999999998
 32
0.0
 13
72.366961000000003
 23
53.338884999999998
 33
0.0
  0
SOLID
  5
607
  8
DIM
 62
     0
 10
72.126961000000009
 20
47.998384999999992
 30
0.0
 11
72.606960999999998
 21
47.998384999999992
 31
0.0
 12
72.366961000000003
 22
49.438384999999997
 32
0.0
 13
72.366961000000003
 23
49.438384999999997
 33
0.0
  0
TEXT
  5
608
  8
OBJECT
 62
     0
 10
71.054460999999989
 20
50.888635000000001
 30
0.0
 40
1.0
  1
3.901
 41
0.75
  7
TXT
  0
POINT
  5
609
  8
DEFPOINTS
 62
     0
 10
72.971461000000005
 20
53.338884999999998
 30
0.0
  0
POINT
  5
60A
  8
DEFPOINTS
 62
     0
 10
72.971461000000005
 20
49.438384999999997
 30
0.0
  0
POINT
  5
60B
  8
DEFPOINTS
 62
     0
 10
72.366961000000003
 20
49.438384999999997
 30
0.0
  0
ENDBLK
  5
60D
  8
0
  0
BLOCK
  8
0
  2
*D41
 70
     1
 10
0.0
 20
0.0
 30
0.0
  3
*D41
  1

  0
LINE
  5
667
  8
DIM
 62
     0
 10
26.07198
 20
43.816705999999989
 30
0.0
 11
26.07198
 21
45.566735999999992
 31
0.0
  0
LINE
  5
668
  8
DIM
 62
     0
 10
29.44698
 20
43.691705999999989
 30
0.0
 11
29.44698
 21
45.566735999999992
 31
0.0
  0
LINE
  5
669
  8
DIM
 62
     0
 10
24.631979999999999
 20
44.822735999999999
 30
0.0
 11
23.191980000000001
 21
44.822735999999999
 31
0.0
  0
LINE
  5
66A
  8
DIM
 62
     0
 10
30.886980000000001
 20
44.822735999999999
 30
0.0
 11
32.326979999999999
 21
44.822735999999999
 31
0.0
  0
TEXT
  5
66B
  8
OBJECT
 62
     0
 10
26.25948
 20
46.426735999999998
 30
0.0
 40
1.0
  1
3.375
 41
0.75
  7
TXT
  0
SOLID
  5
66C
  8
DIM
 62
     0
 10
24.631979999999999
 20
45.062736000000001
 30
0.0
 11
24.631979999999999
 21
44.582735999999997
 31
0.0
 12
26.07198
 22
44.822735999999999
 32
0.0
 13
26.07198
 23
44.822735999999999
 33
0.0
  0
SOLID
  5
66D
  8
DIM
 62
     0
 10
30.886980000000001
 20
45.062736000000001
 30
0.0
 11
30.886980000000001
 21
44.582735999999997
 31
0.0
 12
29.44698
 22
44.822735999999999
 32
0.0
 13
29.44698
 23
44.822735999999999
 33
0.0
  0
POINT
  5
66E
  8
DEFPOINTS
 62
     0
 10
26.07198
 20
43.312705999999991
 30
0.0
  0
POINT
  5
66F
  8
DEFPOINTS
 62
     0
 10
29.44698
 20
43.187705999999991
 30
0.0
  0
POINT
  5
670
  8
DEFPOINTS
 62
     0
 10
29.44698
 20
44.822735999999999
 30
0.0
  0
ENDBLK
  5
672
  8
0
  0
BLOCK
  8
0
  2
*D42
 70
     1
 10
0.0
 20
0.0
 30
0.0
  3
*D42
  1

  0
LINE
  5
675
  8
DIM
 62
     0
 10
12.321553
 20
43.816705999999989
 30
0.0
 11
12.321553
 21
45.566735999999992
 31
0.0
  0
LINE
  5
676
  8
DIM
 62
     0
 10
8.9465529999999998
 20
43.691705999999989
 30
0.0
 11
8.9465529999999998
 21
45.566735999999992
 31
0.0
  0
LINE
  5
677
  8
DIM
 62
     0
 10
13.76155299999999
 20
44.822735999999999
 30
0.0
 11
15.201553000000001
 21
44.822735999999999
 31
0.0
  0
LINE
  5
678
  8
DIM
 62
     0
 10
7.5065530000000003
 20
44.822735999999999
 30
0.0
 11
6.066552999999999
 21
44.822735999999999
 31
0.0
  0
TEXT
  5
679
  8
OBJECT
 62
     0
 10
9.1340529999999998
 20
46.426735999999998
 30
0.0
 40
1.0
  1
3.375
 41
0.75
  7
TXT
  0
SOLID
  5
67A
  8
DIM
 62
     0
 10
13.76155299999999
 20
45.062736000000001
 30
0.0
 11
13.76155299999999
 21
44.582735999999997
 31
0.0
 12
12.321553
 22
44.822735999999999
 32
0.0
 13
12.321553
 23
44.822735999999999
 33
0.0
  0
SOLID
  5
67B
  8
DIM
 62
     0
 10
7.5065530000000003
 20
45.062736000000001
 30
0.0
 11
7.5065530000000003
 21
44.582735999999997
 31
0.0
 12
8.9465529999999998
 22
44.822735999999999
 32
0.0
 13
8.9465529999999998
 23
44.822735999999999
 33
0.0
  0
POINT
  5
67C
  8
DEFPOINTS
 62
     0
 10
12.321553
 20
43.312705999999991
 30
0.0
  0
POINT
  5
67D
  8
DEFPOINTS
 62
     0
 10
8.9465529999999998
 20
43.187705999999991
 30
0.0
  0
POINT
  5
67E
  8
DEFPOINTS
 62
     0
 10
8.9465529999999998
 20
44.822735999999999
 30
0.0
  0
ENDBLK
  5
680
  8
0
  0
ENDSEC
  0
SECTION
  2
ENTITIES
  0
INSERT
  5
15D
  8
OBJECT
  2
HB
 10
0.0
 20
0.0
 30
0.0
 41
8.0
 42
8.0
 43
8.0
  0
TEXT
  5
15E
  8
TEXT
 10
42.665817999999987
 20
22.808239999999991
 30
0.0
 40
1.0
  1
%%UMATERIAL:
 41
0.75
  7
TXT
  0
TEXT
  5
15F
  8
TEXT
 10
43.819009999999999
 20
21.141573000000001
 30
0.0
 40
1.0
  1
UPRIGHTS
 41
0.75
  7
TXT
  0
TEXT
  5
160
  8
TEXT
 10
43.819009999999999
 20
19.474906000000001
 30
0.0
 40
1.0
  1
MOUNTING BRACKETS.
 41
0.75
  7
TXT
  0
TEXT
  5
161
  8
TEXT
 10
43.819009999999999
 20
17.808239999999991
 30
0.0
 40
1.0
  1
HORIZONTAL ANGLES
 41
0.75
  7
TXT
  0
TEXT
  5
162
  8
TEXT
 10
62.109616000000003
 20
21.185835999999998
 30
0.0
 40
1.0
  1
ALUMINUM EXTRUSION
 41
0.75
  7
TXT
  0
TEXT
  5
163
  8
TEXT
 10
62.109616000000003
 20
19.43309
 30
0.0
 40
1.0
  1
12 GA. STEEL
 41
0.75
  7
TXT
  0
TEXT
  5
164
  8
TEXT
 10
62.109616000000003
 20
17.766422999999989
 30
0.0
 40
1.0
  1
16 GA. STEEL
 41
0.75
  7
TXT
  0
LINE
  5
165
  8
TEXT
 10
49.720373000000002
 20
21.118893
 30
0.0
 11
61.45753599999999
 21
21.118893
 31
0.0
  0
LINE
  5
166
  8
TEXT
 10
56.861278000000013
 20
19.471726
 30
0.0
 11
61.45753599999999
 21
19.471726
 31
0.0
  0
LINE
  5
167
  8
TEXT
 10
56.502920000000003
 20
17.786252999999991
 30
0.0
 11
61.45753599999999
 21
17.786252999999991
 31
0.0
  0
TEXT
  5
168
  8
TEXT
 10
42.796791999999989
 20
14.415305999999999
 30
0.0
 40
1.0
  1
%%UFINISH:
 41
0.75
  7
TXT
  0
TEXT
  5
169
  8
TEXT
 10
62.109616000000003
 20
12.792902
 30
0.0
 40
1.0
  1
NATURAL
 41
0.75
  7
TXT
  0
LINE
  5
16A
  8
TEXT
 10
50.072113999999999
 20
12.725959
 30
0.0
 11
61.45753599999999
 21
12.725959
 31
0.0
  0
TEXT
  5
16B
  8
TEXT
 10
43.819009999999999
 20
12.748639000000001
 30
0.0
 40
1.0
  1
UPRIGHTS
 41
0.75
  7
TXT
  0
TEXT
  5
16C
  8
TEXT
 10
4.8497519999999987
 20
13.67283599999999
 30
0.0
 40
1.0
  1
UNITS ARE SHIPPED UNASSEMBLED
 41
0.75
  7
TXT
  0
TEXT
  5
16D
  8
TEXT
 10
4.8497519999999987
 20
11.059291999999999
 30
0.0
 40
1.0
  1
UPRIGHTS ARE TAPPED #12-24 ON E.I.A.
 41
0.75
  7
TXT
  0
TEXT
  5
16E
  8
TEXT
 10
4.8497519999999987
 20
9.3926259999999981
 30
0.0
 40
1.0
  1
UNIVERSAL SPACING (FRONT & REAR)
 41
0.75
  7
TXT
  0
TEXT
  5
16F
  8
TEXT
 10
13.64425
 20
121.20699999999999
 30
0.0
 40
1.25
  1
WALL MOUNT RELAY RACK
 41
0.75
  7
TXT
 72
     4
 11
23.488
 21
121.83199999999999
 31
0.0
  0
LINE
  5
170
  8
TITLE
 10
12.654
 20
7.1840000000000002
 30
0.0
 11
12.654
 21
0.496
 31
0.0
  0
TEXT
  5
171
  8
TEXT
 10
3.7184669999999991
 20
5.8470360000000001
 30
0.0
 40
1.0
  1
PART No.
 41
0.75
  7
TXT
 72
     1
 11
6.3434669999999986
 21
5.8470360000000001
 31
0.0
  0
TEXT
  5
172
  8
TEXT
 10
3.3434669999999991
 20
4.1803689999999998
 30
0.0
 40
1.0
  1
WRR-2242
 41
0.75
  7
TXT
 72
     1
 11
6.3434669999999986
 21
4.1803689999999998
 31
0.0
  0
LINE
  5
173
  8
TITLE
 10
26.21599999999999
 20
7.1840000000000002
 30
0.0
 11
26.21599999999999
 21
0.496
 31
0.0
  0
TEXT
  5
174
  8
TEXT
 10
19.184999999999992
 20
5.8470360000000001
 30
0.0
 40
1.0
  1
A
 41
0.75
  7
TXT
 72
     1
 11
19.434999999999999
 21
5.8470360000000001
 31
0.0
  0
TEXT
  5
175
  8
TEXT
 10
17.747499999999999
 20
4.1803689999999998
 30
0.0
 40
1.0
  1
42.000
 41
0.75
  7
TXT
 72
     1
 11
19.434999999999999
 21
4.1803689999999998
 31
0.0
  0
TEXT
  5
176
  8
TEXT
 10
31.122
 20
4.1803689999999998
 30
0.0
 40
1.0
  1
49.863
 41
0.75
  7
TXT
 72
     1
 11
32.997
 21
4.1803689999999998
 31
0.0
  0
TEXT
  5
177
  8
TEXT
 10
32.747
 20
5.8470360000000001
 30
0.0
 40
1.0
  1
B
 41
0.75
  7
TXT
 72
     1
 11
32.997
 21
5.8470360000000001
 31
0.0
  0
TEXT
  5
178
  8
TEXT
 10
44.68399999999999
 20
4.1803689999999998
 30
0.0
 40
1.0
  1
43.489
 41
0.75
  7
TXT
 72
     1
 11
46.55899999999999
 21
4.1803689999999998
 31
0.0
  0
TEXT
  5
179
  8
TEXT
 10
46.30899999999999
 20
5.8470360000000001
 30
0.0
 40
1.0
  1
C
 41
0.75
  7
TXT
 72
     1
 11
46.55899999999999
 21
5.8470360000000001
 31
0.0
  0
LINE
  5
17A
  8
TEXT
 10
57.47255899999999
 20
9.3926259999999981
 30
0.0
 11
61.45753599999999
 21
9.3926259999999981
 31
0.0
  0
TEXT
  5
17B
  8
TEXT
 10
44.460667999999991
 20
9.4153059999999993
 30
0.0
 40
1.0
  1
MOUNTING BRACKETS
 41
0.75
  7
TXT
  0
TEXT
  5
17C
  8
TEXT
 10
62.109616000000003
 20
9.4595690000000001
 30
0.0
 40
1.0
  1
METALLIC GRAY
 41
0.75
  7
TXT
  0
TEXT
  5
17D
  8
TEXT
 10
43.857329999999997
 20
11.100778999999999
 30
0.0
 40
1.0
  1
HORIZONTAL ANGLES &
 41
0.75
  7
TXT
  0
LINE
  5
17E
  8
TITLE
 10
66.902000000000001
 20
7.1840000000000002
 30
0.0
 11
66.902000000000001
 21
0.496
 31
0.0
  0
LINE
  5
17F
  8
TITLE
 10
53.340000000000003
 20
7.1840000000000002
 30
0.0
 11
53.340000000000003
 21
0.496
 31
0.0
  0
LINE
  5
180
  8
TITLE
 10
39.777999999999999
 20
7.1840000000000002
 30
0.0
 11
39.777999999999999
 21
0.496
 31
0.0
  0
TEXT
  5
181
  8
TEXT
 10
58.808500000000002
 20
4.1803689999999998
 30
0.0
 40
1.0
  1
8.000
 41
0.75
  7
TXT
 72
     1
 11
60.121000000000002
 21
4.1803689999999998
 31
0.0
  0
TEXT
  5
182
  8
TEXT
 10
59.871000000000002
 20
5.8470360000000001
 30
0.0
 40
1.0
  1
D
 41
0.75
  7
TXT
 72
     1
 11
60.121000000000002
 21
5.8470360000000001
 31
0.0
  0
TEXT
  5
183
  8
TEXT
 10
72.245500000000007
 20
4.1803689999999998
 30
0.0
 40
1.0
  1
8.094
 41
0.75
  7
TXT
 72
     1
 11
73.683000000000007
 21
4.1803689999999998
 31
0.0
  0
TEXT
  5
184
  8
TEXT
 10
73.433000000000007
 20
5.8470360000000001
 30
0.0
 40
1.0
  1
E
 41
0.75
  7
TXT
 72
     1
 11
73.683000000000007
 21
5.8470360000000001
 31
0.0
  0
LINE
  5
185
  8
TITLE
 10
80.463999999999999
 20
2.1680000000000001
 30
0.0
 11
0.496
 21
2.1680000000000001
 31
0.0
  0
LINE
  5
186
  8
TITLE
 10
80.463999999999999
 20
3.839999999999999
 30
0.0
 11
0.496
 21
3.839999999999999
 31
0.0
  0
LINE
  5
187
  8
TITLE
 10
80.463999999999999
 20
5.5119999999999996
 30
0.0
 11
0.496
 21
5.5119999999999996
 31
0.0
  0
LINE
  5
188
  8
TITLE
 10
80.463999999999999
 20
7.1840000000000002
 30
0.0
 11
0.496
 21
7.1840000000000002
 31
0.0
  0
TEXT
  5
189
  8
TEXT
 10
3.3434669999999991
 20
2.5083690000000001
 30
0.0
 40
1.0
  1
WRR-2243
 41
0.75
  7
TXT
 72
     1
 11
6.3434669999999986
 21
2.5083690000000001
 31
0.0
  0
TEXT
  5
18A
  8
TEXT
 10
17.747499999999999
 20
2.5083690000000001
 30
0.0
 40
1.0
  1
42.000
 41
0.75
  7
TXT
 72
     1
 11
19.434999999999999
 21
2.5083690000000001
 31
0.0
  0
TEXT
  5
18B
  8
TEXT
 10
31.122
 20
2.5083690000000001
 30
0.0
 40
1.0
  1
49.863
 41
0.75
  7
TXT
 72
     1
 11
32.997
 21
2.5083690000000001
 31
0.0
  0
TEXT
  5
18C
  8
TEXT
 10
44.68399999999999
 20
2.5083690000000001
 30
0.0
 40
1.0
  1
43.489
 41
0.75
  7
TXT
 72
     1
 11
46.55899999999999
 21
2.5083690000000001
 31
0.0
  0
TEXT
  5
18D
  8
TEXT
 10
58.558500000000002
 20
2.5083690000000001
 30
0.0
 40
1.0
  1
12.000
 41
0.75
  7
TXT
 72
     1
 11
60.121000000000002
 21
2.5083690000000001
 31
0.0
  0
TEXT
  5
18E
  8
TEXT
 10
71.995500000000007
 20
2.5083690000000001
 30
0.0
 40
1.0
  1
12.094
 41
0.75
  7
TXT
 72
     1
 11
73.683000000000007
 21
2.5083690000000001
 31
0.0
  0
TEXT
  5
18F
  8
TEXT
 10
3.3434669999999991
 20
0.836369
 30
0.0
 40
1.0
  1
WRR-2244
 41
0.75
  7
TXT
 72
     1
 11
6.3434669999999986
 21
0.836369
 31
0.0
  0
TEXT
  5
190
  8
TEXT
 10
17.747499999999999
 20
0.836369
 30
0.0
 40
1.0
  1
42.000
 41
0.75
  7
TXT
 72
     1
 11
19.434999999999999
 21
0.836369
 31
0.0
  0
TEXT
  5
191
  8
TEXT
 10
31.122
 20
0.836369
 30
0.0
 40
1.0
  1
49.863
 41
0.75
  7
TXT
 72
     1
 11
32.997
 21
0.836369
 31
0.0
  0
TEXT
  5
192
  8
TEXT
 10
44.68399999999999
 20
0.836369
 30
0.0
 40
1.0
  1
43.489
 41
0.75
  7
TXT
 72
     1
 11
46.55899999999999
 21
0.836369
 31
0.0
  0
TEXT
  5
193
  8
TEXT
 10
58.558500000000002
 20
0.836369
 30
0.0
 40
1.0
  1
18.000
 41
0.75
  7
TXT
 72
     1
 11
60.121000000000002
 21
0.836369
 31
0.0
  0
TEXT
  5
194
  8
TEXT
 10
71.995500000000007
 20
0.836369
 30
0.0
 40
1.0
  1
18.094
 41
0.75
  7
TXT
 72
     1
 11
73.683000000000007
 21
0.836369
 31
0.0
  0
DIMENSION
  5
195
  8
DIM
 62
     7
  2
*D22
 10
76.810411000000002
 20
85.641536000000002
 30
0.0
 11
67.654410999999996
 21
85.641536000000002
 31
0.0
 70
     0
  1
<>
 13
58.49841099999999
 23
84.557384999999996
 33
0.0
 14
76.810411000000002
 24
84.557384999999996
 34
0.0
  0
DIMENSION
  5
1A3
  8
DIM
 62
     7
  2
*D23
 10
76.530411000000001
 20
88.278568999999976
 30
0.0
 11
67.654410999999996
 21
88.278568999999976
 31
0.0
 70
     0
 13
58.778410999999998
 23
88.022857000000002
 33
0.0
 14
76.530411000000001
 24
88.022857000000002
 34
0.0
  0
DIMENSION
  5
1B1
  8
DIM
 62
     7
  2
*D24
 10
54.776530000000001
 20
95.369884999999996
 30
0.0
 11
54.776530000000001
 21
74.369885000000011
 31
0.0
 70
     0
  1
A
 13
58.197209000000001
 23
53.369884999999996
 33
0.0
 14
58.181209000000003
 24
95.369884999999996
 34
0.0
 50
90.0
  0
TEXT
  5
1BF
  8
TEXT
 62
     7
 10
63.891910999999993
 20
46.547001000000002
 30
0.0
 40
1.0
  1
%%UFRONT VIEW
 41
0.75
  7
TXT
 72
     1
 11
67.654410999999996
 21
46.547001000000002
 31
0.0
  0
TEXT
  5
1C0
  8
TEXT
 62
     7
 10
42.407550000000001
 20
46.547001000000002
 30
0.0
 40
1.0
  1
%%USIDE VIEW
 41
0.75
  7
TXT
 72
     1
 11
45.670050000000003
 21
46.547001000000002
 31
0.0
  0
TEXT
  5
1C1
  8
TEXT
 62
     7
 10
15.809267
 20
46.547001000000002
 30
0.0
 40
1.0
  1
%%UREAR VIEW
 41
0.75
  7
TXT
 72
     1
 11
19.196767000000001
 21
46.547001000000002
 31
0.0
  0
DIMENSION
  5
1C2
  8
DIM
 62
     7
  2
*D25
 10
65.558267999999998
 20
95.119884999999996
 30
0.0
 11
68.662267999999983
 21
95.260385000000014
 31
0.0
 70
     0
 13
63.913831999999992
 23
95.400885000000017
 33
0.0
 14
58.498624999999997
 24
95.119884999999996
 34
0.0
 50
90.0
  0
DIMENSION
  5
1D0
  8
DIM
 62
     7
  2
*D26
 10
63.034620999999987
 20
53.619884999999989
 30
0.0
 11
66.138620999999986
 21
53.479385000000001
 31
0.0
 70
     0
 13
61.390185999999993
 23
53.338884999999998
 33
0.0
 14
58.498624999999997
 24
53.619884999999989
 34
0.0
 50
90.0
  0
LINE
  5
1DE
  8
HIDDEN
 62
     7
 10
58.778198000000003
 20
49.650885000000002
 30
0.0
 11
58.778198000000003
 21
53.213384999999988
 31
0.0
  0
LINE
  5
1DF
  8
OBJECT
 62
     7
 10
57.513198000000003
 20
95.401385000000005
 30
0.0
 11
57.513198000000003
 21
53.338384999999988
 31
0.0
  0
LINE
  5
1E0
  8
HIDDEN
 62
     7
 10
57.763197999999988
 20
99.088885000000005
 30
0.0
 11
57.763197999999988
 21
49.650885000000002
 31
0.0
  0
LINE
  5
1E1
  8
0
 62
     7
 10
58.441378
 20
49.438384999999997
 30
0.0
 11
58.441378
 21
49.222909999999999
 31
0.0
  0
LINE
  5
1E2
  8
0
 62
     7
 10
58.116590000000002
 20
49.438384999999997
 30
0.0
 11
58.116590000000002
 21
49.222909999999999
 31
0.0
  0
POLYLINE
  5
1E3
  8
0
 62
     7
 66
     1
 10
0.0
 20
0.0
 30
0.0
 70
     1
  0
VERTEX
  5
691
  8
0
 62
     7
 10
58.603753000000012
 20
49.438384999999997
 30
0.0
  0
VERTEX
  5
692
  8
0
 62
     7
 10
58.603753000000012
 20
49.222909999999999
 30
0.0
 42
-0.368919
  0
VERTEX
  5
693
  8
0
 62
     7
 10
58.441378
 20
49.222909999999999
 30
0.0
 42
-0.185339
  0
VERTEX
  5
694
  8
0
 62
     7
 10
58.116590000000002
 20
49.222909999999999
 30
0.0
 42
-0.368919
  0
VERTEX
  5
695
  8
0
 62
     7
 10
57.954214999999998
 20
49.222909999999999
 30
0.0
  0
VERTEX
  5
696
  8
0
 62
     7
 10
57.954214999999998
 20
49.438384999999997
 30
0.0
  0
SEQEND
  5
697
  8
0
 62
     7
  0
LINE
  5
1EB
  8
0
 62
     7
 10
58.03542199999999
 20
49.194384999999997
 30
0.0
 11
58.522546999999989
 21
49.194384999999997
 31
0.0
  0
CIRCLE
  5
1EC
  8
OBJECT
 62
     7
 10
58.49841099999999
 20
64.744884999999996
 30
0.0
 40
0.0885
  0
CIRCLE
  5
1ED
  8
OBJECT
 62
     7
 10
58.49841099999999
 20
64.119884999999996
 30
0.0
 40
0.0885
  0
CIRCLE
  5
1EE
  8
OBJECT
 62
     7
 10
58.49841099999999
 20
65.869884999999996
 30
0.0
 40
0.0885
  0
CIRCLE
  5
1EF
  8
OBJECT
 62
     7
 10
58.49841099999999
 20
66.494884999999996
 30
0.0
 40
0.0885
  0
CIRCLE
  5
1F0
  8
OBJECT
 62
     7
 10
58.49841099999999
 20
65.369884999999996
 30
0.0
 40
0.0885
  0
CIRCLE
  5
1F1
  8
OBJECT
 62
     7
 10
58.49841099999999
 20
67.619884999999996
 30
0.0
 40
0.0885
  0
CIRCLE
  5
1F2
  8
OBJECT
 62
     7
 10
58.49841099999999
 20
68.244884999999996
 30
0.0
 40
0.0885
  0
CIRCLE
  5
1F3
  8
OBJECT
 62
     7
 10
58.49841099999999
 20
67.119884999999996
 30
0.0
 40
0.0885
  0
CIRCLE
  5
1F4
  8
OBJECT
 62
     7
 10
58.49841099999999
 20
72.869884999999996
 30
0.0
 40
0.0885
  0
CIRCLE
  5
1F5
  8
OBJECT
 62
     7
 10
58.49841099999999
 20
69.369884999999996
 30
0.0
 40
0.0885
  0
CIRCLE
  5
1F6
  8
OBJECT
 62
     7
 10
58.49841099999999
 20
69.994884999999996
 30
0.0
 40
0.0885
  0
CIRCLE
  5
1F7
  8
OBJECT
 62
     7
 10
58.49841099999999
 20
70.619884999999996
 30
0.0
 40
0.0885
  0
CIRCLE
  5
1F8
  8
OBJECT
 62
     7
 10
58.49841099999999
 20
68.869884999999996
 30
0.0
 40
0.0885
  0
CIRCLE
  5
1F9
  8
OBJECT
 62
     7
 10
58.49841099999999
 20
71.119884999999996
 30
0.0
 40
0.0885
  0
CIRCLE
  5
1FA
  8
OBJECT
 62
     7
 10
58.49841099999999
 20
71.744884999999996
 30
0.0
 40
0.0885
  0
CIRCLE
  5
1FB
  8
OBJECT
 62
     7
 10
58.49841099999999
 20
72.369884999999996
 30
0.0
 40
0.0885
  0
CIRCLE
  5
1FC
  8
OBJECT
 62
     7
 10
58.49841099999999
 20
74.619884999999996
 30
0.0
 40
0.0885
  0
CIRCLE
  5
1FD
  8
OBJECT
 62
     7
 10
58.49841099999999
 20
73.494884999999996
 30
0.0
 40
0.0885
  0
CIRCLE
  5
1FE
  8
OBJECT
 62
     7
 10
58.49841099999999
 20
74.119884999999996
 30
0.0
 40
0.0885
  0
CIRCLE
  5
1FF
  8
OBJECT
 62
     7
 10
58.49841099999999
 20
76.369884999999996
 30
0.0
 40
0.0885
  0
CIRCLE
  5
200
  8
OBJECT
 62
     7
 10
58.49841099999999
 20
75.244884999999996
 30
0.0
 40
0.0885
  0
CIRCLE
  5
201
  8
OBJECT
 62
     7
 10
58.49841099999999
 20
75.869884999999996
 30
0.0
 40
0.0885
  0
CIRCLE
  5
202
  8
OBJECT
 62
     7
 10
58.49841099999999
 20
78.119884999999996
 30
0.0
 40
0.0885
  0
CIRCLE
  5
203
  8
OBJECT
 62
     7
 10
58.49841099999999
 20
78.744884999999996
 30
0.0
 40
0.0885
  0
CIRCLE
  5
204
  8
OBJECT
 62
     7
 10
58.49841099999999
 20
76.994884999999996
 30
0.0
 40
0.0885
  0
CIRCLE
  5
205
  8
OBJECT
 62
     7
 10
58.49841099999999
 20
77.619884999999996
 30
0.0
 40
0.0885
  0
CIRCLE
  5
206
  8
OBJECT
 62
     7
 10
58.49841099999999
 20
79.869884999999996
 30
0.0
 40
0.0885
  0
CIRCLE
  5
207
  8
OBJECT
 62
     7
 10
58.49841099999999
 20
80.494884999999996
 30
0.0
 40
0.0885
  0
CIRCLE
  5
208
  8
OBJECT
 62
     7
 10
58.49841099999999
 20
79.369884999999996
 30
0.0
 40
0.0885
  0
CIRCLE
  5
209
  8
OBJECT
 62
     7
 10
58.49841099999999
 20
81.619884999999996
 30
0.0
 40
0.0885
  0
CIRCLE
  5
20A
  8
OBJECT
 62
     7
 10
58.49841099999999
 20
82.244884999999996
 30
0.0
 40
0.0885
  0
CIRCLE
  5
20B
  8
OBJECT
 62
     7
 10
58.49841099999999
 20
82.869884999999996
 30
0.0
 40
0.0885
  0
CIRCLE
  5
20C
  8
OBJECT
 62
     7
 10
58.49841099999999
 20
81.119884999999996
 30
0.0
 40
0.0885
  0
CIRCLE
  5
20D
  8
OBJECT
 62
     7
 10
58.49841099999999
 20
83.369884999999996
 30
0.0
 40
0.0885
  0
CIRCLE
  5
20E
  8
OBJECT
 62
     7
 10
58.49841099999999
 20
83.994884999999996
 30
0.0
 40
0.0885
  0
CIRCLE
  5
20F
  8
OBJECT
 62
     7
 10
58.49841099999999
 20
84.619884999999996
 30
0.0
 40
0.0885
  0
CIRCLE
  5
210
  8
OBJECT
 62
     7
 10
58.49841099999999
 20
86.869884999999996
 30
0.0
 40
0.0885
  0
CIRCLE
  5
211
  8
OBJECT
 62
     7
 10
58.49841099999999
 20
85.119884999999996
 30
0.0
 40
0.0885
  0
CIRCLE
  5
212
  8
OBJECT
 62
     7
 10
58.49841099999999
 20
85.744884999999996
 30
0.0
 40
0.0885
  0
CIRCLE
  5
213
  8
OBJECT
 62
     7
 10
58.49841099999999
 20
86.369884999999996
 30
0.0
 40
0.0885
  0
CIRCLE
  5
214
  8
OBJECT
 62
     7
 10
58.49841099999999
 20
88.619884999999996
 30
0.0
 40
0.0885
  0
CIRCLE
  5
215
  8
OBJECT
 62
     7
 10
58.49841099999999
 20
87.494884999999996
 30
0.0
 40
0.0885
  0
CIRCLE
  5
216
  8
OBJECT
 62
     7
 10
58.49841099999999
 20
88.119884999999996
 30
0.0
 40
0.0885
  0
CIRCLE
  5
217
  8
OBJECT
 62
     7
 10
58.49841099999999
 20
90.369884999999996
 30
0.0
 40
0.0885
  0
CIRCLE
  5
218
  8
OBJECT
 62
     7
 10
58.49841099999999
 20
90.994884999999996
 30
0.0
 40
0.0885
  0
CIRCLE
  5
219
  8
OBJECT
 62
     7
 10
58.49841099999999
 20
89.244884999999996
 30
0.0
 40
0.0885
  0
CIRCLE
  5
21A
  8
OBJECT
 62
     7
 10
58.49841099999999
 20
89.869884999999996
 30
0.0
 40
0.0885
  0
CIRCLE
  5
21B
  8
OBJECT
 62
     7
 10
58.49841099999999
 20
92.119884999999996
 30
0.0
 40
0.0885
  0
CIRCLE
  5
21C
  8
OBJECT
 62
     7
 10
58.49841099999999
 20
92.744884999999996
 30
0.0
 40
0.0885
  0
CIRCLE
  5
21D
  8
OBJECT
 62
     7
 10
58.49841099999999
 20
91.619884999999996
 30
0.0
 40
0.0885
  0
CIRCLE
  5
21E
  8
OBJECT
 62
     7
 10
58.49841099999999
 20
95.119884999999996
 30
0.0
 40
0.0885
  0
CIRCLE
  5
21F
  8
OBJECT
 62
     7
 10
58.49841099999999
 20
93.869884999999996
 30
0.0
 40
0.0885
  0
CIRCLE
  5
220
  8
OBJECT
 62
     7
 10
58.49841099999999
 20
94.494884999999996
 30
0.0
 40
0.0885
  0
CIRCLE
  5
221
  8
OBJECT
 62
     7
 10
58.49841099999999
 20
93.369884999999996
 30
0.0
 40
0.0885
  0
LINE
  5
222
  8
OBJECT
 62
     7
 10
46.438357000000003
 20
95.301884999999984
 30
0.0
 11
46.438357000000003
 21
53.437884999999987
 31
0.0
  0
LINE
  5
223
  8
HIDDEN
 62
     7
 10
46.625357000000001
 20
99.088885000000005
 30
0.0
 11
46.625357000000001
 21
49.650885000000002
 31
0.0
  0
LINE
  5
224
  8
HIDDEN
 62
     7
 10
49.251356999999999
 20
99.088885000000005
 30
0.0
 11
49.251356999999999
 21
49.650885000000002
 31
0.0
  0
LINE
  5
225
  8
OBJECT
 62
     7
 10
49.438357000000011
 20
99.088885000000005
 30
0.0
 11
49.438357000000011
 21
49.650885000000002
 31
0.0
  0
LINE
  5
226
  8
HIDDEN
 62
     7
 10
46.438357000000003
 20
49.650885000000002
 30
0.0
 11
49.438357000000011
 21
49.650885000000002
 31
0.0
  0
POLYLINE
  5
227
  8
OBJECT
 62
     7
 66
     1
 10
0.0
 20
0.0
 30
0.0
 70
     1
  0
VERTEX
  5
698
  8
OBJECT
 62
     7
 10
47.000587999999993
 20
49.438384999999997
 30
0.0
  0
VERTEX
  5
699
  8
OBJECT
 62
     7
 10
47.000587999999993
 20
49.222909999999999
 30
0.0
 42
0.368919
  0
VERTEX
  5
69A
  8
OBJECT
 62
     7
 10
47.162962999999991
 20
49.222909999999999
 30
0.0
 42
0.185339
  0
VERTEX
  5
69B
  8
OBJECT
 62
     7
 10
47.487749999999998
 20
49.222909999999999
 30
0.0
 42
0.368919
  0
VERTEX
  5
69C
  8
OBJECT
 62
     7
 10
47.650125000000003
 20
49.222909999999999
 30
0.0
  0
VERTEX
  5
69D
  8
OBJECT
 62
     7
 10
47.650125000000003
 20
49.438384999999997
 30
0.0
  0
SEQEND
  5
69E
  8
OBJECT
 62
     7
  0
LINE
  5
22F
  8
OBJECT
 62
     7
 10
47.568919000000001
 20
49.194384999999997
 30
0.0
 11
47.081794000000002
 21
49.194384999999997
 31
0.0
  0
LINE
  5
230
  8
OBJECT
 62
     7
 10
47.162962999999991
 20
49.438384999999997
 30
0.0
 11
47.162962999999991
 21
49.222909999999999
 31
0.0
  0
LINE
  5
231
  8
OBJECT
 62
     7
 10
47.487749999999998
 20
49.438384999999997
 30
0.0
 11
47.487749999999998
 21
49.222909999999999
 31
0.0
  0
LINE
  5
232
  8
0
 62
     7
 10
49.500357000000001
 20
50.400884999999988
 30
0.0
 11
49.721831999999992
 21
50.400884999999988
 31
0.0
  0
LINE
  5
233
  8
0
 62
     7
 10
49.750357000000001
 20
50.572856999999999
 30
0.0
 11
49.750357000000001
 21
50.228912999999999
 31
0.0
  0
LINE
  5
234
  8
HIDDEN
 62
     7
 10
57.513198000000003
 20
49.650885000000002
 30
0.0
 11
58.778198000000003
 21
49.650885000000002
 31
0.0
  0
POLYLINE
  5
235
  8
0
  6
BYBLOCK
 62
     7
 66
     1
 10
0.0
 20
0.0
 30
0.0
 70
     1
  0
VERTEX
  5
69F
  8
0
  6
BYBLOCK
 62
     7
 10
47.775976999999997
 20
51.619634999999988
 30
0.0
  0
VERTEX
  5
6A0
  8
0
  6
BYBLOCK
 62
     7
 10
47.613596999999992
 20
51.900884999999988
 30
0.0
  0
VERTEX
  5
6A1
  8
0
  6
BYBLOCK
 62
     7
 10
47.775976999999997
 20
52.182135000000002
 30
0.0
  0
VERTEX
  5
6A2
  8
0
  6
BYBLOCK
 62
     7
 10
48.100735999999991
 20
52.182135000000002
 30
0.0
  0
VERTEX
  5
6A3
  8
0
  6
BYBLOCK
 62
     7
 10
48.263115999999997
 20
51.900884999999988
 30
0.0
  0
VERTEX
  5
6A4
  8
0
  6
BYBLOCK
 62
     7
 10
48.100735999999991
 20
51.619634999999988
 30
0.0
  0
SEQEND
  5
6A5
  8
0
  6
BYBLOCK
 62
     7
  0
POLYLINE
  5
23D
  8
0
  6
BYBLOCK
 62
     7
 66
     1
 10
0.0
 20
0.0
 30
0.0
 70
     1
  0
VERTEX
  5
6A6
  8
0
  6
BYBLOCK
 62
     7
 10
47.775976999999997
 20
50.119635000000002
 30
0.0
  0
VERTEX
  5
6A7
  8
0
  6
BYBLOCK
 62
     7
 10
47.613596999999992
 20
50.400884999999988
 30
0.0
  0
VERTEX
  5
6A8
  8
0
  6
BYBLOCK
 62
     7
 10
47.775976999999997
 20
50.682134999999988
 30
0.0
  0
VERTEX
  5
6A9
  8
0
  6
BYBLOCK
 62
     7
 10
48.100735999999991
 20
50.682134999999988
 30
0.0
  0
VERTEX
  5
6AA
  8
0
  6
BYBLOCK
 62
     7
 10
48.263115999999997
 20
50.400884999999988
 30
0.0
  0
VERTEX
  5
6AB
  8
0
  6
BYBLOCK
 62
     7
 10
48.100735999999991
 20
50.119635000000002
 30
0.0
  0
SEQEND
  5
6AC
  8
0
  6
BYBLOCK
 62
     7
  0
POLYLINE
  5
245
  8
0
  6
BYBLOCK
 62
     7
 66
     1
 10
0.0
 20
0.0
 30
0.0
 70
     1
  0
VERTEX
  5
6AD
  8
0
  6
BYBLOCK
 62
     7
 10
57.959817999999999
 20
50.119635000000002
 30
0.0
  0
VERTEX
  5
6AE
  8
0
  6
BYBLOCK
 62
     7
 10
57.797438
 20
50.400884999999988
 30
0.0
  0
VERTEX
  5
6AF
  8
0
  6
BYBLOCK
 62
     7
 10
57.959817999999999
 20
50.682134999999988
 30
0.0
  0
VERTEX
  5
6B0
  8
0
  6
BYBLOCK
 62
     7
 10
58.284576999999999
 20
50.682134999999988
 30
0.0
  0
VERTEX
  5
6B1
  8
0
  6
BYBLOCK
 62
     7
 10
58.446956999999991
 20
50.400884999999988
 30
0.0
  0
VERTEX
  5
6B2
  8
0
  6
BYBLOCK
 62
     7
 10
58.284576999999999
 20
50.119635000000002
 30
0.0
  0
SEQEND
  5
6B3
  8
0
  6
BYBLOCK
 62
     7
  0
POLYLINE
  5
24D
  8
0
  6
BYBLOCK
 62
     7
 66
     1
 10
0.0
 20
0.0
 30
0.0
 70
     1
  0
VERTEX
  5
6B4
  8
0
  6
BYBLOCK
 62
     7
 10
57.959817999999999
 20
51.619634999999988
 30
0.0
  0
VERTEX
  5
6B5
  8
0
  6
BYBLOCK
 62
     7
 10
57.797438
 20
51.900884999999988
 30
0.0
  0
VERTEX
  5
6B6
  8
0
  6
BYBLOCK
 62
     7
 10
57.959817999999999
 20
52.182135000000002
 30
0.0
  0
VERTEX
  5
6B7
  8
0
  6
BYBLOCK
 62
     7
 10
58.284576999999999
 20
52.182135000000002
 30
0.0
  0
VERTEX
  5
6B8
  8
0
  6
BYBLOCK
 62
     7
 10
58.446956999999991
 20
51.900884999999988
 30
0.0
  0
VERTEX
  5
6B9
  8
0
  6
BYBLOCK
 62
     7
 10
58.284576999999999
 20
51.619634999999988
 30
0.0
  0
SEQEND
  5
6BA
  8
0
  6
BYBLOCK
 62
     7
  0
LINE
  5
255
  8
0
 62
     7
 10
49.500357000000001
 20
50.119635000000002
 30
0.0
 11
49.721831999999992
 21
50.119635000000002
 31
0.0
  0
ARC
  5
256
  8
0
 62
     7
 10
49.406686000000001
 20
50.541510000000002
 30
0.0
 40
0.345098
 50
335.95253600000001
 51
24.047464000000002
  0
LINE
  5
257
  8
0
 62
     7
 10
49.721831999999992
 20
50.682134999999988
 30
0.0
 11
49.500357000000001
 21
50.682134999999988
 31
0.0
  0
ARC
  5
258
  8
0
 62
     7
 10
49.406686000000001
 20
50.260259999999988
 30
0.0
 40
0.345098
 50
335.95253600000001
 51
24.047464000000002
  0
LINE
  5
259
  8
0
 62
     7
 10
49.750357000000001
 20
52.072856999999992
 30
0.0
 11
49.750357000000001
 21
51.728912999999991
 31
0.0
  0
LINE
  5
25A
  8
0
 62
     7
 10
49.500357000000001
 20
51.619634999999988
 30
0.0
 11
49.721831999999992
 21
51.619634999999988
 31
0.0
  0
ARC
  5
25B
  8
0
 62
     7
 10
49.406686000000001
 20
51.760260000000002
 30
0.0
 40
0.345098
 50
335.95253600000001
 51
24.047464000000002
  0
LINE
  5
25C
  8
0
 62
     7
 10
49.721831999999992
 20
52.182135000000002
 30
0.0
 11
49.500357000000001
 21
52.182135000000002
 31
0.0
  0
ARC
  5
25D
  8
0
 62
     7
 10
49.406686000000001
 20
52.041509999999988
 30
0.0
 40
0.345098
 50
335.95253600000001
 51
24.047464000000002
  0
LINE
  5
25E
  8
0
 62
     7
 10
49.500357000000001
 20
51.900884999999988
 30
0.0
 11
49.721831999999992
 21
51.900884999999988
 31
0.0
  0
ARC
  5
25F
  8
0
 62
     7
 10
57.497869000000001
 20
52.041509999999988
 30
0.0
 40
0.345098
 50
155.95253600000001
 51
204.04746399999991
  0
LINE
  5
260
  8
0
 62
     7
 10
57.404198000000001
 20
51.900884999999988
 30
0.0
 11
57.182722999999989
 21
51.900884999999988
 31
0.0
  0
ARC
  5
261
  8
0
 62
     7
 10
57.497869000000001
 20
51.760260000000002
 30
0.0
 40
0.345098
 50
155.95253600000001
 51
204.04746399999991
  0
LINE
  5
262
  8
0
 62
     7
 10
57.404198000000001
 20
51.619634999999988
 30
0.0
 11
57.182722999999989
 21
51.619634999999988
 31
0.0
  0
LINE
  5
263
  8
0
 62
     7
 10
57.154198000000001
 20
52.072856999999992
 30
0.0
 11
57.154198000000001
 21
51.728912999999991
 31
0.0
  0
LINE
  5
264
  8
0
 62
     7
 10
57.154198000000001
 20
50.572856999999999
 30
0.0
 11
57.154198000000001
 21
50.228912999999999
 31
0.0
  0
LINE
  5
265
  8
0
 62
     7
 10
57.404198000000001
 20
50.119635000000002
 30
0.0
 11
57.182722999999989
 21
50.119635000000002
 31
0.0
  0
ARC
  5
266
  8
0
 62
     7
 10
57.497869000000001
 20
50.260259999999988
 30
0.0
 40
0.345098
 50
155.95253600000001
 51
204.04746399999991
  0
LINE
  5
267
  8
0
 62
     7
 10
57.182722999999989
 20
50.682134999999988
 30
0.0
 11
57.404198000000001
 21
50.682134999999988
 31
0.0
  0
ARC
  5
268
  8
0
 62
     7
 10
57.497869000000001
 20
50.541510000000002
 30
0.0
 40
0.345098
 50
155.95253600000001
 51
204.04746399999991
  0
LINE
  5
269
  8
0
 62
     7
 10
57.404198000000001
 20
50.400884999999988
 30
0.0
 11
57.182722999999989
 21
50.400884999999988
 31
0.0
  0
LINE
  5
26A
  8
0
 62
     7
 10
57.182722999999989
 20
52.182135000000002
 30
0.0
 11
57.404198000000001
 21
52.182135000000002
 31
0.0
  0
LINE
  5
26B
  8
HIDDEN
 62
     7
 10
77.545625000000001
 20
99.088885000000005
 30
0.0
 11
77.545625000000001
 21
49.650885000000002
 31
0.0
  0
LINE
  5
26C
  8
OBJECT
 62
     7
 10
77.795625000000001
 20
95.401385000000005
 30
0.0
 11
77.795625000000001
 21
53.338384999999988
 31
0.0
  0
LINE
  5
26D
  8
HIDDEN
 62
     7
 10
76.530625000000001
 20
49.650885000000002
 30
0.0
 11
76.530625000000001
 21
53.213384999999988
 31
0.0
  0
LINE
  5
26E
  8
0
 62
     7
 10
76.867443999999992
 20
49.438384999999997
 30
0.0
 11
76.867443999999992
 21
49.222909999999999
 31
0.0
  0
LINE
  5
26F
  8
0
 62
     7
 10
77.19223199999999
 20
49.438384999999997
 30
0.0
 11
77.19223199999999
 21
49.222909999999999
 31
0.0
  0
POLYLINE
  5
270
  8
0
 62
     7
 66
     1
 10
0.0
 20
0.0
 30
0.0
 70
     1
  0
VERTEX
  5
6BB
  8
0
 62
     7
 10
76.705068999999995
 20
49.438384999999997
 30
0.0
  0
VERTEX
  5
6BC
  8
0
 62
     7
 10
76.705068999999995
 20
49.222909999999999
 30
0.0
 42
0.368919
  0
VERTEX
  5
6BD
  8
0
 62
     7
 10
76.867443999999992
 20
49.222909999999999
 30
0.0
 42
0.185339
  0
VERTEX
  5
6BE
  8
0
 62
     7
 10
77.19223199999999
 20
49.222909999999999
 30
0.0
 42
0.368919
  0
VERTEX
  5
6BF
  8
0
 62
     7
 10
77.354607000000001
 20
49.222909999999999
 30
0.0
  0
VERTEX
  5
6C0
  8
0
 62
     7
 10
77.354607000000001
 20
49.438384999999997
 30
0.0
  0
SEQEND
  5
6C1
  8
0
 62
     7
  0
LINE
  5
278
  8
0
 62
     7
 10
77.273401000000007
 20
49.194384999999997
 30
0.0
 11
76.786276000000001
 21
49.194384999999997
 31
0.0
  0
LINE
  5
279
  8
HIDDEN
 62
     7
 10
77.795625000000001
 20
49.650885000000002
 30
0.0
 11
76.530625000000001
 21
49.650885000000002
 31
0.0
  0
LINE
  5
27A
  8
0
 62
     7
 10
77.904624999999996
 20
50.400884999999988
 30
0.0
 11
78.126099999999994
 21
50.400884999999988
 31
0.0
  0
ARC
  5
27B
  8
0
 62
     7
 10
77.810952999999998
 20
50.541510000000002
 30
0.0
 40
0.345098
 50
335.95253600000001
 51
24.047464000000002
  0
LINE
  5
27C
  8
0
 62
     7
 10
78.126099999999994
 20
50.682134999999988
 30
0.0
 11
77.904624999999996
 21
50.682134999999988
 31
0.0
  0
ARC
  5
27D
  8
0
 62
     7
 10
77.810952999999998
 20
50.260259999999988
 30
0.0
 40
0.345098
 50
335.95253600000001
 51
24.047464000000002
  0
LINE
  5
27E
  8
0
 62
     7
 10
77.904624999999996
 20
50.119635000000002
 30
0.0
 11
78.126099999999994
 21
50.119635000000002
 31
0.0
  0
LINE
  5
27F
  8
0
 62
     7
 10
78.154624999999996
 20
50.572856999999999
 30
0.0
 11
78.154624999999996
 21
50.228912999999999
 31
0.0
  0
POLYLINE
  5
280
  8
0
  6
BYBLOCK
 62
     7
 66
     1
 10
0.0
 20
0.0
 30
0.0
 70
     1
  0
VERTEX
  5
6C2
  8
0
  6
BYBLOCK
 62
     7
 10
77.349003999999994
 20
50.119635000000002
 30
0.0
  0
VERTEX
  5
6C3
  8
0
  6
BYBLOCK
 62
     7
 10
77.511383999999993
 20
50.400884999999988
 30
0.0
  0
VERTEX
  5
6C4
  8
0
  6
BYBLOCK
 62
     7
 10
77.349003999999994
 20
50.682134999999988
 30
0.0
  0
VERTEX
  5
6C5
  8
0
  6
BYBLOCK
 62
     7
 10
77.024244999999993
 20
50.682134999999988
 30
0.0
  0
VERTEX
  5
6C6
  8
0
  6
BYBLOCK
 62
     7
 10
76.861865000000009
 20
50.400884999999988
 30
0.0
  0
VERTEX
  5
6C7
  8
0
  6
BYBLOCK
 62
     7
 10
77.024244999999993
 20
50.119635000000002
 30
0.0
  0
SEQEND
  5
6C8
  8
0
  6
BYBLOCK
 62
     7
  0
CIRCLE
  5
288
  8
OBJECT
 62
     7
 10
76.810411000000002
 20
79.369884999999996
 30
0.0
 40
0.0885
  0
CIRCLE
  5
289
  8
OBJECT
 62
     7
 10
76.810411000000002
 20
64.119884999999996
 30
0.0
 40
0.0885
  0
LINE
  5
28A
  8
0
 62
     7
 10
78.126099999999994
 20
52.182135000000002
 30
0.0
 11
77.904624999999996
 21
52.182135000000002
 31
0.0
  0
LINE
  5
28B
  8
0
 62
     7
 10
78.154624999999996
 20
52.072856999999992
 30
0.0
 11
78.154624999999996
 21
51.728912999999991
 31
0.0
  0
LINE
  5
28C
  8
0
 62
     7
 10
77.904624999999996
 20
51.619634999999988
 30
0.0
 11
78.126099999999994
 21
51.619634999999988
 31
0.0
  0
ARC
  5
28D
  8
0
 62
     7
 10
77.810952999999998
 20
51.760260000000002
 30
0.0
 40
0.345098
 50
335.95253600000001
 51
24.047464000000002
  0
LINE
  5
28E
  8
0
 62
     7
 10
77.904624999999996
 20
51.900884999999988
 30
0.0
 11
78.126099999999994
 21
51.900884999999988
 31
0.0
  0
ARC
  5
28F
  8
0
 62
     7
 10
77.810952999999998
 20
52.041509999999988
 30
0.0
 40
0.345098
 50
335.95253600000001
 51
24.047464000000002
  0
POLYLINE
  5
290
  8
0
  6
BYBLOCK
 62
     7
 66
     1
 10
0.0
 20
0.0
 30
0.0
 70
     1
  0
VERTEX
  5
6C9
  8
0
  6
BYBLOCK
 62
     7
 10
77.349003999999994
 20
51.619634999999988
 30
0.0
  0
VERTEX
  5
6CA
  8
0
  6
BYBLOCK
 62
     7
 10
77.511383999999993
 20
51.900884999999988
 30
0.0
  0
VERTEX
  5
6CB
  8
0
  6
BYBLOCK
 62
     7
 10
77.349003999999994
 20
52.182135000000002
 30
0.0
  0
VERTEX
  5
6CC
  8
0
  6
BYBLOCK
 62
     7
 10
77.024244999999993
 20
52.182135000000002
 30
0.0
  0
VERTEX
  5
6CD
  8
0
  6
BYBLOCK
 62
     7
 10
76.861865000000009
 20
51.900884999999988
 30
0.0
  0
VERTEX
  5
6CE
  8
0
  6
BYBLOCK
 62
     7
 10
77.024244999999993
 20
51.619634999999988
 30
0.0
  0
SEQEND
  5
6CF
  8
0
  6
BYBLOCK
 62
     7
  0
CIRCLE
  5
298
  8
OBJECT
 62
     7
 10
76.810411000000002
 20
65.369884999999996
 30
0.0
 40
0.0885
  0
CIRCLE
  5
299
  8
OBJECT
 62
     7
 10
76.810411000000002
 20
65.869884999999996
 30
0.0
 40
0.0885
  0
CIRCLE
  5
29A
  8
OBJECT
 62
     7
 10
76.810411000000002
 20
64.744884999999996
 30
0.0
 40
0.0885
  0
CIRCLE
  5
29B
  8
OBJECT
 62
     7
 10
76.810411000000002
 20
67.119884999999996
 30
0.0
 40
0.0885
  0
CIRCLE
  5
29C
  8
OBJECT
 62
     7
 10
76.810411000000002
 20
68.244884999999996
 30
0.0
 40
0.0885
  0
CIRCLE
  5
29D
  8
OBJECT
 62
     7
 10
76.810411000000002
 20
67.619884999999996
 30
0.0
 40
0.0885
  0
CIRCLE
  5
29E
  8
OBJECT
 62
     7
 10
76.810411000000002
 20
66.494884999999996
 30
0.0
 40
0.0885
  0
CIRCLE
  5
29F
  8
OBJECT
 62
     7
 10
76.810411000000002
 20
68.869884999999996
 30
0.0
 40
0.0885
  0
CIRCLE
  5
2A0
  8
OBJECT
 62
     7
 10
76.810411000000002
 20
70.619884999999996
 30
0.0
 40
0.0885
  0
CIRCLE
  5
2A1
  8
OBJECT
 62
     7
 10
76.810411000000002
 20
69.994884999999996
 30
0.0
 40
0.0885
  0
CIRCLE
  5
2A2
  8
OBJECT
 62
     7
 10
76.810411000000002
 20
69.369884999999996
 30
0.0
 40
0.0885
  0
CIRCLE
  5
2A3
  8
OBJECT
 62
     7
 10
76.810411000000002
 20
72.869884999999996
 30
0.0
 40
0.0885
  0
CIRCLE
  5
2A4
  8
OBJECT
 62
     7
 10
76.810411000000002
 20
72.369884999999996
 30
0.0
 40
0.0885
  0
CIRCLE
  5
2A5
  8
OBJECT
 62
     7
 10
76.810411000000002
 20
71.744884999999996
 30
0.0
 40
0.0885
  0
CIRCLE
  5
2A6
  8
OBJECT
 62
     7
 10
76.810411000000002
 20
71.119884999999996
 30
0.0
 40
0.0885
  0
CIRCLE
  5
2A7
  8
OBJECT
 62
     7
 10
76.810411000000002
 20
74.119884999999996
 30
0.0
 40
0.0885
  0
CIRCLE
  5
2A8
  8
OBJECT
 62
     7
 10
76.810411000000002
 20
73.494884999999996
 30
0.0
 40
0.0885
  0
CIRCLE
  5
2A9
  8
OBJECT
 62
     7
 10
76.810411000000002
 20
74.619884999999996
 30
0.0
 40
0.0885
  0
CIRCLE
  5
2AA
  8
OBJECT
 62
     7
 10
76.810411000000002
 20
76.994884999999996
 30
0.0
 40
0.0885
  0
CIRCLE
  5
2AB
  8
OBJECT
 62
     7
 10
76.810411000000002
 20
75.869884999999996
 30
0.0
 40
0.0885
  0
CIRCLE
  5
2AC
  8
OBJECT
 62
     7
 10
76.810411000000002
 20
75.244884999999996
 30
0.0
 40
0.0885
  0
CIRCLE
  5
2AD
  8
OBJECT
 62
     7
 10
76.810411000000002
 20
76.369884999999996
 30
0.0
 40
0.0885
  0
CIRCLE
  5
2AE
  8
OBJECT
 62
     7
 10
76.810411000000002
 20
77.619884999999996
 30
0.0
 40
0.0885
  0
CIRCLE
  5
2AF
  8
OBJECT
 62
     7
 10
76.810411000000002
 20
78.744884999999996
 30
0.0
 40
0.0885
  0
CIRCLE
  5
2B0
  8
OBJECT
 62
     7
 10
76.810411000000002
 20
78.119884999999996
 30
0.0
 40
0.0885
  0
CIRCLE
  5
2B1
  8
OBJECT
 62
     7
 10
76.810411000000002
 20
88.119884999999996
 30
0.0
 40
0.0885
  0
CIRCLE
  5
2B2
  8
OBJECT
 62
     7
 10
76.810411000000002
 20
81.619884999999996
 30
0.0
 40
0.0885
  0
CIRCLE
  5
2B3
  8
OBJECT
 62
     7
 10
76.810411000000002
 20
81.119884999999996
 30
0.0
 40
0.0885
  0
CIRCLE
  5
2B4
  8
OBJECT
 62
     7
 10
76.810411000000002
 20
80.494884999999996
 30
0.0
 40
0.0885
  0
CIRCLE
  5
2B5
  8
OBJECT
 62
     7
 10
76.810411000000002
 20
79.869884999999996
 30
0.0
 40
0.0885
  0
CIRCLE
  5
2B6
  8
OBJECT
 62
     7
 10
76.810411000000002
 20
83.369884999999996
 30
0.0
 40
0.0885
  0
CIRCLE
  5
2B7
  8
OBJECT
 62
     7
 10
76.810411000000002
 20
82.869884999999996
 30
0.0
 40
0.0885
  0
CIRCLE
  5
2B8
  8
OBJECT
 62
     7
 10
76.810411000000002
 20
82.244884999999996
 30
0.0
 40
0.0885
  0
CIRCLE
  5
2B9
  8
OBJECT
 62
     7
 10
76.810411000000002
 20
85.744884999999996
 30
0.0
 40
0.0885
  0
CIRCLE
  5
2BA
  8
OBJECT
 62
     7
 10
76.810411000000002
 20
85.119884999999996
 30
0.0
 40
0.0885
  0
CIRCLE
  5
2BB
  8
OBJECT
 62
     7
 10
76.810411000000002
 20
84.619884999999996
 30
0.0
 40
0.0885
  0
CIRCLE
  5
2BC
  8
OBJECT
 62
     7
 10
76.810411000000002
 20
83.994884999999996
 30
0.0
 40
0.0885
  0
CIRCLE
  5
2BD
  8
OBJECT
 62
     7
 10
76.810411000000002
 20
87.494884999999996
 30
0.0
 40
0.0885
  0
CIRCLE
  5
2BE
  8
OBJECT
 62
     7
 10
76.810411000000002
 20
86.369884999999996
 30
0.0
 40
0.0885
  0
CIRCLE
  5
2BF
  8
OBJECT
 62
     7
 10
76.810411000000002
 20
86.869884999999996
 30
0.0
 40
0.0885
  0
CIRCLE
  5
2C0
  8
OBJECT
 62
     7
 10
76.810411000000002
 20
90.369884999999996
 30
0.0
 40
0.0885
  0
CIRCLE
  5
2C1
  8
OBJECT
 62
     7
 10
76.810411000000002
 20
89.869884999999996
 30
0.0
 40
0.0885
  0
CIRCLE
  5
2C2
  8
OBJECT
 62
     7
 10
76.810411000000002
 20
89.244884999999996
 30
0.0
 40
0.0885
  0
CIRCLE
  5
2C3
  8
OBJECT
 62
     7
 10
76.810411000000002
 20
88.619884999999996
 30
0.0
 40
0.0885
  0
CIRCLE
  5
2C4
  8
OBJECT
 62
     7
 10
76.810411000000002
 20
91.619884999999996
 30
0.0
 40
0.0885
  0
CIRCLE
  5
2C5
  8
OBJECT
 62
     7
 10
76.810411000000002
 20
92.119884999999996
 30
0.0
 40
0.0885
  0
CIRCLE
  5
2C6
  8
OBJECT
 62
     7
 10
76.810411000000002
 20
90.994884999999996
 30
0.0
 40
0.0885
  0
CIRCLE
  5
2C7
  8
OBJECT
 62
     7
 10
76.810411000000002
 20
93.369884999999996
 30
0.0
 40
0.0885
  0
CIRCLE
  5
2C8
  8
OBJECT
 62
     7
 10
76.810411000000002
 20
94.494884999999996
 30
0.0
 40
0.0885
  0
CIRCLE
  5
2C9
  8
OBJECT
 62
     7
 10
76.810411000000002
 20
93.869884999999996
 30
0.0
 40
0.0885
  0
CIRCLE
  5
2CA
  8
OBJECT
 62
     7
 10
76.810411000000002
 20
92.744884999999996
 30
0.0
 40
0.0885
  0
CIRCLE
  5
2CB
  8
OBJECT
 62
     7
 10
76.810411000000002
 20
95.119884999999996
 30
0.0
 40
0.0885
  0
LINE
  5
2CC
  8
HIDDEN
 62
     7
 10
46.438357000000003
 20
53.312884999999987
 30
0.0
 11
46.438357000000003
 21
49.650885000000002
 31
0.0
  0
LINE
  5
2CD
  8
HIDDEN
 62
     7
 10
46.438357000000003
 20
99.088885000000005
 30
0.0
 11
49.438357000000011
 21
99.088885000000005
 31
0.0
  0
POLYLINE
  5
2CE
  8
ANGLE
 62
     7
 66
     1
 10
0.0
 20
0.0
 30
0.0
 70
     1
  0
VERTEX
  5
6D0
  8
ANGLE
 62
     7
 10
46.450356999999997
 20
99.301384999999996
 30
0.0
  0
VERTEX
  5
6D1
  8
ANGLE
 62
     7
 10
46.450356999999997
 20
99.239384999999999
 30
0.0
  0
VERTEX
  5
6D2
  8
ANGLE
 62
     7
 10
49.438357000000011
 20
99.239384999999999
 30
0.0
  0
VERTEX
  5
6D3
  8
ANGLE
 62
     7
 10
49.438357000000011
 20
95.401385000000005
 30
0.0
  0
VERTEX
  5
6D4
  8
ANGLE
 62
     7
 10
49.500357000000001
 20
95.401385000000005
 30
0.0
  0
VERTEX
  5
6D5
  8
ANGLE
 62
     7
 10
49.500357000000001
 20
99.301384999999996
 30
0.0
  0
SEQEND
  5
6D6
  8
ANGLE
 62
     7
  0
LINE
  5
2D6
  8
HIDDEN
 62
     7
 10
46.438357000000003
 20
95.426884999999999
 30
0.0
 11
46.438357000000003
 21
99.088885000000005
 31
0.0
  0
POLYLINE
  5
2D7
  8
0
 62
     7
 66
     1
 10
0.0
 20
0.0
 30
0.0
 70
     1
  0
VERTEX
  5
6D7
  8
0
 62
     7
 10
47.000587999999993
 20
99.301384999999996
 30
0.0
  0
VERTEX
  5
6D8
  8
0
 62
     7
 10
47.000587999999993
 20
99.522859999999994
 30
0.0
 42
-0.368919
  0
VERTEX
  5
6D9
  8
0
 62
     7
 10
47.162962999999991
 20
99.522859999999994
 30
0.0
 42
-0.185339
  0
VERTEX
  5
6DA
  8
0
 62
     7
 10
47.487749999999998
 20
99.522859999999994
 30
0.0
 42
-0.368919
  0
VERTEX
  5
6DB
  8
0
 62
     7
 10
47.650125000000003
 20
99.522859999999994
 30
0.0
  0
VERTEX
  5
6DC
  8
0
 62
     7
 10
47.650125000000003
 20
99.301384999999996
 30
0.0
  0
SEQEND
  5
6DD
  8
0
 62
     7
  0
LINE
  5
2DF
  8
0
 62
     7
 10
47.568919000000001
 20
99.551384999999996
 30
0.0
 11
47.081794000000002
 21
99.551384999999996
 31
0.0
  0
LINE
  5
2E0
  8
0
 62
     7
 10
47.162962999999991
 20
99.301384999999996
 30
0.0
 11
47.162962999999991
 21
99.522859999999994
 31
0.0
  0
LINE
  5
2E1
  8
0
 62
     7
 10
47.487749999999998
 20
99.301384999999996
 30
0.0
 11
47.487749999999998
 21
99.522859999999994
 31
0.0
  0
POLYLINE
  5
2E2
  8
0
  6
BYBLOCK
 62
     7
 66
     1
 10
0.0
 20
0.0
 30
0.0
 70
     1
  0
VERTEX
  5
6DE
  8
0
  6
BYBLOCK
 62
     7
 10
47.775976999999997
 20
98.620135000000005
 30
0.0
  0
VERTEX
  5
6DF
  8
0
  6
BYBLOCK
 62
     7
 10
47.613596999999992
 20
98.338885000000005
 30
0.0
  0
VERTEX
  5
6E0
  8
0
  6
BYBLOCK
 62
     7
 10
47.775976999999997
 20
98.057635000000005
 30
0.0
  0
VERTEX
  5
6E1
  8
0
  6
BYBLOCK
 62
     7
 10
48.100735999999991
 20
98.057635000000005
 30
0.0
  0
VERTEX
  5
6E2
  8
0
  6
BYBLOCK
 62
     7
 10
48.263115999999997
 20
98.338885000000005
 30
0.0
  0
VERTEX
  5
6E3
  8
0
  6
BYBLOCK
 62
     7
 10
48.100735999999991
 20
98.620135000000005
 30
0.0
  0
SEQEND
  5
6E4
  8
0
  6
BYBLOCK
 62
     7
  0
POLYLINE
  5
2EA
  8
0
  6
BYBLOCK
 62
     7
 66
     1
 10
0.0
 20
0.0
 30
0.0
 70
     1
  0
VERTEX
  5
6E5
  8
0
  6
BYBLOCK
 62
     7
 10
47.775976999999997
 20
97.120135000000005
 30
0.0
  0
VERTEX
  5
6E6
  8
0
  6
BYBLOCK
 62
     7
 10
47.613596999999992
 20
96.838885000000005
 30
0.0
  0
VERTEX
  5
6E7
  8
0
  6
BYBLOCK
 62
     7
 10
47.775976999999997
 20
96.557635000000005
 30
0.0
  0
VERTEX
  5
6E8
  8
0
  6
BYBLOCK
 62
     7
 10
48.100735999999991
 20
96.557635000000005
 30
0.0
  0
VERTEX
  5
6E9
  8
0
  6
BYBLOCK
 62
     7
 10
48.263115999999997
 20
96.838885000000005
 30
0.0
  0
VERTEX
  5
6EA
  8
0
  6
BYBLOCK
 62
     7
 10
48.100735999999991
 20
97.120135000000005
 30
0.0
  0
SEQEND
  5
6EB
  8
0
  6
BYBLOCK
 62
     7
  0
LINE
  5
2F2
  8
0
 62
     7
 10
49.750357000000001
 20
98.166912999999994
 30
0.0
 11
49.750357000000001
 21
98.510857000000001
 31
0.0
  0
LINE
  5
2F3
  8
0
 62
     7
 10
49.500357000000001
 20
98.620135000000005
 30
0.0
 11
49.721831999999992
 21
98.620135000000005
 31
0.0
  0
ARC
  5
2F4
  8
0
 62
     7
 10
49.406686000000001
 20
98.479510000000005
 30
0.0
 40
0.345098
 50
335.95253600000001
 51
24.047464000000002
  0
LINE
  5
2F5
  8
0
 62
     7
 10
49.721831999999992
 20
98.057635000000005
 30
0.0
 11
49.500357000000001
 21
98.057635000000005
 31
0.0
  0
ARC
  5
2F6
  8
0
 62
     7
 10
49.406686000000001
 20
98.198260000000005
 30
0.0
 40
0.345098
 50
335.95253600000001
 51
24.047464000000002
  0
LINE
  5
2F7
  8
0
 62
     7
 10
49.500357000000001
 20
98.338885000000005
 30
0.0
 11
49.721831999999992
 21
98.338885000000005
 31
0.0
  0
LINE
  5
2F8
  8
0
 62
     7
 10
49.721831999999992
 20
96.557635000000005
 30
0.0
 11
49.500357000000001
 21
96.557635000000005
 31
0.0
  0
LINE
  5
2F9
  8
0
 62
     7
 10
49.500357000000001
 20
96.838885000000005
 30
0.0
 11
49.721831999999992
 21
96.838885000000005
 31
0.0
  0
ARC
  5
2FA
  8
0
 62
     7
 10
49.406686000000001
 20
96.979510000000005
 30
0.0
 40
0.345098
 50
335.95253600000001
 51
24.047464000000002
  0
LINE
  5
2FB
  8
0
 62
     7
 10
49.500357000000001
 20
97.120135000000005
 30
0.0
 11
49.721831999999992
 21
97.120135000000005
 31
0.0
  0
LINE
  5
2FC
  8
0
 62
     7
 10
49.750357000000001
 20
96.666912999999994
 30
0.0
 11
49.750357000000001
 21
97.010857000000001
 31
0.0
  0
ARC
  5
2FD
  8
0
 62
     7
 10
49.406686000000001
 20
96.698260000000005
 30
0.0
 40
0.345098
 50
335.95253600000001
 51
24.047464000000002
  0
LINE
  5
2FE
  8
OBJECT
 62
     7
 10
58.778198000000003
 20
53.338384999999988
 30
0.0
 11
58.778198000000003
 21
95.401385000000005
 31
0.0
  0
LINE
  5
2FF
  8
OBJECT
 62
     7
 10
76.530625000000001
 20
53.338384999999988
 30
0.0
 11
76.530625000000001
 21
95.401385000000005
 31
0.0
  0
LINE
  5
300
  8
BRACKET
  6
HIDDEN
 62
     7
 10
41.515357000000002
 20
95.301384999999996
 30
0.0
 11
41.515357000000002
 21
99.239384999999999
 31
0.0
  0
LINE
  5
301
  8
BRACKET
 62
     7
 10
49.406357
 20
95.301384999999996
 30
0.0
 11
49.406357
 21
99.239384999999999
 31
0.0
  0
LINE
  5
302
  8
BRACKET
 62
     7
 10
41.406356999999993
 20
95.301384999999996
 30
0.0
 11
41.406356999999993
 21
99.176884999999999
 31
0.0
  0
LINE
  5
303
  8
BRACKET
  6
HIDDEN
 62
     7
 10
49.406357
 20
99.130385000000004
 30
0.0
 11
41.515357000000002
 21
99.130385000000004
 31
0.0
  0
LINE
  5
304
  8
BRACKET
 62
     7
 10
49.406357
 20
99.239384999999999
 30
0.0
 11
41.515357000000002
 21
99.239384999999999
 31
0.0
  0
LINE
  5
305
  8
BRACKET
 62
     7
 10
41.515357000000002
 20
99.176884999999999
 30
0.0
 11
41.406356999999993
 21
99.176884999999999
 31
0.0
  0
LINE
  5
306
  8
HIDDEN
 62
     7
 10
29.087979999999991
 20
99.088885000000005
 30
0.0
 11
29.087979999999991
 21
49.650885000000002
 31
0.0
  0
LINE
  5
307
  8
HIDDEN
 62
     7
 10
9.3055529999999997
 20
99.088885000000005
 30
0.0
 11
9.3055529999999997
 21
49.650885000000002
 31
0.0
  0
LINE
  5
308
  8
OBJECT
 62
     7
 10
10.320553
 20
53.37588499999999
 30
0.0
 11
10.320553
 21
95.301884999999984
 31
0.0
  0
LINE
  5
309
  8
OBJECT
 62
     7
 10
28.07297999999999
 20
53.37588499999999
 30
0.0
 11
28.07297999999999
 21
95.301884999999984
 31
0.0
  0
LINE
  5
30A
  8
OBJECT
 62
     7
 10
9.0555529999999997
 20
95.363884999999996
 30
0.0
 11
9.0555529999999997
 21
53.37588499999999
 31
0.0
  0
LINE
  5
30B
  8
OBJECT
 62
     7
 10
29.337979999999991
 20
95.363884999999996
 30
0.0
 11
29.337979999999991
 21
53.37588499999999
 31
0.0
  0
LINE
  5
30C
  8
HIDDEN
 62
     7
 10
28.07297999999999
 20
49.650885000000002
 30
0.0
 11
28.07297999999999
 21
53.322884999999999
 31
0.0
  0
LINE
  5
30D
  8
HIDDEN
 62
     7
 10
10.320553
 20
49.650885000000002
 30
0.0
 11
10.320553
 21
53.322884999999999
 31
0.0
  0
POLYLINE
  5
30E
  8
0
 62
     7
 66
     1
 10
0.0
 20
0.0
 30
0.0
 70
     1
  0
VERTEX
  5
6EC
  8
0
 62
     7
 10
10.146108
 20
49.438384999999997
 30
0.0
  0
VERTEX
  5
6ED
  8
0
 62
     7
 10
10.146108
 20
49.216909999999999
 30
0.0
 42
-0.368919
  0
VERTEX
  5
6EE
  8
0
 62
     7
 10
9.9837330000000009
 20
49.216909999999999
 30
0.0
 42
-0.185339
  0
VERTEX
  5
6EF
  8
0
 62
     7
 10
9.6589460000000003
 20
49.216909999999999
 30
0.0
 42
-0.368919
  0
VERTEX
  5
6F0
  8
0
 62
     7
 10
9.4965710000000012
 20
49.216909999999999
 30
0.0
  0
VERTEX
  5
6F1
  8
0
 62
     7
 10
9.4965710000000012
 20
49.438384999999997
 30
0.0
  0
SEQEND
  5
6F2
  8
0
 62
     7
  0
LINE
  5
316
  8
0
 62
     7
 10
9.5777770000000011
 20
49.18838499999999
 30
0.0
 11
10.064902
 21
49.18838499999999
 31
0.0
  0
LINE
  5
317
  8
HIDDEN
 62
     7
 10
9.0555529999999997
 20
49.650885000000002
 30
0.0
 11
10.320553
 21
49.650885000000002
 31
0.0
  0
LINE
  5
318
  8
0
 62
     7
 10
9.6589460000000003
 20
49.438384999999997
 30
0.0
 11
9.6589460000000003
 21
49.216909999999999
 31
0.0
  0
LINE
  5
319
  8
0
 62
     7
 10
9.9837330000000009
 20
49.438384999999997
 30
0.0
 11
9.9837330000000009
 21
49.216909999999999
 31
0.0
  0
LINE
  5
31A
  8
HIDDEN
 62
     7
 10
29.337979999999991
 20
49.650885000000002
 30
0.0
 11
28.07297999999999
 21
49.650885000000002
 31
0.0
  0
LINE
  5
31B
  8
0
 62
     7
 10
28.815756
 20
49.188884999999999
 30
0.0
 11
28.328631000000001
 21
49.188884999999999
 31
0.0
  0
POLYLINE
  5
31C
  8
0
 62
     7
 66
     1
 10
0.0
 20
0.0
 30
0.0
 70
     1
  0
VERTEX
  5
6F3
  8
0
 62
     7
 10
28.247425
 20
49.438884999999992
 30
0.0
  0
VERTEX
  5
6F4
  8
0
 62
     7
 10
28.247425
 20
49.217410000000001
 30
0.0
 42
0.368919
  0
VERTEX
  5
6F5
  8
0
 62
     7
 10
28.409800000000001
 20
49.217410000000001
 30
0.0
 42
0.185339
  0
VERTEX
  5
6F6
  8
0
 62
     7
 10
28.734587000000001
 20
49.217410000000001
 30
0.0
 42
0.368919
  0
VERTEX
  5
6F7
  8
0
 62
     7
 10
28.896961999999991
 20
49.217410000000001
 30
0.0
  0
VERTEX
  5
6F8
  8
0
 62
     7
 10
28.896961999999991
 20
49.438884999999992
 30
0.0
  0
SEQEND
  5
6F9
  8
0
 62
     7
  0
LINE
  5
324
  8
0
 62
     7
 10
28.734587000000001
 20
49.438884999999992
 30
0.0
 11
28.734587000000001
 21
49.217410000000001
 31
0.0
  0
LINE
  5
325
  8
0
 62
     7
 10
28.409800000000001
 20
49.438884999999992
 30
0.0
 11
28.409800000000001
 21
49.217410000000001
 31
0.0
  0
CIRCLE
  5
326
  8
OBJECT
 62
     7
 10
10.040767000000001
 20
64.744884999999996
 30
0.0
 40
0.0885
  0
ARC
  5
327
  8
0
 62
     7
 10
9.0402240000000003
 20
52.041509999999988
 30
0.0
 40
0.345098
 50
155.95253600000001
 51
204.04746399999991
  0
LINE
  5
328
  8
0
 62
     7
 10
8.9465529999999998
 20
50.400884999999988
 30
0.0
 11
8.7250779999999981
 21
50.400884999999988
 31
0.0
  0
ARC
  5
329
  8
0
 62
     7
 10
9.0402240000000003
 20
50.541510000000002
 30
0.0
 40
0.345098
 50
155.95253600000001
 51
204.04746399999991
  0
LINE
  5
32A
  8
0
 62
     7
 10
8.7250779999999981
 20
50.682134999999988
 30
0.0
 11
8.9465529999999998
 21
50.682134999999988
 31
0.0
  0
ARC
  5
32B
  8
0
 62
     7
 10
9.0402240000000003
 20
50.260259999999988
 30
0.0
 40
0.345098
 50
155.95253600000001
 51
204.04746399999991
  0
LINE
  5
32C
  8
0
 62
     7
 10
8.9465529999999998
 20
50.119635000000002
 30
0.0
 11
8.7250779999999981
 21
50.119635000000002
 31
0.0
  0
LINE
  5
32D
  8
0
 62
     7
 10
8.6965529999999998
 20
50.572856999999999
 30
0.0
 11
8.6965529999999998
 21
50.228912999999999
 31
0.0
  0
LINE
  5
32E
  8
0
 62
     7
 10
8.6965529999999998
 20
52.072856999999992
 30
0.0
 11
8.6965529999999998
 21
51.728912999999991
 31
0.0
  0
LINE
  5
32F
  8
0
 62
     7
 10
8.9465529999999998
 20
51.619634999999988
 30
0.0
 11
8.7250779999999981
 21
51.619634999999988
 31
0.0
  0
ARC
  5
330
  8
0
 62
     7
 10
9.0402240000000003
 20
51.760260000000002
 30
0.0
 40
0.345098
 50
155.95253600000001
 51
204.04746399999991
  0
LINE
  5
331
  8
0
 62
     7
 10
8.9465529999999998
 20
51.900884999999988
 30
0.0
 11
8.7250779999999981
 21
51.900884999999988
 31
0.0
  0
LINE
  5
332
  8
0
 62
     7
 10
8.7250779999999981
 20
52.182135000000002
 30
0.0
 11
8.9465529999999998
 21
52.182135000000002
 31
0.0
  0
CIRCLE
  5
333
  8
OBJECT
 62
     7
 10
10.040767000000001
 20
64.119884999999996
 30
0.0
 40
0.0885
  0
CIRCLE
  5
334
  8
OBJECT
 62
     7
 10
10.040767000000001
 20
65.369884999999996
 30
0.0
 40
0.0885
  0
CIRCLE
  5
335
  8
OBJECT
 62
     7
 10
10.040767000000001
 20
65.869884999999996
 30
0.0
 40
0.0885
  0
CIRCLE
  5
336
  8
OBJECT
 62
     7
 10
10.040767000000001
 20
66.494884999999996
 30
0.0
 40
0.0885
  0
CIRCLE
  5
337
  8
OBJECT
 62
     7
 10
10.040767000000001
 20
67.119884999999996
 30
0.0
 40
0.0885
  0
CIRCLE
  5
338
  8
OBJECT
 62
     7
 10
10.040767000000001
 20
68.244884999999996
 30
0.0
 40
0.0885
  0
CIRCLE
  5
339
  8
OBJECT
 62
     7
 10
10.040767000000001
 20
67.619884999999996
 30
0.0
 40
0.0885
  0
CIRCLE
  5
33A
  8
OBJECT
 62
     7
 10
10.040767000000001
 20
72.869884999999996
 30
0.0
 40
0.0885
  0
CIRCLE
  5
33B
  8
OBJECT
 62
     7
 10
10.040767000000001
 20
68.869884999999996
 30
0.0
 40
0.0885
  0
CIRCLE
  5
33C
  8
OBJECT
 62
     7
 10
10.040767000000001
 20
70.619884999999996
 30
0.0
 40
0.0885
  0
CIRCLE
  5
33D
  8
OBJECT
 62
     7
 10
10.040767000000001
 20
69.994884999999996
 30
0.0
 40
0.0885
  0
CIRCLE
  5
33E
  8
OBJECT
 62
     7
 10
10.040767000000001
 20
69.369884999999996
 30
0.0
 40
0.0885
  0
CIRCLE
  5
33F
  8
OBJECT
 62
     7
 10
10.040767000000001
 20
72.369884999999996
 30
0.0
 40
0.0885
  0
CIRCLE
  5
340
  8
OBJECT
 62
     7
 10
10.040767000000001
 20
71.744884999999996
 30
0.0
 40
0.0885
  0
CIRCLE
  5
341
  8
OBJECT
 62
     7
 10
10.040767000000001
 20
71.119884999999996
 30
0.0
 40
0.0885
  0
CIRCLE
  5
342
  8
OBJECT
 62
     7
 10
10.040767000000001
 20
74.119884999999996
 30
0.0
 40
0.0885
  0
CIRCLE
  5
343
  8
OBJECT
 62
     7
 10
10.040767000000001
 20
73.494884999999996
 30
0.0
 40
0.0885
  0
CIRCLE
  5
344
  8
OBJECT
 62
     7
 10
10.040767000000001
 20
74.619884999999996
 30
0.0
 40
0.0885
  0
CIRCLE
  5
345
  8
OBJECT
 62
     7
 10
10.040767000000001
 20
75.869884999999996
 30
0.0
 40
0.0885
  0
CIRCLE
  5
346
  8
OBJECT
 62
     7
 10
10.040767000000001
 20
75.244884999999996
 30
0.0
 40
0.0885
  0
CIRCLE
  5
347
  8
OBJECT
 62
     7
 10
10.040767000000001
 20
76.369884999999996
 30
0.0
 40
0.0885
  0
CIRCLE
  5
348
  8
OBJECT
 62
     7
 10
28.352767
 20
64.744884999999996
 30
0.0
 40
0.0885
  0
ARC
  5
349
  8
0
 62
     7
 10
29.353308999999999
 20
52.041509999999988
 30
0.0
 40
0.345098
 50
335.95253600000001
 51
24.047464000000002
  0
LINE
  5
34A
  8
0
 62
     7
 10
29.69698
 20
50.572856999999999
 30
0.0
 11
29.69698
 21
50.228912999999999
 31
0.0
  0
LINE
  5
34B
  8
0
 62
     7
 10
29.69698
 20
52.072856999999992
 30
0.0
 11
29.69698
 21
51.728912999999991
 31
0.0
  0
LINE
  5
34C
  8
0
 62
     7
 10
29.44698
 20
50.119635000000002
 30
0.0
 11
29.668454999999991
 21
50.119635000000002
 31
0.0
  0
LINE
  5
34D
  8
0
 62
     7
 10
29.668454999999991
 20
50.682134999999988
 30
0.0
 11
29.44698
 21
50.682134999999988
 31
0.0
  0
LINE
  5
34E
  8
0
 62
     7
 10
29.44698
 20
50.400884999999988
 30
0.0
 11
29.668454999999991
 21
50.400884999999988
 31
0.0
  0
LINE
  5
34F
  8
0
 62
     7
 10
29.44698
 20
51.900884999999988
 30
0.0
 11
29.668454999999991
 21
51.900884999999988
 31
0.0
  0
LINE
  5
350
  8
0
 62
     7
 10
29.44698
 20
51.619634999999988
 30
0.0
 11
29.668454999999991
 21
51.619634999999988
 31
0.0
  0
ARC
  5
351
  8
0
 62
     7
 10
29.353308999999999
 20
50.260259999999988
 30
0.0
 40
0.345098
 50
335.95253600000001
 51
24.047464000000002
  0
ARC
  5
352
  8
0
 62
     7
 10
29.353308999999999
 20
50.541510000000002
 30
0.0
 40
0.345098
 50
335.95253600000001
 51
24.047464000000002
  0
ARC
  5
353
  8
0
 62
     7
 10
29.353308999999999
 20
51.760260000000002
 30
0.0
 40
0.345098
 50
335.95253600000001
 51
24.047464000000002
  0
CIRCLE
  5
354
  8
OBJECT
 62
     7
 10
28.352767
 20
64.119884999999996
 30
0.0
 40
0.0885
  0
LINE
  5
355
  8
0
 62
     7
 10
29.668454999999991
 20
52.182135000000002
 30
0.0
 11
29.44698
 21
52.182135000000002
 31
0.0
  0
CIRCLE
  5
356
  8
OBJECT
 62
     7
 10
28.352767
 20
65.869884999999996
 30
0.0
 40
0.0885
  0
CIRCLE
  5
357
  8
OBJECT
 62
     7
 10
28.352767
 20
65.369884999999996
 30
0.0
 40
0.0885
  0
CIRCLE
  5
358
  8
OBJECT
 62
     7
 10
28.352767
 20
66.494884999999996
 30
0.0
 40
0.0885
  0
CIRCLE
  5
359
  8
OBJECT
 62
     7
 10
28.352767
 20
67.619884999999996
 30
0.0
 40
0.0885
  0
CIRCLE
  5
35A
  8
OBJECT
 62
     7
 10
28.352767
 20
68.244884999999996
 30
0.0
 40
0.0885
  0
CIRCLE
  5
35B
  8
OBJECT
 62
     7
 10
28.352767
 20
67.119884999999996
 30
0.0
 40
0.0885
  0
CIRCLE
  5
35C
  8
OBJECT
 62
     7
 10
28.352767
 20
72.869884999999996
 30
0.0
 40
0.0885
  0
CIRCLE
  5
35D
  8
OBJECT
 62
     7
 10
28.352767
 20
69.369884999999996
 30
0.0
 40
0.0885
  0
CIRCLE
  5
35E
  8
OBJECT
 62
     7
 10
28.352767
 20
69.994884999999996
 30
0.0
 40
0.0885
  0
CIRCLE
  5
35F
  8
OBJECT
 62
     7
 10
28.352767
 20
70.619884999999996
 30
0.0
 40
0.0885
  0
CIRCLE
  5
360
  8
OBJECT
 62
     7
 10
28.352767
 20
68.869884999999996
 30
0.0
 40
0.0885
  0
CIRCLE
  5
361
  8
OBJECT
 62
     7
 10
28.352767
 20
71.119884999999996
 30
0.0
 40
0.0885
  0
CIRCLE
  5
362
  8
OBJECT
 62
     7
 10
28.352767
 20
71.744884999999996
 30
0.0
 40
0.0885
  0
CIRCLE
  5
363
  8
OBJECT
 62
     7
 10
28.352767
 20
72.369884999999996
 30
0.0
 40
0.0885
  0
CIRCLE
  5
364
  8
OBJECT
 62
     7
 10
28.352767
 20
74.619884999999996
 30
0.0
 40
0.0885
  0
CIRCLE
  5
365
  8
OBJECT
 62
     7
 10
28.352767
 20
73.494884999999996
 30
0.0
 40
0.0885
  0
CIRCLE
  5
366
  8
OBJECT
 62
     7
 10
28.352767
 20
74.119884999999996
 30
0.0
 40
0.0885
  0
CIRCLE
  5
367
  8
OBJECT
 62
     7
 10
28.352767
 20
76.369884999999996
 30
0.0
 40
0.0885
  0
CIRCLE
  5
368
  8
OBJECT
 62
     7
 10
28.352767
 20
75.244884999999996
 30
0.0
 40
0.0885
  0
CIRCLE
  5
369
  8
OBJECT
 62
     7
 10
28.352767
 20
75.869884999999996
 30
0.0
 40
0.0885
  0
CIRCLE
  5
36A
  8
OBJECT
 62
     7
 10
10.040767000000001
 20
76.994884999999996
 30
0.0
 40
0.0885
  0
CIRCLE
  5
36B
  8
OBJECT
 62
     7
 10
10.040767000000001
 20
77.619884999999996
 30
0.0
 40
0.0885
  0
CIRCLE
  5
36C
  8
OBJECT
 62
     7
 10
10.040767000000001
 20
78.744884999999996
 30
0.0
 40
0.0885
  0
CIRCLE
  5
36D
  8
OBJECT
 62
     7
 10
10.040767000000001
 20
78.119884999999996
 30
0.0
 40
0.0885
  0
CIRCLE
  5
36E
  8
OBJECT
 62
     7
 10
10.040767000000001
 20
79.369884999999996
 30
0.0
 40
0.0885
  0
CIRCLE
  5
36F
  8
OBJECT
 62
     7
 10
10.040767000000001
 20
80.494884999999996
 30
0.0
 40
0.0885
  0
CIRCLE
  5
370
  8
OBJECT
 62
     7
 10
10.040767000000001
 20
79.869884999999996
 30
0.0
 40
0.0885
  0
CIRCLE
  5
371
  8
OBJECT
 62
     7
 10
10.040767000000001
 20
81.619884999999996
 30
0.0
 40
0.0885
  0
CIRCLE
  5
372
  8
OBJECT
 62
     7
 10
10.040767000000001
 20
81.119884999999996
 30
0.0
 40
0.0885
  0
CIRCLE
  5
373
  8
OBJECT
 62
     7
 10
10.040767000000001
 20
82.869884999999996
 30
0.0
 40
0.0885
  0
CIRCLE
  5
374
  8
OBJECT
 62
     7
 10
10.040767000000001
 20
82.244884999999996
 30
0.0
 40
0.0885
  0
CIRCLE
  5
375
  8
OBJECT
 62
     7
 10
10.040767000000001
 20
83.369884999999996
 30
0.0
 40
0.0885
  0
CIRCLE
  5
376
  8
OBJECT
 62
     7
 10
10.040767000000001
 20
84.619884999999996
 30
0.0
 40
0.0885
  0
CIRCLE
  5
377
  8
OBJECT
 62
     7
 10
10.040767000000001
 20
83.994884999999996
 30
0.0
 40
0.0885
  0
CIRCLE
  5
378
  8
OBJECT
 62
     7
 10
10.040767000000001
 20
85.744884999999996
 30
0.0
 40
0.0885
  0
CIRCLE
  5
379
  8
OBJECT
 62
     7
 10
10.040767000000001
 20
85.119884999999996
 30
0.0
 40
0.0885
  0
CIRCLE
  5
37A
  8
OBJECT
 62
     7
 10
10.040767000000001
 20
86.369884999999996
 30
0.0
 40
0.0885
  0
CIRCLE
  5
37B
  8
OBJECT
 62
     7
 10
10.040767000000001
 20
86.869884999999996
 30
0.0
 40
0.0885
  0
CIRCLE
  5
37C
  8
OBJECT
 62
     7
 10
10.040767000000001
 20
88.119884999999996
 30
0.0
 40
0.0885
  0
CIRCLE
  5
37D
  8
OBJECT
 62
     7
 10
10.040767000000001
 20
87.494884999999996
 30
0.0
 40
0.0885
  0
CIRCLE
  5
37E
  8
OBJECT
 62
     7
 10
10.040767000000001
 20
88.619884999999996
 30
0.0
 40
0.0885
  0
CIRCLE
  5
37F
  8
OBJECT
 62
     7
 10
10.040767000000001
 20
90.369884999999996
 30
0.0
 40
0.0885
  0
CIRCLE
  5
380
  8
OBJECT
 62
     7
 10
10.040767000000001
 20
89.869884999999996
 30
0.0
 40
0.0885
  0
CIRCLE
  5
381
  8
OBJECT
 62
     7
 10
10.040767000000001
 20
89.244884999999996
 30
0.0
 40
0.0885
  0
CIRCLE
  5
382
  8
OBJECT
 62
     7
 10
10.040767000000001
 20
90.994884999999996
 30
0.0
 40
0.0885
  0
CIRCLE
  5
383
  8
OBJECT
 62
     7
 10
10.040767000000001
 20
91.619884999999996
 30
0.0
 40
0.0885
  0
CIRCLE
  5
384
  8
OBJECT
 62
     7
 10
10.040767000000001
 20
92.119884999999996
 30
0.0
 40
0.0885
  0
CIRCLE
  5
385
  8
OBJECT
 62
     7
 10
10.040767000000001
 20
92.744884999999996
 30
0.0
 40
0.0885
  0
CIRCLE
  5
386
  8
OBJECT
 62
     7
 10
28.352767
 20
76.994884999999996
 30
0.0
 40
0.0885
  0
CIRCLE
  5
387
  8
OBJECT
 62
     7
 10
28.352767
 20
78.119884999999996
 30
0.0
 40
0.0885
  0
CIRCLE
  5
388
  8
OBJECT
 62
     7
 10
28.352767
 20
78.744884999999996
 30
0.0
 40
0.0885
  0
CIRCLE
  5
389
  8
OBJECT
 62
     7
 10
28.352767
 20
77.619884999999996
 30
0.0
 40
0.0885
  0
CIRCLE
  5
38A
  8
OBJECT
 62
     7
 10
28.352767
 20
79.369884999999996
 30
0.0
 40
0.0885
  0
CIRCLE
  5
38B
  8
OBJECT
 62
     7
 10
28.352767
 20
79.869884999999996
 30
0.0
 40
0.0885
  0
CIRCLE
  5
38C
  8
OBJECT
 62
     7
 10
28.352767
 20
80.494884999999996
 30
0.0
 40
0.0885
  0
CIRCLE
  5
38D
  8
OBJECT
 62
     7
 10
28.352767
 20
81.619884999999996
 30
0.0
 40
0.0885
  0
CIRCLE
  5
38E
  8
OBJECT
 62
     7
 10
28.352767
 20
81.119884999999996
 30
0.0
 40
0.0885
  0
CIRCLE
  5
38F
  8
OBJECT
 62
     7
 10
28.352767
 20
82.244884999999996
 30
0.0
 40
0.0885
  0
CIRCLE
  5
390
  8
OBJECT
 62
     7
 10
28.352767
 20
82.869884999999996
 30
0.0
 40
0.0885
  0
CIRCLE
  5
391
  8
OBJECT
 62
     7
 10
28.352767
 20
83.369884999999996
 30
0.0
 40
0.0885
  0
CIRCLE
  5
392
  8
OBJECT
 62
     7
 10
28.352767
 20
83.994884999999996
 30
0.0
 40
0.0885
  0
CIRCLE
  5
393
  8
OBJECT
 62
     7
 10
28.352767
 20
84.619884999999996
 30
0.0
 40
0.0885
  0
CIRCLE
  5
394
  8
OBJECT
 62
     7
 10
28.352767
 20
85.119884999999996
 30
0.0
 40
0.0885
  0
CIRCLE
  5
395
  8
OBJECT
 62
     7
 10
28.352767
 20
85.744884999999996
 30
0.0
 40
0.0885
  0
CIRCLE
  5
396
  8
OBJECT
 62
     7
 10
28.352767
 20
86.869884999999996
 30
0.0
 40
0.0885
  0
CIRCLE
  5
397
  8
OBJECT
 62
     7
 10
28.352767
 20
86.369884999999996
 30
0.0
 40
0.0885
  0
CIRCLE
  5
398
  8
OBJECT
 62
     7
 10
28.352767
 20
88.119884999999996
 30
0.0
 40
0.0885
  0
CIRCLE
  5
399
  8
OBJECT
 62
     7
 10
28.352767
 20
87.494884999999996
 30
0.0
 40
0.0885
  0
CIRCLE
  5
39A
  8
OBJECT
 62
     7
 10
28.352767
 20
88.619884999999996
 30
0.0
 40
0.0885
  0
CIRCLE
  5
39B
  8
OBJECT
 62
     7
 10
28.352767
 20
90.369884999999996
 30
0.0
 40
0.0885
  0
CIRCLE
  5
39C
  8
OBJECT
 62
     7
 10
28.352767
 20
89.244884999999996
 30
0.0
 40
0.0885
  0
CIRCLE
  5
39D
  8
OBJECT
 62
     7
 10
28.352767
 20
89.869884999999996
 30
0.0
 40
0.0885
  0
CIRCLE
  5
39E
  8
OBJECT
 62
     7
 10
28.352767
 20
90.994884999999996
 30
0.0
 40
0.0885
  0
CIRCLE
  5
39F
  8
OBJECT
 62
     7
 10
28.352767
 20
92.119884999999996
 30
0.0
 40
0.0885
  0
CIRCLE
  5
3A0
  8
OBJECT
 62
     7
 10
28.352767
 20
91.619884999999996
 30
0.0
 40
0.0885
  0
CIRCLE
  5
3A1
  8
OBJECT
 62
     7
 10
28.352767
 20
92.744884999999996
 30
0.0
 40
0.0885
  0
CIRCLE
  5
3A2
  8
OBJECT
 62
     7
 10
10.040767000000001
 20
95.119884999999996
 30
0.0
 40
0.0885
  0
CIRCLE
  5
3A3
  8
OBJECT
 62
     7
 10
10.040767000000001
 20
93.369884999999996
 30
0.0
 40
0.0885
  0
CIRCLE
  5
3A4
  8
OBJECT
 62
     7
 10
10.040767000000001
 20
94.494884999999996
 30
0.0
 40
0.0885
  0
CIRCLE
  5
3A5
  8
OBJECT
 62
     7
 10
10.040767000000001
 20
93.869884999999996
 30
0.0
 40
0.0885
  0
CIRCLE
  5
3A6
  8
OBJECT
 62
     7
 10
28.352767
 20
95.119884999999996
 30
0.0
 40
0.0885
  0
CIRCLE
  5
3A7
  8
OBJECT
 62
     7
 10
28.352767
 20
93.869884999999996
 30
0.0
 40
0.0885
  0
CIRCLE
  5
3A8
  8
OBJECT
 62
     7
 10
28.352767
 20
94.494884999999996
 30
0.0
 40
0.0885
  0
CIRCLE
  5
3A9
  8
OBJECT
 62
     7
 10
28.352767
 20
93.369884999999996
 30
0.0
 40
0.0885
  0
POLYLINE
  5
3AA
  8
BRACKET
 62
     7
 66
     1
 10
0.0
 20
0.0
 30
0.0
  0
VERTEX
  5
6FA
  8
BRACKET
 62
     7
 10
27.94698
 20
99.176884999999999
 30
0.0
  0
VERTEX
  5
6FB
  8
BRACKET
 62
     7
 10
26.32198
 20
99.176884999999999
 30
0.0
 42
0.4142140000000001
  0
VERTEX
  5
6FC
  8
BRACKET
 62
     7
 10
26.07198
 20
98.926884999999999
 30
0.0
  0
VERTEX
  5
6FD
  8
BRACKET
 62
     7
 10
26.07198
 20
95.551884999999984
 30
0.0
 42
0.4142140000000001
  0
VERTEX
  5
6FE
  8
BRACKET
 62
     7
 10
26.32198
 20
95.301884999999984
 30
0.0
  0
VERTEX
  5
6FF
  8
BRACKET
 62
     7
 10
29.44698
 20
95.301884999999984
 30
0.0
  0
VERTEX
  5
700
  8
BRACKET
 62
     7
 10
29.44698
 20
99.114384999999999
 30
0.0
 42
0.4142140000000001
  0
VERTEX
  5
701
  8
BRACKET
 62
     7
 10
29.321979999999989
 20
99.239384999999999
 30
0.0
  0
VERTEX
  5
702
  8
BRACKET
 62
     7
 10
27.94698
 20
99.239384999999999
 30
0.0
  0
VERTEX
  5
703
  8
BRACKET
 62
     7
 10
27.94698
 20
99.130385000000004
 30
0.0
  0
SEQEND
  5
704
  8
BRACKET
 62
     7
  0
LINE
  5
3B6
  8
ANGLE
  6
HIDDEN2
 62
     7
 10
8.9467669999999995
 20
99.301384999999996
 30
0.0
 11
8.9467669999999995
 21
95.401385000000005
 31
0.0
  0
POLYLINE
  5
3B7
  8
BRACKET
  6
HIDDEN
 62
     7
 66
     1
 10
0.0
 20
0.0
 30
0.0
  0
VERTEX
  5
705
  8
BRACKET
  6
HIDDEN
 62
     7
 10
9.0555529999999997
 20
95.301884999999984
 30
0.0
  0
VERTEX
  5
706
  8
BRACKET
  6
HIDDEN
 62
     7
 10
9.0555529999999997
 20
99.114384999999999
 30
0.0
 42
-0.4142140000000001
  0
VERTEX
  5
707
  8
BRACKET
  6
HIDDEN
 62
     7
 10
9.0715529999999998
 20
99.130385000000004
 30
0.0
  0
VERTEX
  5
708
  8
BRACKET
  6
HIDDEN
 62
     7
 10
10.446553
 20
99.130385000000004
 30
0.0
  0
SEQEND
  5
709
  8
BRACKET
  6
HIDDEN
 62
     7
  0
POLYLINE
  5
3BD
  8
BRACKET
 62
     7
 66
     1
 10
0.0
 20
0.0
 30
0.0
  0
VERTEX
  5
70A
  8
BRACKET
 62
     7
 10
10.446553
 20
99.176884999999999
 30
0.0
  0
VERTEX
  5
70B
  8
BRACKET
 62
     7
 10
12.071553
 20
99.176884999999999
 30
0.0
 42
-0.4142140000000001
  0
VERTEX
  5
70C
  8
BRACKET
 62
     7
 10
12.321553
 20
98.926884999999999
 30
0.0
  0
VERTEX
  5
70D
  8
BRACKET
 62
     7
 10
12.321553
 20
95.551884999999984
 30
0.0
 42
-0.4142140000000001
  0
VERTEX
  5
70E
  8
BRACKET
 62
     7
 10
12.071553
 20
95.301884999999984
 30
0.0
  0
VERTEX
  5
70F
  8
BRACKET
 62
     7
 10
8.9465529999999998
 20
95.301884999999984
 30
0.0
  0
VERTEX
  5
710
  8
BRACKET
 62
     7
 10
8.9465529999999998
 20
99.114384999999999
 30
0.0
 42
-0.4142140000000001
  0
VERTEX
  5
711
  8
BRACKET
 62
     7
 10
9.0715529999999998
 20
99.239384999999999
 30
0.0
  0
VERTEX
  5
712
  8
BRACKET
 62
     7
 10
10.446553
 20
99.239384999999999
 30
0.0
  0
VERTEX
  5
713
  8
BRACKET
 62
     7
 10
10.446553
 20
99.130385000000004
 30
0.0
  0
SEQEND
  5
714
  8
BRACKET
 62
     7
  0
LINE
  5
3C9
  8
HIDDEN
 62
     7
 10
10.320553
 20
99.088885000000005
 30
0.0
 11
10.320553
 21
95.426884999999999
 31
0.0
  0
LINE
  5
3CA
  8
ANGLE
  6
HIDDEN2
 62
     7
 10
29.446767000000001
 20
99.301384999999996
 30
0.0
 11
29.446767000000001
 21
95.401385000000005
 31
0.0
  0
POLYLINE
  5
3CB
  8
BRACKET
  6
HIDDEN
 62
     7
 66
     1
 10
0.0
 20
0.0
 30
0.0
  0
VERTEX
  5
715
  8
BRACKET
  6
HIDDEN
 62
     7
 10
29.337979999999991
 20
95.301884999999984
 30
0.0
  0
VERTEX
  5
716
  8
BRACKET
  6
HIDDEN
 62
     7
 10
29.337979999999991
 20
99.114384999999999
 30
0.0
 42
0.4142140000000001
  0
VERTEX
  5
717
  8
BRACKET
  6
HIDDEN
 62
     7
 10
29.321979999999989
 20
99.130385000000004
 30
0.0
  0
VERTEX
  5
718
  8
BRACKET
  6
HIDDEN
 62
     7
 10
27.94698
 20
99.130385000000004
 30
0.0
  0
SEQEND
  5
719
  8
BRACKET
  6
HIDDEN
 62
     7
  0
LINE
  5
3D1
  8
HIDDEN
 62
     7
 10
28.07297999999999
 20
99.088885000000005
 30
0.0
 11
28.07297999999999
 21
95.426884999999999
 31
0.0
  0
LINE
  5
3D2
  8
ANGLE
 62
     7
 10
8.9467669999999995
 20
99.301384999999996
 30
0.0
 11
29.446767000000001
 21
99.301384999999996
 31
0.0
  0
LINE
  5
3D3
  8
ANGLE
 62
     7
 10
8.9467669999999995
 20
99.239384999999999
 30
0.0
 11
29.446767000000001
 21
99.239384999999999
 31
0.0
  0
LINE
  5
3D4
  8
0
 62
     7
 10
9.9837330000000009
 20
99.301384999999996
 30
0.0
 11
9.9837330000000009
 21
99.522859999999994
 31
0.0
  0
LINE
  5
3D5
  8
0
 62
     7
 10
9.6589460000000003
 20
99.301384999999996
 30
0.0
 11
9.6589460000000003
 21
99.522859999999994
 31
0.0
  0
LINE
  5
3D6
  8
HIDDEN
 62
     7
 10
9.0555529999999997
 20
99.088885000000005
 30
0.0
 11
10.320553
 21
99.088885000000005
 31
0.0
  0
LINE
  5
3D7
  8
0
 62
     7
 10
9.5777770000000011
 20
99.551384999999996
 30
0.0
 11
10.064902
 21
99.551384999999996
 31
0.0
  0
POLYLINE
  5
3D8
  8
0
 62
     7
 66
     1
 10
0.0
 20
0.0
 30
0.0
 70
     1
  0
VERTEX
  5
71A
  8
0
 62
     7
 10
10.146108
 20
99.301384999999996
 30
0.0
  0
VERTEX
  5
71B
  8
0
 62
     7
 10
10.146108
 20
99.522859999999994
 30
0.0
 42
0.368919
  0
VERTEX
  5
71C
  8
0
 62
     7
 10
9.9837330000000009
 20
99.522859999999994
 30
0.0
 42
0.185339
  0
VERTEX
  5
71D
  8
0
 62
     7
 10
9.6589460000000003
 20
99.522859999999994
 30
0.0
 42
0.368919
  0
VERTEX
  5
71E
  8
0
 62
     7
 10
9.4965710000000012
 20
99.522859999999994
 30
0.0
  0
VERTEX
  5
71F
  8
0
 62
     7
 10
9.4965710000000012
 20
99.301384999999996
 30
0.0
  0
SEQEND
  5
720
  8
0
 62
     7
  0
LINE
  5
3E0
  8
HIDDEN
 62
     7
 10
29.337979999999991
 20
99.088885000000005
 30
0.0
 11
28.07297999999999
 21
99.088885000000005
 31
0.0
  0
LINE
  5
3E1
  8
0
 62
     7
 10
28.409800000000001
 20
99.301384999999996
 30
0.0
 11
28.409800000000001
 21
99.522859999999994
 31
0.0
  0
LINE
  5
3E2
  8
0
 62
     7
 10
28.734587000000001
 20
99.301384999999996
 30
0.0
 11
28.734587000000001
 21
99.522859999999994
 31
0.0
  0
POLYLINE
  5
3E3
  8
0
 62
     7
 66
     1
 10
0.0
 20
0.0
 30
0.0
 70
     1
  0
VERTEX
  5
721
  8
0
 62
     7
 10
28.247425
 20
99.301384999999996
 30
0.0
  0
VERTEX
  5
722
  8
0
 62
     7
 10
28.247425
 20
99.522859999999994
 30
0.0
 42
-0.368919
  0
VERTEX
  5
723
  8
0
 62
     7
 10
28.409800000000001
 20
99.522859999999994
 30
0.0
 42
-0.185339
  0
VERTEX
  5
724
  8
0
 62
     7
 10
28.734587000000001
 20
99.522859999999994
 30
0.0
 42
-0.368919
  0
VERTEX
  5
725
  8
0
 62
     7
 10
28.896961999999991
 20
99.522859999999994
 30
0.0
  0
VERTEX
  5
726
  8
0
 62
     7
 10
28.896961999999991
 20
99.301384999999996
 30
0.0
  0
SEQEND
  5
727
  8
0
 62
     7
  0
LINE
  5
3EB
  8
0
 62
     7
 10
28.815756
 20
99.551384999999996
 30
0.0
 11
28.328631000000001
 21
99.551384999999996
 31
0.0
  0
LINE
  5
3EC
  8
ANGLE
 62
     7
 10
12.271176999999989
 20
95.401385000000005
 30
0.0
 11
26.122355999999989
 21
95.401385000000005
 31
0.0
  0
ARC
  5
3ED
  8
0
 62
     7
 10
9.0402240000000003
 20
96.698260000000005
 30
0.0
 40
0.345098
 50
155.95253600000001
 51
204.04746399999991
  0
LINE
  5
3EE
  8
0
 62
     7
 10
8.9465529999999998
 20
96.838885000000005
 30
0.0
 11
8.7250779999999981
 21
96.838885000000005
 31
0.0
  0
ARC
  5
3EF
  8
0
 62
     7
 10
9.0402240000000003
 20
96.979510000000005
 30
0.0
 40
0.345098
 50
155.95253600000001
 51
204.04746399999991
  0
LINE
  5
3F0
  8
0
 62
     7
 10
8.9465529999999998
 20
97.120135000000005
 30
0.0
 11
8.7250779999999981
 21
97.120135000000005
 31
0.0
  0
LINE
  5
3F1
  8
0
 62
     7
 10
8.6965529999999998
 20
96.666912999999994
 30
0.0
 11
8.6965529999999998
 21
97.010857000000001
 31
0.0
  0
LINE
  5
3F2
  8
0
 62
     7
 10
8.6965529999999998
 20
98.166912999999994
 30
0.0
 11
8.6965529999999998
 21
98.510857000000001
 31
0.0
  0
LINE
  5
3F3
  8
0
 62
     7
 10
8.9465529999999998
 20
98.620135000000005
 30
0.0
 11
8.7250779999999981
 21
98.620135000000005
 31
0.0
  0
ARC
  5
3F4
  8
0
 62
     7
 10
9.0402240000000003
 20
98.479510000000005
 30
0.0
 40
0.345098
 50
155.95253600000001
 51
204.04746399999991
  0
LINE
  5
3F5
  8
0
 62
     7
 10
8.7250779999999981
 20
98.057635000000005
 30
0.0
 11
8.9465529999999998
 21
98.057635000000005
 31
0.0
  0
ARC
  5
3F6
  8
0
 62
     7
 10
9.0402240000000003
 20
98.198260000000005
 30
0.0
 40
0.345098
 50
155.95253600000001
 51
204.04746399999991
  0
LINE
  5
3F7
  8
0
 62
     7
 10
8.9465529999999998
 20
98.338885000000005
 30
0.0
 11
8.7250779999999981
 21
98.338885000000005
 31
0.0
  0
CIRCLE
  5
3F8
  8
BRACKET
 62
     7
 10
11.196553
 20
98.114385000000013
 30
0.0
 40
0.25
  0
LINE
  5
3F9
  8
ANGLE
  6
HIDDEN2
 62
     7
 10
8.9467669999999995
 20
95.401385000000005
 30
0.0
 11
12.196553
 21
95.401385000000005
 31
0.0
  0
LINE
  5
3FA
  8
0
 62
     7
 10
8.7250779999999981
 20
96.557635000000005
 30
0.0
 11
8.9465529999999998
 21
96.557635000000005
 31
0.0
  0
CIRCLE
  5
3FB
  8
BRACKET
 62
     7
 10
11.196553
 20
96.114384999999999
 30
0.0
 40
0.25
  0
ARC
  5
3FC
  8
0
 62
     7
 10
29.353308999999999
 20
96.698260000000005
 30
0.0
 40
0.345098
 50
335.95253600000001
 51
24.047464000000002
  0
CIRCLE
  5
3FD
  8
BRACKET
 62
     7
 10
27.19698
 20
98.114385000000013
 30
0.0
 40
0.25
  0
ARC
  5
3FE
  8
0
 62
     7
 10
29.353308999999999
 20
96.979510000000005
 30
0.0
 40
0.345098
 50
335.95253600000001
 51
24.047464000000002
  0
ARC
  5
3FF
  8
0
 62
     7
 10
29.353308999999999
 20
98.198260000000005
 30
0.0
 40
0.345098
 50
335.95253600000001
 51
24.047464000000002
  0
ARC
  5
400
  8
0
 62
     7
 10
29.353308999999999
 20
98.479510000000005
 30
0.0
 40
0.345098
 50
335.95253600000001
 51
24.047464000000002
  0
LINE
  5
401
  8
0
 62
     7
 10
29.44698
 20
97.120135000000005
 30
0.0
 11
29.668454999999991
 21
97.120135000000005
 31
0.0
  0
LINE
  5
402
  8
0
 62
     7
 10
29.44698
 20
96.838885000000005
 30
0.0
 11
29.668454999999991
 21
96.838885000000005
 31
0.0
  0
LINE
  5
403
  8
0
 62
     7
 10
29.44698
 20
98.338885000000005
 30
0.0
 11
29.668454999999991
 21
98.338885000000005
 31
0.0
  0
LINE
  5
404
  8
0
 62
     7
 10
29.668454999999991
 20
98.057635000000005
 30
0.0
 11
29.44698
 21
98.057635000000005
 31
0.0
  0
LINE
  5
405
  8
0
 62
     7
 10
29.44698
 20
98.620135000000005
 30
0.0
 11
29.668454999999991
 21
98.620135000000005
 31
0.0
  0
LINE
  5
406
  8
0
 62
     7
 10
29.69698
 20
96.666912999999994
 30
0.0
 11
29.69698
 21
97.010857000000001
 31
0.0
  0
LINE
  5
407
  8
0
 62
     7
 10
29.69698
 20
98.166912999999994
 30
0.0
 11
29.69698
 21
98.510857000000001
 31
0.0
  0
CIRCLE
  5
408
  8
BRACKET
 62
     7
 10
27.19698
 20
96.114384999999999
 30
0.0
 40
0.25
  0
LINE
  5
409
  8
ANGLE
  6
HIDDEN2
 62
     7
 10
26.19698
 20
95.401385000000005
 30
0.0
 11
29.446767000000001
 21
95.401385000000005
 31
0.0
  0
LINE
  5
40A
  8
0
 62
     7
 10
29.668454999999991
 20
96.557635000000005
 30
0.0
 11
29.44698
 21
96.557635000000005
 31
0.0
  0
LINE
  5
40B
  8
BRACKET
 62
     7
 10
77.904624999999996
 20
95.301884999999984
 30
0.0
 11
77.904624999999996
 21
99.114384999999999
 31
0.0
  0
LINE
  5
40C
  8
BRACKET
 62
     7
 10
57.404198000000001
 20
95.301884999999984
 30
0.0
 11
57.404198000000001
 21
99.114384999999999
 31
0.0
  0
LINE
  5
40D
  8
HIDDEN
 62
     7
 10
76.530625000000001
 20
99.088885000000005
 30
0.0
 11
76.530625000000001
 21
95.526385000000005
 31
0.0
  0
POLYLINE
  5
40E
  8
BRACKET
  6
HIDDEN
 62
     7
 66
     1
 10
0.0
 20
0.0
 30
0.0
  0
VERTEX
  5
728
  8
BRACKET
  6
HIDDEN
 62
     7
 10
77.795625000000001
 20
95.301884999999984
 30
0.0
  0
VERTEX
  5
729
  8
BRACKET
  6
HIDDEN
 62
     7
 10
77.795625000000001
 20
99.114384999999999
 30
0.0
 42
0.4142140000000001
  0
VERTEX
  5
72A
  8
BRACKET
  6
HIDDEN
 62
     7
 10
77.779624999999996
 20
99.130385000000004
 30
0.0
  0
VERTEX
  5
72B
  8
BRACKET
  6
HIDDEN
 62
     7
 10
76.404624999999996
 20
99.130385000000004
 30
0.0
  0
SEQEND
  5
72C
  8
BRACKET
  6
HIDDEN
 62
     7
  0
LINE
  5
414
  8
ANGLE
 62
     7
 10
77.904410999999996
 20
99.301384999999996
 30
0.0
 11
77.904410999999996
 21
95.401385000000005
 31
0.0
  0
LINE
  5
415
  8
HIDDEN
 62
     7
 10
58.778198000000003
 20
99.088885000000005
 30
0.0
 11
58.778198000000003
 21
95.526385000000005
 31
0.0
  0
POLYLINE
  5
416
  8
BRACKET
  6
HIDDEN
 62
     7
 66
     1
 10
0.0
 20
0.0
 30
0.0
  0
VERTEX
  5
72D
  8
BRACKET
  6
HIDDEN
 62
     7
 10
57.513198000000003
 20
95.301884999999984
 30
0.0
  0
VERTEX
  5
72E
  8
BRACKET
  6
HIDDEN
 62
     7
 10
57.513198000000003
 20
99.114384999999999
 30
0.0
 42
-0.4142140000000001
  0
VERTEX
  5
72F
  8
BRACKET
  6
HIDDEN
 62
     7
 10
57.529198000000001
 20
99.130385000000004
 30
0.0
  0
VERTEX
  5
730
  8
BRACKET
  6
HIDDEN
 62
     7
 10
58.904198000000001
 20
99.130385000000004
 30
0.0
  0
SEQEND
  5
731
  8
BRACKET
  6
HIDDEN
 62
     7
  0
LINE
  5
41C
  8
ANGLE
 62
     7
 10
57.404410999999989
 20
99.301384999999996
 30
0.0
 11
57.404410999999989
 21
95.401385000000005
 31
0.0
  0
LINE
  5
41D
  8
ANGLE
  6
HIDDEN
 62
     7
 10
57.404410999999989
 20
99.239384999999999
 30
0.0
 11
77.904410999999996
 21
99.239384999999999
 31
0.0
  0
LINE
  5
41E
  8
ANGLE
 62
     7
 10
57.404410999999989
 20
99.301384999999996
 30
0.0
 11
77.904410999999996
 21
99.301384999999996
 31
0.0
  0
LINE
  5
41F
  8
BRACKET
  6
HIDDEN
 62
     7
 10
57.529198000000001
 20
99.239384999999999
 30
0.0
 11
58.904198000000001
 21
99.239384999999999
 31
0.0
  0
POLYLINE
  5
420
  8
0
 62
     7
 66
     1
 10
0.0
 20
0.0
 30
0.0
 70
     1
  0
VERTEX
  5
732
  8
0
 62
     7
 10
58.603753000000012
 20
99.301384999999996
 30
0.0
  0
VERTEX
  5
733
  8
0
 62
     7
 10
58.603753000000012
 20
99.522859999999994
 30
0.0
 42
0.368919
  0
VERTEX
  5
734
  8
0
 62
     7
 10
58.441378
 20
99.522859999999994
 30
0.0
 42
0.185339
  0
VERTEX
  5
735
  8
0
 62
     7
 10
58.116590000000002
 20
99.522859999999994
 30
0.0
 42
0.368919
  0
VERTEX
  5
736
  8
0
 62
     7
 10
57.954214999999998
 20
99.522859999999994
 30
0.0
  0
VERTEX
  5
737
  8
0
 62
     7
 10
57.954214999999998
 20
99.301384999999996
 30
0.0
  0
SEQEND
  5
738
  8
0
 62
     7
  0
LINE
  5
428
  8
0
 62
     7
 10
58.03542199999999
 20
99.551384999999996
 30
0.0
 11
58.522546999999989
 21
99.551384999999996
 31
0.0
  0
LINE
  5
429
  8
HIDDEN
 62
     7
 10
57.513198000000003
 20
99.088885000000005
 30
0.0
 11
58.778198000000003
 21
99.088885000000005
 31
0.0
  0
ARC
  5
42A
  8
BRACKET
  6
HIDDEN2
 62
     7
 10
57.529198000000001
 20
99.114384999999999
 30
0.0
 40
0.125
 50
90.0
 51
180.0
  0
LINE
  5
42B
  8
0
 62
     7
 10
58.116590000000002
 20
99.301384999999996
 30
0.0
 11
58.116590000000002
 21
99.522859999999994
 31
0.0
  0
LINE
  5
42C
  8
BRACKET
  6
HIDDEN
 62
     7
 10
58.904198000000001
 20
99.239384999999999
 30
0.0
 11
58.904198000000001
 21
99.130385000000004
 31
0.0
  0
LINE
  5
42D
  8
0
 62
     7
 10
58.441378
 20
99.301384999999996
 30
0.0
 11
58.441378
 21
99.522859999999994
 31
0.0
  0
LINE
  5
42E
  8
BRACKET
  6
HIDDEN
 62
     7
 10
77.779624999999996
 20
99.239384999999999
 30
0.0
 11
76.404624999999996
 21
99.239384999999999
 31
0.0
  0
LINE
  5
42F
  8
HIDDEN
 62
     7
 10
77.795625000000001
 20
99.088885000000005
 30
0.0
 11
76.530625000000001
 21
99.088885000000005
 31
0.0
  0
LINE
  5
430
  8
BRACKET
  6
HIDDEN
 62
     7
 10
76.404624999999996
 20
99.239384999999999
 30
0.0
 11
76.404624999999996
 21
99.130385000000004
 31
0.0
  0
LINE
  5
431
  8
0
 62
     7
 10
77.273401000000007
 20
99.550884999999994
 30
0.0
 11
76.786276000000001
 21
99.550884999999994
 31
0.0
  0
POLYLINE
  5
432
  8
0
 62
     7
 66
     1
 10
0.0
 20
0.0
 30
0.0
 70
     1
  0
VERTEX
  5
739
  8
0
 62
     7
 10
76.705068999999995
 20
99.300884999999994
 30
0.0
  0
VERTEX
  5
73A
  8
0
 62
     7
 10
76.705068999999995
 20
99.522359999999992
 30
0.0
 42
-0.368919
  0
VERTEX
  5
73B
  8
0
 62
     7
 10
76.867443999999992
 20
99.522359999999992
 30
0.0
 42
-0.185339
  0
VERTEX
  5
73C
  8
0
 62
     7
 10
77.19223199999999
 20
99.522359999999992
 30
0.0
 42
-0.368919
  0
VERTEX
  5
73D
  8
0
 62
     7
 10
77.354607000000001
 20
99.522359999999992
 30
0.0
  0
VERTEX
  5
73E
  8
0
 62
     7
 10
77.354607000000001
 20
99.300884999999994
 30
0.0
  0
SEQEND
  5
73F
  8
0
 62
     7
  0
LINE
  5
43A
  8
0
 62
     7
 10
77.19223199999999
 20
99.300884999999994
 30
0.0
 11
77.19223199999999
 21
99.522359999999992
 31
0.0
  0
LINE
  5
43B
  8
0
 62
     7
 10
76.867443999999992
 20
99.300884999999994
 30
0.0
 11
76.867443999999992
 21
99.522359999999992
 31
0.0
  0
ARC
  5
43C
  8
BRACKET
  6
HIDDEN2
 62
     7
 10
77.779624999999996
 20
99.114384999999999
 30
0.0
 40
0.125
 50
0.0
 51
90.0
  0
LINE
  5
43D
  8
ANGLE
 62
     7
 10
57.404410999999989
 20
95.401385000000005
 30
0.0
 11
77.904410999999996
 21
95.401385000000005
 31
0.0
  0
LINE
  5
43E
  8
BRACKET
 62
     7
 10
60.529198000000001
 20
95.301884999999984
 30
0.0
 11
58.778198000000003
 21
95.301884999999984
 31
0.0
  0
POLYLINE
  5
43F
  8
0
  6
BYBLOCK
 62
     7
 66
     1
 10
0.0
 20
0.0
 30
0.0
 70
     1
  0
VERTEX
  5
740
  8
0
  6
BYBLOCK
 62
     7
 10
57.959817999999999
 20
98.620135000000005
 30
0.0
  0
VERTEX
  5
741
  8
0
  6
BYBLOCK
 62
     7
 10
57.797438
 20
98.338885000000005
 30
0.0
  0
VERTEX
  5
742
  8
0
  6
BYBLOCK
 62
     7
 10
57.959817999999999
 20
98.057635000000005
 30
0.0
  0
VERTEX
  5
743
  8
0
  6
BYBLOCK
 62
     7
 10
58.284576999999999
 20
98.057635000000005
 30
0.0
  0
VERTEX
  5
744
  8
0
  6
BYBLOCK
 62
     7
 10
58.446956999999991
 20
98.338885000000005
 30
0.0
  0
VERTEX
  5
745
  8
0
  6
BYBLOCK
 62
     7
 10
58.284576999999999
 20
98.620135000000005
 30
0.0
  0
SEQEND
  5
746
  8
0
  6
BYBLOCK
 62
     7
  0
POLYLINE
  5
447
  8
0
  6
BYBLOCK
 62
     7
 66
     1
 10
0.0
 20
0.0
 30
0.0
 70
     1
  0
VERTEX
  5
747
  8
0
  6
BYBLOCK
 62
     7
 10
57.959817999999999
 20
97.120135000000005
 30
0.0
  0
VERTEX
  5
748
  8
0
  6
BYBLOCK
 62
     7
 10
57.797438
 20
96.838885000000005
 30
0.0
  0
VERTEX
  5
749
  8
0
  6
BYBLOCK
 62
     7
 10
57.959817999999999
 20
96.557635000000005
 30
0.0
  0
VERTEX
  5
74A
  8
0
  6
BYBLOCK
 62
     7
 10
58.284576999999999
 20
96.557635000000005
 30
0.0
  0
VERTEX
  5
74B
  8
0
  6
BYBLOCK
 62
     7
 10
58.446956999999991
 20
96.838885000000005
 30
0.0
  0
VERTEX
  5
74C
  8
0
  6
BYBLOCK
 62
     7
 10
58.284576999999999
 20
97.120135000000005
 30
0.0
  0
SEQEND
  5
74D
  8
0
  6
BYBLOCK
 62
     7
  0
ARC
  5
44F
  8
0
 62
     7
 10
57.497869000000001
 20
96.698260000000005
 30
0.0
 40
0.345098
 50
155.95253600000001
 51
204.04746399999991
  0
LINE
  5
450
  8
0
 62
     7
 10
57.404198000000001
 20
98.338885000000005
 30
0.0
 11
57.182722999999989
 21
98.338885000000005
 31
0.0
  0
ARC
  5
451
  8
0
 62
     7
 10
57.497869000000001
 20
98.198260000000005
 30
0.0
 40
0.345098
 50
155.95253600000001
 51
204.04746399999991
  0
LINE
  5
452
  8
0
 62
     7
 10
57.182722999999989
 20
98.057635000000005
 30
0.0
 11
57.404198000000001
 21
98.057635000000005
 31
0.0
  0
ARC
  5
453
  8
0
 62
     7
 10
57.497869000000001
 20
98.479510000000005
 30
0.0
 40
0.345098
 50
155.95253600000001
 51
204.04746399999991
  0
LINE
  5
454
  8
0
 62
     7
 10
57.404198000000001
 20
98.620135000000005
 30
0.0
 11
57.182722999999989
 21
98.620135000000005
 31
0.0
  0
LINE
  5
455
  8
0
 62
     7
 10
57.154198000000001
 20
98.166912999999994
 30
0.0
 11
57.154198000000001
 21
98.510857000000001
 31
0.0
  0
LINE
  5
456
  8
0
 62
     7
 10
57.154198000000001
 20
96.666912999999994
 30
0.0
 11
57.154198000000001
 21
97.010857000000001
 31
0.0
  0
LINE
  5
457
  8
0
 62
     7
 10
57.404198000000001
 20
97.120135000000005
 30
0.0
 11
57.182722999999989
 21
97.120135000000005
 31
0.0
  0
ARC
  5
458
  8
0
 62
     7
 10
57.497869000000001
 20
96.979510000000005
 30
0.0
 40
0.345098
 50
155.95253600000001
 51
204.04746399999991
  0
LINE
  5
459
  8
0
 62
     7
 10
57.404198000000001
 20
96.838885000000005
 30
0.0
 11
57.182722999999989
 21
96.838885000000005
 31
0.0
  0
LINE
  5
45A
  8
0
 62
     7
 10
57.182722999999989
 20
96.557635000000005
 30
0.0
 11
57.404198000000001
 21
96.557635000000005
 31
0.0
  0
ARC
  5
45B
  8
BRACKET
  6
HIDDEN2
 62
     7
 10
60.529198000000001
 20
95.551884999999984
 30
0.0
 40
0.25
 50
270.0
 51
322.98672799999991
  0
LINE
  5
45C
  8
BRACKET
 62
     7
 10
74.779624999999996
 20
95.301884999999984
 30
0.0
 11
76.530625000000001
 21
95.301884999999984
 31
0.0
  0
ARC
  5
45D
  8
BRACKET
  6
HIDDEN2
 62
     7
 10
74.779624999999996
 20
95.551884999999984
 30
0.0
 40
0.25
 50
217.013272
 51
270.0
  0
POLYLINE
  5
45E
  8
0
  6
BYBLOCK
 62
     7
 66
     1
 10
0.0
 20
0.0
 30
0.0
 70
     1
  0
VERTEX
  5
74E
  8
0
  6
BYBLOCK
 62
     7
 10
77.349003999999994
 20
97.120135000000005
 30
0.0
  0
VERTEX
  5
74F
  8
0
  6
BYBLOCK
 62
     7
 10
77.511383999999993
 20
96.838885000000005
 30
0.0
  0
VERTEX
  5
750
  8
0
  6
BYBLOCK
 62
     7
 10
77.349003999999994
 20
96.557635000000005
 30
0.0
  0
VERTEX
  5
751
  8
0
  6
BYBLOCK
 62
     7
 10
77.024244999999993
 20
96.557635000000005
 30
0.0
  0
VERTEX
  5
752
  8
0
  6
BYBLOCK
 62
     7
 10
76.861865000000009
 20
96.838885000000005
 30
0.0
  0
VERTEX
  5
753
  8
0
  6
BYBLOCK
 62
     7
 10
77.024244999999993
 20
97.120135000000005
 30
0.0
  0
SEQEND
  5
754
  8
0
  6
BYBLOCK
 62
     7
  0
ARC
  5
466
  8
0
 62
     7
 10
77.810952999999998
 20
96.698260000000005
 30
0.0
 40
0.345098
 50
335.95253600000001
 51
24.047464000000002
  0
POLYLINE
  5
467
  8
0
  6
BYBLOCK
 62
     7
 66
     1
 10
0.0
 20
0.0
 30
0.0
 70
     1
  0
VERTEX
  5
755
  8
0
  6
BYBLOCK
 62
     7
 10
77.349003999999994
 20
98.620135000000005
 30
0.0
  0
VERTEX
  5
756
  8
0
  6
BYBLOCK
 62
     7
 10
77.511383999999993
 20
98.338885000000005
 30
0.0
  0
VERTEX
  5
757
  8
0
  6
BYBLOCK
 62
     7
 10
77.349003999999994
 20
98.057635000000005
 30
0.0
  0
VERTEX
  5
758
  8
0
  6
BYBLOCK
 62
     7
 10
77.024244999999993
 20
98.057635000000005
 30
0.0
  0
VERTEX
  5
759
  8
0
  6
BYBLOCK
 62
     7
 10
76.861865000000009
 20
98.338885000000005
 30
0.0
  0
VERTEX
  5
75A
  8
0
  6
BYBLOCK
 62
     7
 10
77.024244999999993
 20
98.620135000000005
 30
0.0
  0
SEQEND
  5
75B
  8
0
  6
BYBLOCK
 62
     7
  0
LINE
  5
46F
  8
0
 62
     7
 10
78.154624999999996
 20
98.166912999999994
 30
0.0
 11
78.154624999999996
 21
98.510857000000001
 31
0.0
  0
LINE
  5
470
  8
0
 62
     7
 10
78.154624999999996
 20
96.666912999999994
 30
0.0
 11
78.154624999999996
 21
97.010857000000001
 31
0.0
  0
LINE
  5
471
  8
0
 62
     7
 10
77.904624999999996
 20
98.620135000000005
 30
0.0
 11
78.126099999999994
 21
98.620135000000005
 31
0.0
  0
LINE
  5
472
  8
0
 62
     7
 10
78.126099999999994
 20
98.057635000000005
 30
0.0
 11
77.904624999999996
 21
98.057635000000005
 31
0.0
  0
LINE
  5
473
  8
0
 62
     7
 10
77.904624999999996
 20
98.338885000000005
 30
0.0
 11
78.126099999999994
 21
98.338885000000005
 31
0.0
  0
LINE
  5
474
  8
0
 62
     7
 10
77.904624999999996
 20
96.838885000000005
 30
0.0
 11
78.126099999999994
 21
96.838885000000005
 31
0.0
  0
LINE
  5
475
  8
0
 62
     7
 10
77.904624999999996
 20
97.120135000000005
 30
0.0
 11
78.126099999999994
 21
97.120135000000005
 31
0.0
  0
ARC
  5
476
  8
0
 62
     7
 10
77.810952999999998
 20
98.479510000000005
 30
0.0
 40
0.345098
 50
335.95253600000001
 51
24.047464000000002
  0
ARC
  5
477
  8
0
 62
     7
 10
77.810952999999998
 20
98.198260000000005
 30
0.0
 40
0.345098
 50
335.95253600000001
 51
24.047464000000002
  0
ARC
  5
478
  8
0
 62
     7
 10
77.810952999999998
 20
96.979510000000005
 30
0.0
 40
0.345098
 50
335.95253600000001
 51
24.047464000000002
  0
LINE
  5
479
  8
0
 62
     7
 10
78.126099999999994
 20
96.557635000000005
 30
0.0
 11
77.904624999999996
 21
96.557635000000005
 31
0.0
  0
LINE
  5
47A
  8
ANGLE
 62
     7
 10
29.446767000000001
 20
35.21870599999999
 30
0.0
 11
8.9467669999999995
 21
35.21870599999999
 31
0.0
  0
LINE
  5
47B
  8
ANGLE
  6
HIDDEN
 62
     7
 10
29.446767000000001
 20
35.280706000000002
 30
0.0
 11
8.9467669999999995
 21
35.280706000000002
 31
0.0
  0
LINE
  5
47C
  8
ANGLE
 62
     7
 10
29.446767000000001
 20
38.268706000000002
 30
0.0
 11
8.9467669999999995
 21
38.268706000000002
 31
0.0
  0
LINE
  5
47D
  8
BRACKET
  6
HIDDEN
 62
     7
 10
27.94698
 20
35.312705999999999
 30
0.0
 11
27.94698
 21
38.172705999999998
 31
0.0
  0
LINE
  5
47E
  8
BRACKET
 62
     7
 10
29.44698
 20
35.312705999999999
 30
0.0
 11
29.44698
 21
43.187705999999991
 31
0.0
  0
LINE
  5
47F
  8
BRACKET
  6
HIDDEN
 62
     7
 10
29.337979999999991
 20
35.312705999999999
 30
0.0
 11
29.337979999999991
 21
43.187705999999991
 31
0.0
  0
LINE
  5
480
  8
BRACKET
 62
     7
 10
26.07198
 20
43.312705999999991
 30
0.0
 11
29.321979999999989
 21
43.312705999999991
 31
0.0
  0
LINE
  5
481
  8
BRACKET
 62
     7
 10
26.07198
 20
43.20370599999999
 30
0.0
 11
29.321979999999989
 21
43.20370599999999
 31
0.0
  0
ARC
  5
482
  8
BRACKET
 62
     7
 10
29.321979999999989
 20
43.187705999999991
 30
0.0
 40
0.016
 50
0.0
 51
90.0
  0
ARC
  5
483
  8
BRACKET
 62
     7
 10
29.321979999999989
 20
43.187705999999991
 30
0.0
 40
0.125
 50
0.0
 51
90.0
  0
LINE
  5
484
  8
BRACKET
 62
     7
 10
26.07198
 20
43.312705999999991
 30
0.0
 11
26.07198
 21
43.20370599999999
 31
0.0
  0
LINE
  5
485
  8
ANGLE
 62
     7
 10
29.446767000000001
 20
35.21870599999999
 30
0.0
 11
29.446767000000001
 21
38.268706000000002
 31
0.0
  0
POLYLINE
  5
486
  8
HIDDEN
  6
HIDDEN
 62
     7
 66
     1
 10
0.0
 20
0.0
 30
0.0
 70
     1
  0
VERTEX
  5
75C
  8
HIDDEN
  6
HIDDEN
 62
     7
 10
29.025980000000001
 20
38.09370599999999
 30
0.0
 42
-0.4142140000000001
  0
VERTEX
  5
75D
  8
HIDDEN
  6
HIDDEN
 62
     7
 10
29.181979999999999
 20
37.937705999999999
 30
0.0
  0
VERTEX
  5
75E
  8
HIDDEN
  6
HIDDEN
 62
     7
 10
29.181979999999999
 20
35.623705999999991
 30
0.0
 42
-0.4142140000000001
  0
VERTEX
  5
75F
  8
HIDDEN
  6
HIDDEN
 62
     7
 10
29.025980000000001
 20
35.467706
 30
0.0
  0
VERTEX
  5
760
  8
HIDDEN
  6
HIDDEN
 62
     7
 10
28.16297999999999
 20
35.467706
 30
0.0
 42
0.4142140000000001
  0
VERTEX
  5
761
  8
HIDDEN
  6
HIDDEN
 62
     7
 10
28.07297999999999
 20
35.377705999999989
 30
0.0
  0
VERTEX
  5
762
  8
HIDDEN
  6
HIDDEN
 62
     7
 10
28.07297999999999
 20
35.280706000000002
 30
0.0
  0
VERTEX
  5
763
  8
HIDDEN
  6
HIDDEN
 62
     7
 10
29.337979999999991
 20
35.280706000000002
 30
0.0
  0
VERTEX
  5
764
  8
HIDDEN
  6
HIDDEN
 62
     7
 10
29.337979999999991
 20
38.280706000000002
 30
0.0
  0
VERTEX
  5
765
  8
HIDDEN
  6
HIDDEN
 62
     7
 10
28.07297999999999
 20
38.280706000000002
 30
0.0
  0
VERTEX
  5
766
  8
HIDDEN
  6
HIDDEN
 62
     7
 10
28.07297999999999
 20
38.183706000000001
 30
0.0
 42
0.4142140000000001
  0
VERTEX
  5
767
  8
HIDDEN
  6
HIDDEN
 62
     7
 10
28.16297999999999
 20
38.09370599999999
 30
0.0
  0
SEQEND
  5
768
  8
HIDDEN
  6
HIDDEN
 62
     7
  0
POLYLINE
  5
494
  8
0
  6
BYBLOCK
 62
     7
 66
     1
 10
0.0
 20
0.0
 30
0.0
 70
     1
  0
VERTEX
  5
769
  8
0
  6
BYBLOCK
 62
     7
 10
28.734359999999992
 20
37.112456000000002
 30
0.0
  0
VERTEX
  5
76A
  8
0
  6
BYBLOCK
 62
     7
 10
28.896740000000001
 20
37.393706000000002
 30
0.0
  0
VERTEX
  5
76B
  8
0
  6
BYBLOCK
 62
     7
 10
28.734359999999992
 20
37.674956000000002
 30
0.0
  0
VERTEX
  5
76C
  8
0
  6
BYBLOCK
 62
     7
 10
28.409600000000001
 20
37.674956000000002
 30
0.0
  0
VERTEX
  5
76D
  8
0
  6
BYBLOCK
 62
     7
 10
28.247221
 20
37.393706000000002
 30
0.0
  0
VERTEX
  5
76E
  8
0
  6
BYBLOCK
 62
     7
 10
28.409600000000001
 20
37.112456000000002
 30
0.0
  0
SEQEND
  5
76F
  8
0
  6
BYBLOCK
 62
     7
  0
LINE
  5
49C
  8
BRACKET
 62
     7
 10
27.94698
 20
35.312705999999999
 30
0.0
 11
29.44698
 21
35.312705999999999
 31
0.0
  0
LINE
  5
49D
  8
0
 62
     7
 10
29.44698
 20
36.589312
 30
0.0
 11
29.668454999999991
 21
36.589312
 31
0.0
  0
LINE
  5
49E
  8
0
 62
     7
 10
29.44698
 20
36.914099999999991
 30
0.0
 11
29.668454999999991
 21
36.914099999999991
 31
0.0
  0
POLYLINE
  5
49F
  8
0
 62
     7
 66
     1
 10
0.0
 20
0.0
 30
0.0
 70
     1
  0
VERTEX
  5
770
  8
0
 62
     7
 10
29.44698
 20
36.426937000000002
 30
0.0
  0
VERTEX
  5
771
  8
0
 62
     7
 10
29.668454999999991
 20
36.426937000000002
 30
0.0
 42
0.368919
  0
VERTEX
  5
772
  8
0
 62
     7
 10
29.668454999999991
 20
36.589312
 30
0.0
 42
0.185339
  0
VERTEX
  5
773
  8
0
 62
     7
 10
29.668454999999991
 20
36.914099999999991
 30
0.0
 42
0.368919
  0
VERTEX
  5
774
  8
0
 62
     7
 10
29.668454999999991
 20
37.076475000000002
 30
0.0
  0
VERTEX
  5
775
  8
0
 62
     7
 10
29.44698
 20
37.076475000000002
 30
0.0
  0
SEQEND
  5
776
  8
0
 62
     7
  0
LINE
  5
4A7
  8
0
 62
     7
 10
29.69698
 20
36.995267999999989
 30
0.0
 11
29.69698
 21
36.50814299999999
 31
0.0
  0
POLYLINE
  5
4A8
  8
0
 62
     7
 66
     1
 10
0.0
 20
0.0
 30
0.0
 70
     1
  0
VERTEX
  5
777
  8
0
 62
     7
 10
28.404211
 20
35.21870599999999
 30
0.0
  0
VERTEX
  5
778
  8
0
 62
     7
 10
28.404211
 20
34.997230999999999
 30
0.0
 42
0.368919
  0
VERTEX
  5
779
  8
0
 62
     7
 10
28.56658599999999
 20
34.997230999999999
 30
0.0
 42
0.185339
  0
VERTEX
  5
77A
  8
0
 62
     7
 10
28.891373999999999
 20
34.997230999999999
 30
0.0
 42
0.368919
  0
VERTEX
  5
77B
  8
0
 62
     7
 10
29.053748999999989
 20
34.997230999999999
 30
0.0
  0
VERTEX
  5
77C
  8
0
 62
     7
 10
29.053748999999989
 20
35.21870599999999
 30
0.0
  0
SEQEND
  5
77D
  8
0
 62
     7
  0
LINE
  5
4B0
  8
0
 62
     7
 10
28.972543000000002
 20
34.96870599999999
 30
0.0
 11
28.485417999999989
 21
34.96870599999999
 31
0.0
  0
LINE
  5
4B1
  8
0
 62
     7
 10
28.891373999999999
 20
35.21870599999999
 30
0.0
 11
28.891373999999999
 21
34.997230999999999
 31
0.0
  0
LINE
  5
4B2
  8
0
 62
     7
 10
28.56658599999999
 20
35.21870599999999
 30
0.0
 11
28.56658599999999
 21
34.997230999999999
 31
0.0
  0
LINE
  5
4B3
  8
BRACKET
  6
HIDDEN
 62
     7
 10
9.0555529999999997
 20
35.312705999999999
 30
0.0
 11
9.0555529999999997
 21
43.187705999999991
 31
0.0
  0
LINE
  5
4B4
  8
BRACKET
 62
     7
 10
8.9465529999999998
 20
35.312705999999999
 30
0.0
 11
8.9465529999999998
 21
43.187705999999991
 31
0.0
  0
LINE
  5
4B5
  8
BRACKET
  6
HIDDEN
 62
     7
 10
10.446553
 20
35.312705999999999
 30
0.0
 11
10.446553
 21
38.172705999999998
 31
0.0
  0
LINE
  5
4B6
  8
BRACKET
 62
     7
 10
12.321553
 20
43.20370599999999
 30
0.0
 11
9.0715529999999998
 21
43.20370599999999
 31
0.0
  0
LINE
  5
4B7
  8
BRACKET
 62
     7
 10
12.321553
 20
43.312705999999991
 30
0.0
 11
9.0715529999999998
 21
43.312705999999991
 31
0.0
  0
LINE
  5
4B8
  8
BRACKET
 62
     7
 10
12.321553
 20
43.312705999999991
 30
0.0
 11
12.321553
 21
43.20370599999999
 31
0.0
  0
ARC
  5
4B9
  8
BRACKET
 62
     7
 10
9.0715529999999998
 20
43.187705999999991
 30
0.0
 40
0.125
 50
90.0
 51
180.0
  0
ARC
  5
4BA
  8
BRACKET
 62
     7
 10
9.0715529999999998
 20
43.187705999999991
 30
0.0
 40
0.016
 50
90.0
 51
180.0
  0
LINE
  5
4BB
  8
ANGLE
 62
     7
 10
8.9467669999999995
 20
35.21870599999999
 30
0.0
 11
8.9467669999999995
 21
38.268706000000002
 31
0.0
  0
POLYLINE
  5
4BC
  8
HIDDEN
  6
HIDDEN
 62
     7
 66
     1
 10
0.0
 20
0.0
 30
0.0
 70
     1
  0
VERTEX
  5
77E
  8
HIDDEN
  6
HIDDEN
 62
     7
 10
9.3675529999999991
 20
38.09370599999999
 30
0.0
 42
0.4142140000000001
  0
VERTEX
  5
77F
  8
HIDDEN
  6
HIDDEN
 62
     7
 10
9.2115530000000003
 20
37.937705999999999
 30
0.0
  0
VERTEX
  5
780
  8
HIDDEN
  6
HIDDEN
 62
     7
 10
9.2115530000000003
 20
35.623705999999991
 30
0.0
 42
0.4142140000000001
  0
VERTEX
  5
781
  8
HIDDEN
  6
HIDDEN
 62
     7
 10
9.3675529999999991
 20
35.467706
 30
0.0
  0
VERTEX
  5
782
  8
HIDDEN
  6
HIDDEN
 62
     7
 10
10.230553
 20
35.467706
 30
0.0
 42
-0.4142140000000001
  0
VERTEX
  5
783
  8
HIDDEN
  6
HIDDEN
 62
     7
 10
10.320553
 20
35.377705999999989
 30
0.0
  0
VERTEX
  5
784
  8
HIDDEN
  6
HIDDEN
 62
     7
 10
10.320553
 20
35.280706000000002
 30
0.0
  0
VERTEX
  5
785
  8
HIDDEN
  6
HIDDEN
 62
     7
 10
9.0555529999999997
 20
35.280706000000002
 30
0.0
  0
VERTEX
  5
786
  8
HIDDEN
  6
HIDDEN
 62
     7
 10
9.0555529999999997
 20
38.280706000000002
 30
0.0
  0
VERTEX
  5
787
  8
HIDDEN
  6
HIDDEN
 62
     7
 10
10.320553
 20
38.280706000000002
 30
0.0
  0
VERTEX
  5
788
  8
HIDDEN
  6
HIDDEN
 62
     7
 10
10.320553
 20
38.183706000000001
 30
0.0
 42
-0.4142140000000001
  0
VERTEX
  5
789
  8
HIDDEN
  6
HIDDEN
 62
     7
 10
10.230553
 20
38.09370599999999
 30
0.0
  0
SEQEND
  5
78A
  8
HIDDEN
  6
HIDDEN
 62
     7
  0
POLYLINE
  5
4CA
  8
0
  6
BYBLOCK
 62
     7
 66
     1
 10
0.0
 20
0.0
 30
0.0
 70
     1
  0
VERTEX
  5
78B
  8
0
  6
BYBLOCK
 62
     7
 10
9.6591729999999991
 20
37.112456000000002
 30
0.0
  0
VERTEX
  5
78C
  8
0
  6
BYBLOCK
 62
     7
 10
9.4967939999999995
 20
37.393706000000002
 30
0.0
  0
VERTEX
  5
78D
  8
0
  6
BYBLOCK
 62
     7
 10
9.6591729999999991
 20
37.674956000000002
 30
0.0
  0
VERTEX
  5
78E
  8
0
  6
BYBLOCK
 62
     7
 10
9.9839330000000004
 20
37.674956000000002
 30
0.0
  0
VERTEX
  5
78F
  8
0
  6
BYBLOCK
 62
     7
 10
10.146312999999999
 20
37.393706000000002
 30
0.0
  0
VERTEX
  5
790
  8
0
  6
BYBLOCK
 62
     7
 10
9.9839330000000004
 20
37.112456000000002
 30
0.0
  0
SEQEND
  5
791
  8
0
  6
BYBLOCK
 62
     7
  0
LINE
  5
4D2
  8
BRACKET
 62
     7
 10
10.446553
 20
35.312705999999999
 30
0.0
 11
8.9465529999999998
 21
35.312705999999999
 31
0.0
  0
LINE
  5
4D3
  8
0
 62
     7
 10
9.4209910000000008
 20
34.96870599999999
 30
0.0
 11
9.9081159999999997
 21
34.96870599999999
 31
0.0
  0
POLYLINE
  5
4D4
  8
0
 62
     7
 66
     1
 10
0.0
 20
0.0
 30
0.0
 70
     1
  0
VERTEX
  5
792
  8
0
 62
     7
 10
9.9893219999999996
 20
35.21870599999999
 30
0.0
  0
VERTEX
  5
793
  8
0
 62
     7
 10
9.9893219999999996
 20
34.997230999999999
 30
0.0
 42
-0.368919
  0
VERTEX
  5
794
  8
0
 62
     7
 10
9.8269470000000005
 20
34.997230999999999
 30
0.0
 42
-0.185339
  0
VERTEX
  5
795
  8
0
 62
     7
 10
9.5021589999999971
 20
34.997230999999999
 30
0.0
 42
-0.368919
  0
VERTEX
  5
796
  8
0
 62
     7
 10
9.3397839999999999
 20
34.997230999999999
 30
0.0
  0
VERTEX
  5
797
  8
0
 62
     7
 10
9.3397839999999999
 20
35.21870599999999
 30
0.0
  0
SEQEND
  5
798
  8
0
 62
     7
  0
LINE
  5
4DC
  8
0
 62
     7
 10
9.5021589999999971
 20
35.21870599999999
 30
0.0
 11
9.5021589999999971
 21
34.997230999999999
 31
0.0
  0
LINE
  5
4DD
  8
0
 62
     7
 10
9.8269470000000005
 20
35.21870599999999
 30
0.0
 11
9.8269470000000005
 21
34.997230999999999
 31
0.0
  0
LINE
  5
4DE
  8
0
 62
     7
 10
8.6965529999999998
 20
36.995267999999989
 30
0.0
 11
8.6965529999999998
 21
36.50814299999999
 31
0.0
  0
POLYLINE
  5
4DF
  8
0
 62
     7
 66
     1
 10
0.0
 20
0.0
 30
0.0
 70
     1
  0
VERTEX
  5
799
  8
0
 62
     7
 10
8.9465529999999998
 20
36.426937000000002
 30
0.0
  0
VERTEX
  5
79A
  8
0
 62
     7
 10
8.7250779999999981
 20
36.426937000000002
 30
0.0
 42
-0.368919
  0
VERTEX
  5
79B
  8
0
 62
     7
 10
8.7250779999999981
 20
36.589312
 30
0.0
 42
-0.185339
  0
VERTEX
  5
79C
  8
0
 62
     7
 10
8.7250779999999981
 20
36.914099999999991
 30
0.0
 42
-0.368919
  0
VERTEX
  5
79D
  8
0
 62
     7
 10
8.7250779999999981
 20
37.076475000000002
 30
0.0
  0
VERTEX
  5
79E
  8
0
 62
     7
 10
8.9465529999999998
 20
37.076475000000002
 30
0.0
  0
SEQEND
  5
79F
  8
0
 62
     7
  0
LINE
  5
4E7
  8
0
 62
     7
 10
8.9465529999999998
 20
36.914099999999991
 30
0.0
 11
8.7250779999999981
 21
36.914099999999991
 31
0.0
  0
LINE
  5
4E8
  8
0
 62
     7
 10
8.9465529999999998
 20
36.589312
 30
0.0
 11
8.7250779999999981
 21
36.589312
 31
0.0
  0
DIMENSION
  5
4E9
  8
DIM
 62
     7
  2
*D27
 10
27.19698
 20
101.677322
 30
0.0
 11
19.196766499999988
 21
101.677322
 31
0.0
 70
     0
 13
11.196553
 23
98.114385000000013
 33
0.0
 14
27.19698
 24
98.114385000000013
 34
0.0
  0
DIMENSION
  5
4F7
  8
DIM
 62
     7
  2
*D28
 10
29.44698
 20
101.677322
 30
0.0
 11
28.321979999999989
 21
103.781322
 31
0.0
 70
     0
 13
27.19698
 23
98.114385000000013
 33
0.0
 14
29.44698
 24
99.114384999999999
 34
0.0
  0
DIMENSION
  5
505
  8
DIM
 62
     7
  2
*D29
 10
5.3780919999999988
 20
96.114384999999999
 30
0.0
 11
5.3780919999999819
 21
74.369884999999996
 31
0.0
 70
     0
  1
C
 13
11.196553
 23
52.625384999999987
 33
0.0
 14
11.196553
 24
96.114384999999999
 34
0.0
 50
270.0
  0
DIMENSION
  5
513
  8
DIM
 62
     7
  2
*D30
 10
5.3780919999999988
 20
98.114385000000013
 30
0.0
 11
5.3780919999999828
 21
97.114384999999984
 31
0.0
 70
     0
 13
11.196553
 23
96.114384999999999
 33
0.0
 14
11.196553
 24
98.114385000000013
 34
0.0
 50
270.0
  0
DIMENSION
  5
521
  8
DIM
 62
     7
  2
*D31
 10
32.43423099999999
 20
99.301384999999982
 30
0.0
 11
32.434230999999983
 21
74.369884999999996
 31
0.0
 70
     0
  1
B
 13
29.321979999999989
 23
49.438384999999997
 33
0.0
 14
29.44698
 24
99.301384999999996
 34
0.0
 50
90.0
  0
TEXT
  5
52F
  8
TEXT
 10
15.059267
 20
32.727846
 30
0.0
 40
1.0
  1
%%UBOTTOM VIEW
 41
0.75
  7
TXT
 72
     1
 11
19.196767000000001
 21
32.727846
 31
0.0
  0
LINE
  5
530
  8
BRACKET
 62
     7
 10
10.446553
 20
38.297705999999991
 30
0.0
 11
10.446553
 21
43.20370599999999
 31
0.0
  0
LINE
  5
531
  8
BRACKET
 62
     7
 10
27.94698
 20
38.297705999999991
 30
0.0
 11
27.94698
 21
43.20370599999999
 31
0.0
  0
LINE
  5
532
  8
BRACKET
  6
HIDDEN
 62
     7
 10
58.653197999999989
 20
95.301884999999984
 30
0.0
 11
57.404198000000001
 21
95.301884999999984
 31
0.0
  0
LINE
  5
533
  8
BRACKET
  6
HIDDEN
 62
     7
 10
76.655625000000001
 20
95.301884999999984
 30
0.0
 11
77.904624999999996
 21
95.301884999999984
 31
0.0
  0
LINE
  5
534
  8
ANGLE
 62
     7
 10
57.404410999999989
 20
53.338384999999988
 30
0.0
 11
77.904410999999996
 21
53.338384999999988
 31
0.0
  0
LINE
  5
535
  8
ANGLE
 62
     7
 10
57.404410999999989
 20
49.438384999999997
 30
0.0
 11
77.904410999999996
 21
49.438384999999997
 31
0.0
  0
LINE
  5
536
  8
ANGLE
  6
HIDDEN
 62
     7
 10
57.404410999999989
 20
49.500384999999987
 30
0.0
 11
77.904410999999996
 21
49.500384999999987
 31
0.0
  0
LINE
  5
537
  8
ANGLE
 62
     7
 10
8.9467669999999995
 20
49.438384999999997
 30
0.0
 11
29.446767000000001
 21
49.438384999999997
 31
0.0
  0
LINE
  5
538
  8
ANGLE
 62
     7
 10
8.9467669999999995
 20
49.500384999999987
 30
0.0
 11
29.446767000000001
 21
49.500384999999987
 31
0.0
  0
POLYLINE
  5
539
  8
BRACKET
 62
     7
 66
     1
 10
0.0
 20
0.0
 30
0.0
  0
VERTEX
  5
7A0
  8
BRACKET
 62
     7
 10
27.94698
 20
49.562884999999987
 30
0.0
  0
VERTEX
  5
7A1
  8
BRACKET
 62
     7
 10
26.32198
 20
49.562884999999987
 30
0.0
 42
-0.4142140000000001
  0
VERTEX
  5
7A2
  8
BRACKET
 62
     7
 10
26.07198
 20
49.812884999999987
 30
0.0
  0
VERTEX
  5
7A3
  8
BRACKET
 62
     7
 10
26.07198
 20
53.187885000000001
 30
0.0
 42
-0.4142140000000001
  0
VERTEX
  5
7A4
  8
BRACKET
 62
     7
 10
26.32198
 20
53.437884999999987
 30
0.0
  0
VERTEX
  5
7A5
  8
BRACKET
 62
     7
 10
29.44698
 20
53.437884999999987
 30
0.0
  0
VERTEX
  5
7A6
  8
BRACKET
 62
     7
 10
29.44698
 20
49.625384999999987
 30
0.0
 42
-0.4142140000000001
  0
VERTEX
  5
7A7
  8
BRACKET
 62
     7
 10
29.321979999999989
 20
49.500384999999987
 30
0.0
  0
VERTEX
  5
7A8
  8
BRACKET
 62
     7
 10
27.94698
 20
49.500384999999987
 30
0.0
  0
VERTEX
  5
7A9
  8
BRACKET
 62
     7
 10
27.94698
 20
49.609385000000003
 30
0.0
  0
SEQEND
  5
7AA
  8
BRACKET
 62
     7
  0
LINE
  5
545
  8
ANGLE
  6
HIDDEN2
 62
     7
 10
26.19698
 20
53.338384999999988
 30
0.0
 11
29.446767000000001
 21
53.338384999999988
 31
0.0
  0
LINE
  5
546
  8
ANGLE
 62
     7
 10
12.271176999999989
 20
53.338384999999988
 30
0.0
 11
26.122355999999989
 21
53.338384999999988
 31
0.0
  0
POLYLINE
  5
547
  8
BRACKET
  6
HIDDEN
 62
     7
 66
     1
 10
0.0
 20
0.0
 30
0.0
  0
VERTEX
  5
7AB
  8
BRACKET
  6
HIDDEN
 62
     7
 10
9.0555529999999997
 20
53.437884999999987
 30
0.0
  0
VERTEX
  5
7AC
  8
BRACKET
  6
HIDDEN
 62
     7
 10
9.0555529999999997
 20
49.625384999999987
 30
0.0
 42
0.4142140000000001
  0
VERTEX
  5
7AD
  8
BRACKET
  6
HIDDEN
 62
     7
 10
9.0715529999999998
 20
49.609385000000003
 30
0.0
  0
VERTEX
  5
7AE
  8
BRACKET
  6
HIDDEN
 62
     7
 10
10.446553
 20
49.609385000000003
 30
0.0
  0
SEQEND
  5
7AF
  8
BRACKET
  6
HIDDEN
 62
     7
  0
POLYLINE
  5
54D
  8
BRACKET
 62
     7
 66
     1
 10
0.0
 20
0.0
 30
0.0
  0
VERTEX
  5
7B0
  8
BRACKET
 62
     7
 10
10.446553
 20
49.562884999999987
 30
0.0
  0
VERTEX
  5
7B1
  8
BRACKET
 62
     7
 10
12.071553
 20
49.562884999999987
 30
0.0
 42
0.4142140000000001
  0
VERTEX
  5
7B2
  8
BRACKET
 62
     7
 10
12.321553
 20
49.812884999999987
 30
0.0
  0
VERTEX
  5
7B3
  8
BRACKET
 62
     7
 10
12.321553
 20
53.187885000000001
 30
0.0
 42
0.4142140000000001
  0
VERTEX
  5
7B4
  8
BRACKET
 62
     7
 10
12.071553
 20
53.437884999999987
 30
0.0
  0
VERTEX
  5
7B5
  8
BRACKET
 62
     7
 10
8.9465529999999998
 20
53.437884999999987
 30
0.0
  0
VERTEX
  5
7B6
  8
BRACKET
 62
     7
 10
8.9465529999999998
 20
49.625384999999987
 30
0.0
 42
0.4142140000000001
  0
VERTEX
  5
7B7
  8
BRACKET
 62
     7
 10
9.0715529999999998
 20
49.500384999999987
 30
0.0
  0
VERTEX
  5
7B8
  8
BRACKET
 62
     7
 10
10.446553
 20
49.500384999999987
 30
0.0
  0
VERTEX
  5
7B9
  8
BRACKET
 62
     7
 10
10.446553
 20
49.609385000000003
 30
0.0
  0
SEQEND
  5
7BA
  8
BRACKET
 62
     7
  0
LINE
  5
559
  8
ANGLE
  6
HIDDEN2
 62
     7
 10
8.9467669999999995
 20
53.338384999999988
 30
0.0
 11
12.196553
 21
53.338384999999988
 31
0.0
  0
LINE
  5
55A
  8
ANGLE
  6
HIDDEN2
 62
     7
 10
8.9467669999999995
 20
49.438384999999997
 30
0.0
 11
8.9467669999999995
 21
53.338384999999988
 31
0.0
  0
CIRCLE
  5
55B
  8
BRACKET
 62
     7
 10
11.196553
 20
52.625384999999987
 30
0.0
 40
0.25
  0
CIRCLE
  5
55C
  8
BRACKET
 62
     7
 10
11.196553
 20
50.625384999999987
 30
0.0
 40
0.25
  0
LINE
  5
55D
  8
BRACKET
 62
     7
 10
49.406357
 20
49.500384999999987
 30
0.0
 11
41.515357000000002
 21
49.500384999999987
 31
0.0
  0
LINE
  5
55E
  8
BRACKET
  6
HIDDEN
 62
     7
 10
49.406357
 20
49.609385000000003
 30
0.0
 11
41.515357000000002
 21
49.609385000000003
 31
0.0
  0
POLYLINE
  5
55F
  8
BRACKET
  6
HIDDEN
 62
     7
 66
     1
 10
0.0
 20
0.0
 30
0.0
  0
VERTEX
  5
7BB
  8
BRACKET
  6
HIDDEN
 62
     7
 10
29.337979999999991
 20
53.437884999999987
 30
0.0
  0
VERTEX
  5
7BC
  8
BRACKET
  6
HIDDEN
 62
     7
 10
29.337979999999991
 20
49.625384999999987
 30
0.0
 42
-0.4142140000000001
  0
VERTEX
  5
7BD
  8
BRACKET
  6
HIDDEN
 62
     7
 10
29.321979999999989
 20
49.609385000000003
 30
0.0
  0
VERTEX
  5
7BE
  8
BRACKET
  6
HIDDEN
 62
     7
 10
27.94698
 20
49.609385000000003
 30
0.0
  0
SEQEND
  5
7BF
  8
BRACKET
  6
HIDDEN
 62
     7
  0
CIRCLE
  5
565
  8
BRACKET
 62
     7
 10
27.19698
 20
52.625384999999987
 30
0.0
 40
0.25
  0
CIRCLE
  5
566
  8
BRACKET
 62
     7
 10
27.19698
 20
50.625384999999987
 30
0.0
 40
0.25
  0
LINE
  5
567
  8
ANGLE
  6
HIDDEN2
 62
     7
 10
29.446767000000001
 20
49.438384999999997
 30
0.0
 11
29.446767000000001
 21
53.338384999999988
 31
0.0
  0
LINE
  5
568
  8
BRACKET
  6
HIDDEN
 62
     7
 10
41.515357000000002
 20
53.438384999999997
 30
0.0
 11
41.515357000000002
 21
49.500384999999987
 31
0.0
  0
LINE
  5
569
  8
BRACKET
 62
     7
 10
41.406356999999993
 20
53.438384999999997
 30
0.0
 11
41.406356999999993
 21
49.562884999999987
 31
0.0
  0
LINE
  5
56A
  8
BRACKET
 62
     7
 10
41.515357000000002
 20
49.562884999999987
 30
0.0
 11
41.406356999999993
 21
49.562884999999987
 31
0.0
  0
LINE
  5
56B
  8
BRACKET
 62
     7
 10
49.406357
 20
53.438384999999997
 30
0.0
 11
49.406357
 21
49.500384999999987
 31
0.0
  0
POLYLINE
  5
56C
  8
ANGLE
 62
     7
 66
     1
 10
0.0
 20
0.0
 30
0.0
 70
     1
  0
VERTEX
  5
7C0
  8
ANGLE
 62
     7
 10
46.450356999999997
 20
49.438384999999997
 30
0.0
  0
VERTEX
  5
7C1
  8
ANGLE
 62
     7
 10
46.450356999999997
 20
49.500384999999987
 30
0.0
  0
VERTEX
  5
7C2
  8
ANGLE
 62
     7
 10
49.438357000000011
 20
49.500384999999987
 30
0.0
  0
VERTEX
  5
7C3
  8
ANGLE
 62
     7
 10
49.438357000000011
 20
53.338384999999988
 30
0.0
  0
VERTEX
  5
7C4
  8
ANGLE
 62
     7
 10
49.500357000000001
 20
53.338384999999988
 30
0.0
  0
VERTEX
  5
7C5
  8
ANGLE
 62
     7
 10
49.500357000000001
 20
49.438384999999997
 30
0.0
  0
SEQEND
  5
7C6
  8
ANGLE
 62
     7
  0
ARC
  5
574
  8
BRACKET
  6
HIDDEN2
 62
     7
 10
60.529198000000001
 20
53.187885000000001
 30
0.0
 40
0.25
 50
37.013272000000001
 51
90.0
  0
LINE
  5
575
  8
BRACKET
 62
     7
 10
57.404198000000001
 20
53.437884999999987
 30
0.0
 11
57.404198000000001
 21
49.625384999999987
 31
0.0
  0
POLYLINE
  5
576
  8
BRACKET
  6
HIDDEN
 62
     7
 66
     1
 10
0.0
 20
0.0
 30
0.0
  0
VERTEX
  5
7C7
  8
BRACKET
  6
HIDDEN
 62
     7
 10
57.513198000000003
 20
53.437884999999987
 30
0.0
  0
VERTEX
  5
7C8
  8
BRACKET
  6
HIDDEN
 62
     7
 10
57.513198000000003
 20
49.625384999999987
 30
0.0
 42
0.4142140000000001
  0
VERTEX
  5
7C9
  8
BRACKET
  6
HIDDEN
 62
     7
 10
57.529198000000001
 20
49.609385000000003
 30
0.0
  0
VERTEX
  5
7CA
  8
BRACKET
  6
HIDDEN
 62
     7
 10
58.904198000000001
 20
49.609385000000003
 30
0.0
  0
SEQEND
  5
7CB
  8
BRACKET
  6
HIDDEN
 62
     7
  0
LINE
  5
57C
  8
BRACKET
 62
     7
 10
60.529198000000001
 20
53.437884999999987
 30
0.0
 11
58.778198000000003
 21
53.437884999999987
 31
0.0
  0
LINE
  5
57D
  8
BRACKET
  6
HIDDEN
 62
     7
 10
58.653197999999989
 20
53.437884999999987
 30
0.0
 11
57.404198000000001
 21
53.437884999999987
 31
0.0
  0
LINE
  5
57E
  8
BRACKET
  6
HIDDEN
 62
     7
 10
57.529198000000001
 20
49.500384999999987
 30
0.0
 11
58.904198000000001
 21
49.500384999999987
 31
0.0
  0
LINE
  5
57F
  8
ANGLE
 62
     7
 10
57.404410999999989
 20
49.438384999999997
 30
0.0
 11
57.404410999999989
 21
53.338384999999988
 31
0.0
  0
ARC
  5
580
  8
BRACKET
  6
HIDDEN2
 62
     7
 10
57.529198000000001
 20
49.625384999999987
 30
0.0
 40
0.125
 50
180.0
 51
270.0
  0
LINE
  5
581
  8
BRACKET
  6
HIDDEN
 62
     7
 10
58.904198000000001
 20
49.500384999999987
 30
0.0
 11
58.904198000000001
 21
49.609385000000003
 31
0.0
  0
LINE
  5
582
  8
BRACKET
 62
     7
 10
77.904624999999996
 20
53.437884999999987
 30
0.0
 11
77.904624999999996
 21
49.625384999999987
 31
0.0
  0
ARC
  5
583
  8
BRACKET
  6
HIDDEN2
 62
     7
 10
74.779624999999996
 20
53.187885000000001
 30
0.0
 40
0.25
 50
90.0
 51
142.986728
  0
POLYLINE
  5
584
  8
BRACKET
  6
HIDDEN
 62
     7
 66
     1
 10
0.0
 20
0.0
 30
0.0
  0
VERTEX
  5
7CC
  8
BRACKET
  6
HIDDEN
 62
     7
 10
77.795625000000001
 20
53.437884999999987
 30
0.0
  0
VERTEX
  5
7CD
  8
BRACKET
  6
HIDDEN
 62
     7
 10
77.795625000000001
 20
49.625384999999987
 30
0.0
 42
-0.4142140000000001
  0
VERTEX
  5
7CE
  8
BRACKET
  6
HIDDEN
 62
     7
 10
77.779624999999996
 20
49.609385000000003
 30
0.0
  0
VERTEX
  5
7CF
  8
BRACKET
  6
HIDDEN
 62
     7
 10
76.404624999999996
 20
49.609385000000003
 30
0.0
  0
SEQEND
  5
7D0
  8
BRACKET
  6
HIDDEN
 62
     7
  0
LINE
  5
58A
  8
BRACKET
  6
HIDDEN
 62
     7
 10
76.655625000000001
 20
53.437884999999987
 30
0.0
 11
77.904624999999996
 21
53.437884999999987
 31
0.0
  0
LINE
  5
58B
  8
BRACKET
 62
     7
 10
74.779624999999996
 20
53.437884999999987
 30
0.0
 11
76.530625000000001
 21
53.437884999999987
 31
0.0
  0
LINE
  5
58C
  8
BRACKET
  6
HIDDEN
 62
     7
 10
77.779624999999996
 20
49.500384999999987
 30
0.0
 11
76.404624999999996
 21
49.500384999999987
 31
0.0
  0
LINE
  5
58D
  8
BRACKET
  6
HIDDEN
 62
     7
 10
76.404624999999996
 20
49.500384999999987
 30
0.0
 11
76.404624999999996
 21
49.609385000000003
 31
0.0
  0
LINE
  5
58E
  8
ANGLE
 62
     7
 10
77.904410999999996
 20
49.438384999999997
 30
0.0
 11
77.904410999999996
 21
53.338384999999988
 31
0.0
  0
ARC
  5
58F
  8
BRACKET
  6
HIDDEN2
 62
     7
 10
77.779624999999996
 20
49.625384999999987
 30
0.0
 40
0.125
 50
270.0
 51
0.0
  0
DIMENSION
  5
590
  8
DIM
 62
     7
  2
*D32
 10
2.9372820000000002
 20
99.301384999999996
 30
0.0
 11
0.8332819999999838
 21
98.707885000000005
 31
0.0
 70
     0
 13
11.196553
 23
98.114385000000013
 33
0.0
 14
8.9467669999999995
 24
99.301384999999996
 34
0.0
 50
270.0
  0
DIMENSION
  5
59E
  8
DIM
 62
     7
  2
*D33
 10
29.446767000000001
 20
103.92532199999989
 30
0.0
 11
19.196766999999991
 21
103.92532199999989
 31
0.0
 70
     0
 13
8.9467669999999995
 23
99.301384999999996
 33
0.0
 14
29.446767000000001
 24
99.301384999999996
 34
0.0
  0
DIMENSION
  5
5AC
  8
DIM
 62
     7
  2
*D34
 10
49.406357
 20
101.677322
 30
0.0
 11
45.406357
 21
101.677322
 31
0.0
 70
     0
  1
D
 13
41.406356999999993
 23
99.176884999999999
 33
0.0
 14
49.406357
 24
99.239384999999999
 34
0.0
  0
DIMENSION
  5
5BA
  8
DIM
 62
     7
  2
*D35
 10
49.500357000000001
 20
103.92532199999989
 30
0.0
 11
45.45335699999999
 21
103.92532199999989
 31
0.0
 70
     0
  1
E
 13
41.406356999999993
 23
99.176884999999999
 33
0.0
 14
49.500357000000001
 24
99.301384999999996
 34
0.0
  0
DIMENSION
  5
5C8
  8
DIM
 62
     7
  2
*D36
 10
37.946565
 20
95.301384999999996
 30
0.0
 11
37.946564999999978
 21
97.270385000000005
 31
0.0
 70
     0
 13
41.515357000000002
 23
99.239384999999999
 33
0.0
 14
41.406356999999993
 24
95.301384999999996
 34
0.0
 50
90.0
  0
DIMENSION
  5
5D6
  8
DIM
 62
     7
  2
*D37
 10
37.946565
 20
53.438384999999997
 30
0.0
 11
37.946564999999978
 21
51.469385000000003
 31
0.0
 70
     0
 13
41.515357000000002
 23
49.500384999999987
 33
0.0
 14
41.406356999999993
 24
53.438384999999997
 34
0.0
 50
90.0
  0
DIMENSION
  5
5E4
  8
DIM
 62
     7
  2
*D38
 10
5.3780919999999988
 20
50.625384999999987
 30
0.0
 11
5.3780919999999908
 21
51.625385000000001
 31
0.0
 70
     0
 13
11.196553
 23
52.625384999999987
 33
0.0
 14
11.196553
 24
50.625384999999987
 34
0.0
 50
270.0
  0
DIMENSION
  5
5F2
  8
DIM
 62
     7
  2
*D39
 10
72.366961000000003
 20
99.301384999999996
 30
0.0
 11
72.366960999999975
 21
97.351135000000014
 31
0.0
 70
     0
 13
72.971461000000005
 23
95.400885000000017
 33
0.0
 14
72.971461000000005
 24
99.301384999999996
 34
0.0
 50
90.0
  0
DIMENSION
  5
600
  8
DIM
 62
     7
  2
*D40
 10
72.366961000000003
 20
49.438384999999997
 30
0.0
 11
72.366960999999989
 21
51.388635000000001
 31
0.0
 70
     0
 13
72.971461000000005
 23
53.338884999999998
 33
0.0
 14
72.971461000000005
 24
49.438384999999997
 34
0.0
 50
90.0
  0
CIRCLE
  5
60E
  8
ANGLE
 62
     7
 10
13.196552999999991
 20
36.893706000000002
 30
0.0
 40
0.172
  0
CIRCLE
  5
60F
  8
ANGLE
 62
     7
 10
25.196979999999989
 20
36.893706000000002
 30
0.0
 40
0.172
  0
CIRCLE
  5
610
  8
BRACKET
 62
     7
 10
45.906356999999993
 20
51.437884999999987
 30
0.0
 40
0.172
  0
CIRCLE
  5
611
  8
BRACKET
 62
     7
 10
45.906356999999993
 20
97.301884999999999
 30
0.0
 40
0.172
  0
CIRCLE
  5
612
  8
OBJECT
 62
     7
 10
48.563357000000003
 20
86.369884999999996
 30
0.0
 40
0.3279999999999999
  0
CIRCLE
  5
613
  8
OBJECT
 62
     7
 10
47.313357000000003
 20
86.369884999999996
 30
0.0
 40
0.3279999999999999
  0
CIRCLE
  5
614
  8
OBJECT
 62
     7
 10
47.313357000000003
 20
62.369884999999989
 30
0.0
 40
0.3279999999999999
  0
CIRCLE
  5
615
  8
OBJECT
 62
     7
 10
48.563357000000003
 20
62.369884999999989
 30
0.0
 40
0.3279999999999999
  0
CIRCLE
  5
616
  8
OBJECT
 62
     7
 10
47.938357000000003
 20
80.369884999999996
 30
0.0
 40
0.0995
  0
CIRCLE
  5
617
  8
OBJECT
 62
     7
 10
47.938357000000003
 20
68.369884999999996
 30
0.0
 40
0.0995
  0
CIRCLE
  5
618
  8
OBJECT
 62
     7
 10
47.938357000000003
 20
76.744884999999996
 30
0.0
 40
0.5625
  0
CIRCLE
  5
619
  8
OBJECT
 62
     7
 10
58.49841099999999
 20
63.619884999999989
 30
0.0
 40
0.0885
  0
CIRCLE
  5
61A
  8
OBJECT
 62
     7
 10
58.49841099999999
 20
62.369884999999989
 30
0.0
 40
0.0885
  0
CIRCLE
  5
61B
  8
OBJECT
 62
     7
 10
58.49841099999999
 20
62.994884999999989
 30
0.0
 40
0.0885
  0
CIRCLE
  5
61C
  8
OBJECT
 62
     7
 10
76.810411000000002
 20
63.619884999999989
 30
0.0
 40
0.0885
  0
CIRCLE
  5
61D
  8
OBJECT
 62
     7
 10
76.810411000000002
 20
62.994884999999989
 30
0.0
 40
0.0885
  0
CIRCLE
  5
61E
  8
OBJECT
 62
     7
 10
76.810411000000002
 20
62.369884999999989
 30
0.0
 40
0.0885
  0
CIRCLE
  5
61F
  8
OBJECT
 62
     7
 10
10.040767000000001
 20
63.619884999999989
 30
0.0
 40
0.0885
  0
CIRCLE
  5
620
  8
OBJECT
 62
     7
 10
10.040767000000001
 20
62.369884999999989
 30
0.0
 40
0.0885
  0
CIRCLE
  5
621
  8
OBJECT
 62
     7
 10
10.040767000000001
 20
62.994884999999989
 30
0.0
 40
0.0885
  0
CIRCLE
  5
622
  8
OBJECT
 62
     7
 10
28.352767
 20
63.619884999999989
 30
0.0
 40
0.0885
  0
CIRCLE
  5
623
  8
OBJECT
 62
     7
 10
28.352767
 20
62.369884999999989
 30
0.0
 40
0.0885
  0
CIRCLE
  5
624
  8
OBJECT
 62
     7
 10
28.352767
 20
62.994884999999989
 30
0.0
 40
0.0885
  0
CIRCLE
  5
625
  8
OBJECT
 62
     7
 10
58.49841099999999
 20
61.869884999999996
 30
0.0
 40
0.0885
  0
CIRCLE
  5
626
  8
OBJECT
 62
     7
 10
58.49841099999999
 20
60.619884999999996
 30
0.0
 40
0.0885
  0
CIRCLE
  5
627
  8
OBJECT
 62
     7
 10
58.49841099999999
 20
61.244884999999996
 30
0.0
 40
0.0885
  0
CIRCLE
  5
628
  8
OBJECT
 62
     7
 10
76.810411000000002
 20
61.869884999999996
 30
0.0
 40
0.0885
  0
CIRCLE
  5
629
  8
OBJECT
 62
     7
 10
76.810411000000002
 20
61.244884999999996
 30
0.0
 40
0.0885
  0
CIRCLE
  5
62A
  8
OBJECT
 62
     7
 10
76.810411000000002
 20
60.619884999999996
 30
0.0
 40
0.0885
  0
CIRCLE
  5
62B
  8
OBJECT
 62
     7
 10
10.040767000000001
 20
61.869884999999996
 30
0.0
 40
0.0885
  0
CIRCLE
  5
62C
  8
OBJECT
 62
     7
 10
10.040767000000001
 20
60.619884999999996
 30
0.0
 40
0.0885
  0
CIRCLE
  5
62D
  8
OBJECT
 62
     7
 10
10.040767000000001
 20
61.244884999999996
 30
0.0
 40
0.0885
  0
CIRCLE
  5
62E
  8
OBJECT
 62
     7
 10
28.352767
 20
61.869884999999996
 30
0.0
 40
0.0885
  0
CIRCLE
  5
62F
  8
OBJECT
 62
     7
 10
28.352767
 20
60.619884999999996
 30
0.0
 40
0.0885
  0
CIRCLE
  5
630
  8
OBJECT
 62
     7
 10
28.352767
 20
61.244884999999996
 30
0.0
 40
0.0885
  0
CIRCLE
  5
631
  8
OBJECT
 62
     7
 10
58.49841099999999
 20
60.119884999999996
 30
0.0
 40
0.0885
  0
CIRCLE
  5
632
  8
OBJECT
 62
     7
 10
58.49841099999999
 20
58.869884999999996
 30
0.0
 40
0.0885
  0
CIRCLE
  5
633
  8
OBJECT
 62
     7
 10
58.49841099999999
 20
59.494884999999996
 30
0.0
 40
0.0885
  0
CIRCLE
  5
634
  8
OBJECT
 62
     7
 10
76.810411000000002
 20
60.119884999999996
 30
0.0
 40
0.0885
  0
CIRCLE
  5
635
  8
OBJECT
 62
     7
 10
76.810411000000002
 20
59.494884999999996
 30
0.0
 40
0.0885
  0
CIRCLE
  5
636
  8
OBJECT
 62
     7
 10
76.810411000000002
 20
58.869884999999996
 30
0.0
 40
0.0885
  0
CIRCLE
  5
637
  8
OBJECT
 62
     7
 10
10.040767000000001
 20
60.119884999999996
 30
0.0
 40
0.0885
  0
CIRCLE
  5
638
  8
OBJECT
 62
     7
 10
10.040767000000001
 20
58.869884999999996
 30
0.0
 40
0.0885
  0
CIRCLE
  5
639
  8
OBJECT
 62
     7
 10
10.040767000000001
 20
59.494884999999996
 30
0.0
 40
0.0885
  0
CIRCLE
  5
63A
  8
OBJECT
 62
     7
 10
28.352767
 20
60.119884999999996
 30
0.0
 40
0.0885
  0
CIRCLE
  5
63B
  8
OBJECT
 62
     7
 10
28.352767
 20
58.869884999999996
 30
0.0
 40
0.0885
  0
CIRCLE
  5
63C
  8
OBJECT
 62
     7
 10
28.352767
 20
59.494884999999996
 30
0.0
 40
0.0885
  0
CIRCLE
  5
63D
  8
OBJECT
 62
     7
 10
58.49841099999999
 20
58.369884999999996
 30
0.0
 40
0.0885
  0
CIRCLE
  5
63E
  8
OBJECT
 62
     7
 10
58.49841099999999
 20
57.119884999999996
 30
0.0
 40
0.0885
  0
CIRCLE
  5
63F
  8
OBJECT
 62
     7
 10
58.49841099999999
 20
57.744884999999996
 30
0.0
 40
0.0885
  0
CIRCLE
  5
640
  8
OBJECT
 62
     7
 10
76.810411000000002
 20
58.369884999999996
 30
0.0
 40
0.0885
  0
CIRCLE
  5
641
  8
OBJECT
 62
     7
 10
76.810411000000002
 20
57.744884999999996
 30
0.0
 40
0.0885
  0
CIRCLE
  5
642
  8
OBJECT
 62
     7
 10
76.810411000000002
 20
57.119884999999996
 30
0.0
 40
0.0885
  0
CIRCLE
  5
643
  8
OBJECT
 62
     7
 10
10.040767000000001
 20
58.369884999999996
 30
0.0
 40
0.0885
  0
CIRCLE
  5
644
  8
OBJECT
 62
     7
 10
10.040767000000001
 20
57.119884999999996
 30
0.0
 40
0.0885
  0
CIRCLE
  5
645
  8
OBJECT
 62
     7
 10
10.040767000000001
 20
57.744884999999996
 30
0.0
 40
0.0885
  0
CIRCLE
  5
646
  8
OBJECT
 62
     7
 10
28.352767
 20
58.369884999999996
 30
0.0
 40
0.0885
  0
CIRCLE
  5
647
  8
OBJECT
 62
     7
 10
28.352767
 20
57.119884999999996
 30
0.0
 40
0.0885
  0
CIRCLE
  5
648
  8
OBJECT
 62
     7
 10
28.352767
 20
57.744884999999996
 30
0.0
 40
0.0885
  0
CIRCLE
  5
649
  8
OBJECT
 62
     7
 10
58.49841099999999
 20
56.619884999999989
 30
0.0
 40
0.0885
  0
CIRCLE
  5
64A
  8
OBJECT
 62
     7
 10
58.49841099999999
 20
55.369884999999989
 30
0.0
 40
0.0885
  0
CIRCLE
  5
64B
  8
OBJECT
 62
     7
 10
58.49841099999999
 20
55.994884999999989
 30
0.0
 40
0.0885
  0
CIRCLE
  5
64C
  8
OBJECT
 62
     7
 10
76.810411000000002
 20
56.619884999999989
 30
0.0
 40
0.0885
  0
CIRCLE
  5
64D
  8
OBJECT
 62
     7
 10
76.810411000000002
 20
55.994884999999989
 30
0.0
 40
0.0885
  0
CIRCLE
  5
64E
  8
OBJECT
 62
     7
 10
76.810411000000002
 20
55.369884999999989
 30
0.0
 40
0.0885
  0
CIRCLE
  5
64F
  8
OBJECT
 62
     7
 10
10.040767000000001
 20
56.619884999999989
 30
0.0
 40
0.0885
  0
CIRCLE
  5
650
  8
OBJECT
 62
     7
 10
10.040767000000001
 20
55.369884999999989
 30
0.0
 40
0.0885
  0
CIRCLE
  5
651
  8
OBJECT
 62
     7
 10
10.040767000000001
 20
55.994884999999989
 30
0.0
 40
0.0885
  0
CIRCLE
  5
652
  8
OBJECT
 62
     7
 10
28.352767
 20
56.619884999999989
 30
0.0
 40
0.0885
  0
CIRCLE
  5
653
  8
OBJECT
 62
     7
 10
28.352767
 20
55.369884999999989
 30
0.0
 40
0.0885
  0
CIRCLE
  5
654
  8
OBJECT
 62
     7
 10
28.352767
 20
55.994884999999989
 30
0.0
 40
0.0885
  0
CIRCLE
  5
655
  8
OBJECT
 62
     7
 10
58.49841099999999
 20
54.869884999999989
 30
0.0
 40
0.0885
  0
CIRCLE
  5
656
  8
OBJECT
 62
     7
 10
58.49841099999999
 20
53.619884999999989
 30
0.0
 40
0.0885
  0
CIRCLE
  5
657
  8
OBJECT
 62
     7
 10
58.49841099999999
 20
54.244884999999989
 30
0.0
 40
0.0885
  0
CIRCLE
  5
658
  8
OBJECT
 62
     7
 10
76.810411000000002
 20
54.869884999999989
 30
0.0
 40
0.0885
  0
CIRCLE
  5
659
  8
OBJECT
 62
     7
 10
76.810411000000002
 20
54.244884999999989
 30
0.0
 40
0.0885
  0
CIRCLE
  5
65A
  8
OBJECT
 62
     7
 10
76.810411000000002
 20
53.619884999999989
 30
0.0
 40
0.0885
  0
CIRCLE
  5
65B
  8
OBJECT
 62
     7
 10
10.040767000000001
 20
54.869884999999989
 30
0.0
 40
0.0885
  0
CIRCLE
  5
65C
  8
OBJECT
 62
     7
 10
10.040767000000001
 20
53.619884999999989
 30
0.0
 40
0.0885
  0
CIRCLE
  5
65D
  8
OBJECT
 62
     7
 10
10.040767000000001
 20
54.244884999999989
 30
0.0
 40
0.0885
  0
CIRCLE
  5
65E
  8
OBJECT
 62
     7
 10
28.352767
 20
54.869884999999989
 30
0.0
 40
0.0885
  0
CIRCLE
  5
65F
  8
OBJECT
 62
     7
 10
28.352767
 20
53.619884999999989
 30
0.0
 40
0.0885
  0
CIRCLE
  5
660
  8
OBJECT
 62
     7
 10
28.352767
 20
54.244884999999989
 30
0.0
 40
0.0885
  0
CIRCLE
  5
661
  8
OBJECT
 62
     7
 10
47.938357000000003
 20
53.900885000000002
 30
0.0
 40
0.1405
  0
CIRCLE
  5
662
  8
OBJECT
 62
     7
 10
47.938357000000003
 20
94.838885000000005
 30
0.0
 40
0.1405
  0
LINE
  5
663
  8
BRACKET
 62
     7
 10
49.406357
 20
95.301384999999996
 30
0.0
 11
41.406356999999993
 21
95.301384999999996
 31
0.0
  0
LINE
  5
664
  8
BRACKET
 62
     7
 10
49.406357
 20
53.438384999999997
 30
0.0
 11
41.406356999999993
 21
53.438384999999997
 31
0.0
  0
DIMENSION
  5
665
  8
DIM
 62
     7
  2
*D41
 10
29.44698
 20
44.822735999999999
 30
0.0
 11
27.75948
 21
46.926735999999998
 31
0.0
 70
     0
 13
26.07198
 23
43.312705999999991
 33
0.0
 14
29.44698
 24
43.187705999999991
 34
0.0
  0
DIMENSION
  5
673
  8
DIM
 62
     7
  2
*D42
 10
8.9465529999999998
 20
44.822735999999999
 30
0.0
 11
10.634053
 21
46.926735999999998
 31
0.0
 70
     0
 13
12.321553
 23
43.312705999999991
 33
0.0
 14
8.9465529999999998
 24
43.187705999999991
 34
0.0
  0
TEXT
  5
681
  8
TEXT
 10
49.344999999999992
 20
121.20699999999999
 30
0.0
 40
1.25
  1
WRR-2242 & WRR-2243 & WRR-2244
 41
0.75
  7
TXT
 72
     4
 11
63.719999999999992
 21
121.83199999999999
 31
0.0
  0
POLYLINE
  5
682
  8
DIM
 62
     7
 66
     1
 10
0.0
 20
0.0
 30
0.0
 41
0.5400000000000002
  0
VERTEX
  5
7D1
  8
DIM
 62
     7
 10
11.36008099999999
 20
95.925285000000002
 30
0.0
  0
VERTEX
  5
7D2
  8
DIM
 62
     7
 10
11.899969999999991
 20
94.590325000000007
 30
0.0
 41
0.0
  0
VERTEX
  5
7D3
  8
DIM
 62
     7
 10
12.912337000000001
 20
92.087090000000003
 30
0.0
 41
0.0
  0
VERTEX
  5
7D4
  8
DIM
 62
     7
 10
14.352337
 20
92.087090000000003
 30
0.0
 41
0.0
  0
SEQEND
  5
7D5
  8
DIM
 62
     7
  0
TEXT
  5
688
  8
DIM
 62
     7
 10
15.072336999999999
 20
89.920422999999985
 30
0.0
 40
1.0
  1
(8) HOLES
 41
0.75
  7
TXT
 11
15.072336999999999
 21
90.420423
 31
0.0
 73
     2
  0
TEXT
  5
689
  8
DIM
 62
     7
 10
15.072336999999999
 20
91.587089999999989
 30
0.0
 40
1.0
  1
0.500 DIA.
 41
0.75
  7
TXT
 11
15.072336999999999
 21
92.087090000000003
 31
0.0
 73
     2
  0
TEXT
  5
68A
  8
TEXT
 10
4.8497519999999987
 20
16.55468299999999
 30
0.0
 40
1.0
  1
LOAD RATING:  400 LBS. MAX.
 41
0.75
  7
TXT
  0
ENDSEC
  0
EOF
