  0
SECTION
  2
HEADER
  9
$ACADVER
  1
AC1009
  9
$INSBASE
 10
0.0
 20
0.0
 30
0.0
  9
$EXTMIN
 10
-1.0854105734748309
 20
-0.0039021375750963
 30
-0.0015258207003583
  9
$EXTMAX
 10
83.492548106990924
 20
127.8789027330394
 30
0.0000000349246037
  9
$LIMMIN
 10
0.0
 20
0.0
  9
$LIMMAX
 10
83.489999999999995
 20
127.875
  9
$ORTHOMODE
 70
     1
  9
$REGENMODE
 70
     1
  9
$FILLMODE
 70
     1
  9
$QTEXTMODE
 70
     0
  9
$MIRRTEXT
 70
     0
  9
$DRAGMODE
 70
     2
  9
$LTSCALE
 40
2.5
  9
$OSMODE
 70
    37
  9
$ATTMODE
 70
     1
  9
$TEXTSIZE
 40
1.03125
  9
$TRACEWID
 40
0.05
  9
$TEXTSTYLE
  7
TXT
  9
$CLAYER
  8
OBJECT
  9
$CELTYPE
  6
BYLAYER
  9
$CECOLOR
 62
   256
  9
$DIMSCALE
 40
8.25
  9
$DIMASZ
 40
0.18
  9
$DIMEXO
 40
0.063
  9
$DIMDLI
 40
0.281
  9
$DIMRND
 40
0.0
  9
$DIMDLE
 40
0.0
  9
$DIMEXE
 40
0.093
  9
$DIMTP
 40
0.0
  9
$DIMTM
 40
0.0
  9
$DIMTXT
 40
0.125
  9
$DIMCEN
 40
0.09
  9
$DIMTSZ
 40
0.0
  9
$DIMTOL
 70
     0
  9
$DIMLIM
 70
     0
  9
$DIMTIH
 70
     1
  9
$DIMTOH
 70
     1
  9
$DIMSE1
 70
     0
  9
$DIMSE2
 70
     0
  9
$DIMTAD
 70
     0
  9
$DIMZIN
 70
     0
  9
$DIMBLK
  1

  9
$DIMASO
 70
     1
  9
$DIMSHO
 70
     1
  9
$DIMPOST
  1

  9
$DIMAPOST
  1

  9
$DIMALT
 70
     0
  9
$DIMALTD
 70
     2
  9
$DIMALTF
 40
25.399999999999999
  9
$DIMLFAC
 40
1.0
  9
$DIMTOFL
 70
     0
  9
$DIMTVP
 40
0.0
  9
$DIMTIX
 70
     0
  9
$DIMSOXD
 70
     0
  9
$DIMSAH
 70
     0
  9
$DIMBLK1
  1

  9
$DIMBLK2
  1

  9
$DIMSTYLE
  2
23NSTD
  9
$DIMCLRD
 70
     0
  9
$DIMCLRE
 70
     0
  9
$DIMCLRT
 70
     0
  9
$DIMTFAC
 40
1.0
  9
$DIMGAP
 40
0.09
  9
$LUNITS
 70
     2
  9
$LUPREC
 70
     3
  9
$SKETCHINC
 40
0.1
  9
$FILLETRAD
 40
0.0
  9
$AUNITS
 70
     0
  9
$AUPREC
 70
     0
  9
$MENU
  1
acad
  9
$ELEVATION
 40
0.0
  9
$PELEVATION
 40
0.0
  9
$THICKNESS
 40
0.0
  9
$LIMCHECK
 70
     0
  9
$BLIPMODE
 70
     0
  9
$CHAMFERA
 40
0.0
  9
$CHAMFERB
 40
0.0
  9
$SKPOLY
 70
     0
  9
$TDCREATE
 40
2449888.6592495372
  9
$TDUPDATE
 40
2451802.3985062032
  9
$TDINDWG
 40
0.2313647569
  9
$TDUSRTIMER
 40
0.2313647569
  9
$USRTIMER
 70
     1
  9
$ANGBASE
 50
0.0
  9
$ANGDIR
 70
     0
  9
$PDMODE
 70
     0
  9
$PDSIZE
 40
0.0
  9
$PLINEWID
 40
0.0
  9
$COORDS
 70
     0
  9
$SPLFRAME
 70
     0
  9
$SPLINETYPE
 70
     6
  9
$SPLINESEGS
 70
     8
  9
$ATTDIA
 70
     0
  9
$ATTREQ
 70
     1
  9
$HANDLING
 70
  4097
  9
$HANDSEED
  5
8DA
  9
$SURFTAB1
 70
     6
  9
$SURFTAB2
 70
     6
  9
$SURFTYPE
 70
     6
  9
$SURFU
 70
     6
  9
$SURFV
 70
     6
  9
$UCSNAME
  2

  9
$UCSORG
 10
0.0
 20
0.0
 30
0.0
  9
$UCSXDIR
 10
1.0
 20
0.0
 30
0.0
  9
$UCSYDIR
 10
0.0
 20
1.0
 30
0.0
  9
$PUCSNAME
  2

  9
$PUCSORG
 10
0.0
 20
0.0
 30
0.0
  9
$PUCSXDIR
 10
1.0
 20
0.0
 30
0.0
  9
$PUCSYDIR
 10
0.0
 20
1.0
 30
0.0
  9
$USERI1
 70
     0
  9
$USERI2
 70
     0
  9
$USERI3
 70
     0
  9
$USERI4
 70
     0
  9
$USERI5
 70
     0
  9
$USERR1
 40
0.0
  9
$USERR2
 40
0.0
  9
$USERR3
 40
0.0
  9
$USERR4
 40
0.0
  9
$USERR5
 40
0.0
  9
$WORLDVIEW
 70
     1
  9
$SHADEDGE
 70
     3
  9
$SHADEDIF
 70
    70
  9
$TILEMODE
 70
     1
  9
$MAXACTVP
 70
    16
  9
$PLIMCHECK
 70
     0
  9
$PEXTMIN
 10
1.0000000000000000E+020
 20
1.0000000000000000E+020
 30
1.0000000000000000E+020
  9
$PEXTMAX
 10
-1.0000000000000000E+020
 20
-1.0000000000000000E+020
 30
-1.0000000000000000E+020
  9
$PLIMMIN
 10
0.0
 20
0.0
  9
$PLIMMAX
 10
12.0
 20
9.0
  9
$UNITMODE
 70
     0
  9
$VISRETAIN
 70
     0
  9
$PLINEGEN
 70
     0
  9
$PSLTSCALE
 70
     1
  0
ENDSEC
  0
SECTION
  2
TABLES
  0
TABLE
  2
VPORT
 70
     2
  0
VPORT
  2
*ACTIVE
 70
     0
 10
0.0
 20
0.0
 11
1.0
 21
1.0
 12
41.203568766758053
 22
63.937500297732193
 13
0.0
 23
0.0
 14
1.0
 24
1.0
 15
0.0
 25
0.0
 16
0.0
 26
0.0
 36
1.0
 17
0.0
 27
0.0
 37
0.0
 40
129.32238616371711
 41
1.8139097744360899
 42
50.0
 43
0.0
 44
0.0
 50
0.0
 51
0.0
 71
     0
 72
   100
 73
     1
 74
     0
 75
     0
 76
     0
 77
     0
 78
     0
  0
ENDTAB
  0
TABLE
  2
LTYPE
 70
     5
  0
LTYPE
  2
CONTINUOUS
 70
     0
  3
Solid line
 72
    65
 73
     0
 40
0.0
  0
LTYPE
  2
HIDDEN
 70
     0
  3
_ _ _ _ _ _ _ _ _ _ _ _ _ _ _ _ _ _ _ _ _ _ _
 72
    65
 73
     2
 40
0.375
 49
0.25
 49
-0.125
  0
LTYPE
  2
PHANTOM
 70
     0
  3
_____ _ _ _____ _ _ _____ _ _ _____ _ _ ____
 72
    65
 73
     6
 40
2.5
 49
1.25
 49
-0.25
 49
0.25
 49
-0.25
 49
0.25
 49
-0.25
  0
LTYPE
  2
CENTER
 70
     0
  3
____ _ ____ _ ____ _ ____ _ ____ _ ____ _ ____
 72
    65
 73
     4
 40
2.0
 49
1.25
 49
-0.25
 49
0.25
 49
-0.25
  0
LTYPE
  2
HIDDEN2
 70
     0
  3
_ _ _ _ _ _ _ _ _ _ _ _ _ _ _ _ _ _ _ _ _ _ _ _
 72
    65
 73
     2
 40
0.1875
 49
0.125
 49
-0.0625
  0
ENDTAB
  0
TABLE
  2
LAYER
 70
    11
  0
LAYER
  2
0
 70
     0
 62
     7
  6
CONTINUOUS
  0
LAYER
  2
OBJECT
 70
     0
 62
     7
  6
CONTINUOUS
  0
LAYER
  2
DIM
 70
     0
 62
     7
  6
CONTINUOUS
  0
LAYER
  2
HIDDEN
 70
     0
 62
     7
  6
HIDDEN
  0
LAYER
  2
BEND
 70
     0
 62
     7
  6
PHANTOM
  0
LAYER
  2
TEXT
 70
     0
 62
     7
  6
CONTINUOUS
  0
LAYER
  2
TITLE
 70
     0
 62
     7
  6
CONTINUOUS
  0
LAYER
  2
CENTER
 70
     0
 62
     7
  6
CENTER
  0
LAYER
  2
DEFPOINTS
 70
     0
 62
     7
  6
CONTINUOUS
  0
LAYER
  2
ANGLE
 70
     0
 62
     7
  6
CONTINUOUS
  0
LAYER
  2
BRACKET
 70
     0
 62
     7
  6
CONTINUOUS
  0
ENDTAB
  0
TABLE
  2
STYLE
 70
     2
  0
STYLE
  2
STANDARD
 70
     0
 40
0.0
 41
1.0
 50
0.0
 71
     0
 42
0.2
  3
txt
  4

  0
STYLE
  2
TXT
 70
     0
 40
0.0
 41
0.75
 50
0.0
 71
     0
 42
1.03125
  3
TXT.shx
  4

  0
ENDTAB
  0
TABLE
  2
VIEW
 70
     0
  0
ENDTAB
  0
TABLE
  2
UCS
 70
     0
  0
ENDTAB
  0
TABLE
  2
APPID
 70
     1
  0
APPID
  2
ACAD
 70
     0
  0
ENDTAB
  0
TABLE
  2
DIMSTYLE
 70
     2
  0
DIMSTYLE
  2
23NSTD
 70
     0
  3

  4

  5

  6

  7

 40
8.25
 41
0.18
 42
0.063
 43
0.281
 44
0.093
 45
0.0
 46
0.0
 47
0.0
 48
0.0
140
0.125
141
0.09
142
0.0
143
25.399999999999999
144
1.0
145
0.0
146
1.0
147
0.09
 71
     0
 72
     0
 73
     1
 74
     1
 75
     0
 76
     0
 77
     0
 78
     0
170
     0
171
     2
172
     0
173
     0
174
     0
175
     0
176
     0
177
     0
178
     0
  0
DIMSTYLE
  2
23NSTDI
 70
     0
  3

  4

  5

  6

  7

 40
8.25
 41
0.18
 42
0.063
 43
0.281
 44
0.093
 45
0.0
 46
0.0
 47
0.0
 48
0.0
140
0.125
141
0.09
142
0.0
143
25.399999999999999
144
1.0
145
0.0
146
1.0
147
0.09
 71
     0
 72
     0
 73
     1
 74
     1
 75
     0
 76
     0
 77
     0
 78
     0
170
     0
171
     2
172
     0
173
     0
174
     1
175
     0
176
     0
177
     0
178
     0
  0
ENDTAB
  0
ENDSEC
  0
SECTION
  2
BLOCKS
  0
BLOCK
  8
0
  2
$MODEL_SPACE
 70
     0
 10
0.0
 20
0.0
 30
0.0
  3
$MODEL_SPACE
  1

  0
ENDBLK
  5
20
  8
0
  0
BLOCK
 67
     1
  8
0
  2
$PAPER_SPACE
 70
     0
 10
0.0
 20
0.0
 30
0.0
  3
$PAPER_SPACE
  1

  0
ENDBLK
  5
1C
 67
     1
  8
0
  0
BLOCK
  8
0
  2
HB
 70
     0
 10
0.0
 20
0.0
 30
0.0
  3
HB
  1

  0
TEXT
  5
37
  8
TEXT
 10
0.2078333333333334
 20
15.060079
 30
0.0
 40
0.125
  1
NAME
 72
     1
 11
0.4370000000000001
 21
15.060079
 31
0.0
  0
TEXT
  5
38
  8
TEXT
 10
0.2078333333333334
 20
15.268413000000001
 30
0.0
 40
0.125
  1
PART
 72
     1
 11
0.4370000000000001
 21
15.268413000000001
 31
0.0
  0
TEXT
  5
39
  8
TEXT
 10
5.3719999999999999
 20
15.060079
 30
0.0
 40
0.125
  1
No.
 72
     1
 11
5.4969999999999999
 21
15.060079
 31
0.0
  0
TEXT
  5
3A
  8
TEXT
 10
5.2678333333333329
 20
15.268413000000001
 30
0.0
 40
0.125
  1
PART
 72
     1
 11
5.4969999999999999
 21
15.268413000000001
 31
0.0
  0
LINE
  5
3B
  8
TITLE
 10
5.8719999999999999
 20
15.438000000000001
 30
0.0
 11
5.8719999999999999
 21
15.019999999999991
 31
0.0
  0
LINE
  5
3C
  8
TITLE
 10
5.1219999999999999
 20
15.438000000000001
 30
0.0
 11
5.1219999999999999
 21
15.019999999999991
 31
0.0
  0
LINE
  5
3D
  8
TITLE
 10
5.0599999999999987
 20
15.438000000000001
 30
0.0
 11
5.0599999999999987
 21
15.019999999999991
 31
0.0
  0
LINE
  5
3E
  8
TITLE
 10
0.8120000000000001
 20
15.019999999999991
 30
0.0
 11
0.8120000000000001
 21
15.438000000000001
 31
0.0
  0
LINE
  5
3F
  8
TITLE
 10
0.062
 20
15.019999999999991
 30
0.0
 11
10.058
 21
15.019999999999991
 31
0.0
  0
LINE
  5
40
  8
TITLE
 10
10.058
 20
0.062
 30
0.0
 11
0.062
 21
0.062
 31
0.0
  0
LINE
  5
41
  8
TITLE
 10
10.058
 20
15.438000000000001
 30
0.0
 11
10.058
 21
0.062
 31
0.0
  0
LINE
  5
42
  8
TITLE
 10
0.062
 20
15.438000000000001
 30
0.0
 11
10.058
 21
15.438000000000001
 31
0.0
  0
LINE
  5
43
  8
TITLE
 10
0.062
 20
0.062
 30
0.0
 11
0.062
 21
15.438000000000001
 31
0.0
  0
LINE
  5
44
  8
TITLE
 10
0.0
 20
0.0
 30
0.0
 11
0.0
 21
15.5
 31
0.0
  0
LINE
  5
45
  8
TITLE
 10
10.119999999999999
 20
0.0
 30
0.0
 11
0.0
 21
0.0
 31
0.0
  0
LINE
  5
46
  8
TITLE
 10
10.119999999999999
 20
15.5
 30
0.0
 11
10.119999999999999
 21
0.0
 31
0.0
  0
LINE
  5
47
  8
TITLE
 10
0.0
 20
15.5
 30
0.0
 11
10.119999999999999
 21
15.5
 31
0.0
  0
ENDBLK
  5
48
  8
0
  0
BLOCK
  8
0
  2
*D1
 70
     1
 10
0.0
 20
0.0
 30
0.0
  3
*D1
  1

  0
LINE
  5
4B
  8
0
  6
BYBLOCK
 62
     0
 10
152.05239800000001
 20
55.161313
 30
0.0
 11
152.05239800000001
 21
56.492964000000001
 31
0.0
  0
LINE
  5
4C
  8
0
  6
BYBLOCK
 62
     0
 10
170.36439799999999
 20
55.161313
 30
0.0
 11
170.36439799999999
 21
56.492964000000001
 31
0.0
  0
LINE
  5
4D
  8
0
  6
BYBLOCK
 62
     0
 10
153.53739799999991
 20
55.725714000000011
 30
0.0
 11
158.7901159999999
 21
55.725714000000011
 31
0.0
  0
LINE
  5
4E
  8
0
  6
BYBLOCK
 62
     0
 10
168.8793979999999
 20
55.725714000000011
 30
0.0
 11
163.626679
 21
55.725714000000011
 31
0.0
  0
SOLID
  5
4F
  8
0
  6
BYBLOCK
 62
     0
 10
153.53739799999991
 20
55.973213999999999
 30
0.0
 11
153.53739799999991
 21
55.478214000000001
 31
0.0
 12
152.05239800000001
 22
55.725714000000011
 32
0.0
 13
152.05239800000001
 23
55.725714000000011
 33
0.0
  0
SOLID
  5
50
  8
0
  6
BYBLOCK
 62
     0
 10
168.8793979999999
 20
55.973213999999999
 30
0.0
 11
168.8793979999999
 21
55.478214000000001
 31
0.0
 12
170.36439799999999
 22
55.725714000000011
 32
0.0
 13
170.36439799999999
 23
55.725714000000011
 33
0.0
  0
TEXT
  5
51
  8
0
  6
BYBLOCK
 62
     0
 10
159.5326167499999
 20
55.210089000000004
 30
0.0
 40
1.03125
  1
18.312
 41
0.75
  7
TXT
 72
     1
 11
161.2083979999999
 21
55.725714000000011
 31
0.0
 73
     2
  0
POINT
  5
52
  8
DEFPOINTS
  6
BYBLOCK
 62
     0
 10
152.05239800000001
 20
54.641562999999991
 30
0.0
  0
POINT
  5
53
  8
DEFPOINTS
  6
BYBLOCK
 62
     0
 10
170.36439799999999
 20
54.641562999999991
 30
0.0
  0
POINT
  5
54
  8
DEFPOINTS
  6
BYBLOCK
 62
     0
 10
170.36439799999999
 20
55.725714000000011
 30
0.0
  0
ENDBLK
  5
55
  8
0
  0
BLOCK
  8
0
  2
*D2
 70
     1
 10
0.0
 20
0.0
 30
0.0
  3
*D2
  1

  0
LINE
  5
58
  8
0
  6
BYBLOCK
 62
     0
 10
152.33261100000001
 20
59.346284999999988
 30
0.0
 11
152.33261100000001
 21
59.849497
 31
0.0
  0
LINE
  5
59
  8
0
  6
BYBLOCK
 62
     0
 10
170.084611
 20
59.346284999999988
 30
0.0
 11
170.084611
 21
59.849497
 31
0.0
  0
LINE
  5
5A
  8
0
  6
BYBLOCK
 62
     0
 10
153.817611
 20
59.082246999999988
 30
0.0
 11
158.66142400000001
 21
59.082246999999988
 31
0.0
  0
LINE
  5
5B
  8
0
  6
BYBLOCK
 62
     0
 10
168.59961100000001
 20
59.082246999999988
 30
0.0
 11
163.75579899999991
 21
59.082246999999988
 31
0.0
  0
SOLID
  5
5C
  8
0
  6
BYBLOCK
 62
     0
 10
153.817611
 20
59.32974699999999
 30
0.0
 11
153.817611
 21
58.834747
 31
0.0
 12
152.33261100000001
 22
59.082246999999988
 32
0.0
 13
152.33261100000001
 23
59.082246999999988
 33
0.0
  0
SOLID
  5
5D
  8
0
  6
BYBLOCK
 62
     0
 10
168.59961100000001
 20
59.32974699999999
 30
0.0
 11
168.59961100000001
 21
58.834747
 31
0.0
 12
170.084611
 22
59.082246999999988
 32
0.0
 13
170.084611
 23
59.082246999999988
 33
0.0
  0
TEXT
  5
5E
  8
0
  6
BYBLOCK
 62
     0
 10
159.40392349999999
 20
58.566621999999988
 30
0.0
 40
1.03125
  1
17.752
 41
0.75
  7
TXT
 72
     1
 11
161.20861099999999
 21
59.082246999999988
 31
0.0
 73
     2
  0
POINT
  5
5F
  8
DEFPOINTS
  6
BYBLOCK
 62
     0
 10
152.33261100000001
 20
58.826534999999993
 30
0.0
  0
POINT
  5
60
  8
DEFPOINTS
  6
BYBLOCK
 62
     0
 10
170.084611
 20
58.826534999999993
 30
0.0
  0
POINT
  5
61
  8
DEFPOINTS
  6
BYBLOCK
 62
     0
 10
170.084611
 20
59.082246999999988
 30
0.0
  0
ENDBLK
  5
62
  8
0
  0
BLOCK
  8
0
  2
*D3
 70
     1
 10
0.0
 20
0.0
 30
0.0
  3
*D3
  1

  0
LINE
  5
65
  8
0
  6
BYBLOCK
 62
     0
 10
151.53264799999991
 20
35.141562999999991
 30
0.0
 11
146.11988700000001
 21
35.141562999999991
 31
0.0
  0
LINE
  5
66
  8
0
  6
BYBLOCK
 62
     0
 10
151.53264799999991
 20
110.39156299999991
 30
0.0
 11
146.11988700000001
 21
110.39156299999991
 31
0.0
  0
LINE
  5
67
  8
0
  6
BYBLOCK
 62
     0
 10
146.887137
 20
36.626562999999997
 30
0.0
 11
146.887137
 21
71.508437999999998
 31
0.0
  0
LINE
  5
68
  8
0
  6
BYBLOCK
 62
     0
 10
146.887137
 20
108.90656299999991
 30
0.0
 11
146.887137
 21
74.024687999999998
 31
0.0
  0
SOLID
  5
69
  8
0
  6
BYBLOCK
 62
     0
 10
146.63963699999999
 20
36.626562999999997
 30
0.0
 11
147.134637
 21
36.626562999999997
 31
0.0
 12
146.887137
 22
35.141562999999991
 32
0.0
 13
146.887137
 23
35.141562999999991
 33
0.0
  0
SOLID
  5
6A
  8
0
  6
BYBLOCK
 62
     0
 10
146.63963699999999
 20
108.90656299999991
 30
0.0
 11
147.134637
 21
108.90656299999991
 31
0.0
 12
146.887137
 22
110.39156299999991
 32
0.0
 13
146.887137
 23
110.39156299999991
 33
0.0
  0
TEXT
  5
6B
  8
0
  6
BYBLOCK
 62
     0
 10
146.6293245
 20
72.250938000000005
 30
0.0
 40
1.03125
  1
A
 41
0.75
  7
TXT
 72
     1
 11
146.887137
 21
72.766563000000005
 31
0.0
 73
     2
  0
POINT
  5
6C
  8
DEFPOINTS
  6
BYBLOCK
 62
     0
 10
152.05239800000001
 20
35.141562999999991
 30
0.0
  0
POINT
  5
6D
  8
DEFPOINTS
  6
BYBLOCK
 62
     0
 10
152.05239800000001
 20
110.39156299999991
 30
0.0
  0
POINT
  5
6E
  8
DEFPOINTS
  6
BYBLOCK
 62
     0
 10
146.887137
 20
110.39156299999991
 30
0.0
  0
ENDBLK
  5
6F
  8
0
  0
BLOCK
  8
0
  2
*D4
 70
     1
 10
0.0
 20
0.0
 30
0.0
  3
*D4
  1

  0
LINE
  5
72
  8
0
  6
BYBLOCK
 62
     0
 10
157.0394729999999
 20
110.891563
 30
0.0
 11
159.13571799999991
 21
110.891563
 31
0.0
  0
LINE
  5
73
  8
0
  6
BYBLOCK
 62
     0
 10
152.572148
 20
110.14156299999991
 30
0.0
 11
159.13571799999991
 21
110.14156299999991
 31
0.0
  0
LINE
  5
74
  8
0
  6
BYBLOCK
 62
     0
 10
158.36846800000001
 20
112.3765629999999
 30
0.0
 11
158.36846800000001
 21
113.8615629999999
 31
0.0
  0
LINE
  5
75
  8
0
  6
BYBLOCK
 62
     0
 10
158.36846800000001
 20
108.65656299999991
 30
0.0
 11
158.36846800000001
 21
107.17156299999991
 31
0.0
  0
LINE
  5
76
  8
0
  6
BYBLOCK
 62
     0
 10
158.36846800000001
 20
107.17156299999991
 30
0.0
 11
156.88346799999991
 21
107.17156299999991
 31
0.0
  0
SOLID
  5
77
  8
0
  6
BYBLOCK
 62
     0
 10
158.120968
 20
112.3765629999999
 30
0.0
 11
158.6159679999999
 21
112.3765629999999
 31
0.0
 12
158.36846800000001
 22
110.891563
 32
0.0
 13
158.36846800000001
 23
110.891563
 33
0.0
  0
SOLID
  5
78
  8
0
  6
BYBLOCK
 62
     0
 10
158.120968
 20
108.65656299999991
 30
0.0
 11
158.6159679999999
 21
108.65656299999991
 31
0.0
 12
158.36846800000001
 22
110.14156299999991
 32
0.0
 13
158.36846800000001
 23
110.14156299999991
 33
0.0
  0
TEXT
  5
79
  8
0
  6
BYBLOCK
 62
     0
 10
153.3050302499999
 20
106.65593799999991
 30
0.0
 40
1.03125
  1
0.750
 41
0.75
  7
TXT
 72
     1
 11
154.7229989999999
 21
107.17156299999991
 31
0.0
 73
     2
  0
POINT
  5
7A
  8
DEFPOINTS
  6
BYBLOCK
 62
     0
 10
156.519723
 20
110.891563
 30
0.0
  0
POINT
  5
7B
  8
DEFPOINTS
  6
BYBLOCK
 62
     0
 10
152.05239800000001
 20
110.14156299999991
 30
0.0
  0
POINT
  5
7C
  8
DEFPOINTS
  6
BYBLOCK
 62
     0
 10
158.36846800000001
 20
110.14156299999991
 30
0.0
  0
ENDBLK
  5
7D
  8
0
  0
BLOCK
  8
0
  2
*D5
 70
     1
 10
0.0
 20
0.0
 30
0.0
  3
*D5
  1

  0
LINE
  5
80
  8
0
  6
BYBLOCK
 62
     0
 10
103.648494
 20
114.1248129999999
 30
0.0
 11
103.648494
 21
117.93525
 31
0.0
  0
LINE
  5
81
  8
0
  6
BYBLOCK
 62
     0
 10
119.6489209999999
 20
114.1248129999999
 30
0.0
 11
119.6489209999999
 21
117.93525
 31
0.0
  0
LINE
  5
82
  8
0
  6
BYBLOCK
 62
     0
 10
105.133494
 20
117.16800000000001
 30
0.0
 11
109.29487899999999
 21
117.16800000000001
 31
0.0
  0
LINE
  5
83
  8
0
  6
BYBLOCK
 62
     0
 10
118.1639209999999
 20
117.16800000000001
 30
0.0
 11
114.00253499999999
 21
117.16800000000001
 31
0.0
  0
SOLID
  5
84
  8
0
  6
BYBLOCK
 62
     0
 10
105.133494
 20
117.41549999999999
 30
0.0
 11
105.133494
 21
116.9205
 31
0.0
 12
103.648494
 22
117.16800000000001
 32
0.0
 13
103.648494
 23
117.16800000000001
 33
0.0
  0
SOLID
  5
85
  8
0
  6
BYBLOCK
 62
     0
 10
118.1639209999999
 20
117.41549999999999
 30
0.0
 11
118.1639209999999
 21
116.9205
 31
0.0
 12
119.6489209999999
 22
117.16800000000001
 32
0.0
 13
119.6489209999999
 23
117.16800000000001
 33
0.0
  0
TEXT
  5
86
  8
0
  6
BYBLOCK
 62
     0
 10
110.037378875
 20
116.65237499999991
 30
0.0
 40
1.03125
  1
16.000
 41
0.75
  7
TXT
 72
     1
 11
111.648707
 21
117.16800000000001
 31
0.0
 73
     2
  0
POINT
  5
87
  8
DEFPOINTS
  6
BYBLOCK
 62
     0
 10
103.648494
 20
113.6050629999999
 30
0.0
  0
POINT
  5
88
  8
DEFPOINTS
  6
BYBLOCK
 62
     0
 10
119.6489209999999
 20
113.6050629999999
 30
0.0
  0
POINT
  5
89
  8
DEFPOINTS
  6
BYBLOCK
 62
     0
 10
119.6489209999999
 20
117.16800000000001
 30
0.0
  0
ENDBLK
  5
8A
  8
0
  0
BLOCK
  8
0
  2
*D6
 70
     1
 10
0.0
 20
0.0
 30
0.0
  3
*D6
  1

  0
LINE
  5
8D
  8
0
  6
BYBLOCK
 62
     0
 10
119.6489209999999
 20
114.1248129999999
 30
0.0
 11
119.6489209999999
 21
117.93525
 31
0.0
  0
LINE
  5
8E
  8
0
  6
BYBLOCK
 62
     0
 10
121.8989209999999
 20
115.1248129999999
 30
0.0
 11
121.8989209999999
 21
117.93525
 31
0.0
  0
LINE
  5
8F
  8
0
  6
BYBLOCK
 62
     0
 10
118.1639209999999
 20
117.16800000000001
 30
0.0
 11
116.678921
 21
117.16800000000001
 31
0.0
  0
LINE
  5
90
  8
0
  6
BYBLOCK
 62
     0
 10
123.3839209999999
 20
117.16800000000001
 30
0.0
 11
124.8689209999999
 21
117.16800000000001
 31
0.0
  0
SOLID
  5
91
  8
0
  6
BYBLOCK
 62
     0
 10
118.1639209999999
 20
117.41549999999999
 30
0.0
 11
118.1639209999999
 21
116.9205
 31
0.0
 12
119.6489209999999
 22
117.16800000000001
 32
0.0
 13
119.6489209999999
 23
117.16800000000001
 33
0.0
  0
SOLID
  5
92
  8
0
  6
BYBLOCK
 62
     0
 10
123.3839209999999
 20
117.41549999999999
 30
0.0
 11
123.3839209999999
 21
116.9205
 31
0.0
 12
121.8989209999999
 22
117.16800000000001
 32
0.0
 13
121.8989209999999
 23
117.16800000000001
 33
0.0
  0
TEXT
  5
93
  8
0
  6
BYBLOCK
 62
     0
 10
125.6114201249999
 20
116.65237499999991
 30
0.0
 40
1.03125
  1
2.250
 41
0.75
  7
TXT
 72
     1
 11
127.093842
 21
117.16800000000001
 31
0.0
 73
     2
  0
POINT
  5
94
  8
DEFPOINTS
  6
BYBLOCK
 62
     0
 10
119.6489209999999
 20
113.6050629999999
 30
0.0
  0
POINT
  5
95
  8
DEFPOINTS
  6
BYBLOCK
 62
     0
 10
121.8989209999999
 20
114.6050629999999
 30
0.0
  0
POINT
  5
96
  8
DEFPOINTS
  6
BYBLOCK
 62
     0
 10
121.8989209999999
 20
117.16800000000001
 30
0.0
  0
ENDBLK
  5
97
  8
0
  0
BLOCK
  8
0
  2
*D7
 70
     1
 10
0.0
 20
0.0
 30
0.0
  3
*D7
  1

  0
LINE
  5
9A
  8
0
  6
BYBLOCK
 62
     0
 10
103.128744
 20
33.929062999999992
 30
0.0
 11
96.169581000000008
 21
33.929062999999992
 31
0.0
  0
LINE
  5
9B
  8
0
  6
BYBLOCK
 62
     0
 10
103.128744
 20
111.6050629999999
 30
0.0
 11
96.169581000000008
 21
111.6050629999999
 31
0.0
  0
LINE
  5
9C
  8
0
  6
BYBLOCK
 62
     0
 10
96.936831000000012
 20
35.414062999999999
 30
0.0
 11
96.936831000000012
 21
71.508938000000001
 31
0.0
  0
LINE
  5
9D
  8
0
  6
BYBLOCK
 62
     0
 10
96.936831000000012
 20
110.1200629999999
 30
0.0
 11
96.936831000000012
 21
74.025188
 31
0.0
  0
SOLID
  5
9E
  8
0
  6
BYBLOCK
 62
     0
 10
96.689331000000024
 20
35.414062999999999
 30
0.0
 11
97.184331
 21
35.414062999999999
 31
0.0
 12
96.936831000000012
 22
33.929062999999992
 32
0.0
 13
96.936831000000012
 23
33.929062999999992
 33
0.0
  0
SOLID
  5
9F
  8
0
  6
BYBLOCK
 62
     0
 10
96.689331000000024
 20
110.1200629999999
 30
0.0
 11
97.184331
 21
110.1200629999999
 31
0.0
 12
96.936831000000012
 22
111.6050629999999
 32
0.0
 13
96.936831000000012
 23
111.6050629999999
 33
0.0
  0
TEXT
  5
A0
  8
0
  6
BYBLOCK
 62
     0
 10
96.679018500000012
 20
72.251438000000007
 30
0.0
 40
1.03125
  1
C
 41
0.75
  7
TXT
 72
     1
 11
96.936831000000012
 21
72.767062999999993
 31
0.0
 73
     2
  0
POINT
  5
A1
  8
DEFPOINTS
  6
BYBLOCK
 62
     0
 10
103.648494
 20
33.929062999999992
 30
0.0
  0
POINT
  5
A2
  8
DEFPOINTS
  6
BYBLOCK
 62
     0
 10
103.648494
 20
111.6050629999999
 30
0.0
  0
POINT
  5
A3
  8
DEFPOINTS
  6
BYBLOCK
 62
     0
 10
96.936831000000012
 20
111.6050629999999
 30
0.0
  0
ENDBLK
  5
A4
  8
0
  0
BLOCK
  8
0
  2
*D8
 70
     1
 10
0.0
 20
0.0
 30
0.0
  3
*D8
  1

  0
LINE
  5
A7
  8
0
  6
BYBLOCK
 62
     0
 10
122.293671
 20
30.742063000000002
 30
0.0
 11
126.4337679999999
 21
30.742063000000002
 31
0.0
  0
LINE
  5
A8
  8
0
  6
BYBLOCK
 62
     0
 10
122.418671
 20
114.7920629999999
 30
0.0
 11
126.4337679999999
 21
114.7920629999999
 31
0.0
  0
LINE
  5
A9
  8
0
  6
BYBLOCK
 62
     0
 10
125.6665179999999
 20
32.227063000000001
 30
0.0
 11
125.6665179999999
 21
71.508938000000001
 31
0.0
  0
LINE
  5
AA
  8
0
  6
BYBLOCK
 62
     0
 10
125.6665179999999
 20
113.3070629999999
 30
0.0
 11
125.6665179999999
 21
74.025188
 31
0.0
  0
SOLID
  5
AB
  8
0
  6
BYBLOCK
 62
     0
 10
125.41901799999989
 20
32.227063000000001
 30
0.0
 11
125.9140179999999
 21
32.227063000000001
 31
0.0
 12
125.6665179999999
 22
30.742063000000002
 32
0.0
 13
125.6665179999999
 23
30.742063000000002
 33
0.0
  0
SOLID
  5
AC
  8
0
  6
BYBLOCK
 62
     0
 10
125.41901799999989
 20
113.3070629999999
 30
0.0
 11
125.9140179999999
 21
113.3070629999999
 31
0.0
 12
125.6665179999999
 22
114.7920629999999
 32
0.0
 13
125.6665179999999
 23
114.7920629999999
 33
0.0
  0
TEXT
  5
AD
  8
0
  6
BYBLOCK
 62
     0
 10
125.4087055
 20
72.251438000000007
 30
0.0
 40
1.03125
  1
B
 41
0.75
  7
TXT
 72
     1
 11
125.6665179999999
 21
72.767062999999993
 31
0.0
 73
     2
  0
POINT
  5
AE
  8
DEFPOINTS
  6
BYBLOCK
 62
     0
 10
121.7739209999999
 20
30.742063000000002
 30
0.0
  0
POINT
  5
AF
  8
DEFPOINTS
  6
BYBLOCK
 62
     0
 10
121.8989209999999
 20
114.7920629999999
 30
0.0
  0
POINT
  5
B0
  8
DEFPOINTS
  6
BYBLOCK
 62
     0
 10
125.6665179999999
 20
114.7920629999999
 30
0.0
  0
ENDBLK
  5
B1
  8
0
  0
BLOCK
  8
0
  2
*D9
 70
     1
 10
0.0
 20
0.0
 30
0.0
  3
*D9
  1

  0
LINE
  5
B4
  8
0
  6
BYBLOCK
 62
     0
 10
103.128744
 20
113.6050629999999
 30
0.0
 11
93.728769999999997
 21
113.6050629999999
 31
0.0
  0
LINE
  5
B5
  8
0
  6
BYBLOCK
 62
     0
 10
100.878957
 20
114.7920629999999
 30
0.0
 11
93.728769999999997
 21
114.7920629999999
 31
0.0
  0
LINE
  5
B6
  8
0
  6
BYBLOCK
 62
     0
 10
94.496020000000001
 20
112.1200629999999
 30
0.0
 11
94.496020000000001
 21
110.6350629999999
 31
0.0
  0
LINE
  5
B7
  8
0
  6
BYBLOCK
 62
     0
 10
94.496020000000001
 20
116.2770629999999
 30
0.0
 11
94.496020000000001
 21
117.7620629999999
 31
0.0
  0
LINE
  5
B8
  8
0
  6
BYBLOCK
 62
     0
 10
94.496020000000001
 20
117.7620629999999
 30
0.0
 11
95.981020000000001
 21
117.7620629999999
 31
0.0
  0
SOLID
  5
B9
  8
0
  6
BYBLOCK
 62
     0
 10
94.248519999999985
 20
112.1200629999999
 30
0.0
 11
94.74351999999999
 21
112.1200629999999
 31
0.0
 12
94.496020000000001
 22
113.6050629999999
 32
0.0
 13
94.496020000000001
 23
113.6050629999999
 33
0.0
  0
SOLID
  5
BA
  8
0
  6
BYBLOCK
 62
     0
 10
94.248519999999985
 20
116.2770629999999
 30
0.0
 11
94.74351999999999
 21
116.2770629999999
 31
0.0
 12
94.496020000000001
 22
114.7920629999999
 32
0.0
 13
94.496020000000001
 23
114.7920629999999
 33
0.0
  0
TEXT
  5
BB
  8
0
  6
BYBLOCK
 62
     0
 10
96.723519499999995
 20
117.2464379999999
 30
0.0
 40
1.03125
  1
1.187
 41
0.75
  7
TXT
 72
     1
 11
98.012581999999995
 21
117.7620629999999
 31
0.0
 73
     2
  0
POINT
  5
BC
  8
DEFPOINTS
  6
BYBLOCK
 62
     0
 10
103.648494
 20
113.6050629999999
 30
0.0
  0
POINT
  5
BD
  8
DEFPOINTS
  6
BYBLOCK
 62
     0
 10
101.3987069999999
 20
114.7920629999999
 30
0.0
  0
POINT
  5
BE
  8
DEFPOINTS
  6
BYBLOCK
 62
     0
 10
94.496020000000001
 20
114.7920629999999
 30
0.0
  0
ENDBLK
  5
BF
  8
0
  0
BLOCK
  8
0
  2
*D10
 70
     1
 10
0.0
 20
0.0
 30
0.0
  3
*D10
  1

  0
LINE
  5
C2
  8
0
  6
BYBLOCK
 62
     0
 10
101.3987069999999
 20
115.3118129999999
 30
0.0
 11
101.3987069999999
 21
120.18325
 31
0.0
  0
LINE
  5
C3
  8
0
  6
BYBLOCK
 62
     0
 10
121.898707
 20
115.3118129999999
 30
0.0
 11
121.898707
 21
120.18325
 31
0.0
  0
LINE
  5
C4
  8
0
  6
BYBLOCK
 62
     0
 10
102.883707
 20
119.4159999999999
 30
0.0
 11
109.16597299999989
 21
119.4159999999999
 31
0.0
  0
LINE
  5
C5
  8
0
  6
BYBLOCK
 62
     0
 10
120.413707
 20
119.4159999999999
 30
0.0
 11
114.1314409999999
 21
119.4159999999999
 31
0.0
  0
SOLID
  5
C6
  8
0
  6
BYBLOCK
 62
     0
 10
102.883707
 20
119.6635
 30
0.0
 11
102.883707
 21
119.1684999999999
 31
0.0
 12
101.3987069999999
 22
119.4159999999999
 32
0.0
 13
101.3987069999999
 23
119.4159999999999
 33
0.0
  0
SOLID
  5
C7
  8
0
  6
BYBLOCK
 62
     0
 10
120.413707
 20
119.6635
 30
0.0
 11
120.413707
 21
119.1684999999999
 31
0.0
 12
121.898707
 22
119.4159999999999
 32
0.0
 13
121.898707
 23
119.4159999999999
 33
0.0
  0
TEXT
  5
C8
  8
0
  6
BYBLOCK
 62
     0
 10
109.908472625
 20
118.9003749999999
 30
0.0
 40
1.03125
  1
20.500
 41
0.75
  7
TXT
 72
     1
 11
111.648707
 21
119.4159999999999
 31
0.0
 73
     2
  0
POINT
  5
C9
  8
DEFPOINTS
  6
BYBLOCK
 62
     0
 10
101.3987069999999
 20
114.7920629999999
 30
0.0
  0
POINT
  5
CA
  8
DEFPOINTS
  6
BYBLOCK
 62
     0
 10
121.898707
 20
114.7920629999999
 30
0.0
  0
POINT
  5
CB
  8
DEFPOINTS
  6
BYBLOCK
 62
     0
 10
121.898707
 20
119.4159999999999
 30
0.0
  0
ENDBLK
  5
CC
  8
0
  0
BLOCK
  8
0
  2
*D11
 70
     1
 10
0.0
 20
0.0
 30
0.0
  3
*D11
  1

  0
LINE
  5
CF
  8
0
  6
BYBLOCK
 62
     0
 10
155.791473
 20
34.642563000000003
 30
0.0
 11
157.64771799999991
 21
34.642563000000003
 31
0.0
  0
LINE
  5
D0
  8
0
  6
BYBLOCK
 62
     0
 10
152.572148
 20
35.392563000000003
 30
0.0
 11
157.64771799999991
 21
35.392563000000003
 31
0.0
  0
LINE
  5
D1
  8
0
  6
BYBLOCK
 62
     0
 10
156.88046800000001
 20
33.157563000000003
 30
0.0
 11
156.88046800000001
 21
31.672563
 31
0.0
  0
LINE
  5
D2
  8
0
  6
BYBLOCK
 62
     0
 10
156.88046800000001
 20
36.877563000000002
 30
0.0
 11
156.88046800000001
 21
38.362563000000002
 31
0.0
  0
LINE
  5
D3
  8
0
  6
BYBLOCK
 62
     0
 10
156.88046800000001
 20
38.362563000000002
 30
0.0
 11
158.36546799999991
 21
38.362563000000002
 31
0.0
  0
SOLID
  5
D4
  8
0
  6
BYBLOCK
 62
     0
 10
156.63296800000001
 20
33.157563000000003
 30
0.0
 11
157.1279679999999
 21
33.157563000000003
 31
0.0
 12
156.88046800000001
 22
34.642563000000003
 32
0.0
 13
156.88046800000001
 23
34.642563000000003
 33
0.0
  0
SOLID
  5
D5
  8
0
  6
BYBLOCK
 62
     0
 10
156.63296800000001
 20
36.877563000000002
 30
0.0
 11
157.1279679999999
 21
36.877563000000002
 31
0.0
 12
156.88046800000001
 22
35.392563000000003
 32
0.0
 13
156.88046800000001
 23
35.392563000000003
 33
0.0
  0
TEXT
  5
D6
  8
0
  6
BYBLOCK
 62
     0
 10
159.10796825
 20
37.846938000000002
 30
0.0
 40
1.03125
  1
0.750
 41
0.75
  7
TXT
 72
     1
 11
160.52593699999991
 21
38.362563000000002
 31
0.0
 73
     2
  0
POINT
  5
D7
  8
DEFPOINTS
  6
BYBLOCK
 62
     0
 10
155.27172300000001
 20
34.642563000000003
 30
0.0
  0
POINT
  5
D8
  8
DEFPOINTS
  6
BYBLOCK
 62
     0
 10
152.05239800000001
 20
35.392563000000003
 30
0.0
  0
POINT
  5
D9
  8
DEFPOINTS
  6
BYBLOCK
 62
     0
 10
156.88046800000001
 20
35.392563000000003
 30
0.0
  0
ENDBLK
  5
DA
  8
0
  0
BLOCK
  8
0
  2
*D12
 70
     1
 10
0.0
 20
0.0
 30
0.0
  3
*D12
  1

  0
LINE
  5
DD
  8
0
  6
BYBLOCK
 62
     0
 10
118.5239209999999
 20
25.136133999999998
 30
0.0
 11
118.5239209999999
 21
26.893664000000001
 31
0.0
  0
LINE
  5
DE
  8
0
  6
BYBLOCK
 62
     0
 10
121.8989209999999
 20
25.011133999999991
 30
0.0
 11
121.8989209999999
 21
26.893664000000001
 31
0.0
  0
LINE
  5
DF
  8
0
  6
BYBLOCK
 62
     0
 10
117.0389209999999
 20
26.126414
 30
0.0
 11
115.553921
 21
26.126414
 31
0.0
  0
LINE
  5
E0
  8
0
  6
BYBLOCK
 62
     0
 10
123.3839209999999
 20
26.126414
 30
0.0
 11
124.8689209999999
 21
26.126414
 31
0.0
  0
SOLID
  5
E1
  8
0
  6
BYBLOCK
 62
     0
 10
117.0389209999999
 20
26.373913999999999
 30
0.0
 11
117.0389209999999
 21
25.878914000000002
 31
0.0
 12
118.5239209999999
 22
26.126414
 32
0.0
 13
118.5239209999999
 23
26.126414
 33
0.0
  0
SOLID
  5
E2
  8
0
  6
BYBLOCK
 62
     0
 10
123.3839209999999
 20
26.373913999999999
 30
0.0
 11
123.3839209999999
 21
25.878914000000002
 31
0.0
 12
121.8989209999999
 22
26.126414
 32
0.0
 13
121.8989209999999
 23
26.126414
 33
0.0
  0
TEXT
  5
E3
  8
0
  6
BYBLOCK
 62
     0
 10
125.61142100000001
 20
25.610789
 30
0.0
 40
1.03125
  1
3.375
 41
0.75
  7
TXT
 72
     1
 11
127.15829599999989
 21
26.126414
 31
0.0
 73
     2
  0
POINT
  5
E4
  8
DEFPOINTS
  6
BYBLOCK
 62
     0
 10
118.5239209999999
 20
24.616384
 30
0.0
  0
POINT
  5
E5
  8
DEFPOINTS
  6
BYBLOCK
 62
     0
 10
121.8989209999999
 20
24.491384
 30
0.0
  0
POINT
  5
E6
  8
DEFPOINTS
  6
BYBLOCK
 62
     0
 10
121.8989209999999
 20
26.126414
 30
0.0
  0
ENDBLK
  5
E7
  8
0
  0
BLOCK
  8
0
  2
*D13
 70
     1
 10
0.0
 20
0.0
 30
0.0
  3
*D13
  1

  0
LINE
  5
EA
  8
0
  6
BYBLOCK
 62
     0
 10
104.773494
 20
25.136133999999998
 30
0.0
 11
104.773494
 21
26.893664000000001
 31
0.0
  0
LINE
  5
EB
  8
0
  6
BYBLOCK
 62
     0
 10
101.398494
 20
25.011133999999991
 30
0.0
 11
101.398494
 21
26.893664000000001
 31
0.0
  0
LINE
  5
EC
  8
0
  6
BYBLOCK
 62
     0
 10
106.258494
 20
26.126414
 30
0.0
 11
107.743494
 21
26.126414
 31
0.0
  0
LINE
  5
ED
  8
0
  6
BYBLOCK
 62
     0
 10
99.913494
 20
26.126414
 30
0.0
 11
98.428494000000001
 21
26.126414
 31
0.0
  0
SOLID
  5
EE
  8
0
  6
BYBLOCK
 62
     0
 10
106.258494
 20
26.373913999999999
 30
0.0
 11
106.258494
 21
25.878914000000002
 31
0.0
 12
104.773494
 22
26.126414
 32
0.0
 13
104.773494
 23
26.126414
 33
0.0
  0
SOLID
  5
EF
  8
0
  6
BYBLOCK
 62
     0
 10
99.913494
 20
26.373913999999999
 30
0.0
 11
99.913494
 21
25.878914000000002
 31
0.0
 12
101.398494
 22
26.126414
 32
0.0
 13
101.398494
 23
26.126414
 33
0.0
  0
TEXT
  5
F0
  8
0
  6
BYBLOCK
 62
     0
 10
94.592243999999994
 20
25.610789
 30
0.0
 40
1.03125
  1
3.375
 41
0.75
  7
TXT
 72
     1
 11
96.139118999999994
 21
26.126414
 31
0.0
 73
     2
  0
POINT
  5
F1
  8
DEFPOINTS
  6
BYBLOCK
 62
     0
 10
104.773494
 20
24.616384
 30
0.0
  0
POINT
  5
F2
  8
DEFPOINTS
  6
BYBLOCK
 62
     0
 10
101.398494
 20
24.491384
 30
0.0
  0
POINT
  5
F3
  8
DEFPOINTS
  6
BYBLOCK
 62
     0
 10
101.398494
 20
26.126414
 30
0.0
  0
ENDBLK
  5
F4
  8
0
  0
BLOCK
  8
0
  2
*D14
 70
     1
 10
0.0
 20
0.0
 30
0.0
  3
*D14
  1

  0
LINE
  5
F7
  8
0
  6
BYBLOCK
 62
     0
 10
103.128744
 20
111.6050629999999
 30
0.0
 11
96.169581000000008
 21
111.6050629999999
 31
0.0
  0
LINE
  5
F8
  8
0
  6
BYBLOCK
 62
     0
 10
103.128744
 20
113.6050629999999
 30
0.0
 11
96.169581000000008
 21
113.6050629999999
 31
0.0
  0
LINE
  5
F9
  8
0
  6
BYBLOCK
 62
     0
 10
96.936831000000012
 20
110.1200629999999
 30
0.0
 11
96.936831000000012
 21
108.6350629999999
 31
0.0
  0
LINE
  5
FA
  8
0
  6
BYBLOCK
 62
     0
 10
96.936831000000012
 20
115.0900629999999
 30
0.0
 11
96.936831000000012
 21
116.5750629999999
 31
0.0
  0
SOLID
  5
FB
  8
0
  6
BYBLOCK
 62
     0
 10
96.689331000000024
 20
110.1200629999999
 30
0.0
 11
97.184331
 21
110.1200629999999
 31
0.0
 12
96.936831000000012
 22
111.6050629999999
 32
0.0
 13
96.936831000000012
 23
111.6050629999999
 33
0.0
  0
SOLID
  5
FC
  8
0
  6
BYBLOCK
 62
     0
 10
96.689331000000024
 20
115.0900629999999
 30
0.0
 11
97.184331
 21
115.0900629999999
 31
0.0
 12
96.936831000000012
 22
113.6050629999999
 32
0.0
 13
96.936831000000012
 23
113.6050629999999
 33
0.0
  0
TEXT
  5
FD
  8
0
  6
BYBLOCK
 62
     0
 10
95.583315374999998
 20
112.0894379999999
 30
0.0
 40
1.03125
  1
2.000
 41
0.75
  7
TXT
 72
     1
 11
96.936831000000012
 21
112.6050629999999
 31
0.0
 73
     2
  0
POINT
  5
FE
  8
DEFPOINTS
  6
BYBLOCK
 62
     0
 10
103.648494
 20
111.6050629999999
 30
0.0
  0
POINT
  5
FF
  8
DEFPOINTS
  6
BYBLOCK
 62
     0
 10
103.648494
 20
113.6050629999999
 30
0.0
  0
POINT
  5
100
  8
DEFPOINTS
  6
BYBLOCK
 62
     0
 10
96.936831000000012
 20
113.6050629999999
 30
0.0
  0
ENDBLK
  5
101
  8
0
  0
BLOCK
  8
0
  2
*D15
 70
     1
 10
0.0
 20
0.0
 30
0.0
  3
*D15
  1

  0
LINE
  5
104
  8
0
  6
BYBLOCK
 62
     0
 10
134.0310969999999
 20
114.7300629999999
 30
0.0
 11
130.21480500000001
 21
114.7300629999999
 31
0.0
  0
LINE
  5
105
  8
0
  6
BYBLOCK
 62
     0
 10
133.92209700000001
 20
110.7920629999999
 30
0.0
 11
130.21480500000001
 21
110.7920629999999
 31
0.0
  0
LINE
  5
106
  8
0
  6
BYBLOCK
 62
     0
 10
130.98205499999989
 20
116.2150629999999
 30
0.0
 11
130.98205499999989
 21
117.7000629999999
 31
0.0
  0
LINE
  5
107
  8
0
  6
BYBLOCK
 62
     0
 10
130.98205499999989
 20
109.3070629999999
 30
0.0
 11
130.98205499999989
 21
107.8220629999999
 31
0.0
  0
SOLID
  5
108
  8
0
  6
BYBLOCK
 62
     0
 10
130.73455499999989
 20
116.2150629999999
 30
0.0
 11
131.22955499999989
 21
116.2150629999999
 31
0.0
 12
130.98205499999989
 22
114.7300629999999
 32
0.0
 13
130.98205499999989
 23
114.7300629999999
 33
0.0
  0
SOLID
  5
109
  8
0
  6
BYBLOCK
 62
     0
 10
130.73455499999989
 20
109.3070629999999
 30
0.0
 11
131.22955499999989
 21
109.3070629999999
 31
0.0
 12
130.98205499999989
 22
110.7920629999999
 32
0.0
 13
130.98205499999989
 23
110.7920629999999
 33
0.0
  0
TEXT
  5
10A
  8
0
  6
BYBLOCK
 62
     0
 10
129.43518
 20
112.24543799999989
 30
0.0
 40
1.03125
  1
3.938
 41
0.75
  7
TXT
 72
     1
 11
130.98205499999989
 21
112.76106299999989
 31
0.0
 73
     2
  0
POINT
  5
10B
  8
DEFPOINTS
  6
BYBLOCK
 62
     0
 10
134.550847
 20
114.7300629999999
 30
0.0
  0
POINT
  5
10C
  8
DEFPOINTS
  6
BYBLOCK
 62
     0
 10
134.44184699999991
 20
110.7920629999999
 30
0.0
  0
POINT
  5
10D
  8
DEFPOINTS
  6
BYBLOCK
 62
     0
 10
130.98205499999989
 20
110.7920629999999
 30
0.0
  0
ENDBLK
  5
10E
  8
0
  0
BLOCK
  8
0
  2
*D16
 70
     1
 10
0.0
 20
0.0
 30
0.0
  3
*D16
  1

  0
LINE
  5
111
  8
0
  6
BYBLOCK
 62
     0
 10
134.0310969999999
 20
30.804062999999989
 30
0.0
 11
130.21480500000001
 21
30.804062999999989
 31
0.0
  0
LINE
  5
112
  8
0
  6
BYBLOCK
 62
     0
 10
133.92209700000001
 20
34.742063000000002
 30
0.0
 11
130.21480500000001
 21
34.742063000000002
 31
0.0
  0
LINE
  5
113
  8
0
  6
BYBLOCK
 62
     0
 10
130.98205499999989
 20
29.319062999999989
 30
0.0
 11
130.98205499999989
 21
27.834063
 31
0.0
  0
LINE
  5
114
  8
0
  6
BYBLOCK
 62
     0
 10
130.98205499999989
 20
36.227063000000001
 30
0.0
 11
130.98205499999989
 21
37.712063000000001
 31
0.0
  0
SOLID
  5
115
  8
0
  6
BYBLOCK
 62
     0
 10
130.73455499999989
 20
29.319062999999989
 30
0.0
 11
131.22955499999989
 21
29.319062999999989
 31
0.0
 12
130.98205499999989
 22
30.804062999999989
 32
0.0
 13
130.98205499999989
 23
30.804062999999989
 33
0.0
  0
SOLID
  5
116
  8
0
  6
BYBLOCK
 62
     0
 10
130.73455499999989
 20
36.227063000000001
 30
0.0
 11
131.22955499999989
 21
36.227063000000001
 31
0.0
 12
130.98205499999989
 22
34.742063000000002
 32
0.0
 13
130.98205499999989
 23
34.742063000000002
 33
0.0
  0
TEXT
  5
117
  8
0
  6
BYBLOCK
 62
     0
 10
129.43518
 20
32.257438
 30
0.0
 40
1.03125
  1
3.938
 41
0.75
  7
TXT
 72
     1
 11
130.98205499999989
 21
32.773063
 31
0.0
 73
     2
  0
POINT
  5
118
  8
DEFPOINTS
  6
BYBLOCK
 62
     0
 10
134.550847
 20
30.804062999999989
 30
0.0
  0
POINT
  5
119
  8
DEFPOINTS
  6
BYBLOCK
 62
     0
 10
134.44184699999991
 20
34.742063000000002
 30
0.0
  0
POINT
  5
11A
  8
DEFPOINTS
  6
BYBLOCK
 62
     0
 10
130.98205499999989
 20
34.742063000000002
 30
0.0
  0
ENDBLK
  5
11B
  8
0
  0
BLOCK
  8
0
  2
*D17
 70
     1
 10
0.0
 20
0.0
 30
0.0
  3
*D17
  1

  0
LINE
  5
11E
  8
0
  6
BYBLOCK
 62
     0
 10
103.128744
 20
33.929062999999992
 30
0.0
 11
96.169581000000008
 21
33.929062999999992
 31
0.0
  0
LINE
  5
11F
  8
0
  6
BYBLOCK
 62
     0
 10
103.128744
 20
31.929062999999999
 30
0.0
 11
96.169581000000008
 21
31.929062999999999
 31
0.0
  0
LINE
  5
120
  8
0
  6
BYBLOCK
 62
     0
 10
96.936831000000012
 20
35.414062999999999
 30
0.0
 11
96.936831000000012
 21
36.899062999999998
 31
0.0
  0
LINE
  5
121
  8
0
  6
BYBLOCK
 62
     0
 10
96.936831000000012
 20
30.444063
 30
0.0
 11
96.936831000000012
 21
28.959063
 31
0.0
  0
SOLID
  5
122
  8
0
  6
BYBLOCK
 62
     0
 10
96.689331000000024
 20
35.414062999999999
 30
0.0
 11
97.184331
 21
35.414062999999999
 31
0.0
 12
96.936831000000012
 22
33.929062999999992
 32
0.0
 13
96.936831000000012
 23
33.929062999999992
 33
0.0
  0
SOLID
  5
123
  8
0
  6
BYBLOCK
 62
     0
 10
96.689331000000024
 20
30.444063
 30
0.0
 11
97.184331
 21
30.444063
 31
0.0
 12
96.936831000000012
 22
31.929062999999999
 32
0.0
 13
96.936831000000012
 23
31.929062999999999
 33
0.0
  0
TEXT
  5
124
  8
0
  6
BYBLOCK
 62
     0
 10
95.583315374999998
 20
32.413437999999999
 30
0.0
 40
1.03125
  1
2.000
 41
0.75
  7
TXT
 72
     1
 11
96.936831000000012
 21
32.929062999999999
 31
0.0
 73
     2
  0
POINT
  5
125
  8
DEFPOINTS
  6
BYBLOCK
 62
     0
 10
103.648494
 20
33.929062999999992
 30
0.0
  0
POINT
  5
126
  8
DEFPOINTS
  6
BYBLOCK
 62
     0
 10
103.648494
 20
31.929062999999999
 30
0.0
  0
POINT
  5
127
  8
DEFPOINTS
  6
BYBLOCK
 62
     0
 10
96.936831000000012
 20
31.929062999999999
 30
0.0
  0
ENDBLK
  5
128
  8
0
  0
BLOCK
  8
0
  2
*D18
 70
     1
 10
0.0
 20
0.0
 30
0.0
  3
*D18
  1

  0
LINE
  5
12B
  8
0
  6
BYBLOCK
 62
     0
 10
166.00591099999991
 20
110.89206299999989
 30
0.0
 11
165.15391099999999
 21
110.89206299999989
 31
0.0
  0
LINE
  5
12C
  8
0
  6
BYBLOCK
 62
     0
 10
166.00591099999991
 20
114.7920629999999
 30
0.0
 11
165.15391099999999
 21
114.7920629999999
 31
0.0
  0
LINE
  5
12D
  8
0
  6
BYBLOCK
 62
     0
 10
165.92116100000001
 20
109.40706299999999
 30
0.0
 11
165.92116100000001
 21
107.92206299999999
 31
0.0
  0
LINE
  5
12E
  8
0
  6
BYBLOCK
 62
     0
 10
165.92116100000001
 20
116.2770629999999
 30
0.0
 11
165.92116100000001
 21
117.7620629999999
 31
0.0
  0
SOLID
  5
12F
  8
0
  6
BYBLOCK
 62
     0
 10
165.67366100000001
 20
109.40706299999999
 30
0.0
 11
166.16866099999999
 21
109.40706299999999
 31
0.0
 12
165.92116100000001
 22
110.89206299999989
 32
0.0
 13
165.92116100000001
 23
110.89206299999989
 33
0.0
  0
SOLID
  5
130
  8
0
  6
BYBLOCK
 62
     0
 10
165.67366100000001
 20
116.2770629999999
 30
0.0
 11
166.16866099999999
 21
116.2770629999999
 31
0.0
 12
165.92116100000001
 22
114.7920629999999
 32
0.0
 13
165.92116100000001
 23
114.7920629999999
 33
0.0
  0
TEXT
  5
131
  8
0
  6
BYBLOCK
 62
     0
 10
164.50319225000001
 20
112.3264379999999
 30
0.0
 40
1.03125
  1
3.900
 41
0.75
  7
TXT
 72
     1
 11
165.92116100000001
 21
112.8420629999999
 31
0.0
 73
     2
  0
POINT
  5
132
  8
DEFPOINTS
  6
BYBLOCK
 62
     0
 10
166.52566100000001
 20
110.89206299999989
 30
0.0
  0
POINT
  5
133
  8
DEFPOINTS
  6
BYBLOCK
 62
     0
 10
166.52566100000001
 20
114.7920629999999
 30
0.0
  0
POINT
  5
134
  8
DEFPOINTS
  6
BYBLOCK
 62
     0
 10
165.92116100000001
 20
114.7920629999999
 30
0.0
  0
ENDBLK
  5
135
  8
0
  0
BLOCK
  8
0
  2
*D19
 70
     1
 10
0.0
 20
0.0
 30
0.0
  3
*D19
  1

  0
LINE
  5
138
  8
0
  6
BYBLOCK
 62
     0
 10
166.00591099999991
 20
34.642063
 30
0.0
 11
165.15391099999999
 21
34.642063
 31
0.0
  0
LINE
  5
139
  8
0
  6
BYBLOCK
 62
     0
 10
166.00591099999991
 20
30.742063000000002
 30
0.0
 11
165.15391099999999
 21
30.742063000000002
 31
0.0
  0
LINE
  5
13A
  8
0
  6
BYBLOCK
 62
     0
 10
165.92116100000001
 20
36.127063
 30
0.0
 11
165.92116100000001
 21
37.612062999999999
 31
0.0
  0
LINE
  5
13B
  8
0
  6
BYBLOCK
 62
     0
 10
165.92116100000001
 20
29.257062999999992
 30
0.0
 11
165.92116100000001
 21
27.772062999999999
 31
0.0
  0
SOLID
  5
13C
  8
0
  6
BYBLOCK
 62
     0
 10
165.67366100000001
 20
36.127063
 30
0.0
 11
166.16866099999999
 21
36.127063
 31
0.0
 12
165.92116100000001
 22
34.642063
 32
0.0
 13
165.92116100000001
 23
34.642063
 33
0.0
  0
SOLID
  5
13D
  8
0
  6
BYBLOCK
 62
     0
 10
165.67366100000001
 20
29.257062999999992
 30
0.0
 11
166.16866099999999
 21
29.257062999999992
 31
0.0
 12
165.92116100000001
 22
30.742063000000002
 32
0.0
 13
165.92116100000001
 23
30.742063000000002
 33
0.0
  0
TEXT
  5
13E
  8
0
  6
BYBLOCK
 62
     0
 10
164.50319225000001
 20
32.17643799999999
 30
0.0
 40
1.03125
  1
3.900
 41
0.75
  7
TXT
 72
     1
 11
165.92116100000001
 21
32.692062999999997
 31
0.0
 73
     2
  0
POINT
  5
13F
  8
DEFPOINTS
  6
BYBLOCK
 62
     0
 10
166.52566100000001
 20
34.642063
 30
0.0
  0
POINT
  5
140
  8
DEFPOINTS
  6
BYBLOCK
 62
     0
 10
166.52566100000001
 20
30.742063000000002
 30
0.0
  0
POINT
  5
141
  8
DEFPOINTS
  6
BYBLOCK
 62
     0
 10
165.92116100000001
 20
30.742063000000002
 30
0.0
  0
ENDBLK
  5
142
  8
0
  0
BLOCK
  8
0
  2
*D20
 70
     1
 10
0.0
 20
0.0
 30
0.0
  3
*D20
  1

  0
LINE
  5
145
  8
0
  6
BYBLOCK
 62
     0
 10
42.320296999999997
 20
117.983414
 30
0.0
 11
42.320296999999997
 21
120.731351
 31
0.0
  0
LINE
  5
146
  8
0
  6
BYBLOCK
 62
     0
 10
50.320296999999989
 20
118.0459139999999
 30
0.0
 11
50.320296999999989
 21
120.731351
 31
0.0
  0
LINE
  5
147
  8
0
  6
BYBLOCK
 62
     0
 10
43.805296999999989
 20
119.964101
 30
0.0
 11
45.319983999999998
 21
119.964101
 31
0.0
  0
LINE
  5
148
  8
0
  6
BYBLOCK
 62
     0
 10
48.835296999999997
 20
119.964101
 30
0.0
 11
47.320608999999997
 21
119.964101
 31
0.0
  0
SOLID
  5
149
  8
0
  6
BYBLOCK
 62
     0
 10
43.805296999999989
 20
120.211601
 30
0.0
 11
43.805296999999989
 21
119.7166009999999
 31
0.0
 12
42.320296999999997
 22
119.964101
 32
0.0
 13
42.320296999999997
 23
119.964101
 33
0.0
  0
SOLID
  5
14A
  8
0
  6
BYBLOCK
 62
     0
 10
48.835296999999997
 20
120.211601
 30
0.0
 11
48.835296999999997
 21
119.7166009999999
 31
0.0
 12
50.320296999999989
 22
119.964101
 32
0.0
 13
50.320296999999989
 23
119.964101
 33
0.0
  0
TEXT
  5
14B
  8
0
  6
BYBLOCK
 62
     0
 10
46.062484499999989
 20
119.4484759999999
 30
0.0
 40
1.03125
  1
D
 41
0.75
  7
TXT
 72
     1
 11
46.320296999999989
 21
119.964101
 31
0.0
 73
     2
  0
POINT
  5
14C
  8
DEFPOINTS
  6
BYBLOCK
 62
     0
 10
42.320296999999997
 20
117.46366399999989
 30
0.0
  0
POINT
  5
14D
  8
DEFPOINTS
  6
BYBLOCK
 62
     0
 10
50.320296999999989
 20
117.52616399999989
 30
0.0
  0
POINT
  5
14E
  8
DEFPOINTS
  6
BYBLOCK
 62
     0
 10
50.320296999999989
 20
119.964101
 30
0.0
  0
ENDBLK
  5
14F
  8
0
  0
BLOCK
  8
0
  2
*D21
 70
     1
 10
0.0
 20
0.0
 30
0.0
  3
*D21
  1

  0
LINE
  5
152
  8
0
  6
BYBLOCK
 62
     0
 10
42.320296999999997
 20
117.983414
 30
0.0
 11
42.320296999999997
 21
122.97935099999989
 31
0.0
  0
LINE
  5
153
  8
0
  6
BYBLOCK
 62
     0
 10
50.414296999999998
 20
118.10791399999999
 30
0.0
 11
50.414296999999998
 21
122.97935099999989
 31
0.0
  0
LINE
  5
154
  8
0
  6
BYBLOCK
 62
     0
 10
43.805296999999989
 20
122.212101
 30
0.0
 11
45.366984000000002
 21
122.212101
 31
0.0
  0
LINE
  5
155
  8
0
  6
BYBLOCK
 62
     0
 10
48.929296999999991
 20
122.212101
 30
0.0
 11
47.367609000000002
 21
122.212101
 31
0.0
  0
SOLID
  5
156
  8
0
  6
BYBLOCK
 62
     0
 10
43.805296999999989
 20
122.45960100000001
 30
0.0
 11
43.805296999999989
 21
121.9646009999999
 31
0.0
 12
42.320296999999997
 22
122.212101
 32
0.0
 13
42.320296999999997
 23
122.212101
 33
0.0
  0
SOLID
  5
157
  8
0
  6
BYBLOCK
 62
     0
 10
48.929296999999991
 20
122.45960100000001
 30
0.0
 11
48.929296999999991
 21
121.9646009999999
 31
0.0
 12
50.414296999999998
 22
122.212101
 32
0.0
 13
50.414296999999998
 23
122.212101
 33
0.0
  0
TEXT
  5
158
  8
0
  6
BYBLOCK
 62
     0
 10
46.109484500000001
 20
121.6964759999999
 30
0.0
 40
1.03125
  1
E
 41
0.75
  7
TXT
 72
     1
 11
46.367297000000001
 21
122.212101
 31
0.0
 73
     2
  0
POINT
  5
159
  8
DEFPOINTS
  6
BYBLOCK
 62
     0
 10
42.320296999999997
 20
117.46366399999989
 30
0.0
  0
POINT
  5
15A
  8
DEFPOINTS
  6
BYBLOCK
 62
     0
 10
50.414296999999998
 20
117.58816399999991
 30
0.0
  0
POINT
  5
15B
  8
DEFPOINTS
  6
BYBLOCK
 62
     0
 10
50.414296999999998
 20
122.212101
 30
0.0
  0
ENDBLK
  5
15C
  8
0
  0
BLOCK
  8
0
  2
*D22
 70
     1
 10
0.0
 20
0.0
 30
0.0
  3
*D22
  1

  0
LINE
  5
197
  8
DIM
 62
     0
 10
59.930847999999997
 20
57.957414
 30
0.0
 11
59.930847999999997
 21
59.289065000000001
 31
0.0
  0
LINE
  5
198
  8
DIM
 62
     0
 10
78.242847999999995
 20
57.957414
 30
0.0
 11
78.242847999999995
 21
59.289065000000001
 31
0.0
  0
LINE
  5
199
  8
DIM
 62
     0
 10
61.415847999999997
 20
58.521814999999997
 30
0.0
 11
66.668566749999997
 21
58.521814999999997
 31
0.0
  0
LINE
  5
19A
  8
DIM
 62
     0
 10
76.757847999999996
 20
58.521814999999997
 30
0.0
 11
71.50512925000001
 21
58.521814999999997
 31
0.0
  0
SOLID
  5
19B
  8
DIM
 62
     0
 10
61.415847999999997
 20
58.769315000000013
 30
0.0
 11
61.415847999999997
 21
58.274315000000001
 31
0.0
 12
59.930847999999997
 22
58.521814999999997
 32
0.0
 13
59.930847999999997
 23
58.521814999999997
 33
0.0
  0
SOLID
  5
19C
  8
DIM
 62
     0
 10
76.757847999999996
 20
58.769315000000013
 30
0.0
 11
76.757847999999996
 21
58.274315000000001
 31
0.0
 12
78.242847999999995
 22
58.521814999999997
 32
0.0
 13
78.242847999999995
 23
58.521814999999997
 33
0.0
  0
TEXT
  5
19D
  8
OBJECT
 62
     0
 10
67.411066750000003
 20
58.006190000000011
 30
0.0
 40
1.03125
  1
18.312
 41
0.75
  7
TXT
  0
POINT
  5
19E
  8
DEFPOINTS
 62
     0
 10
59.930847999999997
 20
57.437663999999998
 30
0.0
  0
POINT
  5
19F
  8
DEFPOINTS
 62
     0
 10
78.242847999999995
 20
57.437663999999998
 30
0.0
  0
POINT
  5
1A0
  8
DEFPOINTS
 62
     0
 10
78.242847999999995
 20
58.521814999999997
 30
0.0
  0
ENDBLK
  5
1A2
  8
0
  0
BLOCK
  8
0
  2
*D23
 70
     1
 10
0.0
 20
0.0
 30
0.0
  3
*D23
  1

  0
LINE
  5
1A5
  8
DIM
 62
     0
 10
60.211061000000001
 20
62.142386000000002
 30
0.0
 11
60.211061000000001
 21
62.645597999999993
 31
0.0
  0
LINE
  5
1A6
  8
DIM
 62
     0
 10
77.963060999999996
 20
62.142386000000002
 30
0.0
 11
77.963060999999996
 21
62.645597999999993
 31
0.0
  0
LINE
  5
1A7
  8
DIM
 62
     0
 10
61.696061
 20
61.878348000000003
 30
0.0
 11
66.539873499999999
 21
61.878348000000003
 31
0.0
  0
LINE
  5
1A8
  8
DIM
 62
     0
 10
76.478060999999997
 20
61.878348000000003
 30
0.0
 11
71.634248500000012
 21
61.878348000000003
 31
0.0
  0
SOLID
  5
1A9
  8
DIM
 62
     0
 10
61.696061
 20
62.125847999999998
 30
0.0
 11
61.696061
 21
61.630848
 31
0.0
 12
60.211061000000001
 22
61.878348000000003
 32
0.0
 13
60.211061000000001
 23
61.878348000000003
 33
0.0
  0
SOLID
  5
1AA
  8
DIM
 62
     0
 10
76.478060999999997
 20
62.125847999999998
 30
0.0
 11
76.478060999999997
 21
61.630848
 31
0.0
 12
77.963060999999996
 22
61.878348000000003
 32
0.0
 13
77.963060999999996
 23
61.878348000000003
 33
0.0
  0
TEXT
  5
1AB
  8
OBJECT
 62
     0
 10
67.282373500000006
 20
61.362722999999988
 30
0.0
 40
1.03125
  1
17.752
 41
0.75
  7
TXT
  0
POINT
  5
1AC
  8
DEFPOINTS
 62
     0
 10
60.211061000000001
 20
61.622636
 30
0.0
  0
POINT
  5
1AD
  8
DEFPOINTS
 62
     0
 10
77.963060999999996
 20
61.622636
 30
0.0
  0
POINT
  5
1AE
  8
DEFPOINTS
 62
     0
 10
77.963060999999996
 20
61.878348000000003
 30
0.0
  0
ENDBLK
  5
1B0
  8
0
  0
BLOCK
  8
0
  2
*D24
 70
     1
 10
0.0
 20
0.0
 30
0.0
  3
*D24
  1

  0
LINE
  5
1B3
  8
DIM
 62
     0
 10
59.411097999999988
 20
37.937663999999991
 30
0.0
 11
53.998336999999978
 21
37.937663999999991
 31
0.0
  0
LINE
  5
1B4
  8
DIM
 62
     0
 10
59.411097999999988
 20
113.1876639999999
 30
0.0
 11
53.998336999999999
 21
113.1876639999999
 31
0.0
  0
LINE
  5
1B5
  8
DIM
 62
     0
 10
54.765586999999982
 20
39.42266399999999
 30
0.0
 11
54.765586999999982
 21
74.304538999999991
 31
0.0
  0
LINE
  5
1B6
  8
DIM
 62
     0
 10
54.765586999999989
 20
111.7026639999999
 30
0.0
 11
54.765586999999982
 21
76.820789000000005
 31
0.0
  0
SOLID
  5
1B7
  8
DIM
 62
     0
 10
54.518086999999973
 20
39.42266399999999
 30
0.0
 11
55.013086999999977
 21
39.42266399999999
 31
0.0
 12
54.765586999999982
 22
37.937663999999991
 32
0.0
 13
54.765586999999982
 23
37.937663999999991
 33
0.0
  0
SOLID
  5
1B8
  8
DIM
 62
     0
 10
54.518086999999987
 20
111.7026639999999
 30
0.0
 11
55.013086999999992
 21
111.7026639999999
 31
0.0
 12
54.765586999999996
 22
113.1876639999999
 32
0.0
 13
54.765586999999996
 23
113.1876639999999
 33
0.0
  0
TEXT
  5
1B9
  8
OBJECT
 62
     0
 10
54.507774499999968
 20
75.047039000000012
 30
0.0
 40
1.03125
  1
A
 41
0.75
  7
TXT
  0
POINT
  5
1BA
  8
DEFPOINTS
 62
     0
 10
59.930847999999997
 20
37.937663999999991
 30
0.0
  0
POINT
  5
1BB
  8
DEFPOINTS
 62
     0
 10
59.930847999999997
 20
113.1876639999999
 30
0.0
  0
POINT
  5
1BC
  8
DEFPOINTS
 62
     0
 10
54.765586999999996
 20
113.1876639999999
 30
0.0
  0
ENDBLK
  5
1BE
  8
0
  0
BLOCK
  8
0
  2
*D25
 70
     1
 10
0.0
 20
0.0
 30
0.0
  3
*D25
  1

  0
LINE
  5
1C4
  8
DIM
 62
     0
 10
64.917923000000002
 20
113.6876639999999
 30
0.0
 11
67.014168000000012
 21
113.6876639999999
 31
0.0
  0
LINE
  5
1C5
  8
DIM
 62
     0
 10
60.450597999999999
 20
112.9376639999999
 30
0.0
 11
67.014168000000012
 21
112.9376639999999
 31
0.0
  0
LINE
  5
1C6
  8
DIM
 62
     0
 10
66.246917999999994
 20
115.1726639999999
 30
0.0
 11
66.246917999999994
 21
116.6576639999999
 31
0.0
  0
LINE
  5
1C7
  8
DIM
 62
     0
 10
66.246917999999994
 20
111.4526639999999
 30
0.0
 11
66.246917999999994
 21
109.9676639999999
 31
0.0
  0
TEXT
  5
1C8
  8
OBJECT
 62
     0
 10
68.029949249999973
 20
112.7970389999999
 30
0.0
 40
1.03125
  1
0.750
 41
0.75
  7
TXT
  0
SOLID
  5
1C9
  8
DIM
 62
     0
 10
65.999418000000006
 20
115.1726639999999
 30
0.0
 11
66.49441800000001
 21
115.1726639999999
 31
0.0
 12
66.246917999999994
 22
113.6876639999999
 32
0.0
 13
66.246917999999994
 23
113.6876639999999
 33
0.0
  0
SOLID
  5
1CA
  8
DIM
 62
     0
 10
65.999418000000006
 20
111.4526639999999
 30
0.0
 11
66.49441800000001
 21
111.4526639999999
 31
0.0
 12
66.246917999999994
 22
112.9376639999999
 32
0.0
 13
66.246917999999994
 23
112.9376639999999
 33
0.0
  0
POINT
  5
1CB
  8
DEFPOINTS
 62
     0
 10
64.398173
 20
113.6876639999999
 30
0.0
  0
POINT
  5
1CC
  8
DEFPOINTS
 62
     0
 10
59.930847999999997
 20
112.9376639999999
 30
0.0
  0
POINT
  5
1CD
  8
DEFPOINTS
 62
     0
 10
66.246917999999994
 20
112.9376639999999
 30
0.0
  0
ENDBLK
  5
1CF
  8
0
  0
BLOCK
  8
0
  2
*D26
 70
     1
 10
0.0
 20
0.0
 30
0.0
  3
*D26
  1

  0
LINE
  5
405
  8
DIM
 62
     0
 10
11.526944
 20
116.9209139999999
 30
0.0
 11
11.526944
 21
120.731351
 31
0.0
  0
LINE
  5
406
  8
DIM
 62
     0
 10
27.527370999999999
 20
116.9209139999999
 30
0.0
 11
27.527370999999999
 21
120.731351
 31
0.0
  0
LINE
  5
407
  8
DIM
 62
     0
 10
13.011943999999991
 20
119.964101
 30
0.0
 11
17.173329375000002
 21
119.964101
 31
0.0
  0
LINE
  5
408
  8
DIM
 62
     0
 10
26.042370999999999
 20
119.964101
 30
0.0
 11
21.880985625000001
 21
119.964101
 31
0.0
  0
SOLID
  5
409
  8
DIM
 62
     0
 10
13.011943999999991
 20
120.211601
 30
0.0
 11
13.011943999999991
 21
119.7166009999999
 31
0.0
 12
11.526944
 22
119.964101
 32
0.0
 13
11.526944
 23
119.964101
 33
0.0
  0
SOLID
  5
40A
  8
DIM
 62
     0
 10
26.042370999999999
 20
120.211601
 30
0.0
 11
26.042370999999999
 21
119.7166009999999
 31
0.0
 12
27.527370999999999
 22
119.964101
 32
0.0
 13
27.527370999999999
 23
119.964101
 33
0.0
  0
TEXT
  5
40B
  8
OBJECT
 62
     0
 10
17.915829375000001
 20
119.4484759999999
 30
0.0
 40
1.03125
  1
16.000
 41
0.75
  7
TXT
  0
POINT
  5
40C
  8
DEFPOINTS
 62
     0
 10
11.526944
 20
116.40116399999999
 30
0.0
  0
POINT
  5
40D
  8
DEFPOINTS
 62
     0
 10
27.527370999999999
 20
116.40116399999999
 30
0.0
  0
POINT
  5
40E
  8
DEFPOINTS
 62
     0
 10
27.527370999999999
 20
119.964101
 30
0.0
  0
ENDBLK
  5
410
  8
0
  0
BLOCK
  8
0
  2
*D27
 70
     1
 10
0.0
 20
0.0
 30
0.0
  3
*D27
  1

  0
LINE
  5
413
  8
DIM
 62
     0
 10
27.527370999999999
 20
116.9209139999999
 30
0.0
 11
27.527370999999999
 21
120.731351
 31
0.0
  0
LINE
  5
414
  8
DIM
 62
     0
 10
29.777370999999999
 20
117.9209139999999
 30
0.0
 11
29.777370999999999
 21
120.731351
 31
0.0
  0
LINE
  5
415
  8
DIM
 62
     0
 10
26.042370999999999
 20
119.964101
 30
0.0
 11
24.557371
 21
119.964101
 31
0.0
  0
LINE
  5
416
  8
DIM
 62
     0
 10
31.262371000000002
 20
119.964101
 30
0.0
 11
32.747371000000001
 21
119.964101
 31
0.0
  0
TEXT
  5
417
  8
OBJECT
 62
     0
 10
27.169949124999999
 20
121.61822599999989
 30
0.0
 40
1.03125
  1
2.250
 41
0.75
  7
TXT
  0
SOLID
  5
418
  8
DIM
 62
     0
 10
26.042370999999999
 20
120.211601
 30
0.0
 11
26.042370999999999
 21
119.7166009999999
 31
0.0
 12
27.527370999999999
 22
119.964101
 32
0.0
 13
27.527370999999999
 23
119.964101
 33
0.0
  0
SOLID
  5
419
  8
DIM
 62
     0
 10
31.262371000000002
 20
120.211601
 30
0.0
 11
31.262371000000002
 21
119.7166009999999
 31
0.0
 12
29.777370999999999
 22
119.964101
 32
0.0
 13
29.777370999999999
 23
119.964101
 33
0.0
  0
POINT
  5
41A
  8
DEFPOINTS
 62
     0
 10
27.527370999999999
 20
116.40116399999999
 30
0.0
  0
POINT
  5
41B
  8
DEFPOINTS
 62
     0
 10
29.777370999999999
 20
117.40116399999999
 30
0.0
  0
POINT
  5
41C
  8
DEFPOINTS
 62
     0
 10
29.777370999999999
 20
119.964101
 30
0.0
  0
ENDBLK
  5
41E
  8
0
  0
BLOCK
  8
0
  2
*D28
 70
     1
 10
0.0
 20
0.0
 30
0.0
  3
*D28
  1

  0
LINE
  5
421
  8
DIM
 62
     0
 10
11.007194
 20
36.725163999999999
 30
0.0
 11
4.0480309999999822
 21
36.725163999999999
 31
0.0
  0
LINE
  5
422
  8
DIM
 62
     0
 10
11.007194
 20
114.40116399999989
 30
0.0
 11
4.048030999999999
 21
114.40116399999989
 31
0.0
  0
LINE
  5
423
  8
DIM
 62
     0
 10
4.8152809999999819
 20
38.210163999999992
 30
0.0
 11
4.8152809999999899
 21
74.305038999999994
 31
0.0
  0
LINE
  5
424
  8
DIM
 62
     0
 10
4.8152809999999979
 20
112.9161639999999
 30
0.0
 11
4.8152809999999899
 21
76.821289000000007
 31
0.0
  0
SOLID
  5
425
  8
DIM
 62
     0
 10
4.5677809999999832
 20
38.210163999999992
 30
0.0
 11
5.0627809999999824
 21
38.210163999999992
 31
0.0
 12
4.815280999999981
 22
36.725163999999999
 32
0.0
 13
4.815280999999981
 23
36.725163999999999
 33
0.0
  0
SOLID
  5
426
  8
DIM
 62
     0
 10
4.5677809999999992
 20
112.9161639999999
 30
0.0
 11
5.0627809999999984
 21
112.9161639999999
 31
0.0
 12
4.8152809999999988
 22
114.40116399999989
 32
0.0
 13
4.8152809999999988
 23
114.40116399999989
 33
0.0
  0
TEXT
  5
427
  8
OBJECT
 62
     0
 10
4.5574684999999784
 20
75.047539
 30
0.0
 40
1.03125
  1
C
 41
0.75
  7
TXT
  0
POINT
  5
428
  8
DEFPOINTS
 62
     0
 10
11.526944
 20
36.725163999999999
 30
0.0
  0
POINT
  5
429
  8
DEFPOINTS
 62
     0
 10
11.526944
 20
114.40116399999989
 30
0.0
  0
POINT
  5
42A
  8
DEFPOINTS
 62
     0
 10
4.8152809999999988
 20
114.40116399999989
 30
0.0
  0
ENDBLK
  5
42C
  8
0
  0
BLOCK
  8
0
  2
*D29
 70
     1
 10
0.0
 20
0.0
 30
0.0
  3
*D29
  1

  0
LINE
  5
42F
  8
DIM
 62
     0
 10
11.007194
 20
114.40116399999989
 30
0.0
 11
4.048030999999999
 21
114.40116399999989
 31
0.0
  0
LINE
  5
430
  8
DIM
 62
     0
 10
11.007194
 20
116.40116399999999
 30
0.0
 11
4.048030999999999
 21
116.40116399999999
 31
0.0
  0
LINE
  5
431
  8
DIM
 62
     0
 10
4.8152809999999979
 20
112.9161639999999
 30
0.0
 11
4.8152809999999979
 21
111.4311639999999
 31
0.0
  0
LINE
  5
432
  8
DIM
 62
     0
 10
4.8152809999999988
 20
117.88616399999999
 30
0.0
 11
4.8152809999999997
 21
119.37116399999989
 31
0.0
  0
SOLID
  5
433
  8
DIM
 62
     0
 10
4.5677809999999992
 20
112.9161639999999
 30
0.0
 11
5.0627809999999984
 21
112.9161639999999
 31
0.0
 12
4.8152809999999988
 22
114.40116399999989
 32
0.0
 13
4.8152809999999988
 23
114.40116399999989
 33
0.0
  0
SOLID
  5
434
  8
DIM
 62
     0
 10
4.5677810000000001
 20
117.88616399999999
 30
0.0
 11
5.0627809999999993
 21
117.88616399999999
 31
0.0
 12
4.8152809999999988
 22
116.40116399999999
 32
0.0
 13
4.8152809999999988
 23
116.40116399999999
 33
0.0
  0
TEXT
  5
435
  8
OBJECT
 62
     0
 10
3.461765374999981
 20
114.88553899999999
 30
0.0
 40
1.03125
  1
2.000
 41
0.75
  7
TXT
  0
POINT
  5
436
  8
DEFPOINTS
 62
     0
 10
11.526944
 20
114.40116399999989
 30
0.0
  0
POINT
  5
437
  8
DEFPOINTS
 62
     0
 10
11.526944
 20
116.40116399999999
 30
0.0
  0
POINT
  5
438
  8
DEFPOINTS
 62
     0
 10
4.8152809999999988
 20
116.40116399999999
 30
0.0
  0
ENDBLK
  5
43A
  8
0
  0
BLOCK
  8
0
  2
*D30
 70
     1
 10
0.0
 20
0.0
 30
0.0
  3
*D30
  1

  0
LINE
  5
43D
  8
DIM
 62
     0
 10
30.172121000000001
 20
33.538164000000002
 30
0.0
 11
34.312217999999973
 21
33.538164000000002
 31
0.0
  0
LINE
  5
43E
  8
DIM
 62
     0
 10
30.297121000000001
 20
117.58816399999991
 30
0.0
 11
34.312217999999987
 21
117.58816399999991
 31
0.0
  0
LINE
  5
43F
  8
DIM
 62
     0
 10
33.544967999999969
 20
35.023164000000001
 30
0.0
 11
33.544967999999983
 21
74.305038999999965
 31
0.0
  0
LINE
  5
440
  8
DIM
 62
     0
 10
33.54496799999999
 20
116.10316399999989
 30
0.0
 11
33.544967999999983
 21
76.821288999999993
 31
0.0
  0
SOLID
  5
441
  8
DIM
 62
     0
 10
33.297467999999967
 20
35.023164000000001
 30
0.0
 11
33.792467999999971
 21
35.023164000000001
 31
0.0
 12
33.544967999999969
 22
33.538164000000002
 32
0.0
 13
33.544967999999969
 23
33.538164000000002
 33
0.0
  0
SOLID
  5
442
  8
DIM
 62
     0
 10
33.297467999999988
 20
116.10316399999989
 30
0.0
 11
33.792468
 21
116.10316399999989
 31
0.0
 12
33.54496799999999
 22
117.58816399999991
 32
0.0
 13
33.54496799999999
 23
117.58816399999991
 33
0.0
  0
TEXT
  5
443
  8
OBJECT
 62
     0
 10
33.287155499999969
 20
75.047539
 30
0.0
 40
1.03125
  1
B
 41
0.75
  7
TXT
  0
POINT
  5
444
  8
DEFPOINTS
 62
     0
 10
29.652370999999999
 20
33.538164000000002
 30
0.0
  0
POINT
  5
445
  8
DEFPOINTS
 62
     0
 10
29.777370999999999
 20
117.58816399999991
 30
0.0
  0
POINT
  5
446
  8
DEFPOINTS
 62
     0
 10
33.54496799999999
 20
117.58816399999991
 30
0.0
  0
ENDBLK
  5
448
  8
0
  0
BLOCK
  8
0
  2
*D31
 70
     1
 10
0.0
 20
0.0
 30
0.0
  3
*D31
  1

  0
LINE
  5
4AC
  8
DIM
 62
     0
 10
11.007194
 20
116.40116399999999
 30
0.0
 11
1.6072199999999981
 21
116.40116399999999
 31
0.0
  0
LINE
  5
4AD
  8
DIM
 62
     0
 10
8.7574070000000006
 20
117.58816399999991
 30
0.0
 11
1.6072200000000001
 21
117.58816399999991
 31
0.0
  0
LINE
  5
4AE
  8
DIM
 62
     0
 10
2.3744699999999992
 20
114.9161639999999
 30
0.0
 11
2.3744699999999992
 21
113.4311639999999
 31
0.0
  0
LINE
  5
4AF
  8
DIM
 62
     0
 10
2.3744700000000001
 20
119.07316399999991
 30
0.0
 11
2.3744700000000001
 21
120.55816399999991
 31
0.0
  0
TEXT
  5
4B0
  8
OBJECT
 62
     0
 10
-1.0843425000000191
 20
116.479039
 30
0.0
 40
1.03125
  1
1.187
 41
0.75
  7
TXT
  0
SOLID
  5
4B1
  8
DIM
 62
     0
 10
2.1269699999999991
 20
114.9161639999999
 30
0.0
 11
2.6219699999999988
 21
114.9161639999999
 31
0.0
 12
2.3744699999999992
 22
116.40116399999999
 32
0.0
 13
2.3744699999999992
 23
116.40116399999999
 33
0.0
  0
SOLID
  5
4B2
  8
DIM
 62
     0
 10
2.12697
 20
119.07316399999991
 30
0.0
 11
2.6219700000000001
 21
119.07316399999991
 31
0.0
 12
2.3744700000000001
 22
117.58816399999991
 32
0.0
 13
2.3744700000000001
 23
117.58816399999991
 33
0.0
  0
POINT
  5
4B3
  8
DEFPOINTS
 62
     0
 10
11.526944
 20
116.40116399999999
 30
0.0
  0
POINT
  5
4B4
  8
DEFPOINTS
 62
     0
 10
9.2771570000000008
 20
117.58816399999991
 30
0.0
  0
POINT
  5
4B5
  8
DEFPOINTS
 62
     0
 10
2.3744700000000001
 20
117.58816399999991
 30
0.0
  0
ENDBLK
  5
4B7
  8
0
  0
BLOCK
  8
0
  2
*D32
 70
     1
 10
0.0
 20
0.0
 30
0.0
  3
*D32
  1

  0
LINE
  5
4BA
  8
DIM
 62
     0
 10
9.2771570000000008
 20
118.10791399999999
 30
0.0
 11
9.2771570000000008
 21
122.97935099999999
 31
0.0
  0
LINE
  5
4BB
  8
DIM
 62
     0
 10
29.777156999999999
 20
118.10791399999999
 30
0.0
 11
29.777156999999999
 21
122.97935099999999
 31
0.0
  0
LINE
  5
4BC
  8
DIM
 62
     0
 10
10.762157
 20
122.212101
 30
0.0
 11
17.044422624999989
 21
122.212101
 31
0.0
  0
LINE
  5
4BD
  8
DIM
 62
     0
 10
28.292157
 20
122.212101
 30
0.0
 11
22.009891374999999
 21
122.212101
 31
0.0
  0
SOLID
  5
4BE
  8
DIM
 62
     0
 10
10.762157
 20
122.45960100000001
 30
0.0
 11
10.762157
 21
121.9646009999999
 31
0.0
 12
9.2771570000000008
 22
122.212101
 32
0.0
 13
9.2771570000000008
 23
122.212101
 33
0.0
  0
SOLID
  5
4BF
  8
DIM
 62
     0
 10
28.292157
 20
122.45960100000001
 30
0.0
 11
28.292157
 21
121.9646009999999
 31
0.0
 12
29.777156999999999
 22
122.212101
 32
0.0
 13
29.777156999999999
 23
122.212101
 33
0.0
  0
TEXT
  5
4C0
  8
OBJECT
 62
     0
 10
17.786922624999988
 20
121.6964759999999
 30
0.0
 40
1.03125
  1
20.500
 41
0.75
  7
TXT
  0
POINT
  5
4C1
  8
DEFPOINTS
 62
     0
 10
9.2771570000000008
 20
117.58816399999991
 30
0.0
  0
POINT
  5
4C2
  8
DEFPOINTS
 62
     0
 10
29.777156999999999
 20
117.58816399999991
 30
0.0
  0
POINT
  5
4C3
  8
DEFPOINTS
 62
     0
 10
29.777156999999999
 20
122.212101
 30
0.0
  0
ENDBLK
  5
4C5
  8
0
  0
BLOCK
  8
0
  2
*D33
 70
     1
 10
0.0
 20
0.0
 30
0.0
  3
*D33
  1

  0
LINE
  5
4C8
  8
DIM
 62
     0
 10
42.320296999999997
 20
117.983414
 30
0.0
 11
42.320296999999997
 21
120.731351
 31
0.0
  0
LINE
  5
4C9
  8
DIM
 62
     0
 10
50.320296999999989
 20
118.0459139999999
 30
0.0
 11
50.320296999999989
 21
120.731351
 31
0.0
  0
LINE
  5
4CA
  8
DIM
 62
     0
 10
43.805296999999989
 20
119.964101
 30
0.0
 11
45.31998449999999
 21
119.964101
 31
0.0
  0
LINE
  5
4CB
  8
DIM
 62
     0
 10
48.835296999999997
 20
119.964101
 30
0.0
 11
47.320609500000003
 21
119.964101
 31
0.0
  0
SOLID
  5
4CC
  8
DIM
 62
     0
 10
43.805296999999989
 20
120.211601
 30
0.0
 11
43.805296999999989
 21
119.7166009999999
 31
0.0
 12
42.320296999999997
 22
119.964101
 32
0.0
 13
42.320296999999997
 23
119.964101
 33
0.0
  0
SOLID
  5
4CD
  8
DIM
 62
     0
 10
48.835296999999997
 20
120.211601
 30
0.0
 11
48.835296999999997
 21
119.7166009999999
 31
0.0
 12
50.320296999999989
 22
119.964101
 32
0.0
 13
50.320296999999989
 23
119.964101
 33
0.0
  0
TEXT
  5
4CE
  8
OBJECT
 62
     0
 10
46.062484499999989
 20
119.4484759999999
 30
0.0
 40
1.03125
  1
D
 41
0.75
  7
TXT
  0
POINT
  5
4CF
  8
DEFPOINTS
 62
     0
 10
42.320296999999997
 20
117.46366399999989
 30
0.0
  0
POINT
  5
4D0
  8
DEFPOINTS
 62
     0
 10
50.320296999999989
 20
117.52616399999989
 30
0.0
  0
POINT
  5
4D1
  8
DEFPOINTS
 62
     0
 10
50.320296999999989
 20
119.964101
 30
0.0
  0
ENDBLK
  5
4D3
  8
0
  0
BLOCK
  8
0
  2
*D34
 70
     1
 10
0.0
 20
0.0
 30
0.0
  3
*D34
  1

  0
LINE
  5
4D6
  8
DIM
 62
     0
 10
42.320296999999997
 20
117.983414
 30
0.0
 11
42.320296999999997
 21
122.97935099999999
 31
0.0
  0
LINE
  5
4D7
  8
DIM
 62
     0
 10
50.414296999999998
 20
118.10791399999999
 30
0.0
 11
50.414296999999998
 21
122.97935099999999
 31
0.0
  0
LINE
  5
4D8
  8
DIM
 62
     0
 10
43.805296999999989
 20
122.212101
 30
0.0
 11
45.366984499999987
 21
122.212101
 31
0.0
  0
LINE
  5
4D9
  8
DIM
 62
     0
 10
48.929296999999991
 20
122.212101
 30
0.0
 11
47.367609499999993
 21
122.212101
 31
0.0
  0
SOLID
  5
4DA
  8
DIM
 62
     0
 10
43.805296999999989
 20
122.45960100000001
 30
0.0
 11
43.805296999999989
 21
121.9646009999999
 31
0.0
 12
42.320296999999997
 22
122.212101
 32
0.0
 13
42.320296999999997
 23
122.212101
 33
0.0
  0
SOLID
  5
4DB
  8
DIM
 62
     0
 10
48.929296999999991
 20
122.45960100000001
 30
0.0
 11
48.929296999999991
 21
121.9646009999999
 31
0.0
 12
50.414296999999998
 22
122.212101
 32
0.0
 13
50.414296999999998
 23
122.212101
 33
0.0
  0
TEXT
  5
4DC
  8
OBJECT
 62
     0
 10
46.109484499999994
 20
121.6964759999999
 30
0.0
 40
1.03125
  1
E
 41
0.75
  7
TXT
  0
POINT
  5
4DD
  8
DEFPOINTS
 62
     0
 10
42.320296999999997
 20
117.46366399999989
 30
0.0
  0
POINT
  5
4DE
  8
DEFPOINTS
 62
     0
 10
50.414296999999998
 20
117.58816399999991
 30
0.0
  0
POINT
  5
4DF
  8
DEFPOINTS
 62
     0
 10
50.414296999999998
 20
122.212101
 30
0.0
  0
ENDBLK
  5
4E1
  8
0
  0
BLOCK
  8
0
  2
*D35
 70
     1
 10
0.0
 20
0.0
 30
0.0
  3
*D35
  1

  0
LINE
  5
4E4
  8
DIM
 62
     0
 10
41.909546999999989
 20
117.52616399999989
 30
0.0
 11
38.093254999999992
 21
117.52616399999989
 31
0.0
  0
LINE
  5
4E5
  8
DIM
 62
     0
 10
41.800546999999987
 20
113.58816400000001
 30
0.0
 11
38.093254999999992
 21
113.58816400000001
 31
0.0
  0
LINE
  5
4E6
  8
DIM
 62
     0
 10
38.860504999999989
 20
119.01116399999999
 30
0.0
 11
38.860504999999989
 21
120.49616399999999
 31
0.0
  0
LINE
  5
4E7
  8
DIM
 62
     0
 10
38.860504999999989
 20
112.10316399999989
 30
0.0
 11
38.860504999999989
 21
110.61816399999989
 31
0.0
  0
SOLID
  5
4E8
  8
DIM
 62
     0
 10
38.613004999999987
 20
119.01116399999999
 30
0.0
 11
39.108004999999999
 21
119.01116399999999
 31
0.0
 12
38.860504999999989
 22
117.52616399999989
 32
0.0
 13
38.860504999999989
 23
117.52616399999989
 33
0.0
  0
SOLID
  5
4E9
  8
DIM
 62
     0
 10
38.613004999999987
 20
112.10316399999989
 30
0.0
 11
39.108004999999999
 21
112.10316399999989
 31
0.0
 12
38.860504999999989
 22
113.58816400000001
 32
0.0
 13
38.860504999999989
 23
113.58816400000001
 33
0.0
  0
TEXT
  5
4EA
  8
OBJECT
 62
     0
 10
37.313629999999968
 20
115.041539
 30
0.0
 40
1.03125
  1
3.938
 41
0.75
  7
TXT
  0
POINT
  5
4EB
  8
DEFPOINTS
 62
     0
 10
42.429296999999998
 20
117.52616399999989
 30
0.0
  0
POINT
  5
4EC
  8
DEFPOINTS
 62
     0
 10
42.320296999999997
 20
113.58816400000001
 30
0.0
  0
POINT
  5
4ED
  8
DEFPOINTS
 62
     0
 10
38.860504999999989
 20
113.58816400000001
 30
0.0
  0
ENDBLK
  5
4EF
  8
0
  0
BLOCK
  8
0
  2
*D36
 70
     1
 10
0.0
 20
0.0
 30
0.0
  3
*D36
  1

  0
LINE
  5
4F2
  8
DIM
 62
     0
 10
41.909546999999989
 20
33.600163999999999
 30
0.0
 11
38.093254999999992
 21
33.600163999999999
 31
0.0
  0
LINE
  5
4F3
  8
DIM
 62
     0
 10
41.800546999999987
 20
37.538164000000002
 30
0.0
 11
38.093254999999992
 21
37.538164000000002
 31
0.0
  0
LINE
  5
4F4
  8
DIM
 62
     0
 10
38.860504999999989
 20
32.115164
 30
0.0
 11
38.860504999999989
 21
30.630164000000001
 31
0.0
  0
LINE
  5
4F5
  8
DIM
 62
     0
 10
38.860504999999989
 20
39.023164000000001
 30
0.0
 11
38.860504999999989
 21
40.508164000000001
 31
0.0
  0
SOLID
  5
4F6
  8
DIM
 62
     0
 10
38.613004999999987
 20
32.115164
 30
0.0
 11
39.108004999999999
 21
32.115164
 31
0.0
 12
38.860504999999989
 22
33.600163999999999
 32
0.0
 13
38.860504999999989
 23
33.600163999999999
 33
0.0
  0
SOLID
  5
4F7
  8
DIM
 62
     0
 10
38.613004999999987
 20
39.023164000000001
 30
0.0
 11
39.108004999999999
 21
39.023164000000001
 31
0.0
 12
38.860504999999989
 22
37.538164000000002
 32
0.0
 13
38.860504999999989
 23
37.538164000000002
 33
0.0
  0
TEXT
  5
4F8
  8
OBJECT
 62
     0
 10
37.313629999999989
 20
35.053539000000008
 30
0.0
 40
1.03125
  1
3.938
 41
0.75
  7
TXT
  0
POINT
  5
4F9
  8
DEFPOINTS
 62
     0
 10
42.429296999999998
 20
33.600163999999999
 30
0.0
  0
POINT
  5
4FA
  8
DEFPOINTS
 62
     0
 10
42.320296999999997
 20
37.538164000000002
 30
0.0
  0
POINT
  5
4FB
  8
DEFPOINTS
 62
     0
 10
38.860504999999989
 20
37.538164000000002
 30
0.0
  0
ENDBLK
  5
4FD
  8
0
  0
BLOCK
  8
0
  2
*D37
 70
     1
 10
0.0
 20
0.0
 30
0.0
  3
*D37
  1

  0
LINE
  5
500
  8
DIM
 62
     0
 10
11.007194
 20
36.725163999999999
 30
0.0
 11
4.048030999999999
 21
36.725163999999999
 31
0.0
  0
LINE
  5
501
  8
DIM
 62
     0
 10
11.007194
 20
34.725163999999992
 30
0.0
 11
4.048030999999999
 21
34.725163999999992
 31
0.0
  0
LINE
  5
502
  8
DIM
 62
     0
 10
4.8152809999999997
 20
38.210163999999992
 30
0.0
 11
4.8152809999999997
 21
39.695163999999991
 31
0.0
  0
LINE
  5
503
  8
DIM
 62
     0
 10
4.8152809999999979
 20
33.240164
 30
0.0
 11
4.8152809999999979
 21
31.755164000000001
 31
0.0
  0
SOLID
  5
504
  8
DIM
 62
     0
 10
4.5677810000000001
 20
38.210163999999992
 30
0.0
 11
5.0627810000000002
 21
38.210163999999992
 31
0.0
 12
4.8152809999999988
 22
36.725163999999999
 32
0.0
 13
4.8152809999999988
 23
36.725163999999999
 33
0.0
  0
SOLID
  5
505
  8
DIM
 62
     0
 10
4.5677809999999992
 20
33.240164
 30
0.0
 11
5.0627809999999984
 21
33.240164
 31
0.0
 12
4.8152809999999988
 22
34.725163999999992
 32
0.0
 13
4.8152809999999988
 23
34.725163999999992
 33
0.0
  0
TEXT
  5
506
  8
OBJECT
 62
     0
 10
3.461765374999993
 20
35.209538999999999
 30
0.0
 40
1.03125
  1
2.000
 41
0.75
  7
TXT
  0
POINT
  5
507
  8
DEFPOINTS
 62
     0
 10
11.526944
 20
36.725163999999999
 30
0.0
  0
POINT
  5
508
  8
DEFPOINTS
 62
     0
 10
11.526944
 20
34.725163999999992
 30
0.0
  0
POINT
  5
509
  8
DEFPOINTS
 62
     0
 10
4.8152809999999988
 20
34.725163999999992
 30
0.0
  0
ENDBLK
  5
50B
  8
0
  0
BLOCK
  8
0
  2
*D38
 70
     1
 10
0.0
 20
0.0
 30
0.0
  3
*D38
  1

  0
LINE
  5
50E
  8
DIM
 62
     0
 10
73.884360999999984
 20
113.6881639999999
 30
0.0
 11
73.032360999999995
 21
113.6881639999999
 31
0.0
  0
LINE
  5
50F
  8
DIM
 62
     0
 10
73.884360999999984
 20
117.58816399999991
 30
0.0
 11
73.032360999999995
 21
117.58816399999991
 31
0.0
  0
LINE
  5
510
  8
DIM
 62
     0
 10
73.799610999999999
 20
112.2031639999999
 30
0.0
 11
73.799610999999999
 21
110.7181639999999
 31
0.0
  0
LINE
  5
511
  8
DIM
 62
     0
 10
73.799610999999999
 20
119.07316399999991
 30
0.0
 11
73.799610999999999
 21
120.55816399999991
 31
0.0
  0
SOLID
  5
512
  8
DIM
 62
     0
 10
73.552110999999996
 20
112.2031639999999
 30
0.0
 11
74.047111000000001
 21
112.2031639999999
 31
0.0
 12
73.799610999999999
 22
113.6881639999999
 32
0.0
 13
73.799610999999999
 23
113.6881639999999
 33
0.0
  0
SOLID
  5
513
  8
DIM
 62
     0
 10
73.552110999999996
 20
119.07316399999991
 30
0.0
 11
74.047111000000001
 21
119.07316399999991
 31
0.0
 12
73.799610999999999
 22
117.58816399999991
 32
0.0
 13
73.799610999999999
 23
117.58816399999991
 33
0.0
  0
TEXT
  5
514
  8
OBJECT
 62
     0
 10
72.38164224999997
 20
115.122539
 30
0.0
 40
1.03125
  1
3.900
 41
0.75
  7
TXT
  0
POINT
  5
515
  8
DEFPOINTS
 62
     0
 10
74.404111
 20
113.6881639999999
 30
0.0
  0
POINT
  5
516
  8
DEFPOINTS
 62
     0
 10
74.404111
 20
117.58816399999991
 30
0.0
  0
POINT
  5
517
  8
DEFPOINTS
 62
     0
 10
73.799610999999999
 20
117.58816399999991
 30
0.0
  0
ENDBLK
  5
519
  8
0
  0
BLOCK
  8
0
  2
*D39
 70
     1
 10
0.0
 20
0.0
 30
0.0
  3
*D39
  1

  0
LINE
  5
51C
  8
DIM
 62
     0
 10
73.884360999999984
 20
37.438164
 30
0.0
 11
73.032360999999995
 21
37.438164
 31
0.0
  0
LINE
  5
51D
  8
DIM
 62
     0
 10
73.884360999999984
 20
33.538164000000002
 30
0.0
 11
73.032360999999995
 21
33.538164000000002
 31
0.0
  0
LINE
  5
51E
  8
DIM
 62
     0
 10
73.799610999999999
 20
38.923164
 30
0.0
 11
73.799610999999999
 21
40.408163999999992
 31
0.0
  0
LINE
  5
51F
  8
DIM
 62
     0
 10
73.799610999999999
 20
32.053164000000002
 30
0.0
 11
73.799610999999985
 21
30.568163999999999
 31
0.0
  0
SOLID
  5
520
  8
DIM
 62
     0
 10
73.552110999999996
 20
38.923164
 30
0.0
 11
74.047111000000001
 21
38.923164
 31
0.0
 12
73.799610999999999
 22
37.438164
 32
0.0
 13
73.799610999999999
 23
37.438164
 33
0.0
  0
SOLID
  5
521
  8
DIM
 62
     0
 10
73.552110999999996
 20
32.053164000000002
 30
0.0
 11
74.047111000000001
 21
32.053164000000002
 31
0.0
 12
73.799610999999999
 22
33.538164000000002
 32
0.0
 13
73.799610999999999
 23
33.538164000000002
 33
0.0
  0
TEXT
  5
522
  8
OBJECT
 62
     0
 10
72.381642249999985
 20
34.972538999999998
 30
0.0
 40
1.03125
  1
3.900
 41
0.75
  7
TXT
  0
POINT
  5
523
  8
DEFPOINTS
 62
     0
 10
74.404111
 20
37.438164
 30
0.0
  0
POINT
  5
524
  8
DEFPOINTS
 62
     0
 10
74.404111
 20
33.538164000000002
 30
0.0
  0
POINT
  5
525
  8
DEFPOINTS
 62
     0
 10
73.799610999999999
 20
33.538164000000002
 30
0.0
  0
ENDBLK
  5
527
  8
0
  0
BLOCK
  8
0
  2
*D40
 70
     1
 10
0.0
 20
0.0
 30
0.0
  3
*D40
  1

  0
LINE
  5
75D
  8
DIM
 62
     0
 10
63.66992299999999
 20
37.438664000000003
 30
0.0
 11
65.526168000000013
 21
37.438664000000003
 31
0.0
  0
LINE
  5
75E
  8
DIM
 62
     0
 10
60.450597999999999
 20
38.188664000000003
 30
0.0
 11
65.526168000000013
 21
38.188664000000003
 31
0.0
  0
LINE
  5
75F
  8
DIM
 62
     0
 10
64.758918000000008
 20
35.953664000000003
 30
0.0
 11
64.758918000000008
 21
34.468663999999997
 31
0.0
  0
LINE
  5
760
  8
DIM
 62
     0
 10
64.758918000000008
 20
39.673664000000002
 30
0.0
 11
64.758918000000008
 21
41.158664000000002
 31
0.0
  0
TEXT
  5
761
  8
OBJECT
 62
     0
 10
66.541949249999973
 20
37.29803900000001
 30
0.0
 40
1.03125
  1
0.750
 41
0.75
  7
TXT
  0
SOLID
  5
762
  8
DIM
 62
     0
 10
64.511418000000006
 20
35.953664000000003
 30
0.0
 11
65.006418000000011
 21
35.953664000000003
 31
0.0
 12
64.758918000000008
 22
37.438664000000003
 32
0.0
 13
64.758918000000008
 23
37.438664000000003
 33
0.0
  0
SOLID
  5
763
  8
DIM
 62
     0
 10
64.511418000000006
 20
39.673664000000002
 30
0.0
 11
65.006418000000011
 21
39.673664000000002
 31
0.0
 12
64.758918000000008
 22
38.188664000000003
 32
0.0
 13
64.758918000000008
 23
38.188664000000003
 33
0.0
  0
POINT
  5
764
  8
DEFPOINTS
 62
     0
 10
63.150173000000002
 20
37.438664000000003
 30
0.0
  0
POINT
  5
765
  8
DEFPOINTS
 62
     0
 10
59.930847999999997
 20
38.188664000000003
 30
0.0
  0
POINT
  5
766
  8
DEFPOINTS
 62
     0
 10
64.758918000000008
 20
38.188664000000003
 30
0.0
  0
ENDBLK
  5
768
  8
0
  0
BLOCK
  8
0
  2
*D41
 70
     1
 10
0.0
 20
0.0
 30
0.0
  3
*D41
  1

  0
LINE
  5
76B
  8
DIM
 62
     0
 10
26.402370999999999
 20
27.932234999999991
 30
0.0
 11
26.402370999999999
 21
29.689765000000001
 31
0.0
  0
LINE
  5
76C
  8
DIM
 62
     0
 10
29.777370999999999
 20
27.807234999999991
 30
0.0
 11
29.777370999999999
 21
29.689765000000001
 31
0.0
  0
LINE
  5
76D
  8
DIM
 62
     0
 10
24.917370999999999
 20
28.922515000000001
 30
0.0
 11
23.432371
 21
28.922515000000001
 31
0.0
  0
LINE
  5
76E
  8
DIM
 62
     0
 10
31.262371000000002
 20
28.922515000000001
 30
0.0
 11
32.747371000000001
 21
28.922515000000001
 31
0.0
  0
TEXT
  5
76F
  8
OBJECT
 62
     0
 10
26.542995999999999
 20
30.576640000000001
 30
0.0
 40
1.03125
  1
3.375
 41
0.75
  7
TXT
  0
SOLID
  5
770
  8
DIM
 62
     0
 10
24.917370999999999
 20
29.170014999999989
 30
0.0
 11
24.917370999999999
 21
28.675014999999998
 31
0.0
 12
26.402370999999999
 22
28.922515000000001
 32
0.0
 13
26.402370999999999
 23
28.922515000000001
 33
0.0
  0
SOLID
  5
771
  8
DIM
 62
     0
 10
31.262371000000002
 20
29.170014999999989
 30
0.0
 11
31.262371000000002
 21
28.675014999999998
 31
0.0
 12
29.777370999999999
 22
28.922515000000001
 32
0.0
 13
29.777370999999999
 23
28.922515000000001
 33
0.0
  0
POINT
  5
772
  8
DEFPOINTS
 62
     0
 10
26.402370999999999
 20
27.41248499999999
 30
0.0
  0
POINT
  5
773
  8
DEFPOINTS
 62
     0
 10
29.777370999999999
 20
27.287485
 30
0.0
  0
POINT
  5
774
  8
DEFPOINTS
 62
     0
 10
29.777370999999999
 20
28.922515000000001
 30
0.0
  0
ENDBLK
  5
776
  8
0
  0
BLOCK
  8
0
  2
*D42
 70
     1
 10
0.0
 20
0.0
 30
0.0
  3
*D42
  1

  0
LINE
  5
779
  8
DIM
 62
     0
 10
12.651944
 20
27.932234999999991
 30
0.0
 11
12.651944
 21
29.689765000000001
 31
0.0
  0
LINE
  5
77A
  8
DIM
 62
     0
 10
9.2769440000000003
 20
27.807234999999991
 30
0.0
 11
9.2769440000000003
 21
29.689765000000001
 31
0.0
  0
LINE
  5
77B
  8
DIM
 62
     0
 10
14.136943999999991
 20
28.922515000000001
 30
0.0
 11
15.621943999999999
 21
28.922515000000001
 31
0.0
  0
LINE
  5
77C
  8
DIM
 62
     0
 10
7.791944
 20
28.922515000000001
 30
0.0
 11
6.3069439999999997
 21
28.922515000000001
 31
0.0
  0
TEXT
  5
77D
  8
OBJECT
 62
     0
 10
9.4175690000000003
 20
30.576640000000001
 30
0.0
 40
1.03125
  1
3.375
 41
0.75
  7
TXT
  0
SOLID
  5
77E
  8
DIM
 62
     0
 10
14.136943999999991
 20
29.170014999999989
 30
0.0
 11
14.136943999999991
 21
28.675014999999998
 31
0.0
 12
12.651944
 22
28.922515000000001
 32
0.0
 13
12.651944
 23
28.922515000000001
 33
0.0
  0
SOLID
  5
77F
  8
DIM
 62
     0
 10
7.791944
 20
29.170014999999989
 30
0.0
 11
7.791944
 21
28.675014999999998
 31
0.0
 12
9.2769440000000003
 22
28.922515000000001
 32
0.0
 13
9.2769440000000003
 23
28.922515000000001
 33
0.0
  0
POINT
  5
780
  8
DEFPOINTS
 62
     0
 10
12.651944
 20
27.41248499999999
 30
0.0
  0
POINT
  5
781
  8
DEFPOINTS
 62
     0
 10
9.2769440000000003
 20
27.287485
 30
0.0
  0
POINT
  5
782
  8
DEFPOINTS
 62
     0
 10
9.2769440000000003
 20
28.922515000000001
 30
0.0
  0
ENDBLK
  5
784
  8
0
  0
ENDSEC
  0
SECTION
  2
ENTITIES
  0
INSERT
  5
15D
  8
OBJECT
  2
HB
 10
0.0
 20
0.0
 30
0.0
 41
8.25
 42
8.25
 43
8.25
  0
TEXT
  5
15E
  8
TEXT
 10
43.999124999999999
 20
23.520997000000001
 30
0.0
 40
1.03125
  1
%%UMATERIAL:
 41
0.75
  7
TXT
  0
TEXT
  5
15F
  8
TEXT
 10
45.18835399999999
 20
21.802247000000001
 30
0.0
 40
1.03125
  1
UPRIGHTS
 41
0.75
  7
TXT
  0
TEXT
  5
160
  8
TEXT
 10
45.18835399999999
 20
20.083497000000001
 30
0.0
 40
1.03125
  1
MOUNTING BRACKETS.
 41
0.75
  7
TXT
  0
TEXT
  5
161
  8
TEXT
 10
45.18835399999999
 20
18.364747000000001
 30
0.0
 40
1.03125
  1
HORIZONTAL ANGLES
 41
0.75
  7
TXT
  0
TEXT
  5
162
  8
TEXT
 10
64.050542000000007
 20
21.847894
 30
0.0
 40
1.03125
  1
ALUMINUM EXTRUSION
 41
0.75
  7
TXT
  0
TEXT
  5
163
  8
TEXT
 10
64.050542000000007
 20
20.040374
 30
0.0
 40
1.03125
  1
12 GA. STEEL
 41
0.75
  7
TXT
  0
TEXT
  5
164
  8
TEXT
 10
64.050542000000007
 20
18.321623999999989
 30
0.0
 40
1.03125
  1
16 GA. STEEL
 41
0.75
  7
TXT
  0
LINE
  5
165
  8
TEXT
 10
51.274135000000001
 20
21.778857999999989
 30
0.0
 11
63.378084000000001
 21
21.778857999999989
 31
0.0
  0
LINE
  5
166
  8
TEXT
 10
58.638193000000008
 20
20.080217000000001
 30
0.0
 11
63.378084000000001
 21
20.080217000000001
 31
0.0
  0
LINE
  5
167
  8
TEXT
 10
58.268636000000001
 20
18.342072999999999
 30
0.0
 11
63.378084000000001
 21
18.342072999999999
 31
0.0
  0
TEXT
  5
168
  8
TEXT
 10
44.134191999999992
 20
14.865783999999991
 30
0.0
 40
1.03125
  1
%%UFINISH:
 41
0.75
  7
TXT
  0
TEXT
  5
169
  8
TEXT
 10
64.050542000000007
 20
13.192679999999999
 30
0.0
 40
1.03125
  1
NATURAL
 41
0.75
  7
TXT
  0
LINE
  5
16A
  8
TEXT
 10
51.636866999999988
 20
13.123645
 30
0.0
 11
63.378084000000001
 21
13.123645
 31
0.0
  0
TEXT
  5
16B
  8
TEXT
 10
45.18835399999999
 20
13.147033999999991
 30
0.0
 40
1.03125
  1
UPRIGHTS
 41
0.75
  7
TXT
  0
TEXT
  5
16C
  8
TEXT
 10
5.0013069999999988
 20
12.38412499999999
 30
0.0
 40
1.03125
  1
UNITS ARE SHIPPED UNASSEMBLED
 41
0.75
  7
TXT
  0
TEXT
  5
16D
  8
TEXT
 10
5.0013069999999988
 20
9.9917289999999994
 30
0.0
 40
1.03125
  1
UPRIGHTS ARE TAPPED #12-24 ON E.I.A.
 41
0.75
  7
TXT
  0
TEXT
  5
16E
  8
TEXT
 10
5.0013069999999988
 20
8.2729789999999994
 30
0.0
 40
1.03125
  1
UNIVERSAL SPACING (FRONT & REAR)
 41
0.75
  7
TXT
  0
TEXT
  5
16F
  8
TEXT
 10
14.070628875000001
 20
124.9947185
 30
0.0
 40
1.289062999999999
  1
WALL MOUNT RELAY RACK
 41
0.75
  7
TXT
 72
     4
 11
24.222000000000001
 21
125.63925
 31
0.0
  0
LINE
  5
170
  8
TITLE
 10
13.049438
 20
7.4085000000000001
 30
0.0
 11
13.049438
 21
0.5115
 31
0.0
  0
TEXT
  5
171
  8
TEXT
 10
3.8346697499999989
 20
6.0297549999999998
 30
0.0
 40
1.03125
  1
PART No.
 41
0.75
  7
TXT
 72
     1
 11
6.5417009999999989
 21
6.0297549999999998
 31
0.0
  0
TEXT
  5
172
  8
TEXT
 10
3.4479509999999989
 20
4.3110049999999998
 30
0.0
 40
1.03125
  1
WRR-2262
 41
0.75
  7
TXT
 72
     1
 11
6.5417009999999989
 21
4.3110049999999998
 31
0.0
  0
LINE
  5
173
  8
TITLE
 10
27.035250000000001
 20
7.4085000000000001
 30
0.0
 11
27.035250000000001
 21
0.5115
 31
0.0
  0
TEXT
  5
174
  8
TEXT
 10
19.784531499999989
 20
6.0297549999999998
 30
0.0
 40
1.03125
  1
A
 41
0.75
  7
TXT
 72
     1
 11
20.042344
 21
6.0297549999999998
 31
0.0
  0
TEXT
  5
175
  8
TEXT
 10
18.173203374999989
 20
4.3110049999999998
 30
0.0
 40
1.03125
  1
75.250
 41
0.75
  7
TXT
 72
     1
 11
20.042344
 21
4.3110049999999998
 31
0.0
  0
TEXT
  5
176
  8
TEXT
 10
32.223468500000003
 20
4.3110049999999998
 30
0.0
 40
1.03125
  1
84.050
 41
0.75
  7
TXT
 72
     1
 11
34.028156000000003
 21
4.3110049999999998
 31
0.0
  0
TEXT
  5
177
  8
TEXT
 10
33.770343500000003
 20
6.0297549999999998
 30
0.0
 40
1.03125
  1
B
 41
0.75
  7
TXT
 72
     1
 11
34.028156000000003
 21
6.0297549999999998
 31
0.0
  0
TEXT
  5
178
  8
TEXT
 10
46.080375250000003
 20
4.3110049999999998
 30
0.0
 40
1.03125
  1
77.676
 41
0.75
  7
TXT
 72
     1
 11
48.013969000000003
 21
4.3110049999999998
 31
0.0
  0
TEXT
  5
179
  8
TEXT
 10
47.756156500000003
 20
6.0297549999999998
 30
0.0
 40
1.03125
  1
C
 41
0.75
  7
TXT
 72
     1
 11
48.013969000000003
 21
6.0297549999999998
 31
0.0
  0
LINE
  5
17A
  8
TEXT
 10
59.268576000000003
 20
9.6861449999999998
 30
0.0
 11
63.378084000000001
 21
9.6861449999999998
 31
0.0
  0
TEXT
  5
17B
  8
TEXT
 10
45.850064000000003
 20
9.7095339999999997
 30
0.0
 40
1.03125
  1
MOUNTING BRACKETS
 41
0.75
  7
TXT
  0
TEXT
  5
17C
  8
TEXT
 10
64.050542000000007
 20
9.7551800000000011
 30
0.0
 40
1.03125
  1
METALLIC GRAY
 41
0.75
  7
TXT
  0
TEXT
  5
17D
  8
TEXT
 10
45.227871
 20
11.447678
 30
0.0
 40
1.03125
  1
HORIZONTAL ANGLES &
 41
0.75
  7
TXT
  0
LINE
  5
17E
  8
TITLE
 10
68.992688000000001
 20
7.4085000000000001
 30
0.0
 11
68.992688000000001
 21
0.5115
 31
0.0
  0
LINE
  5
17F
  8
TITLE
 10
55.006875000000001
 20
7.4085000000000001
 30
0.0
 11
55.006875000000001
 21
0.5115
 31
0.0
  0
LINE
  5
180
  8
TITLE
 10
41.021062999999991
 20
7.4085000000000001
 30
0.0
 11
41.021062999999991
 21
0.5115
 31
0.0
  0
TEXT
  5
181
  8
TEXT
 10
60.646265374999999
 20
4.3110049999999998
 30
0.0
 40
1.03125
  1
8.000
 41
0.75
  7
TXT
 72
     1
 11
61.999780999999999
 21
4.3110049999999998
 31
0.0
  0
TEXT
  5
182
  8
TEXT
 10
61.741968500000013
 20
6.0297549999999998
 30
0.0
 40
1.03125
  1
D
 41
0.75
  7
TXT
 72
     1
 11
61.999780999999999
 21
6.0297549999999998
 31
0.0
  0
TEXT
  5
183
  8
TEXT
 10
74.503172124999992
 20
4.3110049999999998
 30
0.0
 40
1.03125
  1
8.094
 41
0.75
  7
TXT
 72
     1
 11
75.985593999999992
 21
4.3110049999999998
 31
0.0
  0
TEXT
  5
184
  8
TEXT
 10
75.727781499999992
 20
6.0297549999999998
 30
0.0
 40
1.03125
  1
E
 41
0.75
  7
TXT
 72
     1
 11
75.985593999999992
 21
6.0297549999999998
 31
0.0
  0
LINE
  5
185
  8
TITLE
 10
82.978499999999997
 20
2.235749999999999
 30
0.0
 11
0.5115
 21
2.235749999999999
 31
0.0
  0
LINE
  5
186
  8
TITLE
 10
82.978499999999997
 20
3.9599999999999991
 30
0.0
 11
0.5115
 21
3.9599999999999991
 31
0.0
  0
LINE
  5
187
  8
TITLE
 10
82.978499999999997
 20
5.6842499999999987
 30
0.0
 11
0.5115
 21
5.6842499999999987
 31
0.0
  0
LINE
  5
188
  8
TITLE
 10
82.978499999999997
 20
7.4085000000000001
 30
0.0
 11
0.5115
 21
7.4085000000000001
 31
0.0
  0
TEXT
  5
189
  8
TEXT
 10
3.4479509999999989
 20
2.5867550000000001
 30
0.0
 40
1.03125
  1
WRR-2263
 41
0.75
  7
TXT
 72
     1
 11
6.5417009999999989
 21
2.5867550000000001
 31
0.0
  0
TEXT
  5
18A
  8
TEXT
 10
18.173203374999989
 20
2.5867550000000001
 30
0.0
 40
1.03125
  1
75.250
 41
0.75
  7
TXT
 72
     1
 11
20.042344
 21
2.5867550000000001
 31
0.0
  0
TEXT
  5
18B
  8
TEXT
 10
32.223468500000003
 20
2.5867550000000001
 30
0.0
 40
1.03125
  1
84.050
 41
0.75
  7
TXT
 72
     1
 11
34.028156000000003
 21
2.5867550000000001
 31
0.0
  0
TEXT
  5
18C
  8
TEXT
 10
46.080375250000003
 20
2.5867550000000001
 30
0.0
 40
1.03125
  1
77.676
 41
0.75
  7
TXT
 72
     1
 11
48.013969000000003
 21
2.5867550000000001
 31
0.0
  0
TEXT
  5
18D
  8
TEXT
 10
60.388452874999999
 20
2.5867550000000001
 30
0.0
 40
1.03125
  1
12.000
 41
0.75
  7
TXT
 72
     1
 11
61.999780999999999
 21
2.5867550000000001
 31
0.0
  0
TEXT
  5
18E
  8
TEXT
 10
74.245359624999992
 20
2.5867550000000001
 30
0.0
 40
1.03125
  1
12.094
 41
0.75
  7
TXT
 72
     1
 11
75.985593999999992
 21
2.5867550000000001
 31
0.0
  0
TEXT
  5
18F
  8
TEXT
 10
3.4479509999999989
 20
0.8625049999999999
 30
0.0
 40
1.03125
  1
WRR-2264
 41
0.75
  7
TXT
 72
     1
 11
6.5417009999999989
 21
0.8625049999999999
 31
0.0
  0
TEXT
  5
190
  8
TEXT
 10
18.173203374999989
 20
0.8625049999999999
 30
0.0
 40
1.03125
  1
75.250
 41
0.75
  7
TXT
 72
     1
 11
20.042344
 21
0.8625049999999999
 31
0.0
  0
TEXT
  5
191
  8
TEXT
 10
32.223468500000003
 20
0.8625049999999999
 30
0.0
 40
1.03125
  1
84.050
 41
0.75
  7
TXT
 72
     1
 11
34.028156000000003
 21
0.8625049999999999
 31
0.0
  0
TEXT
  5
192
  8
TEXT
 10
46.080375250000003
 20
0.8625049999999999
 30
0.0
 40
1.03125
  1
77.676
 41
0.75
  7
TXT
 72
     1
 11
48.013969000000003
 21
0.8625049999999999
 31
0.0
  0
TEXT
  5
193
  8
TEXT
 10
60.388452874999999
 20
0.8625049999999999
 30
0.0
 40
1.03125
  1
18.000
 41
0.75
  7
TXT
 72
     1
 11
61.999780999999999
 21
0.8625049999999999
 31
0.0
  0
TEXT
  5
194
  8
TEXT
 10
74.245359624999992
 20
0.8625049999999999
 30
0.0
 40
1.03125
  1
18.094
 41
0.75
  7
TXT
 72
     1
 11
75.985593999999992
 21
0.8625049999999999
 31
0.0
  0
DIMENSION
  5
195
  8
DIM
  2
*D22
 10
78.242847999999995
 20
58.521814999999997
 30
0.0
 11
69.086848000000003
 21
58.521814999999997
 31
0.0
 70
     0
  1
<>
 13
59.930847999999997
 23
57.437663999999998
 33
0.0
 14
78.242847999999995
 24
57.437663999999998
 34
0.0
  0
DIMENSION
  5
1A3
  8
DIM
  2
*D23
 10
77.963060999999996
 20
61.878348000000003
 30
0.0
 11
69.087061000000006
 21
61.878348000000003
 31
0.0
 70
     0
 13
60.211061000000001
 23
61.622636
 33
0.0
 14
77.963060999999996
 24
61.622636
 34
0.0
  0
DIMENSION
  5
1B1
  8
DIM
  2
*D24
 10
54.765586999999996
 20
113.1876639999999
 30
0.0
 11
54.765586999999982
 21
75.562664000000012
 31
0.0
 70
     0
  1
A
 13
59.930847999999997
 23
37.937663999999991
 33
0.0
 14
59.930847999999997
 24
113.1876639999999
 34
0.0
 50
90.0
  0
TEXT
  5
1BF
  8
TEXT
 10
65.206982875000008
 20
30.64678
 30
0.0
 40
1.03125
  1
%%UFRONT VIEW
 41
0.75
  7
TXT
 72
     1
 11
69.087061000000006
 21
30.64678
 31
0.0
  0
TEXT
  5
1C0
  8
TEXT
 10
43.219536875000003
 20
30.64678
 30
0.0
 40
1.03125
  1
%%USIDE VIEW
 41
0.75
  7
TXT
 72
     1
 11
46.58399
 21
30.64678
 31
0.0
  0
TEXT
  5
1C1
  8
TEXT
 10
16.033797624999991
 20
30.64678
 30
0.0
 40
1.03125
  1
%%UREAR VIEW
 41
0.75
  7
TXT
 72
     1
 11
19.527156999999988
 21
30.64678
 31
0.0
  0
DIMENSION
  5
1C2
  8
DIM
  2
*D25
 10
66.246917999999994
 20
112.9376639999999
 30
0.0
 11
69.447917999999973
 21
113.3126639999999
 31
0.0
 70
     0
 13
64.398173
 23
113.6876639999999
 33
0.0
 14
59.930847999999997
 24
112.9376639999999
 34
0.0
 50
90.0
  0
LINE
  5
1D0
  8
HIDDEN
 10
60.210847999999999
 20
33.750664
 30
0.0
 11
60.210847999999999
 21
37.313164
 31
0.0
  0
LINE
  5
1D1
  8
OBJECT
 10
58.945847999999998
 20
113.6881639999999
 30
0.0
 11
58.945847999999998
 21
37.438164
 31
0.0
  0
LINE
  5
1D2
  8
HIDDEN
 10
59.195847999999991
 20
117.3756639999999
 30
0.0
 11
59.195847999999991
 21
33.750664
 31
0.0
  0
LINE
  5
1D3
  8
0
 10
59.874028000000003
 20
33.538164000000002
 30
0.0
 11
59.874028000000003
 21
33.322688999999997
 31
0.0
  0
LINE
  5
1D4
  8
0
 10
59.549241000000002
 20
33.538164000000002
 30
0.0
 11
59.549241000000002
 21
33.322688999999997
 31
0.0
  0
POLYLINE
  5
1D5
  8
0
 66
     1
 10
0.0
 20
0.0
 30
0.0
 70
     1
  0
VERTEX
  5
795
  8
0
 10
60.036403
 20
33.538164000000002
 30
0.0
  0
VERTEX
  5
796
  8
0
 10
60.036403
 20
33.322688999999997
 30
0.0
 42
-0.368919
  0
VERTEX
  5
797
  8
0
 10
59.874028000000003
 20
33.322688999999997
 30
0.0
 42
-0.185339
  0
VERTEX
  5
798
  8
0
 10
59.549241000000002
 20
33.322688999999997
 30
0.0
 42
-0.368919
  0
VERTEX
  5
799
  8
0
 10
59.386865999999998
 20
33.322688999999997
 30
0.0
  0
VERTEX
  5
79A
  8
0
 10
59.386865999999998
 20
33.538164000000002
 30
0.0
  0
SEQEND
  5
79B
  8
0
  0
LINE
  5
1DD
  8
0
 10
59.468071999999999
 20
33.294164000000002
 30
0.0
 11
59.955196999999998
 21
33.294164000000002
 31
0.0
  0
LINE
  5
1DE
  8
OBJECT
 10
47.352297
 20
113.58866399999999
 30
0.0
 11
47.352297
 21
37.537663999999992
 31
0.0
  0
LINE
  5
1DF
  8
HIDDEN
 10
47.539296999999991
 20
117.3756639999999
 30
0.0
 11
47.539296999999991
 21
33.750664
 31
0.0
  0
LINE
  5
1E0
  8
HIDDEN
 10
50.165296999999988
 20
117.3756639999999
 30
0.0
 11
50.165296999999988
 21
33.750664
 31
0.0
  0
LINE
  5
1E1
  8
OBJECT
 10
50.352297
 20
117.3756639999999
 30
0.0
 11
50.352297
 21
33.750664
 31
0.0
  0
LINE
  5
1E2
  8
HIDDEN
 10
47.352297
 20
33.750664
 30
0.0
 11
50.352297
 21
33.750664
 31
0.0
  0
POLYLINE
  5
1E3
  8
OBJECT
 66
     1
 10
0.0
 20
0.0
 30
0.0
 70
     1
  0
VERTEX
  5
79C
  8
OBJECT
 10
47.914527999999997
 20
33.538164000000002
 30
0.0
  0
VERTEX
  5
79D
  8
OBJECT
 10
47.914527999999997
 20
33.322688999999997
 30
0.0
 42
0.368919
  0
VERTEX
  5
79E
  8
OBJECT
 10
48.076903000000001
 20
33.322688999999997
 30
0.0
 42
0.185339
  0
VERTEX
  5
79F
  8
OBJECT
 10
48.401691
 20
33.322688999999997
 30
0.0
 42
0.368919
  0
VERTEX
  5
7A0
  8
OBJECT
 10
48.56406599999999
 20
33.322688999999997
 30
0.0
  0
VERTEX
  5
7A1
  8
OBJECT
 10
48.56406599999999
 20
33.538164000000002
 30
0.0
  0
SEQEND
  5
7A2
  8
OBJECT
  0
LINE
  5
1EB
  8
OBJECT
 10
48.482858999999998
 20
33.294164000000002
 30
0.0
 11
47.995733999999999
 21
33.294164000000002
 31
0.0
  0
LINE
  5
1EC
  8
OBJECT
 10
48.076903000000001
 20
33.538164000000002
 30
0.0
 11
48.076903000000001
 21
33.322688999999997
 31
0.0
  0
LINE
  5
1ED
  8
OBJECT
 10
48.401691
 20
33.538164000000002
 30
0.0
 11
48.401691
 21
33.322688999999997
 31
0.0
  0
LINE
  5
1EE
  8
0
 10
50.414296999999998
 20
34.500664
 30
0.0
 11
50.635772000000003
 21
34.500664
 31
0.0
  0
LINE
  5
1EF
  8
0
 10
50.664296999999998
 20
34.67263599999999
 30
0.0
 11
50.664296999999998
 21
34.32869199999999
 31
0.0
  0
LINE
  5
1F0
  8
HIDDEN
 10
58.945847999999998
 20
33.750664
 30
0.0
 11
60.210847999999999
 21
33.750664
 31
0.0
  0
POLYLINE
  5
1F1
  8
0
  6
BYBLOCK
 62
     0
 66
     1
 10
0.0
 20
0.0
 30
0.0
 70
     1
  0
VERTEX
  5
7A3
  8
0
  6
BYBLOCK
 62
     0
 10
48.689917000000001
 20
35.719414
 30
0.0
  0
VERTEX
  5
7A4
  8
0
  6
BYBLOCK
 62
     0
 10
48.527537000000002
 20
36.000664
 30
0.0
  0
VERTEX
  5
7A5
  8
0
  6
BYBLOCK
 62
     0
 10
48.689917000000001
 20
36.281914
 30
0.0
  0
VERTEX
  5
7A6
  8
0
  6
BYBLOCK
 62
     0
 10
49.014676999999999
 20
36.281914
 30
0.0
  0
VERTEX
  5
7A7
  8
0
  6
BYBLOCK
 62
     0
 10
49.177056
 20
36.000664
 30
0.0
  0
VERTEX
  5
7A8
  8
0
  6
BYBLOCK
 62
     0
 10
49.014676999999999
 20
35.719414
 30
0.0
  0
SEQEND
  5
7A9
  8
0
  6
BYBLOCK
 62
     0
  0
POLYLINE
  5
1F9
  8
0
  6
BYBLOCK
 62
     0
 66
     1
 10
0.0
 20
0.0
 30
0.0
 70
     1
  0
VERTEX
  5
7AA
  8
0
  6
BYBLOCK
 62
     0
 10
48.689917000000001
 20
34.219414
 30
0.0
  0
VERTEX
  5
7AB
  8
0
  6
BYBLOCK
 62
     0
 10
48.527537000000002
 20
34.500664
 30
0.0
  0
VERTEX
  5
7AC
  8
0
  6
BYBLOCK
 62
     0
 10
48.689917000000001
 20
34.781914
 30
0.0
  0
VERTEX
  5
7AD
  8
0
  6
BYBLOCK
 62
     0
 10
49.014676999999999
 20
34.781914
 30
0.0
  0
VERTEX
  5
7AE
  8
0
  6
BYBLOCK
 62
     0
 10
49.177056
 20
34.500664
 30
0.0
  0
VERTEX
  5
7AF
  8
0
  6
BYBLOCK
 62
     0
 10
49.014676999999999
 20
34.219414
 30
0.0
  0
SEQEND
  5
7B0
  8
0
  6
BYBLOCK
 62
     0
  0
POLYLINE
  5
201
  8
0
  6
BYBLOCK
 62
     0
 66
     1
 10
0.0
 20
0.0
 30
0.0
 70
     1
  0
VERTEX
  5
7B1
  8
0
  6
BYBLOCK
 62
     0
 10
59.392468000000008
 20
34.219414
 30
0.0
  0
VERTEX
  5
7B2
  8
0
  6
BYBLOCK
 62
     0
 10
59.230088000000002
 20
34.500664
 30
0.0
  0
VERTEX
  5
7B3
  8
0
  6
BYBLOCK
 62
     0
 10
59.392468000000008
 20
34.781914
 30
0.0
  0
VERTEX
  5
7B4
  8
0
  6
BYBLOCK
 62
     0
 10
59.717228000000013
 20
34.781914
 30
0.0
  0
VERTEX
  5
7B5
  8
0
  6
BYBLOCK
 62
     0
 10
59.879606999999993
 20
34.500664
 30
0.0
  0
VERTEX
  5
7B6
  8
0
  6
BYBLOCK
 62
     0
 10
59.717228000000013
 20
34.219414
 30
0.0
  0
SEQEND
  5
7B7
  8
0
  6
BYBLOCK
 62
     0
  0
POLYLINE
  5
209
  8
0
  6
BYBLOCK
 62
     0
 66
     1
 10
0.0
 20
0.0
 30
0.0
 70
     1
  0
VERTEX
  5
7B8
  8
0
  6
BYBLOCK
 62
     0
 10
59.392468000000008
 20
35.719414
 30
0.0
  0
VERTEX
  5
7B9
  8
0
  6
BYBLOCK
 62
     0
 10
59.230088000000002
 20
36.000664
 30
0.0
  0
VERTEX
  5
7BA
  8
0
  6
BYBLOCK
 62
     0
 10
59.392468000000008
 20
36.281914
 30
0.0
  0
VERTEX
  5
7BB
  8
0
  6
BYBLOCK
 62
     0
 10
59.717228000000013
 20
36.281914
 30
0.0
  0
VERTEX
  5
7BC
  8
0
  6
BYBLOCK
 62
     0
 10
59.879606999999993
 20
36.000664
 30
0.0
  0
VERTEX
  5
7BD
  8
0
  6
BYBLOCK
 62
     0
 10
59.717228000000013
 20
35.719414
 30
0.0
  0
SEQEND
  5
7BE
  8
0
  6
BYBLOCK
 62
     0
  0
LINE
  5
211
  8
0
 10
50.414296999999998
 20
34.219414
 30
0.0
 11
50.635772000000003
 21
34.219414
 31
0.0
  0
ARC
  5
212
  8
0
 10
50.320625999999997
 20
34.641289
 30
0.0
 40
0.345098
 50
335.95253600000001
 51
24.047464000000002
  0
LINE
  5
213
  8
0
 10
50.635772000000003
 20
34.781914
 30
0.0
 11
50.414296999999998
 21
34.781914
 31
0.0
  0
ARC
  5
214
  8
0
 10
50.320625999999997
 20
34.360039
 30
0.0
 40
0.345098
 50
335.95253600000001
 51
24.047464000000002
  0
LINE
  5
215
  8
0
 10
50.664296999999998
 20
36.17263599999999
 30
0.0
 11
50.664296999999998
 21
35.82869199999999
 31
0.0
  0
LINE
  5
216
  8
0
 10
50.414296999999998
 20
35.719414
 30
0.0
 11
50.635772000000003
 21
35.719414
 31
0.0
  0
ARC
  5
217
  8
0
 10
50.320625999999997
 20
35.860039
 30
0.0
 40
0.345098
 50
335.95253600000001
 51
24.047464000000002
  0
LINE
  5
218
  8
0
 10
50.635772000000003
 20
36.281914
 30
0.0
 11
50.414296999999998
 21
36.281914
 31
0.0
  0
ARC
  5
219
  8
0
 10
50.320625999999997
 20
36.141289
 30
0.0
 40
0.345098
 50
335.95253600000001
 51
24.047464000000002
  0
LINE
  5
21A
  8
0
 10
50.414296999999998
 20
36.000664
 30
0.0
 11
50.635772000000003
 21
36.000664
 31
0.0
  0
ARC
  5
21B
  8
0
 10
58.93051899999999
 20
36.141289
 30
0.0
 40
0.345098
 50
155.95253600000001
 51
204.04746399999991
  0
LINE
  5
21C
  8
0
 10
58.836848000000003
 20
36.000664
 30
0.0
 11
58.615372999999998
 21
36.000664
 31
0.0
  0
ARC
  5
21D
  8
0
 10
58.93051899999999
 20
35.860039
 30
0.0
 40
0.345098
 50
155.95253600000001
 51
204.04746399999991
  0
LINE
  5
21E
  8
0
 10
58.836848000000003
 20
35.719414
 30
0.0
 11
58.615372999999998
 21
35.719414
 31
0.0
  0
LINE
  5
21F
  8
0
 10
58.586847999999989
 20
36.17263599999999
 30
0.0
 11
58.586847999999989
 21
35.82869199999999
 31
0.0
  0
LINE
  5
220
  8
0
 10
58.586847999999989
 20
34.67263599999999
 30
0.0
 11
58.586847999999989
 21
34.32869199999999
 31
0.0
  0
LINE
  5
221
  8
0
 10
58.836848000000003
 20
34.219414
 30
0.0
 11
58.615372999999998
 21
34.219414
 31
0.0
  0
ARC
  5
222
  8
0
 10
58.93051899999999
 20
34.360039
 30
0.0
 40
0.345098
 50
155.95253600000001
 51
204.04746399999991
  0
LINE
  5
223
  8
0
 10
58.615372999999998
 20
34.781914
 30
0.0
 11
58.836848000000003
 21
34.781914
 31
0.0
  0
ARC
  5
224
  8
0
 10
58.93051899999999
 20
34.641289
 30
0.0
 40
0.345098
 50
155.95253600000001
 51
204.04746399999991
  0
LINE
  5
225
  8
0
 10
58.836848000000003
 20
34.500664
 30
0.0
 11
58.615372999999998
 21
34.500664
 31
0.0
  0
LINE
  5
226
  8
0
 10
58.615372999999998
 20
36.281914
 30
0.0
 11
58.836848000000003
 21
36.281914
 31
0.0
  0
LINE
  5
227
  8
HIDDEN
 10
78.978274999999996
 20
117.3756639999999
 30
0.0
 11
78.978274999999996
 21
33.750664
 31
0.0
  0
LINE
  5
228
  8
OBJECT
 10
79.228274999999996
 20
113.6881639999999
 30
0.0
 11
79.228274999999996
 21
37.438164
 31
0.0
  0
LINE
  5
229
  8
HIDDEN
 10
77.963274999999996
 20
33.750664
 30
0.0
 11
77.963274999999996
 21
37.313164
 31
0.0
  0
LINE
  5
22A
  8
0
 10
78.300094000000001
 20
33.538164000000002
 30
0.0
 11
78.300094000000001
 21
33.322688999999997
 31
0.0
  0
LINE
  5
22B
  8
0
 10
78.624881999999999
 20
33.538164000000002
 30
0.0
 11
78.624881999999999
 21
33.322688999999997
 31
0.0
  0
POLYLINE
  5
22C
  8
0
 66
     1
 10
0.0
 20
0.0
 30
0.0
 70
     1
  0
VERTEX
  5
7BF
  8
0
 10
78.137718999999976
 20
33.538164000000002
 30
0.0
  0
VERTEX
  5
7C0
  8
0
 10
78.137718999999976
 20
33.322688999999997
 30
0.0
 42
0.368919
  0
VERTEX
  5
7C1
  8
0
 10
78.300094000000001
 20
33.322688999999997
 30
0.0
 42
0.185339
  0
VERTEX
  5
7C2
  8
0
 10
78.624881999999999
 20
33.322688999999997
 30
0.0
 42
0.368919
  0
VERTEX
  5
7C3
  8
0
 10
78.787256999999997
 20
33.322688999999997
 30
0.0
  0
VERTEX
  5
7C4
  8
0
 10
78.787256999999997
 20
33.538164000000002
 30
0.0
  0
SEQEND
  5
7C5
  8
0
  0
LINE
  5
234
  8
0
 10
78.706051000000002
 20
33.294164000000002
 30
0.0
 11
78.218925999999996
 21
33.294164000000002
 31
0.0
  0
LINE
  5
235
  8
HIDDEN
 10
79.228274999999996
 20
33.750664
 30
0.0
 11
77.963274999999996
 21
33.750664
 31
0.0
  0
LINE
  5
236
  8
0
 10
79.337275000000005
 20
34.500664
 30
0.0
 11
79.558750000000003
 21
34.500664
 31
0.0
  0
ARC
  5
237
  8
0
 10
79.243604000000005
 20
34.641289
 30
0.0
 40
0.345098
 50
335.95253600000001
 51
24.047464000000002
  0
LINE
  5
238
  8
0
 10
79.558750000000003
 20
34.781914
 30
0.0
 11
79.337275000000005
 21
34.781914
 31
0.0
  0
ARC
  5
239
  8
0
 10
79.243604000000005
 20
34.360039
 30
0.0
 40
0.345098
 50
335.95253600000001
 51
24.047464000000002
  0
LINE
  5
23A
  8
0
 10
79.337275000000005
 20
34.219414
 30
0.0
 11
79.558750000000003
 21
34.219414
 31
0.0
  0
LINE
  5
23B
  8
0
 10
79.587275000000005
 20
34.67263599999999
 30
0.0
 11
79.587275000000005
 21
34.32869199999999
 31
0.0
  0
POLYLINE
  5
23C
  8
0
  6
BYBLOCK
 62
     0
 66
     1
 10
0.0
 20
0.0
 30
0.0
 70
     1
  0
VERTEX
  5
7C6
  8
0
  6
BYBLOCK
 62
     0
 10
78.781655000000001
 20
34.219414
 30
0.0
  0
VERTEX
  5
7C7
  8
0
  6
BYBLOCK
 62
     0
 10
78.944034000000002
 20
34.500664
 30
0.0
  0
VERTEX
  5
7C8
  8
0
  6
BYBLOCK
 62
     0
 10
78.781655000000001
 20
34.781914
 30
0.0
  0
VERTEX
  5
7C9
  8
0
  6
BYBLOCK
 62
     0
 10
78.456894999999975
 20
34.781914
 30
0.0
  0
VERTEX
  5
7CA
  8
0
  6
BYBLOCK
 62
     0
 10
78.294515000000004
 20
34.500664
 30
0.0
  0
VERTEX
  5
7CB
  8
0
  6
BYBLOCK
 62
     0
 10
78.456894999999975
 20
34.219414
 30
0.0
  0
SEQEND
  5
7CC
  8
0
  6
BYBLOCK
 62
     0
  0
LINE
  5
244
  8
0
 10
79.558750000000003
 20
36.281914
 30
0.0
 11
79.337275000000005
 21
36.281914
 31
0.0
  0
LINE
  5
245
  8
0
 10
79.587275000000005
 20
36.17263599999999
 30
0.0
 11
79.587275000000005
 21
35.82869199999999
 31
0.0
  0
LINE
  5
246
  8
0
 10
79.337275000000005
 20
35.719414
 30
0.0
 11
79.558750000000003
 21
35.719414
 31
0.0
  0
ARC
  5
247
  8
0
 10
79.243604000000005
 20
35.860039
 30
0.0
 40
0.345098
 50
335.95253600000001
 51
24.047464000000002
  0
LINE
  5
248
  8
0
 10
79.337275000000005
 20
36.000664
 30
0.0
 11
79.558750000000003
 21
36.000664
 31
0.0
  0
ARC
  5
249
  8
0
 10
79.243604000000005
 20
36.141289
 30
0.0
 40
0.345098
 50
335.95253600000001
 51
24.047464000000002
  0
POLYLINE
  5
24A
  8
0
  6
BYBLOCK
 62
     0
 66
     1
 10
0.0
 20
0.0
 30
0.0
 70
     1
  0
VERTEX
  5
7CD
  8
0
  6
BYBLOCK
 62
     0
 10
78.781655000000001
 20
35.719414
 30
0.0
  0
VERTEX
  5
7CE
  8
0
  6
BYBLOCK
 62
     0
 10
78.944034000000002
 20
36.000664
 30
0.0
  0
VERTEX
  5
7CF
  8
0
  6
BYBLOCK
 62
     0
 10
78.781655000000001
 20
36.281914
 30
0.0
  0
VERTEX
  5
7D0
  8
0
  6
BYBLOCK
 62
     0
 10
78.456894999999975
 20
36.281914
 30
0.0
  0
VERTEX
  5
7D1
  8
0
  6
BYBLOCK
 62
     0
 10
78.294515000000004
 20
36.000664
 30
0.0
  0
VERTEX
  5
7D2
  8
0
  6
BYBLOCK
 62
     0
 10
78.456894999999975
 20
35.719414
 30
0.0
  0
SEQEND
  5
7D3
  8
0
  6
BYBLOCK
 62
     0
  0
LINE
  5
252
  8
HIDDEN
 10
47.352297
 20
37.412663999999999
 30
0.0
 11
47.352297
 21
33.750664
 31
0.0
  0
LINE
  5
253
  8
HIDDEN
 10
47.352297
 20
117.3756639999999
 30
0.0
 11
50.352297
 21
117.3756639999999
 31
0.0
  0
POLYLINE
  5
254
  8
ANGLE
 66
     1
 10
0.0
 20
0.0
 30
0.0
 70
     1
  0
VERTEX
  5
7D4
  8
ANGLE
 10
47.364297000000001
 20
117.58816399999991
 30
0.0
  0
VERTEX
  5
7D5
  8
ANGLE
 10
47.364297000000001
 20
117.52616399999989
 30
0.0
  0
VERTEX
  5
7D6
  8
ANGLE
 10
50.352297
 20
117.52616399999989
 30
0.0
  0
VERTEX
  5
7D7
  8
ANGLE
 10
50.352297
 20
113.6881639999999
 30
0.0
  0
VERTEX
  5
7D8
  8
ANGLE
 10
50.414296999999998
 20
113.6881639999999
 30
0.0
  0
VERTEX
  5
7D9
  8
ANGLE
 10
50.414296999999998
 20
117.58816399999991
 30
0.0
  0
SEQEND
  5
7DA
  8
ANGLE
  0
LINE
  5
25C
  8
HIDDEN
 10
47.352297
 20
113.71366399999999
 30
0.0
 11
47.352297
 21
117.3756639999999
 31
0.0
  0
POLYLINE
  5
25D
  8
0
 66
     1
 10
0.0
 20
0.0
 30
0.0
 70
     1
  0
VERTEX
  5
7DB
  8
0
 10
47.914527999999997
 20
117.58816399999991
 30
0.0
  0
VERTEX
  5
7DC
  8
0
 10
47.914527999999997
 20
117.8096389999999
 30
0.0
 42
-0.368919
  0
VERTEX
  5
7DD
  8
0
 10
48.076903000000001
 20
117.8096389999999
 30
0.0
 42
-0.185339
  0
VERTEX
  5
7DE
  8
0
 10
48.401691
 20
117.8096389999999
 30
0.0
 42
-0.368919
  0
VERTEX
  5
7DF
  8
0
 10
48.56406599999999
 20
117.8096389999999
 30
0.0
  0
VERTEX
  5
7E0
  8
0
 10
48.56406599999999
 20
117.58816399999991
 30
0.0
  0
SEQEND
  5
7E1
  8
0
  0
LINE
  5
265
  8
0
 10
48.482858999999998
 20
117.83816400000001
 30
0.0
 11
47.995733999999999
 21
117.83816400000001
 31
0.0
  0
LINE
  5
266
  8
0
 10
48.076903000000001
 20
117.58816399999991
 30
0.0
 11
48.076903000000001
 21
117.8096389999999
 31
0.0
  0
LINE
  5
267
  8
0
 10
48.401691
 20
117.58816399999991
 30
0.0
 11
48.401691
 21
117.8096389999999
 31
0.0
  0
POLYLINE
  5
268
  8
0
  6
BYBLOCK
 62
     0
 66
     1
 10
0.0
 20
0.0
 30
0.0
 70
     1
  0
VERTEX
  5
7E2
  8
0
  6
BYBLOCK
 62
     0
 10
48.689917000000001
 20
116.9069139999999
 30
0.0
  0
VERTEX
  5
7E3
  8
0
  6
BYBLOCK
 62
     0
 10
48.527537000000002
 20
116.6256639999999
 30
0.0
  0
VERTEX
  5
7E4
  8
0
  6
BYBLOCK
 62
     0
 10
48.689917000000001
 20
116.3444139999999
 30
0.0
  0
VERTEX
  5
7E5
  8
0
  6
BYBLOCK
 62
     0
 10
49.014676999999999
 20
116.3444139999999
 30
0.0
  0
VERTEX
  5
7E6
  8
0
  6
BYBLOCK
 62
     0
 10
49.177056
 20
116.6256639999999
 30
0.0
  0
VERTEX
  5
7E7
  8
0
  6
BYBLOCK
 62
     0
 10
49.014676999999999
 20
116.9069139999999
 30
0.0
  0
SEQEND
  5
7E8
  8
0
  6
BYBLOCK
 62
     0
  0
POLYLINE
  5
270
  8
0
  6
BYBLOCK
 62
     0
 66
     1
 10
0.0
 20
0.0
 30
0.0
 70
     1
  0
VERTEX
  5
7E9
  8
0
  6
BYBLOCK
 62
     0
 10
48.689917000000001
 20
115.4069139999999
 30
0.0
  0
VERTEX
  5
7EA
  8
0
  6
BYBLOCK
 62
     0
 10
48.527537000000002
 20
115.1256639999999
 30
0.0
  0
VERTEX
  5
7EB
  8
0
  6
BYBLOCK
 62
     0
 10
48.689917000000001
 20
114.8444139999999
 30
0.0
  0
VERTEX
  5
7EC
  8
0
  6
BYBLOCK
 62
     0
 10
49.014676999999999
 20
114.8444139999999
 30
0.0
  0
VERTEX
  5
7ED
  8
0
  6
BYBLOCK
 62
     0
 10
49.177056
 20
115.1256639999999
 30
0.0
  0
VERTEX
  5
7EE
  8
0
  6
BYBLOCK
 62
     0
 10
49.014676999999999
 20
115.4069139999999
 30
0.0
  0
SEQEND
  5
7EF
  8
0
  6
BYBLOCK
 62
     0
  0
LINE
  5
278
  8
0
 10
50.664296999999998
 20
116.4536919999999
 30
0.0
 11
50.664296999999998
 21
116.797636
 31
0.0
  0
LINE
  5
279
  8
0
 10
50.414296999999998
 20
116.9069139999999
 30
0.0
 11
50.635772000000003
 21
116.9069139999999
 31
0.0
  0
ARC
  5
27A
  8
0
 10
50.320625999999997
 20
116.7662889999999
 30
0.0
 40
0.345098
 50
335.95253600000001
 51
24.047464000000002
  0
LINE
  5
27B
  8
0
 10
50.635772000000003
 20
116.3444139999999
 30
0.0
 11
50.414296999999998
 21
116.3444139999999
 31
0.0
  0
ARC
  5
27C
  8
0
 10
50.320625999999997
 20
116.4850389999999
 30
0.0
 40
0.345098
 50
335.95253600000001
 51
24.047464000000002
  0
LINE
  5
27D
  8
0
 10
50.414296999999998
 20
116.6256639999999
 30
0.0
 11
50.635772000000003
 21
116.6256639999999
 31
0.0
  0
LINE
  5
27E
  8
0
 10
50.635772000000003
 20
114.8444139999999
 30
0.0
 11
50.414296999999998
 21
114.8444139999999
 31
0.0
  0
LINE
  5
27F
  8
0
 10
50.414296999999998
 20
115.1256639999999
 30
0.0
 11
50.635772000000003
 21
115.1256639999999
 31
0.0
  0
ARC
  5
280
  8
0
 10
50.320625999999997
 20
115.2662889999999
 30
0.0
 40
0.345098
 50
335.95253600000001
 51
24.047464000000002
  0
LINE
  5
281
  8
0
 10
50.414296999999998
 20
115.4069139999999
 30
0.0
 11
50.635772000000003
 21
115.4069139999999
 31
0.0
  0
LINE
  5
282
  8
0
 10
50.664296999999998
 20
114.9536919999999
 30
0.0
 11
50.664296999999998
 21
115.297636
 31
0.0
  0
ARC
  5
283
  8
0
 10
50.320625999999997
 20
114.9850389999999
 30
0.0
 40
0.345098
 50
335.95253600000001
 51
24.047464000000002
  0
LINE
  5
284
  8
OBJECT
 10
60.210847999999999
 20
37.438164
 30
0.0
 11
60.210847999999999
 21
113.6881639999999
 31
0.0
  0
LINE
  5
285
  8
OBJECT
 10
77.963274999999996
 20
37.438164
 30
0.0
 11
77.963274999999996
 21
113.6881639999999
 31
0.0
  0
LINE
  5
286
  8
BRACKET
  6
HIDDEN
 10
42.429296999999998
 20
113.58816400000001
 30
0.0
 11
42.429296999999998
 21
117.52616399999989
 31
0.0
  0
LINE
  5
287
  8
BRACKET
 10
50.320296999999989
 20
113.58816400000001
 30
0.0
 11
50.320296999999989
 21
117.52616399999989
 31
0.0
  0
LINE
  5
288
  8
BRACKET
 10
42.320296999999997
 20
113.58816400000001
 30
0.0
 11
42.320296999999997
 21
117.46366399999989
 31
0.0
  0
LINE
  5
289
  8
BRACKET
  6
HIDDEN
 10
50.320296999999989
 20
117.4171639999999
 30
0.0
 11
42.429296999999998
 21
117.4171639999999
 31
0.0
  0
LINE
  5
28A
  8
BRACKET
 10
50.320296999999989
 20
117.52616399999989
 30
0.0
 11
42.429296999999998
 21
117.52616399999989
 31
0.0
  0
LINE
  5
28B
  8
BRACKET
 10
42.429296999999998
 20
117.46366399999989
 30
0.0
 11
42.320296999999997
 21
117.46366399999989
 31
0.0
  0
LINE
  5
28C
  8
HIDDEN
 10
29.418371
 20
117.3756639999999
 30
0.0
 11
29.418371
 21
33.750664
 31
0.0
  0
LINE
  5
28D
  8
HIDDEN
 10
9.6359440000000003
 20
117.3756639999999
 30
0.0
 11
9.6359440000000003
 21
33.750664
 31
0.0
  0
LINE
  5
28E
  8
OBJECT
 10
10.650944000000001
 20
37.475664000000002
 30
0.0
 11
10.650944000000001
 21
113.58866399999999
 31
0.0
  0
LINE
  5
28F
  8
OBJECT
 10
28.403371
 20
37.475664000000002
 30
0.0
 11
28.403371
 21
113.58866399999999
 31
0.0
  0
LINE
  5
290
  8
OBJECT
 10
9.3859440000000003
 20
113.65066399999991
 30
0.0
 11
9.3859440000000003
 21
37.475664000000002
 31
0.0
  0
LINE
  5
291
  8
OBJECT
 10
29.668371
 20
113.65066399999991
 30
0.0
 11
29.668371
 21
37.475664000000002
 31
0.0
  0
LINE
  5
292
  8
HIDDEN
 10
28.403371
 20
33.750664
 30
0.0
 11
28.403371
 21
37.422663999999997
 31
0.0
  0
LINE
  5
293
  8
HIDDEN
 10
10.650944000000001
 20
33.750664
 30
0.0
 11
10.650944000000001
 21
37.422663999999997
 31
0.0
  0
POLYLINE
  5
294
  8
0
 66
     1
 10
0.0
 20
0.0
 30
0.0
 70
     1
  0
VERTEX
  5
7F0
  8
0
 10
10.476499
 20
33.538164000000002
 30
0.0
  0
VERTEX
  5
7F1
  8
0
 10
10.476499
 20
33.316688999999997
 30
0.0
 42
-0.368919
  0
VERTEX
  5
7F2
  8
0
 10
10.314124
 20
33.316688999999997
 30
0.0
 42
-0.185339
  0
VERTEX
  5
7F3
  8
0
 10
9.9893359999999998
 20
33.316688999999997
 30
0.0
 42
-0.368919
  0
VERTEX
  5
7F4
  8
0
 10
9.8269610000000007
 20
33.316688999999997
 30
0.0
  0
VERTEX
  5
7F5
  8
0
 10
9.8269610000000007
 20
33.538164000000002
 30
0.0
  0
SEQEND
  5
7F6
  8
0
  0
LINE
  5
29C
  8
0
 10
9.9081679999999999
 20
33.288164000000002
 30
0.0
 11
10.39529299999999
 21
33.288164000000002
 31
0.0
  0
LINE
  5
29D
  8
HIDDEN
 10
9.3859440000000003
 20
33.750664
 30
0.0
 11
10.650944000000001
 21
33.750664
 31
0.0
  0
LINE
  5
29E
  8
0
 10
9.9893359999999998
 20
33.538164000000002
 30
0.0
 11
9.9893359999999998
 21
33.316688999999997
 31
0.0
  0
LINE
  5
29F
  8
0
 10
10.314124
 20
33.538164000000002
 30
0.0
 11
10.314124
 21
33.316688999999997
 31
0.0
  0
LINE
  5
2A0
  8
HIDDEN
 10
29.668371
 20
33.750664
 30
0.0
 11
28.403371
 21
33.750664
 31
0.0
  0
LINE
  5
2A1
  8
0
 10
29.146146999999988
 20
33.288663999999997
 30
0.0
 11
28.65902199999999
 21
33.288663999999997
 31
0.0
  0
POLYLINE
  5
2A2
  8
0
 66
     1
 10
0.0
 20
0.0
 30
0.0
 70
     1
  0
VERTEX
  5
7F7
  8
0
 10
28.577815000000001
 20
33.538663999999997
 30
0.0
  0
VERTEX
  5
7F8
  8
0
 10
28.577815000000001
 20
33.317188999999999
 30
0.0
 42
0.368919
  0
VERTEX
  5
7F9
  8
0
 10
28.740189999999998
 20
33.317188999999999
 30
0.0
 42
0.185339
  0
VERTEX
  5
7FA
  8
0
 10
29.064978
 20
33.317188999999999
 30
0.0
 42
0.368919
  0
VERTEX
  5
7FB
  8
0
 10
29.227353000000001
 20
33.317188999999999
 30
0.0
  0
VERTEX
  5
7FC
  8
0
 10
29.227353000000001
 20
33.538663999999997
 30
0.0
  0
SEQEND
  5
7FD
  8
0
  0
LINE
  5
2AA
  8
0
 10
29.064978
 20
33.538663999999997
 30
0.0
 11
29.064978
 21
33.317188999999999
 31
0.0
  0
LINE
  5
2AB
  8
0
 10
28.740189999999998
 20
33.538663999999997
 30
0.0
 11
28.740189999999998
 21
33.317188999999999
 31
0.0
  0
ARC
  5
2AC
  8
0
 10
9.370614999999999
 20
36.141289
 30
0.0
 40
0.345098
 50
155.95253600000001
 51
204.04746399999991
  0
LINE
  5
2AD
  8
0
 10
9.2769440000000003
 20
34.500664
 30
0.0
 11
9.0554690000000004
 21
34.500664
 31
0.0
  0
ARC
  5
2AE
  8
0
 10
9.370614999999999
 20
34.641289
 30
0.0
 40
0.345098
 50
155.95253600000001
 51
204.04746399999991
  0
LINE
  5
2AF
  8
0
 10
9.0554690000000004
 20
34.781914
 30
0.0
 11
9.2769440000000003
 21
34.781914
 31
0.0
  0
ARC
  5
2B0
  8
0
 10
9.370614999999999
 20
34.360039
 30
0.0
 40
0.345098
 50
155.95253600000001
 51
204.04746399999991
  0
LINE
  5
2B1
  8
0
 10
9.2769440000000003
 20
34.219414
 30
0.0
 11
9.0554690000000004
 21
34.219414
 31
0.0
  0
LINE
  5
2B2
  8
0
 10
9.0269440000000003
 20
34.67263599999999
 30
0.0
 11
9.0269440000000003
 21
34.32869199999999
 31
0.0
  0
LINE
  5
2B3
  8
0
 10
9.0269440000000003
 20
36.17263599999999
 30
0.0
 11
9.0269440000000003
 21
35.82869199999999
 31
0.0
  0
LINE
  5
2B4
  8
0
 10
9.2769440000000003
 20
35.719414
 30
0.0
 11
9.0554690000000004
 21
35.719414
 31
0.0
  0
ARC
  5
2B5
  8
0
 10
9.370614999999999
 20
35.860039
 30
0.0
 40
0.345098
 50
155.95253600000001
 51
204.04746399999991
  0
LINE
  5
2B6
  8
0
 10
9.2769440000000003
 20
36.000664
 30
0.0
 11
9.0554690000000004
 21
36.000664
 31
0.0
  0
LINE
  5
2B7
  8
0
 10
9.0554690000000004
 20
36.281914
 30
0.0
 11
9.2769440000000003
 21
36.281914
 31
0.0
  0
ARC
  5
2B8
  8
0
 10
29.683700000000002
 20
36.141289
 30
0.0
 40
0.345098
 50
335.95253600000001
 51
24.047464000000002
  0
LINE
  5
2B9
  8
0
 10
30.027370999999999
 20
34.67263599999999
 30
0.0
 11
30.027370999999999
 21
34.32869199999999
 31
0.0
  0
LINE
  5
2BA
  8
0
 10
30.027370999999999
 20
36.17263599999999
 30
0.0
 11
30.027370999999999
 21
35.82869199999999
 31
0.0
  0
LINE
  5
2BB
  8
0
 10
29.777370999999999
 20
34.219414
 30
0.0
 11
29.998846
 21
34.219414
 31
0.0
  0
LINE
  5
2BC
  8
0
 10
29.998846
 20
34.781914
 30
0.0
 11
29.777370999999999
 21
34.781914
 31
0.0
  0
LINE
  5
2BD
  8
0
 10
29.777370999999999
 20
34.500664
 30
0.0
 11
29.998846
 21
34.500664
 31
0.0
  0
LINE
  5
2BE
  8
0
 10
29.777370999999999
 20
36.000664
 30
0.0
 11
29.998846
 21
36.000664
 31
0.0
  0
LINE
  5
2BF
  8
0
 10
29.777370999999999
 20
35.719414
 30
0.0
 11
29.998846
 21
35.719414
 31
0.0
  0
ARC
  5
2C0
  8
0
 10
29.683700000000002
 20
34.360039
 30
0.0
 40
0.345098
 50
335.95253600000001
 51
24.047464000000002
  0
ARC
  5
2C1
  8
0
 10
29.683700000000002
 20
34.641289
 30
0.0
 40
0.345098
 50
335.95253600000001
 51
24.047464000000002
  0
ARC
  5
2C2
  8
0
 10
29.683700000000002
 20
35.860039
 30
0.0
 40
0.345098
 50
335.95253600000001
 51
24.047464000000002
  0
LINE
  5
2C3
  8
0
 10
29.998846
 20
36.281914
 30
0.0
 11
29.777370999999999
 21
36.281914
 31
0.0
  0
POLYLINE
  5
2C4
  8
BRACKET
 66
     1
 10
0.0
 20
0.0
 30
0.0
  0
VERTEX
  5
7FE
  8
BRACKET
 10
28.277370999999999
 20
117.46366399999989
 30
0.0
  0
VERTEX
  5
7FF
  8
BRACKET
 10
26.652370999999999
 20
117.46366399999989
 30
0.0
 42
0.4142140000000001
  0
VERTEX
  5
800
  8
BRACKET
 10
26.402370999999999
 20
117.21366399999989
 30
0.0
  0
VERTEX
  5
801
  8
BRACKET
 10
26.402370999999999
 20
113.83866399999999
 30
0.0
 42
0.4142140000000001
  0
VERTEX
  5
802
  8
BRACKET
 10
26.652370999999999
 20
113.58866399999999
 30
0.0
  0
VERTEX
  5
803
  8
BRACKET
 10
29.777370999999999
 20
113.58866399999999
 30
0.0
  0
VERTEX
  5
804
  8
BRACKET
 10
29.777370999999999
 20
117.40116399999999
 30
0.0
 42
0.4142140000000001
  0
VERTEX
  5
805
  8
BRACKET
 10
29.652370999999999
 20
117.52616399999989
 30
0.0
  0
VERTEX
  5
806
  8
BRACKET
 10
28.277370999999999
 20
117.52616399999989
 30
0.0
  0
VERTEX
  5
807
  8
BRACKET
 10
28.277370999999999
 20
117.4171639999999
 30
0.0
  0
SEQEND
  5
808
  8
BRACKET
  0
LINE
  5
2D0
  8
ANGLE
  6
HIDDEN2
 10
9.2771570000000008
 20
117.58816399999991
 30
0.0
 11
9.2771570000000008
 21
113.6881639999999
 31
0.0
  0
POLYLINE
  5
2D1
  8
BRACKET
  6
HIDDEN
 66
     1
 10
0.0
 20
0.0
 30
0.0
  0
VERTEX
  5
809
  8
BRACKET
  6
HIDDEN
 10
9.3859440000000003
 20
113.58866399999999
 30
0.0
  0
VERTEX
  5
80A
  8
BRACKET
  6
HIDDEN
 10
9.3859440000000003
 20
117.40116399999999
 30
0.0
 42
-0.4142140000000001
  0
VERTEX
  5
80B
  8
BRACKET
  6
HIDDEN
 10
9.4019440000000003
 20
117.4171639999999
 30
0.0
  0
VERTEX
  5
80C
  8
BRACKET
  6
HIDDEN
 10
10.776944
 20
117.4171639999999
 30
0.0
  0
SEQEND
  5
80D
  8
BRACKET
  6
HIDDEN
  0
POLYLINE
  5
2D7
  8
BRACKET
 66
     1
 10
0.0
 20
0.0
 30
0.0
  0
VERTEX
  5
80E
  8
BRACKET
 10
10.776944
 20
117.46366399999989
 30
0.0
  0
VERTEX
  5
80F
  8
BRACKET
 10
12.401944
 20
117.46366399999989
 30
0.0
 42
-0.4142140000000001
  0
VERTEX
  5
810
  8
BRACKET
 10
12.651944
 20
117.21366399999989
 30
0.0
  0
VERTEX
  5
811
  8
BRACKET
 10
12.651944
 20
113.83866399999999
 30
0.0
 42
-0.4142140000000001
  0
VERTEX
  5
812
  8
BRACKET
 10
12.401944
 20
113.58866399999999
 30
0.0
  0
VERTEX
  5
813
  8
BRACKET
 10
9.2769440000000003
 20
113.58866399999999
 30
0.0
  0
VERTEX
  5
814
  8
BRACKET
 10
9.2769440000000003
 20
117.40116399999999
 30
0.0
 42
-0.4142140000000001
  0
VERTEX
  5
815
  8
BRACKET
 10
9.4019440000000003
 20
117.52616399999989
 30
0.0
  0
VERTEX
  5
816
  8
BRACKET
 10
10.776944
 20
117.52616399999989
 30
0.0
  0
VERTEX
  5
817
  8
BRACKET
 10
10.776944
 20
117.4171639999999
 30
0.0
  0
SEQEND
  5
818
  8
BRACKET
  0
LINE
  5
2E3
  8
HIDDEN
 10
10.650944000000001
 20
117.3756639999999
 30
0.0
 11
10.650944000000001
 21
113.71366399999999
 31
0.0
  0
LINE
  5
2E4
  8
ANGLE
  6
HIDDEN2
 10
29.777156999999999
 20
117.58816399999991
 30
0.0
 11
29.777156999999999
 21
113.6881639999999
 31
0.0
  0
POLYLINE
  5
2E5
  8
BRACKET
  6
HIDDEN
 66
     1
 10
0.0
 20
0.0
 30
0.0
  0
VERTEX
  5
819
  8
BRACKET
  6
HIDDEN
 10
29.668371
 20
113.58866399999999
 30
0.0
  0
VERTEX
  5
81A
  8
BRACKET
  6
HIDDEN
 10
29.668371
 20
117.40116399999999
 30
0.0
 42
0.4142140000000001
  0
VERTEX
  5
81B
  8
BRACKET
  6
HIDDEN
 10
29.652370999999999
 20
117.4171639999999
 30
0.0
  0
VERTEX
  5
81C
  8
BRACKET
  6
HIDDEN
 10
28.277370999999999
 20
117.4171639999999
 30
0.0
  0
SEQEND
  5
81D
  8
BRACKET
  6
HIDDEN
  0
LINE
  5
2EB
  8
HIDDEN
 10
28.403371
 20
117.3756639999999
 30
0.0
 11
28.403371
 21
113.71366399999999
 31
0.0
  0
LINE
  5
2EC
  8
ANGLE
 10
9.2771570000000008
 20
117.58816399999991
 30
0.0
 11
29.777156999999999
 21
117.58816399999991
 31
0.0
  0
LINE
  5
2ED
  8
ANGLE
 10
9.2771570000000008
 20
117.52616399999989
 30
0.0
 11
29.777156999999999
 21
117.52616399999989
 31
0.0
  0
LINE
  5
2EE
  8
0
 10
10.314124
 20
117.58816399999991
 30
0.0
 11
10.314124
 21
117.8096389999999
 31
0.0
  0
LINE
  5
2EF
  8
0
 10
9.9893359999999998
 20
117.58816399999991
 30
0.0
 11
9.9893359999999998
 21
117.8096389999999
 31
0.0
  0
LINE
  5
2F0
  8
HIDDEN
 10
9.3859440000000003
 20
117.3756639999999
 30
0.0
 11
10.650944000000001
 21
117.3756639999999
 31
0.0
  0
LINE
  5
2F1
  8
0
 10
9.9081679999999999
 20
117.83816400000001
 30
0.0
 11
10.39529299999999
 21
117.83816400000001
 31
0.0
  0
POLYLINE
  5
2F2
  8
0
 66
     1
 10
0.0
 20
0.0
 30
0.0
 70
     1
  0
VERTEX
  5
81E
  8
0
 10
10.476499
 20
117.58816399999991
 30
0.0
  0
VERTEX
  5
81F
  8
0
 10
10.476499
 20
117.8096389999999
 30
0.0
 42
0.368919
  0
VERTEX
  5
820
  8
0
 10
10.314124
 20
117.8096389999999
 30
0.0
 42
0.185339
  0
VERTEX
  5
821
  8
0
 10
9.9893359999999998
 20
117.8096389999999
 30
0.0
 42
0.368919
  0
VERTEX
  5
822
  8
0
 10
9.8269610000000007
 20
117.8096389999999
 30
0.0
  0
VERTEX
  5
823
  8
0
 10
9.8269610000000007
 20
117.58816399999991
 30
0.0
  0
SEQEND
  5
824
  8
0
  0
LINE
  5
2FA
  8
HIDDEN
 10
29.668371
 20
117.3756639999999
 30
0.0
 11
28.403371
 21
117.3756639999999
 31
0.0
  0
LINE
  5
2FB
  8
0
 10
28.740189999999998
 20
117.58816399999991
 30
0.0
 11
28.740189999999998
 21
117.8096389999999
 31
0.0
  0
LINE
  5
2FC
  8
0
 10
29.064978
 20
117.58816399999991
 30
0.0
 11
29.064978
 21
117.8096389999999
 31
0.0
  0
POLYLINE
  5
2FD
  8
0
 66
     1
 10
0.0
 20
0.0
 30
0.0
 70
     1
  0
VERTEX
  5
825
  8
0
 10
28.577815000000001
 20
117.58816399999991
 30
0.0
  0
VERTEX
  5
826
  8
0
 10
28.577815000000001
 20
117.8096389999999
 30
0.0
 42
-0.368919
  0
VERTEX
  5
827
  8
0
 10
28.740189999999998
 20
117.8096389999999
 30
0.0
 42
-0.185339
  0
VERTEX
  5
828
  8
0
 10
29.064978
 20
117.8096389999999
 30
0.0
 42
-0.368919
  0
VERTEX
  5
829
  8
0
 10
29.227353000000001
 20
117.8096389999999
 30
0.0
  0
VERTEX
  5
82A
  8
0
 10
29.227353000000001
 20
117.58816399999991
 30
0.0
  0
SEQEND
  5
82B
  8
0
  0
LINE
  5
305
  8
0
 10
29.146146999999988
 20
117.83816400000001
 30
0.0
 11
28.65902199999999
 21
117.83816400000001
 31
0.0
  0
LINE
  5
306
  8
ANGLE
 10
12.60156799999999
 20
113.6881639999999
 30
0.0
 11
26.452746999999992
 21
113.6881639999999
 31
0.0
  0
ARC
  5
307
  8
0
 10
9.370614999999999
 20
114.9850389999999
 30
0.0
 40
0.345098
 50
155.95253600000001
 51
204.04746399999991
  0
LINE
  5
308
  8
0
 10
9.2769440000000003
 20
115.1256639999999
 30
0.0
 11
9.0554690000000004
 21
115.1256639999999
 31
0.0
  0
ARC
  5
309
  8
0
 10
9.370614999999999
 20
115.2662889999999
 30
0.0
 40
0.345098
 50
155.95253600000001
 51
204.04746399999991
  0
LINE
  5
30A
  8
0
 10
9.2769440000000003
 20
115.4069139999999
 30
0.0
 11
9.0554690000000004
 21
115.4069139999999
 31
0.0
  0
LINE
  5
30B
  8
0
 10
9.0269440000000003
 20
114.9536919999999
 30
0.0
 11
9.0269440000000003
 21
115.297636
 31
0.0
  0
LINE
  5
30C
  8
0
 10
9.0269440000000003
 20
116.4536919999999
 30
0.0
 11
9.0269440000000003
 21
116.797636
 31
0.0
  0
LINE
  5
30D
  8
0
 10
9.2769440000000003
 20
116.9069139999999
 30
0.0
 11
9.0554690000000004
 21
116.9069139999999
 31
0.0
  0
ARC
  5
30E
  8
0
 10
9.370614999999999
 20
116.7662889999999
 30
0.0
 40
0.345098
 50
155.95253600000001
 51
204.04746399999991
  0
LINE
  5
30F
  8
0
 10
9.0554690000000004
 20
116.3444139999999
 30
0.0
 11
9.2769440000000003
 21
116.3444139999999
 31
0.0
  0
ARC
  5
310
  8
0
 10
9.370614999999999
 20
116.4850389999999
 30
0.0
 40
0.345098
 50
155.95253600000001
 51
204.04746399999991
  0
LINE
  5
311
  8
0
 10
9.2769440000000003
 20
116.6256639999999
 30
0.0
 11
9.0554690000000004
 21
116.6256639999999
 31
0.0
  0
CIRCLE
  5
312
  8
BRACKET
 10
11.526944
 20
116.40116399999999
 30
0.0
 40
0.25
  0
LINE
  5
313
  8
ANGLE
  6
HIDDEN2
 10
9.2771570000000008
 20
113.6881639999999
 30
0.0
 11
12.526944
 21
113.6881639999999
 31
0.0
  0
LINE
  5
314
  8
0
 10
9.0554690000000004
 20
114.8444139999999
 30
0.0
 11
9.2769440000000003
 21
114.8444139999999
 31
0.0
  0
CIRCLE
  5
315
  8
BRACKET
 10
11.526944
 20
114.40116399999989
 30
0.0
 40
0.25
  0
ARC
  5
316
  8
0
 10
29.683700000000002
 20
114.9850389999999
 30
0.0
 40
0.345098
 50
335.95253600000001
 51
24.047464000000002
  0
CIRCLE
  5
317
  8
BRACKET
 10
27.527370999999999
 20
116.40116399999999
 30
0.0
 40
0.25
  0
ARC
  5
318
  8
0
 10
29.683700000000002
 20
115.2662889999999
 30
0.0
 40
0.345098
 50
335.95253600000001
 51
24.047464000000002
  0
ARC
  5
319
  8
0
 10
29.683700000000002
 20
116.4850389999999
 30
0.0
 40
0.345098
 50
335.95253600000001
 51
24.047464000000002
  0
ARC
  5
31A
  8
0
 10
29.683700000000002
 20
116.7662889999999
 30
0.0
 40
0.345098
 50
335.95253600000001
 51
24.047464000000002
  0
LINE
  5
31B
  8
0
 10
29.777370999999999
 20
115.4069139999999
 30
0.0
 11
29.998846
 21
115.4069139999999
 31
0.0
  0
LINE
  5
31C
  8
0
 10
29.777370999999999
 20
115.1256639999999
 30
0.0
 11
29.998846
 21
115.1256639999999
 31
0.0
  0
LINE
  5
31D
  8
0
 10
29.777370999999999
 20
116.6256639999999
 30
0.0
 11
29.998846
 21
116.6256639999999
 31
0.0
  0
LINE
  5
31E
  8
0
 10
29.998846
 20
116.3444139999999
 30
0.0
 11
29.777370999999999
 21
116.3444139999999
 31
0.0
  0
LINE
  5
31F
  8
0
 10
29.777370999999999
 20
116.9069139999999
 30
0.0
 11
29.998846
 21
116.9069139999999
 31
0.0
  0
LINE
  5
320
  8
0
 10
30.027370999999999
 20
114.9536919999999
 30
0.0
 11
30.027370999999999
 21
115.297636
 31
0.0
  0
LINE
  5
321
  8
0
 10
30.027370999999999
 20
116.4536919999999
 30
0.0
 11
30.027370999999999
 21
116.797636
 31
0.0
  0
CIRCLE
  5
322
  8
BRACKET
 10
27.527370999999999
 20
114.40116399999989
 30
0.0
 40
0.25
  0
LINE
  5
323
  8
ANGLE
  6
HIDDEN2
 10
26.527370999999999
 20
113.6881639999999
 30
0.0
 11
29.777156999999999
 21
113.6881639999999
 31
0.0
  0
LINE
  5
324
  8
0
 10
29.998846
 20
114.8444139999999
 30
0.0
 11
29.777370999999999
 21
114.8444139999999
 31
0.0
  0
LINE
  5
325
  8
BRACKET
 10
79.337275000000005
 20
113.58866399999999
 30
0.0
 11
79.337275000000005
 21
117.40116399999999
 31
0.0
  0
LINE
  5
326
  8
BRACKET
 10
58.836848000000003
 20
113.58866399999999
 30
0.0
 11
58.836848000000003
 21
117.40116399999999
 31
0.0
  0
LINE
  5
327
  8
HIDDEN
 10
77.963274999999996
 20
117.3756639999999
 30
0.0
 11
77.963274999999996
 21
113.8131639999999
 31
0.0
  0
POLYLINE
  5
328
  8
BRACKET
  6
HIDDEN
 66
     1
 10
0.0
 20
0.0
 30
0.0
  0
VERTEX
  5
82C
  8
BRACKET
  6
HIDDEN
 10
79.228274999999996
 20
113.58866399999999
 30
0.0
  0
VERTEX
  5
82D
  8
BRACKET
  6
HIDDEN
 10
79.228274999999996
 20
117.40116399999999
 30
0.0
 42
0.4142140000000001
  0
VERTEX
  5
82E
  8
BRACKET
  6
HIDDEN
 10
79.212275000000005
 20
117.4171639999999
 30
0.0
  0
VERTEX
  5
82F
  8
BRACKET
  6
HIDDEN
 10
77.837275000000005
 20
117.4171639999999
 30
0.0
  0
SEQEND
  5
830
  8
BRACKET
  6
HIDDEN
  0
LINE
  5
32E
  8
ANGLE
 10
79.337061000000006
 20
117.58816399999991
 30
0.0
 11
79.337061000000006
 21
113.6881639999999
 31
0.0
  0
LINE
  5
32F
  8
HIDDEN
 10
60.210847999999999
 20
117.3756639999999
 30
0.0
 11
60.210847999999999
 21
113.8131639999999
 31
0.0
  0
POLYLINE
  5
330
  8
BRACKET
  6
HIDDEN
 66
     1
 10
0.0
 20
0.0
 30
0.0
  0
VERTEX
  5
831
  8
BRACKET
  6
HIDDEN
 10
58.945847999999998
 20
113.58866399999999
 30
0.0
  0
VERTEX
  5
832
  8
BRACKET
  6
HIDDEN
 10
58.945847999999998
 20
117.40116399999999
 30
0.0
 42
-0.4142140000000001
  0
VERTEX
  5
833
  8
BRACKET
  6
HIDDEN
 10
58.961848000000003
 20
117.4171639999999
 30
0.0
  0
VERTEX
  5
834
  8
BRACKET
  6
HIDDEN
 10
60.336847999999989
 20
117.4171639999999
 30
0.0
  0
SEQEND
  5
835
  8
BRACKET
  6
HIDDEN
  0
LINE
  5
336
  8
ANGLE
 10
58.837060999999999
 20
117.58816399999991
 30
0.0
 11
58.837060999999999
 21
113.6881639999999
 31
0.0
  0
LINE
  5
337
  8
ANGLE
  6
HIDDEN
 10
58.837060999999999
 20
117.52616399999989
 30
0.0
 11
79.337061000000006
 21
117.52616399999989
 31
0.0
  0
LINE
  5
338
  8
ANGLE
 10
58.837060999999999
 20
117.58816399999991
 30
0.0
 11
79.337061000000006
 21
117.58816399999991
 31
0.0
  0
LINE
  5
339
  8
BRACKET
  6
HIDDEN
 10
58.961848000000003
 20
117.52616399999989
 30
0.0
 11
60.336847999999989
 21
117.52616399999989
 31
0.0
  0
POLYLINE
  5
33A
  8
0
 66
     1
 10
0.0
 20
0.0
 30
0.0
 70
     1
  0
VERTEX
  5
836
  8
0
 10
60.036403
 20
117.58816399999991
 30
0.0
  0
VERTEX
  5
837
  8
0
 10
60.036403
 20
117.8096389999999
 30
0.0
 42
0.368919
  0
VERTEX
  5
838
  8
0
 10
59.874028000000003
 20
117.8096389999999
 30
0.0
 42
0.185339
  0
VERTEX
  5
839
  8
0
 10
59.549241000000002
 20
117.8096389999999
 30
0.0
 42
0.368919
  0
VERTEX
  5
83A
  8
0
 10
59.386865999999998
 20
117.8096389999999
 30
0.0
  0
VERTEX
  5
83B
  8
0
 10
59.386865999999998
 20
117.58816399999991
 30
0.0
  0
SEQEND
  5
83C
  8
0
  0
LINE
  5
342
  8
0
 10
59.468071999999999
 20
117.83816400000001
 30
0.0
 11
59.955196999999998
 21
117.83816400000001
 31
0.0
  0
LINE
  5
343
  8
HIDDEN
 10
58.945847999999998
 20
117.3756639999999
 30
0.0
 11
60.210847999999999
 21
117.3756639999999
 31
0.0
  0
ARC
  5
344
  8
BRACKET
  6
HIDDEN2
 10
58.961848000000003
 20
117.40116399999999
 30
0.0
 40
0.125
 50
90.0
 51
180.0
  0
LINE
  5
345
  8
0
 10
59.549241000000002
 20
117.58816399999991
 30
0.0
 11
59.549241000000002
 21
117.8096389999999
 31
0.0
  0
LINE
  5
346
  8
BRACKET
  6
HIDDEN
 10
60.336847999999989
 20
117.52616399999989
 30
0.0
 11
60.336847999999989
 21
117.4171639999999
 31
0.0
  0
LINE
  5
347
  8
0
 10
59.874028000000003
 20
117.58816399999991
 30
0.0
 11
59.874028000000003
 21
117.8096389999999
 31
0.0
  0
LINE
  5
348
  8
BRACKET
  6
HIDDEN
 10
79.212275000000005
 20
117.52616399999989
 30
0.0
 11
77.837275000000005
 21
117.52616399999989
 31
0.0
  0
LINE
  5
349
  8
HIDDEN
 10
79.228274999999996
 20
117.3756639999999
 30
0.0
 11
77.963274999999996
 21
117.3756639999999
 31
0.0
  0
LINE
  5
34A
  8
BRACKET
  6
HIDDEN
 10
77.837275000000005
 20
117.52616399999989
 30
0.0
 11
77.837275000000005
 21
117.4171639999999
 31
0.0
  0
LINE
  5
34B
  8
0
 10
78.706051000000002
 20
117.8376639999999
 30
0.0
 11
78.218925999999996
 21
117.8376639999999
 31
0.0
  0
POLYLINE
  5
34C
  8
0
 66
     1
 10
0.0
 20
0.0
 30
0.0
 70
     1
  0
VERTEX
  5
83D
  8
0
 10
78.137718999999976
 20
117.587664
 30
0.0
  0
VERTEX
  5
83E
  8
0
 10
78.137718999999976
 20
117.8091389999999
 30
0.0
 42
-0.368919
  0
VERTEX
  5
83F
  8
0
 10
78.300094000000001
 20
117.8091389999999
 30
0.0
 42
-0.185339
  0
VERTEX
  5
840
  8
0
 10
78.624881999999999
 20
117.8091389999999
 30
0.0
 42
-0.368919
  0
VERTEX
  5
841
  8
0
 10
78.787256999999997
 20
117.8091389999999
 30
0.0
  0
VERTEX
  5
842
  8
0
 10
78.787256999999997
 20
117.587664
 30
0.0
  0
SEQEND
  5
843
  8
0
  0
LINE
  5
354
  8
0
 10
78.624881999999999
 20
117.587664
 30
0.0
 11
78.624881999999999
 21
117.8091389999999
 31
0.0
  0
LINE
  5
355
  8
0
 10
78.300094000000001
 20
117.587664
 30
0.0
 11
78.300094000000001
 21
117.8091389999999
 31
0.0
  0
ARC
  5
356
  8
BRACKET
  6
HIDDEN2
 10
79.212275000000005
 20
117.40116399999999
 30
0.0
 40
0.125
 50
0.0
 51
90.0
  0
LINE
  5
357
  8
ANGLE
 10
58.837060999999999
 20
113.6881639999999
 30
0.0
 11
79.337061000000006
 21
113.6881639999999
 31
0.0
  0
LINE
  5
358
  8
BRACKET
 10
61.961848000000003
 20
113.58866399999999
 30
0.0
 11
60.210847999999999
 21
113.58866399999999
 31
0.0
  0
POLYLINE
  5
359
  8
0
  6
BYBLOCK
 62
     0
 66
     1
 10
0.0
 20
0.0
 30
0.0
 70
     1
  0
VERTEX
  5
844
  8
0
  6
BYBLOCK
 62
     0
 10
59.392468000000008
 20
116.9069139999999
 30
0.0
  0
VERTEX
  5
845
  8
0
  6
BYBLOCK
 62
     0
 10
59.230088000000002
 20
116.6256639999999
 30
0.0
  0
VERTEX
  5
846
  8
0
  6
BYBLOCK
 62
     0
 10
59.392468000000008
 20
116.3444139999999
 30
0.0
  0
VERTEX
  5
847
  8
0
  6
BYBLOCK
 62
     0
 10
59.717228000000013
 20
116.3444139999999
 30
0.0
  0
VERTEX
  5
848
  8
0
  6
BYBLOCK
 62
     0
 10
59.879606999999993
 20
116.6256639999999
 30
0.0
  0
VERTEX
  5
849
  8
0
  6
BYBLOCK
 62
     0
 10
59.717228000000013
 20
116.9069139999999
 30
0.0
  0
SEQEND
  5
84A
  8
0
  6
BYBLOCK
 62
     0
  0
POLYLINE
  5
361
  8
0
  6
BYBLOCK
 62
     0
 66
     1
 10
0.0
 20
0.0
 30
0.0
 70
     1
  0
VERTEX
  5
84B
  8
0
  6
BYBLOCK
 62
     0
 10
59.392468000000008
 20
115.4069139999999
 30
0.0
  0
VERTEX
  5
84C
  8
0
  6
BYBLOCK
 62
     0
 10
59.230088000000002
 20
115.1256639999999
 30
0.0
  0
VERTEX
  5
84D
  8
0
  6
BYBLOCK
 62
     0
 10
59.392468000000008
 20
114.8444139999999
 30
0.0
  0
VERTEX
  5
84E
  8
0
  6
BYBLOCK
 62
     0
 10
59.717228000000013
 20
114.8444139999999
 30
0.0
  0
VERTEX
  5
84F
  8
0
  6
BYBLOCK
 62
     0
 10
59.879606999999993
 20
115.1256639999999
 30
0.0
  0
VERTEX
  5
850
  8
0
  6
BYBLOCK
 62
     0
 10
59.717228000000013
 20
115.4069139999999
 30
0.0
  0
SEQEND
  5
851
  8
0
  6
BYBLOCK
 62
     0
  0
ARC
  5
369
  8
0
 10
58.93051899999999
 20
114.9850389999999
 30
0.0
 40
0.345098
 50
155.95253600000001
 51
204.04746399999991
  0
LINE
  5
36A
  8
0
 10
58.836848000000003
 20
116.6256639999999
 30
0.0
 11
58.615372999999998
 21
116.6256639999999
 31
0.0
  0
ARC
  5
36B
  8
0
 10
58.93051899999999
 20
116.4850389999999
 30
0.0
 40
0.345098
 50
155.95253600000001
 51
204.04746399999991
  0
LINE
  5
36C
  8
0
 10
58.615372999999998
 20
116.3444139999999
 30
0.0
 11
58.836848000000003
 21
116.3444139999999
 31
0.0
  0
ARC
  5
36D
  8
0
 10
58.93051899999999
 20
116.7662889999999
 30
0.0
 40
0.345098
 50
155.95253600000001
 51
204.04746399999991
  0
LINE
  5
36E
  8
0
 10
58.836848000000003
 20
116.9069139999999
 30
0.0
 11
58.615372999999998
 21
116.9069139999999
 31
0.0
  0
LINE
  5
36F
  8
0
 10
58.586847999999989
 20
116.4536919999999
 30
0.0
 11
58.586847999999989
 21
116.797636
 31
0.0
  0
LINE
  5
370
  8
0
 10
58.586847999999989
 20
114.9536919999999
 30
0.0
 11
58.586847999999989
 21
115.297636
 31
0.0
  0
LINE
  5
371
  8
0
 10
58.836848000000003
 20
115.4069139999999
 30
0.0
 11
58.615372999999998
 21
115.4069139999999
 31
0.0
  0
ARC
  5
372
  8
0
 10
58.93051899999999
 20
115.2662889999999
 30
0.0
 40
0.345098
 50
155.95253600000001
 51
204.04746399999991
  0
LINE
  5
373
  8
0
 10
58.836848000000003
 20
115.1256639999999
 30
0.0
 11
58.615372999999998
 21
115.1256639999999
 31
0.0
  0
LINE
  5
374
  8
0
 10
58.615372999999998
 20
114.8444139999999
 30
0.0
 11
58.836848000000003
 21
114.8444139999999
 31
0.0
  0
ARC
  5
375
  8
BRACKET
  6
HIDDEN2
 10
61.961848000000003
 20
113.83866399999999
 30
0.0
 40
0.25
 50
270.0
 51
322.98672799999991
  0
LINE
  5
376
  8
BRACKET
 10
76.212275000000005
 20
113.58866399999999
 30
0.0
 11
77.963274999999996
 21
113.58866399999999
 31
0.0
  0
ARC
  5
377
  8
BRACKET
  6
HIDDEN2
 10
76.212275000000005
 20
113.83866399999999
 30
0.0
 40
0.25
 50
217.013272
 51
270.0
  0
POLYLINE
  5
378
  8
0
  6
BYBLOCK
 62
     0
 66
     1
 10
0.0
 20
0.0
 30
0.0
 70
     1
  0
VERTEX
  5
852
  8
0
  6
BYBLOCK
 62
     0
 10
78.781655000000001
 20
115.4069139999999
 30
0.0
  0
VERTEX
  5
853
  8
0
  6
BYBLOCK
 62
     0
 10
78.944034000000002
 20
115.1256639999999
 30
0.0
  0
VERTEX
  5
854
  8
0
  6
BYBLOCK
 62
     0
 10
78.781655000000001
 20
114.8444139999999
 30
0.0
  0
VERTEX
  5
855
  8
0
  6
BYBLOCK
 62
     0
 10
78.456894999999975
 20
114.8444139999999
 30
0.0
  0
VERTEX
  5
856
  8
0
  6
BYBLOCK
 62
     0
 10
78.294515000000004
 20
115.1256639999999
 30
0.0
  0
VERTEX
  5
857
  8
0
  6
BYBLOCK
 62
     0
 10
78.456894999999975
 20
115.4069139999999
 30
0.0
  0
SEQEND
  5
858
  8
0
  6
BYBLOCK
 62
     0
  0
ARC
  5
380
  8
0
 10
79.243604000000005
 20
114.9850389999999
 30
0.0
 40
0.345098
 50
335.95253600000001
 51
24.047464000000002
  0
POLYLINE
  5
381
  8
0
  6
BYBLOCK
 62
     0
 66
     1
 10
0.0
 20
0.0
 30
0.0
 70
     1
  0
VERTEX
  5
859
  8
0
  6
BYBLOCK
 62
     0
 10
78.781655000000001
 20
116.9069139999999
 30
0.0
  0
VERTEX
  5
85A
  8
0
  6
BYBLOCK
 62
     0
 10
78.944034000000002
 20
116.6256639999999
 30
0.0
  0
VERTEX
  5
85B
  8
0
  6
BYBLOCK
 62
     0
 10
78.781655000000001
 20
116.3444139999999
 30
0.0
  0
VERTEX
  5
85C
  8
0
  6
BYBLOCK
 62
     0
 10
78.456894999999975
 20
116.3444139999999
 30
0.0
  0
VERTEX
  5
85D
  8
0
  6
BYBLOCK
 62
     0
 10
78.294515000000004
 20
116.6256639999999
 30
0.0
  0
VERTEX
  5
85E
  8
0
  6
BYBLOCK
 62
     0
 10
78.456894999999975
 20
116.9069139999999
 30
0.0
  0
SEQEND
  5
85F
  8
0
  6
BYBLOCK
 62
     0
  0
LINE
  5
389
  8
0
 10
79.587275000000005
 20
116.4536919999999
 30
0.0
 11
79.587275000000005
 21
116.797636
 31
0.0
  0
LINE
  5
38A
  8
0
 10
79.587275000000005
 20
114.9536919999999
 30
0.0
 11
79.587275000000005
 21
115.297636
 31
0.0
  0
LINE
  5
38B
  8
0
 10
79.337275000000005
 20
116.9069139999999
 30
0.0
 11
79.558750000000003
 21
116.9069139999999
 31
0.0
  0
LINE
  5
38C
  8
0
 10
79.558750000000003
 20
116.3444139999999
 30
0.0
 11
79.337275000000005
 21
116.3444139999999
 31
0.0
  0
LINE
  5
38D
  8
0
 10
79.337275000000005
 20
116.6256639999999
 30
0.0
 11
79.558750000000003
 21
116.6256639999999
 31
0.0
  0
LINE
  5
38E
  8
0
 10
79.337275000000005
 20
115.1256639999999
 30
0.0
 11
79.558750000000003
 21
115.1256639999999
 31
0.0
  0
LINE
  5
38F
  8
0
 10
79.337275000000005
 20
115.4069139999999
 30
0.0
 11
79.558750000000003
 21
115.4069139999999
 31
0.0
  0
ARC
  5
390
  8
0
 10
79.243604000000005
 20
116.7662889999999
 30
0.0
 40
0.345098
 50
335.95253600000001
 51
24.047464000000002
  0
ARC
  5
391
  8
0
 10
79.243604000000005
 20
116.4850389999999
 30
0.0
 40
0.345098
 50
335.95253600000001
 51
24.047464000000002
  0
ARC
  5
392
  8
0
 10
79.243604000000005
 20
115.2662889999999
 30
0.0
 40
0.345098
 50
335.95253600000001
 51
24.047464000000002
  0
LINE
  5
393
  8
0
 10
79.558750000000003
 20
114.8444139999999
 30
0.0
 11
79.337275000000005
 21
114.8444139999999
 31
0.0
  0
LINE
  5
394
  8
ANGLE
 10
29.777156999999999
 20
19.318484999999999
 30
0.0
 11
9.2771570000000008
 21
19.318484999999999
 31
0.0
  0
LINE
  5
395
  8
ANGLE
  6
HIDDEN
 10
29.777156999999999
 20
19.380485
 30
0.0
 11
9.2771570000000008
 21
19.380485
 31
0.0
  0
LINE
  5
396
  8
ANGLE
 10
29.777156999999999
 20
22.368485
 30
0.0
 11
9.2771570000000008
 21
22.368485
 31
0.0
  0
LINE
  5
397
  8
BRACKET
  6
HIDDEN
 10
28.277370999999999
 20
19.412485
 30
0.0
 11
28.277370999999999
 21
22.272484999999989
 31
0.0
  0
LINE
  5
398
  8
BRACKET
 10
29.777370999999999
 20
19.412485
 30
0.0
 11
29.777370999999999
 21
27.287485
 31
0.0
  0
LINE
  5
399
  8
BRACKET
  6
HIDDEN
 10
29.668371
 20
19.412485
 30
0.0
 11
29.668371
 21
27.287485
 31
0.0
  0
LINE
  5
39A
  8
BRACKET
 10
26.402370999999999
 20
27.41248499999999
 30
0.0
 11
29.652370999999999
 21
27.41248499999999
 31
0.0
  0
LINE
  5
39B
  8
BRACKET
 10
26.402370999999999
 20
27.303484999999991
 30
0.0
 11
29.652370999999999
 21
27.303484999999991
 31
0.0
  0
ARC
  5
39C
  8
BRACKET
 10
29.652370999999999
 20
27.287485
 30
0.0
 40
0.016
 50
0.0
 51
90.0
  0
ARC
  5
39D
  8
BRACKET
 10
29.652370999999999
 20
27.287485
 30
0.0
 40
0.125
 50
0.0
 51
90.0
  0
LINE
  5
39E
  8
BRACKET
 10
26.402370999999999
 20
27.41248499999999
 30
0.0
 11
26.402370999999999
 21
27.303484999999991
 31
0.0
  0
LINE
  5
39F
  8
ANGLE
 10
29.777156999999999
 20
19.318484999999999
 30
0.0
 11
29.777156999999999
 21
22.368485
 31
0.0
  0
POLYLINE
  5
3A0
  8
HIDDEN
  6
HIDDEN
 66
     1
 10
0.0
 20
0.0
 30
0.0
 70
     1
  0
VERTEX
  5
860
  8
HIDDEN
  6
HIDDEN
 10
29.356370999999999
 20
22.193484999999999
 30
0.0
 42
-0.4142140000000001
  0
VERTEX
  5
861
  8
HIDDEN
  6
HIDDEN
 10
29.512371000000002
 20
22.037485
 30
0.0
  0
VERTEX
  5
862
  8
HIDDEN
  6
HIDDEN
 10
29.512371000000002
 20
19.723485
 30
0.0
 42
-0.4142140000000001
  0
VERTEX
  5
863
  8
HIDDEN
  6
HIDDEN
 10
29.356370999999999
 20
19.567485000000001
 30
0.0
  0
VERTEX
  5
864
  8
HIDDEN
  6
HIDDEN
 10
28.493371
 20
19.567485000000001
 30
0.0
 42
0.4142140000000001
  0
VERTEX
  5
865
  8
HIDDEN
  6
HIDDEN
 10
28.403371
 20
19.477485000000001
 30
0.0
  0
VERTEX
  5
866
  8
HIDDEN
  6
HIDDEN
 10
28.403371
 20
19.380485
 30
0.0
  0
VERTEX
  5
867
  8
HIDDEN
  6
HIDDEN
 10
29.668371
 20
19.380485
 30
0.0
  0
VERTEX
  5
868
  8
HIDDEN
  6
HIDDEN
 10
29.668371
 20
22.380485
 30
0.0
  0
VERTEX
  5
869
  8
HIDDEN
  6
HIDDEN
 10
28.403371
 20
22.380485
 30
0.0
  0
VERTEX
  5
86A
  8
HIDDEN
  6
HIDDEN
 10
28.403371
 20
22.283484999999999
 30
0.0
 42
0.4142140000000001
  0
VERTEX
  5
86B
  8
HIDDEN
  6
HIDDEN
 10
28.493371
 20
22.193484999999999
 30
0.0
  0
SEQEND
  5
86C
  8
HIDDEN
  6
HIDDEN
  0
POLYLINE
  5
3AE
  8
0
  6
BYBLOCK
 62
     0
 66
     1
 10
0.0
 20
0.0
 30
0.0
 70
     1
  0
VERTEX
  5
86D
  8
0
  6
BYBLOCK
 62
     0
 10
29.06475
 20
21.212235
 30
0.0
  0
VERTEX
  5
86E
  8
0
  6
BYBLOCK
 62
     0
 10
29.227129999999988
 20
21.493484999999989
 30
0.0
  0
VERTEX
  5
86F
  8
0
  6
BYBLOCK
 62
     0
 10
29.06475
 20
21.774735
 30
0.0
  0
VERTEX
  5
870
  8
0
  6
BYBLOCK
 62
     0
 10
28.739990999999989
 20
21.774735
 30
0.0
  0
VERTEX
  5
871
  8
0
  6
BYBLOCK
 62
     0
 10
28.57761099999999
 20
21.493484999999989
 30
0.0
  0
VERTEX
  5
872
  8
0
  6
BYBLOCK
 62
     0
 10
28.739990999999989
 20
21.212235
 30
0.0
  0
SEQEND
  5
873
  8
0
  6
BYBLOCK
 62
     0
  0
LINE
  5
3B6
  8
BRACKET
 10
28.277370999999999
 20
19.412485
 30
0.0
 11
29.777370999999999
 21
19.412485
 31
0.0
  0
LINE
  5
3B7
  8
0
 10
29.777370999999999
 20
20.689091000000001
 30
0.0
 11
29.998846
 21
20.689091000000001
 31
0.0
  0
LINE
  5
3B8
  8
0
 10
29.777370999999999
 20
21.013877999999991
 30
0.0
 11
29.998846
 21
21.013877999999991
 31
0.0
  0
POLYLINE
  5
3B9
  8
0
 66
     1
 10
0.0
 20
0.0
 30
0.0
 70
     1
  0
VERTEX
  5
874
  8
0
 10
29.777370999999999
 20
20.526716
 30
0.0
  0
VERTEX
  5
875
  8
0
 10
29.998846
 20
20.526716
 30
0.0
 42
0.368919
  0
VERTEX
  5
876
  8
0
 10
29.998846
 20
20.689091000000001
 30
0.0
 42
0.185339
  0
VERTEX
  5
877
  8
0
 10
29.998846
 20
21.013877999999991
 30
0.0
 42
0.368919
  0
VERTEX
  5
878
  8
0
 10
29.998846
 20
21.176252999999988
 30
0.0
  0
VERTEX
  5
879
  8
0
 10
29.777370999999999
 20
21.176252999999988
 30
0.0
  0
SEQEND
  5
87A
  8
0
  0
LINE
  5
3C1
  8
0
 10
30.027370999999999
 20
21.095047000000001
 30
0.0
 11
30.027370999999999
 21
20.607921999999991
 31
0.0
  0
POLYLINE
  5
3C2
  8
0
 66
     1
 10
0.0
 20
0.0
 30
0.0
 70
     1
  0
VERTEX
  5
87B
  8
0
 10
28.734601999999999
 20
19.318484999999999
 30
0.0
  0
VERTEX
  5
87C
  8
0
 10
28.734601999999999
 20
19.097010000000001
 30
0.0
 42
0.368919
  0
VERTEX
  5
87D
  8
0
 10
28.896977
 20
19.097010000000001
 30
0.0
 42
0.185339
  0
VERTEX
  5
87E
  8
0
 10
29.221764
 20
19.097010000000001
 30
0.0
 42
0.368919
  0
VERTEX
  5
87F
  8
0
 10
29.384139000000001
 20
19.097010000000001
 30
0.0
  0
VERTEX
  5
880
  8
0
 10
29.384139000000001
 20
19.318484999999999
 30
0.0
  0
SEQEND
  5
881
  8
0
  0
LINE
  5
3CA
  8
0
 10
29.302932999999999
 20
19.068484999999988
 30
0.0
 11
28.815808000000001
 21
19.068484999999988
 31
0.0
  0
LINE
  5
3CB
  8
0
 10
29.221764
 20
19.318484999999999
 30
0.0
 11
29.221764
 21
19.097010000000001
 31
0.0
  0
LINE
  5
3CC
  8
0
 10
28.896977
 20
19.318484999999999
 30
0.0
 11
28.896977
 21
19.097010000000001
 31
0.0
  0
LINE
  5
3CD
  8
BRACKET
  6
HIDDEN
 10
9.3859440000000003
 20
19.412485
 30
0.0
 11
9.3859440000000003
 21
27.287485
 31
0.0
  0
LINE
  5
3CE
  8
BRACKET
 10
9.2769440000000003
 20
19.412485
 30
0.0
 11
9.2769440000000003
 21
27.287485
 31
0.0
  0
LINE
  5
3CF
  8
BRACKET
  6
HIDDEN
 10
10.776944
 20
19.412485
 30
0.0
 11
10.776944
 21
22.272484999999989
 31
0.0
  0
LINE
  5
3D0
  8
BRACKET
 10
12.651944
 20
27.303484999999991
 30
0.0
 11
9.4019440000000003
 21
27.303484999999991
 31
0.0
  0
LINE
  5
3D1
  8
BRACKET
 10
12.651944
 20
27.41248499999999
 30
0.0
 11
9.4019440000000003
 21
27.41248499999999
 31
0.0
  0
LINE
  5
3D2
  8
BRACKET
 10
12.651944
 20
27.41248499999999
 30
0.0
 11
12.651944
 21
27.303484999999991
 31
0.0
  0
ARC
  5
3D3
  8
BRACKET
 10
9.4019440000000003
 20
27.287485
 30
0.0
 40
0.125
 50
90.0
 51
180.0
  0
ARC
  5
3D4
  8
BRACKET
 10
9.4019440000000003
 20
27.287485
 30
0.0
 40
0.016
 50
90.0
 51
180.0
  0
LINE
  5
3D5
  8
ANGLE
 10
9.2771570000000008
 20
19.318484999999999
 30
0.0
 11
9.2771570000000008
 21
22.368485
 31
0.0
  0
POLYLINE
  5
3D6
  8
HIDDEN
  6
HIDDEN
 66
     1
 10
0.0
 20
0.0
 30
0.0
 70
     1
  0
VERTEX
  5
882
  8
HIDDEN
  6
HIDDEN
 10
9.6979439999999997
 20
22.193484999999999
 30
0.0
 42
0.4142140000000001
  0
VERTEX
  5
883
  8
HIDDEN
  6
HIDDEN
 10
9.5419440000000009
 20
22.037485
 30
0.0
  0
VERTEX
  5
884
  8
HIDDEN
  6
HIDDEN
 10
9.5419440000000009
 20
19.723485
 30
0.0
 42
0.4142140000000001
  0
VERTEX
  5
885
  8
HIDDEN
  6
HIDDEN
 10
9.6979439999999997
 20
19.567485000000001
 30
0.0
  0
VERTEX
  5
886
  8
HIDDEN
  6
HIDDEN
 10
10.560943999999999
 20
19.567485000000001
 30
0.0
 42
-0.4142140000000001
  0
VERTEX
  5
887
  8
HIDDEN
  6
HIDDEN
 10
10.650944000000001
 20
19.477485000000001
 30
0.0
  0
VERTEX
  5
888
  8
HIDDEN
  6
HIDDEN
 10
10.650944000000001
 20
19.380485
 30
0.0
  0
VERTEX
  5
889
  8
HIDDEN
  6
HIDDEN
 10
9.3859440000000003
 20
19.380485
 30
0.0
  0
VERTEX
  5
88A
  8
HIDDEN
  6
HIDDEN
 10
9.3859440000000003
 20
22.380485
 30
0.0
  0
VERTEX
  5
88B
  8
HIDDEN
  6
HIDDEN
 10
10.650944000000001
 20
22.380485
 30
0.0
  0
VERTEX
  5
88C
  8
HIDDEN
  6
HIDDEN
 10
10.650944000000001
 20
22.283484999999999
 30
0.0
 42
-0.4142140000000001
  0
VERTEX
  5
88D
  8
HIDDEN
  6
HIDDEN
 10
10.560943999999999
 20
22.193484999999999
 30
0.0
  0
SEQEND
  5
88E
  8
HIDDEN
  6
HIDDEN
  0
POLYLINE
  5
3E4
  8
0
  6
BYBLOCK
 62
     0
 66
     1
 10
0.0
 20
0.0
 30
0.0
 70
     1
  0
VERTEX
  5
88F
  8
0
  6
BYBLOCK
 62
     0
 10
9.9895639999999997
 20
21.212235
 30
0.0
  0
VERTEX
  5
890
  8
0
  6
BYBLOCK
 62
     0
 10
9.827183999999999
 20
21.493484999999989
 30
0.0
  0
VERTEX
  5
891
  8
0
  6
BYBLOCK
 62
     0
 10
9.9895639999999997
 20
21.774735
 30
0.0
  0
VERTEX
  5
892
  8
0
  6
BYBLOCK
 62
     0
 10
10.314323
 20
21.774735
 30
0.0
  0
VERTEX
  5
893
  8
0
  6
BYBLOCK
 62
     0
 10
10.476703000000001
 20
21.493484999999989
 30
0.0
  0
VERTEX
  5
894
  8
0
  6
BYBLOCK
 62
     0
 10
10.314323
 20
21.212235
 30
0.0
  0
SEQEND
  5
895
  8
0
  6
BYBLOCK
 62
     0
  0
LINE
  5
3EC
  8
BRACKET
 10
10.776944
 20
19.412485
 30
0.0
 11
9.2769440000000003
 21
19.412485
 31
0.0
  0
LINE
  5
3ED
  8
0
 10
9.7513810000000003
 20
19.068484999999988
 30
0.0
 11
10.238505999999999
 21
19.068484999999988
 31
0.0
  0
POLYLINE
  5
3EE
  8
0
 66
     1
 10
0.0
 20
0.0
 30
0.0
 70
     1
  0
VERTEX
  5
896
  8
0
 10
10.31971199999999
 20
19.318484999999999
 30
0.0
  0
VERTEX
  5
897
  8
0
 10
10.31971199999999
 20
19.097010000000001
 30
0.0
 42
-0.368919
  0
VERTEX
  5
898
  8
0
 10
10.157336999999989
 20
19.097010000000001
 30
0.0
 42
-0.185339
  0
VERTEX
  5
899
  8
0
 10
9.8325499999999995
 20
19.097010000000001
 30
0.0
 42
-0.368919
  0
VERTEX
  5
89A
  8
0
 10
9.6701750000000004
 20
19.097010000000001
 30
0.0
  0
VERTEX
  5
89B
  8
0
 10
9.6701750000000004
 20
19.318484999999999
 30
0.0
  0
SEQEND
  5
89C
  8
0
  0
LINE
  5
3F6
  8
0
 10
9.8325499999999995
 20
19.318484999999999
 30
0.0
 11
9.8325499999999995
 21
19.097010000000001
 31
0.0
  0
LINE
  5
3F7
  8
0
 10
10.157336999999989
 20
19.318484999999999
 30
0.0
 11
10.157336999999989
 21
19.097010000000001
 31
0.0
  0
LINE
  5
3F8
  8
0
 10
9.0269440000000003
 20
21.095047000000001
 30
0.0
 11
9.0269440000000003
 21
20.607921999999991
 31
0.0
  0
POLYLINE
  5
3F9
  8
0
 66
     1
 10
0.0
 20
0.0
 30
0.0
 70
     1
  0
VERTEX
  5
89D
  8
0
 10
9.2769440000000003
 20
20.526716
 30
0.0
  0
VERTEX
  5
89E
  8
0
 10
9.0554690000000004
 20
20.526716
 30
0.0
 42
-0.368919
  0
VERTEX
  5
89F
  8
0
 10
9.0554690000000004
 20
20.689091000000001
 30
0.0
 42
-0.185339
  0
VERTEX
  5
8A0
  8
0
 10
9.0554690000000004
 20
21.013877999999991
 30
0.0
 42
-0.368919
  0
VERTEX
  5
8A1
  8
0
 10
9.0554690000000004
 20
21.176252999999988
 30
0.0
  0
VERTEX
  5
8A2
  8
0
 10
9.2769440000000003
 20
21.176252999999988
 30
0.0
  0
SEQEND
  5
8A3
  8
0
  0
LINE
  5
401
  8
0
 10
9.2769440000000003
 20
21.013877999999991
 30
0.0
 11
9.0554690000000004
 21
21.013877999999991
 31
0.0
  0
LINE
  5
402
  8
0
 10
9.2769440000000003
 20
20.689091000000001
 30
0.0
 11
9.0554690000000004
 21
20.689091000000001
 31
0.0
  0
DIMENSION
  5
403
  8
DIM
  2
*D26
 10
27.527370999999999
 20
119.964101
 30
0.0
 11
19.527157500000001
 21
119.964101
 31
0.0
 70
     0
 13
11.526944
 23
116.40116399999999
 33
0.0
 14
27.527370999999999
 24
116.40116399999999
 34
0.0
  0
DIMENSION
  5
411
  8
DIM
  2
*D27
 10
29.777370999999999
 20
119.964101
 30
0.0
 11
28.652370999999999
 21
122.13385100000001
 31
0.0
 70
     0
 13
27.527370999999999
 23
116.40116399999999
 33
0.0
 14
29.777370999999999
 24
117.40116399999999
 34
0.0
  0
DIMENSION
  5
41F
  8
DIM
  2
*D28
 10
4.8152809999999988
 20
114.40116399999989
 30
0.0
 11
4.8152809999999784
 21
75.563164
 31
0.0
 70
     0
  1
C
 13
11.526944
 23
36.725163999999999
 33
0.0
 14
11.526944
 24
114.40116399999989
 34
0.0
 50
270.0
  0
DIMENSION
  5
42D
  8
DIM
  2
*D29
 10
4.8152809999999988
 20
116.40116399999999
 30
0.0
 11
4.815280999999981
 21
115.40116399999999
 31
0.0
 70
     0
 13
11.526944
 23
114.40116399999989
 33
0.0
 14
11.526944
 24
116.40116399999999
 34
0.0
 50
270.0
  0
DIMENSION
  5
43B
  8
DIM
  2
*D30
 10
33.54496799999999
 20
117.58816399999991
 30
0.0
 11
33.544967999999969
 21
75.563164
 31
0.0
 70
     0
  1
B
 13
29.652370999999999
 23
33.538164000000002
 33
0.0
 14
29.777370999999999
 24
117.58816399999991
 34
0.0
 50
90.0
  0
TEXT
  5
449
  8
TEXT
 10
15.260360124999989
 20
17.262165
 30
0.0
 40
1.03125
  1
%%UBOTTOM VIEW
 41
0.75
  7
TXT
 72
     1
 11
19.527156999999988
 21
17.262165
 31
0.0
  0
LINE
  5
44A
  8
BRACKET
 10
10.776944
 20
22.397485
 30
0.0
 11
10.776944
 21
27.303484999999991
 31
0.0
  0
LINE
  5
44B
  8
BRACKET
 10
28.277370999999999
 20
22.397485
 30
0.0
 11
28.277370999999999
 21
27.303484999999991
 31
0.0
  0
LINE
  5
44C
  8
BRACKET
  6
HIDDEN
 10
60.085847999999999
 20
113.58866399999999
 30
0.0
 11
58.836848000000003
 21
113.58866399999999
 31
0.0
  0
LINE
  5
44D
  8
BRACKET
  6
HIDDEN
 10
78.088274999999996
 20
113.58866399999999
 30
0.0
 11
79.337275000000005
 21
113.58866399999999
 31
0.0
  0
LINE
  5
44E
  8
ANGLE
 10
58.837060999999999
 20
37.438164
 30
0.0
 11
79.337061000000006
 21
37.438164
 31
0.0
  0
LINE
  5
44F
  8
ANGLE
 10
58.837060999999999
 20
33.538164000000002
 30
0.0
 11
79.337061000000006
 21
33.538164000000002
 31
0.0
  0
LINE
  5
450
  8
ANGLE
  6
HIDDEN
 10
58.837060999999999
 20
33.600163999999999
 30
0.0
 11
79.337061000000006
 21
33.600163999999999
 31
0.0
  0
LINE
  5
451
  8
ANGLE
 10
9.2771570000000008
 20
33.538164000000002
 30
0.0
 11
29.777156999999999
 21
33.538164000000002
 31
0.0
  0
LINE
  5
452
  8
ANGLE
 10
9.2771570000000008
 20
33.600163999999999
 30
0.0
 11
29.777156999999999
 21
33.600163999999999
 31
0.0
  0
POLYLINE
  5
453
  8
BRACKET
 66
     1
 10
0.0
 20
0.0
 30
0.0
  0
VERTEX
  5
8A4
  8
BRACKET
 10
28.277370999999999
 20
33.662663999999999
 30
0.0
  0
VERTEX
  5
8A5
  8
BRACKET
 10
26.652370999999999
 20
33.662663999999999
 30
0.0
 42
-0.4142140000000001
  0
VERTEX
  5
8A6
  8
BRACKET
 10
26.402370999999999
 20
33.912663999999999
 30
0.0
  0
VERTEX
  5
8A7
  8
BRACKET
 10
26.402370999999999
 20
37.287663999999999
 30
0.0
 42
-0.4142140000000001
  0
VERTEX
  5
8A8
  8
BRACKET
 10
26.652370999999999
 20
37.537663999999992
 30
0.0
  0
VERTEX
  5
8A9
  8
BRACKET
 10
29.777370999999999
 20
37.537663999999992
 30
0.0
  0
VERTEX
  5
8AA
  8
BRACKET
 10
29.777370999999999
 20
33.725163999999999
 30
0.0
 42
-0.4142140000000001
  0
VERTEX
  5
8AB
  8
BRACKET
 10
29.652370999999999
 20
33.600163999999999
 30
0.0
  0
VERTEX
  5
8AC
  8
BRACKET
 10
28.277370999999999
 20
33.600163999999999
 30
0.0
  0
VERTEX
  5
8AD
  8
BRACKET
 10
28.277370999999999
 20
33.709164000000001
 30
0.0
  0
SEQEND
  5
8AE
  8
BRACKET
  0
LINE
  5
45F
  8
ANGLE
  6
HIDDEN2
 10
26.527370999999999
 20
37.438164
 30
0.0
 11
29.777156999999999
 21
37.438164
 31
0.0
  0
LINE
  5
460
  8
ANGLE
 10
12.60156799999999
 20
37.438164
 30
0.0
 11
26.452746999999992
 21
37.438164
 31
0.0
  0
POLYLINE
  5
461
  8
BRACKET
  6
HIDDEN
 66
     1
 10
0.0
 20
0.0
 30
0.0
  0
VERTEX
  5
8AF
  8
BRACKET
  6
HIDDEN
 10
9.3859440000000003
 20
37.537663999999992
 30
0.0
  0
VERTEX
  5
8B0
  8
BRACKET
  6
HIDDEN
 10
9.3859440000000003
 20
33.725163999999999
 30
0.0
 42
0.4142140000000001
  0
VERTEX
  5
8B1
  8
BRACKET
  6
HIDDEN
 10
9.4019440000000003
 20
33.709164000000001
 30
0.0
  0
VERTEX
  5
8B2
  8
BRACKET
  6
HIDDEN
 10
10.776944
 20
33.709164000000001
 30
0.0
  0
SEQEND
  5
8B3
  8
BRACKET
  6
HIDDEN
  0
POLYLINE
  5
467
  8
BRACKET
 66
     1
 10
0.0
 20
0.0
 30
0.0
  0
VERTEX
  5
8B4
  8
BRACKET
 10
10.776944
 20
33.662663999999999
 30
0.0
  0
VERTEX
  5
8B5
  8
BRACKET
 10
12.401944
 20
33.662663999999999
 30
0.0
 42
0.4142140000000001
  0
VERTEX
  5
8B6
  8
BRACKET
 10
12.651944
 20
33.912663999999999
 30
0.0
  0
VERTEX
  5
8B7
  8
BRACKET
 10
12.651944
 20
37.287663999999999
 30
0.0
 42
0.4142140000000001
  0
VERTEX
  5
8B8
  8
BRACKET
 10
12.401944
 20
37.537663999999992
 30
0.0
  0
VERTEX
  5
8B9
  8
BRACKET
 10
9.2769440000000003
 20
37.537663999999992
 30
0.0
  0
VERTEX
  5
8BA
  8
BRACKET
 10
9.2769440000000003
 20
33.725163999999999
 30
0.0
 42
0.4142140000000001
  0
VERTEX
  5
8BB
  8
BRACKET
 10
9.4019440000000003
 20
33.600163999999999
 30
0.0
  0
VERTEX
  5
8BC
  8
BRACKET
 10
10.776944
 20
33.600163999999999
 30
0.0
  0
VERTEX
  5
8BD
  8
BRACKET
 10
10.776944
 20
33.709164000000001
 30
0.0
  0
SEQEND
  5
8BE
  8
BRACKET
  0
LINE
  5
473
  8
ANGLE
  6
HIDDEN2
 10
9.2771570000000008
 20
37.438164
 30
0.0
 11
12.526944
 21
37.438164
 31
0.0
  0
LINE
  5
474
  8
ANGLE
  6
HIDDEN2
 10
9.2771570000000008
 20
33.538164000000002
 30
0.0
 11
9.2771570000000008
 21
37.438164
 31
0.0
  0
CIRCLE
  5
475
  8
BRACKET
 10
11.526944
 20
36.725163999999999
 30
0.0
 40
0.25
  0
CIRCLE
  5
476
  8
BRACKET
 10
11.526944
 20
34.725163999999992
 30
0.0
 40
0.25
  0
LINE
  5
477
  8
BRACKET
 10
50.320296999999989
 20
33.600163999999999
 30
0.0
 11
42.429296999999998
 21
33.600163999999999
 31
0.0
  0
LINE
  5
478
  8
BRACKET
  6
HIDDEN
 10
50.320296999999989
 20
33.709164000000001
 30
0.0
 11
42.429296999999998
 21
33.709164000000001
 31
0.0
  0
POLYLINE
  5
479
  8
BRACKET
  6
HIDDEN
 66
     1
 10
0.0
 20
0.0
 30
0.0
  0
VERTEX
  5
8BF
  8
BRACKET
  6
HIDDEN
 10
29.668371
 20
37.537663999999992
 30
0.0
  0
VERTEX
  5
8C0
  8
BRACKET
  6
HIDDEN
 10
29.668371
 20
33.725163999999999
 30
0.0
 42
-0.4142140000000001
  0
VERTEX
  5
8C1
  8
BRACKET
  6
HIDDEN
 10
29.652370999999999
 20
33.709164000000001
 30
0.0
  0
VERTEX
  5
8C2
  8
BRACKET
  6
HIDDEN
 10
28.277370999999999
 20
33.709164000000001
 30
0.0
  0
SEQEND
  5
8C3
  8
BRACKET
  6
HIDDEN
  0
CIRCLE
  5
47F
  8
BRACKET
 10
27.527370999999999
 20
36.725163999999999
 30
0.0
 40
0.25
  0
CIRCLE
  5
480
  8
BRACKET
 10
27.527370999999999
 20
34.725163999999992
 30
0.0
 40
0.25
  0
LINE
  5
481
  8
ANGLE
  6
HIDDEN2
 10
29.777156999999999
 20
33.538164000000002
 30
0.0
 11
29.777156999999999
 21
37.438164
 31
0.0
  0
LINE
  5
482
  8
BRACKET
  6
HIDDEN
 10
42.429296999999998
 20
37.538164000000002
 30
0.0
 11
42.429296999999998
 21
33.600163999999999
 31
0.0
  0
LINE
  5
483
  8
BRACKET
 10
42.320296999999997
 20
37.538164000000002
 30
0.0
 11
42.320296999999997
 21
33.662663999999999
 31
0.0
  0
LINE
  5
484
  8
BRACKET
 10
42.429296999999998
 20
33.662663999999999
 30
0.0
 11
42.320296999999997
 21
33.662663999999999
 31
0.0
  0
LINE
  5
485
  8
BRACKET
 10
50.320296999999989
 20
37.538164000000002
 30
0.0
 11
50.320296999999989
 21
33.600163999999999
 31
0.0
  0
POLYLINE
  5
486
  8
ANGLE
 66
     1
 10
0.0
 20
0.0
 30
0.0
 70
     1
  0
VERTEX
  5
8C4
  8
ANGLE
 10
47.364297000000001
 20
33.538164000000002
 30
0.0
  0
VERTEX
  5
8C5
  8
ANGLE
 10
47.364297000000001
 20
33.600163999999999
 30
0.0
  0
VERTEX
  5
8C6
  8
ANGLE
 10
50.352297
 20
33.600163999999999
 30
0.0
  0
VERTEX
  5
8C7
  8
ANGLE
 10
50.352297
 20
37.438164
 30
0.0
  0
VERTEX
  5
8C8
  8
ANGLE
 10
50.414296999999998
 20
37.438164
 30
0.0
  0
VERTEX
  5
8C9
  8
ANGLE
 10
50.414296999999998
 20
33.538164000000002
 30
0.0
  0
SEQEND
  5
8CA
  8
ANGLE
  0
ARC
  5
48E
  8
BRACKET
  6
HIDDEN2
 10
61.961848000000003
 20
37.287663999999999
 30
0.0
 40
0.25
 50
37.013272000000001
 51
90.0
  0
LINE
  5
48F
  8
BRACKET
 10
58.836848000000003
 20
37.537663999999992
 30
0.0
 11
58.836848000000003
 21
33.725163999999999
 31
0.0
  0
POLYLINE
  5
490
  8
BRACKET
  6
HIDDEN
 66
     1
 10
0.0
 20
0.0
 30
0.0
  0
VERTEX
  5
8CB
  8
BRACKET
  6
HIDDEN
 10
58.945847999999998
 20
37.537663999999992
 30
0.0
  0
VERTEX
  5
8CC
  8
BRACKET
  6
HIDDEN
 10
58.945847999999998
 20
33.725163999999999
 30
0.0
 42
0.4142140000000001
  0
VERTEX
  5
8CD
  8
BRACKET
  6
HIDDEN
 10
58.961848000000003
 20
33.709164000000001
 30
0.0
  0
VERTEX
  5
8CE
  8
BRACKET
  6
HIDDEN
 10
60.336847999999989
 20
33.709164000000001
 30
0.0
  0
SEQEND
  5
8CF
  8
BRACKET
  6
HIDDEN
  0
LINE
  5
496
  8
BRACKET
 10
61.961848000000003
 20
37.537663999999992
 30
0.0
 11
60.210847999999999
 21
37.537663999999992
 31
0.0
  0
LINE
  5
497
  8
BRACKET
  6
HIDDEN
 10
60.085847999999999
 20
37.537663999999992
 30
0.0
 11
58.836848000000003
 21
37.537663999999992
 31
0.0
  0
LINE
  5
498
  8
BRACKET
  6
HIDDEN
 10
58.961848000000003
 20
33.600163999999999
 30
0.0
 11
60.336847999999989
 21
33.600163999999999
 31
0.0
  0
LINE
  5
499
  8
ANGLE
 10
58.837060999999999
 20
33.538164000000002
 30
0.0
 11
58.837060999999999
 21
37.438164
 31
0.0
  0
ARC
  5
49A
  8
BRACKET
  6
HIDDEN2
 10
58.961848000000003
 20
33.725163999999999
 30
0.0
 40
0.125
 50
180.0
 51
270.0
  0
LINE
  5
49B
  8
BRACKET
  6
HIDDEN
 10
60.336847999999989
 20
33.600163999999999
 30
0.0
 11
60.336847999999989
 21
33.709164000000001
 31
0.0
  0
LINE
  5
49C
  8
BRACKET
 10
79.337275000000005
 20
37.537663999999992
 30
0.0
 11
79.337275000000005
 21
33.725163999999999
 31
0.0
  0
ARC
  5
49D
  8
BRACKET
  6
HIDDEN2
 10
76.212275000000005
 20
37.287663999999999
 30
0.0
 40
0.25
 50
90.0
 51
142.986728
  0
POLYLINE
  5
49E
  8
BRACKET
  6
HIDDEN
 66
     1
 10
0.0
 20
0.0
 30
0.0
  0
VERTEX
  5
8D0
  8
BRACKET
  6
HIDDEN
 10
79.228274999999996
 20
37.537663999999992
 30
0.0
  0
VERTEX
  5
8D1
  8
BRACKET
  6
HIDDEN
 10
79.228274999999996
 20
33.725163999999999
 30
0.0
 42
-0.4142140000000001
  0
VERTEX
  5
8D2
  8
BRACKET
  6
HIDDEN
 10
79.212275000000005
 20
33.709164000000001
 30
0.0
  0
VERTEX
  5
8D3
  8
BRACKET
  6
HIDDEN
 10
77.837275000000005
 20
33.709164000000001
 30
0.0
  0
SEQEND
  5
8D4
  8
BRACKET
  6
HIDDEN
  0
LINE
  5
4A4
  8
BRACKET
  6
HIDDEN
 10
78.088274999999996
 20
37.537663999999992
 30
0.0
 11
79.337275000000005
 21
37.537663999999992
 31
0.0
  0
LINE
  5
4A5
  8
BRACKET
 10
76.212275000000005
 20
37.537663999999992
 30
0.0
 11
77.963274999999996
 21
37.537663999999992
 31
0.0
  0
LINE
  5
4A6
  8
BRACKET
  6
HIDDEN
 10
79.212275000000005
 20
33.600163999999999
 30
0.0
 11
77.837275000000005
 21
33.600163999999999
 31
0.0
  0
LINE
  5
4A7
  8
BRACKET
  6
HIDDEN
 10
77.837275000000005
 20
33.600163999999999
 30
0.0
 11
77.837275000000005
 21
33.709164000000001
 31
0.0
  0
LINE
  5
4A8
  8
ANGLE
 10
79.337061000000006
 20
33.538164000000002
 30
0.0
 11
79.337061000000006
 21
37.438164
 31
0.0
  0
ARC
  5
4A9
  8
BRACKET
  6
HIDDEN2
 10
79.212275000000005
 20
33.725163999999999
 30
0.0
 40
0.125
 50
270.0
 51
0.0
  0
DIMENSION
  5
4AA
  8
DIM
  2
*D31
 10
2.3744700000000001
 20
117.58816399999991
 30
0.0
 11
0.204719999999981
 21
116.994664
 31
0.0
 70
     0
 13
11.526944
 23
116.40116399999999
 33
0.0
 14
9.2771570000000008
 24
117.58816399999991
 34
0.0
 50
270.0
  0
DIMENSION
  5
4B8
  8
DIM
  2
*D32
 10
29.777156999999999
 20
122.212101
 30
0.0
 11
19.527156999999988
 21
122.212101
 31
0.0
 70
     0
 13
9.2771570000000008
 23
117.58816399999991
 33
0.0
 14
29.777156999999999
 24
117.58816399999991
 34
0.0
  0
DIMENSION
  5
4C6
  8
DIM
  2
*D33
 10
50.320296999999989
 20
119.964101
 30
0.0
 11
46.320296999999989
 21
119.964101
 31
0.0
 70
     0
  1
D
 13
42.320296999999997
 23
117.46366399999989
 33
0.0
 14
50.320296999999989
 24
117.52616399999989
 34
0.0
  0
DIMENSION
  5
4D4
  8
DIM
  2
*D34
 10
50.414296999999998
 20
122.212101
 30
0.0
 11
46.367296999999994
 21
122.212101
 31
0.0
 70
     0
  1
E
 13
42.320296999999997
 23
117.46366399999989
 33
0.0
 14
50.414296999999998
 24
117.58816399999991
 34
0.0
  0
DIMENSION
  5
4E2
  8
DIM
  2
*D35
 10
38.860504999999989
 20
113.58816400000001
 30
0.0
 11
38.860504999999968
 21
115.557164
 31
0.0
 70
     0
 13
42.429296999999998
 23
117.52616399999989
 33
0.0
 14
42.320296999999997
 24
113.58816400000001
 34
0.0
 50
90.0
  0
DIMENSION
  5
4F0
  8
DIM
  2
*D36
 10
38.860504999999989
 20
37.538164000000002
 30
0.0
 11
38.860504999999989
 21
35.569164000000001
 31
0.0
 70
     0
 13
42.429296999999998
 23
33.600163999999999
 33
0.0
 14
42.320296999999997
 24
37.538164000000002
 34
0.0
 50
90.0
  0
DIMENSION
  5
4FE
  8
DIM
  2
*D37
 10
4.8152809999999988
 20
34.725163999999992
 30
0.0
 11
4.8152809999999926
 21
35.725163999999999
 31
0.0
 70
     0
 13
11.526944
 23
36.725163999999999
 33
0.0
 14
11.526944
 24
34.725163999999992
 34
0.0
 50
270.0
  0
DIMENSION
  5
50C
  8
DIM
  2
*D38
 10
73.799610999999999
 20
117.58816399999991
 30
0.0
 11
73.79961099999997
 21
115.6381639999999
 31
0.0
 70
     0
 13
74.404111
 23
113.6881639999999
 33
0.0
 14
74.404111
 24
117.58816399999991
 34
0.0
 50
90.0
  0
DIMENSION
  5
51A
  8
DIM
  2
*D39
 10
73.799610999999999
 20
33.538164000000002
 30
0.0
 11
73.799610999999985
 21
35.488163999999998
 31
0.0
 70
     0
 13
74.404111
 23
37.438164
 33
0.0
 14
74.404111
 24
33.538164000000002
 34
0.0
 50
90.0
  0
CIRCLE
  5
528
  8
ANGLE
 10
13.526944
 20
20.993485
 30
0.0
 40
0.172
  0
CIRCLE
  5
529
  8
ANGLE
 10
25.527370999999992
 20
20.993485
 30
0.0
 40
0.172
  0
CIRCLE
  5
52A
  8
BRACKET
 10
46.820296999999997
 20
35.537663999999999
 30
0.0
 40
0.172
  0
CIRCLE
  5
52B
  8
OBJECT
 10
48.852297
 20
113.1256639999999
 30
0.0
 40
0.1405
  0
CIRCLE
  5
52C
  8
BRACKET
 10
46.820296999999997
 20
115.58866399999999
 30
0.0
 40
0.172
  0
CIRCLE
  5
52D
  8
HIDDEN
 10
48.227297
 20
37.375664
 30
0.0
 40
0.3279999999999999
  0
CIRCLE
  5
52E
  8
OBJECT
 10
48.852297
 20
38.000664
 30
0.0
 40
0.1405
  0
CIRCLE
  5
52F
  8
HIDDEN
 10
49.477297
 20
37.375664
 30
0.0
 40
0.3279999999999999
  0
CIRCLE
  5
530
  8
OBJECT
 10
48.852297
 20
45.375664
 30
0.0
 40
0.0885
  0
CIRCLE
  5
531
  8
OBJECT
 10
48.852297
 20
47.375664
 30
0.0
 40
0.5625
  0
CIRCLE
  5
532
  8
OBJECT
 10
48.852297
 20
57.375664
 30
0.0
 40
0.0885
  0
CIRCLE
  5
533
  8
OBJECT
 10
48.852297
 20
63.000664
 30
0.0
 40
0.3279999999999999
  0
CIRCLE
  5
534
  8
OBJECT
 10
48.227297
 20
99.375664000000015
 30
0.0
 40
0.3279999999999999
  0
CIRCLE
  5
535
  8
OBJECT
 10
49.477297
 20
99.375664000000015
 30
0.0
 40
0.3279999999999999
  0
CIRCLE
  5
536
  8
OBJECT
 10
48.852297
 20
69.375664
 30
0.0
 40
0.0885
  0
CIRCLE
  5
537
  8
OBJECT
 10
48.227297
 20
75.375664
 30
0.0
 40
0.3279999999999999
  0
CIRCLE
  5
538
  8
OBJECT
 10
49.477297
 20
75.375664
 30
0.0
 40
0.3279999999999999
  0
CIRCLE
  5
539
  8
OBJECT
 10
48.852297
 20
81.375664
 30
0.0
 40
0.0885
  0
CIRCLE
  5
53A
  8
OBJECT
 10
48.852297
 20
89.750664000000015
 30
0.0
 40
0.5625
  0
CIRCLE
  5
53B
  8
OBJECT
 10
48.852297
 20
93.375664
 30
0.0
 40
0.0885
  0
CIRCLE
  5
53C
  8
OBJECT
 10
48.852297
 20
105.3756639999999
 30
0.0
 40
0.0885
  0
CIRCLE
  5
53D
  8
OBJECT
 10
59.930847999999997
 20
66.812663999999998
 30
0.0
 40
0.0885
  0
CIRCLE
  5
53E
  8
HIDDEN
 10
59.930847999999997
 20
37.062663999999998
 30
0.0
 40
0.0885
  0
CIRCLE
  5
53F
  8
HIDDEN
 10
59.930847999999997
 20
36.437663999999998
 30
0.0
 40
0.0885
  0
CIRCLE
  5
540
  8
OBJECT
 10
59.930847999999997
 20
38.187663999999991
 30
0.0
 40
0.0885
  0
CIRCLE
  5
541
  8
OBJECT
 10
59.930847999999997
 20
37.687663999999998
 30
0.0
 40
0.0885
  0
CIRCLE
  5
542
  8
OBJECT
 10
59.930847999999997
 20
39.437663999999991
 30
0.0
 40
0.0885
  0
CIRCLE
  5
543
  8
OBJECT
 10
59.930847999999997
 20
38.812663999999991
 30
0.0
 40
0.0885
  0
CIRCLE
  5
544
  8
OBJECT
 10
59.930847999999997
 20
39.937663999999998
 30
0.0
 40
0.0885
  0
CIRCLE
  5
545
  8
OBJECT
 10
59.930847999999997
 20
40.562663999999998
 30
0.0
 40
0.0885
  0
CIRCLE
  5
546
  8
OBJECT
 10
59.930847999999997
 20
41.687663999999991
 30
0.0
 40
0.0885
  0
CIRCLE
  5
547
  8
OBJECT
 10
59.930847999999997
 20
41.187663999999998
 30
0.0
 40
0.0885
  0
CIRCLE
  5
548
  8
OBJECT
 10
59.930847999999997
 20
42.312663999999991
 30
0.0
 40
0.0885
  0
CIRCLE
  5
549
  8
OBJECT
 10
59.930847999999997
 20
46.437663999999991
 30
0.0
 40
0.0885
  0
CIRCLE
  5
54A
  8
OBJECT
 10
59.930847999999997
 20
42.937663999999991
 30
0.0
 40
0.0885
  0
CIRCLE
  5
54B
  8
OBJECT
 10
59.930847999999997
 20
44.062663999999991
 30
0.0
 40
0.0885
  0
CIRCLE
  5
54C
  8
OBJECT
 10
59.930847999999997
 20
43.437663999999991
 30
0.0
 40
0.0885
  0
CIRCLE
  5
54D
  8
OBJECT
 10
59.930847999999997
 20
45.187663999999991
 30
0.0
 40
0.0885
  0
CIRCLE
  5
54E
  8
OBJECT
 10
59.930847999999997
 20
44.687663999999991
 30
0.0
 40
0.0885
  0
CIRCLE
  5
54F
  8
OBJECT
 10
59.930847999999997
 20
45.812663999999991
 30
0.0
 40
0.0885
  0
CIRCLE
  5
550
  8
OBJECT
 10
59.930847999999997
 20
46.937663999999998
 30
0.0
 40
0.0885
  0
CIRCLE
  5
551
  8
OBJECT
 10
59.930847999999997
 20
47.562663999999998
 30
0.0
 40
0.0885
  0
CIRCLE
  5
552
  8
OBJECT
 10
59.930847999999997
 20
48.187663999999998
 30
0.0
 40
0.0885
  0
CIRCLE
  5
553
  8
OBJECT
 10
59.930847999999997
 20
48.687663999999998
 30
0.0
 40
0.0885
  0
CIRCLE
  5
554
  8
OBJECT
 10
59.930847999999997
 20
49.312663999999998
 30
0.0
 40
0.0885
  0
CIRCLE
  5
555
  8
OBJECT
 10
59.930847999999997
 20
50.437663999999991
 30
0.0
 40
0.0885
  0
CIRCLE
  5
556
  8
OBJECT
 10
59.930847999999997
 20
49.937663999999998
 30
0.0
 40
0.0885
  0
CIRCLE
  5
557
  8
OBJECT
 10
59.930847999999997
 20
58.687663999999998
 30
0.0
 40
0.0885
  0
CIRCLE
  5
558
  8
OBJECT
 10
59.930847999999997
 20
54.562663999999998
 30
0.0
 40
0.0885
  0
CIRCLE
  5
559
  8
OBJECT
 10
59.930847999999997
 20
51.687663999999991
 30
0.0
 40
0.0885
  0
CIRCLE
  5
55A
  8
OBJECT
 10
59.930847999999997
 20
51.062663999999991
 30
0.0
 40
0.0885
  0
CIRCLE
  5
55B
  8
OBJECT
 10
59.930847999999997
 20
52.187663999999991
 30
0.0
 40
0.0885
  0
CIRCLE
  5
55C
  8
OBJECT
 10
59.930847999999997
 20
52.812663999999991
 30
0.0
 40
0.0885
  0
CIRCLE
  5
55D
  8
OBJECT
 10
59.930847999999997
 20
53.937663999999998
 30
0.0
 40
0.0885
  0
CIRCLE
  5
55E
  8
OBJECT
 10
59.930847999999997
 20
53.437663999999991
 30
0.0
 40
0.0885
  0
CIRCLE
  5
55F
  8
OBJECT
 10
59.930847999999997
 20
55.187663999999998
 30
0.0
 40
0.0885
  0
CIRCLE
  5
560
  8
OBJECT
 10
59.930847999999997
 20
55.687663999999998
 30
0.0
 40
0.0885
  0
CIRCLE
  5
561
  8
OBJECT
 10
59.930847999999997
 20
56.312663999999998
 30
0.0
 40
0.0885
  0
CIRCLE
  5
562
  8
OBJECT
 10
59.930847999999997
 20
57.437663999999998
 30
0.0
 40
0.0885
  0
CIRCLE
  5
563
  8
OBJECT
 10
59.930847999999997
 20
56.937663999999998
 30
0.0
 40
0.0885
  0
CIRCLE
  5
564
  8
OBJECT
 10
59.930847999999997
 20
58.062663999999998
 30
0.0
 40
0.0885
  0
CIRCLE
  5
565
  8
OBJECT
 10
59.930847999999997
 20
62.687663999999998
 30
0.0
 40
0.0885
  0
CIRCLE
  5
566
  8
OBJECT
 10
59.930847999999997
 20
59.187663999999991
 30
0.0
 40
0.0885
  0
CIRCLE
  5
567
  8
OBJECT
 10
59.930847999999997
 20
59.812663999999991
 30
0.0
 40
0.0885
  0
CIRCLE
  5
568
  8
OBJECT
 10
59.930847999999997
 20
60.437663999999991
 30
0.0
 40
0.0885
  0
CIRCLE
  5
569
  8
OBJECT
 10
59.930847999999997
 20
60.937663999999991
 30
0.0
 40
0.0885
  0
CIRCLE
  5
56A
  8
OBJECT
 10
59.930847999999997
 20
62.187663999999991
 30
0.0
 40
0.0885
  0
CIRCLE
  5
56B
  8
OBJECT
 10
59.930847999999997
 20
61.562663999999991
 30
0.0
 40
0.0885
  0
CIRCLE
  5
56C
  8
OBJECT
 10
59.930847999999997
 20
63.312663999999998
 30
0.0
 40
0.0885
  0
CIRCLE
  5
56D
  8
OBJECT
 10
59.930847999999997
 20
64.437663999999998
 30
0.0
 40
0.0885
  0
CIRCLE
  5
56E
  8
OBJECT
 10
59.930847999999997
 20
63.937663999999998
 30
0.0
 40
0.0885
  0
CIRCLE
  5
56F
  8
OBJECT
 10
59.930847999999997
 20
65.687663999999998
 30
0.0
 40
0.0885
  0
CIRCLE
  5
570
  8
OBJECT
 10
59.930847999999997
 20
66.187663999999998
 30
0.0
 40
0.0885
  0
CIRCLE
  5
571
  8
OBJECT
 10
59.930847999999997
 20
65.062663999999998
 30
0.0
 40
0.0885
  0
CIRCLE
  5
572
  8
OBJECT
 10
59.930847999999997
 20
74.937663999999998
 30
0.0
 40
0.0885
  0
CIRCLE
  5
573
  8
OBJECT
 10
59.930847999999997
 20
70.937663999999984
 30
0.0
 40
0.0885
  0
CIRCLE
  5
574
  8
OBJECT
 10
59.930847999999997
 20
67.937663999999984
 30
0.0
 40
0.0885
  0
CIRCLE
  5
575
  8
OBJECT
 10
59.930847999999997
 20
68.562663999999984
 30
0.0
 40
0.0885
  0
CIRCLE
  5
576
  8
OBJECT
 10
59.930847999999997
 20
67.437663999999998
 30
0.0
 40
0.0885
  0
CIRCLE
  5
577
  8
OBJECT
 10
59.930847999999997
 20
69.687663999999984
 30
0.0
 40
0.0885
  0
CIRCLE
  5
578
  8
OBJECT
 10
59.930847999999997
 20
69.187663999999984
 30
0.0
 40
0.0885
  0
CIRCLE
  5
579
  8
OBJECT
 10
59.930847999999997
 20
70.312663999999984
 30
0.0
 40
0.0885
  0
CIRCLE
  5
57A
  8
OBJECT
 10
59.930847999999997
 20
71.437663999999998
 30
0.0
 40
0.0885
  0
CIRCLE
  5
57B
  8
OBJECT
 10
59.930847999999997
 20
72.062663999999998
 30
0.0
 40
0.0885
  0
CIRCLE
  5
57C
  8
OBJECT
 10
59.930847999999997
 20
72.687663999999998
 30
0.0
 40
0.0885
  0
CIRCLE
  5
57D
  8
OBJECT
 10
59.930847999999997
 20
73.187663999999998
 30
0.0
 40
0.0885
  0
CIRCLE
  5
57E
  8
OBJECT
 10
59.930847999999997
 20
74.437663999999998
 30
0.0
 40
0.0885
  0
CIRCLE
  5
57F
  8
OBJECT
 10
59.930847999999997
 20
73.812663999999998
 30
0.0
 40
0.0885
  0
CIRCLE
  5
580
  8
OBJECT
 10
59.930847999999997
 20
79.062663999999984
 30
0.0
 40
0.0885
  0
CIRCLE
  5
581
  8
OBJECT
 10
59.930847999999997
 20
75.562663999999998
 30
0.0
 40
0.0885
  0
CIRCLE
  5
582
  8
OBJECT
 10
59.930847999999997
 20
76.687663999999984
 30
0.0
 40
0.0885
  0
CIRCLE
  5
583
  8
OBJECT
 10
59.930847999999997
 20
76.187663999999998
 30
0.0
 40
0.0885
  0
CIRCLE
  5
584
  8
OBJECT
 10
59.930847999999997
 20
77.937663999999984
 30
0.0
 40
0.0885
  0
CIRCLE
  5
585
  8
OBJECT
 10
59.930847999999997
 20
77.312663999999984
 30
0.0
 40
0.0885
  0
CIRCLE
  5
586
  8
OBJECT
 10
59.930847999999997
 20
78.437663999999984
 30
0.0
 40
0.0885
  0
CIRCLE
  5
587
  8
OBJECT
 10
59.930847999999997
 20
80.187663999999998
 30
0.0
 40
0.0885
  0
CIRCLE
  5
588
  8
OBJECT
 10
59.930847999999997
 20
79.687663999999984
 30
0.0
 40
0.0885
  0
CIRCLE
  5
589
  8
OBJECT
 10
59.930847999999997
 20
80.812663999999998
 30
0.0
 40
0.0885
  0
CIRCLE
  5
58A
  8
OBJECT
 10
59.930847999999997
 20
81.437663999999998
 30
0.0
 40
0.0885
  0
CIRCLE
  5
58B
  8
OBJECT
 10
59.930847999999997
 20
82.562663999999984
 30
0.0
 40
0.0885
  0
CIRCLE
  5
58C
  8
OBJECT
 10
59.930847999999997
 20
81.937663999999984
 30
0.0
 40
0.0885
  0
CIRCLE
  5
58D
  8
OBJECT
 10
59.930847999999997
 20
87.187663999999984
 30
0.0
 40
0.0885
  0
CIRCLE
  5
58E
  8
OBJECT
 10
59.930847999999997
 20
83.687663999999998
 30
0.0
 40
0.0885
  0
CIRCLE
  5
58F
  8
OBJECT
 10
59.930847999999997
 20
83.187663999999984
 30
0.0
 40
0.0885
  0
CIRCLE
  5
590
  8
OBJECT
 10
59.930847999999997
 20
84.937663999999998
 30
0.0
 40
0.0885
  0
CIRCLE
  5
591
  8
OBJECT
 10
59.930847999999997
 20
84.312663999999998
 30
0.0
 40
0.0885
  0
CIRCLE
  5
592
  8
OBJECT
 10
59.930847999999997
 20
86.062663999999998
 30
0.0
 40
0.0885
  0
CIRCLE
  5
593
  8
OBJECT
 10
59.930847999999997
 20
85.437663999999998
 30
0.0
 40
0.0885
  0
CIRCLE
  5
594
  8
OBJECT
 10
59.930847999999997
 20
86.687663999999998
 30
0.0
 40
0.0885
  0
CIRCLE
  5
595
  8
OBJECT
 10
59.930847999999997
 20
88.937663999999998
 30
0.0
 40
0.0885
  0
CIRCLE
  5
596
  8
OBJECT
 10
59.930847999999997
 20
88.437663999999984
 30
0.0
 40
0.0885
  0
CIRCLE
  5
597
  8
OBJECT
 10
59.930847999999997
 20
87.812663999999984
 30
0.0
 40
0.0885
  0
CIRCLE
  5
598
  8
OBJECT
 10
59.930847999999997
 20
90.187663999999998
 30
0.0
 40
0.0885
  0
CIRCLE
  5
599
  8
OBJECT
 10
59.930847999999997
 20
89.562663999999998
 30
0.0
 40
0.0885
  0
CIRCLE
  5
59A
  8
OBJECT
 10
59.930847999999997
 20
90.687663999999984
 30
0.0
 40
0.0885
  0
CIRCLE
  5
59B
  8
OBJECT
 10
59.930847999999997
 20
91.312663999999984
 30
0.0
 40
0.0885
  0
CIRCLE
  5
59C
  8
OBJECT
 10
59.930847999999997
 20
92.437663999999998
 30
0.0
 40
0.0885
  0
CIRCLE
  5
59D
  8
OBJECT
 10
59.930847999999997
 20
91.937663999999984
 30
0.0
 40
0.0885
  0
CIRCLE
  5
59E
  8
OBJECT
 10
59.930847999999997
 20
93.062663999999998
 30
0.0
 40
0.0885
  0
CIRCLE
  5
59F
  8
OBJECT
 10
59.930847999999997
 20
93.687663999999998
 30
0.0
 40
0.0885
  0
CIRCLE
  5
5A0
  8
OBJECT
 10
59.930847999999997
 20
94.187663999999998
 30
0.0
 40
0.0885
  0
CIRCLE
  5
5A1
  8
OBJECT
 10
59.930847999999997
 20
94.812663999999998
 30
0.0
 40
0.0885
  0
CIRCLE
  5
5A2
  8
OBJECT
 10
59.930847999999997
 20
95.937663999999984
 30
0.0
 40
0.0885
  0
CIRCLE
  5
5A3
  8
OBJECT
 10
59.930847999999997
 20
95.437663999999998
 30
0.0
 40
0.0885
  0
CIRCLE
  5
5A4
  8
OBJECT
 10
59.930847999999997
 20
97.187663999999984
 30
0.0
 40
0.0885
  0
CIRCLE
  5
5A5
  8
OBJECT
 10
59.930847999999997
 20
96.562663999999984
 30
0.0
 40
0.0885
  0
CIRCLE
  5
5A6
  8
OBJECT
 10
59.930847999999997
 20
97.687663999999998
 30
0.0
 40
0.0885
  0
CIRCLE
  5
5A7
  8
OBJECT
 10
59.930847999999997
 20
98.312663999999998
 30
0.0
 40
0.0885
  0
CIRCLE
  5
5A8
  8
OBJECT
 10
59.930847999999997
 20
98.937663999999998
 30
0.0
 40
0.0885
  0
CIRCLE
  5
5A9
  8
OBJECT
 10
59.930847999999997
 20
99.437664000000012
 30
0.0
 40
0.0885
  0
CIRCLE
  5
5AA
  8
OBJECT
 10
59.930847999999997
 20
100.6876639999999
 30
0.0
 40
0.0885
  0
CIRCLE
  5
5AB
  8
OBJECT
 10
59.930847999999997
 20
100.0626639999999
 30
0.0
 40
0.0885
  0
CIRCLE
  5
5AC
  8
OBJECT
 10
59.930847999999997
 20
101.187664
 30
0.0
 40
0.0885
  0
CIRCLE
  5
5AD
  8
OBJECT
 10
59.930847999999997
 20
101.8126639999999
 30
0.0
 40
0.0885
  0
CIRCLE
  5
5AE
  8
OBJECT
 10
59.930847999999997
 20
102.9376639999999
 30
0.0
 40
0.0885
  0
CIRCLE
  5
5AF
  8
OBJECT
 10
59.930847999999997
 20
102.437664
 30
0.0
 40
0.0885
  0
CIRCLE
  5
5B0
  8
OBJECT
 10
59.930847999999997
 20
104.1876639999999
 30
0.0
 40
0.0885
  0
CIRCLE
  5
5B1
  8
OBJECT
 10
59.930847999999997
 20
105.3126639999999
 30
0.0
 40
0.0885
  0
CIRCLE
  5
5B2
  8
OBJECT
 10
59.930847999999997
 20
104.687664
 30
0.0
 40
0.0885
  0
CIRCLE
  5
5B3
  8
OBJECT
 10
59.930847999999997
 20
103.562664
 30
0.0
 40
0.0885
  0
CIRCLE
  5
5B4
  8
OBJECT
 10
59.930847999999997
 20
106.4376639999999
 30
0.0
 40
0.0885
  0
CIRCLE
  5
5B5
  8
OBJECT
 10
59.930847999999997
 20
107.0626639999999
 30
0.0
 40
0.0885
  0
CIRCLE
  5
5B6
  8
OBJECT
 10
59.930847999999997
 20
105.9376639999999
 30
0.0
 40
0.0885
  0
CIRCLE
  5
5B7
  8
OBJECT
 10
59.930847999999997
 20
109.4376639999999
 30
0.0
 40
0.0885
  0
CIRCLE
  5
5B8
  8
OBJECT
 10
59.930847999999997
 20
108.1876639999999
 30
0.0
 40
0.0885
  0
CIRCLE
  5
5B9
  8
OBJECT
 10
59.930847999999997
 20
107.6876639999999
 30
0.0
 40
0.0885
  0
CIRCLE
  5
5BA
  8
OBJECT
 10
59.930847999999997
 20
108.8126639999999
 30
0.0
 40
0.0885
  0
CIRCLE
  5
5BB
  8
OBJECT
 10
59.930847999999997
 20
109.9376639999999
 30
0.0
 40
0.0885
  0
CIRCLE
  5
5BC
  8
OBJECT
 10
59.930847999999997
 20
110.5626639999999
 30
0.0
 40
0.0885
  0
CIRCLE
  5
5BD
  8
OBJECT
 10
59.930847999999997
 20
111.1876639999999
 30
0.0
 40
0.0885
  0
CIRCLE
  5
5BE
  8
OBJECT
 10
59.930847999999997
 20
111.6876639999999
 30
0.0
 40
0.0885
  0
CIRCLE
  5
5BF
  8
OBJECT
 10
59.930847999999997
 20
112.9376639999999
 30
0.0
 40
0.0885
  0
CIRCLE
  5
5C0
  8
OBJECT
 10
59.930847999999997
 20
112.3126639999999
 30
0.0
 40
0.0885
  0
CIRCLE
  5
5C1
  8
OBJECT
 10
59.930847999999997
 20
113.4376639999999
 30
0.0
 40
0.0885
  0
CIRCLE
  5
5C2
  8
HIDDEN
 10
59.930847999999997
 20
114.0626639999999
 30
0.0
 40
0.0885
  0
CIRCLE
  5
5C3
  8
HIDDEN
 10
59.930847999999997
 20
114.6876639999999
 30
0.0
 40
0.0885
  0
CIRCLE
  5
5C4
  8
OBJECT
 10
10.370943999999991
 20
66.812663999999998
 30
0.0
 40
0.0885
  0
CIRCLE
  5
5C5
  8
HIDDEN
 10
10.370943999999991
 20
37.062663999999998
 30
0.0
 40
0.0885
  0
CIRCLE
  5
5C6
  8
HIDDEN
 10
10.370943999999991
 20
36.437663999999998
 30
0.0
 40
0.0885
  0
CIRCLE
  5
5C7
  8
OBJECT
 10
10.370943999999991
 20
38.187663999999991
 30
0.0
 40
0.0885
  0
CIRCLE
  5
5C8
  8
OBJECT
 10
10.370943999999991
 20
37.687663999999998
 30
0.0
 40
0.0885
  0
CIRCLE
  5
5C9
  8
OBJECT
 10
10.370943999999991
 20
39.437663999999991
 30
0.0
 40
0.0885
  0
CIRCLE
  5
5CA
  8
OBJECT
 10
10.370943999999991
 20
38.812663999999991
 30
0.0
 40
0.0885
  0
CIRCLE
  5
5CB
  8
OBJECT
 10
10.370943999999991
 20
39.937663999999998
 30
0.0
 40
0.0885
  0
CIRCLE
  5
5CC
  8
OBJECT
 10
10.370943999999991
 20
40.562663999999998
 30
0.0
 40
0.0885
  0
CIRCLE
  5
5CD
  8
OBJECT
 10
10.370943999999991
 20
41.687663999999991
 30
0.0
 40
0.0885
  0
CIRCLE
  5
5CE
  8
OBJECT
 10
10.370943999999991
 20
41.187663999999998
 30
0.0
 40
0.0885
  0
CIRCLE
  5
5CF
  8
OBJECT
 10
10.370943999999991
 20
42.312663999999991
 30
0.0
 40
0.0885
  0
CIRCLE
  5
5D0
  8
OBJECT
 10
10.370943999999991
 20
46.437663999999991
 30
0.0
 40
0.0885
  0
CIRCLE
  5
5D1
  8
OBJECT
 10
10.370943999999991
 20
42.937663999999991
 30
0.0
 40
0.0885
  0
CIRCLE
  5
5D2
  8
OBJECT
 10
10.370943999999991
 20
44.062663999999991
 30
0.0
 40
0.0885
  0
CIRCLE
  5
5D3
  8
OBJECT
 10
10.370943999999991
 20
43.437663999999991
 30
0.0
 40
0.0885
  0
CIRCLE
  5
5D4
  8
OBJECT
 10
10.370943999999991
 20
45.187663999999991
 30
0.0
 40
0.0885
  0
CIRCLE
  5
5D5
  8
OBJECT
 10
10.370943999999991
 20
44.687663999999991
 30
0.0
 40
0.0885
  0
CIRCLE
  5
5D6
  8
OBJECT
 10
10.370943999999991
 20
45.812663999999991
 30
0.0
 40
0.0885
  0
CIRCLE
  5
5D7
  8
OBJECT
 10
10.370943999999991
 20
46.937663999999998
 30
0.0
 40
0.0885
  0
CIRCLE
  5
5D8
  8
OBJECT
 10
10.370943999999991
 20
47.562663999999998
 30
0.0
 40
0.0885
  0
CIRCLE
  5
5D9
  8
OBJECT
 10
10.370943999999991
 20
48.187663999999998
 30
0.0
 40
0.0885
  0
CIRCLE
  5
5DA
  8
OBJECT
 10
10.370943999999991
 20
48.687663999999998
 30
0.0
 40
0.0885
  0
CIRCLE
  5
5DB
  8
OBJECT
 10
10.370943999999991
 20
49.312663999999998
 30
0.0
 40
0.0885
  0
CIRCLE
  5
5DC
  8
OBJECT
 10
10.370943999999991
 20
50.437663999999991
 30
0.0
 40
0.0885
  0
CIRCLE
  5
5DD
  8
OBJECT
 10
10.370943999999991
 20
49.937663999999998
 30
0.0
 40
0.0885
  0
CIRCLE
  5
5DE
  8
OBJECT
 10
10.370943999999991
 20
58.687663999999998
 30
0.0
 40
0.0885
  0
CIRCLE
  5
5DF
  8
OBJECT
 10
10.370943999999991
 20
54.562663999999998
 30
0.0
 40
0.0885
  0
CIRCLE
  5
5E0
  8
OBJECT
 10
10.370943999999991
 20
51.687663999999991
 30
0.0
 40
0.0885
  0
CIRCLE
  5
5E1
  8
OBJECT
 10
10.370943999999991
 20
51.062663999999991
 30
0.0
 40
0.0885
  0
CIRCLE
  5
5E2
  8
OBJECT
 10
10.370943999999991
 20
52.187663999999991
 30
0.0
 40
0.0885
  0
CIRCLE
  5
5E3
  8
OBJECT
 10
10.370943999999991
 20
52.812663999999991
 30
0.0
 40
0.0885
  0
CIRCLE
  5
5E4
  8
OBJECT
 10
10.370943999999991
 20
53.937663999999998
 30
0.0
 40
0.0885
  0
CIRCLE
  5
5E5
  8
OBJECT
 10
10.370943999999991
 20
53.437663999999991
 30
0.0
 40
0.0885
  0
CIRCLE
  5
5E6
  8
OBJECT
 10
10.370943999999991
 20
55.187663999999998
 30
0.0
 40
0.0885
  0
CIRCLE
  5
5E7
  8
OBJECT
 10
10.370943999999991
 20
55.687663999999998
 30
0.0
 40
0.0885
  0
CIRCLE
  5
5E8
  8
OBJECT
 10
10.370943999999991
 20
56.312663999999998
 30
0.0
 40
0.0885
  0
CIRCLE
  5
5E9
  8
OBJECT
 10
10.370943999999991
 20
57.437663999999998
 30
0.0
 40
0.0885
  0
CIRCLE
  5
5EA
  8
OBJECT
 10
10.370943999999991
 20
56.937663999999998
 30
0.0
 40
0.0885
  0
CIRCLE
  5
5EB
  8
OBJECT
 10
10.370943999999991
 20
58.062663999999998
 30
0.0
 40
0.0885
  0
CIRCLE
  5
5EC
  8
OBJECT
 10
10.370943999999991
 20
62.687663999999998
 30
0.0
 40
0.0885
  0
CIRCLE
  5
5ED
  8
OBJECT
 10
10.370943999999991
 20
59.187663999999991
 30
0.0
 40
0.0885
  0
CIRCLE
  5
5EE
  8
OBJECT
 10
10.370943999999991
 20
59.812663999999991
 30
0.0
 40
0.0885
  0
CIRCLE
  5
5EF
  8
OBJECT
 10
10.370943999999991
 20
60.437663999999991
 30
0.0
 40
0.0885
  0
CIRCLE
  5
5F0
  8
OBJECT
 10
10.370943999999991
 20
60.937663999999991
 30
0.0
 40
0.0885
  0
CIRCLE
  5
5F1
  8
OBJECT
 10
10.370943999999991
 20
62.187663999999991
 30
0.0
 40
0.0885
  0
CIRCLE
  5
5F2
  8
OBJECT
 10
10.370943999999991
 20
61.562663999999991
 30
0.0
 40
0.0885
  0
CIRCLE
  5
5F3
  8
OBJECT
 10
10.370943999999991
 20
63.312663999999998
 30
0.0
 40
0.0885
  0
CIRCLE
  5
5F4
  8
OBJECT
 10
10.370943999999991
 20
64.437663999999998
 30
0.0
 40
0.0885
  0
CIRCLE
  5
5F5
  8
OBJECT
 10
10.370943999999991
 20
63.937663999999998
 30
0.0
 40
0.0885
  0
CIRCLE
  5
5F6
  8
OBJECT
 10
10.370943999999991
 20
65.687663999999998
 30
0.0
 40
0.0885
  0
CIRCLE
  5
5F7
  8
OBJECT
 10
10.370943999999991
 20
66.187663999999998
 30
0.0
 40
0.0885
  0
CIRCLE
  5
5F8
  8
OBJECT
 10
10.370943999999991
 20
65.062663999999998
 30
0.0
 40
0.0885
  0
CIRCLE
  5
5F9
  8
OBJECT
 10
10.370943999999991
 20
74.937663999999998
 30
0.0
 40
0.0885
  0
CIRCLE
  5
5FA
  8
OBJECT
 10
10.370943999999991
 20
70.937663999999984
 30
0.0
 40
0.0885
  0
CIRCLE
  5
5FB
  8
OBJECT
 10
10.370943999999991
 20
67.937663999999984
 30
0.0
 40
0.0885
  0
CIRCLE
  5
5FC
  8
OBJECT
 10
10.370943999999991
 20
68.562663999999984
 30
0.0
 40
0.0885
  0
CIRCLE
  5
5FD
  8
OBJECT
 10
10.370943999999991
 20
67.437663999999998
 30
0.0
 40
0.0885
  0
CIRCLE
  5
5FE
  8
OBJECT
 10
10.370943999999991
 20
69.687663999999984
 30
0.0
 40
0.0885
  0
CIRCLE
  5
5FF
  8
OBJECT
 10
10.370943999999991
 20
69.187663999999984
 30
0.0
 40
0.0885
  0
CIRCLE
  5
600
  8
OBJECT
 10
10.370943999999991
 20
70.312663999999984
 30
0.0
 40
0.0885
  0
CIRCLE
  5
601
  8
OBJECT
 10
10.370943999999991
 20
71.437663999999998
 30
0.0
 40
0.0885
  0
CIRCLE
  5
602
  8
OBJECT
 10
10.370943999999991
 20
72.062663999999998
 30
0.0
 40
0.0885
  0
CIRCLE
  5
603
  8
OBJECT
 10
10.370943999999991
 20
72.687663999999998
 30
0.0
 40
0.0885
  0
CIRCLE
  5
604
  8
OBJECT
 10
10.370943999999991
 20
73.187663999999998
 30
0.0
 40
0.0885
  0
CIRCLE
  5
605
  8
OBJECT
 10
10.370943999999991
 20
74.437663999999998
 30
0.0
 40
0.0885
  0
CIRCLE
  5
606
  8
OBJECT
 10
10.370943999999991
 20
73.812663999999998
 30
0.0
 40
0.0885
  0
CIRCLE
  5
607
  8
OBJECT
 10
10.370943999999991
 20
79.062663999999984
 30
0.0
 40
0.0885
  0
CIRCLE
  5
608
  8
OBJECT
 10
10.370943999999991
 20
75.562663999999998
 30
0.0
 40
0.0885
  0
CIRCLE
  5
609
  8
OBJECT
 10
10.370943999999991
 20
76.687663999999984
 30
0.0
 40
0.0885
  0
CIRCLE
  5
60A
  8
OBJECT
 10
10.370943999999991
 20
76.187663999999998
 30
0.0
 40
0.0885
  0
CIRCLE
  5
60B
  8
OBJECT
 10
10.370943999999991
 20
77.937663999999984
 30
0.0
 40
0.0885
  0
CIRCLE
  5
60C
  8
OBJECT
 10
10.370943999999991
 20
77.312663999999984
 30
0.0
 40
0.0885
  0
CIRCLE
  5
60D
  8
OBJECT
 10
10.370943999999991
 20
78.437663999999984
 30
0.0
 40
0.0885
  0
CIRCLE
  5
60E
  8
OBJECT
 10
10.370943999999991
 20
80.187663999999998
 30
0.0
 40
0.0885
  0
CIRCLE
  5
60F
  8
OBJECT
 10
10.370943999999991
 20
79.687663999999984
 30
0.0
 40
0.0885
  0
CIRCLE
  5
610
  8
OBJECT
 10
10.370943999999991
 20
80.812663999999998
 30
0.0
 40
0.0885
  0
CIRCLE
  5
611
  8
OBJECT
 10
10.370943999999991
 20
81.437663999999998
 30
0.0
 40
0.0885
  0
CIRCLE
  5
612
  8
OBJECT
 10
10.370943999999991
 20
82.562663999999984
 30
0.0
 40
0.0885
  0
CIRCLE
  5
613
  8
OBJECT
 10
10.370943999999991
 20
81.937663999999984
 30
0.0
 40
0.0885
  0
CIRCLE
  5
614
  8
OBJECT
 10
10.370943999999991
 20
87.187663999999984
 30
0.0
 40
0.0885
  0
CIRCLE
  5
615
  8
OBJECT
 10
10.370943999999991
 20
83.687663999999998
 30
0.0
 40
0.0885
  0
CIRCLE
  5
616
  8
OBJECT
 10
10.370943999999991
 20
83.187663999999984
 30
0.0
 40
0.0885
  0
CIRCLE
  5
617
  8
OBJECT
 10
10.370943999999991
 20
84.937663999999998
 30
0.0
 40
0.0885
  0
CIRCLE
  5
618
  8
OBJECT
 10
10.370943999999991
 20
84.312663999999998
 30
0.0
 40
0.0885
  0
CIRCLE
  5
619
  8
OBJECT
 10
10.370943999999991
 20
86.062663999999998
 30
0.0
 40
0.0885
  0
CIRCLE
  5
61A
  8
OBJECT
 10
10.370943999999991
 20
85.437663999999998
 30
0.0
 40
0.0885
  0
CIRCLE
  5
61B
  8
OBJECT
 10
10.370943999999991
 20
86.687663999999998
 30
0.0
 40
0.0885
  0
CIRCLE
  5
61C
  8
OBJECT
 10
10.370943999999991
 20
88.937663999999998
 30
0.0
 40
0.0885
  0
CIRCLE
  5
61D
  8
OBJECT
 10
10.370943999999991
 20
88.437663999999984
 30
0.0
 40
0.0885
  0
CIRCLE
  5
61E
  8
OBJECT
 10
10.370943999999991
 20
87.812663999999984
 30
0.0
 40
0.0885
  0
CIRCLE
  5
61F
  8
OBJECT
 10
10.370943999999991
 20
90.187663999999998
 30
0.0
 40
0.0885
  0
CIRCLE
  5
620
  8
OBJECT
 10
10.370943999999991
 20
89.562663999999998
 30
0.0
 40
0.0885
  0
CIRCLE
  5
621
  8
OBJECT
 10
10.370943999999991
 20
90.687663999999984
 30
0.0
 40
0.0885
  0
CIRCLE
  5
622
  8
OBJECT
 10
10.370943999999991
 20
91.312663999999984
 30
0.0
 40
0.0885
  0
CIRCLE
  5
623
  8
OBJECT
 10
10.370943999999991
 20
92.437663999999998
 30
0.0
 40
0.0885
  0
CIRCLE
  5
624
  8
OBJECT
 10
10.370943999999991
 20
91.937663999999984
 30
0.0
 40
0.0885
  0
CIRCLE
  5
625
  8
OBJECT
 10
10.370943999999991
 20
93.062663999999998
 30
0.0
 40
0.0885
  0
CIRCLE
  5
626
  8
OBJECT
 10
10.370943999999991
 20
93.687663999999998
 30
0.0
 40
0.0885
  0
CIRCLE
  5
627
  8
OBJECT
 10
10.370943999999991
 20
94.187663999999998
 30
0.0
 40
0.0885
  0
CIRCLE
  5
628
  8
OBJECT
 10
10.370943999999991
 20
94.812663999999998
 30
0.0
 40
0.0885
  0
CIRCLE
  5
629
  8
OBJECT
 10
10.370943999999991
 20
95.937663999999984
 30
0.0
 40
0.0885
  0
CIRCLE
  5
62A
  8
OBJECT
 10
10.370943999999991
 20
95.437663999999998
 30
0.0
 40
0.0885
  0
CIRCLE
  5
62B
  8
OBJECT
 10
10.370943999999991
 20
97.187663999999984
 30
0.0
 40
0.0885
  0
CIRCLE
  5
62C
  8
OBJECT
 10
10.370943999999991
 20
96.562663999999984
 30
0.0
 40
0.0885
  0
CIRCLE
  5
62D
  8
OBJECT
 10
10.370943999999991
 20
97.687663999999998
 30
0.0
 40
0.0885
  0
CIRCLE
  5
62E
  8
OBJECT
 10
10.370943999999991
 20
98.312663999999998
 30
0.0
 40
0.0885
  0
CIRCLE
  5
62F
  8
OBJECT
 10
10.370943999999991
 20
98.937663999999998
 30
0.0
 40
0.0885
  0
CIRCLE
  5
630
  8
OBJECT
 10
10.370943999999991
 20
99.437664000000012
 30
0.0
 40
0.0885
  0
CIRCLE
  5
631
  8
OBJECT
 10
10.370943999999991
 20
100.6876639999999
 30
0.0
 40
0.0885
  0
CIRCLE
  5
632
  8
OBJECT
 10
10.370943999999991
 20
100.0626639999999
 30
0.0
 40
0.0885
  0
CIRCLE
  5
633
  8
OBJECT
 10
10.370943999999991
 20
101.187664
 30
0.0
 40
0.0885
  0
CIRCLE
  5
634
  8
OBJECT
 10
10.370943999999991
 20
101.8126639999999
 30
0.0
 40
0.0885
  0
CIRCLE
  5
635
  8
OBJECT
 10
10.370943999999991
 20
102.9376639999999
 30
0.0
 40
0.0885
  0
CIRCLE
  5
636
  8
OBJECT
 10
10.370943999999991
 20
102.437664
 30
0.0
 40
0.0885
  0
CIRCLE
  5
637
  8
OBJECT
 10
10.370943999999991
 20
104.1876639999999
 30
0.0
 40
0.0885
  0
CIRCLE
  5
638
  8
OBJECT
 10
10.370943999999991
 20
105.3126639999999
 30
0.0
 40
0.0885
  0
CIRCLE
  5
639
  8
OBJECT
 10
10.370943999999991
 20
104.687664
 30
0.0
 40
0.0885
  0
CIRCLE
  5
63A
  8
OBJECT
 10
10.370943999999991
 20
103.562664
 30
0.0
 40
0.0885
  0
CIRCLE
  5
63B
  8
OBJECT
 10
10.370943999999991
 20
106.4376639999999
 30
0.0
 40
0.0885
  0
CIRCLE
  5
63C
  8
OBJECT
 10
10.370943999999991
 20
107.0626639999999
 30
0.0
 40
0.0885
  0
CIRCLE
  5
63D
  8
OBJECT
 10
10.370943999999991
 20
105.9376639999999
 30
0.0
 40
0.0885
  0
CIRCLE
  5
63E
  8
OBJECT
 10
10.370943999999991
 20
109.4376639999999
 30
0.0
 40
0.0885
  0
CIRCLE
  5
63F
  8
OBJECT
 10
10.370943999999991
 20
108.1876639999999
 30
0.0
 40
0.0885
  0
CIRCLE
  5
640
  8
OBJECT
 10
10.370943999999991
 20
107.6876639999999
 30
0.0
 40
0.0885
  0
CIRCLE
  5
641
  8
OBJECT
 10
10.370943999999991
 20
108.8126639999999
 30
0.0
 40
0.0885
  0
CIRCLE
  5
642
  8
OBJECT
 10
10.370943999999991
 20
109.9376639999999
 30
0.0
 40
0.0885
  0
CIRCLE
  5
643
  8
OBJECT
 10
10.370943999999991
 20
110.5626639999999
 30
0.0
 40
0.0885
  0
CIRCLE
  5
644
  8
OBJECT
 10
10.370943999999991
 20
111.1876639999999
 30
0.0
 40
0.0885
  0
CIRCLE
  5
645
  8
OBJECT
 10
10.370943999999991
 20
111.6876639999999
 30
0.0
 40
0.0885
  0
CIRCLE
  5
646
  8
OBJECT
 10
10.370943999999991
 20
112.9376639999999
 30
0.0
 40
0.0885
  0
CIRCLE
  5
647
  8
OBJECT
 10
10.370943999999991
 20
112.3126639999999
 30
0.0
 40
0.0885
  0
CIRCLE
  5
648
  8
OBJECT
 10
10.370943999999991
 20
113.4376639999999
 30
0.0
 40
0.0885
  0
CIRCLE
  5
649
  8
HIDDEN
 10
10.370943999999991
 20
114.0626639999999
 30
0.0
 40
0.0885
  0
CIRCLE
  5
64A
  8
HIDDEN
 10
10.370943999999991
 20
114.6876639999999
 30
0.0
 40
0.0885
  0
CIRCLE
  5
64B
  8
OBJECT
 10
78.243274999999997
 20
66.812663999999998
 30
0.0
 40
0.0885
  0
CIRCLE
  5
64C
  8
OBJECT
 10
78.243274999999997
 20
37.687663999999998
 30
0.0
 40
0.0885
  0
CIRCLE
  5
64D
  8
OBJECT
 10
78.243274999999997
 20
38.187663999999991
 30
0.0
 40
0.0885
  0
CIRCLE
  5
64E
  8
HIDDEN
 10
78.243274999999997
 20
36.437663999999998
 30
0.0
 40
0.0885
  0
CIRCLE
  5
64F
  8
HIDDEN
 10
78.243274999999997
 20
37.062663999999998
 30
0.0
 40
0.0885
  0
CIRCLE
  5
650
  8
OBJECT
 10
78.243274999999997
 20
39.937663999999998
 30
0.0
 40
0.0885
  0
CIRCLE
  5
651
  8
OBJECT
 10
78.243274999999997
 20
38.812663999999991
 30
0.0
 40
0.0885
  0
CIRCLE
  5
652
  8
OBJECT
 10
78.243274999999997
 20
39.437663999999991
 30
0.0
 40
0.0885
  0
CIRCLE
  5
653
  8
OBJECT
 10
78.243274999999997
 20
42.312663999999991
 30
0.0
 40
0.0885
  0
CIRCLE
  5
654
  8
OBJECT
 10
78.243274999999997
 20
41.187663999999998
 30
0.0
 40
0.0885
  0
CIRCLE
  5
655
  8
OBJECT
 10
78.243274999999997
 20
41.687663999999991
 30
0.0
 40
0.0885
  0
CIRCLE
  5
656
  8
OBJECT
 10
78.243274999999997
 20
40.562663999999998
 30
0.0
 40
0.0885
  0
CIRCLE
  5
657
  8
OBJECT
 10
78.243274999999997
 20
46.437663999999991
 30
0.0
 40
0.0885
  0
CIRCLE
  5
658
  8
OBJECT
 10
78.243274999999997
 20
43.437663999999991
 30
0.0
 40
0.0885
  0
CIRCLE
  5
659
  8
OBJECT
 10
78.243274999999997
 20
44.062663999999991
 30
0.0
 40
0.0885
  0
CIRCLE
  5
65A
  8
OBJECT
 10
78.243274999999997
 20
42.937663999999991
 30
0.0
 40
0.0885
  0
CIRCLE
  5
65B
  8
OBJECT
 10
78.243274999999997
 20
45.812663999999991
 30
0.0
 40
0.0885
  0
CIRCLE
  5
65C
  8
OBJECT
 10
78.243274999999997
 20
44.687663999999991
 30
0.0
 40
0.0885
  0
CIRCLE
  5
65D
  8
OBJECT
 10
78.243274999999997
 20
45.187663999999991
 30
0.0
 40
0.0885
  0
CIRCLE
  5
65E
  8
OBJECT
 10
78.243274999999997
 20
48.187663999999998
 30
0.0
 40
0.0885
  0
CIRCLE
  5
65F
  8
OBJECT
 10
78.243274999999997
 20
47.562663999999998
 30
0.0
 40
0.0885
  0
CIRCLE
  5
660
  8
OBJECT
 10
78.243274999999997
 20
46.937663999999998
 30
0.0
 40
0.0885
  0
CIRCLE
  5
661
  8
OBJECT
 10
78.243274999999997
 20
49.937663999999998
 30
0.0
 40
0.0885
  0
CIRCLE
  5
662
  8
OBJECT
 10
78.243274999999997
 20
50.437663999999991
 30
0.0
 40
0.0885
  0
CIRCLE
  5
663
  8
OBJECT
 10
78.243274999999997
 20
49.312663999999998
 30
0.0
 40
0.0885
  0
CIRCLE
  5
664
  8
OBJECT
 10
78.243274999999997
 20
48.687663999999998
 30
0.0
 40
0.0885
  0
CIRCLE
  5
665
  8
OBJECT
 10
78.243274999999997
 20
58.687663999999998
 30
0.0
 40
0.0885
  0
CIRCLE
  5
666
  8
OBJECT
 10
78.243274999999997
 20
54.562663999999998
 30
0.0
 40
0.0885
  0
CIRCLE
  5
667
  8
OBJECT
 10
78.243274999999997
 20
52.187663999999991
 30
0.0
 40
0.0885
  0
CIRCLE
  5
668
  8
OBJECT
 10
78.243274999999997
 20
51.062663999999991
 30
0.0
 40
0.0885
  0
CIRCLE
  5
669
  8
OBJECT
 10
78.243274999999997
 20
51.687663999999991
 30
0.0
 40
0.0885
  0
CIRCLE
  5
66A
  8
OBJECT
 10
78.243274999999997
 20
53.437663999999991
 30
0.0
 40
0.0885
  0
CIRCLE
  5
66B
  8
OBJECT
 10
78.243274999999997
 20
53.937663999999998
 30
0.0
 40
0.0885
  0
CIRCLE
  5
66C
  8
OBJECT
 10
78.243274999999997
 20
52.812663999999991
 30
0.0
 40
0.0885
  0
CIRCLE
  5
66D
  8
OBJECT
 10
78.243274999999997
 20
56.312663999999998
 30
0.0
 40
0.0885
  0
CIRCLE
  5
66E
  8
OBJECT
 10
78.243274999999997
 20
55.687663999999998
 30
0.0
 40
0.0885
  0
CIRCLE
  5
66F
  8
OBJECT
 10
78.243274999999997
 20
55.187663999999998
 30
0.0
 40
0.0885
  0
CIRCLE
  5
670
  8
OBJECT
 10
78.243274999999997
 20
58.062663999999998
 30
0.0
 40
0.0885
  0
CIRCLE
  5
671
  8
OBJECT
 10
78.243274999999997
 20
56.937663999999998
 30
0.0
 40
0.0885
  0
CIRCLE
  5
672
  8
OBJECT
 10
78.243274999999997
 20
57.437663999999998
 30
0.0
 40
0.0885
  0
CIRCLE
  5
673
  8
OBJECT
 10
78.243274999999997
 20
62.687663999999998
 30
0.0
 40
0.0885
  0
CIRCLE
  5
674
  8
OBJECT
 10
78.243274999999997
 20
60.437663999999991
 30
0.0
 40
0.0885
  0
CIRCLE
  5
675
  8
OBJECT
 10
78.243274999999997
 20
59.812663999999991
 30
0.0
 40
0.0885
  0
CIRCLE
  5
676
  8
OBJECT
 10
78.243274999999997
 20
59.187663999999991
 30
0.0
 40
0.0885
  0
CIRCLE
  5
677
  8
OBJECT
 10
78.243274999999997
 20
61.562663999999991
 30
0.0
 40
0.0885
  0
CIRCLE
  5
678
  8
OBJECT
 10
78.243274999999997
 20
62.187663999999991
 30
0.0
 40
0.0885
  0
CIRCLE
  5
679
  8
OBJECT
 10
78.243274999999997
 20
60.937663999999991
 30
0.0
 40
0.0885
  0
CIRCLE
  5
67A
  8
OBJECT
 10
78.243274999999997
 20
63.937663999999998
 30
0.0
 40
0.0885
  0
CIRCLE
  5
67B
  8
OBJECT
 10
78.243274999999997
 20
64.437663999999998
 30
0.0
 40
0.0885
  0
CIRCLE
  5
67C
  8
OBJECT
 10
78.243274999999997
 20
63.312663999999998
 30
0.0
 40
0.0885
  0
CIRCLE
  5
67D
  8
OBJECT
 10
78.243274999999997
 20
65.062663999999998
 30
0.0
 40
0.0885
  0
CIRCLE
  5
67E
  8
OBJECT
 10
78.243274999999997
 20
66.187663999999998
 30
0.0
 40
0.0885
  0
CIRCLE
  5
67F
  8
OBJECT
 10
78.243274999999997
 20
65.687663999999998
 30
0.0
 40
0.0885
  0
CIRCLE
  5
680
  8
OBJECT
 10
78.243274999999997
 20
74.937663999999998
 30
0.0
 40
0.0885
  0
CIRCLE
  5
681
  8
OBJECT
 10
78.243274999999997
 20
70.937663999999984
 30
0.0
 40
0.0885
  0
CIRCLE
  5
682
  8
OBJECT
 10
78.243274999999997
 20
67.437663999999998
 30
0.0
 40
0.0885
  0
CIRCLE
  5
683
  8
OBJECT
 10
78.243274999999997
 20
68.562663999999984
 30
0.0
 40
0.0885
  0
CIRCLE
  5
684
  8
OBJECT
 10
78.243274999999997
 20
67.937663999999984
 30
0.0
 40
0.0885
  0
CIRCLE
  5
685
  8
OBJECT
 10
78.243274999999997
 20
70.312663999999984
 30
0.0
 40
0.0885
  0
CIRCLE
  5
686
  8
OBJECT
 10
78.243274999999997
 20
69.187663999999984
 30
0.0
 40
0.0885
  0
CIRCLE
  5
687
  8
OBJECT
 10
78.243274999999997
 20
69.687663999999984
 30
0.0
 40
0.0885
  0
CIRCLE
  5
688
  8
OBJECT
 10
78.243274999999997
 20
72.687663999999998
 30
0.0
 40
0.0885
  0
CIRCLE
  5
689
  8
OBJECT
 10
78.243274999999997
 20
72.062663999999998
 30
0.0
 40
0.0885
  0
CIRCLE
  5
68A
  8
OBJECT
 10
78.243274999999997
 20
71.437663999999998
 30
0.0
 40
0.0885
  0
CIRCLE
  5
68B
  8
OBJECT
 10
78.243274999999997
 20
73.812663999999998
 30
0.0
 40
0.0885
  0
CIRCLE
  5
68C
  8
OBJECT
 10
78.243274999999997
 20
74.437663999999998
 30
0.0
 40
0.0885
  0
CIRCLE
  5
68D
  8
OBJECT
 10
78.243274999999997
 20
73.187663999999998
 30
0.0
 40
0.0885
  0
CIRCLE
  5
68E
  8
OBJECT
 10
78.243274999999997
 20
79.062663999999984
 30
0.0
 40
0.0885
  0
CIRCLE
  5
68F
  8
OBJECT
 10
78.243274999999997
 20
76.187663999999998
 30
0.0
 40
0.0885
  0
CIRCLE
  5
690
  8
OBJECT
 10
78.243274999999997
 20
76.687663999999984
 30
0.0
 40
0.0885
  0
CIRCLE
  5
691
  8
OBJECT
 10
78.243274999999997
 20
75.562663999999998
 30
0.0
 40
0.0885
  0
CIRCLE
  5
692
  8
OBJECT
 10
78.243274999999997
 20
78.437663999999984
 30
0.0
 40
0.0885
  0
CIRCLE
  5
693
  8
OBJECT
 10
78.243274999999997
 20
77.312663999999984
 30
0.0
 40
0.0885
  0
CIRCLE
  5
694
  8
OBJECT
 10
78.243274999999997
 20
77.937663999999984
 30
0.0
 40
0.0885
  0
CIRCLE
  5
695
  8
OBJECT
 10
78.243274999999997
 20
80.812663999999998
 30
0.0
 40
0.0885
  0
CIRCLE
  5
696
  8
OBJECT
 10
78.243274999999997
 20
79.687663999999984
 30
0.0
 40
0.0885
  0
CIRCLE
  5
697
  8
OBJECT
 10
78.243274999999997
 20
80.187663999999998
 30
0.0
 40
0.0885
  0
CIRCLE
  5
698
  8
OBJECT
 10
78.243274999999997
 20
81.937663999999984
 30
0.0
 40
0.0885
  0
CIRCLE
  5
699
  8
OBJECT
 10
78.243274999999997
 20
82.562663999999984
 30
0.0
 40
0.0885
  0
CIRCLE
  5
69A
  8
OBJECT
 10
78.243274999999997
 20
81.437663999999998
 30
0.0
 40
0.0885
  0
CIRCLE
  5
69B
  8
OBJECT
 10
78.243274999999997
 20
87.187663999999984
 30
0.0
 40
0.0885
  0
CIRCLE
  5
69C
  8
OBJECT
 10
78.243274999999997
 20
84.312663999999998
 30
0.0
 40
0.0885
  0
CIRCLE
  5
69D
  8
OBJECT
 10
78.243274999999997
 20
84.937663999999998
 30
0.0
 40
0.0885
  0
CIRCLE
  5
69E
  8
OBJECT
 10
78.243274999999997
 20
83.187663999999984
 30
0.0
 40
0.0885
  0
CIRCLE
  5
69F
  8
OBJECT
 10
78.243274999999997
 20
83.687663999999998
 30
0.0
 40
0.0885
  0
CIRCLE
  5
6A0
  8
OBJECT
 10
78.243274999999997
 20
86.687663999999998
 30
0.0
 40
0.0885
  0
CIRCLE
  5
6A1
  8
OBJECT
 10
78.243274999999997
 20
85.437663999999998
 30
0.0
 40
0.0885
  0
CIRCLE
  5
6A2
  8
OBJECT
 10
78.243274999999997
 20
86.062663999999998
 30
0.0
 40
0.0885
  0
CIRCLE
  5
6A3
  8
OBJECT
 10
78.243274999999997
 20
87.812663999999984
 30
0.0
 40
0.0885
  0
CIRCLE
  5
6A4
  8
OBJECT
 10
78.243274999999997
 20
88.437663999999984
 30
0.0
 40
0.0885
  0
CIRCLE
  5
6A5
  8
OBJECT
 10
78.243274999999997
 20
88.937663999999998
 30
0.0
 40
0.0885
  0
CIRCLE
  5
6A6
  8
OBJECT
 10
78.243274999999997
 20
90.687663999999984
 30
0.0
 40
0.0885
  0
CIRCLE
  5
6A7
  8
OBJECT
 10
78.243274999999997
 20
89.562663999999998
 30
0.0
 40
0.0885
  0
CIRCLE
  5
6A8
  8
OBJECT
 10
78.243274999999997
 20
90.187663999999998
 30
0.0
 40
0.0885
  0
CIRCLE
  5
6A9
  8
OBJECT
 10
78.243274999999997
 20
93.062663999999998
 30
0.0
 40
0.0885
  0
CIRCLE
  5
6AA
  8
OBJECT
 10
78.243274999999997
 20
91.937663999999984
 30
0.0
 40
0.0885
  0
CIRCLE
  5
6AB
  8
OBJECT
 10
78.243274999999997
 20
92.437663999999998
 30
0.0
 40
0.0885
  0
CIRCLE
  5
6AC
  8
OBJECT
 10
78.243274999999997
 20
91.312663999999984
 30
0.0
 40
0.0885
  0
CIRCLE
  5
6AD
  8
OBJECT
 10
78.243274999999997
 20
94.812663999999998
 30
0.0
 40
0.0885
  0
CIRCLE
  5
6AE
  8
OBJECT
 10
78.243274999999997
 20
94.187663999999998
 30
0.0
 40
0.0885
  0
CIRCLE
  5
6AF
  8
OBJECT
 10
78.243274999999997
 20
93.687663999999998
 30
0.0
 40
0.0885
  0
CIRCLE
  5
6B0
  8
OBJECT
 10
78.243274999999997
 20
96.562663999999984
 30
0.0
 40
0.0885
  0
CIRCLE
  5
6B1
  8
OBJECT
 10
78.243274999999997
 20
97.187663999999984
 30
0.0
 40
0.0885
  0
CIRCLE
  5
6B2
  8
OBJECT
 10
78.243274999999997
 20
95.437663999999998
 30
0.0
 40
0.0885
  0
CIRCLE
  5
6B3
  8
OBJECT
 10
78.243274999999997
 20
95.937663999999984
 30
0.0
 40
0.0885
  0
CIRCLE
  5
6B4
  8
OBJECT
 10
78.243274999999997
 20
98.937663999999998
 30
0.0
 40
0.0885
  0
CIRCLE
  5
6B5
  8
OBJECT
 10
78.243274999999997
 20
98.312663999999998
 30
0.0
 40
0.0885
  0
CIRCLE
  5
6B6
  8
OBJECT
 10
78.243274999999997
 20
97.687663999999998
 30
0.0
 40
0.0885
  0
CIRCLE
  5
6B7
  8
OBJECT
 10
78.243274999999997
 20
101.187664
 30
0.0
 40
0.0885
  0
CIRCLE
  5
6B8
  8
OBJECT
 10
78.243274999999997
 20
100.0626639999999
 30
0.0
 40
0.0885
  0
CIRCLE
  5
6B9
  8
OBJECT
 10
78.243274999999997
 20
100.6876639999999
 30
0.0
 40
0.0885
  0
CIRCLE
  5
6BA
  8
OBJECT
 10
78.243274999999997
 20
99.437664000000012
 30
0.0
 40
0.0885
  0
CIRCLE
  5
6BB
  8
OBJECT
 10
78.243274999999997
 20
102.437664
 30
0.0
 40
0.0885
  0
CIRCLE
  5
6BC
  8
OBJECT
 10
78.243274999999997
 20
102.9376639999999
 30
0.0
 40
0.0885
  0
CIRCLE
  5
6BD
  8
OBJECT
 10
78.243274999999997
 20
101.8126639999999
 30
0.0
 40
0.0885
  0
CIRCLE
  5
6BE
  8
OBJECT
 10
78.243274999999997
 20
103.562664
 30
0.0
 40
0.0885
  0
CIRCLE
  5
6BF
  8
OBJECT
 10
78.243274999999997
 20
104.687664
 30
0.0
 40
0.0885
  0
CIRCLE
  5
6C0
  8
OBJECT
 10
78.243274999999997
 20
105.3126639999999
 30
0.0
 40
0.0885
  0
CIRCLE
  5
6C1
  8
OBJECT
 10
78.243274999999997
 20
104.1876639999999
 30
0.0
 40
0.0885
  0
CIRCLE
  5
6C2
  8
OBJECT
 10
78.243274999999997
 20
105.9376639999999
 30
0.0
 40
0.0885
  0
CIRCLE
  5
6C3
  8
OBJECT
 10
78.243274999999997
 20
107.0626639999999
 30
0.0
 40
0.0885
  0
CIRCLE
  5
6C4
  8
OBJECT
 10
78.243274999999997
 20
106.4376639999999
 30
0.0
 40
0.0885
  0
CIRCLE
  5
6C5
  8
OBJECT
 10
78.243274999999997
 20
109.4376639999999
 30
0.0
 40
0.0885
  0
CIRCLE
  5
6C6
  8
OBJECT
 10
78.243274999999997
 20
108.8126639999999
 30
0.0
 40
0.0885
  0
CIRCLE
  5
6C7
  8
OBJECT
 10
78.243274999999997
 20
107.6876639999999
 30
0.0
 40
0.0885
  0
CIRCLE
  5
6C8
  8
OBJECT
 10
78.243274999999997
 20
108.1876639999999
 30
0.0
 40
0.0885
  0
CIRCLE
  5
6C9
  8
OBJECT
 10
78.243274999999997
 20
111.1876639999999
 30
0.0
 40
0.0885
  0
CIRCLE
  5
6CA
  8
OBJECT
 10
78.243274999999997
 20
110.5626639999999
 30
0.0
 40
0.0885
  0
CIRCLE
  5
6CB
  8
OBJECT
 10
78.243274999999997
 20
109.9376639999999
 30
0.0
 40
0.0885
  0
CIRCLE
  5
6CC
  8
OBJECT
 10
78.243274999999997
 20
113.4376639999999
 30
0.0
 40
0.0885
  0
CIRCLE
  5
6CD
  8
OBJECT
 10
78.243274999999997
 20
112.3126639999999
 30
0.0
 40
0.0885
  0
CIRCLE
  5
6CE
  8
OBJECT
 10
78.243274999999997
 20
112.9376639999999
 30
0.0
 40
0.0885
  0
CIRCLE
  5
6CF
  8
OBJECT
 10
78.243274999999997
 20
111.6876639999999
 30
0.0
 40
0.0885
  0
CIRCLE
  5
6D0
  8
HIDDEN
 10
78.243274999999997
 20
114.6876639999999
 30
0.0
 40
0.0885
  0
CIRCLE
  5
6D1
  8
HIDDEN
 10
78.243274999999997
 20
114.0626639999999
 30
0.0
 40
0.0885
  0
CIRCLE
  5
6D2
  8
OBJECT
 10
28.683371000000001
 20
66.812663999999998
 30
0.0
 40
0.0885
  0
CIRCLE
  5
6D3
  8
OBJECT
 10
28.683371000000001
 20
37.687663999999998
 30
0.0
 40
0.0885
  0
CIRCLE
  5
6D4
  8
OBJECT
 10
28.683371000000001
 20
38.187663999999991
 30
0.0
 40
0.0885
  0
CIRCLE
  5
6D5
  8
HIDDEN
 10
28.683371000000001
 20
36.437663999999998
 30
0.0
 40
0.0885
  0
CIRCLE
  5
6D6
  8
HIDDEN
 10
28.683371000000001
 20
37.062663999999998
 30
0.0
 40
0.0885
  0
CIRCLE
  5
6D7
  8
OBJECT
 10
28.683371000000001
 20
39.937663999999998
 30
0.0
 40
0.0885
  0
CIRCLE
  5
6D8
  8
OBJECT
 10
28.683371000000001
 20
38.812663999999991
 30
0.0
 40
0.0885
  0
CIRCLE
  5
6D9
  8
OBJECT
 10
28.683371000000001
 20
39.437663999999991
 30
0.0
 40
0.0885
  0
CIRCLE
  5
6DA
  8
OBJECT
 10
28.683371000000001
 20
42.312663999999991
 30
0.0
 40
0.0885
  0
CIRCLE
  5
6DB
  8
OBJECT
 10
28.683371000000001
 20
41.187663999999998
 30
0.0
 40
0.0885
  0
CIRCLE
  5
6DC
  8
OBJECT
 10
28.683371000000001
 20
41.687663999999991
 30
0.0
 40
0.0885
  0
CIRCLE
  5
6DD
  8
OBJECT
 10
28.683371000000001
 20
40.562663999999998
 30
0.0
 40
0.0885
  0
CIRCLE
  5
6DE
  8
OBJECT
 10
28.683371000000001
 20
46.437663999999991
 30
0.0
 40
0.0885
  0
CIRCLE
  5
6DF
  8
OBJECT
 10
28.683371000000001
 20
43.437663999999991
 30
0.0
 40
0.0885
  0
CIRCLE
  5
6E0
  8
OBJECT
 10
28.683371000000001
 20
44.062663999999991
 30
0.0
 40
0.0885
  0
CIRCLE
  5
6E1
  8
OBJECT
 10
28.683371000000001
 20
42.937663999999991
 30
0.0
 40
0.0885
  0
CIRCLE
  5
6E2
  8
OBJECT
 10
28.683371000000001
 20
45.812663999999991
 30
0.0
 40
0.0885
  0
CIRCLE
  5
6E3
  8
OBJECT
 10
28.683371000000001
 20
44.687663999999991
 30
0.0
 40
0.0885
  0
CIRCLE
  5
6E4
  8
OBJECT
 10
28.683371000000001
 20
45.187663999999991
 30
0.0
 40
0.0885
  0
CIRCLE
  5
6E5
  8
OBJECT
 10
28.683371000000001
 20
48.187663999999998
 30
0.0
 40
0.0885
  0
CIRCLE
  5
6E6
  8
OBJECT
 10
28.683371000000001
 20
47.562663999999998
 30
0.0
 40
0.0885
  0
CIRCLE
  5
6E7
  8
OBJECT
 10
28.683371000000001
 20
46.937663999999998
 30
0.0
 40
0.0885
  0
CIRCLE
  5
6E8
  8
OBJECT
 10
28.683371000000001
 20
49.937663999999998
 30
0.0
 40
0.0885
  0
CIRCLE
  5
6E9
  8
OBJECT
 10
28.683371000000001
 20
50.437663999999991
 30
0.0
 40
0.0885
  0
CIRCLE
  5
6EA
  8
OBJECT
 10
28.683371000000001
 20
49.312663999999998
 30
0.0
 40
0.0885
  0
CIRCLE
  5
6EB
  8
OBJECT
 10
28.683371000000001
 20
48.687663999999998
 30
0.0
 40
0.0885
  0
CIRCLE
  5
6EC
  8
OBJECT
 10
28.683371000000001
 20
58.687663999999998
 30
0.0
 40
0.0885
  0
CIRCLE
  5
6ED
  8
OBJECT
 10
28.683371000000001
 20
54.562663999999998
 30
0.0
 40
0.0885
  0
CIRCLE
  5
6EE
  8
OBJECT
 10
28.683371000000001
 20
52.187663999999991
 30
0.0
 40
0.0885
  0
CIRCLE
  5
6EF
  8
OBJECT
 10
28.683371000000001
 20
51.062663999999991
 30
0.0
 40
0.0885
  0
CIRCLE
  5
6F0
  8
OBJECT
 10
28.683371000000001
 20
51.687663999999991
 30
0.0
 40
0.0885
  0
CIRCLE
  5
6F1
  8
OBJECT
 10
28.683371000000001
 20
53.437663999999991
 30
0.0
 40
0.0885
  0
CIRCLE
  5
6F2
  8
OBJECT
 10
28.683371000000001
 20
53.937663999999998
 30
0.0
 40
0.0885
  0
CIRCLE
  5
6F3
  8
OBJECT
 10
28.683371000000001
 20
52.812663999999991
 30
0.0
 40
0.0885
  0
CIRCLE
  5
6F4
  8
OBJECT
 10
28.683371000000001
 20
56.312663999999998
 30
0.0
 40
0.0885
  0
CIRCLE
  5
6F5
  8
OBJECT
 10
28.683371000000001
 20
55.687663999999998
 30
0.0
 40
0.0885
  0
CIRCLE
  5
6F6
  8
OBJECT
 10
28.683371000000001
 20
55.187663999999998
 30
0.0
 40
0.0885
  0
CIRCLE
  5
6F7
  8
OBJECT
 10
28.683371000000001
 20
58.062663999999998
 30
0.0
 40
0.0885
  0
CIRCLE
  5
6F8
  8
OBJECT
 10
28.683371000000001
 20
56.937663999999998
 30
0.0
 40
0.0885
  0
CIRCLE
  5
6F9
  8
OBJECT
 10
28.683371000000001
 20
57.437663999999998
 30
0.0
 40
0.0885
  0
CIRCLE
  5
6FA
  8
OBJECT
 10
28.683371000000001
 20
62.687663999999998
 30
0.0
 40
0.0885
  0
CIRCLE
  5
6FB
  8
OBJECT
 10
28.683371000000001
 20
60.437663999999991
 30
0.0
 40
0.0885
  0
CIRCLE
  5
6FC
  8
OBJECT
 10
28.683371000000001
 20
59.812663999999991
 30
0.0
 40
0.0885
  0
CIRCLE
  5
6FD
  8
OBJECT
 10
28.683371000000001
 20
59.187663999999991
 30
0.0
 40
0.0885
  0
CIRCLE
  5
6FE
  8
OBJECT
 10
28.683371000000001
 20
61.562663999999991
 30
0.0
 40
0.0885
  0
CIRCLE
  5
6FF
  8
OBJECT
 10
28.683371000000001
 20
62.187663999999991
 30
0.0
 40
0.0885
  0
CIRCLE
  5
700
  8
OBJECT
 10
28.683371000000001
 20
60.937663999999991
 30
0.0
 40
0.0885
  0
CIRCLE
  5
701
  8
OBJECT
 10
28.683371000000001
 20
63.937663999999998
 30
0.0
 40
0.0885
  0
CIRCLE
  5
702
  8
OBJECT
 10
28.683371000000001
 20
64.437663999999998
 30
0.0
 40
0.0885
  0
CIRCLE
  5
703
  8
OBJECT
 10
28.683371000000001
 20
63.312663999999998
 30
0.0
 40
0.0885
  0
CIRCLE
  5
704
  8
OBJECT
 10
28.683371000000001
 20
65.062663999999998
 30
0.0
 40
0.0885
  0
CIRCLE
  5
705
  8
OBJECT
 10
28.683371000000001
 20
66.187663999999998
 30
0.0
 40
0.0885
  0
CIRCLE
  5
706
  8
OBJECT
 10
28.683371000000001
 20
65.687663999999998
 30
0.0
 40
0.0885
  0
CIRCLE
  5
707
  8
OBJECT
 10
28.683371000000001
 20
74.937663999999998
 30
0.0
 40
0.0885
  0
CIRCLE
  5
708
  8
OBJECT
 10
28.683371000000001
 20
70.937663999999984
 30
0.0
 40
0.0885
  0
CIRCLE
  5
709
  8
OBJECT
 10
28.683371000000001
 20
67.437663999999998
 30
0.0
 40
0.0885
  0
CIRCLE
  5
70A
  8
OBJECT
 10
28.683371000000001
 20
68.562663999999984
 30
0.0
 40
0.0885
  0
CIRCLE
  5
70B
  8
OBJECT
 10
28.683371000000001
 20
67.937663999999984
 30
0.0
 40
0.0885
  0
CIRCLE
  5
70C
  8
OBJECT
 10
28.683371000000001
 20
70.312663999999984
 30
0.0
 40
0.0885
  0
CIRCLE
  5
70D
  8
OBJECT
 10
28.683371000000001
 20
69.187663999999984
 30
0.0
 40
0.0885
  0
CIRCLE
  5
70E
  8
OBJECT
 10
28.683371000000001
 20
69.687663999999984
 30
0.0
 40
0.0885
  0
CIRCLE
  5
70F
  8
OBJECT
 10
28.683371000000001
 20
72.687663999999998
 30
0.0
 40
0.0885
  0
CIRCLE
  5
710
  8
OBJECT
 10
28.683371000000001
 20
72.062663999999998
 30
0.0
 40
0.0885
  0
CIRCLE
  5
711
  8
OBJECT
 10
28.683371000000001
 20
71.437663999999998
 30
0.0
 40
0.0885
  0
CIRCLE
  5
712
  8
OBJECT
 10
28.683371000000001
 20
73.812663999999998
 30
0.0
 40
0.0885
  0
CIRCLE
  5
713
  8
OBJECT
 10
28.683371000000001
 20
74.437663999999998
 30
0.0
 40
0.0885
  0
CIRCLE
  5
714
  8
OBJECT
 10
28.683371000000001
 20
73.187663999999998
 30
0.0
 40
0.0885
  0
CIRCLE
  5
715
  8
OBJECT
 10
28.683371000000001
 20
79.062663999999984
 30
0.0
 40
0.0885
  0
CIRCLE
  5
716
  8
OBJECT
 10
28.683371000000001
 20
76.187663999999998
 30
0.0
 40
0.0885
  0
CIRCLE
  5
717
  8
OBJECT
 10
28.683371000000001
 20
76.687663999999984
 30
0.0
 40
0.0885
  0
CIRCLE
  5
718
  8
OBJECT
 10
28.683371000000001
 20
75.562663999999998
 30
0.0
 40
0.0885
  0
CIRCLE
  5
719
  8
OBJECT
 10
28.683371000000001
 20
78.437663999999984
 30
0.0
 40
0.0885
  0
CIRCLE
  5
71A
  8
OBJECT
 10
28.683371000000001
 20
77.312663999999984
 30
0.0
 40
0.0885
  0
CIRCLE
  5
71B
  8
OBJECT
 10
28.683371000000001
 20
77.937663999999984
 30
0.0
 40
0.0885
  0
CIRCLE
  5
71C
  8
OBJECT
 10
28.683371000000001
 20
80.812663999999998
 30
0.0
 40
0.0885
  0
CIRCLE
  5
71D
  8
OBJECT
 10
28.683371000000001
 20
79.687663999999984
 30
0.0
 40
0.0885
  0
CIRCLE
  5
71E
  8
OBJECT
 10
28.683371000000001
 20
80.187663999999998
 30
0.0
 40
0.0885
  0
CIRCLE
  5
71F
  8
OBJECT
 10
28.683371000000001
 20
81.937663999999984
 30
0.0
 40
0.0885
  0
CIRCLE
  5
720
  8
OBJECT
 10
28.683371000000001
 20
82.562663999999984
 30
0.0
 40
0.0885
  0
CIRCLE
  5
721
  8
OBJECT
 10
28.683371000000001
 20
81.437663999999998
 30
0.0
 40
0.0885
  0
CIRCLE
  5
722
  8
OBJECT
 10
28.683371000000001
 20
87.187663999999984
 30
0.0
 40
0.0885
  0
CIRCLE
  5
723
  8
OBJECT
 10
28.683371000000001
 20
84.312663999999998
 30
0.0
 40
0.0885
  0
CIRCLE
  5
724
  8
OBJECT
 10
28.683371000000001
 20
84.937663999999998
 30
0.0
 40
0.0885
  0
CIRCLE
  5
725
  8
OBJECT
 10
28.683371000000001
 20
83.187663999999984
 30
0.0
 40
0.0885
  0
CIRCLE
  5
726
  8
OBJECT
 10
28.683371000000001
 20
83.687663999999998
 30
0.0
 40
0.0885
  0
CIRCLE
  5
727
  8
OBJECT
 10
28.683371000000001
 20
86.687663999999998
 30
0.0
 40
0.0885
  0
CIRCLE
  5
728
  8
OBJECT
 10
28.683371000000001
 20
85.437663999999998
 30
0.0
 40
0.0885
  0
CIRCLE
  5
729
  8
OBJECT
 10
28.683371000000001
 20
86.062663999999998
 30
0.0
 40
0.0885
  0
CIRCLE
  5
72A
  8
OBJECT
 10
28.683371000000001
 20
87.812663999999984
 30
0.0
 40
0.0885
  0
CIRCLE
  5
72B
  8
OBJECT
 10
28.683371000000001
 20
88.437663999999984
 30
0.0
 40
0.0885
  0
CIRCLE
  5
72C
  8
OBJECT
 10
28.683371000000001
 20
88.937663999999998
 30
0.0
 40
0.0885
  0
CIRCLE
  5
72D
  8
OBJECT
 10
28.683371000000001
 20
90.687663999999984
 30
0.0
 40
0.0885
  0
CIRCLE
  5
72E
  8
OBJECT
 10
28.683371000000001
 20
89.562663999999998
 30
0.0
 40
0.0885
  0
CIRCLE
  5
72F
  8
OBJECT
 10
28.683371000000001
 20
90.187663999999998
 30
0.0
 40
0.0885
  0
CIRCLE
  5
730
  8
OBJECT
 10
28.683371000000001
 20
93.062663999999998
 30
0.0
 40
0.0885
  0
CIRCLE
  5
731
  8
OBJECT
 10
28.683371000000001
 20
91.937663999999984
 30
0.0
 40
0.0885
  0
CIRCLE
  5
732
  8
OBJECT
 10
28.683371000000001
 20
92.437663999999998
 30
0.0
 40
0.0885
  0
CIRCLE
  5
733
  8
OBJECT
 10
28.683371000000001
 20
91.312663999999984
 30
0.0
 40
0.0885
  0
CIRCLE
  5
734
  8
OBJECT
 10
28.683371000000001
 20
94.812663999999998
 30
0.0
 40
0.0885
  0
CIRCLE
  5
735
  8
OBJECT
 10
28.683371000000001
 20
94.187663999999998
 30
0.0
 40
0.0885
  0
CIRCLE
  5
736
  8
OBJECT
 10
28.683371000000001
 20
93.687663999999998
 30
0.0
 40
0.0885
  0
CIRCLE
  5
737
  8
OBJECT
 10
28.683371000000001
 20
96.562663999999984
 30
0.0
 40
0.0885
  0
CIRCLE
  5
738
  8
OBJECT
 10
28.683371000000001
 20
97.187663999999984
 30
0.0
 40
0.0885
  0
CIRCLE
  5
739
  8
OBJECT
 10
28.683371000000001
 20
95.437663999999998
 30
0.0
 40
0.0885
  0
CIRCLE
  5
73A
  8
OBJECT
 10
28.683371000000001
 20
95.937663999999984
 30
0.0
 40
0.0885
  0
CIRCLE
  5
73B
  8
OBJECT
 10
28.683371000000001
 20
98.937663999999998
 30
0.0
 40
0.0885
  0
CIRCLE
  5
73C
  8
OBJECT
 10
28.683371000000001
 20
98.312663999999998
 30
0.0
 40
0.0885
  0
CIRCLE
  5
73D
  8
OBJECT
 10
28.683371000000001
 20
97.687663999999998
 30
0.0
 40
0.0885
  0
CIRCLE
  5
73E
  8
OBJECT
 10
28.683371000000001
 20
101.187664
 30
0.0
 40
0.0885
  0
CIRCLE
  5
73F
  8
OBJECT
 10
28.683371000000001
 20
100.0626639999999
 30
0.0
 40
0.0885
  0
CIRCLE
  5
740
  8
OBJECT
 10
28.683371000000001
 20
100.6876639999999
 30
0.0
 40
0.0885
  0
CIRCLE
  5
741
  8
OBJECT
 10
28.683371000000001
 20
99.437664000000012
 30
0.0
 40
0.0885
  0
CIRCLE
  5
742
  8
OBJECT
 10
28.683371000000001
 20
102.437664
 30
0.0
 40
0.0885
  0
CIRCLE
  5
743
  8
OBJECT
 10
28.683371000000001
 20
102.9376639999999
 30
0.0
 40
0.0885
  0
CIRCLE
  5
744
  8
OBJECT
 10
28.683371000000001
 20
101.8126639999999
 30
0.0
 40
0.0885
  0
CIRCLE
  5
745
  8
OBJECT
 10
28.683371000000001
 20
103.562664
 30
0.0
 40
0.0885
  0
CIRCLE
  5
746
  8
OBJECT
 10
28.683371000000001
 20
104.687664
 30
0.0
 40
0.0885
  0
CIRCLE
  5
747
  8
OBJECT
 10
28.683371000000001
 20
105.3126639999999
 30
0.0
 40
0.0885
  0
CIRCLE
  5
748
  8
OBJECT
 10
28.683371000000001
 20
104.1876639999999
 30
0.0
 40
0.0885
  0
CIRCLE
  5
749
  8
OBJECT
 10
28.683371000000001
 20
105.9376639999999
 30
0.0
 40
0.0885
  0
CIRCLE
  5
74A
  8
OBJECT
 10
28.683371000000001
 20
107.0626639999999
 30
0.0
 40
0.0885
  0
CIRCLE
  5
74B
  8
OBJECT
 10
28.683371000000001
 20
106.4376639999999
 30
0.0
 40
0.0885
  0
CIRCLE
  5
74C
  8
OBJECT
 10
28.683371000000001
 20
109.4376639999999
 30
0.0
 40
0.0885
  0
CIRCLE
  5
74D
  8
OBJECT
 10
28.683371000000001
 20
108.8126639999999
 30
0.0
 40
0.0885
  0
CIRCLE
  5
74E
  8
OBJECT
 10
28.683371000000001
 20
107.6876639999999
 30
0.0
 40
0.0885
  0
CIRCLE
  5
74F
  8
OBJECT
 10
28.683371000000001
 20
108.1876639999999
 30
0.0
 40
0.0885
  0
CIRCLE
  5
750
  8
OBJECT
 10
28.683371000000001
 20
111.1876639999999
 30
0.0
 40
0.0885
  0
CIRCLE
  5
751
  8
OBJECT
 10
28.683371000000001
 20
110.5626639999999
 30
0.0
 40
0.0885
  0
CIRCLE
  5
752
  8
OBJECT
 10
28.683371000000001
 20
109.9376639999999
 30
0.0
 40
0.0885
  0
CIRCLE
  5
753
  8
OBJECT
 10
28.683371000000001
 20
113.4376639999999
 30
0.0
 40
0.0885
  0
CIRCLE
  5
754
  8
OBJECT
 10
28.683371000000001
 20
112.3126639999999
 30
0.0
 40
0.0885
  0
CIRCLE
  5
755
  8
OBJECT
 10
28.683371000000001
 20
112.9376639999999
 30
0.0
 40
0.0885
  0
CIRCLE
  5
756
  8
OBJECT
 10
28.683371000000001
 20
111.6876639999999
 30
0.0
 40
0.0885
  0
CIRCLE
  5
757
  8
HIDDEN
 10
28.683371000000001
 20
114.6876639999999
 30
0.0
 40
0.0885
  0
CIRCLE
  5
758
  8
HIDDEN
 10
28.683371000000001
 20
114.0626639999999
 30
0.0
 40
0.0885
  0
LINE
  5
759
  8
BRACKET
 10
50.320296999999989
 20
37.538164000000002
 30
0.0
 11
42.320296999999997
 21
37.538164000000002
 31
0.0
  0
LINE
  5
75A
  8
BRACKET
 10
50.320296999999989
 20
113.58816400000001
 30
0.0
 11
42.320296999999997
 21
113.58816400000001
 31
0.0
  0
DIMENSION
  5
75B
  8
DIM
  2
*D40
 10
64.758918000000008
 20
38.188664000000003
 30
0.0
 11
67.959917999999988
 21
37.81366400000001
 31
0.0
 70
     0
 13
63.150173000000002
 23
37.438664000000003
 33
0.0
 14
59.930847999999997
 24
38.188664000000003
 34
0.0
 50
90.0
  0
DIMENSION
  5
769
  8
DIM
  2
*D41
 10
29.777370999999999
 20
28.922515000000001
 30
0.0
 11
28.089870999999999
 21
31.092265000000001
 31
0.0
 70
     0
 13
26.402370999999999
 23
27.41248499999999
 33
0.0
 14
29.777370999999999
 24
27.287485
 34
0.0
  0
DIMENSION
  5
777
  8
DIM
  2
*D42
 10
9.2769440000000003
 20
28.922515000000001
 30
0.0
 11
10.96444399999999
 21
31.092265000000001
 31
0.0
 70
     0
 13
12.651944
 23
27.41248499999999
 33
0.0
 14
9.2769440000000003
 24
27.287485
 34
0.0
  0
TEXT
  5
785
  8
TEXT
 10
50.887025500000021
 20
124.9947185
 30
0.0
 40
1.289062999999999
  1
WRR-2262 & WRR-2263 & WRR-2264
 41
0.75
  7
TXT
 72
     4
 11
65.711250000000007
 21
125.63925
 31
0.0
  0
POLYLINE
  5
786
  8
DIM
 66
     1
 10
0.0
 20
0.0
 30
0.0
 41
0.5567400000000001
  0
VERTEX
  5
8D5
  8
DIM
 10
11.690471000000001
 20
114.2120639999999
 30
0.0
  0
VERTEX
  5
8D6
  8
DIM
 10
12.247097
 20
112.8357199999999
 30
0.0
 41
0.0
  0
VERTEX
  5
8D7
  8
DIM
 10
13.290848
 20
110.254884
 30
0.0
 41
0.0
  0
VERTEX
  5
8D8
  8
DIM
 10
14.775487999999999
 20
110.254884
 30
0.0
 41
0.0
  0
SEQEND
  5
8D9
  8
DIM
  0
TEXT
  5
78C
  8
DIM
 10
15.51780799999999
 20
108.021051
 30
0.0
 40
1.030999999999999
  1
(8) HOLES
 41
0.75
  7
TXT
 11
15.51780799999999
 21
108.536551
 31
0.0
 73
     2
  0
TEXT
  5
78D
  8
DIM
 10
15.51780799999999
 20
109.739384
 30
0.0
 40
1.030999999999999
  1
0.500 DIA.
 41
0.75
  7
TXT
 11
15.51780799999999
 21
110.254884
 31
0.0
 73
     2
  0
TEXT
  5
78E
  8
TEXT
 10
5.0013069999999988
 20
14.907635000000001
 30
0.0
 40
1.03125
  1
LOAD RATING:  400 LBS. MAX.
 41
0.75
  7
TXT
  0
ENDSEC
  0
EOF
