  0
SECTION
  2
HEADER
  9
$ACADVER
  1
AC1015
  9
$ACADMAINTVER
 70
     6
  9
$DWGCODEPAGE
  3
ANSI_1252
  9
$INSBASE
 10
0.0
 20
0.0
 30
0.0
  9
$EXTMIN
 10
0.0
 20
0.4159998959999994
 30
-0.00000001
  9
$EXTMAX
 10
33.19999999999994
 20
21.07199989599999
 30
0.00000001
  9
$LIMMIN
 10
0.0
 20
0.0
  9
$LIMMAX
 10
31.0
 20
20.23999999999999
  9
$ORTHOMODE
 70
     1
  9
$REGENMODE
 70
     1
  9
$FILLMODE
 70
     1
  9
$QTEXTMODE
 70
     0
  9
$MIRRTEXT
 70
     0
  9
$LTSCALE
 40
0.625
  9
$ATTMODE
 70
     1
  9
$TEXTSIZE
 40
0.2
  9
$TRACEWID
 40
0.05
  9
$TEXTSTYLE
  7
TXT
  9
$CLAYER
  8
DIM
  9
$CELTYPE
  6
ByLayer
  9
$CECOLOR
 62
   256
  9
$CELTSCALE
 40
1.0
  9
$DISPSILH
 70
     0
  9
$DIMSCALE
 40
2.0
  9
$DIMASZ
 40
0.18
  9
$DIMEXO
 40
0.063
  9
$DIMDLI
 40
0.281
  9
$DIMRND
 40
0.0
  9
$DIMDLE
 40
0.0
  9
$DIMEXE
 40
0.093
  9
$DIMTP
 40
0.0
  9
$DIMTM
 40
0.0
  9
$DIMTXT
 40
0.125
  9
$DIMCEN
 40
0.09
  9
$DIMTSZ
 40
0.0
  9
$DIMTOL
 70
     0
  9
$DIMLIM
 70
     0
  9
$DIMTIH
 70
     1
  9
$DIMTOH
 70
     1
  9
$DIMSE1
 70
     0
  9
$DIMSE2
 70
     0
  9
$DIMTAD
 70
     0
  9
$DIMZIN
 70
     0
  9
$DIMBLK
  1

  9
$DIMASO
 70
     1
  9
$DIMSHO
 70
     1
  9
$DIMPOST
  1

  9
$DIMAPOST
  1

  9
$DIMALT
 70
     0
  9
$DIMALTD
 70
     2
  9
$DIMALTF
 40
25.4
  9
$DIMLFAC
 40
1.0
  9
$DIMTOFL
 70
     0
  9
$DIMTVP
 40
0.0
  9
$DIMTIX
 70
     0
  9
$DIMSOXD
 70
     0
  9
$DIMSAH
 70
     0
  9
$DIMBLK1
  1

  9
$DIMBLK2
  1

  9
$DIMSTYLE
  2
23NSTD
  9
$DIMCLRD
 70
     0
  9
$DIMCLRE
 70
     0
  9
$DIMCLRT
 70
     0
  9
$DIMTFAC
 40
1.0
  9
$DIMGAP
 40
0.09
  9
$DIMJUST
 70
     0
  9
$DIMSD1
 70
     0
  9
$DIMSD2
 70
     0
  9
$DIMTOLJ
 70
     1
  9
$DIMTZIN
 70
     0
  9
$DIMALTZ
 70
     0
  9
$DIMALTTZ
 70
     0
  9
$DIMUPT
 70
     0
  9
$DIMDEC
 70
     3
  9
$DIMTDEC
 70
     3
  9
$DIMALTU
 70
     2
  9
$DIMALTTD
 70
     2
  9
$DIMTXSTY
  7
TXT
  9
$DIMAUNIT
 70
     0
  9
$DIMADEC
 70
     0
  9
$DIMALTRND
 40
0.0
  9
$DIMAZIN
 70
     0
  9
$DIMDSEP
 70
    46
  9
$DIMATFIT
 70
     1
  9
$DIMFRAC
 70
     0
  9
$DIMLDRBLK
  1

  9
$DIMLUNIT
 70
     2
  9
$DIMLWD
 70
    -2
  9
$DIMLWE
 70
    -2
  9
$DIMTMOVE
 70
     0
  9
$LUNITS
 70
     2
  9
$LUPREC
 70
     3
  9
$SKETCHINC
 40
0.1
  9
$FILLETRAD
 40
0.0
  9
$AUNITS
 70
     0
  9
$AUPREC
 70
     0
  9
$MENU
  1
acad
  9
$ELEVATION
 40
0.0
  9
$PELEVATION
 40
0.0
  9
$THICKNESS
 40
0.0
  9
$LIMCHECK
 70
     0
  9
$CHAMFERA
 40
0.0
  9
$CHAMFERB
 40
0.0
  9
$CHAMFERC
 40
0.0
  9
$CHAMFERD
 40
0.0
  9
$SKPOLY
 70
     0
  9
$TDCREATE
 40
2450380.481717477
  9
$TDUCREATE
 40
2450380.690050810
  9
$TDUPDATE
 40
2454788.499499236
  9
$TDUUPDATE
 40
2454788.707832569
  9
$TDINDWG
 40
0.6054784028
  9
$TDUSRTIMER
 40
0.6054776736
  9
$USRTIMER
 70
     1
  9
$ANGBASE
 50
0.0
  9
$ANGDIR
 70
     0
  9
$PDMODE
 70
     0
  9
$PDSIZE
 40
0.0
  9
$PLINEWID
 40
0.0
  9
$SPLFRAME
 70
     0
  9
$SPLINETYPE
 70
     6
  9
$SPLINESEGS
 70
     8
  9
$HANDSEED
  5
6471
  9
$SURFTAB1
 70
     6
  9
$SURFTAB2
 70
     6
  9
$SURFTYPE
 70
     6
  9
$SURFU
 70
     6
  9
$SURFV
 70
     6
  9
$UCSBASE
  2

  9
$UCSNAME
  2

  9
$UCSORG
 10
0.0
 20
0.0
 30
0.0
  9
$UCSXDIR
 10
1.0
 20
0.0
 30
0.0
  9
$UCSYDIR
 10
0.0
 20
1.0
 30
0.0
  9
$UCSORTHOREF
  2

  9
$UCSORTHOVIEW
 70
     0
  9
$UCSORGTOP
 10
0.0
 20
0.0
 30
0.0
  9
$UCSORGBOTTOM
 10
0.0
 20
0.0
 30
0.0
  9
$UCSORGLEFT
 10
0.0
 20
0.0
 30
0.0
  9
$UCSORGRIGHT
 10
0.0
 20
0.0
 30
0.0
  9
$UCSORGFRONT
 10
0.0
 20
0.0
 30
0.0
  9
$UCSORGBACK
 10
0.0
 20
0.0
 30
0.0
  9
$PUCSBASE
  2

  9
$PUCSNAME
  2

  9
$PUCSORG
 10
0.0
 20
0.0
 30
0.0
  9
$PUCSXDIR
 10
1.0
 20
0.0
 30
0.0
  9
$PUCSYDIR
 10
0.0
 20
1.0
 30
0.0
  9
$PUCSORTHOREF
  2

  9
$PUCSORTHOVIEW
 70
     0
  9
$PUCSORGTOP
 10
0.0
 20
0.0
 30
0.0
  9
$PUCSORGBOTTOM
 10
0.0
 20
0.0
 30
0.0
  9
$PUCSORGLEFT
 10
0.0
 20
0.0
 30
0.0
  9
$PUCSORGRIGHT
 10
0.0
 20
0.0
 30
0.0
  9
$PUCSORGFRONT
 10
0.0
 20
0.0
 30
0.0
  9
$PUCSORGBACK
 10
0.0
 20
0.0
 30
0.0
  9
$USERI1
 70
     0
  9
$USERI2
 70
     0
  9
$USERI3
 70
     0
  9
$USERI4
 70
     0
  9
$USERI5
 70
     0
  9
$USERR1
 40
0.0
  9
$USERR2
 40
0.0
  9
$USERR3
 40
0.0
  9
$USERR4
 40
0.0
  9
$USERR5
 40
0.0
  9
$WORLDVIEW
 70
     1
  9
$SHADEDGE
 70
     3
  9
$SHADEDIF
 70
    70
  9
$TILEMODE
 70
     1
  9
$MAXACTVP
 70
    16
  9
$PINSBASE
 10
0.0
 20
0.0
 30
0.0
  9
$PLIMCHECK
 70
     0
  9
$PEXTMIN
 10
1.000000000000000E+20
 20
1.000000000000000E+20
 30
1.000000000000000E+20
  9
$PEXTMAX
 10
-1.000000000000000E+20
 20
-1.000000000000000E+20
 30
-1.000000000000000E+20
  9
$PLIMMIN
 10
0.0
 20
0.0
  9
$PLIMMAX
 10
12.0
 20
9.0
  9
$UNITMODE
 70
     0
  9
$VISRETAIN
 70
     0
  9
$PLINEGEN
 70
     0
  9
$PSLTSCALE
 70
     1
  9
$TREEDEPTH
 70
  3020
  9
$CMLSTYLE
  2
Standard
  9
$CMLJUST
 70
     0
  9
$CMLSCALE
 40
1.0
  9
$PROXYGRAPHICS
 70
     1
  9
$MEASUREMENT
 70
     0
  9
$CELWEIGHT
370
    -1
  9
$ENDCAPS
280
     0
  9
$JOINSTYLE
280
     0
  9
$LWDISPLAY
290
     0
  9
$INSUNITS
 70
     0
  9
$HYPERLINKBASE
  1

  9
$STYLESHEET
  1
monochrome.ctb
  9
$XEDIT
290
     1
  9
$CEPSNTYPE
380
     0
  9
$PSTYLEMODE
290
     1
  9
$FINGERPRINTGUID
  2
{7F4394F6-03E0-4965-BE6B-279558AA29FC}
  9
$VERSIONGUID
  2
{42927ECD-9AD6-48EB-BFF9-CA9D73D395F2}
  9
$EXTNAMES
290
     1
  9
$PSVPSCALE
 40
0.0
  9
$OLESTARTUP
290
     0
  0
ENDSEC
  0
SECTION
  2
CLASSES
  0
CLASS
  1
ACDBDICTIONARYWDFLT
  2
AcDbDictionaryWithDefault
  3
AutoCAD 2000
 90
        0
280
     0
281
     0
  0
CLASS
  1
ACDBPLACEHOLDER
  2
AcDbPlaceHolder
  3
AutoCAD 2000
 90
        0
280
     0
281
     0
  0
CLASS
  1
LAYOUT
  2
AcDbLayout
  3
AutoCAD 2000
 90
        0
280
     0
281
     0
  0
CLASS
  1
DICTIONARYVAR
  2
AcDbDictionaryVar
  3
AutoCAD 2000
 90
        0
280
     0
281
     0
  0
ENDSEC
  0
SECTION
  2
TABLES
  0
TABLE
  2
VPORT
  5
3F40
330
0
100
AcDbSymbolTable
 70
     2
  0
VPORT
  5
6470
330
3F40
100
AcDbSymbolTableRecord
100
AcDbViewportTableRecord
  2
*Active
 70
     0
 10
0.0
 20
0.0
 11
1.0
 21
1.0
 12
16.60000023191345
 22
10.74404469675214
 13
0.0
 23
0.0
 14
1.0
 24
1.0
 15
0.25
 25
0.25
 16
0.0
 26
0.0
 36
1.0
 17
0.0
 27
0.0
 37
0.0
 40
20.8677784839802
 41
1.796327212020033
 42
50.0
 43
0.0
 44
0.0
 50
0.0
 51
0.0
 71
     0
 72
   500
 73
     1
 74
     0
 75
     0
 76
     0
 77
     0
 78
     0
281
     0
 65
     0
110
0.0
120
0.0
130
0.0
111
1.0
121
0.0
131
0.0
112
0.0
122
1.0
132
0.0
 79
     0
146
0.0
  0
ENDTAB
  0
TABLE
  2
LTYPE
  5
3F3D
330
0
100
AcDbSymbolTable
 70
     6
  0
LTYPE
  5
3F4B
330
3F3D
100
AcDbSymbolTableRecord
100
AcDbLinetypeTableRecord
  2
ByBlock
 70
     0
  3

 72
    65
 73
     0
 40
0.0
  0
LTYPE
  5
3F4C
330
3F3D
100
AcDbSymbolTableRecord
100
AcDbLinetypeTableRecord
  2
ByLayer
 70
     0
  3

 72
    65
 73
     0
 40
0.0
  0
LTYPE
  5
3F4D
330
3F3D
100
AcDbSymbolTableRecord
100
AcDbLinetypeTableRecord
  2
CONTINUOUS
 70
     0
  3
Solid line
 72
    65
 73
     0
 40
0.0
  0
LTYPE
  5
3F5D
330
3F3D
100
AcDbSymbolTableRecord
100
AcDbLinetypeTableRecord
  2
HIDDEN
 70
     0
  3
_ _ _ _ _ _ _ _ _ _ _ _ _ _ _ _ _ _ _ _ _ _ _
 72
    65
 73
     2
 40
0.375
 49
0.25
 74
     0
 49
-0.125
 74
     0
  0
LTYPE
  5
3F5E
330
3F3D
100
AcDbSymbolTableRecord
100
AcDbLinetypeTableRecord
  2
PHANTOM
 70
     0
  3
_____ _ _ _____ _ _ _____ _ _ _____ _ _ ____
 72
    65
 73
     6
 40
2.5
 49
1.25
 74
     0
 49
-0.25
 74
     0
 49
0.25
 74
     0
 49
-0.25
 74
     0
 49
0.25
 74
     0
 49
-0.25
 74
     0
  0
LTYPE
  5
3F5F
330
3F3D
100
AcDbSymbolTableRecord
100
AcDbLinetypeTableRecord
  2
CENTER
 70
     0
  3
____ _ ____ _ ____ _ ____ _ ____ _ ____ _ ____
 72
    65
 73
     4
 40
2.0
 49
1.25
 74
     0
 49
-0.25
 74
     0
 49
0.25
 74
     0
 49
-0.25
 74
     0
  0
LTYPE
  5
3F60
330
3F3D
100
AcDbSymbolTableRecord
100
AcDbLinetypeTableRecord
  2
PHANTOM2
 70
     0
  3
___ _ _ ___ _ _ ___ _ _ ___ _ _ ___ _ _ ___ _ _
 72
    65
 73
     6
 40
1.25
 49
0.625
 74
     0
 49
-0.125
 74
     0
 49
0.125
 74
     0
 49
-0.125
 74
     0
 49
0.125
 74
     0
 49
-0.125
 74
     0
  0
LTYPE
  5
62EA
330
3F3D
100
AcDbSymbolTableRecord
100
AcDbLinetypeTableRecord
  2
HIDDEN2
 70
     0
  3
Hidden (.5x) _ _ _ _ _ _ _ _ _ _ _ _ _ _ _ _ _
 72
    65
 73
     2
 40
0.1875
 49
0.125
 74
     0
 49
-0.0625
 74
     0
  0
ENDTAB
  0
TABLE
  2
LAYER
  5
3F3A
330
0
100
AcDbSymbolTable
 70
     9
  0
LAYER
  5
3F48
330
3F3A
100
AcDbSymbolTableRecord
100
AcDbLayerTableRecord
  2
0
 70
     0
 62
     7
  6
CONTINUOUS
370
    -3
390
3F47
  0
LAYER
  5
3F5A
330
3F3A
100
AcDbSymbolTableRecord
100
AcDbLayerTableRecord
  2
OBJECT
 70
     0
 62
     7
  6
CONTINUOUS
370
    -3
390
3F47
  0
LAYER
  5
3F61
330
3F3A
100
AcDbSymbolTableRecord
100
AcDbLayerTableRecord
  2
DIM
 70
     0
 62
     2
  6
CONTINUOUS
370
    -3
390
3F47
  0
LAYER
  5
3F62
330
3F3A
100
AcDbSymbolTableRecord
100
AcDbLayerTableRecord
  2
HIDDEN
 70
     0
 62
     6
  6
HIDDEN
370
    -3
390
3F47
  0
LAYER
  5
3F63
330
3F3A
100
AcDbSymbolTableRecord
100
AcDbLayerTableRecord
  2
BEND
 70
     0
 62
     4
  6
PHANTOM
370
    -3
390
3F47
  0
LAYER
  5
3F64
330
3F3A
100
AcDbSymbolTableRecord
100
AcDbLayerTableRecord
  2
TEXT
 70
     0
 62
     1
  6
CONTINUOUS
370
    -3
390
3F47
  0
LAYER
  5
3F65
330
3F3A
100
AcDbSymbolTableRecord
100
AcDbLayerTableRecord
  2
TITLE
 70
     0
 62
     8
  6
CONTINUOUS
370
    -3
390
3F47
  0
LAYER
  5
3F66
330
3F3A
100
AcDbSymbolTableRecord
100
AcDbLayerTableRecord
  2
CENTER
 70
     0
 62
     3
  6
CENTER
370
    -3
390
3F47
  0
LAYER
  5
3F67
330
3F3A
100
AcDbSymbolTableRecord
100
AcDbLayerTableRecord
  2
DEFPOINTS
 70
     0
 62
     7
  6
CONTINUOUS
290
     0
370
    -3
390
3F47
  0
ENDTAB
  0
TABLE
  2
STYLE
  5
3F3B
330
0
100
AcDbSymbolTable
 70
     2
  0
STYLE
  5
3F49
330
3F3B
100
AcDbSymbolTableRecord
100
AcDbTextStyleTableRecord
  2
TXT
 70
     0
 40
0.0
 41
0.75
 50
0.0
 71
     0
 42
0.2
  3
txt.shx
  4

  0
STYLE
  5
3F68
330
3F3B
100
AcDbSymbolTableRecord
100
AcDbTextStyleTableRecord
  2
SECTION
 70
     0
 40
0.0
 41
0.8
 50
0.0
 71
     0
 42
0.2
  3
ROMANT.SHX
  4

  0
ENDTAB
  0
TABLE
  2
VIEW
  5
3F3E
330
0
100
AcDbSymbolTable
 70
     0
  0
ENDTAB
  0
TABLE
  2
UCS
  5
3F3F
330
0
100
AcDbSymbolTable
 70
     0
  0
ENDTAB
  0
TABLE
  2
APPID
  5
3F41
330
0
100
AcDbSymbolTable
 70
     1
  0
APPID
  5
3F4A
330
3F41
100
AcDbSymbolTableRecord
100
AcDbRegAppTableRecord
  2
ACAD
 70
     0
  0
ENDTAB
  0
TABLE
  2
DIMSTYLE
  5
3F42
330
0
100
AcDbSymbolTable
 70
     4
100
AcDbDimStyleTable
 71
     4
340
3F6A
340
3F69
340
3F6B
340
3F6C
  0
DIMSTYLE
105
3F69
102
{ACAD_REACTORS
330
4625
330
4633
330
4699
330
46AF
330
46C6
330
4731
330
473F
330
474D
330
4769
330
477F
330
4794
330
47A2
330
47B0
330
47BE
330
47CC
330
47DA
330
47E8
330
47F5
330
4803
330
4811
330
4867
330
4875
330
4883
330
4891
330
489F
330
48CB
330
49C2
330
49D0
330
49EC
330
49FA
330
4A08
330
4A16
330
4A24
330
4BA4
330
4BCE
330
4BDC
330
4BEB
330
4C3F
330
4C4C
330
4CA6
330
4908
330
49DE
330
5FDD
102
}
330
3F42
100
AcDbSymbolTableRecord
100
AcDbDimStyleTableRecord
  2
23NSTD
 70
     0
 40
2.0
 42
0.063
 43
0.281
 44
0.093
140
0.125
271
     3
272
     3
289
     1
340
3F49
  0
DIMSTYLE
105
3F6A
102
{ACAD_REACTORS
330
46EC
102
}
330
3F42
100
AcDbSymbolTableRecord
100
AcDbDimStyleTableRecord
  2
23NSTDI
 70
     0
 40
2.0
 42
0.063
 43
0.281
 44
0.093
140
0.125
174
     1
271
     3
272
     3
340
3F49
  0
DIMSTYLE
105
3F6B
102
{ACAD_REACTORS
330
4BC0
330
4B8E
330
4C7F
330
4B7F
102
}
330
3F42
100
AcDbSymbolTableRecord
100
AcDbDimStyleTableRecord
  2
23NSTD4
 70
     0
 40
2.0
 42
0.063
 43
0.281
 44
0.093
140
0.125
144
0.25
271
     3
272
     3
289
     1
340
3F49
  0
DIMSTYLE
105
3F6C
330
3F42
100
AcDbSymbolTableRecord
100
AcDbDimStyleTableRecord
  2
23NSTD4I
 70
     0
 40
2.0
 42
0.063
 43
0.281
 44
0.093
140
0.125
144
0.25
174
     1
271
     3
272
     3
340
3F49
  0
ENDTAB
  0
TABLE
  2
BLOCK_RECORD
  5
3F39
330
0
100
AcDbSymbolTable
 70
    50
  0
BLOCK_RECORD
  5
3F56
330
3F39
100
AcDbSymbolTableRecord
100
AcDbBlockTableRecord
  2
*Model_Space
340
3F59
  0
BLOCK_RECORD
  5
3F52
330
3F39
100
AcDbSymbolTableRecord
100
AcDbBlockTableRecord
  2
*Paper_Space
340
3F55
  0
BLOCK_RECORD
  5
4626
330
3F39
100
AcDbSymbolTableRecord
100
AcDbBlockTableRecord
  2
*D0
340
0
  0
BLOCK_RECORD
  5
4634
330
3F39
100
AcDbSymbolTableRecord
100
AcDbBlockTableRecord
  2
*D1
340
0
  0
BLOCK_RECORD
  5
469A
330
3F39
100
AcDbSymbolTableRecord
100
AcDbBlockTableRecord
  2
*D2
340
0
  0
BLOCK_RECORD
  5
46B0
330
3F39
100
AcDbSymbolTableRecord
100
AcDbBlockTableRecord
  2
*D3
340
0
  0
BLOCK_RECORD
  5
46C7
330
3F39
100
AcDbSymbolTableRecord
100
AcDbBlockTableRecord
  2
*D4
340
0
  0
BLOCK_RECORD
  5
46ED
330
3F39
100
AcDbSymbolTableRecord
100
AcDbBlockTableRecord
  2
*D5
340
0
  0
BLOCK_RECORD
  5
4732
330
3F39
100
AcDbSymbolTableRecord
100
AcDbBlockTableRecord
  2
*D6
340
0
  0
BLOCK_RECORD
  5
4740
330
3F39
100
AcDbSymbolTableRecord
100
AcDbBlockTableRecord
  2
*D7
340
0
  0
BLOCK_RECORD
  5
474E
330
3F39
100
AcDbSymbolTableRecord
100
AcDbBlockTableRecord
  2
*D8
340
0
  0
BLOCK_RECORD
  5
476A
330
3F39
100
AcDbSymbolTableRecord
100
AcDbBlockTableRecord
  2
*D9
340
0
  0
BLOCK_RECORD
  5
4780
330
3F39
100
AcDbSymbolTableRecord
100
AcDbBlockTableRecord
  2
*D10
340
0
  0
BLOCK_RECORD
  5
4795
330
3F39
100
AcDbSymbolTableRecord
100
AcDbBlockTableRecord
  2
*D11
340
0
  0
BLOCK_RECORD
  5
47A3
330
3F39
100
AcDbSymbolTableRecord
100
AcDbBlockTableRecord
  2
*D12
340
0
  0
BLOCK_RECORD
  5
47B1
330
3F39
100
AcDbSymbolTableRecord
100
AcDbBlockTableRecord
  2
*D13
340
0
  0
BLOCK_RECORD
  5
47BF
330
3F39
100
AcDbSymbolTableRecord
100
AcDbBlockTableRecord
  2
*D14
340
0
  0
BLOCK_RECORD
  5
47CD
330
3F39
100
AcDbSymbolTableRecord
100
AcDbBlockTableRecord
  2
*D15
340
0
  0
BLOCK_RECORD
  5
47DB
330
3F39
100
AcDbSymbolTableRecord
100
AcDbBlockTableRecord
  2
*D16
340
0
  0
BLOCK_RECORD
  5
47E9
330
3F39
100
AcDbSymbolTableRecord
100
AcDbBlockTableRecord
  2
*D17
340
0
  0
BLOCK_RECORD
  5
47F6
330
3F39
100
AcDbSymbolTableRecord
100
AcDbBlockTableRecord
  2
*D18
340
0
  0
BLOCK_RECORD
  5
4804
330
3F39
100
AcDbSymbolTableRecord
100
AcDbBlockTableRecord
  2
*D19
340
0
  0
BLOCK_RECORD
  5
4812
330
3F39
100
AcDbSymbolTableRecord
100
AcDbBlockTableRecord
  2
*D20
340
0
  0
BLOCK_RECORD
  5
4868
330
3F39
100
AcDbSymbolTableRecord
100
AcDbBlockTableRecord
  2
*D21
340
0
  0
BLOCK_RECORD
  5
4876
330
3F39
100
AcDbSymbolTableRecord
100
AcDbBlockTableRecord
  2
*D22
340
0
  0
BLOCK_RECORD
  5
4884
330
3F39
100
AcDbSymbolTableRecord
100
AcDbBlockTableRecord
  2
*D23
340
0
  0
BLOCK_RECORD
  5
4892
330
3F39
100
AcDbSymbolTableRecord
100
AcDbBlockTableRecord
  2
*D24
340
0
  0
BLOCK_RECORD
  5
48A0
330
3F39
100
AcDbSymbolTableRecord
100
AcDbBlockTableRecord
  2
*D25
340
0
  0
BLOCK_RECORD
  5
48CC
330
3F39
100
AcDbSymbolTableRecord
100
AcDbBlockTableRecord
  2
*D26
340
0
  0
BLOCK_RECORD
  5
4909
330
3F39
100
AcDbSymbolTableRecord
100
AcDbBlockTableRecord
  2
*D27
340
0
  0
BLOCK_RECORD
  5
49C3
330
3F39
100
AcDbSymbolTableRecord
100
AcDbBlockTableRecord
  2
*D28
340
0
  0
BLOCK_RECORD
  5
49D1
330
3F39
100
AcDbSymbolTableRecord
100
AcDbBlockTableRecord
  2
*D29
340
0
  0
BLOCK_RECORD
  5
49DF
330
3F39
100
AcDbSymbolTableRecord
100
AcDbBlockTableRecord
  2
*D30
340
0
  0
BLOCK_RECORD
  5
49ED
330
3F39
100
AcDbSymbolTableRecord
100
AcDbBlockTableRecord
  2
*D31
340
0
  0
BLOCK_RECORD
  5
49FB
330
3F39
100
AcDbSymbolTableRecord
100
AcDbBlockTableRecord
  2
*D32
340
0
  0
BLOCK_RECORD
  5
4A09
330
3F39
100
AcDbSymbolTableRecord
100
AcDbBlockTableRecord
  2
*D33
340
0
  0
BLOCK_RECORD
  5
4A17
330
3F39
100
AcDbSymbolTableRecord
100
AcDbBlockTableRecord
  2
*D34
340
0
  0
BLOCK_RECORD
  5
4A25
330
3F39
100
AcDbSymbolTableRecord
100
AcDbBlockTableRecord
  2
*D35
340
0
  0
BLOCK_RECORD
  5
4B80
330
3F39
100
AcDbSymbolTableRecord
100
AcDbBlockTableRecord
  2
*D36
340
0
  0
BLOCK_RECORD
  5
4B8F
330
3F39
100
AcDbSymbolTableRecord
100
AcDbBlockTableRecord
  2
*D37
340
0
  0
BLOCK_RECORD
  5
4BA5
330
3F39
100
AcDbSymbolTableRecord
100
AcDbBlockTableRecord
  2
*D38
340
0
  0
BLOCK_RECORD
  5
4BC1
330
3F39
100
AcDbSymbolTableRecord
100
AcDbBlockTableRecord
  2
*D39
340
0
  0
BLOCK_RECORD
  5
4BCF
330
3F39
100
AcDbSymbolTableRecord
100
AcDbBlockTableRecord
  2
*D40
340
0
  0
BLOCK_RECORD
  5
4BDD
330
3F39
100
AcDbSymbolTableRecord
100
AcDbBlockTableRecord
  2
*D41
340
0
  0
BLOCK_RECORD
  5
4BEC
330
3F39
100
AcDbSymbolTableRecord
100
AcDbBlockTableRecord
  2
*D42
340
0
  0
BLOCK_RECORD
  5
4C40
330
3F39
100
AcDbSymbolTableRecord
100
AcDbBlockTableRecord
  2
*D43
340
0
  0
BLOCK_RECORD
  5
4C4D
330
3F39
100
AcDbSymbolTableRecord
100
AcDbBlockTableRecord
  2
*D44
340
0
  0
BLOCK_RECORD
  5
4C80
330
3F39
100
AcDbSymbolTableRecord
100
AcDbBlockTableRecord
  2
*D45
340
0
  0
BLOCK_RECORD
  5
4CA7
330
3F39
100
AcDbSymbolTableRecord
100
AcDbBlockTableRecord
  2
*D46
340
0
  0
BLOCK_RECORD
  5
529F
330
3F39
100
AcDbSymbolTableRecord
100
AcDbBlockTableRecord
  2
*D47
340
0
  0
BLOCK_RECORD
  5
533B
330
3F39
100
AcDbSymbolTableRecord
100
AcDbBlockTableRecord
  2
HBS
340
0
102
{BLKREFS
331
54E2
102
}
  0
BLOCK_RECORD
  5
5FDE
330
3F39
100
AcDbSymbolTableRecord
100
AcDbBlockTableRecord
  2
*D49
340
0
  0
ENDTAB
  0
ENDSEC
  0
SECTION
  2
BLOCKS
  0
BLOCK
  5
3F57
330
3F56
100
AcDbEntity
  8
0
100
AcDbBlockBegin
  2
*Model_Space
 70
     0
 10
0.0
 20
0.0
 30
0.0
  3
*Model_Space
  1

  0
ENDBLK
  5
3F58
330
3F56
100
AcDbEntity
  8
0
100
AcDbBlockEnd
  0
BLOCK
  5
3F53
330
3F52
100
AcDbEntity
 67
     1
  8
0
100
AcDbBlockBegin
  2
*Paper_Space
 70
     0
 10
0.0
 20
0.0
 30
0.0
  3
*Paper_Space
  1

  0
ENDBLK
  5
3F54
330
3F52
100
AcDbEntity
 67
     1
  8
0
100
AcDbBlockEnd
  0
BLOCK
  5
4631
330
4626
100
AcDbEntity
  8
0
100
AcDbBlockBegin
  2
*D0
 70
     1
 10
0.0
 20
0.0
 30
0.0
  3
*D0
  1

  0
LINE
  5
59A7
330
4626
100
AcDbEntity
  8
DIM
 62
     0
370
    -2
100
AcDbLine
 10
22.33795336681957
 20
9.655547325369974
 30
0.0
 11
22.33795336681957
 21
11.67059907659657
 31
0.0
  0
LINE
  5
59A8
330
4626
100
AcDbEntity
  8
DIM
 62
     0
370
    -2
100
AcDbLine
 10
18.40295336681956
 20
9.655547325369974
 30
0.0
 11
18.40295336681956
 21
11.67059907659657
 31
0.0
  0
LINE
  5
59A9
330
4626
100
AcDbEntity
  8
DIM
 62
     0
370
    -2
100
AcDbLine
 10
21.97795336681957
 20
11.48459907659657
 30
0.0
 11
20.92545336681956
 21
11.48459907659657
 31
0.0
  0
LINE
  5
59AA
330
4626
100
AcDbEntity
  8
DIM
 62
     0
370
    -2
100
AcDbLine
 10
18.76295336681955
 20
11.48459907659657
 30
0.0
 11
19.81545336681956
 21
11.48459907659657
 31
0.0
  0
SOLID
  5
59AB
330
4626
100
AcDbEntity
  8
DIM
 62
     0
100
AcDbTrace
 10
21.97795336681957
 20
11.54459907659658
 30
0.0
 11
21.97795336681957
 21
11.42459907659657
 31
0.0
 12
22.33795336681957
 22
11.48459907659657
 32
0.0
 13
22.33795336681957
 23
11.48459907659657
 33
0.0
  0
SOLID
  5
59AC
330
4626
100
AcDbEntity
  8
DIM
 62
     0
100
AcDbTrace
 10
18.76295336681955
 20
11.54459907659658
 30
0.0
 11
18.76295336681955
 21
11.42459907659657
 31
0.0
 12
18.40295336681956
 22
11.48459907659657
 32
0.0
 13
18.40295336681956
 23
11.48459907659657
 33
0.0
  0
MTEXT
  5
59AD
330
4626
100
AcDbEntity
  8
DIM
 62
     0
100
AcDbMText
 10
20.37045336681956
 20
11.48459907659657
 30
0.0
 40
0.25
 41
0.0
 71
     5
 72
     1
  1
\A1;3.935
 73
     1
 44
1.0
  0
POINT
  5
59AE
330
4626
100
AcDbEntity
  8
DEFPOINTS
 62
     0
100
AcDbPoint
 10
22.33795336681957
 20
9.529547325369975
 30
0.0
  0
POINT
  5
59AF
330
4626
100
AcDbEntity
  8
DEFPOINTS
 62
     0
100
AcDbPoint
 10
18.40295336681956
 20
9.529547325369975
 30
0.0
  0
POINT
  5
59B0
330
4626
100
AcDbEntity
  8
DEFPOINTS
 62
     0
100
AcDbPoint
 10
18.40295336681956
 20
11.48459907659657
 30
0.0
  0
ENDBLK
  5
4632
330
4626
100
AcDbEntity
  8
0
100
AcDbBlockEnd
  0
BLOCK
  5
463F
330
4634
100
AcDbEntity
  8
0
100
AcDbBlockBegin
  2
*D1
 70
     1
 10
0.0
 20
0.0
 30
0.0
  3
*D1
  1

  0
LINE
  5
5AD8
330
4634
100
AcDbEntity
  8
DIM
 62
     0
370
    -2
100
AcDbLine
 10
22.09995336681957
 20
9.667547325369964
 30
0.0
 11
22.09995336681957
 21
11.17884907659657
 31
0.0
  0
LINE
  5
5AD9
330
4634
100
AcDbEntity
  8
DIM
 62
     0
370
    -2
100
AcDbLine
 10
18.63995336681955
 20
9.667547325369964
 30
0.0
 11
18.63995336681955
 21
11.17884907659657
 31
0.0
  0
LINE
  5
5ADA
330
4634
100
AcDbEntity
  8
DIM
 62
     0
370
    -2
100
AcDbLine
 10
21.73995336681957
 20
10.99284907659658
 30
0.0
 11
20.90932836681956
 21
10.99284907659658
 31
0.0
  0
LINE
  5
5ADB
330
4634
100
AcDbEntity
  8
DIM
 62
     0
370
    -2
100
AcDbLine
 10
18.99995336681955
 20
10.99284907659658
 30
0.0
 11
19.83057836681956
 21
10.99284907659658
 31
0.0
  0
SOLID
  5
5ADC
330
4634
100
AcDbEntity
  8
DIM
 62
     0
100
AcDbTrace
 10
21.73995336681957
 20
11.05284907659658
 30
0.0
 11
21.73995336681957
 21
10.93284907659658
 31
0.0
 12
22.09995336681957
 22
10.99284907659658
 32
0.0
 13
22.09995336681957
 23
10.99284907659658
 33
0.0
  0
SOLID
  5
5ADD
330
4634
100
AcDbEntity
  8
DIM
 62
     0
100
AcDbTrace
 10
18.99995336681955
 20
11.05284907659658
 30
0.0
 11
18.99995336681955
 21
10.93284907659658
 31
0.0
 12
18.63995336681955
 22
10.99284907659658
 32
0.0
 13
18.63995336681955
 23
10.99284907659658
 33
0.0
  0
MTEXT
  5
5ADE
330
4634
100
AcDbEntity
  8
DIM
 62
     0
100
AcDbMText
 10
20.36995336681956
 20
10.99284907659658
 30
0.0
 40
0.25
 41
0.0
 71
     5
 72
     1
  1
\A1;3.460
 73
     1
 44
1.0
  0
POINT
  5
5ADF
330
4634
100
AcDbEntity
  8
DEFPOINTS
 62
     0
100
AcDbPoint
 10
22.09995336681957
 20
9.541547325369965
 30
0.0
  0
POINT
  5
5AE0
330
4634
100
AcDbEntity
  8
DEFPOINTS
 62
     0
100
AcDbPoint
 10
18.63995336681955
 20
9.541547325369965
 30
0.0
  0
POINT
  5
5AE1
330
4634
100
AcDbEntity
  8
DEFPOINTS
 62
     0
100
AcDbPoint
 10
18.63995336681955
 20
10.99284907659658
 30
0.0
  0
ENDBLK
  5
4640
330
4634
100
AcDbEntity
  8
0
100
AcDbBlockEnd
  0
BLOCK
  5
46A5
330
469A
100
AcDbEntity
  8
0
100
AcDbBlockBegin
  2
*D2
 70
     1
 10
0.0
 20
0.0
 30
0.0
  3
*D2
  1

  0
LINE
  5
5AB9
330
469A
100
AcDbEntity
  8
DIM
 62
     0
370
    -2
100
AcDbLine
 10
18.52695336681954
 20
5.844547325369971
 30
0.0
 11
17.673062169246
 21
5.844547325369972
 31
0.0
  0
LINE
  5
5ABA
330
469A
100
AcDbEntity
  8
DIM
 62
     0
370
    -2
100
AcDbLine
 10
18.52695336681954
 20
9.779547325369975
 30
0.0
 11
17.673062169246
 21
9.779547325369975
 31
0.0
  0
LINE
  5
5ABB
330
469A
100
AcDbEntity
  8
DIM
 62
     0
370
    -2
100
AcDbLine
 10
17.859062169246
 20
6.204547325369972
 30
0.0
 11
17.859062169246
 21
7.507047325369974
 31
0.0
  0
LINE
  5
5ABC
330
469A
100
AcDbEntity
  8
DIM
 62
     0
370
    -2
100
AcDbLine
 10
17.859062169246
 20
9.419547325369975
 30
0.0
 11
17.859062169246
 21
8.117047325369973
 31
0.0
  0
SOLID
  5
5ABD
330
469A
100
AcDbEntity
  8
DIM
 62
     0
100
AcDbTrace
 10
17.799062169246
 20
6.204547325369972
 30
0.0
 11
17.919062169246
 21
6.204547325369972
 31
0.0
 12
17.859062169246
 22
5.844547325369972
 32
0.0
 13
17.859062169246
 23
5.844547325369972
 33
0.0
  0
SOLID
  5
5ABE
330
469A
100
AcDbEntity
  8
DIM
 62
     0
100
AcDbTrace
 10
17.79906216924601
 20
9.419547325369975
 30
0.0
 11
17.919062169246
 21
9.419547325369975
 31
0.0
 12
17.859062169246
 22
9.779547325369975
 32
0.0
 13
17.859062169246
 23
9.779547325369975
 33
0.0
  0
MTEXT
  5
5ABF
330
469A
100
AcDbEntity
  8
DIM
 62
     0
100
AcDbMText
 10
17.859062169246
 20
7.812047325369976
 30
0.0
 40
0.25
 41
0.0
 71
     5
 72
     1
  1
\A1;3.935
 73
     1
 44
1.0
  0
POINT
  5
5AC0
330
469A
100
AcDbEntity
  8
DEFPOINTS
 62
     0
100
AcDbPoint
 10
18.65295336681954
 20
5.844547325369971
 30
0.0
  0
POINT
  5
5AC1
330
469A
100
AcDbEntity
  8
DEFPOINTS
 62
     0
100
AcDbPoint
 10
18.65295336681954
 20
9.779547325369975
 30
0.0
  0
POINT
  5
5AC2
330
469A
100
AcDbEntity
  8
DEFPOINTS
 62
     0
100
AcDbPoint
 10
17.859062169246
 20
9.779547325369975
 30
0.0
  0
ENDBLK
  5
46A6
330
469A
100
AcDbEntity
  8
0
100
AcDbBlockEnd
  0
BLOCK
  5
46BB
330
46B0
100
AcDbEntity
  8
0
100
AcDbBlockBegin
  2
*D3
 70
     1
 10
0.0
 20
0.0
 30
0.0
  3
*D3
  1

  0
LINE
  5
5AC3
330
46B0
100
AcDbEntity
  8
DIM
 62
     0
370
    -2
100
AcDbLine
 10
19.9345453487774
 20
6.024547325369963
 30
0.0
 11
20.05313882495529
 21
6.024547325369963
 31
0.0
  0
LINE
  5
5AC4
330
46B0
100
AcDbEntity
  8
DIM
 62
     0
370
    -2
100
AcDbLine
 10
19.9345453487774
 20
5.844547325369971
 30
0.0
 11
20.05313882495529
 21
5.844547325369971
 31
0.0
  0
LINE
  5
5AC5
330
46B0
100
AcDbEntity
  8
DIM
 62
     0
370
    -2
100
AcDbLine
 10
19.86713882495529
 20
6.384547325369963
 30
0.0
 11
19.86713882495529
 21
6.744547325369962
 31
0.0
  0
LINE
  5
5AC6
330
46B0
100
AcDbEntity
  8
DIM
 62
     0
370
    -2
100
AcDbLine
 10
19.86713882495529
 20
5.484547325369971
 30
0.0
 11
19.86713882495529
 21
5.124547325369971
 31
0.0
  0
LINE
  5
5AC7
330
46B0
100
AcDbEntity
  8
DIM
 62
     0
370
    -2
100
AcDbLine
 10
19.86713882495529
 20
5.124547325369971
 30
0.0
 11
19.50713882495529
 21
5.124547325369971
 31
0.0
  0
SOLID
  5
5AC8
330
46B0
100
AcDbEntity
  8
DIM
 62
     0
100
AcDbTrace
 10
19.80713882495529
 20
6.384547325369963
 30
0.0
 11
19.92713882495529
 21
6.384547325369963
 31
0.0
 12
19.86713882495529
 22
6.024547325369963
 32
0.0
 13
19.86713882495529
 23
6.024547325369963
 33
0.0
  0
SOLID
  5
5AC9
330
46B0
100
AcDbEntity
  8
DIM
 62
     0
100
AcDbTrace
 10
19.80713882495529
 20
5.484547325369971
 30
0.0
 11
19.92713882495529
 21
5.484547325369971
 31
0.0
 12
19.86713882495529
 22
5.844547325369971
 32
0.0
 13
19.86713882495529
 23
5.844547325369971
 33
0.0
  0
MTEXT
  5
5ACA
330
46B0
100
AcDbEntity
  8
DIM
 62
     0
100
AcDbMText
 10
18.60838882495529
 20
5.124547325369975
 30
0.0
 40
0.25
 41
0.0
 71
     5
 72
     1
  1
\A1;0.180 TYP.
 73
     1
 44
1.0
  0
POINT
  5
5ACB
330
46B0
100
AcDbEntity
  8
DEFPOINTS
 62
     0
100
AcDbPoint
 10
19.8085453487774
 20
6.024547325369963
 30
0.0
  0
POINT
  5
5ACC
330
46B0
100
AcDbEntity
  8
DEFPOINTS
 62
     0
100
AcDbPoint
 10
19.8085453487774
 20
5.844547325369971
 30
0.0
  0
POINT
  5
5ACD
330
46B0
100
AcDbEntity
  8
DEFPOINTS
 62
     0
100
AcDbPoint
 10
19.86713882495529
 20
5.844547325369971
 30
0.0
  0
ENDBLK
  5
46BC
330
46B0
100
AcDbEntity
  8
0
100
AcDbBlockEnd
  0
BLOCK
  5
46D2
330
46C7
100
AcDbEntity
  8
0
100
AcDbBlockBegin
  2
*D4
 70
     1
 10
0.0
 20
0.0
 30
0.0
  3
*D4
  1

  0
LINE
  5
5AA5
330
46C7
100
AcDbEntity
  8
DIM
 62
     0
370
    -2
100
AcDbLine
 10
22.22595336681957
 20
6.081547325369967
 30
0.0
 11
23.07758602048974
 21
6.081547325369967
 31
0.0
  0
LINE
  5
5AA6
330
46C7
100
AcDbEntity
  8
DIM
 62
     0
370
    -2
100
AcDbLine
 10
22.22595336681957
 20
9.541547325369965
 30
0.0
 11
23.07758602048975
 21
9.541547325369965
 31
0.0
  0
LINE
  5
5AA7
330
46C7
100
AcDbEntity
  8
DIM
 62
     0
370
    -2
100
AcDbLine
 10
22.89158602048974
 20
6.441547325369967
 30
0.0
 11
22.89158602048974
 21
7.506547325369966
 31
0.0
  0
LINE
  5
5AA8
330
46C7
100
AcDbEntity
  8
DIM
 62
     0
370
    -2
100
AcDbLine
 10
22.89158602048975
 20
9.181547325369965
 30
0.0
 11
22.89158602048975
 21
8.116547325369966
 31
0.0
  0
SOLID
  5
5AA9
330
46C7
100
AcDbEntity
  8
DIM
 62
     0
100
AcDbTrace
 10
22.83158602048974
 20
6.441547325369967
 30
0.0
 11
22.95158602048974
 21
6.441547325369967
 31
0.0
 12
22.89158602048974
 22
6.081547325369967
 32
0.0
 13
22.89158602048974
 23
6.081547325369967
 33
0.0
  0
SOLID
  5
5AAA
330
46C7
100
AcDbEntity
  8
DIM
 62
     0
100
AcDbTrace
 10
22.83158602048975
 20
9.181547325369965
 30
0.0
 11
22.95158602048974
 21
9.181547325369965
 31
0.0
 12
22.89158602048975
 22
9.541547325369965
 32
0.0
 13
22.89158602048975
 23
9.541547325369965
 33
0.0
  0
MTEXT
  5
5AAB
330
46C7
100
AcDbEntity
  8
DIM
 62
     0
100
AcDbMText
 10
22.89158602048974
 20
7.81154732536997
 30
0.0
 40
0.25
 41
0.0
 71
     5
 72
     1
  1
\A1;3.460
 73
     1
 44
1.0
  0
POINT
  5
5AAC
330
46C7
100
AcDbEntity
  8
DEFPOINTS
 62
     0
100
AcDbPoint
 10
22.09995336681957
 20
6.081547325369967
 30
0.0
  0
POINT
  5
5AAD
330
46C7
100
AcDbEntity
  8
DEFPOINTS
 62
     0
100
AcDbPoint
 10
22.09995336681957
 20
9.541547325369965
 30
0.0
  0
POINT
  5
5AAE
330
46C7
100
AcDbEntity
  8
DEFPOINTS
 62
     0
100
AcDbPoint
 10
22.89158602048975
 20
9.541547325369965
 30
0.0
  0
ENDBLK
  5
46D3
330
46C7
100
AcDbEntity
  8
0
100
AcDbBlockEnd
  0
BLOCK
  5
46F8
330
46ED
100
AcDbEntity
  8
0
100
AcDbBlockBegin
  2
*D5
 70
     1
 10
0.0
 20
0.0
 30
0.0
  3
*D5
  1

  0
LINE
  5
5F2E
330
46ED
100
AcDbEntity
  8
DIM
 62
     0
370
    -2
100
AcDbLine
 10
18.33945336681954
 20
12.69815566507155
 30
0.0
 11
17.673062169246
 21
12.69815566507155
 31
0.0
  0
LINE
  5
5F2F
330
46ED
100
AcDbEntity
  8
DIM
 62
     0
370
    -2
100
AcDbLine
 10
18.27695336681955
 20
12.09815566507155
 30
0.0
 11
17.673062169246
 21
12.09815566507155
 31
0.0
  0
LINE
  5
5F30
330
46ED
100
AcDbEntity
  8
DIM
 62
     0
370
    -2
100
AcDbLine
 10
17.859062169246
 20
13.05815566507155
 30
0.0
 11
17.859062169246
 21
13.41815566507155
 31
0.0
  0
LINE
  5
5F31
330
46ED
100
AcDbEntity
  8
DIM
 62
     0
370
    -2
100
AcDbLine
 10
17.859062169246
 20
11.73815566507155
 30
0.0
 11
17.859062169246
 21
11.37815566507155
 31
0.0
  0
SOLID
  5
5F32
330
46ED
100
AcDbEntity
  8
DIM
 62
     0
100
AcDbTrace
 10
17.79906216924601
 20
13.05815566507155
 30
0.0
 11
17.919062169246
 21
13.05815566507155
 31
0.0
 12
17.859062169246
 22
12.69815566507155
 32
0.0
 13
17.859062169246
 23
12.69815566507155
 33
0.0
  0
SOLID
  5
5F33
330
46ED
100
AcDbEntity
  8
DIM
 62
     0
100
AcDbTrace
 10
17.79906216924601
 20
11.73815566507155
 30
0.0
 11
17.919062169246
 21
11.73815566507155
 31
0.0
 12
17.859062169246
 22
12.09815566507155
 32
0.0
 13
17.859062169246
 23
12.09815566507155
 33
0.0
  0
MTEXT
  5
5F34
330
46ED
100
AcDbEntity
  8
DIM
 62
     0
100
AcDbMText
 10
17.859062169246
 20
12.39815566507155
 30
0.0
 40
0.25
 41
0.0
 71
     5
 72
     1
  1
\A1;0.600
 73
     1
 44
1.0
  0
POINT
  5
5F35
330
46ED
100
AcDbEntity
  8
DEFPOINTS
 62
     0
100
AcDbPoint
 10
18.46545336681954
 20
12.69815566507155
 30
0.0
  0
POINT
  5
5F36
330
46ED
100
AcDbEntity
  8
DEFPOINTS
 62
     0
100
AcDbPoint
 10
18.40295336681956
 20
12.09815566507155
 30
0.0
  0
POINT
  5
5F37
330
46ED
100
AcDbEntity
  8
DEFPOINTS
 62
     0
100
AcDbPoint
 10
17.859062169246
 20
12.09815566507155
 30
0.0
  0
ENDBLK
  5
46F9
330
46ED
100
AcDbEntity
  8
0
100
AcDbBlockEnd
  0
BLOCK
  5
473D
330
4732
100
AcDbEntity
  8
0
100
AcDbBlockBegin
  2
*D6
 70
     1
 10
0.0
 20
0.0
 30
0.0
  3
*D6
  1

  0
LINE
  5
5A9B
330
4732
100
AcDbEntity
  8
DIM
 62
     0
370
    -2
100
AcDbLine
 10
22.09995336681957
 20
9.667547325369964
 30
0.0
 11
22.09995336681957
 21
11.17884907659657
 31
0.0
  0
LINE
  5
5A9C
330
4732
100
AcDbEntity
  8
DIM
 62
     0
370
    -2
100
AcDbLine
 10
22.33795336681957
 20
9.655547325369974
 30
0.0
 11
22.33795336681957
 21
11.17884907659657
 31
0.0
  0
LINE
  5
5A9D
330
4732
100
AcDbEntity
  8
DIM
 62
     0
370
    -2
100
AcDbLine
 10
21.73995336681957
 20
10.99284907659658
 30
0.0
 11
21.37995336681957
 21
10.99284907659658
 31
0.0
  0
LINE
  5
5A9E
330
4732
100
AcDbEntity
  8
DIM
 62
     0
370
    -2
100
AcDbLine
 10
22.69795336681956
 20
10.99284907659658
 30
0.0
 11
23.05795336681956
 21
10.99284907659658
 31
0.0
  0
SOLID
  5
5A9F
330
4732
100
AcDbEntity
  8
DIM
 62
     0
100
AcDbTrace
 10
21.73995336681957
 20
11.05284907659658
 30
0.0
 11
21.73995336681957
 21
10.93284907659658
 31
0.0
 12
22.09995336681957
 22
10.99284907659658
 32
0.0
 13
22.09995336681957
 23
10.99284907659658
 33
0.0
  0
SOLID
  5
5AA0
330
4732
100
AcDbEntity
  8
DIM
 62
     0
100
AcDbTrace
 10
22.69795336681956
 20
11.05284907659658
 30
0.0
 11
22.69795336681956
 21
10.93284907659658
 31
0.0
 12
22.33795336681957
 22
10.99284907659658
 32
0.0
 13
22.33795336681957
 23
10.99284907659658
 33
0.0
  0
MTEXT
  5
5AA1
330
4732
100
AcDbEntity
  8
DIM
 62
     0
100
AcDbMText
 10
23.59732836681956
 20
10.99284907659658
 30
0.0
 40
0.25
 41
0.0
 71
     5
 72
     1
  1
\A1;0.238
 73
     1
 44
1.0
  0
POINT
  5
5AA2
330
4732
100
AcDbEntity
  8
DEFPOINTS
 62
     0
100
AcDbPoint
 10
22.09995336681957
 20
9.541547325369965
 30
0.0
  0
POINT
  5
5AA3
330
4732
100
AcDbEntity
  8
DEFPOINTS
 62
     0
100
AcDbPoint
 10
22.33795336681957
 20
9.529547325369975
 30
0.0
  0
POINT
  5
5AA4
330
4732
100
AcDbEntity
  8
DEFPOINTS
 62
     0
100
AcDbPoint
 10
22.33795336681957
 20
10.99284907659658
 30
0.0
  0
ENDBLK
  5
473E
330
4732
100
AcDbEntity
  8
0
100
AcDbBlockEnd
  0
BLOCK
  5
474B
330
4740
100
AcDbEntity
  8
0
100
AcDbBlockBegin
  2
*D7
 70
     1
 10
0.0
 20
0.0
 30
0.0
  3
*D7
  1

  0
LINE
  5
5A90
330
4740
100
AcDbEntity
  8
DIM
 62
     0
370
    -2
100
AcDbLine
 10
22.22595336681957
 20
9.541547325369965
 30
0.0
 11
23.07758602048975
 21
9.541547325369965
 31
0.0
  0
LINE
  5
5A91
330
4740
100
AcDbEntity
  8
DIM
 62
     0
370
    -2
100
AcDbLine
 10
22.21395336681957
 20
9.779547325369975
 30
0.0
 11
23.07758602048975
 21
9.779547325369975
 31
0.0
  0
LINE
  5
5A92
330
4740
100
AcDbEntity
  8
DIM
 62
     0
370
    -2
100
AcDbLine
 10
22.89158602048975
 20
9.181547325369965
 30
0.0
 11
22.89158602048975
 21
8.821547325369964
 31
0.0
  0
LINE
  5
5A93
330
4740
100
AcDbEntity
  8
DIM
 62
     0
370
    -2
100
AcDbLine
 10
22.89158602048975
 20
10.13954732536997
 30
0.0
 11
22.89158602048975
 21
10.49954732536997
 31
0.0
  0
LINE
  5
5A94
330
4740
100
AcDbEntity
  8
DIM
 62
     0
370
    -2
100
AcDbLine
 10
22.89158602048975
 20
10.49954732536997
 30
0.0
 11
23.25158602048975
 21
10.49954732536997
 31
0.0
  0
SOLID
  5
5A95
330
4740
100
AcDbEntity
  8
DIM
 62
     0
100
AcDbTrace
 10
22.83158602048975
 20
9.181547325369965
 30
0.0
 11
22.95158602048974
 21
9.181547325369965
 31
0.0
 12
22.89158602048975
 22
9.541547325369965
 32
0.0
 13
22.89158602048975
 23
9.541547325369965
 33
0.0
  0
SOLID
  5
5A96
330
4740
100
AcDbEntity
  8
DIM
 62
     0
100
AcDbTrace
 10
22.83158602048975
 20
10.13954732536997
 30
0.0
 11
22.95158602048974
 21
10.13954732536997
 31
0.0
 12
22.89158602048975
 22
9.779547325369975
 32
0.0
 13
22.89158602048975
 23
9.779547325369975
 33
0.0
  0
MTEXT
  5
5A97
330
4740
100
AcDbEntity
  8
DIM
 62
     0
100
AcDbMText
 10
23.79096102048974
 20
10.49954732536998
 30
0.0
 40
0.25
 41
0.0
 71
     5
 72
     1
  1
\A1;0.238
 73
     1
 44
1.0
  0
POINT
  5
5A98
330
4740
100
AcDbEntity
  8
DEFPOINTS
 62
     0
100
AcDbPoint
 10
22.09995336681957
 20
9.541547325369965
 30
0.0
  0
POINT
  5
5A99
330
4740
100
AcDbEntity
  8
DEFPOINTS
 62
     0
100
AcDbPoint
 10
22.08795336681956
 20
9.779547325369975
 30
0.0
  0
POINT
  5
5A9A
330
4740
100
AcDbEntity
  8
DEFPOINTS
 62
     0
100
AcDbPoint
 10
22.89158602048975
 20
9.779547325369975
 30
0.0
  0
ENDBLK
  5
474C
330
4740
100
AcDbEntity
  8
0
100
AcDbBlockEnd
  0
BLOCK
  5
4759
330
474E
100
AcDbEntity
  8
0
100
AcDbBlockBegin
  2
*D8
 70
     1
 10
0.0
 20
0.0
 30
0.0
  3
*D8
  1

  0
LINE
  5
5B00
330
474E
100
AcDbEntity
  8
DIM
 62
     0
370
    -2
100
AcDbLine
 10
28.10290455505367
 20
9.843047325369974
 30
0.0
 11
28.10290455505367
 21
10.99648585547057
 31
0.0
  0
LINE
  5
5B01
330
474E
100
AcDbEntity
  8
DIM
 62
     0
370
    -2
100
AcDbLine
 10
30.28890455505369
 20
9.843047325369958
 30
0.0
 11
30.28890455505369
 21
10.99648585547057
 31
0.0
  0
LINE
  5
5B02
330
474E
100
AcDbEntity
  8
DIM
 62
     0
370
    -2
100
AcDbLine
 10
28.46290455505367
 20
10.81048585547057
 30
0.0
 11
28.95340455505368
 21
10.81048585547057
 31
0.0
  0
LINE
  5
5B03
330
474E
100
AcDbEntity
  8
DIM
 62
     0
370
    -2
100
AcDbLine
 10
29.92890455505369
 20
10.81048585547057
 30
0.0
 11
29.43840455505368
 21
10.81048585547057
 31
0.0
  0
SOLID
  5
5B04
330
474E
100
AcDbEntity
  8
DIM
 62
     0
100
AcDbTrace
 10
28.46290455505367
 20
10.87048585547057
 30
0.0
 11
28.46290455505367
 21
10.75048585547057
 31
0.0
 12
28.10290455505367
 22
10.81048585547057
 32
0.0
 13
28.10290455505367
 23
10.81048585547057
 33
0.0
  0
SOLID
  5
5B05
330
474E
100
AcDbEntity
  8
DIM
 62
     0
100
AcDbTrace
 10
29.92890455505369
 20
10.87048585547057
 30
0.0
 11
29.92890455505369
 21
10.75048585547057
 31
0.0
 12
30.28890455505369
 22
10.81048585547057
 32
0.0
 13
30.28890455505369
 23
10.81048585547057
 33
0.0
  0
MTEXT
  5
5B06
330
474E
100
AcDbEntity
  8
DIM
 62
     0
100
AcDbMText
 10
29.19590455505367
 20
10.81048585547057
 30
0.0
 40
0.25
 41
0.0
 71
     5
 72
     1
  1
\A1;C
 73
     1
 44
1.0
  0
POINT
  5
5B07
330
474E
100
AcDbEntity
  8
DEFPOINTS
 62
     0
100
AcDbPoint
 10
28.10290455505367
 20
9.717047325369975
 30
0.0
  0
POINT
  5
5B08
330
474E
100
AcDbEntity
  8
DEFPOINTS
 62
     0
100
AcDbPoint
 10
30.28890455505369
 20
9.717047325369959
 30
0.0
  0
POINT
  5
5B09
330
474E
100
AcDbEntity
  8
DEFPOINTS
 62
     0
100
AcDbPoint
 10
30.28890455505369
 20
10.81048585547057
 30
0.0
  0
ENDBLK
  5
475A
330
474E
100
AcDbEntity
  8
0
100
AcDbBlockEnd
  0
BLOCK
  5
4775
330
476A
100
AcDbEntity
  8
0
100
AcDbBlockBegin
  2
*D9
 70
     1
 10
0.0
 20
0.0
 30
0.0
  3
*D9
  1

  0
LINE
  5
5AE2
330
476A
100
AcDbEntity
  8
DIM
 62
     0
370
    -2
100
AcDbLine
 10
28.70290455505367
 20
9.905547325369974
 30
0.0
 11
28.70290455505367
 21
10.43448585547056
 31
0.0
  0
LINE
  5
5AE3
330
476A
100
AcDbEntity
  8
DIM
 62
     0
370
    -2
100
AcDbLine
 10
28.10290455505367
 20
9.843047325369974
 30
0.0
 11
28.10290455505367
 21
10.43448585547056
 31
0.0
  0
LINE
  5
5AE4
330
476A
100
AcDbEntity
  8
DIM
 62
     0
370
    -2
100
AcDbLine
 10
29.06290455505367
 20
10.24848585547057
 30
0.0
 11
29.42290455505367
 21
10.24848585547057
 31
0.0
  0
LINE
  5
5AE5
330
476A
100
AcDbEntity
  8
DIM
 62
     0
370
    -2
100
AcDbLine
 10
27.74290455505367
 20
10.24848585547057
 30
0.0
 11
27.38290455505367
 21
10.24848585547057
 31
0.0
  0
SOLID
  5
5AE6
330
476A
100
AcDbEntity
  8
DIM
 62
     0
100
AcDbTrace
 10
29.06290455505367
 20
10.30848585547057
 30
0.0
 11
29.06290455505367
 21
10.18848585547057
 31
0.0
 12
28.70290455505367
 22
10.24848585547057
 32
0.0
 13
28.70290455505367
 23
10.24848585547057
 33
0.0
  0
SOLID
  5
5AE7
330
476A
100
AcDbEntity
  8
DIM
 62
     0
100
AcDbTrace
 10
27.74290455505367
 20
10.30848585547057
 30
0.0
 11
27.74290455505367
 21
10.18848585547057
 31
0.0
 12
28.10290455505367
 22
10.24848585547057
 32
0.0
 13
28.10290455505367
 23
10.24848585547057
 33
0.0
  0
MTEXT
  5
5AE8
330
476A
100
AcDbEntity
  8
DIM
 62
     0
100
AcDbMText
 10
26.46852955505367
 20
10.24848585547057
 30
0.0
 40
0.25
 41
0.0
 71
     5
 72
     1
  1
\A1;0.600 REF.
 73
     1
 44
1.0
  0
POINT
  5
5AE9
330
476A
100
AcDbEntity
  8
DEFPOINTS
 62
     0
100
AcDbPoint
 10
28.70290455505367
 20
9.779547325369975
 30
0.0
  0
POINT
  5
5AEA
330
476A
100
AcDbEntity
  8
DEFPOINTS
 62
     0
100
AcDbPoint
 10
28.10290455505367
 20
9.717047325369975
 30
0.0
  0
POINT
  5
5AEB
330
476A
100
AcDbEntity
  8
DEFPOINTS
 62
     0
100
AcDbPoint
 10
28.10290455505367
 20
10.24848585547057
 30
0.0
  0
ENDBLK
  5
4776
330
476A
100
AcDbEntity
  8
0
100
AcDbBlockEnd
  0
BLOCK
  5
478B
330
4780
100
AcDbEntity
  8
0
100
AcDbBlockBegin
  2
*D10
 70
     1
 10
0.0
 20
0.0
 30
0.0
  3
*D10
  1

  0
LINE
  5
5AEC
330
4780
100
AcDbEntity
  8
DIM
 62
     0
370
    -2
100
AcDbLine
 10
24.69472407158265
 20
8.491199638041807
 30
0.0
 11
24.69472407158265
 21
8.554948665648181
 31
0.0
  0
LINE
  5
5AED
330
4780
100
AcDbEntity
  8
DIM
 62
     0
370
    -2
100
AcDbLine
 10
24.85472407158264
 20
8.491199638041807
 30
0.0
 11
24.85472407158264
 21
8.554948665648181
 31
0.0
  0
LINE
  5
5AEE
330
4780
100
AcDbEntity
  8
DIM
 62
     0
370
    -2
100
AcDbLine
 10
24.33472407158265
 20
8.368948665648181
 30
0.0
 11
23.97472407158265
 21
8.368948665648181
 31
0.0
  0
LINE
  5
5AEF
330
4780
100
AcDbEntity
  8
DIM
 62
     0
370
    -2
100
AcDbLine
 10
25.21472407158264
 20
8.368948665648181
 30
0.0
 11
25.57472407158264
 21
8.368948665648181
 31
0.0
  0
SOLID
  5
5AF0
330
4780
100
AcDbEntity
  8
DIM
 62
     0
100
AcDbTrace
 10
24.33472407158265
 20
8.428948665648182
 30
0.0
 11
24.33472407158265
 21
8.308948665648181
 31
0.0
 12
24.69472407158265
 22
8.368948665648181
 32
0.0
 13
24.69472407158265
 23
8.368948665648181
 33
0.0
  0
SOLID
  5
5AF1
330
4780
100
AcDbEntity
  8
DIM
 62
     0
100
AcDbTrace
 10
25.21472407158264
 20
8.428948665648182
 30
0.0
 11
25.21472407158264
 21
8.308948665648181
 31
0.0
 12
24.85472407158264
 22
8.368948665648181
 32
0.0
 13
24.85472407158264
 23
8.368948665648181
 33
0.0
  0
MTEXT
  5
5AF2
330
4780
100
AcDbEntity
  8
DIM
 62
     0
100
AcDbMText
 10
26.06722407158264
 20
8.368948665648181
 30
0.0
 40
0.25
 41
0.0
 71
     5
 72
     1
  1
\A1;0.160
 73
     1
 44
1.0
  0
POINT
  5
5AF3
330
4780
100
AcDbEntity
  8
DEFPOINTS
 62
     0
100
AcDbPoint
 10
24.69472407158265
 20
8.365199638041808
 30
0.0
  0
POINT
  5
5AF4
330
4780
100
AcDbEntity
  8
DEFPOINTS
 62
     0
100
AcDbPoint
 10
24.85472407158264
 20
8.365199638041808
 30
0.0
  0
POINT
  5
5AF5
330
4780
100
AcDbEntity
  8
DEFPOINTS
 62
     0
100
AcDbPoint
 10
24.85472407158264
 20
8.368948665648181
 30
0.0
  0
ENDBLK
  5
478C
330
4780
100
AcDbEntity
  8
0
100
AcDbBlockEnd
  0
BLOCK
  5
47A0
330
4795
100
AcDbEntity
  8
0
100
AcDbBlockBegin
  2
*D11
 70
     1
 10
0.0
 20
0.0
 30
0.0
  3
*D11
  1

  0
LINE
  5
5ED0
330
4795
100
AcDbEntity
  8
DIM
 62
     0
370
    -2
100
AcDbLine
 10
5.941348363955385
 20
9.383547325369979
 30
0.0
 11
5.423794997194114
 21
9.383547325369979
 31
0.0
  0
LINE
  5
5ED1
330
4795
100
AcDbEntity
  8
DIM
 62
     0
370
    -2
100
AcDbLine
 10
5.941348363955385
 20
9.779547325369982
 30
0.0
 11
5.423794997194114
 21
9.779547325369982
 31
0.0
  0
LINE
  5
5ED2
330
4795
100
AcDbEntity
  8
DIM
 62
     0
370
    -2
100
AcDbLine
 10
5.609794997194114
 20
9.02354732536998
 30
0.0
 11
5.609794997194114
 21
8.663547325369979
 31
0.0
  0
LINE
  5
5ED3
330
4795
100
AcDbEntity
  8
DIM
 62
     0
370
    -2
100
AcDbLine
 10
5.609794997194115
 20
10.13954732536998
 30
0.0
 11
5.609794997194115
 21
10.77055590149755
 31
0.0
  0
LINE
  5
5ED4
330
4795
100
AcDbEntity
  8
DIM
 62
     0
370
    -2
100
AcDbLine
 10
5.609794997194115
 20
10.77055590149755
 30
0.0
 11
5.969794997194115
 21
10.77055590149755
 31
0.0
  0
SOLID
  5
5ED5
330
4795
100
AcDbEntity
  8
DIM
 62
     0
100
AcDbTrace
 10
5.549794997194115
 20
9.02354732536998
 30
0.0
 11
5.669794997194114
 21
9.02354732536998
 31
0.0
 12
5.609794997194114
 22
9.383547325369979
 32
0.0
 13
5.609794997194114
 23
9.383547325369979
 33
0.0
  0
SOLID
  5
5ED6
330
4795
100
AcDbEntity
  8
DIM
 62
     0
100
AcDbTrace
 10
5.549794997194116
 20
10.13954732536998
 30
0.0
 11
5.669794997194115
 21
10.13954732536998
 31
0.0
 12
5.609794997194114
 22
9.779547325369982
 32
0.0
 13
5.609794997194114
 23
9.779547325369982
 33
0.0
  0
MTEXT
  5
5ED7
330
4795
100
AcDbEntity
  8
DIM
 62
     0
100
AcDbMText
 10
6.509169997194113
 20
10.77055590149756
 30
0.0
 40
0.25
 41
0.0
 71
     5
 72
     1
  1
\A1;0.396
 73
     1
 44
1.0
  0
POINT
  5
5ED8
330
4795
100
AcDbEntity
  8
DEFPOINTS
 62
     0
100
AcDbPoint
 10
6.067348363955385
 20
9.383547325369979
 30
0.0
  0
POINT
  5
5ED9
330
4795
100
AcDbEntity
  8
DEFPOINTS
 62
     0
100
AcDbPoint
 10
6.067348363955385
 20
9.779547325369982
 30
0.0
  0
POINT
  5
5EDA
330
4795
100
AcDbEntity
  8
DEFPOINTS
 62
     0
100
AcDbPoint
 10
5.609794997194114
 20
9.779547325369982
 30
0.0
  0
ENDBLK
  5
47A1
330
4795
100
AcDbEntity
  8
0
100
AcDbBlockEnd
  0
BLOCK
  5
47AE
330
47A3
100
AcDbEntity
  8
0
100
AcDbBlockBegin
  2
*D12
 70
     1
 10
0.0
 20
0.0
 30
0.0
  3
*D12
  1

  0
LINE
  5
627B
330
47A3
100
AcDbEntity
  8
DIM
 62
     0
370
    -2
100
AcDbLine
 10
4.220848363955393
 20
8.835547325369981
 30
0.0
 11
3.223562554358192
 21
8.835547325369983
 31
0.0
  0
LINE
  5
627C
330
47A3
100
AcDbEntity
  8
DIM
 62
     0
370
    -2
100
AcDbLine
 10
4.22384836395538
 20
9.779547325369975
 30
0.0
 11
3.223562554358193
 21
9.779547325369977
 31
0.0
  0
LINE
  5
627D
330
47A3
100
AcDbEntity
  8
DIM
 62
     0
370
    -2
100
AcDbLine
 10
3.409562554358192
 20
8.475547325369984
 30
0.0
 11
3.409562554358192
 21
8.115547325369982
 31
0.0
  0
LINE
  5
627E
330
47A3
100
AcDbEntity
  8
DIM
 62
     0
370
    -2
100
AcDbLine
 10
3.409562554358193
 20
10.13954732536997
 30
0.0
 11
3.409562554358193
 21
10.49954732536997
 31
0.0
  0
SOLID
  5
627F
330
47A3
100
AcDbEntity
  8
DIM
 62
     0
100
AcDbTrace
 10
3.349562554358192
 20
8.475547325369984
 30
0.0
 11
3.469562554358192
 21
8.475547325369984
 31
0.0
 12
3.409562554358192
 22
8.835547325369983
 32
0.0
 13
3.409562554358192
 23
8.835547325369983
 33
0.0
  0
SOLID
  5
6280
330
47A3
100
AcDbEntity
  8
DIM
 62
     0
100
AcDbTrace
 10
3.349562554358193
 20
10.13954732536997
 30
0.0
 11
3.469562554358193
 21
10.13954732536997
 31
0.0
 12
3.409562554358193
 22
9.779547325369977
 32
0.0
 13
3.409562554358193
 23
9.779547325369977
 33
0.0
  0
MTEXT
  5
6281
330
47A3
100
AcDbEntity
  8
DIM
 62
     0
100
AcDbMText
 10
3.409562554358191
 20
9.307547325369981
 30
0.0
 40
0.25
 41
0.0
 71
     5
 72
     1
  1
\A1;0.944
 73
     1
 44
1.0
  0
POINT
  5
6282
330
47A3
100
AcDbEntity
  8
DEFPOINTS
 62
     0
100
AcDbPoint
 10
4.346848363955394
 20
8.835547325369981
 30
0.0
  0
POINT
  5
6283
330
47A3
100
AcDbEntity
  8
DEFPOINTS
 62
     0
100
AcDbPoint
 10
4.349848363955381
 20
9.779547325369975
 30
0.0
  0
POINT
  5
6284
330
47A3
100
AcDbEntity
  8
DEFPOINTS
 62
     0
100
AcDbPoint
 10
3.409562554358193
 20
9.779547325369977
 30
0.0
  0
ENDBLK
  5
47AF
330
47A3
100
AcDbEntity
  8
0
100
AcDbBlockEnd
  0
BLOCK
  5
47BC
330
47B1
100
AcDbEntity
  8
0
100
AcDbBlockBegin
  2
*D13
 70
     1
 10
0.0
 20
0.0
 30
0.0
  3
*D13
  1

  0
LINE
  5
6285
330
47B1
100
AcDbEntity
  8
DIM
 62
     0
370
    -2
100
AcDbLine
 10
4.253848363955375
 20
9.107547325369971
 30
0.0
 11
2.228696569837481
 21
9.107547325369973
 31
0.0
  0
LINE
  5
6286
330
47B1
100
AcDbEntity
  8
DIM
 62
     0
370
    -2
100
AcDbLine
 10
4.22384836395538
 20
9.779547325369975
 30
0.0
 11
2.228696569837481
 21
9.779547325369977
 31
0.0
  0
LINE
  5
6287
330
47B1
100
AcDbEntity
  8
DIM
 62
     0
370
    -2
100
AcDbLine
 10
2.41469656983748
 20
8.747547325369973
 30
0.0
 11
2.41469656983748
 21
8.387547325369972
 31
0.0
  0
LINE
  5
6288
330
47B1
100
AcDbEntity
  8
DIM
 62
     0
370
    -2
100
AcDbLine
 10
2.414696569837481
 20
10.13954732536997
 30
0.0
 11
2.414696569837481
 21
10.49954732536997
 31
0.0
  0
SOLID
  5
6289
330
47B1
100
AcDbEntity
  8
DIM
 62
     0
100
AcDbTrace
 10
2.35469656983748
 20
8.747547325369973
 30
0.0
 11
2.47469656983748
 21
8.747547325369973
 31
0.0
 12
2.414696569837481
 22
9.107547325369973
 32
0.0
 13
2.414696569837481
 23
9.107547325369973
 33
0.0
  0
SOLID
  5
628A
330
47B1
100
AcDbEntity
  8
DIM
 62
     0
100
AcDbTrace
 10
2.354696569837481
 20
10.13954732536997
 30
0.0
 11
2.474696569837481
 21
10.13954732536997
 31
0.0
 12
2.414696569837481
 22
9.779547325369977
 32
0.0
 13
2.414696569837481
 23
9.779547325369977
 33
0.0
  0
MTEXT
  5
628B
330
47B1
100
AcDbEntity
  8
DIM
 62
     0
100
AcDbMText
 10
2.414696569837479
 20
9.443547325369975
 30
0.0
 40
0.25
 41
0.0
 71
     5
 72
     1
  1
\A1;0.672
 73
     1
 44
1.0
  0
POINT
  5
628C
330
47B1
100
AcDbEntity
  8
DEFPOINTS
 62
     0
100
AcDbPoint
 10
4.379848363955376
 20
9.107547325369971
 30
0.0
  0
POINT
  5
628D
330
47B1
100
AcDbEntity
  8
DEFPOINTS
 62
     0
100
AcDbPoint
 10
4.349848363955381
 20
9.779547325369975
 30
0.0
  0
POINT
  5
628E
330
47B1
100
AcDbEntity
  8
DEFPOINTS
 62
     0
100
AcDbPoint
 10
2.414696569837481
 20
9.779547325369977
 30
0.0
  0
ENDBLK
  5
47BD
330
47B1
100
AcDbEntity
  8
0
100
AcDbBlockEnd
  0
BLOCK
  5
47CA
330
47BF
100
AcDbEntity
  8
0
100
AcDbBlockBegin
  2
*D14
 70
     1
 10
0.0
 20
0.0
 30
0.0
  3
*D14
  1

  0
LINE
  5
5E24
330
47BF
100
AcDbEntity
  8
DIM
 62
     0
370
    -2
100
AcDbLine
 10
4.532848363955373
 20
8.655547325369976
 30
0.0
 11
4.532848363955373
 21
12.36748190822166
 31
0.0
  0
LINE
  5
5E25
330
47BF
100
AcDbEntity
  8
DIM
 62
     0
370
    -2
100
AcDbLine
 10
4.099848363955381
 20
9.655547325369974
 30
0.0
 11
4.099848363955381
 21
12.36748190822166
 31
0.0
  0
LINE
  5
5E26
330
47BF
100
AcDbEntity
  8
DIM
 62
     0
370
    -2
100
AcDbLine
 10
4.892848363955374
 20
12.18148190822166
 30
0.0
 11
5.252848363955373
 21
12.18148190822166
 31
0.0
  0
LINE
  5
5E27
330
47BF
100
AcDbEntity
  8
DIM
 62
     0
370
    -2
100
AcDbLine
 10
3.739848363955381
 20
12.18148190822166
 30
0.0
 11
3.379848363955381
 21
12.18148190822166
 31
0.0
  0
SOLID
  5
5E28
330
47BF
100
AcDbEntity
  8
DIM
 62
     0
100
AcDbTrace
 10
4.892848363955374
 20
12.24148190822166
 30
0.0
 11
4.892848363955374
 21
12.12148190822166
 31
0.0
 12
4.532848363955373
 22
12.18148190822166
 32
0.0
 13
4.532848363955373
 23
12.18148190822166
 33
0.0
  0
SOLID
  5
5E29
330
47BF
100
AcDbEntity
  8
DIM
 62
     0
100
AcDbTrace
 10
3.739848363955381
 20
12.24148190822166
 30
0.0
 11
3.739848363955381
 21
12.12148190822166
 31
0.0
 12
4.099848363955381
 22
12.18148190822166
 32
0.0
 13
4.099848363955381
 23
12.18148190822166
 33
0.0
  0
MTEXT
  5
5E2A
330
47BF
100
AcDbEntity
  8
DIM
 62
     0
100
AcDbMText
 10
2.840473363955381
 20
12.18148190822166
 30
0.0
 40
0.25
 41
0.0
 71
     5
 72
     1
  1
\A1;0.433
 73
     1
 44
1.0
  0
POINT
  5
5E2B
330
47BF
100
AcDbEntity
  8
DEFPOINTS
 62
     0
100
AcDbPoint
 10
4.532848363955373
 20
8.529547325369977
 30
0.0
  0
POINT
  5
5E2C
330
47BF
100
AcDbEntity
  8
DEFPOINTS
 62
     0
100
AcDbPoint
 10
4.099848363955381
 20
9.529547325369975
 30
0.0
  0
POINT
  5
5E2D
330
47BF
100
AcDbEntity
  8
DEFPOINTS
 62
     0
100
AcDbPoint
 10
4.099848363955381
 20
12.18148190822166
 30
0.0
  0
ENDBLK
  5
47CB
330
47BF
100
AcDbEntity
  8
0
100
AcDbBlockEnd
  0
BLOCK
  5
47D8
330
47CD
100
AcDbEntity
  8
0
100
AcDbBlockBegin
  2
*D15
 70
     1
 10
0.0
 20
0.0
 30
0.0
  3
*D15
  1

  0
LINE
  5
5E1A
330
47CD
100
AcDbEntity
  8
DIM
 62
     0
370
    -2
100
AcDbLine
 10
7.601848363955394
 20
8.655547325369976
 30
0.0
 11
7.601848363955394
 21
12.36748190822166
 31
0.0
  0
LINE
  5
5E1B
330
47CD
100
AcDbEntity
  8
DIM
 62
     0
370
    -2
100
AcDbLine
 10
4.532848363955373
 20
8.655547325369976
 30
0.0
 11
4.532848363955373
 21
12.36748190822166
 31
0.0
  0
LINE
  5
5E1C
330
47CD
100
AcDbEntity
  8
DIM
 62
     0
370
    -2
100
AcDbLine
 10
7.241848363955393
 20
12.18148190822166
 30
0.0
 11
6.606723363955383
 21
12.18148190822166
 31
0.0
  0
LINE
  5
5E1D
330
47CD
100
AcDbEntity
  8
DIM
 62
     0
370
    -2
100
AcDbLine
 10
4.892848363955374
 20
12.18148190822166
 30
0.0
 11
5.527973363955384
 21
12.18148190822166
 31
0.0
  0
SOLID
  5
5E1E
330
47CD
100
AcDbEntity
  8
DIM
 62
     0
100
AcDbTrace
 10
7.241848363955393
 20
12.24148190822166
 30
0.0
 11
7.241848363955393
 21
12.12148190822166
 31
0.0
 12
7.601848363955394
 22
12.18148190822166
 32
0.0
 13
7.601848363955394
 23
12.18148190822166
 33
0.0
  0
SOLID
  5
5E1F
330
47CD
100
AcDbEntity
  8
DIM
 62
     0
100
AcDbTrace
 10
4.892848363955374
 20
12.24148190822166
 30
0.0
 11
4.892848363955374
 21
12.12148190822166
 31
0.0
 12
4.532848363955373
 22
12.18148190822166
 32
0.0
 13
4.532848363955373
 23
12.18148190822166
 33
0.0
  0
MTEXT
  5
5E20
330
47CD
100
AcDbEntity
  8
DIM
 62
     0
100
AcDbMText
 10
6.067348363955384
 20
12.18148190822166
 30
0.0
 40
0.25
 41
0.0
 71
     5
 72
     1
  1
\A1;3.069
 73
     1
 44
1.0
  0
POINT
  5
5E21
330
47CD
100
AcDbEntity
  8
DEFPOINTS
 62
     0
100
AcDbPoint
 10
7.601848363955394
 20
8.529547325369977
 30
0.0
  0
POINT
  5
5E22
330
47CD
100
AcDbEntity
  8
DEFPOINTS
 62
     0
100
AcDbPoint
 10
4.532848363955373
 20
8.529547325369977
 30
0.0
  0
POINT
  5
5E23
330
47CD
100
AcDbEntity
  8
DEFPOINTS
 62
     0
100
AcDbPoint
 10
4.532848363955373
 20
12.18148190822166
 30
0.0
  0
ENDBLK
  5
47D9
330
47CD
100
AcDbEntity
  8
0
100
AcDbBlockEnd
  0
BLOCK
  5
47E6
330
47DB
100
AcDbEntity
  8
0
100
AcDbBlockBegin
  2
*D16
 70
     1
 10
0.0
 20
0.0
 30
0.0
  3
*D16
  1

  0
LINE
  5
5E10
330
47DB
100
AcDbEntity
  8
DIM
 62
     0
370
    -2
100
AcDbLine
 10
4.099848363955381
 20
9.655547325369981
 30
0.0
 11
4.099848363955381
 21
13.49148190822166
 31
0.0
  0
LINE
  5
5E11
330
47DB
100
AcDbEntity
  8
DIM
 62
     0
370
    -2
100
AcDbLine
 10
8.034848363955394
 20
9.655547325369981
 30
0.0
 11
8.034848363955394
 21
13.49148190822166
 31
0.0
  0
LINE
  5
5E12
330
47DB
100
AcDbEntity
  8
DIM
 62
     0
370
    -2
100
AcDbLine
 10
4.459848363955381
 20
13.30548190822166
 30
0.0
 11
5.512348363955387
 21
13.30548190822166
 31
0.0
  0
LINE
  5
5E13
330
47DB
100
AcDbEntity
  8
DIM
 62
     0
370
    -2
100
AcDbLine
 10
7.674848363955393
 20
13.30548190822166
 30
0.0
 11
6.622348363955387
 21
13.30548190822166
 31
0.0
  0
SOLID
  5
5E14
330
47DB
100
AcDbEntity
  8
DIM
 62
     0
100
AcDbTrace
 10
4.459848363955381
 20
13.36548190822166
 30
0.0
 11
4.459848363955381
 21
13.24548190822166
 31
0.0
 12
4.099848363955381
 22
13.30548190822166
 32
0.0
 13
4.099848363955381
 23
13.30548190822166
 33
0.0
  0
SOLID
  5
5E15
330
47DB
100
AcDbEntity
  8
DIM
 62
     0
100
AcDbTrace
 10
7.674848363955393
 20
13.36548190822166
 30
0.0
 11
7.674848363955393
 21
13.24548190822166
 31
0.0
 12
8.034848363955394
 22
13.30548190822166
 32
0.0
 13
8.034848363955394
 23
13.30548190822166
 33
0.0
  0
MTEXT
  5
5E16
330
47DB
100
AcDbEntity
  8
DIM
 62
     0
100
AcDbMText
 10
6.067348363955387
 20
13.30548190822166
 30
0.0
 40
0.25
 41
0.0
 71
     5
 72
     1
  1
\A1;3.935
 73
     1
 44
1.0
  0
POINT
  5
5E17
330
47DB
100
AcDbEntity
  8
DEFPOINTS
 62
     0
100
AcDbPoint
 10
4.099848363955381
 20
9.529547325369982
 30
0.0
  0
POINT
  5
5E18
330
47DB
100
AcDbEntity
  8
DEFPOINTS
 62
     0
100
AcDbPoint
 10
8.034848363955394
 20
9.529547325369982
 30
0.0
  0
POINT
  5
5E19
330
47DB
100
AcDbEntity
  8
DEFPOINTS
 62
     0
100
AcDbPoint
 10
8.034848363955394
 20
13.30548190822166
 30
0.0
  0
ENDBLK
  5
47E7
330
47DB
100
AcDbEntity
  8
0
100
AcDbBlockEnd
  0
BLOCK
  5
47F3
330
47E9
100
AcDbEntity
  8
0
100
AcDbBlockBegin
  2
*D17
 70
     1
 10
0.0
 20
0.0
 30
0.0
  3
*D17
  1

  0
LINE
  5
5DF2
330
47E9
100
AcDbEntity
  8
DIM
 62
     0
370
    -2
100
AcDbLine
 10
4.099848363955381
 20
9.655547325369974
 30
0.0
 11
4.099848363955381
 21
11.81694516520541
 31
0.0
  0
LINE
  5
5DF3
330
47E9
100
AcDbEntity
  8
DIM
 62
     0
370
    -2
100
AcDbLine
 10
6.067348363955385
 20
9.509547325369974
 30
0.0
 11
6.067348363955385
 21
11.81694516520541
 31
0.0
  0
LINE
  5
5DF4
330
47E9
100
AcDbEntity
  8
DIM
 62
     0
370
    -2
100
AcDbLine
 10
4.459848363955381
 20
11.63094516520541
 30
0.0
 11
4.53703862348353
 21
11.63094516520541
 31
0.0
  0
LINE
  5
5DF5
330
47E9
100
AcDbEntity
  8
DIM
 62
     0
370
    -2
100
AcDbLine
 10
5.707348363955385
 20
11.63094516520541
 30
0.0
 11
5.584538623483529
 21
11.63094516520541
 31
0.0
  0
SOLID
  5
5DF6
330
47E9
100
AcDbEntity
  8
DIM
 62
     0
100
AcDbTrace
 10
4.459848363955381
 20
11.69094516520541
 30
0.0
 11
4.459848363955381
 21
11.57094516520541
 31
0.0
 12
4.099848363955381
 22
11.63094516520541
 32
0.0
 13
4.099848363955381
 23
11.63094516520541
 33
0.0
  0
SOLID
  5
5DF7
330
47E9
100
AcDbEntity
  8
DIM
 62
     0
100
AcDbTrace
 10
5.707348363955385
 20
11.69094516520541
 30
0.0
 11
5.707348363955385
 21
11.57094516520541
 31
0.0
 12
6.067348363955385
 22
11.63094516520541
 32
0.0
 13
6.067348363955385
 23
11.63094516520541
 33
0.0
  0
MTEXT
  5
5DF8
330
47E9
100
AcDbEntity
  8
DIM
 62
     0
100
AcDbMText
 10
5.06078862348353
 20
11.63094516520541
 30
0.0
 40
0.25
 41
0.0
 71
     5
 72
     1
  1
\A1;1.968
 73
     1
 44
1.0
  0
POINT
  5
5DF9
330
47E9
100
AcDbEntity
  8
DEFPOINTS
 62
     0
100
AcDbPoint
 10
4.099848363955381
 20
9.529547325369975
 30
0.0
  0
POINT
  5
5DFA
330
47E9
100
AcDbEntity
  8
DEFPOINTS
 62
     0
100
AcDbPoint
 10
6.067348363955385
 20
9.383547325369974
 30
0.0
  0
POINT
  5
5DFB
330
47E9
100
AcDbEntity
  8
DEFPOINTS
 62
     0
100
AcDbPoint
 10
6.067348363955385
 20
11.63094516520541
 30
0.0
  0
ENDBLK
  5
47F4
330
47E9
100
AcDbEntity
  8
0
100
AcDbBlockEnd
  0
BLOCK
  5
4801
330
47F6
100
AcDbEntity
  8
0
100
AcDbBlockBegin
  2
*D18
 70
     1
 10
0.0
 20
0.0
 30
0.0
  3
*D18
  1

  0
LINE
  5
5EB1
330
47F6
100
AcDbEntity
  8
DIM
 62
     0
370
    -2
100
AcDbLine
 10
6.787920184087105
 20
5.959547325369966
 30
0.0
 11
6.601920184087105
 21
5.959547325369966
 31
0.0
  0
LINE
  5
5EB2
330
47F6
100
AcDbEntity
  8
DIM
 62
     0
370
    -2
100
AcDbLine
 10
6.78792018408712
 20
5.844547325369971
 30
0.0
 11
6.601920184087105
 21
5.844547325369971
 31
0.0
  0
LINE
  5
5EB3
330
47F6
100
AcDbEntity
  8
DIM
 62
     0
370
    -2
100
AcDbLine
 10
6.787920184087106
 20
6.319547325369966
 30
0.0
 11
6.787920184087106
 21
6.679547325369965
 31
0.0
  0
LINE
  5
5EB4
330
47F6
100
AcDbEntity
  8
DIM
 62
     0
370
    -2
100
AcDbLine
 10
6.787920184087105
 20
5.484547325369971
 30
0.0
 11
6.787920184087105
 21
5.124547325369971
 31
0.0
  0
LINE
  5
5EB5
330
47F6
100
AcDbEntity
  8
DIM
 62
     0
370
    -2
100
AcDbLine
 10
6.787920184087105
 20
5.124547325369971
 30
0.0
 11
6.427920184087104
 21
5.124547325369971
 31
0.0
  0
SOLID
  5
5EB6
330
47F6
100
AcDbEntity
  8
DIM
 62
     0
100
AcDbTrace
 10
6.727920184087106
 20
6.319547325369966
 30
0.0
 11
6.847920184087105
 21
6.319547325369966
 31
0.0
 12
6.787920184087105
 22
5.959547325369966
 32
0.0
 13
6.787920184087105
 23
5.959547325369966
 33
0.0
  0
SOLID
  5
5EB7
330
47F6
100
AcDbEntity
  8
DIM
 62
     0
100
AcDbTrace
 10
6.727920184087105
 20
5.484547325369971
 30
0.0
 11
6.847920184087104
 21
5.484547325369971
 31
0.0
 12
6.787920184087105
 22
5.844547325369971
 32
0.0
 13
6.787920184087105
 23
5.844547325369971
 33
0.0
  0
MTEXT
  5
5EB8
330
47F6
100
AcDbEntity
  8
DIM
 62
     0
100
AcDbMText
 10
5.544795184087104
 20
5.124547325369973
 30
0.0
 40
0.25
 41
0.0
 71
     5
 72
     1
  1
\A1;0.115 TYP.
 73
     1
 44
1.0
  0
POINT
  5
5EB9
330
47F6
100
AcDbEntity
  8
DEFPOINTS
 62
     0
100
AcDbPoint
 10
6.913920184087105
 20
5.959547325369966
 30
0.0
  0
POINT
  5
5EBA
330
47F6
100
AcDbEntity
  8
DEFPOINTS
 62
     0
100
AcDbPoint
 10
6.91392018408712
 20
5.844547325369971
 30
0.0
  0
POINT
  5
5EBB
330
47F6
100
AcDbEntity
  8
DEFPOINTS
 62
     0
100
AcDbPoint
 10
6.787920184087105
 20
5.844547325369971
 30
0.0
  0
ENDBLK
  5
4802
330
47F6
100
AcDbEntity
  8
0
100
AcDbBlockEnd
  0
BLOCK
  5
480F
330
4804
100
AcDbEntity
  8
0
100
AcDbBlockBegin
  2
*D19
 70
     1
 10
0.0
 20
0.0
 30
0.0
  3
*D19
  1

  0
LINE
  5
5EDB
330
4804
100
AcDbEntity
  8
DIM
 62
     0
370
    -2
100
AcDbLine
 10
4.214848363955375
 20
8.228909402512869
 30
0.0
 11
4.214848363955375
 21
8.552680800550833
 31
0.0
  0
LINE
  5
5EDC
330
4804
100
AcDbEntity
  8
DIM
 62
     0
370
    -2
100
AcDbLine
 10
7.919848363955384
 20
8.228909402512861
 30
0.0
 11
7.919848363955384
 21
8.552680800550833
 31
0.0
  0
LINE
  5
5EDD
330
4804
100
AcDbEntity
  8
DIM
 62
     0
370
    -2
100
AcDbLine
 10
4.574848363955375
 20
8.366680800550833
 30
0.0
 11
5.52797336395538
 21
8.366680800550833
 31
0.0
  0
LINE
  5
5EDE
330
4804
100
AcDbEntity
  8
DIM
 62
     0
370
    -2
100
AcDbLine
 10
7.559848363955384
 20
8.366680800550833
 30
0.0
 11
6.60672336395538
 21
8.366680800550833
 31
0.0
  0
SOLID
  5
5EDF
330
4804
100
AcDbEntity
  8
DIM
 62
     0
100
AcDbTrace
 10
4.574848363955375
 20
8.426680800550833
 30
0.0
 11
4.574848363955375
 21
8.306680800550832
 31
0.0
 12
4.214848363955375
 22
8.366680800550833
 32
0.0
 13
4.214848363955375
 23
8.366680800550833
 33
0.0
  0
SOLID
  5
5EE0
330
4804
100
AcDbEntity
  8
DIM
 62
     0
100
AcDbTrace
 10
7.559848363955384
 20
8.426680800550833
 30
0.0
 11
7.559848363955384
 21
8.306680800550832
 31
0.0
 12
7.919848363955384
 22
8.366680800550833
 32
0.0
 13
7.919848363955384
 23
8.366680800550833
 33
0.0
  0
MTEXT
  5
5EE1
330
4804
100
AcDbEntity
  8
DIM
 62
     0
100
AcDbMText
 10
6.06734836395538
 20
8.366680800550833
 30
0.0
 40
0.25
 41
0.0
 71
     5
 72
     1
  1
\A1;3.705
 73
     1
 44
1.0
  0
POINT
  5
5EE2
330
4804
100
AcDbEntity
  8
DEFPOINTS
 62
     0
100
AcDbPoint
 10
4.214848363955375
 20
8.102909402512869
 30
0.0
  0
POINT
  5
5EE3
330
4804
100
AcDbEntity
  8
DEFPOINTS
 62
     0
100
AcDbPoint
 10
7.919848363955384
 20
8.102909402512862
 30
0.0
  0
POINT
  5
5EE4
330
4804
100
AcDbEntity
  8
DEFPOINTS
 62
     0
100
AcDbPoint
 10
7.919848363955384
 20
8.366680800550833
 30
0.0
  0
ENDBLK
  5
4810
330
4804
100
AcDbEntity
  8
0
100
AcDbBlockEnd
  0
BLOCK
  5
481D
330
4812
100
AcDbEntity
  8
0
100
AcDbBlockBegin
  2
*D20
 70
     1
 10
0.0
 20
0.0
 30
0.0
  3
*D20
  1

  0
LINE
  5
5EBC
330
4812
100
AcDbEntity
  8
DIM
 62
     0
370
    -2
100
AcDbLine
 10
7.34684836395539
 20
5.96554732536997
 30
0.0
 11
7.34684836395539
 21
4.431148762369244
 31
0.0
  0
LINE
  5
5EBD
330
4812
100
AcDbEntity
  8
DIM
 62
     0
370
    -2
100
AcDbLine
 10
4.787848363955382
 20
5.96554732536997
 30
0.0
 11
4.787848363955382
 21
4.431148762369244
 31
0.0
  0
LINE
  5
5EBE
330
4812
100
AcDbEntity
  8
DIM
 62
     0
370
    -2
100
AcDbLine
 10
6.98684836395539
 20
4.617148762369244
 30
0.0
 11
6.622348363955386
 21
4.617148762369244
 31
0.0
  0
LINE
  5
5EBF
330
4812
100
AcDbEntity
  8
DIM
 62
     0
370
    -2
100
AcDbLine
 10
5.147848363955382
 20
4.617148762369244
 30
0.0
 11
5.512348363955386
 21
4.617148762369244
 31
0.0
  0
SOLID
  5
5EC0
330
4812
100
AcDbEntity
  8
DIM
 62
     0
100
AcDbTrace
 10
6.98684836395539
 20
4.677148762369244
 30
0.0
 11
6.98684836395539
 21
4.557148762369244
 31
0.0
 12
7.34684836395539
 22
4.617148762369244
 32
0.0
 13
7.34684836395539
 23
4.617148762369244
 33
0.0
  0
SOLID
  5
5EC1
330
4812
100
AcDbEntity
  8
DIM
 62
     0
100
AcDbTrace
 10
5.147848363955382
 20
4.677148762369244
 30
0.0
 11
5.147848363955382
 21
4.557148762369244
 31
0.0
 12
4.787848363955382
 22
4.617148762369244
 32
0.0
 13
4.787848363955382
 23
4.617148762369244
 33
0.0
  0
MTEXT
  5
5EC2
330
4812
100
AcDbEntity
  8
DIM
 62
     0
100
AcDbMText
 10
6.067348363955386
 20
4.617148762369244
 30
0.0
 40
0.25
 41
0.0
 71
     5
 72
     1
  1
\A1;2.559
 73
     1
 44
1.0
  0
POINT
  5
5EC3
330
4812
100
AcDbEntity
  8
DEFPOINTS
 62
     0
100
AcDbPoint
 10
7.34684836395539
 20
6.091547325369971
 30
0.0
  0
POINT
  5
5EC4
330
4812
100
AcDbEntity
  8
DEFPOINTS
 62
     0
100
AcDbPoint
 10
4.787848363955382
 20
6.091547325369971
 30
0.0
  0
POINT
  5
5EC5
330
4812
100
AcDbEntity
  8
DEFPOINTS
 62
     0
100
AcDbPoint
 10
4.787848363955382
 20
4.617148762369244
 30
0.0
  0
ENDBLK
  5
481E
330
4812
100
AcDbEntity
  8
0
100
AcDbBlockEnd
  0
BLOCK
  5
4873
330
4868
100
AcDbEntity
  8
0
100
AcDbBlockBegin
  2
*D21
 70
     1
 10
0.0
 20
0.0
 30
0.0
  3
*D21
  1

  0
LINE
  5
5EC6
330
4868
100
AcDbEntity
  8
DIM
 62
     0
370
    -2
100
AcDbLine
 10
4.787848363955382
 20
5.96554732536997
 30
0.0
 11
4.787848363955382
 21
4.431148762369244
 31
0.0
  0
LINE
  5
5EC7
330
4868
100
AcDbEntity
  8
DIM
 62
     0
370
    -2
100
AcDbLine
 10
4.099848363955381
 20
5.968547325369971
 30
0.0
 11
4.099848363955381
 21
4.431148762369244
 31
0.0
  0
LINE
  5
5EC8
330
4868
100
AcDbEntity
  8
DIM
 62
     0
370
    -2
100
AcDbLine
 10
5.147848363955382
 20
4.617148762369244
 30
0.0
 11
5.507848363955382
 21
4.617148762369244
 31
0.0
  0
LINE
  5
5EC9
330
4868
100
AcDbEntity
  8
DIM
 62
     0
370
    -2
100
AcDbLine
 10
3.739848363955381
 20
4.617148762369244
 30
0.0
 11
3.379848363955381
 21
4.617148762369244
 31
0.0
  0
SOLID
  5
5ECA
330
4868
100
AcDbEntity
  8
DIM
 62
     0
100
AcDbTrace
 10
5.147848363955382
 20
4.677148762369244
 30
0.0
 11
5.147848363955382
 21
4.557148762369244
 31
0.0
 12
4.787848363955382
 22
4.617148762369244
 32
0.0
 13
4.787848363955382
 23
4.617148762369244
 33
0.0
  0
SOLID
  5
5ECB
330
4868
100
AcDbEntity
  8
DIM
 62
     0
100
AcDbTrace
 10
3.739848363955381
 20
4.677148762369244
 30
0.0
 11
3.739848363955381
 21
4.557148762369244
 31
0.0
 12
4.099848363955381
 22
4.617148762369244
 32
0.0
 13
4.099848363955381
 23
4.617148762369244
 33
0.0
  0
MTEXT
  5
5ECC
330
4868
100
AcDbEntity
  8
DIM
 62
     0
100
AcDbMText
 10
2.840473363955381
 20
4.617148762369244
 30
0.0
 40
0.25
 41
0.0
 71
     5
 72
     1
  1
\A1;0.688
 73
     1
 44
1.0
  0
POINT
  5
5ECD
330
4868
100
AcDbEntity
  8
DEFPOINTS
 62
     0
100
AcDbPoint
 10
4.787848363955382
 20
6.091547325369971
 30
0.0
  0
POINT
  5
5ECE
330
4868
100
AcDbEntity
  8
DEFPOINTS
 62
     0
100
AcDbPoint
 10
4.099848363955381
 20
6.094547325369971
 30
0.0
  0
POINT
  5
5ECF
330
4868
100
AcDbEntity
  8
DEFPOINTS
 62
     0
100
AcDbPoint
 10
4.099848363955381
 20
4.617148762369244
 30
0.0
  0
ENDBLK
  5
4874
330
4868
100
AcDbEntity
  8
0
100
AcDbBlockEnd
  0
BLOCK
  5
4881
330
4876
100
AcDbEntity
  8
0
100
AcDbBlockBegin
  2
*D22
 70
     1
 10
0.0
 20
0.0
 30
0.0
  3
*D22
  1

  0
LINE
  5
625D
330
4876
100
AcDbEntity
  8
DIM
 62
     0
370
    -2
100
AcDbLine
 10
4.22384836395538
 20
9.779547325369975
 30
0.0
 11
1.144184681067216
 21
9.779547325369977
 31
0.0
  0
LINE
  5
625E
330
4876
100
AcDbEntity
  8
DIM
 62
     0
370
    -2
100
AcDbLine
 10
4.22384836395538
 20
5.844547325369971
 30
0.0
 11
1.144184681067216
 21
5.844547325369972
 31
0.0
  0
LINE
  5
625F
330
4876
100
AcDbEntity
  8
DIM
 62
     0
370
    -2
100
AcDbLine
 10
1.330184681067216
 20
9.419547325369977
 30
0.0
 11
1.330184681067216
 21
8.117047325369975
 31
0.0
  0
LINE
  5
6260
330
4876
100
AcDbEntity
  8
DIM
 62
     0
370
    -2
100
AcDbLine
 10
1.330184681067215
 20
6.204547325369972
 30
0.0
 11
1.330184681067216
 21
7.507047325369975
 31
0.0
  0
SOLID
  5
6261
330
4876
100
AcDbEntity
  8
DIM
 62
     0
100
AcDbTrace
 10
1.270184681067216
 20
9.419547325369977
 30
0.0
 11
1.390184681067216
 21
9.419547325369977
 31
0.0
 12
1.330184681067216
 22
9.779547325369977
 32
0.0
 13
1.330184681067216
 23
9.779547325369977
 33
0.0
  0
SOLID
  5
6262
330
4876
100
AcDbEntity
  8
DIM
 62
     0
100
AcDbTrace
 10
1.270184681067215
 20
6.204547325369972
 30
0.0
 11
1.390184681067216
 21
6.204547325369972
 31
0.0
 12
1.330184681067215
 22
5.844547325369972
 32
0.0
 13
1.330184681067215
 23
5.844547325369972
 33
0.0
  0
MTEXT
  5
6263
330
4876
100
AcDbEntity
  8
DIM
 62
     0
100
AcDbMText
 10
1.330184681067215
 20
7.812047325369975
 30
0.0
 40
0.25
 41
0.0
 71
     5
 72
     1
  1
\A1;3.935
 73
     1
 44
1.0
  0
POINT
  5
6264
330
4876
100
AcDbEntity
  8
DEFPOINTS
 62
     0
100
AcDbPoint
 10
4.349848363955381
 20
9.779547325369975
 30
0.0
  0
POINT
  5
6265
330
4876
100
AcDbEntity
  8
DEFPOINTS
 62
     0
100
AcDbPoint
 10
4.349848363955381
 20
5.844547325369971
 30
0.0
  0
POINT
  5
6266
330
4876
100
AcDbEntity
  8
DEFPOINTS
 62
     0
100
AcDbPoint
 10
1.330184681067215
 20
5.844547325369972
 30
0.0
  0
ENDBLK
  5
4882
330
4876
100
AcDbEntity
  8
0
100
AcDbBlockEnd
  0
BLOCK
  5
488F
330
4884
100
AcDbEntity
  8
0
100
AcDbBlockBegin
  2
*D23
 70
     1
 10
0.0
 20
0.0
 30
0.0
  3
*D23
  1

  0
LINE
  5
5E93
330
4884
100
AcDbEntity
  8
DIM
 62
     0
370
    -2
100
AcDbLine
 10
5.941348363955385
 20
6.23954732536997
 30
0.0
 11
5.423794997194115
 21
6.23954732536997
 31
0.0
  0
LINE
  5
5E94
330
4884
100
AcDbEntity
  8
DIM
 62
     0
370
    -2
100
AcDbLine
 10
5.941348363955385
 20
9.383547325369974
 30
0.0
 11
5.423794997194115
 21
9.383547325369974
 31
0.0
  0
LINE
  5
5E95
330
4884
100
AcDbEntity
  8
DIM
 62
     0
370
    -2
100
AcDbLine
 10
5.609794997194115
 20
6.599547325369971
 30
0.0
 11
5.609794997194115
 21
7.506547325369973
 31
0.0
  0
LINE
  5
5E96
330
4884
100
AcDbEntity
  8
DIM
 62
     0
370
    -2
100
AcDbLine
 10
5.609794997194115
 20
9.023547325369975
 30
0.0
 11
5.609794997194115
 21
8.116547325369973
 31
0.0
  0
SOLID
  5
5E97
330
4884
100
AcDbEntity
  8
DIM
 62
     0
100
AcDbTrace
 10
5.549794997194116
 20
6.599547325369971
 30
0.0
 11
5.669794997194115
 21
6.599547325369971
 31
0.0
 12
5.609794997194115
 22
6.23954732536997
 32
0.0
 13
5.609794997194115
 23
6.23954732536997
 33
0.0
  0
SOLID
  5
5E98
330
4884
100
AcDbEntity
  8
DIM
 62
     0
100
AcDbTrace
 10
5.549794997194116
 20
9.023547325369975
 30
0.0
 11
5.669794997194115
 21
9.023547325369975
 31
0.0
 12
5.609794997194115
 22
9.383547325369974
 32
0.0
 13
5.609794997194115
 23
9.383547325369974
 33
0.0
  0
MTEXT
  5
5E99
330
4884
100
AcDbEntity
  8
DIM
 62
     0
100
AcDbMText
 10
5.609794997194114
 20
7.811547325369974
 30
0.0
 40
0.25
 41
0.0
 71
     5
 72
     1
  1
\A1;3.144
 73
     1
 44
1.0
  0
POINT
  5
5E9A
330
4884
100
AcDbEntity
  8
DEFPOINTS
 62
     0
100
AcDbPoint
 10
6.067348363955385
 20
6.23954732536997
 30
0.0
  0
POINT
  5
5E9B
330
4884
100
AcDbEntity
  8
DEFPOINTS
 62
     0
100
AcDbPoint
 10
6.067348363955385
 20
9.383547325369974
 30
0.0
  0
POINT
  5
5E9C
330
4884
100
AcDbEntity
  8
DEFPOINTS
 62
     0
100
AcDbPoint
 10
5.609794997194115
 20
9.383547325369974
 30
0.0
  0
ENDBLK
  5
4890
330
4884
100
AcDbEntity
  8
0
100
AcDbBlockEnd
  0
BLOCK
  5
489D
330
4892
100
AcDbEntity
  8
0
100
AcDbBlockBegin
  2
*D24
 70
     1
 10
0.0
 20
0.0
 30
0.0
  3
*D24
  1

  0
LINE
  5
6267
330
4892
100
AcDbEntity
  8
DIM
 62
     0
370
    -2
100
AcDbLine
 10
4.22084836395538
 20
6.78754732536996
 30
0.0
 11
3.223562554358192
 21
6.78754732536996
 31
0.0
  0
LINE
  5
6268
330
4892
100
AcDbEntity
  8
DIM
 62
     0
370
    -2
100
AcDbLine
 10
4.220848363955393
 20
8.835547325369981
 30
0.0
 11
3.223562554358193
 21
8.835547325369983
 31
0.0
  0
LINE
  5
6269
330
4892
100
AcDbEntity
  8
DIM
 62
     0
370
    -2
100
AcDbLine
 10
3.409562554358193
 20
7.14754732536996
 30
0.0
 11
3.409562554358193
 21
7.506547325369972
 31
0.0
  0
LINE
  5
626A
330
4892
100
AcDbEntity
  8
DIM
 62
     0
370
    -2
100
AcDbLine
 10
3.409562554358193
 20
8.475547325369984
 30
0.0
 11
3.409562554358193
 21
8.116547325369973
 31
0.0
  0
SOLID
  5
626B
330
4892
100
AcDbEntity
  8
DIM
 62
     0
100
AcDbTrace
 10
3.349562554358193
 20
7.14754732536996
 30
0.0
 11
3.469562554358193
 21
7.14754732536996
 31
0.0
 12
3.409562554358192
 22
6.78754732536996
 32
0.0
 13
3.409562554358192
 23
6.78754732536996
 33
0.0
  0
SOLID
  5
626C
330
4892
100
AcDbEntity
  8
DIM
 62
     0
100
AcDbTrace
 10
3.349562554358193
 20
8.475547325369984
 30
0.0
 11
3.469562554358193
 21
8.475547325369984
 31
0.0
 12
3.409562554358193
 22
8.835547325369983
 32
0.0
 13
3.409562554358193
 23
8.835547325369983
 33
0.0
  0
MTEXT
  5
626D
330
4892
100
AcDbEntity
  8
DIM
 62
     0
100
AcDbMText
 10
3.409562554358191
 20
7.811547325369972
 30
0.0
 40
0.25
 41
0.0
 71
     5
 72
     1
  1
\A1;2.048
 73
     1
 44
1.0
  0
POINT
  5
626E
330
4892
100
AcDbEntity
  8
DEFPOINTS
 62
     0
100
AcDbPoint
 10
4.34684836395538
 20
6.78754732536996
 30
0.0
  0
POINT
  5
626F
330
4892
100
AcDbEntity
  8
DEFPOINTS
 62
     0
100
AcDbPoint
 10
4.346848363955394
 20
8.835547325369981
 30
0.0
  0
POINT
  5
6270
330
4892
100
AcDbEntity
  8
DEFPOINTS
 62
     0
100
AcDbPoint
 10
3.409562554358193
 20
8.835547325369983
 30
0.0
  0
ENDBLK
  5
489E
330
4892
100
AcDbEntity
  8
0
100
AcDbBlockEnd
  0
BLOCK
  5
48AB
330
48A0
100
AcDbEntity
  8
0
100
AcDbBlockBegin
  2
*D25
 70
     1
 10
0.0
 20
0.0
 30
0.0
  3
*D25
  1

  0
LINE
  5
6271
330
48A0
100
AcDbEntity
  8
DIM
 62
     0
370
    -2
100
AcDbLine
 10
4.253848363955375
 20
6.515547325369975
 30
0.0
 11
2.22869656983748
 21
6.515547325369975
 31
0.0
  0
LINE
  5
6272
330
48A0
100
AcDbEntity
  8
DIM
 62
     0
370
    -2
100
AcDbLine
 10
4.253848363955375
 20
9.107547325369971
 30
0.0
 11
2.228696569837481
 21
9.107547325369973
 31
0.0
  0
LINE
  5
6273
330
48A0
100
AcDbEntity
  8
DIM
 62
     0
370
    -2
100
AcDbLine
 10
2.41469656983748
 20
6.875547325369975
 30
0.0
 11
2.41469656983748
 21
7.506547325369974
 31
0.0
  0
LINE
  5
6274
330
48A0
100
AcDbEntity
  8
DIM
 62
     0
370
    -2
100
AcDbLine
 10
2.41469656983748
 20
8.747547325369973
 30
0.0
 11
2.41469656983748
 21
8.116547325369975
 31
0.0
  0
SOLID
  5
6275
330
48A0
100
AcDbEntity
  8
DIM
 62
     0
100
AcDbTrace
 10
2.35469656983748
 20
6.875547325369975
 30
0.0
 11
2.47469656983748
 21
6.875547325369975
 31
0.0
 12
2.41469656983748
 22
6.515547325369975
 32
0.0
 13
2.41469656983748
 23
6.515547325369975
 33
0.0
  0
SOLID
  5
6276
330
48A0
100
AcDbEntity
  8
DIM
 62
     0
100
AcDbTrace
 10
2.35469656983748
 20
8.747547325369973
 30
0.0
 11
2.47469656983748
 21
8.747547325369973
 31
0.0
 12
2.414696569837481
 22
9.107547325369973
 32
0.0
 13
2.414696569837481
 23
9.107547325369973
 33
0.0
  0
MTEXT
  5
6277
330
48A0
100
AcDbEntity
  8
DIM
 62
     0
100
AcDbMText
 10
2.414696569837479
 20
7.811547325369975
 30
0.0
 40
0.25
 41
0.0
 71
     5
 72
     1
  1
\A1;2.592
 73
     1
 44
1.0
  0
POINT
  5
6278
330
48A0
100
AcDbEntity
  8
DEFPOINTS
 62
     0
100
AcDbPoint
 10
4.379848363955376
 20
6.515547325369975
 30
0.0
  0
POINT
  5
6279
330
48A0
100
AcDbEntity
  8
DEFPOINTS
 62
     0
100
AcDbPoint
 10
4.379848363955376
 20
9.107547325369971
 30
0.0
  0
POINT
  5
627A
330
48A0
100
AcDbEntity
  8
DEFPOINTS
 62
     0
100
AcDbPoint
 10
2.414696569837481
 20
9.107547325369973
 30
0.0
  0
ENDBLK
  5
48AC
330
48A0
100
AcDbEntity
  8
0
100
AcDbBlockEnd
  0
BLOCK
  5
48D7
330
48CC
100
AcDbEntity
  8
0
100
AcDbBlockBegin
  2
*D26
 70
     1
 10
0.0
 20
0.0
 30
0.0
  3
*D26
  1

  0
LINE
  5
5EA7
330
48CC
100
AcDbEntity
  8
DIM
 62
     0
370
    -2
100
AcDbLine
 10
6.787920184087105
 20
5.959547325369966
 30
0.0
 11
6.601920184087105
 21
5.959547325369966
 31
0.0
  0
LINE
  5
5EA8
330
48CC
100
AcDbEntity
  8
DIM
 62
     0
370
    -2
100
AcDbLine
 10
6.787920184087105
 20
9.664547325369971
 30
0.0
 11
6.601920184087106
 21
9.664547325369971
 31
0.0
  0
LINE
  5
5EA9
330
48CC
100
AcDbEntity
  8
DIM
 62
     0
370
    -2
100
AcDbLine
 10
6.787920184087106
 20
6.319547325369966
 30
0.0
 11
6.787920184087106
 21
7.507047325369969
 31
0.0
  0
LINE
  5
5EAA
330
48CC
100
AcDbEntity
  8
DIM
 62
     0
370
    -2
100
AcDbLine
 10
6.787920184087106
 20
9.304547325369972
 30
0.0
 11
6.787920184087106
 21
8.117047325369968
 31
0.0
  0
SOLID
  5
5EAB
330
48CC
100
AcDbEntity
  8
DIM
 62
     0
100
AcDbTrace
 10
6.727920184087106
 20
6.319547325369966
 30
0.0
 11
6.847920184087105
 21
6.319547325369966
 31
0.0
 12
6.787920184087105
 22
5.959547325369966
 32
0.0
 13
6.787920184087105
 23
5.959547325369966
 33
0.0
  0
SOLID
  5
5EAC
330
48CC
100
AcDbEntity
  8
DIM
 62
     0
100
AcDbTrace
 10
6.727920184087106
 20
9.304547325369972
 30
0.0
 11
6.847920184087105
 21
9.304547325369972
 31
0.0
 12
6.787920184087106
 22
9.664547325369971
 32
0.0
 13
6.787920184087106
 23
9.664547325369971
 33
0.0
  0
MTEXT
  5
5EAD
330
48CC
100
AcDbEntity
  8
DIM
 62
     0
100
AcDbMText
 10
6.787920184087105
 20
7.81204732536997
 30
0.0
 40
0.25
 41
0.0
 71
     5
 72
     1
  1
\A1;3.705
 73
     1
 44
1.0
  0
POINT
  5
5EAE
330
48CC
100
AcDbEntity
  8
DEFPOINTS
 62
     0
100
AcDbPoint
 10
6.913920184087105
 20
5.959547325369966
 30
0.0
  0
POINT
  5
5EAF
330
48CC
100
AcDbEntity
  8
DEFPOINTS
 62
     0
100
AcDbPoint
 10
6.913920184087105
 20
9.664547325369971
 30
0.0
  0
POINT
  5
5EB0
330
48CC
100
AcDbEntity
  8
DEFPOINTS
 62
     0
100
AcDbPoint
 10
6.787920184087106
 20
9.664547325369971
 30
0.0
  0
ENDBLK
  5
48D8
330
48CC
100
AcDbEntity
  8
0
100
AcDbBlockEnd
  0
BLOCK
  5
4914
330
4909
100
AcDbEntity
  8
0
100
AcDbBlockBegin
  2
*D27
 70
     1
 10
0.0
 20
0.0
 30
0.0
  3
*D27
  1

  0
LINE
  5
5E4D
330
4909
100
AcDbEntity
  8
DIM
 62
     0
370
    -2
100
AcDbLine
 10
4.03634836395538
 20
1.796493446752741
 30
0.0
 11
3.457034150838645
 21
1.796493446752741
 31
0.0
  0
LINE
  5
5E4E
330
4909
100
AcDbEntity
  8
DIM
 62
     0
370
    -2
100
AcDbLine
 10
4.051848363955382
 20
3.44149344675274
 30
0.0
 11
3.457034150838645
 21
3.44149344675274
 31
0.0
  0
LINE
  5
5E4F
330
4909
100
AcDbEntity
  8
DIM
 62
     0
370
    -2
100
AcDbLine
 10
3.643034150838645
 20
2.156493446752741
 30
0.0
 11
3.643034150838645
 21
2.313993446752741
 31
0.0
  0
LINE
  5
5E50
330
4909
100
AcDbEntity
  8
DIM
 62
     0
370
    -2
100
AcDbLine
 10
3.643034150838645
 20
3.081493446752741
 30
0.0
 11
3.643034150838645
 21
2.923993446752741
 31
0.0
  0
SOLID
  5
5E51
330
4909
100
AcDbEntity
  8
DIM
 62
     0
100
AcDbTrace
 10
3.583034150838645
 20
2.156493446752741
 30
0.0
 11
3.703034150838645
 21
2.156493446752741
 31
0.0
 12
3.643034150838645
 22
1.796493446752741
 32
0.0
 13
3.643034150838645
 23
1.796493446752741
 33
0.0
  0
SOLID
  5
5E52
330
4909
100
AcDbEntity
  8
DIM
 62
     0
100
AcDbTrace
 10
3.583034150838645
 20
3.081493446752741
 30
0.0
 11
3.703034150838645
 21
3.081493446752741
 31
0.0
 12
3.643034150838645
 22
3.44149344675274
 32
0.0
 13
3.643034150838645
 23
3.44149344675274
 33
0.0
  0
MTEXT
  5
5E53
330
4909
100
AcDbEntity
  8
DIM
 62
     0
100
AcDbMText
 10
3.643034150838644
 20
2.618993446752742
 30
0.0
 40
0.25
 41
0.0
 71
     5
 72
     1
  1
\A1;A
 73
     1
 44
1.0
  0
POINT
  5
5E54
330
4909
100
AcDbEntity
  8
DEFPOINTS
 62
     0
100
AcDbPoint
 10
4.162348363955381
 20
1.796493446752741
 30
0.0
  0
POINT
  5
5E55
330
4909
100
AcDbEntity
  8
DEFPOINTS
 62
     0
100
AcDbPoint
 10
4.177848363955383
 20
3.44149344675274
 30
0.0
  0
POINT
  5
5E56
330
4909
100
AcDbEntity
  8
DEFPOINTS
 62
     0
100
AcDbPoint
 10
3.643034150838645
 20
3.44149344675274
 30
0.0
  0
ENDBLK
  5
4915
330
4909
100
AcDbEntity
  8
0
100
AcDbBlockEnd
  0
BLOCK
  5
49CE
330
49C3
100
AcDbEntity
  8
0
100
AcDbBlockBegin
  2
*D28
 70
     1
 10
0.0
 20
0.0
 30
0.0
  3
*D28
  1

  0
LINE
  5
5E9D
330
49C3
100
AcDbEntity
  8
DIM
 62
     0
370
    -2
100
AcDbLine
 10
7.727848363955394
 20
8.167047325369976
 30
0.0
 11
9.040802520500241
 21
8.167047325369976
 31
0.0
  0
LINE
  5
5E9E
330
49C3
100
AcDbEntity
  8
DIM
 62
     0
370
    -2
100
AcDbLine
 10
7.727848363955394
 20
7.457047325369977
 30
0.0
 11
9.040802520500241
 21
7.457047325369977
 31
0.0
  0
LINE
  5
5E9F
330
49C3
100
AcDbEntity
  8
DIM
 62
     0
370
    -2
100
AcDbLine
 10
8.854802520500241
 20
8.527047325369975
 30
0.0
 11
8.854802520500241
 21
8.887047325369977
 31
0.0
  0
LINE
  5
5EA0
330
49C3
100
AcDbEntity
  8
DIM
 62
     0
370
    -2
100
AcDbLine
 10
8.854802520500241
 20
7.097047325369977
 30
0.0
 11
8.854802520500241
 21
6.737047325369977
 31
0.0
  0
SOLID
  5
5EA1
330
49C3
100
AcDbEntity
  8
DIM
 62
     0
100
AcDbTrace
 10
8.79480252050024
 20
8.527047325369975
 30
0.0
 11
8.914802520500241
 21
8.527047325369975
 31
0.0
 12
8.854802520500241
 22
8.167047325369976
 32
0.0
 13
8.854802520500241
 23
8.167047325369976
 33
0.0
  0
SOLID
  5
5EA2
330
49C3
100
AcDbEntity
  8
DIM
 62
     0
100
AcDbTrace
 10
8.79480252050024
 20
7.097047325369977
 30
0.0
 11
8.914802520500241
 21
7.097047325369977
 31
0.0
 12
8.854802520500241
 22
7.457047325369977
 32
0.0
 13
8.854802520500241
 23
7.457047325369977
 33
0.0
  0
MTEXT
  5
5EA3
330
49C3
100
AcDbEntity
  8
DIM
 62
     0
100
AcDbMText
 10
8.854802520500239
 20
7.812047325369977
 30
0.0
 40
0.25
 41
0.0
 71
     5
 72
     1
  1
\A1;0.710
 73
     1
 44
1.0
  0
POINT
  5
5EA4
330
49C3
100
AcDbEntity
  8
DEFPOINTS
 62
     0
100
AcDbPoint
 10
7.601848363955394
 20
8.167047325369976
 30
0.0
  0
POINT
  5
5EA5
330
49C3
100
AcDbEntity
  8
DEFPOINTS
 62
     0
100
AcDbPoint
 10
7.601848363955394
 20
7.457047325369977
 30
0.0
  0
POINT
  5
5EA6
330
49C3
100
AcDbEntity
  8
DEFPOINTS
 62
     0
100
AcDbPoint
 10
8.854802520500241
 20
7.457047325369977
 30
0.0
  0
ENDBLK
  5
49CF
330
49C3
100
AcDbEntity
  8
0
100
AcDbBlockEnd
  0
BLOCK
  5
49DC
330
49D1
100
AcDbEntity
  8
0
100
AcDbBlockBegin
  2
*D29
 70
     1
 10
0.0
 20
0.0
 30
0.0
  3
*D29
  1

  0
LINE
  5
5E89
330
49D1
100
AcDbEntity
  8
DIM
 62
     0
370
    -2
100
AcDbLine
 10
7.727848363955394
 20
8.529547325369977
 30
0.0
 11
9.912486803560845
 21
8.529547325369977
 31
0.0
  0
LINE
  5
5E8A
330
49D1
100
AcDbEntity
  8
DIM
 62
     0
370
    -2
100
AcDbLine
 10
7.727848363955394
 20
7.09454732536998
 30
0.0
 11
9.912486803560845
 21
7.09454732536998
 31
0.0
  0
LINE
  5
5E8B
330
49D1
100
AcDbEntity
  8
DIM
 62
     0
370
    -2
100
AcDbLine
 10
9.726486803560845
 20
8.169547325369977
 30
0.0
 11
9.726486803560845
 21
8.117047325369981
 31
0.0
  0
LINE
  5
5E8C
330
49D1
100
AcDbEntity
  8
DIM
 62
     0
370
    -2
100
AcDbLine
 10
9.726486803560845
 20
7.45454732536998
 30
0.0
 11
9.726486803560845
 21
7.50704732536998
 31
0.0
  0
SOLID
  5
5E8D
330
49D1
100
AcDbEntity
  8
DIM
 62
     0
100
AcDbTrace
 10
9.666486803560845
 20
8.169547325369977
 30
0.0
 11
9.786486803560846
 21
8.169547325369977
 31
0.0
 12
9.726486803560845
 22
8.529547325369977
 32
0.0
 13
9.726486803560845
 23
8.529547325369977
 33
0.0
  0
SOLID
  5
5E8E
330
49D1
100
AcDbEntity
  8
DIM
 62
     0
100
AcDbTrace
 10
9.666486803560845
 20
7.45454732536998
 30
0.0
 11
9.786486803560846
 21
7.45454732536998
 31
0.0
 12
9.726486803560845
 22
7.09454732536998
 32
0.0
 13
9.726486803560845
 23
7.09454732536998
 33
0.0
  0
MTEXT
  5
5E8F
330
49D1
100
AcDbEntity
  8
DIM
 62
     0
100
AcDbMText
 10
9.726486803560844
 20
7.812047325369981
 30
0.0
 40
0.25
 41
0.0
 71
     5
 72
     1
  1
\A1;1.435
 73
     1
 44
1.0
  0
POINT
  5
5E90
330
49D1
100
AcDbEntity
  8
DEFPOINTS
 62
     0
100
AcDbPoint
 10
7.601848363955394
 20
8.529547325369977
 30
0.0
  0
POINT
  5
5E91
330
49D1
100
AcDbEntity
  8
DEFPOINTS
 62
     0
100
AcDbPoint
 10
7.601848363955394
 20
7.09454732536998
 30
0.0
  0
POINT
  5
5E92
330
49D1
100
AcDbEntity
  8
DEFPOINTS
 62
     0
100
AcDbPoint
 10
9.726486803560845
 20
7.09454732536998
 30
0.0
  0
ENDBLK
  5
49DD
330
49D1
100
AcDbEntity
  8
0
100
AcDbBlockEnd
  0
BLOCK
  5
49EA
330
49DF
100
AcDbEntity
  8
0
100
AcDbBlockBegin
  2
*D30
 70
     1
 10
0.0
 20
0.0
 30
0.0
  3
*D30
  1

  0
LINE
  5
5E57
330
49DF
100
AcDbEntity
  8
DIM
 62
     0
370
    -2
100
AcDbLine
 10
8.140848363955383
 20
3.382493446752745
 30
0.0
 11
8.702619620331056
 21
3.382493446752745
 31
0.0
  0
LINE
  5
5E58
330
49DF
100
AcDbEntity
  8
DIM
 62
     0
370
    -2
100
AcDbLine
 10
8.098348363955393
 20
1.796493446752741
 30
0.0
 11
8.702619620331056
 21
1.796493446752741
 31
0.0
  0
LINE
  5
5E59
330
49DF
100
AcDbEntity
  8
DIM
 62
     0
370
    -2
100
AcDbLine
 10
8.516619620331056
 20
3.022493446752745
 30
0.0
 11
8.516619620331056
 21
2.894493446752743
 31
0.0
  0
LINE
  5
5E5A
330
49DF
100
AcDbEntity
  8
DIM
 62
     0
370
    -2
100
AcDbLine
 10
8.516619620331056
 20
2.156493446752741
 30
0.0
 11
8.516619620331056
 21
2.284493446752742
 31
0.0
  0
SOLID
  5
5E5B
330
49DF
100
AcDbEntity
  8
DIM
 62
     0
100
AcDbTrace
 10
8.456619620331055
 20
3.022493446752745
 30
0.0
 11
8.576619620331056
 21
3.022493446752745
 31
0.0
 12
8.516619620331056
 22
3.382493446752745
 32
0.0
 13
8.516619620331056
 23
3.382493446752745
 33
0.0
  0
SOLID
  5
5E5C
330
49DF
100
AcDbEntity
  8
DIM
 62
     0
100
AcDbTrace
 10
8.456619620331055
 20
2.156493446752741
 30
0.0
 11
8.576619620331056
 21
2.156493446752741
 31
0.0
 12
8.516619620331056
 22
1.796493446752741
 32
0.0
 13
8.516619620331056
 23
1.796493446752741
 33
0.0
  0
MTEXT
  5
5E5D
330
49DF
100
AcDbEntity
  8
DIM
 62
     0
100
AcDbMText
 10
8.516619620331056
 20
2.589493446752744
 30
0.0
 40
0.25
 41
0.0
 71
     5
 72
     1
  1
\A1;B
 73
     1
 44
1.0
  0
POINT
  5
5E5E
330
49DF
100
AcDbEntity
  8
DEFPOINTS
 62
     0
100
AcDbPoint
 10
8.014848363955383
 20
3.382493446752745
 30
0.0
  0
POINT
  5
5E5F
330
49DF
100
AcDbEntity
  8
DEFPOINTS
 62
     0
100
AcDbPoint
 10
7.972348363955394
 20
1.796493446752741
 30
0.0
  0
POINT
  5
5E60
330
49DF
100
AcDbEntity
  8
DEFPOINTS
 62
     0
100
AcDbPoint
 10
8.516619620331056
 20
1.796493446752741
 30
0.0
  0
ENDBLK
  5
49EB
330
49DF
100
AcDbEntity
  8
0
100
AcDbBlockEnd
  0
BLOCK
  5
49F8
330
49ED
100
AcDbEntity
  8
0
100
AcDbBlockBegin
  2
*D31
 70
     1
 10
0.0
 20
0.0
 30
0.0
  3
*D31
  1

  0
LINE
  5
5E06
330
49ED
100
AcDbEntity
  8
DIM
 62
     0
370
    -2
100
AcDbLine
 10
4.337848363955376
 20
9.667547325369964
 30
0.0
 11
4.337848363955376
 21
12.92948190822166
 31
0.0
  0
LINE
  5
5E07
330
49ED
100
AcDbEntity
  8
DIM
 62
     0
370
    -2
100
AcDbLine
 10
4.099848363955381
 20
9.655547325369974
 30
0.0
 11
4.099848363955381
 21
12.92948190822166
 31
0.0
  0
LINE
  5
5E08
330
49ED
100
AcDbEntity
  8
DIM
 62
     0
370
    -2
100
AcDbLine
 10
4.697848363955376
 20
12.74348190822166
 30
0.0
 11
5.057848363955375
 21
12.74348190822166
 31
0.0
  0
LINE
  5
5E09
330
49ED
100
AcDbEntity
  8
DIM
 62
     0
370
    -2
100
AcDbLine
 10
3.739848363955381
 20
12.74348190822166
 30
0.0
 11
3.379848363955381
 21
12.74348190822166
 31
0.0
  0
SOLID
  5
5E0A
330
49ED
100
AcDbEntity
  8
DIM
 62
     0
100
AcDbTrace
 10
4.697848363955376
 20
12.80348190822166
 30
0.0
 11
4.697848363955376
 21
12.68348190822166
 31
0.0
 12
4.337848363955376
 22
12.74348190822166
 32
0.0
 13
4.337848363955376
 23
12.74348190822166
 33
0.0
  0
SOLID
  5
5E0B
330
49ED
100
AcDbEntity
  8
DIM
 62
     0
100
AcDbTrace
 10
3.739848363955381
 20
12.80348190822166
 30
0.0
 11
3.739848363955381
 21
12.68348190822166
 31
0.0
 12
4.099848363955381
 22
12.74348190822166
 32
0.0
 13
4.099848363955381
 23
12.74348190822166
 33
0.0
  0
MTEXT
  5
5E0C
330
49ED
100
AcDbEntity
  8
DIM
 62
     0
100
AcDbMText
 10
2.840473363955381
 20
12.74348190822166
 30
0.0
 40
0.25
 41
0.0
 71
     5
 72
     1
  1
\A1;0.238
 73
     1
 44
1.0
  0
POINT
  5
5E0D
330
49ED
100
AcDbEntity
  8
DEFPOINTS
 62
     0
100
AcDbPoint
 10
4.337848363955376
 20
9.541547325369965
 30
0.0
  0
POINT
  5
5E0E
330
49ED
100
AcDbEntity
  8
DEFPOINTS
 62
     0
100
AcDbPoint
 10
4.099848363955381
 20
9.529547325369975
 30
0.0
  0
POINT
  5
5E0F
330
49ED
100
AcDbEntity
  8
DEFPOINTS
 62
     0
100
AcDbPoint
 10
4.099848363955381
 20
12.74348190822166
 30
0.0
  0
ENDBLK
  5
49F9
330
49ED
100
AcDbEntity
  8
0
100
AcDbBlockEnd
  0
BLOCK
  5
4A06
330
49FB
100
AcDbEntity
  8
0
100
AcDbBlockBegin
  2
*D32
 70
     1
 10
0.0
 20
0.0
 30
0.0
  3
*D32
  1

  0
LINE
  5
5DFC
330
49FB
100
AcDbEntity
  8
DIM
 62
     0
370
    -2
100
AcDbLine
 10
4.337848363955361
 20
9.667547325369964
 30
0.0
 11
4.337848363955361
 21
12.92948190822166
 31
0.0
  0
LINE
  5
5DFD
330
49FB
100
AcDbEntity
  8
DIM
 62
     0
370
    -2
100
AcDbLine
 10
7.797848363955397
 20
9.667547325369964
 30
0.0
 11
7.797848363955397
 21
12.92948190822166
 31
0.0
  0
LINE
  5
5DFE
330
49FB
100
AcDbEntity
  8
DIM
 62
     0
370
    -2
100
AcDbLine
 10
4.697848363955362
 20
12.74348190822166
 30
0.0
 11
5.528473363955379
 21
12.74348190822166
 31
0.0
  0
LINE
  5
5DFF
330
49FB
100
AcDbEntity
  8
DIM
 62
     0
370
    -2
100
AcDbLine
 10
7.437848363955397
 20
12.74348190822166
 30
0.0
 11
6.607223363955379
 21
12.74348190822166
 31
0.0
  0
SOLID
  5
5E00
330
49FB
100
AcDbEntity
  8
DIM
 62
     0
100
AcDbTrace
 10
4.697848363955362
 20
12.80348190822166
 30
0.0
 11
4.697848363955362
 21
12.68348190822166
 31
0.0
 12
4.337848363955361
 22
12.74348190822166
 32
0.0
 13
4.337848363955361
 23
12.74348190822166
 33
0.0
  0
SOLID
  5
5E01
330
49FB
100
AcDbEntity
  8
DIM
 62
     0
100
AcDbTrace
 10
7.437848363955397
 20
12.80348190822166
 30
0.0
 11
7.437848363955397
 21
12.68348190822166
 31
0.0
 12
7.797848363955397
 22
12.74348190822166
 32
0.0
 13
7.797848363955397
 23
12.74348190822166
 33
0.0
  0
MTEXT
  5
5E02
330
49FB
100
AcDbEntity
  8
DIM
 62
     0
100
AcDbMText
 10
6.067848363955379
 20
12.74348190822166
 30
0.0
 40
0.25
 41
0.0
 71
     5
 72
     1
  1
\A1;3.460
 73
     1
 44
1.0
  0
POINT
  5
5E03
330
49FB
100
AcDbEntity
  8
DEFPOINTS
 62
     0
100
AcDbPoint
 10
4.337848363955361
 20
9.541547325369965
 30
0.0
  0
POINT
  5
5E04
330
49FB
100
AcDbEntity
  8
DEFPOINTS
 62
     0
100
AcDbPoint
 10
7.797848363955397
 20
9.541547325369965
 30
0.0
  0
POINT
  5
5E05
330
49FB
100
AcDbEntity
  8
DEFPOINTS
 62
     0
100
AcDbPoint
 10
7.797848363955397
 20
12.74348190822166
 30
0.0
  0
ENDBLK
  5
4A07
330
49FB
100
AcDbEntity
  8
0
100
AcDbBlockEnd
  0
BLOCK
  5
4A14
330
4A09
100
AcDbEntity
  8
0
100
AcDbBlockBegin
  2
*D33
 70
     1
 10
0.0
 20
0.0
 30
0.0
  3
*D33
  1

  0
LINE
  5
62CF
330
4A09
100
AcDbEntity
  8
DIM
 62
     0
370
    -2
100
AcDbLine
 10
7.923848363955397
 20
9.541547325369965
 30
0.0
 11
11.37408642286384
 21
9.541547325369965
 31
0.0
  0
LINE
  5
62D0
330
4A09
100
AcDbEntity
  8
DIM
 62
     0
370
    -2
100
AcDbLine
 10
7.910848363955394
 20
9.779547325369975
 30
0.0
 11
11.37408642286384
 21
9.779547325369975
 31
0.0
  0
LINE
  5
62D1
330
4A09
100
AcDbEntity
  8
DIM
 62
     0
370
    -2
100
AcDbLine
 10
11.18808642286384
 20
9.181547325369965
 30
0.0
 11
11.18808642286384
 21
8.821547325369964
 31
0.0
  0
LINE
  5
62D2
330
4A09
100
AcDbEntity
  8
DIM
 62
     0
370
    -2
100
AcDbLine
 10
11.18808642286384
 20
10.13954732536997
 30
0.0
 11
11.18808642286384
 21
10.49954732536997
 31
0.0
  0
LINE
  5
62D3
330
4A09
100
AcDbEntity
  8
DIM
 62
     0
370
    -2
100
AcDbLine
 10
11.18808642286384
 20
10.49954732536997
 30
0.0
 11
11.54808642286384
 21
10.49954732536997
 31
0.0
  0
SOLID
  5
62D4
330
4A09
100
AcDbEntity
  8
DIM
 62
     0
100
AcDbTrace
 10
11.12808642286384
 20
9.181547325369965
 30
0.0
 11
11.24808642286384
 21
9.181547325369965
 31
0.0
 12
11.18808642286384
 22
9.541547325369965
 32
0.0
 13
11.18808642286384
 23
9.541547325369965
 33
0.0
  0
SOLID
  5
62D5
330
4A09
100
AcDbEntity
  8
DIM
 62
     0
100
AcDbTrace
 10
11.12808642286384
 20
10.13954732536997
 30
0.0
 11
11.24808642286384
 21
10.13954732536997
 31
0.0
 12
11.18808642286384
 22
9.779547325369975
 32
0.0
 13
11.18808642286384
 23
9.779547325369975
 33
0.0
  0
MTEXT
  5
62D6
330
4A09
100
AcDbEntity
  8
DIM
 62
     0
100
AcDbMText
 10
12.08746142286384
 20
10.49954732536997
 30
0.0
 40
0.25
 41
0.0
 71
     5
 72
     1
  1
\A1;0.238
 73
     1
 44
1.0
  0
POINT
  5
62D7
330
4A09
100
AcDbEntity
  8
DEFPOINTS
 62
     0
100
AcDbPoint
 10
7.797848363955397
 20
9.541547325369965
 30
0.0
  0
POINT
  5
62D8
330
4A09
100
AcDbEntity
  8
DEFPOINTS
 62
     0
100
AcDbPoint
 10
7.784848363955394
 20
9.779547325369975
 30
0.0
  0
POINT
  5
62D9
330
4A09
100
AcDbEntity
  8
DEFPOINTS
 62
     0
100
AcDbPoint
 10
11.18808642286384
 20
9.779547325369975
 30
0.0
  0
ENDBLK
  5
4A15
330
4A09
100
AcDbEntity
  8
0
100
AcDbBlockEnd
  0
BLOCK
  5
4A22
330
4A17
100
AcDbEntity
  8
0
100
AcDbBlockBegin
  2
*D34
 70
     1
 10
0.0
 20
0.0
 30
0.0
  3
*D34
  1

  0
LINE
  5
62C5
330
4A17
100
AcDbEntity
  8
DIM
 62
     0
370
    -2
100
AcDbLine
 10
7.923848363955397
 20
9.541547325369965
 30
0.0
 11
11.37408642286384
 21
9.541547325369965
 31
0.0
  0
LINE
  5
62C6
330
4A17
100
AcDbEntity
  8
DIM
 62
     0
370
    -2
100
AcDbLine
 10
7.923848363955397
 20
6.081547325369982
 30
0.0
 11
11.37408642286384
 21
6.081547325369981
 31
0.0
  0
LINE
  5
62C7
330
4A17
100
AcDbEntity
  8
DIM
 62
     0
370
    -2
100
AcDbLine
 10
11.18808642286384
 20
9.181547325369965
 30
0.0
 11
11.18808642286384
 21
8.116547325369973
 31
0.0
  0
LINE
  5
62C8
330
4A17
100
AcDbEntity
  8
DIM
 62
     0
370
    -2
100
AcDbLine
 10
11.18808642286384
 20
6.441547325369981
 30
0.0
 11
11.18808642286384
 21
7.506547325369973
 31
0.0
  0
SOLID
  5
62C9
330
4A17
100
AcDbEntity
  8
DIM
 62
     0
100
AcDbTrace
 10
11.12808642286384
 20
9.181547325369965
 30
0.0
 11
11.24808642286384
 21
9.181547325369965
 31
0.0
 12
11.18808642286384
 22
9.541547325369965
 32
0.0
 13
11.18808642286384
 23
9.541547325369965
 33
0.0
  0
SOLID
  5
62CA
330
4A17
100
AcDbEntity
  8
DIM
 62
     0
100
AcDbTrace
 10
11.12808642286384
 20
6.441547325369981
 30
0.0
 11
11.24808642286384
 21
6.441547325369981
 31
0.0
 12
11.18808642286384
 22
6.081547325369981
 32
0.0
 13
11.18808642286384
 23
6.081547325369981
 33
0.0
  0
MTEXT
  5
62CB
330
4A17
100
AcDbEntity
  8
DIM
 62
     0
100
AcDbMText
 10
11.18808642286384
 20
7.811547325369974
 30
0.0
 40
0.25
 41
0.0
 71
     5
 72
     1
  1
\A1;3.460
 73
     1
 44
1.0
  0
POINT
  5
62CC
330
4A17
100
AcDbEntity
  8
DEFPOINTS
 62
     0
100
AcDbPoint
 10
7.797848363955397
 20
9.541547325369965
 30
0.0
  0
POINT
  5
62CD
330
4A17
100
AcDbEntity
  8
DEFPOINTS
 62
     0
100
AcDbPoint
 10
7.797848363955397
 20
6.081547325369982
 30
0.0
  0
POINT
  5
62CE
330
4A17
100
AcDbEntity
  8
DEFPOINTS
 62
     0
100
AcDbPoint
 10
11.18808642286384
 20
6.081547325369981
 30
0.0
  0
ENDBLK
  5
4A23
330
4A17
100
AcDbEntity
  8
0
100
AcDbBlockEnd
  0
BLOCK
  5
4A30
330
4A25
100
AcDbEntity
  8
0
100
AcDbBlockBegin
  2
*D35
 70
     1
 10
0.0
 20
0.0
 30
0.0
  3
*D35
  1

  0
LINE
  5
6292
330
4A25
100
AcDbEntity
  8
DIM
 62
     0
370
    -2
100
AcDbLine
 10
14.10023747020356
 20
7.780047901183966
 30
0.0
 11
14.10023747020356
 21
7.672547218821697
 31
0.0
  0
LINE
  5
6293
330
4A25
100
AcDbEntity
  8
DIM
 62
     0
370
    -2
100
AcDbLine
 10
14.22723747020355
 20
7.780047901183966
 30
0.0
 11
14.22723747020355
 21
7.672547218821697
 31
0.0
  0
LINE
  5
6294
330
4A25
100
AcDbEntity
  8
DIM
 62
     0
370
    -2
100
AcDbLine
 10
13.74023747020356
 20
7.858547218821697
 30
0.0
 11
13.38023747020356
 21
7.858547218821697
 31
0.0
  0
LINE
  5
6295
330
4A25
100
AcDbEntity
  8
DIM
 62
     0
370
    -2
100
AcDbLine
 10
14.58723747020355
 20
7.858547218821697
 30
0.0
 11
14.94723747020355
 21
7.858547218821697
 31
0.0
  0
SOLID
  5
6296
330
4A25
100
AcDbEntity
  8
DIM
 62
     0
100
AcDbTrace
 10
13.74023747020356
 20
7.918547218821696
 30
0.0
 11
13.74023747020356
 21
7.798547218821697
 31
0.0
 12
14.10023747020356
 22
7.858547218821697
 32
0.0
 13
14.10023747020356
 23
7.858547218821697
 33
0.0
  0
SOLID
  5
6297
330
4A25
100
AcDbEntity
  8
DIM
 62
     0
100
AcDbTrace
 10
14.58723747020355
 20
7.918547218821696
 30
0.0
 11
14.58723747020355
 21
7.798547218821697
 31
0.0
 12
14.22723747020355
 22
7.858547218821697
 32
0.0
 13
14.22723747020355
 23
7.858547218821697
 33
0.0
  0
MTEXT
  5
6298
330
4A25
100
AcDbEntity
  8
DIM
 62
     0
100
AcDbMText
 10
15.45536247020355
 20
7.858547218821697
 30
0.0
 40
0.25
 41
0.0
 71
     5
 72
     1
  1
\A1;0.127
 73
     1
 44
1.0
  0
POINT
  5
6299
330
4A25
100
AcDbEntity
  8
DEFPOINTS
 62
     0
100
AcDbPoint
 10
14.10023747020356
 20
7.906047901183966
 30
0.0
  0
POINT
  5
629A
330
4A25
100
AcDbEntity
  8
DEFPOINTS
 62
     0
100
AcDbPoint
 10
14.22723747020355
 20
7.906047901183966
 30
0.0
  0
POINT
  5
629B
330
4A25
100
AcDbEntity
  8
DEFPOINTS
 62
     0
100
AcDbPoint
 10
14.22723747020355
 20
7.858547218821697
 30
0.0
  0
ENDBLK
  5
4A31
330
4A25
100
AcDbEntity
  8
0
100
AcDbBlockEnd
  0
BLOCK
  5
4B8B
330
4B80
100
AcDbEntity
  8
0
100
AcDbBlockBegin
  2
*D36
 70
     1
 10
0.0
 20
0.0
 30
0.0
  3
*D36
  1

  0
LINE
  5
5B28
330
4B80
100
AcDbEntity
  8
DIM
 62
     0
370
    -2
100
AcDbLine
 10
28.33905477662897
 20
14.04253586120389
 30
0.0
 11
27.42961192214076
 21
14.04253586120389
 31
0.0
  0
LINE
  5
5B29
330
4B80
100
AcDbEntity
  8
DIM
 62
     0
370
    -2
100
AcDbLine
 10
28.33905477662897
 20
13.35323401622308
 30
0.0
 11
27.42961192214076
 21
13.35323401622309
 31
0.0
  0
LINE
  5
5B2A
330
4B80
100
AcDbEntity
  8
DIM
 62
     0
370
    -2
100
AcDbLine
 10
27.61561192214077
 20
14.40253586120389
 30
0.0
 11
27.61561192214077
 21
14.76253586120389
 31
0.0
  0
LINE
  5
5B2B
330
4B80
100
AcDbEntity
  8
DIM
 62
     0
370
    -2
100
AcDbLine
 10
27.61561192214077
 20
12.99323401622308
 30
0.0
 11
27.61561192214077
 21
12.63323401622308
 31
0.0
  0
SOLID
  5
5B2C
330
4B80
100
AcDbEntity
  8
DIM
 62
     0
100
AcDbTrace
 10
27.55561192214077
 20
14.40253586120389
 30
0.0
 11
27.67561192214076
 21
14.40253586120389
 31
0.0
 12
27.61561192214077
 22
14.04253586120389
 32
0.0
 13
27.61561192214077
 23
14.04253586120389
 33
0.0
  0
SOLID
  5
5B2D
330
4B80
100
AcDbEntity
  8
DIM
 62
     0
100
AcDbTrace
 10
27.55561192214077
 20
12.99323401622308
 30
0.0
 11
27.67561192214076
 21
12.99323401622308
 31
0.0
 12
27.61561192214077
 22
13.35323401622309
 32
0.0
 13
27.61561192214077
 23
13.35323401622309
 33
0.0
  0
MTEXT
  5
5B2E
330
4B80
100
AcDbEntity
  8
DIM
 62
     0
100
AcDbMText
 10
27.61561192214076
 20
13.69788493871349
 30
0.0
 40
0.25
 41
0.0
 71
     5
 72
     1
  1
\A1;0.172 DIA. 
 73
     1
 44
1.0
  0
POINT
  5
5B2F
330
4B80
100
AcDbEntity
  8
DEFPOINTS
 62
     0
100
AcDbPoint
 10
28.46505477662897
 20
14.04253586120389
 30
0.0
  0
POINT
  5
5B30
330
4B80
100
AcDbEntity
  8
DEFPOINTS
 62
     0
100
AcDbPoint
 10
28.46505477662897
 20
13.35323401622308
 30
0.0
  0
POINT
  5
5B31
330
4B80
100
AcDbEntity
  8
DEFPOINTS
 62
     0
100
AcDbPoint
 10
27.61561192214077
 20
13.35323401622309
 30
0.0
  0
ENDBLK
  5
4B8C
330
4B80
100
AcDbEntity
  8
0
100
AcDbBlockEnd
  0
BLOCK
  5
4B9A
330
4B8F
100
AcDbEntity
  8
0
100
AcDbBlockBegin
  2
*D37
 70
     1
 10
0.0
 20
0.0
 30
0.0
  3
*D37
  1

  0
LINE
  5
6248
330
4B8F
100
AcDbEntity
  8
DIM
 62
     0
370
    -2
100
AcDbLine
 10
28.46505477662897
 20
17.42716188198566
 30
0.0
 11
28.46505477662897
 21
17.98516188198566
 31
0.0
  0
LINE
  5
6249
330
4B8F
100
AcDbEntity
  8
DIM
 62
     0
370
    -2
100
AcDbLine
 10
28.92505477662897
 20
16.73006859295
 30
0.0
 11
28.92505477662897
 21
17.98516188198566
 31
0.0
  0
LINE
  5
624A
330
4B8F
100
AcDbEntity
  8
DIM
 62
     0
370
    -2
100
AcDbLine
 10
28.10505477662897
 20
17.79916188198566
 30
0.0
 11
27.74505477662897
 21
17.79916188198566
 31
0.0
  0
LINE
  5
624B
330
4B8F
100
AcDbEntity
  8
DIM
 62
     0
370
    -2
100
AcDbLine
 10
29.28505477662897
 20
17.79916188198566
 30
0.0
 11
29.64505477662896
 21
17.79916188198566
 31
0.0
  0
SOLID
  5
624C
330
4B8F
100
AcDbEntity
  8
DIM
 62
     0
100
AcDbTrace
 10
28.10505477662897
 20
17.85916188198566
 30
0.0
 11
28.10505477662897
 21
17.73916188198566
 31
0.0
 12
28.46505477662897
 22
17.79916188198566
 32
0.0
 13
28.46505477662897
 23
17.79916188198566
 33
0.0
  0
SOLID
  5
624D
330
4B8F
100
AcDbEntity
  8
DIM
 62
     0
100
AcDbTrace
 10
29.28505477662897
 20
17.85916188198566
 30
0.0
 11
29.28505477662897
 21
17.73916188198566
 31
0.0
 12
28.92505477662897
 22
17.79916188198566
 32
0.0
 13
28.92505477662897
 23
17.79916188198566
 33
0.0
  0
MTEXT
  5
624E
330
4B8F
100
AcDbEntity
  8
DIM
 62
     0
100
AcDbMText
 10
30.12192977662897
 20
17.79916188198566
 30
0.0
 40
0.25
 41
0.0
 71
     5
 72
     1
  1
\A1;0.115
 73
     1
 44
1.0
  0
POINT
  5
624F
330
4B8F
100
AcDbEntity
  8
DEFPOINTS
 62
     0
100
AcDbPoint
 10
28.46505477662897
 20
17.30116188198566
 30
0.0
  0
POINT
  5
6250
330
4B8F
100
AcDbEntity
  8
DEFPOINTS
 62
     0
100
AcDbPoint
 10
28.92505477662897
 20
16.60406859295
 30
0.0
  0
POINT
  5
6251
330
4B8F
100
AcDbEntity
  8
DEFPOINTS
 62
     0
100
AcDbPoint
 10
28.92505477662897
 20
17.79916188198566
 30
0.0
  0
ENDBLK
  5
4B9B
330
4B8F
100
AcDbEntity
  8
0
100
AcDbBlockEnd
  0
BLOCK
  5
4BB0
330
4BA5
100
AcDbEntity
  8
0
100
AcDbBlockBegin
  2
*D38
 70
     1
 10
0.0
 20
0.0
 30
0.0
  3
*D38
  1

  0
LINE
  5
5B0A
330
4BA5
100
AcDbEntity
  8
DIM
 62
     0
370
    -2
100
AcDbLine
 10
21.77395336681957
 20
13.93585387179798
 30
0.0
 11
23.30375535638431
 21
13.93585387179798
 31
0.0
  0
LINE
  5
5B0B
330
4BA5
100
AcDbEntity
  8
DIM
 62
     0
370
    -2
100
AcDbLine
 10
21.77395336681957
 20
17.27285387179798
 30
0.0
 11
23.30375535638431
 21
17.27285387179798
 31
0.0
  0
LINE
  5
5B0C
330
4BA5
100
AcDbEntity
  8
DIM
 62
     0
370
    -2
100
AcDbLine
 10
23.11775535638431
 20
14.29585387179798
 30
0.0
 11
23.11775535638431
 21
15.29935387179798
 31
0.0
  0
LINE
  5
5B0D
330
4BA5
100
AcDbEntity
  8
DIM
 62
     0
370
    -2
100
AcDbLine
 10
23.11775535638431
 20
16.91285387179798
 30
0.0
 11
23.11775535638431
 21
15.90935387179798
 31
0.0
  0
SOLID
  5
5B0E
330
4BA5
100
AcDbEntity
  8
DIM
 62
     0
100
AcDbTrace
 10
23.05775535638431
 20
14.29585387179798
 30
0.0
 11
23.17775535638431
 21
14.29585387179798
 31
0.0
 12
23.11775535638431
 22
13.93585387179798
 32
0.0
 13
23.11775535638431
 23
13.93585387179798
 33
0.0
  0
SOLID
  5
5B0F
330
4BA5
100
AcDbEntity
  8
DIM
 62
     0
100
AcDbTrace
 10
23.05775535638431
 20
16.91285387179798
 30
0.0
 11
23.17775535638431
 21
16.91285387179798
 31
0.0
 12
23.11775535638431
 22
17.27285387179798
 32
0.0
 13
23.11775535638431
 23
17.27285387179798
 33
0.0
  0
MTEXT
  5
5B10
330
4BA5
100
AcDbEntity
  8
DIM
 62
     0
100
AcDbMText
 10
23.1177553563843
 20
15.60435387179798
 30
0.0
 40
0.25
 41
0.0
 71
     5
 72
     1
  1
\A1;3.337
 73
     1
 44
1.0
  0
POINT
  5
5B11
330
4BA5
100
AcDbEntity
  8
DEFPOINTS
 62
     0
100
AcDbPoint
 10
21.64795336681957
 20
13.93585387179798
 30
0.0
  0
POINT
  5
5B12
330
4BA5
100
AcDbEntity
  8
DEFPOINTS
 62
     0
100
AcDbPoint
 10
21.64795336681956
 20
17.27285387179798
 30
0.0
  0
POINT
  5
5B13
330
4BA5
100
AcDbEntity
  8
DEFPOINTS
 62
     0
100
AcDbPoint
 10
23.11775535638431
 20
17.27285387179798
 30
0.0
  0
ENDBLK
  5
4BB1
330
4BA5
100
AcDbEntity
  8
0
100
AcDbBlockEnd
  0
BLOCK
  5
4BCC
330
4BC1
100
AcDbEntity
  8
0
100
AcDbBlockBegin
  2
*D39
 70
     1
 10
0.0
 20
0.0
 30
0.0
  3
*D39
  1

  0
LINE
  5
6252
330
4BC1
100
AcDbEntity
  8
DIM
 62
     0
370
    -2
100
AcDbLine
 10
28.33905477662895
 20
16.60406859295
 30
0.0
 11
27.32839388833635
 21
16.60406859295
 31
0.0
  0
LINE
  5
6253
330
4BC1
100
AcDbEntity
  8
DIM
 62
     0
370
    -2
100
AcDbLine
 10
28.33905477662897
 20
16.28406859295001
 30
0.0
 11
27.32839388833635
 21
16.28406859295001
 31
0.0
  0
LINE
  5
6254
330
4BC1
100
AcDbEntity
  8
DIM
 62
     0
370
    -2
100
AcDbLine
 10
27.51439388833635
 20
16.96406859295
 30
0.0
 11
27.51439388833635
 21
17.32406859295
 31
0.0
  0
LINE
  5
6255
330
4BC1
100
AcDbEntity
  8
DIM
 62
     0
370
    -2
100
AcDbLine
 10
27.51439388833635
 20
15.92406859295001
 30
0.0
 11
27.51439388833635
 21
15.56406859295002
 31
0.0
  0
LINE
  5
6256
330
4BC1
100
AcDbEntity
  8
DIM
 62
     0
370
    -2
100
AcDbLine
 10
27.51439388833635
 20
15.56406859295002
 30
0.0
 11
27.15439388833635
 21
15.56406859295002
 31
0.0
  0
SOLID
  5
6257
330
4BC1
100
AcDbEntity
  8
DIM
 62
     0
100
AcDbTrace
 10
27.45439388833635
 20
16.96406859295
 30
0.0
 11
27.57439388833635
 21
16.96406859295
 31
0.0
 12
27.51439388833635
 22
16.60406859295
 32
0.0
 13
27.51439388833635
 23
16.60406859295
 33
0.0
  0
SOLID
  5
6258
330
4BC1
100
AcDbEntity
  8
DIM
 62
     0
100
AcDbTrace
 10
27.45439388833635
 20
15.92406859295001
 30
0.0
 11
27.57439388833635
 21
15.92406859295001
 31
0.0
 12
27.51439388833635
 22
16.28406859295001
 32
0.0
 13
27.51439388833635
 23
16.28406859295001
 33
0.0
  0
MTEXT
  5
6259
330
4BC1
100
AcDbEntity
  8
DIM
 62
     0
100
AcDbMText
 10
26.64626888833635
 20
15.56406859295002
 30
0.0
 40
0.25
 41
0.0
 71
     5
 72
     1
  1
\A1;0.080
 73
     1
 44
1.0
  0
POINT
  5
625A
330
4BC1
100
AcDbEntity
  8
DEFPOINTS
 62
     0
100
AcDbPoint
 10
28.46505477662896
 20
16.60406859295
 30
0.0
  0
POINT
  5
625B
330
4BC1
100
AcDbEntity
  8
DEFPOINTS
 62
     0
100
AcDbPoint
 10
28.46505477662897
 20
16.28406859295001
 30
0.0
  0
POINT
  5
625C
330
4BC1
100
AcDbEntity
  8
DEFPOINTS
 62
     0
100
AcDbPoint
 10
27.51439388833635
 20
16.28406859295001
 30
0.0
  0
ENDBLK
  5
4BCD
330
4BC1
100
AcDbEntity
  8
0
100
AcDbBlockEnd
  0
BLOCK
  5
4BDA
330
4BCF
100
AcDbEntity
  8
0
100
AcDbBlockBegin
  2
*D40
 70
     1
 10
0.0
 20
0.0
 30
0.0
  3
*D40
  1

  0
LINE
  5
5E43
330
4BCF
100
AcDbEntity
  8
DIM
 62
     0
370
    -2
100
AcDbLine
 10
4.379848363955376
 20
6.389547325369974
 30
0.0
 11
4.379848363955376
 21
3.833699112163934
 31
0.0
  0
LINE
  5
5E44
330
4BCF
100
AcDbEntity
  8
DIM
 62
     0
370
    -2
100
AcDbLine
 10
7.754848363955398
 20
6.389547325369974
 30
0.0
 11
7.754848363955398
 21
3.833699112163934
 31
0.0
  0
LINE
  5
5E45
330
4BCF
100
AcDbEntity
  8
DIM
 62
     0
370
    -2
100
AcDbLine
 10
4.739848363955376
 20
4.019699112163934
 30
0.0
 11
5.512348363955387
 21
4.019699112163934
 31
0.0
  0
LINE
  5
5E46
330
4BCF
100
AcDbEntity
  8
DIM
 62
     0
370
    -2
100
AcDbLine
 10
7.394848363955397
 20
4.019699112163934
 30
0.0
 11
6.622348363955387
 21
4.019699112163934
 31
0.0
  0
SOLID
  5
5E47
330
4BCF
100
AcDbEntity
  8
DIM
 62
     0
100
AcDbTrace
 10
4.739848363955376
 20
4.079699112163933
 30
0.0
 11
4.739848363955376
 21
3.959699112163934
 31
0.0
 12
4.379848363955376
 22
4.019699112163934
 32
0.0
 13
4.379848363955376
 23
4.019699112163934
 33
0.0
  0
SOLID
  5
5E48
330
4BCF
100
AcDbEntity
  8
DIM
 62
     0
100
AcDbTrace
 10
7.394848363955397
 20
4.079699112163933
 30
0.0
 11
7.394848363955397
 21
3.959699112163934
 31
0.0
 12
7.754848363955398
 22
4.019699112163934
 32
0.0
 13
7.754848363955398
 23
4.019699112163934
 33
0.0
  0
MTEXT
  5
5E49
330
4BCF
100
AcDbEntity
  8
DIM
 62
     0
100
AcDbMText
 10
6.067348363955387
 20
4.019699112163934
 30
0.0
 40
0.25
 41
0.0
 71
     5
 72
     1
  1
\A1;3.375
 73
     1
 44
1.0
  0
POINT
  5
5E4A
330
4BCF
100
AcDbEntity
  8
DEFPOINTS
 62
     0
100
AcDbPoint
 10
4.379848363955376
 20
6.515547325369975
 30
0.0
  0
POINT
  5
5E4B
330
4BCF
100
AcDbEntity
  8
DEFPOINTS
 62
     0
100
AcDbPoint
 10
7.754848363955398
 20
6.515547325369975
 30
0.0
  0
POINT
  5
5E4C
330
4BCF
100
AcDbEntity
  8
DEFPOINTS
 62
     0
100
AcDbPoint
 10
7.754848363955398
 20
4.019699112163934
 30
0.0
  0
ENDBLK
  5
4BDB
330
4BCF
100
AcDbEntity
  8
0
100
AcDbBlockEnd
  0
BLOCK
  5
4BE8
330
4BDD
100
AcDbEntity
  8
0
100
AcDbBlockBegin
  2
*D41
 70
     1
 10
0.0
 20
0.0
 30
0.0
  3
*D41
  1

  0
LINE
  5
5E39
330
4BDD
100
AcDbEntity
  8
DIM
 62
     0
370
    -2
100
AcDbLine
 10
4.379848363955376
 20
6.389547325369974
 30
0.0
 11
4.379848363955376
 21
3.833699112163934
 31
0.0
  0
LINE
  5
5E3A
330
4BDD
100
AcDbEntity
  8
DIM
 62
     0
370
    -2
100
AcDbLine
 10
4.099848363955381
 20
5.968547325369971
 30
0.0
 11
4.099848363955381
 21
3.833699112163934
 31
0.0
  0
LINE
  5
5E3B
330
4BDD
100
AcDbEntity
  8
DIM
 62
     0
370
    -2
100
AcDbLine
 10
4.739848363955376
 20
4.019699112163934
 30
0.0
 11
5.099848363955375
 21
4.019699112163934
 31
0.0
  0
LINE
  5
5E3C
330
4BDD
100
AcDbEntity
  8
DIM
 62
     0
370
    -2
100
AcDbLine
 10
3.739848363955381
 20
4.019699112163934
 30
0.0
 11
3.379848363955381
 21
4.019699112163934
 31
0.0
  0
SOLID
  5
5E3D
330
4BDD
100
AcDbEntity
  8
DIM
 62
     0
100
AcDbTrace
 10
4.739848363955376
 20
4.079699112163933
 30
0.0
 11
4.739848363955376
 21
3.959699112163934
 31
0.0
 12
4.379848363955376
 22
4.019699112163934
 32
0.0
 13
4.379848363955376
 23
4.019699112163934
 33
0.0
  0
SOLID
  5
5E3E
330
4BDD
100
AcDbEntity
  8
DIM
 62
     0
100
AcDbTrace
 10
3.739848363955381
 20
4.079699112163933
 30
0.0
 11
3.739848363955381
 21
3.959699112163934
 31
0.0
 12
4.099848363955381
 22
4.019699112163934
 32
0.0
 13
4.099848363955381
 23
4.019699112163934
 33
0.0
  0
MTEXT
  5
5E3F
330
4BDD
100
AcDbEntity
  8
DIM
 62
     0
100
AcDbMText
 10
2.856098363955381
 20
4.019699112163934
 30
0.0
 40
0.25
 41
0.0
 71
     5
 72
     1
  1
\A1;0.280
 73
     1
 44
1.0
  0
POINT
  5
5E40
330
4BDD
100
AcDbEntity
  8
DEFPOINTS
 62
     0
100
AcDbPoint
 10
4.379848363955376
 20
6.515547325369975
 30
0.0
  0
POINT
  5
5E41
330
4BDD
100
AcDbEntity
  8
DEFPOINTS
 62
     0
100
AcDbPoint
 10
4.099848363955381
 20
6.094547325369971
 30
0.0
  0
POINT
  5
5E42
330
4BDD
100
AcDbEntity
  8
DEFPOINTS
 62
     0
100
AcDbPoint
 10
4.099848363955381
 20
4.019699112163934
 30
0.0
  0
ENDBLK
  5
4BE9
330
4BDD
100
AcDbEntity
  8
0
100
AcDbBlockEnd
  0
BLOCK
  5
4BF7
330
4BEC
100
AcDbEntity
  8
0
100
AcDbBlockBegin
  2
*D42
 70
     1
 10
0.0
 20
0.0
 30
0.0
  3
*D42
  1

  0
LINE
  5
5AF6
330
4BEC
100
AcDbEntity
  8
DIM
 62
     0
370
    -2
100
AcDbLine
 10
29.99690455505367
 20
8.116547325369982
 30
0.0
 11
29.99690455505367
 21
8.312848667194478
 31
0.0
  0
LINE
  5
5AF7
330
4BEC
100
AcDbEntity
  8
DIM
 62
     0
370
    -2
100
AcDbLine
 10
28.26290455505367
 20
8.116547325369982
 30
0.0
 11
28.26290455505367
 21
8.312848667194478
 31
0.0
  0
LINE
  5
5AF8
330
4BEC
100
AcDbEntity
  8
DIM
 62
     0
370
    -2
100
AcDbLine
 10
29.63690455505367
 20
8.126848667194478
 30
0.0
 11
29.37240455505367
 21
8.126848667194478
 31
0.0
  0
LINE
  5
5AF9
330
4BEC
100
AcDbEntity
  8
DIM
 62
     0
370
    -2
100
AcDbLine
 10
28.62290455505367
 20
8.126848667194478
 30
0.0
 11
28.88740455505367
 21
8.126848667194478
 31
0.0
  0
SOLID
  5
5AFA
330
4BEC
100
AcDbEntity
  8
DIM
 62
     0
100
AcDbTrace
 10
29.63690455505367
 20
8.186848667194478
 30
0.0
 11
29.63690455505367
 21
8.066848667194477
 31
0.0
 12
29.99690455505367
 22
8.126848667194478
 32
0.0
 13
29.99690455505367
 23
8.126848667194478
 33
0.0
  0
SOLID
  5
5AFB
330
4BEC
100
AcDbEntity
  8
DIM
 62
     0
100
AcDbTrace
 10
28.62290455505367
 20
8.186848667194478
 30
0.0
 11
28.62290455505367
 21
8.066848667194477
 31
0.0
 12
28.26290455505367
 22
8.126848667194478
 32
0.0
 13
28.26290455505367
 23
8.126848667194478
 33
0.0
  0
MTEXT
  5
5AFC
330
4BEC
100
AcDbEntity
  8
DIM
 62
     0
100
AcDbMText
 10
29.12990455505367
 20
8.126848667194478
 30
0.0
 40
0.25
 41
0.0
 71
     5
 72
     1
  1
\A1;D
 73
     1
 44
1.0
  0
POINT
  5
5AFD
330
4BEC
100
AcDbEntity
  8
DEFPOINTS
 62
     0
100
AcDbPoint
 10
29.99690455505367
 20
7.990547325369981
 30
0.0
  0
POINT
  5
5AFE
330
4BEC
100
AcDbEntity
  8
DEFPOINTS
 62
     0
100
AcDbPoint
 10
28.26290455505367
 20
7.990547325369982
 30
0.0
  0
POINT
  5
5AFF
330
4BEC
100
AcDbEntity
  8
DEFPOINTS
 62
     0
100
AcDbPoint
 10
28.26290455505367
 20
8.126848667194478
 30
0.0
  0
ENDBLK
  5
4BF8
330
4BEC
100
AcDbEntity
  8
0
100
AcDbBlockEnd
  0
BLOCK
  5
4C4A
330
4C40
100
AcDbEntity
  8
0
100
AcDbBlockBegin
  2
*D43
 70
     1
 10
0.0
 20
0.0
 30
0.0
  3
*D43
  1

  0
LINE
  5
62BB
330
4C40
100
AcDbEntity
  8
DIM
 62
     0
370
    -2
100
AcDbLine
 10
7.727848363955394
 20
8.529547325369977
 30
0.0
 11
10.59216201238793
 21
8.529547325369977
 31
0.0
  0
LINE
  5
62BC
330
4C40
100
AcDbEntity
  8
DIM
 62
     0
370
    -2
100
AcDbLine
 10
7.910848363955394
 20
9.779547325369975
 30
0.0
 11
10.59216201238793
 21
9.779547325369975
 31
0.0
  0
LINE
  5
62BD
330
4C40
100
AcDbEntity
  8
DIM
 62
     0
370
    -2
100
AcDbLine
 10
10.40616201238793
 20
8.169547325369977
 30
0.0
 11
10.40616201238793
 21
7.809547325369976
 31
0.0
  0
LINE
  5
62BE
330
4C40
100
AcDbEntity
  8
DIM
 62
     0
370
    -2
100
AcDbLine
 10
10.40616201238793
 20
10.13954732536997
 30
0.0
 11
10.40616201238793
 21
10.49954732536997
 31
0.0
  0
SOLID
  5
62BF
330
4C40
100
AcDbEntity
  8
DIM
 62
     0
100
AcDbTrace
 10
10.34616201238793
 20
8.169547325369977
 30
0.0
 11
10.46616201238793
 21
8.169547325369977
 31
0.0
 12
10.40616201238793
 22
8.529547325369977
 32
0.0
 13
10.40616201238793
 23
8.529547325369977
 33
0.0
  0
SOLID
  5
62C0
330
4C40
100
AcDbEntity
  8
DIM
 62
     0
100
AcDbTrace
 10
10.34616201238793
 20
10.13954732536997
 30
0.0
 11
10.46616201238793
 21
10.13954732536997
 31
0.0
 12
10.40616201238793
 22
9.779547325369975
 32
0.0
 13
10.40616201238793
 23
9.779547325369975
 33
0.0
  0
MTEXT
  5
62C1
330
4C40
100
AcDbEntity
  8
DIM
 62
     0
100
AcDbMText
 10
10.40616201238793
 20
9.154547325369978
 30
0.0
 40
0.25
 41
0.0
 71
     5
 72
     1
  1
\A1;1.250
 73
     1
 44
1.0
  0
POINT
  5
62C2
330
4C40
100
AcDbEntity
  8
DEFPOINTS
 62
     0
100
AcDbPoint
 10
7.601848363955394
 20
8.529547325369977
 30
0.0
  0
POINT
  5
62C3
330
4C40
100
AcDbEntity
  8
DEFPOINTS
 62
     0
100
AcDbPoint
 10
7.784848363955394
 20
9.779547325369975
 30
0.0
  0
POINT
  5
62C4
330
4C40
100
AcDbEntity
  8
DEFPOINTS
 62
     0
100
AcDbPoint
 10
10.40616201238793
 20
9.779547325369975
 30
0.0
  0
ENDBLK
  5
4C4B
330
4C40
100
AcDbEntity
  8
0
100
AcDbBlockEnd
  0
BLOCK
  5
4C58
330
4C4D
100
AcDbEntity
  8
0
100
AcDbBlockBegin
  2
*D44
 70
     1
 10
0.0
 20
0.0
 30
0.0
  3
*D44
  1

  0
LINE
  5
5F03
330
4C4D
100
AcDbEntity
  8
DIM
 62
     0
370
    -2
100
AcDbLine
 10
7.727848363955394
 20
8.167047325369978
 30
0.0
 11
9.040802520500241
 21
8.167047325369978
 31
0.0
  0
LINE
  5
5F04
330
4C4D
100
AcDbEntity
  8
DIM
 62
     0
370
    -2
100
AcDbLine
 10
7.910848363955394
 20
9.779547325369975
 30
0.0
 11
9.040802520500241
 21
9.779547325369975
 31
0.0
  0
LINE
  5
5F05
330
4C4D
100
AcDbEntity
  8
DIM
 62
     0
370
    -2
100
AcDbLine
 10
8.854802520500241
 20
8.527047325369977
 30
0.0
 11
8.854802520500241
 21
8.668297325369977
 31
0.0
  0
LINE
  5
5F06
330
4C4D
100
AcDbEntity
  8
DIM
 62
     0
370
    -2
100
AcDbLine
 10
8.854802520500241
 20
9.419547325369975
 30
0.0
 11
8.854802520500241
 21
9.278297325369976
 31
0.0
  0
SOLID
  5
5F07
330
4C4D
100
AcDbEntity
  8
DIM
 62
     0
100
AcDbTrace
 10
8.79480252050024
 20
8.527047325369977
 30
0.0
 11
8.914802520500241
 21
8.527047325369977
 31
0.0
 12
8.854802520500241
 22
8.167047325369978
 32
0.0
 13
8.854802520500241
 23
8.167047325369978
 33
0.0
  0
SOLID
  5
5F08
330
4C4D
100
AcDbEntity
  8
DIM
 62
     0
100
AcDbTrace
 10
8.79480252050024
 20
9.419547325369975
 30
0.0
 11
8.914802520500241
 21
9.419547325369975
 31
0.0
 12
8.854802520500241
 22
9.779547325369975
 32
0.0
 13
8.854802520500241
 23
9.779547325369975
 33
0.0
  0
MTEXT
  5
5F09
330
4C4D
100
AcDbEntity
  8
DIM
 62
     0
100
AcDbMText
 10
8.854802520500239
 20
8.973297325369978
 30
0.0
 40
0.25
 41
0.0
 71
     5
 72
     1
  1
\A1;1.613
 73
     1
 44
1.0
  0
POINT
  5
5F0A
330
4C4D
100
AcDbEntity
  8
DEFPOINTS
 62
     0
100
AcDbPoint
 10
7.601848363955394
 20
8.167047325369978
 30
0.0
  0
POINT
  5
5F0B
330
4C4D
100
AcDbEntity
  8
DEFPOINTS
 62
     0
100
AcDbPoint
 10
7.784848363955394
 20
9.779547325369975
 30
0.0
  0
POINT
  5
5F0C
330
4C4D
100
AcDbEntity
  8
DEFPOINTS
 62
     0
100
AcDbPoint
 10
8.854802520500241
 20
9.779547325369975
 30
0.0
  0
ENDBLK
  5
4C59
330
4C4D
100
AcDbEntity
  8
0
100
AcDbBlockEnd
  0
BLOCK
  5
4C8B
330
4C80
100
AcDbEntity
  8
0
100
AcDbBlockBegin
  2
*D45
 70
     1
 10
0.0
 20
0.0
 30
0.0
  3
*D45
  1

  0
LINE
  5
6208
330
4C80
100
AcDbEntity
  8
DIM
 62
     0
370
    -2
100
AcDbLine
 10
30.86505477662893
 20
12.87078586120391
 30
0.0
 11
30.86505477662893
 21
11.99784609012078
 31
0.0
  0
LINE
  5
6209
330
4C80
100
AcDbEntity
  8
DIM
 62
     0
370
    -2
100
AcDbLine
 10
30.38505477662893
 20
12.95278586120387
 30
0.0
 11
30.38505477662893
 21
11.99784609012078
 31
0.0
  0
LINE
  5
620A
330
4C80
100
AcDbEntity
  8
DIM
 62
     0
370
    -2
100
AcDbLine
 10
31.22505477662893
 20
12.18384609012078
 30
0.0
 11
31.58505477662893
 21
12.18384609012078
 31
0.0
  0
LINE
  5
620B
330
4C80
100
AcDbEntity
  8
DIM
 62
     0
370
    -2
100
AcDbLine
 10
30.02505477662892
 20
12.18384609012078
 30
0.0
 11
29.66505477662892
 21
12.18384609012078
 31
0.0
  0
SOLID
  5
620C
330
4C80
100
AcDbEntity
  8
DIM
 62
     0
100
AcDbTrace
 10
31.22505477662893
 20
12.24384609012078
 30
0.0
 11
31.22505477662893
 21
12.12384609012078
 31
0.0
 12
30.86505477662893
 22
12.18384609012078
 32
0.0
 13
30.86505477662893
 23
12.18384609012078
 33
0.0
  0
SOLID
  5
620D
330
4C80
100
AcDbEntity
  8
DIM
 62
     0
100
AcDbTrace
 10
30.02505477662892
 20
12.24384609012078
 30
0.0
 11
30.02505477662892
 21
12.12384609012078
 31
0.0
 12
30.38505477662893
 22
12.18384609012078
 32
0.0
 13
30.38505477662893
 23
12.18384609012078
 33
0.0
  0
MTEXT
  5
620E
330
4C80
100
AcDbEntity
  8
DIM
 62
     0
100
AcDbMText
 10
29.17255477662893
 20
12.18384609012078
 30
0.0
 40
0.25
 41
0.0
 71
     5
 72
     1
  1
\A1;0.120
 73
     1
 44
1.0
  0
POINT
  5
620F
330
4C80
100
AcDbEntity
  8
DEFPOINTS
 62
     0
100
AcDbPoint
 10
30.86505477662893
 20
12.99678586120391
 30
0.0
  0
POINT
  5
6210
330
4C80
100
AcDbEntity
  8
DEFPOINTS
 62
     0
100
AcDbPoint
 10
30.38505477662893
 20
13.07878586120387
 30
0.0
  0
POINT
  5
6211
330
4C80
100
AcDbEntity
  8
DEFPOINTS
 62
     0
100
AcDbPoint
 10
30.38505477662893
 20
12.18384609012078
 30
0.0
  0
ENDBLK
  5
4C8C
330
4C80
100
AcDbEntity
  8
0
100
AcDbBlockEnd
  0
BLOCK
  5
4CB2
330
4CA7
100
AcDbEntity
  8
0
100
AcDbBlockBegin
  2
*D46
 70
     1
 10
0.0
 20
0.0
 30
0.0
  3
*D46
  1

  0
LINE
  5
629C
330
4CA7
100
AcDbEntity
  8
DIM
 62
     0
370
    -2
100
AcDbLine
 10
13.93523747020356
 20
9.120047325369975
 30
0.0
 11
13.93523747020356
 21
8.812353833139489
 31
0.0
  0
LINE
  5
629D
330
4CA7
100
AcDbEntity
  8
DIM
 62
     0
370
    -2
100
AcDbLine
 10
14.22723747020355
 20
9.120047325369975
 30
0.0
 11
14.22723747020355
 21
8.812353833139489
 31
0.0
  0
LINE
  5
629E
330
4CA7
100
AcDbEntity
  8
DIM
 62
     0
370
    -2
100
AcDbLine
 10
13.57523747020356
 20
8.998353833139489
 30
0.0
 11
13.21523747020356
 21
8.998353833139489
 31
0.0
  0
LINE
  5
629F
330
4CA7
100
AcDbEntity
  8
DIM
 62
     0
370
    -2
100
AcDbLine
 10
14.58723747020355
 20
8.998353833139489
 30
0.0
 11
14.94723747020355
 21
8.998353833139489
 31
0.0
  0
SOLID
  5
62A0
330
4CA7
100
AcDbEntity
  8
DIM
 62
     0
100
AcDbTrace
 10
13.57523747020356
 20
9.05835383313949
 30
0.0
 11
13.57523747020356
 21
8.938353833139489
 31
0.0
 12
13.93523747020356
 22
8.998353833139489
 32
0.0
 13
13.93523747020356
 23
8.998353833139489
 33
0.0
  0
SOLID
  5
62A1
330
4CA7
100
AcDbEntity
  8
DIM
 62
     0
100
AcDbTrace
 10
14.58723747020355
 20
9.05835383313949
 30
0.0
 11
14.58723747020355
 21
8.938353833139489
 31
0.0
 12
14.22723747020355
 22
8.998353833139489
 32
0.0
 13
14.22723747020355
 23
8.998353833139489
 33
0.0
  0
MTEXT
  5
62A2
330
4CA7
100
AcDbEntity
  8
DIM
 62
     0
100
AcDbMText
 10
15.48661247020355
 20
8.998353833139489
 30
0.0
 40
0.25
 41
0.0
 71
     5
 72
     1
  1
\A1;0.292
 73
     1
 44
1.0
  0
POINT
  5
62A3
330
4CA7
100
AcDbEntity
  8
DEFPOINTS
 62
     0
100
AcDbPoint
 10
13.93523747020356
 20
9.246047325369975
 30
0.0
  0
POINT
  5
62A4
330
4CA7
100
AcDbEntity
  8
DEFPOINTS
 62
     0
100
AcDbPoint
 10
14.22723747020355
 20
9.246047325369975
 30
0.0
  0
POINT
  5
62A5
330
4CA7
100
AcDbEntity
  8
DEFPOINTS
 62
     0
100
AcDbPoint
 10
14.22723747020355
 20
8.998353833139489
 30
0.0
  0
ENDBLK
  5
4CB3
330
4CA7
100
AcDbEntity
  8
0
100
AcDbBlockEnd
  0
BLOCK
  5
52AA
330
529F
100
AcDbEntity
  8
0
100
AcDbBlockBegin
  2
*D47
 70
     1
 10
0.0
 20
0.0
 30
0.0
  3
*D47
  1

  0
LINE
  5
61F7
330
529F
100
AcDbEntity
  8
DIM
 62
     0
370
    -2
100
AcDbLine
 10
30.98654990546379
 20
13.07124693227265
 30
0.0
 11
32.26340960805862
 21
13.07124693227265
 31
0.0
  0
LINE
  5
61F8
330
529F
100
AcDbEntity
  8
DIM
 62
     0
370
    -2
100
AcDbLine
 10
30.98654990546379
 20
14.31124693227265
 30
0.0
 11
32.26340960805862
 21
14.31124693227265
 31
0.0
  0
LINE
  5
61F9
330
529F
100
AcDbEntity
  8
DIM
 62
     0
370
    -2
100
AcDbLine
 10
32.07740960805862
 20
12.71124693227265
 30
0.0
 11
32.07740960805862
 21
12.35124693227265
 31
0.0
  0
LINE
  5
61FA
330
529F
100
AcDbEntity
  8
DIM
 62
     0
370
    -2
100
AcDbLine
 10
32.07740960805862
 20
14.67124693227265
 30
0.0
 11
32.07740960805862
 21
15.03124693227265
 31
0.0
  0
SOLID
  5
61FB
330
529F
100
AcDbEntity
  8
DIM
 62
     0
100
AcDbTrace
 10
32.01740960805862
 20
12.71124693227265
 30
0.0
 11
32.13740960805862
 21
12.71124693227265
 31
0.0
 12
32.07740960805862
 22
13.07124693227265
 32
0.0
 13
32.07740960805862
 23
13.07124693227265
 33
0.0
  0
SOLID
  5
61FC
330
529F
100
AcDbEntity
  8
DIM
 62
     0
100
AcDbTrace
 10
32.01740960805862
 20
14.67124693227265
 30
0.0
 11
32.13740960805862
 21
14.67124693227265
 31
0.0
 12
32.07740960805862
 22
14.31124693227265
 32
0.0
 13
32.07740960805862
 23
14.31124693227265
 33
0.0
  0
MTEXT
  5
61FD
330
529F
100
AcDbEntity
  8
DIM
 62
     0
100
AcDbMText
 10
32.07740960805862
 20
13.69124693227266
 30
0.0
 40
0.25
 41
0.0
 71
     5
 72
     1
  1
\A1;0.310 DIA.\PC'BORE
 73
     1
 44
1.0
  0
POINT
  5
61FE
330
529F
100
AcDbEntity
  8
DEFPOINTS
 62
     0
100
AcDbPoint
 10
30.86054990546379
 20
13.07124693227265
 30
0.0
  0
POINT
  5
61FF
330
529F
100
AcDbEntity
  8
DEFPOINTS
 62
     0
100
AcDbPoint
 10
30.86054990546379
 20
14.31124693227265
 30
0.0
  0
POINT
  5
6200
330
529F
100
AcDbEntity
  8
DEFPOINTS
 62
     0
100
AcDbPoint
 10
32.07740960805862
 20
14.31124693227265
 30
0.0
  0
ENDBLK
  5
52AB
330
529F
100
AcDbEntity
  8
0
100
AcDbBlockEnd
  0
BLOCK
  5
5352
330
533B
100
AcDbEntity
  8
0
100
AcDbBlockBegin
  2
HBS
 70
     0
 10
0.0
 20
0.0
 30
0.0
  3
HBS
  1

  0
LINE
  5
533C
330
533B
100
AcDbEntity
  8
TITLE
100
AcDbLine
 10
0.0620000000000118
 20
10.266
 30
0.0
 11
16.53800000000001
 21
10.266
 31
0.0
  0
LINE
  5
533D
330
533B
100
AcDbEntity
  8
TITLE
100
AcDbLine
 10
16.53800000000001
 20
0.0620000000000012
 30
0.0
 11
0.0620000000000118
 21
0.0620000000000012
 31
0.0
  0
LINE
  5
533E
330
533B
100
AcDbEntity
  8
TITLE
100
AcDbLine
 10
0.0
 20
10.32799999999999
 30
0.0
 11
16.59999999999999
 21
10.32799999999999
 31
0.0
  0
LINE
  5
533F
330
533B
100
AcDbEntity
  8
TITLE
100
AcDbLine
 10
16.59999999999999
 20
0.0
 30
0.0
 11
0.0
 21
0.0
 31
0.0
  0
LINE
  5
5340
330
533B
100
AcDbEntity
  8
TITLE
100
AcDbLine
 10
0.0620000000000118
 20
9.848000000000002
 30
0.0
 11
16.53800000000001
 21
9.848000000000006
 31
0.0
  0
LINE
  5
5341
330
533B
100
AcDbEntity
  8
TITLE
100
AcDbLine
 10
0.0620000000000118
 20
0.0620000000000012
 30
0.0
 11
0.0620000000000118
 21
10.266
 31
0.0
  0
LINE
  5
5342
330
533B
100
AcDbEntity
  8
TITLE
100
AcDbLine
 10
0.0
 20
0.0
 30
0.0
 11
0.0
 21
10.32799999999999
 31
0.0
  0
TEXT
  5
5343
330
533B
100
AcDbEntity
  8
TEXT
100
AcDbText
 10
0.2078333333333452
 20
9.888079195640081
 30
0.0
 40
0.125
  1
NAME
 72
     1
 11
0.4370000000000119
 21
9.888079195640081
 31
0.0
100
AcDbText
  0
TEXT
  5
5344
330
533B
100
AcDbEntity
  8
TEXT
100
AcDbText
 10
0.2078333333333452
 20
10.09641252897341
 30
0.0
 40
0.125
  1
PART
 72
     1
 11
0.4370000000000119
 21
10.09641252897341
 31
0.0
100
AcDbText
  0
LINE
  5
5345
330
533B
100
AcDbEntity
  8
TITLE
100
AcDbLine
 10
0.8120000000000118
 20
9.848000000000002
 30
0.0
 11
0.8120000000000118
 21
10.266
 31
0.0
  0
LINE
  5
5346
330
533B
100
AcDbEntity
  8
TITLE
100
AcDbLine
 10
7.0
 20
10.266
 30
0.0
 11
7.0
 21
9.848000000000002
 31
0.0
  0
LINE
  5
5347
330
533B
100
AcDbEntity
  8
TITLE
100
AcDbLine
 10
7.062000000000011
 20
10.266
 30
0.0
 11
7.062000000000011
 21
9.848000000000002
 31
0.0
  0
LINE
  5
5348
330
533B
100
AcDbEntity
  8
TITLE
100
AcDbLine
 10
7.812000000000011
 20
10.266
 30
0.0
 11
7.812000000000011
 21
9.848000000000002
 31
0.0
  0
TEXT
  5
5349
330
533B
100
AcDbEntity
  8
TEXT
100
AcDbText
 10
7.312000000000011
 20
9.888079195640081
 30
0.0
 40
0.125
  1
No.
 72
     1
 11
7.437000000000011
 21
9.888079195640081
 31
0.0
100
AcDbText
  0
TEXT
  5
534A
330
533B
100
AcDbEntity
  8
TEXT
100
AcDbText
 10
7.207833333333344
 20
10.09641252897341
 30
0.0
 40
0.125
  1
PART
 72
     1
 11
7.437000000000011
 21
10.09641252897341
 31
0.0
100
AcDbText
  0
LINE
  5
534B
330
533B
100
AcDbEntity
  8
TITLE
100
AcDbLine
 10
16.53800000000001
 20
10.266
 30
0.0
 11
16.53800000000001
 21
0.0620000000000012
 31
0.0
  0
LINE
  5
534C
330
533B
100
AcDbEntity
  8
TITLE
100
AcDbLine
 10
16.59999999999999
 20
10.32799999999999
 30
0.0
 11
16.59999999999999
 21
0.0
 31
0.0
  0
TEXT
  5
534D
330
533B
100
AcDbEntity
  8
TEXT
100
AcDbText
 10
14.22865779971668
 20
10.09641252897341
 30
0.0
 40
0.125
  1
REV.
 72
     1
 11
14.43699113305001
 21
10.09641252897341
 31
0.0
100
AcDbText
  0
TEXT
  5
534E
330
533B
100
AcDbEntity
  8
TEXT
100
AcDbText
 10
14.20782446638335
 20
9.888079195640081
 30
0.0
 40
0.125
  1
DATE
 72
     1
 11
14.43699113305001
 21
9.888079195640081
 31
0.0
100
AcDbText
  0
LINE
  5
534F
330
533B
100
AcDbEntity
  8
TITLE
100
AcDbLine
 10
14.06199113305001
 20
10.266
 30
0.0
 11
14.06199113305001
 21
9.848000000000002
 31
0.0
  0
LINE
  5
5350
330
533B
100
AcDbEntity
  8
TITLE
100
AcDbLine
 10
14.81199113305001
 20
10.266
 30
0.0
 11
14.81199113305001
 21
9.848000000000002
 31
0.0
  0
LINE
  5
5351
330
533B
100
AcDbEntity
  8
TITLE
100
AcDbLine
 10
13.99999113305
 20
10.266
 30
0.0
 11
13.99999113305
 21
9.848000000000002
 31
0.0
  0
ENDBLK
  5
5353
330
533B
100
AcDbEntity
  8
0
100
AcDbBlockEnd
  0
BLOCK
  5
5FE9
330
5FDE
100
AcDbEntity
  8
0
100
AcDbBlockBegin
  2
*D49
 70
     1
 10
0.0
 20
0.0
 30
0.0
  3
*D49
  1

  0
LINE
  5
6009
330
5FDE
100
AcDbEntity
  8
DIM
 62
     0
370
    -2
100
AcDbLine
 10
21.64795336681956
 20
13.80985387179799
 30
0.0
 11
21.64795336681956
 21
13.07885387179798
 31
0.0
  0
LINE
  5
600A
330
5FDE
100
AcDbEntity
  8
DIM
 62
     0
370
    -2
100
AcDbLine
 10
19.09295336681955
 20
13.80985387179799
 30
0.0
 11
19.09295336681955
 21
13.07885387179798
 31
0.0
  0
LINE
  5
600B
330
5FDE
100
AcDbEntity
  8
DIM
 62
     0
370
    -2
100
AcDbLine
 10
21.28795336681956
 20
13.26485387179798
 30
0.0
 11
20.92545336681955
 21
13.26485387179798
 31
0.0
  0
LINE
  5
600C
330
5FDE
100
AcDbEntity
  8
DIM
 62
     0
370
    -2
100
AcDbLine
 10
19.45295336681955
 20
13.26485387179798
 30
0.0
 11
19.81545336681956
 21
13.26485387179798
 31
0.0
  0
SOLID
  5
600D
330
5FDE
100
AcDbEntity
  8
DIM
 62
     0
100
AcDbTrace
 10
21.28795336681956
 20
13.32485387179798
 30
0.0
 11
21.28795336681956
 21
13.20485387179798
 31
0.0
 12
21.64795336681956
 22
13.26485387179798
 32
0.0
 13
21.64795336681956
 23
13.26485387179798
 33
0.0
  0
SOLID
  5
600E
330
5FDE
100
AcDbEntity
  8
DIM
 62
     0
100
AcDbTrace
 10
19.45295336681955
 20
13.32485387179798
 30
0.0
 11
19.45295336681955
 21
13.20485387179798
 31
0.0
 12
19.09295336681955
 22
13.26485387179798
 32
0.0
 13
19.09295336681955
 23
13.26485387179798
 33
0.0
  0
MTEXT
  5
600F
330
5FDE
100
AcDbEntity
  8
DIM
 62
     0
100
AcDbMText
 10
20.37045336681956
 20
13.26485387179798
 30
0.0
 40
0.25
 41
0.0
 71
     5
 72
     1
  1
\A1;2.555
 73
     1
 44
1.0
  0
POINT
  5
6010
330
5FDE
100
AcDbEntity
  8
DEFPOINTS
 62
     0
100
AcDbPoint
 10
21.64795336681956
 20
13.93585387179798
 30
0.0
  0
POINT
  5
6011
330
5FDE
100
AcDbEntity
  8
DEFPOINTS
 62
     0
100
AcDbPoint
 10
19.09295336681955
 20
13.93585387179798
 30
0.0
  0
POINT
  5
6012
330
5FDE
100
AcDbEntity
  8
DEFPOINTS
 62
     0
100
AcDbPoint
 10
19.09295336681955
 20
13.26485387179798
 30
0.0
  0
ENDBLK
  5
5FEA
330
5FDE
100
AcDbEntity
  8
0
100
AcDbBlockEnd
  0
ENDSEC
  0
SECTION
  2
ENTITIES
  0
TEXT
  5
45E8
330
3F56
100
AcDbEntity
  8
TEXT
100
AcDbText
 10
12.39287504599146
 20
5.27064812378471
 30
0.0
 40
0.25
  1
%%USECTION "A-A"
 41
0.8
  7
SECTION
 72
     1
 11
13.61049409361051
 21
5.27064812378471
 31
0.0
100
AcDbText
  0
TEXT
  5
45EB
330
3F56
100
AcDbEntity
  8
TEXT
100
AcDbText
 10
23.46671765967707
 20
4.532043397152094
 30
0.0
 40
0.25
  1
%%USECTION "B-B"
 41
0.8
  7
SECTION
 72
     1
 11
24.70338432634374
 21
4.532043397152094
 31
0.0
100
AcDbText
  0
TEXT
  5
45F3
330
3F56
100
AcDbEntity
  8
TEXT
100
AcDbText
 10
21.04242291605891
 20
4.05583994295047
 30
0.0
 40
0.375
  1
%%UCOVER
 41
0.75
 72
     1
 11
21.75023541605891
 21
4.05583994295047
 31
0.0
100
AcDbText
  0
TEXT
  5
45F4
330
3F56
100
AcDbEntity
  8
TEXT
100
AcDbText
 10
10.17326056626082
 20
1.293668782137416
 30
0.0
 40
0.375
  1
%%UBODY
 41
0.75
 72
     1
 11
10.69357306626082
 21
1.293668782137416
 31
0.0
100
AcDbText
  0
ATTDEF
  5
461A
330
3F56
100
AcDbEntity
  8
BEND
100
AcDbText
 10
21.07082575582782
 20
10.23696542540302
 30
0.0
 40
0.25
  1

  7
SECTION
 72
     4
 11
21.19582575582782
 21
10.36196542540302
 31
0.0
100
AcDbAttributeDefinition
  3

  2
B
 70
     0
  0
LWPOLYLINE
  5
461B
330
3F56
100
AcDbEntity
  8
BEND
100
AcDbPolyline
 90
        8
 70
     0
 10
21.35442460415416
 20
5.589059310516896
 40
0.0
 41
0.1567108125
 10
21.66784622915419
 20
5.589059310516896
 40
0.02611846875
 41
0.02611846875
 10
22.06195336681957
 20
5.589059310516896
 40
0.02611846875
 41
0.02611846875
 10
22.06195336681957
 20
8.468371065502381
 40
0.02611846875
 41
0.02611846875
 10
20.95312760422988
 20
8.468371065502381
 40
0.02611846875
 41
0.02611846875
 10
20.95312760422988
 20
10.36196542540302
 40
0.02611846875
 41
0.02611846875
 10
20.56694672986568
 20
10.36196542540302
 40
0.1567108125
 41
0.0
 10
20.25352510486567
 20
10.36196542540302
 40
0.0
 41
0.0
  0
DIMENSION
  5
4625
330
3F56
100
AcDbEntity
  8
DIM
100
AcDbDimension
  2
*D0
 10
18.40295336681956
 20
11.48459907659657
 30
0.0
 11
20.37045336681956
 21
11.48459907659657
 31
0.0
 70
    32
  1
<>
 71
     5
 42
3.935000000000009
  3
23NSTD
100
AcDbAlignedDimension
 13
22.33795336681957
 23
9.529547325369975
 33
0.0
 14
18.40295336681956
 24
9.529547325369975
 34
0.0
100
AcDbRotatedDimension
  0
DIMENSION
  5
4633
330
3F56
100
AcDbEntity
  8
DIM
100
AcDbDimension
  2
*D1
 10
18.63995336681955
 20
10.99284907659658
 30
0.0
 11
20.36995336681956
 21
10.99284907659658
 31
0.0
 70
    32
  1
<>
 71
     5
 42
3.460000000000015
  3
23NSTD
100
AcDbAlignedDimension
 13
22.09995336681957
 23
9.541547325369965
 33
0.0
 14
18.63995336681955
 24
9.541547325369965
 34
0.0
100
AcDbRotatedDimension
  0
LWPOLYLINE
  5
4641
330
3F56
100
AcDbEntity
  8
OBJECT
100
AcDbPolyline
 90
       24
 70
     1
 43
0.0
 10
18.58295336681956
 20
8.709547325369982
 10
18.58295336681954
 20
6.914547325369956
 42
0.4142135623730951
 10
18.65295336681954
 20
6.844547325369957
 10
18.84795336681954
 20
6.844547325369964
 42
-0.4142135623731054
 10
19.15295336681954
 20
6.53954732536997
 10
19.15295336681954
 20
6.094547325369964
 42
0.4142135623730951
 10
19.22295336681954
 20
6.024547325369963
 10
21.51795336681955
 20
6.024547325369963
 42
0.4142135623730951
 10
21.58795336681956
 20
6.094547325369964
 10
21.58795336681956
 20
6.53954732536997
 42
-0.4142135623731054
 10
21.89295336681957
 20
6.844547325369964
 10
22.08795336681956
 20
6.844547325369957
 42
0.4142135623730951
 10
22.15795336681957
 20
6.914547325369956
 10
22.15795336681957
 20
8.709547325369982
 42
0.4142135623730951
 10
22.08795336681956
 20
8.779547325369973
 10
21.89295336681957
 20
8.779547325369973
 42
-0.4142135623731054
 10
21.58795336681956
 20
9.084547325369968
 10
21.58795336681956
 20
9.529547325369975
 42
0.4142135623730951
 10
21.51795336681955
 20
9.599547325369968
 10
19.22295336681954
 20
9.599547325369968
 42
0.4142135623730951
 10
19.15295336681954
 20
9.529547325369975
 10
19.15295336681954
 20
9.084547325369968
 42
-0.4142135623731054
 10
18.84795336681954
 20
8.779547325369973
 10
18.65295336681954
 20
8.779547325369973
 42
0.4142135623730951
  0
LWPOLYLINE
  5
465B
330
3F56
100
AcDbEntity
  8
OBJECT
100
AcDbPolyline
 90
       24
 70
     1
 43
0.0
 10
18.54295336681955
 20
8.709547325369982
 10
18.54295336681955
 20
6.91454732536995
 42
0.4142135623730881
 10
18.65295336681954
 20
6.804547325369957
 10
18.84795336681954
 20
6.804547325369965
 42
-0.4142135623731078
 10
19.11295336681955
 20
6.53954732536997
 10
19.11295336681955
 20
6.094547325369964
 42
0.4142135623730928
 10
19.22295336681954
 20
5.984547325369963
 10
21.51795336681955
 20
5.984547325369963
 42
0.4142135623730928
 10
21.62795336681957
 20
6.094547325369964
 10
21.62795336681957
 20
6.53954732536997
 42
-0.4142135623731078
 10
21.89295336681957
 20
6.804547325369965
 10
22.08795336681956
 20
6.804547325369957
 42
0.4142135623730881
 10
22.19795336681956
 20
6.91454732536995
 10
22.19795336681956
 20
8.709547325369982
 42
0.4142135623730881
 10
22.08795336681956
 20
8.819547325369981
 10
21.89295336681957
 20
8.819547325369965
 42
-0.4142135623731078
 10
21.62795336681957
 20
9.084547325369968
 10
21.62795336681957
 20
9.529547325369975
 42
0.4142135623730928
 10
21.51795336681955
 20
9.639547325369974
 10
19.22295336681954
 20
9.639547325369974
 42
0.4142135623730928
 10
19.11295336681955
 20
9.529547325369975
 10
19.11295336681955
 20
9.084547325369968
 42
-0.4142135623731078
 10
18.84795336681954
 20
8.819547325369965
 10
18.65295336681954
 20
8.819547325369981
 42
0.4142135623730881
1001
ACAD
1000
ASC_BOUNDS
1002
{
1070
    19
1005
1F2F
1002
}
  0
LWPOLYLINE
  5
4675
330
3F56
100
AcDbEntity
  8
OBJECT
100
AcDbPolyline
 90
       24
 70
     1
 43
0.0
 10
18.46295336681955
 20
8.709547325369982
 10
18.46295336681955
 20
6.91454732536995
 42
0.4142135623730871
 10
18.65295336681954
 20
6.724547325369958
 10
18.84795336681954
 20
6.724547325369965
 42
-0.4142135623731076
 10
19.03295336681955
 20
6.53954732536997
 10
19.03295336681955
 20
6.094547325369964
 42
0.4142135623730911
 10
19.22295336681954
 20
5.904547325369965
 10
21.51795336681955
 20
5.904547325369965
 42
0.4142135623730911
 10
21.70795336681957
 20
6.094547325369964
 10
21.70795336681957
 20
6.53954732536997
 42
-0.4142135623731076
 10
21.89295336681957
 20
6.724547325369965
 10
22.08795336681956
 20
6.724547325369958
 42
0.4142135623730871
 10
22.27795336681957
 20
6.91454732536995
 10
22.27795336681957
 20
8.709547325369982
 42
0.4142135623730871
 10
22.08795336681956
 20
8.899547325369978
 10
21.89295336681957
 20
8.899547325369963
 42
-0.4142135623731076
 10
21.70795336681957
 20
9.084547325369968
 10
21.70795336681957
 20
9.529547325369975
 42
0.4142135623730911
 10
21.51795336681955
 20
9.719547325369971
 10
19.22295336681954
 20
9.719547325369971
 42
0.4142135623730911
 10
19.03295336681955
 20
9.529547325369975
 10
19.03295336681955
 20
9.084547325369968
 42
-0.4142135623731076
 10
18.84795336681954
 20
8.899547325369963
 10
18.65295336681954
 20
8.899547325369978
 42
0.4142135623730871
1001
ACAD
1000
ASC_BOUNDS
1002
{
1070
    19
1005
1F2F
1002
}
  0
LWPOLYLINE
  5
468F
330
3F56
100
AcDbEntity
  8
OBJECT
100
AcDbPolyline
 90
        8
 70
     1
 43
0.0
 10
18.65295336681954
 20
5.844547325369971
 10
22.08795336681956
 20
5.844547325369971
 42
0.4142135623730951
 10
22.33795336681957
 20
6.094547325369971
 10
22.33795336681957
 20
9.529547325369975
 42
0.4142135623730951
 10
22.08795336681956
 20
9.779547325369975
 10
18.65295336681954
 20
9.779547325369975
 42
0.4142135623730951
 10
18.40295336681956
 20
9.529547325369975
 10
18.40295336681956
 20
6.094547325369971
 42
0.4142135623730951
  0
DIMENSION
  5
4699
330
3F56
100
AcDbEntity
  8
DIM
100
AcDbDimension
  2
*D2
 10
17.859062169246
 20
9.779547325369975
 30
0.0
 11
17.859062169246
 21
7.812047325369976
 31
0.0
 70
    32
  1
<>
 71
     5
 42
3.935000000000003
  3
23NSTD
100
AcDbAlignedDimension
 13
18.65295336681954
 23
5.844547325369971
 33
0.0
 14
18.65295336681954
 24
9.779547325369975
 34
0.0
 50
270.0
100
AcDbRotatedDimension
  0
LWPOLYLINE
  5
46A7
330
3F56
100
AcDbEntity
  8
OBJECT
100
AcDbPolyline
 90
        6
 70
     1
 43
0.0
 10
18.46295336681955
 20
6.664547325369959
 10
18.84795336681954
 20
6.66454732536997
 42
-0.4142135623731054
 10
18.97295336681955
 20
6.53954732536997
 10
18.97295336681953
 20
5.904547325369964
 10
18.65295336681954
 20
5.904547325369965
 42
-0.4142135623730951
 10
18.46295336681955
 20
6.094547325369964
  0
DIMENSION
  5
46AF
330
3F56
100
AcDbEntity
  8
DIM
100
AcDbDimension
  2
*D3
 10
19.86713882495529
 20
5.844547325369971
 30
0.0
 11
18.60838882495529
 21
5.124547325369975
 31
0.0
 70
    32
  1
<> TYP.
 71
     5
 42
0.1799999999999917
  3
23NSTD
100
AcDbAlignedDimension
 13
19.8085453487774
 23
6.024547325369963
 33
0.0
 14
19.8085453487774
 24
5.844547325369971
 34
0.0
 50
90.0
100
AcDbRotatedDimension
  0
LWPOLYLINE
  5
46BD
330
3F56
100
AcDbEntity
  8
OBJECT
100
AcDbPolyline
 90
        6
 70
     1
 43
0.0
 10
18.46295336681955
 20
8.959547325369971
 10
18.84795336681954
 20
8.959547325369968
 42
0.4142135623731054
 10
18.97295336681955
 20
9.084547325369968
 10
18.97295336681953
 20
9.719547325369971
 10
18.65295336681954
 20
9.719547325369971
 42
0.4142135623730951
 10
18.46295336681955
 20
9.529547325369975
  0
CIRCLE
  5
46C5
330
3F56
100
AcDbEntity
  8
OBJECT
100
AcDbCircle
 10
18.63995336681955
 20
9.541547325369965
 30
0.0
 40
0.086
  0
DIMENSION
  5
46C6
330
3F56
100
AcDbEntity
  8
DIM
100
AcDbDimension
  2
*D4
 10
22.89158602048975
 20
9.541547325369965
 30
0.0
 11
22.89158602048974
 21
7.81154732536997
 31
0.0
 70
    32
 71
     5
 42
3.459999999999998
  3
23NSTD
100
AcDbAlignedDimension
 13
22.09995336681957
 23
6.081547325369967
 33
0.0
 14
22.09995336681957
 24
9.541547325369965
 34
0.0
 50
90.0
100
AcDbRotatedDimension
  0
LWPOLYLINE
  5
46D5
330
3F56
100
AcDbEntity
  8
OBJECT
100
AcDbPolyline
 90
        6
 70
     1
 43
0.0
 10
22.27795336681957
 20
6.664547325369956
 10
21.89295336681957
 20
6.66454732536997
 42
0.4142135623731054
 10
21.76795336681955
 20
6.53954732536997
 10
21.76795336681957
 20
5.904547325369965
 10
22.08795336681956
 20
5.904547325369965
 42
0.4142135623730951
 10
22.27795336681957
 20
6.094547325369964
  0
ATTDEF
  5
46DD
330
3F56
100
AcDbEntity
  8
BEND
100
AcDbText
 10
22.19135034710844
 20
5.464059310516896
 30
0.0
 40
0.25
  1

  7
SECTION
 72
     4
 11
22.31635034710845
 21
5.589059310516896
 31
0.0
100
AcDbAttributeDefinition
  3

  2
B
 70
     0
  0
CIRCLE
  5
46DE
330
3F56
100
AcDbEntity
  8
OBJECT
100
AcDbCircle
 10
22.09995336681957
 20
6.081547325369967
 30
0.0
 40
0.086
  0
CIRCLE
  5
46DF
330
3F56
100
AcDbEntity
  8
OBJECT
100
AcDbCircle
 10
22.09995336681957
 20
9.541547325369965
 30
0.0
 40
0.155
  0
CIRCLE
  5
46E0
330
3F56
100
AcDbEntity
  8
OBJECT
100
AcDbCircle
 10
22.09995336681957
 20
9.541547325369965
 30
0.0
 40
0.086
  0
LWPOLYLINE
  5
46E1
330
3F56
100
AcDbEntity
  8
OBJECT
100
AcDbPolyline
 90
        6
 70
     1
 43
0.0
 10
22.27795336681957
 20
8.959547325369968
 10
21.89295336681957
 20
8.959547325369968
 42
-0.4142135623731054
 10
21.76795336681955
 20
9.084547325369968
 10
21.76795336681957
 20
9.719547325369971
 10
22.08795336681956
 20
9.719547325369971
 42
-0.4142135623730951
 10
22.27795336681957
 20
9.529547325369975
  0
LINE
  5
46E9
330
3F56
100
AcDbEntity
  8
OBJECT
100
AcDbLine
 10
18.46545336681954
 20
12.69815566507155
 30
0.0
 11
22.27545336681955
 21
12.69815566507155
 31
0.0
  0
LINE
  5
46EA
330
3F56
100
AcDbEntity
  8
HIDDEN
100
AcDbLine
 10
18.46295336681955
 20
12.53715566507153
 30
0.0
 11
22.27795336681956
 21
12.53715566507156
 31
0.0
  0
LINE
  5
46EB
330
3F56
100
AcDbEntity
  8
OBJECT
100
AcDbLine
 10
18.40295336681956
 20
12.09815566507155
 30
0.0
 11
22.33795336681955
 21
12.09815566507155
 31
0.0
  0
DIMENSION
  5
46EC
330
3F56
100
AcDbEntity
  8
DIM
100
AcDbDimension
  2
*D5
 10
17.859062169246
 20
12.09815566507155
 30
0.0
 11
17.859062169246
 21
12.39815566507155
 31
0.0
 70
    32
 71
     5
 42
0.5999999999999997
  3
23NSTDI
100
AcDbAlignedDimension
 13
18.46545336681954
 23
12.69815566507155
 33
0.0
 14
18.40295336681956
 24
12.09815566507155
 34
0.0
 50
270.0
100
AcDbRotatedDimension
  0
ARC
  5
46FA
330
3F56
100
AcDbEntity
  8
OBJECT
100
AcDbCircle
 10
18.46545336681954
 20
12.63565566507155
 30
0.0
 40
0.0625
100
AcDbArc
 50
90.0
 51
180.0
  0
LINE
  5
46FB
330
3F56
100
AcDbEntity
  8
OBJECT
100
AcDbLine
 10
18.40295336681956
 20
12.09815566507155
 30
0.0
 11
18.40295336681956
 21
12.63565566507155
 31
0.0
  0
LINE
  5
46FC
330
3F56
100
AcDbEntity
  8
HIDDEN
100
AcDbLine
 10
18.58295336681956
 20
12.09815566507155
 30
0.0
 11
18.58295336681956
 21
12.53715566507153
 31
0.0
  0
LINE
  5
46FD
330
3F56
100
AcDbEntity
  8
HIDDEN
100
AcDbLine
 10
18.46295336681955
 20
12.53715566507153
 30
0.0
 11
18.46295336681955
 21
12.09815566507155
 31
0.0
  0
LINE
  5
46FE
330
3F56
100
AcDbEntity
  8
HIDDEN
100
AcDbLine
 10
18.97295336681954
 20
12.53715566507156
 30
0.0
 11
18.97295336681954
 21
12.09815566507156
 31
0.0
  0
LINE
  5
46FF
330
3F56
100
AcDbEntity
  8
HIDDEN
100
AcDbLine
 10
19.15095336681955
 20
12.09815566507156
 30
0.0
 11
19.15095336681955
 21
12.53715566507153
 31
0.0
  0
LINE
  5
4700
330
3F56
100
AcDbEntity
  8
HIDDEN
100
AcDbLine
 10
19.11295336681955
 20
12.21315566507156
 30
0.0
 11
19.03295336681972
 21
12.21315566507156
 31
0.0
  0
LINE
  5
4701
330
3F56
100
AcDbEntity
  8
HIDDEN
100
AcDbLine
 10
18.46295336681972
 20
12.09815566507156
 30
0.0
 11
18.46295336681972
 21
12.21315566507156
 31
0.0
  0
LINE
  5
4702
330
3F56
100
AcDbEntity
  8
HIDDEN
100
AcDbLine
 10
18.54295336681955
 20
12.21315566507156
 30
0.0
 11
18.46295336681972
 21
12.21315566507156
 31
0.0
  0
LINE
  5
4703
330
3F56
100
AcDbEntity
  8
HIDDEN
100
AcDbLine
 10
18.54295336681955
 20
12.09815566507156
 30
0.0
 11
18.54295336681955
 21
12.21315566507156
 31
0.0
  0
LINE
  5
4704
330
3F56
100
AcDbEntity
  8
HIDDEN
100
AcDbLine
 10
19.03295336681972
 20
12.09815566507156
 30
0.0
 11
19.03295336681972
 21
12.21315566507156
 31
0.0
  0
LINE
  5
4705
330
3F56
100
AcDbEntity
  8
HIDDEN
100
AcDbLine
 10
19.11295336681955
 20
12.09815566507156
 30
0.0
 11
19.11295336681955
 21
12.21315566507156
 31
0.0
  0
LINE
  5
4706
330
3F56
100
AcDbEntity
  8
HIDDEN
100
AcDbLine
 10
22.27795336681956
 20
12.53715566507156
 30
0.0
 11
22.27795336681956
 21
12.09815566507155
 31
0.0
  0
LINE
  5
4707
330
3F56
100
AcDbEntity
  8
OBJECT
100
AcDbLine
 10
22.33795336681955
 20
12.09815566507155
 30
0.0
 11
22.33795336681955
 21
12.63565566507155
 31
0.0
  0
ARC
  5
4708
330
3F56
100
AcDbEntity
  8
OBJECT
100
AcDbCircle
 10
22.27545336681955
 20
12.63565566507155
 30
0.0
 40
0.0625
100
AcDbArc
 50
0.0
 51
90.0
  0
CIRCLE
  5
4709
330
3F56
100
AcDbEntity
  8
BEND
100
AcDbCircle
 10
24.49978839808804
 20
6.290404618260713
 30
0.0
 40
0.8546624038676203
  0
LINE
  5
470A
102
{ACAD_REACTORS
330
6171
102
}
330
3F56
100
AcDbEntity
  8
OBJECT
100
AcDbLine
 10
24.25472407158266
 20
9.779547325369975
 30
0.0
 11
24.25472407158266
 21
5.844547325369971
 31
0.0
1001
ACAD
1000
ASC_BOUNDS
1002
{
1070
    19
1005
1EE4
1005
1EE4
1002
}
  0
LINE
  5
470B
330
3F56
100
AcDbEntity
  8
OBJECT
100
AcDbLine
 10
24.85472407158264
 20
9.717047325369975
 30
0.0
 11
24.85472407158264
 21
5.907047325369971
 31
0.0
  0
LINE
  5
470C
330
3F56
100
AcDbEntity
  8
OBJECT
100
AcDbLine
 10
24.69472407158264
 20
9.599547325370055
 30
0.0
 11
24.69472407158265
 21
6.844547325369878
 31
0.0
  0
LINE
  5
470D
330
3F56
100
AcDbEntity
  8
OBJECT
100
AcDbLine
 10
24.25472407158266
 20
6.168484825369967
 30
0.0
 11
24.73472407158264
 21
6.168484825369966
 31
0.0
  0
LINE
  5
470E
330
3F56
100
AcDbEntity
  8
OBJECT
100
AcDbLine
 10
24.60972407158266
 20
5.904547325369969
 30
0.0
 11
24.25472407158266
 21
5.904547325369972
 31
0.0
  0
LINE
  5
470F
330
3F56
100
AcDbEntity
  8
OBJECT
100
AcDbLine
 10
24.25472407158266
 20
5.844547325369971
 30
0.0
 11
24.79222407158265
 21
5.844547325369971
 31
0.0
  0
LINE
  5
4716
330
3F56
100
AcDbEntity
  8
OBJECT
100
AcDbLine
 10
24.73472407158264
 20
6.23754732536996
 30
0.0
 11
24.85472407158264
 21
6.237547325369961
 31
0.0
  0
LINE
  5
4717
330
3F56
100
AcDbEntity
  8
OBJECT
100
AcDbLine
 10
24.73472407158264
 20
5.927547325369965
 30
0.0
 11
24.85472407158264
 21
5.927547325369966
 31
0.0
  0
LINE
  5
4718
330
3F56
100
AcDbEntity
  8
OBJECT
100
AcDbLine
 10
24.73472407158264
 20
5.927547325369966
 30
0.0
 11
24.73472407158264
 21
6.23754732536996
 31
0.0
  0
ARC
  5
4719
330
3F56
100
AcDbEntity
  8
OBJECT
100
AcDbCircle
 10
24.79222407158265
 20
5.907047325369971
 30
0.0
 40
0.0625
100
AcDbArc
 50
270.0
 51
0.0
  0
LWPOLYLINE
  5
471A
102
{ACAD_REACTORS
330
6171
102
}
330
3F56
100
AcDbEntity
  8
OBJECT
100
AcDbPolyline
 90
        2
 70
     0
 43
0.0
 10
24.25472407158266
 20
6.808868008306497
 10
24.36972407158267
 20
6.808868008306497
1001
ACAD
1000
ASC_BOUNDS
1002
{
1070
    19
1005
1EE4
1002
}
  0
LWPOLYLINE
  5
471E
102
{ACAD_REACTORS
330
6171
102
}
330
3F56
100
AcDbEntity
  8
OBJECT
100
AcDbPolyline
 90
        3
 70
     0
 43
0.0
 10
24.36972407158267
 20
6.808868008306497
 10
24.36972407158267
 20
6.728868008306497
 10
24.25472407158266
 20
6.728868008306497
1001
ACAD
1000
ASC_BOUNDS
1002
{
1070
    19
1005
1EE4
1002
}
  0
LINE
  5
4723
330
3F56
100
AcDbEntity
  8
OBJECT
100
AcDbLine
 10
24.25472407158268
 20
6.664547325370048
 30
0.0
 11
24.69472407158265
 21
6.664547325370048
 31
0.0
  0
LINE
  5
4724
330
3F56
100
AcDbEntity
  8
OBJECT
100
AcDbLine
 10
24.25472407158268
 20
6.844547325369878
 30
0.0
 11
24.69472407158264
 21
6.844547325369878
 31
0.0
  0
LWPOLYLINE
  5
4725
330
3F56
100
AcDbEntity
  8
OBJECT
100
AcDbPolyline
 90
        2
 70
     0
 43
0.0
 10
24.25472407158266
 20
9.723868008306515
 10
24.36972407158267
 20
9.723868008306515
1001
ACAD
1000
ASC_BOUNDS
1002
{
1070
    19
1005
1EE4
1002
}
  0
LINE
  5
472E
330
3F56
100
AcDbEntity
  8
OBJECT
100
AcDbLine
 10
24.25472407158268
 20
9.599547325370052
 30
0.0
 11
24.69472407158264
 21
9.599547325370055
 31
0.0
  0
LINE
  5
472F
330
3F56
100
AcDbEntity
  8
OBJECT
100
AcDbLine
 10
24.25472407158266
 20
9.779547325369975
 30
0.0
 11
24.79222407158265
 21
9.779547325369975
 31
0.0
  0
ARC
  5
4730
330
3F56
100
AcDbEntity
  8
OBJECT
100
AcDbCircle
 10
24.79222407158265
 20
9.717047325369975
 30
0.0
 40
0.0625
100
AcDbArc
 50
0.0
 51
90.0
  0
DIMENSION
  5
4731
330
3F56
100
AcDbEntity
  8
DIM
100
AcDbDimension
  2
*D6
 10
22.33795336681957
 20
10.99284907659658
 30
0.0
 11
23.59732836681956
 21
10.99284907659658
 31
0.0
 70
    32
  1
<>
 71
     5
 42
0.237999999999996
  3
23NSTD
100
AcDbAlignedDimension
 13
22.09995336681957
 23
9.541547325369965
 33
0.0
 14
22.33795336681957
 24
9.529547325369975
 34
0.0
100
AcDbRotatedDimension
  0
DIMENSION
  5
473F
330
3F56
100
AcDbEntity
  8
DIM
100
AcDbDimension
  2
*D7
 10
22.89158602048975
 20
9.779547325369975
 30
0.0
 11
23.79096102048974
 21
10.49954732536998
 31
0.0
 70
    32
  1
<>
 71
     5
 42
0.2380000000000102
  3
23NSTD
100
AcDbAlignedDimension
 13
22.09995336681957
 23
9.541547325369965
 33
0.0
 14
22.08795336681956
 24
9.779547325369975
 34
0.0
 50
90.0
100
AcDbRotatedDimension
  0
DIMENSION
  5
474D
330
3F56
100
AcDbEntity
  8
DIM
100
AcDbDimension
  2
*D8
 10
30.28890455505369
 20
10.81048585547057
 30
0.0
 11
29.19590455505367
 21
10.81048585547057
 31
0.0
 70
    32
  1
C
 71
     5
 42
2.186000000000017
  3
23NSTD
100
AcDbAlignedDimension
 13
28.10290455505367
 23
9.717047325369975
 33
0.0
 14
30.28890455505369
 24
9.717047325369959
 34
0.0
 50
180.0
100
AcDbRotatedDimension
  0
LINE
  5
475B
330
3F56
100
AcDbEntity
  8
OBJECT
100
AcDbLine
 10
28.74290455505366
 20
9.779547325369975
 30
0.0
 11
30.22640455505367
 21
9.779547325369975
 31
0.0
  0
LINE
  5
475C
330
3F56
100
AcDbEntity
  8
OBJECT
100
AcDbLine
 10
28.74290455505366
 20
5.844547325369971
 30
0.0
 11
30.22640455505367
 21
5.844547325369971
 31
0.0
  0
LINE
  5
475D
330
3F56
100
AcDbEntity
  8
OBJECT
100
AcDbLine
 10
28.10290455505367
 20
9.717047325369975
 30
0.0
 11
28.10290455505367
 21
5.907047325369971
 31
0.0
  0
LINE
  5
475E
330
3F56
100
AcDbEntity
  8
OBJECT
100
AcDbLine
 10
28.70290455505367
 20
9.779547325369975
 30
0.0
 11
28.70290455505367
 21
5.844547325369971
 31
0.0
  0
LINE
  5
475F
330
3F56
100
AcDbEntity
  8
OBJECT
100
AcDbLine
 10
28.74290455505366
 20
9.779547325369975
 30
0.0
 11
28.74290455505366
 21
5.844547325369971
 31
0.0
  0
LINE
  5
4760
330
3F56
100
AcDbEntity
  8
OBJECT
100
AcDbLine
 10
28.70290455505367
 20
5.844547325369971
 30
0.0
 11
28.16540455505368
 21
5.844547325369971
 31
0.0
  0
ARC
  5
4761
330
3F56
100
AcDbEntity
  8
OBJECT
100
AcDbCircle
 10
28.16540455505368
 20
5.907047325369971
 30
0.0
 40
0.0625
100
AcDbArc
 50
180.0
 51
270.0
  0
LINE
  5
4762
330
3F56
100
AcDbEntity
  8
OBJECT
100
AcDbLine
 10
28.70290455505367
 20
5.86454732536998
 30
0.0
 11
28.74290455505366
 21
5.86454732536998
 31
0.0
  0
LINE
  5
4763
330
3F56
100
AcDbEntity
  8
OBJECT
100
AcDbLine
 10
28.70290455505367
 20
9.779547325369975
 30
0.0
 11
28.16540455505368
 21
9.779547325369975
 31
0.0
  0
ARC
  5
4764
330
3F56
100
AcDbEntity
  8
OBJECT
100
AcDbCircle
 10
28.16540455505368
 20
9.717047325369975
 30
0.0
 40
0.0625
100
AcDbArc
 50
90.0
 51
180.0
  0
LINE
  5
4765
330
3F56
100
AcDbEntity
  8
OBJECT
100
AcDbLine
 10
28.70290455505367
 20
9.759547325369981
 30
0.0
 11
28.74290455505366
 21
9.759547325369981
 31
0.0
  0
LINE
  5
4766
330
3F56
100
AcDbEntity
  8
OBJECT
100
AcDbLine
 10
30.28890455505367
 20
9.717047325369975
 30
0.0
 11
30.28890455505367
 21
5.907047325369984
 31
0.0
  0
ARC
  5
4767
330
3F56
100
AcDbEntity
  8
OBJECT
100
AcDbCircle
 10
30.22640455505367
 20
5.907047325369984
 30
0.0
 40
0.0625
100
AcDbArc
 50
270.0
 51
0.0
  0
ARC
  5
4768
330
3F56
100
AcDbEntity
  8
OBJECT
100
AcDbCircle
 10
30.22640455505367
 20
9.717047325369975
 30
0.0
 40
0.0625
100
AcDbArc
 50
0.0
 51
90.0
  0
DIMENSION
  5
4769
330
3F56
100
AcDbEntity
  8
DIM
100
AcDbDimension
  2
*D9
 10
28.10290455505367
 20
10.24848585547057
 30
0.0
 11
26.46852955505367
 21
10.24848585547057
 31
0.0
 70
    32
  1
<> REF.
 71
     5
 42
0.6000000000000015
  3
23NSTD
100
AcDbAlignedDimension
 13
28.70290455505367
 23
9.779547325369975
 33
0.0
 14
28.10290455505367
 24
9.717047325369975
 34
0.0
 50
180.0
100
AcDbRotatedDimension
  0
ARC
  5
4777
330
3F56
100
AcDbEntity
  8
OBJECT
100
AcDbCircle
 10
22.09995336681957
 20
9.541547325369965
 30
0.0
 40
0.25
100
AcDbArc
 50
134.6021253162433
 51
315.3978746837525
  0
CIRCLE
  5
4778
330
3F56
100
AcDbEntity
  8
OBJECT
100
AcDbCircle
 10
18.64095336681954
 20
9.541547325369965
 30
0.0
 40
0.155
  0
ARC
  5
4779
330
3F56
100
AcDbEntity
  8
OBJECT
100
AcDbCircle
 10
18.64095336681954
 20
9.541547325369965
 30
0.0
 40
0.25
100
AcDbArc
 50
224.6021253162475
 51
45.39787468375656
  0
CIRCLE
  5
477A
330
3F56
100
AcDbEntity
  8
OBJECT
100
AcDbCircle
 10
22.09995336681957
 20
6.081547325369967
 30
0.0
 40
0.155
  0
ARC
  5
477B
330
3F56
100
AcDbEntity
  8
OBJECT
100
AcDbCircle
 10
22.09995336681957
 20
6.08254732536998
 30
0.0
 40
0.25
100
AcDbArc
 50
44.6021253162475
 51
225.3978746837565
  0
ARC
  5
477C
330
3F56
100
AcDbEntity
  8
OBJECT
100
AcDbCircle
 10
18.64095336681954
 20
6.08254732536998
 30
0.0
 40
0.25
100
AcDbArc
 50
314.6021253162434
 51
135.3978746837524
  0
CIRCLE
  5
477D
330
3F56
100
AcDbEntity
  8
OBJECT
100
AcDbCircle
 10
18.64095336681954
 20
6.081547325369967
 30
0.0
 40
0.155
  0
CIRCLE
  5
477E
330
3F56
100
AcDbEntity
  8
OBJECT
100
AcDbCircle
 10
18.64095336681954
 20
6.081547325369967
 30
0.0
 40
0.086
  0
DIMENSION
  5
477F
330
3F56
100
AcDbEntity
  8
DIM
100
AcDbDimension
  2
*D10
 10
24.85472407158264
 20
8.368948665648181
 30
0.0
 11
26.06722407158264
 21
8.368948665648181
 31
0.0
 70
    32
 71
     5
 42
0.1599999999999895
  3
23NSTD
100
AcDbAlignedDimension
 13
24.69472407158265
 23
8.365199638041808
 33
0.0
 14
24.85472407158264
 24
8.365199638041808
 34
0.0
100
AcDbRotatedDimension
  0
LINE
  5
478D
330
3F56
100
AcDbEntity
  8
OBJECT
100
AcDbLine
 10
24.25472407158266
 20
5.99660982536996
 30
0.0
 11
24.73472407158264
 21
5.996609825369959
 31
0.0
  0
LINE
  5
478E
330
3F56
100
AcDbEntity
  8
OBJECT
100
AcDbLine
 10
24.69472407158265
 20
6.664547325370048
 30
0.0
 11
24.69472407158265
 21
6.332547325369983
 31
0.0
  0
LINE
  5
478F
330
3F56
100
AcDbEntity
  8
OBJECT
100
AcDbLine
 10
24.25472407158266
 20
6.236547325369967
 30
0.0
 11
24.60972407158267
 21
6.236547325369968
 31
0.0
  0
LINE
  5
4790
330
3F56
100
AcDbEntity
  8
OBJECT
100
AcDbLine
 10
24.25472407158266
 20
5.926547325369965
 30
0.0
 11
24.60972407158267
 21
5.926547325369965
 31
0.0
  0
LINE
  5
4791
330
3F56
100
AcDbEntity
  8
OBJECT
100
AcDbLine
 10
24.60972407158266
 20
6.332547325369983
 30
0.0
 11
24.69472407158265
 21
6.332547325369983
 31
0.0
  0
LINE
  5
4792
330
3F56
100
AcDbEntity
  8
OBJECT
100
AcDbLine
 10
24.60972407158266
 20
6.332547325369983
 30
0.0
 11
24.60972407158264
 21
6.236547325369967
 31
0.0
  0
LINE
  5
4793
330
3F56
100
AcDbEntity
  8
OBJECT
100
AcDbLine
 10
24.60972407158264
 20
5.926547325369965
 30
0.0
 11
24.60972407158266
 21
5.904547325369969
 31
0.0
  0
DIMENSION
  5
4794
330
3F56
100
AcDbEntity
  8
DIM
100
AcDbDimension
  2
*D11
 10
5.609794997194114
 20
9.779547325369982
 30
0.0
 11
6.509169997194113
 21
10.77055590149756
 31
0.0
 70
   160
 71
     5
 42
0.3960000000000026
  3
23NSTD
100
AcDbAlignedDimension
 13
6.067348363955385
 23
9.383547325369979
 33
0.0
 14
6.067348363955385
 24
9.779547325369982
 34
0.0
 50
90.0
100
AcDbRotatedDimension
  0
DIMENSION
  5
47A2
330
3F56
100
AcDbEntity
  8
DIM
100
AcDbDimension
  2
*D12
 10
3.409562554358193
 20
9.779547325369977
 30
0.0
 11
3.409562554358191
 21
9.307547325369981
 31
0.0
 70
    32
  1
<>
 71
     5
 42
0.9439999999999937
  3
23NSTD
100
AcDbAlignedDimension
 13
4.346848363955394
 23
8.835547325369981
 33
0.0
 14
4.349848363955381
 24
9.779547325369975
 34
0.0
 50
90.0
100
AcDbRotatedDimension
  0
DIMENSION
  5
47B0
330
3F56
100
AcDbEntity
  8
DIM
100
AcDbDimension
  2
*D13
 10
2.414696569837481
 20
9.779547325369977
 30
0.0
 11
2.414696569837479
 21
9.443547325369975
 31
0.0
 70
    32
  1
<>
 71
     5
 42
0.6720000000000042
  3
23NSTD
100
AcDbAlignedDimension
 13
4.379848363955376
 23
9.107547325369971
 33
0.0
 14
4.349848363955381
 24
9.779547325369975
 34
0.0
 50
270.0
100
AcDbRotatedDimension
  0
DIMENSION
  5
47BE
330
3F56
100
AcDbEntity
  8
DIM
100
AcDbDimension
  2
*D14
 10
4.099848363955381
 20
12.18148190822166
 30
0.0
 11
2.840473363955381
 21
12.18148190822166
 31
0.0
 70
    32
  1
<>
 71
     5
 42
0.4329999999999928
  3
23NSTD
100
AcDbAlignedDimension
 13
4.532848363955373
 23
8.529547325369977
 33
0.0
 14
4.099848363955381
 24
9.529547325369975
 34
0.0
100
AcDbRotatedDimension
  0
DIMENSION
  5
47CC
330
3F56
100
AcDbEntity
  8
DIM
100
AcDbDimension
  2
*D15
 10
4.532848363955373
 20
12.18148190822166
 30
0.0
 11
6.067348363955384
 21
12.18148190822166
 31
0.0
 70
    32
 71
     5
 42
3.06900000000002
  3
23NSTD
100
AcDbAlignedDimension
 13
7.601848363955394
 23
8.529547325369977
 33
0.0
 14
4.532848363955373
 24
8.529547325369977
 34
0.0
100
AcDbRotatedDimension
  0
DIMENSION
  5
47DA
330
3F56
100
AcDbEntity
  8
DIM
100
AcDbDimension
  2
*D16
 10
8.034848363955394
 20
13.30548190822166
 30
0.0
 11
6.067348363955387
 21
13.30548190822166
 31
0.0
 70
    32
 71
     5
 42
3.935000000000012
  3
23NSTD
100
AcDbAlignedDimension
 13
4.099848363955381
 23
9.529547325369982
 33
0.0
 14
8.034848363955394
 24
9.529547325369982
 34
0.0
 50
180.0
100
AcDbRotatedDimension
  0
DIMENSION
  5
47E8
330
3F56
100
AcDbEntity
  8
DIM
100
AcDbDimension
  2
*D17
 10
6.067348363955385
 20
11.63094516520541
 30
0.0
 11
5.06078862348353
 21
11.63094516520541
 31
0.0
 70
   160
 71
     5
 42
1.967500000000004
  3
23NSTD
100
AcDbAlignedDimension
 13
4.099848363955381
 23
9.529547325369975
 33
0.0
 14
6.067348363955385
 24
9.383547325369974
 34
0.0
 50
180.0
100
AcDbRotatedDimension
  0
DIMENSION
  5
47F5
330
3F56
100
AcDbEntity
  8
DIM
100
AcDbDimension
  2
*D18
 10
6.787920184087105
 20
5.844547325369971
 30
0.0
 11
5.544795184087104
 21
5.124547325369973
 31
0.0
 70
    32
  1
<> TYP.
 71
     5
 42
0.1149999999999949
  3
23NSTD
100
AcDbAlignedDimension
 13
6.913920184087105
 23
5.959547325369966
 33
0.0
 14
6.91392018408712
 24
5.844547325369971
 34
0.0
 50
270.0
100
AcDbRotatedDimension
  0
DIMENSION
  5
4803
330
3F56
100
AcDbEntity
  8
DIM
100
AcDbDimension
  2
*D19
 10
7.919848363955384
 20
8.366680800550833
 30
0.0
 11
6.06734836395538
 21
8.366680800550833
 31
0.0
 70
    32
 71
     5
 42
3.705000000000009
  3
23NSTD
100
AcDbAlignedDimension
 13
4.214848363955375
 23
8.102909402512869
 33
0.0
 14
7.919848363955384
 24
8.102909402512862
 34
0.0
100
AcDbRotatedDimension
  0
DIMENSION
  5
4811
330
3F56
100
AcDbEntity
  8
DIM
100
AcDbDimension
  2
*D20
 10
4.787848363955382
 20
4.617148762369244
 30
0.0
 11
6.067348363955386
 21
4.617148762369244
 31
0.0
 70
    32
 71
     5
 42
2.559000000000008
  3
23NSTD
100
AcDbAlignedDimension
 13
7.34684836395539
 23
6.091547325369971
 33
0.0
 14
4.787848363955382
 24
6.091547325369971
 34
0.0
100
AcDbRotatedDimension
  0
LWPOLYLINE
  5
481F
330
3F56
100
AcDbEntity
  8
OBJECT
100
AcDbPolyline
 90
        8
 70
     1
 43
0.0
 10
4.349848363955381
 20
5.86454732536997
 10
7.784848363955394
 20
5.86454732536997
 42
0.4142135623730962
 10
8.01484836395539
 20
6.094547325369971
 10
8.01484836395539
 20
9.529547325369975
 42
0.4142135623730916
 10
7.784848363955394
 20
9.75954732536997
 10
4.349848363955381
 20
9.75954732536997
 42
0.4142135623730916
 10
4.119848363955376
 20
9.529547325369975
 10
4.119848363955376
 20
6.094547325369971
 42
0.4142135623730962
  0
LWPOLYLINE
  5
4829
330
3F56
100
AcDbEntity
  8
OBJECT
100
AcDbPolyline
 90
       24
 70
     1
 43
0.0
 10
4.174848363955383
 20
8.703547325369976
 10
4.174848363955383
 20
6.919547325369964
 42
0.4142135623731044
 10
4.34684836395538
 20
6.74754732536996
 10
4.544848363955373
 20
6.747547325369968
 42
-0.4142135623731029
 10
4.74784836395539
 20
6.54454732536997
 10
4.747848363955375
 20
6.091547325369971
 42
0.4142135623730982
 10
4.919848363955388
 20
5.919547325369967
 10
7.2148483639554
 20
5.919547325369967
 42
0.4142135623730863
 10
7.386848363955397
 20
6.091547325369971
 10
7.386848363955397
 20
6.544547325369977
 42
-0.4142135623731131
 10
7.5898483639554
 20
6.747547325369973
 10
7.787848363955379
 20
6.74754732536996
 42
0.4142135623730921
 10
7.959848363955391
 20
6.919547325369956
 10
7.959848363955391
 20
8.70354732536998
 42
0.4142135623731165
 10
7.787848363955379
 20
8.875547325369977
 10
7.5898483639554
 20
8.875547325369964
 42
-0.4142135623731181
 10
7.386848363955397
 20
9.07854732536996
 10
7.386848363955397
 20
9.532547325369975
 42
0.4142135623730921
 10
7.2148483639554
 20
9.70454732536997
 10
4.919848363955388
 20
9.70454732536997
 42
0.4142135623731042
 10
4.747848363955375
 20
9.532547325369975
 10
4.74784836395539
 20
9.078547325369976
 42
-0.4142135623731334
 10
4.544848363955373
 20
8.875547325369964
 10
4.346848363955408
 20
8.875547325369977
 42
0.4142135623731224
  0
LWPOLYLINE
  5
4843
330
3F56
100
AcDbEntity
  8
OBJECT
100
AcDbPolyline
 90
       24
 70
     1
 43
0.0
 10
4.214848363955375
 20
8.703547325369976
 10
4.214848363955375
 20
6.919547325369964
 42
0.4142135623731085
 10
4.34684836395538
 20
6.78754732536996
 10
4.544848363955373
 20
6.787547325369965
 42
-0.4142135623730966
 10
4.787848363955382
 20
6.54454732536997
 10
4.787848363955382
 20
6.091547325369971
 42
0.4142135623731085
 10
4.919848363955388
 20
5.959547325369966
 10
7.2148483639554
 20
5.959547325369966
 42
0.4142135623730927
 10
7.34684836395539
 20
6.091547325369971
 10
7.34684836395539
 20
6.544547325369977
 42
-0.4142135623731094
 10
7.5898483639554
 20
6.787547325369972
 10
7.787848363955379
 20
6.78754732536996
 42
0.4142135623730927
 10
7.919848363955384
 20
6.919547325369956
 10
7.919848363955384
 20
8.70354732536998
 42
0.4142135623731005
 10
7.787848363955379
 20
8.835547325369981
 10
7.5898483639554
 20
8.835547325369965
 42
-0.414213562373118
 10
7.34684836395539
 20
9.07854732536996
 10
7.34684836395539
 20
9.532547325369975
 42
0.4142135623730847
 10
7.2148483639554
 20
9.664547325369971
 10
4.919848363955388
 20
9.664547325369971
 42
0.4142135623730927
 10
4.787848363955382
 20
9.532547325369975
 10
4.787848363955382
 20
9.078547325369976
 42
-0.4142135623731264
 10
4.544848363955373
 20
8.835547325369965
 10
4.346848363955394
 20
8.835547325369981
 42
0.4142135623731164
  0
LWPOLYLINE
  5
485D
330
3F56
100
AcDbEntity
  8
OBJECT
100
AcDbPolyline
 90
        8
 70
     1
 43
0.0
 10
4.349848363955381
 20
5.844547325369971
 10
7.784848363955394
 20
5.844547325369971
 42
0.4142135623730951
 10
8.034848363955394
 20
6.094547325369971
 10
8.034848363955394
 20
9.529547325369975
 42
0.4142135623730951
 10
7.784848363955394
 20
9.779547325369975
 10
4.349848363955381
 20
9.779547325369975
 42
0.4142135623730951
 10
4.099848363955381
 20
9.529547325369975
 10
4.099848363955381
 20
6.094547325369971
 42
0.4142135623730951
  0
DIMENSION
  5
4867
330
3F56
100
AcDbEntity
  8
DIM
100
AcDbDimension
  2
*D21
 10
4.099848363955381
 20
4.617148762369244
 30
0.0
 11
2.840473363955381
 21
4.617148762369244
 31
0.0
 70
    32
  1
<>
 71
     5
 42
0.6880000000000015
  3
23NSTD
100
AcDbAlignedDimension
 13
4.787848363955382
 23
6.091547325369971
 33
0.0
 14
4.099848363955381
 24
6.094547325369971
 34
0.0
100
AcDbRotatedDimension
  0
DIMENSION
  5
4875
330
3F56
100
AcDbEntity
  8
DIM
100
AcDbDimension
  2
*D22
 10
1.330184681067215
 20
5.844547325369972
 30
0.0
 11
1.330184681067215
 21
7.812047325369975
 31
0.0
 70
    32
 71
     5
 42
3.935000000000004
  3
23NSTD
100
AcDbAlignedDimension
 13
4.349848363955381
 23
9.779547325369975
 33
0.0
 14
4.349848363955381
 24
5.844547325369971
 34
0.0
 50
90.0
100
AcDbRotatedDimension
  0
DIMENSION
  5
4883
330
3F56
100
AcDbEntity
  8
DIM
100
AcDbDimension
  2
*D23
 10
5.609794997194115
 20
9.383547325369974
 30
0.0
 11
5.609794997194114
 21
7.811547325369974
 31
0.0
 70
    32
 71
     5
 42
3.144000000000004
  3
23NSTD
100
AcDbAlignedDimension
 13
6.067348363955385
 23
6.23954732536997
 33
0.0
 14
6.067348363955385
 24
9.383547325369974
 34
0.0
 50
90.0
100
AcDbRotatedDimension
  0
DIMENSION
  5
4891
330
3F56
100
AcDbEntity
  8
DIM
100
AcDbDimension
  2
*D24
 10
3.409562554358193
 20
8.835547325369983
 30
0.0
 11
3.409562554358191
 21
7.811547325369972
 31
0.0
 70
    32
 71
     5
 42
2.048000000000022
  3
23NSTD
100
AcDbAlignedDimension
 13
4.34684836395538
 23
6.78754732536996
 33
0.0
 14
4.346848363955394
 24
8.835547325369981
 34
0.0
 50
90.0
100
AcDbRotatedDimension
  0
DIMENSION
  5
489F
330
3F56
100
AcDbEntity
  8
DIM
100
AcDbDimension
  2
*D25
 10
2.414696569837481
 20
9.107547325369973
 30
0.0
 11
2.414696569837479
 21
7.811547325369975
 31
0.0
 70
    32
 71
     5
 42
2.591999999999996
  3
23NSTD
100
AcDbAlignedDimension
 13
4.379848363955376
 23
6.515547325369975
 33
0.0
 14
4.379848363955376
 24
9.107547325369971
 34
0.0
 50
270.0
100
AcDbRotatedDimension
  0
CIRCLE
  5
48AD
330
3F56
100
AcDbEntity
  8
OBJECT
100
AcDbCircle
 10
4.337848363955362
 20
6.081547325369982
 30
0.0
 40
0.125
  0
CIRCLE
  5
48AE
330
3F56
100
AcDbEntity
  8
OBJECT
100
AcDbCircle
 10
4.379848363955375
 20
6.515547325369976
 30
0.0
 40
0.085
  0
CIRCLE
  5
48AF
330
3F56
100
AcDbEntity
  8
OBJECT
100
AcDbCircle
 10
6.067348363955385
 20
6.239547325369969
 30
0.0
 40
0.045
  0
ARC
  5
48B0
330
3F56
100
AcDbEntity
  8
HIDDEN
100
AcDbCircle
 10
4.337848363955377
 20
6.081547325369982
 30
0.0
 40
0.191
100
AcDbArc
 50
309.6790104222368
 51
67.92635219826127
  0
CIRCLE
  5
48B1
330
3F56
100
AcDbEntity
  8
OBJECT
100
AcDbCircle
 10
4.337848363955362
 20
6.081547325369982
 30
0.0
 40
0.0785
  0
CIRCLE
  5
48B6
330
3F56
100
AcDbEntity
  8
OBJECT
100
AcDbCircle
 10
4.532848363955373
 20
7.457047325369977
 30
0.0
 40
0.087
  0
CIRCLE
  5
48B7
330
3F56
100
AcDbEntity
  8
OBJECT
100
AcDbCircle
 10
4.532848363955373
 20
7.457047325369977
 30
0.0
 40
0.149
  0
CIRCLE
  5
48B8
330
3F56
100
AcDbEntity
  8
OBJECT
100
AcDbCircle
 10
4.532848363955373
 20
7.457047325369977
 30
0.0
 40
0.175
  0
CIRCLE
  5
48B9
330
3F56
100
AcDbEntity
  8
OBJECT
100
AcDbCircle
 10
4.337848363955362
 20
9.541547325369965
 30
0.0
 40
0.125
  0
CIRCLE
  5
48BA
330
3F56
100
AcDbEntity
  8
OBJECT
100
AcDbCircle
 10
4.379848363955375
 20
9.107547325369971
 30
0.0
 40
0.085
  0
CIRCLE
  5
48BB
330
3F56
100
AcDbEntity
  8
OBJECT
100
AcDbCircle
 10
4.532848363955373
 20
8.167047325369978
 30
0.0
 40
0.175
  0
CIRCLE
  5
48BC
330
3F56
100
AcDbEntity
  8
OBJECT
100
AcDbCircle
 10
4.532848363955373
 20
8.167047325369978
 30
0.0
 40
0.149
  0
CIRCLE
  5
48BD
330
3F56
100
AcDbEntity
  8
OBJECT
100
AcDbCircle
 10
4.532848363955373
 20
8.167047325369978
 30
0.0
 40
0.087
  0
CIRCLE
  5
48BE
330
3F56
100
AcDbEntity
  8
OBJECT
100
AcDbCircle
 10
4.532848363955373
 20
8.529547325369977
 30
0.0
 40
0.09375
  0
ARC
  5
48BF
330
3F56
100
AcDbEntity
  8
OBJECT
100
AcDbCircle
 10
4.532848363955373
 20
8.529547325369977
 30
0.0
 40
0.16
100
AcDbArc
 50
197.0825866192883
 51
342.9174133807116
  0
CIRCLE
  5
48C0
330
3F56
100
AcDbEntity
  8
OBJECT
100
AcDbCircle
 10
4.532848363955373
 20
8.529547325369977
 30
0.0
 40
0.1375
  0
CIRCLE
  5
48C1
330
3F56
100
AcDbEntity
  8
OBJECT
100
AcDbCircle
 10
4.532848363955373
 20
8.529547325369977
 30
0.0
 40
0.059
  0
ARC
  5
48C2
330
3F56
100
AcDbEntity
  8
HIDDEN
100
AcDbCircle
 10
4.337848363955377
 20
9.541547325369965
 30
0.0
 40
0.191
100
AcDbArc
 50
292.8586537377189
 51
50.79316713818631
  0
CIRCLE
  5
48C3
330
3F56
100
AcDbEntity
  8
OBJECT
100
AcDbCircle
 10
4.337848363955362
 20
9.541547325369965
 30
0.0
 40
0.0785
  0
CIRCLE
  5
48C4
330
3F56
100
AcDbEntity
  8
OBJECT
100
AcDbCircle
 10
6.067348363955385
 20
9.383547325369974
 30
0.0
 40
0.045
  0
DIMENSION
  5
48CB
330
3F56
100
AcDbEntity
  8
DIM
100
AcDbDimension
  2
*D26
 10
6.787920184087106
 20
9.664547325369971
 30
0.0
 11
6.787920184087105
 21
7.81204732536997
 31
0.0
 70
    32
 71
     5
 42
3.705000000000005
  3
23NSTD
100
AcDbAlignedDimension
 13
6.913920184087105
 23
5.959547325369966
 33
0.0
 14
6.913920184087105
 24
9.664547325369971
 34
0.0
 50
270.0
100
AcDbRotatedDimension
  0
ATTDEF
  5
48DF
330
3F56
100
AcDbEntity
  8
BEND
100
AcDbText
 10
7.830583902241217
 20
5.390649400502393
 30
0.0
 40
0.25
  1

  7
SECTION
 72
     4
 11
7.949631521288836
 21
5.515649400502393
 31
0.0
100
AcDbAttributeDefinition
  3

  2
A
 70
     0
  0
CIRCLE
  5
48E0
330
3F56
100
AcDbEntity
  8
OBJECT
100
AcDbCircle
 10
7.797848363955397
 20
6.081547325369982
 30
0.0
 40
0.125
  0
CIRCLE
  5
48E1
330
3F56
100
AcDbEntity
  8
OBJECT
100
AcDbCircle
 10
7.797848363955397
 20
6.081547325369982
 30
0.0
 40
0.0785
  0
ARC
  5
48E2
330
3F56
100
AcDbEntity
  8
HIDDEN
100
AcDbCircle
 10
7.797848363955397
 20
6.081547325369982
 30
0.0
 40
0.191
100
AcDbArc
 50
112.0736478017387
 51
230.3209895777631
  0
CIRCLE
  5
48E7
330
3F56
100
AcDbEntity
  8
OBJECT
100
AcDbCircle
 10
7.754848363955398
 20
6.515547325369976
 30
0.0
 40
0.085
  0
CIRCLE
  5
48E8
330
3F56
100
AcDbEntity
  8
OBJECT
100
AcDbCircle
 10
7.601848363955394
 20
7.457047325369977
 30
0.0
 40
0.087
  0
CIRCLE
  5
48E9
330
3F56
100
AcDbEntity
  8
OBJECT
100
AcDbCircle
 10
7.601848363955394
 20
8.167047325369978
 30
0.0
 40
0.175
  0
CIRCLE
  5
48EA
330
3F56
100
AcDbEntity
  8
OBJECT
100
AcDbCircle
 10
7.601848363955394
 20
8.167047325369978
 30
0.0
 40
0.087
  0
ARC
  5
48EF
330
3F56
100
AcDbEntity
  8
HIDDEN
100
AcDbCircle
 10
7.797848363955397
 20
9.541547325369965
 30
0.0
 40
0.191
100
AcDbArc
 50
129.2068328618136
 51
247.1413462622809
  0
CIRCLE
  5
48F0
330
3F56
100
AcDbEntity
  8
OBJECT
100
AcDbCircle
 10
7.797848363955397
 20
9.541547325369965
 30
0.0
 40
0.0785
  0
CIRCLE
  5
48F1
330
3F56
100
AcDbEntity
  8
OBJECT
100
AcDbCircle
 10
7.797848363955397
 20
9.541547325369965
 30
0.0
 40
0.125
  0
CIRCLE
  5
48F2
330
3F56
100
AcDbEntity
  8
OBJECT
100
AcDbCircle
 10
7.754848363955398
 20
9.107547325369971
 30
0.0
 40
0.085
  0
ATTDEF
  5
48F3
330
3F56
100
AcDbEntity
  8
BEND
100
AcDbText
 10
7.257746885981828
 20
10.00277561442048
 30
0.0
 40
0.25
  1

  7
SECTION
 72
     4
 11
7.376794505029447
 21
10.12777561442048
 31
0.0
100
AcDbAttributeDefinition
  3

  2
A
 70
     0
  0
LINE
  5
48F4
330
3F56
100
AcDbEntity
  8
HIDDEN
100
AcDbLine
 10
4.214848363955377
 20
1.92349344675274
 30
0.0
 11
7.9198483639554
 21
1.923493446752718
 31
0.0
  0
LINE
  5
48F5
330
3F56
100
AcDbEntity
  8
OBJECT
100
AcDbLine
 10
7.959848363955391
 20
3.44149344675274
 30
0.0
 11
4.174848363955383
 21
3.44149344675274
 31
0.0
  0
LINE
  5
48F6
330
3F56
100
AcDbEntity
  8
OBJECT
100
AcDbLine
 10
4.119848363955389
 20
3.382493446752739
 30
0.0
 11
8.014848363955398
 21
3.382493446752746
 31
0.0
  0
LINE
  5
48F7
330
3F56
100
AcDbEntity
  8
OBJECT
100
AcDbLine
 10
4.099848363955381
 20
3.34249344675274
 30
0.0
 11
8.034848363955394
 21
3.34249344675274
 31
0.0
  0
LINE
  5
48F8
330
3F56
100
AcDbEntity
  8
OBJECT
100
AcDbLine
 10
4.162348363955381
 20
1.796493446752741
 30
0.0
 11
7.972348363955394
 21
1.796493446752741
 31
0.0
  0
LINE
  5
48F9
330
3F56
100
AcDbEntity
  8
HIDDEN
100
AcDbLine
 10
4.403848363955379
 20
3.382493446752739
 30
0.0
 11
4.403848363955379
 21
3.067493446752749
 31
0.0
  0
LINE
  5
48FA
330
3F56
100
AcDbEntity
  8
HIDDEN
100
AcDbLine
 10
4.271848363955374
 20
3.382493446752739
 30
0.0
 11
4.271848363955374
 21
3.067493446752749
 31
0.0
  0
LINE
  5
48FB
330
3F56
100
AcDbEntity
  8
HIDDEN
100
AcDbLine
 10
4.462848363955377
 20
3.382493446752739
 30
0.0
 11
4.462848363955377
 21
3.067493446752749
 31
0.0
  0
LINE
  5
48FC
330
3F56
100
AcDbEntity
  8
HIDDEN
100
AcDbLine
 10
4.212848363955377
 20
3.382493446752739
 30
0.0
 11
4.212848363955377
 21
3.067493446752749
 31
0.0
  0
LINE
  5
48FD
330
3F56
100
AcDbEntity
  8
HIDDEN
100
AcDbLine
 10
4.1898483639554
 20
3.382493446752739
 30
0.0
 11
4.189848363955384
 21
1.796493446752741
 31
0.0
  0
LINE
  5
48FE
330
3F56
100
AcDbEntity
  8
OBJECT
100
AcDbLine
 10
4.099848363955381
 20
3.34249344675274
 30
0.0
 11
4.099848363955381
 21
1.858993446752741
 31
0.0
  0
LINE
  5
48FF
330
3F56
100
AcDbEntity
  8
HIDDEN
100
AcDbLine
 10
4.214848363955377
 20
1.92349344675274
 30
0.0
 11
4.21484836395539
 21
3.44149344675274
 31
0.0
  0
LINE
  5
4900
330
3F56
100
AcDbEntity
  8
HIDDEN
100
AcDbLine
 10
4.722848363955369
 20
1.796493446752741
 30
0.0
 11
4.722848363955371
 21
3.382493446752718
 31
0.0
  0
LINE
  5
4901
330
3F56
100
AcDbEntity
  8
HIDDEN
100
AcDbLine
 10
4.787848363955367
 20
1.923493446752686
 30
0.0
 11
4.787848363955383
 21
3.44149344675274
 31
0.0
  0
LINE
  5
4902
330
3F56
100
AcDbEntity
  8
HIDDEN
100
AcDbLine
 10
4.412044051161611
 20
3.271493446752753
 30
0.0
 11
4.722848363955369
 21
3.271493446752753
 31
0.0
  0
LINE
  5
4903
330
3F56
100
AcDbEntity
  8
OBJECT
100
AcDbLine
 10
4.174848363955383
 20
3.44149344675274
 30
0.0
 11
4.174848363955383
 21
3.382493446752739
 31
0.0
  0
LINE
  5
4904
330
3F56
100
AcDbEntity
  8
OBJECT
100
AcDbLine
 10
4.119848363955389
 20
3.382493446752746
 30
0.0
 11
4.119848363955389
 21
3.34249344675274
 31
0.0
  0
LINE
  5
4905
330
3F56
100
AcDbEntity
  8
OBJECT
100
AcDbLine
 10
4.747848363955434
 20
3.441493446752758
 30
0.0
 11
4.747848363955434
 21
3.382493446752746
 31
0.0
  0
LINE
  5
4906
330
3F56
100
AcDbEntity
  8
HIDDEN
100
AcDbLine
 10
4.189848363955384
 20
3.067493446752749
 30
0.0
 11
4.52884836395539
 21
3.067493446752749
 31
0.0
  0
ARC
  5
4907
330
3F56
100
AcDbEntity
  8
OBJECT
100
AcDbCircle
 10
4.162348363955381
 20
1.858993446752741
 30
0.0
 40
0.0625
100
AcDbArc
 50
180.0
 51
270.0
  0
DIMENSION
  5
4908
330
3F56
100
AcDbEntity
  8
DIM
100
AcDbDimension
  2
*D27
 10
3.643034150838645
 20
3.44149344675274
 30
0.0
 11
3.643034150838644
 21
2.618993446752742
 31
0.0
 70
   160
  1
A
 71
     5
 42
1.644999999999999
  3
23NSTD
100
AcDbAlignedDimension
 13
4.162348363955381
 23
1.796493446752741
 33
0.0
 14
4.177848363955383
 24
3.44149344675274
 34
0.0
 50
270.0
100
AcDbRotatedDimension
  0
LINE
  5
4916
330
3F56
100
AcDbEntity
  8
OBJECT
100
AcDbLine
 10
8.034848363955394
 20
3.34249344675274
 30
0.0
 11
8.034848363955394
 21
1.858993446752741
 31
0.0
  0
LINE
  5
4917
330
3F56
100
AcDbEntity
  8
OBJECT
100
AcDbLine
 10
7.386848363955355
 20
3.44149344675274
 30
0.0
 11
7.386848363955355
 21
3.382493446752739
 31
0.0
  0
LINE
  5
4918
330
3F56
100
AcDbEntity
  8
OBJECT
100
AcDbLine
 10
7.959848363955391
 20
3.44149344675274
 30
0.0
 11
7.959848363955391
 21
3.382493446752739
 31
0.0
  0
LINE
  5
4919
330
3F56
100
AcDbEntity
  8
OBJECT
100
AcDbLine
 10
8.014848363955398
 20
3.382493446752746
 30
0.0
 11
8.014848363955398
 21
3.34249344675274
 31
0.0
  0
ARC
  5
491A
330
3F56
100
AcDbEntity
  8
OBJECT
100
AcDbCircle
 10
7.972348363955394
 20
1.858993446752741
 30
0.0
 40
0.0625
100
AcDbArc
 50
270.0
 51
0.0
  0
LINE
  5
491B
102
{ACAD_REACTORS
330
6427
102
}
330
3F56
100
AcDbEntity
  8
OBJECT
100
AcDbLine
 10
12.58223747020355
 20
5.922547325369967
 30
0.0
 11
12.58223747020355
 21
9.70454732536997
 31
0.0
  0
LINE
  5
491C
102
{ACAD_REACTORS
330
6427
102
}
330
3F56
100
AcDbEntity
  8
OBJECT
100
AcDbLine
 10
14.22723747020355
 20
9.717047325369971
 30
0.0
 11
14.22723747020355
 21
5.907047325369973
 31
0.0
  0
LINE
  5
491D
102
{ACAD_REACTORS
330
6427
102
}
330
3F56
100
AcDbEntity
  8
OBJECT
100
AcDbLine
 10
12.95623747020354
 20
5.934547325369973
 30
0.0
 11
14.22723747020355
 21
5.934547325369964
 31
0.0
  0
LINE
  5
491E
102
{ACAD_REACTORS
330
6427
102
}
330
3F56
100
AcDbEntity
  8
OBJECT
100
AcDbLine
 10
12.95623747020354
 20
6.258547325369964
 30
0.0
 11
14.22723747020355
 21
6.258547325369961
 31
0.0
  0
LINE
  5
491F
102
{ACAD_REACTORS
330
6427
102
}
330
3F56
100
AcDbEntity
  8
OBJECT
100
AcDbLine
 10
14.10023747020356
 20
6.324547325369955
 30
0.0
 11
12.64123747020356
 21
6.324547325369963
 31
0.0
  0
LINE
  5
4920
102
{ACAD_REACTORS
330
6427
102
}
330
3F56
100
AcDbEntity
  8
OBJECT
100
AcDbLine
 10
14.10023747020356
 20
6.717547325369898
 30
0.0
 11
12.64123747020358
 21
6.717547325369907
 31
0.0
  0
LINE
  5
4921
102
{ACAD_REACTORS
330
6427
102
}
330
3F56
100
AcDbEntity
  8
OBJECT
100
AcDbLine
 10
14.10023747020356
 20
6.787547325369952
 30
0.0
 11
12.58223747020355
 21
6.78754732536996
 31
0.0
  0
LINE
  5
4922
102
{ACAD_REACTORS
330
6427
102
}
330
3F56
100
AcDbEntity
  8
OBJECT
100
AcDbLine
 10
12.68123747020355
 20
5.844547325369971
 30
0.0
 11
14.16473747020355
 21
5.844547325369966
 31
0.0
  0
LINE
  5
4923
102
{ACAD_REACTORS
330
6427
102
}
330
3F56
100
AcDbEntity
  8
OBJECT
100
AcDbLine
 10
12.64123747020355
 20
6.74754732537001
 30
0.0
 11
12.64123747020355
 21
5.86454732536997
 31
0.0
  0
LINE
  5
4924
330
3F56
100
AcDbEntity
  8
OBJECT
100
AcDbLine
 10
12.58223747020355
 20
5.922547325369967
 30
0.0
 11
12.64123747020356
 21
5.922547325369969
 31
0.0
  0
LINE
  5
4925
102
{ACAD_REACTORS
330
6427
102
}
330
3F56
100
AcDbEntity
  8
OBJECT
100
AcDbLine
 10
12.68123747020354
 20
5.86454732536997
 30
0.0
 11
12.68123747020355
 21
5.844547325369971
 31
0.0
  0
LINE
  5
4926
102
{ACAD_REACTORS
330
6427
102
}
330
3F56
100
AcDbEntity
  8
OBJECT
100
AcDbLine
 10
12.64123747020355
 20
5.86454732536997
 30
0.0
 11
12.68123747020355
 21
5.86454732536997
 31
0.0
  0
LWPOLYLINE
  5
4927
330
3F56
100
AcDbEntity
  8
OBJECT
 62
     4
100
AcDbPolyline
 90
        4
 70
     1
 43
0.0
 10
12.64123747020354
 20
6.206547325369982
 10
12.64123747020354
 20
6.160047325369983
 10
12.95623747020354
 20
6.160047325369983
 10
12.95623747020354
 20
6.206547325369982
  0
LWPOLYLINE
  5
492D
330
3F56
100
AcDbEntity
  8
OBJECT
 62
     4
100
AcDbPolyline
 90
        4
 70
     1
 43
0.0
 10
12.64123747020353
 20
6.003047325369985
 10
12.64123747020354
 20
5.956547325369982
 10
12.95623747020354
 20
5.956547325369989
 10
12.95623747020354
 20
6.003047325369985
  0
LINE
  5
4933
330
3F56
100
AcDbEntity
  8
OBJECT
 62
     4
100
AcDbLine
 10
12.95623747020354
 20
6.003047325369985
 30
0.0
 11
12.64123747020353
 21
6.003047325369985
 31
0.0
  0
LINE
  5
4934
330
3F56
100
AcDbEntity
  8
OBJECT
 62
     4
100
AcDbLine
 10
12.64123747020354
 20
5.956547325369982
 30
0.0
 11
12.95623747020354
 21
5.956547325369989
 31
0.0
  0
LINE
  5
4935
330
3F56
100
AcDbEntity
  8
OBJECT
 62
     4
100
AcDbLine
 10
12.95623747020354
 20
6.206547325369982
 30
0.0
 11
12.64123747020354
 21
6.206547325369982
 31
0.0
  0
LINE
  5
4936
330
3F56
100
AcDbEntity
  8
OBJECT
 62
     4
100
AcDbLine
 10
12.64123747020354
 20
6.160047325369983
 30
0.0
 11
12.95623747020354
 21
6.160047325369983
 31
0.0
  0
LINE
  5
4937
330
3F56
100
AcDbEntity
  8
OBJECT
100
AcDbLine
 10
12.64123747020355
 20
6.160047325369983
 30
0.0
 11
12.95623747020354
 21
6.160047325369983
 31
0.0
  0
LINE
  5
4938
330
3F56
100
AcDbEntity
  8
OBJECT
100
AcDbLine
 10
12.64123747020355
 20
6.003047325369985
 30
0.0
 11
12.95623747020354
 21
6.003047325369985
 31
0.0
  0
LINE
  5
4939
102
{ACAD_REACTORS
330
6427
102
}
330
3F56
100
AcDbEntity
  8
OBJECT
100
AcDbLine
 10
12.64123747020355
 20
5.956547325369982
 30
0.0
 11
12.95623747020354
 21
5.956547325369989
 31
0.0
  0
LINE
  5
493A
102
{ACAD_REACTORS
330
6427
102
}
330
3F56
100
AcDbEntity
  8
OBJECT
100
AcDbLine
 10
12.64123747020355
 20
6.206547325369982
 30
0.0
 11
12.95623747020354
 21
6.206547325369982
 31
0.0
  0
LINE
  5
493B
330
3F56
100
AcDbEntity
  8
OBJECT
 62
     4
100
AcDbLine
 10
12.64123747020353
 20
6.003047325369985
 30
0.0
 11
12.64123747020354
 21
5.956547325369982
 31
0.0
  0
LINE
  5
493C
330
3F56
100
AcDbEntity
  8
OBJECT
 62
     4
100
AcDbLine
 10
12.64123747020354
 20
6.206547325369982
 30
0.0
 11
12.64123747020354
 21
6.160047325369983
 31
0.0
  0
LINE
  5
493D
330
3F56
100
AcDbEntity
  8
OBJECT
 62
     4
100
AcDbLine
 10
12.95623747020354
 20
5.956547325369989
 30
0.0
 11
12.95623747020354
 21
6.003047325369985
 31
0.0
  0
LINE
  5
493E
330
3F56
100
AcDbEntity
  8
OBJECT
 62
     4
100
AcDbLine
 10
12.95623747020354
 20
6.160047325369983
 30
0.0
 11
12.95623747020354
 21
6.206547325369982
 31
0.0
  0
LINE
  5
493F
102
{ACAD_REACTORS
330
6427
102
}
330
3F56
100
AcDbEntity
  8
OBJECT
100
AcDbLine
 10
12.95623747020354
 20
5.934547325369973
 30
0.0
 11
12.95623747020354
 21
6.258547325369964
 31
0.0
  0
LINE
  5
4940
102
{ACAD_REACTORS
330
6427
102
}
330
3F56
100
AcDbEntity
  8
OBJECT
100
AcDbLine
 10
12.58223747020355
 20
6.747547325370017
 30
0.0
 11
12.64123747020356
 21
6.74754732537001
 31
0.0
  0
ARC
  5
4941
102
{ACAD_REACTORS
330
6427
102
}
330
3F56
100
AcDbEntity
  8
OBJECT
100
AcDbCircle
 10
14.16473747020355
 20
5.907047325369973
 30
0.0
 40
0.0625
100
AcDbArc
 50
270.0
 51
0.0
  0
LWPOLYLINE
  5
4943
102
{ACAD_REACTORS
330
6427
102
}
330
3F56
100
AcDbEntity
  8
OBJECT
100
AcDbPolyline
 90
        2
 70
     0
 43
0.0
 10
14.10023747020356
 20
9.66454732536998
 10
14.10023747020356
 20
7.655931940754569
  0
LINE
  5
494D
102
{ACAD_REACTORS
330
6427
102
}
330
3F56
100
AcDbEntity
  8
OBJECT
100
AcDbLine
 10
14.10023747020356
 20
6.717547325369898
 30
0.0
 11
14.10023747020356
 21
6.324547325369955
 31
0.0
  0
LINE
  5
494E
102
{ACAD_REACTORS
330
6427
102
}
330
3F56
100
AcDbEntity
  8
OBJECT
100
AcDbLine
 10
14.10023747020356
 20
6.430547325369972
 30
0.0
 11
14.22723747020355
 21
6.430547325369972
 31
0.0
  0
LINE
  5
494F
102
{ACAD_REACTORS
330
6427
102
}
330
3F56
100
AcDbEntity
  8
OBJECT
100
AcDbLine
 10
14.10023747020356
 20
6.600547325369976
 30
0.0
 11
14.22723747020355
 21
6.600547325369975
 31
0.0
  0
LINE
  5
4966
102
{ACAD_REACTORS
330
6427
102
}
330
3F56
100
AcDbEntity
  8
OBJECT
100
AcDbLine
 10
14.10023747020356
 20
9.66454732536998
 30
0.0
 11
12.58223747020355
 21
9.664547325369971
 31
0.0
  0
LINE
  5
4967
102
{ACAD_REACTORS
330
6427
102
}
330
3F56
100
AcDbEntity
  8
OBJECT
100
AcDbLine
 10
12.68123747020355
 20
9.779547325369971
 30
0.0
 11
14.16473747020355
 21
9.779547325369971
 31
0.0
  0
LINE
  5
4968
330
3F56
100
AcDbEntity
  8
OBJECT
100
AcDbLine
 10
14.1092374702036
 20
8.835609736120796
 30
0.0
 11
12.58223747020355
 21
8.83560973612079
 31
0.0
  0
LINE
  5
4969
102
{ACAD_REACTORS
330
6427
102
}
330
3F56
100
AcDbEntity
  8
OBJECT
100
AcDbLine
 10
12.58223747020355
 20
9.70454732536997
 30
0.0
 11
12.64123747020356
 21
9.70454732536997
 31
0.0
  0
LINE
  5
496A
102
{ACAD_REACTORS
330
6427
102
}
330
3F56
100
AcDbEntity
  8
OBJECT
100
AcDbLine
 10
12.64123747020355
 20
9.759547325369968
 30
0.0
 11
12.68123747020355
 21
9.759547325369968
 31
0.0
  0
LINE
  5
496B
102
{ACAD_REACTORS
330
6427
102
}
330
3F56
100
AcDbEntity
  8
OBJECT
100
AcDbLine
 10
12.68123747020355
 20
9.779547325369971
 30
0.0
 11
12.68123747020355
 21
9.759547325369968
 31
0.0
  0
LINE
  5
496C
102
{ACAD_REACTORS
330
6427
102
}
330
3F56
100
AcDbEntity
  8
OBJECT
100
AcDbLine
 10
12.64123747020356
 20
9.759547325369968
 30
0.0
 11
12.64123747020356
 21
9.70454732536997
 31
0.0
  0
LWPOLYLINE
  5
496D
330
3F56
100
AcDbEntity
  8
OBJECT
100
AcDbPolyline
 90
        4
 70
     0
 43
0.0
 10
14.10023747020356
 20
7.965162709985366
 10
13.93523747020356
 20
7.990547325369973
 10
13.93523747020356
 20
8.340547325369968
 10
14.10023747020356
 20
8.365931940754569
  0
LWPOLYLINE
  5
4973
102
{ACAD_REACTORS
330
6427
102
}
330
3F56
100
AcDbEntity
  8
HIDDEN
100
AcDbPolyline
 90
        4
 70
     0
 43
0.0
 10
13.93523747020356
 20
8.078547325369976
 10
14.13123747020356
 20
8.078547325369976
 10
14.13123747020356
 20
8.252547325369965
 10
13.93523747020356
 20
8.252547325369965
  0
LWPOLYLINE
  5
4979
102
{ACAD_REACTORS
330
6427
102
}
330
3F56
100
AcDbEntity
  8
HIDDEN
100
AcDbPolyline
 90
        4
 70
     0
 43
0.0
 10
13.93523747020356
 20
9.428547325369974
 10
14.11523747020355
 20
9.428547325369981
 10
14.11523747020355
 20
9.338547325369967
 10
13.93523747020356
 20
9.338547325369974
  0
ARC
  5
497F
102
{ACAD_REACTORS
330
6427
102
}
330
3F56
100
AcDbEntity
  8
OBJECT
100
AcDbCircle
 10
14.16473747020355
 20
9.717047325369971
 30
0.0
 40
0.0625
100
AcDbArc
 50
0.0
 51
90.0
  0
CIRCLE
  5
4980
330
3F56
100
AcDbEntity
  8
OBJECT
100
AcDbCircle
 10
6.067348363955385
 20
9.383547325369974
 30
0.0
 40
0.1375
  0
CIRCLE
  5
4981
330
3F56
100
AcDbEntity
  8
OBJECT
100
AcDbCircle
 10
6.067348363955385
 20
6.239547325369969
 30
0.0
 40
0.1375
  0
LWPOLYLINE
  5
4982
330
3F56
100
AcDbEntity
  8
OBJECT
100
AcDbPolyline
 90
        6
 70
     1
 43
0.0
 10
4.189848363955406
 20
8.818477739099375
 42
-0.2415086290179373
 10
4.349848363955394
 20
8.900547325369984
 10
4.544848363955359
 20
8.900547325369968
 42
0.4142135623731096
 10
4.722848363955371
 20
9.07854732536996
 10
4.722848363955371
 20
9.299547325369976
 10
4.189848363955365
 20
9.299547325369976
  0
LWPOLYLINE
  5
498A
330
3F56
100
AcDbEntity
  8
HIDDEN
100
AcDbPolyline
 90
        6
 70
     1
 43
0.0
 10
4.349848363955381
 20
9.68954732536997
 10
4.804917950226019
 20
9.68954732536997
 42
0.2415086290179808
 10
4.722848363955371
 20
9.529547325369975
 10
4.722848363955371
 20
9.36554732536997
 10
4.189848363955385
 20
9.36554732536997
 10
4.189848363955385
 20
9.529547325369975
 42
-0.4142135623730821
  0
LWPOLYLINE
  5
4992
330
3F56
100
AcDbEntity
  8
HIDDEN
100
AcDbPolyline
 90
        6
 70
     1
 43
0.0
 10
7.784848363955394
 20
9.68954732536997
 10
7.329778777684754
 20
9.68954732536997
 42
-0.2415086290179808
 10
7.411848363955403
 20
9.529547325369975
 10
7.411848363955403
 20
9.36554732536997
 10
7.94484836395539
 20
9.36554732536997
 10
7.94484836395539
 20
9.529547325369975
 42
0.4142135623730821
  0
LWPOLYLINE
  5
499A
330
3F56
100
AcDbEntity
  8
OBJECT
100
AcDbPolyline
 90
        6
 70
     1
 43
0.0
 10
7.944848363955367
 20
8.818477739099375
 42
0.2415086290179373
 10
7.784848363955379
 20
8.900547325369984
 10
7.589848363955415
 20
8.900547325369968
 42
-0.4142135623731096
 10
7.411848363955403
 20
9.07854732536996
 10
7.411848363955403
 20
9.299547325369976
 10
7.944848363955406
 20
9.299547325369976
  0
LWPOLYLINE
  5
49A2
330
3F56
100
AcDbEntity
  8
OBJECT
100
AcDbPolyline
 90
        6
 70
     1
 43
0.0
 10
4.189848363955406
 20
6.80561691164057
 42
0.2415086290179373
 10
4.349848363955394
 20
6.723547325369962
 10
4.544848363955359
 20
6.723547325369976
 42
-0.4142135623731096
 10
4.722848363955371
 20
6.545547325369985
 10
4.722848363955371
 20
6.324547325369968
 10
4.189848363955365
 20
6.324547325369969
  0
LWPOLYLINE
  5
49AA
330
3F56
100
AcDbEntity
  8
HIDDEN
100
AcDbPolyline
 90
        6
 70
     1
 43
0.0
 10
4.349848363955381
 20
5.934547325369973
 10
4.804917950226019
 20
5.934547325369973
 42
-0.2415086290179808
 10
4.722848363955371
 20
6.094547325369971
 10
4.722848363955371
 20
6.258547325369971
 10
4.189848363955385
 20
6.258547325369971
 10
4.189848363955385
 20
6.094547325369971
 42
0.4142135623730821
  0
LWPOLYLINE
  5
49B2
330
3F56
100
AcDbEntity
  8
OBJECT
100
AcDbPolyline
 90
        6
 70
     1
 43
0.0
 10
7.944848363955367
 20
6.80561691164057
 42
-0.2415086290179373
 10
7.784848363955379
 20
6.723547325369962
 10
7.589848363955415
 20
6.723547325369976
 42
0.4142135623731096
 10
7.411848363955403
 20
6.545547325369985
 10
7.411848363955403
 20
6.324547325369968
 10
7.944848363955406
 20
6.324547325369969
  0
LWPOLYLINE
  5
49BA
330
3F56
100
AcDbEntity
  8
HIDDEN
100
AcDbPolyline
 90
        6
 70
     1
 43
0.0
 10
7.784848363955394
 20
5.934547325369973
 10
7.329778777684754
 20
5.934547325369973
 42
0.2415086290179808
 10
7.411848363955403
 20
6.094547325369971
 10
7.411848363955403
 20
6.258547325369971
 10
7.94484836395539
 20
6.258547325369971
 10
7.94484836395539
 20
6.094547325369971
 42
-0.4142135623730821
  0
DIMENSION
  5
49C2
330
3F56
100
AcDbEntity
  8
DIM
100
AcDbDimension
  2
*D28
 10
8.854802520500241
 20
7.457047325369977
 30
0.0
 11
8.854802520500239
 21
7.812047325369977
 31
0.0
 70
    32
 71
     5
 42
0.7099999999999991
  3
23NSTD
100
AcDbAlignedDimension
 13
7.601848363955394
 23
8.167047325369976
 33
0.0
 14
7.601848363955394
 24
7.457047325369977
 34
0.0
 50
90.0
100
AcDbRotatedDimension
  0
DIMENSION
  5
49D0
330
3F56
100
AcDbEntity
  8
DIM
100
AcDbDimension
  2
*D29
 10
9.726486803560845
 20
7.09454732536998
 30
0.0
 11
9.726486803560844
 21
7.812047325369981
 31
0.0
 70
   160
 71
     5
 42
1.434999999999996
  3
23NSTD
100
AcDbAlignedDimension
 13
7.601848363955394
 23
8.529547325369977
 33
0.0
 14
7.601848363955394
 24
7.09454732536998
 34
0.0
 50
90.0
100
AcDbRotatedDimension
  0
DIMENSION
  5
49DE
330
3F56
100
AcDbEntity
  8
DIM
100
AcDbDimension
  2
*D30
 10
8.516619620331056
 20
1.796493446752741
 30
0.0
 11
8.516619620331056
 21
2.589493446752744
 31
0.0
 70
   160
  1
B
 71
     5
 42
1.586000000000003
  3
23NSTD
100
AcDbAlignedDimension
 13
8.014848363955383
 23
3.382493446752745
 33
0.0
 14
7.972348363955394
 24
1.796493446752741
 34
0.0
 50
270.0
100
AcDbRotatedDimension
  0
DIMENSION
  5
49EC
330
3F56
100
AcDbEntity
  8
DIM
100
AcDbDimension
  2
*D31
 10
4.099848363955381
 20
12.74348190822166
 30
0.0
 11
2.840473363955381
 21
12.74348190822166
 31
0.0
 70
    32
  1
<>
 71
     5
 42
0.2379999999999951
  3
23NSTD
100
AcDbAlignedDimension
 13
4.337848363955376
 23
9.541547325369965
 33
0.0
 14
4.099848363955381
 24
9.529547325369975
 34
0.0
100
AcDbRotatedDimension
  0
DIMENSION
  5
49FA
330
3F56
100
AcDbEntity
  8
DIM
100
AcDbDimension
  2
*D32
 10
7.797848363955397
 20
12.74348190822166
 30
0.0
 11
6.067848363955379
 21
12.74348190822166
 31
0.0
 70
    32
 71
     5
 42
3.460000000000035
  3
23NSTD
100
AcDbAlignedDimension
 13
4.337848363955361
 23
9.541547325369965
 33
0.0
 14
7.797848363955397
 24
9.541547325369965
 34
0.0
100
AcDbRotatedDimension
  0
DIMENSION
  5
4A08
330
3F56
100
AcDbEntity
  8
DIM
100
AcDbDimension
  2
*D33
 10
11.18808642286384
 20
9.779547325369975
 30
0.0
 11
12.08746142286384
 21
10.49954732536997
 31
0.0
 70
    32
 71
     5
 42
0.2380000000000102
  3
23NSTD
100
AcDbAlignedDimension
 13
7.797848363955397
 23
9.541547325369965
 33
0.0
 14
7.784848363955394
 24
9.779547325369975
 34
0.0
 50
90.0
100
AcDbRotatedDimension
  0
DIMENSION
  5
4A16
330
3F56
100
AcDbEntity
  8
DIM
100
AcDbDimension
  2
*D34
 10
11.18808642286384
 20
6.081547325369981
 30
0.0
 11
11.18808642286384
 21
7.811547325369974
 31
0.0
 70
    32
 71
     5
 42
3.459999999999983
  3
23NSTD
100
AcDbAlignedDimension
 13
7.797848363955397
 23
9.541547325369965
 33
0.0
 14
7.797848363955397
 24
6.081547325369982
 34
0.0
 50
90.0
100
AcDbRotatedDimension
  0
DIMENSION
  5
4A24
330
3F56
100
AcDbEntity
  8
DIM
100
AcDbDimension
  2
*D35
 10
14.22723747020355
 20
7.858547218821697
 30
0.0
 11
15.45536247020355
 21
7.858547218821697
 31
0.0
 70
    32
 71
     5
 42
0.12699999999999
  3
23NSTD
100
AcDbAlignedDimension
 13
14.10023747020356
 23
7.906047901183966
 33
0.0
 14
14.22723747020355
 24
7.906047901183966
 34
0.0
100
AcDbRotatedDimension
  0
CIRCLE
  5
4A37
330
3F56
100
AcDbEntity
  8
OBJECT
100
AcDbCircle
 10
6.067348363955385
 20
9.383547325369974
 30
0.0
 40
0.16
  0
CIRCLE
  5
4A38
330
3F56
100
AcDbEntity
  8
OBJECT
100
AcDbCircle
 10
6.067348363955385
 20
6.239547325369969
 30
0.0
 40
0.16
  0
LWPOLYLINE
  5
4A3F
330
3F56
100
AcDbEntity
  8
OBJECT
100
AcDbPolyline
 90
        4
 70
     0
 43
0.0
 10
14.10023747020356
 20
9.543502946671742
 10
13.93523747020356
 20
9.52104732536997
 10
13.93523747020356
 20
9.246047325369975
 10
14.10023747020358
 20
9.223591704068207
  0
CIRCLE
  5
4A45
330
3F56
100
AcDbEntity
  8
OBJECT
100
AcDbCircle
 10
7.601848363955394
 20
8.167047325369978
 30
0.0
 40
0.2005
  0
LWPOLYLINE
  5
4A46
102
{ACAD_REACTORS
330
6427
102
}
330
3F56
100
AcDbEntity
  8
OBJECT
100
AcDbPolyline
 90
        4
 70
     0
 43
0.0
 10
14.10023747020356
 20
7.255162709985366
 10
13.93523747020356
 20
7.280547325369973
 10
13.93523747020356
 20
7.630547325369968
 10
14.10023747020356
 20
7.655931940754569
  0
LWPOLYLINE
  5
4A4C
102
{ACAD_REACTORS
330
6427
102
}
330
3F56
100
AcDbEntity
  8
OBJECT
100
AcDbPolyline
 90
        4
 70
     0
 43
0.0
 10
13.93523747020356
 20
7.368547325369974
 10
14.13123747020356
 20
7.368547325369974
 10
14.13123747020356
 20
7.542547325369964
 10
13.93523747020356
 20
7.542547325369964
  0
CIRCLE
  5
4A52
330
3F56
100
AcDbEntity
  8
OBJECT
100
AcDbCircle
 10
7.601848363955394
 20
7.457047325369977
 30
0.0
 40
0.2005
  0
CIRCLE
  5
4A53
330
3F56
100
AcDbEntity
  8
OBJECT
100
AcDbCircle
 10
7.601848363955394
 20
7.457047325369977
 30
0.0
 40
0.175
  0
LWPOLYLINE
  5
4A54
330
3F56
100
AcDbEntity
  8
HIDDEN
  6
HIDDEN2
100
AcDbPolyline
 90
        4
 70
     0
 43
0.0
 10
5.907392742653619
 20
1.923493446752729
 10
5.929848363955389
 20
2.088493446752726
 10
6.204848363955384
 20
2.088493446752726
 10
6.227303985257154
 20
1.923493446752718
  0
LWPOLYLINE
  5
4A5A
330
3F56
100
AcDbEntity
  8
HIDDEN
  6
HIDDEN2
100
AcDbPolyline
 90
        4
 70
     0
 43
0.0
 10
6.022348363955387
 20
2.088493446752726
 10
6.02234836395538
 20
1.908493446752729
 10
6.112348363955394
 20
1.908493446752729
 10
6.112348363955387
 20
2.088493446752726
  0
LINE
  5
4A60
330
3F56
100
AcDbEntity
  8
HIDDEN
100
AcDbLine
 10
4.52884836395539
 20
3.271493446752753
 30
0.0
 11
4.52884836395539
 21
3.067493446752749
 31
0.0
  0
LINE
  5
4A61
330
3F56
100
AcDbEntity
  8
HIDDEN
100
AcDbLine
 10
4.412044051161613
 20
3.271493446752753
 30
0.0
 11
4.412044051161611
 21
3.067493446752749
 31
0.0
  0
LINE
  5
4A62
330
3F56
100
AcDbEntity
  8
HIDDEN
100
AcDbLine
 10
7.944848363955374
 20
3.382493446752739
 30
0.0
 11
7.94484836395539
 21
1.796493446752741
 31
0.0
  0
LINE
  5
4A63
330
3F56
100
AcDbEntity
  8
HIDDEN
100
AcDbLine
 10
7.411848363955403
 20
1.796493446752741
 30
0.0
 11
7.411848363955403
 21
3.382493446752718
 31
0.0
  0
LINE
  5
4A64
330
3F56
100
AcDbEntity
  8
HIDDEN
100
AcDbLine
 10
7.346848363955405
 20
1.923493446752686
 30
0.0
 11
7.346848363955391
 21
3.44149344675274
 31
0.0
  0
LINE
  5
4A65
330
3F56
100
AcDbEntity
  8
HIDDEN
100
AcDbLine
 10
7.919848363955395
 20
1.92349344675274
 30
0.0
 11
7.919848363955384
 21
3.44149344675274
 31
0.0
  0
LINE
  5
4A66
330
3F56
100
AcDbEntity
  8
HIDDEN
100
AcDbLine
 10
7.94484836395539
 20
3.067493446752749
 30
0.0
 11
7.605848363955383
 21
3.067493446752749
 31
0.0
  0
LINE
  5
4A67
330
3F56
100
AcDbEntity
  8
HIDDEN
100
AcDbLine
 10
7.730848363955395
 20
3.382493446752739
 30
0.0
 11
7.730848363955395
 21
3.067493446752749
 31
0.0
  0
LINE
  5
4A68
330
3F56
100
AcDbEntity
  8
HIDDEN
100
AcDbLine
 10
7.8628483639554
 20
3.382493446752739
 30
0.0
 11
7.8628483639554
 21
3.067493446752749
 31
0.0
  0
LINE
  5
4A69
330
3F56
100
AcDbEntity
  8
HIDDEN
100
AcDbLine
 10
7.921848363955398
 20
3.382493446752739
 30
0.0
 11
7.921848363955398
 21
3.067493446752749
 31
0.0
  0
LINE
  5
4A6A
330
3F56
100
AcDbEntity
  8
HIDDEN
100
AcDbLine
 10
7.722652676749159
 20
3.271493446752753
 30
0.0
 11
7.722652676749159
 21
3.067493446752749
 31
0.0
  0
LINE
  5
4A6B
330
3F56
100
AcDbEntity
  8
HIDDEN
100
AcDbLine
 10
7.605848363955383
 20
3.271493446752753
 30
0.0
 11
7.605848363955383
 21
3.067493446752749
 31
0.0
  0
LINE
  5
4A6C
330
3F56
100
AcDbEntity
  8
HIDDEN
100
AcDbLine
 10
7.671848363955398
 20
3.382493446752739
 30
0.0
 11
7.671848363955398
 21
3.067493446752749
 31
0.0
  0
LINE
  5
4A6D
330
3F56
100
AcDbEntity
  8
HIDDEN
100
AcDbLine
 10
7.722652676749159
 20
3.271493446752753
 30
0.0
 11
7.411848363955403
 21
3.271493446752753
 31
0.0
  0
LINE
  5
4A6F
330
3F56
100
AcDbEntity
  8
OBJECT
100
AcDbLine
 10
24.25472407158266
 20
8.779547325369973
 30
0.0
 11
24.69472407158264
 21
8.779547325369973
 31
0.0
  0
LINE
  5
4A71
330
3F56
100
AcDbEntity
  8
OBJECT
100
AcDbLine
 10
24.81972407158265
 20
8.468371065502381
 30
0.0
 11
24.85472407158264
 21
8.468371065502381
 31
0.0
  0
LINE
  5
4A72
330
3F56
100
AcDbEntity
  8
OBJECT
100
AcDbLine
 10
24.81972407158264
 20
9.480547325369974
 30
0.0
 11
24.85472407158264
 21
9.480547325369974
 31
0.0
  0
LINE
  5
4A73
330
3F56
100
AcDbEntity
  8
OBJECT
100
AcDbLine
 10
24.81972407158265
 20
9.480547325369974
 30
0.0
 11
24.81972407158265
 21
8.468371065502381
 31
0.0
  0
LINE
  5
4A75
330
3F56
100
AcDbEntity
  8
HIDDEN
100
AcDbLine
 10
19.09295336681955
 20
12.66315566507155
 30
0.0
 11
21.64795336681955
 21
12.66315566507155
 31
0.0
  0
LINE
  5
4A76
330
3F56
100
AcDbEntity
  8
HIDDEN
100
AcDbLine
 10
19.09295336681955
 20
12.66315566507155
 30
0.0
 11
19.09295336681955
 21
12.69815566507155
 31
0.0
  0
LINE
  5
4A77
330
3F56
100
AcDbEntity
  8
HIDDEN
100
AcDbLine
 10
21.64795336681955
 20
12.66315566507155
 30
0.0
 11
21.64795336681955
 21
12.69815566507155
 31
0.0
  0
LWPOLYLINE
  5
4A78
330
3F56
100
AcDbEntity
  8
OBJECT
100
AcDbPolyline
 90
        8
 70
     1
 43
0.0
 10
18.65295336681954
 20
17.57185387179798
 10
22.08795336681956
 20
17.57185387179798
 42
-0.4142135623730951
 10
22.33795336681957
 20
17.32185387179798
 10
22.33795336681957
 20
13.88685387179798
 42
-0.4142135623730951
 10
22.08795336681956
 20
13.63685387179798
 10
18.65295336681954
 20
13.63685387179798
 42
-0.4142135623730951
 10
18.40295336681956
 20
13.88685387179798
 10
18.40295336681956
 20
17.32185387179798
 42
-0.4142135623730951
  0
LWPOLYLINE
  5
4A82
330
3F56
100
AcDbEntity
  8
HIDDEN
100
AcDbPolyline
 90
       24
 70
     1
 43
0.0
 10
18.58295336681956
 20
14.70685387179797
 10
18.58295336681954
 20
16.50185387179799
 42
-0.4142135623730951
 10
18.65295336681954
 20
16.57185387179799
 10
18.84795336681954
 20
16.57185387179799
 42
0.4142135623731054
 10
19.15295336681954
 20
16.87685387179798
 10
19.15295336681954
 20
17.32185387179799
 42
-0.4142135623730951
 10
19.22295336681954
 20
17.39185387179799
 10
21.51795336681955
 20
17.39185387179799
 42
-0.4142135623730951
 10
21.58795336681956
 20
17.32185387179799
 10
21.58795336681956
 20
16.87685387179798
 42
0.4142135623731054
 10
21.89295336681957
 20
16.57185387179799
 10
22.08795336681956
 20
16.57185387179799
 42
-0.4142135623730951
 10
22.15795336681957
 20
16.50185387179799
 10
22.15795336681957
 20
14.70685387179797
 42
-0.4142135623730951
 10
22.08795336681956
 20
14.63685387179798
 10
21.89295336681957
 20
14.63685387179798
 42
0.4142135623731054
 10
21.58795336681956
 20
14.33185387179799
 10
21.58795336681956
 20
13.88685387179798
 42
-0.4142135623730951
 10
21.51795336681955
 20
13.81685387179798
 10
19.22295336681954
 20
13.81685387179798
 42
-0.4142135623730951
 10
19.15295336681954
 20
13.88685387179798
 10
19.15295336681954
 20
14.33185387179799
 42
0.4142135623731054
 10
18.84795336681954
 20
14.63685387179798
 10
18.65295336681954
 20
14.63685387179798
 42
-0.4142135623730951
  0
CIRCLE
  5
4A9C
330
3F56
100
AcDbEntity
  8
OBJECT
100
AcDbCircle
 10
22.09995336681957
 20
17.33485387179799
 30
0.0
 40
0.086
  0
CIRCLE
  5
4A9D
330
3F56
100
AcDbEntity
  8
OBJECT
100
AcDbCircle
 10
18.64095336681954
 20
17.33485387179799
 30
0.0
 40
0.086
  0
CIRCLE
  5
4A9E
330
3F56
100
AcDbEntity
  8
OBJECT
100
AcDbCircle
 10
22.09995336681957
 20
13.87485387179799
 30
0.0
 40
0.086
  0
CIRCLE
  5
4A9F
330
3F56
100
AcDbEntity
  8
OBJECT
100
AcDbCircle
 10
18.63995336681955
 20
13.87485387179799
 30
0.0
 40
0.086
  0
CIRCLE
  5
4AA0
330
3F56
100
AcDbEntity
  8
OBJECT
100
AcDbCircle
 10
18.64095336681954
 20
17.33485387179799
 30
0.0
 40
0.155
  0
CIRCLE
  5
4AA1
330
3F56
100
AcDbEntity
  8
OBJECT
100
AcDbCircle
 10
22.09995336681957
 20
17.33485387179799
 30
0.0
 40
0.155
  0
CIRCLE
  5
4AA2
330
3F56
100
AcDbEntity
  8
OBJECT
100
AcDbCircle
 10
22.09995336681957
 20
13.87485387179799
 30
0.0
 40
0.155
  0
CIRCLE
  5
4AA3
330
3F56
100
AcDbEntity
  8
OBJECT
100
AcDbCircle
 10
18.63995336681955
 20
13.87485387179799
 30
0.0
 40
0.155
  0
LINE
  5
4AA4
330
3F56
100
AcDbEntity
  8
HIDDEN
100
AcDbLine
 10
18.79595336681955
 20
12.09815566507155
 30
0.0
 11
18.79595336681955
 21
12.45315566507155
 31
0.0
  0
LINE
  5
4AA5
330
3F56
100
AcDbEntity
  8
HIDDEN
100
AcDbLine
 10
18.48595336681955
 20
12.09815566507155
 30
0.0
 11
18.48595336681955
 21
12.45315566507155
 31
0.0
  0
LINE
  5
4AA6
330
3F56
100
AcDbEntity
  8
HIDDEN
100
AcDbLine
 10
18.72495336681955
 20
12.09815566507155
 30
0.0
 11
18.72495336681955
 21
12.57615566507155
 31
0.0
  0
LINE
  5
4AA7
330
3F56
100
AcDbEntity
  8
HIDDEN
100
AcDbLine
 10
18.55495336681955
 20
12.09815566507155
 30
0.0
 11
18.55495336681955
 21
12.57615566507155
 31
0.0
  0
LINE
  5
4AA8
330
3F56
100
AcDbEntity
  8
HIDDEN
100
AcDbLine
 10
18.48495336681955
 20
12.57615566507155
 30
0.0
 11
18.79495336681955
 21
12.57615566507155
 31
0.0
  0
LINE
  5
4AA9
330
3F56
100
AcDbEntity
  8
HIDDEN
100
AcDbLine
 10
18.48495336681955
 20
12.57615566507155
 30
0.0
 11
18.48495336681955
 21
12.69815566507155
 31
0.0
  0
LINE
  5
4AAA
330
3F56
100
AcDbEntity
  8
HIDDEN
100
AcDbLine
 10
18.79495336681955
 20
12.57615566507155
 30
0.0
 11
18.79495336681954
 21
12.69815566507155
 31
0.0
  0
LINE
  5
4AAB
330
3F56
100
AcDbEntity
  8
HIDDEN
100
AcDbLine
 10
18.89095336681956
 20
12.45315566507155
 30
0.0
 11
18.89095336681956
 21
12.53715566507155
 31
0.0
  0
LINE
  5
4AAC
330
3F56
100
AcDbEntity
  8
HIDDEN
100
AcDbLine
 10
18.46295336681955
 20
12.45315566507155
 30
0.0
 11
18.89095336681956
 21
12.45315566507155
 31
0.0
  0
LINE
  5
4AAD
330
3F56
100
AcDbEntity
  8
HIDDEN
100
AcDbLine
 10
18.81649823287948
 20
12.45315566507155
 30
0.0
 11
18.81649823287948
 21
12.53715566507155
 31
0.0
  0
LINE
  5
4AAE
330
3F56
100
AcDbEntity
  8
HIDDEN
100
AcDbLine
 10
22.25495336681955
 20
12.09815566507155
 30
0.0
 11
22.25495336681955
 21
12.45315566507155
 31
0.0
  0
LINE
  5
4AAF
330
3F56
100
AcDbEntity
  8
HIDDEN
100
AcDbLine
 10
21.94495336681955
 20
12.09815566507155
 30
0.0
 11
21.94495336681955
 21
12.45315566507155
 31
0.0
  0
LINE
  5
4AB0
330
3F56
100
AcDbEntity
  8
HIDDEN
100
AcDbLine
 10
22.19795336681956
 20
12.21315566507156
 30
0.0
 11
22.27795336681938
 21
12.21315566507156
 31
0.0
  0
LINE
  5
4AB1
330
3F56
100
AcDbEntity
  8
HIDDEN
100
AcDbLine
 10
22.27795336681938
 20
12.09815566507156
 30
0.0
 11
22.27795336681938
 21
12.21315566507156
 31
0.0
  0
LINE
  5
4AB2
330
3F56
100
AcDbEntity
  8
HIDDEN
100
AcDbLine
 10
22.19795336681956
 20
12.09815566507156
 30
0.0
 11
22.19795336681956
 21
12.21315566507156
 31
0.0
  0
LINE
  5
4AB3
330
3F56
100
AcDbEntity
  8
HIDDEN
100
AcDbLine
 10
21.62795336681957
 20
12.21315566507156
 30
0.0
 11
21.70795336681938
 21
12.21315566507156
 31
0.0
  0
LINE
  5
4AB4
330
3F56
100
AcDbEntity
  8
HIDDEN
100
AcDbLine
 10
21.70795336681938
 20
12.09815566507156
 30
0.0
 11
21.70795336681938
 21
12.21315566507156
 31
0.0
  0
LINE
  5
4AB5
330
3F56
100
AcDbEntity
  8
HIDDEN
100
AcDbLine
 10
21.62795336681957
 20
12.09815566507156
 30
0.0
 11
21.62795336681957
 21
12.21315566507156
 31
0.0
  0
LINE
  5
4AB6
330
3F56
100
AcDbEntity
  8
HIDDEN
100
AcDbLine
 10
22.27795336681956
 20
12.45315566507155
 30
0.0
 11
21.84995336681955
 21
12.45315566507155
 31
0.0
  0
LINE
  5
4AB7
330
3F56
100
AcDbEntity
  8
HIDDEN
100
AcDbLine
 10
22.01595336681954
 20
12.09815566507155
 30
0.0
 11
22.01595336681954
 21
12.57615566507155
 31
0.0
  0
LINE
  5
4AB8
330
3F56
100
AcDbEntity
  8
HIDDEN
100
AcDbLine
 10
22.18595336681955
 20
12.09815566507155
 30
0.0
 11
22.18595336681955
 21
12.57615566507155
 31
0.0
  0
LINE
  5
4AB9
330
3F56
100
AcDbEntity
  8
HIDDEN
100
AcDbLine
 10
22.15795336681954
 20
12.09815566507155
 30
0.0
 11
22.15795336681954
 21
12.53715566507153
 31
0.0
  0
LINE
  5
4ABA
330
3F56
100
AcDbEntity
  8
HIDDEN
100
AcDbLine
 10
21.76795336681955
 20
12.53715566507156
 30
0.0
 11
21.76795336681955
 21
12.09815566507156
 31
0.0
  0
LINE
  5
4ABB
330
3F56
100
AcDbEntity
  8
HIDDEN
100
AcDbLine
 10
21.58995336681956
 20
12.09815566507156
 30
0.0
 11
21.58995336681956
 21
12.53715566507153
 31
0.0
  0
LINE
  5
4ABC
330
3F56
100
AcDbEntity
  8
HIDDEN
100
AcDbLine
 10
21.92440850075964
 20
12.45315566507155
 30
0.0
 11
21.92440850075964
 21
12.53715566507155
 31
0.0
  0
LINE
  5
4ABD
330
3F56
100
AcDbEntity
  8
HIDDEN
100
AcDbLine
 10
21.84995336681955
 20
12.45315566507155
 30
0.0
 11
21.84995336681955
 21
12.53715566507155
 31
0.0
  0
LINE
  5
4ABE
330
3F56
100
AcDbEntity
  8
HIDDEN
100
AcDbLine
 10
22.25595336681954
 20
12.57615566507155
 30
0.0
 11
22.25595336681955
 21
12.69815566507155
 31
0.0
  0
LINE
  5
4ABF
330
3F56
100
AcDbEntity
  8
HIDDEN
100
AcDbLine
 10
22.25595336681954
 20
12.57615566507155
 30
0.0
 11
21.94595336681956
 21
12.57615566507155
 31
0.0
  0
LINE
  5
4AC0
330
3F56
100
AcDbEntity
  8
HIDDEN
100
AcDbLine
 10
21.94595336681956
 20
12.57615566507155
 30
0.0
 11
21.94595336681956
 21
12.69815566507155
 31
0.0
  0
LINE
  5
4AC1
330
3F56
100
AcDbEntity
  8
HIDDEN
100
AcDbLine
 10
30.16190455505368
 20
9.664547325369987
 30
0.0
 11
28.64390455505367
 21
9.66454732536998
 31
0.0
  0
LINE
  5
4AC2
330
3F56
100
AcDbEntity
  8
HIDDEN
100
AcDbLine
 10
28.64390455505367
 20
9.704547325369981
 30
0.0
 11
28.70290455505367
 21
9.704547325369981
 31
0.0
  0
LINE
  5
4AC3
330
3F56
100
AcDbEntity
  8
OBJECT
100
AcDbLine
 10
28.74290455505366
 20
9.779547325369975
 30
0.0
 11
28.74290455505366
 21
9.759547325369977
 31
0.0
  0
LWPOLYLINE
  5
4AC4
330
3F56
100
AcDbEntity
  8
HIDDEN
100
AcDbPolyline
 90
        4
 70
     0
 43
0.0
 10
30.16190455505368
 20
9.543502946671747
 10
29.99690455505367
 20
9.52104732536998
 10
29.99690455505367
 20
9.246047325369984
 10
30.16190455505369
 20
9.223591704068214
  0
LWPOLYLINE
  5
4ACA
330
3F56
100
AcDbEntity
  8
HIDDEN
100
AcDbPolyline
 90
        4
 70
     0
 43
0.0
 10
30.16190455505368
 20
8.689502946671755
 10
29.99690455505367
 20
8.667047325369985
 10
29.99690455505367
 20
8.39204732536999
 10
30.16190455505369
 20
8.36959170406822
  0
LWPOLYLINE
  5
4AD0
330
3F56
100
AcDbEntity
  8
HIDDEN
100
AcDbPolyline
 90
        4
 70
     0
 43
0.0
 10
30.16190455505368
 20
7.965162709985374
 10
29.99690455505367
 20
7.990547325369981
 10
29.99690455505367
 20
8.340547325369973
 10
30.16190455505368
 20
8.365931940754576
  0
LWPOLYLINE
  5
4AD6
330
3F56
100
AcDbEntity
  8
HIDDEN
100
AcDbPolyline
 90
        4
 70
     0
 43
0.0
 10
30.16190455505368
 20
7.255162709985374
 10
29.99690455505367
 20
7.280547325369981
 10
29.99690455505367
 20
7.630547325369974
 10
30.16190455505368
 20
7.655931940754577
  0
LINE
  5
4ADC
330
3F56
100
AcDbEntity
  8
HIDDEN
100
AcDbLine
 10
30.16190455505368
 20
9.664547325369987
 30
0.0
 11
30.16190455505368
 21
9.543502946671747
 31
0.0
  0
LINE
  5
4ADD
330
3F56
100
AcDbEntity
  8
HIDDEN
100
AcDbLine
 10
30.16190455505368
 20
7.254502946671764
 30
0.0
 11
29.99690455505367
 21
7.232047325369993
 31
0.0
  0
LINE
  5
4ADE
330
3F56
100
AcDbEntity
  8
HIDDEN
100
AcDbLine
 10
29.99690455505367
 20
7.232047325369993
 30
0.0
 11
29.99690455505367
 21
6.957047325370001
 31
0.0
  0
LINE
  5
4ADF
330
3F56
100
AcDbEntity
  8
HIDDEN
100
AcDbLine
 10
29.99690455505367
 20
6.957047325370001
 30
0.0
 11
30.16190455505369
 21
6.934591704068227
 31
0.0
  0
LINE
  5
4AE0
330
3F56
100
AcDbEntity
  8
HIDDEN
100
AcDbLine
 10
30.16190455505369
 20
6.934591704068227
 30
0.0
 11
30.16190455505364
 21
6.400502946671738
 31
0.0
  0
LINE
  5
4AE1
330
3F56
100
AcDbEntity
  8
HIDDEN
100
AcDbLine
 10
30.16190455505368
 20
7.255162709985372
 30
0.0
 11
30.16190455505368
 21
7.254502946671764
 31
0.0
  0
LINE
  5
4AE2
330
3F56
100
AcDbEntity
  8
HIDDEN
100
AcDbLine
 10
30.16190455505368
 20
7.965162709985374
 30
0.0
 11
30.16190455505368
 21
7.655931940754577
 31
0.0
  0
LINE
  5
4AE3
330
3F56
100
AcDbEntity
  8
HIDDEN
100
AcDbLine
 10
30.16190455505368
 20
8.369591704068222
 30
0.0
 11
30.16190455505368
 21
8.365931940754576
 31
0.0
  0
LINE
  5
4AE4
330
3F56
100
AcDbEntity
  8
HIDDEN
100
AcDbLine
 10
30.16190455505368
 20
9.223591704068217
 30
0.0
 11
30.16190455505368
 21
8.689502946671755
 31
0.0
  0
LINE
  5
4AE5
330
3F56
100
AcDbEntity
  8
HIDDEN
100
AcDbLine
 10
28.64390455505367
 20
5.91954732536998
 30
0.0
 11
28.70290455505367
 21
5.91954732536998
 31
0.0
  0
LINE
  5
4AE6
330
3F56
100
AcDbEntity
  8
HIDDEN
100
AcDbLine
 10
30.16190455505368
 20
5.959547325369972
 30
0.0
 11
28.64390455505367
 21
5.95954732536998
 31
0.0
  0
LWPOLYLINE
  5
4AE7
330
3F56
100
AcDbEntity
  8
HIDDEN
100
AcDbPolyline
 90
        4
 70
     0
 43
0.0
 10
30.16190455505368
 20
6.08059170406821
 10
29.99690455505367
 20
6.10304732536998
 10
29.99690455505367
 20
6.378047325369975
 10
30.16190455505369
 20
6.400502946671745
  0
LINE
  5
4AED
330
3F56
100
AcDbEntity
  8
HIDDEN
100
AcDbLine
 10
30.16190455505368
 20
5.959547325369972
 30
0.0
 11
30.16190455505368
 21
6.08059170406821
 31
0.0
  0
LINE
  5
4AEE
330
3F56
100
AcDbEntity
  8
HIDDEN
100
AcDbLine
 10
28.70290455505365
 20
9.599547325370052
 30
0.0
 11
28.26290455505367
 21
9.599547325370055
 31
0.0
  0
LWPOLYLINE
  5
4AEF
330
3F56
100
AcDbEntity
  8
HIDDEN
100
AcDbPolyline
 90
        3
 70
     0
 43
0.0
 10
28.58790455505367
 20
9.723868008306515
 10
28.58790455505367
 20
9.643868008306519
 10
28.70290455505367
 20
9.643868008306519
  0
LWPOLYLINE
  5
4AF4
330
3F56
100
AcDbEntity
  8
HIDDEN
100
AcDbPolyline
 90
        2
 70
     0
 43
0.0
 10
28.70290455505367
 20
9.723868008306515
 10
28.58790455505367
 20
9.723868008306515
  0
LINE
  5
4AF8
330
3F56
100
AcDbEntity
  8
HIDDEN
100
AcDbLine
 10
28.26290455505367
 20
9.599547325370055
 30
0.0
 11
28.26290455505367
 21
6.024547325369891
 31
0.0
  0
LINE
  5
4AF9
330
3F56
100
AcDbEntity
  8
HIDDEN
100
AcDbLine
 10
28.13790455505367
 20
9.480547325369974
 30
0.0
 11
28.10290455505367
 21
9.480547325369974
 31
0.0
  0
LINE
  5
4AFA
330
3F56
100
AcDbEntity
  8
HIDDEN
100
AcDbLine
 10
28.13790455505367
 20
9.480547325369974
 30
0.0
 11
28.13790455505365
 21
6.143547325369971
 31
0.0
  0
LINE
  5
4AFB
330
3F56
100
AcDbEntity
  8
HIDDEN
100
AcDbLine
 10
28.64390455505367
 20
9.704547325369981
 30
0.0
 11
28.64390455505367
 21
5.91954732536998
 31
0.0
  0
LINE
  5
4AFC
330
3F56
100
AcDbEntity
  8
HIDDEN
100
AcDbLine
 10
28.13790455505367
 20
6.143547325369971
 30
0.0
 11
28.10290455505367
 21
6.143547325369971
 31
0.0
  0
LINE
  5
4AFD
330
3F56
100
AcDbEntity
  8
HIDDEN
100
AcDbLine
 10
28.70290455505365
 20
6.024547325369892
 30
0.0
 11
28.26290455505367
 21
6.024547325369891
 31
0.0
  0
LWPOLYLINE
  5
4AFE
330
3F56
100
AcDbEntity
  8
HIDDEN
100
AcDbPolyline
 90
        2
 70
     0
 43
0.0
 10
28.70290455505367
 20
5.900226642433429
 10
28.58790455505367
 20
5.900226642433429
  0
LWPOLYLINE
  5
4B02
330
3F56
100
AcDbEntity
  8
HIDDEN
100
AcDbPolyline
 90
        3
 70
     0
 43
0.0
 10
28.58790455505367
 20
5.900226642433429
 10
28.58790455505367
 20
5.980226642433427
 10
28.70290455505367
 20
5.980226642433427
  0
LINE
  5
4B07
102
{ACAD_REACTORS
330
61F6
102
}
330
3F56
100
AcDbEntity
  8
OBJECT
100
AcDbLine
 10
30.22505477662896
 20
16.02678586120421
 30
0.0
 11
30.22505477662896
 21
14.69878586120395
 31
0.0
  0
LINE
  5
4B08
102
{ACAD_REACTORS
330
61F6
102
}
330
3F56
100
AcDbEntity
  8
OBJECT
100
AcDbLine
 10
28.46505477662897
 20
13.07478586120388
 30
0.0
 11
29.88505477662898
 21
13.07478586120388
 31
0.0
  0
LINE
  5
4B09
102
{ACAD_REACTORS
330
61F6
102
}
330
3F56
100
AcDbEntity
  8
OBJECT
100
AcDbLine
 10
28.46505477662897
 20
13.35503586120385
 30
0.0
 11
30.38505477662893
 21
13.35503586120385
 31
0.0
  0
LINE
  5
4B0A
102
{ACAD_REACTORS
330
61F6
102
}
330
3F56
100
AcDbEntity
  8
OBJECT
100
AcDbLine
 10
28.46505477662897
 20
12.74678586120391
 30
0.0
 11
30.61505477662893
 21
12.74678586120391
 31
0.0
  0
LINE
  5
4B0B
102
{ACAD_REACTORS
330
61F6
102
}
330
3F56
100
AcDbEntity
  8
OBJECT
100
AcDbLine
 10
29.88505477662894
 20
12.98678586120389
 30
0.0
 11
28.46505477662897
 21
12.98678586120392
 31
0.0
  0
LINE
  5
4B0C
102
{ACAD_REACTORS
330
61F6
102
}
330
3F56
100
AcDbEntity
  8
OBJECT
100
AcDbLine
 10
29.88505477662892
 20
13.07478586120388
 30
0.0
 11
29.88505477662894
 21
12.98678586120389
 31
0.0
  0
ARC
  5
4B0D
102
{ACAD_REACTORS
330
61F6
102
}
330
3F56
100
AcDbEntity
  8
OBJECT
100
AcDbCircle
 10
30.61505477662893
 20
12.99678586120391
 30
0.0
 40
0.25
100
AcDbArc
 50
270.0
 51
0.0
  0
LINE
  5
4B0E
102
{ACAD_REACTORS
330
61F6
102
}
330
3F56
100
AcDbEntity
  8
OBJECT
100
AcDbLine
 10
30.38505477662893
 20
13.07878586120387
 30
0.0
 11
30.86505477662893
 21
13.07878586120387
 31
0.0
  0
LINE
  5
4B0F
102
{ACAD_REACTORS
330
61F6
102
}
330
3F56
100
AcDbEntity
  8
OBJECT
100
AcDbLine
 10
28.46505477662897
 20
14.31478586120389
 30
0.0
 11
29.88505477662898
 21
14.31478586120389
 31
0.0
  0
LINE
  5
4B10
102
{ACAD_REACTORS
330
61F6
102
}
330
3F56
100
AcDbEntity
  8
OBJECT
100
AcDbLine
 10
28.46505477662897
 20
14.04253586120389
 30
0.0
 11
30.38505477662893
 21
14.04253586120389
 31
0.0
  0
LINE
  5
4B11
102
{ACAD_REACTORS
330
61F6
102
}
330
3F56
100
AcDbEntity
  8
OBJECT
100
AcDbLine
 10
29.88505477662894
 20
14.69878586120395
 30
0.0
 11
29.88505477662892
 21
14.31478586120389
 31
0.0
  0
LINE
  5
4B12
102
{ACAD_REACTORS
330
61F6
102
}
330
3F56
100
AcDbEntity
  8
OBJECT
100
AcDbLine
 10
29.88505477662894
 20
14.69878586120395
 30
0.0
 11
30.22505477662896
 21
14.69878586120395
 31
0.0
  0
LINE
  5
4B13
102
{ACAD_REACTORS
330
61F6
102
}
330
3F56
100
AcDbEntity
  8
OBJECT
100
AcDbLine
 10
30.38505477662893
 20
13.07878586120387
 30
0.0
 11
30.38505477662893
 21
14.31878586120385
 31
0.0
  0
LINE
  5
4B14
102
{ACAD_REACTORS
330
61F6
102
}
330
3F56
100
AcDbEntity
  8
OBJECT
100
AcDbLine
 10
30.38505477662893
 20
14.31878586120385
 30
0.0
 11
30.86505477662893
 21
14.31878586120385
 31
0.0
  0
LINE
  5
4B15
102
{ACAD_REACTORS
330
61F6
102
}
330
3F56
100
AcDbEntity
  8
OBJECT
100
AcDbLine
 10
28.46505477662902
 20
16.74678586120355
 30
0.0
 11
30.22505477662893
 21
16.74678586120355
 31
0.0
  0
LINE
  5
4B16
102
{ACAD_REACTORS
330
61F6
102
}
330
3F56
100
AcDbEntity
  8
OBJECT
100
AcDbLine
 10
28.46505477662902
 20
16.02678586120422
 30
0.0
 11
30.22505477662896
 21
16.02678586120422
 31
0.0
  0
LWPOLYLINE
  5
4B1C
102
{ACAD_REACTORS
330
61B8
330
61F6
102
}
330
3F56
100
AcDbEntity
  8
OBJECT
100
AcDbPolyline
 90
        2
 70
     0
 43
0.0
 10
28.46505477662896
 20
16.60406859295
 10
28.92505477662897
 20
16.60406859295
  0
LINE
  5
4B20
102
{ACAD_REACTORS
330
61F6
102
}
330
3F56
100
AcDbEntity
  8
OBJECT
100
AcDbLine
 10
30.22505477662896
 20
17.36822612893272
 30
0.0
 11
30.22505477662896
 21
16.74678586120355
 31
0.0
  0
LINE
  5
4B21
102
{ACAD_REACTORS
330
61F6
102
}
330
3F56
100
AcDbEntity
  8
OBJECT
100
AcDbLine
 10
30.86505477662893
 20
17.24400249979235
 30
0.0
 11
30.86505477662893
 21
12.99678586120391
 31
0.0
  0
LINE
  5
4B22
102
{ACAD_REACTORS
330
61F6
102
}
330
3F56
100
AcDbEntity
  8
OBJECT
100
AcDbLine
 10
28.46505477662897
 20
17.30116188198566
 30
0.0
 11
28.46505477662897
 21
12.74678586120391
 31
0.0
  0
DIMENSION
  5
4B7F
330
3F56
100
AcDbEntity
  8
DIM
100
AcDbDimension
  2
*D36
 10
27.61561192214077
 20
13.35323401622309
 30
0.0
 11
27.61561192214076
 21
13.69788493871349
 31
0.0
 70
    32
  1
<> DIA. 
 71
     5
 42
0.1723254612452005
  3
23NSTD4
100
AcDbAlignedDimension
 13
28.46505477662897
 23
14.04253586120389
 33
0.0
 14
28.46505477662897
 24
13.35323401622308
 34
0.0
 50
90.0
100
AcDbRotatedDimension
  0
LINE
  5
4B8D
102
{ACAD_REACTORS
330
61B8
102
}
330
3F56
100
AcDbEntity
  8
OBJECT
100
AcDbLine
 10
28.46505477662897
 20
16.28406859295001
 30
0.0
 11
28.46505477662897
 21
16.60406859295
 31
0.0
  0
DIMENSION
  5
4B8E
330
3F56
100
AcDbEntity
  8
DIM
100
AcDbDimension
  2
*D37
 10
28.92505477662897
 20
17.79916188198566
 30
0.0
 11
30.12192977662897
 21
17.79916188198566
 31
0.0
 70
    32
 71
     5
 42
0.1149999999999993
  3
23NSTD4
100
AcDbAlignedDimension
 13
28.46505477662897
 23
17.30116188198566
 33
0.0
 14
28.92505477662897
 24
16.60406859295
 34
0.0
100
AcDbRotatedDimension
  0
TEXT
  5
4BA3
330
3F56
100
AcDbEntity
  8
TEXT
100
AcDbText
 10
26.73242234386197
 20
12.12217746370952
 30
0.0
 40
0.25
  1
%%UDETAIL "C"
 41
0.8
  7
SECTION
 72
     1
 11
27.61194615338578
 21
12.12217746370952
 31
0.0
100
AcDbText
  0
DIMENSION
  5
4BA4
330
3F56
100
AcDbEntity
  8
DIM
100
AcDbDimension
  2
*D38
 10
23.11775535638431
 20
17.27285387179798
 30
0.0
 11
23.1177553563843
 21
15.60435387179798
 31
0.0
 70
    32
 71
     5
 42
3.336999999999997
  3
23NSTD
100
AcDbAlignedDimension
 13
21.64795336681957
 23
13.93585387179798
 33
0.0
 14
21.64795336681956
 24
17.27285387179798
 34
0.0
 50
90.0
100
AcDbRotatedDimension
  0
DIMENSION
  5
4BC0
330
3F56
100
AcDbEntity
  8
DIM
100
AcDbDimension
  2
*D39
 10
27.51439388833635
 20
16.28406859295001
 30
0.0
 11
26.64626888833635
 21
15.56406859295002
 31
0.0
 70
    32
 71
     5
 42
0.0799999999999974
  3
23NSTD4
100
AcDbAlignedDimension
 13
28.46505477662896
 23
16.60406859295
 33
0.0
 14
28.46505477662897
 24
16.28406859295001
 34
0.0
 50
90.0
100
AcDbRotatedDimension
  0
DIMENSION
  5
4BCE
330
3F56
100
AcDbEntity
  8
DIM
100
AcDbDimension
  2
*D40
 10
7.754848363955398
 20
4.019699112163934
 30
0.0
 11
6.067348363955387
 21
4.019699112163934
 31
0.0
 70
    32
 71
     5
 42
3.375000000000022
  3
23NSTD
100
AcDbAlignedDimension
 13
4.379848363955376
 23
6.515547325369975
 33
0.0
 14
7.754848363955398
 24
6.515547325369975
 34
0.0
100
AcDbRotatedDimension
  0
DIMENSION
  5
4BDC
330
3F56
100
AcDbEntity
  8
DIM
100
AcDbDimension
  2
*D41
 10
4.099848363955381
 20
4.019699112163934
 30
0.0
 11
2.856098363955381
 21
4.019699112163934
 31
0.0
 70
    32
  1
<>
 71
     5
 42
0.2799999999999949
  3
23NSTD
100
AcDbAlignedDimension
 13
4.379848363955376
 23
6.515547325369975
 33
0.0
 14
4.099848363955381
 24
6.094547325369971
 34
0.0
100
AcDbRotatedDimension
  0
DIMENSION
  5
4BEB
330
3F56
100
AcDbEntity
  8
DIM
100
AcDbDimension
  2
*D42
 10
28.26290455505367
 20
8.126848667194478
 30
0.0
 11
29.12990455505367
 21
8.126848667194478
 31
0.0
 70
    32
  1
D
 71
     5
 42
1.733999999999998
  3
23NSTD
100
AcDbAlignedDimension
 13
29.99690455505367
 23
7.990547325369981
 33
0.0
 14
28.26290455505367
 24
7.990547325369982
 34
0.0
100
AcDbRotatedDimension
  0
DIMENSION
  5
4C3F
330
3F56
100
AcDbEntity
  8
DIM
100
AcDbDimension
  2
*D43
 10
10.40616201238793
 20
9.779547325369975
 30
0.0
 11
10.40616201238793
 21
9.154547325369978
 31
0.0
 70
   160
  1
<>
 71
     5
 42
1.249999999999998
  3
23NSTD
100
AcDbAlignedDimension
 13
7.601848363955394
 23
8.529547325369977
 33
0.0
 14
7.784848363955394
 24
9.779547325369975
 34
0.0
 50
90.0
100
AcDbRotatedDimension
  0
DIMENSION
  5
4C4C
330
3F56
100
AcDbEntity
  8
DIM
100
AcDbDimension
  2
*D44
 10
8.854802520500241
 20
9.779547325369975
 30
0.0
 11
8.854802520500239
 21
8.973297325369978
 31
0.0
 70
   160
  1
<>
 71
     5
 42
1.612499999999997
  3
23NSTD
100
AcDbAlignedDimension
 13
7.601848363955394
 23
8.167047325369978
 33
0.0
 14
7.784848363955394
 24
9.779547325369975
 34
0.0
 50
90.0
100
AcDbRotatedDimension
  0
LWPOLYLINE
  5
4C5A
330
3F56
100
AcDbEntity
  8
OBJECT
100
AcDbPolyline
 90
        4
 70
     1
 43
0.0
 10
19.09295336681956
 20
13.93585387179798
 10
21.64795336681957
 20
13.93585387179798
 10
21.64795336681956
 20
17.27285387179798
 10
19.09295336681955
 20
17.27285387179798
  0
DIMENSION
  5
4C7F
330
3F56
100
AcDbEntity
  8
DIM
100
AcDbDimension
  2
*D45
 10
30.38505477662893
 20
12.18384609012078
 30
0.0
 11
29.17255477662893
 21
12.18384609012078
 31
0.0
 70
    32
 71
     5
 42
0.120000000000001
  3
23NSTD4
100
AcDbAlignedDimension
 13
30.86505477662893
 23
12.99678586120391
 33
0.0
 14
30.38505477662893
 24
13.07878586120387
 34
0.0
100
AcDbRotatedDimension
  0
DIMENSION
  5
4CA6
330
3F56
100
AcDbEntity
  8
DIM
100
AcDbDimension
  2
*D46
 10
14.22723747020355
 20
8.998353833139489
 30
0.0
 11
15.48661247020355
 21
8.998353833139489
 31
0.0
 70
    32
 71
     5
 42
0.2919999999999909
  3
23NSTD
100
AcDbAlignedDimension
 13
13.93523747020356
 23
9.246047325369975
 33
0.0
 14
14.22723747020355
 24
9.246047325369975
 34
0.0
100
AcDbRotatedDimension
  0
DIMENSION
  5
547E
330
3F56
100
AcDbEntity
  8
DIM
100
AcDbDimension
  2
*D47
 10
32.07740960805862
 20
14.31124693227265
 30
0.0
 11
32.07740960805862
 21
13.69124693227266
 31
0.0
 70
    32
  1
<> DIA.\PC'BORE
 71
     5
 42
0.3100000000000005
  3
23NSTD4I
100
AcDbAlignedDimension
 13
30.86054990546379
 23
13.07124693227265
 33
0.0
 14
30.86054990546379
 24
14.31124693227265
 34
0.0
 50
90.0
100
AcDbRotatedDimension
  0
TEXT
  5
548D
330
3F56
100
AcDbEntity
  8
TEXT
100
AcDbText
 10
17.97639113902641
 20
20.61117936796171
 30
0.0
 40
0.2751999995712
  1
PNR-2600,  PNR-2600-C  AND  PNR-2600-DG
 41
0.75
 72
     4
 11
21.81199113305001
 21
20.7258460344497
 31
0.0
100
AcDbText
  0
TEXT
  5
5497
330
3F56
100
AcDbEntity
  8
TEXT
100
AcDbText
 10
18.02799113894601
 20
20.19910627414948
 30
0.0
 40
0.2751999995712
  1
PNR-2601,  PNR-2601-C  AND  PNR-2601-DG
 41
0.75
 72
     4
 11
21.81199113305001
 21
20.31377294063748
 31
0.0
100
AcDbText
  0
INSERT
  5
54E2
330
3F56
100
AcDbEntity
  8
OBJECT
100
AcDbBlockReference
  2
HBS
 10
0.0
 20
0.4159998959999994
 30
0.0
 41
1.999999999999997
 42
2.0
 43
2.0
  0
TEXT
  5
54E3
330
3F56
100
AcDbEntity
  8
TEXT
100
AcDbText
 10
5.858875000000008
 20
20.373749896
 30
0.0
 40
0.3125
  1
NEMA 4X ENCLOSURE
 41
0.75
 72
     4
 11
7.812000000000008
 21
20.529999896
 31
0.0
100
AcDbText
  0
TEXT
  5
54E4
330
3F56
100
AcDbEntity
  8
TEXT
100
AcDbText
 10
30.58827238305002
 20
20.37374989600001
 30
0.0
 40
0.3125
  1
11-17-08
 41
0.75
 72
     4
 11
31.34999113305002
 21
20.52999989600001
 31
0.0
100
AcDbText
  0
TEXT
  5
54E5
330
3F56
100
AcDbEntity
  8
TEXT
100
AcDbText
 10
0.5356017448675665
 20
18.58123392218011
 30
0.0
 40
0.2499999
  1
  UL94-HB FLAMMABILITY RATING (UL FILE #E41613)
 41
0.75
100
AcDbText
  0
TEXT
  5
54E6
330
3F56
100
AcDbEntity
  8
TEXT
100
AcDbText
 10
0.5356017448675665
 20
17.74803442218011
 30
0.0
 40
0.2499999
  1
  SERVICE TEMPERATURE RANGE:  -40%%DC TO +120%%DC
 41
0.75
100
AcDbText
  0
TEXT
  5
54E7
330
3F56
100
AcDbEntity
  8
TEXT
100
AcDbText
 10
0.5356017448675665
 20
16.91483492218011
 30
0.0
 40
0.2499999
  1
  UL94-HB FLAMMABILITY RATING (UL FILE #E56070)
 41
0.75
100
AcDbText
  0
TEXT
  5
54E8
330
3F56
100
AcDbEntity
  8
TEXT
100
AcDbText
 10
0.5356017448675665
 20
16.49830192218011
 30
0.0
 40
0.2499999
  1
  SERVICE TEMPERATURE RANGE:  -40%%DC TO +80%%DC
 41
0.75
100
AcDbText
  0
TEXT
  5
54E9
330
3F56
100
AcDbEntity
  8
TEXT
100
AcDbText
 10
0.5356017448675665
 20
18.9979004221801
 30
0.0
 40
0.2499999
  1
 %%UPOLYCARBONATE%%U (LIGHT GRAY AND CLEAR)
 41
0.75
100
AcDbText
  0
TEXT
  5
54EA
330
3F56
100
AcDbEntity
  8
TEXT
100
AcDbText
 10
0.5356017448675665
 20
18.1647009221801
 30
0.0
 40
0.2499999
  1
  UV STABILIZED
 41
0.75
100
AcDbText
  0
TEXT
  5
54EB
330
3F56
100
AcDbEntity
  8
TEXT
100
AcDbText
 10
0.5356017448675665
 20
19.41456692218011
 30
0.0
 40
0.312499875
  1
INDUSTRY STANDARDS:
 41
0.75
100
AcDbText
  0
TEXT
  5
54EC
330
3F56
100
AcDbEntity
  8
TEXT
100
AcDbText
 10
0.5356017448675665
 20
17.33150142218011
 30
0.0
 40
0.2499999
  1
 %%UABS%%U (DARK GRAY)
 41
0.75
100
AcDbText
  0
TEXT
  5
54ED
330
3F56
100
AcDbEntity
  8
TEXT
100
AcDbText
 10
16.27601039999842
 20
2.825998410100228
 30
0.0
 40
0.249999837500025
  1
%%UNOTE%%U:  ALL DIMENSIONS HAVE %%P0.015 TOLERANCE UNLESS OTHERWISE SPECIFIED.
 41
0.75
100
AcDbText
  0
LINE
  5
54EE
330
3F56
100
AcDbEntity
  8
TITLE
100
AcDbLine
 10
21.07600779999882
 20
2.203998814400165
 30
0.0
 11
29.07600259999962
 21
2.203998814400165
 31
0.0
  0
TEXT
  5
54EF
330
3F56
100
AcDbEntity
  8
TEXT
100
AcDbText
 10
26.26350442812432
 20
0.6209998433500079
 30
0.0
 40
0.249999837500025
  1
DARK GRAY
 41
0.75
 72
     4
 11
27.07600389999941
 21
0.7459997621000203
 31
0.0
100
AcDbText
  0
TEXT
  5
54F0
330
3F56
100
AcDbEntity
  8
TEXT
100
AcDbText
 10
26.20100446874932
 20
1.454332635016753
 30
0.0
 40
0.249999837500025
  1
LIGHT GRAY
 41
0.75
 72
     4
 11
27.07600389999941
 21
1.579332553766765
 31
0.0
100
AcDbText
  0
TEXT
  5
54F1
330
3F56
100
AcDbEntity
  8
TEXT
100
AcDbText
 10
26.60725420468687
 20
2.286998760450177
 30
0.0
 40
0.249999837500025
  1
FINISH
 41
0.75
 72
     4
 11
27.07600389999941
 21
2.411998679200189
 31
0.0
100
AcDbText
  0
LINE
  5
54F2
330
3F56
100
AcDbEntity
  8
TITLE
100
AcDbLine
 10
16.27601039999842
 20
2.61999854400021
 30
0.0
 11
33.07600000000002
 21
2.61999854400021
 31
0.0
  0
LINE
  5
54F3
330
3F56
100
AcDbEntity
  8
TITLE
100
AcDbLine
 10
16.27601039999842
 20
1.787999084800128
 30
0.0
 11
33.07600000000002
 21
1.787999084800128
 31
0.0
  0
LINE
  5
54F4
330
3F56
100
AcDbEntity
  8
TITLE
100
AcDbLine
 10
16.27601039999842
 20
1.371999355200084
 30
0.0
 11
29.07600259999962
 21
1.371999355200084
 31
0.0
  0
LINE
  5
54F5
330
3F56
100
AcDbEntity
  8
TITLE
100
AcDbLine
 10
16.27601039999842
 20
0.9559996256000403
 30
0.0
 11
29.07600259999962
 21
0.9559996256000403
 31
0.0
  0
TEXT
  5
54F6
330
3F56
100
AcDbEntity
  8
TEXT
100
AcDbText
 10
21.73225737343638
 20
1.870999030850133
 30
0.0
 40
0.249999837500025
  1
BODY
 41
0.75
 72
     4
 11
22.07600714999892
 21
1.995998949600146
 31
0.0
100
AcDbText
  0
TEXT
  5
54F7
330
3F56
100
AcDbEntity
  8
TEXT
100
AcDbText
 10
21.76350735312389
 20
0.6209998433500101
 30
0.0
 40
0.249999837500025
  1
HIGH-IMPACT ABS
 41
0.75
 72
     4
 11
23.07600649999902
 21
0.7459997621000225
 31
0.0
100
AcDbText
  0
TEXT
  5
54F8
330
3F56
100
AcDbEntity
  8
TEXT
100
AcDbText
 10
16.62913543046716
 20
1.036999572950051
 30
0.0
 40
0.249999837500025
  1
PNR-2600-C & PNR-2601-C
 41
0.75
 72
     4
 11
18.67600909999861
 21
1.161999491700064
 31
0.0
100
AcDbText
  0
LINE
  5
54F9
330
3F56
100
AcDbEntity
  8
TITLE
100
AcDbLine
 10
16.27601039999842
 20
2.61999854400021
 30
0.0
 11
16.27601039999842
 21
0.5399998960000017
 31
0.0
  0
LINE
  5
54FA
330
3F56
100
AcDbEntity
  8
TITLE
100
AcDbLine
 10
21.07600779999882
 20
2.61999854400021
 30
0.0
 11
21.07600779999882
 21
0.5399998960000017
 31
0.0
  0
TEXT
  5
54FB
330
3F56
100
AcDbEntity
  8
TEXT
100
AcDbText
 10
16.44163555234214
 20
0.6203331771166766
 30
0.0
 40
0.249999837500025
  1
PNR-2600-DG & PNR-2601-DG
 41
0.75
 72
     4
 11
18.67600909999861
 21
0.7453330958666891
 31
0.0
100
AcDbText
  0
TEXT
  5
54FC
330
3F56
100
AcDbEntity
  8
TEXT
100
AcDbText
 10
17.0041351867172
 20
1.453665968783427
 30
0.0
 40
0.249999837500025
  1
PNR-2600 & PNR-2601
 41
0.75
 72
     4
 11
18.67600909999861
 21
1.578665887533439
 31
0.0
100
AcDbText
  0
TEXT
  5
54FD
330
3F56
100
AcDbEntity
  8
TEXT
100
AcDbText
 10
17.67600974999852
 20
2.078998895650153
 30
0.0
 40
0.249999837500025
  1
PART NUMBER
 41
0.75
 72
     4
 11
18.67600909999861
 21
2.203998814400165
 31
0.0
100
AcDbText
  0
TEXT
  5
54FE
330
3F56
100
AcDbEntity
  8
TEXT
100
AcDbText
 10
25.20100511874922
 20
1.037666239183385
 30
0.0
 40
0.249999837500025
  1
LIGHT GRAY
 41
0.75
 72
     4
 11
26.0760045499993
 21
1.162666157933398
 31
0.0
100
AcDbText
  0
TEXT
  5
54FF
330
3F56
100
AcDbEntity
  8
TEXT
100
AcDbText
 10
21.8885072718739
 20
1.037666239183385
 30
0.0
 40
0.249999837500025
  1
POLYCARBONATE
 41
0.75
 72
     4
 11
23.07600649999902
 21
1.162666157933398
 31
0.0
100
AcDbText
  0
LINE
  5
5500
330
3F56
100
AcDbEntity
  8
TITLE
100
AcDbLine
 10
25.07600519999922
 20
2.61999854400021
 30
0.0
 11
25.07600519999922
 21
0.5399998960000017
 31
0.0
  0
TEXT
  5
5501
330
3F56
100
AcDbEntity
  8
TEXT
100
AcDbText
 10
23.60725615468658
 20
1.870999030850133
 30
0.0
 40
0.249999837500025
  1
COVER
 41
0.75
 72
     4
 11
24.07600584999913
 21
1.995998949600146
 31
0.0
100
AcDbText
  0
TEXT
  5
5502
330
3F56
100
AcDbEntity
  8
TEXT
100
AcDbText
 10
21.8885072718739
 20
1.454332635016758
 30
0.0
 40
0.249999837500025
  1
POLYCARBONATE
 41
0.75
 72
     4
 11
23.07600649999902
 21
1.57933255376677
 31
0.0
100
AcDbText
  0
TEXT
  5
5503
330
3F56
100
AcDbEntity
  8
TEXT
100
AcDbText
 10
22.38850694687395
 20
2.286998760450177
 30
0.0
 40
0.249999837500025
  1
MATERIAL
 41
0.75
 72
     4
 11
23.07600649999902
 21
2.411998679200189
 31
0.0
100
AcDbText
  0
LINE
  5
5504
330
3F56
100
AcDbEntity
  8
TITLE
100
AcDbLine
 10
23.07600649999902
 20
2.203998814400165
 30
0.0
 11
23.07600649999902
 21
1.787999084800128
 31
0.0
  0
TEXT
  5
5505
330
3F56
100
AcDbEntity
  8
TEXT
100
AcDbText
 10
25.73225477343677
 20
1.870999030850133
 30
0.0
 40
0.249999837500025
  1
BODY
 41
0.75
 72
     4
 11
26.0760045499993
 21
1.995998949600146
 31
0.0
100
AcDbText
  0
TEXT
  5
5506
330
3F56
100
AcDbEntity
  8
TEXT
100
AcDbText
 10
29.29475245781213
 20
0.6209998433500078
 30
0.0
 40
0.249999837500025
  1
SCREWS FOR ASSEMBLY
 41
0.75
 72
     4
 11
31.07600129999981
 21
0.7459997621000203
 31
0.0
100
AcDbText
  0
TEXT
  5
5507
330
3F56
100
AcDbEntity
  8
TEXT
100
AcDbText
 10
29.31037744765589
 20
1.03766623918338
 30
0.0
 40
0.249999837500025
  1
M4 x 17mm (0.668") LG.
 41
0.75
 72
     4
 11
31.07600129999981
 21
1.162666157933393
 31
0.0
100
AcDbText
  0
TEXT
  5
5508
330
3F56
100
AcDbEntity
  8
TEXT
100
AcDbText
 10
29.73225217343717
 20
1.454332635016753
 30
0.0
 40
0.249999837500025
  1
KIT CONTAINS (4)
 41
0.75
 72
     4
 11
31.07600129999981
 21
1.579332553766765
 31
0.0
100
AcDbText
  0
TEXT
  5
5509
330
3F56
100
AcDbEntity
  8
TEXT
100
AcDbText
 10
27.63850353437447
 20
1.037666239183385
 30
0.0
 40
0.249999837500025
  1
CLEAR
 41
0.75
 72
     4
 11
28.07600324999952
 21
1.162666157933398
 31
0.0
100
AcDbText
  0
LINE
  5
550A
330
3F56
100
AcDbEntity
  8
TITLE
100
AcDbLine
 10
27.07600389999941
 20
1.371999355200084
 30
0.0
 11
27.07600389999941
 21
0.9559996256000403
 31
0.0
  0
LINE
  5
550B
330
3F56
100
AcDbEntity
  8
TITLE
100
AcDbLine
 10
29.07600259999962
 20
2.61999854400021
 30
0.0
 11
29.07600259999962
 21
0.5399998960000017
 31
0.0
  0
TEXT
  5
550C
330
3F56
100
AcDbEntity
  8
TEXT
100
AcDbText
 10
27.60725355468697
 20
1.870999030850133
 30
0.0
 40
0.249999837500025
  1
COVER
 41
0.75
 72
     4
 11
28.07600324999952
 21
1.995998949600146
 31
0.0
100
AcDbText
  0
LINE
  5
550D
330
3F56
100
AcDbEntity
  8
TITLE
100
AcDbLine
 10
27.07600389999941
 20
2.203998814400165
 30
0.0
 11
27.07600389999941
 21
1.787999084800128
 31
0.0
  0
TEXT
  5
550E
330
3F56
100
AcDbEntity
  8
TEXT
100
AcDbText
 10
29.98225201093722
 20
2.078998895650153
 30
0.0
 40
0.249999837500025
  1
HARDWARE KIT
 41
0.75
 72
     4
 11
31.07600129999982
 21
2.203998814400165
 31
0.0
100
AcDbText
  0
LINE
  5
551E
330
3F56
100
AcDbEntity
  8
TITLE
100
AcDbLine
 10
20.27290506239997
 20
18.45066229600001
 30
0.0
 11
33.07599999999998
 21
18.45066229600001
 31
0.0
  0
LINE
  5
551F
330
3F56
100
AcDbEntity
  8
TITLE
100
AcDbLine
 10
20.27290506239997
 20
19.281331096
 30
0.0
 11
33.07599999999998
 21
19.281331096
 31
0.0
  0
LINE
  5
5520
330
3F56
100
AcDbEntity
  8
TITLE
100
AcDbLine
 10
20.27290506239997
 20
18.86599669600001
 30
0.0
 11
33.07599999999998
 21
18.86599669600001
 31
0.0
  0
TEXT
  5
5521
330
3F56
100
AcDbEntity
  8
TEXT
100
AcDbText
 10
20.47611973119997
 20
18.96833269600001
 30
0.0
 40
0.2496
  1
PNR-2600, PNR-2600-C AND PNR-2600-DG
 41
0.75
 72
     4
 11
23.67411973119997
 21
19.07233269600001
 31
0.0
100
AcDbText
  0
TEXT
  5
5522
330
3F56
100
AcDbEntity
  8
TEXT
100
AcDbText
 10
20.52291973119997
 20
18.55233269600001
 30
0.0
 40
0.2496
  1
PNR-2601, PNR-2601-C AND PNR-2601-DG
 41
0.75
 72
     4
 11
23.67411973119997
 21
18.65633269600001
 31
0.0
100
AcDbText
  0
LINE
  5
5523
330
3F56
100
AcDbEntity
  8
TITLE
100
AcDbLine
 10
20.27290506239997
 20
20.11199989600001
 30
0.0
 11
20.27290506239997
 21
18.45066229600001
 31
0.0
  0
TEXT
  5
5524
330
3F56
100
AcDbEntity
  8
TEXT
100
AcDbText
 10
22.67571973119997
 20
19.571532696
 30
0.0
 40
0.2496
  1
PART NUMBER
 41
0.75
 72
     4
 11
23.67411973119997
 21
19.696332696
 31
0.0
100
AcDbText
  0
TEXT
  5
5525
330
3F56
100
AcDbEntity
  8
TEXT
100
AcDbText
 10
30.45159999999997
 20
18.532863896
 30
0.0
 40
0.2496
  1
3.555
 41
0.75
 72
     4
 11
30.82599999999997
 21
18.657663896
 31
0.0
100
AcDbText
  0
TEXT
  5
5526
330
3F56
100
AcDbEntity
  8
TEXT
100
AcDbText
 10
30.48279999999997
 20
18.948863896
 30
0.0
 40
0.2496
  1
2.186
 41
0.75
 72
     4
 11
30.82599999999997
 21
19.073663896
 31
0.0
100
AcDbText
  0
LINE
  5
5527
330
3F56
100
AcDbEntity
  8
TITLE
100
AcDbLine
 10
27.07599999999997
 20
19.69666549600001
 30
0.0
 11
33.07599999999998
 21
19.69666549600001
 31
0.0
  0
TEXT
  5
5528
330
3F56
100
AcDbEntity
  8
TEXT
100
AcDbText
 10
28.98279999999997
 20
18.948863896
 30
0.0
 40
0.2496
  1
1.586
 41
0.75
 72
     4
 11
29.32599999999997
 21
19.073663896
 31
0.0
100
AcDbText
  0
TEXT
  5
5529
330
3F56
100
AcDbEntity
  8
TEXT
100
AcDbText
 10
27.48279999999997
 20
18.948863896
 30
0.0
 40
0.2496
  1
1.645
 41
0.75
 72
     4
 11
27.82599999999997
 21
19.073663896
 31
0.0
100
AcDbText
  0
LINE
  5
552B
330
3F56
100
AcDbEntity
  8
TITLE
100
AcDbLine
 10
27.07599999999997
 20
20.11199989600001
 30
0.0
 11
27.07599999999997
 21
18.45066229600001
 31
0.0
  0
TEXT
  5
552D
330
3F56
100
AcDbEntity
  8
TEXT
100
AcDbText
 10
27.49839999999997
 20
18.532863896
 30
0.0
 40
0.2496
  1
3.016
 41
0.75
 72
     4
 11
27.82599999999997
 21
18.657663896
 31
0.0
100
AcDbText
  0
TEXT
  5
552E
330
3F56
100
AcDbEntity
  8
TEXT
100
AcDbText
 10
28.95159999999997
 20
18.532863896
 30
0.0
 40
0.2496
  1
2.955
 41
0.75
 72
     4
 11
29.32599999999997
 21
18.657663896
 31
0.0
100
AcDbText
  0
TEXT
  5
552F
330
3F56
100
AcDbEntity
  8
TEXT
100
AcDbText
 10
29.32239999999997
 20
19.779532696
 30
0.0
 40
0.2496
  1
DIMENSION
 41
0.75
 72
     4
 11
30.07119999999997
 21
19.904332696
 31
0.0
100
AcDbText
  0
TEXT
  5
5530
330
3F56
100
AcDbEntity
  8
TEXT
100
AcDbText
 10
27.76359999999997
 20
19.36486389600001
 30
0.0
 40
0.2496
  1
A
 41
0.75
 72
     4
 11
27.82599999999997
 21
19.48966389600001
 31
0.0
100
AcDbText
  0
TEXT
  5
5531
330
3F56
100
AcDbEntity
  8
TEXT
100
AcDbText
 10
29.26359999999997
 20
19.36486389600001
 30
0.0
 40
0.2496
  1
B
 41
0.75
 72
     4
 11
29.32599999999997
 21
19.48966389600001
 31
0.0
100
AcDbText
  0
TEXT
  5
5532
330
3F56
100
AcDbEntity
  8
TEXT
100
AcDbText
 10
30.76359999999997
 20
19.36486389600001
 30
0.0
 40
0.2496
  1
C
 41
0.75
 72
     4
 11
30.82599999999997
 21
19.48966389600001
 31
0.0
100
AcDbText
  0
SPLINE
  5
5538
102
{ACAD_REACTORS
330
61F6
102
}
330
3F56
100
AcDbEntity
  8
OBJECT
100
AcDbSpline
210
0.0
220
0.0
230
1.0
 70
     8
 71
     3
 72
    13
 73
     9
 74
     7
 42
0.0000000001
 43
0.0000000001
 44
0.0000000001
 40
0.0
 40
0.0
 40
0.0
 40
0.0
 40
0.3886104348819193
 40
0.8526947301515651
 40
1.197516866069632
 40
1.721077568827273
 40
2.164872543798961
 40
2.706093297341537
 40
2.706093297341537
 40
2.706093297341537
 40
2.706093297341537
 10
28.46505477662897
 20
17.30116188198566
 30
0.0
 10
28.58441098263614
 20
17.38865723499364
 30
0.0
 10
28.84630412481109
 20
17.58064082505168
 30
0.0
 10
29.23000564819938
 20
17.05797527177668
 30
0.0
 10
29.5384509744452
 20
17.68327800249261
 30
0.0
 10
29.97194624886867
 20
17.02460898910198
 30
0.0
 10
30.38832395670775
 20
17.62951112175634
 30
0.0
 10
30.69600062504228
 20
17.38070822615222
 30
0.0
 10
30.86505477662893
 20
17.24400249979235
 30
0.0
 11
28.46505477662897
 21
17.30116188198566
 31
0.0
 11
28.82547509379375
 21
17.44647280750041
 31
0.0
 11
29.2445410401313
 21
17.24707881126147
 31
0.0
 11
29.51061465685356
 21
17.46641220111226
 31
0.0
 11
29.98289521323945
 21
17.24043236676437
 31
0.0
 11
30.36870195748673
 21
17.45976575661515
 31
0.0
 11
30.86505477662893
 21
17.24400249979235
 31
0.0
  0
LEADER
  5
553B
330
3F56
100
AcDbEntity
  8
DIM
100
AcDbLeader
  3
23NSTD
 73
     0
 75
     1
 40
0.6666666666666666
 41
2.625
 76
     3
 10
28.46505477662897
 20
16.44406859295001
 30
0.0
 10
27.33012554152228
 20
17.73258251931443
 30
0.0
 10
26.97012554152228
 20
17.73258251931443
 30
0.0
340
553C
213
0.0
223
-0.15625
233
0.0
1001
ACAD
1000
DSTYLE
1002
{
1070
   147
1040
0.09
1070
    77
1070
     0
1002
}
  0
MTEXT
  5
553C
102
{ACAD_REACTORS
330
553B
102
}
330
3F56
100
AcDbEntity
  8
DIM
100
AcDbMText
 10
26.79012554152228
 20
17.88883251931443
 30
0.0
 40
0.25
 41
0.0
 71
     3
 72
     1
  1
SILICONE GASKET\P(CLEAR)
 73
     1
 44
1.0
  0
LEADER
  5
553D
330
3F56
100
AcDbEntity
  8
DIM
100
AcDbLeader
  3
23NSTD
 73
     0
 75
     1
 40
0.25
 41
2.375
 76
     3
 10
23.86943899232986
 20
5.713250001849224
 30
0.0
 10
23.53563558439479
 20
5.038659774738093
 30
0.0
 10
23.17563558439479
 20
5.038659774738093
 30
0.0
340
553E
213
0.0
223
-0.15625
233
0.0
1001
ACAD
1000
DSTYLE
1002
{
1070
   147
1040
0.09
1070
    77
1070
     0
1002
}
  0
MTEXT
  5
553E
102
{ACAD_REACTORS
330
553D
102
}
330
3F56
100
AcDbEntity
  8
DIM
100
AcDbMText
 10
22.9956355843948
 20
5.194909774738093
 30
0.0
 40
0.25
 41
0.0
 71
     3
 72
     1
  1
\A1;SEE DETAIL "C"
 73
     1
 44
1.0
  0
LEADER
  5
5541
330
3F56
100
AcDbEntity
  8
DIM
100
AcDbLeader
  3
23NSTD
 73
     0
 74
     0
 75
     1
 40
2.749999999999999
 41
4.71875
 76
     3
 10
7.760130510704673
 20
7.333974127554858
 30
0.0
 10
9.282131055375593
 20
4.75805964147193
 30
0.0
 10
9.642131055375593
 20
4.75805964147193
 30
0.0
340
5542
213
0.0
223
-0.15625
233
0.0
1001
ACAD
1000
DSTYLE
1002
{
1070
   147
1040
0.09
1070
    77
1070
     0
1002
}
  0
MTEXT
  5
5542
102
{ACAD_REACTORS
330
5541
102
}
330
3F56
100
AcDbEntity
  8
DIM
100
AcDbMText
 10
9.822131055375592
 20
4.91430964147193
 30
0.0
 40
0.25
 41
0.0
 71
     1
 72
     1
  1
0.350 DIA. BOSS WITH\P0.175 DIA. HOLE x 0.196 DEEP\P(4) PLACES\PMOUNTING BOSSES USE EITHER\PM5 METRIC OR #10 STD. SHEET\PMETAL SCREWS x 0.188 LG.\P(NOT SUPPLIED)
 73
     1
 44
1.0
  0
LINE
  5
5772
330
3F56
100
AcDbEntity
  8
TITLE
100
AcDbLine
 10
28.57599999999997
 20
19.69666549600001
 30
0.0
 11
28.57599999999997
 21
18.45066229600001
 31
0.0
  0
LINE
  5
5773
330
3F56
100
AcDbEntity
  8
TITLE
100
AcDbLine
 10
30.07599999999997
 20
19.69666549600001
 30
0.0
 11
30.07599999999997
 21
18.45066229600001
 31
0.0
  0
LINE
  5
5774
330
3F56
100
AcDbEntity
  8
TITLE
100
AcDbLine
 10
31.57599999999996
 20
19.69666549600001
 30
0.0
 11
31.57599999999997
 21
18.45066229600001
 31
0.0
  0
TEXT
  5
577B
330
3F56
100
AcDbEntity
  8
TEXT
100
AcDbText
 10
31.98279999999998
 20
18.948863896
 30
0.0
 40
0.2496
  1
1.734
 41
0.75
 72
     4
 11
32.32599999999997
 21
19.073663896
 31
0.0
100
AcDbText
  0
TEXT
  5
577C
330
3F56
100
AcDbEntity
  8
TEXT
100
AcDbText
 10
31.99839999999998
 20
18.532863896
 30
0.0
 40
0.2496
  1
3.103
 41
0.75
 72
     4
 11
32.32599999999997
 21
18.657663896
 31
0.0
100
AcDbText
  0
TEXT
  5
577D
330
3F56
100
AcDbEntity
  8
TEXT
100
AcDbText
 10
32.26359999999998
 20
19.36486389600001
 30
0.0
 40
0.2496
  1
D
 41
0.75
 72
     4
 11
32.32599999999997
 21
19.48966389600001
 31
0.0
100
AcDbText
  0
LWPOLYLINE
  5
57D7
330
3F56
100
AcDbEntity
  8
BEND
100
AcDbPolyline
 90
       12
 70
     0
 10
7.307146555391701
 20
5.515649400502396
 40
0.0
 41
0.15649999992125
 10
7.620146555234198
 20
5.515649400502396
 40
0.0260833333202083
 41
0.0260833333202083
 10
7.797848363955397
 20
5.515649400502396
 40
0.0260833333202083
 41
0.0260833333202083
 10
7.797848363955397
 20
6.373685978303257
 40
0.0260833333202083
 41
0.0260833333202083
 10
7.758848363955397
 20
6.373685978303257
 40
0.0260833333202083
 41
0.0260833333202083
 10
7.758848363955397
 20
6.878780028398892
 40
0.0260833333202083
 41
0.0260833333202083
 10
7.601848363955394
 20
6.878780028398892
 40
0.0260833333202083
 41
0.0260833333202083
 10
7.601848363955394
 20
7.892709846828313
 40
0.0260833333202083
 41
0.0260833333202083
 10
7.2148483639554
 20
7.892709846828312
 40
0.0260833333202083
 41
0.0260833333202083
 10
7.2148483639554
 20
10.12777561442048
 40
0.0260833333202083
 41
0.0260833333202083
 10
6.908824286875745
 20
10.12777561442048
 40
0.15649999992125
 41
0.0
 10
6.595824287033249
 20
10.12777561442048
 40
0.0
 41
0.0
  0
MTEXT
  5
58BE
102
{ACAD_REACTORS
330
58BF
102
}
330
3F56
100
AcDbEntity
  8
DIM
100
AcDbMText
 10
10.77948967546544
 20
16.0531900739063
 30
0.0
 40
0.25
 41
0.0
 71
     1
 72
     1
  1
0.275 DIA. BOSS WITH\P0.090 DIA. HOLE x 0.180 DEEP\P(2) PLACES\PMOUNTING BOSSES USE EITHER\PM2.5 METRIC OR #4 STD. SHEET\PMETAL SCREWS x 0.188 LG.\P(NOT SUPPLIED)
 73
     1
 44
1.0
  0
LEADER
  5
58BF
330
3F56
100
AcDbEntity
  8
DIM
100
AcDbLeader
  3
23NSTD
 73
     0
 74
     0
 75
     1
 40
2.749999999999999
 41
4.875
 76
     3
 10
6.197403089335814
 20
9.476744795326089
 30
0.0
 10
10.23948967546544
 20
15.8969400739063
 30
0.0
 10
10.59948967546544
 20
15.8969400739063
 30
0.0
340
58BE
213
0.0
223
-0.15625
233
0.0
1001
ACAD
1000
DSTYLE
1002
{
1070
   147
1040
0.09
1070
    77
1070
     0
1002
}
  0
MTEXT
  5
5C91
102
{ACAD_REACTORS
330
5C92
102
}
330
3F56
100
AcDbEntity
  8
DIM
100
AcDbMText
 10
3.200473363955381
 20
11.75204053680472
 30
0.0
 40
0.25
 41
0.0
 71
     3
 72
     1
  1
\A1;M4 x 0.315 LG.\PTHREADED INSERT\P(4) PLACES
 73
     1
 44
1.0
  0
LEADER
  5
5C92
330
3F56
100
AcDbEntity
  8
DIM
100
AcDbLeader
  3
23NSTD
 73
     0
 75
     1
 40
1.083333333333333
 41
2.6875
 76
     3
 10
4.251306843334837
 20
9.632693626720737
 30
0.0
 10
3.740473363955381
 20
11.59579053680472
 30
0.0
 10
3.380473363955381
 20
11.59579053680472
 30
0.0
340
5C91
210
0.0
220
0.0
230
-1.0
213
0.0
223
-0.15625
233
0.0
1001
ACAD
1000
DSTYLE
1002
{
1070
   147
1040
0.09
1070
    77
1070
     0
1002
}
  0
LEADER
  5
5CA7
330
3F56
100
AcDbEntity
  8
DIM
100
AcDbLeader
  3
23NSTD
 73
     0
 74
     0
 75
     1
 40
1.916666666666666
 41
3.75
 76
     3
 10
7.729954317800686
 20
8.625405890920429
 30
0.0
 10
9.392102408076276
 20
12.60693480566916
 30
0.0
 10
9.752102408076275
 20
12.60693480566916
 30
0.0
340
5CA8
213
0.0
223
-0.15625
233
0.0
1001
ACAD
1000
DSTYLE
1002
{
1070
   147
1040
0.09
1070
    77
1070
     0
1002
}
  0
MTEXT
  5
5CA8
102
{ACAD_REACTORS
330
5CA7
102
}
330
3F56
100
AcDbEntity
  8
DIM
100
AcDbMText
 10
9.932102408076275
 20
12.76318480566916
 30
0.0
 40
0.25
 41
0.0
 71
     1
 72
     1
  1
0.285 DIA. BOSS\PWITH M3 x 0.218 LG.\PTHREADED INSERT\P(4) PLACES\P(SCREWS NOT SUPPLIED)
 73
     1
 44
1.0
  0
LINE
  5
5D0C
330
3F56
100
AcDbEntity
  8
HIDDEN
100
AcDbLine
 10
4.526598617162626
 20
3.067493446752749
 30
0.0
 11
4.526598617162626
 21
1.796493446752741
 31
0.0
  0
LINE
  5
5D0E
330
3F56
100
AcDbEntity
  8
HIDDEN
100
AcDbLine
 10
7.608098110748148
 20
3.067493446752749
 30
0.0
 11
7.608098110748148
 21
1.796493446752741
 31
0.0
  0
DIMENSION
  5
5FDD
330
3F56
100
AcDbEntity
  8
DIM
100
AcDbDimension
  2
*D49
 10
19.09295336681955
 20
13.26485387179798
 30
0.0
 11
20.37045336681956
 21
13.26485387179798
 31
0.0
 70
    32
 71
     5
 42
2.55500000000001
  3
23NSTD
100
AcDbAlignedDimension
 13
21.64795336681956
 23
13.93585387179798
 33
0.0
 14
19.09295336681955
 24
13.93585387179798
 34
0.0
100
AcDbRotatedDimension
  0
LEADER
  5
6014
330
3F56
100
AcDbEntity
  8
DIM
100
AcDbLeader
  3
23NSTD
 73
     0
 74
     0
 75
     1
 40
0.6666666666666666
 41
2.375
 76
     3
 10
21.16654735364443
 20
14.66139429858491
 30
0.0
 10
22.33922914874757
 20
13.1969555882023
 30
0.0
 10
22.69922914874757
 20
13.1969555882023
 30
0.0
340
6015
213
0.0
223
-0.125
233
0.0
1001
ACAD
1000
DSTYLE
1002
{
1070
   147
1040
0.09
1070
    77
1070
     0
1002
}
  0
MTEXT
  5
6015
102
{ACAD_REACTORS
330
6014
102
}
330
3F56
100
AcDbEntity
  8
DIM
100
AcDbMText
 10
22.87922914874757
 20
13.3219555882023
 30
0.0
 40
0.25
 41
0.0
 71
     1
 72
     1
  1
\A1;RECESSED AREA\P0.035 DEEP
 73
     1
 44
1.0
  0
HATCH
  5
6020
330
3F56
100
AcDbEntity
  8
OBJECT
 62
   221
100
AcDbHatch
 10
0.0
 20
0.0
 30
0.0
210
0.0
220
0.0
230
1.0
  2
ANSI32
 70
     0
 71
     0
 91
        2
 92
        7
 72
     0
 73
     1
 93
        4
 10
12.95623747020354
 20
6.206547325369982
 10
12.64123747020354
 20
6.206547325369981
 10
12.64123747020354
 20
6.160047325369983
 10
12.95623747020354
 20
6.160047325369984
 97
        0
 92
        7
 72
     0
 73
     1
 93
        4
 10
12.95623747020354
 20
6.003047325369985
 10
12.64123747020353
 20
6.003047325369985
 10
12.64123747020354
 20
5.956547325369982
 10
12.95623747020354
 20
5.956547325369989
 97
        0
 75
     0
 76
     1
 52
90.0
 41
0.25
 77
     0
 78
     2
 53
135.0
 43
0.7969613184548053
 44
0.0
 45
-0.0662912607362388
 46
-0.0662912607362388
 79
     0
 53
135.0
 43
0.7969613184548053
 44
0.04419417375
 45
-0.0662912607362388
 46
-0.0662912607362388
 79
     0
 47
0.0016690579384199
 98
        2
 10
12.77744535927152
 20
6.1793173475277
 10
12.76408219017082
 20
5.974023277348024
  0
HATCH
  5
60B2
330
3F56
100
AcDbEntity
  8
OBJECT
 62
   151
100
AcDbHatch
 10
0.0
 20
0.0
 30
0.0
210
0.0
220
0.0
230
1.0
  2
ANSI31
 70
     0
 71
     0
 91
        3
 92
        7
 72
     1
 73
     1
 93
       15
 10
24.85472407158264
 20
9.717047325369975
 42
0.4142135623730951
 10
24.79222407158264
 20
9.779547325369975
 42
0.0
 10
24.25472407158266
 20
9.779547325369975
 42
0.0
 10
24.25472407158266
 20
9.723868008306515
 42
0.0
 10
24.36972407158267
 20
9.723868008306514
 42
0.0
 10
24.36972407158267
 20
9.643868008306519
 42
0.0
 10
24.25472407158266
 20
9.643868008306519
 42
0.0
 10
24.25472407158266
 20
9.599547325370052
 42
0.0
 10
24.69472407158264
 20
9.599547325370055
 42
0.0
 10
24.69472407158265
 20
7.122539167347566
 42
-0.0495793006924099
 10
24.85472407158264
 20
7.067880336380392
 42
0.0
 10
24.85472407158264
 20
8.468371065502381
 42
0.0
 10
24.81972407158265
 20
8.468371065502383
 42
0.0
 10
24.81972407158265
 20
9.480547325369974
 42
0.0
 10
24.85472407158264
 20
9.480547325369974
 42
0.0
 97
        0
 92
        7
 72
     1
 73
     1
 93
       18
 10
24.85472407158264
 20
7.067880336380392
 42
0.0495793006924099
 10
24.69472407158265
 20
7.122539167347566
 42
0.0
 10
24.69472407158265
 20
6.844547325369878
 42
0.0
 10
24.25472407158266
 20
6.844547325369878
 42
0.0
 10
24.25472407158265
 20
6.808868008306497
 42
0.0
 10
24.36972407158267
 20
6.808868008306497
 42
0.0
 10
24.36972407158267
 20
6.728868008306497
 42
0.0
 10
24.25472407158266
 20
6.728868008306497
 42
0.0
 10
24.25472407158266
 20
6.664547325370048
 42
0.0
 10
24.69472407158265
 20
6.664547325370048
 42
0.0
 10
24.69472407158265
 20
6.332547325369983
 42
0.0
 10
24.60972407158266
 20
6.332547325369983
 42
0.0
 10
24.60972407158264
 20
6.236547325369967
 42
0.0
 10
24.25472407158266
 20
6.236547325369967
 42
0.0
 10
24.25472407158267
 20
6.168484825369966
 42
0.0
 10
24.73272407158264
 20
6.168484825369966
 42
0.0
 10
24.73272407158264
 20
6.237547325369961
 42
0.0
 10
24.85472407158264
 20
6.23754732536996
 42
0.0
 97
        0
 92
        7
 72
     1
 73
     1
 93
       11
 10
24.85472407158264
 20
5.907047325369963
 42
0.0
 10
24.85472407158265
 20
5.927547325369966
 42
0.0
 10
24.73272407158264
 20
5.927547325369966
 42
0.0
 10
24.73272407158265
 20
5.99660982536996
 42
0.0
 10
24.25472407158266
 20
5.99660982536996
 42
0.0
 10
24.25472407158266
 20
5.926547325369966
 42
0.0
 10
24.60972407158264
 20
5.926547325369967
 42
0.0
 10
24.60972407158266
 20
5.904547325369969
 42
0.0
 10
24.25472407158266
 20
5.904547325369971
 42
0.0
 10
24.25472407158266
 20
5.844547325369971
 42
0.0
 10
24.79222407158265
 20
5.844547325369971
 42
0.4142135623730077
 97
        0
 75
     0
 76
     1
 52
0.0
 41
1.0
 77
     0
 78
     1
 53
45.0
 43
0.0
 44
0.0
 45
-0.0883883476483184
 46
0.0883883476483185
 79
     0
 47
0.0080145370474293
 98
        3
 10
24.58673227801531
 20
9.689121254367123
 10
24.64287931796232
 20
6.747786116090125
 10
24.71506845664333
 20
5.898245194645355
  0
HATCH
  5
616B
330
3F56
100
AcDbEntity
  8
OBJECT
 62
   221
100
AcDbHatch
 10
0.0
 20
0.0
 30
0.0
210
0.0
220
0.0
230
1.0
  2
ZIGZAG
 70
     0
 71
     0
 91
        2
 92
        7
 72
     1
 73
     1
 93
       20
 10
21.51795336681956
 20
9.719547325369971
 42
0.0
 10
20.95312760422988
 20
9.719547325369969
 42
0.0
 10
20.95312760422988
 20
9.639547325369974
 42
0.0
 10
21.51795336681956
 20
9.639547325369974
 42
-0.4142135623730974
 10
21.62795336681957
 20
9.52954732536997
 42
0.0
 10
21.62795336681957
 20
9.084547325369964
 42
0.4142135623731195
 10
21.89295336681958
 20
8.819547325369965
 42
0.0
 10
22.08795336681955
 20
8.819547325369981
 42
-0.4142135623731165
 10
22.19795336681956
 20
8.709547325369982
 42
0.0
 10
22.19795336681956
 20
6.914547325369954
 42
-0.4142135623731093
 10
22.08795336681956
 20
6.804547325369957
 42
0.0
 10
22.06195336681957
 20
6.804547325369958
 42
0.0
 10
22.06195336681957
 20
6.724547325369961
 42
0.0
 10
22.08795336681955
 20
6.724547325369958
 42
0.4142135623731226
 10
22.27795336681957
 20
6.914547325369959
 42
0.0
 10
22.27795336681957
 20
8.709547325369975
 42
0.4142135623731144
 10
22.08795336681955
 20
8.899547325369978
 42
0.0
 10
21.89295336681958
 20
8.899547325369963
 42
-0.4142135623731189
 10
21.70795336681957
 20
9.08454732536996
 42
0.0
 10
21.70795336681957
 20
9.529547325369962
 42
0.414213562373094
 97
        0
 92
        7
 72
     1
 73
     1
 93
       36
 10
20.95312760422988
 20
9.719547325369971
 42
0.0
 10
19.22295336681954
 20
9.719547325369971
 42
0.4142135623730912
 10
19.03295336681955
 20
9.529547325369975
 42
0.0
 10
19.03295336681955
 20
9.084547325369964
 42
-0.4142135623731189
 10
18.84795336681953
 20
8.899547325369963
 42
0.0
 10
18.65295336681956
 20
8.899547325369978
 42
0.4142135623731173
 10
18.46295336681955
 20
8.709547325369983
 42
0.0
 10
18.46295336681955
 20
6.91454732536995
 42
0.4142135623731091
 10
18.65295336681955
 20
6.724547325369958
 42
0.0
 10
18.84795336681954
 20
6.724547325369965
 42
-0.414213562373109
 10
19.03295336681955
 20
6.539547325369969
 42
0.0
 10
19.03295336681955
 20
6.094547325369963
 42
0.4142135623730897
 10
19.22295336681954
 20
5.904547325369965
 42
0.0
 10
21.51795336681956
 20
5.904547325369965
 42
0.4142135623730925
 10
21.70795336681957
 20
6.094547325369975
 42
0.0
 10
21.70795336681957
 20
6.539547325369975
 42
-0.414213562373106
 10
21.89295336681957
 20
6.724547325369965
 42
0.0
 10
22.06195336681957
 20
6.72454732536996
 42
0.0
 10
22.06195336681957
 20
6.804547325369958
 42
0.0
 10
21.89295336681957
 20
6.804547325369965
 42
0.4142135623731069
 10
21.62795336681957
 20
6.539547325369971
 42
0.0
 10
21.62795336681957
 20
6.094547325369969
 42
-0.4142135623730975
 10
21.51795336681956
 20
5.984547325369963
 42
0.0
 10
19.22295336681954
 20
5.984547325369963
 42
-0.4142135623730928
 10
19.11295336681955
 20
6.094547325369964
 42
0.0
 10
19.11295336681955
 20
6.539547325369963
 42
0.4142135623731117
 10
18.84795336681954
 20
6.804547325369965
 42
0.0
 10
18.65295336681955
 20
6.804547325369957
 42
-0.4142135623731046
 10
18.54295336681955
 20
6.914547325369949
 42
0.0
 10
18.54295336681955
 20
8.709547325369985
 42
-0.4142135623731259
 10
18.65295336681956
 20
8.819547325369981
 42
0.0
 10
18.84795336681953
 20
8.819547325369965
 42
0.4142135623731215
 10
19.11295336681955
 20
9.084547325369969
 42
0.0
 10
19.11295336681955
 20
9.529547325369975
 42
-0.4142135623730929
 10
19.22295336681954
 20
9.639547325369974
 42
0.0
 10
20.95312760422988
 20
9.639547325369974
 42
0.0
 97
        0
 75
     0
 76
     1
 52
0.0
 41
0.3125
 77
     0
 78
     2
 53
0.0
 43
0.0
 44
0.0
 45
0.0390625
 46
0.0390625
 79
     2
 49
0.0390625
 49
-0.0390625
 53
90.0
 43
0.0390625
 44
0.0
 45
-0.0390625
 46
0.0390625
 79
     2
 49
0.0390625
 49
-0.0390625
 47
0.0078631061650929
 98
        2
 10
21.27203370350795
 20
9.677919363654197
 10
20.68182398653934
 20
9.69364562036705
  0
HATCH
  5
6171
330
3F56
100
AcDbEntity
  8
OBJECT
 62
   221
100
AcDbHatch
 10
0.0
 20
0.0
 30
0.0
210
0.0
220
0.0
230
1.0
  2
ZIGZAG
 70
     0
 71
     1
 91
        1
 92
        7
 72
     0
 73
     1
 93
        4
 10
24.36972407158267
 20
6.728868008306498
 10
24.36972407158267
 20
6.808868008306497
 10
24.25472407158266
 20
6.808868008306497
 10
24.25472407158266
 20
6.728868008306497
 97
        3
330
471A
330
470A
330
471E
 75
     0
 76
     1
 52
0.0
 41
0.3125
 77
     0
 78
     2
 53
0.0
 43
0.0
 44
0.0
 45
0.0390625
 46
0.0390625
 79
     2
 49
0.0390625
 49
-0.0390625
 53
90.0
 43
0.0390625
 44
0.0
 45
-0.0390625
 46
0.0390625
 79
     2
 49
0.0390625
 49
-0.0390625
 47
0.0020706631908446
 98
        1
 10
24.2978357484157
 20
6.76665506173019
  0
HATCH
  5
6177
330
3F56
100
AcDbEntity
  8
OBJECT
 62
   221
100
AcDbHatch
 10
0.0
 20
0.0
 30
0.0
210
0.0
220
0.0
230
1.0
  2
ZIGZAG
 70
     0
 71
     0
 91
        1
 92
        7
 72
     0
 73
     1
 93
        4
 10
24.36972407158267
 20
9.723868008306515
 10
24.25472407158266
 20
9.723868008306515
 10
24.25472407158266
 20
9.643868008306519
 10
24.36972407158267
 20
9.643868008306519
 97
        0
 75
     0
 76
     1
 52
0.0
 41
0.3125
 77
     0
 78
     2
 53
0.0
 43
0.0
 44
0.0
 45
0.0390625
 46
0.0390625
 79
     2
 49
0.0390625
 49
-0.0390625
 53
90.0
 43
0.0390625
 44
0.0
 45
-0.0390625
 46
0.0390625
 79
     2
 49
0.0390625
 49
-0.0390625
 47
0.0018910606173971
 98
        1
 10
24.32442150049749
 20
9.698128063305375
  0
LINE
  5
6178
330
3F56
100
AcDbEntity
  8
OBJECT
100
AcDbLine
 10
24.36972407158267
 20
9.723868008306515
 30
0.0
 11
24.36972407158267
 21
9.643868008306519
 31
0.0
1001
ACAD
1000
ASC_BOUNDS
1002
{
1070
    19
1005
1EE4
1002
}
  0
LINE
  5
6179
330
3F56
100
AcDbEntity
  8
OBJECT
100
AcDbLine
 10
24.36972407158267
 20
9.643868008306519
 30
0.0
 11
24.25472407158266
 21
9.643868008306519
 31
0.0
1001
ACAD
1000
ASC_BOUNDS
1002
{
1070
    19
1005
1EE4
1002
}
  0
LINE
  5
6185
102
{ACAD_REACTORS
330
61B8
330
61F6
102
}
330
3F56
100
AcDbEntity
  8
OBJECT
100
AcDbLine
 10
28.92505477662897
 20
16.60406859295
 30
0.0
 11
28.92505477662897
 21
16.28406859295001
 31
0.0
  0
LINE
  5
6186
102
{ACAD_REACTORS
330
61B8
330
61F6
102
}
330
3F56
100
AcDbEntity
  8
OBJECT
100
AcDbLine
 10
28.92505477662897
 20
16.28406859295001
 30
0.0
 11
28.46505477662896
 21
16.28406859295001
 31
0.0
  0
HATCH
  5
61B8
330
3F56
100
AcDbEntity
  8
OBJECT
 62
   221
100
AcDbHatch
 10
0.0
 20
0.0
 30
0.0
210
0.0
220
0.0
230
1.0
  2
ZIGZAG
 70
     0
 71
     1
 91
        1
 92
        7
 72
     0
 73
     1
 93
        4
 10
28.92505477662897
 20
16.60406859295001
 10
28.46505477662896
 20
16.60406859295
 10
28.46505477662897
 20
16.28406859295001
 10
28.92505477662897
 20
16.28406859295001
 97
        4
330
4B1C
330
4B8D
330
6186
330
6185
 75
     0
 76
     1
 52
0.0
 41
0.75
 77
     0
 78
     2
 53
0.0
 43
0.0
 44
0.0
 45
0.09375
 46
0.09375
 79
     2
 49
0.09375
 49
-0.09375
 53
90.0
 43
0.09375
 44
0.0
 45
-0.09375
 46
0.09375
 79
     2
 49
0.09375
 49
-0.09375
 47
0.0121568179356828
 98
        1
 10
28.67474115414231
 20
16.40626017919618
  0
HATCH
  5
61F6
330
3F56
100
AcDbEntity
  8
OBJECT
 62
   151
100
AcDbHatch
 10
0.0
 20
0.0
 30
0.0
210
0.0
220
0.0
230
1.0
  2
ANSI31
 70
     0
 71
     1
 91
        2
 92
        5
 93
       18
 72
     1
 10
30.22505477662896
 20
16.74678586120355
 11
28.46505477662897
 21
16.74678586120355
 72
     1
 10
28.46505477662897
 20
16.74678586120355
 11
28.46505477662897
 21
16.60406859295
 72
     1
 10
28.46505477662897
 20
16.60406859295
 11
28.92505477662897
 21
16.60406859295
 72
     1
 10
28.92505477662897
 20
16.60406859295
 11
28.92505477662897
 21
16.28406859295001
 72
     1
 10
28.92505477662897
 20
16.28406859295001
 11
28.46505477662896
 21
16.28406859295001
 72
     1
 10
28.46505477662896
 20
16.28406859295001
 11
28.46505477662896
 21
16.02678586120422
 72
     1
 10
28.46505477662896
 20
16.02678586120422
 11
30.22505477662896
 21
16.02678586120422
 72
     1
 10
30.22505477662896
 20
16.02678586120422
 11
30.22505477662896
 21
14.69878586120395
 72
     1
 10
30.22505477662896
 20
14.69878586120395
 11
29.88505477662894
 21
14.69878586120396
 72
     1
 10
29.88505477662894
 20
14.69878586120396
 11
29.88505477662893
 21
14.31478586120389
 72
     1
 10
29.88505477662893
 20
14.31478586120389
 11
28.46505477662897
 21
14.31478586120389
 72
     1
 10
28.46505477662897
 20
14.31478586120389
 11
28.46505477662897
 21
14.04253586120389
 72
     1
 10
28.46505477662897
 20
14.04253586120389
 11
30.38505477662893
 21
14.04253586120389
 72
     1
 10
30.38505477662893
 20
14.04253586120389
 11
30.38505477662893
 21
14.31878586120386
 72
     1
 10
30.38505477662893
 20
14.31878586120386
 11
30.86505477662893
 21
14.31878586120385
 72
     1
 10
30.86505477662893
 20
14.31878586120385
 11
30.86505477662893
 21
17.24400249979235
 72
     4
 94
        3
 73
     0
 74
     0
 95
        9
 96
        5
 40
1.998719927913724
 40
1.998719927913724
 40
1.998719927913724
 40
1.998719927913724
 40
2.5399406814563
 40
2.706093297341537
 40
2.706093297341537
 40
2.706093297341537
 40
2.706093297341537
 10
30.86505477662893
 20
17.24400249979235
 10
30.69600062504228
 20
17.38070822615221
 10
30.4750475221894
 20
17.55938206606373
 10
30.27255985603787
 20
17.40605303594299
 10
30.22505477662896
 20
17.36822612893272
 72
     1
 10
30.22505477662896
 20
17.36822612893272
 11
30.22505477662896
 21
16.74678586120355
 97
       16
330
5538
330
4B20
330
4B15
330
4B22
330
4B1C
330
6185
330
6186
330
4B16
330
4B07
330
4B12
330
4B11
330
4B0F
330
4B10
330
4B13
330
4B14
330
4B21
 92
        7
 72
     1
 73
     1
 93
       11
 10
29.88505477662892
 20
13.07478586120375
 42
0.0
 10
29.88505477662894
 20
12.98678586120389
 42
0.0
 10
28.46505477662897
 20
12.98678586120392
 42
0.0
 10
28.46505477662897
 20
12.74678586120391
 42
0.0
 10
30.61505477662893
 20
12.74678586120391
 42
0.4142135623730951
 10
30.86505477662893
 20
12.99678586120391
 42
0.0
 10
30.86505477662893
 20
13.07878586120387
 42
0.0
 10
30.38505477662893
 20
13.07878586120387
 42
0.0
 10
30.38505477662893
 20
13.35503586120385
 42
0.0
 10
28.46505477662896
 20
13.35503586120385
 42
0.0
 10
28.46505477662896
 20
13.07478586120388
 42
0.0
 97
       10
330
4B09
330
4B22
330
4B08
330
4B0C
330
4B0B
330
4B0A
330
4B0D
330
4B21
330
4B0E
330
4B13
 75
     0
 76
     1
 52
0.0
 41
1.5
 77
     0
 78
     1
 53
45.0
 43
0.0
 44
0.0
 45
-0.1325825214724776
 46
0.1325825214724777
 79
     0
 47
0.0121568179356828
 98
        2
 10
30.45107153063082
 20
16.40626017919618
 10
29.94007231215107
 20
13.19686022742774
  0
LEADER
  5
6290
330
3F56
100
AcDbEntity
  8
DIM
100
AcDbLeader
  3
23NSTD
 73
     0
 75
     1
 40
0.6666666666666666
 41
1.5
 76
     3
 10
4.320110203103297
 20
6.455079547686227
 30
0.0
 10
3.427658817804634
 20
5.487131246254236
 30
0.0
 10
3.067658817804634
 20
5.487131246254236
 30
0.0
340
6291
213
0.0
223
-0.125
233
0.0
1001
ACAD
1000
DSTYLE
1002
{
1070
   147
1040
0.09
1070
    77
1070
     0
1002
}
  0
MTEXT
  5
6291
102
{ACAD_REACTORS
330
6290
102
}
330
3F56
100
AcDbEntity
  8
DIM
100
AcDbMText
 10
2.887658817804634
 20
5.612131246254236
 30
0.0
 40
0.25
 41
0.0
 71
     3
 72
     1
  1
\A1;0.170 DIA.\P(4) HOLES
 73
     1
 44
1.0
  0
LINE
  5
631F
330
3F56
100
AcDbEntity
  8
OBJECT
100
AcDbLine
 10
4.354511640167821
 20
8.482547381852038
 30
0.0
 11
4.354511640167821
 21
8.576547309290187
 31
0.0
  0
LINE
  5
6320
330
3F56
100
AcDbEntity
  8
OBJECT
100
AcDbLine
 10
4.319511657823937
 20
8.576547297115864
 30
0.0
 11
4.319511657823937
 21
8.482547421382134
 31
0.0
  0
LINE
  5
6321
330
3F56
100
AcDbEntity
  8
OBJECT
100
AcDbLine
 10
4.319511657823937
 20
8.576547297115864
 30
0.0
 11
4.40363052426391
 21
8.576547326375601
 31
0.0
  0
LINE
  5
6322
330
3F56
100
AcDbEntity
  8
OBJECT
100
AcDbLine
 10
4.40363052426391
 20
8.482547326375602
 30
0.0
 11
4.319511657823937
 21
8.482547421382134
 31
0.0
  0
LINE
  5
6347
330
3F56
100
AcDbEntity
  8
OBJECT
100
AcDbLine
 10
4.746185070086809
 20
8.576547297115864
 30
0.0
 11
4.746185070086809
 21
8.482547421382134
 31
0.0
  0
LINE
  5
6348
330
3F56
100
AcDbEntity
  8
OBJECT
100
AcDbLine
 10
4.711185087742926
 20
8.482547381852038
 30
0.0
 11
4.711185087742926
 21
8.576547309290187
 31
0.0
  0
LINE
  5
6349
330
3F56
100
AcDbEntity
  8
OBJECT
100
AcDbLine
 10
4.662066203646837
 20
8.482547326375602
 30
0.0
 11
4.746185070086809
 21
8.482547421382134
 31
0.0
  0
LINE
  5
634A
330
3F56
100
AcDbEntity
  8
OBJECT
100
AcDbLine
 10
4.746185070086809
 20
8.576547297115864
 30
0.0
 11
4.662066203646837
 21
8.576547326375601
 31
0.0
  0
ARC
  5
634B
330
3F56
100
AcDbEntity
  8
OBJECT
100
AcDbCircle
 10
4.532848363955373
 20
8.529547325369977
 30
0.0
 40
0.16
100
AcDbArc
 50
17.08259431908156
 51
162.9174056809184
  0
LINE
  5
634C
330
3F56
100
AcDbEntity
  8
HIDDEN
  6
HIDDEN2
100
AcDbLine
 10
4.39534836395534
 20
2.088493446752735
 30
0.0
 11
4.670348363955341
 21
2.088493446752735
 31
0.0
  0
LINE
  5
634D
330
3F56
100
AcDbEntity
  8
HIDDEN
  6
HIDDEN2
100
AcDbLine
 10
4.48584830354721
 20
2.078493446752736
 30
0.0
 11
4.579848377650329
 21
2.078493446752736
 31
0.0
  0
LINE
  5
634E
330
3F56
100
AcDbEntity
  8
HIDDEN
  6
HIDDEN2
100
AcDbLine
 10
4.579848377650329
 20
2.078493446752736
 30
0.0
 11
4.579848386941329
 21
1.923493446752736
 31
0.0
  0
LINE
  5
634F
330
3F56
100
AcDbEntity
  8
HIDDEN
  6
HIDDEN2
100
AcDbLine
 10
4.662066203646804
 20
2.078493446752736
 30
0.0
 11
4.66206615459382
 21
1.923493446752736
 31
0.0
  0
LINE
  5
6350
330
3F56
100
AcDbEntity
  8
HIDDEN
  6
HIDDEN2
100
AcDbLine
 10
4.670348363955341
 20
2.088493446752735
 30
0.0
 11
4.670348363955341
 21
2.078493446752736
 31
0.0
  0
LINE
  5
6351
330
3F56
100
AcDbEntity
  8
HIDDEN
  6
HIDDEN2
100
AcDbLine
 10
4.662066203646804
 20
2.078493446752736
 30
0.0
 11
4.711185087742893
 21
2.078493446752736
 31
0.0
  0
LINE
  5
6352
330
3F56
100
AcDbEntity
  8
HIDDEN
  6
HIDDEN2
100
AcDbLine
 10
4.746185070086776
 20
1.923493446752736
 30
0.0
 11
4.711185087742893
 21
2.078493446752736
 31
0.0
  0
LINE
  5
6353
330
3F56
100
AcDbEntity
  8
HIDDEN
  6
HIDDEN2
100
AcDbLine
 10
4.48584830354721
 20
2.078493446752736
 30
0.0
 11
4.48584836395534
 21
1.923493446752736
 31
0.0
  0
LINE
  5
6354
330
3F56
100
AcDbEntity
  8
HIDDEN
  6
HIDDEN2
100
AcDbLine
 10
4.319511657823905
 20
1.923493446752738
 30
0.0
 11
4.354511640167788
 21
2.078493446752737
 31
0.0
  0
LINE
  5
6355
330
3F56
100
AcDbEntity
  8
HIDDEN
  6
HIDDEN2
100
AcDbLine
 10
4.403630524241207
 20
2.078493446752737
 30
0.0
 11
4.403630549142904
 21
1.923493446752738
 31
0.0
  0
LINE
  5
6356
330
3F56
100
AcDbEntity
  8
HIDDEN
  6
HIDDEN2
100
AcDbLine
 10
4.39534836395534
 20
2.088493446752735
 30
0.0
 11
4.39534836395534
 21
2.078493446752736
 31
0.0
  0
LINE
  5
6357
330
3F56
100
AcDbEntity
  8
HIDDEN
  6
HIDDEN2
100
AcDbLine
 10
4.354511640167788
 20
2.078493446752737
 30
0.0
 11
4.403630524241205
 21
2.078493446752737
 31
0.0
  0
LINE
  5
6369
330
3F56
100
AcDbEntity
  8
OBJECT
100
AcDbLine
 10
13.94523747020356
 20
8.576547385778107
 30
0.0
 11
14.10023747020356
 21
8.576547325369977
 31
0.0
  0
LINE
  5
636A
330
3F56
100
AcDbEntity
  8
OBJECT
100
AcDbLine
 10
13.94523747020356
 20
8.48254731167499
 30
0.0
 11
14.10023747020356
 21
8.48254730238399
 31
0.0
  0
LINE
  5
636D
330
3F56
100
AcDbEntity
  8
OBJECT
100
AcDbLine
 10
14.10023747020356
 20
8.369547325369975
 30
0.0
 11
13.93523747020356
 21
8.392047325369977
 31
0.0
  0
LINE
  5
636E
330
3F56
100
AcDbEntity
  8
OBJECT
100
AcDbLine
 10
14.10023747020356
 20
8.689547325369975
 30
0.0
 11
13.93523747020356
 21
8.667047325369978
 31
0.0
  0
LINE
  5
636F
330
3F56
100
AcDbEntity
  8
OBJECT
100
AcDbLine
 10
13.93523747020356
 20
8.667047325369978
 30
0.0
 11
13.93523747020356
 21
8.392047325369977
 31
0.0
  0
LINE
  5
6372
330
3F56
100
AcDbEntity
  8
OBJECT
100
AcDbLine
 10
13.94523747020356
 20
8.576547385778107
 30
0.0
 11
13.94523747020356
 21
8.48254731167499
 31
0.0
  0
LWPOLYLINE
  5
6385
102
{ACAD_REACTORS
330
6427
102
}
330
3F56
100
AcDbEntity
  8
HIDDEN
  6
HIDDEN2
100
AcDbPolyline
 90
        4
 70
     0
 43
0.0
 10
13.93523747020356
 20
8.623297325369977
 10
14.15323747020356
 20
8.623297325369977
 10
14.15323747020356
 20
8.435797325369977
 10
13.93523747020356
 20
8.435797325369977
  0
LINE
  5
6386
330
3F56
100
AcDbEntity
  8
HIDDEN
  6
HIDDEN2
100
AcDbLine
 10
13.93523747020356
 20
8.467047325369977
 30
0.0
 11
14.15323747020356
 21
8.467047325369977
 31
0.0
  0
LINE
  5
6387
330
3F56
100
AcDbEntity
  8
HIDDEN
  6
HIDDEN2
100
AcDbLine
 10
13.93523747020356
 20
8.592047325369977
 30
0.0
 11
14.15323747020356
 21
8.592047325369977
 31
0.0
  0
LINE
  5
6397
330
3F56
100
AcDbEntity
  8
HIDDEN
  6
HIDDEN2
100
AcDbLine
 10
7.739348363955434
 20
2.088493446752735
 30
0.0
 11
7.464348363955433
 21
2.088493446752735
 31
0.0
  0
LINE
  5
6398
330
3F56
100
AcDbEntity
  8
HIDDEN
  6
HIDDEN2
100
AcDbLine
 10
7.648848424363564
 20
2.078493446752736
 30
0.0
 11
7.554848350260445
 21
2.078493446752736
 31
0.0
  0
LINE
  5
6399
330
3F56
100
AcDbEntity
  8
HIDDEN
  6
HIDDEN2
100
AcDbLine
 10
7.780185087742986
 20
2.078493446752737
 30
0.0
 11
7.731066203669569
 21
2.078493446752737
 31
0.0
  0
LINE
  5
639A
330
3F56
100
AcDbEntity
  8
HIDDEN
  6
HIDDEN2
100
AcDbLine
 10
7.739348363955434
 20
2.088493446752735
 30
0.0
 11
7.739348363955434
 21
2.078493446752736
 31
0.0
  0
LINE
  5
639B
330
3F56
100
AcDbEntity
  8
HIDDEN
  6
HIDDEN2
100
AcDbLine
 10
7.648848424363564
 20
2.078493446752736
 30
0.0
 11
7.648848363955434
 21
1.923493446752736
 31
0.0
  0
LINE
  5
639C
330
3F56
100
AcDbEntity
  8
HIDDEN
  6
HIDDEN2
100
AcDbLine
 10
7.554848350260445
 20
2.078493446752736
 30
0.0
 11
7.554848340969445
 21
1.923493446752736
 31
0.0
  0
LINE
  5
639D
330
3F56
100
AcDbEntity
  8
HIDDEN
  6
HIDDEN2
100
AcDbLine
 10
7.731066203669567
 20
2.078493446752737
 30
0.0
 11
7.73106617876787
 21
1.923493446752738
 31
0.0
  0
LINE
  5
639E
330
3F56
100
AcDbEntity
  8
HIDDEN
  6
HIDDEN2
100
AcDbLine
 10
7.81518507008687
 20
1.923493446752738
 30
0.0
 11
7.780185087742986
 21
2.078493446752737
 31
0.0
  0
LINE
  5
639F
330
3F56
100
AcDbEntity
  8
HIDDEN
  6
HIDDEN2
100
AcDbLine
 10
7.47263052426397
 20
2.078493446752736
 30
0.0
 11
7.423511640167881
 21
2.078493446752736
 31
0.0
  0
LINE
  5
63A0
330
3F56
100
AcDbEntity
  8
HIDDEN
  6
HIDDEN2
100
AcDbLine
 10
7.464348363955433
 20
2.088493446752735
 30
0.0
 11
7.464348363955433
 21
2.078493446752736
 31
0.0
  0
LINE
  5
63A1
330
3F56
100
AcDbEntity
  8
HIDDEN
  6
HIDDEN2
100
AcDbLine
 10
7.47263052426397
 20
2.078493446752736
 30
0.0
 11
7.472630573316954
 21
1.923493446752736
 31
0.0
  0
LINE
  5
63A2
330
3F56
100
AcDbEntity
  8
HIDDEN
  6
HIDDEN2
100
AcDbLine
 10
7.388511657823998
 20
1.923493446752736
 30
0.0
 11
7.423511640167881
 21
2.078493446752736
 31
0.0
  0
ARC
  5
63A3
330
3F56
100
AcDbEntity
  8
OBJECT
100
AcDbCircle
 10
7.601848363955394
 20
8.529547325369977
 30
0.0
 40
0.16
100
AcDbArc
 50
197.0825866192883
 51
342.9174133807116
  0
CIRCLE
  5
63A4
330
3F56
100
AcDbEntity
  8
OBJECT
100
AcDbCircle
 10
7.601848363955394
 20
8.529547325369977
 30
0.0
 40
0.09375
  0
CIRCLE
  5
63A5
330
3F56
100
AcDbEntity
  8
OBJECT
100
AcDbCircle
 10
7.601848363955394
 20
8.529547325369977
 30
0.0
 40
0.059
  0
CIRCLE
  5
63A6
330
3F56
100
AcDbEntity
  8
OBJECT
100
AcDbCircle
 10
7.601848363955394
 20
8.529547325369977
 30
0.0
 40
0.1375
  0
ARC
  5
63A7
330
3F56
100
AcDbEntity
  8
OBJECT
100
AcDbCircle
 10
7.601848363955394
 20
8.529547325369977
 30
0.0
 40
0.16
100
AcDbArc
 50
17.08259431908156
 51
162.9174056809184
  0
LINE
  5
63A8
330
3F56
100
AcDbEntity
  8
OBJECT
100
AcDbLine
 10
7.388511657823958
 20
8.576547297115864
 30
0.0
 11
7.47263052426393
 21
8.576547326375601
 31
0.0
  0
LINE
  5
63A9
330
3F56
100
AcDbEntity
  8
OBJECT
100
AcDbLine
 10
7.47263052426393
 20
8.482547326375602
 30
0.0
 11
7.388511657823958
 21
8.482547421382134
 31
0.0
  0
LINE
  5
63AA
330
3F56
100
AcDbEntity
  8
OBJECT
100
AcDbLine
 10
7.388511657823958
 20
8.576547297115864
 30
0.0
 11
7.388511657823958
 21
8.482547421382134
 31
0.0
  0
LINE
  5
63AB
330
3F56
100
AcDbEntity
  8
OBJECT
100
AcDbLine
 10
7.423511640167841
 20
8.482547381852038
 30
0.0
 11
7.423511640167841
 21
8.576547309290187
 31
0.0
  0
LINE
  5
63AC
330
3F56
100
AcDbEntity
  8
OBJECT
100
AcDbLine
 10
7.81518507008683
 20
8.576547297115864
 30
0.0
 11
7.731066203646857
 21
8.576547326375601
 31
0.0
  0
LINE
  5
63AD
330
3F56
100
AcDbEntity
  8
OBJECT
100
AcDbLine
 10
7.731066203646857
 20
8.482547326375602
 30
0.0
 11
7.81518507008683
 21
8.482547421382134
 31
0.0
  0
LINE
  5
63AE
330
3F56
100
AcDbEntity
  8
OBJECT
100
AcDbLine
 10
7.780185087742946
 20
8.482547381852038
 30
0.0
 11
7.780185087742946
 21
8.576547309290187
 31
0.0
  0
LINE
  5
63AF
330
3F56
100
AcDbEntity
  8
OBJECT
100
AcDbLine
 10
7.81518507008683
 20
8.576547297115864
 30
0.0
 11
7.81518507008683
 21
8.482547421382134
 31
0.0
  0
ARC
  5
63B0
330
3F56
100
AcDbEntity
  8
OBJECT
100
AcDbCircle
 10
4.532848363955373
 20
7.09454732536998
 30
0.0
 40
0.16
100
AcDbArc
 50
197.0825866192883
 51
342.9174133807116
  0
CIRCLE
  5
63B1
330
3F56
100
AcDbEntity
  8
OBJECT
100
AcDbCircle
 10
4.532848363955373
 20
7.09454732536998
 30
0.0
 40
0.09375
  0
CIRCLE
  5
63B2
330
3F56
100
AcDbEntity
  8
OBJECT
100
AcDbCircle
 10
4.532848363955373
 20
7.09454732536998
 30
0.0
 40
0.059
  0
CIRCLE
  5
63B3
330
3F56
100
AcDbEntity
  8
OBJECT
100
AcDbCircle
 10
4.532848363955373
 20
7.09454732536998
 30
0.0
 40
0.1375
  0
ARC
  5
63B4
330
3F56
100
AcDbEntity
  8
OBJECT
100
AcDbCircle
 10
4.532848363955373
 20
7.09454732536998
 30
0.0
 40
0.16
100
AcDbArc
 50
17.08259431908156
 51
162.9174056809184
  0
LINE
  5
63B5
330
3F56
100
AcDbEntity
  8
OBJECT
100
AcDbLine
 10
4.319511657823937
 20
7.141547297115867
 30
0.0
 11
4.40363052426391
 21
7.141547326375604
 31
0.0
  0
LINE
  5
63B6
330
3F56
100
AcDbEntity
  8
OBJECT
100
AcDbLine
 10
4.40363052426391
 20
7.047547326375605
 30
0.0
 11
4.319511657823937
 21
7.047547421382137
 31
0.0
  0
LINE
  5
63B7
330
3F56
100
AcDbEntity
  8
OBJECT
100
AcDbLine
 10
4.319511657823937
 20
7.141547297115867
 30
0.0
 11
4.319511657823937
 21
7.047547421382137
 31
0.0
  0
LINE
  5
63B8
330
3F56
100
AcDbEntity
  8
OBJECT
100
AcDbLine
 10
4.354511640167821
 20
7.047547381852041
 30
0.0
 11
4.354511640167821
 21
7.14154730929019
 31
0.0
  0
LINE
  5
63B9
330
3F56
100
AcDbEntity
  8
OBJECT
100
AcDbLine
 10
4.746185070086809
 20
7.141547297115867
 30
0.0
 11
4.662066203646837
 21
7.141547326375604
 31
0.0
  0
LINE
  5
63BA
330
3F56
100
AcDbEntity
  8
OBJECT
100
AcDbLine
 10
4.662066203646837
 20
7.047547326375605
 30
0.0
 11
4.746185070086809
 21
7.047547421382137
 31
0.0
  0
LINE
  5
63BB
330
3F56
100
AcDbEntity
  8
OBJECT
100
AcDbLine
 10
4.711185087742926
 20
7.047547381852041
 30
0.0
 11
4.711185087742926
 21
7.14154730929019
 31
0.0
  0
LINE
  5
63BC
330
3F56
100
AcDbEntity
  8
OBJECT
100
AcDbLine
 10
4.746185070086809
 20
7.141547297115867
 30
0.0
 11
4.746185070086809
 21
7.047547421382137
 31
0.0
  0
ARC
  5
63BD
330
3F56
100
AcDbEntity
  8
OBJECT
100
AcDbCircle
 10
7.601848363955394
 20
7.09454732536998
 30
0.0
 40
0.16
100
AcDbArc
 50
17.08259431908156
 51
162.9174056809184
  0
CIRCLE
  5
63BE
330
3F56
100
AcDbEntity
  8
OBJECT
100
AcDbCircle
 10
7.601848363955394
 20
7.09454732536998
 30
0.0
 40
0.1375
  0
CIRCLE
  5
63BF
330
3F56
100
AcDbEntity
  8
OBJECT
100
AcDbCircle
 10
7.601848363955394
 20
7.09454732536998
 30
0.0
 40
0.09375
  0
ARC
  5
63C0
330
3F56
100
AcDbEntity
  8
OBJECT
100
AcDbCircle
 10
7.601848363955394
 20
7.09454732536998
 30
0.0
 40
0.16
100
AcDbArc
 50
197.0825866192883
 51
342.9174133807116
  0
LINE
  5
63C1
330
3F56
100
AcDbEntity
  8
OBJECT
100
AcDbLine
 10
7.423511640167841
 20
7.047547381852041
 30
0.0
 11
7.423511640167841
 21
7.14154730929019
 31
0.0
  0
LINE
  5
63C2
330
3F56
100
AcDbEntity
  8
OBJECT
100
AcDbLine
 10
7.388511657823958
 20
7.141547297115867
 30
0.0
 11
7.388511657823958
 21
7.047547421382137
 31
0.0
  0
LINE
  5
63C3
330
3F56
100
AcDbEntity
  8
OBJECT
100
AcDbLine
 10
7.47263052426393
 20
7.047547326375605
 30
0.0
 11
7.388511657823958
 21
7.047547421382137
 31
0.0
  0
LINE
  5
63C4
330
3F56
100
AcDbEntity
  8
OBJECT
100
AcDbLine
 10
7.388511657823958
 20
7.141547297115867
 30
0.0
 11
7.47263052426393
 21
7.141547326375604
 31
0.0
  0
CIRCLE
  5
63C5
330
3F56
100
AcDbEntity
  8
OBJECT
100
AcDbCircle
 10
7.601848363955394
 20
7.09454732536998
 30
0.0
 40
0.059
  0
LINE
  5
63C6
330
3F56
100
AcDbEntity
  8
OBJECT
100
AcDbLine
 10
7.81518507008683
 20
7.141547297115867
 30
0.0
 11
7.81518507008683
 21
7.047547421382137
 31
0.0
  0
LINE
  5
63C7
330
3F56
100
AcDbEntity
  8
OBJECT
100
AcDbLine
 10
7.780185087742946
 20
7.047547381852041
 30
0.0
 11
7.780185087742946
 21
7.14154730929019
 31
0.0
  0
LINE
  5
63C8
330
3F56
100
AcDbEntity
  8
OBJECT
100
AcDbLine
 10
7.731066203646857
 20
7.047547326375605
 30
0.0
 11
7.81518507008683
 21
7.047547421382137
 31
0.0
  0
LINE
  5
63C9
330
3F56
100
AcDbEntity
  8
OBJECT
100
AcDbLine
 10
7.81518507008683
 20
7.141547297115867
 30
0.0
 11
7.731066203646857
 21
7.141547326375604
 31
0.0
  0
LINE
  5
63CA
102
{ACAD_REACTORS
330
63E1
102
}
330
3F56
100
AcDbEntity
  8
OBJECT
100
AcDbLine
 10
13.93523747020358
 20
7.157047325369945
 30
0.0
 11
14.15323747020358
 21
7.157047325369945
 31
0.0
  0
LINE
  5
63CB
102
{ACAD_REACTORS
330
63E1
102
}
330
3F56
100
AcDbEntity
  8
OBJECT
100
AcDbLine
 10
13.93523747020358
 20
7.032047325369945
 30
0.0
 11
14.15323747020358
 21
7.032047325369945
 31
0.0
  0
LWPOLYLINE
  5
63CC
102
{ACAD_REACTORS
330
63E1
330
6427
102
}
330
3F56
100
AcDbEntity
  8
OBJECT
100
AcDbPolyline
 90
        4
 70
     0
 43
0.0
 10
13.93523747020358
 20
7.188297325369945
 10
14.15323747020358
 20
7.188297325369945
 10
14.15323747020358
 20
7.000797325369945
 10
13.93523747020358
 20
7.000797325369945
  0
LINE
  5
63CF
102
{ACAD_REACTORS
330
6427
102
}
330
3F56
100
AcDbEntity
  8
OBJECT
100
AcDbLine
 10
14.10023747020358
 20
6.934547325369943
 30
0.0
 11
13.93523747020358
 21
6.957047325369946
 31
0.0
  0
LINE
  5
63D0
102
{ACAD_REACTORS
330
6427
102
}
330
3F56
100
AcDbEntity
  8
OBJECT
100
AcDbLine
 10
14.10023747020357
 20
7.254547325369943
 30
0.0
 11
13.93523747020358
 21
7.232047325369946
 31
0.0
  0
LINE
  5
63D1
102
{ACAD_REACTORS
330
63E1
330
6427
102
}
330
3F56
100
AcDbEntity
  8
OBJECT
100
AcDbLine
 10
13.93523747020358
 20
7.232047325369946
 30
0.0
 11
13.93523747020358
 21
6.957047325369946
 31
0.0
  0
LINE
  5
63D3
330
3F56
100
AcDbEntity
  8
OBJECT
100
AcDbLine
 10
14.10023747020356
 20
7.255162709985366
 30
0.0
 11
14.10023747020357
 21
7.254547325369943
 31
0.0
  0
LINE
  5
63D7
102
{ACAD_REACTORS
330
6427
102
}
330
3F56
100
AcDbEntity
  8
OBJECT
100
AcDbLine
 10
14.10023747020358
 20
6.934547325369943
 30
0.0
 11
14.10023747020356
 21
6.787547325369952
 31
0.0
  0
HATCH
  5
63E1
330
3F56
100
AcDbEntity
  8
OBJECT
 62
   221
100
AcDbHatch
 10
0.0
 20
0.0
 30
0.0
210
0.0
220
0.0
230
1.0
  2
ANSI32
 70
     0
 71
     1
 91
        2
 92
        7
 72
     0
 73
     1
 93
        4
 10
14.15323747020357
 20
7.032047325369945
 10
13.93523747020358
 20
7.032047325369946
 10
13.93523747020358
 20
7.000797325369944
 10
14.15323747020358
 20
7.000797325369945
 97
        3
330
63CB
330
63D1
330
63CC
 92
        7
 72
     0
 73
     1
 93
        4
 10
14.15323747020358
 20
7.188297325369945
 10
13.93523747020358
 20
7.188297325369945
 10
13.93523747020358
 20
7.157047325369944
 10
14.15323747020358
 20
7.157047325369944
 97
        3
330
63CC
330
63D1
330
63CA
 75
     0
 76
     1
 52
90.0
 41
0.25
 77
     0
 78
     2
 53
135.0
 43
0.0
 44
0.0
 45
-0.0662912607362388
 46
-0.0662912607362388
 79
     0
 53
135.0
 43
0.0
 44
0.04419417375
 45
-0.0662912607362388
 46
-0.0662912607362388
 79
     0
 47
0.001736804438976
 98
        2
 10
14.02306437780369
 20
7.015629900310038
 10
14.02306437780369
 20
7.170205533905743
  0
HATCH
  5
6427
330
3F56
100
AcDbEntity
  8
0
 62
   151
100
AcDbHatch
 10
0.0
 20
0.0
 30
0.0
210
0.0
220
0.0
230
1.0
  2
ANSI31
 70
     0
 71
     1
 91
        3
 92
        7
 72
     1
 73
     1
 93
       44
 10
14.10023747020356
 20
9.66454732536998
 42
0.0
 10
14.10023747020356
 20
9.428547325369981
 42
0.0
 10
14.11523747020355
 20
9.428547325369981
 42
0.0
 10
14.11523747020355
 20
9.338547325369969
 42
0.0
 10
14.10023747020356
 20
9.338547325369969
 42
0.0
 10
14.10023747020356
 20
8.623297325369977
 42
0.0
 10
14.15323747020357
 20
8.623297325369977
 42
0.0
 10
14.15323747020356
 20
8.435797325369977
 42
0.0
 10
14.10023747020356
 20
8.435797325369977
 42
0.0
 10
14.10023747020356
 20
8.252547325369965
 42
0.0
 10
14.13123747020356
 20
8.252547325369965
 42
0.0
 10
14.13123747020356
 20
8.078547325369976
 42
0.0
 10
14.10023747020356
 20
8.078547325369976
 42
0.0
 10
14.10023747020356
 20
7.655931940754569
 42
0.0
 10
13.93523747020356
 20
7.630547325369969
 42
0.0
 10
13.93523747020356
 20
7.542547325369965
 42
0.0
 10
14.13123747020356
 20
7.542547325369965
 42
0.0
 10
14.13123747020356
 20
7.368547325369974
 42
0.0
 10
13.93523747020356
 20
7.368547325369974
 42
0.0
 10
13.93523747020356
 20
7.280547325369973
 42
0.0
 10
14.10235795213142
 20
7.254836481996468
 42
0.0
 10
13.93523747020358
 20
7.232047325369946
 42
0.0
 10
13.93523747020358
 20
7.188297325369945
 42
0.0
 10
14.15323747020358
 20
7.188297325369945
 42
0.0
 10
14.15323747020358
 20
7.000797325369946
 42
0.0
 10
13.93523747020358
 20
7.000797325369945
 42
0.0
 10
13.93523747020358
 20
6.957047325369947
 42
0.0
 10
14.10023747020358
 20
6.934547325369945
 42
0.0
 10
14.10023747020356
 20
6.787547325369951
 42
0.0
 10
12.58223747020355
 20
6.787547325369962
 42
0.0
 10
12.58223747020355
 20
6.747547325370018
 42
0.0
 10
12.64123747020355
 20
6.74754732537001
 42
0.0
 10
12.64123747020355
 20
6.717547325369907
 42
0.0
 10
14.10023747020356
 20
6.717547325369898
 42
0.0
 10
14.10023747020356
 20
6.600547325369976
 42
0.0
 10
14.22723747020355
 20
6.600547325369976
 42
0.0
 10
14.22723747020355
 20
9.717047325369971
 42
0.4142135623730951
 10
14.16473747020355
 20
9.779547325369971
 42
0.0
 10
12.68123747020355
 20
9.779547325369971
 42
0.0
 10
12.68123747020355
 20
9.759547325369968
 42
0.0
 10
12.64123747020356
 20
9.75954732536997
 42
0.0
 10
12.64123747020356
 20
9.70454732536997
 42
0.0
 10
12.58223747020355
 20
9.70454732536997
 42
0.0
 10
12.58223747020355
 20
9.664547325369969
 42
0.0
 97
       26
330
497F
330
4967
330
496B
330
496A
330
496C
330
4969
330
491B
330
4966
330
4943
330
4979
330
6385
330
4973
330
4A46
330
4A4C
330
63D0
330
63D1
330
63CC
330
63CF
330
63D7
330
4921
330
4940
330
4923
330
4920
330
494D
330
494F
330
491C
 92
        7
 72
     0
 73
     1
 93
        8
 10
12.64123747020355
 20
6.324547325369963
 10
12.64123747020355
 20
6.206547325369981
 10
12.95623747020354
 20
6.206547325369982
 10
12.95623747020354
 20
6.258547325369964
 10
14.22723747020355
 20
6.258547325369962
 10
14.22723747020355
 20
6.430547325369972
 10
14.10023747020356
 20
6.430547325369973
 10
14.10023747020356
 20
6.324547325369954
 97
        8
330
494E
330
494D
330
491F
330
4923
330
493A
330
493F
330
491E
330
491C
 92
        7
 72
     1
 73
     1
 93
        9
 10
12.64123747020355
 20
5.956547325369981
 42
0.0
 10
12.64123747020355
 20
5.86454732536997
 42
0.0
 10
12.68123747020354
 20
5.864547325369969
 42
0.0
 10
12.68123747020355
 20
5.844547325369971
 42
0.0
 10
14.16473747020355
 20
5.844547325369966
 42
0.4142135623730951
 10
14.22723747020355
 20
5.907047325369966
 42
0.0
 10
14.22723747020355
 20
5.934547325369964
 42
0.0
 10
12.95623747020354
 20
5.934547325369973
 42
0.0
 10
12.95623747020354
 20
5.956547325369989
 42
0.0
 97
        9
330
491C
330
491D
330
493F
330
4939
330
4923
330
4926
330
4925
330
4922
330
4941
 75
     0
 76
     1
 52
0.0
 41
1.0
 77
     0
 78
     1
 53
45.0
 43
0.0
 44
0.0
 45
-0.0883883476483184
 46
0.0883883476483185
 79
     0
 47
0.0083917741411676
 98
        3
 10
13.24043431807298
 20
9.71238595635873
 10
12.77850718932708
 20
6.288542104999663
 10
12.84569654029341
 20
5.902520466722982
  0
ENDSEC
  0
SECTION
  2
OBJECTS
  0
DICTIONARY
  5
3F44
330
0
100
AcDbDictionary
281
     1
  3
ACAD_GROUP
350
3F45
  3
ACAD_LAYOUT
350
3F51
  3
ACAD_MLINESTYLE
350
3F4E
  3
ACAD_PLOTSETTINGS
350
3F50
  3
ACAD_PLOTSTYLENAME
350
3F46
  3
AcadDim
350
6013
  3
AcDbVariableDictionary
350
6016
  0
DICTIONARY
  5
3F45
102
{ACAD_REACTORS
330
3F44
102
}
330
3F44
100
AcDbDictionary
281
     1
  0
DICTIONARY
  5
3F51
102
{ACAD_REACTORS
330
3F44
102
}
330
3F44
100
AcDbDictionary
281
     1
  3
Layout1
350
3F55
  3
Model
350
3F59
  0
DICTIONARY
  5
3F4E
102
{ACAD_REACTORS
330
3F44
102
}
330
3F44
100
AcDbDictionary
281
     1
  3
Standard
350
3F4F
  0
DICTIONARY
  5
3F50
102
{ACAD_REACTORS
330
3F44
102
}
330
3F44
100
AcDbDictionary
281
     1
  0
ACDBDICTIONARYWDFLT
  5
3F46
102
{ACAD_REACTORS
330
3F44
102
}
330
3F44
100
AcDbDictionary
281
     1
  3
Normal
350
3F47
100
AcDbDictionaryWithDefault
340
3F47
  0
XRECORD
  5
6013
102
{ACAD_REACTORS
330
3F44
102
}
330
3F44
100
AcDbXrecord
280
     1
 90
   990106
  3

 60
     0
 61
     0
 62
     1
 63
     1
 64
     0
 65
     0
 66
     0
 67
     3
 68
     1
 69
     0
 70
     0
 71
     0
 72
     0
 40
0.0
170
     2
340
6291
  0
DICTIONARY
  5
6016
102
{ACAD_REACTORS
330
3F44
102
}
330
3F44
100
AcDbDictionary
281
     1
  3
SORTENTS
350
6017
  0
LAYOUT
  5
3F55
102
{ACAD_REACTORS
330
3F51
102
}
330
3F51
100
AcDbPlotSettings
  1

  2
C:\Program Files\ACAD2000\plotters\RICOH Aficio 1060 RPCS.pc3
  4

  6

 40
0.0
 41
0.0
 42
0.0
 43
0.0
 44
0.0
 45
0.0
 46
0.0
 47
0.0
 48
0.0
 49
0.0
140
0.0
141
0.0
142
1.0
143
1.0
 70
   688
 72
     0
 73
     0
 74
     5
  7
monochrome.ctb
 75
    16
147
1.0
148
0.0
149
0.0
100
AcDbLayout
  1
Layout1
 70
     1
 71
     1
 10
0.0
 20
0.0
 11
12.0
 21
9.0
 12
0.0
 22
0.0
 32
0.0
 14
1.000000000000000E+20
 24
1.000000000000000E+20
 34
1.000000000000000E+20
 15
-1.000000000000000E+20
 25
-1.000000000000000E+20
 35
-1.000000000000000E+20
146
0.0
 13
0.0
 23
0.0
 33
0.0
 16
1.0
 26
0.0
 36
0.0
 17
0.0
 27
1.0
 37
0.0
 76
     0
330
3F52
  0
LAYOUT
  5
3F59
102
{ACAD_REACTORS
330
3F51
102
}
330
3F51
100
AcDbPlotSettings
  1

  2
Acrobat PDFWriter
  4
Tabloid
  6

 40
3.174999952316284
 41
3.174999952316284
 42
3.17498779296875
 43
3.17498779296875
 44
431.8000183105469
 45
279.3999938964843
 46
0.0
 47
4.064
 48
0.0
 49
0.0
140
0.0
141
0.0
142
1.0
143
1.982270864469241
 70
 11956
 72
     0
 73
     0
 74
     1
  7
monochrome.ctb
 75
     0
147
0.5044719255699463
148
0.038592084457477
149
-10.5600201547757
100
AcDbLayout
  1
Model
 70
     1
 71
     0
 10
0.0
 20
0.0
 11
12.0
 21
9.0
 12
0.0
 22
0.0
 32
0.0
 14
0.0
 24
0.0
 34
0.0
 15
0.0
 25
0.0
 35
0.0
146
0.0
 13
0.0
 23
0.0
 33
0.0
 16
1.0
 26
0.0
 36
0.0
 17
0.0
 27
1.0
 37
0.0
 76
     0
330
3F56
  0
MLINESTYLE
  5
3F4F
102
{ACAD_REACTORS
330
3F4E
102
}
330
3F4E
100
AcDbMlineStyle
  2
STANDARD
 70
     0
  3

 62
   256
 51
90.0
 52
90.0
 71
     2
 49
0.5
 62
   256
  6
BYLAYER
 49
-0.5
 62
   256
  6
BYLAYER
  0
ACDBPLACEHOLDER
  5
3F47
102
{ACAD_REACTORS
330
3F46
102
}
330
3F46
  0
DICTIONARYVAR
  5
6017
102
{ACAD_REACTORS
330
6016
102
}
330
6016
100
DictionaryVariables
280
     0
  1
96
  0
ENDSEC
  0
EOF
