  0
SECTION
  2
HEADER
  9
$ACADVER
  1
AC1015
  9
$ACADMAINTVER
 70
     6
  9
$DWGCODEPAGE
  3
ANSI_1252
  9
$INSBASE
 10
0.0
 20
0.0
 30
0.0
  9
$EXTMIN
 10
0.0
 20
0.0
 30
-0.00000001
  9
$EXTMAX
 10
66.39999999999997
 20
41.31199999999999
 30
0.00000001
  9
$LIMMIN
 10
0.0
 20
0.0
  9
$LIMMAX
 10
41.0
 20
32.0
  9
$ORTHOMODE
 70
     1
  9
$REGENMODE
 70
     1
  9
$FILLMODE
 70
     1
  9
$QTEXTMODE
 70
     0
  9
$MIRRTEXT
 70
     0
  9
$LTSCALE
 40
0.75
  9
$ATTMODE
 70
     1
  9
$TEXTSIZE
 40
0.2
  9
$TRACEWID
 40
0.05
  9
$TEXTSTYLE
  7
TXT
  9
$CLAYER
  8
OBJECT
  9
$CELTYPE
  6
ByLayer
  9
$CECOLOR
 62
   256
  9
$CELTSCALE
 40
1.0
  9
$DISPSILH
 70
     0
  9
$DIMSCALE
 40
4.0
  9
$DIMASZ
 40
0.18
  9
$DIMEXO
 40
0.063
  9
$DIMDLI
 40
0.281
  9
$DIMRND
 40
0.0
  9
$DIMDLE
 40
0.0
  9
$DIMEXE
 40
0.093
  9
$DIMTP
 40
0.0
  9
$DIMTM
 40
0.0
  9
$DIMTXT
 40
0.125
  9
$DIMCEN
 40
0.09
  9
$DIMTSZ
 40
0.0
  9
$DIMTOL
 70
     0
  9
$DIMLIM
 70
     0
  9
$DIMTIH
 70
     1
  9
$DIMTOH
 70
     1
  9
$DIMSE1
 70
     0
  9
$DIMSE2
 70
     0
  9
$DIMTAD
 70
     0
  9
$DIMZIN
 70
     0
  9
$DIMBLK
  1

  9
$DIMASO
 70
     1
  9
$DIMSHO
 70
     1
  9
$DIMPOST
  1

  9
$DIMAPOST
  1

  9
$DIMALT
 70
     0
  9
$DIMALTD
 70
     2
  9
$DIMALTF
 40
25.4
  9
$DIMLFAC
 40
1.0
  9
$DIMTOFL
 70
     0
  9
$DIMTVP
 40
0.0
  9
$DIMTIX
 70
     0
  9
$DIMSOXD
 70
     0
  9
$DIMSAH
 70
     0
  9
$DIMBLK1
  1

  9
$DIMBLK2
  1

  9
$DIMSTYLE
  2
23NSTD
  9
$DIMCLRD
 70
     0
  9
$DIMCLRE
 70
     0
  9
$DIMCLRT
 70
     0
  9
$DIMTFAC
 40
1.0
  9
$DIMGAP
 40
0.09
  9
$DIMJUST
 70
     0
  9
$DIMSD1
 70
     0
  9
$DIMSD2
 70
     0
  9
$DIMTOLJ
 70
     1
  9
$DIMTZIN
 70
     0
  9
$DIMALTZ
 70
     0
  9
$DIMALTTZ
 70
     0
  9
$DIMUPT
 70
     0
  9
$DIMDEC
 70
     3
  9
$DIMTDEC
 70
     3
  9
$DIMALTU
 70
     2
  9
$DIMALTTD
 70
     2
  9
$DIMTXSTY
  7
TXT
  9
$DIMAUNIT
 70
     0
  9
$DIMADEC
 70
     0
  9
$DIMALTRND
 40
0.0
  9
$DIMAZIN
 70
     0
  9
$DIMDSEP
 70
    46
  9
$DIMATFIT
 70
     1
  9
$DIMFRAC
 70
     0
  9
$DIMLDRBLK
  1

  9
$DIMLUNIT
 70
     2
  9
$DIMLWD
 70
    -2
  9
$DIMLWE
 70
    -2
  9
$DIMTMOVE
 70
     0
  9
$LUNITS
 70
     2
  9
$LUPREC
 70
     8
  9
$SKETCHINC
 40
0.1
  9
$FILLETRAD
 40
0.0
  9
$AUNITS
 70
     0
  9
$AUPREC
 70
     0
  9
$MENU
  1
acad
  9
$ELEVATION
 40
0.0
  9
$PELEVATION
 40
0.0
  9
$THICKNESS
 40
0.0
  9
$LIMCHECK
 70
     0
  9
$CHAMFERA
 40
0.0
  9
$CHAMFERB
 40
0.0
  9
$CHAMFERC
 40
0.0
  9
$CHAMFERD
 40
0.0
  9
$SKPOLY
 70
     0
  9
$TDCREATE
 40
2451059.537139467
  9
$TDUCREATE
 40
2451059.745472801
  9
$TDUPDATE
 40
2454788.499833796
  9
$TDUUPDATE
 40
2454788.708167129
  9
$TDINDWG
 40
1.0876693634
  9
$TDUSRTIMER
 40
1.0876688194
  9
$USRTIMER
 70
     1
  9
$ANGBASE
 50
0.0
  9
$ANGDIR
 70
     0
  9
$PDMODE
 70
     0
  9
$PDSIZE
 40
0.0
  9
$PLINEWID
 40
0.0
  9
$SPLFRAME
 70
     0
  9
$SPLINETYPE
 70
     6
  9
$SPLINESEGS
 70
     8
  9
$HANDSEED
  5
ADF3
  9
$SURFTAB1
 70
     6
  9
$SURFTAB2
 70
     6
  9
$SURFTYPE
 70
     6
  9
$SURFU
 70
     6
  9
$SURFV
 70
     6
  9
$UCSBASE
  2

  9
$UCSNAME
  2

  9
$UCSORG
 10
0.0
 20
0.0
 30
0.0
  9
$UCSXDIR
 10
1.0
 20
0.0
 30
0.0
  9
$UCSYDIR
 10
0.0
 20
1.0
 30
0.0
  9
$UCSORTHOREF
  2

  9
$UCSORTHOVIEW
 70
     0
  9
$UCSORGTOP
 10
0.0
 20
0.0
 30
0.0
  9
$UCSORGBOTTOM
 10
0.0
 20
0.0
 30
0.0
  9
$UCSORGLEFT
 10
0.0
 20
0.0
 30
0.0
  9
$UCSORGRIGHT
 10
0.0
 20
0.0
 30
0.0
  9
$UCSORGFRONT
 10
0.0
 20
0.0
 30
0.0
  9
$UCSORGBACK
 10
0.0
 20
0.0
 30
0.0
  9
$PUCSBASE
  2

  9
$PUCSNAME
  2

  9
$PUCSORG
 10
0.0
 20
0.0
 30
0.0
  9
$PUCSXDIR
 10
1.0
 20
0.0
 30
0.0
  9
$PUCSYDIR
 10
0.0
 20
1.0
 30
0.0
  9
$PUCSORTHOREF
  2

  9
$PUCSORTHOVIEW
 70
     0
  9
$PUCSORGTOP
 10
0.0
 20
0.0
 30
0.0
  9
$PUCSORGBOTTOM
 10
0.0
 20
0.0
 30
0.0
  9
$PUCSORGLEFT
 10
0.0
 20
0.0
 30
0.0
  9
$PUCSORGRIGHT
 10
0.0
 20
0.0
 30
0.0
  9
$PUCSORGFRONT
 10
0.0
 20
0.0
 30
0.0
  9
$PUCSORGBACK
 10
0.0
 20
0.0
 30
0.0
  9
$USERI1
 70
     0
  9
$USERI2
 70
     0
  9
$USERI3
 70
     0
  9
$USERI4
 70
     0
  9
$USERI5
 70
     0
  9
$USERR1
 40
0.0
  9
$USERR2
 40
0.0
  9
$USERR3
 40
0.0
  9
$USERR4
 40
0.0
  9
$USERR5
 40
0.0
  9
$WORLDVIEW
 70
     1
  9
$SHADEDGE
 70
     3
  9
$SHADEDIF
 70
    70
  9
$TILEMODE
 70
     1
  9
$MAXACTVP
 70
    16
  9
$PINSBASE
 10
0.0
 20
0.0
 30
0.0
  9
$PLIMCHECK
 70
     0
  9
$PEXTMIN
 10
1.000000000000000E+20
 20
1.000000000000000E+20
 30
1.000000000000000E+20
  9
$PEXTMAX
 10
-1.000000000000000E+20
 20
-1.000000000000000E+20
 30
-1.000000000000000E+20
  9
$PLIMMIN
 10
0.0
 20
0.0
  9
$PLIMMAX
 10
12.0
 20
9.0
  9
$UNITMODE
 70
     0
  9
$VISRETAIN
 70
     0
  9
$PLINEGEN
 70
     0
  9
$PSLTSCALE
 70
     1
  9
$TREEDEPTH
 70
  3020
  9
$CMLSTYLE
  2
Standard
  9
$CMLJUST
 70
     0
  9
$CMLSCALE
 40
1.0
  9
$PROXYGRAPHICS
 70
     1
  9
$MEASUREMENT
 70
     0
  9
$CELWEIGHT
370
    -1
  9
$ENDCAPS
280
     0
  9
$JOINSTYLE
280
     0
  9
$LWDISPLAY
290
     0
  9
$INSUNITS
 70
     0
  9
$HYPERLINKBASE
  1

  9
$STYLESHEET
  1
monochrome.ctb
  9
$XEDIT
290
     1
  9
$CEPSNTYPE
380
     0
  9
$PSTYLEMODE
290
     1
  9
$FINGERPRINTGUID
  2
{908B989F-B3DE-49F5-AF65-E8B198A6B351}
  9
$VERSIONGUID
  2
{BDC9B9AC-C4D7-4F28-849C-F100EC73CEF0}
  9
$EXTNAMES
290
     1
  9
$PSVPSCALE
 40
0.0
  9
$OLESTARTUP
290
     0
  0
ENDSEC
  0
SECTION
  2
CLASSES
  0
CLASS
  1
ACDBDICTIONARYWDFLT
  2
AcDbDictionaryWithDefault
  3
AutoCAD 2000
 90
        0
280
     0
281
     0
  0
CLASS
  1
ACDBPLACEHOLDER
  2
AcDbPlaceHolder
  3
AutoCAD 2000
 90
        0
280
     0
281
     0
  0
CLASS
  1
LAYOUT
  2
AcDbLayout
  3
AutoCAD 2000
 90
        0
280
     0
281
     0
  0
CLASS
  1
DICTIONARYVAR
  2
AcDbDictionaryVar
  3
AutoCAD 2000
 90
        0
280
     0
281
     0
  0
ENDSEC
  0
SECTION
  2
TABLES
  0
TABLE
  2
VPORT
  5
4793
330
0
100
AcDbSymbolTable
 70
     2
  0
VPORT
  5
ADF2
330
4793
100
AcDbSymbolTableRecord
100
AcDbViewportTableRecord
  2
*Active
 70
     0
 10
0.0
 20
0.0
 11
1.0
 21
1.0
 12
33.20000088900278
 22
20.65600055310973
 13
0.0
 23
0.0
 14
1.0
 24
1.0
 15
0.0
 25
0.0
 16
0.0
 26
0.0
 36
1.0
 17
0.0
 27
0.0
 37
0.0
 40
41.75046104872449
 41
1.796327212020033
 42
50.0
 43
0.0
 44
0.0
 50
0.0
 51
0.0
 71
     0
 72
   500
 73
     1
 74
     0
 75
     0
 76
     0
 77
     0
 78
     0
281
     0
 65
     0
110
0.0
120
0.0
130
0.0
111
1.0
121
0.0
131
0.0
112
0.0
122
1.0
132
0.0
 79
     0
146
0.0
  0
ENDTAB
  0
TABLE
  2
LTYPE
  5
4790
330
0
100
AcDbSymbolTable
 70
     7
  0
LTYPE
  5
479E
330
4790
100
AcDbSymbolTableRecord
100
AcDbLinetypeTableRecord
  2
ByBlock
 70
     0
  3

 72
    65
 73
     0
 40
0.0
  0
LTYPE
  5
479F
330
4790
100
AcDbSymbolTableRecord
100
AcDbLinetypeTableRecord
  2
ByLayer
 70
     0
  3

 72
    65
 73
     0
 40
0.0
  0
LTYPE
  5
47A0
330
4790
100
AcDbSymbolTableRecord
100
AcDbLinetypeTableRecord
  2
CONTINUOUS
 70
     0
  3
Solid line
 72
    65
 73
     0
 40
0.0
  0
LTYPE
  5
47B0
330
4790
100
AcDbSymbolTableRecord
100
AcDbLinetypeTableRecord
  2
HIDDEN
 70
     0
  3
_ _ _ _ _ _ _ _ _ _ _ _ _ _ _ _ _ _ _ _ _ _ _
 72
    65
 73
     2
 40
0.375
 49
0.25
 74
     0
 49
-0.125
 74
     0
  0
LTYPE
  5
47B1
330
4790
100
AcDbSymbolTableRecord
100
AcDbLinetypeTableRecord
  2
PHANTOM2
 70
     0
  3
___ _ _ ___ _ _ ___ _ _ ___ _ _ ___ _ _ ___ _ _
 72
    65
 73
     6
 40
1.25
 49
0.625
 74
     0
 49
-0.125
 74
     0
 49
0.125
 74
     0
 49
-0.125
 74
     0
 49
0.125
 74
     0
 49
-0.125
 74
     0
  0
LTYPE
  5
47B2
330
4790
100
AcDbSymbolTableRecord
100
AcDbLinetypeTableRecord
  2
CENTER2
 70
     0
  3
___ _ ___ _ ___ _ ___ _ ___ _ ___ _ ___ _ ___ _
 72
    65
 73
     4
 40
1.125
 49
0.75
 74
     0
 49
-0.125
 74
     0
 49
0.125
 74
     0
 49
-0.125
 74
     0
  0
LTYPE
  5
7518
330
4790
100
AcDbSymbolTableRecord
100
AcDbLinetypeTableRecord
  2
PHANTOM
 70
     0
  3
_____ _ _ _____ _ _ _____ _ _ _____ _ _ ____
 72
    65
 73
     6
 40
2.5
 49
1.25
 74
     0
 49
-0.25
 74
     0
 49
0.25
 74
     0
 49
-0.25
 74
     0
 49
0.25
 74
     0
 49
-0.25
 74
     0
  0
LTYPE
  5
7519
330
4790
100
AcDbSymbolTableRecord
100
AcDbLinetypeTableRecord
  2
HIDDEN2
 70
     0
  3
Hidden (.5x) _ _ _ _ _ _ _ _ _ _ _ _ _ _ _ _ _
 72
    65
 73
     2
 40
0.1875
 49
0.125
 74
     0
 49
-0.0625
 74
     0
  0
LTYPE
  5
751A
330
4790
100
AcDbSymbolTableRecord
100
AcDbLinetypeTableRecord
  2
CENTER
 70
     0
  3
Center ____ _ ____ _ ____ _ ____ _ ____ _ ____
 72
    65
 73
     4
 40
2.0
 49
1.25
 74
     0
 49
-0.25
 74
     0
 49
0.25
 74
     0
 49
-0.25
 74
     0
  0
ENDTAB
  0
TABLE
  2
LAYER
  5
478D
330
0
100
AcDbSymbolTable
 70
     9
  0
LAYER
  5
479B
330
478D
100
AcDbSymbolTableRecord
100
AcDbLayerTableRecord
  2
0
 70
     0
 62
     7
  6
CONTINUOUS
370
    -3
390
479A
  0
LAYER
  5
47AD
330
478D
100
AcDbSymbolTableRecord
100
AcDbLayerTableRecord
  2
OBJECT
 70
     0
 62
     7
  6
CONTINUOUS
370
    -3
390
479A
  0
LAYER
  5
47B3
330
478D
100
AcDbSymbolTableRecord
100
AcDbLayerTableRecord
  2
DIM
 70
     0
 62
     2
  6
CONTINUOUS
370
    -3
390
479A
  0
LAYER
  5
47B4
330
478D
100
AcDbSymbolTableRecord
100
AcDbLayerTableRecord
  2
HIDDEN
 70
     0
 62
     6
  6
HIDDEN
370
    -3
390
479A
  0
LAYER
  5
47B5
330
478D
100
AcDbSymbolTableRecord
100
AcDbLayerTableRecord
  2
BEND
 70
     0
 62
     4
  6
PHANTOM
370
    -3
390
479A
  0
LAYER
  5
47B6
330
478D
100
AcDbSymbolTableRecord
100
AcDbLayerTableRecord
  2
TEXT
 70
     0
 62
     1
  6
CONTINUOUS
370
    -3
390
479A
  0
LAYER
  5
47B7
330
478D
100
AcDbSymbolTableRecord
100
AcDbLayerTableRecord
  2
TITLE
 70
     0
 62
     8
  6
CONTINUOUS
370
    -3
390
479A
  0
LAYER
  5
47B8
330
478D
100
AcDbSymbolTableRecord
100
AcDbLayerTableRecord
  2
DEFPOINTS
 70
     0
 62
     7
  6
CONTINUOUS
290
     0
370
    -3
390
479A
  0
LAYER
  5
47B9
330
478D
100
AcDbSymbolTableRecord
100
AcDbLayerTableRecord
  2
CENTER
 70
     0
 62
     3
  6
CENTER2
370
    -3
390
479A
  0
ENDTAB
  0
TABLE
  2
STYLE
  5
478E
330
0
100
AcDbSymbolTable
 70
     2
  0
STYLE
  5
479C
330
478E
100
AcDbSymbolTableRecord
100
AcDbTextStyleTableRecord
  2
TXT
 70
     0
 40
0.0
 41
0.75
 50
0.0
 71
     0
 42
0.2
  3
txt.shx
  4

  0
STYLE
  5
751B
330
478E
100
AcDbSymbolTableRecord
100
AcDbTextStyleTableRecord
  2
SECTION
 70
     0
 40
0.0
 41
0.8
 50
0.0
 71
     0
 42
0.2
  3
ROMANT.SHX
  4

  0
ENDTAB
  0
TABLE
  2
VIEW
  5
4791
330
0
100
AcDbSymbolTable
 70
     0
  0
ENDTAB
  0
TABLE
  2
UCS
  5
4792
330
0
100
AcDbSymbolTable
 70
     0
  0
ENDTAB
  0
TABLE
  2
APPID
  5
4794
330
0
100
AcDbSymbolTable
 70
     1
  0
APPID
  5
479D
330
4794
100
AcDbSymbolTableRecord
100
AcDbRegAppTableRecord
  2
ACAD
 70
     0
  0
ENDTAB
  0
TABLE
  2
DIMSTYLE
  5
4795
330
0
100
AcDbSymbolTable
 70
     4
100
AcDbDimStyleTable
 71
     4
340
47BB
340
751C
340
47BC
340
751D
  0
DIMSTYLE
105
47BB
102
{ACAD_REACTORS
330
58F9
330
5915
330
5923
330
5968
330
5984
330
5992
330
59B5
330
59FD
330
5A0B
330
5AA6
330
5B2D
330
5B3B
330
5BF0
330
5BFE
330
5C0C
330
5C4C
330
5C5A
330
5C6B
330
5C78
330
5C94
330
5CA1
330
5D94
330
5E1D
330
5E2B
330
5E4A
330
5E73
330
5E8F
330
5E9D
330
5EAF
330
5EBD
330
5EDC
330
5EF3
330
611E
330
7DA1
330
7DA7
330
7DA9
330
94F3
330
9EC5
330
9F77
330
A0CC
330
A274
330
A2E0
330
A392
330
A3AC
330
A414
330
A436
330
AB0E
102
}
330
4795
100
AcDbSymbolTableRecord
100
AcDbDimStyleTableRecord
  2
23NSTD
 70
     0
 40
4.0
 42
0.063
 43
0.281
 44
0.093
140
0.125
271
     3
272
     3
289
     1
340
479C
  0
DIMSTYLE
105
47BC
102
{ACAD_REACTORS
330
593E
330
950B
330
A15C
330
A1E5
330
A1E6
330
A1E4
102
}
330
4795
100
AcDbSymbolTableRecord
100
AcDbDimStyleTableRecord
  2
23NSTDI
 70
     0
 40
4.0
 42
0.063
 43
0.281
 44
0.093
140
0.125
174
     1
271
     3
272
     3
340
479C
  0
DIMSTYLE
105
751C
102
{ACAD_REACTORS
330
A6B3
330
A6C1
330
A6D0
330
A726
102
}
330
4795
100
AcDbSymbolTableRecord
100
AcDbDimStyleTableRecord
  2
23NSTD4
 70
     0
 40
4.0
 42
0.063
 43
0.25
 44
0.093
140
0.125
144
0.25
271
     3
272
     3
289
     1
340
479C
  0
DIMSTYLE
105
751D
330
4795
100
AcDbSymbolTableRecord
100
AcDbDimStyleTableRecord
  2
23NSTD4I
 70
     0
 40
4.0
 42
0.063
 43
0.25
 44
0.093
140
0.125
144
0.25
174
     1
271
     3
272
     3
340
479C
  0
ENDTAB
  0
TABLE
  2
BLOCK_RECORD
  5
478C
330
0
100
AcDbSymbolTable
 70
    56
  0
BLOCK_RECORD
  5
47A9
330
478C
100
AcDbSymbolTableRecord
100
AcDbBlockTableRecord
  2
*Model_Space
340
47AC
  0
BLOCK_RECORD
  5
47A5
330
478C
100
AcDbSymbolTableRecord
100
AcDbBlockTableRecord
  2
*Paper_Space
340
47A8
  0
BLOCK_RECORD
  5
58FA
330
478C
100
AcDbSymbolTableRecord
100
AcDbBlockTableRecord
  2
*D0
340
0
  0
BLOCK_RECORD
  5
5916
330
478C
100
AcDbSymbolTableRecord
100
AcDbBlockTableRecord
  2
*D1
340
0
  0
BLOCK_RECORD
  5
5924
330
478C
100
AcDbSymbolTableRecord
100
AcDbBlockTableRecord
  2
*D2
340
0
  0
BLOCK_RECORD
  5
593F
330
478C
100
AcDbSymbolTableRecord
100
AcDbBlockTableRecord
  2
*D3
340
0
  0
BLOCK_RECORD
  5
5969
330
478C
100
AcDbSymbolTableRecord
100
AcDbBlockTableRecord
  2
*D4
340
0
  0
BLOCK_RECORD
  5
5985
330
478C
100
AcDbSymbolTableRecord
100
AcDbBlockTableRecord
  2
*D5
340
0
  0
BLOCK_RECORD
  5
5993
330
478C
100
AcDbSymbolTableRecord
100
AcDbBlockTableRecord
  2
*D6
340
0
  0
BLOCK_RECORD
  5
59B6
330
478C
100
AcDbSymbolTableRecord
100
AcDbBlockTableRecord
  2
*D7
340
0
  0
BLOCK_RECORD
  5
59FE
330
478C
100
AcDbSymbolTableRecord
100
AcDbBlockTableRecord
  2
*D8
340
0
  0
BLOCK_RECORD
  5
5A0C
330
478C
100
AcDbSymbolTableRecord
100
AcDbBlockTableRecord
  2
*D9
340
0
  0
BLOCK_RECORD
  5
5AA7
330
478C
100
AcDbSymbolTableRecord
100
AcDbBlockTableRecord
  2
*D10
340
0
  0
BLOCK_RECORD
  5
5B2E
330
478C
100
AcDbSymbolTableRecord
100
AcDbBlockTableRecord
  2
*D11
340
0
  0
BLOCK_RECORD
  5
5B3C
330
478C
100
AcDbSymbolTableRecord
100
AcDbBlockTableRecord
  2
*D12
340
0
  0
BLOCK_RECORD
  5
5BF1
330
478C
100
AcDbSymbolTableRecord
100
AcDbBlockTableRecord
  2
*D13
340
0
  0
BLOCK_RECORD
  5
5BFF
330
478C
100
AcDbSymbolTableRecord
100
AcDbBlockTableRecord
  2
*D14
340
0
  0
BLOCK_RECORD
  5
5C0D
330
478C
100
AcDbSymbolTableRecord
100
AcDbBlockTableRecord
  2
*D15
340
0
  0
BLOCK_RECORD
  5
5C4D
330
478C
100
AcDbSymbolTableRecord
100
AcDbBlockTableRecord
  2
*D16
340
0
  0
BLOCK_RECORD
  5
5C5B
330
478C
100
AcDbSymbolTableRecord
100
AcDbBlockTableRecord
  2
*D17
340
0
  0
BLOCK_RECORD
  5
5C6C
330
478C
100
AcDbSymbolTableRecord
100
AcDbBlockTableRecord
  2
*D18
340
0
  0
BLOCK_RECORD
  5
5C79
330
478C
100
AcDbSymbolTableRecord
100
AcDbBlockTableRecord
  2
*D19
340
0
  0
BLOCK_RECORD
  5
5C95
330
478C
100
AcDbSymbolTableRecord
100
AcDbBlockTableRecord
  2
*D20
340
0
  0
BLOCK_RECORD
  5
5CA2
330
478C
100
AcDbSymbolTableRecord
100
AcDbBlockTableRecord
  2
*D21
340
0
  0
BLOCK_RECORD
  5
5D95
330
478C
100
AcDbSymbolTableRecord
100
AcDbBlockTableRecord
  2
*D22
340
0
  0
BLOCK_RECORD
  5
5E1E
330
478C
100
AcDbSymbolTableRecord
100
AcDbBlockTableRecord
  2
*D23
340
0
  0
BLOCK_RECORD
  5
5E2C
330
478C
100
AcDbSymbolTableRecord
100
AcDbBlockTableRecord
  2
*D24
340
0
  0
BLOCK_RECORD
  5
5E4B
330
478C
100
AcDbSymbolTableRecord
100
AcDbBlockTableRecord
  2
*D25
340
0
  0
BLOCK_RECORD
  5
5E74
330
478C
100
AcDbSymbolTableRecord
100
AcDbBlockTableRecord
  2
*D26
340
0
  0
BLOCK_RECORD
  5
5E90
330
478C
100
AcDbSymbolTableRecord
100
AcDbBlockTableRecord
  2
*D27
340
0
  0
BLOCK_RECORD
  5
5E9E
330
478C
100
AcDbSymbolTableRecord
100
AcDbBlockTableRecord
  2
*D28
340
0
  0
BLOCK_RECORD
  5
5EB0
330
478C
100
AcDbSymbolTableRecord
100
AcDbBlockTableRecord
  2
*D29
340
0
  0
BLOCK_RECORD
  5
5EBE
330
478C
100
AcDbSymbolTableRecord
100
AcDbBlockTableRecord
  2
*D30
340
0
  0
BLOCK_RECORD
  5
5EDD
330
478C
100
AcDbSymbolTableRecord
100
AcDbBlockTableRecord
  2
*D31
340
0
  0
BLOCK_RECORD
  5
5EF4
330
478C
100
AcDbSymbolTableRecord
100
AcDbBlockTableRecord
  2
*D32
340
0
  0
BLOCK_RECORD
  5
611F
330
478C
100
AcDbSymbolTableRecord
100
AcDbBlockTableRecord
  2
*D33
340
0
  0
BLOCK_RECORD
  5
7374
330
478C
100
AcDbSymbolTableRecord
100
AcDbBlockTableRecord
  2
HBS
340
0
102
{BLKREFS
331
8403
102
}
  0
BLOCK_RECORD
  5
79DB
330
478C
100
AcDbSymbolTableRecord
100
AcDbBlockTableRecord
  2
*D35
340
0
  0
BLOCK_RECORD
  5
94F4
330
478C
100
AcDbSymbolTableRecord
100
AcDbBlockTableRecord
  2
*D36
340
0
  0
BLOCK_RECORD
  5
950C
330
478C
100
AcDbSymbolTableRecord
100
AcDbBlockTableRecord
  2
*D37
340
0
  0
BLOCK_RECORD
  5
9EC6
330
478C
100
AcDbSymbolTableRecord
100
AcDbBlockTableRecord
  2
*D38
340
0
  0
BLOCK_RECORD
  5
9F78
330
478C
100
AcDbSymbolTableRecord
100
AcDbBlockTableRecord
  2
*D39
340
0
  0
BLOCK_RECORD
  5
A0CD
330
478C
100
AcDbSymbolTableRecord
100
AcDbBlockTableRecord
  2
*D40
340
0
  0
BLOCK_RECORD
  5
A15D
330
478C
100
AcDbSymbolTableRecord
100
AcDbBlockTableRecord
  2
*D41
340
0
  0
BLOCK_RECORD
  5
A1E7
330
478C
100
AcDbSymbolTableRecord
100
AcDbBlockTableRecord
  2
*D42
340
0
  0
BLOCK_RECORD
  5
A1F4
330
478C
100
AcDbSymbolTableRecord
100
AcDbBlockTableRecord
  2
*D43
340
0
  0
BLOCK_RECORD
  5
A201
330
478C
100
AcDbSymbolTableRecord
100
AcDbBlockTableRecord
  2
*D44
340
0
  0
BLOCK_RECORD
  5
A275
330
478C
100
AcDbSymbolTableRecord
100
AcDbBlockTableRecord
  2
*D45
340
0
  0
BLOCK_RECORD
  5
A2E1
330
478C
100
AcDbSymbolTableRecord
100
AcDbBlockTableRecord
  2
*D46
340
0
  0
BLOCK_RECORD
  5
A393
330
478C
100
AcDbSymbolTableRecord
100
AcDbBlockTableRecord
  2
*D47
340
0
  0
BLOCK_RECORD
  5
A3AD
330
478C
100
AcDbSymbolTableRecord
100
AcDbBlockTableRecord
  2
*D48
340
0
  0
BLOCK_RECORD
  5
A415
330
478C
100
AcDbSymbolTableRecord
100
AcDbBlockTableRecord
  2
*D49
340
0
  0
BLOCK_RECORD
  5
A437
330
478C
100
AcDbSymbolTableRecord
100
AcDbBlockTableRecord
  2
*D50
340
0
  0
BLOCK_RECORD
  5
A6B4
330
478C
100
AcDbSymbolTableRecord
100
AcDbBlockTableRecord
  2
*D51
340
0
  0
BLOCK_RECORD
  5
A6C2
330
478C
100
AcDbSymbolTableRecord
100
AcDbBlockTableRecord
  2
*D52
340
0
  0
BLOCK_RECORD
  5
A6D1
330
478C
100
AcDbSymbolTableRecord
100
AcDbBlockTableRecord
  2
*D53
340
0
  0
BLOCK_RECORD
  5
A727
330
478C
100
AcDbSymbolTableRecord
100
AcDbBlockTableRecord
  2
*D54
340
0
  0
BLOCK_RECORD
  5
AB0F
330
478C
100
AcDbSymbolTableRecord
100
AcDbBlockTableRecord
  2
*D55
340
0
  0
ENDTAB
  0
ENDSEC
  0
SECTION
  2
BLOCKS
  0
BLOCK
  5
47AA
330
47A9
100
AcDbEntity
  8
0
100
AcDbBlockBegin
  2
*Model_Space
 70
     0
 10
0.0
 20
0.0
 30
0.0
  3
*Model_Space
  1

  0
ENDBLK
  5
47AB
330
47A9
100
AcDbEntity
  8
0
100
AcDbBlockEnd
  0
BLOCK
  5
47A6
330
47A5
100
AcDbEntity
 67
     1
  8
0
100
AcDbBlockBegin
  2
*Paper_Space
 70
     0
 10
0.0
 20
0.0
 30
0.0
  3
*Paper_Space
  1

  0
ENDBLK
  5
47A7
330
47A5
100
AcDbEntity
 67
     1
  8
0
100
AcDbBlockEnd
  0
BLOCK
  5
5905
330
58FA
100
AcDbEntity
  8
0
100
AcDbBlockBegin
  2
*D0
 70
     1
 10
0.0
 20
0.0
 30
0.0
  3
*D0
  1

  0
LINE
  5
AAE2
330
58FA
100
AcDbEntity
  8
DIM
 62
     0
370
    -2
100
AcDbLine
 10
15.2756122037262
 20
22.59428480874294
 30
0.0
 11
15.2756122037262
 21
25.52432961169247
 31
0.0
  0
LINE
  5
AAE3
330
58FA
100
AcDbEntity
  8
DIM
 62
     0
370
    -2
100
AcDbLine
 10
14.49061220372621
 20
22.59428480874294
 30
0.0
 11
14.49061220372621
 21
25.52432961169247
 31
0.0
  0
LINE
  5
AAE4
330
58FA
100
AcDbEntity
  8
DIM
 62
     0
370
    -2
100
AcDbLine
 10
15.99561220372621
 20
25.15232961169247
 30
0.0
 11
16.71561220372621
 21
25.15232961169247
 31
0.0
  0
LINE
  5
AAE5
330
58FA
100
AcDbEntity
  8
DIM
 62
     0
370
    -2
100
AcDbLine
 10
13.77061220372621
 20
25.15232961169247
 30
0.0
 11
13.05061220372621
 21
25.15232961169247
 31
0.0
  0
SOLID
  5
AAE6
330
58FA
100
AcDbEntity
  8
DIM
 62
     0
100
AcDbTrace
 10
15.99561220372621
 20
25.27232961169247
 30
0.0
 11
15.99561220372621
 21
25.03232961169247
 31
0.0
 12
15.2756122037262
 22
25.15232961169247
 32
0.0
 13
15.2756122037262
 23
25.15232961169247
 33
0.0
  0
SOLID
  5
AAE7
330
58FA
100
AcDbEntity
  8
DIM
 62
     0
100
AcDbTrace
 10
13.77061220372621
 20
25.27232961169247
 30
0.0
 11
13.77061220372621
 21
25.03232961169247
 31
0.0
 12
14.49061220372621
 22
25.15232961169247
 32
0.0
 13
14.49061220372621
 23
25.15232961169247
 33
0.0
  0
MTEXT
  5
AAE8
330
58FA
100
AcDbEntity
  8
DIM
 62
     0
100
AcDbMText
 10
11.97186220372621
 20
25.15232961169247
 30
0.0
 40
0.5
 41
0.0
 71
     5
 72
     1
  1
\A1;0.785
 73
     1
 44
1.0
  0
POINT
  5
AAE9
330
58FA
100
AcDbEntity
  8
DEFPOINTS
 62
     0
100
AcDbPoint
 10
15.2756122037262
 20
22.34228480874294
 30
0.0
  0
POINT
  5
AAEA
330
58FA
100
AcDbEntity
  8
DEFPOINTS
 62
     0
100
AcDbPoint
 10
14.49061220372621
 20
22.34228480874294
 30
0.0
  0
POINT
  5
AAEB
330
58FA
100
AcDbEntity
  8
DEFPOINTS
 62
     0
100
AcDbPoint
 10
14.49061220372621
 20
25.15232961169247
 30
0.0
  0
ENDBLK
  5
5906
330
58FA
100
AcDbEntity
  8
0
100
AcDbBlockEnd
  0
BLOCK
  5
5921
330
5916
100
AcDbEntity
  8
0
100
AcDbBlockBegin
  2
*D1
 70
     1
 10
0.0
 20
0.0
 30
0.0
  3
*D1
  1

  0
LINE
  5
AD1D
330
5916
100
AcDbEntity
  8
DIM
 62
     0
370
    -2
100
AcDbLine
 10
13.33973220372621
 20
13.82324480874295
 30
0.0
 11
13.33973220372621
 21
7.980535570892385
 31
0.0
  0
LINE
  5
AD1E
330
5916
100
AcDbEntity
  8
DIM
 62
     0
370
    -2
100
AcDbLine
 10
17.2114922037262
 20
13.82324480874295
 30
0.0
 11
17.2114922037262
 21
7.980535570892385
 31
0.0
  0
LINE
  5
AD1F
330
5916
100
AcDbEntity
  8
DIM
 62
     0
370
    -2
100
AcDbLine
 10
14.05973220372621
 20
8.352535570892385
 30
0.0
 11
14.16561220372621
 21
8.352535570892385
 31
0.0
  0
LINE
  5
AD20
330
5916
100
AcDbEntity
  8
DIM
 62
     0
370
    -2
100
AcDbLine
 10
16.4914922037262
 20
8.352535570892385
 30
0.0
 11
16.3856122037262
 21
8.352535570892385
 31
0.0
  0
SOLID
  5
AD21
330
5916
100
AcDbEntity
  8
DIM
 62
     0
100
AcDbTrace
 10
14.05973220372621
 20
8.472535570892384
 30
0.0
 11
14.05973220372621
 21
8.232535570892386
 31
0.0
 12
13.33973220372621
 22
8.352535570892385
 32
0.0
 13
13.33973220372621
 23
8.352535570892385
 33
0.0
  0
SOLID
  5
AD22
330
5916
100
AcDbEntity
  8
DIM
 62
     0
100
AcDbTrace
 10
16.4914922037262
 20
8.472535570892384
 30
0.0
 11
16.4914922037262
 21
8.232535570892386
 31
0.0
 12
17.2114922037262
 22
8.352535570892385
 32
0.0
 13
17.2114922037262
 23
8.352535570892385
 33
0.0
  0
MTEXT
  5
AD23
330
5916
100
AcDbEntity
  8
DIM
 62
     0
100
AcDbMText
 10
15.2756122037262
 20
8.352535570892385
 30
0.0
 40
0.5
 41
0.0
 71
     5
 72
     1
  1
\A1;3.872
 73
     1
 44
1.0
  0
POINT
  5
AD24
330
5916
100
AcDbEntity
  8
DEFPOINTS
 62
     0
100
AcDbPoint
 10
13.33973220372621
 20
14.07524480874295
 30
0.0
  0
POINT
  5
AD25
330
5916
100
AcDbEntity
  8
DEFPOINTS
 62
     0
100
AcDbPoint
 10
17.2114922037262
 20
14.07524480874295
 30
0.0
  0
POINT
  5
AD26
330
5916
100
AcDbEntity
  8
DEFPOINTS
 62
     0
100
AcDbPoint
 10
17.2114922037262
 20
8.352535570892385
 30
0.0
  0
ENDBLK
  5
5922
330
5916
100
AcDbEntity
  8
0
100
AcDbBlockEnd
  0
BLOCK
  5
592F
330
5924
100
AcDbEntity
  8
0
100
AcDbBlockBegin
  2
*D2
 70
     1
 10
0.0
 20
0.0
 30
0.0
  3
*D2
  1

  0
LINE
  5
AB4F
330
5924
100
AcDbEntity
  8
DIM
 62
     0
370
    -2
100
AcDbLine
 10
12.91550720372621
 20
13.34037480874294
 30
0.0
 11
12.91550720372621
 21
5.666906753848394
 31
0.0
  0
LINE
  5
AB50
330
5924
100
AcDbEntity
  8
DIM
 62
     0
370
    -2
100
AcDbLine
 10
17.6357172037262
 20
13.34037480874294
 30
0.0
 11
17.6357172037262
 21
5.666906753848394
 31
0.0
  0
LINE
  5
AB51
330
5924
100
AcDbEntity
  8
DIM
 62
     0
370
    -2
100
AcDbLine
 10
13.63550720372621
 20
6.038906753848394
 30
0.0
 11
14.19686220372621
 21
6.038906753848394
 31
0.0
  0
LINE
  5
AB52
330
5924
100
AcDbEntity
  8
DIM
 62
     0
370
    -2
100
AcDbLine
 10
16.9157172037262
 20
6.038906753848394
 30
0.0
 11
16.35436220372621
 21
6.038906753848394
 31
0.0
  0
SOLID
  5
AB53
330
5924
100
AcDbEntity
  8
DIM
 62
     0
100
AcDbTrace
 10
13.63550720372621
 20
6.158906753848394
 30
0.0
 11
13.63550720372621
 21
5.918906753848394
 31
0.0
 12
12.91550720372621
 22
6.038906753848394
 32
0.0
 13
12.91550720372621
 23
6.038906753848394
 33
0.0
  0
SOLID
  5
AB54
330
5924
100
AcDbEntity
  8
DIM
 62
     0
100
AcDbTrace
 10
16.9157172037262
 20
6.158906753848394
 30
0.0
 11
16.9157172037262
 21
5.918906753848394
 31
0.0
 12
17.6357172037262
 22
6.038906753848394
 32
0.0
 13
17.6357172037262
 23
6.038906753848394
 33
0.0
  0
MTEXT
  5
AB55
330
5924
100
AcDbEntity
  8
DIM
 62
     0
100
AcDbMText
 10
15.27561220372621
 20
6.038906753848394
 30
0.0
 40
0.5
 41
0.0
 71
     5
 72
     1
  1
\A1;4.720
 73
     1
 44
1.0
  0
POINT
  5
AB56
330
5924
100
AcDbEntity
  8
DEFPOINTS
 62
     0
100
AcDbPoint
 10
12.91550720372621
 20
13.59237480874294
 30
0.0
  0
POINT
  5
AB57
330
5924
100
AcDbEntity
  8
DEFPOINTS
 62
     0
100
AcDbPoint
 10
17.6357172037262
 20
13.59237480874294
 30
0.0
  0
POINT
  5
AB58
330
5924
100
AcDbEntity
  8
DEFPOINTS
 62
     0
100
AcDbPoint
 10
17.6357172037262
 20
6.038906753848394
 30
0.0
  0
ENDBLK
  5
5930
330
5924
100
AcDbEntity
  8
0
100
AcDbBlockEnd
  0
BLOCK
  5
594A
330
593F
100
AcDbEntity
  8
0
100
AcDbBlockBegin
  2
*D3
 70
     1
 10
0.0
 20
0.0
 30
0.0
  3
*D3
  1

  0
LINE
  5
A512
330
593F
100
AcDbEntity
  8
DIM
 62
     0
370
    -2
100
AcDbLine
 10
13.08744220372621
 20
16.60178480874295
 30
0.0
 11
11.19885090752383
 21
16.60178480874295
 31
0.0
  0
LINE
  5
A513
330
593F
100
AcDbEntity
  8
DIM
 62
     0
370
    -2
100
AcDbLine
 10
13.08744220372621
 20
15.81678480874295
 30
0.0
 11
11.19885090752383
 21
15.81678480874295
 31
0.0
  0
LINE
  5
A514
330
593F
100
AcDbEntity
  8
DIM
 62
     0
370
    -2
100
AcDbLine
 10
11.57085090752383
 20
17.32178480874294
 30
0.0
 11
11.57085090752383
 21
18.04178480874295
 31
0.0
  0
LINE
  5
A515
330
593F
100
AcDbEntity
  8
DIM
 62
     0
370
    -2
100
AcDbLine
 10
11.57085090752383
 20
15.09678480874295
 30
0.0
 11
11.57085090752383
 21
14.37678480874295
 31
0.0
  0
SOLID
  5
A516
330
593F
100
AcDbEntity
  8
DIM
 62
     0
100
AcDbTrace
 10
11.45085090752383
 20
17.32178480874294
 30
0.0
 11
11.69085090752383
 21
17.32178480874294
 31
0.0
 12
11.57085090752383
 22
16.60178480874295
 32
0.0
 13
11.57085090752383
 23
16.60178480874295
 33
0.0
  0
SOLID
  5
A517
330
593F
100
AcDbEntity
  8
DIM
 62
     0
100
AcDbTrace
 10
11.45085090752383
 20
15.09678480874295
 30
0.0
 11
11.69085090752383
 21
15.09678480874295
 31
0.0
 12
11.57085090752383
 22
15.81678480874295
 32
0.0
 13
11.57085090752383
 23
15.81678480874295
 33
0.0
  0
MTEXT
  5
A518
330
593F
100
AcDbEntity
  8
DIM
 62
     0
100
AcDbMText
 10
11.57085090752383
 20
16.20928480874295
 30
0.0
 40
0.5
 41
0.0
 71
     5
 72
     1
  1
\A1;0.785
 73
     1
 44
1.0
  0
POINT
  5
A519
330
593F
100
AcDbEntity
  8
DEFPOINTS
 62
     0
100
AcDbPoint
 10
13.33944220372621
 20
16.60178480874295
 30
0.0
  0
POINT
  5
A51A
330
593F
100
AcDbEntity
  8
DEFPOINTS
 62
     0
100
AcDbPoint
 10
13.33944220372621
 20
15.81678480874295
 30
0.0
  0
POINT
  5
A51B
330
593F
100
AcDbEntity
  8
DEFPOINTS
 62
     0
100
AcDbPoint
 10
11.57085090752383
 20
15.81678480874295
 30
0.0
  0
ENDBLK
  5
594B
330
593F
100
AcDbEntity
  8
0
100
AcDbBlockEnd
  0
BLOCK
  5
5974
330
5969
100
AcDbEntity
  8
0
100
AcDbBlockBegin
  2
*D4
 70
     1
 10
0.0
 20
0.0
 30
0.0
  3
*D4
  1

  0
LINE
  5
AAFA
330
5969
100
AcDbEntity
  8
DIM
 62
     0
370
    -2
100
AcDbLine
 10
12.91350720372621
 20
13.34237480874294
 30
0.0
 11
1.537578462278902
 21
13.34237480874295
 31
0.0
  0
LINE
  5
AAFB
330
5969
100
AcDbEntity
  8
DIM
 62
     0
370
    -2
100
AcDbLine
 10
12.91350720372621
 20
22.77219480874294
 30
0.0
 11
1.537578462278904
 21
22.77219480874295
 31
0.0
  0
LINE
  5
AAFC
330
5969
100
AcDbEntity
  8
DIM
 62
     0
370
    -2
100
AcDbLine
 10
1.909578462278902
 20
14.06237480874295
 30
0.0
 11
1.909578462278903
 21
18.05728480874295
 31
0.0
  0
LINE
  5
AAFD
330
5969
100
AcDbEntity
  8
DIM
 62
     0
370
    -2
100
AcDbLine
 10
1.909578462278904
 20
22.05219480874295
 30
0.0
 11
1.909578462278903
 21
19.27728480874294
 31
0.0
  0
SOLID
  5
AAFE
330
5969
100
AcDbEntity
  8
DIM
 62
     0
100
AcDbTrace
 10
1.789578462278902
 20
14.06237480874295
 30
0.0
 11
2.029578462278903
 21
14.06237480874295
 31
0.0
 12
1.909578462278902
 22
13.34237480874295
 32
0.0
 13
1.909578462278902
 23
13.34237480874295
 33
0.0
  0
SOLID
  5
AAFF
330
5969
100
AcDbEntity
  8
DIM
 62
     0
100
AcDbTrace
 10
1.789578462278904
 20
22.05219480874295
 30
0.0
 11
2.029578462278904
 21
22.05219480874295
 31
0.0
 12
1.909578462278904
 22
22.77219480874295
 32
0.0
 13
1.909578462278904
 23
22.77219480874295
 33
0.0
  0
MTEXT
  5
AB00
330
5969
100
AcDbEntity
  8
DIM
 62
     0
100
AcDbMText
 10
1.9095784622789
 20
18.66728480874295
 30
0.0
 40
0.5
 41
0.0
 71
     5
 72
     1
  1
\A1;9.430
 73
     1
 44
1.0
  0
POINT
  5
AB01
330
5969
100
AcDbEntity
  8
DEFPOINTS
 62
     0
100
AcDbPoint
 10
13.16550720372621
 20
13.34237480874294
 30
0.0
  0
POINT
  5
AB02
330
5969
100
AcDbEntity
  8
DEFPOINTS
 62
     0
100
AcDbPoint
 10
13.16550720372621
 20
22.77219480874294
 30
0.0
  0
POINT
  5
AB03
330
5969
100
AcDbEntity
  8
DEFPOINTS
 62
     0
100
AcDbPoint
 10
1.909578462278904
 20
22.77219480874295
 30
0.0
  0
ENDBLK
  5
5975
330
5969
100
AcDbEntity
  8
0
100
AcDbBlockEnd
  0
BLOCK
  5
5990
330
5985
100
AcDbEntity
  8
0
100
AcDbBlockBegin
  2
*D5
 70
     1
 10
0.0
 20
0.0
 30
0.0
  3
*D5
  1

  0
LINE
  5
A544
330
5985
100
AcDbEntity
  8
DIM
 62
     0
370
    -2
100
AcDbLine
 10
15.5276122037262
 20
13.77228480874294
 30
0.0
 11
16.1410935239309
 21
13.77228480874294
 31
0.0
  0
LINE
  5
A545
330
5985
100
AcDbEntity
  8
DIM
 62
     0
370
    -2
100
AcDbLine
 10
15.5276122037262
 20
18.05778480874294
 30
0.0
 11
16.1410935239309
 21
18.05778480874294
 31
0.0
  0
LINE
  5
A546
330
5985
100
AcDbEntity
  8
DIM
 62
     0
370
    -2
100
AcDbLine
 10
15.7690935239309
 20
14.49228480874294
 30
0.0
 11
15.7690935239309
 21
15.30503480874294
 31
0.0
  0
LINE
  5
A547
330
5985
100
AcDbEntity
  8
DIM
 62
     0
370
    -2
100
AcDbLine
 10
15.7690935239309
 20
17.33778480874294
 30
0.0
 11
15.7690935239309
 21
16.52503480874294
 31
0.0
  0
SOLID
  5
A548
330
5985
100
AcDbEntity
  8
DIM
 62
     0
100
AcDbTrace
 10
15.6490935239309
 20
14.49228480874294
 30
0.0
 11
15.8890935239309
 21
14.49228480874294
 31
0.0
 12
15.7690935239309
 22
13.77228480874294
 32
0.0
 13
15.7690935239309
 23
13.77228480874294
 33
0.0
  0
SOLID
  5
A549
330
5985
100
AcDbEntity
  8
DIM
 62
     0
100
AcDbTrace
 10
15.6490935239309
 20
17.33778480874294
 30
0.0
 11
15.8890935239309
 21
17.33778480874294
 31
0.0
 12
15.7690935239309
 22
18.05778480874294
 32
0.0
 13
15.7690935239309
 23
18.05778480874294
 33
0.0
  0
MTEXT
  5
A54A
330
5985
100
AcDbEntity
  8
DIM
 62
     0
100
AcDbMText
 10
15.7690935239309
 20
15.91503480874295
 30
0.0
 40
0.5
 41
0.0
 71
     5
 72
     1
  1
\A1;4.286
 73
     1
 44
1.0
  0
POINT
  5
A54B
330
5985
100
AcDbEntity
  8
DEFPOINTS
 62
     0
100
AcDbPoint
 10
15.2756122037262
 20
13.77228480874294
 30
0.0
  0
POINT
  5
A54C
330
5985
100
AcDbEntity
  8
DEFPOINTS
 62
     0
100
AcDbPoint
 10
15.2756122037262
 20
18.05778480874294
 30
0.0
  0
POINT
  5
A54D
330
5985
100
AcDbEntity
  8
DEFPOINTS
 62
     0
100
AcDbPoint
 10
15.7690935239309
 20
18.05778480874294
 30
0.0
  0
ENDBLK
  5
5991
330
5985
100
AcDbEntity
  8
0
100
AcDbBlockEnd
  0
BLOCK
  5
599E
330
5993
100
AcDbEntity
  8
0
100
AcDbBlockBegin
  2
*D6
 70
     1
 10
0.0
 20
0.0
 30
0.0
  3
*D6
  1

  0
LINE
  5
A5B3
330
5993
100
AcDbEntity
  8
DIM
 62
     0
370
    -2
100
AcDbLine
 10
12.92061220372621
 20
22.77219480874294
 30
0.0
 11
7.111809861192583
 21
22.77219480874295
 31
0.0
  0
LINE
  5
A5B4
330
5993
100
AcDbEntity
  8
DIM
 62
     0
370
    -2
100
AcDbLine
 10
14.23861220372621
 20
18.05778480874294
 30
0.0
 11
7.111809861192583
 21
18.05778480874294
 31
0.0
  0
LINE
  5
A5B5
330
5993
100
AcDbEntity
  8
DIM
 62
     0
370
    -2
100
AcDbLine
 10
7.483809861192583
 20
22.05219480874295
 30
0.0
 11
7.483809861192582
 21
21.02498980874294
 31
0.0
  0
LINE
  5
A5B6
330
5993
100
AcDbEntity
  8
DIM
 62
     0
370
    -2
100
AcDbLine
 10
7.483809861192582
 20
18.77778480874294
 30
0.0
 11
7.483809861192582
 21
19.80498980874294
 31
0.0
  0
SOLID
  5
A5B7
330
5993
100
AcDbEntity
  8
DIM
 62
     0
100
AcDbTrace
 10
7.363809861192583
 20
22.05219480874295
 30
0.0
 11
7.603809861192583
 21
22.05219480874295
 31
0.0
 12
7.483809861192583
 22
22.77219480874295
 32
0.0
 13
7.483809861192583
 23
22.77219480874295
 33
0.0
  0
SOLID
  5
A5B8
330
5993
100
AcDbEntity
  8
DIM
 62
     0
100
AcDbTrace
 10
7.363809861192582
 20
18.77778480874294
 30
0.0
 11
7.603809861192583
 21
18.77778480874294
 31
0.0
 12
7.483809861192582
 22
18.05778480874294
 32
0.0
 13
7.483809861192582
 23
18.05778480874294
 33
0.0
  0
MTEXT
  5
A5B9
330
5993
100
AcDbEntity
  8
DIM
 62
     0
100
AcDbMText
 10
7.483809861192579
 20
20.41498980874294
 30
0.0
 40
0.5
 41
0.0
 71
     5
 72
     1
  1
\A1;4.714
 73
     1
 44
1.0
  0
POINT
  5
A5BA
330
5993
100
AcDbEntity
  8
DEFPOINTS
 62
     0
100
AcDbPoint
 10
13.17261220372621
 20
22.77219480874294
 30
0.0
  0
POINT
  5
A5BB
330
5993
100
AcDbEntity
  8
DEFPOINTS
 62
     0
100
AcDbPoint
 10
14.49061220372621
 20
18.05778480874294
 30
0.0
  0
POINT
  5
A5BC
330
5993
100
AcDbEntity
  8
DEFPOINTS
 62
     0
100
AcDbPoint
 10
7.483809861192582
 20
18.05778480874294
 30
0.0
  0
ENDBLK
  5
599F
330
5993
100
AcDbEntity
  8
0
100
AcDbBlockEnd
  0
BLOCK
  5
59C1
330
59B6
100
AcDbEntity
  8
0
100
AcDbBlockBegin
  2
*D7
 70
     1
 10
0.0
 20
0.0
 30
0.0
  3
*D7
  1

  0
LINE
  5
A8E4
330
59B6
100
AcDbEntity
  8
DIM
 62
     0
370
    -2
100
AcDbLine
 10
26.11884150483922
 20
22.59975480874293
 30
0.0
 11
26.11884150483922
 21
24.07819480874294
 31
0.0
  0
LINE
  5
A8E5
330
59B6
100
AcDbEntity
  8
DIM
 62
     0
370
    -2
100
AcDbLine
 10
29.14084150483923
 20
22.96219480874293
 30
0.0
 11
29.14084150483923
 21
24.07819480874294
 31
0.0
  0
LINE
  5
A8E6
330
59B6
100
AcDbEntity
  8
DIM
 62
     0
370
    -2
100
AcDbLine
 10
26.83884150483922
 20
23.70619480874294
 30
0.0
 11
27.10831692954147
 21
23.70619480874294
 31
0.0
  0
LINE
  5
A8E7
330
59B6
100
AcDbEntity
  8
DIM
 62
     0
370
    -2
100
AcDbLine
 10
28.42084150483923
 20
23.70619480874294
 30
0.0
 11
28.07831692954147
 21
23.70619480874294
 31
0.0
  0
SOLID
  5
A8E8
330
59B6
100
AcDbEntity
  8
DIM
 62
     0
100
AcDbTrace
 10
26.83884150483922
 20
23.82619480874294
 30
0.0
 11
26.83884150483922
 21
23.58619480874293
 31
0.0
 12
26.11884150483922
 22
23.70619480874294
 32
0.0
 13
26.11884150483922
 23
23.70619480874294
 33
0.0
  0
SOLID
  5
A8E9
330
59B6
100
AcDbEntity
  8
DIM
 62
     0
100
AcDbTrace
 10
28.42084150483923
 20
23.82619480874294
 30
0.0
 11
28.42084150483923
 21
23.58619480874293
 31
0.0
 12
29.14084150483923
 22
23.70619480874294
 32
0.0
 13
29.14084150483923
 23
23.70619480874294
 33
0.0
  0
MTEXT
  5
A8EA
330
59B6
100
AcDbEntity
  8
DIM
 62
     0
100
AcDbMText
 10
27.59331692954147
 20
23.70619480874294
 30
0.0
 40
0.5
 41
0.0
 71
     5
 72
     1
  1
\A1;A
 73
     1
 44
1.0
  0
POINT
  5
A8EB
330
59B6
100
AcDbEntity
  8
DEFPOINTS
 62
     0
100
AcDbPoint
 10
26.11884150483922
 20
22.34775480874293
 30
0.0
  0
POINT
  5
A8EC
330
59B6
100
AcDbEntity
  8
DEFPOINTS
 62
     0
100
AcDbPoint
 10
29.14084150483923
 20
22.71019480874293
 30
0.0
  0
POINT
  5
A8ED
330
59B6
100
AcDbEntity
  8
DEFPOINTS
 62
     0
100
AcDbPoint
 10
29.14084150483923
 20
23.70619480874294
 30
0.0
  0
ENDBLK
  5
59C2
330
59B6
100
AcDbEntity
  8
0
100
AcDbBlockEnd
  0
BLOCK
  5
5A09
330
59FE
100
AcDbEntity
  8
0
100
AcDbBlockBegin
  2
*D8
 70
     1
 10
0.0
 20
0.0
 30
0.0
  3
*D8
  1

  0
LINE
  5
A79D
330
59FE
100
AcDbEntity
  8
DIM
 62
     0
370
    -2
100
AcDbLine
 10
48.99080659979042
 20
13.34237480874294
 30
0.0
 11
52.48270139718957
 21
13.34237480874294
 31
0.0
  0
LINE
  5
A79E
330
59FE
100
AcDbEntity
  8
DIM
 62
     0
370
    -2
100
AcDbLine
 10
48.99080659979042
 20
22.77219480874294
 30
0.0
 11
52.48270139718958
 21
22.77219480874294
 31
0.0
  0
LINE
  5
A79F
330
59FE
100
AcDbEntity
  8
DIM
 62
     0
370
    -2
100
AcDbLine
 10
52.11070139718958
 20
14.06237480874294
 30
0.0
 11
52.11070139718959
 21
17.44728480874294
 31
0.0
  0
LINE
  5
A7A0
330
59FE
100
AcDbEntity
  8
DIM
 62
     0
370
    -2
100
AcDbLine
 10
52.11070139718959
 20
22.05219480874294
 30
0.0
 11
52.11070139718959
 21
18.66728480874294
 31
0.0
  0
SOLID
  5
A7A1
330
59FE
100
AcDbEntity
  8
DIM
 62
     0
100
AcDbTrace
 10
51.99070139718958
 20
14.06237480874295
 30
0.0
 11
52.23070139718958
 21
14.06237480874294
 31
0.0
 12
52.11070139718958
 22
13.34237480874294
 32
0.0
 13
52.11070139718958
 23
13.34237480874294
 33
0.0
  0
SOLID
  5
A7A2
330
59FE
100
AcDbEntity
  8
DIM
 62
     0
100
AcDbTrace
 10
51.99070139718958
 20
22.05219480874294
 30
0.0
 11
52.23070139718958
 21
22.05219480874294
 31
0.0
 12
52.11070139718959
 22
22.77219480874294
 32
0.0
 13
52.11070139718959
 23
22.77219480874294
 33
0.0
  0
MTEXT
  5
A7A3
330
59FE
100
AcDbEntity
  8
DIM
 62
     0
100
AcDbMText
 10
52.11070139718958
 20
18.05728480874295
 30
0.0
 40
0.5
 41
0.0
 71
     5
 72
     1
  1
\A1;9.430
 73
     1
 44
1.0
  0
POINT
  5
A7A4
330
59FE
100
AcDbEntity
  8
DEFPOINTS
 62
     0
100
AcDbPoint
 10
48.73880659979042
 20
13.34237480874294
 30
0.0
  0
POINT
  5
A7A5
330
59FE
100
AcDbEntity
  8
DEFPOINTS
 62
     0
100
AcDbPoint
 10
48.73880659979042
 20
22.77219480874294
 30
0.0
  0
POINT
  5
A7A6
330
59FE
100
AcDbEntity
  8
DEFPOINTS
 62
     0
100
AcDbPoint
 10
52.11070139718959
 20
22.77219480874294
 30
0.0
  0
ENDBLK
  5
5A0A
330
59FE
100
AcDbEntity
  8
0
100
AcDbBlockEnd
  0
BLOCK
  5
5A17
330
5A0C
100
AcDbEntity
  8
0
100
AcDbBlockBegin
  2
*D9
 70
     1
 10
0.0
 20
0.0
 30
0.0
  3
*D9
  1

  0
LINE
  5
A7EF
330
5A0C
100
AcDbEntity
  8
DIM
 62
     0
370
    -2
100
AcDbLine
 10
44.26859659979043
 20
22.77419480874296
 30
0.0
 11
44.26859659979043
 21
26.22335420864741
 31
0.0
  0
LINE
  5
A7F0
330
5A0C
100
AcDbEntity
  8
DIM
 62
     0
370
    -2
100
AcDbLine
 10
48.98880659979042
 20
22.77419480874296
 30
0.0
 11
48.98880659979042
 21
26.22335420864741
 31
0.0
  0
LINE
  5
A7F1
330
5A0C
100
AcDbEntity
  8
DIM
 62
     0
370
    -2
100
AcDbLine
 10
44.98859659979042
 20
25.85135420864741
 30
0.0
 11
45.54995159979042
 21
25.85135420864741
 31
0.0
  0
LINE
  5
A7F2
330
5A0C
100
AcDbEntity
  8
DIM
 62
     0
370
    -2
100
AcDbLine
 10
48.26880659979043
 20
25.85135420864741
 30
0.0
 11
47.70745159979042
 21
25.85135420864741
 31
0.0
  0
SOLID
  5
A7F3
330
5A0C
100
AcDbEntity
  8
DIM
 62
     0
100
AcDbTrace
 10
44.98859659979042
 20
25.97135420864741
 30
0.0
 11
44.98859659979042
 21
25.73135420864741
 31
0.0
 12
44.26859659979043
 22
25.85135420864741
 32
0.0
 13
44.26859659979043
 23
25.85135420864741
 33
0.0
  0
SOLID
  5
A7F4
330
5A0C
100
AcDbEntity
  8
DIM
 62
     0
100
AcDbTrace
 10
48.26880659979043
 20
25.97135420864741
 30
0.0
 11
48.26880659979043
 21
25.73135420864741
 31
0.0
 12
48.98880659979042
 22
25.85135420864741
 32
0.0
 13
48.98880659979042
 23
25.85135420864741
 33
0.0
  0
MTEXT
  5
A7F5
330
5A0C
100
AcDbEntity
  8
DIM
 62
     0
100
AcDbMText
 10
46.62870159979042
 20
25.85135420864741
 30
0.0
 40
0.5
 41
0.0
 71
     5
 72
     1
  1
\A1;4.720
 73
     1
 44
1.0
  0
POINT
  5
A7F6
330
5A0C
100
AcDbEntity
  8
DEFPOINTS
 62
     0
100
AcDbPoint
 10
44.26859659979043
 20
22.52219480874296
 30
0.0
  0
POINT
  5
A7F7
330
5A0C
100
AcDbEntity
  8
DEFPOINTS
 62
     0
100
AcDbPoint
 10
48.98880659979042
 20
22.52219480874296
 30
0.0
  0
POINT
  5
A7F8
330
5A0C
100
AcDbEntity
  8
DEFPOINTS
 62
     0
100
AcDbPoint
 10
48.98880659979042
 20
25.85135420864741
 30
0.0
  0
ENDBLK
  5
5A18
330
5A0C
100
AcDbEntity
  8
0
100
AcDbBlockEnd
  0
BLOCK
  5
5AB2
330
5AA7
100
AcDbEntity
  8
0
100
AcDbBlockBegin
  2
*D10
 70
     1
 10
0.0
 20
0.0
 30
0.0
  3
*D10
  1

  0
LINE
  5
A89F
330
5AA7
100
AcDbEntity
  8
DIM
 62
     0
370
    -2
100
AcDbLine
 10
55.87300717429426
 20
22.96219480874294
 30
0.0
 11
55.87300717429426
 21
23.76819480874294
 31
0.0
  0
LINE
  5
A8A0
330
5AA7
100
AcDbEntity
  8
DIM
 62
     0
370
    -2
100
AcDbLine
 10
54.87845617429425
 20
23.02419480874294
 30
0.0
 11
54.87845617429425
 21
23.76819480874294
 31
0.0
  0
LINE
  5
A8A1
330
5AA7
100
AcDbEntity
  8
DIM
 62
     0
370
    -2
100
AcDbLine
 10
54.15845617429425
 20
23.39619480874294
 30
0.0
 11
53.43845617429425
 21
23.39619480874294
 31
0.0
  0
LINE
  5
A8A2
330
5AA7
100
AcDbEntity
  8
DIM
 62
     0
370
    -2
100
AcDbLine
 10
56.59300717429426
 20
23.39619480874294
 30
0.0
 11
57.31300717429426
 21
23.39619480874294
 31
0.0
  0
SOLID
  5
A8A3
330
5AA7
100
AcDbEntity
  8
DIM
 62
     0
100
AcDbTrace
 10
54.15845617429425
 20
23.51619480874294
 30
0.0
 11
54.15845617429425
 21
23.27619480874294
 31
0.0
 12
54.87845617429425
 22
23.39619480874294
 32
0.0
 13
54.87845617429425
 23
23.39619480874294
 33
0.0
  0
SOLID
  5
A8A4
330
5AA7
100
AcDbEntity
  8
DIM
 62
     0
100
AcDbTrace
 10
56.59300717429426
 20
23.51619480874294
 30
0.0
 11
56.59300717429426
 21
23.27619480874294
 31
0.0
 12
55.87300717429426
 22
23.39619480874294
 32
0.0
 13
55.87300717429426
 23
23.39619480874294
 33
0.0
  0
MTEXT
  5
A8A5
330
5AA7
100
AcDbEntity
  8
DIM
 62
     0
100
AcDbMText
 10
58.39175717429426
 20
23.39619480874294
 30
0.0
 40
0.5
 41
0.0
 71
     5
 72
     1
  1
\A1;0.995
 73
     1
 44
1.0
  0
POINT
  5
A8A6
330
5AA7
100
AcDbEntity
  8
DEFPOINTS
 62
     0
100
AcDbPoint
 10
55.87300717429426
 20
22.71019480874294
 30
0.0
  0
POINT
  5
A8A7
330
5AA7
100
AcDbEntity
  8
DEFPOINTS
 62
     0
100
AcDbPoint
 10
54.87845617429425
 20
22.77219480874294
 30
0.0
  0
POINT
  5
A8A8
330
5AA7
100
AcDbEntity
  8
DEFPOINTS
 62
     0
100
AcDbPoint
 10
54.87845617429425
 20
23.39619480874294
 30
0.0
  0
ENDBLK
  5
5AB3
330
5AA7
100
AcDbEntity
  8
0
100
AcDbBlockEnd
  0
BLOCK
  5
5B39
330
5B2E
100
AcDbEntity
  8
0
100
AcDbBlockBegin
  2
*D11
 70
     1
 10
0.0
 20
0.0
 30
0.0
  3
*D11
  1

  0
LINE
  5
A7DB
330
5B2E
100
AcDbEntity
  8
DIM
 62
     0
370
    -2
100
AcDbLine
 10
44.52570159979042
 20
22.76981480874296
 30
0.0
 11
44.52570159979042
 21
25.10735420864742
 31
0.0
  0
LINE
  5
A7DC
330
5B2E
100
AcDbEntity
  8
DIM
 62
     0
370
    -2
100
AcDbLine
 10
48.73170159979042
 20
22.76981480874296
 30
0.0
 11
48.73170159979042
 21
25.10735420864742
 31
0.0
  0
LINE
  5
A7DD
330
5B2E
100
AcDbEntity
  8
DIM
 62
     0
370
    -2
100
AcDbLine
 10
45.24570159979042
 20
24.73535420864742
 30
0.0
 11
45.54995159979042
 21
24.73535420864742
 31
0.0
  0
LINE
  5
A7DE
330
5B2E
100
AcDbEntity
  8
DIM
 62
     0
370
    -2
100
AcDbLine
 10
48.01170159979042
 20
24.73535420864742
 30
0.0
 11
47.70745159979042
 21
24.73535420864742
 31
0.0
  0
SOLID
  5
A7DF
330
5B2E
100
AcDbEntity
  8
DIM
 62
     0
100
AcDbTrace
 10
45.24570159979042
 20
24.85535420864742
 30
0.0
 11
45.24570159979042
 21
24.61535420864741
 31
0.0
 12
44.52570159979042
 22
24.73535420864742
 32
0.0
 13
44.52570159979042
 23
24.73535420864742
 33
0.0
  0
SOLID
  5
A7E0
330
5B2E
100
AcDbEntity
  8
DIM
 62
     0
100
AcDbTrace
 10
48.01170159979042
 20
24.85535420864742
 30
0.0
 11
48.01170159979042
 21
24.61535420864741
 31
0.0
 12
48.73170159979042
 22
24.73535420864742
 32
0.0
 13
48.73170159979042
 23
24.73535420864742
 33
0.0
  0
MTEXT
  5
A7E1
330
5B2E
100
AcDbEntity
  8
DIM
 62
     0
100
AcDbMText
 10
46.62870159979042
 20
24.73535420864742
 30
0.0
 40
0.5
 41
0.0
 71
     5
 72
     1
  1
\A1;4.206
 73
     1
 44
1.0
  0
POINT
  5
A7E2
330
5B2E
100
AcDbEntity
  8
DEFPOINTS
 62
     0
100
AcDbPoint
 10
44.52570159979042
 20
22.51781480874296
 30
0.0
  0
POINT
  5
A7E3
330
5B2E
100
AcDbEntity
  8
DEFPOINTS
 62
     0
100
AcDbPoint
 10
48.73170159979042
 20
22.51781480874296
 30
0.0
  0
POINT
  5
A7E4
330
5B2E
100
AcDbEntity
  8
DEFPOINTS
 62
     0
100
AcDbPoint
 10
48.73170159979042
 20
24.73535420864742
 30
0.0
  0
ENDBLK
  5
5B3A
330
5B2E
100
AcDbEntity
  8
0
100
AcDbBlockEnd
  0
BLOCK
  5
5B47
330
5B3C
100
AcDbEntity
  8
0
100
AcDbBlockBegin
  2
*D12
 70
     1
 10
0.0
 20
0.0
 30
0.0
  3
*D12
  1

  0
LINE
  5
A7A7
330
5B3C
100
AcDbEntity
  8
DIM
 62
     0
370
    -2
100
AcDbLine
 10
48.98370159979042
 20
13.59675480874294
 30
0.0
 11
50.62270139718958
 21
13.59675480874294
 31
0.0
  0
LINE
  5
A7A8
330
5B3C
100
AcDbEntity
  8
DIM
 62
     0
370
    -2
100
AcDbLine
 10
48.98370159979042
 20
22.51781480874294
 30
0.0
 11
50.62270139718959
 21
22.51781480874294
 31
0.0
  0
LINE
  5
A7A9
330
5B3C
100
AcDbEntity
  8
DIM
 62
     0
370
    -2
100
AcDbLine
 10
50.25070139718959
 20
14.31675480874294
 30
0.0
 11
50.25070139718959
 21
17.44728480874294
 31
0.0
  0
LINE
  5
A7AA
330
5B3C
100
AcDbEntity
  8
DIM
 62
     0
370
    -2
100
AcDbLine
 10
50.25070139718959
 20
21.79781480874294
 30
0.0
 11
50.25070139718959
 21
18.66728480874294
 31
0.0
  0
SOLID
  5
A7AB
330
5B3C
100
AcDbEntity
  8
DIM
 62
     0
100
AcDbTrace
 10
50.13070139718958
 20
14.31675480874294
 30
0.0
 11
50.37070139718959
 21
14.31675480874294
 31
0.0
 12
50.25070139718959
 22
13.59675480874294
 32
0.0
 13
50.25070139718959
 23
13.59675480874294
 33
0.0
  0
SOLID
  5
A7AC
330
5B3C
100
AcDbEntity
  8
DIM
 62
     0
100
AcDbTrace
 10
50.13070139718959
 20
21.79781480874294
 30
0.0
 11
50.37070139718959
 21
21.79781480874294
 31
0.0
 12
50.25070139718959
 22
22.51781480874294
 32
0.0
 13
50.25070139718959
 23
22.51781480874294
 33
0.0
  0
MTEXT
  5
A7AD
330
5B3C
100
AcDbEntity
  8
DIM
 62
     0
100
AcDbMText
 10
50.25070139718959
 20
18.05728480874295
 30
0.0
 40
0.5
 41
0.0
 71
     5
 72
     1
  1
\A1;8.921
 73
     1
 44
1.0
  0
POINT
  5
A7AE
330
5B3C
100
AcDbEntity
  8
DEFPOINTS
 62
     0
100
AcDbPoint
 10
48.73170159979042
 20
13.59675480874294
 30
0.0
  0
POINT
  5
A7AF
330
5B3C
100
AcDbEntity
  8
DEFPOINTS
 62
     0
100
AcDbPoint
 10
48.73170159979042
 20
22.51781480874294
 30
0.0
  0
POINT
  5
A7B0
330
5B3C
100
AcDbEntity
  8
DEFPOINTS
 62
     0
100
AcDbPoint
 10
50.25070139718959
 20
22.51781480874294
 30
0.0
  0
ENDBLK
  5
5B48
330
5B3C
100
AcDbEntity
  8
0
100
AcDbBlockEnd
  0
BLOCK
  5
5BFC
330
5BF1
100
AcDbEntity
  8
0
100
AcDbBlockBegin
  2
*D13
 70
     1
 10
0.0
 20
0.0
 30
0.0
  3
*D13
  1

  0
LINE
  5
ABC7
330
5BF1
100
AcDbEntity
  8
DIM
 62
     0
370
    -2
100
AcDbLine
 10
35.74760324993806
 20
22.18478480874293
 30
0.0
 11
33.85199824993809
 21
22.18478480874293
 31
0.0
  0
LINE
  5
ABC8
330
5BF1
100
AcDbEntity
  8
DIM
 62
     0
370
    -2
100
AcDbLine
 10
35.74760324993806
 20
13.92978480874294
 30
0.0
 11
33.85199824993808
 21
13.92978480874294
 31
0.0
  0
LINE
  5
ABC9
330
5BF1
100
AcDbEntity
  8
DIM
 62
     0
370
    -2
100
AcDbLine
 10
34.22399824993809
 20
21.46478480874294
 30
0.0
 11
34.22399824993809
 21
18.66728480874294
 31
0.0
  0
LINE
  5
ABCA
330
5BF1
100
AcDbEntity
  8
DIM
 62
     0
370
    -2
100
AcDbLine
 10
34.22399824993808
 20
14.64978480874294
 30
0.0
 11
34.22399824993809
 21
17.44728480874294
 31
0.0
  0
SOLID
  5
ABCB
330
5BF1
100
AcDbEntity
  8
DIM
 62
     0
100
AcDbTrace
 10
34.10399824993809
 20
21.46478480874294
 30
0.0
 11
34.34399824993809
 21
21.46478480874294
 31
0.0
 12
34.22399824993809
 22
22.18478480874293
 32
0.0
 13
34.22399824993809
 23
22.18478480874293
 33
0.0
  0
SOLID
  5
ABCC
330
5BF1
100
AcDbEntity
  8
DIM
 62
     0
100
AcDbTrace
 10
34.10399824993808
 20
14.64978480874294
 30
0.0
 11
34.34399824993808
 21
14.64978480874294
 31
0.0
 12
34.22399824993808
 22
13.92978480874294
 32
0.0
 13
34.22399824993808
 23
13.92978480874294
 33
0.0
  0
MTEXT
  5
ABCD
330
5BF1
100
AcDbEntity
  8
DIM
 62
     0
100
AcDbMText
 10
34.22399824993808
 20
18.05728480874295
 30
0.0
 40
0.5
 41
0.0
 71
     5
 72
     1
  1
\A1;8.255
 73
     1
 44
1.0
  0
POINT
  5
ABCE
330
5BF1
100
AcDbEntity
  8
DEFPOINTS
 62
     0
100
AcDbPoint
 10
35.99960324993806
 20
22.18478480874293
 30
0.0
  0
POINT
  5
ABCF
330
5BF1
100
AcDbEntity
  8
DEFPOINTS
 62
     0
100
AcDbPoint
 10
35.99960324993806
 20
13.92978480874294
 30
0.0
  0
POINT
  5
ABD0
330
5BF1
100
AcDbEntity
  8
DEFPOINTS
 62
     0
100
AcDbPoint
 10
34.22399824993808
 20
13.92978480874294
 30
0.0
  0
ENDBLK
  5
5BFD
330
5BF1
100
AcDbEntity
  8
0
100
AcDbBlockEnd
  0
BLOCK
  5
5C0A
330
5BFF
100
AcDbEntity
  8
0
100
AcDbBlockBegin
  2
*D14
 70
     1
 10
0.0
 20
0.0
 30
0.0
  3
*D14
  1

  0
LINE
  5
ABD1
330
5BFF
100
AcDbEntity
  8
DIM
 62
     0
370
    -2
100
AcDbLine
 10
35.99960324993806
 20
22.43678480874293
 30
0.0
 11
35.99960324993806
 21
24.08925000864835
 31
0.0
  0
LINE
  5
ABD2
330
5BFF
100
AcDbEntity
  8
DIM
 62
     0
370
    -2
100
AcDbLine
 10
40.14460324993804
 20
22.43678480874293
 30
0.0
 11
40.14460324993804
 21
24.08925000864835
 31
0.0
  0
LINE
  5
ABD3
330
5BFF
100
AcDbEntity
  8
DIM
 62
     0
370
    -2
100
AcDbLine
 10
36.71960324993806
 20
23.71725000864835
 30
0.0
 11
37.02460324993805
 21
23.71725000864835
 31
0.0
  0
LINE
  5
ABD4
330
5BFF
100
AcDbEntity
  8
DIM
 62
     0
370
    -2
100
AcDbLine
 10
39.42460324993805
 20
23.71725000864835
 30
0.0
 11
39.11960324993805
 21
23.71725000864835
 31
0.0
  0
SOLID
  5
ABD5
330
5BFF
100
AcDbEntity
  8
DIM
 62
     0
100
AcDbTrace
 10
36.71960324993806
 20
23.83725000864835
 30
0.0
 11
36.71960324993806
 21
23.59725000864835
 31
0.0
 12
35.99960324993806
 22
23.71725000864835
 32
0.0
 13
35.99960324993806
 23
23.71725000864835
 33
0.0
  0
SOLID
  5
ABD6
330
5BFF
100
AcDbEntity
  8
DIM
 62
     0
100
AcDbTrace
 10
39.42460324993805
 20
23.83725000864835
 30
0.0
 11
39.42460324993805
 21
23.59725000864835
 31
0.0
 12
40.14460324993804
 22
23.71725000864835
 32
0.0
 13
40.14460324993804
 23
23.71725000864835
 33
0.0
  0
MTEXT
  5
ABD7
330
5BFF
100
AcDbEntity
  8
DIM
 62
     0
100
AcDbMText
 10
38.07210324993805
 20
23.71725000864835
 30
0.0
 40
0.5
 41
0.0
 71
     5
 72
     1
  1
\A1;4.145
 73
     1
 44
1.0
  0
POINT
  5
ABD8
330
5BFF
100
AcDbEntity
  8
DEFPOINTS
 62
     0
100
AcDbPoint
 10
35.99960324993806
 20
22.18478480874293
 30
0.0
  0
POINT
  5
ABD9
330
5BFF
100
AcDbEntity
  8
DEFPOINTS
 62
     0
100
AcDbPoint
 10
40.14460324993804
 20
22.18478480874293
 30
0.0
  0
POINT
  5
ABDA
330
5BFF
100
AcDbEntity
  8
DEFPOINTS
 62
     0
100
AcDbPoint
 10
40.14460324993804
 20
23.71725000864835
 30
0.0
  0
ENDBLK
  5
5C0B
330
5BFF
100
AcDbEntity
  8
0
100
AcDbBlockEnd
  0
BLOCK
  5
5C17
330
5C0D
100
AcDbEntity
  8
0
100
AcDbBlockBegin
  2
*D15
 70
     1
 10
0.0
 20
0.0
 30
0.0
  3
*D15
  1

  0
LINE
  5
AB04
330
5C0D
100
AcDbEntity
  8
DIM
 62
     0
370
    -2
100
AcDbLine
 10
13.08744220372621
 20
19.51378480874294
 30
0.0
 11
5.439469373478873
 21
19.51378480874295
 31
0.0
  0
LINE
  5
AB05
330
5C0D
100
AcDbEntity
  8
DIM
 62
     0
370
    -2
100
AcDbLine
 10
13.08744220372621
 20
16.60178480874295
 30
0.0
 11
5.439469373478872
 21
16.60178480874295
 31
0.0
  0
LINE
  5
AB06
330
5C0D
100
AcDbEntity
  8
DIM
 62
     0
370
    -2
100
AcDbLine
 10
5.811469373478873
 20
20.23378480874295
 30
0.0
 11
5.811469373478873
 21
20.95378480874295
 31
0.0
  0
LINE
  5
AB07
330
5C0D
100
AcDbEntity
  8
DIM
 62
     0
370
    -2
100
AcDbLine
 10
5.811469373478872
 20
15.88178480874295
 30
0.0
 11
5.811469373478872
 21
15.16178480874295
 31
0.0
  0
SOLID
  5
AB08
330
5C0D
100
AcDbEntity
  8
DIM
 62
     0
100
AcDbTrace
 10
5.691469373478873
 20
20.23378480874295
 30
0.0
 11
5.931469373478873
 21
20.23378480874295
 31
0.0
 12
5.811469373478873
 22
19.51378480874295
 32
0.0
 13
5.811469373478873
 23
19.51378480874295
 33
0.0
  0
SOLID
  5
AB09
330
5C0D
100
AcDbEntity
  8
DIM
 62
     0
100
AcDbTrace
 10
5.691469373478872
 20
15.88178480874295
 30
0.0
 11
5.931469373478872
 21
15.88178480874295
 31
0.0
 12
5.811469373478872
 22
16.60178480874295
 32
0.0
 13
5.811469373478872
 23
16.60178480874295
 33
0.0
  0
MTEXT
  5
AB0A
330
5C0D
100
AcDbEntity
  8
DIM
 62
     0
100
AcDbMText
 10
5.811469373478869
 20
18.05778480874295
 30
0.0
 40
0.5
 41
0.0
 71
     5
 72
     1
  1
\A1;2.912
 73
     1
 44
1.0
  0
POINT
  5
AB0B
330
5C0D
100
AcDbEntity
  8
DEFPOINTS
 62
     0
100
AcDbPoint
 10
13.33944220372621
 20
19.51378480874294
 30
0.0
  0
POINT
  5
AB0C
330
5C0D
100
AcDbEntity
  8
DEFPOINTS
 62
     0
100
AcDbPoint
 10
13.33944220372621
 20
16.60178480874295
 30
0.0
  0
POINT
  5
AB0D
330
5C0D
100
AcDbEntity
  8
DEFPOINTS
 62
     0
100
AcDbPoint
 10
5.811469373478872
 20
16.60178480874295
 30
0.0
  0
ENDBLK
  5
5C18
330
5C0D
100
AcDbEntity
  8
0
100
AcDbBlockEnd
  0
BLOCK
  5
5C58
330
5C4D
100
AcDbEntity
  8
0
100
AcDbBlockBegin
  2
*D16
 70
     1
 10
0.0
 20
0.0
 30
0.0
  3
*D16
  1

  0
LINE
  5
A53A
330
5C4D
100
AcDbEntity
  8
DIM
 62
     0
370
    -2
100
AcDbLine
 10
12.92061220372621
 20
22.51881480874294
 30
0.0
 11
3.492177417934173
 21
22.51881480874295
 31
0.0
  0
LINE
  5
A53B
330
5C4D
100
AcDbEntity
  8
DIM
 62
     0
370
    -2
100
AcDbLine
 10
12.92061220372621
 20
13.59675480874294
 30
0.0
 11
3.492177417934172
 21
13.59675480874295
 31
0.0
  0
LINE
  5
A53C
330
5C4D
100
AcDbEntity
  8
DIM
 62
     0
370
    -2
100
AcDbLine
 10
3.864177417934173
 20
21.79881480874295
 30
0.0
 11
3.864177417934172
 21
18.66778480874295
 31
0.0
  0
LINE
  5
A53D
330
5C4D
100
AcDbEntity
  8
DIM
 62
     0
370
    -2
100
AcDbLine
 10
3.864177417934171
 20
14.31675480874295
 30
0.0
 11
3.864177417934172
 21
17.44778480874295
 31
0.0
  0
SOLID
  5
A53E
330
5C4D
100
AcDbEntity
  8
DIM
 62
     0
100
AcDbTrace
 10
3.744177417934173
 20
21.79881480874295
 30
0.0
 11
3.984177417934173
 21
21.79881480874295
 31
0.0
 12
3.864177417934173
 22
22.51881480874295
 32
0.0
 13
3.864177417934173
 23
22.51881480874295
 33
0.0
  0
SOLID
  5
A53F
330
5C4D
100
AcDbEntity
  8
DIM
 62
     0
100
AcDbTrace
 10
3.744177417934171
 20
14.31675480874295
 30
0.0
 11
3.984177417934171
 21
14.31675480874295
 31
0.0
 12
3.864177417934171
 22
13.59675480874295
 32
0.0
 13
3.864177417934171
 23
13.59675480874295
 33
0.0
  0
MTEXT
  5
A540
330
5C4D
100
AcDbEntity
  8
DIM
 62
     0
100
AcDbMText
 10
3.864177417934169
 20
18.05778480874295
 30
0.0
 40
0.5
 41
0.0
 71
     5
 72
     1
  1
\A1;8.922
 73
     1
 44
1.0
  0
POINT
  5
A541
330
5C4D
100
AcDbEntity
  8
DEFPOINTS
 62
     0
100
AcDbPoint
 10
13.17261220372621
 20
22.51881480874294
 30
0.0
  0
POINT
  5
A542
330
5C4D
100
AcDbEntity
  8
DEFPOINTS
 62
     0
100
AcDbPoint
 10
13.17261220372621
 20
13.59675480874294
 30
0.0
  0
POINT
  5
A543
330
5C4D
100
AcDbEntity
  8
DEFPOINTS
 62
     0
100
AcDbPoint
 10
3.864177417934171
 20
13.59675480874295
 30
0.0
  0
ENDBLK
  5
5C59
330
5C4D
100
AcDbEntity
  8
0
100
AcDbBlockEnd
  0
BLOCK
  5
5C66
330
5C5B
100
AcDbEntity
  8
0
100
AcDbBlockBegin
  2
*D17
 70
     1
 10
0.0
 20
0.0
 30
0.0
  3
*D17
  1

  0
LINE
  5
AAEC
330
5C5B
100
AcDbEntity
  8
DIM
 62
     0
370
    -2
100
AcDbLine
 10
13.50805220372621
 20
22.79181480874295
 30
0.0
 11
13.50805220372621
 21
27.62882650467782
 31
0.0
  0
LINE
  5
AAED
330
5C5B
100
AcDbEntity
  8
DIM
 62
     0
370
    -2
100
AcDbLine
 10
12.91550720372621
 20
22.59475480874295
 30
0.0
 11
12.91550720372621
 21
27.62882650467782
 31
0.0
  0
LINE
  5
AAEE
330
5C5B
100
AcDbEntity
  8
DIM
 62
     0
370
    -2
100
AcDbLine
 10
14.22805220372621
 20
27.25682650467781
 30
0.0
 11
14.94805220372621
 21
27.25682650467781
 31
0.0
  0
LINE
  5
AAEF
330
5C5B
100
AcDbEntity
  8
DIM
 62
     0
370
    -2
100
AcDbLine
 10
12.19550720372621
 20
27.25682650467781
 30
0.0
 11
11.47550720372621
 21
27.25682650467781
 31
0.0
  0
SOLID
  5
AAF0
330
5C5B
100
AcDbEntity
  8
DIM
 62
     0
100
AcDbTrace
 10
14.22805220372621
 20
27.37682650467782
 30
0.0
 11
14.22805220372621
 21
27.13682650467781
 31
0.0
 12
13.50805220372621
 22
27.25682650467781
 32
0.0
 13
13.50805220372621
 23
27.25682650467781
 33
0.0
  0
SOLID
  5
AAF1
330
5C5B
100
AcDbEntity
  8
DIM
 62
     0
100
AcDbTrace
 10
12.19550720372621
 20
27.37682650467782
 30
0.0
 11
12.19550720372621
 21
27.13682650467781
 31
0.0
 12
12.91550720372621
 22
27.25682650467781
 32
0.0
 13
12.91550720372621
 23
27.25682650467781
 33
0.0
  0
MTEXT
  5
AAF2
330
5C5B
100
AcDbEntity
  8
DIM
 62
     0
100
AcDbMText
 10
10.39675720372621
 20
27.25682650467781
 30
0.0
 40
0.5
 41
0.0
 71
     5
 72
     1
  1
\A1;0.593
 73
     1
 44
1.0
  0
POINT
  5
AAF3
330
5C5B
100
AcDbEntity
  8
DEFPOINTS
 62
     0
100
AcDbPoint
 10
13.50805220372621
 20
22.53981480874295
 30
0.0
  0
POINT
  5
AAF4
330
5C5B
100
AcDbEntity
  8
DEFPOINTS
 62
     0
100
AcDbPoint
 10
12.91550720372621
 20
22.34275480874295
 30
0.0
  0
POINT
  5
AAF5
330
5C5B
100
AcDbEntity
  8
DEFPOINTS
 62
     0
100
AcDbPoint
 10
12.91550720372621
 20
27.25682650467781
 30
0.0
  0
ENDBLK
  5
5C67
330
5C5B
100
AcDbEntity
  8
0
100
AcDbBlockEnd
  0
BLOCK
  5
5C76
330
5C6C
100
AcDbEntity
  8
0
100
AcDbBlockBegin
  2
*D18
 70
     1
 10
0.0
 20
0.0
 30
0.0
  3
*D18
  1

  0
LINE
  5
AB59
330
5C6C
100
AcDbEntity
  8
DIM
 62
     0
370
    -2
100
AcDbLine
 10
13.17261220372621
 20
13.34475480874294
 30
0.0
 11
13.17261220372621
 21
6.802688250202436
 31
0.0
  0
LINE
  5
AB5A
330
5C6C
100
AcDbEntity
  8
DIM
 62
     0
370
    -2
100
AcDbLine
 10
17.3786122037262
 20
12.59137480874294
 30
0.0
 11
17.3786122037262
 21
6.802688250202436
 31
0.0
  0
LINE
  5
AB5B
330
5C6C
100
AcDbEntity
  8
DIM
 62
     0
370
    -2
100
AcDbLine
 10
13.89261220372621
 20
7.174688250202436
 30
0.0
 11
14.19686220372621
 21
7.174688250202436
 31
0.0
  0
LINE
  5
AB5C
330
5C6C
100
AcDbEntity
  8
DIM
 62
     0
370
    -2
100
AcDbLine
 10
16.6586122037262
 20
7.174688250202436
 30
0.0
 11
16.3543622037262
 21
7.174688250202436
 31
0.0
  0
SOLID
  5
AB5D
330
5C6C
100
AcDbEntity
  8
DIM
 62
     0
100
AcDbTrace
 10
13.89261220372621
 20
7.294688250202436
 30
0.0
 11
13.89261220372621
 21
7.054688250202436
 31
0.0
 12
13.17261220372621
 22
7.174688250202436
 32
0.0
 13
13.17261220372621
 23
7.174688250202436
 33
0.0
  0
SOLID
  5
AB5E
330
5C6C
100
AcDbEntity
  8
DIM
 62
     0
100
AcDbTrace
 10
16.6586122037262
 20
7.294688250202436
 30
0.0
 11
16.6586122037262
 21
7.054688250202436
 31
0.0
 12
17.3786122037262
 22
7.174688250202436
 32
0.0
 13
17.3786122037262
 23
7.174688250202436
 33
0.0
  0
MTEXT
  5
AB5F
330
5C6C
100
AcDbEntity
  8
DIM
 62
     0
100
AcDbMText
 10
15.2756122037262
 20
7.174688250202436
 30
0.0
 40
0.5
 41
0.0
 71
     5
 72
     1
  1
\A1;4.206
 73
     1
 44
1.0
  0
POINT
  5
AB60
330
5C6C
100
AcDbEntity
  8
DEFPOINTS
 62
     0
100
AcDbPoint
 10
13.17261220372621
 20
13.59675480874294
 30
0.0
  0
POINT
  5
AB61
330
5C6C
100
AcDbEntity
  8
DEFPOINTS
 62
     0
100
AcDbPoint
 10
17.3786122037262
 20
12.84337480874294
 30
0.0
  0
POINT
  5
AB62
330
5C6C
100
AcDbEntity
  8
DEFPOINTS
 62
     0
100
AcDbPoint
 10
17.3786122037262
 20
7.174688250202436
 30
0.0
  0
ENDBLK
  5
5C77
330
5C6C
100
AcDbEntity
  8
0
100
AcDbBlockEnd
  0
BLOCK
  5
5C84
330
5C79
100
AcDbEntity
  8
0
100
AcDbBlockBegin
  2
*D19
 70
     1
 10
0.0
 20
0.0
 30
0.0
  3
*D19
  1

  0
LINE
  5
AB3B
330
5C79
100
AcDbEntity
  8
DIM
 62
     0
370
    -2
100
AcDbLine
 10
13.17261220372621
 20
13.34475480874294
 30
0.0
 11
13.17261220372621
 21
6.802688250202436
 31
0.0
  0
LINE
  5
AB3C
330
5C79
100
AcDbEntity
  8
DIM
 62
     0
370
    -2
100
AcDbLine
 10
12.91550720372621
 20
13.34475480874294
 30
0.0
 11
12.91550720372621
 21
6.802688250202436
 31
0.0
  0
LINE
  5
AB3D
330
5C79
100
AcDbEntity
  8
DIM
 62
     0
370
    -2
100
AcDbLine
 10
13.89261220372621
 20
7.174688250202436
 30
0.0
 11
14.61261220372621
 21
7.174688250202436
 31
0.0
  0
LINE
  5
AB3E
330
5C79
100
AcDbEntity
  8
DIM
 62
     0
370
    -2
100
AcDbLine
 10
12.19550720372621
 20
7.174688250202436
 30
0.0
 11
11.47550720372621
 21
7.174688250202436
 31
0.0
  0
SOLID
  5
AB3F
330
5C79
100
AcDbEntity
  8
DIM
 62
     0
100
AcDbTrace
 10
13.89261220372621
 20
7.294688250202436
 30
0.0
 11
13.89261220372621
 21
7.054688250202436
 31
0.0
 12
13.17261220372621
 22
7.174688250202436
 32
0.0
 13
13.17261220372621
 23
7.174688250202436
 33
0.0
  0
SOLID
  5
AB40
330
5C79
100
AcDbEntity
  8
DIM
 62
     0
100
AcDbTrace
 10
12.19550720372621
 20
7.294688250202436
 30
0.0
 11
12.19550720372621
 21
7.054688250202436
 31
0.0
 12
12.91550720372621
 22
7.174688250202436
 32
0.0
 13
12.91550720372621
 23
7.174688250202436
 33
0.0
  0
MTEXT
  5
AB41
330
5C79
100
AcDbEntity
  8
DIM
 62
     0
100
AcDbMText
 10
10.39675720372621
 20
7.174688250202436
 30
0.0
 40
0.5
 41
0.0
 71
     5
 72
     1
  1
\A1;0.257
 73
     1
 44
1.0
  0
POINT
  5
AB42
330
5C79
100
AcDbEntity
  8
DEFPOINTS
 62
     0
100
AcDbPoint
 10
13.17261220372621
 20
13.59675480874294
 30
0.0
  0
POINT
  5
AB43
330
5C79
100
AcDbEntity
  8
DEFPOINTS
 62
     0
100
AcDbPoint
 10
12.91550720372621
 20
13.59675480874294
 30
0.0
  0
POINT
  5
AB44
330
5C79
100
AcDbEntity
  8
DEFPOINTS
 62
     0
100
AcDbPoint
 10
12.91550720372621
 20
7.174688250202436
 30
0.0
  0
ENDBLK
  5
5C85
330
5C79
100
AcDbEntity
  8
0
100
AcDbBlockEnd
  0
BLOCK
  5
5C9F
330
5C95
100
AcDbEntity
  8
0
100
AcDbBlockBegin
  2
*D20
 70
     1
 10
0.0
 20
0.0
 30
0.0
  3
*D20
  1

  0
LINE
  5
AB81
330
5C95
100
AcDbEntity
  8
DIM
 62
     0
370
    -2
100
AcDbLine
 10
13.72550720372621
 20
13.30416980874295
 30
0.0
 11
13.72550720372621
 21
9.095931612311744
 31
0.0
  0
LINE
  5
AB82
330
5C95
100
AcDbEntity
  8
DIM
 62
     0
370
    -2
100
AcDbLine
 10
16.8257172037262
 20
13.30416980874295
 30
0.0
 11
16.8257172037262
 21
9.095931612311744
 31
0.0
  0
LINE
  5
AB83
330
5C95
100
AcDbEntity
  8
DIM
 62
     0
370
    -2
100
AcDbLine
 10
13.00550720372621
 20
9.467931612311744
 30
0.0
 11
12.28550720372621
 21
9.467931612311744
 31
0.0
  0
LINE
  5
AB84
330
5C95
100
AcDbEntity
  8
DIM
 62
     0
370
    -2
100
AcDbLine
 10
17.5457172037262
 20
9.467931612311744
 30
0.0
 11
18.2657172037262
 21
9.467931612311744
 31
0.0
  0
SOLID
  5
AB85
330
5C95
100
AcDbEntity
  8
DIM
 62
     0
100
AcDbTrace
 10
13.00550720372621
 20
9.587931612311743
 30
0.0
 11
13.00550720372621
 21
9.347931612311745
 31
0.0
 12
13.72550720372621
 22
9.467931612311744
 32
0.0
 13
13.72550720372621
 23
9.467931612311744
 33
0.0
  0
SOLID
  5
AB86
330
5C95
100
AcDbEntity
  8
DIM
 62
     0
100
AcDbTrace
 10
17.5457172037262
 20
9.587931612311743
 30
0.0
 11
17.5457172037262
 21
9.347931612311745
 31
0.0
 12
16.8257172037262
 22
9.467931612311744
 32
0.0
 13
16.8257172037262
 23
9.467931612311744
 33
0.0
  0
MTEXT
  5
AB87
330
5C95
100
AcDbEntity
  8
DIM
 62
     0
100
AcDbMText
 10
15.2756122037262
 20
9.467931612311744
 30
0.0
 40
0.5
 41
0.0
 71
     5
 72
     1
  1
\A1;3.100
 73
     1
 44
1.0
  0
POINT
  5
AB88
330
5C95
100
AcDbEntity
  8
DEFPOINTS
 62
     0
100
AcDbPoint
 10
13.72550720372621
 20
13.55616980874295
 30
0.0
  0
POINT
  5
AB89
330
5C95
100
AcDbEntity
  8
DEFPOINTS
 62
     0
100
AcDbPoint
 10
16.8257172037262
 20
13.55616980874295
 30
0.0
  0
POINT
  5
AB8A
330
5C95
100
AcDbEntity
  8
DEFPOINTS
 62
     0
100
AcDbPoint
 10
16.8257172037262
 20
9.467931612311744
 30
0.0
  0
ENDBLK
  5
5CA0
330
5C95
100
AcDbEntity
  8
0
100
AcDbBlockEnd
  0
BLOCK
  5
5CAD
330
5CA2
100
AcDbEntity
  8
0
100
AcDbBlockBegin
  2
*D21
 70
     1
 10
0.0
 20
0.0
 30
0.0
  3
*D21
  1

  0
LINE
  5
AB77
330
5CA2
100
AcDbEntity
  8
DIM
 62
     0
370
    -2
100
AcDbLine
 10
13.72550720372621
 20
13.30416980874295
 30
0.0
 11
13.72550720372621
 21
10.06537752466997
 31
0.0
  0
LINE
  5
AB78
330
5CA2
100
AcDbEntity
  8
DIM
 62
     0
370
    -2
100
AcDbLine
 10
12.91550720372621
 20
13.34475480874294
 30
0.0
 11
12.91550720372621
 21
10.06537752466997
 31
0.0
  0
LINE
  5
AB79
330
5CA2
100
AcDbEntity
  8
DIM
 62
     0
370
    -2
100
AcDbLine
 10
14.44550720372621
 20
10.43737752466997
 30
0.0
 11
15.16550720372621
 21
10.43737752466997
 31
0.0
  0
LINE
  5
AB7A
330
5CA2
100
AcDbEntity
  8
DIM
 62
     0
370
    -2
100
AcDbLine
 10
12.19550720372621
 20
10.43737752466997
 30
0.0
 11
11.47550720372621
 21
10.43737752466997
 31
0.0
  0
SOLID
  5
AB7B
330
5CA2
100
AcDbEntity
  8
DIM
 62
     0
100
AcDbTrace
 10
14.44550720372621
 20
10.55737752466997
 30
0.0
 11
14.44550720372621
 21
10.31737752466997
 31
0.0
 12
13.72550720372621
 22
10.43737752466997
 32
0.0
 13
13.72550720372621
 23
10.43737752466997
 33
0.0
  0
SOLID
  5
AB7C
330
5CA2
100
AcDbEntity
  8
DIM
 62
     0
100
AcDbTrace
 10
12.19550720372621
 20
10.55737752466997
 30
0.0
 11
12.19550720372621
 21
10.31737752466997
 31
0.0
 12
12.91550720372621
 22
10.43737752466997
 32
0.0
 13
12.91550720372621
 23
10.43737752466997
 33
0.0
  0
MTEXT
  5
AB7D
330
5CA2
100
AcDbEntity
  8
DIM
 62
     0
100
AcDbMText
 10
10.49050720372621
 20
10.43737752466997
 30
0.0
 40
0.5
 41
0.0
 71
     5
 72
     1
  1
\A1;0.810
 73
     1
 44
1.0
  0
POINT
  5
AB7E
330
5CA2
100
AcDbEntity
  8
DEFPOINTS
 62
     0
100
AcDbPoint
 10
13.72550720372621
 20
13.55616980874295
 30
0.0
  0
POINT
  5
AB7F
330
5CA2
100
AcDbEntity
  8
DEFPOINTS
 62
     0
100
AcDbPoint
 10
12.91550720372621
 20
13.59675480874294
 30
0.0
  0
POINT
  5
AB80
330
5CA2
100
AcDbEntity
  8
DEFPOINTS
 62
     0
100
AcDbPoint
 10
12.91550720372621
 20
10.43737752466997
 30
0.0
  0
ENDBLK
  5
5CAE
330
5CA2
100
AcDbEntity
  8
0
100
AcDbBlockEnd
  0
BLOCK
  5
5DA0
330
5D95
100
AcDbEntity
  8
0
100
AcDbBlockBegin
  2
*D22
 70
     1
 10
0.0
 20
0.0
 30
0.0
  3
*D22
  1

  0
LINE
  5
A8BB
330
5D95
100
AcDbEntity
  8
DIM
 62
     0
370
    -2
100
AcDbLine
 10
26.17884150483922
 20
13.11037480874294
 30
0.0
 11
26.17884150483922
 21
11.99437480874294
 31
0.0
  0
LINE
  5
A8BC
330
5D95
100
AcDbEntity
  8
DIM
 62
     0
370
    -2
100
AcDbLine
 10
29.14084150483923
 20
13.15237480874293
 30
0.0
 11
29.14084150483923
 21
11.99437480874294
 31
0.0
  0
LINE
  5
A8BD
330
5D95
100
AcDbEntity
  8
DIM
 62
     0
370
    -2
100
AcDbLine
 10
26.89884150483922
 20
12.36637480874294
 30
0.0
 11
27.17484150483921
 21
12.36637480874294
 31
0.0
  0
LINE
  5
A8BE
330
5D95
100
AcDbEntity
  8
DIM
 62
     0
370
    -2
100
AcDbLine
 10
28.42084150483923
 20
12.36637480874294
 30
0.0
 11
28.14484150483921
 21
12.36637480874294
 31
0.0
  0
SOLID
  5
A8BF
330
5D95
100
AcDbEntity
  8
DIM
 62
     0
100
AcDbTrace
 10
26.89884150483922
 20
12.48637480874294
 30
0.0
 11
26.89884150483922
 21
12.24637480874294
 31
0.0
 12
26.17884150483922
 22
12.36637480874294
 32
0.0
 13
26.17884150483922
 23
12.36637480874294
 33
0.0
  0
SOLID
  5
A8C0
330
5D95
100
AcDbEntity
  8
DIM
 62
     0
100
AcDbTrace
 10
28.42084150483923
 20
12.48637480874294
 30
0.0
 11
28.42084150483923
 21
12.24637480874294
 31
0.0
 12
29.14084150483923
 22
12.36637480874294
 32
0.0
 13
29.14084150483923
 23
12.36637480874294
 33
0.0
  0
MTEXT
  5
A8C1
330
5D95
100
AcDbEntity
  8
DIM
 62
     0
100
AcDbMText
 10
27.65984150483921
 20
12.36637480874294
 30
0.0
 40
0.5
 41
0.0
 71
     5
 72
     1
  1
\A1;B
 73
     1
 44
1.0
  0
POINT
  5
A8C2
330
5D95
100
AcDbEntity
  8
DEFPOINTS
 62
     0
100
AcDbPoint
 10
26.17884150483922
 20
13.36237480874294
 30
0.0
  0
POINT
  5
A8C3
330
5D95
100
AcDbEntity
  8
DEFPOINTS
 62
     0
100
AcDbPoint
 10
29.14084150483923
 20
13.40437480874294
 30
0.0
  0
POINT
  5
A8C4
330
5D95
100
AcDbEntity
  8
DEFPOINTS
 62
     0
100
AcDbPoint
 10
29.14084150483923
 20
12.36637480874294
 30
0.0
  0
ENDBLK
  5
5DA1
330
5D95
100
AcDbEntity
  8
0
100
AcDbBlockEnd
  0
BLOCK
  5
5E29
330
5E1E
100
AcDbEntity
  8
0
100
AcDbBlockBegin
  2
*D23
 70
     1
 10
0.0
 20
0.0
 30
0.0
  3
*D23
  1

  0
LINE
  5
98B8
330
5E1E
100
AcDbEntity
  8
DIM
 62
     0
370
    -2
100
AcDbLine
 10
64.45426225907801
 20
19.12500430874294
 30
0.0
 11
64.45426225907801
 21
18.54934927021376
 31
0.0
  0
LINE
  5
98B9
330
5E1E
100
AcDbEntity
  8
DIM
 62
     0
370
    -2
100
AcDbLine
 10
60.947837259078
 20
19.12500430874295
 30
0.0
 11
60.947837259078
 21
18.54934927021376
 31
0.0
  0
LINE
  5
98BA
330
5E1E
100
AcDbEntity
  8
DIM
 62
     0
370
    -2
100
AcDbLine
 10
63.73426225907801
 20
18.92134927021376
 30
0.0
 11
63.186049759078
 21
18.92134927021376
 31
0.0
  0
LINE
  5
98BB
330
5E1E
100
AcDbEntity
  8
DIM
 62
     0
370
    -2
100
AcDbLine
 10
61.667837259078
 20
18.92134927021376
 30
0.0
 11
62.216049759078
 21
18.92134927021376
 31
0.0
  0
SOLID
  5
98BC
330
5E1E
100
AcDbEntity
  8
DIM
 62
     0
100
AcDbTrace
 10
63.73426225907801
 20
19.04134927021376
 30
0.0
 11
63.73426225907801
 21
18.80134927021376
 31
0.0
 12
64.45426225907801
 22
18.92134927021376
 32
0.0
 13
64.45426225907801
 23
18.92134927021376
 33
0.0
  0
SOLID
  5
98BD
330
5E1E
100
AcDbEntity
  8
DIM
 62
     0
100
AcDbTrace
 10
61.667837259078
 20
19.04134927021376
 30
0.0
 11
61.667837259078
 21
18.80134927021376
 31
0.0
 12
60.947837259078
 22
18.92134927021376
 32
0.0
 13
60.947837259078
 23
18.92134927021376
 33
0.0
  0
MTEXT
  5
98BE
330
5E1E
100
AcDbEntity
  8
DIM
 62
     0
100
AcDbMText
 10
62.701049759078
 20
18.92134927021376
 30
0.0
 40
0.5
 41
0.0
 71
     5
 72
     1
  1
\A1;D
 73
     1
 44
1.0
  0
POINT
  5
98BF
330
5E1E
100
AcDbEntity
  8
DEFPOINTS
 62
     0
100
AcDbPoint
 10
64.45426225907801
 20
19.37700430874294
 30
0.0
  0
POINT
  5
98C0
330
5E1E
100
AcDbEntity
  8
DEFPOINTS
 62
     0
100
AcDbPoint
 10
60.947837259078
 20
19.37700430874295
 30
0.0
  0
POINT
  5
98C1
330
5E1E
100
AcDbEntity
  8
DEFPOINTS
 62
     0
100
AcDbPoint
 10
60.947837259078
 20
18.92134927021376
 30
0.0
  0
ENDBLK
  5
5E2A
330
5E1E
100
AcDbEntity
  8
0
100
AcDbBlockEnd
  0
BLOCK
  5
5E37
330
5E2C
100
AcDbEntity
  8
0
100
AcDbBlockBegin
  2
*D24
 70
     1
 10
0.0
 20
0.0
 30
0.0
  3
*D24
  1

  0
LINE
  5
98AE
330
5E2C
100
AcDbEntity
  8
DIM
 62
     0
370
    -2
100
AcDbLine
 10
60.81804225907799
 20
22.96219480874294
 30
0.0
 11
60.81804225907799
 21
24.33722017238682
 31
0.0
  0
LINE
  5
98AF
330
5E2C
100
AcDbEntity
  8
DIM
 62
     0
370
    -2
100
AcDbLine
 10
64.77459325907799
 20
22.96219480874295
 30
0.0
 11
64.77459325907799
 21
24.33722017238682
 31
0.0
  0
LINE
  5
98B0
330
5E2C
100
AcDbEntity
  8
DIM
 62
     0
370
    -2
100
AcDbLine
 10
61.53804225907799
 20
23.96522017238682
 30
0.0
 11
62.31131775907799
 21
23.96522017238682
 31
0.0
  0
LINE
  5
98B1
330
5E2C
100
AcDbEntity
  8
DIM
 62
     0
370
    -2
100
AcDbLine
 10
64.05459325907798
 20
23.96522017238682
 30
0.0
 11
63.28131775907799
 21
23.96522017238682
 31
0.0
  0
SOLID
  5
98B2
330
5E2C
100
AcDbEntity
  8
DIM
 62
     0
100
AcDbTrace
 10
61.53804225907799
 20
24.08522017238682
 30
0.0
 11
61.53804225907799
 21
23.84522017238682
 31
0.0
 12
60.81804225907799
 22
23.96522017238682
 32
0.0
 13
60.81804225907799
 23
23.96522017238682
 33
0.0
  0
SOLID
  5
98B3
330
5E2C
100
AcDbEntity
  8
DIM
 62
     0
100
AcDbTrace
 10
64.05459325907798
 20
24.08522017238682
 30
0.0
 11
64.05459325907798
 21
23.84522017238682
 31
0.0
 12
64.77459325907799
 22
23.96522017238682
 32
0.0
 13
64.77459325907799
 23
23.96522017238682
 33
0.0
  0
MTEXT
  5
98B4
330
5E2C
100
AcDbEntity
  8
DIM
 62
     0
100
AcDbMText
 10
62.79631775907799
 20
23.96522017238682
 30
0.0
 40
0.5
 41
0.0
 71
     5
 72
     1
  1
\A1;C
 73
     1
 44
1.0
  0
POINT
  5
98B5
330
5E2C
100
AcDbEntity
  8
DEFPOINTS
 62
     0
100
AcDbPoint
 10
60.81804225907799
 20
22.71019480874294
 30
0.0
  0
POINT
  5
98B6
330
5E2C
100
AcDbEntity
  8
DEFPOINTS
 62
     0
100
AcDbPoint
 10
64.77459325907799
 20
22.71019480874295
 30
0.0
  0
POINT
  5
98B7
330
5E2C
100
AcDbEntity
  8
DEFPOINTS
 62
     0
100
AcDbPoint
 10
64.77459325907799
 20
23.96522017238682
 30
0.0
  0
ENDBLK
  5
5E38
330
5E2C
100
AcDbEntity
  8
0
100
AcDbBlockEnd
  0
BLOCK
  5
5E56
330
5E4B
100
AcDbEntity
  8
0
100
AcDbBlockBegin
  2
*D25
 70
     1
 10
0.0
 20
0.0
 30
0.0
  3
*D25
  1

  0
LINE
  5
A7C5
330
5E4B
100
AcDbEntity
  8
DIM
 62
     0
370
    -2
100
AcDbLine
 10
46.45021942437602
 20
13.52237480874294
 30
0.0
 11
46.82221942437602
 21
13.52237480874294
 31
0.0
  0
LINE
  5
A7C6
330
5E4B
100
AcDbEntity
  8
DIM
 62
     0
370
    -2
100
AcDbLine
 10
46.45021942437602
 20
13.34237480874294
 30
0.0
 11
46.82221942437602
 21
13.34237480874294
 31
0.0
  0
LINE
  5
A7C7
330
5E4B
100
AcDbEntity
  8
DIM
 62
     0
370
    -2
100
AcDbLine
 10
46.45021942437602
 20
14.24237480874294
 30
0.0
 11
46.45021942437602
 21
14.96237480874294
 31
0.0
  0
LINE
  5
A7C8
330
5E4B
100
AcDbEntity
  8
DIM
 62
     0
370
    -2
100
AcDbLine
 10
46.45021942437602
 20
12.62237480874294
 30
0.0
 11
46.45021942437602
 21
11.90237480874294
 31
0.0
  0
LINE
  5
A7C9
330
5E4B
100
AcDbEntity
  8
DIM
 62
     0
370
    -2
100
AcDbLine
 10
46.45021942437602
 20
11.90237480874294
 30
0.0
 11
45.73021942437602
 21
11.90237480874294
 31
0.0
  0
SOLID
  5
A7CA
330
5E4B
100
AcDbEntity
  8
DIM
 62
     0
100
AcDbTrace
 10
46.33021942437602
 20
14.24237480874294
 30
0.0
 11
46.57021942437602
 21
14.24237480874294
 31
0.0
 12
46.45021942437602
 22
13.52237480874294
 32
0.0
 13
46.45021942437602
 23
13.52237480874294
 33
0.0
  0
SOLID
  5
A7CB
330
5E4B
100
AcDbEntity
  8
DIM
 62
     0
100
AcDbTrace
 10
46.33021942437602
 20
12.62237480874294
 30
0.0
 11
46.57021942437602
 21
12.62237480874294
 31
0.0
 12
46.45021942437602
 22
13.34237480874294
 32
0.0
 13
46.45021942437602
 23
13.34237480874294
 33
0.0
  0
MTEXT
  5
A7CC
330
5E4B
100
AcDbEntity
  8
DIM
 62
     0
100
AcDbMText
 10
43.93271942437602
 20
11.90237480874295
 30
0.0
 40
0.5
 41
0.0
 71
     5
 72
     1
  1
\A1;0.180 TYP.
 73
     1
 44
1.0
  0
POINT
  5
A7CD
330
5E4B
100
AcDbEntity
  8
DEFPOINTS
 62
     0
100
AcDbPoint
 10
46.19821942437602
 20
13.52237480874294
 30
0.0
  0
POINT
  5
A7CE
330
5E4B
100
AcDbEntity
  8
DEFPOINTS
 62
     0
100
AcDbPoint
 10
46.19821942437602
 20
13.34237480874294
 30
0.0
  0
POINT
  5
A7CF
330
5E4B
100
AcDbEntity
  8
DEFPOINTS
 62
     0
100
AcDbPoint
 10
46.45021942437602
 20
13.34237480874294
 30
0.0
  0
ENDBLK
  5
5E57
330
5E4B
100
AcDbEntity
  8
0
100
AcDbBlockEnd
  0
BLOCK
  5
5E7F
330
5E74
100
AcDbEntity
  8
0
100
AcDbBlockBegin
  2
*D26
 70
     1
 10
0.0
 20
0.0
 30
0.0
  3
*D26
  1

  0
LINE
  5
A5D1
330
5E74
100
AcDbEntity
  8
DIM
 62
     0
370
    -2
100
AcDbLine
 10
17.2951722037262
 20
22.53981480874295
 30
0.0
 11
23.50566558825487
 21
22.53981480874295
 31
0.0
  0
LINE
  5
A5D2
330
5E74
100
AcDbEntity
  8
DIM
 62
     0
370
    -2
100
AcDbLine
 10
17.2951722037262
 20
13.57575480874294
 30
0.0
 11
23.50566558825487
 21
13.57575480874294
 31
0.0
  0
LINE
  5
A5D3
330
5E74
100
AcDbEntity
  8
DIM
 62
     0
370
    -2
100
AcDbLine
 10
23.13366558825487
 20
21.81981480874295
 30
0.0
 11
23.13366558825487
 21
18.66778480874295
 31
0.0
  0
LINE
  5
A5D4
330
5E74
100
AcDbEntity
  8
DIM
 62
     0
370
    -2
100
AcDbLine
 10
23.13366558825487
 20
14.29575480874294
 30
0.0
 11
23.13366558825487
 21
17.44778480874295
 31
0.0
  0
SOLID
  5
A5D5
330
5E74
100
AcDbEntity
  8
DIM
 62
     0
100
AcDbTrace
 10
23.01366558825487
 20
21.81981480874295
 30
0.0
 11
23.25366558825487
 21
21.81981480874295
 31
0.0
 12
23.13366558825487
 22
22.53981480874295
 32
0.0
 13
23.13366558825487
 23
22.53981480874295
 33
0.0
  0
SOLID
  5
A5D6
330
5E74
100
AcDbEntity
  8
DIM
 62
     0
100
AcDbTrace
 10
23.01366558825487
 20
14.29575480874294
 30
0.0
 11
23.25366558825487
 21
14.29575480874294
 31
0.0
 12
23.13366558825487
 22
13.57575480874294
 32
0.0
 13
23.13366558825487
 23
13.57575480874294
 33
0.0
  0
MTEXT
  5
A5D7
330
5E74
100
AcDbEntity
  8
DIM
 62
     0
100
AcDbMText
 10
23.13366558825487
 20
18.05778480874295
 30
0.0
 40
0.5
 41
0.0
 71
     5
 72
     1
  1
\A1;8.964
 73
     1
 44
1.0
  0
POINT
  5
A5D8
330
5E74
100
AcDbEntity
  8
DEFPOINTS
 62
     0
100
AcDbPoint
 10
17.0431722037262
 20
22.53981480874295
 30
0.0
  0
POINT
  5
A5D9
330
5E74
100
AcDbEntity
  8
DEFPOINTS
 62
     0
100
AcDbPoint
 10
17.0431722037262
 20
13.57575480874294
 30
0.0
  0
POINT
  5
A5DA
330
5E74
100
AcDbEntity
  8
DEFPOINTS
 62
     0
100
AcDbPoint
 10
23.13366558825487
 20
13.57575480874294
 30
0.0
  0
ENDBLK
  5
5E80
330
5E74
100
AcDbEntity
  8
0
100
AcDbBlockEnd
  0
BLOCK
  5
5E9B
330
5E90
100
AcDbEntity
  8
0
100
AcDbBlockBegin
  2
*D27
 70
     1
 10
0.0
 20
0.0
 30
0.0
  3
*D27
  1

  0
LINE
  5
A4F4
330
5E90
100
AcDbEntity
  8
DIM
 62
     0
370
    -2
100
AcDbLine
 10
13.03530220372621
 20
20.70487660436405
 30
0.0
 11
13.03530220372621
 21
21.07687660436405
 31
0.0
  0
LINE
  5
A4F5
330
5E90
100
AcDbEntity
  8
DIM
 62
     0
370
    -2
100
AcDbLine
 10
17.5159222037262
 20
20.70487660436405
 30
0.0
 11
17.5159222037262
 21
21.07687660436405
 31
0.0
  0
LINE
  5
A4F6
330
5E90
100
AcDbEntity
  8
DIM
 62
     0
370
    -2
100
AcDbLine
 10
13.75530220372621
 20
20.70487660436405
 30
0.0
 11
14.56761052185483
 21
20.70487660436405
 31
0.0
  0
LINE
  5
A4F7
330
5E90
100
AcDbEntity
  8
DIM
 62
     0
370
    -2
100
AcDbLine
 10
16.7959222037262
 20
20.70487660436405
 30
0.0
 11
16.66261052185483
 21
20.70487660436405
 31
0.0
  0
SOLID
  5
A4F8
330
5E90
100
AcDbEntity
  8
DIM
 62
     0
100
AcDbTrace
 10
13.75530220372621
 20
20.82487660436405
 30
0.0
 11
13.75530220372621
 21
20.58487660436405
 31
0.0
 12
13.03530220372621
 22
20.70487660436405
 32
0.0
 13
13.03530220372621
 23
20.70487660436405
 33
0.0
  0
SOLID
  5
A4F9
330
5E90
100
AcDbEntity
  8
DIM
 62
     0
100
AcDbTrace
 10
16.7959222037262
 20
20.82487660436405
 30
0.0
 11
16.7959222037262
 21
20.58487660436405
 31
0.0
 12
17.5159222037262
 22
20.70487660436405
 32
0.0
 13
17.5159222037262
 23
20.70487660436405
 33
0.0
  0
MTEXT
  5
A4FA
330
5E90
100
AcDbEntity
  8
DIM
 62
     0
100
AcDbMText
 10
15.61511052185483
 20
20.70487660436405
 30
0.0
 40
0.5
 41
0.0
 71
     5
 72
     1
  1
\A1;4.481
 73
     1
 44
1.0
  0
POINT
  5
A4FB
330
5E90
100
AcDbEntity
  8
DEFPOINTS
 62
     0
100
AcDbPoint
 10
13.03530220372621
 20
20.45287660436405
 30
0.0
  0
POINT
  5
A4FC
330
5E90
100
AcDbEntity
  8
DEFPOINTS
 62
     0
100
AcDbPoint
 10
17.5159222037262
 20
20.45287660436405
 30
0.0
  0
POINT
  5
A4FD
330
5E90
100
AcDbEntity
  8
DEFPOINTS
 62
     0
100
AcDbPoint
 10
17.5159222037262
 20
20.70487660436405
 30
0.0
  0
ENDBLK
  5
5E9C
330
5E90
100
AcDbEntity
  8
0
100
AcDbBlockEnd
  0
BLOCK
  5
5EA9
330
5E9E
100
AcDbEntity
  8
0
100
AcDbBlockBegin
  2
*D28
 70
     1
 10
0.0
 20
0.0
 30
0.0
  3
*D28
  1

  0
LINE
  5
A558
330
5E9E
100
AcDbEntity
  8
DIM
 62
     0
370
    -2
100
AcDbLine
 10
14.07150720372621
 20
13.46216980874294
 30
0.0
 11
14.44350720372621
 21
13.46216980874294
 31
0.0
  0
LINE
  5
A559
330
5E9E
100
AcDbEntity
  8
DIM
 62
     0
370
    -2
100
AcDbLine
 10
14.07150720372623
 20
22.65239980874295
 30
0.0
 11
14.44350720372622
 21
22.65239980874295
 31
0.0
  0
LINE
  5
A55A
330
5E9E
100
AcDbEntity
  8
DIM
 62
     0
370
    -2
100
AcDbLine
 10
14.07150720372621
 20
14.18216980874294
 30
0.0
 11
14.07150720372621
 21
16.67214566312367
 31
0.0
  0
LINE
  5
A55B
330
5E9E
100
AcDbEntity
  8
DIM
 62
     0
370
    -2
100
AcDbLine
 10
14.07150720372621
 20
21.93239980874295
 30
0.0
 11
14.07150720372621
 21
17.89214566312367
 31
0.0
  0
SOLID
  5
A55C
330
5E9E
100
AcDbEntity
  8
DIM
 62
     0
100
AcDbTrace
 10
13.95150720372621
 20
14.18216980874294
 30
0.0
 11
14.19150720372621
 21
14.18216980874294
 31
0.0
 12
14.07150720372621
 22
13.46216980874294
 32
0.0
 13
14.07150720372621
 23
13.46216980874294
 33
0.0
  0
SOLID
  5
A55D
330
5E9E
100
AcDbEntity
  8
DIM
 62
     0
100
AcDbTrace
 10
13.95150720372622
 20
21.93239980874295
 30
0.0
 11
14.19150720372621
 21
21.93239980874295
 31
0.0
 12
14.07150720372621
 22
22.65239980874295
 32
0.0
 13
14.07150720372621
 23
22.65239980874295
 33
0.0
  0
MTEXT
  5
A55E
330
5E9E
100
AcDbEntity
  8
DIM
 62
     0
100
AcDbMText
 10
14.07150720372621
 20
17.28214566312368
 30
0.0
 40
0.5
 41
0.0
 71
     5
 72
     1
  1
\A1;9.190
 73
     1
 44
1.0
  0
POINT
  5
A55F
330
5E9E
100
AcDbEntity
  8
DEFPOINTS
 62
     0
100
AcDbPoint
 10
13.81950720372621
 20
13.46216980874294
 30
0.0
  0
POINT
  5
A560
330
5E9E
100
AcDbEntity
  8
DEFPOINTS
 62
     0
100
AcDbPoint
 10
13.81950720372622
 20
22.65239980874295
 30
0.0
  0
POINT
  5
A561
330
5E9E
100
AcDbEntity
  8
DEFPOINTS
 62
     0
100
AcDbPoint
 10
14.07150720372621
 20
22.65239980874295
 30
0.0
  0
ENDBLK
  5
5EAA
330
5E9E
100
AcDbEntity
  8
0
100
AcDbBlockEnd
  0
BLOCK
  5
5EBB
330
5EB0
100
AcDbEntity
  8
0
100
AcDbBlockBegin
  2
*D29
 70
     1
 10
0.0
 20
0.0
 30
0.0
  3
*D29
  1

  0
LINE
  5
A7E5
330
5EB0
100
AcDbEntity
  8
DIM
 62
     0
370
    -2
100
AcDbLine
 10
44.52570159979043
 20
22.76981480874296
 30
0.0
 11
44.52570159979043
 21
24.36335420864741
 31
0.0
  0
LINE
  5
A7E6
330
5EB0
100
AcDbEntity
  8
DIM
 62
     0
370
    -2
100
AcDbLine
 10
44.26859659979043
 20
22.76981480874296
 30
0.0
 11
44.26859659979043
 21
24.36335420864741
 31
0.0
  0
LINE
  5
A7E7
330
5EB0
100
AcDbEntity
  8
DIM
 62
     0
370
    -2
100
AcDbLine
 10
45.24570159979043
 20
23.99135420864741
 30
0.0
 11
45.96570159979043
 21
23.99135420864741
 31
0.0
  0
LINE
  5
A7E8
330
5EB0
100
AcDbEntity
  8
DIM
 62
     0
370
    -2
100
AcDbLine
 10
43.54859659979043
 20
23.99135420864741
 30
0.0
 11
42.82859659979043
 21
23.99135420864741
 31
0.0
  0
SOLID
  5
A7E9
330
5EB0
100
AcDbEntity
  8
DIM
 62
     0
100
AcDbTrace
 10
45.24570159979043
 20
24.11135420864741
 30
0.0
 11
45.24570159979043
 21
23.87135420864741
 31
0.0
 12
44.52570159979043
 22
23.99135420864741
 32
0.0
 13
44.52570159979043
 23
23.99135420864741
 33
0.0
  0
SOLID
  5
A7EA
330
5EB0
100
AcDbEntity
  8
DIM
 62
     0
100
AcDbTrace
 10
43.54859659979043
 20
24.11135420864741
 30
0.0
 11
43.54859659979043
 21
23.87135420864741
 31
0.0
 12
44.26859659979043
 22
23.99135420864741
 32
0.0
 13
44.26859659979043
 23
23.99135420864741
 33
0.0
  0
MTEXT
  5
A7EB
330
5EB0
100
AcDbEntity
  8
DIM
 62
     0
100
AcDbMText
 10
41.74984659979043
 20
23.99135420864741
 30
0.0
 40
0.5
 41
0.0
 71
     5
 72
     1
  1
\A1;0.257
 73
     1
 44
1.0
  0
POINT
  5
A7EC
330
5EB0
100
AcDbEntity
  8
DEFPOINTS
 62
     0
100
AcDbPoint
 10
44.52570159979043
 20
22.51781480874296
 30
0.0
  0
POINT
  5
A7ED
330
5EB0
100
AcDbEntity
  8
DEFPOINTS
 62
     0
100
AcDbPoint
 10
44.26859659979043
 20
22.51781480874296
 30
0.0
  0
POINT
  5
A7EE
330
5EB0
100
AcDbEntity
  8
DEFPOINTS
 62
     0
100
AcDbPoint
 10
44.26859659979043
 20
23.99135420864741
 30
0.0
  0
ENDBLK
  5
5EBC
330
5EB0
100
AcDbEntity
  8
0
100
AcDbBlockEnd
  0
BLOCK
  5
5EC9
330
5EBE
100
AcDbEntity
  8
0
100
AcDbBlockBegin
  2
*D30
 70
     1
 10
0.0
 20
0.0
 30
0.0
  3
*D30
  1

  0
LINE
  5
A7D0
330
5EBE
100
AcDbEntity
  8
DIM
 62
     0
370
    -2
100
AcDbLine
 10
48.98370159979042
 20
22.51781480874294
 30
0.0
 11
50.62270139718959
 21
22.51781480874294
 31
0.0
  0
LINE
  5
A7D1
330
5EBE
100
AcDbEntity
  8
DIM
 62
     0
370
    -2
100
AcDbLine
 10
48.98370159979042
 20
22.77219480874294
 30
0.0
 11
50.62270139718959
 21
22.77219480874294
 31
0.0
  0
LINE
  5
A7D2
330
5EBE
100
AcDbEntity
  8
DIM
 62
     0
370
    -2
100
AcDbLine
 10
50.25070139718959
 20
21.79781480874294
 30
0.0
 11
50.25070139718959
 21
21.07781480874294
 31
0.0
  0
LINE
  5
A7D3
330
5EBE
100
AcDbEntity
  8
DIM
 62
     0
370
    -2
100
AcDbLine
 10
50.25070139718959
 20
23.49219480874294
 30
0.0
 11
50.25070139718959
 21
24.21219480874294
 31
0.0
  0
LINE
  5
A7D4
330
5EBE
100
AcDbEntity
  8
DIM
 62
     0
370
    -2
100
AcDbLine
 10
50.25070139718959
 20
24.21219480874294
 30
0.0
 11
50.97070139718959
 21
24.21219480874294
 31
0.0
  0
SOLID
  5
A7D5
330
5EBE
100
AcDbEntity
  8
DIM
 62
     0
100
AcDbTrace
 10
50.13070139718959
 20
21.79781480874294
 30
0.0
 11
50.37070139718959
 21
21.79781480874294
 31
0.0
 12
50.25070139718959
 22
22.51781480874294
 32
0.0
 13
50.25070139718959
 23
22.51781480874294
 33
0.0
  0
SOLID
  5
A7D6
330
5EBE
100
AcDbEntity
  8
DIM
 62
     0
100
AcDbTrace
 10
50.13070139718959
 20
23.49219480874294
 30
0.0
 11
50.37070139718959
 21
23.49219480874294
 31
0.0
 12
50.25070139718959
 22
22.77219480874294
 32
0.0
 13
50.25070139718959
 23
22.77219480874294
 33
0.0
  0
MTEXT
  5
A7D7
330
5EBE
100
AcDbEntity
  8
DIM
 62
     0
100
AcDbMText
 10
52.04945139718958
 20
24.21219480874295
 30
0.0
 40
0.5
 41
0.0
 71
     5
 72
     1
  1
\A1;0.254
 73
     1
 44
1.0
  0
POINT
  5
A7D8
330
5EBE
100
AcDbEntity
  8
DEFPOINTS
 62
     0
100
AcDbPoint
 10
48.73170159979042
 20
22.51781480874294
 30
0.0
  0
POINT
  5
A7D9
330
5EBE
100
AcDbEntity
  8
DEFPOINTS
 62
     0
100
AcDbPoint
 10
48.73170159979042
 20
22.77219480874294
 30
0.0
  0
POINT
  5
A7DA
330
5EBE
100
AcDbEntity
  8
DEFPOINTS
 62
     0
100
AcDbPoint
 10
50.25070139718959
 20
22.77219480874294
 30
0.0
  0
ENDBLK
  5
5ECA
330
5EBE
100
AcDbEntity
  8
0
100
AcDbBlockEnd
  0
BLOCK
  5
5EE8
330
5EDD
100
AcDbEntity
  8
0
100
AcDbBlockBegin
  2
*D31
 70
     1
 10
0.0
 20
0.0
 30
0.0
  3
*D31
  1

  0
LINE
  5
A576
330
5EDD
100
AcDbEntity
  8
DIM
 62
     0
370
    -2
100
AcDbLine
 10
12.92061220372621
 20
22.51881480874294
 30
0.0
 11
3.492177417934172
 21
22.51881480874295
 31
0.0
  0
LINE
  5
A577
330
5EDD
100
AcDbEntity
  8
DIM
 62
     0
370
    -2
100
AcDbLine
 10
12.92061220372621
 20
22.77219480874294
 30
0.0
 11
3.492177417934172
 21
22.77219480874295
 31
0.0
  0
LINE
  5
A578
330
5EDD
100
AcDbEntity
  8
DIM
 62
     0
370
    -2
100
AcDbLine
 10
3.864177417934172
 20
21.79881480874295
 30
0.0
 11
3.864177417934172
 21
21.07881480874294
 31
0.0
  0
LINE
  5
A579
330
5EDD
100
AcDbEntity
  8
DIM
 62
     0
370
    -2
100
AcDbLine
 10
3.864177417934172
 20
23.49219480874294
 30
0.0
 11
3.864177417934172
 21
24.21219480874295
 31
0.0
  0
LINE
  5
A57A
330
5EDD
100
AcDbEntity
  8
DIM
 62
     0
370
    -2
100
AcDbLine
 10
3.864177417934172
 20
24.21219480874295
 30
0.0
 11
4.584177417934172
 21
24.21219480874295
 31
0.0
  0
SOLID
  5
A57B
330
5EDD
100
AcDbEntity
  8
DIM
 62
     0
100
AcDbTrace
 10
3.744177417934172
 20
21.79881480874295
 30
0.0
 11
3.984177417934172
 21
21.79881480874295
 31
0.0
 12
3.864177417934172
 22
22.51881480874295
 32
0.0
 13
3.864177417934172
 23
22.51881480874295
 33
0.0
  0
SOLID
  5
A57C
330
5EDD
100
AcDbEntity
  8
DIM
 62
     0
100
AcDbTrace
 10
3.744177417934172
 20
23.49219480874294
 30
0.0
 11
3.984177417934172
 21
23.49219480874294
 31
0.0
 12
3.864177417934172
 22
22.77219480874295
 32
0.0
 13
3.864177417934172
 23
22.77219480874295
 33
0.0
  0
MTEXT
  5
A57D
330
5EDD
100
AcDbEntity
  8
DIM
 62
     0
100
AcDbMText
 10
5.662927417934168
 20
24.21219480874295
 30
0.0
 40
0.5
 41
0.0
 71
     5
 72
     1
  1
\A1;0.253
 73
     1
 44
1.0
  0
POINT
  5
A57E
330
5EDD
100
AcDbEntity
  8
DEFPOINTS
 62
     0
100
AcDbPoint
 10
13.17261220372621
 20
22.51881480874294
 30
0.0
  0
POINT
  5
A57F
330
5EDD
100
AcDbEntity
  8
DEFPOINTS
 62
     0
100
AcDbPoint
 10
13.17261220372621
 20
22.77219480874294
 30
0.0
  0
POINT
  5
A580
330
5EDD
100
AcDbEntity
  8
DEFPOINTS
 62
     0
100
AcDbPoint
 10
3.864177417934172
 20
22.77219480874295
 30
0.0
  0
ENDBLK
  5
5EE9
330
5EDD
100
AcDbEntity
  8
0
100
AcDbBlockEnd
  0
BLOCK
  5
5EFF
330
5EF4
100
AcDbEntity
  8
0
100
AcDbBlockBegin
  2
*D32
 70
     1
 10
0.0
 20
0.0
 30
0.0
  3
*D32
  1

  0
LINE
  5
A8C5
330
5EF4
100
AcDbEntity
  8
DIM
 62
     0
370
    -2
100
AcDbLine
 10
28.82051050483923
 20
16.99026530874294
 30
0.0
 11
28.82051050483923
 21
17.54756530874295
 31
0.0
  0
LINE
  5
A8C6
330
5EF4
100
AcDbEntity
  8
DIM
 62
     0
370
    -2
100
AcDbLine
 10
29.14084150483923
 20
17.01704339722379
 30
0.0
 11
29.14084150483923
 21
17.54756530874295
 31
0.0
  0
LINE
  5
A8C7
330
5EF4
100
AcDbEntity
  8
DIM
 62
     0
370
    -2
100
AcDbLine
 10
28.10051050483923
 20
17.17556530874295
 30
0.0
 11
27.38051050483923
 21
17.17556530874295
 31
0.0
  0
LINE
  5
A8C8
330
5EF4
100
AcDbEntity
  8
DIM
 62
     0
370
    -2
100
AcDbLine
 10
29.86084150483923
 20
17.17556530874295
 30
0.0
 11
30.58084150483924
 21
17.17556530874295
 31
0.0
  0
SOLID
  5
A8C9
330
5EF4
100
AcDbEntity
  8
DIM
 62
     0
100
AcDbTrace
 10
28.10051050483923
 20
17.29556530874295
 30
0.0
 11
28.10051050483923
 21
17.05556530874295
 31
0.0
 12
28.82051050483923
 22
17.17556530874295
 32
0.0
 13
28.82051050483923
 23
17.17556530874295
 33
0.0
  0
SOLID
  5
A8CA
330
5EF4
100
AcDbEntity
  8
DIM
 62
     0
100
AcDbTrace
 10
29.86084150483923
 20
17.29556530874295
 30
0.0
 11
29.86084150483923
 21
17.05556530874295
 31
0.0
 12
29.14084150483923
 22
17.17556530874295
 32
0.0
 13
29.14084150483923
 23
17.17556530874295
 33
0.0
  0
MTEXT
  5
A8CB
330
5EF4
100
AcDbEntity
  8
DIM
 62
     0
100
AcDbMText
 10
31.62834150483924
 20
17.17556530874295
 30
0.0
 40
0.5
 41
0.0
 71
     5
 72
     1
  1
\A1;0.320
 73
     1
 44
1.0
  0
POINT
  5
A8CC
330
5EF4
100
AcDbEntity
  8
DEFPOINTS
 62
     0
100
AcDbPoint
 10
28.82051050483923
 20
16.73826530874294
 30
0.0
  0
POINT
  5
A8CD
330
5EF4
100
AcDbEntity
  8
DEFPOINTS
 62
     0
100
AcDbPoint
 10
29.14084150483923
 20
16.76504339722379
 30
0.0
  0
POINT
  5
A8CE
330
5EF4
100
AcDbEntity
  8
DEFPOINTS
 62
     0
100
AcDbPoint
 10
29.14084150483923
 20
17.17556530874295
 30
0.0
  0
ENDBLK
  5
5F00
330
5EF4
100
AcDbEntity
  8
0
100
AcDbBlockEnd
  0
BLOCK
  5
612A
330
611F
100
AcDbEntity
  8
0
100
AcDbBlockBegin
  2
*D33
 70
     1
 10
0.0
 20
0.0
 30
0.0
  3
*D33
  1

  0
LINE
  5
AAD8
330
611F
100
AcDbEntity
  8
DIM
 62
     0
370
    -2
100
AcDbLine
 10
12.91550720372621
 20
22.77419480874295
 30
0.0
 11
12.91550720372621
 21
28.68891719944967
 31
0.0
  0
LINE
  5
AAD9
330
611F
100
AcDbEntity
  8
DIM
 62
     0
370
    -2
100
AcDbLine
 10
15.2756122037262
 20
23.74419480874294
 30
0.0
 11
15.2756122037262
 21
28.68891719944967
 31
0.0
  0
LINE
  5
AADA
330
611F
100
AcDbEntity
  8
DIM
 62
     0
370
    -2
100
AcDbLine
 10
15.99561220372621
 20
28.31691719944967
 30
0.0
 11
16.71561220372621
 21
28.31691719944967
 31
0.0
  0
LINE
  5
AADB
330
611F
100
AcDbEntity
  8
DIM
 62
     0
370
    -2
100
AcDbLine
 10
12.19550720372621
 20
28.31691719944967
 30
0.0
 11
11.47550720372621
 21
28.31691719944967
 31
0.0
  0
SOLID
  5
AADC
330
611F
100
AcDbEntity
  8
DIM
 62
     0
100
AcDbTrace
 10
15.99561220372621
 20
28.43691719944967
 30
0.0
 11
15.99561220372621
 21
28.19691719944967
 31
0.0
 12
15.2756122037262
 22
28.31691719944967
 32
0.0
 13
15.2756122037262
 23
28.31691719944967
 33
0.0
  0
SOLID
  5
AADD
330
611F
100
AcDbEntity
  8
DIM
 62
     0
100
AcDbTrace
 10
12.19550720372621
 20
28.43691719944967
 30
0.0
 11
12.19550720372621
 21
28.19691719944967
 31
0.0
 12
12.91550720372621
 22
28.31691719944967
 32
0.0
 13
12.91550720372621
 23
28.31691719944967
 33
0.0
  0
MTEXT
  5
AADE
330
611F
100
AcDbEntity
  8
DIM
 62
     0
100
AcDbMText
 10
10.39675720372621
 20
28.31691719944967
 30
0.0
 40
0.5
 41
0.0
 71
     5
 72
     1
  1
\A1;2.360
 73
     1
 44
1.0
  0
POINT
  5
AADF
330
611F
100
AcDbEntity
  8
DEFPOINTS
 62
     0
100
AcDbPoint
 10
12.91550720372621
 20
22.52219480874295
 30
0.0
  0
POINT
  5
AAE0
330
611F
100
AcDbEntity
  8
DEFPOINTS
 62
     0
100
AcDbPoint
 10
15.2756122037262
 20
23.49219480874294
 30
0.0
  0
POINT
  5
AAE1
330
611F
100
AcDbEntity
  8
DEFPOINTS
 62
     0
100
AcDbPoint
 10
15.2756122037262
 20
28.31691719944967
 30
0.0
  0
ENDBLK
  5
612B
330
611F
100
AcDbEntity
  8
0
100
AcDbBlockEnd
  0
BLOCK
  5
738B
330
7374
100
AcDbEntity
  8
0
100
AcDbBlockBegin
  2
HBS
 70
     0
 10
0.0
 20
0.0
 30
0.0
  3
HBS
  1

  0
LINE
  5
7375
330
7374
100
AcDbEntity
  8
TITLE
100
AcDbLine
 10
0.0620000000000118
 20
10.266
 30
0.0
 11
16.53800000000001
 21
10.266
 31
0.0
  0
LINE
  5
7376
330
7374
100
AcDbEntity
  8
TITLE
100
AcDbLine
 10
16.53800000000001
 20
0.0620000000000012
 30
0.0
 11
0.0620000000000118
 21
0.0620000000000012
 31
0.0
  0
LINE
  5
7377
330
7374
100
AcDbEntity
  8
TITLE
100
AcDbLine
 10
0.0
 20
10.32799999999999
 30
0.0
 11
16.59999999999999
 21
10.32799999999999
 31
0.0
  0
LINE
  5
7378
330
7374
100
AcDbEntity
  8
TITLE
100
AcDbLine
 10
16.59999999999999
 20
0.0
 30
0.0
 11
0.0
 21
0.0
 31
0.0
  0
LINE
  5
7379
330
7374
100
AcDbEntity
  8
TITLE
100
AcDbLine
 10
0.0620000000000118
 20
9.848000000000002
 30
0.0
 11
16.53800000000001
 21
9.848000000000006
 31
0.0
  0
LINE
  5
737A
330
7374
100
AcDbEntity
  8
TITLE
100
AcDbLine
 10
0.0620000000000118
 20
0.0620000000000012
 30
0.0
 11
0.0620000000000118
 21
10.266
 31
0.0
  0
LINE
  5
737B
330
7374
100
AcDbEntity
  8
TITLE
100
AcDbLine
 10
0.0
 20
0.0
 30
0.0
 11
0.0
 21
10.32799999999999
 31
0.0
  0
TEXT
  5
737C
330
7374
100
AcDbEntity
  8
TEXT
100
AcDbText
 10
0.2078333333333452
 20
9.888079195640081
 30
0.0
 40
0.125
  1
NAME
 72
     1
 11
0.4370000000000119
 21
9.888079195640081
 31
0.0
100
AcDbText
  0
TEXT
  5
737D
330
7374
100
AcDbEntity
  8
TEXT
100
AcDbText
 10
0.2078333333333452
 20
10.09641252897341
 30
0.0
 40
0.125
  1
PART
 72
     1
 11
0.4370000000000119
 21
10.09641252897341
 31
0.0
100
AcDbText
  0
LINE
  5
737E
330
7374
100
AcDbEntity
  8
TITLE
100
AcDbLine
 10
0.8120000000000118
 20
9.848000000000002
 30
0.0
 11
0.8120000000000118
 21
10.266
 31
0.0
  0
LINE
  5
737F
330
7374
100
AcDbEntity
  8
TITLE
100
AcDbLine
 10
7.0
 20
10.266
 30
0.0
 11
7.0
 21
9.848000000000002
 31
0.0
  0
LINE
  5
7380
330
7374
100
AcDbEntity
  8
TITLE
100
AcDbLine
 10
7.062000000000011
 20
10.266
 30
0.0
 11
7.062000000000011
 21
9.848000000000002
 31
0.0
  0
LINE
  5
7381
330
7374
100
AcDbEntity
  8
TITLE
100
AcDbLine
 10
7.812000000000011
 20
10.266
 30
0.0
 11
7.812000000000011
 21
9.848000000000002
 31
0.0
  0
TEXT
  5
7382
330
7374
100
AcDbEntity
  8
TEXT
100
AcDbText
 10
7.312000000000011
 20
9.888079195640081
 30
0.0
 40
0.125
  1
No.
 72
     1
 11
7.437000000000011
 21
9.888079195640081
 31
0.0
100
AcDbText
  0
TEXT
  5
7383
330
7374
100
AcDbEntity
  8
TEXT
100
AcDbText
 10
7.207833333333344
 20
10.09641252897341
 30
0.0
 40
0.125
  1
PART
 72
     1
 11
7.437000000000011
 21
10.09641252897341
 31
0.0
100
AcDbText
  0
LINE
  5
7384
330
7374
100
AcDbEntity
  8
TITLE
100
AcDbLine
 10
16.53800000000001
 20
10.266
 30
0.0
 11
16.53800000000001
 21
0.0620000000000012
 31
0.0
  0
LINE
  5
7385
330
7374
100
AcDbEntity
  8
TITLE
100
AcDbLine
 10
16.59999999999999
 20
10.32799999999999
 30
0.0
 11
16.59999999999999
 21
0.0
 31
0.0
  0
TEXT
  5
7386
330
7374
100
AcDbEntity
  8
TEXT
100
AcDbText
 10
14.22865779971668
 20
10.09641252897341
 30
0.0
 40
0.125
  1
REV.
 72
     1
 11
14.43699113305001
 21
10.09641252897341
 31
0.0
100
AcDbText
  0
TEXT
  5
7387
330
7374
100
AcDbEntity
  8
TEXT
100
AcDbText
 10
14.20782446638335
 20
9.888079195640081
 30
0.0
 40
0.125
  1
DATE
 72
     1
 11
14.43699113305001
 21
9.888079195640081
 31
0.0
100
AcDbText
  0
LINE
  5
7388
330
7374
100
AcDbEntity
  8
TITLE
100
AcDbLine
 10
14.06199113305001
 20
10.266
 30
0.0
 11
14.06199113305001
 21
9.848000000000002
 31
0.0
  0
LINE
  5
7389
330
7374
100
AcDbEntity
  8
TITLE
100
AcDbLine
 10
14.81199113305001
 20
10.266
 30
0.0
 11
14.81199113305001
 21
9.848000000000002
 31
0.0
  0
LINE
  5
738A
330
7374
100
AcDbEntity
  8
TITLE
100
AcDbLine
 10
13.99999113305
 20
10.266
 30
0.0
 11
13.99999113305
 21
9.848000000000002
 31
0.0
  0
ENDBLK
  5
738C
330
7374
100
AcDbEntity
  8
0
100
AcDbBlockEnd
  0
BLOCK
  5
79E6
330
79DB
100
AcDbEntity
  8
0
100
AcDbBlockBegin
  2
*D35
 70
     1
 10
0.0
 20
0.0
 30
0.0
  3
*D35
  1

  0
LINE
  5
A86B
330
79DB
100
AcDbEntity
  8
DIM
 62
     0
370
    -2
100
AcDbLine
 10
59.95249116466162
 20
31.09412080230928
 30
0.0
 11
63.21649116466161
 21
31.09412080230928
 31
0.0
  0
LINE
  5
A86C
330
79DB
100
AcDbEntity
  8
DIM
 62
     0
370
    -2
100
AcDbLine
 10
59.95249116466165
 20
29.85412080230927
 30
0.0
 11
63.21649116466161
 21
29.85412080230927
 31
0.0
  0
LINE
  5
A86D
330
79DB
100
AcDbEntity
  8
DIM
 62
     0
370
    -2
100
AcDbLine
 10
62.8444911646616
 20
31.81412080230928
 30
0.0
 11
62.8444911646616
 21
32.53412080230928
 31
0.0
  0
LINE
  5
A86E
330
79DB
100
AcDbEntity
  8
DIM
 62
     0
370
    -2
100
AcDbLine
 10
62.8444911646616
 20
29.13412080230927
 30
0.0
 11
62.8444911646616
 21
28.41412080230927
 31
0.0
  0
SOLID
  5
A86F
330
79DB
100
AcDbEntity
  8
DIM
 62
     0
100
AcDbTrace
 10
62.72449116466161
 20
31.81412080230928
 30
0.0
 11
62.9644911646616
 21
31.81412080230928
 31
0.0
 12
62.8444911646616
 22
31.09412080230928
 32
0.0
 13
62.8444911646616
 23
31.09412080230928
 33
0.0
  0
SOLID
  5
A870
330
79DB
100
AcDbEntity
  8
DIM
 62
     0
100
AcDbTrace
 10
62.72449116466161
 20
29.13412080230927
 30
0.0
 11
62.9644911646616
 21
29.13412080230927
 31
0.0
 12
62.8444911646616
 22
29.85412080230927
 32
0.0
 13
62.8444911646616
 23
29.85412080230927
 33
0.0
  0
MTEXT
  5
A871
330
79DB
100
AcDbEntity
  8
DIM
 62
     0
100
AcDbMText
 10
62.84449116466159
 20
30.47412080230929
 30
0.0
 40
0.5
 41
0.0
 71
     5
 72
     1
  1
\A1;0.310 DIA. C'BORE
 73
     1
 44
1.0
  0
POINT
  5
A872
330
79DB
100
AcDbEntity
  8
DEFPOINTS
 62
     0
100
AcDbPoint
 10
59.70049116466162
 20
31.09412080230928
 30
0.0
  0
POINT
  5
A873
330
79DB
100
AcDbEntity
  8
DEFPOINTS
 62
     0
100
AcDbPoint
 10
59.70049116466165
 20
29.85412080230927
 30
0.0
  0
POINT
  5
A874
330
79DB
100
AcDbEntity
  8
DEFPOINTS
 62
     0
100
AcDbPoint
 10
62.8444911646616
 20
29.85412080230927
 30
0.0
  0
ENDBLK
  5
79E7
330
79DB
100
AcDbEntity
  8
0
100
AcDbBlockEnd
  0
BLOCK
  5
94FF
330
94F4
100
AcDbEntity
  8
0
100
AcDbBlockBegin
  2
*D36
 70
     1
 10
0.0
 20
0.0
 30
0.0
  3
*D36
  1

  0
LINE
  5
A526
330
94F4
100
AcDbEntity
  8
DIM
 62
     0
370
    -2
100
AcDbLine
 10
14.23861220372621
 20
18.05778480874294
 30
0.0
 11
7.111809861192583
 21
18.05778480874294
 31
0.0
  0
LINE
  5
A527
330
94F4
100
AcDbEntity
  8
DIM
 62
     0
370
    -2
100
AcDbLine
 10
13.08744220372621
 20
16.60178480874295
 30
0.0
 11
7.111809861192583
 21
16.60178480874295
 31
0.0
  0
LINE
  5
A528
330
94F4
100
AcDbEntity
  8
DIM
 62
     0
370
    -2
100
AcDbLine
 10
7.483809861192583
 20
18.77778480874294
 30
0.0
 11
7.483809861192583
 21
19.49778480874295
 31
0.0
  0
LINE
  5
A529
330
94F4
100
AcDbEntity
  8
DIM
 62
     0
370
    -2
100
AcDbLine
 10
7.483809861192582
 20
15.88178480874295
 30
0.0
 11
7.483809861192582
 21
15.16178480874295
 31
0.0
  0
SOLID
  5
A52A
330
94F4
100
AcDbEntity
  8
DIM
 62
     0
100
AcDbTrace
 10
7.363809861192583
 20
18.77778480874294
 30
0.0
 11
7.603809861192583
 21
18.77778480874294
 31
0.0
 12
7.483809861192583
 22
18.05778480874294
 32
0.0
 13
7.483809861192583
 23
18.05778480874294
 33
0.0
  0
SOLID
  5
A52B
330
94F4
100
AcDbEntity
  8
DIM
 62
     0
100
AcDbTrace
 10
7.363809861192582
 20
15.88178480874295
 30
0.0
 11
7.603809861192583
 21
15.88178480874295
 31
0.0
 12
7.483809861192582
 22
16.60178480874295
 32
0.0
 13
7.483809861192582
 23
16.60178480874295
 33
0.0
  0
MTEXT
  5
A52C
330
94F4
100
AcDbEntity
  8
DIM
 62
     0
100
AcDbMText
 10
7.48380986119258
 20
17.32978480874295
 30
0.0
 40
0.5
 41
0.0
 71
     5
 72
     1
  1
\A1;1.456
 73
     1
 44
1.0
  0
POINT
  5
A52D
330
94F4
100
AcDbEntity
  8
DEFPOINTS
 62
     0
100
AcDbPoint
 10
14.49061220372621
 20
18.05778480874294
 30
0.0
  0
POINT
  5
A52E
330
94F4
100
AcDbEntity
  8
DEFPOINTS
 62
     0
100
AcDbPoint
 10
13.33944220372621
 20
16.60178480874295
 30
0.0
  0
POINT
  5
A52F
330
94F4
100
AcDbEntity
  8
DEFPOINTS
 62
     0
100
AcDbPoint
 10
7.483809861192582
 20
16.60178480874295
 30
0.0
  0
ENDBLK
  5
9500
330
94F4
100
AcDbEntity
  8
0
100
AcDbBlockEnd
  0
BLOCK
  5
9518
330
950C
100
AcDbEntity
  8
0
100
AcDbBlockBegin
  2
*D37
 70
     1
 10
0.0
 20
0.0
 30
0.0
  3
*D37
  1

  0
LINE
  5
A51C
330
950C
100
AcDbEntity
  8
DIM
 62
     0
370
    -2
100
AcDbLine
 10
13.08744220372621
 20
15.81678480874295
 30
0.0
 11
9.710850907523832
 21
15.81678480874295
 31
0.0
  0
LINE
  5
A51D
330
950C
100
AcDbEntity
  8
DIM
 62
     0
370
    -2
100
AcDbLine
 10
13.08744220372621
 20
15.03178480874294
 30
0.0
 11
9.710850907523832
 21
15.03178480874294
 31
0.0
  0
LINE
  5
A51E
330
950C
100
AcDbEntity
  8
DIM
 62
     0
370
    -2
100
AcDbLine
 10
10.08285090752383
 20
16.53678480874294
 30
0.0
 11
10.08285090752383
 21
17.25678480874295
 31
0.0
  0
LINE
  5
A51F
330
950C
100
AcDbEntity
  8
DIM
 62
     0
370
    -2
100
AcDbLine
 10
10.08285090752383
 20
14.31178480874294
 30
0.0
 11
10.08285090752383
 21
13.59178480874295
 31
0.0
  0
SOLID
  5
A520
330
950C
100
AcDbEntity
  8
DIM
 62
     0
100
AcDbTrace
 10
9.962850907523833
 20
16.53678480874294
 30
0.0
 11
10.20285090752383
 21
16.53678480874294
 31
0.0
 12
10.08285090752383
 22
15.81678480874295
 32
0.0
 13
10.08285090752383
 23
15.81678480874295
 33
0.0
  0
SOLID
  5
A521
330
950C
100
AcDbEntity
  8
DIM
 62
     0
100
AcDbTrace
 10
9.962850907523833
 20
14.31178480874294
 30
0.0
 11
10.20285090752383
 21
14.31178480874294
 31
0.0
 12
10.08285090752383
 22
15.03178480874294
 32
0.0
 13
10.08285090752383
 23
15.03178480874294
 33
0.0
  0
MTEXT
  5
A522
330
950C
100
AcDbEntity
  8
DIM
 62
     0
100
AcDbMText
 10
10.08285090752383
 20
15.42428480874295
 30
0.0
 40
0.5
 41
0.0
 71
     5
 72
     1
  1
\A1;0.785
 73
     1
 44
1.0
  0
POINT
  5
A523
330
950C
100
AcDbEntity
  8
DEFPOINTS
 62
     0
100
AcDbPoint
 10
13.33944220372621
 20
15.81678480874295
 30
0.0
  0
POINT
  5
A524
330
950C
100
AcDbEntity
  8
DEFPOINTS
 62
     0
100
AcDbPoint
 10
13.33944220372621
 20
15.03178480874294
 30
0.0
  0
POINT
  5
A525
330
950C
100
AcDbEntity
  8
DEFPOINTS
 62
     0
100
AcDbPoint
 10
10.08285090752383
 20
15.03178480874294
 30
0.0
  0
ENDBLK
  5
9519
330
950C
100
AcDbEntity
  8
0
100
AcDbBlockEnd
  0
BLOCK
  5
9ED1
330
9EC6
100
AcDbEntity
  8
0
100
AcDbBlockBegin
  2
*D38
 70
     1
 10
0.0
 20
0.0
 30
0.0
  3
*D38
  1

  0
LINE
  5
A54E
330
9EC6
100
AcDbEntity
  8
DIM
 62
     0
370
    -2
100
AcDbLine
 10
14.74261220372621
 20
22.34228480874294
 30
0.0
 11
15.30061220372621
 21
22.34228480874294
 31
0.0
  0
LINE
  5
A54F
330
9EC6
100
AcDbEntity
  8
DIM
 62
     0
370
    -2
100
AcDbLine
 10
14.74261220372621
 20
13.77228480874294
 30
0.0
 11
15.3006122037262
 21
13.77228480874294
 31
0.0
  0
LINE
  5
A550
330
9EC6
100
AcDbEntity
  8
DIM
 62
     0
370
    -2
100
AcDbLine
 10
14.92861220372621
 20
21.62228480874295
 30
0.0
 11
14.92861220372621
 21
19.41973226495537
 31
0.0
  0
LINE
  5
A551
330
9EC6
100
AcDbEntity
  8
DIM
 62
     0
370
    -2
100
AcDbLine
 10
14.92861220372621
 20
14.49228480874294
 30
0.0
 11
14.92861220372621
 21
18.19973226495537
 31
0.0
  0
SOLID
  5
A552
330
9EC6
100
AcDbEntity
  8
DIM
 62
     0
100
AcDbTrace
 10
14.80861220372621
 20
21.62228480874295
 30
0.0
 11
15.04861220372621
 21
21.62228480874295
 31
0.0
 12
14.92861220372621
 22
22.34228480874294
 32
0.0
 13
14.92861220372621
 23
22.34228480874294
 33
0.0
  0
SOLID
  5
A553
330
9EC6
100
AcDbEntity
  8
DIM
 62
     0
100
AcDbTrace
 10
14.80861220372621
 20
14.49228480874294
 30
0.0
 11
15.0486122037262
 21
14.49228480874294
 31
0.0
 12
14.92861220372621
 22
13.77228480874294
 32
0.0
 13
14.92861220372621
 23
13.77228480874294
 33
0.0
  0
MTEXT
  5
A554
330
9EC6
100
AcDbEntity
  8
DIM
 62
     0
100
AcDbMText
 10
14.9286122037262
 20
18.80973226495537
 30
0.0
 40
0.5
 41
0.0
 71
     5
 72
     1
  1
\A1;8.570
 73
     1
 44
1.0
  0
POINT
  5
A555
330
9EC6
100
AcDbEntity
  8
DEFPOINTS
 62
     0
100
AcDbPoint
 10
14.49061220372621
 20
22.34228480874294
 30
0.0
  0
POINT
  5
A556
330
9EC6
100
AcDbEntity
  8
DEFPOINTS
 62
     0
100
AcDbPoint
 10
14.49061220372621
 20
13.77228480874294
 30
0.0
  0
POINT
  5
A557
330
9EC6
100
AcDbEntity
  8
DEFPOINTS
 62
     0
100
AcDbPoint
 10
14.92861220372621
 20
13.77228480874294
 30
0.0
  0
ENDBLK
  5
9ED2
330
9EC6
100
AcDbEntity
  8
0
100
AcDbBlockEnd
  0
BLOCK
  5
9F83
330
9F78
100
AcDbEntity
  8
0
100
AcDbBlockBegin
  2
*D39
 70
     1
 10
0.0
 20
0.0
 30
0.0
  3
*D39
  1

  0
LINE
  5
AACE
330
9F78
100
AcDbEntity
  8
DIM
 62
     0
370
    -2
100
AcDbLine
 10
15.2756122037262
 20
22.59428480874294
 30
0.0
 11
15.2756122037262
 21
26.64032961169247
 31
0.0
  0
LINE
  5
AACF
330
9F78
100
AcDbEntity
  8
DIM
 62
     0
370
    -2
100
AcDbLine
 10
16.0606122037262
 20
22.59428480874294
 30
0.0
 11
16.0606122037262
 21
26.64032961169247
 31
0.0
  0
LINE
  5
AAD0
330
9F78
100
AcDbEntity
  8
DIM
 62
     0
370
    -2
100
AcDbLine
 10
14.5556122037262
 20
26.26832961169247
 30
0.0
 11
13.8356122037262
 21
26.26832961169247
 31
0.0
  0
LINE
  5
AAD1
330
9F78
100
AcDbEntity
  8
DIM
 62
     0
370
    -2
100
AcDbLine
 10
16.7806122037262
 20
26.26832961169247
 30
0.0
 11
17.5006122037262
 21
26.26832961169247
 31
0.0
  0
SOLID
  5
AAD2
330
9F78
100
AcDbEntity
  8
DIM
 62
     0
100
AcDbTrace
 10
14.5556122037262
 20
26.38832961169248
 30
0.0
 11
14.5556122037262
 21
26.14832961169247
 31
0.0
 12
15.2756122037262
 22
26.26832961169247
 32
0.0
 13
15.2756122037262
 23
26.26832961169247
 33
0.0
  0
SOLID
  5
AAD3
330
9F78
100
AcDbEntity
  8
DIM
 62
     0
100
AcDbTrace
 10
16.7806122037262
 20
26.38832961169248
 30
0.0
 11
16.7806122037262
 21
26.14832961169247
 31
0.0
 12
16.0606122037262
 22
26.26832961169247
 32
0.0
 13
16.0606122037262
 23
26.26832961169247
 33
0.0
  0
MTEXT
  5
AAD4
330
9F78
100
AcDbEntity
  8
DIM
 62
     0
100
AcDbMText
 10
18.5793622037262
 20
26.26832961169247
 30
0.0
 40
0.5
 41
0.0
 71
     5
 72
     1
  1
\A1;0.785
 73
     1
 44
1.0
  0
POINT
  5
AAD5
330
9F78
100
AcDbEntity
  8
DEFPOINTS
 62
     0
100
AcDbPoint
 10
15.2756122037262
 20
22.34228480874294
 30
0.0
  0
POINT
  5
AAD6
330
9F78
100
AcDbEntity
  8
DEFPOINTS
 62
     0
100
AcDbPoint
 10
16.0606122037262
 20
22.34228480874294
 30
0.0
  0
POINT
  5
AAD7
330
9F78
100
AcDbEntity
  8
DEFPOINTS
 62
     0
100
AcDbPoint
 10
16.0606122037262
 20
26.26832961169247
 30
0.0
  0
ENDBLK
  5
9F84
330
9F78
100
AcDbEntity
  8
0
100
AcDbBlockEnd
  0
BLOCK
  5
A0D8
330
A0CD
100
AcDbEntity
  8
0
100
AcDbBlockBegin
  2
*D40
 70
     1
 10
0.0
 20
0.0
 30
0.0
  3
*D40
  1

  0
LINE
  5
AAC4
330
A0CD
100
AcDbEntity
  8
DIM
 62
     0
370
    -2
100
AcDbLine
 10
13.50805220372621
 20
22.79181480874295
 30
0.0
 11
13.50805220372621
 21
29.89075516302147
 31
0.0
  0
LINE
  5
AAC5
330
A0CD
100
AcDbEntity
  8
DIM
 62
     0
370
    -2
100
AcDbLine
 10
17.0431722037262
 20
22.79181480874295
 30
0.0
 11
17.0431722037262
 21
29.89075516302147
 31
0.0
  0
LINE
  5
AAC6
330
A0CD
100
AcDbEntity
  8
DIM
 62
     0
370
    -2
100
AcDbLine
 10
12.78805220372621
 20
29.51875516302147
 30
0.0
 11
12.06805220372621
 21
29.51875516302147
 31
0.0
  0
LINE
  5
AAC7
330
A0CD
100
AcDbEntity
  8
DIM
 62
     0
370
    -2
100
AcDbLine
 10
17.7631722037262
 20
29.51875516302147
 30
0.0
 11
18.48317220372621
 21
29.51875516302147
 31
0.0
  0
SOLID
  5
AAC8
330
A0CD
100
AcDbEntity
  8
DIM
 62
     0
100
AcDbTrace
 10
12.78805220372621
 20
29.63875516302147
 30
0.0
 11
12.78805220372621
 21
29.39875516302146
 31
0.0
 12
13.50805220372621
 22
29.51875516302147
 32
0.0
 13
13.50805220372621
 23
29.51875516302147
 33
0.0
  0
SOLID
  5
AAC9
330
A0CD
100
AcDbEntity
  8
DIM
 62
     0
100
AcDbTrace
 10
17.7631722037262
 20
29.63875516302147
 30
0.0
 11
17.7631722037262
 21
29.39875516302146
 31
0.0
 12
17.0431722037262
 22
29.51875516302147
 32
0.0
 13
17.0431722037262
 23
29.51875516302147
 33
0.0
  0
MTEXT
  5
AACA
330
A0CD
100
AcDbEntity
  8
DIM
 62
     0
100
AcDbMText
 10
15.27561220372621
 20
29.51875516302147
 30
0.0
 40
0.5
 41
0.0
 71
     5
 72
     1
  1
\A1;3.535
 73
     1
 44
1.0
  0
POINT
  5
AACB
330
A0CD
100
AcDbEntity
  8
DEFPOINTS
 62
     0
100
AcDbPoint
 10
13.50805220372621
 20
22.53981480874295
 30
0.0
  0
POINT
  5
AACC
330
A0CD
100
AcDbEntity
  8
DEFPOINTS
 62
     0
100
AcDbPoint
 10
17.0431722037262
 20
22.53981480874295
 30
0.0
  0
POINT
  5
AACD
330
A0CD
100
AcDbEntity
  8
DEFPOINTS
 62
     0
100
AcDbPoint
 10
17.0431722037262
 20
29.51875516302147
 30
0.0
  0
ENDBLK
  5
A0D9
330
A0CD
100
AcDbEntity
  8
0
100
AcDbBlockEnd
  0
BLOCK
  5
A169
330
A15D
100
AcDbEntity
  8
0
100
AcDbBlockBegin
  2
*D41
 70
     1
 10
0.0
 20
0.0
 30
0.0
  3
*D41
  1

  0
LINE
  5
A508
330
A15D
100
AcDbEntity
  8
DIM
 62
     0
370
    -2
100
AcDbLine
 10
13.08744220372621
 20
15.03178480874294
 30
0.0
 11
8.222850907523833
 21
15.03178480874294
 31
0.0
  0
LINE
  5
A509
330
A15D
100
AcDbEntity
  8
DIM
 62
     0
370
    -2
100
AcDbLine
 10
13.08773220372621
 20
14.07524480874295
 30
0.0
 11
8.222850907523833
 21
14.07524480874296
 31
0.0
  0
LINE
  5
A50A
330
A15D
100
AcDbEntity
  8
DIM
 62
     0
370
    -2
100
AcDbLine
 10
8.594850907523833
 20
15.75178480874295
 30
0.0
 11
8.594850907523833
 21
16.47178480874294
 31
0.0
  0
LINE
  5
A50B
330
A15D
100
AcDbEntity
  8
DIM
 62
     0
370
    -2
100
AcDbLine
 10
8.594850907523833
 20
13.35524480874296
 30
0.0
 11
8.594850907523833
 21
12.63524480874296
 31
0.0
  0
SOLID
  5
A50C
330
A15D
100
AcDbEntity
  8
DIM
 62
     0
100
AcDbTrace
 10
8.474850907523833
 20
15.75178480874295
 30
0.0
 11
8.714850907523832
 21
15.75178480874295
 31
0.0
 12
8.594850907523833
 22
15.03178480874294
 32
0.0
 13
8.594850907523833
 23
15.03178480874294
 33
0.0
  0
SOLID
  5
A50D
330
A15D
100
AcDbEntity
  8
DIM
 62
     0
100
AcDbTrace
 10
8.474850907523833
 20
13.35524480874296
 30
0.0
 11
8.714850907523832
 21
13.35524480874296
 31
0.0
 12
8.594850907523833
 22
14.07524480874296
 32
0.0
 13
8.594850907523833
 23
14.07524480874296
 33
0.0
  0
MTEXT
  5
A50E
330
A15D
100
AcDbEntity
  8
DIM
 62
     0
100
AcDbMText
 10
8.594850907523831
 20
14.55351480874295
 30
0.0
 40
0.5
 41
0.0
 71
     5
 72
     1
  1
\A1;0.957
 73
     1
 44
1.0
  0
POINT
  5
A50F
330
A15D
100
AcDbEntity
  8
DEFPOINTS
 62
     0
100
AcDbPoint
 10
13.33944220372621
 20
15.03178480874294
 30
0.0
  0
POINT
  5
A510
330
A15D
100
AcDbEntity
  8
DEFPOINTS
 62
     0
100
AcDbPoint
 10
13.33973220372621
 20
14.07524480874295
 30
0.0
  0
POINT
  5
A511
330
A15D
100
AcDbEntity
  8
DEFPOINTS
 62
     0
100
AcDbPoint
 10
8.594850907523833
 20
14.07524480874296
 30
0.0
  0
ENDBLK
  5
A16A
330
A15D
100
AcDbEntity
  8
0
100
AcDbBlockEnd
  0
BLOCK
  5
A1F2
330
A1E7
100
AcDbEntity
  8
0
100
AcDbBlockBegin
  2
*D42
 70
     1
 10
0.0
 20
0.0
 30
0.0
  3
*D42
  1

  0
LINE
  5
A5C7
330
A1E7
100
AcDbEntity
  8
DIM
 62
     0
370
    -2
100
AcDbLine
 10
13.08744220372621
 20
20.29878480874294
 30
0.0
 11
10.08285090752383
 21
20.29878480874294
 31
0.0
  0
LINE
  5
A5C8
330
A1E7
100
AcDbEntity
  8
DIM
 62
     0
370
    -2
100
AcDbLine
 10
13.08744220372621
 20
21.08378480874294
 30
0.0
 11
10.08285090752383
 21
21.08378480874294
 31
0.0
  0
LINE
  5
A5C9
330
A1E7
100
AcDbEntity
  8
DIM
 62
     0
370
    -2
100
AcDbLine
 10
10.45485090752383
 20
19.57878480874294
 30
0.0
 11
10.45485090752383
 21
18.85878480874294
 31
0.0
  0
LINE
  5
A5CA
330
A1E7
100
AcDbEntity
  8
DIM
 62
     0
370
    -2
100
AcDbLine
 10
10.45485090752383
 20
21.80378480874293
 30
0.0
 11
10.45485090752383
 21
22.52378480874294
 31
0.0
  0
SOLID
  5
A5CB
330
A1E7
100
AcDbEntity
  8
DIM
 62
     0
100
AcDbTrace
 10
10.33485090752383
 20
19.57878480874294
 30
0.0
 11
10.57485090752383
 21
19.57878480874294
 31
0.0
 12
10.45485090752383
 22
20.29878480874294
 32
0.0
 13
10.45485090752383
 23
20.29878480874294
 33
0.0
  0
SOLID
  5
A5CC
330
A1E7
100
AcDbEntity
  8
DIM
 62
     0
100
AcDbTrace
 10
10.33485090752383
 20
21.80378480874293
 30
0.0
 11
10.57485090752383
 21
21.80378480874293
 31
0.0
 12
10.45485090752383
 22
21.08378480874294
 32
0.0
 13
10.45485090752383
 23
21.08378480874294
 33
0.0
  0
MTEXT
  5
A5CD
330
A1E7
100
AcDbEntity
  8
DIM
 62
     0
100
AcDbMText
 10
10.45485090752383
 20
20.69128480874294
 30
0.0
 40
0.5
 41
0.0
 71
     5
 72
     1
  1
\A1;0.785
 73
     1
 44
1.0
  0
POINT
  5
A5CE
330
A1E7
100
AcDbEntity
  8
DEFPOINTS
 62
     0
100
AcDbPoint
 10
13.33944220372621
 20
20.29878480874294
 30
0.0
  0
POINT
  5
A5CF
330
A1E7
100
AcDbEntity
  8
DEFPOINTS
 62
     0
100
AcDbPoint
 10
13.33944220372621
 20
21.08378480874294
 30
0.0
  0
POINT
  5
A5D0
330
A1E7
100
AcDbEntity
  8
DEFPOINTS
 62
     0
100
AcDbPoint
 10
10.45485090752383
 20
21.08378480874294
 30
0.0
  0
ENDBLK
  5
A1F3
330
A1E7
100
AcDbEntity
  8
0
100
AcDbBlockEnd
  0
BLOCK
  5
A1FF
330
A1F4
100
AcDbEntity
  8
0
100
AcDbBlockBegin
  2
*D43
 70
     1
 10
0.0
 20
0.0
 30
0.0
  3
*D43
  1

  0
LINE
  5
A5BD
330
A1F4
100
AcDbEntity
  8
DIM
 62
     0
370
    -2
100
AcDbLine
 10
13.08744220372621
 20
19.51378480874294
 30
0.0
 11
11.57085090752383
 21
19.51378480874294
 31
0.0
  0
LINE
  5
A5BE
330
A1F4
100
AcDbEntity
  8
DIM
 62
     0
370
    -2
100
AcDbLine
 10
13.08744220372621
 20
20.29878480874294
 30
0.0
 11
11.57085090752383
 21
20.29878480874294
 31
0.0
  0
LINE
  5
A5BF
330
A1F4
100
AcDbEntity
  8
DIM
 62
     0
370
    -2
100
AcDbLine
 10
11.94285090752383
 20
18.79378480874294
 30
0.0
 11
11.94285090752383
 21
18.07378480874294
 31
0.0
  0
LINE
  5
A5C0
330
A1F4
100
AcDbEntity
  8
DIM
 62
     0
370
    -2
100
AcDbLine
 10
11.94285090752383
 20
21.01878480874293
 30
0.0
 11
11.94285090752383
 21
21.73878480874294
 31
0.0
  0
SOLID
  5
A5C1
330
A1F4
100
AcDbEntity
  8
DIM
 62
     0
100
AcDbTrace
 10
11.82285090752383
 20
18.79378480874294
 30
0.0
 11
12.06285090752383
 21
18.79378480874294
 31
0.0
 12
11.94285090752383
 22
19.51378480874294
 32
0.0
 13
11.94285090752383
 23
19.51378480874294
 33
0.0
  0
SOLID
  5
A5C2
330
A1F4
100
AcDbEntity
  8
DIM
 62
     0
100
AcDbTrace
 10
11.82285090752383
 20
21.01878480874293
 30
0.0
 11
12.06285090752383
 21
21.01878480874293
 31
0.0
 12
11.94285090752383
 22
20.29878480874294
 32
0.0
 13
11.94285090752383
 23
20.29878480874294
 33
0.0
  0
MTEXT
  5
A5C3
330
A1F4
100
AcDbEntity
  8
DIM
 62
     0
100
AcDbMText
 10
11.94285090752382
 20
19.90628480874294
 30
0.0
 40
0.5
 41
0.0
 71
     5
 72
     1
  1
\A1;0.785
 73
     1
 44
1.0
  0
POINT
  5
A5C4
330
A1F4
100
AcDbEntity
  8
DEFPOINTS
 62
     0
100
AcDbPoint
 10
13.33944220372621
 20
19.51378480874294
 30
0.0
  0
POINT
  5
A5C5
330
A1F4
100
AcDbEntity
  8
DEFPOINTS
 62
     0
100
AcDbPoint
 10
13.33944220372621
 20
20.29878480874294
 30
0.0
  0
POINT
  5
A5C6
330
A1F4
100
AcDbEntity
  8
DEFPOINTS
 62
     0
100
AcDbPoint
 10
11.94285090752383
 20
20.29878480874294
 30
0.0
  0
ENDBLK
  5
A200
330
A1F4
100
AcDbEntity
  8
0
100
AcDbBlockEnd
  0
BLOCK
  5
A20C
330
A201
100
AcDbEntity
  8
0
100
AcDbBlockBegin
  2
*D44
 70
     1
 10
0.0
 20
0.0
 30
0.0
  3
*D44
  1

  0
LINE
  5
A58B
330
A201
100
AcDbEntity
  8
DIM
 62
     0
370
    -2
100
AcDbLine
 10
13.08744220372621
 20
21.08378480874294
 30
0.0
 11
8.594850907523834
 21
21.08378480874294
 31
0.0
  0
LINE
  5
A58C
330
A201
100
AcDbEntity
  8
DIM
 62
     0
370
    -2
100
AcDbLine
 10
13.08773220372621
 20
22.04032480874293
 30
0.0
 11
8.594850907523834
 21
22.04032480874293
 31
0.0
  0
LINE
  5
A58D
330
A201
100
AcDbEntity
  8
DIM
 62
     0
370
    -2
100
AcDbLine
 10
8.966850907523834
 20
20.36378480874294
 30
0.0
 11
8.966850907523832
 21
19.64378480874294
 31
0.0
  0
LINE
  5
A58E
330
A201
100
AcDbEntity
  8
DIM
 62
     0
370
    -2
100
AcDbLine
 10
8.966850907523834
 20
22.76032480874293
 30
0.0
 11
8.966850907523834
 21
23.48032480874293
 31
0.0
  0
SOLID
  5
A58F
330
A201
100
AcDbEntity
  8
DIM
 62
     0
100
AcDbTrace
 10
8.846850907523835
 20
20.36378480874294
 30
0.0
 11
9.086850907523833
 21
20.36378480874294
 31
0.0
 12
8.966850907523834
 22
21.08378480874294
 32
0.0
 13
8.966850907523834
 23
21.08378480874294
 33
0.0
  0
SOLID
  5
A590
330
A201
100
AcDbEntity
  8
DIM
 62
     0
100
AcDbTrace
 10
8.846850907523835
 20
22.76032480874293
 30
0.0
 11
9.086850907523833
 21
22.76032480874293
 31
0.0
 12
8.966850907523834
 22
22.04032480874293
 32
0.0
 13
8.966850907523834
 23
22.04032480874293
 33
0.0
  0
MTEXT
  5
A591
330
A201
100
AcDbEntity
  8
DIM
 62
     0
100
AcDbMText
 10
8.966850907523831
 20
21.56205480874294
 30
0.0
 40
0.5
 41
0.0
 71
     5
 72
     1
  1
\A1;0.957
 73
     1
 44
1.0
  0
POINT
  5
A592
330
A201
100
AcDbEntity
  8
DEFPOINTS
 62
     0
100
AcDbPoint
 10
13.33944220372621
 20
21.08378480874294
 30
0.0
  0
POINT
  5
A593
330
A201
100
AcDbEntity
  8
DEFPOINTS
 62
     0
100
AcDbPoint
 10
13.33973220372621
 20
22.04032480874293
 30
0.0
  0
POINT
  5
A594
330
A201
100
AcDbEntity
  8
DEFPOINTS
 62
     0
100
AcDbPoint
 10
8.966850907523834
 20
22.04032480874293
 30
0.0
  0
ENDBLK
  5
A20D
330
A201
100
AcDbEntity
  8
0
100
AcDbBlockEnd
  0
BLOCK
  5
A281
330
A275
100
AcDbEntity
  8
0
100
AcDbBlockBegin
  2
*D45
 70
     1
 10
0.0
 20
0.0
 30
0.0
  3
*D45
  1

  0
LINE
  5
A5E5
330
A275
100
AcDbEntity
  8
DIM
 62
     0
370
    -2
100
AcDbLine
 10
17.2951722037262
 20
22.53981480874295
 30
0.0
 11
23.50566558825487
 21
22.53981480874295
 31
0.0
  0
LINE
  5
A5E6
330
A275
100
AcDbEntity
  8
DIM
 62
     0
370
    -2
100
AcDbLine
 10
17.63771720372621
 20
22.77319480874296
 30
0.0
 11
23.50566558825487
 21
22.77319480874296
 31
0.0
  0
LINE
  5
A5E7
330
A275
100
AcDbEntity
  8
DIM
 62
     0
370
    -2
100
AcDbLine
 10
23.13366558825487
 20
21.81981480874296
 30
0.0
 11
23.13366558825487
 21
21.09981480874295
 31
0.0
  0
LINE
  5
A5E8
330
A275
100
AcDbEntity
  8
DIM
 62
     0
370
    -2
100
AcDbLine
 10
23.13366558825487
 20
23.49319480874296
 30
0.0
 11
23.13366558825487
 21
24.21319480874296
 31
0.0
  0
LINE
  5
A5E9
330
A275
100
AcDbEntity
  8
DIM
 62
     0
370
    -2
100
AcDbLine
 10
23.13366558825487
 20
24.21319480874296
 30
0.0
 11
23.85366558825487
 21
24.21319480874296
 31
0.0
  0
SOLID
  5
A5EA
330
A275
100
AcDbEntity
  8
DIM
 62
     0
100
AcDbTrace
 10
23.01366558825487
 20
21.81981480874296
 30
0.0
 11
23.25366558825487
 21
21.81981480874296
 31
0.0
 12
23.13366558825487
 22
22.53981480874295
 32
0.0
 13
23.13366558825487
 23
22.53981480874295
 33
0.0
  0
SOLID
  5
A5EB
330
A275
100
AcDbEntity
  8
DIM
 62
     0
100
AcDbTrace
 10
23.01366558825487
 20
23.49319480874296
 30
0.0
 11
23.25366558825487
 21
23.49319480874296
 31
0.0
 12
23.13366558825487
 22
22.77319480874296
 32
0.0
 13
23.13366558825487
 23
22.77319480874296
 33
0.0
  0
MTEXT
  5
A5EC
330
A275
100
AcDbEntity
  8
DIM
 62
     0
100
AcDbMText
 10
24.93241558825486
 20
24.21319480874297
 30
0.0
 40
0.5
 41
0.0
 71
     5
 72
     1
  1
\A1;0.233
 73
     1
 44
1.0
  0
POINT
  5
A5ED
330
A275
100
AcDbEntity
  8
DEFPOINTS
 62
     0
100
AcDbPoint
 10
17.0431722037262
 20
22.53981480874295
 30
0.0
  0
POINT
  5
A5EE
330
A275
100
AcDbEntity
  8
DEFPOINTS
 62
     0
100
AcDbPoint
 10
17.38571720372621
 20
22.77319480874296
 30
0.0
  0
POINT
  5
A5EF
330
A275
100
AcDbEntity
  8
DEFPOINTS
 62
     0
100
AcDbPoint
 10
23.13366558825487
 20
22.77319480874296
 30
0.0
  0
ENDBLK
  5
A282
330
A275
100
AcDbEntity
  8
0
100
AcDbBlockEnd
  0
BLOCK
  5
A2EC
330
A2E1
100
AcDbEntity
  8
0
100
AcDbBlockBegin
  2
*D46
 70
     1
 10
0.0
 20
0.0
 30
0.0
  3
*D46
  1

  0
LINE
  5
A4E0
330
A2E1
100
AcDbEntity
  8
DIM
 62
     0
370
    -2
100
AcDbLine
 10
17.5159222037262
 20
19.93278701597038
 30
0.0
 11
17.5159222037262
 21
19.56078701597038
 31
0.0
  0
LINE
  5
A4E1
330
A2E1
100
AcDbEntity
  8
DIM
 62
     0
370
    -2
100
AcDbLine
 10
17.6357172037262
 20
19.93278701597038
 30
0.0
 11
17.6357172037262
 21
19.56078701597038
 31
0.0
  0
LINE
  5
A4E2
330
A2E1
100
AcDbEntity
  8
DIM
 62
     0
370
    -2
100
AcDbLine
 10
16.7959222037262
 20
19.93278701597038
 30
0.0
 11
16.0759222037262
 21
19.93278701597038
 31
0.0
  0
LINE
  5
A4E3
330
A2E1
100
AcDbEntity
  8
DIM
 62
     0
370
    -2
100
AcDbLine
 10
18.3557172037262
 20
19.93278701597038
 30
0.0
 11
19.0757172037262
 21
19.93278701597038
 31
0.0
  0
SOLID
  5
A4E4
330
A2E1
100
AcDbEntity
  8
DIM
 62
     0
100
AcDbTrace
 10
16.7959222037262
 20
20.05278701597038
 30
0.0
 11
16.7959222037262
 21
19.81278701597037
 31
0.0
 12
17.5159222037262
 22
19.93278701597038
 32
0.0
 13
17.5159222037262
 23
19.93278701597038
 33
0.0
  0
SOLID
  5
A4E5
330
A2E1
100
AcDbEntity
  8
DIM
 62
     0
100
AcDbTrace
 10
18.3557172037262
 20
20.05278701597038
 30
0.0
 11
18.3557172037262
 21
19.81278701597037
 31
0.0
 12
17.6357172037262
 22
19.93278701597038
 32
0.0
 13
17.6357172037262
 23
19.93278701597038
 33
0.0
  0
MTEXT
  5
A4E6
330
A2E1
100
AcDbEntity
  8
DIM
 62
     0
100
AcDbMText
 10
20.0607172037262
 20
19.93278701597038
 30
0.0
 40
0.5
 41
0.0
 71
     5
 72
     1
  1
\A1;0.120\PTYP.
 73
     1
 44
1.0
  0
POINT
  5
A4E7
330
A2E1
100
AcDbEntity
  8
DEFPOINTS
 62
     0
100
AcDbPoint
 10
17.5159222037262
 20
20.18478701597037
 30
0.0
  0
POINT
  5
A4E8
330
A2E1
100
AcDbEntity
  8
DEFPOINTS
 62
     0
100
AcDbPoint
 10
17.6357172037262
 20
20.18478701597037
 30
0.0
  0
POINT
  5
A4E9
330
A2E1
100
AcDbEntity
  8
DEFPOINTS
 62
     0
100
AcDbPoint
 10
17.6357172037262
 20
19.93278701597038
 30
0.0
  0
ENDBLK
  5
A2ED
330
A2E1
100
AcDbEntity
  8
0
100
AcDbBlockEnd
  0
BLOCK
  5
A39F
330
A393
100
AcDbEntity
  8
0
100
AcDbBlockBegin
  2
*D47
 70
     1
 10
0.0
 20
0.0
 30
0.0
  3
*D47
  1

  0
LINE
  5
A8D9
330
A393
100
AcDbEntity
  8
DIM
 62
     0
370
    -2
100
AcDbLine
 10
29.39284150483923
 20
22.45123230874294
 30
0.0
 11
30.40874325055084
 21
22.45123230874294
 31
0.0
  0
LINE
  5
A8DA
330
A393
100
AcDbEntity
  8
DIM
 62
     0
370
    -2
100
AcDbLine
 10
29.39284150483923
 20
22.62839730874293
 30
0.0
 11
30.40874325055084
 21
22.62839730874293
 31
0.0
  0
LINE
  5
A8DB
330
A393
100
AcDbEntity
  8
DIM
 62
     0
370
    -2
100
AcDbLine
 10
30.03674325055084
 20
21.73123230874295
 30
0.0
 11
30.03674325055084
 21
21.01123230874294
 31
0.0
  0
LINE
  5
A8DC
330
A393
100
AcDbEntity
  8
DIM
 62
     0
370
    -2
100
AcDbLine
 10
30.03674325055084
 20
23.34839730874293
 30
0.0
 11
30.03674325055084
 21
24.06839730874294
 31
0.0
  0
LINE
  5
A8DD
330
A393
100
AcDbEntity
  8
DIM
 62
     0
370
    -2
100
AcDbLine
 10
30.03674325055084
 20
24.06839730874294
 30
0.0
 11
30.75674325055084
 21
24.06839730874294
 31
0.0
  0
SOLID
  5
A8DE
330
A393
100
AcDbEntity
  8
DIM
 62
     0
100
AcDbTrace
 10
29.91674325055084
 20
21.73123230874295
 30
0.0
 11
30.15674325055084
 21
21.73123230874295
 31
0.0
 12
30.03674325055084
 22
22.45123230874294
 32
0.0
 13
30.03674325055084
 23
22.45123230874294
 33
0.0
  0
SOLID
  5
A8DF
330
A393
100
AcDbEntity
  8
DIM
 62
     0
100
AcDbTrace
 10
29.91674325055084
 20
23.34839730874293
 30
0.0
 11
30.15674325055084
 21
23.34839730874293
 31
0.0
 12
30.03674325055084
 22
22.62839730874293
 32
0.0
 13
30.03674325055084
 23
22.62839730874293
 33
0.0
  0
MTEXT
  5
A8E0
330
A393
100
AcDbEntity
  8
DIM
 62
     0
100
AcDbMText
 10
32.80424325055084
 20
24.06839730874294
 30
0.0
 40
0.5
 41
0.0
 71
     5
 72
     1
  1
\A1;0.177 DIA.\P(4) PLACES
 73
     1
 44
1.0
  0
POINT
  5
A8E1
330
A393
100
AcDbEntity
  8
DEFPOINTS
 62
     0
100
AcDbPoint
 10
29.14084150483923
 20
22.45123230874294
 30
0.0
  0
POINT
  5
A8E2
330
A393
100
AcDbEntity
  8
DEFPOINTS
 62
     0
100
AcDbPoint
 10
29.14084150483923
 20
22.62839730874293
 30
0.0
  0
POINT
  5
A8E3
330
A393
100
AcDbEntity
  8
DEFPOINTS
 62
     0
100
AcDbPoint
 10
30.03674325055084
 20
22.62839730874293
 30
0.0
  0
ENDBLK
  5
A3A0
330
A393
100
AcDbEntity
  8
0
100
AcDbBlockEnd
  0
BLOCK
  5
A3B8
330
A3AD
100
AcDbEntity
  8
0
100
AcDbBlockBegin
  2
*D48
 70
     1
 10
0.0
 20
0.0
 30
0.0
  3
*D48
  1

  0
LINE
  5
A8CF
330
A3AD
100
AcDbEntity
  8
DIM
 62
     0
370
    -2
100
AcDbLine
 10
29.01104650483924
 20
18.88155679171258
 30
0.0
 11
29.01104650483924
 21
19.25355679171258
 31
0.0
  0
LINE
  5
A8D0
330
A3AD
100
AcDbEntity
  8
DIM
 62
     0
370
    -2
100
AcDbLine
 10
29.14084150483923
 20
18.88155679171258
 30
0.0
 11
29.14084150483923
 21
19.25355679171258
 31
0.0
  0
LINE
  5
A8D1
330
A3AD
100
AcDbEntity
  8
DIM
 62
     0
370
    -2
100
AcDbLine
 10
28.29104650483924
 20
18.88155679171258
 30
0.0
 11
27.57104650483924
 21
18.88155679171258
 31
0.0
  0
LINE
  5
A8D2
330
A3AD
100
AcDbEntity
  8
DIM
 62
     0
370
    -2
100
AcDbLine
 10
29.86084150483923
 20
18.88155679171258
 30
0.0
 11
30.58084150483923
 21
18.88155679171258
 31
0.0
  0
SOLID
  5
A8D3
330
A3AD
100
AcDbEntity
  8
DIM
 62
     0
100
AcDbTrace
 10
28.29104650483924
 20
19.00155679171258
 30
0.0
 11
28.29104650483924
 21
18.76155679171258
 31
0.0
 12
29.01104650483924
 22
18.88155679171258
 32
0.0
 13
29.01104650483924
 23
18.88155679171258
 33
0.0
  0
SOLID
  5
A8D4
330
A3AD
100
AcDbEntity
  8
DIM
 62
     0
100
AcDbTrace
 10
29.86084150483923
 20
19.00155679171258
 30
0.0
 11
29.86084150483923
 21
18.76155679171258
 31
0.0
 12
29.14084150483923
 22
18.88155679171258
 32
0.0
 13
29.14084150483923
 23
18.88155679171258
 33
0.0
  0
MTEXT
  5
A8D5
330
A3AD
100
AcDbEntity
  8
DIM
 62
     0
100
AcDbMText
 10
31.56584150483923
 20
18.88155679171258
 30
0.0
 40
0.5
 41
0.0
 71
     5
 72
     1
  1
\A1;0.130
 73
     1
 44
1.0
  0
POINT
  5
A8D6
330
A3AD
100
AcDbEntity
  8
DEFPOINTS
 62
     0
100
AcDbPoint
 10
29.01104650483924
 20
18.62955679171258
 30
0.0
  0
POINT
  5
A8D7
330
A3AD
100
AcDbEntity
  8
DEFPOINTS
 62
     0
100
AcDbPoint
 10
29.14084150483923
 20
18.62955679171258
 30
0.0
  0
POINT
  5
A8D8
330
A3AD
100
AcDbEntity
  8
DEFPOINTS
 62
     0
100
AcDbPoint
 10
29.14084150483923
 20
18.88155679171258
 30
0.0
  0
ENDBLK
  5
A3B9
330
A3AD
100
AcDbEntity
  8
0
100
AcDbBlockEnd
  0
BLOCK
  5
A420
330
A415
100
AcDbEntity
  8
0
100
AcDbBlockBegin
  2
*D49
 70
     1
 10
0.0
 20
0.0
 30
0.0
  3
*D49
  1

  0
LINE
  5
A5DB
330
A415
100
AcDbEntity
  8
DIM
 62
     0
370
    -2
100
AcDbLine
 10
17.6739222037262
 20
13.80681480874294
 30
0.0
 11
21.56922821149025
 21
13.80681480874294
 31
0.0
  0
LINE
  5
A5DC
330
A415
100
AcDbEntity
  8
DIM
 62
     0
370
    -2
100
AcDbLine
 10
17.6739222037262
 20
22.30875480874294
 30
0.0
 11
21.56922821149025
 21
22.30875480874294
 31
0.0
  0
LINE
  5
A5DD
330
A415
100
AcDbEntity
  8
DIM
 62
     0
370
    -2
100
AcDbLine
 10
21.19722821149025
 20
14.52681480874294
 30
0.0
 11
21.19722821149025
 21
17.44778480874295
 31
0.0
  0
LINE
  5
A5DE
330
A415
100
AcDbEntity
  8
DIM
 62
     0
370
    -2
100
AcDbLine
 10
21.19722821149025
 20
21.58875480874294
 30
0.0
 11
21.19722821149025
 21
18.66778480874294
 31
0.0
  0
SOLID
  5
A5DF
330
A415
100
AcDbEntity
  8
DIM
 62
     0
100
AcDbTrace
 10
21.07722821149025
 20
14.52681480874294
 30
0.0
 11
21.31722821149025
 21
14.52681480874294
 31
0.0
 12
21.19722821149025
 22
13.80681480874294
 32
0.0
 13
21.19722821149025
 23
13.80681480874294
 33
0.0
  0
SOLID
  5
A5E0
330
A415
100
AcDbEntity
  8
DIM
 62
     0
100
AcDbTrace
 10
21.07722821149025
 20
21.58875480874294
 30
0.0
 11
21.31722821149025
 21
21.58875480874294
 31
0.0
 12
21.19722821149025
 22
22.30875480874294
 32
0.0
 13
21.19722821149025
 23
22.30875480874294
 33
0.0
  0
MTEXT
  5
A5E1
330
A415
100
AcDbEntity
  8
DIM
 62
     0
100
AcDbMText
 10
21.19722821149025
 20
18.05778480874295
 30
0.0
 40
0.5
 41
0.0
 71
     5
 72
     1
  1
\A1;8.502
 73
     1
 44
1.0
  0
POINT
  5
A5E2
330
A415
100
AcDbEntity
  8
DEFPOINTS
 62
     0
100
AcDbPoint
 10
17.4219222037262
 20
13.80681480874294
 30
0.0
  0
POINT
  5
A5E3
330
A415
100
AcDbEntity
  8
DEFPOINTS
 62
     0
100
AcDbPoint
 10
17.4219222037262
 20
22.30875480874294
 30
0.0
  0
POINT
  5
A5E4
330
A415
100
AcDbEntity
  8
DEFPOINTS
 62
     0
100
AcDbPoint
 10
21.19722821149025
 20
22.30875480874294
 30
0.0
  0
ENDBLK
  5
A421
330
A415
100
AcDbEntity
  8
0
100
AcDbBlockEnd
  0
BLOCK
  5
A443
330
A437
100
AcDbEntity
  8
0
100
AcDbBlockBegin
  2
*D50
 70
     1
 10
0.0
 20
0.0
 30
0.0
  3
*D50
  1

  0
LINE
  5
A5F0
330
A437
100
AcDbEntity
  8
DIM
 62
     0
370
    -2
100
AcDbLine
 10
17.6739222037262
 20
22.30875480874294
 30
0.0
 11
20.07005958816101
 21
22.30875480874294
 31
0.0
  0
LINE
  5
A5F1
330
A437
100
AcDbEntity
  8
DIM
 62
     0
370
    -2
100
AcDbLine
 10
17.63771720372621
 20
22.77219480874294
 30
0.0
 11
20.07005958816101
 21
22.77219480874294
 31
0.0
  0
LINE
  5
A5F2
330
A437
100
AcDbEntity
  8
DIM
 62
     0
370
    -2
100
AcDbLine
 10
19.69805958816101
 20
21.58875480874294
 30
0.0
 11
19.69805958816101
 21
20.86875480874294
 31
0.0
  0
LINE
  5
A5F3
330
A437
100
AcDbEntity
  8
DIM
 62
     0
370
    -2
100
AcDbLine
 10
19.69805958816101
 20
23.49219480874294
 30
0.0
 11
19.69805958816102
 21
24.21219480874294
 31
0.0
  0
LINE
  5
A5F4
330
A437
100
AcDbEntity
  8
DIM
 62
     0
370
    -2
100
AcDbLine
 10
19.69805958816102
 20
24.21219480874294
 30
0.0
 11
20.41805958816101
 21
24.21219480874294
 31
0.0
  0
SOLID
  5
A5F5
330
A437
100
AcDbEntity
  8
DIM
 62
     0
100
AcDbTrace
 10
19.57805958816101
 20
21.58875480874294
 30
0.0
 11
19.81805958816101
 21
21.58875480874294
 31
0.0
 12
19.69805958816101
 22
22.30875480874294
 32
0.0
 13
19.69805958816101
 23
22.30875480874294
 33
0.0
  0
SOLID
  5
A5F6
330
A437
100
AcDbEntity
  8
DIM
 62
     0
100
AcDbTrace
 10
19.57805958816101
 20
23.49219480874294
 30
0.0
 11
19.81805958816101
 21
23.49219480874294
 31
0.0
 12
19.69805958816101
 22
22.77219480874294
 32
0.0
 13
19.69805958816101
 23
22.77219480874294
 33
0.0
  0
MTEXT
  5
A5F7
330
A437
100
AcDbEntity
  8
DIM
 62
     0
100
AcDbMText
 10
21.49680958816101
 20
24.21219480874295
 30
0.0
 40
0.5
 41
0.0
 71
     5
 72
     1
  1
\A1;0.463
 73
     1
 44
1.0
  0
POINT
  5
A5F8
330
A437
100
AcDbEntity
  8
DEFPOINTS
 62
     0
100
AcDbPoint
 10
17.4219222037262
 20
22.30875480874294
 30
0.0
  0
POINT
  5
A5F9
330
A437
100
AcDbEntity
  8
DEFPOINTS
 62
     0
100
AcDbPoint
 10
17.38571720372621
 20
22.77219480874294
 30
0.0
  0
POINT
  5
A5FA
330
A437
100
AcDbEntity
  8
DEFPOINTS
 62
     0
100
AcDbPoint
 10
19.69805958816101
 20
22.77219480874294
 30
0.0
  0
ENDBLK
  5
A444
330
A437
100
AcDbEntity
  8
0
100
AcDbBlockEnd
  0
BLOCK
  5
A6BF
330
A6B4
100
AcDbEntity
  8
0
100
AcDbBlockBegin
  2
*D51
 70
     1
 10
0.0
 20
0.0
 30
0.0
  3
*D51
  1

  0
LINE
  5
A895
330
A6B4
100
AcDbEntity
  8
DIM
 62
     0
370
    -2
100
AcDbLine
 10
55.72228716466164
 20
33.15444270513529
 30
0.0
 11
55.72228716466164
 21
34.90378540908314
 31
0.0
  0
LINE
  5
A896
330
A6B4
100
AcDbEntity
  8
DIM
 62
     0
370
    -2
100
AcDbLine
 10
56.12228716466165
 20
31.60036080230929
 30
0.0
 11
56.12228716466165
 21
34.90378540908314
 31
0.0
  0
LINE
  5
A897
330
A6B4
100
AcDbEntity
  8
DIM
 62
     0
370
    -2
100
AcDbLine
 10
55.00228716466164
 20
34.53178540908314
 30
0.0
 11
54.28228716466165
 21
34.53178540908314
 31
0.0
  0
LINE
  5
A898
330
A6B4
100
AcDbEntity
  8
DIM
 62
     0
370
    -2
100
AcDbLine
 10
56.84228716466165
 20
34.53178540908314
 30
0.0
 11
57.56228716466164
 21
34.53178540908314
 31
0.0
  0
SOLID
  5
A899
330
A6B4
100
AcDbEntity
  8
DIM
 62
     0
100
AcDbTrace
 10
55.00228716466164
 20
34.65178540908314
 30
0.0
 11
55.00228716466164
 21
34.41178540908314
 31
0.0
 12
55.72228716466164
 22
34.53178540908314
 32
0.0
 13
55.72228716466164
 23
34.53178540908314
 33
0.0
  0
SOLID
  5
A89A
330
A6B4
100
AcDbEntity
  8
DIM
 62
     0
100
AcDbTrace
 10
56.84228716466165
 20
34.65178540908314
 30
0.0
 11
56.84228716466165
 21
34.41178540908314
 31
0.0
 12
56.12228716466165
 22
34.53178540908314
 32
0.0
 13
56.12228716466165
 23
34.53178540908314
 33
0.0
  0
MTEXT
  5
A89B
330
A6B4
100
AcDbEntity
  8
DIM
 62
     0
100
AcDbMText
 10
58.51603716466165
 20
34.53178540908314
 30
0.0
 40
0.5
 41
0.0
 71
     5
 72
     1
  1
\A1;0.100
 73
     1
 44
1.0
  0
POINT
  5
A89C
330
A6B4
100
AcDbEntity
  8
DEFPOINTS
 62
     0
100
AcDbPoint
 10
55.72228716466164
 20
32.90244270513529
 30
0.0
  0
POINT
  5
A89D
330
A6B4
100
AcDbEntity
  8
DEFPOINTS
 62
     0
100
AcDbPoint
 10
56.12228716466165
 20
31.34836080230929
 30
0.0
  0
POINT
  5
A89E
330
A6B4
100
AcDbEntity
  8
DEFPOINTS
 62
     0
100
AcDbPoint
 10
56.12228716466165
 20
34.53178540908314
 30
0.0
  0
ENDBLK
  5
A6C0
330
A6B4
100
AcDbEntity
  8
0
100
AcDbBlockEnd
  0
BLOCK
  5
A6CE
330
A6C2
100
AcDbEntity
  8
0
100
AcDbBlockBegin
  2
*D52
 70
     1
 10
0.0
 20
0.0
 30
0.0
  3
*D52
  1

  0
LINE
  5
A880
330
A6C2
100
AcDbEntity
  8
DIM
 62
     0
370
    -2
100
AcDbLine
 10
55.47028716466164
 20
30.82412080230927
 30
0.0
 11
54.40242720006496
 21
30.82412080230927
 31
0.0
  0
LINE
  5
A881
330
A6C2
100
AcDbEntity
  8
DIM
 62
     0
370
    -2
100
AcDbLine
 10
55.47028716466164
 20
30.12412080230928
 30
0.0
 11
54.40242720006496
 21
30.12412080230928
 31
0.0
  0
LINE
  5
A882
330
A6C2
100
AcDbEntity
  8
DIM
 62
     0
370
    -2
100
AcDbLine
 10
54.77442720006497
 20
31.54412080230927
 30
0.0
 11
54.77442720006497
 21
32.26412080230927
 31
0.0
  0
LINE
  5
A883
330
A6C2
100
AcDbEntity
  8
DIM
 62
     0
370
    -2
100
AcDbLine
 10
54.77442720006497
 20
29.40412080230928
 30
0.0
 11
54.77442720006497
 21
28.68412080230928
 31
0.0
  0
LINE
  5
A884
330
A6C2
100
AcDbEntity
  8
DIM
 62
     0
370
    -2
100
AcDbLine
 10
54.77442720006497
 20
28.68412080230928
 30
0.0
 11
54.05442720006496
 21
28.68412080230928
 31
0.0
  0
SOLID
  5
A885
330
A6C2
100
AcDbEntity
  8
DIM
 62
     0
100
AcDbTrace
 10
54.65442720006496
 20
31.54412080230927
 30
0.0
 11
54.89442720006496
 21
31.54412080230927
 31
0.0
 12
54.77442720006497
 22
30.82412080230927
 32
0.0
 13
54.77442720006497
 23
30.82412080230927
 33
0.0
  0
SOLID
  5
A886
330
A6C2
100
AcDbEntity
  8
DIM
 62
     0
100
AcDbTrace
 10
54.65442720006496
 20
29.40412080230928
 30
0.0
 11
54.89442720006496
 21
29.40412080230928
 31
0.0
 12
54.77442720006497
 22
30.12412080230928
 32
0.0
 13
54.77442720006497
 23
30.12412080230928
 33
0.0
  0
MTEXT
  5
A887
330
A6C2
100
AcDbEntity
  8
DIM
 62
     0
100
AcDbMText
 10
52.28817720006496
 20
28.68412080230928
 30
0.0
 40
0.5
 41
0.0
 71
     5
 72
     1
  1
\A1;0.175 DIA.
 73
     1
 44
1.0
  0
POINT
  5
A888
330
A6C2
100
AcDbEntity
  8
DEFPOINTS
 62
     0
100
AcDbPoint
 10
55.72228716466164
 20
30.82412080230927
 30
0.0
  0
POINT
  5
A889
330
A6C2
100
AcDbEntity
  8
DEFPOINTS
 62
     0
100
AcDbPoint
 10
55.72228716466164
 20
30.12412080230928
 30
0.0
  0
POINT
  5
A88A
330
A6C2
100
AcDbEntity
  8
DEFPOINTS
 62
     0
100
AcDbPoint
 10
54.77442720006497
 20
30.12412080230928
 30
0.0
  0
ENDBLK
  5
A6CF
330
A6C2
100
AcDbEntity
  8
0
100
AcDbBlockEnd
  0
BLOCK
  5
A6DC
330
A6D1
100
AcDbEntity
  8
0
100
AcDbBlockBegin
  2
*D53
 70
     1
 10
0.0
 20
0.0
 30
0.0
  3
*D53
  1

  0
LINE
  5
A88B
330
A6D1
100
AcDbEntity
  8
DIM
 62
     0
370
    -2
100
AcDbLine
 10
57.66049116466163
 20
29.60212080230927
 30
0.0
 11
57.66049116466163
 21
28.3495886686865
 31
0.0
  0
LINE
  5
A88C
330
A6D1
100
AcDbEntity
  8
DIM
 62
     0
370
    -2
100
AcDbLine
 10
59.70049116466167
 20
29.56460080230927
 30
0.0
 11
59.70049116466167
 21
28.3495886686865
 31
0.0
  0
LINE
  5
A88D
330
A6D1
100
AcDbEntity
  8
DIM
 62
     0
370
    -2
100
AcDbLine
 10
56.94049116466163
 20
28.7215886686865
 30
0.0
 11
56.22049116466163
 21
28.7215886686865
 31
0.0
  0
LINE
  5
A88E
330
A6D1
100
AcDbEntity
  8
DIM
 62
     0
370
    -2
100
AcDbLine
 10
60.42049116466167
 20
28.7215886686865
 30
0.0
 11
61.14049116466167
 21
28.7215886686865
 31
0.0
  0
SOLID
  5
A88F
330
A6D1
100
AcDbEntity
  8
DIM
 62
     0
100
AcDbTrace
 10
56.94049116466163
 20
28.8415886686865
 30
0.0
 11
56.94049116466163
 21
28.6015886686865
 31
0.0
 12
57.66049116466163
 22
28.7215886686865
 32
0.0
 13
57.66049116466163
 23
28.7215886686865
 33
0.0
  0
SOLID
  5
A890
330
A6D1
100
AcDbEntity
  8
DIM
 62
     0
100
AcDbTrace
 10
60.42049116466167
 20
28.8415886686865
 30
0.0
 11
60.42049116466167
 21
28.6015886686865
 31
0.0
 12
59.70049116466167
 22
28.7215886686865
 32
0.0
 13
59.70049116466167
 23
28.7215886686865
 33
0.0
  0
MTEXT
  5
A891
330
A6D1
100
AcDbEntity
  8
DIM
 62
     0
100
AcDbMText
 10
58.68049116466165
 20
28.7215886686865
 30
0.0
 40
0.5
 41
0.0
 71
     5
 72
     1
  1
\A1;0.510
 73
     1
 44
1.0
  0
POINT
  5
A892
330
A6D1
100
AcDbEntity
  8
DEFPOINTS
 62
     0
100
AcDbPoint
 10
57.66049116466163
 20
29.85412080230927
 30
0.0
  0
POINT
  5
A893
330
A6D1
100
AcDbEntity
  8
DEFPOINTS
 62
     0
100
AcDbPoint
 10
59.70049116466167
 20
29.81660080230927
 30
0.0
  0
POINT
  5
A894
330
A6D1
100
AcDbEntity
  8
DEFPOINTS
 62
     0
100
AcDbPoint
 10
59.70049116466167
 20
28.7215886686865
 30
0.0
  0
ENDBLK
  5
A6DD
330
A6D1
100
AcDbEntity
  8
0
100
AcDbBlockEnd
  0
BLOCK
  5
A733
330
A727
100
AcDbEntity
  8
0
100
AcDbBlockBegin
  2
*D54
 70
     1
 10
0.0
 20
0.0
 30
0.0
  3
*D54
  1

  0
LINE
  5
A875
330
A727
100
AcDbEntity
  8
DIM
 62
     0
370
    -2
100
AcDbLine
 10
55.47028716466164
 20
31.34836080230929
 30
0.0
 11
52.85111680645799
 21
31.34836080230929
 31
0.0
  0
LINE
  5
A876
330
A727
100
AcDbEntity
  8
DIM
 62
     0
370
    -2
100
AcDbLine
 10
55.47028716466164
 20
31.0283608023093
 30
0.0
 11
52.85111680645799
 21
31.0283608023093
 31
0.0
  0
LINE
  5
A877
330
A727
100
AcDbEntity
  8
DIM
 62
     0
370
    -2
100
AcDbLine
 10
53.223116806458
 20
32.06836080230929
 30
0.0
 11
53.223116806458
 21
32.78836080230929
 31
0.0
  0
LINE
  5
A878
330
A727
100
AcDbEntity
  8
DIM
 62
     0
370
    -2
100
AcDbLine
 10
53.223116806458
 20
30.3083608023093
 30
0.0
 11
53.223116806458
 21
29.5883608023093
 31
0.0
  0
LINE
  5
A879
330
A727
100
AcDbEntity
  8
DIM
 62
     0
370
    -2
100
AcDbLine
 10
53.223116806458
 20
29.5883608023093
 30
0.0
 11
52.503116806458
 21
29.5883608023093
 31
0.0
  0
SOLID
  5
A87A
330
A727
100
AcDbEntity
  8
DIM
 62
     0
100
AcDbTrace
 10
53.10311680645799
 20
32.06836080230929
 30
0.0
 11
53.34311680645799
 21
32.06836080230929
 31
0.0
 12
53.223116806458
 22
31.34836080230929
 32
0.0
 13
53.223116806458
 23
31.34836080230929
 33
0.0
  0
SOLID
  5
A87B
330
A727
100
AcDbEntity
  8
DIM
 62
     0
100
AcDbTrace
 10
53.10311680645799
 20
30.3083608023093
 30
0.0
 11
53.34311680645799
 21
30.3083608023093
 31
0.0
 12
53.223116806458
 22
31.0283608023093
 32
0.0
 13
53.223116806458
 23
31.0283608023093
 33
0.0
  0
MTEXT
  5
A87C
330
A727
100
AcDbEntity
  8
DIM
 62
     0
100
AcDbMText
 10
51.48686680645798
 20
29.58836080230931
 30
0.0
 40
0.5
 41
0.0
 71
     5
 72
     1
  1
\A1;0.080
 73
     1
 44
1.0
  0
POINT
  5
A87D
330
A727
100
AcDbEntity
  8
DEFPOINTS
 62
     0
100
AcDbPoint
 10
55.72228716466164
 20
31.34836080230929
 30
0.0
  0
POINT
  5
A87E
330
A727
100
AcDbEntity
  8
DEFPOINTS
 62
     0
100
AcDbPoint
 10
55.72228716466164
 20
31.0283608023093
 30
0.0
  0
POINT
  5
A87F
330
A727
100
AcDbEntity
  8
DEFPOINTS
 62
     0
100
AcDbPoint
 10
53.223116806458
 20
31.0283608023093
 30
0.0
  0
ENDBLK
  5
A734
330
A727
100
AcDbEntity
  8
0
100
AcDbBlockEnd
  0
BLOCK
  5
AB1A
330
AB0F
100
AcDbEntity
  8
0
100
AcDbBlockBegin
  2
*D55
 70
     1
 10
0.0
 20
0.0
 30
0.0
  3
*D55
  1

  0
LINE
  5
AB6D
330
AB0F
100
AcDbEntity
  8
DIM
 62
     0
370
    -2
100
AcDbLine
 10
15.2756122037262
 20
13.52028480874294
 30
0.0
 11
15.2756122037262
 21
11.04113894238464
 31
0.0
  0
LINE
  5
AB6E
330
AB0F
100
AcDbEntity
  8
DIM
 62
     0
370
    -2
100
AcDbLine
 10
13.33973220372621
 20
13.82324480874295
 30
0.0
 11
13.33973220372621
 21
11.04113894238464
 31
0.0
  0
LINE
  5
AB6F
330
AB0F
100
AcDbEntity
  8
DIM
 62
     0
370
    -2
100
AcDbLine
 10
15.99561220372621
 20
11.41313894238464
 30
0.0
 11
16.71561220372621
 21
11.41313894238464
 31
0.0
  0
LINE
  5
AB70
330
AB0F
100
AcDbEntity
  8
DIM
 62
     0
370
    -2
100
AcDbLine
 10
12.61973220372621
 20
11.41313894238464
 30
0.0
 11
11.89973220372621
 21
11.41313894238464
 31
0.0
  0
SOLID
  5
AB71
330
AB0F
100
AcDbEntity
  8
DIM
 62
     0
100
AcDbTrace
 10
15.99561220372621
 20
11.53313894238464
 30
0.0
 11
15.99561220372621
 21
11.29313894238465
 31
0.0
 12
15.2756122037262
 22
11.41313894238464
 32
0.0
 13
15.2756122037262
 23
11.41313894238464
 33
0.0
  0
SOLID
  5
AB72
330
AB0F
100
AcDbEntity
  8
DIM
 62
     0
100
AcDbTrace
 10
12.61973220372621
 20
11.53313894238464
 30
0.0
 11
12.61973220372621
 21
11.29313894238465
 31
0.0
 12
13.33973220372621
 22
11.41313894238464
 32
0.0
 13
13.33973220372621
 23
11.41313894238464
 33
0.0
  0
MTEXT
  5
AB73
330
AB0F
100
AcDbEntity
  8
DIM
 62
     0
100
AcDbMText
 10
10.85223220372621
 20
11.41313894238464
 30
0.0
 40
0.5
 41
0.0
 71
     5
 72
     1
  1
\A1;1.936
 73
     1
 44
1.0
  0
POINT
  5
AB74
330
AB0F
100
AcDbEntity
  8
DEFPOINTS
 62
     0
100
AcDbPoint
 10
15.2756122037262
 20
13.77228480874294
 30
0.0
  0
POINT
  5
AB75
330
AB0F
100
AcDbEntity
  8
DEFPOINTS
 62
     0
100
AcDbPoint
 10
13.33973220372621
 20
14.07524480874295
 30
0.0
  0
POINT
  5
AB76
330
AB0F
100
AcDbEntity
  8
DEFPOINTS
 62
     0
100
AcDbPoint
 10
13.33973220372621
 20
11.41313894238464
 30
0.0
  0
ENDBLK
  5
AB1B
330
AB0F
100
AcDbEntity
  8
0
100
AcDbBlockEnd
  0
ENDSEC
  0
SECTION
  2
ENTITIES
  0
LWPOLYLINE
  5
5811
330
47A9
100
AcDbEntity
  8
OBJECT
100
AcDbPolyline
 90
        8
 70
     1
 43
0.0
 10
12.91550720372621
 20
13.59237480874294
 10
12.91550720372621
 20
22.52219480874295
 42
-0.4142135623730951
 10
13.16550720372621
 20
22.77219480874294
 10
17.38571720372621
 20
22.77219480874294
 42
-0.4142135623730951
 10
17.6357172037262
 20
22.52219480874295
 10
17.6357172037262
 20
13.59237480874294
 42
-0.4142135623730951
 10
17.38571720372621
 20
13.34237480874294
 10
13.16550720372621
 20
13.34237480874294
 42
-0.4142135623730951
  0
CIRCLE
  5
581C
330
47A9
100
AcDbEntity
  8
OBJECT
100
AcDbCircle
 10
15.2756122037262
 20
18.05778480874294
 30
0.0
 40
0.1375
  0
CIRCLE
  5
581F
330
47A9
100
AcDbEntity
  8
OBJECT
100
AcDbCircle
 10
14.49061220372621
 20
18.05778480874294
 30
0.0
 40
0.1375
  0
CIRCLE
  5
5820
330
47A9
100
AcDbEntity
  8
OBJECT
100
AcDbCircle
 10
16.06061220372621
 20
18.05778480874294
 30
0.0
 40
0.1375
  0
CIRCLE
  5
5821
330
47A9
100
AcDbEntity
  8
OBJECT
100
AcDbCircle
 10
15.2756122037262
 20
18.05778480874294
 30
0.0
 40
0.0485
  0
CIRCLE
  5
5822
330
47A9
100
AcDbEntity
  8
OBJECT
100
AcDbCircle
 10
16.06061220372621
 20
18.05778480874294
 30
0.0
 40
0.0485
  0
CIRCLE
  5
5823
330
47A9
100
AcDbEntity
  8
OBJECT
100
AcDbCircle
 10
14.49061220372621
 20
18.05778480874294
 30
0.0
 40
0.0485
  0
CIRCLE
  5
5826
330
47A9
100
AcDbEntity
  8
OBJECT
100
AcDbCircle
 10
14.49061220372621
 20
22.34228480874294
 30
0.0
 40
0.0485
  0
CIRCLE
  5
5827
330
47A9
100
AcDbEntity
  8
OBJECT
100
AcDbCircle
 10
14.49061220372621
 20
22.34228480874294
 30
0.0
 40
0.1375
  0
CIRCLE
  5
5828
330
47A9
100
AcDbEntity
  8
OBJECT
100
AcDbCircle
 10
15.2756122037262
 20
22.34228480874294
 30
0.0
 40
0.1375
  0
CIRCLE
  5
5829
330
47A9
100
AcDbEntity
  8
OBJECT
100
AcDbCircle
 10
15.2756122037262
 20
22.34228480874294
 30
0.0
 40
0.0485
  0
CIRCLE
  5
582A
330
47A9
100
AcDbEntity
  8
OBJECT
100
AcDbCircle
 10
16.06061220372621
 20
22.34228480874294
 30
0.0
 40
0.0485
  0
CIRCLE
  5
582B
330
47A9
100
AcDbEntity
  8
OBJECT
100
AcDbCircle
 10
16.06061220372621
 20
22.34228480874294
 30
0.0
 40
0.1375
  0
CIRCLE
  5
582C
330
47A9
100
AcDbEntity
  8
OBJECT
100
AcDbCircle
 10
14.49061220372621
 20
13.77228480874294
 30
0.0
 40
0.0485
  0
CIRCLE
  5
582D
330
47A9
100
AcDbEntity
  8
OBJECT
100
AcDbCircle
 10
14.49061220372621
 20
13.77228480874294
 30
0.0
 40
0.1375
  0
CIRCLE
  5
582E
330
47A9
100
AcDbEntity
  8
OBJECT
100
AcDbCircle
 10
15.2756122037262
 20
13.77228480874294
 30
0.0
 40
0.1375
  0
CIRCLE
  5
582F
330
47A9
100
AcDbEntity
  8
OBJECT
100
AcDbCircle
 10
15.2756122037262
 20
13.77228480874294
 30
0.0
 40
0.0485
  0
CIRCLE
  5
5830
330
47A9
100
AcDbEntity
  8
OBJECT
100
AcDbCircle
 10
16.06061220372621
 20
13.77228480874295
 30
0.0
 40
0.0485
  0
CIRCLE
  5
5831
330
47A9
100
AcDbEntity
  8
OBJECT
100
AcDbCircle
 10
16.06061220372621
 20
13.77228480874295
 30
0.0
 40
0.1375
  0
CIRCLE
  5
583A
330
47A9
100
AcDbEntity
  8
OBJECT
100
AcDbCircle
 10
13.33944220372621
 20
15.03178480874294
 30
0.0
 40
0.1375
  0
CIRCLE
  5
583B
330
47A9
100
AcDbEntity
  8
OBJECT
100
AcDbCircle
 10
13.33944220372621
 20
15.03178480874294
 30
0.0
 40
0.0485
  0
CIRCLE
  5
583C
330
47A9
100
AcDbEntity
  8
OBJECT
100
AcDbCircle
 10
13.33944220372621
 20
15.81678480874295
 30
0.0
 40
0.1375
  0
CIRCLE
  5
583D
330
47A9
100
AcDbEntity
  8
OBJECT
100
AcDbCircle
 10
13.33944220372621
 20
15.81678480874295
 30
0.0
 40
0.0485
  0
CIRCLE
  5
583E
330
47A9
100
AcDbEntity
  8
OBJECT
100
AcDbCircle
 10
13.33944220372621
 20
16.60178480874295
 30
0.0
 40
0.1375
  0
CIRCLE
  5
583F
330
47A9
100
AcDbEntity
  8
OBJECT
100
AcDbCircle
 10
13.33944220372621
 20
16.60178480874295
 30
0.0
 40
0.0485
  0
CIRCLE
  5
5840
330
47A9
100
AcDbEntity
  8
OBJECT
100
AcDbCircle
 10
13.33944220372621
 20
19.51378480874294
 30
0.0
 40
0.1375
  0
CIRCLE
  5
5841
330
47A9
100
AcDbEntity
  8
OBJECT
100
AcDbCircle
 10
13.33944220372621
 20
19.51378480874294
 30
0.0
 40
0.0485
  0
CIRCLE
  5
5842
330
47A9
100
AcDbEntity
  8
OBJECT
100
AcDbCircle
 10
13.33944220372621
 20
20.29878480874294
 30
0.0
 40
0.1375
  0
CIRCLE
  5
5843
330
47A9
100
AcDbEntity
  8
OBJECT
100
AcDbCircle
 10
13.33944220372621
 20
20.29878480874294
 30
0.0
 40
0.0485
  0
CIRCLE
  5
5844
330
47A9
100
AcDbEntity
  8
OBJECT
100
AcDbCircle
 10
13.33944220372621
 20
21.08378480874294
 30
0.0
 40
0.1375
  0
CIRCLE
  5
5845
330
47A9
100
AcDbEntity
  8
OBJECT
100
AcDbCircle
 10
13.33944220372621
 20
21.08378480874294
 30
0.0
 40
0.0485
  0
CIRCLE
  5
5846
330
47A9
100
AcDbEntity
  8
OBJECT
100
AcDbCircle
 10
17.21178220372621
 20
21.08378480874294
 30
0.0
 40
0.1375
  0
CIRCLE
  5
5847
330
47A9
100
AcDbEntity
  8
OBJECT
100
AcDbCircle
 10
17.21178220372621
 20
21.08378480874294
 30
0.0
 40
0.0485
  0
CIRCLE
  5
5848
330
47A9
100
AcDbEntity
  8
OBJECT
100
AcDbCircle
 10
17.21178220372621
 20
20.29878480874294
 30
0.0
 40
0.1375
  0
CIRCLE
  5
5849
330
47A9
100
AcDbEntity
  8
OBJECT
100
AcDbCircle
 10
17.21178220372621
 20
20.29878480874294
 30
0.0
 40
0.0485
  0
CIRCLE
  5
584A
330
47A9
100
AcDbEntity
  8
OBJECT
100
AcDbCircle
 10
17.2117822037262
 20
19.51378480874294
 30
0.0
 40
0.1375
  0
CIRCLE
  5
584B
330
47A9
100
AcDbEntity
  8
OBJECT
100
AcDbCircle
 10
17.2117822037262
 20
19.51378480874294
 30
0.0
 40
0.0485
  0
CIRCLE
  5
584C
330
47A9
100
AcDbEntity
  8
OBJECT
100
AcDbCircle
 10
17.21178220372621
 20
16.60178480874295
 30
0.0
 40
0.1375
  0
CIRCLE
  5
584D
330
47A9
100
AcDbEntity
  8
OBJECT
100
AcDbCircle
 10
17.21178220372621
 20
16.60178480874295
 30
0.0
 40
0.0485
  0
CIRCLE
  5
584E
330
47A9
100
AcDbEntity
  8
OBJECT
100
AcDbCircle
 10
17.21178220372621
 20
15.81678480874295
 30
0.0
 40
0.1375
  0
CIRCLE
  5
584F
330
47A9
100
AcDbEntity
  8
OBJECT
100
AcDbCircle
 10
17.21178220372621
 20
15.81678480874295
 30
0.0
 40
0.0485
  0
CIRCLE
  5
5850
330
47A9
100
AcDbEntity
  8
OBJECT
100
AcDbCircle
 10
17.21178220372621
 20
15.03178480874293
 30
0.0
 40
0.1375
  0
CIRCLE
  5
5851
330
47A9
100
AcDbEntity
  8
OBJECT
100
AcDbCircle
 10
17.21178220372621
 20
15.03178480874293
 30
0.0
 40
0.0485
  0
LWPOLYLINE
  5
5852
330
47A9
100
AcDbEntity
  8
OBJECT
100
AcDbPolyline
 90
        8
 70
     1
 43
0.0
 10
12.93550720372621
 20
13.59237480874294
 10
12.93550720372621
 20
22.52219480874295
 42
-0.414213562373094
 10
13.16550720372621
 20
22.75219480874295
 10
17.38571720372621
 20
22.75219480874295
 42
-0.4142135623730962
 10
17.6157172037262
 20
22.52219480874295
 10
17.6157172037262
 20
13.59237480874294
 42
-0.4142135623730962
 10
17.38571720372621
 20
13.36237480874294
 10
13.16550720372621
 20
13.36237480874294
 42
-0.4142135623730962
  0
CIRCLE
  5
585C
330
47A9
100
AcDbEntity
  8
OBJECT
100
AcDbCircle
 10
13.50805220372621
 20
22.53981480874295
 30
0.0
 40
0.0885825
  0
CIRCLE
  5
5860
330
47A9
100
AcDbEntity
  8
OBJECT
100
AcDbCircle
 10
17.2114922037262
 20
14.07524480874295
 30
0.0
 40
0.1375
  0
LINE
  5
5863
102
{ACAD_REACTORS
330
ADDA
102
}
330
47A9
100
AcDbEntity
  8
OBJECT
100
AcDbLine
 10
26.22184150483921
 20
22.77219480874295
 30
0.0
 11
29.07884150483923
 21
22.77219480874295
 31
0.0
  0
LINE
  5
5864
102
{ACAD_REACTORS
330
ADDA
102
}
330
47A9
100
AcDbEntity
  8
OBJECT
100
AcDbLine
 10
29.14084150483923
 20
13.40437480874294
 30
0.0
 11
29.14084150483923
 21
22.71019480874293
 31
0.0
  0
LINE
  5
5866
102
{ACAD_REACTORS
330
ADDA
102
}
330
47A9
100
AcDbEntity
  8
OBJECT
100
AcDbLine
 10
26.17884150483922
 20
22.34775480874293
 30
0.0
 11
26.17884150483922
 21
22.75219480874294
 31
0.0
  0
LINE
  5
5867
102
{ACAD_REACTORS
330
ADDA
102
}
330
47A9
100
AcDbEntity
  8
OBJECT
100
AcDbLine
 10
26.11884150483922
 20
13.76681480874295
 30
0.0
 11
26.11884150483922
 21
22.34775480874293
 31
0.0
  0
CIRCLE
  5
5869
330
47A9
100
AcDbEntity
  8
OBJECT
 62
     4
100
AcDbCircle
 10
17.2114922037262
 20
14.07524480874295
 30
0.0
 40
0.059
  0
CIRCLE
  5
586A
330
47A9
100
AcDbEntity
  8
OBJECT
 62
     4
100
AcDbCircle
 10
17.2114922037262
 20
14.07524480874295
 30
0.0
 40
0.094
  0
CIRCLE
  5
586D
330
47A9
100
AcDbEntity
  8
OBJECT
 62
     4
100
AcDbCircle
 10
13.17261220372621
 20
13.59675480874294
 30
0.0
 40
0.125
  0
CIRCLE
  5
586E
330
47A9
100
AcDbEntity
  8
OBJECT
 62
     4
100
AcDbCircle
 10
13.17261220372621
 20
13.59675480874294
 30
0.0
 40
0.0785
  0
LINE
  5
5873
102
{ACAD_REACTORS
330
ADDA
102
}
330
47A9
100
AcDbEntity
  8
OBJECT
100
AcDbLine
 10
26.48484150483922
 20
13.75097480874294
 30
0.0
 11
29.14084150483923
 21
13.75097480874294
 31
0.0
  0
LINE
  5
5874
102
{ACAD_REACTORS
330
ADDA
102
}
330
47A9
100
AcDbEntity
  8
OBJECT
100
AcDbLine
 10
26.48484150483922
 20
13.44053480874296
 30
0.0
 11
29.14084150483923
 21
13.44053480874294
 31
0.0
  0
LINE
  5
5875
102
{ACAD_REACTORS
330
ADDA
102
}
330
47A9
100
AcDbEntity
  8
OBJECT
100
AcDbLine
 10
26.11884150483922
 20
13.80581480874295
 30
0.0
 11
29.01084150483923
 21
13.80581480874295
 31
0.0
  0
LINE
  5
5877
102
{ACAD_REACTORS
330
ADDA
102
}
330
47A9
100
AcDbEntity
  8
OBJECT
100
AcDbLine
 10
26.22184150483921
 20
13.34237480874294
 30
0.0
 11
29.07884150483923
 21
13.34237480874294
 31
0.0
  0
LINE
  5
5878
102
{ACAD_REACTORS
330
ADDA
102
}
330
47A9
100
AcDbEntity
  8
OBJECT
100
AcDbLine
 10
26.48484150483922
 20
13.44053480874296
 30
0.0
 11
26.48484150483922
 21
13.75097480874294
 31
0.0
  0
LINE
  5
587D
102
{ACAD_REACTORS
330
ADDA
102
}
330
47A9
100
AcDbEntity
  8
OBJECT
100
AcDbLine
 10
26.11884150483922
 20
13.76681480874295
 30
0.0
 11
26.17884150483922
 21
13.76681480874295
 31
0.0
  0
LINE
  5
587E
102
{ACAD_REACTORS
330
ADDA
102
}
330
47A9
100
AcDbEntity
  8
OBJECT
100
AcDbLine
 10
26.17884150483922
 20
13.36237480874294
 30
0.0
 11
26.22184150483921
 21
13.36237480874294
 31
0.0
  0
LINE
  5
588B
330
47A9
100
AcDbEntity
  8
OBJECT
100
AcDbLine
 10
17.55492220372621
 20
5.257995163342759
 30
0.0
 11
12.99630220372621
 21
5.257995163342759
 31
0.0
1001
ACAD
1000
ASC_BOUNDS
1002
{
1070
    19
1005
0
1002
}
  0
LINE
  5
588E
330
47A9
100
AcDbEntity
  8
OBJECT
100
AcDbLine
 10
17.57371720372621
 20
2.23599516334276
 30
0.0
 11
12.97750720372621
 21
2.23599516334276
 31
0.0
1001
ACAD
1000
ASC_BOUNDS
1002
{
1070
    19
1005
0
1005
0
1005
0
1002
}
  0
LINE
  5
588F
330
47A9
100
AcDbEntity
  8
OBJECT
100
AcDbLine
 10
12.91550720372621
 20
5.154995163342761
 30
0.0
 11
12.91550720372621
 21
2.297995163342761
 31
0.0
1001
ACAD
1000
ASC_BOUNDS
1002
{
1070
    19
1005
0
1002
}
  0
LINE
  5
5890
330
47A9
100
AcDbEntity
  8
OBJECT
100
AcDbLine
 10
12.93550720372621
 20
5.197995163342749
 30
0.0
 11
12.93550720372621
 21
5.154995163342761
 31
0.0
1001
ACAD
1000
ASC_BOUNDS
1002
{
1070
    19
1005
0
1002
}
  0
LINE
  5
5891
330
47A9
100
AcDbEntity
  8
OBJECT
100
AcDbLine
 10
12.99630220372621
 20
5.257995163342759
 30
0.0
 11
12.99630220372621
 21
5.197995163342749
 31
0.0
1001
ACAD
1000
ASC_BOUNDS
1002
{
1070
    19
1005
0
1002
}
  0
LINE
  5
589E
330
47A9
100
AcDbEntity
  8
HIDDEN
  6
HIDDEN2
100
AcDbLine
 10
15.32411220372621
 20
2.348105163342761
 30
0.0
 11
15.22711220372621
 21
2.348105163342761
 31
0.0
1001
ACAD
1000
ASC_BOUNDS
1002
{
1070
    19
1005
0
1002
}
  0
LINE
  5
589F
330
47A9
100
AcDbEntity
  8
HIDDEN
  6
HIDDEN2
100
AcDbLine
 10
15.32411220372621
 20
2.55632616334276
 30
0.0
 11
15.32411220372621
 21
2.348105163342761
 31
0.0
1001
ACAD
1000
ASC_BOUNDS
1002
{
1070
    19
1005
0
1002
}
  0
LINE
  5
58A0
330
47A9
100
AcDbEntity
  8
HIDDEN
  6
HIDDEN2
100
AcDbLine
 10
15.22711220372621
 20
2.55632616334276
 30
0.0
 11
15.22711220372621
 21
2.348105163342761
 31
0.0
1001
ACAD
1000
ASC_BOUNDS
1002
{
1070
    19
1005
0
1002
}
  0
LINE
  5
58A1
330
47A9
100
AcDbEntity
  8
HIDDEN
  6
HIDDEN2
100
AcDbLine
 10
15.41309270372621
 20
2.55632616334276
 30
0.0
 11
15.13813170372621
 21
2.55632616334276
 31
0.0
1001
ACAD
1000
ASC_BOUNDS
1002
{
1070
    19
1005
0
1002
}
  0
LINE
  5
58A2
330
47A9
100
AcDbEntity
  8
HIDDEN
  6
HIDDEN2
100
AcDbLine
 10
16.10911220372621
 20
2.348105163342761
 30
0.0
 11
16.01211220372621
 21
2.348105163342761
 31
0.0
1001
ACAD
1000
ASC_BOUNDS
1002
{
1070
    19
1005
0
1002
}
  0
LINE
  5
58A3
330
47A9
100
AcDbEntity
  8
HIDDEN
  6
HIDDEN2
100
AcDbLine
 10
16.10911220372621
 20
2.55632616334276
 30
0.0
 11
16.10911220372621
 21
2.348105163342761
 31
0.0
1001
ACAD
1000
ASC_BOUNDS
1002
{
1070
    19
1005
0
1002
}
  0
LINE
  5
58A4
330
47A9
100
AcDbEntity
  8
HIDDEN
  6
HIDDEN2
100
AcDbLine
 10
16.01211220372621
 20
2.55632616334276
 30
0.0
 11
16.01211220372621
 21
2.348105163342761
 31
0.0
1001
ACAD
1000
ASC_BOUNDS
1002
{
1070
    19
1005
0
1002
}
  0
LINE
  5
58A5
330
47A9
100
AcDbEntity
  8
HIDDEN
  6
HIDDEN2
100
AcDbLine
 10
16.19809270372621
 20
2.55632616334276
 30
0.0
 11
15.9231317037262
 21
2.55632616334276
 31
0.0
1001
ACAD
1000
ASC_BOUNDS
1002
{
1070
    19
1005
0
1002
}
  0
LINE
  5
58A6
330
47A9
100
AcDbEntity
  8
HIDDEN
  6
HIDDEN2
100
AcDbLine
 10
14.35313170372621
 20
2.556326163342774
 30
0.0
 11
14.62809270372621
 21
2.556326163342774
 31
0.0
  0
LINE
  5
58A7
330
47A9
100
AcDbEntity
  8
HIDDEN
100
AcDbLine
 10
13.0353022037262
 20
2.365790163342751
 30
0.0
 11
13.0353022037262
 21
5.257995163342751
 31
0.0
1001
ACAD
1000
ASC_BOUNDS
1002
{
1070
    19
1005
0
1002
}
  0
LINE
  5
58A8
330
47A9
100
AcDbEntity
  8
HIDDEN
100
AcDbLine
 10
13.72550720372621
 20
5.257995163342751
 30
0.0
 11
13.72550720372621
 21
2.365790163342751
 31
0.0
  0
LINE
  5
58A9
330
47A9
100
AcDbEntity
  8
OBJECT
100
AcDbLine
 10
17.6357172037262
 20
5.154995163342761
 30
0.0
 11
17.6357172037262
 21
2.297995163342761
 31
0.0
1001
ACAD
1000
ASC_BOUNDS
1002
{
1070
    19
1005
0
1002
}
  0
LINE
  5
58AA
330
47A9
100
AcDbEntity
  8
HIDDEN
100
AcDbLine
 10
16.9565897037262
 20
2.365790163342769
 30
0.0
 11
16.9565897037262
 21
2.23599516334276
 31
0.0
1001
ACAD
1000
ASC_BOUNDS
1002
{
1070
    19
1005
0
1002
}
  0
LINE
  5
58AB
330
47A9
100
AcDbEntity
  8
HIDDEN
100
AcDbLine
 10
17.1337547037262
 20
2.365790163342769
 30
0.0
 11
17.13375470372621
 21
2.23599516334276
 31
0.0
1001
ACAD
1000
ASC_BOUNDS
1002
{
1070
    19
1005
0
1002
}
  0
LINE
  5
58AC
330
47A9
100
AcDbEntity
  8
HIDDEN
100
AcDbLine
 10
17.5336122037262
 20
4.891995163342752
 30
0.0
 11
17.2236122037262
 21
4.891995163342752
 31
0.0
1001
ACAD
1000
ASC_BOUNDS
1002
{
1070
    19
1005
0
1005
0
1002
}
  0
LINE
  5
58AE
330
47A9
100
AcDbEntity
  8
HIDDEN
100
AcDbLine
 10
17.50361220372618
 20
5.197995163342749
 30
0.0
 11
17.50361220372618
 21
4.891995163342752
 31
0.0
1001
ACAD
1000
ASC_BOUNDS
1002
{
1070
    19
1005
0
1002
}
  0
LINE
  5
58AF
330
47A9
100
AcDbEntity
  8
HIDDEN
100
AcDbLine
 10
17.45711220372619
 20
5.197995163342749
 30
0.0
 11
17.45711220372619
 21
4.891995163342752
 31
0.0
  0
LINE
  5
58B0
330
47A9
100
AcDbEntity
  8
HIDDEN
100
AcDbLine
 10
17.2536122037262
 20
5.197995163342749
 30
0.0
 11
17.2536122037262
 21
4.891995163342752
 31
0.0
1001
ACAD
1000
ASC_BOUNDS
1002
{
1070
    19
1005
0
1002
}
  0
LINE
  5
58B1
330
47A9
100
AcDbEntity
  8
HIDDEN
100
AcDbLine
 10
17.3001122037262
 20
5.197995163342749
 30
0.0
 11
17.3001122037262
 21
4.891995163342752
 31
0.0
  0
LINE
  5
58B3
330
47A9
100
AcDbEntity
  8
OBJECT
100
AcDbLine
 10
17.61571720372621
 20
5.197995163342749
 30
0.0
 11
12.93550720372621
 21
5.197995163342749
 31
0.0
1001
ACAD
1000
ASC_BOUNDS
1002
{
1070
    19
1005
0
1002
}
  0
LINE
  5
58B4
330
47A9
100
AcDbEntity
  8
OBJECT
100
AcDbLine
 10
17.6357172037262
 20
5.154995163342761
 30
0.0
 11
12.91550720372621
 21
5.154995163342761
 31
0.0
1001
ACAD
1000
ASC_BOUNDS
1002
{
1070
    19
1005
0
1002
}
  0
DIMENSION
  5
58F9
330
47A9
100
AcDbEntity
  8
DIM
100
AcDbDimension
  2
*D0
 10
14.49061220372621
 20
25.15232961169247
 30
0.0
 11
11.97186220372621
 21
25.15232961169247
 31
0.0
 70
    32
 71
     5
 42
0.7849999999999966
  3
23NSTD
100
AcDbAlignedDimension
 13
15.2756122037262
 23
22.34228480874294
 33
0.0
 14
14.49061220372621
 24
22.34228480874294
 34
0.0
 50
180.0
100
AcDbRotatedDimension
  0
DIMENSION
  5
5915
330
47A9
100
AcDbEntity
  8
DIM
100
AcDbDimension
  2
*D1
 10
17.2114922037262
 20
8.352535570892385
 30
0.0
 11
15.2756122037262
 21
8.352535570892385
 31
0.0
 70
   160
 71
     5
 42
3.871759999999987
  3
23NSTD
100
AcDbAlignedDimension
 13
13.33973220372621
 23
14.07524480874295
 33
0.0
 14
17.2114922037262
 24
14.07524480874295
 34
0.0
 50
180.0
100
AcDbRotatedDimension
  0
DIMENSION
  5
5923
330
47A9
100
AcDbEntity
  8
DIM
100
AcDbDimension
  2
*D2
 10
17.6357172037262
 20
6.038906753848394
 30
0.0
 11
15.27561220372621
 21
6.038906753848394
 31
0.0
 70
   160
  1
<>
 71
     5
 42
4.720209999999987
  3
23NSTD
100
AcDbAlignedDimension
 13
12.91550720372621
 23
13.59237480874294
 33
0.0
 14
17.6357172037262
 24
13.59237480874294
 34
0.0
 50
180.0
100
AcDbRotatedDimension
  0
DIMENSION
  5
593E
330
47A9
100
AcDbEntity
  8
DIM
100
AcDbDimension
  2
*D3
 10
11.57085090752383
 20
15.81678480874295
 30
0.0
 11
11.57085090752383
 21
16.20928480874295
 31
0.0
 70
    32
 71
     5
 42
0.7850000000000002
  3
23NSTDI
100
AcDbAlignedDimension
 13
13.33944220372621
 23
16.60178480874295
 33
0.0
 14
13.33944220372621
 24
15.81678480874295
 34
0.0
 50
270.0
100
AcDbRotatedDimension
  0
DIMENSION
  5
5968
330
47A9
100
AcDbEntity
  8
DIM
100
AcDbDimension
  2
*D4
 10
1.909578462278904
 20
22.77219480874295
 30
0.0
 11
1.9095784622789
 21
18.66728480874295
 31
0.0
 70
   160
 71
     5
 42
9.429819999999997
  3
23NSTD
100
AcDbAlignedDimension
 13
13.16550720372621
 23
13.34237480874294
 33
0.0
 14
13.16550720372621
 24
22.77219480874294
 34
0.0
 50
270.0
100
AcDbRotatedDimension
  0
DIMENSION
  5
5984
330
47A9
100
AcDbEntity
  8
DIM
100
AcDbDimension
  2
*D5
 10
15.7690935239309
 20
18.05778480874294
 30
0.0
 11
15.7690935239309
 21
15.91503480874295
 31
0.0
 70
    32
 71
     5
 42
4.285499999999995
  3
23NSTD
100
AcDbAlignedDimension
 13
15.2756122037262
 23
13.77228480874294
 33
0.0
 14
15.2756122037262
 24
18.05778480874294
 34
0.0
 50
270.0
100
AcDbRotatedDimension
  0
DIMENSION
  5
5992
330
47A9
100
AcDbEntity
  8
DIM
100
AcDbDimension
  2
*D6
 10
7.483809861192582
 20
18.05778480874294
 30
0.0
 11
7.483809861192579
 21
20.41498980874294
 31
0.0
 70
    32
 71
     5
 42
4.71441
  3
23NSTD
100
AcDbAlignedDimension
 13
13.17261220372621
 23
22.77219480874294
 33
0.0
 14
14.49061220372621
 24
18.05778480874294
 34
0.0
 50
270.0
100
AcDbRotatedDimension
  0
ARC
  5
59A0
102
{ACAD_REACTORS
330
ADDA
102
}
330
47A9
100
AcDbEntity
  8
OBJECT
100
AcDbCircle
 10
29.07884150483923
 20
13.40437480874294
 30
0.0
 40
0.062
100
AcDbArc
 50
270.0
 51
0.0
  0
ARC
  5
59A1
330
47A9
100
AcDbEntity
  8
OBJECT
100
AcDbCircle
 10
12.97750720372621
 20
2.297995163342761
 30
0.0
 40
0.062
100
AcDbArc
 50
180.0
 51
270.0
1001
ACAD
1000
ASC_BOUNDS
1002
{
1070
    19
1005
0
1002
}
  0
ARC
  5
59A2
330
47A9
100
AcDbEntity
  8
OBJECT
100
AcDbCircle
 10
17.57371720372621
 20
2.297995163342761
 30
0.0
 40
0.062
100
AcDbArc
 50
270.0
 51
0.0
1001
ACAD
1000
ASC_BOUNDS
1002
{
1070
    19
1005
0
1002
}
  0
DIMENSION
  5
59B5
330
47A9
100
AcDbEntity
  8
DIM
100
AcDbDimension
  2
*D7
 10
29.14084150483923
 20
23.70619480874294
 30
0.0
 11
27.59331692954147
 21
23.70619480874294
 31
0.0
 70
   160
  1
A
 71
     5
 42
3.022000000000016
  3
23NSTD
100
AcDbAlignedDimension
 13
26.11884150483922
 23
22.34775480874293
 33
0.0
 14
29.14084150483923
 24
22.71019480874293
 34
0.0
100
AcDbRotatedDimension
  0
LWPOLYLINE
  5
59D6
330
47A9
100
AcDbEntity
  8
OBJECT
100
AcDbPolyline
 90
        8
 70
     1
 43
0.0
 10
44.26859659979043
 20
13.59237480874294
 10
44.26859659979043
 20
22.52219480874294
 42
-0.4142135623730951
 10
44.51859659979043
 20
22.77219480874294
 10
48.73880659979042
 20
22.77219480874294
 42
-0.4142135623730951
 10
48.98880659979042
 20
22.52219480874294
 10
48.98880659979042
 20
13.59237480874294
 42
-0.4142135623730951
 10
48.73880659979042
 20
13.34237480874294
 10
44.51859659979043
 20
13.34237480874294
 42
-0.4142135623730951
  0
CIRCLE
  5
59E0
330
47A9
100
AcDbEntity
  8
OBJECT
100
AcDbCircle
 10
44.52570159979042
 20
22.51781480874294
 30
0.0
 40
0.0875
  0
LINE
  5
59E1
330
47A9
100
AcDbEntity
  8
OBJECT
100
AcDbLine
 10
55.74321217429424
 20
22.59219480874294
 30
0.0
 11
55.74321217429425
 21
13.83201980874277
 31
0.0
  0
LWPOLYLINE
  5
59E2
102
{ACAD_REACTORS
330
AA12
102
}
330
47A9
100
AcDbEntity
  8
OBJECT
100
AcDbPolyline
 90
        6
 70
     1
 43
0.0
 10
54.87845617429425
 20
13.34237480874294
 10
54.87845617429425
 20
22.77219480874294
 10
55.81100717429425
 20
22.77219480874294
 42
-0.4142135623730951
 10
55.87300717429426
 20
22.71019480874294
 10
55.87300717429426
 20
13.40437480874294
 42
-0.4142135623730951
 10
55.81100717429426
 20
13.34237480874294
  0
LWPOLYLINE
  5
59EC
330
47A9
100
AcDbEntity
  8
OBJECT
100
AcDbPolyline
 90
        6
 70
     1
 43
0.0
 10
44.26859659979042
 20
27.28214166367783
 10
48.98880659979042
 20
27.28214166367783
 10
48.98880659979042
 20
28.21469266367783
 42
0.4142135623730951
 10
48.92680659979042
 20
28.27669266367783
 10
44.33059659979042
 20
28.27669266367783
 42
0.4142135623730951
 10
44.26859659979042
 20
28.21469266367783
1001
ACAD
1000
ASC_BOUNDS
1002
{
1070
    19
1005
0
1005
0
1002
}
  0
LINE
  5
59F4
330
47A9
100
AcDbEntity
  8
HIDDEN
100
AcDbLine
 10
48.24354159979025
 20
27.38214166367783
 30
0.0
 11
48.16354159979025
 21
27.38214166367783
 31
0.0
1001
ACAD
1000
ASC_BOUNDS
1002
{
1070
    19
1005
0
1002
}
  0
LINE
  5
59F5
330
47A9
100
AcDbEntity
  8
HIDDEN
100
AcDbLine
 10
48.52870159979046
 20
28.14689766367783
 30
0.0
 11
48.32183659979042
 21
28.14689766367783
 31
0.0
  0
LINE
  5
59F6
330
47A9
100
AcDbEntity
  8
HIDDEN
100
AcDbLine
 10
44.44859659979042
 20
27.28214166367783
 30
0.0
 11
44.44859659979042
 21
28.14689766367783
 31
0.0
  0
LINE
  5
59F7
330
47A9
100
AcDbEntity
  8
HIDDEN
100
AcDbLine
 10
44.40389159979043
 20
27.28214166367783
 30
0.0
 11
44.40389159979043
 21
27.38214166367784
 31
0.0
1001
ACAD
1000
ASC_BOUNDS
1002
{
1070
    19
1005
0
1002
}
  0
LINE
  5
59F8
330
47A9
100
AcDbEntity
  8
HIDDEN
100
AcDbLine
 10
44.32389159979041
 20
27.28214166367783
 30
0.0
 11
44.32389159979041
 21
27.38214166367784
 31
0.0
1001
ACAD
1000
ASC_BOUNDS
1002
{
1070
    19
1005
0
1002
}
  0
LINE
  5
59F9
330
47A9
100
AcDbEntity
  8
HIDDEN
100
AcDbLine
 10
45.13856659979043
 20
27.28214166367783
 30
0.0
 11
45.13856659979043
 21
28.14689766367783
 31
0.0
  0
LINE
  5
59FA
330
47A9
100
AcDbEntity
  8
HIDDEN
100
AcDbLine
 10
48.11883659979041
 20
27.28214166367783
 30
0.0
 11
48.11883659979041
 21
28.14689766367783
 31
0.0
  0
LINE
  5
59FB
330
47A9
100
AcDbEntity
  8
HIDDEN
100
AcDbLine
 10
48.16354159979025
 20
27.28214166367779
 30
0.0
 11
48.16354159979025
 21
27.38214166367783
 31
0.0
1001
ACAD
1000
ASC_BOUNDS
1002
{
1070
    19
1005
0
1002
}
  0
LINE
  5
59FC
330
47A9
100
AcDbEntity
  8
HIDDEN
100
AcDbLine
 10
48.24354159979025
 20
27.28214166367779
 30
0.0
 11
48.24354159979025
 21
27.38214166367783
 31
0.0
1001
ACAD
1000
ASC_BOUNDS
1002
{
1070
    19
1005
0
1002
}
  0
DIMENSION
  5
59FD
330
47A9
100
AcDbEntity
  8
DIM
100
AcDbDimension
  2
*D8
 10
52.11070139718959
 20
22.77219480874294
 30
0.0
 11
52.11070139718958
 21
18.05728480874295
 31
0.0
 70
    32
 71
     5
 42
9.429819999999997
  3
23NSTD
100
AcDbAlignedDimension
 13
48.73880659979042
 23
13.34237480874294
 33
0.0
 14
48.73880659979042
 24
22.77219480874294
 34
0.0
 50
90.0
100
AcDbRotatedDimension
  0
DIMENSION
  5
5A0B
330
47A9
100
AcDbEntity
  8
DIM
100
AcDbDimension
  2
*D9
 10
48.98880659979042
 20
25.85135420864741
 30
0.0
 11
46.62870159979042
 21
25.85135420864741
 31
0.0
 70
    32
 71
     5
 42
4.720209999999994
  3
23NSTD
100
AcDbAlignedDimension
 13
44.26859659979043
 23
22.52219480874296
 33
0.0
 14
48.98880659979042
 24
22.52219480874296
 34
0.0
100
AcDbRotatedDimension
  0
LINE
  5
5A19
330
47A9
100
AcDbEntity
  8
HIDDEN
100
AcDbLine
 10
48.52870159979046
 20
27.28214166367783
 30
0.0
 11
48.52870159979046
 21
28.14689766367783
 31
0.0
  0
LINE
  5
5A1A
330
47A9
100
AcDbEntity
  8
HIDDEN
100
AcDbLine
 10
48.32183659979042
 20
27.28214166367783
 30
0.0
 11
48.32183659979042
 21
28.14689766367783
 31
0.0
  0
LINE
  5
5A1B
330
47A9
100
AcDbEntity
  8
HIDDEN
100
AcDbLine
 10
48.80880659979041
 20
28.14689766367783
 30
0.0
 11
44.44859659979042
 21
28.14689766367783
 31
0.0
  0
LINE
  5
5A1C
330
47A9
100
AcDbEntity
  8
HIDDEN
100
AcDbLine
 10
44.40389159979043
 20
27.38214166367784
 30
0.0
 11
44.32389159979041
 21
27.38214166367784
 31
0.0
1001
ACAD
1000
ASC_BOUNDS
1002
{
1070
    19
1005
0
1002
}
  0
DIMENSION
  5
5AA6
330
47A9
100
AcDbEntity
  8
DIM
100
AcDbDimension
  2
*D10
 10
54.87845617429425
 20
23.39619480874294
 30
0.0
 11
58.39175717429426
 21
23.39619480874294
 31
0.0
 70
   160
 71
     5
 42
0.9945510000000084
  3
23NSTD
100
AcDbAlignedDimension
 13
55.87300717429426
 23
22.71019480874294
 33
0.0
 14
54.87845617429425
 24
22.77219480874294
 34
0.0
100
AcDbRotatedDimension
  0
TEXT
  5
5AD0
330
47A9
100
AcDbEntity
  8
TEXT
100
AcDbText
 10
60.99227212426542
 20
11.25173822267424
 30
0.0
 40
0.625
  1
%%UASSEMBLY
 41
0.75
 72
     1
 11
62.79695962426543
 21
11.25173822267424
 31
0.0
100
AcDbText
  0
LINE
  5
5AE5
330
47A9
100
AcDbEntity
  8
HIDDEN
100
AcDbLine
 10
48.60742659979042
 20
27.76669266367783
 30
0.0
 11
48.91742659979042
 21
27.76669266367783
 31
0.0
  0
LINE
  5
5AE6
330
47A9
100
AcDbEntity
  8
HIDDEN
100
AcDbLine
 10
48.84992659979042
 20
27.28214166367783
 30
0.0
 11
48.84992659979042
 21
27.76669266367783
 31
0.0
  0
LINE
  5
5AE7
330
47A9
100
AcDbEntity
  8
HIDDEN
100
AcDbLine
 10
48.91742659979042
 20
27.76669266367783
 30
0.0
 11
48.91742659979042
 21
28.27669266367783
 31
0.0
  0
LINE
  5
5AE8
330
47A9
100
AcDbEntity
  8
HIDDEN
100
AcDbLine
 10
48.67492659979042
 20
27.28214166367783
 30
0.0
 11
48.67492659979042
 21
27.76669266367783
 31
0.0
  0
LINE
  5
5AE9
330
47A9
100
AcDbEntity
  8
HIDDEN
100
AcDbLine
 10
48.60742659979042
 20
27.76669266367783
 30
0.0
 11
48.60742659979042
 21
28.27669266367783
 31
0.0
  0
LWPOLYLINE
  5
5AFE
330
47A9
100
AcDbEntity
  8
OBJECT
100
AcDbPolyline
 90
        9
 70
     1
 43
0.0
 10
44.72469632732503
 20
22.43754980874294
 10
44.90836159979042
 20
22.43754980874294
 42
0.4142135623730527
 10
44.95756659979043
 20
22.48675480874295
 10
44.95756659979043
 20
22.54039980874297
 42
-0.1644561576868673
 10
45.00511267619001
 20
22.68104566249302
 42
0.620970191449903
 10
44.99875364606078
 20
22.69389980874294
 10
44.66050972168103
 20
22.69389980874294
 42
0.6922325910637277
 10
44.65523694774309
 20
22.67988334341855
 42
-0.3039834230885962
 10
44.7171260462501
 20
22.44813647540957
 42
0.5142867339078571
  0
CIRCLE
  5
5B09
330
47A9
100
AcDbEntity
  8
OBJECT
100
AcDbCircle
 10
48.73170159979042
 20
22.51781480874294
 30
0.0
 40
0.0875
  0
LWPOLYLINE
  5
5B0A
330
47A9
100
AcDbEntity
  8
OBJECT
100
AcDbPolyline
 90
        9
 70
     1
 43
0.0
 10
48.53270687225583
 20
22.43754980874294
 10
48.34904159979043
 20
22.43754980874294
 42
-0.4142135623730527
 10
48.29983659979042
 20
22.48675480874295
 10
48.29983659979042
 20
22.54039980874297
 42
0.1644561576868673
 10
48.25229052339085
 20
22.68104566249302
 42
-0.620970191449903
 10
48.25864955352007
 20
22.69389980874294
 10
48.59689347789982
 20
22.69389980874294
 42
-0.6922325910637277
 10
48.60216625183776
 20
22.67988334341855
 42
0.3039834230885962
 10
48.54027715333076
 20
22.44813647540957
 42
-0.5142867339078571
  0
LWPOLYLINE
  5
5B15
330
47A9
100
AcDbEntity
  8
OBJECT
100
AcDbPolyline
 90
        9
 70
     1
 43
0.0
 10
44.72469632732503
 20
13.67701980874294
 10
44.90836159979042
 20
13.67701980874294
 42
-0.4142135623730527
 10
44.95756659979043
 20
13.62781480874295
 10
44.95756659979043
 20
13.57416980874291
 42
0.1644561576868673
 10
45.00511267619001
 20
13.43352395499286
 42
-0.620970191449903
 10
44.99875364606078
 20
13.42066980874295
 10
44.66050972168103
 20
13.42066980874295
 42
-0.6922325910637277
 10
44.65523694774309
 20
13.43468627406734
 42
0.3039834230885962
 10
44.7171260462501
 20
13.66643314207631
 42
-0.5142867339078571
  0
CIRCLE
  5
5B20
330
47A9
100
AcDbEntity
  8
OBJECT
100
AcDbCircle
 10
44.52570159979042
 20
13.59675480874294
 30
0.0
 40
0.0875
  0
LWPOLYLINE
  5
5B21
330
47A9
100
AcDbEntity
  8
OBJECT
100
AcDbPolyline
 90
        9
 70
     1
 43
0.0
 10
48.53270687225583
 20
13.67701980874294
 10
48.34904159979043
 20
13.67701980874294
 42
0.4142135623730527
 10
48.29983659979042
 20
13.62781480874295
 10
48.29983659979042
 20
13.57416980874291
 42
-0.1644561576868673
 10
48.25229052339085
 20
13.43352395499286
 42
0.620970191449903
 10
48.25864955352007
 20
13.42066980874295
 10
48.59689347789982
 20
13.42066980874295
 42
0.6922325910637277
 10
48.60216625183776
 20
13.43468627406734
 42
-0.3039834230885962
 10
48.54027715333076
 20
13.66643314207631
 42
0.5142867339078571
  0
CIRCLE
  5
5B2C
330
47A9
100
AcDbEntity
  8
OBJECT
100
AcDbCircle
 10
48.73170159979042
 20
13.59675480874294
 30
0.0
 40
0.0875
  0
DIMENSION
  5
5B2D
330
47A9
100
AcDbEntity
  8
DIM
100
AcDbDimension
  2
*D11
 10
48.73170159979042
 20
24.73535420864742
 30
0.0
 11
46.62870159979042
 21
24.73535420864742
 31
0.0
 70
   160
 71
     5
 42
4.205999999999995
  3
23NSTD
100
AcDbAlignedDimension
 13
44.52570159979042
 23
22.51781480874296
 33
0.0
 14
48.73170159979042
 24
22.51781480874296
 34
0.0
100
AcDbRotatedDimension
  0
DIMENSION
  5
5B3B
330
47A9
100
AcDbEntity
  8
DIM
100
AcDbDimension
  2
*D12
 10
50.25070139718959
 20
22.51781480874294
 30
0.0
 11
50.25070139718959
 21
18.05728480874295
 31
0.0
 70
    32
 71
     5
 42
8.921060000000002
  3
23NSTD
100
AcDbAlignedDimension
 13
48.73170159979042
 23
13.59675480874294
 33
0.0
 14
48.73170159979042
 24
22.51781480874294
 34
0.0
 50
90.0
100
AcDbRotatedDimension
  0
LWPOLYLINE
  5
5B49
330
47A9
100
AcDbEntity
  8
OBJECT
100
AcDbPolyline
 90
       24
 70
     1
 43
0.0
 10
48.93351159979042
 20
13.86081480874295
 10
48.93351159979042
 20
22.25375480874294
 42
0.4142135623730882
 10
48.78001159979043
 20
22.40725480874293
 10
48.37104159979042
 20
22.40725480874294
 42
-0.4142135623730542
 10
48.24354159979043
 20
22.53475480874292
 10
48.24354159979042
 20
22.56339980874297
 42
0.4142135623730477
 10
48.09004159979043
 20
22.71689980874293
 10
45.16736159979043
 20
22.71689980874294
 42
0.4142135623730477
 10
45.01386159979043
 20
22.56339980874297
 10
45.01386159979042
 20
22.53475480874292
 42
-0.4142135623730542
 10
44.88636159979042
 20
22.40725480874294
 10
44.47739159979042
 20
22.40725480874293
 42
0.4142135623730884
 10
44.32389159979043
 20
22.25375480874294
 10
44.32389159979043
 20
13.86081480874295
 42
0.4142135623730884
 10
44.47739159979042
 20
13.70731480874295
 10
44.88636159979042
 20
13.70731480874295
 42
-0.4142135623730543
 10
45.01386159979042
 20
13.57981480874297
 10
45.01386159979043
 20
13.55116980874293
 42
0.4142135623730476
 10
45.16736159979043
 20
13.39766980874294
 10
48.09004159979043
 20
13.39766980874295
 42
0.4142135623730474
 10
48.24354159979042
 20
13.55116980874293
 10
48.24354159979043
 20
13.57981480874297
 42
-0.414213562373054
 10
48.37104159979042
 20
13.70731480874295
 10
48.78001159979043
 20
13.70731480874295
 42
0.4142135623731086
1001
ACAD
1000
ASC_BOUNDS
1002
{
1070
    19
1005
0
1002
}
  0
LWPOLYLINE
  5
5B63
330
47A9
100
AcDbEntity
  8
OBJECT
100
AcDbPolyline
 90
        2
 70
     0
 43
0.0
 10
44.40389159942995
 20
13.86081480874294
 10
44.40389166246148
 20
22.25385079124039
1001
ACAD
1000
ASC_BOUNDS
1002
{
1070
    19
1005
0
1002
}
  0
LWPOLYLINE
  5
5B67
330
47A9
100
AcDbEntity
  8
OBJECT
100
AcDbPolyline
 90
       24
 70
     1
 43
0.0
 10
45.13856659979043
 20
13.55116980874294
 10
45.13856659979043
 20
13.57981480874294
 42
0.4142135623731076
 10
44.88636159979043
 20
13.83201980874295
 10
44.47739159979042
 20
13.83201980874295
 42
-0.4142135623730951
 10
44.44859659979043
 20
13.86081480874294
 10
44.44859659979043
 20
22.25375480874294
 42
-0.4142135623730951
 10
44.47739159979042
 20
22.28254980874294
 10
44.88636159979042
 20
22.28254980874294
 42
0.4142135623731076
 10
45.13856659979043
 20
22.53475480874294
 10
45.13856659979043
 20
22.56339980874294
 42
-0.4142135623730951
 10
45.16736159979043
 20
22.59219480874294
 10
48.09004159979043
 20
22.59219480874294
 42
-0.4142135623730951
 10
48.11883659979041
 20
22.56339980874294
 10
48.11883659979041
 20
22.53475480874294
 42
0.4142135623731076
 10
48.37104159979043
 20
22.28254980874294
 10
48.78001159979042
 20
22.28254980874294
 42
-0.4142135623730951
 10
48.80880659979042
 20
22.25375480874294
 10
48.80880659979043
 20
13.86081480874294
 42
-0.4142135623730951
 10
48.78001159979042
 20
13.83201980874295
 10
48.37104159979042
 20
13.83201980874295
 42
0.4142135623731076
 10
48.11883659979041
 20
13.57981480874294
 10
48.11883659979041
 20
13.55116980874294
 42
-0.4142135623730951
 10
48.09004159979043
 20
13.52237480874294
 10
45.16736159979043
 20
13.52237480874294
 42
-0.4142135623730951
  0
LWPOLYLINE
  5
5B81
330
47A9
100
AcDbEntity
  8
OBJECT
100
AcDbPolyline
 90
       24
 70
     0
 43
0.0
 10
44.40389159979043
 20
13.86081480874294
 42
0.4142135623731091
 10
44.47739159979042
 20
13.78731480874294
 10
44.88636159979043
 20
13.78731480874294
 42
-0.4142135623730502
 10
45.09386159979043
 20
13.57981480874297
 10
45.09386159979043
 20
13.55116980874293
 42
0.4142135623730667
 10
45.16736159979043
 20
13.47766980874293
 10
48.09004159979043
 20
13.47766980874294
 42
0.4142135623730667
 10
48.16354159979042
 20
13.55116980874293
 10
48.16354159979043
 20
13.57981480874297
 42
-0.4142135623730498
 10
48.37104159979042
 20
13.78731480874294
 10
48.78001159979042
 20
13.78731480874294
 42
0.4142135623731091
 10
48.85351159979042
 20
13.86081480874294
 10
48.85351159979042
 20
22.25375480874294
 42
0.4142135623731091
 10
48.78001159979042
 20
22.32725480874294
 10
48.37104159979042
 20
22.32725480874294
 42
-0.4142135623730499
 10
48.16354159979043
 20
22.53475480874291
 10
48.16354159979042
 20
22.56339980874295
 42
0.4142135623730666
 10
48.09004159979043
 20
22.63689980874294
 10
45.16736159979043
 20
22.63689980874294
 42
0.4142135623730667
 10
45.09386159979043
 20
22.56339980874295
 10
45.09386159979043
 20
22.53475480874291
 42
-0.41421356237305
 10
44.88636159979043
 20
22.32725480874294
 10
44.47739159979042
 20
22.32725480874294
 42
0.4142135623731091
 10
44.40389159979043
 20
22.25375480874293
1001
ACAD
1000
ASC_BOUNDS
1002
{
1070
    19
1005
0
1002
}
  0
LWPOLYLINE
  5
5BC0
330
47A9
100
AcDbEntity
  8
OBJECT
100
AcDbPolyline
 90
        8
 70
     1
 43
0.0
 10
35.71199824993805
 20
22.52219480874293
 10
35.71199824993805
 20
13.59237480874295
 42
0.4142135623730951
 10
35.96199824993806
 20
13.34237480874294
 10
40.18220824993805
 20
13.34237480874294
 42
0.4142135623730951
 10
40.43220824993805
 20
13.59237480874295
 10
40.43220824993805
 20
22.52219480874293
 42
0.4142135623730951
 10
40.18220824993805
 20
22.77219480874293
 10
35.96199824993806
 20
22.77219480874293
 42
0.4142135623730951
  0
CIRCLE
  5
5BCA
330
47A9
100
AcDbEntity
  8
OBJECT
100
AcDbCircle
 10
35.96910324993805
 20
13.59675480874294
 30
0.0
 40
0.085
  0
CIRCLE
  5
5BCB
330
47A9
100
AcDbEntity
  8
OBJECT
100
AcDbCircle
 10
40.17510324993804
 20
13.59675480874294
 30
0.0
 40
0.085
  0
CIRCLE
  5
5BCC
330
47A9
100
AcDbEntity
  8
OBJECT
100
AcDbCircle
 10
35.96910324993805
 20
22.51781480874293
 30
0.0
 40
0.085
  0
CIRCLE
  5
5BCD
330
47A9
100
AcDbEntity
  8
OBJECT
100
AcDbCircle
 10
40.17510324993804
 20
22.51781480874293
 30
0.0
 40
0.085
  0
LWPOLYLINE
  5
5BCE
330
47A9
100
AcDbEntity
  8
HIDDEN
100
AcDbPolyline
 90
       24
 70
     1
 43
0.0
 10
36.58196824993805
 20
22.56339980874294
 10
36.58196824993805
 20
22.53475480874294
 42
-0.4142135623731076
 10
36.32976324993806
 20
22.28254980874294
 10
35.92079324993806
 20
22.28254980874294
 42
0.4142135623730951
 10
35.89199824993806
 20
22.25375480874294
 10
35.89199824993806
 20
13.86081480874294
 42
0.4142135623730951
 10
35.92079324993806
 20
13.83201980874293
 10
36.32976324993805
 20
13.83201980874295
 42
-0.4142135623731076
 10
36.58196824993805
 20
13.57981480874294
 10
36.58196824993805
 20
13.55116980874294
 42
0.4142135623730951
 10
36.61076324993806
 20
13.52237480874293
 10
39.53344324993805
 20
13.52237480874293
 42
0.4142135623730951
 10
39.56223824993804
 20
13.55116980874294
 10
39.56223824993804
 20
13.57981480874294
 42
-0.4142135623731076
 10
39.81444324993805
 20
13.83201980874295
 10
40.22341324993805
 20
13.83201980874293
 42
0.4142135623730951
 10
40.25220824993804
 20
13.86081480874294
 10
40.25220824993805
 20
22.25375480874294
 42
0.4142135623730951
 10
40.22341324993805
 20
22.28254980874294
 10
39.81444324993805
 20
22.28254980874294
 42
-0.4142135623731076
 10
39.56223824993804
 20
22.53475480874294
 10
39.56223824993804
 20
22.56339980874294
 42
0.4142135623730951
 10
39.53344324993805
 20
22.59219480874294
 10
36.61076324993806
 20
22.59219480874294
 42
0.4142135623730951
  0
CIRCLE
  5
5BE8
330
47A9
100
AcDbEntity
  8
OBJECT
100
AcDbCircle
 10
35.96910324993805
 20
13.59675480874294
 30
0.0
 40
0.155
  0
CIRCLE
  5
5BE9
330
47A9
100
AcDbEntity
  8
OBJECT
100
AcDbCircle
 10
40.17510324993804
 20
13.59675480874294
 30
0.0
 40
0.155
  0
CIRCLE
  5
5BEA
330
47A9
100
AcDbEntity
  8
OBJECT
100
AcDbCircle
 10
35.96910324993805
 20
22.51781480874293
 30
0.0
 40
0.155
  0
CIRCLE
  5
5BEB
330
47A9
100
AcDbEntity
  8
OBJECT
100
AcDbCircle
 10
40.17510324993804
 20
22.51781480874293
 30
0.0
 40
0.155
  0
LINE
  5
5BEC
330
47A9
100
AcDbEntity
  8
OBJECT
100
AcDbLine
 10
35.99960324993806
 20
22.18478480874293
 30
0.0
 11
35.99960324993806
 21
13.92978480874294
 31
0.0
  0
LINE
  5
5BED
330
47A9
100
AcDbEntity
  8
OBJECT
100
AcDbLine
 10
40.14460324993804
 20
22.18478480874293
 30
0.0
 11
40.14460324993804
 21
13.92978480874294
 31
0.0
  0
LINE
  5
5BEE
330
47A9
100
AcDbEntity
  8
OBJECT
100
AcDbLine
 10
40.14460324993804
 20
22.18478480874293
 30
0.0
 11
35.99960324993806
 21
22.18478480874293
 31
0.0
  0
LINE
  5
5BEF
330
47A9
100
AcDbEntity
  8
OBJECT
100
AcDbLine
 10
40.14460324993804
 20
13.92978480874294
 30
0.0
 11
35.99960324993806
 21
13.92978480874294
 31
0.0
  0
DIMENSION
  5
5BF0
330
47A9
100
AcDbEntity
  8
DIM
100
AcDbDimension
  2
*D13
 10
34.22399824993808
 20
13.92978480874294
 30
0.0
 11
34.22399824993808
 21
18.05728480874295
 31
0.0
 70
    32
 71
     5
 42
8.254999999999991
  3
23NSTD
100
AcDbAlignedDimension
 13
35.99960324993806
 23
22.18478480874293
 33
0.0
 14
35.99960324993806
 24
13.92978480874294
 34
0.0
 50
90.0
100
AcDbRotatedDimension
  0
DIMENSION
  5
5BFE
330
47A9
100
AcDbEntity
  8
DIM
100
AcDbDimension
  2
*D14
 10
40.14460324993804
 20
23.71725000864835
 30
0.0
 11
38.07210324993805
 21
23.71725000864835
 31
0.0
 70
   160
 71
     5
 42
4.144999999999988
  3
23NSTD
100
AcDbAlignedDimension
 13
35.99960324993806
 23
22.18478480874293
 33
0.0
 14
40.14460324993804
 24
22.18478480874293
 34
0.0
100
AcDbRotatedDimension
  0
DIMENSION
  5
5C0C
330
47A9
100
AcDbEntity
  8
DIM
100
AcDbDimension
  2
*D15
 10
5.811469373478872
 20
16.60178480874295
 30
0.0
 11
5.811469373478869
 21
18.05778480874295
 31
0.0
 70
    32
 71
     5
 42
2.911999999999999
  3
23NSTD
100
AcDbAlignedDimension
 13
13.33944220372621
 23
19.51378480874294
 33
0.0
 14
13.33944220372621
 24
16.60178480874295
 34
0.0
 50
90.0
100
AcDbRotatedDimension
  0
CIRCLE
  5
5C46
330
47A9
100
AcDbEntity
  8
OBJECT
 62
     4
100
AcDbCircle
 10
17.3786122037262
 20
13.59675480874294
 30
0.0
 40
0.0785
  0
CIRCLE
  5
5C47
330
47A9
100
AcDbEntity
  8
OBJECT
 62
     4
100
AcDbCircle
 10
17.3786122037262
 20
13.59675480874294
 30
0.0
 40
0.125
  0
CIRCLE
  5
5C48
330
47A9
100
AcDbEntity
  8
OBJECT
 62
     4
100
AcDbCircle
 10
13.17261220372621
 20
22.51881480874294
 30
0.0
 40
0.0785
  0
CIRCLE
  5
5C49
330
47A9
100
AcDbEntity
  8
OBJECT
 62
     4
100
AcDbCircle
 10
13.17261220372621
 20
22.51881480874294
 30
0.0
 40
0.125
  0
CIRCLE
  5
5C4A
330
47A9
100
AcDbEntity
  8
OBJECT
 62
     4
100
AcDbCircle
 10
17.3786122037262
 20
22.51881480874294
 30
0.0
 40
0.125
  0
CIRCLE
  5
5C4B
330
47A9
100
AcDbEntity
  8
OBJECT
 62
     4
100
AcDbCircle
 10
17.3786122037262
 20
22.51881480874294
 30
0.0
 40
0.0785
  0
DIMENSION
  5
5C4C
330
47A9
100
AcDbEntity
  8
DIM
100
AcDbDimension
  2
*D16
 10
3.864177417934171
 20
13.59675480874295
 30
0.0
 11
3.864177417934169
 21
18.05778480874295
 31
0.0
 70
    32
 71
     5
 42
8.92206
  3
23NSTD
100
AcDbAlignedDimension
 13
13.17261220372621
 23
22.51881480874294
 33
0.0
 14
13.17261220372621
 24
13.59675480874294
 34
0.0
 50
90.0
100
AcDbRotatedDimension
  0
DIMENSION
  5
5C5A
330
47A9
100
AcDbEntity
  8
DIM
100
AcDbDimension
  2
*D17
 10
12.91550720372621
 20
27.25682650467781
 30
0.0
 11
10.39675720372621
 21
27.25682650467781
 31
0.0
 70
    32
  1
<>
 71
     5
 42
0.5925449999999995
  3
23NSTD
100
AcDbAlignedDimension
 13
13.50805220372621
 23
22.53981480874295
 33
0.0
 14
12.91550720372621
 24
22.34275480874295
 34
0.0
100
AcDbRotatedDimension
  0
CIRCLE
  5
5C68
330
47A9
100
AcDbEntity
  8
OBJECT
100
AcDbCircle
 10
17.0431722037262
 20
22.53981480874295
 30
0.0
 40
0.0885825
  0
CIRCLE
  5
5C69
330
47A9
100
AcDbEntity
  8
OBJECT
100
AcDbCircle
 10
17.0431722037262
 20
13.57575480874294
 30
0.0
 40
0.0885825
  0
CIRCLE
  5
5C6A
330
47A9
100
AcDbEntity
  8
OBJECT
100
AcDbCircle
 10
13.50805220372621
 20
13.57575480874294
 30
0.0
 40
0.0885825
  0
DIMENSION
  5
5C6B
330
47A9
100
AcDbEntity
  8
DIM
100
AcDbDimension
  2
*D18
 10
17.3786122037262
 20
7.174688250202436
 30
0.0
 11
15.2756122037262
 21
7.174688250202436
 31
0.0
 70
   160
 71
     5
 42
4.205999999999988
  3
23NSTD
100
AcDbAlignedDimension
 13
13.17261220372621
 23
13.59675480874294
 33
0.0
 14
17.3786122037262
 24
12.84337480874294
 34
0.0
100
AcDbRotatedDimension
  0
DIMENSION
  5
5C78
330
47A9
100
AcDbEntity
  8
DIM
100
AcDbDimension
  2
*D19
 10
12.91550720372621
 20
7.174688250202436
 30
0.0
 11
10.39675720372621
 21
7.174688250202436
 31
0.0
 70
    32
  1
<>
 71
     5
 42
0.2571049999999992
  3
23NSTD
100
AcDbAlignedDimension
 13
13.17261220372621
 23
13.59675480874294
 33
0.0
 14
12.91550720372621
 24
13.59675480874294
 34
0.0
100
AcDbRotatedDimension
  0
DIMENSION
  5
5C94
330
47A9
100
AcDbEntity
  8
DIM
100
AcDbDimension
  2
*D20
 10
16.8257172037262
 20
9.467931612311744
 30
0.0
 11
15.2756122037262
 21
9.467931612311744
 31
0.0
 70
   160
 71
     5
 42
3.100209999999989
  3
23NSTD
100
AcDbAlignedDimension
 13
13.72550720372621
 23
13.55616980874295
 33
0.0
 14
16.8257172037262
 24
13.55616980874295
 34
0.0
100
AcDbRotatedDimension
  0
DIMENSION
  5
5CA1
330
47A9
100
AcDbEntity
  8
DIM
100
AcDbDimension
  2
*D21
 10
12.91550720372621
 20
10.43737752466997
 30
0.0
 11
10.49050720372621
 21
10.43737752466997
 31
0.0
 70
   160
  1
<>
 71
     5
 42
0.8099999999999987
  3
23NSTD
100
AcDbAlignedDimension
 13
13.72550720372621
 23
13.55616980874295
 33
0.0
 14
12.91550720372621
 24
13.59675480874294
 34
0.0
100
AcDbRotatedDimension
  0
LWPOLYLINE
  5
5CAF
330
47A9
100
AcDbEntity
  8
OBJECT
100
AcDbPolyline
 90
        9
 70
     1
 43
0.0
 10
13.53850720372621
 20
22.36175480874294
 42
0.4142135623730951
 10
13.67250720372621
 20
22.49575480874294
 10
13.67250720372621
 20
22.55939980874294
 42
-0.3102944944585496
 10
13.7667201013904
 20
22.69659500482138
 42
0.8313614356779687
 10
13.76456552578486
 20
22.70819480874295
 10
13.31779707423625
 20
22.70819480874295
 42
0.7108651532914181
 10
13.31407271406156
 20
22.69749064661891
 42
-0.4237533832946446
 10
13.34660280128292
 20
22.37162988089073
 42
0.6384764264368678
 10
13.35118361080198
 20
22.36175480874295
  0
LWPOLYLINE
  5
5CBA
330
47A9
100
AcDbEntity
  8
OBJECT
100
AcDbPolyline
 90
        9
 70
     1
 43
0.0
 10
17.0127172037262
 20
22.36175480874294
 42
-0.4142135623730951
 10
16.8787172037262
 20
22.49575480874294
 10
16.8787172037262
 20
22.55939980874294
 42
0.3102944944585496
 10
16.78450430606201
 20
22.69659500482138
 42
-0.8313614356779687
 10
16.78665888166754
 20
22.70819480874295
 10
17.23342733321616
 20
22.70819480874295
 42
-0.7108651532914181
 10
17.23715169339085
 20
22.69749064661891
 42
0.4237533832946446
 10
17.20462160616949
 20
22.37162988089073
 42
-0.6384764264368678
 10
17.20004079665043
 20
22.36175480874295
  0
LWPOLYLINE
  5
5CC5
330
47A9
100
AcDbEntity
  8
OBJECT
100
AcDbPolyline
 90
        9
 70
     1
 43
0.0
 10
17.0127172037262
 20
13.75381480874295
 42
0.4142135623730951
 10
16.8787172037262
 20
13.61981480874294
 10
16.8787172037262
 20
13.55616980874295
 42
-0.3102944944585496
 10
16.78450430606201
 20
13.4189746126645
 42
0.8313614356779687
 10
16.78665888166754
 20
13.40737480874294
 10
17.23342733321616
 20
13.40737480874294
 42
0.7108651532914181
 10
17.23715169339085
 20
13.41807897086697
 42
-0.4237533832946446
 10
17.20462160616949
 20
13.74393973659515
 42
0.6384764264368678
 10
17.20004079665043
 20
13.75381480874295
  0
LWPOLYLINE
  5
5CD0
330
47A9
100
AcDbEntity
  8
OBJECT
100
AcDbPolyline
 90
        9
 70
     1
 43
0.0
 10
13.53850720372621
 20
13.75381480874295
 42
-0.4142135623730951
 10
13.67250720372621
 20
13.61981480874294
 10
13.67250720372621
 20
13.55616980874295
 42
0.3102944944585496
 10
13.7667201013904
 20
13.4189746126645
 42
-0.8313614356779687
 10
13.76456552578486
 20
13.40737480874294
 10
13.31779707423625
 20
13.40737480874294
 42
-0.7108651532914181
 10
13.31407271406156
 20
13.41807897086697
 42
0.4237533832946446
 10
13.34660280128292
 20
13.74393973659515
 42
-0.6384764264368678
 10
13.35118361080198
 20
13.75381480874295
  0
LWPOLYLINE
  5
5CDB
330
47A9
100
AcDbEntity
  8
OBJECT
100
AcDbPolyline
 90
       24
 70
     1
 43
0.0
 10
13.68650720372621
 20
22.49575480874294
 10
13.68650720372622
 20
22.55939980874294
 42
-0.3787140870494123
 10
13.80322838313015
 20
22.69139980874296
 10
16.74799602432229
 20
22.69139980874294
 42
-0.3787140870493117
 10
16.86471720372619
 20
22.55939980874294
 10
16.8647172037262
 20
22.49575480874294
 42
0.4142135623730951
 10
17.0127172037262
 20
22.34775480874294
 10
17.4219222037262
 20
22.34775480874294
 42
-0.4142135623730951
 10
17.5549222037262
 20
22.21475480874294
 10
17.5549222037262
 20
13.90081480874294
 42
-0.4142135623730951
 10
17.4219222037262
 20
13.76781480874294
 10
17.0127172037262
 20
13.76781480874294
 42
0.4142135623730951
 10
16.8647172037262
 20
13.61981480874294
 10
16.86471720372619
 20
13.55616980874292
 42
-0.4142135623730951
 10
16.73171720372619
 20
13.42316980874294
 10
13.81950720372622
 20
13.42316980874294
 42
-0.4142135623730951
 10
13.68650720372622
 20
13.55616980874295
 10
13.68650720372621
 20
13.61981480874294
 42
0.4142135623730951
 10
13.53850720372621
 20
13.76781480874294
 10
13.12930220372621
 20
13.76781480874294
 42
-0.4142135623730951
 10
12.9963022037262
 20
13.90081480874294
 10
12.9963022037262
 20
22.21475480874294
 42
-0.4142135623730951
 10
13.12930220372621
 20
22.34775480874294
 10
13.53850720372621
 20
22.34775480874294
 42
0.4142135623730951
  0
LWPOLYLINE
  5
5CF5
330
47A9
100
AcDbEntity
  8
OBJECT
100
AcDbPolyline
 90
       24
 70
     1
 43
0.0
 10
13.72550720372621
 20
22.55939980874294
 42
-0.3720711338794082
 10
13.80583240939509
 20
22.65239980874295
 10
16.74539199805733
 20
22.65239980874294
 42
-0.3720711338793975
 10
16.8257172037262
 20
22.55939980874294
 10
16.8257172037262
 20
22.49575480874294
 42
0.4142135623730951
 10
17.0127172037262
 20
22.30875480874294
 10
17.4219222037262
 20
22.30875480874294
 42
-0.4142135623730951
 10
17.5159222037262
 20
22.21475480874294
 10
17.5159222037262
 20
13.90081480874294
 42
-0.4142135623730951
 10
17.4219222037262
 20
13.80681480874294
 10
17.0127172037262
 20
13.80681480874294
 42
0.4142135623730951
 10
16.8257172037262
 20
13.61981480874294
 10
16.8257172037262
 20
13.55616980874295
 42
-0.4142135623730951
 10
16.7317172037262
 20
13.46216980874295
 10
13.81950720372621
 20
13.46216980874294
 42
-0.4142135623730951
 10
13.72550720372621
 20
13.55616980874295
 10
13.72550720372621
 20
13.61981480874294
 42
0.4142135623730951
 10
13.53850720372621
 20
13.80681480874294
 10
13.12930220372621
 20
13.80681480874294
 42
-0.4142135623730951
 10
13.03530220372621
 20
13.90081480874294
 10
13.03530220372621
 20
22.21475480874294
 42
-0.4142135623730951
 10
13.12930220372621
 20
22.30875480874294
 10
13.53850720372621
 20
22.30875480874294
 42
0.4142135623730951
 10
13.72550720372621
 20
22.49575480874294
  0
LINE
  5
5D2B
330
47A9
100
AcDbEntity
  8
HIDDEN
100
AcDbLine
 10
16.8257172037262
 20
5.257995163342751
 30
0.0
 11
16.8257172037262
 21
2.365790163342737
 31
0.0
1001
ACAD
1000
ASC_BOUNDS
1002
{
1070
    19
1005
0
1002
}
  0
LINE
  5
5D2D
330
47A9
100
AcDbEntity
  8
HIDDEN
100
AcDbLine
 10
16.8787172037262
 20
5.197995163342749
 30
0.0
 11
16.8787172037262
 21
2.365790163342762
 31
0.0
1001
ACAD
1000
ASC_BOUNDS
1002
{
1070
    19
1005
0
1002
}
  0
LINE
  5
5D2E
330
47A9
100
AcDbEntity
  8
HIDDEN
100
AcDbLine
 10
17.15071720372618
 20
5.19799516334276
 30
0.0
 11
17.15071720372618
 21
2.365790163342769
 31
0.0
1001
ACAD
1000
ASC_BOUNDS
1002
{
1070
    19
1005
0
1002
}
  0
LINE
  5
5D2F
330
47A9
100
AcDbEntity
  8
HIDDEN
100
AcDbLine
 10
17.2236122037262
 20
4.891995163342752
 30
0.0
 11
17.2236122037262
 21
2.235995163342749
 31
0.0
1001
ACAD
1000
ASC_BOUNDS
1002
{
1070
    19
1005
0
1002
}
  0
LINE
  5
5D30
330
47A9
100
AcDbEntity
  8
HIDDEN
100
AcDbLine
 10
17.5336122037262
 20
4.891995163342752
 30
0.0
 11
17.5336122037262
 21
2.23599516334276
 31
0.0
1001
ACAD
1000
ASC_BOUNDS
1002
{
1070
    19
1005
0
1002
}
  0
LINE
  5
5D31
330
47A9
100
AcDbEntity
  8
HIDDEN
  6
HIDDEN2
100
AcDbLine
 10
16.19809270372621
 20
2.55632616334276
 30
0.0
 11
16.22487079220707
 21
2.365790163342737
 31
0.0
1001
ACAD
1000
ASC_BOUNDS
1002
{
1070
    19
1005
0
1002
}
  0
LINE
  5
5D32
330
47A9
100
AcDbEntity
  8
HIDDEN
  6
HIDDEN2
100
AcDbLine
 10
15.9231317037262
 20
2.55632616334276
 30
0.0
 11
15.89635361524535
 21
2.365790163342751
 31
0.0
1001
ACAD
1000
ASC_BOUNDS
1002
{
1070
    19
1005
0
1002
}
  0
LINE
  5
5D33
330
47A9
100
AcDbEntity
  8
HIDDEN
  6
HIDDEN2
100
AcDbLine
 10
15.13813170372621
 20
2.55632616334276
 30
0.0
 11
15.11135361524535
 21
2.365790163342751
 31
0.0
1001
ACAD
1000
ASC_BOUNDS
1002
{
1070
    19
1005
0
1002
}
  0
LINE
  5
5D34
330
47A9
100
AcDbEntity
  8
HIDDEN
  6
HIDDEN2
100
AcDbLine
 10
15.41309270372621
 20
2.55632616334276
 30
0.0
 11
15.43987079220707
 21
2.365790163342737
 31
0.0
1001
ACAD
1000
ASC_BOUNDS
1002
{
1070
    19
1005
0
1002
}
  0
LINE
  5
5D35
330
47A9
100
AcDbEntity
  8
HIDDEN
  6
HIDDEN2
100
AcDbLine
 10
14.62809270372621
 20
2.55632616334276
 30
0.0
 11
14.65487079220707
 21
2.365790163342737
 31
0.0
  0
LINE
  5
5D36
330
47A9
100
AcDbEntity
  8
HIDDEN
  6
HIDDEN2
100
AcDbLine
 10
14.35313170372621
 20
2.55632616334276
 30
0.0
 11
14.32635361524535
 21
2.365790163342751
 31
0.0
  0
LWPOLYLINE
  5
5D39
330
47A9
100
AcDbEntity
  8
HIDDEN
100
AcDbPolyline
 90
        2
 70
     0
 43
0.0
 10
13.0353022037262
 20
2.365790163342751
 10
17.51592220372622
 20
2.365790163342751
1001
ACAD
1000
ASC_BOUNDS
1002
{
1070
    19
1005
0
1002
}
  0
CIRCLE
  5
5D42
330
47A9
100
AcDbEntity
  8
OBJECT
100
AcDbCircle
 10
14.49061220372621
 20
22.34228480874294
 30
0.0
 40
0.1645
  0
CIRCLE
  5
5D43
330
47A9
100
AcDbEntity
  8
OBJECT
100
AcDbCircle
 10
15.2756122037262
 20
22.34228480874294
 30
0.0
 40
0.1645
  0
CIRCLE
  5
5D44
330
47A9
100
AcDbEntity
  8
OBJECT
100
AcDbCircle
 10
16.06061220372621
 20
22.34228480874294
 30
0.0
 40
0.1645
  0
CIRCLE
  5
5D46
330
47A9
100
AcDbEntity
  8
OBJECT
100
AcDbCircle
 10
13.33944220372621
 20
21.08378480874294
 30
0.0
 40
0.1645
  0
CIRCLE
  5
5D47
330
47A9
100
AcDbEntity
  8
OBJECT
100
AcDbCircle
 10
13.33944220372621
 20
20.29878480874294
 30
0.0
 40
0.1645
  0
CIRCLE
  5
5D48
330
47A9
100
AcDbEntity
  8
OBJECT
100
AcDbCircle
 10
13.33944220372621
 20
19.51378480874294
 30
0.0
 40
0.1645
  0
CIRCLE
  5
5D4A
330
47A9
100
AcDbEntity
  8
OBJECT
100
AcDbCircle
 10
17.2124922037262
 20
21.08378480874294
 30
0.0
 40
0.1645
  0
CIRCLE
  5
5D4B
330
47A9
100
AcDbEntity
  8
OBJECT
100
AcDbCircle
 10
17.21178220372621
 20
20.29878480874294
 30
0.0
 40
0.1645
  0
CIRCLE
  5
5D4C
330
47A9
100
AcDbEntity
  8
OBJECT
100
AcDbCircle
 10
17.2117822037262
 20
19.51378480874294
 30
0.0
 40
0.1645
  0
CIRCLE
  5
5D4D
330
47A9
100
AcDbEntity
  8
OBJECT
100
AcDbCircle
 10
14.49061220372621
 20
18.05778480874294
 30
0.0
 40
0.1645
  0
CIRCLE
  5
5D4E
330
47A9
100
AcDbEntity
  8
OBJECT
100
AcDbCircle
 10
15.2756122037262
 20
18.05778480874294
 30
0.0
 40
0.1645
  0
CIRCLE
  5
5D4F
330
47A9
100
AcDbEntity
  8
OBJECT
100
AcDbCircle
 10
16.06061220372621
 20
18.05778480874294
 30
0.0
 40
0.1645
  0
CIRCLE
  5
5D50
330
47A9
100
AcDbEntity
  8
OBJECT
100
AcDbCircle
 10
13.33944220372621
 20
16.60178480874295
 30
0.0
 40
0.1645
  0
CIRCLE
  5
5D51
330
47A9
100
AcDbEntity
  8
OBJECT
100
AcDbCircle
 10
13.33944220372621
 20
15.81678480874295
 30
0.0
 40
0.1645
  0
CIRCLE
  5
5D52
330
47A9
100
AcDbEntity
  8
OBJECT
100
AcDbCircle
 10
13.33944220372621
 20
15.03178480874294
 30
0.0
 40
0.1645
  0
CIRCLE
  5
5D53
330
47A9
100
AcDbEntity
  8
OBJECT
100
AcDbCircle
 10
17.21178220372621
 20
16.60178480874295
 30
0.0
 40
0.1645
  0
CIRCLE
  5
5D54
330
47A9
100
AcDbEntity
  8
OBJECT
100
AcDbCircle
 10
17.21178220372621
 20
15.81678480874295
 30
0.0
 40
0.1645
  0
CIRCLE
  5
5D55
330
47A9
100
AcDbEntity
  8
OBJECT
100
AcDbCircle
 10
17.21178220372621
 20
15.03178480874293
 30
0.0
 40
0.1645
  0
CIRCLE
  5
5D56
330
47A9
100
AcDbEntity
  8
OBJECT
100
AcDbCircle
 10
17.21178220372621
 20
14.07524480874295
 30
0.0
 40
0.1645
  0
CIRCLE
  5
5D58
330
47A9
100
AcDbEntity
  8
OBJECT
100
AcDbCircle
 10
14.49061220372621
 20
13.77228480874294
 30
0.0
 40
0.1645
  0
CIRCLE
  5
5D59
330
47A9
100
AcDbEntity
  8
OBJECT
100
AcDbCircle
 10
15.2756122037262
 20
13.77228480874294
 30
0.0
 40
0.1645
  0
CIRCLE
  5
5D5A
330
47A9
100
AcDbEntity
  8
OBJECT
100
AcDbCircle
 10
16.06061220372621
 20
13.77228480874295
 30
0.0
 40
0.1645
  0
LINE
  5
5D5C
330
47A9
100
AcDbEntity
  8
OBJECT
100
AcDbLine
 10
28.82051050483923
 20
15.16826530874294
 30
0.0
 11
29.01104650483924
 21
15.1950433972238
 31
0.0
  0
LINE
  5
5D60
330
47A9
100
AcDbEntity
  8
OBJECT
100
AcDbLine
 10
28.82051050483923
 20
15.16826530874294
 30
0.0
 11
28.82051050483923
 21
14.89330430874294
 31
0.0
  0
LINE
  5
5D61
330
47A9
100
AcDbEntity
  8
OBJECT
100
AcDbLine
 10
28.82051050483923
 20
14.89330430874294
 30
0.0
 11
29.01104650483924
 21
14.86652622026208
 31
0.0
  0
LINE
  5
5D62
330
47A9
100
AcDbEntity
  8
OBJECT
100
AcDbLine
 10
28.82051050483923
 20
15.67830430874295
 30
0.0
 11
29.01104650483924
 21
15.65152622026209
 31
0.0
  0
LINE
  5
5D65
330
47A9
100
AcDbEntity
  8
OBJECT
100
AcDbLine
 10
28.82051050483923
 20
15.95326530874295
 30
0.0
 11
29.01104650483924
 21
15.98004339722381
 31
0.0
  0
LINE
  5
5D66
330
47A9
100
AcDbEntity
  8
OBJECT
100
AcDbLine
 10
28.82051050483923
 20
15.95326530874295
 30
0.0
 11
28.82051050483923
 21
15.67830430874295
 31
0.0
  0
LINE
  5
5D68
330
47A9
100
AcDbEntity
  8
OBJECT
100
AcDbLine
 10
28.82051050483923
 20
16.73826530874294
 30
0.0
 11
29.01104650483924
 21
16.76504339722379
 31
0.0
  0
LINE
  5
5D6B
330
47A9
100
AcDbEntity
  8
OBJECT
100
AcDbLine
 10
28.82051050483923
 20
16.46330430874295
 30
0.0
 11
29.01104650483924
 21
16.43652622026208
 31
0.0
  0
LINE
  5
5D6C
330
47A9
100
AcDbEntity
  8
OBJECT
100
AcDbLine
 10
28.82051050483923
 20
16.73826530874294
 30
0.0
 11
28.82051050483923
 21
16.46330430874295
 31
0.0
  0
LINE
  5
5D6E
330
47A9
100
AcDbEntity
  8
OBJECT
100
AcDbLine
 10
28.82051050483923
 20
17.91930430874294
 30
0.0
 11
29.01084150483923
 21
17.8925550311332
 31
0.0
  0
LINE
  5
5D71
330
47A9
100
AcDbEntity
  8
OBJECT
100
AcDbLine
 10
28.82051050483923
 20
18.19426530874294
 30
0.0
 11
29.01084150483923
 21
18.22101458635268
 31
0.0
  0
LINE
  5
5D72
330
47A9
100
AcDbEntity
  8
OBJECT
100
AcDbLine
 10
28.82051050483923
 20
18.19426530874294
 30
0.0
 11
28.82051050483923
 21
17.91930430874294
 31
0.0
  0
LINE
  5
5D7F
102
{ACAD_REACTORS
330
ADDA
102
}
330
47A9
100
AcDbEntity
  8
OBJECT
100
AcDbLine
 10
28.82051050483923
 20
21.13128480874295
 30
0.0
 11
29.02873150483923
 21
21.13128480874295
 31
0.0
  0
LINE
  5
5D80
102
{ACAD_REACTORS
330
ADDA
102
}
330
47A9
100
AcDbEntity
  8
OBJECT
100
AcDbLine
 10
28.82051050483923
 20
21.03428480874295
 30
0.0
 11
29.02873150483923
 21
21.03428480874295
 31
0.0
  0
LINE
  5
5D85
102
{ACAD_REACTORS
330
ADDA
102
}
330
47A9
100
AcDbEntity
  8
OBJECT
100
AcDbLine
 10
29.02873150483923
 20
21.03428480874295
 30
0.0
 11
29.02873150483923
 21
21.13128480874295
 31
0.0
  0
LINE
  5
5D89
330
47A9
100
AcDbEntity
  8
OBJECT
100
AcDbLine
 10
28.82051050483923
 20
22.10382480874294
 30
0.0
 11
29.05073150483923
 21
22.10382480874294
 31
0.0
  0
LINE
  5
5D8A
330
47A9
100
AcDbEntity
  8
OBJECT
100
AcDbLine
 10
28.82051050483923
 20
21.97882480874294
 30
0.0
 11
29.05073150483923
 21
21.97882480874294
 31
0.0
  0
LWPOLYLINE
  5
5D8B
102
{ACAD_REACTORS
330
ADDA
102
}
330
47A9
100
AcDbEntity
  8
OBJECT
100
AcDbPolyline
 90
        4
 70
     0
 43
0.0
 10
28.82051050483923
 20
21.94732480874294
 10
29.05073150483923
 20
21.94732480874294
 10
29.05073150483923
 20
22.13532480874294
 10
28.82051050483923
 20
22.13532480874294
  0
DIMENSION
  5
5D94
330
47A9
100
AcDbEntity
  8
DIM
100
AcDbDimension
  2
*D22
 10
29.14084150483923
 20
12.36637480874294
 30
0.0
 11
27.65984150483921
 21
12.36637480874294
 31
0.0
 70
   160
  1
B
 71
     5
 42
2.962000000000013
  3
23NSTD
100
AcDbAlignedDimension
 13
26.17884150483922
 23
13.36237480874294
 33
0.0
 14
29.14084150483923
 24
13.40437480874294
 34
0.0
100
AcDbRotatedDimension
  0
LINE
  5
5DA2
330
47A9
100
AcDbEntity
  8
OBJECT
100
AcDbLine
 10
61.85559325907798
 20
13.34237480874294
 30
0.0
 11
64.71259325907801
 21
13.34237480874294
 31
0.0
  0
LINE
  5
5DA3
330
47A9
100
AcDbEntity
  8
OBJECT
100
AcDbLine
 10
61.85559325907798
 20
22.77219480874295
 30
0.0
 11
64.71259325907801
 21
22.77219480874295
 31
0.0
  0
LINE
  5
5DA4
330
47A9
100
AcDbEntity
  8
HIDDEN
100
AcDbLine
 10
61.75259325907799
 20
22.65239980874295
 30
0.0
 11
64.644593259078
 21
22.65239980874295
 31
0.0
  0
LINE
  5
5DA5
330
47A9
100
AcDbEntity
  8
HIDDEN
100
AcDbLine
 10
61.75259325907799
 20
22.30875480874294
 30
0.0
 11
64.644593259078
 21
22.30875480874294
 31
0.0
  0
LINE
  5
5DA6
330
47A9
100
AcDbEntity
  8
HIDDEN
100
AcDbLine
 10
61.812593259078
 20
22.34559480874294
 30
0.0
 11
64.77459325907799
 21
22.34559480874294
 31
0.0
  0
LINE
  5
5DA7
330
47A9
100
AcDbEntity
  8
HIDDEN
100
AcDbLine
 10
61.812593259078
 20
22.69203480874294
 30
0.0
 11
64.77459325907799
 21
22.69203480874294
 31
0.0
  0
LINE
  5
5DA8
330
47A9
100
AcDbEntity
  8
HIDDEN
100
AcDbLine
 10
61.812593259078
 20
13.42253480874296
 30
0.0
 11
64.77459325907799
 21
13.42253480874296
 31
0.0
  0
LINE
  5
5DA9
330
47A9
100
AcDbEntity
  8
HIDDEN
100
AcDbLine
 10
61.812593259078
 20
13.76897480874295
 30
0.0
 11
64.77459325907799
 21
13.76897480874295
 31
0.0
  0
LINE
  5
5DAA
330
47A9
100
AcDbEntity
  8
HIDDEN
100
AcDbLine
 10
61.75259325907799
 20
13.80581480874295
 30
0.0
 11
64.644593259078
 21
13.80581480874296
 31
0.0
  0
LINE
  5
5DAB
330
47A9
100
AcDbEntity
  8
HIDDEN
100
AcDbLine
 10
61.75259325907799
 20
13.46216980874294
 30
0.0
 11
64.644593259078
 21
13.46216980874294
 31
0.0
  0
LINE
  5
5DAC
330
47A9
100
AcDbEntity
  8
OBJECT
100
AcDbLine
 10
61.85559325907798
 20
22.77219480874294
 30
0.0
 11
61.85559325907798
 21
13.34237480874294
 31
0.0
  0
LINE
  5
5DAD
330
47A9
100
AcDbEntity
  8
HIDDEN
100
AcDbLine
 10
61.75259325907799
 20
22.67339980874295
 30
0.0
 11
61.75259325907799
 21
13.44116980874295
 31
0.0
  0
LINE
  5
5DAE
330
47A9
100
AcDbEntity
  8
HIDDEN
100
AcDbLine
 10
61.812593259078
 20
13.51891480874295
 30
0.0
 11
62.11859325907799
 21
13.51891480874295
 31
0.0
  0
LINE
  5
5DAF
330
47A9
100
AcDbEntity
  8
HIDDEN
100
AcDbLine
 10
61.812593259078
 20
13.49091480874295
 30
0.0
 11
62.11859325907799
 21
13.49091480874295
 31
0.0
  0
LINE
  5
5DB0
330
47A9
100
AcDbEntity
  8
HIDDEN
100
AcDbLine
 10
61.812593259078
 20
13.65091480874295
 30
0.0
 11
62.11859325907799
 21
13.65091480874295
 31
0.0
  0
LINE
  5
5DB1
330
47A9
100
AcDbEntity
  8
HIDDEN
100
AcDbLine
 10
61.812593259078
 20
13.67891480874296
 30
0.0
 11
62.11859325907799
 21
13.67891480874296
 31
0.0
  0
LINE
  5
5DB2
330
47A9
100
AcDbEntity
  8
OBJECT
100
AcDbLine
 10
61.812593259078
 20
13.36237480874294
 30
0.0
 11
61.85559325907798
 21
13.36237480874294
 31
0.0
  0
LINE
  5
5DB3
330
47A9
100
AcDbEntity
  8
HIDDEN
100
AcDbLine
 10
61.75259325907799
 20
13.76681480874295
 30
0.0
 11
61.812593259078
 21
13.76681480874295
 31
0.0
  0
LINE
  5
5DB4
330
47A9
100
AcDbEntity
  8
HIDDEN
100
AcDbLine
 10
61.75259325907799
 20
13.44116980874295
 30
0.0
 11
61.812593259078
 21
13.44116980874295
 31
0.0
  0
LINE
  5
5DB5
330
47A9
100
AcDbEntity
  8
HIDDEN
100
AcDbLine
 10
62.11859325907799
 20
13.42253480874296
 30
0.0
 11
62.11859325907799
 21
13.76897480874295
 31
0.0
  0
LINE
  5
5DB6
330
47A9
100
AcDbEntity
  8
HIDDEN
100
AcDbLine
 10
61.812593259078
 20
22.43565480874295
 30
0.0
 11
62.11859325907799
 21
22.43565480874295
 31
0.0
  0
LINE
  5
5DB7
330
47A9
100
AcDbEntity
  8
HIDDEN
100
AcDbLine
 10
61.812593259078
 20
22.46365480874294
 30
0.0
 11
62.11859325907799
 21
22.46365480874294
 31
0.0
  0
LINE
  5
5DB8
330
47A9
100
AcDbEntity
  8
HIDDEN
100
AcDbLine
 10
61.812593259078
 20
22.62365480874294
 30
0.0
 11
62.11859325907799
 21
22.62365480874294
 31
0.0
  0
LINE
  5
5DB9
330
47A9
100
AcDbEntity
  8
HIDDEN
100
AcDbLine
 10
61.812593259078
 20
22.59565480874294
 30
0.0
 11
62.11859325907799
 21
22.59565480874294
 31
0.0
  0
LINE
  5
5DBA
330
47A9
100
AcDbEntity
  8
OBJECT
100
AcDbLine
 10
61.812593259078
 20
22.75219480874295
 30
0.0
 11
61.85559325907798
 21
22.75219480874295
 31
0.0
  0
LINE
  5
5DBB
330
47A9
100
AcDbEntity
  8
HIDDEN
100
AcDbLine
 10
61.75259325907799
 20
22.67339980874294
 30
0.0
 11
61.812593259078
 21
22.67339980874294
 31
0.0
  0
LINE
  5
5DBC
330
47A9
100
AcDbEntity
  8
HIDDEN
100
AcDbLine
 10
61.75259325907799
 20
22.34775480874294
 30
0.0
 11
61.812593259078
 21
22.34775480874294
 31
0.0
  0
LINE
  5
5DBD
330
47A9
100
AcDbEntity
  8
HIDDEN
100
AcDbLine
 10
62.11859325907799
 20
22.69203480874294
 30
0.0
 11
62.11859325907799
 21
22.34559480874294
 31
0.0
  0
LINE
  5
5DBE
330
47A9
100
AcDbEntity
  8
OBJECT
100
AcDbLine
 10
64.77459325907799
 20
22.71019480874295
 30
0.0
 11
64.77459325907799
 21
13.40437480874295
 31
0.0
  0
LINE
  5
5DC0
330
47A9
100
AcDbEntity
  8
HIDDEN
100
AcDbLine
 10
64.45426225907801
 20
14.21072530874296
 30
0.0
 11
64.45426225907801
 21
13.93576430874295
 31
0.0
  0
LWPOLYLINE
  5
5DC1
330
47A9
100
AcDbEntity
  8
HIDDEN
100
AcDbPolyline
 90
        4
 70
     0
 43
0.0
 10
64.45426225907801
 20
14.16724480874295
 10
64.684483259078
 20
14.16724480874295
 10
64.684483259078
 20
13.97924480874294
 10
64.45426225907801
 20
13.97924480874294
  0
ARC
  5
5DC7
330
47A9
100
AcDbEntity
  8
OBJECT
100
AcDbCircle
 10
64.71259325907801
 20
13.40437480874295
 30
0.0
 40
0.062
100
AcDbArc
 50
270.0
 51
0.0
  0
LINE
  5
5DC8
330
47A9
100
AcDbEntity
  8
HIDDEN
100
AcDbLine
 10
64.64479825907801
 20
13.66333730874294
 30
0.0
 11
64.77459325907799
 21
13.66333730874294
 31
0.0
  0
LINE
  5
5DC9
330
47A9
100
AcDbEntity
  8
HIDDEN
100
AcDbLine
 10
64.64479825907801
 20
13.48617230874295
 30
0.0
 11
64.77459325907799
 21
13.48617230874295
 31
0.0
  0
LINE
  5
5DCA
330
47A9
100
AcDbEntity
  8
HIDDEN
100
AcDbLine
 10
64.45426225907801
 20
14.01074480874294
 30
0.0
 11
64.684483259078
 21
14.01074480874294
 31
0.0
  0
LINE
  5
5DCB
330
47A9
100
AcDbEntity
  8
HIDDEN
100
AcDbLine
 10
64.45426225907801
 20
13.93576430874295
 30
0.0
 11
64.644593259078
 21
13.9090150311332
 31
0.0
  0
LINE
  5
5DD0
330
47A9
100
AcDbEntity
  8
HIDDEN
100
AcDbLine
 10
64.45426225907801
 20
14.13574480874294
 30
0.0
 11
64.684483259078
 21
14.13574480874294
 31
0.0
  0
LINE
  5
5DD1
330
47A9
100
AcDbEntity
  8
HIDDEN
100
AcDbLine
 10
64.45426225907801
 20
14.21072530874296
 30
0.0
 11
64.644593259078
 21
14.23747458635269
 31
0.0
  0
LINE
  5
5DDA
330
47A9
100
AcDbEntity
  8
HIDDEN
100
AcDbLine
 10
64.45426225907801
 20
17.92030430874294
 30
0.0
 11
64.45426225907801
 21
18.19526530874294
 31
0.0
  0
LINE
  5
5DE1
330
47A9
100
AcDbEntity
  8
HIDDEN
100
AcDbLine
 10
64.45426225907801
 20
17.92030430874294
 30
0.0
 11
64.644593259078
 21
17.89355503113321
 31
0.0
  0
LINE
  5
5DE2
330
47A9
100
AcDbEntity
  8
HIDDEN
100
AcDbLine
 10
64.66248325907802
 20
18.00928480874294
 30
0.0
 11
64.66248325907802
 21
18.10628480874294
 31
0.0
  0
LINE
  5
5DE3
330
47A9
100
AcDbEntity
  8
HIDDEN
100
AcDbLine
 10
64.45426225907801
 20
18.19526530874294
 30
0.0
 11
64.644593259078
 21
18.22201458635269
 31
0.0
  0
LINE
  5
5DE4
330
47A9
100
AcDbEntity
  8
HIDDEN
100
AcDbLine
 10
64.45426225907801
 20
18.10628480874294
 30
0.0
 11
64.66248325907802
 21
18.10628480874294
 31
0.0
  0
LINE
  5
5DE5
330
47A9
100
AcDbEntity
  8
HIDDEN
100
AcDbLine
 10
64.45426225907801
 20
18.00928480874294
 30
0.0
 11
64.66248325907802
 21
18.00928480874294
 31
0.0
  0
ARC
  5
5DF8
330
47A9
100
AcDbEntity
  8
OBJECT
100
AcDbCircle
 10
64.71259325907801
 20
22.71019480874295
 30
0.0
 40
0.062
100
AcDbArc
 50
0.0
 51
90.0
  0
LINE
  5
5DF9
330
47A9
100
AcDbEntity
  8
HIDDEN
100
AcDbLine
 10
64.64479825907801
 20
22.62839730874295
 30
0.0
 11
64.77459325907799
 21
22.62839730874295
 31
0.0
  0
LINE
  5
5DFA
330
47A9
100
AcDbEntity
  8
HIDDEN
100
AcDbLine
 10
64.64479825907801
 20
22.45123230874296
 30
0.0
 11
64.77459325907799
 21
22.45123230874296
 31
0.0
  0
LINE
  5
5DFB
330
47A9
100
AcDbEntity
  8
HIDDEN
100
AcDbLine
 10
64.45426225907801
 20
21.90384430874295
 30
0.0
 11
64.45426225907801
 21
22.17880530874295
 31
0.0
  0
LINE
  5
5DFC
330
47A9
100
AcDbEntity
  8
HIDDEN
100
AcDbLine
 10
64.45426225907801
 20
22.17880530874295
 30
0.0
 11
64.644593259078
 21
22.2055545863527
 31
0.0
  0
LINE
  5
5DFD
330
47A9
100
AcDbEntity
  8
HIDDEN
100
AcDbLine
 10
64.45426225907801
 20
21.90384430874295
 30
0.0
 11
64.644593259078
 21
21.87709503113321
 31
0.0
  0
LWPOLYLINE
  5
5DFE
330
47A9
100
AcDbEntity
  8
HIDDEN
100
AcDbPolyline
 90
        4
 70
     0
 43
0.0
 10
64.45426225907801
 20
21.94732480874295
 10
64.684483259078
 20
21.94732480874295
 10
64.684483259078
 20
22.13532480874295
 10
64.45426225907801
 20
22.13532480874295
  0
LINE
  5
5E04
330
47A9
100
AcDbEntity
  8
HIDDEN
100
AcDbLine
 10
64.45426225907801
 20
21.97882480874295
 30
0.0
 11
64.684483259078
 21
21.97882480874295
 31
0.0
  0
LINE
  5
5E05
330
47A9
100
AcDbEntity
  8
HIDDEN
100
AcDbLine
 10
64.45426225907801
 20
22.10382480874295
 30
0.0
 11
64.684483259078
 21
22.10382480874295
 31
0.0
  0
LWPOLYLINE
  5
5E06
330
47A9
100
AcDbEntity
  8
OBJECT
100
AcDbPolyline
 90
        6
 70
     1
 43
0.0
 10
61.812593259078
 20
13.34237480874294
 10
61.812593259078
 20
22.77219480874294
 10
60.88004225907801
 20
22.77219480874294
 42
0.4142135623730951
 10
60.81804225907799
 20
22.71019480874294
 10
60.81804225907799
 20
13.40437480874294
 42
0.4142135623730951
 10
60.88004225907798
 20
13.34237480874294
  0
LINE
  5
5E0E
330
47A9
100
AcDbEntity
  8
HIDDEN
100
AcDbLine
 10
60.947837259078
 20
22.59219480874294
 30
0.0
 11
60.94783725907799
 21
13.52237480874294
 31
0.0
  0
LINE
  5
5E0F
330
47A9
100
AcDbEntity
  8
HIDDEN
100
AcDbLine
 10
61.812593259078
 20
13.68425480874295
 30
0.0
 11
61.328042259078
 21
13.68425480874295
 31
0.0
  0
LINE
  5
5E10
330
47A9
100
AcDbEntity
  8
HIDDEN
100
AcDbLine
 10
61.812593259078
 20
13.50925480874294
 30
0.0
 11
61.328042259078
 21
13.50925480874294
 31
0.0
  0
LINE
  5
5E11
330
47A9
100
AcDbEntity
  8
HIDDEN
100
AcDbLine
 10
61.812593259078
 20
13.83201980874295
 30
0.0
 11
60.95583725907799
 21
13.83201980874295
 31
0.0
  0
LINE
  5
5E12
330
47A9
100
AcDbEntity
  8
HIDDEN
100
AcDbLine
 10
61.812593259078
 20
13.52237480874294
 30
0.0
 11
60.94783725907799
 21
13.52237480874294
 31
0.0
  0
LINE
  5
5E13
330
47A9
100
AcDbEntity
  8
HIDDEN
100
AcDbLine
 10
61.328042259078
 20
13.75175480874295
 30
0.0
 11
60.81804225907799
 21
13.75175480874295
 31
0.0
  0
LINE
  5
5E14
330
47A9
100
AcDbEntity
  8
HIDDEN
100
AcDbLine
 10
61.328042259078
 20
13.44175480874294
 30
0.0
 11
60.81804225907799
 21
13.44175480874294
 31
0.0
  0
LINE
  5
5E15
330
47A9
100
AcDbEntity
  8
HIDDEN
100
AcDbLine
 10
61.328042259078
 20
13.75175480874295
 30
0.0
 11
61.328042259078
 21
13.44175480874294
 31
0.0
  0
LINE
  5
5E16
330
47A9
100
AcDbEntity
  8
HIDDEN
100
AcDbLine
 10
61.812593259078
 20
22.60531480874294
 30
0.0
 11
61.328042259078
 21
22.60531480874294
 31
0.0
  0
LINE
  5
5E17
330
47A9
100
AcDbEntity
  8
HIDDEN
100
AcDbLine
 10
61.812593259078
 20
22.43031480874293
 30
0.0
 11
61.328042259078
 21
22.43031480874293
 31
0.0
  0
LINE
  5
5E18
330
47A9
100
AcDbEntity
  8
HIDDEN
100
AcDbLine
 10
61.812593259078
 20
22.28254980874294
 30
0.0
 11
60.95583725907799
 21
22.28254980874294
 31
0.0
  0
LINE
  5
5E19
330
47A9
100
AcDbEntity
  8
HIDDEN
100
AcDbLine
 10
61.812593259078
 20
22.59219480874294
 30
0.0
 11
60.947837259078
 21
22.59219480874294
 31
0.0
  0
LINE
  5
5E1A
330
47A9
100
AcDbEntity
  8
HIDDEN
100
AcDbLine
 10
61.328042259078
 20
22.67281480874293
 30
0.0
 11
60.81804225907799
 21
22.67281480874293
 31
0.0
  0
LINE
  5
5E1B
330
47A9
100
AcDbEntity
  8
HIDDEN
100
AcDbLine
 10
61.328042259078
 20
22.36281480874294
 30
0.0
 11
60.81804225907799
 21
22.36281480874294
 31
0.0
  0
LINE
  5
5E1C
330
47A9
100
AcDbEntity
  8
HIDDEN
100
AcDbLine
 10
61.328042259078
 20
22.36281480874294
 30
0.0
 11
61.328042259078
 21
22.67281480874293
 31
0.0
  0
DIMENSION
  5
5E1D
330
47A9
100
AcDbEntity
  8
DIM
100
AcDbDimension
  2
*D23
 10
60.947837259078
 20
18.92134927021376
 30
0.0
 11
62.701049759078
 21
18.92134927021376
 31
0.0
 70
    32
  1
D
 71
     5
 42
3.506425000000007
  3
23NSTD
100
AcDbAlignedDimension
 13
64.45426225907801
 23
19.37700430874294
 33
0.0
 14
60.947837259078
 24
19.37700430874295
 34
0.0
100
AcDbRotatedDimension
  0
DIMENSION
  5
5E2B
330
47A9
100
AcDbEntity
  8
DIM
100
AcDbDimension
  2
*D24
 10
64.77459325907799
 20
23.96522017238682
 30
0.0
 11
62.79631775907799
 21
23.96522017238682
 31
0.0
 70
    32
  1
C
 71
     5
 42
3.956550999999997
  3
23NSTD
100
AcDbAlignedDimension
 13
60.81804225907799
 23
22.71019480874294
 33
0.0
 14
64.77459325907799
 24
22.71019480874295
 34
0.0
100
AcDbRotatedDimension
  0
DIMENSION
  5
5E4A
330
47A9
100
AcDbEntity
  8
DIM
100
AcDbDimension
  2
*D25
 10
46.45021942437602
 20
13.34237480874294
 30
0.0
 11
43.93271942437602
 21
11.90237480874295
 31
0.0
 70
    32
  1
<> TYP.
 71
     5
 42
0.1799999999999997
  3
23NSTD
100
AcDbAlignedDimension
 13
46.19821942437602
 23
13.52237480874294
 33
0.0
 14
46.19821942437602
 24
13.34237480874294
 34
0.0
 50
270.0
100
AcDbRotatedDimension
  0
LINE
  5
5E5C
102
{ACAD_REACTORS
330
ADDA
102
}
330
47A9
100
AcDbEntity
  8
OBJECT
100
AcDbLine
 10
26.11884150483922
 20
22.30875480874293
 30
0.0
 11
29.01084150483923
 21
22.30875480874292
 31
0.0
  0
LINE
  5
5E61
102
{ACAD_REACTORS
330
ADDA
102
}
330
47A9
100
AcDbEntity
  8
OBJECT
100
AcDbLine
 10
26.17884150483922
 20
22.75219480874294
 30
0.0
 11
26.22184150483921
 21
22.75219480874294
 31
0.0
  0
LINE
  5
5E63
102
{ACAD_REACTORS
330
ADDA
102
}
330
47A9
100
AcDbEntity
  8
OBJECT
100
AcDbLine
 10
26.11884150483922
 20
22.34775480874293
 30
0.0
 11
26.17884150483922
 21
22.34775480874293
 31
0.0
  0
ARC
  5
5E65
102
{ACAD_REACTORS
330
ADDA
102
}
330
47A9
100
AcDbEntity
  8
OBJECT
100
AcDbCircle
 10
29.07884150483923
 20
22.71019480874293
 30
0.0
 40
0.062
100
AcDbArc
 50
0.0
 51
90.00000000000003
  0
LINE
  5
5E66
102
{ACAD_REACTORS
330
ADDA
102
}
330
47A9
100
AcDbEntity
  8
OBJECT
100
AcDbLine
 10
29.01104650483924
 20
22.62839730874293
 30
0.0
 11
29.14084150483923
 21
22.62839730874293
 31
0.0
  0
LINE
  5
5E67
102
{ACAD_REACTORS
330
ADDA
102
}
330
47A9
100
AcDbEntity
  8
OBJECT
100
AcDbLine
 10
29.01104650483924
 20
22.45123230874294
 30
0.0
 11
29.14084150483923
 21
22.45123230874294
 31
0.0
  0
DIMENSION
  5
5E73
330
47A9
100
AcDbEntity
  8
DIM
100
AcDbDimension
  2
*D26
 10
23.13366558825487
 20
13.57575480874294
 30
0.0
 11
23.13366558825487
 21
18.05778480874295
 31
0.0
 70
    32
 71
     5
 42
8.964060000000005
  3
23NSTD
100
AcDbAlignedDimension
 13
17.0431722037262
 23
22.53981480874295
 33
0.0
 14
17.0431722037262
 24
13.57575480874294
 34
0.0
 50
90.0
100
AcDbRotatedDimension
  0
DIMENSION
  5
5E8F
330
47A9
100
AcDbEntity
  8
DIM
100
AcDbDimension
  2
*D27
 10
17.5159222037262
 20
20.70487660436405
 30
0.0
 11
15.61511052185483
 21
20.70487660436405
 31
0.0
 70
   160
 71
     5
 42
4.480619999999987
  3
23NSTD
100
AcDbAlignedDimension
 13
13.03530220372621
 23
20.45287660436405
 33
0.0
 14
17.5159222037262
 24
20.45287660436405
 34
0.0
100
AcDbRotatedDimension
  0
DIMENSION
  5
5E9D
330
47A9
100
AcDbEntity
  8
DIM
100
AcDbDimension
  2
*D28
 10
14.07150720372621
 20
22.65239980874295
 30
0.0
 11
14.07150720372621
 21
17.28214566312368
 31
0.0
 70
   160
 71
     5
 42
9.190230000000005
  3
23NSTD
100
AcDbAlignedDimension
 13
13.81950720372621
 23
13.46216980874294
 33
0.0
 14
13.81950720372622
 24
22.65239980874295
 34
0.0
 50
90.0
100
AcDbRotatedDimension
  0
DIMENSION
  5
5EAF
330
47A9
100
AcDbEntity
  8
DIM
100
AcDbDimension
  2
*D29
 10
44.26859659979043
 20
23.99135420864741
 30
0.0
 11
41.74984659979043
 21
23.99135420864741
 31
0.0
 70
    32
  1
<>
 71
     5
 42
0.2571050000000028
  3
23NSTD
100
AcDbAlignedDimension
 13
44.52570159979043
 23
22.51781480874296
 33
0.0
 14
44.26859659979043
 24
22.51781480874296
 34
0.0
 50
180.0
100
AcDbRotatedDimension
  0
DIMENSION
  5
5EBD
330
47A9
100
AcDbEntity
  8
DIM
100
AcDbDimension
  2
*D30
 10
50.25070139718959
 20
22.77219480874294
 30
0.0
 11
52.04945139718958
 21
24.21219480874295
 31
0.0
 70
    32
  1
<>
 71
     5
 42
0.2543799999999976
  3
23NSTD
100
AcDbAlignedDimension
 13
48.73170159979042
 23
22.51781480874294
 33
0.0
 14
48.73170159979042
 24
22.77219480874294
 34
0.0
 50
90.0
100
AcDbRotatedDimension
  0
LINE
  5
5ED1
330
47A9
100
AcDbEntity
  8
HIDDEN
100
AcDbLine
 10
44.55620159979043
 20
28.27669266367783
 30
0.0
 11
44.55620159979043
 21
28.23169266367783
 31
0.0
  0
LINE
  5
5ED2
330
47A9
100
AcDbEntity
  8
HIDDEN
100
AcDbLine
 10
48.70120159979042
 20
28.23169266367783
 30
0.0
 11
44.55620159979043
 21
28.23169266367783
 31
0.0
  0
LINE
  5
5ED3
330
47A9
100
AcDbEntity
  8
HIDDEN
100
AcDbLine
 10
48.70120159979042
 20
28.23169266367783
 30
0.0
 11
48.70120159979042
 21
28.27669266367783
 31
0.0
  0
LINE
  5
5ED5
330
47A9
100
AcDbEntity
  8
OBJECT
100
AcDbLine
 10
55.87300717429426
 20
22.18478480874294
 30
0.0
 11
55.82800717429425
 21
22.18478480874294
 31
0.0
  0
LINE
  5
5ED6
330
47A9
100
AcDbEntity
  8
OBJECT
100
AcDbLine
 10
55.87300717429426
 20
18.24276731010677
 30
0.0
 11
55.82800717429424
 21
18.24276731010677
 31
0.0
  0
LINE
  5
5ED8
330
47A9
100
AcDbEntity
  8
OBJECT
100
AcDbLine
 10
55.82800717429424
 20
18.24276731010677
 30
0.0
 11
55.82800717429425
 21
22.18478480874294
 31
0.0
  0
LINE
  5
5ED9
330
47A9
100
AcDbEntity
  8
HIDDEN
100
AcDbLine
 10
60.818042259078
 20
22.18478480874294
 30
0.0
 11
60.863042259078
 21
22.18478480874294
 31
0.0
  0
LINE
  5
5EDA
330
47A9
100
AcDbEntity
  8
HIDDEN
100
AcDbLine
 10
60.818042259078
 20
13.92978480874294
 30
0.0
 11
60.86304225907801
 21
13.92978480874294
 31
0.0
  0
LINE
  5
5EDB
330
47A9
100
AcDbEntity
  8
HIDDEN
100
AcDbLine
 10
60.86304225907801
 20
13.92978480874294
 30
0.0
 11
60.863042259078
 21
22.18478480874294
 31
0.0
  0
DIMENSION
  5
5EDC
330
47A9
100
AcDbEntity
  8
DIM
100
AcDbDimension
  2
*D31
 10
3.864177417934172
 20
22.77219480874295
 30
0.0
 11
5.662927417934168
 21
24.21219480874295
 31
0.0
 70
    32
 71
     5
 42
0.2533799999999999
  3
23NSTD
100
AcDbAlignedDimension
 13
13.17261220372621
 23
22.51881480874294
 33
0.0
 14
13.17261220372621
 24
22.77219480874294
 34
0.0
 50
90.0
100
AcDbRotatedDimension
  0
DIMENSION
  5
5EF3
330
47A9
100
AcDbEntity
  8
DIM
100
AcDbDimension
  2
*D32
 10
29.14084150483923
 20
17.17556530874295
 30
0.0
 11
31.62834150483924
 21
17.17556530874295
 31
0.0
 70
    32
 71
     5
 42
0.320331000000003
  3
23NSTD
100
AcDbAlignedDimension
 13
28.82051050483923
 23
16.73826530874294
 33
0.0
 14
29.14084150483923
 24
16.76504339722379
 34
0.0
100
AcDbRotatedDimension
  0
DIMENSION
  5
611E
330
47A9
100
AcDbEntity
  8
DIM
100
AcDbDimension
  2
*D33
 10
15.2756122037262
 20
28.31691719944967
 30
0.0
 11
10.39675720372621
 21
28.31691719944967
 31
0.0
 70
   160
 71
     5
 42
2.360104999999993
  3
23NSTD
100
AcDbAlignedDimension
 13
12.91550720372621
 23
22.52219480874295
 33
0.0
 14
15.2756122037262
 24
23.49219480874294
 34
0.0
100
AcDbRotatedDimension
  0
TEXT
  5
7C11
330
47A9
100
AcDbEntity
  8
TEXT
100
AcDbText
 10
17.8037310663402
 20
12.59337480874294
 30
0.0
 40
0.5
  1
A
 41
0.8
  7
SECTION
 72
     4
 11
17.99420725681639
 21
12.84337480874294
 31
0.0
100
AcDbText
  0
TEXT
  5
7C12
330
47A9
100
AcDbEntity
  8
TEXT
100
AcDbText
 10
17.18048275749113
 20
23.02319480874294
 30
0.0
 40
0.5
  1
A
 41
0.8
  7
SECTION
 72
     4
 11
17.37095894796732
 21
23.27319480874294
 31
0.0
100
AcDbText
  0
TEXT
  5
7C14
330
47A9
100
AcDbEntity
  8
TEXT
100
AcDbText
 10
42.55124032473686
 20
9.215712003887915
 30
0.0
 40
0.72
  1
%%UCOVER
 41
0.75
 72
     1
 11
43.91024032473686
 21
9.215712003887915
 31
0.0
100
AcDbText
  0
TEXT
  5
7C15
330
47A9
100
AcDbEntity
  8
TEXT
100
AcDbText
 10
49.07204186603701
 20
12.59237480874294
 30
0.0
 40
0.5
  1
B
 41
0.8
  7
SECTION
 72
     4
 11
49.27204186603701
 21
12.84237480874294
 31
0.0
100
AcDbText
  0
TEXT
  5
7C16
330
47A9
100
AcDbEntity
  8
TEXT
100
AcDbText
 10
47.28687787928961
 20
23.02219480874294
 30
0.0
 40
0.5
  1
B
 41
0.8
  7
SECTION
 72
     4
 11
47.48687787928962
 21
23.27219480874294
 31
0.0
100
AcDbText
  0
TEXT
  5
7C18
330
47A9
100
AcDbEntity
  8
TEXT
100
AcDbText
 10
55.73649462137571
 20
27.46286894286817
 30
0.0
 40
0.5
  1
%%uDETAIL "C"
 41
0.8
  7
SECTION
 72
     4
 11
57.49554224042333
 21
27.71048799048722
 31
0.0
100
AcDbText
  0
TEXT
  5
7C21
330
47A9
100
AcDbEntity
  8
TEXT
100
AcDbText
 10
25.34678821718786
 20
11.00004399679875
 30
0.0
 40
0.5
  1
%%uSECTION "A-A"
 41
0.8
  7
SECTION
 72
     4
 11
27.78202631242595
 21
11.2476630444178
 31
0.0
100
AcDbText
  0
CIRCLE
  5
7C30
330
47A9
100
AcDbEntity
  8
BEND
100
AcDbCircle
 10
55.36300717429424
 20
13.56875480874294
 30
0.0
 40
1.023080173104681
  0
DIMENSION
  5
7C32
330
47A9
100
AcDbEntity
  8
DIM
100
AcDbDimension
  2
*D35
 10
62.8444911646616
 20
29.85412080230927
 30
0.0
 11
62.84449116466159
 21
30.47412080230929
 31
0.0
 70
    32
  1
<> DIA. C'BORE
 71
     5
 42
0.3100000000000023
  3
23NSTD4I
100
AcDbAlignedDimension
 13
59.70049116466162
 23
31.09412080230928
 33
0.0
 14
59.70049116466165
 24
29.85412080230927
 34
0.0
 50
90.0
100
AcDbRotatedDimension
  0
TEXT
  5
7C5C
330
47A9
100
AcDbEntity
  8
TEXT
100
AcDbText
 10
52.59320350463642
 20
10.13980779446942
 30
0.0
 40
0.5
  1
%%uSECTION "B-B"
 41
0.8
  7
SECTION
 72
     4
 11
55.06653683796975
 21
10.38742684208847
 31
0.0
100
AcDbText
  0
LWPOLYLINE
  5
7D72
330
47A9
100
AcDbEntity
  8
BEND
100
AcDbPolyline
 90
       12
 70
     0
 10
15.84208162529356
 20
23.27319480874294
 40
0.0
 41
0.31350000015675
 10
16.46908162560704
 20
23.27319480874294
 40
0.052250000026125
 41
0.052250000026125
 10
17.05317220372623
 20
23.27319480874294
 40
0.052250000026125
 41
0.052250000026125
 10
17.05317220372623
 20
22.25869031345931
 40
0.052250000026125
 41
0.052250000026125
 10
17.21178220372621
 20
22.25869031345931
 40
0.052250000026125
 41
0.052250000026125
 10
17.21178220372621
 20
18.99860222969028
 40
0.052250000026125
 41
0.052250000026125
 10
16.82321981432184
 20
18.99860222969028
 40
0.052250000026125
 41
0.052250000026125
 10
16.82321981432184
 20
14.403483129009
 40
0.052250000026125
 41
0.052250000026125
 10
17.3786122037262
 20
14.403483129009
 40
0.052250000026125
 41
0.052250000026125
 10
17.3786122037262
 20
12.84337480874294
 40
0.052250000026125
 41
0.052250000026125
 10
16.65479329243109
 20
12.84337480874294
 40
0.31350000015675
 41
0.0
 10
16.0277932921176
 20
12.84337480874294
 40
0.0
 41
0.0
  0
LWPOLYLINE
  5
7D73
330
47A9
100
AcDbEntity
  8
BEND
100
AcDbPolyline
 90
        8
 70
     0
 10
47.40738286770188
 20
12.84237480874294
 40
0.0
 41
0.31350000172425
 10
48.0343828711504
 20
12.84237480874294
 40
0.052250000287375
 41
0.052250000287375
 10
48.74220159979042
 20
12.84237480874294
 40
0.052250000287375
 41
0.052250000287375
 10
48.74220159979042
 20
18.24276731010677
 40
0.052250000287375
 41
0.052250000287375
 10
46.95703761304303
 20
18.24276731010677
 40
0.052250000287375
 41
0.052250000287375
 10
46.95703761304303
 20
23.27219480874294
 40
0.052250000287375
 41
0.052250000287375
 10
46.24921888440297
 20
23.27219480874294
 40
0.31350000172425
 41
0.0
 10
45.62221888095447
 20
23.27219480874294
 40
0.0
 41
0.0
  0
SPLINE
  5
7D96
102
{ACAD_REACTORS
330
A982
102
}
330
47A9
100
AcDbEntity
  8
OBJECT
100
AcDbSpline
210
0.0
220
0.0
230
1.0
 70
     8
 71
     3
 72
    12
 73
     8
 74
     0
 42
0.0000000001
 43
0.0000000001
 40
0.0
 40
0.0
 40
0.0
 40
0.0
 40
0.7000107611411465
 40
1.671303034852499
 40
2.939021505043434
 40
3.720803541383206
 40
4.375821937656322
 40
4.375821937656322
 40
4.375821937656322
 40
4.375821937656322
 10
55.72228716466164
 20
32.90244270513529
 30
0.0
 10
55.9125238813494
 20
33.09773042063026
 30
0.0
 10
56.36672147314403
 20
33.56398746937063
 30
0.0
 10
57.26161207763373
 20
32.43544740607753
 30
0.0
 10
58.25508734163446
 20
33.65217308146173
 30
0.0
 10
59.042251690415
 20
32.77873203173541
 30
0.0
 10
59.49194740512741
 20
32.98850817045254
 30
0.0
 10
59.70049116466168
 20
33.09770585002267
 30
0.0
  0
LEADER
  5
7DA1
330
47A9
100
AcDbEntity
  8
DIM
100
AcDbLeader
  3
23NSTD
 73
     0
 75
     1
 40
1.333333333333333
 41
5.25
 76
     3
 10
55.72228716466164
 20
31.34836080230929
 30
0.0
 10
53.5436177983261
 20
34.06739429387018
 30
0.0
 10
52.8236177983261
 20
34.06739429387018
 30
0.0
340
7DA2
213
0.0
223
-0.25
233
0.0
1001
ACAD
1000
DSTYLE
1002
{
1070
   147
1040
0.09
1070
    77
1070
     0
1002
}
  0
MTEXT
  5
7DA2
102
{ACAD_REACTORS
330
7DA1
102
}
330
47A9
100
AcDbEntity
  8
DIM
100
AcDbMText
 10
52.46361779832611
 20
34.31739429387018
 30
0.0
 40
0.5
 41
0.0
 71
     3
 72
     1
  1
\A1;SILICONE GASKET\P(CLEAR)
 73
     1
 44
1.0
  0
LEADER
  5
7DA7
330
47A9
100
AcDbEntity
  8
DIM
100
AcDbLeader
  3
23NSTD
 73
     0
 75
     1
 40
0.5000000000000001
 41
4.75
 76
     3
 10
54.80884620715531
 20
12.708755586011
 30
0.0
 10
53.69889935152578
 20
11.30205147600159
 30
0.0
 10
52.97889935152578
 20
11.30205147600159
 30
0.0
340
7DA8
1001
ACAD
1000
DSTYLE
1002
{
1070
   147
1040
0.09
1070
    77
1070
     0
1002
}
  0
MTEXT
  5
7DA8
102
{ACAD_REACTORS
330
7DA7
102
}
330
47A9
100
AcDbEntity
  8
DIM
100
AcDbMText
 10
52.61889935152577
 20
11.30205147600159
 30
0.0
 40
0.5
 41
0.0
 71
     6
 72
     1
  1
\A1;SEE DETAIL "C"
 73
     1
 44
1.0
  0
LEADER
  5
7DA9
330
47A9
100
AcDbEntity
  8
DIM
100
AcDbLeader
  3
23NSTD
 73
     0
 74
     0
 75
     1
 40
5.499999999999999
 41
9.75
 76
     3
 10
17.31743804848398
 20
14.9057011362531
 30
0.0
 10
20.89905659136651
 20
9.785592893723858
 30
0.0
 10
21.61905659136651
 20
9.785592893723858
 30
0.0
340
7DAA
213
0.0
223
-0.25
233
0.0
1001
ACAD
1000
DSTYLE
1002
{
1070
   147
1040
0.09
1070
    77
1070
     0
1002
}
  0
MTEXT
  5
7DAA
102
{ACAD_REACTORS
330
7DA9
102
}
330
47A9
100
AcDbEntity
  8
DIM
100
AcDbMText
 10
21.97905659136651
 20
10.03559289372385
 30
0.0
 40
0.5
 41
0.0
 71
     1
 72
     1
  1
0.275 DIA. BOSS WITH\P0.197 DIA. HOLE x 0.208 DEEP\P(21) PLACES\PMOUNTING BOSSES USE EITHER\PM2.5 METRIC OR #4 STD. SHEET\PMETAL SCREWS x 0.188 LG.\P(NOT SUPPLIED)
 73
     1
 44
1.0
  0
TEXT
  5
8401
330
47A9
100
AcDbEntity
  8
TEXT
100
AcDbText
 10
35.84958227821363
 20
40.39035894392343
 30
0.0
 40
0.5503999991424
  1
PNR-2605,  PNR-2605-C  AND  PNR-2605-DG
 41
0.75
 72
     4
 11
43.62398226610003
 21
40.61969227689942
 31
0.0
100
AcDbText
  0
TEXT
  5
8402
330
47A9
100
AcDbEntity
  8
TEXT
100
AcDbText
 10
35.84958227821363
 20
39.56621275629895
 30
0.0
 40
0.5503999991424
  1
PNR-2606,  PNR-2606-C  AND  PNR-2606-DG
 41
0.75
 72
     4
 11
43.62398226610003
 21
39.79554608927495
 31
0.0
100
AcDbText
  0
INSERT
  5
8403
330
47A9
100
AcDbEntity
  8
OBJECT
100
AcDbBlockReference
  2
HBS
 10
0.0
 20
0.0
 30
0.0
 41
4.0
 42
4.0
 43
4.0
  0
TEXT
  5
8404
330
47A9
100
AcDbEntity
  8
TEXT
100
AcDbText
 10
11.71775000000002
 20
39.91550000000001
 30
0.0
 40
0.625
  1
NEMA 4X ENCLOSURE
 41
0.75
 72
     4
 11
15.62400000000002
 21
40.22800000000001
 31
0.0
100
AcDbText
  0
TEXT
  5
8405
330
47A9
100
AcDbEntity
  8
TEXT
100
AcDbText
 10
61.17654476610005
 20
39.91550000000001
 30
0.0
 40
0.625
  1
11-17-08
 41
0.75
 72
     4
 11
62.69998226610005
 21
40.22800000000001
 31
0.0
100
AcDbText
  0
TEXT
  5
8406
330
47A9
100
AcDbEntity
  8
TEXT
100
AcDbText
 10
1.07120348973514
 20
36.33046805236022
 30
0.0
 40
0.4999998
  1
  UL94-HB FLAMMABILITY RATING (UL FILE #E41613)
 41
0.75
100
AcDbText
  0
TEXT
  5
8407
330
47A9
100
AcDbEntity
  8
TEXT
100
AcDbText
 10
1.07120348973514
 20
34.66406905236023
 30
0.0
 40
0.4999998
  1
  SERVICE TEMPERATURE RANGE:  -40%%DC TO +120%%DC
 41
0.75
100
AcDbText
  0
TEXT
  5
8408
330
47A9
100
AcDbEntity
  8
TEXT
100
AcDbText
 10
1.07120348973514
 20
32.99767005236023
 30
0.0
 40
0.4999998
  1
  UL94-HB FLAMMABILITY RATING (UL FILE #E56070)
 41
0.75
100
AcDbText
  0
TEXT
  5
8409
330
47A9
100
AcDbEntity
  8
TEXT
100
AcDbText
 10
1.07120348973514
 20
32.16460405236022
 30
0.0
 40
0.4999998
  1
  SERVICE TEMPERATURE RANGE:  -40%%DC TO +80%%DC
 41
0.75
100
AcDbText
  0
TEXT
  5
840A
330
47A9
100
AcDbEntity
  8
TEXT
100
AcDbText
 10
1.07120348973514
 20
37.16380105236021
 30
0.0
 40
0.4999998
  1
 %%UPOLYCARBONATE%%U (LIGHT GRAY AND CLEAR)
 41
0.75
100
AcDbText
  0
TEXT
  5
840B
330
47A9
100
AcDbEntity
  8
TEXT
100
AcDbText
 10
1.07120348973514
 20
35.49740205236021
 30
0.0
 40
0.4999998
  1
  UV STABILIZED
 41
0.75
100
AcDbText
  0
TEXT
  5
840C
330
47A9
100
AcDbEntity
  8
TEXT
100
AcDbText
 10
1.07120348973514
 20
37.99713405236022
 30
0.0
 40
0.6249997500000001
  1
INDUSTRY STANDARDS:
 41
0.75
100
AcDbText
  0
TEXT
  5
840D
330
47A9
100
AcDbEntity
  8
TEXT
100
AcDbText
 10
1.07120348973514
 20
33.83100305236022
 30
0.0
 40
0.4999998
  1
 %%UABS%%U (DARK GRAY)
 41
0.75
100
AcDbText
  0
TEXT
  5
840E
330
47A9
100
AcDbEntity
  8
TEXT
100
AcDbText
 10
32.55202079999685
 20
4.819997028200461
 30
0.0
 40
0.49999967500005
  1
%%UNOTE%%U:  ALL DIMENSIONS HAVE %%P0.015 TOLERANCE UNLESS OTHERWISE SPECIFIED.
 41
0.75
100
AcDbText
  0
LINE
  5
840F
330
47A9
100
AcDbEntity
  8
TITLE
100
AcDbLine
 10
42.15201559999764
 20
3.575997836800326
 30
0.0
 11
58.15200519999925
 21
3.575997836800326
 31
0.0
  0
TEXT
  5
8410
330
47A9
100
AcDbEntity
  8
TEXT
100
AcDbText
 10
52.52700885624868
 20
0.4099998947000099
 30
0.0
 40
0.49999967500005
  1
DARK GRAY
 41
0.75
 72
     4
 11
54.15200779999884
 21
0.6599997322000349
 31
0.0
100
AcDbText
  0
TEXT
  5
8411
330
47A9
100
AcDbEntity
  8
TEXT
100
AcDbText
 10
52.40200893749866
 20
2.076665478033507
 30
0.0
 40
0.49999967500005
  1
LIGHT GRAY
 41
0.75
 72
     4
 11
54.15200779999884
 21
2.326665315533531
 31
0.0
100
AcDbText
  0
TEXT
  5
8412
330
47A9
100
AcDbEntity
  8
TEXT
100
AcDbText
 10
53.21450840937375
 20
3.74199772890036
 30
0.0
 40
0.49999967500005
  1
FINISH
 41
0.75
 72
     4
 11
54.15200779999884
 21
3.991997566400385
 31
0.0
100
AcDbText
  0
LINE
  5
8413
330
47A9
100
AcDbEntity
  8
TITLE
100
AcDbLine
 10
32.55202079999685
 20
4.407997296000417
 30
0.0
 11
66.15200000000005
 21
4.407997296000417
 31
0.0
  0
LINE
  5
8414
330
47A9
100
AcDbEntity
  8
TITLE
100
AcDbLine
 10
32.55202079999685
 20
2.743998377600263
 30
0.0
 11
66.15200000000005
 21
2.743998377600263
 31
0.0
  0
LINE
  5
8415
330
47A9
100
AcDbEntity
  8
TITLE
100
AcDbLine
 10
32.55202079999685
 20
1.911998918400172
 30
0.0
 11
58.15200519999925
 21
1.911998918400172
 31
0.0
  0
LINE
  5
8416
330
47A9
100
AcDbEntity
  8
TITLE
100
AcDbLine
 10
32.55202079999685
 20
1.079999459200081
 30
0.0
 11
58.15200519999925
 21
1.079999459200081
 31
0.0
  0
TEXT
  5
8417
330
47A9
100
AcDbEntity
  8
TEXT
100
AcDbText
 10
43.46451474687278
 20
2.909998269700269
 30
0.0
 40
0.49999967500005
  1
BODY
 41
0.75
 72
     4
 11
44.15201429999785
 21
3.159998107200294
 31
0.0
100
AcDbText
  0
TEXT
  5
8418
330
47A9
100
AcDbEntity
  8
TEXT
100
AcDbText
 10
43.52701470624778
 20
0.4099998947000242
 30
0.0
 40
0.49999967500005
  1
HIGH-IMPACT ABS
 41
0.75
 72
     4
 11
46.15201299999805
 21
0.6599997322000491
 31
0.0
100
AcDbText
  0
TEXT
  5
8419
330
47A9
100
AcDbEntity
  8
TEXT
100
AcDbText
 10
33.16452092187182
 20
1.2419993539001
 30
0.0
 40
0.49999967500005
  1
PNR-2605-C & PNR-2606-C
 41
0.75
 72
     4
 11
37.35201819999725
 21
1.491999191400125
 31
0.0
100
AcDbText
  0
LINE
  5
841A
330
47A9
100
AcDbEntity
  8
TITLE
100
AcDbLine
 10
32.55202079999685
 20
4.407997296000417
 30
0.0
 11
32.55202079999685
 21
0.2480000000000047
 31
0.0
  0
LINE
  5
841B
330
47A9
100
AcDbEntity
  8
TITLE
100
AcDbLine
 10
42.15201559999764
 20
4.407997296000417
 30
0.0
 11
42.15201559999764
 21
0.2480000000000047
 31
0.0
  0
TEXT
  5
841C
330
47A9
100
AcDbEntity
  8
TEXT
100
AcDbText
 10
32.78952116562179
 20
0.4086665622333524
 30
0.0
 40
0.49999967500005
  1
PNR-2605-DG & PNR-2606-DG
 41
0.75
 72
     4
 11
37.35201819999725
 21
0.6586663997333773
 31
0.0
100
AcDbText
  0
TEXT
  5
841D
330
47A9
100
AcDbEntity
  8
TEXT
100
AcDbText
 10
33.9145204343719
 20
2.075332145566849
 30
0.0
 40
0.49999967500005
  1
PNR-2605 & PNR-2606
 41
0.75
 72
     4
 11
37.35201819999725
 21
2.325331983066874
 31
0.0
100
AcDbText
  0
TEXT
  5
841E
330
47A9
100
AcDbEntity
  8
TEXT
100
AcDbText
 10
35.35201949999704
 20
3.325997999300301
 30
0.0
 40
0.49999967500005
  1
PART NUMBER
 41
0.75
 72
     4
 11
37.35201819999725
 21
3.575997836800326
 31
0.0
100
AcDbText
  0
TEXT
  5
841F
330
47A9
100
AcDbEntity
  8
TEXT
100
AcDbText
 10
50.40201023749844
 20
1.243332686366772
 30
0.0
 40
0.49999967500005
  1
LIGHT GRAY
 41
0.75
 72
     4
 11
52.15200909999862
 21
1.493332523866797
 31
0.0
100
AcDbText
  0
TEXT
  5
8420
330
47A9
100
AcDbEntity
  8
TEXT
100
AcDbText
 10
43.77701454374781
 20
1.243332686366772
 30
0.0
 40
0.49999967500005
  1
POLYCARBONATE
 41
0.75
 72
     4
 11
46.15201299999805
 21
1.493332523866797
 31
0.0
100
AcDbText
  0
LINE
  5
8421
330
47A9
100
AcDbEntity
  8
TITLE
100
AcDbLine
 10
50.15201039999846
 20
4.407997296000417
 30
0.0
 11
50.15201039999846
 21
0.2480000000000047
 31
0.0
  0
TEXT
  5
8422
330
47A9
100
AcDbEntity
  8
TEXT
100
AcDbText
 10
47.21451230937318
 20
2.909998269700269
 30
0.0
 40
0.49999967500005
  1
COVER
 41
0.75
 72
     4
 11
48.15201169999827
 21
3.159998107200294
 31
0.0
100
AcDbText
  0
TEXT
  5
8423
330
47A9
100
AcDbEntity
  8
TEXT
100
AcDbText
 10
43.77701454374781
 20
2.076665478033521
 30
0.0
 40
0.49999967500005
  1
POLYCARBONATE
 41
0.75
 72
     4
 11
46.15201299999805
 21
2.326665315533546
 31
0.0
100
AcDbText
  0
TEXT
  5
8424
330
47A9
100
AcDbEntity
  8
TEXT
100
AcDbText
 10
44.77701389374791
 20
3.74199772890036
 30
0.0
 40
0.49999967500005
  1
MATERIAL
 41
0.75
 72
     4
 11
46.15201299999805
 21
3.991997566400385
 31
0.0
100
AcDbText
  0
LINE
  5
8425
330
47A9
100
AcDbEntity
  8
TITLE
100
AcDbLine
 10
46.15201299999805
 20
3.575997836800326
 30
0.0
 11
46.15201299999805
 21
2.743998377600263
 31
0.0
  0
TEXT
  5
8426
330
47A9
100
AcDbEntity
  8
TEXT
100
AcDbText
 10
51.46450954687355
 20
2.909998269700269
 30
0.0
 40
0.49999967500005
  1
BODY
 41
0.75
 72
     4
 11
52.15200909999862
 21
3.159998107200294
 31
0.0
100
AcDbText
  0
TEXT
  5
8427
330
47A9
100
AcDbEntity
  8
TEXT
100
AcDbText
 10
58.58950491562428
 20
0.4099998947000098
 30
0.0
 40
0.49999967500005
  1
SCREWS FOR ASSEMBLY
 41
0.75
 72
     4
 11
62.15200259999964
 21
0.6599997322000349
 31
0.0
100
AcDbText
  0
TEXT
  5
8428
330
47A9
100
AcDbEntity
  8
TEXT
100
AcDbText
 10
58.62075489531178
 20
1.243332686366758
 30
0.0
 40
0.49999967500005
  1
M4 x 17mm (0.668") LG.
 41
0.75
 72
     4
 11
62.15200259999964
 21
1.493332523866783
 31
0.0
100
AcDbText
  0
TEXT
  5
8429
330
47A9
100
AcDbEntity
  8
TEXT
100
AcDbText
 10
59.46450434687436
 20
2.076665478033506
 30
0.0
 40
0.49999967500005
  1
KIT CONTAINS (4)
 41
0.75
 72
     4
 11
62.15200259999964
 21
2.326665315533531
 31
0.0
100
AcDbText
  0
TEXT
  5
842A
330
47A9
100
AcDbEntity
  8
TEXT
100
AcDbText
 10
55.27700706874897
 20
1.243332686366772
 30
0.0
 40
0.49999967500005
  1
CLEAR
 41
0.75
 72
     4
 11
56.15200649999906
 21
1.493332523866797
 31
0.0
100
AcDbText
  0
LINE
  5
842B
330
47A9
100
AcDbEntity
  8
TITLE
100
AcDbLine
 10
54.15200779999884
 20
1.911998918400172
 30
0.0
 11
54.15200779999884
 21
1.079999459200081
 31
0.0
  0
LINE
  5
842C
330
47A9
100
AcDbEntity
  8
TITLE
100
AcDbLine
 10
58.15200519999925
 20
4.407997296000417
 30
0.0
 11
58.15200519999925
 21
0.2480000000000047
 31
0.0
  0
TEXT
  5
842D
330
47A9
100
AcDbEntity
  8
TEXT
100
AcDbText
 10
55.21450710937397
 20
2.909998269700269
 30
0.0
 40
0.49999967500005
  1
COVER
 41
0.75
 72
     4
 11
56.15200649999906
 21
3.159998107200294
 31
0.0
100
AcDbText
  0
LINE
  5
842E
330
47A9
100
AcDbEntity
  8
TITLE
100
AcDbLine
 10
54.15200779999884
 20
3.575997836800326
 30
0.0
 11
54.15200779999884
 21
2.743998377600263
 31
0.0
  0
TEXT
  5
842F
330
47A9
100
AcDbEntity
  8
TEXT
100
AcDbText
 10
59.96450402187445
 20
3.325997999300301
 30
0.0
 40
0.49999967500005
  1
HARDWARE KIT
 41
0.75
 72
     4
 11
62.15200259999966
 21
3.575997836800326
 31
0.0
100
AcDbText
  0
LINE
  5
8430
330
47A9
100
AcDbEntity
  8
TITLE
100
AcDbLine
 10
40.54581012479997
 20
36.06932480000001
 30
0.0
 11
66.15199999999996
 21
36.06932480000001
 31
0.0
  0
LINE
  5
8431
330
47A9
100
AcDbEntity
  8
TITLE
100
AcDbLine
 10
40.54581012479997
 20
37.73066240000001
 30
0.0
 11
66.15199999999996
 21
37.73066240000001
 31
0.0
  0
LINE
  5
8432
330
47A9
100
AcDbEntity
  8
TITLE
100
AcDbLine
 10
40.54581012479997
 20
36.89999360000001
 30
0.0
 11
66.15199999999996
 21
36.89999360000001
 31
0.0
  0
TEXT
  5
8433
330
47A9
100
AcDbEntity
  8
TEXT
100
AcDbText
 10
40.85863946239995
 20
37.10466560000002
 30
0.0
 40
0.4992000000000001
  1
PNR-2605, PNR-2605-C AND PNR-2605-DG
 41
0.75
 72
     4
 11
47.34823946239996
 21
37.31266560000001
 31
0.0
100
AcDbText
  0
TEXT
  5
8434
330
47A9
100
AcDbEntity
  8
TEXT
100
AcDbText
 10
40.85863946239995
 20
36.27266560000001
 30
0.0
 40
0.4992000000000001
  1
PNR-2606, PNR-2606-C AND PNR-2606-DG
 41
0.75
 72
     4
 11
47.34823946239996
 21
36.48066560000001
 31
0.0
100
AcDbText
  0
LINE
  5
8435
330
47A9
100
AcDbEntity
  8
TITLE
100
AcDbLine
 10
40.54581012479997
 20
39.39200000000002
 30
0.0
 11
40.54581012479997
 21
36.06932480000001
 31
0.0
  0
TEXT
  5
8436
330
47A9
100
AcDbEntity
  8
TEXT
100
AcDbText
 10
45.35143946239996
 20
38.31106560000002
 30
0.0
 40
0.4992000000000001
  1
PART NUMBER
 41
0.75
 72
     4
 11
47.34823946239996
 21
38.56066560000002
 31
0.0
100
AcDbText
  0
TEXT
  5
8437
330
47A9
100
AcDbEntity
  8
TEXT
100
AcDbText
 10
60.90319999999995
 20
36.23372800000001
 30
0.0
 40
0.4992000000000001
  1
3.957
 41
0.75
 72
     4
 11
61.65199999999996
 21
36.48332800000001
 31
0.0
100
AcDbText
  0
TEXT
  5
8438
330
47A9
100
AcDbEntity
  8
TEXT
100
AcDbText
 10
60.90319999999995
 20
37.06572800000002
 30
0.0
 40
0.4992000000000001
  1
2.377
 41
0.75
 72
     4
 11
61.65199999999996
 21
37.31532800000002
 31
0.0
100
AcDbText
  0
LINE
  5
8439
330
47A9
100
AcDbEntity
  8
TITLE
100
AcDbLine
 10
54.15199999999996
 20
38.56133120000001
 30
0.0
 11
66.15199999999996
 21
38.56133120000001
 31
0.0
  0
TEXT
  5
843A
330
47A9
100
AcDbEntity
  8
TEXT
100
AcDbText
 10
57.96559999999995
 20
37.06572800000002
 30
0.0
 40
0.4992000000000001
  1
1.382
 41
0.75
 72
     4
 11
58.65199999999996
 21
37.31532800000002
 31
0.0
100
AcDbText
  0
TEXT
  5
843B
330
47A9
100
AcDbEntity
  8
TEXT
100
AcDbText
 10
54.96559999999996
 20
37.06572800000002
 30
0.0
 40
0.4992000000000001
  1
1.442
 41
0.75
 72
     4
 11
55.65199999999996
 21
37.31532800000002
 31
0.0
100
AcDbText
  0
LINE
  5
843C
330
47A9
100
AcDbEntity
  8
TITLE
100
AcDbLine
 10
54.15199999999996
 20
39.39200000000002
 30
0.0
 11
54.15199999999996
 21
36.06932480000001
 31
0.0
  0
TEXT
  5
843D
330
47A9
100
AcDbEntity
  8
TEXT
100
AcDbText
 10
54.93439999999996
 20
36.23372800000001
 30
0.0
 40
0.4992000000000001
  1
3.022
 41
0.75
 72
     4
 11
55.65199999999996
 21
36.48332800000001
 31
0.0
100
AcDbText
  0
TEXT
  5
843E
330
47A9
100
AcDbEntity
  8
TEXT
100
AcDbText
 10
57.90319999999995
 20
36.23372800000001
 30
0.0
 40
0.4992000000000001
  1
2.962
 41
0.75
 72
     4
 11
58.65199999999996
 21
36.48332800000001
 31
0.0
100
AcDbText
  0
TEXT
  5
843F
330
47A9
100
AcDbEntity
  8
TEXT
100
AcDbText
 10
58.64479999999995
 20
38.72706560000001
 30
0.0
 40
0.4992000000000001
  1
DIMENSION
 41
0.75
 72
     4
 11
60.14239999999995
 21
38.97666560000002
 31
0.0
100
AcDbText
  0
TEXT
  5
8440
330
47A9
100
AcDbEntity
  8
TEXT
100
AcDbText
 10
55.52719999999996
 20
37.89772800000001
 30
0.0
 40
0.4992000000000001
  1
A
 41
0.75
 72
     4
 11
55.65199999999996
 21
38.14732800000001
 31
0.0
100
AcDbText
  0
TEXT
  5
8441
330
47A9
100
AcDbEntity
  8
TEXT
100
AcDbText
 10
58.52719999999996
 20
37.89772800000001
 30
0.0
 40
0.4992000000000001
  1
B
 41
0.75
 72
     4
 11
58.65199999999996
 21
38.14732800000001
 31
0.0
100
AcDbText
  0
TEXT
  5
8442
330
47A9
100
AcDbEntity
  8
TEXT
100
AcDbText
 10
61.52719999999995
 20
37.89772800000001
 30
0.0
 40
0.4992000000000001
  1
C
 41
0.75
 72
     4
 11
61.65199999999996
 21
38.14732800000001
 31
0.0
100
AcDbText
  0
LINE
  5
8448
330
47A9
100
AcDbEntity
  8
TITLE
100
AcDbLine
 10
57.15199999999993
 20
38.56133120000001
 30
0.0
 11
57.15199999999995
 21
36.06932480000001
 31
0.0
  0
LINE
  5
8449
330
47A9
100
AcDbEntity
  8
TITLE
100
AcDbLine
 10
60.15199999999996
 20
38.56133120000001
 30
0.0
 11
60.15199999999996
 21
36.06932480000001
 31
0.0
  0
LINE
  5
844A
330
47A9
100
AcDbEntity
  8
TITLE
100
AcDbLine
 10
63.15199999999996
 20
38.56133120000001
 30
0.0
 11
63.15199999999996
 21
36.06932480000001
 31
0.0
  0
TEXT
  5
844B
330
47A9
100
AcDbEntity
  8
TEXT
100
AcDbText
 10
63.96559999999996
 20
37.06572800000002
 30
0.0
 40
0.4992000000000001
  1
1.926
 41
0.75
 72
     4
 11
64.65199999999995
 21
37.31532800000002
 31
0.0
100
AcDbText
  0
TEXT
  5
844C
330
47A9
100
AcDbEntity
  8
TEXT
100
AcDbText
 10
63.93439999999996
 20
36.23372800000001
 30
0.0
 40
0.4992000000000001
  1
3.506
 41
0.75
 72
     4
 11
64.65199999999995
 21
36.48332800000001
 31
0.0
100
AcDbText
  0
TEXT
  5
844D
330
47A9
100
AcDbEntity
  8
TEXT
100
AcDbText
 10
64.52719999999996
 20
37.89772800000001
 30
0.0
 40
0.4992000000000001
  1
D
 41
0.75
 72
     4
 11
64.65199999999995
 21
38.14732800000001
 31
0.0
100
AcDbText
  0
LINE
  5
904F
330
47A9
100
AcDbEntity
  8
OBJECT
100
AcDbLine
 10
55.36300717429424
 20
13.72375480874294
 30
0.0
 11
55.36300717429424
 21
13.41375480874294
 31
0.0
  0
LINE
  5
9051
330
47A9
100
AcDbEntity
  8
OBJECT
100
AcDbLine
 10
55.36300717429424
 20
13.72375480874294
 30
0.0
 11
55.87300717429425
 21
13.72375480874294
 31
0.0
  0
LINE
  5
9054
330
47A9
100
AcDbEntity
  8
OBJECT
100
AcDbLine
 10
54.87845617429425
 20
22.59219480874294
 30
0.0
 11
55.74321217429424
 21
22.59219480874294
 31
0.0
  0
LINE
  5
9055
330
47A9
100
AcDbEntity
  8
OBJECT
100
AcDbLine
 10
54.97845617429426
 20
22.63689980874294
 30
0.0
 11
54.97845617429426
 21
22.71689980874295
 31
0.0
1001
ACAD
1000
ASC_BOUNDS
1002
{
1070
    19
1005
0
1002
}
  0
LINE
  5
9056
330
47A9
100
AcDbEntity
  8
OBJECT
100
AcDbLine
 10
54.87845617429425
 20
22.71689980874295
 30
0.0
 11
54.97845617429426
 21
22.71689980874295
 31
0.0
1001
ACAD
1000
ASC_BOUNDS
1002
{
1070
    19
1005
0
1002
}
  0
LINE
  5
9057
330
47A9
100
AcDbEntity
  8
OBJECT
100
AcDbLine
 10
54.87845617429425
 20
22.63689980874294
 30
0.0
 11
54.97845617429426
 21
22.63689980874294
 31
0.0
1001
ACAD
1000
ASC_BOUNDS
1002
{
1070
    19
1005
0
1002
}
  0
LINE
  5
9059
330
47A9
100
AcDbEntity
  8
OBJECT
100
AcDbLine
 10
54.87845617429425
 20
13.65625480874294
 30
0.0
 11
55.36300717429424
 21
13.65625480874294
 31
0.0
  0
LINE
  5
905C
330
47A9
100
AcDbEntity
  8
OBJECT
100
AcDbLine
 10
54.87845617429425
 20
13.83201980874277
 30
0.0
 11
55.74321217429425
 21
13.83201980874277
 31
0.0
  0
LINE
  5
905D
102
{ACAD_REACTORS
330
AA12
102
}
330
47A9
100
AcDbEntity
  8
OBJECT
100
AcDbLine
 10
54.87845617429421
 20
13.70731480874295
 30
0.0
 11
54.97845617429425
 21
13.70731480874295
 31
0.0
1001
ACAD
1000
ASC_BOUNDS
1002
{
1070
    19
1005
0
1002
}
  0
LINE
  5
905E
102
{ACAD_REACTORS
330
AA12
102
}
330
47A9
100
AcDbEntity
  8
OBJECT
100
AcDbLine
 10
54.87845617429421
 20
13.78731480874294
 30
0.0
 11
54.97845617429425
 21
13.78731480874294
 31
0.0
1001
ACAD
1000
ASC_BOUNDS
1002
{
1070
    19
1005
0
1002
}
  0
LINE
  5
905F
102
{ACAD_REACTORS
330
AA12
102
}
330
47A9
100
AcDbEntity
  8
OBJECT
100
AcDbLine
 10
54.97845617429425
 20
13.70731480874295
 30
0.0
 11
54.97845617429425
 21
13.78731480874294
 31
0.0
1001
ACAD
1000
ASC_BOUNDS
1002
{
1070
    19
1005
0
1002
}
  0
LINE
  5
9064
330
47A9
100
AcDbEntity
  8
OBJECT
100
AcDbLine
 10
55.36300717429424
 20
13.41375480874294
 30
0.0
 11
55.87300717429425
 21
13.41375480874294
 31
0.0
  0
LINE
  5
9065
330
47A9
100
AcDbEntity
  8
OBJECT
100
AcDbLine
 10
54.87845617429425
 20
13.48125480874294
 30
0.0
 11
55.36300717429424
 21
13.48125480874294
 31
0.0
  0
LINE
  5
9080
330
47A9
100
AcDbEntity
  8
HIDDEN
100
AcDbLine
 10
48.80880659979041
 20
27.28214166367783
 30
0.0
 11
48.80880659979041
 21
28.14689766367783
 31
0.0
  0
LINE
  5
9081
330
47A9
100
AcDbEntity
  8
HIDDEN
100
AcDbLine
 10
48.85351159979041
 20
27.38214166367784
 30
0.0
 11
48.93351159979042
 21
27.38214166367784
 31
0.0
1001
ACAD
1000
ASC_BOUNDS
1002
{
1070
    19
1005
0
1002
}
  0
LINE
  5
9082
330
47A9
100
AcDbEntity
  8
HIDDEN
100
AcDbLine
 10
48.93351159979042
 20
27.28214166367783
 30
0.0
 11
48.93351159979042
 21
27.38214166367784
 31
0.0
1001
ACAD
1000
ASC_BOUNDS
1002
{
1070
    19
1005
0
1002
}
  0
LINE
  5
9083
330
47A9
100
AcDbEntity
  8
HIDDEN
100
AcDbLine
 10
48.85351159979041
 20
27.28214166367783
 30
0.0
 11
48.85351159979041
 21
27.38214166367784
 31
0.0
1001
ACAD
1000
ASC_BOUNDS
1002
{
1070
    19
1005
0
1002
}
  0
LINE
  5
9084
330
47A9
100
AcDbEntity
  8
HIDDEN
100
AcDbLine
 10
48.11883659979041
 20
27.28214166367783
 30
0.0
 11
48.11883659979041
 21
28.14689766367783
 31
0.0
  0
LINE
  5
9085
330
47A9
100
AcDbEntity
  8
HIDDEN
100
AcDbLine
 10
44.93556659979041
 20
27.28214166367783
 30
0.0
 11
44.93556659979041
 21
28.14689766367783
 31
0.0
  0
LINE
  5
9086
330
47A9
100
AcDbEntity
  8
HIDDEN
100
AcDbLine
 10
45.13856659979041
 20
27.28214166367783
 30
0.0
 11
45.13856659979041
 21
28.14689766367783
 31
0.0
  0
LINE
  5
9087
330
47A9
100
AcDbEntity
  8
HIDDEN
100
AcDbLine
 10
45.01386159979058
 20
27.28214166367779
 30
0.0
 11
45.01386159979058
 21
27.38214166367783
 31
0.0
1001
ACAD
1000
ASC_BOUNDS
1002
{
1070
    19
1005
0
1002
}
  0
LINE
  5
9088
330
47A9
100
AcDbEntity
  8
HIDDEN
100
AcDbLine
 10
45.09386159979058
 20
27.28214166367779
 30
0.0
 11
45.09386159979058
 21
27.38214166367783
 31
0.0
1001
ACAD
1000
ASC_BOUNDS
1002
{
1070
    19
1005
0
1002
}
  0
LINE
  5
9089
330
47A9
100
AcDbEntity
  8
HIDDEN
100
AcDbLine
 10
45.01386159979058
 20
27.38214166367783
 30
0.0
 11
45.09386159979058
 21
27.38214166367783
 31
0.0
1001
ACAD
1000
ASC_BOUNDS
1002
{
1070
    19
1005
0
1002
}
  0
LINE
  5
908A
330
47A9
100
AcDbEntity
  8
HIDDEN
100
AcDbLine
 10
44.64997659979041
 20
27.76669266367783
 30
0.0
 11
44.3399765997904
 21
27.76669266367783
 31
0.0
  0
LINE
  5
908B
330
47A9
100
AcDbEntity
  8
HIDDEN
100
AcDbLine
 10
44.58247659979041
 20
27.28214166367783
 30
0.0
 11
44.58247659979041
 21
27.76669266367783
 31
0.0
  0
LINE
  5
908C
330
47A9
100
AcDbEntity
  8
HIDDEN
100
AcDbLine
 10
44.40747659979041
 20
27.28214166367783
 30
0.0
 11
44.40747659979041
 21
27.76669266367783
 31
0.0
  0
LINE
  5
908D
330
47A9
100
AcDbEntity
  8
HIDDEN
100
AcDbLine
 10
44.3399765997904
 20
27.76669266367783
 30
0.0
 11
44.3399765997904
 21
28.27669266367783
 31
0.0
  0
LINE
  5
908E
330
47A9
100
AcDbEntity
  8
HIDDEN
100
AcDbLine
 10
44.64997659979041
 20
27.76669266367783
 30
0.0
 11
44.64997659979041
 21
28.27669266367783
 31
0.0
  0
LINE
  5
908F
330
47A9
100
AcDbEntity
  8
HIDDEN
100
AcDbLine
 10
44.72870159979037
 20
27.28214166367783
 30
0.0
 11
44.72870159979037
 21
28.14689766367783
 31
0.0
  0
LINE
  5
90D2
102
{ACAD_REACTORS
330
ADDA
102
}
330
47A9
100
AcDbEntity
  8
OBJECT
100
AcDbLine
 10
26.22184150483921
 20
13.36237480874294
 30
0.0
 11
26.22184150483921
 21
13.34237480874294
 31
0.0
  0
LINE
  5
90D5
102
{ACAD_REACTORS
330
ADDA
102
}
330
47A9
100
AcDbEntity
  8
OBJECT
100
AcDbLine
 10
26.22184150483921
 20
22.77219480874295
 30
0.0
 11
26.22184150483921
 21
22.75219480874294
 31
0.0
  0
LINE
  5
90D6
102
{ACAD_REACTORS
330
ADDA
102
}
330
47A9
100
AcDbEntity
  8
OBJECT
100
AcDbLine
 10
26.17884150483922
 20
13.36237480874294
 30
0.0
 11
26.17884150483922
 21
13.76681480874295
 31
0.0
  0
LINE
  5
90D7
102
{ACAD_REACTORS
330
ADDA
102
}
330
47A9
100
AcDbEntity
  8
OBJECT
100
AcDbLine
 10
29.01084150483923
 20
13.80581480874295
 30
0.0
 11
29.01084150483923
 21
19.3485550311332
 31
0.0
  0
LINE
  5
90DD
102
{ACAD_REACTORS
330
ADDA
102
}
330
47A9
100
AcDbEntity
  8
OBJECT
100
AcDbLine
 10
29.01084150483923
 20
22.2571546975478
 30
0.0
 11
29.01084150483923
 21
22.30875480874292
 31
0.0
  0
LINE
  5
90DE
102
{ACAD_REACTORS
330
ADDA
102
}
330
47A9
100
AcDbEntity
  8
OBJECT
100
AcDbLine
 10
29.01084150483923
 20
21.24701458635267
 30
0.0
 11
29.01084150483923
 21
21.83808997709882
 31
0.0
  0
LINE
  5
90E3
102
{ACAD_REACTORS
330
ADDA
102
}
330
47A9
100
AcDbEntity
  8
OBJECT
100
AcDbLine
 10
26.17884150483922
 20
22.36075480874294
 30
0.0
 11
29.01084150483923
 21
22.36075480874294
 31
0.0
  0
LINE
  5
90E4
102
{ACAD_REACTORS
330
ADDA
102
}
330
47A9
100
AcDbEntity
  8
OBJECT
100
AcDbLine
 10
26.17884150483922
 20
22.70719480874294
 30
0.0
 11
29.01084150483923
 21
22.70719480874294
 31
0.0
  0
LINE
  5
90E5
102
{ACAD_REACTORS
330
ADDA
102
}
330
47A9
100
AcDbEntity
  8
OBJECT
100
AcDbLine
 10
29.01084150483923
 20
22.36075480874294
 30
0.0
 11
29.01084150483923
 21
22.70719480874294
 31
0.0
  0
LINE
  5
90E7
330
47A9
100
AcDbEntity
  8
HIDDEN
  6
HIDDEN2
100
AcDbLine
 10
14.53911220372621
 20
2.348105163342776
 30
0.0
 11
14.44211220372621
 21
2.348105163342776
 31
0.0
1001
ACAD
1000
ASC_BOUNDS
1002
{
1070
    19
1005
0
1002
}
  0
LINE
  5
90E8
330
47A9
100
AcDbEntity
  8
HIDDEN
  6
HIDDEN2
100
AcDbLine
 10
14.53911220372621
 20
2.556326163342774
 30
0.0
 11
14.53911220372621
 21
2.348105163342776
 31
0.0
1001
ACAD
1000
ASC_BOUNDS
1002
{
1070
    19
1005
0
1002
}
  0
LINE
  5
90E9
330
47A9
100
AcDbEntity
  8
HIDDEN
  6
HIDDEN2
100
AcDbLine
 10
14.44211220372621
 20
2.556326163342774
 30
0.0
 11
14.44211220372621
 21
2.348105163342776
 31
0.0
1001
ACAD
1000
ASC_BOUNDS
1002
{
1070
    19
1005
0
1002
}
  0
LINE
  5
90EA
330
47A9
100
AcDbEntity
  8
OBJECT
100
AcDbLine
 10
17.61571720372621
 20
5.197995163342749
 30
0.0
 11
17.61571720372621
 21
5.154995163342761
 31
0.0
1001
ACAD
1000
ASC_BOUNDS
1002
{
1070
    19
1005
0
1002
}
  0
LINE
  5
90EB
330
47A9
100
AcDbEntity
  8
OBJECT
100
AcDbLine
 10
17.55492220372621
 20
5.257995163342759
 30
0.0
 11
17.55492220372621
 21
5.197995163342749
 31
0.0
1001
ACAD
1000
ASC_BOUNDS
1002
{
1070
    19
1005
0
1002
}
  0
LINE
  5
90EF
330
47A9
100
AcDbEntity
  8
HIDDEN
100
AcDbLine
 10
17.51592220372622
 20
2.365790163342751
 30
0.0
 11
17.51592220372622
 21
5.257995163342751
 31
0.0
1001
ACAD
1000
ASC_BOUNDS
1002
{
1070
    19
1005
0
1002
}
  0
LINE
  5
90F6
330
47A9
100
AcDbEntity
  8
HIDDEN
100
AcDbLine
 10
13.32761220372622
 20
4.891995163342752
 30
0.0
 11
13.32761220372622
 21
2.235995163342749
 31
0.0
1001
ACAD
1000
ASC_BOUNDS
1002
{
1070
    19
1005
0
1002
}
  0
LINE
  5
90F7
330
47A9
100
AcDbEntity
  8
HIDDEN
100
AcDbLine
 10
13.01761220372623
 20
4.891995163342752
 30
0.0
 11
13.01761220372623
 21
2.23599516334276
 31
0.0
1001
ACAD
1000
ASC_BOUNDS
1002
{
1070
    19
1005
0
1002
}
  0
LINE
  5
90F8
330
47A9
100
AcDbEntity
  8
HIDDEN
100
AcDbLine
 10
13.25111220372622
 20
5.197995163342749
 30
0.0
 11
13.25111220372622
 21
4.891995163342752
 31
0.0
  0
LINE
  5
90F9
330
47A9
100
AcDbEntity
  8
HIDDEN
100
AcDbLine
 10
13.29761220372622
 20
5.197995163342749
 30
0.0
 11
13.29761220372622
 21
4.891995163342752
 31
0.0
1001
ACAD
1000
ASC_BOUNDS
1002
{
1070
    19
1005
0
1002
}
  0
LINE
  5
90FA
330
47A9
100
AcDbEntity
  8
HIDDEN
100
AcDbLine
 10
13.09411220372623
 20
5.197995163342749
 30
0.0
 11
13.09411220372623
 21
4.891995163342752
 31
0.0
  0
LINE
  5
90FB
330
47A9
100
AcDbEntity
  8
HIDDEN
100
AcDbLine
 10
13.04761220372624
 20
5.197995163342749
 30
0.0
 11
13.04761220372624
 21
4.891995163342752
 31
0.0
1001
ACAD
1000
ASC_BOUNDS
1002
{
1070
    19
1005
0
1002
}
  0
LINE
  5
90FC
330
47A9
100
AcDbEntity
  8
HIDDEN
100
AcDbLine
 10
13.01761220372623
 20
4.891995163342752
 30
0.0
 11
13.32761220372622
 21
4.891995163342752
 31
0.0
1001
ACAD
1000
ASC_BOUNDS
1002
{
1070
    19
1005
0
1005
0
1002
}
  0
LINE
  5
90FD
330
47A9
100
AcDbEntity
  8
HIDDEN
100
AcDbLine
 10
13.41746970372622
 20
2.365790163342769
 30
0.0
 11
13.41746970372621
 21
2.23599516334276
 31
0.0
1001
ACAD
1000
ASC_BOUNDS
1002
{
1070
    19
1005
0
1002
}
  0
LINE
  5
90FE
330
47A9
100
AcDbEntity
  8
HIDDEN
100
AcDbLine
 10
13.59463470372622
 20
2.365790163342769
 30
0.0
 11
13.59463470372622
 21
2.23599516334276
 31
0.0
1001
ACAD
1000
ASC_BOUNDS
1002
{
1070
    19
1005
0
1002
}
  0
LINE
  5
90FF
330
47A9
100
AcDbEntity
  8
HIDDEN
100
AcDbLine
 10
13.40050720372625
 20
5.19799516334276
 30
0.0
 11
13.40050720372625
 21
2.365790163342769
 31
0.0
1001
ACAD
1000
ASC_BOUNDS
1002
{
1070
    19
1005
0
1002
}
  0
LINE
  5
9100
330
47A9
100
AcDbEntity
  8
HIDDEN
100
AcDbLine
 10
13.67250720372623
 20
5.197995163342749
 30
0.0
 11
13.67250720372623
 21
2.365790163342762
 31
0.0
1001
ACAD
1000
ASC_BOUNDS
1002
{
1070
    19
1005
0
1002
}
  0
LINE
  5
911F
330
47A9
100
AcDbEntity
  8
OBJECT
100
AcDbLine
 10
13.68650720372622
 20
5.257995163342759
 30
0.0
 11
13.68650720372622
 21
5.197995163342749
 31
0.0
  0
LINE
  5
9120
330
47A9
100
AcDbEntity
  8
OBJECT
100
AcDbLine
 10
16.86471720372619
 20
5.257995163342759
 30
0.0
 11
16.86471720372619
 21
5.197995163342749
 31
0.0
  0
DIMENSION
  5
94F3
330
47A9
100
AcDbEntity
  8
DIM
100
AcDbDimension
  2
*D36
 10
7.483809861192582
 20
16.60178480874295
 30
0.0
 11
7.48380986119258
 21
17.32978480874295
 31
0.0
 70
    32
 71
     5
 42
1.455999999999995
  3
23NSTD
100
AcDbAlignedDimension
 13
14.49061220372621
 23
18.05778480874294
 33
0.0
 14
13.33944220372621
 24
16.60178480874295
 34
0.0
 50
90.0
100
AcDbRotatedDimension
  0
DIMENSION
  5
950B
330
47A9
100
AcDbEntity
  8
DIM
100
AcDbDimension
  2
*D37
 10
10.08285090752383
 20
15.03178480874294
 30
0.0
 11
10.08285090752383
 21
15.42428480874295
 31
0.0
 70
    32
 71
     5
 42
0.785000000000002
  3
23NSTDI
100
AcDbAlignedDimension
 13
13.33944220372621
 23
15.81678480874295
 33
0.0
 14
13.33944220372621
 24
15.03178480874294
 34
0.0
 50
90.0
100
AcDbRotatedDimension
  0
LINE
  5
95A0
102
{ACAD_REACTORS
330
ADDA
102
}
330
47A9
100
AcDbEntity
  8
OBJECT
100
AcDbLine
 10
28.82051050483923
 20
19.65026530874294
 30
0.0
 11
29.01084150483923
 21
19.67701458635268
 31
0.0
  0
LINE
  5
95A1
102
{ACAD_REACTORS
330
ADDA
102
}
330
47A9
100
AcDbEntity
  8
OBJECT
100
AcDbLine
 10
28.82051050483923
 20
19.37530430874295
 30
0.0
 11
29.01084150483923
 21
19.3485550311332
 31
0.0
  0
LINE
  5
95A2
102
{ACAD_REACTORS
330
ADDA
102
}
330
47A9
100
AcDbEntity
  8
OBJECT
100
AcDbLine
 10
28.82051050483923
 20
19.65026530874294
 30
0.0
 11
28.82051050483923
 21
19.37530430874295
 31
0.0
  0
LINE
  5
95A3
102
{ACAD_REACTORS
330
ADDA
102
}
330
47A9
100
AcDbEntity
  8
OBJECT
100
AcDbLine
 10
28.82051050483923
 20
20.43526530874295
 30
0.0
 11
29.01084150483923
 21
20.46201458635268
 31
0.0
  0
LINE
  5
95A4
102
{ACAD_REACTORS
330
ADDA
102
}
330
47A9
100
AcDbEntity
  8
OBJECT
100
AcDbLine
 10
28.82051050483923
 20
20.16030430874294
 30
0.0
 11
29.01084150483923
 21
20.13355503113321
 31
0.0
  0
LINE
  5
95A5
102
{ACAD_REACTORS
330
ADDA
102
}
330
47A9
100
AcDbEntity
  8
OBJECT
100
AcDbLine
 10
28.82051050483923
 20
20.43526530874295
 30
0.0
 11
28.82051050483923
 21
20.16030430874294
 31
0.0
  0
LINE
  5
95A6
102
{ACAD_REACTORS
330
ADDA
102
}
330
47A9
100
AcDbEntity
  8
OBJECT
100
AcDbLine
 10
28.82051050483923
 20
21.22026530874295
 30
0.0
 11
29.01084150483923
 21
21.24701458635267
 31
0.0
  0
LINE
  5
95A7
102
{ACAD_REACTORS
330
ADDA
102
}
330
47A9
100
AcDbEntity
  8
OBJECT
100
AcDbLine
 10
28.82051050483923
 20
20.94530430874295
 30
0.0
 11
29.01084150483923
 21
20.9185550311332
 31
0.0
  0
LINE
  5
95A8
102
{ACAD_REACTORS
330
ADDA
102
}
330
47A9
100
AcDbEntity
  8
OBJECT
100
AcDbLine
 10
28.82051050483923
 20
21.22026530874295
 30
0.0
 11
28.82051050483923
 21
20.94530430874295
 31
0.0
  0
LINE
  5
95CC
330
47A9
100
AcDbEntity
  8
HIDDEN
100
AcDbLine
 10
64.644593259078
 20
22.65239980874295
 30
0.0
 11
64.644593259078
 21
13.46216980874294
 31
0.0
  0
LINE
  5
95D4
330
47A9
100
AcDbEntity
  8
HIDDEN
100
AcDbLine
 10
64.45426225907801
 20
19.37630430874294
 30
0.0
 11
64.644593259078
 21
19.34955503113321
 31
0.0
  0
LINE
  5
95D5
330
47A9
100
AcDbEntity
  8
HIDDEN
100
AcDbLine
 10
64.45426225907801
 20
19.65126530874294
 30
0.0
 11
64.644593259078
 21
19.67801458635269
 31
0.0
  0
LINE
  5
95D6
330
47A9
100
AcDbEntity
  8
HIDDEN
100
AcDbLine
 10
64.45426225907801
 20
19.46528480874294
 30
0.0
 11
64.66248325907802
 21
19.46528480874294
 31
0.0
  0
LINE
  5
95D7
330
47A9
100
AcDbEntity
  8
HIDDEN
100
AcDbLine
 10
64.45426225907801
 20
19.56228480874294
 30
0.0
 11
64.66248325907802
 21
19.56228480874294
 31
0.0
  0
LINE
  5
95D8
330
47A9
100
AcDbEntity
  8
HIDDEN
100
AcDbLine
 10
64.66248325907802
 20
19.46528480874294
 30
0.0
 11
64.66248325907802
 21
19.56228480874294
 31
0.0
  0
LINE
  5
95D9
330
47A9
100
AcDbEntity
  8
HIDDEN
100
AcDbLine
 10
64.45426225907801
 20
19.37630430874294
 30
0.0
 11
64.45426225907801
 21
19.65126530874294
 31
0.0
  0
LINE
  5
95DA
330
47A9
100
AcDbEntity
  8
HIDDEN
100
AcDbLine
 10
64.45426225907801
 20
20.16130430874294
 30
0.0
 11
64.644593259078
 21
20.13455503113321
 31
0.0
  0
LINE
  5
95DB
330
47A9
100
AcDbEntity
  8
HIDDEN
100
AcDbLine
 10
64.45426225907801
 20
20.43626530874294
 30
0.0
 11
64.644593259078
 21
20.46301458635268
 31
0.0
  0
LINE
  5
95DC
330
47A9
100
AcDbEntity
  8
HIDDEN
100
AcDbLine
 10
64.45426225907801
 20
20.25028480874294
 30
0.0
 11
64.66248325907802
 21
20.25028480874294
 31
0.0
  0
LINE
  5
95DD
330
47A9
100
AcDbEntity
  8
HIDDEN
100
AcDbLine
 10
64.45426225907801
 20
20.34728480874294
 30
0.0
 11
64.66248325907802
 21
20.34728480874294
 31
0.0
  0
LINE
  5
95DE
330
47A9
100
AcDbEntity
  8
HIDDEN
100
AcDbLine
 10
64.66248325907802
 20
20.25028480874294
 30
0.0
 11
64.66248325907802
 21
20.34728480874294
 31
0.0
  0
LINE
  5
95DF
330
47A9
100
AcDbEntity
  8
HIDDEN
100
AcDbLine
 10
64.45426225907801
 20
20.16130430874294
 30
0.0
 11
64.45426225907801
 21
20.43626530874294
 31
0.0
  0
LINE
  5
95E0
330
47A9
100
AcDbEntity
  8
HIDDEN
100
AcDbLine
 10
64.45426225907801
 20
20.94630430874294
 30
0.0
 11
64.644593259078
 21
20.91955503113321
 31
0.0
  0
LINE
  5
95E1
330
47A9
100
AcDbEntity
  8
HIDDEN
100
AcDbLine
 10
64.45426225907801
 20
21.22126530874294
 30
0.0
 11
64.644593259078
 21
21.24801458635269
 31
0.0
  0
LINE
  5
95E2
330
47A9
100
AcDbEntity
  8
HIDDEN
100
AcDbLine
 10
64.45426225907801
 20
21.03528480874294
 30
0.0
 11
64.66248325907802
 21
21.03528480874294
 31
0.0
  0
LINE
  5
95E3
330
47A9
100
AcDbEntity
  8
HIDDEN
100
AcDbLine
 10
64.45426225907801
 20
21.13228480874294
 30
0.0
 11
64.66248325907802
 21
21.13228480874294
 31
0.0
  0
LINE
  5
95E4
330
47A9
100
AcDbEntity
  8
HIDDEN
100
AcDbLine
 10
64.66248325907802
 20
21.03528480874294
 30
0.0
 11
64.66248325907802
 21
21.13228480874294
 31
0.0
  0
LINE
  5
95E5
330
47A9
100
AcDbEntity
  8
HIDDEN
100
AcDbLine
 10
64.45426225907801
 20
20.94630430874294
 30
0.0
 11
64.45426225907801
 21
21.22126530874294
 31
0.0
  0
LINE
  5
95E6
330
47A9
100
AcDbEntity
  8
HIDDEN
100
AcDbLine
 10
64.45426225907801
 20
16.46430430874294
 30
0.0
 11
64.644593259078
 21
16.43755503113321
 31
0.0
  0
LINE
  5
95E7
330
47A9
100
AcDbEntity
  8
HIDDEN
100
AcDbLine
 10
64.45426225907801
 20
16.73926530874294
 30
0.0
 11
64.644593259078
 21
16.76601458635269
 31
0.0
  0
LINE
  5
95E8
330
47A9
100
AcDbEntity
  8
HIDDEN
100
AcDbLine
 10
64.45426225907801
 20
16.55328480874294
 30
0.0
 11
64.66248325907802
 21
16.55328480874294
 31
0.0
  0
LINE
  5
95E9
330
47A9
100
AcDbEntity
  8
HIDDEN
100
AcDbLine
 10
64.45426225907801
 20
16.65028480874294
 30
0.0
 11
64.66248325907802
 21
16.65028480874294
 31
0.0
  0
LINE
  5
95EA
330
47A9
100
AcDbEntity
  8
HIDDEN
100
AcDbLine
 10
64.66248325907802
 20
16.55328480874294
 30
0.0
 11
64.66248325907802
 21
16.65028480874294
 31
0.0
  0
LINE
  5
95EB
330
47A9
100
AcDbEntity
  8
HIDDEN
100
AcDbLine
 10
64.45426225907801
 20
16.46430430874294
 30
0.0
 11
64.45426225907801
 21
16.73926530874294
 31
0.0
  0
LINE
  5
95EC
330
47A9
100
AcDbEntity
  8
HIDDEN
100
AcDbLine
 10
64.45426225907801
 20
15.67930430874294
 30
0.0
 11
64.644593259078
 21
15.65255503113321
 31
0.0
  0
LINE
  5
95ED
330
47A9
100
AcDbEntity
  8
HIDDEN
100
AcDbLine
 10
64.45426225907801
 20
15.95426530874294
 30
0.0
 11
64.644593259078
 21
15.98101458635268
 31
0.0
  0
LINE
  5
95EE
330
47A9
100
AcDbEntity
  8
HIDDEN
100
AcDbLine
 10
64.45426225907801
 20
15.76828480874294
 30
0.0
 11
64.66248325907802
 21
15.76828480874294
 31
0.0
  0
LINE
  5
95EF
330
47A9
100
AcDbEntity
  8
HIDDEN
100
AcDbLine
 10
64.45426225907801
 20
15.86528480874294
 30
0.0
 11
64.66248325907802
 21
15.86528480874294
 31
0.0
  0
LINE
  5
95F0
330
47A9
100
AcDbEntity
  8
HIDDEN
100
AcDbLine
 10
64.66248325907802
 20
15.76828480874294
 30
0.0
 11
64.66248325907802
 21
15.86528480874294
 31
0.0
  0
LINE
  5
95F1
330
47A9
100
AcDbEntity
  8
HIDDEN
100
AcDbLine
 10
64.45426225907801
 20
15.67930430874294
 30
0.0
 11
64.45426225907801
 21
15.95426530874294
 31
0.0
  0
LINE
  5
95F2
330
47A9
100
AcDbEntity
  8
HIDDEN
100
AcDbLine
 10
64.45426225907801
 20
14.89430430874294
 30
0.0
 11
64.644593259078
 21
14.86755503113321
 31
0.0
  0
LINE
  5
95F3
330
47A9
100
AcDbEntity
  8
HIDDEN
100
AcDbLine
 10
64.45426225907801
 20
15.16926530874294
 30
0.0
 11
64.644593259078
 21
15.19601458635268
 31
0.0
  0
LINE
  5
95F4
330
47A9
100
AcDbEntity
  8
HIDDEN
100
AcDbLine
 10
64.45426225907801
 20
14.98328480874294
 30
0.0
 11
64.66248325907802
 21
14.98328480874294
 31
0.0
  0
LINE
  5
95F5
330
47A9
100
AcDbEntity
  8
HIDDEN
100
AcDbLine
 10
64.45426225907801
 20
15.08028480874294
 30
0.0
 11
64.66248325907802
 21
15.08028480874294
 31
0.0
  0
LINE
  5
95F6
330
47A9
100
AcDbEntity
  8
HIDDEN
100
AcDbLine
 10
64.66248325907802
 20
14.98328480874294
 30
0.0
 11
64.66248325907802
 21
15.08028480874294
 31
0.0
  0
LINE
  5
95F7
330
47A9
100
AcDbEntity
  8
HIDDEN
100
AcDbLine
 10
64.45426225907801
 20
14.89430430874294
 30
0.0
 11
64.45426225907801
 21
15.16926530874294
 31
0.0
  0
LWPOLYLINE
  5
9674
330
47A9
100
AcDbEntity
  8
OBJECT
100
AcDbPolyline
 90
        6
 70
     1
 43
0.0
 10
42.58265755452813
 20
13.34237480874294
 10
42.58265755452813
 20
22.77219480874294
 10
41.65010655452813
 20
22.77219480874294
 42
0.4142135623730951
 10
41.58810655452813
 20
22.71019480874294
 10
41.58810655452813
 20
13.40437480874294
 42
0.4142135623730951
 10
41.65010655452813
 20
13.34237480874294
1001
ACAD
1000
ASC_BOUNDS
1002
{
1070
    19
1005
0
1005
0
1002
}
  0
LINE
  5
9675
330
47A9
100
AcDbEntity
  8
HIDDEN
100
AcDbLine
 10
41.63310655452813
 20
22.18478480874294
 30
0.0
 11
41.63310655452813
 21
13.92978480874296
 31
0.0
  0
LINE
  5
9676
330
47A9
100
AcDbEntity
  8
HIDDEN
100
AcDbLine
 10
41.71790155452813
 20
22.59219480874294
 30
0.0
 11
41.71790155452813
 21
13.52237480874294
 31
0.0
  0
LINE
  5
9678
330
47A9
100
AcDbEntity
  8
HIDDEN
100
AcDbLine
 10
42.09810655452813
 20
13.72375480874294
 30
0.0
 11
41.58810655452813
 21
13.72375480874294
 31
0.0
  0
LINE
  5
9679
330
47A9
100
AcDbEntity
  8
HIDDEN
100
AcDbLine
 10
42.09810655452813
 20
13.41375480874293
 30
0.0
 11
41.58810655452813
 21
13.41375480874293
 31
0.0
  0
LINE
  5
967A
330
47A9
100
AcDbEntity
  8
HIDDEN
100
AcDbLine
 10
42.58265755452812
 20
13.8320198087428
 30
0.0
 11
41.71790155452812
 21
13.8320198087428
 31
0.0
  0
LINE
  5
967C
330
47A9
100
AcDbEntity
  8
HIDDEN
100
AcDbLine
 10
42.58265755452812
 20
13.83201980874281
 30
0.0
 11
41.71790155452812
 21
13.83201980874281
 31
0.0
  0
LINE
  5
967D
330
47A9
100
AcDbEntity
  8
HIDDEN
100
AcDbLine
 10
42.58265755452813
 20
13.52237480874294
 30
0.0
 11
41.71790155452813
 21
13.52237480874294
 31
0.0
  0
LINE
  5
967E
330
47A9
100
AcDbEntity
  8
HIDDEN
100
AcDbLine
 10
42.58265755452813
 20
13.48125480874293
 30
0.0
 11
42.09810655452813
 21
13.48125480874293
 31
0.0
  0
LINE
  5
967F
330
47A9
100
AcDbEntity
  8
HIDDEN
100
AcDbLine
 10
42.58265755452813
 20
13.65625480874293
 30
0.0
 11
42.09810655452813
 21
13.65625480874293
 31
0.0
  0
LINE
  5
9680
330
47A9
100
AcDbEntity
  8
HIDDEN
100
AcDbLine
 10
42.09810655452813
 20
13.72375480874294
 30
0.0
 11
42.09810655452813
 21
13.41375480874293
 31
0.0
  0
LINE
  5
9681
330
47A9
100
AcDbEntity
  8
HIDDEN
100
AcDbLine
 10
42.48265755452813
 20
13.70731480874297
 30
0.0
 11
42.48265755452813
 21
13.78731480874297
 31
0.0
1001
ACAD
1000
ASC_BOUNDS
1002
{
1070
    19
1005
0
1002
}
  0
LINE
  5
9682
330
47A9
100
AcDbEntity
  8
HIDDEN
100
AcDbLine
 10
42.58265755452817
 20
13.78731480874297
 30
0.0
 11
42.48265755452813
 21
13.78731480874297
 31
0.0
1001
ACAD
1000
ASC_BOUNDS
1002
{
1070
    19
1005
0
1002
}
  0
LINE
  5
9683
330
47A9
100
AcDbEntity
  8
HIDDEN
100
AcDbLine
 10
42.58265755452817
 20
13.70731480874297
 30
0.0
 11
42.48265755452813
 21
13.70731480874297
 31
0.0
1001
ACAD
1000
ASC_BOUNDS
1002
{
1070
    19
1005
0
1002
}
  0
LINE
  5
9684
330
47A9
100
AcDbEntity
  8
HIDDEN
100
AcDbLine
 10
42.48265755452812
 20
13.47766980874295
 30
0.0
 11
42.48265755452812
 21
13.39766980874294
 31
0.0
1001
ACAD
1000
ASC_BOUNDS
1002
{
1070
    19
1005
0
1002
}
  0
LINE
  5
9685
330
47A9
100
AcDbEntity
  8
HIDDEN
100
AcDbLine
 10
42.58265755452813
 20
13.39766980874294
 30
0.0
 11
42.48265755452812
 21
13.39766980874294
 31
0.0
1001
ACAD
1000
ASC_BOUNDS
1002
{
1070
    19
1005
0
1002
}
  0
LINE
  5
9686
330
47A9
100
AcDbEntity
  8
HIDDEN
100
AcDbLine
 10
42.58265755452813
 20
13.47766980874295
 30
0.0
 11
42.48265755452812
 21
13.47766980874295
 31
0.0
1001
ACAD
1000
ASC_BOUNDS
1002
{
1070
    19
1005
0
1002
}
  0
LINE
  5
9687
330
47A9
100
AcDbEntity
  8
HIDDEN
100
AcDbLine
 10
41.58810655452813
 20
13.92978480874296
 30
0.0
 11
41.63310655452813
 21
13.92978480874296
 31
0.0
  0
LINE
  5
9688
330
47A9
100
AcDbEntity
  8
HIDDEN
100
AcDbLine
 10
42.58265755452813
 20
22.59219480874294
 30
0.0
 11
41.71790155452813
 21
22.59219480874294
 31
0.0
  0
LINE
  5
9689
330
47A9
100
AcDbEntity
  8
HIDDEN
100
AcDbLine
 10
42.09810655452813
 20
22.39081480874294
 30
0.0
 11
41.58810655452813
 21
22.39081480874294
 31
0.0
  0
LINE
  5
968A
330
47A9
100
AcDbEntity
  8
HIDDEN
100
AcDbLine
 10
42.09810655452813
 20
22.70081480874294
 30
0.0
 11
41.58810655452813
 21
22.70081480874294
 31
0.0
  0
LINE
  5
968D
330
47A9
100
AcDbEntity
  8
HIDDEN
100
AcDbLine
 10
42.58265755452813
 20
22.63689980874293
 30
0.0
 11
42.48265755452812
 21
22.63689980874293
 31
0.0
1001
ACAD
1000
ASC_BOUNDS
1002
{
1070
    19
1005
0
1002
}
  0
LINE
  5
968E
330
47A9
100
AcDbEntity
  8
HIDDEN
100
AcDbLine
 10
42.58265755452813
 20
22.71689980874294
 30
0.0
 11
42.48265755452812
 21
22.71689980874294
 31
0.0
1001
ACAD
1000
ASC_BOUNDS
1002
{
1070
    19
1005
0
1002
}
  0
LINE
  5
968F
330
47A9
100
AcDbEntity
  8
HIDDEN
100
AcDbLine
 10
42.48265755452812
 20
22.63689980874293
 30
0.0
 11
42.48265755452812
 21
22.71689980874294
 31
0.0
1001
ACAD
1000
ASC_BOUNDS
1002
{
1070
    19
1005
0
1002
}
  0
LINE
  5
9690
330
47A9
100
AcDbEntity
  8
HIDDEN
100
AcDbLine
 10
42.58265755452813
 20
22.45831480874294
 30
0.0
 11
42.09810655452813
 21
22.45831480874294
 31
0.0
  0
LINE
  5
9691
330
47A9
100
AcDbEntity
  8
HIDDEN
100
AcDbLine
 10
42.58265755452813
 20
22.63331480874294
 30
0.0
 11
42.09810655452813
 21
22.63331480874294
 31
0.0
  0
LINE
  5
9692
330
47A9
100
AcDbEntity
  8
HIDDEN
100
AcDbLine
 10
42.09810655452813
 20
22.39081480874294
 30
0.0
 11
42.09810655452813
 21
22.70081480874294
 31
0.0
  0
LINE
  5
9693
330
47A9
100
AcDbEntity
  8
HIDDEN
100
AcDbLine
 10
41.63310655452813
 20
22.18478480874294
 30
0.0
 11
41.58810655452813
 21
22.18478480874294
 31
0.0
  0
LINE
  5
9694
330
47A9
100
AcDbEntity
  8
HIDDEN
100
AcDbLine
 10
41.71790155452813
 20
22.31208980874298
 30
0.0
 11
41.71790155452813
 21
22.10522480874294
 31
0.0
  0
LINE
  5
9695
330
47A9
100
AcDbEntity
  8
HIDDEN
100
AcDbLine
 10
42.58265755452813
 20
22.28254980874309
 30
0.0
 11
41.71790155452813
 21
22.28254980874309
 31
0.0
  0
LINE
  5
9696
330
47A9
100
AcDbEntity
  8
HIDDEN
100
AcDbLine
 10
42.58265755452813
 20
22.28254980874311
 30
0.0
 11
41.71790155452813
 21
22.28254980874311
 31
0.0
  0
LINE
  5
9697
330
47A9
100
AcDbEntity
  8
HIDDEN
100
AcDbLine
 10
42.58265755452817
 20
22.40725480874294
 30
0.0
 11
42.48265755452814
 21
22.40725480874294
 31
0.0
1001
ACAD
1000
ASC_BOUNDS
1002
{
1070
    19
1005
0
1002
}
  0
LINE
  5
9698
330
47A9
100
AcDbEntity
  8
HIDDEN
100
AcDbLine
 10
42.58265755452817
 20
22.32725480874294
 30
0.0
 11
42.48265755452814
 21
22.32725480874294
 31
0.0
1001
ACAD
1000
ASC_BOUNDS
1002
{
1070
    19
1005
0
1002
}
  0
LINE
  5
9699
330
47A9
100
AcDbEntity
  8
HIDDEN
100
AcDbLine
 10
42.48265755452814
 20
22.40725480874294
 30
0.0
 11
42.48265755452814
 21
22.32725480874294
 31
0.0
1001
ACAD
1000
ASC_BOUNDS
1002
{
1070
    19
1005
0
1002
}
  0
DIMENSION
  5
9EC5
330
47A9
100
AcDbEntity
  8
DIM
100
AcDbDimension
  2
*D38
 10
14.92861220372621
 20
13.77228480874294
 30
0.0
 11
14.9286122037262
 21
18.80973226495537
 31
0.0
 70
   160
 71
     5
 42
8.57
  3
23NSTD
100
AcDbAlignedDimension
 13
14.49061220372621
 23
22.34228480874294
 33
0.0
 14
14.49061220372621
 24
13.77228480874294
 34
0.0
 50
90.0
100
AcDbRotatedDimension
  0
DIMENSION
  5
9F77
330
47A9
100
AcDbEntity
  8
DIM
100
AcDbDimension
  2
*D39
 10
16.0606122037262
 20
26.26832961169247
 30
0.0
 11
18.5793622037262
 21
26.26832961169247
 31
0.0
 70
    32
 71
     5
 42
0.7849999999999966
  3
23NSTD
100
AcDbAlignedDimension
 13
15.2756122037262
 23
22.34228480874294
 33
0.0
 14
16.0606122037262
 24
22.34228480874294
 34
0.0
 50
0.000000000000007
100
AcDbRotatedDimension
  0
DIMENSION
  5
A0CC
330
47A9
100
AcDbEntity
  8
DIM
100
AcDbDimension
  2
*D40
 10
17.0431722037262
 20
29.51875516302147
 30
0.0
 11
15.27561220372621
 21
29.51875516302147
 31
0.0
 70
   160
 71
     5
 42
3.535119999999993
  3
23NSTD
100
AcDbAlignedDimension
 13
13.50805220372621
 23
22.53981480874295
 33
0.0
 14
17.0431722037262
 24
22.53981480874295
 34
0.0
100
AcDbRotatedDimension
  0
DIMENSION
  5
A15C
330
47A9
100
AcDbEntity
  8
DIM
100
AcDbDimension
  2
*D41
 10
8.594850907523833
 20
14.07524480874296
 30
0.0
 11
8.594850907523831
 21
14.55351480874295
 31
0.0
 70
    32
 71
     5
 42
0.9565399999999879
  3
23NSTDI
100
AcDbAlignedDimension
 13
13.33944220372621
 23
15.03178480874294
 33
0.0
 14
13.33973220372621
 24
14.07524480874295
 34
0.0
 50
90.0
100
AcDbRotatedDimension
  0
DIMENSION
  5
A1E4
330
47A9
100
AcDbEntity
  8
DIM
100
AcDbDimension
  2
*D44
 10
8.966850907523834
 20
22.04032480874293
 30
0.0
 11
8.966850907523831
 21
21.56205480874294
 31
0.0
 70
    32
 71
     5
 42
0.9565399999999897
  3
23NSTDI
100
AcDbAlignedDimension
 13
13.33944220372621
 23
21.08378480874294
 33
0.0
 14
13.33973220372621
 24
22.04032480874293
 34
0.0
 50
270.0
100
AcDbRotatedDimension
  0
DIMENSION
  5
A1E5
330
47A9
100
AcDbEntity
  8
DIM
100
AcDbDimension
  2
*D42
 10
10.45485090752383
 20
21.08378480874294
 30
0.0
 11
10.45485090752383
 21
20.69128480874294
 31
0.0
 70
    32
 71
     5
 42
0.7850000000000002
  3
23NSTDI
100
AcDbAlignedDimension
 13
13.33944220372621
 23
20.29878480874294
 33
0.0
 14
13.33944220372621
 24
21.08378480874294
 34
0.0
 50
270.0
100
AcDbRotatedDimension
  0
DIMENSION
  5
A1E6
330
47A9
100
AcDbEntity
  8
DIM
100
AcDbDimension
  2
*D43
 10
11.94285090752383
 20
20.29878480874294
 30
0.0
 11
11.94285090752382
 21
19.90628480874294
 31
0.0
 70
    32
 71
     5
 42
0.7850000000000002
  3
23NSTDI
100
AcDbAlignedDimension
 13
13.33944220372621
 23
19.51378480874294
 33
0.0
 14
13.33944220372621
 24
20.29878480874294
 34
0.0
 50
90.00000000000003
100
AcDbRotatedDimension
  0
DIMENSION
  5
A274
330
47A9
100
AcDbEntity
  8
DIM
100
AcDbDimension
  2
*D45
 10
23.13366558825487
 20
22.77319480874296
 30
0.0
 11
24.93241558825486
 21
24.21319480874297
 31
0.0
 70
    32
  1
<>
 71
     5
 42
0.2333800000000039
  3
23NSTD
100
AcDbAlignedDimension
 13
17.0431722037262
 23
22.53981480874295
 33
0.0
 14
17.38571720372621
 24
22.77319480874296
 34
0.0
 50
270.0
100
AcDbRotatedDimension
  0
DIMENSION
  5
A2E0
330
47A9
100
AcDbEntity
  8
DIM
100
AcDbDimension
  2
*D46
 10
17.6357172037262
 20
19.93278701597038
 30
0.0
 11
20.0607172037262
 21
19.93278701597038
 31
0.0
 70
    32
  1
<>\PTYP.
 71
     5
 42
0.1197949999999999
  3
23NSTD
100
AcDbAlignedDimension
 13
17.5159222037262
 23
20.18478701597037
 33
0.0
 14
17.6357172037262
 24
20.18478701597037
 34
0.0
100
AcDbRotatedDimension
  0
DIMENSION
  5
A392
330
47A9
100
AcDbEntity
  8
DIM
100
AcDbDimension
  2
*D47
 10
30.03674325055084
 20
22.62839730874293
 30
0.0
 11
32.80424325055084
 21
24.06839730874294
 31
0.0
 70
    32
  1
<> DIA.\P(4) PLACES
 71
     5
 42
0.177164999999988
  3
23NSTD
100
AcDbAlignedDimension
 13
29.14084150483923
 23
22.45123230874294
 33
0.0
 14
29.14084150483923
 24
22.62839730874293
 34
0.0
 50
90.0
100
AcDbRotatedDimension
  0
DIMENSION
  5
A3AC
330
47A9
100
AcDbEntity
  8
DIM
100
AcDbDimension
  2
*D48
 10
29.14084150483923
 20
18.88155679171258
 30
0.0
 11
31.56584150483923
 21
18.88155679171258
 31
0.0
 70
    32
 71
     5
 42
0.1297949999999908
  3
23NSTD
100
AcDbAlignedDimension
 13
29.01104650483924
 23
18.62955679171258
 33
0.0
 14
29.14084150483923
 24
18.62955679171258
 34
0.0
100
AcDbRotatedDimension
  0
DIMENSION
  5
A414
330
47A9
100
AcDbEntity
  8
DIM
100
AcDbDimension
  2
*D49
 10
21.19722821149025
 20
22.30875480874294
 30
0.0
 11
21.19722821149025
 21
18.05778480874295
 31
0.0
 70
    32
 71
     5
 42
8.501939999999995
  3
23NSTD
100
AcDbAlignedDimension
 13
17.4219222037262
 23
13.80681480874294
 33
0.0
 14
17.4219222037262
 24
22.30875480874294
 34
0.0
 50
90.0
100
AcDbRotatedDimension
  0
DIMENSION
  5
A436
330
47A9
100
AcDbEntity
  8
DIM
100
AcDbDimension
  2
*D50
 10
19.69805958816101
 20
22.77219480874294
 30
0.0
 11
21.49680958816101
 21
24.21219480874295
 31
0.0
 70
    32
 71
     5
 42
0.4634400000000021
  3
23NSTD
100
AcDbAlignedDimension
 13
17.4219222037262
 23
22.30875480874294
 33
0.0
 14
17.38571720372621
 24
22.77219480874294
 34
0.0
 50
90.0
100
AcDbRotatedDimension
  0
LINE
  5
A66C
102
{ACAD_REACTORS
330
A982
102
}
330
47A9
100
AcDbEntity
  8
OBJECT
100
AcDbLine
 10
59.1813111646617
 20
32.92625029208535
 30
0.0
 11
59.18131116466167
 21
31.52718080230861
 31
0.0
  0
LINE
  5
A66F
102
{ACAD_REACTORS
330
A982
102
}
330
47A9
100
AcDbEntity
  8
OBJECT
100
AcDbLine
 10
55.72228716466164
 20
30.82412080230927
 30
0.0
 11
57.66049116466163
 21
30.82412080230927
 31
0.0
  0
LINE
  5
A670
102
{ACAD_REACTORS
330
A982
102
}
330
47A9
100
AcDbEntity
  8
OBJECT
100
AcDbLine
 10
55.72228716466167
 20
31.52718080230861
 30
0.0
 11
59.18131116466167
 21
31.52718080230861
 31
0.0
  0
LINE
  5
A671
102
{ACAD_REACTORS
330
A982
102
}
330
47A9
100
AcDbEntity
  8
OBJECT
100
AcDbLine
 10
55.72228716466164
 20
30.12412080230928
 30
0.0
 11
57.66049116466163
 21
30.12412080230928
 31
0.0
  0
LINE
  5
A672
102
{ACAD_REACTORS
330
A931
330
A982
102
}
330
47A9
100
AcDbEntity
  8
OBJECT
100
AcDbLine
 10
55.7222871646615
 20
31.0283608023093
 30
0.0
 11
56.12228716466165
 21
31.0283608023093
 31
0.0
1001
ACAD
1000
ASC_BOUNDS
1002
{
1070
    19
1005
0
1002
}
  0
LINE
  5
A673
102
{ACAD_REACTORS
330
A931
330
A982
102
}
330
47A9
100
AcDbEntity
  8
OBJECT
100
AcDbLine
 10
55.7222871646615
 20
31.34836080230929
 30
0.0
 11
56.12228716466165
 21
31.34836080230929
 31
0.0
1001
ACAD
1000
ASC_BOUNDS
1002
{
1070
    19
1005
0
1002
}
  0
LINE
  5
A674
102
{ACAD_REACTORS
330
A931
330
A982
102
}
330
47A9
100
AcDbEntity
  8
OBJECT
100
AcDbLine
 10
56.12228716466165
 20
31.0283608023093
 30
0.0
 11
56.12228716466165
 21
31.34836080230929
 31
0.0
1001
ACAD
1000
ASC_BOUNDS
1002
{
1070
    19
1005
0
1002
}
  0
LINE
  5
A675
102
{ACAD_REACTORS
330
A982
102
}
330
47A9
100
AcDbEntity
  8
OBJECT
100
AcDbLine
 10
57.66049116466163
 20
31.09412080230928
 30
0.0
 11
57.66049116466163
 21
29.85412080230927
 31
0.0
  0
LINE
  5
A676
102
{ACAD_REACTORS
330
A982
102
}
330
47A9
100
AcDbEntity
  8
OBJECT
100
AcDbLine
 10
57.66049116466163
 20
31.09412080230928
 30
0.0
 11
59.70049116466165
 21
31.09412080230928
 31
0.0
  0
LINE
  5
A677
102
{ACAD_REACTORS
330
A982
102
}
330
47A9
100
AcDbEntity
  8
OBJECT
100
AcDbLine
 10
57.66049116466163
 20
29.85412080230927
 30
0.0
 11
59.70049116466165
 21
29.85412080230927
 31
0.0
  0
LINE
  5
A678
102
{ACAD_REACTORS
330
A982
102
}
330
47A9
100
AcDbEntity
  8
OBJECT
100
AcDbLine
 10
59.70049116466167
 20
33.09770585002267
 30
0.0
 11
59.70049116466167
 21
29.81660080230927
 31
0.0
  0
ARC
  5
A679
102
{ACAD_REACTORS
330
A982
102
}
330
47A9
100
AcDbEntity
  8
OBJECT
100
AcDbCircle
 10
59.45249116466168
 20
29.81660080230927
 30
0.0
 40
0.2479999999999904
100
AcDbArc
 50
270.0
 51
0.0
  0
LINE
  5
A67A
102
{ACAD_REACTORS
330
A982
102
}
330
47A9
100
AcDbEntity
  8
OBJECT
100
AcDbLine
 10
59.45249116466168
 20
29.56860080230928
 30
0.0
 11
55.72228716466164
 21
29.56860080230928
 31
0.0
  0
LINE
  5
A67B
102
{ACAD_REACTORS
330
A931
330
A982
102
}
330
47A9
100
AcDbEntity
  8
OBJECT
100
AcDbLine
 10
55.72228716466164
 20
29.56860080230928
 30
0.0
 11
55.72228716466164
 21
32.90244270513529
 31
0.0
  0
DIMENSION
  5
A6B3
330
47A9
100
AcDbEntity
  8
DIM
100
AcDbDimension
  2
*D51
 10
56.12228716466165
 20
34.53178540908314
 30
0.0
 11
58.51603716466165
 21
34.53178540908314
 31
0.0
 70
    32
 71
     5
 42
0.1000000000000014
  3
23NSTD4
100
AcDbAlignedDimension
 13
55.72228716466164
 23
32.90244270513529
 33
0.0
 14
56.12228716466165
 24
31.34836080230929
 34
0.0
100
AcDbRotatedDimension
  0
DIMENSION
  5
A6C1
330
47A9
100
AcDbEntity
  8
DIM
100
AcDbDimension
  2
*D52
 10
54.77442720006497
 20
30.12412080230928
 30
0.0
 11
52.28817720006496
 21
28.68412080230928
 31
0.0
 70
    32
  1
<> DIA.
 71
     5
 42
0.174999999999998
  3
23NSTD4
100
AcDbAlignedDimension
 13
55.72228716466164
 23
30.82412080230927
 33
0.0
 14
55.72228716466164
 24
30.12412080230928
 34
0.0
 50
90.0
100
AcDbRotatedDimension
  0
DIMENSION
  5
A6D0
330
47A9
100
AcDbEntity
  8
DIM
100
AcDbDimension
  2
*D53
 10
59.70049116466167
 20
28.7215886686865
 30
0.0
 11
58.68049116466165
 21
28.7215886686865
 31
0.0
 70
    32
 71
     5
 42
0.5100000000000123
  3
23NSTD4
100
AcDbAlignedDimension
 13
57.66049116466163
 23
29.85412080230927
 33
0.0
 14
59.70049116466167
 24
29.81660080230927
 34
0.0
100
AcDbRotatedDimension
  0
DIMENSION
  5
A726
330
47A9
100
AcDbEntity
  8
DIM
100
AcDbDimension
  2
*D54
 10
53.223116806458
 20
31.0283608023093
 30
0.0
 11
51.48686680645798
 21
29.58836080230931
 31
0.0
 70
    32
 71
     5
 42
0.0799999999999983
  3
23NSTD4
100
AcDbAlignedDimension
 13
55.72228716466164
 23
31.34836080230929
 33
0.0
 14
55.72228716466164
 24
31.0283608023093
 34
0.0
 50
90.0
100
AcDbRotatedDimension
  0
LINE
  5
A8EE
102
{ACAD_REACTORS
330
ADDA
102
}
330
47A9
100
AcDbEntity
  8
OBJECT
100
AcDbLine
 10
26.17884150483922
 20
13.72175480874294
 30
0.0
 11
26.48484150483922
 21
13.72175480874294
 31
0.0
  0
LINE
  5
A8F0
102
{ACAD_REACTORS
330
ADDA
102
}
330
47A9
100
AcDbEntity
  8
OBJECT
100
AcDbLine
 10
26.17884150483922
 20
13.47175480874294
 30
0.0
 11
26.48484150483922
 21
13.47175480874294
 31
0.0
  0
LINE
  5
A8F2
330
47A9
100
AcDbEntity
  8
OBJECT
100
AcDbLine
 10
26.17884150483922
 20
13.67525480874294
 30
0.0
 11
26.48484150483922
 21
13.67525480874294
 31
0.0
  0
LINE
  5
A8F4
330
47A9
100
AcDbEntity
  8
OBJECT
100
AcDbLine
 10
26.17884150483922
 20
13.51825480874294
 30
0.0
 11
26.48484150483922
 21
13.51825480874294
 31
0.0
  0
HATCH
  5
A900
330
47A9
100
AcDbEntity
  8
OBJECT
 62
   221
100
AcDbHatch
 10
0.0
 20
0.0
 30
0.0
210
0.0
220
0.0
230
1.0
  2
ANSI32
 70
     0
 71
     0
 91
        2
 92
        7
 72
     0
 73
     1
 93
        4
 10
26.48484150483922
 20
13.51825480874294
 10
26.17884150483922
 20
13.51825480874294
 10
26.17884150483922
 20
13.47175480874294
 10
26.48484150483922
 20
13.47175480874294
 97
        0
 92
        7
 72
     0
 73
     1
 93
        4
 10
26.48484150483922
 20
13.72175480874294
 10
26.17884150483922
 20
13.72175480874294
 10
26.17884150483922
 20
13.67525480874294
 10
26.48484150483922
 20
13.67525480874294
 97
        0
 75
     0
 76
     1
 52
89.99998127603165
 41
0.375
 77
     0
 78
     2
 53
134.9999812760316
 43
0.0
 44
0.0
 45
-0.0994369235998215
 46
-0.0994368586088844
 79
     0
 53
134.9999812760316
 43
0.0000000216636457
 44
0.0662912606249965
 45
-0.0994369235998215
 46
-0.0994368586088844
 79
     0
 47
0.0040342512325603
 98
        2
 10
26.37035148715611
 20
13.49788427677251
 10
26.36631405815222
 20
13.70363117449233
  0
HATCH
  5
A90A
330
47A9
100
AcDbEntity
  8
OBJECT
 62
   221
100
AcDbHatch
 10
0.0
 20
0.0
 30
0.0
210
0.0
220
0.0
230
1.0
  2
ANSI32
 70
     0
 71
     0
 91
        2
 92
        7
 72
     0
 73
     1
 93
        4
 10
29.05073150483923
 20
21.94732480874294
 10
29.05073150483923
 20
21.97882480874294
 10
28.82051050483923
 20
21.97882480874294
 10
28.82051050483923
 20
21.94732480874294
 97
        0
 92
        7
 72
     0
 73
     1
 93
        4
 10
28.82051050483923
 20
22.13532480874295
 10
28.82051050483923
 20
22.10382480874295
 10
29.05073150483923
 20
22.10382480874294
 10
29.05073150483923
 20
22.13532480874295
 97
        0
 75
     0
 76
     1
 52
89.99998127603165
 41
0.375
 77
     0
 78
     2
 53
134.9999812760316
 43
0.0
 44
0.0
 45
-0.0994369235998215
 46
-0.0994368586088844
 79
     0
 53
134.9999812760316
 43
0.0000000216636457
 44
0.0662912606249965
 45
-0.0994369235998215
 46
-0.0994368586088844
 79
     0
 47
0.0021528742707928
 98
        2
 10
28.90288117985284
 20
21.95929749570616
 10
28.92011804862181
 20
22.12076304576028
  0
HATCH
  5
A931
330
47A9
100
AcDbEntity
  8
OBJECT
 62
   221
100
AcDbHatch
 10
0.0
 20
0.0
 30
0.0
210
0.0
220
0.0
230
1.0
  2
ZIGZAG
 70
     0
 71
     1
 91
        1
 92
        7
 72
     0
 73
     1
 93
        4
 10
56.12228716466165
 20
31.0283608023093
 10
56.12228716466165
 20
31.34836080230929
 10
55.72228716466164
 20
31.34836080230929
 10
55.72228716466164
 20
31.0283608023093
 97
        4
330
A673
330
A67B
330
A672
330
A674
 75
     0
 76
     1
 52
0.0
 41
1.0
 77
     0
 78
     2
 53
0.0
 43
0.0
 44
0.0
 45
0.125
 46
0.125
 79
     2
 49
0.125
 49
-0.125
 53
90.0
 43
0.125
 44
0.0
 45
-0.125
 46
0.125
 79
     2
 49
0.125
 49
-0.125
 47
0.0247767110988393
 98
        1
 10
55.90928230522209
 20
31.17229226170396
  0
HATCH
  5
A982
330
47A9
100
AcDbEntity
  8
OBJECT
 62
   151
100
AcDbHatch
 10
0.0
 20
0.0
 30
0.0
210
0.0
220
0.0
230
1.0
  2
ANSI31
 70
     0
 71
     1
 91
        2
 92
        5
 93
       12
 72
     4
 94
        3
 73
     0
 74
     0
 95
        8
 96
        4
 40
3.822430074441193
 40
3.822430074441193
 40
3.822430074441193
 40
3.822430074441193
 40
4.375821937656322
 40
4.375821937656322
 40
4.375821937656322
 40
4.375821937656322
 10
59.70049116466168
 20
33.09770585002267
 10
59.52430310596412
 20
33.00545026193551
 10
59.35063708733471
 20
32.92287589919601
 10
59.1813111646617
 20
32.92625029209036
 72
     1
 10
59.1813111646617
 20
32.92625029209036
 11
59.18131116466167
 21
31.52718080230861
 72
     1
 10
59.18131116466167
 20
31.52718080230861
 11
55.72228716466164
 21
31.52718080230861
 72
     1
 10
55.72228716466164
 20
31.52718080230861
 11
55.72228716466163
 21
31.34836080230929
 72
     1
 10
55.72228716466163
 20
31.34836080230929
 11
56.12228716466165
 21
31.3483608023093
 72
     1
 10
56.12228716466165
 20
31.3483608023093
 11
56.12228716466165
 21
31.02836080230929
 72
     1
 10
56.12228716466165
 20
31.02836080230929
 11
55.72228716466164
 21
31.02836080230929
 72
     1
 10
55.72228716466164
 20
31.02836080230929
 11
55.72228716466163
 21
30.82412080230927
 72
     1
 10
55.72228716466163
 20
30.82412080230927
 11
57.66049116466162
 21
30.82412080230927
 72
     1
 10
57.66049116466162
 20
30.82412080230927
 11
57.66049116466163
 21
31.09412080230928
 72
     1
 10
57.66049116466163
 20
31.09412080230928
 11
59.70049116466167
 21
31.09412080230928
 72
     1
 10
59.70049116466167
 20
31.09412080230928
 11
59.70049116466167
 21
33.09770585002267
 97
       11
330
7D96
330
A66C
330
A670
330
A67B
330
A673
330
A674
330
A672
330
A66F
330
A675
330
A676
330
A678
 92
        7
 72
     1
 73
     1
 93
        7
 10
59.70049116466167
 20
29.81660080230927
 42
0.0
 10
59.70049116466167
 20
29.85412080230927
 42
0.0
 10
57.66049116466162
 20
29.85412080230927
 42
0.0
 10
57.66049116466162
 20
30.12412080230928
 42
0.0
 10
55.72228716466164
 20
30.12412080230928
 42
0.0
 10
55.72228716466164
 20
29.56860080230928
 42
0.0
 10
59.45249116466168
 20
29.56860080230928
 42
0.4142135623730951
 97
        7
330
A678
330
A677
330
A675
330
A671
330
A67B
330
A67A
330
A679
 75
     0
 76
     1
 52
0.0
 41
3.0
 77
     0
 78
     1
 53
45.0
 43
0.0
 44
0.0
 45
-0.2651650429449553
 46
0.2651650429449553
 79
     0
 47
0.0567272347902783
 98
        2
 10
57.40851334155073
 20
31.30884036353977
 10
56.95432860771692
 20
29.77720503464975
  0
HATCH
  5
AA0D
330
47A9
100
AcDbEntity
  8
OBJECT
 62
   221
100
AcDbHatch
 10
0.0
 20
0.0
 30
0.0
210
0.0
220
0.0
230
1.0
  2
ZIGZAG
 70
     0
 71
     0
 91
        2
 92
        7
 72
     1
 73
     1
 93
       20
 10
48.93351159979042
 20
22.25375480874294
 42
0.4142135623730745
 10
48.78001159979044
 20
22.40725480874293
 42
0.0
 10
48.37104159979043
 20
22.40725480874294
 42
-0.4142135623729483
 10
48.24354159979043
 20
22.53475480874287
 42
0.0
 10
48.24354159979042
 20
22.56339980874301
 42
0.414213562372946
 10
48.09004159979043
 20
22.71689980874293
 42
0.0
 10
46.95703761304303
 20
22.71689980874293
 42
0.0
 10
46.95703761304304
 20
22.63689980874294
 42
0.0
 10
48.09004159979043
 20
22.63689980874294
 42
-0.4142135623729535
 10
48.16354159979042
 20
22.56339980874298
 42
0.0
 10
48.16354159979043
 20
22.53475480874283
 42
0.4142135623729445
 10
48.37104159979043
 20
22.32725480874294
 42
0.0
 10
48.78001159979042
 20
22.32725480874294
 42
-0.4142135623730808
 10
48.85351159979042
 20
22.25375480874294
 42
0.0
 10
48.85351159979042
 20
13.86081480874294
 42
-0.4142135623730807
 10
48.78001159979042
 20
13.78731480874294
 42
0.0
 10
48.74220159979042
 20
13.78731480874295
 42
0.0
 10
48.74220159979042
 20
13.70731480874295
 42
0.0
 10
48.78001159979042
 20
13.70731480874295
 42
0.4142135623731085
 10
48.93351159979042
 20
13.86081480874294
 42
0.0
 97
        0
 92
        7
 72
     1
 73
     1
 93
       36
 10
44.40389166246004
 20
22.25365882734994
 42
-0.4145960944845838
 10
44.47739159979042
 20
22.32725480874294
 42
0.0
 10
44.88636159979042
 20
22.32725480874294
 42
0.4142135623731002
 10
45.09386159979043
 20
22.53475480874294
 42
0.0
 10
45.09386159979043
 20
22.56339980874294
 42
-0.4142135623730811
 10
45.16736159979042
 20
22.63689980874294
 42
0.0
 10
46.95703761304303
 20
22.63689980874294
 42
0.0
 10
46.95703761304304
 20
22.71689980874294
 42
0.0
 10
45.16736159979043
 20
22.71689980874294
 42
0.4142135623730205
 10
45.01386159979043
 20
22.56339980874298
 42
0.0
 10
45.01386159979042
 20
22.53475480874291
 42
-0.4142135623730216
 10
44.88636159979042
 20
22.40725480874294
 42
0.0
 10
44.47739159979042
 20
22.40725480874293
 42
0.4142135623730883
 10
44.32389159979043
 20
22.25375480874294
 42
0.0
 10
44.32389159979043
 20
13.86081480874296
 42
0.4142135623731052
 10
44.47739159979043
 20
13.70731480874295
 42
0.0
 10
44.88636159979042
 20
13.70731480874295
 42
-0.4142135623730216
 10
45.01386159979042
 20
13.57981480874298
 42
0.0
 10
45.01386159979043
 20
13.55116980874291
 42
0.4142135623730307
 10
45.16736159979044
 20
13.39766980874294
 42
0.0
 10
48.09004159979043
 20
13.39766980874295
 42
0.4142135623729457
 10
48.24354159979042
 20
13.55116980874287
 42
0.0
 10
48.24354159979043
 20
13.57981480874302
 42
-0.4142135623729559
 10
48.37104159979043
 20
13.70731480874295
 42
0.0
 10
48.74220159979042
 20
13.70731480874295
 42
0.0
 10
48.74220159979042
 20
13.78731480874294
 42
0.0
 10
48.37104159979043
 20
13.78731480874294
 42
0.4142135623729497
 10
48.16354159979043
 20
13.57981480874305
 42
0.0
 10
48.16354159979042
 20
13.5511698087429
 42
-0.4142135623729394
 10
48.09004159979043
 20
13.47766980874294
 42
0.0
 10
45.16736159979043
 20
13.47766980874293
 42
-0.4142135623730879
 10
45.09386159979043
 20
13.55116980874294
 42
0.0
 10
45.09386159979043
 20
13.57981480874294
 42
0.4142135623730904
 10
44.88636159979043
 20
13.78731480874294
 42
0.0
 10
44.47739159979042
 20
13.78731480874294
 42
-0.4142135660092069
 10
44.40389159942995
 20
13.86081480929492
 42
0.0
 97
        0
 75
     0
 76
     1
 52
0.0
 41
0.5
 77
     0
 78
     2
 53
0.0
 43
0.0
 44
0.0
 45
0.0625
 46
0.0625
 79
     2
 49
0.0625
 49
-0.0625
 53
90.0
 43
0.0625
 44
0.0
 45
-0.0625
 46
0.0625
 79
     2
 49
0.0625
 49
-0.0625
 47
0.0169308993469088
 98
        2
 10
48.88713760736269
 20
21.15626607782258
 10
44.37987712506173
 20
18.95524906642238
  0
HATCH
  5
AA12
330
47A9
100
AcDbEntity
  8
OBJECT
 62
   221
100
AcDbHatch
 10
0.0
 20
0.0
 30
0.0
210
0.0
220
0.0
230
1.0
  2
ZIGZAG
 70
     0
 71
     1
 91
        1
 92
        7
 72
     0
 73
     1
 93
        4
 10
54.97845617429424
 20
13.70731480874294
 10
54.97845617429423
 20
13.78731480874295
 10
54.87845617429425
 20
13.78731480874294
 10
54.87845617429425
 20
13.70731480874294
 97
        4
330
905E
330
59E2
330
905D
330
905F
 75
     0
 76
     1
 52
0.0
 41
0.375
 77
     0
 78
     2
 53
0.0
 43
0.0
 44
0.0
 45
0.046875
 46
0.046875
 79
     2
 49
0.046875
 49
-0.046875
 53
90.0
 43
0.046875
 44
0.0
 45
-0.046875
 46
0.046875
 79
     2
 49
0.046875
 49
-0.046875
 47
0.0042403225226786
 98
        1
 10
54.93566591062933
 20
13.74674955410789
  0
HATCH
  5
AA13
330
47A9
100
AcDbEntity
  8
OBJECT
 62
   221
100
AcDbHatch
 10
0.0
 20
0.0
 30
0.0
210
0.0
220
0.0
230
1.0
  2
ZIGZAG
 70
     0
 71
     0
 91
        1
 92
        7
 72
     0
 73
     1
 93
        4
 10
54.97845617429424
 20
22.63689980874294
 10
54.97845617429423
 20
22.71689980874293
 10
54.87845617429425
 20
22.71689980874293
 10
54.87845617429425
 20
22.63689980874294
 97
        0
 75
     0
 76
     1
 52
0.0
 41
0.375
 77
     0
 78
     2
 53
0.0
 43
0.0
 44
8.929584999999988
 45
0.046875
 46
0.046875
 79
     2
 49
0.046875
 49
-0.046875
 53
90.0
 43
0.046875
 44
8.929584999999988
 45
-0.046875
 46
0.046875
 79
     2
 49
0.046875
 49
-0.046875
 47
0.0042403225226786
 98
        1
 10
54.93566591062933
 20
22.67633455410788
  0
HATCH
  5
AA3F
330
47A9
100
AcDbEntity
  8
OBJECT
 62
   151
100
AcDbHatch
 10
0.0
 20
0.0
 30
0.0
210
0.0
220
0.0
230
1.0
  2
ANSI31
 70
     0
 71
     0
 91
        3
 92
        7
 72
     1
 73
     1
 93
       15
 10
55.87300717429426
 20
22.71019480874295
 42
0.4142135623730279
 10
55.81100717429425
 20
22.77219480874294
 42
0.0
 10
54.87845617429425
 20
22.77219480874294
 42
0.0
 10
54.87845617429425
 20
22.71689980874295
 42
0.0
 10
54.97845617429426
 20
22.71689980874295
 42
0.0
 10
54.97845617429425
 20
22.63689980874294
 42
0.0
 10
54.87845617429425
 20
22.63689980874293
 42
0.0
 10
54.87845617429425
 20
22.59219480874294
 42
0.0
 10
55.74321217429426
 20
22.59219480874294
 42
0.0
 10
55.74321217429425
 20
14.51856384143051
 42
-0.0352895587115423
 10
55.87300717429426
 20
14.45565561525959
 42
0.0
 10
55.87300717429426
 20
18.24276731010677
 42
0.0
 10
55.82800717429424
 20
18.24276731010677
 42
0.0
 10
55.82800717429425
 20
22.18478480874293
 42
0.0
 10
55.87300717429426
 20
22.18478480874294
 42
0.0
 97
        0
 92
        7
 72
     1
 73
     1
 93
       12
 10
55.87300717429426
 20
14.45565561525959
 42
0.0352895587115445
 10
55.74321217429425
 20
14.51856384143051
 42
0.0
 10
55.74321217429424
 20
13.83201980874277
 42
0.0
 10
54.87845617429425
 20
13.83201980874278
 42
0.0
 10
54.87845617429425
 20
13.78731480874294
 42
0.0
 10
54.97845617429425
 20
13.78731480874294
 42
0.0
 10
54.97845617429424
 20
13.70731480874294
 42
0.0
 10
54.87845617429425
 20
13.70731480874295
 42
0.0
 10
54.87845617429425
 20
13.65625480874294
 42
0.0
 10
55.36300717429424
 20
13.65625480874294
 42
0.0
 10
55.36300717429424
 20
13.72375480874294
 42
0.0
 10
55.87300717429426
 20
13.72375480874294
 42
0.0
 97
        0
 92
        7
 72
     1
 73
     1
 93
        7
 10
55.87300717429426
 20
13.40437480874295
 42
0.0
 10
55.87300717429425
 20
13.41375480874294
 42
0.0
 10
55.36300717429425
 20
13.41375480874294
 42
0.0
 10
55.36300717429426
 20
13.48125480874294
 42
0.0
 10
54.87845617429425
 20
13.48125480874294
 42
0.0
 10
54.87845617429425
 20
13.34237480874294
 42
0.0
 10
55.81100717429426
 20
13.34237480874294
 42
0.4142135623731538
 97
        0
 75
     0
 76
     1
 52
0.0
 41
1.25
 77
     0
 78
     1
 53
45.0
 43
0.0
 44
0.0
 45
-0.110485434560398
 46
0.110485434560398
 79
     0
 47
0.0182099427802045
 98
        3
 10
55.41489171320453
 20
22.67800246828011
 10
55.43311626208051
 20
13.79155027865397
 10
55.26909429049777
 20
13.390931541824
  0
TEXT
  5
AA40
330
47A9
100
AcDbEntity
  8
TEXT
100
AcDbText
 10
8.150296485422581
 20
4.635558926697029
 30
0.0
 40
0.72
  1
%%UBODY
 41
0.75
 72
     1
 11
9.149296485422581
 21
4.635558926697029
 31
0.0
100
AcDbText
  0
MTEXT
  5
AA44
102
{ACAD_REACTORS
330
AA45
102
}
330
47A9
100
AcDbEntity
  8
DIM
100
AcDbMText
 10
7.135712363851539
 20
27.31806904822177
 30
0.0
 40
0.5
 41
0.0
 71
     3
 72
     1
  1
M4 x 0.306 LG.\PTHREADED INSERT\P(4) PLACES
 73
     1
 44
1.0
  0
LEADER
  5
AA45
330
47A9
100
AcDbEntity
  8
DIM
100
AcDbLeader
  3
23NSTD
 73
     0
 75
     1
 40
2.166666666666666
 41
5.375
 76
     3
 10
13.07714765297466
 20
22.59950879581636
 30
0.0
 10
8.21571236385154
 20
27.06806904822177
 30
0.0
 10
7.49571236385154
 20
27.06806904822177
 30
0.0
340
AA44
210
0.0
220
0.0
230
-1.0
213
0.0
223
-0.25
233
0.0
1001
ACAD
1000
DSTYLE
1002
{
1070
   147
1040
0.09
1070
    77
1070
     0
1002
}
  0
MTEXT
  5
AA98
102
{ACAD_REACTORS
330
AA99
102
}
330
47A9
100
AcDbEntity
  8
DIM
100
AcDbMText
 10
8.572167816085901
 20
12.02224833604212
 30
0.0
 40
0.5
 41
0.0
 71
     3
 72
     1
  1
0.275 DIA. BOSS WITH\PM3 x 0.230 LG.\PTHREADED INSERT\P(4) PLACES\P(SCREWS NOT SUPPLIED)
 73
     1
 44
1.0
  0
LEADER
  5
AA99
330
47A9
100
AcDbEntity
  8
DIM
100
AcDbLeader
  3
23NSTD
 73
     0
 75
     1
 40
3.833333333333333
 41
7.5
 76
     3
 10
13.20604431644504
 20
13.97939180256007
 30
0.0
 10
9.652167816085901
 20
11.77224833604212
 30
0.0
 10
8.9321678160859
 20
11.77224833604212
 30
0.0
340
AA98
210
0.0
220
0.0
230
-1.0
213
0.0
223
-0.25
233
0.0
1001
ACAD
1000
DSTYLE
1002
{
1070
   147
1040
0.09
1070
    77
1070
     0
1002
}
  0
DIMENSION
  5
AB0E
330
47A9
100
AcDbEntity
  8
DIM
100
AcDbDimension
  2
*D55
 10
13.33973220372621
 20
11.41313894238464
 30
0.0
 11
10.85223220372621
 21
11.41313894238464
 31
0.0
 70
    32
 71
     5
 42
1.935879999999993
  3
23NSTD
100
AcDbAlignedDimension
 13
15.2756122037262
 23
13.77228480874294
 33
0.0
 14
13.33973220372621
 24
14.07524480874295
 34
0.0
100
AcDbRotatedDimension
  0
LEADER
  5
ABDC
330
47A9
100
AcDbEntity
  8
DIM
100
AcDbLeader
  3
23NSTD
 73
     0
 75
     1
 40
1.333333333333333
 41
4.75
 76
     3
 10
39.19416814516182
 20
14.90536908714955
 30
0.0
 10
38.47699911198495
 20
12.12423967099441
 30
0.0
 10
37.75699911198495
 20
12.12423967099441
 30
0.0
340
ABDD
213
0.0
223
-0.25
233
0.0
1001
ACAD
1000
DSTYLE
1002
{
1070
   147
1040
0.09
1070
    77
1070
     0
1002
}
  0
MTEXT
  5
ABDD
102
{ACAD_REACTORS
330
ABDC
102
}
330
47A9
100
AcDbEntity
  8
DIM
100
AcDbMText
 10
37.39699911198495
 20
12.37423967099441
 30
0.0
 40
0.5
 41
0.0
 71
     3
 72
     1
  1
\A1;RECESSED AREA\P0.045 DEEP
 73
     1
 44
1.0
  0
LINE
  5
AC18
102
{ACAD_REACTORS
330
ADDA
102
}
330
47A9
100
AcDbEntity
  8
OBJECT
100
AcDbLine
 10
28.82051050483923
 20
20.34628480874295
 30
0.0
 11
29.02873150483923
 21
20.34628480874295
 31
0.0
  0
LINE
  5
AC19
102
{ACAD_REACTORS
330
ADDA
102
}
330
47A9
100
AcDbEntity
  8
OBJECT
100
AcDbLine
 10
29.02873150483923
 20
20.24928480874295
 30
0.0
 11
29.02873150483923
 21
20.34628480874295
 31
0.0
  0
LINE
  5
AC1A
102
{ACAD_REACTORS
330
ADDA
102
}
330
47A9
100
AcDbEntity
  8
OBJECT
100
AcDbLine
 10
28.82051050483923
 20
20.24928480874295
 30
0.0
 11
29.02873150483923
 21
20.24928480874295
 31
0.0
  0
LINE
  5
AC1B
102
{ACAD_REACTORS
330
ADDA
102
}
330
47A9
100
AcDbEntity
  8
OBJECT
100
AcDbLine
 10
28.82051050483923
 20
19.56128480874295
 30
0.0
 11
29.02873150483923
 21
19.56128480874295
 31
0.0
  0
LINE
  5
AC1C
102
{ACAD_REACTORS
330
ADDA
102
}
330
47A9
100
AcDbEntity
  8
OBJECT
100
AcDbLine
 10
29.02873150483923
 20
19.46428480874295
 30
0.0
 11
29.02873150483923
 21
19.56128480874295
 31
0.0
  0
LINE
  5
AC1D
102
{ACAD_REACTORS
330
ADDA
102
}
330
47A9
100
AcDbEntity
  8
OBJECT
100
AcDbLine
 10
28.82051050483923
 20
19.46428480874295
 30
0.0
 11
29.02873150483923
 21
19.46428480874295
 31
0.0
  0
LINE
  5
AC1E
102
{ACAD_REACTORS
330
ADDA
102
}
330
47A9
100
AcDbEntity
  8
OBJECT
100
AcDbLine
 10
29.01084150483923
 20
20.46201458635268
 30
0.0
 11
29.01084150483923
 21
20.9185550311332
 31
0.0
  0
LINE
  5
AC1F
102
{ACAD_REACTORS
330
ADDA
102
}
330
47A9
100
AcDbEntity
  8
OBJECT
100
AcDbLine
 10
29.01084150483923
 20
19.67701458635268
 30
0.0
 11
29.01084150483923
 21
20.13355503113321
 31
0.0
  0
LINE
  5
ACC0
330
47A9
100
AcDbEntity
  8
OBJECT
100
AcDbLine
 10
13.12639549759477
 20
22.08732478048882
 30
0.0
 11
13.21051436403475
 21
22.08732480974855
 31
0.0
  0
LINE
  5
ACC1
330
47A9
100
AcDbEntity
  8
OBJECT
100
AcDbLine
 10
13.21051436403475
 20
21.99332480974856
 30
0.0
 11
13.12639549759477
 21
21.99332490475509
 31
0.0
  0
LINE
  5
ACC2
330
47A9
100
AcDbEntity
  8
OBJECT
100
AcDbLine
 10
13.12639549759477
 20
22.08732478048882
 30
0.0
 11
13.12639549759477
 21
21.99332490475509
 31
0.0
  0
LINE
  5
ACCB
102
{ACAD_REACTORS
330
ADDA
102
}
330
47A9
100
AcDbEntity
  8
OBJECT
100
AcDbLine
 10
29.01084150483923
 20
21.83808997709882
 30
0.0
 11
28.83084150483923
 21
21.86548126762882
 31
0.0
  0
LINE
  5
ACCF
102
{ACAD_REACTORS
330
ADDA
102
}
330
47A9
100
AcDbEntity
  8
OBJECT
100
AcDbLine
 10
29.01084150483923
 20
22.2571546975478
 30
0.0
 11
28.83084150483923
 21
22.22215471520392
 31
0.0
  0
LINE
  5
ACD1
102
{ACAD_REACTORS
330
ADDA
102
}
330
47A9
100
AcDbEntity
  8
OBJECT
100
AcDbLine
 10
28.82084150483923
 20
22.18131799141637
 30
0.0
 11
28.82084150483923
 21
21.90631799141637
 31
0.0
  0
LINE
  5
ACD3
330
47A9
100
AcDbEntity
  8
OBJECT
100
AcDbLine
 10
13.55306890985765
 20
22.08732478048882
 30
0.0
 11
13.55306890985765
 21
21.99332490475509
 31
0.0
  0
LINE
  5
ACD4
330
47A9
100
AcDbEntity
  8
OBJECT
100
AcDbLine
 10
13.51806892751376
 20
21.99332486522499
 30
0.0
 11
13.51806892751376
 21
22.08732479266314
 31
0.0
  0
CIRCLE
  5
ACD5
330
47A9
100
AcDbEntity
  8
OBJECT
100
AcDbCircle
 10
13.33973220372621
 20
22.04032480874293
 30
0.0
 40
0.1375
  0
LINE
  5
ACD6
330
47A9
100
AcDbEntity
  8
OBJECT
100
AcDbLine
 10
13.16139547993866
 20
21.99332486522499
 30
0.0
 11
13.16139547993866
 21
22.08732479266314
 31
0.0
  0
CIRCLE
  5
ACD7
330
47A9
100
AcDbEntity
  8
OBJECT
100
AcDbCircle
 10
13.33973220372621
 20
22.04032480874293
 30
0.0
 40
0.09375
  0
CIRCLE
  5
ACD8
330
47A9
100
AcDbEntity
  8
OBJECT
100
AcDbCircle
 10
13.33973220372621
 20
22.04032480874293
 30
0.0
 40
0.059
  0
LINE
  5
ACDA
330
47A9
100
AcDbEntity
  8
OBJECT
100
AcDbLine
 10
13.46895004341767
 20
21.99332480974856
 30
0.0
 11
13.55306890985765
 21
21.99332490475509
 31
0.0
  0
ARC
  5
ACDB
330
47A9
100
AcDbEntity
  8
OBJECT
100
AcDbCircle
 10
13.33973220372621
 20
22.04032480874293
 30
0.0
 40
0.16
100
AcDbArc
 50
287.0825866192883
 51
342.9174133807116
  0
ARC
  5
ACE1
330
47A9
100
AcDbEntity
  8
OBJECT
100
AcDbCircle
 10
13.33973220372621
 20
22.04032480874293
 30
0.0
 40
0.16
100
AcDbArc
 50
197.0825866192883
 51
252.9174056809183
  0
LINE
  5
ACE2
330
47A9
100
AcDbEntity
  8
OBJECT
100
AcDbLine
 10
13.38673220272058
 20
21.91110696905147
 30
0.0
 11
13.38673210771405
 21
21.82698810261149
 31
0.0
  0
LINE
  5
ACE3
330
47A9
100
AcDbEntity
  8
OBJECT
100
AcDbLine
 10
13.29273223198032
 20
21.82698810261149
 30
0.0
 11
13.29273220272058
 21
21.91110696905147
 31
0.0
  0
LINE
  5
ACE4
330
47A9
100
AcDbEntity
  8
OBJECT
100
AcDbLine
 10
13.29273223198032
 20
21.82698810261149
 30
0.0
 11
13.38673210771405
 21
21.82698810261149
 31
0.0
  0
LINE
  5
ACE5
330
47A9
100
AcDbEntity
  8
OBJECT
100
AcDbLine
 10
13.38673214724415
 20
21.86198808495538
 30
0.0
 11
13.292732219806
 21
21.86198808495538
 31
0.0
  0
LINE
  5
ACE6
102
{ACAD_REACTORS
330
ADDA
102
}
330
47A9
100
AcDbEntity
  8
OBJECT
100
AcDbLine
 10
28.83084150483923
 20
21.90631799141637
 30
0.0
 11
28.83084150483923
 21
21.86548126762882
 31
0.0
  0
LINE
  5
ACE7
102
{ACAD_REACTORS
330
ADDA
102
}
330
47A9
100
AcDbEntity
  8
OBJECT
100
AcDbLine
 10
28.82084150483923
 20
21.90631799141637
 30
0.0
 11
28.83084150483923
 21
21.90631799141637
 31
0.0
  0
ARC
  5
ACE8
330
47A9
100
AcDbEntity
  8
OBJECT
100
AcDbCircle
 10
13.33973220372621
 20
22.04032480874293
 30
0.0
 40
0.16
100
AcDbArc
 50
17.08259431908157
 51
72.91741338071168
  0
LINE
  5
ACE9
330
47A9
100
AcDbEntity
  8
OBJECT
100
AcDbLine
 10
13.55306890985765
 20
22.08732478048882
 30
0.0
 11
13.46895004341767
 21
22.08732480974855
 31
0.0
  0
LINE
  5
ACEA
330
47A9
100
AcDbEntity
  8
OBJECT
100
AcDbLine
 10
13.38673220272058
 20
22.16954264843439
 30
0.0
 11
13.38673210771405
 21
22.25366151487436
 31
0.0
  0
LINE
  5
ACEB
330
47A9
100
AcDbEntity
  8
OBJECT
100
AcDbLine
 10
13.29273223198032
 20
22.25366151487436
 30
0.0
 11
13.29273220272058
 21
22.16954264843439
 31
0.0
  0
LINE
  5
ACEC
330
47A9
100
AcDbEntity
  8
OBJECT
100
AcDbLine
 10
13.29273223198032
 20
22.25366151487436
 30
0.0
 11
13.38673210771405
 21
22.25366151487436
 31
0.0
  0
ARC
  5
ACED
330
47A9
100
AcDbEntity
  8
OBJECT
100
AcDbCircle
 10
13.33973220372621
 20
22.04032480874293
 30
0.0
 40
0.16
100
AcDbArc
 50
107.0825943190815
 51
162.9174056809183
  0
LINE
  5
ACEE
330
47A9
100
AcDbEntity
  8
OBJECT
100
AcDbLine
 10
13.38673214724415
 20
22.21866153253048
 30
0.0
 11
13.292732219806
 21
22.21866153253048
 31
0.0
  0
LINE
  5
ACEF
102
{ACAD_REACTORS
330
ADDA
102
}
330
47A9
100
AcDbEntity
  8
OBJECT
100
AcDbLine
 10
28.83084150483923
 20
22.22215471520392
 30
0.0
 11
28.83084150483923
 21
22.18131799141637
 31
0.0
  0
LINE
  5
ACF0
102
{ACAD_REACTORS
330
ADDA
102
}
330
47A9
100
AcDbEntity
  8
OBJECT
100
AcDbLine
 10
28.82084150483923
 20
22.18131799141637
 30
0.0
 11
28.83084150483923
 21
22.18131799141637
 31
0.0
  0
LINE
  5
AD10
330
47A9
100
AcDbEntity
  8
HIDDEN
  6
HIDDEN2
100
AcDbLine
 10
13.54546021804376
 20
2.365790163342751
 30
0.0
 11
13.51806892751376
 21
2.545790163342754
 31
0.0
  0
LINE
  5
AD11
330
47A9
100
AcDbEntity
  8
HIDDEN
  6
HIDDEN2
100
AcDbLine
 10
13.12639549759477
 20
2.365790163342751
 30
0.0
 11
13.16139547993866
 21
2.545790163342754
 31
0.0
  0
LINE
  5
AD12
330
47A9
100
AcDbEntity
  8
HIDDEN
  6
HIDDEN2
100
AcDbLine
 10
13.21051436401208
 20
2.545790163342754
 30
0.0
 11
13.21051439293017
 21
2.365790163342751
 31
0.0
  0
LINE
  5
AD13
330
47A9
100
AcDbEntity
  8
HIDDEN
  6
HIDDEN2
100
AcDbLine
 10
13.29273214331808
 20
2.545790163342754
 30
0.0
 11
13.29273221346946
 21
2.365790163342751
 31
0.0
  0
LINE
  5
AD14
330
47A9
100
AcDbEntity
  8
HIDDEN
  6
HIDDEN2
100
AcDbLine
 10
13.3867322174212
 20
2.545790163342754
 30
0.0
 11
13.38673222821075
 21
2.365790163342751
 31
0.0
  0
LINE
  5
AD15
330
47A9
100
AcDbEntity
  8
HIDDEN
  6
HIDDEN2
100
AcDbLine
 10
13.46895004341767
 20
2.545790163342754
 30
0.0
 11
13.46894998645291
 21
2.365790163342751
 31
0.0
  0
LINE
  5
AD16
330
47A9
100
AcDbEntity
  8
HIDDEN
  6
HIDDEN2
100
AcDbLine
 10
13.20223220372621
 20
2.555790163342752
 30
0.0
 11
13.47723220372621
 21
2.555790163342752
 31
0.0
  0
LINE
  5
AD17
330
47A9
100
AcDbEntity
  8
HIDDEN
  6
HIDDEN2
100
AcDbLine
 10
13.29273214331808
 20
2.545790163342754
 30
0.0
 11
13.3867322174212
 21
2.545790163342754
 31
0.0
  0
LINE
  5
AD18
330
47A9
100
AcDbEntity
  8
HIDDEN
  6
HIDDEN2
100
AcDbLine
 10
13.46895004341767
 20
2.545790163342754
 30
0.0
 11
13.51806892751376
 21
2.545790163342754
 31
0.0
  0
LINE
  5
AD19
330
47A9
100
AcDbEntity
  8
HIDDEN
  6
HIDDEN2
100
AcDbLine
 10
13.47723220372621
 20
2.555790163342752
 30
0.0
 11
13.47723220372621
 21
2.545790163342754
 31
0.0
  0
LINE
  5
AD1A
330
47A9
100
AcDbEntity
  8
HIDDEN
  6
HIDDEN2
100
AcDbLine
 10
13.16139547993866
 20
2.545790163342754
 30
0.0
 11
13.21051436401207
 21
2.545790163342754
 31
0.0
  0
LINE
  5
AD1B
330
47A9
100
AcDbEntity
  8
HIDDEN
  6
HIDDEN2
100
AcDbLine
 10
13.20223220372621
 20
2.555790163342752
 30
0.0
 11
13.20223220372621
 21
2.545790163342754
 31
0.0
  0
LINE
  5
AD27
330
47A9
100
AcDbEntity
  8
OBJECT
100
AcDbLine
 10
13.38673214724415
 20
14.25358153253051
 30
0.0
 11
13.292732219806
 21
14.25358153253051
 31
0.0
  0
ARC
  5
AD28
330
47A9
100
AcDbEntity
  8
OBJECT
100
AcDbCircle
 10
13.33973220372621
 20
14.07524480874296
 30
0.0
 40
0.16
100
AcDbArc
 50
107.0825943190815
 51
162.9174056809183
  0
LINE
  5
AD29
330
47A9
100
AcDbEntity
  8
OBJECT
100
AcDbLine
 10
13.29273223198032
 20
14.2885815148744
 30
0.0
 11
13.38673210771405
 21
14.2885815148744
 31
0.0
  0
LINE
  5
AD2A
330
47A9
100
AcDbEntity
  8
OBJECT
100
AcDbLine
 10
13.29273223198032
 20
14.2885815148744
 30
0.0
 11
13.29273220272058
 21
14.20446264843442
 31
0.0
  0
LINE
  5
AD2B
330
47A9
100
AcDbEntity
  8
OBJECT
100
AcDbLine
 10
13.38673220272058
 20
14.20446264843442
 30
0.0
 11
13.38673210771405
 21
14.2885815148744
 31
0.0
  0
LINE
  5
AD2C
330
47A9
100
AcDbEntity
  8
OBJECT
100
AcDbLine
 10
13.55306890985764
 20
14.12224478048885
 30
0.0
 11
13.46895004341767
 21
14.12224480974859
 31
0.0
  0
ARC
  5
AD2D
330
47A9
100
AcDbEntity
  8
OBJECT
100
AcDbCircle
 10
13.33973220372621
 20
14.07524480874296
 30
0.0
 40
0.16
100
AcDbArc
 50
17.08259431908157
 51
72.91741338071168
  0
LINE
  5
AD2E
330
47A9
100
AcDbEntity
  8
OBJECT
100
AcDbLine
 10
13.38673214724415
 20
13.89690808495541
 30
0.0
 11
13.292732219806
 21
13.89690808495541
 31
0.0
  0
LINE
  5
AD2F
330
47A9
100
AcDbEntity
  8
OBJECT
100
AcDbLine
 10
13.29273223198032
 20
13.86190810261152
 30
0.0
 11
13.38673210771405
 21
13.86190810261152
 31
0.0
  0
LINE
  5
AD30
330
47A9
100
AcDbEntity
  8
OBJECT
100
AcDbLine
 10
13.29273223198032
 20
13.86190810261152
 30
0.0
 11
13.29273220272058
 21
13.9460269690515
 31
0.0
  0
LINE
  5
AD31
330
47A9
100
AcDbEntity
  8
OBJECT
100
AcDbLine
 10
13.38673220272058
 20
13.9460269690515
 30
0.0
 11
13.38673210771405
 21
13.86190810261152
 31
0.0
  0
ARC
  5
AD32
330
47A9
100
AcDbEntity
  8
OBJECT
100
AcDbCircle
 10
13.33973220372621
 20
14.07524480874296
 30
0.0
 40
0.16
100
AcDbArc
 50
197.0825866192883
 51
252.9174056809183
  0
ARC
  5
AD33
330
47A9
100
AcDbEntity
  8
OBJECT
100
AcDbCircle
 10
13.33973220372621
 20
14.07524480874296
 30
0.0
 40
0.16
100
AcDbArc
 50
287.0825866192883
 51
342.9174133807116
  0
LINE
  5
AD34
330
47A9
100
AcDbEntity
  8
OBJECT
100
AcDbLine
 10
13.46895004341767
 20
14.02824480974858
 30
0.0
 11
13.55306890985764
 21
14.02824490475512
 31
0.0
  0
CIRCLE
  5
AD35
330
47A9
100
AcDbEntity
  8
OBJECT
100
AcDbCircle
 10
13.33973220372621
 20
14.07524480874296
 30
0.0
 40
0.059
  0
CIRCLE
  5
AD36
330
47A9
100
AcDbEntity
  8
OBJECT
100
AcDbCircle
 10
13.33973220372621
 20
14.07524480874296
 30
0.0
 40
0.09375
  0
LINE
  5
AD37
330
47A9
100
AcDbEntity
  8
OBJECT
100
AcDbLine
 10
13.16139547993866
 20
14.02824486522502
 30
0.0
 11
13.16139547993866
 21
14.12224479266317
 31
0.0
  0
CIRCLE
  5
AD38
330
47A9
100
AcDbEntity
  8
OBJECT
100
AcDbCircle
 10
13.33973220372621
 20
14.07524480874296
 30
0.0
 40
0.1375
  0
LINE
  5
AD39
330
47A9
100
AcDbEntity
  8
OBJECT
100
AcDbLine
 10
13.51806892751376
 20
14.02824486522502
 30
0.0
 11
13.51806892751376
 21
14.12224479266317
 31
0.0
  0
LINE
  5
AD3A
330
47A9
100
AcDbEntity
  8
OBJECT
100
AcDbLine
 10
13.55306890985764
 20
14.12224478048885
 30
0.0
 11
13.55306890985764
 21
14.02824490475512
 31
0.0
  0
LINE
  5
AD3B
330
47A9
100
AcDbEntity
  8
OBJECT
100
AcDbLine
 10
13.12639549759477
 20
14.12224478048885
 30
0.0
 11
13.12639549759477
 21
14.02824490475512
 31
0.0
  0
LINE
  5
AD3C
330
47A9
100
AcDbEntity
  8
OBJECT
100
AcDbLine
 10
13.21051436403474
 20
14.02824480974858
 30
0.0
 11
13.12639549759477
 21
14.02824490475512
 31
0.0
  0
LINE
  5
AD3D
330
47A9
100
AcDbEntity
  8
OBJECT
100
AcDbLine
 10
13.12639549759477
 20
14.12224478048885
 30
0.0
 11
13.21051436403474
 21
14.12224480974859
 31
0.0
  0
LINE
  5
AD3E
330
47A9
100
AcDbEntity
  8
OBJECT
100
AcDbLine
 10
28.82084150483923
 20
14.21274480874296
 30
0.0
 11
28.83084150483923
 21
14.21274480874296
 31
0.0
  0
LINE
  5
AD3F
330
47A9
100
AcDbEntity
  8
OBJECT
100
AcDbLine
 10
28.83084150483923
 20
14.25358153253051
 30
0.0
 11
28.83084150483923
 21
14.20446264845709
 31
0.0
  0
LINE
  5
AD40
330
47A9
100
AcDbEntity
  8
OBJECT
100
AcDbLine
 10
28.82084150483923
 20
13.93774480874296
 30
0.0
 11
28.83084150483923
 21
13.93774480874296
 31
0.0
  0
LINE
  5
AD41
330
47A9
100
AcDbEntity
  8
OBJECT
100
AcDbLine
 10
28.83084150483923
 20
13.94602696905149
 30
0.0
 11
28.83084150483923
 21
13.8969080849554
 31
0.0
  0
LINE
  5
AD42
330
47A9
100
AcDbEntity
  8
OBJECT
100
AcDbLine
 10
28.83084150483923
 20
14.12224486915109
 30
0.0
 11
28.83084150483923
 21
14.02824479504797
 31
0.0
  0
LINE
  5
AD43
330
47A9
100
AcDbEntity
  8
OBJECT
100
AcDbLine
 10
28.82084150483923
 20
14.21274480874296
 30
0.0
 11
28.82084150483923
 21
13.93774480874296
 31
0.0
  0
LINE
  5
AD44
330
47A9
100
AcDbEntity
  8
OBJECT
100
AcDbLine
 10
28.83084150483923
 20
13.94602696905149
 30
0.0
 11
29.01084150483923
 21
13.94602702601625
 31
0.0
  0
LINE
  5
AD45
330
47A9
100
AcDbEntity
  8
OBJECT
100
AcDbLine
 10
28.83084150483923
 20
14.02824479504797
 30
0.0
 11
29.01084150483923
 21
14.02824478425842
 31
0.0
  0
LINE
  5
AD46
330
47A9
100
AcDbEntity
  8
OBJECT
100
AcDbLine
 10
28.83084150483923
 20
14.12224486915109
 30
0.0
 11
29.01084150483923
 21
14.12224479899971
 31
0.0
  0
LINE
  5
AD47
330
47A9
100
AcDbEntity
  8
OBJECT
100
AcDbLine
 10
28.83084150483923
 20
14.20446264845709
 30
0.0
 11
29.01084150483923
 21
14.20446261953899
 31
0.0
  0
LINE
  5
AD48
330
47A9
100
AcDbEntity
  8
OBJECT
100
AcDbLine
 10
29.01084150483923
 20
14.28858151487439
 30
0.0
 11
28.83084150483923
 21
14.25358153253051
 31
0.0
  0
LINE
  5
AD49
330
47A9
100
AcDbEntity
  8
OBJECT
100
AcDbLine
 10
29.01084150483923
 20
13.86951679442541
 30
0.0
 11
28.83084150483923
 21
13.8969080849554
 31
0.0
  0
LINE
  5
AD4D
330
47A9
100
AcDbEntity
  8
OBJECT
100
AcDbLine
 10
17.25849214724414
 20
22.21866153253048
 30
0.0
 11
17.16449221980599
 21
22.21866153253048
 31
0.0
  0
ARC
  5
AD4E
330
47A9
100
AcDbEntity
  8
OBJECT
100
AcDbCircle
 10
17.2114922037262
 20
22.04032480874293
 30
0.0
 40
0.16
100
AcDbArc
 50
107.0825943190815
 51
162.9174056809183
  0
LINE
  5
AD4F
330
47A9
100
AcDbEntity
  8
OBJECT
100
AcDbLine
 10
17.16449223198031
 20
22.25366151487436
 30
0.0
 11
17.25849210771404
 21
22.25366151487436
 31
0.0
  0
LINE
  5
AD50
330
47A9
100
AcDbEntity
  8
OBJECT
100
AcDbLine
 10
17.16449223198031
 20
22.25366151487436
 30
0.0
 11
17.16449220272057
 21
22.16954264843439
 31
0.0
  0
LINE
  5
AD51
330
47A9
100
AcDbEntity
  8
OBJECT
100
AcDbLine
 10
17.25849220272057
 20
22.16954264843439
 30
0.0
 11
17.25849210771404
 21
22.25366151487436
 31
0.0
  0
LINE
  5
AD52
330
47A9
100
AcDbEntity
  8
OBJECT
100
AcDbLine
 10
17.42482890985763
 20
22.08732478048882
 30
0.0
 11
17.34071004341766
 21
22.08732480974855
 31
0.0
  0
ARC
  5
AD53
330
47A9
100
AcDbEntity
  8
OBJECT
100
AcDbCircle
 10
17.2114922037262
 20
22.04032480874293
 30
0.0
 40
0.16
100
AcDbArc
 50
17.08259431908157
 51
72.91741338071168
  0
LINE
  5
AD54
330
47A9
100
AcDbEntity
  8
OBJECT
100
AcDbLine
 10
17.25849214724414
 20
21.86198808495538
 30
0.0
 11
17.16449221980599
 21
21.86198808495538
 31
0.0
  0
LINE
  5
AD55
330
47A9
100
AcDbEntity
  8
OBJECT
100
AcDbLine
 10
17.16449223198031
 20
21.82698810261149
 30
0.0
 11
17.25849210771404
 21
21.82698810261149
 31
0.0
  0
LINE
  5
AD56
330
47A9
100
AcDbEntity
  8
OBJECT
100
AcDbLine
 10
17.16449223198031
 20
21.82698810261149
 30
0.0
 11
17.16449220272057
 21
21.91110696905147
 31
0.0
  0
LINE
  5
AD57
330
47A9
100
AcDbEntity
  8
OBJECT
100
AcDbLine
 10
17.25849220272057
 20
21.91110696905147
 30
0.0
 11
17.25849210771404
 21
21.82698810261149
 31
0.0
  0
ARC
  5
AD58
330
47A9
100
AcDbEntity
  8
OBJECT
100
AcDbCircle
 10
17.2114922037262
 20
22.04032480874293
 30
0.0
 40
0.16
100
AcDbArc
 50
197.0825866192883
 51
252.9174056809183
  0
ARC
  5
AD59
330
47A9
100
AcDbEntity
  8
OBJECT
100
AcDbCircle
 10
17.2114922037262
 20
22.04032480874293
 30
0.0
 40
0.16
100
AcDbArc
 50
287.0825866192883
 51
342.9174133807116
  0
LINE
  5
AD5A
330
47A9
100
AcDbEntity
  8
OBJECT
100
AcDbLine
 10
17.34071004341766
 20
21.99332480974856
 30
0.0
 11
17.42482890985763
 21
21.99332490475509
 31
0.0
  0
CIRCLE
  5
AD5B
330
47A9
100
AcDbEntity
  8
OBJECT
100
AcDbCircle
 10
17.2114922037262
 20
22.04032480874293
 30
0.0
 40
0.059
  0
CIRCLE
  5
AD5C
330
47A9
100
AcDbEntity
  8
OBJECT
100
AcDbCircle
 10
17.2114922037262
 20
22.04032480874293
 30
0.0
 40
0.09375
  0
LINE
  5
AD5D
330
47A9
100
AcDbEntity
  8
OBJECT
100
AcDbLine
 10
17.03315547993865
 20
21.99332486522499
 30
0.0
 11
17.03315547993865
 21
22.08732479266314
 31
0.0
  0
CIRCLE
  5
AD5E
330
47A9
100
AcDbEntity
  8
OBJECT
100
AcDbCircle
 10
17.2114922037262
 20
22.04032480874293
 30
0.0
 40
0.1375
  0
LINE
  5
AD5F
330
47A9
100
AcDbEntity
  8
OBJECT
100
AcDbLine
 10
17.38982892751375
 20
21.99332486522499
 30
0.0
 11
17.38982892751375
 21
22.08732479266314
 31
0.0
  0
LINE
  5
AD60
330
47A9
100
AcDbEntity
  8
OBJECT
100
AcDbLine
 10
17.42482890985763
 20
22.08732478048882
 30
0.0
 11
17.42482890985763
 21
21.99332490475509
 31
0.0
  0
LINE
  5
AD61
330
47A9
100
AcDbEntity
  8
OBJECT
100
AcDbLine
 10
16.99815549759476
 20
22.08732478048882
 30
0.0
 11
16.99815549759476
 21
21.99332490475509
 31
0.0
  0
LINE
  5
AD62
330
47A9
100
AcDbEntity
  8
OBJECT
100
AcDbLine
 10
17.08227436403474
 20
21.99332480974856
 30
0.0
 11
16.99815549759476
 21
21.99332490475509
 31
0.0
  0
LINE
  5
AD63
330
47A9
100
AcDbEntity
  8
OBJECT
100
AcDbLine
 10
16.99815549759476
 20
22.08732478048882
 30
0.0
 11
17.08227436403474
 21
22.08732480974855
 31
0.0
  0
LINE
  5
AD64
330
47A9
100
AcDbEntity
  8
HIDDEN
  6
HIDDEN2
100
AcDbLine
 10
17.34071004341766
 20
2.545790163342754
 30
0.0
 11
17.3407099864529
 21
2.365790163342751
 31
0.0
  0
LINE
  5
AD65
330
47A9
100
AcDbEntity
  8
HIDDEN
  6
HIDDEN2
100
AcDbLine
 10
17.25849221742119
 20
2.545790163342754
 30
0.0
 11
17.25849222821073
 21
2.365790163342751
 31
0.0
  0
LINE
  5
AD66
330
47A9
100
AcDbEntity
  8
HIDDEN
  6
HIDDEN2
100
AcDbLine
 10
17.16449214331807
 20
2.545790163342754
 30
0.0
 11
17.16449221346944
 21
2.365790163342751
 31
0.0
  0
LINE
  5
AD67
330
47A9
100
AcDbEntity
  8
HIDDEN
  6
HIDDEN2
100
AcDbLine
 10
17.08227436401206
 20
2.545790163342754
 30
0.0
 11
17.08227439293016
 21
2.365790163342751
 31
0.0
  0
LINE
  5
AD68
330
47A9
100
AcDbEntity
  8
HIDDEN
  6
HIDDEN2
100
AcDbLine
 10
16.99815549759476
 20
2.365790163342751
 30
0.0
 11
17.03315547993865
 21
2.545790163342754
 31
0.0
  0
LINE
  5
AD69
330
47A9
100
AcDbEntity
  8
HIDDEN
  6
HIDDEN2
100
AcDbLine
 10
17.41722021804375
 20
2.365790163342751
 30
0.0
 11
17.38982892751375
 21
2.545790163342754
 31
0.0
  0
LINE
  5
AD6A
330
47A9
100
AcDbEntity
  8
HIDDEN
  6
HIDDEN2
100
AcDbLine
 10
17.0739922037262
 20
2.555790163342752
 30
0.0
 11
17.0739922037262
 21
2.545790163342754
 31
0.0
  0
LINE
  5
AD6B
330
47A9
100
AcDbEntity
  8
HIDDEN
  6
HIDDEN2
100
AcDbLine
 10
17.03315547993865
 20
2.545790163342754
 30
0.0
 11
17.08227436401206
 21
2.545790163342754
 31
0.0
  0
LINE
  5
AD6C
330
47A9
100
AcDbEntity
  8
HIDDEN
  6
HIDDEN2
100
AcDbLine
 10
17.3489922037262
 20
2.555790163342752
 30
0.0
 11
17.3489922037262
 21
2.545790163342754
 31
0.0
  0
LINE
  5
AD6D
330
47A9
100
AcDbEntity
  8
HIDDEN
  6
HIDDEN2
100
AcDbLine
 10
17.34071004341766
 20
2.545790163342754
 30
0.0
 11
17.38982892751375
 21
2.545790163342754
 31
0.0
  0
LINE
  5
AD6E
330
47A9
100
AcDbEntity
  8
HIDDEN
  6
HIDDEN2
100
AcDbLine
 10
17.16449214331807
 20
2.545790163342754
 30
0.0
 11
17.25849221742119
 21
2.545790163342754
 31
0.0
  0
LINE
  5
AD6F
330
47A9
100
AcDbEntity
  8
HIDDEN
  6
HIDDEN2
100
AcDbLine
 10
17.0739922037262
 20
2.555790163342752
 30
0.0
 11
17.3489922037262
 21
2.555790163342752
 31
0.0
  0
CIRCLE
  5
AD70
330
47A9
100
AcDbEntity
  8
OBJECT
100
AcDbCircle
 10
17.2114922037262
 20
14.07524480874296
 30
0.0
 40
0.1375
  0
ARC
  5
AD71
330
47A9
100
AcDbEntity
  8
OBJECT
100
AcDbCircle
 10
17.2114922037262
 20
14.07524480874296
 30
0.0
 40
0.16
100
AcDbArc
 50
17.08259431908157
 51
72.91741338071168
  0
ARC
  5
AD72
330
47A9
100
AcDbEntity
  8
OBJECT
100
AcDbCircle
 10
17.2114922037262
 20
14.07524480874296
 30
0.0
 40
0.16
100
AcDbArc
 50
107.0825943190815
 51
162.9174056809183
  0
LINE
  5
AD73
330
47A9
100
AcDbEntity
  8
OBJECT
100
AcDbLine
 10
16.99815549759476
 20
14.12224478048885
 30
0.0
 11
17.08227436403473
 21
14.12224480974859
 31
0.0
  0
LINE
  5
AD74
330
47A9
100
AcDbEntity
  8
OBJECT
100
AcDbLine
 10
17.08227436403473
 20
14.02824480974858
 30
0.0
 11
16.99815549759476
 21
14.02824490475512
 31
0.0
  0
LINE
  5
AD75
330
47A9
100
AcDbEntity
  8
OBJECT
100
AcDbLine
 10
16.99815549759476
 20
14.12224478048885
 30
0.0
 11
16.99815549759476
 21
14.02824490475512
 31
0.0
  0
LINE
  5
AD76
330
47A9
100
AcDbEntity
  8
OBJECT
100
AcDbLine
 10
17.42482890985763
 20
14.12224478048885
 30
0.0
 11
17.42482890985763
 21
14.02824490475512
 31
0.0
  0
LINE
  5
AD77
330
47A9
100
AcDbEntity
  8
OBJECT
100
AcDbLine
 10
17.38982892751375
 20
14.02824486522502
 30
0.0
 11
17.38982892751375
 21
14.12224479266317
 31
0.0
  0
LINE
  5
AD78
330
47A9
100
AcDbEntity
  8
OBJECT
100
AcDbLine
 10
17.03315547993864
 20
14.02824486522502
 30
0.0
 11
17.03315547993864
 21
14.12224479266317
 31
0.0
  0
CIRCLE
  5
AD79
330
47A9
100
AcDbEntity
  8
OBJECT
100
AcDbCircle
 10
17.2114922037262
 20
14.07524480874296
 30
0.0
 40
0.09375
  0
CIRCLE
  5
AD7A
330
47A9
100
AcDbEntity
  8
OBJECT
100
AcDbCircle
 10
17.2114922037262
 20
14.07524480874296
 30
0.0
 40
0.059
  0
LINE
  5
AD7B
330
47A9
100
AcDbEntity
  8
OBJECT
100
AcDbLine
 10
17.34071004341766
 20
14.02824480974858
 30
0.0
 11
17.42482890985763
 21
14.02824490475512
 31
0.0
  0
ARC
  5
AD7C
330
47A9
100
AcDbEntity
  8
OBJECT
100
AcDbCircle
 10
17.2114922037262
 20
14.07524480874296
 30
0.0
 40
0.16
100
AcDbArc
 50
287.0825866192883
 51
342.9174133807116
  0
ARC
  5
AD7D
330
47A9
100
AcDbEntity
  8
OBJECT
100
AcDbCircle
 10
17.2114922037262
 20
14.07524480874296
 30
0.0
 40
0.16
100
AcDbArc
 50
197.0825866192883
 51
252.9174056809183
  0
LINE
  5
AD7E
330
47A9
100
AcDbEntity
  8
OBJECT
100
AcDbLine
 10
17.25849220272057
 20
13.9460269690515
 30
0.0
 11
17.25849210771404
 21
13.86190810261152
 31
0.0
  0
LINE
  5
AD7F
330
47A9
100
AcDbEntity
  8
OBJECT
100
AcDbLine
 10
17.16449223198031
 20
13.86190810261152
 30
0.0
 11
17.16449220272057
 21
13.9460269690515
 31
0.0
  0
LINE
  5
AD80
330
47A9
100
AcDbEntity
  8
OBJECT
100
AcDbLine
 10
17.16449223198031
 20
13.86190810261152
 30
0.0
 11
17.25849210771404
 21
13.86190810261152
 31
0.0
  0
LINE
  5
AD81
330
47A9
100
AcDbEntity
  8
OBJECT
100
AcDbLine
 10
17.25849214724413
 20
13.89690808495541
 30
0.0
 11
17.16449221980599
 21
13.89690808495541
 31
0.0
  0
LINE
  5
AD82
330
47A9
100
AcDbEntity
  8
OBJECT
100
AcDbLine
 10
17.42482890985763
 20
14.12224478048885
 30
0.0
 11
17.34071004341766
 21
14.12224480974859
 31
0.0
  0
LINE
  5
AD83
330
47A9
100
AcDbEntity
  8
OBJECT
100
AcDbLine
 10
17.25849220272057
 20
14.20446264843442
 30
0.0
 11
17.25849210771404
 21
14.2885815148744
 31
0.0
  0
LINE
  5
AD84
330
47A9
100
AcDbEntity
  8
OBJECT
100
AcDbLine
 10
17.16449223198031
 20
14.2885815148744
 30
0.0
 11
17.16449220272057
 21
14.20446264843442
 31
0.0
  0
LINE
  5
AD85
330
47A9
100
AcDbEntity
  8
OBJECT
100
AcDbLine
 10
17.16449223198031
 20
14.2885815148744
 30
0.0
 11
17.25849210771404
 21
14.2885815148744
 31
0.0
  0
LINE
  5
AD86
330
47A9
100
AcDbEntity
  8
OBJECT
100
AcDbLine
 10
17.25849214724413
 20
14.25358153253051
 30
0.0
 11
17.16449221980599
 21
14.25358153253051
 31
0.0
  0
HATCH
  5
ADDA
330
47A9
100
AcDbEntity
  8
OBJECT
 62
   151
100
AcDbHatch
 10
0.0
 20
0.0
 30
0.0
210
0.0
220
0.0
230
1.0
  2
ANSI31
 70
     0
 71
     1
 91
        3
 92
        7
 72
     1
 73
     1
 93
        9
 10
29.07884150483923
 20
22.77219480874295
 42
0.0
 10
26.22184150483921
 20
22.77219480874294
 42
0.0
 10
26.22184150483921
 20
22.75219480874294
 42
0.0
 10
26.17884150483922
 20
22.75219480874294
 42
0.0
 10
26.17884150483922
 20
22.70719480874294
 42
0.0
 10
29.01084150483923
 20
22.70719480874294
 42
0.0
 10
29.01084150483924
 20
22.62839730874293
 42
0.0
 10
29.14084150483923
 20
22.62839730874293
 42
0.0
 10
29.14084150483923
 20
22.71019480874293
 42
0.4142135623731791
 97
        9
330
5863
330
90D5
330
5E61
330
5866
330
90E4
330
90E5
330
5E66
330
5864
330
5E65
 92
        7
 72
     0
 73
     1
 93
       52
 10
29.14084150483924
 20
22.45123230874294
 10
29.01084150483923
 20
22.45123230874294
 10
29.01084150483922
 20
22.36075480874294
 10
26.17884150483922
 20
22.36075480874294
 10
26.17884150483922
 20
22.34775480874293
 10
26.11884150483922
 20
22.34775480874293
 10
26.11884150483922
 20
22.30875480874293
 10
29.01084150483923
 20
22.30875480874292
 10
29.01084150483923
 20
22.2571546975478
 10
28.83084150483923
 20
22.22215471520392
 10
28.83084150483923
 20
22.18131799141637
 10
28.82084150483922
 20
22.18131799141637
 10
28.82084150483922
 20
22.13532480874295
 10
29.05073150483923
 20
22.13532480874294
 10
29.05073150483923
 20
21.94732480874294
 10
28.82084150483923
 20
21.94732480874294
 10
28.82084150483923
 20
21.90631799141637
 10
28.83084150483923
 20
21.90631799141637
 10
28.83084150483923
 20
21.86548126762882
 10
29.01084150483923
 20
21.83808997709882
 10
29.01084150483923
 20
21.24701458635267
 10
28.82051050483923
 20
21.22026530874295
 10
28.82051050483923
 20
21.13128480874295
 10
29.02873150483923
 20
21.13128480874294
 10
29.02873150483923
 20
21.03428480874295
 10
28.82051050483923
 20
21.03428480874294
 10
28.82051050483923
 20
20.94530430874295
 10
29.01084150483923
 20
20.91855503113321
 10
29.01084150483923
 20
20.46201458635268
 10
28.82051050483923
 20
20.43526530874295
 10
28.82051050483923
 20
20.34628480874295
 10
29.02873150483923
 20
20.34628480874295
 10
29.02873150483923
 20
20.24928480874295
 10
28.82051050483923
 20
20.24928480874295
 10
28.82051050483923
 20
20.16030430874294
 10
29.01084150483923
 20
20.13355503113321
 10
29.01084150483924
 20
19.67701458635268
 10
28.82051050483923
 20
19.65026530874294
 10
28.82051050483923
 20
19.56128480874294
 10
29.02873150483923
 20
19.56128480874295
 10
29.02873150483923
 20
19.46428480874295
 10
28.82051050483923
 20
19.46428480874295
 10
28.82051050483923
 20
19.37530430874295
 10
29.01084150483923
 20
19.3485550311332
 10
29.01084150483923
 20
13.80581480874295
 10
26.11884150483922
 20
13.80581480874295
 10
26.11884150483922
 20
13.76681480874295
 10
26.17884150483922
 20
13.76681480874295
 10
26.17884150483922
 20
13.72175480874294
 10
26.48484150483922
 20
13.72175480874294
 10
26.48484150483922
 20
13.75097480874294
 10
29.14084150483923
 20
13.75097480874294
 97
       45
330
5E67
330
90E5
330
90E3
330
5866
330
5E63
330
5867
330
5E5C
330
90DD
330
ACCF
330
ACEF
330
ACF0
330
ACD1
330
5D8B
330
ACE7
330
ACE6
330
ACCB
330
90DE
330
95A6
330
95A8
330
5D7F
330
5D85
330
5D80
330
95A7
330
AC1E
330
95A3
330
95A5
330
AC18
330
AC19
330
AC1A
330
95A4
330
AC1F
330
95A0
330
95A2
330
AC1B
330
AC1C
330
AC1D
330
95A1
330
90D7
330
5875
330
587D
330
90D6
330
A8EE
330
5878
330
5873
330
5864
 92
        7
 72
     1
 73
     1
 93
        9
 10
29.14084150483923
 20
13.44053480874294
 42
0.0
 10
26.48484150483922
 20
13.44053480874296
 42
0.0
 10
26.48484150483923
 20
13.47175480874294
 42
0.0
 10
26.17884150483922
 20
13.47175480874295
 42
0.0
 10
26.17884150483922
 20
13.36237480874294
 42
0.0
 10
26.22184150483921
 20
13.36237480874294
 42
0.0
 10
26.22184150483921
 20
13.34237480874294
 42
0.0
 10
29.07884150483923
 20
13.34237480874294
 42
0.4142135623731203
 10
29.14084150483923
 20
13.40437480874294
 42
0.0
 97
        9
330
5874
330
5878
330
A8F0
330
90D6
330
587E
330
90D2
330
5877
330
59A0
330
5864
 75
     0
 76
     1
 52
0.0
 41
1.25
 77
     0
 78
     1
 53
45.0
 43
0.0
 44
0.0
 45
-0.110485434560398
 46
0.110485434560398
 79
     0
 47
0.0187680886766514
 98
        3
 10
28.02785471323161
 20
22.7263746007399
 10
29.04216498779041
 20
21.73166587468954
 10
27.74610170769958
 20
13.41740258438604
  0
ENDSEC
  0
SECTION
  2
OBJECTS
  0
DICTIONARY
  5
4797
330
0
100
AcDbDictionary
281
     1
  3
ACAD_GROUP
350
4798
  3
ACAD_LAYOUT
350
47A4
  3
ACAD_MLINESTYLE
350
47A1
  3
ACAD_PLOTSETTINGS
350
47A3
  3
ACAD_PLOTSTYLENAME
350
4799
  3
AcadDim
350
ABDB
  3
AcDbVariableDictionary
350
A8F5
  0
DICTIONARY
  5
4798
102
{ACAD_REACTORS
330
4797
102
}
330
4797
100
AcDbDictionary
281
     1
  0
DICTIONARY
  5
47A4
102
{ACAD_REACTORS
330
4797
102
}
330
4797
100
AcDbDictionary
281
     1
  3
Layout1
350
47A8
  3
Model
350
47AC
  0
DICTIONARY
  5
47A1
102
{ACAD_REACTORS
330
4797
102
}
330
4797
100
AcDbDictionary
281
     1
  3
Standard
350
47A2
  0
DICTIONARY
  5
47A3
102
{ACAD_REACTORS
330
4797
102
}
330
4797
100
AcDbDictionary
281
     1
  0
ACDBDICTIONARYWDFLT
  5
4799
102
{ACAD_REACTORS
330
4797
102
}
330
4797
100
AcDbDictionary
281
     1
  3
Normal
350
479A
100
AcDbDictionaryWithDefault
340
479A
  0
XRECORD
  5
ABDB
102
{ACAD_REACTORS
330
4797
102
}
330
4797
100
AcDbXrecord
280
     1
 90
   990106
  3

 60
     0
 61
     0
 62
     1
 63
     1
 64
     0
 65
     0
 66
     0
 67
     3
 68
     1
 69
     0
 70
     0
 71
     0
 72
     0
 40
0.0
170
     2
340
ABDD
  0
DICTIONARY
  5
A8F5
102
{ACAD_REACTORS
330
4797
102
}
330
4797
100
AcDbDictionary
281
     1
  3
SORTENTS
350
A8F6
  0
LAYOUT
  5
47A8
102
{ACAD_REACTORS
330
47A4
102
}
330
47A4
100
AcDbPlotSettings
  1

  2
C:\Program Files\ACAD2000\plotters\RICOH Aficio 1060 RPCS.pc3
  4

  6

 40
0.0
 41
0.0
 42
0.0
 43
0.0
 44
0.0
 45
0.0
 46
0.0
 47
0.0
 48
0.0
 49
0.0
140
0.0
141
0.0
142
1.0
143
1.0
 70
   688
 72
     0
 73
     0
 74
     5
  7
monochrome.ctb
 75
    16
147
1.0
148
0.0
149
0.0
100
AcDbLayout
  1
Layout1
 70
     1
 71
     1
 10
0.0
 20
0.0
 11
12.0
 21
9.0
 12
0.0
 22
0.0
 32
0.0
 14
1.000000000000000E+20
 24
1.000000000000000E+20
 34
1.000000000000000E+20
 15
-1.000000000000000E+20
 25
-1.000000000000000E+20
 35
-1.000000000000000E+20
146
0.0
 13
0.0
 23
0.0
 33
0.0
 16
1.0
 26
0.0
 36
0.0
 17
0.0
 27
1.0
 37
0.0
 76
     0
330
47A5
  0
LAYOUT
  5
47AC
102
{ACAD_REACTORS
330
47A4
102
}
330
47A4
100
AcDbPlotSettings
  1

  2
Acrobat PDFWriter
  4
Tabloid
  6

 40
3.174999952316284
 41
3.174999952316284
 42
3.17498779296875
 43
3.17498779296875
 44
431.8000183105469
 45
279.3999938964843
 46
0.0
 47
4.064
 48
0.0
 49
0.0
140
0.0
141
0.0
142
1.0
143
3.964662710689156
 70
 11956
 72
     0
 73
     0
 74
     1
  7
monochrome.ctb
 75
     0
147
0.2522282658002388
148
0.1029092140891464
149
0.0640268893437224
100
AcDbLayout
  1
Model
 70
     1
 71
     0
 10
0.0
 20
0.0
 11
12.0
 21
9.0
 12
0.0
 22
0.0
 32
0.0
 14
0.0
 24
0.0
 34
0.0
 15
0.0
 25
0.0
 35
0.0
146
0.0
 13
0.0
 23
0.0
 33
0.0
 16
1.0
 26
0.0
 36
0.0
 17
0.0
 27
1.0
 37
0.0
 76
     0
330
47A9
  0
MLINESTYLE
  5
47A2
102
{ACAD_REACTORS
330
47A1
102
}
330
47A1
100
AcDbMlineStyle
  2
STANDARD
 70
     0
  3

 62
   256
 51
90.0
 52
90.0
 71
     2
 49
0.5
 62
   256
  6
BYLAYER
 49
-0.5
 62
   256
  6
BYLAYER
  0
ACDBPLACEHOLDER
  5
479A
102
{ACAD_REACTORS
330
4799
102
}
330
4799
  0
DICTIONARYVAR
  5
A8F6
102
{ACAD_REACTORS
330
A8F5
102
}
330
A8F5
100
DictionaryVariables
280
     0
  1
96
  0
ENDSEC
  0
EOF
