  0
SECTION
  2
HEADER
  9
$ACADVER
  1
AC1015
  9
$ACADMAINTVER
 70
     6
  9
$DWGCODEPAGE
  3
ANSI_1252
  9
$INSBASE
 10
0.0
 20
0.0
 30
0.0
  9
$EXTMIN
 10
0.0
 20
0.0
 30
0.0
  9
$EXTMAX
 10
22.0
 20
17.0
 30
0.0
  9
$LIMMIN
 10
0.0
 20
0.0
  9
$LIMMAX
 10
22.0
 20
17.0
  9
$ORTHOMODE
 70
     0
  9
$REGENMODE
 70
     1
  9
$FILLMODE
 70
     1
  9
$QTEXTMODE
 70
     0
  9
$MIRRTEXT
 70
     1
  9
$LTSCALE
 40
1.0
  9
$ATTMODE
 70
     1
  9
$TEXTSIZE
 40
0.1666666667
  9
$TRACEWID
 40
0.05
  9
$TEXTSTYLE
  7
Standard
  9
$CLAYER
  8
0
  9
$CELTYPE
  6
ByLayer
  9
$CECOLOR
 62
   256
  9
$CELTSCALE
 40
1.0
  9
$DISPSILH
 70
     0
  9
$DIMSCALE
 40
1.0
  9
$DIMASZ
 40
0.1875
  9
$DIMEXO
 40
0.09
  9
$DIMDLI
 40
0.38
  9
$DIMRND
 40
0.0
  9
$DIMDLE
 40
0.0
  9
$DIMEXE
 40
0.09
  9
$DIMTP
 40
0.0
  9
$DIMTM
 40
0.0
  9
$DIMTXT
 40
0.1666666667
  9
$DIMCEN
 40
0.09
  9
$DIMTSZ
 40
0.0
  9
$DIMTOL
 70
     0
  9
$DIMLIM
 70
     0
  9
$DIMTIH
 70
     1
  9
$DIMTOH
 70
     1
  9
$DIMSE1
 70
     0
  9
$DIMSE2
 70
     0
  9
$DIMTAD
 70
     0
  9
$DIMZIN
 70
     1
  9
$DIMBLK
  1

  9
$DIMASO
 70
     1
  9
$DIMSHO
 70
     1
  9
$DIMPOST
  1

  9
$DIMAPOST
  1

  9
$DIMALT
 70
     0
  9
$DIMALTD
 70
     2
  9
$DIMALTF
 40
25.4
  9
$DIMLFAC
 40
1.0
  9
$DIMTOFL
 70
     0
  9
$DIMTVP
 40
0.0
  9
$DIMTIX
 70
     0
  9
$DIMSOXD
 70
     0
  9
$DIMSAH
 70
     0
  9
$DIMBLK1
  1

  9
$DIMBLK2
  1

  9
$DIMSTYLE
  2
Standard
  9
$DIMCLRD
 70
     0
  9
$DIMCLRE
 70
     0
  9
$DIMCLRT
 70
     0
  9
$DIMTFAC
 40
1.0
  9
$DIMGAP
 40
0.06
  9
$DIMJUST
 70
     0
  9
$DIMSD1
 70
     0
  9
$DIMSD2
 70
     0
  9
$DIMTOLJ
 70
     1
  9
$DIMTZIN
 70
     1
  9
$DIMALTZ
 70
     0
  9
$DIMALTTZ
 70
     0
  9
$DIMUPT
 70
     0
  9
$DIMDEC
 70
     4
  9
$DIMTDEC
 70
     4
  9
$DIMALTU
 70
     2
  9
$DIMALTTD
 70
     2
  9
$DIMTXSTY
  7
Standard
  9
$DIMAUNIT
 70
     0
  9
$DIMADEC
 70
     0
  9
$DIMALTRND
 40
0.0
  9
$DIMAZIN
 70
     0
  9
$DIMDSEP
 70
    46
  9
$DIMATFIT
 70
     3
  9
$DIMFRAC
 70
     0
  9
$DIMLDRBLK
  1

  9
$DIMLUNIT
 70
     2
  9
$DIMLWD
 70
    -2
  9
$DIMLWE
 70
    -2
  9
$DIMTMOVE
 70
     0
  9
$LUNITS
 70
     2
  9
$LUPREC
 70
     2
  9
$SKETCHINC
 40
0.1
  9
$FILLETRAD
 40
0.5
  9
$AUNITS
 70
     0
  9
$AUPREC
 70
     0
  9
$MENU
  1
.
  9
$ELEVATION
 40
0.0
  9
$PELEVATION
 40
0.0
  9
$THICKNESS
 40
0.0
  9
$LIMCHECK
 70
     0
  9
$CHAMFERA
 40
0.5
  9
$CHAMFERB
 40
0.5
  9
$CHAMFERC
 40
1.0
  9
$CHAMFERD
 40
0.0
  9
$SKPOLY
 70
     0
  9
$TDCREATE
 40
2454721.412730208
  9
$TDUCREATE
 40
2454721.579396875
  9
$TDUPDATE
 40
2454721.41273022
  9
$TDUUPDATE
 40
2454721.579396887
  9
$TDINDWG
 40
0.0000000116
  9
$TDUSRTIMER
 40
0.0000000116
  9
$USRTIMER
 70
     1
  9
$ANGBASE
 50
0.0
  9
$ANGDIR
 70
     0
  9
$PDMODE
 70
     0
  9
$PDSIZE
 40
-1.0
  9
$PLINEWID
 40
0.0
  9
$SPLFRAME
 70
     0
  9
$SPLINETYPE
 70
     6
  9
$SPLINESEGS
 70
     8
  9
$HANDSEED
  5
585
  9
$SURFTAB1
 70
     6
  9
$SURFTAB2
 70
     6
  9
$SURFTYPE
 70
     6
  9
$SURFU
 70
     6
  9
$SURFV
 70
     6
  9
$UCSBASE
  2

  9
$UCSNAME
  2

  9
$UCSORG
 10
0.0
 20
0.0
 30
0.0
  9
$UCSXDIR
 10
1.0
 20
0.0
 30
0.0
  9
$UCSYDIR
 10
0.0
 20
1.0
 30
0.0
  9
$UCSORTHOREF
  2

  9
$UCSORTHOVIEW
 70
     0
  9
$UCSORGTOP
 10
0.0
 20
0.0
 30
0.0
  9
$UCSORGBOTTOM
 10
0.0
 20
0.0
 30
0.0
  9
$UCSORGLEFT
 10
0.0
 20
0.0
 30
0.0
  9
$UCSORGRIGHT
 10
0.0
 20
0.0
 30
0.0
  9
$UCSORGFRONT
 10
0.0
 20
0.0
 30
0.0
  9
$UCSORGBACK
 10
0.0
 20
0.0
 30
0.0
  9
$PUCSBASE
  2

  9
$PUCSNAME
  2

  9
$PUCSORG
 10
0.0
 20
0.0
 30
0.0
  9
$PUCSXDIR
 10
1.0
 20
0.0
 30
0.0
  9
$PUCSYDIR
 10
0.0
 20
1.0
 30
0.0
  9
$PUCSORTHOREF
  2

  9
$PUCSORTHOVIEW
 70
     0
  9
$PUCSORGTOP
 10
0.0
 20
0.0
 30
0.0
  9
$PUCSORGBOTTOM
 10
0.0
 20
0.0
 30
0.0
  9
$PUCSORGLEFT
 10
0.0
 20
0.0
 30
0.0
  9
$PUCSORGRIGHT
 10
0.0
 20
0.0
 30
0.0
  9
$PUCSORGFRONT
 10
0.0
 20
0.0
 30
0.0
  9
$PUCSORGBACK
 10
0.0
 20
0.0
 30
0.0
  9
$USERI1
 70
     0
  9
$USERI2
 70
     0
  9
$USERI3
 70
     0
  9
$USERI4
 70
     0
  9
$USERI5
 70
     0
  9
$USERR1
 40
0.0
  9
$USERR2
 40
0.0
  9
$USERR3
 40
0.0
  9
$USERR4
 40
0.0
  9
$USERR5
 40
0.0
  9
$WORLDVIEW
 70
     1
  9
$SHADEDGE
 70
     3
  9
$SHADEDIF
 70
    70
  9
$TILEMODE
 70
     1
  9
$MAXACTVP
 70
    64
  9
$PINSBASE
 10
0.0
 20
0.0
 30
0.0
  9
$PLIMCHECK
 70
     0
  9
$PEXTMIN
 10
1.0000000000E+20
 20
1.0000000000E+20
 30
1.0000000000E+20
  9
$PEXTMAX
 10
-1.0000000000E+20
 20
-1.0000000000E+20
 30
-1.0000000000E+20
  9
$PLIMMIN
 10
0.0
 20
0.0
  9
$PLIMMAX
 10
12.0
 20
9.0
  9
$UNITMODE
 70
     0
  9
$VISRETAIN
 70
     1
  9
$PLINEGEN
 70
     0
  9
$PSLTSCALE
 70
     1
  9
$TREEDEPTH
 70
  3020
  9
$CMLSTYLE
  2
Standard
  9
$CMLJUST
 70
     0
  9
$CMLSCALE
 40
1.0
  9
$PROXYGRAPHICS
 70
     1
  9
$MEASUREMENT
 70
     0
  9
$CELWEIGHT
370
    -1
  9
$ENDCAPS
280
     0
  9
$JOINSTYLE
280
     0
  9
$LWDISPLAY
290
     1
  9
$INSUNITS
 70
     1
  9
$HYPERLINKBASE
  1

  9
$STYLESHEET
  1

  9
$XEDIT
290
     1
  9
$CEPSNTYPE
380
     0
  9
$PSTYLEMODE
290
     1
  9
$FINGERPRINTGUID
  2
{B016F90D-1536-44D1-911E-2767669C082A}
  9
$VERSIONGUID
  2
{FAEB1C32-E019-11D5-929B-00C0DF256EC4}
  9
$EXTNAMES
290
     1
  9
$PSVPSCALE
 40
0.0
  9
$OLESTARTUP
290
     0
  0
ENDSEC
  0
SECTION
  2
CLASSES
  0
CLASS
  1
ACDBDICTIONARYWDFLT
  2
AcDbDictionaryWithDefault
  3
ObjectDBX Classes
 90
        0
280
     0
281
     0
  0
CLASS
  1
VISUALSTYLE
  2
AcDbVisualStyle
  3
ObjectDBX Classes
 90
     4095
280
     0
281
     0
  0
CLASS
  1
SCALE
  2
AcDbScale
  3
ObjectDBX Classes
 90
     1153
280
     0
281
     0
  0
CLASS
  1
DICTIONARYVAR
  2
AcDbDictionaryVar
  3
ObjectDBX Classes
 90
        0
280
     0
281
     0
  0
CLASS
  1
ACDBPLACEHOLDER
  2
AcDbPlaceHolder
  3
ObjectDBX Classes
 90
        0
280
     0
281
     0
  0
CLASS
  1
LAYOUT
  2
AcDbLayout
  3
ObjectDBX Classes
 90
        0
280
     0
281
     0
  0
ENDSEC
  0
SECTION
  2
TABLES
  0
TABLE
  2
VPORT
  5
8
330
0
100
AcDbSymbolTable
 70
     1
  0
VPORT
  5
29
330
8
100
AcDbSymbolTableRecord
100
AcDbViewportTableRecord
  2
*Active
 70
     0
 10
0.0
 20
0.0
 11
1.0
 21
1.0
 12
11.0
 22
8.5
 13
0.0
 23
0.0
 14
0.5
 24
0.5
 15
0.5
 25
0.5
 16
0.0
 26
0.0
 36
1.0
 17
0.0
 27
0.0
 37
0.0
 40
17.0
 41
1.2941176471
 42
50.0
 43
0.0
 44
0.0
 50
0.0
 51
0.0
 71
     0
 72
  2000
 73
     1
 74
     3
 75
     0
 76
     0
 77
     0
 78
     0
281
     0
 65
     1
110
0.0
120
0.0
130
0.0
111
1.0
121
0.0
131
0.0
112
0.0
122
1.0
132
0.0
 79
     0
146
0.0
  0
ENDTAB
  0
TABLE
  2
LTYPE
  5
5
330
0
100
AcDbSymbolTable
 70
     6
  0
LTYPE
  5
14
330
5
100
AcDbSymbolTableRecord
100
AcDbLinetypeTableRecord
  2
ByBlock
 70
     0
  3

 72
    65
 73
     0
 40
0.0
  0
LTYPE
  5
15
330
5
100
AcDbSymbolTableRecord
100
AcDbLinetypeTableRecord
  2
ByLayer
 70
     0
  3

 72
    65
 73
     0
 40
0.0
  0
LTYPE
  5
16
330
5
100
AcDbSymbolTableRecord
100
AcDbLinetypeTableRecord
  2
Continuous
 70
     0
  3
Solid line
 72
    65
 73
     0
 40
0.0
  0
LTYPE
  5
5D
330
5
100
AcDbSymbolTableRecord
100
AcDbLinetypeTableRecord
  2
HIDDEN
 70
     0
  3
Hidden __ __ __ __ __ __ __ __ __ __ __ __ __ __
 72
    65
 73
     2
 40
0.075
 49
0.05
 74
     0
 49
-0.025
 74
     0
  0
LTYPE
  5
5E
330
5
100
AcDbSymbolTableRecord
100
AcDbLinetypeTableRecord
  2
PHANTOM
 70
     0
  3
Phantom ______  __  __  ______  __  __  ______
 72
    65
 73
     6
 40
0.5
 49
0.25
 74
     0
 49
-0.05
 74
     0
 49
0.05
 74
     0
 49
-0.05
 74
     0
 49
0.05
 74
     0
 49
-0.05
 74
     0
  0
LTYPE
  5
5F
330
5
100
AcDbSymbolTableRecord
100
AcDbLinetypeTableRecord
  2
CENTER
 70
     0
  3
Center ____ _ ____ _ ____ _ ____ _ ____ _ ____
 72
    65
 73
     4
 40
0.4
 49
0.25
 74
     0
 49
-0.05
 74
     0
 49
0.05
 74
     0
 49
-0.05
 74
     0
  0
LTYPE
  5
60
330
5
100
AcDbSymbolTableRecord
100
AcDbLinetypeTableRecord
  2
CENTERX2
 70
     0
  3
Center (2x) ________  __  ________  __  _____
 72
    65
 73
     4
 40
0.8
 49
0.5
 74
     0
 49
-0.1
 74
     0
 49
0.1
 74
     0
 49
-0.1
 74
     0
  0
LTYPE
  5
61
330
5
100
AcDbSymbolTableRecord
100
AcDbLinetypeTableRecord
  2
DOT2
 70
     0
  3
Dot (.5x) ........................................
 72
    65
 73
     2
 40
0.025
 49
0.0
 74
     0
 49
-0.025
 74
     0
  0
ENDTAB
  0
TABLE
  2
LAYER
  5
2
330
0
100
AcDbSymbolTable
 70
     1
  0
LAYER
  5
10
330
2
100
AcDbSymbolTableRecord
100
AcDbLayerTableRecord
  2
0
 70
     0
 62
     7
  6
Continuous
370
    -3
390
F
  0
ENDTAB
  0
TABLE
  2
STYLE
  5
3
330
0
100
AcDbSymbolTable
 70
     2
  0
STYLE
  5
11
330
3
100
AcDbSymbolTableRecord
100
AcDbTextStyleTableRecord
  2
Standard
 70
     0
 40
0.0
 41
1.0
 50
0.0
 71
     0
 42
0.2
  3
txt
  4

  0
STYLE
  5
65
330
3
100
AcDbSymbolTableRecord
100
AcDbTextStyleTableRecord
  2
SLDTEXTSTYLE0
 70
     0
 40
0.0
 41
0.75
 50
0.0
 71
     0
 42
0.2
  3
TXT
  4

  0
ENDTAB
  0
TABLE
  2
VIEW
  5
6
330
0
100
AcDbSymbolTable
 70
     0
  0
ENDTAB
  0
TABLE
  2
UCS
  5
7
330
0
100
AcDbSymbolTable
 70
     0
  0
ENDTAB
  0
TABLE
  2
APPID
  5
9
330
0
100
AcDbSymbolTable
 70
     1
  0
APPID
  5
12
330
9
100
AcDbSymbolTableRecord
100
AcDbRegAppTableRecord
  2
ACAD
 70
     0
  0
ENDTAB
  0
TABLE
  2
DIMSTYLE
  5
A
330
0
100
AcDbSymbolTable
 70
     7
100
AcDbDimStyleTable
  0
DIMSTYLE
105
27
330
A
100
AcDbSymbolTableRecord
100
AcDbDimStyleTableRecord
  2
Standard
 70
     0
340
11
  0
DIMSTYLE
105
133
102
{ACAD_REACTORS
330
132
330
13E
330
1BF
330
1F7
330
202
330
219
330
2CF
330
2DA
330
2E5
330
3A4
330
3AF
330
3BA
330
3C5
330
42F
330
43A
330
445
330
450
330
546
330
575
102
}
330
A
100
AcDbSymbolTableRecord
100
AcDbDimStyleTableRecord
  2
SLDDIMSTYLE0
 70
     0
 41
0.1875
 44
0.0
 45
0.000000001
 78
    12
140
0.125
147
0.03125
173
     1
271
     2
272
     3
284
    12
340
65
  0
DIMSTYLE
105
14F
330
A
100
AcDbSymbolTableRecord
100
AcDbDimStyleTableRecord
  2
SLDDIMSTYLE1
 70
     0
 41
0.0625
 44
0.0
 45
0.000000001
140
0.0625
147
0.015625
173
     1
271
     0
272
     0
340
11
341
150
343
150
344
150
  0
DIMSTYLE
105
20E
102
{ACAD_REACTORS
330
20D
330
2F0
102
}
330
A
100
AcDbSymbolTableRecord
100
AcDbDimStyleTableRecord
  2
SLDDIMSTYLE2
 70
     0
 41
0.1875
 44
0.0
 45
0.000000001
 78
     4
140
0.125
147
0.03125
173
     1
271
     2
272
     3
284
    12
340
65
  0
DIMSTYLE
105
225
102
{ACAD_REACTORS
330
224
330
2FB
330
306
330
4CB
330
551
330
55D
330
569
102
}
330
A
100
AcDbSymbolTableRecord
100
AcDbDimStyleTableRecord
  2
SLDDIMSTYLE3
 70
     0
 41
0.1875
 44
0.0
 45
0.000000001
 78
    12
140
0.125
147
0.03125
173
     1
271
     2
272
     3
284
    12
340
65
  0
DIMSTYLE
105
3D1
102
{ACAD_REACTORS
330
3D0
330
45B
330
465
102
}
330
A
100
AcDbSymbolTableRecord
100
AcDbDimStyleTableRecord
  2
SLDDIMSTYLE4
 70
     0
 41
0.1875
 44
0.0
 45
0.000000001
 78
    12
140
0.125
147
0.03125
172
     1
173
     1
271
     2
272
     3
284
    12
340
65
  0
DIMSTYLE
105
477
330
A
100
AcDbSymbolTableRecord
100
AcDbDimStyleTableRecord
  2
SLDDIMSTYLE5
 70
     0
 41
0.1875
 44
0.0
 45
0.000000001
140
0.1875
147
0.046875
173
     1
271
     0
272
     0
340
11
  0
ENDTAB
  0
TABLE
  2
BLOCK_RECORD
  5
1
330
0
100
AcDbSymbolTable
 70
    43
  0
BLOCK_RECORD
  5
1F
330
1
100
AcDbSymbolTableRecord
100
AcDbBlockTableRecord
  2
*Model_Space
340
22
  0
BLOCK_RECORD
  5
1B
330
1
100
AcDbSymbolTableRecord
100
AcDbBlockTableRecord
  2
*Paper_Space
340
1E
  0
BLOCK_RECORD
  5
23
330
1
100
AcDbSymbolTableRecord
100
AcDbBlockTableRecord
  2
*Paper_Space0
340
26
  0
BLOCK_RECORD
  5
62
330
1
100
AcDbSymbolTableRecord
100
AcDbBlockTableRecord
  2
SW_NOTE_0
340
0
102
{BLKREFS
331
68
102
}
  0
BLOCK_RECORD
  5
134
330
1
100
AcDbSymbolTableRecord
100
AcDbBlockTableRecord
  2
*D2
340
0
  0
BLOCK_RECORD
  5
13F
330
1
100
AcDbSymbolTableRecord
100
AcDbBlockTableRecord
  2
*D3
340
0
  0
BLOCK_RECORD
  5
149
330
1
100
AcDbSymbolTableRecord
100
AcDbBlockTableRecord
  2
SW_NOTE_1
340
0
102
{BLKREFS
331
14E
102
}
  0
BLOCK_RECORD
  5
150
330
1
100
AcDbSymbolTableRecord
100
AcDbBlockTableRecord
  2
_DOT
340
0
  0
BLOCK_RECORD
  5
1C0
330
1
100
AcDbSymbolTableRecord
100
AcDbBlockTableRecord
  2
*D6
340
0
  0
BLOCK_RECORD
  5
1F8
330
1
100
AcDbSymbolTableRecord
100
AcDbBlockTableRecord
  2
*D7
340
0
  0
BLOCK_RECORD
  5
203
330
1
100
AcDbSymbolTableRecord
100
AcDbBlockTableRecord
  2
*D8
340
0
  0
BLOCK_RECORD
  5
20F
330
1
100
AcDbSymbolTableRecord
100
AcDbBlockTableRecord
  2
*D9
340
0
  0
BLOCK_RECORD
  5
21A
330
1
100
AcDbSymbolTableRecord
100
AcDbBlockTableRecord
  2
*D10
340
0
  0
BLOCK_RECORD
  5
226
330
1
100
AcDbSymbolTableRecord
100
AcDbBlockTableRecord
  2
*D11
340
0
  0
BLOCK_RECORD
  5
2D0
330
1
100
AcDbSymbolTableRecord
100
AcDbBlockTableRecord
  2
*D12
340
0
  0
BLOCK_RECORD
  5
2DB
330
1
100
AcDbSymbolTableRecord
100
AcDbBlockTableRecord
  2
*D13
340
0
  0
BLOCK_RECORD
  5
2E6
330
1
100
AcDbSymbolTableRecord
100
AcDbBlockTableRecord
  2
*D14
340
0
  0
BLOCK_RECORD
  5
2F1
330
1
100
AcDbSymbolTableRecord
100
AcDbBlockTableRecord
  2
*D15
340
0
  0
BLOCK_RECORD
  5
2FC
330
1
100
AcDbSymbolTableRecord
100
AcDbBlockTableRecord
  2
*D16
340
0
  0
BLOCK_RECORD
  5
307
330
1
100
AcDbSymbolTableRecord
100
AcDbBlockTableRecord
  2
*D17
340
0
  0
BLOCK_RECORD
  5
311
330
1
100
AcDbSymbolTableRecord
100
AcDbBlockTableRecord
  2
SW_NOTE_2
340
0
102
{BLKREFS
331
317
102
}
  0
BLOCK_RECORD
  5
318
330
1
100
AcDbSymbolTableRecord
100
AcDbBlockTableRecord
  2
SW_CENTERMARKSYMBOL_0
340
0
102
{BLKREFS
331
31F
102
}
  0
BLOCK_RECORD
  5
320
330
1
100
AcDbSymbolTableRecord
100
AcDbBlockTableRecord
  2
SW_CENTERMARKSYMBOL_1
340
0
102
{BLKREFS
331
327
102
}
  0
BLOCK_RECORD
  5
328
330
1
100
AcDbSymbolTableRecord
100
AcDbBlockTableRecord
  2
SW_CENTERMARKSYMBOL_2
340
0
102
{BLKREFS
331
32F
102
}
  0
BLOCK_RECORD
  5
330
330
1
100
AcDbSymbolTableRecord
100
AcDbBlockTableRecord
  2
SW_CENTERMARKSYMBOL_3
340
0
102
{BLKREFS
331
337
102
}
  0
BLOCK_RECORD
  5
338
330
1
100
AcDbSymbolTableRecord
100
AcDbBlockTableRecord
  2
SW_CENTERMARKSYMBOL_4
340
0
102
{BLKREFS
331
33F
102
}
  0
BLOCK_RECORD
  5
340
330
1
100
AcDbSymbolTableRecord
100
AcDbBlockTableRecord
  2
SW_CENTERMARKSYMBOL_5
340
0
102
{BLKREFS
331
347
102
}
  0
BLOCK_RECORD
  5
3A5
330
1
100
AcDbSymbolTableRecord
100
AcDbBlockTableRecord
  2
*D25
340
0
  0
BLOCK_RECORD
  5
3B0
330
1
100
AcDbSymbolTableRecord
100
AcDbBlockTableRecord
  2
*D26
340
0
  0
BLOCK_RECORD
  5
3BB
330
1
100
AcDbSymbolTableRecord
100
AcDbBlockTableRecord
  2
*D27
340
0
  0
BLOCK_RECORD
  5
3C6
330
1
100
AcDbSymbolTableRecord
100
AcDbBlockTableRecord
  2
*D28
340
0
  0
BLOCK_RECORD
  5
3D2
330
1
100
AcDbSymbolTableRecord
100
AcDbBlockTableRecord
  2
*D29
340
0
  0
BLOCK_RECORD
  5
430
330
1
100
AcDbSymbolTableRecord
100
AcDbBlockTableRecord
  2
*D30
340
0
  0
BLOCK_RECORD
  5
43B
330
1
100
AcDbSymbolTableRecord
100
AcDbBlockTableRecord
  2
*D31
340
0
  0
BLOCK_RECORD
  5
446
330
1
100
AcDbSymbolTableRecord
100
AcDbBlockTableRecord
  2
*D32
340
0
  0
BLOCK_RECORD
  5
451
330
1
100
AcDbSymbolTableRecord
100
AcDbBlockTableRecord
  2
*D33
340
0
  0
BLOCK_RECORD
  5
45C
330
1
100
AcDbSymbolTableRecord
100
AcDbBlockTableRecord
  2
*D34
340
0
  0
BLOCK_RECORD
  5
466
330
1
100
AcDbSymbolTableRecord
100
AcDbBlockTableRecord
  2
*D35
340
0
  0
BLOCK_RECORD
  5
46F
330
1
100
AcDbSymbolTableRecord
100
AcDbBlockTableRecord
  2
SW_NOTE_3
340
0
102
{BLKREFS
331
476
102
}
  0
BLOCK_RECORD
  5
4CC
330
1
100
AcDbSymbolTableRecord
100
AcDbBlockTableRecord
  2
*D37
340
0
  0
BLOCK_RECORD
  5
547
330
1
100
AcDbSymbolTableRecord
100
AcDbBlockTableRecord
  2
*D38
340
0
  0
BLOCK_RECORD
  5
552
330
1
100
AcDbSymbolTableRecord
100
AcDbBlockTableRecord
  2
*D39
340
0
  0
BLOCK_RECORD
  5
55E
330
1
100
AcDbSymbolTableRecord
100
AcDbBlockTableRecord
  2
*D40
340
0
  0
BLOCK_RECORD
  5
56A
330
1
100
AcDbSymbolTableRecord
100
AcDbBlockTableRecord
  2
*D41
340
0
  0
BLOCK_RECORD
  5
576
330
1
100
AcDbSymbolTableRecord
100
AcDbBlockTableRecord
  2
*D42
340
0
  0
ENDTAB
  0
ENDSEC
  0
SECTION
  2
BLOCKS
  0
BLOCK
  5
20
330
1F
100
AcDbEntity
  8
0
100
AcDbBlockBegin
  2
*Model_Space
 70
     0
 10
0.0
 20
0.0
 30
0.0
  3
*Model_Space
  1

  0
ENDBLK
  5
21
330
1F
100
AcDbEntity
  8
0
100
AcDbBlockEnd
  0
BLOCK
  5
1C
330
1B
100
AcDbEntity
 67
     1
  8
0
100
AcDbBlockBegin
  2
*Paper_Space
 70
     0
 10
0.0
 20
0.0
 30
0.0
  3
*Paper_Space
  1

  0
ENDBLK
  5
1D
330
1B
100
AcDbEntity
 67
     1
  8
0
100
AcDbBlockEnd
  0
BLOCK
  5
24
330
23
100
AcDbEntity
  8
0
100
AcDbBlockBegin
  2
*Paper_Space0
 70
     0
 10
0.0
 20
0.0
 30
0.0
  3
*Paper_Space0
  1

  0
ENDBLK
  5
25
330
23
100
AcDbEntity
  8
0
100
AcDbBlockEnd
  0
BLOCK
  5
63
330
62
100
AcDbEntity
  8
0
100
AcDbBlockBegin
  2
SW_NOTE_0
 70
     0
 10
0.0
 20
0.0
 30
0.0
  3
SW_NOTE_0
  1

  0
MTEXT
  5
66
330
62
100
AcDbEntity
  8
0
  6
Continuous
 62
     0
370
     0
100
AcDbMText
 10
0.0
 20
0.1611334675
 30
0.0
 40
0.125
 41
0.0
 71
     1
 72
     1
  1
MATERIAL: ALUMINUM ADC-12
  7
SLDTEXTSTYLE0
 73
     1
 44
1.0
  0
MTEXT
  5
67
330
62
100
AcDbEntity
  8
0
  6
Continuous
 62
     0
370
     0
100
AcDbMText
 10
0.0
 20
-0.0055331972
 30
0.0
 40
0.125
 41
0.0
 71
     1
 72
     1
  1
FINISH: SMOOTH BLACK POWDERCOAT
  7
SLDTEXTSTYLE0
 73
     1
 44
1.0
  0
ENDBLK
  5
64
330
62
100
AcDbEntity
  8
0
100
AcDbBlockEnd
  0
BLOCK
  5
135
330
134
100
AcDbEntity
  8
0
100
AcDbBlockBegin
  2
*D2
 70
     1
 10
0.0
 20
0.0
 30
0.0
  3
*D2
  1

  0
SOLID
  5
137
330
134
100
AcDbEntity
  8
0
  6
Continuous
 62
     7
370
     0
100
AcDbTrace
 10
3.4129950724
 20
9.7707724284
 30
0.0
 11
3.3817450724
 21
9.5832724284
 31
0.0
 12
3.4442450724
 22
9.5832724284
 32
0.0
 13
3.4442450724
 23
9.5832724284
 33
0.0
  0
SOLID
  5
138
330
134
100
AcDbEntity
  8
0
  6
Continuous
 62
     7
370
     0
100
AcDbTrace
 10
3.4129950724
 20
7.2207724284
 30
0.0
 11
3.4442450724
 21
7.4082724284
 31
0.0
 12
3.3817450724
 22
7.4082724284
 32
0.0
 13
3.3817450724
 23
7.4082724284
 33
0.0
  0
LINE
  5
139
330
134
100
AcDbEntity
  8
0
  6
Continuous
 62
     7
370
     0
100
AcDbLine
 10
4.6579409898
 20
9.7707724284
 30
0.0
 11
3.3229950724
 21
9.7707724284
 31
0.0
  0
LINE
  5
13A
330
134
100
AcDbEntity
  8
0
  6
Continuous
 62
     7
370
     0
100
AcDbLine
 10
4.6579409898
 20
7.2207724284
 30
0.0
 11
3.3229950724
 21
7.2207724284
 31
0.0
  0
LINE
  5
13B
330
134
100
AcDbEntity
  8
0
  6
Continuous
 62
     7
370
     0
100
AcDbLine
 10
3.4129950724
 20
9.7707724284
 30
0.0
 11
3.4129950724
 21
8.5950241456
 31
0.0
  0
LINE
  5
13C
330
134
100
AcDbEntity
  8
0
  6
Continuous
 62
     7
370
     0
100
AcDbLine
 10
3.4129950724
 20
7.2207724284
 30
0.0
 11
3.4129950724
 21
8.3965207111
 31
0.0
  0
MTEXT
  5
13D
330
134
100
AcDbEntity
  8
0
  6
Continuous
 62
     7
370
     0
100
AcDbMText
 10
3.2514954377
 20
8.5576541602
 30
0.0
 40
0.125
 41
0.0
 71
     1
 72
     1
  1
2.55
  7
SLDTEXTSTYLE0
 73
     1
 44
1.0
  0
ENDBLK
  5
136
330
134
100
AcDbEntity
  8
0
100
AcDbBlockEnd
  0
BLOCK
  5
140
330
13F
100
AcDbEntity
  8
0
100
AcDbBlockBegin
  2
*D3
 70
     1
 10
0.0
 20
0.0
 30
0.0
  3
*D3
  1

  0
SOLID
  5
142
330
13F
100
AcDbEntity
  8
0
  6
Continuous
 62
     7
370
     0
100
AcDbTrace
 10
4.7479409898
 20
11.0879075488
 30
0.0
 11
4.9354409898
 21
11.0566575488
 31
0.0
 12
4.9354409898
 22
11.1191575488
 32
0.0
 13
4.9354409898
 23
11.1191575488
 33
0.0
  0
SOLID
  5
143
330
13F
100
AcDbEntity
  8
0
  6
Continuous
 62
     7
370
     0
100
AcDbTrace
 10
6.3179409898
 20
11.0879075488
 30
0.0
 11
6.1304409898
 21
11.1191575488
 31
0.0
 12
6.1304409898
 22
11.0566575488
 32
0.0
 13
6.1304409898
 23
11.0566575488
 33
0.0
  0
LINE
  5
144
330
13F
100
AcDbEntity
  8
0
  6
Continuous
 62
     7
370
     0
100
AcDbLine
 10
4.7479409898
 20
9.8607724284
 30
0.0
 11
4.7479409898
 21
11.1779075488
 31
0.0
  0
LINE
  5
145
330
13F
100
AcDbEntity
  8
0
  6
Continuous
 62
     7
370
     0
100
AcDbLine
 10
6.3179409898
 20
9.8607724284
 30
0.0
 11
6.3179409898
 21
11.1779075488
 31
0.0
  0
LINE
  5
146
330
13F
100
AcDbEntity
  8
0
  6
Continuous
 62
     7
370
     0
100
AcDbLine
 10
4.7479409898
 20
11.0879075488
 30
0.0
 11
5.3089413551
 21
11.0879075488
 31
0.0
  0
LINE
  5
147
330
13F
100
AcDbEntity
  8
0
  6
Continuous
 62
     7
370
     0
100
AcDbLine
 10
6.3179409898
 20
11.0879075488
 30
0.0
 11
5.7569406245
 21
11.0879075488
 31
0.0
  0
MTEXT
  5
148
330
13F
100
AcDbEntity
  8
0
  6
Continuous
 62
     7
370
     0
100
AcDbMText
 10
5.3714413551
 20
11.1497892807
 30
0.0
 40
0.125
 41
0.0
 71
     1
 72
     1
  1
1.57
  7
SLDTEXTSTYLE0
 73
     1
 44
1.0
  0
ENDBLK
  5
141
330
13F
100
AcDbEntity
  8
0
100
AcDbBlockEnd
  0
BLOCK
  5
14A
330
149
100
AcDbEntity
  8
0
100
AcDbBlockBegin
  2
SW_NOTE_1
 70
     0
 10
0.0
 20
0.0
 30
0.0
  3
SW_NOTE_1
  1

  0
MTEXT
  5
14C
330
149
100
AcDbEntity
  8
0
  6
Continuous
 62
     0
370
     0
100
AcDbMText
 10
-1.0843955094
 20
0.0962873025
 30
0.0
 40
0.125
 41
0.0
 71
     1
 72
     1
  1
RECESS AREA
  7
SLDTEXTSTYLE0
 73
     1
 44
1.0
  0
MTEXT
  5
14D
330
149
100
AcDbEntity
  8
0
  6
Continuous
 62
     0
370
     0
100
AcDbMText
 10
-0.6978214751
 20
-0.0703793621
 30
0.0
 40
0.125
 41
0.0
 71
     1
 72
     1
  1
.04 DEEP
  7
SLDTEXTSTYLE0
 73
     1
 44
1.0
  0
ENDBLK
  5
14B
330
149
100
AcDbEntity
  8
0
100
AcDbBlockEnd
  0
BLOCK
  5
151
330
150
100
AcDbEntity
  8
0
100
AcDbBlockBegin
  2
_DOT
 70
     0
 10
0.0
 20
0.0
 30
0.0
  3
_DOT
  1

  0
POLYLINE
  5
153
330
150
100
AcDbEntity
  8
0
  6
ByBlock
 62
     0
100
AcDb2dPolyline
 66
     1
 10
0.0
 20
0.0
 30
0.0
 70
     1
 40
0.5
 41
0.5
  0
VERTEX
  5
156
330
153
100
AcDbEntity
  8
0
  6
ByBlock
 62
     0
100
AcDbVertex
100
AcDb2dVertex
 10
-0.25
 20
0.0
 30
0.0
 42
1.0
  0
VERTEX
  5
157
330
153
100
AcDbEntity
  8
0
  6
ByBlock
 62
     0
100
AcDbVertex
100
AcDb2dVertex
 10
0.25
 20
0.0
 30
0.0
 42
1.0
  0
SEQEND
  5
155
330
153
100
AcDbEntity
  8
0
  6
ByBlock
 62
     0
  0
LINE
  5
154
330
150
100
AcDbEntity
  8
0
  6
ByBlock
 62
     0
370
    -2
100
AcDbLine
 10
-0.5
 20
0.0
 30
0.0
 11
-1.0
 21
0.0
 31
0.0
  0
ENDBLK
  5
152
330
150
100
AcDbEntity
  8
0
100
AcDbBlockEnd
  0
BLOCK
  5
1C1
330
1C0
100
AcDbEntity
  8
0
100
AcDbBlockBegin
  2
*D6
 70
     1
 10
0.0
 20
0.0
 30
0.0
  3
*D6
  1

  0
SOLID
  5
1C3
330
1C0
100
AcDbEntity
  8
0
  6
Continuous
 62
     7
370
     0
100
AcDbTrace
 10
11.3311855952
 20
10.7632724284
 30
0.0
 11
11.2999355952
 21
10.5757724284
 31
0.0
 12
11.3624355952
 22
10.5757724284
 32
0.0
 13
11.3624355952
 23
10.5757724284
 33
0.0
  0
SOLID
  5
1C4
330
1C0
100
AcDbEntity
  8
0
  6
Continuous
 62
     7
370
     0
100
AcDbTrace
 10
11.3311855952
 20
6.2282724284
 30
0.0
 11
11.3624355952
 21
6.4157724284
 31
0.0
 12
11.2999355952
 22
6.4157724284
 32
0.0
 13
11.2999355952
 23
6.4157724284
 33
0.0
  0
LINE
  5
1C5
330
1C0
100
AcDbEntity
  8
0
  6
Continuous
 62
     7
370
     0
100
AcDbLine
 10
9.2305419754
 20
10.7632724284
 30
0.0
 11
11.4211855952
 21
10.7632724284
 31
0.0
  0
LINE
  5
1C6
330
1C0
100
AcDbEntity
  8
0
  6
Continuous
 62
     7
370
     0
100
AcDbLine
 10
9.2305419754
 20
6.2282724284
 30
0.0
 11
11.4211855952
 21
6.2282724284
 31
0.0
  0
LINE
  5
1C7
330
1C0
100
AcDbEntity
  8
0
  6
Continuous
 62
     7
370
     0
100
AcDbLine
 10
11.3311855952
 20
10.7632724284
 30
0.0
 11
11.3311855952
 21
8.5950241456
 31
0.0
  0
LINE
  5
1C8
330
1C0
100
AcDbEntity
  8
0
  6
Continuous
 62
     7
370
     0
100
AcDbLine
 10
11.3311855952
 20
6.2282724284
 30
0.0
 11
11.3311855952
 21
8.3965207111
 31
0.0
  0
MTEXT
  5
1C9
330
1C0
100
AcDbEntity
  8
0
  6
Continuous
 62
     7
370
     0
100
AcDbMText
 10
11.1696859605
 20
8.5576541602
 30
0.0
 40
0.125
 41
0.0
 71
     1
 72
     1
  1
4.54
  7
SLDTEXTSTYLE0
 73
     1
 44
1.0
  0
ENDBLK
  5
1C2
330
1C0
100
AcDbEntity
  8
0
100
AcDbBlockEnd
  0
BLOCK
  5
1F9
330
1F8
100
AcDbEntity
  8
0
100
AcDbBlockBegin
  2
*D7
 70
     1
 10
0.0
 20
0.0
 30
0.0
  3
*D7
  1

  0
SOLID
  5
1FB
330
1F8
100
AcDbEntity
  8
0
  6
Continuous
 62
     7
370
     0
100
AcDbTrace
 10
3.7629409898
 20
4.7068911637
 30
0.0
 11
3.9504409898
 21
4.6756411637
 31
0.0
 12
3.9504409898
 22
4.7381411637
 32
0.0
 13
3.9504409898
 23
4.7381411637
 33
0.0
  0
SOLID
  5
1FC
330
1F8
100
AcDbEntity
  8
0
  6
Continuous
 62
     7
370
     0
100
AcDbTrace
 10
7.3029409898
 20
4.7068911637
 30
0.0
 11
7.1154409898
 21
4.7381411637
 31
0.0
 12
7.1154409898
 22
4.6756411637
 32
0.0
 13
7.1154409898
 23
4.6756411637
 33
0.0
  0
LINE
  5
1FD
330
1F8
100
AcDbEntity
  8
0
  6
Continuous
 62
     7
370
     0
100
AcDbLine
 10
3.7629409898
 20
3.7933123217
 30
0.0
 11
3.7629409898
 21
4.7968911637
 31
0.0
  0
LINE
  5
1FE
330
1F8
100
AcDbEntity
  8
0
  6
Continuous
 62
     7
370
     0
100
AcDbLine
 10
7.3029409898
 20
3.7933123217
 30
0.0
 11
7.3029409898
 21
4.7968911637
 31
0.0
  0
LINE
  5
1FF
330
1F8
100
AcDbEntity
  8
0
  6
Continuous
 62
     7
370
     0
100
AcDbLine
 10
3.7629409898
 20
4.7068911637
 30
0.0
 11
5.3089413551
 21
4.7068911637
 31
0.0
  0
LINE
  5
200
330
1F8
100
AcDbEntity
  8
0
  6
Continuous
 62
     7
370
     0
100
AcDbLine
 10
7.3029409898
 20
4.7068911637
 30
0.0
 11
5.7569406245
 21
4.7068911637
 31
0.0
  0
MTEXT
  5
201
330
1F8
100
AcDbEntity
  8
0
  6
Continuous
 62
     7
370
     0
100
AcDbMText
 10
5.3714413551
 20
4.7687728956
 30
0.0
 40
0.125
 41
0.0
 71
     1
 72
     1
  1
3.54
  7
SLDTEXTSTYLE0
 73
     1
 44
1.0
  0
ENDBLK
  5
1FA
330
1F8
100
AcDbEntity
  8
0
100
AcDbBlockEnd
  0
BLOCK
  5
204
330
203
100
AcDbEntity
  8
0
100
AcDbBlockBegin
  2
*D8
 70
     1
 10
0.0
 20
0.0
 30
0.0
  3
*D8
  1

  0
SOLID
  5
206
330
203
100
AcDbEntity
  8
0
  6
Continuous
 62
     7
370
     0
100
AcDbTrace
 10
7.6404409898
 20
5.0934285326
 30
0.0
 11
7.4529409898
 21
5.1246785326
 31
0.0
 12
7.4529409898
 22
5.0621785326
 32
0.0
 13
7.4529409898
 23
5.0621785326
 33
0.0
  0
SOLID
  5
207
330
203
100
AcDbEntity
  8
0
  6
Continuous
 62
     7
370
     0
100
AcDbTrace
 10
3.7629409898
 20
5.0934285326
 30
0.0
 11
3.9504409898
 21
5.0621785326
 31
0.0
 12
3.9504409898
 22
5.1246785326
 32
0.0
 13
3.9504409898
 23
5.1246785326
 33
0.0
  0
LINE
  5
208
330
203
100
AcDbEntity
  8
0
  6
Continuous
 62
     7
370
     0
100
AcDbLine
 10
7.6404409898
 20
3.7933123217
 30
0.0
 11
7.6404409898
 21
5.1834285326
 31
0.0
  0
LINE
  5
209
330
203
100
AcDbEntity
  8
0
  6
Continuous
 62
     7
370
     0
100
AcDbLine
 10
3.7629409898
 20
3.7933123217
 30
0.0
 11
3.7629409898
 21
5.1834285326
 31
0.0
  0
LINE
  5
20A
330
203
100
AcDbEntity
  8
0
  6
Continuous
 62
     7
370
     0
100
AcDbLine
 10
7.6404409898
 20
5.0934285326
 30
0.0
 11
5.9256906245
 21
5.0934285326
 31
0.0
  0
LINE
  5
20B
330
203
100
AcDbEntity
  8
0
  6
Continuous
 62
     7
370
     0
100
AcDbLine
 10
3.7629409898
 20
5.0934285326
 30
0.0
 11
5.4776913551
 21
5.0934285326
 31
0.0
  0
MTEXT
  5
20C
330
203
100
AcDbEntity
  8
0
  6
Continuous
 62
     7
370
     0
100
AcDbMText
 10
5.5401913551
 20
5.1553102645
 30
0.0
 40
0.125
 41
0.0
 71
     1
 72
     1
  1
3.88
  7
SLDTEXTSTYLE0
 73
     1
 44
1.0
  0
ENDBLK
  5
205
330
203
100
AcDbEntity
  8
0
100
AcDbBlockEnd
  0
BLOCK
  5
210
330
20F
100
AcDbEntity
  8
0
100
AcDbBlockBegin
  2
*D9
 70
     1
 10
0.0
 20
0.0
 30
0.0
  3
*D9
  1

  0
SOLID
  5
212
330
20F
100
AcDbEntity
  8
0
  6
Continuous
 62
     7
370
     0
100
AcDbTrace
 10
3.3455158576
 20
2.1063123217
 30
0.0
 11
3.3767658576
 21
2.2938123217
 31
0.0
 12
3.3142658576
 22
2.2938123217
 32
0.0
 13
3.3142658576
 23
2.2938123217
 33
0.0
  0
SOLID
  5
213
330
20F
100
AcDbEntity
  8
0
  6
Continuous
 62
     7
370
     0
100
AcDbTrace
 10
3.3455158576
 20
3.7033123217
 30
0.0
 11
3.3142658576
 21
3.5158123217
 31
0.0
 12
3.3767658576
 22
3.5158123217
 32
0.0
 13
3.3767658576
 23
3.5158123217
 33
0.0
  0
LINE
  5
214
330
20F
100
AcDbEntity
  8
0
  6
Continuous
 62
     7
370
     0
100
AcDbLine
 10
3.7922075739
 20
2.1063123217
 30
0.0
 11
3.2555158576
 21
2.1063123217
 31
0.0
  0
LINE
  5
215
330
20F
100
AcDbEntity
  8
0
  6
Continuous
 62
     7
370
     0
100
AcDbLine
 10
3.6729409898
 20
3.7033123217
 30
0.0
 11
3.2555158576
 21
3.7033123217
 31
0.0
  0
LINE
  5
216
330
20F
100
AcDbEntity
  8
0
  6
Continuous
 62
     7
370
     0
100
AcDbLine
 10
3.3455158576
 20
2.1063123217
 30
0.0
 11
3.3455158576
 21
2.8055606045
 31
0.0
  0
LINE
  5
217
330
20F
100
AcDbEntity
  8
0
  6
Continuous
 62
     7
370
     0
100
AcDbLine
 10
3.3455158576
 20
3.7033123217
 30
0.0
 11
3.3455158576
 21
3.004064039
 31
0.0
  0
MTEXT
  5
218
330
20F
100
AcDbEntity
  8
0
  6
Continuous
 62
     7
370
     0
100
AcDbMText
 10
3.1840162229
 20
2.9666940536
 30
0.0
 40
0.125
 41
0.0
 71
     1
 72
     1
  1
1.60
  7
SLDTEXTSTYLE0
 73
     1
 44
1.0
  0
ENDBLK
  5
211
330
20F
100
AcDbEntity
  8
0
100
AcDbBlockEnd
  0
BLOCK
  5
21B
330
21A
100
AcDbEntity
  8
0
100
AcDbBlockBegin
  2
*D10
 70
     1
 10
0.0
 20
0.0
 30
0.0
  3
*D10
  1

  0
SOLID
  5
21D
330
21A
100
AcDbEntity
  8
0
  6
Continuous
 62
     7
370
     0
100
AcDbTrace
 10
2.7402242219
 20
4.2983123217
 30
0.0
 11
2.7089742219
 21
4.1108123217
 31
0.0
 12
2.7714742219
 22
4.1108123217
 32
0.0
 13
2.7714742219
 23
4.1108123217
 33
0.0
  0
SOLID
  5
21E
330
21A
100
AcDbEntity
  8
0
  6
Continuous
 62
     7
370
     0
100
AcDbTrace
 10
2.7402242219
 20
2.1063123217
 30
0.0
 11
2.7714742219
 21
2.2938123217
 31
0.0
 12
2.7089742219
 22
2.2938123217
 32
0.0
 13
2.7089742219
 23
2.2938123217
 33
0.0
  0
LINE
  5
21F
330
21A
100
AcDbEntity
  8
0
  6
Continuous
 62
     7
370
     0
100
AcDbLine
 10
3.9459369801
 20
4.2983123217
 30
0.0
 11
2.6502242219
 21
4.2983123217
 31
0.0
  0
LINE
  5
220
330
21A
100
AcDbEntity
  8
0
  6
Continuous
 62
     7
370
     0
100
AcDbLine
 10
3.9704409898
 20
2.1063123217
 30
0.0
 11
2.6502242219
 21
2.1063123217
 31
0.0
  0
LINE
  5
221
330
21A
100
AcDbEntity
  8
0
  6
Continuous
 62
     7
370
     0
100
AcDbLine
 10
2.7402242219
 20
4.2983123217
 30
0.0
 11
2.7402242219
 21
3.301564039
 31
0.0
  0
LINE
  5
222
330
21A
100
AcDbEntity
  8
0
  6
Continuous
 62
     7
370
     0
100
AcDbLine
 10
2.7402242219
 20
2.1063123217
 30
0.0
 11
2.7402242219
 21
3.1030606045
 31
0.0
  0
MTEXT
  5
223
330
21A
100
AcDbEntity
  8
0
  6
Continuous
 62
     7
370
     0
100
AcDbMText
 10
2.5787245872
 20
3.2641940536
 30
0.0
 40
0.125
 41
0.0
 71
     1
 72
     1
  1
2.19
  7
SLDTEXTSTYLE0
 73
     1
 44
1.0
  0
ENDBLK
  5
21C
330
21A
100
AcDbEntity
  8
0
100
AcDbBlockEnd
  0
BLOCK
  5
227
330
226
100
AcDbEntity
  8
0
100
AcDbBlockBegin
  2
*D11
 70
     1
 10
0.0
 20
0.0
 30
0.0
  3
*D11
  1

  0
SOLID
  5
229
330
226
100
AcDbEntity
  8
0
  6
Continuous
 62
     7
370
     0
100
AcDbTrace
 10
7.8413117167
 20
2.1063123217
 30
0.0
 11
7.8725617167
 21
2.2938123217
 31
0.0
 12
7.8100617167
 22
2.2938123217
 32
0.0
 13
7.8100617167
 23
2.2938123217
 33
0.0
  0
SOLID
  5
22A
330
226
100
AcDbEntity
  8
0
  6
Continuous
 62
     7
370
     0
100
AcDbTrace
 10
7.8413117167
 20
2.0383123217
 30
0.0
 11
7.8100617167
 21
1.8508123217
 31
0.0
 12
7.8725617167
 22
1.8508123217
 32
0.0
 13
7.8725617167
 23
1.8508123217
 33
0.0
  0
LINE
  5
22B
330
226
100
AcDbEntity
  8
0
  6
Continuous
 62
     7
370
     0
100
AcDbLine
 10
7.2736744056
 20
2.1063123217
 30
0.0
 11
7.9313117167
 21
2.1063123217
 31
0.0
  0
LINE
  5
22C
330
226
100
AcDbEntity
  8
0
  6
Continuous
 62
     7
370
     0
100
AcDbLine
 10
6.8907637535
 20
2.0383123217
 30
0.0
 11
7.9313117167
 21
2.0383123217
 31
0.0
  0
LINE
  5
22D
330
226
100
AcDbEntity
  8
0
  6
Continuous
 62
     7
370
     0
100
AcDbLine
 10
8.0293117167
 20
1.5970346934
 30
0.0
 11
7.8413117167
 21
1.5970346934
 31
0.0
  0
LINE
  5
22E
330
226
100
AcDbEntity
  8
0
  6
Continuous
 62
     7
370
     0
100
AcDbLine
 10
7.8413117167
 20
1.5970346934
 30
0.0
 11
7.8413117167
 21
2.0383123217
 31
0.0
  0
LINE
  5
22F
330
226
100
AcDbEntity
  8
0
  6
Continuous
 62
     7
370
     0
100
AcDbLine
 10
7.8413117167
 20
2.1063123217
 30
0.0
 11
7.8413117167
 21
2.4813123217
 31
0.0
  0
MTEXT
  5
230
330
226
100
AcDbEntity
  8
0
  6
Continuous
 62
     7
370
     0
100
AcDbMText
 10
8.0918117167
 20
1.6589164253
 30
0.0
 40
0.125
 41
0.0
 71
     1
 72
     1
  1
.07
  7
SLDTEXTSTYLE0
 73
     1
 44
1.0
  0
ENDBLK
  5
228
330
226
100
AcDbEntity
  8
0
100
AcDbBlockEnd
  0
BLOCK
  5
2D1
330
2D0
100
AcDbEntity
  8
0
100
AcDbBlockBegin
  2
*D12
 70
     1
 10
0.0
 20
0.0
 30
0.0
  3
*D12
  1

  0
SOLID
  5
2D3
330
2D0
100
AcDbEntity
  8
0
  6
Continuous
 62
     7
370
     0
100
AcDbTrace
 10
23.9934168693
 20
12.0083634017
 30
0.0
 11
23.8059168693
 21
12.0396134017
 31
0.0
 12
23.8059168693
 22
11.9771134017
 32
0.0
 13
23.8059168693
 23
11.9771134017
 33
0.0
  0
SOLID
  5
2D4
330
2D0
100
AcDbEntity
  8
0
  6
Continuous
 62
     7
370
     0
100
AcDbTrace
 10
19.8818485806
 20
12.0083634017
 30
0.0
 11
20.0693485806
 21
11.9771134017
 31
0.0
 12
20.0693485806
 22
12.0396134017
 32
0.0
 13
20.0693485806
 23
12.0396134017
 33
0.0
  0
LINE
  5
2D5
330
2D0
100
AcDbEntity
  8
0
  6
Continuous
 62
     7
370
     0
100
AcDbLine
 10
23.9934168693
 20
11.1315565727
 30
0.0
 11
23.9934168693
 21
12.0983634017
 31
0.0
  0
LINE
  5
2D6
330
2D0
100
AcDbEntity
  8
0
  6
Continuous
 62
     7
370
     0
100
AcDbLine
 10
19.8818485806
 20
11.1315565727
 30
0.0
 11
19.8818485806
 21
12.0983634017
 31
0.0
  0
LINE
  5
2D7
330
2D0
100
AcDbEntity
  8
0
  6
Continuous
 62
     7
370
     0
100
AcDbLine
 10
23.9934168693
 20
12.0083634017
 30
0.0
 11
22.1616323596
 21
12.0083634017
 31
0.0
  0
LINE
  5
2D8
330
2D0
100
AcDbEntity
  8
0
  6
Continuous
 62
     7
370
     0
100
AcDbLine
 10
19.8818485806
 20
12.0083634017
 30
0.0
 11
21.7136330902
 21
12.0083634017
 31
0.0
  0
MTEXT
  5
2D9
330
2D0
100
AcDbEntity
  8
0
  6
Continuous
 62
     7
370
     0
100
AcDbMText
 10
21.7761330902
 20
12.0702451335
 30
0.0
 40
0.125
 41
0.0
 71
     1
 72
     1
  1
4.11
  7
SLDTEXTSTYLE0
 73
     1
 44
1.0
  0
ENDBLK
  5
2D2
330
2D0
100
AcDbEntity
  8
0
100
AcDbBlockEnd
  0
BLOCK
  5
2DC
330
2DB
100
AcDbEntity
  8
0
100
AcDbBlockBegin
  2
*D13
 70
     1
 10
0.0
 20
0.0
 30
0.0
  3
*D13
  1

  0
SOLID
  5
2DE
330
2DB
100
AcDbEntity
  8
0
  6
Continuous
 62
     7
370
     0
100
AcDbTrace
 10
19.676787614
 20
12.4861044475
 30
0.0
 11
19.864287614
 21
12.4548544475
 31
0.0
 12
19.864287614
 22
12.5173544475
 32
0.0
 13
19.864287614
 23
12.5173544475
 33
0.0
  0
SOLID
  5
2DF
330
2DB
100
AcDbEntity
  8
0
  6
Continuous
 62
     7
370
     0
100
AcDbTrace
 10
24.1984778358
 20
12.4861044475
 30
0.0
 11
24.0109778358
 21
12.5173544475
 31
0.0
 12
24.0109778358
 22
12.4548544475
 32
0.0
 13
24.0109778358
 23
12.4548544475
 33
0.0
  0
LINE
  5
2E0
330
2DB
100
AcDbEntity
  8
0
  6
Continuous
 62
     7
370
     0
100
AcDbLine
 10
19.676787614
 20
11.3366175393
 30
0.0
 11
19.676787614
 21
12.5761044475
 31
0.0
  0
LINE
  5
2E1
330
2DB
100
AcDbEntity
  8
0
  6
Continuous
 62
     7
370
     0
100
AcDbLine
 10
24.1984778358
 20
11.3366175393
 30
0.0
 11
24.1984778358
 21
12.5761044475
 31
0.0
  0
LINE
  5
2E2
330
2DB
100
AcDbEntity
  8
0
  6
Continuous
 62
     7
370
     0
100
AcDbLine
 10
19.676787614
 20
12.4861044475
 30
0.0
 11
21.7136330902
 21
12.4861044475
 31
0.0
  0
LINE
  5
2E3
330
2DB
100
AcDbEntity
  8
0
  6
Continuous
 62
     7
370
     0
100
AcDbLine
 10
24.1984778358
 20
12.4861044475
 30
0.0
 11
22.1616323596
 21
12.4861044475
 31
0.0
  0
MTEXT
  5
2E4
330
2DB
100
AcDbEntity
  8
0
  6
Continuous
 62
     7
370
     0
100
AcDbMText
 10
21.7761330902
 20
12.5479861794
 30
0.0
 40
0.125
 41
0.0
 71
     1
 72
     1
  1
4.52
  7
SLDTEXTSTYLE0
 73
     1
 44
1.0
  0
ENDBLK
  5
2DD
330
2DB
100
AcDbEntity
  8
0
100
AcDbBlockEnd
  0
BLOCK
  5
2E7
330
2E6
100
AcDbEntity
  8
0
100
AcDbBlockBegin
  2
*D14
 70
     1
 10
0.0
 20
0.0
 30
0.0
  3
*D14
  1

  0
SOLID
  5
2E9
330
2E6
100
AcDbEntity
  8
0
  6
Continuous
 62
     7
370
     0
100
AcDbTrace
 10
25.050030264
 20
5.949988284
 30
0.0
 11
25.081280264
 21
6.137488284
 31
0.0
 12
25.018780264
 22
6.137488284
 32
0.0
 13
25.018780264
 23
6.137488284
 33
0.0
  0
SOLID
  5
2EA
330
2E6
100
AcDbEntity
  8
0
  6
Continuous
 62
     7
370
     0
100
AcDbTrace
 10
25.050030264
 20
11.0415565727
 30
0.0
 11
25.018780264
 21
10.8540565727
 31
0.0
 12
25.081280264
 22
10.8540565727
 32
0.0
 13
25.081280264
 23
10.8540565727
 33
0.0
  0
LINE
  5
2EB
330
2E6
100
AcDbEntity
  8
0
  6
Continuous
 62
     7
370
     0
100
AcDbLine
 10
24.0834168693
 20
5.949988284
 30
0.0
 11
25.140030264
 21
5.949988284
 31
0.0
  0
LINE
  5
2EC
330
2E6
100
AcDbEntity
  8
0
  6
Continuous
 62
     7
370
     0
100
AcDbLine
 10
24.0834168693
 20
11.0415565727
 30
0.0
 11
25.140030264
 21
11.0415565727
 31
0.0
  0
LINE
  5
2ED
330
2E6
100
AcDbEntity
  8
0
  6
Continuous
 62
     7
370
     0
100
AcDbLine
 10
25.050030264
 20
5.949988284
 30
0.0
 11
25.050030264
 21
8.3965207111
 31
0.0
  0
LINE
  5
2EE
330
2E6
100
AcDbEntity
  8
0
  6
Continuous
 62
     7
370
     0
100
AcDbLine
 10
25.050030264
 20
11.0415565727
 30
0.0
 11
25.050030264
 21
8.5950241456
 31
0.0
  0
MTEXT
  5
2EF
330
2E6
100
AcDbEntity
  8
0
  6
Continuous
 62
     7
370
     0
100
AcDbMText
 10
24.8885306293
 20
8.5576541602
 30
0.0
 40
0.125
 41
0.0
 71
     1
 72
     1
  1
5.09
  7
SLDTEXTSTYLE0
 73
     1
 44
1.0
  0
ENDBLK
  5
2E8
330
2E6
100
AcDbEntity
  8
0
100
AcDbBlockEnd
  0
BLOCK
  5
2F2
330
2F1
100
AcDbEntity
  8
0
100
AcDbBlockBegin
  2
*D15
 70
     1
 10
0.0
 20
0.0
 30
0.0
  3
*D15
  1

  0
SOLID
  5
2F4
330
2F1
100
AcDbEntity
  8
0
  6
Continuous
 62
     7
370
     0
100
AcDbTrace
 10
25.5224712089
 20
11.2466175393
 30
0.0
 11
25.4912212089
 21
11.0591175393
 31
0.0
 12
25.5537212089
 22
11.0591175393
 32
0.0
 13
25.5537212089
 23
11.0591175393
 33
0.0
  0
SOLID
  5
2F5
330
2F1
100
AcDbEntity
  8
0
  6
Continuous
 62
     7
370
     0
100
AcDbTrace
 10
25.5224712089
 20
5.7449273175
 30
0.0
 11
25.5537212089
 21
5.9324273175
 31
0.0
 12
25.4912212089
 22
5.9324273175
 32
0.0
 13
25.4912212089
 23
5.9324273175
 33
0.0
  0
LINE
  5
2F6
330
2F1
100
AcDbEntity
  8
0
  6
Continuous
 62
     7
370
     0
100
AcDbLine
 10
24.2884778358
 20
11.2466175393
 30
0.0
 11
25.6124712089
 21
11.2466175393
 31
0.0
  0
LINE
  5
2F7
330
2F1
100
AcDbEntity
  8
0
  6
Continuous
 62
     7
370
     0
100
AcDbLine
 10
24.2884778358
 20
5.7449273175
 30
0.0
 11
25.6124712089
 21
5.7449273175
 31
0.0
  0
LINE
  5
2F8
330
2F1
100
AcDbEntity
  8
0
  6
Continuous
 62
     7
370
     0
100
AcDbLine
 10
25.5224712089
 20
11.2466175393
 30
0.0
 11
25.5224712089
 21
8.5950241456
 31
0.0
  0
LINE
  5
2F9
330
2F1
100
AcDbEntity
  8
0
  6
Continuous
 62
     7
370
     0
100
AcDbLine
 10
25.5224712089
 20
5.7449273175
 30
0.0
 11
25.5224712089
 21
8.3965207111
 31
0.0
  0
MTEXT
  5
2FA
330
2F1
100
AcDbEntity
  8
0
  6
Continuous
 62
     7
370
     0
100
AcDbMText
 10
25.3609715742
 20
8.5576541602
 30
0.0
 40
0.125
 41
0.0
 71
     1
 72
     1
  1
5.50
  7
SLDTEXTSTYLE0
 73
     1
 44
1.0
  0
ENDBLK
  5
2F3
330
2F1
100
AcDbEntity
  8
0
100
AcDbBlockEnd
  0
BLOCK
  5
2FD
330
2FC
100
AcDbEntity
  8
0
100
AcDbBlockBegin
  2
*D16
 70
     1
 10
0.0
 20
0.0
 30
0.0
  3
*D16
  1

  0
SOLID
  5
2FF
330
2FC
100
AcDbEntity
  8
0
  6
Continuous
 62
     7
370
     0
100
AcDbTrace
 10
19.0379174
 20
12.00923144
 30
0.0
 11
19.1925970084
 21
12.1197168745
 31
0.0
 12
19.1484028346
 22
12.1639110483
 32
0.0
 13
19.1484028346
 23
12.1639110483
 33
0.0
  0
SOLID
  5
300
330
2FC
100
AcDbEntity
  8
0
  6
Continuous
 62
     7
370
     0
100
AcDbTrace
 10
18.9141737133
 20
11.8854877532
 30
0.0
 11
18.7594941049
 21
11.7750023187
 31
0.0
 12
18.8036882788
 22
11.7308081449
 32
0.0
 13
18.8036882788
 23
11.7308081449
 33
0.0
  0
LINE
  5
301
330
2FC
100
AcDbEntity
  8
0
  6
Continuous
 62
     7
370
     0
100
AcDbLine
 10
19.6750198471
 20
11.3721289929
 30
0.0
 11
18.9742777897
 21
12.0728710503
 31
0.0
  0
LINE
  5
302
330
2FC
100
AcDbEntity
  8
0
  6
Continuous
 62
     7
370
     0
100
AcDbLine
 10
19.5512761604
 20
11.2483853062
 30
0.0
 11
18.850534103
 21
11.9491273636
 31
0.0
  0
LINE
  5
303
330
2FC
100
AcDbEntity
  8
0
  6
Continuous
 62
     7
370
     0
100
AcDbLine
 10
19.0379174
 20
12.00923144
 30
0.0
 11
19.303082443
 21
12.2743964829
 31
0.0
  0
LINE
  5
304
330
2FC
100
AcDbEntity
  8
0
  6
Continuous
 62
     7
370
     0
100
AcDbLine
 10
18.9141737133
 20
11.8854877532
 30
0.0
 11
18.5337668716
 21
11.5050809116
 31
0.0
  0
MTEXT
  5
305
330
2FC
100
AcDbEntity
  8
0
  6
Continuous
 62
     7
370
     0
100
AcDbMText
 10
18.3192702694
 20
11.4677109262
 30
0.0
 40
0.125
 41
0.0
 71
     1
 72
     1
  1
.18
  7
SLDTEXTSTYLE0
 73
     1
 44
1.0
  0
ENDBLK
  5
2FE
330
2FC
100
AcDbEntity
  8
0
100
AcDbBlockEnd
  0
BLOCK
  5
308
330
307
100
AcDbEntity
  8
0
100
AcDbBlockBegin
  2
*D17
 70
     1
 10
0.0
 20
0.0
 30
0.0
  3
*D17
  1

  0
SOLID
  5
30A
330
307
100
AcDbEntity
  8
0
  6
Continuous
 62
     7
370
     0
100
AcDbTrace
 10
19.2819081974
 20
10.3178725029
 30
0.0
 11
19.392393632
 21
10.1631928945
 31
0.0
 12
19.4365878058
 22
10.2073870683
 32
0.0
 13
19.4365878058
 23
10.2073870683
 33
0.0
  0
SOLID
  5
30B
330
307
100
AcDbEntity
  8
0
  6
Continuous
 62
     7
370
     0
100
AcDbTrace
 10
18.9531035442
 20
10.6466771561
 30
0.0
 11
18.8426181096
 21
10.8013567645
 31
0.0
 12
18.7984239358
 22
10.7571625907
 32
0.0
 13
18.7984239358
 23
10.7571625907
 33
0.0
  0
LINE
  5
30C
330
307
100
AcDbEntity
  8
0
  6
Continuous
 62
     7
370
     0
100
AcDbLine
 10
19.8800808136
 20
10.916045119
 30
0.0
 11
19.2182685871
 21
10.2542328926
 31
0.0
  0
LINE
  5
30D
330
307
100
AcDbEntity
  8
0
  6
Continuous
 62
     7
370
     0
100
AcDbLine
 10
19.5512761604
 20
11.2448497723
 30
0.0
 11
18.8894639339
 21
10.5830375458
 31
0.0
  0
LINE
  5
30E
330
307
100
AcDbEntity
  8
0
  6
Continuous
 62
     7
370
     0
100
AcDbLine
 10
19.2819081974
 20
10.3178725029
 30
0.0
 11
19.5470732404
 21
10.0527074599
 31
0.0
  0
LINE
  5
30F
330
307
100
AcDbEntity
  8
0
  6
Continuous
 62
     7
370
     0
100
AcDbLine
 10
18.9531035442
 20
10.6466771561
 30
0.0
 11
18.6879385012
 21
10.9118421991
 31
0.0
  0
MTEXT
  5
310
330
307
100
AcDbEntity
  8
0
  6
Continuous
 62
     7
370
     0
100
AcDbMText
 10
19.0022609858
 20
10.5441565614
 30
0.0
 40
0.125
 41
0.0
 71
     1
 72
     1
  1
.47
  7
SLDTEXTSTYLE0
 73
     1
 44
1.0
  0
ENDBLK
  5
309
330
307
100
AcDbEntity
  8
0
100
AcDbBlockEnd
  0
BLOCK
  5
312
330
311
100
AcDbEntity
  8
0
100
AcDbBlockBegin
  2
SW_NOTE_2
 70
     0
 10
0.0
 20
0.0
 30
0.0
  3
SW_NOTE_2
  1

  0
MTEXT
  5
314
330
311
100
AcDbEntity
  8
0
  6
Continuous
 62
     0
370
     0
100
AcDbMText
 10
0.0
 20
0.1611334675
 30
0.0
 40
0.125
 41
0.0
 71
     1
 72
     1
  1
REFERENCE SHOWN WITH MOUNTING BRACKETS
  7
SLDTEXTSTYLE0
 73
     1
 44
1.0
  0
MTEXT
  5
315
330
311
100
AcDbEntity
  8
0
  6
Continuous
 62
     0
370
     0
100
AcDbMText
 10
0.2560185225
 20
-0.0055331972
 30
0.0
 40
0.125
 41
0.0
 71
     1
 72
     1
  1
ASSEMBLED (SHIPPED UNASSEMBLED AND
  7
SLDTEXTSTYLE0
 73
     1
 44
1.0
  0
MTEXT
  5
316
330
311
100
AcDbEntity
  8
0
  6
Continuous
 62
     0
370
     0
100
AcDbMText
 10
-0.0549769249
 20
-0.1721998618
 30
0.0
 40
0.125
 41
0.0
 71
     1
 72
     1
  1
SUPPLIED WITH M4x.7 x .33" LG. PAN HD. SCREWS)
  7
SLDTEXTSTYLE0
 73
     1
 44
1.0
  0
ENDBLK
  5
313
330
311
100
AcDbEntity
  8
0
100
AcDbBlockEnd
  0
BLOCK
  5
319
330
318
100
AcDbEntity
  8
0
100
AcDbBlockBegin
  2
SW_CENTERMARKSYMBOL_0
 70
     0
 10
0.0
 20
0.0
 30
0.0
  3
SW_CENTERMARKSYMBOL_0
  1

  0
LINE
  5
31B
330
318
100
AcDbEntity
  8
0
  6
Continuous
 62
     0
370
     0
100
AcDbLine
 10
0.0
 20
0.0
 30
0.0
 11
0.0
 21
0.05
 31
0.0
  0
LINE
  5
31C
330
318
100
AcDbEntity
  8
0
  6
Continuous
 62
     0
370
     0
100
AcDbLine
 10
0.0
 20
0.0
 30
0.0
 11
-0.05
 21
0.0
 31
0.0
  0
LINE
  5
31D
330
318
100
AcDbEntity
  8
0
  6
Continuous
 62
     0
370
     0
100
AcDbLine
 10
0.0
 20
0.0
 30
0.0
 11
0.0
 21
-0.05
 31
0.0
  0
LINE
  5
31E
330
318
100
AcDbEntity
  8
0
  6
Continuous
 62
     0
370
     0
100
AcDbLine
 10
0.0
 20
0.0
 30
0.0
 11
0.05
 21
0.0
 31
0.0
  0
ENDBLK
  5
31A
330
318
100
AcDbEntity
  8
0
100
AcDbBlockEnd
  0
BLOCK
  5
321
330
320
100
AcDbEntity
  8
0
100
AcDbBlockBegin
  2
SW_CENTERMARKSYMBOL_1
 70
     0
 10
0.0
 20
0.0
 30
0.0
  3
SW_CENTERMARKSYMBOL_1
  1

  0
LINE
  5
323
330
320
100
AcDbEntity
  8
0
  6
Continuous
 62
     0
370
     0
100
AcDbLine
 10
0.0
 20
0.0
 30
0.0
 11
0.0
 21
0.05
 31
0.0
  0
LINE
  5
324
330
320
100
AcDbEntity
  8
0
  6
Continuous
 62
     0
370
     0
100
AcDbLine
 10
0.0
 20
0.0
 30
0.0
 11
-0.05
 21
0.0
 31
0.0
  0
LINE
  5
325
330
320
100
AcDbEntity
  8
0
  6
Continuous
 62
     0
370
     0
100
AcDbLine
 10
0.0
 20
0.0
 30
0.0
 11
0.0
 21
-0.05
 31
0.0
  0
LINE
  5
326
330
320
100
AcDbEntity
  8
0
  6
Continuous
 62
     0
370
     0
100
AcDbLine
 10
0.0
 20
0.0
 30
0.0
 11
0.05
 21
0.0
 31
0.0
  0
ENDBLK
  5
322
330
320
100
AcDbEntity
  8
0
100
AcDbBlockEnd
  0
BLOCK
  5
329
330
328
100
AcDbEntity
  8
0
100
AcDbBlockBegin
  2
SW_CENTERMARKSYMBOL_2
 70
     0
 10
0.0
 20
0.0
 30
0.0
  3
SW_CENTERMARKSYMBOL_2
  1

  0
LINE
  5
32B
330
328
100
AcDbEntity
  8
0
  6
Continuous
 62
     0
370
     0
100
AcDbLine
 10
0.0
 20
0.0
 30
0.0
 11
0.0
 21
0.05
 31
0.0
  0
LINE
  5
32C
330
328
100
AcDbEntity
  8
0
  6
Continuous
 62
     0
370
     0
100
AcDbLine
 10
0.0
 20
0.0
 30
0.0
 11
-0.05
 21
0.0
 31
0.0
  0
LINE
  5
32D
330
328
100
AcDbEntity
  8
0
  6
Continuous
 62
     0
370
     0
100
AcDbLine
 10
0.0
 20
0.0
 30
0.0
 11
0.0
 21
-0.05
 31
0.0
  0
LINE
  5
32E
330
328
100
AcDbEntity
  8
0
  6
Continuous
 62
     0
370
     0
100
AcDbLine
 10
0.0
 20
0.0
 30
0.0
 11
0.05
 21
0.0
 31
0.0
  0
ENDBLK
  5
32A
330
328
100
AcDbEntity
  8
0
100
AcDbBlockEnd
  0
BLOCK
  5
331
330
330
100
AcDbEntity
  8
0
100
AcDbBlockBegin
  2
SW_CENTERMARKSYMBOL_3
 70
     0
 10
0.0
 20
0.0
 30
0.0
  3
SW_CENTERMARKSYMBOL_3
  1

  0
LINE
  5
333
330
330
100
AcDbEntity
  8
0
  6
Continuous
 62
     0
370
     0
100
AcDbLine
 10
0.0
 20
0.0
 30
0.0
 11
0.0
 21
0.05
 31
0.0
  0
LINE
  5
334
330
330
100
AcDbEntity
  8
0
  6
Continuous
 62
     0
370
     0
100
AcDbLine
 10
0.0
 20
0.0
 30
0.0
 11
-0.05
 21
0.0
 31
0.0
  0
LINE
  5
335
330
330
100
AcDbEntity
  8
0
  6
Continuous
 62
     0
370
     0
100
AcDbLine
 10
0.0
 20
0.0
 30
0.0
 11
0.0
 21
-0.05
 31
0.0
  0
LINE
  5
336
330
330
100
AcDbEntity
  8
0
  6
Continuous
 62
     0
370
     0
100
AcDbLine
 10
0.0
 20
0.0
 30
0.0
 11
0.05
 21
0.0
 31
0.0
  0
ENDBLK
  5
332
330
330
100
AcDbEntity
  8
0
100
AcDbBlockEnd
  0
BLOCK
  5
339
330
338
100
AcDbEntity
  8
0
100
AcDbBlockBegin
  2
SW_CENTERMARKSYMBOL_4
 70
     0
 10
0.0
 20
0.0
 30
0.0
  3
SW_CENTERMARKSYMBOL_4
  1

  0
LINE
  5
33B
330
338
100
AcDbEntity
  8
0
  6
Continuous
 62
     0
370
     0
100
AcDbLine
 10
0.0
 20
0.0
 30
0.0
 11
0.0
 21
0.05
 31
0.0
  0
LINE
  5
33C
330
338
100
AcDbEntity
  8
0
  6
Continuous
 62
     0
370
     0
100
AcDbLine
 10
0.0
 20
0.0
 30
0.0
 11
-0.05
 21
0.0
 31
0.0
  0
LINE
  5
33D
330
338
100
AcDbEntity
  8
0
  6
Continuous
 62
     0
370
     0
100
AcDbLine
 10
0.0
 20
0.0
 30
0.0
 11
0.0
 21
-0.05
 31
0.0
  0
LINE
  5
33E
330
338
100
AcDbEntity
  8
0
  6
Continuous
 62
     0
370
     0
100
AcDbLine
 10
0.0
 20
0.0
 30
0.0
 11
0.05
 21
0.0
 31
0.0
  0
ENDBLK
  5
33A
330
338
100
AcDbEntity
  8
0
100
AcDbBlockEnd
  0
BLOCK
  5
341
330
340
100
AcDbEntity
  8
0
100
AcDbBlockBegin
  2
SW_CENTERMARKSYMBOL_5
 70
     0
 10
0.0
 20
0.0
 30
0.0
  3
SW_CENTERMARKSYMBOL_5
  1

  0
LINE
  5
343
330
340
100
AcDbEntity
  8
0
  6
Continuous
 62
     0
370
     0
100
AcDbLine
 10
0.0
 20
0.0
 30
0.0
 11
0.0
 21
0.05
 31
0.0
  0
LINE
  5
344
330
340
100
AcDbEntity
  8
0
  6
Continuous
 62
     0
370
     0
100
AcDbLine
 10
0.0
 20
0.0
 30
0.0
 11
-0.05
 21
0.0
 31
0.0
  0
LINE
  5
345
330
340
100
AcDbEntity
  8
0
  6
Continuous
 62
     0
370
     0
100
AcDbLine
 10
0.0
 20
0.0
 30
0.0
 11
0.0
 21
-0.05
 31
0.0
  0
LINE
  5
346
330
340
100
AcDbEntity
  8
0
  6
Continuous
 62
     0
370
     0
100
AcDbLine
 10
0.0
 20
0.0
 30
0.0
 11
0.05
 21
0.0
 31
0.0
  0
ENDBLK
  5
342
330
340
100
AcDbEntity
  8
0
100
AcDbBlockEnd
  0
BLOCK
  5
3A6
330
3A5
100
AcDbEntity
  8
0
100
AcDbBlockBegin
  2
*D25
 70
     1
 10
0.0
 20
0.0
 30
0.0
  3
*D25
  1

  0
SOLID
  5
3A8
330
3A5
100
AcDbEntity
  8
0
  6
Continuous
 62
     7
370
     0
100
AcDbTrace
 10
2.6874949011
 20
10.0157724284
 30
0.0
 11
2.6562449011
 21
9.8282724284
 31
0.0
 12
2.7187449011
 22
9.8282724284
 32
0.0
 13
2.7187449011
 23
9.8282724284
 33
0.0
  0
SOLID
  5
3A9
330
3A5
100
AcDbEntity
  8
0
  6
Continuous
 62
     7
370
     0
100
AcDbTrace
 10
2.6874949011
 20
6.9757724284
 30
0.0
 11
2.7187449011
 21
7.1632724284
 31
0.0
 12
2.6562449011
 22
7.1632724284
 32
0.0
 13
2.6562449011
 23
7.1632724284
 33
0.0
  0
LINE
  5
3AA
330
3A5
100
AcDbEntity
  8
0
  6
Continuous
 62
     7
370
     0
100
AcDbLine
 10
1.6492100906
 20
10.0157724284
 30
0.0
 11
2.7774949011
 21
10.0157724284
 31
0.0
  0
LINE
  5
3AB
330
3A5
100
AcDbEntity
  8
0
  6
Continuous
 62
     7
370
     0
100
AcDbLine
 10
1.6492100906
 20
6.9757724284
 30
0.0
 11
2.7774949011
 21
6.9757724284
 31
0.0
  0
LINE
  5
3AC
330
3A5
100
AcDbEntity
  8
0
  6
Continuous
 62
     7
370
     0
100
AcDbLine
 10
2.6874949011
 20
10.0157724284
 30
0.0
 11
2.6874949011
 21
8.5950241456
 31
0.0
  0
LINE
  5
3AD
330
3A5
100
AcDbEntity
  8
0
  6
Continuous
 62
     7
370
     0
100
AcDbLine
 10
2.6874949011
 20
6.9757724284
 30
0.0
 11
2.6874949011
 21
8.3965207111
 31
0.0
  0
MTEXT
  5
3AE
330
3A5
100
AcDbEntity
  8
0
  6
Continuous
 62
     7
370
     0
100
AcDbMText
 10
2.5259952664
 20
8.5576541602
 30
0.0
 40
0.125
 41
0.0
 71
     1
 72
     1
  1
3.04
  7
SLDTEXTSTYLE0
 73
     1
 44
1.0
  0
ENDBLK
  5
3A7
330
3A5
100
AcDbEntity
  8
0
100
AcDbBlockEnd
  0
BLOCK
  5
3B1
330
3B0
100
AcDbEntity
  8
0
100
AcDbBlockBegin
  2
*D26
 70
     1
 10
0.0
 20
0.0
 30
0.0
  3
*D26
  1

  0
SOLID
  5
3B3
330
3B0
100
AcDbEntity
  8
0
  6
Continuous
 62
     7
370
     0
100
AcDbTrace
 10
-1.1207899094
 20
5.9053287691
 30
0.0
 11
-0.9332899094
 21
5.8740787691
 31
0.0
 12
-0.9332899094
 22
5.9365787691
 32
0.0
 13
-0.9332899094
 23
5.9365787691
 33
0.0
  0
SOLID
  5
3B4
330
3B0
100
AcDbEntity
  8
0
  6
Continuous
 62
     7
370
     0
100
AcDbTrace
 10
1.5592100906
 20
5.9053287691
 30
0.0
 11
1.3717100906
 21
5.9365787691
 31
0.0
 12
1.3717100906
 22
5.8740787691
 32
0.0
 13
1.3717100906
 23
5.8740787691
 33
0.0
  0
LINE
  5
3B5
330
3B0
100
AcDbEntity
  8
0
  6
Continuous
 62
     7
370
     0
100
AcDbLine
 10
-1.1207899094
 20
6.8857724284
 30
0.0
 11
-1.1207899094
 21
5.8153287691
 31
0.0
  0
LINE
  5
3B6
330
3B0
100
AcDbEntity
  8
0
  6
Continuous
 62
     7
370
     0
100
AcDbLine
 10
1.5592100906
 20
6.8857724284
 30
0.0
 11
1.5592100906
 21
5.8153287691
 31
0.0
  0
LINE
  5
3B7
330
3B0
100
AcDbEntity
  8
0
  6
Continuous
 62
     7
370
     0
100
AcDbLine
 10
-1.1207899094
 20
5.9053287691
 30
0.0
 11
-0.0047895441
 21
5.9053287691
 31
0.0
  0
LINE
  5
3B8
330
3B0
100
AcDbEntity
  8
0
  6
Continuous
 62
     7
370
     0
100
AcDbLine
 10
1.5592100906
 20
5.9053287691
 30
0.0
 11
0.4432097253
 21
5.9053287691
 31
0.0
  0
MTEXT
  5
3B9
330
3B0
100
AcDbEntity
  8
0
  6
Continuous
 62
     7
370
     0
100
AcDbMText
 10
0.0577104559
 20
5.967210501
 30
0.0
 40
0.125
 41
0.0
 71
     1
 72
     1
  1
2.68
  7
SLDTEXTSTYLE0
 73
     1
 44
1.0
  0
ENDBLK
  5
3B2
330
3B0
100
AcDbEntity
  8
0
100
AcDbBlockEnd
  0
BLOCK
  5
3BC
330
3BB
100
AcDbEntity
  8
0
100
AcDbBlockBegin
  2
*D27
 70
     1
 10
0.0
 20
0.0
 30
0.0
  3
*D27
  1

  0
SOLID
  5
3BE
330
3BB
100
AcDbEntity
  8
0
  6
Continuous
 62
     7
370
     0
100
AcDbTrace
 10
-1.4227704114
 20
5.599289075
 30
0.0
 11
-1.2352704114
 21
5.568039075
 31
0.0
 12
-1.2352704114
 22
5.630539075
 32
0.0
 13
-1.2352704114
 23
5.630539075
 33
0.0
  0
SOLID
  5
3BF
330
3BB
100
AcDbEntity
  8
0
  6
Continuous
 62
     7
370
     0
100
AcDbTrace
 10
1.8611905926
 20
5.599289075
 30
0.0
 11
1.6736905926
 21
5.630539075
 31
0.0
 12
1.6736905926
 22
5.568039075
 32
0.0
 13
1.6736905926
 23
5.568039075
 33
0.0
  0
LINE
  5
3C0
330
3BB
100
AcDbEntity
  8
0
  6
Continuous
 62
     7
370
     0
100
AcDbLine
 10
-1.4227704114
 20
6.6842678592
 30
0.0
 11
-1.4227704114
 21
5.509289075
 31
0.0
  0
LINE
  5
3C1
330
3BB
100
AcDbEntity
  8
0
  6
Continuous
 62
     7
370
     0
100
AcDbLine
 10
1.8611905926
 20
6.6842678592
 30
0.0
 11
1.8611905926
 21
5.509289075
 31
0.0
  0
LINE
  5
3C2
330
3BB
100
AcDbEntity
  8
0
  6
Continuous
 62
     7
370
     0
100
AcDbLine
 10
-1.4227704114
 20
5.599289075
 30
0.0
 11
-0.0047895441
 21
5.599289075
 31
0.0
  0
LINE
  5
3C3
330
3BB
100
AcDbEntity
  8
0
  6
Continuous
 62
     7
370
     0
100
AcDbLine
 10
1.8611905926
 20
5.599289075
 30
0.0
 11
0.4432097253
 21
5.599289075
 31
0.0
  0
MTEXT
  5
3C4
330
3BB
100
AcDbEntity
  8
0
  6
Continuous
 62
     7
370
     0
100
AcDbMText
 10
0.0577104559
 20
5.6611708068
 30
0.0
 40
0.125
 41
0.0
 71
     1
 72
     1
  1
3.28
  7
SLDTEXTSTYLE0
 73
     1
 44
1.0
  0
ENDBLK
  5
3BD
330
3BB
100
AcDbEntity
  8
0
100
AcDbBlockEnd
  0
BLOCK
  5
3C7
330
3C6
100
AcDbEntity
  8
0
100
AcDbBlockBegin
  2
*D28
 70
     1
 10
0.0
 20
0.0
 30
0.0
  3
*D28
  1

  0
SOLID
  5
3C9
330
3C6
100
AcDbEntity
  8
0
  6
Continuous
 62
     7
370
     0
100
AcDbTrace
 10
-2.0005988665
 20
10.6352529304
 30
0.0
 11
-2.0318488665
 21
10.4477529304
 31
0.0
 12
-1.9693488665
 22
10.4477529304
 32
0.0
 13
-1.9693488665
 23
10.4477529304
 33
0.0
  0
SOLID
  5
3CA
330
3C6
100
AcDbEntity
  8
0
  6
Continuous
 62
     7
370
     0
100
AcDbTrace
 10
-2.0005988665
 20
6.3562919264
 30
0.0
 11
-1.9693488665
 21
6.5437919264
 31
0.0
 12
-2.0318488665
 22
6.5437919264
 32
0.0
 13
-2.0318488665
 23
6.5437919264
 33
0.0
  0
LINE
  5
3CB
330
3C6
100
AcDbEntity
  8
0
  6
Continuous
 62
     7
370
     0
100
AcDbLine
 10
-1.0947944785
 20
10.6352529304
 30
0.0
 11
-2.0905988665
 21
10.6352529304
 31
0.0
  0
LINE
  5
3CC
330
3C6
100
AcDbEntity
  8
0
  6
Continuous
 62
     7
370
     0
100
AcDbLine
 10
-1.0947944785
 20
6.3562919264
 30
0.0
 11
-2.0905988665
 21
6.3562919264
 31
0.0
  0
LINE
  5
3CD
330
3C6
100
AcDbEntity
  8
0
  6
Continuous
 62
     7
370
     0
100
AcDbLine
 10
-2.0005988665
 20
10.6352529304
 30
0.0
 11
-2.0005988665
 21
8.5950241456
 31
0.0
  0
LINE
  5
3CE
330
3C6
100
AcDbEntity
  8
0
  6
Continuous
 62
     7
370
     0
100
AcDbLine
 10
-2.0005988665
 20
6.3562919264
 30
0.0
 11
-2.0005988665
 21
8.3965207111
 31
0.0
  0
MTEXT
  5
3CF
330
3C6
100
AcDbEntity
  8
0
  6
Continuous
 62
     7
370
     0
100
AcDbMText
 10
-2.1620985012
 20
8.5576541602
 30
0.0
 40
0.125
 41
0.0
 71
     1
 72
     1
  1
4.28
  7
SLDTEXTSTYLE0
 73
     1
 44
1.0
  0
ENDBLK
  5
3C8
330
3C6
100
AcDbEntity
  8
0
100
AcDbBlockEnd
  0
BLOCK
  5
3D3
330
3D2
100
AcDbEntity
  8
0
100
AcDbBlockBegin
  2
*D29
 70
     1
 10
0.0
 20
0.0
 30
0.0
  3
*D29
  1

  0
SOLID
  5
3D5
330
3D2
100
AcDbEntity
  8
0
  6
Continuous
 62
     7
370
     0
100
AcDbTrace
 10
1.5482387035
 20
10.1713861446
 30
0.0
 11
1.5662245596
 21
10.360619655
 31
0.0
 12
1.5038793208
 22
10.3562240672
 32
0.0
 13
1.5038793208
 23
10.3562240672
 33
0.0
  0
LINE
  5
3D6
330
3D2
100
AcDbEntity
  8
0
  6
Continuous
 62
     7
370
     0
100
AcDbLine
 10
1.5482387035
 20
10.1713861446
 30
0.0
 11
1.4164444189
 21
12.0407029617
 31
0.0
  0
LINE
  5
3D7
330
3D2
100
AcDbEntity
  8
0
  6
Continuous
 62
     7
370
     0
100
AcDbLine
 10
1.4164444189
 20
12.0407029617
 30
0.0
 11
1.6044444189
 21
12.0407029617
 31
0.0
  0
MTEXT
  5
3D8
330
3D2
100
AcDbEntity
  8
0
  6
Continuous
 62
     7
370
     0
100
AcDbMText
 10
1.6669444189
 20
12.1025847119
 30
0.0
 40
0.125
 41
0.0
 71
     1
 72
     1
  1
%%c
  7
SLDTEXTSTYLE0
 73
     1
 44
1.0
  0
MTEXT
  5
3D9
330
3D2
100
AcDbEntity
  8
0
  6
Continuous
 62
     7
370
     0
100
AcDbMText
 10
1.8554129246
 20
12.1025846936
 30
0.0
 40
0.125
 41
0.0
 71
     1
 72
     1
  1
.31
  7
SLDTEXTSTYLE0
 73
     1
 44
1.0
  0
MTEXT
  5
3DA
330
3D2
100
AcDbEntity
  8
0
  6
Continuous
 62
     7
370
     0
100
AcDbMText
 10
2.0859026946
 20
12.1025846936
 30
0.0
 40
0.125
 41
0.0
 71
     1
 72
     1
  1
 BOSS WITH
  7
SLDTEXTSTYLE0
 73
     1
 44
1.0
  0
MTEXT
  5
3DB
330
3D2
100
AcDbEntity
  8
0
  6
Continuous
 62
     7
370
     0
100
AcDbMText
 10
1.6669444189
 20
11.9040812591
 30
0.0
 40
0.125
 41
0.0
 71
     1
 72
     1
  1
M4x.7 TAPPED HOLE
  7
SLDTEXTSTYLE0
 73
     1
 44
1.0
  0
MTEXT
  5
3DC
330
3D2
100
AcDbEntity
  8
0
  6
Continuous
 62
     7
370
     0
100
AcDbMText
 10
1.6669444189
 20
11.7055778246
 30
0.0
 40
0.125
 41
0.0
 71
     1
 72
     1
  1
x .25 DEEP (4) PLACES
  7
SLDTEXTSTYLE0
 73
     1
 44
1.0
  0
ENDBLK
  5
3D4
330
3D2
100
AcDbEntity
  8
0
100
AcDbBlockEnd
  0
BLOCK
  5
431
330
430
100
AcDbEntity
  8
0
100
AcDbBlockBegin
  2
*D30
 70
     1
 10
0.0
 20
0.0
 30
0.0
  3
*D30
  1

  0
SOLID
  5
433
330
430
100
AcDbEntity
  8
0
  6
Continuous
 62
     7
370
     0
100
AcDbTrace
 10
12.4144174298
 20
10.5207724284
 30
0.0
 11
12.3831674298
 21
10.3332724284
 31
0.0
 12
12.4456674298
 22
10.3332724284
 32
0.0
 13
12.4456674298
 23
10.3332724284
 33
0.0
  0
SOLID
  5
434
330
430
100
AcDbEntity
  8
0
  6
Continuous
 62
     7
370
     0
100
AcDbTrace
 10
12.4144174298
 20
6.4707724284
 30
0.0
 11
12.4456674298
 21
6.6582724284
 31
0.0
 12
12.3831674298
 22
6.6582724284
 32
0.0
 13
12.3831674298
 23
6.6582724284
 33
0.0
  0
LINE
  5
435
330
430
100
AcDbEntity
  8
0
  6
Continuous
 62
     7
370
     0
100
AcDbLine
 10
13.7138493533
 20
10.5207724284
 30
0.0
 11
12.3244174298
 21
10.5207724284
 31
0.0
  0
LINE
  5
436
330
430
100
AcDbEntity
  8
0
  6
Continuous
 62
     7
370
     0
100
AcDbLine
 10
13.7138493533
 20
6.4707724284
 30
0.0
 11
12.3244174298
 21
6.4707724284
 31
0.0
  0
LINE
  5
437
330
430
100
AcDbEntity
  8
0
  6
Continuous
 62
     7
370
     0
100
AcDbLine
 10
12.4144174298
 20
10.5207724284
 30
0.0
 11
12.4144174298
 21
8.5950241456
 31
0.0
  0
LINE
  5
438
330
430
100
AcDbEntity
  8
0
  6
Continuous
 62
     7
370
     0
100
AcDbLine
 10
12.4144174298
 20
6.4707724284
 30
0.0
 11
12.4144174298
 21
8.3965207111
 31
0.0
  0
MTEXT
  5
439
330
430
100
AcDbEntity
  8
0
  6
Continuous
 62
     7
370
     0
100
AcDbMText
 10
12.2529177951
 20
8.5576541602
 30
0.0
 40
0.125
 41
0.0
 71
     1
 72
     1
  1
4.05
  7
SLDTEXTSTYLE0
 73
     1
 44
1.0
  0
ENDBLK
  5
432
330
430
100
AcDbEntity
  8
0
100
AcDbBlockEnd
  0
BLOCK
  5
43C
330
43B
100
AcDbEntity
  8
0
100
AcDbBlockBegin
  2
*D31
 70
     1
 10
0.0
 20
0.0
 30
0.0
  3
*D31
  1

  0
SOLID
  5
43E
330
43B
100
AcDbEntity
  8
0
  6
Continuous
 62
     7
370
     0
100
AcDbTrace
 10
13.8038493533
 20
11.2631112144
 30
0.0
 11
13.9913493533
 21
11.2318612144
 31
0.0
 12
13.9913493533
 22
11.2943612144
 32
0.0
 13
13.9913493533
 23
11.2943612144
 33
0.0
  0
SOLID
  5
43F
330
43B
100
AcDbEntity
  8
0
  6
Continuous
 62
     7
370
     0
100
AcDbTrace
 10
16.8738493533
 20
11.2631112144
 30
0.0
 11
16.6863493533
 21
11.2943612144
 31
0.0
 12
16.6863493533
 22
11.2318612144
 32
0.0
 13
16.6863493533
 23
11.2318612144
 33
0.0
  0
LINE
  5
440
330
43B
100
AcDbEntity
  8
0
  6
Continuous
 62
     7
370
     0
100
AcDbLine
 10
13.8038493533
 20
10.6107724284
 30
0.0
 11
13.8038493533
 21
11.3531112144
 31
0.0
  0
LINE
  5
441
330
43B
100
AcDbEntity
  8
0
  6
Continuous
 62
     7
370
     0
100
AcDbLine
 10
16.8738493533
 20
10.6107724284
 30
0.0
 11
16.8738493533
 21
11.3531112144
 31
0.0
  0
LINE
  5
442
330
43B
100
AcDbEntity
  8
0
  6
Continuous
 62
     7
370
     0
100
AcDbLine
 10
13.8038493533
 20
11.2631112144
 30
0.0
 11
15.1148497186
 21
11.2631112144
 31
0.0
  0
LINE
  5
443
330
43B
100
AcDbEntity
  8
0
  6
Continuous
 62
     7
370
     0
100
AcDbLine
 10
16.8738493533
 20
11.2631112144
 30
0.0
 11
15.562848988
 21
11.2631112144
 31
0.0
  0
MTEXT
  5
444
330
43B
100
AcDbEntity
  8
0
  6
Continuous
 62
     7
370
     0
100
AcDbMText
 10
15.1773497186
 20
11.3249929463
 30
0.0
 40
0.125
 41
0.0
 71
     1
 72
     1
  1
3.07
  7
SLDTEXTSTYLE0
 73
     1
 44
1.0
  0
ENDBLK
  5
43D
330
43B
100
AcDbEntity
  8
0
100
AcDbBlockEnd
  0
BLOCK
  5
447
330
446
100
AcDbEntity
  8
0
100
AcDbBlockBegin
  2
*D32
 70
     1
 10
0.0
 20
0.0
 30
0.0
  3
*D32
  1

  0
SOLID
  5
449
330
446
100
AcDbEntity
  8
0
  6
Continuous
 62
     7
370
     0
100
AcDbTrace
 10
14.1100265895
 20
5.7554287697
 30
0.0
 11
14.2975265895
 21
5.7241787697
 31
0.0
 12
14.2975265895
 22
5.7866787697
 32
0.0
 13
14.2975265895
 23
5.7866787697
 33
0.0
  0
SOLID
  5
44A
330
446
100
AcDbEntity
  8
0
  6
Continuous
 62
     7
370
     0
100
AcDbTrace
 10
16.567672117
 20
5.7554287697
 30
0.0
 11
16.380172117
 21
5.7866787697
 31
0.0
 12
16.380172117
 22
5.7241787697
 32
0.0
 13
16.380172117
 23
5.7241787697
 33
0.0
  0
LINE
  5
44B
330
446
100
AcDbEntity
  8
0
  6
Continuous
 62
     7
370
     0
100
AcDbLine
 10
14.1100265895
 20
6.6869496646
 30
0.0
 11
14.1100265895
 21
5.6654287697
 31
0.0
  0
LINE
  5
44C
330
446
100
AcDbEntity
  8
0
  6
Continuous
 62
     7
370
     0
100
AcDbLine
 10
16.567672117
 20
6.6869496646
 30
0.0
 11
16.567672117
 21
5.6654287697
 31
0.0
  0
LINE
  5
44D
330
446
100
AcDbEntity
  8
0
  6
Continuous
 62
     7
370
     0
100
AcDbLine
 10
14.1100265895
 20
5.7554287697
 30
0.0
 11
15.1148497186
 21
5.7554287697
 31
0.0
  0
LINE
  5
44E
330
446
100
AcDbEntity
  8
0
  6
Continuous
 62
     7
370
     0
100
AcDbLine
 10
16.567672117
 20
5.7554287697
 30
0.0
 11
15.562848988
 21
5.7554287697
 31
0.0
  0
MTEXT
  5
44F
330
446
100
AcDbEntity
  8
0
  6
Continuous
 62
     7
370
     0
100
AcDbMText
 10
15.1773497186
 20
5.8173105016
 30
0.0
 40
0.125
 41
0.0
 71
     1
 72
     1
  1
2.46
  7
SLDTEXTSTYLE0
 73
     1
 44
1.0
  0
ENDBLK
  5
448
330
446
100
AcDbEntity
  8
0
100
AcDbBlockEnd
  0
BLOCK
  5
452
330
451
100
AcDbEntity
  8
0
100
AcDbBlockBegin
  2
*D33
 70
     1
 10
0.0
 20
0.0
 30
0.0
  3
*D33
  1

  0
SOLID
  5
454
330
451
100
AcDbEntity
  8
0
  6
Continuous
 62
     7
370
     0
100
AcDbTrace
 10
18.0021070551
 20
10.2145951921
 30
0.0
 11
17.9708570551
 21
10.0270951921
 31
0.0
 12
18.0333570551
 22
10.0270951921
 32
0.0
 13
18.0333570551
 23
10.0270951921
 33
0.0
  0
SOLID
  5
455
330
451
100
AcDbEntity
  8
0
  6
Continuous
 62
     7
370
     0
100
AcDbTrace
 10
18.0021070551
 20
6.7769496646
 30
0.0
 11
18.0333570551
 21
6.9644496646
 31
0.0
 12
17.9708570551
 22
6.9644496646
 32
0.0
 13
17.9708570551
 23
6.9644496646
 33
0.0
  0
LINE
  5
456
330
451
100
AcDbEntity
  8
0
  6
Continuous
 62
     7
370
     0
100
AcDbLine
 10
16.657672117
 20
10.2145951921
 30
0.0
 11
18.0921070551
 21
10.2145951921
 31
0.0
  0
LINE
  5
457
330
451
100
AcDbEntity
  8
0
  6
Continuous
 62
     7
370
     0
100
AcDbLine
 10
16.657672117
 20
6.7769496646
 30
0.0
 11
18.0921070551
 21
6.7769496646
 31
0.0
  0
LINE
  5
458
330
451
100
AcDbEntity
  8
0
  6
Continuous
 62
     7
370
     0
100
AcDbLine
 10
18.0021070551
 20
10.2145951921
 30
0.0
 11
18.0021070551
 21
8.5950241456
 31
0.0
  0
LINE
  5
459
330
451
100
AcDbEntity
  8
0
  6
Continuous
 62
     7
370
     0
100
AcDbLine
 10
18.0021070551
 20
6.7769496646
 30
0.0
 11
18.0021070551
 21
8.3965207111
 31
0.0
  0
MTEXT
  5
45A
330
451
100
AcDbEntity
  8
0
  6
Continuous
 62
     7
370
     0
100
AcDbMText
 10
17.8406074204
 20
8.5576541602
 30
0.0
 40
0.125
 41
0.0
 71
     1
 72
     1
  1
3.44
  7
SLDTEXTSTYLE0
 73
     1
 44
1.0
  0
ENDBLK
  5
453
330
451
100
AcDbEntity
  8
0
100
AcDbBlockEnd
  0
BLOCK
  5
45D
330
45C
100
AcDbEntity
  8
0
100
AcDbBlockBegin
  2
*D34
 70
     1
 10
0.0
 20
0.0
 30
0.0
  3
*D34
  1

  0
SOLID
  5
45F
330
45C
100
AcDbEntity
  8
0
  6
Continuous
 62
     7
370
     0
100
AcDbTrace
 10
14.0691900074
 20
6.72133156
 30
0.0
 11
13.9330316752
 21
6.5886902351
 31
0.0
 12
13.9834103932
 22
6.5517005773
 32
0.0
 13
13.9834103932
 23
6.5517005773
 33
0.0
  0
LINE
  5
460
330
45C
100
AcDbEntity
  8
0
  6
Continuous
 62
     7
370
     0
100
AcDbLine
 10
14.0691900074
 20
6.72133156
 30
0.0
 11
13.2486680512
 21
5.6038071833
 31
0.0
  0
LINE
  5
461
330
45C
100
AcDbEntity
  8
0
  6
Continuous
 62
     7
370
     0
100
AcDbLine
 10
13.2486680512
 20
5.6038071833
 30
0.0
 11
13.0606680512
 21
5.6038071833
 31
0.0
  0
MTEXT
  5
462
330
45C
100
AcDbEntity
  8
0
  6
Continuous
 62
     7
370
     0
100
AcDbMText
 10
11.8306668084
 20
5.6656889335
 30
0.0
 40
0.125
 41
0.0
 71
     1
 72
     1
  1
%%c
  7
SLDTEXTSTYLE0
 73
     1
 44
1.0
  0
MTEXT
  5
463
330
45C
100
AcDbEntity
  8
0
  6
Continuous
 62
     7
370
     0
100
AcDbMText
 10
12.0191353142
 20
5.6656889151
 30
0.0
 40
0.125
 41
0.0
 71
     1
 72
     1
  1
.14
  7
SLDTEXTSTYLE0
 73
     1
 44
1.0
  0
MTEXT
  5
464
330
45C
100
AcDbEntity
  8
0
  6
Continuous
 62
     7
370
     0
100
AcDbMText
 10
12.2496250841
 20
5.6656889151
 30
0.0
 40
0.125
 41
0.0
 71
     1
 72
     1
  1
 O.D. (4x)
  7
SLDTEXTSTYLE0
 73
     1
 44
1.0
  0
ENDBLK
  5
45E
330
45C
100
AcDbEntity
  8
0
100
AcDbBlockEnd
  0
BLOCK
  5
467
330
466
100
AcDbEntity
  8
0
100
AcDbBlockBegin
  2
*D35
 70
     1
 10
0.0
 20
0.0
 30
0.0
  3
*D35
  1

  0
SOLID
  5
469
330
466
100
AcDbEntity
  8
0
  6
Continuous
 62
     7
370
     0
100
AcDbTrace
 10
16.5948114207
 20
6.7489414838
 30
0.0
 11
16.7028463897
 21
6.5925405311
 31
0.0
 12
16.7477312949
 22
6.636033005
 32
0.0
 13
16.7477312949
 23
6.636033005
 33
0.0
  0
LINE
  5
46A
330
466
100
AcDbEntity
  8
0
  6
Continuous
 62
     7
370
     0
100
AcDbLine
 10
16.5948114207
 20
6.7489414838
 30
0.0
 11
17.7044210629
 21
5.6038071833
 31
0.0
  0
LINE
  5
46B
330
466
100
AcDbEntity
  8
0
  6
Continuous
 62
     7
370
     0
100
AcDbLine
 10
17.7044210629
 20
5.6038071833
 30
0.0
 11
17.8924210629
 21
5.6038071833
 31
0.0
  0
MTEXT
  5
46C
330
466
100
AcDbEntity
  8
0
  6
Continuous
 62
     7
370
     0
100
AcDbMText
 10
17.9549210629
 20
5.6656889335
 30
0.0
 40
0.125
 41
0.0
 71
     1
 72
     1
  1
%%c
  7
SLDTEXTSTYLE0
 73
     1
 44
1.0
  0
MTEXT
  5
46D
330
466
100
AcDbEntity
  8
0
  6
Continuous
 62
     7
370
     0
100
AcDbMText
 10
18.1433895687
 20
5.6656889151
 30
0.0
 40
0.125
 41
0.0
 71
     1
 72
     1
  1
.08
  7
SLDTEXTSTYLE0
 73
     1
 44
1.0
  0
MTEXT
  5
46E
330
466
100
AcDbEntity
  8
0
  6
Continuous
 62
     7
370
     0
100
AcDbMText
 10
18.3738793386
 20
5.6656889151
 30
0.0
 40
0.125
 41
0.0
 71
     1
 72
     1
  1
 I.D. (4x)
  7
SLDTEXTSTYLE0
 73
     1
 44
1.0
  0
ENDBLK
  5
468
330
466
100
AcDbEntity
  8
0
100
AcDbBlockEnd
  0
BLOCK
  5
470
330
46F
100
AcDbEntity
  8
0
100
AcDbBlockBegin
  2
SW_NOTE_3
 70
     0
 10
0.0
 20
0.0
 30
0.0
  3
SW_NOTE_3
  1

  0
MTEXT
  5
472
330
46F
100
AcDbEntity
  8
0
  6
Continuous
 62
     0
370
     0
100
AcDbMText
 10
-1.6061185858
 20
0.0962997648
 30
0.0
 40
0.125
 41
0.0
 71
     1
 72
     1
  1
M4x.7 TAPPED HOLE
  7
SLDTEXTSTYLE0
 73
     1
 44
1.0
  0
MTEXT
  5
473
330
46F
100
AcDbEntity
  8
0
  6
Continuous
 62
     0
370
     0
100
AcDbMText
 10
-1.4602853505
 20
-0.0703668999
 30
0.0
 40
0.125
 41
0.0
 71
     1
 72
     1
  1
.40 DEEP IN BODY 
  7
SLDTEXTSTYLE0
 73
     1
 44
1.0
  0
MTEXT
  5
474
330
46F
100
AcDbEntity
  8
0
  6
Continuous
 62
     0
370
     0
100
AcDbMText
 10
-1.7445445067
 20
-0.2370335646
 30
0.0
 40
0.125
 41
0.0
 71
     1
 72
     1
  1
(4) PLACES FOR WALL
  7
SLDTEXTSTYLE0
 73
     1
 44
1.0
  0
MTEXT
  5
475
330
46F
100
AcDbEntity
  8
0
  6
Continuous
 62
     0
370
     0
100
AcDbMText
 10
-1.464683393
 20
-0.4037002292
 30
0.0
 40
0.125
 41
0.0
 71
     1
 72
     1
  1
MOUNT BRACKETS
  7
SLDTEXTSTYLE0
 73
     1
 44
1.0
  0
ENDBLK
  5
471
330
46F
100
AcDbEntity
  8
0
100
AcDbBlockEnd
  0
BLOCK
  5
4CD
330
4CC
100
AcDbEntity
  8
0
100
AcDbBlockBegin
  2
*D37
 70
     1
 10
0.0
 20
0.0
 30
0.0
  3
*D37
  1

  0
SOLID
  5
4CF
330
4CC
100
AcDbEntity
  8
0
  6
Continuous
 62
     7
370
     0
100
AcDbTrace
 10
25.1484554609
 20
13.5884254012
 30
0.0
 11
25.1797054609
 21
13.7759254012
 31
0.0
 12
25.1172054609
 22
13.7759254012
 32
0.0
 13
25.1172054609
 23
13.7759254012
 33
0.0
  0
SOLID
  5
4D0
330
4CC
100
AcDbEntity
  8
0
  6
Continuous
 62
     7
370
     0
100
AcDbTrace
 10
25.1484554609
 20
13.2134254012
 30
0.0
 11
25.1172054609
 21
13.0259254012
 31
0.0
 12
25.1797054609
 22
13.0259254012
 32
0.0
 13
25.1797054609
 23
13.0259254012
 33
0.0
  0
LINE
  5
4D1
330
4CC
100
AcDbEntity
  8
0
  6
Continuous
 62
     7
370
     0
100
AcDbLine
 10
24.1721587703
 20
13.5884254012
 30
0.0
 11
25.2384554609
 21
13.5884254012
 31
0.0
  0
LINE
  5
4D2
330
4CC
100
AcDbEntity
  8
0
  6
Continuous
 62
     7
370
     0
100
AcDbLine
 10
24.6911751477
 20
13.2134254012
 30
0.0
 11
25.2384554609
 21
13.2134254012
 31
0.0
  0
LINE
  5
4D3
330
4CC
100
AcDbEntity
  8
0
  6
Continuous
 62
     7
370
     0
100
AcDbLine
 10
25.1484554609
 20
13.5884254012
 30
0.0
 11
25.1484554609
 21
13.9634254012
 31
0.0
  0
LINE
  5
4D4
330
4CC
100
AcDbEntity
  8
0
  6
Continuous
 62
     7
370
     0
100
AcDbLine
 10
25.1484554609
 20
13.2134254012
 30
0.0
 11
25.1484554609
 21
12.8384254012
 31
0.0
  0
MTEXT
  5
4D5
330
4CC
100
AcDbEntity
  8
0
  6
Continuous
 62
     7
370
     0
100
AcDbMText
 10
25.0332105759
 20
13.4628071331
 30
0.0
 40
0.125
 41
0.0
 71
     1
 72
     1
  1
.38
  7
SLDTEXTSTYLE0
 73
     1
 44
1.0
  0
ENDBLK
  5
4CE
330
4CC
100
AcDbEntity
  8
0
100
AcDbBlockEnd
  0
BLOCK
  5
548
330
547
100
AcDbEntity
  8
0
100
AcDbBlockBegin
  2
*D38
 70
     1
 10
0.0
 20
0.0
 30
0.0
  3
*D38
  1

  0
SOLID
  5
54A
330
547
100
AcDbEntity
  8
0
  6
Continuous
 62
     7
370
     0
100
AcDbTrace
 10
12.6407981722
 20
4.4734802684
 30
0.0
 11
12.6095481722
 21
4.2859802684
 31
0.0
 12
12.6720481722
 22
4.2859802684
 32
0.0
 13
12.6720481722
 23
4.2859802684
 33
0.0
  0
SOLID
  5
54B
330
547
100
AcDbEntity
  8
0
  6
Continuous
 62
     7
370
     0
100
AcDbTrace
 10
12.6407981722
 20
2.5444802684
 30
0.0
 11
12.6720481722
 21
2.7319802684
 31
0.0
 12
12.6095481722
 22
2.7319802684
 32
0.0
 13
12.6095481722
 23
2.7319802684
 33
0.0
  0
LINE
  5
54C
330
547
100
AcDbEntity
  8
0
  6
Continuous
 62
     7
370
     0
100
AcDbLine
 10
13.7041499885
 20
4.4734802684
 30
0.0
 11
12.5507981722
 21
4.4734802684
 31
0.0
  0
LINE
  5
54D
330
547
100
AcDbEntity
  8
0
  6
Continuous
 62
     7
370
     0
100
AcDbLine
 10
13.6472508006
 20
2.5444802684
 30
0.0
 11
12.5507981722
 21
2.5444802684
 31
0.0
  0
LINE
  5
54E
330
547
100
AcDbEntity
  8
0
  6
Continuous
 62
     7
370
     0
100
AcDbLine
 10
12.6407981722
 20
4.4734802684
 30
0.0
 11
12.6407981722
 21
3.6082319856
 31
0.0
  0
LINE
  5
54F
330
547
100
AcDbEntity
  8
0
  6
Continuous
 62
     7
370
     0
100
AcDbLine
 10
12.6407981722
 20
2.5444802684
 30
0.0
 11
12.6407981722
 21
3.4097285511
 31
0.0
  0
MTEXT
  5
550
330
547
100
AcDbEntity
  8
0
  6
Continuous
 62
     7
370
     0
100
AcDbMText
 10
12.4792985374
 20
3.5708620003
 30
0.0
 40
0.125
 41
0.0
 71
     1
 72
     1
  1
1.93
  7
SLDTEXTSTYLE0
 73
     1
 44
1.0
  0
ENDBLK
  5
549
330
547
100
AcDbEntity
  8
0
100
AcDbBlockEnd
  0
BLOCK
  5
553
330
552
100
AcDbEntity
  8
0
100
AcDbBlockBegin
  2
*D39
 70
     1
 10
0.0
 20
0.0
 30
0.0
  3
*D39
  1

  0
SOLID
  5
555
330
552
100
AcDbEntity
  8
0
  6
Continuous
 62
     7
370
     0
100
AcDbTrace
 10
12.6407981722
 20
2.5444802684
 30
0.0
 11
12.6720481722
 21
2.7319802684
 31
0.0
 12
12.6095481722
 22
2.7319802684
 32
0.0
 13
12.6095481722
 23
2.7319802684
 33
0.0
  0
SOLID
  5
556
330
552
100
AcDbEntity
  8
0
  6
Continuous
 62
     7
370
     0
100
AcDbTrace
 10
12.6407981722
 20
2.4164802684
 30
0.0
 11
12.6095481722
 21
2.2289802684
 31
0.0
 12
12.6720481722
 22
2.2289802684
 32
0.0
 13
12.6720481722
 23
2.2289802684
 33
0.0
  0
LINE
  5
557
330
552
100
AcDbEntity
  8
0
  6
Continuous
 62
     7
370
     0
100
AcDbLine
 10
13.6472508006
 20
2.5444802684
 30
0.0
 11
12.5507981722
 21
2.5444802684
 31
0.0
  0
LINE
  5
558
330
552
100
AcDbEntity
  8
0
  6
Continuous
 62
     7
370
     0
100
AcDbLine
 10
13.5981159374
 20
2.4164802684
 30
0.0
 11
12.5507981722
 21
2.4164802684
 31
0.0
  0
LINE
  5
559
330
552
100
AcDbEntity
  8
0
  6
Continuous
 62
     7
370
     0
100
AcDbLine
 10
12.4527981722
 20
2.0387421381
 30
0.0
 11
12.6407981722
 21
2.0387421381
 31
0.0
  0
LINE
  5
55A
330
552
100
AcDbEntity
  8
0
  6
Continuous
 62
     7
370
     0
100
AcDbLine
 10
12.6407981722
 20
2.0387421381
 30
0.0
 11
12.6407981722
 21
2.4164802684
 31
0.0
  0
LINE
  5
55B
330
552
100
AcDbEntity
  8
0
  6
Continuous
 62
     7
370
     0
100
AcDbLine
 10
12.6407981722
 20
2.5444802684
 30
0.0
 11
12.6407981722
 21
2.9194802684
 31
0.0
  0
MTEXT
  5
55C
330
552
100
AcDbEntity
  8
0
  6
Continuous
 62
     7
370
     0
100
AcDbMText
 10
12.1598084022
 20
2.10062387
 30
0.0
 40
0.125
 41
0.0
 71
     1
 72
     1
  1
.13
  7
SLDTEXTSTYLE0
 73
     1
 44
1.0
  0
ENDBLK
  5
554
330
552
100
AcDbEntity
  8
0
100
AcDbBlockEnd
  0
BLOCK
  5
55F
330
55E
100
AcDbEntity
  8
0
100
AcDbBlockBegin
  2
*D40
 70
     1
 10
0.0
 20
0.0
 30
0.0
  3
*D40
  1

  0
SOLID
  5
561
330
55E
100
AcDbEntity
  8
0
  6
Continuous
 62
     7
370
     0
100
AcDbTrace
 10
12.6407981722
 20
4.4734802684
 30
0.0
 11
12.6095481722
 21
4.2859802684
 31
0.0
 12
12.6720481722
 22
4.2859802684
 32
0.0
 13
12.6720481722
 23
4.2859802684
 33
0.0
  0
SOLID
  5
562
330
55E
100
AcDbEntity
  8
0
  6
Continuous
 62
     7
370
     0
100
AcDbTrace
 10
12.6407981722
 20
4.6084802684
 30
0.0
 11
12.6720481722
 21
4.7959802684
 31
0.0
 12
12.6095481722
 22
4.7959802684
 32
0.0
 13
12.6095481722
 23
4.7959802684
 33
0.0
  0
LINE
  5
563
330
55E
100
AcDbEntity
  8
0
  6
Continuous
 62
     7
370
     0
100
AcDbLine
 10
13.7041499885
 20
4.4734802684
 30
0.0
 11
12.5507981722
 21
4.4734802684
 31
0.0
  0
LINE
  5
564
330
55E
100
AcDbEntity
  8
0
  6
Continuous
 62
     7
370
     0
100
AcDbLine
 10
13.5806259624
 20
4.6084802684
 30
0.0
 11
12.5507981722
 21
4.6084802684
 31
0.0
  0
LINE
  5
565
330
55E
100
AcDbEntity
  8
0
  6
Continuous
 62
     7
370
     0
100
AcDbLine
 10
12.4527981722
 20
5.1708009662
 30
0.0
 11
12.6407981722
 21
5.1708009662
 31
0.0
  0
LINE
  5
566
330
55E
100
AcDbEntity
  8
0
  6
Continuous
 62
     7
370
     0
100
AcDbLine
 10
12.6407981722
 20
5.1708009662
 30
0.0
 11
12.6407981722
 21
4.6084802684
 31
0.0
  0
LINE
  5
567
330
55E
100
AcDbEntity
  8
0
  6
Continuous
 62
     7
370
     0
100
AcDbLine
 10
12.6407981722
 20
4.4734802684
 30
0.0
 11
12.6407981722
 21
4.0984802684
 31
0.0
  0
MTEXT
  5
568
330
55E
100
AcDbEntity
  8
0
  6
Continuous
 62
     7
370
     0
100
AcDbMText
 10
12.1598084022
 20
5.2326826981
 30
0.0
 40
0.125
 41
0.0
 71
     1
 72
     1
  1
.14
  7
SLDTEXTSTYLE0
 73
     1
 44
1.0
  0
ENDBLK
  5
560
330
55E
100
AcDbEntity
  8
0
100
AcDbBlockEnd
  0
BLOCK
  5
56B
330
56A
100
AcDbEntity
  8
0
100
AcDbBlockBegin
  2
*D41
 70
     1
 10
0.0
 20
0.0
 30
0.0
  3
*D41
  1

  0
SOLID
  5
56D
330
56A
100
AcDbEntity
  8
0
  6
Continuous
 62
     7
370
     0
100
AcDbTrace
 10
17.6994005344
 20
2.7944802684
 30
0.0
 11
17.7306505344
 21
2.9819802684
 31
0.0
 12
17.6681505344
 22
2.9819802684
 32
0.0
 13
17.6681505344
 23
2.9819802684
 33
0.0
  0
SOLID
  5
56E
330
56A
100
AcDbEntity
  8
0
  6
Continuous
 62
     7
370
     0
100
AcDbTrace
 10
17.6994005344
 20
2.5444802684
 30
0.0
 11
17.6681505344
 21
2.3569802684
 31
0.0
 12
17.7306505344
 22
2.3569802684
 32
0.0
 13
17.7306505344
 23
2.3569802684
 33
0.0
  0
LINE
  5
56F
330
56A
100
AcDbEntity
  8
0
  6
Continuous
 62
     7
370
     0
100
AcDbLine
 10
16.8313493533
 20
2.7944802684
 30
0.0
 11
17.7894005344
 21
2.7944802684
 31
0.0
  0
LINE
  5
570
330
56A
100
AcDbEntity
  8
0
  6
Continuous
 62
     7
370
     0
100
AcDbLine
 10
17.030447906
 20
2.5444802684
 30
0.0
 11
17.7894005344
 21
2.5444802684
 31
0.0
  0
LINE
  5
571
330
56A
100
AcDbEntity
  8
0
  6
Continuous
 62
     7
370
     0
100
AcDbLine
 10
17.8874005344
 20
2.0387421381
 30
0.0
 11
17.6994005344
 21
2.0387421381
 31
0.0
  0
LINE
  5
572
330
56A
100
AcDbEntity
  8
0
  6
Continuous
 62
     7
370
     0
100
AcDbLine
 10
17.6994005344
 20
2.0387421381
 30
0.0
 11
17.6994005344
 21
2.5444802684
 31
0.0
  0
LINE
  5
573
330
56A
100
AcDbEntity
  8
0
  6
Continuous
 62
     7
370
     0
100
AcDbLine
 10
17.6994005344
 20
2.7944802684
 30
0.0
 11
17.6994005344
 21
3.1694802684
 31
0.0
  0
MTEXT
  5
574
330
56A
100
AcDbEntity
  8
0
  6
Continuous
 62
     7
370
     0
100
AcDbMText
 10
17.9499005344
 20
2.10062387
 30
0.0
 40
0.125
 41
0.0
 71
     1
 72
     1
  1
.25
  7
SLDTEXTSTYLE0
 73
     1
 44
1.0
  0
ENDBLK
  5
56C
330
56A
100
AcDbEntity
  8
0
100
AcDbBlockEnd
  0
BLOCK
  5
577
330
576
100
AcDbEntity
  8
0
100
AcDbBlockBegin
  2
*D42
 70
     1
 10
0.0
 20
0.0
 30
0.0
  3
*D42
  1

  0
SOLID
  5
579
330
576
100
AcDbEntity
  8
0
  6
Continuous
 62
     7
370
     0
100
AcDbTrace
 10
17.6994005344
 20
2.7944802684
 30
0.0
 11
17.7306505344
 21
2.9819802684
 31
0.0
 12
17.6681505344
 22
2.9819802684
 32
0.0
 13
17.6681505344
 23
2.9819802684
 33
0.0
  0
SOLID
  5
57A
330
576
100
AcDbEntity
  8
0
  6
Continuous
 62
     7
370
     0
100
AcDbTrace
 10
17.6994005344
 20
4.4734802684
 30
0.0
 11
17.6681505344
 21
4.2859802684
 31
0.0
 12
17.7306505344
 22
4.2859802684
 32
0.0
 13
17.7306505344
 23
4.2859802684
 33
0.0
  0
LINE
  5
57B
330
576
100
AcDbEntity
  8
0
  6
Continuous
 62
     7
370
     0
100
AcDbLine
 10
16.9098493533
 20
2.7944802684
 30
0.0
 11
17.7894005344
 21
2.7944802684
 31
0.0
  0
LINE
  5
57C
330
576
100
AcDbEntity
  8
0
  6
Continuous
 62
     7
370
     0
100
AcDbLine
 10
16.973548718
 20
4.4734802684
 30
0.0
 11
17.7894005344
 21
4.4734802684
 31
0.0
  0
LINE
  5
57D
330
576
100
AcDbEntity
  8
0
  6
Continuous
 62
     7
370
     0
100
AcDbLine
 10
17.6994005344
 20
2.7944802684
 30
0.0
 11
17.6994005344
 21
3.5347285511
 31
0.0
  0
LINE
  5
57E
330
576
100
AcDbEntity
  8
0
  6
Continuous
 62
     7
370
     0
100
AcDbLine
 10
17.6994005344
 20
4.4734802684
 30
0.0
 11
17.6994005344
 21
3.7332319856
 31
0.0
  0
MTEXT
  5
57F
330
576
100
AcDbEntity
  8
0
  6
Continuous
 62
     7
370
     0
100
AcDbMText
 10
17.5379008997
 20
3.6958620003
 30
0.0
 40
0.125
 41
0.0
 71
     1
 72
     1
  1
1.68
  7
SLDTEXTSTYLE0
 73
     1
 44
1.0
  0
ENDBLK
  5
578
330
576
100
AcDbEntity
  8
0
100
AcDbBlockEnd
  0
ENDSEC
  0
SECTION
  2
ENTITIES
  0
INSERT
  5
68
330
1F
100
AcDbEntity
  8
0
  6
Continuous
 62
     7
370
     0
100
AcDbBlockReference
  2
SW_NOTE_0
 10
19.6194896314
 20
2.7556652652
 30
0.0
  0
MTEXT
  5
69
330
1F
100
AcDbEntity
  8
0
  6
Continuous
 62
     7
370
     0
100
AcDbMText
 10
-0.4350663255
 20
5.2403276486
 30
0.0
 40
0.125
 41
0.0
 71
     1
 72
     1
  1
VIEW LESS COVER
  7
SLDTEXTSTYLE0
 73
     1
 44
1.0
  0
MTEXT
  5
6A
330
1F
100
AcDbEntity
  8
0
  6
Continuous
 62
     7
370
     0
100
AcDbMText
 10
19.7060409498
 20
1.9414904193
 30
0.0
 40
0.25
 41
0.0
 71
     1
 72
     1
  1
BUD #AN-2901
  7
SLDTEXTSTYLE0
 73
     1
 44
1.0
  0
SPLINE
  5
6B
330
1F
100
AcDbEntity
  8
0
  6
Continuous
 62
     7
370
     0
100
AcDbSpline
210
0.0
220
0.0
230
1.0
 70
    24
 71
     1
 72
     4
 73
     2
 74
     0
 42
0.00000001
 43
0.00000001
 40
0.0
 40
0.0
 40
1.0
 40
1.0
 10
7.536940959407361
 20
6.823772383453403
 30
0.0
 10
7.536940959407361
 20
6.830772409255174
 30
0.0
  0
SPLINE
  5
6C
330
1F
100
AcDbEntity
  8
0
  6
Continuous
 62
     7
370
     0
100
AcDbSpline
210
0.0
220
0.0
230
1.0
 70
    24
 71
     1
 72
     4
 73
     2
 74
     0
 42
0.00000001
 43
0.00000001
 40
0.0
 40
0.0
 40
1.0
 40
1.0
 10
7.536940959407361
 20
7.020772481024799
 30
0.0
 10
7.536940959407361
 20
7.04577240555687
 30
0.0
  0
SPLINE
  5
6D
330
1F
100
AcDbEntity
  8
0
  6
Continuous
 62
     7
370
     0
100
AcDbSpline
210
0.0
220
0.0
230
1.0
 70
    24
 71
     1
 72
     4
 73
     2
 74
     0
 42
0.00000001
 43
0.00000001
 40
0.0
 40
0.0
 40
1.0
 40
1.0
 10
7.536940959407361
 20
9.945772451175545
 30
0.0
 10
7.536940959407361
 20
9.970772375707616
 30
0.0
  0
SPLINE
  5
6E
330
1F
100
AcDbEntity
  8
0
  6
Continuous
 62
     7
370
     0
100
AcDbSpline
210
0.0
220
0.0
230
1.0
 70
    24
 71
     1
 72
     4
 73
     2
 74
     0
 42
0.00000001
 43
0.00000001
 40
0.0
 40
0.0
 40
1.0
 40
1.0
 10
7.536940959407361
 20
10.16077244747724
 30
0.0
 10
7.536940959407361
 20
10.16777247327901
 30
0.0
  0
SPLINE
  5
6F
330
1F
100
AcDbEntity
  8
0
  6
Continuous
 62
     7
370
     0
100
AcDbSpline
210
0.0
220
0.0
230
1.0
 70
    24
 71
     1
 72
     4
 73
     2
 74
     0
 42
0.00000001
 43
0.00000001
 40
0.0
 40
0.0
 40
1.0
 40
1.0
 10
7.418940922553856
 20
10.16777247327901
 30
0.0
 10
7.418940922553856
 20
10.16077244747724
 30
0.0
  0
SPLINE
  5
70
330
1F
100
AcDbEntity
  8
0
  6
Continuous
 62
     7
370
     0
100
AcDbSpline
210
0.0
220
0.0
230
1.0
 70
    24
 71
     1
 72
     4
 73
     2
 74
     0
 42
0.00000001
 43
0.00000001
 40
0.0
 40
0.0
 40
1.0
 40
1.0
 10
7.418940922553856
 20
9.970772375707616
 30
0.0
 10
7.418940922553856
 20
9.945772451175545
 30
0.0
  0
SPLINE
  5
71
330
1F
100
AcDbEntity
  8
0
  6
Continuous
 62
     7
370
     0
100
AcDbSpline
210
0.0
220
0.0
230
1.0
 70
    24
 71
     1
 72
     4
 73
     2
 74
     0
 42
0.00000001
 43
0.00000001
 40
0.0
 40
0.0
 40
1.0
 40
1.0
 10
7.418940922553856
 20
7.04577240555687
 30
0.0
 10
7.418940922553856
 20
7.020772481024799
 30
0.0
  0
SPLINE
  5
72
330
1F
100
AcDbEntity
  8
0
  6
Continuous
 62
     7
370
     0
100
AcDbSpline
210
0.0
220
0.0
230
1.0
 70
    24
 71
     1
 72
     4
 73
     2
 74
     0
 42
0.00000001
 43
0.00000001
 40
0.0
 40
0.0
 40
1.0
 40
1.0
 10
7.418940922553856
 20
6.830772409255174
 30
0.0
 10
7.418940922553856
 20
6.823772383453403
 30
0.0
  0
SPLINE
  5
73
330
1F
100
AcDbEntity
  8
0
  6
Continuous
 62
     7
370
     0
100
AcDbSpline
210
0.0
220
0.0
230
1.0
 70
    24
 71
     1
 72
     4
 73
     2
 74
     0
 42
0.00000001
 43
0.00000001
 40
0.0
 40
0.0
 40
1.0
 40
1.0
 10
7.640440963766479
 20
9.725772425967941
 30
0.0
 10
7.640440963766479
 20
9.945772451175545
 30
0.0
  0
SPLINE
  5
74
330
1F
100
AcDbEntity
  8
0
  6
Continuous
 62
     7
370
     0
100
AcDbSpline
210
0.0
220
0.0
230
1.0
 70
    24
 71
     1
 72
     4
 73
     2
 74
     0
 42
0.00000001
 43
0.00000001
 40
0.0
 40
0.0
 40
1.0
 40
1.0
 10
7.640440963766479
 20
7.04577240555687
 30
0.0
 10
7.640440963766479
 20
7.265772430764472
 30
0.0
  0
SPLINE
  5
75
330
1F
100
AcDbEntity
  8
0
  6
Continuous
 62
     7
370
     0
100
AcDbSpline
210
0.0
220
0.0
230
1.0
 70
    24
 71
     1
 72
     4
 73
     2
 74
     0
 42
0.00000001
 43
0.00000001
 40
0.0
 40
0.0
 40
1.0
 40
1.0
 10
7.640440963766479
 20
9.970772375707616
 30
0.0
 10
7.640440963766479
 20
10.16077244747724
 30
0.0
  0
SPLINE
  5
76
330
1F
100
AcDbEntity
  8
0
  6
Continuous
 62
     7
370
     0
100
AcDbSpline
210
0.0
220
0.0
230
1.0
 70
    24
 71
     1
 72
     4
 73
     2
 74
     0
 42
0.00000001
 43
0.00000001
 40
0.0
 40
0.0
 40
1.0
 40
1.0
 10
7.640440963766479
 20
6.830772409255174
 30
0.0
 10
7.640440963766479
 20
7.020772481024799
 30
0.0
  0
LINE
  5
77
330
1F
100
AcDbEntity
  8
0
  6
Continuous
 62
     7
370
     0
100
AcDbLine
 10
6.968334648
 20
6.4503000045
 30
0.0
 11
6.968334648
 21
6.4912449048
 31
0.0
  0
LINE
  5
78
330
1F
100
AcDbEntity
  8
0
  6
Continuous
 62
     7
370
     0
100
AcDbLine
 10
7.0474686138
 20
6.4503000045
 30
0.0
 11
6.968334648
 21
6.4503000045
 31
0.0
  0
LINE
  5
79
330
1F
100
AcDbEntity
  8
0
  6
Continuous
 62
     7
370
     0
100
AcDbLine
 10
7.0474686138
 20
6.3711661853
 30
0.0
 11
7.0474686138
 21
6.4503000045
 31
0.0
  0
LINE
  5
7A
330
1F
100
AcDbEntity
  8
0
  6
Continuous
 62
     7
370
     0
100
AcDbLine
 10
7.0884133675
 20
6.3711661853
 30
0.0
 11
7.0474686138
 21
6.3711661853
 31
0.0
  0
LINE
  5
7B
330
1F
100
AcDbEntity
  8
0
  6
Continuous
 62
     7
370
     0
100
AcDbLine
 10
7.0884133675
 20
6.4503000045
 30
0.0
 11
7.0884133675
 21
6.3711661853
 31
0.0
  0
LINE
  5
7C
330
1F
100
AcDbEntity
  8
0
  6
Continuous
 62
     7
370
     0
100
AcDbLine
 10
7.1675473333
 20
6.4503000045
 30
0.0
 11
7.0884133675
 21
6.4503000045
 31
0.0
  0
LINE
  5
7D
330
1F
100
AcDbEntity
  8
0
  6
Continuous
 62
     7
370
     0
100
AcDbLine
 10
7.1675473333
 20
6.4912449048
 30
0.0
 11
7.1675473333
 21
6.4503000045
 31
0.0
  0
LINE
  5
7E
330
1F
100
AcDbEntity
  8
0
  6
Continuous
 62
     7
370
     0
100
AcDbLine
 10
7.0884133675
 20
6.4912449048
 30
0.0
 11
7.1675473333
 21
6.4912449048
 31
0.0
  0
LINE
  5
7F
330
1F
100
AcDbEntity
  8
0
  6
Continuous
 62
     7
370
     0
100
AcDbLine
 10
7.0884133675
 20
6.570378724
 30
0.0
 11
7.0884133675
 21
6.4912449048
 31
0.0
  0
LINE
  5
80
330
1F
100
AcDbEntity
  8
0
  6
Continuous
 62
     7
370
     0
100
AcDbLine
 10
7.0474686138
 20
6.570378724
 30
0.0
 11
7.0884133675
 21
6.570378724
 31
0.0
  0
LINE
  5
81
330
1F
100
AcDbEntity
  8
0
  6
Continuous
 62
     7
370
     0
100
AcDbLine
 10
7.0474686138
 20
6.4912449048
 30
0.0
 11
7.0474686138
 21
6.570378724
 31
0.0
  0
LINE
  5
82
330
1F
100
AcDbEntity
  8
0
  6
Continuous
 62
     7
370
     0
100
AcDbLine
 10
6.968334648
 20
6.4912449048
 30
0.0
 11
7.0474686138
 21
6.4912449048
 31
0.0
  0
CIRCLE
  5
83
330
1F
100
AcDbEntity
  8
0
  6
Continuous
 62
     7
370
     0
100
AcDbCircle
 10
7.0679409898
 20
6.4707724284
 30
0.0
 40
0.1633858267716528
  0
LINE
  5
84
330
1F
100
AcDbEntity
  8
0
  6
Continuous
 62
     7
370
     0
100
AcDbLine
 10
7.0474686138
 20
6.4503000045
 30
0.0
 11
7.0577048023
 21
6.4605361929
 31
0.0
  0
LINE
  5
85
330
1F
100
AcDbEntity
  8
0
  6
Continuous
 62
     7
370
     0
100
AcDbLine
 10
7.0474686138
 20
6.3711661853
 30
0.0
 11
7.0577048023
 21
6.4605361929
 31
0.0
  0
LINE
  5
86
330
1F
100
AcDbEntity
  8
0
  6
Continuous
 62
     7
370
     0
100
AcDbLine
 10
7.0781771791
 20
6.4605361929
 30
0.0
 11
7.0884133675
 21
6.4503000045
 31
0.0
  0
LINE
  5
87
330
1F
100
AcDbEntity
  8
0
  6
Continuous
 62
     7
370
     0
100
AcDbLine
 10
7.0884133675
 20
6.3711661853
 30
0.0
 11
7.0781771791
 21
6.4605361929
 31
0.0
  0
LINE
  5
88
330
1F
100
AcDbEntity
  8
0
  6
Continuous
 62
     7
370
     0
100
AcDbLine
 10
7.0781771791
 20
6.4605361929
 30
0.0
 11
7.0577048023
 21
6.4605361929
 31
0.0
  0
LINE
  5
89
330
1F
100
AcDbEntity
  8
0
  6
Continuous
 62
     7
370
     0
100
AcDbLine
 10
7.0577048023
 20
6.4810087164
 30
0.0
 11
7.0474686138
 21
6.4912449048
 31
0.0
  0
LINE
  5
8A
330
1F
100
AcDbEntity
  8
0
  6
Continuous
 62
     7
370
     0
100
AcDbLine
 10
6.968334648
 20
6.4912449048
 30
0.0
 11
7.0577048023
 21
6.4810087164
 31
0.0
  0
LINE
  5
8B
330
1F
100
AcDbEntity
  8
0
  6
Continuous
 62
     7
370
     0
100
AcDbLine
 10
7.0577048023
 20
6.4810087164
 30
0.0
 11
7.0781771791
 21
6.4810087164
 31
0.0
  0
LINE
  5
8C
330
1F
100
AcDbEntity
  8
0
  6
Continuous
 62
     7
370
     0
100
AcDbLine
 10
7.0474686138
 20
6.570378724
 30
0.0
 11
7.0577048023
 21
6.4810087164
 31
0.0
  0
LINE
  5
8D
330
1F
100
AcDbEntity
  8
0
  6
Continuous
 62
     7
370
     0
100
AcDbLine
 10
7.0884133675
 20
6.570378724
 30
0.0
 11
7.0781771791
 21
6.4810087164
 31
0.0
  0
LINE
  5
8E
330
1F
100
AcDbEntity
  8
0
  6
Continuous
 62
     7
370
     0
100
AcDbLine
 10
6.968334648
 20
6.4503000045
 30
0.0
 11
7.0577048023
 21
6.4605361929
 31
0.0
  0
LINE
  5
8F
330
1F
100
AcDbEntity
  8
0
  6
Continuous
 62
     7
370
     0
100
AcDbLine
 10
7.0884133675
 20
6.4912449048
 30
0.0
 11
7.0781771791
 21
6.4810087164
 31
0.0
  0
LINE
  5
90
330
1F
100
AcDbEntity
  8
0
  6
Continuous
 62
     7
370
     0
100
AcDbLine
 10
7.1675473333
 20
6.4503000045
 30
0.0
 11
7.0781771791
 21
6.4605361929
 31
0.0
  0
LINE
  5
91
330
1F
100
AcDbEntity
  8
0
  6
Continuous
 62
     7
370
     0
100
AcDbLine
 10
7.1675473333
 20
6.4912449048
 30
0.0
 11
7.0781771791
 21
6.4810087164
 31
0.0
  0
LINE
  5
92
330
1F
100
AcDbEntity
  8
0
  6
Continuous
 62
     7
370
     0
100
AcDbLine
 10
7.0577048023
 20
6.4605361929
 30
0.0
 11
7.0577048023
 21
6.4810087164
 31
0.0
  0
LINE
  5
93
330
1F
100
AcDbEntity
  8
0
  6
Continuous
 62
     7
370
     0
100
AcDbLine
 10
7.0781771791
 20
6.4810087164
 30
0.0
 11
7.0781771791
 21
6.4605361929
 31
0.0
  0
LINE
  5
94
330
1F
100
AcDbEntity
  8
0
  6
Continuous
 62
     7
370
     0
100
AcDbLine
 10
6.968334648
 20
10.5002999519
 30
0.0
 11
6.968334648
 21
10.5412448522
 31
0.0
  0
LINE
  5
95
330
1F
100
AcDbEntity
  8
0
  6
Continuous
 62
     7
370
     0
100
AcDbLine
 10
7.0474686138
 20
10.5002999519
 30
0.0
 11
6.968334648
 21
10.5002999519
 31
0.0
  0
LINE
  5
96
330
1F
100
AcDbEntity
  8
0
  6
Continuous
 62
     7
370
     0
100
AcDbLine
 10
7.0474686138
 20
10.4211661327
 30
0.0
 11
7.0474686138
 21
10.5002999519
 31
0.0
  0
LINE
  5
97
330
1F
100
AcDbEntity
  8
0
  6
Continuous
 62
     7
370
     0
100
AcDbLine
 10
7.0884133675
 20
10.4211661327
 30
0.0
 11
7.0474686138
 21
10.4211661327
 31
0.0
  0
LINE
  5
98
330
1F
100
AcDbEntity
  8
0
  6
Continuous
 62
     7
370
     0
100
AcDbLine
 10
7.0884133675
 20
10.5002999519
 30
0.0
 11
7.0884133675
 21
10.4211661327
 31
0.0
  0
LINE
  5
99
330
1F
100
AcDbEntity
  8
0
  6
Continuous
 62
     7
370
     0
100
AcDbLine
 10
7.1675473333
 20
10.5002999519
 30
0.0
 11
7.0884133675
 21
10.5002999519
 31
0.0
  0
LINE
  5
9A
330
1F
100
AcDbEntity
  8
0
  6
Continuous
 62
     7
370
     0
100
AcDbLine
 10
7.1675473333
 20
10.5412448522
 30
0.0
 11
7.1675473333
 21
10.5002999519
 31
0.0
  0
LINE
  5
9B
330
1F
100
AcDbEntity
  8
0
  6
Continuous
 62
     7
370
     0
100
AcDbLine
 10
7.0884133675
 20
10.5412448522
 30
0.0
 11
7.1675473333
 21
10.5412448522
 31
0.0
  0
LINE
  5
9C
330
1F
100
AcDbEntity
  8
0
  6
Continuous
 62
     7
370
     0
100
AcDbLine
 10
7.0884133675
 20
10.6203786714
 30
0.0
 11
7.0884133675
 21
10.5412448522
 31
0.0
  0
LINE
  5
9D
330
1F
100
AcDbEntity
  8
0
  6
Continuous
 62
     7
370
     0
100
AcDbLine
 10
7.0474686138
 20
10.6203786714
 30
0.0
 11
7.0884133675
 21
10.6203786714
 31
0.0
  0
LINE
  5
9E
330
1F
100
AcDbEntity
  8
0
  6
Continuous
 62
     7
370
     0
100
AcDbLine
 10
7.0474686138
 20
10.5412448522
 30
0.0
 11
7.0474686138
 21
10.6203786714
 31
0.0
  0
LINE
  5
9F
330
1F
100
AcDbEntity
  8
0
  6
Continuous
 62
     7
370
     0
100
AcDbLine
 10
6.968334648
 20
10.5412448522
 30
0.0
 11
7.0474686138
 21
10.5412448522
 31
0.0
  0
CIRCLE
  5
A0
330
1F
100
AcDbEntity
  8
0
  6
Continuous
 62
     7
370
     0
100
AcDbCircle
 10
7.0679409898
 20
10.5207724284
 30
0.0
 40
0.1633858267716537
  0
LINE
  5
A1
330
1F
100
AcDbEntity
  8
0
  6
Continuous
 62
     7
370
     0
100
AcDbLine
 10
7.0781771791
 20
10.5105361403
 30
0.0
 11
7.0884133675
 21
10.5002999519
 31
0.0
  0
LINE
  5
A2
330
1F
100
AcDbEntity
  8
0
  6
Continuous
 62
     7
370
     0
100
AcDbLine
 10
7.0884133675
 20
10.4211661327
 30
0.0
 11
7.0781771791
 21
10.5105361403
 31
0.0
  0
LINE
  5
A3
330
1F
100
AcDbEntity
  8
0
  6
Continuous
 62
     7
370
     0
100
AcDbLine
 10
7.0781771791
 20
10.5105361403
 30
0.0
 11
7.0577048023
 21
10.5105361403
 31
0.0
  0
LINE
  5
A4
330
1F
100
AcDbEntity
  8
0
  6
Continuous
 62
     7
370
     0
100
AcDbLine
 10
7.0474686138
 20
10.4211661327
 30
0.0
 11
7.0577048023
 21
10.5105361403
 31
0.0
  0
LINE
  5
A5
330
1F
100
AcDbEntity
  8
0
  6
Continuous
 62
     7
370
     0
100
AcDbLine
 10
7.0474686138
 20
10.5002999519
 30
0.0
 11
7.0577048023
 21
10.5105361403
 31
0.0
  0
LINE
  5
A6
330
1F
100
AcDbEntity
  8
0
  6
Continuous
 62
     7
370
     0
100
AcDbLine
 10
7.0577048023
 20
10.5310086638
 30
0.0
 11
7.0781771791
 21
10.5310086638
 31
0.0
  0
LINE
  5
A7
330
1F
100
AcDbEntity
  8
0
  6
Continuous
 62
     7
370
     0
100
AcDbLine
 10
7.0474686138
 20
10.6203786714
 30
0.0
 11
7.0577048023
 21
10.5310086638
 31
0.0
  0
LINE
  5
A8
330
1F
100
AcDbEntity
  8
0
  6
Continuous
 62
     7
370
     0
100
AcDbLine
 10
7.0884133675
 20
10.6203786714
 30
0.0
 11
7.0781771791
 21
10.5310086638
 31
0.0
  0
LINE
  5
A9
330
1F
100
AcDbEntity
  8
0
  6
Continuous
 62
     7
370
     0
100
AcDbLine
 10
7.0577048023
 20
10.5310086638
 30
0.0
 11
7.0474686138
 21
10.5412448522
 31
0.0
  0
LINE
  5
AA
330
1F
100
AcDbEntity
  8
0
  6
Continuous
 62
     7
370
     0
100
AcDbLine
 10
6.968334648
 20
10.5412448522
 30
0.0
 11
7.0577048023
 21
10.5310086638
 31
0.0
  0
LINE
  5
AB
330
1F
100
AcDbEntity
  8
0
  6
Continuous
 62
     7
370
     0
100
AcDbLine
 10
6.968334648
 20
10.5002999519
 30
0.0
 11
7.0577048023
 21
10.5105361403
 31
0.0
  0
LINE
  5
AC
330
1F
100
AcDbEntity
  8
0
  6
Continuous
 62
     7
370
     0
100
AcDbLine
 10
7.1675473333
 20
10.5412448522
 30
0.0
 11
7.0781771791
 21
10.5310086638
 31
0.0
  0
LINE
  5
AD
330
1F
100
AcDbEntity
  8
0
  6
Continuous
 62
     7
370
     0
100
AcDbLine
 10
7.0884133675
 20
10.5412448522
 30
0.0
 11
7.0781771791
 21
10.5310086638
 31
0.0
  0
LINE
  5
AE
330
1F
100
AcDbEntity
  8
0
  6
Continuous
 62
     7
370
     0
100
AcDbLine
 10
7.1675473333
 20
10.5002999519
 30
0.0
 11
7.0781771791
 21
10.5105361403
 31
0.0
  0
LINE
  5
AF
330
1F
100
AcDbEntity
  8
0
  6
Continuous
 62
     7
370
     0
100
AcDbLine
 10
7.0781771791
 20
10.5310086638
 30
0.0
 11
7.0781771791
 21
10.5105361403
 31
0.0
  0
LINE
  5
B0
330
1F
100
AcDbEntity
  8
0
  6
Continuous
 62
     7
370
     0
100
AcDbLine
 10
7.0577048023
 20
10.5105361403
 30
0.0
 11
7.0577048023
 21
10.5310086638
 31
0.0
  0
LINE
  5
B1
330
1F
100
AcDbEntity
  8
0
  6
Continuous
 62
     7
370
     0
100
AcDbLine
 10
3.8983346462
 20
6.4503000045
 30
0.0
 11
3.8983346462
 21
6.4912449048
 31
0.0
  0
LINE
  5
B2
330
1F
100
AcDbEntity
  8
0
  6
Continuous
 62
     7
370
     0
100
AcDbLine
 10
3.9774686121
 20
6.4503000045
 30
0.0
 11
3.8983346462
 21
6.4503000045
 31
0.0
  0
LINE
  5
B3
330
1F
100
AcDbEntity
  8
0
  6
Continuous
 62
     7
370
     0
100
AcDbLine
 10
3.9774686121
 20
6.3711661853
 30
0.0
 11
3.9774686121
 21
6.4503000045
 31
0.0
  0
LINE
  5
B4
330
1F
100
AcDbEntity
  8
0
  6
Continuous
 62
     7
370
     0
100
AcDbLine
 10
4.0184133657
 20
6.3711661853
 30
0.0
 11
3.9774686121
 21
6.3711661853
 31
0.0
  0
LINE
  5
B5
330
1F
100
AcDbEntity
  8
0
  6
Continuous
 62
     7
370
     0
100
AcDbLine
 10
4.0184133657
 20
6.4503000045
 30
0.0
 11
4.0184133657
 21
6.3711661853
 31
0.0
  0
LINE
  5
B6
330
1F
100
AcDbEntity
  8
0
  6
Continuous
 62
     7
370
     0
100
AcDbLine
 10
4.0975473316
 20
6.4503000045
 30
0.0
 11
4.0184133657
 21
6.4503000045
 31
0.0
  0
LINE
  5
B7
330
1F
100
AcDbEntity
  8
0
  6
Continuous
 62
     7
370
     0
100
AcDbLine
 10
4.0975473316
 20
6.4912449048
 30
0.0
 11
4.0975473316
 21
6.4503000045
 31
0.0
  0
LINE
  5
B8
330
1F
100
AcDbEntity
  8
0
  6
Continuous
 62
     7
370
     0
100
AcDbLine
 10
4.0184133657
 20
6.4912449048
 30
0.0
 11
4.0975473316
 21
6.4912449048
 31
0.0
  0
LINE
  5
B9
330
1F
100
AcDbEntity
  8
0
  6
Continuous
 62
     7
370
     0
100
AcDbLine
 10
4.0184133657
 20
6.570378724
 30
0.0
 11
4.0184133657
 21
6.4912449048
 31
0.0
  0
LINE
  5
BA
330
1F
100
AcDbEntity
  8
0
  6
Continuous
 62
     7
370
     0
100
AcDbLine
 10
3.9774686121
 20
6.570378724
 30
0.0
 11
4.0184133657
 21
6.570378724
 31
0.0
  0
LINE
  5
BB
330
1F
100
AcDbEntity
  8
0
  6
Continuous
 62
     7
370
     0
100
AcDbLine
 10
3.9774686121
 20
6.4912449048
 30
0.0
 11
3.9774686121
 21
6.570378724
 31
0.0
  0
LINE
  5
BC
330
1F
100
AcDbEntity
  8
0
  6
Continuous
 62
     7
370
     0
100
AcDbLine
 10
3.8983346462
 20
6.4912449048
 30
0.0
 11
3.9774686121
 21
6.4912449048
 31
0.0
  0
CIRCLE
  5
BD
330
1F
100
AcDbEntity
  8
0
  6
Continuous
 62
     7
370
     0
100
AcDbCircle
 10
3.9979409898
 20
6.4707724284
 30
0.0
 40
0.1633858267716537
  0
LINE
  5
BE
330
1F
100
AcDbEntity
  8
0
  6
Continuous
 62
     7
370
     0
100
AcDbLine
 10
4.0081771773
 20
6.4605361929
 30
0.0
 11
4.0184133657
 21
6.4503000045
 31
0.0
  0
LINE
  5
BF
330
1F
100
AcDbEntity
  8
0
  6
Continuous
 62
     7
370
     0
100
AcDbLine
 10
4.0184133657
 20
6.3711661853
 30
0.0
 11
4.0081771773
 21
6.4605361929
 31
0.0
  0
LINE
  5
C0
330
1F
100
AcDbEntity
  8
0
  6
Continuous
 62
     7
370
     0
100
AcDbLine
 10
4.0081771773
 20
6.4605361929
 30
0.0
 11
3.9877048005
 21
6.4605361929
 31
0.0
  0
LINE
  5
C1
330
1F
100
AcDbEntity
  8
0
  6
Continuous
 62
     7
370
     0
100
AcDbLine
 10
3.9774686121
 20
6.3711661853
 30
0.0
 11
3.9877048005
 21
6.4605361929
 31
0.0
  0
LINE
  5
C2
330
1F
100
AcDbEntity
  8
0
  6
Continuous
 62
     7
370
     0
100
AcDbLine
 10
3.9774686121
 20
6.4503000045
 30
0.0
 11
3.9877048005
 21
6.4605361929
 31
0.0
  0
LINE
  5
C3
330
1F
100
AcDbEntity
  8
0
  6
Continuous
 62
     7
370
     0
100
AcDbLine
 10
4.0975473316
 20
6.4912449048
 30
0.0
 11
4.0081771773
 21
6.4810087164
 31
0.0
  0
LINE
  5
C4
330
1F
100
AcDbEntity
  8
0
  6
Continuous
 62
     7
370
     0
100
AcDbLine
 10
4.0184133657
 20
6.4912449048
 30
0.0
 11
4.0081771773
 21
6.4810087164
 31
0.0
  0
LINE
  5
C5
330
1F
100
AcDbEntity
  8
0
  6
Continuous
 62
     7
370
     0
100
AcDbLine
 10
4.0081771773
 20
6.4810087164
 30
0.0
 11
4.0081771773
 21
6.4605361929
 31
0.0
  0
LINE
  5
C6
330
1F
100
AcDbEntity
  8
0
  6
Continuous
 62
     7
370
     0
100
AcDbLine
 10
4.0975473316
 20
6.4503000045
 30
0.0
 11
4.0081771773
 21
6.4605361929
 31
0.0
  0
LINE
  5
C7
330
1F
100
AcDbEntity
  8
0
  6
Continuous
 62
     7
370
     0
100
AcDbLine
 10
3.9877048005
 20
6.4810087164
 30
0.0
 11
3.9774686121
 21
6.4912449048
 31
0.0
  0
LINE
  5
C8
330
1F
100
AcDbEntity
  8
0
  6
Continuous
 62
     7
370
     0
100
AcDbLine
 10
3.9774686121
 20
6.570378724
 30
0.0
 11
3.9877048005
 21
6.4810087164
 31
0.0
  0
LINE
  5
C9
330
1F
100
AcDbEntity
  8
0
  6
Continuous
 62
     7
370
     0
100
AcDbLine
 10
3.9877048005
 20
6.4810087164
 30
0.0
 11
4.0081771773
 21
6.4810087164
 31
0.0
  0
LINE
  5
CA
330
1F
100
AcDbEntity
  8
0
  6
Continuous
 62
     7
370
     0
100
AcDbLine
 10
4.0184133657
 20
6.570378724
 30
0.0
 11
4.0081771773
 21
6.4810087164
 31
0.0
  0
LINE
  5
CB
330
1F
100
AcDbEntity
  8
0
  6
Continuous
 62
     7
370
     0
100
AcDbLine
 10
3.9877048005
 20
6.4605361929
 30
0.0
 11
3.9877048005
 21
6.4810087164
 31
0.0
  0
LINE
  5
CC
330
1F
100
AcDbEntity
  8
0
  6
Continuous
 62
     7
370
     0
100
AcDbLine
 10
3.8983346462
 20
6.4503000045
 30
0.0
 11
3.9877048005
 21
6.4605361929
 31
0.0
  0
LINE
  5
CD
330
1F
100
AcDbEntity
  8
0
  6
Continuous
 62
     7
370
     0
100
AcDbLine
 10
3.8983346462
 20
6.4912449048
 30
0.0
 11
3.9877048005
 21
6.4810087164
 31
0.0
  0
LINE
  5
CE
330
1F
100
AcDbEntity
  8
0
  6
Continuous
 62
     7
370
     0
100
AcDbLine
 10
3.8983346462
 20
10.5002999519
 30
0.0
 11
3.8983346462
 21
10.5412448522
 31
0.0
  0
LINE
  5
CF
330
1F
100
AcDbEntity
  8
0
  6
Continuous
 62
     7
370
     0
100
AcDbLine
 10
3.9774686121
 20
10.5002999519
 30
0.0
 11
3.8983346462
 21
10.5002999519
 31
0.0
  0
LINE
  5
D0
330
1F
100
AcDbEntity
  8
0
  6
Continuous
 62
     7
370
     0
100
AcDbLine
 10
3.9774686121
 20
10.4211661327
 30
0.0
 11
3.9774686121
 21
10.5002999519
 31
0.0
  0
LINE
  5
D1
330
1F
100
AcDbEntity
  8
0
  6
Continuous
 62
     7
370
     0
100
AcDbLine
 10
4.0184133657
 20
10.4211661327
 30
0.0
 11
3.9774686121
 21
10.4211661327
 31
0.0
  0
LINE
  5
D2
330
1F
100
AcDbEntity
  8
0
  6
Continuous
 62
     7
370
     0
100
AcDbLine
 10
4.0184133657
 20
10.5002999519
 30
0.0
 11
4.0184133657
 21
10.4211661327
 31
0.0
  0
LINE
  5
D3
330
1F
100
AcDbEntity
  8
0
  6
Continuous
 62
     7
370
     0
100
AcDbLine
 10
4.0975473316
 20
10.5002999519
 30
0.0
 11
4.0184133657
 21
10.5002999519
 31
0.0
  0
LINE
  5
D4
330
1F
100
AcDbEntity
  8
0
  6
Continuous
 62
     7
370
     0
100
AcDbLine
 10
4.0975473316
 20
10.5412448522
 30
0.0
 11
4.0975473316
 21
10.5002999519
 31
0.0
  0
LINE
  5
D5
330
1F
100
AcDbEntity
  8
0
  6
Continuous
 62
     7
370
     0
100
AcDbLine
 10
4.0184133657
 20
10.5412448522
 30
0.0
 11
4.0975473316
 21
10.5412448522
 31
0.0
  0
LINE
  5
D6
330
1F
100
AcDbEntity
  8
0
  6
Continuous
 62
     7
370
     0
100
AcDbLine
 10
4.0184133657
 20
10.6203786714
 30
0.0
 11
4.0184133657
 21
10.5412448522
 31
0.0
  0
LINE
  5
D7
330
1F
100
AcDbEntity
  8
0
  6
Continuous
 62
     7
370
     0
100
AcDbLine
 10
3.9774686121
 20
10.6203786714
 30
0.0
 11
4.0184133657
 21
10.6203786714
 31
0.0
  0
LINE
  5
D8
330
1F
100
AcDbEntity
  8
0
  6
Continuous
 62
     7
370
     0
100
AcDbLine
 10
3.9774686121
 20
10.5412448522
 30
0.0
 11
3.9774686121
 21
10.6203786714
 31
0.0
  0
LINE
  5
D9
330
1F
100
AcDbEntity
  8
0
  6
Continuous
 62
     7
370
     0
100
AcDbLine
 10
3.8983346462
 20
10.5412448522
 30
0.0
 11
3.9774686121
 21
10.5412448522
 31
0.0
  0
CIRCLE
  5
DA
330
1F
100
AcDbEntity
  8
0
  6
Continuous
 62
     7
370
     0
100
AcDbCircle
 10
3.9979409898
 20
10.5207724284
 30
0.0
 40
0.1633858267716537
  0
LINE
  5
DB
330
1F
100
AcDbEntity
  8
0
  6
Continuous
 62
     7
370
     0
100
AcDbLine
 10
4.0081771773
 20
10.5105361403
 30
0.0
 11
3.9877048005
 21
10.5105361403
 31
0.0
  0
LINE
  5
DC
330
1F
100
AcDbEntity
  8
0
  6
Continuous
 62
     7
370
     0
100
AcDbLine
 10
4.0184133657
 20
10.4211661327
 30
0.0
 11
4.0081771773
 21
10.5105361403
 31
0.0
  0
LINE
  5
DD
330
1F
100
AcDbEntity
  8
0
  6
Continuous
 62
     7
370
     0
100
AcDbLine
 10
3.9774686121
 20
10.4211661327
 30
0.0
 11
3.9877048005
 21
10.5105361403
 31
0.0
  0
LINE
  5
DE
330
1F
100
AcDbEntity
  8
0
  6
Continuous
 62
     7
370
     0
100
AcDbLine
 10
4.0081771773
 20
10.5105361403
 30
0.0
 11
4.0184133657
 21
10.5002999519
 31
0.0
  0
LINE
  5
DF
330
1F
100
AcDbEntity
  8
0
  6
Continuous
 62
     7
370
     0
100
AcDbLine
 10
3.9774686121
 20
10.5002999519
 30
0.0
 11
3.9877048005
 21
10.5105361403
 31
0.0
  0
LINE
  5
E0
330
1F
100
AcDbEntity
  8
0
  6
Continuous
 62
     7
370
     0
100
AcDbLine
 10
3.9877048005
 20
10.5310086638
 30
0.0
 11
3.9774686121
 21
10.5412448522
 31
0.0
  0
LINE
  5
E1
330
1F
100
AcDbEntity
  8
0
  6
Continuous
 62
     7
370
     0
100
AcDbLine
 10
3.8983346462
 20
10.5412448522
 30
0.0
 11
3.9877048005
 21
10.5310086638
 31
0.0
  0
LINE
  5
E2
330
1F
100
AcDbEntity
  8
0
  6
Continuous
 62
     7
370
     0
100
AcDbLine
 10
4.0975473316
 20
10.5412448522
 30
0.0
 11
4.0081771773
 21
10.5310086638
 31
0.0
  0
LINE
  5
E3
330
1F
100
AcDbEntity
  8
0
  6
Continuous
 62
     7
370
     0
100
AcDbLine
 10
4.0184133657
 20
10.5412448522
 30
0.0
 11
4.0081771773
 21
10.5310086638
 31
0.0
  0
LINE
  5
E4
330
1F
100
AcDbEntity
  8
0
  6
Continuous
 62
     7
370
     0
100
AcDbLine
 10
4.0975473316
 20
10.5002999519
 30
0.0
 11
4.0081771773
 21
10.5105361403
 31
0.0
  0
LINE
  5
E5
330
1F
100
AcDbEntity
  8
0
  6
Continuous
 62
     7
370
     0
100
AcDbLine
 10
3.9877048005
 20
10.5105361403
 30
0.0
 11
3.9877048005
 21
10.5310086638
 31
0.0
  0
LINE
  5
E6
330
1F
100
AcDbEntity
  8
0
  6
Continuous
 62
     7
370
     0
100
AcDbLine
 10
3.8983346462
 20
10.5002999519
 30
0.0
 11
3.9877048005
 21
10.5105361403
 31
0.0
  0
LINE
  5
E7
330
1F
100
AcDbEntity
  8
0
  6
Continuous
 62
     7
370
     0
100
AcDbLine
 10
3.9877048005
 20
10.5310086638
 30
0.0
 11
4.0081771773
 21
10.5310086638
 31
0.0
  0
LINE
  5
E8
330
1F
100
AcDbEntity
  8
0
  6
Continuous
 62
     7
370
     0
100
AcDbLine
 10
3.9774686121
 20
10.6203786714
 30
0.0
 11
3.9877048005
 21
10.5310086638
 31
0.0
  0
LINE
  5
E9
330
1F
100
AcDbEntity
  8
0
  6
Continuous
 62
     7
370
     0
100
AcDbLine
 10
4.0184133657
 20
10.6203786714
 30
0.0
 11
4.0081771773
 21
10.5310086638
 31
0.0
  0
LINE
  5
EA
330
1F
100
AcDbEntity
  8
0
  6
Continuous
 62
     7
370
     0
100
AcDbLine
 10
4.0081771773
 20
10.5310086638
 30
0.0
 11
4.0081771773
 21
10.5105361403
 31
0.0
  0
LINE
  5
EB
330
1F
100
AcDbEntity
  8
0
  6
Continuous
 62
     7
370
     0
100
AcDbLine
 10
7.4696374302
 20
10.1677724733
 30
0.0
 11
7.5369409594
 21
10.1677724733
 31
0.0
  0
LINE
  5
EC
330
1F
100
AcDbEntity
  8
0
  6
Continuous
 62
     7
370
     0
100
AcDbLine
 10
7.4189409226
 20
10.1677724733
 30
0.0
 11
7.4696374302
 21
10.1677724733
 31
0.0
  0
LINE
  5
ED
330
1F
100
AcDbEntity
  8
0
  6
Continuous
 62
     7
370
     0
100
AcDbLine
 10
7.4696374302
 20
6.8237723835
 30
0.0
 11
7.5369409594
 21
6.8237723835
 31
0.0
  0
LINE
  5
EE
330
1F
100
AcDbEntity
  8
0
  6
Continuous
 62
     7
370
     0
100
AcDbLine
 10
7.4189409226
 20
6.8237723835
 30
0.0
 11
7.4696374302
 21
6.8237723835
 31
0.0
  0
ARC
  5
EF
330
1F
100
AcDbEntity
  8
0
  6
Continuous
 62
     7
370
     0
100
AcDbCircle
 10
3.9979409898
 20
6.4707724284
 30
0.0
 40
0.1457627113787665
100
AcDbArc
 50
285.1098312028
 51
156.0604996664
  0
ARC
  5
F0
330
1F
100
AcDbEntity
  8
0
  6
Continuous
 62
     7
370
     0
100
AcDbCircle
 10
7.0679409898
 20
10.5207724284
 30
0.0
 40
0.1457627113787673
100
AcDbArc
 50
105.1098312028
 51
336.0604996664
  0
ARC
  5
F1
330
1F
100
AcDbEntity
  8
0
  6
Continuous
 62
     7
370
     0
100
AcDbCircle
 10
7.0679409898
 20
6.4707724284
 30
0.0
 40
0.1497778578475907
100
AcDbArc
 50
27.1928757643
 51
249.975679821
  0
ARC
  5
F2
330
1F
100
AcDbEntity
  8
0
  6
Continuous
 62
     7
370
     0
100
AcDbCircle
 10
3.9979409898
 20
10.5207724284
 30
0.0
 40
0.149777857847591
100
AcDbArc
 50
207.1928757643
 51
69.975679821
  0
LINE
  5
F3
330
1F
100
AcDbEntity
  8
0
  6
Continuous
 62
     7
370
     0
100
AcDbLine
 10
4.7479409982
 20
9.7707723928
 30
0.0
 11
4.7479409982
 21
7.2207724639
 31
0.0
  0
LINE
  5
F4
330
1F
100
AcDbEntity
  8
0
  6
Continuous
 62
     7
370
     0
100
AcDbLine
 10
4.7479409982
 20
7.2207724639
 30
0.0
 11
6.3179409814
 21
7.2207724639
 31
0.0
  0
LINE
  5
F5
330
1F
100
AcDbEntity
  8
0
  6
Continuous
 62
     7
370
     0
100
AcDbLine
 10
6.3179409814
 20
7.2207724639
 30
0.0
 11
6.3179409814
 21
9.7707723928
 31
0.0
  0
LINE
  5
F6
330
1F
100
AcDbEntity
  8
0
  6
Continuous
 62
     7
370
     0
100
AcDbLine
 10
6.3179409814
 20
9.7707723928
 30
0.0
 11
4.7479409982
 21
9.7707723928
 31
0.0
  0
ARC
  5
F7
330
1F
100
AcDbEntity
  8
0
  6
Continuous
 62
     7
370
     0
100
AcDbCircle
 10
7.0689409898
 20
6.4622724284
 30
0.0
 40
0.2340000000000009
100
AcDbArc
 50
270.0
 51
0.0
  0
LINE
  5
F8
330
1F
100
AcDbEntity
  8
0
  6
Continuous
 62
     7
370
     0
100
AcDbLine
 10
7.0689409525
 20
6.2282724094
 30
0.0
 11
3.9969410271
 21
6.2282724094
 31
0.0
  0
LINE
  5
F9
330
1F
100
AcDbEntity
  8
0
  6
Continuous
 62
     7
370
     0
100
AcDbLine
 10
7.2965616163
 20
9.2407724087
 30
0.0
 11
7.2965616163
 21
9.8607724731
 31
0.0
  0
LINE
  5
FA
330
1F
100
AcDbEntity
  8
0
  6
Continuous
 62
     7
370
     0
100
AcDbLine
 10
7.2943880414
 20
9.2407724087
 30
0.0
 11
7.2943880414
 21
9.1557724307
 31
0.0
  0
LINE
  5
FB
330
1F
100
AcDbEntity
  8
0
  6
Continuous
 62
     7
370
     0
100
AcDbLine
 10
7.2965616163
 20
8.5357724304
 30
0.0
 11
7.2965616163
 21
9.1557724307
 31
0.0
  0
LINE
  5
FC
330
1F
100
AcDbEntity
  8
0
  6
Continuous
 62
     7
370
     0
100
AcDbLine
 10
7.2943880414
 20
8.5357724304
 30
0.0
 11
7.2943880414
 21
8.4507724295
 31
0.0
  0
LINE
  5
FD
330
1F
100
AcDbEntity
  8
0
  6
Continuous
 62
     7
370
     0
100
AcDbLine
 10
7.2965616163
 20
7.8307723972
 30
0.0
 11
7.2965616163
 21
8.4507724295
 31
0.0
  0
LINE
  5
FE
330
1F
100
AcDbEntity
  8
0
  6
Continuous
 62
     7
370
     0
100
AcDbLine
 10
7.2943880414
 20
7.8307723972
 30
0.0
 11
7.2943880414
 21
7.7457724191
 31
0.0
  0
LINE
  5
FF
330
1F
100
AcDbEntity
  8
0
  6
Continuous
 62
     7
370
     0
100
AcDbLine
 10
7.2965616163
 20
7.1257724281
 30
0.0
 11
7.2965616163
 21
7.7457724191
 31
0.0
  0
LINE
  5
100
330
1F
100
AcDbEntity
  8
0
  6
Continuous
 62
     7
370
     0
100
AcDbLine
 10
7.2943880414
 20
7.1257724281
 30
0.0
 11
7.2943880414
 21
7.0457724056
 31
0.0
  0
LINE
  5
101
330
1F
100
AcDbEntity
  8
0
  6
Continuous
 62
     7
370
     0
100
AcDbLine
 10
7.3029409559
 20
7.0457724056
 30
0.0
 11
7.3029409559
 21
6.4622724129
 31
0.0
  0
LINE
  5
102
330
1F
100
AcDbEntity
  8
0
  6
Continuous
 62
     7
370
     0
100
AcDbLine
 10
7.3029409559
 20
10.5292724439
 30
0.0
 11
7.3029409559
 21
9.9457724512
 31
0.0
  0
LINE
  5
103
330
1F
100
AcDbEntity
  8
0
  6
Continuous
 62
     7
370
     0
100
AcDbLine
 10
7.2943880414
 20
9.9457724512
 30
0.0
 11
7.2943880414
 21
9.8607724731
 31
0.0
  0
ARC
  5
104
330
1F
100
AcDbEntity
  8
0
  6
Continuous
 62
     7
370
     0
100
AcDbCircle
 10
3.9969409898
 20
6.4622724284
 30
0.0
 40
0.2340000000000009
100
AcDbArc
 50
180.0
 51
270.0
  0
LINE
  5
105
330
1F
100
AcDbEntity
  8
0
  6
Continuous
 62
     7
370
     0
100
AcDbLine
 10
3.7629410236
 20
6.4622724129
 30
0.0
 11
3.7629410236
 21
10.5292724439
 31
0.0
  0
ARC
  5
106
330
1F
100
AcDbEntity
  8
0
  6
Continuous
 62
     7
370
     0
100
AcDbCircle
 10
7.0689409898
 20
10.5292724284
 30
0.0
 40
0.234
100
AcDbArc
 50
0.0
 51
90.0
  0
LINE
  5
107
330
1F
100
AcDbEntity
  8
0
  6
Continuous
 62
     7
370
     0
100
AcDbLine
 10
3.9969410271
 20
10.7632724473
 30
0.0
 11
7.0689409525
 21
10.7632724473
 31
0.0
  0
ARC
  5
108
330
1F
100
AcDbEntity
  8
0
  6
Continuous
 62
     7
370
     0
100
AcDbCircle
 10
3.9969409898
 20
10.5292724284
 30
0.0
 40
0.234
100
AcDbArc
 50
90.0
 51
180.0
  0
LINE
  5
109
330
1F
100
AcDbEntity
  8
0
  6
Continuous
 62
     7
370
     0
100
AcDbLine
 10
7.2943880414
 20
7.0457724056
 30
0.0
 11
7.5828182028
 21
7.0457724056
 31
0.0
  0
LINE
  5
10A
330
1F
100
AcDbEntity
  8
0
  6
Continuous
 62
     7
370
     0
100
AcDbLine
 10
7.2943880414
 20
7.1257724281
 30
0.0
 11
7.5828182028
 21
7.1257724281
 31
0.0
  0
LINE
  5
10B
330
1F
100
AcDbEntity
  8
0
  6
Continuous
 62
     7
370
     0
100
AcDbLine
 10
7.5828182028
 20
7.1257724281
 30
0.0
 11
7.5828182028
 21
7.0457724056
 31
0.0
  0
LINE
  5
10C
330
1F
100
AcDbEntity
  8
0
  6
Continuous
 62
     7
370
     0
100
AcDbLine
 10
7.2943880414
 20
7.8307723972
 30
0.0
 11
7.5828182028
 21
7.8307723972
 31
0.0
  0
LINE
  5
10D
330
1F
100
AcDbEntity
  8
0
  6
Continuous
 62
     7
370
     0
100
AcDbLine
 10
7.5828182028
 20
7.8307723972
 30
0.0
 11
7.5828182028
 21
7.7457724191
 31
0.0
  0
LINE
  5
10E
330
1F
100
AcDbEntity
  8
0
  6
Continuous
 62
     7
370
     0
100
AcDbLine
 10
7.2943880414
 20
7.7457724191
 30
0.0
 11
7.5828182028
 21
7.7457724191
 31
0.0
  0
LINE
  5
10F
330
1F
100
AcDbEntity
  8
0
  6
Continuous
 62
     7
370
     0
100
AcDbLine
 10
7.2943880414
 20
8.5357724304
 30
0.0
 11
7.5828182028
 21
8.5357724304
 31
0.0
  0
LINE
  5
110
330
1F
100
AcDbEntity
  8
0
  6
Continuous
 62
     7
370
     0
100
AcDbLine
 10
7.5828182028
 20
8.5357724304
 30
0.0
 11
7.5828182028
 21
8.4507724295
 31
0.0
  0
LINE
  5
111
330
1F
100
AcDbEntity
  8
0
  6
Continuous
 62
     7
370
     0
100
AcDbLine
 10
7.2943880414
 20
8.4507724295
 30
0.0
 11
7.5828182028
 21
8.4507724295
 31
0.0
  0
LINE
  5
112
330
1F
100
AcDbEntity
  8
0
  6
Continuous
 62
     7
370
     0
100
AcDbLine
 10
7.2943880414
 20
9.2407724087
 30
0.0
 11
7.5828182028
 21
9.2407724087
 31
0.0
  0
LINE
  5
113
330
1F
100
AcDbEntity
  8
0
  6
Continuous
 62
     7
370
     0
100
AcDbLine
 10
7.5828182028
 20
9.2407724087
 30
0.0
 11
7.5828182028
 21
9.1557724307
 31
0.0
  0
LINE
  5
114
330
1F
100
AcDbEntity
  8
0
  6
Continuous
 62
     7
370
     0
100
AcDbLine
 10
7.2943880414
 20
9.1557724307
 30
0.0
 11
7.5828182028
 21
9.1557724307
 31
0.0
  0
LINE
  5
115
330
1F
100
AcDbEntity
  8
0
  6
Continuous
 62
     7
370
     0
100
AcDbLine
 10
7.2943880414
 20
9.9457724512
 30
0.0
 11
7.5828182028
 21
9.9457724512
 31
0.0
  0
LINE
  5
116
330
1F
100
AcDbEntity
  8
0
  6
Continuous
 62
     7
370
     0
100
AcDbLine
 10
7.5828182028
 20
9.9457724512
 30
0.0
 11
7.5828182028
 21
9.8607724731
 31
0.0
  0
LINE
  5
117
330
1F
100
AcDbEntity
  8
0
  6
Continuous
 62
     7
370
     0
100
AcDbLine
 10
7.2943880414
 20
9.8607724731
 30
0.0
 11
7.5828182028
 21
9.8607724731
 31
0.0
  0
LINE
  5
118
330
1F
100
AcDbEntity
  8
0
  6
Continuous
 62
     7
370
     0
100
AcDbLine
 10
7.6354410082
 20
7.2657724308
 30
0.0
 11
7.6354410082
 21
9.725772426
 31
0.0
  0
LINE
  5
119
330
1F
100
AcDbEntity
  8
0
  6
Continuous
 62
     7
370
     0
100
AcDbLine
 10
7.6354410082
 20
9.725772426
 30
0.0
 11
7.6404409638
 21
9.725772426
 31
0.0
  0
LINE
  5
11A
330
1F
100
AcDbEntity
  8
0
  6
Continuous
 62
     7
370
     0
100
AcDbLine
 10
7.6354410082
 20
7.2657724308
 30
0.0
 11
7.6404409638
 21
7.2657724308
 31
0.0
  0
LINE
  5
11B
330
1F
100
AcDbEntity
  8
0
  6
Continuous
 62
     7
370
     0
100
AcDbLine
 10
7.5828182028
 20
9.9457724512
 30
0.0
 11
7.6404409638
 21
9.9457724512
 31
0.0
  0
LINE
  5
11C
330
1F
100
AcDbEntity
  8
0
  6
Continuous
 62
     7
370
     0
100
AcDbLine
 10
7.5828182028
 20
7.0457724056
 30
0.0
 11
7.6404409638
 21
7.0457724056
 31
0.0
  0
LINE
  5
11D
330
1F
100
AcDbEntity
  8
0
  6
Continuous
 62
     7
370
     0
100
AcDbLine
 10
7.3154409182
 20
9.9707723757
 30
0.0
 11
7.3154409182
 21
10.1607724475
 31
0.0
  0
LINE
  5
11E
330
1F
100
AcDbEntity
  8
0
  6
Continuous
 62
     7
370
     0
100
AcDbLine
 10
7.6404409638
 20
10.1607724475
 30
0.0
 11
7.3154409182
 21
10.1607724475
 31
0.0
  0
LINE
  5
11F
330
1F
100
AcDbEntity
  8
0
  6
Continuous
 62
     7
370
     0
100
AcDbLine
 10
7.6404409638
 20
9.9707723757
 30
0.0
 11
7.3154409182
 21
9.9707723757
 31
0.0
  0
LINE
  5
120
330
1F
100
AcDbEntity
  8
0
  6
Continuous
 62
     7
370
     0
100
AcDbLine
 10
7.3154409182
 20
6.8307724093
 30
0.0
 11
7.3154409182
 21
7.020772481
 31
0.0
  0
LINE
  5
121
330
1F
100
AcDbEntity
  8
0
  6
Continuous
 62
     7
370
     0
100
AcDbLine
 10
7.6404409638
 20
7.020772481
 30
0.0
 11
7.3154409182
 21
7.020772481
 31
0.0
  0
LINE
  5
122
330
1F
100
AcDbEntity
  8
0
  6
Continuous
 62
     7
370
     0
100
AcDbLine
 10
7.6404409638
 20
6.8307724093
 30
0.0
 11
7.3154409182
 21
6.8307724093
 31
0.0
  0
LINE
  5
123
330
1F
100
AcDbEntity
  8
0
  6
Continuous
 62
     7
370
     0
100
AcDbLine
 10
7.3029409559
 20
6.4622724129
 30
0.0
 11
7.3029409559
 21
6.8307724093
 31
0.0
  0
ARC
  5
124
330
1F
100
AcDbEntity
  8
0
  6
Continuous
 62
     7
370
     0
100
AcDbCircle
 10
7.0689409898
 20
6.4622724284
 30
0.0
 40
0.2340000000000009
100
AcDbArc
 50
270.0
 51
0.0
  0
LINE
  5
125
330
1F
100
AcDbEntity
  8
0
  6
Continuous
 62
     7
370
     0
100
AcDbLine
 10
3.9969410271
 20
6.2282724094
 30
0.0
 11
7.0689409525
 21
6.2282724094
 31
0.0
  0
ARC
  5
126
330
1F
100
AcDbEntity
  8
0
  6
Continuous
 62
     7
370
     0
100
AcDbCircle
 10
3.9969409898
 20
6.4622724284
 30
0.0
 40
0.2340000000000009
100
AcDbArc
 50
180.0
 51
270.0
  0
LINE
  5
127
330
1F
100
AcDbEntity
  8
0
  6
Continuous
 62
     7
370
     0
100
AcDbLine
 10
3.7629410236
 20
10.5292724439
 30
0.0
 11
3.7629410236
 21
6.4622724129
 31
0.0
  0
ARC
  5
128
330
1F
100
AcDbEntity
  8
0
  6
Continuous
 62
     7
370
     0
100
AcDbCircle
 10
3.9969409898
 20
10.5292724284
 30
0.0
 40
0.2340000000000018
100
AcDbArc
 50
90.0
 51
180.0
  0
LINE
  5
129
330
1F
100
AcDbEntity
  8
0
  6
Continuous
 62
     7
370
     0
100
AcDbLine
 10
7.0689409525
 20
10.7632724473
 30
0.0
 11
3.9969410271
 21
10.7632724473
 31
0.0
  0
ARC
  5
12A
330
1F
100
AcDbEntity
  8
0
  6
Continuous
 62
     7
370
     0
100
AcDbCircle
 10
7.0689409898
 20
10.5292724284
 30
0.0
 40
0.2340000000000018
100
AcDbArc
 50
0.0
 51
90.0
  0
LINE
  5
12B
330
1F
100
AcDbEntity
  8
0
  6
Continuous
 62
     7
370
     0
100
AcDbLine
 10
7.3029409559
 20
10.1607724475
 30
0.0
 11
7.3029409559
 21
10.5292724439
 31
0.0
  0
LINE
  5
12C
330
1F
100
AcDbEntity
  8
0
  6
Continuous
 62
     7
370
     0
100
AcDbLine
 10
7.3029409559
 20
7.020772481
 30
0.0
 11
7.3029409559
 21
7.0457724056
 31
0.0
  0
LINE
  5
12D
330
1F
100
AcDbEntity
  8
0
  6
Continuous
 62
     7
370
     0
100
AcDbLine
 10
7.3029409559
 20
9.9457724512
 30
0.0
 11
7.3029409559
 21
9.9707723757
 31
0.0
  0
LINE
  5
12E
330
1F
100
AcDbEntity
  8
0
  6
Continuous
 62
     7
370
     0
100
AcDbLine
 10
7.3154409182
 20
10.1607724475
 30
0.0
 11
7.3029409559
 21
10.1607724475
 31
0.0
  0
LINE
  5
12F
330
1F
100
AcDbEntity
  8
0
  6
Continuous
 62
     7
370
     0
100
AcDbLine
 10
7.3029409559
 20
7.020772481
 30
0.0
 11
7.3154409182
 21
7.020772481
 31
0.0
  0
LINE
  5
130
330
1F
100
AcDbEntity
  8
0
  6
Continuous
 62
     7
370
     0
100
AcDbLine
 10
7.3154409182
 20
6.8307724093
 30
0.0
 11
7.3029409559
 21
6.8307724093
 31
0.0
  0
LINE
  5
131
330
1F
100
AcDbEntity
  8
0
  6
Continuous
 62
     7
370
     0
100
AcDbLine
 10
7.3029409559
 20
9.9707723757
 30
0.0
 11
7.3154409182
 21
9.9707723757
 31
0.0
  0
DIMENSION
  5
132
330
1F
100
AcDbEntity
  8
0
  6
Continuous
 62
     7
370
     0
100
AcDbDimension
  2
*D2
 10
3.4129950724
 20
7.2207724284
 30
0.0
 11
3.4129950724
 21
8.4957724284
 31
0.0
 70
   160
 71
     2
 42
-1.0
  3
SLDDIMSTYLE0
100
AcDbAlignedDimension
 13
4.7479409898
 23
9.7707724284
 33
0.0
 14
4.7479409898
 24
7.2207724284
 34
0.0
 50
90.0
100
AcDbRotatedDimension
  0
DIMENSION
  5
13E
330
1F
100
AcDbEntity
  8
0
  6
Continuous
 62
     7
370
     0
100
AcDbDimension
  2
*D3
 10
6.3179409898
 20
11.0879075488
 30
0.0
 11
5.5329409898
 21
11.0879075488
 31
0.0
 70
   160
 71
     2
 42
-1.0
  3
SLDDIMSTYLE0
100
AcDbAlignedDimension
 13
4.7479409898
 23
9.7707724284
 33
0.0
 14
6.3179409898
 24
9.7707724284
 34
0.0
100
AcDbRotatedDimension
  0
INSERT
  5
14E
102
{ACAD_REACTORS
330
158
102
}
330
1F
100
AcDbEntity
  8
0
  6
Continuous
 62
     7
370
     0
100
AcDbBlockReference
  2
SW_NOTE_1
 10
3.9528819422
 20
5.8811971854
 30
0.0
  0
LEADER
  5
158
330
1F
100
AcDbEntity
  8
0
  6
Continuous
 62
     7
370
     0
100
AcDbLeader
  3
SLDDIMSTYLE1
 73
     2
 76
     3
 10
5.2192608556
 20
7.7526602506
 30
0.0
 10
4.1408819422
 20
5.8811971854
 30
0.0
 10
3.9528819422
 20
5.8811971854
 30
0.0
340
14E
  0
SPLINE
  5
159
330
1F
100
AcDbEntity
  8
0
  6
Continuous
 62
     7
370
     0
100
AcDbSpline
210
0.0
220
0.0
230
1.0
 70
    24
 71
     1
 72
     4
 73
     2
 74
     0
 42
0.00000001
 43
0.00000001
 40
0.0
 40
0.0
 40
1.0
 40
1.0
 10
8.545541982264622
 20
6.307386575452989
 30
0.0
 10
8.54834544654543
 20
6.307386575452989
 30
0.0
  0
SPLINE
  5
15A
330
1F
100
AcDbEntity
  8
0
  6
Continuous
 62
     7
370
     0
100
AcDbSpline
210
0.0
220
0.0
230
1.0
 70
    24
 71
     1
 72
     4
 73
     2
 74
     0
 42
0.00000001
 43
0.00000001
 40
0.0
 40
0.0
 40
1.0
 40
1.0
 10
8.54834544654543
 20
10.68415828127943
 30
0.0
 10
8.545541982264622
 20
10.68415828127943
 30
0.0
  0
SPLINE
  5
15B
330
1F
100
AcDbEntity
  8
0
  6
Continuous
 62
     7
370
     0
100
AcDbSpline
210
0.0
220
0.0
230
1.0
 70
    24
 71
     1
 72
     4
 73
     2
 74
     0
 42
0.00000001
 43
0.00000001
 40
0.0
 40
0.0
 40
1.0
 40
1.0
 10
9.199541975534222
 20
6.823772383453403
 30
0.0
 10
9.199541975534222
 20
6.830772409255174
 30
0.0
  0
SPLINE
  5
15C
330
1F
100
AcDbEntity
  8
0
  6
Continuous
 62
     7
370
     0
100
AcDbSpline
210
0.0
220
0.0
230
1.0
 70
    24
 71
     1
 72
     4
 73
     2
 74
     0
 42
0.00000001
 43
0.00000001
 40
0.0
 40
0.0
 40
1.0
 40
1.0
 10
9.199541975534222
 20
7.020772481024799
 30
0.0
 10
9.199541975534222
 20
7.04577240555687
 30
0.0
  0
SPLINE
  5
15D
330
1F
100
AcDbEntity
  8
0
  6
Continuous
 62
     7
370
     0
100
AcDbSpline
210
0.0
220
0.0
230
1.0
 70
    24
 71
     1
 72
     4
 73
     2
 74
     0
 42
0.00000001
 43
0.00000001
 40
0.0
 40
0.0
 40
1.0
 40
1.0
 10
9.199541975534222
 20
7.265772430764472
 30
0.0
 10
9.199541975534222
 20
9.725772425967941
 30
0.0
  0
SPLINE
  5
15E
330
1F
100
AcDbEntity
  8
0
  6
Continuous
 62
     7
370
     0
100
AcDbSpline
210
0.0
220
0.0
230
1.0
 70
    24
 71
     1
 72
     4
 73
     2
 74
     0
 42
0.00000001
 43
0.00000001
 40
0.0
 40
0.0
 40
1.0
 40
1.0
 10
9.199541975534222
 20
9.945772451175545
 30
0.0
 10
9.199541975534222
 20
9.970772375707616
 30
0.0
  0
SPLINE
  5
15F
330
1F
100
AcDbEntity
  8
0
  6
Continuous
 62
     7
370
     0
100
AcDbSpline
210
0.0
220
0.0
230
1.0
 70
    24
 71
     1
 72
     4
 73
     2
 74
     0
 42
0.00000001
 43
0.00000001
 40
0.0
 40
0.0
 40
1.0
 40
1.0
 10
9.199541975534222
 20
10.16077244747724
 30
0.0
 10
9.199541975534222
 20
10.16777247327901
 30
0.0
  0
SPLINE
  5
160
330
1F
100
AcDbEntity
  8
0
  6
Continuous
 62
     7
370
     0
100
AcDbSpline
210
0.0
220
0.0
230
1.0
 70
    24
 71
     1
 72
     4
 73
     2
 74
     0
 42
0.00000001
 43
0.00000001
 40
0.0
 40
0.0
 40
1.0
 40
1.0
 10
9.08154197534696
 20
10.16777247327901
 30
0.0
 10
9.08154197534696
 20
10.16077244747724
 30
0.0
  0
SPLINE
  5
161
330
1F
100
AcDbEntity
  8
0
  6
Continuous
 62
     7
370
     0
100
AcDbSpline
210
0.0
220
0.0
230
1.0
 70
    24
 71
     1
 72
     4
 73
     2
 74
     0
 42
0.00000001
 43
0.00000001
 40
0.0
 40
0.0
 40
1.0
 40
1.0
 10
9.08154197534696
 20
9.970772375707616
 30
0.0
 10
9.08154197534696
 20
9.945772451175545
 30
0.0
  0
SPLINE
  5
162
330
1F
100
AcDbEntity
  8
0
  6
Continuous
 62
     7
370
     0
100
AcDbSpline
210
0.0
220
0.0
230
1.0
 70
    24
 71
     1
 72
     4
 73
     2
 74
     0
 42
0.00000001
 43
0.00000001
 40
0.0
 40
0.0
 40
1.0
 40
1.0
 10
9.08154197534696
 20
7.04577240555687
 30
0.0
 10
9.08154197534696
 20
7.020772481024799
 30
0.0
  0
SPLINE
  5
163
330
1F
100
AcDbEntity
  8
0
  6
Continuous
 62
     7
370
     0
100
AcDbSpline
210
0.0
220
0.0
230
1.0
 70
    24
 71
     1
 72
     4
 73
     2
 74
     0
 42
0.00000001
 43
0.00000001
 40
0.0
 40
0.0
 40
1.0
 40
1.0
 10
9.08154197534696
 20
6.830772409255174
 30
0.0
 10
9.08154197534696
 20
6.823772383453403
 30
0.0
  0
SPLINE
  5
164
330
1F
100
AcDbEntity
  8
0
  6
Continuous
 62
     7
370
     0
100
AcDbSpline
210
0.0
220
0.0
230
1.0
 70
    24
 71
     1
 72
     4
 73
     2
 74
     0
 42
0.00000001
 43
0.00000001
 40
0.0
 40
0.0
 40
1.0
 40
1.0
 10
9.30304197989334
 20
9.725772425967941
 30
0.0
 10
9.30304197989334
 20
9.945772451175545
 30
0.0
  0
SPLINE
  5
165
330
1F
100
AcDbEntity
  8
0
  6
Continuous
 62
     7
370
     0
100
AcDbSpline
210
0.0
220
0.0
230
1.0
 70
    24
 71
     1
 72
     4
 73
     2
 74
     0
 42
0.00000001
 43
0.00000001
 40
0.0
 40
0.0
 40
1.0
 40
1.0
 10
9.30304197989334
 20
7.04577240555687
 30
0.0
 10
9.30304197989334
 20
7.265772430764472
 30
0.0
  0
SPLINE
  5
166
330
1F
100
AcDbEntity
  8
0
  6
Continuous
 62
     7
370
     0
100
AcDbSpline
210
0.0
220
0.0
230
1.0
 70
    24
 71
     1
 72
     4
 73
     2
 74
     0
 42
0.00000001
 43
0.00000001
 40
0.0
 40
0.0
 40
1.0
 40
1.0
 10
8.978041970987842
 20
10.16077244747724
 30
0.0
 10
8.978041970987842
 20
9.970772375707616
 30
0.0
  0
SPLINE
  5
167
330
1F
100
AcDbEntity
  8
0
  6
Continuous
 62
     7
370
     0
100
AcDbSpline
210
0.0
220
0.0
230
1.0
 70
    24
 71
     1
 72
     4
 73
     2
 74
     0
 42
0.00000001
 43
0.00000001
 40
0.0
 40
0.0
 40
1.0
 40
1.0
 10
8.978041970987842
 20
7.020772481024799
 30
0.0
 10
8.978041970987842
 20
6.830772409255174
 30
0.0
  0
SPLINE
  5
168
330
1F
100
AcDbEntity
  8
0
  6
Continuous
 62
     7
370
     0
100
AcDbSpline
210
0.0
220
0.0
230
1.0
 70
    24
 71
     1
 72
     4
 73
     2
 74
     0
 42
0.00000001
 43
0.00000001
 40
0.0
 40
0.0
 40
1.0
 40
1.0
 10
10.73754195342724
 20
6.707949734779858
 30
0.0
 10
10.77554196778116
 20
6.707949734779858
 30
0.0
  0
SPLINE
  5
169
330
1F
100
AcDbEntity
  8
0
  6
Continuous
 62
     7
370
     0
100
AcDbSpline
210
0.0
220
0.0
230
1.0
 70
    24
 71
     1
 72
     4
 73
     2
 74
     0
 42
0.00000001
 43
0.00000001
 40
0.0
 40
0.0
 40
1.0
 40
1.0
 10
10.77554196778116
 20
6.845949593927042
 30
0.0
 10
10.73754195342724
 20
6.845949593927042
 30
0.0
  0
SPLINE
  5
16A
330
1F
100
AcDbEntity
  8
0
  6
Continuous
 62
     7
370
     0
100
AcDbSpline
210
0.0
220
0.0
230
1.0
 70
    24
 71
     1
 72
     4
 73
     2
 74
     0
 42
0.00000001
 43
0.00000001
 40
0.0
 40
0.0
 40
1.0
 40
1.0
 10
10.73754195342724
 20
10.14559526280537
 30
0.0
 10
10.77554196778116
 20
10.14559526280537
 30
0.0
  0
SPLINE
  5
16B
330
1F
100
AcDbEntity
  8
0
  6
Continuous
 62
     7
370
     0
100
AcDbSpline
210
0.0
220
0.0
230
1.0
 70
    24
 71
     1
 72
     4
 73
     2
 74
     0
 42
0.00000001
 43
0.00000001
 40
0.0
 40
0.0
 40
1.0
 40
1.0
 10
10.77554196778116
 20
10.28359512195256
 30
0.0
 10
10.73754195342724
 20
10.28359512195256
 30
0.0
  0
SPLINE
  5
16C
330
1F
100
AcDbEntity
  8
0
  6
Continuous
 62
     7
370
     0
100
AcDbSpline
210
0.0
220
0.0
230
1.0
 70
    24
 71
     1
 72
     4
 73
     2
 74
     0
 42
0.00000001
 43
0.00000001
 40
0.0
 40
0.0
 40
1.0
 40
1.0
 10
10.77554196778116
 20
10.14559526280537
 30
0.0
 10
10.80554199455163
 20
10.17559514291086
 30
0.0
  0
SPLINE
  5
16D
330
1F
100
AcDbEntity
  8
0
  6
Continuous
 62
     7
370
     0
100
AcDbSpline
210
0.0
220
0.0
230
1.0
 70
    24
 71
     1
 72
     4
 73
     2
 74
     0
 42
0.00000001
 43
0.00000001
 40
0.0
 40
0.0
 40
1.0
 40
1.0
 10
10.80554199455163
 20
10.25359524184707
 30
0.0
 10
10.77554196778116
 20
10.28359512195256
 30
0.0
  0
SPLINE
  5
16E
330
1F
100
AcDbEntity
  8
0
  6
Continuous
 62
     7
370
     0
100
AcDbSpline
210
0.0
220
0.0
230
1.0
 70
    24
 71
     1
 72
     4
 73
     2
 74
     0
 42
0.00000001
 43
0.00000001
 40
0.0
 40
0.0
 40
1.0
 40
1.0
 10
10.77554196778116
 20
6.707949734779858
 30
0.0
 10
10.80554199455163
 20
6.737949614885349
 30
0.0
  0
SPLINE
  5
16F
330
1F
100
AcDbEntity
  8
0
  6
Continuous
 62
     7
370
     0
100
AcDbSpline
210
0.0
220
0.0
230
1.0
 70
    24
 71
     1
 72
     4
 73
     2
 74
     0
 42
0.00000001
 43
0.00000001
 40
0.0
 40
0.0
 40
1.0
 40
1.0
 10
10.80554199455163
 20
6.81594971382155
 30
0.0
 10
10.77554196778116
 20
6.845949593927042
 30
0.0
  0
LINE
  5
170
330
1F
100
AcDbEntity
  8
0
  6
Continuous
 62
     7
370
     0
100
AcDbLine
 10
8.5455419823
 20
6.3073865755
 30
0.0
 11
8.5455419823
 21
6.5653580887
 31
0.0
  0
LINE
  5
171
330
1F
100
AcDbEntity
  8
0
  6
Continuous
 62
     7
370
     0
100
AcDbLine
 10
8.5455419823
 20
10.4261867681
 30
0.0
 11
8.5455419823
 21
10.6841582813
 31
0.0
  0
LINE
  5
172
330
1F
100
AcDbEntity
  8
0
  6
Continuous
 62
     7
370
     0
100
AcDbLine
 10
9.0815419753
 20
6.8237723835
 30
0.0
 11
9.1995419755
 21
6.8237723835
 31
0.0
  0
LINE
  5
173
330
1F
100
AcDbEntity
  8
0
  6
Continuous
 62
     7
370
     0
100
AcDbLine
 10
9.0815419753
 20
10.1677724733
 30
0.0
 11
9.1995419755
 21
10.1677724733
 31
0.0
  0
LINE
  5
174
330
1F
100
AcDbEntity
  8
0
  6
Continuous
 62
     7
370
     0
100
AcDbLine
 10
9.0164169252
 20
7.1257724281
 30
0.0
 11
9.0164169252
 21
7.0457724056
 31
0.0
  0
LINE
  5
175
330
1F
100
AcDbEntity
  8
0
  6
Continuous
 62
     7
370
     0
100
AcDbLine
 10
9.0164169252
 20
7.8307723972
 30
0.0
 11
9.0164169252
 21
7.7457724191
 31
0.0
  0
LINE
  5
176
330
1F
100
AcDbEntity
  8
0
  6
Continuous
 62
     7
370
     0
100
AcDbLine
 10
9.0164169252
 20
8.5357724304
 30
0.0
 11
9.0164169252
 21
8.4507724295
 31
0.0
  0
LINE
  5
177
330
1F
100
AcDbEntity
  8
0
  6
Continuous
 62
     7
370
     0
100
AcDbLine
 10
9.0164169252
 20
9.2407724087
 30
0.0
 11
9.0164169252
 21
9.1557724307
 31
0.0
  0
LINE
  5
178
330
1F
100
AcDbEntity
  8
0
  6
Continuous
 62
     7
370
     0
100
AcDbLine
 10
9.0164169252
 20
9.9457724512
 30
0.0
 11
9.0164169252
 21
9.8607724731
 31
0.0
  0
LINE
  5
179
330
1F
100
AcDbEntity
  8
0
  6
Continuous
 62
     7
370
     0
100
AcDbLine
 10
9.0164169252
 20
9.9457724512
 30
0.0
 11
9.3030419799
 21
9.9457724512
 31
0.0
  0
LINE
  5
17A
330
1F
100
AcDbEntity
  8
0
  6
Continuous
 62
     7
370
     0
100
AcDbLine
 10
9.1005419734
 20
9.725772426
 30
0.0
 11
9.3030419799
 21
9.725772426
 31
0.0
  0
LINE
  5
17B
330
1F
100
AcDbEntity
  8
0
  6
Continuous
 62
     7
370
     0
100
AcDbLine
 10
9.1005419734
 20
7.2657724308
 30
0.0
 11
9.1005419734
 21
9.725772426
 31
0.0
  0
LINE
  5
17C
330
1F
100
AcDbEntity
  8
0
  6
Continuous
 62
     7
370
     0
100
AcDbLine
 10
9.1005419734
 20
7.2657724308
 30
0.0
 11
9.3030419799
 21
7.2657724308
 31
0.0
  0
LINE
  5
17D
330
1F
100
AcDbEntity
  8
0
  6
Continuous
 62
     7
370
     0
100
AcDbLine
 10
9.0164169252
 20
7.0457724056
 30
0.0
 11
9.3030419799
 21
7.0457724056
 31
0.0
  0
LINE
  5
17E
330
1F
100
AcDbEntity
  8
0
  6
Continuous
 62
     7
370
     0
100
AcDbLine
 10
8.650541966
 20
7.1257724281
 30
0.0
 11
8.650541966
 21
7.0457724056
 31
0.0
  0
LINE
  5
17F
330
1F
100
AcDbEntity
  8
0
  6
Continuous
 62
     7
370
     0
100
AcDbLine
 10
8.650541966
 20
7.1257724281
 30
0.0
 11
9.0164169252
 21
7.1257724281
 31
0.0
  0
LINE
  5
180
330
1F
100
AcDbEntity
  8
0
  6
Continuous
 62
     7
370
     0
100
AcDbLine
 10
8.650541966
 20
7.0457724056
 30
0.0
 11
9.0164169252
 21
7.0457724056
 31
0.0
  0
LINE
  5
181
330
1F
100
AcDbEntity
  8
0
  6
Continuous
 62
     7
370
     0
100
AcDbLine
 10
8.7750679708
 20
7.1257724281
 30
0.0
 11
8.7750679708
 21
7.7457724191
 31
0.0
  0
LINE
  5
182
330
1F
100
AcDbEntity
  8
0
  6
Continuous
 62
     7
370
     0
100
AcDbLine
 10
8.7750679708
 20
7.8307723972
 30
0.0
 11
8.7750679708
 21
8.4507724295
 31
0.0
  0
LINE
  5
183
330
1F
100
AcDbEntity
  8
0
  6
Continuous
 62
     7
370
     0
100
AcDbLine
 10
8.650541966
 20
7.8307723972
 30
0.0
 11
8.650541966
 21
7.7457724191
 31
0.0
  0
LINE
  5
184
330
1F
100
AcDbEntity
  8
0
  6
Continuous
 62
     7
370
     0
100
AcDbLine
 10
8.650541966
 20
7.7457724191
 30
0.0
 11
9.0164169252
 21
7.7457724191
 31
0.0
  0
LINE
  5
185
330
1F
100
AcDbEntity
  8
0
  6
Continuous
 62
     7
370
     0
100
AcDbLine
 10
8.650541966
 20
7.8307723972
 30
0.0
 11
9.0164169252
 21
7.8307723972
 31
0.0
  0
LINE
  5
186
330
1F
100
AcDbEntity
  8
0
  6
Continuous
 62
     7
370
     0
100
AcDbLine
 10
8.7750679708
 20
8.5357724304
 30
0.0
 11
8.7750679708
 21
9.1557724307
 31
0.0
  0
LINE
  5
187
330
1F
100
AcDbEntity
  8
0
  6
Continuous
 62
     7
370
     0
100
AcDbLine
 10
8.650541966
 20
8.5357724304
 30
0.0
 11
8.650541966
 21
8.4507724295
 31
0.0
  0
LINE
  5
188
330
1F
100
AcDbEntity
  8
0
  6
Continuous
 62
     7
370
     0
100
AcDbLine
 10
8.650541966
 20
8.5357724304
 30
0.0
 11
9.0164169252
 21
8.5357724304
 31
0.0
  0
LINE
  5
189
330
1F
100
AcDbEntity
  8
0
  6
Continuous
 62
     7
370
     0
100
AcDbLine
 10
8.650541966
 20
8.4507724295
 30
0.0
 11
9.0164169252
 21
8.4507724295
 31
0.0
  0
LINE
  5
18A
330
1F
100
AcDbEntity
  8
0
  6
Continuous
 62
     7
370
     0
100
AcDbLine
 10
8.650541966
 20
9.2407724087
 30
0.0
 11
8.650541966
 21
9.1557724307
 31
0.0
  0
LINE
  5
18B
330
1F
100
AcDbEntity
  8
0
  6
Continuous
 62
     7
370
     0
100
AcDbLine
 10
8.650541966
 20
9.2407724087
 30
0.0
 11
9.0164169252
 21
9.2407724087
 31
0.0
  0
LINE
  5
18C
330
1F
100
AcDbEntity
  8
0
  6
Continuous
 62
     7
370
     0
100
AcDbLine
 10
8.650541966
 20
9.1557724307
 30
0.0
 11
9.0164169252
 21
9.1557724307
 31
0.0
  0
LINE
  5
18D
330
1F
100
AcDbEntity
  8
0
  6
Continuous
 62
     7
370
     0
100
AcDbLine
 10
8.7750679708
 20
9.2407724087
 30
0.0
 11
8.7750679708
 21
9.8607724731
 31
0.0
  0
LINE
  5
18E
330
1F
100
AcDbEntity
  8
0
  6
Continuous
 62
     7
370
     0
100
AcDbLine
 10
8.650541966
 20
9.9457724512
 30
0.0
 11
8.650541966
 21
9.8607724731
 31
0.0
  0
LINE
  5
18F
330
1F
100
AcDbEntity
  8
0
  6
Continuous
 62
     7
370
     0
100
AcDbLine
 10
8.650541966
 20
9.8607724731
 30
0.0
 11
9.0164169252
 21
9.8607724731
 31
0.0
  0
LINE
  5
190
330
1F
100
AcDbEntity
  8
0
  6
Continuous
 62
     7
370
     0
100
AcDbLine
 10
8.650541966
 20
9.9457724512
 30
0.0
 11
9.0164169252
 21
9.9457724512
 31
0.0
  0
LINE
  5
191
330
1F
100
AcDbEntity
  8
0
  6
Continuous
 62
     7
370
     0
100
AcDbLine
 10
8.6369189167
 20
6.2370632145
 30
0.0
 11
9.1405419754
 21
6.2282724094
 31
0.0
  0
LINE
  5
192
330
1F
100
AcDbEntity
  8
0
  6
Continuous
 62
     7
370
     0
100
AcDbLine
 10
9.1405419754
 20
6.4622724129
 30
0.0
 11
9.1405419754
 21
6.2282724094
 31
0.0
  0
LINE
  5
193
330
1F
100
AcDbEntity
  8
0
  6
Continuous
 62
     7
370
     0
100
AcDbLine
 10
9.1405419754
 20
10.5292724439
 30
0.0
 11
9.1405419754
 21
10.1677724733
 31
0.0
  0
LINE
  5
194
330
1F
100
AcDbEntity
  8
0
  6
Continuous
 62
     7
370
     0
100
AcDbLine
 10
9.1405419754
 20
6.8237723835
 30
0.0
 11
9.1405419754
 21
6.4622724129
 31
0.0
  0
LINE
  5
195
330
1F
100
AcDbEntity
  8
0
  6
Continuous
 62
     7
370
     0
100
AcDbLine
 10
8.6369189167
 20
10.7544816422
 30
0.0
 11
9.1405419754
 21
10.7632724473
 31
0.0
  0
LINE
  5
196
330
1F
100
AcDbEntity
  8
0
  6
Continuous
 62
     7
370
     0
100
AcDbLine
 10
9.1405419754
 20
10.7632724473
 30
0.0
 11
9.1405419754
 21
10.5292724439
 31
0.0
  0
ARC
  5
197
330
1F
100
AcDbEntity
  8
0
  6
Continuous
 62
     7
370
     0
100
AcDbCircle
 10
8.6385419754
 20
6.3300490375
 30
0.0
 40
0.0930000000000008
100
AcDbArc
 50
185.3018246339
 51
269.0
  0
SPLINE
  5
198
330
1F
100
AcDbEntity
  8
0
  6
Continuous
 62
     7
370
     0
100
AcDbSpline
210
0.0
220
0.0
230
1.0
 70
     8
 71
     3
 72
     9
 73
     5
 74
     0
 42
0.00000001
 43
0.00000001
 40
0.0
 40
0.0
 40
0.0
 40
0.0
 40
0.5481626223320705
 40
1.0
 40
1.0
 40
1.0
 40
1.0
 10
8.545541982264622
 20
6.539219017304837
 30
0.0
 10
8.545897737482058
 20
6.525629831938146
 30
0.0
 10
8.546546733241609
 20
6.500839405132179
 30
0.0
 10
8.546684862875905
 20
6.47427514052502
 30
0.0
 10
8.546747275007641
 20
6.462272412865245
 30
0.0
  0
LINE
  5
199
330
1F
100
AcDbEntity
  8
0
  6
Continuous
 62
     7
370
     0
100
AcDbLine
 10
8.5455419823
 20
6.5653580887
 30
0.0
 11
8.5455419823
 21
10.4261867681
 31
0.0
  0
SPLINE
  5
19A
330
1F
100
AcDbEntity
  8
0
  6
Continuous
 62
     7
370
     0
100
AcDbSpline
210
0.0
220
0.0
230
1.0
 70
     8
 71
     3
 72
     9
 73
     5
 74
     0
 42
0.00000001
 43
0.00000001
 40
0.0
 40
0.0
 40
0.0
 40
0.0
 40
0.630232609703926
 40
1.0
 40
1.0
 40
1.0
 40
1.0
 10
8.54626969719133
 20
10.52927244386717
 30
0.0
 10
8.546162191825381
 20
10.51459880632768
 30
0.0
 10
8.545991611369384
 20
10.49131591471981
 30
0.0
 10
8.545663359209238
 20
10.46964077269281
 30
0.0
 10
8.545541982264622
 20
10.46162601199119
 30
0.0
  0
ARC
  5
19B
330
1F
100
AcDbEntity
  8
0
  6
Continuous
 62
     7
370
     0
100
AcDbCircle
 10
8.6385419754
 20
10.6614958193
 30
0.0
 40
0.0930000000000022
100
AcDbArc
 50
91.0
 51
176.9707198158
  0
LINE
  5
19C
330
1F
100
AcDbEntity
  8
0
  6
Continuous
 62
     7
370
     0
100
AcDbLine
 10
9.2646670257
 20
10.0157724159
 30
0.0
 11
9.2646670257
 21
10.1157724073
 31
0.0
  0
LINE
  5
19D
330
1F
100
AcDbEntity
  8
0
  6
Continuous
 62
     7
370
     0
100
AcDbLine
 10
9.2646670257
 20
10.1607724475
 30
0.0
 11
8.978041971
 21
10.1607724475
 31
0.0
  0
LINE
  5
19E
330
1F
100
AcDbEntity
  8
0
  6
Continuous
 62
     7
370
     0
100
AcDbLine
 10
9.2646670257
 20
9.9707723757
 30
0.0
 11
8.978041971
 21
9.9707723757
 31
0.0
  0
LINE
  5
19F
330
1F
100
AcDbEntity
  8
0
  6
Continuous
 62
     7
370
     0
100
AcDbLine
 10
9.2646670257
 20
6.8757724494
 30
0.0
 11
9.2646670257
 21
6.9757724409
 31
0.0
  0
LINE
  5
1A0
330
1F
100
AcDbEntity
  8
0
  6
Continuous
 62
     7
370
     0
100
AcDbLine
 10
9.2646670257
 20
6.8307724093
 30
0.0
 11
8.978041971
 21
6.8307724093
 31
0.0
  0
LINE
  5
1A1
330
1F
100
AcDbEntity
  8
0
  6
Continuous
 62
     7
370
     0
100
AcDbLine
 10
9.2646670257
 20
7.020772481
 30
0.0
 11
8.978041971
 21
7.020772481
 31
0.0
  0
LINE
  5
1A2
330
1F
100
AcDbEntity
  8
0
  6
Continuous
 62
     7
370
     0
100
AcDbLine
 10
9.6305419849
 20
10.1157724073
 30
0.0
 11
9.2646670257
 21
10.1157724073
 31
0.0
  0
LINE
  5
1A3
330
1F
100
AcDbEntity
  8
0
  6
Continuous
 62
     7
370
     0
100
AcDbLine
 10
9.6305419849
 20
10.0157724159
 30
0.0
 11
9.6305419849
 21
10.1157724073
 31
0.0
  0
LINE
  5
1A4
330
1F
100
AcDbEntity
  8
0
  6
Continuous
 62
     7
370
     0
100
AcDbLine
 10
9.6305419849
 20
10.0157724159
 30
0.0
 11
9.2646670257
 21
10.0157724159
 31
0.0
  0
LINE
  5
1A5
330
1F
100
AcDbEntity
  8
0
  6
Continuous
 62
     7
370
     0
100
AcDbLine
 10
9.6305419849
 20
6.8757724494
 30
0.0
 11
9.6305419849
 21
6.9757724409
 31
0.0
  0
LINE
  5
1A6
330
1F
100
AcDbEntity
  8
0
  6
Continuous
 62
     7
370
     0
100
AcDbLine
 10
9.6305419849
 20
6.8757724494
 30
0.0
 11
9.2646670257
 21
6.8757724494
 31
0.0
  0
LINE
  5
1A7
330
1F
100
AcDbEntity
  8
0
  6
Continuous
 62
     7
370
     0
100
AcDbLine
 10
9.6305419849
 20
6.9757724409
 30
0.0
 11
9.2646670257
 21
6.9757724409
 31
0.0
  0
LINE
  5
1A8
330
1F
100
AcDbEntity
  8
0
  6
Continuous
 62
     7
370
     0
100
AcDbLine
 10
9.5065419574
 20
10.0157724159
 30
0.0
 11
9.5065419574
 21
9.9707723757
 31
0.0
  0
LINE
  5
1A9
330
1F
100
AcDbEntity
  8
0
  6
Continuous
 62
     7
370
     0
100
AcDbLine
 10
9.2646670257
 20
9.9707723757
 30
0.0
 11
9.5065419574
 21
9.9707723757
 31
0.0
  0
LINE
  5
1AA
330
1F
100
AcDbEntity
  8
0
  6
Continuous
 62
     7
370
     0
100
AcDbLine
 10
9.5065419574
 20
10.1157724073
 30
0.0
 11
9.5065419574
 21
10.1607724475
 31
0.0
  0
LINE
  5
1AB
330
1F
100
AcDbEntity
  8
0
  6
Continuous
 62
     7
370
     0
100
AcDbLine
 10
9.5065419574
 20
10.1607724475
 30
0.0
 11
9.2646670257
 21
10.1607724475
 31
0.0
  0
LINE
  5
1AC
330
1F
100
AcDbEntity
  8
0
  6
Continuous
 62
     7
370
     0
100
AcDbLine
 10
9.5065419574
 20
7.020772481
 30
0.0
 11
9.5065419574
 21
6.9757724409
 31
0.0
  0
LINE
  5
1AD
330
1F
100
AcDbEntity
  8
0
  6
Continuous
 62
     7
370
     0
100
AcDbLine
 10
9.2646670257
 20
7.020772481
 30
0.0
 11
9.5065419574
 21
7.020772481
 31
0.0
  0
LINE
  5
1AE
330
1F
100
AcDbEntity
  8
0
  6
Continuous
 62
     7
370
     0
100
AcDbLine
 10
9.5065419574
 20
6.8307724093
 30
0.0
 11
9.5065419574
 21
6.8757724494
 31
0.0
  0
LINE
  5
1AF
330
1F
100
AcDbEntity
  8
0
  6
Continuous
 62
     7
370
     0
100
AcDbLine
 10
9.5065419574
 20
6.8307724093
 30
0.0
 11
9.2646670257
 21
6.8307724093
 31
0.0
  0
LINE
  5
1B0
330
1F
100
AcDbEntity
  8
0
  6
Continuous
 62
     7
370
     0
100
AcDbLine
 10
10.6461649824
 20
6.2545531591
 30
0.0
 11
9.1405419754
 21
6.2282724094
 31
0.0
  0
LINE
  5
1B1
330
1F
100
AcDbEntity
  8
0
  6
Continuous
 62
     7
370
     0
100
AcDbLine
 10
9.1405419754
 20
6.2282724094
 30
0.0
 11
9.1405419754
 21
6.4622724129
 31
0.0
  0
LINE
  5
1B2
330
1F
100
AcDbEntity
  8
0
  6
Continuous
 62
     7
370
     0
100
AcDbLine
 10
10.6461649824
 20
10.7369916976
 30
0.0
 11
9.1405419754
 21
10.7632724473
 31
0.0
  0
LINE
  5
1B3
330
1F
100
AcDbEntity
  8
0
  6
Continuous
 62
     7
370
     0
100
AcDbLine
 10
9.1405419754
 20
10.5292724439
 30
0.0
 11
9.1405419754
 21
10.7632724473
 31
0.0
  0
LINE
  5
1B4
330
1F
100
AcDbEntity
  8
0
  6
Continuous
 62
     7
370
     0
100
AcDbLine
 10
9.1405419754
 20
6.4622724129
 30
0.0
 11
9.1405419754
 21
6.8237723835
 31
0.0
  0
LINE
  5
1B5
330
1F
100
AcDbEntity
  8
0
  6
Continuous
 62
     7
370
     0
100
AcDbLine
 10
9.1405419754
 20
10.1677724733
 30
0.0
 11
9.1405419754
 21
10.5292724439
 31
0.0
  0
LINE
  5
1B6
330
1F
100
AcDbEntity
  8
0
  6
Continuous
 62
     7
370
     0
100
AcDbLine
 10
10.7375419534
 20
6.4622724129
 30
0.0
 11
10.7375419534
 21
6.3475390449
 31
0.0
  0
ARC
  5
1B7
330
1F
100
AcDbEntity
  8
0
  6
Continuous
 62
     7
370
     0
100
AcDbCircle
 10
10.6445419754
 20
6.3475390125
 30
0.0
 40
0.0930000000000004
100
AcDbArc
 50
271.0
 51
0.0
  0
ARC
  5
1B8
330
1F
100
AcDbEntity
  8
0
  6
Continuous
 62
     7
370
     0
100
AcDbCircle
 10
10.6445419754
 20
10.6440058442
 30
0.0
 40
0.0930000000000022
100
AcDbArc
 50
0.0
 51
89.0
  0
LINE
  5
1B9
330
1F
100
AcDbEntity
  8
0
  6
Continuous
 62
     7
370
     0
100
AcDbLine
 10
10.7375419534
 20
10.6440058118
 30
0.0
 11
10.7375419534
 21
10.5292724439
 31
0.0
  0
LINE
  5
1BA
330
1F
100
AcDbEntity
  8
0
  6
Continuous
 62
     7
370
     0
100
AcDbLine
 10
10.7375419534
 20
10.5292724439
 30
0.0
 11
10.7375419534
 21
6.4622724129
 31
0.0
  0
LINE
  5
1BB
330
1F
100
AcDbEntity
  8
0
  6
Continuous
 62
     7
370
     0
100
AcDbLine
 10
10.7755419678
 20
6.7079497348
 30
0.0
 11
10.7755419678
 21
6.8459495939
 31
0.0
  0
LINE
  5
1BC
330
1F
100
AcDbEntity
  8
0
  6
Continuous
 62
     7
370
     0
100
AcDbLine
 10
10.7755419678
 20
10.1455952628
 30
0.0
 11
10.7755419678
 21
10.283595122
 31
0.0
  0
LINE
  5
1BD
330
1F
100
AcDbEntity
  8
0
  6
Continuous
 62
     7
370
     0
100
AcDbLine
 10
10.8055419946
 20
10.2535952418
 30
0.0
 11
10.8055419946
 21
10.1755951429
 31
0.0
  0
LINE
  5
1BE
330
1F
100
AcDbEntity
  8
0
  6
Continuous
 62
     7
370
     0
100
AcDbLine
 10
10.8055419946
 20
6.8159497138
 30
0.0
 11
10.8055419946
 21
6.7379496149
 31
0.0
  0
DIMENSION
  5
1BF
330
1F
100
AcDbEntity
  8
0
  6
Continuous
 62
     7
370
     0
100
AcDbDimension
  2
*D6
 10
11.3311855952
 20
6.2282724284
 30
0.0
 11
11.3311855952
 21
8.4957724284
 31
0.0
 70
   160
 71
     2
 42
-1.0
  3
SLDDIMSTYLE0
100
AcDbAlignedDimension
 13
9.1405419754
 23
10.7632724284
 33
0.0
 14
9.1405419754
 24
6.2282724284
 34
0.0
 50
90.0
100
AcDbRotatedDimension
  0
SPLINE
  5
1CA
330
1F
100
AcDbEntity
  8
0
  6
Continuous
 62
     7
370
     0
100
AcDbSpline
210
0.0
220
0.0
230
1.0
 70
    24
 71
     1
 72
     4
 73
     2
 74
     0
 42
0.00000001
 43
0.00000001
 40
0.0
 40
0.0
 40
1.0
 40
1.0
 10
7.231326796554916
 20
4.293285189645362
 30
0.0
 10
7.231326796554916
 20
4.298312314904916
 30
0.0
  0
SPLINE
  5
1CB
330
1F
100
AcDbEntity
  8
0
  6
Continuous
 62
     7
370
     0
100
AcDbSpline
210
0.0
220
0.0
230
1.0
 70
    24
 71
     1
 72
     4
 73
     2
 74
     0
 42
0.00000001
 43
0.00000001
 40
0.0
 40
0.0
 40
1.0
 40
1.0
 10
3.83455518301712
 20
4.298312314904916
 30
0.0
 10
3.83455518301712
 20
4.293285189645362
 30
0.0
  0
SPLINE
  5
1CC
330
1F
100
AcDbEntity
  8
0
  6
Continuous
 62
     7
370
     0
100
AcDbSpline
210
0.0
220
0.0
230
1.0
 70
    24
 71
     1
 72
     4
 73
     2
 74
     0
 42
0.00000001
 43
0.00000001
 40
0.0
 40
0.0
 40
1.0
 40
1.0
 10
4.235118195679016
 20
2.068312329388375
 30
0.0
 10
4.26511822244948
 20
2.03831230261791
 30
0.0
  0
SPLINE
  5
1CD
330
1F
100
AcDbEntity
  8
0
  6
Continuous
 62
     7
370
     0
100
AcDbSpline
210
0.0
220
0.0
230
1.0
 70
    24
 71
     1
 72
     4
 73
     2
 74
     0
 42
0.00000001
 43
0.00000001
 40
0.0
 40
0.0
 40
1.0
 40
1.0
 10
4.343118248053195
 20
2.03831230261791
 30
0.0
 10
4.373118201491173
 20
2.068312329388375
 30
0.0
  0
SPLINE
  5
1CE
330
1F
100
AcDbEntity
  8
0
  6
Continuous
 62
     7
370
     0
100
AcDbSpline
210
0.0
220
0.0
230
1.0
 70
    24
 71
     1
 72
     4
 73
     2
 74
     0
 42
0.00000001
 43
0.00000001
 40
0.0
 40
0.0
 40
1.0
 40
1.0
 10
4.235118195679016
 20
2.106312343742299
 30
0.0
 10
4.235118195679016
 20
2.068312329388375
 30
0.0
  0
SPLINE
  5
1CF
330
1F
100
AcDbEntity
  8
0
  6
Continuous
 62
     7
370
     0
100
AcDbSpline
210
0.0
220
0.0
230
1.0
 70
    24
 71
     1
 72
     4
 73
     2
 74
     0
 42
0.00000001
 43
0.00000001
 40
0.0
 40
0.0
 40
1.0
 40
1.0
 10
4.373118201491173
 20
2.068312329388375
 30
0.0
 10
4.373118201491173
 20
2.106312343742299
 30
0.0
  0
SPLINE
  5
1D0
330
1F
100
AcDbEntity
  8
0
  6
Continuous
 62
     7
370
     0
100
AcDbSpline
210
0.0
220
0.0
230
1.0
 70
    24
 71
     1
 72
     4
 73
     2
 74
     0
 42
0.00000001
 43
0.00000001
 40
0.0
 40
0.0
 40
1.0
 40
1.0
 10
6.692763778080863
 20
2.068312329388375
 30
0.0
 10
6.722763731518841
 20
2.03831230261791
 30
0.0
  0
SPLINE
  5
1D1
330
1F
100
AcDbEntity
  8
0
  6
Continuous
 62
     7
370
     0
100
AcDbSpline
210
0.0
220
0.0
230
1.0
 70
    24
 71
     1
 72
     4
 73
     2
 74
     0
 42
0.00000001
 43
0.00000001
 40
0.0
 40
0.0
 40
1.0
 40
1.0
 10
6.800763757122556
 20
2.03831230261791
 30
0.0
 10
6.83076378389302
 20
2.068312329388375
 30
0.0
  0
SPLINE
  5
1D2
330
1F
100
AcDbEntity
  8
0
  6
Continuous
 62
     7
370
     0
100
AcDbSpline
210
0.0
220
0.0
230
1.0
 70
    24
 71
     1
 72
     4
 73
     2
 74
     0
 42
0.00000001
 43
0.00000001
 40
0.0
 40
0.0
 40
1.0
 40
1.0
 10
6.692763778080863
 20
2.106312343742299
 30
0.0
 10
6.692763778080863
 20
2.068312329388375
 30
0.0
  0
SPLINE
  5
1D3
330
1F
100
AcDbEntity
  8
0
  6
Continuous
 62
     7
370
     0
100
AcDbSpline
210
0.0
220
0.0
230
1.0
 70
    24
 71
     1
 72
     4
 73
     2
 74
     0
 42
0.00000001
 43
0.00000001
 40
0.0
 40
0.0
 40
1.0
 40
1.0
 10
6.83076378389302
 20
2.068312329388375
 30
0.0
 10
6.83076378389302
 20
2.106312343742299
 30
0.0
  0
LINE
  5
1D4
330
1F
100
AcDbEntity
  8
0
  6
Continuous
 62
     7
370
     0
100
AcDbLine
 10
7.0679409907
 20
4.2983123149
 30
0.0
 11
7.2313267966
 21
4.2983123149
 31
0.0
  0
LINE
  5
1D5
330
1F
100
AcDbEntity
  8
0
  6
Continuous
 62
     7
370
     0
100
AcDbLine
 10
6.9849237764
 20
4.2983123149
 30
0.0
 11
7.0679409907
 21
4.2983123149
 31
0.0
  0
LINE
  5
1D6
330
1F
100
AcDbEntity
  8
0
  6
Continuous
 62
     7
370
     0
100
AcDbLine
 10
3.9979409889
 20
4.2983123149
 30
0.0
 11
4.0809582032
 21
4.2983123149
 31
0.0
  0
LINE
  5
1D7
330
1F
100
AcDbEntity
  8
0
  6
Continuous
 62
     7
370
     0
100
AcDbLine
 10
3.834555183
 20
4.2983123149
 30
0.0
 11
3.9979409889
 21
4.2983123149
 31
0.0
  0
CIRCLE
  5
1D8
330
1F
100
AcDbEntity
  8
0
  6
Continuous
 62
     7
370
     0
100
AcDbCircle
 10
7.4779409898
 20
3.7033123217
 30
0.0
 40
0.0589999999999995
  0
LINE
  5
1D9
330
1F
100
AcDbEntity
  8
0
  6
Continuous
 62
     7
370
     0
100
AcDbLine
 10
3.9969410271
 20
3.7033123217
 30
0.0
 11
3.7629410236
 21
3.7033123217
 31
0.0
  0
LINE
  5
1DA
330
1F
100
AcDbEntity
  8
0
  6
Continuous
 62
     7
370
     0
100
AcDbLine
 10
3.7717318288
 20
4.2069353805
 30
0.0
 11
3.7629410236
 21
3.7033123217
 31
0.0
  0
LINE
  5
1DB
330
1F
100
AcDbEntity
  8
0
  6
Continuous
 62
     7
370
     0
100
AcDbLine
 10
7.0689409525
 20
3.7033123217
 30
0.0
 11
3.9969410271
 21
3.7033123217
 31
0.0
  0
LINE
  5
1DC
330
1F
100
AcDbEntity
  8
0
  6
Continuous
 62
     7
370
     0
100
AcDbLine
 10
7.2941501508
 20
4.2069353805
 30
0.0
 11
7.3029409559
 21
3.7033123217
 31
0.0
  0
LINE
  5
1DD
330
1F
100
AcDbEntity
  8
0
  6
Continuous
 62
     7
370
     0
100
AcDbLine
 10
7.3029409559
 20
3.7033123217
 30
0.0
 11
7.0689409525
 21
3.7033123217
 31
0.0
  0
ARC
  5
1DE
330
1F
100
AcDbEntity
  8
0
  6
Continuous
 62
     7
370
     0
100
AcDbCircle
 10
3.8647175989
 20
4.2053123217
 30
0.0
 40
0.093
100
AcDbArc
 50
108.9248226813
 51
179.0
  0
LINE
  5
1DF
330
1F
100
AcDbEntity
  8
0
  6
Continuous
 62
     7
370
     0
100
AcDbLine
 10
4.0809582032
 20
4.2983123149
 30
0.0
 11
6.9849237764
 21
4.2983123149
 31
0.0
  0
ARC
  5
1E0
330
1F
100
AcDbEntity
  8
0
  6
Continuous
 62
     7
370
     0
100
AcDbCircle
 10
7.2011643807
 20
4.2053123217
 30
0.0
 40
0.0929999999999995
100
AcDbArc
 50
1.0
 51
71.0751773187
  0
LINE
  5
1E1
330
1F
100
AcDbEntity
  8
0
  6
Continuous
 62
     7
370
     0
100
AcDbLine
 10
7.2943880414
 20
4.1933123312
 30
0.0
 11
7.5828182028
 21
3.827437372
 31
0.0
  0
SPLINE
  5
1E2
330
1F
100
AcDbEntity
  8
0
  6
Continuous
 62
     7
370
     0
100
AcDbSpline
210
0.0
220
0.0
230
1.0
 70
    24
 71
     1
 72
     4
 73
     2
 74
     0
 42
0.00000001
 43
0.00000001
 40
0.0
 40
0.0
 40
1.0
 40
1.0
 10
3.850249801711545
 20
4.297176358027587
 30
0.0
 10
3.849793380317498
 20
4.297107022161893
 30
0.0
  0
SPLINE
  5
1E3
330
1F
100
AcDbEntity
  8
0
  6
Continuous
 62
     7
370
     0
100
AcDbSpline
210
0.0
220
0.0
230
1.0
 70
    24
 71
     1
 72
     4
 73
     2
 74
     0
 42
0.00000001
 43
0.00000001
 40
0.0
 40
0.0
 40
1.0
 40
1.0
 10
7.212775877523383
 20
4.297584599978207
 30
0.0
 10
7.212067632371757
 20
4.297659619111579
 30
0.0
  0
LINE
  5
1E4
330
1F
100
AcDbEntity
  8
0
  6
Continuous
 62
     7
370
     0
100
AcDbLine
 10
7.0689409525
 20
3.7033123217
 30
0.0
 11
7.3029409559
 21
3.7033123217
 31
0.0
  0
LINE
  5
1E5
330
1F
100
AcDbEntity
  8
0
  6
Continuous
 62
     7
370
     0
100
AcDbLine
 10
7.2766602062
 20
2.1976893148
 30
0.0
 11
7.3029409559
 21
3.7033123217
 31
0.0
  0
LINE
  5
1E6
330
1F
100
AcDbEntity
  8
0
  6
Continuous
 62
     7
370
     0
100
AcDbLine
 10
3.7629410236
 20
3.7033123217
 30
0.0
 11
3.9969410271
 21
3.7033123217
 31
0.0
  0
LINE
  5
1E7
330
1F
100
AcDbEntity
  8
0
  6
Continuous
 62
     7
370
     0
100
AcDbLine
 10
3.7892217734
 20
2.1976893148
 30
0.0
 11
3.7629410236
 21
3.7033123217
 31
0.0
  0
LINE
  5
1E8
330
1F
100
AcDbEntity
  8
0
  6
Continuous
 62
     7
370
     0
100
AcDbLine
 10
3.9969410271
 20
3.7033123217
 30
0.0
 11
7.0689409525
 21
3.7033123217
 31
0.0
  0
LINE
  5
1E9
330
1F
100
AcDbEntity
  8
0
  6
Continuous
 62
     7
370
     0
100
AcDbLine
 10
3.9969410271
 20
2.1063123437
 30
0.0
 11
3.8822075125
 21
2.1063123437
 31
0.0
  0
ARC
  5
1EA
330
1F
100
AcDbEntity
  8
0
  6
Continuous
 62
     7
370
     0
100
AcDbCircle
 10
3.8822075739
 20
2.1993123217
 30
0.0
 40
0.093
100
AcDbArc
 50
181.0
 51
270.0
  0
ARC
  5
1EB
330
1F
100
AcDbEntity
  8
0
  6
Continuous
 62
     7
370
     0
100
AcDbCircle
 10
7.1836744056
 20
2.1993123217
 30
0.0
 40
0.0930000000000004
100
AcDbArc
 50
270.0
 51
359.0
  0
LINE
  5
1EC
330
1F
100
AcDbEntity
  8
0
  6
Continuous
 62
     7
370
     0
100
AcDbLine
 10
7.183674467
 20
2.1063123437
 30
0.0
 11
7.0689409525
 21
2.1063123437
 31
0.0
  0
LINE
  5
1ED
330
1F
100
AcDbEntity
  8
0
  6
Continuous
 62
     7
370
     0
100
AcDbLine
 10
7.0689409525
 20
2.1063123437
 30
0.0
 11
3.9969410271
 21
2.1063123437
 31
0.0
  0
LINE
  5
1EE
330
1F
100
AcDbEntity
  8
0
  6
Continuous
 62
     7
370
     0
100
AcDbLine
 10
4.2351181957
 20
2.0683123294
 30
0.0
 11
4.3731182015
 21
2.0683123294
 31
0.0
  0
LINE
  5
1EF
330
1F
100
AcDbEntity
  8
0
  6
Continuous
 62
     7
370
     0
100
AcDbLine
 10
4.3431182481
 20
2.0383123026
 30
0.0
 11
4.2651182224
 21
2.0383123026
 31
0.0
  0
LINE
  5
1F0
330
1F
100
AcDbEntity
  8
0
  6
Continuous
 62
     7
370
     0
100
AcDbLine
 10
6.8007637571
 20
2.0383123026
 30
0.0
 11
6.7227637315
 21
2.0383123026
 31
0.0
  0
LINE
  5
1F1
330
1F
100
AcDbEntity
  8
0
  6
Continuous
 62
     7
370
     0
100
AcDbLine
 10
6.6927637781
 20
2.0683123294
 30
0.0
 11
6.8307637839
 21
2.0683123294
 31
0.0
  0
LINE
  5
1F2
330
1F
100
AcDbEntity
  8
0
  6
Continuous
 62
     7
370
     0
100
AcDbLine
 10
7.2965523764
 20
3.3373123398
 30
0.0
 11
7.5828182028
 21
3.5791872715
 31
0.0
  0
ARC
  5
1F3
330
1F
100
AcDbEntity
  8
0
  6
Continuous
 62
     7
370
     0
100
AcDbCircle
 10
7.4779409898
 20
3.7033123217
 30
0.0
 40
0.1625000000000001
100
AcDbArc
 50
310.1955221294
 51
180.0
  0
CIRCLE
  5
1F4
330
1F
100
AcDbEntity
  8
0
  6
Continuous
 62
     7
370
     0
100
AcDbCircle
 10
7.4779409898
 20
3.7033123217
 30
0.0
 40
0.0779999999999994
  0
LINE
  5
1F5
330
1F
100
AcDbEntity
  8
0
  6
Continuous
 62
     7
370
     0
100
AcDbLine
 10
7.3154409182
 20
3.7033123217
 30
0.0
 11
7.3029409559
 21
3.7033123217
 31
0.0
  0
LINE
  5
1F6
330
1F
100
AcDbEntity
  8
0
  6
Continuous
 62
     7
370
     0
100
AcDbLine
 10
7.2943880414
 20
3.2133123123
 30
0.0
 11
7.5828182028
 21
3.5791872715
 31
0.0
  0
DIMENSION
  5
1F7
330
1F
100
AcDbEntity
  8
0
  6
Continuous
 62
     7
370
     0
100
AcDbDimension
  2
*D7
 10
7.3029409898
 20
4.7068911637
 30
0.0
 11
5.5329409898
 21
4.7068911637
 31
0.0
 70
   160
 71
     2
 42
-1.0
  3
SLDDIMSTYLE0
100
AcDbAlignedDimension
 13
3.7629409898
 23
3.7033123217
 33
0.0
 14
7.3029409898
 24
3.7033123217
 34
0.0
100
AcDbRotatedDimension
  0
DIMENSION
  5
202
330
1F
100
AcDbEntity
  8
0
  6
Continuous
 62
     7
370
     0
100
AcDbDimension
  2
*D8
 10
3.7629409898
 20
5.0934285326
 30
0.0
 11
5.7016909898
 21
5.0934285326
 31
0.0
 70
   160
 71
     2
 42
-1.0
  3
SLDDIMSTYLE0
100
AcDbAlignedDimension
 13
7.6404409898
 23
3.7033123217
 33
0.0
 14
3.7629409898
 24
3.7033123217
 34
0.0
 50
0.0
100
AcDbRotatedDimension
  0
DIMENSION
  5
20D
330
1F
100
AcDbEntity
  8
0
  6
Continuous
 62
     7
370
     0
100
AcDbDimension
  2
*D9
 10
3.3455158576
 20
3.7033123217
 30
0.0
 11
3.3455158576
 21
2.9048123217
 31
0.0
 70
   160
 71
     2
 42
-1.0
  3
SLDDIMSTYLE2
100
AcDbAlignedDimension
 13
3.8822075739
 23
2.1063123217
 33
0.0
 14
3.7629409898
 24
3.7033123217
 34
0.0
 50
90.0
100
AcDbRotatedDimension
  0
DIMENSION
  5
219
330
1F
100
AcDbEntity
  8
0
  6
Continuous
 62
     7
370
     0
100
AcDbDimension
  2
*D10
 10
2.7402242219
 20
2.1063123217
 30
0.0
 11
2.7402242219
 21
3.2023123217
 31
0.0
 70
   160
 71
     2
 42
-1.0
  3
SLDDIMSTYLE0
100
AcDbAlignedDimension
 13
4.0359369801
 23
4.2983123217
 33
0.0
 14
4.0604409898
 24
2.1063123217
 34
0.0
 50
90.0
100
AcDbRotatedDimension
  0
DIMENSION
  5
224
330
1F
100
AcDbEntity
  8
0
  6
Continuous
 62
     7
370
     0
100
AcDbDimension
  2
*D11
 10
7.8413117167
 20
2.0383123217
 30
0.0
 11
7.8413117167
 21
1.5970346934
 31
0.0
 70
   160
 71
     2
 42
-1.0
  3
SLDDIMSTYLE3
100
AcDbAlignedDimension
 13
7.1836744056
 23
2.1063123217
 33
0.0
 14
6.8007637535
 24
2.0383123217
 34
0.0
 50
90.0
100
AcDbRotatedDimension
  0
SPLINE
  5
231
330
1F
100
AcDbEntity
  8
0
  6
Continuous
 62
     7
370
     0
100
AcDbSpline
210
0.0
220
0.0
230
1.0
 70
    24
 71
     1
 72
     4
 73
     2
 74
     0
 42
0.00000001
 43
0.00000001
 40
0.0
 40
0.0
 40
1.0
 40
1.0
 10
20.05163279215411
 20
6.823772383453403
 30
0.0
 10
20.05163279215411
 20
6.830772409255174
 30
0.0
  0
SPLINE
  5
232
330
1F
100
AcDbEntity
  8
0
  6
Continuous
 62
     7
370
     0
100
AcDbSpline
210
0.0
220
0.0
230
1.0
 70
    24
 71
     1
 72
     4
 73
     2
 74
     0
 42
0.00000001
 43
0.00000001
 40
0.0
 40
0.0
 40
1.0
 40
1.0
 10
20.05163279215411
 20
7.020772481024799
 30
0.0
 10
20.05163279215411
 20
7.04577240555687
 30
0.0
  0
SPLINE
  5
233
330
1F
100
AcDbEntity
  8
0
  6
Continuous
 62
     7
370
     0
100
AcDbSpline
210
0.0
220
0.0
230
1.0
 70
    24
 71
     1
 72
     4
 73
     2
 74
     0
 42
0.00000001
 43
0.00000001
 40
0.0
 40
0.0
 40
1.0
 40
1.0
 10
20.05163279215411
 20
7.265772430764472
 30
0.0
 10
20.05163279215411
 20
9.725772425967941
 30
0.0
  0
SPLINE
  5
234
330
1F
100
AcDbEntity
  8
0
  6
Continuous
 62
     7
370
     0
100
AcDbSpline
210
0.0
220
0.0
230
1.0
 70
    24
 71
     1
 72
     4
 73
     2
 74
     0
 42
0.00000001
 43
0.00000001
 40
0.0
 40
0.0
 40
1.0
 40
1.0
 10
20.05163279215411
 20
9.945772451175545
 30
0.0
 10
20.05163279215411
 20
9.970772375707616
 30
0.0
  0
SPLINE
  5
235
330
1F
100
AcDbEntity
  8
0
  6
Continuous
 62
     7
370
     0
100
AcDbSpline
210
0.0
220
0.0
230
1.0
 70
    24
 71
     1
 72
     4
 73
     2
 74
     0
 42
0.00000001
 43
0.00000001
 40
0.0
 40
0.0
 40
1.0
 40
1.0
 10
20.05163279215411
 20
10.16077244747724
 30
0.0
 10
20.05163279215411
 20
10.16777247327901
 30
0.0
  0
SPLINE
  5
236
330
1F
100
AcDbEntity
  8
0
  6
Continuous
 62
     7
370
     0
100
AcDbSpline
210
0.0
220
0.0
230
1.0
 70
    24
 71
     1
 72
     4
 73
     2
 74
     0
 42
0.00000001
 43
0.00000001
 40
0.0
 40
0.0
 40
1.0
 40
1.0
 10
19.9336327553006
 20
10.16777247327901
 30
0.0
 10
19.9336327553006
 20
10.16077244747724
 30
0.0
  0
SPLINE
  5
237
330
1F
100
AcDbEntity
  8
0
  6
Continuous
 62
     7
370
     0
100
AcDbSpline
210
0.0
220
0.0
230
1.0
 70
    24
 71
     1
 72
     4
 73
     2
 74
     0
 42
0.00000001
 43
0.00000001
 40
0.0
 40
0.0
 40
1.0
 40
1.0
 10
19.9336327553006
 20
9.970772375707616
 30
0.0
 10
19.9336327553006
 20
9.945772451175545
 30
0.0
  0
SPLINE
  5
238
330
1F
100
AcDbEntity
  8
0
  6
Continuous
 62
     7
370
     0
100
AcDbSpline
210
0.0
220
0.0
230
1.0
 70
    24
 71
     1
 72
     4
 73
     2
 74
     0
 42
0.00000001
 43
0.00000001
 40
0.0
 40
0.0
 40
1.0
 40
1.0
 10
19.9336327553006
 20
9.725772425967941
 30
0.0
 10
19.9336327553006
 20
7.265772430764472
 30
0.0
  0
SPLINE
  5
239
330
1F
100
AcDbEntity
  8
0
  6
Continuous
 62
     7
370
     0
100
AcDbSpline
210
0.0
220
0.0
230
1.0
 70
    24
 71
     1
 72
     4
 73
     2
 74
     0
 42
0.00000001
 43
0.00000001
 40
0.0
 40
0.0
 40
1.0
 40
1.0
 10
19.9336327553006
 20
7.04577240555687
 30
0.0
 10
19.9336327553006
 20
7.020772481024799
 30
0.0
  0
SPLINE
  5
23A
330
1F
100
AcDbEntity
  8
0
  6
Continuous
 62
     7
370
     0
100
AcDbSpline
210
0.0
220
0.0
230
1.0
 70
    24
 71
     1
 72
     4
 73
     2
 74
     0
 42
0.00000001
 43
0.00000001
 40
0.0
 40
0.0
 40
1.0
 40
1.0
 10
19.9336327553006
 20
6.830772409255174
 30
0.0
 10
19.9336327553006
 20
6.823772383453403
 30
0.0
  0
SPLINE
  5
23B
330
1F
100
AcDbEntity
  8
0
  6
Continuous
 62
     7
370
     0
100
AcDbSpline
210
0.0
220
0.0
230
1.0
 70
    24
 71
     1
 72
     4
 73
     2
 74
     0
 42
0.00000001
 43
0.00000001
 40
0.0
 40
0.0
 40
1.0
 40
1.0
 10
19.83013275094148
 20
7.265772430764472
 30
0.0
 10
19.83013275094148
 20
7.04577240555687
 30
0.0
  0
SPLINE
  5
23C
330
1F
100
AcDbEntity
  8
0
  6
Continuous
 62
     7
370
     0
100
AcDbSpline
210
0.0
220
0.0
230
1.0
 70
    24
 71
     1
 72
     4
 73
     2
 74
     0
 42
0.00000001
 43
0.00000001
 40
0.0
 40
0.0
 40
1.0
 40
1.0
 10
19.83013275094148
 20
9.945772451175545
 30
0.0
 10
19.83013275094148
 20
9.725772425967941
 30
0.0
  0
SPLINE
  5
23D
330
1F
100
AcDbEntity
  8
0
  6
Continuous
 62
     7
370
     0
100
AcDbSpline
210
0.0
220
0.0
230
1.0
 70
    24
 71
     1
 72
     4
 73
     2
 74
     0
 42
0.00000001
 43
0.00000001
 40
0.0
 40
0.0
 40
1.0
 40
1.0
 10
19.83013275094148
 20
10.16077244747724
 30
0.0
 10
19.83013275094148
 20
9.970772375707616
 30
0.0
  0
SPLINE
  5
23E
330
1F
100
AcDbEntity
  8
0
  6
Continuous
 62
     7
370
     0
100
AcDbSpline
210
0.0
220
0.0
230
1.0
 70
    24
 71
     1
 72
     4
 73
     2
 74
     0
 42
0.00000001
 43
0.00000001
 40
0.0
 40
0.0
 40
1.0
 40
1.0
 10
19.83013275094148
 20
7.020772481024799
 30
0.0
 10
19.83013275094148
 20
6.830772409255174
 30
0.0
  0
LINE
  5
23F
330
1F
100
AcDbEntity
  8
0
  6
Continuous
 62
     7
370
     0
100
AcDbLine
 10
19.7825000745
 20
10.5822906581
 30
0.0
 11
20.3411143947
 21
11.1409051249
 31
0.0
  0
LWPOLYLINE
  5
240
330
1F
100
AcDbEntity
  8
0
  6
Continuous
 62
     7
370
     0
100
AcDbPolyline
 90
        9
 70
   128
 43
0.0
 10
19.7167391675
 20
10.6480517117
 10
19.7295685393
 20
10.6352223399
 10
19.7419048235
 20
10.6228860558
 10
19.7532739988
 20
10.6115168804
 10
19.7632391504
 20
10.6015515822
 10
19.7714173359
 20
10.5933733967
 10
19.7774942524
 20
10.5872964802
 10
19.7812365558
 20
10.5835543235
 10
19.7825000745
 20
10.5822906581
  0
LWPOLYLINE
  5
241
330
1F
100
AcDbEntity
  8
0
  6
Continuous
 62
     7
370
     0
100
AcDbPolyline
 90
        9
 70
   128
 43
0.0
 10
20.2753534877
 20
11.2066658852
 10
20.2881828595
 20
11.1938368068
 10
20.3005191437
 20
11.1815005226
 10
20.311888319
 20
11.1701310539
 10
20.3218534705
 20
11.1601660491
 10
20.3300316561
 20
11.1519877169
 10
20.3361087192
 20
11.1459108004
 10
20.339850876
 20
11.1421687903
 10
20.3411143947
 20
11.1409051249
  0
LINE
  5
242
330
1F
100
AcDbEntity
  8
0
  6
Continuous
 62
     7
370
     0
100
AcDbLine
 10
19.2740903477
 20
11.0907005315
 30
0.0
 11
19.7167391675
 21
10.6480517117
 31
0.0
  0
ARC
  5
243
330
1F
100
AcDbEntity
  8
0
  6
Continuous
 62
     7
370
     0
100
AcDbCircle
 10
19.3292446311
 20
11.1458548229
 30
0.0
 40
0.0780000000000009
100
AcDbArc
 50
135.0
 51
225.0
  0
LINE
  5
244
330
1F
100
AcDbEntity
  8
0
  6
Continuous
 62
     7
370
     0
100
AcDbLine
 10
19.2740903477
 20
11.2010090172
 30
0.0
 11
19.7223960355
 21
11.6493148517
 31
0.0
  0
ARC
  5
245
330
1F
100
AcDbEntity
  8
0
  6
Continuous
 62
     7
370
     0
100
AcDbCircle
 10
19.7775503304
 20
11.5941605222
 30
0.0
 40
0.0780000000000034
100
AcDbArc
 50
45.0
 51
135.0
  0
LINE
  5
246
330
1F
100
AcDbEntity
  8
0
  6
Continuous
 62
     7
370
     0
100
AcDbLine
 10
19.738659421
 20
11.308489509
 30
0.0
 11
19.9437203721
 21
11.1034284112
 31
0.0
  0
ARC
  5
247
330
1F
100
AcDbEntity
  8
0
  6
Continuous
 62
     7
370
     0
100
AcDbCircle
 10
19.676787614
 20
11.2466175393
 30
0.0
 40
0.0875000000000005
100
AcDbArc
 50
45.0
 51
225.0
  0
LINE
  5
248
330
1F
100
AcDbEntity
  8
0
  6
Continuous
 62
     7
370
     0
100
AcDbLine
 10
19.8199767883
 20
10.9796848273
 30
0.0
 11
19.6149158371
 21
11.1847456318
 31
0.0
  0
ARC
  5
249
330
1F
100
AcDbEntity
  8
0
  6
Continuous
 62
     7
370
     0
100
AcDbCircle
 10
19.8818485806
 20
11.0415565727
 30
0.0
 40
0.0875000000000017
100
AcDbArc
 50
225.0
 51
45.0
  0
LINE
  5
24A
330
1F
100
AcDbEntity
  8
0
  6
Continuous
 62
     7
370
     0
100
AcDbLine
 10
19.8327046679
 20
11.6493148517
 30
0.0
 11
20.2753534877
 21
11.2066658852
 31
0.0
  0
LWPOLYLINE
  5
24B
330
1F
100
AcDbEntity
  8
0
  6
Continuous
 62
     7
370
     0
100
AcDbPolyline
 90
        9
 70
   128
 43
0.0
 10
19.7825000745
 20
10.5822906581
 10
19.7827039388
 20
10.5820869404
 10
19.7833074652
 20
10.5814832674
 10
19.7842876272
 20
10.580503252
 10
19.785606732
 20
10.5791841473
 10
19.7872140334
 20
10.5775768459
 10
19.7890476389
 20
10.5757430937
 10
19.7910374426
 20
10.57375329
 10
19.7931067387
 20
10.5716841406
  0
LWPOLYLINE
  5
24C
330
1F
100
AcDbEntity
  8
0
  6
Continuous
 62
     7
370
     0
100
AcDbPolyline
 90
        9
 70
   128
 43
0.0
 10
20.3411143947
 20
11.1409051249
 10
20.341318259
 20
11.1407012606
 10
20.3419217854
 20
11.1400975876
 10
20.3429019474
 20
11.1391175722
 10
20.3442210521
 20
11.1377984675
 10
20.3458283536
 20
11.1361913127
 10
20.3476621057
 20
11.1343574139
 10
20.3496517627
 20
11.1323677569
 10
20.3517210588
 20
11.1302986074
  0
ARC
  5
24D
330
1F
100
AcDbEntity
  8
0
  6
Continuous
 62
     7
370
     0
100
AcDbCircle
 10
20.6225429339
 20
9.8525565201
 30
0.0
 40
0.0780000000000009
100
AcDbArc
 50
225.0
 51
315.0
  0
LINE
  5
24E
330
1F
100
AcDbEntity
  8
0
  6
Continuous
 62
     7
370
     0
100
AcDbLine
 10
19.7931067387
 20
10.5716841406
 30
0.0
 11
20.5673886741
 21
9.7974022052
 31
0.0
  0
LINE
  5
24F
330
1F
100
AcDbEntity
  8
0
  6
Continuous
 62
     7
370
     0
100
AcDbLine
 10
20.3517210588
 20
11.1302986074
 30
0.0
 11
21.1260029943
 21
10.3560165253
 31
0.0
  0
ARC
  5
250
330
1F
100
AcDbEntity
  8
0
  6
Continuous
 62
     7
370
     0
100
AcDbCircle
 10
21.0708486331
 20
10.3008622194
 30
0.0
 40
0.0779999999999996
100
AcDbArc
 50
315.0
 51
45.0
  0
LINE
  5
251
330
1F
100
AcDbEntity
  8
0
  6
Continuous
 62
     7
370
     0
100
AcDbLine
 10
20.6776973065
 20
9.7974022052
 30
0.0
 11
21.1260029943
 21
10.245707893
 31
0.0
  0
CIRCLE
  5
252
330
1F
100
AcDbEntity
  8
0
  6
Continuous
 62
     7
370
     0
100
AcDbCircle
 10
20.7088099612
 20
10.2145951921
 30
0.0
 40
0.0859999999999999
  0
CIRCLE
  5
253
330
1F
100
AcDbEntity
  8
0
  6
Continuous
 62
     7
370
     0
100
AcDbCircle
 10
20.4047540453
 20
10.518651108
 30
0.0
 40
0.0860000000000012
  0
LINE
  5
254
330
1F
100
AcDbEntity
  8
0
  6
Continuous
 62
     7
370
     0
100
AcDbLine
 10
24.6011751021
 20
5.9008443252
 30
0.0
 11
24.1585262823
 21
6.343493145
 31
0.0
  0
LINE
  5
255
330
1F
100
AcDbEntity
  8
0
  6
Continuous
 62
     7
370
     0
100
AcDbLine
 10
24.6011751021
 20
5.7905358395
 30
0.0
 11
24.1528694143
 21
5.342230005
 31
0.0
  0
ARC
  5
256
330
1F
100
AcDbEntity
  8
0
  6
Continuous
 62
     7
370
     0
100
AcDbCircle
 10
24.0977151195
 20
5.3973843345
 30
0.0
 40
0.0780000000000009
100
AcDbArc
 50
225.0
 51
315.0
  0
LINE
  5
257
330
1F
100
AcDbEntity
  8
0
  6
Continuous
 62
     7
370
     0
100
AcDbLine
 10
24.0425607819
 20
5.342230005
 30
0.0
 11
23.5999119621
 21
5.7848789715
 31
0.0
  0
LINE
  5
258
330
1F
100
AcDbEntity
  8
0
  6
Continuous
 62
     7
370
     0
100
AcDbLine
 10
24.1366060289
 20
5.6830553478
 30
0.0
 11
23.9315450777
 21
5.8881164456
 31
0.0
  0
ARC
  5
259
330
1F
100
AcDbEntity
  8
0
  6
Continuous
 62
     7
370
     0
100
AcDbCircle
 10
24.1984778358
 20
5.7449273175
 30
0.0
 40
0.087500000000003
100
AcDbArc
 50
225.0
 51
45.0
  0
LINE
  5
25A
330
1F
100
AcDbEntity
  8
0
  6
Continuous
 62
     7
370
     0
100
AcDbLine
 10
24.0552886616
 20
6.0118600294
 30
0.0
 11
24.2603496127
 21
5.8067992249
 31
0.0
  0
ARC
  5
25B
330
1F
100
AcDbEntity
  8
0
  6
Continuous
 62
     7
370
     0
100
AcDbCircle
 10
23.9934168693
 20
5.949988284
 30
0.0
 40
0.0875000000000017
100
AcDbArc
 50
45.0
 51
225.0
  0
ARC
  5
25C
330
1F
100
AcDbEntity
  8
0
  6
Continuous
 62
     7
370
     0
100
AcDbCircle
 10
24.5460208188
 20
5.8456900338
 30
0.0
 40
0.0780000000000022
100
AcDbArc
 50
315.0
 51
45.0
  0
LINE
  5
25D
330
1F
100
AcDbEntity
  8
0
  6
Continuous
 62
     7
370
     0
100
AcDbLine
 10
24.0927653753
 20
6.4092541987
 30
0.0
 11
23.5341510551
 21
5.8506397318
 31
0.0
  0
LWPOLYLINE
  5
25E
330
1F
100
AcDbEntity
  8
0
  6
Continuous
 62
     7
370
     0
100
AcDbPolyline
 90
        9
 70
   128
 43
0.0
 10
24.1585262823
 20
6.343493145
 10
24.1456969105
 20
6.3563225168
 10
24.1333606264
 20
6.368658801
 10
24.121991451
 20
6.3800279763
 10
24.1120262995
 20
6.3899932745
 10
24.103848114
 20
6.39817146
 10
24.0977711975
 20
6.4042483765
 10
24.094028894
 20
6.4079905333
 10
24.0927653753
 20
6.4092541987
  0
LWPOLYLINE
  5
25F
330
1F
100
AcDbEntity
  8
0
  6
Continuous
 62
     7
370
     0
100
AcDbPolyline
 90
        9
 70
   128
 43
0.0
 10
23.5999119621
 20
5.7848789715
 10
23.5870825903
 20
5.79770805
 10
23.5747463062
 20
5.8100443341
 10
23.5633771309
 20
5.8214138028
 10
23.5534119793
 20
5.8313788077
 10
23.5452337938
 20
5.8395571399
 10
23.5391567306
 20
5.8456340563
 10
23.5354145739
 20
5.8493760664
 10
23.5341510551
 20
5.8506397318
  0
LWPOLYLINE
  5
260
330
1F
100
AcDbEntity
  8
0
  6
Continuous
 62
     7
370
     0
100
AcDbPolyline
 90
        9
 70
   128
 43
0.0
 10
23.5341510551
 20
5.8506397318
 10
23.5339471908
 20
5.8508435961
 10
23.5333436645
 20
5.8514472692
 10
23.5323635025
 20
5.8524272845
 10
23.5310443977
 20
5.8537463893
 10
23.5294370963
 20
5.855353544
 10
23.5276033441
 20
5.8571874429
 10
23.5256136871
 20
5.8591770999
 10
23.523544391
 20
5.8612462493
  0
LWPOLYLINE
  5
261
330
1F
100
AcDbEntity
  8
0
  6
Continuous
 62
     7
370
     0
100
AcDbPolyline
 90
        9
 70
   128
 43
0.0
 10
24.0927653753
 20
6.4092541987
 10
24.092561511
 20
6.4094579163
 10
24.0919579846
 20
6.4100615893
 10
24.0909778226
 20
6.4110416047
 10
24.0896587179
 20
6.4123607094
 10
24.0880514164
 20
6.4139680109
 10
24.086217811
 20
6.415801763
 10
24.0842280073
 20
6.4177915667
 10
24.0821587112
 20
6.4198607161
  0
ARC
  5
262
330
1F
100
AcDbEntity
  8
0
  6
Continuous
 62
     7
370
     0
100
AcDbCircle
 10
23.252722516
 20
7.1389883366
 30
0.0
 40
0.0780000000000009
100
AcDbArc
 50
45.0
 51
135.0
  0
LINE
  5
263
330
1F
100
AcDbEntity
  8
0
  6
Continuous
 62
     7
370
     0
100
AcDbLine
 10
24.0821587112
 20
6.4198607161
 30
0.0
 11
23.3078767757
 21
7.1941426516
 31
0.0
  0
LINE
  5
264
330
1F
100
AcDbEntity
  8
0
  6
Continuous
 62
     7
370
     0
100
AcDbLine
 10
23.523544391
 20
5.8612462493
 30
0.0
 11
22.7492624556
 21
6.6355283314
 31
0.0
  0
ARC
  5
265
330
1F
100
AcDbEntity
  8
0
  6
Continuous
 62
     7
370
     0
100
AcDbCircle
 10
22.8044168167
 20
6.6906826373
 30
0.0
 40
0.0780000000000015
100
AcDbArc
 50
135.0
 51
225.0
  0
LINE
  5
266
330
1F
100
AcDbEntity
  8
0
  6
Continuous
 62
     7
370
     0
100
AcDbLine
 10
23.1975681434
 20
7.1941426516
 30
0.0
 11
22.7492624556
 21
6.7458369638
 31
0.0
  0
CIRCLE
  5
267
330
1F
100
AcDbEntity
  8
0
  6
Continuous
 62
     7
370
     0
100
AcDbCircle
 10
23.1664554887
 20
6.7769496646
 30
0.0
 40
0.0860000000000024
  0
CIRCLE
  5
268
330
1F
100
AcDbEntity
  8
0
  6
Continuous
 62
     7
370
     0
100
AcDbCircle
 10
23.4705114046
 20
6.4728937487
 30
0.0
 40
0.0859999999999974
  0
LINE
  5
269
330
1F
100
AcDbEntity
  8
0
  6
Continuous
 62
     7
370
     0
100
AcDbLine
 10
20.3411143947
 20
5.8506397318
 30
0.0
 11
19.7825000745
 21
6.4092541987
 31
0.0
  0
LWPOLYLINE
  5
26A
330
1F
100
AcDbEntity
  8
0
  6
Continuous
 62
     7
370
     0
100
AcDbPolyline
 90
        9
 70
   128
 43
0.0
 10
19.7167391675
 20
6.343493145
 10
19.7295685393
 20
6.3563225168
 10
19.7419048235
 20
6.368658801
 10
19.7532739988
 20
6.3800279763
 10
19.7632391504
 20
6.3899932745
 10
19.7714173359
 20
6.39817146
 10
19.7774942524
 20
6.4042483765
 10
19.7812365558
 20
6.4079905333
 10
19.7825000745
 20
6.4092541987
  0
LWPOLYLINE
  5
26B
330
1F
100
AcDbEntity
  8
0
  6
Continuous
 62
     7
370
     0
100
AcDbPolyline
 90
        9
 70
   128
 43
0.0
 10
20.2753534877
 20
5.7848789715
 10
20.2881828595
 20
5.79770805
 10
20.3005191437
 20
5.8100443341
 10
20.311888319
 20
5.8214138028
 10
20.3218534705
 20
5.8313788077
 10
20.3300316561
 20
5.8395571399
 10
20.3361087192
 20
5.8456340563
 10
20.339850876
 20
5.8493760664
 10
20.3411143947
 20
5.8506397318
  0
LINE
  5
26C
330
1F
100
AcDbEntity
  8
0
  6
Continuous
 62
     7
370
     0
100
AcDbLine
 10
19.8327046679
 20
5.342230005
 30
0.0
 11
20.2753534877
 21
5.7848789715
 31
0.0
  0
ARC
  5
26D
330
1F
100
AcDbEntity
  8
0
  6
Continuous
 62
     7
370
     0
100
AcDbCircle
 10
19.7775503304
 20
5.3973843345
 30
0.0
 40
0.0780000000000034
100
AcDbArc
 50
225.0
 51
315.0
  0
LINE
  5
26E
330
1F
100
AcDbEntity
  8
0
  6
Continuous
 62
     7
370
     0
100
AcDbLine
 10
19.7223960355
 20
5.342230005
 30
0.0
 11
19.2740903477
 21
5.7905358395
 31
0.0
  0
ARC
  5
26F
330
1F
100
AcDbEntity
  8
0
  6
Continuous
 62
     7
370
     0
100
AcDbCircle
 10
19.3292446311
 20
5.8456900338
 30
0.0
 40
0.0779999999999996
100
AcDbArc
 50
135.0
 51
225.0
  0
LINE
  5
270
330
1F
100
AcDbEntity
  8
0
  6
Continuous
 62
     7
370
     0
100
AcDbLine
 10
19.2740903477
 20
5.9008443252
 30
0.0
 11
19.7167391675
 21
6.343493145
 31
0.0
  0
LINE
  5
271
330
1F
100
AcDbEntity
  8
0
  6
Continuous
 62
     7
370
     0
100
AcDbLine
 10
19.6149158371
 20
5.8067992249
 30
0.0
 11
19.8199767883
 21
6.0118600294
 31
0.0
  0
ARC
  5
272
330
1F
100
AcDbEntity
  8
0
  6
Continuous
 62
     7
370
     0
100
AcDbCircle
 10
19.676787614
 20
5.7449273175
 30
0.0
 40
0.0875000000000011
100
AcDbArc
 50
135.0
 51
315.0
  0
LINE
  5
273
330
1F
100
AcDbEntity
  8
0
  6
Continuous
 62
     7
370
     0
100
AcDbLine
 10
19.9437203721
 20
5.8881164456
 30
0.0
 11
19.738659421
 21
5.6830553478
 31
0.0
  0
ARC
  5
274
330
1F
100
AcDbEntity
  8
0
  6
Continuous
 62
     7
370
     0
100
AcDbCircle
 10
19.8818485806
 20
5.949988284
 30
0.0
 40
0.0875000000000011
100
AcDbArc
 50
315.0
 51
135.0
  0
LWPOLYLINE
  5
275
330
1F
100
AcDbEntity
  8
0
  6
Continuous
 62
     7
370
     0
100
AcDbPolyline
 90
        9
 70
   128
 43
0.0
 10
19.7825000745
 20
6.4092541987
 10
19.7827039388
 20
6.4094579163
 10
19.7833074652
 20
6.4100615893
 10
19.7842876272
 20
6.4110416047
 10
19.785606732
 20
6.4123607094
 10
19.7872140334
 20
6.4139680109
 10
19.7890476389
 20
6.415801763
 10
19.7910374426
 20
6.4177915667
 10
19.7931067387
 20
6.4198607161
  0
LWPOLYLINE
  5
276
330
1F
100
AcDbEntity
  8
0
  6
Continuous
 62
     7
370
     0
100
AcDbPolyline
 90
        9
 70
   128
 43
0.0
 10
20.3411143947
 20
5.8506397318
 10
20.341318259
 20
5.8508435961
 10
20.3419217854
 20
5.8514472692
 10
20.3429019474
 20
5.8524272845
 10
20.3442210521
 20
5.8537463893
 10
20.3458283536
 20
5.855353544
 10
20.3476621057
 20
5.8571874429
 10
20.3496517627
 20
5.8591770999
 10
20.3517210588
 20
5.8612462493
  0
ARC
  5
277
330
1F
100
AcDbEntity
  8
0
  6
Continuous
 62
     7
370
     0
100
AcDbCircle
 10
21.0708486331
 20
6.6906826373
 30
0.0
 40
0.0779999999999984
100
AcDbArc
 50
315.0
 51
45.0
  0
LINE
  5
278
330
1F
100
AcDbEntity
  8
0
  6
Continuous
 62
     7
370
     0
100
AcDbLine
 10
20.3517210588
 20
5.8612462493
 30
0.0
 11
21.1260029943
 21
6.6355283314
 31
0.0
  0
LINE
  5
279
330
1F
100
AcDbEntity
  8
0
  6
Continuous
 62
     7
370
     0
100
AcDbLine
 10
19.7931067387
 20
6.4198607161
 30
0.0
 11
20.5673886741
 21
7.1941426516
 31
0.0
  0
ARC
  5
27A
330
1F
100
AcDbEntity
  8
0
  6
Continuous
 62
     7
370
     0
100
AcDbCircle
 10
20.6225429339
 20
7.1389883366
 30
0.0
 40
0.0780000000000009
100
AcDbArc
 50
45.0
 51
135.0
  0
LINE
  5
27B
330
1F
100
AcDbEntity
  8
0
  6
Continuous
 62
     7
370
     0
100
AcDbLine
 10
21.1260029943
 20
6.7458369638
 30
0.0
 11
20.6776973065
 21
7.1941426516
 31
0.0
  0
CIRCLE
  5
27C
330
1F
100
AcDbEntity
  8
0
  6
Continuous
 62
     7
370
     0
100
AcDbCircle
 10
20.7088099612
 20
6.7769496646
 30
0.0
 40
0.0859999999999974
  0
CIRCLE
  5
27D
330
1F
100
AcDbEntity
  8
0
  6
Continuous
 62
     7
370
     0
100
AcDbCircle
 10
20.4047540453
 20
6.4728937487
 30
0.0
 40
0.0860000000000006
  0
LINE
  5
27E
330
1F
100
AcDbEntity
  8
0
  6
Continuous
 62
     7
370
     0
100
AcDbLine
 10
24.0425607819
 20
11.6493148517
 30
0.0
 11
23.5999119621
 21
11.2066658852
 31
0.0
  0
ARC
  5
27F
330
1F
100
AcDbEntity
  8
0
  6
Continuous
 62
     7
370
     0
100
AcDbCircle
 10
24.0977151195
 20
11.5941605222
 30
0.0
 40
0.0780000000000009
100
AcDbArc
 50
45.0
 51
135.0
  0
LINE
  5
280
330
1F
100
AcDbEntity
  8
0
  6
Continuous
 62
     7
370
     0
100
AcDbLine
 10
24.1528694143
 20
11.6493148517
 30
0.0
 11
24.6011751021
 21
11.2010090172
 31
0.0
  0
ARC
  5
281
330
1F
100
AcDbEntity
  8
0
  6
Continuous
 62
     7
370
     0
100
AcDbCircle
 10
24.5460208188
 20
11.1458548229
 30
0.0
 40
0.0780000000000034
100
AcDbArc
 50
315.0
 51
45.0
  0
LINE
  5
282
330
1F
100
AcDbEntity
  8
0
  6
Continuous
 62
     7
370
     0
100
AcDbLine
 10
24.6011751021
 20
11.0907005315
 30
0.0
 11
24.1585262823
 21
10.6480517117
 31
0.0
  0
LINE
  5
283
330
1F
100
AcDbEntity
  8
0
  6
Continuous
 62
     7
370
     0
100
AcDbLine
 10
24.2603496127
 20
11.1847456318
 30
0.0
 11
24.0552886616
 21
10.9796848273
 31
0.0
  0
ARC
  5
284
330
1F
100
AcDbEntity
  8
0
  6
Continuous
 62
     7
370
     0
100
AcDbCircle
 10
24.1984778358
 20
11.2466175393
 30
0.0
 40
0.087500000000003
100
AcDbArc
 50
315.0
 51
135.0
  0
LINE
  5
285
330
1F
100
AcDbEntity
  8
0
  6
Continuous
 62
     7
370
     0
100
AcDbLine
 10
23.9315450777
 20
11.1034284112
 30
0.0
 11
24.1366060289
 21
11.308489509
 31
0.0
  0
ARC
  5
286
330
1F
100
AcDbEntity
  8
0
  6
Continuous
 62
     7
370
     0
100
AcDbCircle
 10
23.9934168693
 20
11.0415565727
 30
0.0
 40
0.0875000000000017
100
AcDbArc
 50
135.0
 51
315.0
  0
LINE
  5
287
330
1F
100
AcDbEntity
  8
0
  6
Continuous
 62
     7
370
     0
100
AcDbLine
 10
23.5341510551
 20
11.1409051249
 30
0.0
 11
24.0927653753
 21
10.5822906581
 31
0.0
  0
LWPOLYLINE
  5
288
330
1F
100
AcDbEntity
  8
0
  6
Continuous
 62
     7
370
     0
100
AcDbPolyline
 90
        9
 70
   128
 43
0.0
 10
23.5999119621
 20
11.2066658852
 10
23.5870825903
 20
11.1938368068
 10
23.5747463062
 20
11.1815005226
 10
23.5633771309
 20
11.1701310539
 10
23.5534119793
 20
11.1601660491
 10
23.5452337938
 20
11.1519877169
 10
23.5391567306
 20
11.1459108004
 10
23.5354145739
 20
11.1421687903
 10
23.5341510551
 20
11.1409051249
  0
LWPOLYLINE
  5
289
330
1F
100
AcDbEntity
  8
0
  6
Continuous
 62
     7
370
     0
100
AcDbPolyline
 90
        9
 70
   128
 43
0.0
 10
24.1585262823
 20
10.6480517117
 10
24.1456969105
 20
10.6352223399
 10
24.1333606264
 20
10.6228860558
 10
24.121991451
 20
10.6115168804
 10
24.1120262995
 20
10.6015515822
 10
24.103848114
 20
10.5933733967
 10
24.0977711975
 20
10.5872964802
 10
24.094028894
 20
10.5835543235
 10
24.0927653753
 20
10.5822906581
  0
LWPOLYLINE
  5
28A
330
1F
100
AcDbEntity
  8
0
  6
Continuous
 62
     7
370
     0
100
AcDbPolyline
 90
        9
 70
   128
 43
0.0
 10
23.5341510551
 20
11.1409051249
 10
23.5339471908
 20
11.1407012606
 10
23.5333436645
 20
11.1400975876
 10
23.5323635025
 20
11.1391175722
 10
23.5310443977
 20
11.1377984675
 10
23.5294370963
 20
11.1361913127
 10
23.5276033441
 20
11.1343574139
 10
23.5256136871
 20
11.1323677569
 10
23.523544391
 20
11.1302986074
  0
LWPOLYLINE
  5
28B
330
1F
100
AcDbEntity
  8
0
  6
Continuous
 62
     7
370
     0
100
AcDbPolyline
 90
        9
 70
   128
 43
0.0
 10
24.0927653753
 20
10.5822906581
 10
24.092561511
 20
10.5820869404
 10
24.0919579846
 20
10.5814832674
 10
24.0909778226
 20
10.580503252
 10
24.0896587179
 20
10.5791841473
 10
24.0880514164
 20
10.5775768459
 10
24.086217811
 20
10.5757430937
 10
24.0842280073
 20
10.57375329
 10
24.0821587112
 20
10.5716841406
  0
ARC
  5
28C
330
1F
100
AcDbEntity
  8
0
  6
Continuous
 62
     7
370
     0
100
AcDbCircle
 10
22.8044168167
 20
10.3008622194
 30
0.0
 40
0.0780000000000009
100
AcDbArc
 50
135.0
 51
225.0
  0
LINE
  5
28D
330
1F
100
AcDbEntity
  8
0
  6
Continuous
 62
     7
370
     0
100
AcDbLine
 10
23.523544391
 20
11.1302986074
 30
0.0
 11
22.7492624556
 21
10.3560165253
 31
0.0
  0
ARC
  5
28E
330
1F
100
AcDbEntity
  8
0
  6
Continuous
 62
     7
370
     0
100
AcDbCircle
 10
23.252722516
 20
9.8525565201
 30
0.0
 40
0.0780000000000009
100
AcDbArc
 50
225.0
 51
315.0
  0
LINE
  5
28F
330
1F
100
AcDbEntity
  8
0
  6
Continuous
 62
     7
370
     0
100
AcDbLine
 10
22.7492624556
 20
10.245707893
 30
0.0
 11
23.1975681434
 21
9.7974022052
 31
0.0
  0
CIRCLE
  5
290
330
1F
100
AcDbEntity
  8
0
  6
Continuous
 62
     7
370
     0
100
AcDbCircle
 10
23.1664554887
 20
10.2145951921
 30
0.0
 40
0.0860000000000012
  0
CIRCLE
  5
291
330
1F
100
AcDbEntity
  8
0
  6
Continuous
 62
     7
370
     0
100
AcDbCircle
 10
23.4705114046
 20
10.518651108
 30
0.0
 40
0.0860000000000012
  0
LINE
  5
292
330
1F
100
AcDbEntity
  8
0
  6
Continuous
 62
     7
370
     0
100
AcDbLine
 10
24.0821587112
 20
10.5716841406
 30
0.0
 11
23.3078767757
 21
9.7974022052
 31
0.0
  0
LINE
  5
293
330
1F
100
AcDbEntity
  8
0
  6
Continuous
 62
     7
370
     0
100
AcDbLine
 10
19.9336327553
 20
6.8237723835
 30
0.0
 11
20.0516327922
 21
6.8237723835
 31
0.0
  0
LINE
  5
294
330
1F
100
AcDbEntity
  8
0
  6
Continuous
 62
     7
370
     0
100
AcDbLine
 10
19.9336327553
 20
10.1677724733
 30
0.0
 11
20.0516327922
 21
10.1677724733
 31
0.0
  0
LINE
  5
295
330
1F
100
AcDbEntity
  8
0
  6
Continuous
 62
     7
370
     0
100
AcDbLine
 10
20.1551327965
 20
7.2657724308
 30
0.0
 11
20.1551327965
 21
7.0457724056
 31
0.0
  0
LINE
  5
296
330
1F
100
AcDbEntity
  8
0
  6
Continuous
 62
     7
370
     0
100
AcDbLine
 10
19.8301327509
 20
7.0457724056
 30
0.0
 11
20.1551327965
 21
7.0457724056
 31
0.0
  0
LINE
  5
297
330
1F
100
AcDbEntity
  8
0
  6
Continuous
 62
     7
370
     0
100
AcDbLine
 10
20.1551327965
 20
9.9457724512
 30
0.0
 11
20.1551327965
 21
9.725772426
 31
0.0
  0
LINE
  5
298
330
1F
100
AcDbEntity
  8
0
  6
Continuous
 62
     7
370
     0
100
AcDbLine
 10
19.8301327509
 20
9.725772426
 30
0.0
 11
20.1551327965
 21
9.725772426
 31
0.0
  0
LINE
  5
299
330
1F
100
AcDbEntity
  8
0
  6
Continuous
 62
     7
370
     0
100
AcDbLine
 10
19.8351327065
 20
7.2657724308
 30
0.0
 11
19.8351327065
 21
9.725772426
 31
0.0
  0
LINE
  5
29A
330
1F
100
AcDbEntity
  8
0
  6
Continuous
 62
     7
370
     0
100
AcDbLine
 10
19.8301327509
 20
7.2657724308
 30
0.0
 11
20.1551327965
 21
7.2657724308
 31
0.0
  0
LINE
  5
29B
330
1F
100
AcDbEntity
  8
0
  6
Continuous
 62
     7
370
     0
100
AcDbLine
 10
19.8301327509
 20
9.9457724512
 30
0.0
 11
20.1551327965
 21
9.9457724512
 31
0.0
  0
LINE
  5
29C
330
1F
100
AcDbEntity
  8
0
  6
Continuous
 62
     7
370
     0
100
AcDbLine
 10
20.1676327588
 20
10.1971581205
 30
0.0
 11
20.1676327588
 21
10.1607724475
 31
0.0
  0
LINE
  5
29D
330
1F
100
AcDbEntity
  8
0
  6
Continuous
 62
     7
370
     0
100
AcDbLine
 10
20.1676327588
 20
9.9707723757
 30
0.0
 11
20.1676327588
 21
9.9457724512
 31
0.0
  0
LINE
  5
29E
330
1F
100
AcDbEntity
  8
0
  6
Continuous
 62
     7
370
     0
100
AcDbLine
 10
23.1565183776
 20
10.7632724473
 30
0.0
 11
20.7187470723
 21
10.7632724473
 31
0.0
  0
LINE
  5
29F
330
1F
100
AcDbEntity
  8
0
  6
Continuous
 62
     7
370
     0
100
AcDbLine
 10
23.7076326911
 20
6.7943867363
 30
0.0
 11
23.7076326911
 21
10.1971581205
 31
0.0
  0
LINE
  5
2A0
330
1F
100
AcDbEntity
  8
0
  6
Continuous
 62
     7
370
     0
100
AcDbLine
 10
20.7187470723
 20
6.2282724094
 30
0.0
 11
23.1565183776
 21
6.2282724094
 31
0.0
  0
LINE
  5
2A1
330
1F
100
AcDbEntity
  8
0
  6
Continuous
 62
     7
370
     0
100
AcDbLine
 10
20.1676327588
 20
7.0457724056
 30
0.0
 11
20.1676327588
 21
7.020772481
 31
0.0
  0
LINE
  5
2A2
330
1F
100
AcDbEntity
  8
0
  6
Continuous
 62
     7
370
     0
100
AcDbLine
 10
20.1676327588
 20
6.8307724093
 30
0.0
 11
20.1676327588
 21
6.7943867363
 31
0.0
  0
LINE
  5
2A3
330
1F
100
AcDbEntity
  8
0
  6
Continuous
 62
     7
370
     0
100
AcDbLine
 10
20.1676327588
 20
7.2657724308
 30
0.0
 11
20.1676327588
 21
9.725772426
 31
0.0
  0
LINE
  5
2A4
330
1F
100
AcDbEntity
  8
0
  6
Continuous
 62
     7
370
     0
100
AcDbLine
 10
20.1551327965
 20
7.0457724056
 30
0.0
 11
20.1676327588
 21
7.0457724056
 31
0.0
  0
LINE
  5
2A5
330
1F
100
AcDbEntity
  8
0
  6
Continuous
 62
     7
370
     0
100
AcDbLine
 10
20.1551327965
 20
7.2657724308
 30
0.0
 11
20.1676327588
 21
7.2657724308
 31
0.0
  0
LINE
  5
2A6
330
1F
100
AcDbEntity
  8
0
  6
Continuous
 62
     7
370
     0
100
AcDbLine
 10
20.1551327965
 20
9.725772426
 30
0.0
 11
20.1676327588
 21
9.725772426
 31
0.0
  0
LINE
  5
2A7
330
1F
100
AcDbEntity
  8
0
  6
Continuous
 62
     7
370
     0
100
AcDbLine
 10
20.1551327965
 20
9.9457724512
 30
0.0
 11
20.1676327588
 21
9.9457724512
 31
0.0
  0
LINE
  5
2A8
330
1F
100
AcDbEntity
  8
0
  6
Continuous
 62
     7
370
     0
100
AcDbLine
 10
19.8651327333
 20
7.2657724308
 30
0.0
 11
19.8651327333
 21
9.725772426
 31
0.0
  0
CIRCLE
  5
2A9
330
1F
100
AcDbEntity
  8
0
  6
Continuous
 62
     7
370
     0
100
AcDbCircle
 10
23.1664554887
 20
6.7769496646
 30
0.0
 40
0.069
  0
CIRCLE
  5
2AA
330
1F
100
AcDbEntity
  8
0
  6
Continuous
 62
     7
370
     0
100
AcDbCircle
 10
23.1664554887
 20
6.7769496646
 30
0.0
 40
0.0389999999999988
  0
CIRCLE
  5
2AB
330
1F
100
AcDbEntity
  8
0
  6
Continuous
 62
     7
370
     0
100
AcDbCircle
 10
23.1664554887
 20
10.2145951921
 30
0.0
 40
0.0390000000000015
  0
CIRCLE
  5
2AC
330
1F
100
AcDbEntity
  8
0
  6
Continuous
 62
     7
370
     0
100
AcDbCircle
 10
23.1664554887
 20
10.2145951921
 30
0.0
 40
0.0690000000000008
  0
CIRCLE
  5
2AD
330
1F
100
AcDbEntity
  8
0
  6
Continuous
 62
     7
370
     0
100
AcDbCircle
 10
20.7088099612
 20
6.7769496646
 30
0.0
 40
0.0389999999999988
  0
CIRCLE
  5
2AE
330
1F
100
AcDbEntity
  8
0
  6
Continuous
 62
     7
370
     0
100
AcDbCircle
 10
20.7088099612
 20
10.2145951921
 30
0.0
 40
0.0690000000000008
  0
CIRCLE
  5
2AF
330
1F
100
AcDbEntity
  8
0
  6
Continuous
 62
     7
370
     0
100
AcDbCircle
 10
20.7088099612
 20
10.2145951921
 30
0.0
 40
0.0390000000000015
  0
CIRCLE
  5
2B0
330
1F
100
AcDbEntity
  8
0
  6
Continuous
 62
     7
370
     0
100
AcDbCircle
 10
20.7088099612
 20
6.7769496646
 30
0.0
 40
0.069
  0
CIRCLE
  5
2B1
330
1F
100
AcDbEntity
  8
0
  6
Continuous
 62
     7
370
     0
100
AcDbCircle
 10
23.4726327249
 20
6.4707724284
 30
0.0
 40
0.0625000000000009
  0
CIRCLE
  5
2B2
330
1F
100
AcDbEntity
  8
0
  6
Continuous
 62
     7
370
     0
100
AcDbCircle
 10
20.4026327249
 20
10.5207724284
 30
0.0
 40
0.0625000000000018
  0
CIRCLE
  5
2B3
330
1F
100
AcDbEntity
  8
0
  6
Continuous
 62
     7
370
     0
100
AcDbCircle
 10
23.4726327249
 20
10.5207724284
 30
0.0
 40
0.0625000000000018
  0
CIRCLE
  5
2B4
330
1F
100
AcDbEntity
  8
0
  6
Continuous
 62
     7
370
     0
100
AcDbCircle
 10
20.4026327249
 20
6.4707724284
 30
0.0
 40
0.0625000000000009
  0
LINE
  5
2B5
330
1F
100
AcDbEntity
  8
0
  6
Continuous
 62
     7
370
     0
100
AcDbLine
 10
23.7076326911
 20
10.1971581205
 30
0.0
 11
23.7076326911
 21
6.7943867363
 31
0.0
  0
LINE
  5
2B6
330
1F
100
AcDbEntity
  8
0
  6
Continuous
 62
     7
370
     0
100
AcDbLine
 10
20.7187470723
 20
10.7632724473
 30
0.0
 11
23.1565183776
 21
10.7632724473
 31
0.0
  0
LINE
  5
2B7
330
1F
100
AcDbEntity
  8
0
  6
Continuous
 62
     7
370
     0
100
AcDbLine
 10
23.1565183776
 20
6.2282724094
 30
0.0
 11
20.7187470723
 21
6.2282724094
 31
0.0
  0
LINE
  5
2B8
330
1F
100
AcDbEntity
  8
0
  6
Continuous
 62
     7
370
     0
100
AcDbLine
 10
20.1740213383
 20
10.1157724073
 30
0.0
 11
20.1740213383
 21
10.1607724475
 31
0.0
  0
LINE
  5
2B9
330
1F
100
AcDbEntity
  8
0
  6
Continuous
 62
     7
370
     0
100
AcDbLine
 10
20.1676327588
 20
10.1607724475
 30
0.0
 11
20.1676327588
 21
10.1971581205
 31
0.0
  0
LINE
  5
2BA
330
1F
100
AcDbEntity
  8
0
  6
Continuous
 62
     7
370
     0
100
AcDbLine
 10
20.1676327588
 20
6.7943867363
 30
0.0
 11
20.1676327588
 21
6.8307724093
 31
0.0
  0
LINE
  5
2BB
330
1F
100
AcDbEntity
  8
0
  6
Continuous
 62
     7
370
     0
100
AcDbLine
 10
20.1740213383
 20
6.8307724093
 30
0.0
 11
20.1740213383
 21
6.8757724494
 31
0.0
  0
LINE
  5
2BC
330
1F
100
AcDbEntity
  8
0
  6
Continuous
 62
     7
370
     0
100
AcDbLine
 10
20.1761856733
 20
6.8757724494
 30
0.0
 11
20.1761856733
 21
6.9757724409
 31
0.0
  0
LINE
  5
2BD
330
1F
100
AcDbEntity
  8
0
  6
Continuous
 62
     7
370
     0
100
AcDbLine
 10
20.1740213383
 20
7.020772481
 30
0.0
 11
20.1740213383
 21
6.9757724409
 31
0.0
  0
LINE
  5
2BE
330
1F
100
AcDbEntity
  8
0
  6
Continuous
 62
     7
370
     0
100
AcDbLine
 10
20.1676327588
 20
7.020772481
 30
0.0
 11
20.1676327588
 21
9.9707723757
 31
0.0
  0
LINE
  5
2BF
330
1F
100
AcDbEntity
  8
0
  6
Continuous
 62
     7
370
     0
100
AcDbLine
 10
20.1740213383
 20
10.0157724159
 30
0.0
 11
20.1740213383
 21
9.9707723757
 31
0.0
  0
LINE
  5
2C0
330
1F
100
AcDbEntity
  8
0
  6
Continuous
 62
     7
370
     0
100
AcDbLine
 10
20.1761856733
 20
10.0157724159
 30
0.0
 11
20.1761856733
 21
10.1157724073
 31
0.0
  0
LINE
  5
2C1
330
1F
100
AcDbEntity
  8
0
  6
Continuous
 62
     7
370
     0
100
AcDbLine
 10
20.1761856733
 20
6.8757724494
 30
0.0
 11
19.8877555119
 21
6.8757724494
 31
0.0
  0
LINE
  5
2C2
330
1F
100
AcDbEntity
  8
0
  6
Continuous
 62
     7
370
     0
100
AcDbLine
 10
19.8877555119
 20
6.8757724494
 30
0.0
 11
19.8877555119
 21
6.9757724409
 31
0.0
  0
LINE
  5
2C3
330
1F
100
AcDbEntity
  8
0
  6
Continuous
 62
     7
370
     0
100
AcDbLine
 10
20.1761856733
 20
6.9757724409
 30
0.0
 11
19.8877555119
 21
6.9757724409
 31
0.0
  0
LINE
  5
2C4
330
1F
100
AcDbEntity
  8
0
  6
Continuous
 62
     7
370
     0
100
AcDbLine
 10
20.1761856733
 20
10.1157724073
 30
0.0
 11
19.8877555119
 21
10.1157724073
 31
0.0
  0
LINE
  5
2C5
330
1F
100
AcDbEntity
  8
0
  6
Continuous
 62
     7
370
     0
100
AcDbLine
 10
20.1761856733
 20
10.0157724159
 30
0.0
 11
19.8877555119
 21
10.0157724159
 31
0.0
  0
LINE
  5
2C6
330
1F
100
AcDbEntity
  8
0
  6
Continuous
 62
     7
370
     0
100
AcDbLine
 10
19.8877555119
 20
10.0157724159
 30
0.0
 11
19.8877555119
 21
10.1157724073
 31
0.0
  0
LINE
  5
2C7
330
1F
100
AcDbEntity
  8
0
  6
Continuous
 62
     7
370
     0
100
AcDbLine
 10
20.1740213383
 20
10.1607724475
 30
0.0
 11
19.8877555119
 21
10.1607724475
 31
0.0
  0
LINE
  5
2C8
330
1F
100
AcDbEntity
  8
0
  6
Continuous
 62
     7
370
     0
100
AcDbLine
 10
20.1740213383
 20
6.8307724093
 30
0.0
 11
19.8877555119
 21
6.8307724093
 31
0.0
  0
LINE
  5
2C9
330
1F
100
AcDbEntity
  8
0
  6
Continuous
 62
     7
370
     0
100
AcDbLine
 10
19.8877555119
 20
7.020772481
 30
0.0
 11
20.1740213383
 21
7.020772481
 31
0.0
  0
LINE
  5
2CA
330
1F
100
AcDbEntity
  8
0
  6
Continuous
 62
     7
370
     0
100
AcDbLine
 10
19.8877555119
 20
9.9707723757
 30
0.0
 11
20.1740213383
 21
9.9707723757
 31
0.0
  0
LINE
  5
2CB
330
1F
100
AcDbEntity
  8
0
  6
Continuous
 62
     7
370
     0
100
AcDbLine
 10
19.8877555119
 20
9.9707723757
 30
0.0
 11
19.8301327509
 21
9.9707723757
 31
0.0
  0
LINE
  5
2CC
330
1F
100
AcDbEntity
  8
0
  6
Continuous
 62
     7
370
     0
100
AcDbLine
 10
19.8877555119
 20
10.1607724475
 30
0.0
 11
19.8301327509
 21
10.1607724475
 31
0.0
  0
LINE
  5
2CD
330
1F
100
AcDbEntity
  8
0
  6
Continuous
 62
     7
370
     0
100
AcDbLine
 10
19.8877555119
 20
7.020772481
 30
0.0
 11
19.8301327509
 21
7.020772481
 31
0.0
  0
LINE
  5
2CE
330
1F
100
AcDbEntity
  8
0
  6
Continuous
 62
     7
370
     0
100
AcDbLine
 10
19.8877555119
 20
6.8307724093
 30
0.0
 11
19.8301327509
 21
6.8307724093
 31
0.0
  0
DIMENSION
  5
2CF
330
1F
100
AcDbEntity
  8
0
  6
Continuous
 62
     7
370
     0
100
AcDbDimension
  2
*D12
 10
19.8818485806
 20
12.0083634017
 30
0.0
 11
21.9376327249
 21
12.0083634017
 31
0.0
 70
   160
 71
     2
 42
-1.0
  3
SLDDIMSTYLE0
100
AcDbAlignedDimension
 13
23.9934168693
 23
11.0415565727
 33
0.0
 14
19.8818485806
 24
11.0415565727
 34
0.0
100
AcDbRotatedDimension
  0
DIMENSION
  5
2DA
330
1F
100
AcDbEntity
  8
0
  6
Continuous
 62
     7
370
     0
100
AcDbDimension
  2
*D13
 10
24.1984778358
 20
12.4861044475
 30
0.0
 11
21.9376327249
 21
12.4861044475
 31
0.0
 70
   160
 71
     2
 42
-1.0
  3
SLDDIMSTYLE0
100
AcDbAlignedDimension
 13
19.676787614
 23
11.2466175393
 33
0.0
 14
24.1984778358
 24
11.2466175393
 34
0.0
100
AcDbRotatedDimension
  0
DIMENSION
  5
2E5
330
1F
100
AcDbEntity
  8
0
  6
Continuous
 62
     7
370
     0
100
AcDbDimension
  2
*D14
 10
25.050030264
 20
11.0415565727
 30
0.0
 11
25.050030264
 21
8.4957724284
 31
0.0
 70
   160
 71
     2
 42
-1.0
  3
SLDDIMSTYLE0
100
AcDbAlignedDimension
 13
23.9934168693
 23
5.949988284
 33
0.0
 14
23.9934168693
 24
11.0415565727
 34
0.0
 50
90.0
100
AcDbRotatedDimension
  0
DIMENSION
  5
2F0
330
1F
100
AcDbEntity
  8
0
  6
Continuous
 62
     7
370
     0
100
AcDbDimension
  2
*D15
 10
25.5224712089
 20
5.7449273175
 30
0.0
 11
25.5224712089
 21
8.4957724284
 31
0.0
 70
   160
 71
     2
 42
-1.0
  3
SLDDIMSTYLE2
100
AcDbAlignedDimension
 13
24.1984778358
 23
11.2466175393
 33
0.0
 14
24.1984778358
 24
5.7449273175
 34
0.0
 50
90.0
100
AcDbRotatedDimension
  0
DIMENSION
  5
2FB
330
1F
100
AcDbEntity
  8
0
  6
Continuous
 62
     7
370
     0
100
AcDbDimension
  2
*D16
 10
18.9141737133
 20
11.8854877532
 30
0.0
 11
18.4345151544
 21
11.4058291943
 31
0.0
 70
   160
 71
     2
 42
-1.0
  3
SLDDIMSTYLE3
100
AcDbAlignedDimension
 13
19.7386594574
 23
11.3084893826
 33
0.0
 14
19.6149157707
 24
11.1847456959
 34
0.0
 50
45.0
100
AcDbRotatedDimension
  0
DIMENSION
  5
306
330
1F
100
AcDbEntity
  8
0
  6
Continuous
 62
     7
370
     0
100
AcDbDimension
  2
*D17
 10
18.9531035442
 20
10.6466771561
 30
0.0
 11
19.1175058708
 21
10.4822748295
 31
0.0
 70
   160
 71
     2
 42
-1.0
  3
SLDDIMSTYLE3
100
AcDbAlignedDimension
 13
19.9437204239
 23
10.9796847294
 33
0.0
 14
19.6149157707
 24
11.3084893826
 34
0.0
 50
-45.0
100
AcDbRotatedDimension
  0
INSERT
  5
317
330
1F
100
AcDbEntity
  8
0
  6
Continuous
 62
     7
370
     0
100
AcDbBlockReference
  2
SW_NOTE_2
 10
20.1662522804
 20
4.8320182265
 30
0.0
  0
INSERT
  5
31F
330
1F
100
AcDbEntity
  8
0
  6
Continuous
 62
     7
370
     0
100
AcDbBlockReference
  2
SW_CENTERMARKSYMBOL_0
 10
23.9934168693
 20
5.949988284
 30
0.0
  0
INSERT
  5
327
330
1F
100
AcDbEntity
  8
0
  6
Continuous
 62
     7
370
     0
100
AcDbBlockReference
  2
SW_CENTERMARKSYMBOL_1
 10
24.1984778358
 20
5.7449273175
 30
0.0
  0
INSERT
  5
32F
330
1F
100
AcDbEntity
  8
0
  6
Continuous
 62
     7
370
     0
100
AcDbBlockReference
  2
SW_CENTERMARKSYMBOL_2
 10
23.9934168693
 20
11.0415565727
 30
0.0
  0
INSERT
  5
337
330
1F
100
AcDbEntity
  8
0
  6
Continuous
 62
     7
370
     0
100
AcDbBlockReference
  2
SW_CENTERMARKSYMBOL_3
 10
24.1984778358
 20
11.2466175393
 30
0.0
  0
INSERT
  5
33F
330
1F
100
AcDbEntity
  8
0
  6
Continuous
 62
     7
370
     0
100
AcDbBlockReference
  2
SW_CENTERMARKSYMBOL_4
 10
19.676787614
 20
11.2466175393
 30
0.0
  0
INSERT
  5
347
330
1F
100
AcDbEntity
  8
0
  6
Continuous
 62
     7
370
     0
100
AcDbBlockReference
  2
SW_CENTERMARKSYMBOL_5
 10
19.8818485806
 20
11.0415565727
 30
0.0
  0
SPLINE
  5
348
330
1F
100
AcDbEntity
  8
0
  6
Continuous
 62
     7
370
     0
100
AcDbSpline
210
0.0
220
0.0
230
1.0
 70
    24
 71
     1
 72
     4
 73
     2
 74
     0
 42
0.00000001
 43
0.00000001
 40
0.0
 40
0.0
 40
1.0
 40
1.0
 10
2.223210060246921
 20
6.823772383453403
 30
0.0
 10
2.223210060246921
 20
6.830772409255174
 30
0.0
  0
SPLINE
  5
349
330
1F
100
AcDbEntity
  8
0
  6
Continuous
 62
     7
370
     0
100
AcDbSpline
210
0.0
220
0.0
230
1.0
 70
    24
 71
     1
 72
     4
 73
     2
 74
     0
 42
0.00000001
 43
0.00000001
 40
0.0
 40
0.0
 40
1.0
 40
1.0
 10
2.223210060246921
 20
7.020772481024799
 30
0.0
 10
2.223210060246921
 20
9.970772375707616
 30
0.0
  0
SPLINE
  5
34A
330
1F
100
AcDbEntity
  8
0
  6
Continuous
 62
     7
370
     0
100
AcDbSpline
210
0.0
220
0.0
230
1.0
 70
    24
 71
     1
 72
     4
 73
     2
 74
     0
 42
0.00000001
 43
0.00000001
 40
0.0
 40
0.0
 40
1.0
 40
1.0
 10
2.223210060246921
 20
10.16077244747724
 30
0.0
 10
2.223210060246921
 20
10.16777247327901
 30
0.0
  0
SPLINE
  5
34B
330
1F
100
AcDbEntity
  8
0
  6
Continuous
 62
     7
370
     0
100
AcDbSpline
210
0.0
220
0.0
230
1.0
 70
    24
 71
     1
 72
     4
 73
     2
 74
     0
 42
0.00000001
 43
0.00000001
 40
0.0
 40
0.0
 40
1.0
 40
1.0
 10
2.105210023393416
 20
10.16777247327901
 30
0.0
 10
2.105210023393416
 20
10.16077244747724
 30
0.0
  0
SPLINE
  5
34C
330
1F
100
AcDbEntity
  8
0
  6
Continuous
 62
     7
370
     0
100
AcDbSpline
210
0.0
220
0.0
230
1.0
 70
    24
 71
     1
 72
     4
 73
     2
 74
     0
 42
0.00000001
 43
0.00000001
 40
0.0
 40
0.0
 40
1.0
 40
1.0
 10
2.105210023393416
 20
9.970772375707616
 30
0.0
 10
2.105210023393416
 20
7.020772481024799
 30
0.0
  0
SPLINE
  5
34D
330
1F
100
AcDbEntity
  8
0
  6
Continuous
 62
     7
370
     0
100
AcDbSpline
210
0.0
220
0.0
230
1.0
 70
    24
 71
     1
 72
     4
 73
     2
 74
     0
 42
0.00000001
 43
0.00000001
 40
0.0
 40
0.0
 40
1.0
 40
1.0
 10
2.105210023393416
 20
6.830772409255174
 30
0.0
 10
2.105210023393416
 20
6.823772383453403
 30
0.0
  0
SPLINE
  5
34E
330
1F
100
AcDbEntity
  8
0
  6
Continuous
 62
     7
370
     0
100
AcDbSpline
210
0.0
220
0.0
230
1.0
 70
    24
 71
     1
 72
     4
 73
     2
 74
     0
 42
0.00000001
 43
0.00000001
 40
0.0
 40
0.0
 40
1.0
 40
1.0
 10
2.326710064606039
 20
9.970772375707616
 30
0.0
 10
2.326710064606039
 20
10.16077244747724
 30
0.0
  0
SPLINE
  5
34F
330
1F
100
AcDbEntity
  8
0
  6
Continuous
 62
     7
370
     0
100
AcDbSpline
210
0.0
220
0.0
230
1.0
 70
    24
 71
     1
 72
     4
 73
     2
 74
     0
 42
0.00000001
 43
0.00000001
 40
0.0
 40
0.0
 40
1.0
 40
1.0
 10
2.326710064606039
 20
6.830772409255174
 30
0.0
 10
2.326710064606039
 20
7.020772481024799
 30
0.0
  0
LINE
  5
350
330
1F
100
AcDbEntity
  8
0
  6
Continuous
 62
     7
370
     0
100
AcDbLine
 10
2.1559065311
 20
6.8237723835
 30
0.0
 11
2.2232100602
 21
6.8237723835
 31
0.0
  0
LINE
  5
351
330
1F
100
AcDbEntity
  8
0
  6
Continuous
 62
     7
370
     0
100
AcDbLine
 10
2.1052100234
 20
6.8237723835
 30
0.0
 11
2.1559065311
 21
6.8237723835
 31
0.0
  0
LINE
  5
352
330
1F
100
AcDbEntity
  8
0
  6
Continuous
 62
     7
370
     0
100
AcDbLine
 10
2.1559065311
 20
10.1677724733
 30
0.0
 11
2.2232100602
 21
10.1677724733
 31
0.0
  0
LINE
  5
353
330
1F
100
AcDbEntity
  8
0
  6
Continuous
 62
     7
370
     0
100
AcDbLine
 10
2.1052100234
 20
10.1677724733
 30
0.0
 11
2.1559065311
 21
10.1677724733
 31
0.0
  0
LINE
  5
354
330
1F
100
AcDbEntity
  8
0
  6
Continuous
 62
     7
370
     0
100
AcDbLine
 10
2.001710019
 20
9.9707723757
 30
0.0
 11
2.001710019
 21
10.1607724475
 31
0.0
  0
LINE
  5
355
330
1F
100
AcDbEntity
  8
0
  6
Continuous
 62
     7
370
     0
100
AcDbLine
 10
2.3267100646
 20
10.1607724475
 30
0.0
 11
2.001710019
 21
10.1607724475
 31
0.0
  0
LINE
  5
356
330
1F
100
AcDbEntity
  8
0
  6
Continuous
 62
     7
370
     0
100
AcDbLine
 10
2.3267100646
 20
9.9707723757
 30
0.0
 11
2.001710019
 21
9.9707723757
 31
0.0
  0
LINE
  5
357
330
1F
100
AcDbEntity
  8
0
  6
Continuous
 62
     7
370
     0
100
AcDbLine
 10
2.3267100646
 20
6.8307724093
 30
0.0
 11
2.001710019
 21
6.8307724093
 31
0.0
  0
LINE
  5
358
330
1F
100
AcDbEntity
  8
0
  6
Continuous
 62
     7
370
     0
100
AcDbLine
 10
2.001710019
 20
6.8307724093
 30
0.0
 11
2.001710019
 21
7.020772481
 31
0.0
  0
LINE
  5
359
330
1F
100
AcDbEntity
  8
0
  6
Continuous
 62
     7
370
     0
100
AcDbLine
 10
2.3267100646
 20
7.020772481
 30
0.0
 11
2.001710019
 21
7.020772481
 31
0.0
  0
LINE
  5
35A
330
1F
100
AcDbEntity
  8
0
  6
Continuous
 62
     7
370
     0
100
AcDbLine
 10
1.8311951222
 20
10.2472723682
 30
0.0
 11
1.7072101278
 21
10.2472723682
 31
0.0
  0
ARC
  5
35B
330
1F
100
AcDbEntity
  8
0
  6
Continuous
 62
     7
370
     0
100
AcDbCircle
 10
1.7072100906
 20
10.4812724284
 30
0.0
 40
0.2340000000000002
100
AcDbArc
 50
180.0
 51
270.0
  0
LINE
  5
35C
330
1F
100
AcDbEntity
  8
0
  6
Continuous
 62
     7
370
     0
100
AcDbLine
 10
1.4732101243
 20
10.4812723717
 30
0.0
 11
1.4732101243
 21
10.6052575127
 31
0.0
  0
ELLIPSE
  5
35D
330
1F
100
AcDbEntity
  8
0
  6
Continuous
 62
     7
370
     0
100
AcDbEllipse
 10
1.4432055208
 20
10.6052483605
 30
0.0
 11
0.02121966567508404
 21
0.02121966567509048
 31
0.0
210
0.0
220
0.0
230
1.0
 40
0.9996954599
 41
5.497939437029578
 42
7.068431177329304
  0
LINE
  5
35E
330
1F
100
AcDbEntity
  8
0
  6
Continuous
 62
     7
370
     0
100
AcDbLine
 10
1.4432146442
 20
10.6352529929
 30
0.0
 11
-1.0047944629
 21
10.6352529929
 31
0.0
  0
ELLIPSE
  5
35F
330
1F
100
AcDbEntity
  8
0
  6
Continuous
 62
     7
370
     0
100
AcDbEllipse
 10
-1.0047853395
 20
10.6052483605
 30
0.0
 11
-0.02121966567508382
 21
0.02121966567509226
 31
0.0
210
0.0
220
0.0
230
1.0
 40
0.9996954599
 41
5.49793943702989
 42
7.068431177329709
  0
LINE
  5
360
330
1F
100
AcDbEntity
  8
0
  6
Continuous
 62
     7
370
     0
100
AcDbLine
 10
-1.0347899431
 20
10.6052575127
 30
0.0
 11
-1.0347899431
 21
10.4812723717
 31
0.0
  0
ARC
  5
361
330
1F
100
AcDbEntity
  8
0
  6
Continuous
 62
     7
370
     0
100
AcDbCircle
 10
-1.2687899094
 20
10.4812724284
 30
0.0
 40
0.2340000000000002
100
AcDbArc
 50
270.0
 51
0.0
  0
LINE
  5
362
330
1F
100
AcDbEntity
  8
0
  6
Continuous
 62
     7
370
     0
100
AcDbLine
 10
-1.2687899465
 20
10.2472723682
 30
0.0
 11
-1.3927749409
 21
10.2472723682
 31
0.0
  0
ELLIPSE
  5
363
330
1F
100
AcDbEntity
  8
0
  6
Continuous
 62
     7
370
     0
100
AcDbEllipse
 10
-1.3927658415
 20
10.2172678585
 30
0.0
 11
0.02121966567508382
 21
-0.02121966567509048
 31
0.0
210
0.0
220
0.0
230
1.0
 40
0.9996954599
 41
2.356346783440112
 42
3.926838523739751
  0
LINE
  5
364
330
1F
100
AcDbEntity
  8
0
  6
Continuous
 62
     7
370
     0
100
AcDbLine
 10
-1.4227704211
 20
10.2172770347
 30
0.0
 11
-1.4227704211
 21
6.774267822
 31
0.0
  0
ELLIPSE
  5
365
330
1F
100
AcDbEntity
  8
0
  6
Continuous
 62
     7
370
     0
100
AcDbEllipse
 10
-1.3927658415
 20
6.7742769982
 30
0.0
 11
0.02121966567509093
 21
0.02121966567508426
 31
0.0
210
0.0
220
0.0
230
1.0
 40
0.9996954599
 41
2.356346783440046
 42
3.926838523739832
  0
LINE
  5
366
330
1F
100
AcDbEntity
  8
0
  6
Continuous
 62
     7
370
     0
100
AcDbLine
 10
-1.3927749409
 20
6.7442724885
 30
0.0
 11
-1.2687899465
 21
6.7442724885
 31
0.0
  0
ARC
  5
367
330
1F
100
AcDbEntity
  8
0
  6
Continuous
 62
     7
370
     0
100
AcDbCircle
 10
-1.2687899094
 20
6.5102724284
 30
0.0
 40
0.2340000000000002
100
AcDbArc
 50
0.0
 51
90.0
  0
LINE
  5
368
330
1F
100
AcDbEntity
  8
0
  6
Continuous
 62
     7
370
     0
100
AcDbLine
 10
-1.0347899431
 20
6.510272485
 30
0.0
 11
-1.0347899431
 21
6.386287344
 31
0.0
  0
ELLIPSE
  5
369
330
1F
100
AcDbEntity
  8
0
  6
Continuous
 62
     7
370
     0
100
AcDbEllipse
 10
-1.0047853395
 20
6.3862964962
 30
0.0
 11
-0.02121966567508404
 21
-0.02121966567509048
 31
0.0
210
0.0
220
0.0
230
1.0
 40
0.9996954599
 41
5.49793943702954
 42
7.068431177329328
  0
LINE
  5
36A
330
1F
100
AcDbEntity
  8
0
  6
Continuous
 62
     7
370
     0
100
AcDbLine
 10
-1.0047944629
 20
6.3562918638
 30
0.0
 11
1.4432146442
 21
6.3562918638
 31
0.0
  0
ELLIPSE
  5
36B
330
1F
100
AcDbEntity
  8
0
  6
Continuous
 62
     7
370
     0
100
AcDbEllipse
 10
1.4432055208
 20
6.3862964962
 30
0.0
 11
0.02121966567508404
 21
-0.02121966567509136
 31
0.0
210
0.0
220
0.0
230
1.0
 40
0.9996954599
 41
5.497939437029899
 42
7.06843117732969
  0
LINE
  5
36C
330
1F
100
AcDbEntity
  8
0
  6
Continuous
 62
     7
370
     0
100
AcDbLine
 10
1.4732101243
 20
6.386287344
 30
0.0
 11
1.4732101243
 21
6.510272485
 31
0.0
  0
ARC
  5
36D
330
1F
100
AcDbEntity
  8
0
  6
Continuous
 62
     7
370
     0
100
AcDbCircle
 10
1.7072100906
 20
6.5102724284
 30
0.0
 40
0.2340000000000002
100
AcDbArc
 50
90.0
 51
180.0
  0
LINE
  5
36E
330
1F
100
AcDbEntity
  8
0
  6
Continuous
 62
     7
370
     0
100
AcDbLine
 10
1.7072101278
 20
6.7442724885
 30
0.0
 11
1.8311951222
 21
6.7442724885
 31
0.0
  0
ELLIPSE
  5
36F
330
1F
100
AcDbEntity
  8
0
  6
Continuous
 62
     7
370
     0
100
AcDbEllipse
 10
1.8311860228
 20
6.7742769982
 30
0.0
 11
-0.02121966567508382
 21
0.02121966567508959
 31
0.0
210
0.0
220
0.0
230
1.0
 40
0.9996954599
 41
2.356346783440083
 42
3.92683852373976
  0
LINE
  5
370
330
1F
100
AcDbEntity
  8
0
  6
Continuous
 62
     7
370
     0
100
AcDbLine
 10
1.8611906023
 20
6.774267822
 30
0.0
 11
1.8611906023
 21
10.2172770347
 31
0.0
  0
ELLIPSE
  5
371
330
1F
100
AcDbEntity
  8
0
  6
Continuous
 62
     7
370
     0
100
AcDbEllipse
 10
1.8311860228
 20
10.2172678585
 30
0.0
 11
-0.02121966567508404
 21
-0.02121966567509048
 31
0.0
210
0.0
220
0.0
230
1.0
 40
0.9996954599
 41
2.35634678343981
 42
3.926838523739538
  0
SPLINE
  5
372
330
1F
100
AcDbEntity
  8
0
  6
Continuous
 62
     7
370
     0
100
AcDbSpline
210
0.0
220
0.0
230
1.0
 70
     8
 71
     3
 72
    20
 73
    16
 74
     0
 42
0.00000001
 43
0.00000001
 40
0.0
 40
0.0
 40
0.0
 40
0.0
 40
0.125
 40
0.125
 40
0.25
 40
0.25
 40
0.375
 40
0.375
 40
0.5
 40
0.5
 40
0.625
 40
0.625
 40
0.75
 40
0.75
 40
1.0
 40
1.0
 40
1.0
 40
1.0
 10
-1.094789909374423
 20
6.386287357210519
 30
0.0
 10
-1.094789909374423
 20
6.380345195675902
 30
0.0
 10
-1.094207227009941
 20
6.374502262680179
 30
0.0
 10
-1.091924099292418
 20
6.363006747375398
 30
0.0
 10
-1.090196021248157
 20
6.357294730774654
 30
0.0
 10
-1.085683901782951
 20
6.346400857819892
 30
0.0
 10
-1.082922700685184
 20
6.34123386534348
 30
0.0
 10
-1.076399202216372
 20
6.331454677355272
 30
0.0
 10
-1.072601870390526
 20
6.32682385899801
 30
0.0
 10
-1.06430647747257
 20
6.318522528297893
 30
0.0
 10
-1.059780211890397
 20
6.314797139959675
 30
0.0
 10
-1.049952727694255
 20
6.308216930081976
 30
0.0
 10
-1.044718167904878
 20
6.305419028948064
 30
0.0
 10
-1.028488122832509
 20
6.298679769259223
 30
0.0
 10
-1.016678805894036
 20
6.296291926355828
 30
0.0
 10
-1.004794478519732
 20
6.296291926355827
 30
0.0
  0
SPLINE
  5
373
330
1F
100
AcDbEntity
  8
0
  6
Continuous
 62
     7
370
     0
100
AcDbSpline
210
0.0
220
0.0
230
1.0
 70
     8
 71
     3
 72
    20
 73
    16
 74
     0
 42
0.00000001
 43
0.00000001
 40
0.0
 40
0.0
 40
0.0
 40
0.0
 40
0.125
 40
0.125
 40
0.25
 40
0.25
 40
0.375
 40
0.375
 40
0.5
 40
0.5
 40
0.625
 40
0.625
 40
0.75
 40
0.75
 40
1.0
 40
1.0
 40
1.0
 40
1.0
 10
-1.39277498053011
 20
10.30727242836621
 30
0.0
 10
-1.398717142064728
 20
10.30727242836621
 30
0.0
 10
-1.40456007506045
 20
10.30668974600172
 30
0.0
 10
-1.416055590365231
 20
10.3044066182842
 30
0.0
 10
-1.421767606965976
 20
10.30267854023994
 30
0.0
 10
-1.432661479920737
 20
10.29816642077474
 30
0.0
 10
-1.437828472397149
 20
10.29540521967697
 30
0.0
 10
-1.447607660385356
 20
10.28888172120816
 30
0.0
 10
-1.452238478742619
 20
10.28508438938231
 30
0.0
 10
-1.460539809442735
 20
10.27678899646435
 30
0.0
 10
-1.464265197780954
 20
10.27226273088218
 30
0.0
 10
-1.470845407658653
 20
10.26243524668604
 30
0.0
 10
-1.473643308792565
 20
10.25720068689666
 30
0.0
 10
-1.480382568481405
 20
10.24097064182429
 30
0.0
 10
-1.482770411384802
 20
10.22916132488582
 30
0.0
 10
-1.482770411384802
 20
10.21727699751152
 30
0.0
  0
LINE
  5
374
330
1F
100
AcDbEntity
  8
0
  6
Continuous
 62
     7
370
     0
100
AcDbLine
 10
-1.2687899465
 20
10.3072724218
 30
0.0
 11
-1.3927749409
 21
10.3072724218
 31
0.0
  0
LINE
  5
375
330
1F
100
AcDbEntity
  8
0
  6
Continuous
 62
     7
370
     0
100
AcDbLine
 10
1.4432146442
 20
10.6952528998
 30
0.0
 11
-1.0047944629
 21
10.6952528998
 31
0.0
  0
SPLINE
  5
376
330
1F
100
AcDbEntity
  8
0
  6
Continuous
 62
     7
370
     0
100
AcDbSpline
210
0.0
220
0.0
230
1.0
 70
     8
 71
     3
 72
    20
 73
    16
 74
     0
 42
0.00000001
 43
0.00000001
 40
0.0
 40
0.0
 40
0.0
 40
0.0
 40
0.125
 40
0.125
 40
0.25
 40
0.25
 40
0.375
 40
0.375
 40
0.5
 40
0.5
 40
0.625
 40
0.625
 40
0.75
 40
0.75
 40
1.0
 40
1.0
 40
1.0
 40
1.0
 10
1.921190592635958
 20
10.21727699751152
 30
0.0
 10
1.921190592635959
 20
10.22321915904613
 30
0.0
 10
1.920607910271475
 20
10.22906209204185
 30
0.0
 10
1.918324782553952
 20
10.24055760734663
 30
0.0
 10
1.916596704509692
 20
10.24626962394738
 30
0.0
 10
1.912084585044486
 20
10.25716349690214
 30
0.0
 10
1.909323383946718
 20
10.26233048937855
 30
0.0
 10
1.902799885477906
 20
10.27210967736676
 30
0.0
 10
1.89900255365206
 20
10.27674049572403
 30
0.0
 10
1.890707160734103
 20
10.28504182642414
 30
0.0
 10
1.886180895151931
 20
10.28876721476236
 30
0.0
 10
1.876353410955789
 20
10.29534742464006
 30
0.0
 10
1.871118851166413
 20
10.29814532577397
 30
0.0
 10
1.854888806094044
 20
10.30488458546281
 30
0.0
 10
1.843079489155571
 20
10.30727242836621
 30
0.0
 10
1.831195161781268
 20
10.30727242836621
 30
0.0
  0
LINE
  5
377
330
1F
100
AcDbEntity
  8
0
  6
Continuous
 62
     7
370
     0
100
AcDbLine
 10
1.9211906559
 20
6.774267822
 30
0.0
 11
1.9211906559
 21
10.2172770347
 31
0.0
  0
ARC
  5
378
330
1F
100
AcDbEntity
  8
0
  6
Continuous
 62
     7
370
     0
100
AcDbCircle
 10
-1.2687899094
 20
10.4812724284
 30
0.0
 40
0.1740000000000013
100
AcDbArc
 50
270.0
 51
0.0
  0
SPLINE
  5
379
330
1F
100
AcDbEntity
  8
0
  6
Continuous
 62
     7
370
     0
100
AcDbSpline
210
0.0
220
0.0
230
1.0
 70
     8
 71
     3
 72
    20
 73
    16
 74
     0
 42
0.00000001
 43
0.00000001
 40
0.0
 40
0.0
 40
0.0
 40
0.0
 40
0.125
 40
0.125
 40
0.25
 40
0.25
 40
0.375
 40
0.375
 40
0.5
 40
0.5
 40
0.625
 40
0.625
 40
0.75
 40
0.75
 40
1.0
 40
1.0
 40
1.0
 40
1.0
 10
-1.482770411384801
 20
6.774267859220898
 30
0.0
 10
-1.482770411384802
 20
6.768325697686281
 30
0.0
 10
-1.482187729020319
 20
6.762482764690559
 30
0.0
 10
-1.479904601302797
 20
6.750987249385776
 30
0.0
 10
-1.478176523258535
 20
6.745275232785032
 30
0.0
 10
-1.47366440379333
 20
6.734381359830271
 30
0.0
 10
-1.470903202695562
 20
6.729214367353859
 30
0.0
 10
-1.46437970422675
 20
6.719435179365651
 30
0.0
 10
-1.460582372400903
 20
6.714804361008389
 30
0.0
 10
-1.452286979482947
 20
6.706503030308274
 30
0.0
 10
-1.447760713900775
 20
6.702777641970055
 30
0.0
 10
-1.437933229704633
 20
6.696197432092355
 30
0.0
 10
-1.432698669915256
 20
6.693399530958443
 30
0.0
 10
-1.416468624842887
 20
6.686660271269603
 30
0.0
 10
-1.404659307904414
 20
6.684272428366206
 30
0.0
 10
-1.392774980530111
 20
6.684272428366206
 30
0.0
  0
LINE
  5
37A
330
1F
100
AcDbEntity
  8
0
  6
Continuous
 62
     7
370
     0
100
AcDbLine
 10
1.5332100312
 20
6.386287344
 30
0.0
 11
1.5332100312
 21
6.510272485
 31
0.0
  0
SPLINE
  5
37B
330
1F
100
AcDbEntity
  8
0
  6
Continuous
 62
     7
370
     0
100
AcDbSpline
210
0.0
220
0.0
230
1.0
 70
     8
 71
     3
 72
    20
 73
    16
 74
     0
 42
0.00000001
 43
0.00000001
 40
0.0
 40
0.0
 40
0.0
 40
0.0
 40
0.125
 40
0.125
 40
0.25
 40
0.25
 40
0.375
 40
0.375
 40
0.5
 40
0.5
 40
0.625
 40
0.625
 40
0.75
 40
0.75
 40
1.0
 40
1.0
 40
1.0
 40
1.0
 10
1.443214659770887
 20
6.296291926355827
 30
0.0
 10
1.449156821305505
 20
6.296291926355827
 30
0.0
 10
1.454999754301227
 20
6.296874608720308
 30
0.0
 10
1.466495269606009
 20
6.299157736437832
 30
0.0
 10
1.472207286206753
 20
6.300885814482093
 30
0.0
 10
1.483101159161514
 20
6.305397933947298
 30
0.0
 10
1.488268151637927
 20
6.308159135045066
 30
0.0
 10
1.498047339626134
 20
6.314682633513878
 30
0.0
 10
1.502678157983397
 20
6.318479965339724
 30
0.0
 10
1.510979488683513
 20
6.32677535825768
 30
0.0
 10
1.514704877021731
 20
6.331301623839853
 30
0.0
 10
1.52128508689943
 20
6.341129108035996
 30
0.0
 10
1.524082988033343
 20
6.346363667825371
 30
0.0
 10
1.530822247722183
 20
6.362593712897741
 30
0.0
 10
1.533210090625579
 20
6.374403029836214
 30
0.0
 10
1.533210090625579
 20
6.386287357210517
 30
0.0
  0
LINE
  5
37C
330
1F
100
AcDbEntity
  8
0
  6
Continuous
 62
     7
370
     0
100
AcDbLine
 10
-1.0047944629
 20
6.296291957
 30
0.0
 11
1.4432146442
 21
6.296291957
 31
0.0
  0
LINE
  5
37D
330
1F
100
AcDbEntity
  8
0
  6
Continuous
 62
     7
370
     0
100
AcDbLine
 10
-1.4827704746
 20
10.2172770347
 30
0.0
 11
-1.4827704746
 21
6.774267822
 31
0.0
  0
LINE
  5
37E
330
1F
100
AcDbEntity
  8
0
  6
Continuous
 62
     7
370
     0
100
AcDbLine
 10
-1.0947898499
 20
6.510272485
 30
0.0
 11
-1.0947898499
 21
6.386287344
 31
0.0
  0
ARC
  5
37F
330
1F
100
AcDbEntity
  8
0
  6
Continuous
 62
     7
370
     0
100
AcDbCircle
 10
-1.2687899094
 20
6.5102724284
 30
0.0
 40
0.1740000000000004
100
AcDbArc
 50
0.0
 51
90.0
  0
LINE
  5
380
330
1F
100
AcDbEntity
  8
0
  6
Continuous
 62
     7
370
     0
100
AcDbLine
 10
-1.3927749409
 20
6.684272435
 30
0.0
 11
-1.2687899465
 21
6.684272435
 31
0.0
  0
LINE
  5
381
330
1F
100
AcDbEntity
  8
0
  6
Continuous
 62
     7
370
     0
100
AcDbLine
 10
1.8311951222
 20
10.3072724218
 30
0.0
 11
1.7072101278
 21
10.3072724218
 31
0.0
  0
SPLINE
  5
382
330
1F
100
AcDbEntity
  8
0
  6
Continuous
 62
     7
370
     0
100
AcDbSpline
210
0.0
220
0.0
230
1.0
 70
     8
 71
     3
 72
    20
 73
    16
 74
     0
 42
0.00000001
 43
0.00000001
 40
0.0
 40
0.0
 40
0.0
 40
0.0
 40
0.125
 40
0.125
 40
0.25
 40
0.25
 40
0.375
 40
0.375
 40
0.5
 40
0.5
 40
0.625
 40
0.625
 40
0.75
 40
0.75
 40
1.0
 40
1.0
 40
1.0
 40
1.0
 10
-1.004794478519731
 20
10.69525293037659
 30
0.0
 10
-1.010736640054348
 20
10.69525293037659
 30
0.0
 10
-1.01657957305007
 20
10.69467024801211
 30
0.0
 10
-1.028075088354852
 20
10.69238712029458
 30
0.0
 10
-1.033787104955597
 20
10.69065904225032
 30
0.0
 10
-1.044680977910358
 20
10.68614692278511
 30
0.0
 10
-1.04984797038677
 20
10.68338572168735
 30
0.0
 10
-1.059627158374978
 20
10.67686222321854
 30
0.0
 10
-1.06425797673224
 20
10.67306489139269
 30
0.0
 10
-1.072559307432357
 20
10.66476949847473
 30
0.0
 10
-1.076284695770575
 20
10.66024323289256
 30
0.0
 10
-1.082864905648274
 20
10.65041574869642
 30
0.0
 10
-1.085662806782186
 20
10.64518118890704
 30
0.0
 10
-1.092402066471026
 20
10.62895114383467
 30
0.0
 10
-1.094789909374423
 20
10.6171418268962
 30
0.0
 10
-1.094789909374423
 20
10.60525749952189
 30
0.0
  0
LINE
  5
383
330
1F
100
AcDbEntity
  8
0
  6
Continuous
 62
     7
370
     0
100
AcDbLine
 10
1.7072101278
 20
6.684272435
 30
0.0
 11
1.8311951222
 21
6.684272435
 31
0.0
  0
SPLINE
  5
384
330
1F
100
AcDbEntity
  8
0
  6
Continuous
 62
     7
370
     0
100
AcDbSpline
210
0.0
220
0.0
230
1.0
 70
     8
 71
     3
 72
    20
 73
    16
 74
     0
 42
0.00000001
 43
0.00000001
 40
0.0
 40
0.0
 40
0.0
 40
0.0
 40
0.125
 40
0.125
 40
0.25
 40
0.25
 40
0.375
 40
0.375
 40
0.5
 40
0.5
 40
0.625
 40
0.625
 40
0.75
 40
0.75
 40
1.0
 40
1.0
 40
1.0
 40
1.0
 10
1.831195161781266
 20
6.684272428366206
 30
0.0
 10
1.837137323315883
 20
6.684272428366206
 30
0.0
 10
1.842980256311605
 20
6.684855110730689
 30
0.0
 10
1.854475771616387
 20
6.687138238448212
 30
0.0
 10
1.860187788217132
 20
6.688866316492472
 30
0.0
 10
1.871081661171893
 20
6.693378435957679
 30
0.0
 10
1.876248653648305
 20
6.696139637055446
 30
0.0
 10
1.886027841636512
 20
6.702663135524258
 30
0.0
 10
1.890658659993775
 20
6.706460467350105
 30
0.0
 10
1.898959990693891
 20
6.714755860268061
 30
0.0
 10
1.902685379032109
 20
6.719282125850233
 30
0.0
 10
1.909265588909809
 20
6.729109610046375
 30
0.0
 10
1.912063490043721
 20
6.734344169835751
 30
0.0
 10
1.918802749732561
 20
6.750574214908121
 30
0.0
 10
1.921190592635958
 20
6.762383531846594
 30
0.0
 10
1.921190592635958
 20
6.774267859220897
 30
0.0
  0
ARC
  5
385
330
1F
100
AcDbEntity
  8
0
  6
Continuous
 62
     7
370
     0
100
AcDbCircle
 10
1.7072100906
 20
6.5102724284
 30
0.0
 40
0.1740000000000004
100
AcDbArc
 50
90.0
 51
180.0
  0
LINE
  5
386
330
1F
100
AcDbEntity
  8
0
  6
Continuous
 62
     7
370
     0
100
AcDbLine
 10
-1.0947898499
 20
10.6052575127
 30
0.0
 11
-1.0947898499
 21
10.4812723717
 31
0.0
  0
SPLINE
  5
387
330
1F
100
AcDbEntity
  8
0
  6
Continuous
 62
     7
370
     0
100
AcDbSpline
210
0.0
220
0.0
230
1.0
 70
     8
 71
     3
 72
    20
 73
    16
 74
     0
 42
0.00000001
 43
0.00000001
 40
0.0
 40
0.0
 40
0.0
 40
0.0
 40
0.125
 40
0.125
 40
0.25
 40
0.25
 40
0.375
 40
0.375
 40
0.5
 40
0.5
 40
0.625
 40
0.625
 40
0.75
 40
0.75
 40
1.0
 40
1.0
 40
1.0
 40
1.0
 10
1.53321009062558
 20
10.60525749952189
 30
0.0
 10
1.53321009062558
 20
10.61119966105651
 30
0.0
 10
1.532627408261098
 20
10.61704259405223
 30
0.0
 10
1.530344280543574
 20
10.62853810935701
 30
0.0
 10
1.528616202499314
 20
10.63425012595776
 30
0.0
 10
1.524104083034107
 20
10.64514399891252
 30
0.0
 10
1.52134288193634
 20
10.65031099138893
 30
0.0
 10
1.514819383467529
 20
10.66009017937714
 30
0.0
 10
1.511022051641682
 20
10.6647209977344
 30
0.0
 10
1.502726658723726
 20
10.67302232843452
 30
0.0
 10
1.498200393141554
 20
10.67674771677274
 30
0.0
 10
1.488372908945411
 20
10.68332792665044
 30
0.0
 10
1.483138349156036
 20
10.68612582778435
 30
0.0
 10
1.466908304083666
 20
10.69286508747319
 30
0.0
 10
1.455098987145193
 20
10.69525293037659
 30
0.0
 10
1.44321465977089
 20
10.69525293037659
 30
0.0
  0
LINE
  5
388
330
1F
100
AcDbEntity
  8
0
  6
Continuous
 62
     7
370
     0
100
AcDbLine
 10
1.5332100312
 20
10.4812723717
 30
0.0
 11
1.5332100312
 21
10.6052575127
 31
0.0
  0
ARC
  5
389
330
1F
100
AcDbEntity
  8
0
  6
Continuous
 62
     7
370
     0
100
AcDbCircle
 10
1.7072100906
 20
10.4812724284
 30
0.0
 40
0.1740000000000013
100
AcDbArc
 50
180.0
 51
270.0
  0
LINE
  5
38A
330
1F
100
AcDbEntity
  8
0
  6
Continuous
 62
     7
370
     0
100
AcDbLine
 10
1.9892100568
 20
6.4622724129
 30
0.0
 11
1.9892100568
 21
6.8307724093
 31
0.0
  0
ARC
  5
38B
330
1F
100
AcDbEntity
  8
0
  6
Continuous
 62
     7
370
     0
100
AcDbCircle
 10
1.7552100906
 20
6.4622724284
 30
0.0
 40
0.2340000000000009
100
AcDbArc
 50
270.0
 51
0.0
  0
LINE
  5
38C
330
1F
100
AcDbEntity
  8
0
  6
Continuous
 62
     7
370
     0
100
AcDbLine
 10
-1.316789872
 20
6.2282724094
 30
0.0
 11
1.7552100533
 21
6.2282724094
 31
0.0
  0
ARC
  5
38D
330
1F
100
AcDbEntity
  8
0
  6
Continuous
 62
     7
370
     0
100
AcDbCircle
 10
-1.3167899094
 20
6.4622724284
 30
0.0
 40
0.2340000000000009
100
AcDbArc
 50
180.0
 51
270.0
  0
LINE
  5
38E
330
1F
100
AcDbEntity
  8
0
  6
Continuous
 62
     7
370
     0
100
AcDbLine
 10
-1.5507898755
 20
10.5292724439
 30
0.0
 11
-1.5507898755
 21
6.4622724129
 31
0.0
  0
ARC
  5
38F
330
1F
100
AcDbEntity
  8
0
  6
Continuous
 62
     7
370
     0
100
AcDbCircle
 10
-1.3167899094
 20
10.5292724284
 30
0.0
 40
0.2340000000000018
100
AcDbArc
 50
90.0
 51
180.0
  0
LINE
  5
390
330
1F
100
AcDbEntity
  8
0
  6
Continuous
 62
     7
370
     0
100
AcDbLine
 10
1.7552100533
 20
10.7632724473
 30
0.0
 11
-1.316789872
 21
10.7632724473
 31
0.0
  0
ARC
  5
391
330
1F
100
AcDbEntity
  8
0
  6
Continuous
 62
     7
370
     0
100
AcDbCircle
 10
1.7552100906
 20
10.5292724284
 30
0.0
 40
0.2340000000000018
100
AcDbArc
 50
0.0
 51
90.0
  0
LINE
  5
392
330
1F
100
AcDbEntity
  8
0
  6
Continuous
 62
     7
370
     0
100
AcDbLine
 10
1.9892100568
 20
10.1607724475
 30
0.0
 11
1.9892100568
 21
10.5292724439
 31
0.0
  0
LINE
  5
393
330
1F
100
AcDbEntity
  8
0
  6
Continuous
 62
     7
370
     0
100
AcDbLine
 10
1.9892100568
 20
7.020772481
 30
0.0
 11
1.9892100568
 21
9.9707723757
 31
0.0
  0
CIRCLE
  5
394
330
1F
100
AcDbEntity
  8
0
  6
Continuous
 62
     7
370
     0
100
AcDbCircle
 10
1.7542100906
 20
6.4707724284
 30
0.0
 40
0.0599999999999996
  0
CIRCLE
  5
395
330
1F
100
AcDbEntity
  8
0
  6
Continuous
 62
     7
370
     0
100
AcDbCircle
 10
1.7542100906
 20
10.5207724284
 30
0.0
 40
0.0599999999999987
  0
CIRCLE
  5
396
330
1F
100
AcDbEntity
  8
0
  6
Continuous
 62
     7
370
     0
100
AcDbCircle
 10
-1.3157899094
 20
10.5207724284
 30
0.0
 40
0.0599999999999987
  0
CIRCLE
  5
397
330
1F
100
AcDbEntity
  8
0
  6
Continuous
 62
     7
370
     0
100
AcDbCircle
 10
-1.3157899094
 20
6.4707724284
 30
0.0
 40
0.0599999999999996
  0
LINE
  5
398
330
1F
100
AcDbEntity
  8
0
  6
Continuous
 62
     7
370
     0
100
AcDbLine
 10
1.9892100568
 20
9.9707723757
 30
0.0
 11
2.001710019
 21
9.9707723757
 31
0.0
  0
LINE
  5
399
330
1F
100
AcDbEntity
  8
0
  6
Continuous
 62
     7
370
     0
100
AcDbLine
 10
2.001710019
 20
10.1607724475
 30
0.0
 11
1.9892100568
 21
10.1607724475
 31
0.0
  0
LINE
  5
39A
330
1F
100
AcDbEntity
  8
0
  6
Continuous
 62
     7
370
     0
100
AcDbLine
 10
1.9892100568
 20
7.020772481
 30
0.0
 11
2.001710019
 21
7.020772481
 31
0.0
  0
LINE
  5
39B
330
1F
100
AcDbEntity
  8
0
  6
Continuous
 62
     7
370
     0
100
AcDbLine
 10
2.001710019
 20
6.8307724093
 30
0.0
 11
1.9892100568
 21
6.8307724093
 31
0.0
  0
CIRCLE
  5
39C
330
1F
100
AcDbEntity
  8
0
  6
Continuous
 62
     7
370
     0
100
AcDbCircle
 10
-1.1207899094
 20
6.9757724284
 30
0.0
 40
0.0625000000000009
  0
CIRCLE
  5
39D
330
1F
100
AcDbEntity
  8
0
  6
Continuous
 62
     7
370
     0
100
AcDbCircle
 10
1.5592100906
 20
6.9757724284
 30
0.0
 40
0.1560000000000006
  0
CIRCLE
  5
39E
330
1F
100
AcDbEntity
  8
0
  6
Continuous
 62
     7
370
     0
100
AcDbCircle
 10
1.5592100906
 20
10.0157724284
 30
0.0
 40
0.0625
  0
CIRCLE
  5
39F
330
1F
100
AcDbEntity
  8
0
  6
Continuous
 62
     7
370
     0
100
AcDbCircle
 10
1.5592100906
 20
10.0157724284
 30
0.0
 40
0.1560000000000006
  0
CIRCLE
  5
3A0
330
1F
100
AcDbEntity
  8
0
  6
Continuous
 62
     7
370
     0
100
AcDbCircle
 10
1.5592100906
 20
6.9757724284
 30
0.0
 40
0.0625000000000009
  0
CIRCLE
  5
3A1
330
1F
100
AcDbEntity
  8
0
  6
Continuous
 62
     7
370
     0
100
AcDbCircle
 10
-1.1207899094
 20
10.0157724284
 30
0.0
 40
0.0625
  0
CIRCLE
  5
3A2
330
1F
100
AcDbEntity
  8
0
  6
Continuous
 62
     7
370
     0
100
AcDbCircle
 10
-1.1207899094
 20
6.9757724284
 30
0.0
 40
0.1560000000000006
  0
CIRCLE
  5
3A3
330
1F
100
AcDbEntity
  8
0
  6
Continuous
 62
     7
370
     0
100
AcDbCircle
 10
-1.1207899094
 20
10.0157724284
 30
0.0
 40
0.1560000000000006
  0
DIMENSION
  5
3A4
330
1F
100
AcDbEntity
  8
0
  6
Continuous
 62
     7
370
     0
100
AcDbDimension
  2
*D25
 10
2.6874949011
 20
6.9757724284
 30
0.0
 11
2.6874949011
 21
8.4957724284
 31
0.0
 70
   160
 71
     2
 42
-1.0
  3
SLDDIMSTYLE0
100
AcDbAlignedDimension
 13
1.5592100906
 23
10.0157724284
 33
0.0
 14
1.5592100906
 24
6.9757724284
 34
0.0
 50
90.0
100
AcDbRotatedDimension
  0
DIMENSION
  5
3AF
330
1F
100
AcDbEntity
  8
0
  6
Continuous
 62
     7
370
     0
100
AcDbDimension
  2
*D26
 10
1.5592100906
 20
5.9053287691
 30
0.0
 11
0.2192100906
 21
5.9053287691
 31
0.0
 70
   160
 71
     2
 42
-1.0
  3
SLDDIMSTYLE0
100
AcDbAlignedDimension
 13
-1.1207899094
 23
6.9757724284
 33
0.0
 14
1.5592100906
 24
6.9757724284
 34
0.0
100
AcDbRotatedDimension
  0
DIMENSION
  5
3BA
330
1F
100
AcDbEntity
  8
0
  6
Continuous
 62
     7
370
     0
100
AcDbDimension
  2
*D27
 10
1.8611905926
 20
5.599289075
 30
0.0
 11
0.2192100906
 21
5.599289075
 31
0.0
 70
   160
 71
     2
 42
-1.0
  3
SLDDIMSTYLE0
100
AcDbAlignedDimension
 13
-1.4227704114
 23
6.7742678592
 33
0.0
 14
1.8611905926
 24
6.7742678592
 34
0.0
100
AcDbRotatedDimension
  0
DIMENSION
  5
3C5
330
1F
100
AcDbEntity
  8
0
  6
Continuous
 62
     7
370
     0
100
AcDbDimension
  2
*D28
 10
-2.0005988665
 20
6.3562919264
 30
0.0
 11
-2.0005988665
 21
8.4957724284
 31
0.0
 70
   160
 71
     2
 42
-1.0
  3
SLDDIMSTYLE0
100
AcDbAlignedDimension
 13
-1.0047944785
 23
10.6352529304
 33
0.0
 14
-1.0047944785
 24
6.3562919264
 34
0.0
 50
90.0
100
AcDbRotatedDimension
  0
DIMENSION
  5
3D0
330
1F
100
AcDbEntity
  8
0
  6
Continuous
 62
     7
370
     0
100
AcDbDimension
  2
*D29
 10
1.5701814777
 20
9.8601587122
 30
0.0
 11
2.5263419896
 21
12.0407029617
 31
0.0
 70
   163
  1
<> BOSS WITH\PM4x.7 TAPPED HOLE\Px .25 DEEP (4) PLACES
 71
     1
 42
-1.0
  3
SLDDIMSTYLE4
100
AcDbDiametricDimension
 15
1.5482387035
 25
10.1713861446
 35
0.0
 40
0.0
  0
SPLINE
  5
3DD
330
1F
100
AcDbEntity
  8
0
  6
Continuous
 62
     7
370
     0
100
AcDbSpline
210
0.0
220
0.0
230
1.0
 70
    24
 71
     1
 72
     4
 73
     2
 74
     0
 42
0.00000001
 43
0.00000001
 40
0.0
 40
0.0
 40
1.0
 40
1.0
 10
13.45284942049833
 20
6.823772383453403
 30
0.0
 10
13.45284942049833
 20
6.830772409255174
 30
0.0
  0
SPLINE
  5
3DE
330
1F
100
AcDbEntity
  8
0
  6
Continuous
 62
     7
370
     0
100
AcDbSpline
210
0.0
220
0.0
230
1.0
 70
    24
 71
     1
 72
     4
 73
     2
 74
     0
 42
0.00000001
 43
0.00000001
 40
0.0
 40
0.0
 40
1.0
 40
1.0
 10
13.45284942049833
 20
7.020772481024799
 30
0.0
 10
13.45284942049833
 20
7.04577240555687
 30
0.0
  0
SPLINE
  5
3DF
330
1F
100
AcDbEntity
  8
0
  6
Continuous
 62
     7
370
     0
100
AcDbSpline
210
0.0
220
0.0
230
1.0
 70
    24
 71
     1
 72
     4
 73
     2
 74
     0
 42
0.00000001
 43
0.00000001
 40
0.0
 40
0.0
 40
1.0
 40
1.0
 10
13.45284942049833
 20
7.265772430764472
 30
0.0
 10
13.45284942049833
 20
9.725772425967941
 30
0.0
  0
SPLINE
  5
3E0
330
1F
100
AcDbEntity
  8
0
  6
Continuous
 62
     7
370
     0
100
AcDbSpline
210
0.0
220
0.0
230
1.0
 70
    24
 71
     1
 72
     4
 73
     2
 74
     0
 42
0.00000001
 43
0.00000001
 40
0.0
 40
0.0
 40
1.0
 40
1.0
 10
13.45284942049833
 20
9.945772451175545
 30
0.0
 10
13.45284942049833
 20
9.970772375707616
 30
0.0
  0
SPLINE
  5
3E1
330
1F
100
AcDbEntity
  8
0
  6
Continuous
 62
     7
370
     0
100
AcDbSpline
210
0.0
220
0.0
230
1.0
 70
    24
 71
     1
 72
     4
 73
     2
 74
     0
 42
0.00000001
 43
0.00000001
 40
0.0
 40
0.0
 40
1.0
 40
1.0
 10
13.45284942049833
 20
10.16077244747724
 30
0.0
 10
13.45284942049833
 20
10.16777247327901
 30
0.0
  0
SPLINE
  5
3E2
330
1F
100
AcDbEntity
  8
0
  6
Continuous
 62
     7
370
     0
100
AcDbSpline
210
0.0
220
0.0
230
1.0
 70
    24
 71
     1
 72
     4
 73
     2
 74
     0
 42
0.00000001
 43
0.00000001
 40
0.0
 40
0.0
 40
1.0
 40
1.0
 10
13.33484938364483
 20
10.16777247327901
 30
0.0
 10
13.33484938364483
 20
10.16077244747724
 30
0.0
  0
SPLINE
  5
3E3
330
1F
100
AcDbEntity
  8
0
  6
Continuous
 62
     7
370
     0
100
AcDbSpline
210
0.0
220
0.0
230
1.0
 70
    24
 71
     1
 72
     4
 73
     2
 74
     0
 42
0.00000001
 43
0.00000001
 40
0.0
 40
0.0
 40
1.0
 40
1.0
 10
13.33484938364483
 20
9.970772375707616
 30
0.0
 10
13.33484938364483
 20
9.945772451175545
 30
0.0
  0
SPLINE
  5
3E4
330
1F
100
AcDbEntity
  8
0
  6
Continuous
 62
     7
370
     0
100
AcDbSpline
210
0.0
220
0.0
230
1.0
 70
    24
 71
     1
 72
     4
 73
     2
 74
     0
 42
0.00000001
 43
0.00000001
 40
0.0
 40
0.0
 40
1.0
 40
1.0
 10
13.33484938364483
 20
9.725772425967941
 30
0.0
 10
13.33484938364483
 20
7.265772430764472
 30
0.0
  0
SPLINE
  5
3E5
330
1F
100
AcDbEntity
  8
0
  6
Continuous
 62
     7
370
     0
100
AcDbSpline
210
0.0
220
0.0
230
1.0
 70
    24
 71
     1
 72
     4
 73
     2
 74
     0
 42
0.00000001
 43
0.00000001
 40
0.0
 40
0.0
 40
1.0
 40
1.0
 10
13.33484938364483
 20
7.04577240555687
 30
0.0
 10
13.33484938364483
 20
7.020772481024799
 30
0.0
  0
SPLINE
  5
3E6
330
1F
100
AcDbEntity
  8
0
  6
Continuous
 62
     7
370
     0
100
AcDbSpline
210
0.0
220
0.0
230
1.0
 70
    24
 71
     1
 72
     4
 73
     2
 74
     0
 42
0.00000001
 43
0.00000001
 40
0.0
 40
0.0
 40
1.0
 40
1.0
 10
13.33484938364483
 20
6.830772409255174
 30
0.0
 10
13.33484938364483
 20
6.823772383453403
 30
0.0
  0
SPLINE
  5
3E7
330
1F
100
AcDbEntity
  8
0
  6
Continuous
 62
     7
370
     0
100
AcDbSpline
210
0.0
220
0.0
230
1.0
 70
    24
 71
     1
 72
     4
 73
     2
 74
     0
 42
0.00000001
 43
0.00000001
 40
0.0
 40
0.0
 40
1.0
 40
1.0
 10
13.23134937928571
 20
7.265772430764472
 30
0.0
 10
13.23134937928571
 20
7.04577240555687
 30
0.0
  0
SPLINE
  5
3E8
330
1F
100
AcDbEntity
  8
0
  6
Continuous
 62
     7
370
     0
100
AcDbSpline
210
0.0
220
0.0
230
1.0
 70
    24
 71
     1
 72
     4
 73
     2
 74
     0
 42
0.00000001
 43
0.00000001
 40
0.0
 40
0.0
 40
1.0
 40
1.0
 10
13.23134937928571
 20
9.945772451175545
 30
0.0
 10
13.23134937928571
 20
9.725772425967941
 30
0.0
  0
SPLINE
  5
3E9
330
1F
100
AcDbEntity
  8
0
  6
Continuous
 62
     7
370
     0
100
AcDbSpline
210
0.0
220
0.0
230
1.0
 70
    24
 71
     1
 72
     4
 73
     2
 74
     0
 42
0.00000001
 43
0.00000001
 40
0.0
 40
0.0
 40
1.0
 40
1.0
 10
13.23134937928571
 20
7.020772481024799
 30
0.0
 10
13.23134937928571
 20
6.830772409255174
 30
0.0
  0
SPLINE
  5
3EA
330
1F
100
AcDbEntity
  8
0
  6
Continuous
 62
     7
370
     0
100
AcDbSpline
210
0.0
220
0.0
230
1.0
 70
    24
 71
     1
 72
     4
 73
     2
 74
     0
 42
0.00000001
 43
0.00000001
 40
0.0
 40
0.0
 40
1.0
 40
1.0
 10
13.23134937928571
 20
10.16077244747724
 30
0.0
 10
13.23134937928571
 20
9.970772375707616
 30
0.0
  0
LINE
  5
3EB
330
1F
100
AcDbEntity
  8
0
  6
Continuous
 62
     7
370
     0
100
AcDbLine
 10
13.3348493836
 20
10.1677724733
 30
0.0
 11
13.4528494205
 21
10.1677724733
 31
0.0
  0
LINE
  5
3EC
330
1F
100
AcDbEntity
  8
0
  6
Continuous
 62
     7
370
     0
100
AcDbLine
 10
13.3348493836
 20
6.8237723835
 30
0.0
 11
13.4528494205
 21
6.8237723835
 31
0.0
  0
LINE
  5
3ED
330
1F
100
AcDbEntity
  8
0
  6
Continuous
 62
     7
370
     0
100
AcDbLine
 10
13.5563494249
 20
7.2657724308
 30
0.0
 11
13.5563494249
 21
7.0457724056
 31
0.0
  0
LINE
  5
3EE
330
1F
100
AcDbEntity
  8
0
  6
Continuous
 62
     7
370
     0
100
AcDbLine
 10
13.2313493793
 20
7.0457724056
 30
0.0
 11
13.5563494249
 21
7.0457724056
 31
0.0
  0
LINE
  5
3EF
330
1F
100
AcDbEntity
  8
0
  6
Continuous
 62
     7
370
     0
100
AcDbLine
 10
13.5563494249
 20
9.9457724512
 30
0.0
 11
13.5563494249
 21
9.725772426
 31
0.0
  0
LINE
  5
3F0
330
1F
100
AcDbEntity
  8
0
  6
Continuous
 62
     7
370
     0
100
AcDbLine
 10
13.2313493793
 20
9.725772426
 30
0.0
 11
13.5563494249
 21
9.725772426
 31
0.0
  0
LINE
  5
3F1
330
1F
100
AcDbEntity
  8
0
  6
Continuous
 62
     7
370
     0
100
AcDbLine
 10
13.2363493349
 20
7.2657724308
 30
0.0
 11
13.2363493349
 21
9.725772426
 31
0.0
  0
LINE
  5
3F2
330
1F
100
AcDbEntity
  8
0
  6
Continuous
 62
     7
370
     0
100
AcDbLine
 10
13.2313493793
 20
7.2657724308
 30
0.0
 11
13.5563494249
 21
7.2657724308
 31
0.0
  0
LINE
  5
3F3
330
1F
100
AcDbEntity
  8
0
  6
Continuous
 62
     7
370
     0
100
AcDbLine
 10
13.2313493793
 20
9.9457724512
 30
0.0
 11
13.5563494249
 21
9.9457724512
 31
0.0
  0
LINE
  5
3F4
330
1F
100
AcDbEntity
  8
0
  6
Continuous
 62
     7
370
     0
100
AcDbLine
 10
13.5688493871
 20
10.5292724439
 30
0.0
 11
13.5688493871
 21
10.1607724475
 31
0.0
  0
LINE
  5
3F5
330
1F
100
AcDbEntity
  8
0
  6
Continuous
 62
     7
370
     0
100
AcDbLine
 10
13.5688493871
 20
9.9707723757
 30
0.0
 11
13.5688493871
 21
9.9457724512
 31
0.0
  0
ARC
  5
3F6
330
1F
100
AcDbEntity
  8
0
  6
Continuous
 62
     7
370
     0
100
AcDbCircle
 10
13.8028493533
 20
10.5292724284
 30
0.0
 40
0.234
100
AcDbArc
 50
90.0
 51
180.0
  0
LINE
  5
3F7
330
1F
100
AcDbEntity
  8
0
  6
Continuous
 62
     7
370
     0
100
AcDbLine
 10
16.8748493159
 20
10.7632724473
 30
0.0
 11
13.8028493906
 21
10.7632724473
 31
0.0
  0
ARC
  5
3F8
330
1F
100
AcDbEntity
  8
0
  6
Continuous
 62
     7
370
     0
100
AcDbCircle
 10
16.8748493533
 20
10.5292724284
 30
0.0
 40
0.234
100
AcDbArc
 50
0.0
 51
90.0
  0
LINE
  5
3F9
330
1F
100
AcDbEntity
  8
0
  6
Continuous
 62
     7
370
     0
100
AcDbLine
 10
17.1088493194
 20
6.4622724129
 30
0.0
 11
17.1088493194
 21
10.5292724439
 31
0.0
  0
ARC
  5
3FA
330
1F
100
AcDbEntity
  8
0
  6
Continuous
 62
     7
370
     0
100
AcDbCircle
 10
16.8748493533
 20
6.4622724284
 30
0.0
 40
0.234
100
AcDbArc
 50
270.0
 51
0.0
  0
LINE
  5
3FB
330
1F
100
AcDbEntity
  8
0
  6
Continuous
 62
     7
370
     0
100
AcDbLine
 10
13.8028493906
 20
6.2282724094
 30
0.0
 11
16.8748493159
 21
6.2282724094
 31
0.0
  0
ARC
  5
3FC
330
1F
100
AcDbEntity
  8
0
  6
Continuous
 62
     7
370
     0
100
AcDbCircle
 10
13.8028493533
 20
6.4622724284
 30
0.0
 40
0.234
100
AcDbArc
 50
180.0
 51
270.0
  0
LINE
  5
3FD
330
1F
100
AcDbEntity
  8
0
  6
Continuous
 62
     7
370
     0
100
AcDbLine
 10
13.5688493871
 20
7.0457724056
 30
0.0
 11
13.5688493871
 21
7.020772481
 31
0.0
  0
LINE
  5
3FE
330
1F
100
AcDbEntity
  8
0
  6
Continuous
 62
     7
370
     0
100
AcDbLine
 10
13.5688493871
 20
6.8307724093
 30
0.0
 11
13.5688493871
 21
6.4622724129
 31
0.0
  0
LINE
  5
3FF
330
1F
100
AcDbEntity
  8
0
  6
Continuous
 62
     7
370
     0
100
AcDbLine
 10
13.5688493871
 20
7.2657724308
 30
0.0
 11
13.5688493871
 21
9.725772426
 31
0.0
  0
LINE
  5
400
330
1F
100
AcDbEntity
  8
0
  6
Continuous
 62
     7
370
     0
100
AcDbLine
 10
13.5563494249
 20
7.0457724056
 30
0.0
 11
13.5688493871
 21
7.0457724056
 31
0.0
  0
LINE
  5
401
330
1F
100
AcDbEntity
  8
0
  6
Continuous
 62
     7
370
     0
100
AcDbLine
 10
13.5563494249
 20
7.2657724308
 30
0.0
 11
13.5688493871
 21
7.2657724308
 31
0.0
  0
LINE
  5
402
330
1F
100
AcDbEntity
  8
0
  6
Continuous
 62
     7
370
     0
100
AcDbLine
 10
13.5563494249
 20
9.725772426
 30
0.0
 11
13.5688493871
 21
9.725772426
 31
0.0
  0
LINE
  5
403
330
1F
100
AcDbEntity
  8
0
  6
Continuous
 62
     7
370
     0
100
AcDbLine
 10
13.5563494249
 20
9.9457724512
 30
0.0
 11
13.5688493871
 21
9.9457724512
 31
0.0
  0
LINE
  5
404
330
1F
100
AcDbEntity
  8
0
  6
Continuous
 62
     7
370
     0
100
AcDbLine
 10
13.2663493616
 20
7.2657724308
 30
0.0
 11
13.2663493616
 21
9.725772426
 31
0.0
  0
CIRCLE
  5
405
330
1F
100
AcDbEntity
  8
0
  6
Continuous
 62
     7
370
     0
100
AcDbCircle
 10
16.567672117
 20
6.7769496646
 30
0.0
 40
0.069
  0
CIRCLE
  5
406
330
1F
100
AcDbEntity
  8
0
  6
Continuous
 62
     7
370
     0
100
AcDbCircle
 10
16.567672117
 20
6.7769496646
 30
0.0
 40
0.0389999999999988
  0
CIRCLE
  5
407
330
1F
100
AcDbEntity
  8
0
  6
Continuous
 62
     7
370
     0
100
AcDbCircle
 10
16.567672117
 20
10.2145951921
 30
0.0
 40
0.0390000000000015
  0
CIRCLE
  5
408
330
1F
100
AcDbEntity
  8
0
  6
Continuous
 62
     7
370
     0
100
AcDbCircle
 10
16.567672117
 20
10.2145951921
 30
0.0
 40
0.0690000000000008
  0
CIRCLE
  5
409
330
1F
100
AcDbEntity
  8
0
  6
Continuous
 62
     7
370
     0
100
AcDbCircle
 10
14.1100265895
 20
6.7769496646
 30
0.0
 40
0.0389999999999988
  0
CIRCLE
  5
40A
330
1F
100
AcDbEntity
  8
0
  6
Continuous
 62
     7
370
     0
100
AcDbCircle
 10
14.1100265895
 20
10.2145951921
 30
0.0
 40
0.0690000000000008
  0
CIRCLE
  5
40B
330
1F
100
AcDbEntity
  8
0
  6
Continuous
 62
     7
370
     0
100
AcDbCircle
 10
14.1100265895
 20
10.2145951921
 30
0.0
 40
0.0390000000000015
  0
CIRCLE
  5
40C
330
1F
100
AcDbEntity
  8
0
  6
Continuous
 62
     7
370
     0
100
AcDbCircle
 10
14.1100265895
 20
6.7769496646
 30
0.0
 40
0.069
  0
CIRCLE
  5
40D
330
1F
100
AcDbEntity
  8
0
  6
Continuous
 62
     7
370
     0
100
AcDbCircle
 10
16.8738493533
 20
6.4707724284
 30
0.0
 40
0.0625000000000009
  0
CIRCLE
  5
40E
330
1F
100
AcDbEntity
  8
0
  6
Continuous
 62
     7
370
     0
100
AcDbCircle
 10
13.8038493533
 20
10.5207724284
 30
0.0
 40
0.0625000000000018
  0
CIRCLE
  5
40F
330
1F
100
AcDbEntity
  8
0
  6
Continuous
 62
     7
370
     0
100
AcDbCircle
 10
16.8738493533
 20
10.5207724284
 30
0.0
 40
0.0625000000000018
  0
CIRCLE
  5
410
330
1F
100
AcDbEntity
  8
0
  6
Continuous
 62
     7
370
     0
100
AcDbCircle
 10
13.8038493533
 20
6.4707724284
 30
0.0
 40
0.0625000000000009
  0
ARC
  5
411
330
1F
100
AcDbEntity
  8
0
  6
Continuous
 62
     7
370
     0
100
AcDbCircle
 10
16.8748493533
 20
10.5292724284
 30
0.0
 40
0.2340000000000018
100
AcDbArc
 50
0.0
 51
90.0
  0
ARC
  5
412
330
1F
100
AcDbEntity
  8
0
  6
Continuous
 62
     7
370
     0
100
AcDbCircle
 10
16.8748493533
 20
6.4622724284
 30
0.0
 40
0.2340000000000018
100
AcDbArc
 50
270.0
 51
0.0
  0
LINE
  5
413
330
1F
100
AcDbEntity
  8
0
  6
Continuous
 62
     7
370
     0
100
AcDbLine
 10
17.1088493194
 20
10.5292724439
 30
0.0
 11
17.1088493194
 21
6.4622724129
 31
0.0
  0
LINE
  5
414
330
1F
100
AcDbEntity
  8
0
  6
Continuous
 62
     7
370
     0
100
AcDbLine
 10
16.8748493159
 20
6.2282724094
 30
0.0
 11
13.8028493906
 21
6.2282724094
 31
0.0
  0
LINE
  5
415
330
1F
100
AcDbEntity
  8
0
  6
Continuous
 62
     7
370
     0
100
AcDbLine
 10
13.8028493906
 20
10.7632724473
 30
0.0
 11
16.8748493159
 21
10.7632724473
 31
0.0
  0
ARC
  5
416
330
1F
100
AcDbEntity
  8
0
  6
Continuous
 62
     7
370
     0
100
AcDbCircle
 10
13.8028493533
 20
6.4622724284
 30
0.0
 40
0.2340000000000009
100
AcDbArc
 50
180.0
 51
270.0
  0
ARC
  5
417
330
1F
100
AcDbEntity
  8
0
  6
Continuous
 62
     7
370
     0
100
AcDbCircle
 10
13.8028493533
 20
10.5292724284
 30
0.0
 40
0.2340000000000018
100
AcDbArc
 50
90.0
 51
180.0
  0
LINE
  5
418
330
1F
100
AcDbEntity
  8
0
  6
Continuous
 62
     7
370
     0
100
AcDbLine
 10
13.5752379667
 20
10.1157724073
 30
0.0
 11
13.5752379667
 21
10.1607724475
 31
0.0
  0
LINE
  5
419
330
1F
100
AcDbEntity
  8
0
  6
Continuous
 62
     7
370
     0
100
AcDbLine
 10
13.5688493871
 20
10.1607724475
 30
0.0
 11
13.5688493871
 21
10.5292724439
 31
0.0
  0
LINE
  5
41A
330
1F
100
AcDbEntity
  8
0
  6
Continuous
 62
     7
370
     0
100
AcDbLine
 10
13.5688493871
 20
6.4622724129
 30
0.0
 11
13.5688493871
 21
6.8307724093
 31
0.0
  0
LINE
  5
41B
330
1F
100
AcDbEntity
  8
0
  6
Continuous
 62
     7
370
     0
100
AcDbLine
 10
13.5752379667
 20
6.8307724093
 30
0.0
 11
13.5752379667
 21
6.8757724494
 31
0.0
  0
LINE
  5
41C
330
1F
100
AcDbEntity
  8
0
  6
Continuous
 62
     7
370
     0
100
AcDbLine
 10
13.5774023017
 20
6.8757724494
 30
0.0
 11
13.5774023017
 21
6.9757724409
 31
0.0
  0
LINE
  5
41D
330
1F
100
AcDbEntity
  8
0
  6
Continuous
 62
     7
370
     0
100
AcDbLine
 10
13.5752379667
 20
7.020772481
 30
0.0
 11
13.5752379667
 21
6.9757724409
 31
0.0
  0
LINE
  5
41E
330
1F
100
AcDbEntity
  8
0
  6
Continuous
 62
     7
370
     0
100
AcDbLine
 10
13.5688493871
 20
7.020772481
 30
0.0
 11
13.5688493871
 21
9.9707723757
 31
0.0
  0
LINE
  5
41F
330
1F
100
AcDbEntity
  8
0
  6
Continuous
 62
     7
370
     0
100
AcDbLine
 10
13.5752379667
 20
10.0157724159
 30
0.0
 11
13.5752379667
 21
9.9707723757
 31
0.0
  0
LINE
  5
420
330
1F
100
AcDbEntity
  8
0
  6
Continuous
 62
     7
370
     0
100
AcDbLine
 10
13.5774023017
 20
10.0157724159
 30
0.0
 11
13.5774023017
 21
10.1157724073
 31
0.0
  0
LINE
  5
421
330
1F
100
AcDbEntity
  8
0
  6
Continuous
 62
     7
370
     0
100
AcDbLine
 10
13.5774023017
 20
10.1157724073
 30
0.0
 11
13.2889721403
 21
10.1157724073
 31
0.0
  0
LINE
  5
422
330
1F
100
AcDbEntity
  8
0
  6
Continuous
 62
     7
370
     0
100
AcDbLine
 10
13.2889721403
 20
10.0157724159
 30
0.0
 11
13.2889721403
 21
10.1157724073
 31
0.0
  0
LINE
  5
423
330
1F
100
AcDbEntity
  8
0
  6
Continuous
 62
     7
370
     0
100
AcDbLine
 10
13.5774023017
 20
10.0157724159
 30
0.0
 11
13.2889721403
 21
10.0157724159
 31
0.0
  0
LINE
  5
424
330
1F
100
AcDbEntity
  8
0
  6
Continuous
 62
     7
370
     0
100
AcDbLine
 10
13.5774023017
 20
6.8757724494
 30
0.0
 11
13.2889721403
 21
6.8757724494
 31
0.0
  0
LINE
  5
425
330
1F
100
AcDbEntity
  8
0
  6
Continuous
 62
     7
370
     0
100
AcDbLine
 10
13.2889721403
 20
6.8757724494
 30
0.0
 11
13.2889721403
 21
6.9757724409
 31
0.0
  0
LINE
  5
426
330
1F
100
AcDbEntity
  8
0
  6
Continuous
 62
     7
370
     0
100
AcDbLine
 10
13.5774023017
 20
6.9757724409
 30
0.0
 11
13.2889721403
 21
6.9757724409
 31
0.0
  0
LINE
  5
427
330
1F
100
AcDbEntity
  8
0
  6
Continuous
 62
     7
370
     0
100
AcDbLine
 10
13.5752379667
 20
6.8307724093
 30
0.0
 11
13.2889721403
 21
6.8307724093
 31
0.0
  0
LINE
  5
428
330
1F
100
AcDbEntity
  8
0
  6
Continuous
 62
     7
370
     0
100
AcDbLine
 10
13.5752379667
 20
10.1607724475
 30
0.0
 11
13.2889721403
 21
10.1607724475
 31
0.0
  0
LINE
  5
429
330
1F
100
AcDbEntity
  8
0
  6
Continuous
 62
     7
370
     0
100
AcDbLine
 10
13.2889721403
 20
7.020772481
 30
0.0
 11
13.5752379667
 21
7.020772481
 31
0.0
  0
LINE
  5
42A
330
1F
100
AcDbEntity
  8
0
  6
Continuous
 62
     7
370
     0
100
AcDbLine
 10
13.2889721403
 20
9.9707723757
 30
0.0
 11
13.5752379667
 21
9.9707723757
 31
0.0
  0
LINE
  5
42B
330
1F
100
AcDbEntity
  8
0
  6
Continuous
 62
     7
370
     0
100
AcDbLine
 10
13.2889721403
 20
7.020772481
 30
0.0
 11
13.2313493793
 21
7.020772481
 31
0.0
  0
LINE
  5
42C
330
1F
100
AcDbEntity
  8
0
  6
Continuous
 62
     7
370
     0
100
AcDbLine
 10
13.2889721403
 20
6.8307724093
 30
0.0
 11
13.2313493793
 21
6.8307724093
 31
0.0
  0
LINE
  5
42D
330
1F
100
AcDbEntity
  8
0
  6
Continuous
 62
     7
370
     0
100
AcDbLine
 10
13.2889721403
 20
9.9707723757
 30
0.0
 11
13.2313493793
 21
9.9707723757
 31
0.0
  0
LINE
  5
42E
330
1F
100
AcDbEntity
  8
0
  6
Continuous
 62
     7
370
     0
100
AcDbLine
 10
13.2889721403
 20
10.1607724475
 30
0.0
 11
13.2313493793
 21
10.1607724475
 31
0.0
  0
DIMENSION
  5
42F
330
1F
100
AcDbEntity
  8
0
  6
Continuous
 62
     7
370
     0
100
AcDbDimension
  2
*D30
 10
12.4144174298
 20
6.4707724284
 30
0.0
 11
12.4144174298
 21
8.4957724284
 31
0.0
 70
   160
 71
     2
 42
-1.0
  3
SLDDIMSTYLE0
100
AcDbAlignedDimension
 13
13.8038493533
 23
10.5207724284
 33
0.0
 14
13.8038493533
 24
6.4707724284
 34
0.0
 50
90.0
100
AcDbRotatedDimension
  0
DIMENSION
  5
43A
330
1F
100
AcDbEntity
  8
0
  6
Continuous
 62
     7
370
     0
100
AcDbDimension
  2
*D31
 10
16.8738493533
 20
11.2631112144
 30
0.0
 11
15.3388493533
 21
11.2631112144
 31
0.0
 70
   160
 71
     2
 42
-1.0
  3
SLDDIMSTYLE0
100
AcDbAlignedDimension
 13
13.8038493533
 23
10.5207724284
 33
0.0
 14
16.8738493533
 24
10.5207724284
 34
0.0
100
AcDbRotatedDimension
  0
DIMENSION
  5
445
330
1F
100
AcDbEntity
  8
0
  6
Continuous
 62
     7
370
     0
100
AcDbDimension
  2
*D32
 10
16.567672117
 20
5.7554287697
 30
0.0
 11
15.3388493533
 21
5.7554287697
 31
0.0
 70
   160
 71
     2
 42
-1.0
  3
SLDDIMSTYLE0
100
AcDbAlignedDimension
 13
14.1100265895
 23
6.7769496646
 33
0.0
 14
16.567672117
 24
6.7769496646
 34
0.0
100
AcDbRotatedDimension
  0
DIMENSION
  5
450
330
1F
100
AcDbEntity
  8
0
  6
Continuous
 62
     7
370
     0
100
AcDbDimension
  2
*D33
 10
18.0021070551
 20
6.7769496646
 30
0.0
 11
18.0021070551
 21
8.4957724284
 31
0.0
 70
   160
 71
     2
 42
-1.0
  3
SLDDIMSTYLE0
100
AcDbAlignedDimension
 13
16.567672117
 23
10.2145951921
 33
0.0
 14
16.567672117
 24
6.7769496646
 34
0.0
 50
90.0
100
AcDbRotatedDimension
  0
DIMENSION
  5
45B
330
1F
100
AcDbEntity
  8
0
  6
Continuous
 62
     7
370
     0
100
AcDbDimension
  2
*D34
 10
14.1508631716
 20
6.8325677692
 30
0.0
 11
12.4144174298
 21
5.6038071833
 31
0.0
 70
   163
  1
<> O.D. (4x)
 71
     1
 42
-1.0
  3
SLDDIMSTYLE4
100
AcDbDiametricDimension
 15
14.0691900074
 25
6.72133156
 35
0.0
 40
0.0
  0
DIMENSION
  5
465
330
1F
100
AcDbEntity
  8
0
  6
Continuous
 62
     7
370
     0
100
AcDbDimension
  2
*D35
 10
16.5405328133
 20
6.8049578455
 30
0.0
 11
18.4852043295
 21
5.6038071833
 31
0.0
 70
   163
  1
<> I.D. (4x)
 71
     1
 42
-1.0
  3
SLDDIMSTYLE4
100
AcDbDiametricDimension
 15
16.5948114207
 25
6.7489414838
 35
0.0
 40
0.0
  0
INSERT
  5
476
102
{ACAD_REACTORS
330
478
102
}
330
1F
100
AcDbEntity
  8
0
  6
Continuous
 62
     7
370
     0
100
AcDbBlockReference
  2
SW_NOTE_3
 10
13.2072813987
 20
11.42863124
 30
0.0
  0
LEADER
  5
478
330
1F
100
AcDbEntity
  8
0
  6
Continuous
 62
     7
370
     0
100
AcDbLeader
  3
SLDDIMSTYLE5
 73
     2
 76
     3
 10
13.7680487732
 20
10.5720029707
 30
0.0
 10
13.3952813987
 20
11.42863124
 30
0.0
 10
13.2072813987
 20
11.42863124
 30
0.0
340
476
  0
LINE
  5
479
330
1F
100
AcDbEntity
  8
0
  6
PHANTOM
 62
     7
370
     0
100
AcDbLine
 10
12.9289215392
 20
9.0835987037
 30
0.0
 11
17.4285545193
 21
9.0835987037
 31
0.0
  0
LINE
  5
47A
330
1F
100
AcDbEntity
  8
0
  6
Continuous
 62
     7
370
     0
100
AcDbLine
 10
12.9289215392
 20
9.0835987037
 30
0.0
 11
12.9289215392
 21
8.6111577589
 31
0.0
  0
SOLID
  5
47B
330
1F
100
AcDbEntity
  8
0
  6
Continuous
 62
     7
370
     0
100
AcDbTrace
 10
12.9289215392
 20
8.6111577589
 30
0.0
 11
12.9879766573
 21
8.8473782313
 31
0.0
 12
12.8698664211
 22
8.8473782313
 32
0.0
 13
12.8698664211
 23
8.8473782313
 33
0.0
  0
LINE
  5
47C
330
1F
100
AcDbEntity
  8
0
  6
Continuous
 62
     7
370
     0
100
AcDbLine
 10
17.4285545193
 20
9.0835987037
 30
0.0
 11
17.4285545193
 21
8.6111577589
 31
0.0
  0
SOLID
  5
47D
330
1F
100
AcDbEntity
  8
0
  6
Continuous
 62
     7
370
     0
100
AcDbTrace
 10
17.4285545193
 20
8.6111577589
 30
0.0
 11
17.4876096374
 21
8.8473782313
 31
0.0
 12
17.3694994012
 22
8.8473782313
 32
0.0
 13
17.3694994012
 23
8.8473782313
 33
0.0
  0
MTEXT
  5
47E
330
1F
100
AcDbEntity
  8
0
  6
Continuous
 62
     7
100
AcDbMText
 10
12.8673008048
 20
8.6111577589
 30
0.0
 40
0.125
 41
0.0
 71
     1
 72
     1
  1
A
  7
SLDTEXTSTYLE0
 73
     1
 44
1.0
  0
MTEXT
  5
47F
330
1F
100
AcDbEntity
  8
0
  6
Continuous
 62
     7
100
AcDbMText
 10
17.3669337849
 20
8.6111577589
 30
0.0
 40
0.125
 41
0.0
 71
     1
 72
     1
  1
A
  7
SLDTEXTSTYLE0
 73
     1
 44
1.0
  0
SPLINE
  5
480
330
1F
100
AcDbEntity
  8
0
  6
Continuous
 62
     7
370
     0
100
AcDbSpline
210
0.0
220
0.0
230
1.0
 70
    24
 71
     1
 72
     4
 73
     2
 74
     0
 42
0.00000001
 43
0.00000001
 40
0.0
 40
0.0
 40
1.0
 40
1.0
 10
19.25124463830635
 20
13.29142533419693
 30
0.0
 10
19.25124463830635
 20
13.2134253819257
 30
0.0
  0
SPLINE
  5
481
330
1F
100
AcDbEntity
  8
0
  6
Continuous
 62
     7
370
     0
100
AcDbSpline
210
0.0
220
0.0
230
1.0
 70
    24
 71
     1
 72
     4
 73
     2
 74
     0
 42
0.00000001
 43
0.00000001
 40
0.0
 40
0.0
 40
1.0
 40
1.0
 10
21.14884863035644
 20
13.51042547095532
 30
0.0
 10
21.14884863035644
 20
13.58842542322655
 30
0.0
  0
SPLINE
  5
482
330
1F
100
AcDbEntity
  8
0
  6
Continuous
 62
     7
370
     0
100
AcDbSpline
210
0.0
220
0.0
230
1.0
 70
    24
 71
     1
 72
     4
 73
     2
 74
     0
 42
0.00000001
 43
0.00000001
 40
0.0
 40
0.0
 40
1.0
 40
1.0
 10
24.62402081153752
 20
13.21342538192567
 30
0.0
 10
24.62402081153752
 20
13.29142533419689
 30
0.0
  0
SPLINE
  5
483
330
1F
100
AcDbEntity
  8
0
  6
Continuous
 62
     7
370
     0
100
AcDbSpline
210
0.0
220
0.0
230
1.0
 70
    24
 71
     1
 72
     4
 73
     2
 74
     0
 42
0.00000001
 43
0.00000001
 40
0.0
 40
0.0
 40
1.0
 40
1.0
 10
22.72641681948743
 20
13.58842542322654
 30
0.0
 10
22.72641681948743
 20
13.51042547095531
 30
0.0
  0
SPLINE
  5
484
330
1F
100
AcDbEntity
  8
0
  6
Continuous
 62
     7
370
     0
100
AcDbSpline
210
0.0
220
0.0
230
1.0
 70
    24
 71
     1
 72
     4
 73
     2
 74
     0
 42
0.00000001
 43
0.00000001
 40
0.0
 40
0.0
 40
1.0
 40
1.0
 10
20.23924691815305
 20
15.78042539438917
 30
0.0
 10
20.23924691815305
 20
15.77539826912962
 30
0.0
  0
SPLINE
  5
485
330
1F
100
AcDbEntity
  8
0
  6
Continuous
 62
     7
370
     0
100
AcDbSpline
210
0.0
220
0.0
230
1.0
 70
    24
 71
     1
 72
     4
 73
     2
 74
     0
 42
0.00000001
 43
0.00000001
 40
0.0
 40
0.0
 40
1.0
 40
1.0
 10
23.63601853169085
 20
15.77539826912959
 30
0.0
 10
23.63601853169085
 20
15.78042539438915
 30
0.0
  0
LINE
  5
486
330
1F
100
AcDbEntity
  8
0
  6
Continuous
 62
     7
370
     0
100
AcDbLine
 10
19.8327046679
 20
13.2134253819
 30
0.0
 11
19.7223960355
 21
13.2134253819
 31
0.0
  0
LINE
  5
487
330
1F
100
AcDbEntity
  8
0
  6
Continuous
 62
     7
370
     0
100
AcDbLine
 10
19.7223960355
 20
13.2914253342
 30
0.0
 11
19.8327046679
 21
13.2914253342
 31
0.0
  0
LINE
  5
488
330
1F
100
AcDbEntity
  8
0
  6
Continuous
 62
     7
370
     0
100
AcDbLine
 10
19.2740903477
 20
13.2134253819
 30
0.0
 11
19.7223960355
 21
13.2134253819
 31
0.0
  0
LINE
  5
489
330
1F
100
AcDbEntity
  8
0
  6
Continuous
 62
     7
370
     0
100
AcDbLine
 10
19.2740903477
 20
13.2914253342
 30
0.0
 11
19.7223960355
 21
13.2914253342
 31
0.0
  0
LINE
  5
48A
330
1F
100
AcDbEntity
  8
0
  6
Continuous
 62
     7
370
     0
100
AcDbLine
 10
19.8327046679
 20
13.2134253819
 30
0.0
 11
20.2753534877
 21
13.2134253819
 31
0.0
  0
LINE
  5
48B
330
1F
100
AcDbEntity
  8
0
  6
Continuous
 62
     7
370
     0
100
AcDbLine
 10
19.8327046679
 20
13.2914253342
 30
0.0
 11
20.2753534877
 21
13.2914253342
 31
0.0
  0
ARC
  5
48C
330
1F
100
AcDbEntity
  8
0
  6
Continuous
 62
     7
370
     0
100
AcDbCircle
 10
19.7140874425
 20
13.3045503142
 30
0.0
 40
0.0133901734472021
100
AcDbArc
 50
281.4220835812
 51
8.0496143153
  0
ARC
  5
48D
330
1F
100
AcDbEntity
  8
0
  6
Continuous
 62
     7
370
     0
100
AcDbCircle
 10
20.2727015695
 20
13.3045505804
 30
0.0
 40
0.0133904726158046
100
AcDbArc
 50
281.422667997
 51
8.0482829406
  0
ARC
  5
48E
330
1F
100
AcDbEntity
  8
0
  6
Continuous
 62
     7
370
     0
100
AcDbCircle
 10
20.2589133819
 20
13.294800267
 30
0.0
 40
0.0830189677400631
100
AcDbArc
 50
281.4216835532
 51
8.0495365676
  0
LINE
  5
48F
330
1F
100
AcDbEntity
  8
0
  6
Continuous
 62
     7
370
     0
100
AcDbLine
 10
19.2740903477
 20
13.2134253819
 30
0.0
 11
19.2512446383
 21
13.2134253819
 31
0.0
  0
LINE
  5
490
330
1F
100
AcDbEntity
  8
0
  6
Continuous
 62
     7
370
     0
100
AcDbLine
 10
19.2512446383
 20
13.2914253342
 30
0.0
 11
19.2740903477
 21
13.2914253342
 31
0.0
  0
ARC
  5
491
330
1F
100
AcDbEntity
  8
0
  6
Continuous
 62
     7
370
     0
100
AcDbCircle
 10
20.3681611647
 20
13.5070505381
 30
0.0
 40
0.0830189677400624
100
AcDbArc
 50
101.4216835532
 51
188.0495365676
  0
ARC
  5
492
330
1F
100
AcDbEntity
  8
0
  6
Continuous
 62
     7
370
     0
100
AcDbCircle
 10
20.354372977
 20
13.4973002248
 30
0.0
 40
0.0133904726158078
100
AcDbArc
 50
101.422667997
 51
188.0482829406
  0
ARC
  5
493
330
1F
100
AcDbEntity
  8
0
  6
Continuous
 62
     7
370
     0
100
AcDbCircle
 10
19.8095469246
 20
13.5070503518
 30
0.0
 40
0.0830191662355014
100
AcDbArc
 50
101.421712313
 51
188.0493873308
  0
LINE
  5
494
330
1F
100
AcDbEntity
  8
0
  6
Continuous
 62
     7
370
     0
100
AcDbLine
 10
19.7931067387
 20
13.5884254232
 30
0.0
 11
20.3517210588
 21
13.5884254232
 31
0.0
  0
LINE
  5
495
330
1F
100
AcDbEntity
  8
0
  6
Continuous
 62
     7
370
     0
100
AcDbLine
 10
19.727345685
 20
13.3064253476
 30
0.0
 11
19.727345685
 21
13.4954254576
 31
0.0
  0
LINE
  5
496
330
1F
100
AcDbEntity
  8
0
  6
Continuous
 62
     7
370
     0
100
AcDbLine
 10
20.2859601519
 20
13.3064253476
 30
0.0
 11
20.2859601519
 21
13.4954254576
 31
0.0
  0
LINE
  5
497
330
1F
100
AcDbEntity
  8
0
  6
Continuous
 62
     7
370
     0
100
AcDbLine
 10
20.3411143947
 20
13.3064253476
 30
0.0
 11
20.3411143947
 21
13.4954254576
 31
0.0
  0
LINE
  5
498
330
1F
100
AcDbEntity
  8
0
  6
Continuous
 62
     7
370
     0
100
AcDbLine
 10
20.3517210588
 20
13.510425471
 30
0.0
 11
21.1260029943
 21
13.510425471
 31
0.0
  0
LINE
  5
499
330
1F
100
AcDbEntity
  8
0
  6
Continuous
 62
     7
370
     0
100
AcDbLine
 10
20.3517210588
 20
13.5884254232
 30
0.0
 11
20.8380136345
 21
13.5884254232
 31
0.0
  0
LINE
  5
49A
330
1F
100
AcDbEntity
  8
0
  6
Continuous
 62
     7
370
     0
100
AcDbLine
 10
21.1488486304
 20
13.510425471
 30
0.0
 11
21.1260029943
 21
13.510425471
 31
0.0
  0
LINE
  5
49B
330
1F
100
AcDbEntity
  8
0
  6
Continuous
 62
     7
370
     0
100
AcDbLine
 10
24.1528694143
 20
13.2134253819
 30
0.0
 11
24.0425607819
 21
13.2134253819
 31
0.0
  0
LINE
  5
49C
330
1F
100
AcDbEntity
  8
0
  6
Continuous
 62
     7
370
     0
100
AcDbLine
 10
24.0425607819
 20
13.2914253342
 30
0.0
 11
24.1528694143
 21
13.2914253342
 31
0.0
  0
LINE
  5
49D
330
1F
100
AcDbEntity
  8
0
  6
Continuous
 62
     7
370
     0
100
AcDbLine
 10
24.0425607819
 20
13.2134253819
 30
0.0
 11
23.5999119621
 21
13.2134253819
 31
0.0
  0
LINE
  5
49E
330
1F
100
AcDbEntity
  8
0
  6
Continuous
 62
     7
370
     0
100
AcDbLine
 10
24.0425607819
 20
13.2914253342
 30
0.0
 11
23.5999119621
 21
13.2914253342
 31
0.0
  0
LINE
  5
49F
330
1F
100
AcDbEntity
  8
0
  6
Continuous
 62
     7
370
     0
100
AcDbLine
 10
24.1528694143
 20
13.2134253819
 30
0.0
 11
24.6011751021
 21
13.2134253819
 31
0.0
  0
LINE
  5
4A0
330
1F
100
AcDbEntity
  8
0
  6
Continuous
 62
     7
370
     0
100
AcDbLine
 10
24.1528694143
 20
13.2914253342
 30
0.0
 11
24.6011751021
 21
13.2914253342
 31
0.0
  0
ARC
  5
4A1
330
1F
100
AcDbEntity
  8
0
  6
Continuous
 62
     7
370
     0
100
AcDbCircle
 10
23.6025638803
 20
13.3045505804
 30
0.0
 40
0.0133904726158102
100
AcDbArc
 50
171.9517170594
 51
258.577332003
  0
ARC
  5
4A2
330
1F
100
AcDbEntity
  8
0
  6
Continuous
 62
     7
370
     0
100
AcDbCircle
 10
24.1611780073
 20
13.3045503142
 30
0.0
 40
0.0133901734471953
100
AcDbArc
 50
171.9503856847
 51
258.5779164188
  0
ARC
  5
4A3
330
1F
100
AcDbEntity
  8
0
  6
Continuous
 62
     7
370
     0
100
AcDbCircle
 10
23.6163520679
 20
13.294800267
 30
0.0
 40
0.0830189677400638
100
AcDbArc
 50
171.9504634324
 51
258.5783164468
  0
LINE
  5
4A4
330
1F
100
AcDbEntity
  8
0
  6
Continuous
 62
     7
370
     0
100
AcDbLine
 10
24.6240208115
 20
13.2134253819
 30
0.0
 11
24.6011751021
 21
13.2134253819
 31
0.0
  0
LINE
  5
4A5
330
1F
100
AcDbEntity
  8
0
  6
Continuous
 62
     7
370
     0
100
AcDbLine
 10
24.6011751021
 20
13.2914253342
 30
0.0
 11
24.6240208115
 21
13.2914253342
 31
0.0
  0
ARC
  5
4A6
330
1F
100
AcDbEntity
  8
0
  6
Continuous
 62
     7
370
     0
100
AcDbCircle
 10
23.5071042852
 20
13.5070505381
 30
0.0
 40
0.0830189677400633
100
AcDbArc
 50
351.9504634324
 51
78.5783164468
  0
ARC
  5
4A7
330
1F
100
AcDbEntity
  8
0
  6
Continuous
 62
     7
370
     0
100
AcDbCircle
 10
23.5208924728
 20
13.4973002248
 30
0.0
 40
0.0133904726158116
100
AcDbArc
 50
351.9517170594
 51
78.577332003
  0
LINE
  5
4A8
330
1F
100
AcDbEntity
  8
0
  6
Continuous
 62
     7
370
     0
100
AcDbLine
 10
23.523544391
 20
13.5884254232
 30
0.0
 11
24.0821587112
 21
13.5884254232
 31
0.0
  0
ARC
  5
4A9
330
1F
100
AcDbEntity
  8
0
  6
Continuous
 62
     7
370
     0
100
AcDbCircle
 10
24.0657185252
 20
13.5070503518
 30
0.0
 40
0.0830191662355002
100
AcDbArc
 50
351.9506126692
 51
78.578287687
  0
LINE
  5
4AA
330
1F
100
AcDbEntity
  8
0
  6
Continuous
 62
     7
370
     0
100
AcDbLine
 10
23.589305298
 20
13.3064253476
 30
0.0
 11
23.589305298
 21
13.4954254576
 31
0.0
  0
LINE
  5
4AB
330
1F
100
AcDbEntity
  8
0
  6
Continuous
 62
     7
370
     0
100
AcDbLine
 10
24.1479197648
 20
13.3064253476
 30
0.0
 11
24.1479197648
 21
13.4954254576
 31
0.0
  0
LINE
  5
4AC
330
1F
100
AcDbEntity
  8
0
  6
Continuous
 62
     7
370
     0
100
AcDbLine
 10
23.5341510551
 20
13.3064253476
 30
0.0
 11
23.5341510551
 21
13.4954254576
 31
0.0
  0
LINE
  5
4AD
330
1F
100
AcDbEntity
  8
0
  6
Continuous
 62
     7
370
     0
100
AcDbLine
 10
23.523544391
 20
13.510425471
 30
0.0
 11
22.7492624556
 21
13.510425471
 31
0.0
  0
LINE
  5
4AE
330
1F
100
AcDbEntity
  8
0
  6
Continuous
 62
     7
370
     0
100
AcDbLine
 10
23.523544391
 20
13.5884254232
 30
0.0
 11
23.0372518154
 21
13.5884254232
 31
0.0
  0
LINE
  5
4AF
330
1F
100
AcDbEntity
  8
0
  6
Continuous
 62
     7
370
     0
100
AcDbLine
 10
22.7492624556
 20
13.510425471
 30
0.0
 11
22.7264168195
 21
13.510425471
 31
0.0
  0
LINE
  5
4B0
330
1F
100
AcDbEntity
  8
0
  6
Continuous
 62
     7
370
     0
100
AcDbLine
 10
20.2392469182
 20
15.7804253944
 30
0.0
 11
20.4856499384
 21
15.7804253944
 31
0.0
  0
LINE
  5
4B1
330
1F
100
AcDbEntity
  8
0
  6
Continuous
 62
     7
370
     0
100
AcDbLine
 10
23.3896155115
 20
15.7804253944
 30
0.0
 11
23.6360185317
 21
15.7804253944
 31
0.0
  0
CIRCLE
  5
4B2
330
1F
100
AcDbEntity
  8
0
  6
Continuous
 62
     7
370
     0
100
AcDbCircle
 10
19.9926327249
 20
15.1854254012
 30
0.0
 40
0.0590000000000007
  0
LINE
  5
4B3
330
1F
100
AcDbEntity
  8
0
  6
Continuous
 62
     7
370
     0
100
AcDbLine
 10
20.4016327623
 20
15.1854254012
 30
0.0
 11
20.1676327588
 21
15.1854254012
 31
0.0
  0
LINE
  5
4B4
330
1F
100
AcDbEntity
  8
0
  6
Continuous
 62
     7
370
     0
100
AcDbLine
 10
20.1764235639
 20
15.68904846
 30
0.0
 11
20.1676327588
 21
15.1854254012
 31
0.0
  0
LINE
  5
4B5
330
1F
100
AcDbEntity
  8
0
  6
Continuous
 62
     7
370
     0
100
AcDbLine
 10
23.4736326876
 20
15.1854254012
 30
0.0
 11
20.4016327623
 21
15.1854254012
 31
0.0
  0
LINE
  5
4B6
330
1F
100
AcDbEntity
  8
0
  6
Continuous
 62
     7
370
     0
100
AcDbLine
 10
23.698841886
 20
15.68904846
 30
0.0
 11
23.7076326911
 21
15.1854254012
 31
0.0
  0
LINE
  5
4B7
330
1F
100
AcDbEntity
  8
0
  6
Continuous
 62
     7
370
     0
100
AcDbLine
 10
23.7076326911
 20
15.1854254012
 30
0.0
 11
23.4736326876
 21
15.1854254012
 31
0.0
  0
ARC
  5
4B8
330
1F
100
AcDbEntity
  8
0
  6
Continuous
 62
     7
370
     0
100
AcDbCircle
 10
20.269409334
 20
15.6874254012
 30
0.0
 40
0.0930000000000007
100
AcDbArc
 50
108.9248226813
 51
179.0
  0
LINE
  5
4B9
330
1F
100
AcDbEntity
  8
0
  6
Continuous
 62
     7
370
     0
100
AcDbLine
 10
20.4856499384
 20
15.7804253944
 30
0.0
 11
23.3896155115
 21
15.7804253944
 31
0.0
  0
ARC
  5
4BA
330
1F
100
AcDbEntity
  8
0
  6
Continuous
 62
     7
370
     0
100
AcDbCircle
 10
23.6058561158
 20
15.6874254012
 30
0.0
 40
0.0930000000000022
100
AcDbArc
 50
1.0
 51
71.0751773187
  0
LINE
  5
4BB
330
1F
100
AcDbEntity
  8
0
  6
Continuous
 62
     7
370
     0
100
AcDbLine
 10
20.1761856733
 20
15.6754254107
 30
0.0
 11
19.8877555119
 21
15.3095504515
 31
0.0
  0
SPLINE
  5
4BC
330
1F
100
AcDbEntity
  8
0
  6
Continuous
 62
     7
370
     0
100
AcDbSpline
210
0.0
220
0.0
230
1.0
 70
    24
 71
     1
 72
     4
 73
     2
 74
     0
 42
0.00000001
 43
0.00000001
 40
0.0
 40
0.0
 40
1.0
 40
1.0
 10
20.25494153684748
 20
15.77928943751186
 30
0.0
 10
20.25448511545343
 20
15.77922010164616
 30
0.0
  0
SPLINE
  5
4BD
330
1F
100
AcDbEntity
  8
0
  6
Continuous
 62
     7
370
     0
100
AcDbSpline
210
0.0
220
0.0
230
1.0
 70
    24
 71
     1
 72
     4
 73
     2
 74
     0
 42
0.00000001
 43
0.00000001
 40
0.0
 40
0.0
 40
1.0
 40
1.0
 10
23.61746761265931
 20
15.77969767946245
 30
0.0
 10
23.61675936750769
 20
15.77977269859583
 30
0.0
  0
LINE
  5
4BE
330
1F
100
AcDbEntity
  8
0
  6
Continuous
 62
     7
370
     0
100
AcDbLine
 10
20.1676327588
 20
15.1854254012
 30
0.0
 11
20.4016327623
 21
15.1854254012
 31
0.0
  0
LINE
  5
4BF
330
1F
100
AcDbEntity
  8
0
  6
Continuous
 62
     7
370
     0
100
AcDbLine
 10
20.1939135085
 20
13.6798023943
 30
0.0
 11
20.1676327588
 21
15.1854254012
 31
0.0
  0
LINE
  5
4C0
330
1F
100
AcDbEntity
  8
0
  6
Continuous
 62
     7
370
     0
100
AcDbLine
 10
23.6813519413
 20
13.6798023943
 30
0.0
 11
23.7076326911
 21
15.1854254012
 31
0.0
  0
LINE
  5
4C1
330
1F
100
AcDbEntity
  8
0
  6
Continuous
 62
     7
370
     0
100
AcDbLine
 10
23.4736326876
 20
15.1854254012
 30
0.0
 11
23.7076326911
 21
15.1854254012
 31
0.0
  0
LINE
  5
4C2
330
1F
100
AcDbEntity
  8
0
  6
Continuous
 62
     7
370
     0
100
AcDbLine
 10
20.4016327623
 20
15.1854254012
 30
0.0
 11
23.4736326876
 21
15.1854254012
 31
0.0
  0
ARC
  5
4C3
330
1F
100
AcDbEntity
  8
0
  6
Continuous
 62
     7
370
     0
100
AcDbCircle
 10
23.5883661408
 20
13.6814254012
 30
0.0
 40
0.0930000000000017
100
AcDbArc
 50
270.0
 51
359.0
  0
ARC
  5
4C4
330
1F
100
AcDbEntity
  8
0
  6
Continuous
 62
     7
370
     0
100
AcDbCircle
 10
20.2868993091
 20
13.6814254012
 30
0.0
 40
0.0929999999999985
100
AcDbArc
 50
181.0
 51
270.0
  0
LINE
  5
4C5
330
1F
100
AcDbEntity
  8
0
  6
Continuous
 62
     7
370
     0
100
AcDbLine
 10
23.0372518154
 20
13.5884254232
 30
0.0
 11
20.8380136345
 21
13.5884254232
 31
0.0
  0
LINE
  5
4C6
330
1F
100
AcDbEntity
  8
0
  6
Continuous
 62
     7
370
     0
100
AcDbLine
 10
20.1740213383
 20
14.8194254193
 30
0.0
 11
19.8877555119
 21
15.0613003509
 31
0.0
  0
CIRCLE
  5
4C7
330
1F
100
AcDbEntity
  8
0
  6
Continuous
 62
     7
370
     0
100
AcDbCircle
 10
19.9926327249
 20
15.1854254012
 30
0.0
 40
0.0779999999999994
  0
ARC
  5
4C8
330
1F
100
AcDbEntity
  8
0
  6
Continuous
 62
     7
370
     0
100
AcDbCircle
 10
19.9926327249
 20
15.1854254012
 30
0.0
 40
0.1625000000000001
100
AcDbArc
 50
0.0
 51
229.8044778706
  0
LINE
  5
4C9
330
1F
100
AcDbEntity
  8
0
  6
Continuous
 62
     7
370
     0
100
AcDbLine
 10
20.1551327965
 20
15.1854254012
 30
0.0
 11
20.1676327588
 21
15.1854254012
 31
0.0
  0
LINE
  5
4CA
330
1F
100
AcDbEntity
  8
0
  6
Continuous
 62
     7
370
     0
100
AcDbLine
 10
20.1761856733
 20
14.6954253917
 30
0.0
 11
19.8877555119
 21
15.0613003509
 31
0.0
  0
DIMENSION
  5
4CB
330
1F
100
AcDbEntity
  8
0
  6
Continuous
 62
     7
370
     0
100
AcDbDimension
  2
*D37
 10
25.1484554609
 20
13.2134254012
 30
0.0
 11
25.1484554609
 21
13.4009254012
 31
0.0
 70
   160
 71
     2
 42
-1.0
  3
SLDDIMSTYLE3
100
AcDbAlignedDimension
 13
24.0821587703
 23
13.5884254012
 33
0.0
 14
24.6011751477
 24
13.2134254012
 34
0.0
 50
90.0
100
AcDbRotatedDimension
  0
ARC
  5
4D6
330
1F
100
AcDbEntity
  8
0
  6
Continuous
 62
     7
370
     0
100
AcDbCircle
 10
16.5078493533
 20
2.5594802684
 30
0.0
 40
0.0150000000000006
100
AcDbArc
 50
270.0
 51
0.0
  0
ARC
  5
4D7
330
1F
100
AcDbEntity
  8
0
  6
Continuous
 62
     7
370
     0
100
AcDbCircle
 10
16.8498493533
 20
2.5594802684
 30
0.0
 40
0.0150000000000006
100
AcDbArc
 50
180.0
 51
270.0
  0
ARC
  5
4D8
330
1F
100
AcDbEntity
  8
0
  6
Continuous
 62
     7
370
     0
100
AcDbCircle
 10
13.8278493533
 20
2.5594802684
 30
0.0
 40
0.0150000000000001
100
AcDbArc
 50
270.0
 51
360.0
  0
ARC
  5
4D9
330
1F
100
AcDbEntity
  8
0
  6
Continuous
 62
     7
370
     0
100
AcDbCircle
 10
14.1698493533
 20
2.5594802684
 30
0.0
 40
0.0150000000000006
100
AcDbArc
 50
180.0
 51
270.0
  0
SPLINE
  5
4DA
330
1F
100
AcDbEntity
  8
0
  6
Continuous
 62
     7
370
     0
100
AcDbSpline
210
0.0
220
0.0
230
1.0
 70
    24
 71
     1
 72
     4
 73
     2
 74
     0
 42
0.00000001
 43
0.00000001
 40
0.0
 40
0.0
 40
1.0
 40
1.0
 10
16.83484937801289
 20
2.55948025178489
 30
0.0
 10
16.83484937801289
 20
2.779480203660005
 30
0.0
  0
SPLINE
  5
4DB
330
1F
100
AcDbEntity
  8
0
  6
Continuous
 62
     7
370
     0
100
AcDbSpline
210
0.0
220
0.0
230
1.0
 70
    24
 71
     1
 72
     4
 73
     2
 74
     0
 42
0.00000001
 43
0.00000001
 40
0.0
 40
0.0
 40
1.0
 40
1.0
 10
16.52284934893051
 20
2.779480203660007
 30
0.0
 10
16.52284934893051
 20
2.559480251784892
 30
0.0
  0
ARC
  5
4DC
330
1F
100
AcDbEntity
  8
0
  6
Continuous
 62
     7
370
     0
100
AcDbCircle
 10
16.5378493533
 20
2.7794802684
 30
0.0
 40
0.0150000000000006
100
AcDbArc
 50
90.0
 51
180.0
  0
ARC
  5
4DD
330
1F
100
AcDbEntity
  8
0
  6
Continuous
 62
     7
370
     0
100
AcDbCircle
 10
16.8198493533
 20
2.7794802684
 30
0.0
 40
0.0150000000000006
100
AcDbArc
 50
0.0
 51
90.0
  0
ARC
  5
4DE
330
1F
100
AcDbEntity
  8
0
  6
Continuous
 62
     7
370
     0
100
AcDbCircle
 10
13.8578493533
 20
2.7794802684
 30
0.0
 40
0.0150000000000006
100
AcDbArc
 50
90.0
 51
180.0
  0
ARC
  5
4DF
330
1F
100
AcDbEntity
  8
0
  6
Continuous
 62
     7
370
     0
100
AcDbCircle
 10
14.1398493533
 20
2.7794802684
 30
0.0
 40
0.0150000000000006
100
AcDbArc
 50
360.0
 51
90.0
  0
SPLINE
  5
4E0
330
1F
100
AcDbEntity
  8
0
  6
Continuous
 62
     7
370
     0
100
AcDbSpline
210
0.0
220
0.0
230
1.0
 70
    24
 71
     1
 72
     4
 73
     2
 74
     0
 42
0.00000001
 43
0.00000001
 40
0.0
 40
0.0
 40
1.0
 40
1.0
 10
14.15484935760181
 20
2.559480251784908
 30
0.0
 10
14.15484935760182
 20
2.779480203660024
 30
0.0
  0
SPLINE
  5
4E1
330
1F
100
AcDbEntity
  8
0
  6
Continuous
 62
     7
370
     0
100
AcDbSpline
210
0.0
220
0.0
230
1.0
 70
    24
 71
     1
 72
     4
 73
     2
 74
     0
 42
0.00000001
 43
0.00000001
 40
0.0
 40
0.0
 40
1.0
 40
1.0
 10
13.84284932851944
 20
2.779480203660026
 30
0.0
 10
13.84284932851944
 20
2.55948025178491
 30
0.0
  0
SPLINE
  5
4E2
330
1F
100
AcDbEntity
  8
0
  6
Continuous
 62
     7
370
     0
100
AcDbSpline
210
0.0
220
0.0
230
1.0
 70
    24
 71
     1
 72
     4
 73
     2
 74
     0
 42
0.00000001
 43
0.00000001
 40
0.0
 40
0.0
 40
1.0
 40
1.0
 10
14.04102655915916
 20
2.416480290399333
 30
0.0
 10
14.04102655915916
 20
2.378480276045408
 30
0.0
  0
SPLINE
  5
4E3
330
1F
100
AcDbEntity
  8
0
  6
Continuous
 62
     7
370
     0
100
AcDbSpline
210
0.0
220
0.0
230
1.0
 70
    24
 71
     1
 72
     4
 73
     2
 74
     0
 42
0.00000001
 43
0.00000001
 40
0.0
 40
0.0
 40
1.0
 40
1.0
 10
14.17902656497132
 20
2.378480276045407
 30
0.0
 10
14.17902656497132
 20
2.416480290399332
 30
0.0
  0
SPLINE
  5
4E4
330
1F
100
AcDbEntity
  8
0
  6
Continuous
 62
     7
370
     0
100
AcDbSpline
210
0.0
220
0.0
230
1.0
 70
    24
 71
     1
 72
     4
 73
     2
 74
     0
 42
0.00000001
 43
0.00000001
 40
0.0
 40
0.0
 40
1.0
 40
1.0
 10
16.49867214156101
 20
2.416480290399316
 30
0.0
 10
16.49867214156101
 20
2.378480276045391
 30
0.0
  0
SPLINE
  5
4E5
330
1F
100
AcDbEntity
  8
0
  6
Continuous
 62
     7
370
     0
100
AcDbSpline
210
0.0
220
0.0
230
1.0
 70
    24
 71
     1
 72
     4
 73
     2
 74
     0
 42
0.00000001
 43
0.00000001
 40
0.0
 40
0.0
 40
1.0
 40
1.0
 10
16.63667214737316
 20
2.37848027604539
 30
0.0
 10
16.63667214737316
 20
2.416480290399315
 30
0.0
  0
SPLINE
  5
4E6
330
1F
100
AcDbEntity
  8
0
  6
Continuous
 62
     7
370
     0
100
AcDbSpline
210
0.0
220
0.0
230
1.0
 70
    24
 71
     1
 72
     4
 73
     2
 74
     0
 42
0.00000001
 43
0.00000001
 40
0.0
 40
0.0
 40
1.0
 40
1.0
 10
14.04102655915916
 20
2.378480276045408
 30
0.0
 10
14.07102658592962
 20
2.348480249274944
 30
0.0
  0
SPLINE
  5
4E7
330
1F
100
AcDbEntity
  8
0
  6
Continuous
 62
     7
370
     0
100
AcDbSpline
210
0.0
220
0.0
230
1.0
 70
    24
 71
     1
 72
     4
 73
     2
 74
     0
 42
0.00000001
 43
0.00000001
 40
0.0
 40
0.0
 40
1.0
 40
1.0
 10
14.14902661153334
 20
2.348480249274943
 30
0.0
 10
14.17902656497132
 20
2.378480276045407
 30
0.0
  0
SPLINE
  5
4E8
330
1F
100
AcDbEntity
  8
0
  6
Continuous
 62
     7
370
     0
100
AcDbSpline
210
0.0
220
0.0
230
1.0
 70
    24
 71
     1
 72
     4
 73
     2
 74
     0
 42
0.00000001
 43
0.00000001
 40
0.0
 40
0.0
 40
1.0
 40
1.0
 10
16.49867214156101
 20
2.378480276045391
 30
0.0
 10
16.52867209499898
 20
2.348480249274927
 30
0.0
  0
SPLINE
  5
4E9
330
1F
100
AcDbEntity
  8
0
  6
Continuous
 62
     7
370
     0
100
AcDbSpline
210
0.0
220
0.0
230
1.0
 70
    24
 71
     1
 72
     4
 73
     2
 74
     0
 42
0.00000001
 43
0.00000001
 40
0.0
 40
0.0
 40
1.0
 40
1.0
 10
16.6066721206027
 20
2.348480249274926
 30
0.0
 10
16.63667214737316
 20
2.37848027604539
 30
0.0
  0
SPLINE
  5
4EA
330
1F
100
AcDbEntity
  8
0
  6
Continuous
 62
     7
370
     0
100
AcDbSpline
210
0.0
220
0.0
230
1.0
 70
    24
 71
     1
 72
     4
 73
     2
 74
     0
 42
0.00000001
 43
0.00000001
 40
0.0
 40
0.0
 40
1.0
 40
1.0
 10
13.64046354649728
 20
4.608480261561953
 30
0.0
 10
13.64046354649728
 20
4.6034531363024
 30
0.0
  0
SPLINE
  5
4EB
330
1F
100
AcDbEntity
  8
0
  6
Continuous
 62
     7
370
     0
100
AcDbSpline
210
0.0
220
0.0
230
1.0
 70
    24
 71
     1
 72
     4
 73
     2
 74
     0
 42
0.00000001
 43
0.00000001
 40
0.0
 40
0.0
 40
1.0
 40
1.0
 10
17.03723516003507
 20
4.603453136302375
 30
0.0
 10
17.03723516003507
 20
4.608480261561929
 30
0.0
  0
CIRCLE
  5
4EC
330
1F
100
AcDbEntity
  8
0
  6
Continuous
 62
     7
370
     0
100
AcDbCircle
 10
13.3938493533
 20
4.0134802684
 30
0.0
 40
0.0590000000000011
  0
LINE
  5
4ED
330
1F
100
AcDbEntity
  8
0
  6
Continuous
 62
     7
370
     0
100
AcDbLine
 10
16.8985464155
 20
4.4587420714
 30
0.0
 11
16.9063184857
 21
4.0134802684
 31
0.0
  0
ARC
  5
4EE
330
1F
100
AcDbEntity
  8
0
  6
Continuous
 62
     7
370
     0
100
AcDbCircle
 10
16.883548718
 20
4.4584802684
 30
0.0
 40
0.0149999999999997
100
AcDbArc
 50
1.0
 51
90.0
  0
LINE
  5
4EF
330
1F
100
AcDbEntity
  8
0
  6
Continuous
 62
     7
370
     0
100
AcDbLine
 10
16.8835487488
 20
4.4734802511
 30
0.0
 11
13.7941499578
 21
4.4734802511
 31
0.0
  0
ARC
  5
4F0
330
1F
100
AcDbEntity
  8
0
  6
Continuous
 62
     7
370
     0
100
AcDbCircle
 10
13.7941499885
 20
4.4584802684
 30
0.0
 40
0.0149999999999997
100
AcDbArc
 50
90.0
 51
179.0
  0
LINE
  5
4F1
330
1F
100
AcDbEntity
  8
0
  6
Continuous
 62
     7
370
     0
100
AcDbLine
 10
13.7713802208
 20
4.0134802684
 30
0.0
 11
13.779152291
 21
4.4587420714
 31
0.0
  0
LINE
  5
4F2
330
1F
100
AcDbEntity
  8
0
  6
Continuous
 62
     7
370
     0
100
AcDbLine
 10
13.5711818002
 20
4.1471075497
 30
0.0
 11
13.5688493871
 21
4.0134802684
 31
0.0
  0
LINE
  5
4F3
330
1F
100
AcDbEntity
  8
0
  6
Continuous
 62
     7
370
     0
100
AcDbLine
 10
13.3938493287
 20
4.1471075497
 30
0.0
 11
13.5711818002
 21
4.1471075497
 31
0.0
  0
ARC
  5
4F4
330
1F
100
AcDbEntity
  8
0
  6
Continuous
 62
     7
370
     0
100
AcDbCircle
 10
13.3938493533
 20
4.0134802684
 30
0.0
 40
0.1336272801489278
100
AcDbArc
 50
90.0
 51
162.5820292078
  0
LINE
  5
4F5
330
1F
100
AcDbEntity
  8
0
  6
Continuous
 62
     7
370
     0
100
AcDbLine
 10
13.2363493349
 20
4.0534802705
 30
0.0
 11
13.2663493616
 21
4.0534802705
 31
0.0
  0
ARC
  5
4F6
330
1F
100
AcDbEntity
  8
0
  6
Continuous
 62
     7
370
     0
100
AcDbCircle
 10
13.3938493533
 20
4.0134802684
 30
0.0
 40
0.1625000000000003
100
AcDbArc
 50
130.1955221294
 51
165.7499673022
  0
LINE
  5
4F7
330
1F
100
AcDbEntity
  8
0
  6
Continuous
 62
     7
370
     0
100
AcDbLine
 10
13.5752287268
 20
4.3789542731
 30
0.0
 11
13.2889721403
 21
4.1376053186
 31
0.0
  0
LINE
  5
4F8
330
1F
100
AcDbEntity
  8
0
  6
Continuous
 62
     7
370
     0
100
AcDbLine
 10
13.5752287268
 20
4.3789542731
 30
0.0
 11
13.5776401922
 21
4.5171033272
 31
0.0
  0
ARC
  5
4F9
330
1F
100
AcDbEntity
  8
0
  6
Continuous
 62
     7
370
     0
100
AcDbCircle
 10
13.6706259624
 20
4.5154802684
 30
0.0
 40
0.0930000000000022
100
AcDbArc
 50
90.0
 51
179.0
  0
LINE
  5
4FA
330
1F
100
AcDbEntity
  8
0
  6
Continuous
 62
     7
370
     0
100
AcDbLine
 10
14.5538493617
 20
4.6084802616
 30
0.0
 11
13.6706259314
 21
4.6084802616
 31
0.0
  0
LINE
  5
4FB
330
1F
100
AcDbEntity
  8
0
  6
Continuous
 62
     7
370
     0
100
AcDbLine
 10
14.5538493617
 20
4.5684802503
 30
0.0
 11
14.5538493617
 21
4.6084802616
 31
0.0
  0
LINE
  5
4FC
330
1F
100
AcDbEntity
  8
0
  6
Continuous
 62
     7
370
     0
100
AcDbLine
 10
16.1238493449
 20
4.5684802503
 30
0.0
 11
14.5538493617
 21
4.5684802503
 31
0.0
  0
LINE
  5
4FD
330
1F
100
AcDbEntity
  8
0
  6
Continuous
 62
     7
370
     0
100
AcDbLine
 10
16.1238493449
 20
4.6084802616
 30
0.0
 11
16.1238493449
 21
4.5684802503
 31
0.0
  0
LINE
  5
4FE
330
1F
100
AcDbEntity
  8
0
  6
Continuous
 62
     7
370
     0
100
AcDbLine
 10
17.0070727751
 20
4.6084802616
 30
0.0
 11
16.1238493449
 21
4.6084802616
 31
0.0
  0
ARC
  5
4FF
330
1F
100
AcDbEntity
  8
0
  6
Continuous
 62
     7
370
     0
100
AcDbCircle
 10
17.0070727442
 20
4.5154802684
 30
0.0
 40
0.0930000000000022
100
AcDbArc
 50
1.0
 51
90.0
  0
LINE
  5
500
330
1F
100
AcDbEntity
  8
0
  6
Continuous
 62
     7
370
     0
100
AcDbLine
 10
17.1000585143
 20
4.5171033272
 30
0.0
 11
17.1088493194
 21
4.0134802684
 31
0.0
  0
LINE
  5
501
330
1F
100
AcDbEntity
  8
0
  6
Continuous
 62
     7
370
     0
100
AcDbLine
 10
13.7138802184
 20
4.0134802684
 30
0.0
 11
13.7138802184
 21
4.1334802655
 31
0.0
  0
LINE
  5
502
330
1F
100
AcDbEntity
  8
0
  6
Continuous
 62
     7
370
     0
100
AcDbLine
 10
17.0538185685
 20
4.1334802655
 30
0.0
 11
17.0538185685
 21
4.0134802684
 31
0.0
  0
LINE
  5
503
330
1F
100
AcDbEntity
  8
0
  6
Continuous
 62
     7
370
     0
100
AcDbLine
 10
13.6238801381
 20
4.0134802684
 30
0.0
 11
13.6238801381
 21
4.1334802655
 31
0.0
  0
LINE
  5
504
330
1F
100
AcDbEntity
  8
0
  6
Continuous
 62
     7
370
     0
100
AcDbLine
 10
16.9638184882
 20
4.1334802655
 30
0.0
 11
16.9638184882
 21
4.0134802684
 31
0.0
  0
LINE
  5
505
330
1F
100
AcDbEntity
  8
0
  6
Continuous
 62
     7
370
     0
100
AcDbLine
 10
13.7713802208
 20
4.0134802684
 30
0.0
 11
13.7138802184
 21
4.0134802684
 31
0.0
  0
LINE
  5
506
330
1F
100
AcDbEntity
  8
0
  6
Continuous
 62
     7
370
     0
100
AcDbLine
 10
16.9638184882
 20
4.0134802684
 30
0.0
 11
16.9063184857
 21
4.0134802684
 31
0.0
  0
LINE
  5
507
330
1F
100
AcDbEntity
  8
0
  6
Continuous
 62
     7
370
     0
100
AcDbLine
 10
13.6238801381
 20
4.0134802684
 30
0.0
 11
13.5688493871
 21
4.0134802684
 31
0.0
  0
LINE
  5
508
330
1F
100
AcDbEntity
  8
0
  6
Continuous
 62
     7
370
     0
100
AcDbLine
 10
17.1088493194
 20
4.0134802684
 30
0.0
 11
17.0538185685
 21
4.0134802684
 31
0.0
  0
LINE
  5
509
330
1F
100
AcDbEntity
  8
0
  6
Continuous
 62
     7
370
     0
100
AcDbLine
 10
16.9638184882
 20
4.1334802655
 30
0.0
 11
17.0538185685
 21
4.1334802655
 31
0.0
  0
LINE
  5
50A
330
1F
100
AcDbEntity
  8
0
  6
Continuous
 62
     7
370
     0
100
AcDbLine
 10
13.6238801381
 20
4.1334802655
 30
0.0
 11
13.7138802184
 21
4.1334802655
 31
0.0
  0
LINE
  5
50B
330
1F
100
AcDbEntity
  8
0
  6
Continuous
 62
     7
370
     0
100
AcDbLine
 10
13.5774023017
 20
4.5034802779
 30
0.0
 11
13.2889721403
 21
4.1376053186
 31
0.0
  0
CIRCLE
  5
50C
330
1F
100
AcDbEntity
  8
0
  6
Continuous
 62
     7
370
     0
100
AcDbCircle
 10
13.3938493533
 20
4.0134802684
 30
0.0
 40
0.0780000000000012
  0
ARC
  5
50D
330
1F
100
AcDbEntity
  8
0
  6
Continuous
 62
     7
370
     0
100
AcDbCircle
 10
13.3938493533
 20
4.0134802684
 30
0.0
 40
0.1625000000000011
100
AcDbArc
 50
165.7499673022
 51
0.0
  0
LINE
  5
50E
330
1F
100
AcDbEntity
  8
0
  6
Continuous
 62
     7
370
     0
100
AcDbLine
 10
13.5563494249
 20
4.0134802684
 30
0.0
 11
13.5688493871
 21
4.0134802684
 31
0.0
  0
LINE
  5
50F
330
1F
100
AcDbEntity
  8
0
  6
Continuous
 62
     7
370
     0
100
AcDbLine
 10
16.1238493449
 20
4.6084802616
 30
0.0
 11
14.5538493617
 21
4.6084802616
 31
0.0
  0
ARC
  5
510
330
1F
100
AcDbEntity
  8
0
  6
Continuous
 62
     7
370
     0
100
AcDbCircle
 10
14.1816191421
 20
4.4584802684
 30
0.0
 40
0.0150000000000006
100
AcDbArc
 50
90.0
 51
179.0
  0
LINE
  5
511
330
1F
100
AcDbEntity
  8
0
  6
Continuous
 62
     7
370
     0
100
AcDbLine
 10
13.7863778875
 20
4.0134802684
 30
0.0
 11
13.7713802208
 21
4.0134802684
 31
0.0
  0
ARC
  5
512
330
1F
100
AcDbEntity
  8
0
  6
Continuous
 62
     7
370
     0
100
AcDbCircle
 10
16.4960795645
 20
4.4584802684
 30
0.0
 40
0.0149999999999997
100
AcDbArc
 50
1.0
 51
90.0
  0
LINE
  5
513
330
1F
100
AcDbEntity
  8
0
  6
Continuous
 62
     7
370
     0
100
AcDbLine
 10
16.9063184857
 20
4.0134802684
 30
0.0
 11
16.891320819
 21
4.0134802684
 31
0.0
  0
LINE
  5
514
330
1F
100
AcDbEntity
  8
0
  6
Continuous
 62
     7
370
     0
100
AcDbLine
 10
13.7863778875
 20
4.0134802684
 30
0.0
 11
13.8038493524
 21
4.0134802684
 31
0.0
  0
LINE
  5
515
330
1F
100
AcDbEntity
  8
0
  6
Continuous
 62
     7
370
     0
100
AcDbLine
 10
14.1666214216
 20
4.4587420714
 30
0.0
 11
14.1588493514
 21
4.0134802684
 31
0.0
  0
LINE
  5
516
330
1F
100
AcDbEntity
  8
0
  6
Continuous
 62
     7
370
     0
100
AcDbLine
 10
13.8038493524
 20
4.0134802684
 30
0.0
 11
14.1588493514
 21
4.0134802684
 31
0.0
  0
LINE
  5
517
330
1F
100
AcDbEntity
  8
0
  6
Continuous
 62
     7
370
     0
100
AcDbLine
 10
16.5110772849
 20
4.4587420714
 30
0.0
 11
16.5188493551
 21
4.0134802684
 31
0.0
  0
LINE
  5
518
330
1F
100
AcDbEntity
  8
0
  6
Continuous
 62
     7
370
     0
100
AcDbLine
 10
16.8738493541
 20
4.0134802684
 30
0.0
 11
16.5188493551
 21
4.0134802684
 31
0.0
  0
LINE
  5
519
330
1F
100
AcDbEntity
  8
0
  6
Continuous
 62
     7
370
     0
100
AcDbLine
 10
16.891320819
 20
4.0134802684
 30
0.0
 11
16.8738493541
 21
4.0134802684
 31
0.0
  0
SPLINE
  5
51A
330
1F
100
AcDbEntity
  8
0
  6
Continuous
 62
     7
370
     0
100
AcDbSpline
210
0.0
220
0.0
230
1.0
 70
    24
 71
     1
 72
     4
 73
     2
 74
     0
 42
0.00000001
 43
0.00000001
 40
0.0
 40
0.0
 40
1.0
 40
1.0
 10
13.6561581651917
 20
4.607344304684624
 30
0.0
 10
13.65570174379766
 20
4.60727496881893
 30
0.0
  0
SPLINE
  5
51B
330
1F
100
AcDbEntity
  8
0
  6
Continuous
 62
     7
370
     0
100
AcDbSpline
210
0.0
220
0.0
230
1.0
 70
    24
 71
     1
 72
     4
 73
     2
 74
     0
 42
0.00000001
 43
0.00000001
 40
0.0
 40
0.0
 40
1.0
 40
1.0
 10
17.01868424100354
 20
4.60775254663522
 30
0.0
 10
17.01797599585192
 20
4.607827565768593
 30
0.0
  0
LINE
  5
51C
330
1F
100
AcDbEntity
  8
0
  6
Continuous
 62
     7
370
     0
100
AcDbLine
 10
14.1738470915
 20
4.0134802684
 30
0.0
 11
14.1588493514
 21
4.0134802684
 31
0.0
  0
LINE
  5
51D
330
1F
100
AcDbEntity
  8
0
  6
Continuous
 62
     7
370
     0
100
AcDbLine
 10
16.5188493551
 20
4.0134802684
 30
0.0
 11
16.5038516151
 21
4.0134802684
 31
0.0
  0
LINE
  5
51E
330
1F
100
AcDbEntity
  8
0
  6
Continuous
 62
     7
370
     0
100
AcDbLine
 10
14.1738470915
 20
4.0134802684
 30
0.0
 11
16.5038516151
 21
4.0134802684
 31
0.0
  0
LINE
  5
51F
330
1F
100
AcDbEntity
  8
0
  6
Continuous
 62
     7
370
     0
100
AcDbLine
 10
13.7222530283
 20
2.5592184548
 30
0.0
 11
13.6968688416
 21
4.0134802684
 31
0.0
  0
ARC
  5
520
330
1F
100
AcDbEntity
  8
0
  6
Continuous
 62
     7
370
     0
100
AcDbCircle
 10
13.7372508006
 20
2.5594802684
 30
0.0
 40
0.0150000000000001
100
AcDbArc
 50
181.0
 51
270.0
  0
LINE
  5
521
330
1F
100
AcDbEntity
  8
0
  6
Continuous
 62
     7
370
     0
100
AcDbLine
 10
13.7372508417
 20
2.5444802384
 30
0.0
 11
16.9404478648
 21
2.5444802384
 31
0.0
  0
ARC
  5
522
330
1F
100
AcDbEntity
  8
0
  6
Continuous
 62
     7
370
     0
100
AcDbCircle
 10
16.940447906
 20
2.5594802684
 30
0.0
 40
0.0149999999999997
100
AcDbArc
 50
270.0
 51
359.0
  0
LINE
  5
523
330
1F
100
AcDbEntity
  8
0
  6
Continuous
 62
     7
370
     0
100
AcDbLine
 10
16.980829865
 20
4.0134802684
 30
0.0
 11
16.9554456782
 21
2.5592184548
 31
0.0
  0
LINE
  5
524
330
1F
100
AcDbEntity
  8
0
  6
Continuous
 62
     7
370
     0
100
AcDbLine
 10
16.980829865
 20
4.0134802684
 30
0.0
 11
16.980829865
 21
4.0734802669
 31
0.0
  0
LINE
  5
525
330
1F
100
AcDbEntity
  8
0
  6
Continuous
 62
     7
370
     0
100
AcDbLine
 10
17.0408299185
 20
4.0734802669
 30
0.0
 11
16.980829865
 21
4.0734802669
 31
0.0
  0
LINE
  5
526
330
1F
100
AcDbEntity
  8
0
  6
Continuous
 62
     7
370
     0
100
AcDbLine
 10
17.0408299185
 20
4.0134802684
 30
0.0
 11
17.1088493194
 21
4.0134802684
 31
0.0
  0
LINE
  5
527
330
1F
100
AcDbEntity
  8
0
  6
Continuous
 62
     7
370
     0
100
AcDbLine
 10
17.1088493194
 20
4.0134802684
 30
0.0
 11
17.0825685697
 21
2.5078572615
 31
0.0
  0
ARC
  5
528
330
1F
100
AcDbEntity
  8
0
  6
Continuous
 62
     7
370
     0
100
AcDbCircle
 10
16.9895827691
 20
2.5094802684
 30
0.0
 40
0.093
100
AcDbArc
 50
270.0
 51
359.0
  0
LINE
  5
529
330
1F
100
AcDbEntity
  8
0
  6
Continuous
 62
     7
370
     0
100
AcDbLine
 10
13.688115876
 20
2.4164802904
 30
0.0
 11
16.9895828305
 21
2.4164802904
 31
0.0
  0
ARC
  5
52A
330
1F
100
AcDbEntity
  8
0
  6
Continuous
 62
     7
370
     0
100
AcDbCircle
 10
13.6881159374
 20
2.5094802684
 30
0.0
 40
0.0930000000000022
100
AcDbArc
 50
181.0
 51
270.0
  0
LINE
  5
52B
330
1F
100
AcDbEntity
  8
0
  6
Continuous
 62
     7
370
     0
100
AcDbLine
 10
13.5951301369
 20
2.5078572615
 30
0.0
 11
13.5688493871
 21
4.0134802684
 31
0.0
  0
LINE
  5
52C
330
1F
100
AcDbEntity
  8
0
  6
Continuous
 62
     7
370
     0
100
AcDbLine
 10
13.5688493871
 20
4.0134802684
 30
0.0
 11
13.636868788
 21
4.0134802684
 31
0.0
  0
LINE
  5
52D
330
1F
100
AcDbEntity
  8
0
  6
Continuous
 62
     7
370
     0
100
AcDbLine
 10
13.6968688416
 20
4.0734802669
 30
0.0
 11
13.636868788
 21
4.0734802669
 31
0.0
  0
LINE
  5
52E
330
1F
100
AcDbEntity
  8
0
  6
Continuous
 62
     7
370
     0
100
AcDbLine
 10
13.6968688416
 20
4.0734802669
 30
0.0
 11
13.6968688416
 21
4.0134802684
 31
0.0
  0
LINE
  5
52F
330
1F
100
AcDbEntity
  8
0
  6
Continuous
 62
     7
370
     0
100
AcDbLine
 10
17.0408299185
 20
4.0134802684
 30
0.0
 11
17.0408299185
 21
4.0734802669
 31
0.0
  0
LINE
  5
530
330
1F
100
AcDbEntity
  8
0
  6
Continuous
 62
     7
370
     0
100
AcDbLine
 10
13.636868788
 20
4.0734802669
 30
0.0
 11
13.636868788
 21
4.0134802684
 31
0.0
  0
LINE
  5
531
330
1F
100
AcDbEntity
  8
0
  6
Continuous
 62
     7
370
     0
100
AcDbLine
 10
16.5378493623
 20
2.7944802904
 30
0.0
 11
16.8198493646
 21
2.7944802904
 31
0.0
  0
LINE
  5
532
330
1F
100
AcDbEntity
  8
0
  6
Continuous
 62
     7
370
     0
100
AcDbLine
 10
13.8578493419
 20
2.7944802904
 30
0.0
 11
14.1398493442
 21
2.7944802904
 31
0.0
  0
LINE
  5
533
330
1F
100
AcDbEntity
  8
0
  6
Continuous
 62
     7
370
     0
100
AcDbLine
 10
13.2889721403
 20
3.8893552181
 30
0.0
 11
13.5752379667
 21
3.6474802864
 31
0.0
  0
LINE
  5
534
330
1F
100
AcDbEntity
  8
0
  6
Continuous
 62
     7
370
     0
100
AcDbLine
 10
13.5774023017
 20
3.5234802589
 30
0.0
 11
13.2889721403
 21
3.8893552181
 31
0.0
  0
LINE
  5
535
330
1F
100
AcDbEntity
  8
0
  6
Continuous
 62
     7
370
     0
100
AcDbLine
 10
14.1100265621
 20
2.378480276
 30
0.0
 11
14.179026565
 21
2.378480276
 31
0.0
  0
LINE
  5
536
330
1F
100
AcDbEntity
  8
0
  6
Continuous
 62
     7
370
     0
100
AcDbLine
 10
14.0410265592
 20
2.378480276
 30
0.0
 11
14.1100265621
 21
2.378480276
 31
0.0
  0
LINE
  5
537
330
1F
100
AcDbEntity
  8
0
  6
Continuous
 62
     7
370
     0
100
AcDbLine
 10
16.5676721445
 20
2.378480276
 30
0.0
 11
16.6366721474
 21
2.378480276
 31
0.0
  0
LINE
  5
538
330
1F
100
AcDbEntity
  8
0
  6
Continuous
 62
     7
370
     0
100
AcDbLine
 10
16.4986721416
 20
2.378480276
 30
0.0
 11
16.5676721445
 21
2.378480276
 31
0.0
  0
LINE
  5
539
330
1F
100
AcDbEntity
  8
0
  6
Continuous
 62
     7
370
     0
100
AcDbLine
 10
14.1100265621
 20
2.3484802493
 30
0.0
 11
14.0710265859
 21
2.3484802493
 31
0.0
  0
LINE
  5
53A
330
1F
100
AcDbEntity
  8
0
  6
Continuous
 62
     7
370
     0
100
AcDbLine
 10
14.1490266115
 20
2.3484802493
 30
0.0
 11
14.1100265621
 21
2.3484802493
 31
0.0
  0
LINE
  5
53B
330
1F
100
AcDbEntity
  8
0
  6
Continuous
 62
     7
370
     0
100
AcDbLine
 10
16.5676721445
 20
2.3484802493
 30
0.0
 11
16.528672095
 21
2.3484802493
 31
0.0
  0
LINE
  5
53C
330
1F
100
AcDbEntity
  8
0
  6
Continuous
 62
     7
370
     0
100
AcDbLine
 10
16.6066721206
 20
2.3484802493
 30
0.0
 11
16.5676721445
 21
2.3484802493
 31
0.0
  0
LINE
  5
53D
330
1F
100
AcDbEntity
  8
0
  6
Continuous
 62
     7
370
     0
100
AcDbLine
 10
13.6968688416
 20
4.0134802684
 30
0.0
 11
13.7138802184
 21
4.0134802684
 31
0.0
  0
LINE
  5
53E
330
1F
100
AcDbEntity
  8
0
  6
Continuous
 62
     7
370
     0
100
AcDbLine
 10
16.9638184882
 20
4.0134802684
 30
0.0
 11
16.980829865
 21
4.0134802684
 31
0.0
  0
LINE
  5
53F
330
1F
100
AcDbEntity
  8
0
  6
Continuous
 62
     7
370
     0
100
AcDbLine
 10
13.7138802184
 20
4.0734802669
 30
0.0
 11
13.6968688416
 21
4.0734802669
 31
0.0
  0
LINE
  5
540
330
1F
100
AcDbEntity
  8
0
  6
Continuous
 62
     7
370
     0
100
AcDbLine
 10
16.980829865
 20
4.0734802669
 30
0.0
 11
16.9638184882
 21
4.0734802669
 31
0.0
  0
LINE
  5
541
330
1F
100
AcDbEntity
  8
0
  6
Continuous
 62
     7
370
     0
100
AcDbLine
 10
16.5715716728
 20
2.7944802904
 30
0.0
 11
16.592849387
 21
4.0134802684
 31
0.0
  0
LINE
  5
542
330
1F
100
AcDbEntity
  8
0
  6
Continuous
 62
     7
370
     0
100
AcDbLine
 10
14.1061270338
 20
2.7944802904
 30
0.0
 11
14.0848493196
 21
4.0134802684
 31
0.0
  0
HATCH
  5
543
330
1F
100
AcDbEntity
  8
0
  6
Continuous
 62
     7
370
     0
100
AcDbHatch
 10
0.0
 20
0.0
 30
0.0
210
0.0
220
0.0
230
1.0
  2
ANSI31
 70
     0
 71
     0
 91
        1
 92
        0
 93
        1
 72
     2
 10
13.39384935326617
 20
4.013480268385972
 40
0.059
 50
0.0
 51
360.0
 73
     1
 97
        0
 75
     0
 76
     1
 52
0.0
 41
1.0
 77
     0
 78
     1
 53
45.0
 43
0.0
 44
0.0
 45
-0.0883883476483184
 46
0.0883883476483184
 79
     0
 98
        1
 10
0.0
 20
0.0
  0
HATCH
  5
544
330
1F
100
AcDbEntity
  8
0
  6
Continuous
 62
     7
370
     0
100
AcDbHatch
 10
0.0
 20
0.0
 30
0.0
210
0.0
220
0.0
230
1.0
  2
ANSI31
 70
     0
 71
     0
 91
        1
 92
        0
 93
       30
 72
     1
 10
16.96381850683728
 20
4.013480268385947
 11
16.96381850683728
 21
4.133480268385947
 72
     1
 10
16.96381850683728
 20
4.133480268385947
 11
17.05381850683728
 21
4.133480268385946
 72
     1
 10
17.05381850683728
 20
4.133480268385946
 11
17.05381850683728
 21
4.013480268385947
 72
     1
 10
17.05381850683728
 20
4.013480268385947
 11
17.10884935326617
 21
4.013480268385946
 72
     1
 10
17.10884935326617
 20
4.013480268385946
 11
17.10005857981367
 21
4.517103342184614
 72
     2
 10
17.00707274416413
 20
4.515480268385947
 40
0.093
 50
0.9999999999998553
 51
90.0
 73
     1
 72
     1
 10
17.00707274416413
 20
4.608480268385946
 11
16.12384935326618
 21
4.608480268385953
 72
     1
 10
16.12384935326618
 20
4.608480268385953
 11
16.12384935326618
 21
4.568480268385953
 72
     1
 10
16.12384935326618
 20
4.568480268385953
 11
14.55384935326618
 21
4.568480268385964
 72
     1
 10
14.55384935326618
 20
4.568480268385964
 11
14.55384935326618
 21
4.608480268385964
 72
     1
 10
14.55384935326618
 20
4.608480268385964
 11
13.67062596236823
 21
4.60848026838597
 72
     2
 10
13.67062596236823
 20
4.51548026838597
 40
0.093
 50
90.0
 51
178.9999999999996
 73
     1
 72
     1
 10
13.57764012671868
 20
4.517103342184638
 11
13.57522872563021
 21
4.378954266350168
 72
     1
 10
13.57522872563021
 20
4.378954266350168
 11
13.28897217950854
 21
4.137605319945327
 72
     2
 10
13.39384935326617
 20
4.013480268385972
 40
0.1625000000000001
 50
130.1955221294027
 51
165.7499673021962
 73
     1
 72
     1
 10
13.23634935326617
 20
4.053480268385973
 11
13.26634935326617
 21
4.053480268385973
 72
     2
 10
13.39384935326617
 20
4.013480268385972
 40
0.133627280148928
 50
197.4179707922041
 51
270.0000000000008
 73
     0
 72
     1
 10
13.39384935326617
 20
4.1471075485349
 11
13.57118182611735
 21
4.147107548534899
 72
     1
 10
13.57118182611735
 20
4.147107548534899
 11
13.56884935326617
 21
4.013480268385971
 72
     1
 10
13.56884935326617
 20
4.013480268385971
 11
13.62388019969506
 21
4.013480268385971
 72
     1
 10
13.62388019969506
 20
4.013480268385971
 11
13.62388019969506
 21
4.133480268385971
 72
     1
 10
13.62388019969506
 20
4.133480268385971
 11
13.71388019969507
 21
4.13348026838597
 72
     1
 10
13.71388019969507
 20
4.13348026838597
 11
13.71388019969507
 21
4.01348026838597
 72
     1
 10
13.71388019969507
 20
4.01348026838597
 11
13.77138019969506
 21
4.01348026838597
 72
     1
 10
13.77138019969506
 20
4.01348026838597
 11
13.77915227308144
 21
4.458742054482529
 72
     2
 10
13.79414998850878
 20
4.45848026838597
 40
0.015
 50
180.9999999999982
 51
270.0000000000008
 73
     0
 72
     1
 10
13.79414998850878
 20
4.47348026838597
 11
16.88354871802357
 21
4.473480268385948
 72
     2
 10
16.88354871802357
 20
4.458480268385947
 40
0.015
 50
270.0000000000008
 51
358.9999999999966
 73
     0
 72
     1
 10
16.89854643345091
 20
4.458742054482507
 11
16.90631850683728
 21
4.013480268385948
 72
     1
 10
16.90631850683728
 20
4.013480268385948
 11
16.96381850683728
 21
4.013480268385947
 97
        0
 75
     0
 76
     1
 52
0.0
 41
1.0
 77
     0
 78
     1
 53
45.0
 43
0.0
 44
0.0
 45
-0.0883883476483184
 46
0.0883883476483184
 79
     0
 98
        1
 10
0.0
 20
0.0
  0
HATCH
  5
545
330
1F
100
AcDbEntity
  8
0
  6
Continuous
 62
     7
370
     0
100
AcDbHatch
 10
0.0
 20
0.0
 30
0.0
210
0.0
220
0.0
230
1.0
  2
ANSI31
 70
     0
 71
     0
 91
        1
 92
        0
 93
       18
 72
     1
 10
13.69686885125579
 20
4.013480268385971
 11
13.69686885125579
 21
4.07348026838597
 72
     1
 10
13.69686885125579
 20
4.07348026838597
 11
13.63686885125579
 21
4.073480268385971
 72
     1
 10
13.63686885125579
 20
4.073480268385971
 11
13.63686885125579
 21
4.013480268385971
 72
     1
 10
13.63686885125579
 20
4.013480268385971
 11
13.56884935326617
 21
4.013480268385972
 72
     1
 10
13.56884935326617
 20
4.013480268385972
 11
13.59513010177674
 21
2.507857194587304
 72
     2
 10
13.68811593742628
 20
2.50948026838597
 40
0.093
 50
180.9999999999998
 51
270.0000000000008
 73
     1
 72
     1
 10
13.68811593742628
 20
2.416480268385971
 11
16.98958276910604
 21
2.416480268385948
 72
     2
 10
16.98958276910604
 20
2.509480268385948
 40
0.093
 50
270.0000000000008
 51
359.0000000000001
 73
     1
 72
     1
 10
17.08256860475558
 20
2.507857194587279
 11
17.10884935326617
 21
4.013480268385947
 72
     1
 10
17.10884935326617
 20
4.013480268385947
 11
17.04082985527655
 21
4.013480268385947
 72
     1
 10
17.04082985527655
 20
4.013480268385947
 11
17.04082985527655
 21
4.073480268385947
 72
     1
 10
17.04082985527655
 20
4.073480268385947
 11
16.98082985527655
 21
4.073480268385947
 72
     1
 10
16.98082985527655
 20
4.073480268385947
 11
16.98082985527655
 21
4.013480268385948
 72
     1
 10
16.98082985527655
 20
4.013480268385948
 11
16.9554456213776
 21
2.559218482289389
 72
     2
 10
16.94044790595025
 20
2.559480268385948
 40
0.015
 50
1.000000000000641
 51
90.0
 73
     0
 72
     1
 10
16.94044790595025
 20
2.544480268385948
 11
13.73725080058207
 21
2.54448026838597
 72
     2
 10
13.73725080058207
 20
2.55948026838597
 40
0.015
 50
90.00000000000679
 51
179.0000000000009
 73
     0
 72
     1
 10
13.72225308515472
 20
2.559218482289411
 11
13.69686885125579
 21
4.013480268385971
 97
        0
 75
     0
 76
     1
 52
0.0
 41
1.0
 77
     0
 78
     1
 53
45.0
 43
0.0
 44
0.0
 45
-0.0883883476483184
 46
0.0883883476483184
 79
     0
 98
        1
 10
0.0
 20
0.0
  0
DIMENSION
  5
546
330
1F
100
AcDbEntity
  8
0
  6
Continuous
 62
     7
370
     0
100
AcDbDimension
  2
*D38
 10
12.6407981722
 20
2.5444802684
 30
0.0
 11
12.6407981722
 21
3.5089802684
 31
0.0
 70
   160
 71
     2
 42
-1.0
  3
SLDDIMSTYLE0
100
AcDbAlignedDimension
 13
13.7941499885
 23
4.4734802684
 33
0.0
 14
13.7372508006
 24
2.5444802684
 34
0.0
 50
90.0
100
AcDbRotatedDimension
  0
DIMENSION
  5
551
330
1F
100
AcDbEntity
  8
0
  6
Continuous
 62
     7
370
     0
100
AcDbDimension
  2
*D39
 10
12.6407981722
 20
2.4164802684
 30
0.0
 11
12.6407981722
 21
2.0387421381
 31
0.0
 70
   160
 71
     2
 42
-1.0
  3
SLDDIMSTYLE3
100
AcDbAlignedDimension
 13
13.7372508006
 23
2.5444802684
 33
0.0
 14
13.6881159374
 24
2.4164802684
 34
0.0
 50
90.0
100
AcDbRotatedDimension
  0
DIMENSION
  5
55D
330
1F
100
AcDbEntity
  8
0
  6
Continuous
 62
     7
370
     0
100
AcDbDimension
  2
*D40
 10
12.6407981722
 20
4.6084802684
 30
0.0
 11
12.6407981722
 21
5.1708009662
 31
0.0
 70
   160
 71
     2
 42
-1.0
  3
SLDDIMSTYLE3
100
AcDbAlignedDimension
 13
13.7941499885
 23
4.4734802684
 33
0.0
 14
13.6706259624
 24
4.6084802684
 34
0.0
 50
90.0
100
AcDbRotatedDimension
  0
DIMENSION
  5
569
330
1F
100
AcDbEntity
  8
0
  6
Continuous
 62
     7
370
     0
100
AcDbDimension
  2
*D41
 10
17.6994005344
 20
2.5444802684
 30
0.0
 11
17.6994005344
 21
2.0387421381
 31
0.0
 70
   160
 71
     2
 42
-1.0
  3
SLDDIMSTYLE3
100
AcDbAlignedDimension
 13
16.7413493533
 23
2.7944802684
 33
0.0
 14
16.940447906
 24
2.5444802684
 34
0.0
 50
90.0
100
AcDbRotatedDimension
  0
DIMENSION
  5
575
330
1F
100
AcDbEntity
  8
0
  6
Continuous
 62
     7
370
     0
100
AcDbDimension
  2
*D42
 10
17.6994005344
 20
4.4734802684
 30
0.0
 11
17.6994005344
 21
3.6339802684
 31
0.0
 70
   160
 71
     2
 42
-1.0
  3
SLDDIMSTYLE0
100
AcDbAlignedDimension
 13
16.8198493533
 23
2.7944802684
 33
0.0
 14
16.883548718
 24
4.4734802684
 34
0.0
 50
90.0
100
AcDbRotatedDimension
  0
MTEXT
  5
580
330
1F
100
AcDbEntity
  8
0
  6
Continuous
 62
     7
370
     0
100
AcDbMText
 10
14.6535484005
 20
2.095156567
 30
0.0
 40
0.125
 41
0.0
 71
     1
 72
     1
  1
SECTION A-A
  7
SLDTEXTSTYLE0
 73
     1
 44
1.0
  0
ENDSEC
  0
SECTION
  2
OBJECTS
  0
DICTIONARY
  5
C
330
0
100
AcDbDictionary
281
     1
  3
ACAD_GROUP
350
D
  3
ACAD_LAYOUT
350
1A
  3
ACAD_MLEADERSTYLE
350
584
  3
ACAD_MLINESTYLE
350
17
  3
ACAD_PLOTSETTINGS
350
19
  3
ACAD_PLOTSTYLENAME
350
E
  3
ACAD_SCALELIST
350
3B
  3
ACAD_TABLESTYLE
350
583
  3
ACAD_VISUALSTYLE
350
2A
  3
AcDbVariableDictionary
350
581
  0
DICTIONARY
  5
D
102
{ACAD_REACTORS
330
C
102
}
330
C
100
AcDbDictionary
281
     1
  0
DICTIONARY
  5
1A
102
{ACAD_REACTORS
330
C
102
}
330
C
100
AcDbDictionary
281
     1
  3
Layout1
350
1E
  3
Layout2
350
26
  3
Model
350
22
  0
DICTIONARY
  5
584
102
{ACAD_REACTORS
330
C
102
}
330
C
100
AcDbDictionary
281
     1
  0
DICTIONARY
  5
17
102
{ACAD_REACTORS
330
C
102
}
330
C
100
AcDbDictionary
281
     1
  3
Standard
350
18
  0
DICTIONARY
  5
19
102
{ACAD_REACTORS
330
C
102
}
330
C
100
AcDbDictionary
281
     1
  0
ACDBDICTIONARYWDFLT
  5
E
102
{ACAD_REACTORS
330
C
102
}
330
C
100
AcDbDictionary
281
     1
  3
Normal
350
F
100
AcDbDictionaryWithDefault
340
F
  0
DICTIONARY
  5
3B
102
{ACAD_REACTORS
330
C
102
}
330
C
100
AcDbDictionary
281
     1
  3
A0
350
3C
  3
A1
350
3D
  3
A2
350
3E
  3
A3
350
3F
  3
A4
350
40
  3
A5
350
41
  3
A6
350
42
  3
A7
350
43
  3
A8
350
44
  3
A9
350
45
  3
B0
350
46
  3
B1
350
47
  3
B2
350
48
  3
B3
350
49
  3
B4
350
4A
  3
B5
350
4B
  3
B6
350
4C
  3
B7
350
4D
  3
B8
350
4E
  3
B9
350
4F
  3
C0
350
50
  3
C1
350
51
  3
C2
350
52
  3
C3
350
53
  3
C4
350
54
  3
C5
350
55
  3
C6
350
56
  3
C7
350
57
  3
C8
350
58
  3
C9
350
59
  3
D0
350
5A
  3
D1
350
5B
  3
D2
350
5C
  0
DICTIONARY
  5
583
102
{ACAD_REACTORS
330
C
102
}
330
C
100
AcDbDictionary
281
     1
  0
DICTIONARY
  5
2A
102
{ACAD_REACTORS
330
C
102
}
330
C
100
AcDbDictionary
281
     1
  3
2dWireframe
350
2F
  3
3D Hidden
350
31
  3
3dWireframe
350
30
  3
Basic
350
32
  3
Brighten
350
36
  3
ColorChange
350
3A
  3
Conceptual
350
34
  3
Dim
350
35
  3
Facepattern
350
39
  3
Flat
350
2B
  3
FlatWithEdges
350
2C
  3
Gouraud
350
2D
  3
GouraudWithEdges
350
2E
  3
Linepattern
350
38
  3
Realistic
350
33
  3
Thicken
350
37
  0
DICTIONARY
  5
581
102
{ACAD_REACTORS
330
C
102
}
330
C
100
AcDbDictionary
281
     1
  3
CANNOSCALE
350
582
  0
LAYOUT
  5
1E
102
{ACAD_REACTORS
330
1A
102
}
330
1A
100
AcDbPlotSettings
  1

  2
none_device
  4

  6

 40
0.0
 41
0.0
 42
0.0
 43
0.0
 44
0.0
 45
0.0
 46
0.0
 47
0.0
 48
0.0
 49
0.0
140
0.0
141
0.0
142
1.0
143
1.0
 70
   688
 72
     0
 73
     0
 74
     5
  7

 75
    16
147
1.0
148
0.0
149
0.0
100
AcDbLayout
  1
Layout1
 70
     1
 71
     1
 10
0.0
 20
0.0
 11
12.0
 21
9.0
 12
0.0
 22
0.0
 32
0.0
 14
1.0000000000E+20
 24
1.0000000000E+20
 34
1.0000000000E+20
 15
-1.0000000000E+20
 25
-1.0000000000E+20
 35
-1.0000000000E+20
146
0.0
 13
0.0
 23
0.0
 33
0.0
 16
1.0
 26
0.0
 36
0.0
 17
0.0
 27
1.0
 37
0.0
 76
     0
330
1B
  0
LAYOUT
  5
26
102
{ACAD_REACTORS
330
1A
102
}
330
1A
100
AcDbPlotSettings
  1

  2
none_device
  4

  6

 40
0.0
 41
0.0
 42
0.0
 43
0.0
 44
0.0
 45
0.0
 46
0.0
 47
0.0
 48
0.0
 49
0.0
140
0.0
141
0.0
142
1.0
143
1.0
 70
   688
 72
     0
 73
     0
 74
     5
  7

 75
    16
147
1.0
148
0.0
149
0.0
100
AcDbLayout
  1
Layout2
 70
     1
 71
     2
 10
0.0
 20
0.0
 11
0.0
 21
0.0
 12
0.0
 22
0.0
 32
0.0
 14
0.0
 24
0.0
 34
0.0
 15
0.0
 25
0.0
 35
0.0
146
0.0
 13
0.0
 23
0.0
 33
0.0
 16
1.0
 26
0.0
 36
0.0
 17
0.0
 27
1.0
 37
0.0
 76
     0
330
23
  0
LAYOUT
  5
22
102
{ACAD_REACTORS
330
1A
102
}
330
1A
100
AcDbPlotSettings
  1

  2
none_device
  4

  6

 40
0.0
 41
0.0
 42
0.0
 43
0.0
 44
0.0
 45
0.0
 46
0.0
 47
0.0
 48
0.0
 49
0.0
140
0.0
141
0.0
142
1.0
143
1.0
 70
  1712
 72
     0
 73
     0
 74
     0
  7

 75
     0
147
1.0
148
0.0
149
0.0
100
AcDbLayout
  1
Model
 70
     1
 71
     0
 10
0.0
 20
0.0
 11
22.0
 21
17.0
 12
0.0
 22
0.0
 32
0.0
 14
0.0
 24
0.0
 34
0.0
 15
22.0
 25
17.0
 35
0.0
146
0.0
 13
0.0
 23
0.0
 33
0.0
 16
1.0
 26
0.0
 36
0.0
 17
0.0
 27
1.0
 37
0.0
 76
     0
330
1F
331
29
  0
MLINESTYLE
  5
18
102
{ACAD_REACTORS
330
17
102
}
330
17
100
AcDbMlineStyle
  2
Standard
 70
     0
  3

 62
   256
 51
90.0
 52
90.0
 71
     2
 49
0.5
 62
   256
  6
BYLAYER
 49
-0.5
 62
   256
  6
BYLAYER
  0
ACDBPLACEHOLDER
  5
F
102
{ACAD_REACTORS
330
E
102
}
330
E
  0
SCALE
  5
3C
102
{ACAD_REACTORS
330
3B
102
}
330
3B
100
AcDbScale
 70
     0
300
1:1
140
1.0
141
1.0
290
     1
  0
SCALE
  5
3D
102
{ACAD_REACTORS
330
3B
102
}
330
3B
100
AcDbScale
 70
     0
300
1:2
140
1.0
141
2.0
290
     0
  0
SCALE
  5
3E
102
{ACAD_REACTORS
330
3B
102
}
330
3B
100
AcDbScale
 70
     0
300
1:4
140
1.0
141
4.0
290
     0
  0
SCALE
  5
3F
102
{ACAD_REACTORS
330
3B
102
}
330
3B
100
AcDbScale
 70
     0
300
1:5
140
1.0
141
5.0
290
     0
  0
SCALE
  5
40
102
{ACAD_REACTORS
330
3B
102
}
330
3B
100
AcDbScale
 70
     0
300
1:8
140
1.0
141
8.0
290
     0
  0
SCALE
  5
41
102
{ACAD_REACTORS
330
3B
102
}
330
3B
100
AcDbScale
 70
     0
300
1:10
140
1.0
141
10.0
290
     0
  0
SCALE
  5
42
102
{ACAD_REACTORS
330
3B
102
}
330
3B
100
AcDbScale
 70
     0
300
1:16
140
1.0
141
16.0
290
     0
  0
SCALE
  5
43
102
{ACAD_REACTORS
330
3B
102
}
330
3B
100
AcDbScale
 70
     0
300
1:20
140
1.0
141
20.0
290
     0
  0
SCALE
  5
44
102
{ACAD_REACTORS
330
3B
102
}
330
3B
100
AcDbScale
 70
     0
300
1:30
140
1.0
141
30.0
290
     0
  0
SCALE
  5
45
102
{ACAD_REACTORS
330
3B
102
}
330
3B
100
AcDbScale
 70
     0
300
1:40
140
1.0
141
40.0
290
     0
  0
SCALE
  5
46
102
{ACAD_REACTORS
330
3B
102
}
330
3B
100
AcDbScale
 70
     0
300
1:50
140
1.0
141
50.0
290
     0
  0
SCALE
  5
47
102
{ACAD_REACTORS
330
3B
102
}
330
3B
100
AcDbScale
 70
     0
300
1:100
140
1.0
141
100.0
290
     0
  0
SCALE
  5
48
102
{ACAD_REACTORS
330
3B
102
}
330
3B
100
AcDbScale
 70
     0
300
2:1
140
2.0
141
1.0
290
     0
  0
SCALE
  5
49
102
{ACAD_REACTORS
330
3B
102
}
330
3B
100
AcDbScale
 70
     0
300
4:1
140
4.0
141
1.0
290
     0
  0
SCALE
  5
4A
102
{ACAD_REACTORS
330
3B
102
}
330
3B
100
AcDbScale
 70
     0
300
8:1
140
8.0
141
1.0
290
     0
  0
SCALE
  5
4B
102
{ACAD_REACTORS
330
3B
102
}
330
3B
100
AcDbScale
 70
     0
300
10:1
140
10.0
141
1.0
290
     0
  0
SCALE
  5
4C
102
{ACAD_REACTORS
330
3B
102
}
330
3B
100
AcDbScale
 70
     0
300
100:1
140
100.0
141
1.0
290
     0
  0
SCALE
  5
4D
102
{ACAD_REACTORS
330
3B
102
}
330
3B
100
AcDbScale
 70
     0
300
1/128" = 1'-0"
140
0.0078125
141
12.0
290
     0
  0
SCALE
  5
4E
102
{ACAD_REACTORS
330
3B
102
}
330
3B
100
AcDbScale
 70
     0
300
1/64" = 1'-0"
140
0.015625
141
12.0
290
     0
  0
SCALE
  5
4F
102
{ACAD_REACTORS
330
3B
102
}
330
3B
100
AcDbScale
 70
     0
300
1/32" = 1'-0"
140
0.03125
141
12.0
290
     0
  0
SCALE
  5
50
102
{ACAD_REACTORS
330
3B
102
}
330
3B
100
AcDbScale
 70
     0
300
1/16" = 1'-0"
140
0.0625
141
12.0
290
     0
  0
SCALE
  5
51
102
{ACAD_REACTORS
330
3B
102
}
330
3B
100
AcDbScale
 70
     0
300
3/32" = 1'-0"
140
0.09375
141
12.0
290
     0
  0
SCALE
  5
52
102
{ACAD_REACTORS
330
3B
102
}
330
3B
100
AcDbScale
 70
     0
300
1/8" = 1'-0"
140
0.125
141
12.0
290
     0
  0
SCALE
  5
53
102
{ACAD_REACTORS
330
3B
102
}
330
3B
100
AcDbScale
 70
     0
300
3/16" = 1'-0"
140
0.1875
141
12.0
290
     0
  0
SCALE
  5
54
102
{ACAD_REACTORS
330
3B
102
}
330
3B
100
AcDbScale
 70
     0
300
1/4" = 1'-0"
140
0.25
141
12.0
290
     0
  0
SCALE
  5
55
102
{ACAD_REACTORS
330
3B
102
}
330
3B
100
AcDbScale
 70
     0
300
3/8" = 1'-0"
140
0.375
141
12.0
290
     0
  0
SCALE
  5
56
102
{ACAD_REACTORS
330
3B
102
}
330
3B
100
AcDbScale
 70
     0
300
1/2" = 1'-0"
140
0.5
141
12.0
290
     0
  0
SCALE
  5
57
102
{ACAD_REACTORS
330
3B
102
}
330
3B
100
AcDbScale
 70
     0
300
3/4" = 1'-0"
140
0.75
141
12.0
290
     0
  0
SCALE
  5
58
102
{ACAD_REACTORS
330
3B
102
}
330
3B
100
AcDbScale
 70
     0
300
1" = 1'-0"
140
1.0
141
12.0
290
     0
  0
SCALE
  5
59
102
{ACAD_REACTORS
330
3B
102
}
330
3B
100
AcDbScale
 70
     0
300
1-1/2" = 1'-0"
140
1.5
141
12.0
290
     0
  0
SCALE
  5
5A
102
{ACAD_REACTORS
330
3B
102
}
330
3B
100
AcDbScale
 70
     0
300
3" = 1'-0"
140
3.0
141
12.0
290
     0
  0
SCALE
  5
5B
102
{ACAD_REACTORS
330
3B
102
}
330
3B
100
AcDbScale
 70
     0
300
6" = 1'-0"
140
6.0
141
12.0
290
     0
  0
SCALE
  5
5C
102
{ACAD_REACTORS
330
3B
102
}
330
3B
100
AcDbScale
 70
     0
300
1'-0" = 1'-0"
140
12.0
141
12.0
290
     0
  0
VISUALSTYLE
  5
2F
102
{ACAD_REACTORS
330
2A
102
}
330
2A
100
AcDbVisualStyle
  2
2dWireframe
 70
     4
 71
     0
 72
     2
 73
     0
 90
        0
 40
-0.6
 41
-30.0
 62
     5
 63
     7
 74
     1
 91
        4
 64
     7
 65
   257
 75
     1
175
     1
 42
1.0
 92
        0
 66
   257
 43
1.0
 76
     1
 77
     6
 78
     2
 67
     7
 79
     5
170
     0
171
     0
290
     0
174
     0
 93
        1
 44
0.0
173
     0
291
     0
 45
0.0
1001
ACAD
1000
AcDbSavedByObjectVersion
1070
     0
  0
VISUALSTYLE
  5
31
102
{ACAD_REACTORS
330
2A
102
}
330
2A
100
AcDbVisualStyle
  2
3D Hidden
 70
     6
 71
     1
 72
     2
 73
     2
 90
        0
 40
-0.6
 41
-30.0
 62
     5
 63
     7
 74
     2
 91
        2
 64
     7
 65
   257
 75
     2
175
     1
 42
40.0
 92
        0
 66
   257
 43
1.0
 76
     1
 77
     6
 78
     2
 67
     7
 79
     3
170
     0
171
     0
290
     0
174
     0
 93
        1
 44
0.0
173
     0
291
     0
 45
0.0
1001
ACAD
1000
AcDbSavedByObjectVersion
1070
     0
  0
VISUALSTYLE
  5
30
102
{ACAD_REACTORS
330
2A
102
}
330
2A
100
AcDbVisualStyle
  2
3dWireframe
 70
     5
 71
     0
 72
     2
 73
     0
 90
        0
 40
-0.6
 41
-30.0
 62
     5
 63
     7
 74
     1
 91
        4
 64
     7
 65
   257
 75
     1
175
     1
 42
1.0
 92
        0
 66
   257
 43
1.0
 76
     1
 77
     6
 78
     2
 67
     7
 79
     5
170
     0
171
     0
290
     0
174
     0
 93
        1
 44
0.0
173
     0
291
     0
 45
0.0
1001
ACAD
1000
AcDbSavedByObjectVersion
1070
     0
  0
VISUALSTYLE
  5
32
102
{ACAD_REACTORS
330
2A
102
}
330
2A
100
AcDbVisualStyle
  2
Basic
 70
     7
 71
     1
 72
     0
 73
     1
 90
        0
 40
-0.6
 41
-30.0
 62
     5
 63
     7
 74
     0
 91
        4
 64
     7
 65
   257
 75
     1
175
     1
 42
1.0
 92
        8
 66
     7
 43
1.0
 76
     1
 77
     6
 78
     2
 67
     7
 79
     5
170
     0
171
     0
290
     0
174
     0
 93
        1
 44
0.0
173
     0
291
     1
 45
0.0
1001
ACAD
1000
AcDbSavedByObjectVersion
1070
     0
  0
VISUALSTYLE
  5
36
102
{ACAD_REACTORS
330
2A
102
}
330
2A
100
AcDbVisualStyle
  2
Brighten
 70
    12
 71
     2
 72
     2
 73
     0
 90
        0
 40
-0.6
 41
-30.0
 62
     5
 63
     7
 74
     1
 91
        4
 64
     7
 65
   257
 75
     1
175
     1
 42
1.0
 92
        8
 66
     7
 43
1.0
 76
     1
 77
     6
 78
     2
 67
     7
 79
     5
170
     0
171
     0
290
     0
174
     0
 93
        1
 44
50.0
173
     0
291
     1
 45
0.0
1001
ACAD
1000
AcDbSavedByObjectVersion
1070
     0
  0
VISUALSTYLE
  5
3A
102
{ACAD_REACTORS
330
2A
102
}
330
2A
100
AcDbVisualStyle
  2
ColorChange
 70
    16
 71
     2
 72
     2
 73
     3
 90
        0
 40
-0.6
 41
-30.0
 62
     5
 63
     8
 74
     1
 91
        4
 64
     7
 65
   257
 75
     1
175
     1
 42
1.0
 92
        8
 66
     8
 43
1.0
 76
     1
 77
     6
 78
     2
 67
     7
 79
     5
170
     0
171
     0
290
     0
174
     0
 93
        1
 44
0.0
173
     0
291
     1
 45
0.0
1001
ACAD
1000
AcDbSavedByObjectVersion
1070
     0
  0
VISUALSTYLE
  5
34
102
{ACAD_REACTORS
330
2A
102
}
330
2A
100
AcDbVisualStyle
  2
Conceptual
 70
     9
 71
     3
 72
     2
 73
     0
 90
        0
 40
-0.6
 41
-30.0
 62
     5
 63
     7
 74
     2
 91
        2
 64
     7
 65
   257
 75
     1
175
     1
 42
40.0
 92
        8
 66
     7
 43
1.0
 76
     1
 77
     6
 78
     2
 67
     7
 79
     3
170
     0
171
     0
290
     0
174
     0
 93
        1
 44
0.0
173
     0
291
     0
 45
0.0
1001
ACAD
1000
AcDbSavedByObjectVersion
1070
     0
  0
VISUALSTYLE
  5
35
102
{ACAD_REACTORS
330
2A
102
}
330
2A
100
AcDbVisualStyle
  2
Dim
 70
    11
 71
     2
 72
     2
 73
     0
 90
        0
 40
-0.6
 41
-30.0
 62
     5
 63
     7
 74
     1
 91
        4
 64
     7
 65
   257
 75
     1
175
     1
 42
1.0
 92
        8
 66
     7
 43
1.0
 76
     1
 77
     6
 78
     2
 67
     7
 79
     5
170
     0
171
     0
290
     0
174
     0
 93
        1
 44
-50.0
173
     0
291
     1
 45
0.0
1001
ACAD
1000
AcDbSavedByObjectVersion
1070
     0
  0
VISUALSTYLE
  5
39
102
{ACAD_REACTORS
330
2A
102
}
330
2A
100
AcDbVisualStyle
  2
Facepattern
 70
    15
 71
     2
 72
     2
 73
     0
 90
        0
 40
-0.6
 41
-30.0
 62
     5
 63
     7
 74
     1
 91
        4
 64
     7
 65
   257
 75
     1
175
     1
 42
1.0
 92
        8
 66
     7
 43
1.0
 76
     1
 77
     6
 78
     2
 67
     7
 79
     5
170
     0
171
     0
290
     0
174
     0
 93
        1
 44
0.0
173
     0
291
     1
 45
0.0
1001
ACAD
1000
AcDbSavedByObjectVersion
1070
     0
  0
VISUALSTYLE
  5
2B
102
{ACAD_REACTORS
330
2A
102
}
330
2A
100
AcDbVisualStyle
  2
Flat
 70
     0
 71
     2
 72
     1
 73
     1
 90
        2
 40
-0.6
 41
30.0
 62
     5
 63
     7
 74
     0
 91
        4
 64
     7
 65
   257
 75
     1
175
     1
 42
1.0
 92
        8
 66
     7
 43
1.0
 76
     1
 77
     6
 78
     2
 67
     7
 79
     5
170
     0
171
     0
290
     0
174
     0
 93
       13
 44
0.0
173
     0
291
     1
 45
0.0
1001
ACAD
1000
AcDbSavedByObjectVersion
1070
     0
  0
VISUALSTYLE
  5
2C
102
{ACAD_REACTORS
330
2A
102
}
330
2A
100
AcDbVisualStyle
  2
FlatWithEdges
 70
     1
 71
     2
 72
     1
 73
     1
 90
        2
 40
-0.6
 41
30.0
 62
     5
 63
     7
 74
     1
 91
        4
 64
     7
 65
   257
 75
     1
175
     1
 42
1.0
 92
        0
 66
   257
 43
1.0
 76
     1
 77
     6
 78
     2
 67
     7
 79
     5
170
     0
171
     0
290
     0
174
     0
 93
       13
 44
0.0
173
     0
291
     1
 45
0.0
1001
ACAD
1000
AcDbSavedByObjectVersion
1070
     0
  0
VISUALSTYLE
  5
2D
102
{ACAD_REACTORS
330
2A
102
}
330
2A
100
AcDbVisualStyle
  2
Gouraud
 70
     2
 71
     2
 72
     2
 73
     1
 90
        2
 40
-0.6
 41
30.0
 62
     5
 63
     7
 74
     0
 91
        4
 64
     7
 65
   257
 75
     1
175
     1
 42
1.0
 92
        0
 66
     7
 43
1.0
 76
     1
 77
     6
 78
     2
 67
     7
 79
     5
170
     0
171
     0
290
     0
174
     0
 93
       13
 44
0.0
173
     0
291
     1
 45
0.0
1001
ACAD
1000
AcDbSavedByObjectVersion
1070
     0
  0
VISUALSTYLE
  5
2E
102
{ACAD_REACTORS
330
2A
102
}
330
2A
100
AcDbVisualStyle
  2
GouraudWithEdges
 70
     3
 71
     2
 72
     2
 73
     1
 90
        2
 40
-0.6
 41
30.0
 62
     5
 63
     7
 74
     1
 91
        4
 64
     7
 65
   257
 75
     1
175
     1
 42
1.0
 92
        0
 66
   257
 43
1.0
 76
     1
 77
     6
 78
     2
 67
     7
 79
     5
170
     0
171
     0
290
     0
174
     0
 93
       13
 44
0.0
173
     0
291
     1
 45
0.0
1001
ACAD
1000
AcDbSavedByObjectVersion
1070
     0
  0
VISUALSTYLE
  5
38
102
{ACAD_REACTORS
330
2A
102
}
330
2A
100
AcDbVisualStyle
  2
Linepattern
 70
    14
 71
     2
 72
     2
 73
     0
 90
        0
 40
-0.6
 41
-30.0
 62
     5
 63
     7
 74
     1
 91
        4
 64
     7
 65
   257
 75
     7
175
     7
 42
1.0
 92
        8
 66
     7
 43
1.0
 76
     1
 77
     6
 78
     2
 67
     7
 79
     5
170
     0
171
     0
290
     0
174
     0
 93
        1
 44
0.0
173
     0
291
     1
 45
0.0
1001
ACAD
1000
AcDbSavedByObjectVersion
1070
     0
  0
VISUALSTYLE
  5
33
102
{ACAD_REACTORS
330
2A
102
}
330
2A
100
AcDbVisualStyle
  2
Realistic
 70
     8
 71
     2
 72
     2
 73
     0
 90
        0
 40
-0.6
 41
-30.0
 62
     5
 63
     7
 74
     1
 91
        0
 64
     7
 65
   257
 75
     1
175
     1
 42
1.0
 92
        8
 66
     8
 43
1.0
 76
     1
 77
     6
 78
     2
 67
     7
 79
     5
170
     0
171
     0
290
     0
174
     0
 93
       13
 44
0.0
173
     0
291
     0
 45
0.0
1001
ACAD
1000
AcDbSavedByObjectVersion
1070
     0
  0
VISUALSTYLE
  5
37
102
{ACAD_REACTORS
330
2A
102
}
330
2A
100
AcDbVisualStyle
  2
Thicken
 70
    13
 71
     2
 72
     2
 73
     0
 90
        0
 40
-0.6
 41
-30.0
 62
     5
 63
     7
 74
     1
 91
        4
 64
     7
 65
   257
 75
     1
175
     1
 42
1.0
 92
       12
 66
     7
 43
1.0
 76
     1
 77
     6
 78
     2
 67
     7
 79
     5
170
     0
171
     0
290
     0
174
     0
 93
        1
 44
0.0
173
     0
291
     1
 45
0.0
1001
ACAD
1000
AcDbSavedByObjectVersion
1070
     0
  0
DICTIONARYVAR
  5
582
102
{ACAD_REACTORS
330
581
102
}
330
581
100
DictionaryVariables
280
     0
  1
1:1
  0
ENDSEC
  0
EOF
