  0
SECTION
  2
HEADER
  9
$ACADVER
  1
AC1014
  9
$ACADMAINTVER
 70
     9
  9
$DWGCODEPAGE
  3
ANSI_1252
  9
$INSBASE
 10
0.0
 20
0.0
 30
0.0
  9
$EXTMIN
 10
0.0
 20
-0.0000000000000031
 30
0.0
  9
$EXTMAX
 10
17.70999999999999
 20
27.125
 30
0.0
  9
$LIMMIN
 10
0.0
 20
0.0
  9
$LIMMAX
 10
15.17999999999999
 20
23.24999999999998
  9
$ORTHOMODE
 70
     0
  9
$REGENMODE
 70
     1
  9
$FILLMODE
 70
     1
  9
$QTEXTMODE
 70
     0
  9
$MIRRTEXT
 70
     0
  9
$DRAGMODE
 70
     2
  9
$LTSCALE
 40
0.375
  9
$OSMODE
 70
   229
  9
$ATTMODE
 70
     1
  9
$TEXTSIZE
 40
0.218
  9
$TRACEWID
 40
0.05
  9
$TEXTSTYLE
  7
TXT
  9
$CLAYER
  8
OBJECT
  9
$CELTYPE
  6
BYLAYER
  9
$CECOLOR
 62
   256
  9
$CELTSCALE
 40
1.0
  9
$DELOBJ
 70
     1
  9
$DISPSILH
 70
     0
  9
$DIMSCALE
 40
1.75
  9
$DIMASZ
 40
0.18
  9
$DIMEXO
 40
0.063
  9
$DIMDLI
 40
0.281
  9
$DIMRND
 40
0.0
  9
$DIMDLE
 40
0.0
  9
$DIMEXE
 40
0.093
  9
$DIMTP
 40
0.0
  9
$DIMTM
 40
0.0
  9
$DIMTXT
 40
0.125
  9
$DIMCEN
 40
0.09
  9
$DIMTSZ
 40
0.0
  9
$DIMTOL
 70
     0
  9
$DIMLIM
 70
     0
  9
$DIMTIH
 70
     1
  9
$DIMTOH
 70
     1
  9
$DIMSE1
 70
     0
  9
$DIMSE2
 70
     0
  9
$DIMTAD
 70
     0
  9
$DIMZIN
 70
     0
  9
$DIMBLK
  1

  9
$DIMASO
 70
     1
  9
$DIMSHO
 70
     1
  9
$DIMPOST
  1

  9
$DIMAPOST
  1

  9
$DIMALT
 70
     0
  9
$DIMALTD
 70
     2
  9
$DIMALTF
 40
25.4
  9
$DIMLFAC
 40
1.0
  9
$DIMTOFL
 70
     0
  9
$DIMTVP
 40
0.0
  9
$DIMTIX
 70
     0
  9
$DIMSOXD
 70
     0
  9
$DIMSAH
 70
     0
  9
$DIMBLK1
  1

  9
$DIMBLK2
  1

  9
$DIMSTYLE
  2
23NSTD
  9
$DIMCLRD
 70
     0
  9
$DIMCLRE
 70
     0
  9
$DIMCLRT
 70
     0
  9
$DIMTFAC
 40
1.0
  9
$DIMGAP
 40
0.09
  9
$DIMJUST
 70
     0
  9
$DIMSD1
 70
     0
  9
$DIMSD2
 70
     0
  9
$DIMTOLJ
 70
     1
  9
$DIMTZIN
 70
     0
  9
$DIMALTZ
 70
     0
  9
$DIMALTTZ
 70
     0
  9
$DIMFIT
 70
     1
  9
$DIMUPT
 70
     0
  9
$DIMUNIT
 70
     2
  9
$DIMDEC
 70
     3
  9
$DIMTDEC
 70
     3
  9
$DIMALTU
 70
     2
  9
$DIMALTTD
 70
     2
  9
$DIMTXSTY
  7
TXT
  9
$DIMAUNIT
 70
     0
  9
$LUNITS
 70
     2
  9
$LUPREC
 70
     3
  9
$SKETCHINC
 40
0.1
  9
$FILLETRAD
 40
0.016
  9
$AUNITS
 70
     0
  9
$AUPREC
 70
     0
  9
$MENU
  1
acad
  9
$ELEVATION
 40
0.0
  9
$PELEVATION
 40
0.0
  9
$THICKNESS
 40
0.0
  9
$LIMCHECK
 70
     0
  9
$BLIPMODE
 70
     0
  9
$CHAMFERA
 40
0.7530000000000002
  9
$CHAMFERB
 40
0.7530000000000002
  9
$CHAMFERC
 40
0.0
  9
$CHAMFERD
 40
0.0
  9
$SKPOLY
 70
     0
  9
$TDCREATE
 40
2450137.349551968
  9
$TDUPDATE
 40
2455471.448767176
  9
$TDINDWG
 40
0.5273339120
  9
$TDUSRTIMER
 40
0.5273339120
  9
$USRTIMER
 70
     1
  9
$ANGBASE
 50
0.0
  9
$ANGDIR
 70
     0
  9
$PDMODE
 70
     0
  9
$PDSIZE
 40
0.0
  9
$PLINEWID
 40
0.0
  9
$COORDS
 70
     2
  9
$SPLFRAME
 70
     0
  9
$SPLINETYPE
 70
     6
  9
$SPLINESEGS
 70
     8
  9
$ATTDIA
 70
     0
  9
$ATTREQ
 70
     1
  9
$HANDLING
 70
  4097
  9
$HANDSEED
  5
2942
  9
$SURFTAB1
 70
     6
  9
$SURFTAB2
 70
     6
  9
$SURFTYPE
 70
     6
  9
$SURFU
 70
     6
  9
$SURFV
 70
     6
  9
$UCSNAME
  2

  9
$UCSORG
 10
0.0
 20
0.0
 30
0.0
  9
$UCSXDIR
 10
1.0
 20
0.0
 30
0.0
  9
$UCSYDIR
 10
0.0
 20
1.0
 30
0.0
  9
$PUCSNAME
  2

  9
$PUCSORG
 10
0.0
 20
0.0
 30
0.0
  9
$PUCSXDIR
 10
1.0
 20
0.0
 30
0.0
  9
$PUCSYDIR
 10
0.0
 20
1.0
 30
0.0
  9
$USERI1
 70
     0
  9
$USERI2
 70
     0
  9
$USERI3
 70
     0
  9
$USERI4
 70
     0
  9
$USERI5
 70
     0
  9
$USERR1
 40
0.0
  9
$USERR2
 40
0.0
  9
$USERR3
 40
0.0
  9
$USERR4
 40
0.0
  9
$USERR5
 40
0.0
  9
$WORLDVIEW
 70
     1
  9
$SHADEDGE
 70
     3
  9
$SHADEDIF
 70
    70
  9
$TILEMODE
 70
     1
  9
$MAXACTVP
 70
    16
  9
$PINSBASE
 10
0.0
 20
0.0
 30
0.0
  9
$PLIMCHECK
 70
     0
  9
$PEXTMIN
 10
1.000000000000000E+20
 20
1.000000000000000E+20
 30
1.000000000000000E+20
  9
$PEXTMAX
 10
-1.000000000000000E+20
 20
-1.000000000000000E+20
 30
-1.000000000000000E+20
  9
$PLIMMIN
 10
0.0
 20
0.0
  9
$PLIMMAX
 10
12.0
 20
9.0
  9
$UNITMODE
 70
     0
  9
$VISRETAIN
 70
     0
  9
$PLINEGEN
 70
     0
  9
$PSLTSCALE
 70
     1
  9
$TREEDEPTH
 70
  3020
  9
$PICKSTYLE
 70
     1
  9
$CMLSTYLE
  2
STANDARD
  9
$CMLJUST
 70
     0
  9
$CMLSCALE
 40
1.0
  9
$PROXYGRAPHICS
 70
     1
  9
$MEASUREMENT
 70
     0
  0
ENDSEC
  0
SECTION
  2
CLASSES
  0
CLASS
  1
ACDBDICTIONARYWDFLT
  2
AcDbDictionaryWithDefault
  3
AutoCAD 2000
 90
        0
280
     0
281
     0
  0
CLASS
  1
ACDBPLACEHOLDER
  2
AcDbPlaceHolder
  3
AutoCAD 2000
 90
        0
280
     0
281
     0
  0
CLASS
  1
LAYOUT
  2
AcDbLayout
  3
AutoCAD 2000
 90
        0
280
     0
281
     0
  0
CLASS
  1
LONG_TRANSACTION
  2
AcDbLongTransaction
  3
AutoCAD 2000
 90
        0
280
     0
281
     0
  0
CLASS
  1
LWPOLYLINE
  2
AcDbPolyline
  3
AutoCAD 2000
 90
        0
280
     0
281
     1
  0
CLASS
  1
HATCH
  2
AcDbHatch
  3
AutoCAD 2000
 90
        0
280
     0
281
     1
  0
CLASS
  1
XRECORD
  2
AcDbXrecord
  3
AutoCAD 2000
 90
        0
280
     0
281
     0
  0
ENDSEC
  0
SECTION
  2
TABLES
  0
TABLE
  2
VPORT
  5
8
330
0
100
AcDbSymbolTable
 70
     2
  0
VPORT
  5
291C
330
8
100
AcDbSymbolTableRecord
100
AcDbViewportTableRecord
  2
*ACTIVE
 70
     0
 10
0.0
 20
0.0
 11
1.0
 21
1.0
 12
8.855270713275228
 22
13.56291463001639
 13
0.0
 23
0.0
 14
1.0
 24
1.0
 15
0.0
 25
0.0
 16
0.0
 26
0.0
 36
1.0
 17
0.0
 27
0.0
 37
0.0
 40
27.3995036371885
 41
1.836974789915966
 42
50.0
 43
0.0
 44
0.0
 50
0.0
 51
0.0
 71
     0
 72
  5000
 73
     1
 74
     0
 75
     0
 76
     0
 77
     0
 78
     0
  0
ENDTAB
  0
TABLE
  2
LTYPE
  5
5
330
0
100
AcDbSymbolTable
 70
     7
  0
LTYPE
  5
13
330
5
100
AcDbSymbolTableRecord
100
AcDbLinetypeTableRecord
  2
BYBLOCK
 70
     0
  3

 72
    65
 73
     0
 40
0.0
  0
LTYPE
  5
14
330
5
100
AcDbSymbolTableRecord
100
AcDbLinetypeTableRecord
  2
BYLAYER
 70
     0
  3

 72
    65
 73
     0
 40
0.0
  0
LTYPE
  5
15
330
5
100
AcDbSymbolTableRecord
100
AcDbLinetypeTableRecord
  2
CONTINUOUS
 70
     0
  3
Solid line
 72
    65
 73
     0
 40
0.0
  0
LTYPE
  5
45
330
5
100
AcDbSymbolTableRecord
100
AcDbLinetypeTableRecord
  2
HIDDEN
 70
     0
  3
_ _ _ _ _ _ _ _ _ _ _ _ _ _ _ _ _ _ _ _ _ _ _
 72
    65
 73
     2
 40
0.375
 49
0.25
 74
     0
 49
-0.125
 74
     0
  0
LTYPE
  5
46
330
5
100
AcDbSymbolTableRecord
100
AcDbLinetypeTableRecord
  2
PHANTOM
 70
     0
  3
_____ _ _ _____ _ _ _____ _ _ _____ _ _ ____
 72
    65
 73
     6
 40
2.5
 49
1.25
 74
     0
 49
-0.25
 74
     0
 49
0.25
 74
     0
 49
-0.25
 74
     0
 49
0.25
 74
     0
 49
-0.25
 74
     0
  0
LTYPE
  5
47
330
5
100
AcDbSymbolTableRecord
100
AcDbLinetypeTableRecord
  2
CENTER
 70
     0
  3
____ _ ____ _ ____ _ ____ _ ____ _ ____ _ ____
 72
    65
 73
     4
 40
2.0
 49
1.25
 74
     0
 49
-0.25
 74
     0
 49
0.25
 74
     0
 49
-0.25
 74
     0
  0
LTYPE
  5
673
330
5
100
AcDbSymbolTableRecord
100
AcDbLinetypeTableRecord
  2
CENTER2
 70
     0
  3
Center (.5x) ___ _ ___ _ ___ _ ___ _ ___ _ ___
 72
    65
 73
     4
 40
1.125
 49
0.75
 74
     0
 49
-0.125
 74
     0
 49
0.125
 74
     0
 49
-0.125
 74
     0
  0
LTYPE
  5
674
330
5
100
AcDbSymbolTableRecord
100
AcDbLinetypeTableRecord
  2
HIDDEN2
 70
     0
  3
Hidden (.5x) _ _ _ _ _ _ _ _ _ _ _ _ _ _ _ _ _
 72
    65
 73
     2
 40
0.1875
 49
0.125
 74
     0
 49
-0.0625
 74
     0
  0
LTYPE
  5
2215
330
5
100
AcDbSymbolTableRecord
100
AcDbLinetypeTableRecord
  2
PHANTOM2
 70
     0
  3
___ _ _ ___ _ _ ___ _ _ ___ _ _ ___ _ _ ___ _ _
 72
    65
 73
     6
 40
1.25
 49
0.625
 74
     0
 49
-0.125
 74
     0
 49
0.125
 74
     0
 49
-0.125
 74
     0
 49
0.125
 74
     0
 49
-0.125
 74
     0
  0
ENDTAB
  0
TABLE
  2
LAYER
  5
2
330
0
100
AcDbSymbolTable
 70
     9
  0
LAYER
  5
10
330
2
100
AcDbSymbolTableRecord
100
AcDbLayerTableRecord
  2
0
 70
     0
 62
     7
  6
CONTINUOUS
  0
LAYER
  5
4E
330
2
100
AcDbSymbolTableRecord
100
AcDbLayerTableRecord
  2
OBJECT
 70
     0
 62
     7
  6
CONTINUOUS
  0
LAYER
  5
4F
330
2
100
AcDbSymbolTableRecord
100
AcDbLayerTableRecord
  2
DIM
 70
     0
 62
     7
  6
CONTINUOUS
  0
LAYER
  5
50
330
2
100
AcDbSymbolTableRecord
100
AcDbLayerTableRecord
  2
HIDDEN
 70
     0
 62
     7
  6
HIDDEN
  0
LAYER
  5
51
330
2
100
AcDbSymbolTableRecord
100
AcDbLayerTableRecord
  2
BEND
 70
     0
 62
     7
  6
PHANTOM
  0
LAYER
  5
52
330
2
100
AcDbSymbolTableRecord
100
AcDbLayerTableRecord
  2
TEXT
 70
     0
 62
     7
  6
CONTINUOUS
  0
LAYER
  5
53
330
2
100
AcDbSymbolTableRecord
100
AcDbLayerTableRecord
  2
TITLE
 70
     0
 62
     7
  6
CONTINUOUS
  0
LAYER
  5
54
330
2
100
AcDbSymbolTableRecord
100
AcDbLayerTableRecord
  2
CENTER
 70
     0
 62
     7
  6
CENTER
  0
LAYER
  5
55
330
2
100
AcDbSymbolTableRecord
100
AcDbLayerTableRecord
  2
DEFPOINTS
 70
     0
 62
     7
  6
CONTINUOUS
  0
ENDTAB
  0
TABLE
  2
STYLE
  5
3
330
0
100
AcDbSymbolTable
 70
     3
  0
STYLE
  5
11
330
3
100
AcDbSymbolTableRecord
100
AcDbTextStyleTableRecord
  2
STANDARD
 70
     0
 40
0.0
 41
1.0
 50
0.0
 71
     0
 42
0.2
  3
txt
  4

  0
STYLE
  5
43
330
3
100
AcDbSymbolTableRecord
100
AcDbTextStyleTableRecord
  2
TXT
 70
     0
 40
0.0
 41
0.75
 50
0.0
 71
     0
 42
0.218
  3
TXT.shx
  4

  0
STYLE
  5
44
330
3
100
AcDbSymbolTableRecord
100
AcDbTextStyleTableRecord
  2
CITYBLUEPRINT
 70
     0
 40
0.125
 41
1.0
 50
0.0
 71
     0
 42
0.125
  3
cibt____.pfb
  4

  0
ENDTAB
  0
TABLE
  2
VIEW
  5
6
330
0
100
AcDbSymbolTable
 70
     0
  0
ENDTAB
  0
TABLE
  2
UCS
  5
7
330
0
100
AcDbSymbolTable
 70
     0
  0
ENDTAB
  0
TABLE
  2
APPID
  5
9
330
0
100
AcDbSymbolTable
 70
     1
  0
APPID
  5
12
330
9
100
AcDbSymbolTableRecord
100
AcDbRegAppTableRecord
  2
ACAD
 70
     0
  0
ENDTAB
  0
TABLE
  2
DIMSTYLE
  5
A
330
0
100
AcDbSymbolTable
 70
     2
  0
DIMSTYLE
105
4A
102
{ACAD_REACTORS
330
8C8
330
8C9
330
8CA
330
8DB
330
8DC
330
911
330
91A
330
91B
330
95A
330
A51
330
A52
330
A53
330
A54
330
A55
330
A63
330
A67
330
A68
330
A85
330
A86
330
AD6
330
AFE
330
B20
330
B54
330
B64
330
1038
330
2460
330
2233
330
2496
102
}
330
A
100
AcDbSymbolTableRecord
100
AcDbDimStyleTableRecord
  2
23NSTD
 70
     0
  3

  4

  5

  6

  7

 40
1.75
 41
0.18
 42
0.063
 43
0.281
 44
0.093
 45
0.0
 46
0.0
 47
0.0
 48
0.0
140
0.125
141
0.09
142
0.0
143
25.4
144
1.0
145
0.0
146
1.0
147
0.09
 71
     0
 72
     0
 73
     1
 74
     1
 75
     0
 76
     0
 77
     0
 78
     0
170
     0
171
     2
172
     0
173
     0
174
     0
175
     0
176
     0
177
     0
178
     0
270
     2
271
     3
272
     3
273
     2
274
     2
340
43
275
     0
280
     0
281
     0
282
     0
283
     1
284
     0
285
     0
286
     0
287
     1
288
     0
  0
DIMSTYLE
105
4B
102
{ACAD_REACTORS
330
16E5
330
16E9
330
1718
330
171F
330
2915
102
}
330
A
100
AcDbSymbolTableRecord
100
AcDbDimStyleTableRecord
  2
23NSTDI
 70
     0
  3

  4

  5

  6

  7

 40
1.75
 41
0.18
 42
0.063
 43
0.281
 44
0.093
 45
0.0
 46
0.0
 47
0.0
 48
0.0
140
0.125
141
0.09
142
0.0
143
25.4
144
1.0
145
0.0
146
1.0
147
0.09
 71
     0
 72
     0
 73
     1
 74
     1
 75
     0
 76
     0
 77
     0
 78
     0
170
     0
171
     2
172
     0
173
     0
174
     1
175
     0
176
     0
177
     0
178
     0
270
     2
271
     3
272
     3
273
     2
274
     2
340
43
275
     0
280
     0
281
     0
282
     0
283
     1
284
     0
285
     0
286
     0
287
     3
288
     0
  0
ENDTAB
  0
TABLE
  2
BLOCK_RECORD
  5
1
330
0
100
AcDbSymbolTable
 70
    29
  0
BLOCK_RECORD
  5
1E
102
{ACAD_XDICTIONARY
360
2940
102
}
330
1
100
AcDbSymbolTableRecord
100
AcDbBlockTableRecord
  2
*MODEL_SPACE
  0
BLOCK_RECORD
  5
1A
102
{ACAD_XDICTIONARY
360
293E
102
}
330
1
100
AcDbSymbolTableRecord
100
AcDbBlockTableRecord
  2
*PAPER_SPACE
  0
BLOCK_RECORD
  5
22
330
1
100
AcDbSymbolTableRecord
100
AcDbBlockTableRecord
  2
HB
  0
BLOCK_RECORD
  5
96E
330
1
100
AcDbSymbolTableRecord
100
AcDbBlockTableRecord
  2
*D1
  0
BLOCK_RECORD
  5
97B
330
1
100
AcDbSymbolTableRecord
100
AcDbBlockTableRecord
  2
*D2
  0
BLOCK_RECORD
  5
988
330
1
100
AcDbSymbolTableRecord
100
AcDbBlockTableRecord
  2
*D3
  0
BLOCK_RECORD
  5
995
330
1
100
AcDbSymbolTableRecord
100
AcDbBlockTableRecord
  2
*D4
  0
BLOCK_RECORD
  5
9A2
330
1
100
AcDbSymbolTableRecord
100
AcDbBlockTableRecord
  2
*D5
  0
BLOCK_RECORD
  5
9AF
330
1
100
AcDbSymbolTableRecord
100
AcDbBlockTableRecord
  2
*D6
  0
BLOCK_RECORD
  5
9BC
330
1
100
AcDbSymbolTableRecord
100
AcDbBlockTableRecord
  2
*D7
  0
BLOCK_RECORD
  5
9C9
330
1
100
AcDbSymbolTableRecord
100
AcDbBlockTableRecord
  2
*D8
  0
BLOCK_RECORD
  5
9D6
330
1
100
AcDbSymbolTableRecord
100
AcDbBlockTableRecord
  2
*D9
  0
BLOCK_RECORD
  5
B80
330
1
100
AcDbSymbolTableRecord
100
AcDbBlockTableRecord
  2
*D10
  0
BLOCK_RECORD
  5
B8D
330
1
100
AcDbSymbolTableRecord
100
AcDbBlockTableRecord
  2
*D11
  0
BLOCK_RECORD
  5
B9A
330
1
100
AcDbSymbolTableRecord
100
AcDbBlockTableRecord
  2
*D12
  0
BLOCK_RECORD
  5
BA7
330
1
100
AcDbSymbolTableRecord
100
AcDbBlockTableRecord
  2
*D13
  0
BLOCK_RECORD
  5
BB4
330
1
100
AcDbSymbolTableRecord
100
AcDbBlockTableRecord
  2
*D14
  0
BLOCK_RECORD
  5
BC1
330
1
100
AcDbSymbolTableRecord
100
AcDbBlockTableRecord
  2
*D15
  0
BLOCK_RECORD
  5
BF7
330
1
100
AcDbSymbolTableRecord
100
AcDbBlockTableRecord
  2
*D16
  0
BLOCK_RECORD
  5
C04
330
1
100
AcDbSymbolTableRecord
100
AcDbBlockTableRecord
  2
*D17
  0
BLOCK_RECORD
  5
C20
330
1
100
AcDbSymbolTableRecord
100
AcDbBlockTableRecord
  2
*D18
  0
BLOCK_RECORD
  5
C2D
330
1
100
AcDbSymbolTableRecord
100
AcDbBlockTableRecord
  2
*D19
  0
BLOCK_RECORD
  5
C47
330
1
100
AcDbSymbolTableRecord
100
AcDbBlockTableRecord
  2
*D20
  0
BLOCK_RECORD
  5
C54
330
1
100
AcDbSymbolTableRecord
100
AcDbBlockTableRecord
  2
*D21
  0
BLOCK_RECORD
  5
C61
330
1
100
AcDbSymbolTableRecord
100
AcDbBlockTableRecord
  2
*D22
  0
BLOCK_RECORD
  5
C6E
330
1
100
AcDbSymbolTableRecord
100
AcDbBlockTableRecord
  2
*D23
  0
BLOCK_RECORD
  5
C7B
330
1
100
AcDbSymbolTableRecord
100
AcDbBlockTableRecord
  2
*D24
  0
BLOCK_RECORD
  5
1039
330
1
100
AcDbSymbolTableRecord
100
AcDbBlockTableRecord
  2
*D25
  0
BLOCK_RECORD
  5
2234
330
1
100
AcDbSymbolTableRecord
100
AcDbBlockTableRecord
  2
*D26
  0
BLOCK_RECORD
  5
2461
330
1
100
AcDbSymbolTableRecord
100
AcDbBlockTableRecord
  2
*D27
  0
BLOCK_RECORD
  5
2497
330
1
100
AcDbSymbolTableRecord
100
AcDbBlockTableRecord
  2
*D28
  0
ENDTAB
  0
ENDSEC
  0
SECTION
  2
BLOCKS
  0
BLOCK
  5
58
330
1E
100
AcDbEntity
  8
0
100
AcDbBlockBegin
  2
*MODEL_SPACE
 70
     0
 10
0.0
 20
0.0
 30
0.0
  3
*MODEL_SPACE
  1

  0
ENDBLK
  5
59
330
1E
100
AcDbEntity
  8
0
100
AcDbBlockEnd
  0
BLOCK
  5
56
330
1A
100
AcDbEntity
 67
     1
  8
0
100
AcDbBlockBegin
  2
*PAPER_SPACE
 70
     0
 10
0.0
 20
0.0
 30
0.0
  3
*PAPER_SPACE
  1

  0
ENDBLK
  5
57
330
1A
100
AcDbEntity
 67
     1
  8
0
100
AcDbBlockEnd
  0
BLOCK
  5
5A
330
22
100
AcDbEntity
  8
0
100
AcDbBlockBegin
  2
HB
 70
     0
 10
0.0
 20
0.0
 30
0.0
  3
HB
  1

  0
LINE
  5
2216
330
22
100
AcDbEntity
  8
TITLE
100
AcDbLine
 10
0.0
 20
15.5
 30
0.0
 11
10.11999999999999
 21
15.49999999999999
 31
0.0
  0
LINE
  5
2217
330
22
100
AcDbEntity
  8
TITLE
100
AcDbLine
 10
10.11999999999999
 20
-0.0000000000000018
 30
0.0
 11
0.0
 21
0.0
 31
0.0
  0
LINE
  5
2218
330
22
100
AcDbEntity
  8
TITLE
100
AcDbLine
 10
0.0620000000000012
 20
15.438
 30
0.0
 11
10.058
 21
15.438
 31
0.0
  0
LINE
  5
2219
330
22
100
AcDbEntity
  8
TITLE
100
AcDbLine
 10
10.058
 20
0.0619999999999994
 30
0.0
 11
0.0619999999999976
 21
0.0620000000000012
 31
0.0
  0
LINE
  5
221A
330
22
100
AcDbEntity
  8
TITLE
100
AcDbLine
 10
0.0620000000000012
 20
15.01999999999999
 30
0.0
 11
10.058
 21
15.01999999999999
 31
0.0
  0
LINE
  5
221B
330
22
100
AcDbEntity
  8
TITLE
100
AcDbLine
 10
0.0
 20
0.0
 30
0.0
 11
0.0
 21
15.5
 31
0.0
  0
LINE
  5
221C
330
22
100
AcDbEntity
  8
TITLE
100
AcDbLine
 10
0.0619999999999976
 20
0.0620000000000012
 30
0.0
 11
0.0620000000000012
 21
15.438
 31
0.0
  0
TEXT
  5
221D
330
22
100
AcDbEntity
  8
TEXT
100
AcDbText
 10
0.2078333333333381
 20
15.26841252897341
 30
0.0
 40
0.125
  1
PART
  7
TXT
 72
     1
 11
0.4370000000000048
 21
15.26841252897341
 31
0.0
100
AcDbText
  0
TEXT
  5
221E
330
22
100
AcDbEntity
  8
TEXT
100
AcDbText
 10
0.2078333333333381
 20
15.06007919564008
 30
0.0
 40
0.125
  1
NAME
  7
TXT
 72
     1
 11
0.4370000000000048
 21
15.06007919564008
 31
0.0
100
AcDbText
  0
LINE
  5
221F
330
22
100
AcDbEntity
  8
TITLE
100
AcDbLine
 10
0.8120000000000047
 20
15.01999999999999
 30
0.0
 11
0.8120000000000011
 21
15.438
 31
0.0
  0
LINE
  5
2220
330
22
100
AcDbEntity
  8
TITLE
100
AcDbLine
 10
10.11999999999999
 20
15.49999999999999
 30
0.0
 11
10.11999999999999
 21
-0.0000000000000018
 31
0.0
  0
LINE
  5
2221
330
22
100
AcDbEntity
  8
TITLE
100
AcDbLine
 10
10.058
 20
15.438
 30
0.0
 11
10.058
 21
0.0619999999999994
 31
0.0
  0
TEXT
  5
2222
330
22
100
AcDbEntity
  8
TEXT
100
AcDbText
 10
4.36183333333333
 20
15.26841252897341
 30
0.0
 40
0.125
  1
PART
  7
TXT
 72
     1
 11
4.590999999999997
 21
15.26841252897341
 31
0.0
100
AcDbText
  0
LINE
  5
2223
330
22
100
AcDbEntity
  8
TITLE
100
AcDbLine
 10
4.153999999999999
 20
15.438
 30
0.0
 11
4.153999999999999
 21
15.01999999999999
 31
0.0
  0
LINE
  5
2224
330
22
100
AcDbEntity
  8
TITLE
100
AcDbLine
 10
4.215999999999997
 20
15.438
 30
0.0
 11
4.215999999999997
 21
15.01999999999999
 31
0.0
  0
TEXT
  5
2225
330
22
100
AcDbEntity
  8
TEXT
100
AcDbText
 10
4.465999999999997
 20
15.06007919564008
 30
0.0
 40
0.125
  1
No.
  7
TXT
 72
     1
 11
4.590999999999997
 21
15.06007919564008
 31
0.0
100
AcDbText
  0
LINE
  5
2226
330
22
100
AcDbEntity
  8
TITLE
100
AcDbLine
 10
4.965999999999997
 20
15.438
 30
0.0
 11
4.965999999999997
 21
15.01999999999999
 31
0.0
  0
LINE
  5
2227
330
22
100
AcDbEntity
  8
TITLE
100
AcDbLine
 10
8.307999999999999
 20
15.438
 30
0.0
 11
8.307999999999999
 21
15.02
 31
0.0
  0
LINE
  5
2228
330
22
100
AcDbEntity
  8
TITLE
100
AcDbLine
 10
8.245999999999988
 20
15.438
 30
0.0
 11
8.245999999999988
 21
15.02
 31
0.0
  0
TEXT
  5
2229
330
22
100
AcDbEntity
  8
TEXT
100
AcDbText
 10
8.453833333333333
 20
15.06007919564008
 30
0.0
 40
0.125
  1
DATE
  7
TXT
 72
     1
 11
8.682999999999999
 21
15.06007919564008
 31
0.0
100
AcDbText
  0
TEXT
  5
222A
330
22
100
AcDbEntity
  8
TEXT
100
AcDbText
 10
8.474666666666665
 20
15.26841252897341
 30
0.0
 40
0.125
  1
REV.
  7
TXT
 72
     1
 11
8.682999999999999
 21
15.26841252897341
 31
0.0
100
AcDbText
  0
LINE
  5
222B
330
22
100
AcDbEntity
  8
TITLE
100
AcDbLine
 10
9.057999999999999
 20
15.438
 30
0.0
 11
9.057999999999999
 21
15.02
 31
0.0
  0
ENDBLK
  5
6D
330
22
100
AcDbEntity
  8
0
100
AcDbBlockEnd
  0
BLOCK
  5
979
330
96E
100
AcDbEntity
  8
0
100
AcDbBlockBegin
  2
*D1
 70
     1
 10
0.0
 20
0.0
 30
0.0
  3
*D1
  1

  0
LINE
  5
28BB
330
96E
100
AcDbEntity
  8
DIM
 62
     0
100
AcDbLine
 10
4.294013523154092
 20
16.41653863982611
 30
0.0
 11
4.294013523154092
 21
16.97719467852006
 31
0.0
  0
LINE
  5
28BC
330
96E
100
AcDbEntity
  8
DIM
 62
     0
100
AcDbLine
 10
11.31387407655408
 20
16.41653863982611
 30
0.0
 11
11.31387407655408
 21
16.97719467852006
 31
0.0
  0
LINE
  5
28BD
330
96E
100
AcDbEntity
  8
DIM
 62
     0
100
AcDbLine
 10
4.609013523154092
 20
16.81444467852006
 30
0.0
 11
7.345662549854091
 21
16.81444467852006
 31
0.0
  0
LINE
  5
28BE
330
96E
100
AcDbEntity
  8
DIM
 62
     0
100
AcDbLine
 10
10.99887407655409
 20
16.81444467852006
 30
0.0
 11
8.262225049854091
 21
16.81444467852006
 31
0.0
  0
SOLID
  5
28BF
330
96E
100
AcDbEntity
  8
DIM
 62
     0
100
AcDbTrace
 10
4.609013523154092
 20
16.86694467852006
 30
0.0
 11
4.609013523154092
 21
16.76194467852007
 31
0.0
 12
4.294013523154092
 22
16.81444467852006
 32
0.0
 13
4.294013523154092
 23
16.81444467852006
 33
0.0
  0
SOLID
  5
28C0
330
96E
100
AcDbEntity
  8
DIM
 62
     0
100
AcDbTrace
 10
10.99887407655409
 20
16.86694467852006
 30
0.0
 11
10.99887407655409
 21
16.76194467852007
 31
0.0
 12
11.31387407655408
 22
16.81444467852006
 32
0.0
 13
11.31387407655408
 23
16.81444467852006
 33
0.0
  0
MTEXT
  5
28C1
330
96E
100
AcDbEntity
  8
DIM
 62
     0
100
AcDbMText
 10
7.80394379985409
 20
16.81444467852006
 30
0.0
 40
0.21875
 41
0.0
 71
     5
 72
     1
  1
\A1;7.020
  7
TXT
1001
ACAD
1000
MTEXTBEGIN
1070
    73
1070
     1
1070
    44
1040
1.0
1070
    74
1070
     0
1000
MTEXTEND
  0
POINT
  5
28C2
330
96E
100
AcDbEntity
  8
DEFPOINTS
 62
     0
100
AcDbPoint
 10
4.294013523154092
 20
16.30628863982611
 30
0.0
  0
POINT
  5
28C3
330
96E
100
AcDbEntity
  8
DEFPOINTS
 62
     0
100
AcDbPoint
 10
11.31387407655408
 20
16.30628863982611
 30
0.0
  0
POINT
  5
28C4
330
96E
100
AcDbEntity
  8
DEFPOINTS
 62
     0
100
AcDbPoint
 10
11.31387407655408
 20
16.81444467852006
 30
0.0
  0
ENDBLK
  5
97A
330
96E
100
AcDbEntity
  8
0
100
AcDbBlockEnd
  0
BLOCK
  5
986
330
97B
100
AcDbEntity
  8
0
100
AcDbBlockBegin
  2
*D2
 70
     1
 10
0.0
 20
0.0
 30
0.0
  3
*D2
  1

  0
LINE
  5
28C5
330
97B
100
AcDbEntity
  8
DIM
 62
     0
100
AcDbLine
 10
3.680806012654108
 20
20.38476084542612
 30
0.0
 11
3.680806012654108
 21
21.85325586940221
 31
0.0
  0
LINE
  5
28C6
330
97B
100
AcDbEntity
  8
DIM
 62
     0
100
AcDbLine
 10
11.9270815870541
 20
20.38476084542612
 30
0.0
 11
11.9270815870541
 21
21.85325586940221
 31
0.0
  0
LINE
  5
28C7
330
97B
100
AcDbEntity
  8
DIM
 62
     0
100
AcDbLine
 10
3.995806012654108
 20
21.6905058694022
 30
0.0
 11
7.318318799854108
 21
21.6905058694022
 31
0.0
  0
LINE
  5
28C8
330
97B
100
AcDbEntity
  8
DIM
 62
     0
100
AcDbLine
 10
11.6120815870541
 20
21.6905058694022
 30
0.0
 11
8.289568799854109
 21
21.6905058694022
 31
0.0
  0
SOLID
  5
28C9
330
97B
100
AcDbEntity
  8
DIM
 62
     0
100
AcDbTrace
 10
3.995806012654108
 20
21.7430058694022
 30
0.0
 11
3.995806012654108
 21
21.63800586940221
 31
0.0
 12
3.680806012654108
 22
21.6905058694022
 32
0.0
 13
3.680806012654108
 23
21.6905058694022
 33
0.0
  0
SOLID
  5
28CA
330
97B
100
AcDbEntity
  8
DIM
 62
     0
100
AcDbTrace
 10
11.6120815870541
 20
21.7430058694022
 30
0.0
 11
11.6120815870541
 21
21.63800586940221
 31
0.0
 12
11.9270815870541
 22
21.6905058694022
 32
0.0
 13
11.9270815870541
 23
21.6905058694022
 33
0.0
  0
MTEXT
  5
28CB
330
97B
100
AcDbEntity
  8
DIM
 62
     0
100
AcDbMText
 10
7.803943799854108
 20
21.6905058694022
 30
0.0
 40
0.21875
 41
0.0
 71
     5
 72
     1
  1
\A1;8.246
  7
TXT
1001
ACAD
1000
MTEXTBEGIN
1070
    73
1070
     1
1070
    44
1040
1.0
1070
    74
1070
     0
1000
MTEXTEND
  0
POINT
  5
28CC
330
97B
100
AcDbEntity
  8
DEFPOINTS
 62
     0
100
AcDbPoint
 10
3.680806012654108
 20
20.27451084542612
 30
0.0
  0
POINT
  5
28CD
330
97B
100
AcDbEntity
  8
DEFPOINTS
 62
     0
100
AcDbPoint
 10
11.9270815870541
 20
20.27451084542612
 30
0.0
  0
POINT
  5
28CE
330
97B
100
AcDbEntity
  8
DEFPOINTS
 62
     0
100
AcDbPoint
 10
11.9270815870541
 20
21.6905058694022
 30
0.0
  0
ENDBLK
  5
987
330
97B
100
AcDbEntity
  8
0
100
AcDbBlockEnd
  0
BLOCK
  5
993
330
988
100
AcDbEntity
  8
0
100
AcDbBlockBegin
  2
*D3
 70
     1
 10
0.0
 20
0.0
 30
0.0
  3
*D3
  1

  0
LINE
  5
28CF
330
988
100
AcDbEntity
  8
DIM
 62
     0
100
AcDbLine
 10
7.803943799854099
 20
20.38476084542612
 30
0.0
 11
7.803943799854099
 21
21.3338286871684
 31
0.0
  0
LINE
  5
28D0
330
988
100
AcDbEntity
  8
DIM
 62
     0
100
AcDbLine
 10
11.51248379655408
 20
20.38476084542612
 30
0.0
 11
11.51248379655408
 21
21.3338286871684
 31
0.0
  0
LINE
  5
28D1
330
988
100
AcDbEntity
  8
DIM
 62
     0
100
AcDbLine
 10
8.118943799854099
 20
21.1710786871684
 30
0.0
 11
9.186260673204094
 21
21.1710786871684
 31
0.0
  0
LINE
  5
28D2
330
988
100
AcDbEntity
  8
DIM
 62
     0
100
AcDbLine
 10
11.19748379655409
 20
21.1710786871684
 30
0.0
 11
10.13016692320409
 21
21.1710786871684
 31
0.0
  0
SOLID
  5
28D3
330
988
100
AcDbEntity
  8
DIM
 62
     0
100
AcDbTrace
 10
8.118943799854099
 20
21.2235786871684
 30
0.0
 11
8.118943799854099
 21
21.1185786871684
 31
0.0
 12
7.803943799854099
 22
21.1710786871684
 32
0.0
 13
7.803943799854099
 23
21.1710786871684
 33
0.0
  0
SOLID
  5
28D4
330
988
100
AcDbEntity
  8
DIM
 62
     0
100
AcDbTrace
 10
11.19748379655409
 20
21.2235786871684
 30
0.0
 11
11.19748379655409
 21
21.1185786871684
 31
0.0
 12
11.51248379655408
 22
21.1710786871684
 32
0.0
 13
11.51248379655408
 23
21.1710786871684
 33
0.0
  0
MTEXT
  5
28D5
330
988
100
AcDbEntity
  8
DIM
 62
     0
100
AcDbMText
 10
9.658213798204094
 20
21.1710786871684
 30
0.0
 40
0.21875
 41
0.0
 71
     5
 72
     1
  1
\A1;3.709
  7
TXT
1001
ACAD
1000
MTEXTBEGIN
1070
    73
1070
     1
1070
    44
1040
1.0
1070
    74
1070
     0
1000
MTEXTEND
  0
POINT
  5
28D6
330
988
100
AcDbEntity
  8
DEFPOINTS
 62
     0
100
AcDbPoint
 10
7.803943799854099
 20
20.27451084542612
 30
0.0
  0
POINT
  5
28D7
330
988
100
AcDbEntity
  8
DEFPOINTS
 62
     0
100
AcDbPoint
 10
11.51248379655408
 20
20.27451084542612
 30
0.0
  0
POINT
  5
28D8
330
988
100
AcDbEntity
  8
DEFPOINTS
 62
     0
100
AcDbPoint
 10
11.51248379655408
 20
21.1710786871684
 30
0.0
  0
ENDBLK
  5
994
330
988
100
AcDbEntity
  8
0
100
AcDbBlockEnd
  0
BLOCK
  5
9A0
330
995
100
AcDbEntity
  8
0
100
AcDbBlockBegin
  2
*D4
 70
     1
 10
0.0
 20
0.0
 30
0.0
  3
*D4
  1

  0
LINE
  5
28D9
330
995
100
AcDbEntity
  8
DIM
 62
     0
100
AcDbLine
 10
4.18376352315412
 20
20.07590112542612
 30
0.0
 11
2.874685267431587
 21
20.07590112542612
 31
0.0
  0
LINE
  5
28DA
330
995
100
AcDbEntity
  8
DIM
 62
     0
100
AcDbLine
 10
4.183763523154092
 20
16.30628863982611
 30
0.0
 11
2.874685267431586
 21
16.30628863982611
 31
0.0
  0
LINE
  5
28DB
330
995
100
AcDbEntity
  8
DIM
 62
     0
100
AcDbLine
 10
3.037435267431586
 20
19.76090112542611
 30
0.0
 11
3.037435267431586
 21
18.62351903337047
 31
0.0
  0
LINE
  5
28DC
330
995
100
AcDbEntity
  8
DIM
 62
     0
100
AcDbLine
 10
3.037435267431586
 20
16.62128863982611
 30
0.0
 11
3.037435267431586
 21
18.08976903337047
 31
0.0
  0
SOLID
  5
28DD
330
995
100
AcDbEntity
  8
DIM
 62
     0
100
AcDbTrace
 10
2.984935267431586
 20
19.76090112542611
 30
0.0
 11
3.089935267431587
 21
19.76090112542611
 31
0.0
 12
3.037435267431586
 22
20.07590112542612
 32
0.0
 13
3.037435267431586
 23
20.07590112542612
 33
0.0
  0
SOLID
  5
28DE
330
995
100
AcDbEntity
  8
DIM
 62
     0
100
AcDbTrace
 10
2.984935267431585
 20
16.62128863982611
 30
0.0
 11
3.089935267431586
 21
16.62128863982611
 31
0.0
 12
3.037435267431586
 22
16.30628863982611
 32
0.0
 13
3.037435267431586
 23
16.30628863982611
 33
0.0
  0
MTEXT
  5
28DF
330
995
100
AcDbEntity
  8
DIM
 62
     0
100
AcDbMText
 10
3.037435267431583
 20
18.35664403337047
 30
0.0
 40
0.21875
 41
0.0
 71
     5
 72
     1
  1
\A1;3.770
  7
TXT
1001
ACAD
1000
MTEXTBEGIN
1070
    73
1070
     1
1070
    44
1040
1.0
1070
    74
1070
     0
1000
MTEXTEND
  0
POINT
  5
28E0
330
995
100
AcDbEntity
  8
DEFPOINTS
 62
     0
100
AcDbPoint
 10
4.29401352315412
 20
20.07590112542612
 30
0.0
  0
POINT
  5
28E1
330
995
100
AcDbEntity
  8
DEFPOINTS
 62
     0
100
AcDbPoint
 10
4.294013523154092
 20
16.30628863982611
 30
0.0
  0
POINT
  5
28E2
330
995
100
AcDbEntity
  8
DEFPOINTS
 62
     0
100
AcDbPoint
 10
3.037435267431586
 20
16.30628863982611
 30
0.0
  0
ENDBLK
  5
9A1
330
995
100
AcDbEntity
  8
0
100
AcDbBlockEnd
  0
BLOCK
  5
9AD
330
9A2
100
AcDbEntity
  8
0
100
AcDbBlockBegin
  2
*D5
 70
     1
 10
0.0
 20
0.0
 30
0.0
  3
*D5
  1

  0
LINE
  5
28E3
330
9A2
100
AcDbEntity
  8
DIM
 62
     0
100
AcDbLine
 10
3.985153803154102
 20
20.2745108454261
 30
0.0
 11
2.230262077958334
 21
20.2745108454261
 31
0.0
  0
LINE
  5
28E4
330
9A2
100
AcDbEntity
  8
DIM
 62
     0
100
AcDbLine
 10
3.985153803154116
 20
16.10767891982613
 30
0.0
 11
2.230262077958333
 21
16.10767891982613
 31
0.0
  0
LINE
  5
28E5
330
9A2
100
AcDbEntity
  8
DIM
 62
     0
100
AcDbLine
 10
2.393012077958334
 20
19.9595108454261
 30
0.0
 11
2.393012077958334
 21
18.20393981787609
 31
0.0
  0
LINE
  5
28E6
330
9A2
100
AcDbEntity
  8
DIM
 62
     0
100
AcDbLine
 10
2.393012077958333
 20
16.42267891982613
 30
0.0
 11
2.393012077958334
 21
17.6701898178761
 31
0.0
  0
SOLID
  5
28E7
330
9A2
100
AcDbEntity
  8
DIM
 62
     0
100
AcDbTrace
 10
2.340512077958334
 20
19.9595108454261
 30
0.0
 11
2.445512077958334
 21
19.9595108454261
 31
0.0
 12
2.393012077958334
 22
20.2745108454261
 32
0.0
 13
2.393012077958334
 23
20.2745108454261
 33
0.0
  0
SOLID
  5
28E8
330
9A2
100
AcDbEntity
  8
DIM
 62
     0
100
AcDbTrace
 10
2.340512077958333
 20
16.42267891982613
 30
0.0
 11
2.445512077958333
 21
16.42267891982613
 31
0.0
 12
2.393012077958333
 22
16.10767891982613
 32
0.0
 13
2.393012077958333
 23
16.10767891982613
 33
0.0
  0
MTEXT
  5
28E9
330
9A2
100
AcDbEntity
  8
DIM
 62
     0
100
AcDbMText
 10
2.393012077958331
 20
17.9370648178761
 30
0.0
 40
0.21875
 41
0.0
 71
     5
 72
     1
  1
\A1;4.167
  7
TXT
1001
ACAD
1000
MTEXTBEGIN
1070
    73
1070
     1
1070
    44
1040
1.0
1070
    74
1070
     0
1000
MTEXTEND
  0
POINT
  5
28EA
330
9A2
100
AcDbEntity
  8
DEFPOINTS
 62
     0
100
AcDbPoint
 10
4.095403803154102
 20
20.2745108454261
 30
0.0
  0
POINT
  5
28EB
330
9A2
100
AcDbEntity
  8
DEFPOINTS
 62
     0
100
AcDbPoint
 10
4.095403803154116
 20
16.10767891982613
 30
0.0
  0
POINT
  5
28EC
330
9A2
100
AcDbEntity
  8
DEFPOINTS
 62
     0
100
AcDbPoint
 10
2.393012077958333
 20
16.10767891982613
 30
0.0
  0
ENDBLK
  5
9AE
330
9A2
100
AcDbEntity
  8
0
100
AcDbBlockEnd
  0
BLOCK
  5
9BA
330
9AF
100
AcDbEntity
  8
0
100
AcDbBlockBegin
  2
*D6
 70
     1
 10
0.0
 20
0.0
 30
0.0
  3
*D6
  1

  0
LINE
  5
28ED
330
9AF
100
AcDbEntity
  8
DIM
 62
     0
100
AcDbLine
 10
4.095403803154102
 20
20.3847608454261
 30
0.0
 11
4.095403803154102
 21
21.3338286871684
 31
0.0
  0
LINE
  5
28EE
330
9AF
100
AcDbEntity
  8
DIM
 62
     0
100
AcDbLine
 10
7.803943799854099
 20
20.38476084542612
 30
0.0
 11
7.803943799854099
 21
21.3338286871684
 31
0.0
  0
LINE
  5
28EF
330
9AF
100
AcDbEntity
  8
DIM
 62
     0
100
AcDbLine
 10
4.410403803154102
 20
21.1710786871684
 30
0.0
 11
5.477720676504101
 21
21.1710786871684
 31
0.0
  0
LINE
  5
28F0
330
9AF
100
AcDbEntity
  8
DIM
 62
     0
100
AcDbLine
 10
7.488943799854099
 20
21.1710786871684
 30
0.0
 11
6.4216269265041
 21
21.1710786871684
 31
0.0
  0
SOLID
  5
28F1
330
9AF
100
AcDbEntity
  8
DIM
 62
     0
100
AcDbTrace
 10
4.410403803154102
 20
21.2235786871684
 30
0.0
 11
4.410403803154102
 21
21.1185786871684
 31
0.0
 12
4.095403803154102
 22
21.1710786871684
 32
0.0
 13
4.095403803154102
 23
21.1710786871684
 33
0.0
  0
SOLID
  5
28F2
330
9AF
100
AcDbEntity
  8
DIM
 62
     0
100
AcDbTrace
 10
7.488943799854099
 20
21.2235786871684
 30
0.0
 11
7.488943799854099
 21
21.1185786871684
 31
0.0
 12
7.803943799854099
 22
21.1710786871684
 32
0.0
 13
7.803943799854099
 23
21.1710786871684
 33
0.0
  0
MTEXT
  5
28F3
330
9AF
100
AcDbEntity
  8
DIM
 62
     0
100
AcDbMText
 10
5.949673801504101
 20
21.1710786871684
 30
0.0
 40
0.21875
 41
0.0
 71
     5
 72
     1
  1
\A1;3.709
  7
TXT
1001
ACAD
1000
MTEXTBEGIN
1070
    73
1070
     1
1070
    44
1040
1.0
1070
    74
1070
     0
1000
MTEXTEND
  0
POINT
  5
28F4
330
9AF
100
AcDbEntity
  8
DEFPOINTS
 62
     0
100
AcDbPoint
 10
4.095403803154102
 20
20.2745108454261
 30
0.0
  0
POINT
  5
28F5
330
9AF
100
AcDbEntity
  8
DEFPOINTS
 62
     0
100
AcDbPoint
 10
7.803943799854099
 20
20.27451084542612
 30
0.0
  0
POINT
  5
28F6
330
9AF
100
AcDbEntity
  8
DEFPOINTS
 62
     0
100
AcDbPoint
 10
7.803943799854099
 20
21.1710786871684
 30
0.0
  0
ENDBLK
  5
9BB
330
9AF
100
AcDbEntity
  8
0
100
AcDbBlockEnd
  0
BLOCK
  5
9C7
330
9BC
100
AcDbEntity
  8
0
100
AcDbBlockBegin
  2
*D7
 70
     1
 10
0.0
 20
0.0
 30
0.0
  3
*D7
  1

  0
LINE
  5
28F7
330
9BC
100
AcDbEntity
  8
DIM
 62
     0
100
AcDbLine
 10
14.02336155395996
 20
20.79935863592612
 30
0.0
 11
14.02336155395996
 21
21.3338286871684
 31
0.0
  0
LINE
  5
28F8
330
9BC
100
AcDbEntity
  8
DIM
 62
     0
100
AcDbLine
 10
13.89823743035995
 20
20.73153910673411
 30
0.0
 11
13.89823743035995
 21
21.3338286871684
 31
0.0
  0
LINE
  5
28F9
330
9BC
100
AcDbEntity
  8
DIM
 62
     0
100
AcDbLine
 10
14.33836155395996
 20
21.1710786871684
 30
0.0
 11
14.65336155395996
 21
21.1710786871684
 31
0.0
  0
LINE
  5
28FA
330
9BC
100
AcDbEntity
  8
DIM
 62
     0
100
AcDbLine
 10
13.58323743035995
 20
21.1710786871684
 30
0.0
 11
13.26823743035995
 21
21.1710786871684
 31
0.0
  0
SOLID
  5
28FB
330
9BC
100
AcDbEntity
  8
DIM
 62
     0
100
AcDbTrace
 10
14.33836155395996
 20
21.2235786871684
 30
0.0
 11
14.33836155395996
 21
21.1185786871684
 31
0.0
 12
14.02336155395996
 22
21.1710786871684
 32
0.0
 13
14.02336155395996
 23
21.1710786871684
 33
0.0
  0
SOLID
  5
28FC
330
9BC
100
AcDbEntity
  8
DIM
 62
     0
100
AcDbTrace
 10
13.58323743035995
 20
21.2235786871684
 30
0.0
 11
13.58323743035995
 21
21.1185786871684
 31
0.0
 12
13.89823743035995
 22
21.1710786871684
 32
0.0
 13
13.89823743035995
 23
21.1710786871684
 33
0.0
  0
MTEXT
  5
28FD
330
9BC
100
AcDbEntity
  8
DIM
 62
     0
100
AcDbMText
 10
12.82362805535995
 20
21.1710786871684
 30
0.0
 40
0.21875
 41
0.0
 71
     5
 72
     1
  1
\A1;0.125
  7
TXT
1001
ACAD
1000
MTEXTBEGIN
1070
    73
1070
     1
1070
    44
1040
1.0
1070
    74
1070
     0
1000
MTEXTEND
  0
POINT
  5
28FE
330
9BC
100
AcDbEntity
  8
DEFPOINTS
 62
     0
100
AcDbPoint
 10
14.02336155395996
 20
20.68910863592612
 30
0.0
  0
POINT
  5
28FF
330
9BC
100
AcDbEntity
  8
DEFPOINTS
 62
     0
100
AcDbPoint
 10
13.89823743035995
 20
20.62128910673411
 30
0.0
  0
POINT
  5
2900
330
9BC
100
AcDbEntity
  8
DEFPOINTS
 62
     0
100
AcDbPoint
 10
13.89823743035995
 20
21.1710786871684
 30
0.0
  0
ENDBLK
  5
9C8
330
9BC
100
AcDbEntity
  8
0
100
AcDbBlockEnd
  0
BLOCK
  5
9D4
330
9C9
100
AcDbEntity
  8
0
100
AcDbBlockBegin
  2
*D8
 70
     1
 10
0.0
 20
0.0
 30
0.0
  3
*D8
  1

  0
LINE
  5
290B
330
9C9
100
AcDbEntity
  8
DIM
 62
     0
100
AcDbLine
 10
11.62273379655409
 20
20.68910863592612
 30
0.0
 11
12.81179465299241
 21
20.68910863592612
 31
0.0
  0
LINE
  5
290C
330
9C9
100
AcDbEntity
  8
DIM
 62
     0
100
AcDbLine
 10
11.62273379655409
 20
15.69308112932612
 30
0.0
 11
12.81179465299241
 21
15.69308112932611
 31
0.0
  0
LINE
  5
290D
330
9C9
100
AcDbEntity
  8
DIM
 62
     0
100
AcDbLine
 10
12.64904465299241
 20
20.37410863592612
 30
0.0
 11
12.64904465299241
 21
18.45796988262612
 31
0.0
  0
LINE
  5
290E
330
9C9
100
AcDbEntity
  8
DIM
 62
     0
100
AcDbLine
 10
12.64904465299241
 20
16.00808112932611
 30
0.0
 11
12.64904465299241
 21
17.92421988262612
 31
0.0
  0
SOLID
  5
290F
330
9C9
100
AcDbEntity
  8
DIM
 62
     0
100
AcDbTrace
 10
12.59654465299241
 20
20.37410863592612
 30
0.0
 11
12.70154465299241
 21
20.37410863592612
 31
0.0
 12
12.64904465299241
 22
20.68910863592612
 32
0.0
 13
12.64904465299241
 23
20.68910863592612
 33
0.0
  0
SOLID
  5
2910
330
9C9
100
AcDbEntity
  8
DIM
 62
     0
100
AcDbTrace
 10
12.59654465299241
 20
16.00808112932611
 30
0.0
 11
12.70154465299241
 21
16.00808112932611
 31
0.0
 12
12.64904465299241
 22
15.69308112932611
 32
0.0
 13
12.64904465299241
 23
15.69308112932611
 33
0.0
  0
MTEXT
  5
2911
330
9C9
100
AcDbEntity
  8
DIM
 62
     0
100
AcDbMText
 10
12.64904465299241
 20
18.19109488262612
 30
0.0
 40
0.21875
 41
0.0
 71
     5
 72
     1
  1
\A1;4.996
  7
TXT
1001
ACAD
1000
MTEXTBEGIN
1070
    73
1070
     1
1070
    44
1040
1.0
1070
    74
1070
     0
1000
MTEXTEND
  0
POINT
  5
2912
330
9C9
100
AcDbEntity
  8
DEFPOINTS
 62
     0
100
AcDbPoint
 10
11.51248379655408
 20
20.68910863592612
 30
0.0
  0
POINT
  5
2913
330
9C9
100
AcDbEntity
  8
DEFPOINTS
 62
     0
100
AcDbPoint
 10
11.51248379655408
 20
15.69308112932612
 30
0.0
  0
POINT
  5
2914
330
9C9
100
AcDbEntity
  8
DEFPOINTS
 62
     0
100
AcDbPoint
 10
12.64904465299241
 20
15.69308112932611
 30
0.0
  0
ENDBLK
  5
9D5
330
9C9
100
AcDbEntity
  8
0
100
AcDbBlockEnd
  0
BLOCK
  5
9E1
330
9D6
100
AcDbEntity
  8
0
100
AcDbBlockBegin
  2
*D9
 70
     1
 10
0.0
 20
0.0
 30
0.0
  3
*D9
  1

  0
LINE
  5
2901
330
9D6
100
AcDbEntity
  8
DIM
 62
     0
100
AcDbLine
 10
14.02336155395996
 20
20.79935863592612
 30
0.0
 11
14.02336155395996
 21
21.85325586940221
 31
0.0
  0
LINE
  5
2902
330
9D6
100
AcDbEntity
  8
DIM
 62
     0
100
AcDbLine
 10
14.14848567755996
 20
20.67324146372612
 30
0.0
 11
14.14848567755996
 21
21.85325586940221
 31
0.0
  0
LINE
  5
2903
330
9D6
100
AcDbEntity
  8
DIM
 62
     0
100
AcDbLine
 10
13.70836155395996
 20
21.6905058694022
 30
0.0
 11
13.39336155395996
 21
21.6905058694022
 31
0.0
  0
LINE
  5
2904
330
9D6
100
AcDbEntity
  8
DIM
 62
     0
100
AcDbLine
 10
14.46348567755996
 20
21.6905058694022
 30
0.0
 11
14.77848567755996
 21
21.6905058694022
 31
0.0
  0
SOLID
  5
2905
330
9D6
100
AcDbEntity
  8
DIM
 62
     0
100
AcDbTrace
 10
13.70836155395996
 20
21.7430058694022
 30
0.0
 11
13.70836155395996
 21
21.63800586940221
 31
0.0
 12
14.02336155395996
 22
21.6905058694022
 32
0.0
 13
14.02336155395996
 23
21.6905058694022
 33
0.0
  0
SOLID
  5
2906
330
9D6
100
AcDbEntity
  8
DIM
 62
     0
100
AcDbTrace
 10
14.46348567755996
 20
21.7430058694022
 30
0.0
 11
14.46348567755996
 21
21.63800586940221
 31
0.0
 12
14.14848567755996
 22
21.6905058694022
 32
0.0
 13
14.14848567755996
 23
21.6905058694022
 33
0.0
  0
MTEXT
  5
2907
330
9D6
100
AcDbEntity
  8
DIM
 62
     0
100
AcDbMText
 10
15.22309505255996
 20
21.6905058694022
 30
0.0
 40
0.21875
 41
0.0
 71
     5
 72
     1
  1
\A1;0.125
  7
TXT
1001
ACAD
1000
MTEXTBEGIN
1070
    73
1070
     1
1070
    44
1040
1.0
1070
    74
1070
     0
1000
MTEXTEND
  0
POINT
  5
2908
330
9D6
100
AcDbEntity
  8
DEFPOINTS
 62
     0
100
AcDbPoint
 10
14.02336155395996
 20
20.68910863592612
 30
0.0
  0
POINT
  5
2909
330
9D6
100
AcDbEntity
  8
DEFPOINTS
 62
     0
100
AcDbPoint
 10
14.14848567755996
 20
20.56299146372612
 30
0.0
  0
POINT
  5
290A
330
9D6
100
AcDbEntity
  8
DEFPOINTS
 62
     0
100
AcDbPoint
 10
14.14848567755996
 20
21.6905058694022
 30
0.0
  0
ENDBLK
  5
9E2
330
9D6
100
AcDbEntity
  8
0
100
AcDbBlockEnd
  0
BLOCK
  5
B8B
330
B80
100
AcDbEntity
  8
0
100
AcDbBlockBegin
  2
*D10
 70
     1
 10
0.0
 20
0.0
 30
0.0
  3
*D10
  1

  0
LINE
  5
2843
330
B80
100
AcDbEntity
  8
DIM
 62
     0
100
AcDbLine
 10
3.114332694355027
 20
12.90566109352739
 30
0.0
 11
3.114332694355027
 21
14.9137772908781
 31
0.0
  0
LINE
  5
2844
330
B80
100
AcDbEntity
  8
DIM
 62
     0
100
AcDbLine
 10
12.48970452695499
 20
12.90566109352739
 30
0.0
 11
12.48970452695499
 21
14.9137772908781
 31
0.0
  0
LINE
  5
2845
330
B80
100
AcDbEntity
  8
DIM
 62
     0
100
AcDbLine
 10
3.429332694355027
 20
14.75102729087811
 30
0.0
 11
7.316393610655014
 21
14.75102729087811
 31
0.0
  0
LINE
  5
2846
330
B80
100
AcDbEntity
  8
DIM
 62
     0
100
AcDbLine
 10
12.174704526955
 20
14.75102729087811
 30
0.0
 11
8.287643610655013
 21
14.75102729087811
 31
0.0
  0
SOLID
  5
2847
330
B80
100
AcDbEntity
  8
DIM
 62
     0
100
AcDbTrace
 10
3.429332694355027
 20
14.80352729087811
 30
0.0
 11
3.429332694355027
 21
14.6985272908781
 31
0.0
 12
3.114332694355027
 22
14.75102729087811
 32
0.0
 13
3.114332694355027
 23
14.75102729087811
 33
0.0
  0
SOLID
  5
2848
330
B80
100
AcDbEntity
  8
DIM
 62
     0
100
AcDbTrace
 10
12.174704526955
 20
14.80352729087811
 30
0.0
 11
12.174704526955
 21
14.6985272908781
 31
0.0
 12
12.48970452695499
 22
14.75102729087811
 32
0.0
 13
12.48970452695499
 23
14.75102729087811
 33
0.0
  0
MTEXT
  5
2849
330
B80
100
AcDbEntity
  8
DIM
 62
     0
100
AcDbMText
 10
7.802018610655014
 20
14.75102729087811
 30
0.0
 40
0.21875
 41
0.0
 71
     5
 72
     1
  1
\A1;9.375
  7
TXT
1001
ACAD
1000
MTEXTBEGIN
1070
    73
1070
     1
1070
    44
1040
1.0
1070
    74
1070
     0
1000
MTEXTEND
  0
POINT
  5
284A
330
B80
100
AcDbEntity
  8
DEFPOINTS
 62
     0
100
AcDbPoint
 10
3.114332694355027
 20
12.79541109352739
 30
0.0
  0
POINT
  5
284B
330
B80
100
AcDbEntity
  8
DEFPOINTS
 62
     0
100
AcDbPoint
 10
12.48970452695499
 20
12.79541109352739
 30
0.0
  0
POINT
  5
284C
330
B80
100
AcDbEntity
  8
DEFPOINTS
 62
     0
100
AcDbPoint
 10
12.48970452695499
 20
14.75102729087811
 30
0.0
  0
ENDBLK
  5
B8C
330
B80
100
AcDbEntity
  8
0
100
AcDbBlockEnd
  0
BLOCK
  5
B98
330
B8D
100
AcDbEntity
  8
0
100
AcDbBlockBegin
  2
*D11
 70
     1
 10
0.0
 20
0.0
 30
0.0
  3
*D11
  1

  0
LINE
  5
284D
330
B8D
100
AcDbEntity
  8
DIM
 62
     0
100
AcDbLine
 10
7.802018610655012
 20
13.26694680038687
 30
0.0
 11
7.802018610655012
 21
14.38624122599804
 31
0.0
  0
LINE
  5
284E
330
B8D
100
AcDbEntity
  8
DIM
 62
     0
100
AcDbLine
 10
11.510558607355
 20
13.26694680038687
 30
0.0
 11
11.510558607355
 21
14.38624122599804
 31
0.0
  0
LINE
  5
284F
330
B8D
100
AcDbEntity
  8
DIM
 62
     0
100
AcDbLine
 10
8.117018610655012
 20
14.22349122599804
 30
0.0
 11
9.184335484005009
 21
14.22349122599804
 31
0.0
  0
LINE
  5
2850
330
B8D
100
AcDbEntity
  8
DIM
 62
     0
100
AcDbLine
 10
11.195558607355
 20
14.22349122599804
 30
0.0
 11
10.12824173400501
 21
14.22349122599804
 31
0.0
  0
SOLID
  5
2851
330
B8D
100
AcDbEntity
  8
DIM
 62
     0
100
AcDbTrace
 10
8.117018610655012
 20
14.27599122599804
 30
0.0
 11
8.117018610655012
 21
14.17099122599804
 31
0.0
 12
7.802018610655012
 22
14.22349122599804
 32
0.0
 13
7.802018610655012
 23
14.22349122599804
 33
0.0
  0
SOLID
  5
2852
330
B8D
100
AcDbEntity
  8
DIM
 62
     0
100
AcDbTrace
 10
11.195558607355
 20
14.27599122599804
 30
0.0
 11
11.195558607355
 21
14.17099122599804
 31
0.0
 12
11.510558607355
 22
14.22349122599804
 32
0.0
 13
11.510558607355
 23
14.22349122599804
 33
0.0
  0
MTEXT
  5
2853
330
B8D
100
AcDbEntity
  8
DIM
 62
     0
100
AcDbMText
 10
9.656288609005009
 20
14.22349122599804
 30
0.0
 40
0.21875
 41
0.0
 71
     5
 72
     1
  1
\A1;3.709
  7
TXT
1001
ACAD
1000
MTEXTBEGIN
1070
    73
1070
     1
1070
    44
1040
1.0
1070
    74
1070
     0
1000
MTEXTEND
  0
POINT
  5
2854
330
B8D
100
AcDbEntity
  8
DEFPOINTS
 62
     0
100
AcDbPoint
 10
7.802018610655012
 20
13.15669680038687
 30
0.0
  0
POINT
  5
2855
330
B8D
100
AcDbEntity
  8
DEFPOINTS
 62
     0
100
AcDbPoint
 10
11.510558607355
 20
13.15669680038687
 30
0.0
  0
POINT
  5
2856
330
B8D
100
AcDbEntity
  8
DEFPOINTS
 62
     0
100
AcDbPoint
 10
11.510558607355
 20
14.22349122599804
 30
0.0
  0
ENDBLK
  5
B99
330
B8D
100
AcDbEntity
  8
0
100
AcDbBlockEnd
  0
BLOCK
  5
BA5
330
B9A
100
AcDbEntity
  8
0
100
AcDbBlockBegin
  2
*D12
 70
     1
 10
0.0
 20
0.0
 30
0.0
  3
*D12
  1

  0
LINE
  5
2857
330
B9A
100
AcDbEntity
  8
DIM
 62
     0
100
AcDbLine
 10
3.364580941555003
 20
9.275841266186887
 30
0.0
 11
3.364580941555003
 21
6.939216024755255
 31
0.0
  0
LINE
  5
2858
330
B9A
100
AcDbEntity
  8
DIM
 62
     0
100
AcDbLine
 10
12.239456279755
 20
9.275841266186887
 30
0.0
 11
12.239456279755
 21
6.939216024755255
 31
0.0
  0
LINE
  5
2859
330
B9A
100
AcDbEntity
  8
DIM
 62
     0
100
AcDbLine
 10
3.679580941555003
 20
7.101966024755255
 30
0.0
 11
7.316393610655007
 21
7.101966024755255
 31
0.0
  0
LINE
  5
285A
330
B9A
100
AcDbEntity
  8
DIM
 62
     0
100
AcDbLine
 10
11.924456279755
 20
7.101966024755255
 30
0.0
 11
8.287643610655006
 21
7.101966024755255
 31
0.0
  0
SOLID
  5
285B
330
B9A
100
AcDbEntity
  8
DIM
 62
     0
100
AcDbTrace
 10
3.679580941555003
 20
7.154466024755255
 30
0.0
 11
3.679580941555003
 21
7.049466024755255
 31
0.0
 12
3.364580941555003
 22
7.101966024755255
 32
0.0
 13
3.364580941555003
 23
7.101966024755255
 33
0.0
  0
SOLID
  5
285C
330
B9A
100
AcDbEntity
  8
DIM
 62
     0
100
AcDbTrace
 10
11.924456279755
 20
7.154466024755255
 30
0.0
 11
11.924456279755
 21
7.049466024755255
 31
0.0
 12
12.239456279755
 22
7.101966024755255
 32
0.0
 13
12.239456279755
 23
7.101966024755255
 33
0.0
  0
MTEXT
  5
285D
330
B9A
100
AcDbEntity
  8
DIM
 62
     0
100
AcDbMText
 10
7.802018610655006
 20
7.101966024755255
 30
0.0
 40
0.21875
 41
0.0
 71
     5
 72
     1
  1
\A1;8.875
  7
TXT
1001
ACAD
1000
MTEXTBEGIN
1070
    73
1070
     1
1070
    44
1040
1.0
1070
    74
1070
     0
1000
MTEXTEND
  0
POINT
  5
285E
330
B9A
100
AcDbEntity
  8
DEFPOINTS
 62
     0
100
AcDbPoint
 10
3.364580941555003
 20
9.386091266186888
 30
0.0
  0
POINT
  5
285F
330
B9A
100
AcDbEntity
  8
DEFPOINTS
 62
     0
100
AcDbPoint
 10
12.239456279755
 20
9.386091266186888
 30
0.0
  0
POINT
  5
2860
330
B9A
100
AcDbEntity
  8
DEFPOINTS
 62
     0
100
AcDbPoint
 10
12.239456279755
 20
7.101966024755255
 30
0.0
  0
ENDBLK
  5
BA6
330
B9A
100
AcDbEntity
  8
0
100
AcDbBlockEnd
  0
BLOCK
  5
BB2
330
BA7
100
AcDbEntity
  8
0
100
AcDbBlockBegin
  2
*D13
 70
     1
 10
0.0
 20
0.0
 30
0.0
  3
*D13
  1

  0
LINE
  5
2861
330
BA7
100
AcDbEntity
  8
DIM
 62
     0
100
AcDbLine
 10
8.176894457155007
 20
9.213279204386886
 30
0.0
 11
8.176894457155007
 21
7.430698386632994
 31
0.0
  0
LINE
  5
2862
330
BA7
100
AcDbEntity
  8
DIM
 62
     0
100
AcDbLine
 10
11.17689427775501
 20
9.213279204386886
 30
0.0
 11
11.17689427775501
 21
7.430698386632994
 31
0.0
  0
LINE
  5
2863
330
BA7
100
AcDbEntity
  8
DIM
 62
     0
100
AcDbLine
 10
8.491894457155007
 20
7.593448386632994
 30
0.0
 11
9.232284992455012
 21
7.593448386632994
 31
0.0
  0
LINE
  5
2864
330
BA7
100
AcDbEntity
  8
DIM
 62
     0
100
AcDbLine
 10
10.86189427775501
 20
7.593448386632994
 30
0.0
 11
10.12150374245501
 21
7.593448386632994
 31
0.0
  0
SOLID
  5
2865
330
BA7
100
AcDbEntity
  8
DIM
 62
     0
100
AcDbTrace
 10
8.491894457155007
 20
7.645948386632994
 30
0.0
 11
8.491894457155007
 21
7.540948386632994
 31
0.0
 12
8.176894457155007
 22
7.593448386632994
 32
0.0
 13
8.176894457155007
 23
7.593448386632994
 33
0.0
  0
SOLID
  5
2866
330
BA7
100
AcDbEntity
  8
DIM
 62
     0
100
AcDbTrace
 10
10.86189427775501
 20
7.645948386632994
 30
0.0
 11
10.86189427775501
 21
7.540948386632994
 31
0.0
 12
11.17689427775501
 22
7.593448386632994
 32
0.0
 13
11.17689427775501
 23
7.593448386632994
 33
0.0
  0
MTEXT
  5
2867
330
BA7
100
AcDbEntity
  8
DIM
 62
     0
100
AcDbMText
 10
9.676894367455012
 20
7.593448386632994
 30
0.0
 40
0.21875
 41
0.0
 71
     5
 72
     1
  1
\A1;3.000
  7
TXT
1001
ACAD
1000
MTEXTBEGIN
1070
    73
1070
     1
1070
    44
1040
1.0
1070
    74
1070
     0
1000
MTEXTEND
  0
POINT
  5
2868
330
BA7
100
AcDbEntity
  8
DEFPOINTS
 62
     0
100
AcDbPoint
 10
8.176894457155007
 20
9.323529204386886
 30
0.0
  0
POINT
  5
2869
330
BA7
100
AcDbEntity
  8
DEFPOINTS
 62
     0
100
AcDbPoint
 10
11.17689427775501
 20
9.323529204386886
 30
0.0
  0
POINT
  5
286A
330
BA7
100
AcDbEntity
  8
DEFPOINTS
 62
     0
100
AcDbPoint
 10
11.17689427775501
 20
7.593448386632994
 30
0.0
  0
ENDBLK
  5
BB3
330
BA7
100
AcDbEntity
  8
0
100
AcDbBlockEnd
  0
BLOCK
  5
BBF
330
BB4
100
AcDbEntity
  8
0
100
AcDbBlockBegin
  2
*D14
 70
     1
 10
0.0
 20
0.0
 30
0.0
  3
*D14
  1

  0
LINE
  5
2875
330
BB4
100
AcDbEntity
  8
DIM
 62
     0
100
AcDbLine
 10
3.676894726255013
 20
5.442631176903759
 30
0.0
 11
3.676894726255013
 21
6.824491279664589
 31
0.0
  0
LINE
  5
2876
330
BB4
100
AcDbEntity
  8
DIM
 62
     0
100
AcDbLine
 10
11.927142495055
 20
5.442631176903759
 30
0.0
 11
11.927142495055
 21
6.824491279664589
 31
0.0
  0
LINE
  5
2877
330
BB4
100
AcDbEntity
  8
DIM
 62
     0
100
AcDbLine
 10
3.991894726255013
 20
6.661741279664589
 30
0.0
 11
7.330065485655007
 21
6.661741279664589
 31
0.0
  0
LINE
  5
2878
330
BB4
100
AcDbEntity
  8
DIM
 62
     0
100
AcDbLine
 10
11.612142495055
 20
6.661741279664589
 30
0.0
 11
8.273971735655006
 21
6.661741279664589
 31
0.0
  0
SOLID
  5
2879
330
BB4
100
AcDbEntity
  8
DIM
 62
     0
100
AcDbTrace
 10
3.991894726255013
 20
6.714241279664589
 30
0.0
 11
3.991894726255013
 21
6.609241279664589
 31
0.0
 12
3.676894726255013
 22
6.661741279664589
 32
0.0
 13
3.676894726255013
 23
6.661741279664589
 33
0.0
  0
SOLID
  5
287A
330
BB4
100
AcDbEntity
  8
DIM
 62
     0
100
AcDbTrace
 10
11.612142495055
 20
6.714241279664589
 30
0.0
 11
11.612142495055
 21
6.609241279664589
 31
0.0
 12
11.927142495055
 22
6.661741279664589
 32
0.0
 13
11.927142495055
 23
6.661741279664589
 33
0.0
  0
MTEXT
  5
287B
330
BB4
100
AcDbEntity
  8
DIM
 62
     0
100
AcDbMText
 10
7.802018610655006
 20
6.661741279664589
 30
0.0
 40
0.21875
 41
0.0
 71
     5
 72
     1
  1
\A1;8.250
  7
TXT
1001
ACAD
1000
MTEXTBEGIN
1070
    73
1070
     1
1070
    44
1040
1.0
1070
    74
1070
     0
1000
MTEXTEND
  0
POINT
  5
287C
330
BB4
100
AcDbEntity
  8
DEFPOINTS
 62
     0
100
AcDbPoint
 10
3.676894726255013
 20
5.332381176903759
 30
0.0
  0
POINT
  5
287D
330
BB4
100
AcDbEntity
  8
DEFPOINTS
 62
     0
100
AcDbPoint
 10
11.927142495055
 20
5.332381176903759
 30
0.0
  0
POINT
  5
287E
330
BB4
100
AcDbEntity
  8
DEFPOINTS
 62
     0
100
AcDbPoint
 10
11.927142495055
 20
6.661741279664589
 30
0.0
  0
ENDBLK
  5
BC0
330
BB4
100
AcDbEntity
  8
0
100
AcDbBlockEnd
  0
BLOCK
  5
BCC
330
BC1
100
AcDbEntity
  8
0
100
AcDbBlockBegin
  2
*D15
 70
     1
 10
0.0
 20
0.0
 30
0.0
  3
*D15
  1

  0
LINE
  5
287F
330
BC1
100
AcDbEntity
  8
DIM
 62
     0
100
AcDbLine
 10
4.093478613955014
 20
13.26694680038687
 30
0.0
 11
4.093478613955014
 21
14.38624122599805
 31
0.0
  0
LINE
  5
2880
330
BC1
100
AcDbEntity
  8
DIM
 62
     0
100
AcDbLine
 10
7.802018610655012
 20
13.26694680038687
 30
0.0
 11
7.802018610655012
 21
14.38624122599805
 31
0.0
  0
LINE
  5
2881
330
BC1
100
AcDbEntity
  8
DIM
 62
     0
100
AcDbLine
 10
4.408478613955014
 20
14.22349122599805
 30
0.0
 11
5.475795487305012
 21
14.22349122599805
 31
0.0
  0
LINE
  5
2882
330
BC1
100
AcDbEntity
  8
DIM
 62
     0
100
AcDbLine
 10
7.487018610655011
 20
14.22349122599805
 30
0.0
 11
6.419701737305012
 21
14.22349122599805
 31
0.0
  0
SOLID
  5
2883
330
BC1
100
AcDbEntity
  8
DIM
 62
     0
100
AcDbTrace
 10
4.408478613955014
 20
14.27599122599805
 30
0.0
 11
4.408478613955014
 21
14.17099122599805
 31
0.0
 12
4.093478613955014
 22
14.22349122599805
 32
0.0
 13
4.093478613955014
 23
14.22349122599805
 33
0.0
  0
SOLID
  5
2884
330
BC1
100
AcDbEntity
  8
DIM
 62
     0
100
AcDbTrace
 10
7.487018610655011
 20
14.27599122599805
 30
0.0
 11
7.487018610655011
 21
14.17099122599805
 31
0.0
 12
7.802018610655012
 22
14.22349122599805
 32
0.0
 13
7.802018610655012
 23
14.22349122599805
 33
0.0
  0
MTEXT
  5
2885
330
BC1
100
AcDbEntity
  8
DIM
 62
     0
100
AcDbMText
 10
5.947748612305012
 20
14.22349122599805
 30
0.0
 40
0.21875
 41
0.0
 71
     5
 72
     1
  1
\A1;3.709
  7
TXT
1001
ACAD
1000
MTEXTBEGIN
1070
    73
1070
     1
1070
    44
1040
1.0
1070
    74
1070
     0
1000
MTEXTEND
  0
POINT
  5
2886
330
BC1
100
AcDbEntity
  8
DEFPOINTS
 62
     0
100
AcDbPoint
 10
4.093478613955014
 20
13.15669680038687
 30
0.0
  0
POINT
  5
2887
330
BC1
100
AcDbEntity
  8
DEFPOINTS
 62
     0
100
AcDbPoint
 10
7.802018610655012
 20
13.15669680038687
 30
0.0
  0
POINT
  5
2888
330
BC1
100
AcDbEntity
  8
DEFPOINTS
 62
     0
100
AcDbPoint
 10
7.802018610655012
 20
14.22349122599805
 30
0.0
  0
ENDBLK
  5
BCD
330
BC1
100
AcDbEntity
  8
0
100
AcDbBlockEnd
  0
BLOCK
  5
C02
330
BF7
100
AcDbEntity
  8
0
100
AcDbBlockBegin
  2
*D16
 70
     1
 10
0.0
 20
0.0
 30
0.0
  3
*D16
  1

  0
LINE
  5
289D
330
BF7
100
AcDbEntity
  8
DIM
 62
     0
100
AcDbLine
 10
7.427142764155014
 20
9.213279204386886
 30
0.0
 11
7.427142764155014
 21
7.430698386632991
 31
0.0
  0
LINE
  5
289E
330
BF7
100
AcDbEntity
  8
DIM
 62
     0
100
AcDbLine
 10
4.427142943555026
 20
9.213279204386886
 30
0.0
 11
4.427142943555026
 21
7.430698386632991
 31
0.0
  0
LINE
  5
289F
330
BF7
100
AcDbEntity
  8
DIM
 62
     0
100
AcDbLine
 10
7.112142764155014
 20
7.593448386632991
 30
0.0
 11
6.37175222885502
 21
7.593448386632991
 31
0.0
  0
LINE
  5
28A0
330
BF7
100
AcDbEntity
  8
DIM
 62
     0
100
AcDbLine
 10
4.742142943555026
 20
7.593448386632991
 30
0.0
 11
5.48253347885502
 21
7.593448386632991
 31
0.0
  0
SOLID
  5
28A1
330
BF7
100
AcDbEntity
  8
DIM
 62
     0
100
AcDbTrace
 10
7.112142764155014
 20
7.645948386632992
 30
0.0
 11
7.112142764155014
 21
7.540948386632991
 31
0.0
 12
7.427142764155014
 22
7.593448386632991
 32
0.0
 13
7.427142764155014
 23
7.593448386632991
 33
0.0
  0
SOLID
  5
28A2
330
BF7
100
AcDbEntity
  8
DIM
 62
     0
100
AcDbTrace
 10
4.742142943555026
 20
7.645948386632992
 30
0.0
 11
4.742142943555026
 21
7.540948386632991
 31
0.0
 12
4.427142943555026
 22
7.593448386632991
 32
0.0
 13
4.427142943555026
 23
7.593448386632991
 33
0.0
  0
MTEXT
  5
28A3
330
BF7
100
AcDbEntity
  8
DIM
 62
     0
100
AcDbMText
 10
5.92714285385502
 20
7.593448386632991
 30
0.0
 40
0.21875
 41
0.0
 71
     5
 72
     1
  1
\A1;3.000
  7
TXT
1001
ACAD
1000
MTEXTBEGIN
1070
    73
1070
     1
1070
    44
1040
1.0
1070
    74
1070
     0
1000
MTEXTEND
  0
POINT
  5
28A4
330
BF7
100
AcDbEntity
  8
DEFPOINTS
 62
     0
100
AcDbPoint
 10
7.427142764155014
 20
9.323529204386886
 30
0.0
  0
POINT
  5
28A5
330
BF7
100
AcDbEntity
  8
DEFPOINTS
 62
     0
100
AcDbPoint
 10
4.427142943555026
 20
9.323529204386886
 30
0.0
  0
POINT
  5
28A6
330
BF7
100
AcDbEntity
  8
DEFPOINTS
 62
     0
100
AcDbPoint
 10
4.427142943555026
 20
7.593448386632991
 30
0.0
  0
ENDBLK
  5
C03
330
BF7
100
AcDbEntity
  8
0
100
AcDbBlockEnd
  0
BLOCK
  5
C10
330
C04
100
AcDbEntity
  8
0
100
AcDbBlockBegin
  2
*D17
 70
     1
 10
0.0
 20
0.0
 30
0.0
  3
*D17
  1

  0
LINE
  5
281F
330
C04
100
AcDbEntity
  8
DIM
 62
     0
100
AcDbLine
 10
4.988758498194662
 20
2.442609750903756
 30
0.0
 11
5.176279256997301
 21
2.442609750903756
 31
0.0
  0
LINE
  5
2820
330
C04
100
AcDbEntity
  8
DIM
 62
     0
100
AcDbLine
 10
4.63123603625501
 20
2.692857998103752
 30
0.0
 11
5.176279256997301
 21
2.692857998103751
 31
0.0
  0
LINE
  5
2821
330
C04
100
AcDbEntity
  8
DIM
 62
     0
100
AcDbLine
 10
5.013529256997301
 20
2.127609750903756
 30
0.0
 11
5.0135292569973
 21
1.812609750903756
 31
0.0
  0
LINE
  5
2822
330
C04
100
AcDbEntity
  8
DIM
 62
     0
100
AcDbLine
 10
5.013529256997301
 20
3.007857998103751
 30
0.0
 11
5.013529256997301
 21
3.322857998103752
 31
0.0
  0
LINE
  5
2823
330
C04
100
AcDbEntity
  8
DIM
 62
     0
100
AcDbLine
 10
5.013529256997301
 20
3.322857998103752
 30
0.0
 11
5.328529256997302
 21
3.322857998103752
 31
0.0
  0
SOLID
  5
2824
330
C04
100
AcDbEntity
  8
DIM
 62
     0
100
AcDbTrace
 10
4.961029256997301
 20
2.127609750903757
 30
0.0
 11
5.066029256997301
 21
2.127609750903756
 31
0.0
 12
5.013529256997301
 22
2.442609750903756
 32
0.0
 13
5.013529256997301
 23
2.442609750903756
 33
0.0
  0
SOLID
  5
2825
330
C04
100
AcDbEntity
  8
DIM
 62
     0
100
AcDbTrace
 10
4.961029256997301
 20
3.007857998103752
 30
0.0
 11
5.066029256997301
 21
3.007857998103751
 31
0.0
 12
5.013529256997301
 22
2.692857998103751
 32
0.0
 13
5.013529256997301
 23
2.692857998103751
 33
0.0
  0
MTEXT
  5
2826
330
C04
100
AcDbEntity
  8
DIM
 62
     0
100
AcDbMText
 10
6.224310506997301
 20
3.322857998103752
 30
0.0
 40
0.21875
 41
0.0
 71
     5
 72
     1
  1
\A1;0.250 (TYP)
  7
TXT
1001
ACAD
1000
MTEXTBEGIN
1070
    73
1070
     1
1070
    44
1040
1.0
1070
    74
1070
     0
1000
MTEXTEND
  0
POINT
  5
2827
330
C04
100
AcDbEntity
  8
DEFPOINTS
 62
     0
100
AcDbPoint
 10
4.878508498194662
 20
2.442609750903756
 30
0.0
  0
POINT
  5
2828
330
C04
100
AcDbEntity
  8
DEFPOINTS
 62
     0
100
AcDbPoint
 10
4.52098603625501
 20
2.692857998103752
 30
0.0
  0
POINT
  5
2829
330
C04
100
AcDbEntity
  8
DEFPOINTS
 62
     0
100
AcDbPoint
 10
5.013529256997301
 20
2.692857998103751
 30
0.0
  0
ENDBLK
  5
C11
330
C04
100
AcDbEntity
  8
0
100
AcDbBlockEnd
  0
BLOCK
  5
C2B
330
C20
100
AcDbEntity
  8
0
100
AcDbBlockBegin
  2
*D18
 70
     1
 10
0.0
 20
0.0
 30
0.0
  3
*D18
  1

  0
LINE
  5
2889
330
C20
100
AcDbEntity
  8
DIM
 62
     0
100
AcDbLine
 10
3.983228613955014
 20
13.15669680038687
 30
0.0
 11
1.663554965147614
 21
13.15669680038687
 31
0.0
  0
LINE
  5
288A
330
C20
100
AcDbEntity
  8
DIM
 62
     0
100
AcDbLine
 10
3.983228613955013
 20
8.989864874786904
 30
0.0
 11
1.663554965147613
 21
8.989864874786904
 31
0.0
  0
LINE
  5
288B
330
C20
100
AcDbEntity
  8
DIM
 62
     0
100
AcDbLine
 10
1.826304965147614
 20
12.84169680038687
 30
0.0
 11
1.826304965147614
 21
11.11672358297999
 31
0.0
  0
LINE
  5
288C
330
C20
100
AcDbEntity
  8
DIM
 62
     0
100
AcDbLine
 10
1.826304965147613
 20
9.304864874786904
 30
0.0
 11
1.826304965147614
 21
10.58297358297998
 31
0.0
  0
SOLID
  5
288D
330
C20
100
AcDbEntity
  8
DIM
 62
     0
100
AcDbTrace
 10
1.773804965147614
 20
12.84169680038687
 30
0.0
 11
1.878804965147614
 21
12.84169680038687
 31
0.0
 12
1.826304965147614
 22
13.15669680038687
 32
0.0
 13
1.826304965147614
 23
13.15669680038687
 33
0.0
  0
SOLID
  5
288E
330
C20
100
AcDbEntity
  8
DIM
 62
     0
100
AcDbTrace
 10
1.773804965147613
 20
9.304864874786904
 30
0.0
 11
1.878804965147613
 21
9.304864874786904
 31
0.0
 12
1.826304965147613
 22
8.989864874786904
 32
0.0
 13
1.826304965147613
 23
8.989864874786904
 33
0.0
  0
MTEXT
  5
288F
330
C20
100
AcDbEntity
  8
DIM
 62
     0
100
AcDbMText
 10
1.826304965147612
 20
10.84984858297999
 30
0.0
 40
0.21875
 41
0.0
 71
     5
 72
     1
  1
\A1;4.167
  7
TXT
1001
ACAD
1000
MTEXTBEGIN
1070
    73
1070
     1
1070
    44
1040
1.0
1070
    74
1070
     0
1000
MTEXTEND
  0
POINT
  5
2890
330
C20
100
AcDbEntity
  8
DEFPOINTS
 62
     0
100
AcDbPoint
 10
4.093478613955014
 20
13.15669680038687
 30
0.0
  0
POINT
  5
2891
330
C20
100
AcDbEntity
  8
DEFPOINTS
 62
     0
100
AcDbPoint
 10
4.093478613955014
 20
8.989864874786903
 30
0.0
  0
POINT
  5
2892
330
C20
100
AcDbEntity
  8
DEFPOINTS
 62
     0
100
AcDbPoint
 10
1.826304965147613
 20
8.989864874786904
 30
0.0
  0
ENDBLK
  5
C2C
330
C20
100
AcDbEntity
  8
0
100
AcDbBlockEnd
  0
BLOCK
  5
C38
330
C2D
100
AcDbEntity
  8
0
100
AcDbBlockBegin
  2
*D19
 70
     1
 10
0.0
 20
0.0
 30
0.0
  3
*D19
  1

  0
LINE
  5
2893
330
C2D
100
AcDbEntity
  8
DIM
 62
     0
100
AcDbLine
 10
3.254330941555003
 20
12.76047040898688
 30
0.0
 11
2.380161354261094
 21
12.76047040898688
 31
0.0
  0
LINE
  5
2894
330
C2D
100
AcDbEntity
  8
DIM
 62
     0
100
AcDbLine
 10
3.254330941555003
 20
9.386091266186888
 30
0.0
 11
2.380161354261094
 21
9.386091266186888
 31
0.0
  0
LINE
  5
2895
330
C2D
100
AcDbEntity
  8
DIM
 62
     0
100
AcDbLine
 10
2.542911354261094
 20
12.44547040898688
 30
0.0
 11
2.542911354261094
 21
11.55096871392785
 31
0.0
  0
LINE
  5
2896
330
C2D
100
AcDbEntity
  8
DIM
 62
     0
100
AcDbLine
 10
2.542911354261094
 20
9.701091266186887
 30
0.0
 11
2.542911354261094
 21
11.01721871392785
 31
0.0
  0
SOLID
  5
2897
330
C2D
100
AcDbEntity
  8
DIM
 62
     0
100
AcDbTrace
 10
2.490411354261094
 20
12.44547040898688
 30
0.0
 11
2.595411354261095
 21
12.44547040898688
 31
0.0
 12
2.542911354261094
 22
12.76047040898688
 32
0.0
 13
2.542911354261094
 23
12.76047040898688
 33
0.0
  0
SOLID
  5
2898
330
C2D
100
AcDbEntity
  8
DIM
 62
     0
100
AcDbTrace
 10
2.490411354261094
 20
9.701091266186887
 30
0.0
 11
2.595411354261094
 21
9.701091266186887
 31
0.0
 12
2.542911354261094
 22
9.386091266186888
 32
0.0
 13
2.542911354261094
 23
9.386091266186888
 33
0.0
  0
MTEXT
  5
2899
330
C2D
100
AcDbEntity
  8
DIM
 62
     0
100
AcDbMText
 10
2.542911354261093
 20
11.28409371392785
 30
0.0
 40
0.21875
 41
0.0
 71
     5
 72
     1
  1
\A1;3.374
  7
TXT
1001
ACAD
1000
MTEXTBEGIN
1070
    73
1070
     1
1070
    44
1040
1.0
1070
    74
1070
     0
1000
MTEXTEND
  0
POINT
  5
289A
330
C2D
100
AcDbEntity
  8
DEFPOINTS
 62
     0
100
AcDbPoint
 10
3.364580941555003
 20
12.76047040898688
 30
0.0
  0
POINT
  5
289B
330
C2D
100
AcDbEntity
  8
DEFPOINTS
 62
     0
100
AcDbPoint
 10
3.364580941555003
 20
9.386091266186888
 30
0.0
  0
POINT
  5
289C
330
C2D
100
AcDbEntity
  8
DEFPOINTS
 62
     0
100
AcDbPoint
 10
2.542911354261094
 20
9.386091266186888
 30
0.0
  0
ENDBLK
  5
C39
330
C2D
100
AcDbEntity
  8
0
100
AcDbBlockEnd
  0
BLOCK
  5
C52
330
C47
100
AcDbEntity
  8
0
100
AcDbBlockBegin
  2
*D20
 70
     1
 10
0.0
 20
0.0
 30
0.0
  3
*D20
  1

  0
LINE
  5
286B
330
C47
100
AcDbEntity
  8
DIM
 62
     0
100
AcDbLine
 10
7.427142764155014
 20
9.213279204386886
 30
0.0
 11
7.427142764155014
 21
7.929092343859225
 31
0.0
  0
LINE
  5
286C
330
C47
100
AcDbEntity
  8
DIM
 62
     0
100
AcDbLine
 10
8.176894457155007
 20
9.213279204386886
 30
0.0
 11
8.176894457155007
 21
7.929092343859225
 31
0.0
  0
LINE
  5
286D
330
C47
100
AcDbEntity
  8
DIM
 62
     0
100
AcDbLine
 10
7.112142764155014
 20
8.091842343859225
 30
0.0
 11
6.797142764155014
 21
8.091842343859225
 31
0.0
  0
LINE
  5
286E
330
C47
100
AcDbEntity
  8
DIM
 62
     0
100
AcDbLine
 10
8.491894457155007
 20
8.091842343859225
 30
0.0
 11
8.907154873821671
 21
8.091842343859225
 31
0.0
  0
SOLID
  5
286F
330
C47
100
AcDbEntity
  8
DIM
 62
     0
100
AcDbTrace
 10
7.112142764155014
 20
8.144342343859225
 30
0.0
 11
7.112142764155014
 21
8.039342343859225
 31
0.0
 12
7.427142764155014
 22
8.091842343859225
 32
0.0
 13
7.427142764155014
 23
8.091842343859225
 33
0.0
  0
SOLID
  5
2870
330
C47
100
AcDbEntity
  8
DIM
 62
     0
100
AcDbTrace
 10
8.491894457155007
 20
8.144342343859225
 30
0.0
 11
8.491894457155007
 21
8.039342343859225
 31
0.0
 12
8.176894457155007
 22
8.091842343859225
 32
0.0
 13
8.176894457155007
 23
8.091842343859225
 33
0.0
  0
MTEXT
  5
2871
330
C47
100
AcDbEntity
  8
DIM
 62
     0
100
AcDbMText
 10
9.365436123821671
 20
8.091842343859225
 30
0.0
 40
0.21875
 41
0.0
 71
     5
 72
     1
  1
\A1;0.750
  7
TXT
1001
ACAD
1000
MTEXTBEGIN
1070
    73
1070
     1
1070
    44
1040
1.0
1070
    74
1070
     0
1000
MTEXTEND
  0
POINT
  5
2872
330
C47
100
AcDbEntity
  8
DEFPOINTS
 62
     0
100
AcDbPoint
 10
7.427142764155014
 20
9.323529204386886
 30
0.0
  0
POINT
  5
2873
330
C47
100
AcDbEntity
  8
DEFPOINTS
 62
     0
100
AcDbPoint
 10
8.176894457155007
 20
9.323529204386886
 30
0.0
  0
POINT
  5
2874
330
C47
100
AcDbEntity
  8
DEFPOINTS
 62
     0
100
AcDbPoint
 10
8.176894457155007
 20
8.091842343859225
 30
0.0
  0
ENDBLK
  5
C53
330
C47
100
AcDbEntity
  8
0
100
AcDbBlockEnd
  0
BLOCK
  5
C5F
330
C54
100
AcDbEntity
  8
0
100
AcDbBlockBegin
  2
*D21
 70
     1
 10
0.0
 20
0.0
 30
0.0
  3
*D21
  1

  0
LINE
  5
27DF
330
C54
100
AcDbEntity
  8
DIM
 62
     0
100
AcDbLine
 10
13.65758680522977
 20
13.68353068808687
 30
0.0
 11
13.65758680522977
 21
14.36410481769551
 31
0.0
  0
LINE
  5
27E0
330
C54
100
AcDbEntity
  8
DIM
 62
     0
100
AcDbLine
 10
16.65758662582978
 20
13.63468088260969
 30
0.0
 11
16.65758662582978
 21
14.36410481769551
 31
0.0
  0
LINE
  5
27E1
330
C54
100
AcDbEntity
  8
DIM
 62
     0
100
AcDbLine
 10
13.97258680522977
 20
14.20135481769551
 30
0.0
 11
14.71297734052978
 21
14.20135481769551
 31
0.0
  0
LINE
  5
27E2
330
C54
100
AcDbEntity
  8
DIM
 62
     0
100
AcDbLine
 10
16.34258662582978
 20
14.20135481769551
 30
0.0
 11
15.60219609052978
 21
14.20135481769551
 31
0.0
  0
SOLID
  5
27E3
330
C54
100
AcDbEntity
  8
DIM
 62
     0
100
AcDbTrace
 10
13.97258680522977
 20
14.25385481769551
 30
0.0
 11
13.97258680522977
 21
14.14885481769551
 31
0.0
 12
13.65758680522977
 22
14.20135481769551
 32
0.0
 13
13.65758680522977
 23
14.20135481769551
 33
0.0
  0
SOLID
  5
27E4
330
C54
100
AcDbEntity
  8
DIM
 62
     0
100
AcDbTrace
 10
16.34258662582978
 20
14.25385481769551
 30
0.0
 11
16.34258662582978
 21
14.14885481769551
 31
0.0
 12
16.65758662582978
 22
14.20135481769551
 32
0.0
 13
16.65758662582978
 23
14.20135481769551
 33
0.0
  0
MTEXT
  5
27E5
330
C54
100
AcDbEntity
  8
DIM
 62
     0
100
AcDbMText
 10
15.15758671552978
 20
14.20135481769551
 30
0.0
 40
0.21875
 41
0.0
 71
     5
 72
     1
  1
\A1;3.000
  7
TXT
1001
ACAD
1000
MTEXTBEGIN
1070
    73
1070
     1
1070
    44
1040
1.0
1070
    74
1070
     0
1000
MTEXTEND
  0
POINT
  5
27E6
330
C54
100
AcDbEntity
  8
DEFPOINTS
 62
     0
100
AcDbPoint
 10
13.65758680522977
 20
13.57328068808687
 30
0.0
  0
POINT
  5
27E7
330
C54
100
AcDbEntity
  8
DEFPOINTS
 62
     0
100
AcDbPoint
 10
16.65758662582978
 20
13.52443088260969
 30
0.0
  0
POINT
  5
27E8
330
C54
100
AcDbEntity
  8
DEFPOINTS
 62
     0
100
AcDbPoint
 10
16.65758662582978
 20
14.20135481769551
 30
0.0
  0
ENDBLK
  5
C60
330
C54
100
AcDbEntity
  8
0
100
AcDbBlockEnd
  0
BLOCK
  5
C6C
330
C61
100
AcDbEntity
  8
0
100
AcDbBlockBegin
  2
*D22
 70
     1
 10
0.0
 20
0.0
 30
0.0
  3
*D22
  1

  0
LINE
  5
28B1
330
C61
100
AcDbEntity
  8
DIM
 62
     0
100
AcDbLine
 10
11.06664427775501
 20
12.82303247078689
 30
0.0
 11
10.34883175829808
 21
12.82303247078689
 31
0.0
  0
LINE
  5
28B2
330
C61
100
AcDbEntity
  8
DIM
 62
     0
100
AcDbLine
 10
11.06664427775501
 20
9.323529204386886
 30
0.0
 11
10.34883175829808
 21
9.323529204386886
 31
0.0
  0
LINE
  5
28B3
330
C61
100
AcDbEntity
  8
DIM
 62
     0
100
AcDbLine
 10
10.51158175829808
 20
12.5080324707869
 30
0.0
 11
10.51158175829808
 21
11.34015583758689
 31
0.0
  0
LINE
  5
28B4
330
C61
100
AcDbEntity
  8
DIM
 62
     0
100
AcDbLine
 10
10.51158175829808
 20
9.638529204386886
 30
0.0
 11
10.51158175829808
 21
10.80640583758689
 31
0.0
  0
SOLID
  5
28B5
330
C61
100
AcDbEntity
  8
DIM
 62
     0
100
AcDbTrace
 10
10.45908175829808
 20
12.5080324707869
 30
0.0
 11
10.56408175829808
 21
12.5080324707869
 31
0.0
 12
10.51158175829808
 22
12.82303247078689
 32
0.0
 13
10.51158175829808
 23
12.82303247078689
 33
0.0
  0
SOLID
  5
28B6
330
C61
100
AcDbEntity
  8
DIM
 62
     0
100
AcDbTrace
 10
10.45908175829808
 20
9.638529204386886
 30
0.0
 11
10.56408175829808
 21
9.638529204386886
 31
0.0
 12
10.51158175829808
 22
9.323529204386886
 32
0.0
 13
10.51158175829808
 23
9.323529204386886
 33
0.0
  0
MTEXT
  5
28B7
330
C61
100
AcDbEntity
  8
DIM
 62
     0
100
AcDbMText
 10
10.51158175829808
 20
11.07328083758689
 30
0.0
 40
0.21875
 41
0.0
 71
     5
 72
     1
  1
\A1;3.500
  7
TXT
1001
ACAD
1000
MTEXTBEGIN
1070
    73
1070
     1
1070
    44
1040
1.0
1070
    74
1070
     0
1000
MTEXTEND
  0
POINT
  5
28B8
330
C61
100
AcDbEntity
  8
DEFPOINTS
 62
     0
100
AcDbPoint
 10
11.17689427775501
 20
12.82303247078689
 30
0.0
  0
POINT
  5
28B9
330
C61
100
AcDbEntity
  8
DEFPOINTS
 62
     0
100
AcDbPoint
 10
11.17689427775501
 20
9.323529204386886
 30
0.0
  0
POINT
  5
28BA
330
C61
100
AcDbEntity
  8
DEFPOINTS
 62
     0
100
AcDbPoint
 10
10.51158175829808
 20
9.323529204386886
 30
0.0
  0
ENDBLK
  5
C6D
330
C61
100
AcDbEntity
  8
0
100
AcDbBlockEnd
  0
BLOCK
  5
C79
330
C6E
100
AcDbEntity
  8
0
100
AcDbBlockBegin
  2
*D23
 70
     1
 10
0.0
 20
0.0
 30
0.0
  3
*D23
  1

  0
LINE
  5
27D5
330
C6E
100
AcDbEntity
  8
DIM
 62
     0
100
AcDbLine
 10
13.54733680522977
 20
13.57328068808687
 30
0.0
 11
12.99483680522977
 21
13.57328068808687
 31
0.0
  0
LINE
  5
27D6
330
C6E
100
AcDbEntity
  8
DIM
 62
     0
100
AcDbLine
 10
13.54733680522977
 20
8.573280987086917
 30
0.0
 11
12.99483680522977
 21
8.573280987086917
 31
0.0
  0
LINE
  5
27D7
330
C6E
100
AcDbEntity
  8
DIM
 62
     0
100
AcDbLine
 10
13.15758680522978
 20
13.25828068808687
 30
0.0
 11
13.15758680522977
 21
11.34015583758689
 31
0.0
  0
LINE
  5
27D8
330
C6E
100
AcDbEntity
  8
DIM
 62
     0
100
AcDbLine
 10
13.15758680522977
 20
8.888280987086917
 30
0.0
 11
13.15758680522977
 21
10.80640583758689
 31
0.0
  0
SOLID
  5
27D9
330
C6E
100
AcDbEntity
  8
DIM
 62
     0
100
AcDbTrace
 10
13.10508680522977
 20
13.25828068808687
 30
0.0
 11
13.21008680522978
 21
13.25828068808687
 31
0.0
 12
13.15758680522978
 22
13.57328068808687
 32
0.0
 13
13.15758680522978
 23
13.57328068808687
 33
0.0
  0
SOLID
  5
27DA
330
C6E
100
AcDbEntity
  8
DIM
 62
     0
100
AcDbTrace
 10
13.10508680522977
 20
8.888280987086917
 30
0.0
 11
13.21008680522977
 21
8.888280987086917
 31
0.0
 12
13.15758680522977
 22
8.573280987086917
 32
0.0
 13
13.15758680522977
 23
8.573280987086917
 33
0.0
  0
MTEXT
  5
27DB
330
C6E
100
AcDbEntity
  8
DIM
 62
     0
100
AcDbMText
 10
13.15758680522977
 20
11.07328083758689
 30
0.0
 40
0.21875
 41
0.0
 71
     5
 72
     1
  1
\A1;5.000
  7
TXT
1001
ACAD
1000
MTEXTBEGIN
1070
    73
1070
     1
1070
    44
1040
1.0
1070
    74
1070
     0
1000
MTEXTEND
  0
POINT
  5
27DC
330
C6E
100
AcDbEntity
  8
DEFPOINTS
 62
     0
100
AcDbPoint
 10
13.65758680522977
 20
13.57328068808687
 30
0.0
  0
POINT
  5
27DD
330
C6E
100
AcDbEntity
  8
DEFPOINTS
 62
     0
100
AcDbPoint
 10
13.65758680522977
 20
8.573280987086917
 30
0.0
  0
POINT
  5
27DE
330
C6E
100
AcDbEntity
  8
DEFPOINTS
 62
     0
100
AcDbPoint
 10
13.15758680522977
 20
8.573280987086917
 30
0.0
  0
ENDBLK
  5
C7A
330
C6E
100
AcDbEntity
  8
0
100
AcDbBlockEnd
  0
BLOCK
  5
C86
330
C7B
100
AcDbEntity
  8
0
100
AcDbBlockBegin
  2
*D24
 70
     1
 10
0.0
 20
0.0
 30
0.0
  3
*D24
  1

  0
LINE
  5
27CB
330
C7B
100
AcDbEntity
  8
DIM
 62
     0
100
AcDbLine
 10
16.64271250222978
 20
13.64856195760969
 30
0.0
 11
17.35832021144079
 21
13.64856195760969
 31
0.0
  0
LINE
  5
27CC
330
C7B
100
AcDbEntity
  8
DIM
 62
     0
100
AcDbLine
 10
16.64271250222978
 20
8.497999717564088
 30
0.0
 11
17.35832021144079
 21
8.497999717564088
 31
0.0
  0
LINE
  5
27CD
330
C7B
100
AcDbEntity
  8
DIM
 62
     0
100
AcDbLine
 10
17.19557021144079
 20
13.3335619576097
 30
0.0
 11
17.19557021144079
 21
11.34015583758689
 31
0.0
  0
LINE
  5
27CE
330
C7B
100
AcDbEntity
  8
DIM
 62
     0
100
AcDbLine
 10
17.19557021144079
 20
8.812999717564087
 30
0.0
 11
17.19557021144079
 21
10.80640583758689
 31
0.0
  0
SOLID
  5
27CF
330
C7B
100
AcDbEntity
  8
DIM
 62
     0
100
AcDbTrace
 10
17.14307021144079
 20
13.3335619576097
 30
0.0
 11
17.24807021144079
 21
13.3335619576097
 31
0.0
 12
17.19557021144079
 22
13.64856195760969
 32
0.0
 13
17.19557021144079
 23
13.64856195760969
 33
0.0
  0
SOLID
  5
27D0
330
C7B
100
AcDbEntity
  8
DIM
 62
     0
100
AcDbTrace
 10
17.14307021144079
 20
8.812999717564087
 30
0.0
 11
17.24807021144079
 21
8.812999717564087
 31
0.0
 12
17.19557021144079
 22
8.497999717564088
 32
0.0
 13
17.19557021144079
 23
8.497999717564088
 33
0.0
  0
MTEXT
  5
27D1
330
C7B
100
AcDbEntity
  8
DIM
 62
     0
100
AcDbMText
 10
17.19557021144078
 20
11.07328083758689
 30
0.0
 40
0.21875
 41
0.0
 71
     5
 72
     1
  1
\A1;5.151
  7
TXT
1001
ACAD
1000
MTEXTBEGIN
1070
    73
1070
     1
1070
    44
1040
1.0
1070
    74
1070
     0
1000
MTEXTEND
  0
POINT
  5
27D2
330
C7B
100
AcDbEntity
  8
DEFPOINTS
 62
     0
100
AcDbPoint
 10
16.53246250222978
 20
13.64856195760969
 30
0.0
  0
POINT
  5
27D3
330
C7B
100
AcDbEntity
  8
DEFPOINTS
 62
     0
100
AcDbPoint
 10
16.53246250222978
 20
8.497999717564088
 30
0.0
  0
POINT
  5
27D4
330
C7B
100
AcDbEntity
  8
DEFPOINTS
 62
     0
100
AcDbPoint
 10
17.19557021144079
 20
8.497999717564088
 30
0.0
  0
ENDBLK
  5
C87
330
C7B
100
AcDbEntity
  8
0
100
AcDbBlockEnd
  0
BLOCK
  5
1045
330
1039
100
AcDbEntity
  8
0
100
AcDbBlockBegin
  2
*D25
 70
     1
 10
0.0
 20
0.0
 30
0.0
  3
*D25
  1

  0
LINE
  5
2838
330
1039
100
AcDbEntity
  8
DIM
 62
     0
100
AcDbLine
 10
12.47582345195499
 20
2.332381356303756
 30
0.0
 11
13.19748695136031
 21
2.332381356303756
 31
0.0
  0
LINE
  5
2839
330
1039
100
AcDbEntity
  8
DIM
 62
     0
100
AcDbLine
 10
12.59995452695499
 20
2.457505479903757
 30
0.0
 11
13.19748695136031
 21
2.457505479903756
 31
0.0
  0
LINE
  5
283A
330
1039
100
AcDbEntity
  8
DIM
 62
     0
100
AcDbLine
 10
13.03473695136031
 20
2.017381356303756
 30
0.0
 11
13.03473695136031
 21
1.702381356303756
 31
0.0
  0
LINE
  5
283B
330
1039
100
AcDbEntity
  8
DIM
 62
     0
100
AcDbLine
 10
13.03473695136031
 20
2.772505479903756
 30
0.0
 11
13.03473695136031
 21
3.087505479903756
 31
0.0
  0
LINE
  5
283C
330
1039
100
AcDbEntity
  8
DIM
 62
     0
100
AcDbLine
 10
13.03473695136031
 20
3.087505479903756
 30
0.0
 11
13.34973695136031
 21
3.087505479903756
 31
0.0
  0
SOLID
  5
283D
330
1039
100
AcDbEntity
  8
DIM
 62
     0
100
AcDbTrace
 10
12.98223695136031
 20
2.017381356303757
 30
0.0
 11
13.08723695136031
 21
2.017381356303756
 31
0.0
 12
13.03473695136031
 22
2.332381356303756
 32
0.0
 13
13.03473695136031
 23
2.332381356303756
 33
0.0
  0
SOLID
  5
283E
330
1039
100
AcDbEntity
  8
DIM
 62
     0
100
AcDbTrace
 10
12.98223695136031
 20
2.772505479903756
 30
0.0
 11
13.08723695136031
 21
2.772505479903756
 31
0.0
 12
13.03473695136031
 22
2.457505479903756
 32
0.0
 13
13.03473695136031
 23
2.457505479903756
 33
0.0
  0
MTEXT
  5
283F
330
1039
100
AcDbEntity
  8
DIM
 62
     0
100
AcDbMText
 10
13.79434632636031
 20
3.087505479903758
 30
0.0
 40
0.21875
 41
0.0
 71
     5
 72
     1
  1
\A1;0.125
  7
TXT
1001
ACAD
1000
MTEXTBEGIN
1070
    73
1070
     1
1070
    44
1040
1.0
1070
    74
1070
     0
1000
MTEXTEND
  0
POINT
  5
2840
330
1039
100
AcDbEntity
  8
DEFPOINTS
 62
     0
100
AcDbPoint
 10
12.36557345195499
 20
2.332381356303756
 30
0.0
  0
POINT
  5
2841
330
1039
100
AcDbEntity
  8
DEFPOINTS
 62
     0
100
AcDbPoint
 10
12.48970452695499
 20
2.457505479903757
 30
0.0
  0
POINT
  5
2842
330
1039
100
AcDbEntity
  8
DEFPOINTS
 62
     0
100
AcDbPoint
 10
13.03473695136031
 20
2.457505479903756
 30
0.0
  0
ENDBLK
  5
1046
330
1039
100
AcDbEntity
  8
0
100
AcDbBlockEnd
  0
BLOCK
  5
2243
330
2234
100
AcDbEntity
  8
0
100
AcDbBlockBegin
  2
*D26
 70
     1
 10
0.0
 20
0.0
 30
0.0
  3
*D26
  1

  0
LINE
  5
2811
330
2234
100
AcDbEntity
  8
DIM
 62
     0
100
AcDbLine
 10
3.679780734805956
 20
5.442593396982314
 30
0.0
 11
3.703770535106382
 21
6.358726909298809
 31
0.0
  0
LINE
  5
2812
330
2234
100
AcDbEntity
  8
DIM
 62
     0
100
AcDbLine
 10
3.601613456732209
 20
2.567755479903758
 30
0.0
 11
3.601613456732209
 21
6.360064218710019
 31
0.0
  0
ARC
  5
2813
330
2234
100
AcDbEntity
  8
DIM
 62
     0
100
AcDbCircle
 10
3.601613456732209
 20
2.457505479903757
 30
0.0
 40
3.73980873880626
100
AcDbArc
 50
78.83662911043841
 51
88.49999999999997
  0
LINE
  5
2814
330
2234
100
AcDbEntity
  8
DIM
 62
     0
100
AcDbLine
 10
4.325667311557698
 20
6.126553778599759
 30
0.0
 11
4.640667311557698
 21
6.126553778599759
 31
0.0
  0
ARC
  5
2815
330
2234
100
AcDbEntity
  8
DIM
 62
     0
100
AcDbCircle
 10
3.601613456732209
 20
2.457505479903757
 30
0.0
 40
3.73980873880626
100
AcDbArc
 50
78.84522287578488
 51
83.67261143789242
  0
ARC
  5
2816
330
2234
100
AcDbEntity
  8
DIM
 62
     0
100
AcDbCircle
 10
3.601613456732209
 20
2.457505479903757
 30
0.0
 40
3.73980873880626
100
AcDbArc
 50
94.82738856210755
 51
99.6547771242151
  0
SOLID
  5
2817
330
2234
100
AcDbEntity
  8
DIM
 62
     0
100
AcDbTrace
 10
4.010192333233919
 20
6.122155180132229
 30
0.0
 11
4.017358976514795
 21
6.226910319500589
 31
0.0
 12
3.699510236769274
 22
6.196032679659036
 32
0.0
 13
3.699510236769274
 23
6.196032679659036
 33
0.0
  0
SOLID
  5
2818
330
2234
100
AcDbEntity
  8
DIM
 62
     0
100
AcDbTrace
 10
3.284681918193352
 20
6.236501587585625
 30
0.0
 11
3.289103935776337
 21
6.131594744336504
 31
0.0
 12
3.60161345673221
 22
6.197314218710018
 32
0.0
 13
3.60161345673221
 23
6.197314218710018
 33
0.0
  0
MTEXT
  5
2819
330
2234
100
AcDbEntity
  8
DIM
 62
     0
100
AcDbMText
 10
5.673167311557697
 20
6.126553778599761
 30
0.0
 40
0.21875
 41
0.0
 71
     5
 72
     1
  1
\A1;1-1/2° DRAFT
  7
TXT
1001
ACAD
1000
MTEXTBEGIN
1070
    73
1070
     1
1070
    44
1040
1.0
1070
    74
1070
     0
1000
MTEXTEND
  0
POINT
  5
281A
330
2234
100
AcDbEntity
  8
DEFPOINTS
 62
     0
100
AcDbPoint
 10
3.634249030448532
 20
6.197171818252659
 30
0.0
  0
POINT
  5
281B
330
2234
100
AcDbEntity
  8
DEFPOINTS
 62
     0
100
AcDbPoint
 10
3.601613456732209
 20
2.456512431303756
 30
0.0
  0
POINT
  5
281C
330
2234
100
AcDbEntity
  8
DEFPOINTS
 62
     0
100
AcDbPoint
 10
3.601613456732209
 20
2.457505479903757
 30
0.0
  0
POINT
  5
281D
330
2234
100
AcDbEntity
  8
DEFPOINTS
 62
     0
100
AcDbPoint
 10
3.676894726255013
 20
5.332381176903759
 30
0.0
  0
POINT
  5
281E
330
2234
100
AcDbEntity
  8
DEFPOINTS
 62
     0
100
AcDbPoint
 10
3.601613456732209
 20
1.934439908038505
 30
0.0
  0
ENDBLK
  5
2244
330
2234
100
AcDbEntity
  8
0
100
AcDbBlockEnd
  0
BLOCK
  5
246C
330
2461
100
AcDbEntity
  8
0
100
AcDbBlockBegin
  2
*D27
 70
     1
 10
0.0
 20
0.0
 30
0.0
  3
*D27
  1

  0
LINE
  5
28A7
330
2461
100
AcDbEntity
  8
DIM
 62
     0
100
AcDbLine
 10
11.927142495055
 20
5.442631176903759
 30
0.0
 11
11.927142495055
 21
5.870401692752709
 31
0.0
  0
LINE
  5
28A8
330
2461
100
AcDbEntity
  8
DIM
 62
     0
100
AcDbLine
 10
11.80201837145499
 20
5.442631176903749
 30
0.0
 11
11.80201837145499
 21
5.870401692752709
 31
0.0
  0
LINE
  5
28A9
330
2461
100
AcDbEntity
  8
DIM
 62
     0
100
AcDbLine
 10
12.24214249505499
 20
5.707651692752709
 30
0.0
 11
12.557142495055
 21
5.707651692752709
 31
0.0
  0
LINE
  5
28AA
330
2461
100
AcDbEntity
  8
DIM
 62
     0
100
AcDbLine
 10
11.48701837145499
 20
5.707651692752709
 30
0.0
 11
11.17201837145499
 21
5.707651692752709
 31
0.0
  0
SOLID
  5
28AB
330
2461
100
AcDbEntity
  8
DIM
 62
     0
100
AcDbTrace
 10
12.24214249505499
 20
5.760151692752709
 30
0.0
 11
12.24214249505499
 21
5.655151692752709
 31
0.0
 12
11.927142495055
 22
5.707651692752709
 32
0.0
 13
11.927142495055
 23
5.707651692752709
 33
0.0
  0
SOLID
  5
28AC
330
2461
100
AcDbEntity
  8
DIM
 62
     0
100
AcDbTrace
 10
11.48701837145499
 20
5.760151692752709
 30
0.0
 11
11.48701837145499
 21
5.655151692752709
 31
0.0
 12
11.80201837145499
 22
5.707651692752709
 32
0.0
 13
11.80201837145499
 23
5.707651692752709
 33
0.0
  0
MTEXT
  5
28AD
330
2461
100
AcDbEntity
  8
DIM
 62
     0
100
AcDbMText
 10
10.72740899645499
 20
5.707651692752709
 30
0.0
 40
0.21875
 41
0.0
 71
     5
 72
     1
  1
\A1;0.125
  7
TXT
1001
ACAD
1000
MTEXTBEGIN
1070
    73
1070
     1
1070
    44
1040
1.0
1070
    74
1070
     0
1000
MTEXTEND
  0
POINT
  5
28AE
330
2461
100
AcDbEntity
  8
DEFPOINTS
 62
     0
100
AcDbPoint
 10
11.927142495055
 20
5.332381176903759
 30
0.0
  0
POINT
  5
28AF
330
2461
100
AcDbEntity
  8
DEFPOINTS
 62
     0
100
AcDbPoint
 10
11.80201837145499
 20
5.33238117690375
 30
0.0
  0
POINT
  5
28B0
330
2461
100
AcDbEntity
  8
DEFPOINTS
 62
     0
100
AcDbPoint
 10
11.80201837145499
 20
5.707651692752709
 30
0.0
  0
ENDBLK
  5
246D
330
2461
100
AcDbEntity
  8
0
100
AcDbBlockEnd
  0
BLOCK
  5
24A5
330
2497
100
AcDbEntity
  8
0
100
AcDbBlockBegin
  2
*D28
 70
     1
 10
0.0
 20
0.0
 30
0.0
  3
*D28
  1

  0
LINE
  5
282A
330
2497
100
AcDbEntity
  8
DIM
 62
     0
100
AcDbLine
 10
11.35654130160193
 20
4.534176716951757
 30
0.0
 11
11.35924042424695
 21
4.793707740511552
 31
0.0
  0
LINE
  5
282B
330
2497
100
AcDbEntity
  8
DIM
 62
     0
100
AcDbLine
 10
11.334789005155
 20
2.552859750903756
 30
0.0
 11
11.334789005155
 21
4.793834884452951
 31
0.0
  0
ARC
  5
282C
330
2497
100
AcDbEntity
  8
DIM
 62
     0
100
AcDbCircle
 10
11.33478900515501
 20
2.442609750903756
 30
0.0
 40
2.188475133549194
100
AcDbArc
 50
72.85282392481251
 51
89.40414537498913
  0
LINE
  5
282D
330
2497
100
AcDbEntity
  8
DIM
 62
     0
100
AcDbLine
 10
11.98001101036988
 20
4.533808444034004
 30
0.0
 11
12.29501101036988
 21
4.533808444034004
 31
0.0
  0
ARC
  5
282E
330
2497
100
AcDbEntity
  8
DIM
 62
     0
100
AcDbCircle
 10
11.33478900515501
 20
2.442609750903756
 30
0.0
 40
2.188475133549194
100
AcDbArc
 50
72.89604215718798
 51
81.15009376608856
  0
ARC
  5
282F
330
2497
100
AcDbEntity
  8
DIM
 62
     0
100
AcDbCircle
 10
11.33478900515501
 20
2.442609750903756
 30
0.0
 40
2.188475133549194
100
AcDbArc
 50
98.25405160890067
 51
106.5081032178012
  0
SOLID
  5
2830
330
2497
100
AcDbEntity
  8
DIM
 62
     0
100
AcDbTrace
 10
11.6671556942543
 20
4.552708803647063
 30
0.0
 11
11.675801026554
 21
4.657352285190004
 31
0.0
 12
11.35754791577533
 22
4.630966541317637
 32
0.0
 13
11.35754791577533
 23
4.630966541317637
 33
0.0
  0
SOLID
  5
2831
330
2497
100
AcDbEntity
  8
DIM
 62
     0
100
AcDbTrace
 10
11.01682750100581
 20
4.660778854870918
 30
0.0
 11
11.02438413244588
 21
4.556051125394533
 31
0.0
 12
11.334789005155
 22
4.631084884452951
 32
0.0
 13
11.334789005155
 23
4.631084884452951
 33
0.0
  0
MTEXT
  5
2832
330
2497
100
AcDbEntity
  8
DIM
 62
     0
100
AcDbMText
 10
13.19079226036988
 20
4.533808444034003
 30
0.0
 40
0.21875
 41
0.0
 71
     5
 72
     1
  1
\A1;1/2° DRAFT
  7
TXT
1001
ACAD
1000
MTEXTBEGIN
1070
    73
1070
     1
1070
    44
1040
1.0
1070
    74
1070
     0
1000
MTEXTEND
  0
POINT
  5
2833
330
2497
100
AcDbEntity
  8
DEFPOINTS
 62
     0
100
AcDbPoint
 10
11.34237543024849
 20
4.631071735110351
 30
0.0
  0
POINT
  5
2834
330
2497
100
AcDbEntity
  8
DEFPOINTS
 62
     0
100
AcDbPoint
 10
11.33478900515501
 20
2.442609750903756
 30
0.0
  0
POINT
  5
2835
330
2497
100
AcDbEntity
  8
DEFPOINTS
 62
     0
100
AcDbPoint
 10
11.33478900515501
 20
2.442609750903756
 30
0.0
  0
POINT
  5
2836
330
2497
100
AcDbEntity
  8
DEFPOINTS
 62
     0
100
AcDbPoint
 10
11.35539476360502
 20
4.423932678788138
 30
0.0
  0
POINT
  5
2837
330
2497
100
AcDbEntity
  8
DEFPOINTS
 62
     0
100
AcDbPoint
 10
11.33478900515501
 20
2.078843865671807
 30
0.0
  0
ENDBLK
  5
24A6
330
2497
100
AcDbEntity
  8
0
100
AcDbBlockEnd
  0
ENDSEC
  0
SECTION
  2
ENTITIES
  0
TEXT
  5
1DE
330
1E
100
AcDbEntity
  8
0
  6
CONTINUOUS
 62
     7
100
AcDbText
 10
22.31748878367495
 20
12.27456486485506
 30
0.0
 40
0.125
  1

 50
90.0
  7
CITYBLUEPRINT
100
AcDbText
  0
TEXT
  5
1E0
330
1E
100
AcDbEntity
  8
0
  6
CONTINUOUS
 62
     1
100
AcDbText
 10
19.17845410090357
 20
15.4091803877171
 30
0.0
 40
0.125
  1

  7
CITYBLUEPRINT
100
AcDbText
  0
TEXT
  5
1E1
330
1E
100
AcDbEntity
  8
0
  6
CONTINUOUS
 62
     1
100
AcDbText
 10
19.14695795002474
 20
15.17324074991588
 30
0.0
 40
0.125
  1

  7
CITYBLUEPRINT
100
AcDbText
  0
TEXT
  5
1E2
330
1E
100
AcDbEntity
  8
0
  6
CONTINUOUS
 62
     1
100
AcDbText
 10
12.31229075867319
 20
15.33053382170928
 30
0.0
 40
0.1875
  1

  7
CITYBLUEPRINT
100
AcDbText
  0
TEXT
  5
1E3
330
1E
100
AcDbEntity
  8
0
  6
CONTINUOUS
 62
     1
100
AcDbText
 10
14.39967731388856
 20
22.51625307369989
 30
0.0
 40
0.1875
  1

  7
CITYBLUEPRINT
100
AcDbText
  0
TEXT
  5
1E5
330
1E
100
AcDbEntity
  8
0
  6
CONTINUOUS
 62
     7
100
AcDbText
 10
25.89831338140157
 20
25.24422504265892
 30
0.0
 40
0.125
  1

 50
90.0
  7
CITYBLUEPRINT
100
AcDbText
  0
TEXT
  5
251
330
1E
100
AcDbEntity
  8
0
  6
CONTINUOUS
 62
     1
100
AcDbText
 10
22.7592786986302
 20
28.37884056552097
 30
0.0
 40
0.125
  1

  7
CITYBLUEPRINT
100
AcDbText
  0
TEXT
  5
252
330
1E
100
AcDbEntity
  8
0
  6
CONTINUOUS
 62
     1
100
AcDbText
 10
22.72778254775138
 20
28.14290092771975
 30
0.0
 40
0.125
  1

  7
CITYBLUEPRINT
100
AcDbText
  0
TEXT
  5
253
330
1E
100
AcDbEntity
  8
0
  6
CONTINUOUS
 62
     1
100
AcDbText
 10
15.89311535639982
 20
28.30019399951314
 30
0.0
 40
0.1875
  1

  7
CITYBLUEPRINT
100
AcDbText
  0
TEXT
  5
254
330
1E
100
AcDbEntity
  8
0
  6
CONTINUOUS
 62
     1
100
AcDbText
 10
17.98050191161518
 20
35.48591325150376
 30
0.0
 40
0.1875
  1

  7
CITYBLUEPRINT
100
AcDbText
  0
TEXT
  5
255
330
1E
100
AcDbEntity
  8
0
  6
CONTINUOUS
 62
     7
100
AcDbText
 10
22.31748878367495
 20
12.27456486485506
 30
0.0
 40
0.125
  1

 50
90.0
  7
CITYBLUEPRINT
100
AcDbText
  0
TEXT
  5
256
330
1E
100
AcDbEntity
  8
0
  6
CONTINUOUS
 62
     1
100
AcDbText
 10
19.17845410090357
 20
15.4091803877171
 30
0.0
 40
0.125
  1

  7
CITYBLUEPRINT
100
AcDbText
  0
TEXT
  5
257
330
1E
100
AcDbEntity
  8
0
  6
CONTINUOUS
 62
     1
100
AcDbText
 10
19.14695795002474
 20
15.17324074991588
 30
0.0
 40
0.125
  1

  7
CITYBLUEPRINT
100
AcDbText
  0
TEXT
  5
258
330
1E
100
AcDbEntity
  8
0
  6
CONTINUOUS
 62
     1
100
AcDbText
 10
12.31229075867319
 20
15.33053382170928
 30
0.0
 40
0.1875
  1

  7
CITYBLUEPRINT
100
AcDbText
  0
TEXT
  5
2A1
330
1E
100
AcDbEntity
  8
0
  6
CONTINUOUS
 62
     1
100
AcDbText
 10
14.39967731388856
 20
22.51625307369989
 30
0.0
 40
0.1875
  1

  7
CITYBLUEPRINT
100
AcDbText
  0
TEXT
  5
2A3
330
1E
100
AcDbEntity
  8
0
  6
CONTINUOUS
 62
     7
100
AcDbText
 10
39.73723601783406
 20
21.6487096050277
 30
0.0
 40
0.125
  1

 50
90.0
  7
CITYBLUEPRINT
100
AcDbText
  0
TEXT
  5
2A7
330
1E
100
AcDbEntity
  8
0
  6
CONTINUOUS
 62
     7
100
AcDbText
 10
40.15596313810184
 20
22.93825919990421
 30
0.0
 40
0.125
  1

 50
90.0
  7
CITYBLUEPRINT
100
AcDbText
  0
TEXT
  5
318
330
1E
100
AcDbEntity
  8
0
  6
CONTINUOUS
 62
     1
100
AcDbText
 10
33.77958210090591
 20
2.962980280087863
 30
0.0
 40
0.125
  1

  7
CITYBLUEPRINT
100
AcDbText
  0
TEXT
  5
319
330
1E
100
AcDbEntity
  8
0
  6
CONTINUOUS
 62
     1
100
AcDbText
 10
33.74808595002709
 20
2.727040642286635
 30
0.0
 40
0.125
  1

  7
CITYBLUEPRINT
100
AcDbText
  0
TEXT
  5
31A
330
1E
100
AcDbEntity
  8
0
  6
CONTINUOUS
 62
     1
100
AcDbText
 10
26.91341875867554
 20
2.884333714080036
 30
0.0
 40
0.1875
  1

  7
CITYBLUEPRINT
100
AcDbText
  0
TEXT
  5
32B
330
1E
100
AcDbEntity
  8
0
  6
CONTINUOUS
 62
     1
100
AcDbText
 10
29.0008053138909
 20
10.07005296607064
 30
0.0
 40
0.1875
  1

  7
CITYBLUEPRINT
100
AcDbText
  0
TEXT
  5
39E
330
1E
100
AcDbEntity
  8
TEXT
100
AcDbText
 10
12.16914682402644
 20
25.18368579423898
 30
0.0
 40
0.217999999854
  1
SIX (6) #4-40 x 0.500" LG. SCREWS
 41
0.75
  7
TXT
100
AcDbText
  0
TEXT
  5
39F
330
1E
100
AcDbEntity
  8
TEXT
100
AcDbText
 10
12.16914682402644
 20
24.89332966907733
 30
0.0
 40
0.217999999854
  1
SUPPLIED FOR ASSEMBLING COVER
 41
0.75
  7
TXT
100
AcDbText
  0
TEXT
  5
3A0
330
1E
100
AcDbEntity
  8
TEXT
100
AcDbText
 10
12.16914682402644
 20
24.60297354391566
 30
0.0
 40
0.217999999854
  1
TO BODY
 41
0.75
  7
TXT
100
AcDbText
  0
TEXT
  5
3A1
330
1E
100
AcDbEntity
  8
TEXT
100
AcDbText
 10
12.16914682402644
 20
24.14946838298145
 30
0.0
 40
0.217999999854
  1
MOUNTING BOSSES USE EITHER M2.5
 41
0.75
  7
TXT
100
AcDbText
  0
TEXT
  5
3A2
330
1E
100
AcDbEntity
  8
TEXT
100
AcDbText
 10
12.16914682402644
 20
23.85911225781978
 30
0.0
 40
0.217999999854
  1
METRIC OR #4 STD. SHEET METAL
 41
0.75
  7
TXT
100
AcDbText
  0
LINE
  5
3A4
330
1E
100
AcDbEntity
  8
TITLE
100
AcDbLine
 10
2.551809504841862
 20
1.928500000000001
 30
0.0
 11
2.551809504841862
 21
0.1085000000000009
 31
0.0
  0
TEXT
  5
3A5
330
1E
100
AcDbEntity
  8
TEXT
100
AcDbText
 10
0.7083001905592456
 20
1.654108727673276
 30
0.0
 40
0.218
  1
PART No.
 41
0.75
  7
TXT
 72
     1
 11
1.280550190559245
 21
1.654108727673276
 31
0.0
100
AcDbText
  0
TEXT
  5
3A6
330
1E
100
AcDbEntity
  8
TEXT
100
AcDbText
 10
0.7355501905592456
 20
1.287247934408648
 30
0.0
 40
0.218
  1
CU-3285
 41
0.75
  7
TXT
 72
     1
 11
1.280550190559245
 21
1.287247934408648
 31
0.0
100
AcDbText
  0
TEXT
  5
3A7
330
1E
100
AcDbEntity
  8
TEXT
100
AcDbText
 10
0.4903001905592456
 20
0.9203870135347678
 30
0.0
 40
0.218
  1
CU-3285-MB
 41
0.75
  7
TXT
 72
     1
 11
1.280550190559245
 21
0.9203870135347678
 31
0.0
100
AcDbText
  0
TEXT
  5
3A8
330
1E
100
AcDbEntity
  8
TEXT
100
AcDbText
 10
0.6538001905592456
 20
0.5466268348117227
 30
0.0
 40
0.218
  1
CUR-3285
 41
0.75
  7
TXT
 72
     1
 11
1.280550190559245
 21
0.5466268348117227
 31
0.0
100
AcDbText
  0
TEXT
  5
3A9
330
1E
100
AcDbEntity
  8
TEXT
100
AcDbText
 10
0.4085501905592456
 20
0.1866652993962585
 30
0.0
 40
0.218
  1
CUR-3285-MB
 41
0.75
  7
TXT
 72
     1
 11
1.280550190559245
 21
0.1866652993962585
 31
0.0
100
AcDbText
  0
LINE
  5
3FF
330
1E
100
AcDbEntity
  8
TITLE
100
AcDbLine
 10
0.1084999999999959
 20
1.928500000000001
 30
0.0
 11
17.60426068884582
 21
1.928500000000001
 31
0.0
  0
TEXT
  5
419
330
1E
100
AcDbEntity
  8
TEXT
100
AcDbText
 10
12.16914682402644
 20
23.57706031783773
 30
0.0
 40
0.217999999854
  1
SCREWS x 0.250" LG.
 41
0.75
  7
TXT
100
AcDbText
  0
TEXT
  5
41A
330
1E
100
AcDbEntity
  8
TEXT
100
AcDbText
 10
12.16914682402644
 20
23.28670419267607
 30
0.0
 40
0.217999999854
  1
(NOT SUPPLIED)
 41
0.75
  7
TXT
100
AcDbText
  0
DIMENSION
  5
8C8
330
1E
100
AcDbEntity
  8
DIM
100
AcDbDimension
  2
*D1
 10
11.31387407655408
 20
16.81444467852006
 30
0.0
 11
7.80394379985409
 21
16.81444467852006
 31
0.0
 70
   160
  3
23NSTD
100
AcDbAlignedDimension
 13
4.294013523154092
 23
16.30628863982611
 33
0.0
 14
11.31387407655408
 24
16.30628863982611
 34
0.0
100
AcDbRotatedDimension
  0
DIMENSION
  5
8C9
330
1E
100
AcDbEntity
  8
DIM
100
AcDbDimension
  2
*D2
 10
11.9270815870541
 20
21.6905058694022
 30
0.0
 11
7.803943799854108
 21
21.6905058694022
 31
0.0
 70
    32
  1
<>
  3
23NSTD
100
AcDbAlignedDimension
 13
3.680806012654108
 23
20.27451084542612
 33
0.0
 14
11.9270815870541
 24
20.27451084542612
 34
0.0
100
AcDbRotatedDimension
  0
DIMENSION
  5
8CA
330
1E
100
AcDbEntity
  8
DIM
100
AcDbDimension
  2
*D3
 10
11.51248379655408
 20
21.1710786871684
 30
0.0
 11
9.658213798204094
 21
21.1710786871684
 31
0.0
 70
    32
  3
23NSTD
100
AcDbAlignedDimension
 13
7.803943799854099
 23
20.27451084542612
 33
0.0
 14
11.51248379655408
 24
20.27451084542612
 34
0.0
100
AcDbRotatedDimension
  0
LINE
  5
8CB
330
1E
100
AcDbEntity
  8
OBJECT
100
AcDbLine
 10
4.324798029754099
 20
16.33707314642612
 30
0.0
 11
11.28308956995409
 21
16.33707314642613
 31
0.0
  0
LINE
  5
8CC
330
1E
100
AcDbEntity
  8
OBJECT
100
AcDbLine
 10
4.324798029754099
 20
20.04511661882613
 30
0.0
 11
11.28308956995409
 21
20.04511661882613
 31
0.0
  0
LINE
  5
8CD
330
1E
100
AcDbEntity
  8
OBJECT
100
AcDbLine
 10
4.294013523154092
 20
16.30628863982611
 30
0.0
 11
11.31387407655408
 21
16.30628863982611
 31
0.0
  0
LINE
  5
8CE
330
1E
100
AcDbEntity
  8
OBJECT
100
AcDbLine
 10
4.29401352315412
 20
20.07590112542612
 30
0.0
 11
11.31387407655408
 21
20.07590112542612
 31
0.0
  0
LINE
  5
8CF
330
1E
100
AcDbEntity
  8
HIDDEN
100
AcDbLine
 10
11.51248379655408
 20
15.74769880232611
 30
0.0
 11
4.095403803154102
 21
15.74769880232611
 31
0.0
  0
LINE
  5
8D0
330
1E
100
AcDbEntity
  8
HIDDEN
100
AcDbLine
 10
11.51248379655408
 20
20.63449096292612
 30
0.0
 11
4.095403803154102
 21
20.63449096292612
 31
0.0
  0
LINE
  5
8D2
330
1E
100
AcDbEntity
  8
OBJECT
100
AcDbLine
 10
11.51248379655408
 20
15.69308112932612
 30
0.0
 11
4.095403803154102
 21
15.69308112932612
 31
0.0
  0
LINE
  5
8D3
330
1E
100
AcDbEntity
  8
OBJECT
100
AcDbLine
 10
11.51248379655408
 20
20.68910863592612
 30
0.0
 11
4.095403803154102
 21
20.68910863592611
 31
0.0
  0
LINE
  5
8D4
330
1E
100
AcDbEntity
  8
HIDDEN
100
AcDbLine
 10
11.51248379655408
 20
15.88176036332611
 30
0.0
 11
4.095403803154116
 21
15.88176036332613
 31
0.0
  0
LINE
  5
8D5
330
1E
100
AcDbEntity
  8
HIDDEN
100
AcDbLine
 10
11.51248379655408
 20
20.50042940192612
 30
0.0
 11
4.095403803154102
 21
20.50042940192612
 31
0.0
  0
LINE
  5
8D6
330
1E
100
AcDbEntity
  8
HIDDEN
100
AcDbLine
 10
11.51248379655408
 20
15.81919830152612
 30
0.0
 11
4.095403803154116
 21
15.81919830152612
 31
0.0
  0
LINE
  5
8D7
330
1E
100
AcDbEntity
  8
HIDDEN
100
AcDbLine
 10
11.51248379655408
 20
20.56299146372612
 30
0.0
 11
4.095403803154102
 21
20.56299146372612
 31
0.0
  0
DIMENSION
  5
8DB
330
1E
100
AcDbEntity
  8
DIM
100
AcDbDimension
  2
*D4
 10
3.037435267431586
 20
16.30628863982611
 30
0.0
 11
3.037435267431583
 21
18.35664403337047
 31
0.0
 70
   160
  3
23NSTD
100
AcDbAlignedDimension
 13
4.29401352315412
 23
20.07590112542612
 33
0.0
 14
4.294013523154092
 24
16.30628863982611
 34
0.0
 50
90.0
100
AcDbRotatedDimension
  0
DIMENSION
  5
8DC
330
1E
100
AcDbEntity
  8
DIM
100
AcDbDimension
  2
*D5
 10
2.393012077958333
 20
16.10767891982613
 30
0.0
 11
2.393012077958331
 21
17.9370648178761
 31
0.0
 70
   160
  3
23NSTD
100
AcDbAlignedDimension
 13
4.095403803154102
 23
20.2745108454261
 33
0.0
 14
4.095403803154116
 24
16.10767891982613
 34
0.0
 50
90.0
100
AcDbRotatedDimension
  0
ARC
  5
8DD
330
1E
100
AcDbEntity
  8
HIDDEN
100
AcDbCircle
 10
4.095403803154102
 20
16.10767891982613
 30
0.0
 40
0.3599801175000051
100
AcDbArc
 50
180.0000000000006
 51
270.0
  0
ARC
  5
8DE
330
1E
100
AcDbEntity
  8
HIDDEN
100
AcDbCircle
 10
4.095403803154102
 20
20.27451084542612
 30
0.0
 40
0.3599801175000051
100
AcDbArc
 50
90.0
 51
180.0
  0
ARC
  5
8DF
330
1E
100
AcDbEntity
  8
OBJECT
100
AcDbCircle
 10
4.095403803154102
 20
16.10767891982613
 30
0.0
 40
0.4145977905000064
100
AcDbArc
 50
180.0000000000002
 51
270.0
  0
ARC
  5
8E0
330
1E
100
AcDbEntity
  8
OBJECT
100
AcDbCircle
 10
4.095403803154102
 20
20.27451084542612
 30
0.0
 40
0.4145977904999958
100
AcDbArc
 50
90.0
 51
180.0
  0
ARC
  5
8E1
330
1E
100
AcDbEntity
  8
HIDDEN
100
AcDbCircle
 10
4.095403803154102
 20
16.10767891982613
 30
0.0
 40
0.2884806183000085
100
AcDbArc
 50
180.0000000000006
 51
270.0
  0
ARC
  5
8E2
330
1E
100
AcDbEntity
  8
HIDDEN
100
AcDbCircle
 10
4.095403803154102
 20
16.10767891982613
 30
0.0
 40
0.2259185565000088
100
AcDbArc
 50
180.0000000000006
 51
270.0
  0
ARC
  5
8E3
330
1E
100
AcDbEntity
  8
HIDDEN
100
AcDbCircle
 10
4.095403803154102
 20
20.27451084542612
 30
0.0
 40
0.2884806183000085
100
AcDbArc
 50
90.0
 51
180.0
  0
ARC
  5
8E4
330
1E
100
AcDbEntity
  8
HIDDEN
100
AcDbCircle
 10
4.095403803154102
 20
20.27451084542612
 30
0.0
 40
0.2259185565000088
100
AcDbArc
 50
90.0
 51
180.0
  0
LINE
  5
8E5
330
1E
100
AcDbEntity
  8
HIDDEN
100
AcDbLine
 10
3.735423685654104
 20
16.10767891982613
 30
0.0
 11
3.735423685654104
 21
20.27451084542612
 31
0.0
  0
LINE
  5
8E6
330
1E
100
AcDbEntity
  8
OBJECT
100
AcDbLine
 10
3.680806012654112
 20
16.10767891982613
 30
0.0
 11
3.680806012654112
 21
20.27451084542612
 31
0.0
  0
LINE
  5
8E7
330
1E
100
AcDbEntity
  8
HIDDEN
100
AcDbLine
 10
3.806923184854092
 20
16.10767891982611
 30
0.0
 11
3.806923184854092
 21
20.27451084542612
 31
0.0
  0
LINE
  5
8ED
330
1E
100
AcDbEntity
  8
OBJECT
100
AcDbLine
 10
4.324798029754099
 20
20.04511661882613
 30
0.0
 11
4.324798029754099
 21
16.33707314642612
 31
0.0
  0
LINE
  5
8EE
330
1E
100
AcDbEntity
  8
OBJECT
100
AcDbLine
 10
4.29401352315412
 20
20.07590112542612
 30
0.0
 11
4.294013523154092
 21
16.30628863982611
 31
0.0
  0
LINE
  5
8EF
330
1E
100
AcDbEntity
  8
HIDDEN
100
AcDbLine
 10
3.869485246654111
 20
16.10767891982611
 30
0.0
 11
3.869485246654111
 21
20.27451084542612
 31
0.0
  0
CIRCLE
  5
8FE
330
1E
100
AcDbEntity
  8
OBJECT
100
AcDbCircle
 10
4.095403803154116
 20
16.10767891982613
 30
0.0
 40
0.1305858908999955
  0
CIRCLE
  5
8FF
330
1E
100
AcDbEntity
  8
HIDDEN
100
AcDbCircle
 10
4.095403803154116
 20
16.10767891982613
 30
0.0
 40
0.1921549040999932
  0
CIRCLE
  5
900
330
1E
100
AcDbEntity
  8
OBJECT
100
AcDbCircle
 10
4.095403803154116
 20
16.10767891982613
 30
0.0
 40
0.0580933430999881
  0
CIRCLE
  5
901
330
1E
100
AcDbEntity
  8
OBJECT
100
AcDbCircle
 10
7.803943799854096
 20
16.10767891982613
 30
0.0
 40
0.0580933430999881
  0
CIRCLE
  5
902
330
1E
100
AcDbEntity
  8
OBJECT
100
AcDbCircle
 10
7.803943799854096
 20
16.10767891982613
 30
0.0
 40
0.1305858908999955
  0
CIRCLE
  5
903
330
1E
100
AcDbEntity
  8
HIDDEN
100
AcDbCircle
 10
7.803943799854096
 20
16.10767891982613
 30
0.0
 40
0.1921549040999932
  0
DIMENSION
  5
911
330
1E
100
AcDbEntity
  8
DIM
100
AcDbDimension
  2
*D6
 10
7.803943799854099
 20
21.1710786871684
 30
0.0
 11
5.949673801504101
 21
21.1710786871684
 31
0.0
 70
    32
  3
23NSTD
100
AcDbAlignedDimension
 13
4.095403803154102
 23
20.2745108454261
 33
0.0
 14
7.803943799854099
 24
20.27451084542612
 34
0.0
100
AcDbRotatedDimension
  0
TEXT
  5
912
330
1E
100
AcDbEntity
  8
TEXT
100
AcDbText
 10
6.19168583959788
 20
18.06567431612889
 30
0.0
 40
0.217999999854
  1
0.030 RECESSED SMOOTH
 41
0.75
  7
TXT
100
AcDbText
  0
TEXT
  5
913
330
1E
100
AcDbEntity
  8
TEXT
100
AcDbText
 10
6.388267475228516
 20
18.39628329650183
 30
0.0
 40
0.217999999854
  1
TEXTURED FLUSH OR
 41
0.75
  7
TXT
100
AcDbText
  0
CIRCLE
  5
914
330
1E
100
AcDbEntity
  8
OBJECT
100
AcDbCircle
 10
4.095403803154102
 20
20.2745108454261
 30
0.0
 40
0.0580933430999881
  0
CIRCLE
  5
915
330
1E
100
AcDbEntity
  8
OBJECT
100
AcDbCircle
 10
4.095403803154102
 20
20.2745108454261
 30
0.0
 40
0.1305858908999955
  0
CIRCLE
  5
916
330
1E
100
AcDbEntity
  8
HIDDEN
100
AcDbCircle
 10
4.095403803154102
 20
20.2745108454261
 30
0.0
 40
0.1921549040999932
  0
CIRCLE
  5
917
330
1E
100
AcDbEntity
  8
OBJECT
100
AcDbCircle
 10
7.803943799854099
 20
20.27451084542612
 30
0.0
 40
0.0580933430999881
  0
CIRCLE
  5
918
330
1E
100
AcDbEntity
  8
OBJECT
100
AcDbCircle
 10
7.803943799854099
 20
20.27451084542612
 30
0.0
 40
0.1305858908999955
  0
CIRCLE
  5
919
330
1E
100
AcDbEntity
  8
HIDDEN
100
AcDbCircle
 10
7.803943799854099
 20
20.27451084542612
 30
0.0
 40
0.1921549040999932
  0
DIMENSION
  5
91A
330
1E
100
AcDbEntity
  8
DIM
100
AcDbDimension
  2
*D7
 10
13.89823743035995
 20
21.1710786871684
 30
0.0
 11
12.82362805535995
 21
21.1710786871684
 31
0.0
 70
    32
  1
<>
  3
23NSTD
100
AcDbAlignedDimension
 13
14.02336155395996
 23
20.68910863592612
 33
0.0
 14
13.89823743035995
 24
20.62128910673411
 34
0.0
100
AcDbRotatedDimension
  0
DIMENSION
  5
91B
330
1E
100
AcDbEntity
  8
DIM
100
AcDbDimension
  2
*D8
 10
12.64904465299241
 20
15.69308112932611
 30
0.0
 11
12.64904465299241
 21
18.19109488262612
 31
0.0
 70
    32
  3
23NSTD
100
AcDbAlignedDimension
 13
11.51248379655408
 23
20.68910863592612
 33
0.0
 14
11.51248379655408
 24
15.69308112932612
 34
0.0
 50
90.0
100
AcDbRotatedDimension
  0
LINE
  5
91C
330
1E
100
AcDbEntity
  8
OBJECT
100
AcDbLine
 10
11.28308956995409
 20
20.04511661882613
 30
0.0
 11
11.28308956995409
 21
16.33707314642613
 31
0.0
  0
LINE
  5
91D
330
1E
100
AcDbEntity
  8
OBJECT
100
AcDbLine
 10
11.31387407655408
 20
20.07590112542612
 30
0.0
 11
11.31387407655408
 21
16.30628863982611
 31
0.0
  0
LINE
  5
91E
330
1E
100
AcDbEntity
  8
HIDDEN
100
AcDbLine
 10
11.87246391405411
 20
16.10767891982614
 30
0.0
 11
11.87246391405411
 21
20.27451084542612
 31
0.0
  0
LINE
  5
91F
330
1E
100
AcDbEntity
  8
OBJECT
100
AcDbLine
 10
11.92708158705408
 20
16.10767891982613
 30
0.0
 11
11.9270815870541
 21
20.27451084542612
 31
0.0
  0
LINE
  5
920
330
1E
100
AcDbEntity
  8
HIDDEN
100
AcDbLine
 10
11.7384023530541
 20
16.10767891982613
 30
0.0
 11
11.7384023530541
 21
20.27451084542612
 31
0.0
  0
LINE
  5
921
330
1E
100
AcDbEntity
  8
HIDDEN
100
AcDbLine
 10
11.80096441485409
 20
16.10767891982613
 30
0.0
 11
11.80096441485412
 21
20.27451084542612
 31
0.0
  0
ARC
  5
922
330
1E
100
AcDbEntity
  8
HIDDEN
100
AcDbCircle
 10
11.51248379655408
 20
16.10767891982614
 30
0.0
 40
0.3599801175000042
100
AcDbArc
 50
270.0
 51
0.0
  0
ARC
  5
923
330
1E
100
AcDbEntity
  8
OBJECT
100
AcDbCircle
 10
11.51248379655408
 20
16.10767891982614
 30
0.0
 40
0.4145977905000099
100
AcDbArc
 50
270.0000000000004
 51
359.9999999999997
  0
ARC
  5
924
330
1E
100
AcDbEntity
  8
HIDDEN
100
AcDbCircle
 10
11.51248379655408
 20
16.10767891982614
 30
0.0
 40
0.2884806183000085
100
AcDbArc
 50
270.0
 51
0.0
  0
CIRCLE
  5
935
330
1E
100
AcDbEntity
  8
OBJECT
100
AcDbCircle
 10
11.51248379655408
 20
16.10767891982613
 30
0.0
 40
0.1305858908999955
  0
CIRCLE
  5
936
330
1E
100
AcDbEntity
  8
HIDDEN
100
AcDbCircle
 10
11.51248379655408
 20
16.10767891982613
 30
0.0
 40
0.1921549040999932
  0
CIRCLE
  5
937
330
1E
100
AcDbEntity
  8
OBJECT
100
AcDbCircle
 10
11.51248379655408
 20
16.10767891982613
 30
0.0
 40
0.0580933430999881
  0
ARC
  5
938
330
1E
100
AcDbEntity
  8
HIDDEN
100
AcDbCircle
 10
11.51248379655408
 20
16.10767891982614
 30
0.0
 40
0.2259185565000097
100
AcDbArc
 50
270.0
 51
0.0
  0
ARC
  5
93C
330
1E
100
AcDbEntity
  8
HIDDEN
100
AcDbCircle
 10
11.51248379655408
 20
20.27451084542612
 30
0.0
 40
0.3599801175000042
100
AcDbArc
 50
0.0
 51
90.0
  0
ARC
  5
93D
330
1E
100
AcDbEntity
  8
OBJECT
100
AcDbCircle
 10
11.51248379655408
 20
20.27451084542612
 30
0.0
 40
0.4145977905000028
100
AcDbArc
 50
0.0
 51
89.99999999999939
  0
ARC
  5
93E
330
1E
100
AcDbEntity
  8
HIDDEN
100
AcDbCircle
 10
11.51248379655408
 20
20.27451084542612
 30
0.0
 40
0.2884806183000085
100
AcDbArc
 50
0.0
 51
90.0
  0
CIRCLE
  5
93F
330
1E
100
AcDbEntity
  8
OBJECT
100
AcDbCircle
 10
11.51248379655408
 20
20.27451084542612
 30
0.0
 40
0.1305858908999955
  0
CIRCLE
  5
940
330
1E
100
AcDbEntity
  8
OBJECT
100
AcDbCircle
 10
11.51248379655408
 20
20.27451084542612
 30
0.0
 40
0.0580933430999881
  0
CIRCLE
  5
941
330
1E
100
AcDbEntity
  8
HIDDEN
100
AcDbCircle
 10
11.51248379655408
 20
20.27451084542612
 30
0.0
 40
0.1921549040999932
  0
ARC
  5
942
330
1E
100
AcDbEntity
  8
HIDDEN
100
AcDbCircle
 10
11.51248379655408
 20
20.27451084542612
 30
0.0
 40
0.2259185565000097
100
AcDbArc
 50
0.0
 51
90.0
  0
LINE
  5
943
330
1E
100
AcDbEntity
  8
HIDDEN
100
AcDbLine
 10
13.97172302675996
 20
20.63449096292612
 30
0.0
 11
13.97172302675996
 21
15.74769880232611
 31
0.0
  0
LINE
  5
944
330
1E
100
AcDbEntity
  8
OBJECT
100
AcDbLine
 10
14.14848567755996
 20
20.56299146372612
 30
0.0
 11
14.14848567755996
 21
15.81919830152612
 31
0.0
  0
LINE
  5
945
330
1E
100
AcDbEntity
  8
OBJECT
100
AcDbLine
 10
13.89823743035995
 20
20.62128910673411
 30
0.0
 11
13.89823743035995
 21
15.76090065851813
 31
0.0
  0
LINE
  5
946
330
1E
100
AcDbEntity
  8
OBJECT
100
AcDbLine
 10
14.02336155395996
 20
20.68910863592612
 30
0.0
 11
14.02336155395996
 21
15.69308112932614
 31
0.0
  0
LINE
  5
947
330
1E
100
AcDbEntity
  8
HIDDEN
100
AcDbLine
 10
14.02336155395996
 20
16.30201787362762
 30
0.0
 11
14.14848567755996
 21
16.29983382392612
 31
0.0
  0
LINE
  5
948
330
1E
100
AcDbEntity
  8
OBJECT
100
AcDbLine
 10
14.14848567755996
 20
15.81919830152612
 30
0.0
 11
14.02336155395996
 21
15.81919830152612
 31
0.0
  0
LINE
  5
949
330
1E
100
AcDbEntity
  8
HIDDEN
100
AcDbLine
 10
14.14848567755996
 20
16.04958557672611
 30
0.0
 11
14.03527813715996
 21
16.03968120031547
 31
0.0
  0
LINE
  5
94A
330
1E
100
AcDbEntity
  8
HIDDEN
100
AcDbLine
 10
14.02336155395996
 20
15.91333996602458
 30
0.0
 11
14.14848567755996
 21
15.91552401572611
 31
0.0
  0
LINE
  5
94B
330
1E
100
AcDbEntity
  8
HIDDEN
100
AcDbLine
 10
14.14848567755996
 20
15.88176036332613
 30
0.0
 11
14.02336155395996
 21
15.88176036332613
 31
0.0
  0
LINE
  5
94C
330
1E
100
AcDbEntity
  8
HIDDEN
100
AcDbLine
 10
14.14848567755996
 20
16.1657722629261
 30
0.0
 11
14.03527813715996
 21
16.17567663933677
 31
0.0
  0
LINE
  5
94D
330
1E
100
AcDbEntity
  8
HIDDEN
100
AcDbLine
 10
13.90022352755996
 20
16.26284276357612
 30
0.0
 11
13.90022352755996
 21
15.95251507607612
 31
0.0
  0
LINE
  5
94E
330
1E
100
AcDbEntity
  8
HIDDEN
100
AcDbLine
 10
13.91420933249516
 20
16.24885695864093
 30
0.0
 11
13.91420933249516
 21
15.96650088101132
 31
0.0
  0
LINE
  5
94F
330
1E
100
AcDbEntity
  8
HIDDEN
100
AcDbLine
 10
14.03527813715996
 20
15.97709302892612
 30
0.0
 11
14.03527813715996
 21
16.23826481072612
 31
0.0
  0
ARC
  5
950
330
1E
100
AcDbEntity
  8
OBJECT
100
AcDbCircle
 10
13.96030296785995
 20
15.76090065851813
 30
0.0
 40
0.0620655375
100
AcDbArc
 50
180.0
 51
265.0
  0
LINE
  5
951
330
1E
100
AcDbEntity
  8
HIDDEN
100
AcDbLine
 10
13.91420933249516
 20
15.96650088101132
 30
0.0
 11
13.90022352755996
 21
15.95251507607612
 31
0.0
  0
LINE
  5
952
330
1E
100
AcDbEntity
  8
HIDDEN
100
AcDbLine
 10
13.89823743035995
 20
15.95251507607612
 30
0.0
 11
13.90022352755996
 21
15.95251507607612
 31
0.0
  0
LINE
  5
953
330
1E
100
AcDbEntity
  8
HIDDEN
100
AcDbLine
 10
14.02336155395996
 20
15.74769880232611
 30
0.0
 11
13.97172302675996
 21
15.74769880232611
 31
0.0
  0
LINE
  5
954
330
1E
100
AcDbEntity
  8
HIDDEN
100
AcDbLine
 10
14.02336155395996
 20
15.81919830152612
 30
0.0
 11
13.97172302675996
 21
15.81919830152612
 31
0.0
  0
LINE
  5
955
330
1E
100
AcDbEntity
  8
OBJECT
100
AcDbLine
 10
14.02336155395996
 20
15.69308112932612
 30
0.0
 11
13.95489359984011
 21
15.69907129912642
 31
0.0
  0
LINE
  5
956
330
1E
100
AcDbEntity
  8
HIDDEN
100
AcDbLine
 10
13.91420933249513
 20
15.96650088101132
 30
0.0
 11
14.03527813715996
 21
15.97709302892612
 31
0.0
  0
LINE
  5
957
330
1E
100
AcDbEntity
  8
HIDDEN
100
AcDbLine
 10
13.90022352755996
 20
16.26284276357612
 30
0.0
 11
13.91420933249516
 21
16.24885695864093
 31
0.0
  0
LINE
  5
958
330
1E
100
AcDbEntity
  8
HIDDEN
100
AcDbLine
 10
13.89823743035995
 20
16.26284276357612
 30
0.0
 11
13.90022352755996
 21
16.26284276357612
 31
0.0
  0
LINE
  5
959
330
1E
100
AcDbEntity
  8
HIDDEN
100
AcDbLine
 10
13.91420933249516
 20
16.24885695864093
 30
0.0
 11
14.03527813715996
 21
16.23826481072612
 31
0.0
  0
DIMENSION
  5
95A
330
1E
100
AcDbEntity
  8
DIM
100
AcDbDimension
  2
*D9
 10
14.14848567755996
 20
21.6905058694022
 30
0.0
 11
15.22309505255996
 21
21.6905058694022
 31
0.0
 70
    32
  3
23NSTD
100
AcDbAlignedDimension
 13
14.02336155395996
 23
20.68910863592612
 33
0.0
 14
14.14848567755996
 24
20.56299146372612
 34
0.0
100
AcDbRotatedDimension
  0
LINE
  5
95B
330
1E
100
AcDbEntity
  8
OBJECT
100
AcDbLine
 10
14.14848567755996
 20
20.56299146372612
 30
0.0
 11
14.02336155395996
 21
20.56299146372612
 31
0.0
  0
LINE
  5
95C
330
1E
100
AcDbEntity
  8
HIDDEN
100
AcDbLine
 10
14.14848567755996
 20
20.50042940192612
 30
0.0
 11
14.02336155395996
 21
20.50042940192612
 31
0.0
  0
LINE
  5
95D
330
1E
100
AcDbEntity
  8
HIDDEN
100
AcDbLine
 10
14.02336155395996
 20
20.46884979922765
 30
0.0
 11
14.14848567755996
 21
20.46666574952612
 31
0.0
  0
LINE
  5
95E
330
1E
100
AcDbEntity
  8
HIDDEN
100
AcDbLine
 10
14.14848567755996
 20
20.33260418852611
 30
0.0
 11
14.03527813715996
 21
20.34250856493676
 31
0.0
  0
LINE
  5
95F
330
1E
100
AcDbEntity
  8
HIDDEN
100
AcDbLine
 10
14.02336155395996
 20
20.0801718916246
 30
0.0
 11
14.14848567755996
 21
20.08235594132611
 31
0.0
  0
LINE
  5
960
330
1E
100
AcDbEntity
  8
HIDDEN
100
AcDbLine
 10
14.14848567755996
 20
20.21641750232612
 30
0.0
 11
14.03527813715996
 21
20.20651312591547
 31
0.0
  0
LINE
  5
961
330
1E
100
AcDbEntity
  8
HIDDEN
100
AcDbLine
 10
13.91420933249516
 20
20.1333328066113
 30
0.0
 11
13.91420933249516
 21
20.41568888424092
 31
0.0
  0
LINE
  5
962
330
1E
100
AcDbEntity
  8
HIDDEN
100
AcDbLine
 10
13.90022352755996
 20
20.11934700167612
 30
0.0
 11
13.90022352755996
 21
20.42967468917612
 31
0.0
  0
LINE
  5
963
330
1E
100
AcDbEntity
  8
HIDDEN
100
AcDbLine
 10
14.03527813715996
 20
20.40509673632612
 30
0.0
 11
14.03527813715996
 21
20.14392495452612
 31
0.0
  0
LINE
  5
964
330
1E
100
AcDbEntity
  8
HIDDEN
100
AcDbLine
 10
13.90022352755996
 20
20.11934700167612
 30
0.0
 11
13.91420933249516
 21
20.1333328066113
 31
0.0
  0
LINE
  5
965
330
1E
100
AcDbEntity
  8
HIDDEN
100
AcDbLine
 10
13.89823743035995
 20
20.11934700167612
 30
0.0
 11
13.90022352755996
 21
20.11934700167612
 31
0.0
  0
LINE
  5
966
330
1E
100
AcDbEntity
  8
HIDDEN
100
AcDbLine
 10
13.91420933249516
 20
20.1333328066113
 30
0.0
 11
14.03527813715996
 21
20.14392495452612
 31
0.0
  0
ARC
  5
967
330
1E
100
AcDbEntity
  8
OBJECT
100
AcDbCircle
 10
13.96030296785995
 20
20.62128910673411
 30
0.0
 40
0.0620655375
100
AcDbArc
 50
95.0
 51
180.0000000000002
  0
LINE
  5
968
330
1E
100
AcDbEntity
  8
HIDDEN
100
AcDbLine
 10
13.91420933249516
 20
20.41568888424092
 30
0.0
 11
13.90022352755996
 21
20.42967468917612
 31
0.0
  0
LINE
  5
969
330
1E
100
AcDbEntity
  8
HIDDEN
100
AcDbLine
 10
13.89823743035995
 20
20.42967468917612
 30
0.0
 11
13.90022352755996
 21
20.42967468917612
 31
0.0
  0
LINE
  5
96A
330
1E
100
AcDbEntity
  8
HIDDEN
100
AcDbLine
 10
14.02336155395996
 20
20.63449096292612
 30
0.0
 11
13.97172302675996
 21
20.63449096292612
 31
0.0
  0
LINE
  5
96B
330
1E
100
AcDbEntity
  8
HIDDEN
100
AcDbLine
 10
14.02336155395996
 20
20.56299146372612
 30
0.0
 11
13.97172302675996
 21
20.56299146372612
 31
0.0
  0
LINE
  5
96C
330
1E
100
AcDbEntity
  8
OBJECT
100
AcDbLine
 10
14.02336155395996
 20
20.68910863592612
 30
0.0
 11
13.95489359984011
 21
20.68311846612583
 31
0.0
  0
LINE
  5
96D
330
1E
100
AcDbEntity
  8
HIDDEN
100
AcDbLine
 10
13.91420933249513
 20
20.41568888424092
 30
0.0
 11
14.03527813715996
 21
20.40509673632612
 31
0.0
  0
DIMENSION
  5
A51
330
1E
100
AcDbEntity
  8
DIM
100
AcDbDimension
  2
*D10
 10
12.48970452695499
 20
14.75102729087811
 30
0.0
 11
7.802018610655014
 21
14.75102729087811
 31
0.0
 70
   160
  3
23NSTD
100
AcDbAlignedDimension
 13
3.114332694355027
 23
12.79541109352739
 33
0.0
 14
12.48970452695499
 24
12.79541109352739
 34
0.0
100
AcDbRotatedDimension
  0
DIMENSION
  5
A52
330
1E
100
AcDbEntity
  8
DIM
100
AcDbDimension
  2
*D11
 10
11.510558607355
 20
14.22349122599804
 30
0.0
 11
9.656288609005009
 21
14.22349122599804
 31
0.0
 70
    32
  3
23NSTD
100
AcDbAlignedDimension
 13
7.802018610655012
 23
13.15669680038687
 33
0.0
 14
11.510558607355
 24
13.15669680038687
 34
0.0
100
AcDbRotatedDimension
  0
DIMENSION
  5
A53
330
1E
100
AcDbEntity
  8
DIM
100
AcDbDimension
  2
*D12
 10
12.239456279755
 20
7.101966024755255
 30
0.0
 11
7.802018610655006
 21
7.101966024755255
 31
0.0
 70
    32
  3
23NSTD
100
AcDbAlignedDimension
 13
3.364580941555003
 23
9.386091266186888
 33
0.0
 14
12.239456279755
 24
9.386091266186888
 34
0.0
100
AcDbRotatedDimension
  0
DIMENSION
  5
A54
330
1E
100
AcDbEntity
  8
DIM
100
AcDbDimension
  2
*D13
 10
11.17689427775501
 20
7.593448386632994
 30
0.0
 11
9.676894367455012
 21
7.593448386632994
 31
0.0
 70
    32
  3
23NSTD
100
AcDbAlignedDimension
 13
8.176894457155007
 23
9.323529204386886
 33
0.0
 14
11.17689427775501
 24
9.323529204386886
 34
0.0
100
AcDbRotatedDimension
  0
DIMENSION
  5
A55
330
1E
100
AcDbEntity
  8
DIM
100
AcDbDimension
  2
*D14
 10
11.927142495055
 20
6.661741279664589
 30
0.0
 11
7.802018610655006
 21
6.661741279664589
 31
0.0
 70
   160
  3
23NSTD
100
AcDbAlignedDimension
 13
3.676894726255013
 23
5.332381176903759
 33
0.0
 14
11.927142495055
 24
5.332381176903759
 34
0.0
100
AcDbRotatedDimension
  0
LINE
  5
A56
330
1E
100
AcDbEntity
  8
OBJECT
100
AcDbLine
 10
11.510558607355
 20
8.497999717564095
 30
0.0
 11
4.093478613955014
 21
8.497999717564088
 31
0.0
  0
LINE
  5
A57
330
1E
100
AcDbEntity
  8
OBJECT
100
AcDbLine
 10
11.510558607355
 20
13.64856195760969
 30
0.0
 11
4.093478613955014
 21
13.64856195760969
 31
0.0
  0
LINE
  5
A58
330
1E
100
AcDbEntity
  8
OBJECT
100
AcDbLine
 10
3.676894726255014
 20
5.332381176903759
 30
0.0
 11
11.927142495055
 21
5.332381176903759
 31
0.0
  0
LINE
  5
A59
330
1E
100
AcDbEntity
  8
OBJECT
100
AcDbLine
 10
11.510558607355
 20
8.573280987086889
 30
0.0
 11
4.093478613955014
 21
8.573280987086889
 31
0.0
  0
LINE
  5
A5A
330
1E
100
AcDbEntity
  8
OBJECT
100
AcDbLine
 10
11.510558607355
 20
13.57328068808689
 30
0.0
 11
4.093478613955014
 21
13.57328068808688
 31
0.0
  0
LINE
  5
A5B
330
1E
100
AcDbEntity
  8
OBJECT
100
AcDbLine
 10
11.510558607355
 20
13.42293791130666
 30
0.0
 11
7.848138255420693
 21
13.42293791130666
 31
0.0
  0
LINE
  5
A5C
330
1E
100
AcDbEntity
  8
OBJECT
100
AcDbLine
 10
11.510558607355
 20
8.723623763867108
 30
0.0
 11
7.848138255420721
 21
8.723623763867108
 31
0.0
  0
LINE
  5
A5D
330
1E
100
AcDbEntity
  8
OBJECT
100
AcDbLine
 10
3.72574453173221
 20
2.332381356303759
 30
0.0
 11
11.8782926895778
 21
2.332381356303756
 31
0.0
  0
LINE
  5
A5E
330
1E
100
AcDbEntity
  8
OBJECT
100
AcDbLine
 10
3.601613456732209
 20
2.457505479903757
 30
0.0
 11
12.0024237645778
 21
2.457505479903757
 31
0.0
  0
LINE
  5
A5F
330
1E
100
AcDbEntity
  8
HIDDEN
100
AcDbLine
 10
3.888763766150582
 20
2.442609750903756
 30
0.0
 11
11.71527345515943
 21
2.442609750903756
 31
0.0
  0
LINE
  5
A60
330
1E
100
AcDbEntity
  8
OBJECT
100
AcDbLine
 10
11.510558607355
 20
8.698405110686893
 30
0.0
 11
4.093478613955014
 21
8.698405110686893
 31
0.0
  0
LINE
  5
A61
330
1E
100
AcDbEntity
  8
OBJECT
100
AcDbLine
 10
11.510558607355
 20
13.44815656448688
 30
0.0
 11
4.093478613955014
 21
13.44815656448689
 31
0.0
  0
LINE
  5
A62
330
1E
100
AcDbEntity
  8
CENTER
100
AcDbLine
 10
3.014332694355029
 20
11.07328083758688
 30
0.0
 11
5.742529505108549
 21
11.07328083758688
 31
0.0
  0
DIMENSION
  5
A63
330
1E
100
AcDbEntity
  8
DIM
100
AcDbDimension
  2
*D15
 10
7.802018610655012
 20
14.22349122599805
 30
0.0
 11
5.947748612305012
 21
14.22349122599805
 31
0.0
 70
    32
  3
23NSTD
100
AcDbAlignedDimension
 13
4.093478613955014
 23
13.15669680038687
 33
0.0
 14
7.802018610655012
 24
13.15669680038687
 34
0.0
100
AcDbRotatedDimension
  0
DIMENSION
  5
A67
330
1E
100
AcDbEntity
  8
DIM
100
AcDbDimension
  2
*D16
 10
4.427142943555026
 20
7.593448386632991
 30
0.0
 11
5.92714285385502
 21
7.593448386632991
 31
0.0
 70
    32
  3
23NSTD
100
AcDbAlignedDimension
 13
7.427142764155014
 23
9.323529204386886
 33
0.0
 14
4.427142943555026
 24
9.323529204386886
 34
0.0
100
AcDbRotatedDimension
  0
DIMENSION
  5
A68
330
1E
100
AcDbEntity
  8
DIM
100
AcDbDimension
  2
*D17
 10
5.013529256997301
 20
2.692857998103751
 30
0.0
 11
6.224310506997301
 21
3.322857998103752
 31
0.0
 70
    32
  1
<> (TYP)
  3
23NSTD
100
AcDbAlignedDimension
 13
4.878508498194662
 23
2.442609750903756
 33
0.0
 14
4.52098603625501
 24
2.692857998103752
 34
0.0
 50
90.0
100
AcDbRotatedDimension
  0
LINE
  5
A69
330
1E
100
AcDbEntity
  8
OBJECT
100
AcDbLine
 10
7.755898965889301
 20
13.42293791130666
 30
0.0
 11
4.093478613955014
 21
13.42293791130666
 31
0.0
  0
LINE
  5
A6A
330
1E
100
AcDbEntity
  8
OBJECT
100
AcDbLine
 10
7.755898965889301
 20
8.723623763867108
 30
0.0
 11
4.093478613955014
 21
8.723623763867108
 31
0.0
  0
LINE
  5
A6B
330
1E
100
AcDbEntity
  8
OBJECT
100
AcDbLine
 10
3.601613456732209
 20
2.457505479903757
 30
0.0
 11
3.676894726255014
 21
5.332381176903759
 31
0.0
  0
LINE
  5
A6C
330
1E
100
AcDbEntity
  8
HIDDEN
100
AcDbLine
 10
3.80201884985502
 20
5.33238117690375
 30
0.0
 11
3.826700591916058
 21
2.50413367128754
 31
0.0
  0
LINE
  5
A6E
330
1E
100
AcDbEntity
  8
BEND
 48
0.5
100
AcDbLine
 10
3.72574453173221
 20
2.332381356303756
 30
0.0
 11
3.238463769355025
 21
2.332381356303756
 31
0.0
  0
LINE
  5
A6F
330
1E
100
AcDbEntity
  8
BEND
 48
0.5
100
AcDbLine
 10
3.601613456732209
 20
2.457505479903757
 30
0.0
 11
3.114332694355027
 21
2.457505479903757
 31
0.0
  0
ARC
  5
A70
330
1E
100
AcDbEntity
  8
BEND
 48
0.5
100
AcDbCircle
 10
3.238463769355025
 20
2.456512431303757
 30
0.0
 40
0.124131075
100
AcDbArc
 50
180.0
 51
270.0
  0
LINE
  5
A71
330
1E
100
AcDbEntity
  8
HIDDEN
100
AcDbLine
 10
3.259790906506388
 20
2.332381356303759
 30
0.0
 11
3.270737848855024
 21
2.457505479903758
 31
0.0
  0
LINE
  5
A72
330
1E
100
AcDbEntity
  8
HIDDEN
100
AcDbLine
 10
3.46937097660362
 20
2.332381356303756
 30
0.0
 11
3.458424034255017
 21
2.457505479903757
 31
0.0
  0
LINE
  5
A73
330
1E
100
AcDbEntity
  8
HIDDEN
100
AcDbLine
 10
3.917709011755022
 20
2.442609750903756
 30
0.0
 11
3.938314770205014
 21
4.423932678788137
 31
0.0
  0
LINE
  5
A74
330
1E
100
AcDbEntity
  8
HIDDEN
100
AcDbLine
 10
4.269248216155034
 20
2.442609750903756
 30
0.0
 11
4.248642457705017
 21
4.423932678788137
 31
0.0
  0
ARC
  5
A75
330
1E
100
AcDbEntity
  8
HIDDEN
100
AcDbCircle
 10
3.888763766150582
 20
2.504675288403758
 30
0.0
 40
0.0620655375
100
AcDbArc
 50
180.4999999999999
 51
270.0
  0
ARC
  5
A76
330
1E
100
AcDbEntity
  8
OBJECT
100
AcDbCircle
 10
3.72574453173221
 20
2.456512431303757
 30
0.0
 40
0.124131075
100
AcDbArc
 50
180.0
 51
270.0
  0
LINE
  5
A77
330
1E
100
AcDbEntity
  8
0
 62
    14
100
AcDbLine
 10
3.601613456732209
 20
2.457505479903757
 30
0.0
 11
3.601613456732209
 21
2.456512431303757
 31
0.0
  0
LINE
  5
A78
330
1E
100
AcDbEntity
  8
HIDDEN
100
AcDbLine
 10
4.52098603625501
 20
2.692857998103752
 30
0.0
 11
4.525354135658062
 21
2.442609750903754
 31
0.0
  0
LINE
  5
A7A
330
1E
100
AcDbEntity
  8
HIDDEN
100
AcDbLine
 10
4.32893175145196
 20
2.442609750903748
 30
0.0
 11
4.333299850855016
 21
2.692857998103752
 31
0.0
  0
LINE
  5
A7B
330
1E
100
AcDbEntity
  8
HIDDEN
100
AcDbLine
 10
4.381959232255024
 20
2.692857998103752
 30
0.0
 11
4.384143115623203
 21
2.442609750903756
 31
0.0
  0
LINE
  5
A7C
330
1E
100
AcDbEntity
  8
HIDDEN
100
AcDbLine
 10
4.472326654855031
 20
2.692857998103752
 30
0.0
 11
4.470142771486848
 21
2.442609750903756
 31
0.0
  0
LINE
  5
A7D
330
1E
100
AcDbEntity
  8
HIDDEN
100
AcDbLine
 10
4.333299850855016
 20
2.692857998103752
 30
0.0
 11
4.52098603625501
 21
2.692857998103752
 31
0.0
  0
LINE
  5
A7E
330
1E
100
AcDbEntity
  8
HIDDEN
100
AcDbLine
 10
3.938314770205014
 20
5.205270956103751
 30
0.0
 11
4.248642457705017
 21
5.205270956103751
 31
0.0
  0
LINE
  5
A7F
330
1E
100
AcDbEntity
  8
HIDDEN
100
AcDbLine
 10
3.811880989827216
 20
4.202291870103755
 30
0.0
 11
3.93600970579471
 21
4.202291870103755
 31
0.0
  0
LINE
  5
A80
330
1E
100
AcDbEntity
  8
HIDDEN
100
AcDbLine
 10
3.938314770205014
 20
4.423932678788137
 30
0.0
 11
3.938314770205014
 21
5.205270956103753
 31
0.0
  0
LINE
  5
A81
330
1E
100
AcDbEntity
  8
HIDDEN
100
AcDbLine
 10
4.134294558518654
 20
4.70477446170377
 30
0.0
 11
4.138662325255019
 21
5.205270956103774
 31
0.0
  0
LINE
  5
A82
330
1E
100
AcDbEntity
  8
HIDDEN
100
AcDbLine
 10
4.052662669391402
 20
4.70477446170377
 30
0.0
 11
4.048294902655008
 21
5.205270956103774
 31
0.0
  0
LINE
  5
A83
330
1E
100
AcDbEntity
  8
HIDDEN
100
AcDbLine
 10
4.134294558518654
 20
4.70477446170377
 30
0.0
 11
4.052662669391402
 21
4.70477446170377
 31
0.0
  0
LINE
  5
A84
330
1E
100
AcDbEntity
  8
HIDDEN
100
AcDbLine
 10
4.248642457705017
 20
4.423932678788137
 30
0.0
 11
4.248642457705017
 21
5.205270956103753
 31
0.0
  0
DIMENSION
  5
A85
330
1E
100
AcDbEntity
  8
DIM
100
AcDbDimension
  2
*D18
 10
1.826304965147613
 20
8.989864874786904
 30
0.0
 11
1.826304965147612
 21
10.84984858297999
 31
0.0
 70
   160
  3
23NSTD
100
AcDbAlignedDimension
 13
4.093478613955014
 23
13.15669680038687
 33
0.0
 14
4.093478613955014
 24
8.989864874786903
 34
0.0
 50
90.0
100
AcDbRotatedDimension
  0
DIMENSION
  5
A86
330
1E
100
AcDbEntity
  8
DIM
100
AcDbDimension
  2
*D19
 10
2.542911354261094
 20
9.386091266186888
 30
0.0
 11
2.542911354261093
 21
11.28409371392785
 31
0.0
 70
   160
  3
23NSTD
100
AcDbAlignedDimension
 13
3.364580941555003
 23
12.76047040898688
 33
0.0
 14
3.364580941555003
 24
9.386091266186888
 34
0.0
 50
90.0
100
AcDbRotatedDimension
  0
LINE
  5
A87
330
1E
100
AcDbEntity
  8
OBJECT
100
AcDbLine
 10
3.601613456732209
 20
8.989864874786903
 30
0.0
 11
3.601613456732209
 21
13.15669680038688
 31
0.0
  0
LINE
  5
A88
330
1E
100
AcDbEntity
  8
BEND
100
AcDbLine
 10
3.114332694355027
 20
9.351150581646376
 30
0.0
 11
3.114332694355027
 21
12.79541109352739
 31
0.0
  0
LINE
  5
A89
330
1E
100
AcDbEntity
  8
OBJECT
100
AcDbLine
 10
3.676894726255014
 20
8.989864874786903
 30
0.0
 11
3.676894726255014
 21
13.15669680038688
 31
0.0
  0
LINE
  5
A8A
330
1E
100
AcDbEntity
  8
OBJECT
100
AcDbLine
 10
3.82723750303522
 20
8.989864874786903
 30
0.0
 11
3.82723750303522
 21
13.15669680038688
 31
0.0
  0
LINE
  5
A8B
330
1E
100
AcDbEntity
  8
OBJECT
100
AcDbLine
 10
3.80201884985502
 20
8.989864874786903
 30
0.0
 11
3.80201884985502
 21
13.15669680038688
 31
0.0
  0
LINE
  5
A8D
330
1E
100
AcDbEntity
  8
BEND
 48
0.5
100
AcDbLine
 10
3.745677425853397
 20
8.642063686685254
 30
0.0
 11
3.169304705323639
 21
9.218436407214994
 31
0.0
  0
ARC
  5
A8E
330
1E
100
AcDbEntity
  8
OBJECT
100
AcDbCircle
 10
4.093478613955014
 20
8.989864874786903
 30
0.0
 40
0.4918651572228089
100
AcDbArc
 50
180.0000000000002
 51
270.0
  0
ARC
  5
A8F
330
1E
100
AcDbEntity
  8
BEND
 48
0.5
100
AcDbCircle
 10
3.302018879755017
 20
9.351150581646376
 30
0.0
 40
0.1876861853999999
100
AcDbArc
 50
180.0
 51
225.0
  0
CIRCLE
  5
A90
330
1E
100
AcDbEntity
  8
BEND
 48
0.5
100
AcDbCircle
 10
3.364580941555004
 20
9.386091266186888
 30
0.0
 40
0.0938430927
  0
CIRCLE
  5
A91
330
1E
100
AcDbEntity
  8
OBJECT
100
AcDbCircle
 10
4.093478613955014
 20
8.989864874786903
 30
0.0
 40
0.15516384375
  0
ARC
  5
A92
330
1E
100
AcDbEntity
  8
OBJECT
100
AcDbCircle
 10
4.093478613955014
 20
8.989864874786903
 30
0.0
 40
0.1757696022000066
100
AcDbArc
 50
240.2117408675211
 51
209.78825913248
  0
ARC
  5
A93
330
1E
100
AcDbEntity
  8
OBJECT
100
AcDbCircle
 10
4.093478613955014
 20
8.989864874786903
 30
0.0
 40
0.4165838877000064
100
AcDbArc
 50
180.0000000000002
 51
270.0
  0
LINE
  5
A94
330
1E
100
AcDbEntity
  8
OBJECT
100
AcDbLine
 10
4.006258400889912
 20
8.858757699277568
 30
0.0
 11
3.917515312602454
 21
8.770014610990111
 31
0.0
  0
LINE
  5
A95
330
1E
100
AcDbEntity
  8
OBJECT
100
AcDbLine
 10
3.940675312154123
 20
8.771838545866517
 30
0.0
 11
4.006156955655903
 21
8.837320189368297
 31
0.0
  0
ARC
  5
A96
330
1E
100
AcDbEntity
  8
OBJECT
100
AcDbCircle
 10
4.093478613955014
 20
8.989864874786903
 30
0.0
 40
0.2815976241278121
100
AcDbArc
 50
218.6730097191915
 51
231.326990280809
  0
ARC
  5
A97
330
1E
100
AcDbEntity
  8
OBJECT
100
AcDbCircle
 10
4.093478613955014
 20
8.989864874786903
 30
0.0
 40
0.2914597641000051
100
AcDbArc
 50
180.0000000000003
 51
270.0
  0
ARC
  5
A98
330
1E
100
AcDbEntity
  8
OBJECT
100
AcDbCircle
 10
4.093478613955014
 20
8.989864874786903
 30
0.0
 40
0.2662411109197905
100
AcDbArc
 50
234.9753867889631
 51
270.0
  0
LINE
  5
A99
330
1E
100
AcDbEntity
  8
OBJECT
100
AcDbLine
 10
3.940675312154038
 20
8.771838545866447
 30
0.0
 11
3.917515312602425
 21
8.770014610990083
 31
0.0
  0
ARC
  5
A9A
330
1E
100
AcDbEntity
  8
OBJECT
100
AcDbCircle
 10
4.093478613955014
 20
8.989864874786903
 30
0.0
 40
0.2662411109197905
100
AcDbArc
 50
180.0000000000004
 51
215.024613211035
  0
LINE
  5
A9B
330
1E
100
AcDbEntity
  8
OBJECT
100
AcDbLine
 10
3.87362835015821
 20
8.813901573434321
 30
0.0
 11
3.875452285034555
 21
8.837061572985932
 31
0.0
  0
LINE
  5
A9C
330
1E
100
AcDbEntity
  8
OBJECT
100
AcDbLine
 10
3.962371438445554
 20
8.902644661721678
 30
0.0
 11
3.940933928536445
 21
8.902543216487822
 31
0.0
  0
LINE
  5
A9D
330
1E
100
AcDbEntity
  8
OBJECT
100
AcDbLine
 10
4.006258400889798
 20
8.858757699277447
 30
0.0
 11
4.006156955655931
 21
8.837320189368339
 31
0.0
  0
ARC
  5
A9E
330
1E
100
AcDbEntity
  8
OBJECT
100
AcDbCircle
 10
4.093478613955014
 20
8.989864874786903
 30
0.0
 40
0.1574689081603366
100
AcDbArc
 50
213.6341896350224
 51
236.3658103649788
  0
LINE
  5
A9F
330
1E
100
AcDbEntity
  8
OBJECT
100
AcDbLine
 10
3.962371438445693
 20
8.902644661721806
 30
0.0
 11
3.87362835015821
 21
8.813901573434343
 31
0.0
  0
LINE
  5
AA0
330
1E
100
AcDbEntity
  8
OBJECT
100
AcDbLine
 10
3.87545228503464
 20
8.837061572986002
 30
0.0
 11
3.940933928536416
 21
8.902543216487782
 31
0.0
  0
CIRCLE
  5
AA1
330
1E
100
AcDbEntity
  8
OBJECT
100
AcDbCircle
 10
4.093478613955014
 20
8.989864874786903
 30
0.0
 40
0.0451837113
  0
CIRCLE
  5
AA2
330
1E
100
AcDbEntity
  8
OBJECT
100
AcDbCircle
 10
4.427142943555026
 20
9.323529204386886
 30
0.0
 40
0.0938430927
  0
CIRCLE
  5
AA3
330
1E
100
AcDbEntity
  8
OBJECT
100
AcDbCircle
 10
4.427142943555026
 20
9.323529204386886
 30
0.0
 40
0.0451837113000005
  0
LINE
  5
AA4
330
1E
100
AcDbEntity
  8
BEND
 48
0.5
100
AcDbLine
 10
3.745677425853397
 20
13.50449798848851
 30
0.0
 11
3.169304705323639
 21
12.92812526795877
 31
0.0
  0
ARC
  5
AA5
330
1E
100
AcDbEntity
  8
OBJECT
100
AcDbCircle
 10
4.093478613955014
 20
13.15669680038688
 30
0.0
 40
0.4918651572228019
100
AcDbArc
 50
90.0
 51
180.0
  0
TEXT
  5
AA6
330
1E
100
AcDbEntity
  8
CENTER
100
AcDbText
 10
2.992152243055652
 20
10.93809706534556
 30
0.0
 40
0.125
  1
L
100
AcDbText
  0
TEXT
  5
AA7
330
1E
100
AcDbEntity
  8
CENTER
100
AcDbText
 10
2.945167403585383
 20
11.00326442678199
 30
0.0
 40
0.125
  1
C
100
AcDbText
  0
ARC
  5
AA8
330
1E
100
AcDbEntity
  8
BEND
 48
0.5
100
AcDbCircle
 10
3.302018879755017
 20
12.79541109352739
 30
0.0
 40
0.1876861853999999
100
AcDbArc
 50
135.0
 51
180.0
  0
CIRCLE
  5
AA9
330
1E
100
AcDbEntity
  8
BEND
 48
0.5
100
AcDbCircle
 10
3.364580941555004
 20
12.76047040898688
 30
0.0
 40
0.0938430927
  0
ARC
  5
AAA
330
1E
100
AcDbEntity
  8
OBJECT
100
AcDbCircle
 10
4.093478613955014
 20
13.15669680038687
 30
0.0
 40
0.1757696022000066
100
AcDbArc
 50
150.2117408675198
 51
119.7882591324789
  0
CIRCLE
  5
AAB
330
1E
100
AcDbEntity
  8
OBJECT
100
AcDbCircle
 10
4.093478613955014
 20
13.15669680038687
 30
0.0
 40
0.15516384375
  0
ARC
  5
AAC
330
1E
100
AcDbEntity
  8
OBJECT
100
AcDbCircle
 10
4.093478613955014
 20
13.15669680038688
 30
0.0
 40
0.4165838876999958
100
AcDbArc
 50
90.0
 51
180.0
  0
ARC
  5
AAD
330
1E
100
AcDbEntity
  8
OBJECT
100
AcDbCircle
 10
4.093478613955014
 20
13.15669680038688
 30
0.0
 40
0.2662411109197799
100
AcDbArc
 50
144.9753867889632
 51
180.0
  0
ARC
  5
AAE
330
1E
100
AcDbEntity
  8
OBJECT
100
AcDbCircle
 10
4.093478613955014
 20
13.15669680038688
 30
0.0
 40
0.2914597641000016
100
AcDbArc
 50
90.0
 51
180.0
  0
ARC
  5
AAF
330
1E
100
AcDbEntity
  8
OBJECT
100
AcDbCircle
 10
4.093478613955014
 20
13.15669680038688
 30
0.0
 40
0.2662411109197799
100
AcDbArc
 50
90.0
 51
125.0246132110431
  0
LINE
  5
AB0
330
1E
100
AcDbEntity
  8
OBJECT
100
AcDbLine
 10
3.940675312154038
 20
13.37472312930731
 30
0.0
 11
3.917515312602425
 21
13.37654706418369
 31
0.0
  0
LINE
  5
AB1
330
1E
100
AcDbEntity
  8
OBJECT
100
AcDbLine
 10
3.940675312154038
 20
13.37472312930731
 30
0.0
 11
4.006156955655903
 21
13.30924148580546
 31
0.0
  0
LINE
  5
AB2
330
1E
100
AcDbEntity
  8
OBJECT
100
AcDbLine
 10
4.006258400889912
 20
13.28780397589619
 30
0.0
 11
3.917515312602454
 21
13.37654706418366
 31
0.0
  0
ARC
  5
AB3
330
1E
100
AcDbEntity
  8
0
 62
    14
100
AcDbCircle
 10
4.093478613955014
 20
13.15669680038687
 30
0.0
 40
0.1574689081603366
100
AcDbArc
 50
123.634189635021
 51
146.3658103649773
  0
LINE
  5
AB4
330
1E
100
AcDbEntity
  8
OBJECT
100
AcDbLine
 10
4.006258400889798
 20
13.28780397589631
 30
0.0
 11
4.006156955655931
 21
13.30924148580543
 31
0.0
  0
LINE
  5
AB5
330
1E
100
AcDbEntity
  8
OBJECT
100
AcDbLine
 10
3.962371438445554
 20
13.24391701345208
 30
0.0
 11
3.940933928536445
 21
13.24401845868593
 31
0.0
  0
LINE
  5
AB6
330
1E
100
AcDbEntity
  8
OBJECT
100
AcDbLine
 10
3.87362835015821
 20
13.33266010173945
 30
0.0
 11
3.875452285034555
 21
13.30950010218784
 31
0.0
  0
LINE
  5
AB7
330
1E
100
AcDbEntity
  8
OBJECT
100
AcDbLine
 10
3.875452285034555
 20
13.30950010218784
 30
0.0
 11
3.940933928536416
 21
13.24401845868599
 31
0.0
  0
ARC
  5
AB8
330
1E
100
AcDbEntity
  8
OBJECT
100
AcDbCircle
 10
4.093478613955014
 20
13.15669680038687
 30
0.0
 40
0.2815976241278121
100
AcDbArc
 50
128.6730097191908
 51
141.3269902808083
  0
LINE
  5
AB9
330
1E
100
AcDbEntity
  8
OBJECT
100
AcDbLine
 10
3.962371438445693
 20
13.24391701345196
 30
0.0
 11
3.87362835015821
 21
13.33266010173943
 31
0.0
  0
CIRCLE
  5
ABA
330
1E
100
AcDbEntity
  8
OBJECT
100
AcDbCircle
 10
4.093478613955014
 20
13.15669680038687
 30
0.0
 40
0.0451837113
  0
CIRCLE
  5
ABB
330
1E
100
AcDbEntity
  8
OBJECT
100
AcDbCircle
 10
4.427142943555026
 20
12.82303247078689
 30
0.0
 40
0.0938430927
  0
CIRCLE
  5
ABC
330
1E
100
AcDbEntity
  8
OBJECT
100
AcDbCircle
 10
4.427142943555026
 20
12.82303247078689
 30
0.0
 40
0.0451837113000005
  0
LINE
  5
ABD
330
1E
100
AcDbEntity
  8
HIDDEN
100
AcDbLine
 10
7.333299671455002
 20
2.692857998103752
 30
0.0
 11
7.520985856855023
 21
2.692857998103752
 31
0.0
  0
LINE
  5
ABE
330
1E
100
AcDbEntity
  8
HIDDEN
100
AcDbLine
 10
7.47232647545502
 20
2.692857998103752
 30
0.0
 11
7.470142592086837
 21
2.442609750903756
 31
0.0
  0
LINE
  5
AC0
330
1E
100
AcDbEntity
  8
HIDDEN
100
AcDbLine
 10
7.328931572051949
 20
2.442609750903748
 30
0.0
 11
7.333299671455002
 21
2.692857998103752
 31
0.0
  0
LINE
  5
AC1
330
1E
100
AcDbEntity
  8
HIDDEN
100
AcDbLine
 10
7.381959052855009
 20
2.692857998103752
 30
0.0
 11
7.384142936223192
 21
2.442609750903756
 31
0.0
  0
LINE
  5
AC2
330
1E
100
AcDbEntity
  8
HIDDEN
100
AcDbLine
 10
7.977788212855031
 20
2.442609750903761
 30
0.0
 11
7.957182454405039
 21
4.423932678788137
 31
0.0
  0
LINE
  5
AC3
330
1E
100
AcDbEntity
  8
HIDDEN
100
AcDbLine
 10
7.626249008455046
 20
2.442609750903756
 30
0.0
 11
7.646854766905011
 21
4.423932678788137
 31
0.0
  0
LINE
  5
AC4
330
1E
100
AcDbEntity
  8
HIDDEN
100
AcDbLine
 10
7.848138255420721
 20
2.442609750903756
 30
0.0
 11
7.833050197772287
 21
4.171529909911864
 31
0.0
  0
LINE
  5
AC5
330
1E
100
AcDbEntity
  8
HIDDEN
100
AcDbLine
 10
7.755898965889329
 20
2.442609750903756
 30
0.0
 11
7.770987023537761
 21
4.171529909911864
 31
0.0
  0
LINE
  5
AC6
330
1E
100
AcDbEntity
  8
HIDDEN
100
AcDbLine
 10
8.27073754985502
 20
2.692857998103752
 30
0.0
 11
8.083051364455027
 21
2.692857998103752
 31
0.0
  0
ARC
  5
AC7
330
1E
100
AcDbEntity
  8
HIDDEN
100
AcDbCircle
 10
7.802018610655011
 20
2.301348587553754
 30
0.0
 40
0.09309830625
100
AcDbArc
 50
19.47122063449157
 51
160.5287793655085
  0
ARC
  5
AC8
330
1E
100
AcDbEntity
  8
HIDDEN
100
AcDbCircle
 10
7.802018610655011
 20
2.318478675903755
 30
0.0
 40
0.1861966125
100
AcDbArc
 50
41.81031489577882
 51
138.189685104221
  0
LINE
  5
AC9
330
1E
100
AcDbEntity
  8
HIDDEN
100
AcDbLine
 10
7.520985856855023
 20
2.692857998103752
 30
0.0
 11
7.525353956258051
 21
2.442609750903754
 31
0.0
  0
LINE
  5
ACA
330
1E
100
AcDbEntity
  8
HIDDEN
100
AcDbLine
 10
8.131710745855006
 20
2.692857998103752
 30
0.0
 11
8.133894629223185
 21
2.442609750903756
 31
0.0
  0
LINE
  5
ACB
330
1E
100
AcDbEntity
  8
HIDDEN
100
AcDbLine
 10
8.083051364455027
 20
2.692857998103752
 30
0.0
 11
8.078683265051974
 21
2.442609750903754
 31
0.0
  0
LINE
  5
ACC
330
1E
100
AcDbEntity
  8
HIDDEN
100
AcDbLine
 10
8.222078168455013
 20
2.692857998103752
 30
0.0
 11
8.21989428508683
 21
2.442609750903756
 31
0.0
  0
LINE
  5
ACD
330
1E
100
AcDbEntity
  8
HIDDEN
100
AcDbLine
 10
8.275105649258071
 20
2.442609750903748
 30
0.0
 11
8.27073754985502
 21
2.692857998103752
 31
0.0
  0
ARC
  5
ACF
330
1E
100
AcDbEntity
  8
HIDDEN
100
AcDbCircle
 10
7.802018610655011
 20
4.171259101353756
 30
0.0
 40
0.03103276875
100
AcDbArc
 50
0.50000000000132
 51
179.4999999999985
  0
LINE
  5
AD0
330
1E
100
AcDbEntity
  8
HIDDEN
100
AcDbLine
 10
7.646854766905011
 20
5.205270956103753
 30
0.0
 11
7.95718245440501
 21
5.205270956103753
 31
0.0
  0
LINE
  5
AD1
330
1E
100
AcDbEntity
  8
HIDDEN
100
AcDbLine
 10
7.761202666091371
 20
4.704774461703749
 30
0.0
 11
7.842834555218651
 21
4.704774461703749
 31
0.0
  0
LINE
  5
AD2
330
1E
100
AcDbEntity
  8
HIDDEN
100
AcDbLine
 10
7.64685476690504
 20
4.423932678788137
 30
0.0
 11
7.64685476690504
 21
5.205270956103753
 31
0.0
  0
LINE
  5
AD3
330
1E
100
AcDbEntity
  8
HIDDEN
100
AcDbLine
 10
7.761202666091371
 20
4.704774461703749
 30
0.0
 11
7.756834899355006
 21
5.205270956103753
 31
0.0
  0
LINE
  5
AD4
330
1E
100
AcDbEntity
  8
HIDDEN
100
AcDbLine
 10
7.95718245440501
 20
4.423932678788137
 30
0.0
 11
7.95718245440501
 21
5.205270956103753
 31
0.0
  0
LINE
  5
AD5
330
1E
100
AcDbEntity
  8
HIDDEN
100
AcDbLine
 10
7.842834555218651
 20
4.704774461703749
 30
0.0
 11
7.847202321955016
 21
5.205270956103753
 31
0.0
  0
DIMENSION
  5
AD6
330
1E
100
AcDbEntity
  8
DIM
100
AcDbDimension
  2
*D20
 10
8.176894457155007
 20
8.091842343859225
 30
0.0
 11
9.365436123821671
 21
8.091842343859225
 31
0.0
 70
   160
  3
23NSTD
100
AcDbAlignedDimension
 13
7.427142764155014
 23
9.323529204386886
 33
0.0
 14
8.176894457155007
 24
9.323529204386886
 34
0.0
100
AcDbRotatedDimension
  0
CIRCLE
  5
AD7
330
1E
100
AcDbEntity
  8
OBJECT
100
AcDbCircle
 10
7.427142764155014
 20
12.82303247078689
 30
0.0
 40
0.0938430927
  0
CIRCLE
  5
AD8
330
1E
100
AcDbEntity
  8
OBJECT
100
AcDbCircle
 10
7.427142764155014
 20
9.323529204386886
 30
0.0
 40
0.0938430927
  0
CIRCLE
  5
AD9
330
1E
100
AcDbEntity
  8
OBJECT
100
AcDbCircle
 10
7.427142764155014
 20
9.323529204386886
 30
0.0
 40
0.0451837113000005
  0
CIRCLE
  5
ADA
330
1E
100
AcDbEntity
  8
OBJECT
100
AcDbCircle
 10
7.427142764155014
 20
12.82303247078689
 30
0.0
 40
0.0451837113000005
  0
LINE
  5
ADB
330
1E
100
AcDbEntity
  8
CENTER
100
AcDbLine
 10
7.802018610655011
 20
13.74856195760969
 30
0.0
 11
7.802018610655011
 21
8.397999717564093
 31
0.0
  0
CIRCLE
  5
ADC
330
1E
100
AcDbEntity
  8
OBJECT
100
AcDbCircle
 10
8.176894457155007
 20
9.323529204386886
 30
0.0
 40
0.0938430927
  0
CIRCLE
  5
ADD
330
1E
100
AcDbEntity
  8
OBJECT
100
AcDbCircle
 10
8.176894457155007
 20
9.323529204386886
 30
0.0
 40
0.0451837113000005
  0
LINE
  5
ADE
330
1E
100
AcDbEntity
  8
OBJECT
100
AcDbLine
 10
7.848138255420721
 20
8.723623763867108
 30
0.0
 11
7.848138255420721
 21
8.820253756565675
 31
0.0
  0
LINE
  5
ADF
330
1E
100
AcDbEntity
  8
OBJECT
100
AcDbLine
 10
7.755898965889301
 20
8.723623763867108
 30
0.0
 11
7.755898965889301
 21
8.820253756565675
 31
0.0
  0
LINE
  5
AE0
330
1E
100
AcDbEntity
  8
OBJECT
100
AcDbLine
 10
7.833051379405011
 20
8.835484097807171
 30
0.0
 11
7.833051379405011
 21
8.708267250659089
 31
0.0
  0
LINE
  5
AE1
330
1E
100
AcDbEntity
  8
OBJECT
100
AcDbLine
 10
7.770985841905012
 20
8.835484097807171
 30
0.0
 11
7.770985841905012
 21
8.708267250659089
 31
0.0
  0
LINE
  5
AE2
330
1E
100
AcDbEntity
  8
OBJECT
100
AcDbLine
 10
7.848138255420721
 20
8.723623763867108
 30
0.0
 11
7.833051379405011
 21
8.708267250659089
 31
0.0
  0
LINE
  5
AE3
330
1E
100
AcDbEntity
  8
OBJECT
100
AcDbLine
 10
7.770985841905012
 20
8.708267250659089
 30
0.0
 11
7.755898965889301
 21
8.723623763867108
 31
0.0
  0
LINE
  5
AE4
330
1E
100
AcDbEntity
  8
OBJECT
100
AcDbLine
 10
7.833051379405011
 20
8.708267250659089
 30
0.0
 11
7.770985841905012
 21
8.708267250659089
 31
0.0
  0
LINE
  5
AE5
330
1E
100
AcDbEntity
  8
OBJECT
100
AcDbLine
 10
7.833051379405011
 20
8.835484097806995
 30
0.0
 11
7.848138255420721
 21
8.820253756565731
 31
0.0
  0
ARC
  5
AE6
330
1E
100
AcDbEntity
  8
OBJECT
100
AcDbCircle
 10
7.802018610655011
 20
8.989864874786903
 30
0.0
 40
0.1757696022000066
100
AcDbArc
 50
285.2117408675198
 51
254.7882591324789
  0
CIRCLE
  5
AE7
330
1E
100
AcDbEntity
  8
OBJECT
100
AcDbCircle
 10
7.802018610655011
 20
8.989864874786903
 30
0.0
 40
0.15516384375
  0
CIRCLE
  5
AE8
330
1E
100
AcDbEntity
  8
OBJECT
100
AcDbCircle
 10
7.802018610655011
 20
8.989864874786903
 30
0.0
 40
0.0451837113
  0
LINE
  5
AE9
330
1E
100
AcDbEntity
  8
OBJECT
100
AcDbLine
 10
7.770985841905012
 20
8.835484097807002
 30
0.0
 11
7.755898965889301
 21
8.820253756565731
 31
0.0
  0
ARC
  5
AEA
330
1E
100
AcDbEntity
  8
OBJECT
100
AcDbCircle
 10
7.802018610655011
 20
8.989864874786903
 30
0.0
 40
0.1574689081603366
100
AcDbArc
 50
258.634189635021
 51
281.3658103649775
  0
CIRCLE
  5
AEB
330
1E
100
AcDbEntity
  8
HIDDEN
100
AcDbCircle
 10
7.802018610655011
 20
11.07328083758688
 30
0.0
 40
0.0877739248884837
  0
CIRCLE
  5
AEC
330
1E
100
AcDbEntity
  8
OBJECT
100
AcDbCircle
 10
7.802018610655011
 20
11.07328083758688
 30
0.0
 40
0.1387827609100753
  0
CIRCLE
  5
AED
330
1E
100
AcDbEntity
  8
OBJECT
100
AcDbCircle
 10
8.176894457155007
 20
12.82303247078689
 30
0.0
 40
0.0451837113000005
  0
CIRCLE
  5
AEE
330
1E
100
AcDbEntity
  8
OBJECT
100
AcDbCircle
 10
8.176894457155007
 20
12.82303247078689
 30
0.0
 40
0.0938430927
  0
LINE
  5
AEF
330
1E
100
AcDbEntity
  8
OBJECT
100
AcDbLine
 10
7.833051379405011
 20
13.31107757736677
 30
0.0
 11
7.848138255420721
 21
13.32630791860803
 31
0.0
  0
LINE
  5
AF0
330
1E
100
AcDbEntity
  8
OBJECT
100
AcDbLine
 10
7.848138255420693
 20
13.42293791130666
 30
0.0
 11
7.833051379405011
 21
13.43829442451468
 31
0.0
  0
CIRCLE
  5
AF1
330
1E
100
AcDbEntity
  8
OBJECT
100
AcDbCircle
 10
7.802018610655011
 20
13.15669680038687
 30
0.0
 40
0.0451837113
  0
CIRCLE
  5
AF2
330
1E
100
AcDbEntity
  8
OBJECT
100
AcDbCircle
 10
7.802018610655011
 20
13.15669680038687
 30
0.0
 40
0.15516384375
  0
ARC
  5
AF3
330
1E
100
AcDbEntity
  8
OBJECT
100
AcDbCircle
 10
7.802018610655011
 20
13.15669680038687
 30
0.0
 40
0.1757696022000066
100
AcDbArc
 50
105.211740867521
 51
74.78825913248027
  0
TEXT
  5
AF4
330
1E
100
AcDbEntity
  8
CENTER
100
AcDbText
 10
7.757369825970929
 20
13.74792001642036
 30
0.0
 40
0.125
  1
C
100
AcDbText
  0
TEXT
  5
AF5
330
1E
100
AcDbEntity
  8
CENTER
100
AcDbText
 10
7.804354665441199
 20
13.68275265498392
 30
0.0
 40
0.125
  1
L
100
AcDbText
  0
LINE
  5
AF6
330
1E
100
AcDbEntity
  8
OBJECT
100
AcDbLine
 10
7.833051379405011
 20
13.3110775773666
 30
0.0
 11
7.833051379405011
 21
13.43829442451468
 31
0.0
  0
LINE
  5
AF7
330
1E
100
AcDbEntity
  8
OBJECT
100
AcDbLine
 10
7.770985841905012
 20
13.31107757736659
 30
0.0
 11
7.770985841905012
 21
13.43829442451468
 31
0.0
  0
LINE
  5
AF8
330
1E
100
AcDbEntity
  8
OBJECT
100
AcDbLine
 10
7.755898965889301
 20
13.42293791130666
 30
0.0
 11
7.755898965889301
 21
13.32630791860808
 31
0.0
  0
LINE
  5
AF9
330
1E
100
AcDbEntity
  8
OBJECT
100
AcDbLine
 10
7.770985841905012
 20
13.31107757736677
 30
0.0
 11
7.755898965889301
 21
13.32630791860803
 31
0.0
  0
LINE
  5
AFA
330
1E
100
AcDbEntity
  8
OBJECT
100
AcDbLine
 10
7.770985841905012
 20
13.43829442451468
 30
0.0
 11
7.755898965889301
 21
13.42293791130666
 31
0.0
  0
LINE
  5
AFB
330
1E
100
AcDbEntity
  8
OBJECT
100
AcDbLine
 10
7.833051379405011
 20
13.43829442451468
 30
0.0
 11
7.770985841905012
 21
13.43829442451468
 31
0.0
  0
ARC
  5
AFC
330
1E
100
AcDbEntity
  8
OBJECT
100
AcDbCircle
 10
7.802018610655011
 20
13.15669680038687
 30
0.0
 40
0.1574689081603366
100
AcDbArc
 50
78.63418963502262
 51
101.3658103649789
  0
LINE
  5
AFD
330
1E
100
AcDbEntity
  8
OBJECT
100
AcDbLine
 10
7.848138255420693
 20
13.42293791130666
 30
0.0
 11
7.848138255420721
 21
13.32630791860808
 31
0.0
  0
DIMENSION
  5
AFE
330
1E
100
AcDbEntity
  8
DIM
100
AcDbDimension
  2
*D21
 10
16.65758662582978
 20
14.20135481769551
 30
0.0
 11
15.15758671552978
 21
14.20135481769551
 31
0.0
 70
    32
  3
23NSTD
100
AcDbAlignedDimension
 13
13.65758680522977
 23
13.57328068808687
 33
0.0
 14
16.65758662582978
 24
13.52443088260969
 34
0.0
100
AcDbRotatedDimension
  0
LINE
  5
AFF
330
1E
100
AcDbEntity
  8
OBJECT
100
AcDbLine
 10
16.53246250222978
 20
13.64856195760969
 30
0.0
 11
13.65758680522977
 21
13.57328068808689
 31
0.0
  0
LINE
  5
B00
330
1E
100
AcDbEntity
  8
OBJECT
100
AcDbLine
 10
16.53246250222978
 20
8.497999717564088
 30
0.0
 11
13.65758680522977
 21
8.573280987086896
 31
0.0
  0
LINE
  5
B01
330
1E
100
AcDbEntity
  8
HIDDEN
100
AcDbLine
 10
16.54735823122978
 20
8.814095272586888
 30
0.0
 11
14.56603530334539
 21
8.834701031036894
 31
0.0
  0
LINE
  5
B02
330
1E
100
AcDbEntity
  8
HIDDEN
100
AcDbLine
 10
16.54735823122978
 20
9.165634476986888
 30
0.0
 11
14.56603530334539
 21
9.145028718536899
 31
0.0
  0
LINE
  5
B03
330
1E
100
AcDbEntity
  8
HIDDEN
100
AcDbLine
 10
16.54735823122978
 20
13.33246640258691
 30
0.0
 11
14.56603530334539
 21
13.3118606441369
 31
0.0
  0
LINE
  5
B04
330
1E
100
AcDbEntity
  8
HIDDEN
100
AcDbLine
 10
16.54735823122978
 20
12.9809271981869
 30
0.0
 11
14.56603530334539
 21
13.00153295663688
 31
0.0
  0
LINE
  5
B05
330
1E
100
AcDbEntity
  8
HIDDEN
100
AcDbLine
 10
13.65758680522977
 20
8.698405110686893
 30
0.0
 11
16.48583431084598
 21
8.723086852747943
 31
0.0
  0
LINE
  5
B06
330
1E
100
AcDbEntity
  8
HIDDEN
100
AcDbLine
 10
13.65758680522977
 20
13.44815656448689
 30
0.0
 11
16.48583431084601
 21
13.42347482242583
 31
0.0
  0
LINE
  5
B07
330
1E
100
AcDbEntity
  8
OBJECT
100
AcDbLine
 10
12.0024237645778
 20
2.457505479903757
 30
0.0
 11
11.927142495055
 21
5.332381176903759
 31
0.0
  0
LINE
  5
B08
330
1E
100
AcDbEntity
  8
HIDDEN
100
AcDbLine
 10
11.80201837145502
 20
5.33238117690375
 30
0.0
 11
11.77733662939395
 21
2.50413367128754
 31
0.0
  0
LINE
  5
B09
330
1E
100
AcDbEntity
  8
HIDDEN
100
AcDbLine
 10
11.665722451105
 20
5.205270956103751
 30
0.0
 11
11.355394763605
 21
5.205270956103751
 31
0.0
  0
LINE
  5
B0A
330
1E
100
AcDbEntity
  8
HIDDEN
100
AcDbLine
 10
11.46974266279139
 20
4.704774461703749
 30
0.0
 11
11.55137455191863
 21
4.704774461703749
 31
0.0
  0
LINE
  5
B0B
330
1E
100
AcDbEntity
  8
HIDDEN
100
AcDbLine
 10
11.33478900515501
 20
2.442609750903756
 30
0.0
 11
11.35539476360502
 21
4.423932678788137
 31
0.0
  0
LINE
  5
B0C
330
1E
100
AcDbEntity
  8
HIDDEN
100
AcDbLine
 10
11.27073737045499
 20
2.692857998103752
 30
0.0
 11
11.083051185055
 21
2.692857998103752
 31
0.0
  0
LINE
  5
B0D
330
1E
100
AcDbEntity
  8
HIDDEN
100
AcDbLine
 10
11.083051185055
 20
2.692857998103752
 30
0.0
 11
11.07868308565196
 21
2.442609750903754
 31
0.0
  0
LINE
  5
B0E
330
1E
100
AcDbEntity
  8
HIDDEN
100
AcDbLine
 10
11.13171056645501
 20
2.692857998103752
 30
0.0
 11
11.13389444982319
 21
2.442609750903756
 31
0.0
  0
LINE
  5
B0F
330
1E
100
AcDbEntity
  8
HIDDEN
100
AcDbLine
 10
11.27510546985805
 20
2.442609750903748
 30
0.0
 11
11.27073737045499
 21
2.692857998103752
 31
0.0
  0
LINE
  5
B11
330
1E
100
AcDbEntity
  8
HIDDEN
100
AcDbLine
 10
11.22207798905502
 20
2.692857998103752
 30
0.0
 11
11.21989410568683
 21
2.442609750903756
 31
0.0
  0
LINE
  5
B12
330
1E
100
AcDbEntity
  8
HIDDEN
100
AcDbLine
 10
11.35539476360502
 20
4.423932678788137
 30
0.0
 11
11.35539476360502
 21
5.205270956103753
 31
0.0
  0
LINE
  5
B13
330
1E
100
AcDbEntity
  8
HIDDEN
100
AcDbLine
 10
11.46974266279139
 20
4.704774461703749
 30
0.0
 11
11.46537489605502
 21
5.205270956103753
 31
0.0
  0
LINE
  5
B14
330
1E
100
AcDbEntity
  8
HIDDEN
100
AcDbLine
 10
11.68632820955503
 20
2.442609750903756
 30
0.0
 11
11.66572245110502
 21
4.423932678788137
 31
0.0
  0
LINE
  5
B15
330
1E
100
AcDbEntity
  8
BEND
 48
0.5
100
AcDbLine
 10
12.0024237645778
 20
2.457505479903757
 30
0.0
 11
12.48970452695499
 21
2.457505479903757
 31
0.0
  0
LINE
  5
B16
330
1E
100
AcDbEntity
  8
BEND
 48
0.5
100
AcDbLine
 10
11.8782926895778
 20
2.332381356303756
 30
0.0
 11
12.36557345195499
 21
2.332381356303756
 31
0.0
  0
ARC
  5
B17
330
1E
100
AcDbEntity
  8
HIDDEN
100
AcDbCircle
 10
11.71527345515943
 20
2.504675288403758
 30
0.0
 40
0.0620655375
100
AcDbArc
 50
270.0
 51
359.4999999999998
  0
ARC
  5
B18
330
1E
100
AcDbEntity
  8
OBJECT
100
AcDbCircle
 10
11.8782926895778
 20
2.456512431303757
 30
0.0
 40
0.124131075
100
AcDbArc
 50
270.0
 51
0.0
  0
LINE
  5
B19
330
1E
100
AcDbEntity
  8
0
 62
    14
100
AcDbLine
 10
12.0024237645778
 20
2.457505479903757
 30
0.0
 11
12.0024237645778
 21
2.456512431303757
 31
0.0
  0
LINE
  5
B1A
330
1E
100
AcDbEntity
  8
HIDDEN
100
AcDbLine
 10
12.1346662447064
 20
2.332381356303725
 30
0.0
 11
12.14561318705499
 21
2.457505479903725
 31
0.0
  0
ARC
  5
B1B
330
1E
100
AcDbEntity
  8
BEND
 48
0.5
100
AcDbCircle
 10
12.36557345195499
 20
2.456512431303757
 30
0.0
 40
0.124131075
100
AcDbArc
 50
270.0
 51
0.0
  0
LINE
  5
B1C
330
1E
100
AcDbEntity
  8
HIDDEN
100
AcDbLine
 10
12.34424631480363
 20
2.332381356303725
 30
0.0
 11
12.333299372455
 21
2.457505479903728
 31
0.0
  0
LINE
  5
B1D
330
1E
100
AcDbEntity
  8
HIDDEN
100
AcDbLine
 10
11.66572245110502
 20
4.423932678788137
 30
0.0
 11
11.66572245110502
 21
5.205270956103753
 31
0.0
  0
LINE
  5
B1E
330
1E
100
AcDbEntity
  8
HIDDEN
100
AcDbLine
 10
11.55137455191863
 20
4.704774461703749
 30
0.0
 11
11.555742318655
 21
5.205270956103753
 31
0.0
  0
LINE
  5
B1F
330
1E
100
AcDbEntity
  8
HIDDEN
100
AcDbLine
 10
11.79215623148282
 20
4.202291870103755
 30
0.0
 11
11.66802751551533
 21
4.202291870103755
 31
0.0
  0
DIMENSION
  5
B20
330
1E
100
AcDbEntity
  8
DIM
100
AcDbDimension
  2
*D22
 10
10.51158175829808
 20
9.323529204386886
 30
0.0
 11
10.51158175829808
 21
11.07328083758689
 31
0.0
 70
    32
  3
23NSTD
100
AcDbAlignedDimension
 13
11.17689427775501
 23
12.82303247078689
 33
0.0
 14
11.17689427775501
 24
9.323529204386886
 34
0.0
 50
90.0
100
AcDbRotatedDimension
  0
LINE
  5
B21
330
1E
100
AcDbEntity
  8
OBJECT
100
AcDbLine
 10
12.0024237645778
 20
8.989864874786903
 30
0.0
 11
12.0024237645778
 21
13.15669680038688
 31
0.0
  0
LINE
  5
B22
330
1E
100
AcDbEntity
  8
BEND
100
AcDbLine
 10
12.48970452695499
 20
9.351150581646383
 30
0.0
 11
12.48970452695499
 21
12.79541109352739
 31
0.0
  0
LINE
  5
B23
330
1E
100
AcDbEntity
  8
OBJECT
100
AcDbLine
 10
11.927142495055
 20
8.989864874786903
 30
0.0
 11
11.927142495055
 21
13.15669680038688
 31
0.0
  0
LINE
  5
B24
330
1E
100
AcDbEntity
  8
OBJECT
100
AcDbLine
 10
11.80201837145499
 20
8.989864874786903
 30
0.0
 11
11.80201837145499
 21
13.15669680038688
 31
0.0
  0
LINE
  5
B25
330
1E
100
AcDbEntity
  8
OBJECT
100
AcDbLine
 10
11.77679971827479
 20
8.989864874786903
 30
0.0
 11
11.77679971827479
 21
13.15669680038688
 31
0.0
  0
CIRCLE
  5
B26
330
1E
100
AcDbEntity
  8
OBJECT
100
AcDbCircle
 10
11.510558607355
 20
8.989864874786903
 30
0.0
 40
0.0451837113
  0
CIRCLE
  5
B27
330
1E
100
AcDbEntity
  8
OBJECT
100
AcDbCircle
 10
11.510558607355
 20
8.989864874786903
 30
0.0
 40
0.15516384375
  0
ARC
  5
B28
330
1E
100
AcDbEntity
  8
OBJECT
100
AcDbCircle
 10
11.510558607355
 20
8.989864874786903
 30
0.0
 40
0.1757696022000066
100
AcDbArc
 50
330.2117408675197
 51
299.7882591324788
  0
CIRCLE
  5
B29
330
1E
100
AcDbEntity
  8
OBJECT
100
AcDbCircle
 10
11.17689427775501
 20
9.323529204386886
 30
0.0
 40
0.0938430927
  0
CIRCLE
  5
B2A
330
1E
100
AcDbEntity
  8
OBJECT
100
AcDbCircle
 10
11.17689427775501
 20
9.323529204386886
 30
0.0
 40
0.0451837113000005
  0
CIRCLE
  5
B2B
330
1E
100
AcDbEntity
  8
BEND
 48
0.5
100
AcDbCircle
 10
12.239456279755
 20
9.386091266186888
 30
0.0
 40
0.0938430927
  0
LINE
  5
B2C
330
1E
100
AcDbEntity
  8
BEND
 48
0.5
100
AcDbLine
 10
11.85835979545663
 20
8.642063686685254
 30
0.0
 11
12.43473251598637
 21
9.218436407215003
 31
0.0
  0
ARC
  5
B2D
330
1E
100
AcDbEntity
  8
OBJECT
100
AcDbCircle
 10
11.510558607355
 20
8.989864874786903
 30
0.0
 40
0.4918651572228089
100
AcDbArc
 50
270.0000000000004
 51
359.9999999999997
  0
ARC
  5
B2E
330
1E
100
AcDbEntity
  8
OBJECT
100
AcDbCircle
 10
11.510558607355
 20
8.989864874786903
 30
0.0
 40
0.41658388770001
100
AcDbArc
 50
270.0000000000005
 51
359.9999999999997
  0
ARC
  5
B2F
330
1E
100
AcDbEntity
  8
OBJECT
100
AcDbCircle
 10
11.510558607355
 20
8.989864874786903
 30
0.0
 40
0.2815976241278121
100
AcDbArc
 50
308.6730097191908
 51
321.3269902808082
  0
LINE
  5
B30
330
1E
100
AcDbEntity
  8
OBJECT
100
AcDbLine
 10
11.5977788204201
 20
8.858757699277568
 30
0.0
 11
11.68652190870757
 21
8.770014610990111
 31
0.0
  0
LINE
  5
B31
330
1E
100
AcDbEntity
  8
OBJECT
100
AcDbLine
 10
11.66336190915591
 20
8.771838545866488
 30
0.0
 11
11.59788026565411
 21
8.837320189368297
 31
0.0
  0
ARC
  5
B32
330
1E
100
AcDbEntity
  8
OBJECT
100
AcDbCircle
 10
11.510558607355
 20
8.989864874786903
 30
0.0
 40
0.2914597641000087
100
AcDbArc
 50
270.0000000000007
 51
359.9999999999996
  0
ARC
  5
B33
330
1E
100
AcDbEntity
  8
OBJECT
100
AcDbCircle
 10
11.510558607355
 20
8.989864874786903
 30
0.0
 40
0.266241110919794
100
AcDbArc
 50
270.0000000000007
 51
305.0246132110366
  0
LINE
  5
B34
330
1E
100
AcDbEntity
  8
OBJECT
100
AcDbLine
 10
11.66336190915598
 20
8.771838545866447
 30
0.0
 11
11.68652190870758
 21
8.770014610990083
 31
0.0
  0
LINE
  5
B35
330
1E
100
AcDbEntity
  8
OBJECT
100
AcDbLine
 10
11.64166578286432
 20
8.902644661721806
 30
0.0
 11
11.7304088711518
 21
8.813901573434343
 31
0.0
  0
LINE
  5
B36
330
1E
100
AcDbEntity
  8
OBJECT
100
AcDbLine
 10
11.64166578286446
 20
8.902644661721678
 30
0.0
 11
11.66310329277357
 21
8.902543216487822
 31
0.0
  0
LINE
  5
B37
330
1E
100
AcDbEntity
  8
OBJECT
100
AcDbLine
 10
11.59777882042021
 20
8.858757699277447
 30
0.0
 11
11.59788026565409
 21
8.837320189368339
 31
0.0
  0
ARC
  5
B38
330
1E
100
AcDbEntity
  8
OBJECT
100
AcDbCircle
 10
11.510558607355
 20
8.989864874786903
 30
0.0
 40
0.1574689081603366
100
AcDbArc
 50
303.6341896350212
 51
326.3658103649774
  0
LINE
  5
B39
330
1E
100
AcDbEntity
  8
OBJECT
100
AcDbLine
 10
11.73040887115184
 20
8.813901573434321
 30
0.0
 11
11.72858493627547
 21
8.837061572985932
 31
0.0
  0
LINE
  5
B3A
330
1E
100
AcDbEntity
  8
OBJECT
100
AcDbLine
 10
11.72858493627541
 20
8.837061572985968
 30
0.0
 11
11.6631032927736
 21
8.902543216487782
 31
0.0
  0
ARC
  5
B3B
330
1E
100
AcDbEntity
  8
OBJECT
100
AcDbCircle
 10
11.510558607355
 20
8.989864874786903
 30
0.0
 40
0.266241110919794
100
AcDbArc
 50
324.975386788963
 51
359.9999999999996
  0
ARC
  5
B3C
330
1E
100
AcDbEntity
  8
BEND
 48
0.5
100
AcDbCircle
 10
12.30201834155499
 20
9.351150581646383
 30
0.0
 40
0.1876861853999999
100
AcDbArc
 50
314.9999999999999
 51
0.0
  0
CIRCLE
  5
B3D
330
1E
100
AcDbEntity
  8
OBJECT
100
AcDbCircle
 10
11.510558607355
 20
13.15669680038687
 30
0.0
 40
0.0451837113
  0
CIRCLE
  5
B3E
330
1E
100
AcDbEntity
  8
OBJECT
100
AcDbCircle
 10
11.510558607355
 20
13.15669680038687
 30
0.0
 40
0.15516384375
  0
ARC
  5
B3F
330
1E
100
AcDbEntity
  8
OBJECT
100
AcDbCircle
 10
11.510558607355
 20
13.15669680038687
 30
0.0
 40
0.1757696022000066
100
AcDbArc
 50
60.21174086752115
 51
29.78825913248026
  0
CIRCLE
  5
B40
330
1E
100
AcDbEntity
  8
OBJECT
100
AcDbCircle
 10
11.17689427775501
 20
12.82303247078689
 30
0.0
 40
0.0938430927
  0
CIRCLE
  5
B41
330
1E
100
AcDbEntity
  8
OBJECT
100
AcDbCircle
 10
11.17689427775501
 20
12.82303247078689
 30
0.0
 40
0.0451837113000005
  0
LINE
  5
B42
330
1E
100
AcDbEntity
  8
BEND
 48
0.5
100
AcDbLine
 10
11.85835979545663
 20
13.50449798848851
 30
0.0
 11
12.43473251598637
 21
12.92812526795877
 31
0.0
  0
CIRCLE
  5
B43
330
1E
100
AcDbEntity
  8
BEND
 48
0.5
100
AcDbCircle
 10
12.239456279755
 20
12.76047040898689
 30
0.0
 40
0.0938430927
  0
ARC
  5
B44
330
1E
100
AcDbEntity
  8
OBJECT
100
AcDbCircle
 10
11.510558607355
 20
13.15669680038688
 30
0.0
 40
0.4918651572228019
100
AcDbArc
 50
0.0
 51
89.9999999999996
  0
ARC
  5
B45
330
1E
100
AcDbEntity
  8
OBJECT
100
AcDbCircle
 10
11.510558607355
 20
13.15669680038688
 30
0.0
 40
0.4165838877000028
100
AcDbArc
 50
0.0
 51
89.99999999999948
  0
ARC
  5
B46
330
1E
100
AcDbEntity
  8
OBJECT
100
AcDbCircle
 10
11.510558607355
 20
13.15669680038688
 30
0.0
 40
0.2914597640999981
100
AcDbArc
 50
0.0
 51
89.99999999999927
  0
LINE
  5
B47
330
1E
100
AcDbEntity
  8
OBJECT
100
AcDbLine
 10
11.64166578286446
 20
13.24391701345208
 30
0.0
 11
11.66310329277357
 21
13.24401845868595
 31
0.0
  0
LINE
  5
B48
330
1E
100
AcDbEntity
  8
OBJECT
100
AcDbLine
 10
11.5977788204201
 20
13.28780397589619
 30
0.0
 11
11.68652190870757
 21
13.37654706418367
 31
0.0
  0
LINE
  5
B49
330
1E
100
AcDbEntity
  8
OBJECT
100
AcDbLine
 10
11.6633619091561
 20
13.37472312930744
 30
0.0
 11
11.59788026565411
 21
13.30924148580546
 31
0.0
  0
LINE
  5
B4A
330
1E
100
AcDbEntity
  8
OBJECT
100
AcDbLine
 10
11.64166578286432
 20
13.24391701345197
 30
0.0
 11
11.7304088711518
 21
13.33266010173943
 31
0.0
  0
ARC
  5
B4B
330
1E
100
AcDbEntity
  8
OBJECT
100
AcDbCircle
 10
11.510558607355
 20
13.15669680038688
 30
0.0
 40
0.2662411109197799
100
AcDbArc
 50
54.97538678895391
 51
89.99999999999923
  0
LINE
  5
B4C
330
1E
100
AcDbEntity
  8
OBJECT
100
AcDbLine
 10
11.59777882042021
 20
13.28780397589633
 30
0.0
 11
11.59788026565409
 21
13.30924148580543
 31
0.0
  0
ARC
  5
B4D
330
1E
100
AcDbEntity
  8
OBJECT
100
AcDbCircle
 10
11.510558607355
 20
13.15669680038687
 30
0.0
 40
0.1574689081603366
100
AcDbArc
 50
33.63418963502263
 51
56.36581036497895
  0
LINE
  5
B4E
330
1E
100
AcDbEntity
  8
OBJECT
100
AcDbLine
 10
11.7304088711518
 20
13.33266010173945
 30
0.0
 11
11.72858493627547
 21
13.30950010218784
 31
0.0
  0
LINE
  5
B4F
330
1E
100
AcDbEntity
  8
OBJECT
100
AcDbLine
 10
11.66336190915598
 20
13.37472312930731
 30
0.0
 11
11.68652190870758
 21
13.37654706418369
 31
0.0
  0
ARC
  5
B50
330
1E
100
AcDbEntity
  8
OBJECT
100
AcDbCircle
 10
11.510558607355
 20
13.15669680038687
 30
0.0
 40
0.2815976241278121
100
AcDbArc
 50
38.67300971919174
 51
51.32699028080931
  0
LINE
  5
B51
330
1E
100
AcDbEntity
  8
OBJECT
100
AcDbLine
 10
11.72858493627557
 20
13.30950010218796
 30
0.0
 11
11.6631032927736
 21
13.24401845868599
 31
0.0
  0
ARC
  5
B52
330
1E
100
AcDbEntity
  8
OBJECT
100
AcDbCircle
 10
11.510558607355
 20
13.15669680038688
 30
0.0
 40
0.2662411109197799
100
AcDbArc
 50
0.0
 51
35.02461321104432
  0
ARC
  5
B53
330
1E
100
AcDbEntity
  8
BEND
 48
0.5
100
AcDbCircle
 10
12.30201834155499
 20
12.79541109352739
 30
0.0
 40
0.1876861853999999
100
AcDbArc
 50
0.0
 51
45.0
  0
DIMENSION
  5
B54
330
1E
100
AcDbEntity
  8
DIM
100
AcDbDimension
  2
*D23
 10
13.15758680522977
 20
8.573280987086917
 30
0.0
 11
13.15758680522977
 21
11.07328083758689
 31
0.0
 70
    32
  3
23NSTD
100
AcDbAlignedDimension
 13
13.65758680522977
 23
13.57328068808687
 33
0.0
 14
13.65758680522977
 24
8.573280987086917
 34
0.0
 50
90.0
100
AcDbRotatedDimension
  0
LINE
  5
B55
330
1E
100
AcDbEntity
  8
OBJECT
100
AcDbLine
 10
13.65758680522977
 20
13.57328068808687
 30
0.0
 11
13.65758680522977
 21
8.573280987086917
 31
0.0
  0
LINE
  5
B56
330
1E
100
AcDbEntity
  8
HIDDEN
100
AcDbLine
 10
14.56603530334539
 20
9.145028718536895
 30
0.0
 11
13.78469702602979
 21
9.145028718536895
 31
0.0
  0
LINE
  5
B57
330
1E
100
AcDbEntity
  8
HIDDEN
100
AcDbLine
 10
14.56603530334539
 20
8.834701031036901
 30
0.0
 11
13.78469702602979
 21
8.834701031036901
 31
0.0
  0
LINE
  5
B58
330
1E
100
AcDbEntity
  8
HIDDEN
100
AcDbLine
 10
14.28519352042977
 20
9.030680819350527
 30
0.0
 11
13.78469702602979
 21
9.03504858608689
 31
0.0
  0
LINE
  5
B59
330
1E
100
AcDbEntity
  8
HIDDEN
100
AcDbLine
 10
14.28519352042977
 20
8.949048930223261
 30
0.0
 11
13.78469702602979
 21
8.94468116348689
 31
0.0
  0
LINE
  5
B5A
330
1E
100
AcDbEntity
  8
HIDDEN
100
AcDbLine
 10
13.78469702602979
 20
8.834701031036894
 30
0.0
 11
13.78469702602979
 21
9.145028718536895
 31
0.0
  0
LINE
  5
B5B
330
1E
100
AcDbEntity
  8
HIDDEN
100
AcDbLine
 10
14.78767611202977
 20
8.83239596662657
 30
0.0
 11
14.78767611202977
 21
8.708267250659089
 31
0.0
  0
LINE
  5
B5C
330
1E
100
AcDbEntity
  8
HIDDEN
100
AcDbLine
 10
14.28519352042977
 20
8.949048930223261
 30
0.0
 11
14.28519352042977
 21
9.030680819350527
 31
0.0
  0
LINE
  5
B5D
330
1E
100
AcDbEntity
  8
HIDDEN
100
AcDbLine
 10
14.56603530334539
 20
13.00153295663688
 30
0.0
 11
13.78469702602979
 21
13.00153295663688
 31
0.0
  0
LINE
  5
B5E
330
1E
100
AcDbEntity
  8
HIDDEN
100
AcDbLine
 10
14.56603530334539
 20
13.31186064413689
 30
0.0
 11
13.78469702602979
 21
13.31186064413689
 31
0.0
  0
LINE
  5
B5F
330
1E
100
AcDbEntity
  8
HIDDEN
100
AcDbLine
 10
14.28519352042977
 20
13.19751274495052
 30
0.0
 11
13.78469702602979
 21
13.20188051168689
 31
0.0
  0
LINE
  5
B60
330
1E
100
AcDbEntity
  8
HIDDEN
100
AcDbLine
 10
14.28519352042977
 20
13.11588085582324
 30
0.0
 11
13.78469702602979
 21
13.11151308908689
 31
0.0
  0
LINE
  5
B61
330
1E
100
AcDbEntity
  8
HIDDEN
100
AcDbLine
 10
13.78469702602979
 20
13.31186064413689
 30
0.0
 11
13.78469702602979
 21
13.00153295663688
 31
0.0
  0
LINE
  5
B62
330
1E
100
AcDbEntity
  8
HIDDEN
100
AcDbLine
 10
14.28519352042977
 20
13.19751274495052
 30
0.0
 11
14.28519352042977
 21
13.11588085582324
 31
0.0
  0
LINE
  5
B63
330
1E
100
AcDbEntity
  8
HIDDEN
100
AcDbLine
 10
14.78767611202977
 20
13.43829442451469
 30
0.0
 11
14.78767611202977
 21
13.31416570854722
 31
0.0
  0
DIMENSION
  5
B64
330
1E
100
AcDbEntity
  8
DIM
100
AcDbDimension
  2
*D24
 10
17.19557021144079
 20
8.497999717564088
 30
0.0
 11
17.19557021144078
 21
11.07328083758689
 31
0.0
 70
    32
  3
23NSTD
100
AcDbAlignedDimension
 13
16.53246250222978
 23
13.64856195760969
 33
0.0
 14
16.53246250222978
 24
8.497999717564088
 34
0.0
 50
90.0
100
AcDbRotatedDimension
  0
LINE
  5
B65
330
1E
100
AcDbEntity
  8
OBJECT
100
AcDbLine
 10
16.65758662582978
 20
13.52443088260969
 30
0.0
 11
16.65758662582975
 21
8.622130792564089
 31
0.0
  0
LINE
  5
B66
330
1E
100
AcDbEntity
  8
OBJECT
100
AcDbLine
 10
16.53246250222978
 20
13.64856195760969
 30
0.0
 11
16.53246250222978
 21
8.497999717564088
 31
0.0
  0
LINE
  5
B67
330
1E
100
AcDbEntity
  8
HIDDEN
100
AcDbLine
 10
16.54735823122978
 20
13.36141164819132
 30
0.0
 11
16.54735823122978
 21
8.78515002698246
 31
0.0
  0
ARC
  5
B68
330
1E
100
AcDbEntity
  8
OBJECT
100
AcDbCircle
 10
16.53345555082975
 20
8.622130792564089
 30
0.0
 40
0.124131075
100
AcDbArc
 50
270.0
 51
359.9999999999998
  0
LINE
  5
B69
330
1E
100
AcDbEntity
  8
0
 62
    14
100
AcDbLine
 10
16.53246250222978
 20
8.497999717564088
 30
0.0
 11
16.53345555082975
 21
8.497999717564088
 31
0.0
  0
ARC
  5
B6A
330
1E
100
AcDbEntity
  8
HIDDEN
100
AcDbCircle
 10
16.48529269372976
 20
8.78515002698246
 30
0.0
 40
0.0620655375
100
AcDbArc
 50
270.4999999999999
 51
359.9999999999998
  0
LINE
  5
B6B
330
1E
100
AcDbEntity
  8
HIDDEN
100
AcDbLine
 10
16.54735823122978
 20
9.421740396489937
 30
0.0
 11
16.29710998402975
 21
9.41737229708689
 31
0.0
  0
LINE
  5
B6D
330
1E
100
AcDbEntity
  8
HIDDEN
100
AcDbLine
 10
16.29710998402975
 20
9.229686111686888
 30
0.0
 11
16.54735823122978
 21
9.225318012283842
 31
0.0
  0
LINE
  5
B6E
330
1E
100
AcDbEntity
  8
HIDDEN
100
AcDbLine
 10
16.29710998402975
 20
9.368712915686888
 30
0.0
 11
16.54735823122978
 21
9.366529032318709
 31
0.0
  0
LINE
  5
B6F
330
1E
100
AcDbEntity
  8
HIDDEN
100
AcDbLine
 10
16.29710998402975
 20
9.278345493086888
 30
0.0
 11
16.54735823122978
 21
9.280529376455069
 31
0.0
  0
LINE
  5
B70
330
1E
100
AcDbEntity
  8
HIDDEN
100
AcDbLine
 10
16.29710998402975
 20
9.41737229708689
 30
0.0
 11
16.29710998402975
 21
9.229686111686888
 31
0.0
  0
LINE
  5
B71
330
1E
100
AcDbEntity
  8
HIDDEN
100
AcDbLine
 10
16.65758662582978
 20
9.281301231138273
 30
0.0
 11
16.53246250222978
 21
9.292248173486891
 31
0.0
  0
LINE
  5
B72
330
1E
100
AcDbEntity
  8
HIDDEN
100
AcDbLine
 10
16.65758662582975
 20
9.490881301235503
 30
0.0
 11
16.53246250222978
 21
9.479934358886891
 31
0.0
  0
ARC
  5
B73
330
1E
100
AcDbEntity
  8
HIDDEN
100
AcDbCircle
 10
16.68861939457978
 20
11.07328083758689
 30
0.0
 40
0.09309830625
100
AcDbArc
 50
109.4712206344914
 51
250.5287793655085
  0
ARC
  5
B74
330
1E
100
AcDbEntity
  8
HIDDEN
100
AcDbCircle
 10
16.67148930622976
 20
11.0732808375869
 30
0.0
 40
0.1861966125
100
AcDbArc
 50
131.8103148957787
 51
228.1896851042211
  0
LINE
  5
B75
330
1E
100
AcDbEntity
  8
HIDDEN
100
AcDbLine
 10
16.29710998402975
 20
12.91687556348689
 30
0.0
 11
16.54735823122978
 21
12.92124366288994
 31
0.0
  0
LINE
  5
B77
330
1E
100
AcDbEntity
  8
HIDDEN
100
AcDbLine
 10
16.54735823122978
 20
12.72482127868383
 30
0.0
 11
16.29710998402975
 21
12.72918937808689
 31
0.0
  0
LINE
  5
B78
330
1E
100
AcDbEntity
  8
HIDDEN
100
AcDbLine
 10
16.29710998402975
 20
12.8682161820869
 30
0.0
 11
16.54735823122978
 21
12.86603229871872
 31
0.0
  0
LINE
  5
B79
330
1E
100
AcDbEntity
  8
HIDDEN
100
AcDbLine
 10
16.29710998402975
 20
12.77784875948689
 30
0.0
 11
16.54735823122978
 21
12.78003264285507
 31
0.0
  0
LINE
  5
B7A
330
1E
100
AcDbEntity
  8
HIDDEN
100
AcDbLine
 10
16.29710998402975
 20
12.72918937808689
 30
0.0
 11
16.29710998402975
 21
12.91687556348689
 31
0.0
  0
LINE
  5
B7B
330
1E
100
AcDbEntity
  8
HIDDEN
100
AcDbLine
 10
16.65758662582975
 20
12.65568037393828
 30
0.0
 11
16.53246250222978
 21
12.66662731628688
 31
0.0
  0
LINE
  5
B7C
330
1E
100
AcDbEntity
  8
HIDDEN
100
AcDbLine
 10
16.65758662582978
 20
12.86526044403551
 30
0.0
 11
16.53246250222978
 21
12.85431350168689
 31
0.0
  0
ARC
  5
B7D
330
1E
100
AcDbEntity
  8
HIDDEN
100
AcDbCircle
 10
16.48529269372976
 20
13.36141164819132
 30
0.0
 40
0.0620655375
100
AcDbArc
 50
359.9999999999998
 51
89.50000000000001
  0
ARC
  5
B7E
330
1E
100
AcDbEntity
  8
OBJECT
100
AcDbCircle
 10
16.53345555082975
 20
13.52443088260969
 30
0.0
 40
0.124131075
100
AcDbArc
 50
0.0000000000001018
 51
90.0
  0
LINE
  5
B7F
330
1E
100
AcDbEntity
  8
0
 62
    14
100
AcDbLine
 10
16.53246250222978
 20
13.64856195760969
 30
0.0
 11
16.53345555082975
 21
13.64856195760969
 31
0.0
  0
LINE
  5
D5E
330
1E
100
AcDbEntity
  8
CENTER
100
AcDbLine
 10
10.92884371853911
 20
11.07328083758688
 30
0.0
 11
12.58970452695499
 21
11.07328083758688
 31
0.0
  0
LINE
  5
D87
330
1E
100
AcDbEntity
  8
CENTER
100
AcDbLine
 10
6.514172170600659
 20
11.07328083758688
 30
0.0
 11
10.10100926234795
 21
11.07328083758688
 31
0.0
  0
DIMENSION
  5
1038
330
1E
100
AcDbEntity
  8
DIM
100
AcDbDimension
  2
*D25
 10
13.03473695136031
 20
2.457505479903756
 30
0.0
 11
13.79434632636031
 21
3.087505479903758
 31
0.0
 70
    32
  3
23NSTD
100
AcDbAlignedDimension
 13
12.36557345195499
 23
2.332381356303756
 33
0.0
 14
12.48970452695499
 24
2.457505479903757
 34
0.0
 50
90.0
100
AcDbRotatedDimension
  0
TEXT
  5
1196
330
1E
100
AcDbEntity
  8
TEXT
100
AcDbText
 10
2.757644771004095
 20
1.306050464079388
 30
0.0
 40
0.218
  1
TEXTURED FLUSH COVER LESS RECESS AND BODY WITHOUT MOUNTING FLANGE
 41
0.75
  7
TXT
100
AcDbText
  0
TEXT
  5
1197
330
1E
100
AcDbEntity
  8
TEXT
100
AcDbText
 10
2.776970123711365
 20
0.9419451241974439
 30
0.0
 40
0.218
  1
TEXTURED FLUSH COVER LESS RECESS AND BODY WITH MOUNTING FLANGE.
 41
0.75
  7
TXT
100
AcDbText
  0
TEXT
  5
1198
330
1E
100
AcDbEntity
  8
TEXT
100
AcDbText
 10
2.815621043246564
 20
0.5709405264663357
 30
0.0
 40
0.218
  1
COVER WITH SMOOTH 0.030 RECESS AND BODY WITHOUT MOUNTING FLANGE.
 41
0.75
  7
TXT
100
AcDbText
  0
TEXT
  5
1199
330
1E
100
AcDbEntity
  8
TEXT
100
AcDbText
 10
2.796295583478965
 20
0.1751206653996444
 30
0.0
 40
0.218
  1
COVER WITH SMOOTH 0.030 RECESS AND BODY WITH MOUNTING FLANGE
 41
0.75
  7
TXT
100
AcDbText
  0
INSERT
  5
143E
330
1E
100
AcDbEntity
  8
TEXT
100
AcDbBlockReference
  2
HB
 10
0.0
 20
0.0
 30
0.0
 41
1.75
 42
1.75
  0
LEADER
  5
16E5
330
1E
100
AcDbEntity
  8
DIM
100
AcDbLeader
  3
23NSTDI
 73
     0
 40
0.5813333332986668
 41
3.297249999803375
 76
     3
 10
11.56956847561941
 20
13.31790176690011
 30
0.0
 10
13.01545049918689
 20
15.1854592717581
 30
0.0
 10
13.43263924353634
 20
15.18545927175809
 30
0.0
340
16E6
213
0.0
223
-0.127506684484375
233
0.0
1001
ACAD
1000
DSTYLE
1002
{
1070
     5
1000

1070
    77
1070
     0
1070
   147
1040
0.09
1002
}
  0
MTEXT
  5
16E6
102
{ACAD_REACTORS
330
16E5
102
}
330
1E
100
AcDbEntity
  8
DIM
100
AcDbMText
 10
13.59013924353634
 20
15.31296595624247
 30
0.0
 40
0.217999999987
 41
0.0
 71
     1
 72
     1
  1
#4-40 THREADED INSERT\P(6) PLACES
  7
TXT
1001
ACAD
1000
MTEXTBEGIN
1070
    73
1070
     1
1070
    44
1040
1.0
1070
    74
1070
     0
1000
MTEXTEND
  0
LEADER
  5
16E9
330
1E
100
AcDbEntity
  8
DIM
100
AcDbLeader
  3
23NSTDI
 40
2.770833333333333
 41
1.239583333333333
 76
     3
 10
12.33173654525121
 20
9.291052243011284
 30
0.0
 10
13.00109891390639
 20
7.737306403149522
 30
0.0
 10
13.36070662604949
 20
7.737306403149522
 30
0.0
213
0.0
223
-0.127506684484375
233
0.0
1001
ACAD
1000
DSTYLE
1002
{
1070
     5
1000

1070
    77
1070
     0
1070
   147
1040
0.09
1002
}
  0
TEXT
  5
16EB
330
1E
100
AcDbEntity
  8
DIM
100
AcDbText
 10
13.47693105506063
 20
7.656672291629364
 30
0.0
 40
0.217999999987
  1
0.187 DIA. (4) HOLES
 41
0.75
  7
TXT
100
AcDbText
  0
TEXT
  5
16EC
330
1E
100
AcDbEntity
  8
DIM
100
AcDbText
 10
13.47693105506063
 20
7.325352435771462
 30
0.0
 40
0.217999999987
  1
(TO FIT A #6 SCREW)
 41
0.75
  7
TXT
100
AcDbText
  0
LINE
  5
1716
330
1E
100
AcDbEntity
  8
CENTER
100
AcDbLine
 10
5.742529505108549
 20
11.07328083758688
 30
0.0
 11
6.514172170600659
 21
11.07328083758688
 31
0.0
  0
LEADER
  5
1718
330
1E
100
AcDbEntity
  8
DIM
100
AcDbLeader
  3
23NSTDI
 40
0.9479166666666664
 41
0.8020833333333332
 76
     3
 10
4.534701154723919
 20
12.80731340791951
 30
0.0
 10
5.317613345955651
 20
12.11079802500399
 30
0.0
 10
5.532109841485612
 20
12.11079802500399
 30
0.0
213
0.0
223
-0.127506684484375
233
0.0
1001
ACAD
1000
DSTYLE
1002
{
1070
     5
1000

1070
    77
1070
     0
1070
   147
1040
0.09
1002
}
  0
TEXT
  5
171D
330
1E
100
AcDbEntity
  8
DIM
100
AcDbText
 10
5.60718363237374
 20
12.03578870455213
 30
0.0
 40
0.217999999987
  1
0.190 DIA. BOSS
 41
0.75
  7
TXT
100
AcDbText
  0
TEXT
  5
171E
330
1E
100
AcDbEntity
  8
DIM
100
AcDbText
 10
5.60718363237374
 20
11.67245537124045
 30
0.0
 40
0.217999999987
  1
(8) PLACES
 41
0.75
  7
TXT
100
AcDbText
  0
LEADER
  5
171F
330
1E
100
AcDbEntity
  8
DIM
100
AcDbLeader
  3
23NSTDI
 40
2.041666666666666
 41
1.239583333333333
 76
     3
 10
4.441341970343325
 20
12.78760999211787
 30
0.0
 10
4.89178459932116
 20
10.45299308438514
 30
0.0
 10
5.052657058231805
 20
10.45299308438514
 30
0.0
213
0.0
223
-0.127506684484375
233
0.0
1001
ACAD
1000
DSTYLE
1002
{
1070
     5
1000

1070
    77
1070
     0
1070
   147
1040
0.09
1002
}
  0
TEXT
  5
1721
330
1E
100
AcDbEntity
  8
DIM
100
AcDbText
 10
5.127730732769034
 20
10.36726817408107
 30
0.0
 40
0.217999999987
  1
0.090 x 0.250 DEEP
 41
0.75
  7
TXT
100
AcDbText
  0
TEXT
  5
1722
330
1E
100
AcDbEntity
  8
DIM
100
AcDbText
 10
5.127730732769034
 20
10.00393484076941
 30
0.0
 40
0.217999999987
  1
(8) PLACES
 41
0.75
  7
TXT
100
AcDbText
  0
TEXT
  5
1747
330
1E
100
AcDbEntity
  8
TEXT
100
AcDbText
 10
2.603434130191502
 20
26.51752397399974
 30
0.0
 40
0.275
  1
UTILIBOX  (STYLE A)
 41
0.75
  7
TXT
100
AcDbText
  0
TEXT
  5
2077
330
1E
100
AcDbEntity
  8
TEXT
100
AcDbText
 10
10.32785948261521
 20
26.79094988538855
 30
0.0
 40
0.1831200655785925
  1
CU-3285 & CU-3285-MB
 41
0.75
  7
TXT
 72
     1
 11
11.67836996625733
 21
26.79094988538855
 31
0.0
100
AcDbText
  0
TEXT
  5
2078
330
1E
100
AcDbEntity
  8
TEXT
100
AcDbText
 10
9.998426002719442
 20
26.33708747341902
 30
0.0
 40
0.1831200655785925
  1
CUR-3285-C & CUR-3285-CMB
 41
0.75
  7
TXT
 72
     1
 11
11.69228660932142
 21
26.33708747341902
 31
0.0
100
AcDbText
  0
TEXT
  5
2079
330
1E
100
AcDbEntity
  8
TEXT
100
AcDbText
 10
10.20085565046596
 20
26.56806836658932
 30
0.0
 40
0.1831200655785925
  1
CUR-3285 & CUR-3285-MB
 41
0.75
  7
TXT
 72
     1
 11
11.68870618329203
 21
26.56806836658932
 31
0.0
100
AcDbText
  0
TEXT
  5
2088
330
1E
100
AcDbEntity
  8
TEXT
100
AcDbText
 10
0.5338116953110275
 20
22.57445603034593
 30
0.0
 40
0.2179252232029861
  1
RECESSED (CUR-) AND CLEAR COVERS (-C) ARE SMOOTH FINISH
 41
0.75
  7
TXT
100
AcDbText
  0
TEXT
  5
2089
330
1E
100
AcDbEntity
  8
TEXT
100
AcDbText
 10
0.5156508376309575
 20
24.78127891772049
 30
0.0
 40
0.2179252232029861
  1
%%URECESSED COVERS (CUR-)%%U
 41
0.75
  7
TXT
100
AcDbText
  0
TEXT
  5
208A
330
1E
100
AcDbEntity
  8
TEXT
100
AcDbText
 10
0.9313772603561631
 20
24.44639039568521
 30
0.0
 40
0.2179252232029861
  1
ABS THERMOPLASTIC (FLAMMABILITY RATING UL94-5VA)
 41
0.75
  7
TXT
100
AcDbText
  0
TEXT
  5
208B
330
1E
100
AcDbEntity
  8
TEXT
100
AcDbText
 10
0.52655319759178
 20
25.46170338081501
 30
0.0
 40
0.2179252232029861
  1
%%UBODY AND STANDARD COVERS%%U
 41
0.75
  7
TXT
100
AcDbText
  0
TEXT
  5
208C
330
1E
100
AcDbEntity
  8
TEXT
100
AcDbText
 10
0.9335657637658465
 20
23.76296241992178
 30
0.0
 40
0.2179252232029861
  1
ABS THERMOPLASTIC (FLAMMABILITY RATING UL94V-2)
 41
0.75
  7
TXT
100
AcDbText
  0
TEXT
  5
208D
330
1E
100
AcDbEntity
  8
TEXT
100
AcDbText
 10
0.9447360305213004
 20
25.14543644086909
 30
0.0
 40
0.2179252232029861
  1
ABS THERMOPLASTIC (FLAMMABILITY RATING UL94-5VA)
 41
0.75
  7
TXT
100
AcDbText
  0
TEXT
  5
208E
330
1E
100
AcDbEntity
  8
TEXT
100
AcDbText
 10
0.5256777441369894
 20
22.91312266272147
 30
0.0
 40
0.2179252232029861
  1
BODY AND STANDARD COVERS ARE BLACK TEXTURED
 41
0.75
  7
TXT
100
AcDbText
  0
TEXT
  5
208F
330
1E
100
AcDbEntity
  8
TEXT
100
AcDbText
 10
0.4705834756283498
 20
23.27162838409353
 30
0.0
 40
0.2179252232029861
  1
%%UFINISH%%U
 41
0.75
  7
TXT
100
AcDbText
  0
TEXT
  5
2090
330
1E
100
AcDbEntity
  8
TEXT
100
AcDbText
 10
0.5178393410406408
 20
24.09785094195707
 30
0.0
 40
0.2179252232029861
  1
%%UCLEAR COVERS (-C)%%U
 41
0.75
  7
TXT
100
AcDbText
  0
TEXT
  5
2091
330
1E
100
AcDbEntity
  8
TEXT
100
AcDbText
 10
0.5059962578918944
 20
25.82145114051454
 30
0.0
 40
0.2179252232029861
  1
%%UMATERIAL:%%U
 41
0.75
  7
TXT
100
AcDbText
  0
TEXT
  5
222D
330
1E
100
AcDbEntity
  8
TEXT
100
AcDbText
 10
16.17322169076376
 20
26.51752397399974
 30
0.0
 40
0.275
  1
9-2-10
 41
0.75
  7
TXT
100
AcDbText
  0
DIMENSION
  5
2233
330
1E
100
AcDbEntity
  8
DIM
100
AcDbDimension
  2
*D26
 10
3.601613456732209
 20
1.934439908038505
 30
0.0
 11
5.673167311557696
 21
6.126553778599761
 31
0.0
 70
    34
  1
1-1/2° DRAFT
  3
23NSTD
100
AcDb2LineAngularDimension
 13
3.601613456732209
 23
2.457505479903757
 33
0.0
 14
3.676894726255013
 24
5.332381176903759
 34
0.0
 15
3.601613456732209
 25
2.456512431303756
 35
0.0
 16
3.634249030448532
 26
6.197171818252659
 36
0.0
  0
TEXT
  5
245F
330
1E
100
AcDbEntity
  8
DIM
100
AcDbText
 10
4.784790830033628
 20
5.682594999809545
 30
0.0
 40
0.218
  1
ALL OUTSIDE WALL SURFACES
 41
0.75
  7
TXT
100
AcDbText
  0
DIMENSION
  5
2460
330
1E
100
AcDbEntity
  8
DIM
100
AcDbDimension
  2
*D27
 10
11.80201837145499
 20
5.707651692752709
 30
0.0
 11
10.72740899645499
 21
5.707651692752709
 31
0.0
 70
    32
  3
23NSTD
100
AcDbAlignedDimension
 13
11.927142495055
 23
5.332381176903759
 33
0.0
 14
11.80201837145499
 24
5.33238117690375
 34
0.0
 50
180.0
100
AcDbRotatedDimension
  0
DIMENSION
  5
2496
330
1E
100
AcDbEntity
  8
DIM
100
AcDbDimension
  2
*D28
 10
11.33478900515501
 20
2.078843865671807
 30
0.0
 11
13.19079226036988
 21
4.533808444034003
 31
0.0
 70
    34
  1
1/2° DRAFT
  3
23NSTD
100
AcDb2LineAngularDimension
 13
11.33478900515501
 23
2.442609750903756
 33
0.0
 14
11.35539476360502
 24
4.423932678788138
 34
0.0
 15
11.33478900515501
 25
2.442609750903756
 35
0.0
 16
11.34237543024849
 26
4.631071735110351
 36
0.0
  0
TEXT
  5
2567
330
1E
100
AcDbEntity
  8
DIM
100
AcDbText
 10
12.45326757886827
 20
4.109225034557987
 30
0.0
 40
0.218
  1
ALL INSIDE SURFACES
 41
0.75
  7
TXT
100
AcDbText
  0
LINE
  5
26B1
330
1E
100
AcDbEntity
  8
TITLE
100
AcDbLine
 10
0.1084999999999959
 20
1.564500000000002
 30
0.0
 11
17.60426068884582
 21
1.564500000000002
 31
0.0
  0
LINE
  5
26B2
330
1E
100
AcDbEntity
  8
TITLE
100
AcDbLine
 10
0.1084999999999959
 20
1.200500000000002
 30
0.0
 11
17.60426068884582
 21
1.200500000000002
 31
0.0
  0
LINE
  5
26B3
330
1E
100
AcDbEntity
  8
TITLE
100
AcDbLine
 10
0.1084999999999959
 20
0.8365000000000019
 30
0.0
 11
17.60426068884582
 21
0.8365000000000019
 31
0.0
  0
LINE
  5
26B4
330
1E
100
AcDbEntity
  8
TITLE
100
AcDbLine
 10
0.1084999999999959
 20
0.472500000000002
 30
0.0
 11
17.60426068884582
 21
0.472500000000002
 31
0.0
  0
TEXT
  5
26BF
330
1E
100
AcDbEntity
  8
TEXT
100
AcDbText
 10
12.65598124697658
 20
6.424361773384092
 30
0.0
 40
0.217999999854
  1
NOTE: ALL DIMENSIONS HAVE %%P0.010
 41
0.75
  7
TXT
100
AcDbText
  0
TEXT
  5
26C0
330
1E
100
AcDbEntity
  8
TEXT
100
AcDbText
 10
12.65598124697658
 20
6.061028440050758
 30
0.0
 40
0.217999999854
  1
  TOLERANCE UNLESS OTHERWISE
 41
0.75
  7
TXT
100
AcDbText
  0
TEXT
  5
26C1
330
1E
100
AcDbEntity
  8
TEXT
100
AcDbText
 10
12.65598124697658
 20
5.697695106717425
 30
0.0
 40
0.217999999854
  1
  SPECIFIED
 41
0.75
  7
TXT
100
AcDbText
  0
TEXT
  5
26D3
330
1E
100
AcDbEntity
  8
DIM
100
AcDbText
 10
0.2493083676183971
 20
8.049295150649108
 30
0.0
 40
0.218
  1
OPTIONAL MOUNTING
 41
0.75
  7
TXT
100
AcDbText
  0
TEXT
  5
26D4
330
1E
100
AcDbEntity
  8
DIM
100
AcDbText
 10
0.2493083676183971
 20
7.685961817315774
 30
0.0
 40
0.218
  1
BRACKETS ARE AVAIL-
 41
0.75
  7
TXT
100
AcDbText
  0
TEXT
  5
26D5
330
1E
100
AcDbEntity
  8
DIM
100
AcDbText
 10
0.2493083676183971
 20
7.322628483982441
 30
0.0
 40
0.218
  1
ABLE BY ADDING
 41
0.75
  7
TXT
100
AcDbText
  0
TEXT
  5
26D7
330
1E
100
AcDbEntity
  8
DIM
100
AcDbText
 10
0.2493083676183971
 20
6.595961817315775
 30
0.0
 40
0.218
  1
CATALOG PART NO.
 41
0.75
  7
TXT
100
AcDbText
  0
TEXT
  5
26D8
330
1E
100
AcDbEntity
  8
DIM
100
AcDbText
 10
0.2493083676183971
 20
6.959295150649108
 30
0.0
 40
0.218
  1
SUFFIX "-MB" TO
 41
0.75
  7
TXT
100
AcDbText
  0
LEADER
  5
2915
330
1E
100
AcDbEntity
  8
DIM
100
AcDbLeader
  3
23NSTDI
 73
     0
 75
     1
 40
0.5833333333333333
 41
0.65625
 76
     3
 10
3.479467607060783
 20
8.917020470110188
 30
0.0
 10
3.267568619755524
 20
8.170495975136745
 30
0.0
 10
2.952568619755524
 20
8.170495975136745
 30
0.0
340
2916
213
-0.2831099106231534
223
0.0936587445359294
233
0.0
1001
ACAD
1000
DSTYLE
1002
{
1070
     5
1000

1002
}
  0
MTEXT
  5
2916
102
{ACAD_REACTORS
330
2915
102
}
330
1E
100
AcDbEntity
  8
OBJECT
100
AcDbMText
 10
3.078178530378677
 20
8.076837230600816
 30
0.0
 40
0.21875
 41
0.09
 71
     9
 72
     1
  1
\A1;    
  7
TXT
1001
ACAD
1000
MTEXTBEGIN
1070
    73
1070
     1
1070
    44
1040
1.0
1070
    74
1070
     0
1000
MTEXTEND
  0
VIEWPORT
  5
1E4
330
1A
100
AcDbEntity
 67
     1
  8
0
100
AcDbViewport
 10
6.0
 20
4.50943396226415
 30
0.0
 40
12.0
 41
9.018867924528301
 68
     1
 69
     1
1001
ACAD
1000
MVIEW
1002
{
1070
    16
1010
0.0
1020
0.0
1030
0.0
1010
0.0
1020
0.0
1030
1.0
1040
0.0
1040
9.018867924528301
1040
6.0
1040
4.50943396226415
1040
50.0
1040
0.0
1040
0.0
1070
     0
1070
  5000
1070
     1
1070
     1
1070
     0
1070
     0
1070
     0
1070
     0
1040
0.0
1040
0.0
1040
0.0
1040
1.0
1040
1.0
1040
0.0
1040
0.0
1070
     0
1002
{
1002
}
1002
}
  0
ENDSEC
  0
SECTION
  2
OBJECTS
  0
DICTIONARY
  5
C
330
0
100
AcDbDictionary
  3
ACAD_GROUP
350
D
  3
ACAD_LAYOUT
350
19
  3
ACAD_MLINESTYLE
350
16
  3
ACAD_PLOTSETTINGS
350
18
  3
ACAD_PLOTSTYLENAME
350
E
  3
ACADDIM
350
171C
  3
ACDBHEADERROUNDTRIPXREC
350
291D
  0
DICTIONARY
  5
2940
330
1E
100
AcDbDictionary
280
     1
  3
ACAD_LAYOUTSELFREF
360
2941
  0
DICTIONARY
  5
293E
330
1A
100
AcDbDictionary
280
     1
  3
ACAD_LAYOUTSELFREF
360
293F
  0
DICTIONARY
  5
D
102
{ACAD_REACTORS
330
C
102
}
330
C
100
AcDbDictionary
  0
DICTIONARY
  5
19
102
{ACAD_REACTORS
330
C
102
}
330
C
100
AcDbDictionary
  0
DICTIONARY
  5
16
102
{ACAD_REACTORS
330
C
102
}
330
C
100
AcDbDictionary
  3
STANDARD
350
17
  0
DICTIONARY
  5
18
102
{ACAD_REACTORS
330
C
102
}
330
C
100
AcDbDictionary
  0
ACDBDICTIONARYWDFLT
  5
E
102
{ACAD_REACTORS
330
C
102
}
330
C
100
AcDbDictionary
281
     1
  3
Normal
350
F
100
AcDbDictionaryWithDefault
340
F
  0
XRECORD
  5
171C
102
{ACAD_REACTORS
330
C
102
}
330
C
100
AcDbXrecord
 90
   990106
  3

 60
     0
 61
     0
 62
     1
 63
     3
 64
     0
 65
     0
 66
     0
 67
     3
 68
     1
 69
     0
 70
     0
 71
     0
 72
     0
 40
0.09
170
     0
340
2916
  0
DICTIONARY
  5
291D
102
{ACAD_REACTORS
330
C
102
}
330
C
100
AcDbDictionary
  3
TSTACKALIGN
350
291E
  3
TSTACKSIZE
350
291F
  3
HYPERLINKBASE
350
2920
  3
STYLESHEET
350
2921
  3
LAYOUTDICT
350
2922
  3
PLOTSETDICT
350
2923
  3
PLOTSTYLNAMDICT
350
2924
  3
LWETCUNION
350
2925
  3
INSUNITS
350
2926
  3
CEPSNTYPE
350
2927
  3
FINGERPRINTGUID
350
2928
  3
VERSIONGUID
350
2929
  3
PSVPSCALE
350
292A
  3
DIMSTYLEDATA
350
292B
  3
PUCSORTHOREF
350
292C
  3
PUCSORTHOVIEW
350
292D
  3
PUCSBASE
350
292E
  3
PUCSORGTOP
350
292F
  3
PUCSORGBOTTOM
350
2930
  3
PUCSORGLEFT
350
2931
  3
PUCSORGRIGHT
350
2932
  3
PUCSORGFRONT
350
2933
  3
PUCSORGBACK
350
2934
  3
UCSORTHOREF
350
2935
  3
UCSORTHOVIEW
350
2936
  3
UCSBASE
350
2937
  3
UCSORGTOP
350
2938
  3
UCSORGBOTTOM
350
2939
  3
UCSORGLEFT
350
293A
  3
UCSORGRIGHT
350
293B
  3
UCSORGFRONT
350
293C
  3
UCSORGBACK
350
293D
  0
XRECORD
  5
2941
102
{ACAD_REACTORS
330
2940
102
}
330
2940
100
AcDbXrecord
340
1E
  0
XRECORD
  5
293F
102
{ACAD_REACTORS
330
293E
102
}
330
293E
100
AcDbXrecord
340
1A
  0
MLINESTYLE
  5
17
102
{ACAD_REACTORS
330
16
102
}
330
16
100
AcDbMlineStyle
  2
STANDARD
 70
     0
  3

 62
   256
 51
90.0
 52
90.0
 71
     2
 49
0.5
 62
   256
  6
BYLAYER
 49
-0.5
 62
   256
  6
BYLAYER
  0
ACDBPLACEHOLDER
  5
F
102
{ACAD_REACTORS
330
E
102
}
330
E
100
AcDbPlaceHolder
280
     0
  0
XRECORD
  5
291E
102
{ACAD_REACTORS
330
291D
102
}
330
291D
100
AcDbXrecord
 90
        1
  0
XRECORD
  5
291F
102
{ACAD_REACTORS
330
291D
102
}
330
291D
100
AcDbXrecord
 90
       70
  0
XRECORD
  5
2920
102
{ACAD_REACTORS
330
291D
102
}
330
291D
100
AcDbXrecord
  1

  0
XRECORD
  5
2921
102
{ACAD_REACTORS
330
291D
102
}
330
291D
100
AcDbXrecord
  1
monochrome.ctb
  0
XRECORD
  5
2922
102
{ACAD_REACTORS
330
291D
102
}
330
291D
100
AcDbXrecord
340
19
  0
XRECORD
  5
2923
102
{ACAD_REACTORS
330
291D
102
}
330
291D
100
AcDbXrecord
340
18
  0
XRECORD
  5
2924
102
{ACAD_REACTORS
330
291D
102
}
330
291D
100
AcDbXrecord
340
E
  0
XRECORD
  5
2925
102
{ACAD_REACTORS
330
291D
102
}
330
291D
100
AcDbXrecord
 90
    10781
  0
XRECORD
  5
2926
102
{ACAD_REACTORS
330
291D
102
}
330
291D
100
AcDbXrecord
 90
        0
  0
XRECORD
  5
2927
102
{ACAD_REACTORS
330
291D
102
}
330
291D
100
AcDbXrecord
 90
        0
  0
XRECORD
  5
2928
102
{ACAD_REACTORS
330
291D
102
}
330
291D
100
AcDbXrecord
  1
{9537BF74-DE25-11D3-8155-00C04F604D34}
  0
XRECORD
  5
2929
102
{ACAD_REACTORS
330
291D
102
}
330
291D
100
AcDbXrecord
  1
{4D0846D3-C8B0-42A4-96A9-F7D752C94FC6}
  0
XRECORD
  5
292A
102
{ACAD_REACTORS
330
291D
102
}
330
291D
100
AcDbXrecord
 40
0.0
  0
XRECORD
  5
292B
102
{ACAD_REACTORS
330
291D
102
}
330
291D
100
AcDbXrecord
1000
DSTYLE
1002
{
1070
   179
 70
     3
1070
   289
 70
     1
1002
}
  0
XRECORD
  5
292C
102
{ACAD_REACTORS
330
291D
102
}
330
291D
100
AcDbXrecord
340
0
  0
XRECORD
  5
292D
102
{ACAD_REACTORS
330
291D
102
}
330
291D
100
AcDbXrecord
 70
     0
  0
XRECORD
  5
292E
102
{ACAD_REACTORS
330
291D
102
}
330
291D
100
AcDbXrecord
340
0
  0
XRECORD
  5
292F
102
{ACAD_REACTORS
330
291D
102
}
330
291D
100
AcDbXrecord
 10
0.0
 20
0.0
 30
0.0
  0
XRECORD
  5
2930
102
{ACAD_REACTORS
330
291D
102
}
330
291D
100
AcDbXrecord
 10
0.0
 20
0.0
 30
0.0
  0
XRECORD
  5
2931
102
{ACAD_REACTORS
330
291D
102
}
330
291D
100
AcDbXrecord
 10
0.0
 20
0.0
 30
0.0
  0
XRECORD
  5
2932
102
{ACAD_REACTORS
330
291D
102
}
330
291D
100
AcDbXrecord
 10
0.0
 20
0.0
 30
0.0
  0
XRECORD
  5
2933
102
{ACAD_REACTORS
330
291D
102
}
330
291D
100
AcDbXrecord
 10
0.0
 20
0.0
 30
0.0
  0
XRECORD
  5
2934
102
{ACAD_REACTORS
330
291D
102
}
330
291D
100
AcDbXrecord
 10
0.0
 20
0.0
 30
0.0
  0
XRECORD
  5
2935
102
{ACAD_REACTORS
330
291D
102
}
330
291D
100
AcDbXrecord
340
0
  0
XRECORD
  5
2936
102
{ACAD_REACTORS
330
291D
102
}
330
291D
100
AcDbXrecord
 70
     0
  0
XRECORD
  5
2937
102
{ACAD_REACTORS
330
291D
102
}
330
291D
100
AcDbXrecord
340
0
  0
XRECORD
  5
2938
102
{ACAD_REACTORS
330
291D
102
}
330
291D
100
AcDbXrecord
 10
0.0
 20
0.0
 30
0.0
  0
XRECORD
  5
2939
102
{ACAD_REACTORS
330
291D
102
}
330
291D
100
AcDbXrecord
 10
0.0
 20
0.0
 30
0.0
  0
XRECORD
  5
293A
102
{ACAD_REACTORS
330
291D
102
}
330
291D
100
AcDbXrecord
 10
0.0
 20
0.0
 30
0.0
  0
XRECORD
  5
293B
102
{ACAD_REACTORS
330
291D
102
}
330
291D
100
AcDbXrecord
 10
0.0
 20
0.0
 30
0.0
  0
XRECORD
  5
293C
102
{ACAD_REACTORS
330
291D
102
}
330
291D
100
AcDbXrecord
 10
0.0
 20
0.0
 30
0.0
  0
XRECORD
  5
293D
102
{ACAD_REACTORS
330
291D
102
}
330
291D
100
AcDbXrecord
 10
0.0
 20
0.0
 30
0.0
  0
ENDSEC
  0
EOF
