  0
SECTION
  2
HEADER
  9
$ACADVER
  1
AC1014
  9
$ACADMAINTVER
 70
     9
  9
$DWGCODEPAGE
  3
ANSI_1252
  9
$INSBASE
 10
0.0
 20
0.0
 30
0.0
  9
$EXTMIN
 10
0.0
 20
-0.000000000000004
 30
0.0
  9
$EXTMAX
 10
22.76999999999999
 20
34.875
 30
0.0
  9
$LIMMIN
 10
0.0
 20
0.0
  9
$LIMMAX
 10
15.17999999999999
 20
23.24999999999998
  9
$ORTHOMODE
 70
     0
  9
$REGENMODE
 70
     1
  9
$FILLMODE
 70
     1
  9
$QTEXTMODE
 70
     0
  9
$MIRRTEXT
 70
     0
  9
$DRAGMODE
 70
     2
  9
$LTSCALE
 40
0.5
  9
$OSMODE
 70
   229
  9
$ATTMODE
 70
     1
  9
$TEXTSIZE
 40
0.281
  9
$TRACEWID
 40
0.05
  9
$TEXTSTYLE
  7
TXT
  9
$CLAYER
  8
OBJECT
  9
$CELTYPE
  6
BYLAYER
  9
$CECOLOR
 62
   256
  9
$CELTSCALE
 40
1.0
  9
$DELOBJ
 70
     1
  9
$DISPSILH
 70
     0
  9
$DIMSCALE
 40
2.25
  9
$DIMASZ
 40
0.18
  9
$DIMEXO
 40
0.063
  9
$DIMDLI
 40
0.281
  9
$DIMRND
 40
0.0
  9
$DIMDLE
 40
0.0
  9
$DIMEXE
 40
0.093
  9
$DIMTP
 40
0.0
  9
$DIMTM
 40
0.0
  9
$DIMTXT
 40
0.125
  9
$DIMCEN
 40
0.09
  9
$DIMTSZ
 40
0.0
  9
$DIMTOL
 70
     0
  9
$DIMLIM
 70
     0
  9
$DIMTIH
 70
     1
  9
$DIMTOH
 70
     1
  9
$DIMSE1
 70
     0
  9
$DIMSE2
 70
     0
  9
$DIMTAD
 70
     0
  9
$DIMZIN
 70
     0
  9
$DIMBLK
  1

  9
$DIMASO
 70
     1
  9
$DIMSHO
 70
     1
  9
$DIMPOST
  1

  9
$DIMAPOST
  1

  9
$DIMALT
 70
     0
  9
$DIMALTD
 70
     2
  9
$DIMALTF
 40
25.4
  9
$DIMLFAC
 40
1.0
  9
$DIMTOFL
 70
     0
  9
$DIMTVP
 40
0.0
  9
$DIMTIX
 70
     0
  9
$DIMSOXD
 70
     0
  9
$DIMSAH
 70
     0
  9
$DIMBLK1
  1

  9
$DIMBLK2
  1

  9
$DIMSTYLE
  2
23NSTD
  9
$DIMCLRD
 70
     0
  9
$DIMCLRE
 70
     0
  9
$DIMCLRT
 70
     0
  9
$DIMTFAC
 40
1.0
  9
$DIMGAP
 40
0.09
  9
$DIMJUST
 70
     0
  9
$DIMSD1
 70
     0
  9
$DIMSD2
 70
     0
  9
$DIMTOLJ
 70
     1
  9
$DIMTZIN
 70
     0
  9
$DIMALTZ
 70
     0
  9
$DIMALTTZ
 70
     0
  9
$DIMFIT
 70
     1
  9
$DIMUPT
 70
     0
  9
$DIMUNIT
 70
     2
  9
$DIMDEC
 70
     3
  9
$DIMTDEC
 70
     3
  9
$DIMALTU
 70
     2
  9
$DIMALTTD
 70
     2
  9
$DIMTXSTY
  7
TXT
  9
$DIMAUNIT
 70
     0
  9
$LUNITS
 70
     2
  9
$LUPREC
 70
     3
  9
$SKETCHINC
 40
0.1
  9
$FILLETRAD
 40
0.188
  9
$AUNITS
 70
     0
  9
$AUPREC
 70
     0
  9
$MENU
  1
acad
  9
$ELEVATION
 40
0.0
  9
$PELEVATION
 40
0.0
  9
$THICKNESS
 40
0.0
  9
$LIMCHECK
 70
     0
  9
$BLIPMODE
 70
     0
  9
$CHAMFERA
 40
0.7530000000000002
  9
$CHAMFERB
 40
0.7530000000000002
  9
$CHAMFERC
 40
0.0
  9
$CHAMFERD
 40
0.0
  9
$SKPOLY
 70
     0
  9
$TDCREATE
 40
2450137.349551968
  9
$TDUPDATE
 40
2455471.448015763
  9
$TDINDWG
 40
1.6217124421
  9
$TDUSRTIMER
 40
1.6217124421
  9
$USRTIMER
 70
     1
  9
$ANGBASE
 50
0.0
  9
$ANGDIR
 70
     0
  9
$PDMODE
 70
     0
  9
$PDSIZE
 40
0.0
  9
$PLINEWID
 40
0.0
  9
$COORDS
 70
     2
  9
$SPLFRAME
 70
     0
  9
$SPLINETYPE
 70
     6
  9
$SPLINESEGS
 70
     8
  9
$ATTDIA
 70
     0
  9
$ATTREQ
 70
     1
  9
$HANDLING
 70
  4097
  9
$HANDSEED
  5
34AC
  9
$SURFTAB1
 70
     6
  9
$SURFTAB2
 70
     6
  9
$SURFTYPE
 70
     6
  9
$SURFU
 70
     6
  9
$SURFV
 70
     6
  9
$UCSNAME
  2

  9
$UCSORG
 10
0.0
 20
0.0
 30
0.0
  9
$UCSXDIR
 10
1.0
 20
0.0
 30
0.0
  9
$UCSYDIR
 10
0.0
 20
1.0
 30
0.0
  9
$PUCSNAME
  2

  9
$PUCSORG
 10
0.0
 20
0.0
 30
0.0
  9
$PUCSXDIR
 10
1.0
 20
0.0
 30
0.0
  9
$PUCSYDIR
 10
0.0
 20
1.0
 30
0.0
  9
$USERI1
 70
     0
  9
$USERI2
 70
     0
  9
$USERI3
 70
     0
  9
$USERI4
 70
     0
  9
$USERI5
 70
     0
  9
$USERR1
 40
0.0
  9
$USERR2
 40
0.0
  9
$USERR3
 40
0.0
  9
$USERR4
 40
0.0
  9
$USERR5
 40
0.0
  9
$WORLDVIEW
 70
     1
  9
$SHADEDGE
 70
     3
  9
$SHADEDIF
 70
    70
  9
$TILEMODE
 70
     1
  9
$MAXACTVP
 70
    16
  9
$PINSBASE
 10
0.0
 20
0.0
 30
0.0
  9
$PLIMCHECK
 70
     0
  9
$PEXTMIN
 10
1.000000000000000E+20
 20
1.000000000000000E+20
 30
1.000000000000000E+20
  9
$PEXTMAX
 10
-1.000000000000000E+20
 20
-1.000000000000000E+20
 30
-1.000000000000000E+20
  9
$PLIMMIN
 10
0.0
 20
0.0
  9
$PLIMMAX
 10
12.0
 20
9.0
  9
$UNITMODE
 70
     0
  9
$VISRETAIN
 70
     0
  9
$PLINEGEN
 70
     0
  9
$PSLTSCALE
 70
     1
  9
$TREEDEPTH
 70
  3020
  9
$PICKSTYLE
 70
     1
  9
$CMLSTYLE
  2
STANDARD
  9
$CMLJUST
 70
     0
  9
$CMLSCALE
 40
1.0
  9
$PROXYGRAPHICS
 70
     1
  9
$MEASUREMENT
 70
     0
  0
ENDSEC
  0
SECTION
  2
CLASSES
  0
CLASS
  1
ACDBDICTIONARYWDFLT
  2
AcDbDictionaryWithDefault
  3
AutoCAD 2000
 90
        0
280
     0
281
     0
  0
CLASS
  1
ACDBPLACEHOLDER
  2
AcDbPlaceHolder
  3
AutoCAD 2000
 90
        0
280
     0
281
     0
  0
CLASS
  1
LAYOUT
  2
AcDbLayout
  3
AutoCAD 2000
 90
        0
280
     0
281
     0
  0
CLASS
  1
LONG_TRANSACTION
  2
AcDbLongTransaction
  3
AutoCAD 2000
 90
        0
280
     0
281
     0
  0
CLASS
  1
LWPOLYLINE
  2
AcDbPolyline
  3
AutoCAD 2000
 90
        0
280
     0
281
     1
  0
CLASS
  1
HATCH
  2
AcDbHatch
  3
AutoCAD 2000
 90
        0
280
     0
281
     1
  0
CLASS
  1
XRECORD
  2
AcDbXrecord
  3
AutoCAD 2000
 90
        0
280
     0
281
     0
  0
ENDSEC
  0
SECTION
  2
TABLES
  0
TABLE
  2
VPORT
  5
8
330
0
100
AcDbSymbolTable
 70
     2
  0
VPORT
  5
346B
330
8
100
AcDbSymbolTableRecord
100
AcDbViewportTableRecord
  2
*ACTIVE
 70
     0
 10
0.0
 20
0.0
 11
1.0
 21
1.0
 12
11.38500030485834
 22
17.43758593123587
 13
0.0
 23
0.0
 14
1.0
 24
1.0
 15
0.0
 25
0.0
 16
0.0
 26
0.0
 36
1.0
 17
0.0
 27
0.0
 37
0.0
 40
35.22808039316098
 41
1.836974789915966
 42
50.0
 43
0.0
 44
0.0
 50
0.0
 51
0.0
 71
     0
 72
  5000
 73
     1
 74
     0
 75
     0
 76
     0
 77
     0
 78
     0
  0
ENDTAB
  0
TABLE
  2
LTYPE
  5
5
330
0
100
AcDbSymbolTable
 70
     7
  0
LTYPE
  5
13
330
5
100
AcDbSymbolTableRecord
100
AcDbLinetypeTableRecord
  2
BYBLOCK
 70
     0
  3

 72
    65
 73
     0
 40
0.0
  0
LTYPE
  5
14
330
5
100
AcDbSymbolTableRecord
100
AcDbLinetypeTableRecord
  2
BYLAYER
 70
     0
  3

 72
    65
 73
     0
 40
0.0
  0
LTYPE
  5
15
330
5
100
AcDbSymbolTableRecord
100
AcDbLinetypeTableRecord
  2
CONTINUOUS
 70
     0
  3
Solid line
 72
    65
 73
     0
 40
0.0
  0
LTYPE
  5
45
330
5
100
AcDbSymbolTableRecord
100
AcDbLinetypeTableRecord
  2
HIDDEN
 70
     0
  3
_ _ _ _ _ _ _ _ _ _ _ _ _ _ _ _ _ _ _ _ _ _ _
 72
    65
 73
     2
 40
0.375
 49
0.25
 74
     0
 49
-0.125
 74
     0
  0
LTYPE
  5
46
330
5
100
AcDbSymbolTableRecord
100
AcDbLinetypeTableRecord
  2
PHANTOM
 70
     0
  3
_____ _ _ _____ _ _ _____ _ _ _____ _ _ ____
 72
    65
 73
     6
 40
2.5
 49
1.25
 74
     0
 49
-0.25
 74
     0
 49
0.25
 74
     0
 49
-0.25
 74
     0
 49
0.25
 74
     0
 49
-0.25
 74
     0
  0
LTYPE
  5
47
330
5
100
AcDbSymbolTableRecord
100
AcDbLinetypeTableRecord
  2
CENTER
 70
     0
  3
____ _ ____ _ ____ _ ____ _ ____ _ ____ _ ____
 72
    65
 73
     4
 40
2.0
 49
1.25
 74
     0
 49
-0.25
 74
     0
 49
0.25
 74
     0
 49
-0.25
 74
     0
  0
LTYPE
  5
673
330
5
100
AcDbSymbolTableRecord
100
AcDbLinetypeTableRecord
  2
CENTER2
 70
     0
  3
Center (.5x) ___ _ ___ _ ___ _ ___ _ ___ _ ___
 72
    65
 73
     4
 40
1.125
 49
0.75
 74
     0
 49
-0.125
 74
     0
 49
0.125
 74
     0
 49
-0.125
 74
     0
  0
LTYPE
  5
674
330
5
100
AcDbSymbolTableRecord
100
AcDbLinetypeTableRecord
  2
HIDDEN2
 70
     0
  3
Hidden (.5x) _ _ _ _ _ _ _ _ _ _ _ _ _ _ _ _ _
 72
    65
 73
     2
 40
0.1875
 49
0.125
 74
     0
 49
-0.0625
 74
     0
  0
LTYPE
  5
2C56
330
5
100
AcDbSymbolTableRecord
100
AcDbLinetypeTableRecord
  2
PHANTOM2
 70
     0
  3
___ _ _ ___ _ _ ___ _ _ ___ _ _ ___ _ _ ___ _ _
 72
    65
 73
     6
 40
1.25
 49
0.625
 74
     0
 49
-0.125
 74
     0
 49
0.125
 74
     0
 49
-0.125
 74
     0
 49
0.125
 74
     0
 49
-0.125
 74
     0
  0
ENDTAB
  0
TABLE
  2
LAYER
  5
2
330
0
100
AcDbSymbolTable
 70
     9
  0
LAYER
  5
10
330
2
100
AcDbSymbolTableRecord
100
AcDbLayerTableRecord
  2
0
 70
     0
 62
     7
  6
CONTINUOUS
  0
LAYER
  5
4E
330
2
100
AcDbSymbolTableRecord
100
AcDbLayerTableRecord
  2
OBJECT
 70
     0
 62
     7
  6
CONTINUOUS
  0
LAYER
  5
4F
330
2
100
AcDbSymbolTableRecord
100
AcDbLayerTableRecord
  2
DIM
 70
     0
 62
     7
  6
CONTINUOUS
  0
LAYER
  5
50
330
2
100
AcDbSymbolTableRecord
100
AcDbLayerTableRecord
  2
HIDDEN
 70
     0
 62
     7
  6
HIDDEN
  0
LAYER
  5
51
330
2
100
AcDbSymbolTableRecord
100
AcDbLayerTableRecord
  2
BEND
 70
     0
 62
     7
  6
PHANTOM
  0
LAYER
  5
52
330
2
100
AcDbSymbolTableRecord
100
AcDbLayerTableRecord
  2
TEXT
 70
     0
 62
     7
  6
CONTINUOUS
  0
LAYER
  5
53
330
2
100
AcDbSymbolTableRecord
100
AcDbLayerTableRecord
  2
TITLE
 70
     0
 62
     7
  6
CONTINUOUS
  0
LAYER
  5
54
330
2
100
AcDbSymbolTableRecord
100
AcDbLayerTableRecord
  2
CENTER
 70
     0
 62
     7
  6
CENTER
  0
LAYER
  5
55
330
2
100
AcDbSymbolTableRecord
100
AcDbLayerTableRecord
  2
DEFPOINTS
 70
     0
 62
     7
  6
CONTINUOUS
  0
ENDTAB
  0
TABLE
  2
STYLE
  5
3
330
0
100
AcDbSymbolTable
 70
     3
  0
STYLE
  5
11
330
3
100
AcDbSymbolTableRecord
100
AcDbTextStyleTableRecord
  2
STANDARD
 70
     0
 40
0.0
 41
1.0
 50
0.0
 71
     0
 42
0.2
  3
txt
  4

  0
STYLE
  5
43
330
3
100
AcDbSymbolTableRecord
100
AcDbTextStyleTableRecord
  2
TXT
 70
     0
 40
0.0
 41
0.75
 50
0.0
 71
     0
 42
0.281
  3
TXT.shx
  4

  0
STYLE
  5
44
330
3
100
AcDbSymbolTableRecord
100
AcDbTextStyleTableRecord
  2
CITYBLUEPRINT
 70
     0
 40
0.125
 41
1.0
 50
0.0
 71
     0
 42
0.125
  3
cibt____.pfb
  4

  0
ENDTAB
  0
TABLE
  2
VIEW
  5
6
330
0
100
AcDbSymbolTable
 70
     0
  0
ENDTAB
  0
TABLE
  2
UCS
  5
7
330
0
100
AcDbSymbolTable
 70
     0
  0
ENDTAB
  0
TABLE
  2
APPID
  5
9
330
0
100
AcDbSymbolTable
 70
     2
  0
APPID
  5
12
330
9
100
AcDbSymbolTableRecord
100
AcDbRegAppTableRecord
  2
ACAD
 70
     0
  0
APPID
  5
345A
330
9
100
AcDbSymbolTableRecord
100
AcDbRegAppTableRecord
  2
DCO15
 70
     0
  0
ENDTAB
  0
TABLE
  2
DIMSTYLE
  5
A
330
0
100
AcDbSymbolTable
 70
     2
  0
DIMSTYLE
105
4A
102
{ACAD_REACTORS
330
A85
330
B64
330
8C9
330
A53
330
AD6
330
A54
330
201E
330
8CA
330
8C8
330
A86
330
A67
330
A68
330
A8C
330
A63
330
911
330
8DB
330
8DC
330
B20
330
B54
330
91B
330
AFE
330
95A
330
91A
330
1038
330
A51
330
294F
330
16E5
330
16E9
330
1718
330
171F
330
3334
330
3402
102
}
330
A
100
AcDbSymbolTableRecord
100
AcDbDimStyleTableRecord
  2
23NSTD
 70
     0
  3

  4

  5

  6

  7

 40
2.25
 41
0.18
 42
0.063
 43
0.281
 44
0.093
 45
0.0
 46
0.0
 47
0.0
 48
0.0
140
0.125
141
0.09
142
0.0
143
25.4
144
1.0
145
0.0
146
1.0
147
0.09
 71
     0
 72
     0
 73
     1
 74
     1
 75
     0
 76
     0
 77
     0
 78
     0
170
     0
171
     2
172
     0
173
     0
174
     0
175
     0
176
     0
177
     0
178
     0
270
     2
271
     3
272
     3
273
     2
274
     2
340
43
275
     0
280
     0
281
     0
282
     0
283
     1
284
     0
285
     0
286
     0
287
     1
288
     0
  0
DIMSTYLE
105
4B
330
A
100
AcDbSymbolTableRecord
100
AcDbDimStyleTableRecord
  2
23NSTDI
 70
     0
  3

  4

  5

  6

  7

 40
2.25
 41
0.18
 42
0.063
 43
0.281
 44
0.093
 45
0.0
 46
0.0
 47
0.0
 48
0.0
140
0.125
141
0.09
142
0.0
143
25.4
144
1.0
145
0.0
146
1.0
147
0.09
 71
     0
 72
     0
 73
     1
 74
     1
 75
     0
 76
     0
 77
     0
 78
     0
170
     0
171
     2
172
     0
173
     0
174
     1
175
     0
176
     0
177
     0
178
     0
270
     2
271
     3
272
     3
273
     2
274
     2
340
43
275
     0
280
     0
281
     0
282
     0
283
     1
284
     0
285
     0
286
     0
287
     3
288
     0
  0
ENDTAB
  0
TABLE
  2
BLOCK_RECORD
  5
1
330
0
100
AcDbSymbolTable
 70
    29
  0
BLOCK_RECORD
  5
1E
102
{ACAD_XDICTIONARY
360
348F
102
}
330
1
100
AcDbSymbolTableRecord
100
AcDbBlockTableRecord
  2
*MODEL_SPACE
  0
BLOCK_RECORD
  5
1A
102
{ACAD_XDICTIONARY
360
348D
102
}
330
1
100
AcDbSymbolTableRecord
100
AcDbBlockTableRecord
  2
*PAPER_SPACE
  0
BLOCK_RECORD
  5
22
330
1
100
AcDbSymbolTableRecord
100
AcDbBlockTableRecord
  2
HB
  0
BLOCK_RECORD
  5
96E
330
1
100
AcDbSymbolTableRecord
100
AcDbBlockTableRecord
  2
*D1
  0
BLOCK_RECORD
  5
97B
330
1
100
AcDbSymbolTableRecord
100
AcDbBlockTableRecord
  2
*D2
  0
BLOCK_RECORD
  5
988
330
1
100
AcDbSymbolTableRecord
100
AcDbBlockTableRecord
  2
*D3
  0
BLOCK_RECORD
  5
995
330
1
100
AcDbSymbolTableRecord
100
AcDbBlockTableRecord
  2
*D4
  0
BLOCK_RECORD
  5
9A2
330
1
100
AcDbSymbolTableRecord
100
AcDbBlockTableRecord
  2
*D5
  0
BLOCK_RECORD
  5
9AF
330
1
100
AcDbSymbolTableRecord
100
AcDbBlockTableRecord
  2
*D6
  0
BLOCK_RECORD
  5
9BC
330
1
100
AcDbSymbolTableRecord
100
AcDbBlockTableRecord
  2
*D7
  0
BLOCK_RECORD
  5
9C9
330
1
100
AcDbSymbolTableRecord
100
AcDbBlockTableRecord
  2
*D8
  0
BLOCK_RECORD
  5
9D6
330
1
100
AcDbSymbolTableRecord
100
AcDbBlockTableRecord
  2
*D9
  0
BLOCK_RECORD
  5
B80
330
1
100
AcDbSymbolTableRecord
100
AcDbBlockTableRecord
  2
*D10
  0
BLOCK_RECORD
  5
B9A
330
1
100
AcDbSymbolTableRecord
100
AcDbBlockTableRecord
  2
*D11
  0
BLOCK_RECORD
  5
BA7
330
1
100
AcDbSymbolTableRecord
100
AcDbBlockTableRecord
  2
*D12
  0
BLOCK_RECORD
  5
BC1
330
1
100
AcDbSymbolTableRecord
100
AcDbBlockTableRecord
  2
*D13
  0
BLOCK_RECORD
  5
BF7
330
1
100
AcDbSymbolTableRecord
100
AcDbBlockTableRecord
  2
*D14
  0
BLOCK_RECORD
  5
C04
330
1
100
AcDbSymbolTableRecord
100
AcDbBlockTableRecord
  2
*D15
  0
BLOCK_RECORD
  5
C20
330
1
100
AcDbSymbolTableRecord
100
AcDbBlockTableRecord
  2
*D16
  0
BLOCK_RECORD
  5
C2D
330
1
100
AcDbSymbolTableRecord
100
AcDbBlockTableRecord
  2
*D17
  0
BLOCK_RECORD
  5
C3A
330
1
100
AcDbSymbolTableRecord
100
AcDbBlockTableRecord
  2
*D18
  0
BLOCK_RECORD
  5
C47
330
1
100
AcDbSymbolTableRecord
100
AcDbBlockTableRecord
  2
*D19
  0
BLOCK_RECORD
  5
C54
330
1
100
AcDbSymbolTableRecord
100
AcDbBlockTableRecord
  2
*D20
  0
BLOCK_RECORD
  5
C61
330
1
100
AcDbSymbolTableRecord
100
AcDbBlockTableRecord
  2
*D21
  0
BLOCK_RECORD
  5
C6E
330
1
100
AcDbSymbolTableRecord
100
AcDbBlockTableRecord
  2
*D22
  0
BLOCK_RECORD
  5
C7B
330
1
100
AcDbSymbolTableRecord
100
AcDbBlockTableRecord
  2
*D23
  0
BLOCK_RECORD
  5
1039
330
1
100
AcDbSymbolTableRecord
100
AcDbBlockTableRecord
  2
*D24
  0
BLOCK_RECORD
  5
2033
330
1
100
AcDbSymbolTableRecord
100
AcDbBlockTableRecord
  2
*D25
  0
BLOCK_RECORD
  5
2950
330
1
100
AcDbSymbolTableRecord
100
AcDbBlockTableRecord
  2
*D26
  0
BLOCK_RECORD
  5
3335
330
1
100
AcDbSymbolTableRecord
100
AcDbBlockTableRecord
  2
*D27
  0
BLOCK_RECORD
  5
3403
330
1
100
AcDbSymbolTableRecord
100
AcDbBlockTableRecord
  2
*D28
  0
ENDTAB
  0
ENDSEC
  0
SECTION
  2
BLOCKS
  0
BLOCK
  5
58
330
1E
100
AcDbEntity
  8
0
100
AcDbBlockBegin
  2
*MODEL_SPACE
 70
     0
 10
0.0
 20
0.0
 30
0.0
  3
*MODEL_SPACE
  1

  0
ENDBLK
  5
59
330
1E
100
AcDbEntity
  8
0
100
AcDbBlockEnd
  0
BLOCK
  5
56
330
1A
100
AcDbEntity
 67
     1
  8
0
100
AcDbBlockBegin
  2
*PAPER_SPACE
 70
     0
 10
0.0
 20
0.0
 30
0.0
  3
*PAPER_SPACE
  1

  0
ENDBLK
  5
57
330
1A
100
AcDbEntity
 67
     1
  8
0
100
AcDbBlockEnd
  0
BLOCK
  5
5A
330
22
100
AcDbEntity
  8
0
100
AcDbBlockBegin
  2
HB
 70
     0
 10
0.0
 20
0.0
 30
0.0
  3
HB
  1

  0
LINE
  5
2C57
330
22
100
AcDbEntity
  8
TITLE
100
AcDbLine
 10
0.0
 20
15.5
 30
0.0
 11
10.11999999999999
 21
15.49999999999999
 31
0.0
  0
LINE
  5
2C58
330
22
100
AcDbEntity
  8
TITLE
100
AcDbLine
 10
10.11999999999999
 20
-0.0000000000000018
 30
0.0
 11
0.0
 21
0.0
 31
0.0
  0
LINE
  5
2C59
330
22
100
AcDbEntity
  8
TITLE
100
AcDbLine
 10
0.0620000000000012
 20
15.438
 30
0.0
 11
10.058
 21
15.438
 31
0.0
  0
LINE
  5
2C5A
330
22
100
AcDbEntity
  8
TITLE
100
AcDbLine
 10
10.058
 20
0.0619999999999994
 30
0.0
 11
0.0619999999999976
 21
0.0620000000000012
 31
0.0
  0
LINE
  5
2C5B
330
22
100
AcDbEntity
  8
TITLE
100
AcDbLine
 10
0.0620000000000012
 20
15.01999999999999
 30
0.0
 11
10.058
 21
15.01999999999999
 31
0.0
  0
LINE
  5
2C5C
330
22
100
AcDbEntity
  8
TITLE
100
AcDbLine
 10
0.0
 20
0.0
 30
0.0
 11
0.0
 21
15.5
 31
0.0
  0
LINE
  5
2C5D
330
22
100
AcDbEntity
  8
TITLE
100
AcDbLine
 10
0.0619999999999976
 20
0.0620000000000012
 30
0.0
 11
0.0620000000000012
 21
15.438
 31
0.0
  0
TEXT
  5
2C5E
330
22
100
AcDbEntity
  8
TEXT
100
AcDbText
 10
0.2078333333333381
 20
15.26841252897341
 30
0.0
 40
0.125
  1
PART
  7
TXT
 72
     1
 11
0.4370000000000048
 21
15.26841252897341
 31
0.0
100
AcDbText
  0
TEXT
  5
2C5F
330
22
100
AcDbEntity
  8
TEXT
100
AcDbText
 10
0.2078333333333381
 20
15.06007919564008
 30
0.0
 40
0.125
  1
NAME
  7
TXT
 72
     1
 11
0.4370000000000048
 21
15.06007919564008
 31
0.0
100
AcDbText
  0
LINE
  5
2C60
330
22
100
AcDbEntity
  8
TITLE
100
AcDbLine
 10
0.8120000000000047
 20
15.01999999999999
 30
0.0
 11
0.8120000000000011
 21
15.438
 31
0.0
  0
LINE
  5
2C61
330
22
100
AcDbEntity
  8
TITLE
100
AcDbLine
 10
10.11999999999999
 20
15.49999999999999
 30
0.0
 11
10.11999999999999
 21
-0.0000000000000018
 31
0.0
  0
LINE
  5
2C62
330
22
100
AcDbEntity
  8
TITLE
100
AcDbLine
 10
10.058
 20
15.438
 30
0.0
 11
10.058
 21
0.0619999999999994
 31
0.0
  0
TEXT
  5
2C63
330
22
100
AcDbEntity
  8
TEXT
100
AcDbText
 10
4.36183333333333
 20
15.26841252897341
 30
0.0
 40
0.125
  1
PART
  7
TXT
 72
     1
 11
4.590999999999997
 21
15.26841252897341
 31
0.0
100
AcDbText
  0
LINE
  5
2C64
330
22
100
AcDbEntity
  8
TITLE
100
AcDbLine
 10
4.153999999999999
 20
15.438
 30
0.0
 11
4.153999999999999
 21
15.01999999999999
 31
0.0
  0
LINE
  5
2C65
330
22
100
AcDbEntity
  8
TITLE
100
AcDbLine
 10
4.215999999999997
 20
15.438
 30
0.0
 11
4.215999999999997
 21
15.01999999999999
 31
0.0
  0
TEXT
  5
2C66
330
22
100
AcDbEntity
  8
TEXT
100
AcDbText
 10
4.465999999999997
 20
15.06007919564008
 30
0.0
 40
0.125
  1
No.
  7
TXT
 72
     1
 11
4.590999999999997
 21
15.06007919564008
 31
0.0
100
AcDbText
  0
LINE
  5
2C67
330
22
100
AcDbEntity
  8
TITLE
100
AcDbLine
 10
4.965999999999997
 20
15.438
 30
0.0
 11
4.965999999999997
 21
15.01999999999999
 31
0.0
  0
LINE
  5
2C68
330
22
100
AcDbEntity
  8
TITLE
100
AcDbLine
 10
8.307999999999999
 20
15.438
 30
0.0
 11
8.307999999999999
 21
15.02
 31
0.0
  0
LINE
  5
2C69
330
22
100
AcDbEntity
  8
TITLE
100
AcDbLine
 10
8.245999999999988
 20
15.438
 30
0.0
 11
8.245999999999988
 21
15.02
 31
0.0
  0
TEXT
  5
2C6A
330
22
100
AcDbEntity
  8
TEXT
100
AcDbText
 10
8.453833333333333
 20
15.06007919564008
 30
0.0
 40
0.125
  1
DATE
  7
TXT
 72
     1
 11
8.682999999999999
 21
15.06007919564008
 31
0.0
100
AcDbText
  0
TEXT
  5
2C6B
330
22
100
AcDbEntity
  8
TEXT
100
AcDbText
 10
8.474666666666665
 20
15.26841252897341
 30
0.0
 40
0.125
  1
REV.
  7
TXT
 72
     1
 11
8.682999999999999
 21
15.26841252897341
 31
0.0
100
AcDbText
  0
LINE
  5
2C6C
330
22
100
AcDbEntity
  8
TITLE
100
AcDbLine
 10
9.057999999999999
 20
15.438
 30
0.0
 11
9.057999999999999
 21
15.02
 31
0.0
  0
ENDBLK
  5
6D
330
22
100
AcDbEntity
  8
0
100
AcDbBlockEnd
  0
BLOCK
  5
979
330
96E
100
AcDbEntity
  8
0
100
AcDbBlockBegin
  2
*D1
 70
     1
 10
0.0
 20
0.0
 30
0.0
  3
*D1
  1

  0
LINE
  5
3327
330
96E
100
AcDbEntity
  8
DIM
 62
     0
100
AcDbLine
 10
5.441232345390488
 20
21.81119792946518
 30
0.0
 11
5.441232345390488
 21
22.25256147865914
 31
0.0
  0
LINE
  5
3328
330
96E
100
AcDbEntity
  8
DIM
 62
     0
100
AcDbLine
 10
14.0972323453905
 20
21.81119792946517
 30
0.0
 11
14.0972323453905
 21
22.25256147865914
 31
0.0
  0
LINE
  5
3329
330
96E
100
AcDbEntity
  8
DIM
 62
     0
100
AcDbLine
 10
5.846232345390488
 20
22.04331147865913
 30
0.0
 11
9.14485734539048
 21
22.04331147865913
 31
0.0
  0
LINE
  5
332A
330
96E
100
AcDbEntity
  8
DIM
 62
     0
100
AcDbLine
 10
13.6922323453905
 20
22.04331147865913
 30
0.0
 11
10.39360734539048
 21
22.04331147865913
 31
0.0
  0
SOLID
  5
332B
330
96E
100
AcDbEntity
  8
DIM
 62
     0
100
AcDbTrace
 10
5.846232345390488
 20
22.11081147865913
 30
0.0
 11
5.846232345390488
 21
21.97581147865914
 31
0.0
 12
5.441232345390488
 22
22.04331147865913
 32
0.0
 13
5.441232345390488
 23
22.04331147865913
 33
0.0
  0
SOLID
  5
332C
330
96E
100
AcDbEntity
  8
DIM
 62
     0
100
AcDbTrace
 10
13.6922323453905
 20
22.11081147865913
 30
0.0
 11
13.6922323453905
 21
21.97581147865914
 31
0.0
 12
14.0972323453905
 22
22.04331147865913
 32
0.0
 13
14.0972323453905
 23
22.04331147865913
 33
0.0
  0
MTEXT
  5
332D
330
96E
100
AcDbEntity
  8
DIM
 62
     0
100
AcDbMText
 10
9.769232345390481
 20
22.04331147865913
 30
0.0
 40
0.28125
 41
0.0
 71
     5
 72
     1
  1
\A1;8.656
  7
TXT
1001
ACAD
1000
MTEXTBEGIN
1070
    73
1070
     1
1070
    44
1040
1.0
1070
    74
1070
     0
1000
MTEXTEND
  0
POINT
  5
332E
330
96E
100
AcDbEntity
  8
DEFPOINTS
 62
     0
100
AcDbPoint
 10
5.441232345390488
 20
21.66944792946518
 30
0.0
  0
POINT
  5
332F
330
96E
100
AcDbEntity
  8
DEFPOINTS
 62
     0
100
AcDbPoint
 10
14.0972323453905
 20
21.66944792946517
 30
0.0
  0
POINT
  5
3330
330
96E
100
AcDbEntity
  8
DEFPOINTS
 62
     0
100
AcDbPoint
 10
14.0972323453905
 20
22.04331147865913
 30
0.0
  0
ENDBLK
  5
97A
330
96E
100
AcDbEntity
  8
0
100
AcDbBlockEnd
  0
BLOCK
  5
986
330
97B
100
AcDbEntity
  8
0
100
AcDbBlockBegin
  2
*D2
 70
     1
 10
0.0
 20
0.0
 30
0.0
  3
*D2
  1

  0
LINE
  5
315E
330
97B
100
AcDbEntity
  8
DIM
 62
     0
100
AcDbLine
 10
4.693732345390499
 20
26.35875027881528
 30
0.0
 11
4.693732345390499
 21
28.02529419158074
 31
0.0
  0
LINE
  5
315F
330
97B
100
AcDbEntity
  8
DIM
 62
     0
100
AcDbLine
 10
14.84473234539051
 20
26.35875027881528
 30
0.0
 11
14.84473234539051
 21
28.02529419158074
 31
0.0
  0
LINE
  5
3160
330
97B
100
AcDbEntity
  8
DIM
 62
     0
100
AcDbLine
 10
5.098732345390499
 20
27.81604419158074
 30
0.0
 11
9.162435470390507
 21
27.81604419158074
 31
0.0
  0
LINE
  5
3161
330
97B
100
AcDbEntity
  8
DIM
 62
     0
100
AcDbLine
 10
14.43973234539051
 20
27.81604419158074
 30
0.0
 11
10.3760292203905
 21
27.81604419158074
 31
0.0
  0
SOLID
  5
3162
330
97B
100
AcDbEntity
  8
DIM
 62
     0
100
AcDbTrace
 10
5.098732345390499
 20
27.88354419158074
 30
0.0
 11
5.098732345390499
 21
27.74854419158074
 31
0.0
 12
4.693732345390499
 22
27.81604419158074
 32
0.0
 13
4.693732345390499
 23
27.81604419158074
 33
0.0
  0
SOLID
  5
3163
330
97B
100
AcDbEntity
  8
DIM
 62
     0
100
AcDbTrace
 10
14.43973234539051
 20
27.88354419158074
 30
0.0
 11
14.43973234539051
 21
27.74854419158074
 31
0.0
 12
14.84473234539051
 22
27.81604419158074
 32
0.0
 13
14.84473234539051
 23
27.81604419158074
 33
0.0
  0
MTEXT
  5
3164
330
97B
100
AcDbEntity
  8
DIM
 62
     0
100
AcDbMText
 10
9.769232345390507
 20
27.81604419158074
 30
0.0
 40
0.28125
 41
0.0
 71
     5
 72
     1
  1
\A1;10.151
  7
TXT
1001
ACAD
1000
MTEXTBEGIN
1070
    73
1070
     1
1070
    44
1040
1.0
1070
    74
1070
     0
1000
MTEXTEND
  0
POINT
  5
3165
330
97B
100
AcDbEntity
  8
DEFPOINTS
 62
     0
100
AcDbPoint
 10
4.693732345390499
 20
26.21700027881528
 30
0.0
  0
POINT
  5
3166
330
97B
100
AcDbEntity
  8
DEFPOINTS
 62
     0
100
AcDbPoint
 10
14.84473234539051
 20
26.21700027881528
 30
0.0
  0
POINT
  5
3167
330
97B
100
AcDbEntity
  8
DEFPOINTS
 62
     0
100
AcDbPoint
 10
14.84473234539051
 20
27.81604419158074
 30
0.0
  0
ENDBLK
  5
987
330
97B
100
AcDbEntity
  8
0
100
AcDbBlockEnd
  0
BLOCK
  5
993
330
988
100
AcDbEntity
  8
0
100
AcDbBlockBegin
  2
*D3
 70
     1
 10
0.0
 20
0.0
 30
0.0
  3
*D3
  1

  0
LINE
  5
3190
330
988
100
AcDbEntity
  8
DIM
 62
     0
100
AcDbLine
 10
9.769232345390502
 20
26.28284806931528
 30
0.0
 11
9.769232345390502
 21
27.42115684795476
 31
0.0
  0
LINE
  5
3191
330
988
100
AcDbEntity
  8
DIM
 62
     0
100
AcDbLine
 10
14.35230715619141
 20
26.35875027881528
 30
0.0
 11
14.35230715619141
 21
27.42115684795476
 31
0.0
  0
LINE
  5
3192
330
988
100
AcDbEntity
  8
DIM
 62
     0
100
AcDbLine
 10
10.1742323453905
 20
27.21190684795476
 30
0.0
 11
11.43639475079095
 21
27.21190684795476
 31
0.0
  0
LINE
  5
3193
330
988
100
AcDbEntity
  8
DIM
 62
     0
100
AcDbLine
 10
13.94730715619141
 20
27.21190684795476
 30
0.0
 11
12.68514475079095
 21
27.21190684795476
 31
0.0
  0
SOLID
  5
3194
330
988
100
AcDbEntity
  8
DIM
 62
     0
100
AcDbTrace
 10
10.1742323453905
 20
27.27940684795476
 30
0.0
 11
10.1742323453905
 21
27.14440684795476
 31
0.0
 12
9.769232345390502
 22
27.21190684795476
 32
0.0
 13
9.769232345390502
 23
27.21190684795476
 33
0.0
  0
SOLID
  5
3195
330
988
100
AcDbEntity
  8
DIM
 62
     0
100
AcDbTrace
 10
13.94730715619141
 20
27.27940684795476
 30
0.0
 11
13.94730715619141
 21
27.14440684795476
 31
0.0
 12
14.35230715619141
 22
27.21190684795476
 32
0.0
 13
14.35230715619141
 23
27.21190684795476
 33
0.0
  0
MTEXT
  5
3196
330
988
100
AcDbEntity
  8
DIM
 62
     0
100
AcDbMText
 10
12.06076975079095
 20
27.21190684795476
 30
0.0
 40
0.28125
 41
0.0
 71
     5
 72
     1
  1
\A1;4.583
  7
TXT
1001
ACAD
1000
MTEXTBEGIN
1070
    73
1070
     1
1070
    44
1040
1.0
1070
    74
1070
     0
1000
MTEXTEND
  0
POINT
  5
3197
330
988
100
AcDbEntity
  8
DEFPOINTS
 62
     0
100
AcDbPoint
 10
9.769232345390502
 20
26.14109806931529
 30
0.0
  0
POINT
  5
3198
330
988
100
AcDbEntity
  8
DEFPOINTS
 62
     0
100
AcDbPoint
 10
14.35230715619141
 20
26.21700027881528
 30
0.0
  0
POINT
  5
3199
330
988
100
AcDbEntity
  8
DEFPOINTS
 62
     0
100
AcDbPoint
 10
14.35230715619141
 20
27.21190684795476
 30
0.0
  0
ENDBLK
  5
994
330
988
100
AcDbEntity
  8
0
100
AcDbBlockEnd
  0
BLOCK
  5
9A0
330
995
100
AcDbEntity
  8
0
100
AcDbBlockBegin
  2
*D4
 70
     1
 10
0.0
 20
0.0
 30
0.0
  3
*D4
  1

  0
LINE
  5
31E1
330
995
100
AcDbEntity
  8
DIM
 62
     0
100
AcDbLine
 10
5.299482345390513
 20
25.88409806931529
 30
0.0
 11
3.643638509284067
 21
25.88409806931529
 31
0.0
  0
LINE
  5
31E2
330
995
100
AcDbEntity
  8
DIM
 62
     0
100
AcDbLine
 10
5.299482345390488
 20
21.22809806931528
 30
0.0
 11
3.643638509284066
 21
21.22809806931528
 31
0.0
  0
LINE
  5
31E3
330
995
100
AcDbEntity
  8
DIM
 62
     0
100
AcDbLine
 10
3.852888509284067
 20
25.47909806931528
 30
0.0
 11
3.852888509284067
 21
24.18937317114146
 31
0.0
  0
LINE
  5
31E4
330
995
100
AcDbEntity
  8
DIM
 62
     0
100
AcDbLine
 10
3.852888509284066
 20
21.63309806931529
 30
0.0
 11
3.852888509284067
 21
23.50312317114146
 31
0.0
  0
SOLID
  5
31E5
330
995
100
AcDbEntity
  8
DIM
 62
     0
100
AcDbTrace
 10
3.785388509284067
 20
25.47909806931528
 30
0.0
 11
3.920388509284067
 21
25.47909806931528
 31
0.0
 12
3.852888509284067
 22
25.88409806931529
 32
0.0
 13
3.852888509284067
 23
25.88409806931529
 33
0.0
  0
SOLID
  5
31E6
330
995
100
AcDbEntity
  8
DIM
 62
     0
100
AcDbTrace
 10
3.785388509284066
 20
21.63309806931529
 30
0.0
 11
3.920388509284066
 21
21.63309806931529
 31
0.0
 12
3.852888509284066
 22
21.22809806931528
 32
0.0
 13
3.852888509284066
 23
21.22809806931528
 33
0.0
  0
MTEXT
  5
31E7
330
995
100
AcDbEntity
  8
DIM
 62
     0
100
AcDbMText
 10
3.852888509284063
 20
23.84624817114146
 30
0.0
 40
0.28125
 41
0.0
 71
     5
 72
     1
  1
\A1;4.656
  7
TXT
1001
ACAD
1000
MTEXTBEGIN
1070
    73
1070
     1
1070
    44
1040
1.0
1070
    74
1070
     0
1000
MTEXTEND
  0
POINT
  5
31E8
330
995
100
AcDbEntity
  8
DEFPOINTS
 62
     0
100
AcDbPoint
 10
5.441232345390513
 20
25.88409806931529
 30
0.0
  0
POINT
  5
31E9
330
995
100
AcDbEntity
  8
DEFPOINTS
 62
     0
100
AcDbPoint
 10
5.441232345390488
 20
21.22809806931528
 30
0.0
  0
POINT
  5
31EA
330
995
100
AcDbEntity
  8
DEFPOINTS
 62
     0
100
AcDbPoint
 10
3.852888509284066
 20
21.22809806931528
 30
0.0
  0
ENDBLK
  5
9A1
330
995
100
AcDbEntity
  8
0
100
AcDbBlockEnd
  0
BLOCK
  5
9AD
330
9A2
100
AcDbEntity
  8
0
100
AcDbBlockBegin
  2
*D5
 70
     1
 10
0.0
 20
0.0
 30
0.0
  3
*D5
  1

  0
LINE
  5
31EB
330
9A2
100
AcDbEntity
  8
DIM
 62
     0
100
AcDbLine
 10
5.042482345390502
 20
26.14109806931528
 30
0.0
 11
2.775645980600912
 21
26.14109806931528
 31
0.0
  0
LINE
  5
31EC
330
9A2
100
AcDbEntity
  8
DIM
 62
     0
100
AcDbLine
 10
5.042482345390504
 20
20.97109806931528
 30
0.0
 11
2.775645980600911
 21
20.97109806931528
 31
0.0
  0
LINE
  5
31ED
330
9A2
100
AcDbEntity
  8
DIM
 62
     0
100
AcDbLine
 10
2.984895980600912
 20
25.73609806931528
 30
0.0
 11
2.984895980600911
 21
23.65339429983724
 31
0.0
  0
LINE
  5
31EE
330
9A2
100
AcDbEntity
  8
DIM
 62
     0
100
AcDbLine
 10
2.984895980600911
 20
21.37609806931529
 30
0.0
 11
2.984895980600911
 21
22.96714429983724
 31
0.0
  0
SOLID
  5
31EF
330
9A2
100
AcDbEntity
  8
DIM
 62
     0
100
AcDbTrace
 10
2.917395980600912
 20
25.73609806931528
 30
0.0
 11
3.052395980600912
 21
25.73609806931528
 31
0.0
 12
2.984895980600912
 22
26.14109806931528
 32
0.0
 13
2.984895980600912
 23
26.14109806931528
 33
0.0
  0
SOLID
  5
31F0
330
9A2
100
AcDbEntity
  8
DIM
 62
     0
100
AcDbTrace
 10
2.917395980600911
 20
21.37609806931529
 30
0.0
 11
3.052395980600911
 21
21.37609806931529
 31
0.0
 12
2.98489598060091
 22
20.97109806931528
 32
0.0
 13
2.98489598060091
 23
20.97109806931528
 33
0.0
  0
MTEXT
  5
31F1
330
9A2
100
AcDbEntity
  8
DIM
 62
     0
100
AcDbMText
 10
2.984895980600907
 20
23.31026929983724
 30
0.0
 40
0.28125
 41
0.0
 71
     5
 72
     1
  1
\A1;5.170
  7
TXT
1001
ACAD
1000
MTEXTBEGIN
1070
    73
1070
     1
1070
    44
1040
1.0
1070
    74
1070
     0
1000
MTEXTEND
  0
POINT
  5
31F2
330
9A2
100
AcDbEntity
  8
DEFPOINTS
 62
     0
100
AcDbPoint
 10
5.184232345390502
 20
26.14109806931528
 30
0.0
  0
POINT
  5
31F3
330
9A2
100
AcDbEntity
  8
DEFPOINTS
 62
     0
100
AcDbPoint
 10
5.184232345390504
 20
20.97109806931528
 30
0.0
  0
POINT
  5
31F4
330
9A2
100
AcDbEntity
  8
DEFPOINTS
 62
     0
100
AcDbPoint
 10
2.98489598060091
 20
20.97109806931528
 30
0.0
  0
ENDBLK
  5
9AE
330
9A2
100
AcDbEntity
  8
0
100
AcDbBlockEnd
  0
BLOCK
  5
9BA
330
9AF
100
AcDbEntity
  8
0
100
AcDbBlockBegin
  2
*D6
 70
     1
 10
0.0
 20
0.0
 30
0.0
  3
*D6
  1

  0
LINE
  5
31D7
330
9AF
100
AcDbEntity
  8
DIM
 62
     0
100
AcDbLine
 10
5.184232345390502
 20
26.28284806931528
 30
0.0
 11
5.184232345390502
 21
27.42115684795475
 31
0.0
  0
LINE
  5
31D8
330
9AF
100
AcDbEntity
  8
DIM
 62
     0
100
AcDbLine
 10
9.769232345390502
 20
26.28284806931528
 30
0.0
 11
9.769232345390502
 21
27.42115684795475
 31
0.0
  0
LINE
  5
31D9
330
9AF
100
AcDbEntity
  8
DIM
 62
     0
100
AcDbLine
 10
5.589232345390502
 20
27.21190684795475
 30
0.0
 11
6.852357345390502
 21
27.21190684795475
 31
0.0
  0
LINE
  5
31DA
330
9AF
100
AcDbEntity
  8
DIM
 62
     0
100
AcDbLine
 10
9.364232345390503
 20
27.21190684795475
 30
0.0
 11
8.101107345390502
 21
27.21190684795475
 31
0.0
  0
SOLID
  5
31DB
330
9AF
100
AcDbEntity
  8
DIM
 62
     0
100
AcDbTrace
 10
5.589232345390502
 20
27.27940684795475
 30
0.0
 11
5.589232345390502
 21
27.14440684795475
 31
0.0
 12
5.184232345390502
 22
27.21190684795475
 32
0.0
 13
5.184232345390502
 23
27.21190684795475
 33
0.0
  0
SOLID
  5
31DC
330
9AF
100
AcDbEntity
  8
DIM
 62
     0
100
AcDbTrace
 10
9.364232345390503
 20
27.27940684795475
 30
0.0
 11
9.364232345390503
 21
27.14440684795475
 31
0.0
 12
9.769232345390502
 22
27.21190684795475
 32
0.0
 13
9.769232345390502
 23
27.21190684795475
 33
0.0
  0
MTEXT
  5
31DD
330
9AF
100
AcDbEntity
  8
DIM
 62
     0
100
AcDbMText
 10
7.476732345390503
 20
27.21190684795475
 30
0.0
 40
0.28125
 41
0.0
 71
     5
 72
     1
  1
\A1;4.585
  7
TXT
1001
ACAD
1000
MTEXTBEGIN
1070
    73
1070
     1
1070
    44
1040
1.0
1070
    74
1070
     0
1000
MTEXTEND
  0
POINT
  5
31DE
330
9AF
100
AcDbEntity
  8
DEFPOINTS
 62
     0
100
AcDbPoint
 10
5.184232345390502
 20
26.14109806931528
 30
0.0
  0
POINT
  5
31DF
330
9AF
100
AcDbEntity
  8
DEFPOINTS
 62
     0
100
AcDbPoint
 10
9.769232345390502
 20
26.14109806931529
 30
0.0
  0
POINT
  5
31E0
330
9AF
100
AcDbEntity
  8
DEFPOINTS
 62
     0
100
AcDbPoint
 10
9.769232345390502
 20
27.21190684795475
 30
0.0
  0
ENDBLK
  5
9BB
330
9AF
100
AcDbEntity
  8
0
100
AcDbBlockEnd
  0
BLOCK
  5
9C7
330
9BC
100
AcDbEntity
  8
0
100
AcDbBlockBegin
  2
*D7
 70
     1
 10
0.0
 20
0.0
 30
0.0
  3
*D7
  1

  0
LINE
  5
3227
330
9BC
100
AcDbEntity
  8
DIM
 62
     0
100
AcDbLine
 10
19.26236837490382
 20
26.77334806931529
 30
0.0
 11
19.26236837490382
 21
27.42115684795476
 31
0.0
  0
LINE
  5
3228
330
9BC
100
AcDbEntity
  8
DIM
 62
     0
100
AcDbLine
 10
19.1372442513038
 20
26.70552854012328
 30
0.0
 11
19.1372442513038
 21
27.42115684795476
 31
0.0
  0
LINE
  5
3229
330
9BC
100
AcDbEntity
  8
DIM
 62
     0
100
AcDbLine
 10
19.66736837490381
 20
27.21190684795476
 30
0.0
 11
20.07236837490381
 21
27.21190684795476
 31
0.0
  0
LINE
  5
322A
330
9BC
100
AcDbEntity
  8
DIM
 62
     0
100
AcDbLine
 10
18.7322442513038
 20
27.21190684795476
 30
0.0
 11
18.32724425130381
 21
27.21190684795476
 31
0.0
  0
SOLID
  5
322B
330
9BC
100
AcDbEntity
  8
DIM
 62
     0
100
AcDbTrace
 10
19.66736837490381
 20
27.27940684795476
 30
0.0
 11
19.66736837490381
 21
27.14440684795476
 31
0.0
 12
19.26236837490382
 22
27.21190684795476
 32
0.0
 13
19.26236837490382
 23
27.21190684795476
 33
0.0
  0
SOLID
  5
322C
330
9BC
100
AcDbEntity
  8
DIM
 62
     0
100
AcDbTrace
 10
18.7322442513038
 20
27.27940684795476
 30
0.0
 11
18.7322442513038
 21
27.14440684795476
 31
0.0
 12
19.1372442513038
 22
27.21190684795476
 32
0.0
 13
19.1372442513038
 23
27.21190684795476
 33
0.0
  0
MTEXT
  5
322D
330
9BC
100
AcDbEntity
  8
DIM
 62
     0
100
AcDbMText
 10
17.75560362630381
 20
27.21190684795476
 30
0.0
 40
0.28125
 41
0.0
 71
     5
 72
     1
  1
\A1;0.125
  7
TXT
1001
ACAD
1000
MTEXTBEGIN
1070
    73
1070
     1
1070
    44
1040
1.0
1070
    74
1070
     0
1000
MTEXTEND
  0
POINT
  5
322E
330
9BC
100
AcDbEntity
  8
DEFPOINTS
 62
     0
100
AcDbPoint
 10
19.26236837490382
 20
26.63159806931529
 30
0.0
  0
POINT
  5
322F
330
9BC
100
AcDbEntity
  8
DEFPOINTS
 62
     0
100
AcDbPoint
 10
19.1372442513038
 20
26.56377854012328
 30
0.0
  0
POINT
  5
3230
330
9BC
100
AcDbEntity
  8
DEFPOINTS
 62
     0
100
AcDbPoint
 10
19.1372442513038
 20
27.21190684795476
 30
0.0
  0
ENDBLK
  5
9C8
330
9BC
100
AcDbEntity
  8
0
100
AcDbBlockEnd
  0
BLOCK
  5
9D4
330
9C9
100
AcDbEntity
  8
0
100
AcDbBlockBegin
  2
*D8
 70
     1
 10
0.0
 20
0.0
 30
0.0
  3
*D8
  1

  0
LINE
  5
3209
330
9C9
100
AcDbEntity
  8
DIM
 62
     0
100
AcDbLine
 10
14.57188455489049
 20
26.63159806931529
 30
0.0
 11
15.87477657066808
 21
26.63159806931529
 31
0.0
  0
LINE
  5
320A
330
9C9
100
AcDbEntity
  8
DIM
 62
     0
100
AcDbLine
 10
14.57188455489049
 20
20.48059806931529
 30
0.0
 11
15.87477657066808
 21
20.48059806931529
 31
0.0
  0
LINE
  5
320B
330
9C9
100
AcDbEntity
  8
DIM
 62
     0
100
AcDbLine
 10
15.66552657066808
 20
26.22659806931529
 30
0.0
 11
15.66552657066808
 21
23.89922306931528
 31
0.0
  0
LINE
  5
320C
330
9C9
100
AcDbEntity
  8
DIM
 62
     0
100
AcDbLine
 10
15.66552657066808
 20
20.88559806931529
 30
0.0
 11
15.66552657066808
 21
23.21297306931529
 31
0.0
  0
SOLID
  5
320D
330
9C9
100
AcDbEntity
  8
DIM
 62
     0
100
AcDbTrace
 10
15.59802657066808
 20
26.22659806931529
 30
0.0
 11
15.73302657066808
 21
26.22659806931529
 31
0.0
 12
15.66552657066808
 22
26.63159806931529
 32
0.0
 13
15.66552657066808
 23
26.63159806931529
 33
0.0
  0
SOLID
  5
320E
330
9C9
100
AcDbEntity
  8
DIM
 62
     0
100
AcDbTrace
 10
15.59802657066808
 20
20.88559806931529
 30
0.0
 11
15.73302657066808
 21
20.88559806931529
 31
0.0
 12
15.66552657066808
 22
20.48059806931529
 32
0.0
 13
15.66552657066808
 23
20.48059806931529
 33
0.0
  0
MTEXT
  5
320F
330
9C9
100
AcDbEntity
  8
DIM
 62
     0
100
AcDbMText
 10
15.66552657066807
 20
23.55609806931529
 30
0.0
 40
0.28125
 41
0.0
 71
     5
 72
     1
  1
\A1;6.151
  7
TXT
1001
ACAD
1000
MTEXTBEGIN
1070
    73
1070
     1
1070
    44
1040
1.0
1070
    74
1070
     0
1000
MTEXTEND
  0
POINT
  5
3210
330
9C9
100
AcDbEntity
  8
DEFPOINTS
 62
     0
100
AcDbPoint
 10
14.43013455489048
 20
26.63159806931529
 30
0.0
  0
POINT
  5
3211
330
9C9
100
AcDbEntity
  8
DEFPOINTS
 62
     0
100
AcDbPoint
 10
14.43013455489048
 20
20.48059806931529
 30
0.0
  0
POINT
  5
3212
330
9C9
100
AcDbEntity
  8
DEFPOINTS
 62
     0
100
AcDbPoint
 10
15.66552657066808
 20
20.48059806931529
 30
0.0
  0
ENDBLK
  5
9D5
330
9C9
100
AcDbEntity
  8
0
100
AcDbBlockEnd
  0
BLOCK
  5
9E1
330
9D6
100
AcDbEntity
  8
0
100
AcDbBlockBegin
  2
*D9
 70
     1
 10
0.0
 20
0.0
 30
0.0
  3
*D9
  1

  0
LINE
  5
321D
330
9D6
100
AcDbEntity
  8
DIM
 62
     0
100
AcDbLine
 10
19.26236837490382
 20
26.77334806931529
 30
0.0
 11
19.26236837490382
 21
27.96139692709701
 31
0.0
  0
LINE
  5
321E
330
9D6
100
AcDbEntity
  8
DIM
 62
     0
100
AcDbLine
 10
19.38749249850382
 20
26.64723089711528
 30
0.0
 11
19.38749249850382
 21
27.96139692709701
 31
0.0
  0
LINE
  5
321F
330
9D6
100
AcDbEntity
  8
DIM
 62
     0
100
AcDbLine
 10
18.85736837490381
 20
27.75214692709701
 30
0.0
 11
18.45236837490381
 21
27.75214692709701
 31
0.0
  0
LINE
  5
3220
330
9D6
100
AcDbEntity
  8
DIM
 62
     0
100
AcDbLine
 10
19.79249249850382
 20
27.75214692709701
 30
0.0
 11
20.19749249850382
 21
27.75214692709701
 31
0.0
  0
SOLID
  5
3221
330
9D6
100
AcDbEntity
  8
DIM
 62
     0
100
AcDbTrace
 10
18.85736837490381
 20
27.81964692709701
 30
0.0
 11
18.85736837490381
 21
27.68464692709701
 31
0.0
 12
19.26236837490382
 22
27.75214692709701
 32
0.0
 13
19.26236837490382
 23
27.75214692709701
 33
0.0
  0
SOLID
  5
3222
330
9D6
100
AcDbEntity
  8
DIM
 62
     0
100
AcDbTrace
 10
19.79249249850382
 20
27.81964692709701
 30
0.0
 11
19.79249249850382
 21
27.68464692709701
 31
0.0
 12
19.38749249850382
 22
27.75214692709701
 32
0.0
 13
19.38749249850382
 23
27.75214692709701
 33
0.0
  0
MTEXT
  5
3223
330
9D6
100
AcDbEntity
  8
DIM
 62
     0
100
AcDbMText
 10
20.76913312350382
 20
27.75214692709701
 30
0.0
 40
0.28125
 41
0.0
 71
     5
 72
     1
  1
\A1;0.125
  7
TXT
1001
ACAD
1000
MTEXTBEGIN
1070
    73
1070
     1
1070
    44
1040
1.0
1070
    74
1070
     0
1000
MTEXTEND
  0
POINT
  5
3224
330
9D6
100
AcDbEntity
  8
DEFPOINTS
 62
     0
100
AcDbPoint
 10
19.26236837490382
 20
26.63159806931529
 30
0.0
  0
POINT
  5
3225
330
9D6
100
AcDbEntity
  8
DEFPOINTS
 62
     0
100
AcDbPoint
 10
19.38749249850382
 20
26.50548089711528
 30
0.0
  0
POINT
  5
3226
330
9D6
100
AcDbEntity
  8
DEFPOINTS
 62
     0
100
AcDbPoint
 10
19.38749249850382
 20
27.75214692709701
 30
0.0
  0
ENDBLK
  5
9E2
330
9D6
100
AcDbEntity
  8
0
100
AcDbBlockEnd
  0
BLOCK
  5
B8B
330
B80
100
AcDbEntity
  8
0
100
AcDbBlockBegin
  2
*D10
 70
     1
 10
0.0
 20
0.0
 30
0.0
  3
*D10
  1

  0
LINE
  5
323C
330
B80
100
AcDbEntity
  8
DIM
 62
     0
100
AcDbLine
 10
4.067307156191413
 20
17.12503968146604
 30
0.0
 11
4.067307156191413
 21
19.70794427264201
 31
0.0
  0
LINE
  5
323D
330
B80
100
AcDbEntity
  8
DIM
 62
     0
100
AcDbLine
 10
15.46730715619141
 20
17.12503968146606
 30
0.0
 11
15.46730715619141
 21
19.70794427264201
 31
0.0
  0
LINE
  5
323E
330
B80
100
AcDbEntity
  8
DIM
 62
     0
100
AcDbLine
 10
4.472307156191413
 20
19.49869427264201
 30
0.0
 11
9.142932156191402
 21
19.49869427264201
 31
0.0
  0
LINE
  5
323F
330
B80
100
AcDbEntity
  8
DIM
 62
     0
100
AcDbLine
 10
15.06230715619141
 20
19.49869427264201
 30
0.0
 11
10.3916821561914
 21
19.49869427264201
 31
0.0
  0
SOLID
  5
3240
330
B80
100
AcDbEntity
  8
DIM
 62
     0
100
AcDbTrace
 10
4.472307156191413
 20
19.56619427264201
 30
0.0
 11
4.472307156191413
 21
19.43119427264201
 31
0.0
 12
4.067307156191413
 22
19.49869427264201
 32
0.0
 13
4.067307156191413
 23
19.49869427264201
 33
0.0
  0
SOLID
  5
3241
330
B80
100
AcDbEntity
  8
DIM
 62
     0
100
AcDbTrace
 10
15.06230715619141
 20
19.56619427264201
 30
0.0
 11
15.06230715619141
 21
19.43119427264201
 31
0.0
 12
15.46730715619141
 22
19.49869427264201
 32
0.0
 13
15.46730715619141
 23
19.49869427264201
 33
0.0
  0
MTEXT
  5
3242
330
B80
100
AcDbEntity
  8
DIM
 62
     0
100
AcDbMText
 10
9.767307156191403
 20
19.49869427264201
 30
0.0
 40
0.28125
 41
0.0
 71
     5
 72
     1
  1
\A1;11.400
  7
TXT
1001
ACAD
1000
MTEXTBEGIN
1070
    73
1070
     1
1070
    44
1040
1.0
1070
    74
1070
     0
1000
MTEXTEND
  0
POINT
  5
3243
330
B80
100
AcDbEntity
  8
DEFPOINTS
 62
     0
100
AcDbPoint
 10
4.067307156191413
 20
16.98328968146605
 30
0.0
  0
POINT
  5
3244
330
B80
100
AcDbEntity
  8
DEFPOINTS
 62
     0
100
AcDbPoint
 10
15.46730715619141
 20
16.98328968146606
 30
0.0
  0
POINT
  5
3245
330
B80
100
AcDbEntity
  8
DEFPOINTS
 62
     0
100
AcDbPoint
 10
15.46730715619141
 20
19.49869427264201
 30
0.0
  0
ENDBLK
  5
B8C
330
B80
100
AcDbEntity
  8
0
100
AcDbBlockEnd
  0
BLOCK
  5
BA5
330
B9A
100
AcDbEntity
  8
0
100
AcDbBlockBegin
  2
*D11
 70
     1
 10
0.0
 20
0.0
 30
0.0
  3
*D11
  1

  0
LINE
  5
3311
330
B9A
100
AcDbEntity
  8
DIM
 62
     0
100
AcDbLine
 10
4.392307156191412
 20
12.7584649586336
 30
0.0
 11
4.392307156191412
 21
9.763261444238022
 31
0.0
  0
LINE
  5
3312
330
B9A
100
AcDbEntity
  8
DIM
 62
     0
100
AcDbLine
 10
15.14230715619141
 20
12.7584649586336
 30
0.0
 11
15.14230715619141
 21
9.763261444238022
 31
0.0
  0
LINE
  5
3313
330
B9A
100
AcDbEntity
  8
DIM
 62
     0
100
AcDbLine
 10
4.797307156191412
 20
9.972511444238023
 30
0.0
 11
9.111592647934118
 21
9.972511444238023
 31
0.0
  0
LINE
  5
3314
330
B9A
100
AcDbEntity
  8
DIM
 62
     0
100
AcDbLine
 10
14.73730715619141
 20
9.972511444238023
 30
0.0
 11
10.43065514793412
 21
9.972511444238023
 31
0.0
  0
SOLID
  5
3315
330
B9A
100
AcDbEntity
  8
DIM
 62
     0
100
AcDbTrace
 10
4.797307156191412
 20
10.04001144423802
 30
0.0
 11
4.797307156191412
 21
9.905011444238022
 31
0.0
 12
4.392307156191412
 22
9.972511444238023
 32
0.0
 13
4.392307156191412
 23
9.972511444238023
 33
0.0
  0
SOLID
  5
3316
330
B9A
100
AcDbEntity
  8
DIM
 62
     0
100
AcDbTrace
 10
14.73730715619141
 20
10.04001144423802
 30
0.0
 11
14.73730715619141
 21
9.905011444238022
 31
0.0
 12
15.14230715619141
 22
9.972511444238023
 32
0.0
 13
15.14230715619141
 23
9.972511444238023
 33
0.0
  0
MTEXT
  5
3317
330
B9A
100
AcDbEntity
  8
DIM
 62
     0
100
AcDbMText
 10
9.771123897934119
 20
9.972511444238023
 30
0.0
 40
0.28125
 41
0.0
 71
     5
 72
     1
  1
\A1;10.750
  7
TXT
1001
ACAD
1000
MTEXTBEGIN
1070
    73
1070
     1
1070
    44
1040
1.0
1070
    74
1070
     0
1000
MTEXTEND
  0
POINT
  5
3318
330
B9A
100
AcDbEntity
  8
DEFPOINTS
 62
     0
100
AcDbPoint
 10
4.392307156191412
 20
12.9002149586336
 30
0.0
  0
POINT
  5
3319
330
B9A
100
AcDbEntity
  8
DEFPOINTS
 62
     0
100
AcDbPoint
 10
15.14230715619141
 20
12.9002149586336
 30
0.0
  0
POINT
  5
331A
330
B9A
100
AcDbEntity
  8
DEFPOINTS
 62
     0
100
AcDbPoint
 10
15.14230715619141
 20
9.972511444238023
 30
0.0
  0
ENDBLK
  5
BA6
330
B9A
100
AcDbEntity
  8
0
100
AcDbBlockEnd
  0
BLOCK
  5
BB2
330
BA7
100
AcDbEntity
  8
0
100
AcDbBlockBegin
  2
*D12
 70
     1
 10
0.0
 20
0.0
 30
0.0
  3
*D12
  1

  0
LINE
  5
32F3
330
BA7
100
AcDbEntity
  8
DIM
 62
     0
100
AcDbLine
 10
10.1421830026914
 20
12.50849444545641
 30
0.0
 11
10.1421830026914
 21
10.40989988310855
 31
0.0
  0
LINE
  5
32F4
330
BA7
100
AcDbEntity
  8
DIM
 62
     0
100
AcDbLine
 10
14.01730715619141
 20
12.50849444545641
 30
0.0
 11
14.01730715619141
 21
10.40989988310855
 31
0.0
  0
LINE
  5
32F5
330
BA7
100
AcDbEntity
  8
DIM
 62
     0
100
AcDbLine
 10
10.5471830026914
 20
10.61914988310855
 30
0.0
 11
11.4553700794414
 21
10.61914988310855
 31
0.0
  0
LINE
  5
32F6
330
BA7
100
AcDbEntity
  8
DIM
 62
     0
100
AcDbLine
 10
13.61230715619141
 20
10.61914988310855
 30
0.0
 11
12.7041200794414
 21
10.61914988310855
 31
0.0
  0
SOLID
  5
32F7
330
BA7
100
AcDbEntity
  8
DIM
 62
     0
100
AcDbTrace
 10
10.5471830026914
 20
10.68664988310855
 30
0.0
 11
10.5471830026914
 21
10.55164988310855
 31
0.0
 12
10.1421830026914
 22
10.61914988310855
 32
0.0
 13
10.1421830026914
 23
10.61914988310855
 33
0.0
  0
SOLID
  5
32F8
330
BA7
100
AcDbEntity
  8
DIM
 62
     0
100
AcDbTrace
 10
13.61230715619141
 20
10.68664988310855
 30
0.0
 11
13.61230715619141
 21
10.55164988310855
 31
0.0
 12
14.01730715619141
 22
10.61914988310855
 32
0.0
 13
14.01730715619141
 23
10.61914988310855
 33
0.0
  0
MTEXT
  5
32F9
330
BA7
100
AcDbEntity
  8
DIM
 62
     0
100
AcDbMText
 10
12.07974507944141
 20
10.61914988310855
 30
0.0
 40
0.28125
 41
0.0
 71
     5
 72
     1
  1
\A1;3.875
  7
TXT
1001
ACAD
1000
MTEXTBEGIN
1070
    73
1070
     1
1070
    44
1040
1.0
1070
    74
1070
     0
1000
MTEXTEND
  0
POINT
  5
32FA
330
BA7
100
AcDbEntity
  8
DEFPOINTS
 62
     0
100
AcDbPoint
 10
10.1421830026914
 20
12.65024444545641
 30
0.0
  0
POINT
  5
32FB
330
BA7
100
AcDbEntity
  8
DEFPOINTS
 62
     0
100
AcDbPoint
 10
14.01730715619141
 20
12.65024444545641
 30
0.0
  0
POINT
  5
32FC
330
BA7
100
AcDbEntity
  8
DEFPOINTS
 62
     0
100
AcDbPoint
 10
14.01730715619141
 20
10.61914988310855
 30
0.0
  0
ENDBLK
  5
BB3
330
BA7
100
AcDbEntity
  8
0
100
AcDbBlockEnd
  0
BLOCK
  5
BCC
330
BC1
100
AcDbEntity
  8
0
100
AcDbBlockBegin
  2
*D13
 70
     1
 10
0.0
 20
0.0
 30
0.0
  3
*D13
  1

  0
LINE
  5
31CD
330
BC1
100
AcDbEntity
  8
DIM
 62
     0
100
AcDbLine
 10
5.182307156191415
 20
17.62696495863361
 30
0.0
 11
5.182307156191415
 21
18.93674867935255
 31
0.0
  0
LINE
  5
31CE
330
BC1
100
AcDbEntity
  8
DIM
 62
     0
100
AcDbLine
 10
9.767307156191414
 20
17.6255998014108
 30
0.0
 11
9.767307156191414
 21
18.93674867935255
 31
0.0
  0
LINE
  5
31CF
330
BC1
100
AcDbEntity
  8
DIM
 62
     0
100
AcDbLine
 10
5.587307156191415
 20
18.72749867935255
 30
0.0
 11
6.850432156191415
 21
18.72749867935255
 31
0.0
  0
LINE
  5
31D0
330
BC1
100
AcDbEntity
  8
DIM
 62
     0
100
AcDbLine
 10
9.362307156191414
 20
18.72749867935255
 30
0.0
 11
8.099182156191416
 21
18.72749867935255
 31
0.0
  0
SOLID
  5
31D1
330
BC1
100
AcDbEntity
  8
DIM
 62
     0
100
AcDbTrace
 10
5.587307156191415
 20
18.79499867935255
 30
0.0
 11
5.587307156191415
 21
18.65999867935255
 31
0.0
 12
5.182307156191415
 22
18.72749867935255
 32
0.0
 13
5.182307156191415
 23
18.72749867935255
 33
0.0
  0
SOLID
  5
31D2
330
BC1
100
AcDbEntity
  8
DIM
 62
     0
100
AcDbTrace
 10
9.362307156191414
 20
18.79499867935255
 30
0.0
 11
9.362307156191414
 21
18.65999867935255
 31
0.0
 12
9.767307156191414
 22
18.72749867935255
 32
0.0
 13
9.767307156191414
 23
18.72749867935255
 33
0.0
  0
MTEXT
  5
31D3
330
BC1
100
AcDbEntity
  8
DIM
 62
     0
100
AcDbMText
 10
7.474807156191415
 20
18.72749867935255
 30
0.0
 40
0.28125
 41
0.0
 71
     5
 72
     1
  1
\A1;4.585
  7
TXT
1001
ACAD
1000
MTEXTBEGIN
1070
    73
1070
     1
1070
    44
1040
1.0
1070
    74
1070
     0
1000
MTEXTEND
  0
POINT
  5
31D4
330
BC1
100
AcDbEntity
  8
DEFPOINTS
 62
     0
100
AcDbPoint
 10
5.182307156191415
 20
17.48521495863362
 30
0.0
  0
POINT
  5
31D5
330
BC1
100
AcDbEntity
  8
DEFPOINTS
 62
     0
100
AcDbPoint
 10
9.767307156191414
 20
17.4838498014108
 30
0.0
  0
POINT
  5
31D6
330
BC1
100
AcDbEntity
  8
DEFPOINTS
 62
     0
100
AcDbPoint
 10
9.767307156191414
 20
18.72749867935255
 30
0.0
  0
ENDBLK
  5
BCD
330
BC1
100
AcDbEntity
  8
0
100
AcDbBlockEnd
  0
BLOCK
  5
C02
330
BF7
100
AcDbEntity
  8
0
100
AcDbBlockBegin
  2
*D14
 70
     1
 10
0.0
 20
0.0
 30
0.0
  3
*D14
  1

  0
LINE
  5
3307
330
BF7
100
AcDbEntity
  8
DIM
 62
     0
100
AcDbLine
 10
9.392431309691415
 20
12.50849444545641
 30
0.0
 11
9.392431309691415
 21
10.40989988310854
 31
0.0
  0
LINE
  5
3308
330
BF7
100
AcDbEntity
  8
DIM
 62
     0
100
AcDbLine
 10
5.517307156191414
 20
12.50849444545641
 30
0.0
 11
5.517307156191414
 21
10.40989988310854
 31
0.0
  0
LINE
  5
3309
330
BF7
100
AcDbEntity
  8
DIM
 62
     0
100
AcDbLine
 10
8.987431309691416
 20
10.61914988310854
 30
0.0
 11
8.079244232941416
 21
10.61914988310854
 31
0.0
  0
LINE
  5
330A
330
BF7
100
AcDbEntity
  8
DIM
 62
     0
100
AcDbLine
 10
5.922307156191414
 20
10.61914988310854
 30
0.0
 11
6.830494232941416
 21
10.61914988310854
 31
0.0
  0
SOLID
  5
330B
330
BF7
100
AcDbEntity
  8
DIM
 62
     0
100
AcDbTrace
 10
8.987431309691416
 20
10.68664988310854
 30
0.0
 11
8.987431309691416
 21
10.55164988310854
 31
0.0
 12
9.392431309691415
 22
10.61914988310854
 32
0.0
 13
9.392431309691415
 23
10.61914988310854
 33
0.0
  0
SOLID
  5
330C
330
BF7
100
AcDbEntity
  8
DIM
 62
     0
100
AcDbTrace
 10
5.922307156191414
 20
10.68664988310854
 30
0.0
 11
5.922307156191414
 21
10.55164988310854
 31
0.0
 12
5.517307156191414
 22
10.61914988310854
 32
0.0
 13
5.517307156191414
 23
10.61914988310854
 33
0.0
  0
MTEXT
  5
330D
330
BF7
100
AcDbEntity
  8
DIM
 62
     0
100
AcDbMText
 10
7.454869232941415
 20
10.61914988310854
 30
0.0
 40
0.28125
 41
0.0
 71
     5
 72
     1
  1
\A1;3.875
  7
TXT
1001
ACAD
1000
MTEXTBEGIN
1070
    73
1070
     1
1070
    44
1040
1.0
1070
    74
1070
     0
1000
MTEXTEND
  0
POINT
  5
330E
330
BF7
100
AcDbEntity
  8
DEFPOINTS
 62
     0
100
AcDbPoint
 10
9.392431309691415
 20
12.65024444545641
 30
0.0
  0
POINT
  5
330F
330
BF7
100
AcDbEntity
  8
DEFPOINTS
 62
     0
100
AcDbPoint
 10
5.517307156191414
 20
12.65024444545641
 30
0.0
  0
POINT
  5
3310
330
BF7
100
AcDbEntity
  8
DEFPOINTS
 62
     0
100
AcDbPoint
 10
5.517307156191414
 20
10.61914988310854
 30
0.0
  0
ENDBLK
  5
C03
330
BF7
100
AcDbEntity
  8
0
100
AcDbBlockEnd
  0
BLOCK
  5
C10
330
C04
100
AcDbEntity
  8
0
100
AcDbBlockBegin
  2
*D15
 70
     1
 10
0.0
 20
0.0
 30
0.0
  3
*D15
  1

  0
LINE
  5
33A0
330
C04
100
AcDbEntity
  8
DIM
 62
     0
100
AcDbLine
 10
5.757268348294463
 20
4.657162020898057
 30
0.0
 11
6.229440726079436
 21
4.657162020898056
 31
0.0
  0
LINE
  5
33A1
330
C04
100
AcDbEntity
  8
DIM
 62
     0
100
AcDbLine
 10
5.75290024889141
 20
4.907410268098052
 30
0.0
 11
6.229440726079436
 21
4.907410268098051
 31
0.0
  0
LINE
  5
33A2
330
C04
100
AcDbEntity
  8
DIM
 62
     0
100
AcDbLine
 10
6.020190726079436
 20
4.252162020898055
 30
0.0
 11
6.020190726079436
 21
3.847162020898056
 31
0.0
  0
LINE
  5
33A3
330
C04
100
AcDbEntity
  8
DIM
 62
     0
100
AcDbLine
 10
6.020190726079436
 20
5.312410268098052
 30
0.0
 11
6.020190726079436
 21
5.717410268098051
 31
0.0
  0
LINE
  5
33A4
330
C04
100
AcDbEntity
  8
DIM
 62
     0
100
AcDbLine
 10
6.020190726079436
 20
5.717410268098051
 30
0.0
 11
6.425190726079437
 21
5.717410268098051
 31
0.0
  0
SOLID
  5
33A5
330
C04
100
AcDbEntity
  8
DIM
 62
     0
100
AcDbTrace
 10
5.952690726079437
 20
4.252162020898056
 30
0.0
 11
6.087690726079436
 21
4.252162020898055
 31
0.0
 12
6.020190726079436
 22
4.657162020898056
 32
0.0
 13
6.020190726079436
 23
4.657162020898056
 33
0.0
  0
SOLID
  5
33A6
330
C04
100
AcDbEntity
  8
DIM
 62
     0
100
AcDbTrace
 10
5.952690726079437
 20
5.312410268098052
 30
0.0
 11
6.087690726079436
 21
5.312410268098052
 31
0.0
 12
6.020190726079436
 22
4.907410268098051
 32
0.0
 13
6.020190726079436
 23
4.907410268098051
 33
0.0
  0
MTEXT
  5
33A7
330
C04
100
AcDbEntity
  8
DIM
 62
     0
100
AcDbMText
 10
7.576909476079435
 20
5.717410268098052
 30
0.0
 40
0.28125
 41
0.0
 71
     5
 72
     1
  1
\A1;0.250 (TYP)
  7
TXT
1001
ACAD
1000
MTEXTBEGIN
1070
    73
1070
     1
1070
    44
1040
1.0
1070
    74
1070
     0
1000
MTEXTEND
  0
POINT
  5
33A8
330
C04
100
AcDbEntity
  8
DEFPOINTS
 62
     0
100
AcDbPoint
 10
5.615518348294463
 20
4.657162020898057
 30
0.0
  0
POINT
  5
33A9
330
C04
100
AcDbEntity
  8
DEFPOINTS
 62
     0
100
AcDbPoint
 10
5.61115024889141
 20
4.907410268098052
 30
0.0
  0
POINT
  5
33AA
330
C04
100
AcDbEntity
  8
DEFPOINTS
 62
     0
100
AcDbPoint
 10
6.020190726079436
 20
4.907410268098051
 30
0.0
  0
ENDBLK
  5
C11
330
C04
100
AcDbEntity
  8
0
100
AcDbBlockEnd
  0
BLOCK
  5
C2B
330
C20
100
AcDbEntity
  8
0
100
AcDbBlockBegin
  2
*D16
 70
     1
 10
0.0
 20
0.0
 30
0.0
  3
*D16
  1

  0
LINE
  5
32A3
330
C20
100
AcDbEntity
  8
DIM
 62
     0
100
AcDbLine
 10
5.040557156191415
 20
17.48521495863362
 30
0.0
 11
1.700704094604478
 21
17.48521495863362
 31
0.0
  0
LINE
  5
32A4
330
C20
100
AcDbEntity
  8
DIM
 62
     0
100
AcDbLine
 10
5.040557156191415
 20
12.31521495863361
 30
0.0
 11
1.700704094604477
 21
12.31521495863362
 31
0.0
  0
LINE
  5
32A5
330
C20
100
AcDbEntity
  8
DIM
 62
     0
100
AcDbLine
 10
1.909954094604478
 20
17.08021495863361
 30
0.0
 11
1.909954094604477
 21
15.13458995863361
 31
0.0
  0
LINE
  5
32A6
330
C20
100
AcDbEntity
  8
DIM
 62
     0
100
AcDbLine
 10
1.909954094604477
 20
12.72021495863361
 30
0.0
 11
1.909954094604477
 21
13.9795899586336
 31
0.0
  0
SOLID
  5
32A7
330
C20
100
AcDbEntity
  8
DIM
 62
     0
100
AcDbTrace
 10
1.842454094604478
 20
17.08021495863361
 30
0.0
 11
1.977454094604478
 21
17.08021495863361
 31
0.0
 12
1.909954094604478
 22
17.48521495863362
 32
0.0
 13
1.909954094604478
 23
17.48521495863362
 33
0.0
  0
SOLID
  5
32A8
330
C20
100
AcDbEntity
  8
DIM
 62
     0
100
AcDbTrace
 10
1.842454094604477
 20
12.72021495863361
 30
0.0
 11
1.977454094604477
 21
12.72021495863361
 31
0.0
 12
1.909954094604477
 22
12.31521495863362
 32
0.0
 13
1.909954094604477
 23
12.31521495863362
 33
0.0
  0
MTEXT
  5
32A9
330
C20
100
AcDbEntity
  8
DIM
 62
     0
100
AcDbMText
 10
1.909954094604475
 20
14.55708995863361
 30
0.0
 40
0.28125
 41
0.0
 71
     5
 72
     1
  1
\A1;5.170\P(3 PLACES)
  7
TXT
1001
ACAD
1000
MTEXTBEGIN
1070
    73
1070
     1
1070
    44
1040
1.0
1070
    74
1070
     0
1000
MTEXTEND
  0
POINT
  5
32AA
330
C20
100
AcDbEntity
  8
DEFPOINTS
 62
     0
100
AcDbPoint
 10
5.182307156191415
 20
17.48521495863362
 30
0.0
  0
POINT
  5
32AB
330
C20
100
AcDbEntity
  8
DEFPOINTS
 62
     0
100
AcDbPoint
 10
5.182307156191415
 20
12.31521495863361
 30
0.0
  0
POINT
  5
32AC
330
C20
100
AcDbEntity
  8
DEFPOINTS
 62
     0
100
AcDbPoint
 10
1.909954094604477
 20
12.31521495863362
 30
0.0
  0
ENDBLK
  5
C2C
330
C20
100
AcDbEntity
  8
0
100
AcDbBlockEnd
  0
BLOCK
  5
C38
330
C2D
100
AcDbEntity
  8
0
100
AcDbBlockBegin
  2
*D17
 70
     1
 10
0.0
 20
0.0
 30
0.0
  3
*D17
  1

  0
LINE
  5
32B7
330
C2D
100
AcDbEntity
  8
DIM
 62
     0
100
AcDbLine
 10
4.250557156191412
 20
16.9002149586336
 30
0.0
 11
3.016052254245125
 21
16.9002149586336
 31
0.0
  0
LINE
  5
32B8
330
C2D
100
AcDbEntity
  8
DIM
 62
     0
100
AcDbLine
 10
4.250557156191412
 20
12.9002149586336
 30
0.0
 11
3.016052254245124
 21
12.90021495863361
 31
0.0
  0
LINE
  5
32B9
330
C2D
100
AcDbEntity
  8
DIM
 62
     0
100
AcDbLine
 10
3.225302254245125
 20
16.4952149586336
 30
0.0
 11
3.225302254245125
 21
15.58658972018836
 31
0.0
  0
LINE
  5
32BA
330
C2D
100
AcDbEntity
  8
DIM
 62
     0
100
AcDbLine
 10
3.225302254245124
 20
13.30521495863361
 30
0.0
 11
3.225302254245124
 21
14.90033972018836
 31
0.0
  0
SOLID
  5
32BB
330
C2D
100
AcDbEntity
  8
DIM
 62
     0
100
AcDbTrace
 10
3.157802254245125
 20
16.4952149586336
 30
0.0
 11
3.292802254245124
 21
16.4952149586336
 31
0.0
 12
3.225302254245125
 22
16.9002149586336
 32
0.0
 13
3.225302254245125
 23
16.9002149586336
 33
0.0
  0
SOLID
  5
32BC
330
C2D
100
AcDbEntity
  8
DIM
 62
     0
100
AcDbTrace
 10
3.157802254245124
 20
13.30521495863361
 30
0.0
 11
3.292802254245124
 21
13.30521495863361
 31
0.0
 12
3.225302254245124
 22
12.90021495863361
 32
0.0
 13
3.225302254245124
 23
12.90021495863361
 33
0.0
  0
MTEXT
  5
32BD
330
C2D
100
AcDbEntity
  8
DIM
 62
     0
100
AcDbMText
 10
3.225302254245122
 20
15.24346472018835
 30
0.0
 40
0.28125
 41
0.0
 71
     5
 72
     1
  1
\A1;4.000
  7
TXT
1001
ACAD
1000
MTEXTBEGIN
1070
    73
1070
     1
1070
    44
1040
1.0
1070
    74
1070
     0
1000
MTEXTEND
  0
POINT
  5
32BE
330
C2D
100
AcDbEntity
  8
DEFPOINTS
 62
     0
100
AcDbPoint
 10
4.392307156191412
 20
16.9002149586336
 30
0.0
  0
POINT
  5
32BF
330
C2D
100
AcDbEntity
  8
DEFPOINTS
 62
     0
100
AcDbPoint
 10
4.392307156191412
 20
12.9002149586336
 30
0.0
  0
POINT
  5
32C0
330
C2D
100
AcDbEntity
  8
DEFPOINTS
 62
     0
100
AcDbPoint
 10
3.225302254245124
 20
12.90021495863361
 30
0.0
  0
ENDBLK
  5
C39
330
C2D
100
AcDbEntity
  8
0
100
AcDbBlockEnd
  0
BLOCK
  5
C45
330
C3A
100
AcDbEntity
  8
0
100
AcDbBlockBegin
  2
*D18
 70
     1
 10
0.0
 20
0.0
 30
0.0
  3
*D18
  1

  0
LINE
  5
33CA
330
C3A
100
AcDbEntity
  8
DIM
 62
     0
100
AcDbLine
 10
14.76730715619141
 20
7.68868344689806
 30
0.0
 11
14.76730715619141
 21
8.479094080814128
 31
0.0
  0
LINE
  5
33CB
330
C3A
100
AcDbEntity
  8
DIM
 62
     0
100
AcDbLine
 10
14.66230715619141
 20
7.68868344689805
 30
0.0
 11
14.66230715619141
 21
8.479094080814128
 31
0.0
  0
LINE
  5
33CC
330
C3A
100
AcDbEntity
  8
DIM
 62
     0
100
AcDbLine
 10
15.17230715619141
 20
8.269844080814127
 30
0.0
 11
15.57730715619141
 21
8.269844080814127
 31
0.0
  0
LINE
  5
33CD
330
C3A
100
AcDbEntity
  8
DIM
 62
     0
100
AcDbLine
 10
14.25730715619141
 20
8.269844080814127
 30
0.0
 11
13.85230715619141
 21
8.269844080814127
 31
0.0
  0
SOLID
  5
33CE
330
C3A
100
AcDbEntity
  8
DIM
 62
     0
100
AcDbTrace
 10
15.17230715619141
 20
8.337344080814128
 30
0.0
 11
15.17230715619141
 21
8.202344080814127
 31
0.0
 12
14.76730715619141
 22
8.269844080814127
 32
0.0
 13
14.76730715619141
 23
8.269844080814127
 33
0.0
  0
SOLID
  5
33CF
330
C3A
100
AcDbEntity
  8
DIM
 62
     0
100
AcDbTrace
 10
14.25730715619141
 20
8.337344080814128
 30
0.0
 11
14.25730715619141
 21
8.202344080814127
 31
0.0
 12
14.66230715619141
 22
8.269844080814127
 32
0.0
 13
14.66230715619141
 23
8.269844080814127
 33
0.0
  0
MTEXT
  5
33D0
330
C3A
100
AcDbEntity
  8
DIM
 62
     0
100
AcDbMText
 10
13.29824465619141
 20
8.269844080814127
 30
0.0
 40
0.28125
 41
0.0
 71
     5
 72
     1
  1
\A1;0.105
  7
TXT
1001
ACAD
1000
MTEXTBEGIN
1070
    73
1070
     1
1070
    44
1040
1.0
1070
    74
1070
     0
1000
MTEXTEND
  0
POINT
  5
33D1
330
C3A
100
AcDbEntity
  8
DEFPOINTS
 62
     0
100
AcDbPoint
 10
14.76730715619141
 20
7.54693344689806
 30
0.0
  0
POINT
  5
33D2
330
C3A
100
AcDbEntity
  8
DEFPOINTS
 62
     0
100
AcDbPoint
 10
14.66230715619141
 20
7.54693344689805
 30
0.0
  0
POINT
  5
33D3
330
C3A
100
AcDbEntity
  8
DEFPOINTS
 62
     0
100
AcDbPoint
 10
14.66230715619141
 20
8.269844080814127
 30
0.0
  0
ENDBLK
  5
C46
330
C3A
100
AcDbEntity
  8
0
100
AcDbBlockEnd
  0
BLOCK
  5
C52
330
C47
100
AcDbEntity
  8
0
100
AcDbBlockBegin
  2
*D19
 70
     1
 10
0.0
 20
0.0
 30
0.0
  3
*D19
  1

  0
LINE
  5
32E9
330
C47
100
AcDbEntity
  8
DIM
 62
     0
100
AcDbLine
 10
9.392431309691415
 20
12.50849444545641
 30
0.0
 11
9.392431309691415
 21
11.04348219884314
 31
0.0
  0
LINE
  5
32EA
330
C47
100
AcDbEntity
  8
DIM
 62
     0
100
AcDbLine
 10
10.1421830026914
 20
12.50849444545641
 30
0.0
 11
10.1421830026914
 21
11.04348219884314
 31
0.0
  0
LINE
  5
32EB
330
C47
100
AcDbEntity
  8
DIM
 62
     0
100
AcDbLine
 10
8.987431309691416
 20
11.25273219884314
 30
0.0
 11
8.582431309691415
 21
11.25273219884314
 31
0.0
  0
LINE
  5
32EC
330
C47
100
AcDbEntity
  8
DIM
 62
     0
100
AcDbLine
 10
10.5471830026914
 20
11.25273219884314
 30
0.0
 11
10.9521830026914
 21
11.25273219884314
 31
0.0
  0
SOLID
  5
32ED
330
C47
100
AcDbEntity
  8
DIM
 62
     0
100
AcDbTrace
 10
8.987431309691416
 20
11.32023219884314
 30
0.0
 11
8.987431309691416
 21
11.18523219884314
 31
0.0
 12
9.392431309691415
 22
11.25273219884314
 32
0.0
 13
9.392431309691415
 23
11.25273219884314
 33
0.0
  0
SOLID
  5
32EE
330
C47
100
AcDbEntity
  8
DIM
 62
     0
100
AcDbTrace
 10
10.5471830026914
 20
11.32023219884314
 30
0.0
 11
10.5471830026914
 21
11.18523219884314
 31
0.0
 12
10.1421830026914
 22
11.25273219884314
 32
0.0
 13
10.1421830026914
 23
11.25273219884314
 33
0.0
  0
MTEXT
  5
32EF
330
C47
100
AcDbEntity
  8
DIM
 62
     0
100
AcDbMText
 10
11.5414017526914
 20
11.25273219884314
 30
0.0
 40
0.28125
 41
0.0
 71
     5
 72
     1
  1
\A1;0.750
  7
TXT
1001
ACAD
1000
MTEXTBEGIN
1070
    73
1070
     1
1070
    44
1040
1.0
1070
    74
1070
     0
1000
MTEXTEND
  0
POINT
  5
32F0
330
C47
100
AcDbEntity
  8
DEFPOINTS
 62
     0
100
AcDbPoint
 10
9.392431309691415
 20
12.65024444545641
 30
0.0
  0
POINT
  5
32F1
330
C47
100
AcDbEntity
  8
DEFPOINTS
 62
     0
100
AcDbPoint
 10
10.1421830026914
 20
12.65024444545641
 30
0.0
  0
POINT
  5
32F2
330
C47
100
AcDbEntity
  8
DEFPOINTS
 62
     0
100
AcDbPoint
 10
10.1421830026914
 20
11.25273219884314
 30
0.0
  0
ENDBLK
  5
C53
330
C47
100
AcDbEntity
  8
0
100
AcDbBlockEnd
  0
BLOCK
  5
C5F
330
C54
100
AcDbEntity
  8
0
100
AcDbBlockBegin
  2
*D20
 70
     1
 10
0.0
 20
0.0
 30
0.0
  3
*D20
  1

  0
LINE
  5
3250
330
C54
100
AcDbEntity
  8
DIM
 62
     0
100
AcDbLine
 10
18.26188705129551
 20
18.0421836891108
 30
0.0
 11
18.26188705129551
 21
18.8676974346419
 31
0.0
  0
LINE
  5
3251
330
C54
100
AcDbEntity
  8
DIM
 62
     0
100
AcDbLine
 10
21.26188687189551
 20
17.9933338836336
 30
0.0
 11
21.26188687189551
 21
18.8676974346419
 31
0.0
  0
LINE
  5
3252
330
C54
100
AcDbEntity
  8
DIM
 62
     0
100
AcDbLine
 10
18.66688705129551
 20
18.6584474346419
 30
0.0
 11
19.19024633659551
 21
18.6584474346419
 31
0.0
  0
LINE
  5
3253
330
C54
100
AcDbEntity
  8
DIM
 62
     0
100
AcDbLine
 10
20.85688687189551
 20
18.6584474346419
 30
0.0
 11
20.33352758659551
 21
18.6584474346419
 31
0.0
  0
SOLID
  5
3254
330
C54
100
AcDbEntity
  8
DIM
 62
     0
100
AcDbTrace
 10
18.66688705129551
 20
18.7259474346419
 30
0.0
 11
18.66688705129551
 21
18.5909474346419
 31
0.0
 12
18.26188705129551
 22
18.6584474346419
 32
0.0
 13
18.26188705129551
 23
18.6584474346419
 33
0.0
  0
SOLID
  5
3255
330
C54
100
AcDbEntity
  8
DIM
 62
     0
100
AcDbTrace
 10
20.85688687189551
 20
18.7259474346419
 30
0.0
 11
20.85688687189551
 21
18.5909474346419
 31
0.0
 12
21.26188687189551
 22
18.6584474346419
 32
0.0
 13
21.26188687189551
 23
18.6584474346419
 33
0.0
  0
MTEXT
  5
3256
330
C54
100
AcDbEntity
  8
DIM
 62
     0
100
AcDbMText
 10
19.76188696159551
 20
18.6584474346419
 30
0.0
 40
0.28125
 41
0.0
 71
     5
 72
     1
  1
\A1;3.000
  7
TXT
1001
ACAD
1000
MTEXTBEGIN
1070
    73
1070
     1
1070
    44
1040
1.0
1070
    74
1070
     0
1000
MTEXTEND
  0
POINT
  5
3257
330
C54
100
AcDbEntity
  8
DEFPOINTS
 62
     0
100
AcDbPoint
 10
18.26188705129551
 20
17.9004336891108
 30
0.0
  0
POINT
  5
3258
330
C54
100
AcDbEntity
  8
DEFPOINTS
 62
     0
100
AcDbPoint
 10
21.26188687189551
 20
17.85158388363361
 30
0.0
  0
POINT
  5
3259
330
C54
100
AcDbEntity
  8
DEFPOINTS
 62
     0
100
AcDbPoint
 10
21.26188687189551
 20
18.6584474346419
 30
0.0
  0
ENDBLK
  5
C60
330
C54
100
AcDbEntity
  8
0
100
AcDbBlockEnd
  0
BLOCK
  5
C6C
330
C61
100
AcDbEntity
  8
0
100
AcDbBlockBegin
  2
*D21
 70
     1
 10
0.0
 20
0.0
 30
0.0
  3
*D21
  1

  0
LINE
  5
31F5
330
C61
100
AcDbEntity
  8
DIM
 62
     0
100
AcDbLine
 10
13.87555715619141
 20
17.15018547181083
 30
0.0
 11
12.89862014460168
 21
17.15018547181083
 31
0.0
  0
LINE
  5
31F6
330
C61
100
AcDbEntity
  8
DIM
 62
     0
100
AcDbLine
 10
13.87555715619141
 20
12.65024444545641
 30
0.0
 11
12.89862014460168
 21
12.65024444545641
 31
0.0
  0
LINE
  5
31F7
330
C61
100
AcDbEntity
  8
DIM
 62
     0
100
AcDbLine
 10
13.10787014460168
 20
16.74518547181082
 30
0.0
 11
13.10787014460168
 21
15.24333995863361
 31
0.0
  0
LINE
  5
31F8
330
C61
100
AcDbEntity
  8
DIM
 62
     0
100
AcDbLine
 10
13.10787014460168
 20
13.05524444545641
 30
0.0
 11
13.10787014460168
 21
14.55708995863361
 31
0.0
  0
SOLID
  5
31F9
330
C61
100
AcDbEntity
  8
DIM
 62
     0
100
AcDbTrace
 10
13.04037014460168
 20
16.74518547181082
 30
0.0
 11
13.17537014460168
 21
16.74518547181082
 31
0.0
 12
13.10787014460168
 22
17.15018547181083
 32
0.0
 13
13.10787014460168
 23
17.15018547181083
 33
0.0
  0
SOLID
  5
31FA
330
C61
100
AcDbEntity
  8
DIM
 62
     0
100
AcDbTrace
 10
13.04037014460168
 20
13.05524444545641
 30
0.0
 11
13.17537014460168
 21
13.05524444545641
 31
0.0
 12
13.10787014460168
 22
12.65024444545641
 32
0.0
 13
13.10787014460168
 23
12.65024444545641
 33
0.0
  0
MTEXT
  5
31FB
330
C61
100
AcDbEntity
  8
DIM
 62
     0
100
AcDbMText
 10
13.10787014460168
 20
14.90021495863362
 30
0.0
 40
0.28125
 41
0.0
 71
     5
 72
     1
  1
\A1;4.500
  7
TXT
1001
ACAD
1000
MTEXTBEGIN
1070
    73
1070
     1
1070
    44
1040
1.0
1070
    74
1070
     0
1000
MTEXTEND
  0
POINT
  5
31FC
330
C61
100
AcDbEntity
  8
DEFPOINTS
 62
     0
100
AcDbPoint
 10
14.01730715619141
 20
17.15018547181083
 30
0.0
  0
POINT
  5
31FD
330
C61
100
AcDbEntity
  8
DEFPOINTS
 62
     0
100
AcDbPoint
 10
14.01730715619141
 20
12.65024444545641
 30
0.0
  0
POINT
  5
31FE
330
C61
100
AcDbEntity
  8
DEFPOINTS
 62
     0
100
AcDbPoint
 10
13.10787014460168
 20
12.65024444545641
 30
0.0
  0
ENDBLK
  5
C6D
330
C61
100
AcDbEntity
  8
0
100
AcDbBlockEnd
  0
BLOCK
  5
C79
330
C6E
100
AcDbEntity
  8
0
100
AcDbBlockBegin
  2
*D22
 70
     1
 10
0.0
 20
0.0
 30
0.0
  3
*D22
  1

  0
LINE
  5
31FF
330
C6E
100
AcDbEntity
  8
DIM
 62
     0
100
AcDbLine
 10
18.12013705129551
 20
17.9004336891108
 30
0.0
 11
17.34940428895416
 21
17.9004336891108
 31
0.0
  0
LINE
  5
3200
330
C6E
100
AcDbEntity
  8
DIM
 62
     0
100
AcDbLine
 10
18.12013705129551
 20
11.89999622815644
 30
0.0
 11
17.34940428895416
 21
11.89999622815644
 31
0.0
  0
LINE
  5
3201
330
C6E
100
AcDbEntity
  8
DIM
 62
     0
100
AcDbLine
 10
17.55865428895416
 20
17.4954336891108
 30
0.0
 11
17.55865428895416
 21
15.24333995863362
 31
0.0
  0
LINE
  5
3202
330
C6E
100
AcDbEntity
  8
DIM
 62
     0
100
AcDbLine
 10
17.55865428895416
 20
12.30499622815644
 30
0.0
 11
17.55865428895416
 21
14.55708995863361
 31
0.0
  0
SOLID
  5
3203
330
C6E
100
AcDbEntity
  8
DIM
 62
     0
100
AcDbTrace
 10
17.49115428895417
 20
17.4954336891108
 30
0.0
 11
17.62615428895417
 21
17.4954336891108
 31
0.0
 12
17.55865428895416
 22
17.9004336891108
 32
0.0
 13
17.55865428895416
 23
17.9004336891108
 33
0.0
  0
SOLID
  5
3204
330
C6E
100
AcDbEntity
  8
DIM
 62
     0
100
AcDbTrace
 10
17.49115428895417
 20
12.30499622815644
 30
0.0
 11
17.62615428895417
 21
12.30499622815644
 31
0.0
 12
17.55865428895416
 22
11.89999622815644
 32
0.0
 13
17.55865428895416
 23
11.89999622815644
 33
0.0
  0
MTEXT
  5
3205
330
C6E
100
AcDbEntity
  8
DIM
 62
     0
100
AcDbMText
 10
17.55865428895416
 20
14.90021495863362
 30
0.0
 40
0.28125
 41
0.0
 71
     5
 72
     1
  1
\A1;6.000
  7
TXT
1001
ACAD
1000
MTEXTBEGIN
1070
    73
1070
     1
1070
    44
1040
1.0
1070
    74
1070
     0
1000
MTEXTEND
  0
POINT
  5
3206
330
C6E
100
AcDbEntity
  8
DEFPOINTS
 62
     0
100
AcDbPoint
 10
18.26188705129551
 20
17.9004336891108
 30
0.0
  0
POINT
  5
3207
330
C6E
100
AcDbEntity
  8
DEFPOINTS
 62
     0
100
AcDbPoint
 10
18.26188705129551
 20
11.89999622815644
 30
0.0
  0
POINT
  5
3208
330
C6E
100
AcDbEntity
  8
DEFPOINTS
 62
     0
100
AcDbPoint
 10
17.55865428895416
 20
11.89999622815644
 30
0.0
  0
ENDBLK
  5
C7A
330
C6E
100
AcDbEntity
  8
0
100
AcDbBlockEnd
  0
BLOCK
  5
C86
330
C7B
100
AcDbEntity
  8
0
100
AcDbBlockBegin
  2
*D23
 70
     1
 10
0.0
 20
0.0
 30
0.0
  3
*D23
  1

  0
LINE
  5
325A
330
C7B
100
AcDbEntity
  8
DIM
 62
     0
100
AcDbLine
 10
21.27851274829551
 20
17.97571495863362
 30
0.0
 11
22.16425563104676
 21
17.97571495863362
 31
0.0
  0
LINE
  5
325B
330
C7B
100
AcDbEntity
  8
DIM
 62
     0
100
AcDbLine
 10
21.27851274829551
 20
11.8247149586336
 30
0.0
 11
22.16425563104676
 21
11.8247149586336
 31
0.0
  0
LINE
  5
325C
330
C7B
100
AcDbEntity
  8
DIM
 62
     0
100
AcDbLine
 10
21.95500563104676
 20
17.57071495863361
 30
0.0
 11
21.95500563104676
 21
15.24333995863361
 31
0.0
  0
LINE
  5
325D
330
C7B
100
AcDbEntity
  8
DIM
 62
     0
100
AcDbLine
 10
21.95500563104676
 20
12.2297149586336
 30
0.0
 11
21.95500563104676
 21
14.55708995863361
 31
0.0
  0
SOLID
  5
325E
330
C7B
100
AcDbEntity
  8
DIM
 62
     0
100
AcDbTrace
 10
21.88750563104676
 20
17.57071495863361
 30
0.0
 11
22.02250563104676
 21
17.57071495863361
 31
0.0
 12
21.95500563104676
 22
17.97571495863362
 32
0.0
 13
21.95500563104676
 23
17.97571495863362
 33
0.0
  0
SOLID
  5
325F
330
C7B
100
AcDbEntity
  8
DIM
 62
     0
100
AcDbTrace
 10
21.88750563104676
 20
12.2297149586336
 30
0.0
 11
22.02250563104676
 21
12.2297149586336
 31
0.0
 12
21.95500563104676
 22
11.8247149586336
 32
0.0
 13
21.95500563104676
 23
11.8247149586336
 33
0.0
  0
MTEXT
  5
3260
330
C7B
100
AcDbEntity
  8
DIM
 62
     0
100
AcDbMText
 10
21.95500563104676
 20
14.90021495863361
 30
0.0
 40
0.28125
 41
0.0
 71
     5
 72
     1
  1
\A1;6.151
  7
TXT
1001
ACAD
1000
MTEXTBEGIN
1070
    73
1070
     1
1070
    44
1040
1.0
1070
    74
1070
     0
1000
MTEXTEND
  0
POINT
  5
3261
330
C7B
100
AcDbEntity
  8
DEFPOINTS
 62
     0
100
AcDbPoint
 10
21.13676274829551
 20
17.97571495863362
 30
0.0
  0
POINT
  5
3262
330
C7B
100
AcDbEntity
  8
DEFPOINTS
 62
     0
100
AcDbPoint
 10
21.13676274829551
 20
11.8247149586336
 30
0.0
  0
POINT
  5
3263
330
C7B
100
AcDbEntity
  8
DEFPOINTS
 62
     0
100
AcDbPoint
 10
21.95500563104676
 20
11.8247149586336
 30
0.0
  0
ENDBLK
  5
C87
330
C7B
100
AcDbEntity
  8
0
100
AcDbBlockEnd
  0
BLOCK
  5
1045
330
1039
100
AcDbEntity
  8
0
100
AcDbBlockBegin
  2
*D24
 70
     1
 10
0.0
 20
0.0
 30
0.0
  3
*D24
  1

  0
LINE
  5
33AB
330
1039
100
AcDbEntity
  8
DIM
 62
     0
100
AcDbLine
 10
15.42497421029139
 20
4.546933626298057
 30
0.0
 11
16.360402621647
 21
4.546933626298057
 31
0.0
  0
LINE
  5
33AC
330
1039
100
AcDbEntity
  8
DIM
 62
     0
100
AcDbLine
 10
15.6090571561914
 20
4.672057749898057
 30
0.0
 11
16.360402621647
 21
4.672057749898057
 31
0.0
  0
LINE
  5
33AD
330
1039
100
AcDbEntity
  8
DIM
 62
     0
100
AcDbLine
 10
16.151152621647
 20
4.141933626298056
 30
0.0
 11
16.151152621647
 21
3.736933626298057
 31
0.0
  0
LINE
  5
33AE
330
1039
100
AcDbEntity
  8
DIM
 62
     0
100
AcDbLine
 10
16.151152621647
 20
5.077057749898057
 30
0.0
 11
16.151152621647
 21
5.482057749898057
 31
0.0
  0
LINE
  5
33AF
330
1039
100
AcDbEntity
  8
DIM
 62
     0
100
AcDbLine
 10
16.151152621647
 20
5.482057749898057
 30
0.0
 11
16.556152621647
 21
5.482057749898057
 31
0.0
  0
SOLID
  5
33B0
330
1039
100
AcDbEntity
  8
DIM
 62
     0
100
AcDbTrace
 10
16.083652621647
 20
4.141933626298056
 30
0.0
 11
16.218652621647
 21
4.141933626298056
 31
0.0
 12
16.151152621647
 22
4.546933626298057
 32
0.0
 13
16.151152621647
 23
4.546933626298057
 33
0.0
  0
SOLID
  5
33B1
330
1039
100
AcDbEntity
  8
DIM
 62
     0
100
AcDbTrace
 10
16.083652621647
 20
5.077057749898057
 30
0.0
 11
16.218652621647
 21
5.077057749898057
 31
0.0
 12
16.151152621647
 22
4.672057749898057
 32
0.0
 13
16.151152621647
 23
4.672057749898057
 33
0.0
  0
MTEXT
  5
33B2
330
1039
100
AcDbEntity
  8
DIM
 62
     0
100
AcDbMText
 10
17.127793246647
 20
5.48205774989806
 30
0.0
 40
0.28125
 41
0.0
 71
     5
 72
     1
  1
\A1;0.125
  7
TXT
1001
ACAD
1000
MTEXTBEGIN
1070
    73
1070
     1
1070
    44
1040
1.0
1070
    74
1070
     0
1000
MTEXTEND
  0
POINT
  5
33B3
330
1039
100
AcDbEntity
  8
DEFPOINTS
 62
     0
100
AcDbPoint
 10
15.28322421029139
 20
4.546933626298057
 30
0.0
  0
POINT
  5
33B4
330
1039
100
AcDbEntity
  8
DEFPOINTS
 62
     0
100
AcDbPoint
 10
15.4673071561914
 20
4.672057749898057
 30
0.0
  0
POINT
  5
33B5
330
1039
100
AcDbEntity
  8
DEFPOINTS
 62
     0
100
AcDbPoint
 10
16.151152621647
 20
4.672057749898057
 30
0.0
  0
ENDBLK
  5
1046
330
1039
100
AcDbEntity
  8
0
100
AcDbBlockEnd
  0
BLOCK
  5
203E
330
2033
100
AcDbEntity
  8
0
100
AcDbBlockBegin
  2
*D25
 70
     1
 10
0.0
 20
0.0
 30
0.0
  3
*D25
  1

  0
LINE
  5
3186
330
2033
100
AcDbEntity
  8
DIM
 62
     0
100
AcDbLine
 10
14.35230715619141
 20
17.62696495863361
 30
0.0
 11
14.35230715619141
 21
18.93674867935255
 31
0.0
  0
LINE
  5
3187
330
2033
100
AcDbEntity
  8
DIM
 62
     0
100
AcDbLine
 10
9.767307156191414
 20
17.6255998014108
 30
0.0
 11
9.767307156191414
 21
18.93674867935255
 31
0.0
  0
LINE
  5
3188
330
2033
100
AcDbEntity
  8
DIM
 62
     0
100
AcDbLine
 10
13.94730715619141
 20
18.72749867935255
 30
0.0
 11
12.68418215619141
 21
18.72749867935255
 31
0.0
  0
LINE
  5
3189
330
2033
100
AcDbEntity
  8
DIM
 62
     0
100
AcDbLine
 10
10.17230715619141
 20
18.72749867935255
 30
0.0
 11
11.43543215619141
 21
18.72749867935255
 31
0.0
  0
SOLID
  5
318A
330
2033
100
AcDbEntity
  8
DIM
 62
     0
100
AcDbTrace
 10
13.94730715619141
 20
18.79499867935255
 30
0.0
 11
13.94730715619141
 21
18.65999867935255
 31
0.0
 12
14.35230715619141
 22
18.72749867935255
 32
0.0
 13
14.35230715619141
 23
18.72749867935255
 33
0.0
  0
SOLID
  5
318B
330
2033
100
AcDbEntity
  8
DIM
 62
     0
100
AcDbTrace
 10
10.17230715619141
 20
18.79499867935255
 30
0.0
 11
10.17230715619141
 21
18.65999867935255
 31
0.0
 12
9.767307156191414
 22
18.72749867935255
 32
0.0
 13
9.767307156191414
 23
18.72749867935255
 33
0.0
  0
MTEXT
  5
318C
330
2033
100
AcDbEntity
  8
DIM
 62
     0
100
AcDbMText
 10
12.05980715619141
 20
18.72749867935255
 30
0.0
 40
0.28125
 41
0.0
 71
     5
 72
     1
  1
\A1;4.585
  7
TXT
1001
ACAD
1000
MTEXTBEGIN
1070
    73
1070
     1
1070
    44
1040
1.0
1070
    74
1070
     0
1000
MTEXTEND
  0
POINT
  5
318D
330
2033
100
AcDbEntity
  8
DEFPOINTS
 62
     0
100
AcDbPoint
 10
14.35230715619141
 20
17.48521495863362
 30
0.0
  0
POINT
  5
318E
330
2033
100
AcDbEntity
  8
DEFPOINTS
 62
     0
100
AcDbPoint
 10
9.767307156191414
 20
17.4838498014108
 30
0.0
  0
POINT
  5
318F
330
2033
100
AcDbEntity
  8
DEFPOINTS
 62
     0
100
AcDbPoint
 10
9.767307156191414
 20
18.72749867935255
 30
0.0
  0
ENDBLK
  5
203F
330
2033
100
AcDbEntity
  8
0
100
AcDbBlockEnd
  0
BLOCK
  5
295B
330
2950
100
AcDbEntity
  8
0
100
AcDbBlockBegin
  2
*D26
 70
     1
 10
0.0
 20
0.0
 30
0.0
  3
*D26
  1

  0
LINE
  5
33C0
330
2950
100
AcDbEntity
  8
DIM
 62
     0
100
AcDbLine
 10
4.767307156191414
 20
7.68868344689806
 30
0.0
 11
4.767307156191414
 21
9.173280535211425
 31
0.0
  0
LINE
  5
33C1
330
2950
100
AcDbEntity
  8
DIM
 62
     0
100
AcDbLine
 10
14.76730715619141
 20
7.68868344689806
 30
0.0
 11
14.76730715619141
 21
9.173280535211425
 31
0.0
  0
LINE
  5
33C2
330
2950
100
AcDbEntity
  8
DIM
 62
     0
100
AcDbLine
 10
5.172307156191414
 20
8.964030535211424
 30
0.0
 11
9.142932156191411
 21
8.964030535211424
 31
0.0
  0
LINE
  5
33C3
330
2950
100
AcDbEntity
  8
DIM
 62
     0
100
AcDbLine
 10
14.36230715619141
 20
8.964030535211424
 30
0.0
 11
10.39168215619141
 21
8.964030535211424
 31
0.0
  0
SOLID
  5
33C4
330
2950
100
AcDbEntity
  8
DIM
 62
     0
100
AcDbTrace
 10
5.172307156191414
 20
9.031530535211425
 30
0.0
 11
5.172307156191414
 21
8.896530535211423
 31
0.0
 12
4.767307156191414
 22
8.964030535211424
 32
0.0
 13
4.767307156191414
 23
8.964030535211424
 33
0.0
  0
SOLID
  5
33C5
330
2950
100
AcDbEntity
  8
DIM
 62
     0
100
AcDbTrace
 10
14.36230715619141
 20
9.031530535211425
 30
0.0
 11
14.36230715619141
 21
8.896530535211423
 31
0.0
 12
14.76730715619141
 22
8.964030535211424
 32
0.0
 13
14.76730715619141
 23
8.964030535211424
 33
0.0
  0
MTEXT
  5
33C6
330
2950
100
AcDbEntity
  8
DIM
 62
     0
100
AcDbMText
 10
9.767307156191412
 20
8.964030535211424
 30
0.0
 40
0.28125
 41
0.0
 71
     5
 72
     1
  1
\A1;10.000
  7
TXT
1001
ACAD
1000
MTEXTBEGIN
1070
    73
1070
     1
1070
    44
1040
1.0
1070
    74
1070
     0
1000
MTEXTEND
  0
POINT
  5
33C7
330
2950
100
AcDbEntity
  8
DEFPOINTS
 62
     0
100
AcDbPoint
 10
4.767307156191414
 20
7.54693344689806
 30
0.0
  0
POINT
  5
33C8
330
2950
100
AcDbEntity
  8
DEFPOINTS
 62
     0
100
AcDbPoint
 10
14.76730715619141
 20
7.54693344689806
 30
0.0
  0
POINT
  5
33C9
330
2950
100
AcDbEntity
  8
DEFPOINTS
 62
     0
100
AcDbPoint
 10
14.76730715619141
 20
8.964030535211424
 30
0.0
  0
ENDBLK
  5
295C
330
2950
100
AcDbEntity
  8
0
100
AcDbBlockEnd
  0
BLOCK
  5
3343
330
3335
100
AcDbEntity
  8
0
100
AcDbBlockBegin
  2
*D27
 70
     1
 10
0.0
 20
0.0
 30
0.0
  3
*D27
  1

  0
LINE
  5
3491
330
3335
100
AcDbEntity
  8
DIM
 62
     0
100
AcDbLine
 10
4.770932432231347
 20
7.688637080844528
 30
0.0
 11
4.794655193035446
 21
8.615904791263137
 31
0.0
  0
LINE
  5
3492
330
3335
100
AcDbEntity
  8
DIM
 62
     0
100
AcDbLine
 10
4.693732345390484
 20
4.812814701298057
 30
0.0
 11
4.693732345390484
 21
8.617195560325981
 31
0.0
  0
ARC
  5
3493
330
3335
100
AcDbEntity
  8
DIM
 62
     0
100
AcDbCircle
 10
4.693732345390484
 20
4.671064701298057
 30
0.0
 40
3.736880859027924
100
AcDbArc
 50
76.09071357396996
 51
88.53449264844599
  0
LINE
  5
3494
330
3335
100
AcDbEntity
  8
DIM
 62
     0
100
AcDbLine
 10
5.59202384004645
 20
8.298370994568315
 30
0.0
 11
5.99702384004645
 21
8.298370994568314
 31
0.0
  0
ARC
  5
3495
330
3335
100
AcDbEntity
  8
DIM
 62
     0
100
AcDbCircle
 10
4.693732345390484
 20
4.671064701298057
 30
0.0
 40
3.736880859027924
100
AcDbArc
 50
76.10906970137269
 51
82.32178117490935
  0
ARC
  5
3496
330
3335
100
AcDbEntity
  8
DIM
 62
     0
100
AcDbCircle
 10
4.693732345390484
 20
4.671064701298057
 30
0.0
 40
3.736880859027924
100
AcDbArc
 50
96.21271147353663
 51
102.4254229470732
  0
SOLID
  5
3497
330
3335
100
AcDbEntity
  8
DIM
 62
     0
100
AcDbTrace
 10
5.187634557283975
 20
8.307155698793065
 30
0.0
 11
5.198395328276843
 21
8.441726148029289
 31
0.0
 12
4.789303595071738
 22
8.40672323638978
 32
0.0
 13
4.789303595071738
 23
8.40672323638978
 33
0.0
  0
SOLID
  5
3498
330
3335
100
AcDbEntity
  8
DIM
 62
     0
100
AcDbTrace
 10
4.285669629371245
 20
8.45339960079546
 30
0.0
 11
4.292985222517319
 21
8.318597960980058
 31
0.0
 12
4.693732345390485
 22
8.40794556032598
 32
0.0
 13
4.693732345390485
 23
8.40794556032598
 33
0.0
  0
MTEXT
  5
3499
330
3335
100
AcDbEntity
  8
DIM
 62
     0
100
AcDbMText
 10
7.324523840046451
 20
8.298370994568315
 30
0.0
 40
0.28125
 41
0.0
 71
     5
 72
     1
  1
\A1;1-1/2° DRAFT
  7
TXT
  0
POINT
  5
349A
330
3335
100
AcDbEntity
  8
DEFPOINTS
 62
     0
100
AcDbPoint
 10
4.725592516526945
 20
8.407809739973354
 30
0.0
  0
POINT
  5
349B
330
3335
100
AcDbEntity
  8
DEFPOINTS
 62
     0
100
AcDbPoint
 10
4.693732345390484
 20
4.671064701298057
 30
0.0
  0
POINT
  5
349C
330
3335
100
AcDbEntity
  8
DEFPOINTS
 62
     0
100
AcDbPoint
 10
4.693732345390484
 20
4.671064701298057
 30
0.0
  0
POINT
  5
349D
330
3335
100
AcDbEntity
  8
DEFPOINTS
 62
     0
100
AcDbPoint
 10
4.767307156191414
 20
7.546933446898061
 30
0.0
  0
POINT
  5
349E
330
3335
100
AcDbEntity
  8
DEFPOINTS
 62
     0
100
AcDbPoint
 10
4.693732345390484
 20
3.815399450093878
 30
0.0
  0
ENDBLK
  5
3344
330
3335
100
AcDbEntity
  8
0
100
AcDbBlockEnd
  0
BLOCK
  5
3411
330
3403
100
AcDbEntity
  8
0
100
AcDbBlockBegin
  2
*D28
 70
     1
 10
0.0
 20
0.0
 30
0.0
  3
*D28
  1

  0
LINE
  5
349F
330
3403
100
AcDbEntity
  8
DIM
 62
     0
100
AcDbLine
 10
14.17653755399141
 20
4.798912020898056
 30
0.0
 11
14.17653755399142
 21
7.001055615632602
 31
0.0
  0
ARC
  5
34A0
330
3403
100
AcDbEntity
  8
DIM
 62
     0
100
AcDbCircle
 10
14.17653755399141
 20
4.657162020898057
 30
0.0
 40
2.134643594734546
100
AcDbArc
 50
67.63047171696391
 51
89.50420299988664
  0
LINE
  5
34A1
330
3403
100
AcDbEntity
  8
DIM
 62
     0
100
AcDbLine
 10
14.98893726642082
 20
6.63117062872778
 30
0.0
 11
15.39393726642082
 21
6.63117062872778
 31
0.0
  0
ARC
  5
34A2
330
3403
100
AcDbEntity
  8
DIM
 62
     0
100
AcDbCircle
 10
14.17653755399141
 20
4.657162020898057
 30
0.0
 40
2.134643594734546
100
AcDbArc
 50
67.73032357156052
 51
78.61726328572358
  0
ARC
  5
34A3
330
3403
100
AcDbEntity
  8
DIM
 62
     0
100
AcDbCircle
 10
14.17653755399141
 20
4.657162020898057
 30
0.0
 40
2.134643594734546
100
AcDbArc
 50
100.886939714163
 51
111.7738794283261
  0
SOLID
  5
34A4
330
3403
100
AcDbEntity
  8
DIM
 62
     0
100
AcDbTrace
 10
14.59085051909034
 20
6.682680968130935
 30
0.0
 11
14.60481953854584
 21
6.816956306504933
 31
0.0
 12
14.1950090136961
 22
6.791725695684452
 32
0.0
 13
14.1950090136961
 23
6.791725695684452
 33
0.0
  0
SOLID
  5
34A5
330
3403
100
AcDbEntity
  8
DIM
 62
     0
100
AcDbTrace
 10
13.76696069730446
 20
6.820581446922616
 30
0.0
 11
13.7797672848151
 21
6.686190259278737
 31
0.0
 12
14.17653755399142
 22
6.791805615632602
 32
0.0
 13
14.17653755399142
 23
6.791805615632602
 33
0.0
  0
MTEXT
  5
34A6
330
3403
100
AcDbEntity
  8
DIM
 62
     0
100
AcDbMText
 10
16.54565601642082
 20
6.63117062872778
 30
0.0
 40
0.28125
 41
0.0
 71
     5
 72
     1
  1
\A1;1/2° DRAFT
  7
TXT
  0
POINT
  5
34A7
330
3403
100
AcDbEntity
  8
DEFPOINTS
 62
     0
100
AcDbPoint
 10
14.18269477552971
 20
6.791796735589111
 30
0.0
  0
POINT
  5
34A8
330
3403
100
AcDbEntity
  8
DEFPOINTS
 62
     0
100
AcDbPoint
 10
14.17653755399141
 20
4.657162020898057
 30
0.0
  0
POINT
  5
34A9
330
3403
100
AcDbEntity
  8
DEFPOINTS
 62
     0
100
AcDbPoint
 10
14.17653755399141
 20
4.657162020898057
 30
0.0
  0
POINT
  5
34AA
330
3403
100
AcDbEntity
  8
DEFPOINTS
 62
     0
100
AcDbPoint
 10
14.19714331244144
 20
7.038365465674903
 30
0.0
  0
POINT
  5
34AB
330
3403
100
AcDbEntity
  8
DEFPOINTS
 62
     0
100
AcDbPoint
 10
14.17653755399142
 20
3.912460524983742
 30
0.0
  0
ENDBLK
  5
3412
330
3403
100
AcDbEntity
  8
0
100
AcDbBlockEnd
  0
ENDSEC
  0
SECTION
  2
ENTITIES
  0
TEXT
  5
1DE
330
1E
100
AcDbEntity
  8
0
  6
CONTINUOUS
 62
     7
100
AcDbText
 10
22.31748878367495
 20
12.27456486485506
 30
0.0
 40
0.125
  1

 50
90.0
  7
CITYBLUEPRINT
100
AcDbText
  0
TEXT
  5
1E0
330
1E
100
AcDbEntity
  8
0
  6
CONTINUOUS
 62
     1
100
AcDbText
 10
19.17845410090357
 20
15.4091803877171
 30
0.0
 40
0.125
  1

  7
CITYBLUEPRINT
100
AcDbText
  0
TEXT
  5
1E1
330
1E
100
AcDbEntity
  8
0
  6
CONTINUOUS
 62
     1
100
AcDbText
 10
19.14695795002474
 20
15.17324074991588
 30
0.0
 40
0.125
  1

  7
CITYBLUEPRINT
100
AcDbText
  0
TEXT
  5
1E2
330
1E
100
AcDbEntity
  8
0
  6
CONTINUOUS
 62
     1
100
AcDbText
 10
12.31229075867319
 20
15.33053382170928
 30
0.0
 40
0.1875
  1

  7
CITYBLUEPRINT
100
AcDbText
  0
TEXT
  5
1E3
330
1E
100
AcDbEntity
  8
0
  6
CONTINUOUS
 62
     1
100
AcDbText
 10
14.39967731388856
 20
22.51625307369989
 30
0.0
 40
0.1875
  1

  7
CITYBLUEPRINT
100
AcDbText
  0
TEXT
  5
1E5
330
1E
100
AcDbEntity
  8
0
  6
CONTINUOUS
 62
     7
100
AcDbText
 10
25.89831338140157
 20
25.24422504265892
 30
0.0
 40
0.125
  1

 50
90.0
  7
CITYBLUEPRINT
100
AcDbText
  0
TEXT
  5
251
330
1E
100
AcDbEntity
  8
0
  6
CONTINUOUS
 62
     1
100
AcDbText
 10
22.7592786986302
 20
28.37884056552097
 30
0.0
 40
0.125
  1

  7
CITYBLUEPRINT
100
AcDbText
  0
TEXT
  5
252
330
1E
100
AcDbEntity
  8
0
  6
CONTINUOUS
 62
     1
100
AcDbText
 10
22.72778254775138
 20
28.14290092771975
 30
0.0
 40
0.125
  1

  7
CITYBLUEPRINT
100
AcDbText
  0
TEXT
  5
253
330
1E
100
AcDbEntity
  8
0
  6
CONTINUOUS
 62
     1
100
AcDbText
 10
15.89311535639982
 20
28.30019399951314
 30
0.0
 40
0.1875
  1

  7
CITYBLUEPRINT
100
AcDbText
  0
TEXT
  5
254
330
1E
100
AcDbEntity
  8
0
  6
CONTINUOUS
 62
     1
100
AcDbText
 10
17.98050191161518
 20
35.48591325150376
 30
0.0
 40
0.1875
  1

  7
CITYBLUEPRINT
100
AcDbText
  0
TEXT
  5
255
330
1E
100
AcDbEntity
  8
0
  6
CONTINUOUS
 62
     7
100
AcDbText
 10
22.31748878367495
 20
12.27456486485506
 30
0.0
 40
0.125
  1

 50
90.0
  7
CITYBLUEPRINT
100
AcDbText
  0
TEXT
  5
256
330
1E
100
AcDbEntity
  8
0
  6
CONTINUOUS
 62
     1
100
AcDbText
 10
19.17845410090357
 20
15.4091803877171
 30
0.0
 40
0.125
  1

  7
CITYBLUEPRINT
100
AcDbText
  0
TEXT
  5
257
330
1E
100
AcDbEntity
  8
0
  6
CONTINUOUS
 62
     1
100
AcDbText
 10
19.14695795002474
 20
15.17324074991588
 30
0.0
 40
0.125
  1

  7
CITYBLUEPRINT
100
AcDbText
  0
TEXT
  5
258
330
1E
100
AcDbEntity
  8
0
  6
CONTINUOUS
 62
     1
100
AcDbText
 10
12.31229075867319
 20
15.33053382170928
 30
0.0
 40
0.1875
  1

  7
CITYBLUEPRINT
100
AcDbText
  0
TEXT
  5
2A1
330
1E
100
AcDbEntity
  8
0
  6
CONTINUOUS
 62
     1
100
AcDbText
 10
14.39967731388856
 20
22.51625307369989
 30
0.0
 40
0.1875
  1

  7
CITYBLUEPRINT
100
AcDbText
  0
TEXT
  5
2A3
330
1E
100
AcDbEntity
  8
0
  6
CONTINUOUS
 62
     7
100
AcDbText
 10
39.73723601783406
 20
21.6487096050277
 30
0.0
 40
0.125
  1

 50
90.0
  7
CITYBLUEPRINT
100
AcDbText
  0
TEXT
  5
2A7
330
1E
100
AcDbEntity
  8
0
  6
CONTINUOUS
 62
     7
100
AcDbText
 10
40.15596313810184
 20
22.93825919990421
 30
0.0
 40
0.125
  1

 50
90.0
  7
CITYBLUEPRINT
100
AcDbText
  0
TEXT
  5
318
330
1E
100
AcDbEntity
  8
0
  6
CONTINUOUS
 62
     1
100
AcDbText
 10
33.77958210090591
 20
2.962980280087863
 30
0.0
 40
0.125
  1

  7
CITYBLUEPRINT
100
AcDbText
  0
TEXT
  5
319
330
1E
100
AcDbEntity
  8
0
  6
CONTINUOUS
 62
     1
100
AcDbText
 10
33.74808595002709
 20
2.727040642286635
 30
0.0
 40
0.125
  1

  7
CITYBLUEPRINT
100
AcDbText
  0
TEXT
  5
31A
330
1E
100
AcDbEntity
  8
0
  6
CONTINUOUS
 62
     1
100
AcDbText
 10
26.91341875867554
 20
2.884333714080036
 30
0.0
 40
0.1875
  1

  7
CITYBLUEPRINT
100
AcDbText
  0
TEXT
  5
32B
330
1E
100
AcDbEntity
  8
0
  6
CONTINUOUS
 62
     1
100
AcDbText
 10
29.0008053138909
 20
10.07005296607064
 30
0.0
 40
0.1875
  1

  7
CITYBLUEPRINT
100
AcDbText
  0
TEXT
  5
39E
330
1E
100
AcDbEntity
  8
TEXT
100
AcDbText
 10
14.56904901153959
 20
32.47304020611641
 30
0.0
 40
0.25
  1
SIX (6) #4-40 x 0.500" LG. SCREWS
 41
0.75
  7
TXT
100
AcDbText
  0
TEXT
  5
39F
330
1E
100
AcDbEntity
  8
TEXT
100
AcDbText
 10
14.56904901153959
 20
32.00788952400813
 30
0.0
 40
0.25
  1
SUPPLIED FOR ASSEMBLING COVER
 41
0.75
  7
TXT
100
AcDbText
  0
TEXT
  5
3A0
330
1E
100
AcDbEntity
  8
TEXT
100
AcDbText
 10
14.56904901153959
 20
31.51767151112433
 30
0.0
 40
0.25
  1
TO BODY
 41
0.75
  7
TXT
100
AcDbText
  0
TEXT
  5
3A1
330
1E
100
AcDbEntity
  8
TEXT
100
AcDbText
 10
14.56904901153959
 20
30.55507456019368
 30
0.0
 40
0.25
  1
MOUNTING BOSSES USE EITHER M2.5
 41
0.75
  7
TXT
100
AcDbText
  0
TEXT
  5
3A2
330
1E
100
AcDbEntity
  8
TEXT
100
AcDbText
 10
14.56904901153959
 20
30.10681333806155
 30
0.0
 40
0.25
  1
METRIC OR #4 STD. SHEET METAL
 41
0.75
  7
TXT
100
AcDbText
  0
LINE
  5
3A3
330
1E
100
AcDbEntity
  8
TITLE
100
AcDbLine
 10
0.1394999999999956
 20
2.479500000000002
 30
0.0
 11
22.6305
 21
2.479500000000002
 31
0.0
  0
LINE
  5
3A4
330
1E
100
AcDbEntity
  8
TITLE
100
AcDbLine
 10
2.910417269896437
 20
2.479500000000002
 30
0.0
 11
2.910417269896438
 21
0.1395000000000024
 31
0.0
  0
TEXT
  5
3A5
330
1E
100
AcDbEntity
  8
TEXT
100
AcDbText
 10
0.8282504148253959
 20
2.11556413759714
 30
0.0
 40
0.25
  1
PART No.
 41
0.75
  7
TXT
 72
     1
 11
1.484500414825395
 21
2.11556413759714
 31
0.0
100
AcDbText
  0
TEXT
  5
3A6
330
1E
100
AcDbEntity
  8
TEXT
100
AcDbText
 10
0.8595004148253959
 20
1.652931157522646
 30
0.0
 40
0.25
  1
CU-3286
 41
0.75
  7
TXT
 72
     1
 11
1.484500414825395
 21
1.652931157522646
 31
0.0
100
AcDbText
  0
TEXT
  5
3A7
330
1E
100
AcDbEntity
  8
TEXT
100
AcDbText
 10
0.578250414825396
 20
1.171019781315745
 30
0.0
 40
0.25
  1
CU-3286-MB
 41
0.75
  7
TXT
 72
     1
 11
1.484500414825395
 21
1.171019781315745
 31
0.0
100
AcDbText
  0
TEXT
  5
3A8
330
1E
100
AcDbEntity
  8
TEXT
100
AcDbText
 10
0.765750414825396
 20
0.7083868012412374
 30
0.0
 40
0.25
  1
CUR-3286
 41
0.75
  7
TXT
 72
     1
 11
1.484500414825395
 21
0.7083868012412374
 31
0.0
100
AcDbText
  0
TEXT
  5
3A9
330
1E
100
AcDbEntity
  8
TEXT
100
AcDbText
 10
0.484500414825396
 20
0.2393277438037829
 30
0.0
 40
0.25
  1
CUR-3286-MB
 41
0.75
  7
TXT
 72
     1
 11
1.484500414825395
 21
0.2393277438037829
 31
0.0
100
AcDbText
  0
LINE
  5
3FF
330
1E
100
AcDbEntity
  8
TITLE
100
AcDbLine
 10
0.1394999999999948
 20
2.011500000000002
 30
0.0
 11
22.6305
 21
2.011500000000001
 31
0.0
  0
TEXT
  5
419
330
1E
100
AcDbEntity
  8
TEXT
100
AcDbText
 10
14.56904901153959
 20
29.63176588222651
 30
0.0
 40
0.25
  1
SCREWS x 0.250" LG.
 41
0.75
  7
TXT
100
AcDbText
  0
TEXT
  5
41A
330
1E
100
AcDbEntity
  8
TEXT
100
AcDbText
 10
14.56904901153959
 20
29.16595945065316
 30
0.0
 40
0.25
  1
(NOT SUPPLIED)
 41
0.75
  7
TXT
100
AcDbText
  0
DIMENSION
  5
8C8
330
1E
100
AcDbEntity
  8
DIM
100
AcDbDimension
  2
*D1
 10
14.0972323453905
 20
22.04331147865913
 30
0.0
 11
9.769232345390481
 21
22.04331147865913
 31
0.0
 70
   160
  3
23NSTD
100
AcDbAlignedDimension
 13
5.441232345390488
 23
21.66944792946518
 33
0.0
 14
14.0972323453905
 24
21.66944792946517
 34
0.0
100
AcDbRotatedDimension
1001
ACAD
1000
DSTYLE
1002
{
1070
    40
1040
2.25
1070
   141
1040
4.586925189199087
1002
}
  0
DIMENSION
  5
8C9
330
1E
100
AcDbEntity
  8
DIM
100
AcDbDimension
  2
*D2
 10
14.84473234539051
 20
27.81604419158074
 30
0.0
 11
9.769232345390507
 21
27.81604419158074
 31
0.0
 70
   160
  1
<>
  3
23NSTD
100
AcDbAlignedDimension
 13
4.693732345390499
 23
26.21700027881528
 33
0.0
 14
14.84473234539051
 24
26.21700027881528
 34
0.0
100
AcDbRotatedDimension
1001
ACAD
1000
DSTYLE
1002
{
1070
    40
1040
2.25
1070
   141
1040
4.586925189199087
1002
}
  0
DIMENSION
  5
8CA
330
1E
100
AcDbEntity
  8
DIM
100
AcDbDimension
  2
*D3
 10
14.35230715619141
 20
27.21190684795476
 30
0.0
 11
12.06076975079095
 21
27.21190684795476
 31
0.0
 70
    32
  3
23NSTD
100
AcDbAlignedDimension
 13
9.769232345390502
 23
26.14109806931529
 33
0.0
 14
14.35230715619141
 24
26.21700027881528
 34
0.0
100
AcDbRotatedDimension
1001
ACAD
1000
DSTYLE
1002
{
1070
    40
1040
2.25
1070
   141
1040
4.586925189199087
1002
}
  0
LINE
  5
8CB
330
1E
100
AcDbEntity
  8
OBJECT
100
AcDbLine
 10
5.472016851990495
 20
21.25888257591529
 30
0.0
 11
14.06644783879051
 21
21.25888257591529
 31
0.0
  0
LINE
  5
8CC
330
1E
100
AcDbEntity
  8
OBJECT
100
AcDbLine
 10
5.472016851990495
 20
25.85331356271528
 30
0.0
 11
14.06644783879051
 21
25.85331356271528
 31
0.0
  0
LINE
  5
8CD
330
1E
100
AcDbEntity
  8
OBJECT
100
AcDbLine
 10
5.441232345390488
 20
21.22809806931528
 30
0.0
 11
14.0972323453905
 21
21.22809806931527
 31
0.0
  0
LINE
  5
8CE
330
1E
100
AcDbEntity
  8
OBJECT
100
AcDbLine
 10
5.441232345390516
 20
25.88409806931529
 30
0.0
 11
14.0972323453905
 21
25.88409806931529
 31
0.0
  0
LINE
  5
8CF
330
1E
100
AcDbEntity
  8
HIDDEN
100
AcDbLine
 10
14.43013455489049
 20
20.53521574231529
 30
0.0
 11
5.10833013589049
 21
20.53521574231529
 31
0.0
  0
LINE
  5
8D0
330
1E
100
AcDbEntity
  8
HIDDEN
100
AcDbLine
 10
14.43013455489049
 20
26.57698039631529
 30
0.0
 11
5.10833013589049
 21
26.57698039631529
 31
0.0
  0
LINE
  5
8D2
330
1E
100
AcDbEntity
  8
OBJECT
100
AcDbLine
 10
14.43013455489049
 20
20.48059806931529
 30
0.0
 11
5.10833013589049
 21
20.48059806931529
 31
0.0
  0
LINE
  5
8D3
330
1E
100
AcDbEntity
  8
OBJECT
100
AcDbLine
 10
14.43013455489049
 20
26.63159806931529
 30
0.0
 11
5.10833013589049
 21
26.63159806931528
 31
0.0
  0
LINE
  5
8D4
330
1E
100
AcDbEntity
  8
HIDDEN
100
AcDbLine
 10
14.43013455489049
 20
20.66927730331529
 30
0.0
 11
5.108330135890503
 21
20.66927730331529
 31
0.0
  0
LINE
  5
8D5
330
1E
100
AcDbEntity
  8
HIDDEN
100
AcDbLine
 10
14.43013455489049
 20
26.44291883531529
 30
0.0
 11
5.10833013589049
 21
26.44291883531529
 31
0.0
  0
LINE
  5
8D6
330
1E
100
AcDbEntity
  8
HIDDEN
100
AcDbLine
 10
14.43013455489049
 20
20.60671524151528
 30
0.0
 11
5.108330135890503
 21
20.60671524151528
 31
0.0
  0
LINE
  5
8D7
330
1E
100
AcDbEntity
  8
HIDDEN
100
AcDbLine
 10
14.43013455489049
 20
26.50548089711528
 30
0.0
 11
5.10833013589049
 21
26.50548089711528
 31
0.0
  0
DIMENSION
  5
8DB
330
1E
100
AcDbEntity
  8
DIM
100
AcDbDimension
  2
*D4
 10
3.852888509284066
 20
21.22809806931528
 30
0.0
 11
3.852888509284063
 21
23.84624817114146
 31
0.0
 70
   160
  3
23NSTD
100
AcDbAlignedDimension
 13
5.441232345390513
 23
25.88409806931529
 33
0.0
 14
5.441232345390488
 24
21.22809806931528
 34
0.0
 50
90.0
100
AcDbRotatedDimension
1001
ACAD
1000
DSTYLE
1002
{
1070
    40
1040
2.25
1070
   141
1040
4.586925189199087
1002
}
  0
DIMENSION
  5
8DC
330
1E
100
AcDbEntity
  8
DIM
100
AcDbDimension
  2
*D5
 10
2.98489598060091
 20
20.97109806931528
 30
0.0
 11
2.984895980600907
 21
23.31026929983724
 31
0.0
 70
   160
  3
23NSTD
100
AcDbAlignedDimension
 13
5.184232345390502
 23
26.14109806931528
 33
0.0
 14
5.184232345390504
 24
20.97109806931528
 34
0.0
 50
90.0
100
AcDbRotatedDimension
1001
ACAD
1000
DSTYLE
1002
{
1070
    40
1040
2.25
1070
   141
1040
4.586925189199087
1002
}
  0
ARC
  5
8DD
330
1E
100
AcDbEntity
  8
HIDDEN
100
AcDbCircle
 10
5.10833013589049
 20
20.8951958598153
 30
0.0
 40
0.3599801175000051
100
AcDbArc
 50
180.0000000000006
 51
270.0
  0
ARC
  5
8DE
330
1E
100
AcDbEntity
  8
HIDDEN
100
AcDbCircle
 10
5.10833013589049
 20
26.21700027881528
 30
0.0
 40
0.3599801175000051
100
AcDbArc
 50
90.0
 51
180.0
  0
ARC
  5
8DF
330
1E
100
AcDbEntity
  8
OBJECT
100
AcDbCircle
 10
5.10833013589049
 20
20.8951958598153
 30
0.0
 40
0.4145977905000064
100
AcDbArc
 50
180.0000000000002
 51
270.0
  0
ARC
  5
8E0
330
1E
100
AcDbEntity
  8
OBJECT
100
AcDbCircle
 10
5.10833013589049
 20
26.21700027881528
 30
0.0
 40
0.4145977904999958
100
AcDbArc
 50
90.0
 51
180.0
  0
ARC
  5
8E1
330
1E
100
AcDbEntity
  8
HIDDEN
100
AcDbCircle
 10
5.10833013589049
 20
20.8951958598153
 30
0.0
 40
0.2884806183000085
100
AcDbArc
 50
180.0000000000006
 51
270.0
  0
ARC
  5
8E2
330
1E
100
AcDbEntity
  8
HIDDEN
100
AcDbCircle
 10
5.10833013589049
 20
20.8951958598153
 30
0.0
 40
0.2259185565000088
100
AcDbArc
 50
180.0000000000006
 51
270.0
  0
ARC
  5
8E3
330
1E
100
AcDbEntity
  8
HIDDEN
100
AcDbCircle
 10
5.10833013589049
 20
26.21700027881528
 30
0.0
 40
0.2884806183000085
100
AcDbArc
 50
90.0
 51
180.0
  0
ARC
  5
8E4
330
1E
100
AcDbEntity
  8
HIDDEN
100
AcDbCircle
 10
5.10833013589049
 20
26.21700027881528
 30
0.0
 40
0.2259185565000088
100
AcDbArc
 50
90.0
 51
180.0
  0
LINE
  5
8E5
330
1E
100
AcDbEntity
  8
HIDDEN
100
AcDbLine
 10
4.748350018390496
 20
20.8951958598153
 30
0.0
 11
4.748350018390496
 21
26.21700027881528
 31
0.0
  0
LINE
  5
8E6
330
1E
100
AcDbEntity
  8
OBJECT
100
AcDbLine
 10
4.693732345390499
 20
20.8951958598153
 30
0.0
 11
4.693732345390499
 21
26.21700027881528
 31
0.0
  0
LINE
  5
8E7
330
1E
100
AcDbEntity
  8
HIDDEN
100
AcDbLine
 10
4.819849517590483
 20
20.89519585981528
 30
0.0
 11
4.819849517590483
 21
26.21700027881528
 31
0.0
  0
LINE
  5
8ED
330
1E
100
AcDbEntity
  8
OBJECT
100
AcDbLine
 10
5.472016851990495
 20
25.85331356271528
 30
0.0
 11
5.472016851990495
 21
21.25888257591529
 31
0.0
  0
LINE
  5
8EE
330
1E
100
AcDbEntity
  8
OBJECT
100
AcDbLine
 10
5.441232345390516
 20
25.88409806931529
 30
0.0
 11
5.441232345390488
 21
21.22809806931528
 31
0.0
  0
LINE
  5
8EF
330
1E
100
AcDbEntity
  8
HIDDEN
100
AcDbLine
 10
4.882411579390499
 20
20.89519585981528
 30
0.0
 11
4.882411579390499
 21
26.21700027881528
 31
0.0
  0
CIRCLE
  5
8FE
330
1E
100
AcDbEntity
  8
OBJECT
100
AcDbCircle
 10
5.184232345390504
 20
20.97109806931528
 30
0.0
 40
0.1305858908999955
  0
CIRCLE
  5
8FF
330
1E
100
AcDbEntity
  8
HIDDEN
100
AcDbCircle
 10
5.184232345390504
 20
20.97109806931528
 30
0.0
 40
0.1921549040999932
  0
CIRCLE
  5
900
330
1E
100
AcDbEntity
  8
OBJECT
100
AcDbCircle
 10
5.184232345390504
 20
20.97109806931528
 30
0.0
 40
0.0580933430999881
  0
CIRCLE
  5
901
330
1E
100
AcDbEntity
  8
OBJECT
100
AcDbCircle
 10
9.769232345390502
 20
20.97109806931528
 30
0.0
 40
0.0580933430999881
  0
CIRCLE
  5
902
330
1E
100
AcDbEntity
  8
OBJECT
100
AcDbCircle
 10
9.769232345390502
 20
20.97109806931528
 30
0.0
 40
0.1305858908999955
  0
CIRCLE
  5
903
330
1E
100
AcDbEntity
  8
HIDDEN
100
AcDbCircle
 10
9.769232345390502
 20
20.97109806931528
 30
0.0
 40
0.1921549040999932
  0
DIMENSION
  5
911
330
1E
100
AcDbEntity
  8
DIM
100
AcDbDimension
  2
*D6
 10
9.769232345390502
 20
27.21190684795475
 30
0.0
 11
7.476732345390503
 21
27.21190684795475
 31
0.0
 70
    32
  3
23NSTD
100
AcDbAlignedDimension
 13
5.184232345390502
 23
26.14109806931528
 33
0.0
 14
9.769232345390502
 24
26.14109806931529
 34
0.0
100
AcDbRotatedDimension
1001
ACAD
1000
DSTYLE
1002
{
1070
    40
1040
2.25
1070
   141
1040
4.586925189199087
1002
}
  0
TEXT
  5
912
330
1E
100
AcDbEntity
  8
TEXT
100
AcDbText
 10
8.156974385134276
 20
23.34735451836555
 30
0.0
 40
0.25
  1
0.030 RECESSED SMOOTH
 41
0.75
  7
TXT
100
AcDbText
  0
TEXT
  5
913
330
1E
100
AcDbEntity
  8
TEXT
100
AcDbText
 10
8.353556020764912
 20
23.75757336118982
 30
0.0
 40
0.25
  1
TEXTURED FLUSH OR
 41
0.75
  7
TXT
100
AcDbText
  0
CIRCLE
  5
914
330
1E
100
AcDbEntity
  8
OBJECT
100
AcDbCircle
 10
5.184232345390504
 20
26.14109806931528
 30
0.0
 40
0.0580933430999881
  0
CIRCLE
  5
915
330
1E
100
AcDbEntity
  8
OBJECT
100
AcDbCircle
 10
5.184232345390504
 20
26.14109806931528
 30
0.0
 40
0.1305858908999955
  0
CIRCLE
  5
916
330
1E
100
AcDbEntity
  8
HIDDEN
100
AcDbCircle
 10
5.184232345390504
 20
26.14109806931528
 30
0.0
 40
0.1921549040999932
  0
CIRCLE
  5
917
330
1E
100
AcDbEntity
  8
OBJECT
100
AcDbCircle
 10
9.769232345390502
 20
26.14109806931529
 30
0.0
 40
0.0580933430999881
  0
CIRCLE
  5
918
330
1E
100
AcDbEntity
  8
OBJECT
100
AcDbCircle
 10
9.769232345390502
 20
26.14109806931529
 30
0.0
 40
0.1305858908999955
  0
CIRCLE
  5
919
330
1E
100
AcDbEntity
  8
HIDDEN
100
AcDbCircle
 10
9.769232345390502
 20
26.14109806931529
 30
0.0
 40
0.1921549040999932
  0
DIMENSION
  5
91A
330
1E
100
AcDbEntity
  8
DIM
100
AcDbDimension
  2
*D7
 10
19.1372442513038
 20
27.21190684795476
 30
0.0
 11
17.75560362630381
 21
27.21190684795476
 31
0.0
 70
    32
  1
<>
  3
23NSTD
100
AcDbAlignedDimension
 13
19.26236837490382
 23
26.63159806931529
 33
0.0
 14
19.1372442513038
 24
26.56377854012328
 34
0.0
100
AcDbRotatedDimension
1001
ACAD
1000
DSTYLE
1002
{
1070
    40
1040
2.25
1070
   141
1040
4.586925189199087
1002
}
  0
DIMENSION
  5
91B
330
1E
100
AcDbEntity
  8
DIM
100
AcDbDimension
  2
*D8
 10
15.66552657066808
 20
20.48059806931529
 30
0.0
 11
15.66552657066807
 21
23.55609806931529
 31
0.0
 70
    32
  3
23NSTD
100
AcDbAlignedDimension
 13
14.43013455489048
 23
26.63159806931529
 33
0.0
 14
14.43013455489048
 24
20.48059806931529
 34
0.0
 50
90.0
100
AcDbRotatedDimension
1001
ACAD
1000
DSTYLE
1002
{
1070
    40
1040
2.25
1070
   141
1040
4.586925189199087
1002
}
  0
LINE
  5
91C
330
1E
100
AcDbEntity
  8
OBJECT
100
AcDbLine
 10
14.06644783879051
 20
25.85331356271528
 30
0.0
 11
14.06644783879051
 21
21.25888257591529
 31
0.0
  0
LINE
  5
91D
330
1E
100
AcDbEntity
  8
OBJECT
100
AcDbLine
 10
14.0972323453905
 20
25.88409806931529
 30
0.0
 11
14.0972323453905
 21
21.22809806931527
 31
0.0
  0
LINE
  5
91E
330
1E
100
AcDbEntity
  8
HIDDEN
100
AcDbLine
 10
14.79011467239049
 20
20.8951958598153
 30
0.0
 11
14.79011467239049
 21
26.21700027881528
 31
0.0
  0
LINE
  5
91F
330
1E
100
AcDbEntity
  8
OBJECT
100
AcDbLine
 10
14.84473234539049
 20
20.8951958598153
 30
0.0
 11
14.84473234539051
 21
26.21700027881528
 31
0.0
  0
LINE
  5
920
330
1E
100
AcDbEntity
  8
HIDDEN
100
AcDbLine
 10
14.65605311139052
 20
20.8951958598153
 30
0.0
 11
14.65605311139052
 21
26.21700027881528
 31
0.0
  0
LINE
  5
921
330
1E
100
AcDbEntity
  8
HIDDEN
100
AcDbLine
 10
14.7186151731905
 20
20.8951958598153
 30
0.0
 11
14.71861517319052
 21
26.21700027881528
 31
0.0
  0
ARC
  5
922
330
1E
100
AcDbEntity
  8
HIDDEN
100
AcDbCircle
 10
14.43013455489049
 20
20.8951958598153
 30
0.0
 40
0.3599801175000042
100
AcDbArc
 50
270.0
 51
0.0
  0
ARC
  5
923
330
1E
100
AcDbEntity
  8
OBJECT
100
AcDbCircle
 10
14.43013455489049
 20
20.8951958598153
 30
0.0
 40
0.4145977905000099
100
AcDbArc
 50
270.0000000000004
 51
359.9999999999997
  0
ARC
  5
924
330
1E
100
AcDbEntity
  8
HIDDEN
100
AcDbCircle
 10
14.43013455489049
 20
20.8951958598153
 30
0.0
 40
0.2884806183000085
100
AcDbArc
 50
270.0
 51
0.0
  0
ARC
  5
938
330
1E
100
AcDbEntity
  8
HIDDEN
100
AcDbCircle
 10
14.43013455489049
 20
20.8951958598153
 30
0.0
 40
0.2259185565000097
100
AcDbArc
 50
270.0
 51
0.0
  0
ARC
  5
93C
330
1E
100
AcDbEntity
  8
HIDDEN
100
AcDbCircle
 10
14.43013455489049
 20
26.21700027881528
 30
0.0
 40
0.3599801175000042
100
AcDbArc
 50
0.0
 51
90.0
  0
ARC
  5
93D
330
1E
100
AcDbEntity
  8
OBJECT
100
AcDbCircle
 10
14.43013455489049
 20
26.21700027881528
 30
0.0
 40
0.4145977905000028
100
AcDbArc
 50
0.0
 51
89.99999999999939
  0
ARC
  5
93E
330
1E
100
AcDbEntity
  8
HIDDEN
100
AcDbCircle
 10
14.43013455489049
 20
26.21700027881528
 30
0.0
 40
0.2884806183000085
100
AcDbArc
 50
0.0
 51
90.0
  0
ARC
  5
942
330
1E
100
AcDbEntity
  8
HIDDEN
100
AcDbCircle
 10
14.43013455489049
 20
26.21700027881528
 30
0.0
 40
0.2259185565000097
100
AcDbArc
 50
0.0
 51
90.0
  0
LINE
  5
943
330
1E
100
AcDbEntity
  8
HIDDEN
100
AcDbLine
 10
19.21072984770382
 20
26.57698039631529
 30
0.0
 11
19.21072984770382
 21
20.53521574231529
 31
0.0
  0
LINE
  5
944
330
1E
100
AcDbEntity
  8
OBJECT
100
AcDbLine
 10
19.38749249850382
 20
26.50548089711528
 30
0.0
 11
19.38749249850382
 21
20.60671524151528
 31
0.0
  0
LINE
  5
945
330
1E
100
AcDbEntity
  8
OBJECT
100
AcDbLine
 10
19.1372442513038
 20
26.56377854012328
 30
0.0
 11
19.1372442513038
 21
20.5484175985073
 31
0.0
  0
LINE
  5
946
330
1E
100
AcDbEntity
  8
OBJECT
100
AcDbLine
 10
19.26236837490382
 20
26.63159806931529
 30
0.0
 11
19.26236837490382
 21
20.48059806931531
 31
0.0
  0
LINE
  5
947
330
1E
100
AcDbEntity
  8
HIDDEN
100
AcDbLine
 10
19.26236837490382
 20
21.1654370231168
 30
0.0
 11
19.38749249850382
 21
21.16325297341528
 31
0.0
  0
LINE
  5
948
330
1E
100
AcDbEntity
  8
OBJECT
100
AcDbLine
 10
19.38749249850382
 20
20.60671524151528
 30
0.0
 11
19.26236837490382
 21
20.60671524151528
 31
0.0
  0
LINE
  5
949
330
1E
100
AcDbEntity
  8
HIDDEN
100
AcDbLine
 10
19.38749249850382
 20
20.91300472621528
 30
0.0
 11
19.27428495810381
 21
20.90310034980463
 31
0.0
  0
LINE
  5
94A
330
1E
100
AcDbEntity
  8
HIDDEN
100
AcDbLine
 10
19.26236837490382
 20
20.70085690601376
 30
0.0
 11
19.38749249850382
 21
20.70304095571529
 31
0.0
  0
LINE
  5
94B
330
1E
100
AcDbEntity
  8
HIDDEN
100
AcDbLine
 10
19.38749249850382
 20
20.66927730331529
 30
0.0
 11
19.26236837490382
 21
20.66927730331529
 31
0.0
  0
LINE
  5
94C
330
1E
100
AcDbEntity
  8
HIDDEN
100
AcDbLine
 10
19.38749249850382
 20
21.02919141241528
 30
0.0
 11
19.27428495810381
 21
21.03909578882592
 31
0.0
  0
LINE
  5
94D
330
1E
100
AcDbEntity
  8
HIDDEN
100
AcDbLine
 10
19.13923034850382
 20
21.12626191306528
 30
0.0
 11
19.13923034850382
 21
20.81593422556529
 31
0.0
  0
LINE
  5
94E
330
1E
100
AcDbEntity
  8
HIDDEN
100
AcDbLine
 10
19.15321615343901
 20
21.11227610813009
 30
0.0
 11
19.15321615343901
 21
20.82992003050049
 31
0.0
  0
LINE
  5
94F
330
1E
100
AcDbEntity
  8
HIDDEN
100
AcDbLine
 10
19.27428495810381
 20
20.84051217841528
 30
0.0
 11
19.27428495810381
 21
21.10168396021529
 31
0.0
  0
ARC
  5
950
330
1E
100
AcDbEntity
  8
OBJECT
100
AcDbCircle
 10
19.19930978880381
 20
20.5484175985073
 30
0.0
 40
0.0620655375
100
AcDbArc
 50
180.0
 51
265.0
  0
LINE
  5
951
330
1E
100
AcDbEntity
  8
HIDDEN
100
AcDbLine
 10
19.15321615343901
 20
20.82992003050049
 30
0.0
 11
19.13923034850382
 21
20.81593422556529
 31
0.0
  0
LINE
  5
952
330
1E
100
AcDbEntity
  8
HIDDEN
100
AcDbLine
 10
19.1372442513038
 20
20.81593422556529
 30
0.0
 11
19.13923034850382
 21
20.81593422556529
 31
0.0
  0
LINE
  5
953
330
1E
100
AcDbEntity
  8
HIDDEN
100
AcDbLine
 10
19.26236837490382
 20
20.53521574231529
 30
0.0
 11
19.21072984770382
 21
20.53521574231529
 31
0.0
  0
LINE
  5
954
330
1E
100
AcDbEntity
  8
HIDDEN
100
AcDbLine
 10
19.26236837490382
 20
20.60671524151528
 30
0.0
 11
19.21072984770382
 21
20.60671524151528
 31
0.0
  0
LINE
  5
955
330
1E
100
AcDbEntity
  8
OBJECT
100
AcDbLine
 10
19.26236837490382
 20
20.48059806931529
 30
0.0
 11
19.19390042078396
 21
20.48658823911558
 31
0.0
  0
LINE
  5
956
330
1E
100
AcDbEntity
  8
HIDDEN
100
AcDbLine
 10
19.15321615343898
 20
20.82992003050049
 30
0.0
 11
19.27428495810381
 21
20.84051217841528
 31
0.0
  0
LINE
  5
957
330
1E
100
AcDbEntity
  8
HIDDEN
100
AcDbLine
 10
19.13923034850382
 20
21.12626191306528
 30
0.0
 11
19.15321615343901
 21
21.11227610813009
 31
0.0
  0
LINE
  5
958
330
1E
100
AcDbEntity
  8
HIDDEN
100
AcDbLine
 10
19.1372442513038
 20
21.12626191306528
 30
0.0
 11
19.13923034850382
 21
21.12626191306528
 31
0.0
  0
LINE
  5
959
330
1E
100
AcDbEntity
  8
HIDDEN
100
AcDbLine
 10
19.15321615343901
 20
21.11227610813009
 30
0.0
 11
19.27428495810381
 21
21.10168396021529
 31
0.0
  0
DIMENSION
  5
95A
330
1E
100
AcDbEntity
  8
DIM
100
AcDbDimension
  2
*D9
 10
19.38749249850382
 20
27.75214692709701
 30
0.0
 11
20.76913312350382
 21
27.75214692709701
 31
0.0
 70
    32
  3
23NSTD
100
AcDbAlignedDimension
 13
19.26236837490382
 23
26.63159806931529
 33
0.0
 14
19.38749249850382
 24
26.50548089711528
 34
0.0
100
AcDbRotatedDimension
1001
ACAD
1000
DSTYLE
1002
{
1070
    40
1040
2.25
1070
   141
1040
4.586925189199087
1002
}
  0
LINE
  5
95B
330
1E
100
AcDbEntity
  8
OBJECT
100
AcDbLine
 10
19.38749249850382
 20
26.50548089711528
 30
0.0
 11
19.26236837490382
 21
26.50548089711528
 31
0.0
  0
LINE
  5
95C
330
1E
100
AcDbEntity
  8
HIDDEN
100
AcDbLine
 10
19.38749249850382
 20
26.44291883531529
 30
0.0
 11
19.26236837490382
 21
26.44291883531529
 31
0.0
  0
LINE
  5
95D
330
1E
100
AcDbEntity
  8
HIDDEN
100
AcDbLine
 10
19.26236837490382
 20
26.41133923261681
 30
0.0
 11
19.38749249850382
 21
26.40915518291528
 31
0.0
  0
LINE
  5
95E
330
1E
100
AcDbEntity
  8
HIDDEN
100
AcDbLine
 10
19.38749249850382
 20
26.19919141241529
 30
0.0
 11
19.27428495810381
 21
26.20909578882594
 31
0.0
  0
LINE
  5
95F
330
1E
100
AcDbEntity
  8
HIDDEN
100
AcDbLine
 10
19.26236837490382
 20
25.94675911551378
 30
0.0
 11
19.38749249850382
 21
25.94894316521529
 31
0.0
  0
LINE
  5
960
330
1E
100
AcDbEntity
  8
HIDDEN
100
AcDbLine
 10
19.38749249850382
 20
26.0830047262153
 30
0.0
 11
19.27428495810381
 21
26.07310034980464
 31
0.0
  0
LINE
  5
961
330
1E
100
AcDbEntity
  8
HIDDEN
100
AcDbLine
 10
19.15321615343901
 20
25.99992003050048
 30
0.0
 11
19.15321615343901
 21
26.28227610813008
 31
0.0
  0
LINE
  5
962
330
1E
100
AcDbEntity
  8
HIDDEN
100
AcDbLine
 10
19.13923034850382
 20
25.98593422556529
 30
0.0
 11
19.13923034850382
 21
26.29626191306529
 31
0.0
  0
LINE
  5
963
330
1E
100
AcDbEntity
  8
HIDDEN
100
AcDbLine
 10
19.27428495810381
 20
26.27168396021529
 30
0.0
 11
19.27428495810381
 21
26.01051217841529
 31
0.0
  0
LINE
  5
964
330
1E
100
AcDbEntity
  8
HIDDEN
100
AcDbLine
 10
19.13923034850382
 20
25.98593422556529
 30
0.0
 11
19.15321615343901
 21
25.99992003050048
 31
0.0
  0
LINE
  5
965
330
1E
100
AcDbEntity
  8
HIDDEN
100
AcDbLine
 10
19.1372442513038
 20
25.98593422556529
 30
0.0
 11
19.13923034850382
 21
25.98593422556529
 31
0.0
  0
LINE
  5
966
330
1E
100
AcDbEntity
  8
HIDDEN
100
AcDbLine
 10
19.15321615343901
 20
25.99992003050048
 30
0.0
 11
19.27428495810381
 21
26.01051217841529
 31
0.0
  0
ARC
  5
967
330
1E
100
AcDbEntity
  8
OBJECT
100
AcDbCircle
 10
19.19930978880381
 20
26.56377854012328
 30
0.0
 40
0.0620655375
100
AcDbArc
 50
95.0
 51
180.0000000000002
  0
LINE
  5
968
330
1E
100
AcDbEntity
  8
HIDDEN
100
AcDbLine
 10
19.15321615343901
 20
26.28227610813008
 30
0.0
 11
19.13923034850382
 21
26.29626191306529
 31
0.0
  0
LINE
  5
969
330
1E
100
AcDbEntity
  8
HIDDEN
100
AcDbLine
 10
19.1372442513038
 20
26.29626191306529
 30
0.0
 11
19.13923034850382
 21
26.29626191306529
 31
0.0
  0
LINE
  5
96A
330
1E
100
AcDbEntity
  8
HIDDEN
100
AcDbLine
 10
19.26236837490382
 20
26.57698039631529
 30
0.0
 11
19.21072984770382
 21
26.57698039631529
 31
0.0
  0
LINE
  5
96B
330
1E
100
AcDbEntity
  8
HIDDEN
100
AcDbLine
 10
19.26236837490382
 20
26.50548089711528
 30
0.0
 11
19.21072984770382
 21
26.50548089711528
 31
0.0
  0
LINE
  5
96C
330
1E
100
AcDbEntity
  8
OBJECT
100
AcDbLine
 10
19.26236837490382
 20
26.63159806931529
 30
0.0
 11
19.19390042078396
 21
26.62560789951498
 31
0.0
  0
LINE
  5
96D
330
1E
100
AcDbEntity
  8
HIDDEN
100
AcDbLine
 10
19.15321615343898
 20
26.28227610813008
 30
0.0
 11
19.27428495810381
 21
26.27168396021529
 31
0.0
  0
DIMENSION
  5
A51
330
1E
100
AcDbEntity
  8
DIM
100
AcDbDimension
  2
*D10
 10
15.46730715619141
 20
19.49869427264201
 30
0.0
 11
9.767307156191403
 21
19.49869427264201
 31
0.0
 70
   160
  3
23NSTD
100
AcDbAlignedDimension
 13
4.067307156191413
 23
16.98328968146605
 33
0.0
 14
15.46730715619141
 24
16.98328968146606
 34
0.0
100
AcDbRotatedDimension
1001
ACAD
1000
DSTYLE
1002
{
1070
    40
1040
2.25
1070
   141
1040
4.586925189199087
1002
}
  0
DIMENSION
  5
A53
330
1E
100
AcDbEntity
  8
DIM
100
AcDbDimension
  2
*D11
 10
15.14230715619141
 20
9.972511444238023
 30
0.0
 11
9.771123897934119
 21
9.972511444238023
 31
0.0
 70
   160
  3
23NSTD
100
AcDbAlignedDimension
 13
4.392307156191412
 23
12.9002149586336
 33
0.0
 14
15.14230715619141
 24
12.9002149586336
 34
0.0
100
AcDbRotatedDimension
1001
ACAD
1000
DSTYLE
1002
{
1070
    40
1040
2.25
1070
   141
1040
4.586925189199087
1002
}
  0
DIMENSION
  5
A54
330
1E
100
AcDbEntity
  8
DIM
100
AcDbDimension
  2
*D12
 10
14.01730715619141
 20
10.61914988310855
 30
0.0
 11
12.07974507944141
 21
10.61914988310855
 31
0.0
 70
    32
  3
23NSTD
100
AcDbAlignedDimension
 13
10.1421830026914
 23
12.65024444545641
 33
0.0
 14
14.01730715619141
 24
12.65024444545641
 34
0.0
100
AcDbRotatedDimension
1001
ACAD
1000
DSTYLE
1002
{
1070
    40
1040
2.25
1070
   141
1040
4.586925189199087
1002
}
  0
LINE
  5
A56
330
1E
100
AcDbEntity
  8
OBJECT
100
AcDbLine
 10
14.34901680976953
 20
11.82471495863361
 30
0.0
 11
5.185597502613289
 21
11.8247149586336
 31
0.0
  0
LINE
  5
A57
330
1E
100
AcDbEntity
  8
OBJECT
100
AcDbLine
 10
14.34901680976953
 20
17.97571495863362
 30
0.0
 11
5.185597502613289
 21
17.97571495863361
 31
0.0
  0
LINE
  5
A59
330
1E
100
AcDbEntity
  8
OBJECT
100
AcDbLine
 10
14.34901680976953
 20
11.8999962281564
 30
0.0
 11
5.185597502613289
 21
11.8999962281564
 31
0.0
  0
LINE
  5
A5A
330
1E
100
AcDbEntity
  8
OBJECT
100
AcDbLine
 10
14.34901680976953
 20
17.90043368911081
 30
0.0
 11
5.185597502613289
 21
17.90043368911081
 31
0.0
  0
LINE
  5
A5B
330
1E
100
AcDbEntity
  8
OBJECT
100
AcDbLine
 10
14.34901680976953
 20
17.75009091233058
 30
0.0
 11
9.813426800957095
 21
17.75009091233058
 31
0.0
  0
LINE
  5
A5C
330
1E
100
AcDbEntity
  8
OBJECT
100
AcDbLine
 10
14.34901680976953
 20
12.05033900493662
 30
0.0
 11
9.813426800957122
 21
12.05033900493662
 31
0.0
  0
LINE
  5
A5D
330
1E
100
AcDbEntity
  8
BEND
 48
0.5
100
AcDbLine
 10
4.244293481401776
 20
4.546933626298057
 30
0.0
 11
4.886286550805471
 21
4.546933626298057
 31
0.0
  0
LINE
  5
A5F
330
1E
100
AcDbEntity
  8
HIDDEN
100
AcDbLine
 10
4.959052072486979
 20
4.657162020898057
 30
0.0
 11
14.57556223989582
 21
4.657162020898057
 31
0.0
  0
LINE
  5
A60
330
1E
100
AcDbEntity
  8
OBJECT
100
AcDbLine
 10
14.34901680976953
 20
12.02512035175641
 30
0.0
 11
5.185597502613289
 21
12.02512035175642
 31
0.0
  0
LINE
  5
A61
330
1E
100
AcDbEntity
  8
OBJECT
100
AcDbLine
 10
14.34901680976953
 20
17.77530956551081
 30
0.0
 11
5.185597502613289
 21
17.77530956551082
 31
0.0
  0
LINE
  5
A62
330
1E
100
AcDbEntity
  8
CENTER
100
AcDbLine
 10
3.967307156191404
 20
14.9002149586336
 30
0.0
 11
6.755455837844933
 21
14.9002149586336
 31
0.0
  0
DIMENSION
  5
A63
330
1E
100
AcDbEntity
  8
DIM
100
AcDbDimension
  2
*D13
 10
9.767307156191414
 20
18.72749867935255
 30
0.0
 11
7.474807156191415
 21
18.72749867935255
 31
0.0
 70
    32
  3
23NSTD
100
AcDbAlignedDimension
 13
5.182307156191415
 23
17.48521495863362
 33
0.0
 14
9.767307156191414
 24
17.4838498014108
 34
0.0
100
AcDbRotatedDimension
1001
ACAD
1000
DSTYLE
1002
{
1070
    40
1040
2.25
1070
   141
1040
4.586925189199087
1002
}
  0
DIMENSION
  5
A67
330
1E
100
AcDbEntity
  8
DIM
100
AcDbDimension
  2
*D14
 10
5.517307156191414
 20
10.61914988310854
 30
0.0
 11
7.454869232941415
 21
10.61914988310854
 31
0.0
 70
    32
  3
23NSTD
100
AcDbAlignedDimension
 13
9.392431309691415
 23
12.65024444545641
 33
0.0
 14
5.517307156191414
 24
12.65024444545641
 34
0.0
100
AcDbRotatedDimension
1001
ACAD
1000
DSTYLE
1002
{
1070
    40
1040
2.25
1070
   141
1040
4.586925189199087
1002
}
  0
DIMENSION
  5
A68
330
1E
100
AcDbEntity
  8
DIM
100
AcDbDimension
  2
*D15
 10
6.020190726079436
 20
4.907410268098051
 30
0.0
 11
7.576909476079435
 21
5.717410268098052
 31
0.0
 70
   160
  1
<> (TYP)
  3
23NSTD
100
AcDbAlignedDimension
 13
5.615518348294463
 23
4.657162020898057
 33
0.0
 14
5.61115024889141
 24
4.907410268098052
 34
0.0
 50
90.0
100
AcDbRotatedDimension
1001
ACAD
1000
DSTYLE
1002
{
1070
    40
1040
2.25
1070
   141
1040
4.586925189199087
1002
}
  0
LINE
  5
A69
330
1E
100
AcDbEntity
  8
OBJECT
100
AcDbLine
 10
9.721187511425702
 20
17.75009091233058
 30
0.0
 11
5.185597502613289
 21
17.75009091233058
 31
0.0
  0
LINE
  5
A6A
330
1E
100
AcDbEntity
  8
OBJECT
100
AcDbLine
 10
9.721187511425702
 20
12.05033900493662
 30
0.0
 11
5.185597502613289
 21
12.05033900493662
 31
0.0
  0
LINE
  5
A6B
330
1E
100
AcDbEntity
  8
OBJECT
100
AcDbLine
 10
4.693732345390483
 20
4.671064701298057
 30
0.0
 11
4.767307156191414
 21
7.54693344689806
 31
0.0
  0
LINE
  5
A6C
330
1E
100
AcDbEntity
  8
HIDDEN
100
AcDbLine
 10
4.872307156191414
 20
7.54693344689805
 30
0.0
 11
4.896988898252455
 21
4.71868594128184
 31
0.0
  0
ARC
  5
A70
330
1E
100
AcDbEntity
  8
BEND
 48
0.5
100
AcDbCircle
 10
4.243948830953101
 20
4.734180527363862
 30
0.0
 40
0.1872472182508434
100
AcDbArc
 50
199.3761672488896
 51
270.1054596562284
  0
LINE
  5
A71
330
1E
100
AcDbEntity
  8
BEND
  6
HIDDEN
 48
0.5
100
AcDbLine
 10
4.282043649968482
 20
4.546933626298062
 30
0.0
 11
4.292990592317114
 21
4.672057749898059
 31
0.0
  0
LINE
  5
A72
330
1E
100
AcDbEntity
  8
BEND
  6
HIDDEN
 48
0.5
100
AcDbLine
 10
4.491623720065714
 20
4.546933626298057
 30
0.0
 11
4.480676777717111
 21
4.672057749898057
 31
0.0
  0
LINE
  5
A73
330
1E
100
AcDbEntity
  8
HIDDEN
100
AcDbLine
 10
5.006537553991421
 20
4.657162020898057
 30
0.0
 11
5.027143312441413
 21
6.638484948782437
 31
0.0
  0
LINE
  5
A74
330
1E
100
AcDbEntity
  8
HIDDEN
100
AcDbLine
 10
5.358076758391433
 20
4.657162020898057
 30
0.0
 11
5.337470999941416
 21
6.638484948782437
 31
0.0
  0
ARC
  5
A75
330
1E
100
AcDbEntity
  8
HIDDEN
100
AcDbCircle
 10
4.959052072486979
 20
4.719227558398057
 30
0.0
 40
0.0620655375
100
AcDbArc
 50
180.4999999999999
 51
270.0
  0
ARC
  5
A76
330
1E
100
AcDbEntity
  8
OBJECT
100
AcDbCircle
 10
4.817863420390484
 20
4.671064701298057
 30
0.0
 40
0.124131075
100
AcDbArc
 50
180.0
 51
270.0
  0
LINE
  5
A78
330
1E
100
AcDbEntity
  8
HIDDEN
100
AcDbLine
 10
5.611150248891409
 20
4.907410268098052
 30
0.0
 11
5.615518348294461
 21
4.657162020898053
 31
0.0
  0
LINE
  5
A7A
330
1E
100
AcDbEntity
  8
HIDDEN
100
AcDbLine
 10
5.419095964088359
 20
4.657162020898049
 30
0.0
 11
5.423464063491415
 21
4.907410268098052
 31
0.0
  0
LINE
  5
A7B
330
1E
100
AcDbEntity
  8
HIDDEN
100
AcDbLine
 10
5.472123444891423
 20
4.907410268098052
 30
0.0
 11
5.474307328259602
 21
4.657162020898057
 31
0.0
  0
LINE
  5
A7C
330
1E
100
AcDbEntity
  8
HIDDEN
100
AcDbLine
 10
5.56249086749143
 20
4.907410268098052
 30
0.0
 11
5.560306984123247
 21
4.657162020898057
 31
0.0
  0
LINE
  5
A7D
330
1E
100
AcDbEntity
  8
HIDDEN
100
AcDbLine
 10
5.423464063491415
 20
4.907410268098052
 30
0.0
 11
5.611150248891409
 21
4.907410268098052
 31
0.0
  0
LINE
  5
A7E
330
1E
100
AcDbEntity
  8
HIDDEN
100
AcDbLine
 10
5.027143312441413
 20
7.419823226098051
 30
0.0
 11
5.337470999941416
 21
7.419823226098051
 31
0.0
  0
LINE
  5
A7F
330
1E
100
AcDbEntity
  8
HIDDEN
100
AcDbLine
 10
4.882169296163613
 20
6.416844140098054
 30
0.0
 11
5.024838248031095
 21
6.416844140098052
 31
0.0
  0
LINE
  5
A80
330
1E
100
AcDbEntity
  8
HIDDEN
100
AcDbLine
 10
5.027143312441413
 20
6.638484948782437
 30
0.0
 11
5.027143312441413
 21
7.419823226098055
 31
0.0
  0
LINE
  5
A81
330
1E
100
AcDbEntity
  8
HIDDEN
100
AcDbLine
 10
5.223123100755053
 20
6.919326731698069
 30
0.0
 11
5.227490867491418
 21
7.419823226098072
 31
0.0
  0
LINE
  5
A82
330
1E
100
AcDbEntity
  8
HIDDEN
100
AcDbLine
 10
5.141491211627801
 20
6.919326731698069
 30
0.0
 11
5.137123444891408
 21
7.419823226098072
 31
0.0
  0
LINE
  5
A83
330
1E
100
AcDbEntity
  8
HIDDEN
100
AcDbLine
 10
5.223123100755053
 20
6.919326731698069
 30
0.0
 11
5.141491211627801
 21
6.919326731698069
 31
0.0
  0
LINE
  5
A84
330
1E
100
AcDbEntity
  8
HIDDEN
100
AcDbLine
 10
5.337470999941416
 20
6.638484948782437
 30
0.0
 11
5.337470999941416
 21
7.419823226098055
 31
0.0
  0
DIMENSION
  5
A85
330
1E
100
AcDbEntity
  8
DIM
100
AcDbDimension
  2
*D16
 10
1.909954094604477
 20
12.31521495863362
 30
0.0
 11
1.909954094604475
 21
14.55708995863361
 31
0.0
 70
   160
  1
<>\P(3 PLACES)
  3
23NSTD
100
AcDbAlignedDimension
 13
5.182307156191415
 23
17.48521495863362
 33
0.0
 14
5.182307156191415
 24
12.31521495863361
 34
0.0
 50
90.0
100
AcDbRotatedDimension
1001
ACAD
1000
DSTYLE
1002
{
1070
    40
1040
2.25
1070
   141
1040
4.586925189199087
1002
}
  0
DIMENSION
  5
A86
330
1E
100
AcDbEntity
  8
DIM
100
AcDbDimension
  2
*D17
 10
3.225302254245124
 20
12.90021495863361
 30
0.0
 11
3.225302254245122
 21
15.24346472018835
 31
0.0
 70
   160
  3
23NSTD
100
AcDbAlignedDimension
 13
4.392307156191412
 23
16.9002149586336
 33
0.0
 14
4.392307156191412
 24
12.9002149586336
 34
0.0
 50
90.0
100
AcDbRotatedDimension
1001
ACAD
1000
DSTYLE
1002
{
1070
    40
1040
2.25
1070
   141
1040
4.586925189199087
1002
}
  0
LINE
  5
A87
330
1E
100
AcDbEntity
  8
OBJECT
100
AcDbLine
 10
4.693732345390483
 20
12.31658011585643
 30
0.0
 11
4.693732345390483
 21
17.48384980141081
 31
0.0
  0
LINE
  5
A88
330
1E
100
AcDbEntity
  8
BEND
100
AcDbLine
 10
4.067307156191413
 20
12.81714023580118
 30
0.0
 11
4.067307156191413
 21
16.98328968146605
 31
0.0
  0
LINE
  5
A89
330
1E
100
AcDbEntity
  8
OBJECT
100
AcDbLine
 10
4.769013614913289
 20
12.31658011585643
 30
0.0
 11
4.769013614913289
 21
17.48384980141081
 31
0.0
  0
LINE
  5
A8A
330
1E
100
AcDbEntity
  8
OBJECT
100
AcDbLine
 10
4.919356391693495
 20
12.31658011585643
 30
0.0
 11
4.919356391693495
 21
17.48384980141081
 31
0.0
  0
LINE
  5
A8B
330
1E
100
AcDbEntity
  8
OBJECT
100
AcDbLine
 10
4.894137738513292
 20
12.31658011585643
 30
0.0
 11
4.894137738513292
 21
17.48384980141081
 31
0.0
  0
DIMENSION
  5
A8C
330
1E
100
AcDbEntity
  8
DIM
100
AcDbDimension
  2
*D18
 10
14.66230715619141
 20
8.269844080814127
 30
0.0
 11
13.29824465619141
 21
8.269844080814127
 31
0.0
 70
    32
  3
23NSTD
100
AcDbAlignedDimension
 13
14.76730715619141
 23
7.54693344689806
 33
0.0
 14
14.66230715619141
 24
7.54693344689805
 34
0.0
 50
180.0
100
AcDbRotatedDimension
1001
ACAD
1000
DSTYLE
1002
{
1070
    40
1040
2.25
1070
   141
1040
4.586925189199087
1002
}
  0
ARC
  5
A8E
330
1E
100
AcDbEntity
  8
OBJECT
100
AcDbCircle
 10
5.185597502613289
 20
12.31658011585643
 30
0.0
 40
0.4918651572228089
100
AcDbArc
 50
180.0000000000002
 51
270.0
  0
ARC
  5
A93
330
1E
100
AcDbEntity
  8
OBJECT
100
AcDbCircle
 10
5.185597502613289
 20
12.31658011585643
 30
0.0
 40
0.4165838877000064
100
AcDbArc
 50
180.0000000000002
 51
270.0
  0
ARC
  5
AA5
330
1E
100
AcDbEntity
  8
OBJECT
100
AcDbCircle
 10
5.185597502613289
 20
17.48384980141081
 30
0.0
 40
0.4918651572228019
100
AcDbArc
 50
90.0
 51
180.0
  0
TEXT
  5
AA6
330
1E
100
AcDbEntity
  8
CENTER
100
AcDbText
 10
3.945126704892028
 20
14.7650311863923
 30
0.0
 40
0.125
  1
L
100
AcDbText
  0
TEXT
  5
AA7
330
1E
100
AcDbEntity
  8
CENTER
100
AcDbText
 10
3.898141865421759
 20
14.83019854782874
 30
0.0
 40
0.125
  1
C
100
AcDbText
  0
CIRCLE
  5
AAB
330
1E
100
AcDbEntity
  8
0
100
AcDbCircle
 10
5.182307156191412
 20
17.48521495863362
 30
0.0
 40
0.15516384375
  0
ARC
  5
AAC
330
1E
100
AcDbEntity
  8
OBJECT
100
AcDbCircle
 10
5.185597502613289
 20
17.48384980141081
 30
0.0
 40
0.4165838876999958
100
AcDbArc
 50
90.0
 51
180.0
  0
ARC
  5
AAE
330
1E
100
AcDbEntity
  8
OBJECT
100
AcDbCircle
 10
5.185597502613289
 20
17.48384980141081
 30
0.0
 40
0.2914597641000016
100
AcDbArc
 50
90.0
 51
180.0
  0
ARC
  5
AAF
330
1E
100
AcDbEntity
  8
OBJECT
100
AcDbCircle
 10
5.185597502613289
 20
17.48384980141081
 30
0.0
 40
0.2662411109197799
100
AcDbArc
 50
90.0
 51
125.7936155477257
  0
CIRCLE
  5
ABA
330
1E
100
AcDbEntity
  8
0
100
AcDbCircle
 10
5.182307156191412
 20
17.48521495863362
 30
0.0
 40
0.0451837113
  0
LINE
  5
ABD
330
1E
100
AcDbEntity
  8
HIDDEN
100
AcDbLine
 10
9.298588216991396
 20
4.907410268098052
 30
0.0
 11
9.486274402391419
 21
4.907410268098052
 31
0.0
  0
LINE
  5
ABE
330
1E
100
AcDbEntity
  8
HIDDEN
100
AcDbLine
 10
9.437615020991415
 20
4.907410268098052
 30
0.0
 11
9.435431137623233
 21
4.657162020898057
 31
0.0
  0
LINE
  5
AC0
330
1E
100
AcDbEntity
  8
HIDDEN
100
AcDbLine
 10
9.294220117588343
 20
4.657162020898049
 30
0.0
 11
9.298588216991396
 21
4.907410268098052
 31
0.0
  0
LINE
  5
AC1
330
1E
100
AcDbEntity
  8
HIDDEN
100
AcDbLine
 10
9.347247598391403
 20
4.907410268098052
 30
0.0
 11
9.349431481759587
 21
4.657162020898057
 31
0.0
  0
LINE
  5
AC2
330
1E
100
AcDbEntity
  8
HIDDEN
100
AcDbLine
 10
9.943076758391427
 20
4.657162020898062
 30
0.0
 11
9.922470999941436
 21
6.638484948782437
 31
0.0
  0
LINE
  5
AC3
330
1E
100
AcDbEntity
  8
HIDDEN
100
AcDbLine
 10
9.591537553991443
 20
4.657162020898057
 30
0.0
 11
9.612143312441409
 21
6.638484948782437
 31
0.0
  0
LINE
  5
AC4
330
1E
100
AcDbEntity
  8
HIDDEN
100
AcDbLine
 10
9.813426800957117
 20
4.657162020898057
 30
0.0
 11
9.798338743308683
 21
6.386082179906165
 31
0.0
  0
LINE
  5
AC5
330
1E
100
AcDbEntity
  8
HIDDEN
100
AcDbLine
 10
9.721187511425723
 20
4.657162020898057
 30
0.0
 11
9.736275569074159
 21
6.386082179906165
 31
0.0
  0
LINE
  5
AC6
330
1E
100
AcDbEntity
  8
HIDDEN
100
AcDbLine
 10
10.23602609539141
 20
4.907410268098052
 30
0.0
 11
10.04833990999142
 21
4.907410268098052
 31
0.0
  0
ARC
  5
AC7
330
1E
100
AcDbEntity
  8
HIDDEN
100
AcDbCircle
 10
9.767307156191408
 20
4.515900857548055
 30
0.0
 40
0.09309830625
100
AcDbArc
 50
19.47122063449157
 51
160.5287793655085
  0
ARC
  5
AC8
330
1E
100
AcDbEntity
  8
HIDDEN
100
AcDbCircle
 10
9.767307156191408
 20
4.533030945898057
 30
0.0
 40
0.1861966125
100
AcDbArc
 50
41.81031489577882
 51
138.189685104221
  0
LINE
  5
AC9
330
1E
100
AcDbEntity
  8
HIDDEN
100
AcDbLine
 10
9.486274402391419
 20
4.907410268098052
 30
0.0
 11
9.490642501794447
 21
4.657162020898053
 31
0.0
  0
LINE
  5
ACA
330
1E
100
AcDbEntity
  8
HIDDEN
100
AcDbLine
 10
10.09699929139139
 20
4.907410268098052
 30
0.0
 11
10.09918317475958
 21
4.657162020898057
 31
0.0
  0
LINE
  5
ACB
330
1E
100
AcDbEntity
  8
HIDDEN
100
AcDbLine
 10
10.04833990999142
 20
4.907410268098052
 30
0.0
 11
10.04397181058837
 21
4.657162020898053
 31
0.0
  0
LINE
  5
ACC
330
1E
100
AcDbEntity
  8
HIDDEN
100
AcDbLine
 10
10.18736671399141
 20
4.907410268098052
 30
0.0
 11
10.18518283062322
 21
4.657162020898057
 31
0.0
  0
LINE
  5
ACD
330
1E
100
AcDbEntity
  8
HIDDEN
100
AcDbLine
 10
10.24039419479445
 20
4.657162020898049
 30
0.0
 11
10.23602609539141
 21
4.907410268098052
 31
0.0
  0
ARC
  5
ACF
330
1E
100
AcDbEntity
  8
HIDDEN
100
AcDbCircle
 10
9.767307156191408
 20
6.385811371348057
 30
0.0
 40
0.03103276875
100
AcDbArc
 50
0.50000000000132
 51
179.4999999999985
  0
LINE
  5
AD0
330
1E
100
AcDbEntity
  8
HIDDEN
100
AcDbLine
 10
9.612143312441409
 20
7.419823226098055
 30
0.0
 11
9.922470999941406
 21
7.419823226098055
 31
0.0
  0
LINE
  5
AD1
330
1E
100
AcDbEntity
  8
HIDDEN
100
AcDbLine
 10
9.726491211627767
 20
6.919326731698048
 30
0.0
 11
9.808123100755047
 21
6.919326731698048
 31
0.0
  0
LINE
  5
AD2
330
1E
100
AcDbEntity
  8
HIDDEN
100
AcDbLine
 10
9.612143312441435
 20
6.638484948782437
 30
0.0
 11
9.612143312441435
 21
7.419823226098055
 31
0.0
  0
LINE
  5
AD3
330
1E
100
AcDbEntity
  8
HIDDEN
100
AcDbLine
 10
9.726491211627767
 20
6.919326731698048
 30
0.0
 11
9.7221234448914
 21
7.419823226098055
 31
0.0
  0
LINE
  5
AD4
330
1E
100
AcDbEntity
  8
HIDDEN
100
AcDbLine
 10
9.922470999941406
 20
6.638484948782437
 30
0.0
 11
9.922470999941406
 21
7.419823226098055
 31
0.0
  0
LINE
  5
AD5
330
1E
100
AcDbEntity
  8
HIDDEN
100
AcDbLine
 10
9.808123100755047
 20
6.919326731698048
 30
0.0
 11
9.812490867491412
 21
7.419823226098055
 31
0.0
  0
DIMENSION
  5
AD6
330
1E
100
AcDbEntity
  8
DIM
100
AcDbDimension
  2
*D19
 10
10.1421830026914
 20
11.25273219884314
 30
0.0
 11
11.5414017526914
 21
11.25273219884314
 31
0.0
 70
   160
  3
23NSTD
100
AcDbAlignedDimension
 13
9.392431309691415
 23
12.65024444545641
 33
0.0
 14
10.1421830026914
 24
12.65024444545641
 34
0.0
100
AcDbRotatedDimension
1001
ACAD
1000
DSTYLE
1002
{
1070
    40
1040
2.25
1070
   141
1040
4.586925189199087
1002
}
  0
LINE
  5
ADB
330
1E
100
AcDbEntity
  8
CENTER
100
AcDbLine
 10
9.767307156191414
 20
18.07571495863362
 30
0.0
 11
9.767307156191414
 21
11.7247149586336
 31
0.0
  0
LINE
  5
ADE
330
1E
100
AcDbEntity
  8
OBJECT
100
AcDbLine
 10
9.813426800957122
 20
12.05033900493662
 30
0.0
 11
9.813426800957122
 21
12.14560384041239
 31
0.0
  0
LINE
  5
ADF
330
1E
100
AcDbEntity
  8
OBJECT
100
AcDbLine
 10
9.721187511425702
 20
12.05033900493662
 30
0.0
 11
9.721187511425702
 21
12.14560384041239
 31
0.0
  0
LINE
  5
AE0
330
1E
100
AcDbEntity
  8
OBJECT
100
AcDbLine
 10
9.798339924941416
 20
12.16083418165389
 30
0.0
 11
9.798339924941416
 21
12.0349824917286
 31
0.0
  0
LINE
  5
AE1
330
1E
100
AcDbEntity
  8
OBJECT
100
AcDbLine
 10
9.736274387441415
 20
12.16083418165389
 30
0.0
 11
9.736274387441415
 21
12.0349824917286
 31
0.0
  0
LINE
  5
AE2
330
1E
100
AcDbEntity
  8
OBJECT
100
AcDbLine
 10
9.813426800957122
 20
12.05033900493662
 30
0.0
 11
9.798339924941416
 21
12.0349824917286
 31
0.0
  0
LINE
  5
AE3
330
1E
100
AcDbEntity
  8
OBJECT
100
AcDbLine
 10
9.736274387441415
 20
12.0349824917286
 30
0.0
 11
9.721187511425702
 21
12.05033900493662
 31
0.0
  0
LINE
  5
AE4
330
1E
100
AcDbEntity
  8
OBJECT
100
AcDbLine
 10
9.798339924941416
 20
12.0349824917286
 30
0.0
 11
9.736274387441415
 21
12.0349824917286
 31
0.0
  0
LINE
  5
AE5
330
1E
100
AcDbEntity
  8
OBJECT
100
AcDbLine
 10
9.798339924941416
 20
12.16083418165371
 30
0.0
 11
9.813426800957122
 21
12.14560384041245
 31
0.0
  0
ARC
  5
AE6
330
1E
100
AcDbEntity
  8
OBJECT
100
AcDbCircle
 10
9.767307156191414
 20
12.31521495863361
 30
0.0
 40
0.1757696022000066
100
AcDbArc
 50
285.2117408675198
 51
254.7882591324789
  0
CIRCLE
  5
AE7
330
1E
100
AcDbEntity
  8
OBJECT
100
AcDbCircle
 10
9.767307156191414
 20
12.31521495863361
 30
0.0
 40
0.15516384375
  0
CIRCLE
  5
AE8
330
1E
100
AcDbEntity
  8
OBJECT
100
AcDbCircle
 10
9.767307156191414
 20
12.31521495863361
 30
0.0
 40
0.0451837113
  0
LINE
  5
AE9
330
1E
100
AcDbEntity
  8
OBJECT
100
AcDbLine
 10
9.736274387441415
 20
12.16083418165372
 30
0.0
 11
9.721187511425702
 21
12.14560384041245
 31
0.0
  0
ARC
  5
AEA
330
1E
100
AcDbEntity
  8
OBJECT
100
AcDbCircle
 10
9.767307156191414
 20
12.31521495863361
 30
0.0
 40
0.1574689081603366
100
AcDbArc
 50
258.634189635021
 51
281.3658103649775
  0
CIRCLE
  5
AEB
330
1E
100
AcDbEntity
  8
HIDDEN
100
AcDbCircle
 10
9.767307156191408
 20
14.9002149586336
 30
0.0
 40
0.0877739248884837
  0
CIRCLE
  5
AEC
330
1E
100
AcDbEntity
  8
OBJECT
100
AcDbCircle
 10
9.767307156191408
 20
14.9002149586336
 30
0.0
 40
0.1387827609100753
  0
LINE
  5
AEF
330
1E
100
AcDbEntity
  8
OBJECT
100
AcDbLine
 10
9.798339924941416
 20
17.63823057839069
 30
0.0
 11
9.813426800957122
 21
17.65346091963196
 31
0.0
  0
LINE
  5
AF0
330
1E
100
AcDbEntity
  8
OBJECT
100
AcDbLine
 10
9.813426800957095
 20
17.75009091233057
 30
0.0
 11
9.798339924941416
 21
17.76544742553861
 31
0.0
  0
CIRCLE
  5
AF1
330
1E
100
AcDbEntity
  8
OBJECT
100
AcDbCircle
 10
9.767307156191414
 20
17.4838498014108
 30
0.0
 40
0.0451837113
  0
CIRCLE
  5
AF2
330
1E
100
AcDbEntity
  8
OBJECT
100
AcDbCircle
 10
9.767307156191414
 20
17.4838498014108
 30
0.0
 40
0.15516384375
  0
ARC
  5
AF3
330
1E
100
AcDbEntity
  8
OBJECT
100
AcDbCircle
 10
9.767307156191414
 20
17.4838498014108
 30
0.0
 40
0.1757696022000066
100
AcDbArc
 50
105.211740867521
 51
74.78825913248027
  0
TEXT
  5
AF4
330
1E
100
AcDbEntity
  8
CENTER
100
AcDbText
 10
9.722658371507332
 20
18.07507301744428
 30
0.0
 40
0.125
  1
C
100
AcDbText
  0
TEXT
  5
AF5
330
1E
100
AcDbEntity
  8
CENTER
100
AcDbText
 10
9.7696432109776
 20
18.00990565600785
 30
0.0
 40
0.125
  1
L
100
AcDbText
  0
LINE
  5
AF6
330
1E
100
AcDbEntity
  8
OBJECT
100
AcDbLine
 10
9.798339924941416
 20
17.63823057839052
 30
0.0
 11
9.798339924941416
 21
17.76544742553861
 31
0.0
  0
LINE
  5
AF7
330
1E
100
AcDbEntity
  8
OBJECT
100
AcDbLine
 10
9.736274387441415
 20
17.63823057839052
 30
0.0
 11
9.736274387441415
 21
17.76544742553861
 31
0.0
  0
LINE
  5
AF8
330
1E
100
AcDbEntity
  8
OBJECT
100
AcDbLine
 10
9.721187511425702
 20
17.75009091233057
 30
0.0
 11
9.721187511425702
 21
17.65346091963202
 31
0.0
  0
LINE
  5
AF9
330
1E
100
AcDbEntity
  8
OBJECT
100
AcDbLine
 10
9.736274387441415
 20
17.63823057839069
 30
0.0
 11
9.721187511425702
 21
17.65346091963196
 31
0.0
  0
LINE
  5
AFA
330
1E
100
AcDbEntity
  8
OBJECT
100
AcDbLine
 10
9.736274387441415
 20
17.76544742553861
 30
0.0
 11
9.721187511425702
 21
17.75009091233057
 31
0.0
  0
LINE
  5
AFB
330
1E
100
AcDbEntity
  8
OBJECT
100
AcDbLine
 10
9.798339924941416
 20
17.76544742553861
 30
0.0
 11
9.736274387441415
 21
17.76544742553861
 31
0.0
  0
ARC
  5
AFC
330
1E
100
AcDbEntity
  8
OBJECT
100
AcDbCircle
 10
9.767307156191414
 20
17.4838498014108
 30
0.0
 40
0.1574689081603366
100
AcDbArc
 50
78.63418963502262
 51
101.3658103649789
  0
LINE
  5
AFD
330
1E
100
AcDbEntity
  8
OBJECT
100
AcDbLine
 10
9.813426800957095
 20
17.75009091233057
 30
0.0
 11
9.813426800957122
 21
17.65346091963202
 31
0.0
  0
DIMENSION
  5
AFE
330
1E
100
AcDbEntity
  8
DIM
100
AcDbDimension
  2
*D20
 10
21.26188687189551
 20
18.6584474346419
 30
0.0
 11
19.76188696159551
 21
18.6584474346419
 31
0.0
 70
    32
  3
23NSTD
100
AcDbAlignedDimension
 13
18.26188705129551
 23
17.9004336891108
 33
0.0
 14
21.26188687189551
 24
17.85158388363361
 34
0.0
100
AcDbRotatedDimension
1001
ACAD
1000
DSTYLE
1002
{
1070
    40
1040
2.25
1070
   141
1040
4.586925189199087
1002
}
  0
LINE
  5
AFF
330
1E
100
AcDbEntity
  8
OBJECT
100
AcDbLine
 10
21.13676274829551
 20
17.97571495863362
 30
0.0
 11
18.26188705129551
 21
17.90043368911081
 31
0.0
  0
LINE
  5
B00
330
1E
100
AcDbEntity
  8
OBJECT
100
AcDbLine
 10
21.13676274829551
 20
11.8247149586336
 30
0.0
 11
18.26188705129551
 21
11.89999622815641
 31
0.0
  0
LINE
  5
B01
330
1E
100
AcDbEntity
  8
HIDDEN
100
AcDbLine
 10
21.15165847729549
 20
12.14081051365641
 30
0.0
 11
19.17033554941112
 21
12.16141627210642
 31
0.0
  0
LINE
  5
B02
330
1E
100
AcDbEntity
  8
HIDDEN
100
AcDbLine
 10
21.15165847729549
 20
12.49234971805641
 30
0.0
 11
19.17033554941112
 21
12.47174395960642
 31
0.0
  0
LINE
  5
B03
330
1E
100
AcDbEntity
  8
HIDDEN
100
AcDbLine
 10
21.15165847729549
 20
17.65961940361084
 30
0.0
 11
19.17033554941112
 21
17.63901364516082
 31
0.0
  0
LINE
  5
B04
330
1E
100
AcDbEntity
  8
HIDDEN
100
AcDbLine
 10
21.15165847729549
 20
17.30808019921083
 30
0.0
 11
19.17033554941112
 21
17.32868595766082
 31
0.0
  0
LINE
  5
B05
330
1E
100
AcDbEntity
  8
HIDDEN
100
AcDbLine
 10
18.26188705129551
 20
12.02512035175641
 30
0.0
 11
21.09013455691171
 21
12.04980209381747
 31
0.0
  0
LINE
  5
B06
330
1E
100
AcDbEntity
  8
HIDDEN
100
AcDbLine
 10
18.26188705129551
 20
17.77530956551082
 30
0.0
 11
21.09013455691174
 21
17.75062782344976
 31
0.0
  0
LINE
  5
B07
330
1E
100
AcDbEntity
  8
OBJECT
100
AcDbLine
 10
14.8447323453905
 20
4.671064701298057
 30
0.0
 11
14.76730715619141
 21
7.54693344689806
 31
0.0
  0
LINE
  5
B08
330
1E
100
AcDbEntity
  8
HIDDEN
100
AcDbLine
 10
14.66230715619141
 20
7.54693344689805
 30
0.0
 11
14.63762541413033
 21
4.71868594128184
 31
0.0
  0
LINE
  5
B09
330
1E
100
AcDbEntity
  8
HIDDEN
100
AcDbLine
 10
14.50747099994141
 20
7.419823226098051
 30
0.0
 11
14.19714331244141
 21
7.419823226098051
 31
0.0
  0
LINE
  5
B0A
330
1E
100
AcDbEntity
  8
HIDDEN
100
AcDbLine
 10
14.31149121162779
 20
6.919326731698048
 30
0.0
 11
14.39312310075504
 21
6.919326731698048
 31
0.0
  0
LINE
  5
B0B
330
1E
100
AcDbEntity
  8
HIDDEN
100
AcDbLine
 10
14.17653755399141
 20
4.657162020898057
 30
0.0
 11
14.19714331244144
 21
6.638484948782437
 31
0.0
  0
LINE
  5
B0C
330
1E
100
AcDbEntity
  8
HIDDEN
100
AcDbLine
 10
14.11115024889141
 20
4.907410268098052
 30
0.0
 11
13.92346406349141
 21
4.907410268098052
 31
0.0
  0
LINE
  5
B0D
330
1E
100
AcDbEntity
  8
HIDDEN
100
AcDbLine
 10
13.92346406349141
 20
4.907410268098052
 30
0.0
 11
13.91909596408835
 21
4.657162020898053
 31
0.0
  0
LINE
  5
B0E
330
1E
100
AcDbEntity
  8
HIDDEN
100
AcDbLine
 10
13.97212344489141
 20
4.907410268098052
 30
0.0
 11
13.97430732825959
 21
4.657162020898057
 31
0.0
  0
LINE
  5
B0F
330
1E
100
AcDbEntity
  8
HIDDEN
100
AcDbLine
 10
14.11551834829446
 20
4.657162020898049
 30
0.0
 11
14.11115024889141
 21
4.907410268098052
 31
0.0
  0
LINE
  5
B11
330
1E
100
AcDbEntity
  8
HIDDEN
100
AcDbLine
 10
14.06249086749142
 20
4.907410268098052
 30
0.0
 11
14.06030698412324
 21
4.657162020898057
 31
0.0
  0
LINE
  5
B12
330
1E
100
AcDbEntity
  8
HIDDEN
100
AcDbLine
 10
14.19714331244144
 20
6.638484948782437
 30
0.0
 11
14.19714331244144
 21
7.419823226098055
 31
0.0
  0
LINE
  5
B13
330
1E
100
AcDbEntity
  8
HIDDEN
100
AcDbLine
 10
14.31149121162779
 20
6.919326731698048
 30
0.0
 11
14.30712344489142
 21
7.419823226098055
 31
0.0
  0
LINE
  5
B14
330
1E
100
AcDbEntity
  8
HIDDEN
100
AcDbLine
 10
14.52807675839143
 20
4.657162020898057
 30
0.0
 11
14.50747099994144
 21
6.638484948782437
 31
0.0
  0
ARC
  5
B17
330
1E
100
AcDbEntity
  8
HIDDEN
100
AcDbCircle
 10
14.57556223989582
 20
4.719227558398057
 30
0.0
 40
0.0620655375
100
AcDbArc
 50
270.0
 51
359.4999999999998
  0
ARC
  5
B18
330
1E
100
AcDbEntity
  8
OBJECT
100
AcDbCircle
 10
14.72060127039051
 20
4.671064701298057
 30
0.0
 40
0.124131075
100
AcDbArc
 50
270.0
 51
0.0
  0
LINE
  5
B19
330
1E
100
AcDbEntity
  8
0
 62
    14
100
AcDbLine
 10
14.9200745229142
 20
4.672057749898057
 30
0.0
 11
14.9200745229142
 21
4.671064701298057
 31
0.0
  0
LINE
  5
B1A
330
1E
100
AcDbEntity
  8
BEND
  6
HIDDEN
 48
0.5
100
AcDbLine
 10
15.03204364996849
 20
4.546933626298025
 30
0.0
 11
15.04299059231709
 21
4.672057749898023
 31
0.0
  0
ARC
  5
B1B
330
1E
100
AcDbEntity
  8
BEND
 48
0.5
100
AcDbCircle
 10
15.29025557656172
 20
4.734760298231961
 30
0.0
 40
0.187826705813986
100
AcDbArc
 50
269.9655863141273
 51
340.4984772293774
  0
LINE
  5
B1C
330
1E
100
AcDbEntity
  8
BEND
  6
HIDDEN
 48
0.5
100
AcDbLine
 10
15.24162372006573
 20
4.546933626298025
 30
0.0
 11
15.2306767777171
 21
4.672057749898028
 31
0.0
  0
LINE
  5
B1D
330
1E
100
AcDbEntity
  8
HIDDEN
100
AcDbLine
 10
14.50747099994144
 20
6.638484948782437
 30
0.0
 11
14.50747099994144
 21
7.419823226098055
 31
0.0
  0
LINE
  5
B1E
330
1E
100
AcDbEntity
  8
HIDDEN
100
AcDbLine
 10
14.39312310075504
 20
6.919326731698048
 30
0.0
 11
14.39749086749142
 21
7.419823226098055
 31
0.0
  0
LINE
  5
B1F
330
1E
100
AcDbEntity
  8
HIDDEN
100
AcDbLine
 10
14.65244501621921
 20
6.416844140098054
 30
0.0
 11
14.50977606435174
 21
6.416844140098054
 31
0.0
  0
DIMENSION
  5
B20
330
1E
100
AcDbEntity
  8
DIM
100
AcDbDimension
  2
*D21
 10
13.10787014460168
 20
12.65024444545641
 30
0.0
 11
13.10787014460168
 21
14.90021495863362
 31
0.0
 70
    32
  3
23NSTD
100
AcDbAlignedDimension
 13
14.01730715619141
 23
17.15018547181083
 33
0.0
 14
14.01730715619141
 24
12.65024444545641
 34
0.0
 50
90.0
100
AcDbRotatedDimension
1001
ACAD
1000
DSTYLE
1002
{
1070
    40
1040
2.25
1070
   141
1040
4.586925189199087
1002
}
  0
DIMENSION
  5
B54
330
1E
100
AcDbEntity
  8
DIM
100
AcDbDimension
  2
*D22
 10
17.55865428895416
 20
11.89999622815644
 30
0.0
 11
17.55865428895416
 21
14.90021495863362
 31
0.0
 70
    32
  3
23NSTD
100
AcDbAlignedDimension
 13
18.26188705129551
 23
17.9004336891108
 33
0.0
 14
18.26188705129551
 24
11.89999622815644
 34
0.0
 50
90.0
100
AcDbRotatedDimension
1001
ACAD
1000
DSTYLE
1002
{
1070
    40
1040
2.25
1070
   141
1040
4.586925189199087
1002
}
  0
LINE
  5
B55
330
1E
100
AcDbEntity
  8
OBJECT
100
AcDbLine
 10
18.26188705129551
 20
17.9004336891108
 30
0.0
 11
18.26188705129551
 21
11.89999622815644
 31
0.0
  0
LINE
  5
B56
330
1E
100
AcDbEntity
  8
HIDDEN
100
AcDbLine
 10
19.17033554941112
 20
12.47174395960642
 30
0.0
 11
18.38899727209551
 21
12.47174395960642
 31
0.0
  0
LINE
  5
B57
330
1E
100
AcDbEntity
  8
HIDDEN
100
AcDbLine
 10
19.17033554941112
 20
12.16141627210642
 30
0.0
 11
18.38899727209551
 21
12.16141627210642
 31
0.0
  0
LINE
  5
B58
330
1E
100
AcDbEntity
  8
HIDDEN
100
AcDbLine
 10
18.88949376649551
 20
12.35739606042005
 30
0.0
 11
18.38899727209551
 21
12.36176382715641
 31
0.0
  0
LINE
  5
B59
330
1E
100
AcDbEntity
  8
HIDDEN
100
AcDbLine
 10
18.88949376649551
 20
12.27576417129278
 30
0.0
 11
18.38899727209551
 21
12.27139640455641
 31
0.0
  0
LINE
  5
B5A
330
1E
100
AcDbEntity
  8
HIDDEN
100
AcDbLine
 10
18.38899727209551
 20
12.16141627210642
 30
0.0
 11
18.38899727209551
 21
12.47174395960642
 31
0.0
  0
LINE
  5
B5B
330
1E
100
AcDbEntity
  8
HIDDEN
100
AcDbLine
 10
19.39197635809551
 20
12.15911120769608
 30
0.0
 11
19.39197635809551
 21
12.0349824917286
 31
0.0
  0
LINE
  5
B5C
330
1E
100
AcDbEntity
  8
HIDDEN
100
AcDbLine
 10
18.88949376649551
 20
12.27576417129278
 30
0.0
 11
18.88949376649551
 21
12.35739606042005
 31
0.0
  0
LINE
  5
B5D
330
1E
100
AcDbEntity
  8
HIDDEN
100
AcDbLine
 10
19.17033554941112
 20
17.32868595766082
 30
0.0
 11
18.38899727209551
 21
17.32868595766082
 31
0.0
  0
LINE
  5
B5E
330
1E
100
AcDbEntity
  8
HIDDEN
100
AcDbLine
 10
19.17033554941112
 20
17.63901364516081
 30
0.0
 11
18.38899727209551
 21
17.63901364516081
 31
0.0
  0
LINE
  5
B5F
330
1E
100
AcDbEntity
  8
HIDDEN
100
AcDbLine
 10
18.88949376649551
 20
17.52466574597445
 30
0.0
 11
18.38899727209551
 21
17.52903351271081
 31
0.0
  0
LINE
  5
B60
330
1E
100
AcDbEntity
  8
HIDDEN
100
AcDbLine
 10
18.88949376649551
 20
17.44303385684718
 30
0.0
 11
18.38899727209551
 21
17.43866609011081
 31
0.0
  0
LINE
  5
B61
330
1E
100
AcDbEntity
  8
HIDDEN
100
AcDbLine
 10
18.38899727209551
 20
17.63901364516081
 30
0.0
 11
18.38899727209551
 21
17.32868595766082
 31
0.0
  0
LINE
  5
B62
330
1E
100
AcDbEntity
  8
HIDDEN
100
AcDbLine
 10
18.88949376649551
 20
17.52466574597445
 30
0.0
 11
18.88949376649551
 21
17.44303385684718
 31
0.0
  0
LINE
  5
B63
330
1E
100
AcDbEntity
  8
HIDDEN
100
AcDbLine
 10
19.39197635809551
 20
17.76544742553862
 30
0.0
 11
19.39197635809551
 21
17.64131870957115
 31
0.0
  0
DIMENSION
  5
B64
330
1E
100
AcDbEntity
  8
DIM
100
AcDbDimension
  2
*D23
 10
21.95500563104676
 20
11.8247149586336
 30
0.0
 11
21.95500563104676
 21
14.90021495863361
 31
0.0
 70
    32
  3
23NSTD
100
AcDbAlignedDimension
 13
21.13676274829551
 23
17.97571495863362
 33
0.0
 14
21.13676274829551
 24
11.8247149586336
 34
0.0
 50
90.0
100
AcDbRotatedDimension
1001
ACAD
1000
DSTYLE
1002
{
1070
    40
1040
2.25
1070
   141
1040
4.586925189199087
1002
}
  0
LINE
  5
B65
330
1E
100
AcDbEntity
  8
OBJECT
100
AcDbLine
 10
21.26188687189551
 20
17.85158388363361
 30
0.0
 11
21.26188687189548
 21
11.9488460336336
 31
0.0
  0
LINE
  5
B66
330
1E
100
AcDbEntity
  8
OBJECT
100
AcDbLine
 10
21.13676274829551
 20
17.97571495863361
 30
0.0
 11
21.13676274829551
 21
11.8247149586336
 31
0.0
  0
LINE
  5
B67
330
1E
100
AcDbEntity
  8
HIDDEN
100
AcDbLine
 10
21.15165847729549
 20
17.68856464921525
 30
0.0
 11
21.15165847729549
 21
12.11186526805198
 31
0.0
  0
ARC
  5
B68
330
1E
100
AcDbEntity
  8
OBJECT
100
AcDbCircle
 10
21.13775579689548
 20
11.9488460336336
 30
0.0
 40
0.124131075
100
AcDbArc
 50
270.0
 51
359.9999999999998
  0
LINE
  5
B69
330
1E
100
AcDbEntity
  8
0
 62
    14
100
AcDbLine
 10
21.13676274829551
 20
11.8247149586336
 30
0.0
 11
21.13775579689548
 21
11.8247149586336
 31
0.0
  0
ARC
  5
B6A
330
1E
100
AcDbEntity
  8
HIDDEN
100
AcDbCircle
 10
21.0895929397955
 20
12.11186526805198
 30
0.0
 40
0.0620655375
100
AcDbArc
 50
270.4999999999999
 51
359.9999999999998
  0
LINE
  5
B6B
330
1E
100
AcDbEntity
  8
HIDDEN
100
AcDbLine
 10
21.15165847729549
 20
12.74845563755946
 30
0.0
 11
20.90141023009548
 21
12.74408753815641
 31
0.0
  0
LINE
  5
B6D
330
1E
100
AcDbEntity
  8
HIDDEN
100
AcDbLine
 10
20.90141023009548
 20
12.55640135275641
 30
0.0
 11
21.15165847729549
 21
12.55203325335336
 31
0.0
  0
LINE
  5
B6E
330
1E
100
AcDbEntity
  8
HIDDEN
100
AcDbLine
 10
20.90141023009548
 20
12.69542815675641
 30
0.0
 11
21.15165847729549
 21
12.69324427338823
 31
0.0
  0
LINE
  5
B6F
330
1E
100
AcDbEntity
  8
HIDDEN
100
AcDbLine
 10
20.90141023009548
 20
12.60506073415641
 30
0.0
 11
21.15165847729549
 21
12.60724461752459
 31
0.0
  0
LINE
  5
B70
330
1E
100
AcDbEntity
  8
HIDDEN
100
AcDbLine
 10
20.90141023009548
 20
12.74408753815641
 30
0.0
 11
20.90141023009548
 21
12.55640135275641
 31
0.0
  0
LINE
  5
B71
330
1E
100
AcDbEntity
  8
HIDDEN
100
AcDbLine
 10
21.26188687189551
 20
12.60801647220779
 30
0.0
 11
21.13676274829551
 21
12.61896341455641
 31
0.0
  0
LINE
  5
B72
330
1E
100
AcDbEntity
  8
HIDDEN
100
AcDbLine
 10
21.26188687189548
 20
12.81759654230502
 30
0.0
 11
21.13676274829551
 21
12.80664959995641
 31
0.0
  0
ARC
  5
B73
330
1E
100
AcDbEntity
  8
HIDDEN
100
AcDbCircle
 10
21.29291964064551
 20
14.90021495863361
 30
0.0
 40
0.09309830625
100
AcDbArc
 50
109.4712206344914
 51
250.5287793655085
  0
ARC
  5
B74
330
1E
100
AcDbEntity
  8
HIDDEN
100
AcDbCircle
 10
21.27578955229548
 20
14.90021495863363
 30
0.0
 40
0.1861966125
100
AcDbArc
 50
131.8103148957787
 51
228.189685104221
  0
LINE
  5
B75
330
1E
100
AcDbEntity
  8
HIDDEN
100
AcDbLine
 10
20.90141023009548
 20
17.24402856451082
 30
0.0
 11
21.15165847729549
 21
17.24839666391386
 31
0.0
  0
LINE
  5
B77
330
1E
100
AcDbEntity
  8
HIDDEN
100
AcDbLine
 10
21.15165847729549
 20
17.05197427970778
 30
0.0
 11
20.90141023009548
 21
17.05634237911081
 31
0.0
  0
LINE
  5
B78
330
1E
100
AcDbEntity
  8
HIDDEN
100
AcDbLine
 10
20.90141023009548
 20
17.19536918311083
 30
0.0
 11
21.15165847729549
 21
17.19318529974265
 31
0.0
  0
LINE
  5
B79
330
1E
100
AcDbEntity
  8
HIDDEN
100
AcDbLine
 10
20.90141023009548
 20
17.10500176051082
 30
0.0
 11
21.15165847729549
 21
17.107185643879
 31
0.0
  0
LINE
  5
B7A
330
1E
100
AcDbEntity
  8
HIDDEN
100
AcDbLine
 10
20.90141023009548
 20
17.05634237911081
 30
0.0
 11
20.90141023009548
 21
17.24402856451082
 31
0.0
  0
LINE
  5
B7B
330
1E
100
AcDbEntity
  8
HIDDEN
100
AcDbLine
 10
21.26188687189548
 20
16.98283337496221
 30
0.0
 11
21.13676274829551
 21
16.99378031731082
 31
0.0
  0
LINE
  5
B7C
330
1E
100
AcDbEntity
  8
HIDDEN
100
AcDbLine
 10
21.26188687189551
 20
17.19241344505944
 30
0.0
 11
21.13676274829551
 21
17.18146650271082
 31
0.0
  0
ARC
  5
B7D
330
1E
100
AcDbEntity
  8
HIDDEN
100
AcDbCircle
 10
21.0895929397955
 20
17.68856464921525
 30
0.0
 40
0.0620655375
100
AcDbArc
 50
359.9999999999998
 51
89.50000000000001
  0
ARC
  5
B7E
330
1E
100
AcDbEntity
  8
OBJECT
100
AcDbCircle
 10
21.13775579689548
 20
17.85158388363361
 30
0.0
 40
0.124131075
100
AcDbArc
 50
0.0000000000001018
 51
90.0
  0
LINE
  5
B7F
330
1E
100
AcDbEntity
  8
0
 62
    14
100
AcDbLine
 10
21.13676274829551
 20
17.97571495863362
 30
0.0
 11
21.13775579689548
 21
17.97571495863362
 31
0.0
  0
LINE
  5
D5E
330
1E
100
AcDbEntity
  8
CENTER
100
AcDbLine
 10
13.67983786021722
 20
14.9002149586336
 30
0.0
 11
15.5673071561914
 21
14.9002149586336
 31
0.0
  0
LINE
  5
D87
330
1E
100
AcDbEntity
  8
CENTER
100
AcDbLine
 10
7.527098503337043
 20
14.9002149586336
 30
0.0
 11
12.6001632735101
 21
14.9002149586336
 31
0.0
  0
DIMENSION
  5
1038
330
1E
100
AcDbEntity
  8
DIM
100
AcDbDimension
  2
*D24
 10
16.151152621647
 20
4.672057749898057
 30
0.0
 11
17.127793246647
 21
5.48205774989806
 31
0.0
 70
   160
  3
23NSTD
100
AcDbAlignedDimension
 13
15.28322421029139
 23
4.546933626298057
 33
0.0
 14
15.4673071561914
 24
4.672057749898057
 34
0.0
 50
90.0
100
AcDbRotatedDimension
1001
ACAD
1000
DSTYLE
1002
{
1070
    40
1040
2.25
1070
   141
1040
4.586925189199087
1002
}
  0
TEXT
  5
1196
330
1E
100
AcDbEntity
  8
TEXT
100
AcDbText
 10
3.205031451385337
 20
1.658487279800374
 30
0.0
 40
0.25
  1
TEXTURED FLUSH COVER LESS RECESS AND BODY WITHOUT MOUNTING FLANGE
 41
0.75
  7
TXT
100
AcDbText
  0
TEXT
  5
1197
330
1E
100
AcDbEntity
  8
TEXT
100
AcDbText
 10
3.224356804092607
 20
1.179331484585409
 30
0.0
 40
0.25
  1
TEXTURED FLUSH COVER LESS RECESS AND BODY WITH MOUNTING FLANGE.
 41
0.75
  7
TXT
100
AcDbText
  0
TEXT
  5
1198
330
1E
100
AcDbEntity
  8
TEXT
100
AcDbText
 10
3.263007723627807
 20
0.7194540855028381
 30
0.0
 40
0.25
  1
COVER WITH SMOOTH 0.030 RECESS AND BODY WITHOUT MOUNTING FLANGE.
 41
0.75
  7
TXT
100
AcDbText
  0
TEXT
  5
1199
330
1E
100
AcDbEntity
  8
TEXT
100
AcDbText
 10
3.243682263860207
 20
0.2402414219747926
 30
0.0
 40
0.25
  1
COVER WITH SMOOTH 0.030 RECESS AND BODY WITH MOUNTING FLANGE
 41
0.75
  7
TXT
100
AcDbText
  0
INSERT
  5
143E
330
1E
100
AcDbEntity
  8
TEXT
100
AcDbBlockReference
  2
HB
 10
0.0
 20
0.0
 30
0.0
 41
2.25
 42
2.25
 43
2.25
  0
LEADER
  5
16E5
330
1E
100
AcDbEntity
  8
DIM
100
AcDbLeader
  3
23NSTD
 73
     0
 40
0.6666666666666668
 41
3.78125
 76
     3
 10
14.4282093656914
 20
17.64505476792404
 30
0.0
 10
16.04628087973054
 20
19.72748896111007
 30
0.0
 10
16.521127978243
 20
19.72748896111007
 30
0.0
340
16E6
213
0.0
223
-0.127506684484375
233
0.0
1001
ACAD
1000
DSTYLE
1002
{
1070
     5
1000

1070
    40
1040
2.25
1070
   141
1040
4.586925189199087
1002
}
  0
MTEXT
  5
16E6
102
{ACAD_REACTORS
330
16E5
102
}
330
1E
100
AcDbEntity
  8
DIM
100
AcDbMText
 10
16.723627978243
 20
19.85499564559444
 30
0.0
 40
0.25
 41
0.0
 71
     1
 72
     1
  1
#4-40 THREADED INSERT\P(6) PLACES
  7
TXT
1001
ACAD
1000
MTEXTBEGIN
1070
    73
1070
     1
1070
    44
1040
1.0
1070
    74
1070
     0
1000
MTEXTEND
  0
LEADER
  5
16E9
330
1E
100
AcDbEntity
  8
DIM
100
AcDbLeader
  3
23NSTD
 40
2.770833333333333
 41
1.239583333333333
 76
     3
 10
15.22021750201109
 20
12.80246539078671
 30
0.0
 10
16.12126293473034
 20
11.14832749492724
 30
0.0
 10
16.65172948491149
 20
11.14832749492724
 30
0.0
213
0.0
223
-0.127506684484375
233
0.0
1001
ACAD
1000
DSTYLE
1002
{
1070
     5
1000

1070
    40
1040
2.25
1070
   141
1040
4.586925189199087
1002
}
  0
TEXT
  5
16EB
330
1E
100
AcDbEntity
  8
DIM
100
AcDbText
 10
16.81285007735575
 20
11.00054859452997
 30
0.0
 40
0.25
  1
0.250 DIA. (4) HOLES
 41
0.75
  7
TXT
100
AcDbText
  0
TEXT
  5
16EC
330
1E
100
AcDbEntity
  8
DIM
100
AcDbText
 10
16.81285007735575
 20
10.63721526121831
 30
0.0
 40
0.25
  1
(TO FIT A #6 SCREW)
 41
0.75
  7
TXT
100
AcDbText
  0
LINE
  5
1716
330
1E
100
AcDbEntity
  8
CENTER
100
AcDbLine
 10
6.755455837844933
 20
14.9002149586336
 30
0.0
 11
7.527098503337043
 21
14.9002149586336
 31
0.0
  0
LEADER
  5
1718
330
1E
100
AcDbEntity
  8
DIM
100
AcDbLeader
  3
23NSTD
 40
0.9479166666666664
 41
0.8020833333333332
 76
     3
 10
5.638786188132105
 20
17.12072626614006
 30
0.0
 10
6.33053967869204
 20
16.43795102602791
 30
0.0
 10
6.545036174222003
 20
16.43795102602791
 30
0.0
213
0.0
223
-0.127506684484375
233
0.0
1001
ACAD
1000
DSTYLE
1002
{
1070
     5
1000

1070
    40
1040
2.25
1070
   141
1040
4.586925189199087
1002
}
  0
TEXT
  5
171D
330
1E
100
AcDbEntity
  8
DIM
100
AcDbText
 10
6.62010996511013
 20
16.36294170557605
 30
0.0
 40
0.25
  1
0.250 DIA. BOSS
 41
0.75
  7
TXT
100
AcDbText
  0
TEXT
  5
171E
330
1E
100
AcDbEntity
  8
DIM
100
AcDbText
 10
6.62010996511013
 20
15.99960837226439
 30
0.0
 40
0.25
  1
(8) PLACES
 41
0.75
  7
TXT
100
AcDbText
  0
LEADER
  5
171F
330
1E
100
AcDbEntity
  8
DIM
100
AcDbLeader
  3
23NSTD
 40
2.041666666666666
 41
1.239583333333333
 76
     3
 10
5.526915187527471
 20
17.10827263685725
 30
0.0
 10
5.98194881195754
 20
14.27992720543187
 30
0.0
 10
6.142821270868187
 20
14.27992720543187
 30
0.0
213
0.0
223
-0.127506684484375
233
0.0
1001
ACAD
1000
DSTYLE
1002
{
1070
     5
1000

1070
    40
1040
2.25
1070
   141
1040
4.586925189199087
1002
}
  0
TEXT
  5
1721
330
1E
100
AcDbEntity
  8
DIM
100
AcDbText
 10
6.217894945405415
 20
14.19420229512781
 30
0.0
 40
0.25
  1
0.086 x 0.250 DEEP
 41
0.75
  7
TXT
100
AcDbText
  0
TEXT
  5
1722
330
1E
100
AcDbEntity
  8
DIM
100
AcDbText
 10
6.217894945405415
 20
13.83086896181615
 30
0.0
 40
0.25
  1
(8) PLACES
 41
0.75
  7
TXT
100
AcDbText
  0
TEXT
  5
1747
330
1E
100
AcDbEntity
  8
TEXT
100
AcDbText
 10
2.991716915992639
 20
34.05536094507606
 30
0.0
 40
0.375
  1
UTILIBOX  (STYLE A)
 41
0.75
  7
TXT
100
AcDbText
  0
DIMENSION
  5
201E
330
1E
100
AcDbEntity
  8
DIM
100
AcDbDimension
  2
*D25
 10
9.767307156191414
 20
18.72749867935255
 30
0.0
 11
12.05980715619141
 21
18.72749867935255
 31
0.0
 70
    32
  3
23NSTD
100
AcDbAlignedDimension
 13
14.35230715619141
 23
17.48521495863362
 33
0.0
 14
9.767307156191414
 24
17.4838498014108
 34
0.0
 50
180.0
100
AcDbRotatedDimension
1001
ACAD
1000
DSTYLE
1002
{
1070
    40
1040
2.25
1070
   141
1040
4.586925189199087
1002
}
  0
CIRCLE
  5
20BE
330
1E
100
AcDbEntity
  8
HIDDEN
100
AcDbCircle
 10
14.3542323453905
 20
26.14109806931528
 30
0.0
 40
0.1921549040999932
  0
CIRCLE
  5
20BF
330
1E
100
AcDbEntity
  8
OBJECT
100
AcDbCircle
 10
14.3542323453905
 20
26.14109806931528
 30
0.0
 40
0.1305858908999955
  0
CIRCLE
  5
20C0
330
1E
100
AcDbEntity
  8
OBJECT
100
AcDbCircle
 10
14.3542323453905
 20
26.14109806931528
 30
0.0
 40
0.0580933430999881
  0
CIRCLE
  5
20C1
330
1E
100
AcDbEntity
  8
HIDDEN
100
AcDbCircle
 10
14.3542323453905
 20
20.97109806931528
 30
0.0
 40
0.1921549040999932
  0
CIRCLE
  5
20C2
330
1E
100
AcDbEntity
  8
OBJECT
100
AcDbCircle
 10
14.3542323453905
 20
20.97109806931528
 30
0.0
 40
0.0580933430999881
  0
CIRCLE
  5
20C3
330
1E
100
AcDbEntity
  8
OBJECT
100
AcDbCircle
 10
14.3542323453905
 20
20.97109806931528
 30
0.0
 40
0.1305858908999955
  0
LINE
  5
2937
330
1E
100
AcDbEntity
  8
OBJECT
100
AcDbLine
 10
4.767307156191414
 20
7.54693344689806
 30
0.0
 11
14.76730715619141
 21
7.54693344689806
 31
0.0
  0
DIMENSION
  5
294F
330
1E
100
AcDbEntity
  8
DIM
100
AcDbDimension
  2
*D26
 10
14.76730715619141
 20
8.964030535211424
 30
0.0
 11
9.767307156191412
 21
8.964030535211424
 31
0.0
 70
    32
  3
23NSTD
100
AcDbAlignedDimension
 13
4.767307156191414
 23
7.54693344689806
 33
0.0
 14
14.76730715619141
 24
7.54693344689806
 34
0.0
100
AcDbRotatedDimension
1001
ACAD
1000
DSTYLE
1002
{
1070
    40
1040
2.25
1070
   141
1040
4.586925189199087
1002
}
  0
LINE
  5
298C
330
1E
100
AcDbEntity
  8
BEND
 48
0.5
100
AcDbLine
 10
4.067307156191413
 20
4.672057749898057
 30
0.0
 11
4.693757751057196
 21
4.672057749898057
 31
0.0
  0
ARC
  5
29E0
330
1E
100
AcDbEntity
  8
0
100
AcDbCircle
 10
5.185597502613289
 20
17.48384980141081
 30
0.0
 40
0.1786531037794069
100
AcDbArc
 50
149.2320362093249
 51
121.382830329887
  0
LINE
  5
29EA
330
1E
100
AcDbEntity
  8
0
100
AcDbLine
 10
5.094598362963565
 20
17.61696008150668
 30
0.0
 11
5.01022902380216
 21
17.70252952900223
 31
0.0
  0
LINE
  5
29EB
330
1E
100
AcDbEntity
  8
0
100
AcDbLine
 10
4.966611910824258
 20
17.65952414441954
 30
0.0
 11
5.051143177533687
 21
17.57379046604396
 31
0.0
  0
LINE
  5
29F0
330
1E
100
AcDbEntity
  8
0
100
AcDbLine
 10
5.029881784319162
 20
17.69980568630385
 30
0.0
 11
5.092563215077308
 21
17.63636718675649
 31
0.0
  0
LINE
  5
29F1
330
1E
100
AcDbEntity
  8
0
100
AcDbLine
 10
4.969641617720231
 20
17.63956551970493
 30
0.0
 11
5.032090526203818
 21
17.57524203129736
 31
0.0
  0
LINE
  5
29F2
330
1E
100
AcDbEntity
  8
0
100
AcDbLine
 10
5.092563215077308
 20
17.63636718675649
 30
0.0
 11
5.094598362963565
 21
17.61696008150668
 31
0.0
  0
LINE
  5
29F3
330
1E
100
AcDbEntity
  8
0
100
AcDbLine
 10
5.032090526203818
 20
17.57524203129736
 30
0.0
 11
5.051143177533687
 21
17.57379046604396
 31
0.0
  0
LINE
  5
29F4
330
1E
100
AcDbEntity
  8
0
100
AcDbLine
 10
5.029881784319162
 20
17.69980568630385
 30
0.0
 11
5.01022902380216
 21
17.70252952900223
 31
0.0
  0
LINE
  5
29F5
330
1E
100
AcDbEntity
  8
0
100
AcDbLine
 10
4.969641617720231
 20
17.63956551970493
 30
0.0
 11
4.966611910824258
 21
17.65952414441954
 31
0.0
  0
ARC
  5
29F8
330
1E
100
AcDbEntity
  8
OBJECT
100
AcDbCircle
 10
5.202179331534511
 20
17.46422736796434
 30
0.0
 40
0.305994837528139
100
AcDbArc
 50
128.8511401301984
 51
140.3396273125014
  0
ARC
  5
29FA
330
1E
100
AcDbEntity
  8
OBJECT
100
AcDbCircle
 10
5.185597502613289
 20
17.48384980141081
 30
0.0
 40
0.2662411109197799
100
AcDbArc
 50
144.2063844522743
 51
180.0
  0
ARC
  5
29FC
330
1E
100
AcDbEntity
  8
0
100
AcDbCircle
 10
5.182307156191412
 20
17.48521495863362
 30
0.0
 40
0.1582706852525885
100
AcDbArc
 50
123.6535339609062
 51
145.9687013704803
  0
ARC
  5
29FD
330
1E
100
AcDbEntity
  8
0
100
AcDbCircle
 10
5.185597502613289
 20
12.31658011585642
 30
0.0
 40
0.1786531037794069
100
AcDbArc
 50
238.6171696701127
 51
210.767963790675
  0
CIRCLE
  5
29FE
330
1E
100
AcDbEntity
  8
0
100
AcDbCircle
 10
5.182307156191412
 20
12.3152149586336
 30
0.0
 40
0.15516384375
  0
ARC
  5
29FF
330
1E
100
AcDbEntity
  8
OBJECT
100
AcDbCircle
 10
5.185597502613289
 20
12.31658011585642
 30
0.0
 40
0.2662411109197799
100
AcDbArc
 50
234.2063844522741
 51
270.0
  0
CIRCLE
  5
2A00
330
1E
100
AcDbEntity
  8
0
100
AcDbCircle
 10
5.182307156191412
 20
12.3152149586336
 30
0.0
 40
0.0451837113
  0
ARC
  5
2A01
330
1E
100
AcDbEntity
  8
OBJECT
100
AcDbCircle
 10
5.185597502613289
 20
12.31658011585642
 30
0.0
 40
0.2914597641000016
100
AcDbArc
 50
180.0
 51
270.0
  0
ARC
  5
2A02
330
1E
100
AcDbEntity
  8
OBJECT
100
AcDbCircle
 10
5.185597502613289
 20
12.31658011585642
 30
0.0
 40
0.2662411109197799
100
AcDbArc
 50
180.0
 51
215.7936155477256
  0
LINE
  5
2A03
330
1E
100
AcDbEntity
  8
0
100
AcDbLine
 10
5.092563215077308
 20
12.16406273051072
 30
0.0
 11
5.094598362963565
 21
12.18346983576055
 31
0.0
  0
LINE
  5
2A04
330
1E
100
AcDbEntity
  8
0
100
AcDbLine
 10
5.094598362963565
 20
12.18346983576055
 30
0.0
 11
5.01022902380216
 21
12.097900388265
 31
0.0
  0
ARC
  5
2A05
330
1E
100
AcDbEntity
  8
0
100
AcDbCircle
 10
5.182307156191412
 20
12.3152149586336
 30
0.0
 40
0.1582706852525885
100
AcDbArc
 50
214.0312986295196
 51
236.3464660390937
  0
ARC
  5
2A06
330
1E
100
AcDbEntity
  8
OBJECT
100
AcDbCircle
 10
5.202179331534511
 20
12.33620254930289
 30
0.0
 40
0.305994837528139
100
AcDbArc
 50
219.6603726874985
 51
231.1488598698014
  0
LINE
  5
2A07
330
1E
100
AcDbEntity
  8
0
100
AcDbLine
 10
4.969641617720231
 20
12.1608643975623
 30
0.0
 11
4.966611910824258
 21
12.14090577284768
 31
0.0
  0
LINE
  5
2A08
330
1E
100
AcDbEntity
  8
0
100
AcDbLine
 10
5.029881784319162
 20
12.10062423096337
 30
0.0
 11
5.01022902380216
 21
12.097900388265
 31
0.0
  0
LINE
  5
2A09
330
1E
100
AcDbEntity
  8
0
100
AcDbLine
 10
5.032090526203818
 20
12.22518788596986
 30
0.0
 11
5.051143177533687
 21
12.22663945122326
 31
0.0
  0
LINE
  5
2A0A
330
1E
100
AcDbEntity
  8
0
100
AcDbLine
 10
4.969641617720231
 20
12.1608643975623
 30
0.0
 11
5.032090526203818
 21
12.22518788596986
 31
0.0
  0
LINE
  5
2A0B
330
1E
100
AcDbEntity
  8
0
100
AcDbLine
 10
5.029881784319162
 20
12.10062423096337
 30
0.0
 11
5.092563215077308
 21
12.16406273051072
 31
0.0
  0
LINE
  5
2A0C
330
1E
100
AcDbEntity
  8
0
100
AcDbLine
 10
4.966611910824258
 20
12.14090577284768
 30
0.0
 11
5.051143177533687
 21
12.22663945122326
 31
0.0
  0
ARC
  5
2A0D
330
1E
100
AcDbEntity
  8
0
100
AcDbCircle
 10
14.34901680976953
 20
17.48384980141081
 30
0.0
 40
0.1786531037794069
100
AcDbArc
 50
58.6171696701129
 51
30.76796379067504
  0
CIRCLE
  5
2A0E
330
1E
100
AcDbEntity
  8
0
100
AcDbCircle
 10
14.35230715619141
 20
17.48521495863362
 30
0.0
 40
0.15516384375
  0
LINE
  5
2A0F
330
1E
100
AcDbEntity
  8
OBJECT
100
AcDbLine
 10
14.84088196699234
 20
12.31658011585643
 30
0.0
 11
14.84088196699234
 21
17.48384980141081
 31
0.0
  0
LINE
  5
2A10
330
1E
100
AcDbEntity
  8
OBJECT
100
AcDbLine
 10
14.76560069746954
 20
12.31658011585643
 30
0.0
 11
14.76560069746954
 21
17.48384980141081
 31
0.0
  0
LINE
  5
2A11
330
1E
100
AcDbEntity
  8
OBJECT
100
AcDbLine
 10
14.61525792068933
 20
12.31658011585643
 30
0.0
 11
14.61525792068933
 21
17.48384980141081
 31
0.0
  0
LINE
  5
2A12
330
1E
100
AcDbEntity
  8
OBJECT
100
AcDbLine
 10
14.64047657386952
 20
12.31658011585643
 30
0.0
 11
14.64047657386952
 21
17.48384980141081
 31
0.0
  0
LINE
  5
2A15
330
1E
100
AcDbEntity
  8
BEND
100
AcDbLine
 10
15.46730715619141
 20
12.81714023580116
 30
0.0
 11
15.46730715619141
 21
16.98328968146606
 31
0.0
  0
ARC
  5
2A18
330
1E
100
AcDbEntity
  8
OBJECT
100
AcDbCircle
 10
14.34901680976953
 20
12.31658011585643
 30
0.0
 40
0.4918651572228089
100
AcDbArc
 50
270.0
 51
359.9999999999997
  0
ARC
  5
2A19
330
1E
100
AcDbEntity
  8
OBJECT
100
AcDbCircle
 10
14.34901680976953
 20
12.31658011585643
 30
0.0
 40
0.4165838877000064
100
AcDbArc
 50
270.0
 51
359.9999999999997
  0
ARC
  5
2A1A
330
1E
100
AcDbEntity
  8
OBJECT
100
AcDbCircle
 10
14.34901680976953
 20
12.31658011585642
 30
0.0
 40
0.2914597641000016
100
AcDbArc
 50
270.0
 51
0.000000000000007
  0
CIRCLE
  5
2A1B
330
1E
100
AcDbEntity
  8
0
100
AcDbCircle
 10
14.35230715619141
 20
12.3152149586336
 30
0.0
 40
0.0451837113
  0
ARC
  5
2A1C
330
1E
100
AcDbEntity
  8
OBJECT
100
AcDbCircle
 10
14.34901680976953
 20
12.31658011585642
 30
0.0
 40
0.2662411109197799
100
AcDbArc
 50
270.0
 51
305.7936155477258
  0
CIRCLE
  5
2A1D
330
1E
100
AcDbEntity
  8
0
100
AcDbCircle
 10
14.35230715619141
 20
12.3152149586336
 30
0.0
 40
0.15516384375
  0
ARC
  5
2A1E
330
1E
100
AcDbEntity
  8
0
100
AcDbCircle
 10
14.34901680976953
 20
12.31658011585642
 30
0.0
 40
0.1786531037794069
100
AcDbArc
 50
329.2320362093248
 51
301.3828303298871
  0
ARC
  5
2A20
330
1E
100
AcDbEntity
  8
OBJECT
100
AcDbCircle
 10
14.34901680976953
 20
12.31658011585642
 30
0.0
 40
0.2662411109197799
100
AcDbArc
 50
324.2063844522743
 51
0.000000000000007
  0
LINE
  5
2A21
330
1E
100
AcDbEntity
  8
0
100
AcDbLine
 10
14.56800240155857
 20
12.14090577284768
 30
0.0
 11
14.48347113484914
 21
12.22663945122326
 31
0.0
  0
LINE
  5
2A22
330
1E
100
AcDbEntity
  8
0
100
AcDbLine
 10
14.50473252806365
 20
12.10062423096337
 30
0.0
 11
14.44205109730551
 21
12.16406273051072
 31
0.0
  0
LINE
  5
2A23
330
1E
100
AcDbEntity
  8
0
100
AcDbLine
 10
14.56497269466258
 20
12.1608643975623
 30
0.0
 11
14.502523786179
 21
12.22518788596986
 31
0.0
  0
LINE
  5
2A24
330
1E
100
AcDbEntity
  8
0
100
AcDbLine
 10
14.502523786179
 20
12.22518788596986
 30
0.0
 11
14.48347113484914
 21
12.22663945122326
 31
0.0
  0
LINE
  5
2A25
330
1E
100
AcDbEntity
  8
0
100
AcDbLine
 10
14.50473252806365
 20
12.10062423096337
 30
0.0
 11
14.52438528858066
 21
12.097900388265
 31
0.0
  0
LINE
  5
2A26
330
1E
100
AcDbEntity
  8
0
100
AcDbLine
 10
14.56497269466258
 20
12.1608643975623
 30
0.0
 11
14.56800240155857
 21
12.14090577284768
 31
0.0
  0
ARC
  5
2A27
330
1E
100
AcDbEntity
  8
OBJECT
100
AcDbCircle
 10
14.33243498084831
 20
12.33620254930289
 30
0.0
 40
0.305994837528139
100
AcDbArc
 50
308.8511401301983
 51
320.3396273125013
  0
ARC
  5
2A28
330
1E
100
AcDbEntity
  8
0
100
AcDbCircle
 10
14.35230715619141
 20
12.3152149586336
 30
0.0
 40
0.1582706852525885
100
AcDbArc
 50
303.6535339609061
 51
325.9687013704803
  0
LINE
  5
2A29
330
1E
100
AcDbEntity
  8
0
100
AcDbLine
 10
14.44001594941926
 20
12.18346983576055
 30
0.0
 11
14.52438528858066
 21
12.097900388265
 31
0.0
  0
LINE
  5
2A2A
330
1E
100
AcDbEntity
  8
0
100
AcDbLine
 10
14.44205109730551
 20
12.16406273051072
 30
0.0
 11
14.44001594941926
 21
12.18346983576055
 31
0.0
  0
ARC
  5
2A2C
330
1E
100
AcDbEntity
  8
OBJECT
100
AcDbCircle
 10
14.34901680976953
 20
17.48384980141081
 30
0.0
 40
0.2662411109197799
100
AcDbArc
 50
54.20638445227415
 51
90.0
  0
CIRCLE
  5
2A2D
330
1E
100
AcDbEntity
  8
0
100
AcDbCircle
 10
14.35230715619141
 20
17.48521495863362
 30
0.0
 40
0.0451837113
  0
ARC
  5
2A2E
330
1E
100
AcDbEntity
  8
OBJECT
100
AcDbCircle
 10
14.34901680976953
 20
17.48384980141081
 30
0.0
 40
0.2914597641000016
100
AcDbArc
 50
0.000000000000007
 51
90.0
  0
ARC
  5
2A2F
330
1E
100
AcDbEntity
  8
OBJECT
100
AcDbCircle
 10
14.34901680976953
 20
17.48384980141081
 30
0.0
 40
0.4918651572228019
100
AcDbArc
 50
0.000000000000007
 51
90.0
  0
ARC
  5
2A30
330
1E
100
AcDbEntity
  8
OBJECT
100
AcDbCircle
 10
14.34901680976953
 20
17.48384980141081
 30
0.0
 40
0.4165838876999958
100
AcDbArc
 50
0.000000000000007
 51
90.0
  0
ARC
  5
2A31
330
1E
100
AcDbEntity
  8
OBJECT
100
AcDbCircle
 10
14.34901680976953
 20
17.48384980141081
 30
0.0
 40
0.2662411109197799
100
AcDbArc
 50
0.000000000000007
 51
35.79361554772565
  0
LINE
  5
2A32
330
1E
100
AcDbEntity
  8
0
100
AcDbLine
 10
14.44205109730551
 20
17.63636718675649
 30
0.0
 11
14.44001594941926
 21
17.61696008150668
 31
0.0
  0
LINE
  5
2A33
330
1E
100
AcDbEntity
  8
0
100
AcDbLine
 10
14.44001594941926
 20
17.61696008150668
 30
0.0
 11
14.52438528858066
 21
17.70252952900223
 31
0.0
  0
ARC
  5
2A34
330
1E
100
AcDbEntity
  8
0
100
AcDbCircle
 10
14.35230715619141
 20
17.48521495863362
 30
0.0
 40
0.1582706852525885
100
AcDbArc
 50
34.03129862951971
 51
56.34646603909374
  0
ARC
  5
2A35
330
1E
100
AcDbEntity
  8
OBJECT
100
AcDbCircle
 10
14.33243498084831
 20
17.46422736796434
 30
0.0
 40
0.305994837528139
100
AcDbArc
 50
39.66037268749852
 51
51.14885986980151
  0
LINE
  5
2A36
330
1E
100
AcDbEntity
  8
0
100
AcDbLine
 10
14.56497269466258
 20
17.63956551970493
 30
0.0
 11
14.56800240155857
 21
17.65952414441954
 31
0.0
  0
LINE
  5
2A37
330
1E
100
AcDbEntity
  8
0
100
AcDbLine
 10
14.50473252806365
 20
17.69980568630385
 30
0.0
 11
14.52438528858066
 21
17.70252952900223
 31
0.0
  0
LINE
  5
2A38
330
1E
100
AcDbEntity
  8
0
100
AcDbLine
 10
14.502523786179
 20
17.57524203129736
 30
0.0
 11
14.48347113484914
 21
17.57379046604396
 31
0.0
  0
LINE
  5
2A39
330
1E
100
AcDbEntity
  8
0
100
AcDbLine
 10
14.56497269466258
 20
17.63956551970493
 30
0.0
 11
14.502523786179
 21
17.57524203129736
 31
0.0
  0
LINE
  5
2A3A
330
1E
100
AcDbEntity
  8
0
100
AcDbLine
 10
14.50473252806365
 20
17.69980568630385
 30
0.0
 11
14.44205109730551
 21
17.63636718675649
 31
0.0
  0
LINE
  5
2A3B
330
1E
100
AcDbEntity
  8
0
100
AcDbLine
 10
14.56800240155857
 20
17.65952414441954
 30
0.0
 11
14.48347113484914
 21
17.57379046604396
 31
0.0
  0
LINE
  5
2A64
330
1E
100
AcDbEntity
  8
BEND
 48
0.5
100
AcDbLine
 10
4.122371081328341
 20
17.11622575632912
 30
0.0
 11
4.837796314511657
 21
17.83165098951243
 31
0.0
  0
ARC
  5
2A66
330
1E
100
AcDbEntity
  8
BEND
 48
0.5
100
AcDbCircle
 10
4.255307156191412
 20
16.98328968146605
 30
0.0
 40
0.188
100
AcDbArc
 50
135.0
 51
180.0
  0
LINE
  5
2A71
330
1E
100
AcDbEntity
  8
BEND
 48
0.5
100
AcDbLine
 10
4.122371081328341
 20
12.68420416093811
 30
0.0
 11
4.837796314511657
 21
11.96877892775478
 31
0.0
  0
ARC
  5
2A72
330
1E
100
AcDbEntity
  8
BEND
 48
0.5
100
AcDbCircle
 10
4.255307156191412
 20
12.81714023580118
 30
0.0
 40
0.188
100
AcDbArc
 50
180.0
 51
225.0
  0
LINE
  5
2A73
330
1E
100
AcDbEntity
  8
BEND
 48
0.5
100
AcDbLine
 10
14.69681799787116
 20
11.96877892775478
 30
0.0
 11
15.41224323105448
 21
12.68420416093809
 31
0.0
  0
ARC
  5
2A74
330
1E
100
AcDbEntity
  8
BEND
 48
0.5
100
AcDbCircle
 10
15.27930715619141
 20
12.81714023580116
 30
0.0
 40
0.188
100
AcDbArc
 50
315.0
 51
0.0
  0
ARC
  5
2A75
330
1E
100
AcDbEntity
  8
BEND
 48
0.5
100
AcDbCircle
 10
15.27930715619141
 20
16.98328968146606
 30
0.0
 40
0.188
100
AcDbArc
 50
0.0
 51
44.99999999999996
  0
LINE
  5
2A76
330
1E
100
AcDbEntity
  8
BEND
 48
0.5
100
AcDbLine
 10
14.69681799787116
 20
17.83165098951243
 30
0.0
 11
15.41224323105448
 21
17.11622575632913
 31
0.0
  0
CIRCLE
  5
2ACC
330
1E
100
AcDbEntity
  8
0
100
AcDbCircle
 10
14.01730715619141
 20
17.15018547181083
 30
0.0
 40
0.125
  0
CIRCLE
  5
2ACE
330
1E
100
AcDbEntity
  8
0
100
AcDbCircle
 10
14.01730715619141
 20
17.15018547181083
 30
0.0
 40
0.043
  0
CIRCLE
  5
2ACF
330
1E
100
AcDbEntity
  8
0
100
AcDbCircle
 10
14.01730715619141
 20
12.65024444545641
 30
0.0
 40
0.043
  0
CIRCLE
  5
2AD0
330
1E
100
AcDbEntity
  8
0
100
AcDbCircle
 10
14.01730715619141
 20
12.65024444545641
 30
0.0
 40
0.125
  0
CIRCLE
  5
2AD1
330
1E
100
AcDbEntity
  8
0
100
AcDbCircle
 10
10.1421830026914
 20
17.15018547181083
 30
0.0
 40
0.043
  0
CIRCLE
  5
2AD2
330
1E
100
AcDbEntity
  8
0
100
AcDbCircle
 10
10.1421830026914
 20
17.15018547181083
 30
0.0
 40
0.125
  0
CIRCLE
  5
2AD3
330
1E
100
AcDbEntity
  8
0
100
AcDbCircle
 10
10.1421830026914
 20
12.65024444545641
 30
0.0
 40
0.125
  0
CIRCLE
  5
2AD4
330
1E
100
AcDbEntity
  8
0
100
AcDbCircle
 10
10.1421830026914
 20
12.65024444545641
 30
0.0
 40
0.043
  0
CIRCLE
  5
2AD5
330
1E
100
AcDbEntity
  8
0
100
AcDbCircle
 10
9.392431309691415
 20
17.15018547181083
 30
0.0
 40
0.043
  0
CIRCLE
  5
2AD6
330
1E
100
AcDbEntity
  8
0
100
AcDbCircle
 10
9.392431309691415
 20
17.15018547181083
 30
0.0
 40
0.125
  0
CIRCLE
  5
2AD7
330
1E
100
AcDbEntity
  8
0
100
AcDbCircle
 10
9.392431309691415
 20
12.65024444545641
 30
0.0
 40
0.125
  0
CIRCLE
  5
2AD8
330
1E
100
AcDbEntity
  8
0
100
AcDbCircle
 10
9.392431309691415
 20
12.65024444545641
 30
0.0
 40
0.043
  0
CIRCLE
  5
2AD9
330
1E
100
AcDbEntity
  8
0
100
AcDbCircle
 10
5.517307156191414
 20
17.15018547181083
 30
0.0
 40
0.043
  0
CIRCLE
  5
2ADA
330
1E
100
AcDbEntity
  8
0
100
AcDbCircle
 10
5.517307156191414
 20
17.15018547181083
 30
0.0
 40
0.125
  0
CIRCLE
  5
2ADB
330
1E
100
AcDbEntity
  8
BEND
 48
0.5
100
AcDbCircle
 10
4.392307156191413
 20
12.9002149586336
 30
0.0
 40
0.125
  0
CIRCLE
  5
2ADC
330
1E
100
AcDbEntity
  8
0
100
AcDbCircle
 10
5.517307156191414
 20
12.65024444545641
 30
0.0
 40
0.043
  0
CIRCLE
  5
2AE9
330
1E
100
AcDbEntity
  8
BEND
 48
0.5
100
AcDbCircle
 10
15.14230715619141
 20
16.9002149586336
 30
0.0
 40
0.125
  0
CIRCLE
  5
2AEA
330
1E
100
AcDbEntity
  8
BEND
 48
0.5
100
AcDbCircle
 10
15.14230715619141
 20
12.9002149586336
 30
0.0
 40
0.125
  0
CIRCLE
  5
2AEB
330
1E
100
AcDbEntity
  8
BEND
 48
0.5
100
AcDbCircle
 10
4.392307156191413
 20
16.9002149586336
 30
0.0
 40
0.125
  0
TEXT
  5
2B1F
330
1E
100
AcDbEntity
  8
TEXT
100
AcDbText
 10
13.11900432311114
 20
34.15160498938424
 30
0.0
 40
0.2232668254220624
  1
CUR-3286 & CUR-3286-MB
 41
0.75
  7
TXT
 72
     1
 11
14.9330472796654
 21
34.15160498938424
 31
0.0
100
AcDbText
  0
TEXT
  5
2B20
330
1E
100
AcDbEntity
  8
TEXT
100
AcDbText
 10
12.8721945336931
 20
33.86259831270841
 30
0.0
 40
0.2232668254220624
  1
CUR-3286-C & CUR-3286-CMB
 41
0.75
  7
TXT
 72
     1
 11
14.93741266884718
 21
33.86259831270841
 31
0.0
100
AcDbText
  0
TEXT
  5
2B21
330
1E
100
AcDbEntity
  8
TEXT
100
AcDbText
 10
13.27385214020212
 20
34.46028125683755
 30
0.0
 40
0.2232668254220624
  1
CU-3286 & CU-3286-MB
 41
0.75
  7
TXT
 72
     1
 11
14.92044497768983
 21
34.46028125683755
 31
0.0
100
AcDbText
  0
TEXT
  5
2B36
330
1E
100
AcDbEntity
  8
TEXT
100
AcDbText
 10
1.195311298014805
 20
32.21008730765223
 30
0.0
 40
0.2815499049729055
  1
ABS THERMOPLASTIC (FLAMMABILITY RATING UL94-5VA)
 41
0.75
  7
TXT
100
AcDbText
  0
TEXT
  5
2B37
330
1E
100
AcDbEntity
  8
TEXT
100
AcDbText
 10
1.180879799460869
 20
30.42399103341475
 30
0.0
 40
0.2815499049729055
  1
ABS THERMOPLASTIC (FLAMMABILITY RATING UL94V-2)
 41
0.75
  7
TXT
100
AcDbText
  0
TEXT
  5
2B38
330
1E
100
AcDbEntity
  8
TEXT
100
AcDbText
 10
1.178052348292193
 20
31.30695023751195
 30
0.0
 40
0.2815499049729055
  1
ABS THERMOPLASTIC (FLAMMABILITY RATING UL94-5VA)
 41
0.75
  7
TXT
100
AcDbText
  0
TEXT
  5
2B39
330
1E
100
AcDbEntity
  8
TEXT
100
AcDbText
 10
0.6644149390295851
 20
28.88849249806124
 30
0.0
 40
0.2815499049729055
  1
RECESSED (CUR-) AND CLEAR COVERS (-C) ARE SMOOTH FINISH
 41
0.75
  7
TXT
100
AcDbText
  0
TEXT
  5
2B3A
330
1E
100
AcDbEntity
  8
TEXT
100
AcDbText
 10
0.6437793523777719
 20
30.85665243061211
 30
0.0
 40
0.2815499049729055
  1
%%UCLEAR COVERS (-C)%%U
 41
0.75
  7
TXT
100
AcDbText
  0
TEXT
  5
2B3B
330
1E
100
AcDbEntity
  8
TEXT
100
AcDbText
 10
0.6539062280761425
 20
29.32603504940699
 30
0.0
 40
0.2815499049729055
  1
BODY AND STANDARD COVERS ARE BLACK TEXTURED
 41
0.75
  7
TXT
100
AcDbText
  0
TEXT
  5
2B3C
330
1E
100
AcDbEntity
  8
TEXT
100
AcDbText
 10
0.6550372758428111
 20
32.61869043114153
 30
0.0
 40
0.2815499049729055
  1
%%UBODY AND STANDARD COVERS%%U
 41
0.75
  7
TXT
100
AcDbText
  0
TEXT
  5
2B3D
330
1E
100
AcDbEntity
  8
TEXT
100
AcDbText
 10
0.6409519012090961
 20
31.73961163470933
 30
0.0
 40
0.2815499049729055
  1
%%URECESSED COVERS (CUR-)%%U
 41
0.75
  7
TXT
100
AcDbText
  0
TEXT
  5
2B3E
330
1E
100
AcDbEntity
  8
TEXT
100
AcDbText
 10
0.6284786043225094
 20
33.08346888160698
 30
0.0
 40
0.2815499049729055
  1
%%UMATERIAL:%%U
 41
0.75
  7
TXT
100
AcDbText
  0
TEXT
  5
2B3F
330
1E
100
AcDbEntity
  8
TEXT
100
AcDbText
 10
0.5827268306884853
 20
29.78920884040285
 30
0.0
 40
0.2815499049729055
  1
%%UFINISH%%U
 41
0.75
  7
TXT
100
AcDbText
  0
TEXT
  5
2C6E
330
1E
100
AcDbEntity
  8
TEXT
100
AcDbText
 10
20.77461066646955
 20
34.05536094507606
 30
0.0
 40
0.375
  1
9-2-10
 41
0.75
  7
TXT
100
AcDbText
  0
LINE
  5
303F
330
1E
100
AcDbEntity
  8
TITLE
100
AcDbLine
 10
0.1394999999999948
 20
1.543500000000002
 30
0.0
 11
22.6305
 21
1.543500000000001
 31
0.0
  0
LINE
  5
3040
330
1E
100
AcDbEntity
  8
TITLE
100
AcDbLine
 10
0.1394999999999948
 20
1.075500000000002
 30
0.0
 11
22.6305
 21
1.075500000000001
 31
0.0
  0
LINE
  5
3041
330
1E
100
AcDbEntity
  8
TITLE
100
AcDbLine
 10
0.1394999999999948
 20
0.6075000000000026
 30
0.0
 11
22.6305
 21
0.6075000000000013
 31
0.0
  0
DIMENSION
  5
3334
330
1E
100
AcDbEntity
  8
DIM
100
AcDbDimension
  2
*D27
 10
4.693732345390483
 20
3.815399450093877
 30
0.0
 11
7.324523840046452
 21
8.298370994568315
 31
0.0
 70
    34
  1
1-1/2° DRAFT
  3
23NSTD
100
AcDb2LineAngularDimension
 13
4.693732345390483
 23
4.671064701298057
 33
0.0
 14
4.767307156191414
 24
7.54693344689806
 34
0.0
 15
4.693732345390483
 25
4.671064701298057
 35
0.0
 16
4.725592516526945
 26
8.407809739973354
 36
0.0
1001
ACAD
1000
DSTYLE
1002
{
1070
   271
1070
     0
1070
   141
1040
4.586925189199087
1002
}
  0
TEXT
  5
33F1
330
1E
100
AcDbEntity
  8
DIM
100
AcDbText
 10
6.169832436611642
 20
7.763999253935196
 30
0.0
 40
0.281
  1
ALL OUTSIDE WALL SURFACES
 41
0.75
  7
TXT
100
AcDbText
  0
DIMENSION
  5
3402
330
1E
100
AcDbEntity
  8
DIM
100
AcDbDimension
  2
*D28
 10
14.17653755399141
 20
3.912460524983742
 30
0.0
 11
16.54565601642082
 21
6.63117062872778
 31
0.0
 70
    34
  1
1/2° DRAFT
  3
23NSTD
100
AcDb2LineAngularDimension
 13
14.17653755399141
 23
4.657162020898057
 33
0.0
 14
14.19714331244144
 24
7.038365465674903
 34
0.0
 15
14.17653755399141
 25
4.657162020898057
 35
0.0
 16
14.18269477552971
 26
6.791796735589111
 36
0.0
1001
ACAD
1000
DSTYLE
1002
{
1070
   271
1070
     0
1070
   141
1040
4.586925189199087
1002
}
  0
TEXT
  5
343A
330
1E
100
AcDbEntity
  8
DIM
100
AcDbText
 10
15.57421409491385
 20
6.107351398237796
 30
0.0
 40
0.281
  1
ALL INSIDE SURFACES
 41
0.75
  7
TXT
100
AcDbText
  0
LINE
  5
344F
330
1E
100
AcDbEntity
  8
OBJECT
100
AcDbLine
 10
4.693757751057196
 20
4.672057749898057
 30
0.0
 11
14.84470561017323
 21
4.672057749898057
 31
0.0
  0
LINE
  5
3450
330
1E
100
AcDbEntity
  8
OBJECT
100
AcDbLine
 10
4.817863420390484
 20
4.546933626298057
 30
0.0
 11
14.72060127039051
 21
4.546933626298057
 31
0.0
  0
LINE
  5
3455
330
1E
100
AcDbEntity
  8
BEND
 48
0.5
100
AcDbLine
 10
15.46730715619141
 20
4.672057749898057
 30
0.0
 11
14.84085656132562
 21
4.672057749898057
 31
0.0
  0
ARC
  5
3456
330
1E
100
AcDbEntity
  8
BEND
 48
0.5
100
AcDbCircle
 10
15.29066548142972
 20
4.734180527363862
 30
0.0
 40
0.1872472182508434
100
AcDbArc
 50
269.8945403437716
 51
340.6238327511102
  0
LINE
  5
3457
330
1E
100
AcDbEntity
  8
BEND
 48
0.5
100
AcDbLine
 10
15.29032083098105
 20
4.546933626298057
 30
0.0
 11
14.64832776157735
 21
4.546933626298057
 31
0.0
  0
TEXT
  5
345D
330
1E
100
AcDbEntity
  8
TEXT
100
AcDbText
 10
16.17408850684387
 20
8.74525607880345
 30
0.0
 40
0.281
  1
NOTE: ALL DIMENSIONS HAVE %%P0.010
 41
0.75
  7
TXT
100
AcDbText
  0
TEXT
  5
345E
330
1E
100
AcDbEntity
  8
TEXT
100
AcDbText
 10
16.17408850684387
 20
8.276922745470116
 30
0.0
 40
0.281
  1
 TOLERANCE UNLESS OTHERWISE
 41
0.75
  7
TXT
100
AcDbText
  0
TEXT
  5
345F
330
1E
100
AcDbEntity
  8
TEXT
100
AcDbText
 10
16.17408850684387
 20
7.808589412136782
 30
0.0
 40
0.281
  1
 SPECIFIED.
 41
0.75
  7
TXT
100
AcDbText
  0
VIEWPORT
  5
1E4
330
1A
100
AcDbEntity
 67
     1
  8
0
100
AcDbViewport
 10
6.0
 20
4.50943396226415
 30
0.0
 40
12.0
 41
9.018867924528301
 68
     1
 69
     1
1001
ACAD
1000
MVIEW
1002
{
1070
    16
1010
0.0
1020
0.0
1030
0.0
1010
0.0
1020
0.0
1030
1.0
1040
0.0
1040
9.018867924528301
1040
6.0
1040
4.50943396226415
1040
50.0
1040
0.0
1040
0.0
1070
     0
1070
  5000
1070
     1
1070
     1
1070
     0
1070
     0
1070
     0
1070
     0
1040
0.0
1040
0.0
1040
0.0
1040
1.0
1040
1.0
1040
0.0
1040
0.0
1070
     0
1002
{
1002
}
1002
}
  0
ENDSEC
  0
SECTION
  2
OBJECTS
  0
DICTIONARY
  5
C
330
0
100
AcDbDictionary
  3
ACAD_GROUP
350
D
  3
ACAD_LAYOUT
350
19
  3
ACAD_MLINESTYLE
350
16
  3
ACAD_PLOTSETTINGS
350
18
  3
ACAD_PLOTSTYLENAME
350
E
  3
ACADDIM
350
171C
  3
ASE_INDEX_DICTIONARY
350
3459
  3
ACDBHEADERROUNDTRIPXREC
350
346C
  0
DICTIONARY
  5
348F
330
1E
100
AcDbDictionary
280
     1
  3
ACAD_LAYOUTSELFREF
360
3490
  0
DICTIONARY
  5
348D
330
1A
100
AcDbDictionary
280
     1
  3
ACAD_LAYOUTSELFREF
360
348E
  0
DICTIONARY
  5
D
102
{ACAD_REACTORS
330
C
102
}
330
C
100
AcDbDictionary
  0
DICTIONARY
  5
19
102
{ACAD_REACTORS
330
C
102
}
330
C
100
AcDbDictionary
  0
DICTIONARY
  5
16
102
{ACAD_REACTORS
330
C
102
}
330
C
100
AcDbDictionary
  3
STANDARD
350
17
  0
DICTIONARY
  5
18
102
{ACAD_REACTORS
330
C
102
}
330
C
100
AcDbDictionary
  0
ACDBDICTIONARYWDFLT
  5
E
102
{ACAD_REACTORS
330
C
102
}
330
C
100
AcDbDictionary
281
     1
  3
Normal
350
F
100
AcDbDictionaryWithDefault
340
F
  0
XRECORD
  5
171C
102
{ACAD_REACTORS
330
C
102
}
330
C
100
AcDbXrecord
 90
   990106
  3

 60
     0
 61
     0
 62
     1
 63
     3
 64
     0
 65
     0
 66
     0
 67
     3
 68
     1
 69
     0
 70
     0
 71
     0
 72
     0
 40
0.09
170
     0
340
0
  0
DICTIONARY
  5
3459
102
{ACAD_REACTORS
330
C
102
}
330
C
100
AcDbDictionary
  3
ASEBLOCKHIERARCHYINDEXRECORD
350
345B
1001
DCO15
1040
1697785051.234
  0
DICTIONARY
  5
346C
102
{ACAD_REACTORS
330
C
102
}
330
C
100
AcDbDictionary
  3
TSTACKALIGN
350
346D
  3
TSTACKSIZE
350
346E
  3
HYPERLINKBASE
350
346F
  3
STYLESHEET
350
3470
  3
LAYOUTDICT
350
3471
  3
PLOTSETDICT
350
3472
  3
PLOTSTYLNAMDICT
350
3473
  3
LWETCUNION
350
3474
  3
INSUNITS
350
3475
  3
CEPSNTYPE
350
3476
  3
FINGERPRINTGUID
350
3477
  3
VERSIONGUID
350
3478
  3
PSVPSCALE
350
3479
  3
DIMSTYLEDATA
350
347A
  3
PUCSORTHOREF
350
347B
  3
PUCSORTHOVIEW
350
347C
  3
PUCSBASE
350
347D
  3
PUCSORGTOP
350
347E
  3
PUCSORGBOTTOM
350
347F
  3
PUCSORGLEFT
350
3480
  3
PUCSORGRIGHT
350
3481
  3
PUCSORGFRONT
350
3482
  3
PUCSORGBACK
350
3483
  3
UCSORTHOREF
350
3484
  3
UCSORTHOVIEW
350
3485
  3
UCSBASE
350
3486
  3
UCSORGTOP
350
3487
  3
UCSORGBOTTOM
350
3488
  3
UCSORGLEFT
350
3489
  3
UCSORGRIGHT
350
348A
  3
UCSORGFRONT
350
348B
  3
UCSORGBACK
350
348C
  0
XRECORD
  5
3490
102
{ACAD_REACTORS
330
348F
102
}
330
348F
100
AcDbXrecord
340
1E
  0
XRECORD
  5
348E
102
{ACAD_REACTORS
330
348D
102
}
330
348D
100
AcDbXrecord
340
1A
  0
MLINESTYLE
  5
17
102
{ACAD_REACTORS
330
16
102
}
330
16
100
AcDbMlineStyle
  2
STANDARD
 70
     0
  3

 62
   256
 51
90.0
 52
90.0
 71
     2
 49
0.5
 62
   256
  6
BYLAYER
 49
-0.5
 62
   256
  6
BYLAYER
  0
ACDBPLACEHOLDER
  5
F
102
{ACAD_REACTORS
330
E
102
}
330
E
100
AcDbPlaceHolder
280
     0
  0
XRECORD
  5
345B
102
{ACAD_REACTORS
330
3459
102
}
330
3459
100
AcDbXrecord
330
143E
  0
XRECORD
  5
346D
102
{ACAD_REACTORS
330
346C
102
}
330
346C
100
AcDbXrecord
 90
        1
  0
XRECORD
  5
346E
102
{ACAD_REACTORS
330
346C
102
}
330
346C
100
AcDbXrecord
 90
       70
  0
XRECORD
  5
346F
102
{ACAD_REACTORS
330
346C
102
}
330
346C
100
AcDbXrecord
  1

  0
XRECORD
  5
3470
102
{ACAD_REACTORS
330
346C
102
}
330
346C
100
AcDbXrecord
  1
monochrome.ctb
  0
XRECORD
  5
3471
102
{ACAD_REACTORS
330
346C
102
}
330
346C
100
AcDbXrecord
340
19
  0
XRECORD
  5
3472
102
{ACAD_REACTORS
330
346C
102
}
330
346C
100
AcDbXrecord
340
18
  0
XRECORD
  5
3473
102
{ACAD_REACTORS
330
346C
102
}
330
346C
100
AcDbXrecord
340
E
  0
XRECORD
  5
3474
102
{ACAD_REACTORS
330
346C
102
}
330
346C
100
AcDbXrecord
 90
    10781
  0
XRECORD
  5
3475
102
{ACAD_REACTORS
330
346C
102
}
330
346C
100
AcDbXrecord
 90
        0
  0
XRECORD
  5
3476
102
{ACAD_REACTORS
330
346C
102
}
330
346C
100
AcDbXrecord
 90
        0
  0
XRECORD
  5
3477
102
{ACAD_REACTORS
330
346C
102
}
330
346C
100
AcDbXrecord
  1
{9537BF74-DE25-11D3-8155-00C04F604D34}
  0
XRECORD
  5
3478
102
{ACAD_REACTORS
330
346C
102
}
330
346C
100
AcDbXrecord
  1
{76DB2FD8-9B51-450A-BAC9-45C6F725CED4}
  0
XRECORD
  5
3479
102
{ACAD_REACTORS
330
346C
102
}
330
346C
100
AcDbXrecord
 40
0.0
  0
XRECORD
  5
347A
102
{ACAD_REACTORS
330
346C
102
}
330
346C
100
AcDbXrecord
1000
DSTYLE
1002
{
1070
   289
 70
     1
1002
}
  0
XRECORD
  5
347B
102
{ACAD_REACTORS
330
346C
102
}
330
346C
100
AcDbXrecord
340
0
  0
XRECORD
  5
347C
102
{ACAD_REACTORS
330
346C
102
}
330
346C
100
AcDbXrecord
 70
     0
  0
XRECORD
  5
347D
102
{ACAD_REACTORS
330
346C
102
}
330
346C
100
AcDbXrecord
340
0
  0
XRECORD
  5
347E
102
{ACAD_REACTORS
330
346C
102
}
330
346C
100
AcDbXrecord
 10
0.0
 20
0.0
 30
0.0
  0
XRECORD
  5
347F
102
{ACAD_REACTORS
330
346C
102
}
330
346C
100
AcDbXrecord
 10
0.0
 20
0.0
 30
0.0
  0
XRECORD
  5
3480
102
{ACAD_REACTORS
330
346C
102
}
330
346C
100
AcDbXrecord
 10
0.0
 20
0.0
 30
0.0
  0
XRECORD
  5
3481
102
{ACAD_REACTORS
330
346C
102
}
330
346C
100
AcDbXrecord
 10
0.0
 20
0.0
 30
0.0
  0
XRECORD
  5
3482
102
{ACAD_REACTORS
330
346C
102
}
330
346C
100
AcDbXrecord
 10
0.0
 20
0.0
 30
0.0
  0
XRECORD
  5
3483
102
{ACAD_REACTORS
330
346C
102
}
330
346C
100
AcDbXrecord
 10
0.0
 20
0.0
 30
0.0
  0
XRECORD
  5
3484
102
{ACAD_REACTORS
330
346C
102
}
330
346C
100
AcDbXrecord
340
0
  0
XRECORD
  5
3485
102
{ACAD_REACTORS
330
346C
102
}
330
346C
100
AcDbXrecord
 70
     0
  0
XRECORD
  5
3486
102
{ACAD_REACTORS
330
346C
102
}
330
346C
100
AcDbXrecord
340
0
  0
XRECORD
  5
3487
102
{ACAD_REACTORS
330
346C
102
}
330
346C
100
AcDbXrecord
 10
0.0
 20
0.0
 30
0.0
  0
XRECORD
  5
3488
102
{ACAD_REACTORS
330
346C
102
}
330
346C
100
AcDbXrecord
 10
0.0
 20
0.0
 30
0.0
  0
XRECORD
  5
3489
102
{ACAD_REACTORS
330
346C
102
}
330
346C
100
AcDbXrecord
 10
0.0
 20
0.0
 30
0.0
  0
XRECORD
  5
348A
102
{ACAD_REACTORS
330
346C
102
}
330
346C
100
AcDbXrecord
 10
0.0
 20
0.0
 30
0.0
  0
XRECORD
  5
348B
102
{ACAD_REACTORS
330
346C
102
}
330
346C
100
AcDbXrecord
 10
0.0
 20
0.0
 30
0.0
  0
XRECORD
  5
348C
102
{ACAD_REACTORS
330
346C
102
}
330
346C
100
AcDbXrecord
 10
0.0
 20
0.0
 30
0.0
  0
ENDSEC
  0
EOF
