  0
SECTION
  2
HEADER
  9
$ACADVER
  1
AC1009
  9
$INSBASE
 10
0.0
 20
0.0
 30
0.0
  9
$EXTMIN
 10
0.0
 20
0.0
 30
0.0
  9
$EXTMAX
 10
16.445
 20
25.1875
 30
0.0
  9
$LIMMIN
 10
0.0
 20
0.0
  9
$LIMMAX
 10
75.0
 20
50.0
  9
$ORTHOMODE
 70
     1
  9
$REGENMODE
 70
     1
  9
$FILLMODE
 70
     1
  9
$QTEXTMODE
 70
     0
  9
$MIRRTEXT
 70
     0
  9
$DRAGMODE
 70
     2
  9
$LTSCALE
 40
0.375
  9
$OSMODE
 70
     0
  9
$ATTMODE
 70
     1
  9
$TEXTSIZE
 40
0.203
  9
$TRACEWID
 40
0.05
  9
$TEXTSTYLE
  7
TXT
  9
$CLAYER
  8
OBJECT
  9
$CELTYPE
  6
BYLAYER
  9
$CECOLOR
 62
   256
  9
$DIMSCALE
 40
1.625
  9
$DIMASZ
 40
0.18
  9
$DIMEXO
 40
0.063
  9
$DIMDLI
 40
0.281
  9
$DIMRND
 40
0.0
  9
$DIMDLE
 40
0.0
  9
$DIMEXE
 40
0.093
  9
$DIMTP
 40
0.0
  9
$DIMTM
 40
0.0
  9
$DIMTXT
 40
0.125
  9
$DIMCEN
 40
0.09
  9
$DIMTSZ
 40
0.0
  9
$DIMTOL
 70
     0
  9
$DIMLIM
 70
     0
  9
$DIMTIH
 70
     1
  9
$DIMTOH
 70
     1
  9
$DIMSE1
 70
     0
  9
$DIMSE2
 70
     0
  9
$DIMTAD
 70
     0
  9
$DIMZIN
 70
     0
  9
$DIMBLK
  1

  9
$DIMASO
 70
     1
  9
$DIMSHO
 70
     1
  9
$DIMPOST
  1

  9
$DIMAPOST
  1

  9
$DIMALT
 70
     0
  9
$DIMALTD
 70
     2
  9
$DIMALTF
 40
25.4
  9
$DIMLFAC
 40
1.0
  9
$DIMTOFL
 70
     0
  9
$DIMTVP
 40
0.0
  9
$DIMTIX
 70
     1
  9
$DIMSOXD
 70
     0
  9
$DIMSAH
 70
     0
  9
$DIMBLK1
  1

  9
$DIMBLK2
  1

  9
$DIMSTYLE
  2
STDI
  9
$DIMCLRD
 70
     0
  9
$DIMCLRE
 70
     0
  9
$DIMCLRT
 70
     0
  9
$DIMTFAC
 40
1.0
  9
$DIMGAP
 40
0.09
  9
$LUNITS
 70
     2
  9
$LUPREC
 70
     3
  9
$SKETCHINC
 40
0.1
  9
$FILLETRAD
 40
0.0
  9
$AUNITS
 70
     0
  9
$AUPREC
 70
     3
  9
$MENU
  1
acad
  9
$ELEVATION
 40
0.0
  9
$PELEVATION
 40
0.0
  9
$THICKNESS
 40
0.0
  9
$LIMCHECK
 70
     0
  9
$BLIPMODE
 70
     1
  9
$CHAMFERA
 40
0.0
  9
$CHAMFERB
 40
0.0
  9
$SKPOLY
 70
     0
  9
$TDCREATE
 40
2449828.396005787
  9
$TDUPDATE
 40
2449833.409838888
  9
$TDINDWG
 40
0.0282697917
  9
$TDUSRTIMER
 40
0.0282697917
  9
$USRTIMER
 70
     1
  9
$ANGBASE
 50
0.0
  9
$ANGDIR
 70
     0
  9
$PDMODE
 70
     0
  9
$PDSIZE
 40
0.0
  9
$PLINEWID
 40
0.0
  9
$COORDS
 70
     0
  9
$SPLFRAME
 70
     0
  9
$SPLINETYPE
 70
     6
  9
$SPLINESEGS
 70
     8
  9
$ATTDIA
 70
     0
  9
$ATTREQ
 70
     1
  9
$HANDLING
 70
     0
  9
$HANDSEED
  5
0
  9
$SURFTAB1
 70
     6
  9
$SURFTAB2
 70
     6
  9
$SURFTYPE
 70
     6
  9
$SURFU
 70
     6
  9
$SURFV
 70
     6
  9
$UCSNAME
  2

  9
$UCSORG
 10
0.0
 20
0.0
 30
0.0
  9
$UCSXDIR
 10
1.0
 20
0.0
 30
0.0
  9
$UCSYDIR
 10
0.0
 20
1.0
 30
0.0
  9
$PUCSNAME
  2

  9
$PUCSORG
 10
0.0
 20
0.0
 30
0.0
  9
$PUCSXDIR
 10
1.0
 20
0.0
 30
0.0
  9
$PUCSYDIR
 10
0.0
 20
1.0
 30
0.0
  9
$USERI1
 70
     0
  9
$USERI2
 70
     0
  9
$USERI3
 70
     0
  9
$USERI4
 70
     0
  9
$USERI5
 70
     0
  9
$USERR1
 40
0.0
  9
$USERR2
 40
0.0
  9
$USERR3
 40
0.0
  9
$USERR4
 40
0.0
  9
$USERR5
 40
0.0
  9
$WORLDVIEW
 70
     1
  9
$SHADEDGE
 70
     3
  9
$SHADEDIF
 70
    70
  9
$TILEMODE
 70
     1
  9
$MAXACTVP
 70
    16
  9
$PINSBASE
 10
0.0
 20
0.0
 30
0.0
  9
$PLIMCHECK
 70
     0
  9
$PEXTMIN
 10
1.000000E+20
 20
1.000000E+20
 30
1.000000E+20
  9
$PEXTMAX
 10
-1.000000E+20
 20
-1.000000E+20
 30
-1.000000E+20
  9
$PLIMMIN
 10
0.0
 20
0.0
  9
$PLIMMAX
 10
12.0
 20
9.0
  9
$UNITMODE
 70
     0
  9
$VISRETAIN
 70
     0
  9
$PLINEGEN
 70
     0
  9
$PSLTSCALE
 70
     1
  9
$TREEDEPTH
 70
  3020
  9
$DWGCODEPAGE
  3
ascii
  0
ENDSEC
  0
SECTION
  2
TABLES
  0
TABLE
  2
VPORT
 70
     2
  0
VPORT
  2
*ACTIVE
 70
     0
 10
0.0
 20
0.0
 11
1.0
 21
1.0
 12
17.156963
 22
12.59375
 13
0.0
 23
0.0
 14
1.0
 24
1.0
 15
0.0
 25
0.0
 16
0.0
 26
0.0
 36
1.0
 17
0.0
 27
0.0
 37
0.0
 40
25.1875
 41
1.36234
 42
50.0
 43
0.0
 44
0.0
 50
0.0
 51
0.0
 71
     0
 72
   100
 73
     1
 74
     0
 75
     0
 76
     0
 77
     0
 78
     0
  0
ENDTAB
  0
TABLE
  2
LTYPE
 70
     4
  0
LTYPE
  2
CONTINUOUS
 70
    64
  3
Solid line
 72
    65
 73
     0
 40
0.0
  0
LTYPE
  2
HIDDEN
 70
    64
  3
_ _ _ _ _ _ _ _ _ _ _ _ _ _ _ _ _ _ _ _ _ _ _
 72
    65
 73
     2
 40
0.375
 49
0.25
 49
-0.125
  0
LTYPE
  2
PHANTOM
 70
    64
  3
_____ _ _ _____ _ _ _____ _ _ _____ _ _ ____
 72
    65
 73
     6
 40
2.5
 49
1.25
 49
-0.25
 49
0.25
 49
-0.25
 49
0.25
 49
-0.25
  0
LTYPE
  2
CENTER
 70
    64
  3
____ _ ____ _ ____ _ ____ _ ____ _ ____ _ ____
 72
    65
 73
     4
 40
2.0
 49
1.25
 49
-0.25
 49
0.25
 49
-0.25
  0
ENDTAB
  0
TABLE
  2
LAYER
 70
     9
  0
LAYER
  2
0
 70
    64
 62
     7
  6
CONTINUOUS
  0
LAYER
  2
OBJECT
 70
    64
 62
     7
  6
CONTINUOUS
  0
LAYER
  2
DIM
 70
    64
 62
     7
  6
CONTINUOUS
  0
LAYER
  2
HIDDEN
 70
    64
 62
     7
  6
HIDDEN
  0
LAYER
  2
BEND
 70
    64
 62
     7
  6
PHANTOM
  0
LAYER
  2
TEXT
 70
    64
 62
     7
  6
CONTINUOUS
  0
LAYER
  2
TITLE
 70
    64
 62
     7
  6
CONTINUOUS
  0
LAYER
  2
CENTER
 70
    64
 62
     7
  6
CENTER
  0
LAYER
  2
DEFPOINTS
 70
    64
 62
     7
  6
CONTINUOUS
  0
ENDTAB
  0
TABLE
  2
STYLE
 70
     2
  0
STYLE
  2
STANDARD
 70
    64
 40
0.0
 41
1.0
 50
0.0
 71
     0
 42
0.2
  3
txt
  4

  0
STYLE
  2
TXT
 70
    64
 40
0.0
 41
0.75
 50
0.0
 71
     0
 42
0.203
  3
TXT.shx
  4

  0
ENDTAB
  0
TABLE
  2
VIEW
 70
     0
  0
ENDTAB
  0
TABLE
  2
UCS
 70
     0
  0
ENDTAB
  0
TABLE
  2
APPID
 70
     1
  0
APPID
  2
ACAD
 70
    64
  0
ENDTAB
  0
TABLE
  2
DIMSTYLE
 70
     3
  0
DIMSTYLE
  2
STD
 70
    64
  3

  4

  5

  6

  7

 40
1.625
 41
0.18
 42
0.063
 43
0.281
 44
0.093
 45
0.0
 46
0.0
 47
0.0
 48
0.0
140
0.125
141
0.09
142
0.0
143
25.4
144
1.0
145
0.0
146
1.0
147
0.09
 71
     0
 72
     0
 73
     1
 74
     1
 75
     0
 76
     0
 77
     0
 78
     0
170
     0
171
     2
172
     0
173
     0
174
     0
175
     0
176
     0
177
     0
178
     0
  0
DIMSTYLE
  2
DIM
 70
    64
  3

  4

  5

  6

  7

 40
1.625
 41
0.18
 42
0.063
 43
0.281
 44
0.093
 45
0.0
 46
0.0
 47
0.0
 48
0.0
140
0.125
141
0.09
142
0.0
143
25.4
144
1.0
145
0.0
146
1.0
147
0.09
 71
     0
 72
     0
 73
     1
 74
     1
 75
     0
 76
     0
 77
     0
 78
     0
170
     0
171
     2
172
     0
173
     0
174
     1
175
     0
176
     0
177
     0
178
     0
  0
DIMSTYLE
  2
STDI
 70
    64
  3

  4

  5

  6

  7

 40
1.625
 41
0.18
 42
0.063
 43
0.281
 44
0.093
 45
0.0
 46
0.0
 47
0.0
 48
0.0
140
0.125
141
0.09
142
0.0
143
25.4
144
1.0
145
0.0
146
1.0
147
0.09
 71
     0
 72
     0
 73
     1
 74
     1
 75
     0
 76
     0
 77
     0
 78
     0
170
     0
171
     2
172
     0
173
     0
174
     1
175
     0
176
     0
177
     0
178
     0
  0
ENDTAB
  0
ENDSEC
  0
SECTION
  2
BLOCKS
  0
BLOCK
  8
0
  2
HB
 70
    64
 10
0.0
 20
0.0
 30
0.0
  3
HB
  0
TEXT
  8
TEXT
 10
0.207833
 20
15.060079
 30
0.0
 40
0.125
  1
NAME
 72
     1
 11
0.437
 21
15.060079
 31
0.0
  0
TEXT
  8
TEXT
 10
0.207833
 20
15.268413
 30
0.0
 40
0.125
  1
PART
 72
     1
 11
0.437
 21
15.268413
 31
0.0
  0
TEXT
  8
TEXT
 10
5.372
 20
15.060079
 30
0.0
 40
0.125
  1
No.
 72
     1
 11
5.497
 21
15.060079
 31
0.0
  0
TEXT
  8
TEXT
 10
5.267833
 20
15.268413
 30
0.0
 40
0.125
  1
PART
 72
     1
 11
5.497
 21
15.268413
 31
0.0
  0
LINE
  8
TITLE
 10
5.872
 20
15.438
 30
0.0
 11
5.872
 21
15.02
 31
0.0
  0
LINE
  8
TITLE
 10
5.122
 20
15.438
 30
0.0
 11
5.122
 21
15.02
 31
0.0
  0
LINE
  8
TITLE
 10
5.06
 20
15.438
 30
0.0
 11
5.06
 21
15.02
 31
0.0
  0
LINE
  8
TITLE
 10
0.812
 20
15.02
 30
0.0
 11
0.812
 21
15.438
 31
0.0
  0
LINE
  8
TITLE
 10
0.062
 20
15.02
 30
0.0
 11
10.058
 21
15.02
 31
0.0
  0
LINE
  8
TITLE
 10
10.058
 20
0.062
 30
0.0
 11
0.062
 21
0.062
 31
0.0
  0
LINE
  8
TITLE
 10
10.058
 20
15.438
 30
0.0
 11
10.058
 21
0.062
 31
0.0
  0
LINE
  8
TITLE
 10
0.062
 20
15.438
 30
0.0
 11
10.058
 21
15.438
 31
0.0
  0
LINE
  8
TITLE
 10
0.062
 20
0.062
 30
0.0
 11
0.062
 21
15.438
 31
0.0
  0
LINE
  8
TITLE
 10
0.0
 20
0.0
 30
0.0
 11
0.0
 21
15.5
 31
0.0
  0
LINE
  8
TITLE
 10
10.12
 20
0.0
 30
0.0
 11
0.0
 21
0.0
 31
0.0
  0
LINE
  8
TITLE
 10
10.12
 20
15.5
 30
0.0
 11
10.12
 21
0.0
 31
0.0
  0
LINE
  8
TITLE
 10
0.0
 20
15.5
 30
0.0
 11
10.12
 21
15.5
 31
0.0
  0
ENDBLK
  8
0
  0
BLOCK
  8
0
  2
*D1
 70
    65
 10
0.0
 20
0.0
 30
0.0
  3
*D
  0
LINE
  8
0
  6
BYBLOCK
 62
     0
 10
4.7882
 20
9.23619
 30
0.0
 11
4.7882
 21
10.239603
 31
0.0
  0
LINE
  8
0
  6
BYBLOCK
 62
     0
 10
2.8192
 20
9.23619
 30
0.0
 11
2.8192
 21
10.239603
 31
0.0
  0
LINE
  8
0
  6
BYBLOCK
 62
     0
 10
4.4957
 20
10.088478
 30
0.0
 11
4.229247
 21
10.088478
 31
0.0
  0
LINE
  8
0
  6
BYBLOCK
 62
     0
 10
3.1117
 20
10.088478
 30
0.0
 11
3.378154
 21
10.088478
 31
0.0
  0
SOLID
  8
0
  6
BYBLOCK
 62
     0
 10
4.4957
 20
10.137228
 30
0.0
 11
4.4957
 21
10.039728
 31
0.0
 12
4.7882
 22
10.088478
 32
0.0
 13
4.7882
 23
10.088478
 33
0.0
  0
SOLID
  8
0
  6
BYBLOCK
 62
     0
 10
3.1117
 20
10.137228
 30
0.0
 11
3.1117
 21
10.039728
 31
0.0
 12
2.8192
 22
10.088478
 32
0.0
 13
2.8192
 23
10.088478
 33
0.0
  0
TEXT
  8
0
  6
BYBLOCK
 62
     0
 10
3.524404
 20
9.986916
 30
0.0
 40
0.203125
  1
1.969
 41
0.75
  7
TXT
 72
     1
 11
3.8037
 21
10.088478
 31
0.0
 73
     2
  0
POINT
  8
DEFPOINTS
  6
BYBLOCK
 62
     0
 10
4.7882
 20
9.133815
 30
0.0
  0
POINT
  8
DEFPOINTS
  6
BYBLOCK
 62
     0
 10
2.8192
 20
9.133815
 30
0.0
  0
POINT
  8
DEFPOINTS
  6
BYBLOCK
 62
     0
 10
2.8192
 20
10.088478
 30
0.0
  0
ENDBLK
  8
0
  0
BLOCK
  8
0
  2
*D2
 70
    65
 10
0.0
 20
0.0
 30
0.0
  3
*D
  0
LINE
  8
0
  6
BYBLOCK
 62
     0
 10
13.23782
 20
9.37419
 30
0.0
 11
13.23782
 21
10.239603
 31
0.0
  0
LINE
  8
0
  6
BYBLOCK
 62
     0
 10
15.20682
 20
9.37419
 30
0.0
 11
15.20682
 21
10.239603
 31
0.0
  0
LINE
  8
0
  6
BYBLOCK
 62
     0
 10
13.53032
 20
10.088478
 30
0.0
 11
13.796773
 21
10.088478
 31
0.0
  0
LINE
  8
0
  6
BYBLOCK
 62
     0
 10
14.91432
 20
10.088478
 30
0.0
 11
14.647867
 21
10.088478
 31
0.0
  0
SOLID
  8
0
  6
BYBLOCK
 62
     0
 10
13.53032
 20
10.137228
 30
0.0
 11
13.53032
 21
10.039728
 31
0.0
 12
13.23782
 22
10.088478
 32
0.0
 13
13.23782
 23
10.088478
 33
0.0
  0
SOLID
  8
0
  6
BYBLOCK
 62
     0
 10
14.91432
 20
10.137228
 30
0.0
 11
14.91432
 21
10.039728
 31
0.0
 12
15.20682
 22
10.088478
 32
0.0
 13
15.20682
 23
10.088478
 33
0.0
  0
TEXT
  8
0
  6
BYBLOCK
 62
     0
 10
13.943023
 20
9.986916
 30
0.0
 40
0.203125
  1
1.969
 41
0.75
  7
TXT
 72
     1
 11
14.22232
 21
10.088478
 31
0.0
 73
     2
  0
POINT
  8
DEFPOINTS
  6
BYBLOCK
 62
     0
 10
13.23782
 20
9.271815
 30
0.0
  0
POINT
  8
DEFPOINTS
  6
BYBLOCK
 62
     0
 10
15.20682
 20
9.271815
 30
0.0
  0
POINT
  8
DEFPOINTS
  6
BYBLOCK
 62
     0
 10
15.20682
 20
10.088478
 30
0.0
  0
ENDBLK
  8
0
  0
BLOCK
  8
0
  2
*D3
 70
    65
 10
0.0
 20
0.0
 30
0.0
  3
*D
  0
LINE
  8
0
  6
BYBLOCK
 62
     0
 10
12.63782
 20
6.25644
 30
0.0
 11
12.63782
 21
5.591709
 31
0.0
  0
LINE
  8
0
  6
BYBLOCK
 62
     0
 10
15.80682
 20
6.25644
 30
0.0
 11
15.80682
 21
5.591709
 31
0.0
  0
LINE
  8
0
  6
BYBLOCK
 62
     0
 10
12.93032
 20
5.742834
 30
0.0
 11
13.996542
 21
5.742834
 31
0.0
  0
LINE
  8
0
  6
BYBLOCK
 62
     0
 10
15.51432
 20
5.742834
 30
0.0
 11
14.847636
 21
5.742834
 31
0.0
  0
SOLID
  8
0
  6
BYBLOCK
 62
     0
 10
12.93032
 20
5.791584
 30
0.0
 11
12.93032
 21
5.694084
 31
0.0
 12
12.63782
 22
5.742834
 32
0.0
 13
12.63782
 23
5.742834
 33
0.0
  0
SOLID
  8
0
  6
BYBLOCK
 62
     0
 10
15.51432
 20
5.791584
 30
0.0
 11
15.51432
 21
5.694084
 31
0.0
 12
15.80682
 22
5.742834
 32
0.0
 13
15.80682
 23
5.742834
 33
0.0
  0
TEXT
  8
0
  6
BYBLOCK
 62
     0
 10
14.142792
 20
5.641272
 30
0.0
 40
0.203125
  1
3.169
 41
0.75
  7
TXT
 72
     1
 11
14.422089
 21
5.742834
 31
0.0
 73
     2
  0
POINT
  8
DEFPOINTS
  6
BYBLOCK
 62
     0
 10
12.63782
 20
6.358815
 30
0.0
  0
POINT
  8
DEFPOINTS
  6
BYBLOCK
 62
     0
 10
15.80682
 20
6.358815
 30
0.0
  0
POINT
  8
DEFPOINTS
  6
BYBLOCK
 62
     0
 10
15.80682
 20
5.742834
 30
0.0
  0
ENDBLK
  8
0
  0
BLOCK
  8
0
  2
*D4
 70
    65
 10
0.0
 20
0.0
 30
0.0
  3
*D
  0
LINE
  8
0
  6
BYBLOCK
 62
     0
 10
9.031947
 20
9.74819
 30
0.0
 11
9.031947
 21
10.239603
 31
0.0
  0
LINE
  8
0
  6
BYBLOCK
 62
     0
 10
8.440947
 20
9.578531
 30
0.0
 11
8.440947
 21
10.239603
 31
0.0
  0
LINE
  8
0
  6
BYBLOCK
 62
     0
 10
9.324447
 20
10.088478
 30
0.0
 11
9.616947
 21
10.088478
 31
0.0
  0
LINE
  8
0
  6
BYBLOCK
 62
     0
 10
8.148447
 20
10.088478
 30
0.0
 11
7.855947
 21
10.088478
 31
0.0
  0
SOLID
  8
0
  6
BYBLOCK
 62
     0
 10
9.324447
 20
10.137228
 30
0.0
 11
9.324447
 21
10.039728
 31
0.0
 12
9.031947
 22
10.088478
 32
0.0
 13
9.031947
 23
10.088478
 33
0.0
  0
SOLID
  8
0
  6
BYBLOCK
 62
     0
 10
8.148447
 20
10.137228
 30
0.0
 11
8.148447
 21
10.039728
 31
0.0
 12
8.440947
 22
10.088478
 32
0.0
 13
8.440947
 23
10.088478
 33
0.0
  0
TEXT
  8
0
  6
BYBLOCK
 62
     0
 10
7.176494
 20
9.986916
 30
0.0
 40
0.203125
  1
0.591
 41
0.75
  7
TXT
 72
     1
 11
7.443096
 21
10.088478
 31
0.0
 73
     2
  0
POINT
  8
DEFPOINTS
  6
BYBLOCK
 62
     0
 10
9.031947
 20
9.645815
 30
0.0
  0
POINT
  8
DEFPOINTS
  6
BYBLOCK
 62
     0
 10
8.440947
 20
9.476156
 30
0.0
  0
POINT
  8
DEFPOINTS
  6
BYBLOCK
 62
     0
 10
8.440947
 20
10.088478
 30
0.0
  0
ENDBLK
  8
0
  0
BLOCK
  8
0
  2
*D5
 70
    65
 10
0.0
 20
0.0
 30
0.0
  3
*D
  0
LINE
  8
0
  6
BYBLOCK
 62
     0
 10
5.1427
 20
2.72044
 30
0.0
 11
5.1427
 21
1.88869
 31
0.0
  0
LINE
  8
0
  6
BYBLOCK
 62
     0
 10
2.4647
 20
2.72044
 30
0.0
 11
2.4647
 21
1.88869
 31
0.0
  0
LINE
  8
0
  6
BYBLOCK
 62
     0
 10
4.8502
 20
2.039815
 30
0.0
 11
4.254638
 21
2.039815
 31
0.0
  0
LINE
  8
0
  6
BYBLOCK
 62
     0
 10
2.7572
 20
2.039815
 30
0.0
 11
3.352763
 21
2.039815
 31
0.0
  0
SOLID
  8
0
  6
BYBLOCK
 62
     0
 10
4.8502
 20
2.088565
 30
0.0
 11
4.8502
 21
1.991065
 31
0.0
 12
5.1427
 22
2.039815
 32
0.0
 13
5.1427
 23
2.039815
 33
0.0
  0
SOLID
  8
0
  6
BYBLOCK
 62
     0
 10
2.7572
 20
2.088565
 30
0.0
 11
2.7572
 21
1.991065
 31
0.0
 12
2.4647
 22
2.039815
 32
0.0
 13
2.4647
 23
2.039815
 33
0.0
  0
TEXT
  8
0
  6
BYBLOCK
 62
     0
 10
3.499013
 20
1.938252
 30
0.0
 40
0.203125
  1
2.678
 41
0.75
  7
TXT
 72
     1
 11
3.8037
 21
2.039815
 31
0.0
 73
     2
  0
POINT
  8
DEFPOINTS
  6
BYBLOCK
 62
     0
 10
5.1427
 20
2.822815
 30
0.0
  0
POINT
  8
DEFPOINTS
  6
BYBLOCK
 62
     0
 10
2.4647
 20
2.822815
 30
0.0
  0
POINT
  8
DEFPOINTS
  6
BYBLOCK
 62
     0
 10
2.4647
 20
2.039815
 30
0.0
  0
ENDBLK
  8
0
  0
BLOCK
  8
0
  2
*D6
 70
    65
 10
0.0
 20
0.0
 30
0.0
  3
*D
  0
LINE
  8
0
  6
BYBLOCK
 62
     0
 10
16.07482
 20
8.222633
 30
0.0
 11
16.07482
 21
8.003346
 31
0.0
  0
LINE
  8
0
  6
BYBLOCK
 62
     0
 10
12.36982
 20
8.222633
 30
0.0
 11
12.36982
 21
8.003346
 31
0.0
  0
LINE
  8
0
  6
BYBLOCK
 62
     0
 10
15.78232
 20
8.154471
 30
0.0
 11
14.860331
 21
8.154471
 31
0.0
  0
LINE
  8
0
  6
BYBLOCK
 62
     0
 10
12.66232
 20
8.154471
 30
0.0
 11
13.983847
 21
8.154471
 31
0.0
  0
SOLID
  8
0
  6
BYBLOCK
 62
     0
 10
15.78232
 20
8.203221
 30
0.0
 11
15.78232
 21
8.105721
 31
0.0
 12
16.07482
 22
8.154471
 32
0.0
 13
16.07482
 23
8.154471
 33
0.0
  0
SOLID
  8
0
  6
BYBLOCK
 62
     0
 10
12.66232
 20
8.203221
 30
0.0
 11
12.66232
 21
8.105721
 31
0.0
 12
12.36982
 22
8.154471
 32
0.0
 13
12.36982
 23
8.154471
 33
0.0
  0
TEXT
  8
0
  6
BYBLOCK
 62
     0
 10
14.130097
 20
8.052908
 30
0.0
 40
0.203125
  1
3.705
 41
0.75
  7
TXT
 72
     1
 11
14.422089
 21
8.154471
 31
0.0
 73
     2
  0
POINT
  8
DEFPOINTS
  6
BYBLOCK
 62
     0
 10
16.07482
 20
8.325008
 30
0.0
  0
POINT
  8
DEFPOINTS
  6
BYBLOCK
 62
     0
 10
12.36982
 20
8.325008
 30
0.0
  0
POINT
  8
DEFPOINTS
  6
BYBLOCK
 62
     0
 10
12.36982
 20
8.154471
 30
0.0
  0
ENDBLK
  8
0
  0
BLOCK
  8
0
  2
*D7
 70
    65
 10
0.0
 20
0.0
 30
0.0
  3
*D
  0
LINE
  8
0
  6
BYBLOCK
 62
     0
 10
8.759947
 20
6.72844
 30
0.0
 11
8.759947
 21
6.419104
 31
0.0
  0
LINE
  8
0
  6
BYBLOCK
 62
     0
 10
8.440947
 20
6.534359
 30
0.0
 11
8.440947
 21
6.419104
 31
0.0
  0
LINE
  8
0
  6
BYBLOCK
 62
     0
 10
9.052447
 20
6.570229
 30
0.0
 11
9.344947
 21
6.570229
 31
0.0
  0
LINE
  8
0
  6
BYBLOCK
 62
     0
 10
8.148447
 20
6.570229
 30
0.0
 11
7.855947
 21
6.570229
 31
0.0
  0
SOLID
  8
0
  6
BYBLOCK
 62
     0
 10
9.052447
 20
6.618979
 30
0.0
 11
9.052447
 21
6.521479
 31
0.0
 12
8.759947
 22
6.570229
 32
0.0
 13
8.759947
 23
6.570229
 33
0.0
  0
SOLID
  8
0
  6
BYBLOCK
 62
     0
 10
8.148447
 20
6.618979
 30
0.0
 11
8.148447
 21
6.521479
 31
0.0
 12
8.440947
 22
6.570229
 32
0.0
 13
8.440947
 23
6.570229
 33
0.0
  0
TEXT
  8
0
  6
BYBLOCK
 62
     0
 10
7.176494
 20
6.468667
 30
0.0
 40
0.203125
  1
0.319
 41
0.75
  7
TXT
 72
     1
 11
7.443096
 21
6.570229
 31
0.0
 73
     2
  0
POINT
  8
DEFPOINTS
  6
BYBLOCK
 62
     0
 10
8.759947
 20
6.830815
 30
0.0
  0
POINT
  8
DEFPOINTS
  6
BYBLOCK
 62
     0
 10
8.440947
 20
6.636734
 30
0.0
  0
POINT
  8
DEFPOINTS
  6
BYBLOCK
 62
     0
 10
8.440947
 20
6.570229
 30
0.0
  0
ENDBLK
  8
0
  0
BLOCK
  8
0
  2
*D8
 70
    65
 10
0.0
 20
0.0
 30
0.0
  3
*D
  0
LINE
  8
0
  6
BYBLOCK
 62
     0
 10
9.740947
 20
7.56319
 30
0.0
 11
9.740947
 21
8.058321
 31
0.0
  0
LINE
  8
0
  6
BYBLOCK
 62
     0
 10
10.015947
 20
7.866217
 30
0.0
 11
10.015947
 21
8.058321
 31
0.0
  0
LINE
  8
0
  6
BYBLOCK
 62
     0
 10
9.448447
 20
7.907196
 30
0.0
 11
9.155947
 21
7.907196
 31
0.0
  0
LINE
  8
0
  6
BYBLOCK
 62
     0
 10
10.308447
 20
7.907196
 30
0.0
 11
10.600947
 21
7.907196
 31
0.0
  0
SOLID
  8
0
  6
BYBLOCK
 62
     0
 10
9.448447
 20
7.955946
 30
0.0
 11
9.448447
 21
7.858446
 31
0.0
 12
9.740947
 22
7.907196
 32
0.0
 13
9.740947
 23
7.907196
 33
0.0
  0
SOLID
  8
0
  6
BYBLOCK
 62
     0
 10
10.308447
 20
7.955946
 30
0.0
 11
10.308447
 21
7.858446
 31
0.0
 12
10.015947
 22
7.907196
 32
0.0
 13
10.015947
 23
7.907196
 33
0.0
  0
TEXT
  8
0
  6
BYBLOCK
 62
     0
 10
10.747197
 20
7.805634
 30
0.0
 40
0.203125
  1
0.275
 41
0.75
  7
TXT
 72
     1
 11
11.03919
 21
7.907196
 31
0.0
 73
     2
  0
POINT
  8
DEFPOINTS
  6
BYBLOCK
 62
     0
 10
9.740947
 20
7.460815
 30
0.0
  0
POINT
  8
DEFPOINTS
  6
BYBLOCK
 62
     0
 10
10.015947
 20
7.763842
 30
0.0
  0
POINT
  8
DEFPOINTS
  6
BYBLOCK
 62
     0
 10
10.015947
 20
7.907196
 30
0.0
  0
ENDBLK
  8
0
  0
BLOCK
  8
0
  2
*D9
 70
    65
 10
0.0
 20
0.0
 30
0.0
  3
*D
  0
LINE
  8
0
  6
BYBLOCK
 62
     0
 10
8.759947
 20
5.61419
 30
0.0
 11
8.759947
 21
6.068221
 31
0.0
  0
LINE
  8
0
  6
BYBLOCK
 62
     0
 10
9.740947
 20
6.13844
 30
0.0
 11
9.740947
 21
5.765971
 31
0.0
  0
LINE
  8
0
  6
BYBLOCK
 62
     0
 10
8.467447
 20
5.917096
 30
0.0
 11
8.174947
 21
5.917096
 31
0.0
  0
LINE
  8
0
  6
BYBLOCK
 62
     0
 10
10.033447
 20
5.917096
 30
0.0
 11
10.325947
 21
5.917096
 31
0.0
  0
SOLID
  8
0
  6
BYBLOCK
 62
     0
 10
8.467447
 20
5.965846
 30
0.0
 11
8.467447
 21
5.868346
 31
0.0
 12
8.759947
 22
5.917096
 32
0.0
 13
8.759947
 23
5.917096
 33
0.0
  0
SOLID
  8
0
  6
BYBLOCK
 62
     0
 10
10.033447
 20
5.965846
 30
0.0
 11
10.033447
 21
5.868346
 31
0.0
 12
9.740947
 22
5.917096
 32
0.0
 13
9.740947
 23
5.917096
 33
0.0
  0
TEXT
  8
0
  6
BYBLOCK
 62
     0
 10
10.472197
 20
5.815533
 30
0.0
 40
0.203125
  1
0.981
 41
0.75
  7
TXT
 72
     1
 11
10.738799
 21
5.917096
 31
0.0
 73
     2
  0
POINT
  8
DEFPOINTS
  6
BYBLOCK
 62
     0
 10
8.759947
 20
5.511815
 30
0.0
  0
POINT
  8
DEFPOINTS
  6
BYBLOCK
 62
     0
 10
9.740947
 20
6.240815
 30
0.0
  0
POINT
  8
DEFPOINTS
  6
BYBLOCK
 62
     0
 10
9.740947
 20
5.917096
 30
0.0
  0
ENDBLK
  8
0
  0
BLOCK
  8
0
  2
*D10
 70
    65
 10
0.0
 20
0.0
 30
0.0
  3
*D
  0
LINE
  8
0
  6
BYBLOCK
 62
     0
 10
9.943947
 20
5.063552
 30
0.0
 11
9.943947
 21
4.902856
 31
0.0
  0
LINE
  8
0
  6
BYBLOCK
 62
     0
 10
8.585947
 20
5.063552
 30
0.0
 11
8.585947
 21
4.902856
 31
0.0
  0
LINE
  8
0
  6
BYBLOCK
 62
     0
 10
10.236447
 20
5.053981
 30
0.0
 11
10.528947
 21
5.053981
 31
0.0
  0
LINE
  8
0
  6
BYBLOCK
 62
     0
 10
8.293447
 20
5.053981
 30
0.0
 11
8.000947
 21
5.053981
 31
0.0
  0
SOLID
  8
0
  6
BYBLOCK
 62
     0
 10
10.236447
 20
5.102731
 30
0.0
 11
10.236447
 21
5.005231
 31
0.0
 12
9.943947
 22
5.053981
 32
0.0
 13
9.943947
 23
5.053981
 33
0.0
  0
SOLID
  8
0
  6
BYBLOCK
 62
     0
 10
8.293447
 20
5.102731
 30
0.0
 11
8.293447
 21
5.005231
 31
0.0
 12
8.585947
 22
5.053981
 32
0.0
 13
8.585947
 23
5.053981
 33
0.0
  0
TEXT
  8
0
  6
BYBLOCK
 62
     0
 10
7.296104
 20
4.952419
 30
0.0
 40
0.203125
  1
1.358
 41
0.75
  7
TXT
 72
     1
 11
7.575401
 21
5.053981
 31
0.0
 73
     2
  0
POINT
  8
DEFPOINTS
  6
BYBLOCK
 62
     0
 10
9.943947
 20
5.165927
 30
0.0
  0
POINT
  8
DEFPOINTS
  6
BYBLOCK
 62
     0
 10
8.585947
 20
5.165927
 30
0.0
  0
POINT
  8
DEFPOINTS
  6
BYBLOCK
 62
     0
 10
8.585947
 20
5.053981
 30
0.0
  0
ENDBLK
  8
0
  0
BLOCK
  8
0
  2
*D11
 70
    65
 10
0.0
 20
0.0
 30
0.0
  3
*D
  0
LINE
  8
0
  6
BYBLOCK
 62
     0
 10
13.745597
 20
4.194815
 30
0.0
 11
13.497079
 21
4.194815
 31
0.0
  0
LINE
  8
0
  6
BYBLOCK
 62
     0
 10
13.745597
 20
9.529815
 30
0.0
 11
13.497079
 21
9.529815
 31
0.0
  0
LINE
  8
0
  6
BYBLOCK
 62
     0
 10
13.648204
 20
4.487315
 30
0.0
 11
13.648204
 21
6.614503
 31
0.0
  0
LINE
  8
0
  6
BYBLOCK
 62
     0
 10
13.648204
 20
9.237315
 30
0.0
 11
13.648204
 21
7.110128
 31
0.0
  0
SOLID
  8
0
  6
BYBLOCK
 62
     0
 10
13.599454
 20
4.487315
 30
0.0
 11
13.696954
 21
4.487315
 31
0.0
 12
13.648204
 22
4.194815
 32
0.0
 13
13.648204
 23
4.194815
 33
0.0
  0
SOLID
  8
0
  6
BYBLOCK
 62
     0
 10
13.599454
 20
9.237315
 30
0.0
 11
13.696954
 21
9.237315
 31
0.0
 12
13.648204
 22
9.529815
 32
0.0
 13
13.648204
 23
9.529815
 33
0.0
  0
TEXT
  8
0
  6
BYBLOCK
 62
     0
 10
13.343516
 20
6.760753
 30
0.0
 40
0.203125
  1
5.335
 41
0.75
  7
TXT
 72
     1
 11
13.648204
 21
6.862315
 31
0.0
 73
     2
  0
POINT
  8
DEFPOINTS
  6
BYBLOCK
 62
     0
 10
13.847972
 20
4.194815
 30
0.0
  0
POINT
  8
DEFPOINTS
  6
BYBLOCK
 62
     0
 10
13.847972
 20
9.529815
 30
0.0
  0
POINT
  8
DEFPOINTS
  6
BYBLOCK
 62
     0
 10
13.648204
 20
9.529815
 30
0.0
  0
ENDBLK
  8
0
  0
BLOCK
  8
0
  2
*D12
 70
    65
 10
0.0
 20
0.0
 30
0.0
  3
*D
  0
LINE
  8
0
  6
BYBLOCK
 62
     0
 10
9.031947
 20
2.45644
 30
0.0
 11
9.031947
 21
1.88869
 31
0.0
  0
LINE
  8
0
  6
BYBLOCK
 62
     0
 10
10.015947
 20
2.788046
 30
0.0
 11
10.015947
 21
1.88869
 31
0.0
  0
LINE
  8
0
  6
BYBLOCK
 62
     0
 10
8.739447
 20
2.039815
 30
0.0
 11
8.446947
 21
2.039815
 31
0.0
  0
LINE
  8
0
  6
BYBLOCK
 62
     0
 10
10.308447
 20
2.039815
 30
0.0
 11
10.600947
 21
2.039815
 31
0.0
  0
SOLID
  8
0
  6
BYBLOCK
 62
     0
 10
8.739447
 20
2.088565
 30
0.0
 11
8.739447
 21
1.991065
 31
0.0
 12
9.031947
 22
2.039815
 32
0.0
 13
9.031947
 23
2.039815
 33
0.0
  0
SOLID
  8
0
  6
BYBLOCK
 62
     0
 10
10.308447
 20
2.088565
 30
0.0
 11
10.308447
 21
1.991065
 31
0.0
 12
10.015947
 22
2.039815
 32
0.0
 13
10.015947
 23
2.039815
 33
0.0
  0
TEXT
  8
0
  6
BYBLOCK
 62
     0
 10
9.231955
 20
1.938252
 30
0.0
 40
0.203125
  1
0.984
 41
0.75
  7
TXT
 72
     1
 11
9.523947
 21
2.039815
 31
0.0
 73
     2
  0
POINT
  8
DEFPOINTS
  6
BYBLOCK
 62
     0
 10
9.031947
 20
2.558815
 30
0.0
  0
POINT
  8
DEFPOINTS
  6
BYBLOCK
 62
     0
 10
10.015947
 20
2.890421
 30
0.0
  0
POINT
  8
DEFPOINTS
  6
BYBLOCK
 62
     0
 10
10.015947
 20
2.039815
 30
0.0
  0
ENDBLK
  8
0
  0
BLOCK
  8
0
  2
*D13
 70
    65
 10
0.0
 20
0.0
 30
0.0
  3
*D
  0
LINE
  8
0
  6
BYBLOCK
 62
     0
 10
5.091613
 20
19.237984
 30
0.0
 11
6.164514
 21
19.237984
 31
0.0
  0
LINE
  8
0
  6
BYBLOCK
 62
     0
 10
5.091613
 20
17.859984
 30
0.0
 11
6.164514
 21
17.859984
 31
0.0
  0
LINE
  8
0
  6
BYBLOCK
 62
     0
 10
6.013389
 20
18.945484
 30
0.0
 11
6.013389
 21
18.796796
 31
0.0
  0
LINE
  8
0
  6
BYBLOCK
 62
     0
 10
6.013389
 20
18.152484
 30
0.0
 11
6.013389
 21
18.301171
 31
0.0
  0
SOLID
  8
0
  6
BYBLOCK
 62
     0
 10
5.964639
 20
18.945484
 30
0.0
 11
6.062139
 21
18.945484
 31
0.0
 12
6.013389
 22
19.237984
 32
0.0
 13
6.013389
 23
19.237984
 33
0.0
  0
SOLID
  8
0
  6
BYBLOCK
 62
     0
 10
5.964639
 20
18.152484
 30
0.0
 11
6.062139
 21
18.152484
 31
0.0
 12
6.013389
 22
17.859984
 32
0.0
 13
6.013389
 23
17.859984
 33
0.0
  0
TEXT
  8
0
  6
BYBLOCK
 62
     0
 10
5.734092
 20
18.447421
 30
0.0
 40
0.203125
  1
1.378
 41
0.75
  7
TXT
 72
     1
 11
6.013389
 21
18.548984
 31
0.0
 73
     2
  0
POINT
  8
DEFPOINTS
  6
BYBLOCK
 62
     0
 10
4.989238
 20
19.237984
 30
0.0
  0
POINT
  8
DEFPOINTS
  6
BYBLOCK
 62
     0
 10
4.989238
 20
17.859984
 30
0.0
  0
POINT
  8
DEFPOINTS
  6
BYBLOCK
 62
     0
 10
6.013389
 20
17.859984
 30
0.0
  0
ENDBLK
  8
0
  0
BLOCK
  8
0
  2
*D14
 70
    65
 10
0.0
 20
0.0
 30
0.0
  3
*D
  0
LINE
  8
0
  6
BYBLOCK
 62
     0
 10
5.347613
 20
12.839984
 30
0.0
 11
6.763179
 21
12.839984
 31
0.0
  0
LINE
  8
0
  6
BYBLOCK
 62
     0
 10
5.347613
 20
19.926984
 30
0.0
 11
6.763179
 21
19.926984
 31
0.0
  0
LINE
  8
0
  6
BYBLOCK
 62
     0
 10
6.612054
 20
13.132484
 30
0.0
 11
6.612054
 21
16.135671
 31
0.0
  0
LINE
  8
0
  6
BYBLOCK
 62
     0
 10
6.612054
 20
19.634484
 30
0.0
 11
6.612054
 21
16.631296
 31
0.0
  0
SOLID
  8
0
  6
BYBLOCK
 62
     0
 10
6.563304
 20
13.132484
 30
0.0
 11
6.660804
 21
13.132484
 31
0.0
 12
6.612054
 22
12.839984
 32
0.0
 13
6.612054
 23
12.839984
 33
0.0
  0
SOLID
  8
0
  6
BYBLOCK
 62
     0
 10
6.563304
 20
19.634484
 30
0.0
 11
6.660804
 21
19.634484
 31
0.0
 12
6.612054
 22
19.926984
 32
0.0
 13
6.612054
 23
19.926984
 33
0.0
  0
TEXT
  8
0
  6
BYBLOCK
 62
     0
 10
6.320062
 20
16.281921
 30
0.0
 40
0.203125
  1
7.087
 41
0.75
  7
TXT
 72
     1
 11
6.612054
 21
16.383484
 31
0.0
 73
     2
  0
POINT
  8
DEFPOINTS
  6
BYBLOCK
 62
     0
 10
5.245238
 20
12.839984
 30
0.0
  0
POINT
  8
DEFPOINTS
  6
BYBLOCK
 62
     0
 10
5.245238
 20
19.926984
 30
0.0
  0
POINT
  8
DEFPOINTS
  6
BYBLOCK
 62
     0
 10
6.612054
 20
19.926984
 30
0.0
  0
ENDBLK
  8
0
  0
BLOCK
  8
0
  2
*D15
 70
    65
 10
0.0
 20
0.0
 30
0.0
  3
*D
  0
LINE
  8
0
  6
BYBLOCK
 62
     0
 10
1.784363
 20
17.645984
 30
0.0
 11
0.928748
 21
17.645984
 31
0.0
  0
LINE
  8
0
  6
BYBLOCK
 62
     0
 10
1.784363
 20
13.091984
 30
0.0
 11
0.928748
 21
13.091984
 31
0.0
  0
LINE
  8
0
  6
BYBLOCK
 62
     0
 10
1.079873
 20
17.353484
 30
0.0
 11
1.079873
 21
15.616796
 31
0.0
  0
LINE
  8
0
  6
BYBLOCK
 62
     0
 10
1.079873
 20
13.384484
 30
0.0
 11
1.079873
 21
15.121171
 31
0.0
  0
SOLID
  8
0
  6
BYBLOCK
 62
     0
 10
1.031123
 20
17.353484
 30
0.0
 11
1.128623
 21
17.353484
 31
0.0
 12
1.079873
 22
17.645984
 32
0.0
 13
1.079873
 23
17.645984
 33
0.0
  0
SOLID
  8
0
  6
BYBLOCK
 62
     0
 10
1.031123
 20
13.384484
 30
0.0
 11
1.128623
 21
13.384484
 31
0.0
 12
1.079873
 22
13.091984
 32
0.0
 13
1.079873
 23
13.091984
 33
0.0
  0
TEXT
  8
0
  6
BYBLOCK
 62
     0
 10
0.775186
 20
15.267421
 30
0.0
 40
0.203125
  1
4.554
 41
0.75
  7
TXT
 72
     1
 11
1.079873
 21
15.368984
 31
0.0
 73
     2
  0
POINT
  8
DEFPOINTS
  6
BYBLOCK
 62
     0
 10
1.886738
 20
17.645984
 30
0.0
  0
POINT
  8
DEFPOINTS
  6
BYBLOCK
 62
     0
 10
1.886738
 20
13.091984
 30
0.0
  0
POINT
  8
DEFPOINTS
  6
BYBLOCK
 62
     0
 10
1.079873
 20
13.091984
 30
0.0
  0
ENDBLK
  8
0
  0
BLOCK
  8
0
  2
*D16
 70
    65
 10
0.0
 20
0.0
 30
0.0
  3
*D
  0
LINE
  8
0
  6
BYBLOCK
 62
     0
 10
4.795307
 20
6.77628
 30
0.0
 11
4.795307
 21
6.152886
 31
0.0
  0
LINE
  8
0
  6
BYBLOCK
 62
     0
 10
1.626307
 20
6.77628
 30
0.0
 11
1.626307
 21
6.152886
 31
0.0
  0
LINE
  8
0
  6
BYBLOCK
 62
     0
 10
4.502807
 20
6.304011
 30
0.0
 11
3.286898
 21
6.304011
 31
0.0
  0
LINE
  8
0
  6
BYBLOCK
 62
     0
 10
1.918807
 20
6.304011
 30
0.0
 11
2.435804
 21
6.304011
 31
0.0
  0
SOLID
  8
0
  6
BYBLOCK
 62
     0
 10
4.502807
 20
6.352761
 30
0.0
 11
4.502807
 21
6.255261
 31
0.0
 12
4.795307
 22
6.304011
 32
0.0
 13
4.795307
 23
6.304011
 33
0.0
  0
SOLID
  8
0
  6
BYBLOCK
 62
     0
 10
1.918807
 20
6.352761
 30
0.0
 11
1.918807
 21
6.255261
 31
0.0
 12
1.626307
 22
6.304011
 32
0.0
 13
1.626307
 23
6.304011
 33
0.0
  0
TEXT
  8
0
  6
BYBLOCK
 62
     0
 10
2.582054
 20
6.202449
 30
0.0
 40
0.203125
  1
3.169
 41
0.75
  7
TXT
 72
     1
 11
2.861351
 21
6.304011
 31
0.0
 73
     2
  0
POINT
  8
DEFPOINTS
  6
BYBLOCK
 62
     0
 10
4.795307
 20
6.878655
 30
0.0
  0
POINT
  8
DEFPOINTS
  6
BYBLOCK
 62
     0
 10
1.626307
 20
6.878655
 30
0.0
  0
POINT
  8
DEFPOINTS
  6
BYBLOCK
 62
     0
 10
1.626307
 20
6.304011
 30
0.0
  0
ENDBLK
  8
0
  0
BLOCK
  8
0
  2
*D17
 70
    65
 10
0.0
 20
0.0
 30
0.0
  3
*D
  0
LINE
  8
0
  6
BYBLOCK
 62
     0
 10
5.009307
 20
4.600894
 30
0.0
 11
5.009307
 21
4.41892
 31
0.0
  0
LINE
  8
0
  6
BYBLOCK
 62
     0
 10
1.412307
 20
4.600894
 30
0.0
 11
1.412307
 21
4.41892
 31
0.0
  0
LINE
  8
0
  6
BYBLOCK
 62
     0
 10
4.716807
 20
4.570045
 30
0.0
 11
3.312289
 21
4.570045
 31
0.0
  0
LINE
  8
0
  6
BYBLOCK
 62
     0
 10
1.704807
 20
4.570045
 30
0.0
 11
2.410414
 21
4.570045
 31
0.0
  0
SOLID
  8
0
  6
BYBLOCK
 62
     0
 10
4.716807
 20
4.618795
 30
0.0
 11
4.716807
 21
4.521295
 31
0.0
 12
5.009307
 22
4.570045
 32
0.0
 13
5.009307
 23
4.570045
 33
0.0
  0
SOLID
  8
0
  6
BYBLOCK
 62
     0
 10
1.704807
 20
4.618795
 30
0.0
 11
1.704807
 21
4.521295
 31
0.0
 12
1.412307
 22
4.570045
 32
0.0
 13
1.412307
 23
4.570045
 33
0.0
  0
TEXT
  8
0
  6
BYBLOCK
 62
     0
 10
2.556664
 20
4.468482
 30
0.0
 40
0.203125
  1
3.597
 41
0.75
  7
TXT
 72
     1
 11
2.861351
 21
4.570045
 31
0.0
 73
     2
  0
POINT
  8
DEFPOINTS
  6
BYBLOCK
 62
     0
 10
5.009307
 20
4.703269
 30
0.0
  0
POINT
  8
DEFPOINTS
  6
BYBLOCK
 62
     0
 10
1.412307
 20
4.703269
 30
0.0
  0
POINT
  8
DEFPOINTS
  6
BYBLOCK
 62
     0
 10
1.412307
 20
4.570045
 30
0.0
  0
ENDBLK
  8
0
  0
BLOCK
  8
0
  2
*D18
 70
    65
 10
0.0
 20
0.0
 30
0.0
  3
*D
  0
LINE
  8
0
  6
BYBLOCK
 62
     0
 10
3.71063
 20
9.405655
 30
0.0
 11
3.500592
 21
9.405655
 31
0.0
  0
LINE
  8
0
  6
BYBLOCK
 62
     0
 10
3.71063
 20
2.658655
 30
0.0
 11
3.500592
 21
2.658655
 31
0.0
  0
LINE
  8
0
  6
BYBLOCK
 62
     0
 10
3.651717
 20
9.113155
 30
0.0
 11
3.651717
 21
6.03812
 31
0.0
  0
LINE
  8
0
  6
BYBLOCK
 62
     0
 10
3.651717
 20
2.951155
 30
0.0
 11
3.651717
 21
5.542495
 31
0.0
  0
SOLID
  8
0
  6
BYBLOCK
 62
     0
 10
3.602967
 20
9.113155
 30
0.0
 11
3.700467
 21
9.113155
 31
0.0
 12
3.651717
 22
9.405655
 32
0.0
 13
3.651717
 23
9.405655
 33
0.0
  0
SOLID
  8
0
  6
BYBLOCK
 62
     0
 10
3.602967
 20
2.951155
 30
0.0
 11
3.700467
 21
2.951155
 31
0.0
 12
3.651717
 22
2.658655
 32
0.0
 13
3.651717
 23
2.658655
 33
0.0
  0
TEXT
  8
0
  6
BYBLOCK
 62
     0
 10
3.34703
 20
5.688745
 30
0.0
 40
0.203125
  1
6.747
 41
0.75
  7
TXT
 72
     1
 11
3.651717
 21
5.790308
 31
0.0
 73
     2
  0
POINT
  8
DEFPOINTS
  6
BYBLOCK
 62
     0
 10
3.813005
 20
9.405655
 30
0.0
  0
POINT
  8
DEFPOINTS
  6
BYBLOCK
 62
     0
 10
3.813005
 20
2.658655
 30
0.0
  0
POINT
  8
DEFPOINTS
  6
BYBLOCK
 62
     0
 10
3.651717
 20
2.658655
 30
0.0
  0
ENDBLK
  8
0
  0
BLOCK
  8
0
  2
*X19
 70
    65
 10
0.0
 20
0.0
 30
0.0
  3
*X
  0
LINE
  8
0
 62
     0
 10
9.107034
 20
5.388655
 30
0.0
 11
9.032389
 21
5.4633
 31
0.0
  0
LINE
  8
0
 62
     0
 10
9.114389
 20
5.204523
 30
0.0
 11
9.032389
 21
5.286523
 31
0.0
  0
LINE
  8
0
 62
     0
 10
9.114389
 20
5.027746
 30
0.0
 11
9.10448
 21
5.037655
 31
0.0
  0
LINE
  8
0
 62
     0
 10
9.104389
 20
5.037746
 30
0.0
 11
9.032389
 21
5.109746
 31
0.0
  0
LINE
  8
0
 62
     0
 10
9.104389
 20
4.86097
 30
0.0
 11
9.032389
 21
4.93297
 31
0.0
  0
LINE
  8
0
 62
     0
 10
9.104389
 20
4.684193
 30
0.0
 11
9.032389
 21
4.756193
 31
0.0
  0
LINE
  8
0
 62
     0
 10
9.104389
 20
4.507416
 30
0.0
 11
9.032389
 21
4.579416
 31
0.0
  0
LINE
  8
0
 62
     0
 10
9.104389
 20
4.33064
 30
0.0
 11
9.032389
 21
4.40264
 31
0.0
  0
LINE
  8
0
 62
     0
 10
9.104389
 20
4.153863
 30
0.0
 11
9.032389
 21
4.225863
 31
0.0
  0
LINE
  8
0
 62
     0
 10
9.011389
 20
4.070086
 30
0.0
 11
8.95682
 21
4.124655
 31
0.0
  0
LINE
  8
0
 62
     0
 10
8.843044
 20
4.061655
 30
0.0
 11
8.780044
 21
4.124655
 31
0.0
  0
LINE
  8
0
 62
     0
 10
8.666267
 20
4.061655
 30
0.0
 11
8.603267
 21
4.124655
 31
0.0
  0
LINE
  8
0
 62
     0
 10
8.48949
 20
4.061655
 30
0.0
 11
8.42649
 21
4.124655
 31
0.0
  0
LINE
  8
0
 62
     0
 10
8.312713
 20
4.061655
 30
0.0
 11
8.249713
 21
4.124655
 31
0.0
  0
LINE
  8
0
 62
     0
 10
8.249389
 20
3.948203
 30
0.0
 11
8.186389
 21
4.011203
 31
0.0
  0
LINE
  8
0
 62
     0
 10
8.249389
 20
3.771426
 30
0.0
 11
8.186389
 21
3.834426
 31
0.0
  0
LINE
  8
0
 62
     0
 10
8.249389
 20
3.594649
 30
0.0
 11
8.186389
 21
3.657649
 31
0.0
  0
LINE
  8
0
 62
     0
 10
8.249389
 20
3.417873
 30
0.0
 11
8.186389
 21
3.480873
 31
0.0
  0
LINE
  8
0
 62
     0
 10
8.687389
 20
2.803096
 30
0.0
 11
8.624389
 21
2.866096
 31
0.0
  0
LINE
  8
0
 62
     0
 10
8.249389
 20
3.241096
 30
0.0
 11
8.186389
 21
3.304096
 31
0.0
  0
LINE
  8
0
 62
     0
 10
8.57383
 20
2.916655
 30
0.0
 11
8.51083
 21
2.979655
 31
0.0
  0
LINE
  8
0
 62
     0
 10
8.687389
 20
2.626319
 30
0.0
 11
8.624389
 21
2.689319
 31
0.0
  0
LINE
  8
0
 62
     0
 10
8.249389
 20
3.064319
 30
0.0
 11
8.186389
 21
3.127319
 31
0.0
  0
LINE
  8
0
 62
     0
 10
8.397053
 20
2.916655
 30
0.0
 11
8.334053
 21
2.979655
 31
0.0
  0
LINE
  8
0
 62
     0
 10
8.635801
 20
2.501131
 30
0.0
 11
8.532277
 21
2.604655
 31
0.0
  0
LINE
  8
0
 62
     0
 10
8.220277
 20
2.916655
 30
0.0
 11
8.186389
 21
2.950542
 31
0.0
  0
LINE
  8
0
 62
     0
 10
8.463536
 20
2.49662
 30
0.0
 11
8.3555
 21
2.604655
 31
0.0
  0
LINE
  8
0
 62
     0
 10
8.29127
 20
2.492109
 30
0.0
 11
8.178723
 21
2.604655
 31
0.0
  0
LINE
  8
0
 62
     0
 10
9.104389
 20
5.568076
 30
0.0
 11
9.032389
 21
5.640076
 31
0.0
  0
LINE
  8
0
 62
     0
 10
9.114389
 20
5.734853
 30
0.0
 11
9.109587
 21
5.739655
 31
0.0
  0
LINE
  8
0
 62
     0
 10
9.104389
 20
5.744853
 30
0.0
 11
9.032389
 21
5.816853
 31
0.0
  0
LINE
  8
0
 62
     0
 10
9.114389
 20
5.91163
 30
0.0
 11
9.032389
 21
5.99363
 31
0.0
  0
LINE
  8
0
 62
     0
 10
9.112141
 20
6.090655
 30
0.0
 11
9.032389
 21
6.170406
 31
0.0
  0
LINE
  8
0
 62
     0
 10
9.104389
 20
6.275183
 30
0.0
 11
9.032389
 21
6.347183
 31
0.0
  0
LINE
  8
0
 62
     0
 10
9.104389
 20
6.45196
 30
0.0
 11
9.032389
 21
6.52396
 31
0.0
  0
LINE
  8
0
 62
     0
 10
9.114389
 20
6.618737
 30
0.0
 11
9.032389
 21
6.700737
 31
0.0
  0
LINE
  8
0
 62
     0
 10
9.114389
 20
6.795513
 30
0.0
 11
9.032389
 21
6.877513
 31
0.0
  0
LINE
  8
0
 62
     0
 10
9.104389
 20
6.98229
 30
0.0
 11
9.032389
 21
7.05429
 31
0.0
  0
LINE
  8
0
 62
     0
 10
9.104389
 20
7.159067
 30
0.0
 11
9.032389
 21
7.231067
 31
0.0
  0
LINE
  8
0
 62
     0
 10
9.114389
 20
7.325843
 30
0.0
 11
9.032389
 21
7.407843
 31
0.0
  0
LINE
  8
0
 62
     0
 10
9.104389
 20
7.51262
 30
0.0
 11
9.032389
 21
7.58462
 31
0.0
  0
LINE
  8
0
 62
     0
 10
9.104389
 20
7.689397
 30
0.0
 11
9.032389
 21
7.761397
 31
0.0
  0
LINE
  8
0
 62
     0
 10
9.104389
 20
7.866173
 30
0.0
 11
9.032389
 21
7.938173
 31
0.0
  0
LINE
  8
0
 62
     0
 10
9.104389
 20
8.04295
 30
0.0
 11
9.032389
 21
8.11495
 31
0.0
  0
LINE
  8
0
 62
     0
 10
9.104389
 20
8.219727
 30
0.0
 11
9.032389
 21
8.291727
 31
0.0
  0
LINE
  8
0
 62
     0
 10
9.104389
 20
8.396504
 30
0.0
 11
9.032389
 21
8.468504
 31
0.0
  0
LINE
  8
0
 62
     0
 10
9.104389
 20
8.57328
 30
0.0
 11
9.032389
 21
8.64528
 31
0.0
  0
LINE
  8
0
 62
     0
 10
8.218014
 20
9.459655
 30
0.0
 11
8.141014
 21
9.536655
 31
0.0
  0
LINE
  8
0
 62
     0
 10
9.104389
 20
8.750057
 30
0.0
 11
9.032389
 21
8.822057
 31
0.0
  0
LINE
  8
0
 62
     0
 10
8.394791
 20
9.459655
 30
0.0
 11
8.282002
 21
9.572445
 31
0.0
  0
LINE
  8
0
 62
     0
 10
9.104389
 20
8.926834
 30
0.0
 11
9.032389
 21
8.998834
 31
0.0
  0
LINE
  8
0
 62
     0
 10
8.571568
 20
9.459655
 30
0.0
 11
8.463532
 21
9.567691
 31
0.0
  0
LINE
  8
0
 62
     0
 10
9.104389
 20
9.10361
 30
0.0
 11
9.032389
 21
9.17561
 31
0.0
  0
LINE
  8
0
 62
     0
 10
8.748344
 20
9.459655
 30
0.0
 11
8.645062
 21
9.562937
 31
0.0
  0
LINE
  8
0
 62
     0
 10
9.102
 20
9.282777
 30
0.0
 11
8.828116
 21
9.556661
 31
0.0
  0
ENDBLK
  8
0
  0
BLOCK
  8
0
  2
*D20
 70
    65
 10
0.0
 20
0.0
 30
0.0
  3
*D
  0
LINE
  8
0
  6
BYBLOCK
 62
     0
 10
14.295563
 20
9.201655
 30
0.0
 11
15.769303
 21
9.201655
 31
0.0
  0
LINE
  8
0
  6
BYBLOCK
 62
     0
 10
14.984563
 20
9.575655
 30
0.0
 11
15.769303
 21
9.575655
 31
0.0
  0
LINE
  8
0
  6
BYBLOCK
 62
     0
 10
15.618178
 20
8.909155
 30
0.0
 11
15.618178
 21
8.616655
 31
0.0
  0
LINE
  8
0
  6
BYBLOCK
 62
     0
 10
15.618178
 20
9.868155
 30
0.0
 11
15.618178
 21
10.160655
 31
0.0
  0
SOLID
  8
0
  6
BYBLOCK
 62
     0
 10
15.569428
 20
8.909155
 30
0.0
 11
15.666928
 21
8.909155
 31
0.0
 12
15.618178
 22
9.201655
 32
0.0
 13
15.618178
 23
9.201655
 33
0.0
  0
SOLID
  8
0
  6
BYBLOCK
 62
     0
 10
15.569428
 20
9.868155
 30
0.0
 11
15.666928
 21
9.868155
 31
0.0
 12
15.618178
 22
9.575655
 32
0.0
 13
15.618178
 23
9.575655
 33
0.0
  0
TEXT
  8
0
  6
BYBLOCK
 62
     0
 10
15.326185
 20
9.287093
 30
0.0
 40
0.203125
  1
0.374
 41
0.75
  7
TXT
 72
     1
 11
15.618178
 21
9.388655
 31
0.0
 73
     2
  0
POINT
  8
DEFPOINTS
  6
BYBLOCK
 62
     0
 10
14.193188
 20
9.201655
 30
0.0
  0
POINT
  8
DEFPOINTS
  6
BYBLOCK
 62
     0
 10
14.882188
 20
9.575655
 30
0.0
  0
POINT
  8
DEFPOINTS
  6
BYBLOCK
 62
     0
 10
15.618178
 20
9.575655
 30
0.0
  0
ENDBLK
  8
0
  0
BLOCK
  8
0
  2
*D21
 70
    65
 10
0.0
 20
0.0
 30
0.0
  3
*D
  0
LINE
  8
0
  6
BYBLOCK
 62
     0
 10
14.895563
 20
6.288655
 30
0.0
 11
15.769303
 21
6.288655
 31
0.0
  0
LINE
  8
0
  6
BYBLOCK
 62
     0
 10
14.895563
 20
4.457655
 30
0.0
 11
15.769303
 21
4.457655
 31
0.0
  0
LINE
  8
0
  6
BYBLOCK
 62
     0
 10
15.618178
 20
5.996155
 30
0.0
 11
15.618178
 21
5.620968
 31
0.0
  0
LINE
  8
0
  6
BYBLOCK
 62
     0
 10
15.618178
 20
4.750155
 30
0.0
 11
15.618178
 21
5.125343
 31
0.0
  0
SOLID
  8
0
  6
BYBLOCK
 62
     0
 10
15.569428
 20
5.996155
 30
0.0
 11
15.666928
 21
5.996155
 31
0.0
 12
15.618178
 22
6.288655
 32
0.0
 13
15.618178
 23
6.288655
 33
0.0
  0
SOLID
  8
0
  6
BYBLOCK
 62
     0
 10
15.569428
 20
4.750155
 30
0.0
 11
15.666928
 21
4.750155
 31
0.0
 12
15.618178
 22
4.457655
 32
0.0
 13
15.618178
 23
4.457655
 33
0.0
  0
TEXT
  8
0
  6
BYBLOCK
 62
     0
 10
15.364271
 20
5.271593
 30
0.0
 40
0.203125
  1
1.831
 41
0.75
  7
TXT
 72
     1
 11
15.618178
 21
5.373155
 31
0.0
 73
     2
  0
POINT
  8
DEFPOINTS
  6
BYBLOCK
 62
     0
 10
14.793188
 20
6.288655
 30
0.0
  0
POINT
  8
DEFPOINTS
  6
BYBLOCK
 62
     0
 10
14.793188
 20
4.457655
 30
0.0
  0
POINT
  8
DEFPOINTS
  6
BYBLOCK
 62
     0
 10
15.618178
 20
4.457655
 30
0.0
  0
ENDBLK
  8
0
  0
BLOCK
  8
0
  2
*D22
 70
    65
 10
0.0
 20
0.0
 30
0.0
  3
*D
  0
LINE
  8
0
  6
BYBLOCK
 62
     0
 10
14.895563
 20
4.457655
 30
0.0
 11
15.769303
 21
4.457655
 31
0.0
  0
LINE
  8
0
  6
BYBLOCK
 62
     0
 10
14.895563
 20
3.335655
 30
0.0
 11
15.769303
 21
3.335655
 31
0.0
  0
LINE
  8
0
  6
BYBLOCK
 62
     0
 10
15.618178
 20
4.750155
 30
0.0
 11
15.618178
 21
5.042655
 31
0.0
  0
LINE
  8
0
  6
BYBLOCK
 62
     0
 10
15.618178
 20
3.043155
 30
0.0
 11
15.618178
 21
2.750655
 31
0.0
  0
SOLID
  8
0
  6
BYBLOCK
 62
     0
 10
15.569428
 20
4.750155
 30
0.0
 11
15.666928
 21
4.750155
 31
0.0
 12
15.618178
 22
4.457655
 32
0.0
 13
15.618178
 23
4.457655
 33
0.0
  0
SOLID
  8
0
  6
BYBLOCK
 62
     0
 10
15.569428
 20
3.043155
 30
0.0
 11
15.666928
 21
3.043155
 31
0.0
 12
15.618178
 22
3.335655
 32
0.0
 13
15.618178
 23
3.335655
 33
0.0
  0
TEXT
  8
0
  6
BYBLOCK
 62
     0
 10
15.364271
 20
3.795093
 30
0.0
 40
0.203125
  1
1.122
 41
0.75
  7
TXT
 72
     1
 11
15.618178
 21
3.896655
 31
0.0
 73
     2
  0
POINT
  8
DEFPOINTS
  6
BYBLOCK
 62
     0
 10
14.793188
 20
4.457655
 30
0.0
  0
POINT
  8
DEFPOINTS
  6
BYBLOCK
 62
     0
 10
14.793188
 20
3.335655
 30
0.0
  0
POINT
  8
DEFPOINTS
  6
BYBLOCK
 62
     0
 10
15.618178
 20
3.335655
 30
0.0
  0
ENDBLK
  8
0
  0
BLOCK
  8
0
  2
*D23
 70
    65
 10
0.0
 20
0.0
 30
0.0
  3
*D
  0
LINE
  8
0
  6
BYBLOCK
 62
     0
 10
14.295563
 20
7.272655
 30
0.0
 11
15.769303
 21
7.272655
 31
0.0
  0
LINE
  8
0
  6
BYBLOCK
 62
     0
 10
14.895563
 20
6.288655
 30
0.0
 11
15.769303
 21
6.288655
 31
0.0
  0
LINE
  8
0
  6
BYBLOCK
 62
     0
 10
15.618178
 20
7.565155
 30
0.0
 11
15.618178
 21
7.857655
 31
0.0
  0
LINE
  8
0
  6
BYBLOCK
 62
     0
 10
15.618178
 20
5.996155
 30
0.0
 11
15.618178
 21
5.703655
 31
0.0
  0
SOLID
  8
0
  6
BYBLOCK
 62
     0
 10
15.569428
 20
7.565155
 30
0.0
 11
15.666928
 21
7.565155
 31
0.0
 12
15.618178
 22
7.272655
 32
0.0
 13
15.618178
 23
7.272655
 33
0.0
  0
SOLID
  8
0
  6
BYBLOCK
 62
     0
 10
15.569428
 20
5.996155
 30
0.0
 11
15.666928
 21
5.996155
 31
0.0
 12
15.618178
 22
6.288655
 32
0.0
 13
15.618178
 23
6.288655
 33
0.0
  0
TEXT
  8
0
  6
BYBLOCK
 62
     0
 10
15.326185
 20
6.679093
 30
0.0
 40
0.203125
  1
0.984
 41
0.75
  7
TXT
 72
     1
 11
15.618178
 21
6.780655
 31
0.0
 73
     2
  0
POINT
  8
DEFPOINTS
  6
BYBLOCK
 62
     0
 10
14.193188
 20
7.272655
 30
0.0
  0
POINT
  8
DEFPOINTS
  6
BYBLOCK
 62
     0
 10
14.793188
 20
6.288655
 30
0.0
  0
POINT
  8
DEFPOINTS
  6
BYBLOCK
 62
     0
 10
15.618178
 20
6.288655
 30
0.0
  0
ENDBLK
  8
0
  0
BLOCK
  8
0
  2
*D24
 70
    65
 10
0.0
 20
0.0
 30
0.0
  3
*D
  0
LINE
  8
0
  6
BYBLOCK
 62
     0
 10
14.295563
 20
9.201655
 30
0.0
 11
15.769303
 21
9.201655
 31
0.0
  0
LINE
  8
0
  6
BYBLOCK
 62
     0
 10
14.295563
 20
7.272655
 30
0.0
 11
15.769303
 21
7.272655
 31
0.0
  0
LINE
  8
0
  6
BYBLOCK
 62
     0
 10
15.618178
 20
8.909155
 30
0.0
 11
15.618178
 21
8.484968
 31
0.0
  0
LINE
  8
0
  6
BYBLOCK
 62
     0
 10
15.618178
 20
7.565155
 30
0.0
 11
15.618178
 21
7.989343
 31
0.0
  0
SOLID
  8
0
  6
BYBLOCK
 62
     0
 10
15.569428
 20
8.909155
 30
0.0
 11
15.666928
 21
8.909155
 31
0.0
 12
15.618178
 22
9.201655
 32
0.0
 13
15.618178
 23
9.201655
 33
0.0
  0
SOLID
  8
0
  6
BYBLOCK
 62
     0
 10
15.569428
 20
7.565155
 30
0.0
 11
15.666928
 21
7.565155
 31
0.0
 12
15.618178
 22
7.272655
 32
0.0
 13
15.618178
 23
7.272655
 33
0.0
  0
TEXT
  8
0
  6
BYBLOCK
 62
     0
 10
15.338881
 20
8.135593
 30
0.0
 40
0.203125
  1
1.929
 41
0.75
  7
TXT
 72
     1
 11
15.618178
 21
8.237155
 31
0.0
 73
     2
  0
POINT
  8
DEFPOINTS
  6
BYBLOCK
 62
     0
 10
14.193188
 20
9.201655
 30
0.0
  0
POINT
  8
DEFPOINTS
  6
BYBLOCK
 62
     0
 10
14.193188
 20
7.272655
 30
0.0
  0
POINT
  8
DEFPOINTS
  6
BYBLOCK
 62
     0
 10
15.618178
 20
7.272655
 30
0.0
  0
ENDBLK
  8
0
  0
BLOCK
  8
0
  2
*D25
 70
    65
 10
0.0
 20
0.0
 30
0.0
  3
*D
  0
LINE
  8
0
  6
BYBLOCK
 62
     0
 10
11.652956
 20
9.260655
 30
0.0
 11
10.23033
 21
9.260655
 31
0.0
  0
LINE
  8
0
  6
BYBLOCK
 62
     0
 10
11.632956
 20
9.575655
 30
0.0
 11
10.23033
 21
9.575655
 31
0.0
  0
LINE
  8
0
  6
BYBLOCK
 62
     0
 10
10.381455
 20
8.968155
 30
0.0
 11
10.381455
 21
8.675655
 31
0.0
  0
LINE
  8
0
  6
BYBLOCK
 62
     0
 10
10.381455
 20
9.868155
 30
0.0
 11
10.381455
 21
10.160655
 31
0.0
  0
SOLID
  8
0
  6
BYBLOCK
 62
     0
 10
10.332705
 20
8.968155
 30
0.0
 11
10.430205
 21
8.968155
 31
0.0
 12
10.381455
 22
9.260655
 32
0.0
 13
10.381455
 23
9.260655
 33
0.0
  0
SOLID
  8
0
  6
BYBLOCK
 62
     0
 10
10.332705
 20
9.868155
 30
0.0
 11
10.430205
 21
9.868155
 31
0.0
 12
10.381455
 22
9.575655
 32
0.0
 13
10.381455
 23
9.575655
 33
0.0
  0
TEXT
  8
0
  6
BYBLOCK
 62
     0
 10
10.114853
 20
9.316593
 30
0.0
 40
0.203125
  1
0.315
 41
0.75
  7
TXT
 72
     1
 11
10.381455
 21
9.418155
 31
0.0
 73
     2
  0
POINT
  8
DEFPOINTS
  6
BYBLOCK
 62
     0
 10
11.755331
 20
9.260655
 30
0.0
  0
POINT
  8
DEFPOINTS
  6
BYBLOCK
 62
     0
 10
11.735331
 20
9.575655
 30
0.0
  0
POINT
  8
DEFPOINTS
  6
BYBLOCK
 62
     0
 10
10.381455
 20
9.575655
 30
0.0
  0
ENDBLK
  8
0
  0
BLOCK
  8
0
  2
*D26
 70
    65
 10
0.0
 20
0.0
 30
0.0
  3
*D
  0
LINE
  8
0
  6
BYBLOCK
 62
     0
 10
11.652956
 20
9.260655
 30
0.0
 11
10.23033
 21
9.260655
 31
0.0
  0
LINE
  8
0
  6
BYBLOCK
 62
     0
 10
11.652956
 20
2.803655
 30
0.0
 11
10.23033
 21
2.803655
 31
0.0
  0
LINE
  8
0
  6
BYBLOCK
 62
     0
 10
10.381455
 20
8.968155
 30
0.0
 11
10.381455
 21
6.464651
 31
0.0
  0
LINE
  8
0
  6
BYBLOCK
 62
     0
 10
10.381455
 20
3.096155
 30
0.0
 11
10.381455
 21
5.969026
 31
0.0
  0
SOLID
  8
0
  6
BYBLOCK
 62
     0
 10
10.332705
 20
8.968155
 30
0.0
 11
10.430205
 21
8.968155
 31
0.0
 12
10.381455
 22
9.260655
 32
0.0
 13
10.381455
 23
9.260655
 33
0.0
  0
SOLID
  8
0
  6
BYBLOCK
 62
     0
 10
10.332705
 20
3.096155
 30
0.0
 11
10.430205
 21
3.096155
 31
0.0
 12
10.381455
 22
2.803655
 32
0.0
 13
10.381455
 23
2.803655
 33
0.0
  0
TEXT
  8
0
  6
BYBLOCK
 62
     0
 10
10.076767
 20
6.115276
 30
0.0
 40
0.203125
  1
6.457
 41
0.75
  7
TXT
 72
     1
 11
10.381455
 21
6.216839
 31
0.0
 73
     2
  0
POINT
  8
DEFPOINTS
  6
BYBLOCK
 62
     0
 10
11.755331
 20
9.260655
 30
0.0
  0
POINT
  8
DEFPOINTS
  6
BYBLOCK
 62
     0
 10
11.755331
 20
2.803655
 30
0.0
  0
POINT
  8
DEFPOINTS
  6
BYBLOCK
 62
     0
 10
10.381455
 20
2.803655
 30
0.0
  0
ENDBLK
  8
0
  0
BLOCK
  8
0
  2
*D27
 70
    65
 10
0.0
 20
0.0
 30
0.0
  3
*D
  0
LINE
  8
0
  6
BYBLOCK
 62
     0
 10
11.562956
 20
8.996655
 30
0.0
 11
10.788387
 21
8.996655
 31
0.0
  0
LINE
  8
0
  6
BYBLOCK
 62
     0
 10
11.562956
 20
3.067655
 30
0.0
 11
10.788387
 21
3.067655
 31
0.0
  0
LINE
  8
0
  6
BYBLOCK
 62
     0
 10
10.939512
 20
8.704155
 30
0.0
 11
10.939512
 21
7.034092
 31
0.0
  0
LINE
  8
0
  6
BYBLOCK
 62
     0
 10
10.939512
 20
3.360155
 30
0.0
 11
10.939512
 21
6.538467
 31
0.0
  0
SOLID
  8
0
  6
BYBLOCK
 62
     0
 10
10.890762
 20
8.704155
 30
0.0
 11
10.988262
 21
8.704155
 31
0.0
 12
10.939512
 22
8.996655
 32
0.0
 13
10.939512
 23
8.996655
 33
0.0
  0
SOLID
  8
0
  6
BYBLOCK
 62
     0
 10
10.890762
 20
3.360155
 30
0.0
 11
10.988262
 21
3.360155
 31
0.0
 12
10.939512
 22
3.067655
 32
0.0
 13
10.939512
 23
3.067655
 33
0.0
  0
TEXT
  8
0
  6
BYBLOCK
 62
     0
 10
10.634825
 20
6.684717
 30
0.0
 40
0.203125
  1
5.929
 41
0.75
  7
TXT
 72
     1
 11
10.939512
 21
6.786279
 31
0.0
 73
     2
  0
POINT
  8
DEFPOINTS
  6
BYBLOCK
 62
     0
 10
11.665331
 20
8.996655
 30
0.0
  0
POINT
  8
DEFPOINTS
  6
BYBLOCK
 62
     0
 10
11.665331
 20
3.067655
 30
0.0
  0
POINT
  8
DEFPOINTS
  6
BYBLOCK
 62
     0
 10
10.939512
 20
3.067655
 30
0.0
  0
ENDBLK
  8
0
  0
BLOCK
  8
0
  2
*D28
 70
    65
 10
0.0
 20
0.0
 30
0.0
  3
*D
  0
LINE
  8
0
  6
BYBLOCK
 62
     0
 10
4.227498
 20
9.063655
 30
0.0
 11
5.803576
 21
9.063655
 31
0.0
  0
LINE
  8
0
  6
BYBLOCK
 62
     0
 10
4.916498
 20
9.575655
 30
0.0
 11
5.803576
 21
9.575655
 31
0.0
  0
LINE
  8
0
  6
BYBLOCK
 62
     0
 10
5.652451
 20
8.771155
 30
0.0
 11
5.652451
 21
8.478655
 31
0.0
  0
LINE
  8
0
  6
BYBLOCK
 62
     0
 10
5.652451
 20
9.868155
 30
0.0
 11
5.652451
 21
10.160655
 31
0.0
  0
SOLID
  8
0
  6
BYBLOCK
 62
     0
 10
5.603701
 20
8.771155
 30
0.0
 11
5.701201
 21
8.771155
 31
0.0
 12
5.652451
 22
9.063655
 32
0.0
 13
5.652451
 23
9.063655
 33
0.0
  0
SOLID
  8
0
  6
BYBLOCK
 62
     0
 10
5.603701
 20
9.868155
 30
0.0
 11
5.701201
 21
9.868155
 31
0.0
 12
5.652451
 22
9.575655
 32
0.0
 13
5.652451
 23
9.575655
 33
0.0
  0
TEXT
  8
0
  6
BYBLOCK
 62
     0
 10
5.38585
 20
9.218093
 30
0.0
 40
0.203125
  1
0.512
 41
0.75
  7
TXT
 72
     1
 11
5.652451
 21
9.319655
 31
0.0
 73
     2
  0
POINT
  8
DEFPOINTS
  6
BYBLOCK
 62
     0
 10
4.125123
 20
9.063655
 30
0.0
  0
POINT
  8
DEFPOINTS
  6
BYBLOCK
 62
     0
 10
4.814123
 20
9.575655
 30
0.0
  0
POINT
  8
DEFPOINTS
  6
BYBLOCK
 62
     0
 10
5.652451
 20
9.575655
 30
0.0
  0
ENDBLK
  8
0
  0
BLOCK
  8
0
  2
*D29
 70
    65
 10
0.0
 20
0.0
 30
0.0
  3
*D
  0
LINE
  8
0
  6
BYBLOCK
 62
     0
 10
4.827498
 20
6.878655
 30
0.0
 11
5.803576
 21
6.878655
 31
0.0
  0
LINE
  8
0
  6
BYBLOCK
 62
     0
 10
4.827498
 20
5.323655
 30
0.0
 11
5.803576
 21
5.323655
 31
0.0
  0
LINE
  8
0
  6
BYBLOCK
 62
     0
 10
5.652451
 20
6.586155
 30
0.0
 11
5.652451
 21
6.348968
 31
0.0
  0
LINE
  8
0
  6
BYBLOCK
 62
     0
 10
5.652451
 20
5.616155
 30
0.0
 11
5.652451
 21
5.853343
 31
0.0
  0
SOLID
  8
0
  6
BYBLOCK
 62
     0
 10
5.603701
 20
6.586155
 30
0.0
 11
5.701201
 21
6.586155
 31
0.0
 12
5.652451
 22
6.878655
 32
0.0
 13
5.652451
 23
6.878655
 33
0.0
  0
SOLID
  8
0
  6
BYBLOCK
 62
     0
 10
5.603701
 20
5.616155
 30
0.0
 11
5.701201
 21
5.616155
 31
0.0
 12
5.652451
 22
5.323655
 32
0.0
 13
5.652451
 23
5.323655
 33
0.0
  0
TEXT
  8
0
  6
BYBLOCK
 62
     0
 10
5.373155
 20
5.999593
 30
0.0
 40
0.203125
  1
1.555
 41
0.75
  7
TXT
 72
     1
 11
5.652451
 21
6.101155
 31
0.0
 73
     2
  0
POINT
  8
DEFPOINTS
  6
BYBLOCK
 62
     0
 10
4.725123
 20
6.878655
 30
0.0
  0
POINT
  8
DEFPOINTS
  6
BYBLOCK
 62
     0
 10
4.725123
 20
5.323655
 30
0.0
  0
POINT
  8
DEFPOINTS
  6
BYBLOCK
 62
     0
 10
5.652451
 20
5.323655
 30
0.0
  0
ENDBLK
  8
0
  0
BLOCK
  8
0
  2
*D30
 70
    65
 10
0.0
 20
0.0
 30
0.0
  3
*D
  0
LINE
  8
0
  6
BYBLOCK
 62
     0
 10
4.827498
 20
5.323655
 30
0.0
 11
5.803576
 21
5.323655
 31
0.0
  0
LINE
  8
0
  6
BYBLOCK
 62
     0
 10
4.827498
 20
3.571655
 30
0.0
 11
5.803576
 21
3.571655
 31
0.0
  0
LINE
  8
0
  6
BYBLOCK
 62
     0
 10
5.652451
 20
5.031155
 30
0.0
 11
5.652451
 21
4.695468
 31
0.0
  0
LINE
  8
0
  6
BYBLOCK
 62
     0
 10
5.652451
 20
3.864155
 30
0.0
 11
5.652451
 21
4.199843
 31
0.0
  0
SOLID
  8
0
  6
BYBLOCK
 62
     0
 10
5.603701
 20
5.031155
 30
0.0
 11
5.701201
 21
5.031155
 31
0.0
 12
5.652451
 22
5.323655
 32
0.0
 13
5.652451
 23
5.323655
 33
0.0
  0
SOLID
  8
0
  6
BYBLOCK
 62
     0
 10
5.603701
 20
3.864155
 30
0.0
 11
5.701201
 21
3.864155
 31
0.0
 12
5.652451
 22
3.571655
 32
0.0
 13
5.652451
 23
3.571655
 33
0.0
  0
TEXT
  8
0
  6
BYBLOCK
 62
     0
 10
5.373155
 20
4.346093
 30
0.0
 40
0.203125
  1
1.752
 41
0.75
  7
TXT
 72
     1
 11
5.652451
 21
4.447655
 31
0.0
 73
     2
  0
POINT
  8
DEFPOINTS
  6
BYBLOCK
 62
     0
 10
4.725123
 20
5.323655
 30
0.0
  0
POINT
  8
DEFPOINTS
  6
BYBLOCK
 62
     0
 10
4.725123
 20
3.571655
 30
0.0
  0
POINT
  8
DEFPOINTS
  6
BYBLOCK
 62
     0
 10
5.652451
 20
3.571655
 30
0.0
  0
ENDBLK
  8
0
  0
BLOCK
  8
0
  2
*D31
 70
    65
 10
0.0
 20
0.0
 30
0.0
  3
*D
  0
LINE
  8
0
  6
BYBLOCK
 62
     0
 10
4.227498
 20
9.063655
 30
0.0
 11
5.803576
 21
9.063655
 31
0.0
  0
LINE
  8
0
  6
BYBLOCK
 62
     0
 10
4.227498
 20
7.252655
 30
0.0
 11
5.803576
 21
7.252655
 31
0.0
  0
LINE
  8
0
  6
BYBLOCK
 62
     0
 10
5.652451
 20
8.771155
 30
0.0
 11
5.652451
 21
8.405968
 31
0.0
  0
LINE
  8
0
  6
BYBLOCK
 62
     0
 10
5.652451
 20
7.545155
 30
0.0
 11
5.652451
 21
7.910343
 31
0.0
  0
SOLID
  8
0
  6
BYBLOCK
 62
     0
 10
5.603701
 20
8.771155
 30
0.0
 11
5.701201
 21
8.771155
 31
0.0
 12
5.652451
 22
9.063655
 32
0.0
 13
5.652451
 23
9.063655
 33
0.0
  0
SOLID
  8
0
  6
BYBLOCK
 62
     0
 10
5.603701
 20
7.545155
 30
0.0
 11
5.701201
 21
7.545155
 31
0.0
 12
5.652451
 22
7.252655
 32
0.0
 13
5.652451
 23
7.252655
 33
0.0
  0
TEXT
  8
0
  6
BYBLOCK
 62
     0
 10
5.423936
 20
8.056593
 30
0.0
 40
0.203125
  1
1.811
 41
0.75
  7
TXT
 72
     1
 11
5.652451
 21
8.158155
 31
0.0
 73
     2
  0
POINT
  8
DEFPOINTS
  6
BYBLOCK
 62
     0
 10
4.125123
 20
9.063655
 30
0.0
  0
POINT
  8
DEFPOINTS
  6
BYBLOCK
 62
     0
 10
4.125123
 20
7.252655
 30
0.0
  0
POINT
  8
DEFPOINTS
  6
BYBLOCK
 62
     0
 10
5.652451
 20
7.252655
 30
0.0
  0
ENDBLK
  8
0
  0
BLOCK
  8
0
  2
*D32
 70
    65
 10
0.0
 20
0.0
 30
0.0
  3
*D
  0
LINE
  8
0
  6
BYBLOCK
 62
     0
 10
4.827498
 20
6.878655
 30
0.0
 11
5.803576
 21
6.878655
 31
0.0
  0
LINE
  8
0
  6
BYBLOCK
 62
     0
 10
4.227498
 20
7.252655
 30
0.0
 11
5.803576
 21
7.252655
 31
0.0
  0
LINE
  8
0
  6
BYBLOCK
 62
     0
 10
5.652451
 20
6.586155
 30
0.0
 11
5.652451
 21
6.293655
 31
0.0
  0
LINE
  8
0
  6
BYBLOCK
 62
     0
 10
5.652451
 20
7.545155
 30
0.0
 11
5.652451
 21
7.837655
 31
0.0
  0
SOLID
  8
0
  6
BYBLOCK
 62
     0
 10
5.603701
 20
6.586155
 30
0.0
 11
5.701201
 21
6.586155
 31
0.0
 12
5.652451
 22
6.878655
 32
0.0
 13
5.652451
 23
6.878655
 33
0.0
  0
SOLID
  8
0
  6
BYBLOCK
 62
     0
 10
5.603701
 20
7.545155
 30
0.0
 11
5.701201
 21
7.545155
 31
0.0
 12
5.652451
 22
7.252655
 32
0.0
 13
5.652451
 23
7.252655
 33
0.0
  0
TEXT
  8
0
  6
BYBLOCK
 62
     0
 10
5.360459
 20
6.964093
 30
0.0
 40
0.203125
  1
0.374
 41
0.75
  7
TXT
 72
     1
 11
5.652451
 21
7.065655
 31
0.0
 73
     2
  0
POINT
  8
DEFPOINTS
  6
BYBLOCK
 62
     0
 10
4.725123
 20
6.878655
 30
0.0
  0
POINT
  8
DEFPOINTS
  6
BYBLOCK
 62
     0
 10
4.125123
 20
7.252655
 30
0.0
  0
POINT
  8
DEFPOINTS
  6
BYBLOCK
 62
     0
 10
5.652451
 20
7.252655
 30
0.0
  0
ENDBLK
  8
0
  0
BLOCK
  8
0
  2
*D33
 70
    65
 10
0.0
 20
0.0
 30
0.0
  3
*D
  0
LINE
  8
0
  6
BYBLOCK
 62
     0
 10
1.333748
 20
3.118655
 30
0.0
 11
0.538899
 21
3.118655
 31
0.0
  0
LINE
  8
0
  6
BYBLOCK
 62
     0
 10
1.333748
 20
8.945655
 30
0.0
 11
0.538899
 21
8.945655
 31
0.0
  0
LINE
  8
0
  6
BYBLOCK
 62
     0
 10
0.690024
 20
3.411155
 30
0.0
 11
0.690024
 21
5.784343
 31
0.0
  0
LINE
  8
0
  6
BYBLOCK
 62
     0
 10
0.690024
 20
8.653155
 30
0.0
 11
0.690024
 21
6.279968
 31
0.0
  0
SOLID
  8
0
  6
BYBLOCK
 62
     0
 10
0.641274
 20
3.411155
 30
0.0
 11
0.738774
 21
3.411155
 31
0.0
 12
0.690024
 22
3.118655
 32
0.0
 13
0.690024
 23
3.118655
 33
0.0
  0
SOLID
  8
0
  6
BYBLOCK
 62
     0
 10
0.641274
 20
8.653155
 30
0.0
 11
0.738774
 21
8.653155
 31
0.0
 12
0.690024
 22
8.945655
 32
0.0
 13
0.690024
 23
8.945655
 33
0.0
  0
TEXT
  8
0
  6
BYBLOCK
 62
     0
 10
0.385337
 20
5.930593
 30
0.0
 40
0.203125
  1
5.827
 41
0.75
  7
TXT
 72
     1
 11
0.690024
 21
6.032155
 31
0.0
 73
     2
  0
POINT
  8
DEFPOINTS
  6
BYBLOCK
 62
     0
 10
1.436123
 20
3.118655
 30
0.0
  0
POINT
  8
DEFPOINTS
  6
BYBLOCK
 62
     0
 10
1.436123
 20
8.945655
 30
0.0
  0
POINT
  8
DEFPOINTS
  6
BYBLOCK
 62
     0
 10
0.690024
 20
8.945655
 30
0.0
  0
ENDBLK
  8
0
  0
BLOCK
  8
0
  2
*D34
 70
    65
 10
0.0
 20
0.0
 30
0.0
  3
*D
  0
LINE
  8
0
  6
BYBLOCK
 62
     0
 10
14.797831
 20
9.45303
 30
0.0
 11
14.797831
 21
10.647233
 31
0.0
  0
LINE
  8
0
  6
BYBLOCK
 62
     0
 10
12.019831
 20
9.45303
 30
0.0
 11
12.019831
 21
10.647233
 31
0.0
  0
LINE
  8
0
  6
BYBLOCK
 62
     0
 10
14.505331
 20
10.496108
 30
0.0
 11
13.859768
 21
10.496108
 31
0.0
  0
LINE
  8
0
  6
BYBLOCK
 62
     0
 10
12.312331
 20
10.496108
 30
0.0
 11
12.957893
 21
10.496108
 31
0.0
  0
SOLID
  8
0
  6
BYBLOCK
 62
     0
 10
14.505331
 20
10.544858
 30
0.0
 11
14.505331
 21
10.447358
 31
0.0
 12
14.797831
 22
10.496108
 32
0.0
 13
14.797831
 23
10.496108
 33
0.0
  0
SOLID
  8
0
  6
BYBLOCK
 62
     0
 10
12.312331
 20
10.544858
 30
0.0
 11
12.312331
 21
10.447358
 31
0.0
 12
12.019831
 22
10.496108
 32
0.0
 13
12.019831
 23
10.496108
 33
0.0
  0
TEXT
  8
0
  6
BYBLOCK
 62
     0
 10
13.104143
 20
10.394545
 30
0.0
 40
0.203125
  1
2.778
 41
0.75
  7
TXT
 72
     1
 11
13.408831
 21
10.496108
 31
0.0
 73
     2
  0
POINT
  8
DEFPOINTS
  6
BYBLOCK
 62
     0
 10
14.797831
 20
9.350655
 30
0.0
  0
POINT
  8
DEFPOINTS
  6
BYBLOCK
 62
     0
 10
12.019831
 20
9.350655
 30
0.0
  0
POINT
  8
DEFPOINTS
  6
BYBLOCK
 62
     0
 10
12.019831
 20
10.496108
 30
0.0
  0
ENDBLK
  8
0
  0
BLOCK
  8
0
  2
*D35
 70
    65
 10
0.0
 20
0.0
 30
0.0
  3
*D
  0
LINE
  8
0
  6
BYBLOCK
 62
     0
 10
15.062331
 20
9.36303
 30
0.0
 11
15.062331
 21
11.099803
 31
0.0
  0
LINE
  8
0
  6
BYBLOCK
 62
     0
 10
11.755331
 20
9.36303
 30
0.0
 11
11.755331
 21
11.099803
 31
0.0
  0
LINE
  8
0
  6
BYBLOCK
 62
     0
 10
14.769831
 20
10.948678
 30
0.0
 11
13.847073
 21
10.948678
 31
0.0
  0
LINE
  8
0
  6
BYBLOCK
 62
     0
 10
12.047831
 20
10.948678
 30
0.0
 11
12.970588
 21
10.948678
 31
0.0
  0
SOLID
  8
0
  6
BYBLOCK
 62
     0
 10
14.769831
 20
10.997428
 30
0.0
 11
14.769831
 21
10.899928
 31
0.0
 12
15.062331
 22
10.948678
 32
0.0
 13
15.062331
 23
10.948678
 33
0.0
  0
SOLID
  8
0
  6
BYBLOCK
 62
     0
 10
12.047831
 20
10.997428
 30
0.0
 11
12.047831
 21
10.899928
 31
0.0
 12
11.755331
 22
10.948678
 32
0.0
 13
11.755331
 23
10.948678
 33
0.0
  0
TEXT
  8
0
  6
BYBLOCK
 62
     0
 10
13.116838
 20
10.847116
 30
0.0
 40
0.203125
  1
3.307
 41
0.75
  7
TXT
 72
     1
 11
13.408831
 21
10.948678
 31
0.0
 73
     2
  0
POINT
  8
DEFPOINTS
  6
BYBLOCK
 62
     0
 10
15.062331
 20
9.260655
 30
0.0
  0
POINT
  8
DEFPOINTS
  6
BYBLOCK
 62
     0
 10
11.755331
 20
9.260655
 30
0.0
  0
POINT
  8
DEFPOINTS
  6
BYBLOCK
 62
     0
 10
11.755331
 20
10.948678
 30
0.0
  0
ENDBLK
  8
0
  0
BLOCK
  8
0
  2
*D36
 70
    65
 10
0.0
 20
0.0
 30
0.0
  3
*D
  0
LINE
  8
0
  6
BYBLOCK
 62
     0
 10
11.755331
 20
9.36303
 30
0.0
 11
11.755331
 21
11.099803
 31
0.0
  0
LINE
  8
0
  6
BYBLOCK
 62
     0
 10
11.440331
 20
9.38303
 30
0.0
 11
11.440331
 21
11.099803
 31
0.0
  0
LINE
  8
0
  6
BYBLOCK
 62
     0
 10
12.047831
 20
10.948678
 30
0.0
 11
12.340331
 21
10.948678
 31
0.0
  0
LINE
  8
0
  6
BYBLOCK
 62
     0
 10
11.147831
 20
10.948678
 30
0.0
 11
10.855331
 21
10.948678
 31
0.0
  0
SOLID
  8
0
  6
BYBLOCK
 62
     0
 10
12.047831
 20
10.997428
 30
0.0
 11
12.047831
 21
10.899928
 31
0.0
 12
11.755331
 22
10.948678
 32
0.0
 13
11.755331
 23
10.948678
 33
0.0
  0
SOLID
  8
0
  6
BYBLOCK
 62
     0
 10
11.147831
 20
10.997428
 30
0.0
 11
11.147831
 21
10.899928
 31
0.0
 12
11.440331
 22
10.948678
 32
0.0
 13
11.440331
 23
10.948678
 33
0.0
  0
TEXT
  8
0
  6
BYBLOCK
 62
     0
 10
10.175877
 20
10.847116
 30
0.0
 40
0.203125
  1
0.315
 41
0.75
  7
TXT
 72
     1
 11
10.442479
 21
10.948678
 31
0.0
 73
     2
  0
POINT
  8
DEFPOINTS
  6
BYBLOCK
 62
     0
 10
11.755331
 20
9.260655
 30
0.0
  0
POINT
  8
DEFPOINTS
  6
BYBLOCK
 62
     0
 10
11.440331
 20
9.280655
 30
0.0
  0
POINT
  8
DEFPOINTS
  6
BYBLOCK
 62
     0
 10
11.440331
 20
10.948678
 30
0.0
  0
ENDBLK
  8
0
  0
BLOCK
  8
0
  2
*D37
 70
    65
 10
0.0
 20
0.0
 30
0.0
  3
*D
  0
LINE
  8
0
  6
BYBLOCK
 62
     0
 10
7.885545
 20
21.754024
 30
0.0
 11
7.885545
 21
22.386687
 31
0.0
  0
LINE
  8
0
  6
BYBLOCK
 62
     0
 10
9.460545
 20
21.592078
 30
0.0
 11
9.460545
 21
22.386687
 31
0.0
  0
LINE
  8
0
  6
BYBLOCK
 62
     0
 10
7.593045
 20
22.235562
 30
0.0
 11
7.300545
 21
22.235562
 31
0.0
  0
LINE
  8
0
  6
BYBLOCK
 62
     0
 10
9.753045
 20
22.235562
 30
0.0
 11
10.045545
 21
22.235562
 31
0.0
  0
SOLID
  8
0
  6
BYBLOCK
 62
     0
 10
7.593045
 20
22.284312
 30
0.0
 11
7.593045
 21
22.186812
 31
0.0
 12
7.885545
 22
22.235562
 32
0.0
 13
7.885545
 23
22.235562
 33
0.0
  0
SOLID
  8
0
  6
BYBLOCK
 62
     0
 10
9.753045
 20
22.284312
 30
0.0
 11
9.753045
 21
22.186812
 31
0.0
 12
9.460545
 22
22.235562
 32
0.0
 13
9.460545
 23
22.235562
 33
0.0
  0
TEXT
  8
0
  6
BYBLOCK
 62
     0
 10
8.393748
 20
22.133999
 30
0.0
 40
0.203125
  1
1.575
 41
0.75
  7
TXT
 72
     1
 11
8.673045
 21
22.235562
 31
0.0
 73
     2
  0
POINT
  8
DEFPOINTS
  6
BYBLOCK
 62
     0
 10
7.885545
 20
21.651649
 30
0.0
  0
POINT
  8
DEFPOINTS
  6
BYBLOCK
 62
     0
 10
9.460545
 20
21.489703
 30
0.0
  0
POINT
  8
DEFPOINTS
  6
BYBLOCK
 62
     0
 10
9.460545
 20
22.235562
 30
0.0
  0
ENDBLK
  8
0
  0
BLOCK
  8
0
  2
*D38
 70
    65
 10
0.0
 20
0.0
 30
0.0
  3
*D
  0
LINE
  8
0
  6
BYBLOCK
 62
     0
 10
2.387463
 20
21.234683
 30
0.0
 11
2.387463
 21
22.386687
 31
0.0
  0
LINE
  8
0
  6
BYBLOCK
 62
     0
 10
5.222463
 20
21.234683
 30
0.0
 11
5.222463
 21
22.386687
 31
0.0
  0
LINE
  8
0
  6
BYBLOCK
 62
     0
 10
2.679963
 20
22.235562
 30
0.0
 11
3.354026
 21
22.235562
 31
0.0
  0
LINE
  8
0
  6
BYBLOCK
 62
     0
 10
4.929963
 20
22.235562
 30
0.0
 11
4.255901
 21
22.235562
 31
0.0
  0
SOLID
  8
0
  6
BYBLOCK
 62
     0
 10
2.679963
 20
22.284312
 30
0.0
 11
2.679963
 21
22.186812
 31
0.0
 12
2.387463
 22
22.235562
 32
0.0
 13
2.387463
 23
22.235562
 33
0.0
  0
SOLID
  8
0
  6
BYBLOCK
 62
     0
 10
4.929963
 20
22.284312
 30
0.0
 11
4.929963
 21
22.186812
 31
0.0
 12
5.222463
 22
22.235562
 32
0.0
 13
5.222463
 23
22.235562
 33
0.0
  0
TEXT
  8
0
  6
BYBLOCK
 62
     0
 10
3.500276
 20
22.133999
 30
0.0
 40
0.203125
  1
2.835
 41
0.75
  7
TXT
 72
     1
 11
3.804963
 21
22.235562
 31
0.0
 73
     2
  0
POINT
  8
DEFPOINTS
  6
BYBLOCK
 62
     0
 10
2.387463
 20
21.132308
 30
0.0
  0
POINT
  8
DEFPOINTS
  6
BYBLOCK
 62
     0
 10
5.222463
 20
21.132308
 30
0.0
  0
POINT
  8
DEFPOINTS
  6
BYBLOCK
 62
     0
 10
5.222463
 20
22.235562
 30
0.0
  0
ENDBLK
  8
0
  0
BLOCK
  8
0
  2
*D39
 70
    65
 10
0.0
 20
0.0
 30
0.0
  3
*D
  0
LINE
  8
0
  6
BYBLOCK
 62
     0
 10
1.836463
 20
21.628683
 30
0.0
 11
1.836463
 21
22.792138
 31
0.0
  0
LINE
  8
0
  6
BYBLOCK
 62
     0
 10
5.773463
 20
21.628683
 30
0.0
 11
5.773463
 21
22.792138
 31
0.0
  0
LINE
  8
0
  6
BYBLOCK
 62
     0
 10
2.128963
 20
22.641013
 30
0.0
 11
3.354026
 21
22.641013
 31
0.0
  0
LINE
  8
0
  6
BYBLOCK
 62
     0
 10
5.480963
 20
22.641013
 30
0.0
 11
4.255901
 21
22.641013
 31
0.0
  0
SOLID
  8
0
  6
BYBLOCK
 62
     0
 10
2.128963
 20
22.689763
 30
0.0
 11
2.128963
 21
22.592263
 31
0.0
 12
1.836463
 22
22.641013
 32
0.0
 13
1.836463
 23
22.641013
 33
0.0
  0
SOLID
  8
0
  6
BYBLOCK
 62
     0
 10
5.480963
 20
22.689763
 30
0.0
 11
5.480963
 21
22.592263
 31
0.0
 12
5.773463
 22
22.641013
 32
0.0
 13
5.773463
 23
22.641013
 33
0.0
  0
TEXT
  8
0
  6
BYBLOCK
 62
     0
 10
3.500276
 20
22.539451
 30
0.0
 40
0.203125
  1
3.937
 41
0.75
  7
TXT
 72
     1
 11
3.804963
 21
22.641013
 31
0.0
 73
     2
  0
POINT
  8
DEFPOINTS
  6
BYBLOCK
 62
     0
 10
1.836463
 20
21.526308
 30
0.0
  0
POINT
  8
DEFPOINTS
  6
BYBLOCK
 62
     0
 10
5.773463
 20
21.526308
 30
0.0
  0
POINT
  8
DEFPOINTS
  6
BYBLOCK
 62
     0
 10
5.773463
 20
22.641013
 30
0.0
  0
ENDBLK
  8
0
  0
BLOCK
  8
0
  2
*D40
 70
    65
 10
0.0
 20
0.0
 30
0.0
  3
*D
  0
LINE
  8
0
  6
BYBLOCK
 62
     0
 10
5.489963
 20
14.883933
 30
0.0
 11
5.489963
 21
14.154054
 31
0.0
  0
LINE
  8
0
  6
BYBLOCK
 62
     0
 10
2.119963
 20
14.883933
 30
0.0
 11
2.119963
 21
14.154054
 31
0.0
  0
LINE
  8
0
  6
BYBLOCK
 62
     0
 10
5.197463
 20
14.305179
 30
0.0
 11
4.243205
 21
14.305179
 31
0.0
  0
LINE
  8
0
  6
BYBLOCK
 62
     0
 10
2.412463
 20
14.305179
 30
0.0
 11
3.366721
 21
14.305179
 31
0.0
  0
SOLID
  8
0
  6
BYBLOCK
 62
     0
 10
5.197463
 20
14.353929
 30
0.0
 11
5.197463
 21
14.256429
 31
0.0
 12
5.489963
 22
14.305179
 32
0.0
 13
5.489963
 23
14.305179
 33
0.0
  0
SOLID
  8
0
  6
BYBLOCK
 62
     0
 10
2.412463
 20
14.353929
 30
0.0
 11
2.412463
 21
14.256429
 31
0.0
 12
2.119963
 22
14.305179
 32
0.0
 13
2.119963
 23
14.305179
 33
0.0
  0
TEXT
  8
0
  6
BYBLOCK
 62
     0
 10
3.512971
 20
14.203617
 30
0.0
 40
0.203125
  1
3.370
 41
0.75
  7
TXT
 72
     1
 11
3.804963
 21
14.305179
 31
0.0
 73
     2
  0
POINT
  8
DEFPOINTS
  6
BYBLOCK
 62
     0
 10
5.489963
 20
14.986308
 30
0.0
  0
POINT
  8
DEFPOINTS
  6
BYBLOCK
 62
     0
 10
2.119963
 20
14.986308
 30
0.0
  0
POINT
  8
DEFPOINTS
  6
BYBLOCK
 62
     0
 10
2.119963
 20
14.305179
 30
0.0
  0
ENDBLK
  8
0
  0
BLOCK
  8
0
  2
*X41
 70
    65
 10
0.0
 20
0.0
 30
0.0
  3
*X
  0
LINE
  8
0
 62
     0
 10
7.364163
 20
5.94995
 30
0.0
 11
7.469163
 21
6.05495
 31
0.0
  0
LINE
  8
0
 62
     0
 10
7.364163
 20
6.126726
 30
0.0
 11
7.469163
 21
6.231726
 31
0.0
  0
LINE
  8
0
 62
     0
 10
7.364163
 20
6.303503
 30
0.0
 11
7.469163
 21
6.408503
 31
0.0
  0
LINE
  8
0
 62
     0
 10
7.364163
 20
6.48028
 30
0.0
 11
7.469163
 21
6.58528
 31
0.0
  0
LINE
  8
0
 62
     0
 10
7.364163
 20
6.657057
 30
0.0
 11
7.469163
 21
6.762057
 31
0.0
  0
LINE
  8
0
 62
     0
 10
7.364163
 20
6.833833
 30
0.0
 11
7.469163
 21
6.938833
 31
0.0
  0
LINE
  8
0
 62
     0
 10
7.364163
 20
7.01061
 30
0.0
 11
7.469163
 21
7.11561
 31
0.0
  0
LINE
  8
0
 62
     0
 10
7.364163
 20
7.187387
 30
0.0
 11
7.469163
 21
7.292387
 31
0.0
  0
LINE
  8
0
 62
     0
 10
7.324163
 20
7.324163
 30
0.0
 11
7.447163
 21
7.447163
 31
0.0
  0
LINE
  8
0
 62
     0
 10
7.364163
 20
8.955154
 30
0.0
 11
7.447163
 21
9.038154
 31
0.0
  0
LINE
  8
0
 62
     0
 10
7.814665
 20
9.405655
 30
0.0
 11
7.915163
 21
9.506154
 31
0.0
  0
LINE
  8
0
 62
     0
 10
7.324163
 20
9.09193
 30
0.0
 11
7.447163
 21
9.21493
 31
0.0
  0
LINE
  8
0
 62
     0
 10
7.637888
 20
9.405655
 30
0.0
 11
7.784924
 21
9.55269
 31
0.0
  0
LINE
  8
0
 62
     0
 10
7.324163
 20
9.268707
 30
0.0
 11
7.447163
 21
9.391707
 31
0.0
  0
LINE
  8
0
 62
     0
 10
7.461112
 20
9.405655
 30
0.0
 11
7.570304
 21
9.514847
 31
0.0
  0
LINE
  8
0
 62
     0
 10
7.364163
 20
5.773173
 30
0.0
 11
7.469163
 21
5.878173
 31
0.0
  0
LINE
  8
0
 62
     0
 10
7.364163
 20
5.596396
 30
0.0
 11
7.469163
 21
5.701396
 31
0.0
  0
LINE
  8
0
 62
     0
 10
7.364163
 20
5.41962
 30
0.0
 11
7.469163
 21
5.52462
 31
0.0
  0
LINE
  8
0
 62
     0
 10
7.364163
 20
5.242843
 30
0.0
 11
7.469163
 21
5.347843
 31
0.0
  0
LINE
  8
0
 62
     0
 10
7.364163
 20
5.066066
 30
0.0
 11
7.469163
 21
5.171066
 31
0.0
  0
LINE
  8
0
 62
     0
 10
7.364163
 20
4.88929
 30
0.0
 11
7.469163
 21
4.99429
 31
0.0
  0
LINE
  8
0
 62
     0
 10
7.364163
 20
4.712513
 30
0.0
 11
7.469163
 21
4.817513
 31
0.0
  0
LINE
  8
0
 62
     0
 10
7.364163
 20
4.535736
 30
0.0
 11
7.469163
 21
4.640736
 31
0.0
  0
LINE
  8
0
 62
     0
 10
7.364163
 20
4.358959
 30
0.0
 11
7.469163
 21
4.463959
 31
0.0
  0
LINE
  8
0
 62
     0
 10
7.364163
 20
4.182183
 30
0.0
 11
7.469163
 21
4.287183
 31
0.0
  0
LINE
  8
0
 62
     0
 10
7.364163
 20
4.005406
 30
0.0
 11
7.469163
 21
4.110406
 31
0.0
  0
LINE
  8
0
 62
     0
 10
7.364163
 20
3.828629
 30
0.0
 11
7.469163
 21
3.933629
 31
0.0
  0
LINE
  8
0
 62
     0
 10
7.364163
 20
3.651853
 30
0.0
 11
7.469163
 21
3.756853
 31
0.0
  0
LINE
  8
0
 62
     0
 10
7.364163
 20
3.475076
 30
0.0
 11
7.469163
 21
3.580076
 31
0.0
  0
LINE
  8
0
 62
     0
 10
7.364163
 20
3.298299
 30
0.0
 11
7.469163
 21
3.403299
 31
0.0
  0
LINE
  8
0
 62
     0
 10
7.364163
 20
3.121523
 30
0.0
 11
7.469163
 21
3.226523
 31
0.0
  0
LINE
  8
0
 62
     0
 10
7.364163
 20
2.944746
 30
0.0
 11
7.469163
 21
3.049746
 31
0.0
  0
LINE
  8
0
 62
     0
 10
7.324163
 20
2.727969
 30
0.0
 11
7.336849
 21
2.740655
 31
0.0
  0
LINE
  8
0
 62
     0
 10
7.364163
 20
2.767969
 30
0.0
 11
7.469163
 21
2.872969
 31
0.0
  0
LINE
  8
0
 62
     0
 10
7.363527
 20
2.590556
 30
0.0
 11
7.469163
 21
2.696193
 31
0.0
  0
LINE
  8
0
 62
     0
 10
7.509867
 20
2.56012
 30
0.0
 11
7.608403
 21
2.658655
 31
0.0
  0
LINE
  8
0
 62
     0
 10
7.660146
 20
2.533622
 30
0.0
 11
7.785179
 21
2.658655
 31
0.0
  0
LINE
  8
0
 62
     0
 10
7.810424
 20
2.507124
 30
0.0
 11
7.915163
 21
2.611862
 31
0.0
  0
ENDBLK
  8
0
  0
ENDSEC
  0
SECTION
  2
ENTITIES
  0
LINE
  8
OBJECT
 10
1.467123
 20
9.575655
 30
0.0
 11
4.814123
 21
9.575655
 31
0.0
  0
LINE
  8
OBJECT
 10
5.109123
 20
9.280655
 30
0.0
 11
5.109123
 21
7.377655
 31
0.0
  0
LINE
  8
OBJECT
 10
4.814123
 20
2.488655
 30
0.0
 11
1.467123
 21
2.488655
 31
0.0
  0
CIRCLE
  8
OBJECT
 10
1.487123
 20
9.260655
 30
0.0
 40
0.0885
  0
CIRCLE
  8
OBJECT
 10
4.794123
 20
9.260655
 30
0.0
 40
0.0885
  0
ARC
  8
OBJECT
 10
1.467123
 20
9.280655
 30
0.0
 40
0.295
 50
90.0
 51
180.0
  0
ARC
  8
OBJECT
 10
4.814123
 20
9.280655
 30
0.0
 40
0.295
 50
0.0
 51
90.0
  0
ARC
  8
OBJECT
 10
4.814123
 20
2.783655
 30
0.0
 40
0.295
 50
270.0
 51
0.0
  0
ARC
  8
OBJECT
 10
1.467123
 20
2.783655
 30
0.0
 40
0.295
 50
180.0
 51
270.0
  0
CIRCLE
  8
OBJECT
 10
1.556123
 20
6.878655
 30
0.0
 40
0.049
  0
CIRCLE
  8
OBJECT
 10
1.556123
 20
6.878655
 30
0.0
 40
0.118
  0
CIRCLE
  8
OBJECT
 10
4.725123
 20
6.878655
 30
0.0
 40
0.118
  0
CIRCLE
  8
OBJECT
 10
4.725123
 20
6.878655
 30
0.0
 40
0.049
  0
CIRCLE
  8
OBJECT
 10
1.556123
 20
5.323655
 30
0.0
 40
0.118
  0
CIRCLE
  8
OBJECT
 10
1.556123
 20
5.323655
 30
0.0
 40
0.049
  0
CIRCLE
  8
OBJECT
 10
4.725123
 20
5.323655
 30
0.0
 40
0.049
  0
CIRCLE
  8
OBJECT
 10
4.725123
 20
5.323655
 30
0.0
 40
0.118
  0
CIRCLE
  8
OBJECT
 10
1.556123
 20
3.571655
 30
0.0
 40
0.049
  0
CIRCLE
  8
OBJECT
 10
1.556123
 20
3.571655
 30
0.0
 40
0.118
  0
CIRCLE
  8
OBJECT
 10
4.725123
 20
3.571655
 30
0.0
 40
0.118
  0
CIRCLE
  8
OBJECT
 10
4.725123
 20
3.571655
 30
0.0
 40
0.049
  0
CIRCLE
  8
OBJECT
 10
2.156123
 20
9.063655
 30
0.0
 40
0.0195
  0
CIRCLE
  8
OBJECT
 10
2.156123
 20
9.063655
 30
0.0
 40
0.059
  0
CIRCLE
  8
OBJECT
 10
2.156123
 20
7.252655
 30
0.0
 40
0.059
  0
CIRCLE
  8
OBJECT
 10
2.156123
 20
7.252655
 30
0.0
 40
0.0195
  0
CIRCLE
  8
OBJECT
 10
4.125123
 20
9.063655
 30
0.0
 40
0.059
  0
CIRCLE
  8
OBJECT
 10
4.125123
 20
9.063655
 30
0.0
 40
0.0195
  0
CIRCLE
  8
OBJECT
 10
4.125123
 20
7.252655
 30
0.0
 40
0.059
  0
CIRCLE
  8
OBJECT
 10
4.125123
 20
7.252655
 30
0.0
 40
0.0195
  0
LINE
  8
OBJECT
 10
1.723123
 20
8.886655
 30
0.0
 11
4.558123
 21
8.886655
 31
0.0
  0
LINE
  8
OBJECT
 10
1.723123
 20
7.508655
 30
0.0
 11
4.558123
 21
7.508655
 31
0.0
  0
LINE
  8
OBJECT
 10
1.723123
 20
7.508655
 30
0.0
 11
1.723123
 21
8.886655
 31
0.0
  0
LINE
  8
OBJECT
 10
4.558123
 20
8.886655
 30
0.0
 11
4.558123
 21
7.508655
 31
0.0
  0
LINE
  8
OBJECT
 10
7.885545
 20
21.651649
 30
0.0
 11
7.885545
 21
14.903967
 31
0.0
  0
LINE
  8
OBJECT
 10
8.476545
 20
21.821308
 30
0.0
 11
8.476545
 21
14.734308
 31
0.0
  0
LINE
  8
OBJECT
 10
8.476545
 20
21.821308
 30
0.0
 11
7.950001
 21
21.728464
 31
0.0
  0
LINE
  8
OBJECT
 10
8.476545
 20
14.734308
 30
0.0
 11
7.950001
 21
14.827152
 31
0.0
  0
ARC
  8
OBJECT
 10
11.735331
 20
9.280655
 30
0.0
 40
0.295
 50
90.0
 51
180.0
  0
LINE
  8
OBJECT
 10
11.735331
 20
9.575655
 30
0.0
 11
15.082331
 21
9.575655
 31
0.0
  0
LINE
  8
OBJECT
 10
15.377331
 20
9.280655
 30
0.0
 11
15.377331
 21
7.377655
 31
0.0
  0
CIRCLE
  8
OBJECT
 10
11.755331
 20
9.260655
 30
0.0
 40
0.063
  0
CIRCLE
  8
OBJECT
 10
12.424331
 20
9.201655
 30
0.0
 40
0.118
  0
CIRCLE
  8
OBJECT
 10
12.424331
 20
9.201655
 30
0.0
 40
0.049
  0
CIRCLE
  8
OBJECT
 10
14.393331
 20
9.201655
 30
0.0
 40
0.049
  0
CIRCLE
  8
OBJECT
 10
14.393331
 20
9.201655
 30
0.0
 40
0.118
  0
CIRCLE
  8
OBJECT
 10
14.393331
 20
7.272655
 30
0.0
 40
0.118
  0
CIRCLE
  8
OBJECT
 10
12.424331
 20
7.272655
 30
0.0
 40
0.049
  0
CIRCLE
  8
OBJECT
 10
12.424331
 20
7.272655
 30
0.0
 40
0.118
  0
CIRCLE
  8
OBJECT
 10
14.393331
 20
7.272655
 30
0.0
 40
0.049
  0
CIRCLE
  8
OBJECT
 10
11.824331
 20
6.288655
 30
0.0
 40
0.118
  0
CIRCLE
  8
OBJECT
 10
11.824331
 20
6.288655
 30
0.0
 40
0.049
  0
CIRCLE
  8
OBJECT
 10
14.993331
 20
6.288655
 30
0.0
 40
0.049
  0
CIRCLE
  8
OBJECT
 10
14.993331
 20
6.288655
 30
0.0
 40
0.118
  0
CIRCLE
  8
OBJECT
 10
11.824331
 20
4.457655
 30
0.0
 40
0.049
  0
CIRCLE
  8
OBJECT
 10
11.824331
 20
4.457655
 30
0.0
 40
0.118
  0
CIRCLE
  8
OBJECT
 10
14.993331
 20
4.457655
 30
0.0
 40
0.118
  0
CIRCLE
  8
OBJECT
 10
14.993331
 20
4.457655
 30
0.0
 40
0.049
  0
CIRCLE
  8
OBJECT
 10
11.824331
 20
3.335655
 30
0.0
 40
0.118
  0
CIRCLE
  8
OBJECT
 10
11.824331
 20
3.335655
 30
0.0
 40
0.049
  0
CIRCLE
  8
OBJECT
 10
14.993331
 20
3.335655
 30
0.0
 40
0.049
  0
CIRCLE
  8
OBJECT
 10
14.993331
 20
3.335655
 30
0.0
 40
0.118
  0
CIRCLE
  8
OBJECT
 10
13.408831
 20
7.284655
 30
0.0
 40
0.138
  0
LINE
  8
OBJECT
 10
9.460545
 20
21.489703
 30
0.0
 11
9.460545
 21
19.623308
 31
0.0
  0
LINE
  8
OBJECT
 10
8.515545
 20
21.821308
 30
0.0
 11
8.515545
 21
14.734308
 31
0.0
  0
LINE
  8
OBJECT
 10
8.515545
 20
21.821308
 30
0.0
 11
9.153791
 21
21.804595
 31
0.0
  0
ARC
  8
OBJECT
 10
9.145545
 20
21.489703
 30
0.0
 40
0.315
 50
0.0
 51
88.5
  0
LINE
  8
OBJECT
 10
8.515545
 20
14.734308
 30
0.0
 11
9.153791
 21
14.751021
 31
0.0
  0
ARC
  8
OBJECT
 10
9.145545
 20
15.065913
 30
0.0
 40
0.315
 50
271.5
 51
0.0
  0
LINE
  8
OBJECT
 10
4.939123
 20
8.851655
 30
0.0
 11
4.939123
 21
3.212655
 31
0.0
  0
LINE
  8
OBJECT
 10
1.895623
 20
9.405655
 30
0.0
 11
4.385623
 21
9.405655
 31
0.0
  0
LINE
  8
OBJECT
 10
1.342123
 20
3.212655
 30
0.0
 11
1.342123
 21
8.851655
 31
0.0
  0
LINE
  8
OBJECT
 10
1.801623
 20
9.311655
 30
0.0
 11
1.801623
 21
9.258155
 31
0.0
  0
LINE
  8
OBJECT
 10
1.436123
 20
8.945655
 30
0.0
 11
1.489123
 21
8.945655
 31
0.0
  0
ARC
  8
OBJECT
 10
1.489123
 20
9.258155
 30
0.0
 40
0.3125
 50
270.0
 51
0.0
  0
ARC
  8
OBJECT
 10
1.436123
 20
8.851655
 30
0.0
 40
0.094
 50
90.0
 51
180.0
  0
ARC
  8
OBJECT
 10
1.895623
 20
9.311655
 30
0.0
 40
0.094
 50
90.0
 51
180.0
  0
ARC
  8
OBJECT
 10
1.436123
 20
8.851655
 30
0.0
 40
0.139
 50
90.0
 51
180.0
  0
LINE
  8
OBJECT
 10
1.436123
 20
8.990655
 30
0.0
 11
1.489123
 21
8.990655
 31
0.0
  0
ARC
  8
OBJECT
 10
1.489123
 20
9.258155
 30
0.0
 40
0.2675
 50
270.0
 51
0.0
  0
LINE
  8
OBJECT
 10
1.756623
 20
9.311655
 30
0.0
 11
1.756623
 21
9.258155
 31
0.0
  0
ARC
  8
OBJECT
 10
1.895623
 20
9.311655
 30
0.0
 40
0.139
 50
90.0
 51
180.0
  0
LINE
  8
OBJECT
 10
1.895623
 20
9.450655
 30
0.0
 11
4.385623
 21
9.450655
 31
0.0
  0
LINE
  8
OBJECT
 10
1.297123
 20
3.212655
 30
0.0
 11
1.297123
 21
8.851655
 31
0.0
  0
LINE
  8
OBJECT
 10
1.225123
 20
3.212655
 30
0.0
 11
1.225123
 21
8.851655
 31
0.0
  0
ARC
  8
OBJECT
 10
1.436123
 20
8.851655
 30
0.0
 40
0.211
 50
90.0
 51
180.0
  0
ARC
  8
OBJECT
 10
1.489123
 20
9.258155
 30
0.0
 40
0.1955
 50
270.0
 51
0.0
  0
LINE
  8
OBJECT
 10
1.436123
 20
9.062655
 30
0.0
 11
1.489123
 21
9.062655
 31
0.0
  0
LINE
  8
OBJECT
 10
1.684623
 20
9.311655
 30
0.0
 11
1.684623
 21
9.258155
 31
0.0
  0
ARC
  8
OBJECT
 10
1.895623
 20
9.311655
 30
0.0
 40
0.211
 50
90.0
 51
180.0
  0
LINE
  8
OBJECT
 10
1.895623
 20
9.522655
 30
0.0
 11
4.385623
 21
9.522655
 31
0.0
  0
ARC
  8
OBJECT
 10
4.845123
 20
8.851655
 30
0.0
 40
0.211
 50
0.0
 51
90.0
  0
ARC
  8
OBJECT
 10
4.845123
 20
8.851655
 30
0.0
 40
0.139
 50
0.0
 51
90.0
  0
ARC
  8
OBJECT
 10
4.845123
 20
8.851655
 30
0.0
 40
0.094
 50
0.0
 51
90.0
  0
LINE
  8
OBJECT
 10
4.845123
 20
9.062655
 30
0.0
 11
4.792123
 21
9.062655
 31
0.0
  0
ARC
  8
OBJECT
 10
4.792123
 20
9.258155
 30
0.0
 40
0.1955
 50
180.0
 51
270.0
  0
ARC
  8
OBJECT
 10
4.792123
 20
9.258155
 30
0.0
 40
0.2675
 50
180.0
 51
270.0
  0
LINE
  8
OBJECT
 10
4.845123
 20
8.990655
 30
0.0
 11
4.792123
 21
8.990655
 31
0.0
  0
ARC
  8
OBJECT
 10
4.792123
 20
9.258155
 30
0.0
 40
0.3125
 50
180.0
 51
270.0
  0
LINE
  8
OBJECT
 10
4.845123
 20
8.945655
 30
0.0
 11
4.792123
 21
8.945655
 31
0.0
  0
ARC
  8
OBJECT
 10
4.385623
 20
9.311655
 30
0.0
 40
0.211
 50
360.0
 51
90.0
  0
LINE
  8
OBJECT
 10
4.596623
 20
9.311655
 30
0.0
 11
4.596623
 21
9.258155
 31
0.0
  0
ARC
  8
OBJECT
 10
4.385623
 20
9.311655
 30
0.0
 40
0.139
 50
360.0
 51
90.0
  0
LINE
  8
OBJECT
 10
4.524623
 20
9.311655
 30
0.0
 11
4.524623
 21
9.258155
 31
0.0
  0
ARC
  8
OBJECT
 10
4.385623
 20
9.311655
 30
0.0
 40
0.094
 50
360.0
 51
90.0
  0
LINE
  8
OBJECT
 10
4.479623
 20
9.311655
 30
0.0
 11
4.479623
 21
9.258155
 31
0.0
  0
LINE
  8
OBJECT
 10
4.984123
 20
3.212655
 30
0.0
 11
4.984123
 21
8.851655
 31
0.0
  0
LINE
  8
OBJECT
 10
5.056123
 20
3.212655
 30
0.0
 11
5.056123
 21
8.851655
 31
0.0
  0
CIRCLE
  8
OBJECT
 10
4.965242
 20
9.089535
 30
0.0
 40
0.039
  0
CIRCLE
  8
OBJECT
 10
4.623003
 20
9.431775
 30
0.0
 40
0.039
  0
CIRCLE
  8
OBJECT
 10
1.658242
 20
9.431775
 30
0.0
 40
0.039
  0
CIRCLE
  8
OBJECT
 10
1.316003
 20
9.089535
 30
0.0
 40
0.039
  0
CIRCLE
  8
OBJECT
 10
1.316003
 20
2.974775
 30
0.0
 40
0.039
  0
ARC
  8
OBJECT
 10
1.436123
 20
3.212655
 30
0.0
 40
0.211
 50
180.0
 51
270.0
  0
ARC
  8
OBJECT
 10
1.436123
 20
3.212655
 30
0.0
 40
0.139
 50
180.0
 51
270.0
  0
LINE
  8
OBJECT
 10
1.684623
 20
2.752655
 30
0.0
 11
1.684623
 21
2.806155
 31
0.0
  0
LINE
  8
OBJECT
 10
1.436123
 20
3.001655
 30
0.0
 11
1.489123
 21
3.001655
 31
0.0
  0
ARC
  8
OBJECT
 10
1.489123
 20
2.806155
 30
0.0
 40
0.1955
 50
360.0
 51
90.0
  0
LINE
  8
OBJECT
 10
1.756623
 20
2.752655
 30
0.0
 11
1.756623
 21
2.806155
 31
0.0
  0
ARC
  8
OBJECT
 10
1.489123
 20
2.806155
 30
0.0
 40
0.2675
 50
360.0
 51
90.0
  0
LINE
  8
OBJECT
 10
1.436123
 20
3.073655
 30
0.0
 11
1.489123
 21
3.073655
 31
0.0
  0
LINE
  8
OBJECT
 10
1.801623
 20
2.752655
 30
0.0
 11
1.801623
 21
2.806155
 31
0.0
  0
ARC
  8
OBJECT
 10
1.436123
 20
3.212655
 30
0.0
 40
0.094
 50
180.0
 51
270.0
  0
LINE
  8
OBJECT
 10
1.436123
 20
3.118655
 30
0.0
 11
1.489123
 21
3.118655
 31
0.0
  0
ARC
  8
OBJECT
 10
1.489123
 20
2.806155
 30
0.0
 40
0.3125
 50
360.0
 51
90.0
  0
CIRCLE
  8
OBJECT
 10
1.487123
 20
2.803655
 30
0.0
 40
0.0885
  0
ARC
  8
OBJECT
 10
1.895623
 20
2.752655
 30
0.0
 40
0.211
 50
180.0
 51
270.0
  0
CIRCLE
  8
OBJECT
 10
1.658242
 20
2.632535
 30
0.0
 40
0.039
  0
ARC
  8
OBJECT
 10
1.895623
 20
2.752655
 30
0.0
 40
0.139
 50
180.0
 51
270.0
  0
ARC
  8
OBJECT
 10
1.895623
 20
2.752655
 30
0.0
 40
0.094
 50
180.0
 51
270.0
  0
LINE
  8
OBJECT
 10
1.895623
 20
2.541655
 30
0.0
 11
4.385623
 21
2.541655
 31
0.0
  0
LINE
  8
OBJECT
 10
1.895623
 20
2.613655
 30
0.0
 11
4.385623
 21
2.613655
 31
0.0
  0
LINE
  8
OBJECT
 10
1.895623
 20
2.658655
 30
0.0
 11
4.385623
 21
2.658655
 31
0.0
  0
ARC
  8
OBJECT
 10
4.385623
 20
2.752655
 30
0.0
 40
0.211
 50
270.0
 51
0.0
  0
CIRCLE
  8
OBJECT
 10
4.623003
 20
2.632535
 30
0.0
 40
0.039
  0
LINE
  8
OBJECT
 10
4.479623
 20
2.752655
 30
0.0
 11
4.479623
 21
2.806155
 31
0.0
  0
ARC
  8
OBJECT
 10
4.385623
 20
2.752655
 30
0.0
 40
0.094
 50
270.0
 51
0.0
  0
LINE
  8
OBJECT
 10
4.524623
 20
2.752655
 30
0.0
 11
4.524623
 21
2.806155
 31
0.0
  0
ARC
  8
OBJECT
 10
4.385623
 20
2.752655
 30
0.0
 40
0.139
 50
270.0
 51
0.0
  0
LINE
  8
OBJECT
 10
4.596623
 20
2.752655
 30
0.0
 11
4.596623
 21
2.806155
 31
0.0
  0
CIRCLE
  8
OBJECT
 10
4.965242
 20
2.974775
 30
0.0
 40
0.039
  0
ARC
  8
OBJECT
 10
4.845123
 20
3.212655
 30
0.0
 40
0.139
 50
270.0
 51
0.0
  0
ARC
  8
OBJECT
 10
4.845123
 20
3.212655
 30
0.0
 40
0.211
 50
270.0
 51
0.0
  0
LINE
  8
OBJECT
 10
4.845123
 20
3.118655
 30
0.0
 11
4.792123
 21
3.118655
 31
0.0
  0
ARC
  8
OBJECT
 10
4.792123
 20
2.806155
 30
0.0
 40
0.3125
 50
90.0
 51
180.0
  0
LINE
  8
OBJECT
 10
4.845123
 20
3.073655
 30
0.0
 11
4.792123
 21
3.073655
 31
0.0
  0
ARC
  8
OBJECT
 10
4.792123
 20
2.806155
 30
0.0
 40
0.2675
 50
90.0
 51
180.0
  0
ARC
  8
OBJECT
 10
4.792123
 20
2.806155
 30
0.0
 40
0.1955
 50
90.0
 51
180.0
  0
LINE
  8
OBJECT
 10
4.845123
 20
3.001655
 30
0.0
 11
4.792123
 21
3.001655
 31
0.0
  0
ARC
  8
OBJECT
 10
4.845123
 20
3.212655
 30
0.0
 40
0.094
 50
270.0
 51
0.0
  0
CIRCLE
  8
OBJECT
 10
4.794123
 20
2.803655
 30
0.0
 40
0.0885
  0
LINE
  8
OBJECT
 10
5.124123
 20
6.207655
 30
0.0
 11
5.124123
 21
6.090655
 31
0.0
  0
LINE
  8
OBJECT
 10
5.109123
 20
6.090655
 30
0.0
 11
5.124123
 21
6.090655
 31
0.0
  0
LINE
  8
OBJECT
 10
5.109123
 20
6.207655
 30
0.0
 11
5.124123
 21
6.207655
 31
0.0
  0
LINE
  8
OBJECT
 10
5.124123
 20
6.441655
 30
0.0
 11
5.124123
 21
6.324655
 31
0.0
  0
LINE
  8
OBJECT
 10
5.109123
 20
6.324655
 30
0.0
 11
5.124123
 21
6.324655
 31
0.0
  0
LINE
  8
OBJECT
 10
5.109123
 20
6.441655
 30
0.0
 11
5.124123
 21
6.441655
 31
0.0
  0
LINE
  8
OBJECT
 10
5.124123
 20
6.675655
 30
0.0
 11
5.124123
 21
6.558655
 31
0.0
  0
LINE
  8
OBJECT
 10
5.109123
 20
6.558655
 30
0.0
 11
5.124123
 21
6.558655
 31
0.0
  0
LINE
  8
OBJECT
 10
5.109123
 20
6.675655
 30
0.0
 11
5.124123
 21
6.675655
 31
0.0
  0
LINE
  8
OBJECT
 10
5.124123
 20
6.909655
 30
0.0
 11
5.124123
 21
6.792655
 31
0.0
  0
LINE
  8
OBJECT
 10
5.109123
 20
6.792655
 30
0.0
 11
5.124123
 21
6.792655
 31
0.0
  0
LINE
  8
OBJECT
 10
5.109123
 20
6.909655
 30
0.0
 11
5.124123
 21
6.909655
 31
0.0
  0
LINE
  8
OBJECT
 10
5.124123
 20
7.143655
 30
0.0
 11
5.124123
 21
7.026655
 31
0.0
  0
LINE
  8
OBJECT
 10
5.109123
 20
7.026655
 30
0.0
 11
5.124123
 21
7.026655
 31
0.0
  0
LINE
  8
OBJECT
 10
5.109123
 20
7.143655
 30
0.0
 11
5.124123
 21
7.143655
 31
0.0
  0
LINE
  8
OBJECT
 10
5.124123
 20
7.377655
 30
0.0
 11
5.124123
 21
7.260655
 31
0.0
  0
LINE
  8
OBJECT
 10
5.109123
 20
7.260655
 30
0.0
 11
5.124123
 21
7.260655
 31
0.0
  0
LINE
  8
OBJECT
 10
5.109123
 20
7.377655
 30
0.0
 11
5.124123
 21
7.377655
 31
0.0
  0
LINE
  8
OBJECT
 10
5.124123
 20
5.154655
 30
0.0
 11
5.124123
 21
5.271655
 31
0.0
  0
LINE
  8
OBJECT
 10
5.109123
 20
5.271655
 30
0.0
 11
5.124123
 21
5.271655
 31
0.0
  0
LINE
  8
OBJECT
 10
5.109123
 20
5.388655
 30
0.0
 11
5.124123
 21
5.388655
 31
0.0
  0
LINE
  8
OBJECT
 10
5.109123
 20
5.505655
 30
0.0
 11
5.124123
 21
5.505655
 31
0.0
  0
LINE
  8
OBJECT
 10
5.124123
 20
5.388655
 30
0.0
 11
5.124123
 21
5.505655
 31
0.0
  0
LINE
  8
OBJECT
 10
5.109123
 20
5.622655
 30
0.0
 11
5.124123
 21
5.622655
 31
0.0
  0
LINE
  8
OBJECT
 10
5.109123
 20
5.739655
 30
0.0
 11
5.124123
 21
5.739655
 31
0.0
  0
LINE
  8
OBJECT
 10
5.124123
 20
5.622655
 30
0.0
 11
5.124123
 21
5.739655
 31
0.0
  0
LINE
  8
OBJECT
 10
5.124123
 20
5.856655
 30
0.0
 11
5.124123
 21
5.973655
 31
0.0
  0
LINE
  8
OBJECT
 10
5.109123
 20
5.973655
 30
0.0
 11
5.124123
 21
5.973655
 31
0.0
  0
LINE
  8
OBJECT
 10
5.109123
 20
5.856655
 30
0.0
 11
5.124123
 21
5.856655
 31
0.0
  0
LINE
  8
OBJECT
 10
5.109123
 20
4.686655
 30
0.0
 11
5.124123
 21
4.686655
 31
0.0
  0
LINE
  8
OBJECT
 10
5.109123
 20
4.803655
 30
0.0
 11
5.124123
 21
4.803655
 31
0.0
  0
LINE
  8
OBJECT
 10
5.124123
 20
4.686655
 30
0.0
 11
5.124123
 21
4.803655
 31
0.0
  0
LINE
  8
OBJECT
 10
5.109123
 20
4.920655
 30
0.0
 11
5.124123
 21
4.920655
 31
0.0
  0
LINE
  8
OBJECT
 10
5.109123
 20
5.037655
 30
0.0
 11
5.124123
 21
5.037655
 31
0.0
  0
LINE
  8
OBJECT
 10
5.124123
 20
4.920655
 30
0.0
 11
5.124123
 21
5.037655
 31
0.0
  0
LINE
  8
OBJECT
 10
5.109123
 20
5.154655
 30
0.0
 11
5.124123
 21
5.154655
 31
0.0
  0
LINE
  8
OBJECT
 10
5.109123
 20
7.260655
 30
0.0
 11
5.109123
 21
7.143655
 31
0.0
  0
LINE
  8
OBJECT
 10
5.109123
 20
7.026655
 30
0.0
 11
5.109123
 21
6.909655
 31
0.0
  0
LINE
  8
OBJECT
 10
5.109123
 20
6.792655
 30
0.0
 11
5.109123
 21
6.675655
 31
0.0
  0
LINE
  8
OBJECT
 10
5.109123
 20
6.558655
 30
0.0
 11
5.109123
 21
6.441655
 31
0.0
  0
LINE
  8
OBJECT
 10
5.109123
 20
6.324655
 30
0.0
 11
5.109123
 21
6.207655
 31
0.0
  0
LINE
  8
OBJECT
 10
5.109123
 20
6.090655
 30
0.0
 11
5.109123
 21
5.973655
 31
0.0
  0
LINE
  8
OBJECT
 10
5.109123
 20
5.856655
 30
0.0
 11
5.109123
 21
5.739655
 31
0.0
  0
LINE
  8
OBJECT
 10
5.109123
 20
5.622655
 30
0.0
 11
5.109123
 21
5.505655
 31
0.0
  0
LINE
  8
OBJECT
 10
5.109123
 20
5.388655
 30
0.0
 11
5.109123
 21
5.271655
 31
0.0
  0
LINE
  8
OBJECT
 10
5.109123
 20
5.154655
 30
0.0
 11
5.109123
 21
5.037655
 31
0.0
  0
LINE
  8
OBJECT
 10
5.109123
 20
4.920655
 30
0.0
 11
5.109123
 21
4.803655
 31
0.0
  0
LINE
  8
OBJECT
 10
5.109123
 20
4.686655
 30
0.0
 11
5.109123
 21
2.783655
 31
0.0
  0
LINE
  8
OBJECT
 10
1.172123
 20
5.856655
 30
0.0
 11
1.172123
 21
5.739655
 31
0.0
  0
LINE
  8
OBJECT
 10
1.157123
 20
4.686655
 30
0.0
 11
1.157123
 21
4.803655
 31
0.0
  0
LINE
  8
OBJECT
 10
1.172123
 20
4.686655
 30
0.0
 11
1.157123
 21
4.686655
 31
0.0
  0
LINE
  8
OBJECT
 10
1.172123
 20
4.920655
 30
0.0
 11
1.172123
 21
4.803655
 31
0.0
  0
LINE
  8
OBJECT
 10
1.172123
 20
5.154655
 30
0.0
 11
1.172123
 21
5.037655
 31
0.0
  0
LINE
  8
OBJECT
 10
1.172123
 20
5.388655
 30
0.0
 11
1.172123
 21
5.271655
 31
0.0
  0
LINE
  8
OBJECT
 10
1.172123
 20
5.622655
 30
0.0
 11
1.172123
 21
5.505655
 31
0.0
  0
LINE
  8
OBJECT
 10
1.172123
 20
5.154655
 30
0.0
 11
1.157123
 21
5.154655
 31
0.0
  0
LINE
  8
OBJECT
 10
1.157123
 20
4.920655
 30
0.0
 11
1.157123
 21
5.037655
 31
0.0
  0
LINE
  8
OBJECT
 10
1.172123
 20
5.037655
 30
0.0
 11
1.157123
 21
5.037655
 31
0.0
  0
LINE
  8
OBJECT
 10
1.172123
 20
4.920655
 30
0.0
 11
1.157123
 21
4.920655
 31
0.0
  0
LINE
  8
OBJECT
 10
1.172123
 20
4.803655
 30
0.0
 11
1.157123
 21
4.803655
 31
0.0
  0
LINE
  8
OBJECT
 10
1.157123
 20
5.622655
 30
0.0
 11
1.157123
 21
5.739655
 31
0.0
  0
LINE
  8
OBJECT
 10
1.172123
 20
5.739655
 30
0.0
 11
1.157123
 21
5.739655
 31
0.0
  0
LINE
  8
OBJECT
 10
1.172123
 20
5.622655
 30
0.0
 11
1.157123
 21
5.622655
 31
0.0
  0
LINE
  8
OBJECT
 10
1.157123
 20
5.388655
 30
0.0
 11
1.157123
 21
5.505655
 31
0.0
  0
LINE
  8
OBJECT
 10
1.172123
 20
5.505655
 30
0.0
 11
1.157123
 21
5.505655
 31
0.0
  0
LINE
  8
OBJECT
 10
1.172123
 20
5.388655
 30
0.0
 11
1.157123
 21
5.388655
 31
0.0
  0
LINE
  8
OBJECT
 10
1.172123
 20
5.271655
 30
0.0
 11
1.157123
 21
5.271655
 31
0.0
  0
LINE
  8
OBJECT
 10
1.157123
 20
5.154655
 30
0.0
 11
1.157123
 21
5.271655
 31
0.0
  0
LINE
  8
OBJECT
 10
1.157123
 20
6.909655
 30
0.0
 11
1.157123
 21
6.792655
 31
0.0
  0
LINE
  8
OBJECT
 10
1.172123
 20
6.090655
 30
0.0
 11
1.172123
 21
5.973655
 31
0.0
  0
LINE
  8
OBJECT
 10
1.172123
 20
6.324655
 30
0.0
 11
1.172123
 21
6.207655
 31
0.0
  0
LINE
  8
OBJECT
 10
1.172123
 20
6.558655
 30
0.0
 11
1.172123
 21
6.441655
 31
0.0
  0
LINE
  8
OBJECT
 10
1.172123
 20
6.792655
 30
0.0
 11
1.172123
 21
6.675655
 31
0.0
  0
LINE
  8
OBJECT
 10
1.172123
 20
5.856655
 30
0.0
 11
1.157123
 21
5.856655
 31
0.0
  0
LINE
  8
OBJECT
 10
1.172123
 20
5.973655
 30
0.0
 11
1.157123
 21
5.973655
 31
0.0
  0
LINE
  8
OBJECT
 10
1.157123
 20
5.856655
 30
0.0
 11
1.157123
 21
5.973655
 31
0.0
  0
LINE
  8
OBJECT
 10
1.172123
 20
6.792655
 30
0.0
 11
1.157123
 21
6.792655
 31
0.0
  0
LINE
  8
OBJECT
 10
1.172123
 20
6.675655
 30
0.0
 11
1.157123
 21
6.675655
 31
0.0
  0
LINE
  8
OBJECT
 10
1.172123
 20
6.558655
 30
0.0
 11
1.157123
 21
6.558655
 31
0.0
  0
LINE
  8
OBJECT
 10
1.157123
 20
6.675655
 30
0.0
 11
1.157123
 21
6.558655
 31
0.0
  0
LINE
  8
OBJECT
 10
1.172123
 20
6.441655
 30
0.0
 11
1.157123
 21
6.441655
 31
0.0
  0
LINE
  8
OBJECT
 10
1.172123
 20
6.324655
 30
0.0
 11
1.157123
 21
6.324655
 31
0.0
  0
LINE
  8
OBJECT
 10
1.157123
 20
6.441655
 30
0.0
 11
1.157123
 21
6.324655
 31
0.0
  0
LINE
  8
OBJECT
 10
1.157123
 20
6.207655
 30
0.0
 11
1.157123
 21
6.090655
 31
0.0
  0
LINE
  8
OBJECT
 10
1.172123
 20
6.090655
 30
0.0
 11
1.157123
 21
6.090655
 31
0.0
  0
LINE
  8
OBJECT
 10
1.172123
 20
6.207655
 30
0.0
 11
1.157123
 21
6.207655
 31
0.0
  0
LINE
  8
OBJECT
 10
1.172123
 20
7.026655
 30
0.0
 11
1.172123
 21
6.909655
 31
0.0
  0
LINE
  8
OBJECT
 10
1.172123
 20
7.260655
 30
0.0
 11
1.172123
 21
7.143655
 31
0.0
  0
LINE
  8
OBJECT
 10
1.172123
 20
7.377655
 30
0.0
 11
1.157123
 21
7.377655
 31
0.0
  0
LINE
  8
OBJECT
 10
1.172123
 20
7.260655
 30
0.0
 11
1.157123
 21
7.260655
 31
0.0
  0
LINE
  8
OBJECT
 10
1.157123
 20
7.377655
 30
0.0
 11
1.157123
 21
7.260655
 31
0.0
  0
LINE
  8
OBJECT
 10
1.172123
 20
7.143655
 30
0.0
 11
1.157123
 21
7.143655
 31
0.0
  0
LINE
  8
OBJECT
 10
1.172123
 20
7.026655
 30
0.0
 11
1.157123
 21
7.026655
 31
0.0
  0
LINE
  8
OBJECT
 10
1.157123
 20
7.143655
 30
0.0
 11
1.157123
 21
7.026655
 31
0.0
  0
LINE
  8
OBJECT
 10
1.172123
 20
6.909655
 30
0.0
 11
1.157123
 21
6.909655
 31
0.0
  0
LINE
  8
OBJECT
 10
1.172123
 20
9.280655
 30
0.0
 11
1.172123
 21
7.377655
 31
0.0
  0
LINE
  8
OBJECT
 10
1.172123
 20
4.686655
 30
0.0
 11
1.172123
 21
2.783655
 31
0.0
  0
LINE
  8
OBJECT
 10
4.939123
 20
7.311655
 30
0.0
 11
1.342123
 21
7.311655
 31
0.0
  0
LINE
  8
OBJECT
 10
1.983623
 20
8.932655
 30
0.0
 11
2.335623
 21
8.932655
 31
0.0
  0
LINE
  8
OBJECT
 10
1.677123
 20
8.021655
 30
0.0
 11
1.677123
 21
8.373655
 31
0.0
  0
LINE
  8
OBJECT
 10
1.636123
 20
8.021655
 30
0.0
 11
1.636123
 21
8.373655
 31
0.0
  0
LINE
  8
OBJECT
 10
1.983623
 20
8.973655
 30
0.0
 11
2.335623
 21
8.973655
 31
0.0
  0
LINE
  8
OBJECT
 10
1.677123
 20
8.373655
 30
0.0
 11
1.636123
 21
8.373655
 31
0.0
  0
LINE
  8
OBJECT
 10
1.677123
 20
8.021655
 30
0.0
 11
1.636123
 21
8.021655
 31
0.0
  0
LINE
  8
OBJECT
 10
4.604123
 20
8.021655
 30
0.0
 11
4.645123
 21
8.021655
 31
0.0
  0
LINE
  8
OBJECT
 10
4.604123
 20
8.373655
 30
0.0
 11
4.645123
 21
8.373655
 31
0.0
  0
LINE
  8
OBJECT
 10
4.645123
 20
8.021655
 30
0.0
 11
4.645123
 21
8.373655
 31
0.0
  0
LINE
  8
OBJECT
 10
4.604123
 20
8.021655
 30
0.0
 11
4.604123
 21
8.373655
 31
0.0
  0
LINE
  8
OBJECT
 10
2.335623
 20
8.932655
 30
0.0
 11
2.335623
 21
8.973655
 31
0.0
  0
LINE
  8
OBJECT
 10
1.983623
 20
8.932655
 30
0.0
 11
1.983623
 21
8.973655
 31
0.0
  0
LINE
  8
OBJECT
 10
4.297623
 20
8.932655
 30
0.0
 11
3.945623
 21
8.932655
 31
0.0
  0
LINE
  8
OBJECT
 10
4.297623
 20
8.973655
 30
0.0
 11
3.945623
 21
8.973655
 31
0.0
  0
LINE
  8
OBJECT
 10
4.297623
 20
8.932655
 30
0.0
 11
4.297623
 21
8.973655
 31
0.0
  0
LINE
  8
OBJECT
 10
3.945623
 20
8.932655
 30
0.0
 11
3.945623
 21
8.973655
 31
0.0
  0
LINE
  8
OBJECT
 10
1.983623
 20
7.462655
 30
0.0
 11
2.335623
 21
7.462655
 31
0.0
  0
LINE
  8
OBJECT
 10
1.983623
 20
7.421655
 30
0.0
 11
2.335623
 21
7.421655
 31
0.0
  0
LINE
  8
OBJECT
 10
1.983623
 20
7.462655
 30
0.0
 11
1.983623
 21
7.421655
 31
0.0
  0
LINE
  8
OBJECT
 10
2.335623
 20
7.462655
 30
0.0
 11
2.335623
 21
7.421655
 31
0.0
  0
LINE
  8
OBJECT
 10
3.945623
 20
7.462655
 30
0.0
 11
3.945623
 21
7.421655
 31
0.0
  0
LINE
  8
OBJECT
 10
4.297623
 20
7.462655
 30
0.0
 11
4.297623
 21
7.421655
 31
0.0
  0
LINE
  8
OBJECT
 10
4.297623
 20
7.421655
 30
0.0
 11
3.945623
 21
7.421655
 31
0.0
  0
LINE
  8
OBJECT
 10
4.297623
 20
7.462655
 30
0.0
 11
3.945623
 21
7.462655
 31
0.0
  0
LINE
  8
OBJECT
 10
8.116545
 20
19.623308
 30
0.0
 11
8.116545
 21
19.506308
 31
0.0
  0
LINE
  8
OBJECT
 10
8.476545
 20
19.623308
 30
0.0
 11
8.116545
 21
19.623308
 31
0.0
  0
LINE
  8
OBJECT
 10
8.476545
 20
19.506308
 30
0.0
 11
8.116545
 21
19.506308
 31
0.0
  0
LINE
  8
OBJECT
 10
8.476545
 20
19.389308
 30
0.0
 11
8.116545
 21
19.389308
 31
0.0
  0
LINE
  8
OBJECT
 10
8.476545
 20
19.272308
 30
0.0
 11
8.116545
 21
19.272308
 31
0.0
  0
LINE
  8
OBJECT
 10
8.116545
 20
19.389308
 30
0.0
 11
8.116545
 21
19.272308
 31
0.0
  0
LINE
  8
OBJECT
 10
8.476545
 20
19.155308
 30
0.0
 11
8.116545
 21
19.155308
 31
0.0
  0
LINE
  8
OBJECT
 10
8.476545
 20
19.038308
 30
0.0
 11
8.116545
 21
19.038308
 31
0.0
  0
LINE
  8
OBJECT
 10
8.116545
 20
19.155308
 30
0.0
 11
8.116545
 21
19.038308
 31
0.0
  0
LINE
  8
OBJECT
 10
8.476545
 20
18.921308
 30
0.0
 11
8.116545
 21
18.921308
 31
0.0
  0
LINE
  8
OBJECT
 10
8.476545
 20
18.804308
 30
0.0
 11
8.116545
 21
18.804308
 31
0.0
  0
LINE
  8
OBJECT
 10
8.116545
 20
18.921308
 30
0.0
 11
8.116545
 21
18.804308
 31
0.0
  0
LINE
  8
OBJECT
 10
8.476545
 20
18.687308
 30
0.0
 11
8.116545
 21
18.687308
 31
0.0
  0
LINE
  8
OBJECT
 10
8.476545
 20
18.570308
 30
0.0
 11
8.116545
 21
18.570308
 31
0.0
  0
LINE
  8
OBJECT
 10
8.116545
 20
18.687308
 30
0.0
 11
8.116545
 21
18.570308
 31
0.0
  0
LINE
  8
OBJECT
 10
8.476545
 20
18.453308
 30
0.0
 11
8.116545
 21
18.453308
 31
0.0
  0
LINE
  8
OBJECT
 10
8.476545
 20
18.336308
 30
0.0
 11
8.116545
 21
18.336308
 31
0.0
  0
LINE
  8
OBJECT
 10
8.116545
 20
18.453308
 30
0.0
 11
8.116545
 21
18.336308
 31
0.0
  0
LINE
  8
OBJECT
 10
8.476545
 20
18.219308
 30
0.0
 11
8.116545
 21
18.219308
 31
0.0
  0
LINE
  8
OBJECT
 10
8.476545
 20
18.102308
 30
0.0
 11
8.116545
 21
18.102308
 31
0.0
  0
LINE
  8
OBJECT
 10
8.116545
 20
18.219308
 30
0.0
 11
8.116545
 21
18.102308
 31
0.0
  0
LINE
  8
OBJECT
 10
8.476545
 20
17.985308
 30
0.0
 11
8.116545
 21
17.985308
 31
0.0
  0
LINE
  8
OBJECT
 10
8.476545
 20
17.868308
 30
0.0
 11
8.116545
 21
17.868308
 31
0.0
  0
LINE
  8
OBJECT
 10
8.116545
 20
17.985308
 30
0.0
 11
8.116545
 21
17.868308
 31
0.0
  0
LINE
  8
OBJECT
 10
8.476545
 20
17.751308
 30
0.0
 11
8.116545
 21
17.751308
 31
0.0
  0
LINE
  8
OBJECT
 10
8.476545
 20
17.634308
 30
0.0
 11
8.116545
 21
17.634308
 31
0.0
  0
LINE
  8
OBJECT
 10
8.116545
 20
17.751308
 30
0.0
 11
8.116545
 21
17.634308
 31
0.0
  0
LINE
  8
OBJECT
 10
8.476545
 20
17.517308
 30
0.0
 11
8.116545
 21
17.517308
 31
0.0
  0
LINE
  8
OBJECT
 10
8.476545
 20
17.400308
 30
0.0
 11
8.116545
 21
17.400308
 31
0.0
  0
LINE
  8
OBJECT
 10
8.116545
 20
17.517308
 30
0.0
 11
8.116545
 21
17.400308
 31
0.0
  0
LINE
  8
OBJECT
 10
8.476545
 20
17.283308
 30
0.0
 11
8.116545
 21
17.283308
 31
0.0
  0
LINE
  8
OBJECT
 10
8.476545
 20
17.166308
 30
0.0
 11
8.116545
 21
17.166308
 31
0.0
  0
LINE
  8
OBJECT
 10
8.116545
 20
17.283308
 30
0.0
 11
8.116545
 21
17.166308
 31
0.0
  0
LINE
  8
OBJECT
 10
8.476545
 20
17.049308
 30
0.0
 11
8.116545
 21
17.049308
 31
0.0
  0
LINE
  8
OBJECT
 10
8.476545
 20
16.932308
 30
0.0
 11
8.116545
 21
16.932308
 31
0.0
  0
LINE
  8
OBJECT
 10
8.116545
 20
17.049308
 30
0.0
 11
8.116545
 21
16.932308
 31
0.0
  0
LINE
  8
OBJECT
 10
2.387463
 20
19.754308
 30
0.0
 11
5.222463
 21
19.754308
 31
0.0
  0
LINE
  8
OBJECT
 10
2.387463
 20
21.132308
 30
0.0
 11
5.222463
 21
21.132308
 31
0.0
  0
LINE
  8
OBJECT
 10
5.478463
 20
14.734308
 30
0.0
 11
2.131463
 21
14.734308
 31
0.0
  0
LINE
  8
OBJECT
 10
2.131463
 20
21.821308
 30
0.0
 11
5.478463
 21
21.821308
 31
0.0
  0
LINE
  8
OBJECT
 10
1.836463
 20
18.102308
 30
0.0
 11
1.836463
 21
17.985308
 31
0.0
  0
LINE
  8
OBJECT
 10
1.836463
 20
16.932308
 30
0.0
 11
1.836463
 21
15.029308
 31
0.0
  0
ARC
  8
OBJECT
 10
2.131463
 20
15.029308
 30
0.0
 40
0.295
 50
180.0
 51
270.0
  0
LINE
  8
OBJECT
 10
1.821463
 20
16.932308
 30
0.0
 11
1.821463
 21
17.049308
 31
0.0
  0
LINE
  8
OBJECT
 10
1.898976
 20
16.932308
 30
0.0
 11
1.821463
 21
16.932308
 31
0.0
  0
LINE
  8
OBJECT
 10
1.898976
 20
17.049308
 30
0.0
 11
1.821463
 21
17.049308
 31
0.0
  0
LINE
  8
OBJECT
 10
1.836463
 20
17.868308
 30
0.0
 11
1.836463
 21
17.751308
 31
0.0
  0
LINE
  8
OBJECT
 10
1.836463
 20
17.634308
 30
0.0
 11
1.836463
 21
17.517308
 31
0.0
  0
LINE
  8
OBJECT
 10
1.836463
 20
17.400308
 30
0.0
 11
1.836463
 21
17.283308
 31
0.0
  0
LINE
  8
OBJECT
 10
1.836463
 20
17.166308
 30
0.0
 11
1.836463
 21
17.049308
 31
0.0
  0
LINE
  8
OBJECT
 10
1.836463
 20
21.526308
 30
0.0
 11
1.836463
 21
19.623308
 31
0.0
  0
LINE
  8
OBJECT
 10
2.387463
 20
19.754308
 30
0.0
 11
2.387463
 21
21.132308
 31
0.0
  0
LINE
  8
OBJECT
 10
1.836463
 20
19.038308
 30
0.0
 11
1.836463
 21
18.921308
 31
0.0
  0
LINE
  8
OBJECT
 10
1.836463
 20
18.804308
 30
0.0
 11
1.836463
 21
18.687308
 31
0.0
  0
LINE
  8
OBJECT
 10
1.836463
 20
18.570308
 30
0.0
 11
1.836463
 21
18.453308
 31
0.0
  0
LINE
  8
OBJECT
 10
1.836463
 20
18.336308
 30
0.0
 11
1.836463
 21
18.219308
 31
0.0
  0
LINE
  8
OBJECT
 10
1.836463
 20
19.506308
 30
0.0
 11
1.836463
 21
19.389308
 31
0.0
  0
LINE
  8
OBJECT
 10
1.836463
 20
19.272308
 30
0.0
 11
1.836463
 21
19.155308
 31
0.0
  0
ARC
  8
OBJECT
 10
2.131463
 20
21.526308
 30
0.0
 40
0.295
 50
90.0
 51
180.0
  0
LINE
  8
OBJECT
 10
5.773463
 20
16.932308
 30
0.0
 11
5.773463
 21
15.029308
 31
0.0
  0
ARC
  8
OBJECT
 10
5.478463
 20
15.029308
 30
0.0
 40
0.295
 50
270.0
 51
0.0
  0
LINE
  8
OBJECT
 10
5.773463
 20
21.526308
 30
0.0
 11
5.773463
 21
19.623308
 31
0.0
  0
LINE
  8
OBJECT
 10
5.222463
 20
21.132308
 30
0.0
 11
5.222463
 21
19.754308
 31
0.0
  0
ARC
  8
OBJECT
 10
5.478463
 20
21.526308
 30
0.0
 40
0.295
 50
0.0
 51
90.0
  0
LINE
  8
OBJECT
 10
2.293463
 20
19.660308
 30
0.0
 11
2.293463
 21
21.226308
 31
0.0
  0
LINE
  8
OBJECT
 10
2.293463
 20
21.226308
 30
0.0
 11
5.316463
 21
21.226308
 31
0.0
  0
LINE
  8
OBJECT
 10
5.316463
 20
21.226308
 30
0.0
 11
5.316463
 21
19.660308
 31
0.0
  0
LINE
  8
OBJECT
 10
2.293463
 20
19.660308
 30
0.0
 11
5.316463
 21
19.660308
 31
0.0
  0
LINE
  8
OBJECT
 10
2.332463
 20
21.187308
 30
0.0
 11
5.277463
 21
21.187308
 31
0.0
  0
LINE
  8
OBJECT
 10
2.332463
 20
19.699308
 30
0.0
 11
5.277463
 21
19.699308
 31
0.0
  0
LINE
  8
OBJECT
 10
5.277463
 20
21.187308
 30
0.0
 11
5.277463
 21
19.699308
 31
0.0
  0
LINE
  8
OBJECT
 10
2.332463
 20
19.699308
 30
0.0
 11
2.332463
 21
21.187308
 31
0.0
  0
LINE
  8
OBJECT
 10
5.277463
 20
21.187308
 30
0.0
 11
5.222463
 21
21.132308
 31
0.0
  0
LINE
  8
OBJECT
 10
2.332463
 20
21.187308
 30
0.0
 11
2.387463
 21
21.132308
 31
0.0
  0
LINE
  8
OBJECT
 10
2.332463
 20
19.699308
 30
0.0
 11
2.387463
 21
19.754308
 31
0.0
  0
LINE
  8
OBJECT
 10
5.277463
 20
19.699308
 30
0.0
 11
5.222463
 21
19.754308
 31
0.0
  0
LINE
  8
OBJECT
 10
2.119963
 20
19.540308
 30
0.0
 11
5.489963
 21
19.540308
 31
0.0
  0
LINE
  8
OBJECT
 10
2.122525
 20
21.717099
 30
0.0
 11
5.487401
 21
21.717099
 31
0.0
  0
LINE
  8
OBJECT
 10
2.122525
 20
14.838518
 30
0.0
 11
5.487401
 21
14.838518
 31
0.0
  0
LINE
  8
OBJECT
 10
1.940463
 20
21.526308
 30
0.0
 11
1.940463
 21
15.029308
 31
0.0
  0
LINE
  8
OBJECT
 10
5.669463
 20
21.526308
 30
0.0
 11
5.669463
 21
15.029308
 31
0.0
  0
ARC
  8
OBJECT
 10
2.131463
 20
15.029308
 30
0.0
 40
0.191
 50
180.0
 51
270.0
  0
ARC
  8
OBJECT
 10
5.478463
 20
15.029308
 30
0.0
 40
0.191
 50
270.0
 51
0.0
  0
ARC
  8
OBJECT
 10
5.478463
 20
21.526308
 30
0.0
 40
0.191
 50
0.0
 51
90.0
  0
ARC
  8
OBJECT
 10
2.131463
 20
21.526308
 30
0.0
 40
0.191
 50
90.0
 51
180.0
  0
LINE
  8
OBJECT
 10
2.119963
 20
19.540308
 30
0.0
 11
2.119963
 21
14.986308
 31
0.0
  0
LINE
  8
OBJECT
 10
5.489963
 20
19.540308
 30
0.0
 11
5.489963
 21
14.986308
 31
0.0
  0
LINE
  8
OBJECT
 10
2.119963
 20
14.986308
 30
0.0
 11
5.489963
 21
14.986308
 31
0.0
  0
LINE
  8
OBJECT
 10
1.884204
 20
16.932308
 30
0.0
 11
1.884204
 21
17.049308
 31
0.0
  0
LINE
  8
OBJECT
 10
1.898976
 20
16.932308
 30
0.0
 11
1.898976
 21
17.049308
 31
0.0
  0
LINE
  8
OBJECT
 10
1.884204
 20
17.166308
 30
0.0
 11
1.884204
 21
17.283308
 31
0.0
  0
LINE
  8
OBJECT
 10
1.898976
 20
17.166308
 30
0.0
 11
1.898976
 21
17.283308
 31
0.0
  0
LINE
  8
OBJECT
 10
1.821463
 20
17.166308
 30
0.0
 11
1.821463
 21
17.283308
 31
0.0
  0
LINE
  8
OBJECT
 10
1.898976
 20
17.166308
 30
0.0
 11
1.821463
 21
17.166308
 31
0.0
  0
LINE
  8
OBJECT
 10
1.898976
 20
17.283308
 30
0.0
 11
1.821463
 21
17.283308
 31
0.0
  0
LINE
  8
OBJECT
 10
1.884204
 20
17.400308
 30
0.0
 11
1.884204
 21
17.517308
 31
0.0
  0
LINE
  8
OBJECT
 10
1.898976
 20
17.400308
 30
0.0
 11
1.898976
 21
17.517308
 31
0.0
  0
LINE
  8
OBJECT
 10
1.821463
 20
17.400308
 30
0.0
 11
1.821463
 21
17.517308
 31
0.0
  0
LINE
  8
OBJECT
 10
1.898976
 20
17.400308
 30
0.0
 11
1.821463
 21
17.400308
 31
0.0
  0
LINE
  8
OBJECT
 10
1.898976
 20
17.517308
 30
0.0
 11
1.821463
 21
17.517308
 31
0.0
  0
LINE
  8
OBJECT
 10
1.884204
 20
17.634308
 30
0.0
 11
1.884204
 21
17.751308
 31
0.0
  0
LINE
  8
OBJECT
 10
1.898976
 20
17.634308
 30
0.0
 11
1.898976
 21
17.751308
 31
0.0
  0
LINE
  8
OBJECT
 10
1.821463
 20
17.634308
 30
0.0
 11
1.821463
 21
17.751308
 31
0.0
  0
LINE
  8
OBJECT
 10
1.898976
 20
17.634308
 30
0.0
 11
1.821463
 21
17.634308
 31
0.0
  0
LINE
  8
OBJECT
 10
1.898976
 20
17.751308
 30
0.0
 11
1.821463
 21
17.751308
 31
0.0
  0
LINE
  8
OBJECT
 10
1.884204
 20
17.868308
 30
0.0
 11
1.884204
 21
17.985308
 31
0.0
  0
LINE
  8
OBJECT
 10
1.898976
 20
17.868308
 30
0.0
 11
1.898976
 21
17.985308
 31
0.0
  0
LINE
  8
OBJECT
 10
1.821463
 20
17.868308
 30
0.0
 11
1.821463
 21
17.985308
 31
0.0
  0
LINE
  8
OBJECT
 10
1.898976
 20
17.868308
 30
0.0
 11
1.821463
 21
17.868308
 31
0.0
  0
LINE
  8
OBJECT
 10
1.898976
 20
17.985308
 30
0.0
 11
1.821463
 21
17.985308
 31
0.0
  0
LINE
  8
OBJECT
 10
1.884204
 20
18.102308
 30
0.0
 11
1.884204
 21
18.219308
 31
0.0
  0
LINE
  8
OBJECT
 10
1.898976
 20
18.102308
 30
0.0
 11
1.898976
 21
18.219308
 31
0.0
  0
LINE
  8
OBJECT
 10
1.821463
 20
18.102308
 30
0.0
 11
1.821463
 21
18.219308
 31
0.0
  0
LINE
  8
OBJECT
 10
1.898976
 20
18.102308
 30
0.0
 11
1.821463
 21
18.102308
 31
0.0
  0
LINE
  8
OBJECT
 10
1.898976
 20
18.219308
 30
0.0
 11
1.821463
 21
18.219308
 31
0.0
  0
LINE
  8
OBJECT
 10
1.884204
 20
18.336308
 30
0.0
 11
1.884204
 21
18.453308
 31
0.0
  0
LINE
  8
OBJECT
 10
1.898976
 20
18.336308
 30
0.0
 11
1.898976
 21
18.453308
 31
0.0
  0
LINE
  8
OBJECT
 10
1.821463
 20
18.336308
 30
0.0
 11
1.821463
 21
18.453308
 31
0.0
  0
LINE
  8
OBJECT
 10
1.898976
 20
18.336308
 30
0.0
 11
1.821463
 21
18.336308
 31
0.0
  0
LINE
  8
OBJECT
 10
1.898976
 20
18.453308
 30
0.0
 11
1.821463
 21
18.453308
 31
0.0
  0
LINE
  8
OBJECT
 10
1.884204
 20
18.570308
 30
0.0
 11
1.884204
 21
18.687308
 31
0.0
  0
LINE
  8
OBJECT
 10
1.898976
 20
18.570308
 30
0.0
 11
1.898976
 21
18.687308
 31
0.0
  0
LINE
  8
OBJECT
 10
1.821463
 20
18.570308
 30
0.0
 11
1.821463
 21
18.687308
 31
0.0
  0
LINE
  8
OBJECT
 10
1.898976
 20
18.570308
 30
0.0
 11
1.821463
 21
18.570308
 31
0.0
  0
LINE
  8
OBJECT
 10
1.898976
 20
18.687308
 30
0.0
 11
1.821463
 21
18.687308
 31
0.0
  0
LINE
  8
OBJECT
 10
1.884204
 20
18.804308
 30
0.0
 11
1.884204
 21
18.921308
 31
0.0
  0
LINE
  8
OBJECT
 10
1.898976
 20
18.804308
 30
0.0
 11
1.898976
 21
18.921308
 31
0.0
  0
LINE
  8
OBJECT
 10
1.821463
 20
18.804308
 30
0.0
 11
1.821463
 21
18.921308
 31
0.0
  0
LINE
  8
OBJECT
 10
1.898976
 20
18.804308
 30
0.0
 11
1.821463
 21
18.804308
 31
0.0
  0
LINE
  8
OBJECT
 10
1.898976
 20
18.921308
 30
0.0
 11
1.821463
 21
18.921308
 31
0.0
  0
LINE
  8
OBJECT
 10
1.884204
 20
19.038308
 30
0.0
 11
1.884204
 21
19.155308
 31
0.0
  0
LINE
  8
OBJECT
 10
1.898976
 20
19.038308
 30
0.0
 11
1.898976
 21
19.155308
 31
0.0
  0
LINE
  8
OBJECT
 10
1.821463
 20
19.038308
 30
0.0
 11
1.821463
 21
19.155308
 31
0.0
  0
LINE
  8
OBJECT
 10
1.898976
 20
19.038308
 30
0.0
 11
1.821463
 21
19.038308
 31
0.0
  0
LINE
  8
OBJECT
 10
1.898976
 20
19.155308
 30
0.0
 11
1.821463
 21
19.155308
 31
0.0
  0
LINE
  8
OBJECT
 10
1.884204
 20
19.272308
 30
0.0
 11
1.884204
 21
19.389308
 31
0.0
  0
LINE
  8
OBJECT
 10
1.898976
 20
19.272308
 30
0.0
 11
1.898976
 21
19.389308
 31
0.0
  0
LINE
  8
OBJECT
 10
1.821463
 20
19.272308
 30
0.0
 11
1.821463
 21
19.389308
 31
0.0
  0
LINE
  8
OBJECT
 10
1.898976
 20
19.272308
 30
0.0
 11
1.821463
 21
19.272308
 31
0.0
  0
LINE
  8
OBJECT
 10
1.898976
 20
19.389308
 30
0.0
 11
1.821463
 21
19.389308
 31
0.0
  0
LINE
  8
OBJECT
 10
1.884204
 20
19.506308
 30
0.0
 11
1.884204
 21
19.623308
 31
0.0
  0
LINE
  8
OBJECT
 10
1.898976
 20
19.506308
 30
0.0
 11
1.898976
 21
19.623308
 31
0.0
  0
LINE
  8
OBJECT
 10
1.821463
 20
19.506308
 30
0.0
 11
1.821463
 21
19.623308
 31
0.0
  0
LINE
  8
OBJECT
 10
1.898976
 20
19.506308
 30
0.0
 11
1.821463
 21
19.506308
 31
0.0
  0
LINE
  8
OBJECT
 10
1.898976
 20
19.623308
 30
0.0
 11
1.821463
 21
19.623308
 31
0.0
  0
LINE
  8
OBJECT
 10
5.773463
 20
18.102308
 30
0.0
 11
5.773463
 21
17.985308
 31
0.0
  0
LINE
  8
OBJECT
 10
5.725722
 20
16.932308
 30
0.0
 11
5.725722
 21
17.049308
 31
0.0
  0
LINE
  8
OBJECT
 10
5.71095
 20
16.932308
 30
0.0
 11
5.71095
 21
17.049308
 31
0.0
  0
LINE
  8
OBJECT
 10
5.788463
 20
16.932308
 30
0.0
 11
5.788463
 21
17.049308
 31
0.0
  0
LINE
  8
OBJECT
 10
5.71095
 20
16.932308
 30
0.0
 11
5.788463
 21
16.932308
 31
0.0
  0
LINE
  8
OBJECT
 10
5.71095
 20
17.985308
 30
0.0
 11
5.788463
 21
17.985308
 31
0.0
  0
LINE
  8
OBJECT
 10
5.71095
 20
17.868308
 30
0.0
 11
5.788463
 21
17.868308
 31
0.0
  0
LINE
  8
OBJECT
 10
5.788463
 20
17.868308
 30
0.0
 11
5.788463
 21
17.985308
 31
0.0
  0
LINE
  8
OBJECT
 10
5.71095
 20
17.868308
 30
0.0
 11
5.71095
 21
17.985308
 31
0.0
  0
LINE
  8
OBJECT
 10
5.725722
 20
17.868308
 30
0.0
 11
5.725722
 21
17.985308
 31
0.0
  0
LINE
  8
OBJECT
 10
5.71095
 20
17.751308
 30
0.0
 11
5.788463
 21
17.751308
 31
0.0
  0
LINE
  8
OBJECT
 10
5.71095
 20
17.634308
 30
0.0
 11
5.788463
 21
17.634308
 31
0.0
  0
LINE
  8
OBJECT
 10
5.788463
 20
17.634308
 30
0.0
 11
5.788463
 21
17.751308
 31
0.0
  0
LINE
  8
OBJECT
 10
5.71095
 20
17.634308
 30
0.0
 11
5.71095
 21
17.751308
 31
0.0
  0
LINE
  8
OBJECT
 10
5.725722
 20
17.634308
 30
0.0
 11
5.725722
 21
17.751308
 31
0.0
  0
LINE
  8
OBJECT
 10
5.71095
 20
17.517308
 30
0.0
 11
5.788463
 21
17.517308
 31
0.0
  0
LINE
  8
OBJECT
 10
5.71095
 20
17.400308
 30
0.0
 11
5.788463
 21
17.400308
 31
0.0
  0
LINE
  8
OBJECT
 10
5.788463
 20
17.400308
 30
0.0
 11
5.788463
 21
17.517308
 31
0.0
  0
LINE
  8
OBJECT
 10
5.71095
 20
17.400308
 30
0.0
 11
5.71095
 21
17.517308
 31
0.0
  0
LINE
  8
OBJECT
 10
5.725722
 20
17.400308
 30
0.0
 11
5.725722
 21
17.517308
 31
0.0
  0
LINE
  8
OBJECT
 10
5.71095
 20
17.283308
 30
0.0
 11
5.788463
 21
17.283308
 31
0.0
  0
LINE
  8
OBJECT
 10
5.71095
 20
17.166308
 30
0.0
 11
5.788463
 21
17.166308
 31
0.0
  0
LINE
  8
OBJECT
 10
5.788463
 20
17.166308
 30
0.0
 11
5.788463
 21
17.283308
 31
0.0
  0
LINE
  8
OBJECT
 10
5.71095
 20
17.166308
 30
0.0
 11
5.71095
 21
17.283308
 31
0.0
  0
LINE
  8
OBJECT
 10
5.725722
 20
17.166308
 30
0.0
 11
5.725722
 21
17.283308
 31
0.0
  0
LINE
  8
OBJECT
 10
5.71095
 20
17.049308
 30
0.0
 11
5.788463
 21
17.049308
 31
0.0
  0
LINE
  8
OBJECT
 10
5.773463
 20
17.166308
 30
0.0
 11
5.773463
 21
17.049308
 31
0.0
  0
LINE
  8
OBJECT
 10
5.773463
 20
17.400308
 30
0.0
 11
5.773463
 21
17.283308
 31
0.0
  0
LINE
  8
OBJECT
 10
5.773463
 20
17.634308
 30
0.0
 11
5.773463
 21
17.517308
 31
0.0
  0
LINE
  8
OBJECT
 10
5.773463
 20
17.868308
 30
0.0
 11
5.773463
 21
17.751308
 31
0.0
  0
LINE
  8
OBJECT
 10
5.788463
 20
19.038308
 30
0.0
 11
5.788463
 21
19.155308
 31
0.0
  0
LINE
  8
OBJECT
 10
5.71095
 20
19.038308
 30
0.0
 11
5.71095
 21
19.155308
 31
0.0
  0
LINE
  8
OBJECT
 10
5.725722
 20
19.038308
 30
0.0
 11
5.725722
 21
19.155308
 31
0.0
  0
LINE
  8
OBJECT
 10
5.71095
 20
19.038308
 30
0.0
 11
5.788463
 21
19.038308
 31
0.0
  0
LINE
  8
OBJECT
 10
5.71095
 20
18.921308
 30
0.0
 11
5.788463
 21
18.921308
 31
0.0
  0
LINE
  8
OBJECT
 10
5.71095
 20
18.804308
 30
0.0
 11
5.788463
 21
18.804308
 31
0.0
  0
LINE
  8
OBJECT
 10
5.788463
 20
18.804308
 30
0.0
 11
5.788463
 21
18.921308
 31
0.0
  0
LINE
  8
OBJECT
 10
5.71095
 20
18.804308
 30
0.0
 11
5.71095
 21
18.921308
 31
0.0
  0
LINE
  8
OBJECT
 10
5.725722
 20
18.804308
 30
0.0
 11
5.725722
 21
18.921308
 31
0.0
  0
LINE
  8
OBJECT
 10
5.71095
 20
18.687308
 30
0.0
 11
5.788463
 21
18.687308
 31
0.0
  0
LINE
  8
OBJECT
 10
5.71095
 20
18.570308
 30
0.0
 11
5.788463
 21
18.570308
 31
0.0
  0
LINE
  8
OBJECT
 10
5.788463
 20
18.570308
 30
0.0
 11
5.788463
 21
18.687308
 31
0.0
  0
LINE
  8
OBJECT
 10
5.71095
 20
18.570308
 30
0.0
 11
5.71095
 21
18.687308
 31
0.0
  0
LINE
  8
OBJECT
 10
5.725722
 20
18.570308
 30
0.0
 11
5.725722
 21
18.687308
 31
0.0
  0
LINE
  8
OBJECT
 10
5.71095
 20
18.453308
 30
0.0
 11
5.788463
 21
18.453308
 31
0.0
  0
LINE
  8
OBJECT
 10
5.71095
 20
18.336308
 30
0.0
 11
5.788463
 21
18.336308
 31
0.0
  0
LINE
  8
OBJECT
 10
5.788463
 20
18.336308
 30
0.0
 11
5.788463
 21
18.453308
 31
0.0
  0
LINE
  8
OBJECT
 10
5.71095
 20
18.336308
 30
0.0
 11
5.71095
 21
18.453308
 31
0.0
  0
LINE
  8
OBJECT
 10
5.725722
 20
18.336308
 30
0.0
 11
5.725722
 21
18.453308
 31
0.0
  0
LINE
  8
OBJECT
 10
5.71095
 20
18.219308
 30
0.0
 11
5.788463
 21
18.219308
 31
0.0
  0
LINE
  8
OBJECT
 10
5.71095
 20
18.102308
 30
0.0
 11
5.788463
 21
18.102308
 31
0.0
  0
LINE
  8
OBJECT
 10
5.788463
 20
18.102308
 30
0.0
 11
5.788463
 21
18.219308
 31
0.0
  0
LINE
  8
OBJECT
 10
5.71095
 20
18.102308
 30
0.0
 11
5.71095
 21
18.219308
 31
0.0
  0
LINE
  8
OBJECT
 10
5.725722
 20
18.102308
 30
0.0
 11
5.725722
 21
18.219308
 31
0.0
  0
LINE
  8
OBJECT
 10
5.773463
 20
18.336308
 30
0.0
 11
5.773463
 21
18.219308
 31
0.0
  0
LINE
  8
OBJECT
 10
5.773463
 20
18.570308
 30
0.0
 11
5.773463
 21
18.453308
 31
0.0
  0
LINE
  8
OBJECT
 10
5.773463
 20
18.804308
 30
0.0
 11
5.773463
 21
18.687308
 31
0.0
  0
LINE
  8
OBJECT
 10
5.773463
 20
19.038308
 30
0.0
 11
5.773463
 21
18.921308
 31
0.0
  0
LINE
  8
OBJECT
 10
5.71095
 20
19.623308
 30
0.0
 11
5.788463
 21
19.623308
 31
0.0
  0
LINE
  8
OBJECT
 10
5.71095
 20
19.506308
 30
0.0
 11
5.788463
 21
19.506308
 31
0.0
  0
LINE
  8
OBJECT
 10
5.788463
 20
19.506308
 30
0.0
 11
5.788463
 21
19.623308
 31
0.0
  0
LINE
  8
OBJECT
 10
5.71095
 20
19.506308
 30
0.0
 11
5.71095
 21
19.623308
 31
0.0
  0
LINE
  8
OBJECT
 10
5.725722
 20
19.506308
 30
0.0
 11
5.725722
 21
19.623308
 31
0.0
  0
LINE
  8
OBJECT
 10
5.71095
 20
19.389308
 30
0.0
 11
5.788463
 21
19.389308
 31
0.0
  0
LINE
  8
OBJECT
 10
5.71095
 20
19.272308
 30
0.0
 11
5.788463
 21
19.272308
 31
0.0
  0
LINE
  8
OBJECT
 10
5.788463
 20
19.272308
 30
0.0
 11
5.788463
 21
19.389308
 31
0.0
  0
LINE
  8
OBJECT
 10
5.71095
 20
19.272308
 30
0.0
 11
5.71095
 21
19.389308
 31
0.0
  0
LINE
  8
OBJECT
 10
5.725722
 20
19.272308
 30
0.0
 11
5.725722
 21
19.389308
 31
0.0
  0
LINE
  8
OBJECT
 10
5.71095
 20
19.155308
 30
0.0
 11
5.788463
 21
19.155308
 31
0.0
  0
LINE
  8
OBJECT
 10
5.773463
 20
19.272308
 30
0.0
 11
5.773463
 21
19.155308
 31
0.0
  0
LINE
  8
OBJECT
 10
5.773463
 20
19.506308
 30
0.0
 11
5.773463
 21
19.389308
 31
0.0
  0
ARC
  8
OBJECT
 10
7.963545
 20
21.651649
 30
0.0
 40
0.078
 50
100.0
 51
180.0
  0
ARC
  8
OBJECT
 10
7.963545
 20
14.903967
 30
0.0
 40
0.078
 50
180.0
 51
260.0
  0
LINE
  8
OBJECT
 10
7.324163
 20
9.405996
 30
0.0
 11
7.324163
 21
2.658314
 31
0.0
  0
LINE
  8
OBJECT
 10
7.915163
 20
9.575655
 30
0.0
 11
7.915163
 21
2.488655
 31
0.0
  0
ARC
  8
OBJECT
 10
7.402163
 20
2.658314
 30
0.0
 40
0.078
 50
180.0
 51
260.0
  0
LINE
  8
OBJECT
 10
7.915163
 20
2.488655
 30
0.0
 11
7.388619
 21
2.581499
 31
0.0
  0
ARC
  8
OBJECT
 10
7.402163
 20
9.405996
 30
0.0
 40
0.078
 50
100.0
 51
180.0
  0
LINE
  8
OBJECT
 10
7.915163
 20
9.575655
 30
0.0
 11
7.388619
 21
9.482811
 31
0.0
  0
LINE
  8
OBJECT
 10
7.469163
 20
7.311655
 30
0.0
 11
7.469163
 21
2.658655
 31
0.0
  0
LINE
  8
OBJECT
 10
7.447163
 20
9.405655
 30
0.0
 11
7.447163
 21
7.311655
 31
0.0
  0
LINE
  8
OBJECT
 10
7.469163
 20
7.311655
 30
0.0
 11
7.447163
 21
7.311655
 31
0.0
  0
LINE
  8
OBJECT
 10
7.915163
 20
2.658655
 30
0.0
 11
7.469163
 21
2.658655
 31
0.0
  0
LINE
  8
OBJECT
 10
7.915163
 20
9.405655
 30
0.0
 11
7.447163
 21
9.405655
 31
0.0
  0
LINE
  8
OBJECT
 10
7.643163
 20
6.996655
 30
0.0
 11
7.643163
 21
6.760655
 31
0.0
  0
LINE
  8
OBJECT
 10
7.643163
 20
6.996655
 30
0.0
 11
7.469163
 21
6.996655
 31
0.0
  0
LINE
  8
OBJECT
 10
7.643163
 20
6.760655
 30
0.0
 11
7.469163
 21
6.760655
 31
0.0
  0
LINE
  8
HIDDEN
 10
7.643163
 20
6.927655
 30
0.0
 11
7.469163
 21
6.927655
 31
0.0
  0
LINE
  8
HIDDEN
 10
7.643163
 20
6.829655
 30
0.0
 11
7.469163
 21
6.829655
 31
0.0
  0
LINE
  8
OBJECT
 10
7.643163
 20
5.441655
 30
0.0
 11
7.643163
 21
5.205655
 31
0.0
  0
LINE
  8
OBJECT
 10
7.643163
 20
5.205655
 30
0.0
 11
7.469163
 21
5.205655
 31
0.0
  0
LINE
  8
HIDDEN
 10
7.643163
 20
5.274655
 30
0.0
 11
7.469163
 21
5.274655
 31
0.0
  0
LINE
  8
HIDDEN
 10
7.643163
 20
5.372655
 30
0.0
 11
7.469163
 21
5.372655
 31
0.0
  0
LINE
  8
OBJECT
 10
7.643163
 20
5.441655
 30
0.0
 11
7.469163
 21
5.441655
 31
0.0
  0
LINE
  8
OBJECT
 10
7.643163
 20
3.689655
 30
0.0
 11
7.469163
 21
3.689655
 31
0.0
  0
LINE
  8
HIDDEN
 10
7.643163
 20
3.620655
 30
0.0
 11
7.469163
 21
3.620655
 31
0.0
  0
LINE
  8
HIDDEN
 10
7.643163
 20
3.522655
 30
0.0
 11
7.469163
 21
3.522655
 31
0.0
  0
LINE
  8
OBJECT
 10
7.643163
 20
3.453655
 30
0.0
 11
7.469163
 21
3.453655
 31
0.0
  0
LINE
  8
OBJECT
 10
7.643163
 20
3.689655
 30
0.0
 11
7.643163
 21
3.453655
 31
0.0
  0
LINE
  8
OBJECT
 10
7.567163
 20
7.193655
 30
0.0
 11
7.469163
 21
7.193655
 31
0.0
  0
LINE
  8
OBJECT
 10
7.567163
 20
7.311655
 30
0.0
 11
7.469163
 21
7.311655
 31
0.0
  0
LINE
  8
OBJECT
 10
7.567163
 20
7.311655
 30
0.0
 11
7.567163
 21
7.193655
 31
0.0
  0
LINE
  8
OBJECT
 10
7.477163
 20
8.373655
 30
0.0
 11
7.447163
 21
8.373655
 31
0.0
  0
LINE
  8
OBJECT
 10
7.477163
 20
8.021655
 30
0.0
 11
7.447163
 21
8.021655
 31
0.0
  0
LINE
  8
OBJECT
 10
7.477163
 20
8.932655
 30
0.0
 11
7.447163
 21
8.932655
 31
0.0
  0
LINE
  8
OBJECT
 10
7.477163
 20
8.973655
 30
0.0
 11
7.447163
 21
8.973655
 31
0.0
  0
LINE
  8
OBJECT
 10
7.477163
 20
8.973655
 30
0.0
 11
7.477163
 21
8.932655
 31
0.0
  0
LINE
  8
OBJECT
 10
7.477163
 20
8.373655
 30
0.0
 11
7.477163
 21
8.021655
 31
0.0
  0
LINE
  8
OBJECT
 10
7.477163
 20
7.421655
 30
0.0
 11
7.477163
 21
7.462655
 31
0.0
  0
LINE
  8
OBJECT
 10
7.477163
 20
7.421655
 30
0.0
 11
7.447163
 21
7.421655
 31
0.0
  0
LINE
  8
OBJECT
 10
7.477163
 20
7.462655
 30
0.0
 11
7.447163
 21
7.462655
 31
0.0
  0
LINE
  8
OBJECT
 10
7.915163
 20
3.118655
 30
0.0
 11
7.469163
 21
3.118655
 31
0.0
  0
LINE
  8
HIDDEN
 10
7.915163
 20
2.892155
 30
0.0
 11
7.439163
 21
2.892155
 31
0.0
  0
LINE
  8
HIDDEN
 10
7.915163
 20
2.715155
 30
0.0
 11
7.439163
 21
2.715155
 31
0.0
  0
LINE
  8
HIDDEN
 10
7.439163
 20
2.892155
 30
0.0
 11
7.439163
 21
2.715155
 31
0.0
  0
LINE
  8
HIDDEN
 10
7.915163
 20
9.349155
 30
0.0
 11
7.439163
 21
9.349155
 31
0.0
  0
LINE
  8
HIDDEN
 10
7.915163
 20
9.172155
 30
0.0
 11
7.439163
 21
9.172155
 31
0.0
  0
LINE
  8
OBJECT
 10
7.915163
 20
8.945655
 30
0.0
 11
7.477163
 21
8.945655
 31
0.0
  0
LINE
  8
HIDDEN
 10
7.439163
 20
9.172155
 30
0.0
 11
7.439163
 21
9.349155
 31
0.0
  0
LINE
  8
HIDDEN
 10
7.567163
 20
7.272155
 30
0.0
 11
7.447163
 21
7.272155
 31
0.0
  0
LINE
  8
HIDDEN
 10
7.567163
 20
7.233155
 30
0.0
 11
7.447163
 21
7.233155
 31
0.0
  0
LINE
  8
HIDDEN
 10
7.447163
 20
7.272155
 30
0.0
 11
7.447163
 21
7.233155
 31
0.0
  0
LINE
  8
OBJECT
 10
7.567163
 20
9.122655
 30
0.0
 11
7.447163
 21
9.122655
 31
0.0
  0
LINE
  8
OBJECT
 10
7.567163
 20
9.004655
 30
0.0
 11
7.447163
 21
9.004655
 31
0.0
  0
LINE
  8
OBJECT
 10
7.567163
 20
9.004655
 30
0.0
 11
7.567163
 21
9.122655
 31
0.0
  0
LINE
  8
HIDDEN
 10
7.567163
 20
9.083155
 30
0.0
 11
7.447163
 21
9.083155
 31
0.0
  0
LINE
  8
HIDDEN
 10
7.567163
 20
9.044155
 30
0.0
 11
7.447163
 21
9.044155
 31
0.0
  0
LINE
  8
HIDDEN
 10
7.447163
 20
9.083155
 30
0.0
 11
7.447163
 21
9.044155
 31
0.0
  0
LINE
  8
OBJECT
 10
11.735331
 20
9.536655
 30
0.0
 11
15.082331
 21
9.536655
 31
0.0
  0
LINE
  8
OBJECT
 10
15.338331
 20
9.280655
 30
0.0
 11
15.338331
 21
2.783655
 31
0.0
  0
ARC
  8
OBJECT
 10
11.735331
 20
9.280655
 30
0.0
 40
0.256
 50
90.0
 51
180.0
  0
LINE
  8
OBJECT
 10
11.479331
 20
2.783655
 30
0.0
 11
11.479331
 21
9.280655
 31
0.0
  0
LINE
  8
OBJECT
 10
8.476545
 20
21.782308
 30
0.0
 11
8.515545
 21
21.782308
 31
0.0
  0
LINE
  8
OBJECT
 10
12.128831
 20
9.499655
 30
0.0
 11
14.688831
 21
9.499655
 31
0.0
  0
LINE
  8
OBJECT
 10
15.301331
 20
8.887655
 30
0.0
 11
15.301331
 21
3.176655
 31
0.0
  0
LINE
  8
OBJECT
 10
11.516331
 20
3.176655
 30
0.0
 11
11.516331
 21
8.887655
 31
0.0
  0
LINE
  8
OBJECT
 10
12.128831
 20
9.459655
 30
0.0
 11
14.688831
 21
9.459655
 31
0.0
  0
LINE
  8
OBJECT
 10
8.476545
 20
14.773308
 30
0.0
 11
8.515545
 21
14.773308
 31
0.0
  0
LINE
  8
OBJECT
 10
12.019831
 20
9.350655
 30
0.0
 11
12.019831
 21
9.260655
 31
0.0
  0
LINE
  8
OBJECT
 10
11.665331
 20
8.996655
 30
0.0
 11
11.755831
 21
8.996655
 31
0.0
  0
LINE
  8
OBJECT
 10
11.665331
 20
9.036655
 30
0.0
 11
11.755831
 21
9.036655
 31
0.0
  0
LINE
  8
OBJECT
 10
11.979831
 20
9.350655
 30
0.0
 11
11.979831
 21
9.260655
 31
0.0
  0
LINE
  8
OBJECT
 10
11.556331
 20
3.176655
 30
0.0
 11
11.556331
 21
8.887655
 31
0.0
  0
ARC
  8
OBJECT
 10
12.128831
 20
9.350655
 30
0.0
 40
0.109
 50
90.0
 51
180.0
  0
ARC
  8
OBJECT
 10
12.128831
 20
9.350655
 30
0.0
 40
0.149
 50
90.0
 51
180.0
  0
ARC
  8
OBJECT
 10
11.665331
 20
8.887655
 30
0.0
 40
0.109
 50
90.0
 51
180.0
  0
ARC
  8
OBJECT
 10
11.665331
 20
8.887655
 30
0.0
 40
0.149
 50
90.0
 51
180.0
  0
ARC
  8
OBJECT
 10
11.755831
 20
9.260655
 30
0.0
 40
0.264
 50
270.0
 51
0.0
  0
ARC
  8
OBJECT
 10
11.755831
 20
9.260655
 30
0.0
 40
0.224
 50
270.0
 51
0.0
  0
CIRCLE
  8
OBJECT
 10
11.584211
 20
9.089535
 30
0.0
 40
0.039
  0
CIRCLE
  8
OBJECT
 10
11.92645
 20
9.431775
 30
0.0
 40
0.039
  0
ARC
  8
OBJECT
 10
15.082331
 20
9.280655
 30
0.0
 40
0.295
 50
0.0
 51
90.0
  0
CIRCLE
  8
OBJECT
 10
14.891211
 20
9.431775
 30
0.0
 40
0.039
  0
CIRCLE
  8
OBJECT
 10
15.23345
 20
9.089535
 30
0.0
 40
0.039
  0
LINE
  8
OBJECT
 10
14.837831
 20
9.350655
 30
0.0
 11
14.837831
 21
9.260655
 31
0.0
  0
LINE
  8
OBJECT
 10
15.152331
 20
9.036655
 30
0.0
 11
15.061831
 21
9.036655
 31
0.0
  0
ARC
  8
OBJECT
 10
15.061831
 20
9.260655
 30
0.0
 40
0.224
 50
180.0
 51
270.0
  0
ARC
  8
OBJECT
 10
15.061831
 20
9.260655
 30
0.0
 40
0.264
 50
180.0
 51
270.0
  0
LINE
  8
OBJECT
 10
15.152331
 20
8.996655
 30
0.0
 11
15.061831
 21
8.996655
 31
0.0
  0
LINE
  8
OBJECT
 10
14.797831
 20
9.350655
 30
0.0
 11
14.797831
 21
9.260655
 31
0.0
  0
ARC
  8
OBJECT
 10
15.152331
 20
8.887655
 30
0.0
 40
0.149
 50
0.0
 51
90.0
  0
ARC
  8
OBJECT
 10
15.152331
 20
8.887655
 30
0.0
 40
0.109
 50
0.0
 51
90.0
  0
ARC
  8
OBJECT
 10
14.688831
 20
9.350655
 30
0.0
 40
0.149
 50
0.0
 51
90.0
  0
ARC
  8
OBJECT
 10
14.688831
 20
9.350655
 30
0.0
 40
0.109
 50
0.0
 51
90.0
  0
ARC
  8
OBJECT
 10
15.082331
 20
9.280655
 30
0.0
 40
0.256
 50
0.0
 51
90.0
  0
CIRCLE
  8
OBJECT
 10
15.062331
 20
9.260655
 30
0.0
 40
0.063
  0
LINE
  8
OBJECT
 10
15.261331
 20
3.176655
 30
0.0
 11
15.261331
 21
8.887655
 31
0.0
  0
ARC
  8
OBJECT
 10
11.735331
 20
2.783655
 30
0.0
 40
0.295
 50
180.0
 51
270.0
  0
CIRCLE
  8
OBJECT
 10
11.92645
 20
2.632535
 30
0.0
 40
0.039
  0
CIRCLE
  8
OBJECT
 10
11.584211
 20
2.974775
 30
0.0
 40
0.039
  0
LINE
  8
OBJECT
 10
11.979831
 20
2.713655
 30
0.0
 11
11.979831
 21
2.803655
 31
0.0
  0
LINE
  8
OBJECT
 10
11.665331
 20
3.027655
 30
0.0
 11
11.755831
 21
3.027655
 31
0.0
  0
ARC
  8
OBJECT
 10
11.755831
 20
2.803655
 30
0.0
 40
0.224
 50
0.0
 51
90.0
  0
ARC
  8
OBJECT
 10
11.755831
 20
2.803655
 30
0.0
 40
0.264
 50
0.0
 51
90.0
  0
LINE
  8
OBJECT
 10
11.665331
 20
3.067655
 30
0.0
 11
11.755831
 21
3.067655
 31
0.0
  0
LINE
  8
OBJECT
 10
12.019831
 20
2.713655
 30
0.0
 11
12.019831
 21
2.803655
 31
0.0
  0
ARC
  8
OBJECT
 10
11.665331
 20
3.176655
 30
0.0
 40
0.149
 50
180.0
 51
270.0
  0
ARC
  8
OBJECT
 10
11.665331
 20
3.176655
 30
0.0
 40
0.109
 50
180.0
 51
270.0
  0
ARC
  8
OBJECT
 10
12.128831
 20
2.713655
 30
0.0
 40
0.149
 50
180.0
 51
270.0
  0
ARC
  8
OBJECT
 10
12.128831
 20
2.713655
 30
0.0
 40
0.109
 50
180.0
 51
270.0
  0
ARC
  8
OBJECT
 10
11.735331
 20
2.783655
 30
0.0
 40
0.256
 50
180.0
 51
270.0
  0
CIRCLE
  8
OBJECT
 10
11.755331
 20
2.803655
 30
0.0
 40
0.063
  0
LINE
  8
OBJECT
 10
12.128831
 20
2.604655
 30
0.0
 11
14.688831
 21
2.604655
 31
0.0
  0
LINE
  8
OBJECT
 10
12.128831
 20
2.564655
 30
0.0
 11
14.688831
 21
2.564655
 31
0.0
  0
LINE
  8
OBJECT
 10
11.735331
 20
2.527655
 30
0.0
 11
15.082331
 21
2.527655
 31
0.0
  0
LINE
  8
OBJECT
 10
11.735331
 20
2.488655
 30
0.0
 11
15.082331
 21
2.488655
 31
0.0
  0
CIRCLE
  8
OBJECT
 10
15.062331
 20
2.803655
 30
0.0
 40
0.063
  0
ARC
  8
OBJECT
 10
15.082331
 20
2.783655
 30
0.0
 40
0.256
 50
270.0
 51
0.0
  0
LINE
  8
OBJECT
 10
15.152331
 20
3.067655
 30
0.0
 11
15.061831
 21
3.067655
 31
0.0
  0
LINE
  8
OBJECT
 10
15.152331
 20
3.027655
 30
0.0
 11
15.061831
 21
3.027655
 31
0.0
  0
ARC
  8
OBJECT
 10
15.082331
 20
2.783655
 30
0.0
 40
0.295
 50
270.0
 51
0.0
  0
ARC
  8
OBJECT
 10
14.688831
 20
2.713655
 30
0.0
 40
0.109
 50
270.0
 51
0.0
  0
ARC
  8
OBJECT
 10
14.688831
 20
2.713655
 30
0.0
 40
0.149
 50
270.0
 51
0.0
  0
LINE
  8
OBJECT
 10
14.797831
 20
2.713655
 30
0.0
 11
14.797831
 21
2.803655
 31
0.0
  0
ARC
  8
OBJECT
 10
15.061831
 20
2.803655
 30
0.0
 40
0.264
 50
90.0
 51
180.0
  0
ARC
  8
OBJECT
 10
15.061831
 20
2.803655
 30
0.0
 40
0.224
 50
90.0
 51
180.0
  0
LINE
  8
OBJECT
 10
14.837831
 20
2.713655
 30
0.0
 11
14.837831
 21
2.803655
 31
0.0
  0
CIRCLE
  8
OBJECT
 10
14.891211
 20
2.632535
 30
0.0
 40
0.039
  0
ARC
  8
OBJECT
 10
15.152331
 20
3.176655
 30
0.0
 40
0.109
 50
270.0
 51
0.0
  0
ARC
  8
OBJECT
 10
15.152331
 20
3.176655
 30
0.0
 40
0.149
 50
270.0
 51
0.0
  0
CIRCLE
  8
OBJECT
 10
15.23345
 20
2.974775
 30
0.0
 40
0.039
  0
LINE
  8
OBJECT
 10
12.212831
 20
3.010655
 30
0.0
 11
12.212831
 21
4.030655
 31
0.0
  0
LINE
  8
OBJECT
 10
14.604831
 20
3.010655
 30
0.0
 11
14.604831
 21
4.030655
 31
0.0
  0
LINE
  8
OBJECT
 10
12.306831
 20
2.916655
 30
0.0
 11
14.510831
 21
2.916655
 31
0.0
  0
LINE
  8
OBJECT
 10
12.306831
 20
4.124655
 30
0.0
 11
14.510831
 21
4.124655
 31
0.0
  0
LINE
  8
OBJECT
 10
12.327831
 20
3.695655
 30
0.0
 11
12.327831
 21
3.895655
 31
0.0
  0
LINE
  8
OBJECT
 10
12.275831
 20
3.695655
 30
0.0
 11
12.275831
 21
3.895655
 31
0.0
  0
LINE
  8
OBJECT
 10
12.275831
 20
3.145655
 30
0.0
 11
12.327831
 21
3.145655
 31
0.0
  0
LINE
  8
OBJECT
 10
12.275831
 20
3.345655
 30
0.0
 11
12.327831
 21
3.345655
 31
0.0
  0
LINE
  8
OBJECT
 10
12.275831
 20
3.695655
 30
0.0
 11
12.327831
 21
3.695655
 31
0.0
  0
LINE
  8
OBJECT
 10
12.327831
 20
3.145655
 30
0.0
 11
12.327831
 21
3.345655
 31
0.0
  0
LINE
  8
OBJECT
 10
12.275831
 20
3.145655
 30
0.0
 11
12.275831
 21
3.345655
 31
0.0
  0
LINE
  8
OBJECT
 10
12.275831
 20
3.895655
 30
0.0
 11
12.327831
 21
3.895655
 31
0.0
  0
LINE
  8
OBJECT
 10
12.916831
 20
3.952655
 30
0.0
 11
12.916831
 21
4.124655
 31
0.0
  0
LINE
  8
OBJECT
 10
13.900831
 20
3.952655
 30
0.0
 11
13.900831
 21
4.124655
 31
0.0
  0
LINE
  8
OBJECT
 10
12.606831
 20
3.952655
 30
0.0
 11
12.606831
 21
4.124655
 31
0.0
  0
LINE
  8
OBJECT
 10
14.210831
 20
3.952655
 30
0.0
 11
14.210831
 21
4.124655
 31
0.0
  0
LINE
  8
OBJECT
 10
12.606831
 20
3.952655
 30
0.0
 11
12.916831
 21
3.952655
 31
0.0
  0
LINE
  8
OBJECT
 10
12.606831
 20
4.061655
 30
0.0
 11
12.916831
 21
4.061655
 31
0.0
  0
LINE
  8
OBJECT
 10
13.900831
 20
4.061655
 30
0.0
 11
14.210831
 21
4.061655
 31
0.0
  0
LINE
  8
OBJECT
 10
13.900831
 20
3.952655
 30
0.0
 11
14.210831
 21
3.952655
 31
0.0
  0
LINE
  8
OBJECT
 10
14.489831
 20
3.695655
 30
0.0
 11
14.489831
 21
3.895655
 31
0.0
  0
LINE
  8
OBJECT
 10
14.541831
 20
3.695655
 30
0.0
 11
14.541831
 21
3.895655
 31
0.0
  0
LINE
  8
OBJECT
 10
14.541831
 20
3.145655
 30
0.0
 11
14.489831
 21
3.145655
 31
0.0
  0
LINE
  8
OBJECT
 10
14.541831
 20
3.345655
 30
0.0
 11
14.489831
 21
3.345655
 31
0.0
  0
LINE
  8
OBJECT
 10
14.541831
 20
3.695655
 30
0.0
 11
14.489831
 21
3.695655
 31
0.0
  0
LINE
  8
OBJECT
 10
14.489831
 20
3.145655
 30
0.0
 11
14.489831
 21
3.345655
 31
0.0
  0
LINE
  8
OBJECT
 10
14.541831
 20
3.145655
 30
0.0
 11
14.541831
 21
3.345655
 31
0.0
  0
LINE
  8
OBJECT
 10
14.541831
 20
3.895655
 30
0.0
 11
14.489831
 21
3.895655
 31
0.0
  0
LINE
  8
OBJECT
 10
12.275831
 20
2.921914
 30
0.0
 11
12.275831
 21
2.604655
 31
0.0
  0
LINE
  8
OBJECT
 10
14.541831
 20
2.921914
 30
0.0
 11
14.541831
 21
2.604655
 31
0.0
  0
LINE
  8
OBJECT
 10
12.142831
 20
2.604655
 30
0.0
 11
12.142831
 21
4.080655
 31
0.0
  0
LINE
  8
OBJECT
 10
12.236831
 20
4.174655
 30
0.0
 11
14.580831
 21
4.174655
 31
0.0
  0
LINE
  8
OBJECT
 10
13.189831
 20
4.124655
 30
0.0
 11
13.189831
 21
4.486655
 31
0.0
  0
LINE
  8
OBJECT
 10
13.627831
 20
4.124655
 30
0.0
 11
13.627831
 21
4.486655
 31
0.0
  0
LINE
  8
OBJECT
 10
13.189831
 20
4.486655
 30
0.0
 11
13.627831
 21
4.486655
 31
0.0
  0
LINE
  8
OBJECT
 10
13.189831
 20
4.236655
 30
0.0
 11
13.627831
 21
4.236655
 31
0.0
  0
LINE
  8
OBJECT
 10
13.189831
 20
4.424655
 30
0.0
 11
13.627831
 21
4.424655
 31
0.0
  0
LINE
  8
OBJECT
 10
12.142831
 20
2.682655
 30
0.0
 11
12.275831
 21
2.682655
 31
0.0
  0
LINE
  8
OBJECT
 10
12.208831
 20
2.604655
 30
0.0
 11
12.208831
 21
2.682655
 31
0.0
  0
LINE
  8
OBJECT
 10
14.674831
 20
2.682655
 30
0.0
 11
14.541831
 21
2.682655
 31
0.0
  0
LINE
  8
OBJECT
 10
14.608831
 20
2.604655
 30
0.0
 11
14.608831
 21
2.682655
 31
0.0
  0
LINE
  8
OBJECT
 10
14.674831
 20
2.604655
 30
0.0
 11
14.674831
 21
4.080655
 31
0.0
  0
ARC
  8
OBJECT
 10
12.306831
 20
4.030655
 30
0.0
 40
0.094
 50
90.0
 51
180.0
  0
ARC
  8
OBJECT
 10
12.306831
 20
3.010655
 30
0.0
 40
0.094
 50
180.0
 51
270.0
  0
ARC
  8
OBJECT
 10
14.510831
 20
3.010655
 30
0.0
 40
0.094
 50
270.0
 51
0.0
  0
ARC
  8
OBJECT
 10
14.510831
 20
4.030655
 30
0.0
 40
0.094
 50
0.0
 51
90.0
  0
ARC
  8
OBJECT
 10
12.236831
 20
4.080655
 30
0.0
 40
0.094
 50
90.0
 51
180.0
  0
ARC
  8
OBJECT
 10
14.580831
 20
4.080655
 30
0.0
 40
0.094
 50
0.0
 51
90.0
  0
LINE
  8
OBJECT
 10
9.470545
 20
19.155308
 30
0.0
 11
9.470545
 21
19.038308
 31
0.0
  0
LINE
  8
OBJECT
 10
9.470545
 20
17.985308
 30
0.0
 11
9.470545
 21
17.868308
 31
0.0
  0
LINE
  8
OBJECT
 10
9.470545
 20
17.049308
 30
0.0
 11
9.470545
 21
16.932308
 31
0.0
  0
LINE
  8
OBJECT
 10
8.515545
 20
16.932308
 30
0.0
 11
9.470545
 21
16.932308
 31
0.0
  0
LINE
  8
OBJECT
 10
8.515545
 20
17.049308
 30
0.0
 11
9.470545
 21
17.049308
 31
0.0
  0
LINE
  8
OBJECT
 10
9.470545
 20
17.283308
 30
0.0
 11
9.470545
 21
17.166308
 31
0.0
  0
LINE
  8
OBJECT
 10
8.515545
 20
17.166308
 30
0.0
 11
9.470545
 21
17.166308
 31
0.0
  0
LINE
  8
OBJECT
 10
8.515545
 20
17.283308
 30
0.0
 11
9.470545
 21
17.283308
 31
0.0
  0
LINE
  8
OBJECT
 10
9.470545
 20
17.517308
 30
0.0
 11
9.470545
 21
17.400308
 31
0.0
  0
LINE
  8
OBJECT
 10
8.515545
 20
17.400308
 30
0.0
 11
9.470545
 21
17.400308
 31
0.0
  0
LINE
  8
OBJECT
 10
8.515545
 20
17.517308
 30
0.0
 11
9.470545
 21
17.517308
 31
0.0
  0
LINE
  8
OBJECT
 10
9.470545
 20
17.751308
 30
0.0
 11
9.470545
 21
17.634308
 31
0.0
  0
LINE
  8
OBJECT
 10
8.515545
 20
17.634308
 30
0.0
 11
9.470545
 21
17.634308
 31
0.0
  0
LINE
  8
OBJECT
 10
8.515545
 20
17.751308
 30
0.0
 11
9.470545
 21
17.751308
 31
0.0
  0
LINE
  8
OBJECT
 10
8.515545
 20
17.868308
 30
0.0
 11
9.470545
 21
17.868308
 31
0.0
  0
LINE
  8
OBJECT
 10
8.515545
 20
17.985308
 30
0.0
 11
9.470545
 21
17.985308
 31
0.0
  0
LINE
  8
OBJECT
 10
9.470545
 20
18.219308
 30
0.0
 11
9.470545
 21
18.102308
 31
0.0
  0
LINE
  8
OBJECT
 10
8.515545
 20
18.102308
 30
0.0
 11
9.470545
 21
18.102308
 31
0.0
  0
LINE
  8
OBJECT
 10
8.515545
 20
18.219308
 30
0.0
 11
9.470545
 21
18.219308
 31
0.0
  0
LINE
  8
OBJECT
 10
9.470545
 20
18.453308
 30
0.0
 11
9.470545
 21
18.336308
 31
0.0
  0
LINE
  8
OBJECT
 10
8.515545
 20
18.336308
 30
0.0
 11
9.470545
 21
18.336308
 31
0.0
  0
LINE
  8
OBJECT
 10
8.515545
 20
18.453308
 30
0.0
 11
9.470545
 21
18.453308
 31
0.0
  0
LINE
  8
OBJECT
 10
9.470545
 20
18.687308
 30
0.0
 11
9.470545
 21
18.570308
 31
0.0
  0
LINE
  8
OBJECT
 10
8.515545
 20
18.570308
 30
0.0
 11
9.470545
 21
18.570308
 31
0.0
  0
LINE
  8
OBJECT
 10
8.515545
 20
18.687308
 30
0.0
 11
9.470545
 21
18.687308
 31
0.0
  0
LINE
  8
OBJECT
 10
9.470545
 20
18.921308
 30
0.0
 11
9.470545
 21
18.804308
 31
0.0
  0
LINE
  8
OBJECT
 10
8.515545
 20
18.804308
 30
0.0
 11
9.470545
 21
18.804308
 31
0.0
  0
LINE
  8
OBJECT
 10
8.515545
 20
18.921308
 30
0.0
 11
9.470545
 21
18.921308
 31
0.0
  0
LINE
  8
OBJECT
 10
8.515545
 20
19.038308
 30
0.0
 11
9.470545
 21
19.038308
 31
0.0
  0
LINE
  8
OBJECT
 10
8.515545
 20
19.155308
 30
0.0
 11
9.470545
 21
19.155308
 31
0.0
  0
LINE
  8
OBJECT
 10
9.470545
 20
19.389308
 30
0.0
 11
9.470545
 21
19.272308
 31
0.0
  0
LINE
  8
OBJECT
 10
8.515545
 20
19.272308
 30
0.0
 11
9.470545
 21
19.272308
 31
0.0
  0
LINE
  8
OBJECT
 10
8.515545
 20
19.389308
 30
0.0
 11
9.470545
 21
19.389308
 31
0.0
  0
LINE
  8
OBJECT
 10
8.515545
 20
19.506308
 30
0.0
 11
9.470545
 21
19.506308
 31
0.0
  0
LINE
  8
OBJECT
 10
8.515545
 20
19.623308
 30
0.0
 11
9.470545
 21
19.623308
 31
0.0
  0
LINE
  8
OBJECT
 10
9.470545
 20
19.623308
 30
0.0
 11
9.470545
 21
19.506308
 31
0.0
  0
LINE
  8
OBJECT
 10
9.460545
 20
19.506308
 30
0.0
 11
9.460545
 21
19.389308
 31
0.0
  0
LINE
  8
OBJECT
 10
9.460545
 20
19.272308
 30
0.0
 11
9.460545
 21
19.155308
 31
0.0
  0
LINE
  8
OBJECT
 10
9.460545
 20
19.038308
 30
0.0
 11
9.460545
 21
18.921308
 31
0.0
  0
LINE
  8
OBJECT
 10
9.460545
 20
18.804308
 30
0.0
 11
9.460545
 21
18.687308
 31
0.0
  0
LINE
  8
OBJECT
 10
9.460545
 20
18.570308
 30
0.0
 11
9.460545
 21
18.453308
 31
0.0
  0
LINE
  8
OBJECT
 10
9.460545
 20
18.336308
 30
0.0
 11
9.460545
 21
18.219308
 31
0.0
  0
LINE
  8
OBJECT
 10
9.460545
 20
18.102308
 30
0.0
 11
9.460545
 21
17.985308
 31
0.0
  0
LINE
  8
OBJECT
 10
9.460545
 20
17.868308
 30
0.0
 11
9.460545
 21
17.751308
 31
0.0
  0
LINE
  8
OBJECT
 10
9.460545
 20
17.634308
 30
0.0
 11
9.460545
 21
17.517308
 31
0.0
  0
LINE
  8
OBJECT
 10
9.460545
 20
17.400308
 30
0.0
 11
9.460545
 21
17.283308
 31
0.0
  0
LINE
  8
OBJECT
 10
9.460545
 20
17.166308
 30
0.0
 11
9.460545
 21
17.049308
 31
0.0
  0
LINE
  8
OBJECT
 10
9.460545
 20
16.932308
 30
0.0
 11
9.460545
 21
15.065913
 31
0.0
  0
LINE
  8
OBJECT
 10
15.387331
 20
6.909655
 30
0.0
 11
15.387331
 21
6.792655
 31
0.0
  0
LINE
  8
OBJECT
 10
15.387331
 20
5.622655
 30
0.0
 11
15.387331
 21
5.739655
 31
0.0
  0
LINE
  8
OBJECT
 10
15.377331
 20
4.920655
 30
0.0
 11
15.377331
 21
4.803655
 31
0.0
  0
LINE
  8
OBJECT
 10
15.377331
 20
5.154655
 30
0.0
 11
15.377331
 21
5.037655
 31
0.0
  0
LINE
  8
OBJECT
 10
15.377331
 20
5.388655
 30
0.0
 11
15.377331
 21
5.271655
 31
0.0
  0
LINE
  8
OBJECT
 10
15.377331
 20
5.622655
 30
0.0
 11
15.377331
 21
5.505655
 31
0.0
  0
LINE
  8
OBJECT
 10
15.377331
 20
5.154655
 30
0.0
 11
15.387331
 21
5.154655
 31
0.0
  0
LINE
  8
OBJECT
 10
15.387331
 20
4.920655
 30
0.0
 11
15.387331
 21
5.037655
 31
0.0
  0
LINE
  8
OBJECT
 10
15.377331
 20
5.037655
 30
0.0
 11
15.387331
 21
5.037655
 31
0.0
  0
LINE
  8
OBJECT
 10
15.377331
 20
4.920655
 30
0.0
 11
15.387331
 21
4.920655
 31
0.0
  0
LINE
  8
OBJECT
 10
15.387331
 20
4.686655
 30
0.0
 11
15.387331
 21
4.803655
 31
0.0
  0
LINE
  8
OBJECT
 10
15.377331
 20
4.803655
 30
0.0
 11
15.387331
 21
4.803655
 31
0.0
  0
LINE
  8
OBJECT
 10
15.377331
 20
4.686655
 30
0.0
 11
15.387331
 21
4.686655
 31
0.0
  0
LINE
  8
OBJECT
 10
15.377331
 20
5.622655
 30
0.0
 11
15.387331
 21
5.622655
 31
0.0
  0
LINE
  8
OBJECT
 10
15.387331
 20
5.388655
 30
0.0
 11
15.387331
 21
5.505655
 31
0.0
  0
LINE
  8
OBJECT
 10
15.377331
 20
5.505655
 30
0.0
 11
15.387331
 21
5.505655
 31
0.0
  0
LINE
  8
OBJECT
 10
15.377331
 20
5.388655
 30
0.0
 11
15.387331
 21
5.388655
 31
0.0
  0
LINE
  8
OBJECT
 10
15.377331
 20
5.271655
 30
0.0
 11
15.387331
 21
5.271655
 31
0.0
  0
LINE
  8
OBJECT
 10
15.387331
 20
5.154655
 30
0.0
 11
15.387331
 21
5.271655
 31
0.0
  0
LINE
  8
OBJECT
 10
15.377331
 20
5.856655
 30
0.0
 11
15.377331
 21
5.739655
 31
0.0
  0
LINE
  8
OBJECT
 10
15.377331
 20
6.090655
 30
0.0
 11
15.377331
 21
5.973655
 31
0.0
  0
LINE
  8
OBJECT
 10
15.377331
 20
6.324655
 30
0.0
 11
15.377331
 21
6.207655
 31
0.0
  0
LINE
  8
OBJECT
 10
15.377331
 20
6.558655
 30
0.0
 11
15.377331
 21
6.441655
 31
0.0
  0
LINE
  8
OBJECT
 10
15.377331
 20
6.792655
 30
0.0
 11
15.377331
 21
6.675655
 31
0.0
  0
LINE
  8
OBJECT
 10
15.377331
 20
5.856655
 30
0.0
 11
15.387331
 21
5.856655
 31
0.0
  0
LINE
  8
OBJECT
 10
15.377331
 20
5.973655
 30
0.0
 11
15.387331
 21
5.973655
 31
0.0
  0
LINE
  8
OBJECT
 10
15.387331
 20
5.856655
 30
0.0
 11
15.387331
 21
5.973655
 31
0.0
  0
LINE
  8
OBJECT
 10
15.377331
 20
5.739655
 30
0.0
 11
15.387331
 21
5.739655
 31
0.0
  0
LINE
  8
OBJECT
 10
15.377331
 20
6.792655
 30
0.0
 11
15.387331
 21
6.792655
 31
0.0
  0
LINE
  8
OBJECT
 10
15.377331
 20
6.675655
 30
0.0
 11
15.387331
 21
6.675655
 31
0.0
  0
LINE
  8
OBJECT
 10
15.377331
 20
6.558655
 30
0.0
 11
15.387331
 21
6.558655
 31
0.0
  0
LINE
  8
OBJECT
 10
15.387331
 20
6.675655
 30
0.0
 11
15.387331
 21
6.558655
 31
0.0
  0
LINE
  8
OBJECT
 10
15.377331
 20
6.441655
 30
0.0
 11
15.387331
 21
6.441655
 31
0.0
  0
LINE
  8
OBJECT
 10
15.377331
 20
6.324655
 30
0.0
 11
15.387331
 21
6.324655
 31
0.0
  0
LINE
  8
OBJECT
 10
15.387331
 20
6.441655
 30
0.0
 11
15.387331
 21
6.324655
 31
0.0
  0
LINE
  8
OBJECT
 10
15.377331
 20
6.207655
 30
0.0
 11
15.387331
 21
6.207655
 31
0.0
  0
LINE
  8
OBJECT
 10
15.377331
 20
6.090655
 30
0.0
 11
15.387331
 21
6.090655
 31
0.0
  0
LINE
  8
OBJECT
 10
15.387331
 20
6.207655
 30
0.0
 11
15.387331
 21
6.090655
 31
0.0
  0
LINE
  8
OBJECT
 10
15.377331
 20
7.026655
 30
0.0
 11
15.377331
 21
6.909655
 31
0.0
  0
LINE
  8
OBJECT
 10
15.377331
 20
7.260655
 30
0.0
 11
15.377331
 21
7.143655
 31
0.0
  0
LINE
  8
OBJECT
 10
15.377331
 20
7.377655
 30
0.0
 11
15.387331
 21
7.377655
 31
0.0
  0
LINE
  8
OBJECT
 10
15.377331
 20
7.260655
 30
0.0
 11
15.387331
 21
7.260655
 31
0.0
  0
LINE
  8
OBJECT
 10
15.387331
 20
7.377655
 30
0.0
 11
15.387331
 21
7.260655
 31
0.0
  0
LINE
  8
OBJECT
 10
15.377331
 20
7.143655
 30
0.0
 11
15.387331
 21
7.143655
 31
0.0
  0
LINE
  8
OBJECT
 10
15.377331
 20
7.026655
 30
0.0
 11
15.387331
 21
7.026655
 31
0.0
  0
LINE
  8
OBJECT
 10
15.387331
 20
7.143655
 30
0.0
 11
15.387331
 21
7.026655
 31
0.0
  0
LINE
  8
OBJECT
 10
15.377331
 20
6.909655
 30
0.0
 11
15.387331
 21
6.909655
 31
0.0
  0
LINE
  8
OBJECT
 10
15.377331
 20
5.622655
 30
0.0
 11
15.377331
 21
5.505655
 31
0.0
  0
LINE
  8
OBJECT
 10
15.377331
 20
5.388655
 30
0.0
 11
15.377331
 21
5.271655
 31
0.0
  0
LINE
  8
OBJECT
 10
15.377331
 20
5.154655
 30
0.0
 11
15.377331
 21
5.037655
 31
0.0
  0
LINE
  8
OBJECT
 10
15.377331
 20
4.920655
 30
0.0
 11
15.377331
 21
4.803655
 31
0.0
  0
LINE
  8
OBJECT
 10
15.377331
 20
4.686655
 30
0.0
 11
15.377331
 21
2.783655
 31
0.0
  0
LINE
  8
OBJECT
 10
15.377331
 20
5.856655
 30
0.0
 11
15.377331
 21
5.739655
 31
0.0
  0
LINE
  8
OBJECT
 10
15.377331
 20
6.090655
 30
0.0
 11
15.377331
 21
5.973655
 31
0.0
  0
LINE
  8
OBJECT
 10
15.377331
 20
6.324655
 30
0.0
 11
15.377331
 21
6.207655
 31
0.0
  0
LINE
  8
OBJECT
 10
15.377331
 20
6.558655
 30
0.0
 11
15.377331
 21
6.441655
 31
0.0
  0
LINE
  8
OBJECT
 10
15.377331
 20
6.792655
 30
0.0
 11
15.377331
 21
6.675655
 31
0.0
  0
LINE
  8
OBJECT
 10
15.377331
 20
7.026655
 30
0.0
 11
15.377331
 21
6.909655
 31
0.0
  0
LINE
  8
OBJECT
 10
15.377331
 20
7.260655
 30
0.0
 11
15.377331
 21
7.143655
 31
0.0
  0
LINE
  8
OBJECT
 10
11.430331
 20
6.909655
 30
0.0
 11
11.430331
 21
6.792655
 31
0.0
  0
LINE
  8
OBJECT
 10
11.430331
 20
5.622655
 30
0.0
 11
11.430331
 21
5.739655
 31
0.0
  0
LINE
  8
OBJECT
 10
11.440331
 20
4.920655
 30
0.0
 11
11.440331
 21
4.803655
 31
0.0
  0
LINE
  8
OBJECT
 10
11.440331
 20
5.154655
 30
0.0
 11
11.440331
 21
5.037655
 31
0.0
  0
LINE
  8
OBJECT
 10
11.440331
 20
5.388655
 30
0.0
 11
11.440331
 21
5.271655
 31
0.0
  0
LINE
  8
OBJECT
 10
11.440331
 20
5.622655
 30
0.0
 11
11.440331
 21
5.505655
 31
0.0
  0
LINE
  8
OBJECT
 10
11.440331
 20
5.154655
 30
0.0
 11
11.430331
 21
5.154655
 31
0.0
  0
LINE
  8
OBJECT
 10
11.430331
 20
4.920655
 30
0.0
 11
11.430331
 21
5.037655
 31
0.0
  0
LINE
  8
OBJECT
 10
11.440331
 20
5.037655
 30
0.0
 11
11.430331
 21
5.037655
 31
0.0
  0
LINE
  8
OBJECT
 10
11.440331
 20
4.920655
 30
0.0
 11
11.430331
 21
4.920655
 31
0.0
  0
LINE
  8
OBJECT
 10
11.430331
 20
4.686655
 30
0.0
 11
11.430331
 21
4.803655
 31
0.0
  0
LINE
  8
OBJECT
 10
11.440331
 20
4.803655
 30
0.0
 11
11.430331
 21
4.803655
 31
0.0
  0
LINE
  8
OBJECT
 10
11.440331
 20
4.686655
 30
0.0
 11
11.430331
 21
4.686655
 31
0.0
  0
LINE
  8
OBJECT
 10
11.440331
 20
5.622655
 30
0.0
 11
11.430331
 21
5.622655
 31
0.0
  0
LINE
  8
OBJECT
 10
11.430331
 20
5.388655
 30
0.0
 11
11.430331
 21
5.505655
 31
0.0
  0
LINE
  8
OBJECT
 10
11.440331
 20
5.505655
 30
0.0
 11
11.430331
 21
5.505655
 31
0.0
  0
LINE
  8
OBJECT
 10
11.440331
 20
5.388655
 30
0.0
 11
11.430331
 21
5.388655
 31
0.0
  0
LINE
  8
OBJECT
 10
11.440331
 20
5.271655
 30
0.0
 11
11.430331
 21
5.271655
 31
0.0
  0
LINE
  8
OBJECT
 10
11.430331
 20
5.154655
 30
0.0
 11
11.430331
 21
5.271655
 31
0.0
  0
LINE
  8
OBJECT
 10
11.440331
 20
5.622655
 30
0.0
 11
11.440331
 21
5.505655
 31
0.0
  0
LINE
  8
OBJECT
 10
11.440331
 20
5.388655
 30
0.0
 11
11.440331
 21
5.271655
 31
0.0
  0
LINE
  8
OBJECT
 10
11.440331
 20
5.154655
 30
0.0
 11
11.440331
 21
5.037655
 31
0.0
  0
LINE
  8
OBJECT
 10
11.440331
 20
4.920655
 30
0.0
 11
11.440331
 21
4.803655
 31
0.0
  0
LINE
  8
OBJECT
 10
11.440331
 20
6.792655
 30
0.0
 11
11.440331
 21
6.675655
 31
0.0
  0
LINE
  8
OBJECT
 10
11.440331
 20
6.558655
 30
0.0
 11
11.440331
 21
6.441655
 31
0.0
  0
LINE
  8
OBJECT
 10
11.440331
 20
6.324655
 30
0.0
 11
11.440331
 21
6.207655
 31
0.0
  0
LINE
  8
OBJECT
 10
11.440331
 20
6.090655
 30
0.0
 11
11.440331
 21
5.973655
 31
0.0
  0
LINE
  8
OBJECT
 10
11.440331
 20
5.856655
 30
0.0
 11
11.440331
 21
5.739655
 31
0.0
  0
LINE
  8
OBJECT
 10
11.440331
 20
5.856655
 30
0.0
 11
11.430331
 21
5.856655
 31
0.0
  0
LINE
  8
OBJECT
 10
11.440331
 20
5.973655
 30
0.0
 11
11.430331
 21
5.973655
 31
0.0
  0
LINE
  8
OBJECT
 10
11.430331
 20
5.856655
 30
0.0
 11
11.430331
 21
5.973655
 31
0.0
  0
LINE
  8
OBJECT
 10
11.440331
 20
5.739655
 30
0.0
 11
11.430331
 21
5.739655
 31
0.0
  0
LINE
  8
OBJECT
 10
11.440331
 20
6.792655
 30
0.0
 11
11.430331
 21
6.792655
 31
0.0
  0
LINE
  8
OBJECT
 10
11.440331
 20
6.675655
 30
0.0
 11
11.430331
 21
6.675655
 31
0.0
  0
LINE
  8
OBJECT
 10
11.440331
 20
6.558655
 30
0.0
 11
11.430331
 21
6.558655
 31
0.0
  0
LINE
  8
OBJECT
 10
11.430331
 20
6.675655
 30
0.0
 11
11.430331
 21
6.558655
 31
0.0
  0
LINE
  8
OBJECT
 10
11.440331
 20
6.441655
 30
0.0
 11
11.430331
 21
6.441655
 31
0.0
  0
LINE
  8
OBJECT
 10
11.440331
 20
6.324655
 30
0.0
 11
11.430331
 21
6.324655
 31
0.0
  0
LINE
  8
OBJECT
 10
11.430331
 20
6.441655
 30
0.0
 11
11.430331
 21
6.324655
 31
0.0
  0
LINE
  8
OBJECT
 10
11.440331
 20
6.207655
 30
0.0
 11
11.430331
 21
6.207655
 31
0.0
  0
LINE
  8
OBJECT
 10
11.440331
 20
6.090655
 30
0.0
 11
11.430331
 21
6.090655
 31
0.0
  0
LINE
  8
OBJECT
 10
11.430331
 20
6.207655
 30
0.0
 11
11.430331
 21
6.090655
 31
0.0
  0
LINE
  8
OBJECT
 10
11.440331
 20
6.792655
 30
0.0
 11
11.440331
 21
6.675655
 31
0.0
  0
LINE
  8
OBJECT
 10
11.440331
 20
6.558655
 30
0.0
 11
11.440331
 21
6.441655
 31
0.0
  0
LINE
  8
OBJECT
 10
11.440331
 20
6.324655
 30
0.0
 11
11.440331
 21
6.207655
 31
0.0
  0
LINE
  8
OBJECT
 10
11.440331
 20
6.090655
 30
0.0
 11
11.440331
 21
5.973655
 31
0.0
  0
LINE
  8
OBJECT
 10
11.440331
 20
5.856655
 30
0.0
 11
11.440331
 21
5.739655
 31
0.0
  0
LINE
  8
OBJECT
 10
11.440331
 20
7.260655
 30
0.0
 11
11.440331
 21
7.143655
 31
0.0
  0
LINE
  8
OBJECT
 10
11.440331
 20
7.026655
 30
0.0
 11
11.440331
 21
6.909655
 31
0.0
  0
LINE
  8
OBJECT
 10
11.440331
 20
7.377655
 30
0.0
 11
11.430331
 21
7.377655
 31
0.0
  0
LINE
  8
OBJECT
 10
11.440331
 20
7.260655
 30
0.0
 11
11.430331
 21
7.260655
 31
0.0
  0
LINE
  8
OBJECT
 10
11.430331
 20
7.377655
 30
0.0
 11
11.430331
 21
7.260655
 31
0.0
  0
LINE
  8
OBJECT
 10
11.440331
 20
7.143655
 30
0.0
 11
11.430331
 21
7.143655
 31
0.0
  0
LINE
  8
OBJECT
 10
11.440331
 20
7.026655
 30
0.0
 11
11.430331
 21
7.026655
 31
0.0
  0
LINE
  8
OBJECT
 10
11.430331
 20
7.143655
 30
0.0
 11
11.430331
 21
7.026655
 31
0.0
  0
LINE
  8
OBJECT
 10
11.440331
 20
6.909655
 30
0.0
 11
11.430331
 21
6.909655
 31
0.0
  0
LINE
  8
OBJECT
 10
11.440331
 20
7.260655
 30
0.0
 11
11.440331
 21
7.143655
 31
0.0
  0
LINE
  8
OBJECT
 10
11.440331
 20
7.026655
 30
0.0
 11
11.440331
 21
6.909655
 31
0.0
  0
LINE
  8
OBJECT
 10
11.440331
 20
9.280655
 30
0.0
 11
11.440331
 21
7.377655
 31
0.0
  0
LINE
  8
OBJECT
 10
11.440331
 20
4.686655
 30
0.0
 11
11.440331
 21
2.783655
 31
0.0
  0
LINE
  8
OBJECT
 10
10.972324
 20
16.932308
 30
0.0
 11
10.972324
 21
15.029308
 31
0.0
  0
LINE
  8
OBJECT
 10
14.909324
 20
16.932308
 30
0.0
 11
14.909324
 21
15.029308
 31
0.0
  0
LINE
  8
OBJECT
 10
11.267324
 20
14.734308
 30
0.0
 11
14.614324
 21
14.734308
 31
0.0
  0
ARC
  8
OBJECT
 10
11.267324
 20
15.029308
 30
0.0
 40
0.295
 50
180.0
 51
270.0
  0
CIRCLE
  8
OBJECT
 10
11.287324
 20
15.049308
 30
0.0
 40
0.063
  0
ARC
  8
OBJECT
 10
14.614324
 20
15.029308
 30
0.0
 40
0.295
 50
270.0
 51
0.0
  0
CIRCLE
  8
OBJECT
 10
14.594324
 20
15.049308
 30
0.0
 40
0.063
  0
LINE
  8
OBJECT
 10
10.972324
 20
21.526308
 30
0.0
 11
10.972324
 21
19.623308
 31
0.0
  0
LINE
  8
OBJECT
 10
14.909324
 20
21.526308
 30
0.0
 11
14.909324
 21
19.623308
 31
0.0
  0
LINE
  8
OBJECT
 10
10.962324
 20
19.155308
 30
0.0
 11
10.962324
 21
19.038308
 31
0.0
  0
LINE
  8
OBJECT
 10
10.962324
 20
17.868308
 30
0.0
 11
10.962324
 21
17.985308
 31
0.0
  0
LINE
  8
OBJECT
 10
10.972324
 20
17.166308
 30
0.0
 11
10.972324
 21
17.049308
 31
0.0
  0
LINE
  8
OBJECT
 10
10.972324
 20
17.400308
 30
0.0
 11
10.972324
 21
17.283308
 31
0.0
  0
LINE
  8
OBJECT
 10
10.972324
 20
17.634308
 30
0.0
 11
10.972324
 21
17.517308
 31
0.0
  0
LINE
  8
OBJECT
 10
10.972324
 20
17.868308
 30
0.0
 11
10.972324
 21
17.751308
 31
0.0
  0
LINE
  8
OBJECT
 10
10.962324
 20
17.400308
 30
0.0
 11
10.962324
 21
17.517308
 31
0.0
  0
LINE
  8
OBJECT
 10
11.385824
 20
17.517308
 30
0.0
 11
10.962324
 21
17.517308
 31
0.0
  0
LINE
  8
OBJECT
 10
11.385824
 20
17.634308
 30
0.0
 11
10.962324
 21
17.634308
 31
0.0
  0
LINE
  8
OBJECT
 10
11.385824
 20
17.751308
 30
0.0
 11
10.962324
 21
17.751308
 31
0.0
  0
LINE
  8
OBJECT
 10
10.962324
 20
17.634308
 30
0.0
 11
10.962324
 21
17.751308
 31
0.0
  0
LINE
  8
OBJECT
 10
11.385824
 20
17.868308
 30
0.0
 11
10.962324
 21
17.868308
 31
0.0
  0
LINE
  8
OBJECT
 10
11.385824
 20
16.932308
 30
0.0
 11
10.962324
 21
16.932308
 31
0.0
  0
LINE
  8
OBJECT
 10
11.385824
 20
17.049308
 30
0.0
 11
10.962324
 21
17.049308
 31
0.0
  0
LINE
  8
OBJECT
 10
10.962324
 20
16.932308
 30
0.0
 11
10.962324
 21
17.049308
 31
0.0
  0
LINE
  8
OBJECT
 10
11.385824
 20
17.166308
 30
0.0
 11
10.962324
 21
17.166308
 31
0.0
  0
LINE
  8
OBJECT
 10
11.385824
 20
17.283308
 30
0.0
 11
10.962324
 21
17.283308
 31
0.0
  0
LINE
  8
OBJECT
 10
10.962324
 20
17.166308
 30
0.0
 11
10.962324
 21
17.283308
 31
0.0
  0
LINE
  8
OBJECT
 10
11.385824
 20
17.400308
 30
0.0
 11
10.962324
 21
17.400308
 31
0.0
  0
LINE
  8
OBJECT
 10
10.972324
 20
17.868308
 30
0.0
 11
10.972324
 21
17.751308
 31
0.0
  0
LINE
  8
OBJECT
 10
10.972324
 20
17.634308
 30
0.0
 11
10.972324
 21
17.517308
 31
0.0
  0
LINE
  8
OBJECT
 10
10.972324
 20
17.400308
 30
0.0
 11
10.972324
 21
17.283308
 31
0.0
  0
LINE
  8
OBJECT
 10
10.972324
 20
17.166308
 30
0.0
 11
10.972324
 21
17.049308
 31
0.0
  0
LINE
  8
OBJECT
 10
10.972324
 20
18.102308
 30
0.0
 11
10.972324
 21
17.985308
 31
0.0
  0
LINE
  8
OBJECT
 10
10.972324
 20
18.336308
 30
0.0
 11
10.972324
 21
18.219308
 31
0.0
  0
LINE
  8
OBJECT
 10
10.972324
 20
18.570308
 30
0.0
 11
10.972324
 21
18.453308
 31
0.0
  0
LINE
  8
OBJECT
 10
10.972324
 20
18.804308
 30
0.0
 11
10.972324
 21
18.687308
 31
0.0
  0
LINE
  8
OBJECT
 10
10.972324
 20
19.038308
 30
0.0
 11
10.972324
 21
18.921308
 31
0.0
  0
LINE
  8
OBJECT
 10
10.962324
 20
18.453308
 30
0.0
 11
10.962324
 21
18.336308
 31
0.0
  0
LINE
  8
OBJECT
 10
11.385824
 20
18.336308
 30
0.0
 11
10.962324
 21
18.336308
 31
0.0
  0
LINE
  8
OBJECT
 10
11.385824
 20
18.453308
 30
0.0
 11
10.962324
 21
18.453308
 31
0.0
  0
LINE
  8
OBJECT
 10
10.962324
 20
18.687308
 30
0.0
 11
10.962324
 21
18.570308
 31
0.0
  0
LINE
  8
OBJECT
 10
11.385824
 20
18.570308
 30
0.0
 11
10.962324
 21
18.570308
 31
0.0
  0
LINE
  8
OBJECT
 10
11.385824
 20
18.687308
 30
0.0
 11
10.962324
 21
18.687308
 31
0.0
  0
LINE
  8
OBJECT
 10
10.962324
 20
18.921308
 30
0.0
 11
10.962324
 21
18.804308
 31
0.0
  0
LINE
  8
OBJECT
 10
11.385824
 20
18.804308
 30
0.0
 11
10.962324
 21
18.804308
 31
0.0
  0
LINE
  8
OBJECT
 10
11.385824
 20
18.921308
 30
0.0
 11
10.962324
 21
18.921308
 31
0.0
  0
LINE
  8
OBJECT
 10
11.385824
 20
19.038308
 30
0.0
 11
10.962324
 21
19.038308
 31
0.0
  0
LINE
  8
OBJECT
 10
11.385824
 20
17.985308
 30
0.0
 11
10.962324
 21
17.985308
 31
0.0
  0
LINE
  8
OBJECT
 10
10.962324
 20
18.102308
 30
0.0
 11
10.962324
 21
18.219308
 31
0.0
  0
LINE
  8
OBJECT
 10
11.385824
 20
18.219308
 30
0.0
 11
10.962324
 21
18.219308
 31
0.0
  0
LINE
  8
OBJECT
 10
11.385824
 20
18.102308
 30
0.0
 11
10.962324
 21
18.102308
 31
0.0
  0
LINE
  8
OBJECT
 10
10.972324
 20
18.102308
 30
0.0
 11
10.972324
 21
17.985308
 31
0.0
  0
LINE
  8
OBJECT
 10
10.972324
 20
18.336308
 30
0.0
 11
10.972324
 21
18.219308
 31
0.0
  0
LINE
  8
OBJECT
 10
10.972324
 20
18.570308
 30
0.0
 11
10.972324
 21
18.453308
 31
0.0
  0
LINE
  8
OBJECT
 10
10.972324
 20
18.804308
 30
0.0
 11
10.972324
 21
18.687308
 31
0.0
  0
LINE
  8
OBJECT
 10
10.972324
 20
19.038308
 30
0.0
 11
10.972324
 21
18.921308
 31
0.0
  0
LINE
  8
OBJECT
 10
10.972324
 20
19.272308
 30
0.0
 11
10.972324
 21
19.155308
 31
0.0
  0
LINE
  8
OBJECT
 10
10.972324
 20
19.506308
 30
0.0
 11
10.972324
 21
19.389308
 31
0.0
  0
LINE
  8
OBJECT
 10
11.385824
 20
19.155308
 30
0.0
 11
10.962324
 21
19.155308
 31
0.0
  0
LINE
  8
OBJECT
 10
10.962324
 20
19.389308
 30
0.0
 11
10.962324
 21
19.272308
 31
0.0
  0
LINE
  8
OBJECT
 10
11.385824
 20
19.272308
 30
0.0
 11
10.962324
 21
19.272308
 31
0.0
  0
LINE
  8
OBJECT
 10
11.385824
 20
19.389308
 30
0.0
 11
10.962324
 21
19.389308
 31
0.0
  0
LINE
  8
OBJECT
 10
10.962324
 20
19.623308
 30
0.0
 11
10.962324
 21
19.506308
 31
0.0
  0
LINE
  8
OBJECT
 10
11.385824
 20
19.506308
 30
0.0
 11
10.962324
 21
19.506308
 31
0.0
  0
LINE
  8
OBJECT
 10
11.385824
 20
19.623308
 30
0.0
 11
10.962324
 21
19.623308
 31
0.0
  0
LINE
  8
OBJECT
 10
10.972324
 20
19.272308
 30
0.0
 11
10.972324
 21
19.155308
 31
0.0
  0
LINE
  8
OBJECT
 10
10.972324
 20
19.506308
 30
0.0
 11
10.972324
 21
19.389308
 31
0.0
  0
LINE
  8
OBJECT
 10
14.919324
 20
16.932308
 30
0.0
 11
14.919324
 21
17.049308
 31
0.0
  0
LINE
  8
OBJECT
 10
14.909324
 20
16.932308
 30
0.0
 11
14.919324
 21
16.932308
 31
0.0
  0
LINE
  8
OBJECT
 10
11.267324
 20
21.821308
 30
0.0
 11
14.614324
 21
21.821308
 31
0.0
  0
ARC
  8
OBJECT
 10
11.267324
 20
21.526308
 30
0.0
 40
0.295
 50
90.0
 51
180.0
  0
CIRCLE
  8
OBJECT
 10
11.287324
 20
21.506308
 30
0.0
 40
0.063
  0
ARC
  8
OBJECT
 10
14.614324
 20
21.526308
 30
0.0
 40
0.295
 50
0.0
 51
90.0
  0
CIRCLE
  8
OBJECT
 10
11.287324
 20
21.506308
 30
0.0
 40
0.135
  0
CIRCLE
  8
OBJECT
 10
14.594324
 20
21.506308
 30
0.0
 40
0.135
  0
CIRCLE
  8
OBJECT
 10
14.594324
 20
21.506308
 30
0.0
 40
0.063
  0
CIRCLE
  8
OBJECT
 10
12.940824
 20
19.530308
 30
0.0
 40
0.0465
  0
CIRCLE
  8
OBJECT
 10
11.287324
 20
15.049308
 30
0.0
 40
0.135
  0
CIRCLE
  8
OBJECT
 10
14.594324
 20
15.049308
 30
0.0
 40
0.135
  0
LINE
  8
OBJECT
 10
11.385824
 20
19.623308
 30
0.0
 11
11.385824
 21
19.506308
 31
0.0
  0
LINE
  8
OBJECT
 10
11.385824
 20
19.389308
 30
0.0
 11
11.385824
 21
19.272308
 31
0.0
  0
LINE
  8
OBJECT
 10
11.385824
 20
19.155308
 30
0.0
 11
11.385824
 21
19.038308
 31
0.0
  0
LINE
  8
OBJECT
 10
11.385824
 20
18.921308
 30
0.0
 11
11.385824
 21
18.804308
 31
0.0
  0
LINE
  8
OBJECT
 10
11.385824
 20
18.687308
 30
0.0
 11
11.385824
 21
18.570308
 31
0.0
  0
LINE
  8
OBJECT
 10
11.385824
 20
18.453308
 30
0.0
 11
11.385824
 21
18.336308
 31
0.0
  0
LINE
  8
OBJECT
 10
11.385824
 20
18.219308
 30
0.0
 11
11.385824
 21
18.102308
 31
0.0
  0
LINE
  8
OBJECT
 10
11.385824
 20
17.985308
 30
0.0
 11
11.385824
 21
17.868308
 31
0.0
  0
LINE
  8
OBJECT
 10
11.385824
 20
17.751308
 30
0.0
 11
11.385824
 21
17.634308
 31
0.0
  0
LINE
  8
OBJECT
 10
11.385824
 20
17.517308
 30
0.0
 11
11.385824
 21
17.400308
 31
0.0
  0
LINE
  8
OBJECT
 10
11.385824
 20
17.283308
 30
0.0
 11
11.385824
 21
17.166308
 31
0.0
  0
LINE
  8
OBJECT
 10
11.385824
 20
17.049308
 30
0.0
 11
11.385824
 21
16.932308
 31
0.0
  0
LINE
  8
OBJECT
 10
14.495824
 20
19.155308
 30
0.0
 11
14.495824
 21
19.038308
 31
0.0
  0
LINE
  8
OBJECT
 10
14.919324
 20
19.155308
 30
0.0
 11
14.919324
 21
19.038308
 31
0.0
  0
LINE
  8
OBJECT
 10
14.495824
 20
17.985308
 30
0.0
 11
14.495824
 21
17.868308
 31
0.0
  0
LINE
  8
OBJECT
 10
14.919324
 20
17.868308
 30
0.0
 11
14.919324
 21
17.985308
 31
0.0
  0
LINE
  8
OBJECT
 10
14.495824
 20
17.049308
 30
0.0
 11
14.495824
 21
16.932308
 31
0.0
  0
LINE
  8
OBJECT
 10
14.495824
 20
17.283308
 30
0.0
 11
14.495824
 21
17.166308
 31
0.0
  0
LINE
  8
OBJECT
 10
14.495824
 20
17.517308
 30
0.0
 11
14.495824
 21
17.400308
 31
0.0
  0
LINE
  8
OBJECT
 10
14.495824
 20
17.751308
 30
0.0
 11
14.495824
 21
17.634308
 31
0.0
  0
LINE
  8
OBJECT
 10
14.495824
 20
16.932308
 30
0.0
 11
14.919324
 21
16.932308
 31
0.0
  0
LINE
  8
OBJECT
 10
14.495824
 20
17.049308
 30
0.0
 11
14.919324
 21
17.049308
 31
0.0
  0
LINE
  8
OBJECT
 10
14.495824
 20
17.166308
 30
0.0
 11
14.919324
 21
17.166308
 31
0.0
  0
LINE
  8
OBJECT
 10
14.495824
 20
17.283308
 30
0.0
 11
14.919324
 21
17.283308
 31
0.0
  0
LINE
  8
OBJECT
 10
14.495824
 20
17.400308
 30
0.0
 11
14.919324
 21
17.400308
 31
0.0
  0
LINE
  8
OBJECT
 10
14.495824
 20
17.517308
 30
0.0
 11
14.919324
 21
17.517308
 31
0.0
  0
LINE
  8
OBJECT
 10
14.495824
 20
17.868308
 30
0.0
 11
14.919324
 21
17.868308
 31
0.0
  0
LINE
  8
OBJECT
 10
14.495824
 20
17.751308
 30
0.0
 11
14.919324
 21
17.751308
 31
0.0
  0
LINE
  8
OBJECT
 10
14.495824
 20
17.634308
 30
0.0
 11
14.919324
 21
17.634308
 31
0.0
  0
LINE
  8
OBJECT
 10
14.909324
 20
17.166308
 30
0.0
 11
14.909324
 21
17.049308
 31
0.0
  0
LINE
  8
OBJECT
 10
14.909324
 20
17.400308
 30
0.0
 11
14.909324
 21
17.283308
 31
0.0
  0
LINE
  8
OBJECT
 10
14.909324
 20
17.634308
 30
0.0
 11
14.909324
 21
17.517308
 31
0.0
  0
LINE
  8
OBJECT
 10
14.909324
 20
17.868308
 30
0.0
 11
14.909324
 21
17.751308
 31
0.0
  0
LINE
  8
OBJECT
 10
14.919324
 20
17.166308
 30
0.0
 11
14.919324
 21
17.283308
 31
0.0
  0
LINE
  8
OBJECT
 10
14.919324
 20
16.932308
 30
0.0
 11
14.919324
 21
17.049308
 31
0.0
  0
LINE
  8
OBJECT
 10
14.919324
 20
17.634308
 30
0.0
 11
14.919324
 21
17.751308
 31
0.0
  0
LINE
  8
OBJECT
 10
14.919324
 20
17.400308
 30
0.0
 11
14.919324
 21
17.517308
 31
0.0
  0
LINE
  8
OBJECT
 10
14.909324
 20
17.868308
 30
0.0
 11
14.909324
 21
17.751308
 31
0.0
  0
LINE
  8
OBJECT
 10
14.909324
 20
17.634308
 30
0.0
 11
14.909324
 21
17.517308
 31
0.0
  0
LINE
  8
OBJECT
 10
14.909324
 20
17.400308
 30
0.0
 11
14.909324
 21
17.283308
 31
0.0
  0
LINE
  8
OBJECT
 10
14.909324
 20
17.166308
 30
0.0
 11
14.909324
 21
17.049308
 31
0.0
  0
LINE
  8
OBJECT
 10
14.495824
 20
18.219308
 30
0.0
 11
14.495824
 21
18.102308
 31
0.0
  0
LINE
  8
OBJECT
 10
14.495824
 20
18.453308
 30
0.0
 11
14.495824
 21
18.336308
 31
0.0
  0
LINE
  8
OBJECT
 10
14.495824
 20
18.687308
 30
0.0
 11
14.495824
 21
18.570308
 31
0.0
  0
LINE
  8
OBJECT
 10
14.495824
 20
18.921308
 30
0.0
 11
14.495824
 21
18.804308
 31
0.0
  0
LINE
  8
OBJECT
 10
14.495824
 20
17.985308
 30
0.0
 11
14.919324
 21
17.985308
 31
0.0
  0
LINE
  8
OBJECT
 10
14.495824
 20
18.102308
 30
0.0
 11
14.919324
 21
18.102308
 31
0.0
  0
LINE
  8
OBJECT
 10
14.495824
 20
18.219308
 30
0.0
 11
14.919324
 21
18.219308
 31
0.0
  0
LINE
  8
OBJECT
 10
14.495824
 20
18.336308
 30
0.0
 11
14.919324
 21
18.336308
 31
0.0
  0
LINE
  8
OBJECT
 10
14.495824
 20
18.570308
 30
0.0
 11
14.919324
 21
18.570308
 31
0.0
  0
LINE
  8
OBJECT
 10
14.495824
 20
18.453308
 30
0.0
 11
14.919324
 21
18.453308
 31
0.0
  0
LINE
  8
OBJECT
 10
14.495824
 20
18.687308
 30
0.0
 11
14.919324
 21
18.687308
 31
0.0
  0
LINE
  8
OBJECT
 10
14.495824
 20
18.804308
 30
0.0
 11
14.919324
 21
18.804308
 31
0.0
  0
LINE
  8
OBJECT
 10
14.495824
 20
18.921308
 30
0.0
 11
14.919324
 21
18.921308
 31
0.0
  0
LINE
  8
OBJECT
 10
14.495824
 20
19.038308
 30
0.0
 11
14.919324
 21
19.038308
 31
0.0
  0
LINE
  8
OBJECT
 10
14.909324
 20
19.038308
 30
0.0
 11
14.909324
 21
18.921308
 31
0.0
  0
LINE
  8
OBJECT
 10
14.909324
 20
18.804308
 30
0.0
 11
14.909324
 21
18.687308
 31
0.0
  0
LINE
  8
OBJECT
 10
14.909324
 20
18.570308
 30
0.0
 11
14.909324
 21
18.453308
 31
0.0
  0
LINE
  8
OBJECT
 10
14.909324
 20
18.336308
 30
0.0
 11
14.909324
 21
18.219308
 31
0.0
  0
LINE
  8
OBJECT
 10
14.909324
 20
18.102308
 30
0.0
 11
14.909324
 21
17.985308
 31
0.0
  0
LINE
  8
OBJECT
 10
14.919324
 20
18.102308
 30
0.0
 11
14.919324
 21
18.219308
 31
0.0
  0
LINE
  8
OBJECT
 10
14.919324
 20
18.921308
 30
0.0
 11
14.919324
 21
18.804308
 31
0.0
  0
LINE
  8
OBJECT
 10
14.919324
 20
18.687308
 30
0.0
 11
14.919324
 21
18.570308
 31
0.0
  0
LINE
  8
OBJECT
 10
14.919324
 20
18.453308
 30
0.0
 11
14.919324
 21
18.336308
 31
0.0
  0
LINE
  8
OBJECT
 10
14.909324
 20
19.038308
 30
0.0
 11
14.909324
 21
18.921308
 31
0.0
  0
LINE
  8
OBJECT
 10
14.909324
 20
18.804308
 30
0.0
 11
14.909324
 21
18.687308
 31
0.0
  0
LINE
  8
OBJECT
 10
14.909324
 20
18.570308
 30
0.0
 11
14.909324
 21
18.453308
 31
0.0
  0
LINE
  8
OBJECT
 10
14.909324
 20
18.336308
 30
0.0
 11
14.909324
 21
18.219308
 31
0.0
  0
LINE
  8
OBJECT
 10
14.909324
 20
18.102308
 30
0.0
 11
14.909324
 21
17.985308
 31
0.0
  0
LINE
  8
OBJECT
 10
14.495824
 20
19.623308
 30
0.0
 11
14.495824
 21
19.506308
 31
0.0
  0
LINE
  8
OBJECT
 10
14.495824
 20
19.389308
 30
0.0
 11
14.495824
 21
19.272308
 31
0.0
  0
LINE
  8
OBJECT
 10
14.495824
 20
19.155308
 30
0.0
 11
14.919324
 21
19.155308
 31
0.0
  0
LINE
  8
OBJECT
 10
14.495824
 20
19.272308
 30
0.0
 11
14.919324
 21
19.272308
 31
0.0
  0
LINE
  8
OBJECT
 10
14.495824
 20
19.389308
 30
0.0
 11
14.919324
 21
19.389308
 31
0.0
  0
LINE
  8
OBJECT
 10
14.495824
 20
19.506308
 30
0.0
 11
14.919324
 21
19.506308
 31
0.0
  0
LINE
  8
OBJECT
 10
14.495824
 20
19.623308
 30
0.0
 11
14.919324
 21
19.623308
 31
0.0
  0
LINE
  8
OBJECT
 10
14.909324
 20
19.506308
 30
0.0
 11
14.909324
 21
19.389308
 31
0.0
  0
LINE
  8
OBJECT
 10
14.909324
 20
19.272308
 30
0.0
 11
14.909324
 21
19.155308
 31
0.0
  0
LINE
  8
OBJECT
 10
14.919324
 20
19.623308
 30
0.0
 11
14.919324
 21
19.506308
 31
0.0
  0
LINE
  8
OBJECT
 10
14.919324
 20
19.389308
 30
0.0
 11
14.919324
 21
19.272308
 31
0.0
  0
LINE
  8
OBJECT
 10
14.909324
 20
19.506308
 30
0.0
 11
14.909324
 21
19.389308
 31
0.0
  0
LINE
  8
OBJECT
 10
14.909324
 20
19.272308
 30
0.0
 11
14.909324
 21
19.155308
 31
0.0
  0
LINE
  8
OBJECT
 10
11.737824
 20
16.372308
 30
0.0
 11
11.737824
 21
14.734308
 31
0.0
  0
LINE
  8
OBJECT
 10
14.143824
 20
16.372308
 30
0.0
 11
14.143824
 21
14.734308
 31
0.0
  0
LINE
  8
OBJECT
 10
11.737824
 20
16.372308
 30
0.0
 11
14.143824
 21
16.372308
 31
0.0
  0
LINE
  8
OBJECT
 10
11.799824
 20
21.103308
 30
0.0
 11
11.799824
 21
20.865308
 31
0.0
  0
LINE
  8
OBJECT
 10
12.037824
 20
21.103308
 30
0.0
 11
12.037824
 21
21.061308
 31
0.0
  0
LINE
  8
OBJECT
 10
11.799824
 20
21.103308
 30
0.0
 11
12.037824
 21
21.103308
 31
0.0
  0
LINE
  8
OBJECT
 10
11.799824
 20
20.865308
 30
0.0
 11
11.841824
 21
20.865308
 31
0.0
  0
LINE
  8
OBJECT
 10
11.841824
 20
21.061308
 30
0.0
 11
11.841824
 21
20.865308
 31
0.0
  0
LINE
  8
OBJECT
 10
11.841824
 20
21.061308
 30
0.0
 11
12.037824
 21
21.061308
 31
0.0
  0
LINE
  8
OBJECT
 10
14.039824
 20
21.061308
 30
0.0
 11
13.843824
 21
21.061308
 31
0.0
  0
LINE
  8
OBJECT
 10
14.039824
 20
21.061308
 30
0.0
 11
14.039824
 21
20.865308
 31
0.0
  0
LINE
  8
OBJECT
 10
14.081824
 20
21.103308
 30
0.0
 11
13.843824
 21
21.103308
 31
0.0
  0
LINE
  8
OBJECT
 10
14.081824
 20
21.103308
 30
0.0
 11
14.081824
 21
20.865308
 31
0.0
  0
LINE
  8
OBJECT
 10
13.843824
 20
21.103308
 30
0.0
 11
13.843824
 21
21.061308
 31
0.0
  0
LINE
  8
OBJECT
 10
14.081824
 20
20.865308
 30
0.0
 11
14.039824
 21
20.865308
 31
0.0
  0
LINE
  8
OBJECT
 10
11.747824
 20
16.362308
 30
0.0
 11
11.747824
 21
14.734308
 31
0.0
  0
LINE
  8
OBJECT
 10
14.133824
 20
16.362308
 30
0.0
 11
14.133824
 21
14.734308
 31
0.0
  0
LINE
  8
OBJECT
 10
11.747824
 20
16.362308
 30
0.0
 11
14.133824
 21
16.362308
 31
0.0
  0
LINE
  8
OBJECT
 10
12.588824
 20
16.282308
 30
0.0
 11
12.588824
 21
15.824308
 31
0.0
  0
LINE
  8
OBJECT
 10
13.292824
 20
16.282308
 30
0.0
 11
13.292824
 21
15.824308
 31
0.0
  0
LINE
  8
OBJECT
 10
12.588824
 20
16.282308
 30
0.0
 11
13.292824
 21
16.282308
 31
0.0
  0
LINE
  8
OBJECT
 10
12.588824
 20
15.824308
 30
0.0
 11
13.292824
 21
15.824308
 31
0.0
  0
LINE
  8
OBJECT
 10
12.872324
 20
16.019308
 30
0.0
 11
13.009324
 21
16.019308
 31
0.0
  0
LINE
  8
OBJECT
 10
12.872324
 20
16.019308
 30
0.0
 11
12.940824
 21
15.874308
 31
0.0
  0
LINE
  8
OBJECT
 10
13.009324
 20
16.019308
 30
0.0
 11
12.940824
 21
15.874308
 31
0.0
  0
LINE
  8
OBJECT
 10
12.647824
 20
16.238308
 30
0.0
 11
12.647824
 21
16.213308
 31
0.0
  0
LINE
  8
OBJECT
 10
13.233824
 20
16.238308
 30
0.0
 11
13.233824
 21
16.213308
 31
0.0
  0
LINE
  8
OBJECT
 10
12.647824
 20
16.238308
 30
0.0
 11
13.233824
 21
16.238308
 31
0.0
  0
LINE
  8
OBJECT
 10
12.647824
 20
16.213308
 30
0.0
 11
13.233824
 21
16.213308
 31
0.0
  0
LINE
  8
OBJECT
 10
12.647824
 20
16.168308
 30
0.0
 11
13.233824
 21
16.168308
 31
0.0
  0
LINE
  8
OBJECT
 10
12.647824
 20
16.143308
 30
0.0
 11
13.233824
 21
16.143308
 31
0.0
  0
LINE
  8
OBJECT
 10
12.647824
 20
16.098308
 30
0.0
 11
13.233824
 21
16.098308
 31
0.0
  0
LINE
  8
OBJECT
 10
12.647824
 20
16.073308
 30
0.0
 11
13.233824
 21
16.073308
 31
0.0
  0
LINE
  8
OBJECT
 10
12.647824
 20
16.098308
 30
0.0
 11
12.647824
 21
16.073308
 31
0.0
  0
LINE
  8
OBJECT
 10
12.647824
 20
16.168308
 30
0.0
 11
12.647824
 21
16.143308
 31
0.0
  0
LINE
  8
OBJECT
 10
13.233824
 20
16.168308
 30
0.0
 11
13.233824
 21
16.143308
 31
0.0
  0
LINE
  8
OBJECT
 10
13.233824
 20
16.098308
 30
0.0
 11
13.233824
 21
16.073308
 31
0.0
  0
LINE
  8
OBJECT
 10
8.899163
 20
4.686655
 30
0.0
 11
8.899163
 21
2.82026
 31
0.0
  0
LINE
  8
OBJECT
 10
7.954163
 20
9.575655
 30
0.0
 11
7.954163
 21
9.536655
 31
0.0
  0
LINE
  8
OBJECT
 10
8.899163
 20
9.24405
 30
0.0
 11
8.899163
 21
7.377655
 31
0.0
  0
LINE
  8
OBJECT
 10
8.899163
 20
6.909655
 30
0.0
 11
8.909163
 21
6.909655
 31
0.0
  0
LINE
  8
OBJECT
 10
8.899163
 20
7.026655
 30
0.0
 11
8.909163
 21
7.026655
 31
0.0
  0
LINE
  8
OBJECT
 10
8.899163
 20
7.143655
 30
0.0
 11
8.909163
 21
7.143655
 31
0.0
  0
LINE
  8
OBJECT
 10
8.899163
 20
7.260655
 30
0.0
 11
8.909163
 21
7.260655
 31
0.0
  0
LINE
  8
OBJECT
 10
8.899163
 20
7.377655
 30
0.0
 11
8.909163
 21
7.377655
 31
0.0
  0
LINE
  8
OBJECT
 10
8.899163
 20
5.739655
 30
0.0
 11
8.909163
 21
5.739655
 31
0.0
  0
LINE
  8
OBJECT
 10
8.899163
 20
5.856655
 30
0.0
 11
8.909163
 21
5.856655
 31
0.0
  0
LINE
  8
OBJECT
 10
8.899163
 20
5.973655
 30
0.0
 11
8.909163
 21
5.973655
 31
0.0
  0
LINE
  8
OBJECT
 10
8.899163
 20
6.090655
 30
0.0
 11
8.909163
 21
6.090655
 31
0.0
  0
LINE
  8
OBJECT
 10
8.899163
 20
6.207655
 30
0.0
 11
8.909163
 21
6.207655
 31
0.0
  0
LINE
  8
OBJECT
 10
8.899163
 20
6.324655
 30
0.0
 11
8.909163
 21
6.324655
 31
0.0
  0
LINE
  8
OBJECT
 10
8.899163
 20
6.441655
 30
0.0
 11
8.909163
 21
6.441655
 31
0.0
  0
LINE
  8
OBJECT
 10
8.899163
 20
6.558655
 30
0.0
 11
8.909163
 21
6.558655
 31
0.0
  0
LINE
  8
OBJECT
 10
8.899163
 20
6.675655
 30
0.0
 11
8.909163
 21
6.675655
 31
0.0
  0
LINE
  8
OBJECT
 10
8.899163
 20
6.792655
 30
0.0
 11
8.909163
 21
6.792655
 31
0.0
  0
LINE
  8
OBJECT
 10
8.899163
 20
4.686655
 30
0.0
 11
8.909163
 21
4.686655
 31
0.0
  0
LINE
  8
OBJECT
 10
8.899163
 20
4.803655
 30
0.0
 11
8.909163
 21
4.803655
 31
0.0
  0
LINE
  8
OBJECT
 10
8.899163
 20
4.920655
 30
0.0
 11
8.909163
 21
4.920655
 31
0.0
  0
LINE
  8
OBJECT
 10
8.899163
 20
5.037655
 30
0.0
 11
8.909163
 21
5.037655
 31
0.0
  0
LINE
  8
OBJECT
 10
8.899163
 20
5.154655
 30
0.0
 11
8.909163
 21
5.154655
 31
0.0
  0
LINE
  8
OBJECT
 10
8.899163
 20
5.271655
 30
0.0
 11
8.909163
 21
5.271655
 31
0.0
  0
LINE
  8
OBJECT
 10
8.899163
 20
5.388655
 30
0.0
 11
8.909163
 21
5.388655
 31
0.0
  0
LINE
  8
OBJECT
 10
8.899163
 20
5.505655
 30
0.0
 11
8.909163
 21
5.505655
 31
0.0
  0
LINE
  8
OBJECT
 10
8.899163
 20
5.622655
 30
0.0
 11
8.909163
 21
5.622655
 31
0.0
  0
LINE
  8
OBJECT
 10
8.909163
 20
6.909655
 30
0.0
 11
8.909163
 21
6.792655
 31
0.0
  0
LINE
  8
OBJECT
 10
8.909163
 20
5.739655
 30
0.0
 11
8.909163
 21
5.622655
 31
0.0
  0
LINE
  8
OBJECT
 10
8.899163
 20
4.920655
 30
0.0
 11
8.899163
 21
4.803655
 31
0.0
  0
LINE
  8
OBJECT
 10
8.899163
 20
5.154655
 30
0.0
 11
8.899163
 21
5.037655
 31
0.0
  0
LINE
  8
OBJECT
 10
8.899163
 20
5.388655
 30
0.0
 11
8.899163
 21
5.271655
 31
0.0
  0
LINE
  8
OBJECT
 10
8.899163
 20
5.622655
 30
0.0
 11
8.899163
 21
5.505655
 31
0.0
  0
LINE
  8
OBJECT
 10
8.909163
 20
4.803655
 30
0.0
 11
8.909163
 21
4.686655
 31
0.0
  0
LINE
  8
OBJECT
 10
8.909163
 20
5.037655
 30
0.0
 11
8.909163
 21
4.920655
 31
0.0
  0
LINE
  8
OBJECT
 10
8.909163
 20
5.271655
 30
0.0
 11
8.909163
 21
5.154655
 31
0.0
  0
LINE
  8
OBJECT
 10
8.909163
 20
5.505655
 30
0.0
 11
8.909163
 21
5.388655
 31
0.0
  0
LINE
  8
OBJECT
 10
8.899163
 20
5.856655
 30
0.0
 11
8.899163
 21
5.739655
 31
0.0
  0
LINE
  8
OBJECT
 10
8.899163
 20
6.090655
 30
0.0
 11
8.899163
 21
5.973655
 31
0.0
  0
LINE
  8
OBJECT
 10
8.899163
 20
6.324655
 30
0.0
 11
8.899163
 21
6.207655
 31
0.0
  0
LINE
  8
OBJECT
 10
8.899163
 20
6.558655
 30
0.0
 11
8.899163
 21
6.441655
 31
0.0
  0
LINE
  8
OBJECT
 10
8.899163
 20
6.792655
 30
0.0
 11
8.899163
 21
6.675655
 31
0.0
  0
LINE
  8
OBJECT
 10
8.909163
 20
5.973655
 30
0.0
 11
8.909163
 21
5.856655
 31
0.0
  0
LINE
  8
OBJECT
 10
8.909163
 20
6.207655
 30
0.0
 11
8.909163
 21
6.090655
 31
0.0
  0
LINE
  8
OBJECT
 10
8.909163
 20
6.441655
 30
0.0
 11
8.909163
 21
6.324655
 31
0.0
  0
LINE
  8
OBJECT
 10
8.909163
 20
6.675655
 30
0.0
 11
8.909163
 21
6.558655
 31
0.0
  0
LINE
  8
OBJECT
 10
8.899163
 20
7.026655
 30
0.0
 11
8.899163
 21
6.909655
 31
0.0
  0
LINE
  8
OBJECT
 10
8.899163
 20
7.260655
 30
0.0
 11
8.899163
 21
7.143655
 31
0.0
  0
LINE
  8
OBJECT
 10
8.909163
 20
7.143655
 30
0.0
 11
8.909163
 21
7.026655
 31
0.0
  0
LINE
  8
OBJECT
 10
8.909163
 20
7.377655
 30
0.0
 11
8.909163
 21
7.260655
 31
0.0
  0
LINE
  8
OBJECT
 10
7.954163
 20
9.575655
 30
0.0
 11
8.592409
 21
9.558942
 31
0.0
  0
LINE
  8
OBJECT
 10
7.915163
 20
9.536655
 30
0.0
 11
7.954163
 21
9.536655
 31
0.0
  0
ARC
  8
OBJECT
 10
8.584163
 20
9.24405
 30
0.0
 40
0.315
 50
0.0
 51
88.5
  0
LINE
  8
OBJECT
 10
7.915163
 20
8.996655
 30
0.0
 11
8.827163
 21
8.996655
 31
0.0
  0
LINE
  8
OBJECT
 10
7.915163
 20
9.459655
 30
0.0
 11
8.69625
 21
9.459655
 31
0.0
  0
LINE
  8
OBJECT
 10
8.624163
 20
7.390655
 30
0.0
 11
8.624163
 21
7.154655
 31
0.0
  0
LINE
  8
OBJECT
 10
8.827163
 20
9.24405
 30
0.0
 11
8.827163
 21
4.174655
 31
0.0
  0
ARC
  8
OBJECT
 10
8.584163
 20
9.24405
 30
0.0
 40
0.243
 50
0.0
 51
62.531409
  0
LINE
  8
OBJECT
 10
8.624163
 20
7.390655
 30
0.0
 11
8.827163
 21
7.390655
 31
0.0
  0
LINE
  8
OBJECT
 10
8.624163
 20
7.154655
 30
0.0
 11
8.827163
 21
7.154655
 31
0.0
  0
LINE
  8
HIDDEN
 10
8.624163
 20
7.321655
 30
0.0
 11
8.827163
 21
7.321655
 31
0.0
  0
LINE
  8
HIDDEN
 10
8.624163
 20
7.223655
 30
0.0
 11
8.827163
 21
7.223655
 31
0.0
  0
LINE
  8
HIDDEN
 10
8.624163
 20
9.250655
 30
0.0
 11
8.827163
 21
9.250655
 31
0.0
  0
LINE
  8
HIDDEN
 10
8.624163
 20
9.152655
 30
0.0
 11
8.827163
 21
9.152655
 31
0.0
  0
LINE
  8
OBJECT
 10
8.624163
 20
9.319655
 30
0.0
 11
8.624163
 21
9.083655
 31
0.0
  0
LINE
  8
OBJECT
 10
8.624163
 20
9.083655
 30
0.0
 11
8.827163
 21
9.083655
 31
0.0
  0
LINE
  8
OBJECT
 10
8.624163
 20
9.319655
 30
0.0
 11
8.815102
 21
9.319655
 31
0.0
  0
LINE
  8
HIDDEN
 10
7.915163
 20
9.323655
 30
0.0
 11
8.816337
 21
9.323655
 31
0.0
  0
LINE
  8
HIDDEN
 10
7.915163
 20
9.197655
 30
0.0
 11
8.816337
 21
9.197655
 31
0.0
  0
LINE
  8
HIDDEN
 10
8.899163
 20
9.125655
 30
0.0
 11
8.816337
 21
9.197655
 31
0.0
  0
LINE
  8
HIDDEN
 10
8.871991
 20
9.372035
 30
0.0
 11
8.816337
 21
9.323655
 31
0.0
  0
LINE
  8
HIDDEN
 10
8.624163
 20
6.337655
 30
0.0
 11
8.827163
 21
6.337655
 31
0.0
  0
LINE
  8
HIDDEN
 10
8.624163
 20
6.239655
 30
0.0
 11
8.827163
 21
6.239655
 31
0.0
  0
LINE
  8
OBJECT
 10
8.624163
 20
6.406655
 30
0.0
 11
8.624163
 21
6.170655
 31
0.0
  0
LINE
  8
OBJECT
 10
8.624163
 20
6.170655
 30
0.0
 11
8.827163
 21
6.170655
 31
0.0
  0
LINE
  8
OBJECT
 10
8.624163
 20
6.406655
 30
0.0
 11
8.827163
 21
6.406655
 31
0.0
  0
LINE
  8
OBJECT
 10
8.624163
 20
4.575655
 30
0.0
 11
8.827163
 21
4.575655
 31
0.0
  0
LINE
  8
OBJECT
 10
8.624163
 20
4.339655
 30
0.0
 11
8.827163
 21
4.339655
 31
0.0
  0
LINE
  8
OBJECT
 10
8.624163
 20
4.575655
 30
0.0
 11
8.624163
 21
4.339655
 31
0.0
  0
LINE
  8
HIDDEN
 10
8.624163
 20
4.408655
 30
0.0
 11
8.827163
 21
4.408655
 31
0.0
  0
LINE
  8
HIDDEN
 10
8.624163
 20
4.506655
 30
0.0
 11
8.827163
 21
4.506655
 31
0.0
  0
LINE
  8
HIDDEN
 10
8.899163
 20
2.938655
 30
0.0
 11
8.816337
 21
2.866655
 31
0.0
  0
ARC
  8
OBJECT
 10
8.584163
 20
2.82026
 30
0.0
 40
0.315
 50
271.5
 51
0.0
  0
LINE
  8
HIDDEN
 10
7.915163
 20
2.740655
 30
0.0
 11
8.816337
 21
2.740655
 31
0.0
  0
LINE
  8
HIDDEN
 10
7.915163
 20
2.866655
 30
0.0
 11
8.816337
 21
2.866655
 31
0.0
  0
LINE
  8
OBJECT
 10
7.915163
 20
2.604655
 30
0.0
 11
8.419163
 21
2.604655
 31
0.0
  0
LINE
  8
OBJECT
 10
7.954163
 20
2.488655
 30
0.0
 11
8.592409
 21
2.505368
 31
0.0
  0
LINE
  8
OBJECT
 10
7.954163
 20
2.488655
 30
0.0
 11
7.954163
 21
2.527655
 31
0.0
  0
LINE
  8
OBJECT
 10
7.915163
 20
2.527655
 30
0.0
 11
7.954163
 21
2.527655
 31
0.0
  0
LINE
  8
HIDDEN
 10
8.871991
 20
2.692276
 30
0.0
 11
8.816337
 21
2.740655
 31
0.0
  0
LINE
  8
OBJECT
 10
8.777163
 20
4.174655
 30
0.0
 11
8.827163
 21
4.174655
 31
0.0
  0
LINE
  8
OBJECT
 10
8.012163
 20
4.124655
 30
0.0
 11
8.777163
 21
4.124655
 31
0.0
  0
LINE
  8
OBJECT
 10
8.777163
 20
4.174655
 30
0.0
 11
8.777163
 21
4.124655
 31
0.0
  0
LINE
  8
OBJECT
 10
7.981163
 20
4.093655
 30
0.0
 11
7.981163
 21
2.947655
 31
0.0
  0
LINE
  8
OBJECT
 10
8.012163
 20
2.916655
 30
0.0
 11
8.419163
 21
2.916655
 31
0.0
  0
LINE
  8
OBJECT
 10
8.419163
 20
2.916655
 30
0.0
 11
8.419163
 21
2.604655
 31
0.0
  0
LINE
  8
OBJECT
 10
8.482163
 20
2.979655
 30
0.0
 11
8.482163
 21
2.502481
 31
0.0
  0
LINE
  8
OBJECT
 10
8.044163
 20
2.979655
 30
0.0
 11
8.482163
 21
2.979655
 31
0.0
  0
LINE
  8
OBJECT
 10
8.044163
 20
4.061655
 30
0.0
 11
8.044163
 21
2.979655
 31
0.0
  0
LINE
  8
OBJECT
 10
8.044163
 20
4.061655
 30
0.0
 11
8.806163
 21
4.061655
 31
0.0
  0
LINE
  8
OBJECT
 10
8.482163
 20
2.604655
 30
0.0
 11
8.806163
 21
2.604655
 31
0.0
  0
ARC
  8
OBJECT
 10
8.012163
 20
2.947655
 30
0.0
 40
0.031
 50
180.0
 51
270.0
  0
ARC
  8
OBJECT
 10
8.012163
 20
4.093655
 30
0.0
 40
0.031
 50
90.0
 51
180.0
  0
LINE
  8
OBJECT
 10
8.899163
 20
4.126655
 30
0.0
 11
8.806163
 21
4.126655
 31
0.0
  0
LINE
  8
OBJECT
 10
8.806163
 20
4.126655
 30
0.0
 11
8.806163
 21
2.604655
 31
0.0
  0
DIMENSION
  8
DIM
  2
*D39
 10
5.773463
 20
22.641013
 30
0.0
 11
3.804963
 21
22.641013
 31
0.0
 13
1.836463
 23
21.526308
 33
0.0
 14
5.773463
 24
21.526308
 34
0.0
  3
STD
  0
DIMENSION
  8
DIM
  2
*D37
 10
9.460545
 20
22.235562
 30
0.0
 11
8.673045
 21
22.235562
 31
0.0
 13
7.885545
 23
21.651649
 33
0.0
 14
9.460545
 24
21.489703
 34
0.0
  3
DIM
  0
DIMENSION
  8
DIM
  2
*D40
 10
2.119963
 20
14.305179
 30
0.0
 11
3.804963
 21
14.305179
 31
0.0
 13
5.489963
 23
14.986308
 33
0.0
 14
2.119963
 24
14.986308
 34
0.0
  3
STD
  0
DIMENSION
  8
DIM
  2
*D15
 10
1.313099
 20
14.986308
 30
0.0
 11
1.313099
 21
17.263308
 31
0.0
 12
0.233225
 22
1.894325
 32
0.0
 13
2.119963
 23
19.540308
 33
0.0
 14
2.119963
 24
14.986308
 34
0.0
 50
90.0
  3
STD
  0
DIMENSION
  8
DIM
  2
*D14
 10
6.84528
 20
21.821308
 30
0.0
 11
6.84528
 21
18.277808
 31
0.0
 12
0.233225
 22
1.894325
 32
0.0
 13
5.478463
 23
14.734308
 33
0.0
 14
5.478463
 24
21.821308
 34
0.0
 50
90.0
  3
STD
  0
DIMENSION
  8
DIM
  2
*D38
 10
5.222463
 20
22.235562
 30
0.0
 11
3.804963
 21
22.235562
 31
0.0
 13
2.387463
 23
21.132308
 33
0.0
 14
5.222463
 24
21.132308
 34
0.0
  3
STD
  0
DIMENSION
  8
DIM
  2
*D13
 10
6.246614
 20
19.754308
 30
0.0
 11
6.246614
 21
20.443308
 31
0.0
 12
0.233225
 22
1.894325
 32
0.0
 13
5.222463
 23
21.132308
 33
0.0
 14
5.222463
 24
19.754308
 34
0.0
 50
270.0
  3
DIM
  0
DIMENSION
  8
DIM
  2
*D1
 10
2.156123
 20
10.018318
 30
0.0
 11
3.140623
 21
10.018318
 31
0.0
 12
-0.663078
 22
-0.07016
 32
0.0
 13
4.125123
 23
9.063655
 33
0.0
 14
2.156123
 24
9.063655
 34
0.0
  3
STD
  0
DIMENSION
  8
DIM
  2
*D16
 10
1.556123
 20
6.304011
 30
0.0
 11
2.791167
 21
6.304011
 31
0.0
 12
-0.070184
 22
0.0
 32
0.0
 70
   128
 13
4.725123
 23
6.878655
 33
0.0
 14
1.556123
 24
6.878655
 34
0.0
  3
STD
  0
DIMENSION
  8
DIM
  2
*D29
 10
5.652451
 20
5.323655
 30
0.0
 11
5.652451
 21
6.101155
 31
0.0
 13
4.725123
 23
6.878655
 33
0.0
 14
4.725123
 24
5.323655
 34
0.0
 50
90.0
  3
STD
  0
DIMENSION
  8
DIM
  2
*D30
 10
5.652451
 20
3.571655
 30
0.0
 11
5.652451
 21
4.447655
 31
0.0
 13
4.725123
 23
5.323655
 33
0.0
 14
4.725123
 24
3.571655
 34
0.0
 50
90.0
  3
STD
  0
DIMENSION
  8
DIM
  2
*D31
 10
5.652451
 20
7.252655
 30
0.0
 11
5.652451
 21
8.158155
 31
0.0
 13
4.125123
 23
9.063655
 33
0.0
 14
4.125123
 24
7.252655
 34
0.0
 50
90.0
  3
STD
  0
DIMENSION
  8
DIM
  2
*D28
 10
5.652451
 20
9.575655
 30
0.0
 11
5.652451
 21
9.319655
 31
0.0
 13
4.125123
 23
9.063655
 33
0.0
 14
4.814123
 24
9.575655
 34
0.0
 50
90.0
  3
STDI
  0
DIMENSION
  8
DIM
  2
*D32
 10
5.652451
 20
7.252655
 30
0.0
 11
5.652451
 21
7.065655
 31
0.0
 13
4.725123
 23
6.878655
 33
0.0
 14
4.125123
 24
7.252655
 34
0.0
 50
90.0
  3
STDI
  0
DIMENSION
  8
DIM
  2
*D2
 10
14.393331
 20
10.018318
 30
0.0
 11
13.408831
 21
10.018318
 31
0.0
 12
-0.81349
 22
-0.07016
 32
0.0
 13
12.424331
 23
9.201655
 33
0.0
 14
14.393331
 24
9.201655
 34
0.0
  3
STD
  0
DIMENSION
  8
DIM
  2
*D3
 10
14.993331
 20
5.672674
 30
0.0
 11
13.608599
 21
5.672674
 31
0.0
 12
-0.81349
 22
-0.07016
 32
0.0
 70
   128
 13
11.824331
 23
6.288655
 33
0.0
 14
14.993331
 24
6.288655
 34
0.0
  3
STD
  0
DIMENSION
  8
DIM
  2
*D24
 10
15.818321
 20
7.272655
 30
0.0
 11
15.818321
 21
8.237155
 31
0.0
 12
0.200143
 22
0.0
 32
0.0
 13
14.393331
 23
9.201655
 33
0.0
 14
14.393331
 24
7.272655
 34
0.0
 50
90.0
  3
STD
  0
DIMENSION
  8
DIM
  2
*D23
 10
15.818321
 20
6.288655
 30
0.0
 11
15.818321
 21
6.780655
 31
0.0
 12
0.200143
 22
0.0
 32
0.0
 13
14.393331
 23
7.272655
 33
0.0
 14
14.993331
 24
6.288655
 34
0.0
 50
90.0
  3
STDI
  0
DIMENSION
  8
DIM
  2
*D21
 10
15.818321
 20
4.457655
 30
0.0
 11
15.818321
 21
5.373155
 31
0.0
 12
0.200143
 22
0.0
 32
0.0
 13
14.993331
 23
6.288655
 33
0.0
 14
14.993331
 24
4.457655
 34
0.0
 50
90.0
  3
STD
  0
DIMENSION
  8
DIM
  2
*D22
 10
15.818321
 20
3.335655
 30
0.0
 11
15.818321
 21
3.896655
 31
0.0
 12
0.200143
 22
0.0
 32
0.0
 13
14.993331
 23
4.457655
 33
0.0
 14
14.993331
 24
3.335655
 34
0.0
 50
90.0
  3
STDI
  0
DIMENSION
  8
DIM
  2
*D4
 10
7.324163
 20
10.018318
 30
0.0
 11
6.326312
 21
10.018318
 31
0.0
 12
-1.116784
 22
-0.07016
 32
0.0
 13
7.915163
 23
9.575655
 33
0.0
 14
7.324163
 24
9.405996
 34
0.0
  3
STD
  0
DIMENSION
  8
DIM
  2
*D12
 10
8.899163
 20
1.969654
 30
0.0
 11
8.407163
 21
1.969654
 31
0.0
 12
-1.116784
 22
-0.07016
 32
0.0
 13
7.915163
 23
2.488655
 33
0.0
 14
8.899163
 24
2.82026
 34
0.0
  3
STDI
  0
DIMENSION
  8
DIM
  2
*D17
 10
1.342123
 20
4.570045
 30
0.0
 11
2.791167
 21
4.570045
 31
0.0
 12
-0.070184
 22
0.0
 32
0.0
 70
   128
 13
4.939123
 23
4.703269
 33
0.0
 14
1.342123
 24
4.703269
 34
0.0
  3
STD
  0
DIMENSION
  8
DIM
  2
*D35
 10
11.755331
 20
10.948678
 30
0.0
 11
13.408831
 21
10.948678
 31
0.0
 13
15.062331
 23
9.260655
 33
0.0
 14
11.755331
 24
9.260655
 34
0.0
  3
STD
  0
DIMENSION
  8
DIM
  2
*D36
 10
11.440331
 20
10.948678
 30
0.0
 11
10.442479
 21
10.948678
 31
0.0
 13
11.755331
 23
9.260655
 33
0.0
 14
11.440331
 24
9.280655
 34
0.0
  3
STD
  0
DIMENSION
  8
DIM
  2
*D25
 10
10.381455
 20
9.575655
 30
0.0
 11
10.381455
 21
9.418155
 31
0.0
 13
11.755331
 23
9.260655
 33
0.0
 14
11.735331
 24
9.575655
 34
0.0
 50
90.0
  3
STDI
  0
DIMENSION
  8
DIM
  2
*D26
 10
10.381455
 20
2.803655
 30
0.0
 11
10.381455
 21
6.216839
 31
0.0
 70
   128
 13
11.755331
 23
9.260655
 33
0.0
 14
11.755331
 24
2.803655
 34
0.0
 50
90.0
  3
STD
  0
DIMENSION
  8
DIM
  2
*D5
 10
1.801623
 20
1.969654
 30
0.0
 11
3.140623
 21
1.969654
 31
0.0
 12
-0.663078
 22
-0.07016
 32
0.0
 13
4.479623
 23
2.752655
 33
0.0
 14
1.801623
 24
2.752655
 34
0.0
  3
STD
  0
DIMENSION
  8
DIM
  2
*D6
 10
11.556331
 20
8.08431
 30
0.0
 11
13.608599
 21
8.08431
 31
0.0
 12
-0.81349
 22
-0.07016
 32
0.0
 70
   128
 13
15.261331
 23
8.254848
 33
0.0
 14
11.556331
 24
8.254848
 34
0.0
  3
STD
  0
DIMENSION
  8
DIM
  2
*D7
 10
7.324163
 20
6.500069
 30
0.0
 11
6.326312
 21
6.500069
 31
0.0
 12
-1.116784
 22
-0.07016
 32
0.0
 13
7.643163
 23
6.760655
 33
0.0
 14
7.324163
 24
6.566574
 34
0.0
  3
STD
  0
DIMENSION
  8
DIM
  2
*D8
 10
8.899163
 20
7.837036
 30
0.0
 11
9.922405
 21
7.837036
 31
0.0
 12
-1.116784
 22
-0.07016
 32
0.0
 13
8.624163
 23
7.390655
 33
0.0
 14
8.899163
 24
7.693681
 34
0.0
  3
STD
  0
DIMENSION
  8
DIM
  2
*D9
 10
8.624163
 20
5.846936
 30
0.0
 11
9.622015
 21
5.846936
 31
0.0
 12
-1.116784
 22
-0.07016
 32
0.0
 13
7.643163
 23
5.441655
 33
0.0
 14
8.624163
 24
6.170655
 34
0.0
  3
STD
  0
DIMENSION
  8
DIM
  2
*D10
 10
7.469163
 20
4.983821
 30
0.0
 11
6.458616
 21
4.983821
 31
0.0
 12
-1.116784
 22
-0.07016
 32
0.0
 13
8.827163
 23
5.095767
 33
0.0
 14
7.469163
 24
5.095767
 34
0.0
  3
STD
  0
DIMENSION
  8
DIM
  2
*D11
 10
12.834714
 20
9.459655
 30
0.0
 11
12.834714
 21
6.792155
 31
0.0
 12
-0.81349
 22
-0.07016
 32
0.0
 13
13.034482
 23
4.124655
 33
0.0
 14
13.034482
 24
9.459655
 34
0.0
 50
90.0
  3
STD
  0
DIMENSION
  8
DIM
  2
*D33
 10
0.690024
 20
8.945655
 30
0.0
 11
0.690024
 21
6.032155
 31
0.0
 13
1.436123
 23
3.118655
 33
0.0
 14
1.436123
 24
8.945655
 34
0.0
 50
90.0
  3
STD
  0
INSERT
  8
DIM
  2
HB
 10
0.0
 20
0.0
 30
0.0
 41
1.625
 42
1.625
 43
1.625
  0
TEXT
  8
TEXT
 10
1.783624
 20
1.069943
 30
0.0
 40
0.203
  1
%%UINSIDE VIEW OF TOP
 41
0.75
  7
TXT
 72
     1
 11
3.105662
 21
1.069943
 31
0.0
  0
TEXT
  8
TEXT
 10
11.877681
 20
1.069943
 30
0.0
 40
0.203
  1
%%UINSIDE VIEW OF BOTTOM
 41
0.75
  7
TXT
 72
     1
 11
13.428093
 21
1.069943
 31
0.0
  0
TEXT
  8
TEXT
 10
11.784637
 20
24.592655
 30
0.0
 40
0.281
  1
HH-3401-BC
 41
0.75
  7
TXT
 72
     1
 11
12.750574
 21
24.592655
 31
0.0
  0
TEXT
  8
TEXT
 10
1.806028
 20
24.592655
 30
0.0
 40
0.281
  1
HAND HELD ENCLOSURE (STYLE A)
 41
0.75
  7
TXT
 72
     1
 11
4.756528
 21
24.592655
 31
0.0
  0
POLYLINE
  8
DIM
 66
     1
 10
0.0
 20
0.0
 30
0.0
 41
0.109688
  0
VERTEX
  8
DIM
 10
12.921075
 20
3.139667
 30
0.0
  0
VERTEX
  8
DIM
 10
12.744627
 20
2.906382
 30
0.0
 41
0.0
  0
VERTEX
  8
DIM
 10
11.718422
 20
1.544901
 30
0.0
 41
0.0
  0
VERTEX
  8
DIM
 10
11.425922
 20
1.544901
 30
0.0
 41
0.0
  0
SEQEND
  8
DIM
  0
TEXT
  8
DIM
 10
9.299203
 20
1.443339
 30
0.0
 40
0.203125
  1
9V/AA BATTERY
 41
0.75
  7
TXT
 72
     2
 11
11.279672
 21
1.544901
 31
0.0
 73
     2
  0
TEXT
  8
DIM
 10
9.654672
 20
1.104797
 30
0.0
 40
0.203125
  1
COMPARTMENT
 41
0.75
  7
TXT
 72
     2
 11
11.279672
 21
1.206359
 31
0.0
 73
     2
  0
TEXT
  8
DIM
 10
2.691268
 20
20.493252
 30
0.0
 40
0.203
  1
(CUTOUT DISPLAY
 41
0.75
  7
TXT
 72
     1
 11
3.757018
 21
20.493252
 31
0.0
  0
POLYLINE
  8
DIM
 66
     1
 10
0.0
 20
0.0
 30
0.0
 41
0.109688
  0
VERTEX
  8
DIM
 10
4.157411
 20
9.113036
 30
0.0
  0
VERTEX
  8
DIM
 10
4.257079
 20
9.388031
 30
0.0
 41
0.0
  0
VERTEX
  8
DIM
 10
4.879799
 20
11.150132
 30
0.0
 41
0.0
  0
VERTEX
  8
DIM
 10
5.172299
 20
11.150132
 30
0.0
 41
0.0
  0
SEQEND
  8
DIM
  0
TEXT
  8
DIM
 10
5.318549
 20
11.048569
 30
0.0
 40
0.203125
  1
0.118 DIA. BOSS
 41
0.75
  7
TXT
 11
5.318549
 21
11.150132
 31
0.0
 73
     2
  0
TEXT
  8
DIM
 10
5.318549
 20
10.710027
 30
0.0
 40
0.203125
  1
WITH 0.039 DIA. HOLE
 41
0.75
  7
TXT
 11
5.318549
 21
10.81159
 31
0.0
 73
     2
  0
TEXT
  8
DIM
 10
5.318549
 20
10.371486
 30
0.0
 40
0.203125
  1
(4) PLACES
 41
0.75
  7
TXT
 11
5.318549
 21
10.473048
 31
0.0
 73
     2
  0
POLYLINE
  8
DIM
 66
     1
 10
0.0
 20
0.0
 30
0.0
 41
0.109688
  0
VERTEX
  8
DIM
 10
4.79815
 20
3.478968
 30
0.0
  0
VERTEX
  8
DIM
 10
4.916892
 20
3.211654
 30
0.0
 41
0.0
  0
VERTEX
  8
DIM
 10
5.558774
 20
1.567786
 30
0.0
 41
0.0
  0
VERTEX
  8
DIM
 10
5.851274
 20
1.567786
 30
0.0
 41
0.0
  0
SEQEND
  8
DIM
  0
TEXT
  8
DIM
 10
5.997524
 20
1.466223
 30
0.0
 40
0.203125
  1
0.236 DIA. BOSS
 41
0.75
  7
TXT
 11
5.997524
 21
1.567786
 31
0.0
 73
     2
  0
TEXT
  8
DIM
 10
5.997524
 20
1.127682
 30
0.0
 40
0.203125
  1
WITH 0.098 DIA. HOLE
 41
0.75
  7
TXT
 11
5.997524
 21
1.229244
 31
0.0
 73
     2
  0
TEXT
  8
DIM
 10
5.997524
 20
0.78914
 30
0.0
 40
0.203125
  1
(16) PLACES
 41
0.75
  7
TXT
 11
5.997524
 21
0.890703
 31
0.0
 73
     2
  0
TEXT
  8
DIM
 10
1.695676
 20
10.701303
 30
0.0
 40
0.203125
  1
M3 THREADED INSERT
 41
0.75
  7
TXT
 11
1.695676
 21
10.802866
 31
0.0
 73
     2
  0
TEXT
  8
DIM
 10
1.695676
 20
10.362762
 30
0.0
 40
0.203125
  1
(4) PLACES
 41
0.75
  7
TXT
 11
1.695676
 21
10.464324
 31
0.0
 73
     2
  0
TEXT
  8
TEXT
 10
0.793617
 20
23.798898
 30
0.0
 40
0.203
  1
MATERIAL: HIGH-IMPACT ABS (RATED UL94-VO)
 41
0.75
  7
TXT
  0
TEXT
  8
TEXT
 10
0.793617
 20
23.460565
 30
0.0
 40
0.203
  1
COLOR: LIGHT GRAY
 41
0.75
  7
TXT
  0
TEXT
  8
DIM
 10
3.427143
 20
20.164595
 30
0.0
 40
0.203
  1
AREA)
 41
0.75
  7
TXT
 72
     1
 11
3.757018
 21
20.164595
 31
0.0
  0
TEXT
  8
TEXT
 10
10.30361
 20
23.800955
 30
0.0
 40
0.203
  1
ALL DIMENSIONS HAVE %%P0.015 TOLERANCE
 41
0.75
  7
TXT
  0
POLYLINE
  8
DIM
 66
     1
 10
0.0
 20
0.0
 30
0.0
 41
0.109688
  0
VERTEX
  8
DIM
 10
4.474259
 20
15.593097
 30
0.0
  0
VERTEX
  8
DIM
 10
4.681123
 20
15.386304
 30
0.0
 41
0.0
  0
VERTEX
  8
DIM
 10
5.983224
 20
14.084654
 30
0.0
 41
0.0
  0
VERTEX
  8
DIM
 10
6.275724
 20
14.084654
 30
0.0
 41
0.0
  0
SEQEND
  8
DIM
  0
TEXT
  8
DIM
 10
6.421974
 20
13.983091
 30
0.0
 40
0.203125
  1
KEYPAD INSERT AREA
 41
0.75
  7
TXT
 11
6.421974
 21
14.084654
 31
0.0
 73
     2
  0
TEXT
  8
DIM
 10
6.421974
 20
13.644549
 30
0.0
 40
0.203125
  1
RECESSED 0.040
 41
0.75
  7
TXT
 11
6.421974
 21
13.746112
 31
0.0
 73
     2
  0
TEXT
  8
TEXT
 10
10.30361
 20
23.472298
 30
0.0
 40
0.203
  1
FOUR (4) M3 x 1.173 LG. SCREWS
 41
0.75
  7
TXT
  0
TEXT
  8
TEXT
 10
10.511702
 20
23.133965
 30
0.0
 40
0.203
  1
SUPPLIED FOR ASSEMBLY
 41
0.75
  7
TXT
  0
POLYLINE
  8
DIM
 66
     1
 10
0.0
 20
0.0
 30
0.0
 41
0.109688
  0
VERTEX
  8
DIM
 10
1.472998
 20
9.348021
 30
0.0
  0
VERTEX
  8
DIM
 10
1.422024
 20
9.636045
 30
0.0
 41
0.0
  0
VERTEX
  8
DIM
 10
1.231576
 20
10.802866
 30
0.0
 41
0.0
  0
VERTEX
  8
DIM
 10
1.555524
 20
10.802866
 30
0.0
 41
0.0
  0
SEQEND
  8
DIM
  0
DIMENSION
  8
DIM
  2
*D18
 10
3.581533
 20
2.658655
 30
0.0
 11
3.581533
 21
5.790308
 31
0.0
 12
-0.070184
 22
0.0
 32
0.0
 70
   128
 13
3.74282
 23
9.405655
 33
0.0
 14
3.74282
 24
2.658655
 34
0.0
 50
90.0
  3
STDI
  0
INSERT
  8
OBJECT
  2
*X19
 10
-0.205226
 20
0.0
 30
0.0
1001
ACAD
1000
HATCH
1002
{
1070
    16
1000
ANSI31
1040
1.0
1040
1.570796
1002
}
  0
LINE
  8
OBJECT
 10
1.821232
 20
12.908839
 30
0.0
 11
1.884709
 21
13.268839
 31
0.0
  0
LINE
  8
OBJECT
 10
1.836463
 20
12.908839
 30
0.0
 11
1.929307
 21
13.435383
 31
0.0
  0
LINE
  8
OBJECT
 10
5.788694
 20
12.908839
 30
0.0
 11
5.725217
 21
13.268839
 31
0.0
  0
LINE
  8
OBJECT
 10
5.773463
 20
12.908839
 30
0.0
 11
5.680619
 21
13.435383
 31
0.0
  0
LINE
  8
OBJECT
 10
2.611963
 20
12.359839
 30
0.0
 11
4.997963
 21
12.359839
 31
0.0
  0
LINE
  8
OBJECT
 10
2.601963
 20
12.369839
 30
0.0
 11
5.007963
 21
12.369839
 31
0.0
  0
LINE
  8
OBJECT
 10
5.441858
 20
11.924839
 30
0.0
 11
2.168068
 21
11.924839
 31
0.0
  0
LINE
  8
OBJECT
 10
5.773463
 20
12.869839
 30
0.0
 11
1.836463
 21
12.869839
 31
0.0
  0
LINE
  8
OBJECT
 10
5.773463
 20
12.908839
 30
0.0
 11
1.836463
 21
12.908839
 31
0.0
  0
ARC
  8
OBJECT
 10
2.168068
 20
12.239839
 30
0.0
 40
0.315
 50
181.5
 51
270.0
  0
ARC
  8
OBJECT
 10
2.168068
 20
12.239839
 30
0.0
 40
0.325
 50
181.5
 51
270.0
  0
LINE
  8
OBJECT
 10
2.249463
 20
11.924839
 30
0.0
 11
2.249463
 21
11.914839
 31
0.0
  0
LINE
  8
OBJECT
 10
2.168068
 20
11.914839
 30
0.0
 11
2.249463
 21
11.914839
 31
0.0
  0
LINE
  8
OBJECT
 10
1.836463
 20
12.869839
 30
0.0
 11
1.82646
 21
12.869839
 31
0.0
  0
LINE
  8
OBJECT
 10
1.836463
 20
12.908839
 30
0.0
 11
1.821232
 21
12.908839
 31
0.0
  0
LINE
  8
OBJECT
 10
1.82646
 20
12.869839
 30
0.0
 11
1.84318
 21
12.231331
 31
0.0
  0
LINE
  8
OBJECT
 10
1.875463
 20
12.908839
 30
0.0
 11
1.875463
 21
12.869839
 31
0.0
  0
LINE
  8
OBJECT
 10
1.836463
 20
12.869839
 30
0.0
 11
1.853176
 21
12.231593
 31
0.0
  0
LINE
  8
OBJECT
 10
2.611963
 20
12.359839
 30
0.0
 11
2.611963
 21
11.924839
 31
0.0
  0
LINE
  8
OBJECT
 10
2.601963
 20
12.369839
 30
0.0
 11
2.601963
 21
11.924839
 31
0.0
  0
LINE
  8
OBJECT
 10
2.663963
 20
11.924839
 30
0.0
 11
2.663963
 21
11.889839
 31
0.0
  0
LINE
  8
OBJECT
 10
2.901963
 20
11.889839
 30
0.0
 11
2.663963
 21
11.889839
 31
0.0
  0
LINE
  8
OBJECT
 10
2.901963
 20
11.924839
 30
0.0
 11
2.901963
 21
11.889839
 31
0.0
  0
ARC
  8
OBJECT
 10
5.441858
 20
12.239839
 30
0.0
 40
0.325
 50
270.0
 51
358.5
  0
ARC
  8
OBJECT
 10
5.441858
 20
12.239839
 30
0.0
 40
0.315
 50
270.0
 51
358.5
  0
LINE
  8
OBJECT
 10
4.997963
 20
12.359839
 30
0.0
 11
4.997963
 21
11.924839
 31
0.0
  0
LINE
  8
OBJECT
 10
5.007963
 20
12.369839
 30
0.0
 11
5.007963
 21
11.924839
 31
0.0
  0
LINE
  8
OBJECT
 10
4.707963
 20
11.889839
 30
0.0
 11
4.945963
 21
11.889839
 31
0.0
  0
LINE
  8
OBJECT
 10
4.707963
 20
11.924839
 30
0.0
 11
4.707963
 21
11.889839
 31
0.0
  0
LINE
  8
OBJECT
 10
4.945963
 20
11.924839
 30
0.0
 11
4.945963
 21
11.889839
 31
0.0
  0
LINE
  8
OBJECT
 10
5.441858
 20
11.914839
 30
0.0
 11
5.360463
 21
11.914839
 31
0.0
  0
LINE
  8
OBJECT
 10
5.360463
 20
11.924839
 30
0.0
 11
5.360463
 21
11.914839
 31
0.0
  0
LINE
  8
OBJECT
 10
5.773463
 20
12.908839
 30
0.0
 11
5.788694
 21
12.908839
 31
0.0
  0
LINE
  8
OBJECT
 10
5.773463
 20
12.869839
 30
0.0
 11
5.783467
 21
12.869839
 31
0.0
  0
LINE
  8
OBJECT
 10
5.783467
 20
12.869839
 30
0.0
 11
5.766747
 21
12.231331
 31
0.0
  0
LINE
  8
OBJECT
 10
5.734463
 20
12.908839
 30
0.0
 11
5.734463
 21
12.869839
 31
0.0
  0
LINE
  8
OBJECT
 10
5.773463
 20
12.869839
 30
0.0
 11
5.75675
 21
12.231593
 31
0.0
  0
LINE
  8
OBJECT
 10
5.603804
 20
13.499839
 30
0.0
 11
2.006122
 21
13.499839
 31
0.0
  0
ARC
  8
OBJECT
 10
2.006122
 20
13.421839
 30
0.0
 40
0.078
 50
90.0
 51
170.0
  0
LINE
  8
OBJECT
 10
1.884709
 20
13.268839
 30
0.0
 11
1.899482
 21
13.266234
 31
0.0
  0
LINE
  8
OBJECT
 10
5.725217
 20
13.268839
 30
0.0
 11
5.710445
 21
13.266234
 31
0.0
  0
ARC
  8
OBJECT
 10
5.603804
 20
13.421839
 30
0.0
 40
0.078
 50
10.0
 51
90.0
  0
LINE
  8
OBJECT
 10
9.495545
 20
21.103308
 30
0.0
 11
9.495545
 21
20.865308
 31
0.0
  0
LINE
  8
OBJECT
 10
9.495545
 20
20.865308
 30
0.0
 11
9.460545
 21
20.865308
 31
0.0
  0
LINE
  8
OBJECT
 10
9.495545
 20
21.103308
 30
0.0
 11
9.460545
 21
21.103308
 31
0.0
  0
POLYLINE
  8
DIM
 66
     1
 10
0.0
 20
0.0
 30
0.0
 41
0.109688
  0
VERTEX
  8
DIM
 10
12.645474
 20
15.01468
 30
0.0
  0
VERTEX
  8
DIM
 10
12.487535
 20
14.768486
 30
0.0
 41
0.0
  0
VERTEX
  8
DIM
 10
12.040602
 20
14.071815
 30
0.0
 41
0.0
  0
VERTEX
  8
DIM
 10
11.748102
 20
14.071815
 30
0.0
 41
0.0
  0
SEQEND
  8
DIM
  0
TEXT
  8
DIM
 10
10.230758
 20
13.970253
 30
0.0
 40
0.203125
  1
REMOVABLE
 41
0.75
  7
TXT
 72
     2
 11
11.601852
 21
14.071815
 31
0.0
 73
     2
  0
TEXT
  8
DIM
 10
9.621383
 20
13.631711
 30
0.0
 40
0.203125
  1
BATTERY COVER
 41
0.75
  7
TXT
 72
     2
 11
11.601852
 21
13.733274
 31
0.0
 73
     2
  0
DIMENSION
  8
DIM
  2
*D20
 10
15.818321
 20
9.575655
 30
0.0
 11
15.818321
 21
9.388655
 31
0.0
 12
0.200143
 22
0.0
 32
0.0
 13
14.393331
 23
9.201655
 33
0.0
 14
15.082331
 24
9.575655
 34
0.0
 50
90.0
  3
STDI
  0
DIMENSION
  8
DIM
  2
*D34
 10
12.019831
 20
10.496108
 30
0.0
 11
13.408831
 21
10.496108
 31
0.0
 13
14.797831
 23
9.350655
 33
0.0
 14
12.019831
 24
9.350655
 34
0.0
  3
STDI
  0
DIMENSION
  8
DIM
  2
*D27
 10
10.939512
 20
3.067655
 30
0.0
 11
10.939512
 21
6.786279
 31
0.0
 70
   128
 13
11.665331
 23
8.996655
 33
0.0
 14
11.665331
 24
3.067655
 34
0.0
 50
90.0
  3
STDI
  0
TEXT
  8
TEXT
 10
9.306495
 20
12.479143
 30
0.0
 40
0.203
  1
NOTE: MOUNTING BOSSES USE
 41
0.75
  7
TXT
  0
TEXT
  8
TEXT
 10
9.306495
 20
12.14081
 30
0.0
 40
0.203
  1
     #4 x 1/4 LG. SCREWS
 41
0.75
  7
TXT
  0
TEXT
  8
TEXT
 10
9.306495
 20
11.802476
 30
0.0
 40
0.203
  1
     (NOT SUPPLIED)
 41
0.75
  7
TXT
  0
LINE
  8
OBJECT
 10
7.416163
 20
8.886655
 30
0.0
 11
7.447163
 21
8.886655
 31
0.0
  0
LINE
  8
OBJECT
 10
7.416163
 20
7.508655
 30
0.0
 11
7.447163
 21
7.508655
 31
0.0
  0
LINE
  8
OBJECT
 10
7.324163
 20
2.740655
 30
0.0
 11
7.364163
 21
2.740655
 31
0.0
  0
LINE
  8
OBJECT
 10
7.324163
 20
7.294655
 30
0.0
 11
7.364163
 21
7.294655
 31
0.0
  0
LINE
  8
OBJECT
 10
7.364163
 20
7.294655
 30
0.0
 11
7.364163
 21
2.740655
 31
0.0
  0
LINE
  8
OBJECT
 10
7.324163
 20
7.414655
 30
0.0
 11
7.364163
 21
7.414655
 31
0.0
  0
LINE
  8
OBJECT
 10
7.324163
 20
8.980655
 30
0.0
 11
7.364163
 21
8.980655
 31
0.0
  0
LINE
  8
OBJECT
 10
7.364163
 20
8.980655
 30
0.0
 11
7.364163
 21
7.414655
 31
0.0
  0
LINE
  8
OBJECT
 10
7.416163
 20
8.886655
 30
0.0
 11
7.416163
 21
7.508655
 31
0.0
  0
LINE
  8
OBJECT
 10
7.364163
 20
8.949655
 30
0.0
 11
7.416163
 21
8.886655
 31
0.0
  0
LINE
  8
OBJECT
 10
7.364163
 20
7.445655
 30
0.0
 11
7.416163
 21
7.508655
 31
0.0
  0
INSERT
  8
OBJECT
  2
*X41
 10
0.0
 20
0.0
 30
0.0
1001
ACAD
1000
HATCH
1002
{
1070
    16
1000
ANSI31
1040
1.0
1040
0.0
1002
}
  0
LINE
  8
OBJECT
 10
8.934163
 20
8.857655
 30
0.0
 11
8.934163
 21
8.619655
 31
0.0
  0
LINE
  8
OBJECT
 10
8.934163
 20
8.619655
 30
0.0
 11
8.899163
 21
8.619655
 31
0.0
  0
LINE
  8
OBJECT
 10
8.934163
 20
8.857655
 30
0.0
 11
8.899163
 21
8.857655
 31
0.0
  0
LINE
  8
OBJECT
 10
8.934163
 20
8.815655
 30
0.0
 11
8.899163
 21
8.815655
 31
0.0
  0
ENDSEC
  0
EOF
