  0
SECTION
  2
HEADER
  9
$ACADVER
  1
AC1015
  9
$ACADMAINTVER
 70
     6
  9
$DWGCODEPAGE
  3
ANSI_1252
  9
$INSBASE
 10
0.0
 20
0.0
 30
0.0
  9
$EXTMIN
 10
-0.0035398229915558
 20
-0.4863426977695156
 30
-0.0000000349181948
  9
$EXTMAX
 10
30.36207178938077
 20
46.50361655827052
 30
0.0000000814935746
  9
$LIMMIN
 10
0.0
 20
0.0
  9
$LIMMAX
 10
58.0
 20
48.0
  9
$ORTHOMODE
 70
     0
  9
$REGENMODE
 70
     1
  9
$FILLMODE
 70
     1
  9
$QTEXTMODE
 70
     0
  9
$MIRRTEXT
 70
     0
  9
$LTSCALE
 40
1.0
  9
$ATTMODE
 70
     1
  9
$TEXTSIZE
 40
0.5
  9
$TRACEWID
 40
0.05
  9
$TEXTSTYLE
  7
TXT
  9
$CLAYER
  8
OBJECT
  9
$CELTYPE
  6
ByLayer
  9
$CECOLOR
 62
   256
  9
$CELTSCALE
 40
1.0
  9
$DISPSILH
 70
     0
  9
$DIMSCALE
 40
3.0
  9
$DIMASZ
 40
0.18
  9
$DIMEXO
 40
0.063
  9
$DIMDLI
 40
0.281
  9
$DIMRND
 40
0.0
  9
$DIMDLE
 40
0.0
  9
$DIMEXE
 40
0.093
  9
$DIMTP
 40
0.0
  9
$DIMTM
 40
0.0
  9
$DIMTXT
 40
0.125
  9
$DIMCEN
 40
0.09
  9
$DIMTSZ
 40
0.0
  9
$DIMTOL
 70
     0
  9
$DIMLIM
 70
     0
  9
$DIMTIH
 70
     1
  9
$DIMTOH
 70
     1
  9
$DIMSE1
 70
     0
  9
$DIMSE2
 70
     0
  9
$DIMTAD
 70
     0
  9
$DIMZIN
 70
     0
  9
$DIMBLK
  1

  9
$DIMASO
 70
     1
  9
$DIMSHO
 70
     1
  9
$DIMPOST
  1

  9
$DIMAPOST
  1
ction
  9
$DIMALT
 70
     0
  9
$DIMALTD
 70
     2
  9
$DIMALTF
 40
25.4
  9
$DIMLFAC
 40
1.0
  9
$DIMTOFL
 70
     0
  9
$DIMTVP
 40
0.0
  9
$DIMTIX
 70
     0
  9
$DIMSOXD
 70
     0
  9
$DIMSAH
 70
     0
  9
$DIMBLK1
  1

  9
$DIMBLK2
  1

  9
$DIMSTYLE
  2
STD
  9
$DIMCLRD
 70
     0
  9
$DIMCLRE
 70
     0
  9
$DIMCLRT
 70
     0
  9
$DIMTFAC
 40
1.0
  9
$DIMGAP
 40
0.09
  9
$DIMJUST
 70
     0
  9
$DIMSD1
 70
     0
  9
$DIMSD2
 70
     0
  9
$DIMTOLJ
 70
     1
  9
$DIMTZIN
 70
     0
  9
$DIMALTZ
 70
     0
  9
$DIMALTTZ
 70
     0
  9
$DIMUPT
 70
     0
  9
$DIMDEC
 70
     3
  9
$DIMTDEC
 70
     3
  9
$DIMALTU
 70
     2
  9
$DIMALTTD
 70
     2
  9
$DIMTXSTY
  7
TXT
  9
$DIMAUNIT
 70
     0
  9
$DIMADEC
 70
     0
  9
$DIMALTRND
 40
0.0
  9
$DIMAZIN
 70
     0
  9
$DIMDSEP
 70
    46
  9
$DIMATFIT
 70
     3
  9
$DIMFRAC
 70
     0
  9
$DIMLDRBLK
  1

  9
$DIMLUNIT
 70
     2
  9
$DIMLWD
 70
    -2
  9
$DIMLWE
 70
    -2
  9
$DIMTMOVE
 70
     0
  9
$LUNITS
 70
     2
  9
$LUPREC
 70
     3
  9
$SKETCHINC
 40
0.1
  9
$FILLETRAD
 40
0.0
  9
$AUNITS
 70
     0
  9
$AUPREC
 70
     0
  9
$MENU
  1
acad
  9
$ELEVATION
 40
0.0
  9
$PELEVATION
 40
0.0
  9
$THICKNESS
 40
0.0
  9
$LIMCHECK
 70
     0
  9
$CHAMFERA
 40
0.0
  9
$CHAMFERB
 40
0.0
  9
$CHAMFERC
 40
0.0
  9
$CHAMFERD
 40
0.0
  9
$SKPOLY
 70
     0
  9
$TDCREATE
 40
2449622.398179861
  9
$TDUCREATE
 40
2449622.564846527
  9
$TDUPDATE
 40
2455042.409314050
  9
$TDUUPDATE
 40
2455042.575980717
  9
$TDINDWG
 40
0.0114109954
  9
$TDUSRTIMER
 40
0.0114108102
  9
$USRTIMER
 70
     1
  9
$ANGBASE
 50
0.0
  9
$ANGDIR
 70
     0
  9
$PDMODE
 70
     0
  9
$PDSIZE
 40
0.0
  9
$PLINEWID
 40
0.0
  9
$SPLFRAME
 70
     0
  9
$SPLINETYPE
 70
     6
  9
$SPLINESEGS
 70
     8
  9
$HANDSEED
  5
766
  9
$SURFTAB1
 70
     6
  9
$SURFTAB2
 70
     6
  9
$SURFTYPE
 70
     6
  9
$SURFU
 70
     6
  9
$SURFV
 70
     6
  9
$UCSBASE
  2

  9
$UCSNAME
  2

  9
$UCSORG
 10
0.0
 20
0.0
 30
0.0
  9
$UCSXDIR
 10
1.0
 20
0.0
 30
0.0
  9
$UCSYDIR
 10
0.0
 20
1.0
 30
0.0
  9
$UCSORTHOREF
  2

  9
$UCSORTHOVIEW
 70
     0
  9
$UCSORGTOP
 10
0.0
 20
0.0
 30
0.0
  9
$UCSORGBOTTOM
 10
0.0
 20
0.0
 30
0.0
  9
$UCSORGLEFT
 10
0.0
 20
0.0
 30
0.0
  9
$UCSORGRIGHT
 10
0.0
 20
0.0
 30
0.0
  9
$UCSORGFRONT
 10
0.0
 20
0.0
 30
0.0
  9
$UCSORGBACK
 10
0.0
 20
0.0
 30
0.0
  9
$PUCSBASE
  2

  9
$PUCSNAME
  2

  9
$PUCSORG
 10
0.0
 20
0.0
 30
0.0
  9
$PUCSXDIR
 10
1.0
 20
0.0
 30
0.0
  9
$PUCSYDIR
 10
0.0
 20
1.0
 30
0.0
  9
$PUCSORTHOREF
  2

  9
$PUCSORTHOVIEW
 70
     0
  9
$PUCSORGTOP
 10
0.0
 20
0.0
 30
0.0
  9
$PUCSORGBOTTOM
 10
0.0
 20
0.0
 30
0.0
  9
$PUCSORGLEFT
 10
0.0
 20
0.0
 30
0.0
  9
$PUCSORGRIGHT
 10
0.0
 20
0.0
 30
0.0
  9
$PUCSORGFRONT
 10
0.0
 20
0.0
 30
0.0
  9
$PUCSORGBACK
 10
0.0
 20
0.0
 30
0.0
  9
$USERI1
 70
     0
  9
$USERI2
 70
     0
  9
$USERI3
 70
     0
  9
$USERI4
 70
     0
  9
$USERI5
 70
     0
  9
$USERR1
 40
0.0
  9
$USERR2
 40
0.0
  9
$USERR3
 40
0.0
  9
$USERR4
 40
0.0
  9
$USERR5
 40
0.0
  9
$WORLDVIEW
 70
     1
  9
$SHADEDGE
 70
     3
  9
$SHADEDIF
 70
    70
  9
$TILEMODE
 70
     1
  9
$MAXACTVP
 70
    16
  9
$PINSBASE
 10
0.0
 20
0.0
 30
0.0
  9
$PLIMCHECK
 70
     0
  9
$PEXTMIN
 10
1.000000000000000E+20
 20
1.000000000000000E+20
 30
1.000000000000000E+20
  9
$PEXTMAX
 10
-1.000000000000000E+20
 20
-1.000000000000000E+20
 30
-1.000000000000000E+20
  9
$PLIMMIN
 10
0.0
 20
0.0
  9
$PLIMMAX
 10
12.0
 20
9.0
  9
$UNITMODE
 70
     0
  9
$VISRETAIN
 70
     0
  9
$PLINEGEN
 70
     0
  9
$PSLTSCALE
 70
     1
  9
$TREEDEPTH
 70
  3020
  9
$CMLSTYLE
  2
Standard
  9
$CMLJUST
 70
     0
  9
$CMLSCALE
 40
1.0
  9
$PROXYGRAPHICS
 70
     1
  9
$MEASUREMENT
 70
     0
  9
$CELWEIGHT
370
    -1
  9
$ENDCAPS
280
     0
  9
$JOINSTYLE
280
     0
  9
$LWDISPLAY
290
     0
  9
$INSUNITS
 70
     0
  9
$HYPERLINKBASE
  1

  9
$STYLESHEET
  1
monochrome.ctb
  9
$XEDIT
290
     1
  9
$CEPSNTYPE
380
     0
  9
$PSTYLEMODE
290
     1
  9
$FINGERPRINTGUID
  2
{197203B0-E2AB-4716-AEDD-5139A450F4A9}
  9
$VERSIONGUID
  2
{D91EA4DA-304C-45E1-A181-7B821E886CE1}
  9
$EXTNAMES
290
     1
  9
$PSVPSCALE
 40
0.0
  9
$OLESTARTUP
290
     0
  0
ENDSEC
  0
SECTION
  2
CLASSES
  0
CLASS
  1
ACDBDICTIONARYWDFLT
  2
AcDbDictionaryWithDefault
  3
AutoCAD 2000
 90
        0
280
     0
281
     0
  0
CLASS
  1
ACDBPLACEHOLDER
  2
AcDbPlaceHolder
  3
AutoCAD 2000
 90
        0
280
     0
281
     0
  0
CLASS
  1
LAYOUT
  2
AcDbLayout
  3
AutoCAD 2000
 90
        0
280
     0
281
     0
  0
ENDSEC
  0
SECTION
  2
TABLES
  0
TABLE
  2
VPORT
  5
8
330
0
100
AcDbSymbolTable
 70
     4
  0
VPORT
  5
765
330
8
100
AcDbSymbolTableRecord
100
AcDbViewportTableRecord
  2
*Active
 70
     0
 10
0.0
 20
0.0
 11
1.0
 21
1.0
 12
15.17926598319461
 22
23.00863693025049
 13
0.0
 23
0.0
 14
2.0
 24
2.0
 15
0.0
 25
0.0
 16
0.0
 26
0.0
 36
1.0
 17
0.0
 27
0.0
 37
0.0
 40
47.45985884860043
 41
1.824707846410684
 42
50.0
 43
0.0
 44
0.0
 50
0.0
 51
0.0
 71
     0
 72
   100
 73
     1
 74
     0
 75
     0
 76
     0
 77
     0
 78
     1
281
     0
 65
     1
110
0.0
120
0.0
130
0.0
111
1.0
121
0.0
131
0.0
112
0.0
122
1.0
132
0.0
 79
     0
146
0.0
  0
ENDTAB
  0
TABLE
  2
LTYPE
  5
5
330
0
100
AcDbSymbolTable
 70
     4
  0
LTYPE
  5
13
330
5
100
AcDbSymbolTableRecord
100
AcDbLinetypeTableRecord
  2
ByBlock
 70
     0
  3

 72
    65
 73
     0
 40
0.0
  0
LTYPE
  5
14
330
5
100
AcDbSymbolTableRecord
100
AcDbLinetypeTableRecord
  2
ByLayer
 70
     0
  3

 72
    65
 73
     0
 40
0.0
  0
LTYPE
  5
15
330
5
100
AcDbSymbolTableRecord
100
AcDbLinetypeTableRecord
  2
CONTINUOUS
 70
     0
  3
Solid line
 72
    65
 73
     0
 40
0.0
  0
LTYPE
  5
25
330
5
100
AcDbSymbolTableRecord
100
AcDbLinetypeTableRecord
  2
HIDDEN
 70
     0
  3
_ _ _ _ _ _ _ _ _ _ _ _ _ _ _ _ _ _ _ _ _ _ _
 72
    65
 73
     2
 40
0.375
 49
0.25
 74
     0
 49
-0.125
 74
     0
  0
LTYPE
  5
26
330
5
100
AcDbSymbolTableRecord
100
AcDbLinetypeTableRecord
  2
PHANTOM
 70
     0
  3
_____ _ _ _____ _ _ _____ _ _ _____ _ _ ____
 72
    65
 73
     6
 40
2.5
 49
1.25
 74
     0
 49
-0.25
 74
     0
 49
0.25
 74
     0
 49
-0.25
 74
     0
 49
0.25
 74
     0
 49
-0.25
 74
     0
  0
LTYPE
  5
27
330
5
100
AcDbSymbolTableRecord
100
AcDbLinetypeTableRecord
  2
CENTER
 70
     0
  3
____ _ ____ _ ____ _ ____ _ ____ _ ____ _ ____
 72
    65
 73
     4
 40
2.0
 49
1.25
 74
     0
 49
-0.25
 74
     0
 49
0.25
 74
     0
 49
-0.25
 74
     0
  0
ENDTAB
  0
TABLE
  2
LAYER
  5
2
330
0
100
AcDbSymbolTable
 70
     9
  0
LAYER
  5
10
330
2
100
AcDbSymbolTableRecord
100
AcDbLayerTableRecord
  2
0
 70
     0
 62
     7
  6
CONTINUOUS
370
    -3
390
F
  0
LAYER
  5
22
330
2
100
AcDbSymbolTableRecord
100
AcDbLayerTableRecord
  2
OBJECT
 70
     0
 62
     7
  6
CONTINUOUS
370
    -3
390
F
  0
LAYER
  5
28
330
2
100
AcDbSymbolTableRecord
100
AcDbLayerTableRecord
  2
DIM
 70
     0
 62
     7
  6
CONTINUOUS
370
    -3
390
F
  0
LAYER
  5
29
330
2
100
AcDbSymbolTableRecord
100
AcDbLayerTableRecord
  2
HIDDEN
 70
     0
 62
     7
  6
HIDDEN
370
    -3
390
F
  0
LAYER
  5
2A
330
2
100
AcDbSymbolTableRecord
100
AcDbLayerTableRecord
  2
BEND
 70
     0
 62
     7
  6
PHANTOM
370
    -3
390
F
  0
LAYER
  5
2B
330
2
100
AcDbSymbolTableRecord
100
AcDbLayerTableRecord
  2
TEXT
 70
     0
 62
     7
  6
CONTINUOUS
370
    -3
390
F
  0
LAYER
  5
2C
330
2
100
AcDbSymbolTableRecord
100
AcDbLayerTableRecord
  2
TITLE
 70
     0
 62
     7
  6
CONTINUOUS
370
    -3
390
F
  0
LAYER
  5
2D
330
2
100
AcDbSymbolTableRecord
100
AcDbLayerTableRecord
  2
CENTER
 70
     0
 62
     7
  6
CENTER
370
    -3
390
F
  0
LAYER
  5
2E
330
2
100
AcDbSymbolTableRecord
100
AcDbLayerTableRecord
  2
DEFPOINTS
 70
     0
 62
     7
  6
CONTINUOUS
290
     0
370
    -3
390
F
  0
ENDTAB
  0
TABLE
  2
STYLE
  5
3
330
0
100
AcDbSymbolTable
 70
     2
  0
STYLE
  5
11
330
3
100
AcDbSymbolTableRecord
100
AcDbTextStyleTableRecord
  2
STANDARD
 70
     0
 40
0.0
 41
1.0
 50
0.0
 71
     0
 42
0.2
  3
txt
  4

  0
STYLE
  5
23
330
3
100
AcDbSymbolTableRecord
100
AcDbTextStyleTableRecord
  2
TXT
 70
     0
 40
0.0
 41
0.75
 50
0.0
 71
     0
 42
0.5
  3
TXT.shx
  4

  0
ENDTAB
  0
TABLE
  2
VIEW
  5
6
330
0
100
AcDbSymbolTable
 70
     0
  0
ENDTAB
  0
TABLE
  2
UCS
  5
7
330
0
100
AcDbSymbolTable
 70
     0
  0
ENDTAB
  0
TABLE
  2
APPID
  5
9
330
0
100
AcDbSymbolTable
 70
     1
  0
APPID
  5
12
330
9
100
AcDbSymbolTableRecord
100
AcDbRegAppTableRecord
  2
ACAD
 70
     0
  0
ENDTAB
  0
TABLE
  2
DIMSTYLE
  5
A
330
0
100
AcDbSymbolTable
 70
     2
100
AcDbDimStyleTable
 71
     2
340
30
340
2F
  0
DIMSTYLE
105
2F
102
{ACAD_REACTORS
330
1F6
330
204
330
240
330
24E
330
2B7
330
2C5
330
2D3
330
2E1
330
2EF
330
2FD
330
30B
330
319
330
327
330
335
330
343
330
351
330
35F
330
36D
330
37B
330
389
330
397
330
3A5
330
3C1
330
3CF
330
3DD
330
3EB
330
3F9
102
}
330
A
100
AcDbSymbolTableRecord
100
AcDbDimStyleTableRecord
  2
STD
 70
     0
  4
ction
 40
3.0
 42
0.063
 43
0.281
 44
0.093
140
0.125
271
     3
272
     3
340
23
  0
DIMSTYLE
105
30
102
{ACAD_REACTORS
330
222
330
3B3
102
}
330
A
100
AcDbSymbolTableRecord
100
AcDbDimStyleTableRecord
  2
DIM
 70
     0
  4
ction
 40
3.0
 42
0.063
 43
0.281
 44
0.093
140
0.125
174
     1
271
     3
272
     3
340
23
  0
ENDTAB
  0
TABLE
  2
BLOCK_RECORD
  5
1
330
0
100
AcDbSymbolTable
 70
    60
  0
BLOCK_RECORD
  5
1E
330
1
100
AcDbSymbolTableRecord
100
AcDbBlockTableRecord
  2
*Model_Space
340
21
  0
BLOCK_RECORD
  5
1A
330
1
100
AcDbSymbolTableRecord
100
AcDbBlockTableRecord
  2
*Paper_Space
340
1D
  0
BLOCK_RECORD
  5
32
330
1
100
AcDbSymbolTableRecord
100
AcDbBlockTableRecord
  2
ACAD
340
0
102
{BLKREFS
331
1C7
102
}
  0
BLOCK_RECORD
  5
35
330
1
100
AcDbSymbolTableRecord
100
AcDbBlockTableRecord
  2
HB
340
0
102
{BLKREFS
331
266
102
}
  0
BLOCK_RECORD
  5
1F7
330
1
100
AcDbSymbolTableRecord
100
AcDbBlockTableRecord
  2
*D31
340
0
  0
BLOCK_RECORD
  5
205
330
1
100
AcDbSymbolTableRecord
100
AcDbBlockTableRecord
  2
*D32
340
0
  0
BLOCK_RECORD
  5
223
330
1
100
AcDbSymbolTableRecord
100
AcDbBlockTableRecord
  2
*D33
340
0
  0
BLOCK_RECORD
  5
241
330
1
100
AcDbSymbolTableRecord
100
AcDbBlockTableRecord
  2
*D34
340
0
  0
BLOCK_RECORD
  5
24F
330
1
100
AcDbSymbolTableRecord
100
AcDbBlockTableRecord
  2
*D35
340
0
  0
BLOCK_RECORD
  5
2B8
330
1
100
AcDbSymbolTableRecord
100
AcDbBlockTableRecord
  2
*D36
340
0
  0
BLOCK_RECORD
  5
2C6
330
1
100
AcDbSymbolTableRecord
100
AcDbBlockTableRecord
  2
*D37
340
0
  0
BLOCK_RECORD
  5
2D4
330
1
100
AcDbSymbolTableRecord
100
AcDbBlockTableRecord
  2
*D38
340
0
  0
BLOCK_RECORD
  5
2E2
330
1
100
AcDbSymbolTableRecord
100
AcDbBlockTableRecord
  2
*D39
340
0
  0
BLOCK_RECORD
  5
2F0
330
1
100
AcDbSymbolTableRecord
100
AcDbBlockTableRecord
  2
*D40
340
0
  0
BLOCK_RECORD
  5
2FE
330
1
100
AcDbSymbolTableRecord
100
AcDbBlockTableRecord
  2
*D41
340
0
  0
BLOCK_RECORD
  5
30C
330
1
100
AcDbSymbolTableRecord
100
AcDbBlockTableRecord
  2
*D42
340
0
  0
BLOCK_RECORD
  5
31A
330
1
100
AcDbSymbolTableRecord
100
AcDbBlockTableRecord
  2
*D43
340
0
  0
BLOCK_RECORD
  5
328
330
1
100
AcDbSymbolTableRecord
100
AcDbBlockTableRecord
  2
*D44
340
0
  0
BLOCK_RECORD
  5
336
330
1
100
AcDbSymbolTableRecord
100
AcDbBlockTableRecord
  2
*D45
340
0
  0
BLOCK_RECORD
  5
344
330
1
100
AcDbSymbolTableRecord
100
AcDbBlockTableRecord
  2
*D46
340
0
  0
BLOCK_RECORD
  5
352
330
1
100
AcDbSymbolTableRecord
100
AcDbBlockTableRecord
  2
*D47
340
0
  0
BLOCK_RECORD
  5
360
330
1
100
AcDbSymbolTableRecord
100
AcDbBlockTableRecord
  2
*D48
340
0
  0
BLOCK_RECORD
  5
36E
330
1
100
AcDbSymbolTableRecord
100
AcDbBlockTableRecord
  2
*D49
340
0
  0
BLOCK_RECORD
  5
37C
330
1
100
AcDbSymbolTableRecord
100
AcDbBlockTableRecord
  2
*D50
340
0
  0
BLOCK_RECORD
  5
38A
330
1
100
AcDbSymbolTableRecord
100
AcDbBlockTableRecord
  2
*D51
340
0
  0
BLOCK_RECORD
  5
398
330
1
100
AcDbSymbolTableRecord
100
AcDbBlockTableRecord
  2
*D52
340
0
  0
BLOCK_RECORD
  5
3A6
330
1
100
AcDbSymbolTableRecord
100
AcDbBlockTableRecord
  2
*D53
340
0
  0
BLOCK_RECORD
  5
3B4
330
1
100
AcDbSymbolTableRecord
100
AcDbBlockTableRecord
  2
*D54
340
0
  0
BLOCK_RECORD
  5
3C2
330
1
100
AcDbSymbolTableRecord
100
AcDbBlockTableRecord
  2
*D55
340
0
  0
BLOCK_RECORD
  5
3D0
330
1
100
AcDbSymbolTableRecord
100
AcDbBlockTableRecord
  2
*D56
340
0
  0
BLOCK_RECORD
  5
3DE
330
1
100
AcDbSymbolTableRecord
100
AcDbBlockTableRecord
  2
*D57
340
0
  0
BLOCK_RECORD
  5
3EC
330
1
100
AcDbSymbolTableRecord
100
AcDbBlockTableRecord
  2
*D58
340
0
  0
BLOCK_RECORD
  5
3FA
330
1
100
AcDbSymbolTableRecord
100
AcDbBlockTableRecord
  2
*D59
340
0
  0
ENDTAB
  0
ENDSEC
  0
SECTION
  2
BLOCKS
  0
BLOCK
  5
1F
330
1E
100
AcDbEntity
  8
0
100
AcDbBlockBegin
  2
*Model_Space
 70
     0
 10
0.0
 20
0.0
 30
0.0
  3
*Model_Space
  1

  0
ENDBLK
  5
20
330
1E
100
AcDbEntity
  8
0
100
AcDbBlockEnd
  0
BLOCK
  5
1B
330
1A
100
AcDbEntity
 67
     1
  8
0
100
AcDbBlockBegin
  2
*Paper_Space
 70
     0
 10
0.0
 20
0.0
 30
0.0
  3
*Paper_Space
  1

  0
ENDBLK
  5
1C
330
1A
100
AcDbEntity
 67
     1
  8
0
100
AcDbBlockEnd
  0
BLOCK
  5
33
330
32
100
AcDbEntity
  8
0
100
AcDbBlockBegin
  2
ACAD
 70
     0
 10
0.0
 20
0.0
 30
0.0
  3
ACAD
  1

  0
ENDBLK
  5
34
330
32
100
AcDbEntity
  8
0
100
AcDbBlockEnd
  0
BLOCK
  5
36
330
35
100
AcDbEntity
  8
0
100
AcDbBlockBegin
  2
HB
 70
     0
 10
0.0
 20
0.0
 30
0.0
  3
HB
  1

  0
TEXT
  5
37
330
35
100
AcDbEntity
  8
TEXT
100
AcDbText
 10
0.2078333333333334
 20
15.060079
 30
0.0
 40
0.125
  1
NAME
 72
     1
 11
0.4370000000000001
 21
15.060079
 31
0.0
100
AcDbText
  0
TEXT
  5
38
330
35
100
AcDbEntity
  8
TEXT
100
AcDbText
 10
0.2078333333333334
 20
15.268413
 30
0.0
 40
0.125
  1
PART
 72
     1
 11
0.4370000000000001
 21
15.268413
 31
0.0
100
AcDbText
  0
TEXT
  5
39
330
35
100
AcDbEntity
  8
TEXT
100
AcDbText
 10
5.372
 20
15.060079
 30
0.0
 40
0.125
  1
No.
 72
     1
 11
5.497
 21
15.060079
 31
0.0
100
AcDbText
  0
TEXT
  5
3A
330
35
100
AcDbEntity
  8
TEXT
100
AcDbText
 10
5.267833333333333
 20
15.268413
 30
0.0
 40
0.125
  1
PART
 72
     1
 11
5.497
 21
15.268413
 31
0.0
100
AcDbText
  0
LINE
  5
3B
330
35
100
AcDbEntity
  8
TITLE
100
AcDbLine
 10
5.872
 20
15.438
 30
0.0
 11
5.872
 21
15.01999999999999
 31
0.0
  0
LINE
  5
3C
330
35
100
AcDbEntity
  8
TITLE
100
AcDbLine
 10
5.122
 20
15.438
 30
0.0
 11
5.122
 21
15.01999999999999
 31
0.0
  0
LINE
  5
3D
330
35
100
AcDbEntity
  8
TITLE
100
AcDbLine
 10
5.059999999999999
 20
15.438
 30
0.0
 11
5.059999999999999
 21
15.01999999999999
 31
0.0
  0
LINE
  5
3E
330
35
100
AcDbEntity
  8
TITLE
100
AcDbLine
 10
0.812
 20
15.01999999999999
 30
0.0
 11
0.812
 21
15.438
 31
0.0
  0
LINE
  5
3F
330
35
100
AcDbEntity
  8
TITLE
100
AcDbLine
 10
0.062
 20
15.01999999999999
 30
0.0
 11
10.058
 21
15.01999999999999
 31
0.0
  0
LINE
  5
40
330
35
100
AcDbEntity
  8
TITLE
100
AcDbLine
 10
10.058
 20
0.062
 30
0.0
 11
0.062
 21
0.062
 31
0.0
  0
LINE
  5
41
330
35
100
AcDbEntity
  8
TITLE
100
AcDbLine
 10
10.058
 20
15.438
 30
0.0
 11
10.058
 21
0.062
 31
0.0
  0
LINE
  5
42
330
35
100
AcDbEntity
  8
TITLE
100
AcDbLine
 10
0.062
 20
15.438
 30
0.0
 11
10.058
 21
15.438
 31
0.0
  0
LINE
  5
43
330
35
100
AcDbEntity
  8
TITLE
100
AcDbLine
 10
0.062
 20
0.062
 30
0.0
 11
0.062
 21
15.438
 31
0.0
  0
LINE
  5
44
330
35
100
AcDbEntity
  8
TITLE
100
AcDbLine
 10
0.0
 20
0.0
 30
0.0
 11
0.0
 21
15.5
 31
0.0
  0
LINE
  5
45
330
35
100
AcDbEntity
  8
TITLE
100
AcDbLine
 10
10.12
 20
0.0
 30
0.0
 11
0.0
 21
0.0
 31
0.0
  0
LINE
  5
46
330
35
100
AcDbEntity
  8
TITLE
100
AcDbLine
 10
10.12
 20
15.5
 30
0.0
 11
10.12
 21
0.0
 31
0.0
  0
LINE
  5
47
330
35
100
AcDbEntity
  8
TITLE
100
AcDbLine
 10
0.0
 20
15.5
 30
0.0
 11
10.12
 21
15.5
 31
0.0
  0
ENDBLK
  5
48
330
35
100
AcDbEntity
  8
0
100
AcDbBlockEnd
  0
BLOCK
  5
202
330
1F7
100
AcDbEntity
  8
0
100
AcDbBlockBegin
  2
*D31
 70
     1
 10
0.0
 20
0.0
 30
0.0
  3
*D31
  1

  0
LINE
  5
624
330
1F7
100
AcDbEntity
  8
DIM
 62
     0
370
    -2
100
AcDbLine
 10
16.300546
 20
10.8769
 30
0.0
 11
16.300546
 21
11.775354
 31
0.0
  0
LINE
  5
625
330
1F7
100
AcDbEntity
  8
DIM
 62
     0
370
    -2
100
AcDbLine
 10
4.300545999999999
 20
10.8769
 30
0.0
 11
4.300545999999999
 21
11.775354
 31
0.0
  0
LINE
  5
626
330
1F7
100
AcDbEntity
  8
DIM
 62
     0
370
    -2
100
AcDbLine
 10
15.760546
 20
11.49635399999999
 30
0.0
 11
10.66429599999999
 21
11.49635399999999
 31
0.0
  0
LINE
  5
627
330
1F7
100
AcDbEntity
  8
DIM
 62
     0
370
    -2
100
AcDbLine
 10
4.840545999999999
 20
11.49635399999999
 30
0.0
 11
9.936796000000001
 21
11.49635399999999
 31
0.0
  0
SOLID
  5
628
330
1F7
100
AcDbEntity
  8
DIM
 62
     0
100
AcDbTrace
 10
15.760546
 20
11.586354
 30
0.0
 11
15.760546
 21
11.406354
 31
0.0
 12
16.300546
 22
11.49635399999999
 32
0.0
 13
16.300546
 23
11.49635399999999
 33
0.0
  0
SOLID
  5
629
330
1F7
100
AcDbEntity
  8
DIM
 62
     0
100
AcDbTrace
 10
4.840545999999999
 20
11.586354
 30
0.0
 11
4.840545999999999
 21
11.406354
 31
0.0
 12
4.300545999999999
 22
11.49635399999999
 32
0.0
 13
4.300545999999999
 23
11.49635399999999
 33
0.0
  0
MTEXT
  5
62A
330
1F7
100
AcDbEntity
  8
DIM
 62
     0
100
AcDbMText
 10
10.300546
 20
11.49635399999999
 30
0.0
 40
0.375
 41
0.0
 71
     5
 72
     1
  1
\A1;A
  7
TXT
 73
     1
 44
1.0
  0
POINT
  5
62B
330
1F7
100
AcDbEntity
  8
DEFPOINTS
 62
     0
100
AcDbPoint
 10
16.300546
 20
10.6879
 30
0.0
  0
POINT
  5
62C
330
1F7
100
AcDbEntity
  8
DEFPOINTS
 62
     0
100
AcDbPoint
 10
4.300545999999999
 20
10.6879
 30
0.0
  0
POINT
  5
62D
330
1F7
100
AcDbEntity
  8
DEFPOINTS
 62
     0
100
AcDbPoint
 10
4.300545999999999
 20
11.49635399999999
 30
0.0
  0
ENDBLK
  5
203
330
1F7
100
AcDbEntity
  8
0
100
AcDbBlockEnd
  0
BLOCK
  5
210
330
205
100
AcDbEntity
  8
0
100
AcDbBlockBegin
  2
*D32
 70
     1
 10
0.0
 20
0.0
 30
0.0
  3
*D32
  1

  0
LINE
  5
62E
330
205
100
AcDbEntity
  8
DIM
 62
     0
370
    -2
100
AcDbLine
 10
20.161364
 20
10.8769
 30
0.0
 11
20.161364
 21
11.775354
 31
0.0
  0
LINE
  5
62F
330
205
100
AcDbEntity
  8
DIM
 62
     0
370
    -2
100
AcDbLine
 10
26.161364
 20
10.8769
 30
0.0
 11
26.161364
 21
11.775354
 31
0.0
  0
LINE
  5
630
330
205
100
AcDbEntity
  8
DIM
 62
     0
370
    -2
100
AcDbLine
 10
20.701364
 20
11.49635399999999
 30
0.0
 11
22.797614
 21
11.49635399999999
 31
0.0
  0
LINE
  5
631
330
205
100
AcDbEntity
  8
DIM
 62
     0
370
    -2
100
AcDbLine
 10
25.621364
 20
11.49635399999999
 30
0.0
 11
23.525114
 21
11.49635399999999
 31
0.0
  0
SOLID
  5
632
330
205
100
AcDbEntity
  8
DIM
 62
     0
100
AcDbTrace
 10
20.701364
 20
11.586354
 30
0.0
 11
20.701364
 21
11.406354
 31
0.0
 12
20.161364
 22
11.49635399999999
 32
0.0
 13
20.161364
 23
11.49635399999999
 33
0.0
  0
SOLID
  5
633
330
205
100
AcDbEntity
  8
DIM
 62
     0
100
AcDbTrace
 10
25.621364
 20
11.586354
 30
0.0
 11
25.621364
 21
11.406354
 31
0.0
 12
26.161364
 22
11.49635399999999
 32
0.0
 13
26.161364
 23
11.49635399999999
 33
0.0
  0
MTEXT
  5
634
330
205
100
AcDbEntity
  8
DIM
 62
     0
100
AcDbMText
 10
23.161364
 20
11.49635399999999
 30
0.0
 40
0.375
 41
0.0
 71
     5
 72
     1
  1
\A1;C
  7
TXT
 73
     1
 44
1.0
  0
POINT
  5
635
330
205
100
AcDbEntity
  8
DEFPOINTS
 62
     0
100
AcDbPoint
 10
20.161364
 20
10.6879
 30
0.0
  0
POINT
  5
636
330
205
100
AcDbEntity
  8
DEFPOINTS
 62
     0
100
AcDbPoint
 10
26.161364
 20
10.6879
 30
0.0
  0
POINT
  5
637
330
205
100
AcDbEntity
  8
DEFPOINTS
 62
     0
100
AcDbPoint
 10
26.161364
 20
11.49635399999999
 30
0.0
  0
ENDBLK
  5
211
330
205
100
AcDbEntity
  8
0
100
AcDbBlockEnd
  0
BLOCK
  5
22E
330
223
100
AcDbEntity
  8
0
100
AcDbBlockBegin
  2
*D33
 70
     1
 10
0.0
 20
0.0
 30
0.0
  3
*D33
  1

  0
LINE
  5
754
330
223
100
AcDbEntity
  8
DIM
 62
     0
370
    -2
100
AcDbLine
 10
19.922364
 20
26.702322
 30
0.0
 11
18.985532
 21
26.702322
 31
0.0
  0
LINE
  5
755
330
223
100
AcDbEntity
  8
DIM
 62
     0
370
    -2
100
AcDbLine
 10
19.922364
 20
24.202322
 30
0.0
 11
18.985532
 21
24.202322
 31
0.0
  0
LINE
  5
756
330
223
100
AcDbEntity
  8
DIM
 62
     0
370
    -2
100
AcDbLine
 10
19.264532
 20
26.162322
 30
0.0
 11
19.264532
 21
25.909822
 31
0.0
  0
LINE
  5
757
330
223
100
AcDbEntity
  8
DIM
 62
     0
370
    -2
100
AcDbLine
 10
19.264532
 20
24.74232199999999
 30
0.0
 11
19.264532
 21
24.994822
 31
0.0
  0
SOLID
  5
758
330
223
100
AcDbEntity
  8
DIM
 62
     0
100
AcDbTrace
 10
19.17453199999999
 20
26.162322
 30
0.0
 11
19.35453199999999
 21
26.162322
 31
0.0
 12
19.264532
 22
26.702322
 32
0.0
 13
19.264532
 23
26.702322
 33
0.0
  0
SOLID
  5
759
330
223
100
AcDbEntity
  8
DIM
 62
     0
100
AcDbTrace
 10
19.17453199999999
 20
24.74232199999999
 30
0.0
 11
19.35453199999999
 21
24.74232199999999
 31
0.0
 12
19.264532
 22
24.202322
 32
0.0
 13
19.264532
 23
24.202322
 33
0.0
  0
MTEXT
  5
75A
330
223
100
AcDbEntity
  8
DIM
 62
     0
100
AcDbMText
 10
19.26453199999999
 20
25.452322
 30
0.0
 40
0.375
 41
0.0
 71
     5
 72
     1
  1
\A1;F
  7
TXT
 73
     1
 44
1.0
  0
POINT
  5
75B
330
223
100
AcDbEntity
  8
DEFPOINTS
 62
     0
100
AcDbPoint
 10
20.111364
 20
26.702322
 30
0.0
  0
POINT
  5
75C
330
223
100
AcDbEntity
  8
DEFPOINTS
 62
     0
100
AcDbPoint
 10
20.111364
 20
24.202322
 30
0.0
  0
POINT
  5
75D
330
223
100
AcDbEntity
  8
DEFPOINTS
 62
     0
100
AcDbPoint
 10
19.264532
 20
24.202322
 30
0.0
  0
ENDBLK
  5
22F
330
223
100
AcDbEntity
  8
0
100
AcDbBlockEnd
  0
BLOCK
  5
24C
330
241
100
AcDbEntity
  8
0
100
AcDbBlockBegin
  2
*D34
 70
     1
 10
0.0
 20
0.0
 30
0.0
  3
*D34
  1

  0
LINE
  5
638
330
241
100
AcDbEntity
  8
DIM
 62
     0
370
    -2
100
AcDbLine
 10
16.26954599999999
 20
26.89132199999999
 30
0.0
 11
16.26954599999999
 21
27.795952
 31
0.0
  0
LINE
  5
639
330
241
100
AcDbEntity
  8
DIM
 62
     0
370
    -2
100
AcDbLine
 10
4.331546
 20
26.89132199999999
 30
0.0
 11
4.331546
 21
27.795952
 31
0.0
  0
LINE
  5
63A
330
241
100
AcDbEntity
  8
DIM
 62
     0
370
    -2
100
AcDbLine
 10
15.729546
 20
27.516952
 30
0.0
 11
10.66429599999999
 21
27.516952
 31
0.0
  0
LINE
  5
63B
330
241
100
AcDbEntity
  8
DIM
 62
     0
370
    -2
100
AcDbLine
 10
4.871546
 20
27.516952
 30
0.0
 11
9.936796000000001
 21
27.516952
 31
0.0
  0
SOLID
  5
63C
330
241
100
AcDbEntity
  8
DIM
 62
     0
100
AcDbTrace
 10
15.729546
 20
27.606952
 30
0.0
 11
15.729546
 21
27.426952
 31
0.0
 12
16.26954599999999
 22
27.516952
 32
0.0
 13
16.26954599999999
 23
27.516952
 33
0.0
  0
SOLID
  5
63D
330
241
100
AcDbEntity
  8
DIM
 62
     0
100
AcDbTrace
 10
4.871546
 20
27.606952
 30
0.0
 11
4.871546
 21
27.426952
 31
0.0
 12
4.331546
 22
27.516952
 32
0.0
 13
4.331546
 23
27.516952
 33
0.0
  0
MTEXT
  5
63E
330
241
100
AcDbEntity
  8
DIM
 62
     0
100
AcDbMText
 10
10.300546
 20
27.516952
 30
0.0
 40
0.375
 41
0.0
 71
     5
 72
     1
  1
\A1;E
  7
TXT
 73
     1
 44
1.0
  0
POINT
  5
63F
330
241
100
AcDbEntity
  8
DEFPOINTS
 62
     0
100
AcDbPoint
 10
16.26954599999999
 20
26.702322
 30
0.0
  0
POINT
  5
640
330
241
100
AcDbEntity
  8
DEFPOINTS
 62
     0
100
AcDbPoint
 10
4.331546
 20
26.702322
 30
0.0
  0
POINT
  5
641
330
241
100
AcDbEntity
  8
DEFPOINTS
 62
     0
100
AcDbPoint
 10
4.331546
 20
27.516952
 30
0.0
  0
ENDBLK
  5
24D
330
241
100
AcDbEntity
  8
0
100
AcDbBlockEnd
  0
BLOCK
  5
25A
330
24F
100
AcDbEntity
  8
0
100
AcDbBlockBegin
  2
*D35
 70
     1
 10
0.0
 20
0.0
 30
0.0
  3
*D35
  1

  0
LINE
  5
642
330
24F
100
AcDbEntity
  8
DIM
 62
     0
370
    -2
100
AcDbLine
 10
20.111364
 20
26.89132199999999
 30
0.0
 11
20.111364
 21
27.830434
 31
0.0
  0
LINE
  5
643
330
24F
100
AcDbEntity
  8
DIM
 62
     0
370
    -2
100
AcDbLine
 10
26.111364
 20
26.89132199999999
 30
0.0
 11
26.111364
 21
27.830434
 31
0.0
  0
LINE
  5
644
330
24F
100
AcDbEntity
  8
DIM
 62
     0
370
    -2
100
AcDbLine
 10
20.651364
 20
27.551434
 30
0.0
 11
22.747614
 21
27.551434
 31
0.0
  0
LINE
  5
645
330
24F
100
AcDbEntity
  8
DIM
 62
     0
370
    -2
100
AcDbLine
 10
25.571364
 20
27.551434
 30
0.0
 11
23.475114
 21
27.551434
 31
0.0
  0
SOLID
  5
646
330
24F
100
AcDbEntity
  8
DIM
 62
     0
100
AcDbTrace
 10
20.651364
 20
27.641434
 30
0.0
 11
20.651364
 21
27.461434
 31
0.0
 12
20.111364
 22
27.551434
 32
0.0
 13
20.111364
 23
27.551434
 33
0.0
  0
SOLID
  5
647
330
24F
100
AcDbEntity
  8
DIM
 62
     0
100
AcDbTrace
 10
25.571364
 20
27.641434
 30
0.0
 11
25.571364
 21
27.461434
 31
0.0
 12
26.111364
 22
27.551434
 32
0.0
 13
26.111364
 23
27.551434
 33
0.0
  0
MTEXT
  5
648
330
24F
100
AcDbEntity
  8
DIM
 62
     0
100
AcDbMText
 10
23.111364
 20
27.551434
 30
0.0
 40
0.375
 41
0.0
 71
     5
 72
     1
  1
\A1;G
  7
TXT
 73
     1
 44
1.0
  0
POINT
  5
649
330
24F
100
AcDbEntity
  8
DEFPOINTS
 62
     0
100
AcDbPoint
 10
20.111364
 20
26.702322
 30
0.0
  0
POINT
  5
64A
330
24F
100
AcDbEntity
  8
DEFPOINTS
 62
     0
100
AcDbPoint
 10
26.111364
 20
26.702322
 30
0.0
  0
POINT
  5
64B
330
24F
100
AcDbEntity
  8
DEFPOINTS
 62
     0
100
AcDbPoint
 10
26.111364
 20
27.551434
 30
0.0
  0
ENDBLK
  5
25B
330
24F
100
AcDbEntity
  8
0
100
AcDbBlockEnd
  0
BLOCK
  5
2C3
330
2B8
100
AcDbEntity
  8
0
100
AcDbBlockBegin
  2
*D36
 70
     1
 10
0.0
 20
0.0
 30
0.0
  3
*D36
  1

  0
LINE
  5
64C
330
2B8
100
AcDbEntity
  8
DIM
 62
     0
370
    -2
100
AcDbLine
 10
15.644546
 20
8.2489
 30
0.0
 11
15.644546
 21
6.828899999999999
 31
0.0
  0
LINE
  5
64D
330
2B8
100
AcDbEntity
  8
DIM
 62
     0
370
    -2
100
AcDbLine
 10
10.300546
 20
8.2489
 30
0.0
 11
10.300546
 21
6.828899999999999
 31
0.0
  0
LINE
  5
64E
330
2B8
100
AcDbEntity
  8
DIM
 62
     0
370
    -2
100
AcDbLine
 10
15.104546
 20
7.107899999999999
 30
0.0
 11
13.336296
 21
7.107899999999999
 31
0.0
  0
LINE
  5
64F
330
2B8
100
AcDbEntity
  8
DIM
 62
     0
370
    -2
100
AcDbLine
 10
10.84054599999999
 20
7.107899999999999
 30
0.0
 11
12.60879599999999
 21
7.107899999999999
 31
0.0
  0
SOLID
  5
650
330
2B8
100
AcDbEntity
  8
DIM
 62
     0
100
AcDbTrace
 10
15.104546
 20
7.197899999999999
 30
0.0
 11
15.104546
 21
7.0179
 31
0.0
 12
15.644546
 22
7.107899999999999
 32
0.0
 13
15.644546
 23
7.107899999999999
 33
0.0
  0
SOLID
  5
651
330
2B8
100
AcDbEntity
  8
DIM
 62
     0
100
AcDbTrace
 10
10.84054599999999
 20
7.197899999999999
 30
0.0
 11
10.84054599999999
 21
7.0179
 31
0.0
 12
10.300546
 22
7.107899999999999
 32
0.0
 13
10.300546
 23
7.107899999999999
 33
0.0
  0
MTEXT
  5
652
330
2B8
100
AcDbEntity
  8
DIM
 62
     0
100
AcDbMText
 10
12.972546
 20
7.107899999999999
 30
0.0
 40
0.375
 41
0.0
 71
     5
 72
     1
  1
\A1;D
  7
TXT
 73
     1
 44
1.0
  0
POINT
  5
653
330
2B8
100
AcDbEntity
  8
DEFPOINTS
 62
     0
100
AcDbPoint
 10
15.644546
 20
8.4379
 30
0.0
  0
POINT
  5
654
330
2B8
100
AcDbEntity
  8
DEFPOINTS
 62
     0
100
AcDbPoint
 10
10.300546
 20
8.4379
 30
0.0
  0
POINT
  5
655
330
2B8
100
AcDbEntity
  8
DEFPOINTS
 62
     0
100
AcDbPoint
 10
10.300546
 20
7.107899999999999
 30
0.0
  0
ENDBLK
  5
2C4
330
2B8
100
AcDbEntity
  8
0
100
AcDbBlockEnd
  0
BLOCK
  5
2D1
330
2C6
100
AcDbEntity
  8
0
100
AcDbBlockBegin
  2
*D37
 70
     1
 10
0.0
 20
0.0
 30
0.0
  3
*D37
  1

  0
LINE
  5
656
330
2C6
100
AcDbEntity
  8
DIM
 62
     0
370
    -2
100
AcDbLine
 10
10.300546
 20
8.2489
 30
0.0
 11
10.300546
 21
6.828899999999999
 31
0.0
  0
LINE
  5
657
330
2C6
100
AcDbEntity
  8
DIM
 62
     0
370
    -2
100
AcDbLine
 10
4.956546
 20
8.2489
 30
0.0
 11
4.956546
 21
6.828899999999999
 31
0.0
  0
LINE
  5
658
330
2C6
100
AcDbEntity
  8
DIM
 62
     0
370
    -2
100
AcDbLine
 10
9.760546000000001
 20
7.107899999999999
 30
0.0
 11
7.992296000000001
 21
7.107899999999999
 31
0.0
  0
LINE
  5
659
330
2C6
100
AcDbEntity
  8
DIM
 62
     0
370
    -2
100
AcDbLine
 10
5.496546
 20
7.107899999999999
 30
0.0
 11
7.264796
 21
7.107899999999999
 31
0.0
  0
SOLID
  5
65A
330
2C6
100
AcDbEntity
  8
DIM
 62
     0
100
AcDbTrace
 10
9.760546000000001
 20
7.197899999999999
 30
0.0
 11
9.760546000000001
 21
7.0179
 31
0.0
 12
10.300546
 22
7.107899999999999
 32
0.0
 13
10.300546
 23
7.107899999999999
 33
0.0
  0
SOLID
  5
65B
330
2C6
100
AcDbEntity
  8
DIM
 62
     0
100
AcDbTrace
 10
5.496546
 20
7.197899999999999
 30
0.0
 11
5.496546
 21
7.0179
 31
0.0
 12
4.956546
 22
7.107899999999999
 32
0.0
 13
4.956546
 23
7.107899999999999
 33
0.0
  0
MTEXT
  5
65C
330
2C6
100
AcDbEntity
  8
DIM
 62
     0
100
AcDbMText
 10
7.628546
 20
7.107899999999999
 30
0.0
 40
0.375
 41
0.0
 71
     5
 72
     1
  1
\A1;D
  7
TXT
 73
     1
 44
1.0
  0
POINT
  5
65D
330
2C6
100
AcDbEntity
  8
DEFPOINTS
 62
     0
100
AcDbPoint
 10
10.300546
 20
8.4379
 30
0.0
  0
POINT
  5
65E
330
2C6
100
AcDbEntity
  8
DEFPOINTS
 62
     0
100
AcDbPoint
 10
4.956546
 20
8.4379
 30
0.0
  0
POINT
  5
65F
330
2C6
100
AcDbEntity
  8
DEFPOINTS
 62
     0
100
AcDbPoint
 10
4.956546
 20
7.107899999999999
 30
0.0
  0
ENDBLK
  5
2D2
330
2C6
100
AcDbEntity
  8
0
100
AcDbBlockEnd
  0
BLOCK
  5
2DF
330
2D4
100
AcDbEntity
  8
0
100
AcDbBlockBegin
  2
*D38
 70
     1
 10
0.0
 20
0.0
 30
0.0
  3
*D38
  1

  0
LINE
  5
660
330
2D4
100
AcDbEntity
  8
DIM
 62
     0
370
    -2
100
AcDbLine
 10
15.644546
 20
8.2489
 30
0.0
 11
15.644546
 21
6.828899999999999
 31
0.0
  0
LINE
  5
661
330
2D4
100
AcDbEntity
  8
DIM
 62
     0
370
    -2
100
AcDbLine
 10
16.300546
 20
7.9989
 30
0.0
 11
16.300546
 21
6.828899999999999
 31
0.0
  0
LINE
  5
662
330
2D4
100
AcDbEntity
  8
DIM
 62
     0
370
    -2
100
AcDbLine
 10
15.104546
 20
7.107899999999999
 30
0.0
 11
14.56454599999999
 21
7.107899999999999
 31
0.0
  0
LINE
  5
663
330
2D4
100
AcDbEntity
  8
DIM
 62
     0
370
    -2
100
AcDbLine
 10
16.840546
 20
7.107899999999999
 30
0.0
 11
17.380546
 21
7.107899999999999
 31
0.0
  0
SOLID
  5
664
330
2D4
100
AcDbEntity
  8
DIM
 62
     0
100
AcDbTrace
 10
15.104546
 20
7.197899999999999
 30
0.0
 11
15.104546
 21
7.0179
 31
0.0
 12
15.644546
 22
7.107899999999999
 32
0.0
 13
15.644546
 23
7.107899999999999
 33
0.0
  0
SOLID
  5
665
330
2D4
100
AcDbEntity
  8
DIM
 62
     0
100
AcDbTrace
 10
16.840546
 20
7.197899999999999
 30
0.0
 11
16.840546
 21
7.0179
 31
0.0
 12
16.300546
 22
7.107899999999999
 32
0.0
 13
16.300546
 23
7.107899999999999
 33
0.0
  0
MTEXT
  5
666
330
2D4
100
AcDbEntity
  8
DIM
 62
     0
100
AcDbMText
 10
18.1896085
 20
7.107899999999999
 30
0.0
 40
0.375
 41
0.0
 71
     5
 72
     1
  1
\A1;0.656
  7
TXT
 73
     1
 44
1.0
  0
POINT
  5
667
330
2D4
100
AcDbEntity
  8
DEFPOINTS
 62
     0
100
AcDbPoint
 10
15.644546
 20
8.4379
 30
0.0
  0
POINT
  5
668
330
2D4
100
AcDbEntity
  8
DEFPOINTS
 62
     0
100
AcDbPoint
 10
16.300546
 20
8.1879
 30
0.0
  0
POINT
  5
669
330
2D4
100
AcDbEntity
  8
DEFPOINTS
 62
     0
100
AcDbPoint
 10
16.300546
 20
7.107899999999999
 30
0.0
  0
ENDBLK
  5
2E0
330
2D4
100
AcDbEntity
  8
0
100
AcDbBlockEnd
  0
BLOCK
  5
2ED
330
2E2
100
AcDbEntity
  8
0
100
AcDbBlockBegin
  2
*D39
 70
     1
 10
0.0
 20
0.0
 30
0.0
  3
*D39
  1

  0
LINE
  5
66A
330
2E2
100
AcDbEntity
  8
DIM
 62
     0
370
    -2
100
AcDbLine
 10
15.644546
 20
19.064648
 30
0.0
 11
15.644546
 21
20.484648
 31
0.0
  0
LINE
  5
66B
330
2E2
100
AcDbEntity
  8
DIM
 62
     0
370
    -2
100
AcDbLine
 10
10.300546
 20
19.064648
 30
0.0
 11
10.300546
 21
20.484648
 31
0.0
  0
LINE
  5
66C
330
2E2
100
AcDbEntity
  8
DIM
 62
     0
370
    -2
100
AcDbLine
 10
15.104546
 20
20.205648
 30
0.0
 11
13.336296
 21
20.205648
 31
0.0
  0
LINE
  5
66D
330
2E2
100
AcDbEntity
  8
DIM
 62
     0
370
    -2
100
AcDbLine
 10
10.84054599999999
 20
20.205648
 30
0.0
 11
12.60879599999999
 21
20.205648
 31
0.0
  0
SOLID
  5
66E
330
2E2
100
AcDbEntity
  8
DIM
 62
     0
100
AcDbTrace
 10
15.104546
 20
20.295648
 30
0.0
 11
15.104546
 21
20.11564799999999
 31
0.0
 12
15.644546
 22
20.205648
 32
0.0
 13
15.644546
 23
20.205648
 33
0.0
  0
SOLID
  5
66F
330
2E2
100
AcDbEntity
  8
DIM
 62
     0
100
AcDbTrace
 10
10.84054599999999
 20
20.295648
 30
0.0
 11
10.84054599999999
 21
20.11564799999999
 31
0.0
 12
10.300546
 22
20.205648
 32
0.0
 13
10.300546
 23
20.205648
 33
0.0
  0
MTEXT
  5
670
330
2E2
100
AcDbEntity
  8
DIM
 62
     0
100
AcDbMText
 10
12.972546
 20
20.205648
 30
0.0
 40
0.375
 41
0.0
 71
     5
 72
     1
  1
\A1;D
  7
TXT
 73
     1
 44
1.0
  0
POINT
  5
671
330
2E2
100
AcDbEntity
  8
DEFPOINTS
 62
     0
100
AcDbPoint
 10
15.644546
 20
18.875648
 30
0.0
  0
POINT
  5
672
330
2E2
100
AcDbEntity
  8
DEFPOINTS
 62
     0
100
AcDbPoint
 10
10.300546
 20
18.875648
 30
0.0
  0
POINT
  5
673
330
2E2
100
AcDbEntity
  8
DEFPOINTS
 62
     0
100
AcDbPoint
 10
10.300546
 20
20.205648
 30
0.0
  0
ENDBLK
  5
2EE
330
2E2
100
AcDbEntity
  8
0
100
AcDbBlockEnd
  0
BLOCK
  5
2FB
330
2F0
100
AcDbEntity
  8
0
100
AcDbBlockBegin
  2
*D40
 70
     1
 10
0.0
 20
0.0
 30
0.0
  3
*D40
  1

  0
LINE
  5
674
330
2F0
100
AcDbEntity
  8
DIM
 62
     0
370
    -2
100
AcDbLine
 10
10.300546
 20
19.064648
 30
0.0
 11
10.300546
 21
20.484648
 31
0.0
  0
LINE
  5
675
330
2F0
100
AcDbEntity
  8
DIM
 62
     0
370
    -2
100
AcDbLine
 10
4.956546
 20
19.064648
 30
0.0
 11
4.956546
 21
20.484648
 31
0.0
  0
LINE
  5
676
330
2F0
100
AcDbEntity
  8
DIM
 62
     0
370
    -2
100
AcDbLine
 10
9.760546000000001
 20
20.205648
 30
0.0
 11
7.992296000000001
 21
20.205648
 31
0.0
  0
LINE
  5
677
330
2F0
100
AcDbEntity
  8
DIM
 62
     0
370
    -2
100
AcDbLine
 10
5.496546
 20
20.205648
 30
0.0
 11
7.264796
 21
20.205648
 31
0.0
  0
SOLID
  5
678
330
2F0
100
AcDbEntity
  8
DIM
 62
     0
100
AcDbTrace
 10
9.760546000000001
 20
20.295648
 30
0.0
 11
9.760546000000001
 21
20.11564799999999
 31
0.0
 12
10.300546
 22
20.205648
 32
0.0
 13
10.300546
 23
20.205648
 33
0.0
  0
SOLID
  5
679
330
2F0
100
AcDbEntity
  8
DIM
 62
     0
100
AcDbTrace
 10
5.496546
 20
20.295648
 30
0.0
 11
5.496546
 21
20.11564799999999
 31
0.0
 12
4.956546
 22
20.205648
 32
0.0
 13
4.956546
 23
20.205648
 33
0.0
  0
MTEXT
  5
67A
330
2F0
100
AcDbEntity
  8
DIM
 62
     0
100
AcDbMText
 10
7.628546
 20
20.205648
 30
0.0
 40
0.375
 41
0.0
 71
     5
 72
     1
  1
\A1;D
  7
TXT
 73
     1
 44
1.0
  0
POINT
  5
67B
330
2F0
100
AcDbEntity
  8
DEFPOINTS
 62
     0
100
AcDbPoint
 10
10.300546
 20
18.875648
 30
0.0
  0
POINT
  5
67C
330
2F0
100
AcDbEntity
  8
DEFPOINTS
 62
     0
100
AcDbPoint
 10
4.956546
 20
18.875648
 30
0.0
  0
POINT
  5
67D
330
2F0
100
AcDbEntity
  8
DEFPOINTS
 62
     0
100
AcDbPoint
 10
4.956546
 20
20.205648
 30
0.0
  0
ENDBLK
  5
2FC
330
2F0
100
AcDbEntity
  8
0
100
AcDbBlockEnd
  0
BLOCK
  5
309
330
2FE
100
AcDbEntity
  8
0
100
AcDbBlockBegin
  2
*D41
 70
     1
 10
0.0
 20
0.0
 30
0.0
  3
*D41
  1

  0
LINE
  5
67E
330
2FE
100
AcDbEntity
  8
DIM
 62
     0
370
    -2
100
AcDbLine
 10
4.956546
 20
19.064648
 30
0.0
 11
4.956546
 21
20.484648
 31
0.0
  0
LINE
  5
67F
330
2FE
100
AcDbEntity
  8
DIM
 62
     0
370
    -2
100
AcDbLine
 10
4.300545999999999
 20
19.314648
 30
0.0
 11
4.300545999999999
 21
20.484648
 31
0.0
  0
LINE
  5
680
330
2FE
100
AcDbEntity
  8
DIM
 62
     0
370
    -2
100
AcDbLine
 10
5.496546
 20
20.205648
 30
0.0
 11
6.036546
 21
20.205648
 31
0.0
  0
LINE
  5
681
330
2FE
100
AcDbEntity
  8
DIM
 62
     0
370
    -2
100
AcDbLine
 10
3.760545999999999
 20
20.205648
 30
0.0
 11
3.220545999999999
 21
20.205648
 31
0.0
  0
SOLID
  5
682
330
2FE
100
AcDbEntity
  8
DIM
 62
     0
100
AcDbTrace
 10
5.496546
 20
20.295648
 30
0.0
 11
5.496546
 21
20.11564799999999
 31
0.0
 12
4.956546
 22
20.205648
 32
0.0
 13
4.956546
 23
20.205648
 33
0.0
  0
SOLID
  5
683
330
2FE
100
AcDbEntity
  8
DIM
 62
     0
100
AcDbTrace
 10
3.760545999999999
 20
20.295648
 30
0.0
 11
3.760545999999999
 21
20.11564799999999
 31
0.0
 12
4.300545999999999
 22
20.205648
 32
0.0
 13
4.300545999999999
 23
20.205648
 33
0.0
  0
MTEXT
  5
684
330
2FE
100
AcDbEntity
  8
DIM
 62
     0
100
AcDbMText
 10
2.411483499999999
 20
20.205648
 30
0.0
 40
0.375
 41
0.0
 71
     5
 72
     1
  1
\A1;0.656
  7
TXT
 73
     1
 44
1.0
  0
POINT
  5
685
330
2FE
100
AcDbEntity
  8
DEFPOINTS
 62
     0
100
AcDbPoint
 10
4.956546
 20
18.875648
 30
0.0
  0
POINT
  5
686
330
2FE
100
AcDbEntity
  8
DEFPOINTS
 62
     0
100
AcDbPoint
 10
4.300545999999999
 20
19.125648
 30
0.0
  0
POINT
  5
687
330
2FE
100
AcDbEntity
  8
DEFPOINTS
 62
     0
100
AcDbPoint
 10
4.300545999999999
 20
20.205648
 30
0.0
  0
ENDBLK
  5
30A
330
2FE
100
AcDbEntity
  8
0
100
AcDbBlockEnd
  0
BLOCK
  5
317
330
30C
100
AcDbEntity
  8
0
100
AcDbBlockBegin
  2
*D42
 70
     1
 10
0.0
 20
0.0
 30
0.0
  3
*D42
  1

  0
LINE
  5
688
330
30C
100
AcDbEntity
  8
DIM
 62
     0
370
    -2
100
AcDbLine
 10
4.767546
 20
8.4379
 30
0.0
 11
3.347076
 21
8.437900000000002
 31
0.0
  0
LINE
  5
689
330
30C
100
AcDbEntity
  8
DIM
 62
     0
370
    -2
100
AcDbLine
 10
4.111545999999999
 20
8.1879
 30
0.0
 11
3.347076
 21
8.187900000000002
 31
0.0
  0
LINE
  5
68A
330
30C
100
AcDbEntity
  8
DIM
 62
     0
370
    -2
100
AcDbLine
 10
3.626076
 20
8.977900000000001
 30
0.0
 11
3.626076
 21
9.517900000000002
 31
0.0
  0
LINE
  5
68B
330
30C
100
AcDbEntity
  8
DIM
 62
     0
370
    -2
100
AcDbLine
 10
3.626076
 20
7.647900000000001
 30
0.0
 11
3.626076
 21
7.107900000000001
 31
0.0
  0
LINE
  5
68C
330
30C
100
AcDbEntity
  8
DIM
 62
     0
370
    -2
100
AcDbLine
 10
3.626076
 20
7.107900000000001
 30
0.0
 11
3.086076
 21
7.107900000000001
 31
0.0
  0
SOLID
  5
68D
330
30C
100
AcDbEntity
  8
DIM
 62
     0
100
AcDbTrace
 10
3.536076
 20
8.977900000000001
 30
0.0
 11
3.716076
 21
8.977900000000001
 31
0.0
 12
3.626076
 22
8.437900000000002
 32
0.0
 13
3.626076
 23
8.437900000000002
 33
0.0
  0
SOLID
  5
68E
330
30C
100
AcDbEntity
  8
DIM
 62
     0
100
AcDbTrace
 10
3.536076
 20
7.647900000000001
 30
0.0
 11
3.716076
 21
7.647900000000001
 31
0.0
 12
3.626076
 22
8.187900000000002
 32
0.0
 13
3.626076
 23
8.187900000000002
 33
0.0
  0
MTEXT
  5
68F
330
30C
100
AcDbEntity
  8
DIM
 62
     0
100
AcDbMText
 10
2.300450999999998
 20
7.107900000000002
 30
0.0
 40
0.375
 41
0.0
 71
     5
 72
     1
  1
\A1;0.250
  7
TXT
 73
     1
 44
1.0
  0
POINT
  5
690
330
30C
100
AcDbEntity
  8
DEFPOINTS
 62
     0
100
AcDbPoint
 10
4.956546
 20
8.4379
 30
0.0
  0
POINT
  5
691
330
30C
100
AcDbEntity
  8
DEFPOINTS
 62
     0
100
AcDbPoint
 10
4.300545999999999
 20
8.1879
 30
0.0
  0
POINT
  5
692
330
30C
100
AcDbEntity
  8
DEFPOINTS
 62
     0
100
AcDbPoint
 10
3.626076
 20
8.187900000000002
 30
0.0
  0
ENDBLK
  5
318
330
30C
100
AcDbEntity
  8
0
100
AcDbBlockEnd
  0
BLOCK
  5
325
330
31A
100
AcDbEntity
  8
0
100
AcDbBlockBegin
  2
*D43
 70
     1
 10
0.0
 20
0.0
 30
0.0
  3
*D43
  1

  0
LINE
  5
693
330
31A
100
AcDbEntity
  8
DIM
 62
     0
370
    -2
100
AcDbLine
 10
4.800545999999999
 20
16.482316
 30
0.0
 11
4.800545999999999
 21
16.128412
 31
0.0
  0
LINE
  5
694
330
31A
100
AcDbEntity
  8
DIM
 62
     0
370
    -2
100
AcDbLine
 10
4.300545999999999
 20
16.482316
 30
0.0
 11
4.300545999999999
 21
16.128412
 31
0.0
  0
LINE
  5
695
330
31A
100
AcDbEntity
  8
DIM
 62
     0
370
    -2
100
AcDbLine
 10
5.340545999999999
 20
16.407412
 30
0.0
 11
5.880545999999999
 21
16.407412
 31
0.0
  0
LINE
  5
696
330
31A
100
AcDbEntity
  8
DIM
 62
     0
370
    -2
100
AcDbLine
 10
3.760545999999999
 20
16.407412
 30
0.0
 11
3.220545999999999
 21
16.407412
 31
0.0
  0
SOLID
  5
697
330
31A
100
AcDbEntity
  8
DIM
 62
     0
100
AcDbTrace
 10
5.340545999999999
 20
16.497412
 30
0.0
 11
5.340545999999999
 21
16.317412
 31
0.0
 12
4.800545999999999
 22
16.407412
 32
0.0
 13
4.800545999999999
 23
16.407412
 33
0.0
  0
SOLID
  5
698
330
31A
100
AcDbEntity
  8
DIM
 62
     0
100
AcDbTrace
 10
3.760545999999999
 20
16.497412
 30
0.0
 11
3.760545999999999
 21
16.317412
 31
0.0
 12
4.300545999999999
 22
16.407412
 32
0.0
 13
4.300545999999999
 23
16.407412
 33
0.0
  0
MTEXT
  5
699
330
31A
100
AcDbEntity
  8
DIM
 62
     0
100
AcDbMText
 10
1.848983499999999
 20
16.407412
 30
0.0
 40
0.375
 41
0.0
 71
     5
 72
     1
  1
\A1;0.500 TYP.
  7
TXT
 73
     1
 44
1.0
  0
POINT
  5
69A
330
31A
100
AcDbEntity
  8
DEFPOINTS
 62
     0
100
AcDbPoint
 10
4.800545999999999
 20
16.671316
 30
0.0
  0
POINT
  5
69B
330
31A
100
AcDbEntity
  8
DEFPOINTS
 62
     0
100
AcDbPoint
 10
4.300545999999999
 20
16.671316
 30
0.0
  0
POINT
  5
69C
330
31A
100
AcDbEntity
  8
DEFPOINTS
 62
     0
100
AcDbPoint
 10
4.300545999999999
 20
16.407412
 30
0.0
  0
ENDBLK
  5
326
330
31A
100
AcDbEntity
  8
0
100
AcDbBlockEnd
  0
BLOCK
  5
333
330
328
100
AcDbEntity
  8
0
100
AcDbBlockBegin
  2
*D44
 70
     1
 10
0.0
 20
0.0
 30
0.0
  3
*D44
  1

  0
LINE
  5
69D
330
328
100
AcDbEntity
  8
DIM
 62
     0
370
    -2
100
AcDbLine
 10
16.239546
 20
14.875648
 30
0.0
 11
17.468217
 21
14.875648
 31
0.0
  0
LINE
  5
69E
330
328
100
AcDbEntity
  8
DIM
 62
     0
370
    -2
100
AcDbLine
 10
15.833546
 20
18.875648
 30
0.0
 11
17.468217
 21
18.875648
 31
0.0
  0
LINE
  5
69F
330
328
100
AcDbEntity
  8
DIM
 62
     0
370
    -2
100
AcDbLine
 10
17.189217
 20
15.415648
 30
0.0
 11
17.189217
 21
16.418148
 31
0.0
  0
LINE
  5
6A0
330
328
100
AcDbEntity
  8
DIM
 62
     0
370
    -2
100
AcDbLine
 10
17.189217
 20
18.335648
 30
0.0
 11
17.189217
 21
17.333148
 31
0.0
  0
SOLID
  5
6A1
330
328
100
AcDbEntity
  8
DIM
 62
     0
100
AcDbTrace
 10
17.099217
 20
15.415648
 30
0.0
 11
17.279217
 21
15.415648
 31
0.0
 12
17.189217
 22
14.875648
 32
0.0
 13
17.189217
 23
14.875648
 33
0.0
  0
SOLID
  5
6A2
330
328
100
AcDbEntity
  8
DIM
 62
     0
100
AcDbTrace
 10
17.099217
 20
18.335648
 30
0.0
 11
17.279217
 21
18.335648
 31
0.0
 12
17.189217
 22
18.875648
 32
0.0
 13
17.189217
 23
18.875648
 33
0.0
  0
MTEXT
  5
6A3
330
328
100
AcDbEntity
  8
DIM
 62
     0
100
AcDbMText
 10
17.189217
 20
16.875648
 30
0.0
 40
0.375
 41
0.0
 71
     5
 72
     1
  1
\A1;H
  7
TXT
 73
     1
 44
1.0
  0
POINT
  5
6A4
330
328
100
AcDbEntity
  8
DEFPOINTS
 62
     0
100
AcDbPoint
 10
16.050546
 20
14.875648
 30
0.0
  0
POINT
  5
6A5
330
328
100
AcDbEntity
  8
DEFPOINTS
 62
     0
100
AcDbPoint
 10
15.644546
 20
18.875648
 30
0.0
  0
POINT
  5
6A6
330
328
100
AcDbEntity
  8
DEFPOINTS
 62
     0
100
AcDbPoint
 10
17.189217
 20
18.875648
 30
0.0
  0
ENDBLK
  5
334
330
328
100
AcDbEntity
  8
0
100
AcDbBlockEnd
  0
BLOCK
  5
341
330
336
100
AcDbEntity
  8
0
100
AcDbBlockBegin
  2
*D45
 70
     1
 10
0.0
 20
0.0
 30
0.0
  3
*D45
  1

  0
LINE
  5
6A7
330
336
100
AcDbEntity
  8
DIM
 62
     0
370
    -2
100
AcDbLine
 10
15.833546
 20
18.875648
 30
0.0
 11
17.468217
 21
18.875648
 31
0.0
  0
LINE
  5
6A8
330
336
100
AcDbEntity
  8
DIM
 62
     0
370
    -2
100
AcDbLine
 10
16.489546
 20
19.125648
 30
0.0
 11
17.468217
 21
19.125648
 31
0.0
  0
LINE
  5
6A9
330
336
100
AcDbEntity
  8
DIM
 62
     0
370
    -2
100
AcDbLine
 10
17.189217
 20
18.335648
 30
0.0
 11
17.189217
 21
17.795648
 31
0.0
  0
LINE
  5
6AA
330
336
100
AcDbEntity
  8
DIM
 62
     0
370
    -2
100
AcDbLine
 10
17.189217
 20
19.665648
 30
0.0
 11
17.189217
 21
20.205648
 31
0.0
  0
LINE
  5
6AB
330
336
100
AcDbEntity
  8
DIM
 62
     0
370
    -2
100
AcDbLine
 10
17.189217
 20
20.205648
 30
0.0
 11
17.729217
 21
20.205648
 31
0.0
  0
SOLID
  5
6AC
330
336
100
AcDbEntity
  8
DIM
 62
     0
100
AcDbTrace
 10
17.099217
 20
18.335648
 30
0.0
 11
17.279217
 21
18.335648
 31
0.0
 12
17.189217
 22
18.875648
 32
0.0
 13
17.189217
 23
18.875648
 33
0.0
  0
SOLID
  5
6AD
330
336
100
AcDbEntity
  8
DIM
 62
     0
100
AcDbTrace
 10
17.099217
 20
19.665648
 30
0.0
 11
17.279217
 21
19.665648
 31
0.0
 12
17.189217
 22
19.125648
 32
0.0
 13
17.189217
 23
19.125648
 33
0.0
  0
MTEXT
  5
6AE
330
336
100
AcDbEntity
  8
DIM
 62
     0
100
AcDbMText
 10
18.51484199999999
 20
20.205648
 30
0.0
 40
0.375
 41
0.0
 71
     5
 72
     1
  1
\A1;0.250
  7
TXT
 73
     1
 44
1.0
  0
POINT
  5
6AF
330
336
100
AcDbEntity
  8
DEFPOINTS
 62
     0
100
AcDbPoint
 10
15.644546
 20
18.875648
 30
0.0
  0
POINT
  5
6B0
330
336
100
AcDbEntity
  8
DEFPOINTS
 62
     0
100
AcDbPoint
 10
16.300546
 20
19.125648
 30
0.0
  0
POINT
  5
6B1
330
336
100
AcDbEntity
  8
DEFPOINTS
 62
     0
100
AcDbPoint
 10
17.189217
 20
19.125648
 30
0.0
  0
ENDBLK
  5
342
330
336
100
AcDbEntity
  8
0
100
AcDbBlockEnd
  0
BLOCK
  5
34F
330
344
100
AcDbEntity
  8
0
100
AcDbBlockBegin
  2
*D46
 70
     1
 10
0.0
 20
0.0
 30
0.0
  3
*D46
  1

  0
LINE
  5
6B2
330
344
100
AcDbEntity
  8
DIM
 62
     0
370
    -2
100
AcDbLine
 10
4.550545999999999
 20
14.686648
 30
0.0
 11
4.550545999999999
 21
12.176538
 31
0.0
  0
LINE
  5
6B3
330
344
100
AcDbEntity
  8
DIM
 62
     0
370
    -2
100
AcDbLine
 10
4.300545999999999
 20
12.936648
 30
0.0
 11
4.300545999999999
 21
12.176538
 31
0.0
  0
LINE
  5
6B4
330
344
100
AcDbEntity
  8
DIM
 62
     0
370
    -2
100
AcDbLine
 10
5.090545999999999
 20
12.455538
 30
0.0
 11
5.630545999999999
 21
12.455538
 31
0.0
  0
LINE
  5
6B5
330
344
100
AcDbEntity
  8
DIM
 62
     0
370
    -2
100
AcDbLine
 10
3.760545999999999
 20
12.455538
 30
0.0
 11
3.220545999999999
 21
12.455538
 31
0.0
  0
SOLID
  5
6B6
330
344
100
AcDbEntity
  8
DIM
 62
     0
100
AcDbTrace
 10
5.090545999999999
 20
12.545538
 30
0.0
 11
5.090545999999999
 21
12.365538
 31
0.0
 12
4.550545999999999
 22
12.455538
 32
0.0
 13
4.550545999999999
 23
12.455538
 33
0.0
  0
SOLID
  5
6B7
330
344
100
AcDbEntity
  8
DIM
 62
     0
100
AcDbTrace
 10
3.760545999999999
 20
12.545538
 30
0.0
 11
3.760545999999999
 21
12.365538
 31
0.0
 12
4.300545999999999
 22
12.455538
 32
0.0
 13
4.300545999999999
 23
12.455538
 33
0.0
  0
MTEXT
  5
6B8
330
344
100
AcDbEntity
  8
DIM
 62
     0
100
AcDbMText
 10
2.434920999999999
 20
12.455538
 30
0.0
 40
0.375
 41
0.0
 71
     5
 72
     1
  1
\A1;0.250
  7
TXT
 73
     1
 44
1.0
  0
POINT
  5
6B9
330
344
100
AcDbEntity
  8
DEFPOINTS
 62
     0
100
AcDbPoint
 10
4.550545999999999
 20
14.875648
 30
0.0
  0
POINT
  5
6BA
330
344
100
AcDbEntity
  8
DEFPOINTS
 62
     0
100
AcDbPoint
 10
4.300545999999999
 20
13.125648
 30
0.0
  0
POINT
  5
6BB
330
344
100
AcDbEntity
  8
DEFPOINTS
 62
     0
100
AcDbPoint
 10
4.300545999999999
 20
12.455538
 30
0.0
  0
ENDBLK
  5
350
330
344
100
AcDbEntity
  8
0
100
AcDbBlockEnd
  0
BLOCK
  5
35D
330
352
100
AcDbEntity
  8
0
100
AcDbBlockBegin
  2
*D47
 70
     1
 10
0.0
 20
0.0
 30
0.0
  3
*D47
  1

  0
LINE
  5
6BC
330
352
100
AcDbEntity
  8
DIM
 62
     0
370
    -2
100
AcDbLine
 10
16.050546
 20
14.686648
 30
0.0
 11
16.050546
 21
12.176538
 31
0.0
  0
LINE
  5
6BD
330
352
100
AcDbEntity
  8
DIM
 62
     0
370
    -2
100
AcDbLine
 10
16.300546
 20
12.936648
 30
0.0
 11
16.300546
 21
12.176538
 31
0.0
  0
LINE
  5
6BE
330
352
100
AcDbEntity
  8
DIM
 62
     0
370
    -2
100
AcDbLine
 10
15.510546
 20
12.455538
 30
0.0
 11
14.970546
 21
12.455538
 31
0.0
  0
LINE
  5
6BF
330
352
100
AcDbEntity
  8
DIM
 62
     0
370
    -2
100
AcDbLine
 10
16.840546
 20
12.455538
 30
0.0
 11
17.380546
 21
12.455538
 31
0.0
  0
SOLID
  5
6C0
330
352
100
AcDbEntity
  8
DIM
 62
     0
100
AcDbTrace
 10
15.510546
 20
12.545538
 30
0.0
 11
15.510546
 21
12.365538
 31
0.0
 12
16.050546
 22
12.455538
 32
0.0
 13
16.050546
 23
12.455538
 33
0.0
  0
SOLID
  5
6C1
330
352
100
AcDbEntity
  8
DIM
 62
     0
100
AcDbTrace
 10
16.840546
 20
12.545538
 30
0.0
 11
16.840546
 21
12.365538
 31
0.0
 12
16.300546
 22
12.455538
 32
0.0
 13
16.300546
 23
12.455538
 33
0.0
  0
MTEXT
  5
6C2
330
352
100
AcDbEntity
  8
DIM
 62
     0
100
AcDbMText
 10
18.166171
 20
12.455538
 30
0.0
 40
0.375
 41
0.0
 71
     5
 72
     1
  1
\A1;0.250
  7
TXT
 73
     1
 44
1.0
  0
POINT
  5
6C3
330
352
100
AcDbEntity
  8
DEFPOINTS
 62
     0
100
AcDbPoint
 10
16.050546
 20
14.875648
 30
0.0
  0
POINT
  5
6C4
330
352
100
AcDbEntity
  8
DEFPOINTS
 62
     0
100
AcDbPoint
 10
16.300546
 20
13.125648
 30
0.0
  0
POINT
  5
6C5
330
352
100
AcDbEntity
  8
DEFPOINTS
 62
     0
100
AcDbPoint
 10
16.300546
 20
12.455538
 30
0.0
  0
ENDBLK
  5
35E
330
352
100
AcDbEntity
  8
0
100
AcDbBlockEnd
  0
BLOCK
  5
36B
330
360
100
AcDbEntity
  8
0
100
AcDbBlockBegin
  2
*D48
 70
     1
 10
0.0
 20
0.0
 30
0.0
  3
*D48
  1

  0
LINE
  5
6C6
330
360
100
AcDbEntity
  8
DIM
 62
     0
370
    -2
100
AcDbLine
 10
15.644546
 20
24.216322
 30
0.0
 11
15.644546
 21
22.79632199999999
 31
0.0
  0
LINE
  5
6C7
330
360
100
AcDbEntity
  8
DIM
 62
     0
370
    -2
100
AcDbLine
 10
10.300546
 20
24.216322
 30
0.0
 11
10.300546
 21
22.79632199999999
 31
0.0
  0
LINE
  5
6C8
330
360
100
AcDbEntity
  8
DIM
 62
     0
370
    -2
100
AcDbLine
 10
15.104546
 20
23.075322
 30
0.0
 11
13.336296
 21
23.075322
 31
0.0
  0
LINE
  5
6C9
330
360
100
AcDbEntity
  8
DIM
 62
     0
370
    -2
100
AcDbLine
 10
10.84054599999999
 20
23.075322
 30
0.0
 11
12.60879599999999
 21
23.075322
 31
0.0
  0
SOLID
  5
6CA
330
360
100
AcDbEntity
  8
DIM
 62
     0
100
AcDbTrace
 10
15.104546
 20
23.165322
 30
0.0
 11
15.104546
 21
22.98532199999999
 31
0.0
 12
15.644546
 22
23.075322
 32
0.0
 13
15.644546
 23
23.075322
 33
0.0
  0
SOLID
  5
6CB
330
360
100
AcDbEntity
  8
DIM
 62
     0
100
AcDbTrace
 10
10.84054599999999
 20
23.165322
 30
0.0
 11
10.84054599999999
 21
22.98532199999999
 31
0.0
 12
10.300546
 22
23.075322
 32
0.0
 13
10.300546
 23
23.075322
 33
0.0
  0
MTEXT
  5
6CC
330
360
100
AcDbEntity
  8
DIM
 62
     0
100
AcDbMText
 10
12.972546
 20
23.075322
 30
0.0
 40
0.375
 41
0.0
 71
     5
 72
     1
  1
\A1;D
  7
TXT
 73
     1
 44
1.0
  0
POINT
  5
6CD
330
360
100
AcDbEntity
  8
DEFPOINTS
 62
     0
100
AcDbPoint
 10
15.644546
 20
24.405322
 30
0.0
  0
POINT
  5
6CE
330
360
100
AcDbEntity
  8
DEFPOINTS
 62
     0
100
AcDbPoint
 10
10.300546
 20
24.405322
 30
0.0
  0
POINT
  5
6CF
330
360
100
AcDbEntity
  8
DEFPOINTS
 62
     0
100
AcDbPoint
 10
10.300546
 20
23.075322
 30
0.0
  0
ENDBLK
  5
36C
330
360
100
AcDbEntity
  8
0
100
AcDbBlockEnd
  0
BLOCK
  5
379
330
36E
100
AcDbEntity
  8
0
100
AcDbBlockBegin
  2
*D49
 70
     1
 10
0.0
 20
0.0
 30
0.0
  3
*D49
  1

  0
LINE
  5
6D0
330
36E
100
AcDbEntity
  8
DIM
 62
     0
370
    -2
100
AcDbLine
 10
10.300546
 20
24.216322
 30
0.0
 11
10.300546
 21
22.79632199999999
 31
0.0
  0
LINE
  5
6D1
330
36E
100
AcDbEntity
  8
DIM
 62
     0
370
    -2
100
AcDbLine
 10
4.956546
 20
24.216322
 30
0.0
 11
4.956546
 21
22.79632199999999
 31
0.0
  0
LINE
  5
6D2
330
36E
100
AcDbEntity
  8
DIM
 62
     0
370
    -2
100
AcDbLine
 10
9.760546000000001
 20
23.075322
 30
0.0
 11
7.992296000000001
 21
23.075322
 31
0.0
  0
LINE
  5
6D3
330
36E
100
AcDbEntity
  8
DIM
 62
     0
370
    -2
100
AcDbLine
 10
5.496546
 20
23.075322
 30
0.0
 11
7.264796
 21
23.075322
 31
0.0
  0
SOLID
  5
6D4
330
36E
100
AcDbEntity
  8
DIM
 62
     0
100
AcDbTrace
 10
9.760546000000001
 20
23.165322
 30
0.0
 11
9.760546000000001
 21
22.98532199999999
 31
0.0
 12
10.300546
 22
23.075322
 32
0.0
 13
10.300546
 23
23.075322
 33
0.0
  0
SOLID
  5
6D5
330
36E
100
AcDbEntity
  8
DIM
 62
     0
100
AcDbTrace
 10
5.496546
 20
23.165322
 30
0.0
 11
5.496546
 21
22.98532199999999
 31
0.0
 12
4.956546
 22
23.075322
 32
0.0
 13
4.956546
 23
23.075322
 33
0.0
  0
MTEXT
  5
6D6
330
36E
100
AcDbEntity
  8
DIM
 62
     0
100
AcDbMText
 10
7.628546
 20
23.075322
 30
0.0
 40
0.375
 41
0.0
 71
     5
 72
     1
  1
\A1;D
  7
TXT
 73
     1
 44
1.0
  0
POINT
  5
6D7
330
36E
100
AcDbEntity
  8
DEFPOINTS
 62
     0
100
AcDbPoint
 10
10.300546
 20
24.405322
 30
0.0
  0
POINT
  5
6D8
330
36E
100
AcDbEntity
  8
DEFPOINTS
 62
     0
100
AcDbPoint
 10
4.956546
 20
24.405322
 30
0.0
  0
POINT
  5
6D9
330
36E
100
AcDbEntity
  8
DEFPOINTS
 62
     0
100
AcDbPoint
 10
4.956546
 20
23.075322
 30
0.0
  0
ENDBLK
  5
37A
330
36E
100
AcDbEntity
  8
0
100
AcDbBlockEnd
  0
BLOCK
  5
387
330
37C
100
AcDbEntity
  8
0
100
AcDbBlockBegin
  2
*D50
 70
     1
 10
0.0
 20
0.0
 30
0.0
  3
*D50
  1

  0
LINE
  5
6DA
330
37C
100
AcDbEntity
  8
DIM
 62
     0
370
    -2
100
AcDbLine
 10
15.644546
 20
24.216322
 30
0.0
 11
15.644546
 21
22.79632199999999
 31
0.0
  0
LINE
  5
6DB
330
37C
100
AcDbEntity
  8
DIM
 62
     0
370
    -2
100
AcDbLine
 10
16.26954599999999
 20
24.013322
 30
0.0
 11
16.26954599999999
 21
22.79632199999999
 31
0.0
  0
LINE
  5
6DC
330
37C
100
AcDbEntity
  8
DIM
 62
     0
370
    -2
100
AcDbLine
 10
15.104546
 20
23.075322
 30
0.0
 11
14.56454599999999
 21
23.075322
 31
0.0
  0
LINE
  5
6DD
330
37C
100
AcDbEntity
  8
DIM
 62
     0
370
    -2
100
AcDbLine
 10
16.80954599999999
 20
23.075322
 30
0.0
 11
17.349546
 21
23.075322
 31
0.0
  0
SOLID
  5
6DE
330
37C
100
AcDbEntity
  8
DIM
 62
     0
100
AcDbTrace
 10
15.104546
 20
23.165322
 30
0.0
 11
15.104546
 21
22.98532199999999
 31
0.0
 12
15.644546
 22
23.075322
 32
0.0
 13
15.644546
 23
23.075322
 33
0.0
  0
SOLID
  5
6DF
330
37C
100
AcDbEntity
  8
DIM
 62
     0
100
AcDbTrace
 10
16.80954599999999
 20
23.165322
 30
0.0
 11
16.80954599999999
 21
22.98532199999999
 31
0.0
 12
16.26954599999999
 22
23.075322
 32
0.0
 13
16.26954599999999
 23
23.075322
 33
0.0
  0
MTEXT
  5
6E0
330
37C
100
AcDbEntity
  8
DIM
 62
     0
100
AcDbMText
 10
18.15860849999999
 20
23.075322
 30
0.0
 40
0.375
 41
0.0
 71
     5
 72
     1
  1
\A1;0.625
  7
TXT
 73
     1
 44
1.0
  0
POINT
  5
6E1
330
37C
100
AcDbEntity
  8
DEFPOINTS
 62
     0
100
AcDbPoint
 10
15.644546
 20
24.405322
 30
0.0
  0
POINT
  5
6E2
330
37C
100
AcDbEntity
  8
DEFPOINTS
 62
     0
100
AcDbPoint
 10
16.26954599999999
 20
24.202322
 30
0.0
  0
POINT
  5
6E3
330
37C
100
AcDbEntity
  8
DEFPOINTS
 62
     0
100
AcDbPoint
 10
16.26954599999999
 20
23.075322
 30
0.0
  0
ENDBLK
  5
388
330
37C
100
AcDbEntity
  8
0
100
AcDbBlockEnd
  0
BLOCK
  5
395
330
38A
100
AcDbEntity
  8
0
100
AcDbBlockBegin
  2
*D51
 70
     1
 10
0.0
 20
0.0
 30
0.0
  3
*D51
  1

  0
LINE
  5
6E4
330
38A
100
AcDbEntity
  8
DIM
 62
     0
370
    -2
100
AcDbLine
 10
4.956546
 20
35.226778
 30
0.0
 11
4.956546
 21
36.64677799999999
 31
0.0
  0
LINE
  5
6E5
330
38A
100
AcDbEntity
  8
DIM
 62
     0
370
    -2
100
AcDbLine
 10
4.331546
 20
35.429778
 30
0.0
 11
4.331546
 21
36.64677799999999
 31
0.0
  0
LINE
  5
6E6
330
38A
100
AcDbEntity
  8
DIM
 62
     0
370
    -2
100
AcDbLine
 10
5.496546
 20
36.367778
 30
0.0
 11
6.036546
 21
36.367778
 31
0.0
  0
LINE
  5
6E7
330
38A
100
AcDbEntity
  8
DIM
 62
     0
370
    -2
100
AcDbLine
 10
3.791546
 20
36.367778
 30
0.0
 11
3.251546
 21
36.367778
 31
0.0
  0
SOLID
  5
6E8
330
38A
100
AcDbEntity
  8
DIM
 62
     0
100
AcDbTrace
 10
5.496546
 20
36.457778
 30
0.0
 11
5.496546
 21
36.277778
 31
0.0
 12
4.956546
 22
36.367778
 32
0.0
 13
4.956546
 23
36.367778
 33
0.0
  0
SOLID
  5
6E9
330
38A
100
AcDbEntity
  8
DIM
 62
     0
100
AcDbTrace
 10
3.791546
 20
36.457778
 30
0.0
 11
3.791546
 21
36.277778
 31
0.0
 12
4.331546
 22
36.367778
 32
0.0
 13
4.331546
 23
36.367778
 33
0.0
  0
MTEXT
  5
6EA
330
38A
100
AcDbEntity
  8
DIM
 62
     0
100
AcDbMText
 10
2.4424835
 20
36.367778
 30
0.0
 40
0.375
 41
0.0
 71
     5
 72
     1
  1
\A1;0.625
  7
TXT
 73
     1
 44
1.0
  0
POINT
  5
6EB
330
38A
100
AcDbEntity
  8
DEFPOINTS
 62
     0
100
AcDbPoint
 10
4.956546
 20
35.037778
 30
0.0
  0
POINT
  5
6EC
330
38A
100
AcDbEntity
  8
DEFPOINTS
 62
     0
100
AcDbPoint
 10
4.331546
 20
35.240778
 30
0.0
  0
POINT
  5
6ED
330
38A
100
AcDbEntity
  8
DEFPOINTS
 62
     0
100
AcDbPoint
 10
4.331546
 20
36.367778
 30
0.0
  0
ENDBLK
  5
396
330
38A
100
AcDbEntity
  8
0
100
AcDbBlockEnd
  0
BLOCK
  5
3A3
330
398
100
AcDbEntity
  8
0
100
AcDbBlockBegin
  2
*D52
 70
     1
 10
0.0
 20
0.0
 30
0.0
  3
*D52
  1

  0
LINE
  5
6EE
330
398
100
AcDbEntity
  8
DIM
 62
     0
370
    -2
100
AcDbLine
 10
10.300546
 20
35.226778
 30
0.0
 11
10.300546
 21
36.64677799999999
 31
0.0
  0
LINE
  5
6EF
330
398
100
AcDbEntity
  8
DIM
 62
     0
370
    -2
100
AcDbLine
 10
4.956546
 20
35.226778
 30
0.0
 11
4.956546
 21
36.64677799999999
 31
0.0
  0
LINE
  5
6F0
330
398
100
AcDbEntity
  8
DIM
 62
     0
370
    -2
100
AcDbLine
 10
9.760546000000001
 20
36.367778
 30
0.0
 11
7.992296000000001
 21
36.367778
 31
0.0
  0
LINE
  5
6F1
330
398
100
AcDbEntity
  8
DIM
 62
     0
370
    -2
100
AcDbLine
 10
5.496546
 20
36.367778
 30
0.0
 11
7.264796
 21
36.367778
 31
0.0
  0
SOLID
  5
6F2
330
398
100
AcDbEntity
  8
DIM
 62
     0
100
AcDbTrace
 10
9.760546000000001
 20
36.457778
 30
0.0
 11
9.760546000000001
 21
36.277778
 31
0.0
 12
10.300546
 22
36.367778
 32
0.0
 13
10.300546
 23
36.367778
 33
0.0
  0
SOLID
  5
6F3
330
398
100
AcDbEntity
  8
DIM
 62
     0
100
AcDbTrace
 10
5.496546
 20
36.457778
 30
0.0
 11
5.496546
 21
36.277778
 31
0.0
 12
4.956546
 22
36.367778
 32
0.0
 13
4.956546
 23
36.367778
 33
0.0
  0
MTEXT
  5
6F4
330
398
100
AcDbEntity
  8
DIM
 62
     0
100
AcDbMText
 10
7.628546
 20
36.367778
 30
0.0
 40
0.375
 41
0.0
 71
     5
 72
     1
  1
\A1;D
  7
TXT
 73
     1
 44
1.0
  0
POINT
  5
6F5
330
398
100
AcDbEntity
  8
DEFPOINTS
 62
     0
100
AcDbPoint
 10
10.300546
 20
35.037778
 30
0.0
  0
POINT
  5
6F6
330
398
100
AcDbEntity
  8
DEFPOINTS
 62
     0
100
AcDbPoint
 10
4.956546
 20
35.037778
 30
0.0
  0
POINT
  5
6F7
330
398
100
AcDbEntity
  8
DEFPOINTS
 62
     0
100
AcDbPoint
 10
4.956546
 20
36.367778
 30
0.0
  0
ENDBLK
  5
3A4
330
398
100
AcDbEntity
  8
0
100
AcDbBlockEnd
  0
BLOCK
  5
3B1
330
3A6
100
AcDbEntity
  8
0
100
AcDbBlockBegin
  2
*D53
 70
     1
 10
0.0
 20
0.0
 30
0.0
  3
*D53
  1

  0
LINE
  5
6F8
330
3A6
100
AcDbEntity
  8
DIM
 62
     0
370
    -2
100
AcDbLine
 10
15.644546
 20
35.226778
 30
0.0
 11
15.644546
 21
36.64677799999999
 31
0.0
  0
LINE
  5
6F9
330
3A6
100
AcDbEntity
  8
DIM
 62
     0
370
    -2
100
AcDbLine
 10
10.300546
 20
35.226778
 30
0.0
 11
10.300546
 21
36.64677799999999
 31
0.0
  0
LINE
  5
6FA
330
3A6
100
AcDbEntity
  8
DIM
 62
     0
370
    -2
100
AcDbLine
 10
15.104546
 20
36.367778
 30
0.0
 11
13.336296
 21
36.367778
 31
0.0
  0
LINE
  5
6FB
330
3A6
100
AcDbEntity
  8
DIM
 62
     0
370
    -2
100
AcDbLine
 10
10.84054599999999
 20
36.367778
 30
0.0
 11
12.60879599999999
 21
36.367778
 31
0.0
  0
SOLID
  5
6FC
330
3A6
100
AcDbEntity
  8
DIM
 62
     0
100
AcDbTrace
 10
15.104546
 20
36.457778
 30
0.0
 11
15.104546
 21
36.277778
 31
0.0
 12
15.644546
 22
36.367778
 32
0.0
 13
15.644546
 23
36.367778
 33
0.0
  0
SOLID
  5
6FD
330
3A6
100
AcDbEntity
  8
DIM
 62
     0
100
AcDbTrace
 10
10.84054599999999
 20
36.457778
 30
0.0
 11
10.84054599999999
 21
36.277778
 31
0.0
 12
10.300546
 22
36.367778
 32
0.0
 13
10.300546
 23
36.367778
 33
0.0
  0
MTEXT
  5
6FE
330
3A6
100
AcDbEntity
  8
DIM
 62
     0
100
AcDbMText
 10
12.972546
 20
36.367778
 30
0.0
 40
0.375
 41
0.0
 71
     5
 72
     1
  1
\A1;D
  7
TXT
 73
     1
 44
1.0
  0
POINT
  5
6FF
330
3A6
100
AcDbEntity
  8
DEFPOINTS
 62
     0
100
AcDbPoint
 10
15.644546
 20
35.037778
 30
0.0
  0
POINT
  5
700
330
3A6
100
AcDbEntity
  8
DEFPOINTS
 62
     0
100
AcDbPoint
 10
10.300546
 20
35.037778
 30
0.0
  0
POINT
  5
701
330
3A6
100
AcDbEntity
  8
DEFPOINTS
 62
     0
100
AcDbPoint
 10
10.300546
 20
36.367778
 30
0.0
  0
ENDBLK
  5
3B2
330
3A6
100
AcDbEntity
  8
0
100
AcDbBlockEnd
  0
BLOCK
  5
3BF
330
3B4
100
AcDbEntity
  8
0
100
AcDbBlockBegin
  2
*D54
 70
     1
 10
0.0
 20
0.0
 30
0.0
  3
*D54
  1

  0
LINE
  5
74A
330
3B4
100
AcDbEntity
  8
DIM
 62
     0
370
    -2
100
AcDbLine
 10
19.972364
 20
10.6879
 30
0.0
 11
18.985532
 21
10.6879
 31
0.0
  0
LINE
  5
74B
330
3B4
100
AcDbEntity
  8
DIM
 62
     0
370
    -2
100
AcDbLine
 10
19.972364
 20
8.187900000000002
 30
0.0
 11
18.985532
 21
8.187900000000002
 31
0.0
  0
LINE
  5
74C
330
3B4
100
AcDbEntity
  8
DIM
 62
     0
370
    -2
100
AcDbLine
 10
19.264532
 20
10.1479
 30
0.0
 11
19.264532
 21
9.895400000000002
 31
0.0
  0
LINE
  5
74D
330
3B4
100
AcDbEntity
  8
DIM
 62
     0
370
    -2
100
AcDbLine
 10
19.264532
 20
8.727900000000001
 30
0.0
 11
19.264532
 21
8.980400000000003
 31
0.0
  0
SOLID
  5
74E
330
3B4
100
AcDbEntity
  8
DIM
 62
     0
100
AcDbTrace
 10
19.17453199999999
 20
10.1479
 30
0.0
 11
19.35453199999999
 21
10.1479
 31
0.0
 12
19.264532
 22
10.6879
 32
0.0
 13
19.264532
 23
10.6879
 33
0.0
  0
SOLID
  5
74F
330
3B4
100
AcDbEntity
  8
DIM
 62
     0
100
AcDbTrace
 10
19.17453199999999
 20
8.727900000000001
 30
0.0
 11
19.35453199999999
 21
8.727900000000001
 31
0.0
 12
19.264532
 22
8.187900000000002
 32
0.0
 13
19.264532
 23
8.187900000000002
 33
0.0
  0
MTEXT
  5
750
330
3B4
100
AcDbEntity
  8
DIM
 62
     0
100
AcDbMText
 10
19.26453199999999
 20
9.437900000000004
 30
0.0
 40
0.375
 41
0.0
 71
     5
 72
     1
  1
\A1;B
  7
TXT
 73
     1
 44
1.0
  0
POINT
  5
751
330
3B4
100
AcDbEntity
  8
DEFPOINTS
 62
     0
100
AcDbPoint
 10
20.161364
 20
10.6879
 30
0.0
  0
POINT
  5
752
330
3B4
100
AcDbEntity
  8
DEFPOINTS
 62
     0
100
AcDbPoint
 10
20.161364
 20
8.1879
 30
0.0
  0
POINT
  5
753
330
3B4
100
AcDbEntity
  8
DEFPOINTS
 62
     0
100
AcDbPoint
 10
19.264532
 20
8.187900000000002
 30
0.0
  0
ENDBLK
  5
3C0
330
3B4
100
AcDbEntity
  8
0
100
AcDbBlockEnd
  0
BLOCK
  5
3CD
330
3C2
100
AcDbEntity
  8
0
100
AcDbBlockBegin
  2
*D55
 70
     1
 10
0.0
 20
0.0
 30
0.0
  3
*D55
  1

  0
LINE
  5
702
330
3C2
100
AcDbEntity
  8
DIM
 62
     0
370
    -2
100
AcDbLine
 10
4.767546
 20
24.405322
 30
0.0
 11
3.089823
 21
24.405322
 31
0.0
  0
LINE
  5
703
330
3C2
100
AcDbEntity
  8
DIM
 62
     0
370
    -2
100
AcDbLine
 10
4.142546
 20
24.202322
 30
0.0
 11
3.089823
 21
24.202322
 31
0.0
  0
LINE
  5
704
330
3C2
100
AcDbEntity
  8
DIM
 62
     0
370
    -2
100
AcDbLine
 10
3.368823
 20
24.945322
 30
0.0
 11
3.368823
 21
25.485322
 31
0.0
  0
LINE
  5
705
330
3C2
100
AcDbEntity
  8
DIM
 62
     0
370
    -2
100
AcDbLine
 10
3.368823
 20
23.662322
 30
0.0
 11
3.368823
 21
23.12232199999999
 31
0.0
  0
LINE
  5
706
330
3C2
100
AcDbEntity
  8
DIM
 62
     0
370
    -2
100
AcDbLine
 10
3.368823
 20
23.12232199999999
 30
0.0
 11
2.828823
 21
23.12232199999999
 31
0.0
  0
SOLID
  5
707
330
3C2
100
AcDbEntity
  8
DIM
 62
     0
100
AcDbTrace
 10
3.278823
 20
24.945322
 30
0.0
 11
3.458823
 21
24.945322
 31
0.0
 12
3.368823
 22
24.405322
 32
0.0
 13
3.368823
 23
24.405322
 33
0.0
  0
SOLID
  5
708
330
3C2
100
AcDbEntity
  8
DIM
 62
     0
100
AcDbTrace
 10
3.278823
 20
23.662322
 30
0.0
 11
3.458823
 21
23.662322
 31
0.0
 12
3.368823
 22
24.202322
 32
0.0
 13
3.368823
 23
24.202322
 33
0.0
  0
MTEXT
  5
709
330
3C2
100
AcDbEntity
  8
DIM
 62
     0
100
AcDbMText
 10
2.043197999999996
 20
23.12232199999999
 30
0.0
 40
0.375
 41
0.0
 71
     5
 72
     1
  1
\A1;0.203
  7
TXT
 73
     1
 44
1.0
  0
POINT
  5
70A
330
3C2
100
AcDbEntity
  8
DEFPOINTS
 62
     0
100
AcDbPoint
 10
4.956546
 20
24.405322
 30
0.0
  0
POINT
  5
70B
330
3C2
100
AcDbEntity
  8
DEFPOINTS
 62
     0
100
AcDbPoint
 10
4.331546
 20
24.202322
 30
0.0
  0
POINT
  5
70C
330
3C2
100
AcDbEntity
  8
DEFPOINTS
 62
     0
100
AcDbPoint
 10
3.368823
 20
24.202322
 30
0.0
  0
ENDBLK
  5
3CE
330
3C2
100
AcDbEntity
  8
0
100
AcDbBlockEnd
  0
BLOCK
  5
3DB
330
3D0
100
AcDbEntity
  8
0
100
AcDbBlockBegin
  2
*D56
 70
     1
 10
0.0
 20
0.0
 30
0.0
  3
*D56
  1

  0
LINE
  5
70D
330
3D0
100
AcDbEntity
  8
DIM
 62
     0
370
    -2
100
AcDbLine
 10
16.240546
 20
31.037778
 30
0.0
 11
17.468217
 21
31.037778
 31
0.0
  0
LINE
  5
70E
330
3D0
100
AcDbEntity
  8
DIM
 62
     0
370
    -2
100
AcDbLine
 10
15.833546
 20
35.037778
 30
0.0
 11
17.468217
 21
35.03777799999999
 31
0.0
  0
LINE
  5
70F
330
3D0
100
AcDbEntity
  8
DIM
 62
     0
370
    -2
100
AcDbLine
 10
17.189217
 20
31.577778
 30
0.0
 11
17.189217
 21
32.58027799999999
 31
0.0
  0
LINE
  5
710
330
3D0
100
AcDbEntity
  8
DIM
 62
     0
370
    -2
100
AcDbLine
 10
17.189217
 20
34.49777799999999
 30
0.0
 11
17.189217
 21
33.495278
 31
0.0
  0
SOLID
  5
711
330
3D0
100
AcDbEntity
  8
DIM
 62
     0
100
AcDbTrace
 10
17.099217
 20
31.577778
 30
0.0
 11
17.279217
 21
31.577778
 31
0.0
 12
17.189217
 22
31.037778
 32
0.0
 13
17.189217
 23
31.037778
 33
0.0
  0
SOLID
  5
712
330
3D0
100
AcDbEntity
  8
DIM
 62
     0
100
AcDbTrace
 10
17.099217
 20
34.49777799999999
 30
0.0
 11
17.279217
 21
34.49777799999999
 31
0.0
 12
17.189217
 22
35.03777799999999
 32
0.0
 13
17.189217
 23
35.03777799999999
 33
0.0
  0
MTEXT
  5
713
330
3D0
100
AcDbEntity
  8
DIM
 62
     0
100
AcDbMText
 10
17.189217
 20
33.037778
 30
0.0
 40
0.375
 41
0.0
 71
     5
 72
     1
  1
\A1;H
  7
TXT
 73
     1
 44
1.0
  0
POINT
  5
714
330
3D0
100
AcDbEntity
  8
DEFPOINTS
 62
     0
100
AcDbPoint
 10
16.05154599999999
 20
31.037778
 30
0.0
  0
POINT
  5
715
330
3D0
100
AcDbEntity
  8
DEFPOINTS
 62
     0
100
AcDbPoint
 10
15.644546
 20
35.037778
 30
0.0
  0
POINT
  5
716
330
3D0
100
AcDbEntity
  8
DEFPOINTS
 62
     0
100
AcDbPoint
 10
17.189217
 20
35.03777799999999
 30
0.0
  0
ENDBLK
  5
3DC
330
3D0
100
AcDbEntity
  8
0
100
AcDbBlockEnd
  0
BLOCK
  5
3E9
330
3DE
100
AcDbEntity
  8
0
100
AcDbBlockBegin
  2
*D57
 70
     1
 10
0.0
 20
0.0
 30
0.0
  3
*D57
  1

  0
LINE
  5
717
330
3DE
100
AcDbEntity
  8
DIM
 62
     0
370
    -2
100
AcDbLine
 10
15.833546
 20
35.037778
 30
0.0
 11
17.468217
 21
35.03777799999999
 31
0.0
  0
LINE
  5
718
330
3DE
100
AcDbEntity
  8
DIM
 62
     0
370
    -2
100
AcDbLine
 10
16.45854599999999
 20
35.240778
 30
0.0
 11
17.468217
 21
35.240778
 31
0.0
  0
LINE
  5
719
330
3DE
100
AcDbEntity
  8
DIM
 62
     0
370
    -2
100
AcDbLine
 10
17.189217
 20
34.49777799999999
 30
0.0
 11
17.189217
 21
33.95777799999999
 31
0.0
  0
LINE
  5
71A
330
3DE
100
AcDbEntity
  8
DIM
 62
     0
370
    -2
100
AcDbLine
 10
17.189217
 20
35.780778
 30
0.0
 11
17.189217
 21
36.320778
 31
0.0
  0
LINE
  5
71B
330
3DE
100
AcDbEntity
  8
DIM
 62
     0
370
    -2
100
AcDbLine
 10
17.189217
 20
36.320778
 30
0.0
 11
17.729217
 21
36.320778
 31
0.0
  0
SOLID
  5
71C
330
3DE
100
AcDbEntity
  8
DIM
 62
     0
100
AcDbTrace
 10
17.099217
 20
34.49777799999999
 30
0.0
 11
17.279217
 21
34.49777799999999
 31
0.0
 12
17.189217
 22
35.03777799999999
 32
0.0
 13
17.189217
 23
35.03777799999999
 33
0.0
  0
SOLID
  5
71D
330
3DE
100
AcDbEntity
  8
DIM
 62
     0
100
AcDbTrace
 10
17.099217
 20
35.780778
 30
0.0
 11
17.279217
 21
35.780778
 31
0.0
 12
17.189217
 22
35.240778
 32
0.0
 13
17.189217
 23
35.240778
 33
0.0
  0
MTEXT
  5
71E
330
3DE
100
AcDbEntity
  8
DIM
 62
     0
100
AcDbMText
 10
18.51484199999999
 20
36.32077800000001
 30
0.0
 40
0.375
 41
0.0
 71
     5
 72
     1
  1
\A1;0.203
  7
TXT
 73
     1
 44
1.0
  0
POINT
  5
71F
330
3DE
100
AcDbEntity
  8
DEFPOINTS
 62
     0
100
AcDbPoint
 10
15.644546
 20
35.037778
 30
0.0
  0
POINT
  5
720
330
3DE
100
AcDbEntity
  8
DEFPOINTS
 62
     0
100
AcDbPoint
 10
16.26954599999999
 20
35.240778
 30
0.0
  0
POINT
  5
721
330
3DE
100
AcDbEntity
  8
DEFPOINTS
 62
     0
100
AcDbPoint
 10
17.189217
 20
35.240778
 30
0.0
  0
ENDBLK
  5
3EA
330
3DE
100
AcDbEntity
  8
0
100
AcDbBlockEnd
  0
BLOCK
  5
3F7
330
3EC
100
AcDbEntity
  8
0
100
AcDbBlockBegin
  2
*D58
 70
     1
 10
0.0
 20
0.0
 30
0.0
  3
*D58
  1

  0
LINE
  5
722
330
3EC
100
AcDbEntity
  8
DIM
 62
     0
370
    -2
100
AcDbLine
 10
4.549546
 20
30.848778
 30
0.0
 11
4.549546
 21
28.395409
 31
0.0
  0
LINE
  5
723
330
3EC
100
AcDbEntity
  8
DIM
 62
     0
370
    -2
100
AcDbLine
 10
4.331546
 20
29.051778
 30
0.0
 11
4.331546
 21
28.395409
 31
0.0
  0
LINE
  5
724
330
3EC
100
AcDbEntity
  8
DIM
 62
     0
370
    -2
100
AcDbLine
 10
5.089546
 20
28.674409
 30
0.0
 11
5.629546
 21
28.674409
 31
0.0
  0
LINE
  5
725
330
3EC
100
AcDbEntity
  8
DIM
 62
     0
370
    -2
100
AcDbLine
 10
3.791546
 20
28.674409
 30
0.0
 11
3.251546
 21
28.674409
 31
0.0
  0
SOLID
  5
726
330
3EC
100
AcDbEntity
  8
DIM
 62
     0
100
AcDbTrace
 10
5.089546
 20
28.764409
 30
0.0
 11
5.089546
 21
28.584409
 31
0.0
 12
4.549546
 22
28.674409
 32
0.0
 13
4.549546
 23
28.674409
 33
0.0
  0
SOLID
  5
727
330
3EC
100
AcDbEntity
  8
DIM
 62
     0
100
AcDbTrace
 10
3.791546
 20
28.764409
 30
0.0
 11
3.791546
 21
28.584409
 31
0.0
 12
4.331546
 22
28.674409
 32
0.0
 13
4.331546
 23
28.674409
 33
0.0
  0
MTEXT
  5
728
330
3EC
100
AcDbEntity
  8
DIM
 62
     0
100
AcDbMText
 10
2.4893585
 20
28.674409
 30
0.0
 40
0.375
 41
0.0
 71
     5
 72
     1
  1
\A1;0.218
  7
TXT
 73
     1
 44
1.0
  0
POINT
  5
729
330
3EC
100
AcDbEntity
  8
DEFPOINTS
 62
     0
100
AcDbPoint
 10
4.549546
 20
31.037778
 30
0.0
  0
POINT
  5
72A
330
3EC
100
AcDbEntity
  8
DEFPOINTS
 62
     0
100
AcDbPoint
 10
4.331546
 20
29.240778
 30
0.0
  0
POINT
  5
72B
330
3EC
100
AcDbEntity
  8
DEFPOINTS
 62
     0
100
AcDbPoint
 10
4.331546
 20
28.674409
 30
0.0
  0
ENDBLK
  5
3F8
330
3EC
100
AcDbEntity
  8
0
100
AcDbBlockEnd
  0
BLOCK
  5
405
330
3FA
100
AcDbEntity
  8
0
100
AcDbBlockBegin
  2
*D59
 70
     1
 10
0.0
 20
0.0
 30
0.0
  3
*D59
  1

  0
LINE
  5
72C
330
3FA
100
AcDbEntity
  8
DIM
 62
     0
370
    -2
100
AcDbLine
 10
16.05154599999999
 20
30.848778
 30
0.0
 11
16.05154599999999
 21
28.395409
 31
0.0
  0
LINE
  5
72D
330
3FA
100
AcDbEntity
  8
DIM
 62
     0
370
    -2
100
AcDbLine
 10
16.26954599999999
 20
29.051778
 30
0.0
 11
16.26954599999999
 21
28.395409
 31
0.0
  0
LINE
  5
72E
330
3FA
100
AcDbEntity
  8
DIM
 62
     0
370
    -2
100
AcDbLine
 10
15.511546
 20
28.674409
 30
0.0
 11
14.971546
 21
28.674409
 31
0.0
  0
LINE
  5
72F
330
3FA
100
AcDbEntity
  8
DIM
 62
     0
370
    -2
100
AcDbLine
 10
16.80954599999999
 20
28.674409
 30
0.0
 11
17.349546
 21
28.674409
 31
0.0
  0
SOLID
  5
730
330
3FA
100
AcDbEntity
  8
DIM
 62
     0
100
AcDbTrace
 10
15.511546
 20
28.764409
 30
0.0
 11
15.511546
 21
28.584409
 31
0.0
 12
16.05154599999999
 22
28.674409
 32
0.0
 13
16.05154599999999
 23
28.674409
 33
0.0
  0
SOLID
  5
731
330
3FA
100
AcDbEntity
  8
DIM
 62
     0
100
AcDbTrace
 10
16.80954599999999
 20
28.764409
 30
0.0
 11
16.80954599999999
 21
28.584409
 31
0.0
 12
16.26954599999999
 22
28.674409
 32
0.0
 13
16.26954599999999
 23
28.674409
 33
0.0
  0
MTEXT
  5
732
330
3FA
100
AcDbEntity
  8
DIM
 62
     0
100
AcDbMText
 10
18.11173349999999
 20
28.674409
 30
0.0
 40
0.375
 41
0.0
 71
     5
 72
     1
  1
\A1;0.218
  7
TXT
 73
     1
 44
1.0
  0
POINT
  5
733
330
3FA
100
AcDbEntity
  8
DEFPOINTS
 62
     0
100
AcDbPoint
 10
16.05154599999999
 20
31.037778
 30
0.0
  0
POINT
  5
734
330
3FA
100
AcDbEntity
  8
DEFPOINTS
 62
     0
100
AcDbPoint
 10
16.26954599999999
 20
29.240778
 30
0.0
  0
POINT
  5
735
330
3FA
100
AcDbEntity
  8
DEFPOINTS
 62
     0
100
AcDbPoint
 10
16.26954599999999
 20
28.674409
 30
0.0
  0
ENDBLK
  5
406
330
3FA
100
AcDbEntity
  8
0
100
AcDbBlockEnd
  0
ENDSEC
  0
SECTION
  2
ENTITIES
  0
INSERT
  5
1C7
330
1E
100
AcDbEntity
  8
0
100
AcDbBlockReference
  2
ACAD
 10
0.0
 20
0.0
 30
0.0
  0
LINE
  5
1C8
330
1E
100
AcDbEntity
  8
OBJECT
100
AcDbLine
 10
16.300546
 20
13.125648
 30
0.0
 11
16.300546
 21
19.125648
 31
0.0
  0
LINE
  5
1C9
330
1E
100
AcDbEntity
  8
OBJECT
100
AcDbLine
 10
16.300546
 20
19.125648
 30
0.0
 11
4.300545999999999
 21
19.125648
 31
0.0
  0
LINE
  5
1CA
330
1E
100
AcDbEntity
  8
OBJECT
100
AcDbLine
 10
4.300545999999999
 20
19.125648
 30
0.0
 11
4.300545999999999
 21
13.125648
 31
0.0
  0
LINE
  5
1CB
330
1E
100
AcDbEntity
  8
OBJECT
100
AcDbLine
 10
4.300545999999999
 20
13.125648
 30
0.0
 11
16.300546
 21
13.125648
 31
0.0
  0
LINE
  5
1CC
330
1E
100
AcDbEntity
  8
OBJECT
100
AcDbLine
 10
15.80054599999999
 20
13.125648
 30
0.0
 11
15.80054599999999
 21
18.625648
 31
0.0
  0
LINE
  5
1CD
330
1E
100
AcDbEntity
  8
OBJECT
100
AcDbLine
 10
15.80054599999999
 20
18.625648
 30
0.0
 11
4.800545999999999
 21
18.625648
 31
0.0
  0
LINE
  5
1CE
330
1E
100
AcDbEntity
  8
OBJECT
100
AcDbLine
 10
4.800545999999999
 20
18.625648
 30
0.0
 11
4.800545999999999
 21
13.125648
 31
0.0
  0
LINE
  5
1CF
330
1E
100
AcDbEntity
  8
OBJECT
100
AcDbLine
 10
4.800545999999999
 20
18.625648
 30
0.0
 11
4.300545999999999
 21
19.125648
 31
0.0
  0
LINE
  5
1D0
330
1E
100
AcDbEntity
  8
OBJECT
100
AcDbLine
 10
15.80054599999999
 20
18.625648
 30
0.0
 11
16.300546
 21
19.125648
 31
0.0
  0
LINE
  5
1D1
330
1E
100
AcDbEntity
  8
HIDDEN
100
AcDbLine
 10
4.350545999999999
 20
19.075648
 30
0.0
 11
4.350545999999999
 21
13.175648
 31
0.0
  0
LINE
  5
1D2
330
1E
100
AcDbEntity
  8
HIDDEN
100
AcDbLine
 10
16.250546
 20
13.175648
 30
0.0
 11
16.250546
 21
19.075648
 31
0.0
  0
LINE
  5
1D3
330
1E
100
AcDbEntity
  8
HIDDEN
100
AcDbLine
 10
4.350545999999999
 20
13.175648
 30
0.0
 11
4.731569999999999
 21
13.175648
 31
0.0
  0
LINE
  5
1D4
330
1E
100
AcDbEntity
  8
OBJECT
100
AcDbLine
 10
4.800545999999999
 20
13.175648
 30
0.0
 11
15.80054599999999
 21
13.175648
 31
0.0
  0
LINE
  5
1D5
330
1E
100
AcDbEntity
  8
HIDDEN
100
AcDbLine
 10
15.85121
 20
13.175648
 30
0.0
 11
16.250546
 21
13.175648
 31
0.0
  0
LINE
  5
1D6
330
1E
100
AcDbEntity
  8
OBJECT
100
AcDbLine
 10
16.300546
 20
8.1879
 30
0.0
 11
4.300545999999999
 21
8.1879
 31
0.0
  0
LINE
  5
1D7
330
1E
100
AcDbEntity
  8
OBJECT
100
AcDbLine
 10
4.300545999999999
 20
10.6879
 30
0.0
 11
16.300546
 21
10.6879
 31
0.0
  0
LINE
  5
1D8
330
1E
100
AcDbEntity
  8
OBJECT
100
AcDbLine
 10
15.80054599999999
 20
8.6879
 30
0.0
 11
16.300546
 21
8.1879
 31
0.0
  0
LINE
  5
1D9
330
1E
100
AcDbEntity
  8
HIDDEN
100
AcDbLine
 10
16.250546
 20
8.237899999999999
 30
0.0
 11
4.350545999999999
 21
8.237899999999999
 31
0.0
  0
LINE
  5
1DA
330
1E
100
AcDbEntity
  8
OBJECT
100
AcDbLine
 10
15.80054599999999
 20
10.6879
 30
0.0
 11
15.80054599999999
 21
8.6879
 31
0.0
  0
LINE
  5
1DB
330
1E
100
AcDbEntity
  8
OBJECT
100
AcDbLine
 10
4.300545999999999
 20
8.1879
 30
0.0
 11
4.300545999999999
 21
10.6879
 31
0.0
  0
LINE
  5
1DC
330
1E
100
AcDbEntity
  8
OBJECT
100
AcDbLine
 10
4.800545999999999
 20
8.6879
 30
0.0
 11
4.800545999999999
 21
10.6879
 31
0.0
  0
LINE
  5
1DD
330
1E
100
AcDbEntity
  8
HIDDEN
100
AcDbLine
 10
4.350545999999999
 20
8.237899999999999
 30
0.0
 11
4.350545999999999
 21
10.6379
 31
0.0
  0
LINE
  5
1DE
330
1E
100
AcDbEntity
  8
HIDDEN
100
AcDbLine
 10
4.350545999999999
 20
10.6379
 30
0.0
 11
4.750545999999999
 21
10.6379
 31
0.0
  0
LINE
  5
1DF
330
1E
100
AcDbEntity
  8
OBJECT
100
AcDbLine
 10
15.80054599999999
 20
8.6879
 30
0.0
 11
4.800545999999999
 21
8.6879
 31
0.0
  0
LINE
  5
1E0
330
1E
100
AcDbEntity
  8
OBJECT
100
AcDbLine
 10
4.800545999999999
 20
8.6879
 30
0.0
 11
4.300545999999999
 21
8.1879
 31
0.0
  0
LINE
  5
1E1
330
1E
100
AcDbEntity
  8
OBJECT
100
AcDbLine
 10
16.300546
 20
10.6879
 30
0.0
 11
16.300546
 21
8.1879
 31
0.0
  0
LINE
  5
1E2
330
1E
100
AcDbEntity
  8
HIDDEN
100
AcDbLine
 10
16.250546
 20
10.6379
 30
0.0
 11
16.250546
 21
8.237899999999999
 31
0.0
  0
CIRCLE
  5
1E3
330
1E
100
AcDbEntity
  8
OBJECT
100
AcDbCircle
 10
10.300546
 20
8.4379
 30
0.0
 40
0.0545
  0
CIRCLE
  5
1E4
330
1E
100
AcDbEntity
  8
OBJECT
100
AcDbCircle
 10
4.956546
 20
8.4379
 30
0.0
 40
0.0545
  0
CIRCLE
  5
1E5
330
1E
100
AcDbEntity
  8
OBJECT
100
AcDbCircle
 10
15.644546
 20
8.4379
 30
0.0
 40
0.0545
  0
CIRCLE
  5
1E6
330
1E
100
AcDbEntity
  8
OBJECT
100
AcDbCircle
 10
4.956546
 20
18.875648
 30
0.0
 40
0.0545
  0
CIRCLE
  5
1E7
330
1E
100
AcDbEntity
  8
OBJECT
100
AcDbCircle
 10
10.300546
 20
18.875648
 30
0.0
 40
0.0545
  0
CIRCLE
  5
1E8
330
1E
100
AcDbEntity
  8
OBJECT
100
AcDbCircle
 10
15.644546
 20
18.875648
 30
0.0
 40
0.0545
  0
CIRCLE
  5
1E9
330
1E
100
AcDbEntity
  8
OBJECT
100
AcDbCircle
 10
16.050546
 20
14.875648
 30
0.0
 40
0.0545
  0
CIRCLE
  5
1EA
330
1E
100
AcDbEntity
  8
OBJECT
100
AcDbCircle
 10
4.550545999999999
 20
14.875648
 30
0.0
 40
0.0545
  0
LINE
  5
1EB
330
1E
100
AcDbEntity
  8
OBJECT
100
AcDbLine
 10
20.161364
 20
10.6879
 30
0.0
 11
26.161364
 21
10.6879
 31
0.0
  0
LINE
  5
1EC
330
1E
100
AcDbEntity
  8
OBJECT
100
AcDbLine
 10
26.161364
 20
10.6879
 30
0.0
 11
26.161364
 21
8.1879
 31
0.0
  0
LINE
  5
1ED
330
1E
100
AcDbEntity
  8
OBJECT
100
AcDbLine
 10
26.161364
 20
8.1879
 30
0.0
 11
20.161364
 21
8.1879
 31
0.0
  0
LINE
  5
1EE
330
1E
100
AcDbEntity
  8
OBJECT
100
AcDbLine
 10
20.161364
 20
8.1879
 30
0.0
 11
20.161364
 21
10.6879
 31
0.0
  0
LINE
  5
1EF
330
1E
100
AcDbEntity
  8
HIDDEN
100
AcDbLine
 10
20.211364
 20
10.6379
 30
0.0
 11
26.111364
 21
10.6379
 31
0.0
  0
LINE
  5
1F0
330
1E
100
AcDbEntity
  8
HIDDEN
100
AcDbLine
 10
20.211364
 20
8.237899999999999
 30
0.0
 11
20.211364
 21
10.6379
 31
0.0
  0
LINE
  5
1F1
330
1E
100
AcDbEntity
  8
HIDDEN
100
AcDbLine
 10
26.111364
 20
8.237899999999999
 30
0.0
 11
20.211364
 21
8.237899999999999
 31
0.0
  0
LINE
  5
1F2
330
1E
100
AcDbEntity
  8
OBJECT
100
AcDbLine
 10
26.111364
 20
10.6379
 30
0.0
 11
26.111364
 21
8.237899999999999
 31
0.0
  0
LINE
  5
1F3
330
1E
100
AcDbEntity
  8
HIDDEN
100
AcDbLine
 10
26.061364
 20
10.6379
 30
0.0
 11
26.061364
 21
8.237899999999999
 31
0.0
  0
LINE
  5
1F4
330
1E
100
AcDbEntity
  8
OBJECT
100
AcDbLine
 10
5.023545999999999
 20
9.9649
 30
0.0
 11
5.023545999999999
 21
8.6879
 31
0.0
  0
LINE
  5
1F5
330
1E
100
AcDbEntity
  8
HIDDEN
100
AcDbLine
 10
4.300545999999999
 20
8.2779
 30
0.0
 11
5.023545999999999
 21
8.2779
 31
0.0
  0
DIMENSION
  5
1F6
330
1E
100
AcDbEntity
  8
DIM
100
AcDbDimension
  2
*D31
 10
4.300545999999999
 20
11.49635399999999
 30
0.0
 11
10.300546
 21
11.49635399999999
 31
0.0
 70
    32
  1
A
 71
     5
 42
12.0
  3
STD
100
AcDbAlignedDimension
 13
16.300546
 23
10.6879
 33
0.0
 14
4.300545999999999
 24
10.6879
 34
0.0
100
AcDbRotatedDimension
  0
DIMENSION
  5
204
330
1E
100
AcDbEntity
  8
DIM
100
AcDbDimension
  2
*D32
 10
26.161364
 20
11.49635399999999
 30
0.0
 11
23.161364
 21
11.49635399999999
 31
0.0
 70
    32
  1
C
 71
     5
 42
6.0
  3
STD
100
AcDbAlignedDimension
 13
20.161364
 23
10.6879
 33
0.0
 14
26.161364
 24
10.6879
 34
0.0
 50
180.0
100
AcDbRotatedDimension
  0
TEXT
  5
212
330
1E
100
AcDbEntity
  8
TEXT
100
AcDbText
 10
0.855282
 20
43.999654
 30
0.0
 40
0.374573
  1
%%UMATERIAL:
 41
0.75
  7
TXT
100
AcDbText
  0
TEXT
  5
213
330
1E
100
AcDbEntity
  8
TEXT
100
AcDbText
 10
1.266746999999999
 20
43.375365
 30
0.0
 40
0.374573
  1
BASE & COVER
 41
0.75
  7
TXT
100
AcDbText
  0
TEXT
  5
214
330
1E
100
AcDbEntity
  8
TEXT
100
AcDbText
 10
0.855282
 20
42.118433
 30
0.0
 40
0.374573
  1
%%UFINISH:
 41
0.75
  7
TXT
100
AcDbText
  0
TEXT
  5
215
330
1E
100
AcDbEntity
  8
TEXT
100
AcDbText
 10
1.266746999999999
 20
41.494145
 30
0.0
 40
0.374573
  1
BASE & COVER
 41
0.75
  7
TXT
100
AcDbText
  0
TEXT
  5
216
330
1E
100
AcDbEntity
  8
TEXT
100
AcDbText
 10
6.806155999999999
 20
43.37410199999999
 30
0.0
 40
0.374573
  1
0.050 THICK ALUMINUM
 41
0.75
  7
TXT
100
AcDbText
  0
TEXT
  5
217
330
1E
100
AcDbEntity
  8
TEXT
100
AcDbText
 10
6.806155999999999
 20
41.49288199999999
 30
0.0
 40
0.374573
  1
NATURAL
 41
0.75
  7
TXT
100
AcDbText
  0
LINE
  5
218
330
1E
100
AcDbEntity
  8
TEXT
100
AcDbLine
 10
4.857836999999999
 20
43.37410199999999
 30
0.0
 11
6.518194999999999
 21
43.37410199999999
 31
0.0
  0
LINE
  5
219
330
1E
100
AcDbEntity
  8
TEXT
100
AcDbLine
 10
4.823784999999999
 20
41.493193
 30
0.0
 11
6.518194999999999
 21
41.493193
 31
0.0
  0
LINE
  5
21A
330
1E
100
AcDbEntity
  8
HIDDEN
100
AcDbLine
 10
4.331546
 20
26.652322
 30
0.0
 11
16.26954599999999
 21
26.652322
 31
0.0
  0
LINE
  5
21B
330
1E
100
AcDbEntity
  8
OBJECT
100
AcDbLine
 10
16.26954599999999
 20
24.202322
 30
0.0
 11
4.331546
 21
24.202322
 31
0.0
  0
LINE
  5
21C
330
1E
100
AcDbEntity
  8
OBJECT
100
AcDbLine
 10
4.331546
 20
26.702322
 30
0.0
 11
16.26954599999999
 21
26.702322
 31
0.0
  0
LINE
  5
21D
330
1E
100
AcDbEntity
  8
OBJECT
100
AcDbLine
 10
4.331546
 20
24.202322
 30
0.0
 11
4.331546
 21
26.702322
 31
0.0
  0
CIRCLE
  5
21E
330
1E
100
AcDbEntity
  8
OBJECT
100
AcDbCircle
 10
4.956546
 20
24.405322
 30
0.0
 40
0.102
  0
CIRCLE
  5
21F
330
1E
100
AcDbEntity
  8
OBJECT
100
AcDbCircle
 10
10.300546
 20
24.405322
 30
0.0
 40
0.102
  0
LINE
  5
220
330
1E
100
AcDbEntity
  8
OBJECT
100
AcDbLine
 10
20.161364
 20
26.652322
 30
0.0
 11
26.111364
 21
26.652322
 31
0.0
  0
LINE
  5
221
330
1E
100
AcDbEntity
  8
OBJECT
100
AcDbLine
 10
20.111364
 20
26.702322
 30
0.0
 11
26.111364
 21
26.702322
 31
0.0
  0
DIMENSION
  5
222
330
1E
100
AcDbEntity
  8
DIM
100
AcDbDimension
  2
*D33
 10
19.264532
 20
24.202322
 30
0.0
 11
19.26453199999999
 21
25.452322
 31
0.0
 70
   160
  1
F
 71
     5
 42
2.5
  3
DIM
100
AcDbAlignedDimension
 13
20.111364
 23
26.702322
 33
0.0
 14
20.111364
 24
24.202322
 34
0.0
 50
90.0
100
AcDbRotatedDimension
  0
LINE
  5
230
330
1E
100
AcDbEntity
  8
OBJECT
100
AcDbLine
 10
16.26954599999999
 20
26.702322
 30
0.0
 11
16.26954599999999
 21
24.202322
 31
0.0
  0
CIRCLE
  5
231
330
1E
100
AcDbEntity
  8
OBJECT
100
AcDbCircle
 10
15.644546
 20
24.405322
 30
0.0
 40
0.102
  0
LINE
  5
232
330
1E
100
AcDbEntity
  8
OBJECT
100
AcDbLine
 10
20.161364
 20
24.202322
 30
0.0
 11
20.161364
 21
26.652322
 31
0.0
  0
LINE
  5
233
330
1E
100
AcDbEntity
  8
OBJECT
100
AcDbLine
 10
20.111364
 20
24.202322
 30
0.0
 11
20.111364
 21
26.702322
 31
0.0
  0
LINE
  5
234
330
1E
100
AcDbEntity
  8
OBJECT
100
AcDbLine
 10
20.161364
 20
24.202322
 30
0.0
 11
20.111364
 21
24.202322
 31
0.0
  0
LINE
  5
235
330
1E
100
AcDbEntity
  8
OBJECT
100
AcDbLine
 10
26.111364
 20
26.652322
 30
0.0
 11
26.111364
 21
26.702322
 31
0.0
  0
LINE
  5
236
330
1E
100
AcDbEntity
  8
OBJECT
100
AcDbLine
 10
4.331546
 20
29.240778
 30
0.0
 11
16.26954599999999
 21
29.240778
 31
0.0
  0
LINE
  5
237
330
1E
100
AcDbEntity
  8
OBJECT
100
AcDbLine
 10
16.26954599999999
 20
35.240778
 30
0.0
 11
4.331546
 21
35.240778
 31
0.0
  0
LINE
  5
238
330
1E
100
AcDbEntity
  8
HIDDEN
100
AcDbLine
 10
4.331546
 20
29.290778
 30
0.0
 11
16.26954599999999
 21
29.290778
 31
0.0
  0
LINE
  5
239
330
1E
100
AcDbEntity
  8
OBJECT
100
AcDbLine
 10
4.331546
 20
35.240778
 30
0.0
 11
4.331546
 21
29.240778
 31
0.0
  0
CIRCLE
  5
23A
330
1E
100
AcDbEntity
  8
OBJECT
100
AcDbCircle
 10
4.549546
 20
31.037778
 30
0.0
 40
0.102
  0
CIRCLE
  5
23B
330
1E
100
AcDbEntity
  8
OBJECT
100
AcDbCircle
 10
4.956546
 20
35.037778
 30
0.0
 40
0.102
  0
CIRCLE
  5
23C
330
1E
100
AcDbEntity
  8
OBJECT
100
AcDbCircle
 10
10.300546
 20
35.037778
 30
0.0
 40
0.102
  0
LINE
  5
23D
330
1E
100
AcDbEntity
  8
OBJECT
100
AcDbLine
 10
16.26954599999999
 20
29.240778
 30
0.0
 11
16.26954599999999
 21
35.240778
 31
0.0
  0
CIRCLE
  5
23E
330
1E
100
AcDbEntity
  8
OBJECT
100
AcDbCircle
 10
16.05154599999999
 20
31.037778
 30
0.0
 40
0.102
  0
CIRCLE
  5
23F
330
1E
100
AcDbEntity
  8
OBJECT
100
AcDbCircle
 10
15.644546
 20
35.037778
 30
0.0
 40
0.102
  0
DIMENSION
  5
240
330
1E
100
AcDbEntity
  8
DIM
100
AcDbDimension
  2
*D34
 10
4.331546
 20
27.516952
 30
0.0
 11
10.300546
 21
27.516952
 31
0.0
 70
    32
  1
E
 71
     5
 42
11.93799999999999
  3
STD
100
AcDbAlignedDimension
 13
16.26954599999999
 23
26.702322
 33
0.0
 14
4.331546
 24
26.702322
 34
0.0
 50
180.0
100
AcDbRotatedDimension
  0
DIMENSION
  5
24E
330
1E
100
AcDbEntity
  8
DIM
100
AcDbDimension
  2
*D35
 10
26.111364
 20
27.551434
 30
0.0
 11
23.111364
 21
27.551434
 31
0.0
 70
    32
  1
G
 71
     5
 42
6.0
  3
STD
100
AcDbAlignedDimension
 13
20.111364
 23
26.702322
 33
0.0
 14
26.111364
 24
26.702322
 34
0.0
100
AcDbRotatedDimension
  0
LINE
  5
25C
330
1E
100
AcDbEntity
  8
HIDDEN
100
AcDbLine
 10
16.250546
 20
19.075648
 30
0.0
 11
4.350545999999999
 21
19.075648
 31
0.0
  0
LINE
  5
25D
330
1E
100
AcDbEntity
  8
OBJECT
100
AcDbLine
 10
4.800545999999999
 20
10.6379
 30
0.0
 11
15.80054599999999
 21
10.6379
 31
0.0
  0
LINE
  5
25E
330
1E
100
AcDbEntity
  8
OBJECT
100
AcDbLine
 10
4.800545999999999
 20
10.1879
 30
0.0
 11
5.023545999999999
 21
9.9649
 31
0.0
  0
LINE
  5
25F
330
1E
100
AcDbEntity
  8
OBJECT
100
AcDbLine
 10
15.57754599999999
 20
9.9649
 30
0.0
 11
15.57754599999999
 21
8.6879
 31
0.0
  0
LINE
  5
260
330
1E
100
AcDbEntity
  8
OBJECT
100
AcDbLine
 10
15.80054599999999
 20
10.1879
 30
0.0
 11
15.57754599999999
 21
9.9649
 31
0.0
  0
LINE
  5
261
330
1E
100
AcDbEntity
  8
HIDDEN
100
AcDbLine
 10
16.300546
 20
8.2779
 30
0.0
 11
15.57754599999999
 21
8.2779
 31
0.0
  0
LINE
  5
262
330
1E
100
AcDbEntity
  8
HIDDEN
100
AcDbLine
 10
16.250546
 20
19.025648
 30
0.0
 11
15.57754599999999
 21
19.025648
 31
0.0
  0
LINE
  5
263
330
1E
100
AcDbEntity
  8
HIDDEN
100
AcDbLine
 10
15.57754599999999
 20
19.075648
 30
0.0
 11
15.57754599999999
 21
19.025648
 31
0.0
  0
LINE
  5
264
330
1E
100
AcDbEntity
  8
HIDDEN
100
AcDbLine
 10
5.023545999999999
 20
19.075648
 30
0.0
 11
5.023545999999999
 21
19.025648
 31
0.0
  0
LINE
  5
265
330
1E
100
AcDbEntity
  8
HIDDEN
100
AcDbLine
 10
4.350545999999999
 20
19.025648
 30
0.0
 11
5.023545999999999
 21
19.025648
 31
0.0
  0
INSERT
  5
266
330
1E
100
AcDbEntity
  8
TITLE
100
AcDbBlockReference
  2
HB
 10
0.0
 20
0.0
 30
0.0
 41
3.0
 42
3.0
 43
3.0
  0
LINE
  5
267
330
1E
100
AcDbEntity
  8
TITLE
100
AcDbLine
 10
0.186
 20
0.8100000000000001
 30
0.0
 11
30.174
 21
0.8100000000000001
 31
0.0
  0
LINE
  5
268
330
1E
100
AcDbEntity
  8
TITLE
100
AcDbLine
 10
0.186
 20
1.434
 30
0.0
 11
30.174
 21
1.434
 31
0.0
  0
LINE
  5
269
330
1E
100
AcDbEntity
  8
TITLE
100
AcDbLine
 10
0.186
 20
2.058
 30
0.0
 11
30.174
 21
2.058
 31
0.0
  0
LINE
  5
26A
330
1E
100
AcDbEntity
  8
TITLE
100
AcDbLine
 10
0.186
 20
2.681999999999999
 30
0.0
 11
30.174
 21
2.681999999999999
 31
0.0
  0
LINE
  5
26B
330
1E
100
AcDbEntity
  8
TITLE
100
AcDbLine
 10
0.186
 20
3.306
 30
0.0
 11
30.174
 21
3.306
 31
0.0
  0
LINE
  5
26C
330
1E
100
AcDbEntity
  8
TITLE
100
AcDbLine
 10
0.186
 20
3.93
 30
0.0
 11
30.174
 21
3.93
 31
0.0
  0
LINE
  5
26D
330
1E
100
AcDbEntity
  8
TITLE
100
AcDbLine
 10
26.86199999999999
 20
0.186
 30
0.0
 11
26.86199999999999
 21
5.177999999999999
 31
0.0
  0
LINE
  5
26E
330
1E
100
AcDbEntity
  8
TITLE
100
AcDbLine
 10
23.54999999999999
 20
0.186
 30
0.0
 11
23.54999999999999
 21
5.177999999999999
 31
0.0
  0
LINE
  5
26F
330
1E
100
AcDbEntity
  8
TITLE
100
AcDbLine
 10
20.238
 20
0.186
 30
0.0
 11
20.238
 21
5.177999999999999
 31
0.0
  0
LINE
  5
270
330
1E
100
AcDbEntity
  8
TITLE
100
AcDbLine
 10
16.92599999999999
 20
0.186
 30
0.0
 11
16.92599999999999
 21
5.177999999999999
 31
0.0
  0
LINE
  5
271
330
1E
100
AcDbEntity
  8
TITLE
100
AcDbLine
 10
13.614
 20
0.186
 30
0.0
 11
13.614
 21
5.177999999999999
 31
0.0
  0
LINE
  5
272
330
1E
100
AcDbEntity
  8
TITLE
100
AcDbLine
 10
10.302
 20
0.186
 30
0.0
 11
10.302
 21
5.177999999999999
 31
0.0
  0
LINE
  5
273
330
1E
100
AcDbEntity
  8
TITLE
100
AcDbLine
 10
6.99
 20
0.186
 30
0.0
 11
6.99
 21
5.177999999999999
 31
0.0
  0
LINE
  5
274
330
1E
100
AcDbEntity
  8
TITLE
100
AcDbLine
 10
3.677999999999999
 20
0.186
 30
0.0
 11
3.677999999999999
 21
5.177999999999999
 31
0.0
  0
LINE
  5
275
330
1E
100
AcDbEntity
  8
TITLE
100
AcDbLine
 10
0.186
 20
5.177999999999999
 30
0.0
 11
30.174
 21
5.177999999999999
 31
0.0
  0
TEXT
  5
276
330
1E
100
AcDbEntity
  8
TEXT
100
AcDbText
 10
0.947625
 20
4.366499999999999
 30
0.0
 40
0.375
  1
PART No.
 41
0.75
  7
TXT
 72
     4
 11
1.932
 21
4.553999999999999
 31
0.0
100
AcDbText
  0
TEXT
  5
277
330
1E
100
AcDbEntity
  8
TEXT
100
AcDbText
 10
0.90075
 20
3.429499999999999
 30
0.0
 40
0.375
  1
CU-341-A
 41
0.75
  7
TXT
 72
     4
 11
1.932
 21
3.616999999999999
 31
0.0
100
AcDbText
  0
TEXT
  5
278
330
1E
100
AcDbEntity
  8
TEXT
100
AcDbText
 10
0.853875
 20
2.804499999999999
 30
0.0
 40
0.375
  1
CU-452-A
 41
0.75
  7
TXT
 72
     4
 11
1.932
 21
2.991999999999999
 31
0.0
100
AcDbText
  0
TEXT
  5
279
330
1E
100
AcDbEntity
  8
TEXT
100
AcDbText
 10
0.853875
 20
2.179499999999999
 30
0.0
 40
0.375
  1
CU-482-A
 41
0.75
  7
TXT
 72
     4
 11
1.932
 21
2.366999999999999
 31
0.0
100
AcDbText
  0
TEXT
  5
27A
330
1E
100
AcDbEntity
  8
TEXT
100
AcDbText
 10
0.853875
 20
1.554499999999999
 30
0.0
 40
0.375
  1
CU-592-A
 41
0.75
  7
TXT
 72
     4
 11
1.932
 21
1.741999999999999
 31
0.0
100
AcDbText
  0
TEXT
  5
27B
330
1E
100
AcDbEntity
  8
TEXT
100
AcDbText
 10
0.853875
 20
0.9294999999999999
 30
0.0
 40
0.375
  1
CU-622-A
 41
0.75
  7
TXT
 72
     4
 11
1.932
 21
1.116999999999999
 31
0.0
100
AcDbText
  0
TEXT
  5
27C
330
1E
100
AcDbEntity
  8
TEXT
100
AcDbText
 10
0.90075
 20
0.3045
 30
0.0
 40
0.375
  1
CU-712-A
 41
0.75
  7
TXT
 72
     4
 11
1.932
 21
0.4920000000000001
 31
0.0
100
AcDbText
  0
TEXT
  5
27D
330
1E
100
AcDbEntity
  8
TEXT
100
AcDbText
 10
5.240249999999999
 20
4.366499999999999
 30
0.0
 40
0.375
  1
A
 41
0.75
  7
TXT
 72
     4
 11
5.333999999999999
 21
4.553999999999999
 31
0.0
100
AcDbText
  0
TEXT
  5
27E
330
1E
100
AcDbEntity
  8
TEXT
100
AcDbText
 10
4.841812499999999
 20
3.429499999999999
 30
0.0
 40
0.375
  1
4.000
 41
0.75
  7
TXT
 72
     4
 11
5.333999999999999
 21
3.616999999999999
 31
0.0
100
AcDbText
  0
TEXT
  5
27F
330
1E
100
AcDbEntity
  8
TEXT
100
AcDbText
 10
4.841812499999999
 20
2.804499999999999
 30
0.0
 40
0.375
  1
5.000
 41
0.75
  7
TXT
 72
     4
 11
5.333999999999999
 21
2.991999999999999
 31
0.0
100
AcDbText
  0
TEXT
  5
280
330
1E
100
AcDbEntity
  8
TEXT
100
AcDbText
 10
4.841812499999999
 20
2.179499999999999
 30
0.0
 40
0.375
  1
8.000
 41
0.75
  7
TXT
 72
     4
 11
5.333999999999999
 21
2.366999999999999
 31
0.0
100
AcDbText
  0
TEXT
  5
281
330
1E
100
AcDbEntity
  8
TEXT
100
AcDbText
 10
4.818374999999999
 20
1.554499999999999
 30
0.0
 40
0.375
  1
9.500
 41
0.75
  7
TXT
 72
     4
 11
5.333999999999999
 21
1.741999999999999
 31
0.0
100
AcDbText
  0
TEXT
  5
282
330
1E
100
AcDbEntity
  8
TEXT
100
AcDbText
 10
4.748062499999999
 20
0.9294999999999999
 30
0.0
 40
0.375
  1
12.000
 41
0.75
  7
TXT
 72
     4
 11
5.333999999999999
 21
1.116999999999999
 31
0.0
100
AcDbText
  0
TEXT
  5
283
330
1E
100
AcDbEntity
  8
TEXT
100
AcDbText
 10
4.748062499999999
 20
0.3045
 30
0.0
 40
0.375
  1
15.000
 41
0.75
  7
TXT
 72
     4
 11
5.333999999999999
 21
0.4920000000000001
 31
0.0
100
AcDbText
  0
TEXT
  5
284
330
1E
100
AcDbEntity
  8
TEXT
100
AcDbText
 10
8.55225
 20
4.366499999999999
 30
0.0
 40
0.375
  1
B
 41
0.75
  7
TXT
 72
     4
 11
8.646
 21
4.553999999999999
 31
0.0
100
AcDbText
  0
TEXT
  5
285
330
1E
100
AcDbEntity
  8
TEXT
100
AcDbText
 10
8.17725
 20
3.429499999999999
 30
0.0
 40
0.375
  1
1.500
 41
0.75
  7
TXT
 72
     4
 11
8.646
 21
3.616999999999999
 31
0.0
100
AcDbText
  0
TEXT
  5
286
330
1E
100
AcDbEntity
  8
TEXT
100
AcDbText
 10
8.1538125
 20
2.804499999999999
 30
0.0
 40
0.375
  1
2.000
 41
0.75
  7
TXT
 72
     4
 11
8.646
 21
2.991999999999999
 31
0.0
100
AcDbText
  0
TEXT
  5
287
330
1E
100
AcDbEntity
  8
TEXT
100
AcDbText
 10
8.1538125
 20
2.179499999999999
 30
0.0
 40
0.375
  1
2.000
 41
0.75
  7
TXT
 72
     4
 11
8.646
 21
2.366999999999999
 31
0.0
100
AcDbText
  0
TEXT
  5
288
330
1E
100
AcDbEntity
  8
TEXT
100
AcDbText
 10
8.130375
 20
1.554499999999999
 30
0.0
 40
0.375
  1
2.500
 41
0.75
  7
TXT
 72
     4
 11
8.646
 21
1.741999999999999
 31
0.0
100
AcDbText
  0
TEXT
  5
289
330
1E
100
AcDbEntity
  8
TEXT
100
AcDbText
 10
8.130375
 20
0.9294999999999999
 30
0.0
 40
0.375
  1
2.500
 41
0.75
  7
TXT
 72
     4
 11
8.646
 21
1.116999999999999
 31
0.0
100
AcDbText
  0
TEXT
  5
28A
330
1E
100
AcDbEntity
  8
TEXT
100
AcDbText
 10
8.130375
 20
0.3045
 30
0.0
 40
0.375
  1
2.500
 41
0.75
  7
TXT
 72
     4
 11
8.646
 21
0.4920000000000001
 31
0.0
100
AcDbText
  0
TEXT
  5
28B
330
1E
100
AcDbEntity
  8
TEXT
100
AcDbText
 10
11.86425
 20
4.366499999999999
 30
0.0
 40
0.375
  1
C
 41
0.75
  7
TXT
 72
     4
 11
11.95799999999999
 21
4.553999999999999
 31
0.0
100
AcDbText
  0
TEXT
  5
28C
330
1E
100
AcDbEntity
  8
TEXT
100
AcDbText
 10
11.4658125
 20
3.429499999999999
 30
0.0
 40
0.375
  1
3.000
 41
0.75
  7
TXT
 72
     4
 11
11.95799999999999
 21
3.616999999999999
 31
0.0
100
AcDbText
  0
TEXT
  5
28D
330
1E
100
AcDbEntity
  8
TEXT
100
AcDbText
 10
11.4658125
 20
2.804499999999999
 30
0.0
 40
0.375
  1
4.000
 41
0.75
  7
TXT
 72
     4
 11
11.95799999999999
 21
2.991999999999999
 31
0.0
100
AcDbText
  0
TEXT
  5
28E
330
1E
100
AcDbEntity
  8
TEXT
100
AcDbText
 10
11.4658125
 20
2.179499999999999
 30
0.0
 40
0.375
  1
4.000
 41
0.75
  7
TXT
 72
     4
 11
11.95799999999999
 21
2.366999999999999
 31
0.0
100
AcDbText
  0
TEXT
  5
28F
330
1E
100
AcDbEntity
  8
TEXT
100
AcDbText
 10
11.4658125
 20
1.554499999999999
 30
0.0
 40
0.375
  1
5.000
 41
0.75
  7
TXT
 72
     4
 11
11.95799999999999
 21
1.741999999999999
 31
0.0
100
AcDbText
  0
TEXT
  5
290
330
1E
100
AcDbEntity
  8
TEXT
100
AcDbText
 10
11.4658125
 20
0.9294999999999999
 30
0.0
 40
0.375
  1
6.000
 41
0.75
  7
TXT
 72
     4
 11
11.95799999999999
 21
1.116999999999999
 31
0.0
100
AcDbText
  0
TEXT
  5
291
330
1E
100
AcDbEntity
  8
TEXT
100
AcDbText
 10
11.4658125
 20
0.3045
 30
0.0
 40
0.375
  1
7.000
 41
0.75
  7
TXT
 72
     4
 11
11.95799999999999
 21
0.4920000000000001
 31
0.0
100
AcDbText
  0
TEXT
  5
292
330
1E
100
AcDbEntity
  8
TEXT
100
AcDbText
 10
15.17624999999999
 20
4.366499999999999
 30
0.0
 40
0.375
  1
D
 41
0.75
  7
TXT
 72
     4
 11
15.27
 21
4.553999999999999
 31
0.0
100
AcDbText
  0
TEXT
  5
293
330
1E
100
AcDbEntity
  8
TEXT
100
AcDbText
 10
14.70749999999999
 20
0.9294999999999999
 30
0.0
 40
0.375
  1
5.344
 41
0.75
  7
TXT
 72
     4
 11
15.27
 21
1.116999999999999
 31
0.0
100
AcDbText
  0
TEXT
  5
294
330
1E
100
AcDbEntity
  8
TEXT
100
AcDbText
 10
14.70749999999999
 20
0.3045
 30
0.0
 40
0.375
  1
6.844
 41
0.75
  7
TXT
 72
     4
 11
15.27
 21
0.4920000000000001
 31
0.0
100
AcDbText
  0
TEXT
  5
295
330
1E
100
AcDbEntity
  8
TEXT
100
AcDbText
 10
18.48825
 20
4.366499999999999
 30
0.0
 40
0.375
  1
E
 41
0.75
  7
TXT
 72
     4
 11
18.582
 21
4.553999999999999
 31
0.0
100
AcDbText
  0
TEXT
  5
296
330
1E
100
AcDbEntity
  8
TEXT
100
AcDbText
 10
18.0195
 20
3.429499999999999
 30
0.0
 40
0.375
  1
3.938
 41
0.75
  7
TXT
 72
     4
 11
18.582
 21
3.616999999999999
 31
0.0
100
AcDbText
  0
TEXT
  5
297
330
1E
100
AcDbEntity
  8
TEXT
100
AcDbText
 10
18.0195
 20
2.804499999999999
 30
0.0
 40
0.375
  1
4.938
 41
0.75
  7
TXT
 72
     4
 11
18.582
 21
2.991999999999999
 31
0.0
100
AcDbText
  0
TEXT
  5
298
330
1E
100
AcDbEntity
  8
TEXT
100
AcDbText
 10
18.0195
 20
2.179499999999999
 30
0.0
 40
0.375
  1
7.938
 41
0.75
  7
TXT
 72
     4
 11
18.582
 21
2.366999999999999
 31
0.0
100
AcDbText
  0
TEXT
  5
299
330
1E
100
AcDbEntity
  8
TEXT
100
AcDbText
 10
18.0195
 20
1.554499999999999
 30
0.0
 40
0.375
  1
9.438
 41
0.75
  7
TXT
 72
     4
 11
18.582
 21
1.741999999999999
 31
0.0
100
AcDbText
  0
TEXT
  5
29A
330
1E
100
AcDbEntity
  8
TEXT
100
AcDbText
 10
17.972625
 20
0.9294999999999999
 30
0.0
 40
0.375
  1
11.938
 41
0.75
  7
TXT
 72
     4
 11
18.582
 21
1.116999999999999
 31
0.0
100
AcDbText
  0
TEXT
  5
29B
330
1E
100
AcDbEntity
  8
TEXT
100
AcDbText
 10
17.92575
 20
0.3045
 30
0.0
 40
0.375
  1
14.938
 41
0.75
  7
TXT
 72
     4
 11
18.582
 21
0.4920000000000001
 31
0.0
100
AcDbText
  0
TEXT
  5
29C
330
1E
100
AcDbEntity
  8
TEXT
100
AcDbText
 10
21.80025
 20
4.366499999999999
 30
0.0
 40
0.375
  1
F
 41
0.75
  7
TXT
 72
     4
 11
21.894
 21
4.553999999999999
 31
0.0
100
AcDbText
  0
TEXT
  5
29D
330
1E
100
AcDbEntity
  8
TEXT
100
AcDbText
 10
21.42525
 20
3.429499999999999
 30
0.0
 40
0.375
  1
1.500
 41
0.75
  7
TXT
 72
     4
 11
21.894
 21
3.616999999999999
 31
0.0
100
AcDbText
  0
TEXT
  5
29E
330
1E
100
AcDbEntity
  8
TEXT
100
AcDbText
 10
21.4018125
 20
2.804499999999999
 30
0.0
 40
0.375
  1
2.000
 41
0.75
  7
TXT
 72
     4
 11
21.894
 21
2.991999999999999
 31
0.0
100
AcDbText
  0
TEXT
  5
29F
330
1E
100
AcDbEntity
  8
TEXT
100
AcDbText
 10
21.4018125
 20
2.179499999999999
 30
0.0
 40
0.375
  1
2.000
 41
0.75
  7
TXT
 72
     4
 11
21.894
 21
2.366999999999999
 31
0.0
100
AcDbText
  0
TEXT
  5
2A0
330
1E
100
AcDbEntity
  8
TEXT
100
AcDbText
 10
21.378375
 20
1.554499999999999
 30
0.0
 40
0.375
  1
2.500
 41
0.75
  7
TXT
 72
     4
 11
21.894
 21
1.741999999999999
 31
0.0
100
AcDbText
  0
TEXT
  5
2A1
330
1E
100
AcDbEntity
  8
TEXT
100
AcDbText
 10
21.378375
 20
0.9294999999999999
 30
0.0
 40
0.375
  1
2.500
 41
0.75
  7
TXT
 72
     4
 11
21.894
 21
1.116999999999999
 31
0.0
100
AcDbText
  0
TEXT
  5
2A2
330
1E
100
AcDbEntity
  8
TEXT
100
AcDbText
 10
21.378375
 20
0.3045
 30
0.0
 40
0.375
  1
2.500
 41
0.75
  7
TXT
 72
     4
 11
21.894
 21
0.4920000000000001
 31
0.0
100
AcDbText
  0
TEXT
  5
2A3
330
1E
100
AcDbEntity
  8
TEXT
100
AcDbText
 10
25.11225
 20
4.366499999999999
 30
0.0
 40
0.375
  1
G
 41
0.75
  7
TXT
 72
     4
 11
25.20599999999999
 21
4.553999999999999
 31
0.0
100
AcDbText
  0
TEXT
  5
2A4
330
1E
100
AcDbEntity
  8
TEXT
100
AcDbText
 10
24.7138125
 20
3.429499999999999
 30
0.0
 40
0.375
  1
3.000
 41
0.75
  7
TXT
 72
     4
 11
25.20599999999999
 21
3.616999999999999
 31
0.0
100
AcDbText
  0
TEXT
  5
2A5
330
1E
100
AcDbEntity
  8
TEXT
100
AcDbText
 10
24.7138125
 20
2.804499999999999
 30
0.0
 40
0.375
  1
4.000
 41
0.75
  7
TXT
 72
     4
 11
25.20599999999999
 21
2.991999999999999
 31
0.0
100
AcDbText
  0
TEXT
  5
2A6
330
1E
100
AcDbEntity
  8
TEXT
100
AcDbText
 10
24.7138125
 20
2.179499999999999
 30
0.0
 40
0.375
  1
4.000
 41
0.75
  7
TXT
 72
     4
 11
25.20599999999999
 21
2.366999999999999
 31
0.0
100
AcDbText
  0
TEXT
  5
2A7
330
1E
100
AcDbEntity
  8
TEXT
100
AcDbText
 10
24.7138125
 20
1.554499999999999
 30
0.0
 40
0.375
  1
5.000
 41
0.75
  7
TXT
 72
     4
 11
25.20599999999999
 21
1.741999999999999
 31
0.0
100
AcDbText
  0
TEXT
  5
2A8
330
1E
100
AcDbEntity
  8
TEXT
100
AcDbText
 10
24.7138125
 20
0.9294999999999999
 30
0.0
 40
0.375
  1
6.000
 41
0.75
  7
TXT
 72
     4
 11
25.20599999999999
 21
1.116999999999999
 31
0.0
100
AcDbText
  0
TEXT
  5
2A9
330
1E
100
AcDbEntity
  8
TEXT
100
AcDbText
 10
24.7138125
 20
0.3045
 30
0.0
 40
0.375
  1
7.000
 41
0.75
  7
TXT
 72
     4
 11
25.20599999999999
 21
0.4920000000000001
 31
0.0
100
AcDbText
  0
TEXT
  5
2AA
330
1E
100
AcDbEntity
  8
TEXT
100
AcDbText
 10
28.42425
 20
4.366499999999999
 30
0.0
 40
0.375
  1
H
 41
0.75
  7
TXT
 72
     4
 11
28.518
 21
4.553999999999999
 31
0.0
100
AcDbText
  0
TEXT
  5
2AB
330
1E
100
AcDbEntity
  8
TEXT
100
AcDbText
 10
28.002375
 20
1.554499999999999
 30
0.0
 40
0.375
  1
3.500
 41
0.75
  7
TXT
 72
     4
 11
28.518
 21
1.741999999999999
 31
0.0
100
AcDbText
  0
TEXT
  5
2AC
330
1E
100
AcDbEntity
  8
TEXT
100
AcDbText
 10
28.0258125
 20
0.9294999999999999
 30
0.0
 40
0.375
  1
4.000
 41
0.75
  7
TXT
 72
     4
 11
28.518
 21
1.116999999999999
 31
0.0
100
AcDbText
  0
TEXT
  5
2AD
330
1E
100
AcDbEntity
  8
TEXT
100
AcDbText
 10
28.002375
 20
0.3045
 30
0.0
 40
0.375
  1
4.500
 41
0.75
  7
TXT
 72
     4
 11
28.518
 21
0.4920000000000001
 31
0.0
100
AcDbText
  0
LINE
  5
2AE
330
1E
100
AcDbEntity
  8
TEXT
100
AcDbLine
 10
27.768
 20
3.616999999999999
 30
0.0
 11
29.268
 21
3.616999999999999
 31
0.0
  0
LINE
  5
2AF
330
1E
100
AcDbEntity
  8
TEXT
100
AcDbLine
 10
27.768
 20
2.993
 30
0.0
 11
29.268
 21
2.993
 31
0.0
  0
LINE
  5
2B0
330
1E
100
AcDbEntity
  8
TEXT
100
AcDbLine
 10
27.768
 20
2.369
 30
0.0
 11
29.268
 21
2.369
 31
0.0
  0
LINE
  5
2B1
330
1E
100
AcDbEntity
  8
TEXT
100
AcDbLine
 10
14.51999999999999
 20
2.369
 30
0.0
 11
16.02
 21
2.369
 31
0.0
  0
LINE
  5
2B2
330
1E
100
AcDbEntity
  8
TEXT
100
AcDbLine
 10
14.51999999999999
 20
2.993
 30
0.0
 11
16.02
 21
2.993
 31
0.0
  0
LINE
  5
2B3
330
1E
100
AcDbEntity
  8
TEXT
100
AcDbLine
 10
14.51999999999999
 20
3.616999999999999
 30
0.0
 11
16.02
 21
3.616999999999999
 31
0.0
  0
LINE
  5
2B4
330
1E
100
AcDbEntity
  8
TEXT
100
AcDbLine
 10
14.51999999999999
 20
1.745
 30
0.0
 11
16.02
 21
1.745
 31
0.0
  0
TEXT
  5
2B5
330
1E
100
AcDbEntity
  8
TEXT
100
AcDbText
 10
5.995499999999999
 20
45.37449999999999
 30
0.0
 40
0.625
  1
CONVERTA BOX
 41
0.75
  7
TXT
 72
     4
 11
8.807999999999999
 21
45.68699999999999
 31
0.0
100
AcDbText
  0
TEXT
  5
2B6
330
1E
100
AcDbEntity
  8
TEXT
100
AcDbText
 10
18.97312499999999
 20
45.37449999999999
 30
0.0
 40
0.625
  1
CU-341-A  TO  CU-712-A
 41
0.75
  7
TXT
 72
     4
 11
23.89499999999999
 21
45.68699999999999
 31
0.0
100
AcDbText
  0
DIMENSION
  5
2B7
330
1E
100
AcDbEntity
  8
DIM
100
AcDbDimension
  2
*D36
 10
10.300546
 20
7.107899999999999
 30
0.0
 11
12.972546
 21
7.107899999999999
 31
0.0
 70
    32
  1
D
 71
     5
 42
5.343999999999999
  3
STD
100
AcDbAlignedDimension
 13
15.644546
 23
8.4379
 33
0.0
 14
10.300546
 24
8.4379
 34
0.0
100
AcDbRotatedDimension
  0
DIMENSION
  5
2C5
330
1E
100
AcDbEntity
  8
DIM
100
AcDbDimension
  2
*D37
 10
4.956546
 20
7.107899999999999
 30
0.0
 11
7.628546
 21
7.107899999999999
 31
0.0
 70
    32
  1
D
 71
     5
 42
5.344
  3
STD
100
AcDbAlignedDimension
 13
10.300546
 23
8.4379
 33
0.0
 14
4.956546
 24
8.4379
 34
0.0
100
AcDbRotatedDimension
  0
DIMENSION
  5
2D3
330
1E
100
AcDbEntity
  8
DIM
100
AcDbDimension
  2
*D38
 10
16.300546
 20
7.107899999999999
 30
0.0
 11
18.1896085
 21
7.107899999999999
 31
0.0
 70
    32
 71
     5
 42
0.6560000000000006
  3
STD
100
AcDbAlignedDimension
 13
15.644546
 23
8.4379
 33
0.0
 14
16.300546
 24
8.1879
 34
0.0
100
AcDbRotatedDimension
  0
DIMENSION
  5
2E1
330
1E
100
AcDbEntity
  8
DIM
100
AcDbDimension
  2
*D39
 10
10.300546
 20
20.205648
 30
0.0
 11
12.972546
 21
20.205648
 31
0.0
 70
    32
  1
D
 71
     5
 42
5.343999999999999
  3
STD
100
AcDbAlignedDimension
 13
15.644546
 23
18.875648
 33
0.0
 14
10.300546
 24
18.875648
 34
0.0
 50
180.0
100
AcDbRotatedDimension
  0
DIMENSION
  5
2EF
330
1E
100
AcDbEntity
  8
DIM
100
AcDbDimension
  2
*D40
 10
4.956546
 20
20.205648
 30
0.0
 11
7.628546
 21
20.205648
 31
0.0
 70
    32
  1
D
 71
     5
 42
5.344
  3
STD
100
AcDbAlignedDimension
 13
10.300546
 23
18.875648
 33
0.0
 14
4.956546
 24
18.875648
 34
0.0
 50
180.0
100
AcDbRotatedDimension
  0
DIMENSION
  5
2FD
330
1E
100
AcDbEntity
  8
DIM
100
AcDbDimension
  2
*D41
 10
4.300545999999999
 20
20.205648
 30
0.0
 11
2.411483499999999
 21
20.205648
 31
0.0
 70
    32
 71
     5
 42
0.6560000000000006
  3
STD
100
AcDbAlignedDimension
 13
4.956546
 23
18.875648
 33
0.0
 14
4.300545999999999
 24
19.125648
 34
0.0
 50
180.0
100
AcDbRotatedDimension
  0
DIMENSION
  5
30B
330
1E
100
AcDbEntity
  8
DIM
100
AcDbDimension
  2
*D42
 10
3.626076
 20
8.187900000000002
 30
0.0
 11
2.300450999999998
 21
7.107900000000002
 31
0.0
 70
    32
 71
     5
 42
0.25
  3
STD
100
AcDbAlignedDimension
 13
4.956546
 23
8.4379
 33
0.0
 14
4.300545999999999
 24
8.1879
 34
0.0
 50
90.0
100
AcDbRotatedDimension
  0
DIMENSION
  5
319
330
1E
100
AcDbEntity
  8
DIM
100
AcDbDimension
  2
*D43
 10
4.300545999999999
 20
16.407412
 30
0.0
 11
1.848983499999999
 21
16.407412
 31
0.0
 70
    32
  1
<> TYP.
 71
     5
 42
0.5
  3
STD
100
AcDbAlignedDimension
 13
4.800545999999999
 23
16.671316
 33
0.0
 14
4.300545999999999
 24
16.671316
 34
0.0
100
AcDbRotatedDimension
  0
DIMENSION
  5
327
330
1E
100
AcDbEntity
  8
DIM
100
AcDbDimension
  2
*D44
 10
17.189217
 20
18.875648
 30
0.0
 11
17.189217
 21
16.875648
 31
0.0
 70
    32
  1
H
 71
     5
 42
4.0
  3
STD
100
AcDbAlignedDimension
 13
16.050546
 23
14.875648
 33
0.0
 14
15.644546
 24
18.875648
 34
0.0
 50
90.0
100
AcDbRotatedDimension
  0
DIMENSION
  5
335
330
1E
100
AcDbEntity
  8
DIM
100
AcDbDimension
  2
*D45
 10
17.189217
 20
19.125648
 30
0.0
 11
18.51484199999999
 21
20.205648
 31
0.0
 70
    32
 71
     5
 42
0.25
  3
STD
100
AcDbAlignedDimension
 13
15.644546
 23
18.875648
 33
0.0
 14
16.300546
 24
19.125648
 34
0.0
 50
90.0
100
AcDbRotatedDimension
  0
DIMENSION
  5
343
330
1E
100
AcDbEntity
  8
DIM
100
AcDbDimension
  2
*D46
 10
4.300545999999999
 20
12.455538
 30
0.0
 11
2.434920999999999
 21
12.455538
 31
0.0
 70
    32
 71
     5
 42
0.25
  3
STD
100
AcDbAlignedDimension
 13
4.550545999999999
 23
14.875648
 33
0.0
 14
4.300545999999999
 24
13.125648
 34
0.0
100
AcDbRotatedDimension
  0
DIMENSION
  5
351
330
1E
100
AcDbEntity
  8
DIM
100
AcDbDimension
  2
*D47
 10
16.300546
 20
12.455538
 30
0.0
 11
18.166171
 21
12.455538
 31
0.0
 70
    32
 71
     5
 42
0.25
  3
STD
100
AcDbAlignedDimension
 13
16.050546
 23
14.875648
 33
0.0
 14
16.300546
 24
13.125648
 34
0.0
100
AcDbRotatedDimension
  0
DIMENSION
  5
35F
330
1E
100
AcDbEntity
  8
DIM
100
AcDbDimension
  2
*D48
 10
10.300546
 20
23.075322
 30
0.0
 11
12.972546
 21
23.075322
 31
0.0
 70
    32
  1
D
 71
     5
 42
5.343999999999999
  3
STD
100
AcDbAlignedDimension
 13
15.644546
 23
24.405322
 33
0.0
 14
10.300546
 24
24.405322
 34
0.0
100
AcDbRotatedDimension
  0
DIMENSION
  5
36D
330
1E
100
AcDbEntity
  8
DIM
100
AcDbDimension
  2
*D49
 10
4.956546
 20
23.075322
 30
0.0
 11
7.628546
 21
23.075322
 31
0.0
 70
    32
  1
D
 71
     5
 42
5.344
  3
STD
100
AcDbAlignedDimension
 13
10.300546
 23
24.405322
 33
0.0
 14
4.956546
 24
24.405322
 34
0.0
100
AcDbRotatedDimension
  0
DIMENSION
  5
37B
330
1E
100
AcDbEntity
  8
DIM
100
AcDbDimension
  2
*D50
 10
16.26954599999999
 20
23.075322
 30
0.0
 11
18.15860849999999
 21
23.075322
 31
0.0
 70
    32
 71
     5
 42
0.6249999999999983
  3
STD
100
AcDbAlignedDimension
 13
15.644546
 23
24.405322
 33
0.0
 14
16.26954599999999
 24
24.202322
 34
0.0
100
AcDbRotatedDimension
  0
DIMENSION
  5
389
330
1E
100
AcDbEntity
  8
DIM
100
AcDbDimension
  2
*D51
 10
4.331546
 20
36.367778
 30
0.0
 11
2.4424835
 21
36.367778
 31
0.0
 70
    32
 71
     5
 42
0.625
  3
STD
100
AcDbAlignedDimension
 13
4.956546
 23
35.037778
 33
0.0
 14
4.331546
 24
35.240778
 34
0.0
 50
180.0
100
AcDbRotatedDimension
  0
DIMENSION
  5
397
330
1E
100
AcDbEntity
  8
DIM
100
AcDbDimension
  2
*D52
 10
4.956546
 20
36.367778
 30
0.0
 11
7.628546
 21
36.367778
 31
0.0
 70
    32
  1
D
 71
     5
 42
5.344
  3
STD
100
AcDbAlignedDimension
 13
10.300546
 23
35.037778
 33
0.0
 14
4.956546
 24
35.037778
 34
0.0
 50
180.0
100
AcDbRotatedDimension
  0
DIMENSION
  5
3A5
330
1E
100
AcDbEntity
  8
DIM
100
AcDbDimension
  2
*D53
 10
10.300546
 20
36.367778
 30
0.0
 11
12.972546
 21
36.367778
 31
0.0
 70
    32
  1
D
 71
     5
 42
5.343999999999999
  3
STD
100
AcDbAlignedDimension
 13
15.644546
 23
35.037778
 33
0.0
 14
10.300546
 24
35.037778
 34
0.0
 50
180.0
100
AcDbRotatedDimension
  0
DIMENSION
  5
3B3
330
1E
100
AcDbEntity
  8
DIM
100
AcDbDimension
  2
*D54
 10
19.264532
 20
8.187900000000002
 30
0.0
 11
19.26453199999999
 21
9.437900000000004
 31
0.0
 70
   160
  1
B
 71
     5
 42
2.5
  3
DIM
100
AcDbAlignedDimension
 13
20.161364
 23
10.6879
 33
0.0
 14
20.161364
 24
8.1879
 34
0.0
 50
270.0
100
AcDbRotatedDimension
  0
DIMENSION
  5
3C1
330
1E
100
AcDbEntity
  8
DIM
100
AcDbDimension
  2
*D55
 10
3.368823
 20
24.202322
 30
0.0
 11
2.043197999999996
 21
23.12232199999999
 31
0.0
 70
    32
 71
     5
 42
0.203000000000003
  3
STD
100
AcDbAlignedDimension
 13
4.956546
 23
24.405322
 33
0.0
 14
4.331546
 24
24.202322
 34
0.0
 50
90.0
100
AcDbRotatedDimension
  0
DIMENSION
  5
3CF
330
1E
100
AcDbEntity
  8
DIM
100
AcDbDimension
  2
*D56
 10
17.189217
 20
35.03777799999999
 30
0.0
 11
17.189217
 21
33.037778
 31
0.0
 70
    32
  1
H
 71
     5
 42
3.999999999999996
  3
STD
100
AcDbAlignedDimension
 13
16.05154599999999
 23
31.037778
 33
0.0
 14
15.644546
 24
35.037778
 34
0.0
 50
90.0
100
AcDbRotatedDimension
  0
DIMENSION
  5
3DD
330
1E
100
AcDbEntity
  8
DIM
100
AcDbDimension
  2
*D57
 10
17.189217
 20
35.240778
 30
0.0
 11
18.51484199999999
 21
36.32077800000001
 31
0.0
 70
    32
 71
     5
 42
0.2030000000000101
  3
STD
100
AcDbAlignedDimension
 13
15.644546
 23
35.037778
 33
0.0
 14
16.26954599999999
 24
35.240778
 34
0.0
 50
90.0
100
AcDbRotatedDimension
  0
DIMENSION
  5
3EB
330
1E
100
AcDbEntity
  8
DIM
100
AcDbDimension
  2
*D58
 10
4.331546
 20
28.674409
 30
0.0
 11
2.4893585
 21
28.674409
 31
0.0
 70
    32
 71
     5
 42
0.218
  3
STD
100
AcDbAlignedDimension
 13
4.549546
 23
31.037778
 33
0.0
 14
4.331546
 24
29.240778
 34
0.0
100
AcDbRotatedDimension
  0
DIMENSION
  5
3F9
330
1E
100
AcDbEntity
  8
DIM
100
AcDbDimension
  2
*D59
 10
16.26954599999999
 20
28.674409
 30
0.0
 11
18.11173349999999
 21
28.674409
 31
0.0
 70
    32
 71
     5
 42
0.218
  3
STD
100
AcDbAlignedDimension
 13
16.05154599999999
 23
31.037778
 33
0.0
 14
16.26954599999999
 24
29.240778
 34
0.0
100
AcDbRotatedDimension
  0
TEXT
  5
407
330
1E
100
AcDbEntity
  8
TEXT
100
AcDbText
 10
0.855282
 20
40.243433
 30
0.0
 40
0.375
  1
COVER ATTACHED WITH #6 SHEET METAL SCREWS.
 41
0.75
  7
TXT
100
AcDbText
  0
TEXT
  5
408
330
1E
100
AcDbEntity
  8
TEXT
100
AcDbText
 10
13.399394
 20
5.944976999999999
 30
0.0
 40
0.5
  1
%%uBASE
 41
0.75
  7
TXT
 72
     1
 11
14.093144
 21
5.944976999999999
 31
0.0
100
AcDbText
  0
TEXT
  5
409
330
1E
100
AcDbEntity
  8
TEXT
100
AcDbText
 10
13.149394
 20
21.923672
 30
0.0
 40
0.5
  1
%%uCOVER
 41
0.75
  7
TXT
 72
     1
 11
14.093144
 21
21.923672
 31
0.0
100
AcDbText
  0
LINE
  5
40A
330
1E
100
AcDbEntity
  8
OBJECT
100
AcDbLine
 10
25.029653
 20
32.247836
 30
0.0
 11
28.493755
 21
34.247836
 31
0.0
  0
LINE
  5
40B
330
1E
100
AcDbEntity
  8
OBJECT
100
AcDbLine
 10
28.493755
 20
34.247836
 30
0.0
 11
24.16362799999999
 21
36.747836
 31
0.0
  0
LINE
  5
40C
330
1E
100
AcDbEntity
  8
OBJECT
100
AcDbLine
 10
24.16362799999999
 20
36.747836
 30
0.0
 11
20.699526
 21
34.747836
 31
0.0
  0
LINE
  5
40D
330
1E
100
AcDbEntity
  8
OBJECT
100
AcDbLine
 10
20.699526
 20
34.747836
 30
0.0
 11
21.199526
 21
34.459161
 31
0.0
  0
LINE
  5
40E
330
1E
100
AcDbEntity
  8
OBJECT
100
AcDbLine
 10
25.029653
 20
32.247836
 30
0.0
 11
25.029653
 21
30.247836
 31
0.0
  0
LINE
  5
40F
330
1E
100
AcDbEntity
  8
OBJECT
100
AcDbLine
 10
25.029653
 20
30.247836
 30
0.0
 11
28.493755
 21
32.247836
 31
0.0
  0
LINE
  5
410
330
1E
100
AcDbEntity
  8
OBJECT
100
AcDbLine
 10
28.493755
 20
32.247836
 30
0.0
 11
28.493755
 21
34.247836
 31
0.0
  0
LINE
  5
411
330
1E
100
AcDbEntity
  8
OBJECT
100
AcDbLine
 10
20.699526
 20
34.747836
 30
0.0
 11
20.699526
 21
32.747836
 31
0.0
  0
LINE
  5
412
330
1E
100
AcDbEntity
  8
OBJECT
100
AcDbLine
 10
20.699526
 20
32.747836
 30
0.0
 11
25.029653
 21
30.247836
 31
0.0
  0
LINE
  5
413
330
1E
100
AcDbEntity
  8
OBJECT
100
AcDbLine
 10
25.029653
 20
39.33671799999999
 30
0.0
 11
25.029653
 21
37.33671799999999
 31
0.0
  0
LINE
  5
414
330
1E
100
AcDbEntity
  8
OBJECT
100
AcDbLine
 10
25.029653
 20
37.33671799999999
 30
0.0
 11
25.072954
 21
37.36171799999999
 31
0.0
  0
LINE
  5
415
330
1E
100
AcDbEntity
  8
OBJECT
100
AcDbLine
 10
20.699526
 20
39.83671799999999
 30
0.0
 11
25.029653
 21
37.33671799999999
 31
0.0
  0
LWPOLYLINE
  5
416
330
1E
100
AcDbEntity
  8
OBJECT
100
AcDbPolyline
 90
       16
 70
     1
 43
0.0
 10
24.311191
 20
37.92939699999999
 42
0.058752
 10
24.341393
 20
37.888914
 42
0.072341
 10
24.373653
 20
37.86345999999999
 42
0.106617
 10
24.410242
 20
37.851692
 42
0.156851
 10
24.436115
 20
37.85727199999999
 42
0.156851
 10
24.453884
 20
37.876888
 42
0.106617
 10
24.461988
 20
37.91446
 42
0.072341
 10
24.456073
 20
37.955125
 42
0.058752
 10
24.436115
 20
38.00152199999999
 42
0.058752
 10
24.405913
 20
38.04200499999999
 42
0.072341
 10
24.373653
 20
38.06746
 42
0.106617
 10
24.337064
 20
38.079227
 42
0.156851
 10
24.311191
 20
38.07364699999999
 42
0.156851
 10
24.293422
 20
38.054031
 42
0.106617
 10
24.285318
 20
38.01645999999999
 42
0.072341
 10
24.291233
 20
37.97579499999999
 42
0.058752
  0
LWPOLYLINE
  5
428
330
1E
100
AcDbEntity
  8
OBJECT
100
AcDbPolyline
 90
        5
 70
     0
 43
0.0
 10
24.354492
 20
37.954397
 42
0.058752
 10
24.384694
 20
37.913914
 42
0.072341
 10
24.416954
 20
37.88845999999999
 42
0.106617
 10
24.453544
 20
37.87669199999999
 42
0.001396
 10
24.453784
 20
37.876669
 42
0.156851
  0
LWPOLYLINE
  5
42F
330
1E
100
AcDbEntity
  8
OBJECT
100
AcDbPolyline
 90
        5
 70
     0
 43
0.0
 10
24.336823
 20
38.07925
 42
0.001396
 10
24.336723
 20
38.079031
 42
0.106617
 10
24.32862
 20
38.04146
 42
0.072341
 10
24.33453399999999
 20
38.000795
 42
0.058752
 10
24.354492
 20
37.954397
 42
0.058752
  0
LINE
  5
436
330
1E
100
AcDbEntity
  8
OBJECT
100
AcDbLine
 10
28.493755
 20
41.336718
 30
0.0
 11
24.16362799999999
 21
43.836718
 31
0.0
  0
LINE
  5
437
330
1E
100
AcDbEntity
  8
OBJECT
100
AcDbLine
 10
20.699526
 20
41.83671799999999
 30
0.0
 11
25.029653
 21
39.33671799999999
 31
0.0
  0
LINE
  5
438
330
1E
100
AcDbEntity
  8
OBJECT
100
AcDbLine
 10
24.16362799999999
 20
43.836718
 30
0.0
 11
20.699526
 21
41.83671799999999
 31
0.0
  0
LINE
  5
439
330
1E
100
AcDbEntity
  8
OBJECT
100
AcDbLine
 10
20.699526
 20
41.83671799999999
 30
0.0
 11
20.699526
 21
39.83671799999999
 31
0.0
  0
LWPOLYLINE
  5
43A
330
1E
100
AcDbEntity
  8
OBJECT
100
AcDbPolyline
 90
        5
 70
     0
 43
0.0
 10
21.31869599999999
 20
39.821767
 42
0.001396
 10
21.31859599999999
 20
39.82154699999999
 42
0.106617
 10
21.310493
 20
39.783976
 42
0.072341
 10
21.316407
 20
39.743311
 42
0.058752
 10
21.336365
 20
39.696914
 42
0.058752
  0
LWPOLYLINE
  5
441
330
1E
100
AcDbEntity
  8
OBJECT
100
AcDbPolyline
 90
        5
 70
     0
 43
0.0
 10
21.336365
 20
39.696914
 42
0.058752
 10
21.366567
 20
39.65643099999999
 42
0.072341
 10
21.398827
 20
39.630976
 42
0.106617
 10
21.435417
 20
39.619208
 42
0.001396
 10
21.43565699999999
 20
39.61918499999999
 42
0.156851
  0
LWPOLYLINE
  5
448
330
1E
100
AcDbEntity
  8
OBJECT
100
AcDbPolyline
 90
       16
 70
     1
 43
0.0
 10
21.293064
 20
39.671914
 42
0.058752
 10
21.323266
 20
39.63143099999999
 42
0.072341
 10
21.355526
 20
39.60597599999999
 42
0.106617
 10
21.392115
 20
39.594208
 42
0.156851
 10
21.417988
 20
39.599789
 42
0.156851
 10
21.435757
 20
39.619405
 42
0.106617
 10
21.44386
 20
39.656976
 42
0.072341
 10
21.437946
 20
39.69764099999999
 42
0.058752
 10
21.417988
 20
39.744038
 42
0.058752
 10
21.38778599999999
 20
39.784521
 42
0.072341
 10
21.355526
 20
39.809976
 42
0.106617
 10
21.318937
 20
39.821744
 42
0.156851
 10
21.293064
 20
39.816163
 42
0.156851
 10
21.275295
 20
39.79654699999999
 42
0.106617
 10
21.267191
 20
39.758976
 42
0.072341
 10
21.27310599999999
 20
39.718311
 42
0.058752
  0
LWPOLYLINE
  5
45A
330
1E
100
AcDbEntity
  8
OBJECT
100
AcDbPolyline
 90
       16
 70
     1
 43
0.0
 10
22.80212699999999
 20
38.800655
 42
0.058752
 10
22.83233
 20
38.76017199999999
 42
0.072341
 10
22.864589
 20
38.734718
 42
0.106617
 10
22.90117899999999
 20
38.72294999999999
 42
0.156851
 10
22.927051
 20
38.72853
 42
0.156851
 10
22.94481999999999
 20
38.74814699999999
 42
0.106617
 10
22.952924
 20
38.785718
 42
0.072341
 10
22.94701
 20
38.82638299999999
 42
0.058752
 10
22.927051
 20
38.87278
 42
0.058752
 10
22.896849
 20
38.913263
 42
0.072341
 10
22.864589
 20
38.938718
 42
0.106617
 10
22.828
 20
38.950485
 42
0.156851
 10
22.80212699999999
 20
38.94490499999999
 42
0.156851
 10
22.784358
 20
38.925289
 42
0.106617
 10
22.776255
 20
38.887718
 42
0.072341
 10
22.78216899999999
 20
38.847053
 42
0.058752
  0
LWPOLYLINE
  5
46C
330
1E
100
AcDbEntity
  8
OBJECT
100
AcDbPolyline
 90
        5
 70
     0
 43
0.0
 10
22.84542899999999
 20
38.825655
 42
0.058752
 10
22.87563099999999
 20
38.78517199999999
 42
0.072341
 10
22.907891
 20
38.759718
 42
0.106617
 10
22.94448
 20
38.74795
 42
0.001396
 10
22.94472
 20
38.747927
 42
0.156851
  0
LWPOLYLINE
  5
473
330
1E
100
AcDbEntity
  8
OBJECT
100
AcDbPolyline
 90
        5
 70
     0
 43
0.0
 10
22.82776
 20
38.950509
 42
0.001396
 10
22.82766
 20
38.95028899999999
 42
0.106617
 10
22.81955599999999
 20
38.912718
 42
0.072341
 10
22.82547099999999
 20
38.872053
 42
0.058752
 10
22.84542899999999
 20
38.825655
 42
0.058752
  0
LWPOLYLINE
  5
47A
330
1E
100
AcDbEntity
  8
OBJECT
100
AcDbPolyline
 90
        5
 70
     0
 43
0.0
 10
22.28299299999999
 20
42.408406
 42
0.001396
 10
22.282853
 20
42.408602
 42
0.106617
 10
22.254367
 20
42.434406
 42
0.072341
 10
22.21619299999999
 20
42.44961599999999
 42
0.058752
 10
22.166032
 20
42.455531
 42
0.058752
  0
LWPOLYLINE
  5
481
330
1E
100
AcDbEntity
  8
OBJECT
100
AcDbPolyline
 90
       16
 70
     1
 43
0.0
 10
22.166032
 20
42.505531
 42
0.058752
 10
22.11587199999999
 20
42.49961599999999
 42
0.072341
 10
22.077698
 20
42.484406
 42
0.106617
 10
22.049212
 20
42.458602
 42
0.156851
 10
22.041108
 20
42.43340599999999
 42
0.156851
 10
22.049212
 20
42.408209
 42
0.106617
 10
22.077698
 20
42.382406
 42
0.072341
 10
22.11587199999999
 20
42.367195
 42
0.058752
 10
22.166032
 20
42.361281
 42
0.058752
 10
22.21619299999999
 20
42.367195
 42
0.072341
 10
22.254367
 20
42.382406
 42
0.106617
 10
22.282853
 20
42.408209
 42
0.156851
 10
22.290956
 20
42.43340599999999
 42
0.156851
 10
22.282853
 20
42.458602
 42
0.106617
 10
22.254367
 20
42.484406
 42
0.072341
 10
22.21619299999999
 20
42.49961599999999
 42
0.058752
  0
LWPOLYLINE
  5
493
330
1E
100
AcDbEntity
  8
OBJECT
100
AcDbPolyline
 90
        5
 70
     0
 43
0.0
 10
22.166032
 20
42.455531
 42
0.058752
 10
22.11587199999999
 20
42.44961599999999
 42
0.072341
 10
22.077698
 20
42.434406
 42
0.106617
 10
22.049212
 20
42.408602
 42
0.001396
 10
22.049072
 20
42.408406
 42
0.156851
  0
LINE
  5
49A
330
1E
100
AcDbEntity
  8
OBJECT
100
AcDbLine
 10
25.029653
 20
39.33671799999999
 30
0.0
 11
28.493755
 21
41.336718
 31
0.0
  0
LWPOLYLINE
  5
49B
330
1E
100
AcDbEntity
  8
OBJECT
100
AcDbPolyline
 90
       16
 70
     1
 43
0.0
 10
26.063147
 20
40.25553099999999
 42
0.058752
 10
26.01298599999999
 20
40.249616
 42
0.072341
 10
25.974812
 20
40.23440599999999
 42
0.106617
 10
25.946326
 20
40.208602
 42
0.156851
 10
25.938223
 20
40.183406
 42
0.156851
 10
25.946326
 20
40.158209
 42
0.106617
 10
25.974812
 20
40.132406
 42
0.072341
 10
26.01298599999999
 20
40.117195
 42
0.058752
 10
26.063147
 20
40.11128099999999
 42
0.058752
 10
26.11330699999999
 20
40.117195
 42
0.072341
 10
26.151481
 20
40.132406
 42
0.106617
 10
26.179967
 20
40.158209
 42
0.156851
 10
26.188071
 20
40.183406
 42
0.156851
 10
26.179967
 20
40.208602
 42
0.106617
 10
26.151481
 20
40.23440599999999
 42
0.072341
 10
26.11330699999999
 20
40.249616
 42
0.058752
  0
LWPOLYLINE
  5
4AD
330
1E
100
AcDbEntity
  8
OBJECT
100
AcDbPolyline
 90
        5
 70
     0
 43
0.0
 10
26.180107
 20
40.15840599999999
 42
0.001396
 10
26.179967
 20
40.158602
 42
0.106617
 10
26.151481
 20
40.184406
 42
0.072341
 10
26.11330699999999
 20
40.199616
 42
0.058752
 10
26.063147
 20
40.20553099999999
 42
0.058752
  0
LWPOLYLINE
  5
4B4
330
1E
100
AcDbEntity
  8
OBJECT
100
AcDbPolyline
 90
        5
 70
     0
 43
0.0
 10
26.063147
 20
40.20553099999999
 42
0.058752
 10
26.01298599999999
 20
40.199616
 42
0.072341
 10
25.974812
 20
40.184406
 42
0.106617
 10
25.946326
 20
40.158602
 42
0.001396
 10
25.94618599999999
 20
40.15840599999999
 42
0.156851
  0
LINE
  5
4BB
330
1E
100
AcDbEntity
  8
OBJECT
100
AcDbLine
 10
28.493755
 20
41.286718
 30
0.0
 11
28.493755
 21
41.336718
 31
0.0
  0
LWPOLYLINE
  5
4BC
330
1E
100
AcDbEntity
  8
OBJECT
100
AcDbPolyline
 90
        5
 70
     0
 43
0.0
 10
27.621248
 20
41.612584
 42
0.058752
 10
27.571088
 20
41.60667
 42
0.072341
 10
27.532914
 20
41.59145999999999
 42
0.106617
 10
27.504428
 20
41.56565599999999
 42
0.001396
 10
27.50428799999999
 20
41.56545999999999
 42
0.156851
  0
LWPOLYLINE
  5
4C3
330
1E
100
AcDbEntity
  8
OBJECT
100
AcDbPolyline
 90
       16
 70
     1
 43
0.0
 10
27.621248
 20
41.662584
 42
0.058752
 10
27.571088
 20
41.65667
 42
0.072341
 10
27.532914
 20
41.64145999999999
 42
0.106617
 10
27.504428
 20
41.615656
 42
0.156851
 10
27.49632399999999
 20
41.59046
 42
0.156851
 10
27.504428
 20
41.565263
 42
0.106617
 10
27.532914
 20
41.53946
 42
0.072341
 10
27.571088
 20
41.52424899999999
 42
0.058752
 10
27.621248
 20
41.518335
 42
0.058752
 10
27.671409
 20
41.52424899999999
 42
0.072341
 10
27.709583
 20
41.53946
 42
0.106617
 10
27.738069
 20
41.565263
 42
0.156851
 10
27.74617199999999
 20
41.59046
 42
0.156851
 10
27.738069
 20
41.615656
 42
0.106617
 10
27.709583
 20
41.64145999999999
 42
0.072341
 10
27.671409
 20
41.65667
 42
0.058752
  0
LWPOLYLINE
  5
4D5
330
1E
100
AcDbEntity
  8
OBJECT
100
AcDbPolyline
 90
        5
 70
     0
 43
0.0
 10
27.738209
 20
41.56545999999999
 42
0.001396
 10
27.738069
 20
41.56565599999999
 42
0.106617
 10
27.709583
 20
41.59145999999999
 42
0.072341
 10
27.671409
 20
41.60667
 42
0.058752
 10
27.621248
 20
41.612584
 42
0.058752
  0
LWPOLYLINE
  5
4DC
330
1E
100
AcDbEntity
  8
OBJECT
100
AcDbPolyline
 90
        5
 70
     0
 43
0.0
 10
24.60312099999999
 20
43.35510099999999
 42
0.058752
 10
24.55296099999999
 20
43.34918599999999
 42
0.072341
 10
24.514787
 20
43.333976
 42
0.106617
 10
24.486301
 20
43.30817299999999
 42
0.001396
 10
24.486161
 20
43.307976
 42
0.156851
  0
LWPOLYLINE
  5
4E3
330
1E
100
AcDbEntity
  8
OBJECT
100
AcDbPolyline
 90
       16
 70
     1
 43
0.0
 10
24.60312099999999
 20
43.405101
 42
0.058752
 10
24.55296099999999
 20
43.39918599999999
 42
0.072341
 10
24.514787
 20
43.383976
 42
0.106617
 10
24.486301
 20
43.358173
 42
0.156851
 10
24.478197
 20
43.332976
 42
0.156851
 10
24.486301
 20
43.307779
 42
0.106617
 10
24.514787
 20
43.281976
 42
0.072341
 10
24.55296099999999
 20
43.26676599999999
 42
0.058752
 10
24.60312099999999
 20
43.260851
 42
0.058752
 10
24.653282
 20
43.26676599999999
 42
0.072341
 10
24.691456
 20
43.281976
 42
0.106617
 10
24.719942
 20
43.307779
 42
0.156851
 10
24.728045
 20
43.332976
 42
0.156851
 10
24.719942
 20
43.358173
 42
0.106617
 10
24.691456
 20
43.383976
 42
0.072341
 10
24.653282
 20
43.39918599999999
 42
0.058752
  0
LWPOLYLINE
  5
4F5
330
1E
100
AcDbEntity
  8
OBJECT
100
AcDbPolyline
 90
        5
 70
     0
 43
0.0
 10
24.720082
 20
43.307976
 42
0.001396
 10
24.719942
 20
43.30817299999999
 42
0.106617
 10
24.691456
 20
43.333976
 42
0.072341
 10
24.653282
 20
43.34918599999999
 42
0.058752
 10
24.60312099999999
 20
43.35510099999999
 42
0.058752
  0
LWPOLYLINE
  5
4FC
330
1E
100
AcDbEntity
  8
OBJECT
100
AcDbPolyline
 90
       16
 70
     1
 43
0.0
 10
26.112185
 20
42.53384299999999
 42
0.058752
 10
26.06202399999999
 20
42.527928
 42
0.072341
 10
26.02384999999999
 20
42.512718
 42
0.106617
 10
25.995364
 20
42.486914
 42
0.156851
 10
25.987261
 20
42.46171799999999
 42
0.156851
 10
25.995364
 20
42.436521
 42
0.106617
 10
26.02384999999999
 20
42.410718
 42
0.072341
 10
26.06202399999999
 20
42.395507
 42
0.058752
 10
26.112185
 20
42.389593
 42
0.058752
 10
26.162345
 20
42.395507
 42
0.072341
 10
26.20051899999999
 20
42.410718
 42
0.106617
 10
26.229005
 20
42.436521
 42
0.156851
 10
26.237109
 20
42.46171799999999
 42
0.156851
 10
26.229005
 20
42.486914
 42
0.106617
 10
26.20051899999999
 20
42.512718
 42
0.072341
 10
26.162345
 20
42.527928
 42
0.058752
  0
LWPOLYLINE
  5
50E
330
1E
100
AcDbEntity
  8
OBJECT
100
AcDbPolyline
 90
        5
 70
     0
 43
0.0
 10
26.229145
 20
42.436718
 42
0.001396
 10
26.229005
 20
42.436914
 42
0.106617
 10
26.20051899999999
 20
42.462718
 42
0.072341
 10
26.162345
 20
42.477928
 42
0.058752
 10
26.112185
 20
42.483843
 42
0.058752
  0
LWPOLYLINE
  5
515
330
1E
100
AcDbEntity
  8
OBJECT
100
AcDbPolyline
 90
        5
 70
     0
 43
0.0
 10
26.112185
 20
42.483843
 42
0.058752
 10
26.06202399999999
 20
42.477928
 42
0.072341
 10
26.02384999999999
 20
42.462718
 42
0.106617
 10
25.995364
 20
42.436914
 42
0.001396
 10
25.995224
 20
42.436718
 42
0.156851
  0
LINE
  5
51C
330
1E
100
AcDbEntity
  8
OBJECT
100
AcDbLine
 10
25.072954
 20
39.31171799999999
 30
0.0
 11
25.072954
 21
37.36171799999999
 31
0.0
  0
LINE
  5
51D
330
1E
100
AcDbEntity
  8
OBJECT
100
AcDbLine
 10
25.072954
 20
39.31171799999999
 30
0.0
 11
28.493755
 21
41.286718
 31
0.0
  0
LINE
  5
51E
330
1E
100
AcDbEntity
  8
OBJECT
100
AcDbLine
 10
24.529653
 20
32.53651099999999
 30
0.0
 11
27.493755
 21
34.247836
 31
0.0
  0
LINE
  5
51F
330
1E
100
AcDbEntity
  8
OBJECT
100
AcDbLine
 10
24.529653
 20
32.53651099999999
 30
0.0
 11
24.529653
 21
31.03651099999999
 31
0.0
  0
LINE
  5
520
330
1E
100
AcDbEntity
  8
OBJECT
100
AcDbLine
 10
21.199526
 20
34.459161
 30
0.0
 11
21.199526
 21
32.959161
 31
0.0
  0
LINE
  5
521
330
1E
100
AcDbEntity
  8
OBJECT
100
AcDbLine
 10
24.16362799999999
 20
36.17048599999999
 30
0.0
 11
21.199526
 21
34.459161
 31
0.0
  0
LINE
  5
522
330
1E
100
AcDbEntity
  8
OBJECT
100
AcDbLine
 10
27.493755
 20
34.247836
 30
0.0
 11
24.16362799999999
 21
36.17048599999999
 31
0.0
  0
LINE
  5
523
330
1E
100
AcDbEntity
  8
OBJECT
100
AcDbLine
 10
21.199526
 20
32.959161
 30
0.0
 11
24.529653
 21
31.03651099999999
 31
0.0
  0
LINE
  5
524
330
1E
100
AcDbEntity
  8
OBJECT
100
AcDbLine
 10
24.529653
 20
32.53651099999999
 30
0.0
 11
25.029653
 21
32.247836
 31
0.0
  0
LINE
  5
525
330
1E
100
AcDbEntity
  8
OBJECT
100
AcDbLine
 10
27.493755
 20
34.247836
 30
0.0
 11
28.493755
 21
34.247836
 31
0.0
  0
LINE
  5
526
330
1E
100
AcDbEntity
  8
OBJECT
100
AcDbLine
 10
24.529653
 20
31.03651099999999
 30
0.0
 11
25.029653
 21
30.247836
 31
0.0
  0
LINE
  5
527
330
1E
100
AcDbEntity
  8
OBJECT
100
AcDbLine
 10
21.199526
 20
32.959161
 30
0.0
 11
20.699526
 21
32.747836
 31
0.0
  0
LWPOLYLINE
  5
528
330
1E
100
AcDbEntity
  8
OBJECT
100
AcDbPolyline
 90
       16
 70
     1
 43
0.0
 10
21.322152
 20
32.599826
 42
0.058752
 10
21.338289
 20
32.578195
 42
0.072341
 10
21.355526
 20
32.564594
 42
0.106617
 10
21.375076
 20
32.558307
 42
0.156851
 10
21.38889999999999
 20
32.56128799999999
 42
0.156851
 10
21.398394
 20
32.57177
 42
0.106617
 10
21.402724
 20
32.591844
 42
0.072341
 10
21.399564
 20
32.61357199999999
 42
0.058752
 10
21.38889999999999
 20
32.63836299999999
 42
0.058752
 10
21.37276299999999
 20
32.659994
 42
0.072341
 10
21.355526
 20
32.673594
 42
0.106617
 10
21.335976
 20
32.679882
 42
0.156851
 10
21.322152
 20
32.6769
 42
0.156851
 10
21.312657
 20
32.66641899999999
 42
0.106617
 10
21.30832799999999
 20
32.646344
 42
0.072341
 10
21.311488
 20
32.624617
 42
0.058752
  0
LWPOLYLINE
  5
53A
330
1E
100
AcDbEntity
  8
OBJECT
100
AcDbPolyline
 90
        4
 70
     0
 43
0.0
 10
21.355526
 20
32.61909399999999
 42
0.058752
 10
21.371663
 20
32.597464
 42
0.072341
 10
21.38889999999999
 20
32.583863
 42
0.0673
 10
21.400976
 20
32.578911
 42
0.156851
  0
LWPOLYLINE
  5
540
330
1E
100
AcDbEntity
  8
OBJECT
100
AcDbPolyline
 90
        4
 70
     0
 43
0.0
 10
21.343451
 20
32.67854699999999
 42
0.0673
 10
21.34170199999999
 20
32.665613
 42
0.072341
 10
21.344862
 20
32.64388499999999
 42
0.058752
 10
21.355526
 20
32.61909399999999
 42
0.058752
  0
LWPOLYLINE
  5
546
330
1E
100
AcDbEntity
  8
OBJECT
100
AcDbPolyline
 90
        4
 70
     0
 43
0.0
 10
24.361578
 20
30.93602999999999
 42
0.0673
 10
24.359829
 20
30.92309699999999
 42
0.072341
 10
24.362989
 20
30.901369
 42
0.058752
 10
24.373653
 20
30.876578
 42
0.058752
  0
LWPOLYLINE
  5
54C
330
1E
100
AcDbEntity
  8
OBJECT
100
AcDbPolyline
 90
        4
 70
     0
 43
0.0
 10
24.373653
 20
30.876578
 42
0.058752
 10
24.38978999999999
 20
30.85494699999999
 42
0.072341
 10
24.407027
 20
30.84134699999999
 42
0.0673
 10
24.41910299999999
 20
30.836394
 42
0.156851
  0
LWPOLYLINE
  5
552
330
1E
100
AcDbEntity
  8
OBJECT
100
AcDbPolyline
 90
       16
 70
     1
 43
0.0
 10
24.340279
 20
30.857309
 42
0.058752
 10
24.356416
 20
30.835679
 42
0.072341
 10
24.373653
 20
30.822078
 42
0.106617
 10
24.393203
 20
30.81579
 42
0.156851
 10
24.407027
 20
30.81877199999999
 42
0.156851
 10
24.416521
 20
30.829253
 42
0.106617
 10
24.420851
 20
30.849328
 42
0.072341
 10
24.417691
 20
30.871056
 42
0.058752
 10
24.407027
 20
30.89584699999999
 42
0.058752
 10
24.39089
 20
30.917477
 42
0.072341
 10
24.373653
 20
30.931078
 42
0.106617
 10
24.354103
 20
30.93736599999999
 42
0.156851
 10
24.340279
 20
30.934384
 42
0.156851
 10
24.330784
 20
30.923903
 42
0.106617
 10
24.326455
 20
30.903828
 42
0.072341
 10
24.329615
 20
30.8821
 42
0.058752
  0
LWPOLYLINE
  5
564
330
1E
100
AcDbEntity
  8
OBJECT
100
AcDbPolyline
 90
        4
 70
     0
 43
0.0
 10
22.852514
 20
31.807289
 42
0.0673
 10
22.850765
 20
31.794355
 42
0.072341
 10
22.85392499999999
 20
31.772627
 42
0.058752
 10
22.864589
 20
31.747836
 42
0.058752
  0
LWPOLYLINE
  5
56A
330
1E
100
AcDbEntity
  8
OBJECT
100
AcDbPolyline
 90
        4
 70
     0
 43
0.0
 10
22.864589
 20
31.747836
 42
0.058752
 10
22.880727
 20
31.726206
 42
0.072341
 10
22.897964
 20
31.712605
 42
0.0673
 10
22.910039
 20
31.707653
 42
0.156851
  0
LWPOLYLINE
  5
570
330
1E
100
AcDbEntity
  8
OBJECT
100
AcDbPolyline
 90
       16
 70
     1
 43
0.0
 10
22.831215
 20
31.72856799999999
 42
0.058752
 10
22.84735299999999
 20
31.706937
 42
0.072341
 10
22.864589
 20
31.69333599999999
 42
0.106617
 10
22.88413999999999
 20
31.68704899999999
 42
0.156851
 10
22.897964
 20
31.69003
 42
0.156851
 10
22.90745799999999
 20
31.700511
 42
0.106617
 10
22.911788
 20
31.72058599999999
 42
0.072341
 10
22.908628
 20
31.742314
 42
0.058752
 10
22.897964
 20
31.76710499999999
 42
0.058752
 10
22.881826
 20
31.78873499999999
 42
0.072341
 10
22.864589
 20
31.80233599999999
 42
0.106617
 10
22.845039
 20
31.808624
 42
0.156851
 10
22.831215
 20
31.805642
 42
0.156851
 10
22.82172099999999
 20
31.795161
 42
0.106617
 10
22.817391
 20
31.77508599999999
 42
0.072341
 10
22.820551
 20
31.753358
 42
0.058752
  0
LWPOLYLINE
  5
582
330
1E
100
AcDbEntity
  8
OBJECT
100
AcDbPolyline
 90
       16
 70
     1
 43
0.0
 10
22.166032
 20
35.38306099999999
 42
0.058752
 10
22.139231
 20
35.379901
 42
0.072341
 10
22.118834
 20
35.371774
 42
0.106617
 10
22.103614
 20
35.357987
 42
0.156851
 10
22.099284
 20
35.344524
 42
0.156851
 10
22.103614
 20
35.33106099999999
 42
0.106617
 10
22.118834
 20
35.31727399999999
 42
0.072341
 10
22.139231
 20
35.30914699999999
 42
0.058752
 10
22.166032
 20
35.305987
 42
0.058752
 10
22.192834
 20
35.30914699999999
 42
0.072341
 10
22.213231
 20
35.31727399999999
 42
0.106617
 10
22.228451
 20
35.33106099999999
 42
0.156851
 10
22.23278099999999
 20
35.344524
 42
0.156851
 10
22.228451
 20
35.357987
 42
0.106617
 10
22.213231
 20
35.371774
 42
0.072341
 10
22.192834
 20
35.379901
 42
0.058752
  0
LWPOLYLINE
  5
594
330
1E
100
AcDbEntity
  8
OBJECT
100
AcDbPolyline
 90
        4
 70
     0
 43
0.0
 10
22.166032
 20
35.333061
 42
0.058752
 10
22.139231
 20
35.329901
 42
0.072341
 10
22.118834
 20
35.321774
 42
0.021526
 10
22.115297
 20
35.319524
 42
0.156851
  0
LWPOLYLINE
  5
59A
330
1E
100
AcDbEntity
  8
OBJECT
100
AcDbPolyline
 90
        4
 70
     0
 43
0.0
 10
22.216767
 20
35.319524
 42
0.021526
 10
22.213231
 20
35.321774
 42
0.072341
 10
22.192834
 20
35.329901
 42
0.058752
 10
22.166032
 20
35.333061
 42
0.058752
  0
LWPOLYLINE
  5
5A0
330
1E
100
AcDbEntity
  8
OBJECT
100
AcDbPolyline
 90
        4
 70
     0
 43
0.0
 10
24.653856
 20
36.21909399999999
 42
0.021526
 10
24.65032
 20
36.221344
 42
0.072341
 10
24.629923
 20
36.22947199999999
 42
0.058752
 10
24.60312099999999
 20
36.232632
 42
0.058752
  0
LWPOLYLINE
  5
5A6
330
1E
100
AcDbEntity
  8
OBJECT
100
AcDbPolyline
 90
       16
 70
     1
 43
0.0
 10
24.60312099999999
 20
36.282632
 42
0.058752
 10
24.57632
 20
36.27947199999999
 42
0.072341
 10
24.555923
 20
36.271344
 42
0.106617
 10
24.540702
 20
36.257557
 42
0.156851
 10
24.536373
 20
36.24409399999999
 42
0.156851
 10
24.540702
 20
36.230632
 42
0.106617
 10
24.555923
 20
36.216844
 42
0.072341
 10
24.57632
 20
36.208717
 42
0.058752
 10
24.60312099999999
 20
36.205557
 42
0.058752
 10
24.629923
 20
36.208717
 42
0.072341
 10
24.65032
 20
36.216844
 42
0.106617
 10
24.66554
 20
36.230632
 42
0.156851
 10
24.66987
 20
36.24409399999999
 42
0.156851
 10
24.66554
 20
36.257557
 42
0.106617
 10
24.65032
 20
36.271344
 42
0.072341
 10
24.629923
 20
36.27947199999999
 42
0.058752
  0
LWPOLYLINE
  5
5B8
330
1E
100
AcDbEntity
  8
OBJECT
100
AcDbPolyline
 90
        4
 70
     0
 43
0.0
 10
24.60312099999999
 20
36.232632
 42
0.058752
 10
24.57632
 20
36.22947199999999
 42
0.072341
 10
24.555923
 20
36.221344
 42
0.021526
 10
24.55238599999999
 20
36.21909399999999
 42
0.156851
  0
LWPOLYLINE
  5
5BE
330
1E
100
AcDbEntity
  8
OBJECT
100
AcDbPolyline
 90
        4
 70
     0
 43
0.0
 10
27.671983
 20
34.476578
 42
0.021526
 10
27.668447
 20
34.478828
 42
0.072341
 10
27.64805
 20
34.486955
 42
0.058752
 10
27.621248
 20
34.490115
 42
0.058752
  0
LWPOLYLINE
  5
5C4
330
1E
100
AcDbEntity
  8
OBJECT
100
AcDbPolyline
 90
       16
 70
     1
 43
0.0
 10
27.621248
 20
34.540115
 42
0.058752
 10
27.59444699999999
 20
34.536955
 42
0.072341
 10
27.57405
 20
34.528828
 42
0.106617
 10
27.558829
 20
34.51504099999999
 42
0.156851
 10
27.5545
 20
34.501578
 42
0.156851
 10
27.558829
 20
34.488115
 42
0.106617
 10
27.57405
 20
34.474328
 42
0.072341
 10
27.59444699999999
 20
34.466201
 42
0.058752
 10
27.621248
 20
34.46304099999999
 42
0.058752
 10
27.64805
 20
34.466201
 42
0.072341
 10
27.668447
 20
34.474328
 42
0.106617
 10
27.683667
 20
34.488115
 42
0.156851
 10
27.68799699999999
 20
34.501578
 42
0.156851
 10
27.683667
 20
34.51504099999999
 42
0.106617
 10
27.668447
 20
34.528828
 42
0.072341
 10
27.64805
 20
34.536955
 42
0.058752
  0
LWPOLYLINE
  5
5D6
330
1E
100
AcDbEntity
  8
OBJECT
100
AcDbPolyline
 90
        4
 70
     0
 43
0.0
 10
27.621248
 20
34.490115
 42
0.058752
 10
27.59444699999999
 20
34.486955
 42
0.072341
 10
27.57405
 20
34.478828
 42
0.021526
 10
27.570513
 20
34.476578
 42
0.156851
  0
LWPOLYLINE
  5
5DC
330
1E
100
AcDbEntity
  8
OBJECT
100
AcDbPolyline
 90
        4
 70
     0
 43
0.0
 10
26.113881
 20
33.069524
 42
0.021526
 10
26.110345
 20
33.071774
 42
0.072341
 10
26.089948
 20
33.079901
 42
0.058752
 10
26.063147
 20
33.083061
 42
0.058752
  0
LWPOLYLINE
  5
5E2
330
1E
100
AcDbEntity
  8
OBJECT
100
AcDbPolyline
 90
       16
 70
     1
 43
0.0
 10
26.063147
 20
33.133061
 42
0.058752
 10
26.036345
 20
33.129901
 42
0.072341
 10
26.015948
 20
33.121774
 42
0.106617
 10
26.00072799999999
 20
33.107987
 42
0.156851
 10
25.996398
 20
33.094524
 42
0.156851
 10
26.00072799999999
 20
33.08106099999999
 42
0.106617
 10
26.015948
 20
33.06727399999999
 42
0.072341
 10
26.036345
 20
33.05914699999999
 42
0.058752
 10
26.063147
 20
33.055987
 42
0.058752
 10
26.089948
 20
33.05914699999999
 42
0.072341
 10
26.110345
 20
33.06727399999999
 42
0.106617
 10
26.125565
 20
33.08106099999999
 42
0.156851
 10
26.129895
 20
33.094524
 42
0.156851
 10
26.125565
 20
33.107987
 42
0.106617
 10
26.110345
 20
33.121774
 42
0.072341
 10
26.089948
 20
33.129901
 42
0.058752
  0
LWPOLYLINE
  5
5F4
330
1E
100
AcDbEntity
  8
OBJECT
100
AcDbPolyline
 90
        4
 70
     0
 43
0.0
 10
26.063147
 20
33.083061
 42
0.058752
 10
26.036345
 20
33.079901
 42
0.072341
 10
26.015948
 20
33.071774
 42
0.021526
 10
26.012412
 20
33.069524
 42
0.156851
  0
LWPOLYLINE
  5
5FA
330
1E
100
AcDbEntity
  8
OBJECT
100
AcDbPolyline
 90
        4
 70
     0
 43
0.0
 10
26.162919
 20
35.347836
 42
0.021526
 10
26.15938299999999
 20
35.35008599999999
 42
0.072341
 10
26.138986
 20
35.358213
 42
0.058752
 10
26.112185
 20
35.36137399999999
 42
0.058752
  0
LWPOLYLINE
  5
600
330
1E
100
AcDbEntity
  8
OBJECT
100
AcDbPolyline
 90
       16
 70
     1
 43
0.0
 10
26.112185
 20
35.411374
 42
0.058752
 10
26.085383
 20
35.408213
 42
0.072341
 10
26.064986
 20
35.400086
 42
0.106617
 10
26.049766
 20
35.386299
 42
0.156851
 10
26.04543599999999
 20
35.372836
 42
0.156851
 10
26.049766
 20
35.359373
 42
0.106617
 10
26.064986
 20
35.34558599999999
 42
0.072341
 10
26.085383
 20
35.337459
 42
0.058752
 10
26.112185
 20
35.334299
 42
0.058752
 10
26.138986
 20
35.337459
 42
0.072341
 10
26.15938299999999
 20
35.34558599999999
 42
0.106617
 10
26.174603
 20
35.359373
 42
0.156851
 10
26.17893299999999
 20
35.372836
 42
0.156851
 10
26.174603
 20
35.386299
 42
0.106617
 10
26.15938299999999
 20
35.400086
 42
0.072341
 10
26.138986
 20
35.408213
 42
0.058752
  0
LWPOLYLINE
  5
612
330
1E
100
AcDbEntity
  8
OBJECT
100
AcDbPolyline
 90
        4
 70
     0
 43
0.0
 10
26.112185
 20
35.36137399999999
 42
0.058752
 10
26.085383
 20
35.358213
 42
0.072341
 10
26.064986
 20
35.35008599999999
 42
0.021526
 10
26.06145
 20
35.347836
 42
0.156851
  0
LINE
  5
618
330
1E
100
AcDbEntity
  8
OBJECT
100
AcDbLine
 10
26.218402
 20
33.511511
 30
0.0
 11
24.789764
 21
34.33633599999999
 31
0.0
  0
LINE
  5
619
330
1E
100
AcDbEntity
  8
OBJECT
100
AcDbLine
 10
24.746463
 20
34.31133599999999
 30
0.0
 11
24.120326
 21
34.672836
 31
0.0
  0
LINE
  5
61A
330
1E
100
AcDbEntity
  8
OBJECT
100
AcDbLine
 10
24.120326
 20
36.145486
 30
0.0
 11
24.120326
 21
34.672836
 31
0.0
  0
LINE
  5
61B
330
1E
100
AcDbEntity
  8
OBJECT
100
AcDbLine
 10
24.746463
 20
34.31133599999999
 30
0.0
 11
24.789764
 21
34.33633599999999
 31
0.0
  0
LINE
  5
61C
330
1E
100
AcDbEntity
  8
OBJECT
100
AcDbLine
 10
24.789764
 20
35.80898599999999
 30
0.0
 11
24.789764
 21
34.33633599999999
 31
0.0
  0
LINE
  5
61D
330
1E
100
AcDbEntity
  8
OBJECT
100
AcDbLine
 10
24.746463
 20
35.83398599999999
 30
0.0
 11
24.746463
 21
34.31133599999999
 31
0.0
  0
LINE
  5
61E
330
1E
100
AcDbEntity
  8
OBJECT
100
AcDbLine
 10
21.24282699999999
 20
33.011511
 30
0.0
 11
24.120326
 21
34.672836
 31
0.0
  0
LINE
  5
61F
330
1E
100
AcDbEntity
  8
CENTER
100
AcDbLine
 10
20.699526
 20
34.872836
 30
0.0
 11
20.699526
 21
39.711718
 31
0.0
  0
LINE
  5
620
330
1E
100
AcDbEntity
  8
CENTER
100
AcDbLine
 10
25.029653
 20
32.372836
 30
0.0
 11
25.029653
 21
37.211718
 31
0.0
  0
LINE
  5
621
330
1E
100
AcDbEntity
  8
CENTER
100
AcDbLine
 10
28.493755
 20
34.372836
 30
0.0
 11
28.493755
 21
41.161718
 31
0.0
  0
LINE
  5
622
330
1E
100
AcDbEntity
  8
HIDDEN
100
AcDbLine
 10
16.250546
 20
10.6379
 30
0.0
 11
15.850546
 21
10.6379
 31
0.0
  0
TEXT
  5
762
330
1E
100
AcDbEntity
  8
OBJECT
100
AcDbText
 10
26.28755575965971
 20
-0.4841049538139686
 30
0.0
 40
0.375
  1
REV. 29JUL09
 41
0.75
  7
TXT
100
AcDbText
  0
ENDSEC
  0
SECTION
  2
OBJECTS
  0
DICTIONARY
  5
C
330
0
100
AcDbDictionary
281
     1
  3
ACAD_GROUP
350
D
  3
ACAD_LAYOUT
350
19
  3
ACAD_MLINESTYLE
350
16
  3
ACAD_PLOTSETTINGS
350
18
  3
ACAD_PLOTSTYLENAME
350
E
  0
DICTIONARY
  5
D
102
{ACAD_REACTORS
330
C
102
}
330
C
100
AcDbDictionary
281
     1
  0
DICTIONARY
  5
19
102
{ACAD_REACTORS
330
C
102
}
330
C
100
AcDbDictionary
281
     1
  3
Layout1
350
1D
  3
Model
350
21
  0
DICTIONARY
  5
16
102
{ACAD_REACTORS
330
C
102
}
330
C
100
AcDbDictionary
281
     1
  3
Standard
350
17
  0
DICTIONARY
  5
18
102
{ACAD_REACTORS
330
C
102
}
330
C
100
AcDbDictionary
281
     1
  0
ACDBDICTIONARYWDFLT
  5
E
102
{ACAD_REACTORS
330
C
102
}
330
C
100
AcDbDictionary
281
     1
  3
Normal
350
F
100
AcDbDictionaryWithDefault
340
F
  0
LAYOUT
  5
1D
102
{ACAD_REACTORS
330
19
102
}
330
19
100
AcDbPlotSettings
  1

  2
None
  4

  6

 40
0.0
 41
0.0
 42
0.0
 43
0.0
 44
0.0
 45
0.0
 46
0.0
 47
0.0
 48
0.0
 49
0.0
140
0.0
141
0.0
142
1.0
143
1.0
 70
   688
 72
     0
 73
     0
 74
     5
  7
monochrome.ctb
 75
    16
147
1.0
148
0.0
149
0.0
100
AcDbLayout
  1
Layout1
 70
     1
 71
     1
 10
0.0
 20
0.0
 11
12.0
 21
9.0
 12
0.0
 22
0.0
 32
0.0
 14
1.000000000000000E+20
 24
1.000000000000000E+20
 34
1.000000000000000E+20
 15
-1.000000000000000E+20
 25
-1.000000000000000E+20
 35
-1.000000000000000E+20
146
0.0
 13
0.0
 23
0.0
 33
0.0
 16
1.0
 26
0.0
 36
0.0
 17
0.0
 27
1.0
 37
0.0
 76
     0
330
1A
  0
LAYOUT
  5
21
102
{ACAD_REACTORS
330
19
102
}
330
19
100
AcDbPlotSettings
  1

  2
none_device
  4
Letter_(8.50_x_11.00_Inches)
  6

 40
6.349999904632568
 41
6.349999904632568
 42
6.350006103515625
 43
6.350006103515625
 44
215.8999938964843
 45
279.3999938964843
 46
0.0
 47
0.0
 48
0.0
 49
0.0
140
0.0
141
0.0
142
1.0
143
1.0
 70
 11952
 72
     0
 73
     1
 74
     0
  7

 75
     0
147
1.0
148
217.1868514040823
149
18.3208293488628
100
AcDbLayout
  1
Model
 70
     1
 71
     0
 10
0.0
 20
0.0
 11
12.0
 21
9.0
 12
0.0
 22
0.0
 32
0.0
 14
0.0
 24
0.0
 34
0.0
 15
0.0
 25
0.0
 35
0.0
146
0.0
 13
0.0
 23
0.0
 33
0.0
 16
1.0
 26
0.0
 36
0.0
 17
0.0
 27
1.0
 37
0.0
 76
     0
330
1E
  0
MLINESTYLE
  5
17
102
{ACAD_REACTORS
330
16
102
}
330
16
100
AcDbMlineStyle
  2
STANDARD
 70
     0
  3

 62
   256
 51
90.0
 52
90.0
 71
     2
 49
0.5
 62
   256
  6
BYLAYER
 49
-0.5
 62
   256
  6
BYLAYER
  0
ACDBPLACEHOLDER
  5
F
102
{ACAD_REACTORS
330
E
102
}
330
E
  0
ENDSEC
  0
EOF
