  0
SECTION
  2
HEADER
  9
$ACADVER
  1
AC1009
  9
$INSBASE
 10
0.0
 20
0.0
 30
0.0
  9
$EXTMIN
 10
-0.0022886437390355
 20
-0.0015257624927045
 30
-0.0015258207003583
  9
$EXTMAX
 10
10.1200104750693
 20
15.50140388484742
 30
0.0000000349246037
  9
$LIMMIN
 10
0.0
 20
0.0
  9
$LIMMAX
 10
75.0
 20
50.0
  9
$ORTHOMODE
 70
     1
  9
$REGENMODE
 70
     1
  9
$FILLMODE
 70
     1
  9
$QTEXTMODE
 70
     0
  9
$MIRRTEXT
 70
     0
  9
$DRAGMODE
 70
     2
  9
$LTSCALE
 40
0.5
  9
$OSMODE
 70
    37
  9
$ATTMODE
 70
     1
  9
$TEXTSIZE
 40
0.187
  9
$TRACEWID
 40
0.05
  9
$TEXTSTYLE
  7
TXT
  9
$CLAYER
  8
OBJECT
  9
$CELTYPE
  6
BYLAYER
  9
$CECOLOR
 62
   256
  9
$DIMSCALE
 40
1.0
  9
$DIMASZ
 40
0.18
  9
$DIMEXO
 40
0.063
  9
$DIMDLI
 40
0.281
  9
$DIMRND
 40
0.0
  9
$DIMDLE
 40
0.0
  9
$DIMEXE
 40
0.093
  9
$DIMTP
 40
0.0
  9
$DIMTM
 40
0.0
  9
$DIMTXT
 40
0.125
  9
$DIMCEN
 40
0.09
  9
$DIMTSZ
 40
0.0
  9
$DIMTOL
 70
     0
  9
$DIMLIM
 70
     0
  9
$DIMTIH
 70
     1
  9
$DIMTOH
 70
     1
  9
$DIMSE1
 70
     0
  9
$DIMSE2
 70
     0
  9
$DIMTAD
 70
     0
  9
$DIMZIN
 70
     0
  9
$DIMBLK
  1

  9
$DIMASO
 70
     1
  9
$DIMSHO
 70
     1
  9
$DIMPOST
  1

  9
$DIMAPOST
  1

  9
$DIMALT
 70
     0
  9
$DIMALTD
 70
     2
  9
$DIMALTF
 40
25.399999999999999
  9
$DIMLFAC
 40
1.0
  9
$DIMTOFL
 70
     0
  9
$DIMTVP
 40
0.0
  9
$DIMTIX
 70
     0
  9
$DIMSOXD
 70
     0
  9
$DIMSAH
 70
     0
  9
$DIMBLK1
  1

  9
$DIMBLK2
  1

  9
$DIMSTYLE
  2
23NSTD
  9
$DIMCLRD
 70
     0
  9
$DIMCLRE
 70
     0
  9
$DIMCLRT
 70
     0
  9
$DIMTFAC
 40
1.0
  9
$DIMGAP
 40
0.09
  9
$LUNITS
 70
     2
  9
$LUPREC
 70
     3
  9
$SKETCHINC
 40
0.1
  9
$FILLETRAD
 40
0.0
  9
$AUNITS
 70
     0
  9
$AUPREC
 70
     0
  9
$MENU
  1
acad
  9
$ELEVATION
 40
0.0
  9
$PELEVATION
 40
0.0
  9
$THICKNESS
 40
0.0
  9
$LIMCHECK
 70
     0
  9
$BLIPMODE
 70
     0
  9
$CHAMFERA
 40
0.0
  9
$CHAMFERB
 40
0.0
  9
$SKPOLY
 70
     0
  9
$TDCREATE
 40
2451186.6803134261
  9
$TDUPDATE
 40
2451802.4131226391
  9
$TDINDWG
 40
0.3533801852
  9
$TDUSRTIMER
 40
0.3533801852
  9
$USRTIMER
 70
     1
  9
$ANGBASE
 50
0.0
  9
$ANGDIR
 70
     0
  9
$PDMODE
 70
     0
  9
$PDSIZE
 40
0.0
  9
$PLINEWID
 40
0.0
  9
$COORDS
 70
     0
  9
$SPLFRAME
 70
     0
  9
$SPLINETYPE
 70
     6
  9
$SPLINESEGS
 70
     8
  9
$ATTDIA
 70
     0
  9
$ATTREQ
 70
     1
  9
$HANDLING
 70
  4097
  9
$HANDSEED
  5
1436
  9
$SURFTAB1
 70
     6
  9
$SURFTAB2
 70
     6
  9
$SURFTYPE
 70
     6
  9
$SURFU
 70
     6
  9
$SURFV
 70
     6
  9
$UCSNAME
  2

  9
$UCSORG
 10
0.0
 20
0.0
 30
0.0
  9
$UCSXDIR
 10
1.0
 20
0.0
 30
0.0
  9
$UCSYDIR
 10
0.0
 20
1.0
 30
0.0
  9
$PUCSNAME
  2

  9
$PUCSORG
 10
0.0
 20
0.0
 30
0.0
  9
$PUCSXDIR
 10
1.0
 20
0.0
 30
0.0
  9
$PUCSYDIR
 10
0.0
 20
1.0
 30
0.0
  9
$USERI1
 70
     0
  9
$USERI2
 70
     0
  9
$USERI3
 70
     0
  9
$USERI4
 70
     0
  9
$USERI5
 70
     0
  9
$USERR1
 40
0.0
  9
$USERR2
 40
0.0
  9
$USERR3
 40
0.0
  9
$USERR4
 40
0.0
  9
$USERR5
 40
0.0
  9
$WORLDVIEW
 70
     1
  9
$SHADEDGE
 70
     3
  9
$SHADEDIF
 70
    70
  9
$TILEMODE
 70
     1
  9
$MAXACTVP
 70
    16
  9
$PLIMCHECK
 70
     0
  9
$PEXTMIN
 10
1.0000000000000000E+020
 20
1.0000000000000000E+020
 30
1.0000000000000000E+020
  9
$PEXTMAX
 10
-1.0000000000000000E+020
 20
-1.0000000000000000E+020
 30
-1.0000000000000000E+020
  9
$PLIMMIN
 10
0.0
 20
0.0
  9
$PLIMMAX
 10
12.0
 20
9.0
  9
$UNITMODE
 70
     0
  9
$VISRETAIN
 70
     0
  9
$PLINEGEN
 70
     0
  9
$PSLTSCALE
 70
     1
  0
ENDSEC
  0
SECTION
  2
TABLES
  0
TABLE
  2
VPORT
 70
     2
  0
VPORT
  2
*ACTIVE
 70
     0
 10
0.0
 20
0.0
 11
1.0
 21
1.0
 12
5.058860915665135
 22
7.7499390611773569
 13
0.0
 23
0.0
 14
1.0
 24
1.0
 15
0.0
 25
0.0
 16
0.0
 26
0.0
 36
1.0
 17
0.0
 27
0.0
 37
0.0
 40
15.6774466790175
 41
1.8139097744360899
 42
50.0
 43
0.0
 44
0.0
 50
0.0
 51
0.0
 71
     0
 72
   100
 73
     1
 74
     0
 75
     0
 76
     0
 77
     0
 78
     0
  0
ENDTAB
  0
TABLE
  2
LTYPE
 70
     7
  0
LTYPE
  2
CONTINUOUS
 70
     0
  3
Solid line
 72
    65
 73
     0
 40
0.0
  0
LTYPE
  2
HIDDEN
 70
     0
  3
_ _ _ _ _ _ _ _ _ _ _ _ _ _ _ _ _ _ _ _ _ _ _
 72
    65
 73
     2
 40
0.375
 49
0.25
 49
-0.125
  0
LTYPE
  2
PHANTOM
 70
     0
  3
_____ _ _ _____ _ _ _____ _ _ _____ _ _ ____
 72
    65
 73
     6
 40
2.5
 49
1.25
 49
-0.25
 49
0.25
 49
-0.25
 49
0.25
 49
-0.25
  0
LTYPE
  2
CENTER
 70
     0
  3
____ _ ____ _ ____ _ ____ _ ____ _ ____ _ ____
 72
    65
 73
     4
 40
2.0
 49
1.25
 49
-0.25
 49
0.25
 49
-0.25
  0
LTYPE
  2
HIDDEN2
 70
     0
  3
Hidden (.5x) _ _ _ _ _ _ _ _ _ _ _ _ _ _ _ _ _
 72
    65
 73
     2
 40
0.1875
 49
0.125
 49
-0.0625
  0
LTYPE
  2
PHANTOM2
 70
     0
  3
___ _ _ ___ _ _ ___ _ _ ___ _ _ ___ _ _ ___ _ _
 72
    65
 73
     6
 40
1.25
 49
0.625
 49
-0.125
 49
0.125
 49
-0.125
 49
0.125
 49
-0.125
  0
LTYPE
  2
CENTER2
 70
     0
  3
Center (.5x) ___ _ ___ _ ___ _ ___ _ ___ _ ___
 72
    65
 73
     4
 40
1.125
 49
0.75
 49
-0.125
 49
0.125
 49
-0.125
  0
ENDTAB
  0
TABLE
  2
LAYER
 70
     9
  0
LAYER
  2
0
 70
     0
 62
     7
  6
CONTINUOUS
  0
LAYER
  2
OBJECT
 70
     0
 62
     7
  6
CONTINUOUS
  0
LAYER
  2
DIM
 70
     0
 62
     7
  6
CONTINUOUS
  0
LAYER
  2
HIDDEN
 70
     0
 62
     7
  6
HIDDEN
  0
LAYER
  2
BEND
 70
     0
 62
     7
  6
PHANTOM
  0
LAYER
  2
TEXT
 70
     0
 62
     7
  6
CONTINUOUS
  0
LAYER
  2
TITLE
 70
     0
 62
     7
  6
CONTINUOUS
  0
LAYER
  2
CENTER
 70
     0
 62
     7
  6
CENTER
  0
LAYER
  2
DEFPOINTS
 70
     0
 62
     7
  6
CONTINUOUS
  0
ENDTAB
  0
TABLE
  2
STYLE
 70
     2
  0
STYLE
  2
STANDARD
 70
     0
 40
0.0
 41
1.0
 50
0.0
 71
     0
 42
0.2
  3
txt
  4

  0
STYLE
  2
TXT
 70
     0
 40
0.0
 41
0.75
 50
0.0
 71
     0
 42
0.187
  3
TXT.shx
  4

  0
ENDTAB
  0
TABLE
  2
VIEW
 70
     0
  0
ENDTAB
  0
TABLE
  2
UCS
 70
     0
  0
ENDTAB
  0
TABLE
  2
APPID
 70
     1
  0
APPID
  2
ACAD
 70
     0
  0
ENDTAB
  0
TABLE
  2
DIMSTYLE
 70
     3
  0
DIMSTYLE
  2
23NSTD
 70
     0
  3

  4

  5

  6

  7

 40
1.0
 41
0.18
 42
0.063
 43
0.281
 44
0.093
 45
0.0
 46
0.0
 47
0.0
 48
0.0
140
0.125
141
0.09
142
0.0
143
25.399999999999999
144
1.0
145
0.0
146
1.0
147
0.09
 71
     0
 72
     0
 73
     1
 74
     1
 75
     0
 76
     0
 77
     0
 78
     0
170
     0
171
     2
172
     0
173
     0
174
     0
175
     0
176
     0
177
     0
178
     0
  0
DIMSTYLE
  2
23NSTDI
 70
     0
  3

  4

  5

  6

  7

 40
1.0
 41
0.18
 42
0.063
 43
0.281
 44
0.093
 45
0.0
 46
0.0
 47
0.0
 48
0.0
140
0.125
141
0.09
142
0.0
143
25.399999999999999
144
1.0
145
0.0
146
1.0
147
0.09
 71
     0
 72
     0
 73
     1
 74
     1
 75
     0
 76
     0
 77
     0
 78
     0
170
     0
171
     2
172
     0
173
     0
174
     1
175
     0
176
     0
177
     0
178
     0
  0
DIMSTYLE
  2
STANDARD_WS
 70
     0
  3

  4

  5

  6

  7

 40
1.333333333333333
 41
0.18
 42
0.0625
 43
0.38
 44
0.18
 45
0.0
 46
0.0
 47
0.0
 48
0.0
140
0.18
141
0.09
142
0.0
143
25.399999999999999
144
1.0
145
0.0
146
1.0
147
0.09
 71
     0
 72
     0
 73
     1
 74
     1
 75
     0
 76
     0
 77
     0
 78
     0
170
     0
171
     2
172
     0
173
     0
174
     0
175
     0
176
     0
177
     0
178
     0
  0
ENDTAB
  0
ENDSEC
  0
SECTION
  2
BLOCKS
  0
BLOCK
  8
0
  2
$MODEL_SPACE
 70
     0
 10
0.0
 20
0.0
 30
0.0
  3
$MODEL_SPACE
  1

  0
ENDBLK
  5
FF7
  8
0
  0
BLOCK
 67
     1
  8
0
  2
$PAPER_SPACE
 70
     0
 10
0.0
 20
0.0
 30
0.0
  3
$PAPER_SPACE
  1

  0
ENDBLK
  5
FF3
 67
     1
  8
0
  0
BLOCK
  8
0
  2
HB
 70
     0
 10
0.0
 20
0.0
 30
0.0
  3
HB
  1

  0
TEXT
  5
1015
  8
TEXT
 10
0.2078333333333363
 20
15.06007919564008
 30
0.0
 40
0.125
  1
NAME
  7
TXT
 72
     1
 11
0.4370000000000031
 21
15.06007919564008
 31
0.0
  0
TEXT
  5
1016
  8
TEXT
 10
0.2078333333333363
 20
15.268412528973411
 30
0.0
 40
0.125
  1
PART
  7
TXT
 72
     1
 11
0.4370000000000031
 21
15.268412528973411
 31
0.0
  0
TEXT
  5
1017
  8
TEXT
 10
5.3719999999999981
 20
15.06007919564008
 30
0.0
 40
0.125
  1
No.
  7
TXT
 72
     1
 11
5.4969999999999981
 21
15.06007919564008
 31
0.0
  0
TEXT
  5
1018
  8
TEXT
 10
5.2678333333333311
 20
15.268412528973411
 30
0.0
 40
0.125
  1
PART
  7
TXT
 72
     1
 11
5.4969999999999981
 21
15.268412528973411
 31
0.0
  0
LINE
  5
1019
  8
TITLE
 10
5.8719999999999999
 20
15.438000000000001
 30
0.0
 11
5.8719999999999999
 21
15.019999999999991
 31
0.0
  0
LINE
  5
101A
  8
TITLE
 10
5.1219999999999999
 20
15.438000000000001
 30
0.0
 11
5.1219999999999999
 21
15.019999999999991
 31
0.0
  0
LINE
  5
101B
  8
TITLE
 10
5.0599999999999987
 20
15.438000000000001
 30
0.0
 11
5.0599999999999987
 21
15.019999999999991
 31
0.0
  0
LINE
  5
101C
  8
TITLE
 10
0.8120000000000029
 20
15.019999999999991
 30
0.0
 11
0.8120000000000009
 21
15.438000000000001
 31
0.0
  0
LINE
  5
101D
  8
TITLE
 10
0.0620000000000012
 20
15.019999999999991
 30
0.0
 11
10.058
 21
15.019999999999991
 31
0.0
  0
LINE
  5
101E
  8
TITLE
 10
10.058
 20
0.0619999999999994
 30
0.0
 11
0.0619999999999976
 21
0.0620000000000012
 31
0.0
  0
LINE
  5
101F
  8
TITLE
 10
10.058
 20
15.438000000000001
 30
0.0
 11
10.058
 21
0.0619999999999994
 31
0.0
  0
LINE
  5
1020
  8
TITLE
 10
0.0620000000000012
 20
15.438000000000001
 30
0.0
 11
10.058
 21
15.438000000000001
 31
0.0
  0
LINE
  5
1021
  8
TITLE
 10
0.0619999999999976
 20
0.0620000000000012
 30
0.0
 11
0.0620000000000012
 21
15.438000000000001
 31
0.0
  0
LINE
  5
1022
  8
TITLE
 10
0.0
 20
0.0
 30
0.0
 11
0.0
 21
15.5
 31
0.0
  0
LINE
  5
1023
  8
TITLE
 10
10.119999999999999
 20
-0.0000000000000018
 30
0.0
 11
0.0
 21
0.0
 31
0.0
  0
LINE
  5
1024
  8
TITLE
 10
10.119999999999999
 20
15.49999999999998
 30
0.0
 11
10.119999999999999
 21
-0.0000000000000018
 31
0.0
  0
LINE
  5
1025
  8
TITLE
 10
0.0
 20
15.5
 30
0.0
 11
10.119999999999999
 21
15.49999999999998
 31
0.0
  0
ENDBLK
  5
1026
  8
0
  0
BLOCK
  8
0
  2
*D3
 70
     1
 10
0.0
 20
0.0
 30
0.0
  3
*D3
  1

  0
LINE
  5
1029
  8
DIM
 62
     2
 10
1.4272225631736211
 20
11.77983404907503
 30
0.0
 11
0.2262741080446151
 21
11.77983404907503
 31
0.0
  0
LINE
  5
102A
  8
DIM
 62
     2
 10
1.4272225631736211
 20
9.7798340490750331
 30
0.0
 11
0.2262741080446146
 21
9.7798340490750331
 31
0.0
  0
LINE
  5
102B
  8
DIM
 62
     2
 10
0.3262741080446151
 20
11.599834049075019
 30
0.0
 11
0.326274108044615
 21
10.93233404907502
 31
0.0
  0
LINE
  5
102C
  8
DIM
 62
     2
 10
0.3262741080446148
 20
9.9598340490750328
 30
0.0
 11
0.3262741080446148
 21
10.62733404907503
 31
0.0
  0
SOLID
  5
102D
  8
DIM
 62
     2
 10
0.296274108044615
 20
11.599834049075019
 30
0.0
 11
0.3562741080446151
 21
11.599834049075019
 31
0.0
 12
0.3262741080446152
 22
11.77983404907503
 32
0.0
 13
0.3262741080446152
 23
11.77983404907503
 33
0.0
  0
SOLID
  5
102E
  8
DIM
 62
     2
 10
0.2962741080446147
 20
9.9598340490750328
 30
0.0
 11
0.3562741080446148
 21
9.9598340490750328
 31
0.0
 12
0.3262741080446147
 22
9.7798340490750331
 32
0.0
 13
0.3262741080446147
 23
9.7798340490750331
 33
0.0
  0
TEXT
  5
102F
  8
OBJECT
 62
     2
 10
0.1622116080446132
 20
10.717334049075021
 30
0.0
 40
0.125
  1
2.000
 41
0.75
  7
TXT
  0
POINT
  5
1030
  8
DEFPOINTS
 62
     0
 10
1.4897225631736211
 20
11.77983404907503
 30
0.0
  0
POINT
  5
1031
  8
DEFPOINTS
 62
     0
 10
1.4897225631736211
 20
9.7798340490750331
 30
0.0
  0
POINT
  5
1032
  8
DEFPOINTS
 62
     0
 10
0.3262741080446147
 20
9.7798340490750331
 30
0.0
  0
ENDBLK
  5
1033
  8
0
  0
BLOCK
  8
0
  2
*D4
 70
     1
 10
0.0
 20
0.0
 30
0.0
  3
*D4
  1

  0
LINE
  5
1036
  8
DIM
 62
     2
 10
6.6057225631736198
 20
8.2754386234813122
 30
0.0
 11
7.2405306776814617
 21
8.2754386234813122
 31
0.0
  0
LINE
  5
1037
  8
DIM
 62
     2
 10
6.6062225631736204
 20
8.3394386234813052
 30
0.0
 11
7.2405306776814617
 21
8.3394386234813052
 31
0.0
  0
LINE
  5
1038
  8
DIM
 62
     2
 10
7.1405306776814621
 20
8.0954386234813143
 30
0.0
 11
7.1405306776814621
 21
7.915438623481311
 31
0.0
  0
LINE
  5
1039
  8
DIM
 62
     2
 10
7.1405306776814621
 20
8.5194386234813049
 30
0.0
 11
7.1405306776814621
 21
8.6994386234813064
 31
0.0
  0
LINE
  5
103A
  8
DIM
 62
     2
 10
7.1405306776814621
 20
8.6994386234813064
 30
0.0
 11
7.3205306776814618
 21
8.6994386234813064
 31
0.0
  0
SOLID
  5
103B
  8
DIM
 62
     2
 10
7.1105306776814627
 20
8.0954386234813143
 30
0.0
 11
7.1705306776814641
 21
8.0954386234813143
 31
0.0
 12
7.1405306776814621
 22
8.2754386234813122
 32
0.0
 13
7.1405306776814621
 23
8.2754386234813122
 33
0.0
  0
SOLID
  5
103C
  8
DIM
 62
     2
 10
7.1105306776814627
 20
8.5194386234813049
 30
0.0
 11
7.1705306776814641
 21
8.5194386234813049
 31
0.0
 12
7.1405306776814621
 22
8.3394386234813052
 32
0.0
 13
7.1405306776814621
 23
8.3394386234813052
 33
0.0
  0
TEXT
  5
103D
  8
OBJECT
 62
     2
 10
7.4105306776814599
 20
8.6369386234813081
 30
0.0
 40
0.125
  1
0.063
 41
0.75
  7
TXT
  0
POINT
  5
103E
  8
DEFPOINTS
 62
     0
 10
6.5432225631736198
 20
8.2754386234813122
 30
0.0
  0
POINT
  5
103F
  8
DEFPOINTS
 62
     0
 10
6.5437225631736204
 20
8.3394386234813052
 30
0.0
  0
POINT
  5
1040
  8
DEFPOINTS
 62
     0
 10
7.1405306776814621
 20
8.3394386234813052
 30
0.0
  0
ENDBLK
  5
1041
  8
0
  0
BLOCK
  8
0
  2
*D5
 70
     1
 10
0.0
 20
0.0
 30
0.0
  3
*D5
  1

  0
LINE
  5
1044
  8
DIM
 62
     2
 10
6.7617225631736204
 20
11.61433404907503
 30
0.0
 11
6.7617225631736204
 21
13.048225817804431
 31
0.0
  0
LINE
  5
1045
  8
DIM
 62
     2
 10
1.26172256317362
 20
11.61433404907503
 30
0.0
 11
1.26172256317362
 21
13.048225817804431
 31
0.0
  0
LINE
  5
1046
  8
DIM
 62
     2
 10
6.5817225631736189
 20
12.948225817804429
 30
0.0
 11
4.2735975631736203
 21
12.948225817804429
 31
0.0
  0
LINE
  5
1047
  8
DIM
 62
     2
 10
1.441722563173619
 20
12.948225817804429
 30
0.0
 11
3.7498475631736201
 21
12.948225817804429
 31
0.0
  0
SOLID
  5
1048
  8
DIM
 62
     2
 10
6.5817225631736189
 20
12.978225817804439
 30
0.0
 11
6.5817225631736189
 21
12.918225817804441
 31
0.0
 12
6.7617225631736204
 22
12.948225817804429
 32
0.0
 13
6.7617225631736204
 23
12.948225817804429
 33
0.0
  0
SOLID
  5
1049
  8
DIM
 62
     2
 10
1.441722563173619
 20
12.978225817804439
 30
0.0
 11
1.441722563173619
 21
12.918225817804441
 31
0.0
 12
1.26172256317362
 22
12.948225817804429
 32
0.0
 13
1.26172256317362
 23
12.948225817804429
 33
0.0
  0
TEXT
  5
104A
  8
OBJECT
 62
     2
 10
3.83984756317362
 20
12.885725817804429
 30
0.0
 40
0.125
  1
5.500
 41
0.75
  7
TXT
  0
POINT
  5
104B
  8
DEFPOINTS
 62
     0
 10
6.7617225631736204
 20
11.551834049075021
 30
0.0
  0
POINT
  5
104C
  8
DEFPOINTS
 62
     0
 10
1.26172256317362
 20
11.551834049075021
 30
0.0
  0
POINT
  5
104D
  8
DEFPOINTS
 62
     0
 10
1.26172256317362
 20
12.948225817804429
 30
0.0
  0
ENDBLK
  5
104E
  8
0
  0
BLOCK
  8
0
  2
*D6
 70
     1
 10
0.0
 20
0.0
 30
0.0
  3
*D6
  1

  0
LINE
  5
1051
  8
DIM
 62
     2
 10
9.566860970645779
 20
11.71385902880775
 30
0.0
 11
9.566860970645779
 21
12.27983404907503
 31
0.0
  0
LINE
  5
1052
  8
DIM
 62
     2
 10
8.7668609706457801
 20
11.673233273935329
 30
0.0
 11
8.7668609706457801
 21
12.27983404907503
 31
0.0
  0
LINE
  5
1053
  8
DIM
 62
     2
 10
9.7468609706457787
 20
12.179834049075019
 30
0.0
 11
9.9268609706457784
 21
12.179834049075019
 31
0.0
  0
LINE
  5
1054
  8
DIM
 62
     2
 10
8.5868609706457786
 20
12.179834049075019
 30
0.0
 11
8.4068609706457789
 21
12.179834049075019
 31
0.0
  0
SOLID
  5
1055
  8
DIM
 62
     2
 10
9.7468609706457787
 20
12.20983404907502
 30
0.0
 11
9.7468609706457787
 21
12.149834049075031
 31
0.0
 12
9.566860970645779
 22
12.179834049075019
 32
0.0
 13
9.566860970645779
 23
12.179834049075019
 33
0.0
  0
SOLID
  5
1056
  8
DIM
 62
     2
 10
8.5868609706457786
 20
12.20983404907502
 30
0.0
 11
8.5868609706457786
 21
12.149834049075031
 31
0.0
 12
8.7668609706457801
 22
12.179834049075019
 32
0.0
 13
8.7668609706457801
 23
12.179834049075019
 33
0.0
  0
TEXT
  5
1057
  8
OBJECT
 62
     2
 10
9.0027984706457787
 20
12.117334049075019
 30
0.0
 40
0.125
  1
0.800
 41
0.75
  7
TXT
  0
POINT
  5
1058
  8
DEFPOINTS
 62
     0
 10
9.566860970645779
 20
11.65135902880775
 30
0.0
  0
POINT
  5
1059
  8
DEFPOINTS
 62
     0
 10
8.7668609706457801
 20
11.61073327393534
 30
0.0
  0
POINT
  5
105A
  8
DEFPOINTS
 62
     0
 10
8.7668609706457801
 20
12.179834049075019
 30
0.0
  0
ENDBLK
  5
105B
  8
0
  0
BLOCK
  8
0
  2
*D7
 70
     1
 10
0.0
 20
0.0
 30
0.0
  3
*D7
  1

  0
LINE
  5
105E
  8
DIM
 62
     2
 10
6.4505124189572278
 20
5.7708171847846703
 30
0.0
 11
6.4505124189572278
 21
7.5753171847846748
 31
0.0
  0
LINE
  5
105F
  8
DIM
 62
     2
 10
1.575512418957228
 20
5.7708171847846703
 30
0.0
 11
1.575512418957228
 21
7.5753171847846748
 31
0.0
  0
LINE
  5
1060
  8
DIM
 62
     2
 10
6.2705124189572281
 20
7.4753171847846751
 30
0.0
 11
4.2905124189572277
 21
7.4753171847846751
 31
0.0
  0
LINE
  5
1061
  8
DIM
 62
     2
 10
1.7555124189572291
 20
7.4753171847846751
 30
0.0
 11
3.735512418957228
 21
7.4753171847846751
 31
0.0
  0
SOLID
  5
1062
  8
DIM
 62
     2
 10
6.2705124189572281
 20
7.5053171847846754
 30
0.0
 11
6.2705124189572281
 21
7.4453171847846731
 31
0.0
 12
6.4505124189572278
 22
7.4753171847846751
 32
0.0
 13
6.4505124189572278
 23
7.4753171847846751
 33
0.0
  0
SOLID
  5
1063
  8
DIM
 62
     2
 10
1.7555124189572291
 20
7.5053171847846754
 30
0.0
 11
1.7555124189572291
 21
7.4453171847846731
 31
0.0
 12
1.575512418957228
 22
7.4753171847846751
 32
0.0
 13
1.575512418957228
 23
7.4753171847846751
 33
0.0
  0
TEXT
  5
1064
  8
OBJECT
 62
     2
 10
3.8255124189572278
 20
7.4128171847846751
 30
0.0
 40
0.125
  1
4.875
 41
0.75
  7
TXT
  0
POINT
  5
1065
  8
DEFPOINTS
 62
     0
 10
6.4505124189572278
 20
5.7083171847846703
 30
0.0
  0
POINT
  5
1066
  8
DEFPOINTS
 62
     0
 10
1.575512418957228
 20
5.7083171847846703
 30
0.0
  0
POINT
  5
1067
  8
DEFPOINTS
 62
     0
 10
1.575512418957228
 20
7.4753171847846751
 30
0.0
  0
ENDBLK
  5
1068
  8
0
  0
BLOCK
  8
0
  2
*D8
 70
     1
 10
0.0
 20
0.0
 30
0.0
  3
*D8
  1

  0
LINE
  5
106B
  8
DIM
 62
     2
 10
6.4505124189572278
 20
3.9808171847846712
 30
0.0
 11
6.4505124189572278
 21
2.1753171847846722
 31
0.0
  0
LINE
  5
106C
  8
DIM
 62
     2
 10
1.575512418957228
 20
3.9808171847846712
 30
0.0
 11
1.575512418957228
 21
2.1753171847846722
 31
0.0
  0
LINE
  5
106D
  8
DIM
 62
     2
 10
6.2705124189572281
 20
2.2753171847846709
 30
0.0
 11
4.2905124189572277
 21
2.2753171847846709
 31
0.0
  0
LINE
  5
106E
  8
DIM
 62
     2
 10
1.7555124189572291
 20
2.2753171847846709
 30
0.0
 11
3.735512418957228
 21
2.2753171847846709
 31
0.0
  0
SOLID
  5
106F
  8
DIM
 62
     2
 10
6.2705124189572281
 20
2.3053171847846721
 30
0.0
 11
6.2705124189572281
 21
2.245317184784672
 31
0.0
 12
6.4505124189572278
 22
2.2753171847846709
 32
0.0
 13
6.4505124189572278
 23
2.2753171847846709
 33
0.0
  0
SOLID
  5
1070
  8
DIM
 62
     2
 10
1.7555124189572291
 20
2.3053171847846721
 30
0.0
 11
1.7555124189572291
 21
2.245317184784672
 31
0.0
 12
1.575512418957228
 22
2.2753171847846709
 32
0.0
 13
1.575512418957228
 23
2.2753171847846709
 33
0.0
  0
TEXT
  5
1071
  8
OBJECT
 62
     2
 10
3.8255124189572278
 20
2.2128171847846709
 30
0.0
 40
0.125
  1
4.875
 41
0.75
  7
TXT
  0
POINT
  5
1072
  8
DEFPOINTS
 62
     0
 10
6.4505124189572278
 20
4.0433171847846712
 30
0.0
  0
POINT
  5
1073
  8
DEFPOINTS
 62
     0
 10
1.575512418957228
 20
4.0433171847846712
 30
0.0
  0
POINT
  5
1074
  8
DEFPOINTS
 62
     0
 10
1.575512418957228
 20
2.2753171847846709
 30
0.0
  0
ENDBLK
  5
1075
  8
0
  0
BLOCK
  8
0
  2
*D9
 70
     1
 10
0.0
 20
0.0
 30
0.0
  3
*D9
  1

  0
LINE
  5
1078
  8
DIM
 62
     2
 10
6.9250124189572304
 20
4.8753171847846719
 30
0.0
 11
7.362512418957226
 21
4.8753171847846719
 31
0.0
  0
LINE
  5
1079
  8
DIM
 62
     2
 10
6.2350124189572291
 20
5.390317184784676
 30
0.0
 11
7.3625124189572277
 21
5.390317184784676
 31
0.0
  0
LINE
  5
107A
  8
DIM
 62
     2
 10
7.2625124189572281
 20
4.6953171847846731
 30
0.0
 11
7.2625124189572281
 21
4.5153171847846734
 31
0.0
  0
LINE
  5
107B
  8
DIM
 62
     2
 10
7.2625124189572281
 20
5.5703171847846731
 30
0.0
 11
7.2625124189572281
 21
5.7503171847846763
 31
0.0
  0
SOLID
  5
107C
  8
DIM
 62
     2
 10
7.2325124189572279
 20
4.6953171847846731
 30
0.0
 11
7.2925124189572292
 21
4.6953171847846731
 31
0.0
 12
7.2625124189572281
 22
4.8753171847846719
 32
0.0
 13
7.2625124189572281
 23
4.8753171847846719
 33
0.0
  0
SOLID
  5
107D
  8
DIM
 62
     2
 10
7.2325124189572279
 20
5.5703171847846731
 30
0.0
 11
7.2925124189572292
 21
5.5703171847846731
 31
0.0
 12
7.2625124189572281
 22
5.390317184784676
 32
0.0
 13
7.2625124189572281
 23
5.390317184784676
 33
0.0
  0
TEXT
  5
107E
  8
OBJECT
 62
     2
 10
7.0984499189572281
 20
5.0703171847846731
 30
0.0
 40
0.125
  1
0.515
 41
0.75
  7
TXT
  0
POINT
  5
107F
  8
DEFPOINTS
 62
     0
 10
6.8625124189572304
 20
4.8753171847846719
 30
0.0
  0
POINT
  5
1080
  8
DEFPOINTS
 62
     0
 10
6.1725124189572291
 20
5.390317184784676
 30
0.0
  0
POINT
  5
1081
  8
DEFPOINTS
 62
     0
 10
7.2625124189572281
 20
5.390317184784676
 30
0.0
  0
ENDBLK
  5
1082
  8
0
  0
BLOCK
  8
0
  2
*D10
 70
     1
 10
0.0
 20
0.0
 30
0.0
  3
*D10
  1

  0
LINE
  5
1085
  8
DIM
 62
     2
 10
4.0125124189572281
 20
3.7128171847846709
 30
0.0
 11
4.0125124189572281
 21
2.5753171847846721
 31
0.0
  0
LINE
  5
1086
  8
DIM
 62
     2
 10
6.4505124189572278
 20
3.9808171847846712
 30
0.0
 11
6.4505124189572278
 21
2.5753171847846721
 31
0.0
  0
LINE
  5
1087
  8
DIM
 62
     2
 10
4.1925124189572269
 20
2.6753171847846722
 30
0.0
 11
4.9540124189572277
 21
2.6753171847846722
 31
0.0
  0
LINE
  5
1088
  8
DIM
 62
     2
 10
6.2705124189572281
 20
2.6753171847846722
 30
0.0
 11
5.5090124189572292
 21
2.6753171847846722
 31
0.0
  0
SOLID
  5
1089
  8
DIM
 62
     2
 10
4.1925124189572269
 20
2.7053171847846711
 30
0.0
 11
4.1925124189572269
 21
2.645317184784671
 31
0.0
 12
4.0125124189572281
 22
2.6753171847846722
 32
0.0
 13
4.0125124189572281
 23
2.6753171847846722
 33
0.0
  0
SOLID
  5
108A
  8
DIM
 62
     2
 10
6.2705124189572281
 20
2.7053171847846711
 30
0.0
 11
6.2705124189572281
 21
2.645317184784671
 31
0.0
 12
6.4505124189572278
 22
2.6753171847846722
 32
0.0
 13
6.4505124189572278
 23
2.6753171847846722
 33
0.0
  0
TEXT
  5
108B
  8
OBJECT
 62
     2
 10
5.0440124189572284
 20
2.6128171847846722
 30
0.0
 40
0.125
  1
2.438
 41
0.75
  7
TXT
  0
POINT
  5
108C
  8
DEFPOINTS
 62
     0
 10
4.0125124189572281
 20
3.7753171847846709
 30
0.0
  0
POINT
  5
108D
  8
DEFPOINTS
 62
     0
 10
6.4505124189572278
 20
4.0433171847846712
 30
0.0
  0
POINT
  5
108E
  8
DEFPOINTS
 62
     0
 10
6.4505124189572278
 20
2.6753171847846722
 30
0.0
  0
ENDBLK
  5
108F
  8
0
  0
BLOCK
  8
0
  2
*D11
 70
     1
 10
0.0
 20
0.0
 30
0.0
  3
*D11
  1

  0
LINE
  5
1092
  8
DIM
 62
     2
 10
4.0125124189572281
 20
3.7128171847846709
 30
0.0
 11
4.0125124189572281
 21
2.9753171847846711
 31
0.0
  0
LINE
  5
1093
  8
DIM
 62
     2
 10
6.1725124189572291
 20
4.297817184784674
 30
0.0
 11
6.1725124189572291
 21
2.9753171847846711
 31
0.0
  0
LINE
  5
1094
  8
DIM
 62
     2
 10
4.1925124189572269
 20
3.0753171847846721
 30
0.0
 11
4.8384499189572292
 21
3.0753171847846721
 31
0.0
  0
LINE
  5
1095
  8
DIM
 62
     2
 10
5.9925124189572276
 20
3.0753171847846721
 30
0.0
 11
5.346574918957228
 21
3.0753171847846721
 31
0.0
  0
SOLID
  5
1096
  8
DIM
 62
     2
 10
4.1925124189572269
 20
3.105317184784671
 30
0.0
 11
4.1925124189572269
 21
3.0453171847846718
 31
0.0
 12
4.0125124189572281
 22
3.0753171847846721
 32
0.0
 13
4.0125124189572281
 23
3.0753171847846721
 33
0.0
  0
SOLID
  5
1097
  8
DIM
 62
     2
 10
5.9925124189572276
 20
3.105317184784671
 30
0.0
 11
5.9925124189572276
 21
3.0453171847846718
 31
0.0
 12
6.1725124189572291
 22
3.0753171847846721
 32
0.0
 13
6.1725124189572291
 23
3.0753171847846721
 33
0.0
  0
TEXT
  5
1098
  8
OBJECT
 62
     2
 10
4.9284499189572291
 20
3.0128171847846721
 30
0.0
 40
0.125
  1
2.160
 41
0.75
  7
TXT
  0
POINT
  5
1099
  8
DEFPOINTS
 62
     0
 10
4.0125124189572281
 20
3.7753171847846709
 30
0.0
  0
POINT
  5
109A
  8
DEFPOINTS
 62
     0
 10
6.1725124189572291
 20
4.360317184784674
 30
0.0
  0
POINT
  5
109B
  8
DEFPOINTS
 62
     0
 10
6.1725124189572291
 20
3.0753171847846721
 30
0.0
  0
ENDBLK
  5
109C
  8
0
  0
BLOCK
  8
0
  2
*D12
 70
     1
 10
0.0
 20
0.0
 30
0.0
  3
*D12
  1

  0
LINE
  5
109F
  8
DIM
 62
     2
 10
4.392512418957228
 20
4.297817184784674
 30
0.0
 11
4.392512418957228
 21
3.375317184784671
 31
0.0
  0
LINE
  5
10A0
  8
DIM
 62
     2
 10
6.1725124189572291
 20
4.297817184784674
 30
0.0
 11
6.1725124189572291
 21
3.375317184784671
 31
0.0
  0
LINE
  5
10A1
  8
DIM
 62
     2
 10
4.5725124189572277
 20
3.4753171847846711
 30
0.0
 11
5.0284499189572278
 21
3.4753171847846711
 31
0.0
  0
LINE
  5
10A2
  8
DIM
 62
     2
 10
5.9925124189572276
 20
3.4753171847846711
 30
0.0
 11
5.5365749189572284
 21
3.4753171847846711
 31
0.0
  0
SOLID
  5
10A3
  8
DIM
 62
     2
 10
4.5725124189572277
 20
3.5053171847846709
 30
0.0
 11
4.5725124189572277
 21
3.4453171847846722
 31
0.0
 12
4.392512418957228
 22
3.4753171847846711
 32
0.0
 13
4.392512418957228
 23
3.4753171847846711
 33
0.0
  0
SOLID
  5
10A4
  8
DIM
 62
     2
 10
5.9925124189572276
 20
3.5053171847846709
 30
0.0
 11
5.9925124189572276
 21
3.4453171847846722
 31
0.0
 12
6.1725124189572291
 22
3.4753171847846711
 32
0.0
 13
6.1725124189572291
 23
3.4753171847846711
 33
0.0
  0
TEXT
  5
10A5
  8
OBJECT
 62
     2
 10
5.1184499189572277
 20
3.4128171847846711
 30
0.0
 40
0.125
  1
1.780
 41
0.75
  7
TXT
  0
POINT
  5
10A6
  8
DEFPOINTS
 62
     0
 10
4.392512418957228
 20
4.360317184784674
 30
0.0
  0
POINT
  5
10A7
  8
DEFPOINTS
 62
     0
 10
6.1725124189572291
 20
4.360317184784674
 30
0.0
  0
POINT
  5
10A8
  8
DEFPOINTS
 62
     0
 10
6.1725124189572291
 20
3.4753171847846711
 30
0.0
  0
ENDBLK
  5
10A9
  8
0
  0
BLOCK
  8
0
  2
*D13
 70
     1
 10
0.0
 20
0.0
 30
0.0
  3
*D13
  1

  0
LINE
  5
10AC
  8
DIM
 62
     2
 10
4.0125124189572281
 20
6.0378171847846707
 30
0.0
 11
4.0125124189572281
 21
7.1753171847846726
 31
0.0
  0
LINE
  5
10AD
  8
DIM
 62
     2
 10
6.4505124189572278
 20
5.7708171847846703
 30
0.0
 11
6.4505124189572278
 21
7.1753171847846726
 31
0.0
  0
LINE
  5
10AE
  8
DIM
 62
     2
 10
4.1925124189572269
 20
7.075317184784673
 30
0.0
 11
4.9540124189572277
 21
7.075317184784673
 31
0.0
  0
LINE
  5
10AF
  8
DIM
 62
     2
 10
6.2705124189572281
 20
7.075317184784673
 30
0.0
 11
5.5090124189572292
 21
7.075317184784673
 31
0.0
  0
SOLID
  5
10B0
  8
DIM
 62
     2
 10
4.1925124189572269
 20
7.1053171847846732
 30
0.0
 11
4.1925124189572269
 21
7.0453171847846727
 31
0.0
 12
4.0125124189572281
 22
7.075317184784673
 32
0.0
 13
4.0125124189572281
 23
7.075317184784673
 33
0.0
  0
SOLID
  5
10B1
  8
DIM
 62
     2
 10
6.2705124189572281
 20
7.1053171847846732
 30
0.0
 11
6.2705124189572281
 21
7.0453171847846727
 31
0.0
 12
6.4505124189572278
 22
7.075317184784673
 32
0.0
 13
6.4505124189572278
 23
7.075317184784673
 33
0.0
  0
TEXT
  5
10B2
  8
OBJECT
 62
     2
 10
5.0440124189572284
 20
7.012817184784673
 30
0.0
 40
0.125
  1
2.438
 41
0.75
  7
TXT
  0
POINT
  5
10B3
  8
DEFPOINTS
 62
     0
 10
4.0125124189572281
 20
5.9753171847846707
 30
0.0
  0
POINT
  5
10B4
  8
DEFPOINTS
 62
     0
 10
6.4505124189572278
 20
5.7083171847846703
 30
0.0
  0
POINT
  5
10B5
  8
DEFPOINTS
 62
     0
 10
6.4505124189572278
 20
7.075317184784673
 30
0.0
  0
ENDBLK
  5
10B6
  8
0
  0
BLOCK
  8
0
  2
*D14
 70
     1
 10
0.0
 20
0.0
 30
0.0
  3
*D14
  1

  0
LINE
  5
10B9
  8
DIM
 62
     2
 10
6.6580124189572309
 20
5.5633171847846734
 30
0.0
 11
8.8625124189572286
 21
5.5633171847846734
 31
0.0
  0
LINE
  5
10BA
  8
DIM
 62
     2
 10
6.6580124189572309
 20
4.1883171847846734
 30
0.0
 11
8.8625124189572286
 21
4.1883171847846734
 31
0.0
  0
LINE
  5
10BB
  8
DIM
 62
     2
 10
8.7625124189572272
 20
5.3833171847846728
 30
0.0
 11
8.7625124189572272
 21
5.0283171847846733
 31
0.0
  0
LINE
  5
10BC
  8
DIM
 62
     2
 10
8.7625124189572272
 20
4.368317184784674
 30
0.0
 11
8.7625124189572272
 21
4.7233171847846727
 31
0.0
  0
SOLID
  5
10BD
  8
DIM
 62
     2
 10
8.7325124189572296
 20
5.3833171847846728
 30
0.0
 11
8.7925124189572283
 21
5.3833171847846728
 31
0.0
 12
8.7625124189572272
 22
5.5633171847846734
 32
0.0
 13
8.7625124189572272
 23
5.5633171847846734
 33
0.0
  0
SOLID
  5
10BE
  8
DIM
 62
     2
 10
8.7325124189572296
 20
4.368317184784674
 30
0.0
 11
8.7925124189572283
 21
4.368317184784674
 31
0.0
 12
8.7625124189572272
 22
4.1883171847846734
 32
0.0
 13
8.7625124189572272
 23
4.1883171847846734
 33
0.0
  0
TEXT
  5
10BF
  8
OBJECT
 62
     2
 10
8.5906374189572272
 20
4.8133171847846752
 30
0.0
 40
0.125
  1
1.375
 41
0.75
  7
TXT
  0
POINT
  5
10C0
  8
DEFPOINTS
 62
     0
 10
6.5955124189572309
 20
5.5633171847846734
 30
0.0
  0
POINT
  5
10C1
  8
DEFPOINTS
 62
     0
 10
6.5955124189572309
 20
4.1883171847846734
 30
0.0
  0
POINT
  5
10C2
  8
DEFPOINTS
 62
     0
 10
8.7625124189572272
 20
4.1883171847846734
 30
0.0
  0
ENDBLK
  5
10C3
  8
0
  0
BLOCK
  8
0
  2
*D15
 70
     1
 10
0.0
 20
0.0
 30
0.0
  3
*D15
  1

  0
LINE
  5
10C6
  8
DIM
 62
     2
 10
6.9250124189572304
 20
4.8753171847846719
 30
0.0
 11
8.3625124189572286
 21
4.8753171847846719
 31
0.0
  0
LINE
  5
10C7
  8
DIM
 62
     2
 10
6.6580124189572309
 20
5.5633171847846734
 30
0.0
 11
8.3625124189572286
 21
5.5633171847846734
 31
0.0
  0
LINE
  5
10C8
  8
DIM
 62
     2
 10
8.2625124189572272
 20
4.6953171847846731
 30
0.0
 11
8.2625124189572272
 21
4.5153171847846734
 31
0.0
  0
LINE
  5
10C9
  8
DIM
 62
     2
 10
8.2625124189572272
 20
5.7433171847846731
 30
0.0
 11
8.2625124189572272
 21
5.9233171847846728
 31
0.0
  0
SOLID
  5
10CA
  8
DIM
 62
     2
 10
8.2325124189572296
 20
4.6953171847846731
 30
0.0
 11
8.2925124189572283
 21
4.6953171847846731
 31
0.0
 12
8.2625124189572272
 22
4.8753171847846719
 32
0.0
 13
8.2625124189572272
 23
4.8753171847846719
 33
0.0
  0
SOLID
  5
10CB
  8
DIM
 62
     2
 10
8.2325124189572296
 20
5.7433171847846731
 30
0.0
 11
8.2925124189572283
 21
5.7433171847846731
 31
0.0
 12
8.2625124189572272
 22
5.5633171847846734
 32
0.0
 13
8.2625124189572272
 23
5.5633171847846734
 33
0.0
  0
TEXT
  5
10CC
  8
OBJECT
 62
     2
 10
8.0828249189572272
 20
5.1568171847846731
 30
0.0
 40
0.125
  1
0.688
 41
0.75
  7
TXT
  0
POINT
  5
10CD
  8
DEFPOINTS
 62
     0
 10
6.8625124189572304
 20
4.8753171847846719
 30
0.0
  0
POINT
  5
10CE
  8
DEFPOINTS
 62
     0
 10
6.5955124189572309
 20
5.5633171847846734
 30
0.0
  0
POINT
  5
10CF
  8
DEFPOINTS
 62
     0
 10
8.2625124189572272
 20
5.5633171847846734
 30
0.0
  0
ENDBLK
  5
10D0
  8
0
  0
BLOCK
  8
0
  2
*D16
 70
     1
 10
0.0
 20
0.0
 30
0.0
  3
*D16
  1

  0
LINE
  5
10D3
  8
DIM
 62
     0
 10
6.824722563173621
 20
10.779834049075021
 30
0.0
 11
7.1955285135046392
 21
10.779834049075021
 31
0.0
  0
LINE
  5
10D4
  8
DIM
 62
     0
 10
6.3397225631736189
 20
11.544834049075019
 30
0.0
 11
7.1955285135046392
 21
11.544834049075019
 31
0.0
  0
LINE
  5
10D5
  8
DIM
 62
     0
 10
7.1025285135046392
 20
10.95983404907502
 30
0.0
 11
7.1025285135046392
 21
10.982123387455241
 31
0.0
  0
LINE
  5
10D6
  8
DIM
 62
     0
 10
7.1025285135046392
 20
11.36483404907502
 30
0.0
 11
7.1025285135046392
 21
11.287123387455241
 31
0.0
  0
SOLID
  5
10D7
  8
DIM
 62
     0
 10
7.0725285135046381
 20
10.95983404907502
 30
0.0
 11
7.1325285135046386
 21
10.95983404907502
 31
0.0
 12
7.1025285135046392
 22
10.779834049075021
 32
0.0
 13
7.1025285135046392
 23
10.779834049075021
 33
0.0
  0
SOLID
  5
10D8
  8
DIM
 62
     0
 10
7.0725285135046381
 20
11.36483404907502
 30
0.0
 11
7.1325285135046386
 21
11.36483404907502
 31
0.0
 12
7.1025285135046392
 22
11.544834049075019
 32
0.0
 13
7.1025285135046392
 23
11.544834049075019
 33
0.0
  0
TEXT
  5
10D9
  8
OBJECT
 62
     0
 10
6.9228410135046357
 20
11.07212338745525
 30
0.0
 40
0.125
  1
0.765
 41
0.75
  7
TXT
  0
POINT
  5
10DA
  8
DEFPOINTS
 62
     0
 10
6.7617225631736204
 20
10.779834049075021
 30
0.0
  0
POINT
  5
10DB
  8
DEFPOINTS
 62
     0
 10
6.2767225631736201
 20
11.544834049075019
 30
0.0
  0
POINT
  5
10DC
  8
DEFPOINTS
 62
     0
 10
7.1025285135046392
 20
11.544834049075019
 30
0.0
  0
ENDBLK
  5
10DD
  8
0
  0
BLOCK
  8
0
  2
*D17
 70
     1
 10
0.0
 20
0.0
 30
0.0
  3
*D17
  1

  0
LINE
  5
10E0
  8
DIM
 62
     0
 10
6.3397225631736189
 20
11.544834049075019
 30
0.0
 11
7.7636332068033287
 21
11.544834049075019
 31
0.0
  0
LINE
  5
10E1
  8
DIM
 62
     0
 10
6.3397225631736243
 20
10.014834049075031
 30
0.0
 11
7.7636332068033287
 21
10.014834049075031
 31
0.0
  0
LINE
  5
10E2
  8
DIM
 62
     0
 10
7.6706332068033287
 20
11.36483404907502
 30
0.0
 11
7.6706332068033287
 21
10.93233404907502
 31
0.0
  0
LINE
  5
10E3
  8
DIM
 62
     0
 10
7.6706332068033287
 20
10.19483404907502
 30
0.0
 11
7.6706332068033287
 21
10.62733404907503
 31
0.0
  0
SOLID
  5
10E4
  8
DIM
 62
     0
 10
7.6406332068033294
 20
11.36483404907502
 30
0.0
 11
7.7006332068033307
 21
11.36483404907502
 31
0.0
 12
7.6706332068033287
 22
11.544834049075019
 32
0.0
 13
7.6706332068033287
 23
11.544834049075019
 33
0.0
  0
SOLID
  5
10E5
  8
DIM
 62
     0
 10
7.6406332068033294
 20
10.19483404907502
 30
0.0
 11
7.7006332068033307
 21
10.19483404907502
 31
0.0
 12
7.6706332068033287
 22
10.014834049075031
 32
0.0
 13
7.6706332068033287
 23
10.014834049075031
 33
0.0
  0
TEXT
  5
10E6
  8
OBJECT
 62
     0
 10
7.5065707068033269
 20
10.717334049075021
 30
0.0
 40
0.125
  1
1.530
 41
0.75
  7
TXT
  0
POINT
  5
10E7
  8
DEFPOINTS
 62
     0
 10
6.2767225631736201
 20
11.544834049075019
 30
0.0
  0
POINT
  5
10E8
  8
DEFPOINTS
 62
     0
 10
6.2767225631736228
 20
10.014834049075031
 30
0.0
  0
POINT
  5
10E9
  8
DEFPOINTS
 62
     0
 10
7.6706332068033287
 20
10.014834049075031
 30
0.0
  0
ENDBLK
  5
10EA
  8
0
  0
BLOCK
  8
0
  2
*D18
 70
     1
 10
0.0
 20
0.0
 30
0.0
  3
*D18
  1

  0
LINE
  5
10ED
  8
DIM
 62
     0
 10
1.4267225631736209
 20
11.77983404907503
 30
0.0
 11
0.7046697945477443
 21
11.77983404907503
 31
0.0
  0
LINE
  5
10EE
  8
DIM
 62
     0
 10
1.19872256317362
 20
10.779834049075021
 30
0.0
 11
0.704669794547744
 21
10.779834049075021
 31
0.0
  0
LINE
  5
10EF
  8
DIM
 62
     0
 10
0.797669794547744
 20
11.599834049075019
 30
0.0
 11
0.797669794547744
 21
11.43233404907502
 31
0.0
  0
LINE
  5
10F0
  8
DIM
 62
     0
 10
0.797669794547744
 20
10.95983404907502
 30
0.0
 11
0.797669794547744
 21
11.12733404907503
 31
0.0
  0
SOLID
  5
10F1
  8
DIM
 62
     0
 10
0.767669794547744
 20
11.599834049075019
 30
0.0
 11
0.8276697945477438
 21
11.599834049075019
 31
0.0
 12
0.7976697945477441
 22
11.77983404907503
 32
0.0
 13
0.7976697945477441
 23
11.77983404907503
 33
0.0
  0
SOLID
  5
10F2
  8
DIM
 62
     0
 10
0.7676697945477439
 20
10.95983404907502
 30
0.0
 11
0.8276697945477437
 21
10.95983404907502
 31
0.0
 12
0.797669794547744
 22
10.779834049075021
 32
0.0
 13
0.797669794547744
 23
10.779834049075021
 33
0.0
  0
TEXT
  5
10F3
  8
OBJECT
 62
     0
 10
0.6492322945477423
 20
11.217334049075021
 30
0.0
 40
0.125
  1
1.000
 41
0.75
  7
TXT
  0
POINT
  5
10F4
  8
DEFPOINTS
 62
     0
 10
1.4897225631736211
 20
11.77983404907503
 30
0.0
  0
POINT
  5
10F5
  8
DEFPOINTS
 62
     0
 10
1.26172256317362
 20
10.779834049075021
 30
0.0
  0
POINT
  5
10F6
  8
DEFPOINTS
 62
     0
 10
0.797669794547744
 20
10.779834049075021
 30
0.0
  0
ENDBLK
  5
10F7
  8
0
  0
BLOCK
  8
0
  2
*D19
 70
     1
 10
0.0
 20
0.0
 30
0.0
  3
*D19
  1

  0
LINE
  5
10FA
  8
DIM
 62
     0
 10
4.0117225631736204
 20
11.842834049075019
 30
0.0
 11
4.0117225631736204
 21
12.16943304365908
 31
0.0
  0
LINE
  5
10FB
  8
DIM
 62
     0
 10
6.2767225631736201
 20
11.607834049075031
 30
0.0
 11
6.2767225631736201
 21
12.16943304365908
 31
0.0
  0
LINE
  5
10FC
  8
DIM
 62
     0
 10
4.1917225631736201
 20
12.07643304365908
 30
0.0
 11
4.8667225631736191
 21
12.07643304365908
 31
0.0
  0
LINE
  5
10FD
  8
DIM
 62
     0
 10
6.0967225631736204
 20
12.07643304365908
 30
0.0
 11
5.4217225631736188
 21
12.07643304365908
 31
0.0
  0
SOLID
  5
10FE
  8
DIM
 62
     0
 10
4.1917225631736201
 20
12.10643304365907
 30
0.0
 11
4.1917225631736201
 21
12.04643304365907
 31
0.0
 12
4.0117225631736204
 22
12.07643304365908
 32
0.0
 13
4.0117225631736204
 23
12.07643304365908
 33
0.0
  0
SOLID
  5
10FF
  8
DIM
 62
     0
 10
6.0967225631736204
 20
12.10643304365907
 30
0.0
 11
6.0967225631736204
 21
12.04643304365907
 31
0.0
 12
6.2767225631736201
 22
12.07643304365908
 32
0.0
 13
6.2767225631736201
 23
12.07643304365908
 33
0.0
  0
TEXT
  5
1100
  8
OBJECT
 62
     0
 10
4.9567225631736189
 20
12.013933043659071
 30
0.0
 40
0.125
  1
2.265
 41
0.75
  7
TXT
  0
POINT
  5
1101
  8
DEFPOINTS
 62
     0
 10
4.0117225631736204
 20
11.77983404907503
 30
0.0
  0
POINT
  5
1102
  8
DEFPOINTS
 62
     0
 10
6.2767225631736201
 20
11.544834049075019
 30
0.0
  0
POINT
  5
1103
  8
DEFPOINTS
 62
     0
 10
6.2767225631736201
 20
12.07643304365908
 30
0.0
  0
ENDBLK
  5
1104
  8
0
  0
BLOCK
  8
0
  2
*D20
 70
     1
 10
0.0
 20
0.0
 30
0.0
  3
*D20
  1

  0
LINE
  5
1107
  8
DIM
 62
     0
 10
2.4967225631736221
 20
11.607834049075031
 30
0.0
 11
2.4967225631736221
 21
12.41651269922453
 31
0.0
  0
LINE
  5
1108
  8
DIM
 62
     0
 10
6.2767225631736201
 20
11.607834049075031
 30
0.0
 11
6.2767225631736201
 21
12.41651269922453
 31
0.0
  0
LINE
  5
1109
  8
DIM
 62
     0
 10
2.6767225631736231
 20
12.32351269922453
 30
0.0
 11
3.7631974189804711
 21
12.32351269922453
 31
0.0
  0
LINE
  5
110A
  8
DIM
 62
     0
 10
6.0967225631736204
 20
12.32351269922453
 30
0.0
 11
4.3025724189804713
 21
12.32351269922453
 31
0.0
  0
SOLID
  5
110B
  8
DIM
 62
     0
 10
2.6767225631736231
 20
12.35351269922452
 30
0.0
 11
2.6767225631736231
 21
12.29351269922452
 31
0.0
 12
2.4967225631736221
 22
12.32351269922453
 32
0.0
 13
2.4967225631736221
 23
12.32351269922453
 33
0.0
  0
SOLID
  5
110C
  8
DIM
 62
     0
 10
6.0967225631736204
 20
12.35351269922452
 30
0.0
 11
6.0967225631736204
 21
12.29351269922452
 31
0.0
 12
6.2767225631736201
 22
12.32351269922453
 32
0.0
 13
6.2767225631736201
 23
12.32351269922453
 33
0.0
  0
TEXT
  5
110D
  8
OBJECT
 62
     0
 10
3.853197418980471
 20
12.26101269922453
 30
0.0
 40
0.125
  1
3.780
 41
0.75
  7
TXT
  0
POINT
  5
110E
  8
DEFPOINTS
 62
     0
 10
2.4967225631736221
 20
11.544834049075019
 30
0.0
  0
POINT
  5
110F
  8
DEFPOINTS
 62
     0
 10
6.2767225631736201
 20
11.544834049075019
 30
0.0
  0
POINT
  5
1110
  8
DEFPOINTS
 62
     0
 10
6.2767225631736201
 20
12.32351269922453
 30
0.0
  0
ENDBLK
  5
1111
  8
0
  0
BLOCK
  8
0
  2
*D21
 70
     1
 10
0.0
 20
0.0
 30
0.0
  3
*D21
  1

  0
LINE
  5
1114
  8
DIM
 62
     0
 10
2.7288378127649051
 20
3.9703171847846721
 30
0.0
 11
2.8474998470991961
 21
3.9703171847846721
 31
0.0
  0
LINE
  5
1115
  8
DIM
 62
     0
 10
2.7288378127649051
 20
5.7803171847846713
 30
0.0
 11
2.847499847099197
 21
5.7803171847846713
 31
0.0
  0
LINE
  5
1116
  8
DIM
 62
     0
 10
2.7544998470991962
 20
4.1503171847846723
 30
0.0
 11
2.7544998470991962
 21
4.9805810553716547
 31
0.0
  0
LINE
  5
1117
  8
DIM
 62
     0
 10
2.754499847099197
 20
5.6003171847846707
 30
0.0
 11
2.754499847099197
 21
5.2855810553716553
 31
0.0
  0
SOLID
  5
1118
  8
DIM
 62
     0
 10
2.724499847099195
 20
4.1503171847846723
 30
0.0
 11
2.7844998470991951
 21
4.1503171847846723
 31
0.0
 12
2.7544998470991962
 22
3.9703171847846721
 32
0.0
 13
2.7544998470991962
 23
3.9703171847846721
 33
0.0
  0
SOLID
  5
1119
  8
DIM
 62
     0
 10
2.7244998470991959
 20
5.6003171847846707
 30
0.0
 11
2.7844998470991951
 21
5.6003171847846707
 31
0.0
 12
2.754499847099197
 22
5.7803171847846713
 32
0.0
 13
2.754499847099197
 23
5.7803171847846713
 33
0.0
  0
TEXT
  5
111A
  8
OBJECT
 62
     0
 10
2.6060623470991962
 20
5.0705810553716564
 30
0.0
 40
0.125
  1
1.810
 41
0.75
  7
TXT
  0
POINT
  5
111B
  8
DEFPOINTS
 62
     0
 10
2.6658378127649041
 20
3.9703171847846721
 30
0.0
  0
POINT
  5
111C
  8
DEFPOINTS
 62
     0
 10
2.6658378127649041
 20
5.7803171847846713
 30
0.0
  0
POINT
  5
111D
  8
DEFPOINTS
 62
     0
 10
2.754499847099197
 20
5.7803171847846713
 30
0.0
  0
ENDBLK
  5
111E
  8
0
  0
BLOCK
  8
0
  2
*D22
 70
     1
 10
0.0
 20
0.0
 30
0.0
  3
*D22
  1

  0
LINE
  5
1121
  8
DIM
 62
     0
 10
1.357512418957225
 20
4.6739080687509427
 30
0.0
 11
1.357512418957225
 21
4.7435640458882791
 31
0.0
  0
LINE
  5
1122
  8
DIM
 62
     0
 10
6.6675124189572301
 20
4.6739080687509427
 30
0.0
 11
6.6675124189572301
 21
4.7435640458882791
 31
0.0
  0
LINE
  5
1123
  8
DIM
 62
     0
 10
1.537512418957224
 20
4.6505640458882791
 30
0.0
 11
3.1366493862532701
 21
4.6505640458882791
 31
0.0
  0
LINE
  5
1124
  8
DIM
 62
     0
 10
6.4875124189572304
 20
4.6505640458882791
 30
0.0
 11
3.6447743862532702
 21
4.6505640458882791
 31
0.0
  0
SOLID
  5
1125
  8
DIM
 62
     0
 10
1.537512418957224
 20
4.6805640458882811
 30
0.0
 11
1.537512418957224
 21
4.6205640458882788
 31
0.0
 12
1.357512418957225
 22
4.6505640458882791
 32
0.0
 13
1.357512418957225
 23
4.6505640458882791
 33
0.0
  0
SOLID
  5
1126
  8
DIM
 62
     0
 10
6.4875124189572304
 20
4.6805640458882811
 30
0.0
 11
6.4875124189572304
 21
4.6205640458882788
 31
0.0
 12
6.6675124189572301
 22
4.6505640458882791
 32
0.0
 13
6.6675124189572301
 23
4.6505640458882791
 33
0.0
  0
TEXT
  5
1127
  8
OBJECT
 62
     0
 10
3.226649386253269
 20
4.5880640458882791
 30
0.0
 40
0.125
  1
5.310
 41
0.75
  7
TXT
  0
POINT
  5
1128
  8
DEFPOINTS
 62
     0
 10
1.357512418957225
 20
4.6109080687509429
 30
0.0
  0
POINT
  5
1129
  8
DEFPOINTS
 62
     0
 10
6.6675124189572301
 20
4.6109080687509429
 30
0.0
  0
POINT
  5
112A
  8
DEFPOINTS
 62
     0
 10
6.6675124189572301
 20
4.6505640458882791
 30
0.0
  0
ENDBLK
  5
112B
  8
0
  0
BLOCK
  8
0
  2
*D23
 70
     1
 10
0.0
 20
0.0
 30
0.0
  3
*D23
  1

  0
LINE
  5
112E
  8
DIM
 62
     0
 10
2.240762700029038
 20
8.0954386234813107
 30
0.0
 11
1.9989612747540511
 21
8.0954386234813107
 31
0.0
  0
LINE
  5
112F
  8
DIM
 62
     0
 10
2.240762700029038
 20
8.7094386234813062
 30
0.0
 11
1.9989612747540511
 21
8.7094386234813062
 31
0.0
  0
LINE
  5
1130
  8
DIM
 62
     0
 10
2.091961274754051
 20
7.9154386234813101
 30
0.0
 11
2.091961274754051
 21
7.7354386234813077
 31
0.0
  0
LINE
  5
1131
  8
DIM
 62
     0
 10
2.091961274754051
 20
8.8894386234813076
 30
0.0
 11
2.091961274754051
 21
9.1456661035625402
 31
0.0
  0
LINE
  5
1132
  8
DIM
 62
     0
 10
2.091961274754051
 20
9.1456661035625402
 30
0.0
 11
2.2719612747540521
 21
9.1456661035625402
 31
0.0
  0
SOLID
  5
1133
  8
DIM
 62
     0
 10
2.0619612747540512
 20
7.9154386234813101
 30
0.0
 11
2.1219612747540499
 21
7.9154386234813101
 31
0.0
 12
2.091961274754051
 22
8.0954386234813107
 32
0.0
 13
2.091961274754051
 23
8.0954386234813107
 33
0.0
  0
SOLID
  5
1134
  8
DIM
 62
     0
 10
2.0619612747540512
 20
8.8894386234813076
 30
0.0
 11
2.1219612747540499
 21
8.8894386234813076
 31
0.0
 12
2.091961274754051
 22
8.7094386234813062
 32
0.0
 13
2.091961274754051
 23
8.7094386234813062
 33
0.0
  0
TEXT
  5
1135
  8
OBJECT
 62
     0
 10
2.3619612747540502
 20
9.0831661035625402
 30
0.0
 40
0.125
  1
0.614
 41
0.75
  7
TXT
  0
POINT
  5
1136
  8
DEFPOINTS
 62
     0
 10
2.303762700029039
 20
8.0954386234813107
 30
0.0
  0
POINT
  5
1137
  8
DEFPOINTS
 62
     0
 10
2.303762700029039
 20
8.7094386234813062
 30
0.0
  0
POINT
  5
1138
  8
DEFPOINTS
 62
     0
 10
2.091961274754051
 20
8.7094386234813062
 30
0.0
  0
ENDBLK
  5
1139
  8
0
  0
BLOCK
  8
0
  2
*U24
 70
     1
 10
0.0
 20
0.0
 30
0.0
  3
*U24
  1

  0
TEXT
  5
113C
  8
OBJECT
 10
5.9886679364085564
 20
9.2970789241491918
 30
0.0
 40
0.125
  1
RECESSED 0.030 DEEP OR
  0
TEXT
  5
113D
  8
OBJECT
 10
5.9886679364085564
 20
9.0887455908158596
 30
0.0
 40
0.125
  1
TEXTURED FLUSH
  0
ENDBLK
  5
113E
  8
0
  0
BLOCK
  8
0
  2
*D25
 70
     1
 10
0.0
 20
0.0
 30
0.0
  3
*D25
  1

  0
LINE
  5
141B
  8
DIM
 62
     0
 10
1.4267225631736209
 20
11.77983404907503
 30
0.0
 11
0.2332741080446152
 21
11.77983404907503
 31
0.0
  0
LINE
  5
141C
  8
DIM
 62
     0
 10
1.4267225631736209
 20
9.7798340490750331
 30
0.0
 11
0.2332741080446147
 21
9.7798340490750331
 31
0.0
  0
LINE
  5
141D
  8
DIM
 62
     0
 10
0.3262741080446151
 20
11.59983404907503
 30
0.0
 11
0.326274108044615
 21
10.93233404907502
 31
0.0
  0
LINE
  5
141E
  8
DIM
 62
     0
 10
0.3262741080446148
 20
9.9598340490750328
 30
0.0
 11
0.3262741080446149
 21
10.62733404907503
 31
0.0
  0
TEXT
  5
141F
  8
OBJECT
 62
     0
 10
0.1622116080446132
 20
10.717334049075021
 30
0.0
 40
0.125
  1
2.000
 41
0.75
  7
TXT
  0
SOLID
  5
1420
  8
DIM
 62
     0
 10
0.296274108044615
 20
11.59983404907503
 30
0.0
 11
0.3562741080446151
 21
11.59983404907503
 31
0.0
 12
0.3262741080446152
 22
11.77983404907503
 32
0.0
 13
0.3262741080446152
 23
11.77983404907503
 33
0.0
  0
SOLID
  5
1421
  8
DIM
 62
     0
 10
0.2962741080446147
 20
9.9598340490750328
 30
0.0
 11
0.3562741080446148
 21
9.9598340490750328
 31
0.0
 12
0.3262741080446147
 22
9.7798340490750331
 32
0.0
 13
0.3262741080446147
 23
9.7798340490750331
 33
0.0
  0
POINT
  5
1422
  8
DEFPOINTS
 62
     0
 10
1.4897225631736211
 20
11.77983404907503
 30
0.0
  0
POINT
  5
1423
  8
DEFPOINTS
 62
     0
 10
1.4897225631736211
 20
9.7798340490750331
 30
0.0
  0
POINT
  5
1424
  8
DEFPOINTS
 62
     0
 10
0.3262741080446147
 20
9.7798340490750331
 30
0.0
  0
ENDBLK
  5
1163
  8
0
  0
BLOCK
  8
0
  2
*D26
 70
     1
 10
0.0
 20
0.0
 30
0.0
  3
*D26
  1

  0
LINE
  5
1407
  8
DIM
 62
     0
 10
6.6062225631736204
 20
8.2754386234813122
 30
0.0
 11
7.2335306776814621
 21
8.2754386234813122
 31
0.0
  0
LINE
  5
1408
  8
DIM
 62
     0
 10
6.6067225631736202
 20
8.3394386234813052
 30
0.0
 11
7.2335306776814621
 21
8.3394386234813052
 31
0.0
  0
LINE
  5
1409
  8
DIM
 62
     0
 10
7.1405306776814621
 20
8.0954386234813125
 30
0.0
 11
7.1405306776814621
 21
7.915438623481311
 31
0.0
  0
LINE
  5
140A
  8
DIM
 62
     0
 10
7.1405306776814621
 20
8.5194386234813049
 30
0.0
 11
7.1405306776814621
 21
8.6994386234813046
 31
0.0
  0
TEXT
  5
140B
  8
OBJECT
 62
     0
 10
7.4105306776814599
 20
8.6369386234813081
 30
0.0
 40
0.125
  1
0.063
 41
0.75
  7
TXT
  0
SOLID
  5
140C
  8
DIM
 62
     0
 10
7.1105306776814619
 20
8.0954386234813125
 30
0.0
 11
7.1705306776814632
 21
8.0954386234813125
 31
0.0
 12
7.1405306776814621
 22
8.2754386234813122
 32
0.0
 13
7.1405306776814621
 23
8.2754386234813122
 33
0.0
  0
SOLID
  5
140D
  8
DIM
 62
     0
 10
7.1105306776814619
 20
8.5194386234813049
 30
0.0
 11
7.1705306776814632
 21
8.5194386234813049
 31
0.0
 12
7.1405306776814621
 22
8.3394386234813052
 32
0.0
 13
7.1405306776814621
 23
8.3394386234813052
 33
0.0
  0
POINT
  5
140E
  8
DEFPOINTS
 62
     0
 10
6.5432225631736198
 20
8.2754386234813122
 30
0.0
  0
POINT
  5
140F
  8
DEFPOINTS
 62
     0
 10
6.5437225631736204
 20
8.3394386234813052
 30
0.0
  0
POINT
  5
1410
  8
DEFPOINTS
 62
     0
 10
7.1405306776814621
 20
8.3394386234813052
 30
0.0
  0
ENDBLK
  5
11B7
  8
0
  0
BLOCK
  8
0
  2
*D27
 70
     1
 10
0.0
 20
0.0
 30
0.0
  3
*D27
  1

  0
LINE
  5
1411
  8
DIM
 62
     0
 10
6.7617225631736204
 20
11.61483404907503
 30
0.0
 11
6.7617225631736204
 21
13.041225817804429
 31
0.0
  0
LINE
  5
1412
  8
DIM
 62
     0
 10
1.26172256317362
 20
11.61483404907503
 30
0.0
 11
1.26172256317362
 21
13.041225817804429
 31
0.0
  0
LINE
  5
1413
  8
DIM
 62
     0
 10
6.5817225631736198
 20
12.948225817804429
 30
0.0
 11
4.2735975631736203
 21
12.948225817804429
 31
0.0
  0
LINE
  5
1414
  8
DIM
 62
     0
 10
1.4417225631736199
 20
12.948225817804429
 30
0.0
 11
3.7498475631736201
 21
12.948225817804429
 31
0.0
  0
SOLID
  5
1415
  8
DIM
 62
     0
 10
6.5817225631736198
 20
12.978225817804431
 30
0.0
 11
6.5817225631736198
 21
12.918225817804441
 31
0.0
 12
6.7617225631736204
 22
12.948225817804429
 32
0.0
 13
6.7617225631736204
 23
12.948225817804429
 33
0.0
  0
SOLID
  5
1416
  8
DIM
 62
     0
 10
1.4417225631736199
 20
12.978225817804431
 30
0.0
 11
1.4417225631736199
 21
12.918225817804441
 31
0.0
 12
1.26172256317362
 22
12.948225817804429
 32
0.0
 13
1.26172256317362
 23
12.948225817804429
 33
0.0
  0
TEXT
  5
1417
  8
OBJECT
 62
     0
 10
3.83984756317362
 20
12.885725817804429
 30
0.0
 40
0.125
  1
5.500
 41
0.75
  7
TXT
  0
POINT
  5
1418
  8
DEFPOINTS
 62
     0
 10
6.7617225631736204
 20
11.551834049075021
 30
0.0
  0
POINT
  5
1419
  8
DEFPOINTS
 62
     0
 10
1.26172256317362
 20
11.551834049075021
 30
0.0
  0
POINT
  5
141A
  8
DEFPOINTS
 62
     0
 10
1.26172256317362
 20
12.948225817804429
 30
0.0
  0
ENDBLK
  5
1203
  8
0
  0
BLOCK
  8
0
  2
*D28
 70
     1
 10
0.0
 20
0.0
 30
0.0
  3
*D28
  1

  0
LINE
  5
1425
  8
DIM
 62
     0
 10
9.566860970645779
 20
11.714359028807751
 30
0.0
 11
9.566860970645779
 21
12.272834049075019
 31
0.0
  0
LINE
  5
1426
  8
DIM
 62
     0
 10
8.7668609706457801
 20
11.673733273935341
 30
0.0
 11
8.7668609706457801
 21
12.272834049075019
 31
0.0
  0
LINE
  5
1427
  8
DIM
 62
     0
 10
9.3868609706457793
 20
12.179834049075019
 30
0.0
 11
8.9468609706457798
 21
12.179834049075019
 31
0.0
  0
TEXT
  5
1428
  8
OBJECT
 62
     0
 10
9.0027984706457787
 20
12.380334049075021
 30
0.0
 40
0.125
  1
0.800
 41
0.75
  7
TXT
  0
SOLID
  5
1429
  8
DIM
 62
     0
 10
9.3868609706457793
 20
12.20983404907502
 30
0.0
 11
9.3868609706457793
 21
12.149834049075031
 31
0.0
 12
9.566860970645779
 22
12.179834049075019
 32
0.0
 13
9.566860970645779
 23
12.179834049075019
 33
0.0
  0
SOLID
  5
142A
  8
DIM
 62
     0
 10
8.9468609706457798
 20
12.20983404907502
 30
0.0
 11
8.9468609706457798
 21
12.149834049075031
 31
0.0
 12
8.7668609706457801
 22
12.179834049075019
 32
0.0
 13
8.7668609706457801
 23
12.179834049075019
 33
0.0
  0
POINT
  5
142B
  8
DEFPOINTS
 62
     0
 10
9.566860970645779
 20
11.65135902880775
 30
0.0
  0
POINT
  5
142C
  8
DEFPOINTS
 62
     0
 10
8.7668609706457801
 20
11.61073327393534
 30
0.0
  0
POINT
  5
142D
  8
DEFPOINTS
 62
     0
 10
8.7668609706457801
 20
12.179834049075019
 30
0.0
  0
ENDBLK
  5
1218
  8
0
  0
BLOCK
  8
0
  2
*D29
 70
     1
 10
0.0
 20
0.0
 30
0.0
  3
*D29
  1

  0
LINE
  5
13B8
  8
DIM
 62
     0
 10
6.4505124189572278
 20
5.77131718478467
 30
0.0
 11
6.4505124189572278
 21
7.5683171847846751
 31
0.0
  0
LINE
  5
13B9
  8
DIM
 62
     0
 10
1.575512418957228
 20
5.77131718478467
 30
0.0
 11
1.575512418957228
 21
7.5683171847846751
 31
0.0
  0
LINE
  5
13BA
  8
DIM
 62
     0
 10
6.2705124189572281
 20
7.4753171847846751
 30
0.0
 11
4.2905124189572277
 21
7.4753171847846751
 31
0.0
  0
LINE
  5
13BB
  8
DIM
 62
     0
 10
1.755512418957228
 20
7.4753171847846751
 30
0.0
 11
3.735512418957228
 21
7.4753171847846751
 31
0.0
  0
SOLID
  5
13BC
  8
DIM
 62
     0
 10
6.2705124189572281
 20
7.5053171847846754
 30
0.0
 11
6.2705124189572281
 21
7.445317184784674
 31
0.0
 12
6.4505124189572278
 22
7.4753171847846751
 32
0.0
 13
6.4505124189572278
 23
7.4753171847846751
 33
0.0
  0
SOLID
  5
13BD
  8
DIM
 62
     0
 10
1.755512418957228
 20
7.5053171847846754
 30
0.0
 11
1.755512418957228
 21
7.445317184784674
 31
0.0
 12
1.575512418957228
 22
7.4753171847846751
 32
0.0
 13
1.575512418957228
 23
7.4753171847846751
 33
0.0
  0
TEXT
  5
13BE
  8
OBJECT
 62
     0
 10
3.8255124189572278
 20
7.4128171847846751
 30
0.0
 40
0.125
  1
4.875
 41
0.75
  7
TXT
  0
POINT
  5
13BF
  8
DEFPOINTS
 62
     0
 10
6.4505124189572278
 20
5.7083171847846703
 30
0.0
  0
POINT
  5
13C0
  8
DEFPOINTS
 62
     0
 10
1.575512418957228
 20
5.7083171847846703
 30
0.0
  0
POINT
  5
13C1
  8
DEFPOINTS
 62
     0
 10
1.575512418957228
 20
7.4753171847846751
 30
0.0
  0
ENDBLK
  5
1251
  8
0
  0
BLOCK
  8
0
  2
*D30
 70
     1
 10
0.0
 20
0.0
 30
0.0
  3
*D30
  1

  0
LINE
  5
13FD
  8
DIM
 62
     0
 10
6.4505124189572278
 20
3.9803171847846701
 30
0.0
 11
6.4505124189572278
 21
2.182317184784671
 31
0.0
  0
LINE
  5
13FE
  8
DIM
 62
     0
 10
1.575512418957228
 20
3.9803171847846701
 30
0.0
 11
1.575512418957228
 21
2.182317184784671
 31
0.0
  0
LINE
  5
13FF
  8
DIM
 62
     0
 10
6.2705124189572281
 20
2.2753171847846709
 30
0.0
 11
4.2905124189572277
 21
2.2753171847846709
 31
0.0
  0
LINE
  5
1400
  8
DIM
 62
     0
 10
1.755512418957228
 20
2.2753171847846709
 30
0.0
 11
3.735512418957228
 21
2.2753171847846709
 31
0.0
  0
SOLID
  5
1401
  8
DIM
 62
     0
 10
6.2705124189572281
 20
2.3053171847846712
 30
0.0
 11
6.2705124189572281
 21
2.245317184784672
 31
0.0
 12
6.4505124189572278
 22
2.2753171847846709
 32
0.0
 13
6.4505124189572278
 23
2.2753171847846709
 33
0.0
  0
SOLID
  5
1402
  8
DIM
 62
     0
 10
1.755512418957228
 20
2.3053171847846712
 30
0.0
 11
1.755512418957228
 21
2.245317184784672
 31
0.0
 12
1.575512418957228
 22
2.2753171847846709
 32
0.0
 13
1.575512418957228
 23
2.2753171847846709
 33
0.0
  0
TEXT
  5
1403
  8
OBJECT
 62
     0
 10
3.8255124189572278
 20
2.2128171847846709
 30
0.0
 40
0.125
  1
4.875
 41
0.75
  7
TXT
  0
POINT
  5
1404
  8
DEFPOINTS
 62
     0
 10
6.4505124189572278
 20
4.0433171847846712
 30
0.0
  0
POINT
  5
1405
  8
DEFPOINTS
 62
     0
 10
1.575512418957228
 20
4.0433171847846712
 30
0.0
  0
POINT
  5
1406
  8
DEFPOINTS
 62
     0
 10
1.575512418957228
 20
2.2753171847846709
 30
0.0
  0
ENDBLK
  5
125F
  8
0
  0
BLOCK
  8
0
  2
*D31
 70
     1
 10
0.0
 20
0.0
 30
0.0
  3
*D31
  1

  0
LINE
  5
13D5
  8
DIM
 62
     0
 10
6.9255124189572301
 20
4.8753171847846719
 30
0.0
 11
7.3555124189572281
 21
4.8753171847846719
 31
0.0
  0
LINE
  5
13D6
  8
DIM
 62
     0
 10
6.235512418957228
 20
5.390317184784676
 30
0.0
 11
7.3555124189572281
 21
5.390317184784676
 31
0.0
  0
LINE
  5
13D7
  8
DIM
 62
     0
 10
7.2625124189572281
 20
4.6953171847846731
 30
0.0
 11
7.2625124189572281
 21
4.5153171847846716
 31
0.0
  0
LINE
  5
13D8
  8
DIM
 62
     0
 10
7.2625124189572281
 20
5.5703171847846749
 30
0.0
 11
7.2625124189572281
 21
5.7503171847846763
 31
0.0
  0
SOLID
  5
13D9
  8
DIM
 62
     0
 10
7.2325124189572279
 20
4.6953171847846731
 30
0.0
 11
7.2925124189572292
 21
4.6953171847846731
 31
0.0
 12
7.2625124189572281
 22
4.8753171847846719
 32
0.0
 13
7.2625124189572281
 23
4.8753171847846719
 33
0.0
  0
SOLID
  5
13DA
  8
DIM
 62
     0
 10
7.2325124189572279
 20
5.5703171847846749
 30
0.0
 11
7.2925124189572292
 21
5.5703171847846749
 31
0.0
 12
7.2625124189572281
 22
5.390317184784676
 32
0.0
 13
7.2625124189572281
 23
5.390317184784676
 33
0.0
  0
TEXT
  5
13DB
  8
OBJECT
 62
     0
 10
7.0984499189572281
 20
5.070317184784674
 30
0.0
 40
0.125
  1
0.515
 41
0.75
  7
TXT
  0
POINT
  5
13DC
  8
DEFPOINTS
 62
     0
 10
6.8625124189572304
 20
4.8753171847846719
 30
0.0
  0
POINT
  5
13DD
  8
DEFPOINTS
 62
     0
 10
6.1725124189572291
 20
5.390317184784676
 30
0.0
  0
POINT
  5
13DE
  8
DEFPOINTS
 62
     0
 10
7.2625124189572281
 20
5.390317184784676
 30
0.0
  0
ENDBLK
  5
1299
  8
0
  0
BLOCK
  8
0
  2
*D32
 70
     1
 10
0.0
 20
0.0
 30
0.0
  3
*D32
  1

  0
LINE
  5
13F3
  8
DIM
 62
     0
 10
4.0125124189572281
 20
3.7123171847846712
 30
0.0
 11
4.0125124189572281
 21
2.5823171847846722
 31
0.0
  0
LINE
  5
13F4
  8
DIM
 62
     0
 10
6.4505124189572278
 20
3.9803171847846701
 30
0.0
 11
6.4505124189572278
 21
2.5823171847846722
 31
0.0
  0
LINE
  5
13F5
  8
DIM
 62
     0
 10
4.1925124189572269
 20
2.6753171847846722
 30
0.0
 11
4.9540124189572277
 21
2.6753171847846722
 31
0.0
  0
LINE
  5
13F6
  8
DIM
 62
     0
 10
6.2705124189572281
 20
2.6753171847846722
 30
0.0
 11
5.5090124189572283
 21
2.6753171847846722
 31
0.0
  0
SOLID
  5
13F7
  8
DIM
 62
     0
 10
4.1925124189572269
 20
2.7053171847846711
 30
0.0
 11
4.1925124189572269
 21
2.6453171847846719
 31
0.0
 12
4.0125124189572281
 22
2.6753171847846722
 32
0.0
 13
4.0125124189572281
 23
2.6753171847846722
 33
0.0
  0
SOLID
  5
13F8
  8
DIM
 62
     0
 10
6.2705124189572281
 20
2.7053171847846711
 30
0.0
 11
6.2705124189572281
 21
2.6453171847846719
 31
0.0
 12
6.4505124189572278
 22
2.6753171847846722
 32
0.0
 13
6.4505124189572278
 23
2.6753171847846722
 33
0.0
  0
TEXT
  5
13F9
  8
OBJECT
 62
     0
 10
5.0440124189572284
 20
2.6128171847846722
 30
0.0
 40
0.125
  1
2.438
 41
0.75
  7
TXT
  0
POINT
  5
13FA
  8
DEFPOINTS
 62
     0
 10
4.0125124189572281
 20
3.7753171847846709
 30
0.0
  0
POINT
  5
13FB
  8
DEFPOINTS
 62
     0
 10
6.4505124189572278
 20
4.0433171847846712
 30
0.0
  0
POINT
  5
13FC
  8
DEFPOINTS
 62
     0
 10
6.4505124189572278
 20
2.6753171847846722
 30
0.0
  0
ENDBLK
  5
12B5
  8
0
  0
BLOCK
  8
0
  2
*D33
 70
     1
 10
0.0
 20
0.0
 30
0.0
  3
*D33
  1

  0
LINE
  5
13E9
  8
DIM
 62
     0
 10
4.0125124189572281
 20
3.7123171847846712
 30
0.0
 11
4.0125124189572281
 21
2.9823171847846721
 31
0.0
  0
LINE
  5
13EA
  8
DIM
 62
     0
 10
6.1725124189572291
 20
4.2973171847846743
 30
0.0
 11
6.1725124189572291
 21
2.9823171847846721
 31
0.0
  0
LINE
  5
13EB
  8
DIM
 62
     0
 10
4.1925124189572269
 20
3.0753171847846721
 30
0.0
 11
4.8384499189572292
 21
3.0753171847846721
 31
0.0
  0
LINE
  5
13EC
  8
DIM
 62
     0
 10
5.9925124189572294
 20
3.0753171847846721
 30
0.0
 11
5.346574918957228
 21
3.0753171847846721
 31
0.0
  0
SOLID
  5
13ED
  8
DIM
 62
     0
 10
4.1925124189572269
 20
3.105317184784671
 30
0.0
 11
4.1925124189572269
 21
3.0453171847846718
 31
0.0
 12
4.0125124189572281
 22
3.0753171847846721
 32
0.0
 13
4.0125124189572281
 23
3.0753171847846721
 33
0.0
  0
SOLID
  5
13EE
  8
DIM
 62
     0
 10
5.9925124189572294
 20
3.105317184784671
 30
0.0
 11
5.9925124189572294
 21
3.0453171847846718
 31
0.0
 12
6.1725124189572291
 22
3.0753171847846721
 32
0.0
 13
6.1725124189572291
 23
3.0753171847846721
 33
0.0
  0
TEXT
  5
13EF
  8
OBJECT
 62
     0
 10
4.9284499189572291
 20
3.0128171847846721
 30
0.0
 40
0.125
  1
2.160
 41
0.75
  7
TXT
  0
POINT
  5
13F0
  8
DEFPOINTS
 62
     0
 10
4.0125124189572281
 20
3.7753171847846709
 30
0.0
  0
POINT
  5
13F1
  8
DEFPOINTS
 62
     0
 10
6.1725124189572291
 20
4.360317184784674
 30
0.0
  0
POINT
  5
13F2
  8
DEFPOINTS
 62
     0
 10
6.1725124189572291
 20
3.0753171847846721
 30
0.0
  0
ENDBLK
  5
12C3
  8
0
  0
BLOCK
  8
0
  2
*D34
 70
     1
 10
0.0
 20
0.0
 30
0.0
  3
*D34
  1

  0
LINE
  5
13DF
  8
DIM
 62
     0
 10
4.392512418957228
 20
4.2973171847846743
 30
0.0
 11
4.392512418957228
 21
3.3823171847846711
 31
0.0
  0
LINE
  5
13E0
  8
DIM
 62
     0
 10
6.1725124189572291
 20
4.2973171847846743
 30
0.0
 11
6.1725124189572291
 21
3.3823171847846711
 31
0.0
  0
LINE
  5
13E1
  8
DIM
 62
     0
 10
4.5725124189572277
 20
3.4753171847846711
 30
0.0
 11
5.0284499189572278
 21
3.4753171847846711
 31
0.0
  0
LINE
  5
13E2
  8
DIM
 62
     0
 10
5.9925124189572294
 20
3.4753171847846711
 30
0.0
 11
5.5365749189572284
 21
3.4753171847846711
 31
0.0
  0
SOLID
  5
13E3
  8
DIM
 62
     0
 10
4.5725124189572277
 20
3.5053171847846709
 30
0.0
 11
4.5725124189572277
 21
3.4453171847846709
 31
0.0
 12
4.392512418957228
 22
3.4753171847846711
 32
0.0
 13
4.392512418957228
 23
3.4753171847846711
 33
0.0
  0
SOLID
  5
13E4
  8
DIM
 62
     0
 10
5.9925124189572294
 20
3.5053171847846709
 30
0.0
 11
5.9925124189572294
 21
3.4453171847846709
 31
0.0
 12
6.1725124189572291
 22
3.4753171847846711
 32
0.0
 13
6.1725124189572291
 23
3.4753171847846711
 33
0.0
  0
TEXT
  5
13E5
  8
OBJECT
 62
     0
 10
5.1184499189572277
 20
3.4128171847846711
 30
0.0
 40
0.125
  1
1.780
 41
0.75
  7
TXT
  0
POINT
  5
13E6
  8
DEFPOINTS
 62
     0
 10
4.392512418957228
 20
4.360317184784674
 30
0.0
  0
POINT
  5
13E7
  8
DEFPOINTS
 62
     0
 10
6.1725124189572291
 20
4.360317184784674
 30
0.0
  0
POINT
  5
13E8
  8
DEFPOINTS
 62
     0
 10
6.1725124189572291
 20
3.4753171847846711
 30
0.0
  0
ENDBLK
  5
12D1
  8
0
  0
BLOCK
  8
0
  2
*D35
 70
     1
 10
0.0
 20
0.0
 30
0.0
  3
*D35
  1

  0
LINE
  5
13AE
  8
DIM
 62
     0
 10
4.0125124189572281
 20
6.0383171847846713
 30
0.0
 11
4.0125124189572281
 21
7.1683171847846729
 31
0.0
  0
LINE
  5
13AF
  8
DIM
 62
     0
 10
6.4505124189572278
 20
5.77131718478467
 30
0.0
 11
6.4505124189572278
 21
7.1683171847846729
 31
0.0
  0
LINE
  5
13B0
  8
DIM
 62
     0
 10
4.1925124189572269
 20
7.075317184784673
 30
0.0
 11
4.9540124189572277
 21
7.075317184784673
 31
0.0
  0
LINE
  5
13B1
  8
DIM
 62
     0
 10
6.2705124189572281
 20
7.075317184784673
 30
0.0
 11
5.5090124189572283
 21
7.075317184784673
 31
0.0
  0
SOLID
  5
13B2
  8
DIM
 62
     0
 10
4.1925124189572269
 20
7.1053171847846741
 30
0.0
 11
4.1925124189572269
 21
7.0453171847846727
 31
0.0
 12
4.0125124189572281
 22
7.075317184784673
 32
0.0
 13
4.0125124189572281
 23
7.075317184784673
 33
0.0
  0
SOLID
  5
13B3
  8
DIM
 62
     0
 10
6.2705124189572281
 20
7.1053171847846741
 30
0.0
 11
6.2705124189572281
 21
7.0453171847846727
 31
0.0
 12
6.4505124189572278
 22
7.075317184784673
 32
0.0
 13
6.4505124189572278
 23
7.075317184784673
 33
0.0
  0
TEXT
  5
13B4
  8
OBJECT
 62
     0
 10
5.0440124189572284
 20
7.012817184784673
 30
0.0
 40
0.125
  1
2.438
 41
0.75
  7
TXT
  0
POINT
  5
13B5
  8
DEFPOINTS
 62
     0
 10
4.0125124189572281
 20
5.9753171847846707
 30
0.0
  0
POINT
  5
13B6
  8
DEFPOINTS
 62
     0
 10
6.4505124189572278
 20
5.7083171847846703
 30
0.0
  0
POINT
  5
13B7
  8
DEFPOINTS
 62
     0
 10
6.4505124189572278
 20
7.075317184784673
 30
0.0
  0
ENDBLK
  5
12E9
  8
0
  0
BLOCK
  8
0
  2
*D36
 70
     1
 10
0.0
 20
0.0
 30
0.0
  3
*D36
  1

  0
LINE
  5
13CB
  8
DIM
 62
     0
 10
6.6585124189572307
 20
5.5633171847846734
 30
0.0
 11
8.8555124189572272
 21
5.5633171847846734
 31
0.0
  0
LINE
  5
13CC
  8
DIM
 62
     0
 10
6.6585124189572307
 20
4.1883171847846734
 30
0.0
 11
8.8555124189572272
 21
4.1883171847846734
 31
0.0
  0
LINE
  5
13CD
  8
DIM
 62
     0
 10
8.7625124189572272
 20
5.3833171847846728
 30
0.0
 11
8.7625124189572272
 21
5.0283171847846733
 31
0.0
  0
LINE
  5
13CE
  8
DIM
 62
     0
 10
8.7625124189572272
 20
4.3683171847846731
 30
0.0
 11
8.7625124189572272
 21
4.7233171847846727
 31
0.0
  0
SOLID
  5
13CF
  8
DIM
 62
     0
 10
8.7325124189572279
 20
5.3833171847846728
 30
0.0
 11
8.7925124189572266
 21
5.3833171847846728
 31
0.0
 12
8.7625124189572272
 22
5.5633171847846734
 32
0.0
 13
8.7625124189572272
 23
5.5633171847846734
 33
0.0
  0
SOLID
  5
13D0
  8
DIM
 62
     0
 10
8.7325124189572279
 20
4.3683171847846731
 30
0.0
 11
8.7925124189572266
 21
4.3683171847846731
 31
0.0
 12
8.7625124189572272
 22
4.1883171847846734
 32
0.0
 13
8.7625124189572272
 23
4.1883171847846734
 33
0.0
  0
TEXT
  5
13D1
  8
OBJECT
 62
     0
 10
8.5906374189572254
 20
4.8133171847846743
 30
0.0
 40
0.125
  1
1.375
 41
0.75
  7
TXT
  0
POINT
  5
13D2
  8
DEFPOINTS
 62
     0
 10
6.5955124189572309
 20
5.5633171847846734
 30
0.0
  0
POINT
  5
13D3
  8
DEFPOINTS
 62
     0
 10
6.5955124189572309
 20
4.1883171847846734
 30
0.0
  0
POINT
  5
13D4
  8
DEFPOINTS
 62
     0
 10
8.7625124189572272
 20
4.1883171847846734
 30
0.0
  0
ENDBLK
  5
1308
  8
0
  0
BLOCK
  8
0
  2
*D37
 70
     1
 10
0.0
 20
0.0
 30
0.0
  3
*D37
  1

  0
LINE
  5
13C2
  8
DIM
 62
     0
 10
6.9255124189572301
 20
4.8753171847846719
 30
0.0
 11
8.3555124189572272
 21
4.8753171847846719
 31
0.0
  0
LINE
  5
13C3
  8
DIM
 62
     0
 10
6.6585124189572307
 20
5.5633171847846734
 30
0.0
 11
8.3555124189572272
 21
5.5633171847846734
 31
0.0
  0
LINE
  5
13C4
  8
DIM
 62
     0
 10
8.2625124189572272
 20
5.0553171847846716
 30
0.0
 11
8.2625124189572272
 21
5.3833171847846728
 31
0.0
  0
TEXT
  5
13C5
  8
OBJECT
 62
     0
 10
8.4708249189572253
 20
5.1568171847846731
 30
0.0
 40
0.125
  1
0.688
 41
0.75
  7
TXT
  0
SOLID
  5
13C6
  8
DIM
 62
     0
 10
8.2325124189572279
 20
5.0553171847846716
 30
0.0
 11
8.2925124189572266
 21
5.0553171847846716
 31
0.0
 12
8.2625124189572272
 22
4.8753171847846719
 32
0.0
 13
8.2625124189572272
 23
4.8753171847846719
 33
0.0
  0
SOLID
  5
13C7
  8
DIM
 62
     0
 10
8.2325124189572279
 20
5.3833171847846728
 30
0.0
 11
8.2925124189572266
 21
5.3833171847846728
 31
0.0
 12
8.2625124189572272
 22
5.5633171847846734
 32
0.0
 13
8.2625124189572272
 23
5.5633171847846734
 33
0.0
  0
POINT
  5
13C8
  8
DEFPOINTS
 62
     0
 10
6.8625124189572304
 20
4.8753171847846719
 30
0.0
  0
POINT
  5
13C9
  8
DEFPOINTS
 62
     0
 10
6.5955124189572309
 20
5.5633171847846734
 30
0.0
  0
POINT
  5
13CA
  8
DEFPOINTS
 62
     0
 10
8.2625124189572272
 20
5.5633171847846734
 30
0.0
  0
ENDBLK
  5
131B
  8
0
  0
BLOCK
  8
0
  2
*D38
 70
     1
 10
0.0
 20
0.0
 30
0.0
  3
*D38
  1

  0
LINE
  5
1324
  8
DIM
 62
     0
 10
6.8247225631736201
 20
10.779834049075021
 30
0.0
 11
7.1955285135046392
 21
10.779834049075021
 31
0.0
  0
LINE
  5
1325
  8
DIM
 62
     0
 10
6.3397225631736189
 20
11.544834049075019
 30
0.0
 11
7.1955285135046392
 21
11.544834049075019
 31
0.0
  0
LINE
  5
1326
  8
DIM
 62
     0
 10
7.1025285135046392
 20
10.959834049075029
 30
0.0
 11
7.1025285135046392
 21
10.98212338745523
 31
0.0
  0
LINE
  5
1327
  8
DIM
 62
     0
 10
7.1025285135046392
 20
11.36483404907502
 30
0.0
 11
7.1025285135046392
 21
11.28712338745523
 31
0.0
  0
TEXT
  5
1328
  8
OBJECT
 62
     0
 10
6.9228410135046357
 20
11.07212338745523
 30
0.0
 40
0.125
  1
0.765
 41
0.75
  7
TXT
  0
SOLID
  5
1329
  8
DIM
 62
     0
 10
7.0725285135046381
 20
10.959834049075029
 30
0.0
 11
7.1325285135046386
 21
10.959834049075029
 31
0.0
 12
7.1025285135046392
 22
10.779834049075021
 32
0.0
 13
7.1025285135046392
 23
10.779834049075021
 33
0.0
  0
SOLID
  5
132A
  8
DIM
 62
     0
 10
7.0725285135046381
 20
11.36483404907502
 30
0.0
 11
7.1325285135046386
 21
11.36483404907502
 31
0.0
 12
7.1025285135046392
 22
11.544834049075019
 32
0.0
 13
7.1025285135046392
 23
11.544834049075019
 33
0.0
  0
POINT
  5
132B
  8
DEFPOINTS
 62
     0
 10
6.7617225631736204
 20
10.779834049075021
 30
0.0
  0
POINT
  5
132C
  8
DEFPOINTS
 62
     0
 10
6.2767225631736201
 20
11.544834049075019
 30
0.0
  0
POINT
  5
132D
  8
DEFPOINTS
 62
     0
 10
7.1025285135046392
 20
11.544834049075019
 30
0.0
  0
ENDBLK
  5
132F
  8
0
  0
BLOCK
  8
0
  2
*D39
 70
     1
 10
0.0
 20
0.0
 30
0.0
  3
*D39
  1

  0
LINE
  5
1332
  8
DIM
 62
     0
 10
6.3397225631736189
 20
11.544834049075019
 30
0.0
 11
7.7636332068033287
 21
11.544834049075019
 31
0.0
  0
LINE
  5
1333
  8
DIM
 62
     0
 10
6.3397225631736234
 20
10.014834049075031
 30
0.0
 11
7.7636332068033287
 21
10.014834049075031
 31
0.0
  0
LINE
  5
1334
  8
DIM
 62
     0
 10
7.6706332068033287
 20
11.36483404907502
 30
0.0
 11
7.6706332068033287
 21
10.932334049075029
 31
0.0
  0
LINE
  5
1335
  8
DIM
 62
     0
 10
7.6706332068033287
 20
10.19483404907503
 30
0.0
 11
7.6706332068033287
 21
10.62733404907503
 31
0.0
  0
SOLID
  5
1336
  8
DIM
 62
     0
 10
7.6406332068033294
 20
11.36483404907502
 30
0.0
 11
7.700633206803329
 21
11.36483404907502
 31
0.0
 12
7.6706332068033287
 22
11.544834049075019
 32
0.0
 13
7.6706332068033287
 23
11.544834049075019
 33
0.0
  0
SOLID
  5
1337
  8
DIM
 62
     0
 10
7.6406332068033294
 20
10.19483404907503
 30
0.0
 11
7.700633206803329
 21
10.19483404907503
 31
0.0
 12
7.6706332068033287
 22
10.014834049075031
 32
0.0
 13
7.6706332068033287
 23
10.014834049075031
 33
0.0
  0
TEXT
  5
1338
  8
OBJECT
 62
     0
 10
7.5065707068033269
 20
10.71733404907503
 30
0.0
 40
0.125
  1
1.530
 41
0.75
  7
TXT
  0
POINT
  5
1339
  8
DEFPOINTS
 62
     0
 10
6.2767225631736201
 20
11.544834049075019
 30
0.0
  0
POINT
  5
133A
  8
DEFPOINTS
 62
     0
 10
6.2767225631736228
 20
10.014834049075031
 30
0.0
  0
POINT
  5
133B
  8
DEFPOINTS
 62
     0
 10
7.6706332068033287
 20
10.014834049075031
 30
0.0
  0
ENDBLK
  5
133D
  8
0
  0
BLOCK
  8
0
  2
*D40
 70
     1
 10
0.0
 20
0.0
 30
0.0
  3
*D40
  1

  0
LINE
  5
1340
  8
DIM
 62
     0
 10
1.4267225631736209
 20
11.77983404907503
 30
0.0
 11
0.7046697945477443
 21
11.77983404907503
 31
0.0
  0
LINE
  5
1341
  8
DIM
 62
     0
 10
1.19872256317362
 20
10.779834049075021
 30
0.0
 11
0.704669794547744
 21
10.779834049075021
 31
0.0
  0
LINE
  5
1342
  8
DIM
 62
     0
 10
0.797669794547744
 20
11.59983404907503
 30
0.0
 11
0.797669794547744
 21
11.432334049075029
 31
0.0
  0
LINE
  5
1343
  8
DIM
 62
     0
 10
0.797669794547744
 20
10.959834049075029
 30
0.0
 11
0.797669794547744
 21
11.12733404907503
 31
0.0
  0
SOLID
  5
1344
  8
DIM
 62
     0
 10
0.767669794547744
 20
11.59983404907503
 30
0.0
 11
0.827669794547744
 21
11.59983404907503
 31
0.0
 12
0.7976697945477441
 22
11.77983404907503
 32
0.0
 13
0.7976697945477441
 23
11.77983404907503
 33
0.0
  0
SOLID
  5
1345
  8
DIM
 62
     0
 10
0.7676697945477439
 20
10.959834049075029
 30
0.0
 11
0.8276697945477438
 21
10.959834049075029
 31
0.0
 12
0.797669794547744
 22
10.779834049075021
 32
0.0
 13
0.797669794547744
 23
10.779834049075021
 33
0.0
  0
TEXT
  5
1346
  8
OBJECT
 62
     0
 10
0.6492322945477422
 20
11.217334049075021
 30
0.0
 40
0.125
  1
1.000
 41
0.75
  7
TXT
  0
POINT
  5
1347
  8
DEFPOINTS
 62
     0
 10
1.4897225631736211
 20
11.77983404907503
 30
0.0
  0
POINT
  5
1348
  8
DEFPOINTS
 62
     0
 10
1.26172256317362
 20
10.779834049075021
 30
0.0
  0
POINT
  5
1349
  8
DEFPOINTS
 62
     0
 10
0.797669794547744
 20
10.779834049075021
 30
0.0
  0
ENDBLK
  5
134B
  8
0
  0
BLOCK
  8
0
  2
*D41
 70
     1
 10
0.0
 20
0.0
 30
0.0
  3
*D41
  1

  0
LINE
  5
134E
  8
DIM
 62
     0
 10
4.0117225631736204
 20
11.84283404907503
 30
0.0
 11
4.0117225631736204
 21
12.16943304365908
 31
0.0
  0
LINE
  5
134F
  8
DIM
 62
     0
 10
6.2767225631736201
 20
11.60783404907502
 30
0.0
 11
6.2767225631736201
 21
12.16943304365908
 31
0.0
  0
LINE
  5
1350
  8
DIM
 62
     0
 10
4.1917225631736201
 20
12.07643304365908
 30
0.0
 11
4.86672256317362
 21
12.07643304365908
 31
0.0
  0
LINE
  5
1351
  8
DIM
 62
     0
 10
6.0967225631736204
 20
12.07643304365908
 30
0.0
 11
5.4217225631736197
 21
12.07643304365908
 31
0.0
  0
SOLID
  5
1352
  8
DIM
 62
     0
 10
4.1917225631736201
 20
12.10643304365907
 30
0.0
 11
4.1917225631736201
 21
12.04643304365908
 31
0.0
 12
4.0117225631736204
 22
12.07643304365908
 32
0.0
 13
4.0117225631736204
 23
12.07643304365908
 33
0.0
  0
SOLID
  5
1353
  8
DIM
 62
     0
 10
6.0967225631736204
 20
12.10643304365907
 30
0.0
 11
6.0967225631736204
 21
12.04643304365908
 31
0.0
 12
6.2767225631736201
 22
12.07643304365908
 32
0.0
 13
6.2767225631736201
 23
12.07643304365908
 33
0.0
  0
TEXT
  5
1354
  8
OBJECT
 62
     0
 10
4.9567225631736198
 20
12.013933043659071
 30
0.0
 40
0.125
  1
2.265
 41
0.75
  7
TXT
  0
POINT
  5
1355
  8
DEFPOINTS
 62
     0
 10
4.0117225631736204
 20
11.77983404907503
 30
0.0
  0
POINT
  5
1356
  8
DEFPOINTS
 62
     0
 10
6.2767225631736201
 20
11.544834049075019
 30
0.0
  0
POINT
  5
1357
  8
DEFPOINTS
 62
     0
 10
6.2767225631736201
 20
12.07643304365908
 30
0.0
  0
ENDBLK
  5
1359
  8
0
  0
BLOCK
  8
0
  2
*D42
 70
     1
 10
0.0
 20
0.0
 30
0.0
  3
*D42
  1

  0
LINE
  5
135C
  8
DIM
 62
     0
 10
2.4967225631736221
 20
11.60783404907502
 30
0.0
 11
2.4967225631736221
 21
12.41651269922453
 31
0.0
  0
LINE
  5
135D
  8
DIM
 62
     0
 10
6.2767225631736201
 20
11.60783404907502
 30
0.0
 11
6.2767225631736201
 21
12.41651269922453
 31
0.0
  0
LINE
  5
135E
  8
DIM
 62
     0
 10
2.6767225631736231
 20
12.32351269922453
 30
0.0
 11
3.763197418980472
 21
12.32351269922453
 31
0.0
  0
LINE
  5
135F
  8
DIM
 62
     0
 10
6.0967225631736204
 20
12.32351269922453
 30
0.0
 11
4.3025724189804722
 21
12.32351269922453
 31
0.0
  0
TEXT
  5
1360
  8
OBJECT
 62
     0
 10
3.8531974189804719
 20
12.26101269922453
 30
0.0
 40
0.125
  1
3.780
 41
0.75
  7
TXT
  0
SOLID
  5
1361
  8
DIM
 62
     0
 10
2.6767225631736231
 20
12.35351269922452
 30
0.0
 11
2.6767225631736231
 21
12.29351269922453
 31
0.0
 12
2.4967225631736221
 22
12.32351269922453
 32
0.0
 13
2.4967225631736221
 23
12.32351269922453
 33
0.0
  0
SOLID
  5
1362
  8
DIM
 62
     0
 10
6.0967225631736204
 20
12.35351269922452
 30
0.0
 11
6.0967225631736204
 21
12.29351269922453
 31
0.0
 12
6.2767225631736201
 22
12.32351269922453
 32
0.0
 13
6.2767225631736201
 23
12.32351269922453
 33
0.0
  0
POINT
  5
1363
  8
DEFPOINTS
 62
     0
 10
2.4967225631736221
 20
11.544834049075019
 30
0.0
  0
POINT
  5
1364
  8
DEFPOINTS
 62
     0
 10
6.2767225631736201
 20
11.544834049075019
 30
0.0
  0
POINT
  5
1365
  8
DEFPOINTS
 62
     0
 10
6.2767225631736201
 20
12.32351269922453
 30
0.0
  0
ENDBLK
  5
1367
  8
0
  0
BLOCK
  8
0
  2
*D43
 70
     1
 10
0.0
 20
0.0
 30
0.0
  3
*D43
  1

  0
LINE
  5
1386
  8
DIM
 62
     0
 10
2.7288378127649051
 20
3.9703171847846721
 30
0.0
 11
2.8474998470991961
 21
3.9703171847846721
 31
0.0
  0
LINE
  5
1387
  8
DIM
 62
     0
 10
2.7288378127649051
 20
5.7803171847846713
 30
0.0
 11
2.847499847099197
 21
5.7803171847846713
 31
0.0
  0
LINE
  5
1388
  8
DIM
 62
     0
 10
2.7544998470991962
 20
4.1503171847846714
 30
0.0
 11
2.7544998470991962
 21
4.9805810553716547
 31
0.0
  0
LINE
  5
1389
  8
DIM
 62
     0
 10
2.754499847099197
 20
5.6003171847846707
 30
0.0
 11
2.754499847099197
 21
5.2855810553716553
 31
0.0
  0
TEXT
  5
138A
  8
OBJECT
 62
     0
 10
2.6060623470991962
 20
5.0705810553716564
 30
0.0
 40
0.125
  1
1.810
 41
0.75
  7
TXT
  0
SOLID
  5
138B
  8
DIM
 62
     0
 10
2.7244998470991959
 20
4.1503171847846714
 30
0.0
 11
2.784499847099196
 21
4.1503171847846714
 31
0.0
 12
2.7544998470991962
 22
3.9703171847846721
 32
0.0
 13
2.7544998470991962
 23
3.9703171847846721
 33
0.0
  0
SOLID
  5
138C
  8
DIM
 62
     0
 10
2.7244998470991968
 20
5.6003171847846707
 30
0.0
 11
2.784499847099196
 21
5.6003171847846707
 31
0.0
 12
2.754499847099197
 22
5.7803171847846713
 32
0.0
 13
2.754499847099197
 23
5.7803171847846713
 33
0.0
  0
POINT
  5
138D
  8
DEFPOINTS
 62
     0
 10
2.6658378127649041
 20
3.9703171847846721
 30
0.0
  0
POINT
  5
138E
  8
DEFPOINTS
 62
     0
 10
2.6658378127649041
 20
5.7803171847846713
 30
0.0
  0
POINT
  5
138F
  8
DEFPOINTS
 62
     0
 10
2.754499847099197
 20
5.7803171847846713
 30
0.0
  0
ENDBLK
  5
1391
  8
0
  0
BLOCK
  8
0
  2
*D44
 70
     1
 10
0.0
 20
0.0
 30
0.0
  3
*D44
  1

  0
LINE
  5
1394
  8
DIM
 62
     0
 10
1.357512418957225
 20
4.6739080687509427
 30
0.0
 11
1.357512418957225
 21
4.7435640458882791
 31
0.0
  0
LINE
  5
1395
  8
DIM
 62
     0
 10
6.6675124189572301
 20
4.6739080687509427
 30
0.0
 11
6.6675124189572301
 21
4.7435640458882791
 31
0.0
  0
LINE
  5
1396
  8
DIM
 62
     0
 10
1.5375124189572249
 20
4.6505640458882791
 30
0.0
 11
3.1366493862532692
 21
4.6505640458882791
 31
0.0
  0
LINE
  5
1397
  8
DIM
 62
     0
 10
6.4875124189572304
 20
4.6505640458882791
 30
0.0
 11
3.6447743862532689
 21
4.6505640458882791
 31
0.0
  0
TEXT
  5
1398
  8
OBJECT
 62
     0
 10
3.226649386253269
 20
4.5880640458882791
 30
0.0
 40
0.125
  1
5.310
 41
0.75
  7
TXT
  0
SOLID
  5
1399
  8
DIM
 62
     0
 10
1.5375124189572249
 20
4.6805640458882802
 30
0.0
 11
1.5375124189572249
 21
4.6205640458882788
 31
0.0
 12
1.357512418957225
 22
4.6505640458882791
 32
0.0
 13
1.357512418957225
 23
4.6505640458882791
 33
0.0
  0
SOLID
  5
139A
  8
DIM
 62
     0
 10
6.4875124189572304
 20
4.6805640458882802
 30
0.0
 11
6.4875124189572304
 21
4.6205640458882788
 31
0.0
 12
6.6675124189572301
 22
4.6505640458882791
 32
0.0
 13
6.6675124189572301
 23
4.6505640458882791
 33
0.0
  0
POINT
  5
139B
  8
DEFPOINTS
 62
     0
 10
1.357512418957225
 20
4.6109080687509429
 30
0.0
  0
POINT
  5
139C
  8
DEFPOINTS
 62
     0
 10
6.6675124189572301
 20
4.6109080687509429
 30
0.0
  0
POINT
  5
139D
  8
DEFPOINTS
 62
     0
 10
6.6675124189572301
 20
4.6505640458882791
 30
0.0
  0
ENDBLK
  5
139F
  8
0
  0
BLOCK
  8
0
  2
*D45
 70
     1
 10
0.0
 20
0.0
 30
0.0
  3
*D45
  1

  0
LINE
  5
13A2
  8
DIM
 62
     0
 10
2.240762700029038
 20
8.0954386234813107
 30
0.0
 11
1.9989612747540511
 21
8.0954386234813107
 31
0.0
  0
LINE
  5
13A3
  8
DIM
 62
     0
 10
2.240762700029038
 20
8.7094386234813062
 30
0.0
 11
1.9989612747540511
 21
8.7094386234813062
 31
0.0
  0
LINE
  5
13A4
  8
DIM
 62
     0
 10
2.091961274754051
 20
8.2754386234813104
 30
0.0
 11
2.091961274754051
 21
8.5294386234813064
 31
0.0
  0
TEXT
  5
13A5
  8
OBJECT
 62
     0
 10
2.3619612747540502
 20
9.0831661035625402
 30
0.0
 40
0.125
  1
0.614
 41
0.75
  7
TXT
  0
SOLID
  5
13A6
  8
DIM
 62
     0
 10
2.0619612747540512
 20
8.2754386234813104
 30
0.0
 11
2.1219612747540499
 21
8.2754386234813104
 31
0.0
 12
2.091961274754051
 22
8.0954386234813107
 32
0.0
 13
2.091961274754051
 23
8.0954386234813107
 33
0.0
  0
SOLID
  5
13A7
  8
DIM
 62
     0
 10
2.0619612747540512
 20
8.5294386234813064
 30
0.0
 11
2.1219612747540499
 21
8.5294386234813064
 31
0.0
 12
2.091961274754051
 22
8.7094386234813062
 32
0.0
 13
2.091961274754051
 23
8.7094386234813062
 33
0.0
  0
POINT
  5
13A8
  8
DEFPOINTS
 62
     0
 10
2.303762700029039
 20
8.0954386234813107
 30
0.0
  0
POINT
  5
13A9
  8
DEFPOINTS
 62
     0
 10
2.303762700029039
 20
8.7094386234813062
 30
0.0
  0
POINT
  5
13AA
  8
DEFPOINTS
 62
     0
 10
2.091961274754051
 20
8.7094386234813062
 30
0.0
  0
ENDBLK
  5
13AC
  8
0
  0
ENDSEC
  0
SECTION
  2
ENTITIES
  0
INSERT
  5
113F
  8
OBJECT
  2
HB
 10
0.0
 20
0.0
 30
0.0
  0
TEXT
  5
1140
  8
0
 10
21.288500062878668
 20
15.842093259692231
 30
0.0
 40
0.125
  1

  0
TEXT
  5
1141
  8
0
 10
21.288500062878668
 20
15.6412917590101
 30
0.0
 40
0.125
  1

  0
TEXT
  5
1142
  8
0
 10
21.33169046588549
 20
25.750867648794191
 30
0.0
 40
0.125
  1

  0
TEXT
  5
1143
  8
0
 10
21.33169046588549
 20
25.550066148112052
 30
0.0
 40
0.125
  1

  0
TEXT
  5
1144
  8
TEXT
 10
0.2276139573438253
 20
0.5217723740215811
 30
0.0
 40
0.125
  1
PART NO.
 41
0.75
  7
TXT
 72
     1
 11
0.5557389573438253
 21
0.5217723740215811
 31
0.0
  0
TEXT
  5
1145
  8
TEXT
 10
0.2432389573438253
 20
0.3134390406882475
 30
0.0
 40
0.125
  1
HH-3463
 41
0.75
  7
TXT
 72
     1
 11
0.5557389573438253
 21
0.3134390406882475
 31
0.0
  0
TEXT
  5
1146
  8
TEXT
 10
0.2432389573438253
 20
0.1051057073549142
 30
0.0
 40
0.125
  1
HH-3464
 41
0.75
  7
TXT
 72
     1
 11
0.5557389573438253
 21
0.1051057073549142
 31
0.0
  0
LINE
  5
1147
  8
TITLE
 10
0.0619999999999976
 20
0.4779999999999994
 30
0.0
 11
10.058
 21
0.4779999999999994
 31
0.0
  0
LINE
  5
1148
  8
TITLE
 10
0.0619999999999976
 20
0.6859999999999993
 30
0.0
 11
10.058
 21
0.6859999999999993
 31
0.0
  0
TEXT
  5
1149
  8
TEXT
 10
1.83186146854508
 20
15.12935767323186
 30
0.0
 40
0.156
  1
GRABBER  (STYLE D)
 41
0.75
  7
TXT
 72
     1
 11
2.82636146854508
 21
15.12935767323186
 31
0.0
  0
TEXT
  5
114A
  8
TEXT
 10
6.4245766689350123
 20
14.69045965100217
 30
0.0
 40
0.125
  1
FOUR (4) #4 x 0.500" LG. SCREWS (BLACK)
 41
0.75
  7
TXT
  0
TEXT
  5
114B
  8
TEXT
 10
6.4245766689350123
 20
14.48212631766884
 30
0.0
 40
0.125
  1
SUPPLIED FOR ASSEMBLING COVER TO BODY
 41
0.75
  7
TXT
  0
TEXT
  5
114C
  8
TEXT
 10
6.4363353091987952
 20
13.929915536597409
 30
0.0
 40
0.125
  1
NOTE: ALL DIMENSIONS HAVE %%P0.010
 41
0.75
  7
TXT
  0
TEXT
  5
114D
  8
TEXT
 10
6.4363353091987952
 20
13.72158220326409
 30
0.0
 40
0.125
  1
TOLERANCE UNLESS OTHERWISE
 41
0.75
  7
TXT
  0
TEXT
  5
114E
  8
TEXT
 10
6.4363353091987952
 20
13.51920720326409
 30
0.0
 40
0.125
  1
SPECIFIED
 41
0.75
  7
TXT
  0
TEXT
  5
114F
  8
TEXT
 10
6.8886288818516919
 20
15.12935767323186
 30
0.0
 40
0.156
  1
HH-3463  &  HH-3464
 41
0.75
  7
TXT
 72
     1
 11
7.9806288818516924
 21
15.12935767323186
 31
0.0
  0
LINE
  5
1150
  8
TITLE
 10
1.0615999999999981
 20
0.6859999999999993
 30
0.0
 11
1.0615999999999981
 21
0.0620000000000012
 31
0.0
  0
TEXT
  5
1151
  8
TEXT
 10
0.2439867659889323
 20
14.686700315732031
 30
0.0
 40
0.125
  1
MATERIAL: ABS THERMOPLASTIC, UL94V-0
 41
0.75
  7
TXT
  0
TEXT
  5
1152
  8
TEXT
 10
0.4860894395146964
 20
14.4783669823987
 30
0.0
 40
0.125
  1
FLAMMABILITY RATING (UL FILE #E121562),
 41
0.75
  7
TXT
  0
TEXT
  5
1153
  8
TEXT
 10
0.4860894395146964
 20
14.27003364906537
 30
0.0
 40
0.125
  1
SUGGESTED SERVICE TEMPERATURE -20%%D C
 41
0.75
  7
TXT
  0
TEXT
  5
1154
  8
TEXT
 10
0.4860894395146964
 20
14.067658649065351
 30
0.0
 40
0.125
  1
TO +70%%D C
 41
0.75
  7
TXT
  0
TEXT
  5
1155
  8
TEXT
 10
0.2439867659889323
 20
13.789947768072651
 30
0.0
 40
0.125
  1
FINISH: BLACK TEXTURED
 41
0.75
  7
TXT
  0
DIMENSION
  5
1156
  8
DIM
  2
*D25
 10
0.3262741080446147
 20
9.7798340490750331
 30
0.0
 11
0.3262741080446132
 21
10.779834049075021
 31
0.0
 70
   128
 13
1.4897225631736211
 23
11.77983404907503
 33
0.0
 14
1.4897225631736211
 24
9.7798340490750331
 34
0.0
 50
90.0
  0
LINE
  5
1164
  8
OBJECT
  6
HIDDEN2
 10
6.6687225631736204
 20
11.551834049075021
 30
0.0
 11
6.6687225631736204
 21
10.00783404907502
 31
0.0
  0
LINE
  5
1165
  8
OBJECT
 62
     0
 10
6.7617225631736204
 20
11.551834049075021
 30
0.0
 11
6.7617225631736204
 21
10.00783404907502
 31
0.0
  0
LINE
  5
1166
  8
OBJECT
 62
     0
 10
6.2767225631736228
 20
10.014834049075031
 30
0.0
 11
6.2767225631736201
 21
11.544834049075019
 31
0.0
  0
LINE
  5
1167
  8
OBJECT
 62
     0
 10
6.2457225631736222
 20
10.04583404907503
 30
0.0
 11
6.2457225631736222
 21
11.513834049075021
 31
0.0
  0
LINE
  5
1168
  8
OBJECT
 62
     0
 10
2.4967225631736221
 20
10.014834049075031
 30
0.0
 11
2.4967225631736221
 21
11.544834049075019
 31
0.0
  0
LINE
  5
1169
  8
OBJECT
 62
     0
 10
2.5277225631736222
 20
10.04583404907503
 30
0.0
 11
2.5277225631736222
 21
11.513834049075021
 31
0.0
  0
LINE
  5
116A
  8
OBJECT
  6
HIDDEN2
 10
1.3547225631736231
 20
11.551834049075021
 30
0.0
 11
1.3547225631736231
 21
10.00783404907502
 31
0.0
  0
LINE
  5
116B
  8
OBJECT
 62
     0
 10
1.26172256317362
 20
11.551834049075021
 30
0.0
 11
1.26172256317362
 21
10.00783404907502
 31
0.0
  0
LINE
  5
116C
  8
0
  6
HIDDEN2
 62
     4
 10
9.2498609706457735
 20
11.73505218457939
 30
0.0
 11
9.2498609706457788
 21
9.8246159135706534
 31
0.0
  0
LINE
  5
116D
  8
OBJECT
  6
HIDDEN2
 10
9.5568609706457792
 20
11.294834049075019
 30
0.0
 11
9.5568609706457828
 21
10.264834049075031
 31
0.0
  0
LINE
  5
116E
  8
OBJECT
  6
HIDDEN2
 10
9.4738609706457755
 20
11.65135902880775
 30
0.0
 11
9.4738609706457844
 21
9.9083090693423035
 31
0.0
  0
LINE
  5
116F
  8
OBJECT
 10
9.566860970645779
 20
11.65135902880775
 30
0.0
 11
9.5668609706457843
 21
9.9083090693423035
 31
0.0
  0
LINE
  5
1170
  8
OBJECT
 10
9.2158609706457746
 20
11.77983404907503
 30
0.0
 11
9.2158609706457781
 21
9.7798340490750313
 31
0.0
  0
LINE
  5
1171
  8
OBJECT
 10
9.18686097064578
 20
11.77983404907501
 30
0.0
 11
9.18686097064578
 21
9.7798340490750277
 31
0.0
  0
LINE
  5
1172
  8
OBJECT
 10
9.2498609706457788
 20
11.735834049075031
 30
0.0
 11
9.2498609706457788
 21
9.8238340490750335
 31
0.0
  0
LINE
  5
1173
  8
OBJECT
  6
HIDDEN2
 10
8.85986097064578
 20
11.61073327393534
 30
0.0
 11
8.85986097064578
 21
9.9489348242147173
 31
0.0
  0
LINE
  5
1174
  8
OBJECT
  6
HIDDEN2
 10
8.7978609706457735
 20
11.544834049075011
 30
0.0
 11
8.7978609706457824
 21
10.014834049075031
 31
0.0
  0
LINE
  5
1175
  8
OBJECT
 10
8.7668609706457801
 20
11.61073327393534
 30
0.0
 11
8.7668609706457801
 21
9.9489348242147173
 31
0.0
  0
TEXT
  5
1176
  8
TEXT
 10
-0.3644728650142355
 20
1.0191960487885821
 30
0.0
 40
0.125
  1
        SANDWICHED BETWEEN TOP & BOTTOM CASE (.063 NOM. BOARD THICKNESS)
 41
0.75
  7
TXT
  0
TEXT
  5
1177
  8
TEXT
 10
0.2043543821578311
 20
1.21999754947071
 30
0.0
 40
0.125
  1
 1.) PC BOARD CAN BE HELD IN PLACE BY BEING
 41
0.75
  7
TXT
  0
LINE
  5
1178
  8
OBJECT
 62
     0
 10
2.4967225631736221
 20
10.014834049075031
 30
0.0
 11
6.2767225631736228
 21
10.014834049075031
 31
0.0
  0
LINE
  5
1179
  8
OBJECT
 62
     0
 10
2.5277225631736222
 20
10.04583404907503
 30
0.0
 11
6.2457225631736222
 21
10.04583404907503
 31
0.0
  0
LINE
  5
117A
  8
OBJECT
  6
HIDDEN2
 10
1.4897225631736211
 20
9.8728340490750313
 30
0.0
 11
6.5337225631736171
 21
9.8728340490750313
 31
0.0
  0
LINE
  5
117B
  8
OBJECT
 62
     0
 10
1.4897225631736211
 20
9.7798340490750331
 30
0.0
 11
6.5337225631736171
 21
9.7798340490750331
 31
0.0
  0
LINE
  5
117C
  8
OBJECT
  6
HIDDEN2
 10
4.3907225631736173
 20
8.0124386234813123
 30
0.0
 11
6.171722563173617
 21
8.0124386234813123
 31
0.0
  0
LINE
  5
117D
  8
OBJECT
  6
HIDDEN2
 10
1.306504427669245
 20
8.3194386234813145
 30
0.0
 11
6.7169406986779983
 21
8.3194386234813091
 31
0.0
  0
LINE
  5
117E
  8
OBJECT
  6
HIDDEN2
 10
1.3901975834408931
 20
8.0954386234813107
 30
0.0
 11
6.6332475429063447
 21
8.0954386234813107
 31
0.0
  0
LINE
  5
117F
  8
OBJECT
 62
     0
 10
1.3901975834408931
 20
8.0024386234813107
 30
0.0
 11
6.6332475429063447
 21
8.0024386234813107
 31
0.0
  0
LINE
  5
1180
  8
OBJECT
 62
     0
 10
1.26172256317362
 20
8.3534386234813134
 30
0.0
 11
6.7617225631736204
 21
8.3534386234813134
 31
0.0
  0
LINE
  5
1181
  8
OBJECT
  6
HIDDEN2
 10
2.496722563173619
 20
8.7714386234813091
 30
0.0
 11
6.2767225631736174
 21
8.7714386234813091
 31
0.0
  0
LINE
  5
1182
  8
OBJECT
  6
HIDDEN2
 10
1.4308233383133051
 20
8.7094386234813062
 30
0.0
 11
6.5926217880339344
 21
8.7094386234813062
 31
0.0
  0
LINE
  5
1183
  8
OBJECT
 62
     0
 10
1.26172256317362
 20
8.3824386234813062
 30
0.0
 11
6.7617225631736204
 21
8.3824386234813062
 31
0.0
  0
LINE
  5
1184
  8
OBJECT
 62
     0
 10
1.4308233383133051
 20
8.8024386234813061
 30
0.0
 11
6.5926217880339344
 21
8.8024386234813061
 31
0.0
  0
TEXT
  5
1185
  8
TEXT
 10
0.2043543821578311
 20
1.4207990501528389
 30
0.0
 40
0.125
  1
NOTES:
 41
0.75
  7
TXT
  0
LINE
  5
1186
  8
OBJECT
  6
HIDDEN2
 10
1.6703171709650051
 20
8.1554386234813094
 30
0.0
 11
1.7142225631736201
 21
8.0954386234813107
 31
0.0
  0
ARC
  5
1187
  8
OBJECT
 62
     0
 10
1.4308233383133051
 20
8.6474386234813032
 30
0.0
 40
0.155
 50
90.0
 51
177.0
  0
LINE
  5
1188
  8
OBJECT
 62
     0
 10
1.26172256317362
 20
8.3534386234813134
 30
0.0
 11
1.274356557409362
 21
8.1123676525571291
 31
0.0
  0
LINE
  5
1189
  8
OBJECT
  6
HIDDEN2
 10
1.356632055847049
 20
8.3194386234813091
 30
0.0
 11
1.3672291041415381
 21
8.117234896487723
 31
0.0
  0
ARC
  5
118A
  8
OBJECT
 62
     0
 10
1.3901975834408931
 20
8.1184386234813122
 30
0.0
 40
0.116
 50
183.00000000000011
 51
270.0
  0
ARC
  5
118B
  8
OBJECT
  6
HIDDEN2
 10
1.3901975834408931
 20
8.1184386234813122
 30
0.0
 40
0.023
 50
183.00000000000011
 51
270.0
  0
LINE
  5
118C
  8
OBJECT
  6
HIDDEN2
 10
1.6892225631736211
 20
8.0024386234813107
 30
0.0
 11
1.6892225631736211
 21
8.0464386234813112
 31
0.0
  0
LINE
  5
118D
  8
OBJECT
  6
HIDDEN2
 10
1.6682225631736201
 20
8.2754386234813104
 30
0.0
 11
1.6703171709650051
 21
8.1554386234813077
 31
0.0
  0
LINE
  5
118E
  8
OBJECT
  6
HIDDEN2
 10
1.5148421816301709
 20
8.1104216753754166
 30
0.0
 11
1.6336029447170639
 21
8.1104216753754272
 31
0.0
  0
LINE
  5
118F
  8
OBJECT
  6
HIDDEN2
 10
1.4592225631736171
 20
8.0024386234813107
 30
0.0
 11
1.4592225631736171
 21
8.0464386234813112
 31
0.0
  0
LINE
  5
1190
  8
OBJECT
  6
HIDDEN2
 10
1.514842181630174
 20
8.1104216753754166
 30
0.0
 11
1.4592225631736211
 21
8.0464386234813112
 31
0.0
  0
LINE
  5
1191
  8
OBJECT
  6
HIDDEN2
 10
1.478127955382234
 20
8.1554386234813112
 30
0.0
 11
1.434222563173619
 21
8.0954386234813107
 31
0.0
  0
LINE
  5
1192
  8
OBJECT
  6
HIDDEN2
 10
1.51772256317362
 20
8.2754386234813104
 30
0.0
 11
1.5148421816301709
 21
8.1104216753754166
 31
0.0
  0
LINE
  5
1193
  8
OBJECT
  6
HIDDEN2
 10
1.480222563173619
 20
8.2754386234813104
 30
0.0
 11
1.4781279553822291
 21
8.1554386234813112
 31
0.0
  0
LINE
  5
1194
  8
OBJECT
  6
HIDDEN2
 10
1.63072256317362
 20
8.2754386234813104
 30
0.0
 11
1.6336029447170639
 21
8.1104216753754272
 31
0.0
  0
LINE
  5
1195
  8
OBJECT
  6
HIDDEN2
 10
1.4781279553822271
 20
8.1554386234813112
 30
0.0
 11
1.6703171709650091
 21
8.1554386234813094
 31
0.0
  0
LINE
  5
1196
  8
OBJECT
  6
HIDDEN2
 10
1.480222563173619
 20
8.2754386234813104
 30
0.0
 11
1.6682225631736201
 21
8.2754386234813104
 31
0.0
  0
LINE
  5
1197
  8
OBJECT
  6
HIDDEN2
 10
1.4592225631736211
 20
8.0464386234813112
 30
0.0
 11
1.6892225631736211
 21
8.0464386234813112
 31
0.0
  0
LINE
  5
1198
  8
OBJECT
  6
HIDDEN2
 10
1.6336029447170639
 20
8.1104216753754272
 30
0.0
 11
1.6892225631736211
 21
8.0464386234813112
 31
0.0
  0
ARC
  5
1199
  8
OBJECT
  6
HIDDEN2
 10
1.4308233383133051
 20
8.6474386234813032
 30
0.0
 40
0.062
 50
90.0
 51
177.0
  0
LINE
  5
119A
  8
OBJECT
  6
HIDDEN2
 10
1.304722563173619
 20
8.3534386234813134
 30
0.0
 11
1.306504427669241
 21
8.3194386234813091
 31
0.0
  0
LINE
  5
119B
  8
OBJECT
 62
     0
 10
1.303940698677998
 20
8.3534386234813134
 30
0.0
 11
1.302420873078787
 21
8.3824386234813062
 31
0.0
  0
LINE
  5
119C
  8
OBJECT
  6
HIDDEN2
 10
1.3515485012565971
 20
8.3194386234813091
 30
0.0
 11
1.3689083071585231
 21
8.6506834527683694
 31
0.0
  0
LINE
  5
119D
  8
OBJECT
 62
     0
 10
1.26172256317362
 20
8.3824386234813062
 30
0.0
 11
1.276035760426345
 21
8.6555506966989668
 31
0.0
  0
LINE
  5
119E
  8
OBJECT
  6
HIDDEN2
 10
1.5363554878463379
 20
8.7194386234813042
 30
0.0
 11
1.5297225631736211
 21
8.3394386234813105
 31
0.0
  0
LINE
  5
119F
  8
OBJECT
  6
HIDDEN2
 10
1.6130896385008939
 20
8.7194386234813042
 30
0.0
 11
1.6197225631736201
 21
8.3394386234813105
 31
0.0
  0
LINE
  5
11A0
  8
OBJECT
  6
HIDDEN2
 10
1.6719515042562021
 20
8.7094386234813062
 30
0.0
 11
1.6687225631736189
 21
8.3394386234813052
 31
0.0
  0
LINE
  5
11A1
  8
OBJECT
  6
HIDDEN2
 10
1.5363554878463379
 20
8.7194386234813095
 30
0.0
 11
1.6130896385008939
 21
8.7194386234813095
 31
0.0
  0
LINE
  5
11A2
  8
OBJECT
  6
HIDDEN2
 10
1.4774936220910351
 20
8.7094386234813062
 30
0.0
 11
1.4807225631736181
 21
8.3394386234813052
 31
0.0
  0
LINE
  5
11A3
  8
OBJECT
  6
HIDDEN2
 10
1.4807225631736181
 20
8.3394386234813052
 30
0.0
 11
1.6687225631736189
 21
8.3394386234813052
 31
0.0
  0
LINE
  5
11A4
  8
OBJECT
  6
HIDDEN2
 10
2.496722563173619
 20
8.8024386234813061
 30
0.0
 11
2.496722563173619
 21
8.7714386234813091
 31
0.0
  0
ARC
  5
11A5
  8
OBJECT
  6
HIDDEN2
 10
1.4897225631736211
 20
10.00783404907502
 30
0.0
 40
0.135
 50
180.0
 51
270.0
  0
ARC
  5
11A6
  8
OBJECT
 62
     0
 10
1.4897225631736211
 20
10.00783404907502
 30
0.0
 40
0.228
 50
180.0
 51
270.0
  0
CIRCLE
  5
11A7
  8
OBJECT
  6
HIDDEN2
 10
1.574722563173621
 20
10.092834049075019
 30
0.0
 40
0.094
  0
CIRCLE
  5
11A8
  8
OBJECT
  6
HIDDEN2
 10
1.574722563173621
 20
10.092834049075019
 30
0.0
 40
0.045
  0
LINE
  5
11A9
  8
OBJECT
  6
HIDDEN2
 10
4.3907225631736173
 20
8.0124386234813088
 30
0.0
 11
4.3907225631736173
 21
8.0024386234813107
 31
0.0
  0
DIMENSION
  5
11AA
  8
DIM
  2
*D26
 10
7.1405306776814621
 20
8.3394386234813052
 30
0.0
 11
7.5824056776814599
 21
8.6994386234813081
 31
0.0
 70
   128
  1
0.063
 13
6.5432225631736198
 23
8.2754386234813122
 33
0.0
 14
6.5437225631736204
 24
8.3394386234813052
 34
0.0
 50
90.0
  0
LINE
  5
11B8
  8
OBJECT
  6
HIDDEN2
 10
6.171722563173617
 20
8.0124386234813123
 30
0.0
 11
6.1717225631736188
 21
8.0024386234813107
 31
0.0
  0
ARC
  5
11B9
  8
OBJECT
 62
     0
 10
6.5926217880339344
 20
8.6474386234813032
 30
0.0
 40
0.155
 50
3.0000000000001958
 51
90.0
  0
LINE
  5
11BA
  8
OBJECT
  6
HIDDEN2
 10
6.666813070500182
 20
8.3194386234813091
 30
0.0
 11
6.6562160222056974
 21
8.117234896487723
 31
0.0
  0
LINE
  5
11BB
  8
OBJECT
 62
     0
 10
6.7617225631736204
 20
8.3534386234813134
 30
0.0
 11
6.7490885689378768
 21
8.1123676525571291
 31
0.0
  0
LINE
  5
11BC
  8
OBJECT
  6
HIDDEN2
 10
6.5086029447170652
 20
8.1104216753754201
 30
0.0
 11
6.5642225631736171
 21
8.0464386234813148
 31
0.0
  0
LINE
  5
11BD
  8
OBJECT
  6
HIDDEN2
 10
6.3531279553822273
 20
8.1554386234813112
 30
0.0
 11
6.5453171709650091
 21
8.1554386234813094
 31
0.0
  0
LINE
  5
11BE
  8
OBJECT
  6
HIDDEN2
 10
6.5432225631736198
 20
8.2754386234813122
 30
0.0
 11
6.3552225631736192
 21
8.2754386234813104
 31
0.0
  0
LINE
  5
11BF
  8
OBJECT
  6
HIDDEN2
 10
6.5642225631736171
 20
8.0464386234813148
 30
0.0
 11
6.3342225631736166
 21
8.0464386234813112
 31
0.0
  0
LINE
  5
11C0
  8
OBJECT
  6
HIDDEN2
 10
6.5057225631736202
 20
8.2754386234813122
 30
0.0
 11
6.508602944717067
 21
8.1104216753754166
 31
0.0
  0
LINE
  5
11C1
  8
OBJECT
  6
HIDDEN2
 10
6.3898421816301747
 20
8.1104216753754272
 30
0.0
 11
6.3342225631736166
 21
8.0464386234813148
 31
0.0
  0
LINE
  5
11C2
  8
OBJECT
  6
HIDDEN2
 10
6.3531279553822326
 20
8.1554386234813112
 30
0.0
 11
6.309222563173619
 21
8.0954386234813107
 31
0.0
  0
LINE
  5
11C3
  8
OBJECT
  6
HIDDEN2
 10
6.3342225631736166
 20
8.0024386234813107
 30
0.0
 11
6.3342225631736166
 21
8.0464386234813112
 31
0.0
  0
LINE
  5
11C4
  8
OBJECT
  6
HIDDEN2
 10
6.3552225631736192
 20
8.2754386234813122
 30
0.0
 11
6.3531279553822291
 21
8.1554386234813112
 31
0.0
  0
LINE
  5
11C5
  8
OBJECT
  6
HIDDEN2
 10
6.3927225631736189
 20
8.2754386234813122
 30
0.0
 11
6.3898421816301747
 21
8.1104216753754272
 31
0.0
  0
LINE
  5
11C6
  8
OBJECT
  6
HIDDEN2
 10
6.508602944717067
 20
8.1104216753754166
 30
0.0
 11
6.3898421816301747
 21
8.1104216753754272
 31
0.0
  0
LINE
  5
11C7
  8
OBJECT
  6
HIDDEN2
 10
6.5453171709650064
 20
8.1554386234813094
 30
0.0
 11
6.5892225631736201
 21
8.0954386234813107
 31
0.0
  0
ARC
  5
11C8
  8
OBJECT
  6
HIDDEN2
 10
6.6332475429063447
 20
8.1184386234813122
 30
0.0
 40
0.023
 50
270.0
 51
356.99999999999972
  0
LINE
  5
11C9
  8
OBJECT
  6
HIDDEN2
 10
6.5642225631736224
 20
8.0024386234813107
 30
0.0
 11
6.5642225631736224
 21
8.0464386234813148
 31
0.0
  0
ARC
  5
11CA
  8
OBJECT
 62
     0
 10
6.6332475429063447
 20
8.1184386234813122
 30
0.0
 40
0.116
 50
270.0
 51
356.99999999999972
  0
LINE
  5
11CB
  8
OBJECT
  6
HIDDEN2
 10
6.5432225631736198
 20
8.2754386234813122
 30
0.0
 11
6.5453171709650064
 21
8.1554386234813077
 31
0.0
  0
LINE
  5
11CC
  8
OBJECT
  6
HIDDEN2
 10
6.5437225631736204
 20
8.3394386234813052
 30
0.0
 11
6.3557225631736172
 21
8.3394386234813052
 31
0.0
  0
LINE
  5
11CD
  8
OBJECT
  6
HIDDEN2
 10
6.3524936220910337
 20
8.7094386234813062
 30
0.0
 11
6.3557225631736172
 21
8.3394386234813052
 31
0.0
  0
LINE
  5
11CE
  8
OBJECT
  6
HIDDEN2
 10
6.488089638500897
 20
8.7194386234813042
 30
0.0
 11
6.4947225631736174
 21
8.3394386234813105
 31
0.0
  0
LINE
  5
11CF
  8
OBJECT
  6
HIDDEN2
 10
6.4113554878463379
 20
8.7194386234813042
 30
0.0
 11
6.4047225631736158
 21
8.3394386234813105
 31
0.0
  0
LINE
  5
11D0
  8
OBJECT
  6
HIDDEN2
 10
6.4113554878463379
 20
8.7194386234813095
 30
0.0
 11
6.488089638500897
 21
8.7194386234813095
 31
0.0
  0
LINE
  5
11D1
  8
OBJECT
  6
HIDDEN2
 10
6.7187225631736212
 20
8.3534386234813134
 30
0.0
 11
6.716940698678
 21
8.3194386234813091
 31
0.0
  0
LINE
  5
11D2
  8
OBJECT
 62
     0
 10
6.7617225631736204
 20
8.3824386234813062
 30
0.0
 11
6.7474093659208929
 21
8.6555506966989668
 31
0.0
  0
LINE
  5
11D3
  8
OBJECT
  6
HIDDEN2
 10
6.5469515042562012
 20
8.7094386234813062
 30
0.0
 11
6.5437225631736204
 21
8.3394386234813052
 31
0.0
  0
ARC
  5
11D4
  8
OBJECT
  6
HIDDEN2
 10
6.5926217880339344
 20
8.6474386234813032
 30
0.0
 40
0.062
 50
3.0000000000001958
 51
90.0
  0
LINE
  5
11D5
  8
OBJECT
  6
HIDDEN2
 10
6.7195044276692411
 20
8.3534386234813152
 30
0.0
 11
6.7210242532684479
 21
8.3824386234813062
 31
0.0
  0
LINE
  5
11D6
  8
OBJECT
  6
HIDDEN2
 10
6.6718966250906409
 20
8.3194386234813074
 30
0.0
 11
6.6545368191887171
 21
8.6506834527683711
 31
0.0
  0
LINE
  5
11D7
  8
OBJECT
  6
HIDDEN2
 10
6.2767225631736174
 20
8.8024386234813061
 30
0.0
 11
6.2767225631736174
 21
8.7714386234813091
 31
0.0
  0
ARC
  5
11D8
  8
OBJECT
  6
HIDDEN2
 10
6.5337225631736171
 20
10.00783404907502
 30
0.0
 40
0.135
 50
270.0
 51
0.0
  0
ARC
  5
11D9
  8
OBJECT
 62
     0
 10
6.5337225631736171
 20
10.00783404907502
 30
0.0
 40
0.228
 50
270.0
 51
0.0
  0
CIRCLE
  5
11DA
  8
OBJECT
  6
HIDDEN2
 10
6.449722563173621
 20
10.092834049075019
 30
0.0
 40
0.094
  0
CIRCLE
  5
11DB
  8
OBJECT
  6
HIDDEN2
 10
6.449722563173621
 20
10.092834049075019
 30
0.0
 40
0.045
  0
LINE
  5
11DC
  8
OBJECT
  6
HIDDEN2
 10
9.4588779187516714
 20
10.03295366753157
 30
0.0
 11
9.5228609706457767
 21
9.9773340490750329
 31
0.0
  0
LINE
  5
11DD
  8
OBJECT
  6
HIDDEN2
 10
9.5228609706457767
 20
9.9773340490750329
 30
0.0
 11
9.5228609706457785
 21
10.207334049075021
 31
0.0
  0
LINE
  5
11DE
  8
OBJECT
  6
HIDDEN2
 10
9.2498609706457788
 20
9.8696599871580002
 30
0.0
 11
8.9186161413587186
 21
9.8870197930599346
 31
0.0
  0
LINE
  5
11DF
  8
OBJECT
 10
9.18686097064578
 20
9.7798340490750277
 30
0.0
 11
8.9137488974281247
 21
9.7941472463277517
 31
0.0
  0
ARC
  5
11E0
  8
OBJECT
 10
8.9218609706457812
 20
9.9489348242147173
 30
0.0
 40
0.155
 50
180.0
 51
266.99999999999989
  0
ARC
  5
11E1
  8
OBJECT
  6
HIDDEN2
 10
8.9218609706457812
 20
9.9489348242147173
 30
0.0
 40
0.062
 50
180.0
 51
266.99999999999989
  0
LINE
  5
11E2
  8
OBJECT
  6
HIDDEN2
 10
9.2498609706457735
 20
9.8747435417484581
 30
0.0
 11
9.4520646976393685
 21
9.8853405900429507
 31
0.0
  0
LINE
  5
11E3
  8
OBJECT
 10
9.2158609706457746
 20
9.7798340490750313
 30
0.0
 11
9.4569319415699606
 21
9.7924680433107714
 31
0.0
  0
LINE
  5
11E4
  8
0
  6
HIDDEN2
 62
     4
 10
9.2158609706457746
 20
9.8228340490750305
 30
0.0
 11
9.2498609706457788
 21
9.8246159135706534
 31
0.0
  0
LINE
  5
11E5
  8
OBJECT
 10
9.2498609706457788
 20
9.8238340490750335
 30
0.0
 11
9.18686097064578
 21
9.8205323589801914
 31
0.0
  0
LINE
  5
11E6
  8
OBJECT
  6
HIDDEN2
 10
9.566860970645779
 20
9.9773340490750329
 30
0.0
 11
9.5228609706457767
 21
9.9773340490750329
 31
0.0
  0
ARC
  5
11E7
  8
OBJECT
  6
HIDDEN2
 10
9.4508609706457793
 20
9.9083090693423035
 30
0.0
 40
0.023
 50
272.99999999999989
 51
0.0
  0
ARC
  5
11E8
  8
OBJECT
 10
9.4508609706457793
 20
9.9083090693423035
 30
0.0
 40
0.116
 50
272.99999999999989
 51
0.0
  0
LINE
  5
11E9
  8
OBJECT
  6
HIDDEN2
 10
8.85986097064578
 20
9.9956051079924411
 30
0.0
 11
9.2298609706457793
 21
9.9988340490750236
 31
0.0
  0
LINE
  5
11EA
  8
OBJECT
  6
HIDDEN2
 10
8.8498609706457838
 20
10.054466973747729
 30
0.0
 11
9.2298609706457793
 21
10.04783404907502
 31
0.0
  0
LINE
  5
11EB
  8
OBJECT
  6
HIDDEN2
 10
8.8498609706457838
 20
10.131201124402301
 30
0.0
 11
9.2298609706457793
 21
10.137834049075019
 31
0.0
  0
LINE
  5
11EC
  8
OBJECT
  6
HIDDEN2
 10
8.85986097064578
 20
10.1900629901576
 30
0.0
 11
9.2298609706457793
 21
10.18683404907501
 31
0.0
  0
LINE
  5
11ED
  8
OBJECT
  6
HIDDEN2
 10
8.7978609706457824
 20
10.014834049075031
 30
0.0
 11
8.7668609706457801
 21
10.014834049075031
 31
0.0
  0
LINE
  5
11EE
  8
OBJECT
  6
HIDDEN2
 10
8.8498609706457838
 20
10.131201124402301
 30
0.0
 11
8.8498609706457838
 21
10.054466973747729
 31
0.0
  0
LINE
  5
11EF
  8
OBJECT
  6
HIDDEN2
 10
9.2938609706457758
 20
10.14883404907502
 30
0.0
 11
9.4588779187516678
 21
10.151714430618471
 31
0.0
  0
LINE
  5
11F0
  8
OBJECT
  6
HIDDEN2
 10
9.2938609706457758
 20
10.035834049075021
 30
0.0
 11
9.4588779187516714
 21
10.03295366753157
 31
0.0
  0
LINE
  5
11F1
  8
OBJECT
  6
HIDDEN2
 10
9.2298609706457793
 20
9.9988340490750236
 30
0.0
 11
9.2298609706457793
 21
10.18683404907501
 31
0.0
  0
LINE
  5
11F2
  8
OBJECT
  6
HIDDEN2
 10
9.4588779187516678
 20
10.151714430618471
 30
0.0
 11
9.5228609706457767
 21
10.207334049075021
 31
0.0
  0
LINE
  5
11F3
  8
OBJECT
  6
HIDDEN2
 10
9.4588779187516714
 20
10.03295366753157
 30
0.0
 11
9.4588779187516678
 21
10.151714430618471
 31
0.0
  0
LINE
  5
11F4
  8
OBJECT
  6
HIDDEN2
 10
9.5568609706457828
 20
10.264834049075031
 30
0.0
 11
9.566860970645779
 21
10.264834049075031
 31
0.0
  0
LINE
  5
11F5
  8
OBJECT
  6
HIDDEN2
 10
9.566860970645779
 20
10.20733404907501
 30
0.0
 11
9.5228609706457785
 21
10.207334049075021
 31
0.0
  0
DIMENSION
  5
11F6
  8
DIM
  2
*D27
 10
1.26172256317362
 20
12.948225817804429
 30
0.0
 11
4.0117225631736204
 21
12.948225817804429
 31
0.0
 70
     0
 13
6.7617225631736204
 23
11.551834049075021
 33
0.0
 14
1.26172256317362
 24
11.551834049075021
 34
0.0
  0
LINE
  5
1204
  8
OBJECT
 62
     0
 10
2.4967225631736221
 20
11.544834049075019
 30
0.0
 11
6.2767225631736201
 21
11.544834049075019
 31
0.0
  0
LINE
  5
1205
  8
OBJECT
 62
     0
 10
2.5277225631736222
 20
11.513834049075021
 30
0.0
 11
6.2457225631736222
 21
11.513834049075021
 31
0.0
  0
LINE
  5
1206
  8
OBJECT
  6
HIDDEN2
 10
1.4897225631736211
 20
11.686834049075021
 30
0.0
 11
6.5337225631736224
 21
11.686834049075021
 31
0.0
  0
LINE
  5
1207
  8
OBJECT
 62
     0
 10
1.4897225631736211
 20
11.77983404907503
 30
0.0
 11
6.5337225631736224
 21
11.77983404907503
 31
0.0
  0
ARC
  5
1208
  8
OBJECT
  6
HIDDEN2
 10
1.4897225631736211
 20
11.551834049075021
 30
0.0
 40
0.135
 50
90.0
 51
180.0
  0
ARC
  5
1209
  8
OBJECT
 62
     0
 10
1.4897225631736211
 20
11.551834049075021
 30
0.0
 40
0.228
 50
90.0
 51
180.0
  0
CIRCLE
  5
120A
  8
OBJECT
  6
HIDDEN2
 10
1.574722563173621
 20
11.467834049075019
 30
0.0
 40
0.045
  0
CIRCLE
  5
120B
  8
OBJECT
  6
HIDDEN2
 10
1.574722563173621
 20
11.467834049075019
 30
0.0
 40
0.094
  0
DIMENSION
  5
120C
  8
DIM
  2
*D28
 10
8.7668609706457801
 20
12.179834049075019
 30
0.0
 11
9.1668609706457787
 21
12.442834049075021
 31
0.0
 70
     0
 13
9.566860970645779
 23
11.65135902880775
 33
0.0
 14
8.7668609706457801
 24
11.61073327393534
 34
0.0
  0
ARC
  5
1219
  8
OBJECT
  6
HIDDEN2
 10
6.5337225631736224
 20
11.551834049075021
 30
0.0
 40
0.135
 50
0.0
 51
90.0
  0
ARC
  5
121A
  8
OBJECT
 62
     0
 10
6.5337225631736224
 20
11.551834049075021
 30
0.0
 40
0.228
 50
0.0
 51
90.0
  0
CIRCLE
  5
121B
  8
OBJECT
  6
HIDDEN2
 10
6.449722563173621
 20
11.467834049075019
 30
0.0
 40
0.094
  0
CIRCLE
  5
121C
  8
OBJECT
  6
HIDDEN2
 10
6.449722563173621
 20
11.467834049075019
 30
0.0
 40
0.045
  0
ARC
  5
121D
  8
OBJECT
 10
9.4508609706457793
 20
11.65135902880775
 30
0.0
 40
0.116
 50
0.0
 51
87.000000000000114
  0
ARC
  5
121E
  8
OBJECT
 10
8.9218609706457812
 20
11.61073327393534
 30
0.0
 40
0.155
 50
93.000000000000071
 51
180.0
  0
LINE
  5
121F
  8
OBJECT
  6
HIDDEN2
 10
8.85986097064578
 20
11.370605107992439
 30
0.0
 11
9.2298609706457793
 21
11.37383404907502
 31
0.0
  0
LINE
  5
1220
  8
OBJECT
  6
HIDDEN2
 10
8.8498609706457838
 20
11.429466973747751
 30
0.0
 11
9.2298609706457793
 21
11.422834049075011
 31
0.0
  0
LINE
  5
1221
  8
OBJECT
  6
HIDDEN2
 10
8.8498609706457838
 20
11.50620112440231
 30
0.0
 11
9.2298609706457793
 21
11.512834049075019
 31
0.0
  0
LINE
  5
1222
  8
OBJECT
  6
HIDDEN2
 10
9.2498609706457788
 20
11.690008110992039
 30
0.0
 11
8.9186161413587186
 21
11.67264830509011
 31
0.0
  0
LINE
  5
1223
  8
OBJECT
  6
HIDDEN2
 10
8.85986097064578
 20
11.565062990157591
 30
0.0
 11
9.2298609706457793
 21
11.56183404907501
 31
0.0
  0
LINE
  5
1224
  8
OBJECT
  6
HIDDEN2
 10
8.7978609706457735
 20
11.544834049075011
 30
0.0
 11
8.7668609706457801
 21
11.544834049075011
 31
0.0
  0
LINE
  5
1225
  8
OBJECT
  6
HIDDEN2
 10
8.8498609706457838
 20
11.50620112440231
 30
0.0
 11
8.8498609706457838
 21
11.429466973747751
 31
0.0
  0
ARC
  5
1226
  8
OBJECT
  6
HIDDEN2
 10
8.9218609706457812
 20
11.61073327393534
 30
0.0
 40
0.062
 50
93.000000000000071
 51
180.0
  0
LINE
  5
1227
  8
OBJECT
  6
HIDDEN2
 10
9.2938609706457758
 20
11.52383404907501
 30
0.0
 11
9.4588779187516714
 21
11.526714430618471
 31
0.0
  0
LINE
  5
1228
  8
OBJECT
  6
HIDDEN2
 10
9.2938609706457758
 20
11.410834049075021
 30
0.0
 11
9.4588779187516678
 21
11.407953667531579
 31
0.0
  0
LINE
  5
1229
  8
OBJECT
  6
HIDDEN2
 10
9.2498609706457735
 20
11.68492455640159
 30
0.0
 11
9.4520646976393685
 21
11.674327508107099
 31
0.0
  0
LINE
  5
122A
  8
OBJECT
  6
HIDDEN2
 10
9.2298609706457793
 20
11.56183404907501
 30
0.0
 11
9.2298609706457793
 21
11.37383404907502
 31
0.0
  0
ARC
  5
122B
  8
OBJECT
  6
HIDDEN2
 10
9.4508609706457793
 20
11.65135902880775
 30
0.0
 40
0.023
 50
0.0
 51
87.000000000000114
  0
LINE
  5
122C
  8
OBJECT
  6
HIDDEN2
 10
9.4588779187516714
 20
11.526714430618471
 30
0.0
 11
9.5228609706457767
 21
11.582334049075021
 31
0.0
  0
LINE
  5
122D
  8
OBJECT
  6
HIDDEN2
 10
9.4588779187516678
 20
11.407953667531579
 30
0.0
 11
9.5228609706457767
 21
11.35233404907501
 31
0.0
  0
POINT
  5
122E
  8
OBJECT
  6
HIDDEN2
 10
9.4588779187516678
 20
11.407953667531579
 30
0.0
  0
POINT
  5
122F
  8
OBJECT
  6
HIDDEN2
 10
9.4588779187516714
 20
11.526714430618471
 30
0.0
  0
LINE
  5
1230
  8
OBJECT
  6
HIDDEN2
 10
9.4588779187516714
 20
11.526714430618471
 30
0.0
 11
9.4588779187516678
 21
11.407953667531579
 31
0.0
  0
POINT
  5
1231
  8
OBJECT
  6
HIDDEN2
 10
9.5228609706457767
 20
11.582334049075021
 30
0.0
  0
LINE
  5
1232
  8
OBJECT
  6
HIDDEN2
 10
9.566860970645779
 20
11.582334049075021
 30
0.0
 11
9.5228609706457767
 21
11.582334049075021
 31
0.0
  0
POINT
  5
1233
  8
OBJECT
  6
HIDDEN2
 10
9.5228609706457767
 20
11.35233404907501
 30
0.0
  0
LINE
  5
1234
  8
OBJECT
  6
HIDDEN2
 10
9.5568609706457792
 20
11.294834049075019
 30
0.0
 11
9.566860970645779
 21
11.294834049075019
 31
0.0
  0
LINE
  5
1235
  8
OBJECT
  6
HIDDEN2
 10
9.566860970645779
 20
11.35233404907502
 30
0.0
 11
9.5228609706457785
 21
11.35233404907501
 31
0.0
  0
LINE
  5
1236
  8
OBJECT
  6
HIDDEN2
 10
9.5228609706457767
 20
11.582334049075021
 30
0.0
 11
9.5228609706457785
 21
11.35233404907501
 31
0.0
  0
LINE
  5
1237
  8
OBJECT
 10
9.18686097064578
 20
11.77983404907501
 30
0.0
 11
8.9137488974281247
 21
11.76552085182229
 31
0.0
  0
LINE
  5
1238
  8
OBJECT
 10
9.2158609706457781
 20
11.77983404907503
 30
0.0
 11
9.4569319415699624
 21
11.76720005483927
 31
0.0
  0
LINE
  5
1239
  8
0
  6
HIDDEN2
 62
     4
 10
9.2158609706457781
 20
11.73683404907502
 30
0.0
 11
9.2498609706457753
 21
11.73505218457939
 31
0.0
  0
LINE
  5
123A
  8
OBJECT
 10
9.2498609706457788
 20
11.735834049075031
 30
0.0
 11
9.18686097064578
 21
11.739135739169861
 31
0.0
  0
LINE
  5
123B
  8
CENTER
 10
4.0117225631736204
 20
11.77983404907503
 30
0.0
 11
4.0117225631736204
 21
9.7798340490750331
 31
0.0
  0
TEXT
  5
123C
  8
CENTER
 10
3.9968292132786569
 20
11.85501196149931
 30
0.0
 40
0.125
  1
C
 41
0.75
  7
TXT
  0
TEXT
  5
123D
  8
CENTER
 10
4.0420665910709612
 20
11.809812465016639
 30
0.0
 40
0.125
  1
L
 41
0.75
  7
TXT
  0
LINE
  5
123E
  8
CENTER
 10
1.26172256317362
 20
10.779834049075021
 30
0.0
 11
6.7617225631736204
 21
10.779834049075021
 31
0.0
  0
TEXT
  5
123F
  8
CENTER
 10
1.092590230043285
 20
10.734063959593319
 30
0.0
 40
0.125
  1
C
 41
0.75
  7
TXT
  0
TEXT
  5
1240
  8
CENTER
 10
1.137827607835588
 20
10.688864463110651
 30
0.0
 40
0.125
  1
L
 41
0.75
  7
TXT
  0
LINE
  5
1241
  8
TITLE
 10
0.0619999999999977
 20
0.2818562044159449
 30
0.0
 11
10.058
 21
0.2818562044159449
 31
0.0
  0
TEXT
  5
1242
  8
TEXT
 10
1.133917408871538
 20
0.3268740271407751
 30
0.0
 40
0.125
  1
FLUSH TEXTURED COVER
 41
0.75
  7
TXT
  0
TEXT
  5
1243
  8
TEXT
 10
1.118206944278695
 20
0.1175765134258846
 30
0.0
 40
0.125
  1
.030 DEEP RECESSED COVER
 41
0.75
  7
TXT
  0
DIMENSION
  5
1244
  8
DIM
  2
*D29
 10
1.575512418957228
 20
7.4753171847846751
 30
0.0
 11
4.0130124189572278
 21
7.4753171847846751
 31
0.0
 70
     0
 13
6.4505124189572278
 23
5.7083171847846703
 33
0.0
 14
1.575512418957228
 24
5.7083171847846703
 34
0.0
  0
DIMENSION
  5
1252
  8
DIM
  2
*D30
 10
1.575512418957228
 20
2.2753171847846709
 30
0.0
 11
4.0130124189572278
 21
2.2753171847846709
 31
0.0
 70
     0
 13
6.4505124189572278
 23
4.0433171847846712
 33
0.0
 14
1.575512418957228
 24
4.0433171847846712
 34
0.0
  0
LINE
  5
1260
  8
OBJECT
 10
1.4905124189572301
 20
5.8753171847846719
 30
0.0
 11
6.5345124189572257
 21
5.8753171847846719
 31
0.0
  0
LINE
  5
1261
  8
OBJECT
 10
1.4905124189572301
 20
5.8323171847846691
 30
0.0
 11
6.5345124189572257
 21
5.8323171847846691
 31
0.0
  0
LINE
  5
1262
  8
OBJECT
 10
1.4905124189572301
 20
5.7803171847846713
 30
0.0
 11
6.5345124189572257
 21
5.7803171847846713
 31
0.0
  0
LINE
  5
1263
  8
CENTER
 10
1.16251241895723
 20
4.8753171847846719
 30
0.0
 11
6.8625124189572304
 21
4.8753171847846719
 31
0.0
  0
LINE
  5
1264
  8
OBJECT
 10
1.4905124189572301
 20
3.8753171847846719
 30
0.0
 11
6.5345124189572257
 21
3.8753171847846719
 31
0.0
  0
LINE
  5
1265
  8
OBJECT
 10
1.4905124189572301
 20
3.9183171847846721
 30
0.0
 11
6.5345124189572257
 21
3.9183171847846721
 31
0.0
  0
LINE
  5
1266
  8
OBJECT
 10
1.4905124189572301
 20
3.9703171847846721
 30
0.0
 11
6.5345124189572257
 21
3.9703171847846721
 31
0.0
  0
TEXT
  5
1267
  8
CENTER
 10
6.8897210231653503
 20
4.7808357517206233
 30
0.0
 40
0.125
  1
L
 41
0.75
  7
TXT
  0
TEXT
  5
1268
  8
CENTER
 10
6.8491423849854547
 20
4.832958030578939
 30
0.0
 40
0.125
  1
C
 41
0.75
  7
TXT
  0
LINE
  5
1269
  8
OBJECT
 10
1.2625124189572281
 20
5.6473171847846722
 30
0.0
 11
1.2625124189572281
 21
4.1033171847846699
 31
0.0
  0
LINE
  5
126A
  8
OBJECT
 10
1.305512418957228
 20
5.6473171847846722
 30
0.0
 11
1.305512418957224
 21
4.1033171847846699
 31
0.0
  0
LINE
  5
126B
  8
OBJECT
 10
1.357512418957227
 20
5.6473171847846722
 30
0.0
 11
1.3575124189572241
 21
4.1033171847846699
 31
0.0
  0
ARC
  5
126C
  8
OBJECT
 10
1.4905124189572301
 20
4.1033171847846699
 30
0.0
 40
0.228
 50
180.0
 51
270.0
  0
ARC
  5
126D
  8
OBJECT
 10
1.4905124189572301
 20
4.1033171847846699
 30
0.0
 40
0.185
 50
180.0
 51
270.0
  0
ARC
  5
126E
  8
OBJECT
 10
1.4905124189572301
 20
4.1033171847846699
 30
0.0
 40
0.133
 50
180.0
 51
270.0
  0
LINE
  5
126F
  8
OBJECT
 10
1.5155124189572291
 20
4.1883171847846734
 30
0.0
 11
1.4305124189572289
 21
4.1883171847846734
 31
0.0
  0
CIRCLE
  5
1270
  8
OBJECT
 10
1.575512418957228
 20
4.1883171847846734
 30
0.0
 40
0.115
  0
LINE
  5
1271
  8
OBJECT
 10
1.6355124189572301
 20
4.1883171847846734
 30
0.0
 11
1.7205124189572321
 21
4.1883171847846734
 31
0.0
  0
POINT
  5
1272
  8
OBJECT
  6
BYBLOCK
 10
1.575512418957228
 20
4.1883171847846734
 30
0.0
  0
LINE
  5
1273
  8
OBJECT
 10
1.575512418957228
 20
4.128317184784672
 30
0.0
 11
1.575512418957228
 21
4.0433171847846712
 31
0.0
  0
LINE
  5
1274
  8
OBJECT
 10
1.575512418957228
 20
4.2183171847846683
 30
0.0
 11
1.575512418957228
 21
4.1583171847846732
 31
0.0
  0
LINE
  5
1275
  8
OBJECT
 10
1.575512418957228
 20
4.2483171847846677
 30
0.0
 11
1.575512418957228
 21
4.3333171847846703
 31
0.0
  0
LINE
  5
1276
  8
OBJECT
 10
1.545512418957232
 20
4.1883171847846734
 30
0.0
 11
1.6055124189572301
 21
4.1883171847846734
 31
0.0
  0
CIRCLE
  5
1277
  8
OBJECT
 10
1.575512418957228
 20
4.1883171847846734
 30
0.0
 40
0.0565
  0
CIRCLE
  5
1278
  8
OBJECT
 10
1.575512418957228
 20
4.1883171847846734
 30
0.0
 40
0.094
  0
POINT
  5
1279
  8
OBJECT
  6
BYBLOCK
 10
0.762512418957229
 20
5.5003171847846719
 30
0.0
  0
ARC
  5
127A
  8
OBJECT
 10
1.4905124189572301
 20
5.6473171847846722
 30
0.0
 40
0.228
 50
90.0
 51
180.0
  0
ARC
  5
127B
  8
OBJECT
 10
1.4905124189572301
 20
5.6473171847846722
 30
0.0
 40
0.185
 50
90.0
 51
180.0
  0
ARC
  5
127C
  8
OBJECT
 10
1.4905124189572301
 20
5.6473171847846722
 30
0.0
 40
0.133
 50
90.0
 51
180.0
  0
LINE
  5
127D
  8
OBJECT
 10
1.5155124189572291
 20
5.5633171847846734
 30
0.0
 11
1.4305124189572289
 21
5.5633171847846734
 31
0.0
  0
CIRCLE
  5
127E
  8
OBJECT
 10
1.575512418957228
 20
5.5633171847846734
 30
0.0
 40
0.115
  0
POINT
  5
127F
  8
OBJECT
  6
BYBLOCK
 10
1.16251241895723
 20
4.8753171847846719
 30
0.0
  0
POINT
  5
1280
  8
OBJECT
  6
BYBLOCK
 10
1.16251241895723
 20
4.8753171847846719
 30
0.0
  0
POINT
  5
1281
  8
OBJECT
  6
BYBLOCK
 10
1.16251241895723
 20
4.8753171847846719
 30
0.0
  0
LINE
  5
1282
  8
OBJECT
 10
1.6355124189572301
 20
5.5633171847846734
 30
0.0
 11
1.7205124189572321
 21
5.5633171847846734
 31
0.0
  0
POINT
  5
1283
  8
OBJECT
  6
BYBLOCK
 10
1.575512418957228
 20
5.5633171847846734
 30
0.0
  0
LINE
  5
1284
  8
OBJECT
 10
1.575512418957228
 20
5.503317184784672
 30
0.0
 11
1.575512418957228
 21
5.4183171847846712
 31
0.0
  0
LINE
  5
1285
  8
OBJECT
 10
1.575512418957228
 20
5.5933171847846683
 30
0.0
 11
1.575512418957228
 21
5.5333171847846732
 31
0.0
  0
LINE
  5
1286
  8
OBJECT
 10
1.575512418957228
 20
5.6233171847846677
 30
0.0
 11
1.575512418957228
 21
5.7083171847846703
 31
0.0
  0
LINE
  5
1287
  8
OBJECT
 10
1.545512418957232
 20
5.5633171847846734
 30
0.0
 11
1.6055124189572301
 21
5.5633171847846734
 31
0.0
  0
CIRCLE
  5
1288
  8
OBJECT
 10
1.575512418957228
 20
5.5633171847846734
 30
0.0
 40
0.0565
  0
CIRCLE
  5
1289
  8
OBJECT
 10
1.575512418957228
 20
5.5633171847846734
 30
0.0
 40
0.094
  0
LINE
  5
128A
  8
DIM
 10
6.2350124189572291
 20
4.360317184784674
 30
0.0
 11
7.862512418957226
 21
4.360317184784674
 31
0.0
  0
LINE
  5
128B
  8
DIM
 10
6.2350124189572291
 20
5.390317184784676
 30
0.0
 11
7.862512418957226
 21
5.390317184784676
 31
0.0
  0
DIMENSION
  5
128C
  8
DIM
  2
*D31
 10
7.2625124189572281
 20
5.390317184784676
 30
0.0
 11
7.2625124189572281
 21
5.132817184784674
 31
0.0
 70
     0
 13
6.8625124189572304
 23
4.8753171847846719
 33
0.0
 14
6.1725124189572291
 24
5.390317184784676
 34
0.0
 50
90.0
  0
LINE
  5
129A
  8
OBJECT
 10
6.5105124189572301
 20
4.1883171847846734
 30
0.0
 11
6.5955124189572309
 21
4.1883171847846734
 31
0.0
  0
CIRCLE
  5
129B
  8
OBJECT
 10
6.4505124189572278
 20
4.1883171847846734
 30
0.0
 40
0.115
  0
LINE
  5
129C
  8
OBJECT
 10
6.5105124189572301
 20
5.5633171847846734
 30
0.0
 11
6.5955124189572309
 21
5.5633171847846734
 31
0.0
  0
CIRCLE
  5
129D
  8
OBJECT
 10
6.4505124189572278
 20
5.5633171847846734
 30
0.0
 40
0.115
  0
LINE
  5
129E
  8
DIM
 10
6.0209019514155742
 20
5.1866905273575341
 30
0.0
 11
6.750231398377343
 21
6.5213340831850868
 31
0.0
  0
ARC
  5
129F
  8
OBJECT
 10
6.5345124189572257
 20
5.6473171847846722
 30
0.0
 40
0.133
 50
0.0
 51
89.999999999999943
  0
ARC
  5
12A0
  8
OBJECT
 10
6.5345124189572257
 20
5.6473171847846722
 30
0.0
 40
0.228
 50
0.0
 51
89.999999999999943
  0
ARC
  5
12A1
  8
OBJECT
 10
6.5345124189572257
 20
5.6473171847846722
 30
0.0
 40
0.185
 50
0.0
 51
89.999999999999943
  0
ARC
  5
12A2
  8
OBJECT
 10
6.5345124189572257
 20
4.1033171847846752
 30
0.0
 40
0.133
 50
270.0
 51
0.0
  0
ARC
  5
12A3
  8
OBJECT
 10
6.5345124189572257
 20
4.1033171847846752
 30
0.0
 40
0.228
 50
270.0
 51
0.0
  0
ARC
  5
12A4
  8
OBJECT
 10
6.5345124189572257
 20
4.1033171847846752
 30
0.0
 40
0.185
 50
270.0
 51
0.0
  0
LINE
  5
12A5
  8
OBJECT
  6
HIDDEN2
 10
4.3925124189572271
 20
5.3903171847846734
 30
0.0
 11
4.392512418957228
 21
4.360317184784674
 31
0.0
  0
LINE
  5
12A6
  8
OBJECT
  6
HIDDEN2
 10
6.1725124189572291
 20
5.390317184784676
 30
0.0
 11
6.1725124189572291
 21
4.360317184784674
 31
0.0
  0
LINE
  5
12A7
  8
CENTER
 10
4.0125124189572281
 20
5.9753171847846707
 30
0.0
 11
4.0125124189572281
 21
3.7753171847846709
 31
0.0
  0
DIMENSION
  5
12A8
  8
DIM
  2
*D32
 10
6.4505124189572278
 20
2.6753171847846722
 30
0.0
 11
5.2315124189572284
 21
2.6753171847846722
 31
0.0
 70
     0
 13
4.0125124189572281
 23
3.7753171847846709
 33
0.0
 14
6.4505124189572278
 24
4.0433171847846712
 34
0.0
  0
DIMENSION
  5
12B6
  8
DIM
  2
*D33
 10
6.1725124189572291
 20
3.0753171847846721
 30
0.0
 11
5.0925124189572291
 21
3.0753171847846721
 31
0.0
 70
     0
 13
4.0125124189572281
 23
3.7753171847846709
 33
0.0
 14
6.1725124189572291
 24
4.360317184784674
 34
0.0
  0
DIMENSION
  5
12C4
  8
DIM
  2
*D34
 10
6.1725124189572291
 20
3.4753171847846711
 30
0.0
 11
5.2825124189572277
 21
3.4753171847846711
 31
0.0
 70
     0
 13
4.392512418957228
 23
4.360317184784674
 33
0.0
 14
6.1725124189572291
 24
4.360317184784674
 34
0.0
  0
LINE
  5
12D2
  8
OBJECT
  6
HIDDEN2
 10
4.392512418957228
 20
4.360317184784674
 30
0.0
 11
6.1725124189572291
 21
4.360317184784674
 31
0.0
  0
POINT
  5
12D3
  8
OBJECT
  6
BYBLOCK
 10
6.1725124189572291
 20
4.360317184784674
 30
0.0
  0
POINT
  5
12D4
  8
OBJECT
  6
BYBLOCK
 10
6.4505124189572278
 20
4.1883171847846734
 30
0.0
  0
LINE
  5
12D5
  8
OBJECT
 10
6.4505124189572278
 20
4.128317184784672
 30
0.0
 11
6.4505124189572278
 21
4.0433171847846712
 31
0.0
  0
LINE
  5
12D6
  8
OBJECT
 10
6.4505124189572278
 20
4.2183171847846683
 30
0.0
 11
6.4505124189572278
 21
4.1583171847846732
 31
0.0
  0
LINE
  5
12D7
  8
OBJECT
 10
6.39051241895723
 20
4.1883171847846734
 30
0.0
 11
6.30551241895723
 21
4.1883171847846734
 31
0.0
  0
LINE
  5
12D8
  8
OBJECT
 10
6.4505124189572278
 20
4.2483171847846677
 30
0.0
 11
6.4505124189572278
 21
4.3333171847846703
 31
0.0
  0
LINE
  5
12D9
  8
OBJECT
 10
6.420512418957232
 20
4.1883171847846734
 30
0.0
 11
6.480512418957229
 21
4.1883171847846734
 31
0.0
  0
CIRCLE
  5
12DA
  8
OBJECT
 10
6.4505124189572278
 20
4.1883171847846734
 30
0.0
 40
0.0565
  0
CIRCLE
  5
12DB
  8
OBJECT
 10
6.4505124189572278
 20
4.1883171847846734
 30
0.0
 40
0.094
  0
DIMENSION
  5
12DC
  8
DIM
  2
*D35
 10
6.4505124189572278
 20
7.075317184784673
 30
0.0
 11
5.2315124189572284
 21
7.075317184784673
 31
0.0
 70
     0
 13
4.0125124189572281
 23
5.9753171847846707
 33
0.0
 14
6.4505124189572278
 24
5.7083171847846703
 34
0.0
  0
TEXT
  5
12EA
  8
CENTER
 10
3.9798759949005951
 20
5.9140696156436894
 30
0.0
 40
0.125
  1
L
 41
0.75
  7
TXT
  0
TEXT
  5
12EB
  8
CENTER
 10
3.939297356720699
 20
5.9661918945020052
 30
0.0
 40
0.125
  1
C
 41
0.75
  7
TXT
  0
LINE
  5
12EC
  8
OBJECT
  6
HIDDEN2
 10
4.3925124189572271
 20
5.3903171847846734
 30
0.0
 11
6.1725124189572291
 21
5.390317184784676
 31
0.0
  0
POLYLINE
  5
12ED
  8
OBJECT
 66
     1
 10
0.0
 20
0.0
 30
0.0
 70
     1
 40
0.03
 41
0.03
  0
VERTEX
  5
1433
  8
OBJECT
 10
6.0059019514155718
 20
5.1866905273575341
 30
0.0
 42
1.0
  0
VERTEX
  5
1434
  8
OBJECT
 10
6.035901951415573
 20
5.1866905273575341
 30
0.0
 42
1.0
  0
SEQEND
  5
1435
  8
OBJECT
  0
POINT
  5
12F1
  8
OBJECT
  6
BYBLOCK
 10
6.1725124189572291
 20
5.390317184784676
 30
0.0
  0
POINT
  5
12F2
  8
OBJECT
  6
BYBLOCK
 10
6.4505124189572278
 20
5.5633171847846734
 30
0.0
  0
LINE
  5
12F3
  8
OBJECT
 10
6.4505124189572278
 20
5.503317184784672
 30
0.0
 11
6.4505124189572278
 21
5.4183171847846712
 31
0.0
  0
LINE
  5
12F4
  8
OBJECT
 10
6.4505124189572278
 20
5.5933171847846683
 30
0.0
 11
6.4505124189572278
 21
5.5333171847846732
 31
0.0
  0
LINE
  5
12F5
  8
OBJECT
 10
6.39051241895723
 20
5.5633171847846734
 30
0.0
 11
6.30551241895723
 21
5.5633171847846734
 31
0.0
  0
LINE
  5
12F6
  8
OBJECT
 10
6.4505124189572278
 20
5.6233171847846677
 30
0.0
 11
6.4505124189572278
 21
5.7083171847846703
 31
0.0
  0
LINE
  5
12F7
  8
OBJECT
 10
6.420512418957232
 20
5.5633171847846734
 30
0.0
 11
6.480512418957229
 21
5.5633171847846734
 31
0.0
  0
CIRCLE
  5
12F8
  8
OBJECT
 10
6.4505124189572278
 20
5.5633171847846734
 30
0.0
 40
0.0565
  0
CIRCLE
  5
12F9
  8
OBJECT
 10
6.4505124189572278
 20
5.5633171847846734
 30
0.0
 40
0.094
  0
LINE
  5
12FA
  8
DIM
 10
7.7625124189572281
 20
5.2103171847846754
 30
0.0
 11
7.7625124189572281
 21
4.0631506348993041
 31
0.0
  0
DIMENSION
  5
12FB
  8
DIM
  2
*D36
 10
8.7625124189572272
 20
4.1883171847846734
 30
0.0
 11
8.7625124189572254
 21
4.8758171847846743
 31
0.0
 70
     0
 13
6.5955124189572309
 23
5.5633171847846734
 33
0.0
 14
6.5955124189572309
 24
4.1883171847846734
 34
0.0
 50
90.0
  0
LINE
  5
1309
  8
OBJECT
 10
6.7625124189572281
 20
5.6473171847846722
 30
0.0
 11
6.7625124189572281
 21
4.1033171847846752
 31
0.0
  0
LINE
  5
130A
  8
OBJECT
 10
6.719512418957228
 20
5.6473171847846722
 30
0.0
 11
6.719512418957228
 21
4.1033171847846752
 31
0.0
  0
LINE
  5
130B
  8
OBJECT
 10
6.6675124189572301
 20
5.6473171847846722
 30
0.0
 11
6.6675124189572301
 21
4.1033171847846752
 31
0.0
  0
TEXT
  5
130C
  8
OBJECT
 10
7.5541790856238942
 20
3.8674870381518751
 30
0.0
 40
0.125
  1
1.030
  0
SOLID
  5
130D
  8
DIM
 10
7.7325124189572279
 20
4.5403171847846719
 30
0.0
 11
7.7925124189572292
 21
4.5403171847846719
 31
0.0
 12
7.7625124189572281
 22
4.360317184784674
 32
0.0
 13
7.7625124189572281
 23
4.360317184784674
 33
0.0
  0
POINT
  5
130E
  8
DEFPOINTS
  6
BYBLOCK
 62
     0
 10
7.7625124189572281
 20
4.360317184784674
 30
0.0
  0
DIMENSION
  5
130F
  8
DIM
  2
*D37
 10
8.2625124189572272
 20
5.5633171847846734
 30
0.0
 11
8.6505124189572253
 21
5.2193171847846731
 31
0.0
 70
     0
 13
6.8625124189572304
 23
4.8753171847846719
 33
0.0
 14
6.5955124189572309
 24
5.5633171847846734
 34
0.0
 50
90.0
  0
TEXT
  5
131C
  8
DIM
 10
7.318977226245087
 20
6.4578873498021521
 30
0.0
 40
0.125
  1
TEXTURED RECESS AREA
  0
LINE
  5
131D
  8
DIM
 10
6.750231398377343
 20
6.5213340831850868
 30
0.0
 11
7.2598832570827554
 21
6.5213340831850868
 31
0.0
  0
SOLID
  5
131E
  8
DIM
 10
7.7325124189572279
 20
5.2103171847846763
 30
0.0
 11
7.7925124189572292
 21
5.2103171847846763
 31
0.0
 12
7.7625124189572281
 22
5.390317184784676
 32
0.0
 13
7.7625124189572281
 23
5.390317184784676
 33
0.0
  0
TEXT
  5
131F
  8
DIM
 10
7.318977226245087
 20
6.2601391471723211
 30
0.0
 40
0.125
  1
0.010 DEEP
  0
LINE
  5
1320
  8
OBJECT
  6
HIDDEN2
 10
9.2938609706457758
 20
11.52383404907501
 30
0.0
 11
9.2938609706457758
 21
11.410834049075021
 31
0.0
  0
LINE
  5
1321
  8
OBJECT
  6
HIDDEN2
 10
9.2938609706457758
 20
10.14883404907502
 30
0.0
 11
9.2938609706457758
 21
10.035834049075021
 31
0.0
  0
DIMENSION
  5
1322
  8
DIM
  2
*D38
 10
7.1025285135046392
 20
11.544834049075019
 30
0.0
 11
7.1025285135046357
 21
11.134623387455241
 31
0.0
 70
   128
 13
6.7617225631736204
 23
10.779834049075021
 33
0.0
 14
6.2767225631736201
 24
11.544834049075019
 34
0.0
 50
90.0
  0
DIMENSION
  5
1330
  8
DIM
  2
*D39
 10
7.6706332068033287
 20
10.014834049075031
 30
0.0
 11
7.6706332068033269
 21
10.77983404907503
 31
0.0
 70
     0
 13
6.2767225631736201
 23
11.544834049075019
 33
0.0
 14
6.2767225631736228
 24
10.014834049075031
 34
0.0
 50
90.0
  0
DIMENSION
  5
133E
  8
DIM
  2
*D40
 10
0.797669794547744
 20
10.779834049075021
 30
0.0
 11
0.7976697945477422
 21
11.27983404907503
 31
0.0
 70
     0
 13
1.4897225631736211
 23
11.77983404907503
 33
0.0
 14
1.26172256317362
 24
10.779834049075021
 34
0.0
 50
90.0
  0
DIMENSION
  5
134C
  8
DIM
  2
*D41
 10
6.2767225631736201
 20
12.07643304365908
 30
0.0
 11
5.1442225631736198
 21
12.07643304365908
 31
0.0
 70
     0
 13
4.0117225631736204
 23
11.77983404907503
 33
0.0
 14
6.2767225631736201
 24
11.544834049075019
 34
0.0
  0
DIMENSION
  5
135A
  8
DIM
  2
*D42
 10
6.2767225631736201
 20
12.32351269922453
 30
0.0
 11
4.0328849189804723
 21
12.32351269922453
 31
0.0
 70
   128
 13
2.4967225631736221
 23
11.544834049075019
 33
0.0
 14
6.2767225631736201
 24
11.544834049075019
 34
0.0
  0
LINE
  5
1368
  8
DIM
 10
6.7617225631736222
 20
11.61483404907502
 30
0.0
 11
6.7617225631736222
 21
12.74643892749496
 31
0.0
  0
LINE
  5
1369
  8
DIM
 10
4.0117225631736204
 20
11.842834049075019
 30
0.0
 11
4.0117225631736204
 21
12.206917386435091
 31
0.0
  0
LINE
  5
136A
  8
DIM
 10
6.5817225631736207
 20
12.65343892749496
 30
0.0
 11
5.7163058965069533
 21
12.65343892749496
 31
0.0
  0
LINE
  5
136B
  8
DIM
 10
4.1917225631736201
 20
12.65343892749496
 30
0.0
 11
5.0571392298402884
 21
12.65343892749496
 31
0.0
  0
SOLID
  5
136C
  8
DIM
 10
6.5817225631736207
 20
12.68343892749497
 30
0.0
 11
6.5817225631736207
 21
12.62343892749497
 31
0.0
 12
6.7617225631736222
 22
12.65343892749496
 32
0.0
 13
6.7617225631736222
 23
12.65343892749496
 33
0.0
  0
SOLID
  5
136D
  8
DIM
 10
4.1917225631736201
 20
12.68343892749497
 30
0.0
 11
4.1917225631736201
 21
12.62343892749497
 31
0.0
 12
4.0117225631736204
 22
12.65343892749496
 32
0.0
 13
4.0117225631736204
 23
12.65343892749496
 33
0.0
  0
TEXT
  5
136E
  8
OBJECT
 10
5.1471392298402883
 20
12.59093892749496
 30
0.0
 40
0.125
  1
2.750
  0
LINE
  5
136F
  8
DIM
 10
4.0117225631736204
 20
12.467014699835151
 30
0.0
 11
4.0117225631736204
 21
12.74643892749496
 31
0.0
  0
POLYLINE
  5
1370
  8
0
 66
     1
 10
0.0
 20
0.0
 30
0.0
 70
     8
  0
VERTEX
  5
1371
  8
0
 10
0.7153930000000001
 20
7.9980399999999987
 30
0.0
 70
    32
  0
VERTEX
  5
1372
  8
0
 10
0.7153930000000001
 20
8.3861799999999995
 30
0.0
 70
    32
  0
VERTEX
  5
1373
  8
0
 10
4.0540900000000004
 20
8.3861799999999995
 30
0.0
 70
    32
  0
SEQEND
  5
1374
  8
0
  0
POLYLINE
  5
1375
  8
0
 66
     1
 10
0.0
 20
0.0
 30
0.0
 70
     8
  0
VERTEX
  5
1376
  8
0
 10
7.5600300000000002
 20
7.9980399999999987
 30
0.0
 70
    32
  0
VERTEX
  5
1377
  8
0
 10
7.5600300000000002
 20
8.3861799999999995
 30
0.0
 70
    32
  0
VERTEX
  5
1378
  8
0
 10
3.9693599999999991
 20
8.3861799999999995
 30
0.0
 70
    32
  0
SEQEND
  5
1379
  8
0
  0
TEXT
  5
137A
  8
CENTER
 10
0.4713343664473372
 20
8.0085053605013776
 30
0.0
 40
0.187
  1
A
 41
0.75
  7
TXT
  0
TEXT
  5
137B
  8
CENTER
 10
7.7303572572560437
 20
8.0190016619480566
 30
0.0
 40
0.187
  1
A
 41
0.75
  7
TXT
  0
TEXT
  5
137C
  8
DIM
 10
3.270394552932657
 20
1.884898965076568
 30
0.0
 40
0.187
  1
SECTION "A -A"
 41
0.75
  7
TXT
  0
LINE
  5
137D
  8
DIM
 10
3.2237879301919321
 20
1.850598688964876
 30
0.0
 11
5.0307945999564918
 21
1.850598688964876
 31
0.0
  0
POLYLINE
  5
137E
  8
0
 66
     1
 10
0.0
 20
0.0
 30
0.0
 70
     8
  0
VERTEX
  5
137F
  8
0
 10
5.0551199999999987
 20
10.311500000000001
 30
0.0
 70
    32
  0
VERTEX
  5
1380
  8
0
 10
5.7001900000000001
 20
9.3595800000000011
 30
0.0
 70
    32
  0
VERTEX
  5
1381
  8
0
 10
5.8986700000000001
 20
9.3595800000000011
 30
0.0
 70
    32
  0
SEQEND
  5
1382
  8
0
  0
INSERT
  5
1383
  8
TEXT
  2
*U24
 10
0.0
 20
0.0
 30
0.0
  0
DIMENSION
  5
1384
  8
DIM
  2
*D43
 10
2.754499847099197
 20
5.7803171847846713
 30
0.0
 11
2.7544998470991962
 21
5.1330810553716564
 31
0.0
 70
   128
 13
2.6658378127649041
 23
3.9703171847846721
 33
0.0
 14
2.6658378127649041
 24
5.7803171847846713
 34
0.0
 50
90.0
  0
DIMENSION
  5
1392
  8
DIM
  2
*D44
 10
6.6675124189572301
 20
4.6505640458882791
 30
0.0
 11
3.390711886253269
 21
4.6505640458882791
 31
0.0
 70
   128
 13
1.357512418957225
 23
4.6109080687509429
 33
0.0
 14
6.6675124189572301
 24
4.6109080687509429
 34
0.0
  0
DIMENSION
  5
13A0
  8
DIM
  2
*D45
 10
2.091961274754051
 20
8.7094386234813062
 30
0.0
 11
2.5260237747540502
 21
9.1456661035625402
 31
0.0
 70
   128
 13
2.303762700029039
 23
8.0954386234813107
 33
0.0
 14
2.303762700029039
 24
8.7094386234813062
 34
0.0
 50
90.0
  0
ENDSEC
  0
EOF
