  0
SECTION
  2
HEADER
  9
$ACADVER
  1
AC1015
  9
$ACADMAINTVER
 70
     6
  9
$DWGCODEPAGE
  3
ANSI_1252
  9
$INSBASE
 10
0.0
 20
0.0
 30
0.0
  9
$EXTMIN
 10
0.0
 20
-0.0000000000000018
 30
0.0
  9
$EXTMAX
 10
10.11999999999999
 20
15.5
 30
0.0
  9
$LIMMIN
 10
0.0
 20
0.0
  9
$LIMMAX
 10
10.12
 20
15.5
  9
$ORTHOMODE
 70
     1
  9
$REGENMODE
 70
     1
  9
$FILLMODE
 70
     1
  9
$QTEXTMODE
 70
     0
  9
$MIRRTEXT
 70
     0
  9
$LTSCALE
 40
0.25
  9
$ATTMODE
 70
     1
  9
$TEXTSIZE
 40
0.188
  9
$TRACEWID
 40
0.05
  9
$TEXTSTYLE
  7
TXT
  9
$CLAYER
  8
OBJECT
  9
$CELTYPE
  6
ByLayer
  9
$CECOLOR
 62
   256
  9
$CELTSCALE
 40
1.0
  9
$DISPSILH
 70
     0
  9
$DIMSCALE
 40
1.0
  9
$DIMASZ
 40
0.18
  9
$DIMEXO
 40
0.063
  9
$DIMDLI
 40
0.281
  9
$DIMRND
 40
0.0
  9
$DIMDLE
 40
0.0
  9
$DIMEXE
 40
0.093
  9
$DIMTP
 40
0.0
  9
$DIMTM
 40
0.0
  9
$DIMTXT
 40
0.125
  9
$DIMCEN
 40
0.09
  9
$DIMTSZ
 40
0.0
  9
$DIMTOL
 70
     0
  9
$DIMLIM
 70
     0
  9
$DIMTIH
 70
     1
  9
$DIMTOH
 70
     1
  9
$DIMSE1
 70
     0
  9
$DIMSE2
 70
     0
  9
$DIMTAD
 70
     0
  9
$DIMZIN
 70
     0
  9
$DIMBLK
  1

  9
$DIMASO
 70
     1
  9
$DIMSHO
 70
     1
  9
$DIMPOST
  1

  9
$DIMAPOST
  1

  9
$DIMALT
 70
     0
  9
$DIMALTD
 70
     2
  9
$DIMALTF
 40
25.4
  9
$DIMLFAC
 40
1.0
  9
$DIMTOFL
 70
     0
  9
$DIMTVP
 40
0.0
  9
$DIMTIX
 70
     0
  9
$DIMSOXD
 70
     0
  9
$DIMSAH
 70
     0
  9
$DIMBLK1
  1

  9
$DIMBLK2
  1

  9
$DIMSTYLE
  2
23NSTD
  9
$DIMCLRD
 70
     0
  9
$DIMCLRE
 70
     0
  9
$DIMCLRT
 70
     0
  9
$DIMTFAC
 40
1.0
  9
$DIMGAP
 40
0.09
  9
$DIMJUST
 70
     0
  9
$DIMSD1
 70
     0
  9
$DIMSD2
 70
     0
  9
$DIMTOLJ
 70
     1
  9
$DIMTZIN
 70
     0
  9
$DIMALTZ
 70
     0
  9
$DIMALTTZ
 70
     0
  9
$DIMUPT
 70
     0
  9
$DIMDEC
 70
     4
  9
$DIMTDEC
 70
     4
  9
$DIMALTU
 70
     2
  9
$DIMALTTD
 70
     2
  9
$DIMTXSTY
  7
STANDARD
  9
$DIMAUNIT
 70
     0
  9
$DIMADEC
 70
     0
  9
$DIMALTRND
 40
0.0
  9
$DIMAZIN
 70
     0
  9
$DIMDSEP
 70
    46
  9
$DIMATFIT
 70
     1
  9
$DIMFRAC
 70
     0
  9
$DIMLDRBLK
  1

  9
$DIMLUNIT
 70
     2
  9
$DIMLWD
 70
    -2
  9
$DIMLWE
 70
    -2
  9
$DIMTMOVE
 70
     0
  9
$LUNITS
 70
     2
  9
$LUPREC
 70
     3
  9
$SKETCHINC
 40
0.1
  9
$FILLETRAD
 40
0.0
  9
$AUNITS
 70
     0
  9
$AUPREC
 70
     0
  9
$MENU
  1
acad
  9
$ELEVATION
 40
0.0
  9
$PELEVATION
 40
0.0
  9
$THICKNESS
 40
0.0
  9
$LIMCHECK
 70
     0
  9
$CHAMFERA
 40
0.0
  9
$CHAMFERB
 40
0.0
  9
$CHAMFERC
 40
0.0
  9
$CHAMFERD
 40
0.0
  9
$SKPOLY
 70
     0
  9
$TDCREATE
 40
2450904.300577199
  9
$TDUCREATE
 40
2450904.467243865
  9
$TDUPDATE
 40
2454769.407102141
  9
$TDUUPDATE
 40
2454769.573768808
  9
$TDINDWG
 40
0.0424162963
  9
$TDUSRTIMER
 40
0.0424162963
  9
$USRTIMER
 70
     1
  9
$ANGBASE
 50
0.0
  9
$ANGDIR
 70
     0
  9
$PDMODE
 70
     0
  9
$PDSIZE
 40
0.0
  9
$PLINEWID
 40
0.0
  9
$SPLFRAME
 70
     0
  9
$SPLINETYPE
 70
     6
  9
$SPLINESEGS
 70
     8
  9
$HANDSEED
  5
A2D
  9
$SURFTAB1
 70
     6
  9
$SURFTAB2
 70
     6
  9
$SURFTYPE
 70
     6
  9
$SURFU
 70
     6
  9
$SURFV
 70
     6
  9
$UCSBASE
  2

  9
$UCSNAME
  2

  9
$UCSORG
 10
0.0
 20
0.0
 30
0.0
  9
$UCSXDIR
 10
1.0
 20
0.0
 30
0.0
  9
$UCSYDIR
 10
0.0
 20
1.0
 30
0.0
  9
$UCSORTHOREF
  2

  9
$UCSORTHOVIEW
 70
     0
  9
$UCSORGTOP
 10
0.0
 20
0.0
 30
0.0
  9
$UCSORGBOTTOM
 10
0.0
 20
0.0
 30
0.0
  9
$UCSORGLEFT
 10
0.0
 20
0.0
 30
0.0
  9
$UCSORGRIGHT
 10
0.0
 20
0.0
 30
0.0
  9
$UCSORGFRONT
 10
0.0
 20
0.0
 30
0.0
  9
$UCSORGBACK
 10
0.0
 20
0.0
 30
0.0
  9
$PUCSBASE
  2

  9
$PUCSNAME
  2

  9
$PUCSORG
 10
0.0
 20
0.0
 30
0.0
  9
$PUCSXDIR
 10
1.0
 20
0.0
 30
0.0
  9
$PUCSYDIR
 10
0.0
 20
1.0
 30
0.0
  9
$PUCSORTHOREF
  2

  9
$PUCSORTHOVIEW
 70
     0
  9
$PUCSORGTOP
 10
0.0
 20
0.0
 30
0.0
  9
$PUCSORGBOTTOM
 10
0.0
 20
0.0
 30
0.0
  9
$PUCSORGLEFT
 10
0.0
 20
0.0
 30
0.0
  9
$PUCSORGRIGHT
 10
0.0
 20
0.0
 30
0.0
  9
$PUCSORGFRONT
 10
0.0
 20
0.0
 30
0.0
  9
$PUCSORGBACK
 10
0.0
 20
0.0
 30
0.0
  9
$USERI1
 70
     0
  9
$USERI2
 70
     0
  9
$USERI3
 70
     0
  9
$USERI4
 70
     0
  9
$USERI5
 70
     0
  9
$USERR1
 40
0.0
  9
$USERR2
 40
0.0
  9
$USERR3
 40
0.0
  9
$USERR4
 40
0.0
  9
$USERR5
 40
0.0
  9
$WORLDVIEW
 70
     1
  9
$SHADEDGE
 70
     3
  9
$SHADEDIF
 70
    70
  9
$TILEMODE
 70
     1
  9
$MAXACTVP
 70
    16
  9
$PINSBASE
 10
0.0
 20
0.0
 30
0.0
  9
$PLIMCHECK
 70
     0
  9
$PEXTMIN
 10
1.000000000000000E+20
 20
1.000000000000000E+20
 30
1.000000000000000E+20
  9
$PEXTMAX
 10
-1.000000000000000E+20
 20
-1.000000000000000E+20
 30
-1.000000000000000E+20
  9
$PLIMMIN
 10
0.0
 20
0.0
  9
$PLIMMAX
 10
12.0
 20
9.0
  9
$UNITMODE
 70
     0
  9
$VISRETAIN
 70
     0
  9
$PLINEGEN
 70
     0
  9
$PSLTSCALE
 70
     1
  9
$TREEDEPTH
 70
  3020
  9
$CMLSTYLE
  2
Standard
  9
$CMLJUST
 70
     0
  9
$CMLSCALE
 40
1.0
  9
$PROXYGRAPHICS
 70
     1
  9
$MEASUREMENT
 70
     0
  9
$CELWEIGHT
370
    -1
  9
$ENDCAPS
280
     0
  9
$JOINSTYLE
280
     0
  9
$LWDISPLAY
290
     0
  9
$INSUNITS
 70
     0
  9
$HYPERLINKBASE
  1

  9
$STYLESHEET
  1
monochrome.ctb
  9
$XEDIT
290
     1
  9
$CEPSNTYPE
380
     0
  9
$PSTYLEMODE
290
     1
  9
$FINGERPRINTGUID
  2
{A8416006-EF74-4169-9CCC-DF1CE4781481}
  9
$VERSIONGUID
  2
{D9E341DE-2505-4451-887D-8BAA1115F073}
  9
$EXTNAMES
290
     1
  9
$PSVPSCALE
 40
0.0
  9
$OLESTARTUP
290
     0
  0
ENDSEC
  0
SECTION
  2
CLASSES
  0
CLASS
  1
ACDBDICTIONARYWDFLT
  2
AcDbDictionaryWithDefault
  3
AutoCAD 2000
 90
        0
280
     0
281
     0
  0
CLASS
  1
ACDBPLACEHOLDER
  2
AcDbPlaceHolder
  3
AutoCAD 2000
 90
        0
280
     0
281
     0
  0
CLASS
  1
LAYOUT
  2
AcDbLayout
  3
AutoCAD 2000
 90
        0
280
     0
281
     0
  0
ENDSEC
  0
SECTION
  2
TABLES
  0
TABLE
  2
VPORT
  5
8
330
0
100
AcDbSymbolTable
 70
     2
  0
VPORT
  5
A2C
330
8
100
AcDbSymbolTableRecord
100
AcDbViewportTableRecord
  2
*Active
 70
     0
 10
0.0
 20
0.0
 11
1.0
 21
1.0
 12
5.060000023562457
 22
7.750000036088747
 13
0.0
 23
0.0
 14
1.0
 24
1.0
 15
0.25
 25
0.25
 16
0.0
 26
0.0
 36
1.0
 17
0.0
 27
0.0
 37
0.0
 40
15.6559555053722
 41
1.824707846410684
 42
50.0
 43
0.0
 44
0.0
 50
0.0
 51
0.0
 71
     0
 72
   100
 73
     1
 74
     0
 75
     0
 76
     0
 77
     0
 78
     0
281
     0
 65
     1
110
0.0
120
0.0
130
0.0
111
1.0
121
0.0
131
0.0
112
0.0
122
1.0
132
0.0
 79
     0
146
0.0
  0
ENDTAB
  0
TABLE
  2
LTYPE
  5
5
330
0
100
AcDbSymbolTable
 70
     6
  0
LTYPE
  5
13
330
5
100
AcDbSymbolTableRecord
100
AcDbLinetypeTableRecord
  2
ByBlock
 70
     0
  3

 72
    65
 73
     0
 40
0.0
  0
LTYPE
  5
14
330
5
100
AcDbSymbolTableRecord
100
AcDbLinetypeTableRecord
  2
ByLayer
 70
     0
  3

 72
    65
 73
     0
 40
0.0
  0
LTYPE
  5
15
330
5
100
AcDbSymbolTableRecord
100
AcDbLinetypeTableRecord
  2
CONTINUOUS
 70
     0
  3
Solid line
 72
    65
 73
     0
 40
0.0
  0
LTYPE
  5
25
330
5
100
AcDbSymbolTableRecord
100
AcDbLinetypeTableRecord
  2
HIDDEN
 70
     0
  3
_ _ _ _ _ _ _ _ _ _ _ _ _ _ _ _ _ _ _ _ _ _ _
 72
    65
 73
     2
 40
0.375
 49
0.25
 74
     0
 49
-0.125
 74
     0
  0
LTYPE
  5
26
330
5
100
AcDbSymbolTableRecord
100
AcDbLinetypeTableRecord
  2
PHANTOM
 70
     0
  3
_____ _ _ _____ _ _ _____ _ _ _____ _ _ ____
 72
    65
 73
     6
 40
2.5
 49
1.25
 74
     0
 49
-0.25
 74
     0
 49
0.25
 74
     0
 49
-0.25
 74
     0
 49
0.25
 74
     0
 49
-0.25
 74
     0
  0
LTYPE
  5
27
330
5
100
AcDbSymbolTableRecord
100
AcDbLinetypeTableRecord
  2
CENTER
 70
     0
  3
____ _ ____ _ ____ _ ____ _ ____ _ ____ _ ____
 72
    65
 73
     4
 40
2.0
 49
1.25
 74
     0
 49
-0.25
 74
     0
 49
0.25
 74
     0
 49
-0.25
 74
     0
  0
LTYPE
  5
28
330
5
100
AcDbSymbolTableRecord
100
AcDbLinetypeTableRecord
  2
HIDDEN2
 70
     0
  3
_ _ _ _ _ _ _ _ _ _ _ _ _ _ _ _ _ _ _ _ _ _ _ _
 72
    65
 73
     2
 40
0.1875
 49
0.125
 74
     0
 49
-0.0625
 74
     0
  0
LTYPE
  5
9FF
330
5
100
AcDbSymbolTableRecord
100
AcDbLinetypeTableRecord
  2
PHANTOM2
 70
     0
  3
___ _ _ ___ _ _ ___ _ _ ___ _ _ ___ _ _ ___ _ _
 72
    65
 73
     6
 40
1.25
 49
0.625
 74
     0
 49
-0.125
 74
     0
 49
0.125
 74
     0
 49
-0.125
 74
     0
 49
0.125
 74
     0
 49
-0.125
 74
     0
  0
ENDTAB
  0
TABLE
  2
LAYER
  5
2
330
0
100
AcDbSymbolTable
 70
     9
  0
LAYER
  5
10
330
2
100
AcDbSymbolTableRecord
100
AcDbLayerTableRecord
  2
0
 70
     0
 62
     7
  6
CONTINUOUS
370
    -3
390
F
  0
LAYER
  5
22
330
2
100
AcDbSymbolTableRecord
100
AcDbLayerTableRecord
  2
TEXT
 70
     0
 62
     7
  6
CONTINUOUS
370
    -3
390
F
  0
LAYER
  5
29
330
2
100
AcDbSymbolTableRecord
100
AcDbLayerTableRecord
  2
OBJECT
 70
     0
 62
     7
  6
CONTINUOUS
370
    -3
390
F
  0
LAYER
  5
2A
330
2
100
AcDbSymbolTableRecord
100
AcDbLayerTableRecord
  2
DIM
 70
     0
 62
     7
  6
CONTINUOUS
370
    -3
390
F
  0
LAYER
  5
2B
330
2
100
AcDbSymbolTableRecord
100
AcDbLayerTableRecord
  2
HIDDEN
 70
     0
 62
     7
  6
HIDDEN
370
    -3
390
F
  0
LAYER
  5
2C
330
2
100
AcDbSymbolTableRecord
100
AcDbLayerTableRecord
  2
BEND
 70
     0
 62
     7
  6
PHANTOM
370
    -3
390
F
  0
LAYER
  5
2D
330
2
100
AcDbSymbolTableRecord
100
AcDbLayerTableRecord
  2
TITLE
 70
     0
 62
     7
  6
CONTINUOUS
370
    -3
390
F
  0
LAYER
  5
2E
330
2
100
AcDbSymbolTableRecord
100
AcDbLayerTableRecord
  2
CENTER
 70
     0
 62
     7
  6
CENTER
370
    -3
390
F
  0
LAYER
  5
2F
330
2
100
AcDbSymbolTableRecord
100
AcDbLayerTableRecord
  2
DEFPOINTS
 70
     0
 62
     7
  6
CONTINUOUS
290
     0
370
    -3
390
F
  0
ENDTAB
  0
TABLE
  2
STYLE
  5
3
330
0
100
AcDbSymbolTable
 70
     2
  0
STYLE
  5
11
330
3
100
AcDbSymbolTableRecord
100
AcDbTextStyleTableRecord
  2
STANDARD
 70
     0
 40
0.0
 41
1.0
 50
0.0
 71
     0
 42
0.2
  3
txt
  4

  0
STYLE
  5
23
330
3
100
AcDbSymbolTableRecord
100
AcDbTextStyleTableRecord
  2
TXT
 70
     0
 40
0.0
 41
0.75
 50
0.0
 71
     0
 42
0.188
  3
TXT.shx
  4

  0
ENDTAB
  0
TABLE
  2
VIEW
  5
6
330
0
100
AcDbSymbolTable
 70
     0
  0
ENDTAB
  0
TABLE
  2
UCS
  5
7
330
0
100
AcDbSymbolTable
 70
     0
  0
ENDTAB
  0
TABLE
  2
APPID
  5
9
330
0
100
AcDbSymbolTable
 70
     2
  0
APPID
  5
12
330
9
100
AcDbSymbolTableRecord
100
AcDbRegAppTableRecord
  2
ACAD
 70
     0
  0
APPID
  5
6DE
330
9
100
AcDbSymbolTableRecord
100
AcDbRegAppTableRecord
  2
DCO15
 70
     0
  0
ENDTAB
  0
TABLE
  2
DIMSTYLE
  5
A
330
0
100
AcDbSymbolTable
 70
     2
100
AcDbDimStyleTable
 71
     2
340
30
340
31
  0
DIMSTYLE
105
30
102
{ACAD_REACTORS
330
323
330
331
330
33F
330
34D
330
35B
330
369
330
385
330
393
330
3DA
330
412
330
42E
330
43C
330
458
330
4A1
330
4AF
330
4EB
330
4F9
330
51C
330
52D
330
552
330
560
330
580
330
58E
330
59D
330
5AB
330
5C6
330
61A
330
64C
330
660
330
66E
330
684
102
}
330
A
100
AcDbSymbolTableRecord
100
AcDbDimStyleTableRecord
  2
23NSTD
 70
     0
 42
0.063
 43
0.281
 44
0.093
140
0.125
271
     3
272
     3
289
     1
340
23
  0
DIMSTYLE
105
31
102
{ACAD_REACTORS
330
377
330
3B0
330
3BE
330
3CC
330
3E8
330
3F6
330
404
330
420
330
44A
330
50E
330
53B
330
6A4
330
6B2
102
}
330
A
100
AcDbSymbolTableRecord
100
AcDbDimStyleTableRecord
  2
23NSTDI
 70
     0
 42
0.063
 43
0.281
 44
0.093
140
0.125
174
     1
271
     3
272
     3
340
23
  0
ENDTAB
  0
TABLE
  2
BLOCK_RECORD
  5
1
330
0
100
AcDbSymbolTable
 70
    45
  0
BLOCK_RECORD
  5
1E
330
1
100
AcDbSymbolTableRecord
100
AcDbBlockTableRecord
  2
*Model_Space
340
21
  0
BLOCK_RECORD
  5
1A
330
1
100
AcDbSymbolTableRecord
100
AcDbBlockTableRecord
  2
*Paper_Space
340
1D
  0
BLOCK_RECORD
  5
324
330
1
100
AcDbSymbolTableRecord
100
AcDbBlockTableRecord
  2
*D0
340
0
  0
BLOCK_RECORD
  5
332
330
1
100
AcDbSymbolTableRecord
100
AcDbBlockTableRecord
  2
*D1
340
0
  0
BLOCK_RECORD
  5
340
330
1
100
AcDbSymbolTableRecord
100
AcDbBlockTableRecord
  2
*D2
340
0
  0
BLOCK_RECORD
  5
34E
330
1
100
AcDbSymbolTableRecord
100
AcDbBlockTableRecord
  2
*D3
340
0
  0
BLOCK_RECORD
  5
35C
330
1
100
AcDbSymbolTableRecord
100
AcDbBlockTableRecord
  2
*D4
340
0
  0
BLOCK_RECORD
  5
36A
330
1
100
AcDbSymbolTableRecord
100
AcDbBlockTableRecord
  2
*D5
340
0
  0
BLOCK_RECORD
  5
378
330
1
100
AcDbSymbolTableRecord
100
AcDbBlockTableRecord
  2
*D6
340
0
  0
BLOCK_RECORD
  5
386
330
1
100
AcDbSymbolTableRecord
100
AcDbBlockTableRecord
  2
*D7
340
0
  0
BLOCK_RECORD
  5
394
330
1
100
AcDbSymbolTableRecord
100
AcDbBlockTableRecord
  2
*D8
340
0
  0
BLOCK_RECORD
  5
3B1
330
1
100
AcDbSymbolTableRecord
100
AcDbBlockTableRecord
  2
*D9
340
0
  0
BLOCK_RECORD
  5
3BF
330
1
100
AcDbSymbolTableRecord
100
AcDbBlockTableRecord
  2
*D10
340
0
  0
BLOCK_RECORD
  5
3CD
330
1
100
AcDbSymbolTableRecord
100
AcDbBlockTableRecord
  2
*D11
340
0
  0
BLOCK_RECORD
  5
3DB
330
1
100
AcDbSymbolTableRecord
100
AcDbBlockTableRecord
  2
*D12
340
0
  0
BLOCK_RECORD
  5
3E9
330
1
100
AcDbSymbolTableRecord
100
AcDbBlockTableRecord
  2
*D13
340
0
  0
BLOCK_RECORD
  5
3F7
330
1
100
AcDbSymbolTableRecord
100
AcDbBlockTableRecord
  2
*D14
340
0
  0
BLOCK_RECORD
  5
405
330
1
100
AcDbSymbolTableRecord
100
AcDbBlockTableRecord
  2
*D15
340
0
  0
BLOCK_RECORD
  5
413
330
1
100
AcDbSymbolTableRecord
100
AcDbBlockTableRecord
  2
*D16
340
0
  0
BLOCK_RECORD
  5
421
330
1
100
AcDbSymbolTableRecord
100
AcDbBlockTableRecord
  2
*D17
340
0
  0
BLOCK_RECORD
  5
42F
330
1
100
AcDbSymbolTableRecord
100
AcDbBlockTableRecord
  2
*D18
340
0
  0
BLOCK_RECORD
  5
43D
330
1
100
AcDbSymbolTableRecord
100
AcDbBlockTableRecord
  2
*D19
340
0
  0
BLOCK_RECORD
  5
44B
330
1
100
AcDbSymbolTableRecord
100
AcDbBlockTableRecord
  2
*D20
340
0
  0
BLOCK_RECORD
  5
459
330
1
100
AcDbSymbolTableRecord
100
AcDbBlockTableRecord
  2
*D21
340
0
  0
BLOCK_RECORD
  5
4A2
330
1
100
AcDbSymbolTableRecord
100
AcDbBlockTableRecord
  2
*D22
340
0
  0
BLOCK_RECORD
  5
4B0
330
1
100
AcDbSymbolTableRecord
100
AcDbBlockTableRecord
  2
*D23
340
0
  0
BLOCK_RECORD
  5
4EC
330
1
100
AcDbSymbolTableRecord
100
AcDbBlockTableRecord
  2
*D24
340
0
  0
BLOCK_RECORD
  5
4FA
330
1
100
AcDbSymbolTableRecord
100
AcDbBlockTableRecord
  2
*D25
340
0
  0
BLOCK_RECORD
  5
50F
330
1
100
AcDbSymbolTableRecord
100
AcDbBlockTableRecord
  2
*D26
340
0
  0
BLOCK_RECORD
  5
51D
330
1
100
AcDbSymbolTableRecord
100
AcDbBlockTableRecord
  2
*D27
340
0
  0
BLOCK_RECORD
  5
52E
330
1
100
AcDbSymbolTableRecord
100
AcDbBlockTableRecord
  2
*D28
340
0
  0
BLOCK_RECORD
  5
53C
330
1
100
AcDbSymbolTableRecord
100
AcDbBlockTableRecord
  2
*D29
340
0
  0
BLOCK_RECORD
  5
553
330
1
100
AcDbSymbolTableRecord
100
AcDbBlockTableRecord
  2
*D30
340
0
  0
BLOCK_RECORD
  5
561
330
1
100
AcDbSymbolTableRecord
100
AcDbBlockTableRecord
  2
*D31
340
0
  0
BLOCK_RECORD
  5
581
330
1
100
AcDbSymbolTableRecord
100
AcDbBlockTableRecord
  2
*D32
340
0
  0
BLOCK_RECORD
  5
58F
330
1
100
AcDbSymbolTableRecord
100
AcDbBlockTableRecord
  2
*D33
340
0
  0
BLOCK_RECORD
  5
59E
330
1
100
AcDbSymbolTableRecord
100
AcDbBlockTableRecord
  2
*D34
340
0
  0
BLOCK_RECORD
  5
5AC
330
1
100
AcDbSymbolTableRecord
100
AcDbBlockTableRecord
  2
*D35
340
0
  0
BLOCK_RECORD
  5
5C7
330
1
100
AcDbSymbolTableRecord
100
AcDbBlockTableRecord
  2
*D36
340
0
  0
BLOCK_RECORD
  5
61B
330
1
100
AcDbSymbolTableRecord
100
AcDbBlockTableRecord
  2
*D37
340
0
  0
BLOCK_RECORD
  5
64D
330
1
100
AcDbSymbolTableRecord
100
AcDbBlockTableRecord
  2
*D38
340
0
  0
BLOCK_RECORD
  5
661
330
1
100
AcDbSymbolTableRecord
100
AcDbBlockTableRecord
  2
*D39
340
0
  0
BLOCK_RECORD
  5
66F
330
1
100
AcDbSymbolTableRecord
100
AcDbBlockTableRecord
  2
*D40
340
0
  0
BLOCK_RECORD
  5
685
330
1
100
AcDbSymbolTableRecord
100
AcDbBlockTableRecord
  2
*D41
340
0
  0
BLOCK_RECORD
  5
6A5
330
1
100
AcDbSymbolTableRecord
100
AcDbBlockTableRecord
  2
*D42
340
0
  0
BLOCK_RECORD
  5
6B3
330
1
100
AcDbSymbolTableRecord
100
AcDbBlockTableRecord
  2
*D43
340
0
  0
BLOCK_RECORD
  5
A00
330
1
100
AcDbSymbolTableRecord
100
AcDbBlockTableRecord
  2
HB
340
0
102
{BLKREFS
331
A19
102
}
  0
ENDTAB
  0
ENDSEC
  0
SECTION
  2
BLOCKS
  0
BLOCK
  5
1F
330
1E
100
AcDbEntity
  8
0
100
AcDbBlockBegin
  2
*Model_Space
 70
     0
 10
0.0
 20
0.0
 30
0.0
  3
*Model_Space
  1

  0
ENDBLK
  5
20
330
1E
100
AcDbEntity
  8
0
100
AcDbBlockEnd
  0
BLOCK
  5
1B
330
1A
100
AcDbEntity
 67
     1
  8
0
100
AcDbBlockBegin
  2
*Paper_Space
 70
     0
 10
0.0
 20
0.0
 30
0.0
  3
*Paper_Space
  1

  0
ENDBLK
  5
1C
330
1A
100
AcDbEntity
 67
     1
  8
0
100
AcDbBlockEnd
  0
BLOCK
  5
32F
330
324
100
AcDbEntity
  8
0
100
AcDbBlockBegin
  2
*D0
 70
     1
 10
0.0
 20
0.0
 30
0.0
  3
*D0
  1

  0
LINE
  5
8C1
330
324
100
AcDbEntity
  8
DIM
 62
     0
370
    -2
100
AcDbLine
 10
2.589841999999999
 20
13.337156
 30
0.0
 11
2.589841999999999
 21
13.83093099999999
 31
0.0
  0
LINE
  5
8C2
330
324
100
AcDbEntity
  8
DIM
 62
     0
370
    -2
100
AcDbLine
 10
5.839989
 20
13.337156
 30
0.0
 11
5.839989
 21
13.83093099999999
 31
0.0
  0
LINE
  5
8C3
330
324
100
AcDbEntity
  8
DIM
 62
     0
370
    -2
100
AcDbLine
 10
2.769842
 20
13.737931
 30
0.0
 11
3.898353
 21
13.737931
 31
0.0
  0
LINE
  5
8C4
330
324
100
AcDbEntity
  8
DIM
 62
     0
370
    -2
100
AcDbLine
 10
5.659989
 20
13.737931
 30
0.0
 11
4.531477999999999
 21
13.737931
 31
0.0
  0
SOLID
  5
8C5
330
324
100
AcDbEntity
  8
DIM
 62
     0
100
AcDbTrace
 10
2.769842
 20
13.76793099999999
 30
0.0
 11
2.769842
 21
13.707931
 31
0.0
 12
2.589841999999999
 22
13.737931
 32
0.0
 13
2.589841999999999
 23
13.737931
 33
0.0
  0
SOLID
  5
8C6
330
324
100
AcDbEntity
  8
DIM
 62
     0
100
AcDbTrace
 10
5.659989
 20
13.76793099999999
 30
0.0
 11
5.659989
 21
13.707931
 31
0.0
 12
5.839989
 22
13.737931
 32
0.0
 13
5.839989
 23
13.737931
 33
0.0
  0
MTEXT
  5
8C7
330
324
100
AcDbEntity
  8
DIM
 62
     0
100
AcDbMText
 10
4.2149155
 20
13.737931
 30
0.0
 40
0.125
 41
0.0
 71
     5
 72
     1
  1
\A1;3.250*
  7
TXT
 73
     1
 44
1.0
  0
POINT
  5
8C8
330
324
100
AcDbEntity
  8
DEFPOINTS
 62
     0
100
AcDbPoint
 10
2.589841999999999
 20
13.274156
 30
0.0
  0
POINT
  5
8C9
330
324
100
AcDbEntity
  8
DEFPOINTS
 62
     0
100
AcDbPoint
 10
5.839989
 20
13.274156
 30
0.0
  0
POINT
  5
8CA
330
324
100
AcDbEntity
  8
DEFPOINTS
 62
     0
100
AcDbPoint
 10
5.839989
 20
13.737931
 30
0.0
  0
ENDBLK
  5
330
330
324
100
AcDbEntity
  8
0
100
AcDbBlockEnd
  0
BLOCK
  5
33D
330
332
100
AcDbEntity
  8
0
100
AcDbBlockBegin
  2
*D1
 70
     1
 10
0.0
 20
0.0
 30
0.0
  3
*D1
  1

  0
LINE
  5
8CB
330
332
100
AcDbEntity
  8
DIM
 62
     0
370
    -2
100
AcDbLine
 10
5.902988999999999
 20
11.773761
 30
0.0
 11
7.001829000000001
 21
11.773761
 31
0.0
  0
LINE
  5
8CC
330
332
100
AcDbEntity
  8
DIM
 62
     0
370
    -2
100
AcDbLine
 10
5.902988999999999
 20
13.274156
 30
0.0
 11
7.001829000000001
 21
13.274156
 31
0.0
  0
LINE
  5
8CD
330
332
100
AcDbEntity
  8
DIM
 62
     0
370
    -2
100
AcDbLine
 10
6.908829000000001
 20
11.953761
 30
0.0
 11
6.908829000000001
 21
12.47034399999999
 31
0.0
  0
LINE
  5
8CE
330
332
100
AcDbEntity
  8
DIM
 62
     0
370
    -2
100
AcDbLine
 10
6.908829000000001
 20
13.094156
 30
0.0
 11
6.908829000000001
 21
12.77534399999999
 31
0.0
  0
SOLID
  5
8CF
330
332
100
AcDbEntity
  8
DIM
 62
     0
100
AcDbTrace
 10
6.878829000000001
 20
11.953761
 30
0.0
 11
6.938829000000001
 21
11.953761
 31
0.0
 12
6.908829000000001
 22
11.773761
 32
0.0
 13
6.908829000000001
 23
11.773761
 33
0.0
  0
SOLID
  5
8D0
330
332
100
AcDbEntity
  8
DIM
 62
     0
100
AcDbTrace
 10
6.878829000000001
 20
13.094156
 30
0.0
 11
6.938829000000001
 21
13.094156
 31
0.0
 12
6.908829000000001
 22
13.274156
 32
0.0
 13
6.908829000000001
 23
13.274156
 33
0.0
  0
MTEXT
  5
8D1
330
332
100
AcDbEntity
  8
DIM
 62
     0
100
AcDbMText
 10
6.908828999999999
 20
12.622844
 30
0.0
 40
0.125
 41
0.0
 71
     5
 72
     1
  1
\A1;1.500*
  7
TXT
 73
     1
 44
1.0
  0
POINT
  5
8D2
330
332
100
AcDbEntity
  8
DEFPOINTS
 62
     0
100
AcDbPoint
 10
5.839989
 20
11.773761
 30
0.0
  0
POINT
  5
8D3
330
332
100
AcDbEntity
  8
DEFPOINTS
 62
     0
100
AcDbPoint
 10
5.839989
 20
13.274156
 30
0.0
  0
POINT
  5
8D4
330
332
100
AcDbEntity
  8
DEFPOINTS
 62
     0
100
AcDbPoint
 10
6.908829000000001
 20
13.274156
 30
0.0
  0
ENDBLK
  5
33E
330
332
100
AcDbEntity
  8
0
100
AcDbBlockEnd
  0
BLOCK
  5
34B
330
340
100
AcDbEntity
  8
0
100
AcDbBlockBegin
  2
*D2
 70
     1
 10
0.0
 20
0.0
 30
0.0
  3
*D2
  1

  0
LINE
  5
8D5
330
340
100
AcDbEntity
  8
DIM
 62
     0
370
    -2
100
AcDbLine
 10
5.683633999999999
 20
7.472316999999999
 30
0.0
 11
5.683633999999999
 21
8.683813
 31
0.0
  0
LINE
  5
8D6
330
340
100
AcDbEntity
  8
DIM
 62
     0
370
    -2
100
AcDbLine
 10
2.746195999999999
 20
7.472316999999999
 30
0.0
 11
2.746195999999999
 21
8.683813
 31
0.0
  0
LINE
  5
8D7
330
340
100
AcDbEntity
  8
DIM
 62
     0
370
    -2
100
AcDbLine
 10
5.503633999999999
 20
8.590813
 30
0.0
 11
4.492414999999999
 21
8.590813
 31
0.0
  0
LINE
  5
8D8
330
340
100
AcDbEntity
  8
DIM
 62
     0
370
    -2
100
AcDbLine
 10
2.926196
 20
8.590813
 30
0.0
 11
3.937414999999999
 21
8.590813
 31
0.0
  0
SOLID
  5
8D9
330
340
100
AcDbEntity
  8
DIM
 62
     0
100
AcDbTrace
 10
5.503633999999999
 20
8.620813
 30
0.0
 11
5.503633999999999
 21
8.560813000000001
 31
0.0
 12
5.683633999999999
 22
8.590813
 32
0.0
 13
5.683633999999999
 23
8.590813
 33
0.0
  0
SOLID
  5
8DA
330
340
100
AcDbEntity
  8
DIM
 62
     0
100
AcDbTrace
 10
2.926196
 20
8.620813
 30
0.0
 11
2.926196
 21
8.560813000000001
 31
0.0
 12
2.746195999999999
 22
8.590813
 32
0.0
 13
2.746195999999999
 23
8.590813
 33
0.0
  0
MTEXT
  5
8DB
330
340
100
AcDbEntity
  8
DIM
 62
     0
100
AcDbMText
 10
4.214914999999999
 20
8.590813
 30
0.0
 40
0.125
 41
0.0
 71
     5
 72
     1
  1
\A1;2.937
  7
TXT
 73
     1
 44
1.0
  0
POINT
  5
8DC
330
340
100
AcDbEntity
  8
DEFPOINTS
 62
     0
100
AcDbPoint
 10
5.683633999999999
 20
7.409316999999999
 30
0.0
  0
POINT
  5
8DD
330
340
100
AcDbEntity
  8
DEFPOINTS
 62
     0
100
AcDbPoint
 10
2.746195999999999
 20
7.409316999999999
 30
0.0
  0
POINT
  5
8DE
330
340
100
AcDbEntity
  8
DEFPOINTS
 62
     0
100
AcDbPoint
 10
2.746195999999999
 20
8.590813
 30
0.0
  0
ENDBLK
  5
34C
330
340
100
AcDbEntity
  8
0
100
AcDbBlockEnd
  0
BLOCK
  5
359
330
34E
100
AcDbEntity
  8
0
100
AcDbBlockBegin
  2
*D3
 70
     1
 10
0.0
 20
0.0
 30
0.0
  3
*D3
  1

  0
LINE
  5
8DF
330
34E
100
AcDbEntity
  8
DIM
 62
     0
370
    -2
100
AcDbLine
 10
8.330545
 20
12.367115
 30
0.0
 11
8.330545
 21
11.249463
 31
0.0
  0
LINE
  5
8E0
330
34E
100
AcDbEntity
  8
DIM
 62
     0
370
    -2
100
AcDbLine
 10
8.267982999999999
 20
12.367115
 30
0.0
 11
8.267982999999999
 21
11.249463
 31
0.0
  0
LINE
  5
8E1
330
34E
100
AcDbEntity
  8
DIM
 62
     0
370
    -2
100
AcDbLine
 10
8.510545
 20
11.342463
 30
0.0
 11
8.690545
 21
11.342463
 31
0.0
  0
LINE
  5
8E2
330
34E
100
AcDbEntity
  8
DIM
 62
     0
370
    -2
100
AcDbLine
 10
8.087982999999999
 20
11.342463
 30
0.0
 11
7.907982999999998
 21
11.342463
 31
0.0
  0
SOLID
  5
8E3
330
34E
100
AcDbEntity
  8
DIM
 62
     0
100
AcDbTrace
 10
8.510545
 20
11.37246299999999
 30
0.0
 11
8.510545
 21
11.312463
 31
0.0
 12
8.330545
 22
11.342463
 32
0.0
 13
8.330545
 23
11.342463
 33
0.0
  0
SOLID
  5
8E4
330
34E
100
AcDbEntity
  8
DIM
 62
     0
100
AcDbTrace
 10
8.087982999999999
 20
11.37246299999999
 30
0.0
 11
8.087982999999999
 21
11.312463
 31
0.0
 12
8.267982999999999
 22
11.342463
 32
0.0
 13
8.267982999999999
 23
11.342463
 33
0.0
  0
MTEXT
  5
8E5
330
34E
100
AcDbEntity
  8
DIM
 62
     0
100
AcDbMText
 10
7.646107999999999
 20
11.342463
 30
0.0
 40
0.125
 41
0.0
 71
     5
 72
     1
  1
\A1;0.063
  7
TXT
 73
     1
 44
1.0
  0
POINT
  5
8E6
330
34E
100
AcDbEntity
  8
DEFPOINTS
 62
     0
100
AcDbPoint
 10
8.330545
 20
12.430115
 30
0.0
  0
POINT
  5
8E7
330
34E
100
AcDbEntity
  8
DEFPOINTS
 62
     0
100
AcDbPoint
 10
8.267982999999999
 20
12.430115
 30
0.0
  0
POINT
  5
8E8
330
34E
100
AcDbEntity
  8
DEFPOINTS
 62
     0
100
AcDbPoint
 10
8.267982999999999
 20
11.342463
 30
0.0
  0
ENDBLK
  5
35A
330
34E
100
AcDbEntity
  8
0
100
AcDbBlockEnd
  0
BLOCK
  5
367
330
35C
100
AcDbEntity
  8
0
100
AcDbBlockBegin
  2
*D4
 70
     1
 10
0.0
 20
0.0
 30
0.0
  3
*D4
  1

  0
LINE
  5
8E9
330
35C
100
AcDbEntity
  8
DIM
 62
     0
370
    -2
100
AcDbLine
 10
8.267982999999999
 20
12.367115
 30
0.0
 11
8.267982999999999
 21
10.56138
 31
0.0
  0
LINE
  5
8EA
330
35C
100
AcDbEntity
  8
DIM
 62
     0
370
    -2
100
AcDbLine
 10
8.037594999999999
 20
11.74217599999999
 30
0.0
 11
8.037594999999999
 21
10.56138
 31
0.0
  0
LINE
  5
8EB
330
35C
100
AcDbEntity
  8
DIM
 62
     0
370
    -2
100
AcDbLine
 10
8.447982999999998
 20
10.65438
 30
0.0
 11
8.627982999999998
 21
10.65438
 31
0.0
  0
LINE
  5
8EC
330
35C
100
AcDbEntity
  8
DIM
 62
     0
370
    -2
100
AcDbLine
 10
7.857594999999999
 20
10.65438
 30
0.0
 11
7.677594999999999
 21
10.65438
 31
0.0
  0
SOLID
  5
8ED
330
35C
100
AcDbEntity
  8
DIM
 62
     0
100
AcDbTrace
 10
8.447982999999998
 20
10.68437999999999
 30
0.0
 11
8.447982999999998
 21
10.62437999999999
 31
0.0
 12
8.267982999999999
 22
10.65438
 32
0.0
 13
8.267982999999999
 23
10.65438
 33
0.0
  0
SOLID
  5
8EE
330
35C
100
AcDbEntity
  8
DIM
 62
     0
100
AcDbTrace
 10
7.857594999999999
 20
10.68437999999999
 30
0.0
 11
7.857594999999999
 21
10.62437999999999
 31
0.0
 12
8.037594999999999
 22
10.65438
 32
0.0
 13
8.037594999999999
 23
10.65438
 33
0.0
  0
MTEXT
  5
8EF
330
35C
100
AcDbEntity
  8
DIM
 62
     0
100
AcDbMText
 10
7.415719999999999
 20
10.65438
 30
0.0
 40
0.125
 41
0.0
 71
     5
 72
     1
  1
\A1;0.230
  7
TXT
 73
     1
 44
1.0
  0
POINT
  5
8F0
330
35C
100
AcDbEntity
  8
DEFPOINTS
 62
     0
100
AcDbPoint
 10
8.267982999999999
 20
12.430115
 30
0.0
  0
POINT
  5
8F1
330
35C
100
AcDbEntity
  8
DEFPOINTS
 62
     0
100
AcDbPoint
 10
8.037594999999999
 20
11.80517599999999
 30
0.0
  0
POINT
  5
8F2
330
35C
100
AcDbEntity
  8
DEFPOINTS
 62
     0
100
AcDbPoint
 10
8.037594999999999
 20
10.65438
 30
0.0
  0
ENDBLK
  5
368
330
35C
100
AcDbEntity
  8
0
100
AcDbBlockEnd
  0
BLOCK
  5
375
330
36A
100
AcDbEntity
  8
0
100
AcDbBlockBegin
  2
*D5
 70
     1
 10
0.0
 20
0.0
 30
0.0
  3
*D5
  1

  0
LINE
  5
8F3
330
36A
100
AcDbEntity
  8
DIM
 62
     0
370
    -2
100
AcDbLine
 10
8.330545
 20
12.367115
 30
0.0
 11
8.330545
 21
10.899361
 31
0.0
  0
LINE
  5
8F4
330
36A
100
AcDbEntity
  8
DIM
 62
     0
370
    -2
100
AcDbLine
 10
8.577814
 20
11.74193599999999
 30
0.0
 11
8.577814
 21
10.899361
 31
0.0
  0
LINE
  5
8F5
330
36A
100
AcDbEntity
  8
DIM
 62
     0
370
    -2
100
AcDbLine
 10
8.150545000000001
 20
10.992361
 30
0.0
 11
7.970545
 21
10.992361
 31
0.0
  0
LINE
  5
8F6
330
36A
100
AcDbEntity
  8
DIM
 62
     0
370
    -2
100
AcDbLine
 10
8.757813999999999
 20
10.992361
 30
0.0
 11
8.937813999999999
 21
10.992361
 31
0.0
  0
SOLID
  5
8F7
330
36A
100
AcDbEntity
  8
DIM
 62
     0
100
AcDbTrace
 10
8.150545000000001
 20
11.022361
 30
0.0
 11
8.150545000000001
 21
10.962361
 31
0.0
 12
8.330545
 22
10.992361
 32
0.0
 13
8.330545
 23
10.992361
 33
0.0
  0
SOLID
  5
8F8
330
36A
100
AcDbEntity
  8
DIM
 62
     0
100
AcDbTrace
 10
8.757813999999999
 20
11.022361
 30
0.0
 11
8.757813999999999
 21
10.962361
 31
0.0
 12
8.577814
 22
10.992361
 32
0.0
 13
8.577814
 23
10.992361
 33
0.0
  0
MTEXT
  5
8F9
330
36A
100
AcDbEntity
  8
DIM
 62
     0
100
AcDbMText
 10
9.207501499999999
 20
10.992361
 30
0.0
 40
0.125
 41
0.0
 71
     5
 72
     1
  1
\A1;0.247
  7
TXT
 73
     1
 44
1.0
  0
POINT
  5
8FA
330
36A
100
AcDbEntity
  8
DEFPOINTS
 62
     0
100
AcDbPoint
 10
8.330545
 20
12.430115
 30
0.0
  0
POINT
  5
8FB
330
36A
100
AcDbEntity
  8
DEFPOINTS
 62
     0
100
AcDbPoint
 10
8.577814
 20
11.80493599999999
 30
0.0
  0
POINT
  5
8FC
330
36A
100
AcDbEntity
  8
DEFPOINTS
 62
     0
100
AcDbPoint
 10
8.577814
 20
10.992361
 30
0.0
  0
ENDBLK
  5
376
330
36A
100
AcDbEntity
  8
0
100
AcDbBlockEnd
  0
BLOCK
  5
383
330
378
100
AcDbEntity
  8
0
100
AcDbBlockBegin
  2
*D6
 70
     1
 10
0.0
 20
0.0
 30
0.0
  3
*D6
  1

  0
LINE
  5
821
330
378
100
AcDbEntity
  8
DIM
 62
     0
370
    -2
100
AcDbLine
 10
8.67116
 20
13.306149
 30
0.0
 11
8.67116
 21
14.153646
 31
0.0
  0
LINE
  5
822
330
378
100
AcDbEntity
  8
DIM
 62
     0
370
    -2
100
AcDbLine
 10
7.944249
 20
13.306149
 30
0.0
 11
7.944249
 21
14.153646
 31
0.0
  0
LINE
  5
823
330
378
100
AcDbEntity
  8
DIM
 62
     0
370
    -2
100
AcDbLine
 10
8.85116
 20
14.060646
 30
0.0
 11
9.031159999999999
 21
14.060646
 31
0.0
  0
LINE
  5
824
330
378
100
AcDbEntity
  8
DIM
 62
     0
370
    -2
100
AcDbLine
 10
7.764249
 20
14.060646
 30
0.0
 11
7.584248999999999
 21
14.060646
 31
0.0
  0
SOLID
  5
825
330
378
100
AcDbEntity
  8
DIM
 62
     0
100
AcDbTrace
 10
8.85116
 20
14.09064599999999
 30
0.0
 11
8.85116
 21
14.030646
 31
0.0
 12
8.67116
 22
14.060646
 32
0.0
 13
8.67116
 23
14.060646
 33
0.0
  0
SOLID
  5
826
330
378
100
AcDbEntity
  8
DIM
 62
     0
100
AcDbTrace
 10
7.764249
 20
14.09064599999999
 30
0.0
 11
7.764249
 21
14.030646
 31
0.0
 12
7.944249
 22
14.060646
 32
0.0
 13
7.944249
 23
14.060646
 33
0.0
  0
MTEXT
  5
827
330
378
100
AcDbEntity
  8
DIM
 62
     0
100
AcDbMText
 10
8.307704499999999
 20
14.060646
 30
0.0
 40
0.125
 41
0.0
 71
     5
 72
     1
  1
\A1;0.727
  7
TXT
 73
     1
 44
1.0
  0
POINT
  5
828
330
378
100
AcDbEntity
  8
DEFPOINTS
 62
     0
100
AcDbPoint
 10
8.67116
 20
13.243149
 30
0.0
  0
POINT
  5
829
330
378
100
AcDbEntity
  8
DEFPOINTS
 62
     0
100
AcDbPoint
 10
7.944249
 20
13.243149
 30
0.0
  0
POINT
  5
82A
330
378
100
AcDbEntity
  8
DEFPOINTS
 62
     0
100
AcDbPoint
 10
7.944249
 20
14.060646
 30
0.0
  0
ENDBLK
  5
384
330
378
100
AcDbEntity
  8
0
100
AcDbBlockEnd
  0
BLOCK
  5
391
330
386
100
AcDbEntity
  8
0
100
AcDbBlockBegin
  2
*D7
 70
     1
 10
0.0
 20
0.0
 30
0.0
  3
*D7
  1

  0
LINE
  5
8FD
330
386
100
AcDbEntity
  8
DIM
 62
     0
370
    -2
100
AcDbLine
 10
8.221864
 20
11.639673
 30
0.0
 11
7.452421
 21
11.639673
 31
0.0
  0
LINE
  5
8FE
330
386
100
AcDbEntity
  8
DIM
 62
     0
370
    -2
100
AcDbLine
 10
8.231794999999999
 20
13.408765
 30
0.0
 11
7.452421
 21
13.408765
 31
0.0
  0
LINE
  5
8FF
330
386
100
AcDbEntity
  8
DIM
 62
     0
370
    -2
100
AcDbLine
 10
7.545421
 20
11.81967299999999
 30
0.0
 11
7.545421
 21
12.371719
 31
0.0
  0
LINE
  5
900
330
386
100
AcDbEntity
  8
DIM
 62
     0
370
    -2
100
AcDbLine
 10
7.545421
 20
13.228765
 30
0.0
 11
7.545421
 21
12.676719
 31
0.0
  0
SOLID
  5
901
330
386
100
AcDbEntity
  8
DIM
 62
     0
100
AcDbTrace
 10
7.515420999999999
 20
11.81967299999999
 30
0.0
 11
7.575421
 21
11.81967299999999
 31
0.0
 12
7.545421
 22
11.639673
 32
0.0
 13
7.545421
 23
11.639673
 33
0.0
  0
SOLID
  5
902
330
386
100
AcDbEntity
  8
DIM
 62
     0
100
AcDbTrace
 10
7.515420999999999
 20
13.228765
 30
0.0
 11
7.575421
 21
13.228765
 31
0.0
 12
7.545421
 22
13.408765
 32
0.0
 13
7.545421
 23
13.408765
 33
0.0
  0
MTEXT
  5
903
330
386
100
AcDbEntity
  8
DIM
 62
     0
100
AcDbMText
 10
7.545420999999998
 20
12.524219
 30
0.0
 40
0.125
 41
0.0
 71
     5
 72
     1
  1
\A1;1.769
  7
TXT
 73
     1
 44
1.0
  0
POINT
  5
904
330
386
100
AcDbEntity
  8
DEFPOINTS
 62
     0
100
AcDbPoint
 10
8.284864
 20
11.639673
 30
0.0
  0
POINT
  5
905
330
386
100
AcDbEntity
  8
DEFPOINTS
 62
     0
100
AcDbPoint
 10
8.294795
 20
13.408765
 30
0.0
  0
POINT
  5
906
330
386
100
AcDbEntity
  8
DEFPOINTS
 62
     0
100
AcDbPoint
 10
7.545421
 20
13.408765
 30
0.0
  0
ENDBLK
  5
392
330
386
100
AcDbEntity
  8
0
100
AcDbBlockEnd
  0
BLOCK
  5
39F
330
394
100
AcDbEntity
  8
0
100
AcDbBlockBegin
  2
*D8
 70
     1
 10
0.0
 20
0.0
 30
0.0
  3
*D8
  1

  0
LINE
  5
907
330
394
100
AcDbEntity
  8
DIM
 62
     0
370
    -2
100
AcDbLine
 10
5.974598
 20
10.17534199999999
 30
0.0
 11
5.974598
 21
9.195605999999999
 31
0.0
  0
LINE
  5
908
330
394
100
AcDbEntity
  8
DIM
 62
     0
370
    -2
100
AcDbLine
 10
2.455233
 20
10.17534199999999
 30
0.0
 11
2.455233
 21
9.195605999999999
 31
0.0
  0
LINE
  5
909
330
394
100
AcDbEntity
  8
DIM
 62
     0
370
    -2
100
AcDbLine
 10
5.794598
 20
9.288605999999999
 30
0.0
 11
4.476790499999999
 21
9.288605999999999
 31
0.0
  0
LINE
  5
90A
330
394
100
AcDbEntity
  8
DIM
 62
     0
370
    -2
100
AcDbLine
 10
2.635233
 20
9.288605999999999
 30
0.0
 11
3.9530405
 21
9.288605999999999
 31
0.0
  0
SOLID
  5
90B
330
394
100
AcDbEntity
  8
DIM
 62
     0
100
AcDbTrace
 10
5.794598
 20
9.318605999999999
 30
0.0
 11
5.794598
 21
9.258606
 31
0.0
 12
5.974598
 22
9.288605999999999
 32
0.0
 13
5.974598
 23
9.288605999999999
 33
0.0
  0
SOLID
  5
90C
330
394
100
AcDbEntity
  8
DIM
 62
     0
100
AcDbTrace
 10
2.635233
 20
9.318605999999999
 30
0.0
 11
2.635233
 21
9.258606
 31
0.0
 12
2.455233
 22
9.288605999999999
 32
0.0
 13
2.455233
 23
9.288605999999999
 33
0.0
  0
MTEXT
  5
90D
330
394
100
AcDbEntity
  8
DIM
 62
     0
100
AcDbMText
 10
4.2149155
 20
9.288605999999999
 30
0.0
 40
0.125
 41
0.0
 71
     5
 72
     1
  1
\A1;3.519
  7
TXT
 73
     1
 44
1.0
  0
POINT
  5
90E
330
394
100
AcDbEntity
  8
DEFPOINTS
 62
     0
100
AcDbPoint
 10
5.974598
 20
10.238342
 30
0.0
  0
POINT
  5
90F
330
394
100
AcDbEntity
  8
DEFPOINTS
 62
     0
100
AcDbPoint
 10
2.455233
 20
10.238342
 30
0.0
  0
POINT
  5
910
330
394
100
AcDbEntity
  8
DEFPOINTS
 62
     0
100
AcDbPoint
 10
2.455233
 20
9.288605999999999
 30
0.0
  0
ENDBLK
  5
3A0
330
394
100
AcDbEntity
  8
0
100
AcDbBlockEnd
  0
BLOCK
  5
3BC
330
3B1
100
AcDbEntity
  8
0
100
AcDbBlockBegin
  2
*D9
 70
     1
 10
0.0
 20
0.0
 30
0.0
  3
*D9
  1

  0
LINE
  5
82B
330
3B1
100
AcDbEntity
  8
DIM
 62
     0
370
    -2
100
AcDbLine
 10
8.577814
 20
13.305981
 30
0.0
 11
8.577814
 21
13.83093099999999
 31
0.0
  0
LINE
  5
82C
330
3B1
100
AcDbEntity
  8
DIM
 62
     0
370
    -2
100
AcDbLine
 10
8.037594999999999
 20
13.305741
 30
0.0
 11
8.037594999999999
 21
13.83093099999999
 31
0.0
  0
LINE
  5
82D
330
3B1
100
AcDbEntity
  8
DIM
 62
     0
370
    -2
100
AcDbLine
 10
8.757813999999999
 20
13.737931
 30
0.0
 11
8.937813999999999
 21
13.737931
 31
0.0
  0
LINE
  5
82E
330
3B1
100
AcDbEntity
  8
DIM
 62
     0
370
    -2
100
AcDbLine
 10
7.857594999999999
 20
13.737931
 30
0.0
 11
7.677594999999999
 21
13.737931
 31
0.0
  0
SOLID
  5
82F
330
3B1
100
AcDbEntity
  8
DIM
 62
     0
100
AcDbTrace
 10
8.757813999999999
 20
13.76793099999999
 30
0.0
 11
8.757813999999999
 21
13.707931
 31
0.0
 12
8.577814
 22
13.737931
 32
0.0
 13
8.577814
 23
13.737931
 33
0.0
  0
SOLID
  5
830
330
3B1
100
AcDbEntity
  8
DIM
 62
     0
100
AcDbTrace
 10
7.857594999999999
 20
13.76793099999999
 30
0.0
 11
7.857594999999999
 21
13.707931
 31
0.0
 12
8.037594999999999
 22
13.737931
 32
0.0
 13
8.037594999999999
 23
13.737931
 33
0.0
  0
MTEXT
  5
831
330
3B1
100
AcDbEntity
  8
DIM
 62
     0
100
AcDbMText
 10
8.307704499999999
 20
13.737931
 30
0.0
 40
0.125
 41
0.0
 71
     5
 72
     1
  1
\A1;0.540
  7
TXT
 73
     1
 44
1.0
  0
POINT
  5
832
330
3B1
100
AcDbEntity
  8
DEFPOINTS
 62
     0
100
AcDbPoint
 10
8.577814
 20
13.242981
 30
0.0
  0
POINT
  5
833
330
3B1
100
AcDbEntity
  8
DEFPOINTS
 62
     0
100
AcDbPoint
 10
8.037594999999999
 20
13.242741
 30
0.0
  0
POINT
  5
834
330
3B1
100
AcDbEntity
  8
DEFPOINTS
 62
     0
100
AcDbPoint
 10
8.037594999999999
 20
13.737931
 30
0.0
  0
ENDBLK
  5
3BD
330
3B1
100
AcDbEntity
  8
0
100
AcDbBlockEnd
  0
BLOCK
  5
3CA
330
3BF
100
AcDbEntity
  8
0
100
AcDbBlockBegin
  2
*D10
 70
     1
 10
0.0
 20
0.0
 30
0.0
  3
*D10
  1

  0
LINE
  5
835
330
3BF
100
AcDbEntity
  8
DIM
 62
     0
370
    -2
100
AcDbLine
 10
2.964667
 20
11.74199099999999
 30
0.0
 11
2.964667
 21
11.249463
 31
0.0
  0
LINE
  5
836
330
3BF
100
AcDbEntity
  8
DIM
 62
     0
370
    -2
100
AcDbLine
 10
5.465163999999999
 20
11.74199099999999
 30
0.0
 11
5.465163999999999
 21
11.249463
 31
0.0
  0
LINE
  5
837
330
3BF
100
AcDbEntity
  8
DIM
 62
     0
370
    -2
100
AcDbLine
 10
3.144667
 20
11.342463
 30
0.0
 11
3.9530405
 21
11.342463
 31
0.0
  0
LINE
  5
838
330
3BF
100
AcDbEntity
  8
DIM
 62
     0
370
    -2
100
AcDbLine
 10
5.285163999999999
 20
11.342463
 30
0.0
 11
4.476790499999999
 21
11.342463
 31
0.0
  0
SOLID
  5
839
330
3BF
100
AcDbEntity
  8
DIM
 62
     0
100
AcDbTrace
 10
3.144667
 20
11.37246299999999
 30
0.0
 11
3.144667
 21
11.312463
 31
0.0
 12
2.964667
 22
11.342463
 32
0.0
 13
2.964667
 23
11.342463
 33
0.0
  0
SOLID
  5
83A
330
3BF
100
AcDbEntity
  8
DIM
 62
     0
100
AcDbTrace
 10
5.285163999999999
 20
11.37246299999999
 30
0.0
 11
5.285163999999999
 21
11.312463
 31
0.0
 12
5.465163999999999
 22
11.342463
 32
0.0
 13
5.465163999999999
 23
11.342463
 33
0.0
  0
MTEXT
  5
83B
330
3BF
100
AcDbEntity
  8
DIM
 62
     0
100
AcDbMText
 10
4.2149155
 20
11.342463
 30
0.0
 40
0.125
 41
0.0
 71
     5
 72
     1
  1
\A1;2.500
  7
TXT
 73
     1
 44
1.0
  0
POINT
  5
83C
330
3BF
100
AcDbEntity
  8
DEFPOINTS
 62
     0
100
AcDbPoint
 10
2.964667
 20
11.804991
 30
0.0
  0
POINT
  5
83D
330
3BF
100
AcDbEntity
  8
DEFPOINTS
 62
     0
100
AcDbPoint
 10
5.465163999999999
 20
11.804991
 30
0.0
  0
POINT
  5
83E
330
3BF
100
AcDbEntity
  8
DEFPOINTS
 62
     0
100
AcDbPoint
 10
5.465163999999999
 20
11.342463
 30
0.0
  0
ENDBLK
  5
3CB
330
3BF
100
AcDbEntity
  8
0
100
AcDbBlockEnd
  0
BLOCK
  5
3D8
330
3CD
100
AcDbEntity
  8
0
100
AcDbBlockBegin
  2
*D11
 70
     1
 10
0.0
 20
0.0
 30
0.0
  3
*D11
  1

  0
LINE
  5
83F
330
3CD
100
AcDbEntity
  8
DIM
 62
     0
370
    -2
100
AcDbLine
 10
2.964667
 20
11.74199099999999
 30
0.0
 11
2.964667
 21
11.249463
 31
0.0
  0
LINE
  5
840
330
3CD
100
AcDbEntity
  8
DIM
 62
     0
370
    -2
100
AcDbLine
 10
2.455233
 20
11.80455299999999
 30
0.0
 11
2.455233
 21
11.249463
 31
0.0
  0
LINE
  5
841
330
3CD
100
AcDbEntity
  8
DIM
 62
     0
370
    -2
100
AcDbLine
 10
3.144667
 20
11.342463
 30
0.0
 11
3.324666999999999
 21
11.342463
 31
0.0
  0
LINE
  5
842
330
3CD
100
AcDbEntity
  8
DIM
 62
     0
370
    -2
100
AcDbLine
 10
2.275233
 20
11.342463
 30
0.0
 11
2.095233
 21
11.342463
 31
0.0
  0
SOLID
  5
843
330
3CD
100
AcDbEntity
  8
DIM
 62
     0
100
AcDbTrace
 10
3.144667
 20
11.37246299999999
 30
0.0
 11
3.144667
 21
11.312463
 31
0.0
 12
2.964667
 22
11.342463
 32
0.0
 13
2.964667
 23
11.342463
 33
0.0
  0
SOLID
  5
844
330
3CD
100
AcDbEntity
  8
DIM
 62
     0
100
AcDbTrace
 10
2.275233
 20
11.37246299999999
 30
0.0
 11
2.275233
 21
11.312463
 31
0.0
 12
2.455233
 22
11.342463
 32
0.0
 13
2.455233
 23
11.342463
 33
0.0
  0
MTEXT
  5
845
330
3CD
100
AcDbEntity
  8
DIM
 62
     0
100
AcDbMText
 10
2.70995
 20
11.342463
 30
0.0
 40
0.125
 41
0.0
 71
     5
 72
     1
  1
\A1;0.509
  7
TXT
 73
     1
 44
1.0
  0
POINT
  5
846
330
3CD
100
AcDbEntity
  8
DEFPOINTS
 62
     0
100
AcDbPoint
 10
2.964667
 20
11.804991
 30
0.0
  0
POINT
  5
847
330
3CD
100
AcDbEntity
  8
DEFPOINTS
 62
     0
100
AcDbPoint
 10
2.455233
 20
11.86755299999999
 30
0.0
  0
POINT
  5
848
330
3CD
100
AcDbEntity
  8
DEFPOINTS
 62
     0
100
AcDbPoint
 10
2.455233
 20
11.342463
 30
0.0
  0
ENDBLK
  5
3D9
330
3CD
100
AcDbEntity
  8
0
100
AcDbBlockEnd
  0
BLOCK
  5
3E6
330
3DB
100
AcDbEntity
  8
0
100
AcDbBlockBegin
  2
*D12
 70
     1
 10
0.0
 20
0.0
 30
0.0
  3
*D12
  1

  0
LINE
  5
911
330
3DB
100
AcDbEntity
  8
DIM
 62
     0
370
    -2
100
AcDbLine
 10
3.114616999999999
 20
13.087955
 30
0.0
 11
3.114616999999999
 21
14.111931
 31
0.0
  0
LINE
  5
912
330
3DB
100
AcDbEntity
  8
DIM
 62
     0
370
    -2
100
AcDbLine
 10
3.264568
 20
13.087955
 30
0.0
 11
3.264568
 21
14.111931
 31
0.0
  0
LINE
  5
913
330
3DB
100
AcDbEntity
  8
DIM
 62
     0
370
    -2
100
AcDbLine
 10
2.934616999999999
 20
14.018931
 30
0.0
 11
2.754617
 21
14.018931
 31
0.0
  0
LINE
  5
914
330
3DB
100
AcDbEntity
  8
DIM
 62
     0
370
    -2
100
AcDbLine
 10
3.444568
 20
14.018931
 30
0.0
 11
3.624568
 21
14.018931
 31
0.0
  0
SOLID
  5
915
330
3DB
100
AcDbEntity
  8
DIM
 62
     0
100
AcDbTrace
 10
2.934616999999999
 20
14.04893099999999
 30
0.0
 11
2.934616999999999
 21
13.988931
 31
0.0
 12
3.114616999999999
 22
14.018931
 32
0.0
 13
3.114616999999999
 23
14.018931
 33
0.0
  0
SOLID
  5
916
330
3DB
100
AcDbEntity
  8
DIM
 62
     0
100
AcDbTrace
 10
3.444568
 20
14.04893099999999
 30
0.0
 11
3.444568
 21
13.988931
 31
0.0
 12
3.264568
 22
14.018931
 32
0.0
 13
3.264568
 23
14.018931
 33
0.0
  0
MTEXT
  5
917
330
3DB
100
AcDbEntity
  8
DIM
 62
     0
100
AcDbMText
 10
4.198942999999999
 20
14.018931
 30
0.0
 40
0.125
 41
0.0
 71
     5
 72
     1
  1
\A1;0.150 CUTOUT
  7
TXT
 73
     1
 44
1.0
  0
POINT
  5
918
330
3DB
100
AcDbEntity
  8
DEFPOINTS
 62
     0
100
AcDbPoint
 10
3.114616999999999
 20
13.024955
 30
0.0
  0
POINT
  5
919
330
3DB
100
AcDbEntity
  8
DEFPOINTS
 62
     0
100
AcDbPoint
 10
3.264568
 20
13.024955
 30
0.0
  0
POINT
  5
91A
330
3DB
100
AcDbEntity
  8
DEFPOINTS
 62
     0
100
AcDbPoint
 10
3.264568
 20
14.018931
 30
0.0
  0
ENDBLK
  5
3E7
330
3DB
100
AcDbEntity
  8
0
100
AcDbBlockEnd
  0
BLOCK
  5
3F4
330
3E9
100
AcDbEntity
  8
0
100
AcDbBlockBegin
  2
*D13
 70
     1
 10
0.0
 20
0.0
 30
0.0
  3
*D13
  1

  0
LINE
  5
849
330
3E9
100
AcDbEntity
  8
DIM
 62
     0
370
    -2
100
AcDbLine
 10
3.114616999999999
 20
13.087955
 30
0.0
 11
3.114616999999999
 21
14.392931
 31
0.0
  0
LINE
  5
84A
330
3E9
100
AcDbEntity
  8
DIM
 62
     0
370
    -2
100
AcDbLine
 10
2.455233
 20
13.243364
 30
0.0
 11
2.455233
 21
14.392931
 31
0.0
  0
LINE
  5
84B
330
3E9
100
AcDbEntity
  8
DIM
 62
     0
370
    -2
100
AcDbLine
 10
3.294617
 20
14.299931
 30
0.0
 11
3.474616999999999
 21
14.299931
 31
0.0
  0
LINE
  5
84C
330
3E9
100
AcDbEntity
  8
DIM
 62
     0
370
    -2
100
AcDbLine
 10
2.275233
 20
14.299931
 30
0.0
 11
2.095233
 21
14.299931
 31
0.0
  0
SOLID
  5
84D
330
3E9
100
AcDbEntity
  8
DIM
 62
     0
100
AcDbTrace
 10
3.294617
 20
14.329931
 30
0.0
 11
3.294617
 21
14.269931
 31
0.0
 12
3.114616999999999
 22
14.299931
 32
0.0
 13
3.114616999999999
 23
14.299931
 33
0.0
  0
SOLID
  5
84E
330
3E9
100
AcDbEntity
  8
DIM
 62
     0
100
AcDbTrace
 10
2.275233
 20
14.329931
 30
0.0
 11
2.275233
 21
14.269931
 31
0.0
 12
2.455233
 22
14.299931
 32
0.0
 13
2.455233
 23
14.299931
 33
0.0
  0
MTEXT
  5
84F
330
3E9
100
AcDbEntity
  8
DIM
 62
     0
100
AcDbMText
 10
2.784925
 20
14.299931
 30
0.0
 40
0.125
 41
0.0
 71
     5
 72
     1
  1
\A1;0.659
  7
TXT
 73
     1
 44
1.0
  0
POINT
  5
850
330
3E9
100
AcDbEntity
  8
DEFPOINTS
 62
     0
100
AcDbPoint
 10
3.114616999999999
 20
13.024955
 30
0.0
  0
POINT
  5
851
330
3E9
100
AcDbEntity
  8
DEFPOINTS
 62
     0
100
AcDbPoint
 10
2.455233
 20
13.180364
 30
0.0
  0
POINT
  5
852
330
3E9
100
AcDbEntity
  8
DEFPOINTS
 62
     0
100
AcDbPoint
 10
2.455233
 20
14.299931
 30
0.0
  0
ENDBLK
  5
3F5
330
3E9
100
AcDbEntity
  8
0
100
AcDbBlockEnd
  0
BLOCK
  5
402
330
3F7
100
AcDbEntity
  8
0
100
AcDbBlockBegin
  2
*D14
 70
     1
 10
0.0
 20
0.0
 30
0.0
  3
*D14
  1

  0
LINE
  5
853
330
3F7
100
AcDbEntity
  8
DIM
 62
     0
370
    -2
100
AcDbLine
 10
3.051616999999999
 20
13.024955
 30
0.0
 11
1.679188
 21
13.024955
 31
0.0
  0
LINE
  5
854
330
3F7
100
AcDbEntity
  8
DIM
 62
     0
370
    -2
100
AcDbLine
 10
3.051616999999999
 20
12.024462
 30
0.0
 11
1.679188
 21
12.024462
 31
0.0
  0
LINE
  5
855
330
3F7
100
AcDbEntity
  8
DIM
 62
     0
370
    -2
100
AcDbLine
 10
1.772188
 20
12.844955
 30
0.0
 11
1.772188
 21
12.67720849999999
 31
0.0
  0
LINE
  5
856
330
3F7
100
AcDbEntity
  8
DIM
 62
     0
370
    -2
100
AcDbLine
 10
1.772188
 20
12.204462
 30
0.0
 11
1.772188
 21
12.37220849999999
 31
0.0
  0
SOLID
  5
857
330
3F7
100
AcDbEntity
  8
DIM
 62
     0
100
AcDbTrace
 10
1.742188
 20
12.844955
 30
0.0
 11
1.802188
 21
12.844955
 31
0.0
 12
1.772188
 22
13.024955
 32
0.0
 13
1.772188
 23
13.024955
 33
0.0
  0
SOLID
  5
858
330
3F7
100
AcDbEntity
  8
DIM
 62
     0
100
AcDbTrace
 10
1.742188
 20
12.204462
 30
0.0
 11
1.802188
 21
12.204462
 31
0.0
 12
1.772188
 22
12.024462
 32
0.0
 13
1.772188
 23
12.024462
 33
0.0
  0
MTEXT
  5
859
330
3F7
100
AcDbEntity
  8
DIM
 62
     0
100
AcDbMText
 10
1.772187999999998
 20
12.52470849999999
 30
0.0
 40
0.125
 41
0.0
 71
     5
 72
     1
  1
\A1;1.000 CUTOUT
  7
TXT
 73
     1
 44
1.0
  0
POINT
  5
85A
330
3F7
100
AcDbEntity
  8
DEFPOINTS
 62
     0
100
AcDbPoint
 10
3.114616999999999
 20
13.024955
 30
0.0
  0
POINT
  5
85B
330
3F7
100
AcDbEntity
  8
DEFPOINTS
 62
     0
100
AcDbPoint
 10
3.114616999999999
 20
12.024462
 30
0.0
  0
POINT
  5
85C
330
3F7
100
AcDbEntity
  8
DEFPOINTS
 62
     0
100
AcDbPoint
 10
1.772188
 20
12.024462
 30
0.0
  0
ENDBLK
  5
403
330
3F7
100
AcDbEntity
  8
0
100
AcDbBlockEnd
  0
BLOCK
  5
410
330
405
100
AcDbEntity
  8
0
100
AcDbBlockBegin
  2
*D15
 70
     1
 10
0.0
 20
0.0
 30
0.0
  3
*D15
  1

  0
LINE
  5
85D
330
405
100
AcDbEntity
  8
DIM
 62
     0
370
    -2
100
AcDbLine
 10
3.051616999999999
 20
13.024955
 30
0.0
 11
1.679188
 21
13.024955
 31
0.0
  0
LINE
  5
85E
330
405
100
AcDbEntity
  8
DIM
 62
     0
370
    -2
100
AcDbLine
 10
2.620633999999999
 20
13.408765
 30
0.0
 11
1.679188
 21
13.408765
 31
0.0
  0
LINE
  5
85F
330
405
100
AcDbEntity
  8
DIM
 62
     0
370
    -2
100
AcDbLine
 10
1.772188
 20
12.844955
 30
0.0
 11
1.772188
 21
12.664955
 31
0.0
  0
LINE
  5
860
330
405
100
AcDbEntity
  8
DIM
 62
     0
370
    -2
100
AcDbLine
 10
1.772188
 20
13.588765
 30
0.0
 11
1.772188
 21
13.768765
 31
0.0
  0
SOLID
  5
861
330
405
100
AcDbEntity
  8
DIM
 62
     0
100
AcDbTrace
 10
1.742188
 20
12.844955
 30
0.0
 11
1.802188
 21
12.844955
 31
0.0
 12
1.772188
 22
13.024955
 32
0.0
 13
1.772188
 23
13.024955
 33
0.0
  0
SOLID
  5
862
330
405
100
AcDbEntity
  8
DIM
 62
     0
100
AcDbTrace
 10
1.742188
 20
13.588765
 30
0.0
 11
1.802188
 21
13.588765
 31
0.0
 12
1.772188
 22
13.408765
 32
0.0
 13
1.772188
 23
13.408765
 33
0.0
  0
MTEXT
  5
863
330
405
100
AcDbEntity
  8
DIM
 62
     0
100
AcDbMText
 10
1.772187999999998
 20
13.21686
 30
0.0
 40
0.125
 41
0.0
 71
     5
 72
     1
  1
\A1;0.384
  7
TXT
 73
     1
 44
1.0
  0
POINT
  5
864
330
405
100
AcDbEntity
  8
DEFPOINTS
 62
     0
100
AcDbPoint
 10
3.114616999999999
 20
13.024955
 30
0.0
  0
POINT
  5
865
330
405
100
AcDbEntity
  8
DEFPOINTS
 62
     0
100
AcDbPoint
 10
2.683634
 20
13.408765
 30
0.0
  0
POINT
  5
866
330
405
100
AcDbEntity
  8
DEFPOINTS
 62
     0
100
AcDbPoint
 10
1.772188
 20
13.408765
 30
0.0
  0
ENDBLK
  5
411
330
405
100
AcDbEntity
  8
0
100
AcDbBlockEnd
  0
BLOCK
  5
41E
330
413
100
AcDbEntity
  8
0
100
AcDbBlockBegin
  2
*D16
 70
     1
 10
0.0
 20
0.0
 30
0.0
  3
*D16
  1

  0
LINE
  5
91B
330
413
100
AcDbEntity
  8
DIM
 62
     0
370
    -2
100
AcDbLine
 10
5.528163999999999
 20
11.804991
 30
0.0
 11
6.486665000000002
 21
11.804991
 31
0.0
  0
LINE
  5
91C
330
413
100
AcDbEntity
  8
DIM
 62
     0
370
    -2
100
AcDbLine
 10
5.528163999999999
 20
13.242926
 30
0.0
 11
6.486665000000002
 21
13.242926
 31
0.0
  0
LINE
  5
91D
330
413
100
AcDbEntity
  8
DIM
 62
     0
370
    -2
100
AcDbLine
 10
6.393665000000002
 20
11.984991
 30
0.0
 11
6.393665000000002
 21
12.26143099999999
 31
0.0
  0
LINE
  5
91E
330
413
100
AcDbEntity
  8
DIM
 62
     0
370
    -2
100
AcDbLine
 10
6.393665000000002
 20
13.062926
 30
0.0
 11
6.393665000000002
 21
12.56643099999999
 31
0.0
  0
SOLID
  5
91F
330
413
100
AcDbEntity
  8
DIM
 62
     0
100
AcDbTrace
 10
6.363665000000001
 20
11.984991
 30
0.0
 11
6.423665000000002
 21
11.984991
 31
0.0
 12
6.393665000000002
 22
11.804991
 32
0.0
 13
6.393665000000002
 23
11.804991
 33
0.0
  0
SOLID
  5
920
330
413
100
AcDbEntity
  8
DIM
 62
     0
100
AcDbTrace
 10
6.363665000000001
 20
13.062926
 30
0.0
 11
6.423665000000002
 21
13.062926
 31
0.0
 12
6.393665000000002
 22
13.242926
 32
0.0
 13
6.393665000000002
 23
13.242926
 33
0.0
  0
MTEXT
  5
921
330
413
100
AcDbEntity
  8
DIM
 62
     0
100
AcDbMText
 10
6.393665
 20
12.413931
 30
0.0
 40
0.125
 41
0.0
 71
     5
 72
     1
  1
\A1;1.438
  7
TXT
 73
     1
 44
1.0
  0
POINT
  5
922
330
413
100
AcDbEntity
  8
DEFPOINTS
 62
     0
100
AcDbPoint
 10
5.465163999999999
 20
11.804991
 30
0.0
  0
POINT
  5
923
330
413
100
AcDbEntity
  8
DEFPOINTS
 62
     0
100
AcDbPoint
 10
5.465163999999999
 20
13.242926
 30
0.0
  0
POINT
  5
924
330
413
100
AcDbEntity
  8
DEFPOINTS
 62
     0
100
AcDbPoint
 10
6.393665000000002
 20
13.242926
 30
0.0
  0
ENDBLK
  5
41F
330
413
100
AcDbEntity
  8
0
100
AcDbBlockEnd
  0
BLOCK
  5
42C
330
421
100
AcDbEntity
  8
0
100
AcDbBlockBegin
  2
*D17
 70
     1
 10
0.0
 20
0.0
 30
0.0
  3
*D17
  1

  0
LINE
  5
867
330
421
100
AcDbEntity
  8
DIM
 62
     0
370
    -2
100
AcDbLine
 10
5.746633999999999
 20
7.409316999999999
 30
0.0
 11
6.486665
 21
7.409316999999998
 31
0.0
  0
LINE
  5
868
330
421
100
AcDbEntity
  8
DIM
 62
     0
370
    -2
100
AcDbLine
 10
5.809196
 20
8.294123
 30
0.0
 11
6.486665
 21
8.294123
 31
0.0
  0
LINE
  5
869
330
421
100
AcDbEntity
  8
DIM
 62
     0
370
    -2
100
AcDbLine
 10
6.393665
 20
7.589316999999998
 30
0.0
 11
6.393665
 21
7.69922
 31
0.0
  0
LINE
  5
86A
330
421
100
AcDbEntity
  8
DIM
 62
     0
370
    -2
100
AcDbLine
 10
6.393665
 20
8.114123000000001
 30
0.0
 11
6.393665
 21
8.00422
 31
0.0
  0
SOLID
  5
86B
330
421
100
AcDbEntity
  8
DIM
 62
     0
100
AcDbTrace
 10
6.363665
 20
7.589316999999998
 30
0.0
 11
6.423665
 21
7.589316999999998
 31
0.0
 12
6.393665
 22
7.409316999999998
 32
0.0
 13
6.393665
 23
7.409316999999998
 33
0.0
  0
SOLID
  5
86C
330
421
100
AcDbEntity
  8
DIM
 62
     0
100
AcDbTrace
 10
6.363665
 20
8.114123000000001
 30
0.0
 11
6.423665
 21
8.114123000000001
 31
0.0
 12
6.393665
 22
8.294123
 32
0.0
 13
6.393665
 23
8.294123
 33
0.0
  0
MTEXT
  5
86D
330
421
100
AcDbEntity
  8
DIM
 62
     0
100
AcDbMText
 10
6.393664999999999
 20
7.851720000000002
 30
0.0
 40
0.125
 41
0.0
 71
     5
 72
     1
  1
\A1;0.885
  7
TXT
 73
     1
 44
1.0
  0
POINT
  5
86E
330
421
100
AcDbEntity
  8
DEFPOINTS
 62
     0
100
AcDbPoint
 10
5.683633999999999
 20
7.409316999999999
 30
0.0
  0
POINT
  5
86F
330
421
100
AcDbEntity
  8
DEFPOINTS
 62
     0
100
AcDbPoint
 10
5.746196
 20
8.294123
 30
0.0
  0
POINT
  5
870
330
421
100
AcDbEntity
  8
DEFPOINTS
 62
     0
100
AcDbPoint
 10
6.393665
 20
8.294123
 30
0.0
  0
ENDBLK
  5
42D
330
421
100
AcDbEntity
  8
0
100
AcDbBlockEnd
  0
BLOCK
  5
43A
330
42F
100
AcDbEntity
  8
0
100
AcDbBlockBegin
  2
*D18
 70
     1
 10
0.0
 20
0.0
 30
0.0
  3
*D18
  1

  0
LINE
  5
925
330
42F
100
AcDbEntity
  8
DIM
 62
     0
370
    -2
100
AcDbLine
 10
2.746195999999999
 20
7.472316999999999
 30
0.0
 11
2.746195999999999
 21
8.683813
 31
0.0
  0
LINE
  5
926
330
42F
100
AcDbEntity
  8
DIM
 62
     0
370
    -2
100
AcDbLine
 10
2.455233
 20
8.128721999999999
 30
0.0
 11
2.455233
 21
8.683813
 31
0.0
  0
LINE
  5
927
330
42F
100
AcDbEntity
  8
DIM
 62
     0
370
    -2
100
AcDbLine
 10
2.926196
 20
8.590813
 30
0.0
 11
3.106195999999999
 21
8.590813
 31
0.0
  0
LINE
  5
928
330
42F
100
AcDbEntity
  8
DIM
 62
     0
370
    -2
100
AcDbLine
 10
2.275233
 20
8.590813
 30
0.0
 11
2.095233
 21
8.590813
 31
0.0
  0
SOLID
  5
929
330
42F
100
AcDbEntity
  8
DIM
 62
     0
100
AcDbTrace
 10
2.926196
 20
8.620813
 30
0.0
 11
2.926196
 21
8.560813000000001
 31
0.0
 12
2.746195999999999
 22
8.590813
 32
0.0
 13
2.746195999999999
 23
8.590813
 33
0.0
  0
SOLID
  5
92A
330
42F
100
AcDbEntity
  8
DIM
 62
     0
100
AcDbTrace
 10
2.275233
 20
8.620813
 30
0.0
 11
2.275233
 21
8.560813000000001
 31
0.0
 12
2.455233
 22
8.590813
 32
0.0
 13
2.455233
 23
8.590813
 33
0.0
  0
MTEXT
  5
92B
330
42F
100
AcDbEntity
  8
DIM
 62
     0
100
AcDbMText
 10
1.8411705
 20
8.590813
 30
0.0
 40
0.125
 41
0.0
 71
     5
 72
     1
  1
\A1;0.291
  7
TXT
 73
     1
 44
1.0
  0
POINT
  5
92C
330
42F
100
AcDbEntity
  8
DEFPOINTS
 62
     0
100
AcDbPoint
 10
2.746195999999999
 20
7.409316999999999
 30
0.0
  0
POINT
  5
92D
330
42F
100
AcDbEntity
  8
DEFPOINTS
 62
     0
100
AcDbPoint
 10
2.455233
 20
8.065721999999999
 30
0.0
  0
POINT
  5
92E
330
42F
100
AcDbEntity
  8
DEFPOINTS
 62
     0
100
AcDbPoint
 10
2.455233
 20
8.590813
 30
0.0
  0
ENDBLK
  5
43B
330
42F
100
AcDbEntity
  8
0
100
AcDbBlockEnd
  0
BLOCK
  5
448
330
43D
100
AcDbEntity
  8
0
100
AcDbBlockBegin
  2
*D19
 70
     1
 10
0.0
 20
0.0
 30
0.0
  3
*D19
  1

  0
LINE
  5
92F
330
43D
100
AcDbEntity
  8
DIM
 62
     0
370
    -2
100
AcDbLine
 10
4.839542999999999
 20
6.721316999999999
 30
0.0
 11
4.839542999999999
 21
6.106766999999999
 31
0.0
  0
LINE
  5
930
330
43D
100
AcDbEntity
  8
DIM
 62
     0
370
    -2
100
AcDbLine
 10
3.089790999999999
 20
6.721316999999999
 30
0.0
 11
3.089790999999999
 21
6.106766999999999
 31
0.0
  0
LINE
  5
931
330
43D
100
AcDbEntity
  8
DIM
 62
     0
370
    -2
100
AcDbLine
 10
4.659543
 20
6.199766999999999
 30
0.0
 11
4.2187295
 21
6.199766999999999
 31
0.0
  0
LINE
  5
932
330
43D
100
AcDbEntity
  8
DIM
 62
     0
370
    -2
100
AcDbLine
 10
3.269791
 20
6.199766999999999
 30
0.0
 11
3.7106045
 21
6.199766999999999
 31
0.0
  0
SOLID
  5
933
330
43D
100
AcDbEntity
  8
DIM
 62
     0
100
AcDbTrace
 10
4.659543
 20
6.229766999999999
 30
0.0
 11
4.659543
 21
6.169766999999999
 31
0.0
 12
4.839542999999999
 22
6.199766999999999
 32
0.0
 13
4.839542999999999
 23
6.199766999999999
 33
0.0
  0
SOLID
  5
934
330
43D
100
AcDbEntity
  8
DIM
 62
     0
100
AcDbTrace
 10
3.269791
 20
6.229766999999999
 30
0.0
 11
3.269791
 21
6.169766999999999
 31
0.0
 12
3.089790999999999
 22
6.199766999999999
 32
0.0
 13
3.089790999999999
 23
6.199766999999999
 33
0.0
  0
MTEXT
  5
935
330
43D
100
AcDbEntity
  8
DIM
 62
     0
100
AcDbMText
 10
3.964667
 20
6.199766999999999
 30
0.0
 40
0.125
 41
0.0
 71
     5
 72
     1
  1
\A1;1.750
  7
TXT
 73
     1
 44
1.0
  0
POINT
  5
936
330
43D
100
AcDbEntity
  8
DEFPOINTS
 62
     0
100
AcDbPoint
 10
4.839542999999999
 20
6.784316999999999
 30
0.0
  0
POINT
  5
937
330
43D
100
AcDbEntity
  8
DEFPOINTS
 62
     0
100
AcDbPoint
 10
3.089790999999999
 20
6.784316999999999
 30
0.0
  0
POINT
  5
938
330
43D
100
AcDbEntity
  8
DEFPOINTS
 62
     0
100
AcDbPoint
 10
3.089790999999999
 20
6.199766999999999
 30
0.0
  0
ENDBLK
  5
449
330
43D
100
AcDbEntity
  8
0
100
AcDbBlockEnd
  0
BLOCK
  5
456
330
44B
100
AcDbEntity
  8
0
100
AcDbBlockBegin
  2
*D20
 70
     1
 10
0.0
 20
0.0
 30
0.0
  3
*D20
  1

  0
LINE
  5
871
330
44B
100
AcDbEntity
  8
DIM
 62
     0
370
    -2
100
AcDbLine
 10
3.089790999999999
 20
6.721316999999999
 30
0.0
 11
3.089790999999999
 21
6.106766999999999
 31
0.0
  0
LINE
  5
872
330
44B
100
AcDbEntity
  8
DIM
 62
     0
370
    -2
100
AcDbLine
 10
2.455233
 20
6.689911
 30
0.0
 11
2.455233
 21
6.106766999999999
 31
0.0
  0
LINE
  5
873
330
44B
100
AcDbEntity
  8
DIM
 62
     0
370
    -2
100
AcDbLine
 10
3.269791
 20
6.199766999999999
 30
0.0
 11
3.449790999999999
 21
6.199766999999999
 31
0.0
  0
LINE
  5
874
330
44B
100
AcDbEntity
  8
DIM
 62
     0
370
    -2
100
AcDbLine
 10
2.275233
 20
6.199766999999999
 30
0.0
 11
2.095233
 21
6.199766999999999
 31
0.0
  0
SOLID
  5
875
330
44B
100
AcDbEntity
  8
DIM
 62
     0
100
AcDbTrace
 10
3.269791
 20
6.229766999999999
 30
0.0
 11
3.269791
 21
6.169766999999999
 31
0.0
 12
3.089790999999999
 22
6.199766999999999
 32
0.0
 13
3.089790999999999
 23
6.199766999999999
 33
0.0
  0
SOLID
  5
876
330
44B
100
AcDbEntity
  8
DIM
 62
     0
100
AcDbTrace
 10
2.275233
 20
6.229766999999999
 30
0.0
 11
2.275233
 21
6.169766999999999
 31
0.0
 12
2.455233
 22
6.199766999999999
 32
0.0
 13
2.455233
 23
6.199766999999999
 33
0.0
  0
MTEXT
  5
877
330
44B
100
AcDbEntity
  8
DIM
 62
     0
100
AcDbMText
 10
2.772511999999999
 20
6.199766999999999
 30
0.0
 40
0.125
 41
0.0
 71
     5
 72
     1
  1
\A1;0.635
  7
TXT
 73
     1
 44
1.0
  0
POINT
  5
878
330
44B
100
AcDbEntity
  8
DEFPOINTS
 62
     0
100
AcDbPoint
 10
3.089790999999999
 20
6.784316999999999
 30
0.0
  0
POINT
  5
879
330
44B
100
AcDbEntity
  8
DEFPOINTS
 62
     0
100
AcDbPoint
 10
2.455233
 20
6.752911
 30
0.0
  0
POINT
  5
87A
330
44B
100
AcDbEntity
  8
DEFPOINTS
 62
     0
100
AcDbPoint
 10
2.455233
 20
6.199766999999999
 30
0.0
  0
ENDBLK
  5
457
330
44B
100
AcDbEntity
  8
0
100
AcDbBlockEnd
  0
BLOCK
  5
464
330
459
100
AcDbEntity
  8
0
100
AcDbBlockBegin
  2
*D21
 70
     1
 10
0.0
 20
0.0
 30
0.0
  3
*D21
  1

  0
LINE
  5
939
330
459
100
AcDbEntity
  8
DIM
 62
     0
370
    -2
100
AcDbLine
 10
3.026790999999999
 20
8.034316999999999
 30
0.0
 11
1.906413
 21
8.034316999999999
 31
0.0
  0
LINE
  5
93A
330
459
100
AcDbEntity
  8
DIM
 62
     0
370
    -2
100
AcDbLine
 10
3.026790999999999
 20
6.784316999999999
 30
0.0
 11
1.906413
 21
6.784317
 31
0.0
  0
LINE
  5
93B
330
459
100
AcDbEntity
  8
DIM
 62
     0
370
    -2
100
AcDbLine
 10
1.999413
 20
7.854316999999999
 30
0.0
 11
1.999413
 21
7.561816999999999
 31
0.0
  0
LINE
  5
93C
330
459
100
AcDbEntity
  8
DIM
 62
     0
370
    -2
100
AcDbLine
 10
1.999413
 20
6.964317
 30
0.0
 11
1.999413
 21
7.256816999999999
 31
0.0
  0
SOLID
  5
93D
330
459
100
AcDbEntity
  8
DIM
 62
     0
100
AcDbTrace
 10
1.969413
 20
7.854316999999999
 30
0.0
 11
2.029413
 21
7.854316999999999
 31
0.0
 12
1.999413
 22
8.034316999999999
 32
0.0
 13
1.999413
 23
8.034316999999999
 33
0.0
  0
SOLID
  5
93E
330
459
100
AcDbEntity
  8
DIM
 62
     0
100
AcDbTrace
 10
1.969413
 20
6.964317
 30
0.0
 11
2.029412999999999
 21
6.964316999999999
 31
0.0
 12
1.999413
 22
6.784317
 32
0.0
 13
1.999413
 23
6.784317
 33
0.0
  0
MTEXT
  5
93F
330
459
100
AcDbEntity
  8
DIM
 62
     0
100
AcDbMText
 10
1.999412999999998
 20
7.409316999999999
 30
0.0
 40
0.125
 41
0.0
 71
     5
 72
     1
  1
\A1;1.250
  7
TXT
 73
     1
 44
1.0
  0
POINT
  5
940
330
459
100
AcDbEntity
  8
DEFPOINTS
 62
     0
100
AcDbPoint
 10
3.089790999999999
 20
8.034316999999999
 30
0.0
  0
POINT
  5
941
330
459
100
AcDbEntity
  8
DEFPOINTS
 62
     0
100
AcDbPoint
 10
3.089790999999999
 20
6.784316999999999
 30
0.0
  0
POINT
  5
942
330
459
100
AcDbEntity
  8
DEFPOINTS
 62
     0
100
AcDbPoint
 10
1.999413
 20
6.784317
 30
0.0
  0
ENDBLK
  5
465
330
459
100
AcDbEntity
  8
0
100
AcDbBlockEnd
  0
BLOCK
  5
4AD
330
4A2
100
AcDbEntity
  8
0
100
AcDbBlockBegin
  2
*D22
 70
     1
 10
0.0
 20
0.0
 30
0.0
  3
*D22
  1

  0
LINE
  5
943
330
4A2
100
AcDbEntity
  8
DIM
 62
     0
370
    -2
100
AcDbLine
 10
5.193664
 20
9.981142999999999
 30
0.0
 11
5.156339
 21
9.981142999999999
 31
0.0
  0
LINE
  5
944
330
4A2
100
AcDbEntity
  8
DIM
 62
     0
370
    -2
100
AcDbLine
 10
5.193664
 20
9.887795999999999
 30
0.0
 11
5.156339
 21
9.887795999999999
 31
0.0
  0
LINE
  5
945
330
4A2
100
AcDbEntity
  8
DIM
 62
     0
370
    -2
100
AcDbLine
 10
5.249339
 20
10.16114299999999
 30
0.0
 11
5.249339
 21
10.34114299999999
 31
0.0
  0
LINE
  5
946
330
4A2
100
AcDbEntity
  8
DIM
 62
     0
370
    -2
100
AcDbLine
 10
5.249338999999999
 20
9.707796
 30
0.0
 11
5.249338999999999
 21
9.527796
 31
0.0
  0
LINE
  5
947
330
4A2
100
AcDbEntity
  8
DIM
 62
     0
370
    -2
100
AcDbLine
 10
5.249338999999999
 20
9.527796
 30
0.0
 11
5.069339
 21
9.527796
 31
0.0
  0
SOLID
  5
948
330
4A2
100
AcDbEntity
  8
DIM
 62
     0
100
AcDbTrace
 10
5.219339
 20
10.16114299999999
 30
0.0
 11
5.279339000000001
 21
10.16114299999999
 31
0.0
 12
5.249338999999999
 22
9.981142999999999
 32
0.0
 13
5.249338999999999
 23
9.981142999999999
 33
0.0
  0
SOLID
  5
949
330
4A2
100
AcDbEntity
  8
DIM
 62
     0
100
AcDbTrace
 10
5.219338999999999
 20
9.707796
 30
0.0
 11
5.279339
 21
9.707796
 31
0.0
 12
5.249338999999999
 22
9.887795999999999
 32
0.0
 13
5.249338999999999
 23
9.887795999999999
 33
0.0
  0
MTEXT
  5
94A
330
4A2
100
AcDbEntity
  8
DIM
 62
     0
100
AcDbMText
 10
4.807463999999999
 20
9.527796000000002
 30
0.0
 40
0.125
 41
0.0
 71
     5
 72
     1
  1
\A1;0.093
  7
TXT
 73
     1
 44
1.0
  0
POINT
  5
94B
330
4A2
100
AcDbEntity
  8
DEFPOINTS
 62
     0
100
AcDbPoint
 10
5.256663999999999
 20
9.981142999999999
 30
0.0
  0
POINT
  5
94C
330
4A2
100
AcDbEntity
  8
DEFPOINTS
 62
     0
100
AcDbPoint
 10
5.256663999999999
 20
9.887795999999999
 30
0.0
  0
POINT
  5
94D
330
4A2
100
AcDbEntity
  8
DEFPOINTS
 62
     0
100
AcDbPoint
 10
5.249338999999999
 20
9.887795999999999
 30
0.0
  0
ENDBLK
  5
4AE
330
4A2
100
AcDbEntity
  8
0
100
AcDbBlockEnd
  0
BLOCK
  5
4BE
330
4B0
100
AcDbEntity
  8
0
100
AcDbBlockBegin
  2
*D23
 70
     1
 10
0.0
 20
0.0
 30
0.0
  3
*D23
  1

  0
LINE
  5
94E
330
4B0
100
AcDbEntity
  8
DIM
 62
     0
370
    -2
100
AcDbLine
 10
8.383614000000005
 20
11.639152
 30
0.0
 11
9.372353308191287
 21
11.639152
 31
0.0
  0
LINE
  5
94F
330
4B0
100
AcDbEntity
  8
DIM
 62
     0
370
    -2
100
AcDbLine
 10
8.587030662956568
 20
11.65311412198558
 30
0.0
 11
9.370911973868523
 21
11.69419506025616
 31
0.0
  0
ARC
  5
950
330
4B0
100
AcDbEntity
  8
DIM
 62
     0
370
    -2
100
AcDbCircle
 10
8.320614000000004
 20
11.639152
 30
0.0
 40
0.958739308191282
100
AcDbArc
 50
338.3573905859066
 51
0.0000000000000127
  0
LINE
  5
951
330
4B0
100
AcDbEntity
  8
DIM
 62
     0
370
    -2
100
AcDbLine
 10
9.211764549238399
 20
11.28555369731288
 30
0.0
 11
9.391764549238398
 21
11.28555369731288
 31
0.0
  0
ARC
  5
952
330
4B0
100
AcDbEntity
  8
DIM
 62
     0
370
    -2
100
AcDbCircle
 10
8.320614000000006
 20
11.639152
 30
0.0
 40
0.958739308191282
100
AcDbArc
 50
338.4541060353406
 51
349.2270530176703
  0
ARC
  5
953
330
4B0
100
AcDbEntity
  8
DIM
 62
     0
370
    -2
100
AcDbCircle
 10
8.320614000000006
 20
11.639152
 30
0.0
 40
0.958739308191282
100
AcDbArc
 50
13.77290758730924
 51
24.54585456963894
  0
SOLID
  5
954
330
4B0
100
AcDbEntity
  8
DIM
 62
     0
100
AcDbTrace
 10
9.2325885938286
 20
11.46276305054291
 30
0.0
 11
9.29232364307753
 21
11.4571306539635
 31
0.0
 12
9.279353308191288
 22
11.639152
 32
0.0
 13
9.279353308191288
 23
11.639152
 33
0.0
  0
SOLID
  5
955
330
4B0
100
AcDbEntity
  8
DIM
 62
     0
100
AcDbTrace
 10
9.281465847529545
 20
11.87177858481323
 30
0.0
 11
9.222107433933553
 21
11.86302765712715
 31
0.0
 12
9.278039423789786
 22
11.68932788018221
 32
0.0
 13
9.278039423789786
 23
11.68932788018221
 33
0.0
  0
MTEXT
  5
956
330
4B0
100
AcDbEntity
  8
DIM
 62
     0
100
AcDbMText
 10
9.747389549238395
 20
11.28555369731288
 30
0.0
 40
0.125
 41
0.0
 71
     5
 72
     1
  1
\A1;3%%D REF.
  7
TXT
 73
     1
 44
1.0
  0
POINT
  5
957
330
4B0
100
AcDbEntity
  8
DEFPOINTS
 62
     0
100
AcDbPoint
 10
9.278769285446143
 20
11.67261108012376
 30
0.0
  0
POINT
  5
958
330
4B0
100
AcDbEntity
  8
DEFPOINTS
 62
     0
100
AcDbPoint
 10
8.320614000000004
 20
11.639152
 30
0.0
  0
POINT
  5
959
330
4B0
100
AcDbEntity
  8
DEFPOINTS
 62
     0
100
AcDbPoint
 10
8.320614000000004
 20
11.639152
 30
0.0
  0
POINT
  5
95A
330
4B0
100
AcDbEntity
  8
DEFPOINTS
 62
     0
100
AcDbPoint
 10
7.356657000000002
 20
11.639152
 30
0.0
  0
POINT
  5
95B
330
4B0
100
AcDbEntity
  8
DEFPOINTS
 62
     0
100
AcDbPoint
 10
8.524117000000002
 20
11.649817
 30
0.0
  0
ENDBLK
  5
4BF
330
4B0
100
AcDbEntity
  8
0
100
AcDbBlockEnd
  0
BLOCK
  5
4F7
330
4EC
100
AcDbEntity
  8
0
100
AcDbBlockBegin
  2
*D24
 70
     1
 10
0.0
 20
0.0
 30
0.0
  3
*D24
  1

  0
LINE
  5
95C
330
4EC
100
AcDbEntity
  8
DIM
 62
     0
370
    -2
100
AcDbLine
 10
4.690267
 20
3.331465999999999
 30
0.0
 11
4.690267
 21
2.078006
 31
0.0
  0
LINE
  5
95D
330
4EC
100
AcDbEntity
  8
DIM
 62
     0
370
    -2
100
AcDbLine
 10
4.926612
 20
2.798197999999999
 30
0.0
 11
4.926612
 21
2.078006
 31
0.0
  0
LINE
  5
95E
330
4EC
100
AcDbEntity
  8
DIM
 62
     0
370
    -2
100
AcDbLine
 10
4.510267
 20
2.171006
 30
0.0
 11
4.330267
 21
2.171006
 31
0.0
  0
LINE
  5
95F
330
4EC
100
AcDbEntity
  8
DIM
 62
     0
370
    -2
100
AcDbLine
 10
5.106612
 20
2.171006
 30
0.0
 11
5.286612
 21
2.171006
 31
0.0
  0
SOLID
  5
960
330
4EC
100
AcDbEntity
  8
DIM
 62
     0
100
AcDbTrace
 10
4.510267
 20
2.201006
 30
0.0
 11
4.510267
 21
2.141006
 31
0.0
 12
4.690267
 22
2.171006
 32
0.0
 13
4.690267
 23
2.171006
 33
0.0
  0
SOLID
  5
961
330
4EC
100
AcDbEntity
  8
DIM
 62
     0
100
AcDbTrace
 10
5.106612
 20
2.201006
 30
0.0
 11
5.106612
 21
2.141006
 31
0.0
 12
4.926612
 22
2.171006
 32
0.0
 13
4.926612
 23
2.171006
 33
0.0
  0
MTEXT
  5
962
330
4EC
100
AcDbEntity
  8
DIM
 62
     0
100
AcDbMText
 10
5.5562995
 20
2.171006
 30
0.0
 40
0.125
 41
0.0
 71
     5
 72
     1
  1
\A1;0.236
  7
TXT
 73
     1
 44
1.0
  0
POINT
  5
963
330
4EC
100
AcDbEntity
  8
DEFPOINTS
 62
     0
100
AcDbPoint
 10
4.690267
 20
3.394465999999999
 30
0.0
  0
POINT
  5
964
330
4EC
100
AcDbEntity
  8
DEFPOINTS
 62
     0
100
AcDbPoint
 10
4.926612
 20
2.861197999999999
 30
0.0
  0
POINT
  5
965
330
4EC
100
AcDbEntity
  8
DEFPOINTS
 62
     0
100
AcDbPoint
 10
4.926612
 20
2.171006
 30
0.0
  0
ENDBLK
  5
4F8
330
4EC
100
AcDbEntity
  8
0
100
AcDbBlockEnd
  0
BLOCK
  5
505
330
4FA
100
AcDbEntity
  8
0
100
AcDbBlockBegin
  2
*D25
 70
     1
 10
0.0
 20
0.0
 30
0.0
  3
*D25
  1

  0
LINE
  5
966
330
4FA
100
AcDbEntity
  8
DIM
 62
     0
370
    -2
100
AcDbLine
 10
4.592444
 20
2.788767999999999
 30
0.0
 11
4.592444
 21
2.395042
 31
0.0
  0
LINE
  5
967
330
4FA
100
AcDbEntity
  8
DIM
 62
     0
370
    -2
100
AcDbLine
 10
4.926612
 20
2.798197999999999
 30
0.0
 11
4.926612
 21
2.395042
 31
0.0
  0
LINE
  5
968
330
4FA
100
AcDbEntity
  8
DIM
 62
     0
370
    -2
100
AcDbLine
 10
4.412444
 20
2.488042
 30
0.0
 11
4.232444
 21
2.488042
 31
0.0
  0
LINE
  5
969
330
4FA
100
AcDbEntity
  8
DIM
 62
     0
370
    -2
100
AcDbLine
 10
5.106612
 20
2.488042
 30
0.0
 11
5.286612
 21
2.488042
 31
0.0
  0
SOLID
  5
96A
330
4FA
100
AcDbEntity
  8
DIM
 62
     0
100
AcDbTrace
 10
4.412444
 20
2.518041999999999
 30
0.0
 11
4.412444
 21
2.458042
 31
0.0
 12
4.592444
 22
2.488042
 32
0.0
 13
4.592444
 23
2.488042
 33
0.0
  0
SOLID
  5
96B
330
4FA
100
AcDbEntity
  8
DIM
 62
     0
100
AcDbTrace
 10
5.106612
 20
2.518041999999999
 30
0.0
 11
5.106612
 21
2.458042
 31
0.0
 12
4.926612
 22
2.488042
 32
0.0
 13
4.926612
 23
2.488042
 33
0.0
  0
MTEXT
  5
96C
330
4FA
100
AcDbEntity
  8
DIM
 62
     0
100
AcDbMText
 10
5.5562995
 20
2.488042
 30
0.0
 40
0.125
 41
0.0
 71
     5
 72
     1
  1
\A1;0.334
  7
TXT
 73
     1
 44
1.0
  0
POINT
  5
96D
330
4FA
100
AcDbEntity
  8
DEFPOINTS
 62
     0
100
AcDbPoint
 10
4.592444
 20
2.851767999999999
 30
0.0
  0
POINT
  5
96E
330
4FA
100
AcDbEntity
  8
DEFPOINTS
 62
     0
100
AcDbPoint
 10
4.926612
 20
2.861197999999999
 30
0.0
  0
POINT
  5
96F
330
4FA
100
AcDbEntity
  8
DEFPOINTS
 62
     0
100
AcDbPoint
 10
4.926612
 20
2.488042
 30
0.0
  0
ENDBLK
  5
506
330
4FA
100
AcDbEntity
  8
0
100
AcDbBlockEnd
  0
BLOCK
  5
51A
330
50F
100
AcDbEntity
  8
0
100
AcDbBlockBegin
  2
*D26
 70
     1
 10
0.0
 20
0.0
 30
0.0
  3
*D26
  1

  0
LINE
  5
87B
330
50F
100
AcDbEntity
  8
DIM
 62
     0
370
    -2
100
AcDbLine
 10
4.753267
 20
3.394465999999999
 30
0.0
 11
5.379916999999999
 21
3.394465999999999
 31
0.0
  0
LINE
  5
87C
330
50F
100
AcDbEntity
  8
DIM
 62
     0
370
    -2
100
AcDbLine
 10
4.872431999999999
 20
4.044912
 30
0.0
 11
5.379916999999999
 21
4.044912
 31
0.0
  0
LINE
  5
87D
330
50F
100
AcDbEntity
  8
DIM
 62
     0
370
    -2
100
AcDbLine
 10
5.286916999999999
 20
3.214465999999999
 30
0.0
 11
5.286916999999999
 21
3.034465999999999
 31
0.0
  0
LINE
  5
87E
330
50F
100
AcDbEntity
  8
DIM
 62
     0
370
    -2
100
AcDbLine
 10
5.286916999999999
 20
4.224911999999999
 30
0.0
 11
5.286916999999999
 21
4.404912
 31
0.0
  0
SOLID
  5
87F
330
50F
100
AcDbEntity
  8
DIM
 62
     0
100
AcDbTrace
 10
5.256916999999999
 20
3.214465999999999
 30
0.0
 11
5.316917
 21
3.214465999999999
 31
0.0
 12
5.286916999999999
 22
3.394465999999999
 32
0.0
 13
5.286916999999999
 23
3.394465999999999
 33
0.0
  0
SOLID
  5
880
330
50F
100
AcDbEntity
  8
DIM
 62
     0
100
AcDbTrace
 10
5.256916999999999
 20
4.224911999999999
 30
0.0
 11
5.316917
 21
4.224911999999999
 31
0.0
 12
5.286916999999999
 22
4.044912
 32
0.0
 13
5.286916999999999
 23
4.044912
 33
0.0
  0
MTEXT
  5
881
330
50F
100
AcDbEntity
  8
DIM
 62
     0
100
AcDbMText
 10
5.286916999999998
 20
3.719689
 30
0.0
 40
0.125
 41
0.0
 71
     5
 72
     1
  1
\A1;0.650
  7
TXT
 73
     1
 44
1.0
  0
POINT
  5
882
330
50F
100
AcDbEntity
  8
DEFPOINTS
 62
     0
100
AcDbPoint
 10
4.690267
 20
3.394465999999999
 30
0.0
  0
POINT
  5
883
330
50F
100
AcDbEntity
  8
DEFPOINTS
 62
     0
100
AcDbPoint
 10
4.809432
 20
4.044912
 30
0.0
  0
POINT
  5
884
330
50F
100
AcDbEntity
  8
DEFPOINTS
 62
     0
100
AcDbPoint
 10
5.286916999999999
 20
4.044912
 30
0.0
  0
ENDBLK
  5
51B
330
50F
100
AcDbEntity
  8
0
100
AcDbBlockEnd
  0
BLOCK
  5
528
330
51D
100
AcDbEntity
  8
0
100
AcDbBlockBegin
  2
*D27
 70
     1
 10
0.0
 20
0.0
 30
0.0
  3
*D27
  1

  0
LINE
  5
970
330
51D
100
AcDbEntity
  8
DIM
 62
     0
370
    -2
100
AcDbLine
 10
4.903952999999999
 20
2.829466
 30
0.0
 11
5.878972
 21
2.829465999999999
 31
0.0
  0
LINE
  5
971
330
51D
100
AcDbEntity
  8
DIM
 62
     0
370
    -2
100
AcDbLine
 10
4.903952999999999
 20
3.959465999999999
 30
0.0
 11
5.878972
 21
3.959465999999999
 31
0.0
  0
LINE
  5
972
330
51D
100
AcDbEntity
  8
DIM
 62
     0
370
    -2
100
AcDbLine
 10
5.785972
 20
3.009465999999999
 30
0.0
 11
5.785972
 21
3.241965999999999
 31
0.0
  0
LINE
  5
973
330
51D
100
AcDbEntity
  8
DIM
 62
     0
370
    -2
100
AcDbLine
 10
5.785972
 20
3.779465999999999
 30
0.0
 11
5.785972
 21
3.546965999999999
 31
0.0
  0
SOLID
  5
974
330
51D
100
AcDbEntity
  8
DIM
 62
     0
100
AcDbTrace
 10
5.755971999999999
 20
3.009465999999999
 30
0.0
 11
5.815972
 21
3.009465999999999
 31
0.0
 12
5.785972
 22
2.829465999999999
 32
0.0
 13
5.785972
 23
2.829465999999999
 33
0.0
  0
SOLID
  5
975
330
51D
100
AcDbEntity
  8
DIM
 62
     0
100
AcDbTrace
 10
5.755971999999999
 20
3.779465999999999
 30
0.0
 11
5.815972
 21
3.779465999999999
 31
0.0
 12
5.785972
 22
3.959465999999999
 32
0.0
 13
5.785972
 23
3.959465999999999
 33
0.0
  0
MTEXT
  5
976
330
51D
100
AcDbEntity
  8
DIM
 62
     0
100
AcDbMText
 10
5.785971999999999
 20
3.394466
 30
0.0
 40
0.125
 41
0.0
 71
     5
 72
     1
  1
\A1;1.130*
  7
TXT
 73
     1
 44
1.0
  0
POINT
  5
977
330
51D
100
AcDbEntity
  8
DEFPOINTS
 62
     0
100
AcDbPoint
 10
4.840952999999999
 20
2.829466
 30
0.0
  0
POINT
  5
978
330
51D
100
AcDbEntity
  8
DEFPOINTS
 62
     0
100
AcDbPoint
 10
4.840952999999999
 20
3.959465999999999
 30
0.0
  0
POINT
  5
979
330
51D
100
AcDbEntity
  8
DEFPOINTS
 62
     0
100
AcDbPoint
 10
5.785972
 20
3.959465999999999
 30
0.0
  0
ENDBLK
  5
529
330
51D
100
AcDbEntity
  8
0
100
AcDbBlockEnd
  0
BLOCK
  5
539
330
52E
100
AcDbEntity
  8
0
100
AcDbBlockBegin
  2
*D28
 70
     1
 10
0.0
 20
0.0
 30
0.0
  3
*D28
  1

  0
LINE
  5
97A
330
52E
100
AcDbEntity
  8
DIM
 62
     0
370
    -2
100
AcDbLine
 10
2.762262999999999
 20
3.684286
 30
0.0
 11
2.762262999999999
 21
4.735847999999999
 31
0.0
  0
LINE
  5
97B
330
52E
100
AcDbEntity
  8
DIM
 62
     0
370
    -2
100
AcDbLine
 10
2.512014
 20
3.457466
 30
0.0
 11
2.512014
 21
4.735847999999999
 31
0.0
  0
LINE
  5
97C
330
52E
100
AcDbEntity
  8
DIM
 62
     0
370
    -2
100
AcDbLine
 10
2.942263
 20
4.642847999999999
 30
0.0
 11
3.122262999999999
 21
4.642847999999999
 31
0.0
  0
LINE
  5
97D
330
52E
100
AcDbEntity
  8
DIM
 62
     0
370
    -2
100
AcDbLine
 10
2.332014
 20
4.642847999999999
 30
0.0
 11
2.152014
 21
4.642847999999999
 31
0.0
  0
SOLID
  5
97E
330
52E
100
AcDbEntity
  8
DIM
 62
     0
100
AcDbTrace
 10
2.942263
 20
4.672848
 30
0.0
 11
2.942263
 21
4.612847999999999
 31
0.0
 12
2.762262999999999
 22
4.642847999999999
 32
0.0
 13
2.762262999999999
 23
4.642847999999999
 33
0.0
  0
SOLID
  5
97F
330
52E
100
AcDbEntity
  8
DIM
 62
     0
100
AcDbTrace
 10
2.332014
 20
4.672848
 30
0.0
 11
2.332014
 21
4.612847999999999
 31
0.0
 12
2.512014
 22
4.642847999999999
 32
0.0
 13
2.512014
 23
4.642847999999999
 33
0.0
  0
MTEXT
  5
980
330
52E
100
AcDbEntity
  8
DIM
 62
     0
100
AcDbMText
 10
1.890139
 20
4.642847999999999
 30
0.0
 40
0.125
 41
0.0
 71
     5
 72
     1
  1
\A1;0.250
  7
TXT
 73
     1
 44
1.0
  0
POINT
  5
981
330
52E
100
AcDbEntity
  8
DEFPOINTS
 62
     0
100
AcDbPoint
 10
2.762262999999999
 20
3.621286
 30
0.0
  0
POINT
  5
982
330
52E
100
AcDbEntity
  8
DEFPOINTS
 62
     0
100
AcDbPoint
 10
2.512014
 20
3.394465999999999
 30
0.0
  0
POINT
  5
983
330
52E
100
AcDbEntity
  8
DEFPOINTS
 62
     0
100
AcDbPoint
 10
2.512014
 20
4.642847999999999
 30
0.0
  0
ENDBLK
  5
53A
330
52E
100
AcDbEntity
  8
0
100
AcDbBlockEnd
  0
BLOCK
  5
547
330
53C
100
AcDbEntity
  8
0
100
AcDbBlockBegin
  2
*D29
 70
     1
 10
0.0
 20
0.0
 30
0.0
  3
*D29
  1

  0
LINE
  5
885
330
53C
100
AcDbEntity
  8
DIM
 62
     0
370
    -2
100
AcDbLine
 10
2.632231999999999
 20
3.688317
 30
0.0
 11
1.914261999999999
 21
3.688317
 31
0.0
  0
LINE
  5
886
330
53C
100
AcDbEntity
  8
DIM
 62
     0
370
    -2
100
AcDbLine
 10
2.632231999999999
 20
3.100614
 30
0.0
 11
1.914261999999999
 21
3.100614
 31
0.0
  0
LINE
  5
887
330
53C
100
AcDbEntity
  8
DIM
 62
     0
370
    -2
100
AcDbLine
 10
2.007261999999999
 20
3.868317
 30
0.0
 11
2.007261999999999
 21
4.048316999999999
 31
0.0
  0
LINE
  5
888
330
53C
100
AcDbEntity
  8
DIM
 62
     0
370
    -2
100
AcDbLine
 10
2.007261999999999
 20
2.920614
 30
0.0
 11
2.007261999999999
 21
2.740614
 31
0.0
  0
SOLID
  5
889
330
53C
100
AcDbEntity
  8
DIM
 62
     0
100
AcDbTrace
 10
1.977261999999999
 20
3.868317
 30
0.0
 11
2.037261999999999
 21
3.868317
 31
0.0
 12
2.007261999999999
 22
3.688317
 32
0.0
 13
2.007261999999999
 23
3.688317
 33
0.0
  0
SOLID
  5
88A
330
53C
100
AcDbEntity
  8
DIM
 62
     0
100
AcDbTrace
 10
1.977261999999999
 20
2.920614
 30
0.0
 11
2.037261999999999
 21
2.920614
 31
0.0
 12
2.007261999999999
 22
3.100614
 32
0.0
 13
2.007261999999999
 23
3.100614
 33
0.0
  0
MTEXT
  5
88B
330
53C
100
AcDbEntity
  8
DIM
 62
     0
100
AcDbMText
 10
2.007261999999998
 20
3.3944655
 30
0.0
 40
0.125
 41
0.0
 71
     5
 72
     1
  1
\A1;0.588
  7
TXT
 73
     1
 44
1.0
  0
POINT
  5
88C
330
53C
100
AcDbEntity
  8
DEFPOINTS
 62
     0
100
AcDbPoint
 10
2.695231999999999
 20
3.688317
 30
0.0
  0
POINT
  5
88D
330
53C
100
AcDbEntity
  8
DEFPOINTS
 62
     0
100
AcDbPoint
 10
2.695231999999999
 20
3.100614
 30
0.0
  0
POINT
  5
88E
330
53C
100
AcDbEntity
  8
DEFPOINTS
 62
     0
100
AcDbPoint
 10
2.007261999999999
 20
3.100614
 30
0.0
  0
ENDBLK
  5
548
330
53C
100
AcDbEntity
  8
0
100
AcDbBlockEnd
  0
BLOCK
  5
55E
330
553
100
AcDbEntity
  8
0
100
AcDbBlockBegin
  2
*D30
 70
     1
 10
0.0
 20
0.0
 30
0.0
  3
*D30
  1

  0
LINE
  5
984
330
553
100
AcDbEntity
  8
DIM
 62
     0
370
    -2
100
AcDbLine
 10
3.065639
 20
3.331465999999999
 30
0.0
 11
3.065639
 21
2.078006
 31
0.0
  0
LINE
  5
985
330
553
100
AcDbEntity
  8
DIM
 62
     0
370
    -2
100
AcDbLine
 10
4.690267
 20
3.331465999999999
 30
0.0
 11
4.690267
 21
2.078006
 31
0.0
  0
LINE
  5
986
330
553
100
AcDbEntity
  8
DIM
 62
     0
370
    -2
100
AcDbLine
 10
3.245639
 20
2.171006
 30
0.0
 11
3.616078
 21
2.171006
 31
0.0
  0
LINE
  5
987
330
553
100
AcDbEntity
  8
DIM
 62
     0
370
    -2
100
AcDbLine
 10
4.510267
 20
2.171006
 30
0.0
 11
4.139828
 21
2.171006
 31
0.0
  0
SOLID
  5
988
330
553
100
AcDbEntity
  8
DIM
 62
     0
100
AcDbTrace
 10
3.245639
 20
2.201006
 30
0.0
 11
3.245639
 21
2.141006
 31
0.0
 12
3.065639
 22
2.171006
 32
0.0
 13
3.065639
 23
2.171006
 33
0.0
  0
SOLID
  5
989
330
553
100
AcDbEntity
  8
DIM
 62
     0
100
AcDbTrace
 10
4.510267
 20
2.201006
 30
0.0
 11
4.510267
 21
2.141006
 31
0.0
 12
4.690267
 22
2.171006
 32
0.0
 13
4.690267
 23
2.171006
 33
0.0
  0
MTEXT
  5
98A
330
553
100
AcDbEntity
  8
DIM
 62
     0
100
AcDbMText
 10
3.877953
 20
2.171006
 30
0.0
 40
0.125
 41
0.0
 71
     5
 72
     1
  1
\A1;1.625
  7
TXT
 73
     1
 44
1.0
  0
POINT
  5
98B
330
553
100
AcDbEntity
  8
DEFPOINTS
 62
     0
100
AcDbPoint
 10
3.065639
 20
3.394465999999999
 30
0.0
  0
POINT
  5
98C
330
553
100
AcDbEntity
  8
DEFPOINTS
 62
     0
100
AcDbPoint
 10
4.690267
 20
3.394465999999999
 30
0.0
  0
POINT
  5
98D
330
553
100
AcDbEntity
  8
DEFPOINTS
 62
     0
100
AcDbPoint
 10
4.690267
 20
2.171006
 30
0.0
  0
ENDBLK
  5
55F
330
553
100
AcDbEntity
  8
0
100
AcDbBlockEnd
  0
BLOCK
  5
56C
330
561
100
AcDbEntity
  8
0
100
AcDbBlockBegin
  2
*D31
 70
     1
 10
0.0
 20
0.0
 30
0.0
  3
*D31
  1

  0
LINE
  5
98E
330
561
100
AcDbEntity
  8
DIM
 62
     0
370
    -2
100
AcDbLine
 10
4.109399999999999
 20
2.851767999999999
 30
0.0
 11
4.051689999999999
 21
2.851767999999999
 31
0.0
  0
LINE
  5
98F
330
561
100
AcDbEntity
  8
DIM
 62
     0
370
    -2
100
AcDbLine
 10
4.109399999999999
 20
3.937162999999999
 30
0.0
 11
4.051689999999999
 21
3.937162999999999
 31
0.0
  0
LINE
  5
990
330
561
100
AcDbEntity
  8
DIM
 62
     0
370
    -2
100
AcDbLine
 10
4.144689999999999
 20
3.031768
 30
0.0
 11
4.144689999999999
 21
3.2419655
 31
0.0
  0
LINE
  5
991
330
561
100
AcDbEntity
  8
DIM
 62
     0
370
    -2
100
AcDbLine
 10
4.144689999999999
 20
3.757162999999999
 30
0.0
 11
4.144689999999999
 21
3.546965499999999
 31
0.0
  0
SOLID
  5
992
330
561
100
AcDbEntity
  8
DIM
 62
     0
100
AcDbTrace
 10
4.114689999999999
 20
3.031768
 30
0.0
 11
4.17469
 21
3.031768
 31
0.0
 12
4.144689999999999
 22
2.851767999999999
 32
0.0
 13
4.144689999999999
 23
2.851767999999999
 33
0.0
  0
SOLID
  5
993
330
561
100
AcDbEntity
  8
DIM
 62
     0
100
AcDbTrace
 10
4.114689999999999
 20
3.757162999999999
 30
0.0
 11
4.17469
 21
3.757162999999999
 31
0.0
 12
4.144689999999999
 22
3.937162999999999
 32
0.0
 13
4.144689999999999
 23
3.937162999999999
 33
0.0
  0
MTEXT
  5
994
330
561
100
AcDbEntity
  8
DIM
 62
     0
100
AcDbMText
 10
4.144689999999998
 20
3.3944655
 30
0.0
 40
0.125
 41
0.0
 71
     5
 72
     1
  1
\A1;1.085
  7
TXT
 73
     1
 44
1.0
  0
POINT
  5
995
330
561
100
AcDbEntity
  8
DEFPOINTS
 62
     0
100
AcDbPoint
 10
4.172399999999999
 20
2.851767999999999
 30
0.0
  0
POINT
  5
996
330
561
100
AcDbEntity
  8
DEFPOINTS
 62
     0
100
AcDbPoint
 10
4.172399999999999
 20
3.937162999999999
 30
0.0
  0
POINT
  5
997
330
561
100
AcDbEntity
  8
DEFPOINTS
 62
     0
100
AcDbPoint
 10
4.144689999999999
 20
3.937162999999999
 30
0.0
  0
ENDBLK
  5
56D
330
561
100
AcDbEntity
  8
0
100
AcDbBlockEnd
  0
BLOCK
  5
58C
330
581
100
AcDbEntity
  8
0
100
AcDbBlockBegin
  2
*D32
 70
     1
 10
0.0
 20
0.0
 30
0.0
  3
*D32
  1

  0
LINE
  5
998
330
581
100
AcDbEntity
  8
DIM
 62
     0
370
    -2
100
AcDbLine
 10
3.798217
 20
0.9280879999999999
 30
0.0
 11
3.838667
 21
0.9280879999999999
 31
0.0
  0
LINE
  5
999
330
581
100
AcDbEntity
  8
DIM
 62
     0
370
    -2
100
AcDbLine
 10
3.798217
 20
0.8575809999999998
 30
0.0
 11
3.838667
 21
0.8575809999999998
 31
0.0
  0
LINE
  5
99A
330
581
100
AcDbEntity
  8
DIM
 62
     0
370
    -2
100
AcDbLine
 10
3.745667
 20
1.108087999999999
 30
0.0
 11
3.745667
 21
1.288087999999999
 31
0.0
  0
LINE
  5
99B
330
581
100
AcDbEntity
  8
DIM
 62
     0
370
    -2
100
AcDbLine
 10
3.745667
 20
0.6775810000000001
 30
0.0
 11
3.745667
 21
0.497581
 31
0.0
  0
LINE
  5
99C
330
581
100
AcDbEntity
  8
DIM
 62
     0
370
    -2
100
AcDbLine
 10
3.745667
 20
0.497581
 30
0.0
 11
3.565666999999999
 21
0.4975810000000001
 31
0.0
  0
SOLID
  5
99D
330
581
100
AcDbEntity
  8
DIM
 62
     0
100
AcDbTrace
 10
3.715667
 20
1.108087999999999
 30
0.0
 11
3.775667
 21
1.108087999999999
 31
0.0
 12
3.745667
 22
0.9280879999999999
 32
0.0
 13
3.745667
 23
0.9280879999999999
 33
0.0
  0
SOLID
  5
99E
330
581
100
AcDbEntity
  8
DIM
 62
     0
100
AcDbTrace
 10
3.715667
 20
0.6775810000000001
 30
0.0
 11
3.775666999999999
 21
0.677581
 31
0.0
 12
3.745667
 22
0.857581
 32
0.0
 13
3.745667
 23
0.857581
 33
0.0
  0
MTEXT
  5
99F
330
581
100
AcDbEntity
  8
DIM
 62
     0
100
AcDbMText
 10
3.303792
 20
0.4975810000000007
 30
0.0
 40
0.125
 41
0.0
 71
     5
 72
     1
  1
\A1;0.072
  7
TXT
 73
     1
 44
1.0
  0
POINT
  5
9A0
330
581
100
AcDbEntity
  8
DEFPOINTS
 62
     0
100
AcDbPoint
 10
3.735217
 20
0.9280879999999999
 30
0.0
  0
POINT
  5
9A1
330
581
100
AcDbEntity
  8
DEFPOINTS
 62
     0
100
AcDbPoint
 10
3.735217
 20
0.857581
 30
0.0
  0
POINT
  5
9A2
330
581
100
AcDbEntity
  8
DEFPOINTS
 62
     0
100
AcDbPoint
 10
3.745667
 20
0.857581
 30
0.0
  0
ENDBLK
  5
58D
330
581
100
AcDbEntity
  8
0
100
AcDbBlockEnd
  0
BLOCK
  5
59A
330
58F
100
AcDbEntity
  8
0
100
AcDbBlockBegin
  2
*D33
 70
     1
 10
0.0
 20
0.0
 30
0.0
  3
*D33
  1

  0
LINE
  5
9A3
330
58F
100
AcDbEntity
  8
DIM
 62
     0
370
    -2
100
AcDbLine
 10
4.592444
 20
2.788767999999999
 30
0.0
 11
4.592444
 21
2.395042
 31
0.0
  0
LINE
  5
9A4
330
58F
100
AcDbEntity
  8
DIM
 62
     0
370
    -2
100
AcDbLine
 10
3.162460999999999
 20
2.788767999999999
 30
0.0
 11
3.162460999999999
 21
2.395042
 31
0.0
  0
LINE
  5
9A5
330
58F
100
AcDbEntity
  8
DIM
 62
     0
370
    -2
100
AcDbLine
 10
4.412444
 20
2.488042
 30
0.0
 11
4.131515
 21
2.488042
 31
0.0
  0
LINE
  5
9A6
330
58F
100
AcDbEntity
  8
DIM
 62
     0
370
    -2
100
AcDbLine
 10
3.342461
 20
2.488042
 30
0.0
 11
3.62339
 21
2.488042
 31
0.0
  0
SOLID
  5
9A7
330
58F
100
AcDbEntity
  8
DIM
 62
     0
100
AcDbTrace
 10
4.412444
 20
2.518041999999999
 30
0.0
 11
4.412444
 21
2.458042
 31
0.0
 12
4.592444
 22
2.488042
 32
0.0
 13
4.592444
 23
2.488042
 33
0.0
  0
SOLID
  5
9A8
330
58F
100
AcDbEntity
  8
DIM
 62
     0
100
AcDbTrace
 10
3.342461
 20
2.518041999999999
 30
0.0
 11
3.342461
 21
2.458042
 31
0.0
 12
3.162460999999999
 22
2.488042
 32
0.0
 13
3.162460999999999
 23
2.488042
 33
0.0
  0
MTEXT
  5
9A9
330
58F
100
AcDbEntity
  8
DIM
 62
     0
100
AcDbMText
 10
3.8774525
 20
2.488042
 30
0.0
 40
0.125
 41
0.0
 71
     5
 72
     1
  1
\A1;1.430
  7
TXT
 73
     1
 44
1.0
  0
POINT
  5
9AA
330
58F
100
AcDbEntity
  8
DEFPOINTS
 62
     0
100
AcDbPoint
 10
4.592444
 20
2.851767999999999
 30
0.0
  0
POINT
  5
9AB
330
58F
100
AcDbEntity
  8
DEFPOINTS
 62
     0
100
AcDbPoint
 10
3.162460999999999
 20
2.851767999999999
 30
0.0
  0
POINT
  5
9AC
330
58F
100
AcDbEntity
  8
DEFPOINTS
 62
     0
100
AcDbPoint
 10
3.162460999999999
 20
2.488042
 30
0.0
  0
ENDBLK
  5
59B
330
58F
100
AcDbEntity
  8
0
100
AcDbBlockEnd
  0
BLOCK
  5
5A9
330
59E
100
AcDbEntity
  8
0
100
AcDbBlockBegin
  2
*D34
 70
     1
 10
0.0
 20
0.0
 30
0.0
  3
*D34
  1

  0
LINE
  5
9AD
330
59E
100
AcDbEntity
  8
DIM
 62
     0
370
    -2
100
AcDbLine
 10
4.926612
 20
1.380363
 30
0.0
 11
4.926612
 21
1.820556999999999
 31
0.0
  0
LINE
  5
9AE
330
59E
100
AcDbEntity
  8
DIM
 62
     0
370
    -2
100
AcDbLine
 10
2.377953
 20
1.442924999999999
 30
0.0
 11
2.377953
 21
1.820556999999999
 31
0.0
  0
LINE
  5
9AF
330
59E
100
AcDbEntity
  8
DIM
 62
     0
370
    -2
100
AcDbLine
 10
4.746612
 20
1.727557
 30
0.0
 11
3.9297825
 21
1.727557
 31
0.0
  0
LINE
  5
9B0
330
59E
100
AcDbEntity
  8
DIM
 62
     0
370
    -2
100
AcDbLine
 10
2.557953
 20
1.727557
 30
0.0
 11
3.3747825
 21
1.727557
 31
0.0
  0
SOLID
  5
9B1
330
59E
100
AcDbEntity
  8
DIM
 62
     0
100
AcDbTrace
 10
4.746612
 20
1.757557
 30
0.0
 11
4.746612
 21
1.697556999999999
 31
0.0
 12
4.926612
 22
1.727557
 32
0.0
 13
4.926612
 23
1.727557
 33
0.0
  0
SOLID
  5
9B2
330
59E
100
AcDbEntity
  8
DIM
 62
     0
100
AcDbTrace
 10
2.557953
 20
1.757557
 30
0.0
 11
2.557953
 21
1.697556999999999
 31
0.0
 12
2.377953
 22
1.727557
 32
0.0
 13
2.377953
 23
1.727557
 33
0.0
  0
MTEXT
  5
9B3
330
59E
100
AcDbEntity
  8
DIM
 62
     0
100
AcDbMText
 10
3.6522825
 20
1.727557
 30
0.0
 40
0.125
 41
0.0
 71
     5
 72
     1
  1
\A1;2.549
  7
TXT
 73
     1
 44
1.0
  0
POINT
  5
9B4
330
59E
100
AcDbEntity
  8
DEFPOINTS
 62
     0
100
AcDbPoint
 10
4.926612
 20
1.317363
 30
0.0
  0
POINT
  5
9B5
330
59E
100
AcDbEntity
  8
DEFPOINTS
 62
     0
100
AcDbPoint
 10
2.377953
 20
1.379925
 30
0.0
  0
POINT
  5
9B6
330
59E
100
AcDbEntity
  8
DEFPOINTS
 62
     0
100
AcDbPoint
 10
2.377953
 20
1.727557
 30
0.0
  0
ENDBLK
  5
5AA
330
59E
100
AcDbEntity
  8
0
100
AcDbBlockEnd
  0
BLOCK
  5
5B7
330
5AC
100
AcDbEntity
  8
0
100
AcDbBlockBegin
  2
*D35
 70
     1
 10
0.0
 20
0.0
 30
0.0
  3
*D35
  1

  0
LINE
  5
9B7
330
5AC
100
AcDbEntity
  8
DIM
 62
     0
370
    -2
100
AcDbLine
 10
2.829292999999999
 20
1.239467
 30
0.0
 11
2.829292999999999
 21
0.190525
 31
0.0
  0
LINE
  5
9B8
330
5AC
100
AcDbEntity
  8
DIM
 62
     0
370
    -2
100
AcDbLine
 10
4.926612
 20
1.239467
 30
0.0
 11
4.926612
 21
0.190525
 31
0.0
  0
LINE
  5
9B9
330
5AC
100
AcDbEntity
  8
DIM
 62
     0
370
    -2
100
AcDbLine
 10
3.009292999999999
 20
0.283525
 30
0.0
 11
3.608265
 21
0.283525
 31
0.0
  0
LINE
  5
9BA
330
5AC
100
AcDbEntity
  8
DIM
 62
     0
370
    -2
100
AcDbLine
 10
4.746612
 20
0.283525
 30
0.0
 11
4.147639999999999
 21
0.283525
 31
0.0
  0
SOLID
  5
9BB
330
5AC
100
AcDbEntity
  8
DIM
 62
     0
100
AcDbTrace
 10
3.009292999999999
 20
0.313525
 30
0.0
 11
3.009292999999999
 21
0.253525
 31
0.0
 12
2.829292999999999
 22
0.283525
 32
0.0
 13
2.829292999999999
 23
0.283525
 33
0.0
  0
SOLID
  5
9BC
330
5AC
100
AcDbEntity
  8
DIM
 62
     0
100
AcDbTrace
 10
4.746612
 20
0.313525
 30
0.0
 11
4.746612
 21
0.253525
 31
0.0
 12
4.926612
 22
0.283525
 32
0.0
 13
4.926612
 23
0.283525
 33
0.0
  0
MTEXT
  5
9BD
330
5AC
100
AcDbEntity
  8
DIM
 62
     0
100
AcDbMText
 10
3.8779525
 20
0.283525
 30
0.0
 40
0.125
 41
0.0
 71
     5
 72
     1
  1
\A1;2.097
  7
TXT
 73
     1
 44
1.0
  0
POINT
  5
9BE
330
5AC
100
AcDbEntity
  8
DEFPOINTS
 62
     0
100
AcDbPoint
 10
2.829292999999999
 20
1.302467
 30
0.0
  0
POINT
  5
9BF
330
5AC
100
AcDbEntity
  8
DEFPOINTS
 62
     0
100
AcDbPoint
 10
4.926612
 20
1.302467
 30
0.0
  0
POINT
  5
9C0
330
5AC
100
AcDbEntity
  8
DEFPOINTS
 62
     0
100
AcDbPoint
 10
4.926612
 20
0.283525
 30
0.0
  0
ENDBLK
  5
5B8
330
5AC
100
AcDbEntity
  8
0
100
AcDbBlockEnd
  0
BLOCK
  5
5D5
330
5C7
100
AcDbEntity
  8
0
100
AcDbBlockBegin
  2
*D36
 70
     1
 10
0.0
 20
0.0
 30
0.0
  3
*D36
  1

  0
LINE
  5
9C1
330
5C7
100
AcDbEntity
  8
DIM
 62
     0
370
    -2
100
AcDbLine
 10
2.829292999999999
 20
1.176467
 30
0.0
 11
2.829292999999999
 21
0.4613664916911229
 31
0.0
  0
LINE
  5
9C2
330
5C7
100
AcDbEntity
  8
DIM
 62
     0
370
    -2
100
AcDbLine
 10
2.839908242693683
 20
0.8971105910129724
 30
0.0
 11
2.851311712190178
 21
0.4616547490242324
 31
0.0
  0
ARC
  5
9C3
330
5C7
100
AcDbEntity
  8
DIM
 62
     0
370
    -2
100
AcDbCircle
 10
2.829292999999999
 20
1.302466999999998
 30
0.0
 40
0.748100508308875
100
AcDbArc
 50
242.3612502220652
 51
256.1806251110326
  0
ARC
  5
9C4
330
5C7
100
AcDbEntity
  8
DIM
 62
     0
370
    -2
100
AcDbCircle
 10
2.829292999999999
 20
1.302466999999998
 30
0.0
 40
0.748100508308875
100
AcDbArc
 50
285.3194612717559
 51
299.1388361607233
  0
SOLID
  5
9C5
330
5C7
100
AcDbEntity
  8
DIM
 62
     0
100
AcDbTrace
 10
2.654209477962377
 20
0.6058034464114569
 30
0.0
 11
2.6469911965416
 21
0.5462392254954532
 31
0.0
 12
2.829292999999999
 22
0.5543664916911229
 32
0.0
 13
2.829292999999999
 23
0.5543664916911229
 33
0.0
  0
SOLID
  5
9C6
330
5C7
100
AcDbEntity
  8
DIM
 62
     0
100
AcDbTrace
 10
3.031329201097419
 20
0.5512707753539975
 30
0.0
 11
3.02255409418231
 21
0.6106256192896728
 31
0.0
 12
2.848877115832837
 22
0.5546228765765113
 32
0.0
 13
2.848877115832837
 23
0.5546228765765113
 33
0.0
  0
MTEXT
  5
9C7
330
5C7
100
AcDbEntity
  8
DIM
 62
     0
100
AcDbMText
 10
2.374018999999999
 20
0.7088510000000002
 30
0.0
 40
0.125
 41
0.0
 71
     5
 72
     1
  1
\A1;2°
  7
TXT
 73
     1
 44
1.0
  0
POINT
  5
9C8
330
5C7
100
AcDbEntity
  8
DEFPOINTS
 62
     0
100
AcDbPoint
 10
2.842349905935257
 20
0.5544804441452858
 30
0.0
  0
POINT
  5
9C9
330
5C7
100
AcDbEntity
  8
DEFPOINTS
 62
     0
100
AcDbPoint
 10
2.829292999999999
 20
1.302467
 30
0.0
  0
POINT
  5
9CA
330
5C7
100
AcDbEntity
  8
DEFPOINTS
 62
     0
100
AcDbPoint
 10
2.829292999999999
 20
1.239467
 30
0.0
  0
POINT
  5
9CB
330
5C7
100
AcDbEntity
  8
DEFPOINTS
 62
     0
100
AcDbPoint
 10
2.829292999999999
 20
1.656903
 30
0.0
  0
POINT
  5
9CC
330
5C7
100
AcDbEntity
  8
DEFPOINTS
 62
     0
100
AcDbPoint
 10
2.838258999999999
 20
0.9600889999999999
 30
0.0
  0
ENDBLK
  5
5D6
330
5C7
100
AcDbEntity
  8
0
100
AcDbBlockEnd
  0
BLOCK
  5
626
330
61B
100
AcDbEntity
  8
0
100
AcDbBlockBegin
  2
*D37
 70
     1
 10
0.0
 20
0.0
 30
0.0
  3
*D37
  1

  0
LINE
  5
9CD
330
61B
100
AcDbEntity
  8
DIM
 62
     0
370
    -2
100
AcDbLine
 10
4.840952999999999
 20
4.022465999999999
 30
0.0
 11
4.840952999999999
 21
4.454797
 31
0.0
  0
LINE
  5
9CE
330
61B
100
AcDbEntity
  8
DIM
 62
     0
370
    -2
100
AcDbLine
 10
2.914953
 20
4.022465999999999
 30
0.0
 11
2.914953
 21
4.454797
 31
0.0
  0
LINE
  5
9CF
330
61B
100
AcDbEntity
  8
DIM
 62
     0
370
    -2
100
AcDbLine
 10
4.660953
 20
4.361797
 30
0.0
 11
4.186703
 21
4.361797
 31
0.0
  0
LINE
  5
9D0
330
61B
100
AcDbEntity
  8
DIM
 62
     0
370
    -2
100
AcDbLine
 10
3.094953
 20
4.361797
 30
0.0
 11
3.569203
 21
4.361797
 31
0.0
  0
SOLID
  5
9D1
330
61B
100
AcDbEntity
  8
DIM
 62
     0
100
AcDbTrace
 10
4.660953
 20
4.391797
 30
0.0
 11
4.660953
 21
4.331796999999999
 31
0.0
 12
4.840952999999999
 22
4.361797
 32
0.0
 13
4.840952999999999
 23
4.361797
 33
0.0
  0
SOLID
  5
9D2
330
61B
100
AcDbEntity
  8
DIM
 62
     0
100
AcDbTrace
 10
3.094953
 20
4.391797
 30
0.0
 11
3.094953
 21
4.331796999999999
 31
0.0
 12
2.914953
 22
4.361797
 32
0.0
 13
2.914953
 23
4.361797
 33
0.0
  0
MTEXT
  5
9D3
330
61B
100
AcDbEntity
  8
DIM
 62
     0
100
AcDbMText
 10
3.877953
 20
4.361797
 30
0.0
 40
0.125
 41
0.0
 71
     5
 72
     1
  1
\A1;1.926*
  7
TXT
 73
     1
 44
1.0
  0
POINT
  5
9D4
330
61B
100
AcDbEntity
  8
DEFPOINTS
 62
     0
100
AcDbPoint
 10
4.840952999999999
 20
3.959465999999999
 30
0.0
  0
POINT
  5
9D5
330
61B
100
AcDbEntity
  8
DEFPOINTS
 62
     0
100
AcDbPoint
 10
2.914953
 20
3.959465999999999
 30
0.0
  0
POINT
  5
9D6
330
61B
100
AcDbEntity
  8
DEFPOINTS
 62
     0
100
AcDbPoint
 10
2.914953
 20
4.361797
 30
0.0
  0
ENDBLK
  5
627
330
61B
100
AcDbEntity
  8
0
100
AcDbBlockEnd
  0
BLOCK
  5
658
330
64D
100
AcDbEntity
  8
0
100
AcDbBlockBegin
  2
*D38
 70
     1
 10
0.0
 20
0.0
 30
0.0
  3
*D38
  1

  0
LINE
  5
9D7
330
64D
100
AcDbEntity
  8
DIM
 62
     0
370
    -2
100
AcDbLine
 10
7.252608999999999
 20
2.404672999999999
 30
0.0
 11
7.252608999999999
 21
1.778231
 31
0.0
  0
LINE
  5
9D8
330
64D
100
AcDbEntity
  8
DIM
 62
     0
370
    -2
100
AcDbLine
 10
7.536621
 20
2.795326999999999
 30
0.0
 11
7.536621
 21
1.778231
 31
0.0
  0
LINE
  5
9D9
330
64D
100
AcDbEntity
  8
DIM
 62
     0
370
    -2
100
AcDbLine
 10
7.072608999999999
 20
1.871231
 30
0.0
 11
6.892608999999999
 21
1.871231
 31
0.0
  0
LINE
  5
9DA
330
64D
100
AcDbEntity
  8
DIM
 62
     0
370
    -2
100
AcDbLine
 10
7.716620999999999
 20
1.871231
 30
0.0
 11
7.896620999999999
 21
1.871231
 31
0.0
  0
SOLID
  5
9DB
330
64D
100
AcDbEntity
  8
DIM
 62
     0
100
AcDbTrace
 10
7.072608999999999
 20
1.901231
 30
0.0
 11
7.072608999999999
 21
1.841231
 31
0.0
 12
7.252608999999999
 22
1.871231
 32
0.0
 13
7.252608999999999
 23
1.871231
 33
0.0
  0
SOLID
  5
9DC
330
64D
100
AcDbEntity
  8
DIM
 62
     0
100
AcDbTrace
 10
7.716620999999999
 20
1.901231
 30
0.0
 11
7.716620999999999
 21
1.841231
 31
0.0
 12
7.536621
 22
1.871231
 32
0.0
 13
7.536621
 23
1.871231
 33
0.0
  0
MTEXT
  5
9DD
330
64D
100
AcDbEntity
  8
DIM
 62
     0
100
AcDbMText
 10
8.713183499999999
 20
1.871231
 30
0.0
 40
0.125
 41
0.0
 71
     5
 72
     1
  1
\A1;0.284 BOSS HEIGHT
  7
TXT
 73
     1
 44
1.0
  0
POINT
  5
9DE
330
64D
100
AcDbEntity
  8
DEFPOINTS
 62
     0
100
AcDbPoint
 10
7.252608999999999
 20
2.467673
 30
0.0
  0
POINT
  5
9DF
330
64D
100
AcDbEntity
  8
DEFPOINTS
 62
     0
100
AcDbPoint
 10
7.536621
 20
2.858327
 30
0.0
  0
POINT
  5
9E0
330
64D
100
AcDbEntity
  8
DEFPOINTS
 62
     0
100
AcDbPoint
 10
7.536621
 20
1.871231
 30
0.0
  0
ENDBLK
  5
659
330
64D
100
AcDbEntity
  8
0
100
AcDbBlockEnd
  0
BLOCK
  5
66C
330
661
100
AcDbEntity
  8
0
100
AcDbBlockBegin
  2
*D39
 70
     1
 10
0.0
 20
0.0
 30
0.0
  3
*D39
  1

  0
LINE
  5
9E1
330
661
100
AcDbEntity
  8
DIM
 62
     0
370
    -2
100
AcDbLine
 10
7.084346
 20
4.044912
 30
0.0
 11
6.548936
 21
4.044912
 31
0.0
  0
LINE
  5
9E2
330
661
100
AcDbEntity
  8
DIM
 62
     0
370
    -2
100
AcDbLine
 10
7.084346
 20
2.744019
 30
0.0
 11
6.548936
 21
2.744019
 31
0.0
  0
LINE
  5
9E3
330
661
100
AcDbEntity
  8
DIM
 62
     0
370
    -2
100
AcDbLine
 10
6.641936
 20
3.864912
 30
0.0
 11
6.641936
 21
3.5469655
 31
0.0
  0
LINE
  5
9E4
330
661
100
AcDbEntity
  8
DIM
 62
     0
370
    -2
100
AcDbLine
 10
6.641936
 20
2.924019
 30
0.0
 11
6.641936
 21
3.2419655
 31
0.0
  0
SOLID
  5
9E5
330
661
100
AcDbEntity
  8
DIM
 62
     0
100
AcDbTrace
 10
6.611936
 20
3.864912
 30
0.0
 11
6.671936
 21
3.864912
 31
0.0
 12
6.641936
 22
4.044912
 32
0.0
 13
6.641936
 23
4.044912
 33
0.0
  0
SOLID
  5
9E6
330
661
100
AcDbEntity
  8
DIM
 62
     0
100
AcDbTrace
 10
6.611936
 20
2.924019
 30
0.0
 11
6.671936
 21
2.924019
 31
0.0
 12
6.641936
 22
2.744019
 32
0.0
 13
6.641936
 23
2.744019
 33
0.0
  0
MTEXT
  5
9E7
330
661
100
AcDbEntity
  8
DIM
 62
     0
100
AcDbMText
 10
6.641935999999999
 20
3.394465500000001
 30
0.0
 40
0.125
 41
0.0
 71
     5
 72
     1
  1
\A1;1.300
  7
TXT
 73
     1
 44
1.0
  0
POINT
  5
9E8
330
661
100
AcDbEntity
  8
DEFPOINTS
 62
     0
100
AcDbPoint
 10
7.147345999999999
 20
4.044912
 30
0.0
  0
POINT
  5
9E9
330
661
100
AcDbEntity
  8
DEFPOINTS
 62
     0
100
AcDbPoint
 10
7.147345999999999
 20
2.744019
 30
0.0
  0
POINT
  5
9EA
330
661
100
AcDbEntity
  8
DEFPOINTS
 62
     0
100
AcDbPoint
 10
6.641936
 20
2.744019
 30
0.0
  0
ENDBLK
  5
66D
330
661
100
AcDbEntity
  8
0
100
AcDbBlockEnd
  0
BLOCK
  5
67A
330
66F
100
AcDbEntity
  8
0
100
AcDbBlockBegin
  2
*D40
 70
     1
 10
0.0
 20
0.0
 30
0.0
  3
*D40
  1

  0
LINE
  5
9EB
330
66F
100
AcDbEntity
  8
DIM
 62
     0
370
    -2
100
AcDbLine
 10
7.252608999999999
 20
3.237622999999999
 30
0.0
 11
7.252608999999999
 21
2.395042
 31
0.0
  0
LINE
  5
9EC
330
66F
100
AcDbEntity
  8
DIM
 62
     0
370
    -2
100
AcDbLine
 10
7.19104
 20
3.237622999999999
 30
0.0
 11
7.19104
 21
2.395042
 31
0.0
  0
LINE
  5
9ED
330
66F
100
AcDbEntity
  8
DIM
 62
     0
370
    -2
100
AcDbLine
 10
7.432608999999999
 20
2.488042
 30
0.0
 11
7.612608999999999
 21
2.488042
 31
0.0
  0
LINE
  5
9EE
330
66F
100
AcDbEntity
  8
DIM
 62
     0
370
    -2
100
AcDbLine
 10
7.01104
 20
2.488042
 30
0.0
 11
6.831039999999999
 21
2.488042
 31
0.0
  0
SOLID
  5
9EF
330
66F
100
AcDbEntity
  8
DIM
 62
     0
100
AcDbTrace
 10
7.432608999999999
 20
2.518041999999999
 30
0.0
 11
7.432608999999999
 21
2.458042
 31
0.0
 12
7.252608999999999
 22
2.488042
 32
0.0
 13
7.252608999999999
 23
2.488042
 33
0.0
  0
SOLID
  5
9F0
330
66F
100
AcDbEntity
  8
DIM
 62
     0
100
AcDbTrace
 10
7.01104
 20
2.518041999999999
 30
0.0
 11
7.01104
 21
2.458042
 31
0.0
 12
7.19104
 22
2.488042
 32
0.0
 13
7.19104
 23
2.488042
 33
0.0
  0
MTEXT
  5
9F1
330
66F
100
AcDbEntity
  8
DIM
 62
     0
100
AcDbMText
 10
6.569164999999999
 20
2.488042
 30
0.0
 40
0.125
 41
0.0
 71
     5
 72
     1
  1
\A1;0.062
  7
TXT
 73
     1
 44
1.0
  0
POINT
  5
9F2
330
66F
100
AcDbEntity
  8
DEFPOINTS
 62
     0
100
AcDbPoint
 10
7.252608999999999
 20
3.300622999999999
 30
0.0
  0
POINT
  5
9F3
330
66F
100
AcDbEntity
  8
DEFPOINTS
 62
     0
100
AcDbPoint
 10
7.19104
 20
3.300622999999999
 30
0.0
  0
POINT
  5
9F4
330
66F
100
AcDbEntity
  8
DEFPOINTS
 62
     0
100
AcDbPoint
 10
7.19104
 20
2.488042
 30
0.0
  0
ENDBLK
  5
67B
330
66F
100
AcDbEntity
  8
0
100
AcDbBlockEnd
  0
BLOCK
  5
690
330
685
100
AcDbEntity
  8
0
100
AcDbBlockBegin
  2
*D41
 70
     1
 10
0.0
 20
0.0
 30
0.0
  3
*D41
  1

  0
LINE
  5
9F5
330
685
100
AcDbEntity
  8
DIM
 62
     0
370
    -2
100
AcDbLine
 10
7.19104
 20
2.404672999999999
 30
0.0
 11
7.19104
 21
2.078006
 31
0.0
  0
LINE
  5
9F6
330
685
100
AcDbEntity
  8
DIM
 62
     0
370
    -2
100
AcDbLine
 10
7.093721999999999
 20
2.754724999999999
 30
0.0
 11
7.093721999999999
 21
2.078006
 31
0.0
  0
LINE
  5
9F7
330
685
100
AcDbEntity
  8
DIM
 62
     0
370
    -2
100
AcDbLine
 10
7.371039999999999
 20
2.171006
 30
0.0
 11
7.55104
 21
2.171006
 31
0.0
  0
LINE
  5
9F8
330
685
100
AcDbEntity
  8
DIM
 62
     0
370
    -2
100
AcDbLine
 10
6.913721999999999
 20
2.171006
 30
0.0
 11
6.733721999999999
 21
2.171006
 31
0.0
  0
SOLID
  5
9F9
330
685
100
AcDbEntity
  8
DIM
 62
     0
100
AcDbTrace
 10
7.371039999999999
 20
2.201006
 30
0.0
 11
7.371039999999999
 21
2.141006
 31
0.0
 12
7.19104
 22
2.171006
 32
0.0
 13
7.19104
 23
2.171006
 33
0.0
  0
SOLID
  5
9FA
330
685
100
AcDbEntity
  8
DIM
 62
     0
100
AcDbTrace
 10
6.913721999999999
 20
2.201006
 30
0.0
 11
6.913721999999999
 21
2.141006
 31
0.0
 12
7.093721999999999
 22
2.171006
 32
0.0
 13
7.093721999999999
 23
2.171006
 33
0.0
  0
MTEXT
  5
9FB
330
685
100
AcDbEntity
  8
DIM
 62
     0
100
AcDbMText
 10
6.471846999999999
 20
2.171006
 30
0.0
 40
0.125
 41
0.0
 71
     5
 72
     1
  1
\A1;0.097
  7
TXT
 73
     1
 44
1.0
  0
POINT
  5
9FC
330
685
100
AcDbEntity
  8
DEFPOINTS
 62
     0
100
AcDbPoint
 10
7.19104
 20
2.467673
 30
0.0
  0
POINT
  5
9FD
330
685
100
AcDbEntity
  8
DEFPOINTS
 62
     0
100
AcDbPoint
 10
7.093721999999999
 20
2.817724999999999
 30
0.0
  0
POINT
  5
9FE
330
685
100
AcDbEntity
  8
DEFPOINTS
 62
     0
100
AcDbPoint
 10
7.093721999999999
 20
2.171006
 30
0.0
  0
ENDBLK
  5
691
330
685
100
AcDbEntity
  8
0
100
AcDbBlockEnd
  0
BLOCK
  5
6B0
330
6A5
100
AcDbEntity
  8
0
100
AcDbBlockBegin
  2
*D42
 70
     1
 10
0.0
 20
0.0
 30
0.0
  3
*D42
  1

  0
LINE
  5
88F
330
6A5
100
AcDbEntity
  8
DIM
 62
     0
370
    -2
100
AcDbLine
 10
7.607128
 20
3.99372
 30
0.0
 11
7.607128
 21
4.735847999999999
 31
0.0
  0
LINE
  5
890
330
6A5
100
AcDbEntity
  8
DIM
 62
     0
370
    -2
100
AcDbLine
 10
7.022222
 20
4.040092999999999
 30
0.0
 11
7.022222
 21
4.735847999999999
 31
0.0
  0
LINE
  5
891
330
6A5
100
AcDbEntity
  8
DIM
 62
     0
370
    -2
100
AcDbLine
 10
7.787128
 20
4.642847999999999
 30
0.0
 11
7.967128
 21
4.642847999999999
 31
0.0
  0
LINE
  5
892
330
6A5
100
AcDbEntity
  8
DIM
 62
     0
370
    -2
100
AcDbLine
 10
6.842222
 20
4.642847999999999
 30
0.0
 11
6.662221999999999
 21
4.642847999999999
 31
0.0
  0
SOLID
  5
893
330
6A5
100
AcDbEntity
  8
DIM
 62
     0
100
AcDbTrace
 10
7.787128
 20
4.672848
 30
0.0
 11
7.787128
 21
4.612847999999999
 31
0.0
 12
7.607128
 22
4.642847999999999
 32
0.0
 13
7.607128
 23
4.642847999999999
 33
0.0
  0
SOLID
  5
894
330
6A5
100
AcDbEntity
  8
DIM
 62
     0
100
AcDbTrace
 10
6.842222
 20
4.672848
 30
0.0
 11
6.842222
 21
4.612847999999999
 31
0.0
 12
7.022222
 22
4.642847999999999
 32
0.0
 13
7.022222
 23
4.642847999999999
 33
0.0
  0
MTEXT
  5
895
330
6A5
100
AcDbEntity
  8
DIM
 62
     0
100
AcDbMText
 10
7.314675
 20
4.642847999999999
 30
0.0
 40
0.125
 41
0.0
 71
     5
 72
     1
  1
\A1;0.585
  7
TXT
 73
     1
 44
1.0
  0
POINT
  5
896
330
6A5
100
AcDbEntity
  8
DEFPOINTS
 62
     0
100
AcDbPoint
 10
7.607128
 20
3.930719999999999
 30
0.0
  0
POINT
  5
897
330
6A5
100
AcDbEntity
  8
DEFPOINTS
 62
     0
100
AcDbPoint
 10
7.022222
 20
3.977092999999999
 30
0.0
  0
POINT
  5
898
330
6A5
100
AcDbEntity
  8
DEFPOINTS
 62
     0
100
AcDbPoint
 10
7.022222
 20
4.642847999999999
 30
0.0
  0
ENDBLK
  5
6B1
330
6A5
100
AcDbEntity
  8
0
100
AcDbBlockEnd
  0
BLOCK
  5
6BE
330
6B3
100
AcDbEntity
  8
0
100
AcDbBlockBegin
  2
*D43
 70
     1
 10
0.0
 20
0.0
 30
0.0
  3
*D43
  1

  0
LINE
  5
899
330
6B3
100
AcDbEntity
  8
DIM
 62
     0
370
    -2
100
AcDbLine
 10
7.093721999999999
 20
4.034207
 30
0.0
 11
7.093721999999999
 21
4.454797
 31
0.0
  0
LINE
  5
89A
330
6B3
100
AcDbEntity
  8
DIM
 62
     0
370
    -2
100
AcDbLine
 10
7.536621
 20
3.993604
 30
0.0
 11
7.536621
 21
4.454797
 31
0.0
  0
LINE
  5
89B
330
6B3
100
AcDbEntity
  8
DIM
 62
     0
370
    -2
100
AcDbLine
 10
6.913721999999999
 20
4.361797
 30
0.0
 11
6.733721999999999
 21
4.361797
 31
0.0
  0
LINE
  5
89C
330
6B3
100
AcDbEntity
  8
DIM
 62
     0
370
    -2
100
AcDbLine
 10
7.716620999999999
 20
4.361797
 30
0.0
 11
7.896621
 21
4.361797
 31
0.0
  0
SOLID
  5
89D
330
6B3
100
AcDbEntity
  8
DIM
 62
     0
100
AcDbTrace
 10
6.913721999999999
 20
4.391797
 30
0.0
 11
6.913721999999999
 21
4.331796999999999
 31
0.0
 12
7.093721999999999
 22
4.361797
 32
0.0
 13
7.093721999999999
 23
4.361797
 33
0.0
  0
SOLID
  5
89E
330
6B3
100
AcDbEntity
  8
DIM
 62
     0
100
AcDbTrace
 10
7.716620999999999
 20
4.391797
 30
0.0
 11
7.716620999999999
 21
4.331796999999999
 31
0.0
 12
7.536621
 22
4.361797
 32
0.0
 13
7.536621
 23
4.361797
 33
0.0
  0
MTEXT
  5
89F
330
6B3
100
AcDbEntity
  8
DIM
 62
     0
100
AcDbMText
 10
7.315171499999999
 20
4.361797
 30
0.0
 40
0.125
 41
0.0
 71
     5
 72
     1
  1
\A1;0.443
  7
TXT
 73
     1
 44
1.0
  0
POINT
  5
8A0
330
6B3
100
AcDbEntity
  8
DEFPOINTS
 62
     0
100
AcDbPoint
 10
7.093721999999999
 20
3.971207
 30
0.0
  0
POINT
  5
8A1
330
6B3
100
AcDbEntity
  8
DEFPOINTS
 62
     0
100
AcDbPoint
 10
7.536621
 20
3.930604
 30
0.0
  0
POINT
  5
8A2
330
6B3
100
AcDbEntity
  8
DEFPOINTS
 62
     0
100
AcDbPoint
 10
7.536621
 20
4.361797
 30
0.0
  0
ENDBLK
  5
6BF
330
6B3
100
AcDbEntity
  8
0
100
AcDbBlockEnd
  0
BLOCK
  5
A17
330
A00
100
AcDbEntity
  8
0
100
AcDbBlockBegin
  2
HB
 70
     0
 10
0.0
 20
0.0
 30
0.0
  3
HB
  1

  0
LINE
  5
A01
330
A00
100
AcDbEntity
  8
TITLE
100
AcDbLine
 10
0.0
 20
15.5
 30
0.0
 11
10.11999999999999
 21
15.49999999999999
 31
0.0
  0
LINE
  5
A02
330
A00
100
AcDbEntity
  8
TITLE
100
AcDbLine
 10
10.11999999999999
 20
-0.0000000000000018
 30
0.0
 11
0.0
 21
0.0
 31
0.0
  0
LINE
  5
A03
330
A00
100
AcDbEntity
  8
TITLE
100
AcDbLine
 10
0.0620000000000012
 20
15.438
 30
0.0
 11
10.058
 21
15.438
 31
0.0
  0
LINE
  5
A04
330
A00
100
AcDbEntity
  8
TITLE
100
AcDbLine
 10
10.058
 20
0.0619999999999994
 30
0.0
 11
0.0619999999999976
 21
0.0620000000000012
 31
0.0
  0
LINE
  5
A05
330
A00
100
AcDbEntity
  8
TITLE
100
AcDbLine
 10
0.0620000000000012
 20
15.01999999999999
 30
0.0
 11
10.058
 21
15.01999999999999
 31
0.0
  0
LINE
  5
A06
330
A00
100
AcDbEntity
  8
TITLE
100
AcDbLine
 10
0.0
 20
0.0
 30
0.0
 11
0.0
 21
15.5
 31
0.0
  0
LINE
  5
A07
330
A00
100
AcDbEntity
  8
TITLE
100
AcDbLine
 10
0.0619999999999976
 20
0.0620000000000012
 30
0.0
 11
0.0620000000000012
 21
15.438
 31
0.0
  0
TEXT
  5
A08
330
A00
100
AcDbEntity
  8
TEXT
100
AcDbText
 10
0.2078333333333381
 20
15.26841252897341
 30
0.0
 40
0.125
  1
PART
  7
TXT
 72
     1
 11
0.4370000000000048
 21
15.26841252897341
 31
0.0
100
AcDbText
  0
TEXT
  5
A09
330
A00
100
AcDbEntity
  8
TEXT
100
AcDbText
 10
0.2078333333333381
 20
15.06007919564008
 30
0.0
 40
0.125
  1
NAME
  7
TXT
 72
     1
 11
0.4370000000000048
 21
15.06007919564008
 31
0.0
100
AcDbText
  0
LINE
  5
A0A
330
A00
100
AcDbEntity
  8
TITLE
100
AcDbLine
 10
0.8120000000000047
 20
15.01999999999999
 30
0.0
 11
0.8120000000000011
 21
15.438
 31
0.0
  0
LINE
  5
A0B
330
A00
100
AcDbEntity
  8
TITLE
100
AcDbLine
 10
10.11999999999999
 20
15.49999999999999
 30
0.0
 11
10.11999999999999
 21
-0.0000000000000018
 31
0.0
  0
LINE
  5
A0C
330
A00
100
AcDbEntity
  8
TITLE
100
AcDbLine
 10
10.058
 20
15.438
 30
0.0
 11
10.058
 21
0.0619999999999994
 31
0.0
  0
TEXT
  5
A0D
330
A00
100
AcDbEntity
  8
TEXT
100
AcDbText
 10
4.36183333333333
 20
15.26841252897341
 30
0.0
 40
0.125
  1
PART
  7
TXT
 72
     1
 11
4.590999999999997
 21
15.26841252897341
 31
0.0
100
AcDbText
  0
LINE
  5
A0E
330
A00
100
AcDbEntity
  8
TITLE
100
AcDbLine
 10
4.153999999999999
 20
15.438
 30
0.0
 11
4.153999999999999
 21
15.01999999999999
 31
0.0
  0
LINE
  5
A0F
330
A00
100
AcDbEntity
  8
TITLE
100
AcDbLine
 10
4.215999999999997
 20
15.438
 30
0.0
 11
4.215999999999997
 21
15.01999999999999
 31
0.0
  0
TEXT
  5
A10
330
A00
100
AcDbEntity
  8
TEXT
100
AcDbText
 10
4.465999999999997
 20
15.06007919564008
 30
0.0
 40
0.125
  1
No.
  7
TXT
 72
     1
 11
4.590999999999997
 21
15.06007919564008
 31
0.0
100
AcDbText
  0
LINE
  5
A11
330
A00
100
AcDbEntity
  8
TITLE
100
AcDbLine
 10
4.965999999999997
 20
15.438
 30
0.0
 11
4.965999999999997
 21
15.01999999999999
 31
0.0
  0
LINE
  5
A12
330
A00
100
AcDbEntity
  8
TITLE
100
AcDbLine
 10
8.307999999999999
 20
15.438
 30
0.0
 11
8.307999999999999
 21
15.02
 31
0.0
  0
LINE
  5
A13
330
A00
100
AcDbEntity
  8
TITLE
100
AcDbLine
 10
8.245999999999988
 20
15.438
 30
0.0
 11
8.245999999999988
 21
15.02
 31
0.0
  0
TEXT
  5
A14
330
A00
100
AcDbEntity
  8
TEXT
100
AcDbText
 10
8.453833333333333
 20
15.06007919564008
 30
0.0
 40
0.125
  1
DATE
  7
TXT
 72
     1
 11
8.682999999999999
 21
15.06007919564008
 31
0.0
100
AcDbText
  0
TEXT
  5
A15
330
A00
100
AcDbEntity
  8
TEXT
100
AcDbText
 10
8.474666666666665
 20
15.26841252897341
 30
0.0
 40
0.125
  1
REV.
  7
TXT
 72
     1
 11
8.682999999999999
 21
15.26841252897341
 31
0.0
100
AcDbText
  0
LINE
  5
A16
330
A00
100
AcDbEntity
  8
TITLE
100
AcDbLine
 10
9.057999999999999
 20
15.438
 30
0.0
 11
9.057999999999999
 21
15.02
 31
0.0
  0
ENDBLK
  5
A18
330
A00
100
AcDbEntity
  8
0
100
AcDbBlockEnd
  0
ENDSEC
  0
SECTION
  2
ENTITIES
  0
LINE
  5
27C
330
1E
100
AcDbEntity
  8
HIDDEN
100
AcDbLine
 10
2.621256999999999
 20
10.521361
 30
0.0
 11
5.808574
 21
10.521361
 31
0.0
  0
LINE
  5
27D
330
1E
100
AcDbEntity
  8
HIDDEN
100
AcDbLine
 10
2.964667
 20
10.583923
 30
0.0
 11
5.465163999999999
 21
10.583923
 31
0.0
  0
LINE
  5
27E
330
1E
100
AcDbEntity
  8
OBJECT
100
AcDbLine
 10
2.964667
 20
11.804991
 30
0.0
 11
5.465163999999999
 21
11.804991
 31
0.0
  0
LINE
  5
27F
330
1E
100
AcDbEntity
  8
OBJECT
100
AcDbLine
 10
2.964667
 20
13.242926
 30
0.0
 11
5.465163999999999
 21
13.242926
 31
0.0
  0
LINE
  5
280
330
1E
100
AcDbEntity
  8
OBJECT
100
AcDbLine
 10
2.620849
 20
10.614708
 30
0.0
 11
5.808981
 21
10.614708
 31
0.0
  0
LINE
  5
281
330
1E
100
AcDbEntity
  8
OBJECT
100
AcDbLine
 10
2.455233
 20
10.264162
 30
0.0
 11
5.974598
 21
10.264162
 31
0.0
  0
LINE
  5
282
330
1E
100
AcDbEntity
  8
OBJECT
100
AcDbLine
 10
2.683634
 20
13.408765
 30
0.0
 11
5.746196
 21
13.408765
 31
0.0
  0
LINE
  5
283
330
1E
100
AcDbEntity
  8
OBJECT
100
AcDbLine
 10
2.683634
 20
11.63915199999999
 30
0.0
 11
5.746196
 21
11.63915199999999
 31
0.0
  0
ARC
  5
284
330
1E
100
AcDbEntity
  8
OBJECT
100
AcDbCircle
 10
5.808981
 20
10.459544
 30
0.0
 40
0.155164
100
AcDbArc
 50
3.0
 51
90.0
  0
LINE
  5
285
330
1E
100
AcDbEntity
  8
OBJECT
100
AcDbLine
 10
5.974598
 20
10.264162
 30
0.0
 11
5.963931999999999
 21
10.467665
 31
0.0
  0
LINE
  5
286
330
1E
100
AcDbEntity
  8
HIDDEN
100
AcDbLine
 10
5.589790999999999
 20
10.290974
 30
0.0
 11
5.777477
 21
10.290974
 31
0.0
  0
LINE
  5
287
330
1E
100
AcDbEntity
  8
HIDDEN
100
AcDbLine
 10
5.589790999999999
 20
10.290974
 30
0.0
 11
5.58577
 21
10.521361
 31
0.0
  0
LINE
  5
288
330
1E
100
AcDbEntity
  8
HIDDEN
100
AcDbLine
 10
5.777477
 20
10.290974
 30
0.0
 11
5.781499
 21
10.521361
 31
0.0
  0
LINE
  5
289
330
1E
100
AcDbEntity
  8
HIDDEN
100
AcDbLine
 10
5.728818
 20
10.290974
 30
0.0
 11
5.724796999999999
 21
10.521361
 31
0.0
  0
LINE
  5
28A
330
1E
100
AcDbEntity
  8
HIDDEN
100
AcDbLine
 10
5.638450999999999
 20
10.290974
 30
0.0
 11
5.642471999999999
 21
10.521361
 31
0.0
  0
ARC
  5
28B
330
1E
100
AcDbEntity
  8
HIDDEN
100
AcDbCircle
 10
5.808574
 20
10.459296
 30
0.0
 40
0.062066
100
AcDbArc
 50
3.0
 51
90.0
  0
LINE
  5
28C
330
1E
100
AcDbEntity
  8
HIDDEN
100
AcDbLine
 10
5.927923999999999
 20
10.201599
 30
0.0
 11
5.931203
 21
10.264162
 31
0.0
  0
LINE
  5
28D
330
1E
100
AcDbEntity
  8
HIDDEN
100
AcDbLine
 10
5.884229999999999
 20
10.201599
 30
0.0
 11
5.870555
 21
10.462544
 31
0.0
  0
LINE
  5
28E
330
1E
100
AcDbEntity
  8
HIDDEN
100
AcDbLine
 10
5.465163999999999
 20
10.583923
 30
0.0
 11
5.465163999999999
 21
10.614708
 31
0.0
  0
LINE
  5
28F
330
1E
100
AcDbEntity
  8
OBJECT
100
AcDbLine
 10
5.465163999999999
 20
13.242926
 30
0.0
 11
5.465163999999999
 21
11.804991
 31
0.0
  0
LINE
  5
290
330
1E
100
AcDbEntity
  8
OBJECT
100
AcDbLine
 10
5.974598
 20
13.180364
 30
0.0
 11
5.974598
 21
11.86755299999999
 31
0.0
  0
ARC
  5
291
330
1E
100
AcDbEntity
  8
OBJECT
100
AcDbCircle
 10
5.746196
 20
11.86755299999999
 30
0.0
 40
0.228401
100
AcDbArc
 50
270.0
 51
0.0
  0
ARC
  5
292
330
1E
100
AcDbEntity
  8
OBJECT
100
AcDbCircle
 10
5.746196
 20
13.180364
 30
0.0
 40
0.228401
100
AcDbArc
 50
0.0
 51
90.0
  0
ARC
  5
293
330
1E
100
AcDbEntity
  8
HIDDEN
100
AcDbCircle
 10
4.214915
 20
10.204827
 30
0.0
 40
0.031033
100
AcDbArc
 50
180.0
 51
0.0
  0
LINE
  5
294
330
1E
100
AcDbEntity
  8
HIDDEN
100
AcDbLine
 10
4.136961
 20
10.290974
 30
0.0
 11
4.292869999999999
 21
10.290974
 31
0.0
  0
LINE
  5
295
330
1E
100
AcDbEntity
  8
HIDDEN
100
AcDbLine
 10
4.245948
 20
10.290974
 30
0.0
 11
4.24997
 21
10.521361
 31
0.0
  0
LINE
  5
296
330
1E
100
AcDbEntity
  8
HIDDEN
100
AcDbLine
 10
4.292869999999999
 20
10.290974
 30
0.0
 11
4.296890999999999
 21
10.521361
 31
0.0
  0
LINE
  5
297
330
1E
100
AcDbEntity
  8
HIDDEN
100
AcDbLine
 10
4.245948
 20
10.204827
 30
0.0
 11
4.245948
 21
10.290974
 31
0.0
  0
LINE
  5
298
330
1E
100
AcDbEntity
  8
HIDDEN
100
AcDbLine
 10
4.183882999999999
 20
10.290974
 30
0.0
 11
4.179860999999999
 21
10.521361
 31
0.0
  0
LINE
  5
299
330
1E
100
AcDbEntity
  8
HIDDEN
100
AcDbLine
 10
4.136961
 20
10.290974
 30
0.0
 11
4.132939999999999
 21
10.521361
 31
0.0
  0
LINE
  5
29A
330
1E
100
AcDbEntity
  8
HIDDEN
100
AcDbLine
 10
4.183882999999999
 20
10.204827
 30
0.0
 11
4.183882999999999
 21
10.290974
 31
0.0
  0
LINE
  5
29B
330
1E
100
AcDbEntity
  8
HIDDEN
100
AcDbLine
 10
3.264568
 20
10.521361
 30
0.0
 11
3.264568
 21
10.583923
 31
0.0
  0
LINE
  5
29C
330
1E
100
AcDbEntity
  8
HIDDEN
100
AcDbLine
 10
3.114616999999999
 20
10.521361
 30
0.0
 11
3.114616999999999
 21
10.583923
 31
0.0
  0
LINE
  5
29D
330
1E
100
AcDbEntity
  8
HIDDEN
100
AcDbLine
 10
2.964667
 20
10.583923
 30
0.0
 11
2.964667
 21
10.614708
 31
0.0
  0
ARC
  5
29E
330
1E
100
AcDbEntity
  8
OBJECT
100
AcDbCircle
 10
2.620849
 20
10.459544
 30
0.0
 40
0.155164
100
AcDbArc
 50
90.0
 51
177.0
  0
LINE
  5
29F
330
1E
100
AcDbEntity
  8
OBJECT
100
AcDbLine
 10
2.455233
 20
10.264162
 30
0.0
 11
2.465898
 21
10.467665
 31
0.0
  0
LINE
  5
2A0
330
1E
100
AcDbEntity
  8
HIDDEN
100
AcDbLine
 10
2.79138
 20
10.290974
 30
0.0
 11
2.787358999999999
 21
10.521361
 31
0.0
  0
LINE
  5
2A1
330
1E
100
AcDbEntity
  8
HIDDEN
100
AcDbLine
 10
2.840038999999999
 20
10.290974
 30
0.0
 11
2.652353
 21
10.290974
 31
0.0
  0
LINE
  5
2A2
330
1E
100
AcDbEntity
  8
HIDDEN
100
AcDbLine
 10
2.840038999999999
 20
10.290974
 30
0.0
 11
2.844060999999999
 21
10.521361
 31
0.0
  0
LINE
  5
2A3
330
1E
100
AcDbEntity
  8
HIDDEN
100
AcDbLine
 10
2.701013
 20
10.290974
 30
0.0
 11
2.705033999999999
 21
10.521361
 31
0.0
  0
LINE
  5
2A4
330
1E
100
AcDbEntity
  8
HIDDEN
100
AcDbLine
 10
2.652353
 20
10.290974
 30
0.0
 11
2.648331999999999
 21
10.521361
 31
0.0
  0
ARC
  5
2A5
330
1E
100
AcDbEntity
  8
HIDDEN
100
AcDbCircle
 10
2.621256999999999
 20
10.459296
 30
0.0
 40
0.062066
100
AcDbArc
 50
90.0
 51
177.0
  0
LINE
  5
2A6
330
1E
100
AcDbEntity
  8
HIDDEN
100
AcDbLine
 10
2.501905999999999
 20
10.201599
 30
0.0
 11
2.498628
 21
10.264162
 31
0.0
  0
LINE
  5
2A7
330
1E
100
AcDbEntity
  8
HIDDEN
100
AcDbLine
 10
2.545601
 20
10.201599
 30
0.0
 11
2.559276
 21
10.462544
 31
0.0
  0
LINE
  5
2A8
330
1E
100
AcDbEntity
  8
OBJECT
100
AcDbLine
 10
2.964667
 20
13.242926
 30
0.0
 11
2.964667
 21
11.804991
 31
0.0
  0
LINE
  5
2A9
330
1E
100
AcDbEntity
  8
OBJECT
100
AcDbLine
 10
2.455233
 20
13.180364
 30
0.0
 11
2.455233
 21
11.86755299999999
 31
0.0
  0
ARC
  5
2AA
330
1E
100
AcDbEntity
  8
HIDDEN
  6
HIDDEN2
100
AcDbCircle
 10
4.214915
 20
12.57088
 30
0.0
 40
0.031033
100
AcDbArc
 50
0.0
 51
180.0
  0
ARC
  5
2AB
330
1E
100
AcDbEntity
  8
HIDDEN
  6
HIDDEN2
100
AcDbCircle
 10
4.214915
 20
12.47703699999999
 30
0.0
 40
0.031033
100
AcDbArc
 50
180.0
 51
0.0
  0
CIRCLE
  5
2AC
330
1E
100
AcDbEntity
  8
HIDDEN
100
AcDbCircle
 10
4.214915
 20
12.523959
 30
0.0
 40
0.031033
  0
LINE
  5
2AD
330
1E
100
AcDbEntity
  8
HIDDEN
  6
HIDDEN2
100
AcDbLine
 10
4.245948
 20
12.47703699999999
 30
0.0
 11
4.245948
 21
12.492926
 31
0.0
  0
LINE
  5
2AE
330
1E
100
AcDbEntity
  8
HIDDEN
  6
HIDDEN2
100
AcDbLine
 10
4.245948
 20
12.55499099999999
 30
0.0
 11
4.245948
 21
12.57088
 31
0.0
  0
ARC
  5
2AF
330
1E
100
AcDbEntity
  8
HIDDEN
  6
HIDDEN2
100
AcDbCircle
 10
4.261836999999999
 20
12.523959
 30
0.0
 40
0.031033
100
AcDbArc
 50
270.0
 51
90.0
  0
LINE
  5
2B0
330
1E
100
AcDbEntity
  8
HIDDEN
  6
HIDDEN2
100
AcDbLine
 10
4.261836999999999
 20
12.492926
 30
0.0
 11
4.245948
 21
12.492926
 31
0.0
  0
LINE
  5
2B1
330
1E
100
AcDbEntity
  8
HIDDEN
  6
HIDDEN2
100
AcDbLine
 10
4.261836999999999
 20
12.55499099999999
 30
0.0
 11
4.245948
 21
12.55499099999999
 31
0.0
  0
ARC
  5
2B2
330
1E
100
AcDbEntity
  8
HIDDEN
  6
HIDDEN2
100
AcDbCircle
 10
4.167994
 20
12.523959
 30
0.0
 40
0.031033
100
AcDbArc
 50
90.0
 51
270.0
  0
LINE
  5
2B3
330
1E
100
AcDbEntity
  8
HIDDEN
  6
HIDDEN2
100
AcDbLine
 10
4.183882999999999
 20
12.492926
 30
0.0
 11
4.167994
 21
12.492926
 31
0.0
  0
LINE
  5
2B4
330
1E
100
AcDbEntity
  8
HIDDEN
  6
HIDDEN2
100
AcDbLine
 10
4.183882999999999
 20
12.47703699999999
 30
0.0
 11
4.183882999999999
 21
12.492926
 31
0.0
  0
LINE
  5
2B5
330
1E
100
AcDbEntity
  8
HIDDEN
  6
HIDDEN2
100
AcDbLine
 10
4.183882999999999
 20
12.55499099999999
 30
0.0
 11
4.167994
 21
12.55499099999999
 31
0.0
  0
LINE
  5
2B6
330
1E
100
AcDbEntity
  8
HIDDEN
  6
HIDDEN2
100
AcDbLine
 10
4.183882999999999
 20
12.55499099999999
 30
0.0
 11
4.183882999999999
 21
12.57088
 31
0.0
  0
LINE
  5
2B7
330
1E
100
AcDbEntity
  8
OBJECT
100
AcDbLine
 10
3.114616999999999
 20
13.024955
 30
0.0
 11
3.114616999999999
 21
12.024462
 31
0.0
  0
LINE
  5
2B8
330
1E
100
AcDbEntity
  8
OBJECT
100
AcDbLine
 10
3.264568
 20
13.024955
 30
0.0
 11
3.264568
 21
12.024462
 31
0.0
  0
LINE
  5
2B9
330
1E
100
AcDbEntity
  8
OBJECT
100
AcDbLine
 10
3.264568
 20
12.024462
 30
0.0
 11
3.114616999999999
 21
12.024462
 31
0.0
  0
LINE
  5
2BA
330
1E
100
AcDbEntity
  8
OBJECT
100
AcDbLine
 10
3.264568
 20
13.024955
 30
0.0
 11
3.114616999999999
 21
13.024955
 31
0.0
  0
ARC
  5
2BB
330
1E
100
AcDbEntity
  8
OBJECT
100
AcDbCircle
 10
2.683634
 20
11.86755299999999
 30
0.0
 40
0.228401
100
AcDbArc
 50
180.0
 51
270.0
  0
ARC
  5
2BC
330
1E
100
AcDbEntity
  8
OBJECT
100
AcDbCircle
 10
2.683634
 20
13.180364
 30
0.0
 40
0.228401
100
AcDbArc
 50
90.0
 51
180.0
  0
LINE
  5
2BD
330
1E
100
AcDbEntity
  8
HIDDEN
100
AcDbLine
 10
8.037594999999999
 20
13.242741
 30
0.0
 11
8.037594999999999
 21
11.80517599999999
 31
0.0
  0
LINE
  5
2BE
330
1E
100
AcDbEntity
  8
HIDDEN
100
AcDbLine
 10
7.975032999999999
 20
13.242926
 30
0.0
 11
7.975032999999999
 21
11.804991
 31
0.0
  0
LINE
  5
2BF
330
1E
100
AcDbEntity
  8
OBJECT
100
AcDbLine
 10
7.944249
 20
13.243149
 30
0.0
 11
7.944249
 21
11.804769
 31
0.0
  0
LINE
  5
2C0
330
1E
100
AcDbEntity
  8
OBJECT
100
AcDbLine
 10
8.294795
 20
13.408765
 30
0.0
 11
8.294795
 21
11.63915199999999
 31
0.0
  0
ARC
  5
2C1
330
1E
100
AcDbEntity
  8
HIDDEN
100
AcDbCircle
 10
8.099660999999999
 20
11.80517599999999
 30
0.0
 40
0.062066
100
AcDbArc
 50
180.0
 51
267.0
  0
ARC
  5
2C2
330
1E
100
AcDbEntity
  8
OBJECT
100
AcDbCircle
 10
8.099413
 20
11.804769
 30
0.0
 40
0.155164
100
AcDbArc
 50
180.0
 51
267.0
  0
LINE
  5
2C3
330
1E
100
AcDbEntity
  8
HIDDEN
100
AcDbLine
 10
8.357357
 20
11.685825
 30
0.0
 11
8.294795
 21
11.682547
 31
0.0
  0
LINE
  5
2C4
330
1E
100
AcDbEntity
  8
HIDDEN
100
AcDbLine
 10
8.357357
 20
11.72952
 30
0.0
 11
8.096413
 21
11.74319499999999
 31
0.0
  0
LINE
  5
2C5
330
1E
100
AcDbEntity
  8
OBJECT
100
AcDbLine
 10
8.294795
 20
11.63915199999999
 30
0.0
 11
8.091291999999999
 21
11.649817
 31
0.0
  0
LINE
  5
2C6
330
1E
100
AcDbEntity
  8
HIDDEN
100
AcDbLine
 10
7.975032999999999
 20
11.804991
 30
0.0
 11
7.944249
 21
11.804991
 31
0.0
  0
LINE
  5
2C7
330
1E
100
AcDbEntity
  8
HIDDEN
100
AcDbLine
 10
8.037594999999999
 20
12.023462
 30
0.0
 11
7.975032999999999
 21
12.023462
 31
0.0
  0
LINE
  5
2C8
330
1E
100
AcDbEntity
  8
HIDDEN
100
AcDbLine
 10
8.037594999999999
 20
13.024455
 30
0.0
 11
7.975032999999999
 21
13.024455
 31
0.0
  0
LINE
  5
2C9
330
1E
100
AcDbEntity
  8
HIDDEN
100
AcDbLine
 10
8.267982999999999
 20
12.617802
 30
0.0
 11
8.267982999999999
 21
12.430115
 31
0.0
  0
LINE
  5
2CA
330
1E
100
AcDbEntity
  8
HIDDEN
100
AcDbLine
 10
8.267982999999999
 20
12.430115
 30
0.0
 11
8.037594999999999
 21
12.426094
 31
0.0
  0
LINE
  5
2CB
330
1E
100
AcDbEntity
  8
HIDDEN
100
AcDbLine
 10
8.267982999999999
 20
12.478775
 30
0.0
 11
8.037594999999999
 21
12.482796
 31
0.0
  0
LINE
  5
2CC
330
1E
100
AcDbEntity
  8
HIDDEN
100
AcDbLine
 10
8.267982999999999
 20
12.617802
 30
0.0
 11
8.037594999999999
 21
12.621823
 31
0.0
  0
LINE
  5
2CD
330
1E
100
AcDbEntity
  8
HIDDEN
100
AcDbLine
 10
8.267982999999999
 20
12.56914199999999
 30
0.0
 11
8.037594999999999
 21
12.565121
 31
0.0
  0
ARC
  5
2CE
330
1E
100
AcDbEntity
  8
OBJECT
100
AcDbCircle
 10
8.099413
 20
13.243149
 30
0.0
 40
0.155164
100
AcDbArc
 50
93.0
 51
180.0
  0
LINE
  5
2CF
330
1E
100
AcDbEntity
  8
HIDDEN
100
AcDbLine
 10
8.357357
 20
13.362092
 30
0.0
 11
8.294795
 21
13.36537
 31
0.0
  0
LINE
  5
2D0
330
1E
100
AcDbEntity
  8
HIDDEN
100
AcDbLine
 10
8.357357
 20
13.31839699999999
 30
0.0
 11
8.096413
 21
13.30472199999999
 31
0.0
  0
ARC
  5
2D1
330
1E
100
AcDbEntity
  8
HIDDEN
100
AcDbCircle
 10
8.099660999999999
 20
13.242741
 30
0.0
 40
0.062066
100
AcDbArc
 50
93.0
 51
180.0
  0
LINE
  5
2D2
330
1E
100
AcDbEntity
  8
HIDDEN
100
AcDbLine
 10
7.975032999999999
 20
13.242926
 30
0.0
 11
7.944249
 21
13.242926
 31
0.0
  0
LINE
  5
2D3
330
1E
100
AcDbEntity
  8
OBJECT
100
AcDbLine
 10
8.294795
 20
13.408765
 30
0.0
 11
8.091291999999999
 21
13.39809999999999
 31
0.0
  0
LINE
  5
2D4
330
1E
100
AcDbEntity
  8
OBJECT
100
AcDbLine
 10
2.455233
 20
10.238342
 30
0.0
 11
5.974598
 21
10.238342
 31
0.0
  0
LINE
  5
2D5
330
1E
100
AcDbEntity
  8
OBJECT
100
AcDbLine
 10
2.620849
 20
9.887795999999999
 30
0.0
 11
5.808981
 21
9.887795999999999
 31
0.0
  0
LINE
  5
2D6
330
1E
100
AcDbEntity
  8
HIDDEN
100
AcDbLine
 10
2.621017
 20
9.981142999999999
 30
0.0
 11
5.808812999999999
 21
9.981142999999999
 31
0.0
  0
LINE
  5
2D7
330
1E
100
AcDbEntity
  8
HIDDEN
100
AcDbLine
 10
2.499859999999999
 20
10.201599
 30
0.0
 11
5.929971
 21
10.201599
 31
0.0
  0
LINE
  5
2D8
330
1E
100
AcDbEntity
  8
HIDDEN
100
AcDbLine
 10
2.858906999999999
 20
9.931494
 30
0.0
 11
2.633484999999999
 21
9.931494
 31
0.0
  0
LINE
  5
2D9
330
1E
100
AcDbEntity
  8
HIDDEN
100
AcDbLine
 10
2.840038999999999
 20
10.228412
 30
0.0
 11
2.652353
 21
10.228412
 31
0.0
  0
LINE
  5
2DA
330
1E
100
AcDbEntity
  8
HIDDEN
100
AcDbLine
 10
2.81576
 20
9.98113
 30
0.0
 11
2.676632999999999
 21
9.98113
 31
0.0
  0
LINE
  5
2DB
330
1E
100
AcDbEntity
  8
HIDDEN
100
AcDbLine
 10
3.089790999999999
 20
9.897726999999999
 30
0.0
 11
4.839542999999999
 21
9.897726999999999
 31
0.0
  0
LINE
  5
2DC
330
1E
100
AcDbEntity
  8
HIDDEN
100
AcDbLine
 10
5.589790999999999
 20
10.228412
 30
0.0
 11
5.777477
 21
10.228412
 31
0.0
  0
LINE
  5
2DD
330
1E
100
AcDbEntity
  8
HIDDEN
100
AcDbLine
 10
5.570922999999999
 20
9.931494
 30
0.0
 11
5.796344999999999
 21
9.931494
 31
0.0
  0
LINE
  5
2DE
330
1E
100
AcDbEntity
  8
HIDDEN
100
AcDbLine
 10
5.753198
 20
9.98113
 30
0.0
 11
5.796344999999999
 21
9.931494
 31
0.0
  0
LINE
  5
2DF
330
1E
100
AcDbEntity
  8
HIDDEN
100
AcDbLine
 10
5.929971
 20
10.201599
 30
0.0
 11
5.931896
 21
10.238342
 31
0.0
  0
ARC
  5
2E0
330
1E
100
AcDbEntity
  8
OBJECT
100
AcDbCircle
 10
5.808981
 20
10.04296
 30
0.0
 40
0.155164
100
AcDbArc
 50
270.0
 51
357.0
  0
ARC
  5
2E1
330
1E
100
AcDbEntity
  8
HIDDEN
100
AcDbCircle
 10
5.808812999999999
 20
10.043208
 30
0.0
 40
0.062066
100
AcDbArc
 50
270.0
 51
357.0
  0
LINE
  5
2E2
330
1E
100
AcDbEntity
  8
HIDDEN
100
AcDbLine
 10
5.796344999999999
 20
9.931494
 30
0.0
 11
5.798634999999999
 21
9.887795999999999
 31
0.0
  0
LINE
  5
2E3
330
1E
100
AcDbEntity
  8
OBJECT
100
AcDbLine
 10
5.974598
 20
10.238342
 30
0.0
 11
5.963931999999999
 21
10.03483899999999
 31
0.0
  0
LINE
  5
2E4
330
1E
100
AcDbEntity
  8
HIDDEN
100
AcDbLine
 10
5.879265
 20
10.201599
 30
0.0
 11
5.870794
 21
10.03996
 31
0.0
  0
LINE
  5
2E5
330
1E
100
AcDbEntity
  8
HIDDEN
100
AcDbLine
 10
5.777477
 20
10.228412
 30
0.0
 11
5.790435999999999
 21
9.981142999999999
 31
0.0
  0
LINE
  5
2E6
330
1E
100
AcDbEntity
  8
HIDDEN
100
AcDbLine
 10
5.753198
 20
9.98113
 30
0.0
 11
5.614071
 21
9.98113
 31
0.0
  0
LINE
  5
2E7
330
1E
100
AcDbEntity
  8
HIDDEN
100
AcDbLine
 10
5.570922999999999
 20
9.931494
 30
0.0
 11
5.568633
 21
9.887795999999999
 31
0.0
  0
LINE
  5
2E8
330
1E
100
AcDbEntity
  8
HIDDEN
100
AcDbLine
 10
5.614071
 20
9.98113
 30
0.0
 11
5.570922999999999
 21
9.931494
 31
0.0
  0
LINE
  5
2E9
330
1E
100
AcDbEntity
  8
HIDDEN
100
AcDbLine
 10
5.740237999999999
 20
10.228412
 30
0.0
 11
5.753198
 21
9.98113
 31
0.0
  0
LINE
  5
2EA
330
1E
100
AcDbEntity
  8
HIDDEN
100
AcDbLine
 10
5.627030999999999
 20
10.228412
 30
0.0
 11
5.614071
 21
9.98113
 31
0.0
  0
LINE
  5
2EB
330
1E
100
AcDbEntity
  8
HIDDEN
100
AcDbLine
 10
5.589790999999999
 20
10.228412
 30
0.0
 11
5.576831999999999
 21
9.981142999999999
 31
0.0
  0
LINE
  5
2EC
330
1E
100
AcDbEntity
  8
HIDDEN
100
AcDbLine
 10
4.839542999999999
 20
9.897726999999999
 30
0.0
 11
4.839542999999999
 21
9.887795999999999
 31
0.0
  0
LINE
  5
2ED
330
1E
100
AcDbEntity
  8
HIDDEN
100
AcDbLine
 10
4.136961
 20
10.228412
 30
0.0
 11
4.292869999999999
 21
10.228412
 31
0.0
  0
LINE
  5
2EE
330
1E
100
AcDbEntity
  8
HIDDEN
100
AcDbLine
 10
4.183882999999999
 20
10.228412
 30
0.0
 11
4.183882999999999
 21
9.981142999999999
 31
0.0
  0
LINE
  5
2EF
330
1E
100
AcDbEntity
  8
HIDDEN
100
AcDbLine
 10
4.292869999999999
 20
10.228412
 30
0.0
 11
4.297185999999999
 21
9.981142999999999
 31
0.0
  0
LINE
  5
2F0
330
1E
100
AcDbEntity
  8
HIDDEN
100
AcDbLine
 10
4.245948
 20
10.228412
 30
0.0
 11
4.245948
 21
9.981142999999999
 31
0.0
  0
LINE
  5
2F1
330
1E
100
AcDbEntity
  8
HIDDEN
100
AcDbLine
 10
4.136961
 20
10.228412
 30
0.0
 11
4.132645
 21
9.981142999999999
 31
0.0
  0
LINE
  5
2F2
330
1E
100
AcDbEntity
  8
HIDDEN
100
AcDbLine
 10
3.089790999999999
 20
9.897726999999999
 30
0.0
 11
3.089790999999999
 21
9.887795999999999
 31
0.0
  0
LINE
  5
2F3
330
1E
100
AcDbEntity
  8
HIDDEN
100
AcDbLine
 10
2.858906999999999
 20
9.931494
 30
0.0
 11
2.861197999999999
 21
9.887795999999999
 31
0.0
  0
LINE
  5
2F4
330
1E
100
AcDbEntity
  8
HIDDEN
100
AcDbLine
 10
2.81576
 20
9.98113
 30
0.0
 11
2.858906999999999
 21
9.931494
 31
0.0
  0
LINE
  5
2F5
330
1E
100
AcDbEntity
  8
HIDDEN
100
AcDbLine
 10
2.746195999999999
 20
9.931494
 30
0.0
 11
2.746195999999999
 21
9.931494
 31
0.0
  0
LINE
  5
2F6
330
1E
100
AcDbEntity
  8
HIDDEN
100
AcDbLine
 10
2.746195999999999
 20
9.931494
 30
0.0
 11
2.746195999999999
 21
9.931494
 31
0.0
  0
LINE
  5
2F7
330
1E
100
AcDbEntity
  8
HIDDEN
100
AcDbLine
 10
2.802799999999999
 20
10.228412
 30
0.0
 11
2.81576
 21
9.98113
 31
0.0
  0
LINE
  5
2F8
330
1E
100
AcDbEntity
  8
HIDDEN
100
AcDbLine
 10
2.840038999999999
 20
10.228412
 30
0.0
 11
2.852997999999999
 21
9.981142999999999
 31
0.0
  0
LINE
  5
2F9
330
1E
100
AcDbEntity
  8
HIDDEN
100
AcDbLine
 10
2.499859999999999
 20
10.201599
 30
0.0
 11
2.497933999999999
 21
10.238342
 31
0.0
  0
LINE
  5
2FA
330
1E
100
AcDbEntity
  8
HIDDEN
100
AcDbLine
 10
2.676632999999999
 20
9.98113
 30
0.0
 11
2.633484999999999
 21
9.931494
 31
0.0
  0
LINE
  5
2FB
330
1E
100
AcDbEntity
  8
HIDDEN
100
AcDbLine
 10
2.633484999999999
 20
9.931494
 30
0.0
 11
2.631194999999999
 21
9.887795999999999
 31
0.0
  0
ARC
  5
2FC
330
1E
100
AcDbEntity
  8
HIDDEN
100
AcDbCircle
 10
2.621017
 20
10.043208
 30
0.0
 40
0.062066
100
AcDbArc
 50
183.0
 51
270.0
  0
ARC
  5
2FD
330
1E
100
AcDbEntity
  8
OBJECT
100
AcDbCircle
 10
2.620849
 20
10.04296
 30
0.0
 40
0.155164
100
AcDbArc
 50
183.0
 51
270.0
  0
LINE
  5
2FE
330
1E
100
AcDbEntity
  8
HIDDEN
100
AcDbLine
 10
2.652353
 20
10.228412
 30
0.0
 11
2.639393999999999
 21
9.981142999999999
 31
0.0
  0
LINE
  5
2FF
330
1E
100
AcDbEntity
  8
HIDDEN
100
AcDbLine
 10
2.689592999999999
 20
10.228412
 30
0.0
 11
2.676632999999999
 21
9.98113
 31
0.0
  0
LINE
  5
300
330
1E
100
AcDbEntity
  8
OBJECT
100
AcDbLine
 10
2.455233
 20
10.238342
 30
0.0
 11
2.465898
 21
10.03483899999999
 31
0.0
  0
LINE
  5
301
330
1E
100
AcDbEntity
  8
OBJECT
100
AcDbLine
 10
2.455233
 20
10.238342
 30
0.0
 11
2.465898
 21
10.03483899999999
 31
0.0
  0
LINE
  5
302
330
1E
100
AcDbEntity
  8
HIDDEN
100
AcDbLine
 10
2.550565999999999
 20
10.201599
 30
0.0
 11
2.559037
 21
10.03996
 31
0.0
  0
LINE
  5
303
330
1E
100
AcDbEntity
  8
OBJECT
100
AcDbLine
 10
8.67116
 20
13.243149
 30
0.0
 11
8.67116
 21
11.804769
 31
0.0
  0
LINE
  5
304
330
1E
100
AcDbEntity
  8
HIDDEN
100
AcDbLine
 10
8.577814
 20
13.242981
 30
0.0
 11
8.577814
 21
11.80493599999999
 31
0.0
  0
LINE
  5
305
330
1E
100
AcDbEntity
  8
HIDDEN
100
AcDbLine
 10
8.661229999999999
 20
13.14908299999999
 30
0.0
 11
8.661229999999999
 21
11.898834
 31
0.0
  0
LINE
  5
306
330
1E
100
AcDbEntity
  8
HIDDEN
100
AcDbLine
 10
8.357357
 20
13.364138
 30
0.0
 11
8.357357
 21
11.683779
 31
0.0
  0
LINE
  5
307
330
1E
100
AcDbEntity
  8
OBJECT
100
AcDbLine
 10
8.320614
 20
13.408765
 30
0.0
 11
8.320614
 21
11.63915199999999
 31
0.0
  0
LINE
  5
308
330
1E
100
AcDbEntity
  8
HIDDEN
100
AcDbLine
 10
8.357357
 20
11.73448499999999
 30
0.0
 11
8.518995999999999
 21
11.74295599999999
 31
0.0
  0
LINE
  5
309
330
1E
100
AcDbEntity
  8
OBJECT
100
AcDbLine
 10
8.320614
 20
11.63915199999999
 30
0.0
 11
8.524117
 21
11.649817
 31
0.0
  0
LINE
  5
30A
330
1E
100
AcDbEntity
  8
HIDDEN
100
AcDbLine
 10
8.357357
 20
11.683779
 30
0.0
 11
8.320614
 21
11.68185299999999
 31
0.0
  0
ARC
  5
30B
330
1E
100
AcDbEntity
  8
OBJECT
100
AcDbCircle
 10
8.515995999999999
 20
11.804769
 30
0.0
 40
0.155164
100
AcDbArc
 50
273.0
 51
0.0
  0
ARC
  5
30C
330
1E
100
AcDbEntity
  8
HIDDEN
100
AcDbCircle
 10
8.515748
 20
11.80493599999999
 30
0.0
 40
0.062066
100
AcDbArc
 50
273.0
 51
0.0
  0
LINE
  5
30D
330
1E
100
AcDbEntity
  8
HIDDEN
100
AcDbLine
 10
8.661229999999999
 20
11.898834
 30
0.0
 11
8.67116
 21
11.898834
 31
0.0
  0
LINE
  5
30E
330
1E
100
AcDbEntity
  8
HIDDEN
100
AcDbLine
 10
8.330545
 20
12.580562
 30
0.0
 11
8.577825999999999
 21
12.593522
 31
0.0
  0
LINE
  5
30F
330
1E
100
AcDbEntity
  8
HIDDEN
100
AcDbLine
 10
8.330545
 20
12.617802
 30
0.0
 11
8.577814
 21
12.63076
 31
0.0
  0
LINE
  5
310
330
1E
100
AcDbEntity
  8
HIDDEN
100
AcDbLine
 10
8.330545
 20
12.46735499999999
 30
0.0
 11
8.577825999999999
 21
12.454395
 31
0.0
  0
LINE
  5
311
330
1E
100
AcDbEntity
  8
HIDDEN
100
AcDbLine
 10
8.330545
 20
12.430115
 30
0.0
 11
8.577814
 21
12.417157
 31
0.0
  0
LINE
  5
312
330
1E
100
AcDbEntity
  8
HIDDEN
100
AcDbLine
 10
8.330545
 20
12.430115
 30
0.0
 11
8.330545
 21
12.617802
 31
0.0
  0
LINE
  5
313
330
1E
100
AcDbEntity
  8
HIDDEN
100
AcDbLine
 10
8.577825999999999
 20
12.454395
 30
0.0
 11
8.577825999999999
 21
12.593522
 31
0.0
  0
LINE
  5
314
330
1E
100
AcDbEntity
  8
HIDDEN
100
AcDbLine
 10
8.627461999999999
 20
12.411247
 30
0.0
 11
8.627461999999999
 21
12.63667
 31
0.0
  0
LINE
  5
315
330
1E
100
AcDbEntity
  8
HIDDEN
100
AcDbLine
 10
8.577825999999999
 20
12.454395
 30
0.0
 11
8.627461999999999
 21
12.411247
 31
0.0
  0
LINE
  5
316
330
1E
100
AcDbEntity
  8
HIDDEN
100
AcDbLine
 10
8.627461999999999
 20
12.411247
 30
0.0
 11
8.67116
 21
12.408957
 31
0.0
  0
LINE
  5
317
330
1E
100
AcDbEntity
  8
HIDDEN
100
AcDbLine
 10
8.577825999999999
 20
12.593522
 30
0.0
 11
8.627461999999999
 21
12.63667
 31
0.0
  0
LINE
  5
318
330
1E
100
AcDbEntity
  8
HIDDEN
100
AcDbLine
 10
8.627461999999999
 20
12.63667
 30
0.0
 11
8.67116
 21
12.63896
 31
0.0
  0
ARC
  5
319
330
1E
100
AcDbEntity
  8
OBJECT
100
AcDbCircle
 10
8.515995999999999
 20
13.243149
 30
0.0
 40
0.155164
100
AcDbArc
 50
0.0
 51
87.0
  0
LINE
  5
31A
330
1E
100
AcDbEntity
  8
HIDDEN
100
AcDbLine
 10
8.357357
 20
13.313432
 30
0.0
 11
8.518995999999999
 21
13.304961
 31
0.0
  0
LINE
  5
31B
330
1E
100
AcDbEntity
  8
HIDDEN
100
AcDbLine
 10
8.357357
 20
13.364138
 30
0.0
 11
8.320614
 21
13.36606399999999
 31
0.0
  0
ARC
  5
31C
330
1E
100
AcDbEntity
  8
HIDDEN
100
AcDbCircle
 10
8.515748
 20
13.242981
 30
0.0
 40
0.062066
100
AcDbArc
 50
0.0
 51
87.0
  0
LINE
  5
31D
330
1E
100
AcDbEntity
  8
HIDDEN
100
AcDbLine
 10
8.661229999999999
 20
13.14908299999999
 30
0.0
 11
8.67116
 21
13.14908299999999
 31
0.0
  0
LINE
  5
31E
330
1E
100
AcDbEntity
  8
OBJECT
100
AcDbLine
 10
8.320614
 20
13.408765
 30
0.0
 11
8.524117
 21
13.39809999999999
 31
0.0
  0
LINE
  5
31F
330
1E
100
AcDbEntity
  8
BEND
100
AcDbLine
 10
2.589841999999999
 20
11.773761
 30
0.0
 11
5.839989
 21
11.773761
 31
0.0
  0
LINE
  5
320
330
1E
100
AcDbEntity
  8
BEND
100
AcDbLine
 10
2.589841999999999
 20
11.773761
 30
0.0
 11
2.589841999999999
 21
13.274156
 31
0.0
  0
LINE
  5
321
330
1E
100
AcDbEntity
  8
BEND
100
AcDbLine
 10
2.589841999999999
 20
13.274156
 30
0.0
 11
5.839989
 21
13.274156
 31
0.0
  0
LINE
  5
322
330
1E
100
AcDbEntity
  8
BEND
100
AcDbLine
 10
5.839989
 20
11.773761
 30
0.0
 11
5.839989
 21
13.274156
 31
0.0
  0
DIMENSION
  5
323
330
1E
100
AcDbEntity
  8
DIM
100
AcDbDimension
  2
*D0
 10
5.839989
 20
13.737931
 30
0.0
 11
4.2149155
 21
13.737931
 31
0.0
 70
    32
  1
<>*
 71
     5
 42
3.250147
  3
23NSTD
100
AcDbAlignedDimension
 13
2.589841999999999
 23
13.274156
 33
0.0
 14
5.839989
 24
13.274156
 34
0.0
100
AcDbRotatedDimension
  0
DIMENSION
  5
331
330
1E
100
AcDbEntity
  8
DIM
100
AcDbDimension
  2
*D1
 10
6.908829000000001
 20
13.274156
 30
0.0
 11
6.908828999999999
 21
12.622844
 31
0.0
 70
   160
  1
<>*
 71
     5
 42
1.500394999999999
  3
23NSTD
100
AcDbAlignedDimension
 13
5.839989
 23
11.773761
 33
0.0
 14
5.839989
 24
13.274156
 34
0.0
 50
270.0
100
AcDbRotatedDimension
  0
DIMENSION
  5
33F
330
1E
100
AcDbEntity
  8
DIM
100
AcDbDimension
  2
*D2
 10
2.746195999999999
 20
8.590813
 30
0.0
 11
4.214914999999999
 21
8.590813
 31
0.0
 70
    32
 71
     5
 42
2.937437999999999
  3
23NSTD
100
AcDbAlignedDimension
 13
5.683633999999999
 23
7.409316999999999
 33
0.0
 14
2.746195999999999
 24
7.409316999999999
 34
0.0
 50
180.0
100
AcDbRotatedDimension
  0
DIMENSION
  5
34D
330
1E
100
AcDbEntity
  8
DIM
100
AcDbDimension
  2
*D3
 10
8.267982999999999
 20
11.342463
 30
0.0
 11
7.646107999999999
 21
11.342463
 31
0.0
 70
    32
 71
     5
 42
0.0625620000000016
  3
23NSTD
100
AcDbAlignedDimension
 13
8.330545
 23
12.430115
 33
0.0
 14
8.267982999999999
 24
12.430115
 34
0.0
100
AcDbRotatedDimension
  0
DIMENSION
  5
35B
330
1E
100
AcDbEntity
  8
DIM
100
AcDbDimension
  2
*D4
 10
8.037594999999999
 20
10.65438
 30
0.0
 11
7.415719999999999
 21
10.65438
 31
0.0
 70
    32
 71
     5
 42
0.2303879999999996
  3
23NSTD
100
AcDbAlignedDimension
 13
8.267982999999999
 23
12.430115
 33
0.0
 14
8.037594999999999
 24
11.80517599999999
 34
0.0
100
AcDbRotatedDimension
  0
DIMENSION
  5
369
330
1E
100
AcDbEntity
  8
DIM
100
AcDbDimension
  2
*D5
 10
8.577814
 20
10.992361
 30
0.0
 11
9.207501499999999
 21
10.992361
 31
0.0
 70
    32
 71
     5
 42
0.2472689999999993
  3
23NSTD
100
AcDbAlignedDimension
 13
8.330545
 23
12.430115
 33
0.0
 14
8.577814
 24
11.80493599999999
 34
0.0
100
AcDbRotatedDimension
  0
DIMENSION
  5
377
330
1E
100
AcDbEntity
  8
DIM
100
AcDbDimension
  2
*D6
 10
7.944249
 20
14.060646
 30
0.0
 11
8.307704499999999
 21
14.060646
 31
0.0
 70
    32
 71
     5
 42
0.7269110000000003
  3
23NSTDI
100
AcDbAlignedDimension
 13
8.67116
 23
13.243149
 33
0.0
 14
7.944249
 24
13.243149
 34
0.0
100
AcDbRotatedDimension
  0
DIMENSION
  5
385
330
1E
100
AcDbEntity
  8
DIM
100
AcDbDimension
  2
*D7
 10
7.545421
 20
13.408765
 30
0.0
 11
7.545420999999998
 21
12.524219
 31
0.0
 70
    32
 71
     5
 42
1.769092
  3
23NSTD
100
AcDbAlignedDimension
 13
8.284864
 23
11.639673
 33
0.0
 14
8.294795
 24
13.408765
 34
0.0
 50
270.0
100
AcDbRotatedDimension
  0
DIMENSION
  5
393
330
1E
100
AcDbEntity
  8
DIM
100
AcDbDimension
  2
*D8
 10
2.455233
 20
9.288605999999999
 30
0.0
 11
4.2149155
 21
9.288605999999999
 31
0.0
 70
    32
 71
     5
 42
3.519365
  3
23NSTD
100
AcDbAlignedDimension
 13
5.974598
 23
10.238342
 33
0.0
 14
2.455233
 24
10.238342
 34
0.0
100
AcDbRotatedDimension
  0
TEXT
  5
3A1
330
1E
100
AcDbEntity
  8
DIM
100
AcDbText
 10
8.993024999999999
 20
10.74033
 30
0.0
 40
0.125
  1
BOSS HEIGHT
 41
0.75
  7
TXT
100
AcDbText
  0
TEXT
  5
3A2
330
1E
100
AcDbEntity
  8
DIM
100
AcDbText
 10
6.651347
 20
10.410021
 30
0.0
 40
0.125
  1
BOSS HEIGHT
 41
0.75
  7
TXT
100
AcDbText
  0
ARC
  5
3A3
330
1E
100
AcDbEntity
  8
OBJECT
100
AcDbCircle
 10
2.683634
 20
8.065721999999999
 30
0.0
 40
0.228401
100
AcDbArc
 50
90.0
 51
180.0
  0
ARC
  5
3A4
330
1E
100
AcDbEntity
  8
OBJECT
100
AcDbCircle
 10
5.746196
 20
8.065721999999999
 30
0.0
 40
0.228401
100
AcDbArc
 50
0.0
 51
90.0
  0
ARC
  5
3A5
330
1E
100
AcDbEntity
  8
OBJECT
100
AcDbCircle
 10
2.683634
 20
6.752911
 30
0.0
 40
0.228401
100
AcDbArc
 50
180.0
 51
270.0
  0
ARC
  5
3A6
330
1E
100
AcDbEntity
  8
OBJECT
100
AcDbCircle
 10
5.746196
 20
6.752911
 30
0.0
 40
0.228401
100
AcDbArc
 50
270.0
 51
0.0
  0
LINE
  5
3A7
330
1E
100
AcDbEntity
  8
OBJECT
100
AcDbLine
 10
2.683634
 20
6.52451
 30
0.0
 11
5.746196
 21
6.52451
 31
0.0
  0
LINE
  5
3A8
330
1E
100
AcDbEntity
  8
OBJECT
100
AcDbLine
 10
5.974598
 20
8.065721999999999
 30
0.0
 11
5.974598
 21
6.752911
 31
0.0
  0
LINE
  5
3A9
330
1E
100
AcDbEntity
  8
OBJECT
100
AcDbLine
 10
2.455233
 20
8.065721999999999
 30
0.0
 11
2.455233
 21
6.752911
 31
0.0
  0
LINE
  5
3AA
330
1E
100
AcDbEntity
  8
OBJECT
100
AcDbLine
 10
2.683634
 20
8.294123
 30
0.0
 11
5.746196
 21
8.294123
 31
0.0
  0
LINE
  5
3AB
330
1E
100
AcDbEntity
  8
OBJECT
100
AcDbLine
 10
3.089790999999999
 20
8.034316999999999
 30
0.0
 11
4.839542999999999
 21
8.034316999999999
 31
0.0
  0
LINE
  5
3AC
330
1E
100
AcDbEntity
  8
OBJECT
100
AcDbLine
 10
3.089790999999999
 20
6.784316999999999
 30
0.0
 11
4.839542999999999
 21
6.784316999999999
 31
0.0
  0
LINE
  5
3AD
330
1E
100
AcDbEntity
  8
OBJECT
100
AcDbLine
 10
3.089790999999999
 20
9.887795999999999
 30
0.0
 11
3.089790999999999
 21
9.88892
 31
0.0
  0
LINE
  5
3AE
330
1E
100
AcDbEntity
  8
OBJECT
100
AcDbLine
 10
3.089790999999999
 20
8.034316999999999
 30
0.0
 11
3.089790999999999
 21
6.784316999999999
 31
0.0
  0
LINE
  5
3AF
330
1E
100
AcDbEntity
  8
OBJECT
100
AcDbLine
 10
4.839542999999999
 20
8.034316999999999
 30
0.0
 11
4.839542999999999
 21
6.784316999999999
 31
0.0
  0
DIMENSION
  5
3B0
330
1E
100
AcDbEntity
  8
DIM
100
AcDbDimension
  2
*D9
 10
8.037594999999999
 20
13.737931
 30
0.0
 11
8.307704499999999
 21
13.737931
 31
0.0
 70
    32
 71
     5
 42
0.5402190000000005
  3
23NSTDI
100
AcDbAlignedDimension
 13
8.577814
 23
13.242981
 33
0.0
 14
8.037594999999999
 24
13.242741
 34
0.0
100
AcDbRotatedDimension
  0
DIMENSION
  5
3BE
330
1E
100
AcDbEntity
  8
DIM
100
AcDbDimension
  2
*D10
 10
5.465163999999999
 20
11.342463
 30
0.0
 11
4.2149155
 21
11.342463
 31
0.0
 70
    32
 71
     5
 42
2.500496999999999
  3
23NSTDI
100
AcDbAlignedDimension
 13
2.964667
 23
11.804991
 33
0.0
 14
5.465163999999999
 24
11.804991
 34
0.0
100
AcDbRotatedDimension
  0
DIMENSION
  5
3CC
330
1E
100
AcDbEntity
  8
DIM
100
AcDbDimension
  2
*D11
 10
2.455233
 20
11.342463
 30
0.0
 11
2.70995
 21
11.342463
 31
0.0
 70
    32
 71
     5
 42
0.5094339999999998
  3
23NSTDI
100
AcDbAlignedDimension
 13
2.964667
 23
11.804991
 33
0.0
 14
2.455233
 24
11.86755299999999
 34
0.0
100
AcDbRotatedDimension
  0
DIMENSION
  5
3DA
330
1E
100
AcDbEntity
  8
DIM
100
AcDbDimension
  2
*D12
 10
3.264568
 20
14.018931
 30
0.0
 11
4.198942999999999
 21
14.018931
 31
0.0
 70
    32
  1
<> CUTOUT
 71
     5
 42
0.1499510000000002
  3
23NSTD
100
AcDbAlignedDimension
 13
3.114616999999999
 23
13.024955
 33
0.0
 14
3.264568
 24
13.024955
 34
0.0
100
AcDbRotatedDimension
  0
DIMENSION
  5
3E8
330
1E
100
AcDbEntity
  8
DIM
100
AcDbDimension
  2
*D13
 10
2.455233
 20
14.299931
 30
0.0
 11
2.784925
 21
14.299931
 31
0.0
 70
    32
 71
     5
 42
0.6593839999999998
  3
23NSTDI
100
AcDbAlignedDimension
 13
3.114616999999999
 23
13.024955
 33
0.0
 14
2.455233
 24
13.180364
 34
0.0
100
AcDbRotatedDimension
  0
DIMENSION
  5
3F6
330
1E
100
AcDbEntity
  8
DIM
100
AcDbDimension
  2
*D14
 10
1.772188
 20
12.024462
 30
0.0
 11
1.772187999999998
 21
12.52470849999999
 31
0.0
 70
    32
  1
<> CUTOUT
 71
     5
 42
1.000493
  3
23NSTDI
100
AcDbAlignedDimension
 13
3.114616999999999
 23
13.024955
 33
0.0
 14
3.114616999999999
 24
12.024462
 34
0.0
 50
270.0
100
AcDbRotatedDimension
  0
DIMENSION
  5
404
330
1E
100
AcDbEntity
  8
DIM
100
AcDbDimension
  2
*D15
 10
1.772188
 20
13.408765
 30
0.0
 11
1.772187999999998
 21
13.21686
 31
0.0
 70
    32
 71
     5
 42
0.3838100000000004
  3
23NSTDI
100
AcDbAlignedDimension
 13
3.114616999999999
 23
13.024955
 33
0.0
 14
2.683634
 24
13.408765
 34
0.0
 50
270.0
100
AcDbRotatedDimension
  0
DIMENSION
  5
412
330
1E
100
AcDbEntity
  8
DIM
100
AcDbDimension
  2
*D16
 10
6.393665000000002
 20
13.242926
 30
0.0
 11
6.393665
 21
12.413931
 31
0.0
 70
   160
 71
     5
 42
1.437935000000001
  3
23NSTD
100
AcDbAlignedDimension
 13
5.465163999999999
 23
11.804991
 33
0.0
 14
5.465163999999999
 24
13.242926
 34
0.0
 50
270.0
100
AcDbRotatedDimension
  0
DIMENSION
  5
420
330
1E
100
AcDbEntity
  8
DIM
100
AcDbDimension
  2
*D17
 10
6.393665
 20
8.294123
 30
0.0
 11
6.393664999999999
 21
7.851720000000002
 31
0.0
 70
    32
 71
     5
 42
0.8848060000000019
  3
23NSTDI
100
AcDbAlignedDimension
 13
5.683633999999999
 23
7.409316999999999
 33
0.0
 14
5.746196
 24
8.294123
 34
0.0
 50
90.0
100
AcDbRotatedDimension
  0
DIMENSION
  5
42E
330
1E
100
AcDbEntity
  8
DIM
100
AcDbDimension
  2
*D18
 10
2.455233
 20
8.590813
 30
0.0
 11
1.8411705
 21
8.590813
 31
0.0
 70
    32
 71
     5
 42
0.2909629999999996
  3
23NSTD
100
AcDbAlignedDimension
 13
2.746195999999999
 23
7.409316999999999
 33
0.0
 14
2.455233
 24
8.065721999999999
 34
0.0
100
AcDbRotatedDimension
  0
DIMENSION
  5
43C
330
1E
100
AcDbEntity
  8
DIM
100
AcDbDimension
  2
*D19
 10
3.089790999999999
 20
6.199766999999999
 30
0.0
 11
3.964667
 21
6.199766999999999
 31
0.0
 70
    32
 71
     5
 42
1.749751999999999
  3
23NSTD
100
AcDbAlignedDimension
 13
4.839542999999999
 23
6.784316999999999
 33
0.0
 14
3.089790999999999
 24
6.784316999999999
 34
0.0
100
AcDbRotatedDimension
  0
DIMENSION
  5
44A
330
1E
100
AcDbEntity
  8
DIM
100
AcDbDimension
  2
*D20
 10
2.455233
 20
6.199766999999999
 30
0.0
 11
2.772511999999999
 21
6.199766999999999
 31
0.0
 70
    32
 71
     5
 42
0.6345579999999998
  3
23NSTDI
100
AcDbAlignedDimension
 13
3.089790999999999
 23
6.784316999999999
 33
0.0
 14
2.455233
 24
6.752911
 34
0.0
100
AcDbRotatedDimension
  0
DIMENSION
  5
458
330
1E
100
AcDbEntity
  8
DIM
100
AcDbDimension
  2
*D21
 10
1.999413
 20
6.784317
 30
0.0
 11
1.999412999999998
 21
7.409316999999999
 31
0.0
 70
    32
 71
     5
 42
1.249999999999999
  3
23NSTD
100
AcDbAlignedDimension
 13
3.089790999999999
 23
8.034316999999999
 33
0.0
 14
3.089790999999999
 24
6.784316999999999
 34
0.0
 50
90.0
100
AcDbRotatedDimension
  0
LWPOLYLINE
  5
466
330
1E
100
AcDbEntity
  8
DIM
100
AcDbPolyline
 90
        4
 70
     0
 10
4.703927
 20
12.977392
 40
0.0
 41
0.0675
 10
4.777218999999999
 20
13.141795
 40
0.0
 41
0.0
 10
5.259863
 20
14.209139
 40
0.0
 41
0.0
 10
5.439862999999999
 20
14.209139
 40
0.0
 41
0.0
  0
TEXT
  5
46C
330
1E
100
AcDbEntity
  8
DIM
100
AcDbText
 10
5.529862999999999
 20
14.146639
 30
0.0
 40
0.125
  1
SMOOTH RECESSED PAD
 41
0.75
  7
TXT
 11
5.529862999999999
 21
14.209139
 31
0.0
100
AcDbText
 73
     2
  0
TEXT
  5
46D
330
1E
100
AcDbEntity
  8
DIM
100
AcDbText
 10
5.529862999999999
 20
13.93830499999999
 30
0.0
 40
0.125
  1
0.030 DEEP
 41
0.75
  7
TXT
 11
5.529862999999999
 21
14.000805
 31
0.0
100
AcDbText
 73
     2
  0
TEXT
  5
46E
330
1E
100
AcDbEntity
  8
TEXT
100
AcDbText
 10
4.58872
 20
14.441466
 30
0.0
 40
0.125
  1
* MAX. PC BOARD DIMENSIONS
 41
0.75
  7
TXT
100
AcDbText
  0
CIRCLE
  5
46F
330
1E
100
AcDbEntity
  8
HIDDEN
100
AcDbCircle
 10
4.214915
 20
7.409316999999999
 30
0.0
 40
0.078
  0
CIRCLE
  5
470
330
1E
100
AcDbEntity
  8
HIDDEN
100
AcDbCircle
 10
4.214915
 20
7.409316999999999
 30
0.0
 40
0.031
  0
CIRCLE
  5
471
330
1E
100
AcDbEntity
  8
HIDDEN
100
AcDbCircle
 10
5.683633999999999
 20
12.523959
 30
0.0
 40
0.093843
  0
CIRCLE
  5
472
330
1E
100
AcDbEntity
  8
HIDDEN
100
AcDbCircle
 10
5.683633999999999
 20
12.523959
 30
0.0
 40
0.045184
  0
CIRCLE
  5
473
330
1E
100
AcDbEntity
  8
HIDDEN
100
AcDbCircle
 10
2.746195999999999
 20
12.523959
 30
0.0
 40
0.093843
  0
CIRCLE
  5
474
330
1E
100
AcDbEntity
  8
HIDDEN
100
AcDbCircle
 10
2.746195999999999
 20
12.523959
 30
0.0
 40
0.045184
  0
LWPOLYLINE
  5
475
330
1E
100
AcDbEntity
  8
DIM
100
AcDbPolyline
 90
        4
 70
     0
 10
2.752810999999999
 20
12.465567
 40
0.0
 41
0.0675
 10
2.632499999999999
 20
12.331682
 40
0.0
 41
0.0
 10
1.892601999999999
 20
11.50830599999999
 40
0.0
 41
0.0
 10
1.712601999999999
 20
11.50830599999999
 40
0.0
 41
0.0
  0
TEXT
  5
47B
330
1E
100
AcDbEntity
  8
DIM
100
AcDbText
 10
0.5132270000000001
 20
11.445806
 30
0.0
 40
0.125
  1
REF. 0.125 DIA.
 41
0.75
  7
TXT
 72
     2
 11
1.622602
 21
11.50830599999999
 31
0.0
100
AcDbText
 73
     2
  0
TEXT
  5
47C
330
1E
100
AcDbEntity
  8
DIM
100
AcDbText
 10
0.8101020000000001
 20
11.237473
 30
0.0
 40
0.125
  1
HOLE THRU
 41
0.75
  7
TXT
 72
     2
 11
1.622602
 21
11.299973
 31
0.0
100
AcDbText
 73
     2
  0
TEXT
  5
47D
330
1E
100
AcDbEntity
  8
DIM
100
AcDbText
 10
0.9038520000000001
 20
11.02913999999999
 30
0.0
 40
0.125
  1
PC BOARD
 41
0.75
  7
TXT
 72
     2
 11
1.622602
 21
11.09164
 31
0.0
100
AcDbText
 73
     2
  0
TEXT
  5
47E
330
1E
100
AcDbEntity
  8
DIM
100
AcDbText
 10
0.7788520000000001
 20
10.820806
 30
0.0
 40
0.125
  1
(2) PLACES
 41
0.75
  7
TXT
 72
     2
 11
1.622602
 21
10.88330599999999
 31
0.0
100
AcDbText
 73
     2
  0
LWPOLYLINE
  5
47F
330
1E
100
AcDbEntity
  8
DIM
100
AcDbPolyline
 90
        4
 70
     0
 10
4.278464999999999
 20
12.481792
 40
0.0
 41
0.0675
 10
4.351417999999999
 20
12.317238
 40
0.0
 41
0.0
 10
4.91145
 20
11.054013
 40
0.0
 41
0.0
 10
5.09145
 20
11.054013
 40
0.0
 41
0.0
  0
TEXT
  5
485
330
1E
100
AcDbEntity
  8
DIM
100
AcDbText
 10
5.181449999999999
 20
10.99151299999999
 30
0.0
 40
0.125
  1
REF. 0.063 DIA. HOLE THRU
 41
0.75
  7
TXT
 11
5.181449999999999
 21
11.054013
 31
0.0
100
AcDbText
 73
     2
  0
TEXT
  5
486
330
1E
100
AcDbEntity
  8
DIM
100
AcDbText
 10
5.181449999999999
 20
10.78318
 30
0.0
 40
0.125
  1
PC BOARD (1) PLACE
 41
0.75
  7
TXT
 11
5.181449999999999
 21
10.84567999999999
 31
0.0
100
AcDbText
 73
     2
  0
LWPOLYLINE
  5
487
330
1E
100
AcDbEntity
  8
DIM
100
AcDbPolyline
 90
        4
 70
     0
 10
4.658592999999999
 20
7.388497
 40
0.0
 41
0.0675
 10
4.728355999999999
 20
7.222565999999999
 40
0.0
 41
0.0
 10
5.156366
 20
6.236678
 40
0.0
 41
0.0
 10
5.336365999999999
 20
6.236678
 40
0.0
 41
0.0
  0
TEXT
  5
48D
330
1E
100
AcDbEntity
  8
DIM
100
AcDbText
 10
5.406775589803148
 20
6.174178
 30
0.0
 40
0.125
  1
TEXTURED RECESSED PAD
 41
0.75
  7
TXT
 72
     2
 11
7.344275589803148
 21
6.236678
 31
0.0
100
AcDbText
 73
     2
  0
TEXT
  5
48E
330
1E
100
AcDbEntity
  8
DIM
100
AcDbText
 10
5.406775589803148
 20
5.965844999999999
 30
0.0
 40
0.125
  1
0.010 DEEP
 41
0.75
  7
TXT
 72
     2
 11
6.172400589803148
 21
6.028344999999999
 31
0.0
100
AcDbText
 73
     2
  0
LWPOLYLINE
  5
48F
330
1E
100
AcDbEntity
  8
DIM
100
AcDbPolyline
 90
        4
 70
     0
 10
2.658182
 20
10.337551
 40
0.0
 41
0.0675
 10
2.480218999999999
 20
10.310548
 40
0.0
 41
0.0
 10
2.142047999999999
 20
10.25118999999999
 40
0.0
 41
0.0
 10
1.962048
 20
10.25118999999999
 40
0.0
 41
0.0
  0
TEXT
  5
495
330
1E
100
AcDbEntity
  8
DIM
100
AcDbText
 10
0.2314229999999999
 20
10.18869
 30
0.0
 40
0.125
  1
0.188 DIA. BOSS WITH
 41
0.75
  7
TXT
 72
     2
 11
1.872047999999999
 21
10.25118999999999
 31
0.0
100
AcDbText
 73
     2
  0
TEXT
  5
496
330
1E
100
AcDbEntity
  8
DIM
100
AcDbText
 10
0.700173
 20
9.980356999999999
 30
0.0
 40
0.125
  1
0.090 DIA. HOLE
 41
0.75
  7
TXT
 72
     2
 11
1.872047999999999
 21
10.042857
 31
0.0
100
AcDbText
 73
     2
  0
TEXT
  5
497
330
1E
100
AcDbEntity
  8
DIM
100
AcDbText
 10
0.8720479999999998
 20
9.772023
 30
0.0
 40
0.125
  1
x 0.230 DEEP
 41
0.75
  7
TXT
 72
     2
 11
1.872047999999999
 21
9.834523
 31
0.0
100
AcDbText
 73
     2
  0
LWPOLYLINE
  5
498
330
1E
100
AcDbEntity
  8
DIM
100
AcDbPolyline
 90
        4
 70
     0
 10
5.787889999999999
 20
10.096753
 40
0.0
 41
0.0675
 10
5.956798
 20
10.03454499999999
 40
0.0
 41
0.0
 10
6.71302
 20
9.756033
 40
0.0
 41
0.0
 10
6.893019999999999
 20
9.756033
 40
0.0
 41
0.0
  0
TEXT
  5
49E
330
1E
100
AcDbEntity
  8
DIM
100
AcDbText
 10
6.983019999999999
 20
9.693533
 30
0.0
 40
0.125
  1
0.188 DIA. BOSS WITH
 41
0.75
  7
TXT
 11
6.983019999999999
 21
9.756033
 31
0.0
100
AcDbText
 73
     2
  0
TEXT
  5
49F
330
1E
100
AcDbEntity
  8
DIM
100
AcDbText
 10
6.983019999999999
 20
9.4852
 30
0.0
 40
0.125
  1
0.113 DIA. HOLE THRU
 41
0.75
  7
TXT
 11
6.983019999999999
 21
9.5477
 31
0.0
100
AcDbText
 73
     2
  0
TEXT
  5
4A0
330
1E
100
AcDbEntity
  8
DIM
100
AcDbText
 10
6.983019999999999
 20
9.276866999999999
 30
0.0
 40
0.125
  1
(2) PLACES
 41
0.75
  7
TXT
 11
6.983019999999999
 21
9.339366999999999
 31
0.0
100
AcDbText
 73
     2
  0
DIMENSION
  5
4A1
330
1E
100
AcDbEntity
  8
DIM
100
AcDbDimension
  2
*D22
 10
5.249338999999999
 20
9.887795999999999
 30
0.0
 11
4.807463999999999
 21
9.527796000000002
 31
0.0
 70
    32
 71
     5
 42
0.0933469999999996
  3
23NSTD
100
AcDbAlignedDimension
 13
5.256663999999999
 23
9.981142999999999
 33
0.0
 14
5.256663999999999
 24
9.887795999999999
 34
0.0
 50
90.0
100
AcDbRotatedDimension
  0
DIMENSION
  5
4AF
330
1E
100
AcDbEntity
  8
DIM
100
AcDbDimension
  2
*D23
 10
8.524117
 20
11.649817
 30
0.0
 11
9.747389549238398
 21
11.28555369731288
 31
0.0
 70
    34
  1
3%%D REF.
 71
     5
 42
0.052359189987014
  3
23NSTD
100
AcDb2LineAngularDimension
 13
8.320614
 23
11.63915199999999
 33
0.0
 14
7.356657
 24
11.63915199999999
 34
0.0
 15
8.320614
 25
11.63915199999999
 35
0.0
 16
9.278769285446143
 26
11.67261108012376
 36
0.0
  0
CIRCLE
  5
4C1
330
1E
100
AcDbEntity
  8
OBJECT
100
AcDbCircle
 10
2.746195999999999
 20
7.409316999999999
 30
0.0
 40
0.1125
  0
CIRCLE
  5
4C2
330
1E
100
AcDbEntity
  8
OBJECT
100
AcDbCircle
 10
2.746195999999999
 20
7.409316999999999
 30
0.0
 40
0.0695
  0
CIRCLE
  5
4C3
330
1E
100
AcDbEntity
  8
OBJECT
100
AcDbCircle
 10
5.683195999999999
 20
7.409316999999999
 30
0.0
 40
0.1125
  0
CIRCLE
  5
4C4
330
1E
100
AcDbEntity
  8
OBJECT
100
AcDbCircle
 10
5.683195999999999
 20
7.409316999999999
 30
0.0
 40
0.0695
  0
LWPOLYLINE
  5
4C5
330
1E
100
AcDbEntity
  8
DIM
100
AcDbPolyline
 90
        4
 70
     0
 10
4.142155999999999
 20
10.088012
 40
0.0
 41
0.0675
 10
4.044971
 20
9.936503
 40
0.0
 41
0.0
 10
3.495455999999999
 20
9.079817999999999
 40
0.0
 41
0.0
 10
3.315456
 20
9.079817999999999
 40
0.0
 41
0.0
  0
TEXT
  5
4CB
330
1E
100
AcDbEntity
  8
DIM
100
AcDbText
 10
1.584830999999999
 20
9.017317999999999
 30
0.0
 40
0.125
  1
0.156 DIA. BOSS WITH
 41
0.75
  7
TXT
 72
     2
 11
3.225455999999999
 21
9.079817999999999
 31
0.0
100
AcDbText
 73
     2
  0
TEXT
  5
4CC
330
1E
100
AcDbEntity
  8
DIM
100
AcDbText
 10
0.8973309999999997
 20
8.808984999999999
 30
0.0
 40
0.125
  1
0.062 DIA. HOLE x 0.247 DEEP
 41
0.75
  7
TXT
 72
     2
 11
3.225455999999999
 21
8.871484999999999
 31
0.0
100
AcDbText
 73
     2
  0
TEXT
  5
4CD
330
1E
100
AcDbEntity
  8
DIM
100
AcDbText
 10
1.028297999999999
 20
9.569648
 30
0.0
 40
0.125
  1
(2) PLACES
 41
0.75
  7
TXT
 72
     2
 11
1.872047999999999
 21
9.632148
 31
0.0
100
AcDbText
 73
     2
  0
LINE
  5
4DF
330
1E
100
AcDbEntity
  8
TITLE
100
AcDbLine
 10
0.062
 20
5.860738999999999
 30
0.0
 11
10.058
 21
5.860738999999999
 31
0.0
  0
LINE
  5
4E0
330
1E
100
AcDbEntity
  8
TITLE
100
AcDbLine
 10
0.062
 20
5.798739
 30
0.0
 11
10.058
 21
5.798739
 31
0.0
  0
LINE
  5
4E1
330
1E
100
AcDbEntity
  8
TITLE
100
AcDbLine
 10
0.062
 20
5.380739
 30
0.0
 11
10.058
 21
5.380739
 31
0.0
  0
TEXT
  5
4E2
330
1E
100
AcDbEntity
  8
TEXT
100
AcDbText
 10
6.927297
 20
8.543342
 30
0.0
 40
0.125
  1
MATERIAL: ABS (UL94V-O)
 41
0.75
  7
TXT
100
AcDbText
  0
TEXT
  5
4E3
330
1E
100
AcDbEntity
  8
TEXT
100
AcDbText
 10
6.927297
 20
8.335008999999999
 30
0.0
 40
0.125
  1
FINISH: BLACK TEXTURED
 41
0.75
  7
TXT
100
AcDbText
  0
TEXT
  5
4E4
330
1E
100
AcDbEntity
  8
TEXT
100
AcDbText
 10
0.325843
 20
14.629981
 30
0.0
 40
0.125
  1
ALL DIMENSIONS HAVE %%P0.015 TOLERANCE
 41
0.75
  7
TXT
100
AcDbText
  0
TEXT
  5
4E5
330
1E
100
AcDbEntity
  8
TEXT
100
AcDbText
 10
6.926438
 20
6.911027999999999
 30
0.0
 40
0.125
  1
TWO (2) #4 x 1/2 LG. OVAL HEAD
 41
0.75
  7
TXT
100
AcDbText
  0
TEXT
  5
4E6
330
1E
100
AcDbEntity
  8
TEXT
100
AcDbText
 10
7.096593
 20
6.702695
 30
0.0
 40
0.125
  1
SCREWS SUPPLIED FOR ASSEMBLY
 41
0.75
  7
TXT
100
AcDbText
  0
TEXT
  5
4E9
330
1E
100
AcDbEntity
  8
TEXT
100
AcDbText
 10
5.638596700915703
 20
15.151
 30
0.0
 40
0.156
  1
HH-3470  &  HH-3471
 41
0.75
  7
TXT
 72
     4
 11
6.701346700915703
 21
15.22899999999999
 31
0.0
100
AcDbText
  0
TEXT
  5
4EA
330
1E
100
AcDbEntity
  8
TEXT
100
AcDbText
 10
0.8614652348368119
 20
15.151
 30
0.0
 40
0.156
  1
HAND HELD ENCLOSURE (STYLE D)
 41
0.75
  7
TXT
 72
     4
 11
2.499465234836812
 21
15.22899999999999
 31
0.0
100
AcDbText
  0
DIMENSION
  5
4EB
330
1E
100
AcDbEntity
  8
DIM
100
AcDbDimension
  2
*D24
 10
4.926612
 20
2.171006
 30
0.0
 11
5.5562995
 21
2.171006
 31
0.0
 70
    32
 71
     5
 42
0.236345
  3
23NSTD
100
AcDbAlignedDimension
 13
4.690267
 23
3.394465999999999
 33
0.0
 14
4.926612
 24
2.861197999999999
 34
0.0
100
AcDbRotatedDimension
  0
DIMENSION
  5
4F9
330
1E
100
AcDbEntity
  8
DIM
100
AcDbDimension
  2
*D25
 10
4.926612
 20
2.488042
 30
0.0
 11
5.5562995
 21
2.488042
 31
0.0
 70
    32
 71
     5
 42
0.334168
  3
23NSTD
100
AcDbAlignedDimension
 13
4.592444
 23
2.851767999999999
 33
0.0
 14
4.926612
 24
2.861197999999999
 34
0.0
100
AcDbRotatedDimension
  0
LWPOLYLINE
  5
507
330
1E
100
AcDbEntity
  8
DIM
100
AcDbPolyline
 90
        4
 70
     0
 10
4.727901
 20
3.340921999999999
 40
0.0
 41
0.0675
 10
4.765075999999999
 20
3.164803
 40
0.0
 41
0.0
 10
5.062278
 20
1.784515999999999
 40
0.0
 41
0.0
 10
5.242277999999999
 20
1.784515999999999
 40
0.0
 41
0.0
  0
TEXT
  5
50D
330
1E
100
AcDbEntity
  8
TEXT
100
AcDbText
 10
3.877025999999999
 20
4.6538
 30
0.0
 40
0.125
  1
* MAX. PC BOARD DIMENSIONS
 41
0.75
  7
TXT
100
AcDbText
  0
DIMENSION
  5
50E
330
1E
100
AcDbEntity
  8
DIM
100
AcDbDimension
  2
*D26
 10
5.286916999999999
 20
4.044912
 30
0.0
 11
5.286916999999998
 21
3.719689
 31
0.0
 70
    32
 71
     5
 42
0.6504460000000001
  3
23NSTDI
100
AcDbAlignedDimension
 13
4.690267
 23
3.394465999999999
 33
0.0
 14
4.809432
 24
4.044912
 34
0.0
 50
90.0
100
AcDbRotatedDimension
  0
DIMENSION
  5
51C
330
1E
100
AcDbEntity
  8
DIM
100
AcDbDimension
  2
*D27
 10
5.785972
 20
3.959465999999999
 30
0.0
 11
5.785971999999999
 21
3.394466
 31
0.0
 70
    32
  1
<>*
 71
     5
 42
1.129999999999999
  3
23NSTD
100
AcDbAlignedDimension
 13
4.840952999999999
 23
2.829466
 33
0.0
 14
4.840952999999999
 24
3.959465999999999
 34
0.0
 50
90.0
100
AcDbRotatedDimension
  0
TEXT
  5
52A
330
1E
100
AcDbEntity
  8
TEXT
100
AcDbText
 10
0.314301
 20
5.044533
 30
0.0
 40
0.125
  1
ALL DIMENSIONS HAVE %%P0.015 TOLERANCE
 41
0.75
  7
TXT
100
AcDbText
  0
TEXT
  5
52B
330
1E
100
AcDbEntity
  8
DIM
100
AcDbText
 10
1.821851
 20
2.109086
 30
0.0
 40
0.125
  1
0.010 DEEP
 41
0.75
  7
TXT
 72
     2
 11
2.587476
 21
2.171586
 31
0.0
100
AcDbText
 73
     2
  0
TEXT
  5
52C
330
1E
100
AcDbEntity
  8
DIM
100
AcDbText
 10
1.493726
 20
2.317419999999999
 30
0.0
 40
0.125
  1
RECESSED PAD
 41
0.75
  7
TXT
 72
     2
 11
2.587476
 21
2.379919999999999
 31
0.0
100
AcDbText
 73
     2
  0
DIMENSION
  5
52D
330
1E
100
AcDbEntity
  8
DIM
100
AcDbDimension
  2
*D28
 10
2.512014
 20
4.642847999999999
 30
0.0
 11
1.890139
 21
4.642847999999999
 31
0.0
 70
    32
 71
     5
 42
0.2502489999999997
  3
23NSTD
100
AcDbAlignedDimension
 13
2.762262999999999
 23
3.621286
 33
0.0
 14
2.512014
 24
3.394465999999999
 34
0.0
 50
180.0
100
AcDbRotatedDimension
  0
DIMENSION
  5
53B
330
1E
100
AcDbEntity
  8
DIM
100
AcDbDimension
  2
*D29
 10
2.007261999999999
 20
3.100614
 30
0.0
 11
2.007261999999998
 21
3.3944655
 31
0.0
 70
    32
 71
     5
 42
0.5877029999999999
  3
23NSTDI
100
AcDbAlignedDimension
 13
2.695231999999999
 23
3.688317
 33
0.0
 14
2.695231999999999
 24
3.100614
 34
0.0
 50
90.0
100
AcDbRotatedDimension
  0
TEXT
  5
549
330
1E
100
AcDbEntity
  8
TEXT
100
AcDbText
 10
0.2078333333333334
 20
5.629152
 30
0.0
 40
0.125
  1
PART
  7
TXT
 72
     1
 11
0.437
 21
5.629152
 31
0.0
100
AcDbText
  0
TEXT
  5
54A
330
1E
100
AcDbEntity
  8
TEXT
100
AcDbText
 10
0.2078333333333334
 20
5.420817999999999
 30
0.0
 40
0.125
  1
NAME
  7
TXT
 72
     1
 11
0.437
 21
5.420817999999999
 31
0.0
100
AcDbText
  0
LINE
  5
54B
330
1E
100
AcDbEntity
  8
TITLE
100
AcDbLine
 10
0.812
 20
5.380739
 30
0.0
 11
0.812
 21
5.798739
 31
0.0
  0
LWPOLYLINE
  5
54C
330
1E
100
AcDbEntity
  8
DIM
100
AcDbPolyline
 90
        4
 70
     0
 10
3.473984999999999
 20
3.069335
 40
0.0
 41
0.0675
 10
3.353997999999999
 20
2.935159
 40
0.0
 41
0.0
 10
2.857476
 20
2.379919999999999
 40
0.0
 41
0.0
 10
2.677475999999999
 20
2.379919999999999
 40
0.0
 41
0.0
  0
DIMENSION
  5
552
330
1E
100
AcDbEntity
  8
DIM
100
AcDbDimension
  2
*D30
 10
4.690267
 20
2.171006
 30
0.0
 11
3.877953
 21
2.171006
 31
0.0
 70
    32
 71
     5
 42
1.624628
  3
23NSTD
100
AcDbAlignedDimension
 13
3.065639
 23
3.394465999999999
 33
0.0
 14
4.690267
 24
3.394465999999999
 34
0.0
100
AcDbRotatedDimension
  0
DIMENSION
  5
560
330
1E
100
AcDbEntity
  8
DIM
100
AcDbDimension
  2
*D31
 10
4.144689999999999
 20
3.937162999999999
 30
0.0
 11
4.144689999999998
 21
3.3944655
 31
0.0
 70
    32
 71
     5
 42
1.085395
  3
23NSTD
100
AcDbAlignedDimension
 13
4.172399999999999
 23
2.851767999999999
 33
0.0
 14
4.172399999999999
 24
3.937162999999999
 34
0.0
 50
90.0
100
AcDbRotatedDimension
  0
LINE
  5
56E
330
1E
100
AcDbEntity
  8
BEND
100
AcDbLine
 10
4.840952999999999
 20
2.829466
 30
0.0
 11
4.840952999999999
 21
3.959465999999999
 31
0.0
  0
LINE
  5
56F
330
1E
100
AcDbEntity
  8
BEND
100
AcDbLine
 10
2.914953
 20
2.829466
 30
0.0
 11
2.914953
 21
3.959465999999999
 31
0.0
  0
LINE
  5
570
330
1E
100
AcDbEntity
  8
OBJECT
100
AcDbLine
 10
4.920621999999999
 20
2.861197999999999
 30
0.0
 11
4.920621999999999
 21
3.927732999999999
 31
0.0
  0
LINE
  5
571
330
1E
100
AcDbEntity
  8
OBJECT
100
AcDbLine
 10
4.926612
 20
2.861197999999999
 30
0.0
 11
4.926612
 21
3.927732999999999
 31
0.0
  0
LINE
  5
572
330
1E
100
AcDbEntity
  8
OBJECT
100
AcDbLine
 10
4.592444
 20
2.851767999999999
 30
0.0
 11
4.592444
 21
3.937162999999999
 31
0.0
  0
LINE
  5
573
330
1E
100
AcDbEntity
  8
OBJECT
100
AcDbLine
 10
3.162460999999999
 20
2.851767999999999
 30
0.0
 11
3.162460999999999
 21
3.937162999999999
 31
0.0
  0
ARC
  5
574
330
1E
100
AcDbEntity
  8
OBJECT
100
AcDbCircle
 10
2.768253
 20
2.883046
 30
0.0
 40
0.067031
100
AcDbArc
 50
0.0
 51
90.0
  0
LWPOLYLINE
  5
575
330
1E
100
AcDbEntity
  8
OBJECT
100
AcDbPolyline
 90
        9
 70
     0
 43
0.0
 10
2.757296999999999
 20
3.838855
 42
0.113425
 10
2.615223999999999
 20
3.806205999999999
 42
0.103474
 10
2.489059999999999
 20
3.708696
 42
0.091941
 10
2.407658
 20
3.567582999999999
 42
0.085171
 10
2.377953
 20
3.394465999999999
 42
0.085171
 10
2.407658
 20
3.221347999999999
 42
0.091941
 10
2.489059999999999
 20
3.080235
 42
0.103474
 10
2.615223999999999
 20
2.982725999999999
 42
0.113425
 10
2.757296999999999
 20
2.950076
 42
0.113425
  0
DIMENSION
  5
580
330
1E
100
AcDbEntity
  8
DIM
100
AcDbDimension
  2
*D32
 10
3.745667
 20
0.857581
 30
0.0
 11
3.303792
 21
0.4975810000000007
 31
0.0
 70
    32
  1
0.072
 71
     5
 42
0.070507
  3
23NSTD
100
AcDbAlignedDimension
 13
3.735217
 23
0.9280879999999999
 33
0.0
 14
3.735217
 24
0.857581
 34
0.0
 50
90.0
100
AcDbRotatedDimension
  0
DIMENSION
  5
58E
330
1E
100
AcDbEntity
  8
DIM
100
AcDbDimension
  2
*D33
 10
3.162460999999999
 20
2.488042
 30
0.0
 11
3.8774525
 21
2.488042
 31
0.0
 70
    32
 71
     5
 42
1.429983
  3
23NSTD
100
AcDbAlignedDimension
 13
4.592444
 23
2.851767999999999
 33
0.0
 14
3.162460999999999
 24
2.851767999999999
 34
0.0
100
AcDbRotatedDimension
  0
LINE
  5
59C
330
1E
100
AcDbEntity
  8
BEND
100
AcDbLine
 10
2.914953
 20
2.829466
 30
0.0
 11
4.840952999999999
 21
2.829466
 31
0.0
  0
DIMENSION
  5
59D
330
1E
100
AcDbEntity
  8
DIM
100
AcDbDimension
  2
*D34
 10
2.377953
 20
1.727557
 30
0.0
 11
3.6522825
 21
1.727557
 31
0.0
 70
    32
 71
     5
 42
2.548659
  3
23NSTD
100
AcDbAlignedDimension
 13
4.926612
 23
1.317363
 33
0.0
 14
2.377953
 24
1.379925
 34
0.0
100
AcDbRotatedDimension
  0
DIMENSION
  5
5AB
330
1E
100
AcDbEntity
  8
DIM
100
AcDbDimension
  2
*D35
 10
4.926612
 20
0.283525
 30
0.0
 11
3.8779525
 21
0.283525
 31
0.0
 70
    32
 71
     5
 42
2.097319
  3
23NSTD
100
AcDbAlignedDimension
 13
2.829292999999999
 23
1.302467
 33
0.0
 14
4.926612
 24
1.302467
 34
0.0
100
AcDbRotatedDimension
  0
LINE
  5
5B9
330
1E
100
AcDbEntity
  8
OBJECT
100
AcDbLine
 10
2.946473
 20
2.750008999999999
 30
0.0
 11
4.809432
 21
2.750008999999999
 31
0.0
  0
LINE
  5
5BA
330
1E
100
AcDbEntity
  8
OBJECT
100
AcDbLine
 10
2.946473
 20
2.744019
 30
0.0
 11
4.809432
 21
2.744019
 31
0.0
  0
LINE
  5
5BB
330
1E
100
AcDbEntity
  8
OBJECT
100
AcDbLine
 10
3.162460999999999
 20
2.851767999999999
 30
0.0
 11
4.592444
 21
2.851767999999999
 31
0.0
  0
LINE
  5
5BC
330
1E
100
AcDbEntity
  8
OBJECT
100
AcDbLine
 10
2.440514999999999
 20
1.317363
 30
0.0
 11
4.926612
 21
1.317363
 31
0.0
  0
LINE
  5
5BD
330
1E
100
AcDbEntity
  8
OBJECT
100
AcDbLine
 10
2.440514999999999
 20
1.442487
 30
0.0
 11
4.858793
 21
1.442487
 31
0.0
  0
LINE
  5
5BE
330
1E
100
AcDbEntity
  8
HIDDEN
100
AcDbLine
 10
2.912843
 20
1.370986999999999
 30
0.0
 11
4.843061999999999
 21
1.370986999999999
 31
0.0
  0
LINE
  5
5BF
330
1E
100
AcDbEntity
  8
HIDDEN
100
AcDbLine
 10
2.868021999999999
 20
1.231959999999999
 30
0.0
 11
4.887883
 21
1.231959999999999
 31
0.0
  0
LINE
  5
5C0
330
1E
100
AcDbEntity
  8
HIDDEN
100
AcDbLine
 10
3.162460999999999
 20
1.432555999999999
 30
0.0
 11
4.593443999999999
 21
1.432555999999999
 31
0.0
  0
LINE
  5
5C1
330
1E
100
AcDbEntity
  8
OBJECT
100
AcDbLine
 10
2.829292999999999
 20
1.302467
 30
0.0
 11
4.926612
 21
1.302467
 31
0.0
  0
LINE
  5
5C2
330
1E
100
AcDbEntity
  8
HIDDEN
100
AcDbLine
 10
2.943601999999999
 20
0.9280879999999999
 30
0.0
 11
4.812304
 21
0.9280879999999999
 31
0.0
  0
LINE
  5
5C3
330
1E
100
AcDbEntity
  8
OBJECT
100
AcDbLine
 10
2.943486
 20
0.857581
 30
0.0
 11
4.81242
 21
0.857581
 31
0.0
  0
LINE
  5
5C4
330
1E
100
AcDbEntity
  8
HIDDEN
100
AcDbLine
 10
2.865896
 20
1.231959999999999
 30
0.0
 11
4.890009
 21
1.231959999999999
 31
0.0
  0
TEXT
  5
5C5
330
1E
100
AcDbEntity
  8
DIM
100
AcDbText
 10
2.146923999999999
 20
0.447468
 30
0.0
 40
0.125
  1
REF.
 41
0.75
  7
TXT
100
AcDbText
  0
DIMENSION
  5
5C6
330
1E
100
AcDbEntity
  8
DIM
100
AcDbDimension
  2
*D36
 10
2.838258999999999
 20
0.9600889999999999
 30
0.0
 11
2.374018999999999
 21
0.7088510000000002
 31
0.0
 70
   162
 71
     5
 42
0.0261814464439922
  3
23NSTD
100
AcDb2LineAngularDimension
 13
2.829292999999999
 23
1.239467
 33
0.0
 14
2.829292999999999
 24
1.656902999999999
 34
0.0
 15
2.829292999999999
 25
1.302467
 35
0.0
 16
2.842349905935257
 26
0.5544804441452858
 36
0.0
  0
ARC
  5
5D7
330
1E
100
AcDbEntity
  8
HIDDEN
  6
HIDDEN
100
AcDbCircle
 10
2.449451999999999
 20
1.379925
 30
0.0
 40
0.062562
100
AcDbArc
 50
0.0
 51
90.0
  0
ARC
  5
5D8
330
1E
100
AcDbEntity
  8
HIDDEN
  6
HIDDEN
100
AcDbCircle
 10
2.449451999999999
 20
1.379925
 30
0.0
 40
0.062562
100
AcDbArc
 50
270.0
 51
0.0
  0
ARC
  5
5D9
330
1E
100
AcDbEntity
  8
OBJECT
100
AcDbCircle
 10
2.440514999999999
 20
1.379925
 30
0.0
 40
0.062562
100
AcDbArc
 50
90.0
 51
180.0
  0
ARC
  5
5DA
330
1E
100
AcDbEntity
  8
OBJECT
100
AcDbCircle
 10
2.440514999999999
 20
1.379925
 30
0.0
 40
0.062562
100
AcDbArc
 50
180.0
 51
270.0
  0
LINE
  5
5DB
330
1E
100
AcDbEntity
  8
HIDDEN
100
AcDbLine
 10
2.971795999999999
 20
1.273668
 30
0.0
 11
3.159482
 21
1.273668
 31
0.0
  0
LINE
  5
5DC
330
1E
100
AcDbEntity
  8
HIDDEN
100
AcDbLine
 10
2.978251
 20
1.386875999999999
 30
0.0
 11
3.153026999999999
 21
1.386875999999999
 31
0.0
  0
LINE
  5
5DD
330
1E
100
AcDbEntity
  8
HIDDEN
100
AcDbLine
 10
3.159482
 20
1.212099
 30
0.0
 11
2.971795999999999
 21
1.212099
 31
0.0
  0
LINE
  5
5DE
330
1E
100
AcDbEntity
  8
HIDDEN
100
AcDbLine
 10
3.024456999999999
 20
1.212099
 30
0.0
 11
3.026936
 21
0.9280879999999999
 31
0.0
  0
LINE
  5
5DF
330
1E
100
AcDbEntity
  8
HIDDEN
100
AcDbLine
 10
2.969317
 20
0.9280879999999999
 30
0.0
 11
2.971795999999999
 21
1.212099
 31
0.0
  0
LINE
  5
5E0
330
1E
100
AcDbEntity
  8
HIDDEN
100
AcDbLine
 10
2.901785999999999
 20
1.231959999999999
 30
0.0
 11
2.908856999999999
 21
0.9619339999999999
 31
0.0
  0
LINE
  5
5E1
330
1E
100
AcDbEntity
  8
OBJECT
100
AcDbLine
 10
2.829292999999999
 20
1.302467
 30
0.0
 11
2.838258999999999
 21
0.9600889999999999
 31
0.0
  0
ARC
  5
5E2
330
1E
100
AcDbEntity
  8
OBJECT
100
AcDbCircle
 10
2.943486
 20
0.9628440000000001
 30
0.0
 40
0.105263
100
AcDbArc
 50
181.4999999999999
 51
270.0
  0
ARC
  5
5E3
330
1E
100
AcDbEntity
  8
HIDDEN
100
AcDbCircle
 10
2.943601999999999
 20
0.9628440000000001
 30
0.0
 40
0.034757
100
AcDbArc
 50
181.4999999999999
 51
270.0
  0
ARC
  5
5E4
330
1E
100
AcDbEntity
  8
OBJECT
100
AcDbCircle
 10
2.897113
 20
1.380420999999999
 30
0.0
 40
0.062066
100
AcDbArc
 50
90.0
 51
175.0
  0
ARC
  5
5E5
330
1E
100
AcDbEntity
  8
HIDDEN
  6
HIDDEN
100
AcDbCircle
 10
2.824825
 20
1.379925
 30
0.0
 40
0.062562
100
AcDbArc
 50
90.0
 51
180.0
  0
ARC
  5
5E6
330
1E
100
AcDbEntity
  8
HIDDEN
  6
HIDDEN
100
AcDbCircle
 10
2.824825
 20
1.379925
 30
0.0
 40
0.062562
100
AcDbArc
 50
180.0
 51
270.0
  0
LINE
  5
5E7
330
1E
100
AcDbEntity
  8
HIDDEN
100
AcDbLine
 10
2.865785999999999
 20
1.317363
 30
0.0
 11
2.868021999999999
 21
1.231959999999999
 31
0.0
  0
LINE
  5
5E8
330
1E
100
AcDbEntity
  8
OBJECT
100
AcDbLine
 10
2.829292999999999
 20
1.317363
 30
0.0
 11
2.835284
 21
1.385831
 31
0.0
  0
LINE
  5
5E9
330
1E
100
AcDbEntity
  8
HIDDEN
100
AcDbLine
 10
2.86405
 20
1.302467
 30
0.0
 11
2.865896
 21
1.231959999999999
 31
0.0
  0
LINE
  5
5EA
330
1E
100
AcDbEntity
  8
HIDDEN
100
AcDbLine
 10
2.978251
 20
1.386875999999999
 30
0.0
 11
2.973385
 21
1.442487
 31
0.0
  0
LINE
  5
5EB
330
1E
100
AcDbEntity
  8
HIDDEN
100
AcDbLine
 10
2.971795999999999
 20
1.273668
 30
0.0
 11
2.971688999999999
 21
1.285962
 31
0.0
  0
ARC
  5
5EC
330
1E
100
AcDbEntity
  8
HIDDEN
100
AcDbCircle
 10
2.912843
 20
1.361056999999999
 30
0.0
 40
0.00993
100
AcDbArc
 50
90.0
 51
179.4999999999999
  0
LINE
  5
5ED
330
1E
100
AcDbEntity
  8
HIDDEN
100
AcDbLine
 10
2.901785999999999
 20
1.231959999999999
 30
0.0
 11
2.902912999999999
 21
1.361142999999999
 31
0.0
  0
LINE
  5
5EE
330
1E
100
AcDbEntity
  8
HIDDEN
100
AcDbLine
 10
2.897776999999999
 20
1.370986999999999
 30
0.0
 11
2.971688999999999
 21
1.285962
 31
0.0
  0
LINE
  5
5EF
330
1E
100
AcDbEntity
  8
HIDDEN
100
AcDbLine
 10
3.017481
 20
1.273668
 30
0.0
 11
3.018469
 21
1.386875999999999
 31
0.0
  0
LINE
  5
5F0
330
1E
100
AcDbEntity
  8
HIDDEN
100
AcDbLine
 10
3.161960999999999
 20
0.9280879999999999
 30
0.0
 11
3.159482
 21
1.212099
 31
0.0
  0
LINE
  5
5F1
330
1E
100
AcDbEntity
  8
HIDDEN
100
AcDbLine
 10
3.106819999999999
 20
1.212099
 30
0.0
 11
3.104341999999999
 21
0.9280879999999999
 31
0.0
  0
LINE
  5
5F2
330
1E
100
AcDbEntity
  8
HIDDEN
100
AcDbLine
 10
3.153026999999999
 20
1.386875999999999
 30
0.0
 11
3.157893
 21
1.442487
 31
0.0
  0
LINE
  5
5F3
330
1E
100
AcDbEntity
  8
HIDDEN
100
AcDbLine
 10
3.162460999999999
 20
1.442487
 30
0.0
 11
3.162460999999999
 21
1.432555999999999
 31
0.0
  0
LINE
  5
5F4
330
1E
100
AcDbEntity
  8
HIDDEN
100
AcDbLine
 10
3.233500999999999
 20
1.370986999999999
 30
0.0
 11
3.159588999999999
 21
1.285962
 31
0.0
  0
LINE
  5
5F5
330
1E
100
AcDbEntity
  8
HIDDEN
100
AcDbLine
 10
3.159482
 20
1.273668
 30
0.0
 11
3.159588999999999
 21
1.285962
 31
0.0
  0
LINE
  5
5F6
330
1E
100
AcDbEntity
  8
HIDDEN
100
AcDbLine
 10
3.113796999999999
 20
1.273668
 30
0.0
 11
3.112808999999999
 21
1.386875999999999
 31
0.0
  0
ARC
  5
5F7
330
1E
100
AcDbEntity
  8
OBJECT
100
AcDbCircle
 10
2.946473
 20
2.861197999999999
 30
0.0
 40
0.11119
100
AcDbArc
 50
180.0
 51
270.0
  0
ARC
  5
5F8
330
1E
100
AcDbEntity
  8
OBJECT
100
AcDbCircle
 10
2.946473
 20
2.861197999999999
 30
0.0
 40
0.11718
100
AcDbArc
 50
180.0
 51
270.0
  0
LINE
  5
5F9
330
1E
100
AcDbEntity
  8
OBJECT
100
AcDbLine
 10
2.768253
 20
2.950076
 30
0.0
 11
2.757296999999999
 21
2.950076
 31
0.0
  0
LINE
  5
5FA
330
1E
100
AcDbEntity
  8
OBJECT
100
AcDbLine
 10
2.829292999999999
 20
2.866163999999999
 30
0.0
 11
2.829292999999999
 21
2.861197999999999
 31
0.0
  0
LINE
  5
5FB
330
1E
100
AcDbEntity
  8
OBJECT
100
AcDbLine
 10
2.835284
 20
2.877195
 30
0.0
 11
2.829292999999999
 21
2.866163999999999
 31
0.0
  0
LINE
  5
5FC
330
1E
100
AcDbEntity
  8
OBJECT
100
AcDbLine
 10
2.835284
 20
2.883046
 30
0.0
 11
2.835284
 21
2.861197999999999
 31
0.0
  0
LINE
  5
5FD
330
1E
100
AcDbEntity
  8
HIDDEN
100
AcDbLine
 10
4.596422999999999
 20
1.273668
 30
0.0
 11
4.78411
 21
1.273668
 31
0.0
  0
LINE
  5
5FE
330
1E
100
AcDbEntity
  8
HIDDEN
100
AcDbLine
 10
4.777655
 20
1.386875999999999
 30
0.0
 11
4.602877999999999
 21
1.386875999999999
 31
0.0
  0
LINE
  5
5FF
330
1E
100
AcDbEntity
  8
HIDDEN
100
AcDbLine
 10
4.596422999999999
 20
1.212099
 30
0.0
 11
4.78411
 21
1.212099
 31
0.0
  0
LINE
  5
600
330
1E
100
AcDbEntity
  8
HIDDEN
100
AcDbLine
 10
4.593944999999999
 20
0.9280879999999999
 30
0.0
 11
4.596422999999999
 21
1.212099
 31
0.0
  0
LINE
  5
601
330
1E
100
AcDbEntity
  8
HIDDEN
100
AcDbLine
 10
4.649085
 20
1.212099
 30
0.0
 11
4.651563999999999
 21
0.9280879999999999
 31
0.0
  0
LINE
  5
602
330
1E
100
AcDbEntity
  8
HIDDEN
100
AcDbLine
 10
4.602877999999999
 20
1.386875999999999
 30
0.0
 11
4.598012999999999
 21
1.442487
 31
0.0
  0
LINE
  5
603
330
1E
100
AcDbEntity
  8
HIDDEN
100
AcDbLine
 10
4.593443999999999
 20
1.442487
 30
0.0
 11
4.593443999999999
 21
1.432555999999999
 31
0.0
  0
LINE
  5
604
330
1E
100
AcDbEntity
  8
HIDDEN
100
AcDbLine
 10
4.522405
 20
1.370986999999999
 30
0.0
 11
4.596315999999999
 21
1.285962
 31
0.0
  0
LINE
  5
605
330
1E
100
AcDbEntity
  8
HIDDEN
100
AcDbLine
 10
4.596422999999999
 20
1.273668
 30
0.0
 11
4.596315999999999
 21
1.285962
 31
0.0
  0
LINE
  5
606
330
1E
100
AcDbEntity
  8
HIDDEN
100
AcDbLine
 10
4.642108999999999
 20
1.273668
 30
0.0
 11
4.643097
 21
1.386875999999999
 31
0.0
  0
LINE
  5
607
330
1E
100
AcDbEntity
  8
HIDDEN
100
AcDbLine
 10
4.786588
 20
0.9280879999999999
 30
0.0
 11
4.78411
 21
1.212099
 31
0.0
  0
LINE
  5
608
330
1E
100
AcDbEntity
  8
HIDDEN
100
AcDbLine
 10
4.731448
 20
1.212099
 30
0.0
 11
4.728969
 21
0.9280879999999999
 31
0.0
  0
LINE
  5
609
330
1E
100
AcDbEntity
  8
HIDDEN
100
AcDbLine
 10
4.854119999999999
 20
1.231959999999999
 30
0.0
 11
4.847049
 21
0.9619339999999999
 31
0.0
  0
LINE
  5
60A
330
1E
100
AcDbEntity
  8
OBJECT
100
AcDbLine
 10
4.926612
 20
1.302467
 30
0.0
 11
4.917646999999999
 21
0.9600889999999999
 31
0.0
  0
ARC
  5
60B
330
1E
100
AcDbEntity
  8
OBJECT
100
AcDbCircle
 10
4.81242
 20
0.9628440000000001
 30
0.0
 40
0.105263
100
AcDbArc
 50
270.0
 51
358.4999999999999
  0
ARC
  5
60C
330
1E
100
AcDbEntity
  8
HIDDEN
100
AcDbCircle
 10
4.812304
 20
0.9628440000000001
 30
0.0
 40
0.034757
100
AcDbArc
 50
270.0
 51
358.4999999999999
  0
ARC
  5
60D
330
1E
100
AcDbEntity
  8
OBJECT
100
AcDbCircle
 10
4.858793
 20
1.380420999999999
 30
0.0
 40
0.062066
100
AcDbArc
 50
5.0
 51
90.0
  0
LINE
  5
60E
330
1E
100
AcDbEntity
  8
HIDDEN
100
AcDbLine
 10
4.777655
 20
1.386875999999999
 30
0.0
 11
4.782519999999999
 21
1.442487
 31
0.0
  0
LINE
  5
60F
330
1E
100
AcDbEntity
  8
HIDDEN
100
AcDbLine
 10
4.738424
 20
1.273668
 30
0.0
 11
4.737435999999999
 21
1.386875999999999
 31
0.0
  0
LINE
  5
610
330
1E
100
AcDbEntity
  8
HIDDEN
100
AcDbLine
 10
4.78411
 20
1.273668
 30
0.0
 11
4.784216999999999
 21
1.285962
 31
0.0
  0
ARC
  5
611
330
1E
100
AcDbEntity
  8
HIDDEN
100
AcDbCircle
 10
4.843061999999999
 20
1.361056999999999
 30
0.0
 40
0.00993
100
AcDbArc
 50
0.5
 51
90.0
  0
LINE
  5
612
330
1E
100
AcDbEntity
  8
HIDDEN
100
AcDbLine
 10
4.854119999999999
 20
1.231959999999999
 30
0.0
 11
4.852992
 21
1.361142999999999
 31
0.0
  0
LINE
  5
613
330
1E
100
AcDbEntity
  8
HIDDEN
100
AcDbLine
 10
4.858127999999999
 20
1.370986999999999
 30
0.0
 11
4.784216999999999
 21
1.285962
 31
0.0
  0
LINE
  5
614
330
1E
100
AcDbEntity
  8
HIDDEN
100
AcDbLine
 10
4.890119999999999
 20
1.317363
 30
0.0
 11
4.887883
 21
1.231959999999999
 31
0.0
  0
LINE
  5
615
330
1E
100
AcDbEntity
  8
OBJECT
100
AcDbLine
 10
4.926612
 20
1.317363
 30
0.0
 11
4.920621999999999
 21
1.385831
 31
0.0
  0
LINE
  5
616
330
1E
100
AcDbEntity
  8
HIDDEN
100
AcDbLine
 10
4.891854999999999
 20
1.302467
 30
0.0
 11
4.890009
 21
1.231959999999999
 31
0.0
  0
ARC
  5
617
330
1E
100
AcDbEntity
  8
OBJECT
100
AcDbCircle
 10
4.809432
 20
2.861197999999999
 30
0.0
 40
0.11119
100
AcDbArc
 50
270.0
 51
0.0
  0
ARC
  5
618
330
1E
100
AcDbEntity
  8
OBJECT
100
AcDbCircle
 10
4.809432
 20
2.861197999999999
 30
0.0
 40
0.11718
100
AcDbArc
 50
270.0
 51
0.0
  0
TEXT
  5
619
330
1E
100
AcDbEntity
  8
TEXT
100
AcDbText
 10
0.9425246862482625
 20
5.511738999999999
 30
0.0
 40
0.156
  1
HAND HELD KEYRING (STYLE E)
 41
0.75
  7
TXT
 72
     4
 11
2.444024686248262
 21
5.589738999999999
 31
0.0
100
AcDbText
  0
DIMENSION
  5
61A
330
1E
100
AcDbEntity
  8
DIM
100
AcDbDimension
  2
*D37
 10
2.914953
 20
4.361797
 30
0.0
 11
3.877953
 21
4.361797
 31
0.0
 70
    32
  1
<>*
 71
     5
 42
1.925999999999999
  3
23NSTD
100
AcDbAlignedDimension
 13
4.840952999999999
 23
3.959465999999999
 33
0.0
 14
2.914953
 24
3.959465999999999
 34
0.0
100
AcDbRotatedDimension
  0
LINE
  5
628
330
1E
100
AcDbEntity
  8
BEND
100
AcDbLine
 10
2.914953
 20
3.959465999999999
 30
0.0
 11
4.840952999999999
 21
3.959465999999999
 31
0.0
  0
LINE
  5
629
330
1E
100
AcDbEntity
  8
OBJECT
100
AcDbLine
 10
2.946473
 20
4.044912
 30
0.0
 11
4.809432
 21
4.044912
 31
0.0
  0
LINE
  5
62A
330
1E
100
AcDbEntity
  8
OBJECT
100
AcDbLine
 10
2.946473
 20
4.038922
 30
0.0
 11
4.809432
 21
4.038922
 31
0.0
  0
LINE
  5
62B
330
1E
100
AcDbEntity
  8
OBJECT
100
AcDbLine
 10
3.162460999999999
 20
3.937162999999999
 30
0.0
 11
4.592444
 21
3.937162999999999
 31
0.0
  0
ARC
  5
62C
330
1E
100
AcDbEntity
  8
OBJECT
100
AcDbCircle
 10
2.695231999999999
 20
3.621286
 30
0.0
 40
0.067031
100
AcDbArc
 50
0.0
 51
118.547123
  0
ARC
  5
62D
330
1E
100
AcDbEntity
  8
OBJECT
100
AcDbCircle
 10
2.695231999999999
 20
3.167644999999999
 30
0.0
 40
0.067031
100
AcDbArc
 50
241.4528769999999
 51
0.0
  0
ARC
  5
62E
330
1E
100
AcDbEntity
  8
OBJECT
100
AcDbCircle
 10
2.828820999999999
 20
3.418665999999999
 30
0.0
 40
0.312654
100
AcDbArc
 50
139.514892
 51
160.527136
  0
ARC
  5
62F
330
1E
100
AcDbEntity
  8
OBJECT
100
AcDbCircle
 10
2.828820999999999
 20
3.370264999999999
 30
0.0
 40
0.312654
100
AcDbArc
 50
199.4728639999999
 51
220.4851079999999
  0
ARC
  5
630
330
1E
100
AcDbEntity
  8
OBJECT
100
AcDbCircle
 10
2.785207999999999
 20
3.333035999999999
 30
0.0
 40
0.255312
100
AcDbArc
 50
220.4851079999999
 51
241.4528769999999
  0
ARC
  5
631
330
1E
100
AcDbEntity
  8
OBJECT
100
AcDbCircle
 10
2.897263999999999
 20
3.394465999999999
 30
0.0
 40
0.38525
100
AcDbArc
 50
180.0
 51
199.4728639999999
  0
ARC
  5
632
330
1E
100
AcDbEntity
  8
OBJECT
100
AcDbCircle
 10
2.897263999999999
 20
3.394465999999999
 30
0.0
 40
0.38525
100
AcDbArc
 50
160.527136
 51
180.0
  0
ARC
  5
633
330
1E
100
AcDbEntity
  8
OBJECT
100
AcDbCircle
 10
2.785207999999999
 20
3.455894999999999
 30
0.0
 40
0.255312
100
AcDbArc
 50
118.547123
 51
139.514892
  0
CIRCLE
  5
634
330
1E
100
AcDbEntity
  8
OBJECT
100
AcDbCircle
 10
3.065639
 20
3.394465999999999
 30
0.0
 40
0.093098
  0
CIRCLE
  5
635
330
1E
100
AcDbEntity
  8
OBJECT
100
AcDbCircle
 10
3.065639
 20
3.394465999999999
 30
0.0
 40
0.045044
  0
LINE
  5
636
330
1E
100
AcDbEntity
  8
OBJECT
100
AcDbLine
 10
2.762262999999999
 20
3.621286
 30
0.0
 11
2.762262999999999
 21
3.167644999999999
 31
0.0
  0
ARC
  5
637
330
1E
100
AcDbEntity
  8
OBJECT
100
AcDbCircle
 10
2.946473
 20
3.927732999999999
 30
0.0
 40
0.11119
100
AcDbArc
 50
90.0
 51
180.0
  0
ARC
  5
638
330
1E
100
AcDbEntity
  8
OBJECT
100
AcDbCircle
 10
2.946473
 20
3.927732999999999
 30
0.0
 40
0.11718
100
AcDbArc
 50
90.0
 51
180.0
  0
ARC
  5
639
330
1E
100
AcDbEntity
  8
OBJECT
100
AcDbCircle
 10
2.768253
 20
3.905886
 30
0.0
 40
0.067031
100
AcDbArc
 50
270.0
 51
0.0
  0
LINE
  5
63A
330
1E
100
AcDbEntity
  8
OBJECT
100
AcDbLine
 10
2.768253
 20
3.838855
 30
0.0
 11
2.757296999999999
 21
3.838855
 31
0.0
  0
LINE
  5
63B
330
1E
100
AcDbEntity
  8
OBJECT
100
AcDbLine
 10
2.835284
 20
3.911735999999999
 30
0.0
 11
2.829292999999999
 21
3.922767999999999
 31
0.0
  0
LINE
  5
63C
330
1E
100
AcDbEntity
  8
OBJECT
100
AcDbLine
 10
2.835284
 20
3.927732999999999
 30
0.0
 11
2.835284
 21
3.905886
 31
0.0
  0
LINE
  5
63D
330
1E
100
AcDbEntity
  8
OBJECT
100
AcDbLine
 10
2.829292999999999
 20
3.927732999999999
 30
0.0
 11
2.829292999999999
 21
3.922767999999999
 31
0.0
  0
CIRCLE
  5
63E
330
1E
100
AcDbEntity
  8
OBJECT
100
AcDbCircle
 10
4.690267
 20
3.394465999999999
 30
0.0
 40
0.093098
  0
CIRCLE
  5
63F
330
1E
100
AcDbEntity
  8
OBJECT
100
AcDbCircle
 10
4.690267
 20
3.394465999999999
 30
0.0
 40
0.045044
  0
ARC
  5
640
330
1E
100
AcDbEntity
  8
OBJECT
100
AcDbCircle
 10
4.809432
 20
3.927732999999999
 30
0.0
 40
0.11119
100
AcDbArc
 50
0.0
 51
90.0
  0
ARC
  5
641
330
1E
100
AcDbEntity
  8
OBJECT
100
AcDbCircle
 10
4.809432
 20
3.927732999999999
 30
0.0
 40
0.11718
100
AcDbArc
 50
0.0
 51
90.0
  0
LINE
  5
642
330
1E
100
AcDbEntity
  8
TITLE
100
AcDbLine
 10
4.153999999999997
 20
5.798739000000001
 30
0.0
 11
4.153999999999997
 21
5.380739000000001
 31
0.0
  0
TEXT
  5
643
330
1E
100
AcDbEntity
  8
TEXT
100
AcDbText
 10
6.837769999999999
 20
0.303569
 30
0.0
 40
0.125
  1
SUPPLIED FOR ASSEMBLY
 41
0.75
  7
TXT
100
AcDbText
  0
TEXT
  5
644
330
1E
100
AcDbEntity
  8
TEXT
100
AcDbText
 10
6.667614999999999
 20
0.511902
 30
0.0
 40
0.125
  1
TWO (2) #2 x 3/8 LG. PAN HEAD SCREWS
 41
0.75
  7
TXT
100
AcDbText
  0
TEXT
  5
645
330
1E
100
AcDbEntity
  8
TEXT
100
AcDbText
 10
6.161261101211621
 20
5.511738999999999
 30
0.0
 40
0.156
  1
HH-3490
 41
0.75
  7
TXT
 72
     4
 11
6.541511101211622
 21
5.589738999999999
 31
0.0
100
AcDbText
  0
TEXT
  5
646
330
1E
100
AcDbEntity
  8
TEXT
100
AcDbText
 10
6.671635
 20
0.8356279999999999
 30
0.0
 40
0.125
  1
FINISH: BLACK TEXTURED
 41
0.75
  7
TXT
100
AcDbText
  0
TEXT
  5
647
330
1E
100
AcDbEntity
  8
TEXT
100
AcDbText
 10
6.671635
 20
1.043962
 30
0.0
 40
0.125
  1
MATERIAL: ABS (UL94V-O)
 41
0.75
  7
TXT
100
AcDbText
  0
TEXT
  5
648
330
1E
100
AcDbEntity
  8
DIM
100
AcDbText
 10
8.184936999999999
 20
2.272889999999999
 30
0.0
 40
0.125
  1
(2) PLACES
 41
0.75
  7
TXT
 11
8.184936999999999
 21
2.335389999999999
 31
0.0
100
AcDbText
 73
     2
  0
TEXT
  5
649
330
1E
100
AcDbEntity
  8
DIM
100
AcDbText
 10
8.184936999999999
 20
2.475264999999999
 30
0.0
 40
0.125
  1
x 0.284 DEEP
 41
0.75
  7
TXT
 11
8.184936999999999
 21
2.537764999999999
 31
0.0
100
AcDbText
 73
     2
  0
TEXT
  5
64A
330
1E
100
AcDbEntity
  8
DIM
100
AcDbText
 10
8.184936999999999
 20
2.683599
 30
0.0
 40
0.125
  1
0.082 DIA. HOLE
 41
0.75
  7
TXT
 11
8.184936999999999
 21
2.746099
 31
0.0
100
AcDbText
 73
     2
  0
TEXT
  5
64B
330
1E
100
AcDbEntity
  8
DIM
100
AcDbText
 10
8.184936999999999
 20
2.891932
 30
0.0
 40
0.125
  1
0.188 DIA. BOSS WITH
 41
0.75
  7
TXT
 11
8.184936999999999
 21
2.954432
 31
0.0
100
AcDbText
 73
     2
  0
DIMENSION
  5
64C
330
1E
100
AcDbEntity
  8
DIM
100
AcDbDimension
  2
*D38
 10
7.536621
 20
1.871231
 30
0.0
 11
8.713183499999999
 21
1.871231
 31
0.0
 70
    32
  1
<> BOSS HEIGHT
 71
     5
 42
0.2840120000000006
  3
23NSTD
100
AcDbAlignedDimension
 13
7.252608999999999
 23
2.467673
 33
0.0
 14
7.536621
 24
2.858327
 34
0.0
100
AcDbRotatedDimension
  0
LWPOLYLINE
  5
65A
330
1E
100
AcDbEntity
  8
DIM
100
AcDbPolyline
 90
        4
 70
     0
 10
7.371667999999999
 20
3.299583999999999
 40
0.0
 41
0.0675
 10
7.52209
 20
3.200724
 40
0.0
 41
0.0
 10
7.914937
 20
2.954432
 40
0.0
 41
0.0
 10
8.094936999999999
 20
2.954432
 40
0.0
 41
0.0
  0
DIMENSION
  5
660
330
1E
100
AcDbEntity
  8
DIM
100
AcDbDimension
  2
*D39
 10
6.641936
 20
2.744019
 30
0.0
 11
6.641935999999999
 21
3.394465500000001
 31
0.0
 70
    32
  1
1.300
 71
     5
 42
1.300892999999999
  3
23NSTD
100
AcDbAlignedDimension
 13
7.147345999999999
 23
4.044912
 33
0.0
 14
7.147345999999999
 24
2.744019
 34
0.0
 50
90.0
100
AcDbRotatedDimension
  0
DIMENSION
  5
66E
330
1E
100
AcDbEntity
  8
DIM
100
AcDbDimension
  2
*D40
 10
7.19104
 20
2.488042
 30
0.0
 11
6.569164999999999
 21
2.488042
 31
0.0
 70
    32
 71
     5
 42
0.0615689999999996
  3
23NSTD
100
AcDbAlignedDimension
 13
7.252608999999999
 23
3.300622999999999
 33
0.0
 14
7.19104
 24
3.300622999999999
 34
0.0
100
AcDbRotatedDimension
  0
LINE
  5
67C
330
1E
100
AcDbEntity
  8
OBJECT
100
AcDbLine
 10
7.147345999999999
 20
2.744019
 30
0.0
 11
7.147345999999999
 21
4.044912
 31
0.0
  0
LINE
  5
67D
330
1E
100
AcDbEntity
  8
OBJECT
100
AcDbLine
 10
7.022222
 20
2.811837999999999
 30
0.0
 11
7.022222
 21
3.977092999999999
 31
0.0
  0
LINE
  5
67E
330
1E
100
AcDbEntity
  8
HIDDEN
100
AcDbLine
 10
7.232747999999999
 20
2.782748
 30
0.0
 11
7.232747999999999
 21
4.006184
 31
0.0
  0
LINE
  5
67F
330
1E
100
AcDbEntity
  8
HIDDEN
100
AcDbLine
 10
7.093721999999999
 20
2.817724999999999
 30
0.0
 11
7.093721999999999
 21
3.971207
 31
0.0
  0
LINE
  5
680
330
1E
100
AcDbEntity
  8
HIDDEN
100
AcDbLine
 10
7.032153
 20
2.851268
 30
0.0
 11
7.032153
 21
3.937663
 31
0.0
  0
LINE
  5
681
330
1E
100
AcDbEntity
  8
HIDDEN
100
AcDbLine
 10
7.536621
 20
2.858327
 30
0.0
 11
7.536621
 21
3.930604
 31
0.0
  0
LINE
  5
682
330
1E
100
AcDbEntity
  8
OBJECT
100
AcDbLine
 10
7.607128
 20
2.858210999999999
 30
0.0
 11
7.607128
 21
3.930719999999999
 31
0.0
  0
LINE
  5
683
330
1E
100
AcDbEntity
  8
OBJECT
100
AcDbLine
 10
7.162241999999999
 20
2.744019
 30
0.0
 11
7.162241999999999
 21
4.044912
 31
0.0
  0
DIMENSION
  5
684
330
1E
100
AcDbEntity
  8
DIM
100
AcDbDimension
  2
*D41
 10
7.093721999999999
 20
2.171006
 30
0.0
 11
6.471846999999999
 21
2.171006
 31
0.0
 70
    32
 71
     5
 42
0.0973180000000005
  3
23NSTD
100
AcDbAlignedDimension
 13
7.19104
 23
2.467673
 33
0.0
 14
7.093721999999999
 24
2.817724999999999
 34
0.0
100
AcDbRotatedDimension
  0
TEXT
  5
692
330
1E
100
AcDbEntity
  8
DIM
100
AcDbText
 10
5.332277999999999
 20
1.097015999999999
 30
0.0
 40
0.125
  1
(2) PLACES
 41
0.75
  7
TXT
 11
5.332277999999999
 21
1.159515999999999
 31
0.0
100
AcDbText
 73
     2
  0
TEXT
  5
693
330
1E
100
AcDbEntity
  8
DIM
100
AcDbText
 10
5.332277999999999
 20
1.305349
 30
0.0
 40
0.125
  1
PC BOARD
 41
0.75
  7
TXT
 11
5.332277999999999
 21
1.367849
 31
0.0
100
AcDbText
 73
     2
  0
TEXT
  5
694
330
1E
100
AcDbEntity
  8
DIM
100
AcDbText
 10
5.332277999999999
 20
1.513682
 30
0.0
 40
0.125
  1
HOLE THRU
 41
0.75
  7
TXT
 11
5.332277999999999
 21
1.576182
 31
0.0
100
AcDbText
 73
     2
  0
TEXT
  5
695
330
1E
100
AcDbEntity
  8
DIM
100
AcDbText
 10
5.332277999999999
 20
1.722015999999999
 30
0.0
 40
0.125
  1
REF. 0.094 DIA.
 41
0.75
  7
TXT
 11
5.332277999999999
 21
1.784515999999999
 31
0.0
100
AcDbText
 73
     2
  0
LINE
  5
696
330
1E
100
AcDbEntity
  8
HIDDEN
100
AcDbLine
 10
7.232747999999999
 20
2.816511
 30
0.0
 11
7.502773999999999
 21
2.823582
 31
0.0
  0
LINE
  5
697
330
1E
100
AcDbEntity
  8
OBJECT
100
AcDbLine
 10
7.162241999999999
 20
2.744019
 30
0.0
 11
7.50462
 21
2.752984
 31
0.0
  0
ARC
  5
698
330
1E
100
AcDbEntity
  8
OBJECT
100
AcDbCircle
 10
7.084287999999999
 20
2.811837999999999
 30
0.0
 40
0.062066
100
AcDbArc
 50
180.0
 51
265.0
  0
LINE
  5
699
330
1E
100
AcDbEntity
  8
HIDDEN
100
AcDbLine
 10
7.032153
 20
2.851268
 30
0.0
 11
7.022222
 21
2.851268
 31
0.0
  0
LINE
  5
69A
330
1E
100
AcDbEntity
  8
OBJECT
100
AcDbLine
 10
7.147345999999999
 20
2.744019
 30
0.0
 11
7.078877999999999
 21
2.750008999999999
 31
0.0
  0
LINE
  5
69B
330
1E
100
AcDbEntity
  8
HIDDEN
100
AcDbLine
 10
7.093721999999999
 20
2.817724999999999
 30
0.0
 11
7.232747999999999
 21
2.816511
 31
0.0
  0
LINE
  5
69C
330
1E
100
AcDbEntity
  8
HIDDEN
100
AcDbLine
 10
7.147345999999999
 20
2.780511
 30
0.0
 11
7.232747999999999
 21
2.782748
 31
0.0
  0
LINE
  5
69D
330
1E
100
AcDbEntity
  8
HIDDEN
100
AcDbLine
 10
7.162241999999999
 20
2.778774999999999
 30
0.0
 11
7.232747999999999
 21
2.780622
 31
0.0
  0
ARC
  5
69E
330
1E
100
AcDbEntity
  8
OBJECT
100
AcDbCircle
 10
7.501864999999999
 20
2.858210999999999
 30
0.0
 40
0.105263
100
AcDbArc
 50
271.4999999999999
 51
0.0
  0
ARC
  5
69F
330
1E
100
AcDbEntity
  8
HIDDEN
100
AcDbCircle
 10
7.501864999999999
 20
2.858327
 30
0.0
 40
0.034757
100
AcDbArc
 50
271.4999999999999
 51
0.0
  0
TEXT
  5
6A0
330
1E
100
AcDbEntity
  8
TEXT
100
AcDbText
 10
4.36183333333333
 20
5.629152000000001
 30
0.0
 40
0.125
  1
PART
  7
TXT
 72
     1
 11
4.590999999999997
 21
5.629152000000001
 31
0.0
100
AcDbText
  0
TEXT
  5
6A1
330
1E
100
AcDbEntity
  8
TEXT
100
AcDbText
 10
4.465999999999997
 20
5.420818
 30
0.0
 40
0.125
  1
No.
  7
TXT
 72
     1
 11
4.590999999999997
 21
5.420818
 31
0.0
100
AcDbText
  0
LINE
  5
6A2
330
1E
100
AcDbEntity
  8
TITLE
100
AcDbLine
 10
4.215999999999997
 20
5.798739000000001
 30
0.0
 11
4.215999999999997
 21
5.380739000000001
 31
0.0
  0
LINE
  5
6A3
330
1E
100
AcDbEntity
  8
TITLE
100
AcDbLine
 10
4.965999999999997
 20
5.798739000000001
 30
0.0
 11
4.965999999999997
 21
5.380739000000001
 31
0.0
  0
DIMENSION
  5
6A4
330
1E
100
AcDbEntity
  8
DIM
100
AcDbDimension
  2
*D42
 10
7.022222
 20
4.642847999999999
 30
0.0
 11
7.314675
 21
4.642847999999999
 31
0.0
 70
    32
 71
     5
 42
0.5849060000000002
  3
23NSTDI
100
AcDbAlignedDimension
 13
7.607128
 23
3.930719999999999
 33
0.0
 14
7.022222
 24
3.977092999999999
 34
0.0
100
AcDbRotatedDimension
  0
DIMENSION
  5
6B2
330
1E
100
AcDbEntity
  8
DIM
100
AcDbDimension
  2
*D43
 10
7.536621
 20
4.361797
 30
0.0
 11
7.315171499999999
 21
4.361797
 31
0.0
 70
    32
 71
     5
 42
0.4428990000000006
  3
23NSTDI
100
AcDbAlignedDimension
 13
7.093721999999999
 23
3.971207
 33
0.0
 14
7.536621
 24
3.930604
 34
0.0
100
AcDbRotatedDimension
  0
LINE
  5
6C0
330
1E
100
AcDbEntity
  8
HIDDEN
100
AcDbLine
 10
7.232747999999999
 20
3.972419999999999
 30
0.0
 11
7.502773999999999
 21
3.965348999999999
 31
0.0
  0
LINE
  5
6C1
330
1E
100
AcDbEntity
  8
HIDDEN
100
AcDbLine
 10
7.536621
 20
3.490787
 30
0.0
 11
7.252608999999999
 21
3.488309
 31
0.0
  0
LINE
  5
6C2
330
1E
100
AcDbEntity
  8
HIDDEN
100
AcDbLine
 10
7.536621
 20
3.298144
 30
0.0
 11
7.252608999999999
 21
3.300622999999999
 31
0.0
  0
LINE
  5
6C3
330
1E
100
AcDbEntity
  8
HIDDEN
100
AcDbLine
 10
7.252608999999999
 20
3.435646999999999
 30
0.0
 11
7.536621
 21
3.433168999999999
 31
0.0
  0
LINE
  5
6C4
330
1E
100
AcDbEntity
  8
HIDDEN
100
AcDbLine
 10
7.252608999999999
 20
3.353283999999999
 30
0.0
 11
7.536621
 21
3.355763
 31
0.0
  0
LINE
  5
6C5
330
1E
100
AcDbEntity
  8
OBJECT
100
AcDbLine
 10
7.162241999999999
 20
4.044912
 30
0.0
 11
7.50462
 21
4.035947
 31
0.0
  0
LINE
  5
6C6
330
1E
100
AcDbEntity
  8
HIDDEN
100
AcDbLine
 10
7.077833
 20
3.481853999999999
 30
0.0
 11
7.022222
 21
3.486718999999999
 31
0.0
  0
LINE
  5
6C7
330
1E
100
AcDbEntity
  8
HIDDEN
100
AcDbLine
 10
7.077833
 20
3.307077
 30
0.0
 11
7.022222
 21
3.302211999999999
 31
0.0
  0
ARC
  5
6C8
330
1E
100
AcDbEntity
  8
OBJECT
100
AcDbCircle
 10
7.084287999999999
 20
3.977092999999999
 30
0.0
 40
0.062066
100
AcDbArc
 50
95.0
 51
180.0
  0
LINE
  5
6C9
330
1E
100
AcDbEntity
  8
HIDDEN
100
AcDbLine
 10
7.032153
 20
3.937663
 30
0.0
 11
7.022222
 21
3.937663
 31
0.0
  0
LINE
  5
6CA
330
1E
100
AcDbEntity
  8
HIDDEN
100
AcDbLine
 10
7.093721999999999
 20
3.562326999999999
 30
0.0
 11
7.178747
 21
3.488415999999999
 31
0.0
  0
LINE
  5
6CB
330
1E
100
AcDbEntity
  8
HIDDEN
100
AcDbLine
 10
7.093721999999999
 20
3.226604
 30
0.0
 11
7.178747
 21
3.300514999999999
 31
0.0
  0
LINE
  5
6CC
330
1E
100
AcDbEntity
  8
HIDDEN
100
AcDbLine
 10
7.19104
 20
3.442623
 30
0.0
 11
7.077833
 21
3.441635
 31
0.0
  0
LINE
  5
6CD
330
1E
100
AcDbEntity
  8
HIDDEN
100
AcDbLine
 10
7.19104
 20
3.346308
 30
0.0
 11
7.077833
 21
3.347296
 31
0.0
  0
LINE
  5
6CE
330
1E
100
AcDbEntity
  8
HIDDEN
100
AcDbLine
 10
7.077833
 20
3.481853999999999
 30
0.0
 11
7.077833
 21
3.307077
 31
0.0
  0
LINE
  5
6CF
330
1E
100
AcDbEntity
  8
HIDDEN
100
AcDbLine
 10
7.19104
 20
3.488309
 30
0.0
 11
7.178747
 21
3.488415999999999
 31
0.0
  0
LINE
  5
6D0
330
1E
100
AcDbEntity
  8
HIDDEN
100
AcDbLine
 10
7.19104
 20
3.300622999999999
 30
0.0
 11
7.178747
 21
3.300514999999999
 31
0.0
  0
LINE
  5
6D1
330
1E
100
AcDbEntity
  8
HIDDEN
100
AcDbLine
 10
7.19104
 20
3.300622999999999
 30
0.0
 11
7.19104
 21
3.488309
 31
0.0
  0
LINE
  5
6D2
330
1E
100
AcDbEntity
  8
HIDDEN
100
AcDbLine
 10
7.252608999999999
 20
3.488309
 30
0.0
 11
7.252608999999999
 21
3.300622999999999
 31
0.0
  0
LINE
  5
6D3
330
1E
100
AcDbEntity
  8
HIDDEN
100
AcDbLine
 10
7.093721999999999
 20
3.971207
 30
0.0
 11
7.232747999999999
 21
3.972419999999999
 31
0.0
  0
LINE
  5
6D4
330
1E
100
AcDbEntity
  8
OBJECT
100
AcDbLine
 10
7.147345999999999
 20
4.044912
 30
0.0
 11
7.078877999999999
 21
4.038922
 31
0.0
  0
LINE
  5
6D5
330
1E
100
AcDbEntity
  8
HIDDEN
100
AcDbLine
 10
7.147345999999999
 20
4.00842
 30
0.0
 11
7.232747999999999
 21
4.006184
 31
0.0
  0
LINE
  5
6D6
330
1E
100
AcDbEntity
  8
HIDDEN
100
AcDbLine
 10
7.162241999999999
 20
4.010156
 30
0.0
 11
7.232747999999999
 21
4.008309999999999
 31
0.0
  0
ARC
  5
6D7
330
1E
100
AcDbEntity
  8
OBJECT
100
AcDbCircle
 10
7.501864999999999
 20
3.930719999999999
 30
0.0
 40
0.105263
100
AcDbArc
 50
0.0
 51
88.49999999999999
  0
ARC
  5
6D8
330
1E
100
AcDbEntity
  8
HIDDEN
100
AcDbCircle
 10
7.501864999999999
 20
3.930604
 30
0.0
 40
0.034757
100
AcDbArc
 50
0.0
 51
88.49999999999999
  0
TEXT
  5
6D9
330
1E
100
AcDbEntity
  8
TEXT
100
AcDbText
 10
6.927297
 20
7.924299999999999
 30
0.0
 40
0.125
  1
THE 0.150 x 1.000 RECT. CUTOUT
 41
0.75
  7
TXT
100
AcDbText
  0
TEXT
  5
6DA
330
1E
100
AcDbEntity
  8
TEXT
100
AcDbText
 10
6.927297
 20
7.715967
 30
0.0
 40
0.125
  1
IS IN PART No. HH-3470 ONLY.
 41
0.75
  7
TXT
100
AcDbText
  0
INSERT
  5
A19
330
1E
100
AcDbEntity
  8
OBJECT
100
AcDbBlockReference
  2
HB
 10
0.0
 20
0.0
 30
0.0
  0
TEXT
  5
A1A
330
1E
100
AcDbEntity
  8
TEXT
100
AcDbText
 10
9.151752092750419
 20
15.151
 30
0.0
 40
0.156
  1
10-29-08
 41
0.75
  7
TXT
 72
     4
 11
9.561252092750418
 21
15.22899999999999
 31
0.0
100
AcDbText
  0
TEXT
  5
A1E
330
1E
100
AcDbEntity
  8
TEXT
100
AcDbText
 10
9.151752092750419
 20
5.511738999999999
 30
0.0
 40
0.156
  1
10-29-08
 41
0.75
  7
TXT
 72
     4
 11
9.561252092750418
 21
5.589738999999999
 31
0.0
100
AcDbText
  0
LINE
  5
A1F
330
1E
100
AcDbEntity
  8
TITLE
100
AcDbLine
 10
8.307999999999999
 20
5.798739000000001
 30
0.0
 11
8.307999999999999
 21
5.380739000000001
 31
0.0
  0
LINE
  5
A20
330
1E
100
AcDbEntity
  8
TITLE
100
AcDbLine
 10
8.245999999999998
 20
5.798739000000001
 30
0.0
 11
8.245999999999998
 21
5.380739000000001
 31
0.0
  0
TEXT
  5
A21
330
1E
100
AcDbEntity
  8
TEXT
100
AcDbText
 10
8.474666666666665
 20
5.629152000000001
 30
0.0
 40
0.125
  1
REV.
  7
TXT
 72
     1
 11
8.682999999999999
 21
5.629152000000001
 31
0.0
100
AcDbText
  0
TEXT
  5
A22
330
1E
100
AcDbEntity
  8
TEXT
100
AcDbText
 10
8.453833333333333
 20
5.420818
 30
0.0
 40
0.125
  1
DATE
  7
TXT
 72
     1
 11
8.682999999999999
 21
5.420818
 31
0.0
100
AcDbText
  0
LINE
  5
A23
330
1E
100
AcDbEntity
  8
TITLE
100
AcDbLine
 10
9.057999999999999
 20
5.798739000000001
 30
0.0
 11
9.057999999999999
 21
5.380739000000001
 31
0.0
  0
ENDSEC
  0
SECTION
  2
OBJECTS
  0
DICTIONARY
  5
C
330
0
100
AcDbDictionary
281
     1
  3
ACAD_GROUP
350
D
  3
ACAD_LAYOUT
350
19
  3
ACAD_MLINESTYLE
350
16
  3
ACAD_PLOTSETTINGS
350
18
  3
ACAD_PLOTSTYLENAME
350
E
  3
ASE_INDEX_DICTIONARY
350
6DD
  0
DICTIONARY
  5
D
102
{ACAD_REACTORS
330
C
102
}
330
C
100
AcDbDictionary
281
     1
  0
DICTIONARY
  5
19
102
{ACAD_REACTORS
330
C
102
}
330
C
100
AcDbDictionary
281
     1
  3
Layout1
350
1D
  3
Model
350
21
  0
DICTIONARY
  5
16
102
{ACAD_REACTORS
330
C
102
}
330
C
100
AcDbDictionary
281
     1
  3
Standard
350
17
  0
DICTIONARY
  5
18
102
{ACAD_REACTORS
330
C
102
}
330
C
100
AcDbDictionary
281
     1
  0
ACDBDICTIONARYWDFLT
  5
E
102
{ACAD_REACTORS
330
C
102
}
330
C
100
AcDbDictionary
281
     1
  3
Normal
350
F
100
AcDbDictionaryWithDefault
340
F
  0
DICTIONARY
  5
6DD
102
{ACAD_REACTORS
330
C
102
}
330
C
100
AcDbDictionary
281
     1
  3
ASEBlockHierarchyIndexRecord
350
6DF
1001
DCO15
1040
1638677148.89
  0
LAYOUT
  5
1D
102
{ACAD_REACTORS
330
19
102
}
330
19
100
AcDbPlotSettings
  1

  2
None
  4

  6

 40
0.0
 41
0.0
 42
0.0
 43
0.0
 44
0.0
 45
0.0
 46
0.0
 47
0.0
 48
0.0
 49
0.0
140
0.0
141
0.0
142
1.0
143
1.0
 70
   688
 72
     0
 73
     0
 74
     5
  7
monochrome.ctb
 75
    16
147
1.0
148
0.0
149
0.0
100
AcDbLayout
  1
Layout1
 70
     1
 71
     1
 10
0.0
 20
0.0
 11
12.0
 21
9.0
 12
0.0
 22
0.0
 32
0.0
 14
1.000000000000000E+20
 24
1.000000000000000E+20
 34
1.000000000000000E+20
 15
-1.000000000000000E+20
 25
-1.000000000000000E+20
 35
-1.000000000000000E+20
146
0.0
 13
0.0
 23
0.0
 33
0.0
 16
1.0
 26
0.0
 36
0.0
 17
0.0
 27
1.0
 37
0.0
 76
     0
330
1A
  0
LAYOUT
  5
21
102
{ACAD_REACTORS
330
19
102
}
330
19
100
AcDbPlotSettings
  1

  2
none_device
  4
Letter_(8.50_x_11.00_Inches)
  6

 40
6.349999904632568
 41
6.349999904632568
 42
6.350006103515625
 43
6.350006103515625
 44
215.8999938964843
 45
279.3999938964843
 46
0.0
 47
0.0
 48
0.0
 49
0.0
140
0.0
141
0.0
142
1.0
143
1.0
 70
 11952
 72
     0
 73
     1
 74
     0
  7

 75
     0
147
1.0
148
70.30663431974054
149
1.980634001572782
100
AcDbLayout
  1
Model
 70
     1
 71
     0
 10
0.0
 20
0.0
 11
12.0
 21
9.0
 12
0.0
 22
0.0
 32
0.0
 14
0.0
 24
0.0
 34
0.0
 15
0.0
 25
0.0
 35
0.0
146
0.0
 13
0.0
 23
0.0
 33
0.0
 16
1.0
 26
0.0
 36
0.0
 17
0.0
 27
1.0
 37
0.0
 76
     0
330
1E
  0
MLINESTYLE
  5
17
102
{ACAD_REACTORS
330
16
102
}
330
16
100
AcDbMlineStyle
  2
STANDARD
 70
     0
  3

 62
   256
 51
90.0
 52
90.0
 71
     2
 49
0.5
 62
   256
  6
BYLAYER
 49
-0.5
 62
   256
  6
BYLAYER
  0
ACDBPLACEHOLDER
  5
F
102
{ACAD_REACTORS
330
E
102
}
330
E
  0
XRECORD
  5
6DF
102
{ACAD_REACTORS
330
6DD
102
}
330
6DD
100
AcDbXrecord
280
     1
  0
ENDSEC
  0
EOF
