  0
SECTION
  2
HEADER
  9
$ACADVER
  1
AC1015
  9
$ACADMAINTVER
 70
     6
  9
$DWGCODEPAGE
  3
ANSI_1252
  9
$INSBASE
 10
0.0
 20
0.0
 30
0.0
  9
$EXTMIN
 10
-0.0005187592475195
 20
-0.0003356677483914
 30
-0.0015258207003583
  9
$EXTMAX
 10
16.60104374028863
 20
10.32810976604012
 30
0.0000000349246037
  9
$LIMMIN
 10
0.0
 20
0.0
  9
$LIMMAX
 10
17.0
 20
11.0
  9
$ORTHOMODE
 70
     1
  9
$REGENMODE
 70
     1
  9
$FILLMODE
 70
     1
  9
$QTEXTMODE
 70
     0
  9
$MIRRTEXT
 70
     0
  9
$LTSCALE
 40
0.4379999999999999
  9
$ATTMODE
 70
     1
  9
$TEXTSIZE
 40
0.2
  9
$TRACEWID
 40
0.05
  9
$TEXTSTYLE
  7
TXT
  9
$CLAYER
  8
OBJECT
  9
$CELTYPE
  6
ByLayer
  9
$CECOLOR
 62
   256
  9
$CELTSCALE
 40
1.0
  9
$DISPSILH
 70
     0
  9
$DIMSCALE
 40
1.0
  9
$DIMASZ
 40
0.18
  9
$DIMEXO
 40
0.063
  9
$DIMDLI
 40
0.281
  9
$DIMRND
 40
0.0
  9
$DIMDLE
 40
0.0
  9
$DIMEXE
 40
0.093
  9
$DIMTP
 40
0.0
  9
$DIMTM
 40
0.0
  9
$DIMTXT
 40
0.125
  9
$DIMCEN
 40
0.09
  9
$DIMTSZ
 40
0.0
  9
$DIMTOL
 70
     0
  9
$DIMLIM
 70
     0
  9
$DIMTIH
 70
     1
  9
$DIMTOH
 70
     1
  9
$DIMSE1
 70
     0
  9
$DIMSE2
 70
     0
  9
$DIMTAD
 70
     0
  9
$DIMZIN
 70
     0
  9
$DIMBLK
  1

  9
$DIMASO
 70
     1
  9
$DIMSHO
 70
     1
  9
$DIMPOST
  1

  9
$DIMAPOST
  1

  9
$DIMALT
 70
     0
  9
$DIMALTD
 70
     2
  9
$DIMALTF
 40
25.4
  9
$DIMLFAC
 40
1.0
  9
$DIMTOFL
 70
     0
  9
$DIMTVP
 40
0.0
  9
$DIMTIX
 70
     0
  9
$DIMSOXD
 70
     0
  9
$DIMSAH
 70
     0
  9
$DIMBLK1
  1

  9
$DIMBLK2
  1

  9
$DIMSTYLE
  2
DIM
  9
$DIMCLRD
 70
     0
  9
$DIMCLRE
 70
     0
  9
$DIMCLRT
 70
     0
  9
$DIMTFAC
 40
1.0
  9
$DIMGAP
 40
0.09
  9
$DIMJUST
 70
     0
  9
$DIMSD1
 70
     0
  9
$DIMSD2
 70
     0
  9
$DIMTOLJ
 70
     1
  9
$DIMTZIN
 70
     0
  9
$DIMALTZ
 70
     0
  9
$DIMALTTZ
 70
     0
  9
$DIMUPT
 70
     0
  9
$DIMDEC
 70
     3
  9
$DIMTDEC
 70
     3
  9
$DIMALTU
 70
     2
  9
$DIMALTTD
 70
     2
  9
$DIMTXSTY
  7
TXT
  9
$DIMAUNIT
 70
     0
  9
$DIMADEC
 70
     0
  9
$DIMALTRND
 40
0.0
  9
$DIMAZIN
 70
     0
  9
$DIMDSEP
 70
    46
  9
$DIMATFIT
 70
     1
  9
$DIMFRAC
 70
     0
  9
$DIMLDRBLK
  1

  9
$DIMLUNIT
 70
     2
  9
$DIMLWD
 70
    -2
  9
$DIMLWE
 70
    -2
  9
$DIMTMOVE
 70
     0
  9
$LUNITS
 70
     2
  9
$LUPREC
 70
     3
  9
$SKETCHINC
 40
0.1
  9
$FILLETRAD
 40
0.0
  9
$AUNITS
 70
     0
  9
$AUPREC
 70
     0
  9
$MENU
  1
acad
  9
$ELEVATION
 40
0.0
  9
$PELEVATION
 40
0.0
  9
$THICKNESS
 40
0.0
  9
$LIMCHECK
 70
     0
  9
$CHAMFERA
 40
0.0
  9
$CHAMFERB
 40
0.0
  9
$CHAMFERC
 40
0.0
  9
$CHAMFERD
 40
0.0
  9
$SKPOLY
 70
     0
  9
$TDCREATE
 40
2449889.454478125
  9
$TDUCREATE
 40
2449889.621144791
  9
$TDUPDATE
 40
2454769.437425845
  9
$TDUUPDATE
 40
2454769.604092511
  9
$TDINDWG
 40
0.0481435764
  9
$TDUSRTIMER
 40
0.0481435764
  9
$USRTIMER
 70
     1
  9
$ANGBASE
 50
0.0
  9
$ANGDIR
 70
     0
  9
$PDMODE
 70
     0
  9
$PDSIZE
 40
0.0
  9
$PLINEWID
 40
0.0
  9
$SPLFRAME
 70
     0
  9
$SPLINETYPE
 70
     6
  9
$SPLINESEGS
 70
     8
  9
$HANDSEED
  5
3342
  9
$SURFTAB1
 70
     6
  9
$SURFTAB2
 70
     6
  9
$SURFTYPE
 70
     6
  9
$SURFU
 70
     6
  9
$SURFV
 70
     6
  9
$UCSBASE
  2

  9
$UCSNAME
  2

  9
$UCSORG
 10
0.0
 20
0.0
 30
0.0
  9
$UCSXDIR
 10
1.0
 20
0.0
 30
0.0
  9
$UCSYDIR
 10
0.0
 20
1.0
 30
0.0
  9
$UCSORTHOREF
  2

  9
$UCSORTHOVIEW
 70
     0
  9
$UCSORGTOP
 10
0.0
 20
0.0
 30
0.0
  9
$UCSORGBOTTOM
 10
0.0
 20
0.0
 30
0.0
  9
$UCSORGLEFT
 10
0.0
 20
0.0
 30
0.0
  9
$UCSORGRIGHT
 10
0.0
 20
0.0
 30
0.0
  9
$UCSORGFRONT
 10
0.0
 20
0.0
 30
0.0
  9
$UCSORGBACK
 10
0.0
 20
0.0
 30
0.0
  9
$PUCSBASE
  2

  9
$PUCSNAME
  2

  9
$PUCSORG
 10
0.0
 20
0.0
 30
0.0
  9
$PUCSXDIR
 10
1.0
 20
0.0
 30
0.0
  9
$PUCSYDIR
 10
0.0
 20
1.0
 30
0.0
  9
$PUCSORTHOREF
  2

  9
$PUCSORTHOVIEW
 70
     0
  9
$PUCSORGTOP
 10
0.0
 20
0.0
 30
0.0
  9
$PUCSORGBOTTOM
 10
0.0
 20
0.0
 30
0.0
  9
$PUCSORGLEFT
 10
0.0
 20
0.0
 30
0.0
  9
$PUCSORGRIGHT
 10
0.0
 20
0.0
 30
0.0
  9
$PUCSORGFRONT
 10
0.0
 20
0.0
 30
0.0
  9
$PUCSORGBACK
 10
0.0
 20
0.0
 30
0.0
  9
$USERI1
 70
     0
  9
$USERI2
 70
     0
  9
$USERI3
 70
     0
  9
$USERI4
 70
     0
  9
$USERI5
 70
     0
  9
$USERR1
 40
0.0
  9
$USERR2
 40
0.0
  9
$USERR3
 40
0.0
  9
$USERR4
 40
0.0
  9
$USERR5
 40
0.0
  9
$WORLDVIEW
 70
     1
  9
$SHADEDGE
 70
     3
  9
$SHADEDIF
 70
    70
  9
$TILEMODE
 70
     1
  9
$MAXACTVP
 70
    16
  9
$PINSBASE
 10
0.0
 20
0.0
 30
0.0
  9
$PLIMCHECK
 70
     0
  9
$PEXTMIN
 10
1.000000000000000E+20
 20
1.000000000000000E+20
 30
1.000000000000000E+20
  9
$PEXTMAX
 10
-1.000000000000000E+20
 20
-1.000000000000000E+20
 30
-1.000000000000000E+20
  9
$PLIMMIN
 10
0.0
 20
0.0
  9
$PLIMMAX
 10
12.0
 20
9.0
  9
$UNITMODE
 70
     0
  9
$VISRETAIN
 70
     0
  9
$PLINEGEN
 70
     0
  9
$PSLTSCALE
 70
     1
  9
$TREEDEPTH
 70
  3020
  9
$CMLSTYLE
  2
Standard
  9
$CMLJUST
 70
     0
  9
$CMLSCALE
 40
1.0
  9
$PROXYGRAPHICS
 70
     1
  9
$MEASUREMENT
 70
     0
  9
$CELWEIGHT
370
    -1
  9
$ENDCAPS
280
     0
  9
$JOINSTYLE
280
     0
  9
$LWDISPLAY
290
     0
  9
$INSUNITS
 70
     0
  9
$HYPERLINKBASE
  1

  9
$STYLESHEET
  1
monochrome.ctb
  9
$XEDIT
290
     1
  9
$CEPSNTYPE
380
     0
  9
$PSTYLEMODE
290
     1
  9
$FINGERPRINTGUID
  2
{2811197E-480F-4320-B848-224DC9578B7B}
  9
$VERSIONGUID
  2
{E9431207-479B-493B-9590-2ECE5430BB20}
  9
$EXTNAMES
290
     1
  9
$PSVPSCALE
 40
0.0
  9
$OLESTARTUP
290
     0
  0
ENDSEC
  0
SECTION
  2
CLASSES
  0
CLASS
  1
ACDBDICTIONARYWDFLT
  2
AcDbDictionaryWithDefault
  3
AutoCAD 2000
 90
        0
280
     0
281
     0
  0
CLASS
  1
ACDBPLACEHOLDER
  2
AcDbPlaceHolder
  3
AutoCAD 2000
 90
        0
280
     0
281
     0
  0
CLASS
  1
LAYOUT
  2
AcDbLayout
  3
AutoCAD 2000
 90
        0
280
     0
281
     0
  0
ENDSEC
  0
SECTION
  2
TABLES
  0
TABLE
  2
VPORT
  5
1876
330
0
100
AcDbSymbolTable
 70
     2
  0
VPORT
  5
3341
330
1876
100
AcDbSymbolTableRecord
100
AcDbViewportTableRecord
  2
*Active
 70
     0
 10
0.0
 20
0.0
 11
1.0
 21
1.0
 12
8.300262490520561
 22
5.163887049145868
 13
0.0
 23
0.0
 14
1.0
 24
1.0
 15
0.0
 25
0.0
 16
0.0
 26
0.0
 36
1.0
 17
0.0
 27
0.0
 37
0.0
 40
10.4317298881264
 41
1.824707846410684
 42
50.0
 43
0.0
 44
0.0
 50
0.0
 51
0.0
 71
     0
 72
   100
 73
     1
 74
     0
 75
     0
 76
     0
 77
     0
 78
     0
281
     0
 65
     0
110
0.0
120
0.0
130
0.0
111
1.0
121
0.0
131
0.0
112
0.0
122
1.0
132
0.0
 79
     0
146
0.0
  0
ENDTAB
  0
TABLE
  2
LTYPE
  5
1873
330
0
100
AcDbSymbolTable
 70
     7
  0
LTYPE
  5
1881
330
1873
100
AcDbSymbolTableRecord
100
AcDbLinetypeTableRecord
  2
ByBlock
 70
     0
  3

 72
    65
 73
     0
 40
0.0
  0
LTYPE
  5
1882
330
1873
100
AcDbSymbolTableRecord
100
AcDbLinetypeTableRecord
  2
ByLayer
 70
     0
  3

 72
    65
 73
     0
 40
0.0
  0
LTYPE
  5
1883
330
1873
100
AcDbSymbolTableRecord
100
AcDbLinetypeTableRecord
  2
CONTINUOUS
 70
     0
  3
Solid line
 72
    65
 73
     0
 40
0.0
  0
LTYPE
  5
1893
330
1873
100
AcDbSymbolTableRecord
100
AcDbLinetypeTableRecord
  2
CENTER2
 70
     0
  3
Center (.5x) ___ _ ___ _ ___ _ ___ _ ___ _ ___
 72
    65
 73
     4
 40
1.125
 49
0.75
 74
     0
 49
-0.125
 74
     0
 49
0.125
 74
     0
 49
-0.125
 74
     0
  0
LTYPE
  5
1894
330
1873
100
AcDbSymbolTableRecord
100
AcDbLinetypeTableRecord
  2
HIDDEN2
 70
     0
  3
Hidden (.5x) _ _ _ _ _ _ _ _ _ _ _ _ _ _ _ _ _
 72
    65
 73
     2
 40
0.1875
 49
0.125
 74
     0
 49
-0.0625
 74
     0
  0
LTYPE
  5
2D12
330
1873
100
AcDbSymbolTableRecord
100
AcDbLinetypeTableRecord
  2
HIDDEN
 70
     0
  3
_ _ _ _ _ _ _ _ _ _ _ _ _ _ _ _ _ _ _ _ _ _ _
 72
    65
 73
     2
 40
0.375
 49
0.25
 74
     0
 49
-0.125
 74
     0
  0
LTYPE
  5
2D13
330
1873
100
AcDbSymbolTableRecord
100
AcDbLinetypeTableRecord
  2
PHANTOM
 70
     0
  3
_____ _ _ _____ _ _ _____ _ _ _____ _ _ ____
 72
    65
 73
     6
 40
2.5
 49
1.25
 74
     0
 49
-0.25
 74
     0
 49
0.25
 74
     0
 49
-0.25
 74
     0
 49
0.25
 74
     0
 49
-0.25
 74
     0
  0
LTYPE
  5
2D14
330
1873
100
AcDbSymbolTableRecord
100
AcDbLinetypeTableRecord
  2
CENTER
 70
     0
  3
____ _ ____ _ ____ _ ____ _ ____ _ ____ _ ____
 72
    65
 73
     4
 40
2.0
 49
1.25
 74
     0
 49
-0.25
 74
     0
 49
0.25
 74
     0
 49
-0.25
 74
     0
  0
LTYPE
  5
2D15
330
1873
100
AcDbSymbolTableRecord
100
AcDbLinetypeTableRecord
  2
PHANTOM2
 70
     0
  3
___ _ _ ___ _ _ ___ _ _ ___ _ _ ___ _ _ ___ _ _
 72
    65
 73
     6
 40
1.25
 49
0.625
 74
     0
 49
-0.125
 74
     0
 49
0.125
 74
     0
 49
-0.125
 74
     0
 49
0.125
 74
     0
 49
-0.125
 74
     0
  0
ENDTAB
  0
TABLE
  2
LAYER
  5
1870
330
0
100
AcDbSymbolTable
 70
    14
  0
LAYER
  5
187E
330
1870
100
AcDbSymbolTableRecord
100
AcDbLayerTableRecord
  2
0
 70
     0
 62
     7
  6
CONTINUOUS
370
    -3
390
187D
  0
LAYER
  5
1890
330
1870
100
AcDbSymbolTableRecord
100
AcDbLayerTableRecord
  2
DIM
 70
     0
 62
     7
  6
CONTINUOUS
370
    -3
390
187D
  0
LAYER
  5
1895
330
1870
100
AcDbSymbolTableRecord
100
AcDbLayerTableRecord
  2
TEXT
 70
     0
 62
     7
  6
CONTINUOUS
370
    -3
390
187D
  0
LAYER
  5
1896
330
1870
100
AcDbSymbolTableRecord
100
AcDbLayerTableRecord
  2
TITLE
 70
     0
 62
     7
  6
CONTINUOUS
370
    -3
390
187D
  0
LAYER
  5
1897
330
1870
100
AcDbSymbolTableRecord
100
AcDbLayerTableRecord
  2
DEFPOINTS
 70
     0
 62
     7
  6
CONTINUOUS
290
     0
370
    -3
390
187D
  0
LAYER
  5
1898
330
1870
100
AcDbSymbolTableRecord
100
AcDbLayerTableRecord
  2
COVER
 70
     0
 62
     7
  6
CONTINUOUS
370
    -3
390
187D
  0
LAYER
  5
1899
330
1870
100
AcDbSymbolTableRecord
100
AcDbLayerTableRecord
  2
BASE
 70
     0
 62
     7
  6
CONTINUOUS
370
    -3
390
187D
  0
LAYER
  5
189A
330
1870
100
AcDbSymbolTableRecord
100
AcDbLayerTableRecord
  2
BUTTON
 70
     0
 62
     7
  6
CONTINUOUS
370
    -3
390
187D
  0
LAYER
  5
189C
330
1870
100
AcDbSymbolTableRecord
100
AcDbLayerTableRecord
  2
HIDDEN
 70
     0
 62
     7
  6
HIDDEN2
370
    -3
390
187D
  0
LAYER
  5
189D
330
1870
100
AcDbSymbolTableRecord
100
AcDbLayerTableRecord
  2
ARCHIVE
 70
     0
 62
    -5
  6
CONTINUOUS
370
    -3
390
187D
  0
LAYER
  5
189E
330
1870
100
AcDbSymbolTableRecord
100
AcDbLayerTableRecord
  2
SAVED
 70
     0
 62
    -7
  6
CONTINUOUS
370
    -3
390
187D
  0
LAYER
  5
189F
330
1870
100
AcDbSymbolTableRecord
100
AcDbLayerTableRecord
  2
OBJECT
 70
     0
 62
     7
  6
CONTINUOUS
370
    -3
390
187D
  0
LAYER
  5
2D16
330
1870
100
AcDbSymbolTableRecord
100
AcDbLayerTableRecord
  2
BEND
 70
     0
 62
     7
  6
PHANTOM
370
    -3
390
187D
  0
LAYER
  5
2D17
330
1870
100
AcDbSymbolTableRecord
100
AcDbLayerTableRecord
  2
CENTER
 70
     0
 62
     7
  6
CENTER
370
    -3
390
187D
  0
ENDTAB
  0
TABLE
  2
STYLE
  5
1871
330
0
100
AcDbSymbolTable
 70
     2
  0
STYLE
  5
187F
330
1871
100
AcDbSymbolTableRecord
100
AcDbTextStyleTableRecord
  2
STANDARD
 70
     0
 40
0.2
 41
1.0
 50
0.0
 71
     0
 42
0.2
  3
txt
  4

  0
STYLE
  5
1891
330
1871
100
AcDbSymbolTableRecord
100
AcDbTextStyleTableRecord
  2
TXT
 70
     0
 40
0.0
 41
0.75
 50
0.0
 71
     0
 42
0.2
  3
TXT.shx
  4

  0
ENDTAB
  0
TABLE
  2
VIEW
  5
1874
330
0
100
AcDbSymbolTable
 70
     0
  0
ENDTAB
  0
TABLE
  2
UCS
  5
1875
330
0
100
AcDbSymbolTable
 70
     0
  0
ENDTAB
  0
TABLE
  2
APPID
  5
1877
330
0
100
AcDbSymbolTable
 70
     2
  0
APPID
  5
1880
330
1877
100
AcDbSymbolTableRecord
100
AcDbRegAppTableRecord
  2
ACAD
 70
     0
  0
APPID
  5
2B29
330
1877
100
AcDbSymbolTableRecord
100
AcDbRegAppTableRecord
  2
DCO15
 70
     0
  0
ENDTAB
  0
TABLE
  2
DIMSTYLE
  5
1878
330
0
100
AcDbSymbolTable
 70
     4
100
AcDbDimStyleTable
 71
     2
340
18A5
340
18A2
  0
DIMSTYLE
105
18A2
102
{ACAD_REACTORS
330
289E
330
28AC
330
288A
330
28BA
330
28C8
330
2909
330
28FA
330
2925
330
293F
102
}
330
1878
100
AcDbSymbolTableRecord
100
AcDbDimStyleTableRecord
  2
STANDARD
 70
     0
271
     3
272
     3
279
     2
340
1891
  0
DIMSTYLE
105
18A5
102
{ACAD_REACTORS
330
2AAD
330
2A83
330
27C8
330
2931
330
28EC
330
3193
330
28DE
330
2917
330
294D
330
27BA
330
2AEF
330
2AE1
330
2B0B
330
2A75
330
2AFD
330
2A9F
330
2A91
330
2AD3
330
2B19
330
2AC9
330
2ABB
102
}
330
1878
100
AcDbSymbolTableRecord
100
AcDbDimStyleTableRecord
  2
DIM
 70
     0
 42
0.063
 43
0.281
 44
0.093
140
0.125
271
     3
272
     3
289
     1
340
1891
  0
DIMSTYLE
105
2D18
330
1878
100
AcDbSymbolTableRecord
100
AcDbDimStyleTableRecord
  2
23NSTD
 70
     0
 42
0.063
 43
0.25
 44
0.093
140
0.125
271
     3
272
     3
289
     1
340
1891
  0
DIMSTYLE
105
2D19
330
1878
100
AcDbSymbolTableRecord
100
AcDbDimStyleTableRecord
  2
23NSTDI
 70
     0
 42
0.063
 43
0.25
 44
0.093
140
0.125
174
     1
271
     3
272
     3
340
1891
  0
ENDTAB
  0
TABLE
  2
BLOCK_RECORD
  5
186F
330
0
100
AcDbSymbolTable
 70
    31
  0
BLOCK_RECORD
  5
188C
330
186F
100
AcDbSymbolTableRecord
100
AcDbBlockTableRecord
  2
*Model_Space
340
188F
  0
BLOCK_RECORD
  5
1888
330
186F
100
AcDbSymbolTableRecord
100
AcDbBlockTableRecord
  2
*Paper_Space
340
188B
  0
BLOCK_RECORD
  5
18AE
330
186F
100
AcDbSymbolTableRecord
100
AcDbBlockTableRecord
  2
CL
340
0
102
{BLKREFS
331
287F
331
2880
331
2888
331
2889
331
29A8
331
29AD
331
2A64
331
2A65
331
2A66
331
2A67
102
}
  0
BLOCK_RECORD
  5
27BB
330
186F
100
AcDbSymbolTableRecord
100
AcDbBlockTableRecord
  2
*D1
340
0
  0
BLOCK_RECORD
  5
27C9
330
186F
100
AcDbSymbolTableRecord
100
AcDbBlockTableRecord
  2
*D2
340
0
  0
BLOCK_RECORD
  5
288B
330
186F
100
AcDbSymbolTableRecord
100
AcDbBlockTableRecord
  2
*D3
340
0
  0
BLOCK_RECORD
  5
289F
330
186F
100
AcDbSymbolTableRecord
100
AcDbBlockTableRecord
  2
*D4
340
0
  0
BLOCK_RECORD
  5
28AD
330
186F
100
AcDbSymbolTableRecord
100
AcDbBlockTableRecord
  2
*D5
340
0
  0
BLOCK_RECORD
  5
28BB
330
186F
100
AcDbSymbolTableRecord
100
AcDbBlockTableRecord
  2
*D6
340
0
  0
BLOCK_RECORD
  5
28C9
330
186F
100
AcDbSymbolTableRecord
100
AcDbBlockTableRecord
  2
*D7
340
0
  0
BLOCK_RECORD
  5
28DF
330
186F
100
AcDbSymbolTableRecord
100
AcDbBlockTableRecord
  2
*D8
340
0
  0
BLOCK_RECORD
  5
28ED
330
186F
100
AcDbSymbolTableRecord
100
AcDbBlockTableRecord
  2
*D9
340
0
  0
BLOCK_RECORD
  5
28FB
330
186F
100
AcDbSymbolTableRecord
100
AcDbBlockTableRecord
  2
*D10
340
0
  0
BLOCK_RECORD
  5
290A
330
186F
100
AcDbSymbolTableRecord
100
AcDbBlockTableRecord
  2
*D11
340
0
  0
BLOCK_RECORD
  5
2918
330
186F
100
AcDbSymbolTableRecord
100
AcDbBlockTableRecord
  2
*D12
340
0
  0
BLOCK_RECORD
  5
2926
330
186F
100
AcDbSymbolTableRecord
100
AcDbBlockTableRecord
  2
*D13
340
0
  0
BLOCK_RECORD
  5
2932
330
186F
100
AcDbSymbolTableRecord
100
AcDbBlockTableRecord
  2
*D14
340
0
  0
BLOCK_RECORD
  5
2940
330
186F
100
AcDbSymbolTableRecord
100
AcDbBlockTableRecord
  2
*D15
340
0
  0
BLOCK_RECORD
  5
294E
330
186F
100
AcDbSymbolTableRecord
100
AcDbBlockTableRecord
  2
*D16
340
0
  0
BLOCK_RECORD
  5
2A76
330
186F
100
AcDbSymbolTableRecord
100
AcDbBlockTableRecord
  2
*D17
340
0
  0
BLOCK_RECORD
  5
2A84
330
186F
100
AcDbSymbolTableRecord
100
AcDbBlockTableRecord
  2
*D18
340
0
  0
BLOCK_RECORD
  5
2A92
330
186F
100
AcDbSymbolTableRecord
100
AcDbBlockTableRecord
  2
*D19
340
0
  0
BLOCK_RECORD
  5
2AA0
330
186F
100
AcDbSymbolTableRecord
100
AcDbBlockTableRecord
  2
*D20
340
0
  0
BLOCK_RECORD
  5
2AAE
330
186F
100
AcDbSymbolTableRecord
100
AcDbBlockTableRecord
  2
*D21
340
0
  0
BLOCK_RECORD
  5
2ABC
330
186F
100
AcDbSymbolTableRecord
100
AcDbBlockTableRecord
  2
*D22
340
0
  0
BLOCK_RECORD
  5
2ACA
330
186F
100
AcDbSymbolTableRecord
100
AcDbBlockTableRecord
  2
*D23
340
0
  0
BLOCK_RECORD
  5
2AD4
330
186F
100
AcDbSymbolTableRecord
100
AcDbBlockTableRecord
  2
*D24
340
0
  0
BLOCK_RECORD
  5
2AE2
330
186F
100
AcDbSymbolTableRecord
100
AcDbBlockTableRecord
  2
*D25
340
0
  0
BLOCK_RECORD
  5
2AF0
330
186F
100
AcDbSymbolTableRecord
100
AcDbBlockTableRecord
  2
*D26
340
0
  0
BLOCK_RECORD
  5
2AFE
330
186F
100
AcDbSymbolTableRecord
100
AcDbBlockTableRecord
  2
*D27
340
0
  0
BLOCK_RECORD
  5
2B0C
330
186F
100
AcDbSymbolTableRecord
100
AcDbBlockTableRecord
  2
*D28
340
0
  0
BLOCK_RECORD
  5
2B1A
330
186F
100
AcDbSymbolTableRecord
100
AcDbBlockTableRecord
  2
*D29
340
0
  0
BLOCK_RECORD
  5
2D1A
330
186F
100
AcDbSymbolTableRecord
100
AcDbBlockTableRecord
  2
HBS
340
0
102
{BLKREFS
331
2D33
102
}
  0
ENDTAB
  0
ENDSEC
  0
SECTION
  2
BLOCKS
  0
BLOCK
  5
188D
330
188C
100
AcDbEntity
  8
0
100
AcDbBlockBegin
  2
*Model_Space
 70
     0
 10
0.0
 20
0.0
 30
0.0
  3
*Model_Space
  1

  0
ENDBLK
  5
188E
330
188C
100
AcDbEntity
  8
0
100
AcDbBlockEnd
  0
BLOCK
  5
1889
330
1888
100
AcDbEntity
 67
     1
  8
0
100
AcDbBlockBegin
  2
*Paper_Space
 70
     0
 10
0.0
 20
0.0
 30
0.0
  3
*Paper_Space
  1

  0
ENDBLK
  5
188A
330
1888
100
AcDbEntity
 67
     1
  8
0
100
AcDbBlockEnd
  0
BLOCK
  5
18AF
330
18AE
100
AcDbEntity
  8
0
100
AcDbBlockBegin
  2
CL
 70
     0
 10
0.0
 20
0.0
 30
0.0
  3
CL
  1

  0
TEXT
  5
18B0
330
18AE
100
AcDbEntity
  8
0
 62
     4
100
AcDbText
 10
-0.0446487846840817
 20
-0.0006419411893219
 30
0.0
 40
0.125
  1
C
100
AcDbText
  0
TEXT
  5
18B1
330
18AE
100
AcDbEntity
  8
0
 62
     4
100
AcDbText
 10
0.0023360547861877
 20
-0.065809302625766
 30
0.0
 40
0.125
  1
L
100
AcDbText
  0
ENDBLK
  5
18B2
330
18AE
100
AcDbEntity
  8
0
100
AcDbBlockEnd
  0
BLOCK
  5
27C6
330
27BB
100
AcDbEntity
  8
0
100
AcDbBlockBegin
  2
*D1
 70
     1
 10
0.0
 20
0.0
 30
0.0
  3
*D1
  1

  0
LINE
  5
32B2
330
27BB
100
AcDbEntity
  8
DIM
 62
     0
370
    -2
100
AcDbLine
 10
6.707751235626949
 20
3.352955139543447
 30
0.0
 11
6.707751235626949
 21
2.830238396308246
 31
0.0
  0
LINE
  5
32B3
330
27BB
100
AcDbEntity
  8
DIM
 62
     0
370
    -2
100
AcDbLine
 10
7.107751235626949
 20
3.816455139543449
 30
0.0
 11
7.107751235626949
 21
2.830238396308246
 31
0.0
  0
LINE
  5
32B4
330
27BB
100
AcDbEntity
  8
DIM
 62
     0
370
    -2
100
AcDbLine
 10
7.287751235626949
 20
2.923238396308246
 30
0.0
 11
7.467751235626949
 21
2.923238396308246
 31
0.0
  0
LINE
  5
32B5
330
27BB
100
AcDbEntity
  8
DIM
 62
     0
370
    -2
100
AcDbLine
 10
6.527751235626949
 20
2.923238396308246
 30
0.0
 11
6.347751235626948
 21
2.923238396308246
 31
0.0
  0
SOLID
  5
32B6
330
27BB
100
AcDbEntity
  8
DIM
 62
     0
100
AcDbTrace
 10
7.287751235626949
 20
2.953238396308245
 30
0.0
 11
7.287751235626949
 21
2.893238396308246
 31
0.0
 12
7.107751235626949
 22
2.923238396308246
 32
0.0
 13
7.107751235626949
 23
2.923238396308246
 33
0.0
  0
SOLID
  5
32B7
330
27BB
100
AcDbEntity
  8
DIM
 62
     0
100
AcDbTrace
 10
6.527751235626949
 20
2.953238396308245
 30
0.0
 11
6.527751235626949
 21
2.893238396308246
 31
0.0
 12
6.707751235626949
 22
2.923238396308246
 32
0.0
 13
6.707751235626949
 23
2.923238396308246
 33
0.0
  0
MTEXT
  5
32B8
330
27BB
100
AcDbEntity
  8
DIM
 62
     0
100
AcDbMText
 10
6.093688735626948
 20
2.923238396308246
 30
0.0
 40
0.125
 41
0.0
 71
     5
 72
     1
  1
\A1;0.400
  7
TXT
 73
     1
 44
1.0
  0
POINT
  5
32B9
330
27BB
100
AcDbEntity
  8
DEFPOINTS
 62
     0
100
AcDbPoint
 10
6.707751235626949
 20
3.415955139543447
 30
0.0
  0
POINT
  5
32BA
330
27BB
100
AcDbEntity
  8
DEFPOINTS
 62
     0
100
AcDbPoint
 10
7.107751235626949
 20
3.879455139543449
 30
0.0
  0
POINT
  5
32BB
330
27BB
100
AcDbEntity
  8
DEFPOINTS
 62
     0
100
AcDbPoint
 10
7.107751235626949
 20
2.923238396308246
 30
0.0
  0
ENDBLK
  5
27C7
330
27BB
100
AcDbEntity
  8
0
100
AcDbBlockEnd
  0
BLOCK
  5
27D4
330
27C9
100
AcDbEntity
  8
0
100
AcDbBlockBegin
  2
*D2
 70
     1
 10
0.0
 20
0.0
 30
0.0
  3
*D2
  1

  0
LINE
  5
3276
330
27C9
100
AcDbEntity
  8
DIM
 62
     0
370
    -2
100
AcDbLine
 10
6.707751235626949
 20
5.651955139543447
 30
0.0
 11
6.707751235626949
 21
6.301858741659096
 31
0.0
  0
LINE
  5
3277
330
27C9
100
AcDbEntity
  8
DIM
 62
     0
370
    -2
100
AcDbLine
 10
7.157751235626948
 20
4.917955139543449
 30
0.0
 11
7.157751235626948
 21
6.301858741659096
 31
0.0
  0
LINE
  5
3278
330
27C9
100
AcDbEntity
  8
DIM
 62
     0
370
    -2
100
AcDbLine
 10
6.527751235626949
 20
6.208858741659096
 30
0.0
 11
6.347751235626948
 21
6.208858741659096
 31
0.0
  0
LINE
  5
3279
330
27C9
100
AcDbEntity
  8
DIM
 62
     0
370
    -2
100
AcDbLine
 10
7.337751235626948
 20
6.208858741659096
 30
0.0
 11
7.517751235626947
 21
6.208858741659096
 31
0.0
  0
SOLID
  5
327A
330
27C9
100
AcDbEntity
  8
DIM
 62
     0
100
AcDbTrace
 10
6.527751235626949
 20
6.238858741659096
 30
0.0
 11
6.527751235626949
 21
6.178858741659095
 31
0.0
 12
6.707751235626949
 22
6.208858741659096
 32
0.0
 13
6.707751235626949
 23
6.208858741659096
 33
0.0
  0
SOLID
  5
327B
330
27C9
100
AcDbEntity
  8
DIM
 62
     0
100
AcDbTrace
 10
7.337751235626948
 20
6.238858741659096
 30
0.0
 11
7.337751235626948
 21
6.178858741659095
 31
0.0
 12
7.157751235626948
 22
6.208858741659096
 32
0.0
 13
7.157751235626948
 23
6.208858741659096
 33
0.0
  0
MTEXT
  5
327C
330
27C9
100
AcDbEntity
  8
DIM
 62
     0
100
AcDbMText
 10
8.092126235626947
 20
6.208858741659096
 30
0.0
 40
0.125
 41
0.0
 71
     5
 72
     1
  1
\A1;0.450\P(W/BUTTONS)
  7
TXT
 73
     1
 44
1.0
  0
POINT
  5
327D
330
27C9
100
AcDbEntity
  8
DEFPOINTS
 62
     0
100
AcDbPoint
 10
6.707751235626949
 20
5.588955139543447
 30
0.0
  0
POINT
  5
327E
330
27C9
100
AcDbEntity
  8
DEFPOINTS
 62
     0
100
AcDbPoint
 10
7.157751235626948
 20
4.85495513954345
 30
0.0
  0
POINT
  5
327F
330
27C9
100
AcDbEntity
  8
DEFPOINTS
 62
     0
100
AcDbPoint
 10
7.157751235626948
 20
6.208858741659096
 30
0.0
  0
ENDBLK
  5
27D5
330
27C9
100
AcDbEntity
  8
0
100
AcDbBlockEnd
  0
BLOCK
  5
2896
330
288B
100
AcDbEntity
  8
0
100
AcDbBlockBegin
  2
*D3
 70
     1
 10
0.0
 20
0.0
 30
0.0
  3
*D3
  1

  0
LINE
  5
2DD2
330
288B
100
AcDbEntity
  8
ARCHIVE
 62
     0
370
    -2
100
AcDbLine
 10
11.31773523923361
 20
3.978294368401715
 30
0.0
 11
11.87430756016874
 21
3.978294368401715
 31
0.0
  0
LINE
  5
2DD3
330
288B
100
AcDbEntity
  8
ARCHIVE
 62
     0
370
    -2
100
AcDbLine
 10
10.88630756016873
 20
3.860794368401715
 30
0.0
 11
11.87430756016874
 21
3.860794368401715
 31
0.0
  0
LINE
  5
2DD4
330
288B
100
AcDbEntity
  8
ARCHIVE
 62
     0
370
    -2
100
AcDbLine
 10
11.69430756016874
 20
4.158294368401715
 30
0.0
 11
11.69430756016874
 21
4.338294368401715
 31
0.0
  0
LINE
  5
2DD5
330
288B
100
AcDbEntity
  8
ARCHIVE
 62
     0
370
    -2
100
AcDbLine
 10
11.69430756016874
 20
3.680794368401715
 30
0.0
 11
11.69430756016874
 21
3.500794368401715
 31
0.0
  0
MTEXT
  5
2DD6
330
288B
100
AcDbEntity
  8
ARCHIVE
 62
     0
100
AcDbMText
 10
11.69430756016874
 20
3.919544368401718
 30
0.0
 40
0.18
 41
0.0
 71
     5
 72
     1
  1
\A1;0.118
  7
TXT
 73
     1
 44
1.0
  0
SOLID
  5
2DD7
330
288B
100
AcDbEntity
  8
ARCHIVE
 62
     0
100
AcDbTrace
 10
11.66430756016874
 20
4.158294368401715
 30
0.0
 11
11.72430756016874
 21
4.158294368401715
 31
0.0
 12
11.69430756016874
 22
3.978294368401715
 32
0.0
 13
11.69430756016874
 23
3.978294368401715
 33
0.0
  0
SOLID
  5
2DD8
330
288B
100
AcDbEntity
  8
ARCHIVE
 62
     0
100
AcDbTrace
 10
11.66430756016874
 20
3.680794368401715
 30
0.0
 11
11.72430756016874
 21
3.680794368401715
 31
0.0
 12
11.69430756016874
 22
3.860794368401715
 32
0.0
 13
11.69430756016874
 23
3.860794368401715
 33
0.0
  0
POINT
  5
2DD9
330
288B
100
AcDbEntity
  8
DEFPOINTS
 62
     0
100
AcDbPoint
 10
11.25523523923361
 20
3.978294368401715
 30
0.0
  0
POINT
  5
2DDA
330
288B
100
AcDbEntity
  8
DEFPOINTS
 62
     0
100
AcDbPoint
 10
10.82380756016873
 20
3.860794368401715
 30
0.0
  0
POINT
  5
2DDB
330
288B
100
AcDbEntity
  8
DEFPOINTS
 62
     0
100
AcDbPoint
 10
11.69430756016874
 20
3.860794368401715
 30
0.0
  0
ENDBLK
  5
2897
330
288B
100
AcDbEntity
  8
0
100
AcDbBlockEnd
  0
BLOCK
  5
28AA
330
289F
100
AcDbEntity
  8
0
100
AcDbBlockBegin
  2
*D4
 70
     1
 10
0.0
 20
0.0
 30
0.0
  3
*D4
  1

  0
LINE
  5
2DBE
330
289F
100
AcDbEntity
  8
ARCHIVE
 62
     0
370
    -2
100
AcDbLine
 10
9.705879881103864
 20
3.978294368401715
 30
0.0
 11
8.649307560168734
 21
3.978294368401715
 31
0.0
  0
LINE
  5
2DBF
330
289F
100
AcDbEntity
  8
ARCHIVE
 62
     0
370
    -2
100
AcDbLine
 10
10.41930756016873
 20
3.548794368401717
 30
0.0
 11
8.649307560168734
 21
3.548794368401717
 31
0.0
  0
LINE
  5
2DC0
330
289F
100
AcDbEntity
  8
ARCHIVE
 62
     0
370
    -2
100
AcDbLine
 10
8.829307560168736
 20
4.158294368401715
 30
0.0
 11
8.829307560168736
 21
4.338294368401715
 31
0.0
  0
LINE
  5
2DC1
330
289F
100
AcDbEntity
  8
ARCHIVE
 62
     0
370
    -2
100
AcDbLine
 10
8.829307560168734
 20
3.368794368401717
 30
0.0
 11
8.829307560168734
 21
3.188794368401717
 31
0.0
  0
MTEXT
  5
2DC2
330
289F
100
AcDbEntity
  8
ARCHIVE
 62
     0
100
AcDbMText
 10
8.829307560168732
 20
3.763544368401717
 30
0.0
 40
0.18
 41
0.0
 71
     5
 72
     1
  1
\A1;0.430
  7
TXT
 73
     1
 44
1.0
  0
SOLID
  5
2DC3
330
289F
100
AcDbEntity
  8
ARCHIVE
 62
     0
100
AcDbTrace
 10
8.799307560168736
 20
4.158294368401715
 30
0.0
 11
8.859307560168735
 21
4.158294368401715
 31
0.0
 12
8.829307560168734
 22
3.978294368401715
 32
0.0
 13
8.829307560168734
 23
3.978294368401715
 33
0.0
  0
SOLID
  5
2DC4
330
289F
100
AcDbEntity
  8
ARCHIVE
 62
     0
100
AcDbTrace
 10
8.799307560168735
 20
3.368794368401717
 30
0.0
 11
8.859307560168733
 21
3.368794368401717
 31
0.0
 12
8.829307560168734
 22
3.548794368401717
 32
0.0
 13
8.829307560168734
 23
3.548794368401717
 33
0.0
  0
POINT
  5
2DC5
330
289F
100
AcDbEntity
  8
DEFPOINTS
 62
     0
100
AcDbPoint
 10
9.768379881103864
 20
3.978294368401715
 30
0.0
  0
POINT
  5
2DC6
330
289F
100
AcDbEntity
  8
DEFPOINTS
 62
     0
100
AcDbPoint
 10
10.48180756016873
 20
3.548794368401717
 30
0.0
  0
POINT
  5
2DC7
330
289F
100
AcDbEntity
  8
DEFPOINTS
 62
     0
100
AcDbPoint
 10
8.829307560168734
 20
3.548794368401717
 30
0.0
  0
ENDBLK
  5
28AB
330
289F
100
AcDbEntity
  8
0
100
AcDbBlockEnd
  0
BLOCK
  5
28B8
330
28AD
100
AcDbEntity
  8
0
100
AcDbBlockBegin
  2
*D5
 70
     1
 10
0.0
 20
0.0
 30
0.0
  3
*D5
  1

  0
LINE
  5
2DC8
330
28AD
100
AcDbEntity
  8
ARCHIVE
 62
     0
370
    -2
100
AcDbLine
 10
9.705879881103864
 20
3.978294368401715
 30
0.0
 11
9.149307560168733
 21
3.978294368401715
 31
0.0
  0
LINE
  5
2DC9
330
28AD
100
AcDbEntity
  8
ARCHIVE
 62
     0
370
    -2
100
AcDbLine
 10
10.41930756016873
 20
4.172794368401715
 30
0.0
 11
9.149307560168734
 21
4.172794368401716
 31
0.0
  0
LINE
  5
2DCA
330
28AD
100
AcDbEntity
  8
ARCHIVE
 62
     0
370
    -2
100
AcDbLine
 10
9.329307560168732
 20
3.798294368401715
 30
0.0
 11
9.329307560168732
 21
3.618294368401715
 31
0.0
  0
LINE
  5
2DCB
330
28AD
100
AcDbEntity
  8
ARCHIVE
 62
     0
370
    -2
100
AcDbLine
 10
9.329307560168734
 20
4.352794368401716
 30
0.0
 11
9.329307560168734
 21
4.532794368401717
 31
0.0
  0
MTEXT
  5
2DCC
330
28AD
100
AcDbEntity
  8
ARCHIVE
 62
     0
100
AcDbMText
 10
9.329307560168723
 20
4.075544368401717
 30
0.0
 40
0.18
 41
0.0
 71
     5
 72
     1
  1
\A1;0.195
  7
TXT
 73
     1
 44
1.0
  0
SOLID
  5
2DCD
330
28AD
100
AcDbEntity
  8
ARCHIVE
 62
     0
100
AcDbTrace
 10
9.299307560168733
 20
3.798294368401715
 30
0.0
 11
9.359307560168732
 21
3.798294368401715
 31
0.0
 12
9.329307560168732
 22
3.978294368401715
 32
0.0
 13
9.329307560168732
 23
3.978294368401715
 33
0.0
  0
SOLID
  5
2DCE
330
28AD
100
AcDbEntity
  8
ARCHIVE
 62
     0
100
AcDbTrace
 10
9.299307560168735
 20
4.352794368401716
 30
0.0
 11
9.359307560168733
 21
4.352794368401716
 31
0.0
 12
9.329307560168734
 22
4.172794368401716
 32
0.0
 13
9.329307560168734
 23
4.172794368401716
 33
0.0
  0
POINT
  5
2DCF
330
28AD
100
AcDbEntity
  8
DEFPOINTS
 62
     0
100
AcDbPoint
 10
9.768379881103864
 20
3.978294368401715
 30
0.0
  0
POINT
  5
2DD0
330
28AD
100
AcDbEntity
  8
DEFPOINTS
 62
     0
100
AcDbPoint
 10
10.48180756016873
 20
4.172794368401715
 30
0.0
  0
POINT
  5
2DD1
330
28AD
100
AcDbEntity
  8
DEFPOINTS
 62
     0
100
AcDbPoint
 10
9.329307560168734
 20
4.172794368401716
 30
0.0
  0
ENDBLK
  5
28B9
330
28AD
100
AcDbEntity
  8
0
100
AcDbBlockEnd
  0
BLOCK
  5
28C6
330
28BB
100
AcDbEntity
  8
0
100
AcDbBlockBegin
  2
*D6
 70
     1
 10
0.0
 20
0.0
 30
0.0
  3
*D6
  1

  0
LINE
  5
2DB4
330
28BB
100
AcDbEntity
  8
ARCHIVE
 62
     0
370
    -2
100
AcDbLine
 10
10.51180756016873
 20
2.698294368401716
 30
0.0
 11
10.51180756016873
 21
2.280794368401716
 31
0.0
  0
LINE
  5
2DB5
330
28BB
100
AcDbEntity
  8
ARCHIVE
 62
     0
370
    -2
100
AcDbLine
 10
10.82380756016873
 20
3.768294368401715
 30
0.0
 11
10.82380756016873
 21
2.280794368401716
 31
0.0
  0
LINE
  5
2DB6
330
28BB
100
AcDbEntity
  8
ARCHIVE
 62
     0
370
    -2
100
AcDbLine
 10
10.33180756016873
 20
2.460794368401716
 30
0.0
 11
10.15180756016873
 21
2.460794368401716
 31
0.0
  0
LINE
  5
2DB7
330
28BB
100
AcDbEntity
  8
ARCHIVE
 62
     0
370
    -2
100
AcDbLine
 10
11.00380756016873
 20
2.460794368401716
 30
0.0
 11
11.18380756016873
 21
2.460794368401716
 31
0.0
  0
MTEXT
  5
2DB8
330
28BB
100
AcDbEntity
  8
ARCHIVE
 62
     0
100
AcDbMText
 10
11.56630756016873
 20
2.460794368401716
 30
0.0
 40
0.18
 41
0.0
 71
     5
 72
     1
  1
\A1;0.312
  7
TXT
 73
     1
 44
1.0
  0
SOLID
  5
2DB9
330
28BB
100
AcDbEntity
  8
ARCHIVE
 62
     0
100
AcDbTrace
 10
10.33180756016873
 20
2.490794368401715
 30
0.0
 11
10.33180756016873
 21
2.430794368401716
 31
0.0
 12
10.51180756016873
 22
2.460794368401716
 32
0.0
 13
10.51180756016873
 23
2.460794368401716
 33
0.0
  0
SOLID
  5
2DBA
330
28BB
100
AcDbEntity
  8
ARCHIVE
 62
     0
100
AcDbTrace
 10
11.00380756016873
 20
2.490794368401715
 30
0.0
 11
11.00380756016873
 21
2.430794368401716
 31
0.0
 12
10.82380756016873
 22
2.460794368401716
 32
0.0
 13
10.82380756016873
 23
2.460794368401716
 33
0.0
  0
POINT
  5
2DBB
330
28BB
100
AcDbEntity
  8
DEFPOINTS
 62
     0
100
AcDbPoint
 10
10.51180756016873
 20
2.760794368401716
 30
0.0
  0
POINT
  5
2DBC
330
28BB
100
AcDbEntity
  8
DEFPOINTS
 62
     0
100
AcDbPoint
 10
10.82380756016873
 20
3.830794368401715
 30
0.0
  0
POINT
  5
2DBD
330
28BB
100
AcDbEntity
  8
DEFPOINTS
 62
     0
100
AcDbPoint
 10
10.82380756016873
 20
2.460794368401716
 30
0.0
  0
ENDBLK
  5
28C7
330
28BB
100
AcDbEntity
  8
0
100
AcDbBlockEnd
  0
BLOCK
  5
28D4
330
28C9
100
AcDbEntity
  8
0
100
AcDbBlockBegin
  2
*D7
 70
     1
 10
0.0
 20
0.0
 30
0.0
  3
*D7
  1

  0
LINE
  5
2DAA
330
28C9
100
AcDbEntity
  8
ARCHIVE
 62
     0
370
    -2
100
AcDbLine
 10
10.51180756016873
 20
2.698294368401716
 30
0.0
 11
10.51180756016873
 21
1.880794368401716
 31
0.0
  0
LINE
  5
2DAB
330
28C9
100
AcDbEntity
  8
ARCHIVE
 62
     0
370
    -2
100
AcDbLine
 10
10.19980756016874
 20
3.768294368401715
 30
0.0
 11
10.19980756016874
 21
1.880794368401716
 31
0.0
  0
LINE
  5
2DAC
330
28C9
100
AcDbEntity
  8
ARCHIVE
 62
     0
370
    -2
100
AcDbLine
 10
10.69180756016873
 20
2.060794368401716
 30
0.0
 11
10.87180756016873
 21
2.060794368401716
 31
0.0
  0
LINE
  5
2DAD
330
28C9
100
AcDbEntity
  8
ARCHIVE
 62
     0
370
    -2
100
AcDbLine
 10
10.01980756016874
 20
2.060794368401716
 30
0.0
 11
9.839807560168745
 21
2.060794368401716
 31
0.0
  0
MTEXT
  5
2DAE
330
28C9
100
AcDbEntity
  8
ARCHIVE
 62
     0
100
AcDbMText
 10
9.445795536301211
 20
2.060794368401716
 30
0.0
 40
0.18
 41
0.0
 71
     5
 72
     1
  1
\A1;0.312
  7
TXT
 73
     1
 44
1.0
  0
SOLID
  5
2DAF
330
28C9
100
AcDbEntity
  8
ARCHIVE
 62
     0
100
AcDbTrace
 10
10.69180756016873
 20
2.090794368401716
 30
0.0
 11
10.69180756016873
 21
2.030794368401716
 31
0.0
 12
10.51180756016873
 22
2.060794368401716
 32
0.0
 13
10.51180756016873
 23
2.060794368401716
 33
0.0
  0
SOLID
  5
2DB0
330
28C9
100
AcDbEntity
  8
ARCHIVE
 62
     0
100
AcDbTrace
 10
10.01980756016874
 20
2.090794368401716
 30
0.0
 11
10.01980756016874
 21
2.030794368401716
 31
0.0
 12
10.19980756016874
 22
2.060794368401716
 32
0.0
 13
10.19980756016874
 23
2.060794368401716
 33
0.0
  0
POINT
  5
2DB1
330
28C9
100
AcDbEntity
  8
DEFPOINTS
 62
     0
100
AcDbPoint
 10
10.51180756016873
 20
2.760794368401716
 30
0.0
  0
POINT
  5
2DB2
330
28C9
100
AcDbEntity
  8
DEFPOINTS
 62
     0
100
AcDbPoint
 10
10.19980756016874
 20
3.830794368401715
 30
0.0
  0
POINT
  5
2DB3
330
28C9
100
AcDbEntity
  8
DEFPOINTS
 62
     0
100
AcDbPoint
 10
10.19980756016874
 20
2.060794368401716
 30
0.0
  0
ENDBLK
  5
28D5
330
28C9
100
AcDbEntity
  8
0
100
AcDbBlockEnd
  0
BLOCK
  5
28EA
330
28DF
100
AcDbEntity
  8
0
100
AcDbBlockBegin
  2
*D8
 70
     1
 10
0.0
 20
0.0
 30
0.0
  3
*D8
  1

  0
LINE
  5
3294
330
28DF
100
AcDbEntity
  8
DIM
 62
     0
370
    -2
100
AcDbLine
 10
3.710308242564288
 20
5.19695513954345
 30
0.0
 11
2.963069614254931
 21
5.19695513954345
 31
0.0
  0
LINE
  5
3295
330
28DF
100
AcDbEntity
  8
DIM
 62
     0
370
    -2
100
AcDbLine
 10
3.710308242564288
 20
4.18095513954345
 30
0.0
 11
2.96306961425493
 21
4.18095513954345
 31
0.0
  0
LINE
  5
3296
330
28DF
100
AcDbEntity
  8
DIM
 62
     0
370
    -2
100
AcDbLine
 10
3.056069614254931
 20
5.01695513954345
 30
0.0
 11
3.05606961425493
 21
4.802399600827867
 31
0.0
  0
LINE
  5
3297
330
28DF
100
AcDbEntity
  8
DIM
 62
     0
370
    -2
100
AcDbLine
 10
3.05606961425493
 20
4.36095513954345
 30
0.0
 11
3.05606961425493
 21
4.497399600827868
 31
0.0
  0
SOLID
  5
3298
330
28DF
100
AcDbEntity
  8
DIM
 62
     0
100
AcDbTrace
 10
3.026069614254931
 20
5.01695513954345
 30
0.0
 11
3.086069614254931
 21
5.01695513954345
 31
0.0
 12
3.056069614254931
 22
5.19695513954345
 32
0.0
 13
3.056069614254931
 23
5.19695513954345
 33
0.0
  0
SOLID
  5
3299
330
28DF
100
AcDbEntity
  8
DIM
 62
     0
100
AcDbTrace
 10
3.026069614254931
 20
4.36095513954345
 30
0.0
 11
3.08606961425493
 21
4.36095513954345
 31
0.0
 12
3.05606961425493
 22
4.18095513954345
 32
0.0
 13
3.05606961425493
 23
4.18095513954345
 33
0.0
  0
MTEXT
  5
329A
330
28DF
100
AcDbEntity
  8
DIM
 62
     0
100
AcDbMText
 10
3.05606961425493
 20
4.649899600827868
 30
0.0
 40
0.125
 41
0.0
 71
     5
 72
     1
  1
\A1;1.016
  7
TXT
 73
     1
 44
1.0
  0
POINT
  5
329B
330
28DF
100
AcDbEntity
  8
DEFPOINTS
 62
     0
100
AcDbPoint
 10
3.773308242564288
 20
5.19695513954345
 30
0.0
  0
POINT
  5
329C
330
28DF
100
AcDbEntity
  8
DEFPOINTS
 62
     0
100
AcDbPoint
 10
3.773308242564288
 20
4.18095513954345
 30
0.0
  0
POINT
  5
329D
330
28DF
100
AcDbEntity
  8
DEFPOINTS
 62
     0
100
AcDbPoint
 10
3.05606961425493
 20
4.18095513954345
 30
0.0
  0
ENDBLK
  5
28EB
330
28DF
100
AcDbEntity
  8
0
100
AcDbBlockEnd
  0
BLOCK
  5
28F8
330
28ED
100
AcDbEntity
  8
0
100
AcDbBlockBegin
  2
*D9
 70
     1
 10
0.0
 20
0.0
 30
0.0
  3
*D9
  1

  0
LINE
  5
328A
330
28ED
100
AcDbEntity
  8
DIM
 62
     0
370
    -2
100
AcDbLine
 10
4.218308242564289
 20
5.619955139543448
 30
0.0
 11
2.369454101350447
 21
5.619955139543448
 31
0.0
  0
LINE
  5
328B
330
28ED
100
AcDbEntity
  8
DIM
 62
     0
370
    -2
100
AcDbLine
 10
4.218308242564281
 20
3.384955139543451
 30
0.0
 11
2.369454101350447
 21
3.384955139543452
 31
0.0
  0
LINE
  5
328C
330
28ED
100
AcDbEntity
  8
DIM
 62
     0
370
    -2
100
AcDbLine
 10
2.462454101350447
 20
5.439955139543449
 30
0.0
 11
2.462454101350447
 21
4.640372792000724
 31
0.0
  0
LINE
  5
328D
330
28ED
100
AcDbEntity
  8
DIM
 62
     0
370
    -2
100
AcDbLine
 10
2.462454101350447
 20
3.564955139543452
 30
0.0
 11
2.462454101350447
 21
4.335372792000725
 31
0.0
  0
SOLID
  5
328E
330
28ED
100
AcDbEntity
  8
DIM
 62
     0
100
AcDbTrace
 10
2.432454101350447
 20
5.439955139543449
 30
0.0
 11
2.492454101350447
 21
5.439955139543449
 31
0.0
 12
2.462454101350447
 22
5.619955139543448
 32
0.0
 13
2.462454101350447
 23
5.619955139543448
 33
0.0
  0
SOLID
  5
328F
330
28ED
100
AcDbEntity
  8
DIM
 62
     0
100
AcDbTrace
 10
2.432454101350447
 20
3.564955139543452
 30
0.0
 11
2.492454101350447
 21
3.564955139543452
 31
0.0
 12
2.462454101350447
 22
3.384955139543452
 32
0.0
 13
2.462454101350447
 23
3.384955139543452
 33
0.0
  0
MTEXT
  5
3290
330
28ED
100
AcDbEntity
  8
DIM
 62
     0
100
AcDbMText
 10
2.462454101350446
 20
4.487872792000725
 30
0.0
 40
0.125
 41
0.0
 71
     5
 72
     1
  1
\A1;2.235
  7
TXT
 73
     1
 44
1.0
  0
POINT
  5
3291
330
28ED
100
AcDbEntity
  8
DEFPOINTS
 62
     0
100
AcDbPoint
 10
4.281308242564288
 20
5.619955139543448
 30
0.0
  0
POINT
  5
3292
330
28ED
100
AcDbEntity
  8
DEFPOINTS
 62
     0
100
AcDbPoint
 10
4.281308242564281
 20
3.384955139543451
 30
0.0
  0
POINT
  5
3293
330
28ED
100
AcDbEntity
  8
DEFPOINTS
 62
     0
100
AcDbPoint
 10
2.462454101350447
 20
3.384955139543452
 30
0.0
  0
ENDBLK
  5
28F9
330
28ED
100
AcDbEntity
  8
0
100
AcDbBlockEnd
  0
BLOCK
  5
2906
330
28FB
100
AcDbEntity
  8
0
100
AcDbBlockBegin
  2
*D10
 70
     1
 10
0.0
 20
0.0
 30
0.0
  3
*D10
  1

  0
LINE
  5
2D70
330
28FB
100
AcDbEntity
  8
SAVED
 62
     0
370
    -2
100
AcDbLine
 10
4.011391962199016
 20
4.847794368401716
 30
0.0
 11
5.809609721099826
 21
4.847794368401716
 31
0.0
  0
LINE
  5
2D71
330
28FB
100
AcDbEntity
  8
SAVED
 62
     0
370
    -2
100
AcDbLine
 10
4.011391962199016
 20
4.997794368401717
 30
0.0
 11
5.809609721099826
 21
4.997794368401717
 31
0.0
  0
LINE
  5
2D72
330
28FB
100
AcDbEntity
  8
SAVED
 62
     0
370
    -2
100
AcDbLine
 10
5.629609721099826
 20
4.667794368401716
 30
0.0
 11
5.629609721099826
 21
4.487794368401716
 31
0.0
  0
LINE
  5
2D73
330
28FB
100
AcDbEntity
  8
SAVED
 62
     0
370
    -2
100
AcDbLine
 10
5.629609721099826
 20
5.177794368401717
 30
0.0
 11
5.629609721099826
 21
5.357794368401718
 31
0.0
  0
MTEXT
  5
2D74
330
28FB
100
AcDbEntity
  8
SAVED
 62
     0
100
AcDbMText
 10
5.629609721099825
 20
4.922794368401717
 30
0.0
 40
0.18
 41
0.0
 71
     5
 72
     1
  1
\A1;0.150
  7
TXT
 73
     1
 44
1.0
  0
SOLID
  5
2D75
330
28FB
100
AcDbEntity
  8
SAVED
 62
     0
100
AcDbTrace
 10
5.599609721099826
 20
4.667794368401716
 30
0.0
 11
5.659609721099826
 21
4.667794368401716
 31
0.0
 12
5.629609721099826
 22
4.847794368401716
 32
0.0
 13
5.629609721099826
 23
4.847794368401716
 33
0.0
  0
SOLID
  5
2D76
330
28FB
100
AcDbEntity
  8
SAVED
 62
     0
100
AcDbTrace
 10
5.599609721099826
 20
5.177794368401717
 30
0.0
 11
5.659609721099826
 21
5.177794368401717
 31
0.0
 12
5.629609721099826
 22
4.997794368401717
 32
0.0
 13
5.629609721099826
 23
4.997794368401717
 33
0.0
  0
POINT
  5
2D77
330
28FB
100
AcDbEntity
  8
DEFPOINTS
 62
     0
100
AcDbPoint
 10
3.948891962199016
 20
4.847794368401716
 30
0.0
  0
POINT
  5
2D78
330
28FB
100
AcDbEntity
  8
DEFPOINTS
 62
     0
100
AcDbPoint
 10
3.948891962199016
 20
4.997794368401717
 30
0.0
  0
POINT
  5
2D79
330
28FB
100
AcDbEntity
  8
DEFPOINTS
 62
     0
100
AcDbPoint
 10
5.629609721099826
 20
4.997794368401717
 30
0.0
  0
ENDBLK
  5
2907
330
28FB
100
AcDbEntity
  8
0
100
AcDbBlockEnd
  0
BLOCK
  5
2915
330
290A
100
AcDbEntity
  8
0
100
AcDbBlockBegin
  2
*D11
 70
     1
 10
0.0
 20
0.0
 30
0.0
  3
*D11
  1

  0
LINE
  5
2D8C
330
290A
100
AcDbEntity
  8
SAVED
 62
     0
370
    -2
100
AcDbLine
 10
4.754819641263886
 20
3.978294368401715
 30
0.0
 11
5.311391962199019
 21
3.978294368401714
 31
0.0
  0
LINE
  5
2D8D
330
290A
100
AcDbEntity
  8
SAVED
 62
     0
370
    -2
100
AcDbLine
 10
4.041391962199016
 20
4.922794368401716
 30
0.0
 11
5.311391962199019
 21
4.922794368401716
 31
0.0
  0
LINE
  5
2D8E
330
290A
100
AcDbEntity
  8
SAVED
 62
     0
370
    -2
100
AcDbLine
 10
5.131391962199019
 20
4.158294368401715
 30
0.0
 11
5.131391962199019
 21
4.264878581171351
 31
0.0
  0
LINE
  5
2D8F
330
290A
100
AcDbEntity
  8
SAVED
 62
     0
370
    -2
100
AcDbLine
 10
5.131391962199019
 20
4.742794368401717
 30
0.0
 11
5.131391962199019
 21
4.62487858117135
 31
0.0
  0
MTEXT
  5
2D90
330
290A
100
AcDbEntity
  8
SAVED
 62
     0
100
AcDbMText
 10
5.131391962199018
 20
4.444878581171352
 30
0.0
 40
0.18
 41
0.0
 71
     5
 72
     1
  1
\A1;0.945
  7
TXT
 73
     1
 44
1.0
  0
SOLID
  5
2D91
330
290A
100
AcDbEntity
  8
SAVED
 62
     0
100
AcDbTrace
 10
5.101391962199019
 20
4.158294368401715
 30
0.0
 11
5.16139196219902
 21
4.158294368401715
 31
0.0
 12
5.131391962199019
 22
3.978294368401714
 32
0.0
 13
5.131391962199019
 23
3.978294368401714
 33
0.0
  0
SOLID
  5
2D92
330
290A
100
AcDbEntity
  8
SAVED
 62
     0
100
AcDbTrace
 10
5.101391962199019
 20
4.742794368401717
 30
0.0
 11
5.16139196219902
 21
4.742794368401717
 31
0.0
 12
5.131391962199019
 22
4.922794368401716
 32
0.0
 13
5.131391962199019
 23
4.922794368401716
 33
0.0
  0
POINT
  5
2D93
330
290A
100
AcDbEntity
  8
DEFPOINTS
 62
     0
100
AcDbPoint
 10
4.692319641263886
 20
3.978294368401715
 30
0.0
  0
POINT
  5
2D94
330
290A
100
AcDbEntity
  8
DEFPOINTS
 62
     0
100
AcDbPoint
 10
3.978891962199016
 20
4.922794368401716
 30
0.0
  0
POINT
  5
2D95
330
290A
100
AcDbEntity
  8
DEFPOINTS
 62
     0
100
AcDbPoint
 10
5.131391962199019
 20
4.922794368401716
 30
0.0
  0
ENDBLK
  5
2916
330
290A
100
AcDbEntity
  8
0
100
AcDbBlockEnd
  0
BLOCK
  5
2923
330
2918
100
AcDbEntity
  8
0
100
AcDbBlockBegin
  2
*D12
 70
     1
 10
0.0
 20
0.0
 30
0.0
  3
*D12
  1

  0
LINE
  5
329E
330
2918
100
AcDbEntity
  8
DIM
 62
     0
370
    -2
100
AcDbLine
 10
3.773308242564288
 20
4.11795513954345
 30
0.0
 11
3.773308242564288
 21
2.844143038528154
 31
0.0
  0
LINE
  5
329F
330
2918
100
AcDbEntity
  8
DIM
 62
     0
370
    -2
100
AcDbLine
 10
4.789308242564288
 20
4.11795513954345
 30
0.0
 11
4.789308242564288
 21
2.844143038528154
 31
0.0
  0
LINE
  5
32A0
330
2918
100
AcDbEntity
  8
DIM
 62
     0
370
    -2
100
AcDbLine
 10
3.953308242564288
 20
2.937143038528154
 30
0.0
 11
4.03885611469489
 21
2.937143038528154
 31
0.0
  0
LINE
  5
32A1
330
2918
100
AcDbEntity
  8
DIM
 62
     0
370
    -2
100
AcDbLine
 10
4.609308242564289
 20
2.937143038528154
 30
0.0
 11
4.51573111469489
 21
2.937143038528154
 31
0.0
  0
SOLID
  5
32A2
330
2918
100
AcDbEntity
  8
DIM
 62
     0
100
AcDbTrace
 10
3.953308242564288
 20
2.967143038528154
 30
0.0
 11
3.953308242564288
 21
2.907143038528154
 31
0.0
 12
3.773308242564288
 22
2.937143038528154
 32
0.0
 13
3.773308242564288
 23
2.937143038528154
 33
0.0
  0
SOLID
  5
32A3
330
2918
100
AcDbEntity
  8
DIM
 62
     0
100
AcDbTrace
 10
4.609308242564289
 20
2.967143038528154
 30
0.0
 11
4.609308242564289
 21
2.907143038528154
 31
0.0
 12
4.789308242564288
 22
2.937143038528154
 32
0.0
 13
4.789308242564288
 23
2.937143038528154
 33
0.0
  0
MTEXT
  5
32A4
330
2918
100
AcDbEntity
  8
DIM
 62
     0
100
AcDbMText
 10
4.27729361469489
 20
2.937143038528154
 30
0.0
 40
0.125
 41
0.0
 71
     5
 72
     1
  1
\A1;1.016
  7
TXT
 73
     1
 44
1.0
  0
POINT
  5
32A5
330
2918
100
AcDbEntity
  8
DEFPOINTS
 62
     0
100
AcDbPoint
 10
3.773308242564288
 20
4.18095513954345
 30
0.0
  0
POINT
  5
32A6
330
2918
100
AcDbEntity
  8
DEFPOINTS
 62
     0
100
AcDbPoint
 10
4.789308242564288
 20
4.18095513954345
 30
0.0
  0
POINT
  5
32A7
330
2918
100
AcDbEntity
  8
DEFPOINTS
 62
     0
100
AcDbPoint
 10
4.789308242564288
 20
2.937143038528154
 30
0.0
  0
ENDBLK
  5
2924
330
2918
100
AcDbEntity
  8
0
100
AcDbBlockEnd
  0
BLOCK
  5
292F
330
2926
100
AcDbEntity
  8
0
100
AcDbBlockBegin
  2
*D13
 70
     1
 10
0.0
 20
0.0
 30
0.0
  3
*D13
  1

  0
LINE
  5
2D84
330
2926
100
AcDbEntity
  8
SAVED
 62
     0
370
    -2
100
AcDbLine
 10
3.128008128216148
 20
3.78099214805325
 30
0.0
 11
2.948008128216148
 21
3.78099214805325
 31
0.0
  0
LINE
  5
2D85
330
2926
100
AcDbEntity
  8
SAVED
 62
     0
370
    -2
100
AcDbLine
 10
4.769775796181874
 20
3.78099214805325
 30
0.0
 11
4.949775796181874
 21
3.78099214805325
 31
0.0
  0
MTEXT
  5
2D86
330
2926
100
AcDbEntity
  8
SAVED
 62
     0
100
AcDbMText
 10
5.332275796181874
 20
3.78099214805325
 30
0.0
 40
0.18
 41
0.0
 71
     5
 72
     1
  1
\A1;1.282
  7
TXT
 73
     1
 44
1.0
  0
SOLID
  5
2D87
330
2926
100
AcDbEntity
  8
SAVED
 62
     0
100
AcDbTrace
 10
3.128008128216148
 20
3.81099214805325
 30
0.0
 11
3.128008128216148
 21
3.750992148053251
 31
0.0
 12
3.308008128216148
 22
3.78099214805325
 32
0.0
 13
3.308008128216148
 23
3.78099214805325
 33
0.0
  0
SOLID
  5
2D88
330
2926
100
AcDbEntity
  8
SAVED
 62
     0
100
AcDbTrace
 10
4.769775796181874
 20
3.81099214805325
 30
0.0
 11
4.769775796181874
 21
3.750992148053251
 31
0.0
 12
4.589775796181874
 22
3.78099214805325
 32
0.0
 13
4.589775796181874
 23
3.78099214805325
 33
0.0
  0
POINT
  5
2D89
330
2926
100
AcDbEntity
  8
DEFPOINTS
 62
     0
100
AcDbPoint
 10
3.308008128216148
 20
3.803595570934926
 30
0.0
  0
POINT
  5
2D8A
330
2926
100
AcDbEntity
  8
DEFPOINTS
 62
     0
100
AcDbPoint
 10
4.589775796181874
 20
3.80359557093493
 30
0.0
  0
POINT
  5
2D8B
330
2926
100
AcDbEntity
  8
DEFPOINTS
 62
     0
100
AcDbPoint
 10
4.589775796181874
 20
3.78099214805325
 30
0.0
  0
ENDBLK
  5
2930
330
2926
100
AcDbEntity
  8
0
100
AcDbBlockEnd
  0
BLOCK
  5
293D
330
2932
100
AcDbEntity
  8
0
100
AcDbBlockBegin
  2
*D14
 70
     1
 10
0.0
 20
0.0
 30
0.0
  3
*D14
  1

  0
LINE
  5
3280
330
2932
100
AcDbEntity
  8
DIM
 62
     0
370
    -2
100
AcDbLine
 10
3.598808242564275
 20
5.112608944978689
 30
0.0
 11
3.598808242564275
 21
6.283457086474293
 31
0.0
  0
LINE
  5
3281
330
2932
100
AcDbEntity
  8
DIM
 62
     0
370
    -2
100
AcDbLine
 10
4.963808242564291
 20
5.112608944978689
 30
0.0
 11
4.963808242564291
 21
6.283457086474293
 31
0.0
  0
LINE
  5
3282
330
2932
100
AcDbEntity
  8
DIM
 62
     0
370
    -2
100
AcDbLine
 10
3.778808242564275
 20
6.190457086474293
 30
0.0
 11
4.013976992437245
 21
6.190457086474293
 31
0.0
  0
LINE
  5
3283
330
2932
100
AcDbEntity
  8
DIM
 62
     0
370
    -2
100
AcDbLine
 10
4.783808242564291
 20
6.190457086474293
 30
0.0
 11
4.537726992437245
 21
6.190457086474293
 31
0.0
  0
SOLID
  5
3284
330
2932
100
AcDbEntity
  8
DIM
 62
     0
100
AcDbTrace
 10
3.778808242564275
 20
6.220457086474294
 30
0.0
 11
3.778808242564275
 21
6.160457086474293
 31
0.0
 12
3.598808242564275
 22
6.190457086474293
 32
0.0
 13
3.598808242564275
 23
6.190457086474293
 33
0.0
  0
SOLID
  5
3285
330
2932
100
AcDbEntity
  8
DIM
 62
     0
100
AcDbTrace
 10
4.783808242564291
 20
6.220457086474294
 30
0.0
 11
4.783808242564291
 21
6.160457086474293
 31
0.0
 12
4.963808242564291
 22
6.190457086474293
 32
0.0
 13
4.963808242564291
 23
6.190457086474293
 33
0.0
  0
MTEXT
  5
3286
330
2932
100
AcDbEntity
  8
DIM
 62
     0
100
AcDbMText
 10
4.275851992437245
 20
6.190457086474293
 30
0.0
 40
0.125
 41
0.0
 71
     5
 72
     1
  1
\A1;1.365
  7
TXT
 73
     1
 44
1.0
  0
POINT
  5
3287
330
2932
100
AcDbEntity
  8
DEFPOINTS
 62
     0
100
AcDbPoint
 10
3.598808242564275
 20
5.04960894497869
 30
0.0
  0
POINT
  5
3288
330
2932
100
AcDbEntity
  8
DEFPOINTS
 62
     0
100
AcDbPoint
 10
4.963808242564291
 20
5.04960894497869
 30
0.0
  0
POINT
  5
3289
330
2932
100
AcDbEntity
  8
DEFPOINTS
 62
     0
100
AcDbPoint
 10
4.963808242564291
 20
6.190457086474293
 30
0.0
  0
ENDBLK
  5
293E
330
2932
100
AcDbEntity
  8
0
100
AcDbBlockEnd
  0
BLOCK
  5
294B
330
2940
100
AcDbEntity
  8
0
100
AcDbBlockBegin
  2
*D15
 70
     1
 10
0.0
 20
0.0
 30
0.0
  3
*D15
  1

  0
LINE
  5
2D66
330
2940
100
AcDbEntity
  8
SAVED
 62
     0
370
    -2
100
AcDbLine
 10
3.753891962199015
 20
4.985294368401716
 30
0.0
 11
3.753891962199015
 21
5.673399490499206
 31
0.0
  0
LINE
  5
2D67
330
2940
100
AcDbEntity
  8
SAVED
 62
     0
370
    -2
100
AcDbLine
 10
4.143891962199017
 20
4.985294368401716
 30
0.0
 11
4.143891962199017
 21
5.673399490499206
 31
0.0
  0
LINE
  5
2D68
330
2940
100
AcDbEntity
  8
SAVED
 62
     0
370
    -2
100
AcDbLine
 10
3.573891962199015
 20
5.493399490499206
 30
0.0
 11
3.393891962199016
 21
5.493399490499206
 31
0.0
  0
LINE
  5
2D69
330
2940
100
AcDbEntity
  8
SAVED
 62
     0
370
    -2
100
AcDbLine
 10
4.323891962199017
 20
5.493399490499206
 30
0.0
 11
4.503891962199017
 21
5.493399490499206
 31
0.0
  0
MTEXT
  5
2D6A
330
2940
100
AcDbEntity
  8
SAVED
 62
     0
100
AcDbMText
 10
2.910936341953345
 20
5.493399490499206
 30
0.0
 40
0.18
 41
0.0
 71
     5
 72
     1
  1
\A1;0.390
  7
TXT
 73
     1
 44
1.0
  0
SOLID
  5
2D6B
330
2940
100
AcDbEntity
  8
SAVED
 62
     0
100
AcDbTrace
 10
3.573891962199015
 20
5.523399490499206
 30
0.0
 11
3.573891962199015
 21
5.463399490499206
 31
0.0
 12
3.753891962199015
 22
5.493399490499206
 32
0.0
 13
3.753891962199015
 23
5.493399490499206
 33
0.0
  0
SOLID
  5
2D6C
330
2940
100
AcDbEntity
  8
SAVED
 62
     0
100
AcDbTrace
 10
4.323891962199017
 20
5.523399490499206
 30
0.0
 11
4.323891962199017
 21
5.463399490499206
 31
0.0
 12
4.143891962199017
 22
5.493399490499206
 32
0.0
 13
4.143891962199017
 23
5.493399490499206
 33
0.0
  0
POINT
  5
2D6D
330
2940
100
AcDbEntity
  8
DEFPOINTS
 62
     0
100
AcDbPoint
 10
3.753891962199015
 20
4.922794368401716
 30
0.0
  0
POINT
  5
2D6E
330
2940
100
AcDbEntity
  8
DEFPOINTS
 62
     0
100
AcDbPoint
 10
4.143891962199017
 20
4.922794368401716
 30
0.0
  0
POINT
  5
2D6F
330
2940
100
AcDbEntity
  8
DEFPOINTS
 62
     0
100
AcDbPoint
 10
4.143891962199017
 20
5.493399490499206
 30
0.0
  0
ENDBLK
  5
294C
330
2940
100
AcDbEntity
  8
0
100
AcDbBlockEnd
  0
BLOCK
  5
2959
330
294E
100
AcDbEntity
  8
0
100
AcDbBlockBegin
  2
*D16
 70
     1
 10
0.0
 20
0.0
 30
0.0
  3
*D16
  1

  0
LINE
  5
32A8
330
294E
100
AcDbEntity
  8
DIM
 62
     0
370
    -2
100
AcDbLine
 10
4.951308242564283
 20
3.660666874806498
 30
0.0
 11
4.951308242564283
 21
2.435772399237634
 31
0.0
  0
LINE
  5
32A9
330
294E
100
AcDbEntity
  8
DIM
 62
     0
370
    -2
100
AcDbLine
 10
3.611308242564283
 20
3.660666874806496
 30
0.0
 11
3.611308242564283
 21
2.435772399237634
 31
0.0
  0
LINE
  5
32AA
330
294E
100
AcDbEntity
  8
DIM
 62
     0
370
    -2
100
AcDbLine
 10
4.771308242564283
 20
2.528772399237634
 30
0.0
 11
4.528389862181316
 21
2.528772399237634
 31
0.0
  0
LINE
  5
32AB
330
294E
100
AcDbEntity
  8
DIM
 62
     0
370
    -2
100
AcDbLine
 10
3.791308242564283
 20
2.528772399237634
 30
0.0
 11
4.020264862181316
 21
2.528772399237634
 31
0.0
  0
SOLID
  5
32AC
330
294E
100
AcDbEntity
  8
DIM
 62
     0
100
AcDbTrace
 10
4.771308242564283
 20
2.558772399237634
 30
0.0
 11
4.771308242564283
 21
2.498772399237634
 31
0.0
 12
4.951308242564283
 22
2.528772399237634
 32
0.0
 13
4.951308242564283
 23
2.528772399237634
 33
0.0
  0
SOLID
  5
32AD
330
294E
100
AcDbEntity
  8
DIM
 62
     0
100
AcDbTrace
 10
3.791308242564283
 20
2.558772399237634
 30
0.0
 11
3.791308242564283
 21
2.498772399237634
 31
0.0
 12
3.611308242564283
 22
2.528772399237634
 32
0.0
 13
3.611308242564283
 23
2.528772399237634
 33
0.0
  0
MTEXT
  5
32AE
330
294E
100
AcDbEntity
  8
DIM
 62
     0
100
AcDbMText
 10
4.274327362181316
 20
2.528772399237634
 30
0.0
 40
0.125
 41
0.0
 71
     5
 72
     1
  1
\A1;1.340
  7
TXT
 73
     1
 44
1.0
  0
POINT
  5
32AF
330
294E
100
AcDbEntity
  8
DEFPOINTS
 62
     0
100
AcDbPoint
 10
4.951308242564283
 20
3.723666874806498
 30
0.0
  0
POINT
  5
32B0
330
294E
100
AcDbEntity
  8
DEFPOINTS
 62
     0
100
AcDbPoint
 10
3.611308242564283
 20
3.723666874806497
 30
0.0
  0
POINT
  5
32B1
330
294E
100
AcDbEntity
  8
DEFPOINTS
 62
     0
100
AcDbPoint
 10
3.611308242564283
 20
2.528772399237634
 30
0.0
  0
ENDBLK
  5
295A
330
294E
100
AcDbEntity
  8
0
100
AcDbBlockEnd
  0
BLOCK
  5
2A81
330
2A76
100
AcDbEntity
  8
0
100
AcDbBlockBegin
  2
*D17
 70
     1
 10
0.0
 20
0.0
 30
0.0
  3
*D17
  1

  0
LINE
  5
32DA
330
2A76
100
AcDbEntity
  8
DIM
 62
     0
370
    -2
100
AcDbLine
 10
9.791244128811863
 20
8.269138122819553
 30
0.0
 11
9.791244128811863
 21
9.376259673587604
 31
0.0
  0
LINE
  5
32DB
330
2A76
100
AcDbEntity
  8
DIM
 62
     0
370
    -2
100
AcDbLine
 10
10.85324412881186
 20
8.269138122819553
 30
0.0
 11
10.85324412881186
 21
9.376259673587604
 31
0.0
  0
LINE
  5
32DC
330
2A76
100
AcDbEntity
  8
DIM
 62
     0
370
    -2
100
AcDbLine
 10
9.971244128811862
 20
9.283259673587604
 30
0.0
 11
10.06818162881186
 21
9.283259673587604
 31
0.0
  0
LINE
  5
32DD
330
2A76
100
AcDbEntity
  8
DIM
 62
     0
370
    -2
100
AcDbLine
 10
10.67324412881186
 20
9.283259673587604
 30
0.0
 11
10.57630662881186
 21
9.283259673587604
 31
0.0
  0
SOLID
  5
32DE
330
2A76
100
AcDbEntity
  8
DIM
 62
     0
100
AcDbTrace
 10
9.971244128811862
 20
9.313259673587603
 30
0.0
 11
9.971244128811862
 21
9.253259673587605
 31
0.0
 12
9.791244128811863
 22
9.283259673587604
 32
0.0
 13
9.791244128811863
 23
9.283259673587604
 33
0.0
  0
SOLID
  5
32DF
330
2A76
100
AcDbEntity
  8
DIM
 62
     0
100
AcDbTrace
 10
10.67324412881186
 20
9.313259673587603
 30
0.0
 11
10.67324412881186
 21
9.253259673587605
 31
0.0
 12
10.85324412881186
 22
9.283259673587604
 32
0.0
 13
10.85324412881186
 23
9.283259673587604
 33
0.0
  0
MTEXT
  5
32E0
330
2A76
100
AcDbEntity
  8
DIM
 62
     0
100
AcDbMText
 10
10.32224412881186
 20
9.283259673587604
 30
0.0
 40
0.125
 41
0.0
 71
     5
 72
     1
  1
\A1;1.062
  7
TXT
 73
     1
 44
1.0
  0
POINT
  5
32E1
330
2A76
100
AcDbEntity
  8
DEFPOINTS
 62
     0
100
AcDbPoint
 10
9.791244128811863
 20
8.206138122819552
 30
0.0
  0
POINT
  5
32E2
330
2A76
100
AcDbEntity
  8
DEFPOINTS
 62
     0
100
AcDbPoint
 10
10.85324412881186
 20
8.206138122819552
 30
0.0
  0
POINT
  5
32E3
330
2A76
100
AcDbEntity
  8
DEFPOINTS
 62
     0
100
AcDbPoint
 10
10.85324412881186
 20
9.283259673587604
 30
0.0
  0
ENDBLK
  5
2A82
330
2A76
100
AcDbEntity
  8
0
100
AcDbBlockEnd
  0
BLOCK
  5
2A8F
330
2A84
100
AcDbEntity
  8
0
100
AcDbBlockBegin
  2
*D18
 70
     1
 10
0.0
 20
0.0
 30
0.0
  3
*D18
  1

  0
LINE
  5
326C
330
2A84
100
AcDbEntity
  8
DIM
 62
     0
370
    -2
100
AcDbLine
 10
9.98924412881186
 20
8.467138122819553
 30
0.0
 11
7.63300420619063
 21
8.467138122819553
 31
0.0
  0
LINE
  5
326D
330
2A84
100
AcDbEntity
  8
DIM
 62
     0
370
    -2
100
AcDbLine
 10
9.728244128811862
 20
6.777138122819553
 30
0.0
 11
7.63300420619063
 21
6.777138122819553
 31
0.0
  0
LINE
  5
326E
330
2A84
100
AcDbEntity
  8
DIM
 62
     0
370
    -2
100
AcDbLine
 10
7.72600420619063
 20
8.287138122819554
 30
0.0
 11
7.72600420619063
 21
7.774638122819553
 31
0.0
  0
LINE
  5
326F
330
2A84
100
AcDbEntity
  8
DIM
 62
     0
370
    -2
100
AcDbLine
 10
7.72600420619063
 20
6.957138122819553
 30
0.0
 11
7.72600420619063
 21
7.469638122819553
 31
0.0
  0
SOLID
  5
3270
330
2A84
100
AcDbEntity
  8
DIM
 62
     0
100
AcDbTrace
 10
7.69600420619063
 20
8.287138122819554
 30
0.0
 11
7.75600420619063
 21
8.287138122819554
 31
0.0
 12
7.72600420619063
 22
8.467138122819553
 32
0.0
 13
7.72600420619063
 23
8.467138122819553
 33
0.0
  0
SOLID
  5
3271
330
2A84
100
AcDbEntity
  8
DIM
 62
     0
100
AcDbTrace
 10
7.69600420619063
 20
6.957138122819553
 30
0.0
 11
7.75600420619063
 21
6.957138122819553
 31
0.0
 12
7.72600420619063
 22
6.777138122819553
 32
0.0
 13
7.72600420619063
 23
6.777138122819553
 33
0.0
  0
MTEXT
  5
3272
330
2A84
100
AcDbEntity
  8
DIM
 62
     0
100
AcDbMText
 10
7.726004206190629
 20
7.622138122819554
 30
0.0
 40
0.125
 41
0.0
 71
     5
 72
     1
  1
\A1;1.690
  7
TXT
 73
     1
 44
1.0
  0
POINT
  5
3273
330
2A84
100
AcDbEntity
  8
DEFPOINTS
 62
     0
100
AcDbPoint
 10
10.05224412881186
 20
8.467138122819553
 30
0.0
  0
POINT
  5
3274
330
2A84
100
AcDbEntity
  8
DEFPOINTS
 62
     0
100
AcDbPoint
 10
9.791244128811863
 20
6.777138122819553
 30
0.0
  0
POINT
  5
3275
330
2A84
100
AcDbEntity
  8
DEFPOINTS
 62
     0
100
AcDbPoint
 10
7.72600420619063
 20
6.777138122819553
 30
0.0
  0
ENDBLK
  5
2A90
330
2A84
100
AcDbEntity
  8
0
100
AcDbBlockEnd
  0
BLOCK
  5
2A9D
330
2A92
100
AcDbEntity
  8
0
100
AcDbBlockBegin
  2
*D19
 70
     1
 10
0.0
 20
0.0
 30
0.0
  3
*D19
  1

  0
LINE
  5
32F8
330
2A92
100
AcDbEntity
  8
DIM
 62
     0
370
    -2
100
AcDbLine
 10
9.98924412881186
 20
8.467138122819553
 30
0.0
 11
9.19157314470269
 21
8.467138122819553
 31
0.0
  0
LINE
  5
32F9
330
2A92
100
AcDbEntity
  8
DIM
 62
     0
370
    -2
100
AcDbLine
 10
10.25924412881185
 20
7.832138122819552
 30
0.0
 11
9.19157314470269
 21
7.832138122819553
 31
0.0
  0
LINE
  5
32FA
330
2A92
100
AcDbEntity
  8
DIM
 62
     0
370
    -2
100
AcDbLine
 10
9.28457314470269
 20
8.647138122819553
 30
0.0
 11
9.28457314470269
 21
8.827138122819553
 31
0.0
  0
LINE
  5
32FB
330
2A92
100
AcDbEntity
  8
DIM
 62
     0
370
    -2
100
AcDbLine
 10
9.28457314470269
 20
7.652138122819553
 30
0.0
 11
9.28457314470269
 21
7.472138122819552
 31
0.0
  0
SOLID
  5
32FC
330
2A92
100
AcDbEntity
  8
DIM
 62
     0
100
AcDbTrace
 10
9.254573144702691
 20
8.647138122819553
 30
0.0
 11
9.31457314470269
 21
8.647138122819553
 31
0.0
 12
9.28457314470269
 22
8.467138122819553
 32
0.0
 13
9.28457314470269
 23
8.467138122819553
 33
0.0
  0
SOLID
  5
32FD
330
2A92
100
AcDbEntity
  8
DIM
 62
     0
100
AcDbTrace
 10
9.254573144702691
 20
7.652138122819553
 30
0.0
 11
9.31457314470269
 21
7.652138122819553
 31
0.0
 12
9.28457314470269
 22
7.832138122819553
 32
0.0
 13
9.28457314470269
 23
7.832138122819553
 33
0.0
  0
MTEXT
  5
32FE
330
2A92
100
AcDbEntity
  8
DIM
 62
     0
100
AcDbMText
 10
9.284573144702688
 20
8.149638122819554
 30
0.0
 40
0.125
 41
0.0
 71
     5
 72
     1
  1
\A1;0.635
  7
TXT
 73
     1
 44
1.0
  0
POINT
  5
32FF
330
2A92
100
AcDbEntity
  8
DEFPOINTS
 62
     0
100
AcDbPoint
 10
10.05224412881186
 20
8.467138122819553
 30
0.0
  0
POINT
  5
3300
330
2A92
100
AcDbEntity
  8
DEFPOINTS
 62
     0
100
AcDbPoint
 10
10.32224412881186
 20
7.832138122819552
 30
0.0
  0
POINT
  5
3301
330
2A92
100
AcDbEntity
  8
DEFPOINTS
 62
     0
100
AcDbPoint
 10
9.28457314470269
 20
7.832138122819553
 30
0.0
  0
ENDBLK
  5
2A9E
330
2A92
100
AcDbEntity
  8
0
100
AcDbBlockEnd
  0
BLOCK
  5
2AAB
330
2AA0
100
AcDbEntity
  8
0
100
AcDbBlockBegin
  2
*D20
 70
     1
 10
0.0
 20
0.0
 30
0.0
  3
*D20
  1

  0
LINE
  5
32EE
330
2AA0
100
AcDbEntity
  8
DIM
 62
     0
370
    -2
100
AcDbLine
 10
10.25924412881185
 20
7.832138122819552
 30
0.0
 11
8.677368555273165
 21
7.832138122819553
 31
0.0
  0
LINE
  5
32EF
330
2AA0
100
AcDbEntity
  8
DIM
 62
     0
370
    -2
100
AcDbLine
 10
10.25924412881185
 20
7.520138122819552
 30
0.0
 11
8.677368555273165
 21
7.520138122819553
 31
0.0
  0
LINE
  5
32F0
330
2AA0
100
AcDbEntity
  8
DIM
 62
     0
370
    -2
100
AcDbLine
 10
8.770368555273165
 20
8.012138122819553
 30
0.0
 11
8.770368555273165
 21
8.192138122819553
 31
0.0
  0
LINE
  5
32F1
330
2AA0
100
AcDbEntity
  8
DIM
 62
     0
370
    -2
100
AcDbLine
 10
8.770368555273165
 20
7.340138122819554
 30
0.0
 11
8.770368555273165
 21
7.160138122819553
 31
0.0
  0
SOLID
  5
32F2
330
2AA0
100
AcDbEntity
  8
DIM
 62
     0
100
AcDbTrace
 10
8.740368555273166
 20
8.012138122819553
 30
0.0
 11
8.800368555273164
 21
8.012138122819553
 31
0.0
 12
8.770368555273165
 22
7.832138122819553
 32
0.0
 13
8.770368555273165
 23
7.832138122819553
 33
0.0
  0
SOLID
  5
32F3
330
2AA0
100
AcDbEntity
  8
DIM
 62
     0
100
AcDbTrace
 10
8.740368555273166
 20
7.340138122819554
 30
0.0
 11
8.800368555273164
 21
7.340138122819554
 31
0.0
 12
8.770368555273165
 22
7.520138122819553
 32
0.0
 13
8.770368555273165
 23
7.520138122819553
 33
0.0
  0
MTEXT
  5
32F4
330
2AA0
100
AcDbEntity
  8
DIM
 62
     0
100
AcDbMText
 10
8.770368555273163
 20
7.676138122819554
 30
0.0
 40
0.125
 41
0.0
 71
     5
 72
     1
  1
\A1;0.312
  7
TXT
 73
     1
 44
1.0
  0
POINT
  5
32F5
330
2AA0
100
AcDbEntity
  8
DEFPOINTS
 62
     0
100
AcDbPoint
 10
10.32224412881186
 20
7.832138122819552
 30
0.0
  0
POINT
  5
32F6
330
2AA0
100
AcDbEntity
  8
DEFPOINTS
 62
     0
100
AcDbPoint
 10
10.32224412881186
 20
7.520138122819552
 30
0.0
  0
POINT
  5
32F7
330
2AA0
100
AcDbEntity
  8
DEFPOINTS
 62
     0
100
AcDbPoint
 10
8.770368555273165
 20
7.520138122819553
 30
0.0
  0
ENDBLK
  5
2AAC
330
2AA0
100
AcDbEntity
  8
0
100
AcDbBlockEnd
  0
BLOCK
  5
2AB9
330
2AAE
100
AcDbEntity
  8
0
100
AcDbBlockBegin
  2
*D21
 70
     1
 10
0.0
 20
0.0
 30
0.0
  3
*D21
  1

  0
LINE
  5
3262
330
2AAE
100
AcDbEntity
  8
DIM
 62
     0
370
    -2
100
AcDbLine
 10
10.25924412881185
 20
7.832138122819552
 30
0.0
 11
8.146007658540536
 21
7.832138122819553
 31
0.0
  0
LINE
  5
3263
330
2AAE
100
AcDbEntity
  8
DIM
 62
     0
370
    -2
100
AcDbLine
 10
10.25924412881185
 20
7.208138122819553
 30
0.0
 11
8.146007658540536
 21
7.208138122819554
 31
0.0
  0
LINE
  5
3264
330
2AAE
100
AcDbEntity
  8
DIM
 62
     0
370
    -2
100
AcDbLine
 10
8.239007658540536
 20
8.012138122819553
 30
0.0
 11
8.239007658540536
 21
8.192138122819553
 31
0.0
  0
LINE
  5
3265
330
2AAE
100
AcDbEntity
  8
DIM
 62
     0
370
    -2
100
AcDbLine
 10
8.239007658540536
 20
7.028138122819554
 30
0.0
 11
8.239007658540536
 21
6.848138122819554
 31
0.0
  0
SOLID
  5
3266
330
2AAE
100
AcDbEntity
  8
DIM
 62
     0
100
AcDbTrace
 10
8.209007658540537
 20
8.012138122819553
 30
0.0
 11
8.269007658540536
 21
8.012138122819553
 31
0.0
 12
8.239007658540536
 22
7.832138122819553
 32
0.0
 13
8.239007658540536
 23
7.832138122819553
 33
0.0
  0
SOLID
  5
3267
330
2AAE
100
AcDbEntity
  8
DIM
 62
     0
100
AcDbTrace
 10
8.209007658540537
 20
7.028138122819554
 30
0.0
 11
8.269007658540536
 21
7.028138122819554
 31
0.0
 12
8.239007658540536
 22
7.208138122819554
 32
0.0
 13
8.239007658540536
 23
7.208138122819554
 33
0.0
  0
MTEXT
  5
3268
330
2AAE
100
AcDbEntity
  8
DIM
 62
     0
100
AcDbMText
 10
8.239007658540534
 20
7.520138122819554
 30
0.0
 40
0.125
 41
0.0
 71
     5
 72
     1
  1
\A1;0.624
  7
TXT
 73
     1
 44
1.0
  0
POINT
  5
3269
330
2AAE
100
AcDbEntity
  8
DEFPOINTS
 62
     0
100
AcDbPoint
 10
10.32224412881186
 20
7.832138122819552
 30
0.0
  0
POINT
  5
326A
330
2AAE
100
AcDbEntity
  8
DEFPOINTS
 62
     0
100
AcDbPoint
 10
10.32224412881186
 20
7.208138122819553
 30
0.0
  0
POINT
  5
326B
330
2AAE
100
AcDbEntity
  8
DEFPOINTS
 62
     0
100
AcDbPoint
 10
8.239007658540536
 20
7.208138122819554
 30
0.0
  0
ENDBLK
  5
2ABA
330
2AAE
100
AcDbEntity
  8
0
100
AcDbBlockEnd
  0
BLOCK
  5
2AC7
330
2ABC
100
AcDbEntity
  8
0
100
AcDbBlockBegin
  2
*D22
 70
     1
 10
0.0
 20
0.0
 30
0.0
  3
*D22
  1

  0
LINE
  5
331C
330
2ABC
100
AcDbEntity
  8
DIM
 62
     0
370
    -2
100
AcDbLine
 10
13.94220344148871
 20
8.467138122819553
 30
0.0
 11
14.73118236828664
 21
8.467138122819553
 31
0.0
  0
LINE
  5
331D
330
2ABC
100
AcDbEntity
  8
DIM
 62
     0
370
    -2
100
AcDbLine
 10
14.2032034414887
 20
7.764138122819554
 30
0.0
 11
14.73118236828664
 21
7.764138122819554
 31
0.0
  0
LINE
  5
331E
330
2ABC
100
AcDbEntity
  8
DIM
 62
     0
370
    -2
100
AcDbLine
 10
14.63818236828664
 20
8.647138122819553
 30
0.0
 11
14.63818236828664
 21
8.827138122819553
 31
0.0
  0
LINE
  5
331F
330
2ABC
100
AcDbEntity
  8
DIM
 62
     0
370
    -2
100
AcDbLine
 10
14.63818236828664
 20
7.584138122819554
 30
0.0
 11
14.63818236828664
 21
7.404138122819554
 31
0.0
  0
SOLID
  5
3320
330
2ABC
100
AcDbEntity
  8
DIM
 62
     0
100
AcDbTrace
 10
14.60818236828664
 20
8.647138122819553
 30
0.0
 11
14.66818236828664
 21
8.647138122819553
 31
0.0
 12
14.63818236828664
 22
8.467138122819553
 32
0.0
 13
14.63818236828664
 23
8.467138122819553
 33
0.0
  0
SOLID
  5
3321
330
2ABC
100
AcDbEntity
  8
DIM
 62
     0
100
AcDbTrace
 10
14.60818236828664
 20
7.584138122819554
 30
0.0
 11
14.66818236828664
 21
7.584138122819554
 31
0.0
 12
14.63818236828664
 22
7.764138122819554
 32
0.0
 13
14.63818236828664
 23
7.764138122819554
 33
0.0
  0
MTEXT
  5
3322
330
2ABC
100
AcDbEntity
  8
DIM
 62
     0
100
AcDbMText
 10
14.63818236828664
 20
8.115638122819555
 30
0.0
 40
0.125
 41
0.0
 71
     5
 72
     1
  1
\A1;0.703
  7
TXT
 73
     1
 44
1.0
  0
POINT
  5
3323
330
2ABC
100
AcDbEntity
  8
DEFPOINTS
 62
     0
100
AcDbPoint
 10
13.87920344148871
 20
8.467138122819553
 30
0.0
  0
POINT
  5
3324
330
2ABC
100
AcDbEntity
  8
DEFPOINTS
 62
     0
100
AcDbPoint
 10
14.1402034414887
 20
7.764138122819554
 30
0.0
  0
POINT
  5
3325
330
2ABC
100
AcDbEntity
  8
DEFPOINTS
 62
     0
100
AcDbPoint
 10
14.63818236828664
 20
7.764138122819554
 30
0.0
  0
ENDBLK
  5
2AC8
330
2ABC
100
AcDbEntity
  8
0
100
AcDbBlockEnd
  0
BLOCK
  5
2AD1
330
2ACA
100
AcDbEntity
  8
0
100
AcDbBlockBegin
  2
*D23
 70
     1
 10
0.0
 20
0.0
 30
0.0
  3
*D23
  1

  0
LINE
  5
3314
330
2ACA
100
AcDbEntity
  8
DIM
 62
     0
370
    -2
100
AcDbLine
 10
14.20522192837052
 20
7.546648821097382
 30
0.0
 11
14.31922116885173
 21
7.165317043042056
 31
0.0
  0
LINE
  5
3315
330
2ACA
100
AcDbEntity
  8
DIM
 62
     0
370
    -2
100
AcDbLine
 10
14.31922116885173
 20
7.165317043042056
 30
0.0
 11
14.49922116885173
 21
7.165317043042056
 31
0.0
  0
SOLID
  5
3316
330
2ACA
100
AcDbEntity
  8
DIM
 62
     0
100
AcDbTrace
 10
14.23396500789328
 20
7.555241572667667
 30
0.0
 11
14.17647884884777
 21
7.538056069527096
 31
0.0
 12
14.15366541894881
 22
7.719107298233904
 32
0.0
 13
14.15366541894881
 23
7.719107298233904
 33
0.0
  0
MTEXT
  5
3317
330
2ACA
100
AcDbEntity
  8
DIM
 62
     0
100
AcDbMText
 10
14.80797116885174
 20
7.165317043042058
 30
0.0
 40
0.125
 41
0.0
 71
     5
 72
     1
  1
\A1;R0.047
  7
TXT
 73
     1
 44
1.0
  0
LINE
  5
3318
330
2ACA
100
AcDbEntity
  8
DIM
 62
     0
370
    -2
100
AcDbLine
 10
14.05020344148869
 20
7.764138122819549
 30
0.0
 11
14.23020344148869
 21
7.764138122819549
 31
0.0
  0
LINE
  5
3319
330
2ACA
100
AcDbEntity
  8
DIM
 62
     0
370
    -2
100
AcDbLine
 10
14.14020344148869
 20
7.674138122819551
 30
0.0
 11
14.14020344148869
 21
7.854138122819549
 31
0.0
  0
POINT
  5
331A
330
2ACA
100
AcDbEntity
  8
DEFPOINTS
 62
     0
100
AcDbPoint
 10
14.15366541894881
 20
7.719107298233904
 30
0.0
  0
POINT
  5
331B
330
2ACA
100
AcDbEntity
  8
DEFPOINTS
 62
     0
100
AcDbPoint
 10
14.14020344148869
 20
7.764138122819549
 30
0.0
  0
ENDBLK
  5
2AD2
330
2ACA
100
AcDbEntity
  8
0
100
AcDbBlockEnd
  0
BLOCK
  5
2ADF
330
2AD4
100
AcDbEntity
  8
0
100
AcDbBlockBegin
  2
*D24
 70
     1
 10
0.0
 20
0.0
 30
0.0
  3
*D24
  1

  0
LINE
  5
3302
330
2AD4
100
AcDbEntity
  8
DIM
 62
     0
370
    -2
100
AcDbLine
 10
13.2762034414887
 20
8.467138122819553
 30
0.0
 11
12.36233031384234
 21
8.467138122819553
 31
0.0
  0
LINE
  5
3303
330
2AD4
100
AcDbEntity
  8
DIM
 62
     0
370
    -2
100
AcDbLine
 10
13.2342034414887
 20
7.520138122819552
 30
0.0
 11
12.36233031384234
 21
7.520138122819552
 31
0.0
  0
LINE
  5
3304
330
2AD4
100
AcDbEntity
  8
DIM
 62
     0
370
    -2
100
AcDbLine
 10
12.45533031384234
 20
8.287138122819554
 30
0.0
 11
12.45533031384234
 21
8.113614029722372
 31
0.0
  0
LINE
  5
3305
330
2AD4
100
AcDbEntity
  8
DIM
 62
     0
370
    -2
100
AcDbLine
 10
12.45533031384234
 20
7.700138122819552
 30
0.0
 11
12.45533031384234
 21
7.808614029722372
 31
0.0
  0
SOLID
  5
3306
330
2AD4
100
AcDbEntity
  8
DIM
 62
     0
100
AcDbTrace
 10
12.42533031384234
 20
8.287138122819554
 30
0.0
 11
12.48533031384234
 21
8.287138122819554
 31
0.0
 12
12.45533031384234
 22
8.467138122819553
 32
0.0
 13
12.45533031384234
 23
8.467138122819553
 33
0.0
  0
SOLID
  5
3307
330
2AD4
100
AcDbEntity
  8
DIM
 62
     0
100
AcDbTrace
 10
12.42533031384234
 20
7.700138122819552
 30
0.0
 11
12.48533031384234
 21
7.700138122819552
 31
0.0
 12
12.45533031384234
 22
7.520138122819552
 32
0.0
 13
12.45533031384234
 23
7.520138122819552
 33
0.0
  0
MTEXT
  5
3308
330
2AD4
100
AcDbEntity
  8
DIM
 62
     0
100
AcDbMText
 10
12.45533031384234
 20
7.961114029722374
 30
0.0
 40
0.125
 41
0.0
 71
     5
 72
     1
  1
\A1;0.947
  7
TXT
 73
     1
 44
1.0
  0
POINT
  5
3309
330
2AD4
100
AcDbEntity
  8
DEFPOINTS
 62
     0
100
AcDbPoint
 10
13.3392034414887
 20
8.467138122819553
 30
0.0
  0
POINT
  5
330A
330
2AD4
100
AcDbEntity
  8
DEFPOINTS
 62
     0
100
AcDbPoint
 10
13.2972034414887
 20
7.520138122819552
 30
0.0
  0
POINT
  5
330B
330
2AD4
100
AcDbEntity
  8
DEFPOINTS
 62
     0
100
AcDbPoint
 10
12.45533031384234
 20
7.520138122819552
 30
0.0
  0
ENDBLK
  5
2AE0
330
2AD4
100
AcDbEntity
  8
0
100
AcDbBlockEnd
  0
BLOCK
  5
2AED
330
2AE2
100
AcDbEntity
  8
0
100
AcDbBlockBegin
  2
*D25
 70
     1
 10
0.0
 20
0.0
 30
0.0
  3
*D25
  1

  0
LINE
  5
32C6
330
2AE2
100
AcDbEntity
  8
DIM
 62
     0
370
    -2
100
AcDbLine
 10
13.6092034414887
 20
8.673869598169202
 30
0.0
 11
13.6092034414887
 21
9.045770172139734
 31
0.0
  0
LINE
  5
32C7
330
2AE2
100
AcDbEntity
  8
DIM
 62
     0
370
    -2
100
AcDbLine
 10
13.2972034414887
 20
7.583138122819552
 30
0.0
 11
13.2972034414887
 21
9.045770172139734
 31
0.0
  0
LINE
  5
32C8
330
2AE2
100
AcDbEntity
  8
DIM
 62
     0
370
    -2
100
AcDbLine
 10
13.7892034414887
 20
8.952770172139734
 30
0.0
 11
13.9692034414887
 21
8.952770172139734
 31
0.0
  0
LINE
  5
32C9
330
2AE2
100
AcDbEntity
  8
DIM
 62
     0
370
    -2
100
AcDbLine
 10
13.1172034414887
 20
8.952770172139734
 30
0.0
 11
12.86501594148871
 21
8.952770172139734
 31
0.0
  0
SOLID
  5
32CA
330
2AE2
100
AcDbEntity
  8
DIM
 62
     0
100
AcDbTrace
 10
13.7892034414887
 20
8.982770172139733
 30
0.0
 11
13.7892034414887
 21
8.922770172139735
 31
0.0
 12
13.6092034414887
 22
8.952770172139734
 32
0.0
 13
13.6092034414887
 23
8.952770172139734
 33
0.0
  0
SOLID
  5
32CB
330
2AE2
100
AcDbEntity
  8
DIM
 62
     0
100
AcDbTrace
 10
13.1172034414887
 20
8.982770172139733
 30
0.0
 11
13.1172034414887
 21
8.922770172139735
 31
0.0
 12
13.2972034414887
 22
8.952770172139734
 32
0.0
 13
13.2972034414887
 23
8.952770172139734
 33
0.0
  0
MTEXT
  5
32CC
330
2AE2
100
AcDbEntity
  8
DIM
 62
     0
100
AcDbMText
 10
12.61095344148871
 20
8.952770172139734
 30
0.0
 40
0.125
 41
0.0
 71
     5
 72
     1
  1
\A1;0.312
  7
TXT
 73
     1
 44
1.0
  0
POINT
  5
32CD
330
2AE2
100
AcDbEntity
  8
DEFPOINTS
 62
     0
100
AcDbPoint
 10
13.6092034414887
 20
8.610869598169202
 30
0.0
  0
POINT
  5
32CE
330
2AE2
100
AcDbEntity
  8
DEFPOINTS
 62
     0
100
AcDbPoint
 10
13.2972034414887
 20
7.520138122819552
 30
0.0
  0
POINT
  5
32CF
330
2AE2
100
AcDbEntity
  8
DEFPOINTS
 62
     0
100
AcDbPoint
 10
13.2972034414887
 20
8.952770172139734
 30
0.0
  0
ENDBLK
  5
2AEE
330
2AE2
100
AcDbEntity
  8
0
100
AcDbBlockEnd
  0
BLOCK
  5
2AFB
330
2AF0
100
AcDbEntity
  8
0
100
AcDbBlockBegin
  2
*D26
 70
     1
 10
0.0
 20
0.0
 30
0.0
  3
*D26
  1

  0
LINE
  5
32BC
330
2AF0
100
AcDbEntity
  8
DIM
 62
     0
370
    -2
100
AcDbLine
 10
13.2972034414887
 20
7.583138122819552
 30
0.0
 11
13.2972034414887
 21
9.376259673587604
 31
0.0
  0
LINE
  5
32BD
330
2AF0
100
AcDbEntity
  8
DIM
 62
     0
370
    -2
100
AcDbLine
 10
13.9212034414887
 20
7.583138122819552
 30
0.0
 11
13.9212034414887
 21
9.376259673587604
 31
0.0
  0
LINE
  5
32BE
330
2AF0
100
AcDbEntity
  8
DIM
 62
     0
370
    -2
100
AcDbLine
 10
13.1172034414887
 20
9.283259673587604
 30
0.0
 11
12.9372034414887
 21
9.283259673587604
 31
0.0
  0
LINE
  5
32BF
330
2AF0
100
AcDbEntity
  8
DIM
 62
     0
370
    -2
100
AcDbLine
 10
14.1012034414887
 20
9.283259673587604
 30
0.0
 11
14.2812034414887
 21
9.283259673587604
 31
0.0
  0
SOLID
  5
32C0
330
2AF0
100
AcDbEntity
  8
DIM
 62
     0
100
AcDbTrace
 10
13.1172034414887
 20
9.313259673587603
 30
0.0
 11
13.1172034414887
 21
9.253259673587605
 31
0.0
 12
13.2972034414887
 22
9.283259673587604
 32
0.0
 13
13.2972034414887
 23
9.283259673587604
 33
0.0
  0
SOLID
  5
32C1
330
2AF0
100
AcDbEntity
  8
DIM
 62
     0
100
AcDbTrace
 10
14.1012034414887
 20
9.313259673587603
 30
0.0
 11
14.1012034414887
 21
9.253259673587605
 31
0.0
 12
13.9212034414887
 22
9.283259673587604
 32
0.0
 13
13.9212034414887
 23
9.283259673587604
 33
0.0
  0
MTEXT
  5
32C2
330
2AF0
100
AcDbEntity
  8
DIM
 62
     0
100
AcDbMText
 10
13.65943784815633
 20
9.283259673587604
 30
0.0
 40
0.125
 41
0.0
 71
     5
 72
     1
  1
\A1;0.624
  7
TXT
 73
     1
 44
1.0
  0
POINT
  5
32C3
330
2AF0
100
AcDbEntity
  8
DEFPOINTS
 62
     0
100
AcDbPoint
 10
13.2972034414887
 20
7.520138122819552
 30
0.0
  0
POINT
  5
32C4
330
2AF0
100
AcDbEntity
  8
DEFPOINTS
 62
     0
100
AcDbPoint
 10
13.9212034414887
 20
7.520138122819552
 30
0.0
  0
POINT
  5
32C5
330
2AF0
100
AcDbEntity
  8
DEFPOINTS
 62
     0
100
AcDbPoint
 10
13.9212034414887
 20
9.283259673587604
 30
0.0
  0
ENDBLK
  5
2AFC
330
2AF0
100
AcDbEntity
  8
0
100
AcDbBlockEnd
  0
BLOCK
  5
2B09
330
2AFE
100
AcDbEntity
  8
0
100
AcDbBlockBegin
  2
*D27
 70
     1
 10
0.0
 20
0.0
 30
0.0
  3
*D27
  1

  0
LINE
  5
32E4
330
2AFE
100
AcDbEntity
  8
DIM
 62
     0
370
    -2
100
AcDbLine
 10
10.65524412881187
 20
8.467138122819553
 30
0.0
 11
11.41478230454247
 21
8.467138122819553
 31
0.0
  0
LINE
  5
32E5
330
2AFE
100
AcDbEntity
  8
DIM
 62
     0
370
    -2
100
AcDbLine
 10
10.91624412881186
 20
8.206138122819552
 30
0.0
 11
11.41478230454247
 21
8.206138122819552
 31
0.0
  0
LINE
  5
32E6
330
2AFE
100
AcDbEntity
  8
DIM
 62
     0
370
    -2
100
AcDbLine
 10
11.32178230454247
 20
8.647138122819553
 30
0.0
 11
11.32178230454247
 21
8.827138122819553
 31
0.0
  0
LINE
  5
32E7
330
2AFE
100
AcDbEntity
  8
DIM
 62
     0
370
    -2
100
AcDbLine
 10
11.32178230454247
 20
8.026138122819553
 30
0.0
 11
11.32178230454247
 21
7.846138122819551
 31
0.0
  0
SOLID
  5
32E8
330
2AFE
100
AcDbEntity
  8
DIM
 62
     0
100
AcDbTrace
 10
11.29178230454247
 20
8.647138122819553
 30
0.0
 11
11.35178230454247
 21
8.647138122819553
 31
0.0
 12
11.32178230454247
 22
8.467138122819553
 32
0.0
 13
11.32178230454247
 23
8.467138122819553
 33
0.0
  0
SOLID
  5
32E9
330
2AFE
100
AcDbEntity
  8
DIM
 62
     0
100
AcDbTrace
 10
11.29178230454247
 20
8.026138122819553
 30
0.0
 11
11.35178230454247
 21
8.026138122819553
 31
0.0
 12
11.32178230454247
 22
8.206138122819552
 32
0.0
 13
11.32178230454247
 23
8.206138122819552
 33
0.0
  0
MTEXT
  5
32EA
330
2AFE
100
AcDbEntity
  8
DIM
 62
     0
100
AcDbMText
 10
11.32178230454246
 20
8.336638122819554
 30
0.0
 40
0.125
 41
0.0
 71
     5
 72
     1
  1
\A1;0.261
  7
TXT
 73
     1
 44
1.0
  0
POINT
  5
32EB
330
2AFE
100
AcDbEntity
  8
DEFPOINTS
 62
     0
100
AcDbPoint
 10
10.59224412881187
 20
8.467138122819553
 30
0.0
  0
POINT
  5
32EC
330
2AFE
100
AcDbEntity
  8
DEFPOINTS
 62
     0
100
AcDbPoint
 10
10.85324412881186
 20
8.206138122819552
 30
0.0
  0
POINT
  5
32ED
330
2AFE
100
AcDbEntity
  8
DEFPOINTS
 62
     0
100
AcDbPoint
 10
11.32178230454247
 20
8.206138122819552
 30
0.0
  0
ENDBLK
  5
2B0A
330
2AFE
100
AcDbEntity
  8
0
100
AcDbBlockEnd
  0
BLOCK
  5
2B17
330
2B0C
100
AcDbEntity
  8
0
100
AcDbBlockBegin
  2
*D28
 70
     1
 10
0.0
 20
0.0
 30
0.0
  3
*D28
  1

  0
LINE
  5
32D0
330
2B0C
100
AcDbEntity
  8
DIM
 62
     0
370
    -2
100
AcDbLine
 10
10.59224412881187
 20
8.530138122819554
 30
0.0
 11
10.59224412881187
 21
9.045770172139734
 31
0.0
  0
LINE
  5
32D1
330
2B0C
100
AcDbEntity
  8
DIM
 62
     0
370
    -2
100
AcDbLine
 10
10.85324412881186
 20
8.269138122819553
 30
0.0
 11
10.85324412881186
 21
9.045770172139734
 31
0.0
  0
LINE
  5
32D2
330
2B0C
100
AcDbEntity
  8
DIM
 62
     0
370
    -2
100
AcDbLine
 10
10.41224412881187
 20
8.952770172139734
 30
0.0
 11
10.23224412881187
 21
8.952770172139734
 31
0.0
  0
LINE
  5
32D3
330
2B0C
100
AcDbEntity
  8
DIM
 62
     0
370
    -2
100
AcDbLine
 10
11.03324412881186
 20
8.952770172139734
 30
0.0
 11
11.21324412881186
 21
8.952770172139734
 31
0.0
  0
SOLID
  5
32D4
330
2B0C
100
AcDbEntity
  8
DIM
 62
     0
100
AcDbTrace
 10
10.41224412881187
 20
8.982770172139733
 30
0.0
 11
10.41224412881187
 21
8.922770172139735
 31
0.0
 12
10.59224412881187
 22
8.952770172139734
 32
0.0
 13
10.59224412881187
 23
8.952770172139734
 33
0.0
  0
SOLID
  5
32D5
330
2B0C
100
AcDbEntity
  8
DIM
 62
     0
100
AcDbTrace
 10
11.03324412881186
 20
8.982770172139733
 30
0.0
 11
11.03324412881186
 21
8.922770172139735
 31
0.0
 12
10.85324412881186
 22
8.952770172139734
 32
0.0
 13
10.85324412881186
 23
8.952770172139734
 33
0.0
  0
MTEXT
  5
32D6
330
2B0C
100
AcDbEntity
  8
DIM
 62
     0
100
AcDbMText
 10
11.46730662881185
 20
8.952770172139734
 30
0.0
 40
0.125
 41
0.0
 71
     5
 72
     1
  1
\A1;0.261
  7
TXT
 73
     1
 44
1.0
  0
POINT
  5
32D7
330
2B0C
100
AcDbEntity
  8
DEFPOINTS
 62
     0
100
AcDbPoint
 10
10.59224412881187
 20
8.467138122819553
 30
0.0
  0
POINT
  5
32D8
330
2B0C
100
AcDbEntity
  8
DEFPOINTS
 62
     0
100
AcDbPoint
 10
10.85324412881186
 20
8.206138122819552
 30
0.0
  0
POINT
  5
32D9
330
2B0C
100
AcDbEntity
  8
DEFPOINTS
 62
     0
100
AcDbPoint
 10
10.85324412881186
 20
8.952770172139734
 30
0.0
  0
ENDBLK
  5
2B18
330
2B0C
100
AcDbEntity
  8
0
100
AcDbBlockEnd
  0
BLOCK
  5
2B24
330
2B1A
100
AcDbEntity
  8
0
100
AcDbBlockBegin
  2
*D29
 70
     1
 10
0.0
 20
0.0
 30
0.0
  3
*D29
  1

  0
LINE
  5
330C
330
2B1A
100
AcDbEntity
  8
DIM
 62
     0
370
    -2
100
AcDbLine
 10
14.08336745136357
 20
7.323344235970125
 30
0.0
 11
14.59484257682523
 21
6.702644377573172
 31
0.0
  0
LINE
  5
330D
330
2B1A
100
AcDbEntity
  8
DIM
 62
     0
370
    -2
100
AcDbLine
 10
14.59484257682523
 20
6.702644377573172
 30
0.0
 11
14.77484257682523
 21
6.702644377573172
 31
0.0
  0
SOLID
  5
330E
330
2B1A
100
AcDbEntity
  8
DIM
 62
     0
100
AcDbTrace
 10
14.10651967334586
 20
7.342422354778932
 30
0.0
 11
14.06021522938129
 21
7.30426611716132
 31
0.0
 12
13.96889873851073
 22
7.462257567863846
 32
0.0
 13
13.96889873851073
 23
7.462257567863846
 33
0.0
  0
MTEXT
  5
330F
330
2B1A
100
AcDbEntity
  8
DIM
 62
     0
100
AcDbMText
 10
15.06796757682524
 20
6.702644377573179
 30
0.0
 40
0.125
 41
0.0
 71
     5
 72
     1
  1
\A1;\U+22050.150
  7
TXT
 73
     1
 44
1.0
  0
LINE
  5
3310
330
2B1A
100
AcDbEntity
  8
DIM
 62
     0
370
    -2
100
AcDbLine
 10
13.83120344148871
 20
7.520138122819563
 30
0.0
 11
14.01120344148871
 21
7.520138122819561
 31
0.0
  0
LINE
  5
3311
330
2B1A
100
AcDbEntity
  8
DIM
 62
     0
370
    -2
100
AcDbLine
 10
13.92120344148872
 20
7.430138122819564
 30
0.0
 11
13.92120344148871
 21
7.610138122819565
 31
0.0
  0
POINT
  5
3312
330
2B1A
100
AcDbEntity
  8
DEFPOINTS
 62
     0
100
AcDbPoint
 10
13.96889873851073
 20
7.462257567863846
 30
0.0
  0
POINT
  5
3313
330
2B1A
100
AcDbEntity
  8
DEFPOINTS
 62
     0
100
AcDbPoint
 10
13.8735081444667
 20
7.578018677775281
 30
0.0
  0
ENDBLK
  5
2B25
330
2B1A
100
AcDbEntity
  8
0
100
AcDbBlockEnd
  0
BLOCK
  5
2D31
330
2D1A
100
AcDbEntity
  8
0
100
AcDbBlockBegin
  2
HBS
 70
     0
 10
0.0
 20
0.0
 30
0.0
  3
HBS
  1

  0
LINE
  5
2D1B
330
2D1A
100
AcDbEntity
  8
TITLE
100
AcDbLine
 10
0.0620000000000118
 20
10.266
 30
0.0
 11
16.53800000000001
 21
10.266
 31
0.0
  0
LINE
  5
2D1C
330
2D1A
100
AcDbEntity
  8
TITLE
100
AcDbLine
 10
16.53800000000001
 20
0.0620000000000012
 30
0.0
 11
0.0620000000000118
 21
0.0620000000000012
 31
0.0
  0
LINE
  5
2D1D
330
2D1A
100
AcDbEntity
  8
TITLE
100
AcDbLine
 10
0.0
 20
10.32799999999999
 30
0.0
 11
16.59999999999999
 21
10.32799999999999
 31
0.0
  0
LINE
  5
2D1E
330
2D1A
100
AcDbEntity
  8
TITLE
100
AcDbLine
 10
16.59999999999999
 20
0.0
 30
0.0
 11
0.0
 21
0.0
 31
0.0
  0
LINE
  5
2D1F
330
2D1A
100
AcDbEntity
  8
TITLE
100
AcDbLine
 10
0.0620000000000118
 20
9.848000000000002
 30
0.0
 11
16.53800000000001
 21
9.848000000000006
 31
0.0
  0
LINE
  5
2D20
330
2D1A
100
AcDbEntity
  8
TITLE
100
AcDbLine
 10
0.0620000000000118
 20
0.0620000000000012
 30
0.0
 11
0.0620000000000118
 21
10.266
 31
0.0
  0
LINE
  5
2D21
330
2D1A
100
AcDbEntity
  8
TITLE
100
AcDbLine
 10
0.0
 20
0.0
 30
0.0
 11
0.0
 21
10.32799999999999
 31
0.0
  0
TEXT
  5
2D22
330
2D1A
100
AcDbEntity
  8
TEXT
100
AcDbText
 10
0.2078333333333452
 20
9.888079195640081
 30
0.0
 40
0.125
  1
NAME
  7
TXT
 72
     1
 11
0.4370000000000119
 21
9.888079195640081
 31
0.0
100
AcDbText
  0
TEXT
  5
2D23
330
2D1A
100
AcDbEntity
  8
TEXT
100
AcDbText
 10
0.2078333333333452
 20
10.09641252897341
 30
0.0
 40
0.125
  1
PART
  7
TXT
 72
     1
 11
0.4370000000000119
 21
10.09641252897341
 31
0.0
100
AcDbText
  0
LINE
  5
2D24
330
2D1A
100
AcDbEntity
  8
TITLE
100
AcDbLine
 10
0.8120000000000118
 20
9.848000000000002
 30
0.0
 11
0.8120000000000118
 21
10.266
 31
0.0
  0
LINE
  5
2D25
330
2D1A
100
AcDbEntity
  8
TITLE
100
AcDbLine
 10
7.0
 20
10.266
 30
0.0
 11
7.0
 21
9.848000000000002
 31
0.0
  0
LINE
  5
2D26
330
2D1A
100
AcDbEntity
  8
TITLE
100
AcDbLine
 10
7.062000000000011
 20
10.266
 30
0.0
 11
7.062000000000011
 21
9.848000000000002
 31
0.0
  0
LINE
  5
2D27
330
2D1A
100
AcDbEntity
  8
TITLE
100
AcDbLine
 10
7.812000000000011
 20
10.266
 30
0.0
 11
7.812000000000011
 21
9.848000000000002
 31
0.0
  0
TEXT
  5
2D28
330
2D1A
100
AcDbEntity
  8
TEXT
100
AcDbText
 10
7.312000000000011
 20
9.888079195640081
 30
0.0
 40
0.125
  1
No.
  7
TXT
 72
     1
 11
7.437000000000011
 21
9.888079195640081
 31
0.0
100
AcDbText
  0
TEXT
  5
2D29
330
2D1A
100
AcDbEntity
  8
TEXT
100
AcDbText
 10
7.207833333333344
 20
10.09641252897341
 30
0.0
 40
0.125
  1
PART
  7
TXT
 72
     1
 11
7.437000000000011
 21
10.09641252897341
 31
0.0
100
AcDbText
  0
LINE
  5
2D2A
330
2D1A
100
AcDbEntity
  8
TITLE
100
AcDbLine
 10
16.53800000000001
 20
10.266
 30
0.0
 11
16.53800000000001
 21
0.0620000000000012
 31
0.0
  0
LINE
  5
2D2B
330
2D1A
100
AcDbEntity
  8
TITLE
100
AcDbLine
 10
16.59999999999999
 20
10.32799999999999
 30
0.0
 11
16.59999999999999
 21
0.0
 31
0.0
  0
TEXT
  5
2D2C
330
2D1A
100
AcDbEntity
  8
TEXT
100
AcDbText
 10
14.22865779971668
 20
10.09641252897341
 30
0.0
 40
0.125
  1
REV.
  7
TXT
 72
     1
 11
14.43699113305001
 21
10.09641252897341
 31
0.0
100
AcDbText
  0
TEXT
  5
2D2D
330
2D1A
100
AcDbEntity
  8
TEXT
100
AcDbText
 10
14.20782446638335
 20
9.888079195640081
 30
0.0
 40
0.125
  1
DATE
  7
TXT
 72
     1
 11
14.43699113305001
 21
9.888079195640081
 31
0.0
100
AcDbText
  0
LINE
  5
2D2E
330
2D1A
100
AcDbEntity
  8
TITLE
100
AcDbLine
 10
14.06199113305001
 20
10.266
 30
0.0
 11
14.06199113305001
 21
9.848000000000002
 31
0.0
  0
LINE
  5
2D2F
330
2D1A
100
AcDbEntity
  8
TITLE
100
AcDbLine
 10
14.81199113305001
 20
10.266
 30
0.0
 11
14.81199113305001
 21
9.848000000000002
 31
0.0
  0
LINE
  5
2D30
330
2D1A
100
AcDbEntity
  8
TITLE
100
AcDbLine
 10
13.99999113305
 20
10.266
 30
0.0
 11
13.99999113305
 21
9.848000000000002
 31
0.0
  0
ENDBLK
  5
2D32
330
2D1A
100
AcDbEntity
  8
0
100
AcDbBlockEnd
  0
ENDSEC
  0
SECTION
  2
ENTITIES
  0
CIRCLE
  5
244A
330
188C
100
AcDbEntity
  8
COVER
100
AcDbCircle
 10
10.32224412881186
 20
4.384955139543449
 30
0.0
 40
0.47
  0
LWPOLYLINE
  5
244B
330
188C
100
AcDbEntity
  8
SAVED
  6
HIDDEN2
 62
     4
100
AcDbPolyline
 90
       12
 70
     0
 43
0.0
 10
10.32178677683184
 20
4.939634646179405
 42
0.0320291312669852
 10
10.28740946961105
 20
4.913060431593152
 10
9.992766730693674
 20
4.665825818038508
 42
0.2521064587477117
 10
9.928521675579293
 20
4.504388752625922
 42
-0.052923982045329
 10
9.940656998962394
 20
3.21712988792383
 42
0.3575727871204821
 10
10.07004290900594
 20
3.024092280771333
 42
0.147811537654142
 10
10.95357221133152
 20
3.024092280771333
 42
0.3575727871204799
 10
11.08295812137508
 20
3.21712988792383
 42
-0.0529239820453291
 10
11.09509344475817
 20
4.504388752625922
 42
0.2521064587477117
 10
11.0308483896438
 20
4.665825818038508
 10
10.73620565072642
 20
4.91306043159314
 42
0.0320291312669808
 10
10.70182834350565
 20
4.939634646179392
  0
LWPOLYLINE
  5
2459
330
188C
100
AcDbEntity
  8
SAVED
  6
HIDDEN2
 62
     4
100
AcDbPolyline
 90
       10
 70
     1
 43
0.0
 10
9.967055226306204
 20
4.696467595763269
 42
0.2521064587477136
 10
9.888786693949956
 20
4.499791880328834
 42
-0.0529239820453285
 10
9.900842415342994
 20
3.220976825824854
 42
0.3575727871204803
 10
10.05847081598269
 20
2.985802769634979
 42
0.1478115376541416
 10
10.96514430435478
 20
2.985802769634977
 42
0.3575727871204808
 10
11.12277270499447
 20
3.220976825824855
 42
-0.0529239820453285
 10
11.13482842638751
 20
4.499791880328835
 42
0.252106458747712
 10
11.05655989403126
 20
4.696467595763269
 10
10.7622742509629
 20
4.943402570322694
 42
0.376863677081022
 10
10.26134086937459
 20
4.943402570322724
  0
LWPOLYLINE
  5
2465
330
188C
100
AcDbEntity
  8
COVER
100
AcDbPolyline
 90
       10
 70
     1
 43
0.0
 10
9.74021011358752
 20
5.265058944605908
 42
0.2521064587477109
 10
9.64160753923053
 20
5.017287186639802
 42
-0.0529239820453285
 10
9.653547837738003
 20
3.750715656923073
 42
0.3575727871204826
 10
9.852127849742091
 20
3.454443749628995
 42
0.1478115376541415
 10
10.79236040788163
 20
3.454443749628994
 42
0.3575727871204826
 10
10.99094041988572
 20
3.750715656923073
 42
-0.0529239820453286
 10
11.00288071839319
 20
5.017287186639802
 42
0.2521064587477109
 10
10.9042781440362
 20
5.265058944605908
 10
10.61047835812519
 20
5.511586236603807
 42
0.3759751338271458
 10
10.03400989949854
 20
5.511586236603812
  0
LWPOLYLINE
  5
2471
330
188C
100
AcDbEntity
  8
SAVED
  6
HIDDEN2
 62
     4
100
AcDbPolyline
 90
        4
 70
     0
 43
0.0
 10
9.961150521611404
 20
3.495794368401715
 10
10.03930756016873
 20
3.495794368401715
 10
10.03930756016873
 20
3.464794368401715
 10
9.959504656514553
 20
3.464794368401715
  0
LWPOLYLINE
  5
2477
330
188C
100
AcDbEntity
  8
SAVED
  6
HIDDEN2
 62
     4
100
AcDbPolyline
 90
        4
 70
     0
 43
0.0
 10
9.959868458975094
 20
4.073794368401715
 10
9.977807560168736
 20
4.073794368401716
 42
0.9999999999999998
 10
9.977807560168736
 20
4.135794368401716
 10
9.959868458975094
 20
4.135794368401716
  0
POLYLINE
  5
247D
330
188C
100
AcDbEntity
  8
COVER
100
AcDb3dPolyline
 66
     1
 10
0.0
 20
0.0
 30
0.0
 70
     8
  0
VERTEX
  5
247E
330
247D
100
AcDbEntity
  8
0
100
AcDbVertex
100
AcDb3dPolylineVertex
 10
10.12727552546787
 20
5.446957383718259
 30
0.0
 70
    32
  0
VERTEX
  5
247F
330
247D
100
AcDbEntity
  8
0
100
AcDbVertex
100
AcDb3dPolylineVertex
 10
10.12747552546787
 20
5.443277383718259
 30
0.0
 70
    32
  0
VERTEX
  5
2480
330
247D
100
AcDbEntity
  8
0
100
AcDbVertex
100
AcDb3dPolylineVertex
 10
10.12817552546787
 20
5.439607383718258
 30
0.0
 70
    32
  0
VERTEX
  5
2481
330
247D
100
AcDbEntity
  8
0
100
AcDbVertex
100
AcDb3dPolylineVertex
 10
10.12937552546787
 20
5.435947383718258
 30
0.0
 70
    32
  0
VERTEX
  5
2482
330
247D
100
AcDbEntity
  8
0
100
AcDbVertex
100
AcDb3dPolylineVertex
 10
10.13097552546787
 20
5.432327383718258
 30
0.0
 70
    32
  0
VERTEX
  5
2483
330
247D
100
AcDbEntity
  8
0
100
AcDbVertex
100
AcDb3dPolylineVertex
 10
10.13307552546786
 20
5.428727383718258
 30
0.0
 70
    32
  0
VERTEX
  5
2484
330
247D
100
AcDbEntity
  8
0
100
AcDbVertex
100
AcDb3dPolylineVertex
 10
10.13567552546787
 20
5.425187383718259
 30
0.0
 70
    32
  0
VERTEX
  5
2485
330
247D
100
AcDbEntity
  8
0
100
AcDbVertex
100
AcDb3dPolylineVertex
 10
10.13867552546787
 20
5.421687383718258
 30
0.0
 70
    32
  0
VERTEX
  5
2486
330
247D
100
AcDbEntity
  8
0
100
AcDbVertex
100
AcDb3dPolylineVertex
 10
10.14207552546787
 20
5.418257383718258
 30
0.0
 70
    32
  0
VERTEX
  5
2487
330
247D
100
AcDbEntity
  8
0
100
AcDbVertex
100
AcDb3dPolylineVertex
 10
10.14597552546786
 20
5.414887383718259
 30
0.0
 70
    32
  0
VERTEX
  5
2488
330
247D
100
AcDbEntity
  8
0
100
AcDbVertex
100
AcDb3dPolylineVertex
 10
10.15027552546787
 20
5.411597383718258
 30
0.0
 70
    32
  0
VERTEX
  5
2489
330
247D
100
AcDbEntity
  8
0
100
AcDbVertex
100
AcDb3dPolylineVertex
 10
10.15497552546787
 20
5.408397383718258
 30
0.0
 70
    32
  0
VERTEX
  5
248A
330
247D
100
AcDbEntity
  8
0
100
AcDbVertex
100
AcDb3dPolylineVertex
 10
10.16007552546787
 20
5.405287383718258
 30
0.0
 70
    32
  0
VERTEX
  5
248B
330
247D
100
AcDbEntity
  8
0
100
AcDbVertex
100
AcDb3dPolylineVertex
 10
10.16557552546787
 20
5.402277383718258
 30
0.0
 70
    32
  0
VERTEX
  5
248C
330
247D
100
AcDbEntity
  8
0
100
AcDbVertex
100
AcDb3dPolylineVertex
 10
10.17147552546787
 20
5.399377383718258
 30
0.0
 70
    32
  0
VERTEX
  5
248D
330
247D
100
AcDbEntity
  8
0
100
AcDbVertex
100
AcDb3dPolylineVertex
 10
10.17777552546787
 20
5.396587383718259
 30
0.0
 70
    32
  0
VERTEX
  5
248E
330
247D
100
AcDbEntity
  8
0
100
AcDbVertex
100
AcDb3dPolylineVertex
 10
10.18437552546787
 20
5.393917383718259
 30
0.0
 70
    32
  0
VERTEX
  5
248F
330
247D
100
AcDbEntity
  8
0
100
AcDbVertex
100
AcDb3dPolylineVertex
 10
10.19127552546787
 20
5.391387383718258
 30
0.0
 70
    32
  0
VERTEX
  5
2490
330
247D
100
AcDbEntity
  8
0
100
AcDbVertex
100
AcDb3dPolylineVertex
 10
10.19857552546787
 20
5.388977383718258
 30
0.0
 70
    32
  0
VERTEX
  5
2491
330
247D
100
AcDbEntity
  8
0
100
AcDbVertex
100
AcDb3dPolylineVertex
 10
10.20607552546787
 20
5.386717383718258
 30
0.0
 70
    32
  0
VERTEX
  5
2492
330
247D
100
AcDbEntity
  8
0
100
AcDbVertex
100
AcDb3dPolylineVertex
 10
10.21387552546787
 20
5.384597383718258
 30
0.0
 70
    32
  0
VERTEX
  5
2493
330
247D
100
AcDbEntity
  8
0
100
AcDbVertex
100
AcDb3dPolylineVertex
 10
10.22197552546787
 20
5.382627383718259
 30
0.0
 70
    32
  0
VERTEX
  5
2494
330
247D
100
AcDbEntity
  8
0
100
AcDbVertex
100
AcDb3dPolylineVertex
 10
10.23027552546787
 20
5.380807383718258
 30
0.0
 70
    32
  0
VERTEX
  5
2495
330
247D
100
AcDbEntity
  8
0
100
AcDbVertex
100
AcDb3dPolylineVertex
 10
10.23887552546786
 20
5.379157383718259
 30
0.0
 70
    32
  0
VERTEX
  5
2496
330
247D
100
AcDbEntity
  8
0
100
AcDbVertex
100
AcDb3dPolylineVertex
 10
10.24757552546787
 20
5.377667383718258
 30
0.0
 70
    32
  0
VERTEX
  5
2497
330
247D
100
AcDbEntity
  8
0
100
AcDbVertex
100
AcDb3dPolylineVertex
 10
10.25657552546787
 20
5.376337383718258
 30
0.0
 70
    32
  0
VERTEX
  5
2498
330
247D
100
AcDbEntity
  8
0
100
AcDbVertex
100
AcDb3dPolylineVertex
 10
10.26567552546786
 20
5.375187383718258
 30
0.0
 70
    32
  0
VERTEX
  5
2499
330
247D
100
AcDbEntity
  8
0
100
AcDbVertex
100
AcDb3dPolylineVertex
 10
10.27487552546787
 20
5.374207383718259
 30
0.0
 70
    32
  0
VERTEX
  5
249A
330
247D
100
AcDbEntity
  8
0
100
AcDbVertex
100
AcDb3dPolylineVertex
 10
10.28417552546787
 20
5.373397383718258
 30
0.0
 70
    32
  0
VERTEX
  5
249B
330
247D
100
AcDbEntity
  8
0
100
AcDbVertex
100
AcDb3dPolylineVertex
 10
10.29367552546787
 20
5.372767383718258
 30
0.0
 70
    32
  0
VERTEX
  5
249C
330
247D
100
AcDbEntity
  8
0
100
AcDbVertex
100
AcDb3dPolylineVertex
 10
10.30317552546787
 20
5.372317383718258
 30
0.0
 70
    32
  0
VERTEX
  5
249D
330
247D
100
AcDbEntity
  8
0
100
AcDbVertex
100
AcDb3dPolylineVertex
 10
10.31267552546787
 20
5.372047383718259
 30
0.0
 70
    32
  0
VERTEX
  5
249E
330
247D
100
AcDbEntity
  8
0
100
AcDbVertex
100
AcDb3dPolylineVertex
 10
10.32227552546787
 20
5.371957383718259
 30
0.0
 70
    32
  0
VERTEX
  5
249F
330
247D
100
AcDbEntity
  8
0
100
AcDbVertex
100
AcDb3dPolylineVertex
 10
10.33177552546787
 20
5.372047383718259
 30
0.0
 70
    32
  0
VERTEX
  5
24A0
330
247D
100
AcDbEntity
  8
0
100
AcDbVertex
100
AcDb3dPolylineVertex
 10
10.34137552546787
 20
5.372317383718258
 30
0.0
 70
    32
  0
VERTEX
  5
24A1
330
247D
100
AcDbEntity
  8
0
100
AcDbVertex
100
AcDb3dPolylineVertex
 10
10.35087552546787
 20
5.372767383718258
 30
0.0
 70
    32
  0
VERTEX
  5
24A2
330
247D
100
AcDbEntity
  8
0
100
AcDbVertex
100
AcDb3dPolylineVertex
 10
10.36027552546787
 20
5.373397383718258
 30
0.0
 70
    32
  0
VERTEX
  5
24A3
330
247D
100
AcDbEntity
  8
0
100
AcDbVertex
100
AcDb3dPolylineVertex
 10
10.36957552546787
 20
5.374207383718259
 30
0.0
 70
    32
  0
VERTEX
  5
24A4
330
247D
100
AcDbEntity
  8
0
100
AcDbVertex
100
AcDb3dPolylineVertex
 10
10.37887552546787
 20
5.375187383718258
 30
0.0
 70
    32
  0
VERTEX
  5
24A5
330
247D
100
AcDbEntity
  8
0
100
AcDbVertex
100
AcDb3dPolylineVertex
 10
10.38797552546787
 20
5.376337383718258
 30
0.0
 70
    32
  0
VERTEX
  5
24A6
330
247D
100
AcDbEntity
  8
0
100
AcDbVertex
100
AcDb3dPolylineVertex
 10
10.39687552546787
 20
5.377667383718258
 30
0.0
 70
    32
  0
VERTEX
  5
24A7
330
247D
100
AcDbEntity
  8
0
100
AcDbVertex
100
AcDb3dPolylineVertex
 10
10.40557552546787
 20
5.379157383718259
 30
0.0
 70
    32
  0
VERTEX
  5
24A8
330
247D
100
AcDbEntity
  8
0
100
AcDbVertex
100
AcDb3dPolylineVertex
 10
10.41417552546787
 20
5.380807383718258
 30
0.0
 70
    32
  0
VERTEX
  5
24A9
330
247D
100
AcDbEntity
  8
0
100
AcDbVertex
100
AcDb3dPolylineVertex
 10
10.42247552546787
 20
5.382627383718259
 30
0.0
 70
    32
  0
VERTEX
  5
24AA
330
247D
100
AcDbEntity
  8
0
100
AcDbVertex
100
AcDb3dPolylineVertex
 10
10.43057552546787
 20
5.384597383718258
 30
0.0
 70
    32
  0
VERTEX
  5
24AB
330
247D
100
AcDbEntity
  8
0
100
AcDbVertex
100
AcDb3dPolylineVertex
 10
10.43837552546787
 20
5.386717383718258
 30
0.0
 70
    32
  0
VERTEX
  5
24AC
330
247D
100
AcDbEntity
  8
0
100
AcDbVertex
100
AcDb3dPolylineVertex
 10
10.44597552546787
 20
5.388977383718258
 30
0.0
 70
    32
  0
VERTEX
  5
24AD
330
247D
100
AcDbEntity
  8
0
100
AcDbVertex
100
AcDb3dPolylineVertex
 10
10.45317552546787
 20
5.391387383718258
 30
0.0
 70
    32
  0
VERTEX
  5
24AE
330
247D
100
AcDbEntity
  8
0
100
AcDbVertex
100
AcDb3dPolylineVertex
 10
10.46017552546787
 20
5.393917383718259
 30
0.0
 70
    32
  0
VERTEX
  5
24AF
330
247D
100
AcDbEntity
  8
0
100
AcDbVertex
100
AcDb3dPolylineVertex
 10
10.46677552546787
 20
5.396587383718259
 30
0.0
 70
    32
  0
VERTEX
  5
24B0
330
247D
100
AcDbEntity
  8
0
100
AcDbVertex
100
AcDb3dPolylineVertex
 10
10.47297552546787
 20
5.399377383718258
 30
0.0
 70
    32
  0
VERTEX
  5
24B1
330
247D
100
AcDbEntity
  8
0
100
AcDbVertex
100
AcDb3dPolylineVertex
 10
10.47887552546787
 20
5.402277383718258
 30
0.0
 70
    32
  0
VERTEX
  5
24B2
330
247D
100
AcDbEntity
  8
0
100
AcDbVertex
100
AcDb3dPolylineVertex
 10
10.48437552546787
 20
5.405287383718258
 30
0.0
 70
    32
  0
VERTEX
  5
24B3
330
247D
100
AcDbEntity
  8
0
100
AcDbVertex
100
AcDb3dPolylineVertex
 10
10.48947552546787
 20
5.408397383718258
 30
0.0
 70
    32
  0
VERTEX
  5
24B4
330
247D
100
AcDbEntity
  8
0
100
AcDbVertex
100
AcDb3dPolylineVertex
 10
10.49417552546787
 20
5.411597383718258
 30
0.0
 70
    32
  0
VERTEX
  5
24B5
330
247D
100
AcDbEntity
  8
0
100
AcDbVertex
100
AcDb3dPolylineVertex
 10
10.49847552546787
 20
5.414887383718259
 30
0.0
 70
    32
  0
VERTEX
  5
24B6
330
247D
100
AcDbEntity
  8
0
100
AcDbVertex
100
AcDb3dPolylineVertex
 10
10.50237552546787
 20
5.418257383718258
 30
0.0
 70
    32
  0
VERTEX
  5
24B7
330
247D
100
AcDbEntity
  8
0
100
AcDbVertex
100
AcDb3dPolylineVertex
 10
10.50587552546787
 20
5.421687383718258
 30
0.0
 70
    32
  0
VERTEX
  5
24B8
330
247D
100
AcDbEntity
  8
0
100
AcDbVertex
100
AcDb3dPolylineVertex
 10
10.50887552546787
 20
5.425187383718259
 30
0.0
 70
    32
  0
VERTEX
  5
24B9
330
247D
100
AcDbEntity
  8
0
100
AcDbVertex
100
AcDb3dPolylineVertex
 10
10.51137552546787
 20
5.428727383718258
 30
0.0
 70
    32
  0
VERTEX
  5
24BA
330
247D
100
AcDbEntity
  8
0
100
AcDbVertex
100
AcDb3dPolylineVertex
 10
10.51347552546787
 20
5.432327383718258
 30
0.0
 70
    32
  0
VERTEX
  5
24BB
330
247D
100
AcDbEntity
  8
0
100
AcDbVertex
100
AcDb3dPolylineVertex
 10
10.51517552546787
 20
5.435947383718258
 30
0.0
 70
    32
  0
VERTEX
  5
24BC
330
247D
100
AcDbEntity
  8
0
100
AcDbVertex
100
AcDb3dPolylineVertex
 10
10.51627552546787
 20
5.439607383718258
 30
0.0
 70
    32
  0
VERTEX
  5
24BD
330
247D
100
AcDbEntity
  8
0
100
AcDbVertex
100
AcDb3dPolylineVertex
 10
10.51697552546787
 20
5.443277383718259
 30
0.0
 70
    32
  0
VERTEX
  5
24BE
330
247D
100
AcDbEntity
  8
0
100
AcDbVertex
100
AcDb3dPolylineVertex
 10
10.51727552546787
 20
5.446957383718259
 30
0.0
 70
    32
  0
VERTEX
  5
24BF
330
247D
100
AcDbEntity
  8
0
100
AcDbVertex
100
AcDb3dPolylineVertex
 10
10.51697552546787
 20
5.450637383718258
 30
0.0
 70
    32
  0
VERTEX
  5
24C0
330
247D
100
AcDbEntity
  8
0
100
AcDbVertex
100
AcDb3dPolylineVertex
 10
10.51627552546787
 20
5.454307383718258
 30
0.0
 70
    32
  0
VERTEX
  5
24C1
330
247D
100
AcDbEntity
  8
0
100
AcDbVertex
100
AcDb3dPolylineVertex
 10
10.51517552546787
 20
5.457957383718258
 30
0.0
 70
    32
  0
VERTEX
  5
24C2
330
247D
100
AcDbEntity
  8
0
100
AcDbVertex
100
AcDb3dPolylineVertex
 10
10.51347552546787
 20
5.461587383718258
 30
0.0
 70
    32
  0
VERTEX
  5
24C3
330
247D
100
AcDbEntity
  8
0
100
AcDbVertex
100
AcDb3dPolylineVertex
 10
10.51137552546787
 20
5.465177383718258
 30
0.0
 70
    32
  0
VERTEX
  5
24C4
330
247D
100
AcDbEntity
  8
0
100
AcDbVertex
100
AcDb3dPolylineVertex
 10
10.50887552546787
 20
5.468727383718258
 30
0.0
 70
    32
  0
VERTEX
  5
24C5
330
247D
100
AcDbEntity
  8
0
100
AcDbVertex
100
AcDb3dPolylineVertex
 10
10.50587552546787
 20
5.472217383718258
 30
0.0
 70
    32
  0
VERTEX
  5
24C6
330
247D
100
AcDbEntity
  8
0
100
AcDbVertex
100
AcDb3dPolylineVertex
 10
10.50237552546787
 20
5.475657383718258
 30
0.0
 70
    32
  0
VERTEX
  5
24C7
330
247D
100
AcDbEntity
  8
0
100
AcDbVertex
100
AcDb3dPolylineVertex
 10
10.49847552546787
 20
5.479017383718258
 30
0.0
 70
    32
  0
VERTEX
  5
24C8
330
247D
100
AcDbEntity
  8
0
100
AcDbVertex
100
AcDb3dPolylineVertex
 10
10.49417552546787
 20
5.482307383718258
 30
0.0
 70
    32
  0
VERTEX
  5
24C9
330
247D
100
AcDbEntity
  8
0
100
AcDbVertex
100
AcDb3dPolylineVertex
 10
10.48947552546787
 20
5.485517383718258
 30
0.0
 70
    32
  0
VERTEX
  5
24CA
330
247D
100
AcDbEntity
  8
0
100
AcDbVertex
100
AcDb3dPolylineVertex
 10
10.48437552546787
 20
5.488627383718259
 30
0.0
 70
    32
  0
VERTEX
  5
24CB
330
247D
100
AcDbEntity
  8
0
100
AcDbVertex
100
AcDb3dPolylineVertex
 10
10.47887552546787
 20
5.491637383718258
 30
0.0
 70
    32
  0
VERTEX
  5
24CC
330
247D
100
AcDbEntity
  8
0
100
AcDbVertex
100
AcDb3dPolylineVertex
 10
10.47297552546787
 20
5.494537383718259
 30
0.0
 70
    32
  0
VERTEX
  5
24CD
330
247D
100
AcDbEntity
  8
0
100
AcDbVertex
100
AcDb3dPolylineVertex
 10
10.46677552546787
 20
5.497317383718258
 30
0.0
 70
    32
  0
VERTEX
  5
24CE
330
247D
100
AcDbEntity
  8
0
100
AcDbVertex
100
AcDb3dPolylineVertex
 10
10.46017552546787
 20
5.499987383718258
 30
0.0
 70
    32
  0
VERTEX
  5
24CF
330
247D
100
AcDbEntity
  8
0
100
AcDbVertex
100
AcDb3dPolylineVertex
 10
10.45317552546787
 20
5.502527383718258
 30
0.0
 70
    32
  0
VERTEX
  5
24D0
330
247D
100
AcDbEntity
  8
0
100
AcDbVertex
100
AcDb3dPolylineVertex
 10
10.44597552546787
 20
5.504927383718258
 30
0.0
 70
    32
  0
VERTEX
  5
24D1
330
247D
100
AcDbEntity
  8
0
100
AcDbVertex
100
AcDb3dPolylineVertex
 10
10.43837552546787
 20
5.507197383718258
 30
0.0
 70
    32
  0
VERTEX
  5
24D2
330
247D
100
AcDbEntity
  8
0
100
AcDbVertex
100
AcDb3dPolylineVertex
 10
10.43057552546787
 20
5.509317383718259
 30
0.0
 70
    32
  0
VERTEX
  5
24D3
330
247D
100
AcDbEntity
  8
0
100
AcDbVertex
100
AcDb3dPolylineVertex
 10
10.42247552546787
 20
5.511287383718259
 30
0.0
 70
    32
  0
VERTEX
  5
24D4
330
247D
100
AcDbEntity
  8
0
100
AcDbVertex
100
AcDb3dPolylineVertex
 10
10.41417552546787
 20
5.513097383718259
 30
0.0
 70
    32
  0
VERTEX
  5
24D5
330
247D
100
AcDbEntity
  8
0
100
AcDbVertex
100
AcDb3dPolylineVertex
 10
10.40557552546787
 20
5.514757383718258
 30
0.0
 70
    32
  0
VERTEX
  5
24D6
330
247D
100
AcDbEntity
  8
0
100
AcDbVertex
100
AcDb3dPolylineVertex
 10
10.39687552546787
 20
5.516247383718258
 30
0.0
 70
    32
  0
VERTEX
  5
24D7
330
247D
100
AcDbEntity
  8
0
100
AcDbVertex
100
AcDb3dPolylineVertex
 10
10.38797552546787
 20
5.517567383718258
 30
0.0
 70
    32
  0
VERTEX
  5
24D8
330
247D
100
AcDbEntity
  8
0
100
AcDbVertex
100
AcDb3dPolylineVertex
 10
10.37887552546787
 20
5.518727383718259
 30
0.0
 70
    32
  0
VERTEX
  5
24D9
330
247D
100
AcDbEntity
  8
0
100
AcDbVertex
100
AcDb3dPolylineVertex
 10
10.36957552546787
 20
5.519707383718258
 30
0.0
 70
    32
  0
VERTEX
  5
24DA
330
247D
100
AcDbEntity
  8
0
100
AcDbVertex
100
AcDb3dPolylineVertex
 10
10.36027552546787
 20
5.520517383718258
 30
0.0
 70
    32
  0
VERTEX
  5
24DB
330
247D
100
AcDbEntity
  8
0
100
AcDbVertex
100
AcDb3dPolylineVertex
 10
10.35087552546787
 20
5.521147383718258
 30
0.0
 70
    32
  0
VERTEX
  5
24DC
330
247D
100
AcDbEntity
  8
0
100
AcDbVertex
100
AcDb3dPolylineVertex
 10
10.34137552546787
 20
5.521597383718258
 30
0.0
 70
    32
  0
VERTEX
  5
24DD
330
247D
100
AcDbEntity
  8
0
100
AcDbVertex
100
AcDb3dPolylineVertex
 10
10.33177552546787
 20
5.521867383718258
 30
0.0
 70
    32
  0
VERTEX
  5
24DE
330
247D
100
AcDbEntity
  8
0
100
AcDbVertex
100
AcDb3dPolylineVertex
 10
10.32227552546787
 20
5.521957383718258
 30
0.0
 70
    32
  0
VERTEX
  5
24DF
330
247D
100
AcDbEntity
  8
0
100
AcDbVertex
100
AcDb3dPolylineVertex
 10
10.31267552546787
 20
5.521867383718258
 30
0.0
 70
    32
  0
VERTEX
  5
24E0
330
247D
100
AcDbEntity
  8
0
100
AcDbVertex
100
AcDb3dPolylineVertex
 10
10.30317552546787
 20
5.521597383718258
 30
0.0
 70
    32
  0
VERTEX
  5
24E1
330
247D
100
AcDbEntity
  8
0
100
AcDbVertex
100
AcDb3dPolylineVertex
 10
10.29367552546787
 20
5.521147383718258
 30
0.0
 70
    32
  0
VERTEX
  5
24E2
330
247D
100
AcDbEntity
  8
0
100
AcDbVertex
100
AcDb3dPolylineVertex
 10
10.28417552546787
 20
5.520517383718258
 30
0.0
 70
    32
  0
VERTEX
  5
24E3
330
247D
100
AcDbEntity
  8
0
100
AcDbVertex
100
AcDb3dPolylineVertex
 10
10.27487552546787
 20
5.519707383718258
 30
0.0
 70
    32
  0
VERTEX
  5
24E4
330
247D
100
AcDbEntity
  8
0
100
AcDbVertex
100
AcDb3dPolylineVertex
 10
10.26567552546786
 20
5.518727383718259
 30
0.0
 70
    32
  0
VERTEX
  5
24E5
330
247D
100
AcDbEntity
  8
0
100
AcDbVertex
100
AcDb3dPolylineVertex
 10
10.25657552546787
 20
5.517567383718258
 30
0.0
 70
    32
  0
VERTEX
  5
24E6
330
247D
100
AcDbEntity
  8
0
100
AcDbVertex
100
AcDb3dPolylineVertex
 10
10.24757552546787
 20
5.516247383718258
 30
0.0
 70
    32
  0
VERTEX
  5
24E7
330
247D
100
AcDbEntity
  8
0
100
AcDbVertex
100
AcDb3dPolylineVertex
 10
10.23887552546786
 20
5.514757383718258
 30
0.0
 70
    32
  0
VERTEX
  5
24E8
330
247D
100
AcDbEntity
  8
0
100
AcDbVertex
100
AcDb3dPolylineVertex
 10
10.23027552546787
 20
5.513097383718259
 30
0.0
 70
    32
  0
VERTEX
  5
24E9
330
247D
100
AcDbEntity
  8
0
100
AcDbVertex
100
AcDb3dPolylineVertex
 10
10.22197552546787
 20
5.511287383718259
 30
0.0
 70
    32
  0
VERTEX
  5
24EA
330
247D
100
AcDbEntity
  8
0
100
AcDbVertex
100
AcDb3dPolylineVertex
 10
10.21387552546787
 20
5.509317383718259
 30
0.0
 70
    32
  0
VERTEX
  5
24EB
330
247D
100
AcDbEntity
  8
0
100
AcDbVertex
100
AcDb3dPolylineVertex
 10
10.20607552546787
 20
5.507197383718258
 30
0.0
 70
    32
  0
VERTEX
  5
24EC
330
247D
100
AcDbEntity
  8
0
100
AcDbVertex
100
AcDb3dPolylineVertex
 10
10.19857552546787
 20
5.504927383718258
 30
0.0
 70
    32
  0
VERTEX
  5
24ED
330
247D
100
AcDbEntity
  8
0
100
AcDbVertex
100
AcDb3dPolylineVertex
 10
10.19127552546787
 20
5.502527383718258
 30
0.0
 70
    32
  0
VERTEX
  5
24EE
330
247D
100
AcDbEntity
  8
0
100
AcDbVertex
100
AcDb3dPolylineVertex
 10
10.18437552546787
 20
5.499987383718258
 30
0.0
 70
    32
  0
VERTEX
  5
24EF
330
247D
100
AcDbEntity
  8
0
100
AcDbVertex
100
AcDb3dPolylineVertex
 10
10.17777552546787
 20
5.497317383718258
 30
0.0
 70
    32
  0
VERTEX
  5
24F0
330
247D
100
AcDbEntity
  8
0
100
AcDbVertex
100
AcDb3dPolylineVertex
 10
10.17147552546787
 20
5.494537383718259
 30
0.0
 70
    32
  0
VERTEX
  5
24F1
330
247D
100
AcDbEntity
  8
0
100
AcDbVertex
100
AcDb3dPolylineVertex
 10
10.16557552546787
 20
5.491637383718258
 30
0.0
 70
    32
  0
VERTEX
  5
24F2
330
247D
100
AcDbEntity
  8
0
100
AcDbVertex
100
AcDb3dPolylineVertex
 10
10.16007552546787
 20
5.488627383718259
 30
0.0
 70
    32
  0
VERTEX
  5
24F3
330
247D
100
AcDbEntity
  8
0
100
AcDbVertex
100
AcDb3dPolylineVertex
 10
10.15497552546787
 20
5.485517383718258
 30
0.0
 70
    32
  0
VERTEX
  5
24F4
330
247D
100
AcDbEntity
  8
0
100
AcDbVertex
100
AcDb3dPolylineVertex
 10
10.15027552546787
 20
5.482307383718258
 30
0.0
 70
    32
  0
VERTEX
  5
24F5
330
247D
100
AcDbEntity
  8
0
100
AcDbVertex
100
AcDb3dPolylineVertex
 10
10.14597552546786
 20
5.479017383718258
 30
0.0
 70
    32
  0
VERTEX
  5
24F6
330
247D
100
AcDbEntity
  8
0
100
AcDbVertex
100
AcDb3dPolylineVertex
 10
10.14207552546787
 20
5.475657383718258
 30
0.0
 70
    32
  0
VERTEX
  5
24F7
330
247D
100
AcDbEntity
  8
0
100
AcDbVertex
100
AcDb3dPolylineVertex
 10
10.13867552546787
 20
5.472217383718258
 30
0.0
 70
    32
  0
VERTEX
  5
24F8
330
247D
100
AcDbEntity
  8
0
100
AcDbVertex
100
AcDb3dPolylineVertex
 10
10.13567552546787
 20
5.468727383718258
 30
0.0
 70
    32
  0
VERTEX
  5
24F9
330
247D
100
AcDbEntity
  8
0
100
AcDbVertex
100
AcDb3dPolylineVertex
 10
10.13307552546786
 20
5.465177383718258
 30
0.0
 70
    32
  0
VERTEX
  5
24FA
330
247D
100
AcDbEntity
  8
0
100
AcDbVertex
100
AcDb3dPolylineVertex
 10
10.13097552546787
 20
5.461587383718258
 30
0.0
 70
    32
  0
VERTEX
  5
24FB
330
247D
100
AcDbEntity
  8
0
100
AcDbVertex
100
AcDb3dPolylineVertex
 10
10.12937552546787
 20
5.457957383718258
 30
0.0
 70
    32
  0
VERTEX
  5
24FC
330
247D
100
AcDbEntity
  8
0
100
AcDbVertex
100
AcDb3dPolylineVertex
 10
10.12817552546787
 20
5.454307383718258
 30
0.0
 70
    32
  0
VERTEX
  5
24FD
330
247D
100
AcDbEntity
  8
0
100
AcDbVertex
100
AcDb3dPolylineVertex
 10
10.12747552546787
 20
5.450637383718258
 30
0.0
 70
    32
  0
VERTEX
  5
24FE
330
247D
100
AcDbEntity
  8
0
100
AcDbVertex
100
AcDb3dPolylineVertex
 10
10.12727552546787
 20
5.446957383718259
 30
0.0
 70
    32
  0
SEQEND
  5
24FF
330
247D
100
AcDbEntity
  8
0
  0
LWPOLYLINE
  5
2500
330
188C
100
AcDbEntity
  8
SAVED
  6
HIDDEN2
 62
     4
100
AcDbPolyline
 90
        4
 70
     0
 43
0.0
 10
11.06246459872606
 20
3.495794368401715
 10
10.98430756016873
 20
3.495794368401715
 10
10.98430756016873
 20
3.464794368401715
 10
11.06411046382291
 20
3.464794368401715
  0
LWPOLYLINE
  5
2506
330
188C
100
AcDbEntity
  8
SAVED
  6
HIDDEN2
 62
     4
100
AcDbPolyline
 90
        4
 70
     0
 43
0.0
 10
11.06374666136237
 20
4.073794368401715
 10
11.04580756016873
 20
4.073794368401716
 42
-0.9999999999999998
 10
11.04580756016873
 20
4.135794368401716
 10
11.06374666136237
 20
4.135794368401716
  0
LWPOLYLINE
  5
250C
330
188C
100
AcDbEntity
  8
SAVED
  6
HIDDEN2
 62
     4
100
AcDbPolyline
 90
        4
 70
     0
 43
0.0
 10
10.49630756016873
 20
4.848031676775668
 10
10.49630756016873
 20
4.785794368401716
 10
10.52730756016873
 20
4.785794368401716
 10
10.52730756016873
 20
4.84803167677567
  0
CIRCLE
  5
2512
330
188C
100
AcDbEntity
  8
COVER
100
AcDbCircle
 10
10.32224412881186
 20
4.384955139543449
 30
0.0
 40
0.5675
  0
LINE
  5
2513
330
188C
100
AcDbEntity
  8
COVER
  6
HIDDEN2
100
AcDbLine
 10
6.775751235626948
 20
3.442955139543451
 30
0.0
 11
6.775751235626948
 21
5.561955139543443
 31
0.0
  0
LINE
  5
2514
330
188C
100
AcDbEntity
  8
COVER
100
AcDbLine
 10
7.045751235626948
 20
3.614955139543443
 30
0.0
 11
7.045751235626948
 21
5.194955139543448
 31
0.0
  0
LINE
  5
2515
330
188C
100
AcDbEntity
  8
COVER
  6
HIDDEN2
100
AcDbLine
 10
6.775751235626948
 20
5.561955139543444
 30
0.0
 11
6.895751235626947
 21
5.561955139543445
 31
0.0
  0
LINE
  5
2516
330
188C
100
AcDbEntity
  8
COVER
  6
HIDDEN2
100
AcDbLine
 10
6.775751235626948
 20
3.442955139543451
 30
0.0
 11
6.895751235626947
 21
3.44295513954345
 31
0.0
  0
LINE
  5
2517
330
188C
100
AcDbEntity
  8
COVER
100
AcDbLine
 10
6.925751235626947
 20
5.619955139543448
 30
0.0
 11
6.96614131404198
 21
5.619955139543447
 31
0.0
  0
LINE
  5
2518
330
188C
100
AcDbEntity
  8
COVER
  6
HIDDEN2
100
AcDbLine
 10
6.775751235626948
 20
5.52195513954345
 30
0.0
 11
7.0056006842117
 21
5.52195513954345
 31
0.0
  0
LINE
  5
2519
330
188C
100
AcDbEntity
  8
COVER
  6
HIDDEN2
100
AcDbLine
 10
6.775751235626948
 20
5.37195513954345
 30
0.0
 11
7.024018368347134
 21
5.37195513954345
 31
0.0
  0
LINE
  5
251A
330
188C
100
AcDbEntity
  8
COVER
100
AcDbLine
 10
7.045751235626948
 20
4.95245513954345
 30
0.0
 11
7.045751235626948
 21
4.95245513954345
 31
0.0
  0
LINE
  5
251B
330
188C
100
AcDbEntity
  8
COVER
100
AcDbLine
 10
6.925751235626947
 20
3.38495513954345
 30
0.0
 11
6.925751235626947
 21
5.619955139543448
 31
0.0
  0
LINE
  5
251C
330
188C
100
AcDbEntity
  8
COVER
  6
HIDDEN2
100
AcDbLine
 10
6.775751235626948
 20
5.33195513954345
 30
0.0
 11
6.988629357764896
 21
5.331955139543452
 31
0.0
  0
LINE
  5
251D
330
188C
100
AcDbEntity
  8
COVER
100
AcDbLine
 10
7.045751235626948
 20
3.614955139543449
 30
0.0
 11
7.030534578131909
 21
3.491025409428005
 31
0.0
  0
ARC
  5
251E
330
188C
100
AcDbEntity
  8
COVER
100
AcDbCircle
 10
6.906766541417713
 20
3.508531782208048
 30
0.0
 40
0.125
100
AcDbArc
 50
278.735749246573
 51
354.0507963795217
  0
LINE
  5
251F
330
188C
100
AcDbEntity
  8
COVER
100
AcDbLine
 10
7.045751235626948
 20
5.194955139543449
 30
0.0
 11
6.99691024474286
 21
5.592733089189008
 31
0.0
  0
ARC
  5
2520
330
188C
100
AcDbEntity
  8
COVER
100
AcDbCircle
 10
6.96614131404198
 20
5.588955139543447
 30
0.0
 40
0.031
100
AcDbArc
 50
6.999999999999971
 51
89.99999999999927
  0
LINE
  5
2521
330
188C
100
AcDbEntity
  8
COVER
  6
HIDDEN2
100
AcDbLine
 10
7.045751235626948
 20
4.85495513954345
 30
0.0
 11
7.107751235626949
 21
4.85495513954345
 31
0.0
  0
LWPOLYLINE
  5
2522
330
188C
100
AcDbEntity
  8
COVER
  6
HIDDEN2
100
AcDbPolyline
 90
        7
 70
     0
 43
0.0
 10
7.016864071521753
 20
5.43022221133791
 10
6.976563678503397
 20
5.430222211337912
 10
7.005751235626949
 20
5.192508634737435
 10
7.005751235626949
 20
3.617401644349472
 10
6.990881731804046
 20
3.496299254003664
 42
-0.0403279593871864
 10
6.987827230719048
 20
3.48295513954345
 10
6.775751235626948
 20
3.48295513954345
  0
LINE
  5
252B
330
188C
100
AcDbEntity
  8
COVER
  6
HIDDEN2
100
AcDbLine
 10
7.045751235626948
 20
3.914955139543448
 30
0.0
 11
7.107751235626949
 21
3.914955139543449
 31
0.0
  0
LINE
  5
252C
330
188C
100
AcDbEntity
  8
COVER
  6
HIDDEN2
100
AcDbLine
 10
7.005751235626949
 20
3.891955139543449
 30
0.0
 11
7.045751235626948
 21
3.891955139543449
 31
0.0
  0
LINE
  5
252D
330
188C
100
AcDbEntity
  8
COVER
  6
HIDDEN2
100
AcDbLine
 10
7.005751235626949
 20
3.854709388835234
 30
0.0
 11
7.045751235626948
 21
3.854709388835234
 31
0.0
  0
LINE
  5
252E
330
188C
100
AcDbEntity
  8
COVER
  6
HIDDEN2
100
AcDbLine
 10
7.005751235626949
 20
4.915200890251664
 30
0.0
 11
7.045751235626948
 21
4.915200890251664
 31
0.0
  0
LINE
  5
252F
330
188C
100
AcDbEntity
  8
COVER
  6
HIDDEN2
100
AcDbLine
 10
7.005751235626949
 20
4.877955139543449
 30
0.0
 11
7.045751235626948
 21
4.877955139543449
 31
0.0
  0
LWPOLYLINE
  5
2530
330
188C
100
AcDbEntity
  8
COVER
  6
HIDDEN2
100
AcDbPolyline
 90
        4
 70
     0
 43
0.0
 10
7.005751235626949
 20
4.01995513954345
 10
6.96075123562695
 20
4.01995513954345
 10
6.96075123562695
 20
3.988955139543449
 10
7.005751235626949
 20
3.988955139543449
  0
LWPOLYLINE
  5
2536
330
188C
100
AcDbEntity
  8
COVER
  6
HIDDEN2
100
AcDbPolyline
 90
        4
 70
     0
 43
0.0
 10
7.005751235626949
 20
5.037955139543449
 10
6.96075123562695
 20
5.037955139543449
 10
6.96075123562695
 20
5.06895513954345
 10
7.005751235626949
 20
5.06895513954345
  0
LWPOLYLINE
  5
253C
330
188C
100
AcDbEntity
  8
COVER
  6
HIDDEN2
100
AcDbPolyline
 90
        3
 70
     0
 43
0.0
 10
6.96075123562695
 20
5.331955139543452
 10
6.96075123562695
 20
5.269954305865487
 10
6.996242102903659
 20
5.269954305865487
  0
LINE
  5
2541
330
188C
100
AcDbEntity
  8
COVER
100
AcDbLine
 10
3.689231265203647
 20
8.075363206220401
 30
0.0
 11
3.689231265203647
 21
8.102290653875463
 31
0.0
  0
LWPOLYLINE
  5
2542
330
188C
100
AcDbEntity
  8
COVER
100
AcDbPolyline
 90
        4
 70
     0
 43
0.0
 10
7.045751235626946
 20
3.817455139543449
 42
0.4142135623730992
 10
7.107751235626949
 20
3.879455139543449
 10
7.107751235626947
 20
4.890455139543449
 42
0.4142135623730992
 10
7.045751235626948
 20
4.95245513954345
 42
0.4142135623730992
  0
LWPOLYLINE
  5
2548
330
188C
100
AcDbEntity
  8
COVER
100
AcDbPolyline
 90
        4
 70
     0
 43
0.0
 10
4.939231265203661
 20
8.195363206220397
 42
0.4142135623730992
 10
4.877231265203661
 20
8.2573632062204
 10
3.866231265203661
 20
8.2573632062204
 42
0.4142135623730991
 10
3.804231265203663
 20
8.195363206220397
  0
LINE
  5
254E
330
188C
100
AcDbEntity
  8
SAVED
  6
HIDDEN2
 62
     4
100
AcDbLine
 10
4.50931498483839
 20
7.671202435078665
 30
0.0
 11
4.509314984838388
 21
7.733202435078665
 31
0.0
  0
LINE
  5
254F
330
188C
100
AcDbEntity
  8
SAVED
  6
HIDDEN2
 62
     4
100
AcDbLine
 10
3.569314984838388
 20
7.671202435078665
 30
0.0
 11
3.569314984838389
 21
7.733202435078665
 31
0.0
  0
LINE
  5
2550
330
188C
100
AcDbEntity
  8
SAVED
  6
HIDDEN2
 62
     4
100
AcDbLine
 10
3.414814984838375
 20
7.401202435078667
 30
0.0
 11
3.414814984838375
 21
7.521202435078665
 31
0.0
  0
LINE
  5
2551
330
188C
100
AcDbEntity
  8
SAVED
  6
HIDDEN2
 62
     4
100
AcDbLine
 10
4.663814984838403
 20
7.401202435078666
 30
0.0
 11
3.414814984838375
 21
7.401202435078666
 31
0.0
  0
LINE
  5
2552
330
188C
100
AcDbEntity
  8
COVER
100
AcDbLine
 10
5.054231265203664
 20
8.075363206220398
 30
0.0
 11
3.689231265203647
 21
8.075363206220398
 31
0.0
  0
LINE
  5
2553
330
188C
100
AcDbEntity
  8
COVER
100
AcDbLine
 10
4.971731265203661
 20
8.195363206220397
 30
0.0
 11
3.771731265203661
 21
8.195363206220397
 31
0.0
  0
ARC
  5
2554
330
188C
100
AcDbEntity
  8
COVER
100
AcDbCircle
 10
3.782981265203647
 20
8.102290653875463
 30
0.0
 40
0.09375
100
AcDbArc
 50
96.89210257934007
 51
180.0
  0
LINE
  5
2555
330
188C
100
AcDbEntity
  8
SAVED
  6
HIDDEN2
 62
     4
100
AcDbLine
 10
3.507814984838383
 20
7.631202435078666
 30
0.0
 11
3.507814984838383
 21
7.671202435078662
 31
0.0
  0
LINE
  5
2556
330
188C
100
AcDbEntity
  8
SAVED
  6
HIDDEN2
 62
     4
100
AcDbLine
 10
4.570814984838382
 20
7.631202435078666
 30
0.0
 11
4.570814984838382
 21
7.671202435078662
 31
0.0
  0
LINE
  5
2557
330
188C
100
AcDbEntity
  8
SAVED
  6
HIDDEN2
 62
     4
100
AcDbLine
 10
4.663814984838403
 20
7.401202435078667
 30
0.0
 11
4.663814984838403
 21
7.521202435078665
 31
0.0
  0
ARC
  5
2558
330
188C
100
AcDbEntity
  8
COVER
100
AcDbCircle
 10
4.960481265203674
 20
8.102290653875463
 30
0.0
 40
0.09375
100
AcDbArc
 50
0.0000000000000064
 51
83.10789742065994
  0
LINE
  5
2559
330
188C
100
AcDbEntity
  8
COVER
100
AcDbLine
 10
5.054231265203674
 20
8.075363206220401
 30
0.0
 11
5.054231265203674
 21
8.102290653875463
 31
0.0
  0
POLYLINE
  5
255A
330
188C
100
AcDbEntity
  8
SAVED
 62
     4
100
AcDb3dPolyline
 66
     1
 10
0.0
 20
0.0
 30
0.0
 70
     8
  0
VERTEX
  5
255B
330
255A
100
AcDbEntity
  8
0
 62
     4
100
AcDbVertex
100
AcDb3dPolylineVertex
 10
3.844318956824744
 20
7.640257383718259
 30
0.0
 70
    32
  0
VERTEX
  5
255C
330
255A
100
AcDbEntity
  8
0
 62
     4
100
AcDbVertex
100
AcDb3dPolylineVertex
 10
3.844548956824744
 20
7.639807383718258
 30
0.0
 70
    32
  0
VERTEX
  5
255D
330
255A
100
AcDbEntity
  8
0
 62
     4
100
AcDbVertex
100
AcDb3dPolylineVertex
 10
3.845258956824744
 20
7.639357383718259
 30
0.0
 70
    32
  0
VERTEX
  5
255E
330
255A
100
AcDbEntity
  8
0
 62
     4
100
AcDbVertex
100
AcDb3dPolylineVertex
 10
3.846428956824744
 20
7.638907383718258
 30
0.0
 70
    32
  0
VERTEX
  5
255F
330
255A
100
AcDbEntity
  8
0
 62
     4
100
AcDbVertex
100
AcDb3dPolylineVertex
 10
3.848058956824743
 20
7.638467383718259
 30
0.0
 70
    32
  0
VERTEX
  5
2560
330
255A
100
AcDbEntity
  8
0
 62
     4
100
AcDbVertex
100
AcDb3dPolylineVertex
 10
3.850158956824744
 20
7.638027383718258
 30
0.0
 70
    32
  0
VERTEX
  5
2561
330
255A
100
AcDbEntity
  8
0
 62
     4
100
AcDbVertex
100
AcDb3dPolylineVertex
 10
3.852708956824744
 20
7.637587383718258
 30
0.0
 70
    32
  0
VERTEX
  5
2562
330
255A
100
AcDbEntity
  8
0
 62
     4
100
AcDbVertex
100
AcDb3dPolylineVertex
 10
3.855708956824743
 20
7.637157383718259
 30
0.0
 70
    32
  0
VERTEX
  5
2563
330
255A
100
AcDbEntity
  8
0
 62
     4
100
AcDbVertex
100
AcDb3dPolylineVertex
 10
3.859158956824743
 20
7.636737383718259
 30
0.0
 70
    32
  0
VERTEX
  5
2564
330
255A
100
AcDbEntity
  8
0
 62
     4
100
AcDbVertex
100
AcDb3dPolylineVertex
 10
3.863038956824744
 20
7.636327383718258
 30
0.0
 70
    32
  0
VERTEX
  5
2565
330
255A
100
AcDbEntity
  8
0
 62
     4
100
AcDbVertex
100
AcDb3dPolylineVertex
 10
3.867338956824744
 20
7.635917383718258
 30
0.0
 70
    32
  0
VERTEX
  5
2566
330
255A
100
AcDbEntity
  8
0
 62
     4
100
AcDbVertex
100
AcDb3dPolylineVertex
 10
3.872058956824743
 20
7.635527383718258
 30
0.0
 70
    32
  0
VERTEX
  5
2567
330
255A
100
AcDbEntity
  8
0
 62
     4
100
AcDbVertex
100
AcDb3dPolylineVertex
 10
3.877178956824744
 20
7.635147383718258
 30
0.0
 70
    32
  0
VERTEX
  5
2568
330
255A
100
AcDbEntity
  8
0
 62
     4
100
AcDbVertex
100
AcDb3dPolylineVertex
 10
3.882688956824743
 20
7.634777383718258
 30
0.0
 70
    32
  0
VERTEX
  5
2569
330
255A
100
AcDbEntity
  8
0
 62
     4
100
AcDbVertex
100
AcDb3dPolylineVertex
 10
3.888578956824743
 20
7.634417383718258
 30
0.0
 70
    32
  0
VERTEX
  5
256A
330
255A
100
AcDbEntity
  8
0
 62
     4
100
AcDbVertex
100
AcDb3dPolylineVertex
 10
3.894828956824744
 20
7.634077383718258
 30
0.0
 70
    32
  0
VERTEX
  5
256B
330
255A
100
AcDbEntity
  8
0
 62
     4
100
AcDbVertex
100
AcDb3dPolylineVertex
 10
3.901428956824743
 20
7.633747383718258
 30
0.0
 70
    32
  0
VERTEX
  5
256C
330
255A
100
AcDbEntity
  8
0
 62
     4
100
AcDbVertex
100
AcDb3dPolylineVertex
 10
3.908358956824744
 20
7.633437383718259
 30
0.0
 70
    32
  0
VERTEX
  5
256D
330
255A
100
AcDbEntity
  8
0
 62
     4
100
AcDbVertex
100
AcDb3dPolylineVertex
 10
3.915608956824744
 20
7.633137383718258
 30
0.0
 70
    32
  0
VERTEX
  5
256E
330
255A
100
AcDbEntity
  8
0
 62
     4
100
AcDbVertex
100
AcDb3dPolylineVertex
 10
3.923148956824744
 20
7.632867383718258
 30
0.0
 70
    32
  0
VERTEX
  5
256F
330
255A
100
AcDbEntity
  8
0
 62
     4
100
AcDbVertex
100
AcDb3dPolylineVertex
 10
3.930978956824744
 20
7.632607383718259
 30
0.0
 70
    32
  0
VERTEX
  5
2570
330
255A
100
AcDbEntity
  8
0
 62
     4
100
AcDbVertex
100
AcDb3dPolylineVertex
 10
3.939068956824744
 20
7.632357383718259
 30
0.0
 70
    32
  0
VERTEX
  5
2571
330
255A
100
AcDbEntity
  8
0
 62
     4
100
AcDbVertex
100
AcDb3dPolylineVertex
 10
3.947388956824743
 20
7.632137383718259
 30
0.0
 70
    32
  0
VERTEX
  5
2572
330
255A
100
AcDbEntity
  8
0
 62
     4
100
AcDbVertex
100
AcDb3dPolylineVertex
 10
3.955938956824744
 20
7.631937383718259
 30
0.0
 70
    32
  0
VERTEX
  5
2573
330
255A
100
AcDbEntity
  8
0
 62
     4
100
AcDbVertex
100
AcDb3dPolylineVertex
 10
3.964688956824744
 20
7.631757383718259
 30
0.0
 70
    32
  0
VERTEX
  5
2574
330
255A
100
AcDbEntity
  8
0
 62
     4
100
AcDbVertex
100
AcDb3dPolylineVertex
 10
3.973618956824743
 20
7.631587383718258
 30
0.0
 70
    32
  0
VERTEX
  5
2575
330
255A
100
AcDbEntity
  8
0
 62
     4
100
AcDbVertex
100
AcDb3dPolylineVertex
 10
3.982708956824744
 20
7.631447383718258
 30
0.0
 70
    32
  0
VERTEX
  5
2576
330
255A
100
AcDbEntity
  8
0
 62
     4
100
AcDbVertex
100
AcDb3dPolylineVertex
 10
3.991928956824744
 20
7.631327383718259
 30
0.0
 70
    32
  0
VERTEX
  5
2577
330
255A
100
AcDbEntity
  8
0
 62
     4
100
AcDbVertex
100
AcDb3dPolylineVertex
 10
4.001268956824744
 20
7.631227383718258
 30
0.0
 70
    32
  0
VERTEX
  5
2578
330
255A
100
AcDbEntity
  8
0
 62
     4
100
AcDbVertex
100
AcDb3dPolylineVertex
 10
4.010698956824744
 20
7.631147383718259
 30
0.0
 70
    32
  0
VERTEX
  5
2579
330
255A
100
AcDbEntity
  8
0
 62
     4
100
AcDbVertex
100
AcDb3dPolylineVertex
 10
4.020198956824744
 20
7.631097383718259
 30
0.0
 70
    32
  0
VERTEX
  5
257A
330
255A
100
AcDbEntity
  8
0
 62
     4
100
AcDbVertex
100
AcDb3dPolylineVertex
 10
4.029748956824744
 20
7.631067383718258
 30
0.0
 70
    32
  0
VERTEX
  5
257B
330
255A
100
AcDbEntity
  8
0
 62
     4
100
AcDbVertex
100
AcDb3dPolylineVertex
 10
4.039318956824744
 20
7.631047383718259
 30
0.0
 70
    32
  0
VERTEX
  5
257C
330
255A
100
AcDbEntity
  8
0
 62
     4
100
AcDbVertex
100
AcDb3dPolylineVertex
 10
4.048878956824744
 20
7.631067383718258
 30
0.0
 70
    32
  0
VERTEX
  5
257D
330
255A
100
AcDbEntity
  8
0
 62
     4
100
AcDbVertex
100
AcDb3dPolylineVertex
 10
4.058428956824744
 20
7.631097383718259
 30
0.0
 70
    32
  0
VERTEX
  5
257E
330
255A
100
AcDbEntity
  8
0
 62
     4
100
AcDbVertex
100
AcDb3dPolylineVertex
 10
4.067928956824744
 20
7.631147383718259
 30
0.0
 70
    32
  0
VERTEX
  5
257F
330
255A
100
AcDbEntity
  8
0
 62
     4
100
AcDbVertex
100
AcDb3dPolylineVertex
 10
4.077358956824744
 20
7.631227383718258
 30
0.0
 70
    32
  0
VERTEX
  5
2580
330
255A
100
AcDbEntity
  8
0
 62
     4
100
AcDbVertex
100
AcDb3dPolylineVertex
 10
4.086698956824744
 20
7.631327383718259
 30
0.0
 70
    32
  0
VERTEX
  5
2581
330
255A
100
AcDbEntity
  8
0
 62
     4
100
AcDbVertex
100
AcDb3dPolylineVertex
 10
4.095918956824744
 20
7.631447383718258
 30
0.0
 70
    32
  0
VERTEX
  5
2582
330
255A
100
AcDbEntity
  8
0
 62
     4
100
AcDbVertex
100
AcDb3dPolylineVertex
 10
4.105008956824744
 20
7.631587383718258
 30
0.0
 70
    32
  0
VERTEX
  5
2583
330
255A
100
AcDbEntity
  8
0
 62
     4
100
AcDbVertex
100
AcDb3dPolylineVertex
 10
4.113938956824743
 20
7.631757383718259
 30
0.0
 70
    32
  0
VERTEX
  5
2584
330
255A
100
AcDbEntity
  8
0
 62
     4
100
AcDbVertex
100
AcDb3dPolylineVertex
 10
4.122688956824744
 20
7.631937383718259
 30
0.0
 70
    32
  0
VERTEX
  5
2585
330
255A
100
AcDbEntity
  8
0
 62
     4
100
AcDbVertex
100
AcDb3dPolylineVertex
 10
4.131238956824744
 20
7.632137383718259
 30
0.0
 70
    32
  0
VERTEX
  5
2586
330
255A
100
AcDbEntity
  8
0
 62
     4
100
AcDbVertex
100
AcDb3dPolylineVertex
 10
4.139568956824744
 20
7.632357383718259
 30
0.0
 70
    32
  0
VERTEX
  5
2587
330
255A
100
AcDbEntity
  8
0
 62
     4
100
AcDbVertex
100
AcDb3dPolylineVertex
 10
4.147648956824744
 20
7.632607383718259
 30
0.0
 70
    32
  0
VERTEX
  5
2588
330
255A
100
AcDbEntity
  8
0
 62
     4
100
AcDbVertex
100
AcDb3dPolylineVertex
 10
4.155478956824744
 20
7.632867383718258
 30
0.0
 70
    32
  0
VERTEX
  5
2589
330
255A
100
AcDbEntity
  8
0
 62
     4
100
AcDbVertex
100
AcDb3dPolylineVertex
 10
4.163018956824743
 20
7.633137383718258
 30
0.0
 70
    32
  0
VERTEX
  5
258A
330
255A
100
AcDbEntity
  8
0
 62
     4
100
AcDbVertex
100
AcDb3dPolylineVertex
 10
4.170268956824743
 20
7.633437383718259
 30
0.0
 70
    32
  0
VERTEX
  5
258B
330
255A
100
AcDbEntity
  8
0
 62
     4
100
AcDbVertex
100
AcDb3dPolylineVertex
 10
4.177198956824744
 20
7.633747383718258
 30
0.0
 70
    32
  0
VERTEX
  5
258C
330
255A
100
AcDbEntity
  8
0
 62
     4
100
AcDbVertex
100
AcDb3dPolylineVertex
 10
4.183798956824744
 20
7.634077383718258
 30
0.0
 70
    32
  0
VERTEX
  5
258D
330
255A
100
AcDbEntity
  8
0
 62
     4
100
AcDbVertex
100
AcDb3dPolylineVertex
 10
4.190048956824743
 20
7.634417383718258
 30
0.0
 70
    32
  0
VERTEX
  5
258E
330
255A
100
AcDbEntity
  8
0
 62
     4
100
AcDbVertex
100
AcDb3dPolylineVertex
 10
4.195938956824743
 20
7.634777383718258
 30
0.0
 70
    32
  0
VERTEX
  5
258F
330
255A
100
AcDbEntity
  8
0
 62
     4
100
AcDbVertex
100
AcDb3dPolylineVertex
 10
4.201448956824743
 20
7.635147383718258
 30
0.0
 70
    32
  0
VERTEX
  5
2590
330
255A
100
AcDbEntity
  8
0
 62
     4
100
AcDbVertex
100
AcDb3dPolylineVertex
 10
4.206568956824743
 20
7.635527383718258
 30
0.0
 70
    32
  0
VERTEX
  5
2591
330
255A
100
AcDbEntity
  8
0
 62
     4
100
AcDbVertex
100
AcDb3dPolylineVertex
 10
4.211288956824744
 20
7.635917383718258
 30
0.0
 70
    32
  0
VERTEX
  5
2592
330
255A
100
AcDbEntity
  8
0
 62
     4
100
AcDbVertex
100
AcDb3dPolylineVertex
 10
4.215588956824744
 20
7.636327383718258
 30
0.0
 70
    32
  0
VERTEX
  5
2593
330
255A
100
AcDbEntity
  8
0
 62
     4
100
AcDbVertex
100
AcDb3dPolylineVertex
 10
4.219468956824743
 20
7.636737383718259
 30
0.0
 70
    32
  0
VERTEX
  5
2594
330
255A
100
AcDbEntity
  8
0
 62
     4
100
AcDbVertex
100
AcDb3dPolylineVertex
 10
4.222918956824743
 20
7.637157383718259
 30
0.0
 70
    32
  0
VERTEX
  5
2595
330
255A
100
AcDbEntity
  8
0
 62
     4
100
AcDbVertex
100
AcDb3dPolylineVertex
 10
4.225918956824743
 20
7.637587383718258
 30
0.0
 70
    32
  0
VERTEX
  5
2596
330
255A
100
AcDbEntity
  8
0
 62
     4
100
AcDbVertex
100
AcDb3dPolylineVertex
 10
4.228468956824744
 20
7.638027383718258
 30
0.0
 70
    32
  0
VERTEX
  5
2597
330
255A
100
AcDbEntity
  8
0
 62
     4
100
AcDbVertex
100
AcDb3dPolylineVertex
 10
4.230568956824743
 20
7.638467383718259
 30
0.0
 70
    32
  0
VERTEX
  5
2598
330
255A
100
AcDbEntity
  8
0
 62
     4
100
AcDbVertex
100
AcDb3dPolylineVertex
 10
4.232208956824743
 20
7.638907383718258
 30
0.0
 70
    32
  0
VERTEX
  5
2599
330
255A
100
AcDbEntity
  8
0
 62
     4
100
AcDbVertex
100
AcDb3dPolylineVertex
 10
4.233378956824743
 20
7.639357383718259
 30
0.0
 70
    32
  0
VERTEX
  5
259A
330
255A
100
AcDbEntity
  8
0
 62
     4
100
AcDbVertex
100
AcDb3dPolylineVertex
 10
4.234078956824744
 20
7.639807383718258
 30
0.0
 70
    32
  0
VERTEX
  5
259B
330
255A
100
AcDbEntity
  8
0
 62
     4
100
AcDbVertex
100
AcDb3dPolylineVertex
 10
4.234318956824743
 20
7.640257383718259
 30
0.0
 70
    32
  0
VERTEX
  5
259C
330
255A
100
AcDbEntity
  8
0
 62
     4
100
AcDbVertex
100
AcDb3dPolylineVertex
 10
4.234078956824744
 20
7.640717383718259
 30
0.0
 70
    32
  0
VERTEX
  5
259D
330
255A
100
AcDbEntity
  8
0
 62
     4
100
AcDbVertex
100
AcDb3dPolylineVertex
 10
4.233378956824743
 20
7.641167383718258
 30
0.0
 70
    32
  0
VERTEX
  5
259E
330
255A
100
AcDbEntity
  8
0
 62
     4
100
AcDbVertex
100
AcDb3dPolylineVertex
 10
4.232208956824743
 20
7.641607383718259
 30
0.0
 70
    32
  0
VERTEX
  5
259F
330
255A
100
AcDbEntity
  8
0
 62
     4
100
AcDbVertex
100
AcDb3dPolylineVertex
 10
4.230568956824743
 20
7.642057383718258
 30
0.0
 70
    32
  0
VERTEX
  5
25A0
330
255A
100
AcDbEntity
  8
0
 62
     4
100
AcDbVertex
100
AcDb3dPolylineVertex
 10
4.228468956824744
 20
7.642497383718259
 30
0.0
 70
    32
  0
VERTEX
  5
25A1
330
255A
100
AcDbEntity
  8
0
 62
     4
100
AcDbVertex
100
AcDb3dPolylineVertex
 10
4.225918956824743
 20
7.642937383718258
 30
0.0
 70
    32
  0
VERTEX
  5
25A2
330
255A
100
AcDbEntity
  8
0
 62
     4
100
AcDbVertex
100
AcDb3dPolylineVertex
 10
4.222918956824743
 20
7.643367383718258
 30
0.0
 70
    32
  0
VERTEX
  5
25A3
330
255A
100
AcDbEntity
  8
0
 62
     4
100
AcDbVertex
100
AcDb3dPolylineVertex
 10
4.219468956824743
 20
7.643787383718258
 30
0.0
 70
    32
  0
VERTEX
  5
25A4
330
255A
100
AcDbEntity
  8
0
 62
     4
100
AcDbVertex
100
AcDb3dPolylineVertex
 10
4.215588956824744
 20
7.644197383718259
 30
0.0
 70
    32
  0
VERTEX
  5
25A5
330
255A
100
AcDbEntity
  8
0
 62
     4
100
AcDbVertex
100
AcDb3dPolylineVertex
 10
4.211288956824744
 20
7.644597383718258
 30
0.0
 70
    32
  0
VERTEX
  5
25A6
330
255A
100
AcDbEntity
  8
0
 62
     4
100
AcDbVertex
100
AcDb3dPolylineVertex
 10
4.206568956824743
 20
7.644997383718258
 30
0.0
 70
    32
  0
VERTEX
  5
25A7
330
255A
100
AcDbEntity
  8
0
 62
     4
100
AcDbVertex
100
AcDb3dPolylineVertex
 10
4.201448956824743
 20
7.645377383718258
 30
0.0
 70
    32
  0
VERTEX
  5
25A8
330
255A
100
AcDbEntity
  8
0
 62
     4
100
AcDbVertex
100
AcDb3dPolylineVertex
 10
4.195938956824743
 20
7.645747383718259
 30
0.0
 70
    32
  0
VERTEX
  5
25A9
330
255A
100
AcDbEntity
  8
0
 62
     4
100
AcDbVertex
100
AcDb3dPolylineVertex
 10
4.190048956824743
 20
7.646107383718259
 30
0.0
 70
    32
  0
VERTEX
  5
25AA
330
255A
100
AcDbEntity
  8
0
 62
     4
100
AcDbVertex
100
AcDb3dPolylineVertex
 10
4.183798956824744
 20
7.646447383718259
 30
0.0
 70
    32
  0
VERTEX
  5
25AB
330
255A
100
AcDbEntity
  8
0
 62
     4
100
AcDbVertex
100
AcDb3dPolylineVertex
 10
4.177198956824744
 20
7.646767383718259
 30
0.0
 70
    32
  0
VERTEX
  5
25AC
330
255A
100
AcDbEntity
  8
0
 62
     4
100
AcDbVertex
100
AcDb3dPolylineVertex
 10
4.170268956824743
 20
7.647087383718258
 30
0.0
 70
    32
  0
VERTEX
  5
25AD
330
255A
100
AcDbEntity
  8
0
 62
     4
100
AcDbVertex
100
AcDb3dPolylineVertex
 10
4.163018956824743
 20
7.647377383718259
 30
0.0
 70
    32
  0
VERTEX
  5
25AE
330
255A
100
AcDbEntity
  8
0
 62
     4
100
AcDbVertex
100
AcDb3dPolylineVertex
 10
4.155478956824744
 20
7.647657383718259
 30
0.0
 70
    32
  0
VERTEX
  5
25AF
330
255A
100
AcDbEntity
  8
0
 62
     4
100
AcDbVertex
100
AcDb3dPolylineVertex
 10
4.147648956824744
 20
7.647917383718258
 30
0.0
 70
    32
  0
VERTEX
  5
25B0
330
255A
100
AcDbEntity
  8
0
 62
     4
100
AcDbVertex
100
AcDb3dPolylineVertex
 10
4.139568956824744
 20
7.648157383718258
 30
0.0
 70
    32
  0
VERTEX
  5
25B1
330
255A
100
AcDbEntity
  8
0
 62
     4
100
AcDbVertex
100
AcDb3dPolylineVertex
 10
4.131238956824744
 20
7.648377383718258
 30
0.0
 70
    32
  0
VERTEX
  5
25B2
330
255A
100
AcDbEntity
  8
0
 62
     4
100
AcDbVertex
100
AcDb3dPolylineVertex
 10
4.122688956824744
 20
7.648587383718258
 30
0.0
 70
    32
  0
VERTEX
  5
25B3
330
255A
100
AcDbEntity
  8
0
 62
     4
100
AcDbVertex
100
AcDb3dPolylineVertex
 10
4.113938956824743
 20
7.648767383718258
 30
0.0
 70
    32
  0
VERTEX
  5
25B4
330
255A
100
AcDbEntity
  8
0
 62
     4
100
AcDbVertex
100
AcDb3dPolylineVertex
 10
4.105008956824744
 20
7.648927383718259
 30
0.0
 70
    32
  0
VERTEX
  5
25B5
330
255A
100
AcDbEntity
  8
0
 62
     4
100
AcDbVertex
100
AcDb3dPolylineVertex
 10
4.095918956824744
 20
7.649077383718259
 30
0.0
 70
    32
  0
VERTEX
  5
25B6
330
255A
100
AcDbEntity
  8
0
 62
     4
100
AcDbVertex
100
AcDb3dPolylineVertex
 10
4.086698956824744
 20
7.649197383718258
 30
0.0
 70
    32
  0
VERTEX
  5
25B7
330
255A
100
AcDbEntity
  8
0
 62
     4
100
AcDbVertex
100
AcDb3dPolylineVertex
 10
4.077358956824744
 20
7.649297383718259
 30
0.0
 70
    32
  0
VERTEX
  5
25B8
330
255A
100
AcDbEntity
  8
0
 62
     4
100
AcDbVertex
100
AcDb3dPolylineVertex
 10
4.067928956824744
 20
7.649367383718258
 30
0.0
 70
    32
  0
VERTEX
  5
25B9
330
255A
100
AcDbEntity
  8
0
 62
     4
100
AcDbVertex
100
AcDb3dPolylineVertex
 10
4.058428956824744
 20
7.649427383718258
 30
0.0
 70
    32
  0
VERTEX
  5
25BA
330
255A
100
AcDbEntity
  8
0
 62
     4
100
AcDbVertex
100
AcDb3dPolylineVertex
 10
4.048878956824744
 20
7.649457383718258
 30
0.0
 70
    32
  0
VERTEX
  5
25BB
330
255A
100
AcDbEntity
  8
0
 62
     4
100
AcDbVertex
100
AcDb3dPolylineVertex
 10
4.039318956824744
 20
7.649467383718258
 30
0.0
 70
    32
  0
VERTEX
  5
25BC
330
255A
100
AcDbEntity
  8
0
 62
     4
100
AcDbVertex
100
AcDb3dPolylineVertex
 10
4.029748956824744
 20
7.649457383718258
 30
0.0
 70
    32
  0
VERTEX
  5
25BD
330
255A
100
AcDbEntity
  8
0
 62
     4
100
AcDbVertex
100
AcDb3dPolylineVertex
 10
4.020198956824744
 20
7.649427383718258
 30
0.0
 70
    32
  0
VERTEX
  5
25BE
330
255A
100
AcDbEntity
  8
0
 62
     4
100
AcDbVertex
100
AcDb3dPolylineVertex
 10
4.010698956824744
 20
7.649367383718258
 30
0.0
 70
    32
  0
VERTEX
  5
25BF
330
255A
100
AcDbEntity
  8
0
 62
     4
100
AcDbVertex
100
AcDb3dPolylineVertex
 10
4.001268956824744
 20
7.649297383718259
 30
0.0
 70
    32
  0
VERTEX
  5
25C0
330
255A
100
AcDbEntity
  8
0
 62
     4
100
AcDbVertex
100
AcDb3dPolylineVertex
 10
3.991928956824744
 20
7.649197383718258
 30
0.0
 70
    32
  0
VERTEX
  5
25C1
330
255A
100
AcDbEntity
  8
0
 62
     4
100
AcDbVertex
100
AcDb3dPolylineVertex
 10
3.982708956824744
 20
7.649077383718259
 30
0.0
 70
    32
  0
VERTEX
  5
25C2
330
255A
100
AcDbEntity
  8
0
 62
     4
100
AcDbVertex
100
AcDb3dPolylineVertex
 10
3.973618956824743
 20
7.648927383718259
 30
0.0
 70
    32
  0
VERTEX
  5
25C3
330
255A
100
AcDbEntity
  8
0
 62
     4
100
AcDbVertex
100
AcDb3dPolylineVertex
 10
3.964688956824744
 20
7.648767383718258
 30
0.0
 70
    32
  0
VERTEX
  5
25C4
330
255A
100
AcDbEntity
  8
0
 62
     4
100
AcDbVertex
100
AcDb3dPolylineVertex
 10
3.955938956824744
 20
7.648587383718258
 30
0.0
 70
    32
  0
VERTEX
  5
25C5
330
255A
100
AcDbEntity
  8
0
 62
     4
100
AcDbVertex
100
AcDb3dPolylineVertex
 10
3.947388956824743
 20
7.648377383718258
 30
0.0
 70
    32
  0
VERTEX
  5
25C6
330
255A
100
AcDbEntity
  8
0
 62
     4
100
AcDbVertex
100
AcDb3dPolylineVertex
 10
3.939068956824744
 20
7.648157383718258
 30
0.0
 70
    32
  0
VERTEX
  5
25C7
330
255A
100
AcDbEntity
  8
0
 62
     4
100
AcDbVertex
100
AcDb3dPolylineVertex
 10
3.930978956824744
 20
7.647917383718258
 30
0.0
 70
    32
  0
VERTEX
  5
25C8
330
255A
100
AcDbEntity
  8
0
 62
     4
100
AcDbVertex
100
AcDb3dPolylineVertex
 10
3.923148956824744
 20
7.647657383718259
 30
0.0
 70
    32
  0
VERTEX
  5
25C9
330
255A
100
AcDbEntity
  8
0
 62
     4
100
AcDbVertex
100
AcDb3dPolylineVertex
 10
3.915608956824744
 20
7.647377383718259
 30
0.0
 70
    32
  0
VERTEX
  5
25CA
330
255A
100
AcDbEntity
  8
0
 62
     4
100
AcDbVertex
100
AcDb3dPolylineVertex
 10
3.908358956824744
 20
7.647087383718258
 30
0.0
 70
    32
  0
VERTEX
  5
25CB
330
255A
100
AcDbEntity
  8
0
 62
     4
100
AcDbVertex
100
AcDb3dPolylineVertex
 10
3.901428956824743
 20
7.646767383718259
 30
0.0
 70
    32
  0
VERTEX
  5
25CC
330
255A
100
AcDbEntity
  8
0
 62
     4
100
AcDbVertex
100
AcDb3dPolylineVertex
 10
3.894828956824744
 20
7.646447383718259
 30
0.0
 70
    32
  0
VERTEX
  5
25CD
330
255A
100
AcDbEntity
  8
0
 62
     4
100
AcDbVertex
100
AcDb3dPolylineVertex
 10
3.888578956824743
 20
7.646107383718259
 30
0.0
 70
    32
  0
VERTEX
  5
25CE
330
255A
100
AcDbEntity
  8
0
 62
     4
100
AcDbVertex
100
AcDb3dPolylineVertex
 10
3.882688956824743
 20
7.645747383718259
 30
0.0
 70
    32
  0
VERTEX
  5
25CF
330
255A
100
AcDbEntity
  8
0
 62
     4
100
AcDbVertex
100
AcDb3dPolylineVertex
 10
3.877178956824744
 20
7.645377383718258
 30
0.0
 70
    32
  0
VERTEX
  5
25D0
330
255A
100
AcDbEntity
  8
0
 62
     4
100
AcDbVertex
100
AcDb3dPolylineVertex
 10
3.872058956824743
 20
7.644997383718258
 30
0.0
 70
    32
  0
VERTEX
  5
25D1
330
255A
100
AcDbEntity
  8
0
 62
     4
100
AcDbVertex
100
AcDb3dPolylineVertex
 10
3.867338956824744
 20
7.644597383718258
 30
0.0
 70
    32
  0
VERTEX
  5
25D2
330
255A
100
AcDbEntity
  8
0
 62
     4
100
AcDbVertex
100
AcDb3dPolylineVertex
 10
3.863038956824744
 20
7.644197383718259
 30
0.0
 70
    32
  0
VERTEX
  5
25D3
330
255A
100
AcDbEntity
  8
0
 62
     4
100
AcDbVertex
100
AcDb3dPolylineVertex
 10
3.859158956824743
 20
7.643787383718258
 30
0.0
 70
    32
  0
VERTEX
  5
25D4
330
255A
100
AcDbEntity
  8
0
 62
     4
100
AcDbVertex
100
AcDb3dPolylineVertex
 10
3.855708956824743
 20
7.643367383718258
 30
0.0
 70
    32
  0
VERTEX
  5
25D5
330
255A
100
AcDbEntity
  8
0
 62
     4
100
AcDbVertex
100
AcDb3dPolylineVertex
 10
3.852708956824744
 20
7.642937383718258
 30
0.0
 70
    32
  0
VERTEX
  5
25D6
330
255A
100
AcDbEntity
  8
0
 62
     4
100
AcDbVertex
100
AcDb3dPolylineVertex
 10
3.850158956824744
 20
7.642497383718259
 30
0.0
 70
    32
  0
VERTEX
  5
25D7
330
255A
100
AcDbEntity
  8
0
 62
     4
100
AcDbVertex
100
AcDb3dPolylineVertex
 10
3.848058956824743
 20
7.642057383718258
 30
0.0
 70
    32
  0
VERTEX
  5
25D8
330
255A
100
AcDbEntity
  8
0
 62
     4
100
AcDbVertex
100
AcDb3dPolylineVertex
 10
3.846428956824744
 20
7.641607383718259
 30
0.0
 70
    32
  0
VERTEX
  5
25D9
330
255A
100
AcDbEntity
  8
0
 62
     4
100
AcDbVertex
100
AcDb3dPolylineVertex
 10
3.845258956824744
 20
7.641167383718258
 30
0.0
 70
    32
  0
VERTEX
  5
25DA
330
255A
100
AcDbEntity
  8
0
 62
     4
100
AcDbVertex
100
AcDb3dPolylineVertex
 10
3.844548956824744
 20
7.640717383718259
 30
0.0
 70
    32
  0
VERTEX
  5
25DB
330
255A
100
AcDbEntity
  8
0
 62
     4
100
AcDbVertex
100
AcDb3dPolylineVertex
 10
3.844318956824744
 20
7.640257383718259
 30
0.0
 70
    32
  0
SEQEND
  5
25DC
330
255A
100
AcDbEntity
  8
0
 62
     4
  0
POLYLINE
  5
25DD
330
188C
100
AcDbEntity
  8
SAVED
 62
     4
100
AcDb3dPolyline
 66
     1
 10
0.0
 20
0.0
 30
0.0
 70
     8
  0
VERTEX
  5
25DE
330
25DD
100
AcDbEntity
  8
SAVED
 62
     4
100
AcDbVertex
100
AcDb3dPolylineVertex
 10
3.857968956824744
 20
7.624607383718258
 30
0.0
 70
    32
  0
VERTEX
  5
25DF
330
25DD
100
AcDbEntity
  8
SAVED
 62
     4
100
AcDbVertex
100
AcDb3dPolylineVertex
 10
3.858548956824743
 20
7.624547383718258
 30
0.0
 70
    32
  0
VERTEX
  5
25E0
330
25DD
100
AcDbEntity
  8
SAVED
 62
     4
100
AcDbVertex
100
AcDb3dPolylineVertex
 10
3.859148956824744
 20
7.624477383718259
 30
0.0
 70
    32
  0
VERTEX
  5
25E1
330
25DD
100
AcDbEntity
  8
SAVED
 62
     4
100
AcDbVertex
100
AcDb3dPolylineVertex
 10
3.859748956824744
 20
7.624417383718258
 30
0.0
 70
    32
  0
VERTEX
  5
25E2
330
25DD
100
AcDbEntity
  8
SAVED
 62
     4
100
AcDbVertex
100
AcDb3dPolylineVertex
 10
3.860358956824744
 20
7.624347383718259
 30
0.0
 70
    32
  0
VERTEX
  5
25E3
330
25DD
100
AcDbEntity
  8
SAVED
 62
     4
100
AcDbVertex
100
AcDb3dPolylineVertex
 10
3.860978956824744
 20
7.624287383718259
 30
0.0
 70
    32
  0
VERTEX
  5
25E4
330
25DD
100
AcDbEntity
  8
SAVED
 62
     4
100
AcDbVertex
100
AcDb3dPolylineVertex
 10
3.861608956824744
 20
7.624217383718258
 30
0.0
 70
    32
  0
VERTEX
  5
25E5
330
25DD
100
AcDbEntity
  8
SAVED
 62
     4
100
AcDbVertex
100
AcDb3dPolylineVertex
 10
3.862248956824744
 20
7.624157383718259
 30
0.0
 70
    32
  0
VERTEX
  5
25E6
330
25DD
100
AcDbEntity
  8
SAVED
 62
     4
100
AcDbVertex
100
AcDb3dPolylineVertex
 10
3.862898956824744
 20
7.624097383718257
 30
0.0
 70
    32
  0
VERTEX
  5
25E7
330
25DD
100
AcDbEntity
  8
SAVED
 62
     4
100
AcDbVertex
100
AcDb3dPolylineVertex
 10
3.863558956824744
 20
7.624027383718258
 30
0.0
 70
    32
  0
VERTEX
  5
25E8
330
25DD
100
AcDbEntity
  8
SAVED
 62
     4
100
AcDbVertex
100
AcDb3dPolylineVertex
 10
3.864228956824744
 20
7.623967383718259
 30
0.0
 70
    32
  0
VERTEX
  5
25E9
330
25DD
100
AcDbEntity
  8
SAVED
 62
     4
100
AcDbVertex
100
AcDb3dPolylineVertex
 10
3.864898956824744
 20
7.623907383718258
 30
0.0
 70
    32
  0
VERTEX
  5
25EA
330
25DD
100
AcDbEntity
  8
SAVED
 62
     4
100
AcDbVertex
100
AcDb3dPolylineVertex
 10
3.865588956824744
 20
7.623847383718258
 30
0.0
 70
    32
  0
VERTEX
  5
25EB
330
25DD
100
AcDbEntity
  8
SAVED
 62
     4
100
AcDbVertex
100
AcDb3dPolylineVertex
 10
3.866288956824743
 20
7.623777383718259
 30
0.0
 70
    32
  0
VERTEX
  5
25EC
330
25DD
100
AcDbEntity
  8
SAVED
 62
     4
100
AcDbVertex
100
AcDb3dPolylineVertex
 10
3.866988956824743
 20
7.623717383718258
 30
0.0
 70
    32
  0
VERTEX
  5
25ED
330
25DD
100
AcDbEntity
  8
SAVED
 62
     4
100
AcDbVertex
100
AcDb3dPolylineVertex
 10
3.867698956824743
 20
7.623657383718258
 30
0.0
 70
    32
  0
VERTEX
  5
25EE
330
25DD
100
AcDbEntity
  8
SAVED
 62
     4
100
AcDbVertex
100
AcDb3dPolylineVertex
 10
3.868418956824744
 20
7.623597383718259
 30
0.0
 70
    32
  0
VERTEX
  5
25EF
330
25DD
100
AcDbEntity
  8
SAVED
 62
     4
100
AcDbVertex
100
AcDb3dPolylineVertex
 10
3.869148956824743
 20
7.623537383718259
 30
0.0
 70
    32
  0
VERTEX
  5
25F0
330
25DD
100
AcDbEntity
  8
SAVED
 62
     4
100
AcDbVertex
100
AcDb3dPolylineVertex
 10
3.869888956824744
 20
7.623477383718258
 30
0.0
 70
    32
  0
VERTEX
  5
25F1
330
25DD
100
AcDbEntity
  8
SAVED
 62
     4
100
AcDbVertex
100
AcDb3dPolylineVertex
 10
3.870638956824744
 20
7.623417383718258
 30
0.0
 70
    32
  0
VERTEX
  5
25F2
330
25DD
100
AcDbEntity
  8
SAVED
 62
     4
100
AcDbVertex
100
AcDb3dPolylineVertex
 10
3.871398956824743
 20
7.623357383718259
 30
0.0
 70
    32
  0
VERTEX
  5
25F3
330
25DD
100
AcDbEntity
  8
SAVED
 62
     4
100
AcDbVertex
100
AcDb3dPolylineVertex
 10
3.872158956824744
 20
7.623297383718258
 30
0.0
 70
    32
  0
VERTEX
  5
25F4
330
25DD
100
AcDbEntity
  8
SAVED
 62
     4
100
AcDbVertex
100
AcDb3dPolylineVertex
 10
3.872928956824743
 20
7.623237383718258
 30
0.0
 70
    32
  0
VERTEX
  5
25F5
330
25DD
100
AcDbEntity
  8
SAVED
 62
     4
100
AcDbVertex
100
AcDb3dPolylineVertex
 10
3.873718956824744
 20
7.623177383718259
 30
0.0
 70
    32
  0
VERTEX
  5
25F6
330
25DD
100
AcDbEntity
  8
SAVED
 62
     4
100
AcDbVertex
100
AcDb3dPolylineVertex
 10
3.874508956824744
 20
7.623117383718259
 30
0.0
 70
    32
  0
VERTEX
  5
25F7
330
25DD
100
AcDbEntity
  8
SAVED
 62
     4
100
AcDbVertex
100
AcDb3dPolylineVertex
 10
3.875308956824744
 20
7.623067383718259
 30
0.0
 70
    32
  0
VERTEX
  5
25F8
330
25DD
100
AcDbEntity
  8
SAVED
 62
     4
100
AcDbVertex
100
AcDb3dPolylineVertex
 10
3.876108956824744
 20
7.623007383718258
 30
0.0
 70
    32
  0
VERTEX
  5
25F9
330
25DD
100
AcDbEntity
  8
SAVED
 62
     4
100
AcDbVertex
100
AcDb3dPolylineVertex
 10
3.876928956824744
 20
7.622947383718258
 30
0.0
 70
    32
  0
VERTEX
  5
25FA
330
25DD
100
AcDbEntity
  8
SAVED
 62
     4
100
AcDbVertex
100
AcDb3dPolylineVertex
 10
3.877758956824743
 20
7.622887383718259
 30
0.0
 70
    32
  0
VERTEX
  5
25FB
330
25DD
100
AcDbEntity
  8
SAVED
 62
     4
100
AcDbVertex
100
AcDb3dPolylineVertex
 10
3.878588956824744
 20
7.622837383718259
 30
0.0
 70
    32
  0
VERTEX
  5
25FC
330
25DD
100
AcDbEntity
  8
SAVED
 62
     4
100
AcDbVertex
100
AcDb3dPolylineVertex
 10
3.879428956824743
 20
7.622777383718258
 30
0.0
 70
    32
  0
VERTEX
  5
25FD
330
25DD
100
AcDbEntity
  8
SAVED
 62
     4
100
AcDbVertex
100
AcDb3dPolylineVertex
 10
3.880278956824744
 20
7.622717383718258
 30
0.0
 70
    32
  0
VERTEX
  5
25FE
330
25DD
100
AcDbEntity
  8
SAVED
 62
     4
100
AcDbVertex
100
AcDb3dPolylineVertex
 10
3.881138956824743
 20
7.622667383718258
 30
0.0
 70
    32
  0
VERTEX
  5
25FF
330
25DD
100
AcDbEntity
  8
SAVED
 62
     4
100
AcDbVertex
100
AcDb3dPolylineVertex
 10
3.881998956824744
 20
7.622607383718259
 30
0.0
 70
    32
  0
VERTEX
  5
2600
330
25DD
100
AcDbEntity
  8
SAVED
 62
     4
100
AcDbVertex
100
AcDb3dPolylineVertex
 10
3.882868956824744
 20
7.622557383718259
 30
0.0
 70
    32
  0
VERTEX
  5
2601
330
25DD
100
AcDbEntity
  8
SAVED
 62
     4
100
AcDbVertex
100
AcDb3dPolylineVertex
 10
3.883758956824744
 20
7.622497383718258
 30
0.0
 70
    32
  0
VERTEX
  5
2602
330
25DD
100
AcDbEntity
  8
SAVED
 62
     4
100
AcDbVertex
100
AcDb3dPolylineVertex
 10
3.884648956824744
 20
7.622447383718258
 30
0.0
 70
    32
  0
VERTEX
  5
2603
330
25DD
100
AcDbEntity
  8
SAVED
 62
     4
100
AcDbVertex
100
AcDb3dPolylineVertex
 10
3.885538956824744
 20
7.622387383718258
 30
0.0
 70
    32
  0
VERTEX
  5
2604
330
25DD
100
AcDbEntity
  8
SAVED
 62
     4
100
AcDbVertex
100
AcDb3dPolylineVertex
 10
3.886448956824744
 20
7.622337383718258
 30
0.0
 70
    32
  0
VERTEX
  5
2605
330
25DD
100
AcDbEntity
  8
SAVED
 62
     4
100
AcDbVertex
100
AcDb3dPolylineVertex
 10
3.887358956824743
 20
7.622287383718258
 30
0.0
 70
    32
  0
VERTEX
  5
2606
330
25DD
100
AcDbEntity
  8
SAVED
 62
     4
100
AcDbVertex
100
AcDb3dPolylineVertex
 10
3.888278956824744
 20
7.622227383718259
 30
0.0
 70
    32
  0
VERTEX
  5
2607
330
25DD
100
AcDbEntity
  8
SAVED
 62
     4
100
AcDbVertex
100
AcDb3dPolylineVertex
 10
3.889208956824743
 20
7.622177383718259
 30
0.0
 70
    32
  0
VERTEX
  5
2608
330
25DD
100
AcDbEntity
  8
SAVED
 62
     4
100
AcDbVertex
100
AcDb3dPolylineVertex
 10
3.890148956824743
 20
7.622127383718257
 30
0.0
 70
    32
  0
VERTEX
  5
2609
330
25DD
100
AcDbEntity
  8
SAVED
 62
     4
100
AcDbVertex
100
AcDb3dPolylineVertex
 10
3.891088956824743
 20
7.622077383718258
 30
0.0
 70
    32
  0
VERTEX
  5
260A
330
25DD
100
AcDbEntity
  8
SAVED
 62
     4
100
AcDbVertex
100
AcDb3dPolylineVertex
 10
3.892048956824743
 20
7.622027383718258
 30
0.0
 70
    32
  0
VERTEX
  5
260B
330
25DD
100
AcDbEntity
  8
SAVED
 62
     4
100
AcDbVertex
100
AcDb3dPolylineVertex
 10
3.893008956824743
 20
7.621967383718258
 30
0.0
 70
    32
  0
VERTEX
  5
260C
330
25DD
100
AcDbEntity
  8
SAVED
 62
     4
100
AcDbVertex
100
AcDb3dPolylineVertex
 10
3.893968956824743
 20
7.621917383718258
 30
0.0
 70
    32
  0
VERTEX
  5
260D
330
25DD
100
AcDbEntity
  8
SAVED
 62
     4
100
AcDbVertex
100
AcDb3dPolylineVertex
 10
3.894948956824744
 20
7.621867383718258
 30
0.0
 70
    32
  0
VERTEX
  5
260E
330
25DD
100
AcDbEntity
  8
SAVED
 62
     4
100
AcDbVertex
100
AcDb3dPolylineVertex
 10
3.895928956824744
 20
7.621817383718259
 30
0.0
 70
    32
  0
VERTEX
  5
260F
330
25DD
100
AcDbEntity
  8
SAVED
 62
     4
100
AcDbVertex
100
AcDb3dPolylineVertex
 10
3.896918956824744
 20
7.621767383718259
 30
0.0
 70
    32
  0
VERTEX
  5
2610
330
25DD
100
AcDbEntity
  8
SAVED
 62
     4
100
AcDbVertex
100
AcDb3dPolylineVertex
 10
3.897918956824744
 20
7.621717383718259
 30
0.0
 70
    32
  0
VERTEX
  5
2611
330
25DD
100
AcDbEntity
  8
SAVED
 62
     4
100
AcDbVertex
100
AcDb3dPolylineVertex
 10
3.898918956824743
 20
7.621667383718259
 30
0.0
 70
    32
  0
VERTEX
  5
2612
330
25DD
100
AcDbEntity
  8
SAVED
 62
     4
100
AcDbVertex
100
AcDb3dPolylineVertex
 10
3.899938956824744
 20
7.621627383718259
 30
0.0
 70
    32
  0
VERTEX
  5
2613
330
25DD
100
AcDbEntity
  8
SAVED
 62
     4
100
AcDbVertex
100
AcDb3dPolylineVertex
 10
3.900958956824744
 20
7.621577383718259
 30
0.0
 70
    32
  0
VERTEX
  5
2614
330
25DD
100
AcDbEntity
  8
SAVED
 62
     4
100
AcDbVertex
100
AcDb3dPolylineVertex
 10
3.901978956824744
 20
7.621527383718259
 30
0.0
 70
    32
  0
VERTEX
  5
2615
330
25DD
100
AcDbEntity
  8
SAVED
 62
     4
100
AcDbVertex
100
AcDb3dPolylineVertex
 10
3.903018956824744
 20
7.621477383718259
 30
0.0
 70
    32
  0
VERTEX
  5
2616
330
25DD
100
AcDbEntity
  8
SAVED
 62
     4
100
AcDbVertex
100
AcDb3dPolylineVertex
 10
3.904058956824743
 20
7.621427383718259
 30
0.0
 70
    32
  0
VERTEX
  5
2617
330
25DD
100
AcDbEntity
  8
SAVED
 62
     4
100
AcDbVertex
100
AcDb3dPolylineVertex
 10
3.905108956824744
 20
7.621387383718259
 30
0.0
 70
    32
  0
VERTEX
  5
2618
330
25DD
100
AcDbEntity
  8
SAVED
 62
     4
100
AcDbVertex
100
AcDb3dPolylineVertex
 10
3.906158956824744
 20
7.621337383718259
 30
0.0
 70
    32
  0
VERTEX
  5
2619
330
25DD
100
AcDbEntity
  8
SAVED
 62
     4
100
AcDbVertex
100
AcDb3dPolylineVertex
 10
3.907218956824744
 20
7.621287383718259
 30
0.0
 70
    32
  0
VERTEX
  5
261A
330
25DD
100
AcDbEntity
  8
SAVED
 62
     4
100
AcDbVertex
100
AcDb3dPolylineVertex
 10
3.908288956824744
 20
7.621247383718259
 30
0.0
 70
    32
  0
VERTEX
  5
261B
330
25DD
100
AcDbEntity
  8
SAVED
 62
     4
100
AcDbVertex
100
AcDb3dPolylineVertex
 10
3.909368956824744
 20
7.621197383718259
 30
0.0
 70
    32
  0
VERTEX
  5
261C
330
25DD
100
AcDbEntity
  8
SAVED
 62
     4
100
AcDbVertex
100
AcDb3dPolylineVertex
 10
3.910448956824744
 20
7.621157383718259
 30
0.0
 70
    32
  0
VERTEX
  5
261D
330
25DD
100
AcDbEntity
  8
SAVED
 62
     4
100
AcDbVertex
100
AcDb3dPolylineVertex
 10
3.911538956824744
 20
7.621107383718259
 30
0.0
 70
    32
  0
VERTEX
  5
261E
330
25DD
100
AcDbEntity
  8
SAVED
 62
     4
100
AcDbVertex
100
AcDb3dPolylineVertex
 10
3.912638956824744
 20
7.621067383718258
 30
0.0
 70
    32
  0
VERTEX
  5
261F
330
25DD
100
AcDbEntity
  8
SAVED
 62
     4
100
AcDbVertex
100
AcDb3dPolylineVertex
 10
3.913738956824744
 20
7.621017383718259
 30
0.0
 70
    32
  0
VERTEX
  5
2620
330
25DD
100
AcDbEntity
  8
SAVED
 62
     4
100
AcDbVertex
100
AcDb3dPolylineVertex
 10
3.914848956824743
 20
7.620977383718258
 30
0.0
 70
    32
  0
VERTEX
  5
2621
330
25DD
100
AcDbEntity
  8
SAVED
 62
     4
100
AcDbVertex
100
AcDb3dPolylineVertex
 10
3.915968956824744
 20
7.620937383718258
 30
0.0
 70
    32
  0
VERTEX
  5
2622
330
25DD
100
AcDbEntity
  8
SAVED
 62
     4
100
AcDbVertex
100
AcDb3dPolylineVertex
 10
3.917088956824744
 20
7.620897383718258
 30
0.0
 70
    32
  0
VERTEX
  5
2623
330
25DD
100
AcDbEntity
  8
SAVED
 62
     4
100
AcDbVertex
100
AcDb3dPolylineVertex
 10
3.918228956824743
 20
7.620847383718258
 30
0.0
 70
    32
  0
VERTEX
  5
2624
330
25DD
100
AcDbEntity
  8
SAVED
 62
     4
100
AcDbVertex
100
AcDb3dPolylineVertex
 10
3.919358956824743
 20
7.620807383718258
 30
0.0
 70
    32
  0
VERTEX
  5
2625
330
25DD
100
AcDbEntity
  8
SAVED
 62
     4
100
AcDbVertex
100
AcDb3dPolylineVertex
 10
3.920508956824743
 20
7.620767383718257
 30
0.0
 70
    32
  0
VERTEX
  5
2626
330
25DD
100
AcDbEntity
  8
SAVED
 62
     4
100
AcDbVertex
100
AcDb3dPolylineVertex
 10
3.921658956824743
 20
7.620727383718259
 30
0.0
 70
    32
  0
VERTEX
  5
2627
330
25DD
100
AcDbEntity
  8
SAVED
 62
     4
100
AcDbVertex
100
AcDb3dPolylineVertex
 10
3.922808956824743
 20
7.620687383718259
 30
0.0
 70
    32
  0
VERTEX
  5
2628
330
25DD
100
AcDbEntity
  8
SAVED
 62
     4
100
AcDbVertex
100
AcDb3dPolylineVertex
 10
3.923978956824743
 20
7.620647383718258
 30
0.0
 70
    32
  0
VERTEX
  5
2629
330
25DD
100
AcDbEntity
  8
SAVED
 62
     4
100
AcDbVertex
100
AcDb3dPolylineVertex
 10
3.925138956824744
 20
7.620607383718258
 30
0.0
 70
    32
  0
VERTEX
  5
262A
330
25DD
100
AcDbEntity
  8
SAVED
 62
     4
100
AcDbVertex
100
AcDb3dPolylineVertex
 10
3.926318956824744
 20
7.620567383718258
 30
0.0
 70
    32
  0
VERTEX
  5
262B
330
25DD
100
AcDbEntity
  8
SAVED
 62
     4
100
AcDbVertex
100
AcDb3dPolylineVertex
 10
3.927498956824743
 20
7.620527383718258
 30
0.0
 70
    32
  0
VERTEX
  5
262C
330
25DD
100
AcDbEntity
  8
SAVED
 62
     4
100
AcDbVertex
100
AcDb3dPolylineVertex
 10
3.928688956824744
 20
7.620487383718259
 30
0.0
 70
    32
  0
VERTEX
  5
262D
330
25DD
100
AcDbEntity
  8
SAVED
 62
     4
100
AcDbVertex
100
AcDb3dPolylineVertex
 10
3.929878956824744
 20
7.620447383718259
 30
0.0
 70
    32
  0
VERTEX
  5
262E
330
25DD
100
AcDbEntity
  8
SAVED
 62
     4
100
AcDbVertex
100
AcDb3dPolylineVertex
 10
3.931078956824744
 20
7.620407383718259
 30
0.0
 70
    32
  0
VERTEX
  5
262F
330
25DD
100
AcDbEntity
  8
SAVED
 62
     4
100
AcDbVertex
100
AcDb3dPolylineVertex
 10
3.932288956824744
 20
7.620377383718258
 30
0.0
 70
    32
  0
VERTEX
  5
2630
330
25DD
100
AcDbEntity
  8
SAVED
 62
     4
100
AcDbVertex
100
AcDb3dPolylineVertex
 10
3.933498956824744
 20
7.620337383718258
 30
0.0
 70
    32
  0
VERTEX
  5
2631
330
25DD
100
AcDbEntity
  8
SAVED
 62
     4
100
AcDbVertex
100
AcDb3dPolylineVertex
 10
3.934718956824744
 20
7.620297383718257
 30
0.0
 70
    32
  0
VERTEX
  5
2632
330
25DD
100
AcDbEntity
  8
SAVED
 62
     4
100
AcDbVertex
100
AcDb3dPolylineVertex
 10
3.935948956824744
 20
7.620267383718259
 30
0.0
 70
    32
  0
VERTEX
  5
2633
330
25DD
100
AcDbEntity
  8
SAVED
 62
     4
100
AcDbVertex
100
AcDb3dPolylineVertex
 10
3.937168956824744
 20
7.620227383718258
 30
0.0
 70
    32
  0
VERTEX
  5
2634
330
25DD
100
AcDbEntity
  8
SAVED
 62
     4
100
AcDbVertex
100
AcDb3dPolylineVertex
 10
3.938408956824743
 20
7.620197383718258
 30
0.0
 70
    32
  0
VERTEX
  5
2635
330
25DD
100
AcDbEntity
  8
SAVED
 62
     4
100
AcDbVertex
100
AcDb3dPolylineVertex
 10
3.939648956824743
 20
7.620157383718257
 30
0.0
 70
    32
  0
VERTEX
  5
2636
330
25DD
100
AcDbEntity
  8
SAVED
 62
     4
100
AcDbVertex
100
AcDb3dPolylineVertex
 10
3.940898956824744
 20
7.620127383718259
 30
0.0
 70
    32
  0
VERTEX
  5
2637
330
25DD
100
AcDbEntity
  8
SAVED
 62
     4
100
AcDbVertex
100
AcDb3dPolylineVertex
 10
3.942148956824744
 20
7.620087383718258
 30
0.0
 70
    32
  0
VERTEX
  5
2638
330
25DD
100
AcDbEntity
  8
SAVED
 62
     4
100
AcDbVertex
100
AcDb3dPolylineVertex
 10
3.943398956824744
 20
7.620057383718258
 30
0.0
 70
    32
  0
VERTEX
  5
2639
330
25DD
100
AcDbEntity
  8
SAVED
 62
     4
100
AcDbVertex
100
AcDb3dPolylineVertex
 10
3.944658956824744
 20
7.620027383718259
 30
0.0
 70
    32
  0
VERTEX
  5
263A
330
25DD
100
AcDbEntity
  8
SAVED
 62
     4
100
AcDbVertex
100
AcDb3dPolylineVertex
 10
3.945928956824744
 20
7.619997383718258
 30
0.0
 70
    32
  0
VERTEX
  5
263B
330
25DD
100
AcDbEntity
  8
SAVED
 62
     4
100
AcDbVertex
100
AcDb3dPolylineVertex
 10
3.947198956824744
 20
7.619957383718258
 30
0.0
 70
    32
  0
VERTEX
  5
263C
330
25DD
100
AcDbEntity
  8
SAVED
 62
     4
100
AcDbVertex
100
AcDb3dPolylineVertex
 10
3.948478956824744
 20
7.619927383718259
 30
0.0
 70
    32
  0
VERTEX
  5
263D
330
25DD
100
AcDbEntity
  8
SAVED
 62
     4
100
AcDbVertex
100
AcDb3dPolylineVertex
 10
3.949758956824743
 20
7.619897383718258
 30
0.0
 70
    32
  0
VERTEX
  5
263E
330
25DD
100
AcDbEntity
  8
SAVED
 62
     4
100
AcDbVertex
100
AcDb3dPolylineVertex
 10
3.951048956824743
 20
7.619867383718258
 30
0.0
 70
    32
  0
VERTEX
  5
263F
330
25DD
100
AcDbEntity
  8
SAVED
 62
     4
100
AcDbVertex
100
AcDb3dPolylineVertex
 10
3.952338956824744
 20
7.619837383718259
 30
0.0
 70
    32
  0
VERTEX
  5
2640
330
25DD
100
AcDbEntity
  8
SAVED
 62
     4
100
AcDbVertex
100
AcDb3dPolylineVertex
 10
3.953628956824744
 20
7.619807383718258
 30
0.0
 70
    32
  0
VERTEX
  5
2641
330
25DD
100
AcDbEntity
  8
SAVED
 62
     4
100
AcDbVertex
100
AcDb3dPolylineVertex
 10
3.954928956824744
 20
7.619777383718258
 30
0.0
 70
    32
  0
VERTEX
  5
2642
330
25DD
100
AcDbEntity
  8
SAVED
 62
     4
100
AcDbVertex
100
AcDb3dPolylineVertex
 10
3.956238956824743
 20
7.619757383718258
 30
0.0
 70
    32
  0
VERTEX
  5
2643
330
25DD
100
AcDbEntity
  8
SAVED
 62
     4
100
AcDbVertex
100
AcDb3dPolylineVertex
 10
3.957548956824743
 20
7.619727383718258
 30
0.0
 70
    32
  0
VERTEX
  5
2644
330
25DD
100
AcDbEntity
  8
SAVED
 62
     4
100
AcDbVertex
100
AcDb3dPolylineVertex
 10
3.958858956824744
 20
7.619697383718259
 30
0.0
 70
    32
  0
VERTEX
  5
2645
330
25DD
100
AcDbEntity
  8
SAVED
 62
     4
100
AcDbVertex
100
AcDb3dPolylineVertex
 10
3.960178956824743
 20
7.619667383718258
 30
0.0
 70
    32
  0
VERTEX
  5
2646
330
25DD
100
AcDbEntity
  8
SAVED
 62
     4
100
AcDbVertex
100
AcDb3dPolylineVertex
 10
3.961498956824744
 20
7.619647383718259
 30
0.0
 70
    32
  0
VERTEX
  5
2647
330
25DD
100
AcDbEntity
  8
SAVED
 62
     4
100
AcDbVertex
100
AcDb3dPolylineVertex
 10
3.962828956824743
 20
7.619617383718258
 30
0.0
 70
    32
  0
VERTEX
  5
2648
330
25DD
100
AcDbEntity
  8
SAVED
 62
     4
100
AcDbVertex
100
AcDb3dPolylineVertex
 10
3.964158956824744
 20
7.619597383718259
 30
0.0
 70
    32
  0
VERTEX
  5
2649
330
25DD
100
AcDbEntity
  8
SAVED
 62
     4
100
AcDbVertex
100
AcDb3dPolylineVertex
 10
3.965488956824744
 20
7.619567383718258
 30
0.0
 70
    32
  0
VERTEX
  5
264A
330
25DD
100
AcDbEntity
  8
SAVED
 62
     4
100
AcDbVertex
100
AcDb3dPolylineVertex
 10
3.966828956824744
 20
7.619547383718257
 30
0.0
 70
    32
  0
VERTEX
  5
264B
330
25DD
100
AcDbEntity
  8
SAVED
 62
     4
100
AcDbVertex
100
AcDb3dPolylineVertex
 10
3.968168956824744
 20
7.619517383718259
 30
0.0
 70
    32
  0
VERTEX
  5
264C
330
25DD
100
AcDbEntity
  8
SAVED
 62
     4
100
AcDbVertex
100
AcDb3dPolylineVertex
 10
3.969508956824744
 20
7.619497383718258
 30
0.0
 70
    32
  0
VERTEX
  5
264D
330
25DD
100
AcDbEntity
  8
SAVED
 62
     4
100
AcDbVertex
100
AcDb3dPolylineVertex
 10
3.970858956824744
 20
7.619477383718258
 30
0.0
 70
    32
  0
VERTEX
  5
264E
330
25DD
100
AcDbEntity
  8
SAVED
 62
     4
100
AcDbVertex
100
AcDb3dPolylineVertex
 10
3.972218956824744
 20
7.619447383718258
 30
0.0
 70
    32
  0
VERTEX
  5
264F
330
25DD
100
AcDbEntity
  8
SAVED
 62
     4
100
AcDbVertex
100
AcDb3dPolylineVertex
 10
3.973568956824744
 20
7.619427383718258
 30
0.0
 70
    32
  0
VERTEX
  5
2650
330
25DD
100
AcDbEntity
  8
SAVED
 62
     4
100
AcDbVertex
100
AcDb3dPolylineVertex
 10
3.974928956824744
 20
7.619407383718259
 30
0.0
 70
    32
  0
VERTEX
  5
2651
330
25DD
100
AcDbEntity
  8
SAVED
 62
     4
100
AcDbVertex
100
AcDb3dPolylineVertex
 10
3.976288956824744
 20
7.619387383718258
 30
0.0
 70
    32
  0
VERTEX
  5
2652
330
25DD
100
AcDbEntity
  8
SAVED
 62
     4
100
AcDbVertex
100
AcDb3dPolylineVertex
 10
3.977658956824743
 20
7.619367383718259
 30
0.0
 70
    32
  0
VERTEX
  5
2653
330
25DD
100
AcDbEntity
  8
SAVED
 62
     4
100
AcDbVertex
100
AcDb3dPolylineVertex
 10
3.979028956824744
 20
7.619347383718258
 30
0.0
 70
    32
  0
VERTEX
  5
2654
330
25DD
100
AcDbEntity
  8
SAVED
 62
     4
100
AcDbVertex
100
AcDb3dPolylineVertex
 10
3.980398956824743
 20
7.619327383718259
 30
0.0
 70
    32
  0
VERTEX
  5
2655
330
25DD
100
AcDbEntity
  8
SAVED
 62
     4
100
AcDbVertex
100
AcDb3dPolylineVertex
 10
3.981778956824744
 20
7.619307383718258
 30
0.0
 70
    32
  0
VERTEX
  5
2656
330
25DD
100
AcDbEntity
  8
SAVED
 62
     4
100
AcDbVertex
100
AcDb3dPolylineVertex
 10
3.983158956824744
 20
7.619287383718258
 30
0.0
 70
    32
  0
VERTEX
  5
2657
330
25DD
100
AcDbEntity
  8
SAVED
 62
     4
100
AcDbVertex
100
AcDb3dPolylineVertex
 10
3.984538956824744
 20
7.619267383718259
 30
0.0
 70
    32
  0
VERTEX
  5
2658
330
25DD
100
AcDbEntity
  8
SAVED
 62
     4
100
AcDbVertex
100
AcDb3dPolylineVertex
 10
3.985918956824743
 20
7.619257383718258
 30
0.0
 70
    32
  0
VERTEX
  5
2659
330
25DD
100
AcDbEntity
  8
SAVED
 62
     4
100
AcDbVertex
100
AcDb3dPolylineVertex
 10
3.987308956824744
 20
7.619237383718258
 30
0.0
 70
    32
  0
VERTEX
  5
265A
330
25DD
100
AcDbEntity
  8
SAVED
 62
     4
100
AcDbVertex
100
AcDb3dPolylineVertex
 10
3.988698956824744
 20
7.619217383718257
 30
0.0
 70
    32
  0
VERTEX
  5
265B
330
25DD
100
AcDbEntity
  8
SAVED
 62
     4
100
AcDbVertex
100
AcDb3dPolylineVertex
 10
3.990098956824744
 20
7.619207383718258
 30
0.0
 70
    32
  0
VERTEX
  5
265C
330
25DD
100
AcDbEntity
  8
SAVED
 62
     4
100
AcDbVertex
100
AcDb3dPolylineVertex
 10
3.991488956824744
 20
7.619187383718259
 30
0.0
 70
    32
  0
VERTEX
  5
265D
330
25DD
100
AcDbEntity
  8
SAVED
 62
     4
100
AcDbVertex
100
AcDb3dPolylineVertex
 10
3.992888956824744
 20
7.619167383718258
 30
0.0
 70
    32
  0
VERTEX
  5
265E
330
25DD
100
AcDbEntity
  8
SAVED
 62
     4
100
AcDbVertex
100
AcDb3dPolylineVertex
 10
3.994288956824743
 20
7.619157383718258
 30
0.0
 70
    32
  0
VERTEX
  5
265F
330
25DD
100
AcDbEntity
  8
SAVED
 62
     4
100
AcDbVertex
100
AcDb3dPolylineVertex
 10
3.995688956824744
 20
7.619147383718258
 30
0.0
 70
    32
  0
VERTEX
  5
2660
330
25DD
100
AcDbEntity
  8
SAVED
 62
     4
100
AcDbVertex
100
AcDb3dPolylineVertex
 10
3.997098956824744
 20
7.619127383718259
 30
0.0
 70
    32
  0
VERTEX
  5
2661
330
25DD
100
AcDbEntity
  8
SAVED
 62
     4
100
AcDbVertex
100
AcDb3dPolylineVertex
 10
3.998498956824744
 20
7.619117383718258
 30
0.0
 70
    32
  0
VERTEX
  5
2662
330
25DD
100
AcDbEntity
  8
SAVED
 62
     4
100
AcDbVertex
100
AcDb3dPolylineVertex
 10
3.999908956824744
 20
7.619107383718258
 30
0.0
 70
    32
  0
VERTEX
  5
2663
330
25DD
100
AcDbEntity
  8
SAVED
 62
     4
100
AcDbVertex
100
AcDb3dPolylineVertex
 10
4.001318956824744
 20
7.619087383718259
 30
0.0
 70
    32
  0
VERTEX
  5
2664
330
25DD
100
AcDbEntity
  8
SAVED
 62
     4
100
AcDbVertex
100
AcDb3dPolylineVertex
 10
4.002738956824743
 20
7.619077383718257
 30
0.0
 70
    32
  0
VERTEX
  5
2665
330
25DD
100
AcDbEntity
  8
SAVED
 62
     4
100
AcDbVertex
100
AcDb3dPolylineVertex
 10
4.004148956824744
 20
7.619067383718258
 30
0.0
 70
    32
  0
VERTEX
  5
2666
330
25DD
100
AcDbEntity
  8
SAVED
 62
     4
100
AcDbVertex
100
AcDb3dPolylineVertex
 10
4.005568956824744
 20
7.619057383718258
 30
0.0
 70
    32
  0
VERTEX
  5
2667
330
25DD
100
AcDbEntity
  8
SAVED
 62
     4
100
AcDbVertex
100
AcDb3dPolylineVertex
 10
4.006988956824744
 20
7.619047383718259
 30
0.0
 70
    32
  0
VERTEX
  5
2668
330
25DD
100
AcDbEntity
  8
SAVED
 62
     4
100
AcDbVertex
100
AcDb3dPolylineVertex
 10
4.008408956824744
 20
7.619037383718259
 30
0.0
 70
    32
  0
VERTEX
  5
2669
330
25DD
100
AcDbEntity
  8
SAVED
 62
     4
100
AcDbVertex
100
AcDb3dPolylineVertex
 10
4.009828956824744
 20
7.619027383718258
 30
0.0
 70
    32
  0
VERTEX
  5
266A
330
25DD
100
AcDbEntity
  8
SAVED
 62
     4
100
AcDbVertex
100
AcDb3dPolylineVertex
 10
4.011248956824744
 20
7.619017383718258
 30
0.0
 70
    32
  0
VERTEX
  5
266B
330
25DD
100
AcDbEntity
  8
SAVED
 62
     4
100
AcDbVertex
100
AcDb3dPolylineVertex
 10
4.012678956824744
 20
7.619007383718258
 30
0.0
 70
    32
  0
VERTEX
  5
266C
330
25DD
100
AcDbEntity
  8
SAVED
 62
     4
100
AcDbVertex
100
AcDb3dPolylineVertex
 10
4.014108956824744
 20
7.618997383718259
 30
0.0
 70
    32
  0
VERTEX
  5
266D
330
25DD
100
AcDbEntity
  8
SAVED
 62
     4
100
AcDbVertex
100
AcDb3dPolylineVertex
 10
4.015528956824744
 20
7.618987383718259
 30
0.0
 70
    32
  0
VERTEX
  5
266E
330
25DD
100
AcDbEntity
  8
SAVED
 62
     4
100
AcDbVertex
100
AcDb3dPolylineVertex
 10
4.016958956824744
 20
7.618987383718259
 30
0.0
 70
    32
  0
VERTEX
  5
266F
330
25DD
100
AcDbEntity
  8
SAVED
 62
     4
100
AcDbVertex
100
AcDb3dPolylineVertex
 10
4.018388956824743
 20
7.618977383718258
 30
0.0
 70
    32
  0
VERTEX
  5
2670
330
25DD
100
AcDbEntity
  8
SAVED
 62
     4
100
AcDbVertex
100
AcDb3dPolylineVertex
 10
4.019818956824743
 20
7.618967383718258
 30
0.0
 70
    32
  0
VERTEX
  5
2671
330
25DD
100
AcDbEntity
  8
SAVED
 62
     4
100
AcDbVertex
100
AcDb3dPolylineVertex
 10
4.021258956824744
 20
7.618967383718258
 30
0.0
 70
    32
  0
VERTEX
  5
2672
330
25DD
100
AcDbEntity
  8
SAVED
 62
     4
100
AcDbVertex
100
AcDb3dPolylineVertex
 10
4.022688956824744
 20
7.618957383718258
 30
0.0
 70
    32
  0
VERTEX
  5
2673
330
25DD
100
AcDbEntity
  8
SAVED
 62
     4
100
AcDbVertex
100
AcDb3dPolylineVertex
 10
4.024118956824744
 20
7.618957383718258
 30
0.0
 70
    32
  0
VERTEX
  5
2674
330
25DD
100
AcDbEntity
  8
SAVED
 62
     4
100
AcDbVertex
100
AcDb3dPolylineVertex
 10
4.025558956824744
 20
7.618947383718259
 30
0.0
 70
    32
  0
VERTEX
  5
2675
330
25DD
100
AcDbEntity
  8
SAVED
 62
     4
100
AcDbVertex
100
AcDb3dPolylineVertex
 10
4.026998956824743
 20
7.618947383718259
 30
0.0
 70
    32
  0
VERTEX
  5
2676
330
25DD
100
AcDbEntity
  8
SAVED
 62
     4
100
AcDbVertex
100
AcDb3dPolylineVertex
 10
4.028428956824743
 20
7.618947383718259
 30
0.0
 70
    32
  0
VERTEX
  5
2677
330
25DD
100
AcDbEntity
  8
SAVED
 62
     4
100
AcDbVertex
100
AcDb3dPolylineVertex
 10
4.029868956824744
 20
7.618937383718257
 30
0.0
 70
    32
  0
VERTEX
  5
2678
330
25DD
100
AcDbEntity
  8
SAVED
 62
     4
100
AcDbVertex
100
AcDb3dPolylineVertex
 10
4.031308956824743
 20
7.618937383718257
 30
0.0
 70
    32
  0
VERTEX
  5
2679
330
25DD
100
AcDbEntity
  8
SAVED
 62
     4
100
AcDbVertex
100
AcDb3dPolylineVertex
 10
4.032738956824744
 20
7.618937383718257
 30
0.0
 70
    32
  0
VERTEX
  5
267A
330
25DD
100
AcDbEntity
  8
SAVED
 62
     4
100
AcDbVertex
100
AcDb3dPolylineVertex
 10
4.034178956824744
 20
7.618937383718257
 30
0.0
 70
    32
  0
VERTEX
  5
267B
330
25DD
100
AcDbEntity
  8
SAVED
 62
     4
100
AcDbVertex
100
AcDb3dPolylineVertex
 10
4.035618956824744
 20
7.618937383718257
 30
0.0
 70
    32
  0
VERTEX
  5
267C
330
25DD
100
AcDbEntity
  8
SAVED
 62
     4
100
AcDbVertex
100
AcDb3dPolylineVertex
 10
4.037058956824743
 20
7.618937383718257
 30
0.0
 70
    32
  0
VERTEX
  5
267D
330
25DD
100
AcDbEntity
  8
SAVED
 62
     4
100
AcDbVertex
100
AcDb3dPolylineVertex
 10
4.038498956824744
 20
7.618937383718257
 30
0.0
 70
    32
  0
VERTEX
  5
267E
330
25DD
100
AcDbEntity
  8
SAVED
 62
     4
100
AcDbVertex
100
AcDb3dPolylineVertex
 10
4.039938956824744
 20
7.618937383718257
 30
0.0
 70
    32
  0
VERTEX
  5
267F
330
25DD
100
AcDbEntity
  8
SAVED
 62
     4
100
AcDbVertex
100
AcDb3dPolylineVertex
 10
4.041378956824743
 20
7.618937383718257
 30
0.0
 70
    32
  0
VERTEX
  5
2680
330
25DD
100
AcDbEntity
  8
SAVED
 62
     4
100
AcDbVertex
100
AcDb3dPolylineVertex
 10
4.042808956824743
 20
7.618937383718257
 30
0.0
 70
    32
  0
VERTEX
  5
2681
330
25DD
100
AcDbEntity
  8
SAVED
 62
     4
100
AcDbVertex
100
AcDb3dPolylineVertex
 10
4.044248956824744
 20
7.618937383718257
 30
0.0
 70
    32
  0
VERTEX
  5
2682
330
25DD
100
AcDbEntity
  8
SAVED
 62
     4
100
AcDbVertex
100
AcDb3dPolylineVertex
 10
4.045688956824744
 20
7.618937383718257
 30
0.0
 70
    32
  0
VERTEX
  5
2683
330
25DD
100
AcDbEntity
  8
SAVED
 62
     4
100
AcDbVertex
100
AcDb3dPolylineVertex
 10
4.047128956824743
 20
7.618937383718257
 30
0.0
 70
    32
  0
VERTEX
  5
2684
330
25DD
100
AcDbEntity
  8
SAVED
 62
     4
100
AcDbVertex
100
AcDb3dPolylineVertex
 10
4.048568956824744
 20
7.618947383718259
 30
0.0
 70
    32
  0
VERTEX
  5
2685
330
25DD
100
AcDbEntity
  8
SAVED
 62
     4
100
AcDbVertex
100
AcDb3dPolylineVertex
 10
4.049998956824744
 20
7.618947383718259
 30
0.0
 70
    32
  0
VERTEX
  5
2686
330
25DD
100
AcDbEntity
  8
SAVED
 62
     4
100
AcDbVertex
100
AcDb3dPolylineVertex
 10
4.051438956824743
 20
7.618957383718258
 30
0.0
 70
    32
  0
VERTEX
  5
2687
330
25DD
100
AcDbEntity
  8
SAVED
 62
     4
100
AcDbVertex
100
AcDb3dPolylineVertex
 10
4.052878956824744
 20
7.618957383718258
 30
0.0
 70
    32
  0
VERTEX
  5
2688
330
25DD
100
AcDbEntity
  8
SAVED
 62
     4
100
AcDbVertex
100
AcDb3dPolylineVertex
 10
4.054308956824744
 20
7.618957383718258
 30
0.0
 70
    32
  0
VERTEX
  5
2689
330
25DD
100
AcDbEntity
  8
SAVED
 62
     4
100
AcDbVertex
100
AcDb3dPolylineVertex
 10
4.055748956824744
 20
7.618967383718258
 30
0.0
 70
    32
  0
VERTEX
  5
268A
330
25DD
100
AcDbEntity
  8
SAVED
 62
     4
100
AcDbVertex
100
AcDb3dPolylineVertex
 10
4.057178956824744
 20
7.618977383718258
 30
0.0
 70
    32
  0
VERTEX
  5
268B
330
25DD
100
AcDbEntity
  8
SAVED
 62
     4
100
AcDbVertex
100
AcDb3dPolylineVertex
 10
4.058608956824744
 20
7.618977383718258
 30
0.0
 70
    32
  0
VERTEX
  5
268C
330
25DD
100
AcDbEntity
  8
SAVED
 62
     4
100
AcDbVertex
100
AcDb3dPolylineVertex
 10
4.060048956824743
 20
7.618987383718259
 30
0.0
 70
    32
  0
VERTEX
  5
268D
330
25DD
100
AcDbEntity
  8
SAVED
 62
     4
100
AcDbVertex
100
AcDb3dPolylineVertex
 10
4.061478956824744
 20
7.618997383718259
 30
0.0
 70
    32
  0
VERTEX
  5
268E
330
25DD
100
AcDbEntity
  8
SAVED
 62
     4
100
AcDbVertex
100
AcDb3dPolylineVertex
 10
4.062908956824744
 20
7.618997383718259
 30
0.0
 70
    32
  0
VERTEX
  5
268F
330
25DD
100
AcDbEntity
  8
SAVED
 62
     4
100
AcDbVertex
100
AcDb3dPolylineVertex
 10
4.064338956824744
 20
7.619007383718258
 30
0.0
 70
    32
  0
VERTEX
  5
2690
330
25DD
100
AcDbEntity
  8
SAVED
 62
     4
100
AcDbVertex
100
AcDb3dPolylineVertex
 10
4.065758956824744
 20
7.619017383718258
 30
0.0
 70
    32
  0
VERTEX
  5
2691
330
25DD
100
AcDbEntity
  8
SAVED
 62
     4
100
AcDbVertex
100
AcDb3dPolylineVertex
 10
4.067188956824744
 20
7.619027383718258
 30
0.0
 70
    32
  0
VERTEX
  5
2692
330
25DD
100
AcDbEntity
  8
SAVED
 62
     4
100
AcDbVertex
100
AcDb3dPolylineVertex
 10
4.068608956824744
 20
7.619037383718259
 30
0.0
 70
    32
  0
VERTEX
  5
2693
330
25DD
100
AcDbEntity
  8
SAVED
 62
     4
100
AcDbVertex
100
AcDb3dPolylineVertex
 10
4.070038956824744
 20
7.619047383718259
 30
0.0
 70
    32
  0
VERTEX
  5
2694
330
25DD
100
AcDbEntity
  8
SAVED
 62
     4
100
AcDbVertex
100
AcDb3dPolylineVertex
 10
4.071458956824744
 20
7.619057383718258
 30
0.0
 70
    32
  0
VERTEX
  5
2695
330
25DD
100
AcDbEntity
  8
SAVED
 62
     4
100
AcDbVertex
100
AcDb3dPolylineVertex
 10
4.072878956824744
 20
7.619067383718258
 30
0.0
 70
    32
  0
VERTEX
  5
2696
330
25DD
100
AcDbEntity
  8
SAVED
 62
     4
100
AcDbVertex
100
AcDb3dPolylineVertex
 10
4.074298956824744
 20
7.619077383718257
 30
0.0
 70
    32
  0
VERTEX
  5
2697
330
25DD
100
AcDbEntity
  8
SAVED
 62
     4
100
AcDbVertex
100
AcDb3dPolylineVertex
 10
4.075708956824744
 20
7.619097383718258
 30
0.0
 70
    32
  0
VERTEX
  5
2698
330
25DD
100
AcDbEntity
  8
SAVED
 62
     4
100
AcDbVertex
100
AcDb3dPolylineVertex
 10
4.077128956824743
 20
7.619107383718258
 30
0.0
 70
    32
  0
VERTEX
  5
2699
330
25DD
100
AcDbEntity
  8
SAVED
 62
     4
100
AcDbVertex
100
AcDb3dPolylineVertex
 10
4.078538956824743
 20
7.619117383718258
 30
0.0
 70
    32
  0
VERTEX
  5
269A
330
25DD
100
AcDbEntity
  8
SAVED
 62
     4
100
AcDbVertex
100
AcDb3dPolylineVertex
 10
4.079948956824743
 20
7.619127383718259
 30
0.0
 70
    32
  0
VERTEX
  5
269B
330
25DD
100
AcDbEntity
  8
SAVED
 62
     4
100
AcDbVertex
100
AcDb3dPolylineVertex
 10
4.081358956824744
 20
7.619147383718258
 30
0.0
 70
    32
  0
VERTEX
  5
269C
330
25DD
100
AcDbEntity
  8
SAVED
 62
     4
100
AcDbVertex
100
AcDb3dPolylineVertex
 10
4.082758956824743
 20
7.619157383718258
 30
0.0
 70
    32
  0
VERTEX
  5
269D
330
25DD
100
AcDbEntity
  8
SAVED
 62
     4
100
AcDbVertex
100
AcDb3dPolylineVertex
 10
4.084168956824743
 20
7.619177383718259
 30
0.0
 70
    32
  0
VERTEX
  5
269E
330
25DD
100
AcDbEntity
  8
SAVED
 62
     4
100
AcDbVertex
100
AcDb3dPolylineVertex
 10
4.085568956824744
 20
7.619187383718259
 30
0.0
 70
    32
  0
VERTEX
  5
269F
330
25DD
100
AcDbEntity
  8
SAVED
 62
     4
100
AcDbVertex
100
AcDb3dPolylineVertex
 10
4.086968956824744
 20
7.619207383718258
 30
0.0
 70
    32
  0
VERTEX
  5
26A0
330
25DD
100
AcDbEntity
  8
SAVED
 62
     4
100
AcDbVertex
100
AcDb3dPolylineVertex
 10
4.088368956824743
 20
7.619217383718257
 30
0.0
 70
    32
  0
VERTEX
  5
26A1
330
25DD
100
AcDbEntity
  8
SAVED
 62
     4
100
AcDbVertex
100
AcDb3dPolylineVertex
 10
4.089758956824744
 20
7.619237383718258
 30
0.0
 70
    32
  0
VERTEX
  5
26A2
330
25DD
100
AcDbEntity
  8
SAVED
 62
     4
100
AcDbVertex
100
AcDb3dPolylineVertex
 10
4.091148956824744
 20
7.619257383718258
 30
0.0
 70
    32
  0
VERTEX
  5
26A3
330
25DD
100
AcDbEntity
  8
SAVED
 62
     4
100
AcDbVertex
100
AcDb3dPolylineVertex
 10
4.092538956824744
 20
7.619277383718259
 30
0.0
 70
    32
  0
VERTEX
  5
26A4
330
25DD
100
AcDbEntity
  8
SAVED
 62
     4
100
AcDbVertex
100
AcDb3dPolylineVertex
 10
4.093928956824743
 20
7.619287383718258
 30
0.0
 70
    32
  0
VERTEX
  5
26A5
330
25DD
100
AcDbEntity
  8
SAVED
 62
     4
100
AcDbVertex
100
AcDb3dPolylineVertex
 10
4.095308956824744
 20
7.619307383718258
 30
0.0
 70
    32
  0
VERTEX
  5
26A6
330
25DD
100
AcDbEntity
  8
SAVED
 62
     4
100
AcDbVertex
100
AcDb3dPolylineVertex
 10
4.096688956824744
 20
7.619327383718259
 30
0.0
 70
    32
  0
VERTEX
  5
26A7
330
25DD
100
AcDbEntity
  8
SAVED
 62
     4
100
AcDbVertex
100
AcDb3dPolylineVertex
 10
4.098068956824744
 20
7.619347383718258
 30
0.0
 70
    32
  0
VERTEX
  5
26A8
330
25DD
100
AcDbEntity
  8
SAVED
 62
     4
100
AcDbVertex
100
AcDb3dPolylineVertex
 10
4.099448956824744
 20
7.619367383718259
 30
0.0
 70
    32
  0
VERTEX
  5
26A9
330
25DD
100
AcDbEntity
  8
SAVED
 62
     4
100
AcDbVertex
100
AcDb3dPolylineVertex
 10
4.100818956824744
 20
7.619387383718258
 30
0.0
 70
    32
  0
VERTEX
  5
26AA
330
25DD
100
AcDbEntity
  8
SAVED
 62
     4
100
AcDbVertex
100
AcDb3dPolylineVertex
 10
4.102188956824743
 20
7.619407383718259
 30
0.0
 70
    32
  0
VERTEX
  5
26AB
330
25DD
100
AcDbEntity
  8
SAVED
 62
     4
100
AcDbVertex
100
AcDb3dPolylineVertex
 10
4.103548956824743
 20
7.619427383718258
 30
0.0
 70
    32
  0
VERTEX
  5
26AC
330
25DD
100
AcDbEntity
  8
SAVED
 62
     4
100
AcDbVertex
100
AcDb3dPolylineVertex
 10
4.104908956824743
 20
7.619447383718258
 30
0.0
 70
    32
  0
VERTEX
  5
26AD
330
25DD
100
AcDbEntity
  8
SAVED
 62
     4
100
AcDbVertex
100
AcDb3dPolylineVertex
 10
4.106268956824743
 20
7.619477383718258
 30
0.0
 70
    32
  0
VERTEX
  5
26AE
330
25DD
100
AcDbEntity
  8
SAVED
 62
     4
100
AcDbVertex
100
AcDb3dPolylineVertex
 10
4.107628956824743
 20
7.619497383718258
 30
0.0
 70
    32
  0
VERTEX
  5
26AF
330
25DD
100
AcDbEntity
  8
SAVED
 62
     4
100
AcDbVertex
100
AcDb3dPolylineVertex
 10
4.108978956824744
 20
7.619517383718259
 30
0.0
 70
    32
  0
VERTEX
  5
26B0
330
25DD
100
AcDbEntity
  8
SAVED
 62
     4
100
AcDbVertex
100
AcDb3dPolylineVertex
 10
4.110318956824744
 20
7.619537383718258
 30
0.0
 70
    32
  0
VERTEX
  5
26B1
330
25DD
100
AcDbEntity
  8
SAVED
 62
     4
100
AcDbVertex
100
AcDb3dPolylineVertex
 10
4.111668956824743
 20
7.619567383718258
 30
0.0
 70
    32
  0
VERTEX
  5
26B2
330
25DD
100
AcDbEntity
  8
SAVED
 62
     4
100
AcDbVertex
100
AcDb3dPolylineVertex
 10
4.113008956824744
 20
7.619587383718258
 30
0.0
 70
    32
  0
VERTEX
  5
26B3
330
25DD
100
AcDbEntity
  8
SAVED
 62
     4
100
AcDbVertex
100
AcDb3dPolylineVertex
 10
4.114338956824743
 20
7.619617383718258
 30
0.0
 70
    32
  0
VERTEX
  5
26B4
330
25DD
100
AcDbEntity
  8
SAVED
 62
     4
100
AcDbVertex
100
AcDb3dPolylineVertex
 10
4.115678956824743
 20
7.619637383718258
 30
0.0
 70
    32
  0
VERTEX
  5
26B5
330
25DD
100
AcDbEntity
  8
SAVED
 62
     4
100
AcDbVertex
100
AcDb3dPolylineVertex
 10
4.117008956824744
 20
7.619667383718258
 30
0.0
 70
    32
  0
VERTEX
  5
26B6
330
25DD
100
AcDbEntity
  8
SAVED
 62
     4
100
AcDbVertex
100
AcDb3dPolylineVertex
 10
4.118328956824743
 20
7.619697383718259
 30
0.0
 70
    32
  0
VERTEX
  5
26B7
330
25DD
100
AcDbEntity
  8
SAVED
 62
     4
100
AcDbVertex
100
AcDb3dPolylineVertex
 10
4.119648956824744
 20
7.619717383718258
 30
0.0
 70
    32
  0
VERTEX
  5
26B8
330
25DD
100
AcDbEntity
  8
SAVED
 62
     4
100
AcDbVertex
100
AcDb3dPolylineVertex
 10
4.120968956824744
 20
7.619747383718259
 30
0.0
 70
    32
  0
VERTEX
  5
26B9
330
25DD
100
AcDbEntity
  8
SAVED
 62
     4
100
AcDbVertex
100
AcDb3dPolylineVertex
 10
4.122278956824744
 20
7.619777383718258
 30
0.0
 70
    32
  0
VERTEX
  5
26BA
330
25DD
100
AcDbEntity
  8
SAVED
 62
     4
100
AcDbVertex
100
AcDb3dPolylineVertex
 10
4.123578956824744
 20
7.619797383718259
 30
0.0
 70
    32
  0
VERTEX
  5
26BB
330
25DD
100
AcDbEntity
  8
SAVED
 62
     4
100
AcDbVertex
100
AcDb3dPolylineVertex
 10
4.124888956824744
 20
7.619827383718257
 30
0.0
 70
    32
  0
VERTEX
  5
26BC
330
25DD
100
AcDbEntity
  8
SAVED
 62
     4
100
AcDbVertex
100
AcDb3dPolylineVertex
 10
4.126188956824743
 20
7.619857383718258
 30
0.0
 70
    32
  0
VERTEX
  5
26BD
330
25DD
100
AcDbEntity
  8
SAVED
 62
     4
100
AcDbVertex
100
AcDb3dPolylineVertex
 10
4.127478956824743
 20
7.619887383718259
 30
0.0
 70
    32
  0
VERTEX
  5
26BE
330
25DD
100
AcDbEntity
  8
SAVED
 62
     4
100
AcDbVertex
100
AcDb3dPolylineVertex
 10
4.128768956824743
 20
7.619917383718258
 30
0.0
 70
    32
  0
VERTEX
  5
26BF
330
25DD
100
AcDbEntity
  8
SAVED
 62
     4
100
AcDbVertex
100
AcDb3dPolylineVertex
 10
4.130048956824744
 20
7.619947383718258
 30
0.0
 70
    32
  0
VERTEX
  5
26C0
330
25DD
100
AcDbEntity
  8
SAVED
 62
     4
100
AcDbVertex
100
AcDb3dPolylineVertex
 10
4.131328956824743
 20
7.619977383718259
 30
0.0
 70
    32
  0
VERTEX
  5
26C1
330
25DD
100
AcDbEntity
  8
SAVED
 62
     4
100
AcDbVertex
100
AcDb3dPolylineVertex
 10
4.132608956824744
 20
7.620007383718258
 30
0.0
 70
    32
  0
VERTEX
  5
26C2
330
25DD
100
AcDbEntity
  8
SAVED
 62
     4
100
AcDbVertex
100
AcDb3dPolylineVertex
 10
4.133878956824744
 20
7.620047383718258
 30
0.0
 70
    32
  0
VERTEX
  5
26C3
330
25DD
100
AcDbEntity
  8
SAVED
 62
     4
100
AcDbVertex
100
AcDb3dPolylineVertex
 10
4.135138956824744
 20
7.620077383718259
 30
0.0
 70
    32
  0
VERTEX
  5
26C4
330
25DD
100
AcDbEntity
  8
SAVED
 62
     4
100
AcDbVertex
100
AcDb3dPolylineVertex
 10
4.136398956824744
 20
7.620107383718258
 30
0.0
 70
    32
  0
VERTEX
  5
26C5
330
25DD
100
AcDbEntity
  8
SAVED
 62
     4
100
AcDbVertex
100
AcDb3dPolylineVertex
 10
4.137648956824744
 20
7.620137383718258
 30
0.0
 70
    32
  0
VERTEX
  5
26C6
330
25DD
100
AcDbEntity
  8
SAVED
 62
     4
100
AcDbVertex
100
AcDb3dPolylineVertex
 10
4.138898956824744
 20
7.620177383718258
 30
0.0
 70
    32
  0
VERTEX
  5
26C7
330
25DD
100
AcDbEntity
  8
SAVED
 62
     4
100
AcDbVertex
100
AcDb3dPolylineVertex
 10
4.140148956824743
 20
7.620207383718259
 30
0.0
 70
    32
  0
VERTEX
  5
26C8
330
25DD
100
AcDbEntity
  8
SAVED
 62
     4
100
AcDbVertex
100
AcDb3dPolylineVertex
 10
4.141388956824743
 20
7.620237383718258
 30
0.0
 70
    32
  0
VERTEX
  5
26C9
330
25DD
100
AcDbEntity
  8
SAVED
 62
     4
100
AcDbVertex
100
AcDb3dPolylineVertex
 10
4.142618956824744
 20
7.620277383718258
 30
0.0
 70
    32
  0
VERTEX
  5
26CA
330
25DD
100
AcDbEntity
  8
SAVED
 62
     4
100
AcDbVertex
100
AcDb3dPolylineVertex
 10
4.143848956824744
 20
7.620307383718259
 30
0.0
 70
    32
  0
VERTEX
  5
26CB
330
25DD
100
AcDbEntity
  8
SAVED
 62
     4
100
AcDbVertex
100
AcDb3dPolylineVertex
 10
4.145068956824744
 20
7.620347383718259
 30
0.0
 70
    32
  0
VERTEX
  5
26CC
330
25DD
100
AcDbEntity
  8
SAVED
 62
     4
100
AcDbVertex
100
AcDb3dPolylineVertex
 10
4.146278956824744
 20
7.620387383718258
 30
0.0
 70
    32
  0
VERTEX
  5
26CD
330
25DD
100
AcDbEntity
  8
SAVED
 62
     4
100
AcDbVertex
100
AcDb3dPolylineVertex
 10
4.147488956824743
 20
7.620417383718258
 30
0.0
 70
    32
  0
VERTEX
  5
26CE
330
25DD
100
AcDbEntity
  8
SAVED
 62
     4
100
AcDbVertex
100
AcDb3dPolylineVertex
 10
4.148698956824744
 20
7.620457383718258
 30
0.0
 70
    32
  0
VERTEX
  5
26CF
330
25DD
100
AcDbEntity
  8
SAVED
 62
     4
100
AcDbVertex
100
AcDb3dPolylineVertex
 10
4.149898956824744
 20
7.620497383718259
 30
0.0
 70
    32
  0
VERTEX
  5
26D0
330
25DD
100
AcDbEntity
  8
SAVED
 62
     4
100
AcDbVertex
100
AcDb3dPolylineVertex
 10
4.151088956824744
 20
7.620537383718259
 30
0.0
 70
    32
  0
VERTEX
  5
26D1
330
25DD
100
AcDbEntity
  8
SAVED
 62
     4
100
AcDbVertex
100
AcDb3dPolylineVertex
 10
4.152268956824744
 20
7.620567383718258
 30
0.0
 70
    32
  0
VERTEX
  5
26D2
330
25DD
100
AcDbEntity
  8
SAVED
 62
     4
100
AcDbVertex
100
AcDb3dPolylineVertex
 10
4.153448956824743
 20
7.620607383718258
 30
0.0
 70
    32
  0
VERTEX
  5
26D3
330
25DD
100
AcDbEntity
  8
SAVED
 62
     4
100
AcDbVertex
100
AcDb3dPolylineVertex
 10
4.154628956824744
 20
7.620647383718258
 30
0.0
 70
    32
  0
VERTEX
  5
26D4
330
25DD
100
AcDbEntity
  8
SAVED
 62
     4
100
AcDbVertex
100
AcDb3dPolylineVertex
 10
4.155798956824743
 20
7.620687383718259
 30
0.0
 70
    32
  0
VERTEX
  5
26D5
330
25DD
100
AcDbEntity
  8
SAVED
 62
     4
100
AcDbVertex
100
AcDb3dPolylineVertex
 10
4.156958956824744
 20
7.620727383718259
 30
0.0
 70
    32
  0
VERTEX
  5
26D6
330
25DD
100
AcDbEntity
  8
SAVED
 62
     4
100
AcDbVertex
100
AcDb3dPolylineVertex
 10
4.158108956824744
 20
7.620767383718257
 30
0.0
 70
    32
  0
VERTEX
  5
26D7
330
25DD
100
AcDbEntity
  8
SAVED
 62
     4
100
AcDbVertex
100
AcDb3dPolylineVertex
 10
4.159258956824744
 20
7.620807383718258
 30
0.0
 70
    32
  0
VERTEX
  5
26D8
330
25DD
100
AcDbEntity
  8
SAVED
 62
     4
100
AcDbVertex
100
AcDb3dPolylineVertex
 10
4.160398956824744
 20
7.620857383718258
 30
0.0
 70
    32
  0
VERTEX
  5
26D9
330
25DD
100
AcDbEntity
  8
SAVED
 62
     4
100
AcDbVertex
100
AcDb3dPolylineVertex
 10
4.161538956824744
 20
7.620897383718258
 30
0.0
 70
    32
  0
VERTEX
  5
26DA
330
25DD
100
AcDbEntity
  8
SAVED
 62
     4
100
AcDbVertex
100
AcDb3dPolylineVertex
 10
4.162658956824744
 20
7.620937383718258
 30
0.0
 70
    32
  0
VERTEX
  5
26DB
330
25DD
100
AcDbEntity
  8
SAVED
 62
     4
100
AcDbVertex
100
AcDb3dPolylineVertex
 10
4.163788956824744
 20
7.620977383718258
 30
0.0
 70
    32
  0
VERTEX
  5
26DC
330
25DD
100
AcDbEntity
  8
SAVED
 62
     4
100
AcDbVertex
100
AcDb3dPolylineVertex
 10
4.164898956824743
 20
7.621027383718258
 30
0.0
 70
    32
  0
VERTEX
  5
26DD
330
25DD
100
AcDbEntity
  8
SAVED
 62
     4
100
AcDbVertex
100
AcDb3dPolylineVertex
 10
4.166008956824744
 20
7.621067383718258
 30
0.0
 70
    32
  0
VERTEX
  5
26DE
330
25DD
100
AcDbEntity
  8
SAVED
 62
     4
100
AcDbVertex
100
AcDb3dPolylineVertex
 10
4.167108956824744
 20
7.621107383718259
 30
0.0
 70
    32
  0
VERTEX
  5
26DF
330
25DD
100
AcDbEntity
  8
SAVED
 62
     4
100
AcDbVertex
100
AcDb3dPolylineVertex
 10
4.168198956824744
 20
7.621157383718259
 30
0.0
 70
    32
  0
VERTEX
  5
26E0
330
25DD
100
AcDbEntity
  8
SAVED
 62
     4
100
AcDbVertex
100
AcDb3dPolylineVertex
 10
4.169288956824743
 20
7.621197383718259
 30
0.0
 70
    32
  0
VERTEX
  5
26E1
330
25DD
100
AcDbEntity
  8
SAVED
 62
     4
100
AcDbVertex
100
AcDb3dPolylineVertex
 10
4.170368956824743
 20
7.621247383718259
 30
0.0
 70
    32
  0
VERTEX
  5
26E2
330
25DD
100
AcDbEntity
  8
SAVED
 62
     4
100
AcDbVertex
100
AcDb3dPolylineVertex
 10
4.171438956824744
 20
7.621297383718259
 30
0.0
 70
    32
  0
VERTEX
  5
26E3
330
25DD
100
AcDbEntity
  8
SAVED
 62
     4
100
AcDbVertex
100
AcDb3dPolylineVertex
 10
4.172498956824743
 20
7.621337383718259
 30
0.0
 70
    32
  0
VERTEX
  5
26E4
330
25DD
100
AcDbEntity
  8
SAVED
 62
     4
100
AcDbVertex
100
AcDb3dPolylineVertex
 10
4.173558956824743
 20
7.621387383718259
 30
0.0
 70
    32
  0
VERTEX
  5
26E5
330
25DD
100
AcDbEntity
  8
SAVED
 62
     4
100
AcDbVertex
100
AcDb3dPolylineVertex
 10
4.174608956824743
 20
7.621437383718259
 30
0.0
 70
    32
  0
VERTEX
  5
26E6
330
25DD
100
AcDbEntity
  8
SAVED
 62
     4
100
AcDbVertex
100
AcDb3dPolylineVertex
 10
4.175648956824744
 20
7.621477383718259
 30
0.0
 70
    32
  0
VERTEX
  5
26E7
330
25DD
100
AcDbEntity
  8
SAVED
 62
     4
100
AcDbVertex
100
AcDb3dPolylineVertex
 10
4.176688956824744
 20
7.621527383718259
 30
0.0
 70
    32
  0
VERTEX
  5
26E8
330
25DD
100
AcDbEntity
  8
SAVED
 62
     4
100
AcDbVertex
100
AcDb3dPolylineVertex
 10
4.177718956824744
 20
7.621577383718259
 30
0.0
 70
    32
  0
VERTEX
  5
26E9
330
25DD
100
AcDbEntity
  8
SAVED
 62
     4
100
AcDbVertex
100
AcDb3dPolylineVertex
 10
4.178738956824743
 20
7.621627383718259
 30
0.0
 70
    32
  0
VERTEX
  5
26EA
330
25DD
100
AcDbEntity
  8
SAVED
 62
     4
100
AcDbVertex
100
AcDb3dPolylineVertex
 10
4.179748956824743
 20
7.621677383718258
 30
0.0
 70
    32
  0
VERTEX
  5
26EB
330
25DD
100
AcDbEntity
  8
SAVED
 62
     4
100
AcDbVertex
100
AcDb3dPolylineVertex
 10
4.180748956824744
 20
7.621717383718259
 30
0.0
 70
    32
  0
VERTEX
  5
26EC
330
25DD
100
AcDbEntity
  8
SAVED
 62
     4
100
AcDbVertex
100
AcDb3dPolylineVertex
 10
4.181748956824744
 20
7.621767383718259
 30
0.0
 70
    32
  0
VERTEX
  5
26ED
330
25DD
100
AcDbEntity
  8
SAVED
 62
     4
100
AcDbVertex
100
AcDb3dPolylineVertex
 10
4.182738956824744
 20
7.621817383718259
 30
0.0
 70
    32
  0
VERTEX
  5
26EE
330
25DD
100
AcDbEntity
  8
SAVED
 62
     4
100
AcDbVertex
100
AcDb3dPolylineVertex
 10
4.183718956824743
 20
7.621867383718258
 30
0.0
 70
    32
  0
VERTEX
  5
26EF
330
25DD
100
AcDbEntity
  8
SAVED
 62
     4
100
AcDbVertex
100
AcDb3dPolylineVertex
 10
4.184698956824743
 20
7.621917383718258
 30
0.0
 70
    32
  0
VERTEX
  5
26F0
330
25DD
100
AcDbEntity
  8
SAVED
 62
     4
100
AcDbVertex
100
AcDb3dPolylineVertex
 10
4.185658956824743
 20
7.621977383718258
 30
0.0
 70
    32
  0
VERTEX
  5
26F1
330
25DD
100
AcDbEntity
  8
SAVED
 62
     4
100
AcDbVertex
100
AcDb3dPolylineVertex
 10
4.186618956824744
 20
7.622027383718258
 30
0.0
 70
    32
  0
VERTEX
  5
26F2
330
25DD
100
AcDbEntity
  8
SAVED
 62
     4
100
AcDbVertex
100
AcDb3dPolylineVertex
 10
4.187568956824744
 20
7.622077383718258
 30
0.0
 70
    32
  0
VERTEX
  5
26F3
330
25DD
100
AcDbEntity
  8
SAVED
 62
     4
100
AcDbVertex
100
AcDb3dPolylineVertex
 10
4.188518956824744
 20
7.622127383718257
 30
0.0
 70
    32
  0
VERTEX
  5
26F4
330
25DD
100
AcDbEntity
  8
SAVED
 62
     4
100
AcDbVertex
100
AcDb3dPolylineVertex
 10
4.189448956824744
 20
7.622177383718259
 30
0.0
 70
    32
  0
VERTEX
  5
26F5
330
25DD
100
AcDbEntity
  8
SAVED
 62
     4
100
AcDbVertex
100
AcDb3dPolylineVertex
 10
4.190378956824743
 20
7.622237383718259
 30
0.0
 70
    32
  0
VERTEX
  5
26F6
330
25DD
100
AcDbEntity
  8
SAVED
 62
     4
100
AcDbVertex
100
AcDb3dPolylineVertex
 10
4.191298956824744
 20
7.622287383718258
 30
0.0
 70
    32
  0
VERTEX
  5
26F7
330
25DD
100
AcDbEntity
  8
SAVED
 62
     4
100
AcDbVertex
100
AcDb3dPolylineVertex
 10
4.192208956824743
 20
7.622337383718258
 30
0.0
 70
    32
  0
VERTEX
  5
26F8
330
25DD
100
AcDbEntity
  8
SAVED
 62
     4
100
AcDbVertex
100
AcDb3dPolylineVertex
 10
4.193108956824744
 20
7.622397383718258
 30
0.0
 70
    32
  0
VERTEX
  5
26F9
330
25DD
100
AcDbEntity
  8
SAVED
 62
     4
100
AcDbVertex
100
AcDb3dPolylineVertex
 10
4.194008956824744
 20
7.622447383718258
 30
0.0
 70
    32
  0
VERTEX
  5
26FA
330
25DD
100
AcDbEntity
  8
SAVED
 62
     4
100
AcDbVertex
100
AcDb3dPolylineVertex
 10
4.194898956824744
 20
7.622497383718258
 30
0.0
 70
    32
  0
VERTEX
  5
26FB
330
25DD
100
AcDbEntity
  8
SAVED
 62
     4
100
AcDbVertex
100
AcDb3dPolylineVertex
 10
4.195778956824744
 20
7.622557383718259
 30
0.0
 70
    32
  0
VERTEX
  5
26FC
330
25DD
100
AcDbEntity
  8
SAVED
 62
     4
100
AcDbVertex
100
AcDb3dPolylineVertex
 10
4.196648956824744
 20
7.622607383718259
 30
0.0
 70
    32
  0
VERTEX
  5
26FD
330
25DD
100
AcDbEntity
  8
SAVED
 62
     4
100
AcDbVertex
100
AcDb3dPolylineVertex
 10
4.197508956824743
 20
7.622667383718258
 30
0.0
 70
    32
  0
VERTEX
  5
26FE
330
25DD
100
AcDbEntity
  8
SAVED
 62
     4
100
AcDbVertex
100
AcDb3dPolylineVertex
 10
4.198368956824744
 20
7.622717383718258
 30
0.0
 70
    32
  0
VERTEX
  5
26FF
330
25DD
100
AcDbEntity
  8
SAVED
 62
     4
100
AcDbVertex
100
AcDb3dPolylineVertex
 10
4.199218956824743
 20
7.622777383718258
 30
0.0
 70
    32
  0
VERTEX
  5
2700
330
25DD
100
AcDbEntity
  8
SAVED
 62
     4
100
AcDbVertex
100
AcDb3dPolylineVertex
 10
4.200048956824744
 20
7.622837383718259
 30
0.0
 70
    32
  0
VERTEX
  5
2701
330
25DD
100
AcDbEntity
  8
SAVED
 62
     4
100
AcDbVertex
100
AcDb3dPolylineVertex
 10
4.200878956824744
 20
7.622887383718259
 30
0.0
 70
    32
  0
VERTEX
  5
2702
330
25DD
100
AcDbEntity
  8
SAVED
 62
     4
100
AcDbVertex
100
AcDb3dPolylineVertex
 10
4.201708956824743
 20
7.622947383718258
 30
0.0
 70
    32
  0
VERTEX
  5
2703
330
25DD
100
AcDbEntity
  8
SAVED
 62
     4
100
AcDbVertex
100
AcDb3dPolylineVertex
 10
4.202518956824744
 20
7.623007383718258
 30
0.0
 70
    32
  0
VERTEX
  5
2704
330
25DD
100
AcDbEntity
  8
SAVED
 62
     4
100
AcDbVertex
100
AcDb3dPolylineVertex
 10
4.203328956824743
 20
7.623057383718258
 30
0.0
 70
    32
  0
VERTEX
  5
2705
330
25DD
100
AcDbEntity
  8
SAVED
 62
     4
100
AcDbVertex
100
AcDb3dPolylineVertex
 10
4.204118956824744
 20
7.623117383718259
 30
0.0
 70
    32
  0
VERTEX
  5
2706
330
25DD
100
AcDbEntity
  8
SAVED
 62
     4
100
AcDbVertex
100
AcDb3dPolylineVertex
 10
4.204908956824744
 20
7.623177383718259
 30
0.0
 70
    32
  0
VERTEX
  5
2707
330
25DD
100
AcDbEntity
  8
SAVED
 62
     4
100
AcDbVertex
100
AcDb3dPolylineVertex
 10
4.205688956824744
 20
7.623237383718258
 30
0.0
 70
    32
  0
VERTEX
  5
2708
330
25DD
100
AcDbEntity
  8
SAVED
 62
     4
100
AcDbVertex
100
AcDb3dPolylineVertex
 10
4.206468956824743
 20
7.623297383718258
 30
0.0
 70
    32
  0
VERTEX
  5
2709
330
25DD
100
AcDbEntity
  8
SAVED
 62
     4
100
AcDbVertex
100
AcDb3dPolylineVertex
 10
4.207228956824744
 20
7.623357383718259
 30
0.0
 70
    32
  0
VERTEX
  5
270A
330
25DD
100
AcDbEntity
  8
SAVED
 62
     4
100
AcDbVertex
100
AcDb3dPolylineVertex
 10
4.207978956824744
 20
7.623417383718258
 30
0.0
 70
    32
  0
VERTEX
  5
270B
330
25DD
100
AcDbEntity
  8
SAVED
 62
     4
100
AcDbVertex
100
AcDb3dPolylineVertex
 10
4.208728956824744
 20
7.623477383718258
 30
0.0
 70
    32
  0
VERTEX
  5
270C
330
25DD
100
AcDbEntity
  8
SAVED
 62
     4
100
AcDbVertex
100
AcDb3dPolylineVertex
 10
4.209468956824744
 20
7.623537383718259
 30
0.0
 70
    32
  0
VERTEX
  5
270D
330
25DD
100
AcDbEntity
  8
SAVED
 62
     4
100
AcDbVertex
100
AcDb3dPolylineVertex
 10
4.210198956824743
 20
7.623597383718259
 30
0.0
 70
    32
  0
VERTEX
  5
270E
330
25DD
100
AcDbEntity
  8
SAVED
 62
     4
100
AcDbVertex
100
AcDb3dPolylineVertex
 10
4.210918956824744
 20
7.623657383718258
 30
0.0
 70
    32
  0
VERTEX
  5
270F
330
25DD
100
AcDbEntity
  8
SAVED
 62
     4
100
AcDbVertex
100
AcDb3dPolylineVertex
 10
4.211628956824744
 20
7.623717383718258
 30
0.0
 70
    32
  0
VERTEX
  5
2710
330
25DD
100
AcDbEntity
  8
SAVED
 62
     4
100
AcDbVertex
100
AcDb3dPolylineVertex
 10
4.212328956824744
 20
7.623777383718259
 30
0.0
 70
    32
  0
VERTEX
  5
2711
330
25DD
100
AcDbEntity
  8
SAVED
 62
     4
100
AcDbVertex
100
AcDb3dPolylineVertex
 10
4.213028956824744
 20
7.623837383718258
 30
0.0
 70
    32
  0
VERTEX
  5
2712
330
25DD
100
AcDbEntity
  8
SAVED
 62
     4
100
AcDbVertex
100
AcDb3dPolylineVertex
 10
4.213708956824744
 20
7.623907383718258
 30
0.0
 70
    32
  0
VERTEX
  5
2713
330
25DD
100
AcDbEntity
  8
SAVED
 62
     4
100
AcDbVertex
100
AcDb3dPolylineVertex
 10
4.214388956824744
 20
7.623967383718259
 30
0.0
 70
    32
  0
VERTEX
  5
2714
330
25DD
100
AcDbEntity
  8
SAVED
 62
     4
100
AcDbVertex
100
AcDb3dPolylineVertex
 10
4.215058956824743
 20
7.624027383718258
 30
0.0
 70
    32
  0
VERTEX
  5
2715
330
25DD
100
AcDbEntity
  8
SAVED
 62
     4
100
AcDbVertex
100
AcDb3dPolylineVertex
 10
4.215718956824743
 20
7.624097383718257
 30
0.0
 70
    32
  0
VERTEX
  5
2716
330
25DD
100
AcDbEntity
  8
SAVED
 62
     4
100
AcDbVertex
100
AcDb3dPolylineVertex
 10
4.216368956824743
 20
7.624157383718259
 30
0.0
 70
    32
  0
VERTEX
  5
2717
330
25DD
100
AcDbEntity
  8
SAVED
 62
     4
100
AcDbVertex
100
AcDb3dPolylineVertex
 10
4.217008956824743
 20
7.624217383718258
 30
0.0
 70
    32
  0
VERTEX
  5
2718
330
25DD
100
AcDbEntity
  8
SAVED
 62
     4
100
AcDbVertex
100
AcDb3dPolylineVertex
 10
4.217638956824743
 20
7.624287383718259
 30
0.0
 70
    32
  0
VERTEX
  5
2719
330
25DD
100
AcDbEntity
  8
SAVED
 62
     4
100
AcDbVertex
100
AcDb3dPolylineVertex
 10
4.218258956824744
 20
7.624347383718259
 30
0.0
 70
    32
  0
VERTEX
  5
271A
330
25DD
100
AcDbEntity
  8
SAVED
 62
     4
100
AcDbVertex
100
AcDb3dPolylineVertex
 10
4.218868956824744
 20
7.624417383718258
 30
0.0
 70
    32
  0
VERTEX
  5
271B
330
25DD
100
AcDbEntity
  8
SAVED
 62
     4
100
AcDbVertex
100
AcDb3dPolylineVertex
 10
4.219478956824744
 20
7.624477383718259
 30
0.0
 70
    32
  0
VERTEX
  5
271C
330
25DD
100
AcDbEntity
  8
SAVED
 62
     4
100
AcDbVertex
100
AcDb3dPolylineVertex
 10
4.220078956824743
 20
7.624547383718258
 30
0.0
 70
    32
  0
VERTEX
  5
271D
330
25DD
100
AcDbEntity
  8
SAVED
 62
     4
100
AcDbVertex
100
AcDb3dPolylineVertex
 10
4.220658956824744
 20
7.624607383718258
 30
0.0
 70
    32
  0
SEQEND
  5
271E
330
25DD
100
AcDbEntity
  8
SAVED
 62
     4
  0
LWPOLYLINE
  5
271F
330
188C
100
AcDbEntity
  8
SAVED
 62
     4
100
AcDbPolyline
 90
        2
 70
     0
 43
0.0
 10
3.439314984838389
 20
7.671202435078663
 10
3.857968965866102
 20
7.624609960628498
  0
LWPOLYLINE
  5
2723
330
188C
100
AcDbEntity
  8
SAVED
 62
     4
100
AcDbPolyline
 90
        2
 70
     0
 43
0.0
 10
4.639314984838389
 20
7.671202435078663
 10
4.220661003810675
 20
7.624609960628498
  0
LWPOLYLINE
  5
2727
330
188C
100
AcDbEntity
  8
SAVED
  6
HIDDEN2
 62
     4
100
AcDbPolyline
 90
        3
 70
     0
 43
0.0
 10
4.623814984838401
 20
7.586202435078668
 10
4.471814984838384
 20
7.586202435078668
 10
4.471814984838384
 20
7.631202435078662
  0
LWPOLYLINE
  5
272C
330
188C
100
AcDbEntity
  8
SAVED
  6
HIDDEN2
 62
     4
100
AcDbPolyline
 90
        4
 70
     0
 43
0.0
 10
4.623814984838401
 20
7.401202435078666
 10
4.623814984838401
 20
7.631202435078662
 10
3.454814984838376
 20
7.631202435078662
 10
3.454814984838376
 20
7.401202435078666
  0
LWPOLYLINE
  5
2732
330
188C
100
AcDbEntity
  8
COVER
  6
HIDDEN2
100
AcDbPolyline
 90
        4
 70
     0
 43
0.0
 10
7.005751235626949
 20
4.59795513954345
 10
6.875751235626946
 20
4.59795513954345
 10
6.875751235626946
 20
4.659955139543451
 10
7.005751235626949
 20
4.659955139543451
  0
LWPOLYLINE
  5
2738
330
188C
100
AcDbEntity
  8
SAVED
  6
HIDDEN2
 62
     4
100
AcDbPolyline
 90
        3
 70
     0
 43
0.0
 10
4.623814984838401
 20
7.501202435078663
 10
4.542314984838384
 20
7.501202435078663
 10
4.542314984838384
 20
7.631202435078662
  0
LWPOLYLINE
  5
273D
330
188C
100
AcDbEntity
  8
SAVED
  6
HIDDEN2
 62
     4
100
AcDbPolyline
 90
        3
 70
     0
 43
0.0
 10
3.454814984838376
 20
7.501202435078663
 10
3.536314984838393
 20
7.501202435078663
 10
3.536314984838393
 20
7.631202435078662
  0
LWPOLYLINE
  5
2742
330
188C
100
AcDbEntity
  8
SAVED
  6
HIDDEN2
 62
     4
100
AcDbPolyline
 90
        3
 70
     0
 43
0.0
 10
3.454814984838376
 20
7.586202435078668
 10
3.606814984838393
 20
7.586202435078668
 10
3.606814984838393
 20
7.631202435078662
  0
LINE
  5
2747
330
188C
100
AcDbEntity
  8
SAVED
  6
HIDDEN2
 62
     4
100
AcDbLine
 10
3.566814984838383
 20
7.586202435078668
 30
0.0
 11
3.566814984838383
 21
7.631202435078662
 31
0.0
  0
LINE
  5
2748
330
188C
100
AcDbEntity
  8
SAVED
  6
HIDDEN2
 62
     4
100
AcDbLine
 10
4.511814984838394
 20
7.586202435078668
 30
0.0
 11
4.511814984838394
 21
7.631202435078662
 31
0.0
  0
ARC
  5
2749
330
188C
100
AcDbEntity
  8
BASE
100
AcDbCircle
 10
4.97623126520367
 20
7.935363206220399
 30
0.0
 40
0.078
100
AcDbArc
 50
270.0
 51
0.0000000000001272
  0
LINE
  5
274A
330
188C
100
AcDbEntity
  8
BASE
100
AcDbLine
 10
4.97623126520367
 20
7.8573632062204
 30
0.0
 11
3.767231265203652
 21
7.8573632062204
 31
0.0
  0
LWPOLYLINE
  5
274B
330
188C
100
AcDbEntity
  8
SAVED
  6
HIDDEN2
 62
     4
100
AcDbPolyline
 90
        4
 70
     0
 43
0.0
 10
3.531314984838393
 20
7.333202435078665
 10
3.531314984838393
 20
7.343202435078663
 10
4.547314984838393
 20
7.343202435078663
 10
4.547314984838393
 20
7.333202435078665
  0
LINE
  5
2751
330
188C
100
AcDbEntity
  8
SAVED
  6
HIDDEN2
 62
     4
100
AcDbLine
 10
4.542314984838393
 20
7.538202435078662
 30
0.0
 11
3.536314984838392
 21
7.538202435078662
 31
0.0
  0
LINE
  5
2752
330
188C
100
AcDbEntity
  8
BASE
100
AcDbLine
 10
5.054231265203669
 20
8.045363206220399
 30
0.0
 11
3.689231265203654
 21
8.045363206220399
 31
0.0
  0
LWPOLYLINE
  5
2753
330
188C
100
AcDbEntity
  8
SAVED
  6
HIDDEN2
 62
     4
100
AcDbPolyline
 90
        4
 70
     0
 43
0.0
 10
3.418814984838379
 20
7.521202435078665
 10
3.418814984838379
 20
7.395202435078663
 10
4.659814984838396
 20
7.395202435078666
 10
4.659814984838398
 20
7.521202435078665
  0
LWPOLYLINE
  5
2759
330
188C
100
AcDbEntity
  8
SAVED
  6
HIDDEN2
 62
     4
100
AcDbPolyline
 90
        4
 70
     0
 43
0.0
 10
3.611314984838393
 20
7.395202435078663
 10
3.611314984838393
 20
7.380202435078668
 10
4.467314984838392
 20
7.380202435078665
 10
4.467314984838392
 20
7.395202435078663
  0
ARC
  5
275F
330
188C
100
AcDbEntity
  8
BASE
100
AcDbCircle
 10
3.767231265203652
 20
7.935363206220399
 30
0.0
 40
0.078
100
AcDbArc
 50
180.0
 51
270.0
  0
LINE
  5
2760
330
188C
100
AcDbEntity
  8
BASE
100
AcDbLine
 10
3.689231265203654
 20
7.935363206220399
 30
0.0
 11
3.689231265203654
 21
8.045363206220399
 31
0.0
  0
LINE
  5
2761
330
188C
100
AcDbEntity
  8
SAVED
  6
HIDDEN2
 62
     4
100
AcDbLine
 10
3.536314984838392
 20
7.538202435078662
 30
0.0
 11
3.536314984838385
 21
7.521202435078665
 31
0.0
  0
LINE
  5
2762
330
188C
100
AcDbEntity
  8
SAVED
  6
HIDDEN2
 62
     4
100
AcDbLine
 10
3.571249740282949
 20
7.538202435078662
 30
0.0
 11
3.571249740282942
 21
7.521202435078665
 31
0.0
  0
LINE
  5
2763
330
188C
100
AcDbEntity
  8
SAVED
  6
HIDDEN2
 62
     4
100
AcDbLine
 10
3.536314984838385
 20
7.395202435078665
 30
0.0
 11
3.536314984838385
 21
7.521202435078665
 31
0.0
  0
LINE
  5
2764
330
188C
100
AcDbEntity
  8
SAVED
  6
HIDDEN2
 62
     4
100
AcDbLine
 10
3.571249740282942
 20
7.395202435078665
 30
0.0
 11
3.571249740282942
 21
7.521202435078665
 31
0.0
  0
LINE
  5
2765
330
188C
100
AcDbEntity
  8
SAVED
  6
HIDDEN2
 62
     4
100
AcDbLine
 10
3.599285969527778
 20
7.538202435078662
 30
0.0
 11
3.599285969527771
 21
7.521202435078665
 31
0.0
  0
LINE
  5
2766
330
188C
100
AcDbEntity
  8
SAVED
  6
HIDDEN2
 62
     4
100
AcDbLine
 10
3.599285969527771
 20
7.395202435078665
 30
0.0
 11
3.599285969527771
 21
7.521202435078665
 31
0.0
  0
LINE
  5
2767
330
188C
100
AcDbEntity
  8
SAVED
  6
HIDDEN2
 62
     4
100
AcDbLine
 10
3.691505391877566
 20
7.538202435078662
 30
0.0
 11
3.691505391877558
 21
7.521202435078665
 31
0.0
  0
LINE
  5
2768
330
188C
100
AcDbEntity
  8
SAVED
  6
HIDDEN2
 62
     4
100
AcDbLine
 10
3.758184524238876
 20
7.395202435078665
 30
0.0
 11
3.758184524238876
 21
7.538202435078662
 31
0.0
  0
LINE
  5
2769
330
188C
100
AcDbEntity
  8
SAVED
  6
HIDDEN2
 62
     4
100
AcDbLine
 10
3.72766140341895
 20
7.395202435078665
 30
0.0
 11
3.72766140341895
 21
7.538202435078662
 31
0.0
  0
LINE
  5
276A
330
188C
100
AcDbEntity
  8
SAVED
  6
HIDDEN2
 62
     4
100
AcDbLine
 10
3.691505391877558
 20
7.395202435078665
 30
0.0
 11
3.691505391877558
 21
7.521202435078665
 31
0.0
  0
LINE
  5
276B
330
188C
100
AcDbEntity
  8
SAVED
  6
HIDDEN2
 62
     4
100
AcDbLine
 10
3.723778755593563
 20
7.395202435078665
 30
0.0
 11
3.723778755593563
 21
7.538202435078662
 31
0.0
  0
LINE
  5
276C
330
188C
100
AcDbEntity
  8
SAVED
  6
HIDDEN2
 62
     4
100
AcDbLine
 10
3.751814984838389
 20
7.395202435078665
 30
0.0
 11
3.751814984838389
 21
7.538202435078662
 31
0.0
  0
LINE
  5
276D
330
188C
100
AcDbEntity
  8
SAVED
  6
HIDDEN2
 62
     4
100
AcDbLine
 10
3.794340535780276
 20
7.538202435078662
 30
0.0
 11
3.794340535780269
 21
7.521202435078665
 31
0.0
  0
LINE
  5
276E
330
188C
100
AcDbEntity
  8
SAVED
  6
HIDDEN2
 62
     4
100
AcDbLine
 10
3.844314984838391
 20
7.333202435078664
 30
0.0
 11
3.844314984838391
 21
7.395202435078665
 31
0.0
  0
LINE
  5
276F
330
188C
100
AcDbEntity
  8
SAVED
  6
HIDDEN2
 62
     4
100
AcDbLine
 10
3.794340535780269
 20
7.395202435078665
 30
0.0
 11
3.794340535780269
 21
7.521202435078665
 31
0.0
  0
LINE
  5
2770
330
188C
100
AcDbEntity
  8
SAVED
  6
HIDDEN2
 62
     4
100
AcDbLine
 10
4.284289433896514
 20
7.538202435078662
 30
0.0
 11
4.284289433896507
 21
7.521202435078665
 31
0.0
  0
LINE
  5
2771
330
188C
100
AcDbEntity
  8
SAVED
  6
HIDDEN2
 62
     4
100
AcDbLine
 10
4.234314984838386
 20
7.333202435078664
 30
0.0
 11
4.234314984838386
 21
7.395202435078665
 31
0.0
  0
LINE
  5
2772
330
188C
100
AcDbEntity
  8
SAVED
  6
HIDDEN2
 62
     4
100
AcDbLine
 10
4.326814984838389
 20
7.395202435078665
 30
0.0
 11
4.326814984838389
 21
7.538202435078668
 31
0.0
  0
LINE
  5
2773
330
188C
100
AcDbEntity
  8
SAVED
  6
HIDDEN2
 62
     4
100
AcDbLine
 10
4.284289433896509
 20
7.395202435078665
 30
0.0
 11
4.284289433896507
 21
7.521202435078665
 31
0.0
  0
LINE
  5
2774
330
188C
100
AcDbEntity
  8
SAVED
  6
HIDDEN2
 62
     4
100
AcDbLine
 10
4.320445445437901
 20
7.395202435078665
 30
0.0
 11
4.320445445437901
 21
7.538202435078668
 31
0.0
  0
LINE
  5
2775
330
188C
100
AcDbEntity
  8
SAVED
  6
HIDDEN2
 62
     4
100
AcDbLine
 10
4.387124577799227
 20
7.538202435078662
 30
0.0
 11
4.387124577799219
 21
7.521202435078665
 31
0.0
  0
LINE
  5
2776
330
188C
100
AcDbEntity
  8
SAVED
  6
HIDDEN2
 62
     4
100
AcDbLine
 10
4.354851214083215
 20
7.395202435078665
 30
0.0
 11
4.354851214083215
 21
7.538202435078668
 31
0.0
  0
LINE
  5
2777
330
188C
100
AcDbEntity
  8
SAVED
  6
HIDDEN2
 62
     4
100
AcDbLine
 10
4.387124577799219
 20
7.395202435078665
 30
0.0
 11
4.387124577799219
 21
7.521202435078665
 31
0.0
  0
LINE
  5
2778
330
188C
100
AcDbEntity
  8
SAVED
  6
HIDDEN2
 62
     4
100
AcDbLine
 10
4.479344000149014
 20
7.538202435078662
 30
0.0
 11
4.479344000149007
 21
7.521202435078665
 31
0.0
  0
LINE
  5
2779
330
188C
100
AcDbEntity
  8
SAVED
  6
HIDDEN2
 62
     4
100
AcDbLine
 10
4.507380229393842
 20
7.538202435078662
 30
0.0
 11
4.507380229393835
 21
7.521202435078665
 31
0.0
  0
LINE
  5
277A
330
188C
100
AcDbEntity
  8
SAVED
  6
HIDDEN2
 62
     4
100
AcDbLine
 10
4.479344000149007
 20
7.395202435078665
 30
0.0
 11
4.479344000149007
 21
7.521202435078665
 31
0.0
  0
LINE
  5
277B
330
188C
100
AcDbEntity
  8
SAVED
  6
HIDDEN2
 62
     4
100
AcDbLine
 10
4.507380229393835
 20
7.395202435078665
 30
0.0
 11
4.507380229393835
 21
7.521202435078665
 31
0.0
  0
LINE
  5
277C
330
188C
100
AcDbEntity
  8
SAVED
  6
HIDDEN2
 62
     4
100
AcDbLine
 10
4.350968566257827
 20
7.395202435078665
 30
0.0
 11
4.350968566257827
 21
7.538202435078668
 31
0.0
  0
LINE
  5
277D
330
188C
100
AcDbEntity
  8
BASE
100
AcDbLine
 10
5.054231265203669
 20
7.935363206220399
 30
0.0
 11
5.054231265203669
 21
8.045363206220399
 31
0.0
  0
LINE
  5
277E
330
188C
100
AcDbEntity
  8
SAVED
  6
HIDDEN2
 62
     4
100
AcDbLine
 10
4.5423149848384
 20
7.538202435078662
 30
0.0
 11
4.542314984838393
 21
7.521202435078665
 31
0.0
  0
LINE
  5
277F
330
188C
100
AcDbEntity
  8
SAVED
  6
HIDDEN2
 62
     4
100
AcDbLine
 10
4.542314984838393
 20
7.395202435078665
 30
0.0
 11
4.542314984838393
 21
7.521202435078665
 31
0.0
  0
LINE
  5
2780
330
188C
100
AcDbEntity
  8
BASE
100
AcDbLine
 10
6.895751235626947
 20
3.384955139543449
 30
0.0
 11
6.895751235626947
 21
5.619955139543448
 31
0.0
  0
LINE
  5
2781
330
188C
100
AcDbEntity
  8
BASE
100
AcDbLine
 10
6.707751235626949
 20
3.415955139543447
 30
0.0
 11
6.707751235626949
 21
5.588955139543447
 31
0.0
  0
LWPOLYLINE
  5
2782
330
188C
100
AcDbEntity
  8
BASE
  6
HIDDEN2
100
AcDbPolyline
 90
        4
 70
     0
 43
0.0
 10
6.895751235626947
 20
3.44695513954345
 10
6.76975123562695
 20
3.446955139543448
 10
6.76975123562695
 20
5.557955139543448
 10
6.895751235626947
 20
5.557955139543448
  0
LINE
  5
2788
330
188C
100
AcDbEntity
  8
BASE
  6
HIDDEN2
100
AcDbLine
 10
6.76975123562695
 20
3.982955139543447
 30
0.0
 11
6.895751235626947
 21
3.982955139543447
 31
0.0
  0
LINE
  5
2789
330
188C
100
AcDbEntity
  8
BASE
  6
HIDDEN2
100
AcDbLine
 10
6.76975123562695
 20
4.02795513954345
 30
0.0
 11
6.895751235626947
 21
4.02795513954345
 31
0.0
  0
LINE
  5
278A
330
188C
100
AcDbEntity
  8
BASE
100
AcDbLine
 10
6.738751235626947
 20
3.384955139543449
 30
0.0
 11
6.895751235626947
 21
3.384955139543449
 31
0.0
  0
ARC
  5
278B
330
188C
100
AcDbEntity
  8
BASE
100
AcDbCircle
 10
6.738751235626947
 20
3.415955139543447
 30
0.0
 40
0.031
100
AcDbArc
 50
180.0
 51
270.0
  0
LWPOLYLINE
  5
278C
330
188C
100
AcDbEntity
  8
BASE
  6
HIDDEN2
100
AcDbPolyline
 90
        4
 70
     0
 43
0.0
 10
6.895751235626947
 20
3.982955139543447
 10
6.912751235626947
 20
3.982955139543447
 10
6.912751235626947
 20
4.02795513954345
 10
6.895751235626947
 20
4.02795513954345
  0
LINE
  5
2792
330
188C
100
AcDbEntity
  8
BASE
  6
HIDDEN2
100
AcDbLine
 10
6.76975123562695
 20
4.679960490232552
 30
0.0
 11
6.895751235626947
 21
4.679960490232552
 31
0.0
  0
LINE
  5
2793
330
188C
100
AcDbEntity
  8
BASE
  6
HIDDEN2
100
AcDbLine
 10
6.76975123562695
 20
4.715159493765772
 30
0.0
 11
6.895751235626947
 21
4.715159493765772
 31
0.0
  0
LINE
  5
2794
330
188C
100
AcDbEntity
  8
BASE
  6
HIDDEN2
100
AcDbLine
 10
6.76975123562695
 20
4.55847016350498
 30
0.0
 11
6.895751235626947
 21
4.55847016350498
 31
0.0
  0
LINE
  5
2795
330
188C
100
AcDbEntity
  8
BASE
  6
HIDDEN2
100
AcDbLine
 10
6.76975123562695
 20
4.593669167038196
 30
0.0
 11
6.912751235626947
 21
4.593669167038196
 31
0.0
  0
LINE
  5
2796
330
188C
100
AcDbEntity
  8
BASE
100
AcDbLine
 10
6.738751235626947
 20
5.619955139543448
 30
0.0
 11
6.895751235626947
 21
5.619955139543448
 31
0.0
  0
LINE
  5
2797
330
188C
100
AcDbEntity
  8
BASE
  6
HIDDEN2
100
AcDbLine
 10
6.76975123562695
 20
5.362568896142455
 30
0.0
 11
6.895751235626947
 21
5.362568896142455
 31
0.0
  0
LINE
  5
2798
330
188C
100
AcDbEntity
  8
BASE
  6
HIDDEN2
100
AcDbLine
 10
6.76975123562695
 20
5.245789877926801
 30
0.0
 11
6.895751235626947
 21
5.245789877926801
 31
0.0
  0
LINE
  5
2799
330
188C
100
AcDbEntity
  8
BASE
  6
HIDDEN2
100
AcDbLine
 10
6.76975123562695
 20
5.272580600750545
 30
0.0
 11
6.912751235626947
 21
5.272580600750545
 31
0.0
  0
LINE
  5
279A
330
188C
100
AcDbEntity
  8
BASE
  6
HIDDEN2
100
AcDbLine
 10
6.76975123562695
 20
5.335778173318713
 30
0.0
 11
6.895751235626947
 21
5.335778173318711
 31
0.0
  0
LWPOLYLINE
  5
279B
330
188C
100
AcDbEntity
  8
BASE
  6
HIDDEN2
100
AcDbPolyline
 90
        4
 70
     0
 43
0.0
 10
6.76975123562695
 20
4.526982063529908
 10
6.754751235626949
 20
4.526982063529908
 10
6.754751235626949
 20
5.346982063529909
 10
6.76975123562695
 20
5.346982063529909
  0
LWPOLYLINE
  5
27A1
330
188C
100
AcDbEntity
  8
BASE
  6
HIDDEN2
100
AcDbPolyline
 90
        4
 70
     0
 43
0.0
 10
6.707751235626949
 20
5.196955139543449
 10
6.717751235626947
 20
5.196955139543449
 10
6.71775123562695
 20
4.180955139543449
 10
6.707751235626949
 20
4.180955139543447
  0
LINE
  5
27A7
330
188C
100
AcDbEntity
  8
BASE
  6
HIDDEN2
100
AcDbLine
 10
6.707751235626949
 20
5.37195513954345
 30
0.0
 11
6.76975123562695
 21
5.371955139543448
 31
0.0
  0
ARC
  5
27A8
330
188C
100
AcDbEntity
  8
BASE
100
AcDbCircle
 10
6.738751235626947
 20
5.588955139543447
 30
0.0
 40
0.031
100
AcDbArc
 50
89.99999999999998
 51
180.0
  0
LINE
  5
27A9
330
188C
100
AcDbEntity
  8
BASE
  6
HIDDEN2
100
AcDbLine
 10
6.707751235626949
 20
5.521955139543449
 30
0.0
 11
6.76975123562695
 21
5.521955139543449
 31
0.0
  0
LWPOLYLINE
  5
27AA
330
188C
100
AcDbEntity
  8
COVER
  6
HIDDEN2
100
AcDbPolyline
 90
        4
 70
     0
 43
0.0
 10
6.895751235626947
 20
4.715159493765772
 10
6.912751235626947
 20
4.715159493765772
 10
6.912751235626947
 20
4.55847016350498
 10
6.895751235626947
 20
4.55847016350498
  0
LINE
  5
27B0
330
188C
100
AcDbEntity
  8
COVER
  6
HIDDEN2
100
AcDbLine
 10
6.895751235626947
 20
4.679960490232552
 30
0.0
 11
6.912751235626947
 21
4.679960490232552
 31
0.0
  0
LINE
  5
27B1
330
188C
100
AcDbEntity
  8
COVER
  6
HIDDEN2
100
AcDbLine
 10
6.895751235626947
 20
5.335778173318711
 30
0.0
 11
6.912751235626947
 21
5.335778173318711
 31
0.0
  0
LWPOLYLINE
  5
27B2
330
188C
100
AcDbEntity
  8
COVER
  6
HIDDEN2
100
AcDbPolyline
 90
        4
 70
     0
 43
0.0
 10
6.895751235626947
 20
5.245789877926801
 10
6.912751235626947
 20
5.245789877926801
 10
6.912751235626947
 20
5.362568896142455
 10
6.895751235626947
 20
5.362568896142455
  0
LINE
  5
27B8
330
188C
100
AcDbEntity
  8
COVER
100
AcDbLine
 10
6.895751235626947
 20
3.44295513954345
 30
0.0
 11
6.925751235626947
 21
3.44295513954345
 31
0.0
  0
LINE
  5
27B9
330
188C
100
AcDbEntity
  8
COVER
100
AcDbLine
 10
6.895751235626947
 20
5.561955139543445
 30
0.0
 11
6.925751235626947
 21
5.561955139543445
 31
0.0
  0
DIMENSION
  5
27BA
330
188C
100
AcDbEntity
  8
DIM
100
AcDbDimension
  2
*D1
 10
7.107751235626949
 20
2.923238396308246
 30
0.0
 11
6.093688735626948
 21
2.923238396308246
 31
0.0
 70
   160
 71
     5
 42
0.4000000000000004
  3
DIM
100
AcDbAlignedDimension
 13
6.707751235626949
 23
3.415955139543447
 33
0.0
 14
7.107751235626949
 24
3.879455139543449
 34
0.0
100
AcDbRotatedDimension
  0
DIMENSION
  5
27C8
330
188C
100
AcDbEntity
  8
DIM
100
AcDbDimension
  2
*D2
 10
7.157751235626948
 20
6.208858741659096
 30
0.0
 11
8.092126235626947
 21
6.208858741659096
 31
0.0
 70
   160
  1
<>\P(W/BUTTONS)
 71
     5
 42
0.4499999999999993
  3
DIM
100
AcDbAlignedDimension
 13
6.707751235626949
 23
5.588955139543447
 33
0.0
 14
7.157751235626948
 24
4.85495513954345
 34
0.0
100
AcDbRotatedDimension
  0
LWPOLYLINE
  5
27D6
330
188C
100
AcDbEntity
  8
COVER
100
AcDbPolyline
 90
        4
 70
     1
 43
0.0
 10
7.107751235626949
 20
4.85495513954345
 10
7.157751235626948
 20
4.85495513954345
 10
7.157751235626948
 20
3.914955139543449
 10
7.107751235626949
 20
3.914955139543449
  0
POLYLINE
  5
27DC
330
188C
100
AcDbEntity
  8
BASE
100
AcDb3dPolyline
 66
     1
 10
0.0
 20
0.0
 30
0.0
 70
     8
  0
VERTEX
  5
27DD
330
27DC
100
AcDbEntity
  8
0
100
AcDbVertex
100
AcDb3dPolylineVertex
 10
4.086305237190016
 20
5.446957383718259
 30
0.0
 70
    32
  0
VERTEX
  5
27DE
330
27DC
100
AcDbEntity
  8
0
100
AcDbVertex
100
AcDb3dPolylineVertex
 10
4.086545237190017
 20
5.443277383718259
 30
0.0
 70
    32
  0
VERTEX
  5
27DF
330
27DC
100
AcDbEntity
  8
0
100
AcDbVertex
100
AcDb3dPolylineVertex
 10
4.087245237190016
 20
5.439607383718258
 30
0.0
 70
    32
  0
VERTEX
  5
27E0
330
27DC
100
AcDbEntity
  8
0
100
AcDbVertex
100
AcDb3dPolylineVertex
 10
4.088415237190016
 20
5.435947383718258
 30
0.0
 70
    32
  0
VERTEX
  5
27E1
330
27DC
100
AcDbEntity
  8
0
100
AcDbVertex
100
AcDb3dPolylineVertex
 10
4.090055237190016
 20
5.432327383718258
 30
0.0
 70
    32
  0
VERTEX
  5
27E2
330
27DC
100
AcDbEntity
  8
0
100
AcDbVertex
100
AcDb3dPolylineVertex
 10
4.092155237190016
 20
5.428727383718258
 30
0.0
 70
    32
  0
VERTEX
  5
27E3
330
27DC
100
AcDbEntity
  8
0
100
AcDbVertex
100
AcDb3dPolylineVertex
 10
4.094705237190016
 20
5.425187383718259
 30
0.0
 70
    32
  0
VERTEX
  5
27E4
330
27DC
100
AcDbEntity
  8
0
100
AcDbVertex
100
AcDb3dPolylineVertex
 10
4.097705237190016
 20
5.421687383718258
 30
0.0
 70
    32
  0
VERTEX
  5
27E5
330
27DC
100
AcDbEntity
  8
0
100
AcDbVertex
100
AcDb3dPolylineVertex
 10
4.101155237190016
 20
5.418257383718258
 30
0.0
 70
    32
  0
VERTEX
  5
27E6
330
27DC
100
AcDbEntity
  8
0
100
AcDbVertex
100
AcDb3dPolylineVertex
 10
4.105035237190016
 20
5.414887383718259
 30
0.0
 70
    32
  0
VERTEX
  5
27E7
330
27DC
100
AcDbEntity
  8
0
100
AcDbVertex
100
AcDb3dPolylineVertex
 10
4.109335237190016
 20
5.411597383718258
 30
0.0
 70
    32
  0
VERTEX
  5
27E8
330
27DC
100
AcDbEntity
  8
0
100
AcDbVertex
100
AcDb3dPolylineVertex
 10
4.114055237190016
 20
5.408397383718258
 30
0.0
 70
    32
  0
VERTEX
  5
27E9
330
27DC
100
AcDbEntity
  8
0
100
AcDbVertex
100
AcDb3dPolylineVertex
 10
4.119175237190016
 20
5.405287383718258
 30
0.0
 70
    32
  0
VERTEX
  5
27EA
330
27DC
100
AcDbEntity
  8
0
100
AcDbVertex
100
AcDb3dPolylineVertex
 10
4.124685237190016
 20
5.402277383718258
 30
0.0
 70
    32
  0
VERTEX
  5
27EB
330
27DC
100
AcDbEntity
  8
0
100
AcDbVertex
100
AcDb3dPolylineVertex
 10
4.130575237190016
 20
5.399377383718258
 30
0.0
 70
    32
  0
VERTEX
  5
27EC
330
27DC
100
AcDbEntity
  8
0
100
AcDbVertex
100
AcDb3dPolylineVertex
 10
4.136825237190016
 20
5.396587383718259
 30
0.0
 70
    32
  0
VERTEX
  5
27ED
330
27DC
100
AcDbEntity
  8
0
100
AcDbVertex
100
AcDb3dPolylineVertex
 10
4.143425237190016
 20
5.393917383718259
 30
0.0
 70
    32
  0
VERTEX
  5
27EE
330
27DC
100
AcDbEntity
  8
0
100
AcDbVertex
100
AcDb3dPolylineVertex
 10
4.150355237190016
 20
5.391387383718258
 30
0.0
 70
    32
  0
VERTEX
  5
27EF
330
27DC
100
AcDbEntity
  8
0
100
AcDbVertex
100
AcDb3dPolylineVertex
 10
4.157605237190017
 20
5.388977383718258
 30
0.0
 70
    32
  0
VERTEX
  5
27F0
330
27DC
100
AcDbEntity
  8
0
100
AcDbVertex
100
AcDb3dPolylineVertex
 10
4.165145237190016
 20
5.386717383718258
 30
0.0
 70
    32
  0
VERTEX
  5
27F1
330
27DC
100
AcDbEntity
  8
0
100
AcDbVertex
100
AcDb3dPolylineVertex
 10
4.172975237190017
 20
5.384597383718258
 30
0.0
 70
    32
  0
VERTEX
  5
27F2
330
27DC
100
AcDbEntity
  8
0
100
AcDbVertex
100
AcDb3dPolylineVertex
 10
4.181055237190016
 20
5.382627383718259
 30
0.0
 70
    32
  0
VERTEX
  5
27F3
330
27DC
100
AcDbEntity
  8
0
100
AcDbVertex
100
AcDb3dPolylineVertex
 10
4.189385237190016
 20
5.380807383718258
 30
0.0
 70
    32
  0
VERTEX
  5
27F4
330
27DC
100
AcDbEntity
  8
0
100
AcDbVertex
100
AcDb3dPolylineVertex
 10
4.197935237190017
 20
5.379157383718259
 30
0.0
 70
    32
  0
VERTEX
  5
27F5
330
27DC
100
AcDbEntity
  8
0
100
AcDbVertex
100
AcDb3dPolylineVertex
 10
4.206685237190017
 20
5.377667383718258
 30
0.0
 70
    32
  0
VERTEX
  5
27F6
330
27DC
100
AcDbEntity
  8
0
100
AcDbVertex
100
AcDb3dPolylineVertex
 10
4.215615237190016
 20
5.376337383718258
 30
0.0
 70
    32
  0
VERTEX
  5
27F7
330
27DC
100
AcDbEntity
  8
0
100
AcDbVertex
100
AcDb3dPolylineVertex
 10
4.224705237190017
 20
5.375187383718258
 30
0.0
 70
    32
  0
VERTEX
  5
27F8
330
27DC
100
AcDbEntity
  8
0
100
AcDbVertex
100
AcDb3dPolylineVertex
 10
4.233925237190017
 20
5.374207383718259
 30
0.0
 70
    32
  0
VERTEX
  5
27F9
330
27DC
100
AcDbEntity
  8
0
100
AcDbVertex
100
AcDb3dPolylineVertex
 10
4.243265237190017
 20
5.373397383718258
 30
0.0
 70
    32
  0
VERTEX
  5
27FA
330
27DC
100
AcDbEntity
  8
0
100
AcDbVertex
100
AcDb3dPolylineVertex
 10
4.252695237190017
 20
5.372767383718258
 30
0.0
 70
    32
  0
VERTEX
  5
27FB
330
27DC
100
AcDbEntity
  8
0
100
AcDbVertex
100
AcDb3dPolylineVertex
 10
4.262195237190017
 20
5.372317383718258
 30
0.0
 70
    32
  0
VERTEX
  5
27FC
330
27DC
100
AcDbEntity
  8
0
100
AcDbVertex
100
AcDb3dPolylineVertex
 10
4.271735237190016
 20
5.372047383718259
 30
0.0
 70
    32
  0
VERTEX
  5
27FD
330
27DC
100
AcDbEntity
  8
0
100
AcDbVertex
100
AcDb3dPolylineVertex
 10
4.281305237190016
 20
5.371957383718259
 30
0.0
 70
    32
  0
VERTEX
  5
27FE
330
27DC
100
AcDbEntity
  8
0
100
AcDbVertex
100
AcDb3dPolylineVertex
 10
4.290875237190016
 20
5.372047383718259
 30
0.0
 70
    32
  0
VERTEX
  5
27FF
330
27DC
100
AcDbEntity
  8
0
100
AcDbVertex
100
AcDb3dPolylineVertex
 10
4.300425237190016
 20
5.372317383718258
 30
0.0
 70
    32
  0
VERTEX
  5
2800
330
27DC
100
AcDbEntity
  8
0
100
AcDbVertex
100
AcDb3dPolylineVertex
 10
4.309925237190016
 20
5.372767383718258
 30
0.0
 70
    32
  0
VERTEX
  5
2801
330
27DC
100
AcDbEntity
  8
0
100
AcDbVertex
100
AcDb3dPolylineVertex
 10
4.319355237190016
 20
5.373397383718258
 30
0.0
 70
    32
  0
VERTEX
  5
2802
330
27DC
100
AcDbEntity
  8
0
100
AcDbVertex
100
AcDb3dPolylineVertex
 10
4.328685237190017
 20
5.374207383718259
 30
0.0
 70
    32
  0
VERTEX
  5
2803
330
27DC
100
AcDbEntity
  8
0
100
AcDbVertex
100
AcDb3dPolylineVertex
 10
4.337915237190016
 20
5.375187383718258
 30
0.0
 70
    32
  0
VERTEX
  5
2804
330
27DC
100
AcDbEntity
  8
0
100
AcDbVertex
100
AcDb3dPolylineVertex
 10
4.347005237190017
 20
5.376337383718258
 30
0.0
 70
    32
  0
VERTEX
  5
2805
330
27DC
100
AcDbEntity
  8
0
100
AcDbVertex
100
AcDb3dPolylineVertex
 10
4.355935237190016
 20
5.377667383718258
 30
0.0
 70
    32
  0
VERTEX
  5
2806
330
27DC
100
AcDbEntity
  8
0
100
AcDbVertex
100
AcDb3dPolylineVertex
 10
4.364685237190016
 20
5.379157383718259
 30
0.0
 70
    32
  0
VERTEX
  5
2807
330
27DC
100
AcDbEntity
  8
0
100
AcDbVertex
100
AcDb3dPolylineVertex
 10
4.373235237190017
 20
5.380807383718258
 30
0.0
 70
    32
  0
VERTEX
  5
2808
330
27DC
100
AcDbEntity
  8
0
100
AcDbVertex
100
AcDb3dPolylineVertex
 10
4.381555237190016
 20
5.382627383718259
 30
0.0
 70
    32
  0
VERTEX
  5
2809
330
27DC
100
AcDbEntity
  8
0
100
AcDbVertex
100
AcDb3dPolylineVertex
 10
4.389645237190016
 20
5.384597383718258
 30
0.0
 70
    32
  0
VERTEX
  5
280A
330
27DC
100
AcDbEntity
  8
0
100
AcDbVertex
100
AcDb3dPolylineVertex
 10
4.397465237190016
 20
5.386717383718258
 30
0.0
 70
    32
  0
VERTEX
  5
280B
330
27DC
100
AcDbEntity
  8
0
100
AcDbVertex
100
AcDb3dPolylineVertex
 10
4.405015237190016
 20
5.388977383718258
 30
0.0
 70
    32
  0
VERTEX
  5
280C
330
27DC
100
AcDbEntity
  8
0
100
AcDbVertex
100
AcDb3dPolylineVertex
 10
4.412265237190016
 20
5.391387383718258
 30
0.0
 70
    32
  0
VERTEX
  5
280D
330
27DC
100
AcDbEntity
  8
0
100
AcDbVertex
100
AcDb3dPolylineVertex
 10
4.419195237190017
 20
5.393917383718259
 30
0.0
 70
    32
  0
VERTEX
  5
280E
330
27DC
100
AcDbEntity
  8
0
100
AcDbVertex
100
AcDb3dPolylineVertex
 10
4.425795237190016
 20
5.396587383718259
 30
0.0
 70
    32
  0
VERTEX
  5
280F
330
27DC
100
AcDbEntity
  8
0
100
AcDbVertex
100
AcDb3dPolylineVertex
 10
4.432045237190016
 20
5.399377383718258
 30
0.0
 70
    32
  0
VERTEX
  5
2810
330
27DC
100
AcDbEntity
  8
0
100
AcDbVertex
100
AcDb3dPolylineVertex
 10
4.437935237190016
 20
5.402277383718258
 30
0.0
 70
    32
  0
VERTEX
  5
2811
330
27DC
100
AcDbEntity
  8
0
100
AcDbVertex
100
AcDb3dPolylineVertex
 10
4.443445237190016
 20
5.405287383718258
 30
0.0
 70
    32
  0
VERTEX
  5
2812
330
27DC
100
AcDbEntity
  8
0
100
AcDbVertex
100
AcDb3dPolylineVertex
 10
4.448565237190016
 20
5.408397383718258
 30
0.0
 70
    32
  0
VERTEX
  5
2813
330
27DC
100
AcDbEntity
  8
0
100
AcDbVertex
100
AcDb3dPolylineVertex
 10
4.453285237190017
 20
5.411597383718258
 30
0.0
 70
    32
  0
VERTEX
  5
2814
330
27DC
100
AcDbEntity
  8
0
100
AcDbVertex
100
AcDb3dPolylineVertex
 10
4.457585237190016
 20
5.414887383718259
 30
0.0
 70
    32
  0
VERTEX
  5
2815
330
27DC
100
AcDbEntity
  8
0
100
AcDbVertex
100
AcDb3dPolylineVertex
 10
4.461465237190016
 20
5.418257383718258
 30
0.0
 70
    32
  0
VERTEX
  5
2816
330
27DC
100
AcDbEntity
  8
0
100
AcDbVertex
100
AcDb3dPolylineVertex
 10
4.464905237190016
 20
5.421687383718258
 30
0.0
 70
    32
  0
VERTEX
  5
2817
330
27DC
100
AcDbEntity
  8
0
100
AcDbVertex
100
AcDb3dPolylineVertex
 10
4.467915237190016
 20
5.425187383718259
 30
0.0
 70
    32
  0
VERTEX
  5
2818
330
27DC
100
AcDbEntity
  8
0
100
AcDbVertex
100
AcDb3dPolylineVertex
 10
4.470465237190016
 20
5.428727383718258
 30
0.0
 70
    32
  0
VERTEX
  5
2819
330
27DC
100
AcDbEntity
  8
0
100
AcDbVertex
100
AcDb3dPolylineVertex
 10
4.472565237190016
 20
5.432327383718258
 30
0.0
 70
    32
  0
VERTEX
  5
281A
330
27DC
100
AcDbEntity
  8
0
100
AcDbVertex
100
AcDb3dPolylineVertex
 10
4.474195237190016
 20
5.435947383718258
 30
0.0
 70
    32
  0
VERTEX
  5
281B
330
27DC
100
AcDbEntity
  8
0
100
AcDbVertex
100
AcDb3dPolylineVertex
 10
4.475365237190016
 20
5.439607383718258
 30
0.0
 70
    32
  0
VERTEX
  5
281C
330
27DC
100
AcDbEntity
  8
0
100
AcDbVertex
100
AcDb3dPolylineVertex
 10
4.476075237190016
 20
5.443277383718259
 30
0.0
 70
    32
  0
VERTEX
  5
281D
330
27DC
100
AcDbEntity
  8
0
100
AcDbVertex
100
AcDb3dPolylineVertex
 10
4.476305237190016
 20
5.446957383718259
 30
0.0
 70
    32
  0
VERTEX
  5
281E
330
27DC
100
AcDbEntity
  8
0
100
AcDbVertex
100
AcDb3dPolylineVertex
 10
4.476075237190016
 20
5.450637383718258
 30
0.0
 70
    32
  0
VERTEX
  5
281F
330
27DC
100
AcDbEntity
  8
0
100
AcDbVertex
100
AcDb3dPolylineVertex
 10
4.475365237190016
 20
5.454307383718258
 30
0.0
 70
    32
  0
VERTEX
  5
2820
330
27DC
100
AcDbEntity
  8
0
100
AcDbVertex
100
AcDb3dPolylineVertex
 10
4.474195237190016
 20
5.457957383718258
 30
0.0
 70
    32
  0
VERTEX
  5
2821
330
27DC
100
AcDbEntity
  8
0
100
AcDbVertex
100
AcDb3dPolylineVertex
 10
4.472565237190016
 20
5.461587383718258
 30
0.0
 70
    32
  0
VERTEX
  5
2822
330
27DC
100
AcDbEntity
  8
0
100
AcDbVertex
100
AcDb3dPolylineVertex
 10
4.470465237190016
 20
5.465177383718258
 30
0.0
 70
    32
  0
VERTEX
  5
2823
330
27DC
100
AcDbEntity
  8
0
100
AcDbVertex
100
AcDb3dPolylineVertex
 10
4.467915237190016
 20
5.468727383718258
 30
0.0
 70
    32
  0
VERTEX
  5
2824
330
27DC
100
AcDbEntity
  8
0
100
AcDbVertex
100
AcDb3dPolylineVertex
 10
4.464905237190016
 20
5.472217383718258
 30
0.0
 70
    32
  0
VERTEX
  5
2825
330
27DC
100
AcDbEntity
  8
0
100
AcDbVertex
100
AcDb3dPolylineVertex
 10
4.461465237190016
 20
5.475657383718258
 30
0.0
 70
    32
  0
VERTEX
  5
2826
330
27DC
100
AcDbEntity
  8
0
100
AcDbVertex
100
AcDb3dPolylineVertex
 10
4.457585237190016
 20
5.479017383718258
 30
0.0
 70
    32
  0
VERTEX
  5
2827
330
27DC
100
AcDbEntity
  8
0
100
AcDbVertex
100
AcDb3dPolylineVertex
 10
4.453285237190017
 20
5.482307383718258
 30
0.0
 70
    32
  0
VERTEX
  5
2828
330
27DC
100
AcDbEntity
  8
0
100
AcDbVertex
100
AcDb3dPolylineVertex
 10
4.448565237190016
 20
5.485517383718258
 30
0.0
 70
    32
  0
VERTEX
  5
2829
330
27DC
100
AcDbEntity
  8
0
100
AcDbVertex
100
AcDb3dPolylineVertex
 10
4.443445237190016
 20
5.488627383718259
 30
0.0
 70
    32
  0
VERTEX
  5
282A
330
27DC
100
AcDbEntity
  8
0
100
AcDbVertex
100
AcDb3dPolylineVertex
 10
4.437935237190016
 20
5.491637383718258
 30
0.0
 70
    32
  0
VERTEX
  5
282B
330
27DC
100
AcDbEntity
  8
0
100
AcDbVertex
100
AcDb3dPolylineVertex
 10
4.432045237190016
 20
5.494537383718259
 30
0.0
 70
    32
  0
VERTEX
  5
282C
330
27DC
100
AcDbEntity
  8
0
100
AcDbVertex
100
AcDb3dPolylineVertex
 10
4.425795237190016
 20
5.497317383718258
 30
0.0
 70
    32
  0
VERTEX
  5
282D
330
27DC
100
AcDbEntity
  8
0
100
AcDbVertex
100
AcDb3dPolylineVertex
 10
4.419195237190017
 20
5.499987383718258
 30
0.0
 70
    32
  0
VERTEX
  5
282E
330
27DC
100
AcDbEntity
  8
0
100
AcDbVertex
100
AcDb3dPolylineVertex
 10
4.412265237190016
 20
5.502527383718258
 30
0.0
 70
    32
  0
VERTEX
  5
282F
330
27DC
100
AcDbEntity
  8
0
100
AcDbVertex
100
AcDb3dPolylineVertex
 10
4.405015237190016
 20
5.504927383718258
 30
0.0
 70
    32
  0
VERTEX
  5
2830
330
27DC
100
AcDbEntity
  8
0
100
AcDbVertex
100
AcDb3dPolylineVertex
 10
4.397465237190016
 20
5.507197383718258
 30
0.0
 70
    32
  0
VERTEX
  5
2831
330
27DC
100
AcDbEntity
  8
0
100
AcDbVertex
100
AcDb3dPolylineVertex
 10
4.389645237190016
 20
5.509317383718259
 30
0.0
 70
    32
  0
VERTEX
  5
2832
330
27DC
100
AcDbEntity
  8
0
100
AcDbVertex
100
AcDb3dPolylineVertex
 10
4.381555237190016
 20
5.511287383718259
 30
0.0
 70
    32
  0
VERTEX
  5
2833
330
27DC
100
AcDbEntity
  8
0
100
AcDbVertex
100
AcDb3dPolylineVertex
 10
4.373235237190017
 20
5.513097383718259
 30
0.0
 70
    32
  0
VERTEX
  5
2834
330
27DC
100
AcDbEntity
  8
0
100
AcDbVertex
100
AcDb3dPolylineVertex
 10
4.364685237190016
 20
5.514757383718258
 30
0.0
 70
    32
  0
VERTEX
  5
2835
330
27DC
100
AcDbEntity
  8
0
100
AcDbVertex
100
AcDb3dPolylineVertex
 10
4.355935237190016
 20
5.516247383718258
 30
0.0
 70
    32
  0
VERTEX
  5
2836
330
27DC
100
AcDbEntity
  8
0
100
AcDbVertex
100
AcDb3dPolylineVertex
 10
4.347005237190017
 20
5.517567383718258
 30
0.0
 70
    32
  0
VERTEX
  5
2837
330
27DC
100
AcDbEntity
  8
0
100
AcDbVertex
100
AcDb3dPolylineVertex
 10
4.337915237190016
 20
5.518727383718259
 30
0.0
 70
    32
  0
VERTEX
  5
2838
330
27DC
100
AcDbEntity
  8
0
100
AcDbVertex
100
AcDb3dPolylineVertex
 10
4.328685237190017
 20
5.519707383718258
 30
0.0
 70
    32
  0
VERTEX
  5
2839
330
27DC
100
AcDbEntity
  8
0
100
AcDbVertex
100
AcDb3dPolylineVertex
 10
4.319355237190016
 20
5.520517383718258
 30
0.0
 70
    32
  0
VERTEX
  5
283A
330
27DC
100
AcDbEntity
  8
0
100
AcDbVertex
100
AcDb3dPolylineVertex
 10
4.309925237190016
 20
5.521147383718258
 30
0.0
 70
    32
  0
VERTEX
  5
283B
330
27DC
100
AcDbEntity
  8
0
100
AcDbVertex
100
AcDb3dPolylineVertex
 10
4.300425237190016
 20
5.521597383718258
 30
0.0
 70
    32
  0
VERTEX
  5
283C
330
27DC
100
AcDbEntity
  8
0
100
AcDbVertex
100
AcDb3dPolylineVertex
 10
4.290875237190016
 20
5.521867383718258
 30
0.0
 70
    32
  0
VERTEX
  5
283D
330
27DC
100
AcDbEntity
  8
0
100
AcDbVertex
100
AcDb3dPolylineVertex
 10
4.281305237190016
 20
5.521957383718258
 30
0.0
 70
    32
  0
VERTEX
  5
283E
330
27DC
100
AcDbEntity
  8
0
100
AcDbVertex
100
AcDb3dPolylineVertex
 10
4.271735237190016
 20
5.521867383718258
 30
0.0
 70
    32
  0
VERTEX
  5
283F
330
27DC
100
AcDbEntity
  8
0
100
AcDbVertex
100
AcDb3dPolylineVertex
 10
4.262195237190017
 20
5.521597383718258
 30
0.0
 70
    32
  0
VERTEX
  5
2840
330
27DC
100
AcDbEntity
  8
0
100
AcDbVertex
100
AcDb3dPolylineVertex
 10
4.252695237190017
 20
5.521147383718258
 30
0.0
 70
    32
  0
VERTEX
  5
2841
330
27DC
100
AcDbEntity
  8
0
100
AcDbVertex
100
AcDb3dPolylineVertex
 10
4.243265237190017
 20
5.520517383718258
 30
0.0
 70
    32
  0
VERTEX
  5
2842
330
27DC
100
AcDbEntity
  8
0
100
AcDbVertex
100
AcDb3dPolylineVertex
 10
4.233925237190017
 20
5.519707383718258
 30
0.0
 70
    32
  0
VERTEX
  5
2843
330
27DC
100
AcDbEntity
  8
0
100
AcDbVertex
100
AcDb3dPolylineVertex
 10
4.224705237190017
 20
5.518727383718259
 30
0.0
 70
    32
  0
VERTEX
  5
2844
330
27DC
100
AcDbEntity
  8
0
100
AcDbVertex
100
AcDb3dPolylineVertex
 10
4.215615237190016
 20
5.517567383718258
 30
0.0
 70
    32
  0
VERTEX
  5
2845
330
27DC
100
AcDbEntity
  8
0
100
AcDbVertex
100
AcDb3dPolylineVertex
 10
4.206685237190017
 20
5.516247383718258
 30
0.0
 70
    32
  0
VERTEX
  5
2846
330
27DC
100
AcDbEntity
  8
0
100
AcDbVertex
100
AcDb3dPolylineVertex
 10
4.197935237190017
 20
5.514757383718258
 30
0.0
 70
    32
  0
VERTEX
  5
2847
330
27DC
100
AcDbEntity
  8
0
100
AcDbVertex
100
AcDb3dPolylineVertex
 10
4.189385237190016
 20
5.513097383718259
 30
0.0
 70
    32
  0
VERTEX
  5
2848
330
27DC
100
AcDbEntity
  8
0
100
AcDbVertex
100
AcDb3dPolylineVertex
 10
4.181055237190016
 20
5.511287383718259
 30
0.0
 70
    32
  0
VERTEX
  5
2849
330
27DC
100
AcDbEntity
  8
0
100
AcDbVertex
100
AcDb3dPolylineVertex
 10
4.172975237190017
 20
5.509317383718259
 30
0.0
 70
    32
  0
VERTEX
  5
284A
330
27DC
100
AcDbEntity
  8
0
100
AcDbVertex
100
AcDb3dPolylineVertex
 10
4.165145237190016
 20
5.507197383718258
 30
0.0
 70
    32
  0
VERTEX
  5
284B
330
27DC
100
AcDbEntity
  8
0
100
AcDbVertex
100
AcDb3dPolylineVertex
 10
4.157605237190017
 20
5.504927383718258
 30
0.0
 70
    32
  0
VERTEX
  5
284C
330
27DC
100
AcDbEntity
  8
0
100
AcDbVertex
100
AcDb3dPolylineVertex
 10
4.150355237190016
 20
5.502527383718258
 30
0.0
 70
    32
  0
VERTEX
  5
284D
330
27DC
100
AcDbEntity
  8
0
100
AcDbVertex
100
AcDb3dPolylineVertex
 10
4.143425237190016
 20
5.499987383718258
 30
0.0
 70
    32
  0
VERTEX
  5
284E
330
27DC
100
AcDbEntity
  8
0
100
AcDbVertex
100
AcDb3dPolylineVertex
 10
4.136825237190016
 20
5.497317383718258
 30
0.0
 70
    32
  0
VERTEX
  5
284F
330
27DC
100
AcDbEntity
  8
0
100
AcDbVertex
100
AcDb3dPolylineVertex
 10
4.130575237190016
 20
5.494537383718259
 30
0.0
 70
    32
  0
VERTEX
  5
2850
330
27DC
100
AcDbEntity
  8
0
100
AcDbVertex
100
AcDb3dPolylineVertex
 10
4.124685237190016
 20
5.491637383718258
 30
0.0
 70
    32
  0
VERTEX
  5
2851
330
27DC
100
AcDbEntity
  8
0
100
AcDbVertex
100
AcDb3dPolylineVertex
 10
4.119175237190016
 20
5.488627383718259
 30
0.0
 70
    32
  0
VERTEX
  5
2852
330
27DC
100
AcDbEntity
  8
0
100
AcDbVertex
100
AcDb3dPolylineVertex
 10
4.114055237190016
 20
5.485517383718258
 30
0.0
 70
    32
  0
VERTEX
  5
2853
330
27DC
100
AcDbEntity
  8
0
100
AcDbVertex
100
AcDb3dPolylineVertex
 10
4.109335237190016
 20
5.482307383718258
 30
0.0
 70
    32
  0
VERTEX
  5
2854
330
27DC
100
AcDbEntity
  8
0
100
AcDbVertex
100
AcDb3dPolylineVertex
 10
4.105035237190016
 20
5.479017383718258
 30
0.0
 70
    32
  0
VERTEX
  5
2855
330
27DC
100
AcDbEntity
  8
0
100
AcDbVertex
100
AcDb3dPolylineVertex
 10
4.101155237190016
 20
5.475657383718258
 30
0.0
 70
    32
  0
VERTEX
  5
2856
330
27DC
100
AcDbEntity
  8
0
100
AcDbVertex
100
AcDb3dPolylineVertex
 10
4.097705237190016
 20
5.472217383718258
 30
0.0
 70
    32
  0
VERTEX
  5
2857
330
27DC
100
AcDbEntity
  8
0
100
AcDbVertex
100
AcDb3dPolylineVertex
 10
4.094705237190016
 20
5.468727383718258
 30
0.0
 70
    32
  0
VERTEX
  5
2858
330
27DC
100
AcDbEntity
  8
0
100
AcDbVertex
100
AcDb3dPolylineVertex
 10
4.092155237190016
 20
5.465177383718258
 30
0.0
 70
    32
  0
VERTEX
  5
2859
330
27DC
100
AcDbEntity
  8
0
100
AcDbVertex
100
AcDb3dPolylineVertex
 10
4.090055237190016
 20
5.461587383718258
 30
0.0
 70
    32
  0
VERTEX
  5
285A
330
27DC
100
AcDbEntity
  8
0
100
AcDbVertex
100
AcDb3dPolylineVertex
 10
4.088415237190016
 20
5.457957383718258
 30
0.0
 70
    32
  0
VERTEX
  5
285B
330
27DC
100
AcDbEntity
  8
0
100
AcDbVertex
100
AcDb3dPolylineVertex
 10
4.087245237190016
 20
5.454307383718258
 30
0.0
 70
    32
  0
VERTEX
  5
285C
330
27DC
100
AcDbEntity
  8
0
100
AcDbVertex
100
AcDb3dPolylineVertex
 10
4.086545237190017
 20
5.450637383718258
 30
0.0
 70
    32
  0
VERTEX
  5
285D
330
27DC
100
AcDbEntity
  8
0
100
AcDbVertex
100
AcDb3dPolylineVertex
 10
4.086305237190016
 20
5.446957383718259
 30
0.0
 70
    32
  0
SEQEND
  5
285E
330
27DC
100
AcDbEntity
  8
0
  0
LWPOLYLINE
  5
285F
330
188C
100
AcDbEntity
  8
BASE
100
AcDbPolyline
 90
       10
 70
     1
 43
0.0
 10
3.699274227339945
 20
5.265058944605908
 42
0.2521064587477109
 10
3.600671652982952
 20
5.017287186639802
 42
-0.0529239820453285
 10
3.612611951490424
 20
3.750715656923072
 42
0.3575727871204826
 10
3.811191963494517
 20
3.454443749628995
 42
0.1478115376541415
 10
4.751424521634049
 20
3.454443749628995
 42
0.3575727871204826
 10
4.950004533638142
 20
3.750715656923072
 42
-0.0529239820453286
 10
4.961944832145614
 20
5.017287186639802
 42
0.2521064587477109
 10
4.863342257788622
 20
5.265058944605908
 10
4.569542471877607
 20
5.511586236603807
 42
0.3759751338271458
 10
3.993074013250966
 20
5.511586236603812
  0
LWPOLYLINE
  5
286B
330
188C
100
AcDbEntity
  8
BASE
  6
HIDDEN2
100
AcDbPolyline
 90
       10
 70
     1
 43
0.0
 10
3.739127059140503
 20
5.217564189132526
 42
0.2521064587477122
 10
3.662260874508437
 20
5.024412338700277
 42
-0.0529239820453289
 10
3.674324556100483
 20
3.744752903176485
 42
0.3575727871204811
 10
3.829128707680563
 20
3.513792491890346
 42
0.147811537654142
 10
4.733487777448004
 20
3.513792491890346
 42
0.3575727871204799
 10
4.888291929028082
 20
3.744752903176485
 42
-0.0529239820453275
 10
4.900355610620129
 20
5.024412338700277
 42
0.2521064587477122
 10
4.823489425988064
 20
5.217564189132526
 10
4.529168948576256
 20
5.464528393176696
 42
0.3769324628738648
 10
4.033447536552329
 20
5.464528393176713
  0
LINE
  5
2877
330
188C
100
AcDbEntity
  8
CENTER
100
AcDbLine
 10
4.281308242564283
 20
5.719955139543448
 30
0.0
 11
4.281308242564283
 21
3.284955139543449
 31
0.0
  0
LWPOLYLINE
  5
2878
330
188C
100
AcDbEntity
  8
BASE
100
AcDbPolyline
 90
        4
 70
     1
 43
0.0
 10
3.773308242564288
 20
4.18095513954345
 10
4.789308242564288
 20
4.18095513954345
 10
4.789308242564288
 20
5.19695513954345
 10
3.773308242564288
 20
5.19695513954345
  0
LINE
  5
287E
330
188C
100
AcDbEntity
  8
CENTER
100
AcDbLine
 10
3.537880563499407
 20
4.50245513954345
 30
0.0
 11
5.024735921629159
 21
4.50245513954345
 31
0.0
  0
CIRCLE
  5
2881
330
188C
100
AcDbEntity
  8
SAVED
100
AcDbCircle
 10
10.19980756016874
 20
3.860794368401715
 30
0.0
 40
0.0749999999999993
  0
CIRCLE
  5
2882
330
188C
100
AcDbEntity
  8
SAVED
100
AcDbCircle
 10
10.51180756016873
 20
3.548794368401717
 30
0.0
 40
0.0749999999999993
  0
CIRCLE
  5
2883
330
188C
100
AcDbEntity
  8
SAVED
100
AcDbCircle
 10
10.51180756016873
 20
3.860794368401715
 30
0.0
 40
0.0749999999999993
  0
CIRCLE
  5
2884
330
188C
100
AcDbEntity
  8
SAVED
100
AcDbCircle
 10
10.82380756016873
 20
3.860794368401715
 30
0.0
 40
0.0749999999999993
  0
CIRCLE
  5
2885
330
188C
100
AcDbEntity
  8
SAVED
100
AcDbCircle
 10
10.51180756016873
 20
4.172794368401715
 30
0.0
 40
0.0749999999999993
  0
LINE
  5
2886
330
188C
100
AcDbEntity
  8
CENTER
100
AcDbLine
 10
10.32224412881186
 20
5.719955139543448
 30
0.0
 11
10.32224412881186
 21
3.284955139543449
 31
0.0
  0
LINE
  5
2887
330
188C
100
AcDbEntity
  8
CENTER
100
AcDbLine
 10
9.578816449746991
 20
4.50245513954345
 30
0.0
 11
11.06567180787674
 21
4.50245513954345
 31
0.0
  0
DIMENSION
  5
288A
330
188C
100
AcDbEntity
  8
ARCHIVE
100
AcDbDimension
  2
*D3
 10
11.69430756016874
 20
3.860794368401715
 30
0.0
 11
11.69430756016874
 21
3.919544368401718
 31
0.0
 70
   160
 71
     5
 42
0.1175000000000002
  3
STANDARD
100
AcDbAlignedDimension
 13
11.25523523923361
 23
3.978294368401715
 33
0.0
 14
10.82380756016873
 24
3.860794368401715
 34
0.0
 50
90.0
100
AcDbRotatedDimension
1001
ACAD
1000
DSTYLE
1002
{
1070
   288
1070
     1
1070
   141
1040
0.0
1002
}
  0
LINE
  5
2898
330
188C
100
AcDbEntity
  8
SAVED
 62
     1
100
AcDbLine
 10
10.48180756016873
 20
4.172794368401715
 30
0.0
 11
10.54180756016873
 21
4.172794368401715
 31
0.0
  0
LINE
  5
2899
330
188C
100
AcDbEntity
  8
SAVED
 62
     1
100
AcDbLine
 10
10.82380756016873
 20
3.830794368401715
 30
0.0
 11
10.82380756016873
 21
3.890794368401715
 31
0.0
  0
LINE
  5
289A
330
188C
100
AcDbEntity
  8
SAVED
 62
     1
100
AcDbLine
 10
10.48180756016873
 20
3.548794368401717
 30
0.0
 11
10.54180756016873
 21
3.548794368401717
 31
0.0
  0
LINE
  5
289B
330
188C
100
AcDbEntity
  8
SAVED
 62
     1
100
AcDbLine
 10
10.48180756016873
 20
3.860794368401715
 30
0.0
 11
10.54180756016873
 21
3.860794368401715
 31
0.0
  0
LINE
  5
289C
330
188C
100
AcDbEntity
  8
SAVED
 62
     1
100
AcDbLine
 10
10.19980756016874
 20
3.830794368401715
 30
0.0
 11
10.19980756016874
 21
3.890794368401715
 31
0.0
  0
LINE
  5
289D
330
188C
100
AcDbEntity
  8
SAVED
  6
CENTER2
 62
     1
100
AcDbLine
 10
10.16980756016873
 20
3.860794368401715
 30
0.0
 11
10.85380756016873
 21
3.860794368401715
 31
0.0
  0
DIMENSION
  5
289E
330
188C
100
AcDbEntity
  8
ARCHIVE
100
AcDbDimension
  2
*D4
 10
8.829307560168734
 20
3.548794368401717
 30
0.0
 11
8.829307560168732
 21
3.763544368401717
 31
0.0
 70
   160
 71
     5
 42
0.4294999999999983
  3
STANDARD
100
AcDbAlignedDimension
 13
9.768379881103864
 23
3.978294368401715
 33
0.0
 14
10.48180756016873
 24
3.548794368401717
 34
0.0
 50
90.0
100
AcDbRotatedDimension
1001
ACAD
1000
DSTYLE
1002
{
1070
   288
1070
     1
1002
}
  0
DIMENSION
  5
28AC
330
188C
100
AcDbEntity
  8
ARCHIVE
100
AcDbDimension
  2
*D5
 10
9.329307560168734
 20
4.172794368401716
 30
0.0
 11
9.329307560168723
 21
4.075544368401717
 31
0.0
 70
   160
 71
     5
 42
0.194500000000001
  3
STANDARD
100
AcDbAlignedDimension
 13
9.768379881103864
 23
3.978294368401715
 33
0.0
 14
10.48180756016873
 24
4.172794368401715
 34
0.0
 50
90.0
100
AcDbRotatedDimension
1001
ACAD
1000
DSTYLE
1002
{
1070
   288
1070
     1
1002
}
  0
DIMENSION
  5
28BA
330
188C
100
AcDbEntity
  8
ARCHIVE
100
AcDbDimension
  2
*D6
 10
10.82380756016873
 20
2.460794368401716
 30
0.0
 11
11.56630756016873
 21
2.460794368401716
 31
0.0
 70
   160
 71
     5
 42
0.3120000000000029
  3
STANDARD
100
AcDbAlignedDimension
 13
10.51180756016873
 23
2.760794368401716
 33
0.0
 14
10.82380756016873
 24
3.830794368401715
 34
0.0
100
AcDbRotatedDimension
1001
ACAD
1000
DSTYLE
1002
{
1070
   288
1070
     1
1002
}
  0
DIMENSION
  5
28C8
330
188C
100
AcDbEntity
  8
ARCHIVE
100
AcDbDimension
  2
*D7
 10
10.19980756016874
 20
2.060794368401716
 30
0.0
 11
9.445795536301211
 21
2.060794368401716
 31
0.0
 70
   160
 71
     5
 42
0.3119999999999887
  3
STANDARD
100
AcDbAlignedDimension
 13
10.51180756016873
 23
2.760794368401716
 33
0.0
 14
10.19980756016874
 24
3.830794368401715
 34
0.0
100
AcDbRotatedDimension
1001
ACAD
1000
DSTYLE
1002
{
1070
   288
1070
     1
1002
}
  0
LINE
  5
28D6
330
188C
100
AcDbEntity
  8
COVER
100
AcDbLine
 10
3.747231265203647
 20
8.045363206220399
 30
0.0
 11
3.747231265203647
 21
8.0753632062204
 31
0.0
  0
LINE
  5
28D7
330
188C
100
AcDbEntity
  8
COVER
100
AcDbLine
 10
4.996231265203675
 20
8.045363206220399
 30
0.0
 11
4.996231265203675
 21
8.0753632062204
 31
0.0
  0
LWPOLYLINE
  5
28D8
330
188C
100
AcDbEntity
  8
BUTTON
100
AcDbPolyline
 90
        4
 70
     1
 43
0.0
 10
3.901731265203662
 20
8.2573632062204
 10
3.901731265203662
 20
8.307363206220401
 10
4.841731265203661
 20
8.307363206220401
 10
4.841731265203661
 20
8.2573632062204
  0
DIMENSION
  5
28DE
330
188C
100
AcDbEntity
  8
DIM
100
AcDbDimension
  2
*D8
 10
3.05606961425493
 20
4.18095513954345
 30
0.0
 11
3.05606961425493
 21
4.649899600827868
 31
0.0
 70
   160
 71
     5
 42
1.016
  3
DIM
100
AcDbAlignedDimension
 13
3.773308242564288
 23
5.19695513954345
 33
0.0
 14
3.773308242564288
 24
4.18095513954345
 34
0.0
 50
90.0
100
AcDbRotatedDimension
  0
DIMENSION
  5
28EC
330
188C
100
AcDbEntity
  8
DIM
100
AcDbDimension
  2
*D9
 10
2.462454101350447
 20
3.384955139543452
 30
0.0
 11
2.462454101350446
 21
4.487872792000725
 31
0.0
 70
   160
 71
     5
 42
2.234999999999997
  3
DIM
100
AcDbAlignedDimension
 13
4.281308242564288
 23
5.619955139543448
 33
0.0
 14
4.281308242564281
 24
3.384955139543451
 34
0.0
 50
90.0
100
AcDbRotatedDimension
  0
DIMENSION
  5
28FA
330
188C
100
AcDbEntity
  8
SAVED
100
AcDbDimension
  2
*D10
 10
5.629609721099826
 20
4.997794368401717
 30
0.0
 11
5.629609721099825
 21
4.922794368401717
 31
0.0
 70
   160
 71
     5
 42
0.1500000000000012
  3
STANDARD
100
AcDbAlignedDimension
 13
3.948891962199016
 23
4.847794368401716
 33
0.0
 14
3.948891962199016
 24
4.997794368401717
 34
0.0
 50
90.0
100
AcDbRotatedDimension
1001
ACAD
1000
DSTYLE
1002
{
1070
   288
1070
     1
1002
}
  0
LINE
  5
2908
330
188C
100
AcDbEntity
  8
0
100
AcDbLine
 10
4.251308242564289
 20
5.44695513954345
 30
0.0
 11
4.311308242564289
 21
5.44695513954345
 31
0.0
  0
DIMENSION
  5
2909
330
188C
100
AcDbEntity
  8
SAVED
100
AcDbDimension
  2
*D11
 10
5.131391962199019
 20
4.922794368401716
 30
0.0
 11
5.131391962199018
 21
4.444878581171352
 31
0.0
 70
   160
 71
     5
 42
0.9445000000000014
  3
STANDARD
100
AcDbAlignedDimension
 13
4.692319641263886
 23
3.978294368401715
 33
0.0
 14
3.978891962199016
 24
4.922794368401716
 34
0.0
 50
90.0
100
AcDbRotatedDimension
1001
ACAD
1000
DSTYLE
1002
{
1070
   288
1070
     1
1002
}
  0
DIMENSION
  5
2917
330
188C
100
AcDbEntity
  8
DIM
100
AcDbDimension
  2
*D12
 10
4.789308242564288
 20
2.937143038528154
 30
0.0
 11
4.27729361469489
 21
2.937143038528154
 31
0.0
 70
   160
 71
     5
 42
1.016
  3
DIM
100
AcDbAlignedDimension
 13
3.773308242564288
 23
4.18095513954345
 33
0.0
 14
4.789308242564288
 24
4.18095513954345
 34
0.0
100
AcDbRotatedDimension
  0
DIMENSION
  5
2925
330
188C
100
AcDbEntity
  8
SAVED
100
AcDbDimension
  2
*D13
 10
4.589775796181874
 20
3.78099214805325
 30
0.0
 11
5.332275796181874
 21
3.78099214805325
 31
0.0
 70
   160
 71
     5
 42
1.281767667965725
  3
STANDARD
100
AcDbAlignedDimension
 13
3.308008128216148
 23
3.803595570934926
 33
0.0
 14
4.589775796181874
 24
3.80359557093493
 34
0.0
100
AcDbRotatedDimension
1001
ACAD
1000
DSTYLE
1002
{
1070
   287
1070
     1
1070
    75
1070
     1
1070
    76
1070
     1
1070
   288
1070
     1
1070
   289
1070
     1
1002
}
  0
DIMENSION
  5
2931
330
188C
100
AcDbEntity
  8
DIM
100
AcDbDimension
  2
*D14
 10
4.963808242564291
 20
6.190457086474293
 30
0.0
 11
4.275851992437245
 21
6.190457086474293
 31
0.0
 70
   160
 71
     5
 42
1.365000000000016
  3
DIM
100
AcDbAlignedDimension
 13
3.598808242564275
 23
5.04960894497869
 33
0.0
 14
4.963808242564291
 24
5.04960894497869
 34
0.0
100
AcDbRotatedDimension
  0
DIMENSION
  5
293F
330
188C
100
AcDbEntity
  8
SAVED
100
AcDbDimension
  2
*D15
 10
4.143891962199017
 20
5.493399490499206
 30
0.0
 11
2.910936341953345
 21
5.493399490499206
 31
0.0
 70
   160
 71
     5
 42
0.3900000000000014
  3
STANDARD
100
AcDbAlignedDimension
 13
3.753891962199015
 23
4.922794368401716
 33
0.0
 14
4.143891962199017
 24
4.922794368401716
 34
0.0
100
AcDbRotatedDimension
1001
ACAD
1000
DSTYLE
1002
{
1070
   287
1070
     1
1070
   288
1070
     1
1070
   289
1070
     1
1002
}
  0
DIMENSION
  5
294D
330
188C
100
AcDbEntity
  8
DIM
100
AcDbDimension
  2
*D16
 10
3.611308242564283
 20
2.528772399237634
 30
0.0
 11
4.274327362181316
 21
2.528772399237634
 31
0.0
 70
   160
 71
     5
 42
1.339999999999999
  3
DIM
100
AcDbAlignedDimension
 13
4.951308242564283
 23
3.723666874806498
 33
0.0
 14
3.611308242564283
 24
3.723666874806497
 34
0.0
100
AcDbRotatedDimension
  0
ARC
  5
2961
330
188C
100
AcDbEntity
  8
SAVED
100
AcDbCircle
 10
9.900632262490063
 20
8.093780577089713
 30
0.0
 40
0.031
100
AcDbArc
 50
270.0
 51
20.48330701183869
  0
ARC
  5
2962
330
188C
100
AcDbEntity
  8
SAVED
100
AcDbCircle
 10
9.543252912219244
 20
7.960280577089715
 30
0.0
 40
0.5275
100
AcDbArc
 50
5.016526935860579
 51
84.98347306413942
  0
ARC
  5
2963
330
188C
100
AcDbEntity
  8
SAVED
100
AcDbCircle
 10
9.900632262490063
 20
7.826780577089714
 30
0.0
 40
0.031
100
AcDbArc
 50
339.5166929881601
 51
90.0
  0
ARC
  5
2964
330
188C
100
AcDbEntity
  8
SAVED
100
AcDbCircle
 10
9.543252912219244
 20
7.960280577089715
 30
0.0
 40
0.5275
100
AcDbArc
 50
274.3457452695694
 51
354.9834730641393
  0
CIRCLE
  5
2965
330
188C
100
AcDbEntity
  8
SAVED
100
AcDbCircle
 10
9.543252912219244
 20
7.960280577089715
 30
0.0
 40
0.4725
  0
ARC
  5
2966
330
188C
100
AcDbEntity
  8
SAVED
100
AcDbCircle
 10
9.185873561948431
 20
8.093780577089713
 30
0.0
 40
0.031
100
AcDbArc
 50
159.51669298816
 51
269.9999999999982
  0
ARC
  5
2967
330
188C
100
AcDbEntity
  8
SAVED
100
AcDbCircle
 10
9.543252912219244
 20
7.960280577089715
 30
0.0
 40
0.5275
100
AcDbArc
 50
95.01652693586057
 51
175.6542547304304
  0
LINE
  5
2968
330
188C
100
AcDbEntity
  8
SAVED
100
AcDbLine
 10
9.185873561948431
 20
8.062780577089712
 30
0.0
 11
9.900632262490063
 21
8.062780577089712
 31
0.0
  0
LINE
  5
2969
330
188C
100
AcDbEntity
  8
SAVED
100
AcDbLine
 10
9.185873561948431
 20
7.857780577089716
 30
0.0
 11
9.900632262490063
 21
7.857780577089716
 31
0.0
  0
ARC
  5
296A
330
188C
100
AcDbEntity
  8
SAVED
100
AcDbCircle
 10
9.543252912219244
 20
7.960280577089715
 30
0.0
 40
0.4125
100
AcDbArc
 50
200.4833070118386
 51
339.516692988161
  0
ARC
  5
296B
330
188C
100
AcDbEntity
  8
SAVED
100
AcDbCircle
 10
9.543252912219244
 20
7.960280577089715
 30
0.0
 40
0.5275
100
AcDbArc
 50
184.3457452695693
 51
265.6542547304305
  0
ARC
  5
296C
330
188C
100
AcDbEntity
  8
SAVED
100
AcDbCircle
 10
9.185873561948431
 20
7.826780577089717
 30
0.0
 40
0.031
100
AcDbArc
 50
90.00000000000161
 51
200.4833070118392
  0
ARC
  5
296D
330
188C
100
AcDbEntity
  8
SAVED
100
AcDbCircle
 10
9.01575291221925
 20
7.960280577089715
 30
0.0
 40
0.04
100
AcDbArc
 50
272.1728726347842
 51
87.82712736521578
  0
ARC
  5
296E
330
188C
100
AcDbEntity
  8
SAVED
100
AcDbCircle
 10
9.543252912219244
 20
7.432780577089715
 30
0.0
 40
0.04
100
AcDbArc
 50
2.172872634784209
 51
177.8271273652156
  0
ARC
  5
296F
330
188C
100
AcDbEntity
  8
SAVED
100
AcDbCircle
 10
9.543252912219244
 20
7.960280577089715
 30
0.0
 40
0.4125
100
AcDbArc
 50
20.4833070118387
 51
159.5166929881612
  0
ARC
  5
2970
330
188C
100
AcDbEntity
  8
SAVED
100
AcDbCircle
 10
9.543252912219244
 20
8.494780577089716
 30
0.0
 40
0.047
100
AcDbArc
 50
191.0652767602272
 51
348.9347232397727
  0
ARC
  5
2971
330
188C
100
AcDbEntity
  8
SAVED
100
AcDbCircle
 10
10.07775291221925
 20
7.960280577089715
 30
0.0
 40
0.047
100
AcDbArc
 50
101.0652767602271
 51
258.9347232397727
  0
ARC
  5
2972
330
188C
100
AcDbEntity
  8
SAVED
100
AcDbCircle
 10
10.82954722967962
 20
7.960280577089717
 30
0.0
 40
0.5275
100
AcDbArc
 50
274.3457452695693
 51
355.6542547304305
  0
ARC
  5
2973
330
188C
100
AcDbEntity
  8
SAVED
100
AcDbCircle
 10
10.82954722967962
 20
7.960280577089717
 30
0.0
 40
0.5275
100
AcDbArc
 50
4.345745269569427
 51
84.98347306413945
  0
ARC
  5
2974
330
188C
100
AcDbEntity
  8
SAVED
100
AcDbCircle
 10
10.29504722967961
 20
7.960280577089717
 30
0.0
 40
0.047
100
AcDbArc
 50
281.0652767602271
 51
78.93472323977279
  0
ARC
  5
2975
330
188C
100
AcDbEntity
  8
SAVED
100
AcDbCircle
 10
11.35704722967962
 20
7.960280577089717
 30
0.0
 40
0.04
100
AcDbArc
 50
92.17287263478418
 51
267.8271273652157
  0
ARC
  5
2976
330
188C
100
AcDbEntity
  8
SAVED
100
AcDbCircle
 10
10.82954722967962
 20
7.960280577089717
 30
0.0
 40
0.4125
100
AcDbArc
 50
110.4833070118387
 51
249.5166929881611
  0
ARC
  5
2977
330
188C
100
AcDbEntity
  8
SAVED
100
AcDbCircle
 10
10.82954722967962
 20
7.960280577089717
 30
0.0
 40
0.4125
100
AcDbArc
 50
290.4833070118387
 51
69.51669298816111
  0
LINE
  5
2978
330
188C
100
AcDbEntity
  8
SAVED
100
AcDbLine
 10
10.93204722967962
 20
7.602901226818897
 30
0.0
 11
10.93204722967962
 21
8.317659927360534
 31
0.0
  0
LINE
  5
2979
330
188C
100
AcDbEntity
  8
SAVED
100
AcDbLine
 10
10.72704722967962
 20
7.602901226818897
 30
0.0
 11
10.72704722967962
 21
8.317659927360534
 31
0.0
  0
CIRCLE
  5
297A
330
188C
100
AcDbEntity
  8
SAVED
100
AcDbCircle
 10
10.82954722967962
 20
7.960280577089717
 30
0.0
 40
0.4725
  0
ARC
  5
297B
330
188C
100
AcDbEntity
  8
SAVED
100
AcDbCircle
 10
10.82954722967962
 20
7.960280577089717
 30
0.0
 40
0.5275
100
AcDbArc
 50
185.0165269358605
 51
265.6542547304305
  0
ARC
  5
297C
330
188C
100
AcDbEntity
  8
SAVED
100
AcDbCircle
 10
10.96304722967961
 20
7.602901226818898
 30
0.0
 40
0.031
100
AcDbArc
 50
180.0000000000015
 51
290.4833070118393
  0
ARC
  5
297D
330
188C
100
AcDbEntity
  8
SAVED
100
AcDbCircle
 10
10.69604722967962
 20
7.602901226818898
 30
0.0
 40
0.031
100
AcDbArc
 50
249.51669298816
 51
359.9999999999983
  0
ARC
  5
297E
330
188C
100
AcDbEntity
  8
SAVED
100
AcDbCircle
 10
10.82954722967962
 20
7.432780577089715
 30
0.0
 40
0.04
100
AcDbArc
 50
2.17287263478419
 51
177.8271273652156
  0
ARC
  5
297F
330
188C
100
AcDbEntity
  8
SAVED
100
AcDbCircle
 10
10.82954722967962
 20
7.960280577089717
 30
0.0
 40
0.5275
100
AcDbArc
 50
95.01652693586057
 51
174.9834730641393
  0
ARC
  5
2980
330
188C
100
AcDbEntity
  8
SAVED
100
AcDbCircle
 10
10.82954722967962
 20
8.494780577089716
 30
0.0
 40
0.047
100
AcDbArc
 50
191.0652767602272
 51
348.9347232397727
  0
ARC
  5
2981
330
188C
100
AcDbEntity
  8
SAVED
100
AcDbCircle
 10
10.96304722967962
 20
8.317659927360535
 30
0.0
 40
0.031
100
AcDbArc
 50
69.51669298816014
 51
180.0
  0
ARC
  5
2982
330
188C
100
AcDbEntity
  8
SAVED
100
AcDbCircle
 10
10.69604722967962
 20
8.317659927360535
 30
0.0
 40
0.031
100
AcDbArc
 50
0.0
 51
110.4833070118386
  0
TEXT
  5
2983
330
188C
100
AcDbEntity
  8
SAVED
 62
     4
100
AcDbText
 10
9.090597950809671
 20
7.199060606498381
 30
0.0
 40
0.125
  1
BUTTON POSITIONS:
100
AcDbText
  0
ARC
  5
2984
330
188C
100
AcDbEntity
  8
BUTTON
100
AcDbCircle
 10
10.32224412881186
 20
4.384955139543449
 30
0.0
 40
0.4125
100
AcDbArc
 50
20.4833070118387
 51
159.5166929881612
  0
ARC
  5
2985
330
188C
100
AcDbEntity
  8
BUTTON
100
AcDbCircle
 10
10.32224412881186
 20
4.384955139543449
 30
0.0
 40
0.4125
100
AcDbArc
 50
200.4833070118386
 51
339.516692988161
  0
LINE
  5
2986
330
188C
100
AcDbEntity
  8
BUTTON
100
AcDbLine
 10
9.964864778541038
 20
4.282455139543451
 30
0.0
 11
10.67962347908268
 21
4.282455139543451
 31
0.0
  0
LINE
  5
2987
330
188C
100
AcDbEntity
  8
BUTTON
100
AcDbLine
 10
9.964864778541038
 20
4.487455139543448
 30
0.0
 11
10.67962347908268
 21
4.487455139543448
 31
0.0
  0
ARC
  5
2988
330
188C
100
AcDbEntity
  8
SAVED
100
AcDbCircle
 10
10.51180756016873
 20
3.860794368401715
 30
0.0
 40
0.5275
100
AcDbArc
 50
274.3457452695694
 51
354.9834730641393
  0
ARC
  5
2989
330
188C
100
AcDbEntity
  8
SAVED
100
AcDbCircle
 10
10.51180756016873
 20
3.860794368401715
 30
0.0
 40
0.5275
100
AcDbArc
 50
5.016526935860579
 51
84.98347306413942
  0
ARC
  5
298A
330
188C
100
AcDbEntity
  8
SAVED
100
AcDbCircle
 10
10.51180756016873
 20
3.860794368401715
 30
0.0
 40
0.5275
100
AcDbArc
 50
184.3457452695693
 51
265.6542547304305
  0
ARC
  5
298B
330
188C
100
AcDbEntity
  8
SAVED
100
AcDbCircle
 10
10.51180756016873
 20
3.333294368401715
 30
0.0
 40
0.04
100
AcDbArc
 50
2.172872634784209
 51
177.8271273652156
  0
ARC
  5
298C
330
188C
100
AcDbEntity
  8
SAVED
100
AcDbCircle
 10
9.984307560168733
 20
3.860794368401715
 30
0.0
 40
0.04
100
AcDbArc
 50
272.1728726347842
 51
87.82712736521578
  0
ARC
  5
298D
330
188C
100
AcDbEntity
  8
SAVED
100
AcDbCircle
 10
10.51180756016873
 20
3.860794368401715
 30
0.0
 40
0.5275
100
AcDbArc
 50
95.01652693586057
 51
175.6542547304304
  0
ARC
  5
298E
330
188C
100
AcDbEntity
  8
BUTTON
100
AcDbCircle
 10
9.964864778541038
 20
4.251455139543451
 30
0.0
 40
0.031
100
AcDbArc
 50
90.00000000000161
 51
200.4833070118392
  0
ARC
  5
298F
330
188C
100
AcDbEntity
  8
BUTTON
100
AcDbCircle
 10
9.964864778541038
 20
4.518455139543447
 30
0.0
 40
0.031
100
AcDbArc
 50
159.51669298816
 51
269.9999999999982
  0
ARC
  5
2990
330
188C
100
AcDbEntity
  8
SAVED
100
AcDbCircle
 10
10.51180756016873
 20
4.395294368401717
 30
0.0
 40
0.047
100
AcDbArc
 50
191.0652767602272
 51
348.9347232397727
  0
ARC
  5
2991
330
188C
100
AcDbEntity
  8
BUTTON
100
AcDbCircle
 10
10.67962347908268
 20
4.251455139543447
 30
0.0
 40
0.031
100
AcDbArc
 50
339.5166929881601
 51
90.0
  0
ARC
  5
2992
330
188C
100
AcDbEntity
  8
BUTTON
100
AcDbCircle
 10
10.67962347908268
 20
4.518455139543447
 30
0.0
 40
0.031
100
AcDbArc
 50
270.0
 51
20.48330701183869
  0
ARC
  5
2993
330
188C
100
AcDbEntity
  8
SAVED
100
AcDbCircle
 10
11.04630756016873
 20
3.860794368401715
 30
0.0
 40
0.047
100
AcDbArc
 50
101.0652767602271
 51
258.9347232397727
  0
LINE
  5
2994
330
188C
100
AcDbEntity
  8
CENTER
100
AcDbLine
 10
13.6092034414887
 20
5.719955139543448
 30
0.0
 11
13.6092034414887
 21
3.284955139543449
 31
0.0
  0
LWPOLYLINE
  5
2995
330
188C
100
AcDbEntity
  8
COVER
100
AcDbPolyline
 90
       10
 70
     1
 43
0.0
 10
13.02716942626436
 20
5.265058944605908
 42
0.2521064587477109
 10
12.92856685190737
 20
5.017287186639802
 42
-0.0529239820453285
 10
12.94050715041485
 20
3.750715656923073
 42
0.3575727871204826
 10
13.13908716241894
 20
3.454443749628995
 42
0.1478115376541415
 10
14.07931972055847
 20
3.454443749628994
 42
0.3575727871204826
 10
14.27789973256256
 20
3.750715656923073
 42
-0.0529239820453286
 10
14.28984003107003
 20
5.017287186639802
 42
0.2521064587477109
 10
14.19123745671304
 20
5.265058944605908
 10
13.89743767080203
 20
5.511586236603807
 42
0.3759751338271458
 10
13.32096921217539
 20
5.511586236603812
  0
LINE
  5
29A1
330
188C
100
AcDbEntity
  8
BUTTON
100
AcDbLine
 10
13.7117034414887
 20
4.742334489814269
 30
0.0
 11
13.7117034414887
 21
4.027575789272632
 31
0.0
  0
LINE
  5
29A2
330
188C
100
AcDbEntity
  8
BUTTON
100
AcDbLine
 10
13.5067034414887
 20
4.742334489814271
 30
0.0
 11
13.5067034414887
 21
4.027575789272634
 31
0.0
  0
ARC
  5
29A3
330
188C
100
AcDbEntity
  8
BUTTON
100
AcDbCircle
 10
13.60920344148871
 20
4.384955139543451
 30
0.0
 40
0.4125
100
AcDbArc
 50
110.4833070118387
 51
249.5166929881611
  0
ARC
  5
29A4
330
188C
100
AcDbEntity
  8
BUTTON
100
AcDbCircle
 10
13.60920344148871
 20
4.384955139543451
 30
0.0
 40
0.4125
100
AcDbArc
 50
290.4833070118387
 51
69.51669298816122
  0
LINE
  5
29A5
330
188C
100
AcDbEntity
  8
CENTER
100
AcDbLine
 10
12.86577576242383
 20
4.50245513954345
 30
0.0
 11
14.35263112055358
 21
4.50245513954345
 31
0.0
  0
CIRCLE
  5
29A6
330
188C
100
AcDbEntity
  8
COVER
100
AcDbCircle
 10
13.6092034414887
 20
4.384955139543449
 30
0.0
 40
0.5675
  0
CIRCLE
  5
29A7
330
188C
100
AcDbEntity
  8
COVER
100
AcDbCircle
 10
13.6092034414887
 20
4.384955139543449
 30
0.0
 40
0.47
  0
ARC
  5
29A9
330
188C
100
AcDbEntity
  8
BUTTON
100
AcDbCircle
 10
13.47570344148871
 20
4.742334489814268
 30
0.0
 40
0.031
100
AcDbArc
 50
0.0000000000016284
 51
110.4833070118391
  0
ARC
  5
29AA
330
188C
100
AcDbEntity
  8
BUTTON
100
AcDbCircle
 10
13.7427034414887
 20
4.742334489814268
 30
0.0
 40
0.031
100
AcDbArc
 50
69.51669298816013
 51
179.9999999999982
  0
ARC
  5
29AB
330
188C
100
AcDbEntity
  8
BUTTON
100
AcDbCircle
 10
13.4757034414887
 20
4.027575789272631
 30
0.0
 40
0.031
100
AcDbArc
 50
249.51669298816
 51
0.0
  0
ARC
  5
29AC
330
188C
100
AcDbEntity
  8
BUTTON
100
AcDbCircle
 10
13.7427034414887
 20
4.027575789272631
 30
0.0
 40
0.031
100
AcDbArc
 50
180.0
 51
290.4833070118387
  0
POLYLINE
  5
29AE
330
188C
100
AcDbEntity
  8
COVER
100
AcDb3dPolyline
 66
     1
 10
0.0
 20
0.0
 30
0.0
 70
     8
  0
VERTEX
  5
29AF
330
29AE
100
AcDbEntity
  8
0
100
AcDbVertex
100
AcDb3dPolylineVertex
 10
13.41416066397844
 20
5.446957383718259
 30
0.0
 70
    32
  0
VERTEX
  5
29B0
330
29AE
100
AcDbEntity
  8
0
100
AcDbVertex
100
AcDb3dPolylineVertex
 10
13.41446066397844
 20
5.443277383718259
 30
0.0
 70
    32
  0
VERTEX
  5
29B1
330
29AE
100
AcDbEntity
  8
0
100
AcDbVertex
100
AcDb3dPolylineVertex
 10
13.41516066397844
 20
5.439607383718258
 30
0.0
 70
    32
  0
VERTEX
  5
29B2
330
29AE
100
AcDbEntity
  8
0
100
AcDbVertex
100
AcDb3dPolylineVertex
 10
13.41636066397844
 20
5.435947383718258
 30
0.0
 70
    32
  0
VERTEX
  5
29B3
330
29AE
100
AcDbEntity
  8
0
100
AcDbVertex
100
AcDb3dPolylineVertex
 10
13.41796066397844
 20
5.432327383718258
 30
0.0
 70
    32
  0
VERTEX
  5
29B4
330
29AE
100
AcDbEntity
  8
0
100
AcDbVertex
100
AcDb3dPolylineVertex
 10
13.42006066397844
 20
5.428727383718258
 30
0.0
 70
    32
  0
VERTEX
  5
29B5
330
29AE
100
AcDbEntity
  8
0
100
AcDbVertex
100
AcDb3dPolylineVertex
 10
13.42256066397844
 20
5.425187383718259
 30
0.0
 70
    32
  0
VERTEX
  5
29B6
330
29AE
100
AcDbEntity
  8
0
100
AcDbVertex
100
AcDb3dPolylineVertex
 10
13.42556066397844
 20
5.421687383718258
 30
0.0
 70
    32
  0
VERTEX
  5
29B7
330
29AE
100
AcDbEntity
  8
0
100
AcDbVertex
100
AcDb3dPolylineVertex
 10
13.42906066397844
 20
5.418257383718258
 30
0.0
 70
    32
  0
VERTEX
  5
29B8
330
29AE
100
AcDbEntity
  8
0
100
AcDbVertex
100
AcDb3dPolylineVertex
 10
13.43296066397844
 20
5.414887383718259
 30
0.0
 70
    32
  0
VERTEX
  5
29B9
330
29AE
100
AcDbEntity
  8
0
100
AcDbVertex
100
AcDb3dPolylineVertex
 10
13.43726066397844
 20
5.411597383718258
 30
0.0
 70
    32
  0
VERTEX
  5
29BA
330
29AE
100
AcDbEntity
  8
0
100
AcDbVertex
100
AcDb3dPolylineVertex
 10
13.44196066397844
 20
5.408397383718258
 30
0.0
 70
    32
  0
VERTEX
  5
29BB
330
29AE
100
AcDbEntity
  8
0
100
AcDbVertex
100
AcDb3dPolylineVertex
 10
13.44706066397844
 20
5.405287383718258
 30
0.0
 70
    32
  0
VERTEX
  5
29BC
330
29AE
100
AcDbEntity
  8
0
100
AcDbVertex
100
AcDb3dPolylineVertex
 10
13.45256066397844
 20
5.402277383718258
 30
0.0
 70
    32
  0
VERTEX
  5
29BD
330
29AE
100
AcDbEntity
  8
0
100
AcDbVertex
100
AcDb3dPolylineVertex
 10
13.45846066397844
 20
5.399377383718258
 30
0.0
 70
    32
  0
VERTEX
  5
29BE
330
29AE
100
AcDbEntity
  8
0
100
AcDbVertex
100
AcDb3dPolylineVertex
 10
13.46476066397844
 20
5.396587383718259
 30
0.0
 70
    32
  0
VERTEX
  5
29BF
330
29AE
100
AcDbEntity
  8
0
100
AcDbVertex
100
AcDb3dPolylineVertex
 10
13.47136066397844
 20
5.393917383718259
 30
0.0
 70
    32
  0
VERTEX
  5
29C0
330
29AE
100
AcDbEntity
  8
0
100
AcDbVertex
100
AcDb3dPolylineVertex
 10
13.47826066397844
 20
5.391387383718258
 30
0.0
 70
    32
  0
VERTEX
  5
29C1
330
29AE
100
AcDbEntity
  8
0
100
AcDbVertex
100
AcDb3dPolylineVertex
 10
13.48546066397844
 20
5.388977383718258
 30
0.0
 70
    32
  0
VERTEX
  5
29C2
330
29AE
100
AcDbEntity
  8
0
100
AcDbVertex
100
AcDb3dPolylineVertex
 10
13.49306066397844
 20
5.386717383718258
 30
0.0
 70
    32
  0
VERTEX
  5
29C3
330
29AE
100
AcDbEntity
  8
0
100
AcDbVertex
100
AcDb3dPolylineVertex
 10
13.50086066397844
 20
5.384597383718258
 30
0.0
 70
    32
  0
VERTEX
  5
29C4
330
29AE
100
AcDbEntity
  8
0
100
AcDbVertex
100
AcDb3dPolylineVertex
 10
13.50896066397844
 20
5.382627383718259
 30
0.0
 70
    32
  0
VERTEX
  5
29C5
330
29AE
100
AcDbEntity
  8
0
100
AcDbVertex
100
AcDb3dPolylineVertex
 10
13.51726066397844
 20
5.380807383718258
 30
0.0
 70
    32
  0
VERTEX
  5
29C6
330
29AE
100
AcDbEntity
  8
0
100
AcDbVertex
100
AcDb3dPolylineVertex
 10
13.52586066397844
 20
5.379157383718259
 30
0.0
 70
    32
  0
VERTEX
  5
29C7
330
29AE
100
AcDbEntity
  8
0
100
AcDbVertex
100
AcDb3dPolylineVertex
 10
13.53456066397844
 20
5.377667383718258
 30
0.0
 70
    32
  0
VERTEX
  5
29C8
330
29AE
100
AcDbEntity
  8
0
100
AcDbVertex
100
AcDb3dPolylineVertex
 10
13.54346066397844
 20
5.376337383718258
 30
0.0
 70
    32
  0
VERTEX
  5
29C9
330
29AE
100
AcDbEntity
  8
0
100
AcDbVertex
100
AcDb3dPolylineVertex
 10
13.55256066397844
 20
5.375187383718258
 30
0.0
 70
    32
  0
VERTEX
  5
29CA
330
29AE
100
AcDbEntity
  8
0
100
AcDbVertex
100
AcDb3dPolylineVertex
 10
13.56186066397844
 20
5.374207383718259
 30
0.0
 70
    32
  0
VERTEX
  5
29CB
330
29AE
100
AcDbEntity
  8
0
100
AcDbVertex
100
AcDb3dPolylineVertex
 10
13.57116066397844
 20
5.373397383718258
 30
0.0
 70
    32
  0
VERTEX
  5
29CC
330
29AE
100
AcDbEntity
  8
0
100
AcDbVertex
100
AcDb3dPolylineVertex
 10
13.58056066397844
 20
5.372767383718258
 30
0.0
 70
    32
  0
VERTEX
  5
29CD
330
29AE
100
AcDbEntity
  8
0
100
AcDbVertex
100
AcDb3dPolylineVertex
 10
13.59006066397844
 20
5.372317383718258
 30
0.0
 70
    32
  0
VERTEX
  5
29CE
330
29AE
100
AcDbEntity
  8
0
100
AcDbVertex
100
AcDb3dPolylineVertex
 10
13.59966066397844
 20
5.372047383718259
 30
0.0
 70
    32
  0
VERTEX
  5
29CF
330
29AE
100
AcDbEntity
  8
0
100
AcDbVertex
100
AcDb3dPolylineVertex
 10
13.60916066397844
 20
5.371957383718259
 30
0.0
 70
    32
  0
VERTEX
  5
29D0
330
29AE
100
AcDbEntity
  8
0
100
AcDbVertex
100
AcDb3dPolylineVertex
 10
13.61876066397844
 20
5.372047383718259
 30
0.0
 70
    32
  0
VERTEX
  5
29D1
330
29AE
100
AcDbEntity
  8
0
100
AcDbVertex
100
AcDb3dPolylineVertex
 10
13.62836066397844
 20
5.372317383718258
 30
0.0
 70
    32
  0
VERTEX
  5
29D2
330
29AE
100
AcDbEntity
  8
0
100
AcDbVertex
100
AcDb3dPolylineVertex
 10
13.63786066397844
 20
5.372767383718258
 30
0.0
 70
    32
  0
VERTEX
  5
29D3
330
29AE
100
AcDbEntity
  8
0
100
AcDbVertex
100
AcDb3dPolylineVertex
 10
13.64726066397844
 20
5.373397383718258
 30
0.0
 70
    32
  0
VERTEX
  5
29D4
330
29AE
100
AcDbEntity
  8
0
100
AcDbVertex
100
AcDb3dPolylineVertex
 10
13.65656066397844
 20
5.374207383718259
 30
0.0
 70
    32
  0
VERTEX
  5
29D5
330
29AE
100
AcDbEntity
  8
0
100
AcDbVertex
100
AcDb3dPolylineVertex
 10
13.66576066397844
 20
5.375187383718258
 30
0.0
 70
    32
  0
VERTEX
  5
29D6
330
29AE
100
AcDbEntity
  8
0
100
AcDbVertex
100
AcDb3dPolylineVertex
 10
13.67486066397844
 20
5.376337383718258
 30
0.0
 70
    32
  0
VERTEX
  5
29D7
330
29AE
100
AcDbEntity
  8
0
100
AcDbVertex
100
AcDb3dPolylineVertex
 10
13.68386066397844
 20
5.377667383718258
 30
0.0
 70
    32
  0
VERTEX
  5
29D8
330
29AE
100
AcDbEntity
  8
0
100
AcDbVertex
100
AcDb3dPolylineVertex
 10
13.69256066397844
 20
5.379157383718259
 30
0.0
 70
    32
  0
VERTEX
  5
29D9
330
29AE
100
AcDbEntity
  8
0
100
AcDbVertex
100
AcDb3dPolylineVertex
 10
13.70116066397844
 20
5.380807383718258
 30
0.0
 70
    32
  0
VERTEX
  5
29DA
330
29AE
100
AcDbEntity
  8
0
100
AcDbVertex
100
AcDb3dPolylineVertex
 10
13.70946066397844
 20
5.382627383718259
 30
0.0
 70
    32
  0
VERTEX
  5
29DB
330
29AE
100
AcDbEntity
  8
0
100
AcDbVertex
100
AcDb3dPolylineVertex
 10
13.71756066397844
 20
5.384597383718258
 30
0.0
 70
    32
  0
VERTEX
  5
29DC
330
29AE
100
AcDbEntity
  8
0
100
AcDbVertex
100
AcDb3dPolylineVertex
 10
13.72536066397844
 20
5.386717383718258
 30
0.0
 70
    32
  0
VERTEX
  5
29DD
330
29AE
100
AcDbEntity
  8
0
100
AcDbVertex
100
AcDb3dPolylineVertex
 10
13.73286066397844
 20
5.388977383718258
 30
0.0
 70
    32
  0
VERTEX
  5
29DE
330
29AE
100
AcDbEntity
  8
0
100
AcDbVertex
100
AcDb3dPolylineVertex
 10
13.74016066397844
 20
5.391387383718258
 30
0.0
 70
    32
  0
VERTEX
  5
29DF
330
29AE
100
AcDbEntity
  8
0
100
AcDbVertex
100
AcDb3dPolylineVertex
 10
13.74706066397844
 20
5.393917383718259
 30
0.0
 70
    32
  0
VERTEX
  5
29E0
330
29AE
100
AcDbEntity
  8
0
100
AcDbVertex
100
AcDb3dPolylineVertex
 10
13.75366066397844
 20
5.396587383718259
 30
0.0
 70
    32
  0
VERTEX
  5
29E1
330
29AE
100
AcDbEntity
  8
0
100
AcDbVertex
100
AcDb3dPolylineVertex
 10
13.75996066397844
 20
5.399377383718258
 30
0.0
 70
    32
  0
VERTEX
  5
29E2
330
29AE
100
AcDbEntity
  8
0
100
AcDbVertex
100
AcDb3dPolylineVertex
 10
13.76586066397844
 20
5.402277383718258
 30
0.0
 70
    32
  0
VERTEX
  5
29E3
330
29AE
100
AcDbEntity
  8
0
100
AcDbVertex
100
AcDb3dPolylineVertex
 10
13.77136066397844
 20
5.405287383718258
 30
0.0
 70
    32
  0
VERTEX
  5
29E4
330
29AE
100
AcDbEntity
  8
0
100
AcDbVertex
100
AcDb3dPolylineVertex
 10
13.77646066397844
 20
5.408397383718258
 30
0.0
 70
    32
  0
VERTEX
  5
29E5
330
29AE
100
AcDbEntity
  8
0
100
AcDbVertex
100
AcDb3dPolylineVertex
 10
13.78116066397844
 20
5.411597383718258
 30
0.0
 70
    32
  0
VERTEX
  5
29E6
330
29AE
100
AcDbEntity
  8
0
100
AcDbVertex
100
AcDb3dPolylineVertex
 10
13.78546066397844
 20
5.414887383718259
 30
0.0
 70
    32
  0
VERTEX
  5
29E7
330
29AE
100
AcDbEntity
  8
0
100
AcDbVertex
100
AcDb3dPolylineVertex
 10
13.78936066397844
 20
5.418257383718258
 30
0.0
 70
    32
  0
VERTEX
  5
29E8
330
29AE
100
AcDbEntity
  8
0
100
AcDbVertex
100
AcDb3dPolylineVertex
 10
13.79276066397844
 20
5.421687383718258
 30
0.0
 70
    32
  0
VERTEX
  5
29E9
330
29AE
100
AcDbEntity
  8
0
100
AcDbVertex
100
AcDb3dPolylineVertex
 10
13.79576066397844
 20
5.425187383718259
 30
0.0
 70
    32
  0
VERTEX
  5
29EA
330
29AE
100
AcDbEntity
  8
0
100
AcDbVertex
100
AcDb3dPolylineVertex
 10
13.79836066397844
 20
5.428727383718258
 30
0.0
 70
    32
  0
VERTEX
  5
29EB
330
29AE
100
AcDbEntity
  8
0
100
AcDbVertex
100
AcDb3dPolylineVertex
 10
13.80046066397844
 20
5.432327383718258
 30
0.0
 70
    32
  0
VERTEX
  5
29EC
330
29AE
100
AcDbEntity
  8
0
100
AcDbVertex
100
AcDb3dPolylineVertex
 10
13.80206066397844
 20
5.435947383718258
 30
0.0
 70
    32
  0
VERTEX
  5
29ED
330
29AE
100
AcDbEntity
  8
0
100
AcDbVertex
100
AcDb3dPolylineVertex
 10
13.80326066397844
 20
5.439607383718258
 30
0.0
 70
    32
  0
VERTEX
  5
29EE
330
29AE
100
AcDbEntity
  8
0
100
AcDbVertex
100
AcDb3dPolylineVertex
 10
13.80396066397844
 20
5.443277383718259
 30
0.0
 70
    32
  0
VERTEX
  5
29EF
330
29AE
100
AcDbEntity
  8
0
100
AcDbVertex
100
AcDb3dPolylineVertex
 10
13.80416066397844
 20
5.446957383718259
 30
0.0
 70
    32
  0
VERTEX
  5
29F0
330
29AE
100
AcDbEntity
  8
0
100
AcDbVertex
100
AcDb3dPolylineVertex
 10
13.80396066397844
 20
5.450637383718258
 30
0.0
 70
    32
  0
VERTEX
  5
29F1
330
29AE
100
AcDbEntity
  8
0
100
AcDbVertex
100
AcDb3dPolylineVertex
 10
13.80326066397844
 20
5.454307383718258
 30
0.0
 70
    32
  0
VERTEX
  5
29F2
330
29AE
100
AcDbEntity
  8
0
100
AcDbVertex
100
AcDb3dPolylineVertex
 10
13.80206066397844
 20
5.457957383718258
 30
0.0
 70
    32
  0
VERTEX
  5
29F3
330
29AE
100
AcDbEntity
  8
0
100
AcDbVertex
100
AcDb3dPolylineVertex
 10
13.80046066397844
 20
5.461587383718258
 30
0.0
 70
    32
  0
VERTEX
  5
29F4
330
29AE
100
AcDbEntity
  8
0
100
AcDbVertex
100
AcDb3dPolylineVertex
 10
13.79836066397844
 20
5.465177383718258
 30
0.0
 70
    32
  0
VERTEX
  5
29F5
330
29AE
100
AcDbEntity
  8
0
100
AcDbVertex
100
AcDb3dPolylineVertex
 10
13.79576066397844
 20
5.468727383718258
 30
0.0
 70
    32
  0
VERTEX
  5
29F6
330
29AE
100
AcDbEntity
  8
0
100
AcDbVertex
100
AcDb3dPolylineVertex
 10
13.79276066397844
 20
5.472217383718258
 30
0.0
 70
    32
  0
VERTEX
  5
29F7
330
29AE
100
AcDbEntity
  8
0
100
AcDbVertex
100
AcDb3dPolylineVertex
 10
13.78936066397844
 20
5.475657383718258
 30
0.0
 70
    32
  0
VERTEX
  5
29F8
330
29AE
100
AcDbEntity
  8
0
100
AcDbVertex
100
AcDb3dPolylineVertex
 10
13.78546066397844
 20
5.479017383718258
 30
0.0
 70
    32
  0
VERTEX
  5
29F9
330
29AE
100
AcDbEntity
  8
0
100
AcDbVertex
100
AcDb3dPolylineVertex
 10
13.78116066397844
 20
5.482307383718258
 30
0.0
 70
    32
  0
VERTEX
  5
29FA
330
29AE
100
AcDbEntity
  8
0
100
AcDbVertex
100
AcDb3dPolylineVertex
 10
13.77646066397844
 20
5.485517383718258
 30
0.0
 70
    32
  0
VERTEX
  5
29FB
330
29AE
100
AcDbEntity
  8
0
100
AcDbVertex
100
AcDb3dPolylineVertex
 10
13.77136066397844
 20
5.488627383718259
 30
0.0
 70
    32
  0
VERTEX
  5
29FC
330
29AE
100
AcDbEntity
  8
0
100
AcDbVertex
100
AcDb3dPolylineVertex
 10
13.76586066397844
 20
5.491637383718258
 30
0.0
 70
    32
  0
VERTEX
  5
29FD
330
29AE
100
AcDbEntity
  8
0
100
AcDbVertex
100
AcDb3dPolylineVertex
 10
13.75996066397844
 20
5.494537383718259
 30
0.0
 70
    32
  0
VERTEX
  5
29FE
330
29AE
100
AcDbEntity
  8
0
100
AcDbVertex
100
AcDb3dPolylineVertex
 10
13.75366066397844
 20
5.497317383718258
 30
0.0
 70
    32
  0
VERTEX
  5
29FF
330
29AE
100
AcDbEntity
  8
0
100
AcDbVertex
100
AcDb3dPolylineVertex
 10
13.74706066397844
 20
5.499987383718258
 30
0.0
 70
    32
  0
VERTEX
  5
2A00
330
29AE
100
AcDbEntity
  8
0
100
AcDbVertex
100
AcDb3dPolylineVertex
 10
13.74016066397844
 20
5.502527383718258
 30
0.0
 70
    32
  0
VERTEX
  5
2A01
330
29AE
100
AcDbEntity
  8
0
100
AcDbVertex
100
AcDb3dPolylineVertex
 10
13.73286066397844
 20
5.504927383718258
 30
0.0
 70
    32
  0
VERTEX
  5
2A02
330
29AE
100
AcDbEntity
  8
0
100
AcDbVertex
100
AcDb3dPolylineVertex
 10
13.72536066397844
 20
5.507197383718258
 30
0.0
 70
    32
  0
VERTEX
  5
2A03
330
29AE
100
AcDbEntity
  8
0
100
AcDbVertex
100
AcDb3dPolylineVertex
 10
13.71756066397844
 20
5.509317383718259
 30
0.0
 70
    32
  0
VERTEX
  5
2A04
330
29AE
100
AcDbEntity
  8
0
100
AcDbVertex
100
AcDb3dPolylineVertex
 10
13.70946066397844
 20
5.511287383718259
 30
0.0
 70
    32
  0
VERTEX
  5
2A05
330
29AE
100
AcDbEntity
  8
0
100
AcDbVertex
100
AcDb3dPolylineVertex
 10
13.70116066397844
 20
5.513097383718259
 30
0.0
 70
    32
  0
VERTEX
  5
2A06
330
29AE
100
AcDbEntity
  8
0
100
AcDbVertex
100
AcDb3dPolylineVertex
 10
13.69256066397844
 20
5.514757383718258
 30
0.0
 70
    32
  0
VERTEX
  5
2A07
330
29AE
100
AcDbEntity
  8
0
100
AcDbVertex
100
AcDb3dPolylineVertex
 10
13.68386066397844
 20
5.516247383718258
 30
0.0
 70
    32
  0
VERTEX
  5
2A08
330
29AE
100
AcDbEntity
  8
0
100
AcDbVertex
100
AcDb3dPolylineVertex
 10
13.67486066397844
 20
5.517567383718258
 30
0.0
 70
    32
  0
VERTEX
  5
2A09
330
29AE
100
AcDbEntity
  8
0
100
AcDbVertex
100
AcDb3dPolylineVertex
 10
13.66576066397844
 20
5.518727383718259
 30
0.0
 70
    32
  0
VERTEX
  5
2A0A
330
29AE
100
AcDbEntity
  8
0
100
AcDbVertex
100
AcDb3dPolylineVertex
 10
13.65656066397844
 20
5.519707383718258
 30
0.0
 70
    32
  0
VERTEX
  5
2A0B
330
29AE
100
AcDbEntity
  8
0
100
AcDbVertex
100
AcDb3dPolylineVertex
 10
13.64726066397844
 20
5.520517383718258
 30
0.0
 70
    32
  0
VERTEX
  5
2A0C
330
29AE
100
AcDbEntity
  8
0
100
AcDbVertex
100
AcDb3dPolylineVertex
 10
13.63786066397844
 20
5.521147383718258
 30
0.0
 70
    32
  0
VERTEX
  5
2A0D
330
29AE
100
AcDbEntity
  8
0
100
AcDbVertex
100
AcDb3dPolylineVertex
 10
13.62836066397844
 20
5.521597383718258
 30
0.0
 70
    32
  0
VERTEX
  5
2A0E
330
29AE
100
AcDbEntity
  8
0
100
AcDbVertex
100
AcDb3dPolylineVertex
 10
13.61876066397844
 20
5.521867383718258
 30
0.0
 70
    32
  0
VERTEX
  5
2A0F
330
29AE
100
AcDbEntity
  8
0
100
AcDbVertex
100
AcDb3dPolylineVertex
 10
13.60916066397844
 20
5.521957383718258
 30
0.0
 70
    32
  0
VERTEX
  5
2A10
330
29AE
100
AcDbEntity
  8
0
100
AcDbVertex
100
AcDb3dPolylineVertex
 10
13.59966066397844
 20
5.521867383718258
 30
0.0
 70
    32
  0
VERTEX
  5
2A11
330
29AE
100
AcDbEntity
  8
0
100
AcDbVertex
100
AcDb3dPolylineVertex
 10
13.59006066397844
 20
5.521597383718258
 30
0.0
 70
    32
  0
VERTEX
  5
2A12
330
29AE
100
AcDbEntity
  8
0
100
AcDbVertex
100
AcDb3dPolylineVertex
 10
13.58056066397844
 20
5.521147383718258
 30
0.0
 70
    32
  0
VERTEX
  5
2A13
330
29AE
100
AcDbEntity
  8
0
100
AcDbVertex
100
AcDb3dPolylineVertex
 10
13.57116066397844
 20
5.520517383718258
 30
0.0
 70
    32
  0
VERTEX
  5
2A14
330
29AE
100
AcDbEntity
  8
0
100
AcDbVertex
100
AcDb3dPolylineVertex
 10
13.56186066397844
 20
5.519707383718258
 30
0.0
 70
    32
  0
VERTEX
  5
2A15
330
29AE
100
AcDbEntity
  8
0
100
AcDbVertex
100
AcDb3dPolylineVertex
 10
13.55256066397844
 20
5.518727383718259
 30
0.0
 70
    32
  0
VERTEX
  5
2A16
330
29AE
100
AcDbEntity
  8
0
100
AcDbVertex
100
AcDb3dPolylineVertex
 10
13.54346066397844
 20
5.517567383718258
 30
0.0
 70
    32
  0
VERTEX
  5
2A17
330
29AE
100
AcDbEntity
  8
0
100
AcDbVertex
100
AcDb3dPolylineVertex
 10
13.53456066397844
 20
5.516247383718258
 30
0.0
 70
    32
  0
VERTEX
  5
2A18
330
29AE
100
AcDbEntity
  8
0
100
AcDbVertex
100
AcDb3dPolylineVertex
 10
13.52586066397844
 20
5.514757383718258
 30
0.0
 70
    32
  0
VERTEX
  5
2A19
330
29AE
100
AcDbEntity
  8
0
100
AcDbVertex
100
AcDb3dPolylineVertex
 10
13.51726066397844
 20
5.513097383718259
 30
0.0
 70
    32
  0
VERTEX
  5
2A1A
330
29AE
100
AcDbEntity
  8
0
100
AcDbVertex
100
AcDb3dPolylineVertex
 10
13.50896066397844
 20
5.511287383718259
 30
0.0
 70
    32
  0
VERTEX
  5
2A1B
330
29AE
100
AcDbEntity
  8
0
100
AcDbVertex
100
AcDb3dPolylineVertex
 10
13.50086066397844
 20
5.509317383718259
 30
0.0
 70
    32
  0
VERTEX
  5
2A1C
330
29AE
100
AcDbEntity
  8
0
100
AcDbVertex
100
AcDb3dPolylineVertex
 10
13.49306066397844
 20
5.507197383718258
 30
0.0
 70
    32
  0
VERTEX
  5
2A1D
330
29AE
100
AcDbEntity
  8
0
100
AcDbVertex
100
AcDb3dPolylineVertex
 10
13.48546066397844
 20
5.504927383718258
 30
0.0
 70
    32
  0
VERTEX
  5
2A1E
330
29AE
100
AcDbEntity
  8
0
100
AcDbVertex
100
AcDb3dPolylineVertex
 10
13.47826066397844
 20
5.502527383718258
 30
0.0
 70
    32
  0
VERTEX
  5
2A1F
330
29AE
100
AcDbEntity
  8
0
100
AcDbVertex
100
AcDb3dPolylineVertex
 10
13.47136066397844
 20
5.499987383718258
 30
0.0
 70
    32
  0
VERTEX
  5
2A20
330
29AE
100
AcDbEntity
  8
0
100
AcDbVertex
100
AcDb3dPolylineVertex
 10
13.46476066397844
 20
5.497317383718258
 30
0.0
 70
    32
  0
VERTEX
  5
2A21
330
29AE
100
AcDbEntity
  8
0
100
AcDbVertex
100
AcDb3dPolylineVertex
 10
13.45846066397844
 20
5.494537383718259
 30
0.0
 70
    32
  0
VERTEX
  5
2A22
330
29AE
100
AcDbEntity
  8
0
100
AcDbVertex
100
AcDb3dPolylineVertex
 10
13.45256066397844
 20
5.491637383718258
 30
0.0
 70
    32
  0
VERTEX
  5
2A23
330
29AE
100
AcDbEntity
  8
0
100
AcDbVertex
100
AcDb3dPolylineVertex
 10
13.44706066397844
 20
5.488627383718259
 30
0.0
 70
    32
  0
VERTEX
  5
2A24
330
29AE
100
AcDbEntity
  8
0
100
AcDbVertex
100
AcDb3dPolylineVertex
 10
13.44196066397844
 20
5.485517383718258
 30
0.0
 70
    32
  0
VERTEX
  5
2A25
330
29AE
100
AcDbEntity
  8
0
100
AcDbVertex
100
AcDb3dPolylineVertex
 10
13.43726066397844
 20
5.482307383718258
 30
0.0
 70
    32
  0
VERTEX
  5
2A26
330
29AE
100
AcDbEntity
  8
0
100
AcDbVertex
100
AcDb3dPolylineVertex
 10
13.43296066397844
 20
5.479017383718258
 30
0.0
 70
    32
  0
VERTEX
  5
2A27
330
29AE
100
AcDbEntity
  8
0
100
AcDbVertex
100
AcDb3dPolylineVertex
 10
13.42906066397844
 20
5.475657383718258
 30
0.0
 70
    32
  0
VERTEX
  5
2A28
330
29AE
100
AcDbEntity
  8
0
100
AcDbVertex
100
AcDb3dPolylineVertex
 10
13.42556066397844
 20
5.472217383718258
 30
0.0
 70
    32
  0
VERTEX
  5
2A29
330
29AE
100
AcDbEntity
  8
0
100
AcDbVertex
100
AcDb3dPolylineVertex
 10
13.42256066397844
 20
5.468727383718258
 30
0.0
 70
    32
  0
VERTEX
  5
2A2A
330
29AE
100
AcDbEntity
  8
0
100
AcDbVertex
100
AcDb3dPolylineVertex
 10
13.42006066397844
 20
5.465177383718258
 30
0.0
 70
    32
  0
VERTEX
  5
2A2B
330
29AE
100
AcDbEntity
  8
0
100
AcDbVertex
100
AcDb3dPolylineVertex
 10
13.41796066397844
 20
5.461587383718258
 30
0.0
 70
    32
  0
VERTEX
  5
2A2C
330
29AE
100
AcDbEntity
  8
0
100
AcDbVertex
100
AcDb3dPolylineVertex
 10
13.41636066397844
 20
5.457957383718258
 30
0.0
 70
    32
  0
VERTEX
  5
2A2D
330
29AE
100
AcDbEntity
  8
0
100
AcDbVertex
100
AcDb3dPolylineVertex
 10
13.41516066397844
 20
5.454307383718258
 30
0.0
 70
    32
  0
VERTEX
  5
2A2E
330
29AE
100
AcDbEntity
  8
0
100
AcDbVertex
100
AcDb3dPolylineVertex
 10
13.41446066397844
 20
5.450637383718258
 30
0.0
 70
    32
  0
VERTEX
  5
2A2F
330
29AE
100
AcDbEntity
  8
0
100
AcDbVertex
100
AcDb3dPolylineVertex
 10
13.41416066397844
 20
5.446957383718259
 30
0.0
 70
    32
  0
SEQEND
  5
2A30
330
29AE
100
AcDbEntity
  8
0
  0
LINE
  5
2A34
330
188C
100
AcDbEntity
  8
0
100
AcDbLine
 10
10.85324412881186
 20
7.717138122819553
 30
0.0
 11
10.85324412881186
 21
6.777138122819553
 31
0.0
  0
LINE
  5
2A35
330
188C
100
AcDbEntity
  8
0
100
AcDbLine
 10
9.791244128811863
 20
7.717138122819553
 30
0.0
 11
9.791244128811863
 21
6.777138122819553
 31
0.0
  0
LINE
  5
2A36
330
188C
100
AcDbEntity
  8
0
100
AcDbLine
 10
9.791244128811863
 20
6.777138122819553
 30
0.0
 11
10.85324412881186
 21
6.777138122819553
 31
0.0
  0
CIRCLE
  5
2A37
330
188C
100
AcDbEntity
  8
0
100
AcDbCircle
 10
10.32224412881186
 20
7.208138122819553
 30
0.0
 40
0.075
  0
LINE
  5
2A38
330
188C
100
AcDbEntity
  8
CENTER
100
AcDbLine
 10
9.691244128811858
 20
7.622138122819553
 30
0.0
 11
10.95324412881186
 21
7.622138122819553
 31
0.0
  0
LINE
  5
2A39
330
188C
100
AcDbEntity
  8
0
100
AcDbLine
 10
10.05224412881186
 20
8.467138122819553
 30
0.0
 11
9.791244128811863
 21
8.206138122819552
 31
0.0
  0
ARC
  5
2A3A
330
188C
100
AcDbEntity
  8
0
100
AcDbCircle
 10
9.791244128811863
 20
7.764138122819554
 30
0.0
 40
0.047
100
AcDbArc
 50
270.0
 51
90.0
  0
LWPOLYLINE
  5
2A3B
330
188C
100
AcDbEntity
  8
0
100
AcDbPolyline
 90
        2
 70
     0
 43
0.0
 10
9.791244128811863
 20
8.206138122819552
 10
9.791244128811863
 20
7.811138122819553
  0
LINE
  5
2A3F
330
188C
100
AcDbEntity
  8
0
100
AcDbLine
 10
10.59224412881187
 20
8.467138122819553
 30
0.0
 11
10.85324412881186
 21
8.206138122819552
 31
0.0
  0
CIRCLE
  5
2A40
330
188C
100
AcDbEntity
  8
0
100
AcDbCircle
 10
10.32224412881186
 20
7.520138122819552
 30
0.0
 40
0.075
  0
CIRCLE
  5
2A41
330
188C
100
AcDbEntity
  8
0
100
AcDbCircle
 10
10.32224412881186
 20
7.832138122819552
 30
0.0
 40
0.075
  0
LWPOLYLINE
  5
2A42
330
188C
100
AcDbEntity
  8
0
100
AcDbPolyline
 90
        2
 70
     0
 43
0.0
 10
10.59224412881187
 20
8.467138122819553
 10
10.05224412881186
 20
8.467138122819553
  0
LWPOLYLINE
  5
2A46
330
188C
100
AcDbEntity
  8
0
100
AcDbPolyline
 90
        2
 70
     0
 43
0.0
 10
10.85324412881186
 20
7.811138122819553
 10
10.85324412881186
 20
8.206138122819552
  0
ARC
  5
2A4A
330
188C
100
AcDbEntity
  8
0
100
AcDbCircle
 10
10.85324412881186
 20
7.764138122819554
 30
0.0
 40
0.047
100
AcDbArc
 50
90.0
 51
270.0
  0
LINE
  5
2A4B
330
188C
100
AcDbEntity
  8
0
100
AcDbLine
 10
14.1402034414887
 20
7.717138122819553
 30
0.0
 11
14.1402034414887
 21
6.777138122819553
 31
0.0
  0
LINE
  5
2A4C
330
188C
100
AcDbEntity
  8
0
100
AcDbLine
 10
13.07820344148871
 20
7.717138122819553
 30
0.0
 11
13.07820344148871
 21
6.777138122819553
 31
0.0
  0
LINE
  5
2A4D
330
188C
100
AcDbEntity
  8
0
100
AcDbLine
 10
13.07820344148871
 20
6.777138122819553
 30
0.0
 11
14.1402034414887
 21
6.777138122819553
 31
0.0
  0
LINE
  5
2A4E
330
188C
100
AcDbEntity
  8
CENTER
100
AcDbLine
 10
12.9782034414887
 20
7.622138122819553
 30
0.0
 11
14.24020344148871
 21
7.622138122819553
 31
0.0
  0
LINE
  5
2A4F
330
188C
100
AcDbEntity
  8
0
100
AcDbLine
 10
13.3392034414887
 20
8.467138122819553
 30
0.0
 11
13.07820344148871
 21
8.206138122819552
 31
0.0
  0
ARC
  5
2A50
330
188C
100
AcDbEntity
  8
0
100
AcDbCircle
 10
13.07820344148871
 20
7.764138122819554
 30
0.0
 40
0.047
100
AcDbArc
 50
270.0
 51
90.0
  0
LWPOLYLINE
  5
2A51
330
188C
100
AcDbEntity
  8
0
100
AcDbPolyline
 90
        2
 70
     0
 43
0.0
 10
13.07820344148871
 20
8.206138122819552
 10
13.07820344148871
 20
7.811138122819553
  0
LINE
  5
2A55
330
188C
100
AcDbEntity
  8
0
100
AcDbLine
 10
13.87920344148871
 20
8.467138122819553
 30
0.0
 11
14.1402034414887
 21
8.206138122819552
 31
0.0
  0
CIRCLE
  5
2A56
330
188C
100
AcDbEntity
  8
0
100
AcDbCircle
 10
13.6092034414887
 20
7.520138122819552
 30
0.0
 40
0.075
  0
CIRCLE
  5
2A57
330
188C
100
AcDbEntity
  8
0
100
AcDbCircle
 10
13.2972034414887
 20
7.520138122819552
 30
0.0
 40
0.075
  0
CIRCLE
  5
2A58
330
188C
100
AcDbEntity
  8
0
100
AcDbCircle
 10
13.9212034414887
 20
7.520138122819552
 30
0.0
 40
0.075
  0
LWPOLYLINE
  5
2A59
330
188C
100
AcDbEntity
  8
0
100
AcDbPolyline
 90
        2
 70
     0
 43
0.0
 10
13.87920344148871
 20
8.467138122819553
 10
13.3392034414887
 20
8.467138122819553
  0
LWPOLYLINE
  5
2A5D
330
188C
100
AcDbEntity
  8
0
100
AcDbPolyline
 90
        2
 70
     0
 43
0.0
 10
14.1402034414887
 20
7.811138122819553
 10
14.1402034414887
 20
8.206138122819552
  0
ARC
  5
2A61
330
188C
100
AcDbEntity
  8
0
100
AcDbCircle
 10
14.1402034414887
 20
7.764138122819554
 30
0.0
 40
0.047
100
AcDbArc
 50
90.0
 51
270.0
  0
LINE
  5
2A62
330
188C
100
AcDbEntity
  8
CENTER
100
AcDbLine
 10
10.32224412881186
 20
6.664056256652339
 30
0.0
 11
10.32224412881186
 21
8.652603642838009
 31
0.0
  0
LINE
  5
2A63
330
188C
100
AcDbEntity
  8
CENTER
100
AcDbLine
 10
13.6092034414887
 20
6.664056256652339
 30
0.0
 11
13.6092034414887
 21
8.610869598169202
 31
0.0
  0
TEXT
  5
2A69
330
188C
100
AcDbEntity
  8
TEXT
100
AcDbText
 10
0.403683103839164
 20
1.023616627084892
 30
0.0
 40
0.125
  1
3) COLOR:   BODY & COVER - BLACK
 41
0.75
100
AcDbText
  0
TEXT
  5
2A6A
330
188C
100
AcDbEntity
  8
TEXT
100
AcDbText
 10
0.403683103839164
 20
1.440283293751558
 30
0.0
 40
0.125
  1
2) FINISH:   BODY & COVER - TEXTURED
 41
0.75
100
AcDbText
  0
TEXT
  5
2A6B
330
188C
100
AcDbEntity
  8
TEXT
100
AcDbText
 10
0.6063553444798009
 20
0.8152832937515579
 30
0.0
 40
0.125
  1
         BUTTON - GRAY
 41
0.75
100
AcDbText
  0
TEXT
  5
2A6C
330
188C
100
AcDbEntity
  8
TEXT
100
AcDbText
 10
0.6063553444798009
 20
1.231949960418225
 30
0.0
 40
0.125
  1
         BUTTON - SMOOTH
 41
0.75
100
AcDbText
  0
TEXT
  5
2A6D
330
188C
100
AcDbEntity
  8
TEXT
100
AcDbText
 10
0.4167054713425529
 20
1.856949960418225
 30
0.0
 40
0.125
  1
1) MATERIAL: BODY & COVER - ABS (UL94-HB)
 41
0.75
100
AcDbText
  0
TEXT
  5
2A6E
330
188C
100
AcDbEntity
  8
TEXT
100
AcDbText
 10
0.4167054713425529
 20
1.648616627084891
 30
0.0
 40
0.125
  1
           BUTTON - ABS & SILICONE RUBBER
 41
0.75
100
AcDbText
  0
TEXT
  5
2A6F
330
188C
100
AcDbEntity
  8
TEXT
100
AcDbText
 10
0.4167054713425529
 20
2.065283293751558
 30
0.0
 40
0.125
  1
NOTE:
 41
0.75
100
AcDbText
  0
TEXT
  5
2A70
330
188C
100
AcDbEntity
  8
TEXT
100
AcDbText
 10
2.803146677820628
 20
9.963982554564832
 30
0.0
 40
0.2
  1
2-BUTTON GRABBER
 41
0.75
100
AcDbText
  0
TEXT
  5
2A71
330
188C
100
AcDbEntity
  8
TEXT
100
AcDbText
 10
10.3787237288464
 20
9.963982554564832
 30
0.0
 40
0.2
  1
HH-3492
 41
0.75
100
AcDbText
  0
TEXT
  5
2A73
330
188C
100
AcDbEntity
  8
TEXT
100
AcDbText
 10
0.403683103839164
 20
0.6073028377037884
 30
0.0
 40
0.125
  1
4) PC BOARD IS NOT INCLUDED.  TO BE FURNISHED BY CUSTOMER.
 41
0.75
100
AcDbText
  0
TEXT
  5
2A74
330
188C
100
AcDbEntity
  8
TEXT
100
AcDbText
 10
0.4010872710073202
 20
0.3595354017853432
 30
0.0
 40
0.125
  1
5) ALL DIMENSIONS HAVE ±0.010 TOLERANCE UNLESS OTHERWISE SPECIFIED.
 41
0.75
100
AcDbText
  0
DIMENSION
  5
2A75
330
188C
100
AcDbEntity
  8
DIM
100
AcDbDimension
  2
*D17
 10
10.85324412881186
 20
9.283259673587604
 30
0.0
 11
10.32224412881186
 21
9.283259673587604
 31
0.0
 70
    32
 71
     5
 42
1.061999999999997
  3
DIM
100
AcDbAlignedDimension
 13
9.791244128811863
 23
8.206138122819552
 33
0.0
 14
10.85324412881186
 24
8.206138122819552
 34
0.0
100
AcDbRotatedDimension
  0
DIMENSION
  5
2A83
330
188C
100
AcDbEntity
  8
DIM
100
AcDbDimension
  2
*D18
 10
7.72600420619063
 20
6.777138122819553
 30
0.0
 11
7.726004206190629
 21
7.622138122819554
 31
0.0
 70
    32
 71
     5
 42
1.69
  3
DIM
100
AcDbAlignedDimension
 13
10.05224412881186
 23
8.467138122819553
 33
0.0
 14
9.791244128811863
 24
6.777138122819553
 34
0.0
 50
90.0
100
AcDbRotatedDimension
  0
DIMENSION
  5
2A91
330
188C
100
AcDbEntity
  8
DIM
100
AcDbDimension
  2
*D19
 10
9.28457314470269
 20
7.832138122819553
 30
0.0
 11
9.284573144702688
 21
8.149638122819554
 31
0.0
 70
    32
 71
     5
 42
0.6350000000000007
  3
DIM
100
AcDbAlignedDimension
 13
10.05224412881186
 23
8.467138122819553
 33
0.0
 14
10.32224412881186
 24
7.832138122819552
 34
0.0
 50
90.0
100
AcDbRotatedDimension
  0
DIMENSION
  5
2A9F
330
188C
100
AcDbEntity
  8
DIM
100
AcDbDimension
  2
*D20
 10
8.770368555273165
 20
7.520138122819553
 30
0.0
 11
8.770368555273163
 21
7.676138122819554
 31
0.0
 70
   160
 71
     5
 42
0.3119999999999994
  3
DIM
100
AcDbAlignedDimension
 13
10.32224412881186
 23
7.832138122819552
 33
0.0
 14
10.32224412881186
 24
7.520138122819552
 34
0.0
 50
90.0
100
AcDbRotatedDimension
  0
DIMENSION
  5
2AAD
330
188C
100
AcDbEntity
  8
DIM
100
AcDbDimension
  2
*D21
 10
8.239007658540536
 20
7.208138122819554
 30
0.0
 11
8.239007658540534
 21
7.520138122819554
 31
0.0
 70
    32
 71
     5
 42
0.6239999999999988
  3
DIM
100
AcDbAlignedDimension
 13
10.32224412881186
 23
7.832138122819552
 33
0.0
 14
10.32224412881186
 24
7.208138122819553
 34
0.0
 50
90.0
100
AcDbRotatedDimension
  0
DIMENSION
  5
2ABB
330
188C
100
AcDbEntity
  8
DIM
100
AcDbDimension
  2
*D22
 10
14.63818236828664
 20
7.764138122819554
 30
0.0
 11
14.63818236828664
 21
8.115638122819555
 31
0.0
 70
    32
 71
     5
 42
0.7029999999999994
  3
DIM
100
AcDbAlignedDimension
 13
13.87920344148871
 23
8.467138122819553
 33
0.0
 14
14.1402034414887
 24
7.764138122819554
 34
0.0
 50
90.0
100
AcDbRotatedDimension
  0
DIMENSION
  5
2AC9
330
188C
100
AcDbEntity
  8
DIM
100
AcDbDimension
  2
*D23
 10
14.14020344148869
 20
7.764138122819549
 30
0.0
 11
14.80797116885174
 21
7.165317043042058
 31
0.0
 70
   164
 71
     5
 42
0.0469999999999962
  3
DIM
100
AcDbRadialDimension
 15
14.15366541894881
 25
7.719107298233904
 35
0.0
 40
0.0
  0
DIMENSION
  5
2AD3
330
188C
100
AcDbEntity
  8
DIM
100
AcDbDimension
  2
*D24
 10
12.45533031384234
 20
7.520138122819552
 30
0.0
 11
12.45533031384234
 21
7.961114029722374
 31
0.0
 70
   160
 71
     5
 42
0.9470000000000018
  3
DIM
100
AcDbAlignedDimension
 13
13.3392034414887
 23
8.467138122819553
 33
0.0
 14
13.2972034414887
 24
7.520138122819552
 34
0.0
 50
90.0
100
AcDbRotatedDimension
  0
DIMENSION
  5
2AE1
330
188C
100
AcDbEntity
  8
DIM
100
AcDbDimension
  2
*D25
 10
13.2972034414887
 20
8.952770172139734
 30
0.0
 11
12.61095344148871
 21
8.952770172139734
 31
0.0
 70
   160
 71
     5
 42
0.3119999999999923
  3
DIM
100
AcDbAlignedDimension
 13
13.6092034414887
 23
8.610869598169202
 33
0.0
 14
13.2972034414887
 24
7.520138122819552
 34
0.0
100
AcDbRotatedDimension
  0
DIMENSION
  5
2AEF
330
188C
100
AcDbEntity
  8
DIM
100
AcDbDimension
  2
*D26
 10
13.9212034414887
 20
9.283259673587604
 30
0.0
 11
13.65943784815633
 21
9.283259673587604
 31
0.0
 70
   160
 71
     5
 42
0.6239999999999935
  3
DIM
100
AcDbAlignedDimension
 13
13.2972034414887
 23
7.520138122819552
 33
0.0
 14
13.9212034414887
 24
7.520138122819552
 34
0.0
100
AcDbRotatedDimension
  0
DIMENSION
  5
2AFD
330
188C
100
AcDbEntity
  8
DIM
100
AcDbDimension
  2
*D27
 10
11.32178230454247
 20
8.206138122819552
 30
0.0
 11
11.32178230454246
 21
8.336638122819554
 31
0.0
 70
   160
 71
     5
 42
0.261000000000001
  3
DIM
100
AcDbAlignedDimension
 13
10.59224412881187
 23
8.467138122819553
 33
0.0
 14
10.85324412881186
 24
8.206138122819552
 34
0.0
 50
90.0
100
AcDbRotatedDimension
  0
DIMENSION
  5
2B0B
330
188C
100
AcDbEntity
  8
DIM
100
AcDbDimension
  2
*D28
 10
10.85324412881186
 20
8.952770172139734
 30
0.0
 11
11.46730662881185
 21
8.952770172139734
 31
0.0
 70
   160
 71
     5
 42
0.2609999999999903
  3
DIM
100
AcDbAlignedDimension
 13
10.59224412881187
 23
8.467138122819553
 33
0.0
 14
10.85324412881186
 24
8.206138122819552
 34
0.0
100
AcDbRotatedDimension
  0
DIMENSION
  5
2B19
330
188C
100
AcDbEntity
  8
DIM
100
AcDbDimension
  2
*D29
 10
13.8735081444667
 20
7.578018677775281
 30
0.0
 11
15.06796757682524
 21
6.702644377573179
 31
0.0
 70
   163
 71
     5
 42
0.150000000000003
  3
DIM
100
AcDbDiametricDimension
 15
13.96889873851073
 25
7.462257567863846
 35
0.0
 40
0.0
  0
TEXT
  5
2C51
330
188C
100
AcDbEntity
  8
DIM
100
AcDbText
 10
9.51719165974225
 20
2.935155676291222
 30
0.0
 40
0.125
  1
BUTTON POSITION
100
AcDbText
  0
TEXT
  5
2C52
330
188C
100
AcDbEntity
  8
DIM
100
AcDbText
 10
9.51719165974225
 20
2.726822342957888
 30
0.0
 40
0.125
  1
      OPTION #1
100
AcDbText
  0
TEXT
  5
2C53
330
188C
100
AcDbEntity
  8
DIM
100
AcDbText
 10
9.54508560283666
 20
6.463286738944214
 30
0.0
 40
0.125
  1
PC BOARD LAYOUT
100
AcDbText
  0
TEXT
  5
2C54
330
188C
100
AcDbEntity
  8
DIM
100
AcDbText
 10
9.54508560283666
 20
6.25495340561088
 30
0.0
 40
0.125
  1
      OPTION #1
100
AcDbText
  0
TEXT
  5
2C55
330
188C
100
AcDbEntity
  8
DIM
100
AcDbText
 10
12.81993958818846
 20
6.463286738944214
 30
0.0
 40
0.125
  1
PC BOARD LAYOUT
100
AcDbText
  0
TEXT
  5
2C56
330
188C
100
AcDbEntity
  8
DIM
100
AcDbText
 10
12.81993958818846
 20
6.25495340561088
 30
0.0
 40
0.125
  1
      OPTION #2
100
AcDbText
  0
TEXT
  5
2C57
330
188C
100
AcDbEntity
  8
DIM
100
AcDbText
 10
12.82298021722694
 20
2.935155676291222
 30
0.0
 40
0.125
  1
BUTTON POSITION
100
AcDbText
  0
TEXT
  5
2C58
330
188C
100
AcDbEntity
  8
DIM
100
AcDbText
 10
12.82298021722694
 20
2.726822342957888
 30
0.0
 40
0.125
  1
      OPTION #2
100
AcDbText
  0
INSERT
  5
2D33
330
188C
100
AcDbEntity
  8
OBJECT
100
AcDbBlockReference
  2
HBS
 10
0.0
 20
0.0
 30
0.0
  0
LEADER
  5
3193
330
188C
100
AcDbEntity
  8
DIM
100
AcDbLeader
  3
DIM
 73
     0
 75
     1
 40
0.5416666666666666
 41
0.765625
 76
     3
 10
4.015140151798703
 20
4.334709421168074
 30
0.0
 10
3.147120912543549
 20
2.659141778400808
 30
0.0
 10
2.967120912543549
 20
2.659141778400808
 30
0.0
340
3194
213
0.0
223
0.0625
233
0.0
  0
MTEXT
  5
3194
102
{ACAD_REACTORS
330
3193
102
}
330
188C
100
AcDbEntity
  8
DIM
100
AcDbMText
 10
2.877120912543549
 20
2.596641778400808
 30
0.0
 40
0.125
 41
0.0
 71
     9
 72
     1
  1
\A1;RECESSED\PSMOOTH\P0.010 DEEP
  7
TXT
 73
     1
 44
1.0
  0
TEXT
  5
3327
330
188C
100
AcDbEntity
  8
TEXT
100
AcDbText
 10
15.19848330941655
 20
9.963982554564832
 30
0.0
 40
0.2
  1
10-29-08
 41
0.75
100
AcDbText
  0
TEXT
  5
332D
330
188C
100
AcDbEntity
  8
BASE
100
AcDbText
 10
4.236659457880201
 20
5.719313198354126
 30
0.0
 40
0.125
  1
C
100
AcDbText
  0
TEXT
  5
332E
330
188C
100
AcDbEntity
  8
BASE
100
AcDbText
 10
4.283644297350471
 20
5.654145836917682
 30
0.0
 40
0.125
  1
L
100
AcDbText
  0
TEXT
  5
332F
330
188C
100
AcDbEntity
  8
BASE
100
AcDbText
 10
3.493231778815325
 20
4.501813198354128
 30
0.0
 40
0.125
  1
C
100
AcDbText
  0
TEXT
  5
3330
330
188C
100
AcDbEntity
  8
BASE
100
AcDbText
 10
3.540216618285595
 20
4.436645836917683
 30
0.0
 40
0.125
  1
L
100
AcDbText
  0
TEXT
  5
3331
330
188C
100
AcDbEntity
  8
COVER
100
AcDbText
 10
9.446808855719869
 20
4.501813198354128
 30
0.0
 40
0.125
  1
C
100
AcDbText
  0
TEXT
  5
3332
330
188C
100
AcDbEntity
  8
COVER
100
AcDbText
 10
9.493793695190138
 20
4.436645836917683
 30
0.0
 40
0.125
  1
L
100
AcDbText
  0
TEXT
  5
3333
330
188C
100
AcDbEntity
  8
COVER
100
AcDbText
 10
10.27759534412777
 20
5.719313198354126
 30
0.0
 40
0.125
  1
C
100
AcDbText
  0
TEXT
  5
3334
330
188C
100
AcDbEntity
  8
COVER
100
AcDbText
 10
10.32458018359804
 20
5.654145836917682
 30
0.0
 40
0.125
  1
L
100
AcDbText
  0
TEXT
  5
3335
330
188C
100
AcDbEntity
  8
COVER
100
AcDbText
 10
12.73376816839671
 20
4.501813198354128
 30
0.0
 40
0.125
  1
C
100
AcDbText
  0
TEXT
  5
3336
330
188C
100
AcDbEntity
  8
COVER
100
AcDbText
 10
12.78075300786698
 20
4.436645836917683
 30
0.0
 40
0.125
  1
L
100
AcDbText
  0
TEXT
  5
3337
330
188C
100
AcDbEntity
  8
COVER
100
AcDbText
 10
13.56455465680461
 20
5.719313198354126
 30
0.0
 40
0.125
  1
C
100
AcDbText
  0
TEXT
  5
3338
330
188C
100
AcDbEntity
  8
COVER
100
AcDbText
 10
13.61153949627488
 20
5.654145836917682
 30
0.0
 40
0.125
  1
L
100
AcDbText
  0
TEXT
  5
3339
330
188C
100
AcDbEntity
  8
0
100
AcDbText
 10
9.607479338965189
 20
7.605109972931415
 30
0.0
 40
0.125
  1
C
100
AcDbText
  0
TEXT
  5
333A
330
188C
100
AcDbEntity
  8
0
100
AcDbText
 10
9.654464178435459
 20
7.539942611494971
 30
0.0
 40
0.125
  1
L
100
AcDbText
  0
TEXT
  5
333B
330
188C
100
AcDbEntity
  8
0
100
AcDbText
 10
10.27759534412777
 20
8.20730112433287
 30
0.0
 40
0.125
  1
C
100
AcDbText
  0
TEXT
  5
333C
330
188C
100
AcDbEntity
  8
0
100
AcDbText
 10
10.32458018359804
 20
8.142133762896426
 30
0.0
 40
0.125
  1
L
100
AcDbText
  0
TEXT
  5
333D
330
188C
100
AcDbEntity
  8
0
100
AcDbText
 10
13.56455465680461
 20
8.20730112433287
 30
0.0
 40
0.125
  1
C
100
AcDbText
  0
TEXT
  5
333E
330
188C
100
AcDbEntity
  8
0
100
AcDbText
 10
13.61153949627488
 20
8.142133762896426
 30
0.0
 40
0.125
  1
L
100
AcDbText
  0
TEXT
  5
333F
330
188C
100
AcDbEntity
  8
0
100
AcDbText
 10
12.89443865164202
 20
7.605109972931415
 30
0.0
 40
0.125
  1
C
100
AcDbText
  0
TEXT
  5
3340
330
188C
100
AcDbEntity
  8
0
100
AcDbText
 10
12.94142349111229
 20
7.539942611494971
 30
0.0
 40
0.125
  1
L
100
AcDbText
  0
ENDSEC
  0
SECTION
  2
OBJECTS
  0
DICTIONARY
  5
187A
330
0
100
AcDbDictionary
281
     1
  3
ACAD_GROUP
350
187B
  3
ACAD_LAYOUT
350
1887
  3
ACAD_MLINESTYLE
350
1884
  3
ACAD_PLOTSETTINGS
350
1886
  3
ACAD_PLOTSTYLENAME
350
187C
  3
ASE_INDEX_DICTIONARY
350
2B28
  0
DICTIONARY
  5
187B
102
{ACAD_REACTORS
330
187A
102
}
330
187A
100
AcDbDictionary
281
     1
  0
DICTIONARY
  5
1887
102
{ACAD_REACTORS
330
187A
102
}
330
187A
100
AcDbDictionary
281
     1
  3
Layout1
350
188B
  3
Model
350
188F
  0
DICTIONARY
  5
1884
102
{ACAD_REACTORS
330
187A
102
}
330
187A
100
AcDbDictionary
281
     1
  3
Standard
350
1885
  0
DICTIONARY
  5
1886
102
{ACAD_REACTORS
330
187A
102
}
330
187A
100
AcDbDictionary
281
     1
  0
ACDBDICTIONARYWDFLT
  5
187C
102
{ACAD_REACTORS
330
187A
102
}
330
187A
100
AcDbDictionary
281
     1
  3
Normal
350
187D
100
AcDbDictionaryWithDefault
340
187D
  0
DICTIONARY
  5
2B28
102
{ACAD_REACTORS
330
187A
102
}
330
187A
100
AcDbDictionary
281
     1
  3
ASEBlockHierarchyIndexRecord
350
2B2A
1001
DCO15
1040
1638677164.437
  0
LAYOUT
  5
188B
102
{ACAD_REACTORS
330
1887
102
}
330
1887
100
AcDbPlotSettings
  1

  2
None
  4

  6

 40
0.0
 41
0.0
 42
0.0
 43
0.0
 44
0.0
 45
0.0
 46
0.0
 47
0.0
 48
0.0
 49
0.0
140
0.0
141
0.0
142
1.0
143
1.0
 70
   688
 72
     0
 73
     0
 74
     5
  7
monochrome.ctb
 75
    16
147
1.0
148
0.0
149
0.0
100
AcDbLayout
  1
Layout1
 70
     1
 71
     1
 10
0.0
 20
0.0
 11
12.0
 21
9.0
 12
0.0
 22
0.0
 32
0.0
 14
1.000000000000000E+20
 24
1.000000000000000E+20
 34
1.000000000000000E+20
 15
-1.000000000000000E+20
 25
-1.000000000000000E+20
 35
-1.000000000000000E+20
146
0.0
 13
0.0
 23
0.0
 33
0.0
 16
1.0
 26
0.0
 36
0.0
 17
0.0
 27
1.0
 37
0.0
 76
     0
330
1888
  0
LAYOUT
  5
188F
102
{ACAD_REACTORS
330
1887
102
}
330
1887
100
AcDbPlotSettings
  1

  2
Acrobat PDFWriter
  4
Tabloid
  6

 40
7.143749713897705
 41
7.143756389617919
 42
7.143768310546875
 43
7.14373779296875
 44
431.7999877929687
 45
279.3999938964843
 46
0.0
 47
2.794
 48
0.0
 49
0.0
140
0.0
141
0.0
142
1.0
143
1.010012517006431
 70
 11956
 72
     0
 73
     0
 74
     1
  7
monochrome.ctb
 75
     0
147
0.9900867396811005
148
0.0266250711443391
149
0.0170521817901978
100
AcDbLayout
  1
Model
 70
     1
 71
     0
 10
0.0
 20
0.0
 11
12.0
 21
9.0
 12
0.0
 22
0.0
 32
0.0
 14
0.0
 24
0.0
 34
0.0
 15
0.0
 25
0.0
 35
0.0
146
0.0
 13
0.0
 23
0.0
 33
0.0
 16
1.0
 26
0.0
 36
0.0
 17
0.0
 27
1.0
 37
0.0
 76
     0
330
188C
  0
MLINESTYLE
  5
1885
102
{ACAD_REACTORS
330
1884
102
}
330
1884
100
AcDbMlineStyle
  2
STANDARD
 70
     0
  3

 62
   256
 51
90.0
 52
90.0
 71
     2
 49
0.5
 62
   256
  6
BYLAYER
 49
-0.5
 62
   256
  6
BYLAYER
  0
ACDBPLACEHOLDER
  5
187D
102
{ACAD_REACTORS
330
187C
102
}
330
187C
  0
XRECORD
  5
2B2A
102
{ACAD_REACTORS
330
2B28
102
}
330
2B28
100
AcDbXrecord
280
     1
330
287F
330
2880
330
2888
330
2889
330
0
330
29A8
330
29AD
330
0
330
0
330
0
330
2A64
330
2A65
330
2A66
330
2A67
330
0
330
0
330
0
330
0
330
0
330
0
330
0
330
0
330
0
330
0
330
0
330
0
330
0
330
0
330
0
330
0
330
0
330
0
330
0
330
0
330
0
330
0
330
0
330
0
330
0
330
0
330
0
330
0
330
0
330
0
330
0
  0
ENDSEC
  0
EOF
