  0
SECTION
  2
HEADER
  9
$ACADVER
  1
AC1015
  9
$ACADMAINTVER
 70
     6
  9
$DWGCODEPAGE
  3
ANSI_1252
  9
$INSBASE
 10
0.0
 20
0.0
 30
0.0
  9
$EXTMIN
 10
0.0
 20
-0.0000000000000036
 30
0.0
  9
$EXTMAX
 10
21.2
 20
31.32
 30
0.0
  9
$LIMMIN
 10
0.0
 20
0.0
  9
$LIMMAX
 10
21.2
 20
31.31999999999999
  9
$ORTHOMODE
 70
     1
  9
$REGENMODE
 70
     1
  9
$FILLMODE
 70
     1
  9
$QTEXTMODE
 70
     0
  9
$MIRRTEXT
 70
     0
  9
$LTSCALE
 40
0.75
  9
$ATTMODE
 70
     1
  9
$TEXTSIZE
 40
0.25
  9
$TRACEWID
 40
0.05
  9
$TEXTSTYLE
  7
TXT
  9
$CLAYER
  8
OBJECT
  9
$CELTYPE
  6
ByLayer
  9
$CECOLOR
 62
   256
  9
$CELTSCALE
 40
1.0
  9
$DISPSILH
 70
     0
  9
$DIMSCALE
 40
2.0
  9
$DIMASZ
 40
0.18
  9
$DIMEXO
 40
0.063
  9
$DIMDLI
 40
0.281
  9
$DIMRND
 40
0.0
  9
$DIMDLE
 40
0.0
  9
$DIMEXE
 40
0.093
  9
$DIMTP
 40
0.0
  9
$DIMTM
 40
0.0
  9
$DIMTXT
 40
0.125
  9
$DIMCEN
 40
0.09
  9
$DIMTSZ
 40
0.0
  9
$DIMTOL
 70
     0
  9
$DIMLIM
 70
     0
  9
$DIMTIH
 70
     1
  9
$DIMTOH
 70
     1
  9
$DIMSE1
 70
     0
  9
$DIMSE2
 70
     0
  9
$DIMTAD
 70
     0
  9
$DIMZIN
 70
     0
  9
$DIMBLK
  1

  9
$DIMASO
 70
     1
  9
$DIMSHO
 70
     1
  9
$DIMPOST
  1

  9
$DIMAPOST
  1

  9
$DIMALT
 70
     0
  9
$DIMALTD
 70
     2
  9
$DIMALTF
 40
25.4
  9
$DIMLFAC
 40
1.0
  9
$DIMTOFL
 70
     0
  9
$DIMTVP
 40
0.0
  9
$DIMTIX
 70
     0
  9
$DIMSOXD
 70
     0
  9
$DIMSAH
 70
     0
  9
$DIMBLK1
  1

  9
$DIMBLK2
  1

  9
$DIMSTYLE
  2
23NSTD
  9
$DIMCLRD
 70
     0
  9
$DIMCLRE
 70
     0
  9
$DIMCLRT
 70
     0
  9
$DIMTFAC
 40
1.0
  9
$DIMGAP
 40
0.09
  9
$DIMJUST
 70
     0
  9
$DIMSD1
 70
     0
  9
$DIMSD2
 70
     0
  9
$DIMTOLJ
 70
     1
  9
$DIMTZIN
 70
     0
  9
$DIMALTZ
 70
     0
  9
$DIMALTTZ
 70
     0
  9
$DIMUPT
 70
     0
  9
$DIMDEC
 70
     3
  9
$DIMTDEC
 70
     3
  9
$DIMALTU
 70
     2
  9
$DIMALTTD
 70
     2
  9
$DIMTXSTY
  7
TXT
  9
$DIMAUNIT
 70
     0
  9
$DIMADEC
 70
     0
  9
$DIMALTRND
 40
0.0
  9
$DIMAZIN
 70
     0
  9
$DIMDSEP
 70
    46
  9
$DIMATFIT
 70
     1
  9
$DIMFRAC
 70
     0
  9
$DIMLDRBLK
  1

  9
$DIMLUNIT
 70
     2
  9
$DIMLWD
 70
    -2
  9
$DIMLWE
 70
    -2
  9
$DIMTMOVE
 70
     0
  9
$LUNITS
 70
     2
  9
$LUPREC
 70
     3
  9
$SKETCHINC
 40
0.1
  9
$FILLETRAD
 40
0.125
  9
$AUNITS
 70
     0
  9
$AUPREC
 70
     0
  9
$MENU
  1
.
  9
$ELEVATION
 40
0.0
  9
$PELEVATION
 40
0.0
  9
$THICKNESS
 40
0.0
  9
$LIMCHECK
 70
     0
  9
$CHAMFERA
 40
0.5
  9
$CHAMFERB
 40
0.5
  9
$CHAMFERC
 40
1.0
  9
$CHAMFERD
 40
0.0
  9
$SKPOLY
 70
     0
  9
$TDCREATE
 40
2452858.332150058
  9
$TDUCREATE
 40
2452858.540483391
  9
$TDUPDATE
 40
2452963.566053055
  9
$TDUUPDATE
 40
2452963.774386388
  9
$TDINDWG
 40
0.5480631481
  9
$TDUSRTIMER
 40
0.5480631481
  9
$USRTIMER
 70
     1
  9
$ANGBASE
 50
0.0
  9
$ANGDIR
 70
     0
  9
$PDMODE
 70
     0
  9
$PDSIZE
 40
0.0
  9
$PLINEWID
 40
0.0
  9
$SPLFRAME
 70
     0
  9
$SPLINETYPE
 70
     6
  9
$SPLINESEGS
 70
     8
  9
$HANDSEED
  5
58FF
  9
$SURFTAB1
 70
     6
  9
$SURFTAB2
 70
     6
  9
$SURFTYPE
 70
     6
  9
$SURFU
 70
     6
  9
$SURFV
 70
     6
  9
$UCSBASE
  2

  9
$UCSNAME
  2

  9
$UCSORG
 10
0.0
 20
0.0
 30
0.0
  9
$UCSXDIR
 10
1.0
 20
0.0
 30
0.0
  9
$UCSYDIR
 10
0.0
 20
1.0
 30
0.0
  9
$UCSORTHOREF
  2

  9
$UCSORTHOVIEW
 70
     0
  9
$UCSORGTOP
 10
0.0
 20
0.0
 30
0.0
  9
$UCSORGBOTTOM
 10
0.0
 20
0.0
 30
0.0
  9
$UCSORGLEFT
 10
0.0
 20
0.0
 30
0.0
  9
$UCSORGRIGHT
 10
0.0
 20
0.0
 30
0.0
  9
$UCSORGFRONT
 10
0.0
 20
0.0
 30
0.0
  9
$UCSORGBACK
 10
0.0
 20
0.0
 30
0.0
  9
$PUCSBASE
  2

  9
$PUCSNAME
  2

  9
$PUCSORG
 10
0.0
 20
0.0
 30
0.0
  9
$PUCSXDIR
 10
1.0
 20
0.0
 30
0.0
  9
$PUCSYDIR
 10
0.0
 20
1.0
 30
0.0
  9
$PUCSORTHOREF
  2

  9
$PUCSORTHOVIEW
 70
     0
  9
$PUCSORGTOP
 10
0.0
 20
0.0
 30
0.0
  9
$PUCSORGBOTTOM
 10
0.0
 20
0.0
 30
0.0
  9
$PUCSORGLEFT
 10
0.0
 20
0.0
 30
0.0
  9
$PUCSORGRIGHT
 10
0.0
 20
0.0
 30
0.0
  9
$PUCSORGFRONT
 10
0.0
 20
0.0
 30
0.0
  9
$PUCSORGBACK
 10
0.0
 20
0.0
 30
0.0
  9
$USERI1
 70
     0
  9
$USERI2
 70
     0
  9
$USERI3
 70
     0
  9
$USERI4
 70
     0
  9
$USERI5
 70
     0
  9
$USERR1
 40
0.0
  9
$USERR2
 40
0.0
  9
$USERR3
 40
0.0
  9
$USERR4
 40
0.0
  9
$USERR5
 40
0.0
  9
$WORLDVIEW
 70
     1
  9
$SHADEDGE
 70
     3
  9
$SHADEDIF
 70
    70
  9
$TILEMODE
 70
     1
  9
$MAXACTVP
 70
    64
  9
$PINSBASE
 10
0.0
 20
0.0
 30
0.0
  9
$PLIMCHECK
 70
     0
  9
$PEXTMIN
 10
1.000000000000000E+20
 20
1.000000000000000E+20
 30
1.000000000000000E+20
  9
$PEXTMAX
 10
-1.000000000000000E+20
 20
-1.000000000000000E+20
 30
-1.000000000000000E+20
  9
$PLIMMIN
 10
0.0
 20
0.0
  9
$PLIMMAX
 10
12.0
 20
9.0
  9
$UNITMODE
 70
     0
  9
$VISRETAIN
 70
     1
  9
$PLINEGEN
 70
     0
  9
$PSLTSCALE
 70
     1
  9
$TREEDEPTH
 70
  3020
  9
$CMLSTYLE
  2
Standard
  9
$CMLJUST
 70
     0
  9
$CMLSCALE
 40
1.0
  9
$PROXYGRAPHICS
 70
     1
  9
$MEASUREMENT
 70
     0
  9
$CELWEIGHT
370
    -1
  9
$ENDCAPS
280
     0
  9
$JOINSTYLE
280
     0
  9
$LWDISPLAY
290
     0
  9
$INSUNITS
 70
     1
  9
$HYPERLINKBASE
  1

  9
$STYLESHEET
  1
monochrome.ctb
  9
$XEDIT
290
     1
  9
$CEPSNTYPE
380
     0
  9
$PSTYLEMODE
290
     1
  9
$FINGERPRINTGUID
  2
{FDEAD576-A652-11D2-9A35-0060089B3A3F}
  9
$VERSIONGUID
  2
{5FC9B3AB-1ABD-11D8-8564-00C04F604D21}
  9
$EXTNAMES
290
     1
  9
$PSVPSCALE
 40
0.0
  9
$OLESTARTUP
290
     0
  0
ENDSEC
  0
SECTION
  2
CLASSES
  0
CLASS
  1
ACDBDICTIONARYWDFLT
  2
AcDbDictionaryWithDefault
  3
AutoCAD 2000
 90
        0
280
     0
281
     0
  0
CLASS
  1
ACDBPLACEHOLDER
  2
AcDbPlaceHolder
  3
AutoCAD 2000
 90
        0
280
     0
281
     0
  0
CLASS
  1
LAYOUT
  2
AcDbLayout
  3
AutoCAD 2000
 90
        0
280
     0
281
     0
  0
CLASS
  1
DICTIONARYVAR
  2
AcDbDictionaryVar
  3
AutoCAD 2000
 90
        0
280
     0
281
     0
  0
ENDSEC
  0
SECTION
  2
TABLES
  0
TABLE
  2
VPORT
  5
8
330
0
100
AcDbSymbolTable
 70
     3
  0
VPORT
  5
58FE
330
8
100
AcDbSymbolTableRecord
100
AcDbViewportTableRecord
  2
*Active
 70
     0
 10
0.0
 20
0.0
 11
1.0
 21
1.0
 12
10.6000000493601
 22
15.66000007292256
 13
0.0
 23
0.0
 14
0.5
 24
0.5
 15
0.5
 25
0.5
 16
0.0
 26
0.0
 36
1.0
 17
0.0
 27
0.0
 37
0.0
 40
31.6889652729057
 41
1.884540117416829
 42
50.0
 43
0.0
 44
0.0
 50
0.0
 51
0.0
 71
     0
 72
   100
 73
     1
 74
     2
 75
     0
 76
     0
 77
     0
 78
     0
281
     0
 65
     1
110
0.0
120
0.0
130
0.0
111
1.0
121
0.0
131
0.0
112
0.0
122
1.0
132
0.0
 79
     0
146
0.0
  0
ENDTAB
  0
TABLE
  2
LTYPE
  5
5
330
0
100
AcDbSymbolTable
 70
     6
  0
LTYPE
  5
14
330
5
100
AcDbSymbolTableRecord
100
AcDbLinetypeTableRecord
  2
ByBlock
 70
     0
  3

 72
    65
 73
     0
 40
0.0
  0
LTYPE
  5
15
330
5
100
AcDbSymbolTableRecord
100
AcDbLinetypeTableRecord
  2
ByLayer
 70
     0
  3

 72
    65
 73
     0
 40
0.0
  0
LTYPE
  5
16
330
5
100
AcDbSymbolTableRecord
100
AcDbLinetypeTableRecord
  2
Continuous
 70
     0
  3
Solid line
 72
    65
 73
     0
 40
0.0
  0
LTYPE
  5
48
330
5
100
AcDbSymbolTableRecord
100
AcDbLinetypeTableRecord
  2
HIDDEN
 70
     0
  3
_ _ _ _ _ _ _ _ _ _ _ _ _ _ _ _ _ _ _ _ _ _ _
 72
    65
 73
     2
 40
0.375
 49
0.25
 74
     0
 49
-0.125
 74
     0
  0
LTYPE
  5
49
330
5
100
AcDbSymbolTableRecord
100
AcDbLinetypeTableRecord
  2
PHANTOM
 70
     0
  3
_____ _ _ _____ _ _ _____ _ _ _____ _ _ ____
 72
    65
 73
     6
 40
2.5
 49
1.25
 74
     0
 49
-0.25
 74
     0
 49
0.25
 74
     0
 49
-0.25
 74
     0
 49
0.25
 74
     0
 49
-0.25
 74
     0
  0
LTYPE
  5
4A
330
5
100
AcDbSymbolTableRecord
100
AcDbLinetypeTableRecord
  2
CENTER
 70
     0
  3
____ _ ____ _ ____ _ ____ _ ____ _ ____ _ ____
 72
    65
 73
     4
 40
2.0
 49
1.25
 74
     0
 49
-0.25
 74
     0
 49
0.25
 74
     0
 49
-0.25
 74
     0
  0
LTYPE
  5
4B
330
5
100
AcDbSymbolTableRecord
100
AcDbLinetypeTableRecord
  2
HIDDEN2
 70
     0
  3
_ _ _ _ _ _ _ _ _ _ _ _ _ _ _ _ _ _ _ _ _ _ _ _
 72
    65
 73
     2
 40
0.1875
 49
0.125
 74
     0
 49
-0.0625
 74
     0
  0
LTYPE
  5
4C
330
5
100
AcDbSymbolTableRecord
100
AcDbLinetypeTableRecord
  2
PHANTOM2
 70
     0
  3
___ _ _ ___ _ _ ___ _ _ ___ _ _ ___ _ _ ___ _ _
 72
    65
 73
     6
 40
1.25
 49
0.625
 74
     0
 49
-0.125
 74
     0
 49
0.125
 74
     0
 49
-0.125
 74
     0
 49
0.125
 74
     0
 49
-0.125
 74
     0
  0
ENDTAB
  0
TABLE
  2
LAYER
  5
2
330
0
100
AcDbSymbolTable
 70
     9
  0
LAYER
  5
10
330
2
100
AcDbSymbolTableRecord
100
AcDbLayerTableRecord
  2
0
 70
     0
 62
     7
  6
Continuous
370
    -3
390
F
  0
LAYER
  5
4D
330
2
100
AcDbSymbolTableRecord
100
AcDbLayerTableRecord
  2
OBJECT
 70
     0
 62
     7
  6
Continuous
370
    -3
390
F
  0
LAYER
  5
4E
330
2
100
AcDbSymbolTableRecord
100
AcDbLayerTableRecord
  2
DIM
 70
     0
 62
     7
  6
Continuous
370
    -3
390
F
  0
LAYER
  5
4F
330
2
100
AcDbSymbolTableRecord
100
AcDbLayerTableRecord
  2
HIDDEN
 70
     0
 62
     7
  6
HIDDEN
370
    -3
390
F
  0
LAYER
  5
50
330
2
100
AcDbSymbolTableRecord
100
AcDbLayerTableRecord
  2
BEND
 70
     0
 62
     7
  6
PHANTOM
370
    -3
390
F
  0
LAYER
  5
51
330
2
100
AcDbSymbolTableRecord
100
AcDbLayerTableRecord
  2
TEXT
 70
     0
 62
     7
  6
Continuous
370
    -3
390
F
  0
LAYER
  5
52
330
2
100
AcDbSymbolTableRecord
100
AcDbLayerTableRecord
  2
TITLE
 70
     0
 62
     7
  6
Continuous
370
    -3
390
F
  0
LAYER
  5
53
330
2
100
AcDbSymbolTableRecord
100
AcDbLayerTableRecord
  2
CENTER
 70
     0
 62
     7
  6
CENTER
370
    -3
390
F
  0
LAYER
  5
27C4
330
2
100
AcDbSymbolTableRecord
100
AcDbLayerTableRecord
  2
Defpoints
 70
     0
 62
     7
  6
Continuous
290
     0
370
    -3
390
F
  0
ENDTAB
  0
TABLE
  2
STYLE
  5
3
330
0
100
AcDbSymbolTable
 70
     1
  0
STYLE
  5
11
330
3
100
AcDbSymbolTableRecord
100
AcDbTextStyleTableRecord
  2
TXT
 70
     0
 40
0.0
 41
0.75
 50
0.0
 71
     0
 42
0.25
  3
txt.shx
  4

  0
ENDTAB
  0
TABLE
  2
VIEW
  5
6
330
0
100
AcDbSymbolTable
 70
     0
  0
ENDTAB
  0
TABLE
  2
UCS
  5
7
330
0
100
AcDbSymbolTable
 70
     0
  0
ENDTAB
  0
TABLE
  2
APPID
  5
9
330
0
100
AcDbSymbolTable
 70
     2
  0
APPID
  5
12
330
9
100
AcDbSymbolTableRecord
100
AcDbRegAppTableRecord
  2
ACAD
 70
     0
  0
APPID
  5
279C
330
9
100
AcDbSymbolTableRecord
100
AcDbRegAppTableRecord
  2
DCO15
 70
     0
  0
ENDTAB
  0
TABLE
  2
DIMSTYLE
  5
A
330
0
100
AcDbSymbolTable
 70
     2
100
AcDbDimStyleTable
 71
     2
340
55
340
56
  0
DIMSTYLE
105
55
102
{ACAD_REACTORS
330
27C3
330
27D2
330
27E0
330
27EE
330
27FC
330
280A
330
2818
330
2885
330
2AB4
330
2AAA
330
2AB3
330
2AB8
330
2AB7
330
2AAB
330
2ABA
330
2CB5
330
2CC3
330
2D3D
330
2CFF
330
2C99
330
2C8B
330
2D21
330
2D2F
330
2D9B
330
2DAA
330
2E95
330
2EA3
330
2EB1
330
2EDD
330
2FC7
330
2FD5
330
2FE3
330
2FF1
330
3036
330
3044
330
3066
330
3075
330
3083
330
3091
330
30A2
330
30A1
330
30A0
330
30E8
330
30EA
330
30E9
330
3130
330
2880
330
2883
330
5142
330
56C0
102
}
330
A
100
AcDbSymbolTableRecord
100
AcDbDimStyleTableRecord
  2
23NSTD
 70
     0
 40
2.0
 42
0.063
 43
0.281
 44
0.093
140
0.125
271
     3
272
     3
289
     1
340
11
  0
DIMSTYLE
105
56
102
{ACAD_REACTORS
330
2AB9
330
2CD1
330
2CA7
330
56CE
102
}
330
A
100
AcDbSymbolTableRecord
100
AcDbDimStyleTableRecord
  2
23NSTDI
 70
     0
 40
2.0
 42
0.063
 43
0.281
 44
0.093
140
0.125
174
     1
271
     3
272
     3
289
     0
340
11
  0
ENDTAB
  0
TABLE
  2
BLOCK_RECORD
  5
1
330
0
100
AcDbSymbolTable
 70
    54
  0
BLOCK_RECORD
  5
1F
330
1
100
AcDbSymbolTableRecord
100
AcDbBlockTableRecord
  2
*Model_Space
340
22
  0
BLOCK_RECORD
  5
1B
330
1
100
AcDbSymbolTableRecord
100
AcDbBlockTableRecord
  2
*Paper_Space
340
1E
  0
BLOCK_RECORD
  5
23
330
1
100
AcDbSymbolTableRecord
100
AcDbBlockTableRecord
  2
*Paper_Space0
340
26
  0
BLOCK_RECORD
  5
279D
330
1
100
AcDbSymbolTableRecord
100
AcDbBlockTableRecord
  2
Hb
340
0
102
{BLKREFS
331
3951
102
}
  0
BLOCK_RECORD
  5
27C5
330
1
100
AcDbSymbolTableRecord
100
AcDbBlockTableRecord
  2
*D2
340
0
  0
BLOCK_RECORD
  5
27D3
330
1
100
AcDbSymbolTableRecord
100
AcDbBlockTableRecord
  2
*D3
340
0
  0
BLOCK_RECORD
  5
27E1
330
1
100
AcDbSymbolTableRecord
100
AcDbBlockTableRecord
  2
*D4
340
0
  0
BLOCK_RECORD
  5
27EF
330
1
100
AcDbSymbolTableRecord
100
AcDbBlockTableRecord
  2
*D5
340
0
  0
BLOCK_RECORD
  5
27FD
330
1
100
AcDbSymbolTableRecord
100
AcDbBlockTableRecord
  2
*D6
340
0
  0
BLOCK_RECORD
  5
280B
330
1
100
AcDbSymbolTableRecord
100
AcDbBlockTableRecord
  2
*D7
340
0
  0
BLOCK_RECORD
  5
2819
330
1
100
AcDbSymbolTableRecord
100
AcDbBlockTableRecord
  2
*D8
340
0
  0
BLOCK_RECORD
  5
2886
330
1
100
AcDbSymbolTableRecord
100
AcDbBlockTableRecord
  2
*D9
340
0
  0
BLOCK_RECORD
  5
2B23
330
1
100
AcDbSymbolTableRecord
100
AcDbBlockTableRecord
  2
*D10
340
0
  0
BLOCK_RECORD
  5
2B30
330
1
100
AcDbSymbolTableRecord
100
AcDbBlockTableRecord
  2
*D11
340
0
  0
BLOCK_RECORD
  5
2B4A
330
1
100
AcDbSymbolTableRecord
100
AcDbBlockTableRecord
  2
*D12
340
0
  0
BLOCK_RECORD
  5
2B57
330
1
100
AcDbSymbolTableRecord
100
AcDbBlockTableRecord
  2
*D13
340
0
  0
BLOCK_RECORD
  5
2B64
330
1
100
AcDbSymbolTableRecord
100
AcDbBlockTableRecord
  2
*D14
340
0
  0
BLOCK_RECORD
  5
2B71
330
1
100
AcDbSymbolTableRecord
100
AcDbBlockTableRecord
  2
*D15
340
0
  0
BLOCK_RECORD
  5
2B7E
330
1
100
AcDbSymbolTableRecord
100
AcDbBlockTableRecord
  2
*D16
340
0
  0
BLOCK_RECORD
  5
2B8B
330
1
100
AcDbSymbolTableRecord
100
AcDbBlockTableRecord
  2
*D17
340
0
  0
BLOCK_RECORD
  5
2C8C
330
1
100
AcDbSymbolTableRecord
100
AcDbBlockTableRecord
  2
*D18
340
0
  0
BLOCK_RECORD
  5
2C9A
330
1
100
AcDbSymbolTableRecord
100
AcDbBlockTableRecord
  2
*D19
340
0
  0
BLOCK_RECORD
  5
2CA8
330
1
100
AcDbSymbolTableRecord
100
AcDbBlockTableRecord
  2
*D20
340
0
  0
BLOCK_RECORD
  5
2CB6
330
1
100
AcDbSymbolTableRecord
100
AcDbBlockTableRecord
  2
*D21
340
0
  0
BLOCK_RECORD
  5
2CC4
330
1
100
AcDbSymbolTableRecord
100
AcDbBlockTableRecord
  2
*D22
340
0
  0
BLOCK_RECORD
  5
2CD2
330
1
100
AcDbSymbolTableRecord
100
AcDbBlockTableRecord
  2
*D23
340
0
  0
BLOCK_RECORD
  5
2D00
330
1
100
AcDbSymbolTableRecord
100
AcDbBlockTableRecord
  2
*D24
340
0
  0
BLOCK_RECORD
  5
2D22
330
1
100
AcDbSymbolTableRecord
100
AcDbBlockTableRecord
  2
*D25
340
0
  0
BLOCK_RECORD
  5
2D30
330
1
100
AcDbSymbolTableRecord
100
AcDbBlockTableRecord
  2
*D26
340
0
  0
BLOCK_RECORD
  5
2D3E
330
1
100
AcDbSymbolTableRecord
100
AcDbBlockTableRecord
  2
*D27
340
0
  0
BLOCK_RECORD
  5
2D9C
330
1
100
AcDbSymbolTableRecord
100
AcDbBlockTableRecord
  2
*D28
340
0
  0
BLOCK_RECORD
  5
2DAB
330
1
100
AcDbSymbolTableRecord
100
AcDbBlockTableRecord
  2
*D29
340
0
  0
BLOCK_RECORD
  5
2E96
330
1
100
AcDbSymbolTableRecord
100
AcDbBlockTableRecord
  2
*D30
340
0
  0
BLOCK_RECORD
  5
2EA4
330
1
100
AcDbSymbolTableRecord
100
AcDbBlockTableRecord
  2
*D31
340
0
  0
BLOCK_RECORD
  5
2EB2
330
1
100
AcDbSymbolTableRecord
100
AcDbBlockTableRecord
  2
*D32
340
0
  0
BLOCK_RECORD
  5
2EDE
330
1
100
AcDbSymbolTableRecord
100
AcDbBlockTableRecord
  2
*D33
340
0
  0
BLOCK_RECORD
  5
2FC8
330
1
100
AcDbSymbolTableRecord
100
AcDbBlockTableRecord
  2
*D34
340
0
  0
BLOCK_RECORD
  5
2FD6
330
1
100
AcDbSymbolTableRecord
100
AcDbBlockTableRecord
  2
*D35
340
0
  0
BLOCK_RECORD
  5
2FE4
330
1
100
AcDbSymbolTableRecord
100
AcDbBlockTableRecord
  2
*D36
340
0
  0
BLOCK_RECORD
  5
2FF2
330
1
100
AcDbSymbolTableRecord
100
AcDbBlockTableRecord
  2
*D37
340
0
  0
BLOCK_RECORD
  5
3037
330
1
100
AcDbSymbolTableRecord
100
AcDbBlockTableRecord
  2
*D38
340
0
  0
BLOCK_RECORD
  5
3045
330
1
100
AcDbSymbolTableRecord
100
AcDbBlockTableRecord
  2
*D39
340
0
  0
BLOCK_RECORD
  5
3067
330
1
100
AcDbSymbolTableRecord
100
AcDbBlockTableRecord
  2
*D40
340
0
  0
BLOCK_RECORD
  5
3076
330
1
100
AcDbSymbolTableRecord
100
AcDbBlockTableRecord
  2
*D41
340
0
  0
BLOCK_RECORD
  5
3084
330
1
100
AcDbSymbolTableRecord
100
AcDbBlockTableRecord
  2
*D42
340
0
  0
BLOCK_RECORD
  5
3092
330
1
100
AcDbSymbolTableRecord
100
AcDbBlockTableRecord
  2
*D43
340
0
  0
BLOCK_RECORD
  5
30A3
330
1
100
AcDbSymbolTableRecord
100
AcDbBlockTableRecord
  2
*D44
340
0
  0
BLOCK_RECORD
  5
30B0
330
1
100
AcDbSymbolTableRecord
100
AcDbBlockTableRecord
  2
*D45
340
0
  0
BLOCK_RECORD
  5
30BD
330
1
100
AcDbSymbolTableRecord
100
AcDbBlockTableRecord
  2
*D46
340
0
  0
BLOCK_RECORD
  5
30EB
330
1
100
AcDbSymbolTableRecord
100
AcDbBlockTableRecord
  2
*D47
340
0
  0
BLOCK_RECORD
  5
30F8
330
1
100
AcDbSymbolTableRecord
100
AcDbBlockTableRecord
  2
*D48
340
0
  0
BLOCK_RECORD
  5
3105
330
1
100
AcDbSymbolTableRecord
100
AcDbBlockTableRecord
  2
*D49
340
0
  0
BLOCK_RECORD
  5
3131
330
1
100
AcDbSymbolTableRecord
100
AcDbBlockTableRecord
  2
*D50
340
0
  0
BLOCK_RECORD
  5
516F
330
1
100
AcDbSymbolTableRecord
100
AcDbBlockTableRecord
  2
*D51
340
0
  0
BLOCK_RECORD
  5
56C1
330
1
100
AcDbSymbolTableRecord
100
AcDbBlockTableRecord
  2
*D52
340
0
  0
BLOCK_RECORD
  5
56CF
330
1
100
AcDbSymbolTableRecord
100
AcDbBlockTableRecord
  2
*D53
340
0
  0
ENDTAB
  0
ENDSEC
  0
SECTION
  2
BLOCKS
  0
BLOCK
  5
20
330
1F
100
AcDbEntity
  8
0
100
AcDbBlockBegin
  2
*Model_Space
 70
     0
 10
0.0
 20
0.0
 30
0.0
  3
*Model_Space
  1

  0
ENDBLK
  5
21
330
1F
100
AcDbEntity
  8
0
100
AcDbBlockEnd
  0
BLOCK
  5
1C
330
1B
100
AcDbEntity
 67
     1
  8
0
100
AcDbBlockBegin
  2
*Paper_Space
 70
     0
 10
0.0
 20
0.0
 30
0.0
  3
*Paper_Space
  1

  0
ENDBLK
  5
1D
330
1B
100
AcDbEntity
 67
     1
  8
0
100
AcDbBlockEnd
  0
BLOCK
  5
24
330
23
100
AcDbEntity
  8
0
100
AcDbBlockBegin
  2
*Paper_Space0
 70
     0
 10
0.0
 20
0.0
 30
0.0
  3
*Paper_Space0
  1

  0
ENDBLK
  5
25
330
23
100
AcDbEntity
  8
0
100
AcDbBlockEnd
  0
BLOCK
  5
27B4
330
279D
100
AcDbEntity
  8
0
100
AcDbBlockBegin
  2
Hb
 70
     0
 10
0.0
 20
0.0
 30
0.0
  3
Hb
  1

  0
TEXT
  5
279E
330
279D
100
AcDbEntity
  8
TEXT
100
AcDbText
 10
0.2078333333333363
 20
15.22007919564008
 30
0.0
 40
0.125
  1
NAME
 72
     1
 11
0.437000000000003
 21
15.22007919564008
 31
0.0
100
AcDbText
  0
TEXT
  5
279F
330
279D
100
AcDbEntity
  8
TEXT
100
AcDbText
 10
0.2078333333333363
 20
15.42841252897341
 30
0.0
 40
0.125
  1
PART
 72
     1
 11
0.437000000000003
 21
15.42841252897341
 31
0.0
100
AcDbText
  0
TEXT
  5
27A0
330
279D
100
AcDbEntity
  8
TEXT
100
AcDbText
 10
4.561999999999998
 20
15.22007919564008
 30
0.0
 40
0.125
  1
No.
 72
     1
 11
4.686999999999998
 21
15.22007919564008
 31
0.0
100
AcDbText
  0
TEXT
  5
27A1
330
279D
100
AcDbEntity
  8
TEXT
100
AcDbText
 10
4.457833333333331
 20
15.42841252897341
 30
0.0
 40
0.125
  1
PART
 72
     1
 11
4.686999999999998
 21
15.42841252897341
 31
0.0
100
AcDbText
  0
LINE
  5
27A2
330
279D
100
AcDbEntity
  8
TITLE
100
AcDbLine
 10
5.062000000000002
 20
15.598
 30
0.0
 11
5.062000000000002
 21
15.17999999999999
 31
0.0
  0
LINE
  5
27A3
330
279D
100
AcDbEntity
  8
TITLE
100
AcDbLine
 10
4.312000000000002
 20
15.598
 30
0.0
 11
4.312000000000002
 21
15.17999999999999
 31
0.0
  0
LINE
  5
27A4
330
279D
100
AcDbEntity
  8
TITLE
100
AcDbLine
 10
4.25
 20
15.598
 30
0.0
 11
4.25
 21
15.17999999999999
 31
0.0
  0
LINE
  5
27A5
330
279D
100
AcDbEntity
  8
TITLE
100
AcDbLine
 10
0.8120000000000029
 20
15.17999999999999
 30
0.0
 11
0.8120000000000011
 21
15.598
 31
0.0
  0
LINE
  5
27A6
330
279D
100
AcDbEntity
  8
TITLE
100
AcDbLine
 10
0.0620000000000012
 20
15.17999999999999
 30
0.0
 11
10.538
 21
15.17999999999999
 31
0.0
  0
LINE
  5
27A7
330
279D
100
AcDbEntity
  8
TITLE
100
AcDbLine
 10
10.538
 20
0.0619999999999994
 30
0.0
 11
0.0619999999999976
 21
0.0620000000000012
 31
0.0
  0
LINE
  5
27A8
330
279D
100
AcDbEntity
  8
TITLE
100
AcDbLine
 10
10.538
 20
15.598
 30
0.0
 11
10.538
 21
0.0619999999999994
 31
0.0
  0
LINE
  5
27A9
330
279D
100
AcDbEntity
  8
TITLE
100
AcDbLine
 10
0.0620000000000012
 20
15.598
 30
0.0
 11
10.538
 21
15.598
 31
0.0
  0
LINE
  5
27AA
330
279D
100
AcDbEntity
  8
TITLE
100
AcDbLine
 10
0.0619999999999976
 20
0.0620000000000012
 30
0.0
 11
0.0620000000000012
 21
15.598
 31
0.0
  0
LINE
  5
27AB
330
279D
100
AcDbEntity
  8
TITLE
100
AcDbLine
 10
0.0
 20
0.0
 30
0.0
 11
0.0
 21
15.66
 31
0.0
  0
LINE
  5
27AC
330
279D
100
AcDbEntity
  8
TITLE
100
AcDbLine
 10
10.6
 20
-0.0000000000000018
 30
0.0
 11
0.0
 21
0.0
 31
0.0
  0
LINE
  5
27AD
330
279D
100
AcDbEntity
  8
TITLE
100
AcDbLine
 10
10.6
 20
15.65999999999999
 30
0.0
 11
10.6
 21
-0.0000000000000018
 31
0.0
  0
LINE
  5
27AE
330
279D
100
AcDbEntity
  8
TITLE
100
AcDbLine
 10
0.0
 20
15.66
 30
0.0
 11
10.6
 21
15.65999999999999
 31
0.0
  0
LINE
  5
27AF
330
279D
100
AcDbEntity
  8
TITLE
100
AcDbLine
 10
8.500025722444004
 20
15.598
 30
0.0
 11
8.500025722444004
 21
15.17999999999999
 31
0.0
  0
TEXT
  5
27B0
330
279D
100
AcDbEntity
  8
TEXT
100
AcDbText
 10
8.728692389110667
 20
15.42841252897341
 30
0.0
 40
0.125
  1
REV.
 72
     1
 11
8.937025722444001
 21
15.42841252897341
 31
0.0
100
AcDbText
  0
TEXT
  5
27B1
330
279D
100
AcDbEntity
  8
TEXT
100
AcDbText
 10
8.707859055777335
 20
15.22007919564008
 30
0.0
 40
0.125
  1
DATE
 72
     1
 11
8.937025722444001
 21
15.22007919564008
 31
0.0
100
AcDbText
  0
LINE
  5
27B2
330
279D
100
AcDbEntity
  8
TITLE
100
AcDbLine
 10
8.562025722444005
 20
15.598
 30
0.0
 11
8.562025722444005
 21
15.17999999999999
 31
0.0
  0
LINE
  5
27B3
330
279D
100
AcDbEntity
  8
TITLE
100
AcDbLine
 10
9.312025722444005
 20
15.598
 30
0.0
 11
9.312025722444005
 21
15.17999999999999
 31
0.0
  0
ENDBLK
  5
27B5
330
279D
100
AcDbEntity
  8
0
100
AcDbBlockEnd
  0
BLOCK
  5
27D0
330
27C5
100
AcDbEntity
  8
0
100
AcDbBlockBegin
  2
*D2
 70
     1
 10
0.0
 20
0.0
 30
0.0
  3
*D2
  1

  0
LINE
  5
574B
330
27C5
100
AcDbEntity
  8
DIM
 62
     0
370
    -2
100
AcDbLine
 10
2.311700920390189
 20
25.8929655174656
 30
0.0
 11
1.192970919481717
 21
25.8929655174656
 31
0.0
  0
LINE
  5
574C
330
27C5
100
AcDbEntity
  8
DIM
 62
     0
370
    -2
100
AcDbLine
 10
2.311700920390189
 20
23.2749655174656
 30
0.0
 11
1.192970919481716
 21
23.2749655174656
 31
0.0
  0
LINE
  5
574D
330
27C5
100
AcDbEntity
  8
DIM
 62
     0
370
    -2
100
AcDbLine
 10
1.378970919481717
 20
25.5329655174656
 30
0.0
 11
1.378970919481716
 21
24.8889655174656
 31
0.0
  0
LINE
  5
574E
330
27C5
100
AcDbEntity
  8
DIM
 62
     0
370
    -2
100
AcDbLine
 10
1.378970919481716
 20
23.6349655174656
 30
0.0
 11
1.378970919481716
 21
24.2789655174656
 31
0.0
  0
SOLID
  5
574F
330
27C5
100
AcDbEntity
  8
DIM
 62
     0
100
AcDbTrace
 10
1.318970919481716
 20
25.5329655174656
 30
0.0
 11
1.438970919481717
 21
25.5329655174656
 31
0.0
 12
1.378970919481717
 22
25.8929655174656
 32
0.0
 13
1.378970919481717
 23
25.8929655174656
 33
0.0
  0
SOLID
  5
5750
330
27C5
100
AcDbEntity
  8
DIM
 62
     0
100
AcDbTrace
 10
1.318970919481716
 20
23.6349655174656
 30
0.0
 11
1.438970919481716
 21
23.6349655174656
 31
0.0
 12
1.378970919481716
 22
23.2749655174656
 32
0.0
 13
1.378970919481716
 23
23.2749655174656
 33
0.0
  0
MTEXT
  5
5751
330
27C5
100
AcDbEntity
  8
DIM
 62
     0
100
AcDbMText
 10
1.378970919481712
 20
24.5839655174656
 30
0.0
 40
0.25
 41
0.0
 71
     5
 72
     1
  1
\A1;2.618
 73
     1
 44
1.0
  0
POINT
  5
5752
330
27C5
100
AcDbEntity
  8
Defpoints
 62
     0
100
AcDbPoint
 10
2.437700920390189
 20
25.8929655174656
 30
0.0
  0
POINT
  5
5753
330
27C5
100
AcDbEntity
  8
Defpoints
 62
     0
100
AcDbPoint
 10
2.437700920390189
 20
23.2749655174656
 30
0.0
  0
POINT
  5
5754
330
27C5
100
AcDbEntity
  8
Defpoints
 62
     0
100
AcDbPoint
 10
1.378970919481716
 20
23.2749655174656
 30
0.0
  0
ENDBLK
  5
27D1
330
27C5
100
AcDbEntity
  8
0
100
AcDbBlockEnd
  0
BLOCK
  5
27DE
330
27D3
100
AcDbEntity
  8
0
100
AcDbBlockBegin
  2
*D3
 70
     1
 10
0.0
 20
0.0
 30
0.0
  3
*D3
  1

  0
LINE
  5
5755
330
27D3
100
AcDbEntity
  8
DIM
 62
     0
370
    -2
100
AcDbLine
 10
2.796700920390188
 20
22.60996551746561
 30
0.0
 11
1.143279753509298
 21
22.60996551746561
 31
0.0
  0
LINE
  5
5756
330
27D3
100
AcDbEntity
  8
DIM
 62
     0
370
    -2
100
AcDbLine
 10
2.796700920390188
 20
18.4599655174656
 30
0.0
 11
1.143279753509296
 21
18.4599655174656
 31
0.0
  0
LINE
  5
5757
330
27D3
100
AcDbEntity
  8
DIM
 62
     0
370
    -2
100
AcDbLine
 10
1.329279753509297
 20
22.24996551746561
 30
0.0
 11
1.329279753509297
 21
20.8399655174656
 31
0.0
  0
LINE
  5
5758
330
27D3
100
AcDbEntity
  8
DIM
 62
     0
370
    -2
100
AcDbLine
 10
1.329279753509297
 20
18.8199655174656
 30
0.0
 11
1.329279753509297
 21
20.2299655174656
 31
0.0
  0
SOLID
  5
5759
330
27D3
100
AcDbEntity
  8
DIM
 62
     0
100
AcDbTrace
 10
1.269279753509297
 20
22.24996551746561
 30
0.0
 11
1.389279753509297
 21
22.24996551746561
 31
0.0
 12
1.329279753509297
 22
22.60996551746561
 32
0.0
 13
1.329279753509297
 23
22.60996551746561
 33
0.0
  0
SOLID
  5
575A
330
27D3
100
AcDbEntity
  8
DIM
 62
     0
100
AcDbTrace
 10
1.269279753509297
 20
18.8199655174656
 30
0.0
 11
1.389279753509297
 21
18.8199655174656
 31
0.0
 12
1.329279753509296
 22
18.4599655174656
 32
0.0
 13
1.329279753509296
 23
18.4599655174656
 33
0.0
  0
MTEXT
  5
575B
330
27D3
100
AcDbEntity
  8
DIM
 62
     0
100
AcDbMText
 10
1.329279753509294
 20
20.5349655174656
 30
0.0
 40
0.25
 41
0.0
 71
     5
 72
     1
  1
\A1;4.150
 73
     1
 44
1.0
  0
POINT
  5
575C
330
27D3
100
AcDbEntity
  8
Defpoints
 62
     0
100
AcDbPoint
 10
2.922700920390188
 20
22.60996551746561
 30
0.0
  0
POINT
  5
575D
330
27D3
100
AcDbEntity
  8
Defpoints
 62
     0
100
AcDbPoint
 10
2.922700920390188
 20
18.4599655174656
 30
0.0
  0
POINT
  5
575E
330
27D3
100
AcDbEntity
  8
Defpoints
 62
     0
100
AcDbPoint
 10
1.329279753509296
 20
18.4599655174656
 30
0.0
  0
ENDBLK
  5
27DF
330
27D3
100
AcDbEntity
  8
0
100
AcDbBlockEnd
  0
BLOCK
  5
27EC
330
27E1
100
AcDbEntity
  8
0
100
AcDbBlockBegin
  2
*D4
 70
     1
 10
0.0
 20
0.0
 30
0.0
  3
*D4
  1

  0
LINE
  5
5769
330
27E1
100
AcDbEntity
  8
DIM
 62
     0
370
    -2
100
AcDbLine
 10
2.922700920390188
 20
18.3339655174656
 30
0.0
 11
2.922700920390188
 21
17.53472186516187
 31
0.0
  0
LINE
  5
576A
330
27E1
100
AcDbEntity
  8
DIM
 62
     0
370
    -2
100
AcDbLine
 10
5.390700920390189
 20
18.3339655174656
 30
0.0
 11
5.390700920390189
 21
17.53472186516187
 31
0.0
  0
LINE
  5
576B
330
27E1
100
AcDbEntity
  8
DIM
 62
     0
370
    -2
100
AcDbLine
 10
3.282700920390188
 20
17.72072186516187
 30
0.0
 11
3.601700920390189
 21
17.72072186516187
 31
0.0
  0
LINE
  5
576C
330
27E1
100
AcDbEntity
  8
DIM
 62
     0
370
    -2
100
AcDbLine
 10
5.030700920390189
 20
17.72072186516187
 30
0.0
 11
4.711700920390188
 21
17.72072186516187
 31
0.0
  0
SOLID
  5
576D
330
27E1
100
AcDbEntity
  8
DIM
 62
     0
100
AcDbTrace
 10
3.282700920390188
 20
17.78072186516187
 30
0.0
 11
3.282700920390188
 21
17.66072186516187
 31
0.0
 12
2.922700920390188
 22
17.72072186516187
 32
0.0
 13
2.922700920390188
 23
17.72072186516187
 33
0.0
  0
SOLID
  5
576E
330
27E1
100
AcDbEntity
  8
DIM
 62
     0
100
AcDbTrace
 10
5.030700920390189
 20
17.78072186516187
 30
0.0
 11
5.030700920390189
 21
17.66072186516187
 31
0.0
 12
5.390700920390189
 22
17.72072186516187
 32
0.0
 13
5.390700920390189
 23
17.72072186516187
 33
0.0
  0
MTEXT
  5
576F
330
27E1
100
AcDbEntity
  8
DIM
 62
     0
100
AcDbMText
 10
4.156700920390188
 20
17.72072186516187
 30
0.0
 40
0.25
 41
0.0
 71
     5
 72
     1
  1
\A1;2.468
 73
     1
 44
1.0
  0
POINT
  5
5770
330
27E1
100
AcDbEntity
  8
Defpoints
 62
     0
100
AcDbPoint
 10
2.922700920390188
 20
18.4599655174656
 30
0.0
  0
POINT
  5
5771
330
27E1
100
AcDbEntity
  8
Defpoints
 62
     0
100
AcDbPoint
 10
5.390700920390189
 20
18.4599655174656
 30
0.0
  0
POINT
  5
5772
330
27E1
100
AcDbEntity
  8
Defpoints
 62
     0
100
AcDbPoint
 10
5.390700920390189
 20
17.72072186516187
 30
0.0
  0
ENDBLK
  5
27ED
330
27E1
100
AcDbEntity
  8
0
100
AcDbBlockEnd
  0
BLOCK
  5
27FA
330
27EF
100
AcDbEntity
  8
0
100
AcDbBlockBegin
  2
*D5
 70
     1
 10
0.0
 20
0.0
 30
0.0
  3
*D5
  1

  0
LINE
  5
5773
330
27EF
100
AcDbEntity
  8
DIM
 62
     0
370
    -2
100
AcDbLine
 10
2.437700920390189
 20
26.01896551746561
 30
0.0
 11
2.437700920390189
 21
27.05521479140251
 31
0.0
  0
LINE
  5
5774
330
27EF
100
AcDbEntity
  8
DIM
 62
     0
370
    -2
100
AcDbLine
 10
5.875700920390189
 20
26.01896551746561
 30
0.0
 11
5.875700920390189
 21
27.05521479140251
 31
0.0
  0
LINE
  5
5775
330
27EF
100
AcDbEntity
  8
DIM
 62
     0
370
    -2
100
AcDbLine
 10
2.797700920390189
 20
26.8692147914025
 30
0.0
 11
3.601700920390189
 21
26.8692147914025
 31
0.0
  0
LINE
  5
5776
330
27EF
100
AcDbEntity
  8
DIM
 62
     0
370
    -2
100
AcDbLine
 10
5.515700920390188
 20
26.8692147914025
 30
0.0
 11
4.711700920390188
 21
26.8692147914025
 31
0.0
  0
SOLID
  5
5777
330
27EF
100
AcDbEntity
  8
DIM
 62
     0
100
AcDbTrace
 10
2.797700920390189
 20
26.92921479140251
 30
0.0
 11
2.797700920390189
 21
26.80921479140251
 31
0.0
 12
2.437700920390189
 22
26.8692147914025
 32
0.0
 13
2.437700920390189
 23
26.8692147914025
 33
0.0
  0
SOLID
  5
5778
330
27EF
100
AcDbEntity
  8
DIM
 62
     0
100
AcDbTrace
 10
5.515700920390188
 20
26.92921479140251
 30
0.0
 11
5.515700920390188
 21
26.80921479140251
 31
0.0
 12
5.875700920390189
 22
26.8692147914025
 32
0.0
 13
5.875700920390189
 23
26.8692147914025
 33
0.0
  0
MTEXT
  5
5779
330
27EF
100
AcDbEntity
  8
DIM
 62
     0
100
AcDbMText
 10
4.156700920390188
 20
26.8692147914025
 30
0.0
 40
0.25
 41
0.0
 71
     5
 72
     1
  1
\A1;3.438
 73
     1
 44
1.0
  0
POINT
  5
577A
330
27EF
100
AcDbEntity
  8
Defpoints
 62
     0
100
AcDbPoint
 10
2.437700920390189
 20
25.8929655174656
 30
0.0
  0
POINT
  5
577B
330
27EF
100
AcDbEntity
  8
Defpoints
 62
     0
100
AcDbPoint
 10
5.875700920390189
 20
25.89296551746561
 30
0.0
  0
POINT
  5
577C
330
27EF
100
AcDbEntity
  8
Defpoints
 62
     0
100
AcDbPoint
 10
5.875700920390189
 20
26.8692147914025
 30
0.0
  0
ENDBLK
  5
27FB
330
27EF
100
AcDbEntity
  8
0
100
AcDbBlockEnd
  0
BLOCK
  5
2808
330
27FD
100
AcDbEntity
  8
0
100
AcDbBlockBegin
  2
*D6
 70
     1
 10
0.0
 20
0.0
 30
0.0
  3
*D6
  1

  0
LINE
  5
57B9
330
27FD
100
AcDbEntity
  8
DIM
 62
     0
370
    -2
100
AcDbLine
 10
1.991700916864334
 20
24.79668213863641
 30
0.0
 11
1.991700916864334
 21
27.62960248410611
 31
0.0
  0
LINE
  5
57BA
330
27FD
100
AcDbEntity
  8
DIM
 62
     0
370
    -2
100
AcDbLine
 10
6.321700923916044
 20
24.79668213863642
 30
0.0
 11
6.321700923916044
 21
27.62960248410611
 31
0.0
  0
LINE
  5
57BB
330
27FD
100
AcDbEntity
  8
DIM
 62
     0
370
    -2
100
AcDbLine
 10
2.351700916864334
 20
27.44360248410611
 30
0.0
 11
3.617325920390189
 21
27.44360248410611
 31
0.0
  0
LINE
  5
57BC
330
27FD
100
AcDbEntity
  8
DIM
 62
     0
370
    -2
100
AcDbLine
 10
5.961700923916044
 20
27.44360248410611
 30
0.0
 11
4.696075920390189
 21
27.44360248410611
 31
0.0
  0
SOLID
  5
57BD
330
27FD
100
AcDbEntity
  8
DIM
 62
     0
100
AcDbTrace
 10
2.351700916864334
 20
27.50360248410611
 30
0.0
 11
2.351700916864334
 21
27.38360248410611
 31
0.0
 12
1.991700916864334
 22
27.44360248410611
 32
0.0
 13
1.991700916864334
 23
27.44360248410611
 33
0.0
  0
SOLID
  5
57BE
330
27FD
100
AcDbEntity
  8
DIM
 62
     0
100
AcDbTrace
 10
5.961700923916044
 20
27.50360248410611
 30
0.0
 11
5.961700923916044
 21
27.38360248410611
 31
0.0
 12
6.321700923916044
 22
27.44360248410611
 32
0.0
 13
6.321700923916044
 23
27.44360248410611
 33
0.0
  0
MTEXT
  5
57BF
330
27FD
100
AcDbEntity
  8
DIM
 62
     0
100
AcDbMText
 10
4.156700920390189
 20
27.44360248410611
 30
0.0
 40
0.25
 41
0.0
 71
     5
 72
     1
  1
\A1;4.330
 73
     1
 44
1.0
  0
POINT
  5
57C0
330
27FD
100
AcDbEntity
  8
Defpoints
 62
     0
100
AcDbPoint
 10
1.991700916864334
 20
24.67068213863641
 30
0.0
  0
POINT
  5
57C1
330
27FD
100
AcDbEntity
  8
Defpoints
 62
     0
100
AcDbPoint
 10
6.321700923916044
 20
24.67068213863642
 30
0.0
  0
POINT
  5
57C2
330
27FD
100
AcDbEntity
  8
Defpoints
 62
     0
100
AcDbPoint
 10
6.321700923916044
 20
27.44360248410611
 30
0.0
  0
ENDBLK
  5
2809
330
27FD
100
AcDbEntity
  8
0
100
AcDbBlockEnd
  0
BLOCK
  5
2816
330
280B
100
AcDbEntity
  8
0
100
AcDbBlockBegin
  2
*D7
 70
     1
 10
0.0
 20
0.0
 30
0.0
  3
*D7
  1

  0
LINE
  5
575F
330
280B
100
AcDbEntity
  8
DIM
 62
     0
370
    -2
100
AcDbLine
 10
2.680200920390191
 20
18.3939655174656
 30
0.0
 11
2.680200920390191
 21
16.9309759712665
 31
0.0
  0
LINE
  5
5760
330
280B
100
AcDbEntity
  8
DIM
 62
     0
370
    -2
100
AcDbLine
 10
5.633200920390191
 20
18.39396551746561
 30
0.0
 11
5.633200920390191
 21
16.9309759712665
 31
0.0
  0
LINE
  5
5761
330
280B
100
AcDbEntity
  8
DIM
 62
     0
370
    -2
100
AcDbLine
 10
3.040200920390191
 20
17.11697597126649
 30
0.0
 11
3.601700920390191
 21
17.11697597126649
 31
0.0
  0
LINE
  5
5762
330
280B
100
AcDbEntity
  8
DIM
 62
     0
370
    -2
100
AcDbLine
 10
5.27320092039019
 20
17.11697597126649
 30
0.0
 11
4.711700920390191
 21
17.11697597126649
 31
0.0
  0
SOLID
  5
5763
330
280B
100
AcDbEntity
  8
DIM
 62
     0
100
AcDbTrace
 10
3.040200920390191
 20
17.17697597126649
 30
0.0
 11
3.040200920390191
 21
17.0569759712665
 31
0.0
 12
2.680200920390191
 22
17.11697597126649
 32
0.0
 13
2.680200920390191
 23
17.11697597126649
 33
0.0
  0
SOLID
  5
5764
330
280B
100
AcDbEntity
  8
DIM
 62
     0
100
AcDbTrace
 10
5.27320092039019
 20
17.17697597126649
 30
0.0
 11
5.27320092039019
 21
17.0569759712665
 31
0.0
 12
5.633200920390191
 22
17.11697597126649
 32
0.0
 13
5.633200920390191
 23
17.11697597126649
 33
0.0
  0
MTEXT
  5
5765
330
280B
100
AcDbEntity
  8
DIM
 62
     0
100
AcDbMText
 10
4.156700920390191
 20
17.11697597126649
 30
0.0
 40
0.25
 41
0.0
 71
     5
 72
     1
  1
\A1;2.953
 73
     1
 44
1.0
  0
POINT
  5
5766
330
280B
100
AcDbEntity
  8
Defpoints
 62
     0
100
AcDbPoint
 10
2.680200920390191
 20
18.5199655174656
 30
0.0
  0
POINT
  5
5767
330
280B
100
AcDbEntity
  8
Defpoints
 62
     0
100
AcDbPoint
 10
5.633200920390191
 20
18.51996551746561
 30
0.0
  0
POINT
  5
5768
330
280B
100
AcDbEntity
  8
Defpoints
 62
     0
100
AcDbPoint
 10
5.633200920390191
 20
17.11697597126649
 30
0.0
  0
ENDBLK
  5
2817
330
280B
100
AcDbEntity
  8
0
100
AcDbBlockEnd
  0
BLOCK
  5
2824
330
2819
100
AcDbEntity
  8
0
100
AcDbBlockBegin
  2
*D8
 70
     1
 10
0.0
 20
0.0
 30
0.0
  3
*D8
  1

  0
LINE
  5
57C8
330
2819
100
AcDbEntity
  8
DIM
 62
     0
370
    -2
100
AcDbLine
 10
4.282700920390182
 20
18.09996551746561
 30
0.0
 11
7.242023742282909
 21
18.09996551746561
 31
0.0
  0
LINE
  5
57C9
330
2819
100
AcDbEntity
  8
DIM
 62
     0
370
    -2
100
AcDbLine
 10
4.28270092039019
 20
26.36796551746561
 30
0.0
 11
7.242023742282911
 21
26.36796551746561
 31
0.0
  0
LINE
  5
57CA
330
2819
100
AcDbEntity
  8
DIM
 62
     0
370
    -2
100
AcDbLine
 10
7.056023742282909
 20
18.45996551746561
 30
0.0
 11
7.056023742282909
 21
21.92896551746561
 31
0.0
  0
LINE
  5
57CB
330
2819
100
AcDbEntity
  8
DIM
 62
     0
370
    -2
100
AcDbLine
 10
7.056023742282911
 20
26.00796551746561
 30
0.0
 11
7.05602374228291
 21
22.53896551746561
 31
0.0
  0
SOLID
  5
57CC
330
2819
100
AcDbEntity
  8
DIM
 62
     0
100
AcDbTrace
 10
6.996023742282909
 20
18.45996551746561
 30
0.0
 11
7.116023742282909
 21
18.45996551746561
 31
0.0
 12
7.056023742282909
 22
18.09996551746561
 32
0.0
 13
7.056023742282909
 23
18.09996551746561
 33
0.0
  0
SOLID
  5
57CD
330
2819
100
AcDbEntity
  8
DIM
 62
     0
100
AcDbTrace
 10
6.996023742282911
 20
26.00796551746561
 30
0.0
 11
7.11602374228291
 21
26.00796551746561
 31
0.0
 12
7.056023742282911
 22
26.36796551746561
 32
0.0
 13
7.056023742282911
 23
26.36796551746561
 33
0.0
  0
MTEXT
  5
57CE
330
2819
100
AcDbEntity
  8
DIM
 62
     0
100
AcDbMText
 10
7.056023742282906
 20
22.23396551746561
 30
0.0
 40
0.25
 41
0.0
 71
     5
 72
     1
  1
\A1;8.268
 73
     1
 44
1.0
  0
POINT
  5
57CF
330
2819
100
AcDbEntity
  8
Defpoints
 62
     0
100
AcDbPoint
 10
4.156700920390182
 20
18.09996551746561
 30
0.0
  0
POINT
  5
57D0
330
2819
100
AcDbEntity
  8
Defpoints
 62
     0
100
AcDbPoint
 10
4.15670092039019
 20
26.36796551746561
 30
0.0
  0
POINT
  5
57D1
330
2819
100
AcDbEntity
  8
Defpoints
 62
     0
100
AcDbPoint
 10
7.056023742282911
 20
26.36796551746561
 30
0.0
  0
ENDBLK
  5
2825
330
2819
100
AcDbEntity
  8
0
100
AcDbBlockEnd
  0
BLOCK
  5
2891
330
2886
100
AcDbEntity
  8
0
100
AcDbBlockBegin
  2
*D9
 70
     1
 10
0.0
 20
0.0
 30
0.0
  3
*D9
  1

  0
LINE
  5
57AF
330
2886
100
AcDbEntity
  8
DIM
 62
     0
370
    -2
100
AcDbLine
 10
10.58683460684337
 20
26.37384225841742
 30
0.0
 11
10.58683460684337
 21
26.89750759144614
 31
0.0
  0
LINE
  5
57B0
330
2886
100
AcDbEntity
  8
DIM
 62
     0
370
    -2
100
AcDbLine
 10
12.16083460684337
 20
26.17783353057554
 30
0.0
 11
12.16083460684337
 21
26.89750759144614
 31
0.0
  0
LINE
  5
57B1
330
2886
100
AcDbEntity
  8
DIM
 62
     0
370
    -2
100
AcDbLine
 10
10.22683460684338
 20
26.71150759144614
 30
0.0
 11
9.866834606843378
 21
26.71150759144614
 31
0.0
  0
LINE
  5
57B2
330
2886
100
AcDbEntity
  8
DIM
 62
     0
370
    -2
100
AcDbLine
 10
12.52083460684337
 20
26.71150759144614
 30
0.0
 11
12.88083460684337
 21
26.71150759144614
 31
0.0
  0
SOLID
  5
57B3
330
2886
100
AcDbEntity
  8
DIM
 62
     0
100
AcDbTrace
 10
10.22683460684338
 20
26.77150759144614
 30
0.0
 11
10.22683460684338
 21
26.65150759144614
 31
0.0
 12
10.58683460684337
 22
26.71150759144614
 32
0.0
 13
10.58683460684337
 23
26.71150759144614
 33
0.0
  0
SOLID
  5
57B4
330
2886
100
AcDbEntity
  8
DIM
 62
     0
100
AcDbTrace
 10
12.52083460684337
 20
26.77150759144614
 30
0.0
 11
12.52083460684337
 21
26.65150759144614
 31
0.0
 12
12.16083460684337
 22
26.71150759144614
 32
0.0
 13
12.16083460684337
 23
26.71150759144614
 33
0.0
  0
MTEXT
  5
57B5
330
2886
100
AcDbEntity
  8
DIM
 62
     0
100
AcDbMText
 10
11.37383460684337
 20
26.71150759144614
 30
0.0
 40
0.25
 41
0.0
 71
     5
 72
     1
  1
\A1;1.574
 73
     1
 44
1.0
  0
POINT
  5
57B6
330
2886
100
AcDbEntity
  8
Defpoints
 62
     0
100
AcDbPoint
 10
10.58683460684337
 20
26.24784225841742
 30
0.0
  0
POINT
  5
57B7
330
2886
100
AcDbEntity
  8
Defpoints
 62
     0
100
AcDbPoint
 10
12.16083460684337
 20
26.05183353057553
 30
0.0
  0
POINT
  5
57B8
330
2886
100
AcDbEntity
  8
Defpoints
 62
     0
100
AcDbPoint
 10
12.16083460684337
 20
26.71150759144614
 30
0.0
  0
ENDBLK
  5
2892
330
2886
100
AcDbEntity
  8
0
100
AcDbBlockEnd
  0
BLOCK
  5
2B2E
330
2B23
100
AcDbEntity
  8
0
100
AcDbBlockBegin
  2
*D10
 70
     1
 10
0.0
 20
0.0
 30
0.0
  3
*D10
  1

  0
LINE
  5
57A5
330
2B23
100
AcDbEntity
  8
DIM
 62
     0
370
    -2
100
AcDbLine
 10
16.56302912891057
 20
24.65896551746558
 30
0.0
 11
14.22875278510521
 21
24.65896551746558
 31
0.0
  0
LINE
  5
57A6
330
2B23
100
AcDbEntity
  8
DIM
 62
     0
370
    -2
100
AcDbLine
 10
16.56302912891057
 20
20.41896551746558
 30
0.0
 11
14.22875278510521
 21
20.41896551746558
 31
0.0
  0
LINE
  5
57A7
330
2B23
100
AcDbEntity
  8
DIM
 62
     0
370
    -2
100
AcDbLine
 10
14.41475278510521
 20
24.29896551746558
 30
0.0
 11
14.41475278510521
 21
22.84396551746558
 31
0.0
  0
LINE
  5
57A8
330
2B23
100
AcDbEntity
  8
DIM
 62
     0
370
    -2
100
AcDbLine
 10
14.41475278510521
 20
20.77896551746558
 30
0.0
 11
14.41475278510521
 21
22.23396551746558
 31
0.0
  0
SOLID
  5
57A9
330
2B23
100
AcDbEntity
  8
DIM
 62
     0
100
AcDbTrace
 10
14.35475278510521
 20
24.29896551746558
 30
0.0
 11
14.47475278510521
 21
24.29896551746558
 31
0.0
 12
14.41475278510521
 22
24.65896551746558
 32
0.0
 13
14.41475278510521
 23
24.65896551746558
 33
0.0
  0
SOLID
  5
57AA
330
2B23
100
AcDbEntity
  8
DIM
 62
     0
100
AcDbTrace
 10
14.35475278510521
 20
20.77896551746558
 30
0.0
 11
14.47475278510521
 21
20.77896551746558
 31
0.0
 12
14.41475278510521
 22
20.41896551746558
 32
0.0
 13
14.41475278510521
 23
20.41896551746558
 33
0.0
  0
MTEXT
  5
57AB
330
2B23
100
AcDbEntity
  8
DIM
 62
     0
100
AcDbMText
 10
14.4147527851052
 20
22.53896551746559
 30
0.0
 40
0.25
 41
0.0
 71
     5
 72
     1
  1
\A1;4.240
 73
     1
 44
1.0
  0
POINT
  5
57AC
330
2B23
100
AcDbEntity
  8
Defpoints
 62
     0
100
AcDbPoint
 10
16.68902912891057
 20
24.65896551746558
 30
0.0
  0
POINT
  5
57AD
330
2B23
100
AcDbEntity
  8
Defpoints
 62
     0
100
AcDbPoint
 10
16.68902912891057
 20
20.41896551746558
 30
0.0
  0
POINT
  5
57AE
330
2B23
100
AcDbEntity
  8
Defpoints
 62
     0
100
AcDbPoint
 10
14.41475278510521
 20
20.41896551746558
 30
0.0
  0
ENDBLK
  5
2B2F
330
2B23
100
AcDbEntity
  8
0
100
AcDbBlockEnd
  0
BLOCK
  5
2B3B
330
2B30
100
AcDbEntity
  8
0
100
AcDbBlockBegin
  2
*D11
 70
     1
 10
0.0
 20
0.0
 30
0.0
  3
*D11
  1

  0
LINE
  5
5791
330
2B30
100
AcDbEntity
  8
DIM
 62
     0
370
    -2
100
AcDbLine
 10
18.78002912891058
 20
24.69096551746559
 30
0.0
 11
18.78002912891058
 21
25.95890324097808
 31
0.0
  0
LINE
  5
5792
330
2B30
100
AcDbEntity
  8
DIM
 62
     0
370
    -2
100
AcDbLine
 10
16.59502912891058
 20
24.69096551746559
 30
0.0
 11
16.59502912891058
 21
25.95890324097808
 31
0.0
  0
LINE
  5
5793
330
2B30
100
AcDbEntity
  8
DIM
 62
     0
370
    -2
100
AcDbLine
 10
18.42002912891058
 20
25.77290324097808
 30
0.0
 11
18.21127912891058
 21
25.77290324097808
 31
0.0
  0
LINE
  5
5794
330
2B30
100
AcDbEntity
  8
DIM
 62
     0
370
    -2
100
AcDbLine
 10
16.95502912891058
 20
25.77290324097808
 30
0.0
 11
17.16377912891058
 21
25.77290324097808
 31
0.0
  0
SOLID
  5
5795
330
2B30
100
AcDbEntity
  8
DIM
 62
     0
100
AcDbTrace
 10
18.42002912891058
 20
25.83290324097808
 30
0.0
 11
18.42002912891058
 21
25.71290324097808
 31
0.0
 12
18.78002912891058
 22
25.77290324097808
 32
0.0
 13
18.78002912891058
 23
25.77290324097808
 33
0.0
  0
SOLID
  5
5796
330
2B30
100
AcDbEntity
  8
DIM
 62
     0
100
AcDbTrace
 10
16.95502912891058
 20
25.83290324097808
 30
0.0
 11
16.95502912891058
 21
25.71290324097808
 31
0.0
 12
16.59502912891058
 22
25.77290324097808
 32
0.0
 13
16.59502912891058
 23
25.77290324097808
 33
0.0
  0
MTEXT
  5
5797
330
2B30
100
AcDbEntity
  8
DIM
 62
     0
100
AcDbMText
 10
17.68752912891058
 20
25.77290324097808
 30
0.0
 40
0.25
 41
0.0
 71
     5
 72
     1
  1
\A1;2.185
 73
     1
 44
1.0
  0
POINT
  5
5798
330
2B30
100
AcDbEntity
  8
Defpoints
 62
     0
100
AcDbPoint
 10
18.78002912891058
 20
24.56496551746559
 30
0.0
  0
POINT
  5
5799
330
2B30
100
AcDbEntity
  8
Defpoints
 62
     0
100
AcDbPoint
 10
16.59502912891058
 20
24.56496551746559
 30
0.0
  0
POINT
  5
579A
330
2B30
100
AcDbEntity
  8
Defpoints
 62
     0
100
AcDbPoint
 10
16.59502912891058
 20
25.77290324097808
 30
0.0
  0
ENDBLK
  5
2B3C
330
2B30
100
AcDbEntity
  8
0
100
AcDbBlockEnd
  0
BLOCK
  5
2B55
330
2B4A
100
AcDbEntity
  8
0
100
AcDbBlockBegin
  2
*D12
 70
     1
 10
0.0
 20
0.0
 30
0.0
  3
*D12
  1

  0
LINE
  5
5722
330
2B4A
100
AcDbEntity
  8
DIM
 62
     0
370
    -2
100
AcDbLine
 10
19.08601169494613
 20
23.07646551746558
 30
0.0
 11
20.47995155069791
 21
23.07646551746558
 31
0.0
  0
LINE
  5
5723
330
2B4A
100
AcDbEntity
  8
DIM
 62
     0
370
    -2
100
AcDbLine
 10
18.81202912891058
 20
24.65896551746558
 30
0.0
 11
20.47995155069791
 21
24.65896551746558
 31
0.0
  0
LINE
  5
5724
330
2B4A
100
AcDbEntity
  8
DIM
 62
     0
370
    -2
100
AcDbLine
 10
20.29395155069791
 20
22.71646551746558
 30
0.0
 11
20.29395155069791
 21
22.35646551746558
 31
0.0
  0
LINE
  5
5725
330
2B4A
100
AcDbEntity
  8
DIM
 62
     0
370
    -2
100
AcDbLine
 10
20.29395155069791
 20
25.01896551746559
 30
0.0
 11
20.29395155069791
 21
25.37896551746559
 31
0.0
  0
SOLID
  5
5726
330
2B4A
100
AcDbEntity
  8
DIM
 62
     0
100
AcDbTrace
 10
20.23395155069791
 20
22.71646551746558
 30
0.0
 11
20.35395155069791
 21
22.71646551746558
 31
0.0
 12
20.29395155069791
 22
23.07646551746558
 32
0.0
 13
20.29395155069791
 23
23.07646551746558
 33
0.0
  0
SOLID
  5
5727
330
2B4A
100
AcDbEntity
  8
DIM
 62
     0
100
AcDbTrace
 10
20.23395155069791
 20
25.01896551746559
 30
0.0
 11
20.35395155069791
 21
25.01896551746559
 31
0.0
 12
20.29395155069791
 22
24.65896551746558
 32
0.0
 13
20.29395155069791
 23
24.65896551746558
 33
0.0
  0
MTEXT
  5
5728
330
2B4A
100
AcDbEntity
  8
DIM
 62
     0
100
AcDbMText
 10
20.2939515506979
 20
23.86771551746559
 30
0.0
 40
0.25
 41
0.0
 71
     5
 72
     1
  1
\A1;1.583
 73
     1
 44
1.0
  0
POINT
  5
5729
330
2B4A
100
AcDbEntity
  8
Defpoints
 62
     0
100
AcDbPoint
 10
18.96001169494613
 20
23.07646551746558
 30
0.0
  0
POINT
  5
572A
330
2B4A
100
AcDbEntity
  8
Defpoints
 62
     0
100
AcDbPoint
 10
18.68602912891058
 20
24.65896551746558
 30
0.0
  0
POINT
  5
572B
330
2B4A
100
AcDbEntity
  8
Defpoints
 62
     0
100
AcDbPoint
 10
20.29395155069791
 20
24.65896551746558
 30
0.0
  0
ENDBLK
  5
2B56
330
2B4A
100
AcDbEntity
  8
0
100
AcDbBlockEnd
  0
BLOCK
  5
2B62
330
2B57
100
AcDbEntity
  8
0
100
AcDbBlockBegin
  2
*D13
 70
     1
 10
0.0
 20
0.0
 30
0.0
  3
*D13
  1

  0
LINE
  5
5718
330
2B57
100
AcDbEntity
  8
DIM
 62
     0
370
    -2
100
AcDbLine
 10
19.08601169494613
 20
23.07646551746558
 30
0.0
 11
20.47995155069791
 21
23.07646551746558
 31
0.0
  0
LINE
  5
5719
330
2B57
100
AcDbEntity
  8
DIM
 62
     0
370
    -2
100
AcDbLine
 10
18.81202912891058
 20
20.41896551746558
 30
0.0
 11
20.47995155069791
 21
20.41896551746558
 31
0.0
  0
LINE
  5
571A
330
2B57
100
AcDbEntity
  8
DIM
 62
     0
370
    -2
100
AcDbLine
 10
20.29395155069791
 20
22.71646551746558
 30
0.0
 11
20.29395155069791
 21
22.05271551746558
 31
0.0
  0
LINE
  5
571B
330
2B57
100
AcDbEntity
  8
DIM
 62
     0
370
    -2
100
AcDbLine
 10
20.29395155069791
 20
20.77896551746558
 30
0.0
 11
20.29395155069791
 21
21.44271551746558
 31
0.0
  0
SOLID
  5
571C
330
2B57
100
AcDbEntity
  8
DIM
 62
     0
100
AcDbTrace
 10
20.23395155069791
 20
22.71646551746558
 30
0.0
 11
20.35395155069791
 21
22.71646551746558
 31
0.0
 12
20.29395155069791
 22
23.07646551746558
 32
0.0
 13
20.29395155069791
 23
23.07646551746558
 33
0.0
  0
SOLID
  5
571D
330
2B57
100
AcDbEntity
  8
DIM
 62
     0
100
AcDbTrace
 10
20.23395155069791
 20
20.77896551746558
 30
0.0
 11
20.35395155069791
 21
20.77896551746558
 31
0.0
 12
20.29395155069791
 22
20.41896551746558
 32
0.0
 13
20.29395155069791
 23
20.41896551746558
 33
0.0
  0
MTEXT
  5
571E
330
2B57
100
AcDbEntity
  8
DIM
 62
     0
100
AcDbMText
 10
20.29395155069791
 20
21.74771551746558
 30
0.0
 40
0.25
 41
0.0
 71
     5
 72
     1
  1
\A1;2.658
 73
     1
 44
1.0
  0
POINT
  5
571F
330
2B57
100
AcDbEntity
  8
Defpoints
 62
     0
100
AcDbPoint
 10
18.96001169494613
 20
23.07646551746558
 30
0.0
  0
POINT
  5
5720
330
2B57
100
AcDbEntity
  8
Defpoints
 62
     0
100
AcDbPoint
 10
18.68602912891058
 20
20.41896551746558
 30
0.0
  0
POINT
  5
5721
330
2B57
100
AcDbEntity
  8
Defpoints
 62
     0
100
AcDbPoint
 10
20.29395155069791
 20
20.41896551746558
 30
0.0
  0
ENDBLK
  5
2B63
330
2B57
100
AcDbEntity
  8
0
100
AcDbBlockEnd
  0
BLOCK
  5
2B6F
330
2B64
100
AcDbEntity
  8
0
100
AcDbBlockBegin
  2
*D14
 70
     1
 10
0.0
 20
0.0
 30
0.0
  3
*D14
  1

  0
LINE
  5
5787
330
2B64
100
AcDbEntity
  8
DIM
 62
     0
370
    -2
100
AcDbLine
 10
17.68752912891058
 20
24.30204428736627
 30
0.0
 11
17.68752912891058
 21
25.54592201851093
 31
0.0
  0
LINE
  5
5788
330
2B64
100
AcDbEntity
  8
DIM
 62
     0
370
    -2
100
AcDbLine
 10
16.59502912891058
 20
24.69096551746559
 30
0.0
 11
16.59502912891058
 21
25.54592201851093
 31
0.0
  0
LINE
  5
5789
330
2B64
100
AcDbEntity
  8
DIM
 62
     0
370
    -2
100
AcDbLine
 10
18.04752912891058
 20
25.35992201851092
 30
0.0
 11
18.40752912891058
 21
25.35992201851092
 31
0.0
  0
LINE
  5
578A
330
2B64
100
AcDbEntity
  8
DIM
 62
     0
370
    -2
100
AcDbLine
 10
16.23502912891058
 20
25.35992201851092
 30
0.0
 11
15.87502912891058
 21
25.35992201851092
 31
0.0
  0
SOLID
  5
578B
330
2B64
100
AcDbEntity
  8
DIM
 62
     0
100
AcDbTrace
 10
18.04752912891058
 20
25.41992201851092
 30
0.0
 11
18.04752912891058
 21
25.29992201851093
 31
0.0
 12
17.68752912891058
 22
25.35992201851092
 32
0.0
 13
17.68752912891058
 23
25.35992201851092
 33
0.0
  0
SOLID
  5
578C
330
2B64
100
AcDbEntity
  8
DIM
 62
     0
100
AcDbTrace
 10
16.23502912891058
 20
25.41992201851092
 30
0.0
 11
16.23502912891058
 21
25.29992201851093
 31
0.0
 12
16.59502912891058
 22
25.35992201851092
 32
0.0
 13
16.59502912891058
 23
25.35992201851092
 33
0.0
  0
MTEXT
  5
578D
330
2B64
100
AcDbEntity
  8
DIM
 62
     0
100
AcDbMText
 10
17.14127912891058
 20
25.35992201851092
 30
0.0
 40
0.25
 41
0.0
 71
     5
 72
     1
  1
\A1;1.093
 73
     1
 44
1.0
  0
POINT
  5
578E
330
2B64
100
AcDbEntity
  8
Defpoints
 62
     0
100
AcDbPoint
 10
17.68752912891058
 20
24.17604428736627
 30
0.0
  0
POINT
  5
578F
330
2B64
100
AcDbEntity
  8
Defpoints
 62
     0
100
AcDbPoint
 10
16.59502912891058
 20
24.56496551746559
 30
0.0
  0
POINT
  5
5790
330
2B64
100
AcDbEntity
  8
Defpoints
 62
     0
100
AcDbPoint
 10
16.59502912891058
 20
25.35992201851092
 30
0.0
  0
ENDBLK
  5
2B70
330
2B64
100
AcDbEntity
  8
0
100
AcDbBlockEnd
  0
BLOCK
  5
2B7C
330
2B71
100
AcDbEntity
  8
0
100
AcDbBlockBegin
  2
*D15
 70
     1
 10
0.0
 20
0.0
 30
0.0
  3
*D15
  1

  0
LINE
  5
577D
330
2B71
100
AcDbEntity
  8
DIM
 62
     0
370
    -2
100
AcDbLine
 10
17.4989503590099
 20
23.76096551746558
 30
0.0
 11
14.82513585773062
 21
23.76096551746558
 31
0.0
  0
LINE
  5
577E
330
2B71
100
AcDbEntity
  8
DIM
 62
     0
370
    -2
100
AcDbLine
 10
16.56302912891058
 20
24.65896551746558
 30
0.0
 11
14.82513585773062
 21
24.65896551746558
 31
0.0
  0
LINE
  5
577F
330
2B71
100
AcDbEntity
  8
DIM
 62
     0
370
    -2
100
AcDbLine
 10
15.01113585773062
 20
23.40096551746558
 30
0.0
 11
15.01113585773062
 21
23.04096551746558
 31
0.0
  0
LINE
  5
5780
330
2B71
100
AcDbEntity
  8
DIM
 62
     0
370
    -2
100
AcDbLine
 10
15.01113585773062
 20
25.01896551746559
 30
0.0
 11
15.01113585773062
 21
25.37896551746559
 31
0.0
  0
SOLID
  5
5781
330
2B71
100
AcDbEntity
  8
DIM
 62
     0
100
AcDbTrace
 10
14.95113585773062
 20
23.40096551746558
 30
0.0
 11
15.07113585773062
 21
23.40096551746558
 31
0.0
 12
15.01113585773062
 22
23.76096551746558
 32
0.0
 13
15.01113585773062
 23
23.76096551746558
 33
0.0
  0
SOLID
  5
5782
330
2B71
100
AcDbEntity
  8
DIM
 62
     0
100
AcDbTrace
 10
14.95113585773062
 20
25.01896551746559
 30
0.0
 11
15.07113585773062
 21
25.01896551746559
 31
0.0
 12
15.01113585773062
 22
24.65896551746558
 32
0.0
 13
15.01113585773062
 23
24.65896551746558
 33
0.0
  0
MTEXT
  5
5783
330
2B71
100
AcDbEntity
  8
DIM
 62
     0
100
AcDbMText
 10
15.01113585773062
 20
24.20996551746559
 30
0.0
 40
0.25
 41
0.0
 71
     5
 72
     1
  1
\A1;0.898
 73
     1
 44
1.0
  0
POINT
  5
5784
330
2B71
100
AcDbEntity
  8
Defpoints
 62
     0
100
AcDbPoint
 10
17.6249503590099
 20
23.76096551746558
 30
0.0
  0
POINT
  5
5785
330
2B71
100
AcDbEntity
  8
Defpoints
 62
     0
100
AcDbPoint
 10
16.68902912891058
 20
24.65896551746558
 30
0.0
  0
POINT
  5
5786
330
2B71
100
AcDbEntity
  8
Defpoints
 62
     0
100
AcDbPoint
 10
15.01113585773062
 20
24.65896551746558
 30
0.0
  0
ENDBLK
  5
2B7D
330
2B71
100
AcDbEntity
  8
0
100
AcDbBlockEnd
  0
BLOCK
  5
2B89
330
2B7E
100
AcDbEntity
  8
0
100
AcDbBlockBegin
  2
*D16
 70
     1
 10
0.0
 20
0.0
 30
0.0
  3
*D16
  1

  0
LINE
  5
579B
330
2B7E
100
AcDbEntity
  8
DIM
 62
     0
370
    -2
100
AcDbLine
 10
17.4989503590099
 20
23.76096551746558
 30
0.0
 11
15.88807497931216
 21
23.76096551746558
 31
0.0
  0
LINE
  5
579C
330
2B7E
100
AcDbEntity
  8
DIM
 62
     0
370
    -2
100
AcDbLine
 10
17.4989503590099
 20
24.11346551746559
 30
0.0
 11
15.88807497931216
 21
24.11346551746559
 31
0.0
  0
LINE
  5
579D
330
2B7E
100
AcDbEntity
  8
DIM
 62
     0
370
    -2
100
AcDbLine
 10
16.07407497931215
 20
23.40096551746558
 30
0.0
 11
16.07407497931215
 21
23.04096551746558
 31
0.0
  0
LINE
  5
579E
330
2B7E
100
AcDbEntity
  8
DIM
 62
     0
370
    -2
100
AcDbLine
 10
16.07407497931216
 20
24.47346551746559
 30
0.0
 11
16.07407497931216
 21
24.83346551746558
 31
0.0
  0
SOLID
  5
579F
330
2B7E
100
AcDbEntity
  8
DIM
 62
     0
100
AcDbTrace
 10
16.01407497931216
 20
23.40096551746558
 30
0.0
 11
16.13407497931215
 21
23.40096551746558
 31
0.0
 12
16.07407497931215
 22
23.76096551746558
 32
0.0
 13
16.07407497931215
 23
23.76096551746558
 33
0.0
  0
SOLID
  5
57A0
330
2B7E
100
AcDbEntity
  8
DIM
 62
     0
100
AcDbTrace
 10
16.01407497931216
 20
24.47346551746559
 30
0.0
 11
16.13407497931216
 21
24.47346551746559
 31
0.0
 12
16.07407497931216
 22
24.11346551746559
 32
0.0
 13
16.07407497931216
 23
24.11346551746559
 33
0.0
  0
MTEXT
  5
57A1
330
2B7E
100
AcDbEntity
  8
DIM
 62
     0
100
AcDbMText
 10
16.07407497931215
 20
23.93721551746558
 30
0.0
 40
0.25
 41
0.0
 71
     5
 72
     1
  1
\A1;0.353
 73
     1
 44
1.0
  0
POINT
  5
57A2
330
2B7E
100
AcDbEntity
  8
Defpoints
 62
     0
100
AcDbPoint
 10
17.6249503590099
 20
23.76096551746558
 30
0.0
  0
POINT
  5
57A3
330
2B7E
100
AcDbEntity
  8
Defpoints
 62
     0
100
AcDbPoint
 10
17.6249503590099
 20
24.11346551746559
 30
0.0
  0
POINT
  5
57A4
330
2B7E
100
AcDbEntity
  8
Defpoints
 62
     0
100
AcDbPoint
 10
16.07407497931216
 20
24.11346551746559
 30
0.0
  0
ENDBLK
  5
2B8A
330
2B7E
100
AcDbEntity
  8
0
100
AcDbBlockEnd
  0
BLOCK
  5
2B96
330
2B8B
100
AcDbEntity
  8
0
100
AcDbBlockBegin
  2
*D17
 70
     1
 10
0.0
 20
0.0
 30
0.0
  3
*D17
  1

  0
LINE
  5
572C
330
2B8B
100
AcDbEntity
  8
DIM
 62
     0
370
    -2
100
AcDbLine
 10
17.57002912891058
 20
24.23946551746559
 30
0.0
 11
17.57002912891058
 21
25.21160383133828
 31
0.0
  0
LINE
  5
572D
330
2B8B
100
AcDbEntity
  8
DIM
 62
     0
370
    -2
100
AcDbLine
 10
17.80502912891058
 20
24.23946551746559
 30
0.0
 11
17.80502912891058
 21
25.21160383133828
 31
0.0
  0
LINE
  5
572E
330
2B8B
100
AcDbEntity
  8
DIM
 62
     0
370
    -2
100
AcDbLine
 10
17.21002912891058
 20
25.02560383133829
 30
0.0
 11
16.85002912891058
 21
25.02560383133829
 31
0.0
  0
LINE
  5
572F
330
2B8B
100
AcDbEntity
  8
DIM
 62
     0
370
    -2
100
AcDbLine
 10
18.16502912891058
 20
25.02560383133829
 30
0.0
 11
18.65687305633289
 21
25.02560383133829
 31
0.0
  0
SOLID
  5
5730
330
2B8B
100
AcDbEntity
  8
DIM
 62
     0
100
AcDbTrace
 10
17.21002912891058
 20
25.08560383133828
 30
0.0
 11
17.21002912891058
 21
24.96560383133829
 31
0.0
 12
17.57002912891058
 22
25.02560383133829
 32
0.0
 13
17.57002912891058
 23
25.02560383133829
 33
0.0
  0
SOLID
  5
5731
330
2B8B
100
AcDbEntity
  8
DIM
 62
     0
100
AcDbTrace
 10
18.16502912891058
 20
25.08560383133828
 30
0.0
 11
18.16502912891058
 21
24.96560383133829
 31
0.0
 12
17.80502912891058
 22
25.02560383133829
 32
0.0
 13
17.80502912891058
 23
25.02560383133829
 33
0.0
  0
MTEXT
  5
5732
330
2B8B
100
AcDbEntity
  8
DIM
 62
     0
100
AcDbMText
 10
19.19624805633289
 20
25.02560383133829
 30
0.0
 40
0.25
 41
0.0
 71
     5
 72
     1
  1
\A1;0.235
 73
     1
 44
1.0
  0
POINT
  5
5733
330
2B8B
100
AcDbEntity
  8
Defpoints
 62
     0
100
AcDbPoint
 10
17.57002912891058
 20
24.11346551746559
 30
0.0
  0
POINT
  5
5734
330
2B8B
100
AcDbEntity
  8
Defpoints
 62
     0
100
AcDbPoint
 10
17.80502912891058
 20
24.11346551746559
 30
0.0
  0
POINT
  5
5735
330
2B8B
100
AcDbEntity
  8
Defpoints
 62
     0
100
AcDbPoint
 10
17.80502912891058
 20
25.02560383133829
 30
0.0
  0
ENDBLK
  5
2B97
330
2B8B
100
AcDbEntity
  8
0
100
AcDbBlockEnd
  0
BLOCK
  5
2C97
330
2C8C
100
AcDbEntity
  8
0
100
AcDbBlockBegin
  2
*D18
 70
     1
 10
0.0
 20
0.0
 30
0.0
  3
*D18
  1

  0
LINE
  5
56B4
330
2C8C
100
AcDbEntity
  8
DIM
 62
     0
370
    -2
100
AcDbLine
 10
5.927700920390188
 20
10.51079989029289
 30
0.0
 11
5.927700920390188
 21
12.20868412710459
 31
0.0
  0
LINE
  5
56B5
330
2C8C
100
AcDbEntity
  8
DIM
 62
     0
370
    -2
100
AcDbLine
 10
2.385700920390187
 20
10.51079989029289
 30
0.0
 11
2.385700920390187
 21
12.20868412710459
 31
0.0
  0
LINE
  5
56B6
330
2C8C
100
AcDbEntity
  8
DIM
 62
     0
370
    -2
100
AcDbLine
 10
5.567700920390188
 20
12.02268412710459
 30
0.0
 11
4.711700920390187
 21
12.02268412710459
 31
0.0
  0
LINE
  5
56B7
330
2C8C
100
AcDbEntity
  8
DIM
 62
     0
370
    -2
100
AcDbLine
 10
2.745700920390186
 20
12.02268412710459
 30
0.0
 11
3.601700920390188
 21
12.02268412710459
 31
0.0
  0
SOLID
  5
56B8
330
2C8C
100
AcDbEntity
  8
DIM
 62
     0
100
AcDbTrace
 10
5.567700920390188
 20
12.08268412710459
 30
0.0
 11
5.567700920390188
 21
11.96268412710459
 31
0.0
 12
5.927700920390188
 22
12.02268412710459
 32
0.0
 13
5.927700920390188
 23
12.02268412710459
 33
0.0
  0
SOLID
  5
56B9
330
2C8C
100
AcDbEntity
  8
DIM
 62
     0
100
AcDbTrace
 10
2.745700920390186
 20
12.08268412710459
 30
0.0
 11
2.745700920390186
 21
11.96268412710459
 31
0.0
 12
2.385700920390187
 22
12.02268412710459
 32
0.0
 13
2.385700920390187
 23
12.02268412710459
 33
0.0
  0
MTEXT
  5
56BA
330
2C8C
100
AcDbEntity
  8
DIM
 62
     0
100
AcDbMText
 10
4.156700920390187
 20
12.02268412710459
 30
0.0
 40
0.25
 41
0.0
 71
     5
 72
     1
  1
\A1;3.542
 73
     1
 44
1.0
  0
POINT
  5
56BB
330
2C8C
100
AcDbEntity
  8
Defpoints
 62
     0
100
AcDbPoint
 10
5.927700920390188
 20
10.38479989029289
 30
0.0
  0
POINT
  5
56BC
330
2C8C
100
AcDbEntity
  8
Defpoints
 62
     0
100
AcDbPoint
 10
2.385700920390187
 20
10.38479989029289
 30
0.0
  0
POINT
  5
56BD
330
2C8C
100
AcDbEntity
  8
Defpoints
 62
     0
100
AcDbPoint
 10
2.385700920390187
 20
12.02268412710459
 30
0.0
  0
ENDBLK
  5
2C98
330
2C8C
100
AcDbEntity
  8
0
100
AcDbBlockEnd
  0
BLOCK
  5
2CA5
330
2C9A
100
AcDbEntity
  8
0
100
AcDbBlockBegin
  2
*D19
 70
     1
 10
0.0
 20
0.0
 30
0.0
  3
*D19
  1

  0
LINE
  5
56AA
330
2C9A
100
AcDbEntity
  8
DIM
 62
     0
370
    -2
100
AcDbLine
 10
2.385700920390187
 20
10.51079989029289
 30
0.0
 11
2.385700920390187
 21
12.20868412710459
 31
0.0
  0
LINE
  5
56AB
330
2C9A
100
AcDbEntity
  8
DIM
 62
     0
370
    -2
100
AcDbLine
 10
1.991700916864331
 20
9.349516511463701
 30
0.0
 11
1.991700916864331
 21
12.20868412710459
 31
0.0
  0
LINE
  5
56AC
330
2C9A
100
AcDbEntity
  8
DIM
 62
     0
370
    -2
100
AcDbLine
 10
2.745700920390186
 20
12.02268412710459
 30
0.0
 11
3.105700920390186
 21
12.02268412710459
 31
0.0
  0
LINE
  5
56AD
330
2C9A
100
AcDbEntity
  8
DIM
 62
     0
370
    -2
100
AcDbLine
 10
1.631700916864331
 20
12.02268412710459
 30
0.0
 11
1.271700916864332
 21
12.02268412710459
 31
0.0
  0
SOLID
  5
56AE
330
2C9A
100
AcDbEntity
  8
DIM
 62
     0
100
AcDbTrace
 10
2.745700920390186
 20
12.08268412710459
 30
0.0
 11
2.745700920390186
 21
11.96268412710459
 31
0.0
 12
2.385700920390187
 22
12.02268412710459
 32
0.0
 13
2.385700920390187
 23
12.02268412710459
 33
0.0
  0
SOLID
  5
56AF
330
2C9A
100
AcDbEntity
  8
DIM
 62
     0
100
AcDbTrace
 10
1.631700916864331
 20
12.08268412710459
 30
0.0
 11
1.631700916864331
 21
11.96268412710459
 31
0.0
 12
1.991700916864331
 22
12.02268412710459
 32
0.0
 13
1.991700916864331
 23
12.02268412710459
 33
0.0
  0
MTEXT
  5
56B0
330
2C9A
100
AcDbEntity
  8
DIM
 62
     0
100
AcDbMText
 10
0.7323259168643322
 20
12.02268412710459
 30
0.0
 40
0.25
 41
0.0
 71
     5
 72
     1
  1
\A1;0.394
 73
     1
 44
1.0
  0
POINT
  5
56B1
330
2C9A
100
AcDbEntity
  8
Defpoints
 62
     0
100
AcDbPoint
 10
2.385700920390187
 20
10.38479989029289
 30
0.0
  0
POINT
  5
56B2
330
2C9A
100
AcDbEntity
  8
Defpoints
 62
     0
100
AcDbPoint
 10
1.991700916864331
 20
9.223516511463701
 30
0.0
  0
POINT
  5
56B3
330
2C9A
100
AcDbEntity
  8
Defpoints
 62
     0
100
AcDbPoint
 10
1.991700916864331
 20
12.02268412710459
 30
0.0
  0
ENDBLK
  5
2CA6
330
2C9A
100
AcDbEntity
  8
0
100
AcDbBlockEnd
  0
BLOCK
  5
2CB3
330
2CA8
100
AcDbEntity
  8
0
100
AcDbBlockBegin
  2
*D20
 70
     1
 10
0.0
 20
0.0
 30
0.0
  3
*D20
  1

  0
LINE
  5
5614
330
2CA8
100
AcDbEntity
  8
DIM
 62
     0
370
    -2
100
AcDbLine
 10
4.030700920390167
 20
10.92079989029289
 30
0.0
 11
0.6609036637194665
 21
10.92079989029289
 31
0.0
  0
LINE
  5
5615
330
2CA8
100
AcDbEntity
  8
DIM
 62
     0
370
    -2
100
AcDbLine
 10
2.275964376357445
 20
10.3685364343256
 30
0.0
 11
0.6609036637194664
 21
10.3685364343256
 31
0.0
  0
LINE
  5
5616
330
2CA8
100
AcDbEntity
  8
DIM
 62
     0
370
    -2
100
AcDbLine
 10
0.8469036637194664
 20
11.28079989029289
 30
0.0
 11
0.8469036637194664
 21
11.64079989029289
 31
0.0
  0
LINE
  5
5617
330
2CA8
100
AcDbEntity
  8
DIM
 62
     0
370
    -2
100
AcDbLine
 10
0.846903663719466
 20
10.0085364343256
 30
0.0
 11
0.846903663719466
 21
9.648536434325604
 31
0.0
  0
SOLID
  5
5618
330
2CA8
100
AcDbEntity
  8
DIM
 62
     0
100
AcDbTrace
 10
0.7869036637194666
 20
11.28079989029289
 30
0.0
 11
0.9069036637194663
 21
11.28079989029289
 31
0.0
 12
0.8469036637194664
 22
10.92079989029289
 32
0.0
 13
0.8469036637194664
 23
10.92079989029289
 33
0.0
  0
SOLID
  5
5619
330
2CA8
100
AcDbEntity
  8
DIM
 62
     0
100
AcDbTrace
 10
0.7869036637194662
 20
10.0085364343256
 30
0.0
 11
0.906903663719466
 21
10.0085364343256
 31
0.0
 12
0.8469036637194662
 22
10.3685364343256
 32
0.0
 13
0.8469036637194662
 23
10.3685364343256
 33
0.0
  0
MTEXT
  5
561A
330
2CA8
100
AcDbEntity
  8
DIM
 62
     0
100
AcDbMText
 10
0.8469036637194646
 20
10.64466816230925
 30
0.0
 40
0.25
 41
0.0
 71
     5
 72
     1
  1
\A1;0.552
 73
     1
 44
1.0
  0
POINT
  5
561B
330
2CA8
100
AcDbEntity
  8
Defpoints
 62
     0
100
AcDbPoint
 10
4.156700920390167
 20
10.92079989029289
 30
0.0
  0
POINT
  5
561C
330
2CA8
100
AcDbEntity
  8
Defpoints
 62
     0
100
AcDbPoint
 10
2.401964376357445
 20
10.3685364343256
 30
0.0
  0
POINT
  5
561D
330
2CA8
100
AcDbEntity
  8
Defpoints
 62
     0
100
AcDbPoint
 10
0.8469036637194662
 20
10.3685364343256
 30
0.0
  0
ENDBLK
  5
2CB4
330
2CA8
100
AcDbEntity
  8
0
100
AcDbBlockEnd
  0
BLOCK
  5
2CC1
330
2CB6
100
AcDbEntity
  8
0
100
AcDbBlockBegin
  2
*D21
 70
     1
 10
0.0
 20
0.0
 30
0.0
  3
*D21
  1

  0
LINE
  5
55E2
330
2CB6
100
AcDbEntity
  8
DIM
 62
     0
370
    -2
100
AcDbLine
 10
5.325700920390188
 20
2.946799890292895
 30
0.0
 11
5.325700920390188
 21
1.534734901657195
 31
0.0
  0
LINE
  5
55E3
330
2CB6
100
AcDbEntity
  8
DIM
 62
     0
370
    -2
100
AcDbLine
 10
2.987700920390187
 20
2.946799890292895
 30
0.0
 11
2.987700920390187
 21
1.534734901657195
 31
0.0
  0
LINE
  5
55E4
330
2CB6
100
AcDbEntity
  8
DIM
 62
     0
370
    -2
100
AcDbLine
 10
4.965700920390188
 20
1.720734901657195
 30
0.0
 11
4.711700920390187
 21
1.720734901657195
 31
0.0
  0
LINE
  5
55E5
330
2CB6
100
AcDbEntity
  8
DIM
 62
     0
370
    -2
100
AcDbLine
 10
3.347700920390187
 20
1.720734901657195
 30
0.0
 11
3.601700920390188
 21
1.720734901657195
 31
0.0
  0
SOLID
  5
55E6
330
2CB6
100
AcDbEntity
  8
DIM
 62
     0
100
AcDbTrace
 10
4.965700920390188
 20
1.780734901657195
 30
0.0
 11
4.965700920390188
 21
1.660734901657195
 31
0.0
 12
5.325700920390188
 22
1.720734901657195
 32
0.0
 13
5.325700920390188
 23
1.720734901657195
 33
0.0
  0
SOLID
  5
55E7
330
2CB6
100
AcDbEntity
  8
DIM
 62
     0
100
AcDbTrace
 10
3.347700920390187
 20
1.780734901657195
 30
0.0
 11
3.347700920390187
 21
1.660734901657195
 31
0.0
 12
2.987700920390187
 22
1.720734901657195
 32
0.0
 13
2.987700920390187
 23
1.720734901657195
 33
0.0
  0
MTEXT
  5
55E8
330
2CB6
100
AcDbEntity
  8
DIM
 62
     0
100
AcDbMText
 10
4.156700920390187
 20
1.720734901657195
 30
0.0
 40
0.25
 41
0.0
 71
     5
 72
     1
  1
\A1;2.338
 73
     1
 44
1.0
  0
POINT
  5
55E9
330
2CB6
100
AcDbEntity
  8
Defpoints
 62
     0
100
AcDbPoint
 10
5.325700920390188
 20
3.072799890292895
 30
0.0
  0
POINT
  5
55EA
330
2CB6
100
AcDbEntity
  8
Defpoints
 62
     0
100
AcDbPoint
 10
2.987700920390187
 20
3.072799890292895
 30
0.0
  0
POINT
  5
55EB
330
2CB6
100
AcDbEntity
  8
Defpoints
 62
     0
100
AcDbPoint
 10
2.987700920390187
 20
1.720734901657195
 30
0.0
  0
ENDBLK
  5
2CC2
330
2CB6
100
AcDbEntity
  8
0
100
AcDbBlockEnd
  0
BLOCK
  5
2CCF
330
2CC4
100
AcDbEntity
  8
0
100
AcDbBlockBegin
  2
*D22
 70
     1
 10
0.0
 20
0.0
 30
0.0
  3
*D22
  1

  0
LINE
  5
55CE
330
2CC4
100
AcDbEntity
  8
DIM
 62
     0
370
    -2
100
AcDbLine
 10
2.987700920390187
 20
2.946799890292895
 30
0.0
 11
2.987700920390187
 21
1.534734901657195
 31
0.0
  0
LINE
  5
55CF
330
2CC4
100
AcDbEntity
  8
DIM
 62
     0
370
    -2
100
AcDbLine
 10
2.680200920390189
 20
2.946799890292895
 30
0.0
 11
2.680200920390189
 21
1.534734901657195
 31
0.0
  0
LINE
  5
55D0
330
2CC4
100
AcDbEntity
  8
DIM
 62
     0
370
    -2
100
AcDbLine
 10
3.347700920390187
 20
1.720734901657195
 30
0.0
 11
3.707700920390187
 21
1.720734901657195
 31
0.0
  0
LINE
  5
55D1
330
2CC4
100
AcDbEntity
  8
DIM
 62
     0
370
    -2
100
AcDbLine
 10
2.32020092039019
 20
1.720734901657195
 30
0.0
 11
1.96020092039019
 21
1.720734901657195
 31
0.0
  0
SOLID
  5
55D2
330
2CC4
100
AcDbEntity
  8
DIM
 62
     0
100
AcDbTrace
 10
3.347700920390187
 20
1.780734901657195
 30
0.0
 11
3.347700920390187
 21
1.660734901657195
 31
0.0
 12
2.987700920390187
 22
1.720734901657195
 32
0.0
 13
2.987700920390187
 23
1.720734901657195
 33
0.0
  0
SOLID
  5
55D3
330
2CC4
100
AcDbEntity
  8
DIM
 62
     0
100
AcDbTrace
 10
2.32020092039019
 20
1.780734901657195
 30
0.0
 11
2.32020092039019
 21
1.660734901657195
 31
0.0
 12
2.680200920390189
 22
1.720734901657195
 32
0.0
 13
2.680200920390189
 23
1.720734901657195
 33
0.0
  0
MTEXT
  5
55D4
330
2CC4
100
AcDbEntity
  8
DIM
 62
     0
100
AcDbMText
 10
1.43645092039019
 20
1.720734901657195
 30
0.0
 40
0.25
 41
0.0
 71
     5
 72
     1
  1
\A1;0.308
 73
     1
 44
1.0
  0
POINT
  5
55D5
330
2CC4
100
AcDbEntity
  8
Defpoints
 62
     0
100
AcDbPoint
 10
2.987700920390187
 20
3.072799890292895
 30
0.0
  0
POINT
  5
55D6
330
2CC4
100
AcDbEntity
  8
Defpoints
 62
     0
100
AcDbPoint
 10
2.680200920390189
 20
3.072799890292895
 30
0.0
  0
POINT
  5
55D7
330
2CC4
100
AcDbEntity
  8
Defpoints
 62
     0
100
AcDbPoint
 10
2.680200920390189
 20
1.720734901657195
 30
0.0
  0
ENDBLK
  5
2CD0
330
2CC4
100
AcDbEntity
  8
0
100
AcDbBlockEnd
  0
BLOCK
  5
2CDE
330
2CD2
100
AcDbEntity
  8
0
100
AcDbBlockBegin
  2
*D23
 70
     1
 10
0.0
 20
0.0
 30
0.0
  3
*D23
  1

  0
LINE
  5
55EC
330
2CD2
100
AcDbEntity
  8
DIM
 62
     0
370
    -2
100
AcDbLine
 10
4.030700920390167
 20
2.652799890292895
 30
0.0
 11
1.79787689375734
 21
2.652799890292895
 31
0.0
  0
LINE
  5
55ED
330
2CD2
100
AcDbEntity
  8
DIM
 62
     0
370
    -2
100
AcDbLine
 10
2.861700920390162
 20
3.072799890292895
 30
0.0
 11
1.79787689375734
 21
3.072799890292895
 31
0.0
  0
LINE
  5
55EE
330
2CD2
100
AcDbEntity
  8
DIM
 62
     0
370
    -2
100
AcDbLine
 10
1.983876893757339
 20
2.292799890292895
 30
0.0
 11
1.983876893757339
 21
1.932799890292895
 31
0.0
  0
LINE
  5
55EF
330
2CD2
100
AcDbEntity
  8
DIM
 62
     0
370
    -2
100
AcDbLine
 10
1.98387689375734
 20
3.432799890292895
 30
0.0
 11
1.98387689375734
 21
3.792799890292895
 31
0.0
  0
SOLID
  5
55F0
330
2CD2
100
AcDbEntity
  8
DIM
 62
     0
100
AcDbTrace
 10
1.923876893757339
 20
2.292799890292895
 30
0.0
 11
2.043876893757339
 21
2.292799890292895
 31
0.0
 12
1.98387689375734
 22
2.652799890292895
 32
0.0
 13
1.98387689375734
 23
2.652799890292895
 33
0.0
  0
SOLID
  5
55F1
330
2CD2
100
AcDbEntity
  8
DIM
 62
     0
100
AcDbTrace
 10
1.92387689375734
 20
3.432799890292895
 30
0.0
 11
2.04387689375734
 21
3.432799890292895
 31
0.0
 12
1.98387689375734
 22
3.072799890292895
 32
0.0
 13
1.98387689375734
 23
3.072799890292895
 33
0.0
  0
MTEXT
  5
55F2
330
2CD2
100
AcDbEntity
  8
DIM
 62
     0
100
AcDbMText
 10
1.983876893757339
 20
2.862799890292896
 30
0.0
 40
0.25
 41
0.0
 71
     5
 72
     1
  1
\A1;0.420
 73
     1
 44
1.0
  0
POINT
  5
55F3
330
2CD2
100
AcDbEntity
  8
Defpoints
 62
     0
100
AcDbPoint
 10
4.156700920390167
 20
2.652799890292895
 30
0.0
  0
POINT
  5
55F4
330
2CD2
100
AcDbEntity
  8
Defpoints
 62
     0
100
AcDbPoint
 10
2.987700920390162
 20
3.072799890292895
 30
0.0
  0
POINT
  5
55F5
330
2CD2
100
AcDbEntity
  8
Defpoints
 62
     0
100
AcDbPoint
 10
1.98387689375734
 20
3.072799890292895
 30
0.0
  0
ENDBLK
  5
2CDF
330
2CD2
100
AcDbEntity
  8
0
100
AcDbBlockEnd
  0
BLOCK
  5
2D0B
330
2D00
100
AcDbEntity
  8
0
100
AcDbBlockBegin
  2
*D24
 70
     1
 10
0.0
 20
0.0
 30
0.0
  3
*D24
  1

  0
LINE
  5
5628
330
2D00
100
AcDbEntity
  8
DIM
 62
     0
370
    -2
100
AcDbLine
 10
2.276425762355585
 20
9.961536434325603
 30
0.0
 11
2.276425762355585
 21
9.529793409585906
 31
0.0
  0
LINE
  5
5629
330
2D00
100
AcDbEntity
  8
DIM
 62
     0
370
    -2
100
AcDbLine
 10
6.036976078424766
 20
10.0065364343256
 30
0.0
 11
6.036976078424766
 21
9.529793409585906
 31
0.0
  0
LINE
  5
562A
330
2D00
100
AcDbEntity
  8
DIM
 62
     0
370
    -2
100
AcDbLine
 10
2.636425762355584
 20
9.715793409585906
 30
0.0
 11
3.632950920390175
 21
9.715793409585906
 31
0.0
  0
LINE
  5
562B
330
2D00
100
AcDbEntity
  8
DIM
 62
     0
370
    -2
100
AcDbLine
 10
5.676976078424766
 20
9.715793409585906
 30
0.0
 11
4.680450920390175
 21
9.715793409585906
 31
0.0
  0
SOLID
  5
562C
330
2D00
100
AcDbEntity
  8
DIM
 62
     0
100
AcDbTrace
 10
2.636425762355584
 20
9.775793409585906
 30
0.0
 11
2.636425762355584
 21
9.655793409585905
 31
0.0
 12
2.276425762355585
 22
9.715793409585906
 32
0.0
 13
2.276425762355585
 23
9.715793409585906
 33
0.0
  0
SOLID
  5
562D
330
2D00
100
AcDbEntity
  8
DIM
 62
     0
100
AcDbTrace
 10
5.676976078424766
 20
9.775793409585906
 30
0.0
 11
5.676976078424766
 21
9.655793409585905
 31
0.0
 12
6.036976078424766
 22
9.715793409585906
 32
0.0
 13
6.036976078424766
 23
9.715793409585906
 33
0.0
  0
MTEXT
  5
562E
330
2D00
100
AcDbEntity
  8
DIM
 62
     0
100
AcDbMText
 10
4.156700920390175
 20
9.715793409585906
 30
0.0
 40
0.25
 41
0.0
 71
     5
 72
     1
  1
\A1;3.761
 73
     1
 44
1.0
  0
POINT
  5
562F
330
2D00
100
AcDbEntity
  8
Defpoints
 62
     0
100
AcDbPoint
 10
2.276425762355585
 20
10.0875364343256
 30
0.0
  0
POINT
  5
5630
330
2D00
100
AcDbEntity
  8
Defpoints
 62
     0
100
AcDbPoint
 10
6.036976078424766
 20
10.1325364343256
 30
0.0
  0
POINT
  5
5631
330
2D00
100
AcDbEntity
  8
Defpoints
 62
     0
100
AcDbPoint
 10
6.036976078424766
 20
9.715793409585906
 30
0.0
  0
ENDBLK
  5
2D0C
330
2D00
100
AcDbEntity
  8
0
100
AcDbBlockEnd
  0
BLOCK
  5
2D2D
330
2D22
100
AcDbEntity
  8
0
100
AcDbBlockBegin
  2
*D25
 70
     1
 10
0.0
 20
0.0
 30
0.0
  3
*D25
  1

  0
LINE
  5
560A
330
2D22
100
AcDbEntity
  8
DIM
 62
     0
370
    -2
100
AcDbLine
 10
2.150425762355586
 20
10.0875364343256
 30
0.0
 11
1.101429707278243
 21
10.0875364343256
 31
0.0
  0
LINE
  5
560B
330
2D22
100
AcDbEntity
  8
DIM
 62
     0
370
    -2
100
AcDbLine
 10
2.351200920390247
 20
7.745799890292888
 30
0.0
 11
1.101429707278243
 21
7.745799890292889
 31
0.0
  0
LINE
  5
560C
330
2D22
100
AcDbEntity
  8
DIM
 62
     0
370
    -2
100
AcDbLine
 10
1.287429707278243
 20
9.727536434325603
 30
0.0
 11
1.287429707278243
 21
9.221668162309246
 31
0.0
  0
LINE
  5
560D
330
2D22
100
AcDbEntity
  8
DIM
 62
     0
370
    -2
100
AcDbLine
 10
1.287429707278243
 20
8.105799890292889
 30
0.0
 11
1.287429707278243
 21
8.611668162309246
 31
0.0
  0
SOLID
  5
560E
330
2D22
100
AcDbEntity
  8
DIM
 62
     0
100
AcDbTrace
 10
1.227429707278243
 20
9.727536434325603
 30
0.0
 11
1.347429707278243
 21
9.727536434325603
 31
0.0
 12
1.287429707278243
 22
10.0875364343256
 32
0.0
 13
1.287429707278243
 23
10.0875364343256
 33
0.0
  0
SOLID
  5
560F
330
2D22
100
AcDbEntity
  8
DIM
 62
     0
100
AcDbTrace
 10
1.227429707278242
 20
8.105799890292889
 30
0.0
 11
1.347429707278243
 21
8.105799890292889
 31
0.0
 12
1.287429707278243
 22
7.745799890292889
 32
0.0
 13
1.287429707278243
 23
7.745799890292889
 33
0.0
  0
MTEXT
  5
5610
330
2D22
100
AcDbEntity
  8
DIM
 62
     0
100
AcDbMText
 10
1.287429707278241
 20
8.916668162309246
 30
0.0
 40
0.25
 41
0.0
 71
     5
 72
     1
  1
\A1;2.342
 73
     1
 44
1.0
  0
POINT
  5
5611
330
2D22
100
AcDbEntity
  8
Defpoints
 62
     0
100
AcDbPoint
 10
2.276425762355586
 20
10.0875364343256
 30
0.0
  0
POINT
  5
5612
330
2D22
100
AcDbEntity
  8
Defpoints
 62
     0
100
AcDbPoint
 10
2.477200920390247
 20
7.745799890292888
 30
0.0
  0
POINT
  5
5613
330
2D22
100
AcDbEntity
  8
Defpoints
 62
     0
100
AcDbPoint
 10
1.287429707278243
 20
7.745799890292889
 30
0.0
  0
ENDBLK
  5
2D2E
330
2D22
100
AcDbEntity
  8
0
100
AcDbBlockEnd
  0
BLOCK
  5
2D3B
330
2D30
100
AcDbEntity
  8
0
100
AcDbBlockBegin
  2
*D26
 70
     1
 10
0.0
 20
0.0
 30
0.0
  3
*D26
  1

  0
LINE
  5
563C
330
2D30
100
AcDbEntity
  8
DIM
 62
     0
370
    -2
100
AcDbLine
 10
2.682964376357477
 20
10.6613804533348
 30
0.0
 11
2.682964376357477
 21
11.64846413083937
 31
0.0
  0
LINE
  5
563D
330
2D30
100
AcDbEntity
  8
DIM
 62
     0
370
    -2
100
AcDbLine
 10
5.630437464422898
 20
10.6613804533348
 30
0.0
 11
5.630437464422898
 21
11.64846413083937
 31
0.0
  0
LINE
  5
563E
330
2D30
100
AcDbEntity
  8
DIM
 62
     0
370
    -2
100
AcDbLine
 10
3.042964376357477
 20
11.46246413083938
 30
0.0
 11
3.601700920390188
 21
11.46246413083938
 31
0.0
  0
LINE
  5
563F
330
2D30
100
AcDbEntity
  8
DIM
 62
     0
370
    -2
100
AcDbLine
 10
5.270437464422898
 20
11.46246413083938
 30
0.0
 11
4.711700920390187
 21
11.46246413083938
 31
0.0
  0
SOLID
  5
5640
330
2D30
100
AcDbEntity
  8
DIM
 62
     0
100
AcDbTrace
 10
3.042964376357477
 20
11.52246413083938
 30
0.0
 11
3.042964376357477
 21
11.40246413083937
 31
0.0
 12
2.682964376357477
 22
11.46246413083938
 32
0.0
 13
2.682964376357477
 23
11.46246413083938
 33
0.0
  0
SOLID
  5
5641
330
2D30
100
AcDbEntity
  8
DIM
 62
     0
100
AcDbTrace
 10
5.270437464422898
 20
11.52246413083938
 30
0.0
 11
5.270437464422898
 21
11.40246413083937
 31
0.0
 12
5.630437464422898
 22
11.46246413083938
 32
0.0
 13
5.630437464422898
 23
11.46246413083938
 33
0.0
  0
MTEXT
  5
5642
330
2D30
100
AcDbEntity
  8
DIM
 62
     0
100
AcDbMText
 10
4.156700920390187
 20
11.46246413083938
 30
0.0
 40
0.25
 41
0.0
 71
     5
 72
     1
  1
\A1;2.947
 73
     1
 44
1.0
  0
POINT
  5
5643
330
2D30
100
AcDbEntity
  8
Defpoints
 62
     0
100
AcDbPoint
 10
2.682964376357477
 20
10.5353804533348
 30
0.0
  0
POINT
  5
5644
330
2D30
100
AcDbEntity
  8
Defpoints
 62
     0
100
AcDbPoint
 10
5.630437464422898
 20
10.5353804533348
 30
0.0
  0
POINT
  5
5645
330
2D30
100
AcDbEntity
  8
Defpoints
 62
     0
100
AcDbPoint
 10
5.630437464422898
 20
11.46246413083938
 30
0.0
  0
ENDBLK
  5
2D3C
330
2D30
100
AcDbEntity
  8
0
100
AcDbBlockEnd
  0
BLOCK
  5
2D49
330
2D3E
100
AcDbEntity
  8
0
100
AcDbBlockBegin
  2
*D27
 70
     1
 10
0.0
 20
0.0
 30
0.0
  3
*D27
  1

  0
LINE
  5
55F6
330
2D3E
100
AcDbEntity
  8
DIM
 62
     0
370
    -2
100
AcDbLine
 10
3.284964376357477
 20
2.820466289346692
 30
0.0
 11
3.284964376357477
 21
2.064497155813846
 31
0.0
  0
LINE
  5
55F7
330
2D3E
100
AcDbEntity
  8
DIM
 62
     0
370
    -2
100
AcDbLine
 10
5.028437464422896
 20
2.820466289346691
 30
0.0
 11
5.028437464422896
 21
2.064497155813846
 31
0.0
  0
LINE
  5
55F8
330
2D3E
100
AcDbEntity
  8
DIM
 62
     0
370
    -2
100
AcDbLine
 10
2.924964376357477
 20
2.250497155813846
 30
0.0
 11
2.564964376357477
 21
2.250497155813846
 31
0.0
  0
LINE
  5
55F9
330
2D3E
100
AcDbEntity
  8
DIM
 62
     0
370
    -2
100
AcDbLine
 10
5.388437464422897
 20
2.250497155813846
 30
0.0
 11
5.748437464422896
 21
2.250497155813846
 31
0.0
  0
SOLID
  5
55FA
330
2D3E
100
AcDbEntity
  8
DIM
 62
     0
100
AcDbTrace
 10
2.924964376357477
 20
2.310497155813846
 30
0.0
 11
2.924964376357477
 21
2.190497155813846
 31
0.0
 12
3.284964376357477
 22
2.250497155813846
 32
0.0
 13
3.284964376357477
 23
2.250497155813846
 33
0.0
  0
SOLID
  5
55FB
330
2D3E
100
AcDbEntity
  8
DIM
 62
     0
100
AcDbTrace
 10
5.388437464422897
 20
2.310497155813846
 30
0.0
 11
5.388437464422897
 21
2.190497155813846
 31
0.0
 12
5.028437464422896
 22
2.250497155813846
 32
0.0
 13
5.028437464422896
 23
2.250497155813846
 33
0.0
  0
MTEXT
  5
55FC
330
2D3E
100
AcDbEntity
  8
DIM
 62
     0
100
AcDbMText
 10
4.156700920390186
 20
2.250497155813846
 30
0.0
 40
0.25
 41
0.0
 71
     5
 72
     1
  1
\A1;1.743
 73
     1
 44
1.0
  0
POINT
  5
55FD
330
2D3E
100
AcDbEntity
  8
Defpoints
 62
     0
100
AcDbPoint
 10
3.284964376357477
 20
2.946466289346692
 30
0.0
  0
POINT
  5
55FE
330
2D3E
100
AcDbEntity
  8
Defpoints
 62
     0
100
AcDbPoint
 10
5.028437464422896
 20
2.946466289346691
 30
0.0
  0
POINT
  5
55FF
330
2D3E
100
AcDbEntity
  8
Defpoints
 62
     0
100
AcDbPoint
 10
5.028437464422896
 20
2.250497155813846
 30
0.0
  0
ENDBLK
  5
2D4A
330
2D3E
100
AcDbEntity
  8
0
100
AcDbBlockEnd
  0
BLOCK
  5
2DA7
330
2D9C
100
AcDbEntity
  8
0
100
AcDbBlockBegin
  2
*D28
 70
     1
 10
0.0
 20
0.0
 30
0.0
  3
*D28
  1

  0
LINE
  5
5600
330
2D9C
100
AcDbEntity
  8
DIM
 62
     0
370
    -2
100
AcDbLine
 10
2.860200920390191
 20
3.558063346260194
 30
0.0
 11
2.860200920390191
 21
4.282393649798344
 31
0.0
  0
LINE
  5
5601
330
2D9C
100
AcDbEntity
  8
DIM
 62
     0
370
    -2
100
AcDbLine
 10
5.453200920390191
 20
3.558063346260197
 30
0.0
 11
5.453200920390191
 21
4.282393649798344
 31
0.0
  0
LINE
  5
5602
330
2D9C
100
AcDbEntity
  8
DIM
 62
     0
370
    -2
100
AcDbLine
 10
3.220200920390191
 20
4.096393649798344
 30
0.0
 11
3.601700920390191
 21
4.096393649798344
 31
0.0
  0
LINE
  5
5603
330
2D9C
100
AcDbEntity
  8
DIM
 62
     0
370
    -2
100
AcDbLine
 10
5.093200920390191
 20
4.096393649798344
 30
0.0
 11
4.711700920390191
 21
4.096393649798344
 31
0.0
  0
SOLID
  5
5604
330
2D9C
100
AcDbEntity
  8
DIM
 62
     0
100
AcDbTrace
 10
3.220200920390191
 20
4.156393649798344
 30
0.0
 11
3.220200920390191
 21
4.036393649798345
 31
0.0
 12
2.860200920390191
 22
4.096393649798344
 32
0.0
 13
2.860200920390191
 23
4.096393649798344
 33
0.0
  0
SOLID
  5
5605
330
2D9C
100
AcDbEntity
  8
DIM
 62
     0
100
AcDbTrace
 10
5.093200920390191
 20
4.156393649798344
 30
0.0
 11
5.093200920390191
 21
4.036393649798345
 31
0.0
 12
5.453200920390191
 22
4.096393649798344
 32
0.0
 13
5.453200920390191
 23
4.096393649798344
 33
0.0
  0
MTEXT
  5
5606
330
2D9C
100
AcDbEntity
  8
DIM
 62
     0
100
AcDbMText
 10
4.156700920390191
 20
4.096393649798344
 30
0.0
 40
0.25
 41
0.0
 71
     5
 72
     1
  1
\A1;2.593
 73
     1
 44
1.0
  0
POINT
  5
5607
330
2D9C
100
AcDbEntity
  8
Defpoints
 62
     0
100
AcDbPoint
 10
2.860200920390191
 20
3.432063346260194
 30
0.0
  0
POINT
  5
5608
330
2D9C
100
AcDbEntity
  8
Defpoints
 62
     0
100
AcDbPoint
 10
5.453200920390191
 20
3.432063346260197
 30
0.0
  0
POINT
  5
5609
330
2D9C
100
AcDbEntity
  8
Defpoints
 62
     0
100
AcDbPoint
 10
5.453200920390191
 20
4.096393649798344
 30
0.0
  0
ENDBLK
  5
2DA8
330
2D9C
100
AcDbEntity
  8
0
100
AcDbBlockEnd
  0
BLOCK
  5
2DB6
330
2DAB
100
AcDbEntity
  8
0
100
AcDbBlockBegin
  2
*D29
 70
     1
 10
0.0
 20
0.0
 30
0.0
  3
*D29
  1

  0
LINE
  5
55C4
330
2DAB
100
AcDbEntity
  8
DIM
 62
     0
370
    -2
100
AcDbLine
 10
5.504437464422898
 20
10.5353804533348
 30
0.0
 11
4.403156628000981
 21
10.5353804533348
 31
0.0
  0
LINE
  5
55C5
330
2DAB
100
AcDbEntity
  8
DIM
 62
     0
370
    -2
100
AcDbLine
 10
4.902437464422896
 20
2.946466289346691
 30
0.0
 11
4.403156628000979
 21
2.946466289346691
 31
0.0
  0
LINE
  5
55C6
330
2DAB
100
AcDbEntity
  8
DIM
 62
     0
370
    -2
100
AcDbLine
 10
4.589156628000981
 20
10.1753804533348
 30
0.0
 11
4.58915662800098
 21
7.045923371340748
 31
0.0
  0
LINE
  5
55C7
330
2DAB
100
AcDbEntity
  8
DIM
 62
     0
370
    -2
100
AcDbLine
 10
4.589156628000979
 20
3.306466289346691
 30
0.0
 11
4.58915662800098
 21
6.435923371340749
 31
0.0
  0
SOLID
  5
55C8
330
2DAB
100
AcDbEntity
  8
DIM
 62
     0
100
AcDbTrace
 10
4.529156628000981
 20
10.1753804533348
 30
0.0
 11
4.64915662800098
 21
10.1753804533348
 31
0.0
 12
4.589156628000981
 22
10.5353804533348
 32
0.0
 13
4.589156628000981
 23
10.5353804533348
 33
0.0
  0
SOLID
  5
55C9
330
2DAB
100
AcDbEntity
  8
DIM
 62
     0
100
AcDbTrace
 10
4.529156628000979
 20
3.306466289346691
 30
0.0
 11
4.649156628000978
 21
3.306466289346691
 31
0.0
 12
4.589156628000979
 22
2.946466289346691
 32
0.0
 13
4.589156628000979
 23
2.946466289346691
 33
0.0
  0
MTEXT
  5
55CA
330
2DAB
100
AcDbEntity
  8
DIM
 62
     0
100
AcDbMText
 10
4.589156628000978
 20
6.740923371340749
 30
0.0
 40
0.25
 41
0.0
 71
     5
 72
     1
  1
\A1;7.589
 73
     1
 44
1.0
  0
POINT
  5
55CB
330
2DAB
100
AcDbEntity
  8
Defpoints
 62
     0
100
AcDbPoint
 10
5.630437464422898
 20
10.5353804533348
 30
0.0
  0
POINT
  5
55CC
330
2DAB
100
AcDbEntity
  8
Defpoints
 62
     0
100
AcDbPoint
 10
5.028437464422896
 20
2.946466289346691
 30
0.0
  0
POINT
  5
55CD
330
2DAB
100
AcDbEntity
  8
Defpoints
 62
     0
100
AcDbPoint
 10
4.589156628000979
 20
2.946466289346691
 30
0.0
  0
ENDBLK
  5
2DB7
330
2DAB
100
AcDbEntity
  8
0
100
AcDbBlockEnd
  0
BLOCK
  5
2EA1
330
2E96
100
AcDbEntity
  8
0
100
AcDbBlockBegin
  2
*D30
 70
     1
 10
0.0
 20
0.0
 30
0.0
  3
*D30
  1

  0
LINE
  5
561E
330
2E96
100
AcDbEntity
  8
DIM
 62
     0
370
    -2
100
AcDbLine
 10
2.983700920390187
 20
7.119799890292892
 30
0.0
 11
0.6956448312917012
 21
7.119799890292893
 31
0.0
  0
LINE
  5
561F
330
2E96
100
AcDbEntity
  8
DIM
 62
     0
370
    -2
100
AcDbLine
 10
2.983700920390187
 20
5.34779989029289
 30
0.0
 11
0.6956448312917009
 21
5.347799890292891
 31
0.0
  0
LINE
  5
5620
330
2E96
100
AcDbEntity
  8
DIM
 62
     0
370
    -2
100
AcDbLine
 10
0.8816448312917012
 20
6.759799890292892
 30
0.0
 11
0.881644831291701
 21
6.538799890292891
 31
0.0
  0
LINE
  5
5621
330
2E96
100
AcDbEntity
  8
DIM
 62
     0
370
    -2
100
AcDbLine
 10
0.8816448312917009
 20
5.707799890292891
 30
0.0
 11
0.881644831291701
 21
5.928799890292892
 31
0.0
  0
SOLID
  5
5622
330
2E96
100
AcDbEntity
  8
DIM
 62
     0
100
AcDbTrace
 10
0.8216448312917012
 20
6.759799890292892
 30
0.0
 11
0.9416448312917012
 21
6.759799890292892
 31
0.0
 12
0.8816448312917012
 22
7.119799890292893
 32
0.0
 13
0.8816448312917012
 23
7.119799890292893
 33
0.0
  0
SOLID
  5
5623
330
2E96
100
AcDbEntity
  8
DIM
 62
     0
100
AcDbTrace
 10
0.8216448312917009
 20
5.707799890292891
 30
0.0
 11
0.9416448312917008
 21
5.707799890292891
 31
0.0
 12
0.8816448312917009
 22
5.347799890292891
 32
0.0
 13
0.8816448312917009
 23
5.347799890292891
 33
0.0
  0
MTEXT
  5
5624
330
2E96
100
AcDbEntity
  8
DIM
 62
     0
100
AcDbMText
 10
0.8816448312917
 20
6.233799890292892
 30
0.0
 40
0.25
 41
0.0
 71
     5
 72
     1
  1
\A1;1.772
 73
     1
 44
1.0
  0
POINT
  5
5625
330
2E96
100
AcDbEntity
  8
Defpoints
 62
     0
100
AcDbPoint
 10
3.109700920390187
 20
7.119799890292892
 30
0.0
  0
POINT
  5
5626
330
2E96
100
AcDbEntity
  8
Defpoints
 62
     0
100
AcDbPoint
 10
3.109700920390187
 20
5.34779989029289
 30
0.0
  0
POINT
  5
5627
330
2E96
100
AcDbEntity
  8
Defpoints
 62
     0
100
AcDbPoint
 10
0.8816448312917009
 20
5.347799890292891
 30
0.0
  0
ENDBLK
  5
2EA2
330
2E96
100
AcDbEntity
  8
0
100
AcDbBlockEnd
  0
BLOCK
  5
2EAF
330
2EA4
100
AcDbEntity
  8
0
100
AcDbBlockBegin
  2
*D31
 70
     1
 10
0.0
 20
0.0
 30
0.0
  3
*D31
  1

  0
LINE
  5
55BA
330
2EA4
100
AcDbEntity
  8
DIM
 62
     0
370
    -2
100
AcDbLine
 10
2.983700920390187
 20
5.34779989029289
 30
0.0
 11
0.6956448312917009
 21
5.347799890292891
 31
0.0
  0
LINE
  5
55BB
330
2EA4
100
AcDbEntity
  8
DIM
 62
     0
370
    -2
100
AcDbLine
 10
2.983700920390187
 20
3.547799890292893
 30
0.0
 11
0.6956448312917005
 21
3.547799890292893
 31
0.0
  0
LINE
  5
55BC
330
2EA4
100
AcDbEntity
  8
DIM
 62
     0
370
    -2
100
AcDbLine
 10
0.8816448312917007
 20
4.98779989029289
 30
0.0
 11
0.8816448312917007
 21
4.752799890292892
 31
0.0
  0
LINE
  5
55BD
330
2EA4
100
AcDbEntity
  8
DIM
 62
     0
370
    -2
100
AcDbLine
 10
0.8816448312917005
 20
3.907799890292893
 30
0.0
 11
0.8816448312917005
 21
4.142799890292892
 31
0.0
  0
SOLID
  5
55BE
330
2EA4
100
AcDbEntity
  8
DIM
 62
     0
100
AcDbTrace
 10
0.8216448312917009
 20
4.98779989029289
 30
0.0
 11
0.9416448312917006
 21
4.98779989029289
 31
0.0
 12
0.8816448312917009
 22
5.347799890292891
 32
0.0
 13
0.8816448312917009
 23
5.347799890292891
 33
0.0
  0
SOLID
  5
55BF
330
2EA4
100
AcDbEntity
  8
DIM
 62
     0
100
AcDbTrace
 10
0.8216448312917005
 20
3.907799890292893
 30
0.0
 11
0.9416448312917005
 21
3.907799890292893
 31
0.0
 12
0.8816448312917003
 22
3.547799890292893
 32
0.0
 13
0.8816448312917003
 23
3.547799890292893
 33
0.0
  0
MTEXT
  5
55C0
330
2EA4
100
AcDbEntity
  8
DIM
 62
     0
100
AcDbMText
 10
0.8816448312916998
 20
4.447799890292892
 30
0.0
 40
0.25
 41
0.0
 71
     5
 72
     1
  1
\A1;1.800
 73
     1
 44
1.0
  0
POINT
  5
55C1
330
2EA4
100
AcDbEntity
  8
Defpoints
 62
     0
100
AcDbPoint
 10
3.109700920390187
 20
5.34779989029289
 30
0.0
  0
POINT
  5
55C2
330
2EA4
100
AcDbEntity
  8
Defpoints
 62
     0
100
AcDbPoint
 10
3.109700920390187
 20
3.547799890292893
 30
0.0
  0
POINT
  5
55C3
330
2EA4
100
AcDbEntity
  8
Defpoints
 62
     0
100
AcDbPoint
 10
0.8816448312917003
 20
3.547799890292893
 30
0.0
  0
ENDBLK
  5
2EB0
330
2EA4
100
AcDbEntity
  8
0
100
AcDbBlockEnd
  0
BLOCK
  5
2EBD
330
2EB2
100
AcDbEntity
  8
0
100
AcDbBlockBegin
  2
*D32
 70
     1
 10
0.0
 20
0.0
 30
0.0
  3
*D32
  1

  0
LINE
  5
55D8
330
2EB2
100
AcDbEntity
  8
DIM
 62
     0
370
    -2
100
AcDbLine
 10
2.983700920390187
 20
3.547799890292893
 30
0.0
 11
0.7006718583187279
 21
3.547799890292893
 31
0.0
  0
LINE
  5
55D9
330
2EB2
100
AcDbEntity
  8
DIM
 62
     0
370
    -2
100
AcDbLine
 10
4.030700920390183
 20
2.652799890292895
 30
0.0
 11
0.7006718583187276
 21
2.652799890292896
 31
0.0
  0
LINE
  5
55DA
330
2EB2
100
AcDbEntity
  8
DIM
 62
     0
370
    -2
100
AcDbLine
 10
0.8866718583187276
 20
3.907799890292893
 30
0.0
 11
0.8866718583187278
 21
4.267799890292893
 31
0.0
  0
LINE
  5
55DB
330
2EB2
100
AcDbEntity
  8
DIM
 62
     0
370
    -2
100
AcDbLine
 10
0.8866718583187275
 20
2.292799890292896
 30
0.0
 11
0.8866718583187273
 21
1.932799890292896
 31
0.0
  0
SOLID
  5
55DC
330
2EB2
100
AcDbEntity
  8
DIM
 62
     0
100
AcDbTrace
 10
0.8266718583187277
 20
3.907799890292893
 30
0.0
 11
0.9466718583187276
 21
3.907799890292893
 31
0.0
 12
0.8866718583187276
 22
3.547799890292893
 32
0.0
 13
0.8866718583187276
 23
3.547799890292893
 33
0.0
  0
SOLID
  5
55DD
330
2EB2
100
AcDbEntity
  8
DIM
 62
     0
100
AcDbTrace
 10
0.8266718583187275
 20
2.292799890292896
 30
0.0
 11
0.9466718583187272
 21
2.292799890292896
 31
0.0
 12
0.8866718583187275
 22
2.652799890292896
 32
0.0
 13
0.8866718583187275
 23
2.652799890292896
 33
0.0
  0
MTEXT
  5
55DE
330
2EB2
100
AcDbEntity
  8
DIM
 62
     0
100
AcDbMText
 10
0.8866718583187271
 20
3.100299890292895
 30
0.0
 40
0.25
 41
0.0
 71
     5
 72
     1
  1
\A1;0.895
 73
     1
 44
1.0
  0
POINT
  5
55DF
330
2EB2
100
AcDbEntity
  8
Defpoints
 62
     0
100
AcDbPoint
 10
3.109700920390187
 20
3.547799890292893
 30
0.0
  0
POINT
  5
55E0
330
2EB2
100
AcDbEntity
  8
Defpoints
 62
     0
100
AcDbPoint
 10
4.156700920390183
 20
2.652799890292895
 30
0.0
  0
POINT
  5
55E1
330
2EB2
100
AcDbEntity
  8
Defpoints
 62
     0
100
AcDbPoint
 10
0.8866718583187275
 20
2.652799890292896
 30
0.0
  0
ENDBLK
  5
2EBE
330
2EB2
100
AcDbEntity
  8
0
100
AcDbBlockEnd
  0
BLOCK
  5
2EE9
330
2EDE
100
AcDbEntity
  8
0
100
AcDbBlockBegin
  2
*D33
 70
     1
 10
0.0
 20
0.0
 30
0.0
  3
*D33
  1

  0
LINE
  5
5632
330
2EDE
100
AcDbEntity
  8
DIM
 62
     0
370
    -2
100
AcDbLine
 10
3.109700920390187
 20
5.47379989029289
 30
0.0
 11
3.109700920390187
 21
6.000861404032384
 31
0.0
  0
LINE
  5
5633
330
2EDE
100
AcDbEntity
  8
DIM
 62
     0
370
    -2
100
AcDbLine
 10
5.203700920390188
 20
5.47379989029289
 30
0.0
 11
5.203700920390188
 21
6.000861404032384
 31
0.0
  0
LINE
  5
5634
330
2EDE
100
AcDbEntity
  8
DIM
 62
     0
370
    -2
100
AcDbLine
 10
3.469700920390187
 20
5.814861404032384
 30
0.0
 11
3.617325920390188
 21
5.814861404032384
 31
0.0
  0
LINE
  5
5635
330
2EDE
100
AcDbEntity
  8
DIM
 62
     0
370
    -2
100
AcDbLine
 10
4.843700920390188
 20
5.814861404032384
 30
0.0
 11
4.696075920390187
 21
5.814861404032384
 31
0.0
  0
SOLID
  5
5636
330
2EDE
100
AcDbEntity
  8
DIM
 62
     0
100
AcDbTrace
 10
3.469700920390187
 20
5.874861404032384
 30
0.0
 11
3.469700920390187
 21
5.754861404032385
 31
0.0
 12
3.109700920390187
 22
5.814861404032384
 32
0.0
 13
3.109700920390187
 23
5.814861404032384
 33
0.0
  0
SOLID
  5
5637
330
2EDE
100
AcDbEntity
  8
DIM
 62
     0
100
AcDbTrace
 10
4.843700920390188
 20
5.874861404032384
 30
0.0
 11
4.843700920390188
 21
5.754861404032385
 31
0.0
 12
5.203700920390188
 22
5.814861404032384
 32
0.0
 13
5.203700920390188
 23
5.814861404032384
 33
0.0
  0
MTEXT
  5
5638
330
2EDE
100
AcDbEntity
  8
DIM
 62
     0
100
AcDbMText
 10
4.156700920390187
 20
5.814861404032384
 30
0.0
 40
0.25
 41
0.0
 71
     5
 72
     1
  1
\A1;2.094
 73
     1
 44
1.0
  0
POINT
  5
5639
330
2EDE
100
AcDbEntity
  8
Defpoints
 62
     0
100
AcDbPoint
 10
3.109700920390187
 20
5.34779989029289
 30
0.0
  0
POINT
  5
563A
330
2EDE
100
AcDbEntity
  8
Defpoints
 62
     0
100
AcDbPoint
 10
5.203700920390188
 20
5.34779989029289
 30
0.0
  0
POINT
  5
563B
330
2EDE
100
AcDbEntity
  8
Defpoints
 62
     0
100
AcDbPoint
 10
5.203700920390188
 20
5.814861404032384
 30
0.0
  0
ENDBLK
  5
2EEA
330
2EDE
100
AcDbEntity
  8
0
100
AcDbBlockEnd
  0
BLOCK
  5
2FD3
330
2FC8
100
AcDbEntity
  8
0
100
AcDbBlockBegin
  2
*D34
 70
     1
 10
0.0
 20
0.0
 30
0.0
  3
*D34
  1

  0
LINE
  5
5650
330
2FC8
100
AcDbEntity
  8
DIM
 62
     0
370
    -2
100
AcDbLine
 10
11.56414014604521
 20
3.830596483662168
 30
0.0
 11
11.56414014604521
 21
4.264427889341632
 31
0.0
  0
LINE
  5
5651
330
2FC8
100
AcDbEntity
  8
DIM
 62
     0
370
    -2
100
AcDbLine
 10
10.25014014604521
 20
3.830596483662167
 30
0.0
 11
10.25014014604521
 21
4.264427889341632
 31
0.0
  0
LINE
  5
5652
330
2FC8
100
AcDbEntity
  8
DIM
 62
     0
370
    -2
100
AcDbLine
 10
11.92414014604521
 20
4.078427889341632
 30
0.0
 11
12.28414014604521
 21
4.078427889341632
 31
0.0
  0
LINE
  5
5653
330
2FC8
100
AcDbEntity
  8
DIM
 62
     0
370
    -2
100
AcDbLine
 10
9.890140146045217
 20
4.078427889341632
 30
0.0
 11
9.530140146045216
 21
4.078427889341632
 31
0.0
  0
SOLID
  5
5654
330
2FC8
100
AcDbEntity
  8
DIM
 62
     0
100
AcDbTrace
 10
11.92414014604521
 20
4.138427889341632
 30
0.0
 11
11.92414014604521
 21
4.018427889341633
 31
0.0
 12
11.56414014604521
 22
4.078427889341632
 32
0.0
 13
11.56414014604521
 23
4.078427889341632
 33
0.0
  0
SOLID
  5
5655
330
2FC8
100
AcDbEntity
  8
DIM
 62
     0
100
AcDbTrace
 10
9.890140146045217
 20
4.138427889341632
 30
0.0
 11
9.890140146045217
 21
4.018427889341633
 31
0.0
 12
10.25014014604521
 22
4.078427889341632
 32
0.0
 13
10.25014014604521
 23
4.078427889341632
 33
0.0
  0
MTEXT
  5
5656
330
2FC8
100
AcDbEntity
  8
DIM
 62
     0
100
AcDbMText
 10
9.037640146045216
 20
4.078427889341632
 30
0.0
 40
0.25
 41
0.0
 71
     5
 72
     1
  1
\A1;1.314
 73
     1
 44
1.0
  0
POINT
  5
5657
330
2FC8
100
AcDbEntity
  8
Defpoints
 62
     0
100
AcDbPoint
 10
11.56414014604521
 20
3.704596483662168
 30
0.0
  0
POINT
  5
5658
330
2FC8
100
AcDbEntity
  8
Defpoints
 62
     0
100
AcDbPoint
 10
10.25014014604521
 20
3.704596483662167
 30
0.0
  0
POINT
  5
5659
330
2FC8
100
AcDbEntity
  8
Defpoints
 62
     0
100
AcDbPoint
 10
10.25014014604521
 20
4.078427889341632
 30
0.0
  0
ENDBLK
  5
2FD4
330
2FC8
100
AcDbEntity
  8
0
100
AcDbBlockEnd
  0
BLOCK
  5
2FE1
330
2FD6
100
AcDbEntity
  8
0
100
AcDbBlockBegin
  2
*D35
 70
     1
 10
0.0
 20
0.0
 30
0.0
  3
*D35
  1

  0
LINE
  5
5854
330
2FD6
100
AcDbEntity
  8
DIM
 62
     0
370
    -2
100
AcDbLine
 10
11.37882507755206
 20
5.141306739607956
 30
0.0
 11
11.37882507755206
 21
4.58972393177877
 31
0.0
  0
LINE
  5
5855
330
2FD6
100
AcDbEntity
  8
DIM
 62
     0
370
    -2
100
AcDbLine
 10
10.44014014604521
 20
5.096799890292888
 30
0.0
 11
10.44014014604521
 21
4.58972393177877
 31
0.0
  0
LINE
  5
5856
330
2FD6
100
AcDbEntity
  8
DIM
 62
     0
370
    -2
100
AcDbLine
 10
11.73882507755206
 20
4.77572393177877
 30
0.0
 11
12.09882507755206
 21
4.77572393177877
 31
0.0
  0
LINE
  5
5857
330
2FD6
100
AcDbEntity
  8
DIM
 62
     0
370
    -2
100
AcDbLine
 10
10.08014014604521
 20
4.77572393177877
 30
0.0
 11
9.720140146045215
 21
4.77572393177877
 31
0.0
  0
SOLID
  5
5858
330
2FD6
100
AcDbEntity
  8
DIM
 62
     0
100
AcDbTrace
 10
11.73882507755206
 20
4.83572393177877
 30
0.0
 11
11.73882507755206
 21
4.715723931778771
 31
0.0
 12
11.37882507755206
 22
4.77572393177877
 32
0.0
 13
11.37882507755206
 23
4.77572393177877
 33
0.0
  0
SOLID
  5
5859
330
2FD6
100
AcDbEntity
  8
DIM
 62
     0
100
AcDbTrace
 10
10.08014014604521
 20
4.83572393177877
 30
0.0
 11
10.08014014604521
 21
4.715723931778771
 31
0.0
 12
10.44014014604521
 22
4.77572393177877
 32
0.0
 13
10.44014014604521
 23
4.77572393177877
 33
0.0
  0
MTEXT
  5
585A
330
2FD6
100
AcDbEntity
  8
DIM
 62
     0
100
AcDbMText
 10
9.180765146045215
 20
4.77572393177877
 30
0.0
 40
0.25
 41
0.0
 71
     5
 72
     1
  1
\A1;0.939
 73
     1
 44
1.0
  0
POINT
  5
585B
330
2FD6
100
AcDbEntity
  8
Defpoints
 62
     0
100
AcDbPoint
 10
11.37882507755206
 20
5.267306739607956
 30
0.0
  0
POINT
  5
585C
330
2FD6
100
AcDbEntity
  8
Defpoints
 62
     0
100
AcDbPoint
 10
10.44014014604521
 20
5.222799890292888
 30
0.0
  0
POINT
  5
585D
330
2FD6
100
AcDbEntity
  8
Defpoints
 62
     0
100
AcDbPoint
 10
10.44014014604521
 20
4.77572393177877
 30
0.0
  0
ENDBLK
  5
2FE2
330
2FD6
100
AcDbEntity
  8
0
100
AcDbBlockEnd
  0
BLOCK
  5
2FEF
330
2FE4
100
AcDbEntity
  8
0
100
AcDbBlockBegin
  2
*D36
 70
     1
 10
0.0
 20
0.0
 30
0.0
  3
*D36
  1

  0
LINE
  5
5664
330
2FE4
100
AcDbEntity
  8
DIM
 62
     0
370
    -2
100
AcDbLine
 10
10.44014014604521
 20
5.598799890292892
 30
0.0
 11
10.44014014604521
 21
5.98587745821193
 31
0.0
  0
LINE
  5
5665
330
2FE4
100
AcDbEntity
  8
DIM
 62
     0
370
    -2
100
AcDbLine
 10
10.12014014604521
 20
5.598799890292892
 30
0.0
 11
10.12014014604521
 21
5.98587745821193
 31
0.0
  0
LINE
  5
5666
330
2FE4
100
AcDbEntity
  8
DIM
 62
     0
370
    -2
100
AcDbLine
 10
10.80014014604521
 20
5.799877458211931
 30
0.0
 11
11.16014014604521
 21
5.799877458211931
 31
0.0
  0
LINE
  5
5667
330
2FE4
100
AcDbEntity
  8
DIM
 62
     0
370
    -2
100
AcDbLine
 10
9.760140146045218
 20
5.799877458211931
 30
0.0
 11
9.400140146045217
 21
5.799877458211931
 31
0.0
  0
SOLID
  5
5668
330
2FE4
100
AcDbEntity
  8
DIM
 62
     0
100
AcDbTrace
 10
10.80014014604521
 20
5.85987745821193
 30
0.0
 11
10.80014014604521
 21
5.739877458211931
 31
0.0
 12
10.44014014604521
 22
5.799877458211931
 32
0.0
 13
10.44014014604521
 23
5.799877458211931
 33
0.0
  0
SOLID
  5
5669
330
2FE4
100
AcDbEntity
  8
DIM
 62
     0
100
AcDbTrace
 10
9.760140146045218
 20
5.85987745821193
 30
0.0
 11
9.760140146045218
 21
5.739877458211931
 31
0.0
 12
10.12014014604521
 22
5.799877458211931
 32
0.0
 13
10.12014014604521
 23
5.799877458211931
 33
0.0
  0
MTEXT
  5
566A
330
2FE4
100
AcDbEntity
  8
DIM
 62
     0
100
AcDbMText
 10
8.876390146045217
 20
5.799877458211931
 30
0.0
 40
0.25
 41
0.0
 71
     5
 72
     1
  1
\A1;0.320
 73
     1
 44
1.0
  0
POINT
  5
566B
330
2FE4
100
AcDbEntity
  8
Defpoints
 62
     0
100
AcDbPoint
 10
10.44014014604521
 20
5.472799890292892
 30
0.0
  0
POINT
  5
566C
330
2FE4
100
AcDbEntity
  8
Defpoints
 62
     0
100
AcDbPoint
 10
10.12014014604521
 20
5.472799890292892
 30
0.0
  0
POINT
  5
566D
330
2FE4
100
AcDbEntity
  8
Defpoints
 62
     0
100
AcDbPoint
 10
10.12014014604521
 20
5.799877458211931
 30
0.0
  0
ENDBLK
  5
2FF0
330
2FE4
100
AcDbEntity
  8
0
100
AcDbBlockEnd
  0
BLOCK
  5
2FFD
330
2FF2
100
AcDbEntity
  8
0
100
AcDbBlockBegin
  2
*D37
 70
     1
 10
0.0
 20
0.0
 30
0.0
  3
*D37
  1

  0
LINE
  5
585E
330
2FF2
100
AcDbEntity
  8
DIM
 62
     0
370
    -2
100
AcDbLine
 10
11.37882507755206
 20
6.913306739607956
 30
0.0
 11
11.37882507755206
 21
6.530004328665524
 31
0.0
  0
LINE
  5
585F
330
2FF2
100
AcDbEntity
  8
DIM
 62
     0
370
    -2
100
AcDbLine
 10
11.69882507755206
 20
6.913306739607956
 30
0.0
 11
11.69882507755206
 21
6.530004328665524
 31
0.0
  0
LINE
  5
5860
330
2FF2
100
AcDbEntity
  8
DIM
 62
     0
370
    -2
100
AcDbLine
 10
11.01882507755206
 20
6.716004328665524
 30
0.0
 11
10.65882507755206
 21
6.716004328665524
 31
0.0
  0
LINE
  5
5861
330
2FF2
100
AcDbEntity
  8
DIM
 62
     0
370
    -2
100
AcDbLine
 10
12.05882507755206
 20
6.716004328665524
 30
0.0
 11
12.41882507755206
 21
6.716004328665524
 31
0.0
  0
SOLID
  5
5862
330
2FF2
100
AcDbEntity
  8
DIM
 62
     0
100
AcDbTrace
 10
11.01882507755206
 20
6.776004328665524
 30
0.0
 11
11.01882507755206
 21
6.656004328665525
 31
0.0
 12
11.37882507755206
 22
6.716004328665524
 32
0.0
 13
11.37882507755206
 23
6.716004328665524
 33
0.0
  0
SOLID
  5
5863
330
2FF2
100
AcDbEntity
  8
DIM
 62
     0
100
AcDbTrace
 10
12.05882507755206
 20
6.776004328665524
 30
0.0
 11
12.05882507755206
 21
6.656004328665525
 31
0.0
 12
11.69882507755206
 22
6.716004328665524
 32
0.0
 13
11.69882507755206
 23
6.716004328665524
 33
0.0
  0
MTEXT
  5
5864
330
2FF2
100
AcDbEntity
  8
DIM
 62
     0
100
AcDbMText
 10
12.94257507755206
 20
6.716004328665524
 30
0.0
 40
0.25
 41
0.0
 71
     5
 72
     1
  1
\A1;0.320
 73
     1
 44
1.0
  0
POINT
  5
5865
330
2FF2
100
AcDbEntity
  8
Defpoints
 62
     0
100
AcDbPoint
 10
11.37882507755206
 20
7.039306739607956
 30
0.0
  0
POINT
  5
5866
330
2FF2
100
AcDbEntity
  8
Defpoints
 62
     0
100
AcDbPoint
 10
11.69882507755206
 20
7.039306739607956
 30
0.0
  0
POINT
  5
5867
330
2FF2
100
AcDbEntity
  8
Defpoints
 62
     0
100
AcDbPoint
 10
11.69882507755206
 20
6.716004328665524
 30
0.0
  0
ENDBLK
  5
2FFE
330
2FF2
100
AcDbEntity
  8
0
100
AcDbBlockEnd
  0
BLOCK
  5
3042
330
3037
100
AcDbEntity
  8
0
100
AcDbBlockBegin
  2
*D38
 70
     1
 10
0.0
 20
0.0
 30
0.0
  3
*D38
  1

  0
LINE
  5
5836
330
3037
100
AcDbEntity
  8
DIM
 62
     0
370
    -2
100
AcDbLine
 10
16.30952912891057
 20
10.14179989029288
 30
0.0
 11
16.30952912891057
 21
11.64846413083937
 31
0.0
  0
LINE
  5
5837
330
3037
100
AcDbEntity
  8
DIM
 62
     0
370
    -2
100
AcDbLine
 10
19.06552912891057
 20
10.14179989029288
 30
0.0
 11
19.06552912891057
 21
11.64846413083937
 31
0.0
  0
LINE
  5
5838
330
3037
100
AcDbEntity
  8
DIM
 62
     0
370
    -2
100
AcDbLine
 10
16.66952912891057
 20
11.46246413083938
 30
0.0
 11
17.13252912891057
 21
11.46246413083938
 31
0.0
  0
LINE
  5
5839
330
3037
100
AcDbEntity
  8
DIM
 62
     0
370
    -2
100
AcDbLine
 10
18.70552912891057
 20
11.46246413083938
 30
0.0
 11
18.24252912891057
 21
11.46246413083938
 31
0.0
  0
SOLID
  5
583A
330
3037
100
AcDbEntity
  8
DIM
 62
     0
100
AcDbTrace
 10
16.66952912891057
 20
11.52246413083938
 30
0.0
 11
16.66952912891057
 21
11.40246413083937
 31
0.0
 12
16.30952912891057
 22
11.46246413083938
 32
0.0
 13
16.30952912891057
 23
11.46246413083938
 33
0.0
  0
SOLID
  5
583B
330
3037
100
AcDbEntity
  8
DIM
 62
     0
100
AcDbTrace
 10
18.70552912891057
 20
11.52246413083938
 30
0.0
 11
18.70552912891057
 21
11.40246413083937
 31
0.0
 12
19.06552912891057
 22
11.46246413083938
 32
0.0
 13
19.06552912891057
 23
11.46246413083938
 33
0.0
  0
MTEXT
  5
583C
330
3037
100
AcDbEntity
  8
DIM
 62
     0
100
AcDbMText
 10
17.68752912891057
 20
11.46246413083938
 30
0.0
 40
0.25
 41
0.0
 71
     5
 72
     1
  1
\A1;2.756
 73
     1
 44
1.0
  0
POINT
  5
583D
330
3037
100
AcDbEntity
  8
Defpoints
 62
     0
100
AcDbPoint
 10
16.30952912891057
 20
10.01579989029288
 30
0.0
  0
POINT
  5
583E
330
3037
100
AcDbEntity
  8
Defpoints
 62
     0
100
AcDbPoint
 10
19.06552912891057
 20
10.01579989029288
 30
0.0
  0
POINT
  5
583F
330
3037
100
AcDbEntity
  8
Defpoints
 62
     0
100
AcDbPoint
 10
19.06552912891057
 20
11.46246413083938
 30
0.0
  0
ENDBLK
  5
3043
330
3037
100
AcDbEntity
  8
0
100
AcDbBlockEnd
  0
BLOCK
  5
3050
330
3045
100
AcDbEntity
  8
0
100
AcDbBlockBegin
  2
*D39
 70
     1
 10
0.0
 20
0.0
 30
0.0
  3
*D39
  1

  0
LINE
  5
56A0
330
3045
100
AcDbEntity
  8
DIM
 62
     0
370
    -2
100
AcDbLine
 10
16.15379258487787
 20
10.6613804533348
 30
0.0
 11
16.15379258487787
 21
12.20868412710459
 31
0.0
  0
LINE
  5
56A1
330
3045
100
AcDbEntity
  8
DIM
 62
     0
370
    -2
100
AcDbLine
 10
19.22126567294329
 20
10.66138045333474
 30
0.0
 11
19.22126567294329
 21
12.20868412710459
 31
0.0
  0
LINE
  5
56A2
330
3045
100
AcDbEntity
  8
DIM
 62
     0
370
    -2
100
AcDbLine
 10
16.51379258487787
 20
12.02268412710459
 30
0.0
 11
17.14815412891057
 21
12.02268412710459
 31
0.0
  0
LINE
  5
56A3
330
3045
100
AcDbEntity
  8
DIM
 62
     0
370
    -2
100
AcDbLine
 10
18.86126567294328
 20
12.02268412710459
 30
0.0
 11
18.22690412891057
 21
12.02268412710459
 31
0.0
  0
SOLID
  5
56A4
330
3045
100
AcDbEntity
  8
DIM
 62
     0
100
AcDbTrace
 10
16.51379258487787
 20
12.08268412710459
 30
0.0
 11
16.51379258487787
 21
11.96268412710459
 31
0.0
 12
16.15379258487787
 22
12.02268412710459
 32
0.0
 13
16.15379258487787
 23
12.02268412710459
 33
0.0
  0
SOLID
  5
56A5
330
3045
100
AcDbEntity
  8
DIM
 62
     0
100
AcDbTrace
 10
18.86126567294328
 20
12.08268412710459
 30
0.0
 11
18.86126567294328
 21
11.96268412710459
 31
0.0
 12
19.22126567294329
 22
12.02268412710459
 32
0.0
 13
19.22126567294329
 23
12.02268412710459
 33
0.0
  0
MTEXT
  5
56A6
330
3045
100
AcDbEntity
  8
DIM
 62
     0
100
AcDbMText
 10
17.68752912891057
 20
12.02268412710459
 30
0.0
 40
0.25
 41
0.0
 71
     5
 72
     1
  1
\A1;3.067
 73
     1
 44
1.0
  0
POINT
  5
56A7
330
3045
100
AcDbEntity
  8
Defpoints
 62
     0
100
AcDbPoint
 10
16.15379258487787
 20
10.5353804533348
 30
0.0
  0
POINT
  5
56A8
330
3045
100
AcDbEntity
  8
Defpoints
 62
     0
100
AcDbPoint
 10
19.22126567294329
 20
10.53538045333474
 30
0.0
  0
POINT
  5
56A9
330
3045
100
AcDbEntity
  8
Defpoints
 62
     0
100
AcDbPoint
 10
19.22126567294329
 20
12.02268412710459
 30
0.0
  0
ENDBLK
  5
3051
330
3045
100
AcDbEntity
  8
0
100
AcDbBlockEnd
  0
BLOCK
  5
3072
330
3067
100
AcDbEntity
  8
0
100
AcDbBlockBegin
  2
*D40
 70
     1
 10
0.0
 20
0.0
 30
0.0
  3
*D40
  1

  0
LINE
  5
582C
330
3067
100
AcDbEntity
  8
DIM
 62
     0
370
    -2
100
AcDbLine
 10
15.80725397087597
 20
10.0215364343256
 30
0.0
 11
15.80725397087597
 21
9.266369792057687
 31
0.0
  0
LINE
  5
582D
330
3067
100
AcDbEntity
  8
DIM
 62
     0
370
    -2
100
AcDbLine
 10
19.56780428694517
 20
10.0215364343256
 30
0.0
 11
19.56780428694517
 21
9.266369792057687
 31
0.0
  0
LINE
  5
582E
330
3067
100
AcDbEntity
  8
DIM
 62
     0
370
    -2
100
AcDbLine
 10
16.16725397087598
 20
9.452369792057687
 30
0.0
 11
17.16377912891057
 21
9.452369792057687
 31
0.0
  0
LINE
  5
582F
330
3067
100
AcDbEntity
  8
DIM
 62
     0
370
    -2
100
AcDbLine
 10
19.20780428694517
 20
9.452369792057687
 30
0.0
 11
18.21127912891057
 21
9.452369792057687
 31
0.0
  0
SOLID
  5
5830
330
3067
100
AcDbEntity
  8
DIM
 62
     0
100
AcDbTrace
 10
16.16725397087598
 20
9.512369792057688
 30
0.0
 11
16.16725397087598
 21
9.392369792057687
 31
0.0
 12
15.80725397087597
 22
9.452369792057687
 32
0.0
 13
15.80725397087597
 23
9.452369792057687
 33
0.0
  0
SOLID
  5
5831
330
3067
100
AcDbEntity
  8
DIM
 62
     0
100
AcDbTrace
 10
19.20780428694517
 20
9.512369792057688
 30
0.0
 11
19.20780428694517
 21
9.392369792057687
 31
0.0
 12
19.56780428694517
 22
9.452369792057687
 32
0.0
 13
19.56780428694517
 23
9.452369792057687
 33
0.0
  0
MTEXT
  5
5832
330
3067
100
AcDbEntity
  8
DIM
 62
     0
100
AcDbMText
 10
17.68752912891057
 20
9.452369792057687
 30
0.0
 40
0.25
 41
0.0
 71
     5
 72
     1
  1
\A1;3.761
 73
     1
 44
1.0
  0
POINT
  5
5833
330
3067
100
AcDbEntity
  8
Defpoints
 62
     0
100
AcDbPoint
 10
15.80725397087597
 20
10.1475364343256
 30
0.0
  0
POINT
  5
5834
330
3067
100
AcDbEntity
  8
Defpoints
 62
     0
100
AcDbPoint
 10
19.56780428694517
 20
10.1475364343256
 30
0.0
  0
POINT
  5
5835
330
3067
100
AcDbEntity
  8
Defpoints
 62
     0
100
AcDbPoint
 10
19.56780428694517
 20
9.452369792057687
 30
0.0
  0
ENDBLK
  5
3073
330
3067
100
AcDbEntity
  8
0
100
AcDbBlockEnd
  0
BLOCK
  5
3081
330
3076
100
AcDbEntity
  8
0
100
AcDbBlockBegin
  2
*D41
 70
     1
 10
0.0
 20
0.0
 30
0.0
  3
*D41
  1

  0
LINE
  5
5682
330
3076
100
AcDbEntity
  8
DIM
 62
     0
370
    -2
100
AcDbLine
 10
15.68125397087597
 20
10.1475364343256
 30
0.0
 11
14.64442285562728
 21
10.1475364343256
 31
0.0
  0
LINE
  5
5683
330
3076
100
AcDbEntity
  8
DIM
 62
     0
370
    -2
100
AcDbLine
 10
15.88202912891065
 20
7.685799890292891
 30
0.0
 11
14.64442285562728
 21
7.685799890292891
 31
0.0
  0
LINE
  5
5684
330
3076
100
AcDbEntity
  8
DIM
 62
     0
370
    -2
100
AcDbLine
 10
14.83042285562728
 20
9.787536434325602
 30
0.0
 11
14.83042285562728
 21
9.221668162309246
 31
0.0
  0
LINE
  5
5685
330
3076
100
AcDbEntity
  8
DIM
 62
     0
370
    -2
100
AcDbLine
 10
14.83042285562728
 20
8.04579989029289
 30
0.0
 11
14.83042285562728
 21
8.611668162309246
 31
0.0
  0
SOLID
  5
5686
330
3076
100
AcDbEntity
  8
DIM
 62
     0
100
AcDbTrace
 10
14.77042285562728
 20
9.787536434325602
 30
0.0
 11
14.89042285562728
 21
9.787536434325602
 31
0.0
 12
14.83042285562728
 22
10.1475364343256
 32
0.0
 13
14.83042285562728
 23
10.1475364343256
 33
0.0
  0
SOLID
  5
5687
330
3076
100
AcDbEntity
  8
DIM
 62
     0
100
AcDbTrace
 10
14.77042285562728
 20
8.04579989029289
 30
0.0
 11
14.89042285562728
 21
8.04579989029289
 31
0.0
 12
14.83042285562728
 22
7.685799890292891
 32
0.0
 13
14.83042285562728
 23
7.685799890292891
 33
0.0
  0
MTEXT
  5
5688
330
3076
100
AcDbEntity
  8
DIM
 62
     0
100
AcDbMText
 10
14.83042285562728
 20
8.916668162309248
 30
0.0
 40
0.25
 41
0.0
 71
     5
 72
     1
  1
\A1;2.462
 73
     1
 44
1.0
  0
POINT
  5
5689
330
3076
100
AcDbEntity
  8
Defpoints
 62
     0
100
AcDbPoint
 10
15.80725397087597
 20
10.1475364343256
 30
0.0
  0
POINT
  5
568A
330
3076
100
AcDbEntity
  8
Defpoints
 62
     0
100
AcDbPoint
 10
16.00802912891064
 20
7.685799890292891
 30
0.0
  0
POINT
  5
568B
330
3076
100
AcDbEntity
  8
Defpoints
 62
     0
100
AcDbPoint
 10
14.83042285562728
 20
7.685799890292891
 30
0.0
  0
ENDBLK
  5
3082
330
3076
100
AcDbEntity
  8
0
100
AcDbBlockEnd
  0
BLOCK
  5
308F
330
3084
100
AcDbEntity
  8
0
100
AcDbBlockBegin
  2
*D42
 70
     1
 10
0.0
 20
0.0
 30
0.0
  3
*D42
  1

  0
LINE
  5
584A
330
3084
100
AcDbEntity
  8
DIM
 62
     0
370
    -2
100
AcDbLine
 10
19.19152912891057
 20
8.015799890292893
 30
0.0
 11
20.64902177472915
 21
8.015799890292891
 31
0.0
  0
LINE
  5
584B
330
3084
100
AcDbEntity
  8
DIM
 62
     0
370
    -2
100
AcDbLine
 10
19.19152912891057
 20
10.01579989029288
 30
0.0
 11
20.64902177472915
 21
10.01579989029288
 31
0.0
  0
LINE
  5
584C
330
3084
100
AcDbEntity
  8
DIM
 62
     0
370
    -2
100
AcDbLine
 10
20.46302177472915
 20
8.37579989029289
 30
0.0
 11
20.46302177472915
 21
8.710799890292889
 31
0.0
  0
LINE
  5
584D
330
3084
100
AcDbEntity
  8
DIM
 62
     0
370
    -2
100
AcDbLine
 10
20.46302177472915
 20
9.655799890292888
 30
0.0
 11
20.46302177472915
 21
9.320799890292889
 31
0.0
  0
SOLID
  5
584E
330
3084
100
AcDbEntity
  8
DIM
 62
     0
100
AcDbTrace
 10
20.40302177472915
 20
8.37579989029289
 30
0.0
 11
20.52302177472915
 21
8.37579989029289
 31
0.0
 12
20.46302177472915
 22
8.015799890292891
 32
0.0
 13
20.46302177472915
 23
8.015799890292891
 33
0.0
  0
SOLID
  5
584F
330
3084
100
AcDbEntity
  8
DIM
 62
     0
100
AcDbTrace
 10
20.40302177472915
 20
9.655799890292888
 30
0.0
 11
20.52302177472915
 21
9.655799890292888
 31
0.0
 12
20.46302177472915
 22
10.01579989029288
 32
0.0
 13
20.46302177472915
 23
10.01579989029288
 33
0.0
  0
MTEXT
  5
5850
330
3084
100
AcDbEntity
  8
DIM
 62
     0
100
AcDbMText
 10
20.46302177472915
 20
9.015799890292893
 30
0.0
 40
0.25
 41
0.0
 71
     5
 72
     1
  1
\A1;2.000
 73
     1
 44
1.0
  0
POINT
  5
5851
330
3084
100
AcDbEntity
  8
Defpoints
 62
     0
100
AcDbPoint
 10
19.06552912891057
 20
8.015799890292893
 30
0.0
  0
POINT
  5
5852
330
3084
100
AcDbEntity
  8
Defpoints
 62
     0
100
AcDbPoint
 10
19.06552912891057
 20
10.01579989029288
 30
0.0
  0
POINT
  5
5853
330
3084
100
AcDbEntity
  8
Defpoints
 62
     0
100
AcDbPoint
 10
20.46302177472915
 20
10.01579989029288
 30
0.0
  0
ENDBLK
  5
3090
330
3084
100
AcDbEntity
  8
0
100
AcDbBlockEnd
  0
BLOCK
  5
309D
330
3092
100
AcDbEntity
  8
0
100
AcDbBlockBegin
  2
*D43
 70
     1
 10
0.0
 20
0.0
 30
0.0
  3
*D43
  1

  0
LINE
  5
5840
330
3092
100
AcDbEntity
  8
DIM
 62
     0
370
    -2
100
AcDbLine
 10
19.19152912891057
 20
10.01579989029288
 30
0.0
 11
20.64902177472915
 21
10.01579989029288
 31
0.0
  0
LINE
  5
5841
330
3092
100
AcDbEntity
  8
DIM
 62
     0
370
    -2
100
AcDbLine
 10
17.81352912891058
 20
10.92079989029289
 30
0.0
 11
20.64902177472915
 21
10.92079989029289
 31
0.0
  0
LINE
  5
5842
330
3092
100
AcDbEntity
  8
DIM
 62
     0
370
    -2
100
AcDbLine
 10
20.46302177472915
 20
9.655799890292888
 30
0.0
 11
20.46302177472915
 21
9.295799890292887
 31
0.0
  0
LINE
  5
5843
330
3092
100
AcDbEntity
  8
DIM
 62
     0
370
    -2
100
AcDbLine
 10
20.46302177472915
 20
11.28079989029289
 30
0.0
 11
20.46302177472915
 21
11.64079989029289
 31
0.0
  0
SOLID
  5
5844
330
3092
100
AcDbEntity
  8
DIM
 62
     0
100
AcDbTrace
 10
20.40302177472915
 20
9.655799890292888
 30
0.0
 11
20.52302177472915
 21
9.655799890292888
 31
0.0
 12
20.46302177472915
 22
10.01579989029288
 32
0.0
 13
20.46302177472915
 23
10.01579989029288
 33
0.0
  0
SOLID
  5
5845
330
3092
100
AcDbEntity
  8
DIM
 62
     0
100
AcDbTrace
 10
20.40302177472915
 20
11.28079989029289
 30
0.0
 11
20.52302177472915
 21
11.28079989029289
 31
0.0
 12
20.46302177472915
 22
10.92079989029289
 32
0.0
 13
20.46302177472915
 23
10.92079989029289
 33
0.0
  0
MTEXT
  5
5846
330
3092
100
AcDbEntity
  8
DIM
 62
     0
100
AcDbMText
 10
20.46302177472915
 20
10.46829989029289
 30
0.0
 40
0.25
 41
0.0
 71
     5
 72
     1
  1
\A1;0.905
 73
     1
 44
1.0
  0
POINT
  5
5847
330
3092
100
AcDbEntity
  8
Defpoints
 62
     0
100
AcDbPoint
 10
19.06552912891057
 20
10.01579989029288
 30
0.0
  0
POINT
  5
5848
330
3092
100
AcDbEntity
  8
Defpoints
 62
     0
100
AcDbPoint
 10
17.68752912891058
 20
10.92079989029289
 30
0.0
  0
POINT
  5
5849
330
3092
100
AcDbEntity
  8
Defpoints
 62
     0
100
AcDbPoint
 10
20.46302177472915
 20
10.92079989029289
 30
0.0
  0
ENDBLK
  5
309E
330
3092
100
AcDbEntity
  8
0
100
AcDbBlockEnd
  0
BLOCK
  5
30AE
330
30A3
100
AcDbEntity
  8
0
100
AcDbBlockBegin
  2
*D44
 70
     1
 10
0.0
 20
0.0
 30
0.0
  3
*D44
  1

  0
LINE
  5
580E
330
30A3
100
AcDbEntity
  8
DIM
 62
     0
370
    -2
100
AcDbLine
 10
18.86052912891058
 20
7.164799890292892
 30
0.0
 11
20.64902177472915
 21
7.164799890292892
 31
0.0
  0
LINE
  5
580F
330
30A3
100
AcDbEntity
  8
DIM
 62
     0
370
    -2
100
AcDbLine
 10
18.86052912891058
 20
5.39279989029289
 30
0.0
 11
20.64902177472915
 21
5.39279989029289
 31
0.0
  0
LINE
  5
5810
330
30A3
100
AcDbEntity
  8
DIM
 62
     0
370
    -2
100
AcDbLine
 10
20.46302177472915
 20
6.804799890292891
 30
0.0
 11
20.46302177472915
 21
6.58379989029289
 31
0.0
  0
LINE
  5
5811
330
30A3
100
AcDbEntity
  8
DIM
 62
     0
370
    -2
100
AcDbLine
 10
20.46302177472915
 20
5.75279989029289
 30
0.0
 11
20.46302177472915
 21
5.973799890292891
 31
0.0
  0
SOLID
  5
5812
330
30A3
100
AcDbEntity
  8
DIM
 62
     0
100
AcDbTrace
 10
20.40302177472915
 20
6.804799890292891
 30
0.0
 11
20.52302177472915
 21
6.804799890292891
 31
0.0
 12
20.46302177472915
 22
7.164799890292892
 32
0.0
 13
20.46302177472915
 23
7.164799890292892
 33
0.0
  0
SOLID
  5
5813
330
30A3
100
AcDbEntity
  8
DIM
 62
     0
100
AcDbTrace
 10
20.40302177472915
 20
5.75279989029289
 30
0.0
 11
20.52302177472915
 21
5.75279989029289
 31
0.0
 12
20.46302177472915
 22
5.39279989029289
 32
0.0
 13
20.46302177472915
 23
5.39279989029289
 33
0.0
  0
MTEXT
  5
5814
330
30A3
100
AcDbEntity
  8
DIM
 62
     0
100
AcDbMText
 10
20.46302177472915
 20
6.278799890292894
 30
0.0
 40
0.25
 41
0.0
 71
     5
 72
     1
  1
\A1;1.772
 73
     1
 44
1.0
  0
POINT
  5
5815
330
30A3
100
AcDbEntity
  8
Defpoints
 62
     0
100
AcDbPoint
 10
18.73452912891058
 20
7.164799890292892
 30
0.0
  0
POINT
  5
5816
330
30A3
100
AcDbEntity
  8
Defpoints
 62
     0
100
AcDbPoint
 10
18.73452912891058
 20
5.39279989029289
 30
0.0
  0
POINT
  5
5817
330
30A3
100
AcDbEntity
  8
Defpoints
 62
     0
100
AcDbPoint
 10
20.46302177472915
 20
5.39279989029289
 30
0.0
  0
ENDBLK
  5
30AF
330
30A3
100
AcDbEntity
  8
0
100
AcDbBlockEnd
  0
BLOCK
  5
30BB
330
30B0
100
AcDbEntity
  8
0
100
AcDbBlockBegin
  2
*D45
 70
     1
 10
0.0
 20
0.0
 30
0.0
  3
*D45
  1

  0
LINE
  5
5818
330
30B0
100
AcDbEntity
  8
DIM
 62
     0
370
    -2
100
AcDbLine
 10
18.86052912891058
 20
5.39279989029289
 30
0.0
 11
20.64902177472915
 21
5.39279989029289
 31
0.0
  0
LINE
  5
5819
330
30B0
100
AcDbEntity
  8
DIM
 62
     0
370
    -2
100
AcDbLine
 10
18.86052912891058
 20
3.592799890292893
 30
0.0
 11
20.64902177472915
 21
3.592799890292892
 31
0.0
  0
LINE
  5
581A
330
30B0
100
AcDbEntity
  8
DIM
 62
     0
370
    -2
100
AcDbLine
 10
20.46302177472915
 20
5.032799890292889
 30
0.0
 11
20.46302177472915
 21
4.79779989029289
 31
0.0
  0
LINE
  5
581B
330
30B0
100
AcDbEntity
  8
DIM
 62
     0
370
    -2
100
AcDbLine
 10
20.46302177472915
 20
3.952799890292892
 30
0.0
 11
20.46302177472915
 21
4.187799890292891
 31
0.0
  0
SOLID
  5
581C
330
30B0
100
AcDbEntity
  8
DIM
 62
     0
100
AcDbTrace
 10
20.40302177472915
 20
5.032799890292889
 30
0.0
 11
20.52302177472915
 21
5.032799890292889
 31
0.0
 12
20.46302177472915
 22
5.39279989029289
 32
0.0
 13
20.46302177472915
 23
5.39279989029289
 33
0.0
  0
SOLID
  5
581D
330
30B0
100
AcDbEntity
  8
DIM
 62
     0
100
AcDbTrace
 10
20.40302177472915
 20
3.952799890292892
 30
0.0
 11
20.52302177472915
 21
3.952799890292892
 31
0.0
 12
20.46302177472915
 22
3.592799890292892
 32
0.0
 13
20.46302177472915
 23
3.592799890292892
 33
0.0
  0
MTEXT
  5
581E
330
30B0
100
AcDbEntity
  8
DIM
 62
     0
100
AcDbMText
 10
20.46302177472915
 20
4.492799890292894
 30
0.0
 40
0.25
 41
0.0
 71
     5
 72
     1
  1
\A1;1.800
 73
     1
 44
1.0
  0
POINT
  5
581F
330
30B0
100
AcDbEntity
  8
Defpoints
 62
     0
100
AcDbPoint
 10
18.73452912891058
 20
5.39279989029289
 30
0.0
  0
POINT
  5
5820
330
30B0
100
AcDbEntity
  8
Defpoints
 62
     0
100
AcDbPoint
 10
18.73452912891058
 20
3.592799890292893
 30
0.0
  0
POINT
  5
5821
330
30B0
100
AcDbEntity
  8
Defpoints
 62
     0
100
AcDbPoint
 10
20.46302177472915
 20
3.592799890292892
 30
0.0
  0
ENDBLK
  5
30BC
330
30B0
100
AcDbEntity
  8
0
100
AcDbBlockEnd
  0
BLOCK
  5
30C8
330
30BD
100
AcDbEntity
  8
0
100
AcDbBlockBegin
  2
*D46
 70
     1
 10
0.0
 20
0.0
 30
0.0
  3
*D46
  1

  0
LINE
  5
5822
330
30BD
100
AcDbEntity
  8
DIM
 62
     0
370
    -2
100
AcDbLine
 10
18.86052912891058
 20
3.592799890292893
 30
0.0
 11
20.64902177472915
 21
3.592799890292892
 31
0.0
  0
LINE
  5
5823
330
30BD
100
AcDbEntity
  8
DIM
 62
     0
370
    -2
100
AcDbLine
 10
17.81352912891058
 20
2.652799890292895
 30
0.0
 11
20.64902177472915
 21
2.652799890292894
 31
0.0
  0
LINE
  5
5824
330
30BD
100
AcDbEntity
  8
DIM
 62
     0
370
    -2
100
AcDbLine
 10
20.46302177472915
 20
3.952799890292892
 30
0.0
 11
20.46302177472915
 21
4.312799890292892
 31
0.0
  0
LINE
  5
5825
330
30BD
100
AcDbEntity
  8
DIM
 62
     0
370
    -2
100
AcDbLine
 10
20.46302177472915
 20
2.292799890292894
 30
0.0
 11
20.46302177472915
 21
1.932799890292894
 31
0.0
  0
SOLID
  5
5826
330
30BD
100
AcDbEntity
  8
DIM
 62
     0
100
AcDbTrace
 10
20.40302177472915
 20
3.952799890292892
 30
0.0
 11
20.52302177472915
 21
3.952799890292892
 31
0.0
 12
20.46302177472915
 22
3.592799890292892
 32
0.0
 13
20.46302177472915
 23
3.592799890292892
 33
0.0
  0
SOLID
  5
5827
330
30BD
100
AcDbEntity
  8
DIM
 62
     0
100
AcDbTrace
 10
20.40302177472915
 20
2.292799890292894
 30
0.0
 11
20.52302177472915
 21
2.292799890292894
 31
0.0
 12
20.46302177472915
 22
2.652799890292894
 32
0.0
 13
20.46302177472915
 23
2.652799890292894
 33
0.0
  0
MTEXT
  5
5828
330
30BD
100
AcDbEntity
  8
DIM
 62
     0
100
AcDbMText
 10
20.46302177472915
 20
3.122799890292896
 30
0.0
 40
0.25
 41
0.0
 71
     5
 72
     1
  1
\A1;0.940
 73
     1
 44
1.0
  0
POINT
  5
5829
330
30BD
100
AcDbEntity
  8
Defpoints
 62
     0
100
AcDbPoint
 10
18.73452912891058
 20
3.592799890292893
 30
0.0
  0
POINT
  5
582A
330
30BD
100
AcDbEntity
  8
Defpoints
 62
     0
100
AcDbPoint
 10
17.68752912891058
 20
2.652799890292895
 30
0.0
  0
POINT
  5
582B
330
30BD
100
AcDbEntity
  8
Defpoints
 62
     0
100
AcDbPoint
 10
20.46302177472915
 20
2.652799890292894
 30
0.0
  0
ENDBLK
  5
30C9
330
30BD
100
AcDbEntity
  8
0
100
AcDbBlockEnd
  0
BLOCK
  5
30F6
330
30EB
100
AcDbEntity
  8
0
100
AcDbBlockBegin
  2
*D47
 70
     1
 10
0.0
 20
0.0
 30
0.0
  3
*D47
  1

  0
LINE
  5
57FA
330
30EB
100
AcDbEntity
  8
DIM
 62
     0
370
    -2
100
AcDbLine
 10
16.33102912891057
 20
3.558063346260199
 30
0.0
 11
16.33102912891057
 21
4.327393649798349
 31
0.0
  0
LINE
  5
57FB
330
30EB
100
AcDbEntity
  8
DIM
 62
     0
370
    -2
100
AcDbLine
 10
19.04402912891058
 20
3.558063346260199
 30
0.0
 11
19.04402912891058
 21
4.327393649798349
 31
0.0
  0
LINE
  5
57FC
330
30EB
100
AcDbEntity
  8
DIM
 62
     0
370
    -2
100
AcDbLine
 10
16.69102912891057
 20
4.141393649798349
 30
0.0
 11
17.16377912891058
 21
4.141393649798349
 31
0.0
  0
LINE
  5
57FD
330
30EB
100
AcDbEntity
  8
DIM
 62
     0
370
    -2
100
AcDbLine
 10
18.68402912891058
 20
4.141393649798349
 30
0.0
 11
18.21127912891057
 21
4.141393649798349
 31
0.0
  0
SOLID
  5
57FE
330
30EB
100
AcDbEntity
  8
DIM
 62
     0
100
AcDbTrace
 10
16.69102912891057
 20
4.201393649798348
 30
0.0
 11
16.69102912891057
 21
4.081393649798349
 31
0.0
 12
16.33102912891057
 22
4.141393649798349
 32
0.0
 13
16.33102912891057
 23
4.141393649798349
 33
0.0
  0
SOLID
  5
57FF
330
30EB
100
AcDbEntity
  8
DIM
 62
     0
100
AcDbTrace
 10
18.68402912891058
 20
4.201393649798348
 30
0.0
 11
18.68402912891058
 21
4.081393649798349
 31
0.0
 12
19.04402912891058
 22
4.141393649798349
 32
0.0
 13
19.04402912891058
 23
4.141393649798349
 33
0.0
  0
MTEXT
  5
5800
330
30EB
100
AcDbEntity
  8
DIM
 62
     0
100
AcDbMText
 10
17.68752912891057
 20
4.141393649798349
 30
0.0
 40
0.25
 41
0.0
 71
     5
 72
     1
  1
\A1;2.713
 73
     1
 44
1.0
  0
POINT
  5
5801
330
30EB
100
AcDbEntity
  8
Defpoints
 62
     0
100
AcDbPoint
 10
16.33102912891057
 20
3.432063346260199
 30
0.0
  0
POINT
  5
5802
330
30EB
100
AcDbEntity
  8
Defpoints
 62
     0
100
AcDbPoint
 10
19.04402912891058
 20
3.432063346260199
 30
0.0
  0
POINT
  5
5803
330
30EB
100
AcDbEntity
  8
Defpoints
 62
     0
100
AcDbPoint
 10
19.04402912891058
 20
4.141393649798349
 30
0.0
  0
ENDBLK
  5
30F7
330
30EB
100
AcDbEntity
  8
0
100
AcDbBlockEnd
  0
BLOCK
  5
3103
330
30F8
100
AcDbEntity
  8
0
100
AcDbBlockBegin
  2
*D48
 70
     1
 10
0.0
 20
0.0
 30
0.0
  3
*D48
  1

  0
LINE
  5
58BB
330
30F8
100
AcDbEntity
  8
DIM
 62
     0
370
    -2
100
AcDbLine
 10
19.09526567294329
 20
10.5279333493028
 30
0.0
 11
17.93398483652137
 21
10.5279333493028
 31
0.0
  0
LINE
  5
58BC
330
30F8
100
AcDbEntity
  8
DIM
 62
     0
370
    -2
100
AcDbLine
 10
18.49326567294328
 20
2.954106964898815
 30
0.0
 11
17.93398483652136
 21
2.954106964898815
 31
0.0
  0
LINE
  5
58BD
330
30F8
100
AcDbEntity
  8
DIM
 62
     0
370
    -2
100
AcDbLine
 10
18.11998483652137
 20
10.16793334930281
 30
0.0
 11
18.11998483652137
 21
7.090923371340745
 31
0.0
  0
LINE
  5
58BE
330
30F8
100
AcDbEntity
  8
DIM
 62
     0
370
    -2
100
AcDbLine
 10
18.11998483652137
 20
3.314106964898815
 30
0.0
 11
18.11998483652137
 21
6.480923371340746
 31
0.0
  0
SOLID
  5
58BF
330
30F8
100
AcDbEntity
  8
DIM
 62
     0
100
AcDbTrace
 10
18.05998483652137
 20
10.16793334930281
 30
0.0
 11
18.17998483652137
 21
10.16793334930281
 31
0.0
 12
18.11998483652137
 22
10.5279333493028
 32
0.0
 13
18.11998483652137
 23
10.5279333493028
 33
0.0
  0
SOLID
  5
58C0
330
30F8
100
AcDbEntity
  8
DIM
 62
     0
100
AcDbTrace
 10
18.05998483652136
 20
3.314106964898815
 30
0.0
 11
18.17998483652136
 21
3.314106964898815
 31
0.0
 12
18.11998483652137
 22
2.954106964898815
 32
0.0
 13
18.11998483652137
 23
2.954106964898815
 33
0.0
  0
MTEXT
  5
58C1
330
30F8
100
AcDbEntity
  8
DIM
 62
     0
100
AcDbMText
 10
18.11998483652137
 20
6.785923371340749
 30
0.0
 40
0.25
 41
0.0
 71
     5
 72
     1
  1
\A1;7.574
 73
     1
 44
1.0
  0
POINT
  5
58C2
330
30F8
100
AcDbEntity
  8
Defpoints
 62
     0
100
AcDbPoint
 10
19.22126567294329
 20
10.5279333493028
 30
0.0
  0
POINT
  5
58C3
330
30F8
100
AcDbEntity
  8
Defpoints
 62
     0
100
AcDbPoint
 10
18.61926567294328
 20
2.954106964898815
 30
0.0
  0
POINT
  5
58C4
330
30F8
100
AcDbEntity
  8
Defpoints
 62
     0
100
AcDbPoint
 10
18.11998483652137
 20
2.954106964898815
 30
0.0
  0
ENDBLK
  5
3104
330
30F8
100
AcDbEntity
  8
0
100
AcDbBlockEnd
  0
BLOCK
  5
3110
330
3105
100
AcDbEntity
  8
0
100
AcDbBlockBegin
  2
*D49
 70
     1
 10
0.0
 20
0.0
 30
0.0
  3
*D49
  1

  0
LINE
  5
57F0
330
3105
100
AcDbEntity
  8
DIM
 62
     0
370
    -2
100
AcDbLine
 10
16.64052912891057
 20
5.51879989029289
 30
0.0
 11
16.64052912891057
 21
6.045861404032384
 31
0.0
  0
LINE
  5
57F1
330
3105
100
AcDbEntity
  8
DIM
 62
     0
370
    -2
100
AcDbLine
 10
18.73452912891058
 20
5.51879989029289
 30
0.0
 11
18.73452912891058
 21
6.045861404032384
 31
0.0
  0
LINE
  5
57F2
330
3105
100
AcDbEntity
  8
DIM
 62
     0
370
    -2
100
AcDbLine
 10
17.00052912891058
 20
5.859861404032384
 30
0.0
 11
17.14815412891057
 21
5.859861404032384
 31
0.0
  0
LINE
  5
57F3
330
3105
100
AcDbEntity
  8
DIM
 62
     0
370
    -2
100
AcDbLine
 10
18.37452912891058
 20
5.859861404032384
 30
0.0
 11
18.22690412891057
 21
5.859861404032384
 31
0.0
  0
SOLID
  5
57F4
330
3105
100
AcDbEntity
  8
DIM
 62
     0
100
AcDbTrace
 10
17.00052912891058
 20
5.919861404032384
 30
0.0
 11
17.00052912891058
 21
5.799861404032385
 31
0.0
 12
16.64052912891057
 22
5.859861404032384
 32
0.0
 13
16.64052912891057
 23
5.859861404032384
 33
0.0
  0
SOLID
  5
57F5
330
3105
100
AcDbEntity
  8
DIM
 62
     0
100
AcDbTrace
 10
18.37452912891058
 20
5.919861404032384
 30
0.0
 11
18.37452912891058
 21
5.799861404032385
 31
0.0
 12
18.73452912891058
 22
5.859861404032384
 32
0.0
 13
18.73452912891058
 23
5.859861404032384
 33
0.0
  0
MTEXT
  5
57F6
330
3105
100
AcDbEntity
  8
DIM
 62
     0
100
AcDbMText
 10
17.68752912891057
 20
5.859861404032384
 30
0.0
 40
0.25
 41
0.0
 71
     5
 72
     1
  1
\A1;2.094
 73
     1
 44
1.0
  0
POINT
  5
57F7
330
3105
100
AcDbEntity
  8
Defpoints
 62
     0
100
AcDbPoint
 10
16.64052912891057
 20
5.39279989029289
 30
0.0
  0
POINT
  5
57F8
330
3105
100
AcDbEntity
  8
Defpoints
 62
     0
100
AcDbPoint
 10
18.73452912891058
 20
5.39279989029289
 30
0.0
  0
POINT
  5
57F9
330
3105
100
AcDbEntity
  8
Defpoints
 62
     0
100
AcDbPoint
 10
18.73452912891058
 20
5.859861404032384
 30
0.0
  0
ENDBLK
  5
3111
330
3105
100
AcDbEntity
  8
0
100
AcDbBlockEnd
  0
BLOCK
  5
313C
330
3131
100
AcDbEntity
  8
0
100
AcDbBlockBegin
  2
*D50
 70
     1
 10
0.0
 20
0.0
 30
0.0
  3
*D50
  1

  0
LINE
  5
58CF
330
3131
100
AcDbEntity
  8
DIM
 62
     0
370
    -2
100
AcDbLine
 10
16.75579258487786
 20
2.828106964898817
 30
0.0
 11
16.75579258487786
 21
1.878497155813846
 31
0.0
  0
LINE
  5
58D0
330
3131
100
AcDbEntity
  8
DIM
 62
     0
370
    -2
100
AcDbLine
 10
18.61926567294328
 20
2.828106964898815
 30
0.0
 11
18.61926567294328
 21
1.878497155813846
 31
0.0
  0
LINE
  5
58D1
330
3131
100
AcDbEntity
  8
DIM
 62
     0
370
    -2
100
AcDbLine
 10
16.39579258487786
 20
2.064497155813846
 30
0.0
 11
16.03579258487786
 21
2.064497155813846
 31
0.0
  0
LINE
  5
58D2
330
3131
100
AcDbEntity
  8
DIM
 62
     0
370
    -2
100
AcDbLine
 10
18.97926567294328
 20
2.064497155813846
 30
0.0
 11
19.33926567294328
 21
2.064497155813846
 31
0.0
  0
SOLID
  5
58D3
330
3131
100
AcDbEntity
  8
DIM
 62
     0
100
AcDbTrace
 10
16.39579258487786
 20
2.124497155813846
 30
0.0
 11
16.39579258487786
 21
2.004497155813846
 31
0.0
 12
16.75579258487786
 22
2.064497155813846
 32
0.0
 13
16.75579258487786
 23
2.064497155813846
 33
0.0
  0
SOLID
  5
58D4
330
3131
100
AcDbEntity
  8
DIM
 62
     0
100
AcDbTrace
 10
18.97926567294328
 20
2.124497155813846
 30
0.0
 11
18.97926567294328
 21
2.004497155813846
 31
0.0
 12
18.61926567294328
 22
2.064497155813846
 32
0.0
 13
18.61926567294328
 23
2.064497155813846
 33
0.0
  0
MTEXT
  5
58D5
330
3131
100
AcDbEntity
  8
DIM
 62
     0
100
AcDbMText
 10
17.68752912891057
 20
2.064497155813846
 30
0.0
 40
0.25
 41
0.0
 71
     5
 72
     1
  1
\A1;1.863
 73
     1
 44
1.0
  0
POINT
  5
58D6
330
3131
100
AcDbEntity
  8
Defpoints
 62
     0
100
AcDbPoint
 10
16.75579258487786
 20
2.954106964898817
 30
0.0
  0
POINT
  5
58D7
330
3131
100
AcDbEntity
  8
Defpoints
 62
     0
100
AcDbPoint
 10
18.61926567294328
 20
2.954106964898815
 30
0.0
  0
POINT
  5
58D8
330
3131
100
AcDbEntity
  8
Defpoints
 62
     0
100
AcDbPoint
 10
18.61926567294328
 20
2.064497155813846
 30
0.0
  0
ENDBLK
  5
313D
330
3131
100
AcDbEntity
  8
0
100
AcDbBlockEnd
  0
BLOCK
  5
517C
330
516F
100
AcDbEntity
  8
0
100
AcDbBlockBegin
  2
*D51
 70
     1
 10
0.0
 20
0.0
 30
0.0
  3
*D51
  1

  0
LINE
  5
5736
330
516F
100
AcDbEntity
  8
DIM
 62
     0
370
    -2
100
AcDbLine
 10
14.27575540110703
 20
12.93629678020914
 30
0.0
 11
15.75028954843736
 21
12.93629678020105
 31
0.0
  0
ARC
  5
5737
330
516F
100
AcDbEntity
  8
DIM
 62
     0
370
    -2
100
AcDbCircle
 10
8.633576517336761
 20
12.93629678024005
 30
0.0
 40
6.930713031100601
100
AcDbArc
 50
2.976432588224231
 51
12.17904426231678
  0
ARC
  5
5738
330
516F
100
AcDbEntity
  8
DIM
 62
     0
370
    -2
100
AcDbCircle
 10
8.633576517336761
 20
12.93629678024005
 30
0.0
 40
6.930713031100601
100
AcDbArc
 50
17.39642960125638
 51
26.56769344146166
  0
SOLID
  5
5739
330
516F
100
AcDbEntity
  8
DIM
 62
     0
100
AcDbTrace
 10
15.61491962233272
 20
13.29773362892859
 30
0.0
 11
15.49496009983248
 21
13.294617066477
 31
0.0
 12
15.56428954843736
 22
12.93629678020208
 32
0.0
 13
15.56428954843736
 23
12.93629678020208
 33
0.0
  0
SOLID
  5
573A
330
516F
100
AcDbEntity
  8
DIM
 62
     0
100
AcDbTrace
 10
14.77950241767695
 20
16.00787177056642
 30
0.0
 11
14.88540110463643
 21
16.06431172184438
 31
0.0
 12
14.66313190732281
 22
16.35378780708384
 32
0.0
 13
14.66313190732281
 23
16.35378780708384
 33
0.0
  0
MTEXT
  5
573B
330
516F
100
AcDbEntity
  8
DIM
 62
     0
100
AcDbMText
 10
15.33521442283108
 20
14.70345056616513
 30
0.0
 40
0.25
 41
0.0
 71
     5
 72
     1
  1
\A1;30° REF.
 73
     1
 44
1.0
  0
POINT
  5
573C
330
516F
100
AcDbEntity
  8
Defpoints
 62
     0
100
AcDbPoint
 10
15.46216433394281
 20
14.12169610129906
 30
0.0
  0
POINT
  5
573D
330
516F
100
AcDbEntity
  8
Defpoints
 62
     0
100
AcDbPoint
 10
15.34094762414914
 20
16.73796690160794
 30
0.0
  0
POINT
  5
573E
330
516F
100
AcDbEntity
  8
Defpoints
 62
     0
100
AcDbPoint
 10
14.14975540110703
 20
12.93629678020983
 30
0.0
  0
POINT
  5
573F
330
516F
100
AcDbEntity
  8
Defpoints
 62
     0
100
AcDbPoint
 10
8.559479674018954
 20
12.93629678024046
 30
0.0
  0
POINT
  5
5740
330
516F
100
AcDbEntity
  8
Defpoints
 62
     0
100
AcDbPoint
 10
8.698039007560041
 20
12.97283346788238
 30
0.0
  0
ENDBLK
  5
517D
330
516F
100
AcDbEntity
  8
0
100
AcDbBlockEnd
  0
BLOCK
  5
56CC
330
56C1
100
AcDbEntity
  8
0
100
AcDbBlockBegin
  2
*D52
 70
     1
 10
0.0
 20
0.0
 30
0.0
  3
*D52
  1

  0
LINE
  5
56F0
330
56C1
100
AcDbEntity
  8
DIM
 62
     0
370
    -2
100
AcDbLine
 10
10.71014014604521
 20
2.526799890292895
 30
0.0
 11
10.71014014604521
 21
2.154799890292895
 31
0.0
  0
LINE
  5
56F1
330
56C1
100
AcDbEntity
  8
DIM
 62
     0
370
    -2
100
AcDbLine
 10
10.12014014604521
 20
2.646923149341088
 30
0.0
 11
10.12014014604521
 21
2.154799890292895
 31
0.0
  0
LINE
  5
56F2
330
56C1
100
AcDbEntity
  8
DIM
 62
     0
370
    -2
100
AcDbLine
 10
11.07014014604521
 20
2.340799890292895
 30
0.0
 11
11.43014014604521
 21
2.340799890292895
 31
0.0
  0
LINE
  5
56F3
330
56C1
100
AcDbEntity
  8
DIM
 62
     0
370
    -2
100
AcDbLine
 10
9.760140146045218
 20
2.340799890292895
 30
0.0
 11
9.400140146045217
 21
2.340799890292895
 31
0.0
  0
SOLID
  5
56F4
330
56C1
100
AcDbEntity
  8
DIM
 62
     0
100
AcDbTrace
 10
11.07014014604521
 20
2.400799890292895
 30
0.0
 11
11.07014014604521
 21
2.280799890292895
 31
0.0
 12
10.71014014604521
 22
2.340799890292895
 32
0.0
 13
10.71014014604521
 23
2.340799890292895
 33
0.0
  0
SOLID
  5
56F5
330
56C1
100
AcDbEntity
  8
DIM
 62
     0
100
AcDbTrace
 10
9.760140146045218
 20
2.400799890292895
 30
0.0
 11
9.760140146045218
 21
2.280799890292895
 31
0.0
 12
10.12014014604521
 22
2.340799890292895
 32
0.0
 13
10.12014014604521
 23
2.340799890292895
 33
0.0
  0
MTEXT
  5
56F6
330
56C1
100
AcDbEntity
  8
DIM
 62
     0
100
AcDbMText
 10
8.876390146045217
 20
2.340799890292895
 30
0.0
 40
0.25
 41
0.0
 71
     5
 72
     1
  1
\A1;0.590
 73
     1
 44
1.0
  0
POINT
  5
56F7
330
56C1
100
AcDbEntity
  8
Defpoints
 62
     0
100
AcDbPoint
 10
10.71014014604521
 20
2.652799890292895
 30
0.0
  0
POINT
  5
56F8
330
56C1
100
AcDbEntity
  8
Defpoints
 62
     0
100
AcDbPoint
 10
10.12014014604521
 20
2.772923149341088
 30
0.0
  0
POINT
  5
56F9
330
56C1
100
AcDbEntity
  8
Defpoints
 62
     0
100
AcDbPoint
 10
10.12014014604521
 20
2.340799890292895
 30
0.0
  0
ENDBLK
  5
56CD
330
56C1
100
AcDbEntity
  8
0
100
AcDbBlockEnd
  0
BLOCK
  5
56DA
330
56CF
100
AcDbEntity
  8
0
100
AcDbBlockBegin
  2
*D53
 70
     1
 10
0.0
 20
0.0
 30
0.0
  3
*D53
  1

  0
LINE
  5
570E
330
56CF
100
AcDbEntity
  8
DIM
 62
     0
370
    -2
100
AcDbLine
 10
10.71014014604521
 20
2.526799890292895
 30
0.0
 11
10.71014014604521
 21
1.782799890292895
 31
0.0
  0
LINE
  5
570F
330
56CF
100
AcDbEntity
  8
DIM
 62
     0
370
    -2
100
AcDbLine
 10
11.69414014604521
 20
2.842931877182966
 30
0.0
 11
11.69414014604521
 21
1.782799890292895
 31
0.0
  0
LINE
  5
5710
330
56CF
100
AcDbEntity
  8
DIM
 62
     0
370
    -2
100
AcDbLine
 10
10.35014014604521
 20
1.968799890292895
 30
0.0
 11
9.990140146045217
 21
1.968799890292895
 31
0.0
  0
LINE
  5
5711
330
56CF
100
AcDbEntity
  8
DIM
 62
     0
370
    -2
100
AcDbLine
 10
12.05414014604521
 20
1.968799890292895
 30
0.0
 11
12.41414014604521
 21
1.968799890292895
 31
0.0
  0
SOLID
  5
5712
330
56CF
100
AcDbEntity
  8
DIM
 62
     0
100
AcDbTrace
 10
10.35014014604521
 20
2.028799890292895
 30
0.0
 11
10.35014014604521
 21
1.908799890292895
 31
0.0
 12
10.71014014604521
 22
1.968799890292895
 32
0.0
 13
10.71014014604521
 23
1.968799890292895
 33
0.0
  0
SOLID
  5
5713
330
56CF
100
AcDbEntity
  8
DIM
 62
     0
100
AcDbTrace
 10
12.05414014604521
 20
2.028799890292895
 30
0.0
 11
12.05414014604521
 21
1.908799890292895
 31
0.0
 12
11.69414014604521
 22
1.968799890292895
 32
0.0
 13
11.69414014604521
 23
1.968799890292895
 33
0.0
  0
MTEXT
  5
5714
330
56CF
100
AcDbEntity
  8
DIM
 62
     0
100
AcDbMText
 10
11.20214014604521
 20
1.968799890292895
 30
0.0
 40
0.25
 41
0.0
 71
     5
 72
     1
  1
\A1;0.984
 73
     1
 44
1.0
  0
POINT
  5
5715
330
56CF
100
AcDbEntity
  8
Defpoints
 62
     0
100
AcDbPoint
 10
10.71014014604521
 20
2.652799890292895
 30
0.0
  0
POINT
  5
5716
330
56CF
100
AcDbEntity
  8
Defpoints
 62
     0
100
AcDbPoint
 10
11.69414014604521
 20
2.968931877182966
 30
0.0
  0
POINT
  5
5717
330
56CF
100
AcDbEntity
  8
Defpoints
 62
     0
100
AcDbPoint
 10
11.69414014604521
 20
1.968799890292895
 30
0.0
  0
ENDBLK
  5
56DB
330
56CF
100
AcDbEntity
  8
0
100
AcDbBlockEnd
  0
ENDSEC
  0
SECTION
  2
ENTITIES
  0
LWPOLYLINE
  5
167
330
1F
100
AcDbEntity
  8
OBJECT
100
AcDbPolyline
 90
        3
 70
     0
 43
0.0
 10
5.633200920390187
 20
15.97870779627906
 10
5.606948837608925
 20
16.4796273761659
 42
0.3989595459737194
 10
5.513077661341995
 20
16.56870779627906
  0
LWPOLYLINE
  5
168
330
1F
100
AcDbEntity
  8
OBJECT
100
AcDbPolyline
 90
        4
 70
     0
 43
0.0
 10
5.610560759739914
 20
16.41070779627906
 10
5.614277769628852
 20
16.41070779627906
 42
-0.3989595459737193
 10
5.678190059853147
 20
16.35005729747861
 10
5.69765166254888
 20
15.97870779627906
  0
LWPOLYLINE
  5
169
330
1F
100
AcDbEntity
  8
OBJECT
100
AcDbPolyline
 90
        3
 70
     0
 43
0.0
 10
2.680200920390191
 20
15.97870779627906
 10
2.706453003171453
 20
16.4796273761659
 42
-0.3989595459737194
 10
2.800324179438383
 20
16.56870779627906
  0
LWPOLYLINE
  5
16A
330
1F
100
AcDbEntity
  8
OBJECT
100
AcDbPolyline
 90
        4
 70
     0
 43
0.0
 10
2.702841081040465
 20
16.41070779627906
 10
2.699124071151525
 20
16.41070779627906
 42
0.3989595459737193
 10
2.635211780927233
 20
16.35005729747861
 10
2.615750178231499
 20
15.97870779627906
  0
LWPOLYLINE
  5
16B
330
1F
100
AcDbEntity
  8
OBJECT
100
AcDbPolyline
 90
        6
 70
     1
 43
0.0
 10
1.99170092039019
 20
15.97870779627906
 10
2.017953003171456
 20
16.4796273761659
 42
-0.3989595459737194
 10
2.111824179438386
 20
16.56870779627906
 10
6.201577661341996
 20
16.56870779627906
 42
-0.3989595459737191
 10
6.295448837608926
 20
16.4796273761659
 10
6.321700920390188
 20
15.97870779627906
  0
LWPOLYLINE
  5
16C
330
1F
100
AcDbEntity
  8
OBJECT
100
AcDbPolyline
 90
        6
 70
     1
 43
0.0
 10
2.307832907280264
 20
14.99470779627906
 42
-0.3989595459737198
 10
2.02721800801423
 20
15.26100139257479
 10
1.99170092039019
 20
15.93870779627907
 10
6.321700920390188
 20
15.93870779627907
 10
6.286183832766148
 20
15.26100139257479
 42
-0.3989595459737196
 10
6.005568933500114
 20
14.99470779627906
  0
LWPOLYLINE
  5
16D
330
1F
100
AcDbEntity
  8
OBJECT
100
AcDbPolyline
 90
        4
 70
     0
 43
0.0
 10
2.01170092039019
 20
15.93870779627907
 10
2.01170092039019
 20
15.97870779627906
 10
6.301700920390185
 20
15.97870779627906
 10
6.301700920390185
 20
15.93870779627907
  0
LWPOLYLINE
  5
16E
330
1F
100
AcDbEntity
  8
OBJECT
100
AcDbPolyline
 90
        4
 70
     0
 43
0.0
 10
2.711331141284318
 20
15.34470779627907
 10
2.707614131395381
 20
15.34470779627907
 42
-0.3989595459737193
 10
2.643701841171086
 20
15.40535829507952
 10
2.6157501782315
 20
15.93870779627907
  0
LWPOLYLINE
  5
16F
330
1F
100
AcDbEntity
  8
OBJECT
100
AcDbPolyline
 90
        3
 70
     0
 43
0.0
 10
2.680200920390191
 20
15.93870779627907
 10
2.71571800801423
 20
15.26100139257479
 42
0.3989595459737198
 10
2.996332907280265
 20
14.99470779627906
  0
LINE
  5
170
330
1F
100
AcDbEntity
  8
OBJECT
100
AcDbLine
 10
3.015700920390205
 20
14.96470779627906
 30
0.0
 11
3.253700920390212
 21
14.96470779627906
 31
0.0
  0
LINE
  5
171
330
1F
100
AcDbEntity
  8
OBJECT
100
AcDbLine
 10
3.057700920390203
 20
14.99470779627906
 30
0.0
 11
3.057700920390207
 21
14.96470779627906
 31
0.0
  0
LINE
  5
172
330
1F
100
AcDbEntity
  8
OBJECT
100
AcDbLine
 10
3.015700920390205
 20
14.99470779627906
 30
0.0
 11
3.015700920390205
 21
14.96470779627906
 31
0.0
  0
LINE
  5
173
330
1F
100
AcDbEntity
  8
OBJECT
100
AcDbLine
 10
3.253700920390208
 20
14.99470779627906
 30
0.0
 11
3.253700920390208
 21
14.96470779627906
 31
0.0
  0
LINE
  5
174
330
1F
100
AcDbEntity
  8
OBJECT
100
AcDbLine
 10
2.700200920390191
 20
15.97870779627906
 30
0.0
 11
2.700200920390191
 21
15.93870779627907
 31
0.0
  0
LWPOLYLINE
  5
175
330
1F
100
AcDbEntity
  8
OBJECT
100
AcDbPolyline
 90
        4
 70
     0
 43
0.0
 10
5.60207069949606
 20
15.34470779627907
 10
5.605787709384998
 20
15.34470779627907
 42
0.3989595459737193
 10
5.669699999609292
 20
15.40535829507952
 10
5.697651662548878
 20
15.93870779627907
  0
LWPOLYLINE
  5
176
330
1F
100
AcDbEntity
  8
OBJECT
100
AcDbPolyline
 90
        3
 70
     0
 43
0.0
 10
5.317068933500113
 20
14.99470779627906
 42
0.3989595459737198
 10
5.597683832766149
 20
15.26100139257479
 10
5.633200920390187
 20
15.93870779627907
  0
LINE
  5
177
330
1F
100
AcDbEntity
  8
OBJECT
100
AcDbLine
 10
5.297700920390173
 20
14.96470779627906
 30
0.0
 11
5.059700920390167
 21
14.96470779627906
 31
0.0
  0
LINE
  5
178
330
1F
100
AcDbEntity
  8
OBJECT
100
AcDbLine
 10
5.255700920390175
 20
14.99470779627906
 30
0.0
 11
5.255700920390172
 21
14.96470779627906
 31
0.0
  0
LINE
  5
179
330
1F
100
AcDbEntity
  8
OBJECT
100
AcDbLine
 10
5.05970092039017
 20
14.99470779627906
 30
0.0
 11
5.05970092039017
 21
14.96470779627906
 31
0.0
  0
LINE
  5
17A
330
1F
100
AcDbEntity
  8
OBJECT
100
AcDbLine
 10
5.297700920390173
 20
14.99470779627906
 30
0.0
 11
5.297700920390173
 21
14.96470779627906
 31
0.0
  0
LINE
  5
17B
330
1F
100
AcDbEntity
  8
OBJECT
100
AcDbLine
 10
5.613200920390188
 20
15.97870779627906
 30
0.0
 11
5.613200920390188
 21
15.93870779627907
 31
0.0
  0
LWPOLYLINE
  5
17C
330
1F
100
AcDbEntity
  8
OBJECT
100
AcDbPolyline
 90
        7
 70
     0
 43
0.0
 10
11.17683460684337
 20
18.94763882727648
 10
10.83883460684337
 20
18.94763882727648
 42
-0.2203142151317616
 10
10.83883460684337
 20
19.8009655174656
 42
-0.1880000000000003
 10
10.83883460684337
 20
20.80096551746561
 42
-0.1880000000000003
 10
10.83883460684337
 20
21.80096551746561
 42
-0.2199670889940404
 10
10.83883460684337
 20
22.65563882727648
 10
11.17683460684337
 20
22.65563882727648
  0
LWPOLYLINE
  5
17D
330
1F
100
AcDbEntity
  8
OBJECT
100
AcDbPolyline
 90
        3
 70
     0
 43
0.0
 10
11.17683460684337
 20
23.01296551746561
 10
10.67591502695654
 20
23.03921760024687
 42
-0.3989595459737193
 10
10.58683460684337
 20
23.1330887765138
  0
LINE
  5
17E
330
1F
100
AcDbEntity
  8
OBJECT
100
AcDbLine
 10
11.17683460684337
 20
21.80096551746561
 30
0.0
 11
10.83883460684337
 21
21.80096551746561
 31
0.0
  0
LINE
  5
17F
330
1F
100
AcDbEntity
  8
OBJECT
100
AcDbLine
 10
11.17683460684337
 20
20.80096551746561
 30
0.0
 11
10.83883460684337
 21
20.80096551746561
 31
0.0
  0
LINE
  5
180
330
1F
100
AcDbEntity
  8
OBJECT
100
AcDbLine
 10
11.17683460684337
 20
19.8009655174656
 30
0.0
 11
10.83883460684337
 21
19.8009655174656
 31
0.0
  0
LWPOLYLINE
  5
181
330
1F
100
AcDbEntity
  8
OBJECT
100
AcDbPolyline
 90
        6
 70
     1
 43
0.0
 10
11.17683460684337
 20
18.09996551746561
 10
10.67591502695654
 20
18.12621760024687
 42
-0.3989595459737193
 10
10.58683460684337
 20
18.2200887765138
 10
10.58683460684337
 20
26.24784225841742
 42
-0.3989595459737191
 10
10.67591502695654
 20
26.34171343468435
 10
11.17683460684337
 20
26.3679655174656
  0
LWPOLYLINE
  5
182
330
1F
100
AcDbEntity
  8
HIDDEN
100
AcDbPolyline
 90
        4
 70
     0
 43
0.0
 10
10.58683460684337
 20
23.2749655174656
 10
10.62683460684337
 20
23.2749655174656
 10
10.62683460684337
 20
25.89296551746561
 10
10.58683460684337
 20
25.89296551746561
  0
LWPOLYLINE
  5
183
330
1F
100
AcDbEntity
  8
OBJECT
100
AcDbPolyline
 90
        4
 70
     1
 43
0.0
 10
2.437700920390189
 20
23.2749655174656
 10
5.875700920390189
 20
23.2749655174656
 10
5.875700920390189
 20
25.89296551746561
 10
2.437700920390189
 20
25.8929655174656
  0
LWPOLYLINE
  5
184
330
1F
100
AcDbEntity
  8
OBJECT
100
AcDbPolyline
 90
       20
 70
     1
 43
0.0
 10
6.206681689470997
 20
23.32992243225046
 10
6.227809149370681
 20
23.46477600806134
 42
0.0770840305428704
 10
6.231492862125378
 20
25.85283611004092
 42
0.311822613138947
 10
5.967465924859173
 20
26.14129093268026
 10
5.777214991287362
 20
26.18484448723716
 42
0.1130018143730519
 10
2.536186849493063
 20
26.18484448723718
 10
2.345935915921202
 20
26.14129093268026
 42
0.3118226131389483
 10
2.081908978655
 20
25.85283611004092
 42
0.0770840305428745
 10
2.085592691409715
 20
23.46477600806122
 10
2.106720151309385
 20
23.32992243225045
 42
0.3693948065462246
 10
2.477200920390188
 20
23.01296551746561
 10
2.58620092039019
 20
23.01296551746561
 42
-0.4142135623730964
 10
2.680200920390191
 20
22.9189655174656
 10
2.680200920390191
 20
18.5199655174656
 42
0.3385078620518113
 10
2.910795521764544
 20
18.21839006144179
 42
0.095050991918662
 10
5.402606319015859
 20
18.2183900614418
 42
0.3385078620518056
 10
5.633200920390191
 20
18.51996551746561
 10
5.633200920390191
 20
22.9189655174656
 42
-0.4142135623730924
 10
5.727200920390192
 20
23.01296551746561
 10
5.83620092039019
 20
23.01296551746561
 42
0.3693948065462267
  0
LINE
  5
185
330
1F
100
AcDbEntity
  8
OBJECT
100
AcDbLine
 10
10.83883460684337
 20
22.65563882727648
 30
0.0
 11
10.83883460684337
 21
18.94763882727648
 31
0.0
  0
LWPOLYLINE
  5
186
330
1F
100
AcDbEntity
  8
OBJECT
100
AcDbPolyline
 90
        8
 70
     0
 43
0.0
 10
5.633200920390191
 20
18.94763882727648
 42
0.1554960448507145
 10
5.665450920390188
 20
19.5509655174656
 42
-0.1290036993297557
 10
5.665450920390188
 20
20.05096551746561
 42
0.1288509838392431
 10
5.665450920390188
 20
20.5509655174656
 42
-0.1290036993297555
 10
5.665450920390188
 20
21.05096551746561
 42
0.1288509838392431
 10
5.665450920390188
 20
21.5509655174656
 42
-0.1290036993297555
 10
5.665450920390188
 20
22.05096551746561
 42
0.1554960448507145
 10
5.633200920390191
 20
22.65429220765473
  0
LWPOLYLINE
  5
187
330
1F
100
AcDbEntity
  8
OBJECT
100
AcDbPolyline
 90
        8
 70
     0
 43
0.0
 10
2.680200920390191
 20
22.65429220765473
 42
0.1554960448507143
 10
2.64795092039019
 20
22.05096551746561
 42
-0.1290036993297555
 10
2.64795092039019
 20
21.5509655174656
 42
0.1288509838392429
 10
2.64795092039019
 20
21.05096551746561
 42
-0.1290036993297558
 10
2.64795092039019
 20
20.5509655174656
 42
0.1288509838392431
 10
2.64795092039019
 20
20.05096551746561
 42
-0.1290036993297555
 10
2.64795092039019
 20
19.5509655174656
 42
0.1554960448507144
 10
2.680200920390191
 20
18.94763882727648
  0
LWPOLYLINE
  5
188
330
1F
100
AcDbEntity
  8
HIDDEN
100
AcDbPolyline
 90
        4
 70
     0
 43
0.0
 10
10.58683460684337
 20
18.4599655174656
 10
10.62683460684337
 20
18.4599655174656
 10
10.62683460684337
 20
22.6099655174656
 10
10.58683460684337
 20
22.6099655174656
  0
LWPOLYLINE
  5
189
330
1F
100
AcDbEntity
  8
OBJECT
100
AcDbPolyline
 90
        4
 70
     1
 43
0.0
 10
5.390700920390189
 20
18.4599655174656
 10
5.390700920390191
 20
22.6099655174656
 10
2.922700920390188
 20
22.60996551746561
 10
2.922700920390188
 20
18.4599655174656
  0
LWPOLYLINE
  5
18A
330
1F
100
AcDbEntity
  8
HIDDEN
100
AcDbPolyline
 90
        4
 70
     0
 43
0.0
 10
2.922700920390187
 20
16.56870779627906
 10
2.922700920390187
 20
16.52870779627907
 10
5.390700920390189
 20
16.52870779627906
 10
5.390700920390189
 20
16.56870779627906
  0
LWPOLYLINE
  5
18B
330
1F
100
AcDbEntity
  8
HIDDEN
100
AcDbPolyline
 90
        4
 70
     0
 43
0.0
 10
2.437700920390186
 20
16.56870779627906
 10
2.437700920390186
 20
16.52870779627907
 10
5.875700920390187
 20
16.52870779627906
 10
5.875700920390187
 20
16.56870779627906
  0
LWPOLYLINE
  5
18C
330
1F
100
AcDbEntity
  8
OBJECT
100
AcDbPolyline
 90
       20
 70
     1
 43
0.0
 10
19.73750989799138
 20
23.32992243225046
 10
19.75863735789107
 20
23.46477600806134
 42
0.0770840305428704
 10
19.76232107064577
 20
25.85283611004092
 42
0.311822613138947
 10
19.49829413337956
 20
26.14129093268026
 10
19.30804319980775
 20
26.18484448723716
 42
0.1130018143730519
 10
16.06701505801345
 20
26.18484448723718
 10
15.87676412444159
 20
26.14129093268026
 42
0.3118226131389483
 10
15.61273718717539
 20
25.85283611004092
 42
0.0770840305428745
 10
15.6164208999301
 20
23.46477600806122
 10
15.63754835982977
 20
23.32992243225045
 42
0.3693948065462246
 10
16.00802912891057
 20
23.01296551746561
 10
16.11702912891058
 20
23.01296551746561
 42
-0.4142135623730964
 10
16.21102912891058
 20
22.9189655174656
 10
16.21102912891058
 20
18.5199655174656
 42
0.3385078620518113
 10
16.44162373028493
 20
18.21839006144179
 42
0.095050991918662
 10
18.93343452753624
 20
18.2183900614418
 42
0.3385078620518056
 10
19.16402912891058
 20
18.51996551746561
 10
19.16402912891058
 20
22.9189655174656
 42
-0.4142135623730924
 10
19.25802912891058
 20
23.01296551746561
 10
19.36702912891058
 20
23.01296551746561
 42
0.3693948065462267
  0
LWPOLYLINE
  5
18D
330
1F
100
AcDbEntity
  8
OBJECT
100
AcDbPolyline
 90
        6
 70
     1
 43
0.0
 10
12.16083460684337
 20
18.41609750435568
 42
-0.3989595459737198
 10
11.89454101054764
 20
18.13548260508964
 10
11.21683460684337
 20
18.09996551746561
 10
11.21683460684337
 20
26.3679655174656
 10
11.89454101054764
 20
26.33244842984157
 42
-0.3989595459737197
 10
12.16083460684337
 20
26.05183353057553
  0
LWPOLYLINE
  5
18E
330
1F
100
AcDbEntity
  8
OBJECT
100
AcDbPolyline
 90
        4
 70
     0
 43
0.0
 10
11.21683460684337
 20
18.11996551746561
 10
11.17683460684337
 20
18.11996551746561
 10
11.17683460684337
 20
26.34796551746561
 10
11.21683460684337
 20
26.34796551746561
  0
LWPOLYLINE
  5
18F
330
1F
100
AcDbEntity
  8
OBJECT
100
AcDbPolyline
 90
        7
 70
     0
 43
0.0
 10
11.21683460684337
 20
22.65563882727648
 10
11.71683460684337
 20
22.65563882727648
 42
-0.2199670889940405
 10
11.71683460684337
 20
21.80096551746561
 42
-0.1880000000000001
 10
11.71683460684337
 20
20.80096551746561
 42
-0.1880000000000001
 10
11.71683460684337
 20
19.8009655174656
 42
-0.2203142151317614
 10
11.71683460684337
 20
18.94763882727648
 10
11.21683460684337
 20
18.94763882727648
  0
LWPOLYLINE
  5
190
330
1F
100
AcDbEntity
  8
OBJECT
100
AcDbPolyline
 90
        8
 70
     0
 43
0.0
 10
16.21102912891058
 20
22.65429220765473
 42
0.1554960448507143
 10
16.17877912891058
 20
22.05096551746561
 42
-0.1290036993297555
 10
16.17877912891058
 20
21.5509655174656
 42
0.128850983839243
 10
16.17877912891058
 20
21.05096551746561
 42
-0.1290036993297555
 10
16.17877912891058
 20
20.5509655174656
 42
0.128850983839243
 10
16.17877912891058
 20
20.05096551746561
 42
-0.1290036993297555
 10
16.17877912891058
 20
19.5509655174656
 42
0.1554960448507143
 10
16.21102912891058
 20
18.94763882727648
  0
LINE
  5
191
330
1F
100
AcDbEntity
  8
OBJECT
100
AcDbLine
 10
11.71683460684337
 20
18.94763882727648
 30
0.0
 11
11.71683460684337
 21
22.65563882727648
 31
0.0
  0
LINE
  5
192
330
1F
100
AcDbEntity
  8
OBJECT
100
AcDbLine
 10
11.21683460684337
 20
19.8009655174656
 30
0.0
 11
11.71683460684337
 21
19.8009655174656
 31
0.0
  0
CIRCLE
  5
193
330
1F
100
AcDbEntity
  8
OBJECT
100
AcDbCircle
 10
16.51852912891057
 20
18.51996551746561
 30
0.0
 40
0.1325
  0
CIRCLE
  5
194
330
1F
100
AcDbEntity
  8
OBJECT
100
AcDbCircle
 10
16.51852912891057
 20
18.51996551746561
 30
0.0
 40
0.0615
  0
LINE
  5
195
330
1F
100
AcDbEntity
  8
OBJECT
100
AcDbLine
 10
11.21683460684337
 20
20.80096551746561
 30
0.0
 11
11.71683460684337
 21
20.80096551746561
 31
0.0
  0
LINE
  5
196
330
1F
100
AcDbEntity
  8
OBJECT
100
AcDbLine
 10
11.21683460684337
 20
21.80096551746561
 30
0.0
 11
11.71683460684337
 21
21.80096551746561
 31
0.0
  0
LWPOLYLINE
  5
197
330
1F
100
AcDbEntity
  8
OBJECT
100
AcDbPolyline
 90
        3
 70
     0
 43
0.0
 10
11.21683460684337
 20
23.01296551746561
 10
11.89454101054764
 20
23.04848260508964
 42
0.3989595459737198
 10
12.16083460684337
 20
23.32909750435568
  0
LINE
  5
198
330
1F
100
AcDbEntity
  8
OBJECT
100
AcDbLine
 10
11.17683460684337
 20
23.03296551746561
 30
0.0
 11
11.21683460684337
 21
23.03296551746561
 31
0.0
  0
CIRCLE
  5
199
330
1F
100
AcDbEntity
  8
OBJECT
100
AcDbCircle
 10
17.68752912891057
 20
23.1279655174656
 30
0.0
 40
0.0465
  0
LWPOLYLINE
  5
19A
330
1F
100
AcDbEntity
  8
OBJECT
100
AcDbPolyline
 90
        8
 70
     0
 43
0.0
 10
19.16402912891057
 20
22.65429220765473
 42
-0.1554960448507143
 10
19.19627912891058
 20
22.05096551746561
 42
0.1290036993297555
 10
19.19627912891058
 20
21.5509655174656
 42
-0.128850983839243
 10
19.19627912891058
 20
21.05096551746561
 42
0.1290036993297555
 10
19.19627912891058
 20
20.5509655174656
 42
-0.128850983839243
 10
19.19627912891058
 20
20.05096551746561
 42
0.1290036993297555
 10
19.19627912891058
 20
19.5509655174656
 42
-0.1554960448507143
 10
19.16402912891057
 20
18.94763882727648
  0
CIRCLE
  5
19B
330
1F
100
AcDbEntity
  8
OBJECT
100
AcDbCircle
 10
18.85652912891058
 20
18.51996551746561
 30
0.0
 40
0.1325
  0
CIRCLE
  5
19C
330
1F
100
AcDbEntity
  8
OBJECT
100
AcDbCircle
 10
18.85652912891058
 20
18.51996551746561
 30
0.0
 40
0.0615
  0
LINE
  5
19D
330
1F
100
AcDbEntity
  8
OBJECT
100
AcDbLine
 10
12.19083460684337
 20
24.4629655174656
 30
0.0
 11
12.16083460684338
 21
24.4629655174656
 31
0.0
  0
LINE
  5
19E
330
1F
100
AcDbEntity
  8
OBJECT
100
AcDbLine
 10
12.19083460684337
 20
24.70096551746561
 30
0.0
 11
12.16083460684338
 21
24.70096551746561
 31
0.0
  0
LINE
  5
19F
330
1F
100
AcDbEntity
  8
OBJECT
100
AcDbLine
 10
12.19083460684337
 20
24.4629655174656
 30
0.0
 11
12.19083460684337
 21
24.70096551746561
 31
0.0
  0
LINE
  5
1A0
330
1F
100
AcDbEntity
  8
OBJECT
100
AcDbLine
 10
16.54652912891059
 20
24.70096551746561
 30
0.0
 11
16.78452912891059
 21
24.70096551746561
 31
0.0
  0
LINE
  5
1A1
330
1F
100
AcDbEntity
  8
OBJECT
100
AcDbLine
 10
16.58852912891059
 20
24.65896551746561
 30
0.0
 11
16.78452912891059
 21
24.6589655174656
 31
0.0
  0
LINE
  5
1A2
330
1F
100
AcDbEntity
  8
OBJECT
100
AcDbLine
 10
16.54652912891059
 20
24.46296551746561
 30
0.0
 11
16.58852912891059
 21
24.4629655174656
 31
0.0
  0
LINE
  5
1A3
330
1F
100
AcDbEntity
  8
OBJECT
100
AcDbLine
 10
16.54652912891059
 20
24.70096551746561
 30
0.0
 11
16.54652912891059
 21
24.4629655174656
 31
0.0
  0
LINE
  5
1A4
330
1F
100
AcDbEntity
  8
OBJECT
100
AcDbLine
 10
16.58852912891059
 20
24.65896551746561
 30
0.0
 11
16.58852912891059
 21
24.4629655174656
 31
0.0
  0
LINE
  5
1A5
330
1F
100
AcDbEntity
  8
OBJECT
100
AcDbLine
 10
16.78452912891059
 20
24.70096551746561
 30
0.0
 11
16.78452912891059
 21
24.65896551746561
 31
0.0
  0
CIRCLE
  5
1A6
330
1F
100
AcDbEntity
  8
OBJECT
100
AcDbCircle
 10
15.91652912891057
 20
25.83196551746561
 30
0.0
 40
0.1325
  0
CIRCLE
  5
1A7
330
1F
100
AcDbEntity
  8
OBJECT
100
AcDbCircle
 10
15.91652912891057
 20
25.83196551746561
 30
0.0
 40
0.0615
  0
LINE
  5
1A8
330
1F
100
AcDbEntity
  8
OBJECT
100
AcDbLine
 10
18.82852912891058
 20
24.70096551746561
 30
0.0
 11
18.59052912891058
 21
24.70096551746561
 31
0.0
  0
LINE
  5
1A9
330
1F
100
AcDbEntity
  8
OBJECT
100
AcDbLine
 10
18.78652912891058
 20
24.65896551746561
 30
0.0
 11
18.59052912891058
 21
24.6589655174656
 31
0.0
  0
LINE
  5
1AA
330
1F
100
AcDbEntity
  8
OBJECT
100
AcDbLine
 10
18.59052912891058
 20
24.70096551746561
 30
0.0
 11
18.59052912891058
 21
24.65896551746561
 31
0.0
  0
LINE
  5
1AB
330
1F
100
AcDbEntity
  8
OBJECT
100
AcDbLine
 10
18.82852912891058
 20
24.46296551746561
 30
0.0
 11
18.78652912891058
 21
24.4629655174656
 31
0.0
  0
LINE
  5
1AC
330
1F
100
AcDbEntity
  8
OBJECT
100
AcDbLine
 10
18.78652912891058
 20
24.65896551746561
 30
0.0
 11
18.78652912891058
 21
24.4629655174656
 31
0.0
  0
LINE
  5
1AD
330
1F
100
AcDbEntity
  8
OBJECT
100
AcDbLine
 10
18.82852912891058
 20
24.70096551746561
 30
0.0
 11
18.82852912891058
 21
24.4629655174656
 31
0.0
  0
CIRCLE
  5
1AE
330
1F
100
AcDbEntity
  8
OBJECT
100
AcDbCircle
 10
19.45852912891058
 20
25.83196551746561
 30
0.0
 40
0.1325
  0
CIRCLE
  5
1AF
330
1F
100
AcDbEntity
  8
OBJECT
100
AcDbCircle
 10
19.45852912891058
 20
25.83196551746561
 30
0.0
 40
0.0615
  0
LINE
  5
1B0
330
1F
100
AcDbEntity
  8
OBJECT
100
AcDbLine
 10
10.71014014604521
 20
3.370063346260181
 30
0.0
 11
10.25014014604521
 21
3.370063346260181
 31
0.0
  0
LINE
  5
1B1
330
1F
100
AcDbEntity
  8
HIDDEN
  6
HIDDEN2
100
AcDbLine
 10
10.71014014604521
 20
3.013799890292894
 30
0.0
 11
10.32014014604522
 21
3.013799890292894
 31
0.0
  0
LINE
  5
1B2
330
1F
100
AcDbEntity
  8
HIDDEN
  6
HIDDEN2
100
AcDbLine
 10
10.71014014604521
 20
3.027799890292897
 30
0.0
 11
10.32014014604522
 21
3.027799890292897
 31
0.0
  0
LINE
  5
1B3
330
1F
100
AcDbEntity
  8
HIDDEN
  6
HIDDEN2
100
AcDbLine
 10
10.71014014604521
 20
3.117799890292893
 30
0.0
 11
10.32014014604522
 21
3.117799890292893
 31
0.0
  0
LINE
  5
1B4
330
1F
100
AcDbEntity
  8
HIDDEN
  6
HIDDEN2
100
AcDbLine
 10
10.71014014604521
 20
3.131799890292896
 30
0.0
 11
10.32014014604522
 21
3.131799890292896
 31
0.0
  0
LINE
  5
1B5
330
1F
100
AcDbEntity
  8
HIDDEN
  6
HIDDEN2
100
AcDbLine
 10
10.71014014604521
 20
2.986799890292896
 30
0.0
 11
10.23014014604521
 21
2.986799890292896
 31
0.0
  0
LINE
  5
1B6
330
1F
100
AcDbEntity
  8
HIDDEN
  6
HIDDEN2
100
AcDbLine
 10
10.71014014604521
 20
3.158799890292893
 30
0.0
 11
10.23014014604521
 21
3.158799890292893
 31
0.0
  0
LINE
  5
1B7
330
1F
100
AcDbEntity
  8
HIDDEN
  6
HIDDEN2
100
AcDbLine
 10
10.71014014604521
 20
10.47079989029289
 30
0.0
 11
10.23014014604521
 21
10.47079989029289
 31
0.0
  0
LINE
  5
1B8
330
1F
100
AcDbEntity
  8
HIDDEN
  6
HIDDEN2
100
AcDbLine
 10
10.71014014604521
 20
10.29879989029289
 30
0.0
 11
10.23014014604521
 21
10.29879989029289
 31
0.0
  0
LINE
  5
1B9
330
1F
100
AcDbEntity
  8
HIDDEN
  6
HIDDEN2
100
AcDbLine
 10
10.71014014604521
 20
10.44379989029289
 30
0.0
 11
10.32014014604522
 21
10.44379989029289
 31
0.0
  0
LINE
  5
1BA
330
1F
100
AcDbEntity
  8
HIDDEN
  6
HIDDEN2
100
AcDbLine
 10
10.71014014604521
 20
10.42979989029289
 30
0.0
 11
10.32014014604522
 21
10.42979989029289
 31
0.0
  0
LINE
  5
1BB
330
1F
100
AcDbEntity
  8
HIDDEN
  6
HIDDEN2
100
AcDbLine
 10
10.71014014604521
 20
10.33979989029289
 30
0.0
 11
10.32014014604522
 21
10.33979989029289
 31
0.0
  0
LINE
  5
1BC
330
1F
100
AcDbEntity
  8
HIDDEN
  6
HIDDEN2
100
AcDbLine
 10
10.71014014604521
 20
10.32579989029289
 30
0.0
 11
10.32014014604522
 21
10.32579989029289
 31
0.0
  0
LINE
  5
1BD
330
1F
100
AcDbEntity
  8
OBJECT
100
AcDbLine
 10
10.71014014604521
 20
10.0875364343256
 30
0.0
 11
10.25014014604521
 21
10.0875364343256
 31
0.0
  0
LWPOLYLINE
  5
1BE
102
{ACAD_REACTORS
330
2F56
102
}
330
1F
100
AcDbEntity
  8
OBJECT
100
AcDbPolyline
 90
        4
 70
     0
 43
0.0
 10
10.71014014604521
 20
10.74104657403707
 10
10.25014014604521
 20
10.71644528954307
 10
10.25014014604521
 20
2.857154491042718
 10
10.71014014604521
 20
2.832553206548718
  0
LWPOLYLINE
  5
1C1
102
{ACAD_REACTORS
330
2F56
102
}
330
1F
100
AcDbEntity
  8
OBJECT
100
AcDbPolyline
 90
        2
 70
     0
 43
0.0
 10
10.71014014604521
 20
10.78579989029289
 10
10.71014014604521
 20
2.787799890292893
  0
LWPOLYLINE
  5
1C2
330
1F
100
AcDbEntity
  8
HIDDEN
  6
HIDDEN2
100
AcDbPolyline
 90
        4
 70
     0
 43
0.0
 10
10.44014014604521
 20
7.070799890292892
 10
10.19014014604521
 20
7.070799890292892
 10
10.19014014604521
 20
7.168799890292891
 10
10.44014014604521
 20
7.168799890292891
  0
LWPOLYLINE
  5
1C3
330
1F
100
AcDbEntity
  8
OBJECT
100
AcDbPolyline
 90
        4
 70
     0
 43
0.0
 10
10.25014014604521
 20
7.264799890292891
 10
10.44014014604521
 20
7.244799890292892
 10
10.44014014604521
 20
6.994799890292892
 10
10.25014014604521
 20
6.974799890292892
  0
LWPOLYLINE
  5
1C4
330
1F
100
AcDbEntity
  8
HIDDEN
  6
HIDDEN2
100
AcDbPolyline
 90
        4
 70
     0
 43
0.0
 10
10.44014014604521
 20
5.298799890292892
 10
10.19014014604521
 20
5.298799890292892
 10
10.19014014604521
 20
5.396799890292891
 10
10.44014014604521
 20
5.396799890292891
  0
LWPOLYLINE
  5
1C5
330
1F
100
AcDbEntity
  8
OBJECT
100
AcDbPolyline
 90
        4
 70
     0
 43
0.0
 10
10.25014014604521
 20
5.492799890292891
 10
10.44014014604521
 20
5.472799890292892
 10
10.44014014604521
 20
5.222799890292892
 10
10.25014014604521
 20
5.202799890292892
  0
LWPOLYLINE
  5
1C6
330
1F
100
AcDbEntity
  8
OBJECT
100
AcDbPolyline
 90
        4
 70
     0
 43
0.0
 10
10.25014014604521
 20
3.692799890292892
 10
10.44014014604521
 20
3.672799890292892
 10
10.44014014604521
 20
3.422799890292892
 10
10.25014014604521
 20
3.402799890292891
  0
LWPOLYLINE
  5
1C7
330
1F
100
AcDbEntity
  8
HIDDEN
  6
HIDDEN2
100
AcDbPolyline
 90
        4
 70
     0
 43
0.0
 10
10.44014014604521
 20
3.498799890292891
 10
10.19014014604521
 20
3.498799890292892
 10
10.19014014604521
 20
3.596799890292891
 10
10.44014014604521
 20
3.596799890292892
  0
LINE
  5
1C8
330
1F
100
AcDbEntity
  8
OBJECT
100
AcDbLine
 10
10.71014014604521
 20
7.745553206548716
 30
0.0
 11
10.25014014604521
 21
7.770154491042717
 31
0.0
  0
LWPOLYLINE
  5
1CD
102
{ACAD_REACTORS
330
2F56
102
}
330
1F
100
AcDbEntity
  8
OBJECT
100
AcDbPolyline
 90
        4
 70
     0
 43
0.0
 10
10.12014014604521
 20
3.012799890292891
 10
10.16014014604521
 20
3.012799890292891
 10
10.16014014604522
 20
7.162799890292891
 10
10.12014014604521
 20
7.162799890292891
  0
LINE
  5
1CE
330
1F
100
AcDbEntity
  8
HIDDEN
  6
HIDDEN2
100
AcDbLine
 10
10.32014014604522
 20
2.986799890292896
 30
0.0
 11
10.32014014604522
 21
3.158799890292893
 31
0.0
  0
LINE
  5
1CF
330
1F
100
AcDbEntity
  8
HIDDEN
  6
HIDDEN2
100
AcDbLine
 10
10.23014014604521
 20
2.986799890292896
 30
0.0
 11
10.23014014604521
 21
3.158799890292893
 31
0.0
  0
LWPOLYLINE
  5
1D0
102
{ACAD_REACTORS
330
2F56
102
}
330
1F
100
AcDbEntity
  8
OBJECT
100
AcDbPolyline
 90
        4
 70
     0
 43
0.0
 10
10.12014014604521
 20
7.827799890292892
 10
10.16014014604522
 20
7.827799890292892
 10
10.16014014604522
 20
10.44579989029289
 10
10.12014014604521
 20
10.44579989029289
  0
LINE
  5
1D1
330
1F
100
AcDbEntity
  8
HIDDEN
  6
HIDDEN2
100
AcDbLine
 10
10.23014014604521
 20
10.29879989029289
 30
0.0
 11
10.23014014604521
 21
10.47079989029289
 31
0.0
  0
LINE
  5
1D2
330
1F
100
AcDbEntity
  8
HIDDEN
  6
HIDDEN2
100
AcDbLine
 10
10.32014014604522
 20
10.29879989029289
 30
0.0
 11
10.32014014604522
 21
10.47079989029289
 31
0.0
  0
LWPOLYLINE
  5
1D3
102
{ACAD_REACTORS
330
2F56
102
}
330
1F
100
AcDbEntity
  8
OBJECT
100
AcDbPolyline
 90
        4
 70
     0
 43
0.0
 10
10.71014014604521
 20
2.787799890292893
 10
10.59014014604521
 20
2.787799890292893
 10
10.59014014604521
 20
2.702799890292892
 10
10.71014014604521
 20
2.702799890292892
  0
LWPOLYLINE
  5
1D7
102
{ACAD_REACTORS
330
2F56
102
}
330
1F
100
AcDbEntity
  8
OBJECT
100
AcDbPolyline
 90
        4
 70
     0
 43
0.0
 10
10.71014014604521
 20
10.78579989029289
 10
10.59014014604521
 20
10.78579989029289
 10
10.59014014604521
 20
10.87079989029289
 10
10.71014014604521
 20
10.87079989029289
  0
LWPOLYLINE
  5
1D8
330
1F
100
AcDbEntity
  8
OBJECT
100
AcDbPolyline
 90
        6
 70
     0
 43
0.0
 10
10.66014014604521
 20
10.79579989029289
 10
11.44568214057559
 20
10.75963137882598
 42
-0.3989595459737192
 10
11.56414014604522
 20
10.63480268698166
 10
11.56414014604522
 20
2.938797093604121
 42
-0.3989595459737193
 10
11.44568214057559
 20
2.8139684017598
 10
10.66014014604521
 20
2.777799890292893
  0
LWPOLYLINE
  5
1D9
330
1F
100
AcDbEntity
  8
OBJECT
100
AcDbPolyline
 90
        3
 70
     0
 43
0.0
 10
10.75014014604521
 20
2.672799890292895
 10
10.71014014604522
 20
2.672799890292895
 10
10.71014014604521
 20
2.727799890292895
  0
LWPOLYLINE
  5
1DA
330
1F
100
AcDbEntity
  8
OBJECT
100
AcDbPolyline
 90
        3
 70
     0
 43
0.0
 10
10.71014014604521
 20
2.727799890292895
 10
10.66014014604521
 20
2.727799890292895
 10
10.66014014604521
 20
2.777799890292893
  0
LWPOLYLINE
  5
1DB
330
1F
100
AcDbEntity
  8
OBJECT
100
AcDbPolyline
 90
        8
 70
     0
 43
0.0
 10
10.75014014604521
 20
10.90079989029289
 10
10.75014014604521
 20
10.92079989029289
 10
11.42784654974948
 20
10.88528280266885
 42
-0.3989595459737197
 10
11.69414014604521
 20
10.60466790340282
 10
11.69414014604521
 20
2.968931877182966
 42
-0.3989595459737197
 10
11.42784654974948
 20
2.688316977916932
 10
10.75014014604521
 20
2.652799890292896
 10
10.75014014604521
 20
2.672799890292895
  0
LINE
  5
1DE
330
1F
100
AcDbEntity
  8
OBJECT
100
AcDbLine
 10
10.71014014604521
 20
3.310063346260182
 30
0.0
 11
11.56414014604522
 21
3.310063346260182
 31
0.0
  0
LWPOLYLINE
  5
1DF
330
1F
100
AcDbEntity
  8
HIDDEN
  6
HIDDEN2
100
AcDbPolyline
 90
        4
 70
     0
 43
0.0
 10
10.71014014604521
 20
3.011299890292893
 10
11.48746398913252
 20
3.011299890292893
 10
11.56914014604521
 20
2.940299890292894
 10
11.69267763785396
 20
2.940299890292894
  0
LWPOLYLINE
  5
1E0
330
1F
100
AcDbEntity
  8
HIDDEN
  6
HIDDEN2
100
AcDbPolyline
 90
        4
 70
     0
 43
0.0
 10
10.71014014604521
 20
3.134299890292894
 10
11.48746398913252
 20
3.134299890292894
 10
11.56914014604521
 20
3.205299890292894
 10
11.69414014604521
 20
3.205299890292894
  0
LINE
  5
1E2
330
1F
100
AcDbEntity
  8
HIDDEN
  6
HIDDEN2
100
AcDbLine
 10
11.48746398913252
 20
3.134299890292897
 30
0.0
 11
11.48746398913252
 21
3.011299890292892
 31
0.0
  0
LWPOLYLINE
  5
1E3
330
1F
100
AcDbEntity
  8
OBJECT
100
AcDbPolyline
 90
        4
 70
     0
 43
0.0
 10
11.56414014604522
 20
3.737799890292888
 10
11.37414014604521
 20
3.717799890292888
 10
11.37414014604521
 20
3.467799890292888
 10
11.56414014604522
 20
3.447799890292888
  0
LWPOLYLINE
  5
1E4
330
1F
100
AcDbEntity
  8
HIDDEN
  6
HIDDEN2
100
AcDbPolyline
 90
        4
 70
     0
 43
0.0
 10
11.37414014604521
 20
3.543799890292888
 10
11.62414014604521
 20
3.543799890292889
 10
11.62414014604522
 20
3.641799890292888
 10
11.37414014604521
 20
3.641799890292888
  0
LWPOLYLINE
  5
1E5
330
1F
100
AcDbEntity
  8
OBJECT
100
AcDbPolyline
 90
        3
 70
     0
 43
0.0
 10
10.71014014604521
 20
7.688420279257041
 10
11.44568214057559
 20
7.726968401759798
 42
0.3989595459737193
 10
11.56414014604522
 20
7.851797093604119
  0
LWPOLYLINE
  5
1EB
330
1F
100
AcDbEntity
  8
OBJECT
100
AcDbPolyline
 90
        4
 70
     0
 43
0.0
 10
11.56414014604522
 20
5.537799890292887
 10
11.37414014604521
 20
5.517799890292888
 10
11.37414014604521
 20
5.267799890292888
 10
11.56414014604522
 20
5.247799890292887
  0
LWPOLYLINE
  5
1EC
330
1F
100
AcDbEntity
  8
HIDDEN
  6
HIDDEN2
100
AcDbPolyline
 90
        4
 70
     0
 43
0.0
 10
11.37414014604521
 20
5.343799890292888
 10
11.62414014604521
 20
5.343799890292888
 10
11.62414014604522
 20
5.441799890292887
 10
11.37414014604521
 20
5.441799890292887
  0
LWPOLYLINE
  5
1ED
330
1F
100
AcDbEntity
  8
HIDDEN
  6
HIDDEN2
100
AcDbPolyline
 90
        4
 70
     0
 43
0.0
 10
11.37414014604521
 20
7.115799890292889
 10
11.62414014604521
 20
7.115799890292889
 10
11.62414014604522
 20
7.213799890292888
 10
11.37414014604521
 20
7.213799890292888
  0
LWPOLYLINE
  5
1EE
330
1F
100
AcDbEntity
  8
OBJECT
100
AcDbPolyline
 90
        4
 70
     0
 43
0.0
 10
11.56414014604522
 20
7.309799890292888
 10
11.37414014604521
 20
7.289799890292888
 10
11.37414014604521
 20
7.039799890292888
 10
11.56414014604522
 20
7.019799890292889
  0
LWPOLYLINE
  5
1EF
330
1F
100
AcDbEntity
  8
OBJECT
100
AcDbPolyline
 90
        4
 70
     0
 43
0.0
 10
11.56414014604522
 20
7.543299890292889
 10
11.42414014604522
 20
7.560799890292891
 10
11.42414014604522
 20
7.800799890292893
 10
11.56414014604522
 20
7.818299890292887
  0
LWPOLYLINE
  5
1F0
330
1F
100
AcDbEntity
  8
HIDDEN
  6
HIDDEN2
100
AcDbPolyline
 90
        4
 70
     0
 43
0.0
 10
11.37414014604521
 20
7.96679989029289
 10
11.62414014604521
 20
7.96679989029289
 10
11.62414014604522
 20
8.064799890292889
 10
11.37414014604521
 20
8.064799890292889
  0
LWPOLYLINE
  5
1F1
330
1F
100
AcDbEntity
  8
OBJECT
100
AcDbPolyline
 90
        4
 70
     0
 43
0.0
 10
11.56414014604522
 20
8.160799890292889
 10
11.37414014604521
 20
8.140799890292889
 10
11.37414014604521
 20
7.890799890292889
 10
11.56414014604522
 20
7.870799890292889
  0
LWPOLYLINE
  5
1F2
330
1F
100
AcDbEntity
  8
HIDDEN
  6
HIDDEN2
100
AcDbPolyline
 90
        4
 70
     0
 43
0.0
 10
10.71014014604521
 20
10.44629989029289
 10
11.48746398913252
 20
10.44629989029289
 10
11.56914014604521
 20
10.51729989029289
 10
11.69414014604521
 20
10.51729989029289
  0
LWPOLYLINE
  5
1F3
330
1F
100
AcDbEntity
  8
HIDDEN
  6
HIDDEN2
100
AcDbPolyline
 90
        4
 70
     0
 43
0.0
 10
10.71014014604521
 20
10.32329989029289
 10
11.48746398913252
 20
10.32329989029289
 10
11.56914014604521
 20
10.25229989029289
 10
11.69414014604521
 20
10.25229989029289
  0
LINE
  5
1F4
330
1F
100
AcDbEntity
  8
OBJECT
100
AcDbLine
 10
10.71014014604521
 20
10.1475364343256
 30
0.0
 11
11.56414014604522
 21
10.1475364343256
 31
0.0
  0
LWPOLYLINE
  5
1F5
330
1F
100
AcDbEntity
  8
OBJECT
100
AcDbPolyline
 90
        4
 70
     0
 43
0.0
 10
11.56414014604522
 20
10.16079989029288
 10
11.37414014604521
 20
10.14079989029289
 10
11.37414014604521
 20
9.890799890292889
 10
11.56414014604522
 20
9.870799890292889
  0
LINE
  5
1F6
330
1F
100
AcDbEntity
  8
OBJECT
100
AcDbLine
 10
11.72414014604521
 20
9.015799890292889
 30
0.0
 11
11.72414014604521
 21
9.253799890292892
 31
0.0
  0
LINE
  5
1F7
330
1F
100
AcDbEntity
  8
OBJECT
100
AcDbLine
 10
11.72414014604521
 20
9.253799890292892
 30
0.0
 11
11.69414014604522
 21
9.253799890292892
 31
0.0
  0
LINE
  5
1F8
330
1F
100
AcDbEntity
  8
OBJECT
100
AcDbLine
 10
11.72414014604521
 20
9.015799890292889
 30
0.0
 11
11.69414014604522
 21
9.015799890292889
 31
0.0
  0
LWPOLYLINE
  5
1F9
330
1F
100
AcDbEntity
  8
HIDDEN
  6
HIDDEN2
100
AcDbPolyline
 90
        4
 70
     0
 43
0.0
 10
11.37414014604521
 20
9.96679989029289
 10
11.62414014604521
 20
9.96679989029289
 10
11.62414014604522
 20
10.06479989029289
 10
11.37414014604521
 20
10.06479989029289
  0
LINE
  5
1FA
330
1F
100
AcDbEntity
  8
HIDDEN
  6
HIDDEN2
100
AcDbLine
 10
11.48746398913252
 20
10.44629989029289
 30
0.0
 11
11.48746398913252
 21
10.32329989029289
 31
0.0
  0
LWPOLYLINE
  5
1FB
330
1F
100
AcDbEntity
  8
OBJECT
100
AcDbPolyline
 90
       36
 70
     1
 43
0.0
 10
15.63617987428136
 20
8.020706012098155
 42
-0.0770891660394078
 10
15.63252969780322
 20
10.40279267639198
 42
-0.3119531727570723
 10
15.88122720609669
 20
10.67462964183222
 10
16.07147813966745
 20
10.71818319638892
 42
-0.113001814373084
 10
19.3035801181523
 20
10.71818319638924
 10
19.49383105172447
 20
10.67462964183226
 42
-0.3119531727641354
 10
19.74252856001919
 20
10.40279267638373
 42
-0.077089166039067
 10
19.73887838354012
 20
8.020706012100308
 10
19.71775092364041
 20
7.885852436289226
 42
-0.3693948065462402
 10
19.36702912891058
 20
7.585799890292891
 10
19.25802912891057
 20
7.585799890292893
 42
0.4142135623731111
 10
19.14402912891058
 20
7.471799890292892
 10
19.14402912891058
 20
7.203448101538704
 42
-0.1564487256774723
 10
19.17693013759761
 20
6.608861189708234
 42
0.1289991726467503
 10
19.1769331400218
 20
6.098727147155089
 42
-0.1288494193952256
 10
19.17693314005256
 20
5.608872633548046
 42
0.1290021644652096
 10
19.17693314005872
 20
5.098727147014211
 42
-0.1288494193349975
 10
19.17693314007371
 20
4.608872633628656
 42
0.1289991726972463
 10
19.17693013759635
 20
4.09873859088235
 42
-0.1564487256787764
 10
19.14402912891058
 20
3.504151679047082
 10
19.14402912891058
 20
3.072799890292894
 42
-0.3377982415780615
 10
18.92891134649978
 20
2.79072145722699
 42
-0.0949921508970573
 10
16.44614691132004
 20
2.790721457227244
 42
-0.337798241576757
 10
16.23102912891057
 20
3.072799890292892
 10
16.23102912891057
 20
3.504151679047082
 42
-0.1564487256818472
 10
16.19812812022776
 20
4.098738590893633
 42
0.128999172676186
 10
16.19812511776562
 20
4.60887263355938
 42
-0.1288494193779704
 10
16.1981251177857
 20
5.098727147102962
 42
0.1290021644516999
 10
16.19812511775887
 20
5.608872633585119
 42
-0.1288494193187589
 10
16.19812511773533
 20
6.09872714691096
 42
0.1289991727061673
 10
16.19812812022794
 20
6.608861189691384
 42
-0.1564487256820551
 10
16.23102912891057
 20
7.203448101538702
 10
16.23102912891057
 20
7.471799890292892
 42
0.4142135623730951
 10
16.11702912891058
 20
7.585799890292891
 10
16.00802912891057
 20
7.585799890292893
 42
-0.3693948065461502
 10
15.65730733418079
 20
7.885852436289116
  0
LWPOLYLINE
  5
1FE
330
1F
100
AcDbEntity
  8
OBJECT
100
AcDbPolyline
 90
       36
 70
     1
 43
0.0
 10
19.75863735789106
 20
8.017610380888626
 42
0.0770840305428704
 10
19.76232107064577
 20
10.4056704828682
 42
0.3118226131389475
 10
19.49829413337956
 20
10.69412530550754
 10
19.30804319980774
 20
10.73767886006445
 42
0.1130018143730519
 10
16.06701505801345
 20
10.73767886006445
 10
15.87676412444159
 20
10.69412530550754
 42
0.3118226131389479
 10
15.61273718717538
 20
10.4056704828682
 42
0.0770840305428744
 10
15.6164208999301
 20
8.017610380888504
 10
15.63754835982977
 20
7.882756805077736
 42
0.3693948065462249
 10
16.00802912891057
 20
7.565799890292892
 10
16.11702912891058
 20
7.565799890292892
 42
-0.4142135623730951
 10
16.21102912891058
 20
7.471799890292892
 10
16.21102912891058
 20
7.207126580482015
 42
0.1554960448507143
 10
16.17877912891057
 20
6.603799890292894
 42
-0.1290036993297555
 10
16.17877912891057
 20
6.10379989029289
 42
0.128850983839243
 10
16.17877912891057
 20
5.603799890292896
 42
-0.1290036993297555
 10
16.17877912891057
 20
5.10379989029289
 42
0.128850983839243
 10
16.17877912891057
 20
4.603799890292895
 42
-0.1290036993297555
 10
16.17877912891057
 20
4.10379989029289
 42
0.1554960448507143
 10
16.21102912891058
 20
3.500473200103771
 10
16.21102912891058
 20
3.072799890292892
 42
0.3385078620518113
 10
16.44162373028493
 20
2.771224434269075
 42
0.095050991918662
 10
18.93343452753624
 20
2.771224434269082
 42
0.3385078620518055
 10
19.16402912891057
 20
3.072799890292894
 10
19.16402912891057
 20
3.500473200103772
 42
0.1554960448507145
 10
19.19627912891057
 20
4.10379989029289
 42
-0.1290036993297555
 10
19.19627912891057
 20
4.603799890292895
 42
0.128850983839243
 10
19.19627912891057
 20
5.10379989029289
 42
-0.1290036993297555
 10
19.19627912891057
 20
5.603799890292896
 42
0.128850983839243
 10
19.19627912891057
 20
6.10379989029289
 42
-0.1290036993297555
 10
19.19627912891057
 20
6.603799890292894
 42
0.1554960448507143
 10
19.16402912891057
 20
7.207126580482016
 10
19.16402912891057
 20
7.471799890292892
 42
-0.4142135623730951
 10
19.25802912891057
 20
7.565799890292893
 10
19.36702912891058
 20
7.565799890292892
 42
0.3693948065462269
 10
19.73750989799138
 20
7.882756805077747
  0
LWPOLYLINE
  5
1FF
330
1F
100
AcDbEntity
  8
OBJECT
100
AcDbPolyline
 90
       34
 70
     1
 43
0.0
 10
2.134990127287831
 20
8.025349458912884
 42
-0.0655558776531047
 10
2.085512416127976
 20
10.04593482230546
 42
-0.3833699712638283
 10
2.276425762355595
 20
10.2175364343256
 10
2.401964376357478
 20
10.2175364343256
 42
0.4142135623730902
 10
2.552964376357476
 20
10.3685364343256
 10
2.552964376357477
 20
10.5353804533348
 42
-0.356075897725528
 10
2.706352017483902
 20
10.7234577931241
 42
-0.1015907943761229
 10
5.607049823296453
 20
10.7234577931241
 42
-0.3560758977256131
 10
5.760437464422897
 20
10.53538045333478
 10
5.760437464422894
 20
10.36853643432559
 42
0.4142135623730902
 10
5.911437464422897
 20
10.2175364343256
 10
6.036976078424785
 20
10.2175364343256
 42
-0.3833699712636814
 10
6.227889424652387
 20
10.04593482230548
 42
-0.0655558776528806
 10
6.1784117134936
 20
8.025349458919638
 10
6.15728425359361
 20
7.890495883106543
 42
-0.3693948065463248
 10
5.836200920390187
 20
7.61579989029289
 10
5.727200920390187
 20
7.61579989029289
 42
0.4142135623731044
 10
5.58320092039019
 20
7.471799890292894
 10
5.583200920390185
 20
3.432063346260183
 42
-0.4142135623730678
 10
5.39120092039019
 20
3.240063346260183
 10
5.309437464422895
 20
3.240063346260184
 42
0.4142135623731027
 10
5.158437464422894
 20
3.089063346260184
 10
5.158437464422897
 20
2.946466289346694
 42
-0.3773610873198303
 10
4.99083978577711
 20
2.756023314384297
 42
-0.0638064311590574
 10
3.322562055003272
 20
2.756023314384296
 42
-0.3773610873197822
 10
3.154964376357477
 20
2.946466289346691
 10
3.154964376357479
 20
3.089063346260184
 42
0.4142135623731042
 10
3.003964376357479
 20
3.240063346260183
 10
2.922200920390185
 20
3.240063346260184
 42
-0.4142135623731199
 10
2.73020092039019
 20
3.432063346260192
 10
2.73020092039019
 20
7.471799890292892
 42
0.41421356237307
 10
2.586200920390184
 20
7.615799890292894
 10
2.477200920390193
 20
7.615799890292889
 42
-0.3693948065460113
 10
2.15611758718693
 20
7.890495883106225
  0
LWPOLYLINE
  5
200
330
1F
100
AcDbEntity
  8
OBJECT
100
AcDbPolyline
 90
       34
 70
     1
 43
0.0
 10
2.218965768279472
 20
8.038505891561699
 42
-0.0655558776531052
 10
2.170031345447489
 20
10.03690428596021
 42
-0.3833699712638261
 10
2.276425762355589
 20
10.1325364343256
 10
2.401964376357478
 20
10.1325364343256
 42
0.4142135623730864
 10
2.637964376357474
 20
10.3685364343256
 10
2.637964376357477
 20
10.5353804533348
 42
-0.3560758977255118
 10
2.723446030526893
 20
10.64019438748821
 42
-0.1015907943761239
 10
5.589955810253472
 20
10.64019438748821
 42
-0.3560758977256176
 10
5.675437464422898
 20
10.53538045333479
 10
5.675437464422893
 20
10.3685364343256
 42
0.4142135623730931
 10
5.911437464422897
 20
10.1325364343256
 10
6.036976078424784
 20
10.1325364343256
 42
-0.3833699712636902
 10
6.143370495332876
 20
10.03690428596021
 42
-0.0655558776528818
 10
6.094436072501947
 20
8.03850589156838
 10
6.073308612601957
 20
7.903652315755287
 42
-0.3693948065463255
 10
5.83620092039019
 20
7.700799890292888
 10
5.727200920390188
 20
7.700799890292891
 42
0.4142135623731044
 10
5.498200920390191
 20
7.471799890292892
 10
5.498200920390184
 20
3.432063346260183
 42
-0.4142135623730667
 10
5.391200920390184
 20
3.325063346260181
 10
5.309437464422897
 20
3.325063346260184
 42
0.4142135623731033
 10
5.073437464422893
 20
3.089063346260184
 10
5.073437464422896
 20
2.946466289346692
 42
-0.3773610873198209
 10
4.980036674760924
 20
2.840334006424939
 42
-0.0638064311590576
 10
3.333365166019456
 20
2.840334006424939
 42
-0.377361087319786
 10
3.239964376357477
 20
2.946466289346693
 10
3.239964376357479
 20
3.089063346260182
 42
0.414213562373103
 10
3.003964376357478
 20
3.325063346260183
 10
2.922200920390187
 20
3.325063346260184
 42
-0.41421356237313
 10
2.81520092039019
 20
3.432063346260186
 10
2.81520092039019
 20
7.471799890292892
 42
0.414213562373068
 10
2.586200920390187
 20
7.700799890292893
 10
2.477200920390189
 20
7.700799890292888
 42
-0.3693948065460071
 10
2.240093228178573
 20
7.903652315755039
  0
LWPOLYLINE
  5
201
330
1F
100
AcDbEntity
  8
OBJECT
100
AcDbPolyline
 90
       34
 70
     1
 43
0.0
 10
2.263423460569166
 20
8.045471061787543
 42
-0.0655558776531052
 10
2.214776660969587
 20
10.03212341377743
 42
-0.3833699712638134
 10
2.276425762355586
 20
10.0875364343256
 10
2.401964376357478
 20
10.0875364343256
 42
0.4142135623730897
 10
2.682964376357475
 20
10.3685364343256
 10
2.682964376357477
 20
10.5353804533348
 42
-0.3560758977255305
 10
2.732495802137889
 20
10.5961137609751
 42
-0.1015907943761238
 10
5.580906038642481
 20
10.5961137609751
 42
-0.3560758977255805
 10
5.630437464422898
 20
10.5353804533348
 10
5.630437464422893
 20
10.3685364343256
 42
0.4142135623730878
 10
5.911437464422897
 20
10.0875364343256
 10
6.036976078424784
 20
10.0875364343256
 42
-0.3833699712637025
 10
6.098625179810781
 20
10.03212341377742
 42
-0.0655558776528813
 10
6.049978380212246
 20
8.045471061794179
 10
6.028850920312258
 20
7.910617485981092
 42
-0.3693948065463248
 10
5.836200920390192
 20
7.745799890292889
 10
5.727200920390188
 20
7.745799890292891
 42
0.4142135623731028
 10
5.453200920390191
 20
7.471799890292892
 10
5.453200920390184
 20
3.432063346260183
 42
-0.4142135623730673
 10
5.391200920390183
 20
3.370063346260181
 10
5.309437464422899
 20
3.370063346260184
 42
0.4142135623731093
 10
5.028437464422893
 20
3.089063346260184
 10
5.028437464422896
 20
2.946466289346691
 42
-0.3773610873198285
 10
4.974317380693531
 20
2.884969078681749
 42
-0.0638064311590578
 10
3.339084460086844
 20
2.884969078681749
 42
-0.3773610873197997
 10
3.284964376357477
 20
2.946466289346692
 10
3.284964376357478
 20
3.089063346260182
 42
0.4142135623731035
 10
3.003964376357477
 20
3.370063346260183
 10
2.922200920390188
 20
3.370063346260184
 42
-0.4142135623731344
 10
2.860200920390191
 20
3.432063346260183
 10
2.86020092039019
 20
7.471799890292892
 42
0.4142135623730734
 10
2.58620092039019
 20
7.745799890292893
 10
2.477200920390187
 20
7.745799890292889
 42
-0.3693948065460058
 10
2.284550920468267
 20
7.91061748598088
  0
LWPOLYLINE
  5
202
330
1F
100
AcDbEntity
  8
OBJECT
100
AcDbPolyline
 90
       36
 70
     1
 43
0.0
 10
6.227809149370679
 20
8.017610380888628
 42
0.0770840305428704
 10
6.231492862125376
 20
10.4056704828682
 42
0.3118226131389475
 10
5.967465924859171
 20
10.69412530550754
 10
5.77721499128736
 20
10.73767886006445
 42
0.1130018143730519
 10
2.536186849493061
 20
10.73767886006446
 10
2.3459359159212
 20
10.69412530550754
 42
0.3118226131389479
 10
2.081908978654999
 20
10.4056704828682
 42
0.0770840305428744
 10
2.085592691409713
 20
8.017610380888505
 10
2.106720151309383
 20
7.882756805077738
 42
0.3693948065462249
 10
2.477200920390187
 20
7.565799890292893
 10
2.586200920390188
 20
7.565799890292893
 42
-0.4142135623730951
 10
2.680200920390189
 20
7.471799890292892
 10
2.680200920390189
 20
7.207126580482015
 42
0.1554960448507143
 10
2.647950920390188
 20
6.603799890292895
 42
-0.1290036993297555
 10
2.647950920390188
 20
6.103799890292891
 42
0.128850983839243
 10
2.647950920390188
 20
5.603799890292897
 42
-0.1290036993297555
 10
2.647950920390188
 20
5.103799890292891
 42
0.128850983839243
 10
2.647950920390188
 20
4.603799890292896
 42
-0.1290036993297555
 10
2.647950920390188
 20
4.103799890292892
 42
0.1554960448507143
 10
2.680200920390189
 20
3.500473200103773
 10
2.680200920390189
 20
3.072799890292893
 42
0.3385078620518113
 10
2.910795521764542
 20
2.771224434269076
 42
0.095050991918662
 10
5.402606319015857
 20
2.771224434269083
 42
0.3385078620518055
 10
5.633200920390189
 20
3.072799890292895
 10
5.633200920390189
 20
3.500473200103773
 42
0.1554960448507145
 10
5.665450920390187
 20
4.103799890292892
 42
-0.1290036993297555
 10
5.665450920390187
 20
4.603799890292896
 42
0.128850983839243
 10
5.665450920390187
 20
5.103799890292891
 42
-0.1290036993297555
 10
5.665450920390187
 20
5.603799890292897
 42
0.128850983839243
 10
5.665450920390187
 20
6.103799890292891
 42
-0.1290036993297555
 10
5.665450920390187
 20
6.603799890292895
 42
0.1554960448507143
 10
5.633200920390189
 20
7.207126580482018
 10
5.633200920390189
 20
7.471799890292892
 42
-0.4142135623730951
 10
5.72720092039019
 20
7.565799890292893
 10
5.836200920390188
 20
7.565799890292893
 42
0.3693948065462269
 10
6.206681689470995
 20
7.882756805077747
  0
LWPOLYLINE
  5
203
330
1F
100
AcDbEntity
  8
HIDDEN
100
AcDbPolyline
 90
        4
 70
     1
 43
0.0
 10
5.390700920390189
 20
3.012799890292891
 10
5.390700920390189
 20
7.162799890292891
 10
2.922700920390187
 20
7.162799890292895
 10
2.922700920390187
 20
3.012799890292893
  0
CIRCLE
  5
204
330
1F
100
AcDbEntity
  8
OBJECT
100
AcDbCircle
 10
5.541368488652082
 20
3.166845092190705
 30
0.0
 40
0.039
  0
CIRCLE
  5
205
330
1F
100
AcDbEntity
  8
OBJECT
100
AcDbCircle
 10
3.109700920390189
 20
3.547799890292893
 30
0.0
 40
0.125
  0
CIRCLE
  5
206
330
1F
100
AcDbEntity
  8
OBJECT
100
AcDbCircle
 10
3.109700920390189
 20
3.547799890292893
 30
0.0
 40
0.145
  0
CIRCLE
  5
207
330
1F
100
AcDbEntity
  8
OBJECT
100
AcDbCircle
 10
3.081746122287995
 20
2.857132322030999
 30
0.0
 40
0.039
  0
CIRCLE
  5
208
330
1F
100
AcDbEntity
  8
OBJECT
100
AcDbCircle
 10
2.987700920390189
 20
3.072799890292895
 30
0.0
 40
0.086
  0
CIRCLE
  5
209
330
1F
100
AcDbEntity
  8
OBJECT
100
AcDbCircle
 10
2.772033352128289
 20
3.166845092190705
 30
0.0
 40
0.039
  0
CIRCLE
  5
20A
330
1F
100
AcDbEntity
  8
HIDDEN
100
AcDbCircle
 10
2.987700920390189
 20
3.072799890292895
 30
0.0
 40
0.059
  0
CIRCLE
  5
20B
330
1F
100
AcDbEntity
  8
OBJECT
100
AcDbCircle
 10
2.987700920390189
 20
3.072799890292895
 30
0.0
 40
0.045
  0
CIRCLE
  5
20C
330
1F
100
AcDbEntity
  8
OBJECT
100
AcDbCircle
 10
3.109700920390189
 20
3.547799890292893
 30
0.0
 40
0.049
  0
CIRCLE
  5
20D
330
1F
100
AcDbEntity
  8
OBJECT
100
AcDbCircle
 10
5.231655718492376
 20
2.857132322030999
 30
0.0
 40
0.039
  0
CIRCLE
  5
20E
330
1F
100
AcDbEntity
  8
OBJECT
100
AcDbCircle
 10
5.32570092039019
 20
3.072799890292895
 30
0.0
 40
0.086
  0
CIRCLE
  5
20F
330
1F
100
AcDbEntity
  8
HIDDEN
100
AcDbCircle
 10
5.32570092039019
 20
3.072799890292895
 30
0.0
 40
0.059
  0
CIRCLE
  5
210
330
1F
100
AcDbEntity
  8
OBJECT
100
AcDbCircle
 10
5.32570092039019
 20
3.072799890292895
 30
0.0
 40
0.045
  0
CIRCLE
  5
211
330
1F
100
AcDbEntity
  8
OBJECT
100
AcDbCircle
 10
5.20370092039019
 20
3.547799890292893
 30
0.0
 40
0.145
  0
CIRCLE
  5
212
330
1F
100
AcDbEntity
  8
OBJECT
100
AcDbCircle
 10
5.20370092039019
 20
3.547799890292893
 30
0.0
 40
0.125
  0
CIRCLE
  5
213
330
1F
100
AcDbEntity
  8
OBJECT
100
AcDbCircle
 10
5.20370092039019
 20
3.547799890292893
 30
0.0
 40
0.049
  0
CIRCLE
  5
214
330
1F
100
AcDbEntity
  8
OBJECT
100
AcDbCircle
 10
16.62318093252618
 20
2.846525720313202
 30
0.0
 40
0.039
  0
CIRCLE
  5
215
330
1F
100
AcDbEntity
  8
OBJECT
100
AcDbCircle
 10
16.29225495893088
 20
3.177451693908501
 30
0.0
 40
0.039
  0
CIRCLE
  5
216
330
1F
100
AcDbEntity
  8
HIDDEN
100
AcDbCircle
 10
16.51852912891057
 20
3.072799890292895
 30
0.0
 40
0.1325
  0
CIRCLE
  5
217
330
1F
100
AcDbEntity
  8
OBJECT
100
AcDbCircle
 10
16.51852912891057
 20
3.072799890292895
 30
0.0
 40
0.0615
  0
CIRCLE
  5
218
330
1F
100
AcDbEntity
  8
OBJECT
100
AcDbCircle
 10
16.64052912891057
 20
3.592799890292893
 30
0.0
 40
0.049
  0
CIRCLE
  5
219
330
1F
100
AcDbEntity
  8
OBJECT
100
AcDbCircle
 10
16.64052912891057
 20
3.592799890292893
 30
0.0
 40
0.125
  0
CIRCLE
  5
21A
330
1F
100
AcDbEntity
  8
OBJECT
100
AcDbCircle
 10
16.64052912891057
 20
3.592799890292893
 30
0.0
 40
0.145
  0
LWPOLYLINE
  5
21B
330
1F
100
AcDbEntity
  8
HIDDEN
100
AcDbPolyline
 90
        4
 70
     1
 43
0.0
 10
2.437700920390187
 20
7.827799890292894
 10
5.875700920390189
 20
7.827799890292892
 10
5.875700920390189
 20
10.44579989029289
 10
2.437700920390187
 20
10.44579989029289
  0
CIRCLE
  5
21C
330
1F
100
AcDbEntity
  8
OBJECT
100
AcDbCircle
 10
3.109700920390189
 20
7.119799890292892
 30
0.0
 40
0.125
  0
CIRCLE
  5
21D
330
1F
100
AcDbEntity
  8
OBJECT
100
AcDbCircle
 10
3.109700920390189
 20
7.119799890292892
 30
0.0
 40
0.145
  0
CIRCLE
  5
21E
330
1F
100
AcDbEntity
  8
OBJECT
100
AcDbCircle
 10
3.109700920390189
 20
5.34779989029289
 30
0.0
 40
0.125
  0
CIRCLE
  5
21F
330
1F
100
AcDbEntity
  8
OBJECT
100
AcDbCircle
 10
3.109700920390189
 20
5.34779989029289
 30
0.0
 40
0.145
  0
CIRCLE
  5
220
330
1F
100
AcDbEntity
  8
OBJECT
100
AcDbCircle
 10
3.109700920390189
 20
5.34779989029289
 30
0.0
 40
0.049
  0
CIRCLE
  5
221
330
1F
100
AcDbEntity
  8
OBJECT
100
AcDbCircle
 10
3.109700920390189
 20
7.119799890292892
 30
0.0
 40
0.049
  0
CIRCLE
  5
222
330
1F
100
AcDbEntity
  8
OBJECT
100
AcDbCircle
 10
5.20370092039019
 20
5.34779989029289
 30
0.0
 40
0.125
  0
CIRCLE
  5
223
330
1F
100
AcDbEntity
  8
OBJECT
100
AcDbCircle
 10
5.20370092039019
 20
5.34779989029289
 30
0.0
 40
0.145
  0
CIRCLE
  5
224
330
1F
100
AcDbEntity
  8
OBJECT
100
AcDbCircle
 10
5.20370092039019
 20
5.34779989029289
 30
0.0
 40
0.049
  0
CIRCLE
  5
225
330
1F
100
AcDbEntity
  8
OBJECT
100
AcDbCircle
 10
5.20370092039019
 20
7.119799890292892
 30
0.0
 40
0.049
  0
CIRCLE
  5
226
330
1F
100
AcDbEntity
  8
OBJECT
100
AcDbCircle
 10
5.20370092039019
 20
7.119799890292892
 30
0.0
 40
0.145
  0
CIRCLE
  5
227
330
1F
100
AcDbEntity
  8
OBJECT
100
AcDbCircle
 10
5.20370092039019
 20
7.119799890292892
 30
0.0
 40
0.125
  0
CIRCLE
  5
228
330
1F
100
AcDbEntity
  8
OBJECT
100
AcDbCircle
 10
2.385700920390185
 20
10.38479989029289
 30
0.0
 40
0.086
  0
CIRCLE
  5
229
330
1F
100
AcDbEntity
  8
OBJECT
100
AcDbCircle
 10
2.170033352128292
 20
10.29075468839508
 30
0.0
 40
0.039
  0
CIRCLE
  5
22A
330
1F
100
AcDbEntity
  8
OBJECT
100
AcDbCircle
 10
2.385700920390185
 20
10.38479989029289
 30
0.0
 40
0.045
  0
CIRCLE
  5
22B
330
1F
100
AcDbEntity
  8
HIDDEN
100
AcDbCircle
 10
2.385700920390185
 20
10.38479989029289
 30
0.0
 40
0.059
  0
CIRCLE
  5
22C
330
1F
100
AcDbEntity
  8
OBJECT
100
AcDbCircle
 10
2.479746122287998
 20
10.60046745855479
 30
0.0
 40
0.039
  0
CIRCLE
  5
22D
330
1F
100
AcDbEntity
  8
OBJECT
100
AcDbCircle
 10
16.64052912891057
 20
5.39279989029289
 30
0.0
 40
0.049
  0
CIRCLE
  5
22E
330
1F
100
AcDbEntity
  8
OBJECT
100
AcDbCircle
 10
16.64052912891057
 20
5.39279989029289
 30
0.0
 40
0.125
  0
CIRCLE
  5
22F
330
1F
100
AcDbEntity
  8
OBJECT
100
AcDbCircle
 10
16.64052912891057
 20
5.39279989029289
 30
0.0
 40
0.145
  0
CIRCLE
  5
230
330
1F
100
AcDbEntity
  8
OBJECT
100
AcDbCircle
 10
16.64052912891057
 20
7.164799890292892
 30
0.0
 40
0.049
  0
CIRCLE
  5
231
330
1F
100
AcDbEntity
  8
OBJECT
100
AcDbCircle
 10
16.64052912891057
 20
7.164799890292892
 30
0.0
 40
0.125
  0
CIRCLE
  5
232
330
1F
100
AcDbEntity
  8
OBJECT
100
AcDbCircle
 10
16.64052912891057
 20
7.164799890292892
 30
0.0
 40
0.145
  0
CIRCLE
  5
233
330
1F
100
AcDbEntity
  8
OBJECT
100
AcDbCircle
 10
16.30952912891057
 20
8.015799890292893
 30
0.0
 40
0.145
  0
CIRCLE
  5
234
330
1F
100
AcDbEntity
  8
OBJECT
100
AcDbCircle
 10
16.30952912891057
 20
8.015799890292893
 30
0.0
 40
0.125
  0
CIRCLE
  5
235
330
1F
100
AcDbEntity
  8
OBJECT
100
AcDbCircle
 10
16.30952912891057
 20
8.015799890292893
 30
0.0
 40
0.049
  0
CIRCLE
  5
236
330
1F
100
AcDbEntity
  8
OBJECT
100
AcDbCircle
 10
17.68752912891057
 20
7.680799890292892
 30
0.0
 40
0.1375
  0
CIRCLE
  5
237
330
1F
100
AcDbEntity
  8
OBJECT
100
AcDbCircle
 10
6.143368488652086
 20
10.29075468839508
 30
0.0
 40
0.039
  0
CIRCLE
  5
238
330
1F
100
AcDbEntity
  8
OBJECT
100
AcDbCircle
 10
5.83365571849238
 20
10.60046745855479
 30
0.0
 40
0.039
  0
CIRCLE
  5
239
330
1F
100
AcDbEntity
  8
HIDDEN
100
AcDbCircle
 10
5.927700920390186
 20
10.38479989029289
 30
0.0
 40
0.059
  0
CIRCLE
  5
23A
330
1F
100
AcDbEntity
  8
OBJECT
100
AcDbCircle
 10
5.927700920390186
 20
10.38479989029289
 30
0.0
 40
0.045
  0
CIRCLE
  5
23B
330
1F
100
AcDbEntity
  8
OBJECT
100
AcDbCircle
 10
5.927700920390186
 20
10.38479989029289
 30
0.0
 40
0.086
  0
CIRCLE
  5
23C
330
1F
100
AcDbEntity
  8
OBJECT
100
AcDbCircle
 10
16.02118093252618
 20
10.61107406027258
 30
0.0
 40
0.039
  0
CIRCLE
  5
23D
330
1F
100
AcDbEntity
  8
HIDDEN
100
AcDbCircle
 10
15.91652912891057
 20
10.38479989029289
 30
0.0
 40
0.1325
  0
CIRCLE
  5
23E
330
1F
100
AcDbEntity
  8
OBJECT
100
AcDbCircle
 10
15.69025495893088
 20
10.28014808667728
 30
0.0
 40
0.039
  0
CIRCLE
  5
23F
330
1F
100
AcDbEntity
  8
OBJECT
100
AcDbCircle
 10
15.91652912891057
 20
10.38479989029289
 30
0.0
 40
0.0615
  0
CIRCLE
  5
240
330
1F
100
AcDbEntity
  8
OBJECT
100
AcDbCircle
 10
16.30952912891057
 20
10.01579989029288
 30
0.0
 40
0.125
  0
CIRCLE
  5
241
330
1F
100
AcDbEntity
  8
OBJECT
100
AcDbCircle
 10
16.30952912891057
 20
10.01579989029288
 30
0.0
 40
0.145
  0
CIRCLE
  5
242
330
1F
100
AcDbEntity
  8
OBJECT
100
AcDbCircle
 10
16.30952912891057
 20
10.01579989029288
 30
0.0
 40
0.049
  0
CIRCLE
  5
243
330
1F
100
AcDbEntity
  8
OBJECT
100
AcDbCircle
 10
18.75187732529496
 20
2.846525720313202
 30
0.0
 40
0.039
  0
CIRCLE
  5
244
330
1F
100
AcDbEntity
  8
HIDDEN
100
AcDbCircle
 10
18.85652912891058
 20
3.072799890292895
 30
0.0
 40
0.1325
  0
CIRCLE
  5
245
330
1F
100
AcDbEntity
  8
OBJECT
100
AcDbCircle
 10
18.85652912891058
 20
3.072799890292895
 30
0.0
 40
0.0615
  0
CIRCLE
  5
246
330
1F
100
AcDbEntity
  8
OBJECT
100
AcDbCircle
 10
19.08280329889027
 20
3.177451693908501
 30
0.0
 40
0.039
  0
CIRCLE
  5
247
330
1F
100
AcDbEntity
  8
OBJECT
100
AcDbCircle
 10
18.73452912891058
 20
3.592799890292893
 30
0.0
 40
0.145
  0
CIRCLE
  5
248
330
1F
100
AcDbEntity
  8
OBJECT
100
AcDbCircle
 10
18.73452912891058
 20
3.592799890292893
 30
0.0
 40
0.125
  0
CIRCLE
  5
249
330
1F
100
AcDbEntity
  8
OBJECT
100
AcDbCircle
 10
18.73452912891058
 20
3.592799890292893
 30
0.0
 40
0.049
  0
CIRCLE
  5
24A
330
1F
100
AcDbEntity
  8
OBJECT
100
AcDbCircle
 10
18.73452912891058
 20
5.39279989029289
 30
0.0
 40
0.125
  0
CIRCLE
  5
24B
330
1F
100
AcDbEntity
  8
OBJECT
100
AcDbCircle
 10
18.73452912891058
 20
5.39279989029289
 30
0.0
 40
0.145
  0
CIRCLE
  5
24C
330
1F
100
AcDbEntity
  8
OBJECT
100
AcDbCircle
 10
18.73452912891058
 20
5.39279989029289
 30
0.0
 40
0.049
  0
CIRCLE
  5
24D
330
1F
100
AcDbEntity
  8
OBJECT
100
AcDbCircle
 10
18.73452912891058
 20
7.164799890292892
 30
0.0
 40
0.049
  0
CIRCLE
  5
24E
330
1F
100
AcDbEntity
  8
OBJECT
100
AcDbCircle
 10
18.73452912891058
 20
7.164799890292892
 30
0.0
 40
0.145
  0
CIRCLE
  5
24F
330
1F
100
AcDbEntity
  8
OBJECT
100
AcDbCircle
 10
18.73452912891058
 20
7.164799890292892
 30
0.0
 40
0.125
  0
CIRCLE
  5
250
330
1F
100
AcDbEntity
  8
OBJECT
100
AcDbCircle
 10
19.06552912891057
 20
8.015799890292893
 30
0.0
 40
0.125
  0
CIRCLE
  5
251
330
1F
100
AcDbEntity
  8
OBJECT
100
AcDbCircle
 10
19.06552912891057
 20
8.015799890292893
 30
0.0
 40
0.145
  0
CIRCLE
  5
252
330
1F
100
AcDbEntity
  8
OBJECT
100
AcDbCircle
 10
19.06552912891057
 20
8.015799890292893
 30
0.0
 40
0.049
  0
CIRCLE
  5
253
330
1F
100
AcDbEntity
  8
OBJECT
100
AcDbCircle
 10
19.06552912891057
 20
10.01579989029288
 30
0.0
 40
0.145
  0
CIRCLE
  5
254
330
1F
100
AcDbEntity
  8
OBJECT
100
AcDbCircle
 10
19.06552912891057
 20
10.01579989029288
 30
0.0
 40
0.125
  0
CIRCLE
  5
255
330
1F
100
AcDbEntity
  8
OBJECT
100
AcDbCircle
 10
19.35387732529496
 20
10.61107406027258
 30
0.0
 40
0.039
  0
CIRCLE
  5
256
330
1F
100
AcDbEntity
  8
OBJECT
100
AcDbCircle
 10
19.06552912891057
 20
10.01579989029288
 30
0.0
 40
0.049
  0
CIRCLE
  5
257
330
1F
100
AcDbEntity
  8
HIDDEN
100
AcDbCircle
 10
19.45852912891057
 20
10.38479989029289
 30
0.0
 40
0.1325
  0
CIRCLE
  5
258
330
1F
100
AcDbEntity
  8
OBJECT
100
AcDbCircle
 10
19.45852912891057
 20
10.38479989029289
 30
0.0
 40
0.0615
  0
CIRCLE
  5
259
330
1F
100
AcDbEntity
  8
OBJECT
100
AcDbCircle
 10
19.68480329889027
 20
10.28014808667728
 30
0.0
 40
0.039
  0
LWPOLYLINE
  5
2792
330
1F
100
AcDbEntity
  8
OBJECT
100
AcDbPolyline
 90
        3
 70
     0
 43
0.0
 10
10.71014014604521
 20
10.84579989029288
 10
10.71014014604521
 20
10.90079989029289
 10
10.75014014604521
 20
10.90079989029289
  0
LWPOLYLINE
  5
2795
102
{ACAD_REACTORS
330
2F56
102
}
330
1F
100
AcDbEntity
  8
OBJECT
100
AcDbPolyline
 90
        8
 70
     0
 43
0.0
 10
10.71014014604521
 20
2.702799890292892
 10
10.71014014604521
 20
2.652799890292895
 10
10.20922056615838
 20
2.679051973074158
 42
-0.3989595459737193
 10
10.12014014604521
 20
2.772923149341088
 10
10.12014014604521
 20
10.8006766312447
 42
-0.3989595459737191
 10
10.20922056615838
 20
10.89454780751163
 10
10.71014014604521
 20
10.92079989029289
 10
10.71014014604521
 20
10.87079989029289
  0
LWPOLYLINE
  5
2796
330
1F
100
AcDbEntity
  8
OBJECT
100
AcDbPolyline
 90
        3
 70
     0
 43
0.0
 10
10.66014014604521
 20
10.79579989029288
 10
10.66014014604521
 20
10.84579989029288
 10
10.71014014604521
 20
10.84579989029288
  0
DIMENSION
  5
27C3
330
1F
100
AcDbEntity
  8
DIM
100
AcDbDimension
  2
*D2
 10
1.378970919481716
 20
23.2749655174656
 30
0.0
 11
1.378970919481712
 21
24.5839655174656
 31
0.0
 70
    32
 71
     5
 42
2.617999999999998
  3
23NSTD
100
AcDbAlignedDimension
 13
2.437700920390189
 23
25.8929655174656
 33
0.0
 14
2.437700920390189
 24
23.2749655174656
 34
0.0
 50
90.0
100
AcDbRotatedDimension
  0
DIMENSION
  5
27D2
330
1F
100
AcDbEntity
  8
DIM
100
AcDbDimension
  2
*D3
 10
1.329279753509296
 20
18.4599655174656
 30
0.0
 11
1.329279753509294
 21
20.5349655174656
 31
0.0
 70
    32
 71
     5
 42
4.150000000000002
  3
23NSTD
100
AcDbAlignedDimension
 13
2.922700920390188
 23
22.60996551746561
 33
0.0
 14
2.922700920390188
 24
18.4599655174656
 34
0.0
 50
90.0
100
AcDbRotatedDimension
  0
DIMENSION
  5
27E0
330
1F
100
AcDbEntity
  8
DIM
100
AcDbDimension
  2
*D4
 10
5.390700920390189
 20
17.72072186516187
 30
0.0
 11
4.156700920390188
 21
17.72072186516187
 31
0.0
 70
    32
 71
     5
 42
2.468
  3
23NSTD
100
AcDbAlignedDimension
 13
2.922700920390188
 23
18.4599655174656
 33
0.0
 14
5.390700920390189
 24
18.4599655174656
 34
0.0
100
AcDbRotatedDimension
  0
DIMENSION
  5
27EE
330
1F
100
AcDbEntity
  8
DIM
100
AcDbDimension
  2
*D5
 10
5.875700920390189
 20
26.8692147914025
 30
0.0
 11
4.156700920390188
 21
26.8692147914025
 31
0.0
 70
    32
 71
     5
 42
3.437999999999999
  3
23NSTD
100
AcDbAlignedDimension
 13
2.437700920390189
 23
25.8929655174656
 33
0.0
 14
5.875700920390189
 24
25.89296551746561
 34
0.0
100
AcDbRotatedDimension
  0
DIMENSION
  5
27FC
330
1F
100
AcDbEntity
  8
DIM
100
AcDbDimension
  2
*D6
 10
6.321700923916044
 20
27.44360248410611
 30
0.0
 11
4.156700920390189
 21
27.44360248410611
 31
0.0
 70
    32
 71
     5
 42
4.33000000705171
  3
23NSTD
100
AcDbAlignedDimension
 13
1.991700916864334
 23
24.67068213863641
 33
0.0
 14
6.321700923916044
 24
24.67068213863642
 34
0.0
100
AcDbRotatedDimension
  0
DIMENSION
  5
280A
330
1F
100
AcDbEntity
  8
DIM
100
AcDbDimension
  2
*D7
 10
5.633200920390191
 20
17.11697597126649
 30
0.0
 11
4.156700920390191
 21
17.11697597126649
 31
0.0
 70
    32
 71
     5
 42
2.952999999999999
  3
23NSTD
100
AcDbAlignedDimension
 13
2.680200920390191
 23
18.5199655174656
 33
0.0
 14
5.633200920390191
 24
18.51996551746561
 34
0.0
100
AcDbRotatedDimension
  0
DIMENSION
  5
2818
330
1F
100
AcDbEntity
  8
DIM
100
AcDbDimension
  2
*D8
 10
7.056023742282911
 20
26.36796551746561
 30
0.0
 11
7.056023742282906
 21
22.23396551746561
 31
0.0
 70
    32
 71
     5
 42
8.268
  3
23NSTD
100
AcDbAlignedDimension
 13
4.156700920390182
 23
18.09996551746561
 33
0.0
 14
4.15670092039019
 24
26.36796551746561
 34
0.0
 50
90.0
100
AcDbRotatedDimension
  0
TEXT
  5
2876
330
1F
100
AcDbEntity
  8
TEXT
100
AcDbText
 10
2.657950920390189
 20
24.626418071582
 30
0.0
 40
0.218
  1
(SOLID DISPLAY AREA)
 41
0.75
 72
     1
 11
4.156700920390189
 21
24.626418071582
 31
0.0
100
AcDbText
  0
TEXT
  5
2877
330
1F
100
AcDbEntity
  8
TEXT
100
AcDbText
 10
4.880280259232459
 20
21.72174493294631
 30
0.0
 40
0.218
  1
 
 41
0.75
 72
     1
 11
4.962030259232459
 21
21.72174493294631
 31
0.0
100
AcDbText
  0
TEXT
  5
2878
330
1F
100
AcDbEntity
  8
TEXT
100
AcDbText
 10
4.880280259232459
 20
21.35841159961298
 30
0.0
 40
0.218
  1
 
 41
0.75
 72
     1
 11
4.962030259232459
 21
21.35841159961298
 31
0.0
100
AcDbText
  0
TEXT
  5
2879
330
1F
100
AcDbEntity
  8
TEXT
100
AcDbText
 10
4.880280259232459
 20
20.99507826627964
 30
0.0
 40
0.218
  1
 
 41
0.75
 72
     1
 11
4.962030259232459
 21
20.99507826627964
 31
0.0
100
AcDbText
  0
TEXT
  5
287A
330
1F
100
AcDbEntity
  8
TEXT
100
AcDbText
 10
4.880280259232459
 20
20.63174493294631
 30
0.0
 40
0.218
  1
 
 41
0.75
 72
     1
 11
4.962030259232459
 21
20.63174493294631
 31
0.0
100
AcDbText
  0
TEXT
  5
287B
330
1F
100
AcDbEntity
  8
TEXT
100
AcDbText
 10
4.880280259232459
 20
20.26841159961298
 30
0.0
 40
0.218
  1
 
 41
0.75
 72
     1
 11
4.962030259232459
 21
20.26841159961298
 31
0.0
100
AcDbText
  0
TEXT
  5
287C
330
1F
100
AcDbEntity
  8
TEXT
100
AcDbText
 10
4.880280259232459
 20
19.90507826627965
 30
0.0
 40
0.218
  1
 
 41
0.75
 72
     1
 11
4.962030259232459
 21
19.90507826627965
 31
0.0
100
AcDbText
  0
TEXT
  5
287D
330
1F
100
AcDbEntity
  8
TEXT
100
AcDbText
 10
4.880280259232459
 20
19.54174493294631
 30
0.0
 40
0.218
  1
 
 41
0.75
 72
     1
 11
4.962030259232459
 21
19.54174493294631
 31
0.0
100
AcDbText
  0
TEXT
  5
287E
330
1F
100
AcDbEntity
  8
TEXT
100
AcDbText
 10
4.880280259232459
 20
19.17841159961298
 30
0.0
 40
0.218
  1
 
 41
0.75
 72
     1
 11
4.962030259232459
 21
19.17841159961298
 31
0.0
100
AcDbText
  0
TEXT
  5
287F
330
1F
100
AcDbEntity
  8
TEXT
100
AcDbText
 10
4.880280259232459
 20
18.81507826627965
 30
0.0
 40
0.218
  1
 
 41
0.75
 72
     1
 11
4.962030259232459
 21
18.81507826627965
 31
0.0
100
AcDbText
  0
LEADER
  5
2880
330
1F
100
AcDbEntity
  8
DIM
100
AcDbLeader
  3
23NSTD
 73
     0
 74
     0
 75
     1
 40
0.6666666666666668
 41
2.34375
 76
     3
 10
5.056296916326104
 20
25.24698040567212
 30
0.0
 10
6.664723244468965
 20
27.40284268008273
 30
0.0
 10
7.024723244468965
 20
27.40284268008273
 30
0.0
340
2881
213
0.0
223
-0.109375
233
0.0
1001
ACAD
1000
DSTYLE
1002
{
1070
   147
1040
0.09
1070
    77
1070
     0
1002
}
  0
MTEXT
  5
2881
102
{ACAD_REACTORS
330
2880
102
}
330
1F
100
AcDbEntity
  8
DIM
100
AcDbMText
 10
7.204723244468965
 20
27.51221768008273
 30
0.0
 40
0.25
 41
0.0
 71
     1
 72
     1
  1
DISPLAY AREA\PRECESSED 0.040
 73
     1
 44
1.0
  0
LEADER
  5
2883
330
1F
100
AcDbEntity
  8
DIM
100
AcDbLeader
  3
23NSTD
 73
     0
 74
     0
 75
     1
 40
0.6666666666666668
 41
3.25
 76
     3
 10
4.736672619049627
 20
19.24375915932524
 30
0.0
 10
6.156104661379479
 20
17.66603459394172
 30
0.0
 10
6.516104661379479
 20
17.66603459394172
 30
0.0
340
2884
213
0.0
223
-0.109375
233
0.0
1001
ACAD
1000
DSTYLE
1002
{
1070
   147
1040
0.09
1070
    77
1070
     0
1002
}
  0
MTEXT
  5
2884
102
{ACAD_REACTORS
330
2883
102
}
330
1F
100
AcDbEntity
  8
DIM
100
AcDbMText
 10
6.696104661379479
 20
17.77540959394172
 30
0.0
 40
0.25
 41
0.0
 71
     1
 72
     1
  1
\A1;KEYPAD INSERT AREA\PRECESSED 0.040
 73
     1
 44
1.0
  0
DIMENSION
  5
2885
330
1F
100
AcDbEntity
  8
DIM
100
AcDbDimension
  2
*D9
 10
12.16083460684337
 20
26.71150759144614
 30
0.0
 11
11.37383460684337
 21
26.71150759144614
 31
0.0
 70
    32
 71
     5
 42
1.573999999999998
  3
23NSTD
100
AcDbAlignedDimension
 13
10.58683460684337
 23
26.24784225841742
 33
0.0
 14
12.16083460684337
 24
26.05183353057553
 34
0.0
100
AcDbRotatedDimension
  0
LINE
  5
2A6F
330
1F
100
AcDbEntity
  8
OBJECT
100
AcDbLine
 10
16.59502912891058
 20
22.98496551746559
 30
0.0
 11
16.76002912891058
 21
22.98496551746559
 31
0.0
  0
LINE
  5
2A70
330
1F
100
AcDbEntity
  8
HIDDEN
100
AcDbLine
 10
16.86302912891058
 20
23.01396551746558
 30
0.0
 11
16.86302912891058
 21
23.13896551746558
 31
0.0
  0
LINE
  5
2A71
330
1F
100
AcDbEntity
  8
HIDDEN
100
AcDbLine
 10
16.76002912891058
 20
23.01396551746558
 30
0.0
 11
16.86302912891058
 21
23.01396551746558
 31
0.0
  0
CIRCLE
  5
2A77
330
1F
100
AcDbEntity
  8
OBJECT
100
AcDbCircle
 10
17.68752912891058
 20
23.12796551746559
 30
0.0
 40
0.1355
  0
CIRCLE
  5
2A78
330
1F
100
AcDbEntity
  8
OBJECT
100
AcDbCircle
 10
17.68752912891058
 20
23.12796551746559
 30
0.0
 40
0.059
  0
LINE
  5
2A85
330
1F
100
AcDbEntity
  8
OBJECT
100
AcDbLine
 10
18.78002912891058
 20
22.98496551746559
 30
0.0
 11
18.61502912891058
 21
22.98496551746559
 31
0.0
  0
LINE
  5
2A95
330
1F
100
AcDbEntity
  8
HIDDEN
100
AcDbLine
 10
16.76898213407721
 20
23.13896551746558
 30
0.0
 11
16.86302912891058
 21
23.13896551746558
 31
0.0
  0
LINE
  5
2A96
330
1F
100
AcDbEntity
  8
HIDDEN
100
AcDbLine
 10
18.60607612374394
 20
23.13896551746558
 30
0.0
 11
18.51202912891058
 21
23.13896551746558
 31
0.0
  0
LINE
  5
2A97
330
1F
100
AcDbEntity
  8
HIDDEN
100
AcDbLine
 10
18.51202912891058
 20
23.01396551746558
 30
0.0
 11
18.51202912891058
 21
23.13896551746558
 31
0.0
  0
LINE
  5
2A98
330
1F
100
AcDbEntity
  8
HIDDEN
100
AcDbLine
 10
18.61502912891058
 20
23.01396551746558
 30
0.0
 11
18.51202912891058
 21
23.01396551746558
 31
0.0
  0
DIMENSION
  5
2AAA
330
1F
100
AcDbEntity
  8
DIM
100
AcDbDimension
  2
*D10
 10
14.41475278510521
 20
20.41896551746558
 30
0.0
 11
14.4147527851052
 21
22.53896551746559
 31
0.0
 70
    32
 71
     5
 42
4.240000000000001
  3
23NSTD
100
AcDbAlignedDimension
 13
16.68902912891057
 23
24.65896551746558
 33
0.0
 14
16.68902912891057
 24
20.41896551746558
 34
0.0
 50
90.0
100
AcDbRotatedDimension
  0
DIMENSION
  5
2AAB
330
1F
100
AcDbEntity
  8
DIM
100
AcDbDimension
  2
*D11
 10
16.59502912891058
 20
25.77290324097808
 30
0.0
 11
17.68752912891058
 21
25.77290324097808
 31
0.0
 70
   160
 71
     5
 42
2.185000000000002
  3
23NSTD
100
AcDbAlignedDimension
 13
18.78002912891058
 23
24.56496551746559
 33
0.0
 14
16.59502912891058
 24
24.56496551746559
 34
0.0
100
AcDbRotatedDimension
  0
LINE
  5
2AAC
330
1F
100
AcDbEntity
  8
CENTER
100
AcDbLine
 10
17.6249503590099
 20
24.11346551746559
 30
0.0
 11
17.75010789881126
 21
24.11346551746559
 31
0.0
  0
LINE
  5
2AAD
330
1F
100
AcDbEntity
  8
CENTER
100
AcDbLine
 10
17.68752912891058
 20
24.0508867475649
 30
0.0
 11
17.68752912891058
 21
24.17604428736627
 31
0.0
  0
LINE
  5
2AAE
330
1F
100
AcDbEntity
  8
CENTER
100
AcDbLine
 10
17.6249503590099
 20
23.76096551746558
 30
0.0
 11
17.75010789881126
 21
23.76096551746558
 31
0.0
  0
LINE
  5
2AAF
330
1F
100
AcDbEntity
  8
CENTER
100
AcDbLine
 10
17.68752912891058
 20
23.6983867475649
 30
0.0
 11
17.68752912891058
 21
23.82354428736626
 31
0.0
  0
LINE
  5
2AB1
330
1F
100
AcDbEntity
  8
CENTER
100
AcDbLine
 10
17.00301232680497
 20
23.07646551746558
 30
0.0
 11
16.3878865699228
 21
23.07646551746558
 31
0.0
  0
LINE
  5
2AB2
330
1F
100
AcDbEntity
  8
CENTER
100
AcDbLine
 10
18.36040590831291
 20
23.07646551746558
 30
0.0
 11
18.97553166519507
 21
23.07646551746558
 31
0.0
  0
DIMENSION
  5
2AB3
330
1F
100
AcDbEntity
  8
DIM
100
AcDbDimension
  2
*D12
 10
20.29395155069791
 20
24.65896551746558
 30
0.0
 11
20.2939515506979
 21
23.86771551746559
 31
0.0
 70
    32
 71
     5
 42
1.582500000000003
  3
23NSTD
100
AcDbAlignedDimension
 13
18.96001169494613
 23
23.07646551746558
 33
0.0
 14
18.68602912891058
 24
24.65896551746558
 34
0.0
 50
90.0
100
AcDbRotatedDimension
  0
DIMENSION
  5
2AB4
330
1F
100
AcDbEntity
  8
DIM
100
AcDbDimension
  2
*D13
 10
20.29395155069791
 20
20.41896551746558
 30
0.0
 11
20.29395155069791
 21
21.74771551746558
 31
0.0
 70
    32
 71
     5
 42
2.657499999999998
  3
23NSTD
100
AcDbAlignedDimension
 13
18.96001169494613
 23
23.07646551746558
 33
0.0
 14
18.68602912891058
 24
20.41896551746558
 34
0.0
 50
90.0
100
AcDbRotatedDimension
  0
DIMENSION
  5
2AB7
330
1F
100
AcDbEntity
  8
DIM
100
AcDbDimension
  2
*D14
 10
16.59502912891058
 20
25.35992201851092
 30
0.0
 11
17.14127912891058
 21
25.35992201851092
 31
0.0
 70
   160
 71
     5
 42
1.092500000000001
  3
23NSTD
100
AcDbAlignedDimension
 13
17.68752912891058
 23
24.17604428736627
 33
0.0
 14
16.59502912891058
 24
24.56496551746559
 34
0.0
 50
180.0
100
AcDbRotatedDimension
  0
DIMENSION
  5
2AB8
330
1F
100
AcDbEntity
  8
DIM
100
AcDbDimension
  2
*D15
 10
15.01113585773062
 20
24.65896551746558
 30
0.0
 11
15.01113585773062
 21
24.20996551746559
 31
0.0
 70
    32
 71
     5
 42
0.8980000000000032
  3
23NSTD
100
AcDbAlignedDimension
 13
17.6249503590099
 23
23.76096551746558
 33
0.0
 14
16.68902912891058
 24
24.65896551746558
 34
0.0
 50
270.0
100
AcDbRotatedDimension
  0
DIMENSION
  5
2AB9
330
1F
100
AcDbEntity
  8
DIM
100
AcDbDimension
  2
*D16
 10
16.07407497931216
 20
24.11346551746559
 30
0.0
 11
16.07407497931215
 21
23.93721551746558
 31
0.0
 70
   160
 71
     5
 42
0.3525000000000027
  3
23NSTDI
100
AcDbAlignedDimension
 13
17.6249503590099
 23
23.76096551746558
 33
0.0
 14
17.6249503590099
 24
24.11346551746559
 34
0.0
 50
270.0
100
AcDbRotatedDimension
  0
DIMENSION
  5
2ABA
330
1F
100
AcDbEntity
  8
DIM
100
AcDbDimension
  2
*D17
 10
17.80502912891058
 20
25.02560383133829
 30
0.0
 11
19.19624805633289
 21
25.02560383133829
 31
0.0
 70
   160
 71
     5
 42
0.2349999999999994
  3
23NSTD
100
AcDbAlignedDimension
 13
17.57002912891058
 23
24.11346551746559
 33
0.0
 14
17.80502912891058
 24
24.11346551746559
 34
0.0
100
AcDbRotatedDimension
  0
LINE
  5
2ABC
330
1F
100
AcDbEntity
  8
HIDDEN
100
AcDbLine
 10
16.67302912891057
 20
20.48096551746558
 30
0.0
 11
16.67302912891058
 21
22.29096551746559
 31
0.0
  0
LINE
  5
2ABD
330
1F
100
AcDbEntity
  8
HIDDEN
100
AcDbLine
 10
18.70202912891058
 20
22.29096551746559
 30
0.0
 11
16.67302912891058
 21
22.29096551746559
 31
0.0
  0
LINE
  5
2ABE
330
1F
100
AcDbEntity
  8
HIDDEN
100
AcDbLine
 10
18.70202912891058
 20
20.48096551746558
 30
0.0
 11
18.70202912891058
 21
22.29096551746559
 31
0.0
  0
LINE
  5
2ABF
330
1F
100
AcDbEntity
  8
HIDDEN
100
AcDbLine
 10
18.70202912891058
 20
20.48096551746558
 30
0.0
 11
16.67302912891057
 21
20.48096551746558
 31
0.0
  0
LINE
  5
2AC0
330
1F
100
AcDbEntity
  8
HIDDEN
100
AcDbLine
 10
18.70202912891058
 20
24.58096551746558
 30
0.0
 11
18.70202912891058
 21
23.25896551746559
 31
0.0
  0
LINE
  5
2AC1
330
1F
100
AcDbEntity
  8
HIDDEN
100
AcDbLine
 10
16.67302912891058
 20
24.58096551746558
 30
0.0
 11
18.70202912891058
 21
24.58096551746558
 31
0.0
  0
LINE
  5
2AC2
330
1F
100
AcDbEntity
  8
HIDDEN
100
AcDbLine
 10
16.67302912891058
 20
23.25896551746559
 30
0.0
 11
16.67302912891058
 21
24.58096551746558
 31
0.0
  0
LINE
  5
2AC3
330
1F
100
AcDbEntity
  8
HIDDEN
100
AcDbLine
 10
16.84052912891058
 20
22.45296551746558
 30
0.0
 11
16.84052912891058
 21
23.25896551746559
 31
0.0
  0
LINE
  5
2AC4
330
1F
100
AcDbEntity
  8
HIDDEN
100
AcDbLine
 10
16.84052912891058
 20
22.45296551746558
 30
0.0
 11
18.53452912891058
 21
22.45296551746558
 31
0.0
  0
LINE
  5
2AC5
330
1F
100
AcDbEntity
  8
HIDDEN
100
AcDbLine
 10
16.75794642049501
 20
23.25896551746559
 30
0.0
 11
16.84052912891058
 21
23.25896551746559
 31
0.0
  0
LINE
  5
2AC6
330
1F
100
AcDbEntity
  8
HIDDEN
100
AcDbLine
 10
18.61711183732614
 20
23.25896551746559
 30
0.0
 11
18.53452912891058
 21
23.25896551746559
 31
0.0
  0
LINE
  5
2AC7
330
1F
100
AcDbEntity
  8
HIDDEN
100
AcDbLine
 10
18.53452912891058
 20
22.45296551746558
 30
0.0
 11
18.53452912891058
 21
23.25896551746559
 31
0.0
  0
DIMENSION
  5
2C8B
330
1F
100
AcDbEntity
  8
DIM
100
AcDbDimension
  2
*D18
 10
2.385700920390187
 20
12.02268412710459
 30
0.0
 11
4.156700920390187
 21
12.02268412710459
 31
0.0
 70
    32
 71
     5
 42
3.542000000000001
  3
23NSTD
100
AcDbAlignedDimension
 13
5.927700920390188
 23
10.38479989029289
 33
0.0
 14
2.385700920390187
 24
10.38479989029289
 34
0.0
100
AcDbRotatedDimension
  0
DIMENSION
  5
2C99
330
1F
100
AcDbEntity
  8
DIM
100
AcDbDimension
  2
*D19
 10
1.991700916864331
 20
12.02268412710459
 30
0.0
 11
0.7323259168643322
 21
12.02268412710459
 31
0.0
 70
    32
 71
     5
 42
0.3940000035258553
  3
23NSTD
100
AcDbAlignedDimension
 13
2.385700920390187
 23
10.38479989029289
 33
0.0
 14
1.991700916864331
 24
9.223516511463701
 34
0.0
100
AcDbRotatedDimension
  0
DIMENSION
  5
2CA7
330
1F
100
AcDbEntity
  8
DIM
100
AcDbDimension
  2
*D20
 10
0.8469036637194662
 20
10.3685364343256
 30
0.0
 11
0.8469036637194646
 21
10.64466816230925
 31
0.0
 70
    32
 71
     5
 42
0.5522634559672906
  3
23NSTDI
100
AcDbAlignedDimension
 13
4.156700920390167
 23
10.92079989029289
 33
0.0
 14
2.401964376357445
 24
10.3685364343256
 34
0.0
 50
90.0
100
AcDbRotatedDimension
  0
DIMENSION
  5
2CB5
330
1F
100
AcDbEntity
  8
DIM
100
AcDbDimension
  2
*D21
 10
2.987700920390187
 20
1.720734901657195
 30
0.0
 11
4.156700920390187
 21
1.720734901657195
 31
0.0
 70
    32
 71
     5
 42
2.338
  3
23NSTD
100
AcDbAlignedDimension
 13
5.325700920390188
 23
3.072799890292895
 33
0.0
 14
2.987700920390187
 24
3.072799890292895
 34
0.0
100
AcDbRotatedDimension
  0
DIMENSION
  5
2CC3
330
1F
100
AcDbEntity
  8
DIM
100
AcDbDimension
  2
*D22
 10
2.680200920390189
 20
1.720734901657195
 30
0.0
 11
1.43645092039019
 21
1.720734901657195
 31
0.0
 70
    32
 71
     5
 42
0.3074999999999974
  3
23NSTD
100
AcDbAlignedDimension
 13
2.987700920390187
 23
3.072799890292895
 33
0.0
 14
2.680200920390189
 24
3.072799890292895
 34
0.0
100
AcDbRotatedDimension
  0
DIMENSION
  5
2CD1
330
1F
100
AcDbEntity
  8
DIM
100
AcDbDimension
  2
*D23
 10
1.98387689375734
 20
3.072799890292895
 30
0.0
 11
1.983876893757339
 21
2.862799890292896
 31
0.0
 70
    32
 71
     5
 42
0.4199999999999995
  3
23NSTDI
100
AcDbAlignedDimension
 13
4.156700920390167
 23
2.652799890292895
 33
0.0
 14
2.987700920390162
 24
3.072799890292895
 34
0.0
 50
90.0
100
AcDbRotatedDimension
  0
DIMENSION
  5
2CFF
330
1F
100
AcDbEntity
  8
DIM
100
AcDbDimension
  2
*D24
 10
6.036976078424766
 20
9.715793409585906
 30
0.0
 11
4.156700920390175
 21
9.715793409585906
 31
0.0
 70
   160
 71
     5
 42
3.760550316069181
  3
23NSTD
100
AcDbAlignedDimension
 13
2.276425762355585
 23
10.0875364343256
 33
0.0
 14
6.036976078424766
 24
10.1325364343256
 34
0.0
100
AcDbRotatedDimension
  0
DIMENSION
  5
2D21
330
1F
100
AcDbEntity
  8
DIM
100
AcDbDimension
  2
*D25
 10
1.287429707278243
 20
7.745799890292889
 30
0.0
 11
1.287429707278241
 21
8.916668162309246
 31
0.0
 70
    32
 71
     5
 42
2.341736544032714
  3
23NSTD
100
AcDbAlignedDimension
 13
2.276425762355586
 23
10.0875364343256
 33
0.0
 14
2.477200920390247
 24
7.745799890292888
 34
0.0
 50
90.0
100
AcDbRotatedDimension
  0
DIMENSION
  5
2D2F
330
1F
100
AcDbEntity
  8
DIM
100
AcDbDimension
  2
*D26
 10
5.630437464422898
 20
11.46246413083938
 30
0.0
 11
4.156700920390187
 21
11.46246413083938
 31
0.0
 70
   160
 71
     5
 42
2.947473088065421
  3
23NSTD
100
AcDbAlignedDimension
 13
2.682964376357477
 23
10.5353804533348
 33
0.0
 14
5.630437464422898
 24
10.5353804533348
 34
0.0
100
AcDbRotatedDimension
  0
DIMENSION
  5
2D3D
330
1F
100
AcDbEntity
  8
DIM
100
AcDbDimension
  2
*D27
 10
5.028437464422896
 20
2.250497155813846
 30
0.0
 11
4.156700920390186
 21
2.250497155813846
 31
0.0
 70
   160
 71
     5
 42
1.743473088065419
  3
23NSTD
100
AcDbAlignedDimension
 13
3.284964376357477
 23
2.946466289346692
 33
0.0
 14
5.028437464422896
 24
2.946466289346691
 34
0.0
100
AcDbRotatedDimension
  0
DIMENSION
  5
2D9B
330
1F
100
AcDbEntity
  8
DIM
100
AcDbDimension
  2
*D28
 10
5.453200920390191
 20
4.096393649798344
 30
0.0
 11
4.156700920390191
 21
4.096393649798344
 31
0.0
 70
    32
 71
     5
 42
2.592999999999999
  3
23NSTD
100
AcDbAlignedDimension
 13
2.860200920390191
 23
3.432063346260194
 33
0.0
 14
5.453200920390191
 24
3.432063346260197
 34
0.0
100
AcDbRotatedDimension
  0
DIMENSION
  5
2DAA
330
1F
100
AcDbEntity
  8
DIM
100
AcDbDimension
  2
*D29
 10
4.589156628000979
 20
2.946466289346691
 30
0.0
 11
4.589156628000978
 21
6.740923371340749
 31
0.0
 70
   160
 71
     5
 42
7.588914163988113
  3
23NSTD
100
AcDbAlignedDimension
 13
5.630437464422898
 23
10.5353804533348
 33
0.0
 14
5.028437464422896
 24
2.946466289346691
 34
0.0
 50
90.0
100
AcDbRotatedDimension
  0
DIMENSION
  5
2E95
330
1F
100
AcDbEntity
  8
DIM
100
AcDbDimension
  2
*D30
 10
0.8816448312917009
 20
5.347799890292891
 30
0.0
 11
0.8816448312917
 21
6.233799890292892
 31
0.0
 70
    32
 71
     5
 42
1.772000000000002
  3
23NSTD
100
AcDbAlignedDimension
 13
3.109700920390187
 23
7.119799890292892
 33
0.0
 14
3.109700920390187
 24
5.34779989029289
 34
0.0
 50
90.0
100
AcDbRotatedDimension
  0
DIMENSION
  5
2EA3
330
1F
100
AcDbEntity
  8
DIM
100
AcDbDimension
  2
*D31
 10
0.8816448312917003
 20
3.547799890292893
 30
0.0
 11
0.8816448312916998
 21
4.447799890292892
 31
0.0
 70
    32
 71
     5
 42
1.799999999999997
  3
23NSTD
100
AcDbAlignedDimension
 13
3.109700920390187
 23
5.34779989029289
 33
0.0
 14
3.109700920390187
 24
3.547799890292893
 34
0.0
 50
90.0
100
AcDbRotatedDimension
1001
ACAD
1000
DSTYLE
1002
{
1070
   279
1070
     1
1002
}
  0
DIMENSION
  5
2EB1
330
1F
100
AcDbEntity
  8
DIM
100
AcDbDimension
  2
*D32
 10
0.8866718583187275
 20
2.652799890292896
 30
0.0
 11
0.8866718583187271
 21
3.100299890292895
 31
0.0
 70
    32
 71
     5
 42
0.8949999999999977
  3
23NSTD
100
AcDbAlignedDimension
 13
3.109700920390187
 23
3.547799890292893
 33
0.0
 14
4.156700920390183
 24
2.652799890292895
 34
0.0
 50
90.0
100
AcDbRotatedDimension
1001
ACAD
1000
DSTYLE
1002
{
1070
   279
1070
     1
1002
}
  0
DIMENSION
  5
2EDD
330
1F
100
AcDbEntity
  8
DIM
100
AcDbDimension
  2
*D33
 10
5.203700920390188
 20
5.814861404032384
 30
0.0
 11
4.156700920390187
 21
5.814861404032384
 31
0.0
 70
   160
 71
     5
 42
2.094000000000001
  3
23NSTD
100
AcDbAlignedDimension
 13
3.109700920390187
 23
5.34779989029289
 33
0.0
 14
5.203700920390188
 24
5.34779989029289
 34
0.0
100
AcDbRotatedDimension
  0
HATCH
  5
2F56
330
1F
100
AcDbEntity
  8
BEND
100
AcDbHatch
 10
0.0
 20
0.0
 30
0.0
210
0.0
220
0.0
230
1.0
  2
ANSI31
 70
     0
 71
     1
 91
        1
 92
        7
 72
     1
 73
     1
 93
       26
 10
10.12014014604521
 20
7.162799890292891
 42
0.0
 10
10.16014014604522
 20
7.162799890292892
 42
0.0
 10
10.16014014604521
 20
3.012799890292891
 42
0.0
 10
10.12014014604521
 20
3.012799890292891
 42
0.0
 10
10.12014014604521
 20
2.772923149341088
 42
0.3989595459737193
 10
10.20922056615838
 20
2.679051973074158
 42
0.0
 10
10.71014014604521
 20
2.652799890292895
 42
0.0
 10
10.71014014604521
 20
2.702799890292892
 42
0.0
 10
10.59014014604521
 20
2.702799890292892
 42
0.0
 10
10.59014014604521
 20
2.787799890292893
 42
0.0
 10
10.71014014604521
 20
2.787799890292893
 42
0.0
 10
10.71014014604521
 20
2.832553206548718
 42
0.0
 10
10.25014014604521
 20
2.857154491042719
 42
0.0
 10
10.25014014604521
 20
10.71644528954307
 42
0.0
 10
10.71014014604521
 20
10.74104657403707
 42
0.0
 10
10.71014014604521
 20
10.78579989029289
 42
0.0
 10
10.59014014604521
 20
10.78579989029289
 42
0.0
 10
10.59014014604521
 20
10.87079989029289
 42
0.0
 10
10.71014014604521
 20
10.87079989029289
 42
0.0
 10
10.71014014604521
 20
10.92079989029289
 42
0.0
 10
10.20922056615838
 20
10.89454780751163
 42
0.3989595459737191
 10
10.12014014604521
 20
10.8006766312447
 42
0.0
 10
10.12014014604521
 20
10.44579989029289
 42
0.0
 10
10.16014014604522
 20
10.44579989029289
 42
0.0
 10
10.16014014604522
 20
7.827799890292892
 42
0.0
 10
10.12014014604521
 20
7.827799890292891
 42
0.0
 97
        7
330
1BE
330
1C1
330
1D7
330
2795
330
1D0
330
1CD
330
1D3
 75
     0
 76
     1
 52
0.0
 41
1.0
 77
     0
 78
     1
 53
45.0
 43
1.915644624323689
 44
0.8019466393224803
 45
-0.0883883476483184
 46
0.0883883476483185
 79
     0
 47
0.0186986045047666
 98
        1
 10
10.17367699231762
 20
7.54032000801483
  0
HATCH
  5
2F94
330
1F
100
AcDbEntity
  8
BEND
100
AcDbHatch
 10
0.0
 20
0.0
 30
0.0
210
0.0
220
0.0
230
1.0
  2
ANSI31
 70
     0
 71
     0
 91
        1
 92
        7
 72
     1
 73
     1
 93
       21
 10
11.69414014604521
 20
10.60466790340282
 42
0.3989595459737179
 10
11.42784654974948
 20
10.88528280266885
 42
0.0
 10
10.75014014604521
 20
10.92079989029289
 42
0.0
 10
10.75014014604521
 20
10.90079989029289
 42
0.0
 10
10.71014014604521
 20
10.90079989029288
 42
0.0
 10
10.71014014604521
 20
10.87079989029289
 42
0.0
 10
10.71014014604521
 20
10.85079989029289
 42
0.0
 10
10.66014014604521
 20
10.85079989029289
 42
0.0
 10
10.66014014604521
 20
10.80079989029289
 42
0.0
 10
11.44568214057559
 20
10.75963137882598
 42
-0.3989595459737147
 10
11.56414014604522
 20
10.63480268698166
 42
0.0
 10
11.56414014604522
 20
2.938797093604119
 42
-0.3989595459737209
 10
11.44568214057559
 20
2.8139684017598
 42
0.0
 10
10.66014014604521
 20
2.772799890292893
 42
0.0
 10
10.66014014604521
 20
2.722799890292896
 42
0.0
 10
10.71014014604522
 20
2.722799890292896
 42
0.0
 10
10.71014014604522
 20
2.672799890292895
 42
0.0
 10
10.75014014604521
 20
2.672799890292895
 42
0.0
 10
10.75014014604521
 20
2.652799890292896
 42
0.0
 10
11.42784654974948
 20
2.688316977916932
 42
0.3989595459737197
 10
11.69414014604521
 20
2.968931877182966
 42
0.0
 97
        0
 75
     0
 76
     1
 52
90.0
 41
1.0
 77
     0
 78
     1
 53
135.0
 43
1.915644624323689
 44
0.8019466393224803
 45
-0.0883883476483185
 46
-0.0883883476483184
 79
     0
 47
0.0186986045047666
 98
        1
 10
11.6148082903379
 20
6.848471599883332
  0
DIMENSION
  5
2FC7
330
1F
100
AcDbEntity
  8
DIM
100
AcDbDimension
  2
*D34
 10
10.25014014604521
 20
4.078427889341632
 30
0.0
 11
9.037640146045216
 21
4.078427889341632
 31
0.0
 70
   160
 71
     5
 42
1.314000000000001
  3
23NSTD
100
AcDbAlignedDimension
 13
11.56414014604521
 23
3.704596483662168
 33
0.0
 14
10.25014014604521
 24
3.704596483662167
 34
0.0
100
AcDbRotatedDimension
  0
DIMENSION
  5
2FD5
330
1F
100
AcDbEntity
  8
DIM
100
AcDbDimension
  2
*D35
 10
10.44014014604521
 20
4.77572393177877
 30
0.0
 11
9.180765146045215
 21
4.77572393177877
 31
0.0
 70
    32
 71
     5
 42
0.9386849315068506
  3
23NSTD
100
AcDbAlignedDimension
 13
11.37882507755206
 23
5.267306739607956
 33
0.0
 14
10.44014014604521
 24
5.222799890292888
 34
0.0
100
AcDbRotatedDimension
  0
DIMENSION
  5
2FE3
330
1F
100
AcDbEntity
  8
DIM
100
AcDbDimension
  2
*D36
 10
10.12014014604521
 20
5.799877458211931
 30
0.0
 11
8.876390146045217
 21
5.799877458211931
 31
0.0
 70
    32
 71
     5
 42
0.3199999999999985
  3
23NSTD
100
AcDbAlignedDimension
 13
10.44014014604521
 23
5.472799890292892
 33
0.0
 14
10.12014014604521
 24
5.472799890292892
 34
0.0
100
AcDbRotatedDimension
  0
DIMENSION
  5
2FF1
330
1F
100
AcDbEntity
  8
DIM
100
AcDbDimension
  2
*D37
 10
11.69882507755206
 20
6.716004328665524
 30
0.0
 11
12.94257507755206
 21
6.716004328665524
 31
0.0
 70
    32
 71
     5
 42
0.3200000000000003
  3
23NSTD
100
AcDbAlignedDimension
 13
11.37882507755206
 23
7.039306739607956
 33
0.0
 14
11.69882507755206
 24
7.039306739607956
 34
0.0
100
AcDbRotatedDimension
  0
DIMENSION
  5
3036
330
1F
100
AcDbEntity
  8
DIM
100
AcDbDimension
  2
*D38
 10
19.06552912891057
 20
11.46246413083938
 30
0.0
 11
17.68752912891057
 21
11.46246413083938
 31
0.0
 70
    32
 71
     5
 42
2.756
  3
23NSTD
100
AcDbAlignedDimension
 13
16.30952912891057
 23
10.01579989029288
 33
0.0
 14
19.06552912891057
 24
10.01579989029288
 34
0.0
100
AcDbRotatedDimension
  0
DIMENSION
  5
3044
330
1F
100
AcDbEntity
  8
DIM
100
AcDbDimension
  2
*D39
 10
19.22126567294329
 20
12.02268412710459
 30
0.0
 11
17.68752912891057
 21
12.02268412710459
 31
0.0
 70
    32
 71
     5
 42
3.067473088065419
  3
23NSTD
100
AcDbAlignedDimension
 13
16.15379258487787
 23
10.5353804533348
 33
0.0
 14
19.22126567294329
 24
10.53538045333474
 34
0.0
100
AcDbRotatedDimension
  0
DIMENSION
  5
3066
330
1F
100
AcDbEntity
  8
DIM
100
AcDbDimension
  2
*D40
 10
19.56780428694517
 20
9.452369792057687
 30
0.0
 11
17.68752912891057
 21
9.452369792057687
 31
0.0
 70
   160
 71
     5
 42
3.760550316069197
  3
23NSTD
100
AcDbAlignedDimension
 13
15.80725397087597
 23
10.1475364343256
 33
0.0
 14
19.56780428694517
 24
10.1475364343256
 34
0.0
100
AcDbRotatedDimension
  0
DIMENSION
  5
3075
330
1F
100
AcDbEntity
  8
DIM
100
AcDbDimension
  2
*D41
 10
14.83042285562728
 20
7.685799890292891
 30
0.0
 11
14.83042285562728
 21
8.916668162309248
 31
0.0
 70
    32
 71
     5
 42
2.46173654403271
  3
23NSTD
100
AcDbAlignedDimension
 13
15.80725397087597
 23
10.1475364343256
 33
0.0
 14
16.00802912891064
 24
7.685799890292891
 34
0.0
 50
90.0
100
AcDbRotatedDimension
  0
DIMENSION
  5
3083
330
1F
100
AcDbEntity
  8
DIM
100
AcDbDimension
  2
*D42
 10
20.46302177472915
 20
10.01579989029288
 30
0.0
 11
20.46302177472915
 21
9.015799890292893
 31
0.0
 70
    32
 71
     5
 42
1.999999999999996
  3
23NSTD
100
AcDbAlignedDimension
 13
19.06552912891057
 23
8.015799890292893
 33
0.0
 14
19.06552912891057
 24
10.01579989029288
 34
0.0
 50
90.0
100
AcDbRotatedDimension
  0
DIMENSION
  5
3091
330
1F
100
AcDbEntity
  8
DIM
100
AcDbDimension
  2
*D43
 10
20.46302177472915
 20
10.92079989029289
 30
0.0
 11
20.46302177472915
 21
10.46829989029289
 31
0.0
 70
    32
 71
     5
 42
0.9050000000000046
  3
23NSTD
100
AcDbAlignedDimension
 13
19.06552912891057
 23
10.01579989029288
 33
0.0
 14
17.68752912891058
 24
10.92079989029289
 34
0.0
 50
90.0
100
AcDbRotatedDimension
  0
DIMENSION
  5
30A0
330
1F
100
AcDbEntity
  8
DIM
100
AcDbDimension
  2
*D46
 10
20.46302177472915
 20
2.652799890292894
 30
0.0
 11
20.46302177472915
 21
3.122799890292896
 31
0.0
 70
    32
 71
     5
 42
0.9399999999999977
  3
23NSTD
100
AcDbAlignedDimension
 13
18.73452912891058
 23
3.592799890292893
 33
0.0
 14
17.68752912891058
 24
2.652799890292895
 34
0.0
 50
90.0
100
AcDbRotatedDimension
1001
ACAD
1000
DSTYLE
1002
{
1070
   279
1070
     1
1002
}
  0
DIMENSION
  5
30A1
330
1F
100
AcDbEntity
  8
DIM
100
AcDbDimension
  2
*D45
 10
20.46302177472915
 20
3.592799890292892
 30
0.0
 11
20.46302177472915
 21
4.492799890292894
 31
0.0
 70
    32
 71
     5
 42
1.799999999999997
  3
23NSTD
100
AcDbAlignedDimension
 13
18.73452912891058
 23
5.39279989029289
 33
0.0
 14
18.73452912891058
 24
3.592799890292893
 34
0.0
 50
90.0
100
AcDbRotatedDimension
1001
ACAD
1000
DSTYLE
1002
{
1070
   279
1070
     1
1002
}
  0
DIMENSION
  5
30A2
330
1F
100
AcDbEntity
  8
DIM
100
AcDbDimension
  2
*D44
 10
20.46302177472915
 20
5.39279989029289
 30
0.0
 11
20.46302177472915
 21
6.278799890292894
 31
0.0
 70
    32
 71
     5
 42
1.772000000000002
  3
23NSTD
100
AcDbAlignedDimension
 13
18.73452912891058
 23
7.164799890292892
 33
0.0
 14
18.73452912891058
 24
5.39279989029289
 34
0.0
 50
90.0
100
AcDbRotatedDimension
  0
DIMENSION
  5
30E8
330
1F
100
AcDbEntity
  8
DIM
100
AcDbDimension
  2
*D47
 10
19.04402912891058
 20
4.141393649798349
 30
0.0
 11
17.68752912891057
 21
4.141393649798349
 31
0.0
 70
   160
 71
     5
 42
2.713
  3
23NSTD
100
AcDbAlignedDimension
 13
16.33102912891057
 23
3.432063346260199
 33
0.0
 14
19.04402912891058
 24
3.432063346260199
 34
0.0
100
AcDbRotatedDimension
  0
DIMENSION
  5
30E9
330
1F
100
AcDbEntity
  8
DIM
100
AcDbDimension
  2
*D49
 10
18.73452912891058
 20
5.859861404032384
 30
0.0
 11
17.68752912891057
 21
5.859861404032384
 31
0.0
 70
   160
 71
     5
 42
2.094000000000001
  3
23NSTD
100
AcDbAlignedDimension
 13
16.64052912891057
 23
5.39279989029289
 33
0.0
 14
18.73452912891058
 24
5.39279989029289
 34
0.0
100
AcDbRotatedDimension
  0
DIMENSION
  5
30EA
330
1F
100
AcDbEntity
  8
DIM
100
AcDbDimension
  2
*D48
 10
18.11998483652137
 20
2.954106964898815
 30
0.0
 11
18.11998483652137
 21
6.785923371340749
 31
0.0
 70
   160
 71
     5
 42
7.573826384403993
  3
23NSTD
100
AcDbAlignedDimension
 13
19.22126567294329
 23
10.5279333493028
 33
0.0
 14
18.61926567294328
 24
2.954106964898815
 34
0.0
 50
90.0
100
AcDbRotatedDimension
  0
DIMENSION
  5
3130
330
1F
100
AcDbEntity
  8
DIM
100
AcDbDimension
  2
*D50
 10
18.61926567294328
 20
2.064497155813846
 30
0.0
 11
17.68752912891057
 21
2.064497155813846
 31
0.0
 70
    32
 71
     5
 42
1.863473088065418
  3
23NSTD
100
AcDbAlignedDimension
 13
16.75579258487786
 23
2.954106964898817
 33
0.0
 14
18.61926567294328
 24
2.954106964898815
 34
0.0
100
AcDbRotatedDimension
  0
LWPOLYLINE
  5
330C
330
1F
100
AcDbEntity
  8
OBJECT
100
AcDbPolyline
 90
       12
 70
     0
 43
0.0
 10
18.78002912891058
 20
23.25896551746559
 10
18.64502912891058
 20
23.25896551746559
 10
18.64502912891058
 20
23.14796551746558
 10
18.61252912891058
 20
23.14796551746558
 10
18.61252912891058
 20
22.46896551746558
 42
-0.4142135623730951
 10
18.51852912891057
 20
22.37496551746559
 10
16.85652912891058
 20
22.37496551746558
 42
-0.4142135623730951
 10
16.76252912891057
 20
22.46896551746558
 10
16.76252912891057
 20
23.14796551746558
 10
16.73002912891058
 20
23.14796551746558
 10
16.73002912891057
 20
23.25896551746559
 10
16.59502912891058
 20
23.25896551746559
  0
LWPOLYLINE
  5
3310
330
1F
100
AcDbEntity
  8
OBJECT
100
AcDbPolyline
 90
       10
 70
     1
 43
0.0
 10
16.76002912891058
 20
23.13896551746558
 10
16.59502912891058
 20
23.13896551746558
 10
16.59502912891058
 20
20.51296551746558
 42
0.4142135623730951
 10
16.68902912891058
 20
20.41896551746558
 10
18.68602912891058
 20
20.41896551746558
 42
0.4142135623730951
 10
18.78002912891058
 20
20.51296551746558
 10
18.78002912891058
 20
23.13896551746558
 10
18.61502912891058
 20
23.13896551746558
 10
18.61502912891058
 20
22.36896551746558
 10
16.76002912891058
 20
22.36896551746558
  0
LWPOLYLINE
  5
3311
330
1F
100
AcDbEntity
  8
OBJECT
100
AcDbPolyline
 90
        8
 70
     0
 43
0.0
 10
16.73002912891058
 20
23.17096551746558
 10
16.59502912891058
 20
23.17096551746558
 10
16.59502912891058
 20
24.56496551746559
 42
-0.4142135623730951
 10
16.68902912891058
 20
24.65896551746558
 10
18.68602912891058
 20
24.65896551746558
 42
-0.4142135623730951
 10
18.78002912891058
 20
24.56496551746559
 10
18.78002912891058
 20
23.17096551746558
 10
18.64502912891058
 20
23.17096551746558
  0
LWPOLYLINE
  5
3312
330
1F
100
AcDbEntity
  8
OBJECT
100
AcDbPolyline
 90
        8
 70
     1
 43
0.0
 10
18.08002912891058
 20
23.76896551746559
 10
18.08002912891058
 20
23.80896551746559
 10
18.46252912891058
 20
23.80896551746559
 42
0.9999999999999998
 10
18.46252912891058
 20
23.96396551746559
 10
18.08002912891058
 20
23.96396551746559
 10
18.08002912891058
 20
24.00396551746559
 10
18.46252912891058
 20
24.00396551746558
 42
-0.9999999999999998
 10
18.46252912891058
 20
23.76896551746559
  0
LWPOLYLINE
  5
3313
330
1F
100
AcDbEntity
  8
OBJECT
100
AcDbPolyline
 90
        8
 70
     1
 43
0.0
 10
17.29502912891058
 20
23.76896551746559
 10
17.29502912891057
 20
23.80896551746559
 10
16.91252912891057
 20
23.80896551746559
 42
-0.9999999999999998
 10
16.91252912891057
 20
23.96396551746559
 10
17.29502912891057
 20
23.96396551746559
 10
17.29502912891057
 20
24.00396551746559
 10
16.91252912891057
 20
24.00396551746558
 42
0.9999999999999998
 10
16.91252912891057
 20
23.76896551746559
  0
LWPOLYLINE
  5
3314
330
1F
100
AcDbEntity
  8
OBJECT
100
AcDbPolyline
 90
        4
 70
     1
 43
0.0
 10
17.57002912891058
 20
24.11346551746559
 10
17.57002912891058
 20
23.96448148735492
 42
3.73205080756888
 10
17.80502912891058
 20
23.96448148735492
 10
17.80502912891058
 20
24.11346551746559
 42
0.9999999999999998
  0
LWPOLYLINE
  5
337B
330
1F
100
AcDbEntity
  8
OBJECT
100
AcDbPolyline
 90
        4
 70
     1
 43
0.0
 10
18.47602912891058
 20
21.80896551746558
 10
18.47602912891058
 20
21.00896551746559
 10
16.89902912891058
 20
21.00896551746559
 10
16.89902912891058
 20
21.80896551746558
  0
INSERT
  5
3951
330
1F
100
AcDbEntity
  8
TITLE
100
AcDbBlockReference
  2
Hb
 10
0.0
 20
0.0
 30
0.0
 41
2.0
 42
2.0
 43
2.0
  0
LWPOLYLINE
  5
4257
330
1F
100
AcDbEntity
  8
OBJECT
100
AcDbPolyline
 90
        6
 70
     1
 43
0.0
 10
12.16085411307072
 20
23.07646599981541
 10
12.16083460684337
 20
20.54896736968508
 10
12.28783360355194
 20
20.41896638955408
 10
12.40083360354857
 20
20.41896551746558
 10
12.40085334516263
 20
22.97696414759501
 10
12.26918345697515
 20
23.11896164949097
 42
0.6819028294407566
  0
LINE
  5
4258
330
1F
100
AcDbEntity
  8
HIDDEN
100
AcDbLine
 10
12.32284805089316
 20
22.29096551746559
 30
0.0
 11
12.32283408204193
 21
20.48096551746558
 31
0.0
  0
LINE
  5
4259
330
1F
100
AcDbEntity
  8
HIDDEN
100
AcDbLine
 10
12.22726485127555
 20
20.48096625503042
 30
0.0
 11
12.32283408204193
 21
20.48096551746558
 31
0.0
  0
LINE
  5
425A
330
1F
100
AcDbEntity
  8
HIDDEN
100
AcDbLine
 10
12.32283815714423
 20
21.00897069597122
 30
0.0
 11
12.40083815714189
 21
21.00897009399863
 31
0.0
  0
LINE
  5
425B
330
1F
100
AcDbEntity
  8
HIDDEN
100
AcDbLine
 10
12.32284587474159
 20
21.8089735831038
 30
0.0
 11
12.40084587473925
 21
21.80897298113121
 31
0.0
  0
LINE
  5
425C
330
1F
100
AcDbEntity
  8
HIDDEN
100
AcDbLine
 10
12.40086010974312
 20
22.37496551746559
 30
0.0
 11
12.16084869928871
 21
22.37496551746559
 31
0.0
  0
LINE
  5
425D
330
1F
100
AcDbEntity
  8
OBJECT
100
AcDbLine
 10
12.16086010992169
 20
24.65896346596587
 30
0.0
 11
12.40084058488566
 21
24.65896551746558
 31
0.0
  0
LINE
  5
425E
330
1F
100
AcDbEntity
  8
HIDDEN
100
AcDbLine
 10
12.16086010992169
 20
24.58096346596303
 30
0.0
 11
12.32284125168015
 21
24.58096485067678
 31
0.0
  0
LINE
  5
425F
330
1F
100
AcDbEntity
  8
OBJECT
100
AcDbLine
 10
12.27085255294564
 20
23.25896440614616
 30
0.0
 11
12.18285330522661
 21
23.17096551746559
 31
0.0
  0
ARC
  5
4260
330
1F
100
AcDbEntity
  8
HIDDEN
100
AcDbCircle
 10
12.22335411306886
 20
23.07646551746558
 30
0.0
 40
0.0625
100
AcDbArc
 50
208.8946081733306
 51
12.70700894840192
  0
LINE
  5
4261
330
1F
100
AcDbEntity
  8
CENTER
100
AcDbLine
 10
12.35835411306886
 20
23.07646551746558
 30
0.0
 11
12.08835411306886
 21
23.07646551746558
 31
0.0
  0
LINE
  5
4262
330
1F
100
AcDbEntity
  8
HIDDEN
100
AcDbLine
 10
12.1608602664883
 20
22.36896985659795
 30
0.0
 11
12.40086026647952
 21
22.36897190826456
 31
0.0
  0
LINE
  5
4263
330
1F
100
AcDbEntity
  8
HIDDEN
100
AcDbLine
 10
12.16086010992169
 20
22.45296413259632
 30
0.0
 11
12.32285944312411
 21
22.45296551746558
 31
0.0
  0
LINE
  5
4264
330
1F
100
AcDbEntity
  8
HIDDEN
100
AcDbLine
 10
12.16084805089799
 20
22.29096676771636
 30
0.0
 11
12.32284805089316
 21
22.29096551746559
 31
0.0
  0
LINE
  5
4265
330
1F
100
AcDbEntity
  8
OBJECT
100
AcDbLine
 10
12.16086010992169
 20
22.37494360420572
 30
0.0
 11
12.16086010992169
 21
24.65896346596588
 31
0.0
  0
LINE
  5
4266
330
1F
100
AcDbEntity
  8
OBJECT
100
AcDbLine
 10
12.16086010992169
 20
23.17096532945432
 30
0.0
 11
12.18285330522661
 21
23.17096551746558
 31
0.0
  0
LINE
  5
4267
330
1F
100
AcDbEntity
  8
OBJECT
100
AcDbLine
 10
12.40084058488566
 20
24.65896551746558
 30
0.0
 11
12.40086010991291
 21
22.37494565587233
 31
0.0
  0
LINE
  5
4268
330
1F
100
AcDbEntity
  8
HIDDEN
100
AcDbLine
 10
12.32284125168015
 20
24.58096485067678
 30
0.0
 11
12.32285255216392
 21
23.25905607334152
 31
0.0
  0
LINE
  5
4269
330
1F
100
AcDbEntity
  8
HIDDEN
100
AcDbLine
 10
12.32285462350987
 20
23.0167555395506
 30
0.0
 11
12.32285944312411
 21
22.45296551746558
 31
0.0
  0
LINE
  5
426A
330
1F
100
AcDbEntity
  8
CENTER
100
AcDbLine
 10
12.22335411306886
 20
22.94146551746558
 30
0.0
 11
12.22335411306886
 21
23.21146551746558
 31
0.0
  0
LINE
  5
426B
330
1F
100
AcDbEntity
  8
OBJECT
100
AcDbLine
 10
12.27085255294564
 20
23.25896440614617
 30
0.0
 11
12.40085255294089
 21
23.25896551746559
 31
0.0
  0
LINE
  5
426C
330
1F
100
AcDbEntity
  8
HIDDEN
100
AcDbLine
 10
12.40085027046179
 20
23.52594565578888
 30
0.0
 11
12.32285027045894
 21
23.52594565578888
 31
0.0
  0
LINE
  5
426D
330
1F
100
AcDbEntity
  8
HIDDEN
100
AcDbLine
 10
12.40084424369111
 20
24.23094565578888
 30
0.0
 11
12.32284424368827
 21
24.23094565578888
 31
0.0
  0
TEXT
  5
446D
330
1F
100
AcDbEntity
  8
TEXT
100
AcDbText
 10
4.372686988047343
 20
1.616916410398928
 30
0.0
 40
0.25
  1
 
 41
0.75
 72
     1
 11
4.466436988047343
 21
1.616916410398928
 31
0.0
100
AcDbText
  0
TEXT
  5
446E
330
1F
100
AcDbEntity
  8
TEXT
100
AcDbText
 10
4.372686988047343
 20
1.200249743732262
 30
0.0
 40
0.25
  1
 
 41
0.75
 72
     1
 11
4.466436988047343
 21
1.200249743732262
 31
0.0
100
AcDbText
  0
TEXT
  5
446F
330
1F
100
AcDbEntity
  8
TEXT
100
AcDbText
 10
2.528575920390186
 20
0.9806184883517605
 30
0.0
 40
0.25
  1
%%UINSIDE VIEW OF TOP
 41
0.75
 72
     1
 11
4.156700920390186
 21
0.9806184883517605
 31
0.0
100
AcDbText
  0
TEXT
  5
4470
330
1F
100
AcDbEntity
  8
TEXT
100
AcDbText
 10
15.77815412891057
 20
0.9806184883517623
 30
0.0
 40
0.25
  1
%%UINSIDE VIEW OF BOTTOM
 41
0.75
 72
     1
 11
17.68752912891057
 21
0.9806184883517623
 31
0.0
100
AcDbText
  0
TEXT
  5
4659
330
1F
100
AcDbEntity
  8
TEXT
100
AcDbText
 10
1.786000000000003
 20
30.622
 30
0.0
 40
0.312
  1
HAND HELD ENCLOSURE (STYLE G)
 41
0.75
 72
     4
 11
5.062000000000003
 21
30.77799999999999
 31
0.0
100
AcDbText
  0
TEXT
  5
465B
330
1F
100
AcDbEntity
  8
TEXT
100
AcDbText
 10
11.144025722444
 20
30.622
 30
0.0
 40
0.312
  1
HH-3496-B & HH-3496-G
 41
0.75
 72
     4
 11
13.562025722444
 21
30.77799999999999
 31
0.0
100
AcDbText
  0
TEXT
  5
465C
330
1F
100
AcDbEntity
  8
TEXT
100
AcDbText
 10
0.3693769432177874
 20
29.89298615730845
 30
0.0
 40
0.25
  1
%%uMATERIAL:
 41
0.75
100
AcDbText
  0
TEXT
  5
465D
330
1F
100
AcDbEntity
  8
TEXT
100
AcDbText
 10
0.3693769432177874
 20
29.05965282397511
 30
0.0
 40
0.25
  1
%%uFINISH:
 41
0.75
100
AcDbText
  0
TEXT
  5
465F
330
1F
100
AcDbEntity
  8
TEXT
100
AcDbText
 10
0.5139951718074372
 20
29.47631949064178
 30
0.0
 40
0.25
  1
HIGH-IMPACT ABS (FLAMMABILITY RATING OF UL94V-0)
 41
0.75
100
AcDbText
  0
TEXT
  5
4660
330
1F
100
AcDbEntity
  8
TEXT
100
AcDbText
 10
0.5139951718074372
 20
28.64298615730844
 30
0.0
 40
0.25
  1
(SUFFIX -B)
 41
0.75
100
AcDbText
  0
TEXT
  5
4661
330
1F
100
AcDbEntity
  8
TEXT
100
AcDbText
 10
0.5139951718074372
 20
28.22631949064177
 30
0.0
 40
0.25
  1
(SUFFIX -G)
 41
0.75
100
AcDbText
  0
TEXT
  5
4662
330
1F
100
AcDbEntity
  8
TEXT
100
AcDbText
 10
3.676893300927076
 20
28.22631949064177
 30
0.0
 40
0.25
  1
LIGHT GRAY
 41
0.75
100
AcDbText
  0
TEXT
  5
4663
330
1F
100
AcDbEntity
  8
TEXT
100
AcDbText
 10
3.676893300927076
 20
28.64298615730844
 30
0.0
 40
0.25
  1
BLACK
 41
0.75
100
AcDbText
  0
LINE
  5
4664
330
1F
100
AcDbEntity
  8
TEXT
100
AcDbLine
 10
3.515261268757626
 20
28.64298615730844
 30
0.0
 11
2.453266306756603
 21
28.64298615730844
 31
0.0
  0
LINE
  5
4666
330
1F
100
AcDbEntity
  8
TEXT
100
AcDbLine
 10
3.515261268757626
 20
28.22631949064177
 30
0.0
 11
2.453266306756603
 21
28.22631949064177
 31
0.0
  0
LEADER
  5
466E
330
1F
100
AcDbEntity
  8
DIM
100
AcDbLeader
  3
23NSTD
 73
     0
 74
     0
 75
     1
 40
0.6666666666666666
 41
3.25
 76
     3
 10
5.960384242055666
 20
10.41573208201787
 30
0.0
 10
6.626950624070039
 20
11.45962015902526
 30
0.0
 10
6.98695062407004
 20
11.45962015902526
 30
0.0
340
466F
213
0.0
223
-0.125
233
0.0
1001
ACAD
1000
DSTYLE
1002
{
1070
   147
1040
0.09
1070
    77
1070
     0
1002
}
  0
MTEXT
  5
466F
102
{ACAD_REACTORS
330
466E
102
}
330
1F
100
AcDbEntity
  8
DIM
100
AcDbMText
 10
7.16695062407004
 20
11.58462015902527
 30
0.0
 40
0.25
 41
0.0
 71
     1
 72
     1
  1
\A1;M3 THREADED INSERT\P(4) PLACES
 73
     1
 44
1.0
  0
LEADER
  5
46B8
330
1F
100
AcDbEntity
  8
DIM
100
AcDbLeader
  3
23NSTD
 73
     0
 74
     0
 75
     1
 40
1.083333333333333
 41
3.3125
 76
     3
 10
5.301588757832968
 20
7.197536440774477
 30
0.0
 10
6.018439849324905
 20
7.503453911372098
 30
0.0
 10
6.378439849324905
 20
7.503453911372098
 30
0.0
340
46B9
213
0.0
223
-0.125
233
0.0
1001
ACAD
1000
DSTYLE
1002
{
1070
   147
1040
0.09
1070
    77
1070
     0
1002
}
  0
MTEXT
  5
46B9
102
{ACAD_REACTORS
330
46B8
102
}
330
1F
100
AcDbEntity
  8
DIM
100
AcDbMText
 10
6.558439849324905
 20
7.628453911372098
 30
0.0
 40
0.25
 41
0.0
 71
     1
 72
     1
  1
\A1;0.250 DIA. BOSS\PWITH 0.098 DIA. HOLE\P(6) PLACES
 73
     1
 44
1.0
  0
LEADER
  5
496C
330
1F
100
AcDbEntity
  8
DIM
100
AcDbLeader
  3
23NSTD
 73
     0
 75
     1
 40
1.083333333333333
 41
3.3125
 76
     3
 10
16.53593467536146
 20
7.096352828363531
 30
0.0
 10
16.0284006503037
 20
6.038285573798539
 30
0.0
 10
15.6684006503037
 20
6.038285573798539
 30
0.0
340
496D
213
0.0
223
-0.125
233
0.0
1001
ACAD
1000
DSTYLE
1002
{
1070
   147
1040
0.09
1070
    77
1070
     0
1002
}
  0
MTEXT
  5
496D
102
{ACAD_REACTORS
330
496C
102
}
330
1F
100
AcDbEntity
  8
DIM
100
AcDbMText
 10
15.4884006503037
 20
6.163285573798539
 30
0.0
 40
0.25
 41
0.0
 71
     3
 72
     1
  1
\A1;0.250 DIA. BOSS\PWITH 0.098 DIA. HOLE\P(10) PLACES
 73
     1
 44
1.0
  0
TEXT
  5
4CB7
330
1F
100
AcDbEntity
  8
TEXT
100
AcDbText
 10
11.29137385397436
 20
29.91018884621733
 30
0.0
 40
0.25
  1
ALL DIMENSIONS HAVE %%p0.015 TOLERANCE.
 41
0.75
100
AcDbText
  0
TEXT
  5
4CB9
330
1F
100
AcDbEntity
  8
TEXT
100
AcDbText
 10
10.37880172212422
 20
29.89298615730845
 30
0.0
 40
0.25
  1
 
 41
0.75
100
AcDbText
  0
TEXT
  5
4CBA
330
1F
100
AcDbEntity
  8
TEXT
100
AcDbText
 10
10.37880172212422
 20
29.47631949064178
 30
0.0
 40
0.25
  1
 
 41
0.75
100
AcDbText
  0
TEXT
  5
4CBB
330
1F
100
AcDbEntity
  8
TEXT
100
AcDbText
 10
11.29137385397436
 20
29.07685551288399
 30
0.0
 40
0.25
  1
FOUR (4) M3 x 1.173 LG. SCREWS SUPPLIED FOR ASSEMBLY.
 41
0.75
100
AcDbText
  0
TEXT
  5
4CBC
330
1F
100
AcDbEntity
  8
TEXT
100
AcDbText
 10
11.29137385397436
 20
28.66018884621732
 30
0.0
 40
0.25
  1
ONE (1) M3 x 0.394 LG. SCREW SUPPLIED FOR TILT STAND.
 41
0.75
100
AcDbText
  0
TEXT
  5
4CBD
330
1F
100
AcDbEntity
  8
TEXT
100
AcDbText
 10
10.37880172212422
 20
28.22631949064177
 30
0.0
 40
0.25
  1
 
 41
0.75
100
AcDbText
  0
TEXT
  5
4D54
330
1F
100
AcDbEntity
  8
TEXT
100
AcDbText
 10
10.37880172212422
 20
28.64298615730844
 30
0.0
 40
0.25
  1
 
 41
0.75
100
AcDbText
  0
TEXT
  5
4D55
330
1F
100
AcDbEntity
  8
TEXT
100
AcDbText
 10
11.29137385397436
 20
28.24352217955066
 30
0.0
 40
0.25
  1
WALL MOUNT/TILT STAND SUPPLIED UNASSEMBLED.
 41
0.75
100
AcDbText
  0
TEXT
  5
4DB4
330
1F
100
AcDbEntity
  8
TEXT
100
AcDbText
 10
0.3693769432177874
 20
29.05965282397511
 30
0.0
 40
0.25
  1
 
 41
0.75
100
AcDbText
  0
TEXT
  5
4DB5
330
1F
100
AcDbEntity
  8
TEXT
100
AcDbText
 10
0.3693769432177874
 20
28.64298615730844
 30
0.0
 40
0.25
  1
 
 41
0.75
100
AcDbText
  0
TEXT
  5
4DB6
330
1F
100
AcDbEntity
  8
TEXT
100
AcDbText
 10
0.3693769432177874
 20
28.22631949064177
 30
0.0
 40
0.25
  1
 
 41
0.75
100
AcDbText
  0
TEXT
  5
4DB7
330
1F
100
AcDbEntity
  8
TEXT
100
AcDbText
 10
0.3693769432177874
 20
27.80965282397511
 30
0.0
 40
0.25
  1
 
 41
0.75
100
AcDbText
  0
LWPOLYLINE
  5
5141
330
1F
100
AcDbEntity
  8
OBJECT
100
AcDbPolyline
 90
        6
 70
     1
 43
0.0
 10
7.937807488483914
 20
13.67300735381236
 10
7.713645879825479
 20
14.12174020369969
 42
-0.3989595459737193
 10
7.751386573928174
 20
14.24552533604571
 10
14.73534104716722
 20
18.20396011281543
 42
-0.3989595459737191
 10
14.8609317316066
 20
18.17274955429231
 10
15.13077071473482
 20
17.74990617838501
  0
DIMENSION
  5
5142
330
1F
100
AcDbEntity
  8
DIM
100
AcDbDimension
  2
*D51
 10
8.698039007560042
 20
12.97283346788239
 30
0.0
 11
15.33521442283108
 21
14.70345056616513
 31
0.0
 70
    34
  1
<> REF.
 71
     5
 42
0.5156422738531381
  3
23NSTD
100
AcDb2LineAngularDimension
 13
14.14975540110703
 23
12.93629678020983
 33
0.0
 14
8.559479674018954
 24
12.93629678024046
 34
0.0
 15
15.34094762414914
 25
16.73796690160794
 35
0.0
 16
15.46216433394281
 26
14.12169610129906
 36
0.0
1001
ACAD
1000
DSTYLE
1002
{
1070
   179
1070
     0
1002
}
  0
LWPOLYLINE
  5
5143
330
1F
100
AcDbEntity
  8
HIDDEN
100
AcDbPolyline
 90
        4
 70
     0
 43
0.0
 10
12.14900903533328
 20
16.73805328035462
 10
12.16873278387983
 20
16.70325423233213
 10
14.44633047695252
 20
17.99417357470408
 10
14.42660672840597
 20
18.02897262272657
  0
LINE
  5
5144
330
1F
100
AcDbEntity
  8
OBJECT
100
AcDbLine
 10
13.97346307831836
 20
15.92840678648499
 30
0.0
 11
14.18051741405224
 21
16.04576309033699
 31
0.0
  0
LINE
  5
5145
330
1F
100
AcDbEntity
  8
HIDDEN
100
AcDbLine
 10
14.06132567381641
 20
16.01269011913118
 30
0.0
 11
14.1411987612176
 21
15.87177106365502
 31
0.0
  0
LINE
  5
5146
330
1F
100
AcDbEntity
  8
HIDDEN
100
AcDbLine
 10
14.1411987612176
 20
15.87177106365502
 30
0.0
 11
12.99117515781873
 21
15.21993632436203
 31
0.0
  0
LINE
  5
5147
330
1F
100
AcDbEntity
  8
HIDDEN
100
AcDbLine
 10
14.06649028421442
 20
12.96036911662037
 30
0.0
 11
14.14963360417582
 21
13.00749306186711
 31
0.0
  0
LINE
  5
5148
330
1F
100
AcDbEntity
  8
HIDDEN
100
AcDbLine
 10
13.25714613501239
 20
14.582156872838
 30
0.0
 11
14.14963360417582
 21
13.00749306186711
 31
0.0
  0
LINE
  5
5149
330
1F
100
AcDbEntity
  8
OBJECT
100
AcDbLine
 10
14.14975540110703
 20
12.93629678020983
 30
0.0
 11
8.559479674018952
 21
12.93629678024046
 31
0.0
  0
LINE
  5
514A
330
1F
100
AcDbEntity
  8
OBJECT
100
AcDbLine
 10
12.14215996013389
 20
14.92492639837176
 30
0.0
 11
14.12918381746276
 21
16.05115142879837
 31
0.0
  0
LINE
  5
514B
330
1F
100
AcDbEntity
  8
OBJECT
100
AcDbLine
 10
14.24751846582548
 20
15.84237513856164
 30
0.0
 11
12.26050245132516
 21
14.71613211039211
 31
0.0
  0
LWPOLYLINE
  5
514C
330
1F
100
AcDbEntity
  8
OBJECT
100
AcDbPolyline
 90
        6
 70
     1
 43
0.0
 10
12.72888991454483
 20
15.18564540562083
 10
13.97516663040253
 20
12.98677213205499
 10
14.14975540110703
 20
12.93629678020983
 10
14.24806314178903
 20
12.99201561115594
 10
12.98674727244587
 20
15.21742327490586
 10
12.80217952785116
 20
15.27603212795061
 42
0.6819028294407566
  0
LWPOLYLINE
  5
514D
330
1F
100
AcDbEntity
  8
OBJECT
100
AcDbPolyline
 90
        6
 70
     1
 43
0.0
 10
8.698039007560042
 20
12.97283346788239
 42
-0.3989595459737198
 10
8.322603025352977
 20
13.06613311623339
 10
7.95753123703046
 20
13.63820830578985
 10
15.15049446328137
 20
17.71510713036251
 10
15.45376820971148
 20
17.10800543553593
 42
-0.3989595459737197
 10
15.34094762414914
 20
16.73796690160794
  0
LWPOLYLINE
  5
514E
330
1F
100
AcDbEntity
  8
OBJECT
100
AcDbPolyline
 90
        4
 70
     0
 43
0.0
 10
7.974930761041706
 20
13.64807018006313
 10
7.955207012495167
 20
13.68286922808563
 10
15.11337119072357
 20
17.74004430411174
 10
15.13309493927012
 20
17.70524525608925
  0
LWPOLYLINE
  5
514F
330
1F
100
AcDbEntity
  8
HIDDEN
100
AcDbPolyline
 90
        4
 70
     0
 43
0.0
 10
7.960073629624746
 20
14.36380704906322
 10
7.9797973781713
 20
14.32900800104072
 10
11.59019861050576
 20
16.37534691274567
 10
11.5704748619592
 20
16.41014596076816
  0
LINE
  5
5150
330
1F
100
AcDbEntity
  8
OBJECT
100
AcDbLine
 10
11.15758940676579
 20
15.49794718808224
 30
0.0
 11
10.99092373154741
 21
15.79199914387236
 31
0.0
  0
LWPOLYLINE
  5
5151
330
1F
100
AcDbEntity
  8
OBJECT
100
AcDbPolyline
 90
        7
 70
     0
 43
0.0
 10
11.9208585941038
 20
15.88458217636375
 10
12.16740545093572
 20
15.4495940760825
 42
-0.2199670889940405
 10
11.42386001214426
 20
15.02816003977849
 42
-0.1880000000000001
 10
10.55388381158175
 20
14.53506632611464
 42
-0.1880000000000001
 10
9.683907611019224
 20
14.0419726124508
 42
-0.2203142151317614
 10
8.941533699249903
 20
13.62120258581696
 10
8.694986842417984
 20
14.05619068609822
  0
LINE
  5
5152
330
1F
100
AcDbEntity
  8
OBJECT
100
AcDbLine
 10
8.941533699249902
 20
13.62120258581696
 30
0.0
 11
12.16740545093572
 21
15.4495940760825
 31
0.0
  0
LWPOLYLINE
  5
5153
330
1F
100
AcDbEntity
  8
OBJECT
100
AcDbPolyline
 90
        7
 70
     0
 43
0.0
 10
8.675263093871437
 20
14.09098973412072
 10
8.508597418653048
 20
14.38504168991086
 42
-0.2203142151317616
 10
9.250971330422368
 20
14.80581171654469
 42
-0.1880000000000003
 10
10.12094753098489
 20
15.29890543020853
 42
-0.1880000000000003
 10
10.99092373154741
 20
15.79199914387236
 42
-0.2199670889940404
 10
11.73446917033887
 20
16.21343318017638
 10
11.90113484555726
 20
15.91938122438625
  0
LINE
  5
5154
330
1F
100
AcDbEntity
  8
OBJECT
100
AcDbLine
 10
11.73446917033887
 20
16.21343318017639
 30
0.0
 11
8.508597418653046
 21
14.38504168991086
 31
0.0
  0
LINE
  5
5155
330
1F
100
AcDbEntity
  8
OBJECT
100
AcDbLine
 10
9.437360754187309
 20
14.47696071273206
 30
0.0
 11
9.683907611019229
 21
14.0419726124508
 31
0.0
  0
LINE
  5
5156
330
1F
100
AcDbEntity
  8
OBJECT
100
AcDbLine
 10
9.417637005640749
 20
14.51175976075455
 30
0.0
 11
9.250971330422366
 21
14.80581171654469
 31
0.0
  0
LINE
  5
5157
330
1F
100
AcDbEntity
  8
OBJECT
100
AcDbLine
 10
10.30733695474982
 20
14.9700544263959
 30
0.0
 11
10.55388381158174
 21
14.53506632611464
 31
0.0
  0
LINE
  5
5158
330
1F
100
AcDbEntity
  8
OBJECT
100
AcDbLine
 10
10.28761320620326
 20
15.0048534744184
 30
0.0
 11
10.12094753098489
 21
15.29890543020853
 31
0.0
  0
LWPOLYLINE
  5
5159
330
1F
100
AcDbEntity
  8
OBJECT
100
AcDbPolyline
 90
        3
 70
     0
 43
0.0
 10
12.23172431039412
 20
16.06077772102032
 10
12.59679609871663
 20
15.48870253146385
 42
0.3989595459737198
 10
12.97223208092369
 20
15.39540288311286
  0
LINE
  5
515A
330
1F
100
AcDbEntity
  8
HIDDEN
100
AcDbLine
 10
12.7803804814047
 20
15.10045765231064
 30
0.0
 11
12.2898989565976
 21
14.82245214364444
 31
0.0
  0
LINE
  5
515B
330
1F
100
AcDbEntity
  8
OBJECT
100
AcDbLine
 10
11.17731315531234
 20
15.46314814005973
 30
0.0
 11
11.42386001214426
 21
15.02816003977849
 31
0.0
  0
LINE
  5
515C
330
1F
100
AcDbEntity
  8
HIDDEN
100
AcDbLine
 10
12.21001689897445
 20
14.9633870251672
 30
0.0
 11
12.2898989565976
 21
14.82245214364444
 31
0.0
  0
LINE
  5
515D
330
1F
100
AcDbEntity
  8
OBJECT
100
AcDbLine
 10
12.26050245132516
 20
14.71613211039211
 30
0.0
 11
12.14215996013389
 21
14.92492639837176
 31
0.0
  0
LINE
  5
515E
330
1F
100
AcDbEntity
  8
HIDDEN
100
AcDbLine
 10
13.88928111511475
 20
13.46684701034809
 30
0.0
 11
13.9571395555855
 21
13.50530779631089
 31
0.0
  0
LINE
  5
515F
330
1F
100
AcDbEntity
  8
HIDDEN
100
AcDbLine
 10
13.49481143468278
 20
14.16283428803349
 30
0.0
 11
13.56266987515353
 21
14.20129507399629
 31
0.0
  0
LINE
  5
5160
330
1F
100
AcDbEntity
  8
CENTER
100
AcDbLine
 10
12.84983131626666
 20
15.09901655601509
 30
0.0
 11
12.71669601357742
 21
15.33391013016697
 31
0.0
  0
LINE
  5
5161
330
1F
100
AcDbEntity
  8
HIDDEN
100
AcDbLine
 10
13.11620937403466
 20
14.50227677891526
 30
0.0
 11
13.25714613501239
 21
14.582156872838
 31
0.0
  0
LINE
  5
5162
330
1F
100
AcDbEntity
  8
HIDDEN
100
AcDbLine
 10
13.07775716853363
 20
14.57014363324339
 30
0.0
 11
13.28655044499709
 21
14.68848790941951
 31
0.0
  0
LINE
  5
5163
330
1F
100
AcDbEntity
  8
OBJECT
100
AcDbLine
 10
12.96545453681535
 20
15.26512988559342
 30
0.0
 11
13.02955768641075
 21
15.15203352750904
 31
0.0
  0
LINE
  5
5164
330
1F
100
AcDbEntity
  8
HIDDEN
100
AcDbLine
 10
13.2618229272988
 20
15.28368174109186
 30
0.0
 11
13.22336161763162
 21
15.35153988473821
 31
0.0
  0
LINE
  5
5165
330
1F
100
AcDbEntity
  8
CENTER
100
AcDbLine
 10
12.6658168778461
 20
15.14989569174641
 30
0.0
 11
12.90071045199798
 21
15.28303099443565
 31
0.0
  0
ARC
  5
5166
330
1F
100
AcDbEntity
  8
HIDDEN
100
AcDbCircle
 10
12.78326366492204
 20
15.21646334309103
 30
0.0
 40
0.0625
100
AcDbArc
 50
238.4387342033306
 51
42.25113497840193
  0
LINE
  5
5167
330
1F
100
AcDbEntity
  8
OBJECT
100
AcDbLine
 10
12.83466085221633
 20
15.317428901741
 30
0.0
 11
12.84550572212988
 21
15.29829543795858
 31
0.0
  0
LINE
  5
5168
330
1F
100
AcDbEntity
  8
OBJECT
100
AcDbLine
 10
12.96545453681534
 20
15.26512988559342
 30
0.0
 11
12.84550572212989
 21
15.29829543795858
 31
0.0
  0
LWPOLYLINE
  5
5169
330
1F
100
AcDbEntity
  8
OBJECT
100
AcDbPolyline
 90
        3
 70
     0
 43
0.0
 10
12.86776975548292
 20
16.47973538953173
 10
12.6436081468245
 20
16.92846823941908
 42
-0.3989595459737193
 10
12.6813488409272
 20
17.05225337176509
  0
LINE
  5
516A
330
1F
100
AcDbEntity
  8
OBJECT
100
AcDbLine
 10
12.22940008585881
 20
16.10543864331609
 30
0.0
 11
12.24912383440537
 21
16.0706395952936
 31
0.0
  0
LINE
  5
516B
330
1F
100
AcDbEntity
  8
HIDDEN
100
AcDbLine
 10
13.87515317693265
 20
15.63131805237191
 30
0.0
 11
13.83669186726546
 21
15.69917619601827
 31
0.0
  0
LINE
  5
516C
330
1F
100
AcDbEntity
  8
OBJECT
100
AcDbLine
 10
13.97346307831836
 20
15.92840678648499
 30
0.0
 11
13.95867026690844
 21
15.95450607250187
 31
0.0
  0
LINE
  5
516D
330
1F
100
AcDbEntity
  8
OBJECT
100
AcDbLine
 10
14.18051741405224
 20
16.04576309033699
 30
0.0
 11
14.16572460264232
 21
16.07186237635387
 31
0.0
  0
LINE
  5
516E
330
1F
100
AcDbEntity
  8
OBJECT
100
AcDbLine
 10
14.12918381746276
 20
16.05115142879837
 30
0.0
 11
14.24751846582548
 21
15.84237513856164
 31
0.0
  0
TEXT
  5
5348
330
1F
100
AcDbEntity
  8
TEXT
100
AcDbText
 10
7.232242242303584
 20
1.241328580441766
 30
0.0
 40
0.25
  1
NOTE: MOUNTING BOSSES USE EITHER M2.5 METRIC
 41
0.75
100
AcDbText
  0
TEXT
  5
5349
330
1F
100
AcDbEntity
  8
TEXT
100
AcDbText
 10
7.232242242303584
 20
0.824661913775099
 30
0.0
 40
0.25
  1
OR #4 STD. SHEET METAL SCREWS x 0.250 LG
 41
0.75
100
AcDbText
  0
TEXT
  5
534A
330
1F
100
AcDbEntity
  8
TEXT
100
AcDbText
 10
7.232242242303584
 20
0.4079952471084312
 30
0.0
 40
0.25
  1
(NOT SUPPLIED)
 41
0.75
100
AcDbText
  0
DIMENSION
  5
56C0
330
1F
100
AcDbEntity
  8
DIM
100
AcDbDimension
  2
*D52
 10
10.12014014604521
 20
2.340799890292895
 30
0.0
 11
8.876390146045217
 21
2.340799890292895
 31
0.0
 70
    32
 71
     5
 42
0.5899999999999999
  3
23NSTD
100
AcDbAlignedDimension
 13
10.71014014604521
 23
2.652799890292895
 33
0.0
 14
10.12014014604521
 24
2.772923149341088
 34
0.0
100
AcDbRotatedDimension
  0
DIMENSION
  5
56CE
330
1F
100
AcDbEntity
  8
DIM
100
AcDbDimension
  2
*D53
 10
11.69414014604521
 20
1.968799890292895
 30
0.0
 11
11.20214014604521
 21
1.968799890292895
 31
0.0
 70
    32
 71
     5
 42
0.9839999999999999
  3
23NSTDI
100
AcDbAlignedDimension
 13
10.71014014604521
 23
2.652799890292895
 33
0.0
 14
11.69414014604521
 24
2.968931877182966
 34
0.0
100
AcDbRotatedDimension
  0
TEXT
  5
57D7
330
1F
100
AcDbEntity
  8
TEXT
100
AcDbText
 10
11.29137385397436
 20
28.24352217955066
 30
0.0
 40
0.25
  1
 
 41
0.75
100
AcDbText
  0
TEXT
  5
57D8
330
1F
100
AcDbEntity
  8
TEXT
100
AcDbText
 10
11.29137385397436
 20
27.82685551288399
 30
0.0
 40
0.25
  1
OPTIONAL ACCESSORIES: HH-3441-G GASKET
 41
0.75
100
AcDbText
  0
LWPOLYLINE
  5
58AD
330
1F
100
AcDbEntity
  8
OBJECT
100
AcDbPolyline
 90
       34
 70
     1
 43
0.0
 10
16.86495705994755
 20
2.830114077400455
 42
0.0635983023025711
 10
18.51010119787359
 20
2.830114077400452
 42
0.3774794948205373
 10
18.61926567294328
 20
2.954106964898815
 10
18.61926567294328
 20
3.089063346260186
 42
-0.414213562373108
 10
18.84026567294329
 20
3.310063346260184
 10
18.91902912891056
 20
3.310063346260182
 42
0.4142135623731008
 10
19.04402912891057
 20
3.435063346260182
 10
19.04402912891058
 20
7.471799890292892
 42
-0.4142135623730987
 10
19.25802912891057
 20
7.685799890292893
 10
19.36702912891058
 20
7.685799890292891
 42
0.3693948065463342
 10
19.61895605188558
 20
7.901330592346686
 10
19.64008351178557
 20
8.036184168159776
 42
0.065466159564199
 10
19.68940454648022
 20
10.0357722194424
 42
0.3834724392109859
 10
19.56510726576844
 20
10.1475364343256
 10
19.44226567294328
 20
10.1475364343256
 42
-0.4142135623730904
 10
19.22126567294328
 20
10.3685364343256
 10
19.22126567294329
 20
10.5279333493028
 42
0.3561741207254307
 10
19.12136123237133
 20
10.65038829161628
 42
0.1014146623761865
 10
16.25369702544983
 20
10.65038829161628
 42
0.3561741207254001
 10
16.15379258487787
 20
10.52793334930282
 10
16.15379258487786
 20
10.3685364343256
 42
-0.4142135623730904
 10
15.93279258487786
 20
10.1475364343256
 10
15.8099509920527
 20
10.1475364343256
 42
0.3834724392109818
 10
15.68565371134092
 20
10.0357722194424
 42
0.0654661595644225
 10
15.73497474603663
 20
8.036184168153086
 10
15.75610220593573
 20
7.901330592346422
 42
0.3693948065460035
 10
16.00802912891057
 20
7.685799890292891
 10
16.11702912891058
 20
7.685799890292894
 42
-0.4142135623730732
 10
16.33102912891057
 20
7.471799890292892
 10
16.33102912891057
 20
3.435063346260184
 42
0.4142135623730919
 10
16.45602912891057
 20
3.310063346260184
 10
16.53479258487787
 20
3.310063346260183
 42
-0.4142135623731068
 10
16.75579258487786
 20
3.089063346260184
 10
16.75579258487786
 20
2.954106964898816
 42
0.3774794948205208
  0
LWPOLYLINE
  5
58AF
330
1F
100
AcDbEntity
  8
OBJECT
100
AcDbPolyline
 90
       34
 70
     1
 43
0.0
 10
16.85862284997543
 20
2.78051692240111
 42
0.0635983023025702
 10
18.51643540784571
 20
2.780516922401107
 42
0.3774794948205338
 10
18.66926567294328
 20
2.954106964898814
 10
18.66926567294328
 20
3.089063346260186
 42
-0.414213562373104
 10
18.84026567294328
 20
3.260063346260185
 10
18.91902912891056
 20
3.260063346260182
 42
0.4142135623730855
 10
19.09402912891057
 20
3.43506334626018
 10
19.09402912891058
 20
7.471799890292892
 42
-0.4142135623730973
 10
19.25802912891057
 20
7.635799890292893
 10
19.36702912891058
 20
7.635799890292891
 42
0.3693948065463334
 10
19.66835348776302
 20
7.893591514318014
 10
19.68948094766301
 20
8.028445090131103
 42
0.0654661595641988
 10
19.73912345876493
 20
10.04106653348912
 42
0.3834724392110018
 10
19.56510726576844
 20
10.1975364343256
 10
19.44226567294328
 20
10.1975364343256
 42
-0.4142135623730987
 10
19.27126567294328
 20
10.3685364343256
 10
19.27126567294329
 20
10.5279333493028
 42
0.3561741207254487
 10
19.13139945614254
 20
10.69937026854166
 42
0.1014146623761855
 10
16.24365880167862
 20
10.69937026854167
 42
0.3561741207254267
 10
16.10379258487786
 20
10.52793334930282
 10
16.10379258487786
 20
10.3685364343256
 42
-0.4142135623730835
 10
15.93279258487786
 20
10.1975364343256
 10
15.8099509920527
 20
10.1975364343256
 42
0.383472439211004
 10
15.63593479905621
 20
10.04106653348913
 42
0.0654661595644223
 10
15.68557731015919
 20
8.028445090124368
 10
15.70670477005829
 20
7.893591514317709
 42
0.3693948065460119
 10
16.00802912891056
 20
7.635799890292893
 10
16.11702912891058
 20
7.635799890292894
 42
-0.4142135623730687
 10
16.28102912891058
 20
7.47179989029289
 10
16.28102912891057
 20
3.435063346260184
 42
0.4142135623730982
 10
16.45602912891057
 20
3.260063346260184
 10
16.53479258487787
 20
3.260063346260183
 42
-0.4142135623731048
 10
16.70579258487786
 20
3.089063346260185
 10
16.70579258487786
 20
2.954106964898816
 42
0.3774794948205323
  0
ENDSEC
  0
SECTION
  2
OBJECTS
  0
DICTIONARY
  5
C
330
0
100
AcDbDictionary
281
     1
  3
ACAD_GROUP
350
D
  3
ACAD_LAYOUT
350
1A
  3
ACAD_MLINESTYLE
350
17
  3
ACAD_PLOTSETTINGS
350
19
  3
ACAD_PLOTSTYLENAME
350
E
  3
AcadDim
350
466D
  3
AcDbVariableDictionary
350
2F12
  3
ASE_INDEX_DICTIONARY
350
27C0
  0
DICTIONARY
  5
D
102
{ACAD_REACTORS
330
C
102
}
330
C
100
AcDbDictionary
281
     1
  0
DICTIONARY
  5
1A
102
{ACAD_REACTORS
330
C
102
}
330
C
100
AcDbDictionary
281
     1
  3
Layout1
350
1E
  3
Layout2
350
26
  3
Model
350
22
  0
DICTIONARY
  5
17
102
{ACAD_REACTORS
330
C
102
}
330
C
100
AcDbDictionary
281
     1
  3
Standard
350
18
  0
DICTIONARY
  5
19
102
{ACAD_REACTORS
330
C
102
}
330
C
100
AcDbDictionary
281
     1
  0
ACDBDICTIONARYWDFLT
  5
E
102
{ACAD_REACTORS
330
C
102
}
330
C
100
AcDbDictionary
281
     1
  3
Normal
350
F
100
AcDbDictionaryWithDefault
340
F
  0
XRECORD
  5
466D
102
{ACAD_REACTORS
330
C
102
}
330
C
100
AcDbXrecord
280
     1
 90
   990106
  3

 60
     0
 61
     0
 62
     1
 63
     1
 64
     0
 65
     0
 66
     0
 67
     3
 68
     1
 69
     0
 70
     0
 71
     0
 72
     0
 40
0.0
170
     2
340
496D
  0
DICTIONARY
  5
2F12
102
{ACAD_REACTORS
330
C
102
}
330
C
100
AcDbDictionary
281
     1
  3
SORTENTS
350
2F13
  0
DICTIONARY
  5
27C0
102
{ACAD_REACTORS
330
C
102
}
330
C
100
AcDbDictionary
281
     1
  3
ASEBlockHierarchyIndexRecord
350
27C1
1001
DCO15
1040
1475403689.39
  0
LAYOUT
  5
1E
102
{ACAD_REACTORS
330
1A
102
}
330
1A
100
AcDbPlotSettings
  1

  2

  4

  6

 40
0.0
 41
0.0
 42
0.0
 43
0.0
 44
0.0
 45
0.0
 46
0.0
 47
0.0
 48
0.0
 49
0.0
140
0.0
141
0.0
142
1.0
143
1.0
 70
   688
 72
     0
 73
     0
 74
     5
  7
monochrome.ctb
 75
    16
147
1.0
148
0.0
149
0.0
100
AcDbLayout
  1
Layout1
 70
     1
 71
     1
 10
0.0
 20
0.0
 11
12.0
 21
9.0
 12
0.0
 22
0.0
 32
0.0
 14
1.000000000000000E+20
 24
1.000000000000000E+20
 34
1.000000000000000E+20
 15
-1.000000000000000E+20
 25
-1.000000000000000E+20
 35
-1.000000000000000E+20
146
0.0
 13
0.0
 23
0.0
 33
0.0
 16
1.0
 26
0.0
 36
0.0
 17
0.0
 27
1.0
 37
0.0
 76
     0
330
1B
  0
LAYOUT
  5
26
102
{ACAD_REACTORS
330
1A
102
}
330
1A
100
AcDbPlotSettings
  1

  2

  4

  6

 40
0.0
 41
0.0
 42
0.0
 43
0.0
 44
0.0
 45
0.0
 46
0.0
 47
0.0
 48
0.0
 49
0.0
140
0.0
141
0.0
142
1.0
143
1.0
 70
   688
 72
     0
 73
     0
 74
     5
  7
monochrome.ctb
 75
    16
147
1.0
148
0.0
149
0.0
100
AcDbLayout
  1
Layout2
 70
     1
 71
     2
 10
0.0
 20
0.0
 11
12.0
 21
9.0
 12
0.0
 22
0.0
 32
0.0
 14
0.0
 24
0.0
 34
0.0
 15
0.0
 25
0.0
 35
0.0
146
0.0
 13
0.0
 23
0.0
 33
0.0
 16
1.0
 26
0.0
 36
0.0
 17
0.0
 27
1.0
 37
0.0
 76
     0
330
23
  0
LAYOUT
  5
22
102
{ACAD_REACTORS
330
1A
102
}
330
1A
100
AcDbPlotSettings
  1

  2
\\STATION_A\HP DesignJet 430 (D/A1) by HP - HP
  4
User263
  6

 40
4.995333194732666
 41
16.93330574035644
 42
4.995330810546875
 43
16.93331909179687
 44
279.3153381347656
 45
431.6306457519531
 46
0.0
 47
0.0
 48
0.0
 49
0.0
140
0.0
141
0.0
142
1.0
143
2.000244042876035
 70
 11952
 72
     0
 73
     0
 74
     1
  7
monochrome.ctb
 75
     0
147
0.4999389967246985
148
0.0328647064034627
149
0.0485529530451473
100
AcDbLayout
  1
Model
 70
     1
 71
     0
 10
0.0
 20
0.0
 11
12.0
 21
9.0
 12
0.0
 22
0.0
 32
0.0
 14
0.0
 24
0.0
 34
0.0
 15
0.0
 25
0.0
 35
0.0
146
0.0
 13
0.0
 23
0.0
 33
0.0
 16
1.0
 26
0.0
 36
0.0
 17
0.0
 27
1.0
 37
0.0
 76
     0
330
1F
  0
MLINESTYLE
  5
18
102
{ACAD_REACTORS
330
17
102
}
330
17
100
AcDbMlineStyle
  2
STANDARD
 70
     0
  3

 62
   256
 51
90.0
 52
90.0
 71
     2
 49
0.5
 62
   256
  6
BYLAYER
 49
-0.5
 62
   256
  6
BYLAYER
  0
ACDBPLACEHOLDER
  5
F
102
{ACAD_REACTORS
330
E
102
}
330
E
  0
DICTIONARYVAR
  5
2F13
102
{ACAD_REACTORS
330
2F12
102
}
330
2F12
100
DictionaryVariables
280
     0
  1
96
  0
XRECORD
  5
27C1
102
{ACAD_REACTORS
330
27C0
102
}
330
27C0
100
AcDbXrecord
280
     1
330
0
  0
ENDSEC
  0
EOF
