  0
SECTION
  2
HEADER
  9
$ACADVER
  1
AC1015
  9
$ACADMAINTVER
 70
     6
  9
$DWGCODEPAGE
  3
ANSI_1252
  9
$INSBASE
 10
0.0
 20
0.0
 30
0.0
  9
$EXTMIN
 10
-0.0002314658281932
 20
-0.000354517819865
 30
-0.0000000000112498
  9
$EXTMAX
 10
15.18023167790328
 20
23.25035484263845
 30
0.0000000000002956
  9
$LIMMIN
 10
0.0
 20
0.0
  9
$LIMMAX
 10
11.0
 20
8.5
  9
$ORTHOMODE
 70
     1
  9
$REGENMODE
 70
     1
  9
$FILLMODE
 70
     1
  9
$QTEXTMODE
 70
     0
  9
$MIRRTEXT
 70
     0
  9
$LTSCALE
 40
0.25
  9
$ATTMODE
 70
     1
  9
$TEXTSIZE
 40
0.187
  9
$TRACEWID
 40
0.05
  9
$TEXTSTYLE
  7
TXT
  9
$CLAYER
  8
OBJECT
  9
$CELTYPE
  6
ByLayer
  9
$CECOLOR
 62
   256
  9
$CELTSCALE
 40
1.0
  9
$DISPSILH
 70
     0
  9
$DIMSCALE
 40
1.5
  9
$DIMASZ
 40
0.18
  9
$DIMEXO
 40
0.063
  9
$DIMDLI
 40
0.281
  9
$DIMRND
 40
0.0
  9
$DIMDLE
 40
0.0
  9
$DIMEXE
 40
0.093
  9
$DIMTP
 40
0.0
  9
$DIMTM
 40
0.0
  9
$DIMTXT
 40
0.125
  9
$DIMCEN
 40
0.09
  9
$DIMTSZ
 40
0.0
  9
$DIMTOL
 70
     0
  9
$DIMLIM
 70
     0
  9
$DIMTIH
 70
     1
  9
$DIMTOH
 70
     1
  9
$DIMSE1
 70
     0
  9
$DIMSE2
 70
     0
  9
$DIMTAD
 70
     0
  9
$DIMZIN
 70
     0
  9
$DIMBLK
  1

  9
$DIMASO
 70
     1
  9
$DIMSHO
 70
     1
  9
$DIMPOST
  1

  9
$DIMAPOST
  1

  9
$DIMALT
 70
     0
  9
$DIMALTD
 70
     2
  9
$DIMALTF
 40
25.4
  9
$DIMLFAC
 40
1.0
  9
$DIMTOFL
 70
     0
  9
$DIMTVP
 40
0.0
  9
$DIMTIX
 70
     0
  9
$DIMSOXD
 70
     0
  9
$DIMSAH
 70
     0
  9
$DIMBLK1
  1

  9
$DIMBLK2
  1

  9
$DIMSTYLE
  2
23NSTD
  9
$DIMCLRD
 70
     0
  9
$DIMCLRE
 70
     0
  9
$DIMCLRT
 70
     0
  9
$DIMTFAC
 40
1.0
  9
$DIMGAP
 40
0.09
  9
$DIMJUST
 70
     0
  9
$DIMSD1
 70
     0
  9
$DIMSD2
 70
     0
  9
$DIMTOLJ
 70
     1
  9
$DIMTZIN
 70
     0
  9
$DIMALTZ
 70
     0
  9
$DIMALTTZ
 70
     0
  9
$DIMUPT
 70
     0
  9
$DIMDEC
 70
     3
  9
$DIMTDEC
 70
     3
  9
$DIMALTU
 70
     2
  9
$DIMALTTD
 70
     2
  9
$DIMTXSTY
  7
TXT
  9
$DIMAUNIT
 70
     0
  9
$DIMADEC
 70
     0
  9
$DIMALTRND
 40
0.0
  9
$DIMAZIN
 70
     0
  9
$DIMDSEP
 70
    46
  9
$DIMATFIT
 70
     0
  9
$DIMFRAC
 70
     0
  9
$DIMLDRBLK
  1

  9
$DIMLUNIT
 70
     2
  9
$DIMLWD
 70
    -2
  9
$DIMLWE
 70
    -2
  9
$DIMTMOVE
 70
     0
  9
$LUNITS
 70
     2
  9
$LUPREC
 70
     3
  9
$SKETCHINC
 40
0.1
  9
$FILLETRAD
 40
0.078
  9
$AUNITS
 70
     0
  9
$AUPREC
 70
     0
  9
$MENU
  1
acad
  9
$ELEVATION
 40
0.0
  9
$PELEVATION
 40
0.0
  9
$THICKNESS
 40
0.0
  9
$LIMCHECK
 70
     0
  9
$CHAMFERA
 40
0.0
  9
$CHAMFERB
 40
0.0
  9
$CHAMFERC
 40
0.0
  9
$CHAMFERD
 40
0.0
  9
$SKPOLY
 70
     0
  9
$TDCREATE
 40
2454618.458557396
  9
$TDUCREATE
 40
2454618.625224062
  9
$TDUPDATE
 40
2454622.414119641
  9
$TDUUPDATE
 40
2454622.580786308
  9
$TDINDWG
 40
0.1823403356
  9
$TDUSRTIMER
 40
0.1823403356
  9
$USRTIMER
 70
     1
  9
$ANGBASE
 50
0.0
  9
$ANGDIR
 70
     0
  9
$PDMODE
 70
     0
  9
$PDSIZE
 40
0.0
  9
$PLINEWID
 40
0.0
  9
$SPLFRAME
 70
     0
  9
$SPLINETYPE
 70
     6
  9
$SPLINESEGS
 70
     8
  9
$HANDSEED
  5
2663
  9
$SURFTAB1
 70
     6
  9
$SURFTAB2
 70
     6
  9
$SURFTYPE
 70
     6
  9
$SURFU
 70
     6
  9
$SURFV
 70
     6
  9
$UCSBASE
  2

  9
$UCSNAME
  2

  9
$UCSORG
 10
0.0
 20
0.0
 30
0.0
  9
$UCSXDIR
 10
1.0
 20
0.0
 30
0.0
  9
$UCSYDIR
 10
0.0
 20
1.0
 30
0.0
  9
$UCSORTHOREF
  2

  9
$UCSORTHOVIEW
 70
     0
  9
$UCSORGTOP
 10
0.0
 20
0.0
 30
0.0
  9
$UCSORGBOTTOM
 10
0.0
 20
0.0
 30
0.0
  9
$UCSORGLEFT
 10
0.0
 20
0.0
 30
0.0
  9
$UCSORGRIGHT
 10
0.0
 20
0.0
 30
0.0
  9
$UCSORGFRONT
 10
0.0
 20
0.0
 30
0.0
  9
$UCSORGBACK
 10
0.0
 20
0.0
 30
0.0
  9
$PUCSBASE
  2

  9
$PUCSNAME
  2

  9
$PUCSORG
 10
0.0
 20
0.0
 30
0.0
  9
$PUCSXDIR
 10
1.0
 20
0.0
 30
0.0
  9
$PUCSYDIR
 10
0.0
 20
1.0
 30
0.0
  9
$PUCSORTHOREF
  2

  9
$PUCSORTHOVIEW
 70
     0
  9
$PUCSORGTOP
 10
0.0
 20
0.0
 30
0.0
  9
$PUCSORGBOTTOM
 10
0.0
 20
0.0
 30
0.0
  9
$PUCSORGLEFT
 10
0.0
 20
0.0
 30
0.0
  9
$PUCSORGRIGHT
 10
0.0
 20
0.0
 30
0.0
  9
$PUCSORGFRONT
 10
0.0
 20
0.0
 30
0.0
  9
$PUCSORGBACK
 10
0.0
 20
0.0
 30
0.0
  9
$USERI1
 70
     0
  9
$USERI2
 70
     0
  9
$USERI3
 70
     0
  9
$USERI4
 70
     0
  9
$USERI5
 70
     0
  9
$USERR1
 40
0.0
  9
$USERR2
 40
0.0
  9
$USERR3
 40
0.0
  9
$USERR4
 40
0.0
  9
$USERR5
 40
0.0
  9
$WORLDVIEW
 70
     1
  9
$SHADEDGE
 70
     3
  9
$SHADEDIF
 70
    70
  9
$TILEMODE
 70
     1
  9
$MAXACTVP
 70
    16
  9
$PINSBASE
 10
0.0
 20
0.0
 30
0.0
  9
$PLIMCHECK
 70
     0
  9
$PEXTMIN
 10
1.000000000000000E+20
 20
1.000000000000000E+20
 30
1.000000000000000E+20
  9
$PEXTMAX
 10
-1.000000000000000E+20
 20
-1.000000000000000E+20
 30
-1.000000000000000E+20
  9
$PLIMMIN
 10
0.0
 20
0.0
  9
$PLIMMAX
 10
12.0
 20
9.0
  9
$UNITMODE
 70
     0
  9
$VISRETAIN
 70
     0
  9
$PLINEGEN
 70
     0
  9
$PSLTSCALE
 70
     1
  9
$TREEDEPTH
 70
  3020
  9
$CMLSTYLE
  2
Standard
  9
$CMLJUST
 70
     0
  9
$CMLSCALE
 40
1.0
  9
$PROXYGRAPHICS
 70
     1
  9
$MEASUREMENT
 70
     0
  9
$CELWEIGHT
370
    -1
  9
$ENDCAPS
280
     0
  9
$JOINSTYLE
280
     0
  9
$LWDISPLAY
290
     0
  9
$INSUNITS
 70
     0
  9
$HYPERLINKBASE
  1

  9
$STYLESHEET
  1
MONOCHROME.CTB
  9
$XEDIT
290
     1
  9
$CEPSNTYPE
380
     0
  9
$PSTYLEMODE
290
     1
  9
$FINGERPRINTGUID
  2
{5F9F434B-8232-11D3-80AD-00C04F604D1B}
  9
$VERSIONGUID
  2
{E380206D-1BB3-4902-AE0C-25856587BF32}
  9
$EXTNAMES
290
     1
  9
$PSVPSCALE
 40
0.0
  9
$OLESTARTUP
290
     0
  0
ENDSEC
  0
SECTION
  2
CLASSES
  0
CLASS
  1
ACDBDICTIONARYWDFLT
  2
AcDbDictionaryWithDefault
  3
AutoCAD 2000
 90
        0
280
     0
281
     0
  0
CLASS
  1
ACDBPLACEHOLDER
  2
AcDbPlaceHolder
  3
AutoCAD 2000
 90
        0
280
     0
281
     0
  0
CLASS
  1
LAYOUT
  2
AcDbLayout
  3
AutoCAD 2000
 90
        0
280
     0
281
     0
  0
CLASS
  1
SORTENTSTABLE
  2
AcDbSortentsTable
  3
AutoCAD 2000
 90
    32768
280
     0
281
     0
  0
ENDSEC
  0
SECTION
  2
TABLES
  0
TABLE
  2
VPORT
  5
8
330
0
100
AcDbSymbolTable
 70
     2
  0
VPORT
  5
2662
330
8
100
AcDbSymbolTableRecord
100
AcDbViewportTableRecord
  2
*Active
 70
     0
 10
0.0
 20
0.0
 11
1.0
 21
1.0
 12
7.590000106037544
 22
11.62500016240929
 13
0.0
 23
0.0
 14
0.125
 24
0.125
 15
0.125
 25
0.125
 16
0.0
 26
0.0
 36
1.0
 17
0.0
 27
0.0
 37
0.0
 40
23.4832164540629
 41
1.824707846410684
 42
50.0
 43
0.0
 44
0.0
 50
0.0
 51
0.0
 71
     0
 72
   100
 73
     1
 74
     0
 75
     0
 76
     0
 77
     0
 78
     0
281
     0
 65
     1
110
0.0
120
0.0
130
0.0
111
1.0
121
0.0
131
0.0
112
0.0
122
1.0
132
0.0
 79
     0
146
0.0
  0
ENDTAB
  0
TABLE
  2
LTYPE
  5
5
330
0
100
AcDbSymbolTable
 70
     1
  0
LTYPE
  5
13
330
5
100
AcDbSymbolTableRecord
100
AcDbLinetypeTableRecord
  2
ByBlock
 70
     0
  3

 72
    65
 73
     0
 40
0.0
  0
LTYPE
  5
14
330
5
100
AcDbSymbolTableRecord
100
AcDbLinetypeTableRecord
  2
ByLayer
 70
     0
  3

 72
    65
 73
     0
 40
0.0
  0
LTYPE
  5
15
330
5
100
AcDbSymbolTableRecord
100
AcDbLinetypeTableRecord
  2
CONTINUOUS
 70
     0
  3
Solid line
 72
    65
 73
     0
 40
0.0
  0
ENDTAB
  0
TABLE
  2
LAYER
  5
2
330
0
100
AcDbSymbolTable
 70
     4
  0
LAYER
  5
10
330
2
100
AcDbSymbolTableRecord
100
AcDbLayerTableRecord
  2
0
 70
     0
 62
     7
  6
CONTINUOUS
370
    -3
390
F
  0
LAYER
  5
29
330
2
100
AcDbSymbolTableRecord
100
AcDbLayerTableRecord
  2
OBJECT
 70
     0
 62
     7
  6
CONTINUOUS
370
    -3
390
F
  0
LAYER
  5
535
330
2
100
AcDbSymbolTableRecord
100
AcDbLayerTableRecord
  2
\M+2BBB2\M+2A755\M+2BD75
 70
     0
 62
     7
  6
CONTINUOUS
370
    15
390
F
  0
LAYER
  5
537
330
2
100
AcDbSymbolTableRecord
100
AcDbLayerTableRecord
  2
Defpoints
 70
     0
 62
     7
  6
CONTINUOUS
290
     0
370
    -3
390
F
  0
ENDTAB
  0
TABLE
  2
STYLE
  5
3
330
0
100
AcDbSymbolTable
 70
     2
  0
STYLE
  5
11
330
3
100
AcDbSymbolTableRecord
100
AcDbTextStyleTableRecord
  2
TXT
 70
     0
 40
0.0
 41
0.75
 50
0.0
 71
     0
 42
0.187
  3
TXT.shx
  4

  0
STYLE
  5
538
330
3
100
AcDbSymbolTableRecord
100
AcDbTextStyleTableRecord
  2
Standard
 70
     0
 40
0.0
 41
1.0
 50
0.0
 71
     0
 42
3.80869587762845
  3
txt
  4

  0
ENDTAB
  0
TABLE
  2
VIEW
  5
6
330
0
100
AcDbSymbolTable
 70
     0
  0
ENDTAB
  0
TABLE
  2
UCS
  5
7
330
0
100
AcDbSymbolTable
 70
     0
  0
ENDTAB
  0
TABLE
  2
APPID
  5
9
330
0
100
AcDbSymbolTable
 70
     5
  0
APPID
  5
12
330
9
100
AcDbSymbolTableRecord
100
AcDbRegAppTableRecord
  2
ACAD
 70
     0
  0
APPID
  5
53E
330
9
100
AcDbSymbolTableRecord
100
AcDbRegAppTableRecord
  2
DCO15
 70
     0
  0
APPID
  5
53F
330
9
100
AcDbSymbolTableRecord
100
AcDbRegAppTableRecord
  2
ADE
 70
     0
  0
APPID
  5
540
330
9
100
AcDbSymbolTableRecord
100
AcDbRegAppTableRecord
  2
ACAD_DSTYLE_DIMTEXT_FILL
 70
     0
  0
APPID
  5
541
330
9
100
AcDbSymbolTableRecord
100
AcDbRegAppTableRecord
  2
ACAD_PSEXT
 70
     0
  0
ENDTAB
  0
TABLE
  2
DIMSTYLE
  5
A
330
0
100
AcDbSymbolTable
 70
     1
100
AcDbDimStyleTable
 71
     1
340
38
  0
DIMSTYLE
105
38
102
{ACAD_REACTORS
330
1C73
330
1C3B
330
1C90
330
1C82
330
1C49
330
1CE4
330
1C57
330
1C65
330
1BD9
330
1BCB
330
1C05
330
1BE7
330
1D28
330
1BBD
330
1BAF
330
1D1A
330
1BF7
330
1E03
330
1DF5
330
1E11
330
1E3D
330
1E55
330
1E6F
330
1E7D
330
1ECA
330
1F88
330
1F79
330
1FC1
330
1FC7
330
1FC5
330
1FC9
102
}
330
A
100
AcDbSymbolTableRecord
100
AcDbDimStyleTableRecord
  2
23NSTD
 70
     0
 40
1.5
 42
0.063
 43
0.281
 44
0.093
140
0.125
271
     3
272
     3
289
     0
340
11
  0
ENDTAB
  0
TABLE
  2
BLOCK_RECORD
  5
1
330
0
100
AcDbSymbolTable
 70
    27
  0
BLOCK_RECORD
  5
1E
330
1
100
AcDbSymbolTableRecord
100
AcDbBlockTableRecord
  2
*Model_Space
340
21
  0
BLOCK_RECORD
  5
1A
330
1
100
AcDbSymbolTableRecord
100
AcDbBlockTableRecord
  2
*Paper_Space
340
1D
  0
BLOCK_RECORD
  5
1BB0
330
1
100
AcDbSymbolTableRecord
100
AcDbBlockTableRecord
  2
*D0
340
0
  0
BLOCK_RECORD
  5
1BBE
330
1
100
AcDbSymbolTableRecord
100
AcDbBlockTableRecord
  2
*D1
340
0
  0
BLOCK_RECORD
  5
1BCC
330
1
100
AcDbSymbolTableRecord
100
AcDbBlockTableRecord
  2
*D2
340
0
  0
BLOCK_RECORD
  5
1BDA
330
1
100
AcDbSymbolTableRecord
100
AcDbBlockTableRecord
  2
*D3
340
0
  0
BLOCK_RECORD
  5
1BE8
330
1
100
AcDbSymbolTableRecord
100
AcDbBlockTableRecord
  2
*D4
340
0
  0
BLOCK_RECORD
  5
1BF8
330
1
100
AcDbSymbolTableRecord
100
AcDbBlockTableRecord
  2
*D5
340
0
  0
BLOCK_RECORD
  5
1C06
330
1
100
AcDbSymbolTableRecord
100
AcDbBlockTableRecord
  2
*D6
340
0
  0
BLOCK_RECORD
  5
1C3C
330
1
100
AcDbSymbolTableRecord
100
AcDbBlockTableRecord
  2
*D7
340
0
  0
BLOCK_RECORD
  5
1C4A
330
1
100
AcDbSymbolTableRecord
100
AcDbBlockTableRecord
  2
*D8
340
0
  0
BLOCK_RECORD
  5
1C58
330
1
100
AcDbSymbolTableRecord
100
AcDbBlockTableRecord
  2
*D9
340
0
  0
BLOCK_RECORD
  5
1C66
330
1
100
AcDbSymbolTableRecord
100
AcDbBlockTableRecord
  2
*D10
340
0
  0
BLOCK_RECORD
  5
1C74
330
1
100
AcDbSymbolTableRecord
100
AcDbBlockTableRecord
  2
*D11
340
0
  0
BLOCK_RECORD
  5
1C83
330
1
100
AcDbSymbolTableRecord
100
AcDbBlockTableRecord
  2
*D12
340
0
  0
BLOCK_RECORD
  5
1C91
330
1
100
AcDbSymbolTableRecord
100
AcDbBlockTableRecord
  2
*D13
340
0
  0
BLOCK_RECORD
  5
1CE5
330
1
100
AcDbSymbolTableRecord
100
AcDbBlockTableRecord
  2
*D14
340
0
  0
BLOCK_RECORD
  5
1D1B
330
1
100
AcDbSymbolTableRecord
100
AcDbBlockTableRecord
  2
*D15
340
0
  0
BLOCK_RECORD
  5
1D29
330
1
100
AcDbSymbolTableRecord
100
AcDbBlockTableRecord
  2
*D16
340
0
  0
BLOCK_RECORD
  5
1DF6
330
1
100
AcDbSymbolTableRecord
100
AcDbBlockTableRecord
  2
*D17
340
0
  0
BLOCK_RECORD
  5
1E04
330
1
100
AcDbSymbolTableRecord
100
AcDbBlockTableRecord
  2
*D18
340
0
  0
BLOCK_RECORD
  5
1E12
330
1
100
AcDbSymbolTableRecord
100
AcDbBlockTableRecord
  2
*D19
340
0
  0
BLOCK_RECORD
  5
1E3E
330
1
100
AcDbSymbolTableRecord
100
AcDbBlockTableRecord
  2
*D20
340
0
  0
BLOCK_RECORD
  5
1E56
330
1
100
AcDbSymbolTableRecord
100
AcDbBlockTableRecord
  2
*D21
340
0
  0
BLOCK_RECORD
  5
1E70
330
1
100
AcDbSymbolTableRecord
100
AcDbBlockTableRecord
  2
*D22
340
0
  0
BLOCK_RECORD
  5
1E7E
330
1
100
AcDbSymbolTableRecord
100
AcDbBlockTableRecord
  2
*D23
340
0
  0
BLOCK_RECORD
  5
1ECB
330
1
100
AcDbSymbolTableRecord
100
AcDbBlockTableRecord
  2
*D24
340
0
  0
BLOCK_RECORD
  5
1F7A
330
1
100
AcDbSymbolTableRecord
100
AcDbBlockTableRecord
  2
*D25
340
0
  0
BLOCK_RECORD
  5
1F89
330
1
100
AcDbSymbolTableRecord
100
AcDbBlockTableRecord
  2
*D26
340
0
  0
ENDTAB
  0
ENDSEC
  0
SECTION
  2
BLOCKS
  0
BLOCK
  5
33
330
1E
100
AcDbEntity
  8
0
100
AcDbBlockBegin
  2
*Model_Space
 70
     0
 10
0.0
 20
0.0
 30
0.0
  3
*Model_Space
  1

  0
ENDBLK
  5
34
330
1E
100
AcDbEntity
  8
0
100
AcDbBlockEnd
  0
BLOCK
  5
31
330
1A
100
AcDbEntity
 67
     1
  8
0
100
AcDbBlockBegin
  2
*Paper_Space
 70
     0
 10
0.0
 20
0.0
 30
0.0
  3
*Paper_Space
  1

  0
ENDBLK
  5
32
330
1A
100
AcDbEntity
 67
     1
  8
0
100
AcDbBlockEnd
  0
BLOCK
  5
1BBB
330
1BB0
100
AcDbEntity
  8
0
100
AcDbBlockBegin
  2
*D0
 70
     1
 10
0.0
 20
0.0
 30
0.0
  3
*D0
  1

  0
LINE
  5
25CC
330
1BB0
100
AcDbEntity
  8
0
 62
     0
370
    -2
100
AcDbLine
 10
1.994084054449331
 20
2.000383068833034
 30
0.0
 11
1.994084054449331
 21
1.338916693378817
 31
0.0
  0
LINE
  5
25CD
330
1BB0
100
AcDbEntity
  8
0
 62
     0
370
    -2
100
AcDbLine
 10
4.316918656448931
 20
2.000383068832578
 30
0.0
 11
4.316918656448931
 21
1.338916693378817
 31
0.0
  0
LINE
  5
25CE
330
1BB0
100
AcDbEntity
  8
0
 62
     0
370
    -2
100
AcDbLine
 10
2.264084054449331
 20
1.478416693378818
 30
0.0
 11
2.739251355449131
 21
1.478416693378818
 31
0.0
  0
LINE
  5
25CF
330
1BB0
100
AcDbEntity
  8
0
 62
     0
370
    -2
100
AcDbLine
 10
4.046918656448933
 20
1.478416693378818
 30
0.0
 11
3.57175135544913
 21
1.478416693378818
 31
0.0
  0
SOLID
  5
25D0
330
1BB0
100
AcDbEntity
  8
0
 62
     0
100
AcDbTrace
 10
2.264084054449331
 20
1.523416693378818
 30
0.0
 11
2.264084054449331
 21
1.433416693378816
 31
0.0
 12
1.994084054449331
 22
1.478416693378818
 32
0.0
 13
1.994084054449331
 23
1.478416693378818
 33
0.0
  0
SOLID
  5
25D1
330
1BB0
100
AcDbEntity
  8
0
 62
     0
100
AcDbTrace
 10
4.046918656448933
 20
1.523416693378818
 30
0.0
 11
4.046918656448933
 21
1.433416693378816
 31
0.0
 12
4.316918656448931
 22
1.478416693378818
 32
0.0
 13
4.316918656448931
 23
1.478416693378818
 33
0.0
  0
MTEXT
  5
25D2
330
1BB0
100
AcDbEntity
  8
0
 62
     0
100
AcDbMText
 10
3.155501355449131
 20
1.478416693378818
 30
0.0
 40
0.1875
 41
0.0
 71
     5
 72
     1
  1
\A1;2.323
 73
     1
 44
1.0
  0
POINT
  5
25D3
330
1BB0
100
AcDbEntity
  8
Defpoints
 62
     0
100
AcDbPoint
 10
1.994084054449331
 20
2.094883068833034
 30
0.0
  0
POINT
  5
25D4
330
1BB0
100
AcDbEntity
  8
Defpoints
 62
     0
100
AcDbPoint
 10
4.316918656448931
 20
2.094883068832579
 30
0.0
  0
POINT
  5
25D5
330
1BB0
100
AcDbEntity
  8
Defpoints
 62
     0
100
AcDbPoint
 10
4.316918656448931
 20
1.478416693378818
 30
0.0
  0
ENDBLK
  5
1BBC
330
1BB0
100
AcDbEntity
  8
0
100
AcDbBlockEnd
  0
BLOCK
  5
1BC9
330
1BBE
100
AcDbEntity
  8
0
100
AcDbBlockBegin
  2
*D1
 70
     1
 10
0.0
 20
0.0
 30
0.0
  3
*D1
  1

  0
LINE
  5
25C2
330
1BBE
100
AcDbEntity
  8
0
 62
     0
370
    -2
100
AcDbLine
 10
2.269674600448752
 20
2.779934238835107
 30
0.0
 11
2.269674600448752
 21
3.307971137483236
 31
0.0
  0
LINE
  5
25C3
330
1BBE
100
AcDbEntity
  8
0
 62
     0
370
    -2
100
AcDbLine
 10
4.041328110449057
 20
2.779934238835107
 30
0.0
 11
4.041328110449057
 21
3.307971137483236
 31
0.0
  0
LINE
  5
25C4
330
1BBE
100
AcDbEntity
  8
0
 62
     0
370
    -2
100
AcDbLine
 10
2.539674600448752
 20
3.168471137483236
 30
0.0
 11
2.762688855448903
 21
3.168471137483236
 31
0.0
  0
LINE
  5
25C5
330
1BBE
100
AcDbEntity
  8
0
 62
     0
370
    -2
100
AcDbLine
 10
3.771328110449056
 20
3.168471137483236
 30
0.0
 11
3.548313855448903
 21
3.168471137483236
 31
0.0
  0
SOLID
  5
25C6
330
1BBE
100
AcDbEntity
  8
0
 62
     0
100
AcDbTrace
 10
2.539674600448752
 20
3.213471137483236
 30
0.0
 11
2.539674600448752
 21
3.123471137483236
 31
0.0
 12
2.269674600448752
 22
3.168471137483236
 32
0.0
 13
2.269674600448752
 23
3.168471137483236
 33
0.0
  0
SOLID
  5
25C7
330
1BBE
100
AcDbEntity
  8
0
 62
     0
100
AcDbTrace
 10
3.771328110449056
 20
3.213471137483236
 30
0.0
 11
3.771328110449056
 21
3.123471137483236
 31
0.0
 12
4.041328110449057
 22
3.168471137483236
 32
0.0
 13
4.041328110449057
 23
3.168471137483236
 33
0.0
  0
MTEXT
  5
25C8
330
1BBE
100
AcDbEntity
  8
0
 62
     0
100
AcDbMText
 10
3.155501355448904
 20
3.168471137483236
 30
0.0
 40
0.1875
 41
0.0
 71
     5
 72
     1
  1
\A1;1.772
 73
     1
 44
1.0
  0
POINT
  5
25C9
330
1BBE
100
AcDbEntity
  8
Defpoints
 62
     0
100
AcDbPoint
 10
2.269674600448752
 20
2.685434238835107
 30
0.0
  0
POINT
  5
25CA
330
1BBE
100
AcDbEntity
  8
Defpoints
 62
     0
100
AcDbPoint
 10
4.041328110449057
 20
2.685434238835107
 30
0.0
  0
POINT
  5
25CB
330
1BBE
100
AcDbEntity
  8
Defpoints
 62
     0
100
AcDbPoint
 10
4.041328110449057
 20
3.168471137483236
 30
0.0
  0
ENDBLK
  5
1BCA
330
1BBE
100
AcDbEntity
  8
0
100
AcDbBlockEnd
  0
BLOCK
  5
1BD7
330
1BCC
100
AcDbEntity
  8
0
100
AcDbBlockBegin
  2
*D2
 70
     1
 10
0.0
 20
0.0
 30
0.0
  3
*D2
  1

  0
LINE
  5
25B8
330
1BCC
100
AcDbEntity
  8
0
 62
     0
370
    -2
100
AcDbLine
 10
1.875973820449188
 20
7.315343598834861
 30
0.0
 11
1.875973820449188
 21
6.821539532940951
 31
0.0
  0
LINE
  5
25B9
330
1BCC
100
AcDbEntity
  8
0
 62
     0
370
    -2
100
AcDbLine
 10
4.435028890449075
 20
7.315343598834861
 30
0.0
 11
4.435028890449075
 21
6.821539532940951
 31
0.0
  0
LINE
  5
25BA
330
1BCC
100
AcDbEntity
  8
0
 62
     0
370
    -2
100
AcDbLine
 10
2.145973820449189
 20
6.961039532940951
 30
0.0
 11
2.739251355449131
 21
6.961039532940951
 31
0.0
  0
LINE
  5
25BB
330
1BCC
100
AcDbEntity
  8
0
 62
     0
370
    -2
100
AcDbLine
 10
4.165028890449073
 20
6.961039532940951
 30
0.0
 11
3.57175135544913
 21
6.961039532940951
 31
0.0
  0
SOLID
  5
25BC
330
1BCC
100
AcDbEntity
  8
0
 62
     0
100
AcDbTrace
 10
2.145973820449189
 20
7.006039532940951
 30
0.0
 11
2.145973820449189
 21
6.916039532940951
 31
0.0
 12
1.875973820449188
 22
6.961039532940951
 32
0.0
 13
1.875973820449188
 23
6.961039532940951
 33
0.0
  0
SOLID
  5
25BD
330
1BCC
100
AcDbEntity
  8
0
 62
     0
100
AcDbTrace
 10
4.165028890449073
 20
7.006039532940951
 30
0.0
 11
4.165028890449073
 21
6.916039532940951
 31
0.0
 12
4.435028890449075
 22
6.961039532940951
 32
0.0
 13
4.435028890449075
 23
6.961039532940951
 33
0.0
  0
MTEXT
  5
25BE
330
1BCC
100
AcDbEntity
  8
0
 62
     0
100
AcDbMText
 10
3.155501355449131
 20
6.961039532940951
 30
0.0
 40
0.1875
 41
0.0
 71
     5
 72
     1
  1
\A1;2.559
 73
     1
 44
1.0
  0
POINT
  5
25BF
330
1BCC
100
AcDbEntity
  8
Defpoints
 62
     0
100
AcDbPoint
 10
1.875973820449188
 20
7.409843598834861
 30
0.0
  0
POINT
  5
25C0
330
1BCC
100
AcDbEntity
  8
Defpoints
 62
     0
100
AcDbPoint
 10
4.435028890449075
 20
7.409843598834861
 30
0.0
  0
POINT
  5
25C1
330
1BCC
100
AcDbEntity
  8
Defpoints
 62
     0
100
AcDbPoint
 10
4.435028890449075
 20
6.961039532940951
 30
0.0
  0
ENDBLK
  5
1BD8
330
1BCC
100
AcDbEntity
  8
0
100
AcDbBlockEnd
  0
BLOCK
  5
1BE5
330
1BDA
100
AcDbEntity
  8
0
100
AcDbBlockBegin
  2
*D3
 70
     1
 10
0.0
 20
0.0
 30
0.0
  3
*D3
  1

  0
LINE
  5
25AE
330
1BDA
100
AcDbEntity
  8
0
 62
     0
370
    -2
100
AcDbLine
 10
1.423217923449328
 20
8.094894768832839
 30
0.0
 11
1.423217923449328
 21
8.760885137609742
 31
0.0
  0
LINE
  5
25AF
330
1BDA
100
AcDbEntity
  8
0
 62
     0
370
    -2
100
AcDbLine
 10
4.88778478744939
 20
8.094894768832839
 30
0.0
 11
4.88778478744939
 21
8.760885137609742
 31
0.0
  0
LINE
  5
25B0
330
1BDA
100
AcDbEntity
  8
0
 62
     0
370
    -2
100
AcDbLine
 10
1.693217923449328
 20
8.621385137609742
 30
0.0
 11
2.73925135544936
 21
8.621385137609742
 31
0.0
  0
LINE
  5
25B1
330
1BDA
100
AcDbEntity
  8
0
 62
     0
370
    -2
100
AcDbLine
 10
4.617784787449391
 20
8.621385137609742
 30
0.0
 11
3.571751355449357
 21
8.621385137609742
 31
0.0
  0
SOLID
  5
25B2
330
1BDA
100
AcDbEntity
  8
0
 62
     0
100
AcDbTrace
 10
1.693217923449328
 20
8.666385137609742
 30
0.0
 11
1.693217923449328
 21
8.576385137609742
 31
0.0
 12
1.423217923449328
 22
8.621385137609742
 32
0.0
 13
1.423217923449328
 23
8.621385137609742
 33
0.0
  0
SOLID
  5
25B3
330
1BDA
100
AcDbEntity
  8
0
 62
     0
100
AcDbTrace
 10
4.617784787449391
 20
8.666385137609742
 30
0.0
 11
4.617784787449391
 21
8.576385137609742
 31
0.0
 12
4.88778478744939
 22
8.621385137609742
 32
0.0
 13
4.88778478744939
 23
8.621385137609742
 33
0.0
  0
MTEXT
  5
25B4
330
1BDA
100
AcDbEntity
  8
0
 62
     0
100
AcDbMText
 10
3.155501355449357
 20
8.621385137609742
 30
0.0
 40
0.1875
 41
0.0
 71
     5
 72
     1
  1
\A1;3.465
 73
     1
 44
1.0
  0
POINT
  5
25B5
330
1BDA
100
AcDbEntity
  8
Defpoints
 62
     0
100
AcDbPoint
 10
1.423217923449328
 20
8.000394768832839
 30
0.0
  0
POINT
  5
25B6
330
1BDA
100
AcDbEntity
  8
Defpoints
 62
     0
100
AcDbPoint
 10
4.88778478744939
 20
8.000394768832839
 30
0.0
  0
POINT
  5
25B7
330
1BDA
100
AcDbEntity
  8
Defpoints
 62
     0
100
AcDbPoint
 10
4.88778478744939
 20
8.621385137609742
 30
0.0
  0
ENDBLK
  5
1BE6
330
1BDA
100
AcDbEntity
  8
0
100
AcDbBlockEnd
  0
BLOCK
  5
1BF3
330
1BE8
100
AcDbEntity
  8
0
100
AcDbBlockBegin
  2
*D4
 70
     1
 10
0.0
 20
0.0
 30
0.0
  3
*D4
  1

  0
LINE
  5
25E0
330
1BE8
100
AcDbEntity
  8
0
 62
     0
370
    -2
100
AcDbLine
 10
4.529528890449075
 20
7.409843598834861
 30
0.0
 11
5.720536758631157
 21
7.409843598834861
 31
0.0
  0
LINE
  5
25E1
330
1BE8
100
AcDbEntity
  8
0
 62
     0
370
    -2
100
AcDbLine
 10
4.529528890449075
 20
5.441339698834773
 30
0.0
 11
5.720536758631157
 21
5.441339698834773
 31
0.0
  0
LINE
  5
25E2
330
1BE8
100
AcDbEntity
  8
0
 62
     0
370
    -2
100
AcDbLine
 10
5.581036758631158
 20
7.13984359883486
 30
0.0
 11
5.581036758631158
 21
6.654341648834817
 31
0.0
  0
LINE
  5
25E3
330
1BE8
100
AcDbEntity
  8
0
 62
     0
370
    -2
100
AcDbLine
 10
5.581036758631157
 20
5.711339698834771
 30
0.0
 11
5.581036758631158
 21
6.196841648834817
 31
0.0
  0
SOLID
  5
25E4
330
1BE8
100
AcDbEntity
  8
0
 62
     0
100
AcDbTrace
 10
5.536036758631158
 20
7.13984359883486
 30
0.0
 11
5.626036758631157
 21
7.13984359883486
 31
0.0
 12
5.581036758631158
 22
7.409843598834861
 32
0.0
 13
5.581036758631158
 23
7.409843598834861
 33
0.0
  0
SOLID
  5
25E5
330
1BE8
100
AcDbEntity
  8
0
 62
     0
100
AcDbTrace
 10
5.536036758631156
 20
5.711339698834771
 30
0.0
 11
5.626036758631157
 21
5.711339698834771
 31
0.0
 12
5.581036758631157
 22
5.441339698834773
 32
0.0
 13
5.581036758631157
 23
5.441339698834773
 33
0.0
  0
MTEXT
  5
25E6
330
1BE8
100
AcDbEntity
  8
0
 62
     0
100
AcDbMText
 10
5.581036758631157
 20
6.425591648834817
 30
0.0
 40
0.1875
 41
0.0
 71
     5
 72
     1
  1
\A1;1.969
 73
     1
 44
1.0
  0
POINT
  5
25E7
330
1BE8
100
AcDbEntity
  8
Defpoints
 62
     0
100
AcDbPoint
 10
4.435028890449075
 20
7.409843598834861
 30
0.0
  0
POINT
  5
25E8
330
1BE8
100
AcDbEntity
  8
Defpoints
 62
     0
100
AcDbPoint
 10
4.435028890449075
 20
5.441339698834773
 30
0.0
  0
POINT
  5
25E9
330
1BE8
100
AcDbEntity
  8
Defpoints
 62
     0
100
AcDbPoint
 10
5.581036758631157
 20
5.441339698834773
 30
0.0
  0
ENDBLK
  5
1BF4
330
1BE8
100
AcDbEntity
  8
0
100
AcDbBlockEnd
  0
BLOCK
  5
1C03
330
1BF8
100
AcDbEntity
  8
0
100
AcDbBlockBegin
  2
*D5
 70
     1
 10
0.0
 20
0.0
 30
0.0
  3
*D5
  1

  0
LINE
  5
263A
330
1BF8
100
AcDbEntity
  8
0
 62
     0
370
    -2
100
AcDbLine
 10
11.24758661043832
 20
8.055512878032907
 30
0.0
 11
11.40398520743639
 21
8.055512878032907
 31
0.0
  0
LINE
  5
263B
330
1BF8
100
AcDbEntity
  8
0
 62
     0
370
    -2
100
AcDbLine
 10
11.24758661043832
 20
4.535827904833233
 30
0.0
 11
11.40398520743639
 21
4.535827904833233
 31
0.0
  0
LINE
  5
263C
330
1BF8
100
AcDbEntity
  8
0
 62
     0
370
    -2
100
AcDbLine
 10
11.26448520743638
 20
7.785512878032904
 30
0.0
 11
11.26448520743638
 21
6.52442039143307
 31
0.0
  0
LINE
  5
263D
330
1BF8
100
AcDbEntity
  8
0
 62
     0
370
    -2
100
AcDbLine
 10
11.26448520743638
 20
4.805827904833233
 30
0.0
 11
11.26448520743638
 21
6.06692039143307
 31
0.0
  0
SOLID
  5
263E
330
1BF8
100
AcDbEntity
  8
0
 62
     0
100
AcDbTrace
 10
11.21948520743639
 20
7.785512878032904
 30
0.0
 11
11.30948520743639
 21
7.785512878032904
 31
0.0
 12
11.26448520743638
 22
8.055512878032907
 32
0.0
 13
11.26448520743638
 23
8.055512878032907
 33
0.0
  0
SOLID
  5
263F
330
1BF8
100
AcDbEntity
  8
0
 62
     0
100
AcDbTrace
 10
11.21948520743639
 20
4.805827904833233
 30
0.0
 11
11.30948520743639
 21
4.805827904833233
 31
0.0
 12
11.26448520743638
 22
4.535827904833233
 32
0.0
 13
11.26448520743638
 23
4.535827904833233
 33
0.0
  0
MTEXT
  5
2640
330
1BF8
100
AcDbEntity
  8
0
 62
     0
100
AcDbMText
 10
11.26448520743638
 20
6.295670391433072
 30
0.0
 40
0.1875
 41
0.0
 71
     5
 72
     1
  1
\A1;3.520
 73
     1
 44
1.0
  0
POINT
  5
2641
330
1BF8
100
AcDbEntity
  8
Defpoints
 62
     0
100
AcDbPoint
 10
11.15308661043833
 20
8.055512878032907
 30
0.0
  0
POINT
  5
2642
330
1BF8
100
AcDbEntity
  8
Defpoints
 62
     0
100
AcDbPoint
 10
11.15308661043833
 20
4.535827904833233
 30
0.0
  0
POINT
  5
2643
330
1BF8
100
AcDbEntity
  8
Defpoints
 62
     0
100
AcDbPoint
 10
11.26448520743638
 20
4.535827904833233
 30
0.0
  0
ENDBLK
  5
1C04
330
1BF8
100
AcDbEntity
  8
0
100
AcDbBlockEnd
  0
BLOCK
  5
1C11
330
1C06
100
AcDbEntity
  8
0
100
AcDbBlockBegin
  2
*D6
 70
     1
 10
0.0
 20
0.0
 30
0.0
  3
*D6
  1

  0
LINE
  5
25A4
330
1C06
100
AcDbEntity
  8
0
 62
     0
370
    -2
100
AcDbLine
 10
2.616943960245937
 20
8.055512878032907
 30
0.0
 11
2.810334753945173
 21
8.055512878032907
 31
0.0
  0
LINE
  5
25A5
330
1C06
100
AcDbEntity
  8
0
 62
     0
370
    -2
100
AcDbLine
 10
2.616943960245937
 20
2.016142912832938
 30
0.0
 11
2.81033475394517
 21
2.016142912832938
 31
0.0
  0
LINE
  5
25A6
330
1C06
100
AcDbEntity
  8
0
 62
     0
370
    -2
100
AcDbLine
 10
2.670834753945173
 20
7.785512878032904
 30
0.0
 11
2.670834753945173
 21
5.26457789543292
 31
0.0
  0
LINE
  5
25A7
330
1C06
100
AcDbEntity
  8
0
 62
     0
370
    -2
100
AcDbLine
 10
2.67083475394517
 20
2.286142912832938
 30
0.0
 11
2.67083475394517
 21
4.807077895432922
 31
0.0
  0
SOLID
  5
25A8
330
1C06
100
AcDbEntity
  8
0
 62
     0
100
AcDbTrace
 10
2.625834753945173
 20
7.785512878032904
 30
0.0
 11
2.715834753945173
 21
7.785512878032904
 31
0.0
 12
2.670834753945173
 22
8.055512878032907
 32
0.0
 13
2.670834753945173
 23
8.055512878032907
 33
0.0
  0
SOLID
  5
25A9
330
1C06
100
AcDbEntity
  8
0
 62
     0
100
AcDbTrace
 10
2.62583475394517
 20
2.286142912832938
 30
0.0
 11
2.71583475394517
 21
2.286142912832938
 31
0.0
 12
2.67083475394517
 22
2.016142912832938
 32
0.0
 13
2.67083475394517
 23
2.016142912832938
 33
0.0
  0
MTEXT
  5
25AA
330
1C06
100
AcDbEntity
  8
0
 62
     0
100
AcDbMText
 10
2.67083475394517
 20
5.035827895432921
 30
0.0
 40
0.1875
 41
0.0
 71
     5
 72
     1
  1
\A1;6.039
 73
     1
 44
1.0
  0
POINT
  5
25AB
330
1C06
100
AcDbEntity
  8
Defpoints
 62
     0
100
AcDbPoint
 10
2.522443960245936
 20
8.055512878032907
 30
0.0
  0
POINT
  5
25AC
330
1C06
100
AcDbEntity
  8
Defpoints
 62
     0
100
AcDbPoint
 10
2.522443960245936
 20
2.016142912832938
 30
0.0
  0
POINT
  5
25AD
330
1C06
100
AcDbEntity
  8
Defpoints
 62
     0
100
AcDbPoint
 10
2.67083475394517
 20
2.016142912832938
 30
0.0
  0
ENDBLK
  5
1C12
330
1C06
100
AcDbEntity
  8
0
100
AcDbBlockEnd
  0
BLOCK
  5
1C47
330
1C3C
100
AcDbEntity
  8
0
100
AcDbBlockBegin
  2
*D7
 70
     1
 10
0.0
 20
0.0
 30
0.0
  3
*D7
  1

  0
LINE
  5
2608
330
1C3C
100
AcDbEntity
  8
0
 62
     0
370
    -2
100
AcDbLine
 10
1.620068313449563
 20
18.03756046029332
 30
0.0
 11
1.620068313449563
 21
18.79093068071156
 31
0.0
  0
LINE
  5
2609
330
1C3C
100
AcDbEntity
  8
0
 62
     0
370
    -2
100
AcDbLine
 10
4.690934397449608
 20
18.03756046029332
 30
0.0
 11
4.690934397449608
 21
18.79093068071156
 31
0.0
  0
LINE
  5
260A
330
1C3C
100
AcDbEntity
  8
0
 62
     0
370
    -2
100
AcDbLine
 10
1.890068313449564
 20
18.65143068071157
 30
0.0
 11
2.774407605449586
 21
18.65143068071157
 31
0.0
  0
LINE
  5
260B
330
1C3C
100
AcDbEntity
  8
0
 62
     0
370
    -2
100
AcDbLine
 10
4.42093439744961
 20
18.65143068071157
 30
0.0
 11
3.536595105449586
 21
18.65143068071157
 31
0.0
  0
SOLID
  5
260C
330
1C3C
100
AcDbEntity
  8
0
 62
     0
100
AcDbTrace
 10
1.890068313449564
 20
18.69643068071156
 30
0.0
 11
1.890068313449564
 21
18.60643068071157
 31
0.0
 12
1.620068313449563
 22
18.65143068071157
 32
0.0
 13
1.620068313449563
 23
18.65143068071157
 33
0.0
  0
SOLID
  5
260D
330
1C3C
100
AcDbEntity
  8
0
 62
     0
100
AcDbTrace
 10
4.42093439744961
 20
18.69643068071156
 30
0.0
 11
4.42093439744961
 21
18.60643068071157
 31
0.0
 12
4.690934397449608
 22
18.65143068071157
 32
0.0
 13
4.690934397449608
 23
18.65143068071157
 33
0.0
  0
MTEXT
  5
260E
330
1C3C
100
AcDbEntity
  8
0
 62
     0
100
AcDbMText
 10
3.155501355449587
 20
18.65143068071157
 30
0.0
 40
0.1875
 41
0.0
 71
     5
 72
     1
  1
\A1;3.071
 73
     1
 44
1.0
  0
POINT
  5
260F
330
1C3C
100
AcDbEntity
  8
Defpoints
 62
     0
100
AcDbPoint
 10
1.620068313449563
 20
17.94306046029332
 30
0.0
  0
POINT
  5
2610
330
1C3C
100
AcDbEntity
  8
Defpoints
 62
     0
100
AcDbPoint
 10
4.690934397449608
 20
17.94306046029332
 30
0.0
  0
POINT
  5
2611
330
1C3C
100
AcDbEntity
  8
Defpoints
 62
     0
100
AcDbPoint
 10
4.690934397449608
 20
18.65143068071157
 30
0.0
  0
ENDBLK
  5
1C48
330
1C3C
100
AcDbEntity
  8
0
100
AcDbBlockEnd
  0
BLOCK
  5
1C55
330
1C4A
100
AcDbEntity
  8
0
100
AcDbBlockBegin
  2
*D8
 70
     1
 10
0.0
 20
0.0
 30
0.0
  3
*D8
  1

  0
LINE
  5
2626
330
1C4A
100
AcDbEntity
  8
0
 62
     0
370
    -2
100
AcDbLine
 10
4.785434397449608
 20
17.94306046029332
 30
0.0
 11
5.720536758631157
 21
17.94306046029332
 31
0.0
  0
LINE
  5
2627
330
1C4A
100
AcDbEntity
  8
0
 62
     0
370
    -2
100
AcDbLine
 10
4.785434397449608
 20
15.89581640429359
 30
0.0
 11
5.720536758631157
 21
15.89581640429359
 31
0.0
  0
LINE
  5
2628
330
1C4A
100
AcDbEntity
  8
0
 62
     0
370
    -2
100
AcDbLine
 10
5.581036758631157
 20
17.67306046029331
 30
0.0
 11
5.581036758631157
 21
17.14818843229346
 31
0.0
  0
LINE
  5
2629
330
1C4A
100
AcDbEntity
  8
0
 62
     0
370
    -2
100
AcDbLine
 10
5.581036758631157
 20
16.1658164042936
 30
0.0
 11
5.581036758631157
 21
16.69068843229346
 31
0.0
  0
SOLID
  5
262A
330
1C4A
100
AcDbEntity
  8
0
 62
     0
100
AcDbTrace
 10
5.536036758631156
 20
17.67306046029331
 30
0.0
 11
5.626036758631157
 21
17.67306046029331
 31
0.0
 12
5.581036758631157
 22
17.94306046029332
 32
0.0
 13
5.581036758631157
 23
17.94306046029332
 33
0.0
  0
SOLID
  5
262B
330
1C4A
100
AcDbEntity
  8
0
 62
     0
100
AcDbTrace
 10
5.536036758631156
 20
16.1658164042936
 30
0.0
 11
5.626036758631157
 21
16.1658164042936
 31
0.0
 12
5.581036758631157
 22
15.89581640429359
 32
0.0
 13
5.581036758631157
 23
15.89581640429359
 33
0.0
  0
MTEXT
  5
262C
330
1C4A
100
AcDbEntity
  8
0
 62
     0
100
AcDbMText
 10
5.581036758631151
 20
16.91943843229346
 30
0.0
 40
0.1875
 41
0.0
 71
     5
 72
     1
  1
\A1;2.047
 73
     1
 44
1.0
  0
POINT
  5
262D
330
1C4A
100
AcDbEntity
  8
Defpoints
 62
     0
100
AcDbPoint
 10
4.690934397449608
 20
17.94306046029332
 30
0.0
  0
POINT
  5
262E
330
1C4A
100
AcDbEntity
  8
Defpoints
 62
     0
100
AcDbPoint
 10
4.690934397449608
 20
15.89581640429359
 30
0.0
  0
POINT
  5
262F
330
1C4A
100
AcDbEntity
  8
Defpoints
 62
     0
100
AcDbPoint
 10
5.581036758631157
 20
15.89581640429359
 30
0.0
  0
ENDBLK
  5
1C56
330
1C4A
100
AcDbEntity
  8
0
100
AcDbBlockEnd
  0
BLOCK
  5
1C63
330
1C58
100
AcDbEntity
  8
0
100
AcDbBlockBegin
  2
*D9
 70
     1
 10
0.0
 20
0.0
 30
0.0
  3
*D9
  1

  0
LINE
  5
259A
330
1C58
100
AcDbEntity
  8
0
 62
     0
370
    -2
100
AcDbLine
 10
2.190934444449565
 20
12.17926922829334
 30
0.0
 11
2.190934444449565
 21
11.41798283662455
 31
0.0
  0
LINE
  5
259B
330
1C58
100
AcDbEntity
  8
0
 62
     0
370
    -2
100
AcDbLine
 10
4.120068266449607
 20
12.17926922829334
 30
0.0
 11
4.120068266449607
 21
11.41798283662455
 31
0.0
  0
LINE
  5
259C
330
1C58
100
AcDbEntity
  8
0
 62
     0
370
    -2
100
AcDbLine
 10
2.460934444449565
 20
11.55748283662455
 30
0.0
 11
2.762688855449586
 21
11.55748283662455
 31
0.0
  0
LINE
  5
259D
330
1C58
100
AcDbEntity
  8
0
 62
     0
370
    -2
100
AcDbLine
 10
3.850068266449607
 20
11.55748283662455
 30
0.0
 11
3.548313855449586
 21
11.55748283662455
 31
0.0
  0
SOLID
  5
259E
330
1C58
100
AcDbEntity
  8
0
 62
     0
100
AcDbTrace
 10
2.460934444449565
 20
11.60248283662455
 30
0.0
 11
2.460934444449565
 21
11.51248283662455
 31
0.0
 12
2.190934444449565
 22
11.55748283662455
 32
0.0
 13
2.190934444449565
 23
11.55748283662455
 33
0.0
  0
SOLID
  5
259F
330
1C58
100
AcDbEntity
  8
0
 62
     0
100
AcDbTrace
 10
3.850068266449607
 20
11.60248283662455
 30
0.0
 11
3.850068266449607
 21
11.51248283662455
 31
0.0
 12
4.120068266449607
 22
11.55748283662455
 32
0.0
 13
4.120068266449607
 23
11.55748283662455
 33
0.0
  0
MTEXT
  5
25A0
330
1C58
100
AcDbEntity
  8
0
 62
     0
100
AcDbMText
 10
3.155501355449587
 20
11.55748283662455
 30
0.0
 40
0.1875
 41
0.0
 71
     5
 72
     1
  1
\A1;1.929
 73
     1
 44
1.0
  0
POINT
  5
25A1
330
1C58
100
AcDbEntity
  8
Defpoints
 62
     0
100
AcDbPoint
 10
2.190934444449565
 20
12.27376922829334
 30
0.0
  0
POINT
  5
25A2
330
1C58
100
AcDbEntity
  8
Defpoints
 62
     0
100
AcDbPoint
 10
4.120068266449607
 20
12.27376922829334
 30
0.0
  0
POINT
  5
25A3
330
1C58
100
AcDbEntity
  8
Defpoints
 62
     0
100
AcDbPoint
 10
4.120068266449607
 20
11.55748283662455
 30
0.0
  0
ENDBLK
  5
1C64
330
1C58
100
AcDbEntity
  8
0
100
AcDbBlockEnd
  0
BLOCK
  5
1C71
330
1C66
100
AcDbEntity
  8
0
100
AcDbBlockBegin
  2
*D10
 70
     1
 10
0.0
 20
0.0
 30
0.0
  3
*D10
  1

  0
LINE
  5
2590
330
1C66
100
AcDbEntity
  8
0
 62
     0
370
    -2
100
AcDbLine
 10
1.875973820449644
 20
12.06115899429319
 30
0.0
 11
1.875973820449644
 21
11.00822489152994
 31
0.0
  0
LINE
  5
2591
330
1C66
100
AcDbEntity
  8
0
 62
     0
370
    -2
100
AcDbLine
 10
4.435028890449075
 20
12.06115899429319
 30
0.0
 11
4.435028890449075
 21
11.00822489152994
 31
0.0
  0
LINE
  5
2592
330
1C66
100
AcDbEntity
  8
0
 62
     0
370
    -2
100
AcDbLine
 10
2.145973820449643
 20
11.14772489152993
 30
0.0
 11
2.73925135544936
 21
11.14772489152993
 31
0.0
  0
LINE
  5
2593
330
1C66
100
AcDbEntity
  8
0
 62
     0
370
    -2
100
AcDbLine
 10
4.165028890449073
 20
11.14772489152993
 30
0.0
 11
3.571751355449357
 21
11.14772489152993
 31
0.0
  0
SOLID
  5
2594
330
1C66
100
AcDbEntity
  8
0
 62
     0
100
AcDbTrace
 10
2.145973820449643
 20
11.19272489152993
 30
0.0
 11
2.145973820449643
 21
11.10272489152994
 31
0.0
 12
1.875973820449644
 22
11.14772489152993
 32
0.0
 13
1.875973820449644
 23
11.14772489152993
 33
0.0
  0
SOLID
  5
2595
330
1C66
100
AcDbEntity
  8
0
 62
     0
100
AcDbTrace
 10
4.165028890449073
 20
11.19272489152993
 30
0.0
 11
4.165028890449073
 21
11.10272489152994
 31
0.0
 12
4.435028890449075
 22
11.14772489152993
 32
0.0
 13
4.435028890449075
 23
11.14772489152993
 33
0.0
  0
MTEXT
  5
2596
330
1C66
100
AcDbEntity
  8
0
 62
     0
100
AcDbMText
 10
3.155501355449357
 20
11.14772489152993
 30
0.0
 40
0.1875
 41
0.0
 71
     5
 72
     1
  1
\A1;2.559
 73
     1
 44
1.0
  0
POINT
  5
2597
330
1C66
100
AcDbEntity
  8
Defpoints
 62
     0
100
AcDbPoint
 10
1.875973820449644
 20
12.15565899429319
 30
0.0
  0
POINT
  5
2598
330
1C66
100
AcDbEntity
  8
Defpoints
 62
     0
100
AcDbPoint
 10
4.435028890449075
 20
12.15565899429319
 30
0.0
  0
POINT
  5
2599
330
1C66
100
AcDbEntity
  8
Defpoints
 62
     0
100
AcDbPoint
 10
4.435028890449075
 20
11.14772489152993
 30
0.0
  0
ENDBLK
  5
1C72
330
1C66
100
AcDbEntity
  8
0
100
AcDbBlockEnd
  0
BLOCK
  5
1C7F
330
1C74
100
AcDbEntity
  8
0
100
AcDbBlockBegin
  2
*D11
 70
     1
 10
0.0
 20
0.0
 30
0.0
  3
*D11
  1

  0
LINE
  5
25FE
330
1C74
100
AcDbEntity
  8
0
 62
     0
370
    -2
100
AcDbLine
 10
1.305107689449639
 20
18.15567069429346
 30
0.0
 11
1.305107689449639
 21
19.17785403837154
 31
0.0
  0
LINE
  5
25FF
330
1C74
100
AcDbEntity
  8
0
 62
     0
370
    -2
100
AcDbLine
 10
5.005895021449531
 20
18.15567069429324
 30
0.0
 11
5.005895021449531
 21
19.17785403837154
 31
0.0
  0
LINE
  5
2600
330
1C74
100
AcDbEntity
  8
0
 62
     0
370
    -2
100
AcDbLine
 10
1.575107689449639
 20
19.03835403837154
 30
0.0
 11
2.774407605449586
 21
19.03835403837154
 31
0.0
  0
LINE
  5
2601
330
1C74
100
AcDbEntity
  8
0
 62
     0
370
    -2
100
AcDbLine
 10
4.735895021449531
 20
19.03835403837154
 30
0.0
 11
3.536595105449586
 21
19.03835403837154
 31
0.0
  0
SOLID
  5
2602
330
1C74
100
AcDbEntity
  8
0
 62
     0
100
AcDbTrace
 10
1.575107689449639
 20
19.08335403837154
 30
0.0
 11
1.575107689449639
 21
18.99335403837153
 31
0.0
 12
1.305107689449639
 22
19.03835403837154
 32
0.0
 13
1.305107689449639
 23
19.03835403837154
 33
0.0
  0
SOLID
  5
2603
330
1C74
100
AcDbEntity
  8
0
 62
     0
100
AcDbTrace
 10
4.735895021449531
 20
19.08335403837154
 30
0.0
 11
4.735895021449531
 21
18.99335403837153
 31
0.0
 12
5.005895021449531
 22
19.03835403837154
 32
0.0
 13
5.005895021449531
 23
19.03835403837154
 33
0.0
  0
MTEXT
  5
2604
330
1C74
100
AcDbEntity
  8
0
 62
     0
100
AcDbMText
 10
3.155501355449586
 20
19.03835403837154
 30
0.0
 40
0.1875
 41
0.0
 71
     5
 72
     1
  1
\A1;3.701
 73
     1
 44
1.0
  0
POINT
  5
2605
330
1C74
100
AcDbEntity
  8
Defpoints
 62
     0
100
AcDbPoint
 10
1.305107689449639
 20
18.06117069429346
 30
0.0
  0
POINT
  5
2606
330
1C74
100
AcDbEntity
  8
Defpoints
 62
     0
100
AcDbPoint
 10
5.005895021449531
 20
18.06117069429324
 30
0.0
  0
POINT
  5
2607
330
1C74
100
AcDbEntity
  8
Defpoints
 62
     0
100
AcDbPoint
 10
5.005895021449531
 20
19.03835403837154
 30
0.0
  0
ENDBLK
  5
1C80
330
1C74
100
AcDbEntity
  8
0
100
AcDbBlockEnd
  0
BLOCK
  5
1C8E
330
1C83
100
AcDbEntity
  8
0
100
AcDbBlockBegin
  2
*D12
 70
     1
 10
0.0
 20
0.0
 30
0.0
  3
*D12
  1

  0
LINE
  5
261C
330
1C83
100
AcDbEntity
  8
0
 62
     0
370
    -2
100
AcDbLine
 10
4.903544631449294
 20
18.25802108429324
 30
0.0
 11
6.262055895874667
 21
18.25802108429324
 31
0.0
  0
LINE
  5
261D
330
1C83
100
AcDbEntity
  8
0
 62
     0
370
    -2
100
AcDbLine
 10
4.332678500449294
 20
11.95880860429342
 30
0.0
 11
6.262055895874667
 21
11.95880860429342
 31
0.0
  0
LINE
  5
261E
330
1C83
100
AcDbEntity
  8
0
 62
     0
370
    -2
100
AcDbLine
 10
6.122555895874667
 20
17.98802108429324
 30
0.0
 11
6.122555895874667
 21
15.33716484429333
 31
0.0
  0
LINE
  5
261F
330
1C83
100
AcDbEntity
  8
0
 62
     0
370
    -2
100
AcDbLine
 10
6.122555895874667
 20
12.22880860429341
 30
0.0
 11
6.122555895874667
 21
14.87966484429333
 31
0.0
  0
SOLID
  5
2620
330
1C83
100
AcDbEntity
  8
0
 62
     0
100
AcDbTrace
 10
6.077555895874668
 20
17.98802108429324
 30
0.0
 11
6.167555895874668
 21
17.98802108429324
 31
0.0
 12
6.122555895874667
 22
18.25802108429324
 32
0.0
 13
6.122555895874667
 23
18.25802108429324
 33
0.0
  0
SOLID
  5
2621
330
1C83
100
AcDbEntity
  8
0
 62
     0
100
AcDbTrace
 10
6.077555895874668
 20
12.22880860429341
 30
0.0
 11
6.167555895874668
 21
12.22880860429341
 31
0.0
 12
6.122555895874667
 22
11.95880860429342
 32
0.0
 13
6.122555895874667
 23
11.95880860429342
 33
0.0
  0
MTEXT
  5
2622
330
1C83
100
AcDbEntity
  8
0
 62
     0
100
AcDbMText
 10
6.122555895874667
 20
15.10841484429333
 30
0.0
 40
0.1875
 41
0.0
 71
     5
 72
     1
  1
\A1;6.299
 73
     1
 44
1.0
  0
POINT
  5
2623
330
1C83
100
AcDbEntity
  8
Defpoints
 62
     0
100
AcDbPoint
 10
4.809044631449294
 20
18.25802108429324
 30
0.0
  0
POINT
  5
2624
330
1C83
100
AcDbEntity
  8
Defpoints
 62
     0
100
AcDbPoint
 10
4.238178500449294
 20
11.95880860429342
 30
0.0
  0
POINT
  5
2625
330
1C83
100
AcDbEntity
  8
Defpoints
 62
     0
100
AcDbPoint
 10
6.122555895874667
 20
11.95880860429342
 30
0.0
  0
ENDBLK
  5
1C8F
330
1C83
100
AcDbEntity
  8
0
100
AcDbBlockEnd
  0
BLOCK
  5
1C9C
330
1C91
100
AcDbEntity
  8
0
100
AcDbBlockBegin
  2
*D13
 70
     1
 10
0.0
 20
0.0
 30
0.0
  3
*D13
  1

  0
LINE
  5
2586
330
1C91
100
AcDbEntity
  8
0
 62
     0
370
    -2
100
AcDbLine
 10
7.216865211821612
 20
18.18394611371707
 30
0.0
 11
7.216865211821612
 21
18.79093068071156
 31
0.0
  0
LINE
  5
2587
330
1C91
100
AcDbEntity
  8
0
 62
     0
370
    -2
100
AcDbLine
 10
8.201117161821692
 20
18.18394611371707
 30
0.0
 11
8.201117161821692
 21
18.79093068071156
 31
0.0
  0
LINE
  5
2588
330
1C91
100
AcDbEntity
  8
0
 62
     0
370
    -2
100
AcDbLine
 10
6.946865211821612
 20
18.65143068071157
 30
0.0
 11
6.676865211821612
 21
18.65143068071157
 31
0.0
  0
LINE
  5
2589
330
1C91
100
AcDbEntity
  8
0
 62
     0
370
    -2
100
AcDbLine
 10
8.471117161821691
 20
18.65143068071157
 30
0.0
 11
8.741117161821691
 21
18.65143068071157
 31
0.0
  0
SOLID
  5
258A
330
1C91
100
AcDbEntity
  8
0
 62
     0
100
AcDbTrace
 10
6.946865211821612
 20
18.69643068071156
 30
0.0
 11
6.946865211821612
 21
18.60643068071157
 31
0.0
 12
7.216865211821612
 22
18.65143068071157
 32
0.0
 13
7.216865211821612
 23
18.65143068071157
 33
0.0
  0
SOLID
  5
258B
330
1C91
100
AcDbEntity
  8
0
 62
     0
100
AcDbTrace
 10
8.471117161821691
 20
18.69643068071156
 30
0.0
 11
8.471117161821691
 21
18.60643068071157
 31
0.0
 12
8.201117161821692
 22
18.65143068071157
 32
0.0
 13
8.201117161821692
 23
18.65143068071157
 33
0.0
  0
MTEXT
  5
258C
330
1C91
100
AcDbEntity
  8
0
 62
     0
100
AcDbMText
 10
7.700382930976173
 20
18.65143068071157
 30
0.0
 40
0.1875
 41
0.0
 71
     5
 72
     1
  1
\A1;0.984
 73
     1
 44
1.0
  0
POINT
  5
258D
330
1C91
100
AcDbEntity
  8
Defpoints
 62
     0
100
AcDbPoint
 10
7.216865211821612
 20
18.08944611371707
 30
0.0
  0
POINT
  5
258E
330
1C91
100
AcDbEntity
  8
Defpoints
 62
     0
100
AcDbPoint
 10
8.201117161821692
 20
18.08944611371707
 30
0.0
  0
POINT
  5
258F
330
1C91
100
AcDbEntity
  8
Defpoints
 62
     0
100
AcDbPoint
 10
8.201117161821692
 20
18.65143068071157
 30
0.0
  0
ENDBLK
  5
1C9D
330
1C91
100
AcDbEntity
  8
0
100
AcDbBlockEnd
  0
BLOCK
  5
1CF0
330
1CE5
100
AcDbEntity
  8
0
100
AcDbBlockBegin
  2
*D14
 70
     1
 10
0.0
 20
0.0
 30
0.0
  3
*D14
  1

  0
LINE
  5
2612
330
1CE5
100
AcDbEntity
  8
0
 62
     0
370
    -2
100
AcDbLine
 10
1.761788781449393
 20
15.26597320185173
 30
0.0
 11
0.5907197532419223
 21
15.26597320185173
 31
0.0
  0
LINE
  5
2613
330
1CE5
100
AcDbEntity
  8
0
 62
     0
370
    -2
100
AcDbLine
 10
2.096434444449565
 20
12.27376922829334
 30
0.0
 11
0.5907197532419218
 21
12.27376922829334
 31
0.0
  0
LINE
  5
2614
330
1CE5
100
AcDbEntity
  8
0
 62
     0
370
    -2
100
AcDbLine
 10
0.7302197532419222
 20
14.99597320185173
 30
0.0
 11
0.7302197532419222
 21
13.99862121507252
 31
0.0
  0
LINE
  5
2615
330
1CE5
100
AcDbEntity
  8
0
 62
     0
370
    -2
100
AcDbLine
 10
0.7302197532419217
 20
12.54376922829334
 30
0.0
 11
0.7302197532419222
 21
13.54112121507254
 31
0.0
  0
SOLID
  5
2616
330
1CE5
100
AcDbEntity
  8
0
 62
     0
100
AcDbTrace
 10
0.6852197532419222
 20
14.99597320185173
 30
0.0
 11
0.7752197532419223
 21
14.99597320185173
 31
0.0
 12
0.7302197532419223
 22
15.26597320185173
 32
0.0
 13
0.7302197532419223
 23
15.26597320185173
 33
0.0
  0
SOLID
  5
2617
330
1CE5
100
AcDbEntity
  8
0
 62
     0
100
AcDbTrace
 10
0.6852197532419218
 20
12.54376922829334
 30
0.0
 11
0.7752197532419217
 21
12.54376922829334
 31
0.0
 12
0.7302197532419217
 22
12.27376922829334
 32
0.0
 13
0.7302197532419217
 23
12.27376922829334
 33
0.0
  0
MTEXT
  5
2618
330
1CE5
100
AcDbEntity
  8
0
 62
     0
100
AcDbMText
 10
0.7302197532419198
 20
13.76987121507252
 30
0.0
 40
0.1875
 41
0.0
 71
     5
 72
     1
  1
\A1;2.992
 73
     1
 44
1.0
  0
POINT
  5
2619
330
1CE5
100
AcDbEntity
  8
Defpoints
 62
     0
100
AcDbPoint
 10
1.856288781449393
 20
15.26597320185173
 30
0.0
  0
POINT
  5
261A
330
1CE5
100
AcDbEntity
  8
Defpoints
 62
     0
100
AcDbPoint
 10
2.190934444449565
 20
12.27376922829334
 30
0.0
  0
POINT
  5
261B
330
1CE5
100
AcDbEntity
  8
Defpoints
 62
     0
100
AcDbPoint
 10
0.7302197532419217
 20
12.27376922829334
 30
0.0
  0
ENDBLK
  5
1CF1
330
1CE5
100
AcDbEntity
  8
0
100
AcDbBlockEnd
  0
BLOCK
  5
1D26
330
1D1B
100
AcDbEntity
  8
0
100
AcDbBlockBegin
  2
*D15
 70
     1
 10
0.0
 20
0.0
 30
0.0
  3
*D15
  1

  0
LINE
  5
257C
330
1D1B
100
AcDbEntity
  8
0
 62
     0
370
    -2
100
AcDbLine
 10
7.689306147821723
 20
1.803532678832798
 30
0.0
 11
7.689306147821723
 21
1.338916693378817
 31
0.0
  0
LINE
  5
257D
330
1D1B
100
AcDbEntity
  8
0
 62
     0
370
    -2
100
AcDbLine
 10
8.201117161821692
 20
1.972107649408973
 30
0.0
 11
8.201117161821692
 21
1.338916693378817
 31
0.0
  0
LINE
  5
257E
330
1D1B
100
AcDbEntity
  8
0
 62
     0
370
    -2
100
AcDbLine
 10
7.419306147821721
 20
1.478416693378818
 30
0.0
 11
7.149306147821723
 21
1.478416693378818
 31
0.0
  0
LINE
  5
257F
330
1D1B
100
AcDbEntity
  8
0
 62
     0
370
    -2
100
AcDbLine
 10
8.471117161821691
 20
1.478416693378818
 30
0.0
 11
8.741117161821691
 21
1.478416693378818
 31
0.0
  0
SOLID
  5
2580
330
1D1B
100
AcDbEntity
  8
0
 62
     0
100
AcDbTrace
 10
7.419306147821721
 20
1.523416693378818
 30
0.0
 11
7.419306147821721
 21
1.433416693378816
 31
0.0
 12
7.689306147821723
 22
1.478416693378818
 32
0.0
 13
7.689306147821723
 23
1.478416693378818
 33
0.0
  0
SOLID
  5
2581
330
1D1B
100
AcDbEntity
  8
0
 62
     0
100
AcDbTrace
 10
8.471117161821691
 20
1.523416693378818
 30
0.0
 11
8.471117161821691
 21
1.433416693378816
 31
0.0
 12
8.201117161821692
 22
1.478416693378818
 32
0.0
 13
8.201117161821692
 23
1.478416693378818
 33
0.0
  0
MTEXT
  5
2582
330
1D1B
100
AcDbEntity
  8
0
 62
     0
100
AcDbMText
 10
9.122210911821692
 20
1.478416693378818
 30
0.0
 40
0.1875
 41
0.0
 71
     5
 72
     1
  1
\A1;0.512
 73
     1
 44
1.0
  0
POINT
  5
2583
330
1D1B
100
AcDbEntity
  8
Defpoints
 62
     0
100
AcDbPoint
 10
7.689306147821723
 20
1.898032678832796
 30
0.0
  0
POINT
  5
2584
330
1D1B
100
AcDbEntity
  8
Defpoints
 62
     0
100
AcDbPoint
 10
8.201117161821692
 20
2.066607649408973
 30
0.0
  0
POINT
  5
2585
330
1D1B
100
AcDbEntity
  8
Defpoints
 62
     0
100
AcDbPoint
 10
8.201117161821692
 20
1.478416693378818
 30
0.0
  0
ENDBLK
  5
1D27
330
1D1B
100
AcDbEntity
  8
0
100
AcDbBlockEnd
  0
BLOCK
  5
1D34
330
1D29
100
AcDbEntity
  8
0
100
AcDbBlockBegin
  2
*D16
 70
     1
 10
0.0
 20
0.0
 30
0.0
  3
*D16
  1

  0
LINE
  5
2572
330
1D29
100
AcDbEntity
  8
0
 62
     0
370
    -2
100
AcDbLine
 10
7.689306147821723
 20
8.291745158833077
 30
0.0
 11
7.689306147821723
 21
8.760885137609742
 31
0.0
  0
LINE
  5
2573
330
1D29
100
AcDbEntity
  8
0
 62
     0
370
    -2
100
AcDbLine
 10
7.216865211821607
 20
8.123170188256903
 30
0.0
 11
7.216865211821607
 21
8.760885137609742
 31
0.0
  0
LINE
  5
2574
330
1D29
100
AcDbEntity
  8
0
 62
     0
370
    -2
100
AcDbLine
 10
7.959306147821718
 20
8.621385137609742
 30
0.0
 11
8.22930614782172
 21
8.621385137609742
 31
0.0
  0
LINE
  5
2575
330
1D29
100
AcDbEntity
  8
0
 62
     0
370
    -2
100
AcDbLine
 10
6.946865211821607
 20
8.621385137609742
 30
0.0
 11
6.676865211821607
 21
8.621385137609742
 31
0.0
  0
SOLID
  5
2576
330
1D29
100
AcDbEntity
  8
0
 62
     0
100
AcDbTrace
 10
7.959306147821718
 20
8.666385137609742
 30
0.0
 11
7.959306147821718
 21
8.576385137609742
 31
0.0
 12
7.689306147821723
 22
8.621385137609742
 32
0.0
 13
7.689306147821723
 23
8.621385137609742
 33
0.0
  0
SOLID
  5
2577
330
1D29
100
AcDbEntity
  8
0
 62
     0
100
AcDbTrace
 10
6.946865211821607
 20
8.666385137609742
 30
0.0
 11
6.946865211821607
 21
8.576385137609742
 31
0.0
 12
7.216865211821607
 22
8.621385137609742
 32
0.0
 13
7.216865211821607
 23
8.621385137609742
 33
0.0
  0
MTEXT
  5
2578
330
1D29
100
AcDbEntity
  8
0
 62
     0
100
AcDbMText
 10
6.272333961821606
 20
8.621385137609742
 30
0.0
 40
0.1875
 41
0.0
 71
     5
 72
     1
  1
\A1;0.472
 73
     1
 44
1.0
  0
POINT
  5
2579
330
1D29
100
AcDbEntity
  8
Defpoints
 62
     0
100
AcDbPoint
 10
7.689306147821723
 20
8.197245158833077
 30
0.0
  0
POINT
  5
257A
330
1D29
100
AcDbEntity
  8
Defpoints
 62
     0
100
AcDbPoint
 10
7.216865211821607
 20
8.028670188256903
 30
0.0
  0
POINT
  5
257B
330
1D29
100
AcDbEntity
  8
Defpoints
 62
     0
100
AcDbPoint
 10
7.216865211821607
 20
8.621385137609742
 30
0.0
  0
ENDBLK
  5
1D35
330
1D29
100
AcDbEntity
  8
0
100
AcDbBlockEnd
  0
BLOCK
  5
1E01
330
1DF6
100
AcDbEntity
  8
0
100
AcDbBlockBegin
  2
*D17
 70
     1
 10
0.0
 20
0.0
 30
0.0
  3
*D17
  1

  0
LINE
  5
2568
330
1DF6
100
AcDbEntity
  8
0
 62
     0
370
    -2
100
AcDbLine
 10
7.307416391221487
 20
6.366212630621997
 30
0.0
 11
7.307416391221487
 21
6.285656700557856
 31
0.0
  0
LINE
  5
2569
330
1DF6
100
AcDbEntity
  8
0
 62
     0
370
    -2
100
AcDbLine
 10
8.110565982421771
 20
6.366212630621997
 30
0.0
 11
8.110565982421771
 21
6.285656700557856
 31
0.0
  0
LINE
  5
256A
330
1DF6
100
AcDbEntity
  8
0
 62
     0
370
    -2
100
AcDbLine
 10
7.037416391221487
 20
6.425156700557856
 30
0.0
 11
6.767416391221487
 21
6.425156700557856
 31
0.0
  0
LINE
  5
256B
330
1DF6
100
AcDbEntity
  8
0
 62
     0
370
    -2
100
AcDbLine
 10
8.380565982421771
 20
6.425156700557856
 30
0.0
 11
8.650565982421772
 21
6.425156700557856
 31
0.0
  0
SOLID
  5
256C
330
1DF6
100
AcDbEntity
  8
0
 62
     0
100
AcDbTrace
 10
7.037416391221487
 20
6.470156700557856
 30
0.0
 11
7.037416391221487
 21
6.380156700557856
 31
0.0
 12
7.307416391221487
 22
6.425156700557856
 32
0.0
 13
7.307416391221487
 23
6.425156700557856
 33
0.0
  0
SOLID
  5
256D
330
1DF6
100
AcDbEntity
  8
0
 62
     0
100
AcDbTrace
 10
8.380565982421771
 20
6.470156700557856
 30
0.0
 11
8.380565982421771
 21
6.380156700557856
 31
0.0
 12
8.110565982421771
 22
6.425156700557856
 32
0.0
 13
8.110565982421771
 23
6.425156700557856
 33
0.0
  0
MTEXT
  5
256E
330
1DF6
100
AcDbEntity
  8
0
 62
     0
100
AcDbMText
 10
9.043378482421774
 20
6.425156700557856
 30
0.0
 40
0.1875
 41
0.0
 71
     5
 72
     1
  1
\A1;0.803
 73
     1
 44
1.0
  0
POINT
  5
256F
330
1DF6
100
AcDbEntity
  8
Defpoints
 62
     0
100
AcDbPoint
 10
7.307416391221487
 20
6.460712630621997
 30
0.0
  0
POINT
  5
2570
330
1DF6
100
AcDbEntity
  8
Defpoints
 62
     0
100
AcDbPoint
 10
8.110565982421771
 20
6.460712630621997
 30
0.0
  0
POINT
  5
2571
330
1DF6
100
AcDbEntity
  8
Defpoints
 62
     0
100
AcDbPoint
 10
8.110565982421771
 20
6.425156700557856
 30
0.0
  0
ENDBLK
  5
1E02
330
1DF6
100
AcDbEntity
  8
0
100
AcDbBlockEnd
  0
BLOCK
  5
1E0F
330
1E04
100
AcDbEntity
  8
0
100
AcDbBlockBegin
  2
*D18
 70
     1
 10
0.0
 20
0.0
 30
0.0
  3
*D18
  1

  0
LINE
  5
255E
330
1E04
100
AcDbEntity
  8
0
 62
     0
370
    -2
100
AcDbLine
 10
8.110565982421771
 20
7.069130184163037
 30
0.0
 11
8.110565982421771
 21
7.14573549356375
 31
0.0
  0
LINE
  5
255F
330
1E04
100
AcDbEntity
  8
0
 62
     0
370
    -2
100
AcDbLine
 10
8.201117161821652
 20
7.069130184163037
 30
0.0
 11
8.201117161821652
 21
7.14573549356375
 31
0.0
  0
LINE
  5
2560
330
1E04
100
AcDbEntity
  8
0
 62
     0
370
    -2
100
AcDbLine
 10
7.840565982421772
 20
7.00623549356375
 30
0.0
 11
7.570565982421771
 21
7.00623549356375
 31
0.0
  0
LINE
  5
2561
330
1E04
100
AcDbEntity
  8
0
 62
     0
370
    -2
100
AcDbLine
 10
8.471117161821652
 20
7.00623549356375
 30
0.0
 11
8.741117161821652
 21
7.00623549356375
 31
0.0
  0
SOLID
  5
2562
330
1E04
100
AcDbEntity
  8
0
 62
     0
100
AcDbTrace
 10
7.840565982421772
 20
7.05123549356375
 30
0.0
 11
7.840565982421772
 21
6.96123549356375
 31
0.0
 12
8.110565982421771
 22
7.00623549356375
 32
0.0
 13
8.110565982421771
 23
7.00623549356375
 33
0.0
  0
SOLID
  5
2563
330
1E04
100
AcDbEntity
  8
0
 62
     0
100
AcDbTrace
 10
8.471117161821652
 20
7.05123549356375
 30
0.0
 11
8.471117161821652
 21
6.96123549356375
 31
0.0
 12
8.201117161821652
 22
7.00623549356375
 32
0.0
 13
8.201117161821652
 23
7.00623549356375
 33
0.0
  0
MTEXT
  5
2564
330
1E04
100
AcDbEntity
  8
0
 62
     0
100
AcDbMText
 10
9.110492161821651
 20
7.00623549356375
 30
0.0
 40
0.1875
 41
0.0
 71
     5
 72
     1
  1
\A1;0.091
 73
     1
 44
1.0
  0
POINT
  5
2565
330
1E04
100
AcDbEntity
  8
Defpoints
 62
     0
100
AcDbPoint
 10
8.110565982421771
 20
6.974630184163037
 30
0.0
  0
POINT
  5
2566
330
1E04
100
AcDbEntity
  8
Defpoints
 62
     0
100
AcDbPoint
 10
8.201117161821652
 20
6.974630184163037
 30
0.0
  0
POINT
  5
2567
330
1E04
100
AcDbEntity
  8
Defpoints
 62
     0
100
AcDbPoint
 10
8.201117161821652
 20
7.00623549356375
 30
0.0
  0
ENDBLK
  5
1E10
330
1E04
100
AcDbEntity
  8
0
100
AcDbBlockEnd
  0
BLOCK
  5
1E1D
330
1E12
100
AcDbEntity
  8
0
100
AcDbBlockBegin
  2
*D19
 70
     1
 10
0.0
 20
0.0
 30
0.0
  3
*D19
  1

  0
LINE
  5
2554
330
1E12
100
AcDbEntity
  8
0
 62
     0
370
    -2
100
AcDbLine
 10
7.504266781221726
 20
5.64410741333479
 30
0.0
 11
7.504266781221726
 21
6.010086163592847
 31
0.0
  0
LINE
  5
2555
330
1E12
100
AcDbEntity
  8
0
 62
     0
370
    -2
100
AcDbLine
 10
7.913715592421763
 20
5.644107413332971
 30
0.0
 11
7.913715592421763
 21
6.010086163592847
 31
0.0
  0
LINE
  5
2556
330
1E12
100
AcDbEntity
  8
0
 62
     0
370
    -2
100
AcDbLine
 10
7.234266781221727
 20
5.870586163592848
 30
0.0
 11
6.964266781221726
 21
5.870586163592848
 31
0.0
  0
LINE
  5
2557
330
1E12
100
AcDbEntity
  8
0
 62
     0
370
    -2
100
AcDbLine
 10
8.183715592421762
 20
5.870586163592848
 30
0.0
 11
8.453715592421762
 21
5.870586163592848
 31
0.0
  0
SOLID
  5
2558
330
1E12
100
AcDbEntity
  8
0
 62
     0
100
AcDbTrace
 10
7.234266781221727
 20
5.915586163592847
 30
0.0
 11
7.234266781221727
 21
5.825586163592847
 31
0.0
 12
7.504266781221726
 22
5.870586163592848
 32
0.0
 13
7.504266781221726
 23
5.870586163592848
 33
0.0
  0
SOLID
  5
2559
330
1E12
100
AcDbEntity
  8
0
 62
     0
100
AcDbTrace
 10
8.183715592421762
 20
5.915586163592847
 30
0.0
 11
8.183715592421762
 21
5.825586163592847
 31
0.0
 12
7.913715592421763
 22
5.870586163592848
 32
0.0
 13
7.913715592421763
 23
5.870586163592848
 33
0.0
  0
MTEXT
  5
255A
330
1E12
100
AcDbEntity
  8
0
 62
     0
100
AcDbMText
 10
8.846528092421761
 20
5.870586163592848
 30
0.0
 40
0.1875
 41
0.0
 71
     5
 72
     1
  1
\A1;0.409
 73
     1
 44
1.0
  0
POINT
  5
255B
330
1E12
100
AcDbEntity
  8
Defpoints
 62
     0
100
AcDbPoint
 10
7.504266781221726
 20
5.54960741333479
 30
0.0
  0
POINT
  5
255C
330
1E12
100
AcDbEntity
  8
Defpoints
 62
     0
100
AcDbPoint
 10
7.913715592421763
 20
5.549607413332971
 30
0.0
  0
POINT
  5
255D
330
1E12
100
AcDbEntity
  8
Defpoints
 62
     0
100
AcDbPoint
 10
7.913715592421763
 20
5.870586163592848
 30
0.0
  0
ENDBLK
  5
1E1E
330
1E12
100
AcDbEntity
  8
0
100
AcDbBlockEnd
  0
BLOCK
  5
1E49
330
1E3E
100
AcDbEntity
  8
0
100
AcDbBlockBegin
  2
*D20
 70
     1
 10
0.0
 20
0.0
 30
0.0
  3
*D20
  1

  0
LINE
  5
254A
330
1E3E
100
AcDbEntity
  8
0
 62
     0
370
    -2
100
AcDbLine
 10
7.504266781221726
 20
5.238571984334758
 30
0.0
 11
7.504266781221726
 21
4.81723379613823
 31
0.0
  0
LINE
  5
254B
330
1E3E
100
AcDbEntity
  8
0
 62
     0
370
    -2
100
AcDbLine
 10
7.307416391221488
 20
4.931120577244623
 30
0.0
 11
7.307416391221488
 21
4.81723379613823
 31
0.0
  0
LINE
  5
254C
330
1E3E
100
AcDbEntity
  8
0
 62
     0
370
    -2
100
AcDbLine
 10
7.774266781221727
 20
4.95673379613823
 30
0.0
 11
8.044266781221724
 21
4.95673379613823
 31
0.0
  0
LINE
  5
254D
330
1E3E
100
AcDbEntity
  8
0
 62
     0
370
    -2
100
AcDbLine
 10
7.037416391221491
 20
4.95673379613823
 30
0.0
 11
6.767416391221488
 21
4.95673379613823
 31
0.0
  0
SOLID
  5
254E
330
1E3E
100
AcDbEntity
  8
0
 62
     0
100
AcDbTrace
 10
7.774266781221727
 20
5.00173379613823
 30
0.0
 11
7.774266781221727
 21
4.91173379613823
 31
0.0
 12
7.504266781221726
 22
4.95673379613823
 32
0.0
 13
7.504266781221726
 23
4.95673379613823
 33
0.0
  0
SOLID
  5
254F
330
1E3E
100
AcDbEntity
  8
0
 62
     0
100
AcDbTrace
 10
7.037416391221491
 20
5.00173379613823
 30
0.0
 11
7.037416391221491
 21
4.91173379613823
 31
0.0
 12
7.307416391221488
 22
4.95673379613823
 32
0.0
 13
7.307416391221488
 23
4.95673379613823
 33
0.0
  0
MTEXT
  5
2550
330
1E3E
100
AcDbEntity
  8
0
 62
     0
100
AcDbMText
 10
6.386322641221489
 20
4.95673379613823
 30
0.0
 40
0.1875
 41
0.0
 71
     5
 72
     1
  1
\A1;0.197
 73
     1
 44
1.0
  0
POINT
  5
2551
330
1E3E
100
AcDbEntity
  8
Defpoints
 62
     0
100
AcDbPoint
 10
7.504266781221726
 20
5.333071984334758
 30
0.0
  0
POINT
  5
2552
330
1E3E
100
AcDbEntity
  8
Defpoints
 62
     0
100
AcDbPoint
 10
7.307416391221488
 20
5.025620577244623
 30
0.0
  0
POINT
  5
2553
330
1E3E
100
AcDbEntity
  8
Defpoints
 62
     0
100
AcDbPoint
 10
7.307416391221488
 20
4.95673379613823
 30
0.0
  0
ENDBLK
  5
1E4A
330
1E3E
100
AcDbEntity
  8
0
100
AcDbBlockEnd
  0
BLOCK
  5
1E61
330
1E56
100
AcDbEntity
  8
0
100
AcDbBlockBegin
  2
*D21
 70
     1
 10
0.0
 20
0.0
 30
0.0
  3
*D21
  1

  0
LINE
  5
25D6
330
1E56
100
AcDbEntity
  8
0
 62
     0
370
    -2
100
AcDbLine
 10
4.529528890449075
 20
5.441339698834773
 30
0.0
 11
5.720536758631157
 21
5.441339698834773
 31
0.0
  0
LINE
  5
25D7
330
1E56
100
AcDbEntity
  8
0
 62
     0
370
    -2
100
AcDbLine
 10
4.135828110449056
 20
2.685434238835107
 30
0.0
 11
5.720536758631157
 21
2.685434238835104
 31
0.0
  0
LINE
  5
25D8
330
1E56
100
AcDbEntity
  8
0
 62
     0
370
    -2
100
AcDbLine
 10
5.581036758631157
 20
5.171339698834773
 30
0.0
 11
5.581036758631157
 21
4.29213696883494
 31
0.0
  0
LINE
  5
25D9
330
1E56
100
AcDbEntity
  8
0
 62
     0
370
    -2
100
AcDbLine
 10
5.581036758631157
 20
2.955434238835106
 30
0.0
 11
5.581036758631157
 21
3.834636968834939
 31
0.0
  0
SOLID
  5
25DA
330
1E56
100
AcDbEntity
  8
0
 62
     0
100
AcDbTrace
 10
5.536036758631156
 20
5.171339698834773
 30
0.0
 11
5.626036758631157
 21
5.171339698834773
 31
0.0
 12
5.581036758631157
 22
5.441339698834773
 32
0.0
 13
5.581036758631157
 23
5.441339698834773
 33
0.0
  0
SOLID
  5
25DB
330
1E56
100
AcDbEntity
  8
0
 62
     0
100
AcDbTrace
 10
5.536036758631156
 20
2.955434238835106
 30
0.0
 11
5.626036758631157
 21
2.955434238835106
 31
0.0
 12
5.581036758631157
 22
2.685434238835104
 32
0.0
 13
5.581036758631157
 23
2.685434238835104
 33
0.0
  0
MTEXT
  5
25DC
330
1E56
100
AcDbEntity
  8
0
 62
     0
100
AcDbMText
 10
5.581036758631157
 20
4.063386968834941
 30
0.0
 40
0.1875
 41
0.0
 71
     5
 72
     1
  1
\A1;2.756
 73
     1
 44
1.0
  0
POINT
  5
25DD
330
1E56
100
AcDbEntity
  8
Defpoints
 62
     0
100
AcDbPoint
 10
4.435028890449075
 20
5.441339698834773
 30
0.0
  0
POINT
  5
25DE
330
1E56
100
AcDbEntity
  8
Defpoints
 62
     0
100
AcDbPoint
 10
4.041328110449057
 20
2.685434238835107
 30
0.0
  0
POINT
  5
25DF
330
1E56
100
AcDbEntity
  8
Defpoints
 62
     0
100
AcDbPoint
 10
5.581036758631157
 20
2.685434238835104
 30
0.0
  0
ENDBLK
  5
1E62
330
1E56
100
AcDbEntity
  8
0
100
AcDbBlockEnd
  0
BLOCK
  5
1E7B
330
1E70
100
AcDbEntity
  8
0
100
AcDbBlockBegin
  2
*D22
 70
     1
 10
0.0
 20
0.0
 30
0.0
  3
*D22
  1

  0
LINE
  5
25F4
330
1E70
100
AcDbEntity
  8
0
 62
     0
370
    -2
100
AcDbLine
 10
2.098414761149119
 20
20.25318181201443
 30
0.0
 11
2.098414761149119
 21
21.01149299662552
 31
0.0
  0
LINE
  5
25F5
330
1E70
100
AcDbEntity
  8
0
 62
     0
370
    -2
100
AcDbLine
 10
4.330698183749631
 20
20.25318181201443
 30
0.0
 11
4.330698183749631
 21
21.01149299662552
 31
0.0
  0
LINE
  5
25F6
330
1E70
100
AcDbEntity
  8
0
 62
     0
370
    -2
100
AcDbLine
 10
2.368414761149119
 20
20.87199299662552
 30
0.0
 11
2.798306472449374
 21
20.87199299662552
 31
0.0
  0
LINE
  5
25F7
330
1E70
100
AcDbEntity
  8
0
 62
     0
370
    -2
100
AcDbLine
 10
4.060698183749631
 20
20.87199299662552
 30
0.0
 11
3.630806472449376
 21
20.87199299662552
 31
0.0
  0
SOLID
  5
25F8
330
1E70
100
AcDbEntity
  8
0
 62
     0
100
AcDbTrace
 10
2.368414761149119
 20
20.91699299662552
 30
0.0
 11
2.368414761149119
 21
20.82699299662551
 31
0.0
 12
2.098414761149119
 22
20.87199299662552
 32
0.0
 13
2.098414761149119
 23
20.87199299662552
 33
0.0
  0
SOLID
  5
25F9
330
1E70
100
AcDbEntity
  8
0
 62
     0
100
AcDbTrace
 10
4.060698183749631
 20
20.91699299662552
 30
0.0
 11
4.060698183749631
 21
20.82699299662551
 31
0.0
 12
4.330698183749631
 22
20.87199299662552
 32
0.0
 13
4.330698183749631
 23
20.87199299662552
 33
0.0
  0
MTEXT
  5
25FA
330
1E70
100
AcDbEntity
  8
0
 62
     0
100
AcDbMText
 10
3.214556472449376
 20
20.87199299662552
 30
0.0
 40
0.1875
 41
0.0
 71
     5
 72
     1
  1
\A1;2.232
 73
     1
 44
1.0
  0
POINT
  5
25FB
330
1E70
100
AcDbEntity
  8
Defpoints
 62
     0
100
AcDbPoint
 10
2.098414761149119
 20
20.15868181201442
 30
0.0
  0
POINT
  5
25FC
330
1E70
100
AcDbEntity
  8
Defpoints
 62
     0
100
AcDbPoint
 10
4.330698183749631
 20
20.15868181201442
 30
0.0
  0
POINT
  5
25FD
330
1E70
100
AcDbEntity
  8
Defpoints
 62
     0
100
AcDbPoint
 10
4.330698183749631
 20
20.87199299662552
 30
0.0
  0
ENDBLK
  5
1E7C
330
1E70
100
AcDbEntity
  8
0
100
AcDbBlockEnd
  0
BLOCK
  5
1E8A
330
1E7E
100
AcDbEntity
  8
0
100
AcDbBlockBegin
  2
*D23
 70
     1
 10
0.0
 20
0.0
 30
0.0
  3
*D23
  1

  0
LINE
  5
2630
330
1E7E
100
AcDbEntity
  8
0
 62
     0
370
    -2
100
AcDbLine
 10
4.326772988749741
 20
20.25710700701443
 30
0.0
 11
5.720536758631157
 21
20.25710700701443
 31
0.0
  0
LINE
  5
2631
330
1E7E
100
AcDbEntity
  8
0
 62
     0
370
    -2
100
AcDbLine
 10
4.32677298875008
 20
19.69017788381443
 30
0.0
 11
5.720536758631157
 21
19.69017788381443
 31
0.0
  0
LINE
  5
2632
330
1E7E
100
AcDbEntity
  8
0
 62
     0
370
    -2
100
AcDbLine
 10
5.581036758631157
 20
20.52710700701442
 30
0.0
 11
5.581036758631157
 21
20.79710700701443
 31
0.0
  0
LINE
  5
2633
330
1E7E
100
AcDbEntity
  8
0
 62
     0
370
    -2
100
AcDbLine
 10
5.581036758631157
 20
19.42017788381442
 30
0.0
 11
5.581036758631157
 21
19.15017788381444
 31
0.0
  0
SOLID
  5
2634
330
1E7E
100
AcDbEntity
  8
0
 62
     0
100
AcDbTrace
 10
5.536036758631156
 20
20.52710700701442
 30
0.0
 11
5.626036758631157
 21
20.52710700701442
 31
0.0
 12
5.581036758631157
 22
20.25710700701443
 32
0.0
 13
5.581036758631157
 23
20.25710700701443
 33
0.0
  0
SOLID
  5
2635
330
1E7E
100
AcDbEntity
  8
0
 62
     0
100
AcDbTrace
 10
5.536036758631156
 20
19.42017788381442
 30
0.0
 11
5.626036758631157
 21
19.42017788381442
 31
0.0
 12
5.581036758631157
 22
19.69017788381443
 32
0.0
 13
5.581036758631157
 23
19.69017788381443
 33
0.0
  0
MTEXT
  5
2636
330
1E7E
100
AcDbEntity
  8
0
 62
     0
100
AcDbMText
 10
5.581036758631151
 20
19.97364244541442
 30
0.0
 40
0.1875
 41
0.0
 71
     5
 72
     1
  1
\A1;0.567
 73
     1
 44
1.0
  0
POINT
  5
2637
330
1E7E
100
AcDbEntity
  8
Defpoints
 62
     0
100
AcDbPoint
 10
4.232272988749741
 20
20.25710700701443
 30
0.0
  0
POINT
  5
2638
330
1E7E
100
AcDbEntity
  8
Defpoints
 62
     0
100
AcDbPoint
 10
4.23227298875008
 20
19.69017788381443
 30
0.0
  0
POINT
  5
2639
330
1E7E
100
AcDbEntity
  8
Defpoints
 62
     0
100
AcDbPoint
 10
5.581036758631157
 20
19.69017788381443
 30
0.0
  0
ENDBLK
  5
1E8B
330
1E7E
100
AcDbEntity
  8
0
100
AcDbBlockEnd
  0
BLOCK
  5
1ED6
330
1ECB
100
AcDbEntity
  8
0
100
AcDbBlockBegin
  2
*D24
 70
     1
 10
0.0
 20
0.0
 30
0.0
  3
*D24
  1

  0
LINE
  5
25EA
330
1ECB
100
AcDbEntity
  8
0
 62
     0
370
    -2
100
AcDbLine
 10
1.856288781449393
 20
15.36047320185173
 30
0.0
 11
1.856288781449393
 21
15.72957765299048
 31
0.0
  0
LINE
  5
25EB
330
1ECB
100
AcDbEntity
  8
0
 62
     0
370
    -2
100
AcDbLine
 10
4.454713929449326
 20
15.36047320185173
 30
0.0
 11
4.454713929449326
 21
15.72957765299048
 31
0.0
  0
LINE
  5
25EC
330
1ECB
100
AcDbEntity
  8
0
 62
     0
370
    -2
100
AcDbLine
 10
2.126288781449392
 20
15.59007765299048
 30
0.0
 11
2.73925135544936
 21
15.59007765299048
 31
0.0
  0
LINE
  5
25ED
330
1ECB
100
AcDbEntity
  8
0
 62
     0
370
    -2
100
AcDbLine
 10
4.184713929449326
 20
15.59007765299048
 30
0.0
 11
3.571751355449357
 21
15.59007765299048
 31
0.0
  0
SOLID
  5
25EE
330
1ECB
100
AcDbEntity
  8
0
 62
     0
100
AcDbTrace
 10
2.126288781449392
 20
15.63507765299048
 30
0.0
 11
2.126288781449392
 21
15.54507765299048
 31
0.0
 12
1.856288781449393
 22
15.59007765299048
 32
0.0
 13
1.856288781449393
 23
15.59007765299048
 33
0.0
  0
SOLID
  5
25EF
330
1ECB
100
AcDbEntity
  8
0
 62
     0
100
AcDbTrace
 10
4.184713929449326
 20
15.63507765299048
 30
0.0
 11
4.184713929449326
 21
15.54507765299048
 31
0.0
 12
4.454713929449326
 22
15.59007765299048
 32
0.0
 13
4.454713929449326
 23
15.59007765299048
 33
0.0
  0
MTEXT
  5
25F0
330
1ECB
100
AcDbEntity
  8
0
 62
     0
100
AcDbMText
 10
3.155501355449357
 20
15.59007765299048
 30
0.0
 40
0.1875
 41
0.0
 71
     5
 72
     1
  1
\A1;2.598
 73
     1
 44
1.0
  0
POINT
  5
25F1
330
1ECB
100
AcDbEntity
  8
Defpoints
 62
     0
100
AcDbPoint
 10
1.856288781449393
 20
15.26597320185173
 30
0.0
  0
POINT
  5
25F2
330
1ECB
100
AcDbEntity
  8
Defpoints
 62
     0
100
AcDbPoint
 10
4.454713929449326
 20
15.26597320185173
 30
0.0
  0
POINT
  5
25F3
330
1ECB
100
AcDbEntity
  8
Defpoints
 62
     0
100
AcDbPoint
 10
4.454713929449326
 20
15.59007765299048
 30
0.0
  0
ENDBLK
  5
1ED7
330
1ECB
100
AcDbEntity
  8
0
100
AcDbBlockEnd
  0
BLOCK
  5
1F86
330
1F7A
100
AcDbEntity
  8
0
100
AcDbBlockBegin
  2
*D25
 70
     1
 10
0.0
 20
0.0
 30
0.0
  3
*D25
  1

  0
LINE
  5
264E
330
1F7A
100
AcDbEntity
  8
0
 62
     0
370
    -2
100
AcDbLine
 10
13.07332363650714
 20
19.66217788381455
 30
0.0
 11
13.69585261718396
 21
19.66217788381455
 31
0.0
  0
LINE
  5
264F
330
1F7A
100
AcDbEntity
  8
0
 62
     0
370
    -2
100
AcDbLine
 10
13.07332363650715
 20
20.2851070070143
 30
0.0
 11
13.69585261718396
 21
20.2851070070143
 31
0.0
  0
LINE
  5
2650
330
1F7A
100
AcDbEntity
  8
0
 62
     0
370
    -2
100
AcDbLine
 10
13.55635261718396
 20
19.39217788381455
 30
0.0
 11
13.55635261718396
 21
19.12217788381455
 31
0.0
  0
LINE
  5
2651
330
1F7A
100
AcDbEntity
  8
0
 62
     0
370
    -2
100
AcDbLine
 10
13.55635261718396
 20
20.5551070070143
 30
0.0
 11
13.55635261718396
 21
20.82510700701429
 31
0.0
  0
SOLID
  5
2652
330
1F7A
100
AcDbEntity
  8
0
 62
     0
100
AcDbTrace
 10
13.51135261718396
 20
19.39217788381455
 30
0.0
 11
13.60135261718396
 21
19.39217788381455
 31
0.0
 12
13.55635261718396
 22
19.66217788381455
 32
0.0
 13
13.55635261718396
 23
19.66217788381455
 33
0.0
  0
SOLID
  5
2653
330
1F7A
100
AcDbEntity
  8
0
 62
     0
100
AcDbTrace
 10
13.51135261718396
 20
20.5551070070143
 30
0.0
 11
13.60135261718396
 21
20.5551070070143
 31
0.0
 12
13.55635261718396
 22
20.2851070070143
 32
0.0
 13
13.55635261718396
 23
20.2851070070143
 33
0.0
  0
MTEXT
  5
2654
330
1F7A
100
AcDbEntity
  8
0
 62
     0
100
AcDbMText
 10
13.55635261718396
 20
19.97364244541442
 30
0.0
 40
0.1875
 41
0.0
 71
     5
 72
     1
  1
\A1;0.623
 73
     1
 44
1.0
  0
POINT
  5
2655
330
1F7A
100
AcDbEntity
  8
Defpoints
 62
     0
100
AcDbPoint
 10
12.97882363650714
 20
19.66217788381455
 30
0.0
  0
POINT
  5
2656
330
1F7A
100
AcDbEntity
  8
Defpoints
 62
     0
100
AcDbPoint
 10
12.97882363650715
 20
20.2851070070143
 30
0.0
  0
POINT
  5
2657
330
1F7A
100
AcDbEntity
  8
Defpoints
 62
     0
100
AcDbPoint
 10
13.55635261718396
 20
20.2851070070143
 30
0.0
  0
ENDBLK
  5
1F87
330
1F7A
100
AcDbEntity
  8
0
100
AcDbBlockEnd
  0
BLOCK
  5
1F94
330
1F89
100
AcDbEntity
  8
0
100
AcDbBlockBegin
  2
*D26
 70
     1
 10
0.0
 20
0.0
 30
0.0
  3
*D26
  1

  0
LINE
  5
2644
330
1F89
100
AcDbEntity
  8
0
 62
     0
370
    -2
100
AcDbLine
 10
13.05682363650715
 20
20.30160700701431
 30
0.0
 11
13.05682363650715
 21
20.91083277355257
 31
0.0
  0
LINE
  5
2645
330
1F89
100
AcDbEntity
  8
0
 62
     0
370
    -2
100
AcDbLine
 10
10.76654021390675
 20
20.30160700701431
 30
0.0
 11
10.76654021390675
 21
20.91083277355257
 31
0.0
  0
LINE
  5
2646
330
1F89
100
AcDbEntity
  8
0
 62
     0
370
    -2
100
AcDbLine
 10
12.78682363650715
 20
20.77133277355255
 30
0.0
 11
12.31621317520695
 21
20.77133277355255
 31
0.0
  0
LINE
  5
2647
330
1F89
100
AcDbEntity
  8
0
 62
     0
370
    -2
100
AcDbLine
 10
11.03654021390675
 20
20.77133277355255
 30
0.0
 11
11.50715067520694
 21
20.77133277355255
 31
0.0
  0
SOLID
  5
2648
330
1F89
100
AcDbEntity
  8
0
 62
     0
100
AcDbTrace
 10
12.78682363650715
 20
20.81633277355257
 30
0.0
 11
12.78682363650715
 21
20.72633277355257
 31
0.0
 12
13.05682363650715
 22
20.77133277355255
 32
0.0
 13
13.05682363650715
 23
20.77133277355255
 33
0.0
  0
SOLID
  5
2649
330
1F89
100
AcDbEntity
  8
0
 62
     0
100
AcDbTrace
 10
11.03654021390675
 20
20.81633277355257
 30
0.0
 11
11.03654021390675
 21
20.72633277355257
 31
0.0
 12
10.76654021390675
 22
20.77133277355255
 32
0.0
 13
10.76654021390675
 23
20.77133277355255
 33
0.0
  0
MTEXT
  5
264A
330
1F89
100
AcDbEntity
  8
0
 62
     0
100
AcDbMText
 10
11.91168192520694
 20
20.77133277355255
 30
0.0
 40
0.1875
 41
0.0
 71
     5
 72
     1
  1
\A1;2.290
 73
     1
 44
1.0
  0
POINT
  5
264B
330
1F89
100
AcDbEntity
  8
Defpoints
 62
     0
100
AcDbPoint
 10
13.05682363650715
 20
20.20710700701429
 30
0.0
  0
POINT
  5
264C
330
1F89
100
AcDbEntity
  8
Defpoints
 62
     0
100
AcDbPoint
 10
10.76654021390675
 20
20.2071070070143
 30
0.0
  0
POINT
  5
264D
330
1F89
100
AcDbEntity
  8
Defpoints
 62
     0
100
AcDbPoint
 10
10.76654021390675
 20
20.77133277355255
 30
0.0
  0
ENDBLK
  5
1F95
330
1F89
100
AcDbEntity
  8
0
100
AcDbBlockEnd
  0
ENDSEC
  0
SECTION
  2
ENTITIES
  0
MTEXT
  5
971
330
1E
100
AcDbEntity
  8
0
 62
     1
100
AcDbMText
 10
349.3088390261273
 20
145.6226622346241
 30
0.0
 40
4.0
 41
0.0
 71
     9
 72
     1
  1

  7
Standard
 73
     1
 44
1.0
1001
ACAD
1000
MTEXTBEGIN
1070
    73
1070
     1
1070
    44
1040
1.0
1070
    74
1070
     0
1000
MTEXTEND
  0
MTEXT
  5
972
330
1E
100
AcDbEntity
  8
\M+2BBB2\M+2A755\M+2BD75
 62
     1
100
AcDbMText
 10
-4433.831829685568
 20
4205.877615854832
 30
0.0
 40
3.5
 41
0.0
 71
     1
 72
     1
  1

  7
Standard
 73
     1
 44
1.0
1001
ACAD
1000
MTEXTBEGIN
1070
    73
1070
     1
1070
    44
1040
1.0
1070
    74
1070
     0
1000
MTEXTEND
  0
LINE
  5
BB2
330
1E
100
AcDbEntity
  8
0
100
AcDbLine
 10
8.181432122821856
 20
4.488583811233175
 30
0.0
 11
8.110565982421771
 21
4.488583811233175
 31
0.0
  0
LINE
  5
BB3
330
1E
100
AcDbEntity
  8
0
100
AcDbLine
 10
8.110565982421771
 20
4.485267235505936
 30
0.0
 11
8.110565982421771
 21
4.464001619789988
 31
0.0
  0
LINE
  5
BB4
330
1E
100
AcDbEntity
  8
0
100
AcDbLine
 10
7.945211654821799
 20
1.957911227480956
 30
0.0
 11
7.945211654821799
 21
1.91741728493934
 31
0.0
  0
LINE
  5
BB5
330
1E
100
AcDbEntity
  8
0
100
AcDbLine
 10
7.975608520495792
 20
1.989388103330377
 30
0.0
 11
8.045972642864139
 21
1.991845272628316
 31
0.0
  0
ARC
  5
BB6
330
1E
100
AcDbEntity
  8
0
100
AcDbCircle
 10
8.043636849821691
 20
2.058733633808961
 30
0.0
 40
0.0669291326
100
AcDbArc
 50
271.9999999999903
 51
0.0000000000003435
  0
ARC
  5
BB7
330
1E
100
AcDbEntity
  8
0
100
AcDbCircle
 10
7.976707717221612
 20
1.957911227480956
 30
0.0
 40
0.0314960624
100
AcDbArc
 50
91.99999999997428
 51
180.0
  0
LINE
  5
BB8
330
1E
100
AcDbEntity
  8
0
100
AcDbLine
 10
7.98458173282162
 20
2.356167497698415
 30
0.0
 11
7.988518740621625
 21
2.356167497698415
 31
0.0
  0
LINE
  5
BB9
330
1E
100
AcDbEntity
  8
0
100
AcDbLine
 10
7.945211654821572
 20
2.198687185698225
 30
0.0
 11
8.039699842021686
 21
2.198687185698223
 31
0.0
  0
LINE
  5
BBA
330
1E
100
AcDbEntity
  8
0
100
AcDbLine
 10
8.027888818621672
 20
2.316797419698365
 30
0.0
 11
8.027888818621672
 21
2.198687185698225
 31
0.0
  0
LINE
  5
BBB
330
1E
100
AcDbEntity
  8
0
100
AcDbLine
 10
7.945211654821572
 20
2.198687185698225
 30
0.0
 11
7.945211654821572
 21
2.316797419698365
 31
0.0
  0
ARC
  5
BBC
330
1E
100
AcDbEntity
  8
0
100
AcDbCircle
 10
7.98458173282162
 20
2.316797419698365
 30
0.0
 40
0.039370078
100
AcDbArc
 50
90.00000000000625
 51
180.0000000000025
  0
ARC
  5
BBD
330
1E
100
AcDbEntity
  8
0
100
AcDbCircle
 10
7.988518740621625
 20
2.316797419698365
 30
0.0
 40
0.039370078
100
AcDbArc
 50
0.0000000000130276
 51
90.00000000000813
  0
LINE
  5
BBE
330
1E
100
AcDbEntity
  8
0
100
AcDbLine
 10
7.984581732821393
 20
2.356167497698415
 30
0.0
 11
8.039699842021686
 21
2.356167497698415
 31
0.0
  0
LINE
  5
BBF
330
1E
100
AcDbEntity
  8
0
100
AcDbLine
 10
8.110565982421771
 20
4.485267235505936
 30
0.0
 11
8.110565982421771
 21
4.689991641105726
 31
0.0
  0
LINE
  5
BC0
330
1E
100
AcDbEntity
  8
0
100
AcDbLine
 10
8.138125037021803
 20
4.693308216832965
 30
0.0
 11
8.110565982421771
 21
4.693308216832965
 31
0.0
  0
LINE
  5
BC1
330
1E
100
AcDbEntity
  8
0
100
AcDbLine
 10
8.138125037021803
 20
4.693308216832965
 30
0.0
 11
8.138125037021803
 21
4.736615302633246
 31
0.0
  0
LINE
  5
BC2
330
1E
100
AcDbEntity
  8
0
100
AcDbLine
 10
8.0515108654217
 20
4.76417435723305
 30
0.0
 11
8.110565982421771
 21
4.76417435723305
 31
0.0
  0
LINE
  5
BC3
330
1E
100
AcDbEntity
  8
0
100
AcDbLine
 10
8.110565982421771
 20
4.76417435723305
 30
0.0
 11
8.138125037021803
 21
4.736615302633246
 31
0.0
  0
LINE
  5
BC4
330
1E
100
AcDbEntity
  8
0
100
AcDbLine
 10
8.0515108654217
 20
4.76417435723305
 30
0.0
 11
8.0515108654217
 21
4.370473577233035
 31
0.0
  0
LINE
  5
BC5
330
1E
100
AcDbEntity
  8
0
100
AcDbLine
 10
8.0515108654217
 20
4.370473577233035
 30
0.0
 11
8.110565982421771
 21
4.311418460233189
 31
0.0
  0
LINE
  5
D31
330
1E
100
AcDbEntity
  8
0
100
AcDbLine
 10
8.201117161821652
 20
4.370473577233035
 30
0.0
 11
8.181432122821629
 21
4.370473577233035
 31
0.0
  0
LINE
  5
D32
330
1E
100
AcDbEntity
  8
0
100
AcDbLine
 10
8.201117161821652
 20
3.973456221505776
 30
0.0
 11
8.181432122821629
 21
3.973456221505776
 31
0.0
  0
LINE
  5
D33
330
1E
100
AcDbEntity
  8
0
100
AcDbLine
 10
8.181432122821629
 20
3.973456221505776
 30
0.0
 11
8.181432122821629
 21
4.367157001505795
 31
0.0
  0
LINE
  5
D52
330
1E
100
AcDbEntity
  8
0
100
AcDbLine
 10
8.201117161821652
 20
4.468898772232924
 30
0.0
 11
8.181432122821856
 21
4.468898772232924
 31
0.0
  0
LINE
  5
D53
330
1E
100
AcDbEntity
  8
0
100
AcDbLine
 10
8.181432122821629
 20
4.488583811233175
 30
0.0
 11
8.181432122821856
 21
2.058733633808961
 31
0.0
  0
ARC
  5
D54
330
1E
100
AcDbEntity
  8
0
100
AcDbCircle
 10
8.043636849821691
 20
2.058733633808961
 30
0.0
 40
0.137795273
100
AcDbArc
 50
271.9999999999903
 51
0.0000000000003435
  0
LINE
  5
D55
330
1E
100
AcDbEntity
  8
0
100
AcDbLine
 10
7.944524656867963
 20
1.917393294442254
 30
0.0
 11
8.0484458354974
 21
1.921022301966323
 31
0.0
  0
LINE
  5
D56
330
1E
100
AcDbEntity
  8
0
100
AcDbLine
 10
7.964896693821597
 20
1.91810470164876
 30
0.0
 11
7.964896693821597
 21
1.906281679345262
 31
0.0
  0
MTEXT
  5
13A7
330
1E
100
AcDbEntity
  8
0
 62
     1
100
AcDbMText
 10
3973.994855120119
 20
-3050.116501627055
 30
0.0
 40
4.0
 41
0.0
 71
     9
 72
     1
  1

  7
Standard
 73
     1
 44
1.0
1001
ACAD
1000
MTEXTBEGIN
1070
    73
1070
     1
1070
    44
1040
1.0
1070
    74
1070
     0
1000
MTEXTEND
  0
MTEXT
  5
13A8
330
1E
100
AcDbEntity
  8
\M+2BBB2\M+2A755\M+2BD75
 62
     1
100
AcDbMText
 10
-809.1458135915763
 20
1010.138451993154
 30
0.0
 40
3.5
 41
0.0
 71
     1
 72
     1
  1

  7
Standard
 73
     1
 44
1.0
1001
ACAD
1000
MTEXTBEGIN
1070
    73
1070
     1
1070
    44
1040
1.0
1070
    74
1070
     0
1000
MTEXTEND
  0
ARC
  5
158C
330
1E
100
AcDbEntity
  8
0
100
AcDbCircle
 10
4.517445645430825
 20
15.32654766503608
 30
0.0
 40
0.40433070106
100
AcDbArc
 50
343.502114439638
 51
25.08971119252027
  0
ARC
  5
158D
330
1E
100
AcDbEntity
  8
0
100
AcDbCircle
 10
4.132847348057337
 20
12.62115344482372
 30
0.0
 40
0.40433070106
100
AcDbArc
 50
318.3624100585586
 51
1.762141562483069
  0
ARC
  5
158E
330
1E
100
AcDbEntity
  8
0
100
AcDbCircle
 10
1.793557065467439
 20
15.32654766503608
 30
0.0
 40
0.40433070106
100
AcDbArc
 50
154.9102888074795
 51
196.497885560362
  0
ARC
  5
158F
330
1E
100
AcDbEntity
  8
0
100
AcDbCircle
 10
2.178155362840925
 20
12.62115344482372
 30
0.0
 40
0.40433070106
100
AcDbArc
 50
178.2378584375169
 51
221.6375899414413
  0
LINE
  5
1590
330
1E
100
AcDbEntity
  8
0
100
AcDbLine
 10
4.540245189998358
 20
13.10258542243791
 30
0.0
 11
4.53890685681358
 21
13.10258542243791
 31
0.0
  0
LINE
  5
1591
330
1E
100
AcDbEntity
  8
0
100
AcDbLine
 10
4.564884857945571
 20
13.40179801523781
 30
0.0
 11
4.563015488991593
 21
13.40179801523781
 31
0.0
  0
LINE
  5
1592
330
1E
100
AcDbEntity
  8
0
100
AcDbLine
 10
4.597627771890302
 20
13.70101060803772
 30
0.0
 11
4.595223290619967
 21
13.70101060803772
 31
0.0
  0
LINE
  5
1593
330
1E
100
AcDbEntity
  8
0
100
AcDbLine
 10
4.435441885535283
 20
12.35061693263769
 30
0.0
 11
4.43502889044953
 21
12.35061693263769
 31
0.0
  0
LINE
  5
1594
330
1E
100
AcDbEntity
  8
0
100
AcDbLine
 10
4.437800839142481
 20
12.50416023683764
 30
0.0
 11
4.436048178585905
 21
12.50416023683764
 31
0.0
  0
LINE
  5
1595
330
1E
100
AcDbEntity
  8
0
100
AcDbLine
 10
4.638545780661615
 20
14.00022320083762
 30
0.0
 11
4.635600881990511
 21
14.00022320083762
 31
0.0
  0
LINE
  5
1596
330
1E
100
AcDbEntity
  8
0
100
AcDbLine
 10
4.687729871953478
 20
14.29943579363798
 30
0.0
 11
4.684237962433826
 21
14.29943579363798
 31
0.0
  0
LINE
  5
1597
330
1E
100
AcDbEntity
  8
0
100
AcDbLine
 10
4.745291211735318
 20
14.59864838643788
 30
0.0
 11
4.741244333386703
 21
14.59864838643788
 31
0.0
  0
LINE
  5
1598
330
1E
100
AcDbEntity
  8
0
100
AcDbLine
 10
4.811362448571117
 20
14.89786097923779
 30
0.0
 11
4.806751184244831
 21
14.89786097923779
 31
0.0
  0
LINE
  5
1599
330
1E
100
AcDbEntity
  8
0
100
AcDbLine
 10
4.886099319900266
 20
15.19707357203769
 30
0.0
 11
4.880912677442438
 21
15.19707357203769
 31
0.0
  0
ARC
  5
159A
330
1E
100
AcDbEntity
  8
0
100
AcDbCircle
 10
15.7169320180194
 20
12.35250938429343
 30
0.0
 40
11.20316297156963
100
AcDbArc
 50
165.2911563659302
 51
166.08080077446
  0
ARC
  5
159B
330
1E
100
AcDbEntity
  8
0
100
AcDbCircle
 10
15.7169320180194
 20
12.35250938429343
 30
0.0
 40
11.20316297156963
100
AcDbArc
 50
166.867757046721
 51
167.6521994587778
  0
ARC
  5
159C
330
1E
100
AcDbEntity
  8
0
100
AcDbCircle
 10
15.7169320180194
 20
12.35250938429343
 30
0.0
 40
11.20316297156963
100
AcDbArc
 50
168.4342976431049
 51
169.2142169714181
  0
ARC
  5
159D
330
1E
100
AcDbEntity
  8
0
100
AcDbCircle
 10
15.7169320180194
 20
12.35250938429343
 30
0.0
 40
11.20316297156963
100
AcDbArc
 50
169.9921189149264
 51
170.7681613840449
  0
ARC
  5
159E
330
1E
100
AcDbEntity
  8
0
100
AcDbCircle
 10
15.7169320180194
 20
12.35250938429343
 30
0.0
 40
11.20316297156963
100
AcDbArc
 50
171.5424990500076
 51
172.315283649929
  0
ARC
  5
159F
330
1E
100
AcDbEntity
  8
0
100
AcDbCircle
 10
15.7169320180194
 20
12.35250938429343
 30
0.0
 40
11.20316297156963
100
AcDbArc
 50
173.0866642776025
 51
173.8567876612879
  0
ARC
  5
15A0
330
1E
100
AcDbEntity
  8
0
100
AcDbCircle
 10
15.7169320180194
 20
12.35250938429343
 30
0.0
 40
11.20316297156963
100
AcDbArc
 50
174.6257984303196
 51
175.3938393715235
  0
ARC
  5
15A1
330
1E
100
AcDbEntity
  8
0
100
AcDbCircle
 10
15.7169320180194
 20
12.35250938429343
 30
0.0
 40
11.20316297156963
100
AcDbArc
 50
176.1610516772572
 51
176.9275751860765
  0
ARC
  5
15A2
330
1E
100
AcDbEntity
  8
0
100
AcDbCircle
 10
15.7169320180194
 20
12.35250938429343
 30
0.0
 40
11.20316297156963
100
AcDbArc
 50
177.6935486169728
 51
178.4591097987698
  0
ARC
  5
15A3
330
1E
100
AcDbEntity
  8
0
100
AcDbCircle
 10
4.886099319900266
 20
15.21675861103792
 30
0.0
 40
0.019685039
100
AcDbArc
 50
270.0
 51
345.1870462402569
  0
ARC
  5
15A4
330
1E
100
AcDbEntity
  8
0
100
AcDbCircle
 10
4.837879865692002
 20
15.02778223663772
 30
0.0
 40
0.019685039
100
AcDbArc
 50
346.1844974288729
 51
76.13416031450518
  0
ARC
  5
15A5
330
1E
100
AcDbEntity
  8
0
100
AcDbCircle
 10
4.811362448571117
 20
14.91754601823803
 30
0.0
 40
0.019685039
100
AcDbArc
 50
269.9999999998957
 51
346.7643575003013
  0
ARC
  5
15A6
330
1E
100
AcDbEntity
  8
0
100
AcDbCircle
 10
15.7169320180194
 20
12.35250938429343
 30
0.0
 40
11.18347793256961
100
AcDbArc
 50
166.1844974288474
 51
166.7643575003014
  0
ARC
  5
15A7
330
1E
100
AcDbEntity
  8
0
100
AcDbCircle
 10
4.768635428569496
 20
14.7285696438378
 30
0.0
 40
0.019685039
100
AcDbArc
 50
347.7552374422723
 51
77.70490032782065
  0
ARC
  5
15A8
330
1E
100
AcDbEntity
  8
0
100
AcDbCircle
 10
4.745291211735318
 20
14.61833342543767
 30
0.0
 40
0.019685039
100
AcDbArc
 50
270.0
 51
348.3315179948107
  0
ARC
  5
15A9
330
1E
100
AcDbEntity
  8
0
100
AcDbCircle
 10
15.7169320180194
 20
12.35250938429343
 30
0.0
 40
11.18347793256961
100
AcDbArc
 50
167.7552374422158
 51
168.3315179948054
  0
ARC
  5
15AA
330
1E
100
AcDbEntity
  8
0
100
AcDbCircle
 10
4.707955483541581
 20
14.4293570510379
 30
0.0
 40
0.019685039
100
AcDbArc
 50
349.3166843120168
 51
79.26634719766451
  0
ARC
  5
15AB
330
1E
100
AcDbEntity
  8
0
100
AcDbCircle
 10
4.687729871953478
 20
14.31912083263777
 30
0.0
 40
0.019685039
100
AcDbArc
 50
270.0000000000521
 51
349.8898730024116
  0
ARC
  5
15AC
330
1E
100
AcDbEntity
  8
0
100
AcDbCircle
 10
15.7169320180194
 20
12.35250938429343
 30
0.0
 40
11.18347793256961
100
AcDbArc
 50
169.3166843120424
 51
169.8898730023555
  0
ARC
  5
15AD
330
1E
100
AcDbEntity
  8
0
100
AcDbCircle
 10
4.655699079895612
 20
14.130144458238
 30
0.0
 40
0.019685039
100
AcDbArc
 50
350.8701420212687
 51
80.8198049068717
  0
ARC
  5
15AE
330
1E
100
AcDbEntity
  8
0
100
AcDbCircle
 10
4.638545780661615
 20
14.01990823983785
 30
0.0
 40
0.019685039
100
AcDbArc
 50
270.0
 51
351.4407044883715
  0
ARC
  5
15AF
330
1E
100
AcDbEntity
  8
0
100
AcDbCircle
 10
15.7169320180194
 20
12.35250938429343
 30
0.0
 40
11.18347793256961
100
AcDbArc
 50
170.8701420212944
 51
171.4407044884229
  0
ARC
  5
15B0
330
1E
100
AcDbEntity
  8
0
100
AcDbCircle
 10
4.611747303896436
 20
13.83093186543765
 30
0.0
 40
0.019685039
100
AcDbArc
 50
352.4168581293613
 51
82.36652101498767
  0
ARC
  5
15B1
330
1E
100
AcDbEntity
  8
0
100
AcDbCircle
 10
4.597627771890302
 20
13.72069564703797
 30
0.0
 40
0.019685039
100
AcDbArc
 50
269.9999999999478
 51
352.9852417963958
  0
ARC
  5
15B2
330
1E
100
AcDbEntity
  8
0
100
AcDbCircle
 10
15.7169320180194
 20
12.35250938429343
 30
0.0
 40
11.18347793256961
100
AcDbArc
 50
172.4168581293613
 51
172.9852417964217
  0
ARC
  5
15B3
330
1E
100
AcDbEntity
  8
0
100
AcDbCircle
 10
4.576001868037335
 20
13.53171927263773
 30
0.0
 40
0.019685039
100
AcDbArc
 50
353.9580337612645
 51
83.9076966468353
  0
ARC
  5
15B4
330
1E
100
AcDbEntity
  8
0
100
AcDbCircle
 10
4.564884857945571
 20
13.42148305423759
 30
0.0
 40
0.019685039
100
AcDbArc
 50
269.9999999999478
 51
354.5246712719476
  0
ARC
  5
15B5
330
1E
100
AcDbEntity
  8
0
100
AcDbCircle
 10
15.7169320180194
 20
12.35250938429343
 30
0.0
 40
11.18347793256961
100
AcDbArc
 50
173.9580337612385
 51
174.5246712719476
  0
ARC
  5
15B6
330
1E
100
AcDbEntity
  8
0
100
AcDbCircle
 10
4.548383977768708
 20
13.23250667983784
 30
0.0
 40
0.019685039
100
AcDbArc
 50
355.4948326754115
 51
85.4444955610028
  0
ARC
  5
15B7
330
1E
100
AcDbEntity
  8
0
100
AcDbCircle
 10
4.540245189998358
 20
13.12227046143769
 30
0.0
 40
0.019685039
100
AcDbArc
 50
269.9999999999478
 51
356.0601450439841
  0
ARC
  5
15B8
330
1E
100
AcDbEntity
  8
0
100
AcDbCircle
 10
15.7169320180194
 20
12.35250938429343
 30
0.0
 40
11.18347793256961
100
AcDbArc
 50
175.4948326753596
 51
176.0601450439581
  0
ARC
  5
15B9
330
1E
100
AcDbEntity
  8
0
100
AcDbCircle
 10
4.528833444240035
 20
12.93329408703793
 30
0.0
 40
0.019685039
100
AcDbArc
 50
357.0283896131513
 51
86.97805249879712
  0
ARC
  5
15BA
330
1E
100
AcDbEntity
  8
0
100
AcDbCircle
 10
4.523655255094808
 20
12.8230578686378
 30
0.0
 40
0.019685039
100
AcDbArc
 50
267.6431262692239
 51
357.5927891548535
  0
ARC
  5
15BB
330
1E
100
AcDbEntity
  8
0
100
AcDbCircle
 10
15.7169320180194
 20
12.35250938429343
 30
0.0
 40
11.18347793256961
100
AcDbArc
 50
177.0283896132033
 51
177.5927891548014
  0
ARC
  5
15BC
330
1E
100
AcDbEntity
  8
0
100
AcDbCircle
 10
4.517308019221445
 20
12.63408149423757
 30
0.0
 40
0.019685039
100
AcDbArc
 50
358.5598181043463
 51
88.50948098998822
  0
LINE
  5
15BD
330
1E
100
AcDbEntity
  8
0
100
AcDbLine
 10
1.770757520900813
 20
13.10258542243791
 30
0.0
 11
1.77209585408559
 21
13.10258542243791
 31
0.0
  0
LINE
  5
15BE
330
1E
100
AcDbEntity
  8
0
100
AcDbLine
 10
1.7461178529536
 20
13.40179801523781
 30
0.0
 11
1.747987221907578
 21
13.40179801523781
 31
0.0
  0
LINE
  5
15BF
330
1E
100
AcDbEntity
  8
0
100
AcDbLine
 10
1.71337493900887
 20
13.70101060803772
 30
0.0
 11
1.715779420279204
 21
13.70101060803772
 31
0.0
  0
LINE
  5
15C0
330
1E
100
AcDbEntity
  8
0
100
AcDbLine
 10
1.87556082536389
 20
12.35061693263769
 30
0.0
 11
1.875973820449644
 21
12.35061693263769
 31
0.0
  0
LINE
  5
15C1
330
1E
100
AcDbEntity
  8
0
100
AcDbLine
 10
1.873201871756689
 20
12.50416023683764
 30
0.0
 11
1.874954532313267
 21
12.50416023683764
 31
0.0
  0
LINE
  5
15C2
330
1E
100
AcDbEntity
  8
0
100
AcDbLine
 10
1.672456930237558
 20
14.00022320083762
 30
0.0
 11
1.675401828908659
 21
14.00022320083762
 31
0.0
  0
LINE
  5
15C3
330
1E
100
AcDbEntity
  8
0
100
AcDbLine
 10
1.623272838945695
 20
14.29943579363798
 30
0.0
 11
1.626764748465348
 21
14.29943579363798
 31
0.0
  0
LINE
  5
15C4
330
1E
100
AcDbEntity
  8
0
100
AcDbLine
 10
1.565711499163851
 20
14.59864838643788
 30
0.0
 11
1.569758377512471
 21
14.59864838643788
 31
0.0
  0
LINE
  5
15C5
330
1E
100
AcDbEntity
  8
0
100
AcDbLine
 10
1.499640262328055
 20
14.89786097923779
 30
0.0
 11
1.504251526654343
 21
14.89786097923779
 31
0.0
  0
LINE
  5
15C6
330
1E
100
AcDbEntity
  8
0
100
AcDbLine
 10
1.424903390998905
 20
15.19707357203769
 30
0.0
 11
1.430090033456735
 21
15.19707357203769
 31
0.0
  0
LINE
  5
15C7
330
1E
100
AcDbEntity
  8
0
100
AcDbLine
 10
4.435458237485589
 20
12.35250938429343
 30
0.0
 11
4.43502889044862
 21
12.35250938429343
 31
0.0
  0
ARC
  5
15C8
330
1E
100
AcDbEntity
  8
0
100
AcDbCircle
 10
-9.405929307120231
 20
12.35250938429343
 30
0.0
 40
11.20316297156963
100
AcDbArc
 50
13.91919922553972
 51
14.70884363406957
  0
ARC
  5
15C9
330
1E
100
AcDbEntity
  8
0
100
AcDbCircle
 10
-9.405929307120231
 20
12.35250938429343
 30
0.0
 40
11.20316297156963
100
AcDbArc
 50
12.34780054122214
 51
13.13224295327896
  0
ARC
  5
15CA
330
1E
100
AcDbEntity
  8
0
100
AcDbCircle
 10
-9.405929307120231
 20
12.35250938429343
 30
0.0
 40
11.20316297156963
100
AcDbArc
 50
10.78578302858167
 51
11.56570235689483
  0
ARC
  5
15CB
330
1E
100
AcDbEntity
  8
0
100
AcDbCircle
 10
-9.405929307120231
 20
12.35250938429343
 30
0.0
 40
11.20316297156963
100
AcDbArc
 50
9.231838615955098
 51
10.00788108507356
  0
ARC
  5
15CC
330
1E
100
AcDbEntity
  8
0
100
AcDbCircle
 10
-9.405929307120231
 20
12.35250938429343
 30
0.0
 40
11.20316297156963
100
AcDbArc
 50
7.684716350070988
 51
8.457500949992416
  0
ARC
  5
15CD
330
1E
100
AcDbEntity
  8
0
100
AcDbCircle
 10
-9.405929307120231
 20
12.35250938429343
 30
0.0
 40
11.20316297156963
100
AcDbArc
 50
6.143212338712057
 51
6.91333572239723
  0
ARC
  5
15CE
330
1E
100
AcDbEntity
  8
0
100
AcDbCircle
 10
-9.405929307120231
 20
12.35250938429343
 30
0.0
 40
11.20316297156963
100
AcDbArc
 50
4.606160628476433
 51
5.374201569680256
  0
ARC
  5
15CF
330
1E
100
AcDbEntity
  8
0
100
AcDbCircle
 10
-9.405929307120231
 20
12.35250938429343
 30
0.0
 40
11.20316297156963
100
AcDbArc
 50
3.072424813923323
 51
3.838948322742707
  0
ARC
  5
15D0
330
1E
100
AcDbEntity
  8
0
100
AcDbCircle
 10
-9.405929307120231
 20
12.35250938429343
 30
0.0
 40
11.20316297156963
100
AcDbArc
 50
1.540890201230125
 51
2.30645138302717
  0
ARC
  5
15D1
330
1E
100
AcDbEntity
  8
0
100
AcDbCircle
 10
1.424903390998905
 20
15.21675861103792
 30
0.0
 40
0.019685039
100
AcDbArc
 50
194.8129537597431
 51
270.0
  0
ARC
  5
15D2
330
1E
100
AcDbEntity
  8
0
100
AcDbCircle
 10
1.473122845207169
 20
15.02778223663772
 30
0.0
 40
0.019685039
100
AcDbArc
 50
103.8658396854945
 51
193.8155025711268
  0
ARC
  5
15D3
330
1E
100
AcDbEntity
  8
0
100
AcDbCircle
 10
1.499640262328055
 20
14.91754601823803
 30
0.0
 40
0.019685039
100
AcDbArc
 50
193.2356424996983
 51
270.0000000001042
  0
ARC
  5
15D4
330
1E
100
AcDbEntity
  8
0
100
AcDbCircle
 10
-9.405929307120231
 20
12.35250938429343
 30
0.0
 40
11.18347793256961
100
AcDbArc
 50
13.2356424996986
 51
13.81550257115232
  0
ARC
  5
15D5
330
1E
100
AcDbEntity
  8
0
100
AcDbCircle
 10
1.542367282329678
 20
14.7285696438378
 30
0.0
 40
0.019685039
100
AcDbArc
 50
102.2950996721793
 51
192.2447625577276
  0
ARC
  5
15D6
330
1E
100
AcDbEntity
  8
0
100
AcDbCircle
 10
1.565711499163851
 20
14.61833342543767
 30
0.0
 40
0.019685039
100
AcDbArc
 50
191.6684820051892
 51
270.0
  0
ARC
  5
15D7
330
1E
100
AcDbEntity
  8
0
100
AcDbCircle
 10
-9.405929307120231
 20
12.35250938429343
 30
0.0
 40
11.18347793256961
100
AcDbArc
 50
11.66848200519454
 51
12.24476255778405
  0
ARC
  5
15D8
330
1E
100
AcDbEntity
  8
0
100
AcDbCircle
 10
1.60304722735759
 20
14.4293570510379
 30
0.0
 40
0.019685039
100
AcDbArc
 50
100.7336528023354
 51
190.683315687983
  0
ARC
  5
15D9
330
1E
100
AcDbEntity
  8
0
100
AcDbCircle
 10
1.623272838945695
 20
14.31912083263777
 30
0.0
 40
0.019685039
100
AcDbArc
 50
190.1101269975883
 51
269.9999999999478
  0
ARC
  5
15DA
330
1E
100
AcDbEntity
  8
0
100
AcDbCircle
 10
-9.405929307120231
 20
12.35250938429343
 30
0.0
 40
11.18347793256961
100
AcDbArc
 50
10.11012699764425
 51
10.6833156879575
  0
ARC
  5
15DB
330
1E
100
AcDbEntity
  8
0
100
AcDbCircle
 10
1.65530363100356
 20
14.130144458238
 30
0.0
 40
0.019685039
100
AcDbArc
 50
99.18019509312832
 51
189.1298579787312
  0
ARC
  5
15DC
330
1E
100
AcDbEntity
  8
0
100
AcDbCircle
 10
1.672456930237558
 20
14.01990823983785
 30
0.0
 40
0.019685039
100
AcDbArc
 50
188.5592955116285
 51
270.0
  0
ARC
  5
15DD
330
1E
100
AcDbEntity
  8
0
100
AcDbCircle
 10
-9.405929307120231
 20
12.35250938429343
 30
0.0
 40
11.18347793256961
100
AcDbArc
 50
8.55929551157696
 51
9.129857978705567
  0
ARC
  5
15DE
330
1E
100
AcDbEntity
  8
0
100
AcDbCircle
 10
1.69925540700319
 20
13.83093186543765
 30
0.0
 40
0.019685039
100
AcDbArc
 50
97.63347898501232
 51
187.5831418706385
  0
ARC
  5
15DF
330
1E
100
AcDbEntity
  8
0
100
AcDbCircle
 10
1.71337493900887
 20
13.72069564703797
 30
0.0
 40
0.019685039
100
AcDbArc
 50
187.014758203604
 51
270.0000000000521
  0
ARC
  5
15E0
330
1E
100
AcDbEntity
  8
0
100
AcDbCircle
 10
-9.405929307120231
 20
12.35250938429343
 30
0.0
 40
11.18347793256961
100
AcDbArc
 50
7.014758203578216
 51
7.583141870638656
  0
ARC
  5
15E1
330
1E
100
AcDbEntity
  8
0
100
AcDbCircle
 10
1.735000842861835
 20
13.53171927263773
 30
0.0
 40
0.019685039
100
AcDbArc
 50
96.09230335316469
 51
186.0419662387355
  0
ARC
  5
15E2
330
1E
100
AcDbEntity
  8
0
100
AcDbCircle
 10
1.7461178529536
 20
13.42148305423759
 30
0.0
 40
0.019685039
100
AcDbArc
 50
185.4753287280523
 51
270.0000000000521
  0
ARC
  5
15E3
330
1E
100
AcDbEntity
  8
0
100
AcDbCircle
 10
-9.405929307120231
 20
12.35250938429343
 30
0.0
 40
11.18347793256961
100
AcDbArc
 50
5.475328728052356
 51
6.041966238761411
  0
ARC
  5
15E4
330
1E
100
AcDbEntity
  8
0
100
AcDbCircle
 10
1.762618733130465
 20
13.23250667983784
 30
0.0
 40
0.019685039
100
AcDbArc
 50
94.55550443899722
 51
184.5051673245883
  0
ARC
  5
15E5
330
1E
100
AcDbEntity
  8
0
100
AcDbCircle
 10
1.770757520900813
 20
13.12227046143769
 30
0.0
 40
0.019685039
100
AcDbArc
 50
183.9398549560158
 51
270.0000000000521
  0
ARC
  5
15E6
330
1E
100
AcDbEntity
  8
0
100
AcDbCircle
 10
-9.405929307120231
 20
12.35250938429343
 30
0.0
 40
11.18347793256961
100
AcDbArc
 50
3.939854956041838
 51
4.505167324640386
  0
ARC
  5
15E7
330
1E
100
AcDbEntity
  8
0
100
AcDbCircle
 10
1.782169266659138
 20
12.93329408703793
 30
0.0
 40
0.019685039
100
AcDbArc
 50
93.02194750120287
 51
182.9716103868484
  0
ARC
  5
15E8
330
1E
100
AcDbEntity
  8
0
100
AcDbCircle
 10
1.787347455804364
 20
12.8230578686378
 30
0.0
 40
0.019685039
100
AcDbArc
 50
182.4072108451465
 51
272.3568737307759
  0
ARC
  5
15E9
330
1E
100
AcDbEntity
  8
0
100
AcDbCircle
 10
-9.405929307120231
 20
12.35250938429343
 30
0.0
 40
11.18347793256961
100
AcDbArc
 50
2.407210845198556
 51
2.971610386796553
  0
ARC
  5
15EA
330
1E
100
AcDbEntity
  8
0
100
AcDbCircle
 10
1.793694691677728
 20
12.63408149423757
 30
0.0
 40
0.019685039
100
AcDbArc
 50
91.49051901001179
 51
181.4401818956536
  0
LINE
  5
15EB
330
1E
100
AcDbEntity
  8
0
100
AcDbLine
 10
1.305107689449639
 20
10.20465663774455
 30
0.0
 11
5.005895021449532
 21
10.20465663774455
 31
0.0
  0
LINE
  5
15EC
330
1E
100
AcDbEntity
  8
0
100
AcDbLine
 10
4.942040277405112
 20
10.20465663774455
 30
0.0
 11
4.514194647791327
 21
10.20465663774455
 31
0.0
  0
ARC
  5
15ED
330
1E
100
AcDbEntity
  8
0
100
AcDbCircle
 10
4.41389373741299
 20
10.20465663774501
 30
0.0
 40
0.4720921639652044
100
AcDbArc
 50
0.0
 51
35.71574051881943
  0
ARC
  5
15EE
330
1E
100
AcDbEntity
  8
0
100
AcDbCircle
 10
4.501351081269831
 20
10.20465663774546
 30
0.0
 40
0.40431985910843
100
AcDbArc
 50
359.9999999999738
 51
42.96998673937195
  0
ARC
  5
15EF
330
1E
100
AcDbEntity
  8
0
100
AcDbCircle
 10
4.374894407315196
 20
10.20465663774501
 30
0.0
 40
0.4720921639652044
100
AcDbArc
 50
0.0
 51
35.71574051881943
  0
ARC
  5
15F0
330
1E
100
AcDbEntity
  8
0
100
AcDbCircle
 10
4.462351751172035
 20
10.20465663774501
 30
0.0
 40
0.40431985910843
100
AcDbArc
 50
359.9999999999738
 51
42.96998673937195
  0
ARC
  5
15F1
330
1E
100
AcDbEntity
  8
0
100
AcDbCircle
 10
4.422981673171988
 20
10.20465663774546
 30
0.0
 40
0.40431985910843
100
AcDbArc
 50
359.9999999999738
 51
42.96998673937195
  0
ARC
  5
15F2
330
1E
100
AcDbEntity
  8
0
100
AcDbCircle
 10
4.31583929031535
 20
10.20465663774501
 30
0.0
 40
0.4720921639652044
100
AcDbArc
 50
0.0
 51
35.71574051881943
  0
ARC
  5
15F3
330
1E
100
AcDbEntity
  8
0
100
AcDbCircle
 10
4.403296634172193
 20
10.20465663774546
 30
0.0
 40
0.40431985910843
100
AcDbArc
 50
359.9999999999738
 51
42.96998673937195
  0
ARC
  5
15F4
330
1E
100
AcDbEntity
  8
0
100
AcDbCircle
 10
4.276839960217555
 20
10.20465663774501
 30
0.0
 40
0.4720921639652044
100
AcDbArc
 50
0.0
 51
35.71574051881943
  0
ARC
  5
15F5
330
1E
100
AcDbEntity
  8
0
100
AcDbCircle
 10
4.364297304073943
 20
10.20465663774501
 30
0.0
 40
0.40431985910843
100
AcDbArc
 50
359.9999999999738
 51
42.96998673937195
  0
ARC
  5
15F6
330
1E
100
AcDbEntity
  8
0
100
AcDbCircle
 10
4.237469882217508
 20
10.20465663774501
 30
0.0
 40
0.4720921639652044
100
AcDbArc
 50
0.0
 51
35.71574051881943
  0
ARC
  5
15F7
330
1E
100
AcDbEntity
  8
0
100
AcDbCircle
 10
4.32492722607435
 20
10.20465663774546
 30
0.0
 40
0.40431985910843
100
AcDbArc
 50
359.9999999999738
 51
42.96998673937195
  0
ARC
  5
15F8
330
1E
100
AcDbEntity
  8
0
100
AcDbCircle
 10
4.198470552119713
 20
10.20465663774501
 30
0.0
 40
0.4720921639652044
100
AcDbArc
 50
0.0
 51
35.71574051881943
  0
ARC
  5
15F9
330
1E
100
AcDbEntity
  8
0
100
AcDbCircle
 10
4.285927895976101
 20
10.20465663774501
 30
0.0
 40
0.40431985910843
100
AcDbArc
 50
359.9999999999738
 51
42.96998673937195
  0
ARC
  5
15FA
330
1E
100
AcDbEntity
  8
0
100
AcDbCircle
 10
4.159471222021466
 20
10.20465663774501
 30
0.0
 40
0.4720921639652044
100
AcDbArc
 50
0.0
 51
35.71574051881943
  0
ARC
  5
15FB
330
1E
100
AcDbEntity
  8
0
100
AcDbCircle
 10
4.246928565878306
 20
10.20465663774501
 30
0.0
 40
0.40431985910843
100
AcDbArc
 50
359.9999999999738
 51
42.96998673937195
  0
ARC
  5
15FC
330
1E
100
AcDbEntity
  8
0
100
AcDbCircle
 10
4.120471891923671
 20
10.20465663774455
 30
0.0
 40
0.4720921639652044
100
AcDbArc
 50
0.0
 51
35.71574051881943
  0
ARC
  5
15FD
330
1E
100
AcDbEntity
  8
0
100
AcDbCircle
 10
4.207929235780511
 20
10.20465663774455
 30
0.0
 40
0.40431985910843
100
AcDbArc
 50
359.9999999999738
 51
42.96998673937195
  0
ARC
  5
15FE
330
1E
100
AcDbEntity
  8
0
100
AcDbCircle
 10
4.081101813923623
 20
10.20465663774501
 30
0.0
 40
0.4720921639652044
100
AcDbArc
 50
0.0
 51
35.71574051881943
  0
ARC
  5
15FF
330
1E
100
AcDbEntity
  8
0
100
AcDbCircle
 10
4.168559157780463
 20
10.20465663774501
 30
0.0
 40
0.40431985910843
100
AcDbArc
 50
359.9999999999738
 51
42.96998673937195
  0
ARC
  5
1600
330
1E
100
AcDbEntity
  8
0
100
AcDbCircle
 10
4.450263074439816
 20
10.20465663774455
 30
0.0
 40
0.4720921639652044
100
AcDbArc
 50
0.0
 51
35.71574051881943
  0
ARC
  5
1601
330
1E
100
AcDbEntity
  8
0
100
AcDbCircle
 10
4.537720418296657
 20
10.20465663774455
 30
0.0
 40
0.40431985910843
100
AcDbArc
 50
359.9999999999738
 51
42.96998673937195
  0
LINE
  5
1602
330
1E
100
AcDbEntity
  8
0
100
AcDbLine
 10
4.425405056518457
 20
10.48024718374443
 30
0.0
 11
4.8335656471329
 21
10.48024718374443
 31
0.0
  0
ARC
  5
1603
330
1E
100
AcDbEntity
  8
0
100
AcDbCircle
 10
4.837320050873813
 20
10.51961726174446
 30
0.0
 40
0.157480312
100
AcDbArc
 50
2.000000000003953
 51
90.0
  0
LINE
  5
1604
330
1E
100
AcDbEntity
  8
0
100
AcDbLine
 10
5.005895021449532
 20
10.20465663774455
 30
0.0
 11
4.994704430122283
 21
10.52511324537378
 31
0.0
  0
LINE
  5
1605
330
1E
100
AcDbEntity
  8
0
100
AcDbLine
 10
4.304473162261047
 20
10.67709757374466
 30
0.0
 11
4.837320050873813
 21
10.67709757374466
 31
0.0
  0
ARC
  5
1606
330
1E
100
AcDbEntity
  8
0
100
AcDbCircle
 10
4.042102483825828
 20
10.20465663774455
 30
0.0
 40
0.4720921639652044
100
AcDbArc
 50
0.0
 51
35.71574051881943
  0
ARC
  5
1607
330
1E
100
AcDbEntity
  8
0
100
AcDbCircle
 10
4.129559827682669
 20
10.20465663774455
 30
0.0
 40
0.40431985910843
100
AcDbArc
 50
359.9999999999738
 51
42.96998673937195
  0
LINE
  5
1608
330
1E
100
AcDbEntity
  8
0
100
AcDbLine
 10
4.435028890449075
 20
10.20465663774455
 30
0.0
 11
4.422511446697853
 21
10.5631093274666
 31
0.0
  0
ARC
  5
1609
330
1E
100
AcDbEntity
  8
0
100
AcDbCircle
 10
4.304473162261047
 20
10.5589873397445
 30
0.0
 40
0.118110234
100
AcDbArc
 50
2.000000000003953
 51
90.0
  0
LINE
  5
160A
330
1E
100
AcDbEntity
  8
0
100
AcDbLine
 10
4.304473162261047
 20
10.67709757374466
 30
0.0
 11
3.155501355449587
 21
10.67709757374466
 31
0.0
  0
ARC
  5
160B
330
1E
100
AcDbEntity
  8
0
100
AcDbCircle
 10
1.897108973486183
 20
10.20465663774501
 30
0.0
 40
0.4720921639652044
100
AcDbArc
 50
144.2842594811805
 51
180.0
  0
ARC
  5
160C
330
1E
100
AcDbEntity
  8
0
100
AcDbCircle
 10
1.809651629629343
 20
10.20465663774546
 30
0.0
 40
0.40431985910843
100
AcDbArc
 50
137.0300132606278
 51
180.000000000026
  0
ARC
  5
160D
330
1E
100
AcDbEntity
  8
0
100
AcDbCircle
 10
1.936108303583978
 20
10.20465663774501
 30
0.0
 40
0.4720921639652044
100
AcDbArc
 50
144.2842594811805
 51
180.0
  0
ARC
  5
160E
330
1E
100
AcDbEntity
  8
0
100
AcDbCircle
 10
1.848650959727135
 20
10.20465663774501
 30
0.0
 40
0.40431985910843
100
AcDbArc
 50
137.0300132606278
 51
180.000000000026
  0
ARC
  5
160F
330
1E
100
AcDbEntity
  8
0
100
AcDbCircle
 10
1.888021037727185
 20
10.20465663774546
 30
0.0
 40
0.40431985910843
100
AcDbArc
 50
137.0300132606278
 51
180.000000000026
  0
ARC
  5
1610
330
1E
100
AcDbEntity
  8
0
100
AcDbCircle
 10
1.99516342058382
 20
10.20465663774501
 30
0.0
 40
0.4720921639652044
100
AcDbArc
 50
144.2842594811805
 51
180.0
  0
ARC
  5
1611
330
1E
100
AcDbEntity
  8
0
100
AcDbCircle
 10
1.907706076726981
 20
10.20465663774546
 30
0.0
 40
0.40431985910843
100
AcDbArc
 50
137.0300132606278
 51
180.000000000026
  0
ARC
  5
1612
330
1E
100
AcDbEntity
  8
0
100
AcDbCircle
 10
2.03416275068207
 20
10.20465663774501
 30
0.0
 40
0.4720921639652044
100
AcDbArc
 50
144.2842594811805
 51
180.0
  0
ARC
  5
1613
330
1E
100
AcDbEntity
  8
0
100
AcDbCircle
 10
1.94670540682523
 20
10.20465663774501
 30
0.0
 40
0.40431985910843
100
AcDbArc
 50
137.0300132606278
 51
180.000000000026
  0
ARC
  5
1614
330
1E
100
AcDbEntity
  8
0
100
AcDbCircle
 10
2.073532828681661
 20
10.20465663774501
 30
0.0
 40
0.4720921639652044
100
AcDbArc
 50
144.2842594811805
 51
180.0
  0
ARC
  5
1615
330
1E
100
AcDbEntity
  8
0
100
AcDbCircle
 10
1.986075484825278
 20
10.20465663774546
 30
0.0
 40
0.40431985910843
100
AcDbArc
 50
137.0300132606278
 51
180.000000000026
  0
ARC
  5
1616
330
1E
100
AcDbEntity
  8
0
100
AcDbCircle
 10
2.112532158779913
 20
10.20465663774501
 30
0.0
 40
0.4720921639652044
100
AcDbArc
 50
144.2842594811805
 51
180.0
  0
ARC
  5
1617
330
1E
100
AcDbEntity
  8
0
100
AcDbCircle
 10
2.025074814923073
 20
10.20465663774501
 30
0.0
 40
0.40431985910843
100
AcDbArc
 50
137.0300132606278
 51
180.000000000026
  0
ARC
  5
1618
330
1E
100
AcDbEntity
  8
0
100
AcDbCircle
 10
2.151531488877706
 20
10.20465663774501
 30
0.0
 40
0.4720921639652044
100
AcDbArc
 50
144.2842594811805
 51
180.0
  0
ARC
  5
1619
330
1E
100
AcDbEntity
  8
0
100
AcDbCircle
 10
2.064074145020867
 20
10.20465663774501
 30
0.0
 40
0.40431985910843
100
AcDbArc
 50
137.0300132606278
 51
180.000000000026
  0
ARC
  5
161A
330
1E
100
AcDbEntity
  8
0
100
AcDbCircle
 10
2.190530818975503
 20
10.20465663774455
 30
0.0
 40
0.4720921639652044
100
AcDbArc
 50
144.2842594811805
 51
180.0
  0
ARC
  5
161B
330
1E
100
AcDbEntity
  8
0
100
AcDbCircle
 10
2.103073475118661
 20
10.20465663774455
 30
0.0
 40
0.40431985910843
100
AcDbArc
 50
137.0300132606278
 51
180.000000000026
  0
ARC
  5
161C
330
1E
100
AcDbEntity
  8
0
100
AcDbCircle
 10
2.229900896975548
 20
10.20465663774501
 30
0.0
 40
0.4720921639652044
100
AcDbArc
 50
144.2842594811805
 51
180.0
  0
ARC
  5
161D
330
1E
100
AcDbEntity
  8
0
100
AcDbCircle
 10
2.14244355311871
 20
10.20465663774501
 30
0.0
 40
0.40431985910843
100
AcDbArc
 50
137.0300132606278
 51
180.000000000026
  0
ARC
  5
161E
330
1E
100
AcDbEntity
  8
0
100
AcDbCircle
 10
1.860739636459356
 20
10.20465663774455
 30
0.0
 40
0.4720921639652044
100
AcDbArc
 50
144.2842594811805
 51
180.0
  0
ARC
  5
161F
330
1E
100
AcDbEntity
  8
0
100
AcDbCircle
 10
1.773282292602514
 20
10.20465663774455
 30
0.0
 40
0.40431985910843
100
AcDbArc
 50
137.0300132606278
 51
180.000000000026
  0
LINE
  5
1620
330
1E
100
AcDbEntity
  8
0
100
AcDbLine
 10
1.885597654380715
 20
10.48024718374443
 30
0.0
 11
1.477437063766728
 21
10.48024718374443
 31
0.0
  0
ARC
  5
1621
330
1E
100
AcDbEntity
  8
0
100
AcDbCircle
 10
1.473682660025815
 20
10.51961726174446
 30
0.0
 40
0.157480312
100
AcDbArc
 50
90.0
 51
177.999999999996
  0
LINE
  5
1622
330
1E
100
AcDbEntity
  8
0
100
AcDbLine
 10
1.305107689449639
 20
10.20465663774455
 30
0.0
 11
1.316298280776889
 21
10.52511324537378
 31
0.0
  0
LINE
  5
1623
330
1E
100
AcDbEntity
  8
0
100
AcDbLine
 10
2.006529548638126
 20
10.67709757374466
 30
0.0
 11
1.473682660025815
 21
10.67709757374466
 31
0.0
  0
ARC
  5
1624
330
1E
100
AcDbEntity
  8
0
100
AcDbCircle
 10
2.268900227073345
 20
10.20465663774455
 30
0.0
 40
0.4720921639652044
100
AcDbArc
 50
144.2842594811805
 51
180.0
  0
ARC
  5
1625
330
1E
100
AcDbEntity
  8
0
100
AcDbCircle
 10
2.181442883216504
 20
10.20465663774455
 30
0.0
 40
0.40431985910843
100
AcDbArc
 50
137.0300132606278
 51
180.000000000026
  0
LINE
  5
1626
330
1E
100
AcDbEntity
  8
0
100
AcDbLine
 10
1.875973820450099
 20
10.20465663774455
 30
0.0
 11
1.88849126420132
 21
10.5631093274666
 31
0.0
  0
ARC
  5
1627
330
1E
100
AcDbEntity
  8
0
100
AcDbCircle
 10
2.006529548638126
 20
10.5589873397445
 30
0.0
 40
0.118110234
100
AcDbArc
 50
90.0
 51
177.999999999996
  0
LINE
  5
1628
330
1E
100
AcDbEntity
  8
0
100
AcDbLine
 10
2.006529548638126
 20
10.67709757374466
 30
0.0
 11
3.155501355449587
 21
10.67709757374466
 31
0.0
  0
LINE
  5
1629
330
1E
100
AcDbEntity
  8
0
100
AcDbLine
 10
4.454713929449326
 20
15.26597320185173
 30
0.0
 11
3.155501355449587
 21
15.26597320185173
 31
0.0
  0
LINE
  5
162A
330
1E
100
AcDbEntity
  8
0
100
AcDbLine
 10
1.856288781449393
 20
15.26597320185173
 30
0.0
 11
3.155501355449587
 21
15.26597320185173
 31
0.0
  0
LINE
  5
162B
330
1E
100
AcDbEntity
  8
0
100
AcDbLine
 10
1.620068313449563
 20
15.89581640429359
 30
0.0
 11
4.690934397449608
 21
15.89581640429359
 31
0.0
  0
LWPOLYLINE
  5
162C
330
1E
100
AcDbEntity
  8
0
100
AcDbPolyline
 90
       17
 70
     0
 43
0.0
 10
1.777548625449751
 20
18.25802108429324
 10
1.501958079449421
 20
18.25802108429324
 42
0.4142135623730951
 10
1.305107689449639
 20
18.06117069429346
 10
1.305107689449639
 20
15.9273905122516
 42
0.0793414481584475
 10
1.314897534692818
 20
15.8660844877634
 42
-0.0793414481584524
 10
1.875973820449644
 20
12.35250938429343
 10
1.875973820449644
 20
12.15565899429319
 42
0.4142135623730951
 10
2.072824210449423
 20
11.95880860429342
 10
3.155501355449131
 20
11.95880860429342
 10
4.238178500449294
 20
11.95880860429342
 42
0.414213562373095
 10
4.435028890449075
 20
12.15565899429319
 10
4.435028890449075
 20
12.35250938429343
 42
-0.0793414481584525
 10
4.996105176205901
 20
15.8660844877634
 42
0.0793414481584475
 10
5.005895021449532
 20
15.9273905122516
 10
5.005895021449532
 20
18.06117069429346
 42
0.4142135623730951
 10
4.809044631449294
 20
18.25802108429324
 10
1.620068313449563
 20
18.25802108429324
  0
LINE
  5
162D
330
1E
100
AcDbEntity
  8
0
100
AcDbLine
 10
4.455596876445497
 20
15.26597320185173
 30
0.0
 11
4.120068266449607
 21
12.27376922829334
 31
0.0
  0
LINE
  5
162E
330
1E
100
AcDbEntity
  8
0
100
AcDbLine
 10
4.120068266449607
 20
12.27376922829334
 30
0.0
 11
3.155501355449587
 21
12.27376922829334
 31
0.0
  0
LINE
  5
162F
330
1E
100
AcDbEntity
  8
0
100
AcDbLine
 10
1.855405834453676
 20
15.26597320185173
 30
0.0
 11
2.190934444449565
 21
12.27376922829334
 31
0.0
  0
LINE
  5
1630
330
1E
100
AcDbEntity
  8
0
100
AcDbLine
 10
2.190934444449565
 20
12.27376922829334
 30
0.0
 11
3.155501355449587
 21
12.27376922829334
 31
0.0
  0
LINE
  5
1631
330
1E
100
AcDbEntity
  8
0
100
AcDbLine
 10
4.690934397449608
 20
17.94306046029332
 30
0.0
 11
4.690934397449608
 21
15.89581640429359
 31
0.0
  0
LINE
  5
1632
330
1E
100
AcDbEntity
  8
0
100
AcDbLine
 10
1.620068313449563
 20
17.94306046029378
 30
0.0
 11
1.620068313449563
 21
15.89581640429359
 31
0.0
  0
LINE
  5
1633
330
1E
100
AcDbEntity
  8
0
100
AcDbLine
 10
1.620068313449563
 20
17.94306046029332
 30
0.0
 11
4.690934397449608
 21
17.94306046029332
 31
0.0
  0
ARC
  5
1634
330
1E
100
AcDbEntity
  8
0
100
AcDbCircle
 10
7.3743455238218
 20
12.12738357486914
 30
0.0
 40
0.157480312
100
AcDbArc
 50
180.0
 51
268.0000000000221
  0
ARC
  5
1635
330
1E
100
AcDbEntity
  8
0
100
AcDbCircle
 10
7.3743455238218
 20
18.08944611371707
 30
0.0
 40
0.157480312
100
AcDbArc
 50
92.00000000000395
 51
180.0
  0
ARC
  5
1636
330
1E
100
AcDbEntity
  8
0
100
AcDbCircle
 10
7.689306147821723
 20
15.22463262663749
 30
0.0
 40
0.275590546
100
AcDbArc
 50
90.0
 51
180.0
  0
LINE
  5
1637
330
1E
100
AcDbEntity
  8
0
100
AcDbLine
 10
7.413715601821848
 20
15.22463262663749
 30
0.0
 11
7.413715601821848
 21
12.62620747863754
 31
0.0
  0
LINE
  5
1638
330
1E
100
AcDbEntity
  8
0
100
AcDbLine
 10
7.689306147821723
 20
15.50022317263737
 30
0.0
 11
7.689306147821723
 21
15.50022317263737
 31
0.0
  0
ARC
  5
1639
330
1E
100
AcDbEntity
  8
0
100
AcDbCircle
 10
7.689306147821723
 20
12.62620747863754
 30
0.0
 40
0.275590546
100
AcDbArc
 50
180.0
 51
270.0
  0
LINE
  5
163A
330
1E
100
AcDbEntity
  8
0
100
AcDbLine
 10
7.689306147821723
 20
12.35061693263769
 30
0.0
 11
7.689306147821723
 21
12.35061693263769
 31
0.0
  0
LINE
  5
163B
330
1E
100
AcDbEntity
  8
0
100
AcDbLine
 10
7.413715601821848
 20
15.19707357203769
 30
0.0
 11
7.689306147821723
 21
15.19707357203769
 31
0.0
  0
LINE
  5
163C
330
1E
100
AcDbEntity
  8
0
100
AcDbLine
 10
7.413715601821848
 20
15.04746727563751
 30
0.0
 11
7.689306147821723
 21
15.04746727563751
 31
0.0
  0
LINE
  5
163D
330
1E
100
AcDbEntity
  8
0
100
AcDbLine
 10
7.413715601821848
 20
14.89786097923779
 30
0.0
 11
7.689306147821723
 21
14.89786097923779
 31
0.0
  0
LINE
  5
163E
330
1E
100
AcDbEntity
  8
0
100
AcDbLine
 10
7.413715601821848
 20
14.74825468283761
 30
0.0
 11
7.689306147821723
 21
14.74825468283761
 31
0.0
  0
LINE
  5
163F
330
1E
100
AcDbEntity
  8
0
100
AcDbLine
 10
7.413715601821848
 20
14.59864838643743
 30
0.0
 11
7.689306147821723
 21
14.59864838643743
 31
0.0
  0
LINE
  5
1640
330
1E
100
AcDbEntity
  8
0
100
AcDbLine
 10
7.413715601821848
 20
14.4490420900377
 30
0.0
 11
7.689306147821723
 21
14.4490420900377
 31
0.0
  0
LINE
  5
1641
330
1E
100
AcDbEntity
  8
0
100
AcDbLine
 10
7.413715601821848
 20
14.29943579363752
 30
0.0
 11
7.689306147821723
 21
14.29943579363752
 31
0.0
  0
LINE
  5
1642
330
1E
100
AcDbEntity
  8
0
100
AcDbLine
 10
7.413715601821848
 20
14.14982949723734
 30
0.0
 11
7.689306147821723
 21
14.14982949723734
 31
0.0
  0
LINE
  5
1643
330
1E
100
AcDbEntity
  8
0
100
AcDbLine
 10
7.413715601821848
 20
14.00022320083762
 30
0.0
 11
7.689306147821723
 21
14.00022320083762
 31
0.0
  0
LINE
  5
1644
330
1E
100
AcDbEntity
  8
0
100
AcDbLine
 10
7.413715601821848
 20
12.65376653323737
 30
0.0
 11
7.689306147821723
 21
12.65376653323737
 31
0.0
  0
LINE
  5
1645
330
1E
100
AcDbEntity
  8
0
100
AcDbLine
 10
7.413715601821848
 20
12.80337282963755
 30
0.0
 11
7.689306147821723
 21
12.80337282963755
 31
0.0
  0
LINE
  5
1646
330
1E
100
AcDbEntity
  8
0
100
AcDbLine
 10
7.413715601821848
 20
12.95297912603773
 30
0.0
 11
7.689306147821723
 21
12.95297912603773
 31
0.0
  0
LINE
  5
1647
330
1E
100
AcDbEntity
  8
0
100
AcDbLine
 10
7.413715601821848
 20
13.10258542243744
 30
0.0
 11
7.689306147821723
 21
13.10258542243744
 31
0.0
  0
LINE
  5
1648
330
1E
100
AcDbEntity
  8
0
100
AcDbLine
 10
7.413715601821848
 20
13.25219171883763
 30
0.0
 11
7.689306147821723
 21
13.25219171883763
 31
0.0
  0
LINE
  5
1649
330
1E
100
AcDbEntity
  8
0
100
AcDbLine
 10
7.413715601821848
 20
13.40179801523736
 30
0.0
 11
7.689306147821723
 21
13.40179801523736
 31
0.0
  0
LINE
  5
164A
330
1E
100
AcDbEntity
  8
0
100
AcDbLine
 10
7.413715601821848
 20
13.55140431163754
 30
0.0
 11
7.689306147821723
 21
13.55140431163754
 31
0.0
  0
LINE
  5
164B
330
1E
100
AcDbEntity
  8
0
100
AcDbLine
 10
7.413715601821848
 20
13.70101060803772
 30
0.0
 11
7.689306147821723
 21
13.70101060803772
 31
0.0
  0
LINE
  5
164C
330
1E
100
AcDbEntity
  8
0
100
AcDbLine
 10
7.413715601821848
 20
13.85061690443744
 30
0.0
 11
7.689306147821723
 21
13.85061690443744
 31
0.0
  0
LINE
  5
164D
330
1E
100
AcDbEntity
  8
0
100
AcDbLine
 10
7.689306147821723
 20
11.95880860429296
 30
0.0
 11
7.368849540192483
 21
11.9699991956202
 31
0.0
  0
LINE
  5
164E
330
1E
100
AcDbEntity
  8
0
100
AcDbLine
 10
7.689306147821723
 20
18.25802108429324
 30
0.0
 11
7.368849540192483
 21
18.24683049296599
 31
0.0
  0
LINE
  5
164F
330
1E
100
AcDbEntity
  8
0
100
AcDbLine
 10
7.216865211821612
 20
18.08944611371707
 30
0.0
 11
7.216865211821612
 21
12.12738357486914
 31
0.0
  0
LINE
  5
1650
330
1E
100
AcDbEntity
  8
0
100
AcDbLine
 10
7.689306147821723
 20
18.25802108429324
 30
0.0
 11
7.689306147821723
 21
11.95880860429296
 31
0.0
  0
ARC
  5
1652
330
1E
100
AcDbEntity
  8
0
100
AcDbCircle
 10
13.27362621518796
 20
15.32654766503608
 30
0.0
 40
0.40433070106
100
AcDbArc
 50
343.5021144396301
 51
25.08971119252601
  0
ARC
  5
1653
330
1E
100
AcDbEntity
  8
0
100
AcDbCircle
 10
12.88902791781447
 20
12.62115344482326
 30
0.0
 40
0.40433070106
100
AcDbArc
 50
318.3624100585573
 51
1.762141562481694
  0
LINE
  5
1654
330
1E
100
AcDbEntity
  8
0
100
AcDbLine
 10
13.29642575975549
 20
13.10258542243744
 30
0.0
 11
13.29508742657071
 21
13.10258542243744
 31
0.0
  0
LINE
  5
1655
330
1E
100
AcDbEntity
  8
0
100
AcDbLine
 10
13.3210654277027
 20
13.40179801523781
 30
0.0
 11
13.31919605874873
 21
13.40179801523781
 31
0.0
  0
LINE
  5
1656
330
1E
100
AcDbEntity
  8
0
100
AcDbLine
 10
13.35380834164743
 20
13.70101060803772
 30
0.0
 11
13.35140386037733
 21
13.70101060803772
 31
0.0
  0
LINE
  5
1657
330
1E
100
AcDbEntity
  8
0
100
AcDbLine
 10
13.19162245529287
 20
12.35061693263769
 30
0.0
 11
13.19120946020689
 21
12.35061693263769
 31
0.0
  0
LINE
  5
1658
330
1E
100
AcDbEntity
  8
0
100
AcDbLine
 10
13.19398140889982
 20
12.50416023683764
 30
0.0
 11
13.19222874834325
 21
12.50416023683764
 31
0.0
  0
LINE
  5
1659
330
1E
100
AcDbEntity
  8
0
100
AcDbLine
 10
13.39472635041897
 20
14.00022320083762
 30
0.0
 11
13.39178145174785
 21
14.00022320083762
 31
0.0
  0
LINE
  5
165A
330
1E
100
AcDbEntity
  8
0
100
AcDbLine
 10
13.44391044171061
 20
14.29943579363752
 30
0.0
 11
13.44041853219141
 21
14.29943579363752
 31
0.0
  0
LINE
  5
165B
330
1E
100
AcDbEntity
  8
0
100
AcDbLine
 10
13.50147178149245
 20
14.59864838643743
 30
0.0
 11
13.49742490314406
 21
14.59864838643743
 31
0.0
  0
LINE
  5
165C
330
1E
100
AcDbEntity
  8
0
100
AcDbLine
 10
13.5675430183287
 20
14.89786097923779
 30
0.0
 11
13.56293175400196
 21
14.89786097923779
 31
0.0
  0
LINE
  5
165D
330
1E
100
AcDbEntity
  8
0
100
AcDbLine
 10
13.64227988965785
 20
15.19707357203769
 30
0.0
 11
13.63709324720002
 21
15.19707357203769
 31
0.0
  0
ARC
  5
165E
330
1E
100
AcDbEntity
  8
0
100
AcDbCircle
 10
24.47311258777653
 20
12.35250938429343
 30
0.0
 40
11.20316297156963
100
AcDbArc
 50
165.2911563659384
 51
166.0808007744624
  0
ARC
  5
165F
330
1E
100
AcDbEntity
  8
0
100
AcDbCircle
 10
24.47311258777653
 20
12.35250938429343
 30
0.0
 40
11.20316297156963
100
AcDbArc
 50
166.8677570467181
 51
167.6521994587889
  0
ARC
  5
1660
330
1E
100
AcDbEntity
  8
0
100
AcDbCircle
 10
24.47311258777653
 20
12.35250938429343
 30
0.0
 40
11.20316297156963
100
AcDbArc
 50
168.4342976431111
 51
169.2142169714194
  0
ARC
  5
1661
330
1E
100
AcDbEntity
  8
0
100
AcDbCircle
 10
24.47311258777653
 20
12.35250938429343
 30
0.0
 40
11.20316297156963
100
AcDbArc
 50
169.9921189149199
 51
170.7681613840561
  0
ARC
  5
1662
330
1E
100
AcDbEntity
  8
0
100
AcDbCircle
 10
24.47311258777653
 20
12.35250938429343
 30
0.0
 40
11.20316297156963
100
AcDbArc
 50
171.5424990500116
 51
172.3152836499266
  0
ARC
  5
1663
330
1E
100
AcDbEntity
  8
0
100
AcDbCircle
 10
24.47311258777653
 20
12.35250938429343
 30
0.0
 40
11.20316297156963
100
AcDbArc
 50
173.086664277593
 51
173.8567876612971
  0
ARC
  5
1664
330
1E
100
AcDbEntity
  8
0
100
AcDbCircle
 10
24.47311258777653
 20
12.35250938429343
 30
0.0
 40
11.20316297156963
100
AcDbArc
 50
174.6257984303215
 51
175.3938393715179
  0
ARC
  5
1665
330
1E
100
AcDbEntity
  8
0
100
AcDbCircle
 10
24.47311258777653
 20
12.35250938429343
 30
0.0
 40
11.20316297156963
100
AcDbArc
 50
176.1610516772697
 51
176.927575186082
  0
ARC
  5
1666
330
1E
100
AcDbEntity
  8
0
100
AcDbCircle
 10
24.47311258777653
 20
12.35250938429343
 30
0.0
 40
11.20316297156963
100
AcDbArc
 50
177.693548616971
 51
178.4591097987614
  0
ARC
  5
1667
330
1E
100
AcDbEntity
  8
0
100
AcDbCircle
 10
13.64227988965785
 20
15.21675861103749
 30
0.0
 40
0.019685039
100
AcDbArc
 50
270.0
 51
345.1870462402645
  0
ARC
  5
1668
330
1E
100
AcDbEntity
  8
0
100
AcDbCircle
 10
13.59406043544935
 20
15.02778223663772
 30
0.0
 40
0.019685039
100
AcDbArc
 50
346.1844974288743
 51
76.13416031450547
  0
ARC
  5
1669
330
1E
100
AcDbEntity
  8
0
100
AcDbCircle
 10
13.5675430183287
 20
14.91754601823758
 30
0.0
 40
0.019685039
100
AcDbArc
 50
269.9999999998961
 51
346.7643575003061
  0
ARC
  5
166A
330
1E
100
AcDbEntity
  8
0
100
AcDbCircle
 10
24.47311258777653
 20
12.35250938429343
 30
0.0
 40
11.18347793256961
100
AcDbArc
 50
166.1844974288603
 51
166.7643575003078
  0
ARC
  5
166B
330
1E
100
AcDbEntity
  8
0
100
AcDbCircle
 10
13.52481599832663
 20
14.7285696438378
 30
0.0
 40
0.019685039
100
AcDbArc
 50
347.7552374422571
 51
77.70490032781541
  0
ARC
  5
166C
330
1E
100
AcDbEntity
  8
0
100
AcDbCircle
 10
13.50147178149245
 20
14.61833342543767
 30
0.0
 40
0.019685039
100
AcDbArc
 50
270.0
 51
348.3315179948136
  0
ARC
  5
166D
330
1E
100
AcDbEntity
  8
0
100
AcDbCircle
 10
24.47311258777653
 20
12.35250938429343
 30
0.0
 40
11.18347793256961
100
AcDbArc
 50
167.7552374422149
 51
168.3315179948023
  0
ARC
  5
166E
330
1E
100
AcDbEntity
  8
0
100
AcDbCircle
 10
13.46413605329871
 20
14.42935705103745
 30
0.0
 40
0.019685039
100
AcDbArc
 50
349.3166843120103
 51
79.26634719766474
  0
ARC
  5
166F
330
1E
100
AcDbEntity
  8
0
100
AcDbCircle
 10
13.44391044171061
 20
14.31912083263777
 30
0.0
 40
0.019685039
100
AcDbArc
 50
270.0000000000522
 51
349.8898730023991
  0
ARC
  5
1670
330
1E
100
AcDbEntity
  8
0
100
AcDbCircle
 10
24.47311258777653
 20
12.35250938429343
 30
0.0
 40
11.18347793256961
100
AcDbArc
 50
169.3166843120526
 51
169.8898730023628
  0
ARC
  5
1671
330
1E
100
AcDbEntity
  8
0
100
AcDbCircle
 10
13.41187964965297
 20
14.13014445823755
 30
0.0
 40
0.019685039
100
AcDbArc
 50
350.8701420212708
 51
80.81980490686772
  0
ARC
  5
1672
330
1E
100
AcDbEntity
  8
0
100
AcDbCircle
 10
13.39472635041897
 20
14.01990823983742
 30
0.0
 40
0.019685039
100
AcDbArc
 50
270.0
 51
351.4407044883767
  0
ARC
  5
1673
330
1E
100
AcDbEntity
  8
0
100
AcDbCircle
 10
24.47311258777653
 20
12.35250938429343
 30
0.0
 40
11.18347793256961
100
AcDbArc
 50
170.870142021291
 51
171.4407044884143
  0
ARC
  5
1674
330
1E
100
AcDbEntity
  8
0
100
AcDbCircle
 10
13.36792787365356
 20
13.83093186543765
 30
0.0
 40
0.019685039
100
AcDbArc
 50
352.4168581293685
 51
82.36652101498791
  0
ARC
  5
1675
330
1E
100
AcDbEntity
  8
0
100
AcDbCircle
 10
13.35380834164743
 20
13.72069564703751
 30
0.0
 40
0.019685039
100
AcDbArc
 50
269.9999999999481
 51
352.9852417964064
  0
ARC
  5
1676
330
1E
100
AcDbEntity
  8
0
100
AcDbCircle
 10
24.47311258777653
 20
12.35250938429343
 30
0.0
 40
11.18347793256961
100
AcDbArc
 50
172.4168581293683
 51
172.9852417964243
  0
ARC
  5
1677
330
1E
100
AcDbEntity
  8
0
100
AcDbCircle
 10
13.33218243779469
 20
13.53171927263773
 30
0.0
 40
0.019685039
100
AcDbArc
 50
353.958033761255
 51
83.90769664683837
  0
ARC
  5
1678
330
1E
100
AcDbEntity
  8
0
100
AcDbCircle
 10
13.3210654277027
 20
13.42148305423759
 30
0.0
 40
0.019685039
100
AcDbArc
 50
269.9999999999481
 51
354.5246712719388
  0
ARC
  5
1679
330
1E
100
AcDbEntity
  8
0
100
AcDbCircle
 10
24.47311258777653
 20
12.35250938429343
 30
0.0
 40
11.18347793256961
100
AcDbArc
 50
173.9580337612304
 51
174.5246712719371
  0
ARC
  5
167A
330
1E
100
AcDbEntity
  8
0
100
AcDbCircle
 10
13.30456454752627
 20
13.23250667983784
 30
0.0
 40
0.019685039
100
AcDbArc
 50
355.4948326754112
 51
85.44449556100717
  0
ARC
  5
167B
330
1E
100
AcDbEntity
  8
0
100
AcDbCircle
 10
13.29642575975549
 20
13.12227046143769
 30
0.0
 40
0.019685039
100
AcDbArc
 50
269.9999999999481
 51
356.0601450439889
  0
ARC
  5
167C
330
1E
100
AcDbEntity
  8
0
100
AcDbCircle
 10
24.47311258777653
 20
12.35250938429343
 30
0.0
 40
11.18347793256961
100
AcDbArc
 50
175.4948326753636
 51
176.0601450439592
  0
ARC
  5
167D
330
1E
100
AcDbEntity
  8
0
100
AcDbCircle
 10
13.28501401399717
 20
12.93329408703748
 30
0.0
 40
0.019685039
100
AcDbArc
 50
357.0283896131587
 51
86.97805249879465
  0
ARC
  5
167E
330
1E
100
AcDbEntity
  8
0
100
AcDbCircle
 10
13.27983582485193
 20
12.8230578686378
 30
0.0
 40
0.019685039
100
AcDbArc
 50
267.6431262692265
 51
357.5927891548666
  0
ARC
  5
167F
330
1E
100
AcDbEntity
  8
0
100
AcDbCircle
 10
24.47311258777653
 20
12.35250938429343
 30
0.0
 40
11.18347793256961
100
AcDbArc
 50
177.0283896131938
 51
177.5927891548148
  0
ARC
  5
1680
330
1E
100
AcDbEntity
  8
0
100
AcDbCircle
 10
13.2734885889788
 20
12.63408149423757
 30
0.0
 40
0.019685039
100
AcDbArc
 50
358.5598181043381
 51
88.50948098998918
  0
LINE
  5
1681
330
1E
100
AcDbEntity
  8
0
100
AcDbLine
 10
13.19163880724272
 20
12.35250938429298
 30
0.0
 11
13.19120946020621
 21
12.35250938429298
 31
0.0
  0
LINE
  5
1682
330
1E
100
AcDbEntity
  8
0
100
AcDbLine
 10
12.87624883620674
 20
11.95880860429386
 30
0.0
 11
12.87624883620651
 21
14.55723375229335
 31
0.0
  0
CIRCLE
  5
1683
330
1E
100
AcDbEntity
  8
0
100
AcDbCircle
 10
13.28963465520678
 20
17.86432030429323
 30
0.0
 40
0.137795273
  0
CIRCLE
  5
1684
330
1E
100
AcDbEntity
  8
0
100
AcDbCircle
 10
13.28963465520678
 20
17.86432030429323
 30
0.0
 40
0.0649606287
  0
ARC
  5
1685
330
1E
100
AcDbEntity
  8
0
100
AcDbCircle
 10
10.5497376352248
 20
15.32654766503608
 30
0.0
 40
0.40433070106
100
AcDbArc
 50
154.9102888074739
 51
196.4978855603698
  0
ARC
  5
1686
330
1E
100
AcDbEntity
  8
0
100
AcDbCircle
 10
10.9343359325985
 20
12.62115344482326
 30
0.0
 40
0.40433070106
100
AcDbArc
 50
178.237858437518
 51
221.6375899414424
  0
LINE
  5
1687
330
1E
100
AcDbEntity
  8
0
100
AcDbLine
 10
10.52693809065839
 20
13.10258542243744
 30
0.0
 11
10.52827642384293
 21
13.10258542243744
 31
0.0
  0
LINE
  5
1688
330
1E
100
AcDbEntity
  8
0
100
AcDbLine
 10
10.50229842271119
 20
13.40179801523781
 30
0.0
 11
10.50416779166494
 21
13.40179801523781
 31
0.0
  0
LINE
  5
1689
330
1E
100
AcDbEntity
  8
0
100
AcDbLine
 10
10.46955550876623
 20
13.70101060803772
 30
0.0
 11
10.47195999003655
 21
13.70101060803772
 31
0.0
  0
LINE
  5
168A
330
1E
100
AcDbEntity
  8
0
100
AcDbLine
 10
10.63174139512102
 20
12.35061693263769
 30
0.0
 11
10.63215439020676
 21
12.35061693263769
 31
0.0
  0
LINE
  5
168B
330
1E
100
AcDbEntity
  8
0
100
AcDbLine
 10
10.62938244151405
 20
12.50416023683764
 30
0.0
 11
10.63113510207063
 21
12.50416023683764
 31
0.0
  0
LINE
  5
168C
330
1E
100
AcDbEntity
  8
0
100
AcDbLine
 10
10.42863749999492
 20
14.00022320083762
 30
0.0
 11
10.43158239866577
 21
14.00022320083762
 31
0.0
  0
LINE
  5
168D
330
1E
100
AcDbEntity
  8
0
100
AcDbLine
 10
10.37945340870326
 20
14.29943579363752
 30
0.0
 11
10.38294531822248
 21
14.29943579363752
 31
0.0
  0
LINE
  5
168E
330
1E
100
AcDbEntity
  8
0
100
AcDbLine
 10
10.32189206892121
 20
14.59864838643743
 30
0.0
 11
10.32593894726983
 21
14.59864838643743
 31
0.0
  0
LINE
  5
168F
330
1E
100
AcDbEntity
  8
0
100
AcDbLine
 10
10.25582083208518
 20
14.89786097923779
 30
0.0
 11
10.26043209641191
 21
14.89786097923779
 31
0.0
  0
LINE
  5
1690
330
1E
100
AcDbEntity
  8
0
100
AcDbLine
 10
10.18108396075602
 20
15.19707357203769
 30
0.0
 11
10.18627060321386
 21
15.19707357203769
 31
0.0
  0
ARC
  5
1691
330
1E
100
AcDbEntity
  8
0
100
AcDbCircle
 10
-0.6497487373628701
 20
12.35250938429343
 30
0.0
 40
11.20316297156963
100
AcDbArc
 50
13.91919922553777
 51
14.70884363406161
  0
ARC
  5
1692
330
1E
100
AcDbEntity
  8
0
100
AcDbCircle
 10
-0.6497487373628701
 20
12.35250938429343
 30
0.0
 40
11.20316297156963
100
AcDbArc
 50
12.34780054121119
 51
13.13224295328206
  0
ARC
  5
1693
330
1E
100
AcDbEntity
  8
0
100
AcDbCircle
 10
-0.6497487373628701
 20
12.35250938429343
 30
0.0
 40
11.20316297156963
100
AcDbArc
 50
10.78578302858077
 51
11.5657023568891
  0
ARC
  5
1694
330
1E
100
AcDbEntity
  8
0
100
AcDbCircle
 10
-0.6497487373628701
 20
12.35250938429343
 30
0.0
 40
11.20316297156963
100
AcDbArc
 50
9.231838615944148
 51
10.00788108508015
  0
ARC
  5
1695
330
1E
100
AcDbEntity
  8
0
100
AcDbCircle
 10
-0.6497487373628701
 20
12.35250938429343
 30
0.0
 40
11.20316297156963
100
AcDbArc
 50
7.684716350073374
 51
8.457500949988363
  0
ARC
  5
1696
330
1E
100
AcDbEntity
  8
0
100
AcDbCircle
 10
-0.6497487373628701
 20
12.35250938429343
 30
0.0
 40
11.20316297156963
100
AcDbArc
 50
6.143212338703095
 51
6.913335722407143
  0
ARC
  5
1697
330
1E
100
AcDbEntity
  8
0
100
AcDbCircle
 10
-0.6497487373628701
 20
12.35250938429343
 30
0.0
 40
11.20316297156963
100
AcDbArc
 50
4.606160628482237
 51
5.374201569678641
  0
ARC
  5
1698
330
1E
100
AcDbEntity
  8
0
100
AcDbCircle
 10
-0.6497487373628701
 20
12.35250938429343
 30
0.0
 40
11.20316297156963
100
AcDbArc
 50
3.072424813918066
 51
3.838948322730549
  0
ARC
  5
1699
330
1E
100
AcDbEntity
  8
0
100
AcDbCircle
 10
-0.6497487373628701
 20
12.35250938429343
 30
0.0
 40
11.20316297156963
100
AcDbArc
 50
1.540890201238754
 51
2.306451383029183
  0
ARC
  5
169A
330
1E
100
AcDbEntity
  8
0
100
AcDbCircle
 10
10.18108396075602
 20
15.21675861103749
 30
0.0
 40
0.019685039
100
AcDbArc
 50
194.8129537597354
 51
270.0
  0
ARC
  5
169B
330
1E
100
AcDbEntity
  8
0
100
AcDbCircle
 10
10.22930341496453
 20
15.02778223663772
 30
0.0
 40
0.019685039
100
AcDbArc
 50
103.8658396854945
 51
193.8155025711255
  0
ARC
  5
169C
330
1E
100
AcDbEntity
  8
0
100
AcDbCircle
 10
10.25582083208518
 20
14.91754601823758
 30
0.0
 40
0.019685039
100
AcDbArc
 50
193.2356424996941
 51
270.0000000001042
  0
ARC
  5
169D
330
1E
100
AcDbEntity
  8
0
100
AcDbCircle
 10
-0.6497487373628701
 20
12.35250938429343
 30
0.0
 40
11.18347793256961
100
AcDbArc
 50
13.23564249969243
 51
13.81550257113993
  0
ARC
  5
169E
330
1E
100
AcDbEntity
  8
0
100
AcDbCircle
 10
10.29854785208702
 20
14.7285696438378
 30
0.0
 40
0.019685039
100
AcDbArc
 50
102.2950996721849
 51
192.2447625577429
  0
ARC
  5
169F
330
1E
100
AcDbEntity
  8
0
100
AcDbCircle
 10
10.32189206892121
 20
14.61833342543767
 30
0.0
 40
0.019685039
100
AcDbArc
 50
191.6684820051865
 51
270.0
  0
ARC
  5
16A0
330
1E
100
AcDbEntity
  8
0
100
AcDbCircle
 10
-0.6497487373628701
 20
12.35250938429343
 30
0.0
 40
11.18347793256961
100
AcDbArc
 50
11.66848200519787
 51
12.24476255778514
  0
ARC
  5
16A1
330
1E
100
AcDbEntity
  8
0
100
AcDbCircle
 10
10.35922779711518
 20
14.42935705103745
 30
0.0
 40
0.019685039
100
AcDbArc
 50
100.7336528023354
 51
190.6833156879898
  0
ARC
  5
16A2
330
1E
100
AcDbEntity
  8
0
100
AcDbCircle
 10
10.37945340870326
 20
14.31912083263777
 30
0.0
 40
0.019685039
100
AcDbArc
 50
190.1101269976011
 51
269.9999999999478
  0
ARC
  5
16A3
330
1E
100
AcDbEntity
  8
0
100
AcDbCircle
 10
-0.6497487373628701
 20
12.35250938429343
 30
0.0
 40
11.18347793256961
100
AcDbArc
 50
10.11012699763718
 51
10.6833156879476
  0
ARC
  5
16A4
330
1E
100
AcDbEntity
  8
0
100
AcDbCircle
 10
10.41148420076069
 20
14.13014445823755
 30
0.0
 40
0.019685039
100
AcDbArc
 50
99.18019509313246
 51
189.1298579787294
  0
ARC
  5
16A5
330
1E
100
AcDbEntity
  8
0
100
AcDbCircle
 10
10.42863749999492
 20
14.01990823983742
 30
0.0
 40
0.019685039
100
AcDbArc
 50
188.5592955116234
 51
270.0
  0
ARC
  5
16A6
330
1E
100
AcDbEntity
  8
0
100
AcDbCircle
 10
-0.6497487373628701
 20
12.35250938429343
 30
0.0
 40
11.18347793256961
100
AcDbArc
 50
8.559295511585967
 51
9.129857978709052
  0
ARC
  5
16A7
330
1E
100
AcDbEntity
  8
0
100
AcDbCircle
 10
10.45543597676032
 20
13.83093186543765
 30
0.0
 40
0.019685039
100
AcDbArc
 50
97.6334789850123
 51
187.5831418706316
  0
ARC
  5
16A8
330
1E
100
AcDbEntity
  8
0
100
AcDbCircle
 10
10.46955550876623
 20
13.72069564703751
 30
0.0
 40
0.019685039
100
AcDbArc
 50
187.0147582035937
 51
270.0000000000521
  0
ARC
  5
16A9
330
1E
100
AcDbEntity
  8
0
100
AcDbCircle
 10
-0.6497487373628701
 20
12.35250938429343
 30
0.0
 40
11.18347793256961
100
AcDbArc
 50
7.014758203575865
 51
7.583141870631909
  0
ARC
  5
16AA
330
1E
100
AcDbEntity
  8
0
100
AcDbCircle
 10
10.49118141261919
 20
13.53171927263773
 30
0.0
 40
0.019685039
100
AcDbArc
 50
96.09230335316196
 51
186.0419662387452
  0
ARC
  5
16AB
330
1E
100
AcDbEntity
  8
0
100
AcDbCircle
 10
10.50229842271119
 20
13.42148305423759
 30
0.0
 40
0.019685039
100
AcDbArc
 50
185.4753287280609
 51
270.0000000000521
  0
ARC
  5
16AC
330
1E
100
AcDbEntity
  8
0
100
AcDbCircle
 10
-0.6497487373628701
 20
12.35250938429343
 30
0.0
 40
11.18347793256961
100
AcDbArc
 50
5.475328728063121
 51
6.041966238769735
  0
ARC
  5
16AD
330
1E
100
AcDbEntity
  8
0
100
AcDbCircle
 10
10.5187993028876
 20
13.23250667983784
 30
0.0
 40
0.019685039
100
AcDbArc
 50
94.55550443899307
 51
184.5051673245888
  0
ARC
  5
16AE
330
1E
100
AcDbEntity
  8
0
100
AcDbCircle
 10
10.52693809065839
 20
13.12227046143769
 30
0.0
 40
0.019685039
100
AcDbArc
 50
183.9398549560113
 51
270.0000000000521
  0
ARC
  5
16AF
330
1E
100
AcDbEntity
  8
0
100
AcDbCircle
 10
-0.6497487373628701
 20
12.35250938429343
 30
0.0
 40
11.18347793256961
100
AcDbArc
 50
3.939854956041016
 51
4.5051673246365
  0
ARC
  5
16B0
330
1E
100
AcDbEntity
  8
0
100
AcDbCircle
 10
10.53834983641648
 20
12.93329408703748
 30
0.0
 40
0.019685039
100
AcDbArc
 50
93.02194750120566
 51
182.9716103868413
  0
ARC
  5
16B1
330
1E
100
AcDbEntity
  8
0
100
AcDbCircle
 10
10.54352802556172
 20
12.8230578686378
 30
0.0
 40
0.019685039
100
AcDbArc
 50
182.4072108451336
 51
272.3568737307737
  0
ARC
  5
16B2
330
1E
100
AcDbEntity
  8
0
100
AcDbCircle
 10
-0.6497487373628701
 20
12.35250938429343
 30
0.0
 40
11.18347793256961
100
AcDbArc
 50
2.40721084518547
 51
2.971610386806358
  0
ARC
  5
16B3
330
1E
100
AcDbEntity
  8
0
100
AcDbCircle
 10
10.54987526143509
 20
12.63408149423757
 30
0.0
 40
0.019685039
100
AcDbArc
 50
91.49051901001111
 51
181.440181895662
  0
LINE
  5
174C
330
1E
100
AcDbEntity
  8
0
100
AcDbLine
 10
10.9471150142067
 20
11.95880860429386
 30
0.0
 11
10.9471150142067
 21
14.55723375229335
 31
0.0
  0
CIRCLE
  5
174F
330
1E
100
AcDbEntity
  8
0
100
AcDbCircle
 10
10.53372919520688
 20
17.86432030429323
 30
0.0
 40
0.137795273
  0
CIRCLE
  5
1750
330
1E
100
AcDbEntity
  8
0
100
AcDbCircle
 10
10.53372919520688
 20
17.86432030429323
 30
0.0
 40
0.0649606287
  0
LINE
  5
1753
330
1E
100
AcDbEntity
  8
0
100
AcDbLine
 10
10.9471150142067
 20
14.55723375229335
 30
0.0
 11
12.87624883620674
 21
14.55723375229335
 31
0.0
  0
LWPOLYLINE
  5
1754
330
1E
100
AcDbEntity
  8
0
100
AcDbPolyline
 90
       17
 70
     0
 43
0.0
 10
10.53372919520688
 20
18.25802108429324
 10
10.25813864920701
 20
18.25802108429324
 42
0.4142135623730951
 10
10.06128825920699
 20
18.06117069429346
 10
10.06128825920699
 20
15.9273905122516
 42
0.0793414481584475
 10
10.0710781044504
 20
15.8660844877634
 42
-0.0793414481584524
 10
10.632154390207
 20
12.35250938429343
 10
10.632154390207
 20
12.15565899429319
 42
0.4142135623730951
 10
10.829004780207
 20
11.95880860429342
 10
11.91168192520648
 20
11.95880860429342
 10
12.99435907020642
 20
11.95880860429296
 42
0.414213562373095
 10
13.19120946020666
 20
12.15565899429319
 10
13.19120946020666
 20
12.35250938429298
 42
-0.0793414481584525
 10
13.75228574596325
 20
15.8660844877634
 42
0.0793414481584475
 10
13.76207559120689
 20
15.9273905122516
 10
13.76207559120689
 20
18.06117069429301
 42
0.4142135623730951
 10
13.56522520120688
 20
18.25802108429324
 10
10.25813864920701
 20
18.25802108429324
  0
LINE
  5
1756
330
1E
100
AcDbEntity
  8
0
100
AcDbLine
 10
1.332399353713525
 20
10.16528655974496
 30
0.0
 11
1.332399353713525
 21
10.20465663774501
 31
0.0
  0
LINE
  5
1759
330
1E
100
AcDbEntity
  8
0
100
AcDbLine
 10
1.376569058757922
 20
10.16528655974496
 30
0.0
 11
1.804414688371934
 21
10.16528655974496
 31
0.0
  0
ARC
  5
175A
330
1E
100
AcDbEntity
  8
0
100
AcDbCircle
 10
1.904715598750043
 20
10.16528655974449
 30
0.0
 40
0.4720921639652044
100
AcDbArc
 50
179.9999999999917
 51
215.7157405188219
  0
ARC
  5
175B
330
1E
100
AcDbEntity
  8
0
100
AcDbCircle
 10
1.817258254893203
 20
10.16528655974449
 30
0.0
 40
0.40431985910843
100
AcDbArc
 50
179.999999999976
 51
222.9699867393823
  0
ARC
  5
175C
330
1E
100
AcDbEntity
  8
0
100
AcDbCircle
 10
1.943714928847839
 20
10.16528655974449
 30
0.0
 40
0.4720921639652044
100
AcDbArc
 50
179.9999999999917
 51
215.7157405188219
  0
ARC
  5
175D
330
1E
100
AcDbEntity
  8
0
100
AcDbCircle
 10
1.856257584991226
 20
10.16528655974449
 30
0.0
 40
0.40431985910843
100
AcDbArc
 50
179.999999999976
 51
222.9699867393823
  0
ARC
  5
175E
330
1E
100
AcDbEntity
  8
0
100
AcDbCircle
 10
1.895627662991046
 20
10.16528655974449
 30
0.0
 40
0.40431985910843
100
AcDbArc
 50
179.999999999976
 51
222.9699867393823
  0
ARC
  5
175F
330
1E
100
AcDbEntity
  8
0
100
AcDbCircle
 10
2.002770045847908
 20
10.16528655974449
 30
0.0
 40
0.4720921639652044
100
AcDbArc
 50
179.9999999999917
 51
215.7157405188219
  0
ARC
  5
1760
330
1E
100
AcDbEntity
  8
0
100
AcDbCircle
 10
1.915312701991068
 20
10.16528655974449
 30
0.0
 40
0.40431985910843
100
AcDbArc
 50
179.999999999976
 51
222.9699867393823
  0
ARC
  5
1761
330
1E
100
AcDbEntity
  8
0
100
AcDbCircle
 10
2.041769375945705
 20
10.16528655974449
 30
0.0
 40
0.4720921639652044
100
AcDbArc
 50
179.9999999999917
 51
215.7157405188219
  0
ARC
  5
1762
330
1E
100
AcDbEntity
  8
0
100
AcDbCircle
 10
1.954312032089091
 20
10.16528655974449
 30
0.0
 40
0.40431985910843
100
AcDbArc
 50
179.999999999976
 51
222.9699867393823
  0
ARC
  5
1763
330
1E
100
AcDbEntity
  8
0
100
AcDbCircle
 10
2.081139453945751
 20
10.16528655974449
 30
0.0
 40
0.4720921639652044
100
AcDbArc
 50
179.9999999999917
 51
215.7157405188219
  0
ARC
  5
1764
330
1E
100
AcDbEntity
  8
0
100
AcDbCircle
 10
1.993682110088909
 20
10.16528655974449
 30
0.0
 40
0.40431985910843
100
AcDbArc
 50
179.999999999976
 51
222.9699867393823
  0
ARC
  5
1765
330
1E
100
AcDbEntity
  8
0
100
AcDbCircle
 10
2.120138784043545
 20
10.16528655974449
 30
0.0
 40
0.4720921639652044
100
AcDbArc
 50
179.9999999999917
 51
215.7157405188219
  0
ARC
  5
1766
330
1E
100
AcDbEntity
  8
0
100
AcDbCircle
 10
2.032681440186934
 20
10.16528655974449
 30
0.0
 40
0.40431985910843
100
AcDbArc
 50
179.999999999976
 51
222.9699867393823
  0
ARC
  5
1767
330
1E
100
AcDbEntity
  8
0
100
AcDbCircle
 10
2.159138114141569
 20
10.16528655974496
 30
0.0
 40
0.4720921639652044
100
AcDbArc
 50
179.9999999999917
 51
215.7157405188219
  0
ARC
  5
1768
330
1E
100
AcDbEntity
  8
0
100
AcDbCircle
 10
2.071680770284729
 20
10.16528655974496
 30
0.0
 40
0.40431985910843
100
AcDbArc
 50
179.999999999976
 51
222.9699867393823
  0
ARC
  5
1769
330
1E
100
AcDbEntity
  8
0
100
AcDbCircle
 10
2.198137444239363
 20
10.16528655974496
 30
0.0
 40
0.4720921639652044
100
AcDbArc
 50
179.9999999999917
 51
215.7157405188219
  0
ARC
  5
176A
330
1E
100
AcDbEntity
  8
0
100
AcDbCircle
 10
2.110680100382523
 20
10.16528655974496
 30
0.0
 40
0.40431985910843
100
AcDbArc
 50
179.999999999976
 51
222.9699867393823
  0
ARC
  5
176B
330
1E
100
AcDbEntity
  8
0
100
AcDbCircle
 10
2.237507522239411
 20
10.16528655974496
 30
0.0
 40
0.4720921639652044
100
AcDbArc
 50
179.9999999999917
 51
215.7157405188219
  0
ARC
  5
176C
330
1E
100
AcDbEntity
  8
0
100
AcDbCircle
 10
2.150050178382571
 20
10.16528655974496
 30
0.0
 40
0.40431985910843
100
AcDbArc
 50
179.999999999976
 51
222.9699867393823
  0
ARC
  5
176D
330
1E
100
AcDbEntity
  8
0
100
AcDbCircle
 10
1.868346261723218
 20
10.16528655974496
 30
0.0
 40
0.4720921639652044
100
AcDbArc
 50
179.9999999999917
 51
215.7157405188219
  0
ARC
  5
176E
330
1E
100
AcDbEntity
  8
0
100
AcDbCircle
 10
1.780888917866375
 20
10.16528655974496
 30
0.0
 40
0.40431985910843
100
AcDbArc
 50
179.999999999976
 51
222.9699867393823
  0
LINE
  5
176F
330
1E
100
AcDbEntity
  8
0
100
AcDbLine
 10
1.893204279644804
 20
9.889696013745087
 30
0.0
 11
1.48504368903059
 21
9.889696013745087
 31
0.0
  0
ARC
  5
1770
330
1E
100
AcDbEntity
  8
0
100
AcDbCircle
 10
1.481289285289675
 20
9.850325935745036
 30
0.0
 40
0.157480312
100
AcDbArc
 50
182.0
 51
270.0
  0
LINE
  5
1771
330
1E
100
AcDbEntity
  8
0
100
AcDbLine
 10
1.3127143147135
 20
10.16528655974496
 30
0.0
 11
1.323904906040751
 21
9.844829952115723
 31
0.0
  0
LINE
  5
1772
330
1E
100
AcDbEntity
  8
0
100
AcDbLine
 10
1.376569058757922
 20
10.16528655974496
 30
0.0
 11
1.3127143147135
 21
10.16528655974496
 31
0.0
  0
LINE
  5
1773
330
1E
100
AcDbEntity
  8
0
100
AcDbLine
 10
1.88358044571396
 20
10.16528655974496
 30
0.0
 11
1.804414688371934
 21
10.16528655974496
 31
0.0
  0
LINE
  5
1774
330
1E
100
AcDbEntity
  8
0
100
AcDbLine
 10
2.014136173901988
 20
9.692845623745306
 30
0.0
 11
1.481289285289675
 21
9.692845623745306
 31
0.0
  0
LINE
  5
1775
330
1E
100
AcDbEntity
  8
0
100
AcDbLine
 10
2.202055759253198
 20
9.692845623745306
 30
0.0
 11
2.202055759253198
 21
9.948751130744931
 31
0.0
  0
ARC
  5
1776
330
1E
100
AcDbEntity
  8
0
100
AcDbCircle
 10
2.276506852337206
 20
10.16528655974496
 30
0.0
 40
0.4720921639652044
100
AcDbArc
 50
179.9999999999917
 51
215.7157405188219
  0
ARC
  5
1777
330
1E
100
AcDbEntity
  8
0
100
AcDbCircle
 10
2.189049508480591
 20
10.16528655974496
 30
0.0
 40
0.40431985910843
100
AcDbArc
 50
179.999999999976
 51
222.9699867393823
  0
LINE
  5
1778
330
1E
100
AcDbEntity
  8
0
100
AcDbLine
 10
1.88358044571396
 20
10.16528655974496
 30
0.0
 11
1.896097889465409
 21
9.806833870022892
 31
0.0
  0
ARC
  5
1779
330
1E
100
AcDbEntity
  8
0
100
AcDbCircle
 10
2.014136173901988
 20
9.810955857744991
 30
0.0
 40
0.118110234
100
AcDbArc
 50
181.9999999999959
 51
269.9999999999963
  0
LINE
  5
177B
330
1E
100
AcDbEntity
  8
0
100
AcDbLine
 10
4.993816607713596
 20
10.16528655974449
 30
0.0
 11
4.993816607713596
 21
10.20465663774455
 31
0.0
  0
LINE
  5
1786
330
1E
100
AcDbEntity
  8
0
100
AcDbLine
 10
4.949646902669201
 20
10.16528655974496
 30
0.0
 11
4.521801273054959
 21
10.16528655974496
 31
0.0
  0
LINE
  5
1787
330
1E
100
AcDbEntity
  8
0
100
AcDbLine
 10
4.949646902669201
 20
10.16528655974496
 30
0.0
 11
5.013501646713621
 21
10.16528655974496
 31
0.0
  0
ARC
  5
1788
330
1E
100
AcDbEntity
  8
0
100
AcDbCircle
 10
4.421500362677078
 20
10.16528655974449
 30
0.0
 40
0.4720921639652044
100
AcDbArc
 50
324.2842594811778
 51
0.0000000000080735
  0
ARC
  5
1789
330
1E
100
AcDbEntity
  8
0
100
AcDbCircle
 10
4.508957706533691
 20
10.16528655974449
 30
0.0
 40
0.40431985910843
100
AcDbArc
 50
317.0300132606176
 51
0.0000000000240608
  0
ARC
  5
178A
330
1E
100
AcDbEntity
  8
0
100
AcDbCircle
 10
4.382501032579056
 20
10.16528655974449
 30
0.0
 40
0.4720921639652044
100
AcDbArc
 50
324.2842594811778
 51
0.0000000000080735
  0
ARC
  5
178B
330
1E
100
AcDbEntity
  8
0
100
AcDbCircle
 10
4.469958376435896
 20
10.16528655974449
 30
0.0
 40
0.40431985910843
100
AcDbArc
 50
317.0300132606176
 51
0.0000000000240608
  0
ARC
  5
178C
330
1E
100
AcDbEntity
  8
0
100
AcDbCircle
 10
4.430588298435848
 20
10.16528655974449
 30
0.0
 40
0.40431985910843
100
AcDbArc
 50
317.0300132606176
 51
0.0000000000240608
  0
ARC
  5
178D
330
1E
100
AcDbEntity
  8
0
100
AcDbCircle
 10
4.323445915579211
 20
10.16528655974449
 30
0.0
 40
0.4720921639652044
100
AcDbArc
 50
324.2842594811778
 51
0.0000000000080735
  0
ARC
  5
178E
330
1E
100
AcDbEntity
  8
0
100
AcDbCircle
 10
4.410903259436052
 20
10.16528655974449
 30
0.0
 40
0.40431985910843
100
AcDbArc
 50
317.0300132606176
 51
0.0000000000240608
  0
ARC
  5
178F
330
1E
100
AcDbEntity
  8
0
100
AcDbCircle
 10
4.284446585481191
 20
10.16528655974449
 30
0.0
 40
0.4720921639652044
100
AcDbArc
 50
324.2842594811778
 51
0.0000000000080735
  0
ARC
  5
1790
330
1E
100
AcDbEntity
  8
0
100
AcDbCircle
 10
4.371903929338031
 20
10.16528655974449
 30
0.0
 40
0.40431985910843
100
AcDbArc
 50
317.0300132606176
 51
0.0000000000240608
  0
ARC
  5
1791
330
1E
100
AcDbEntity
  8
0
100
AcDbCircle
 10
4.245076507481369
 20
10.16528655974449
 30
0.0
 40
0.4720921639652044
100
AcDbArc
 50
324.2842594811778
 51
0.0000000000080735
  0
ARC
  5
1792
330
1E
100
AcDbEntity
  8
0
100
AcDbCircle
 10
4.332533851337982
 20
10.16528655974449
 30
0.0
 40
0.40431985910843
100
AcDbArc
 50
317.0300132606176
 51
0.0000000000240608
  0
ARC
  5
1793
330
1E
100
AcDbEntity
  8
0
100
AcDbCircle
 10
4.206077177383348
 20
10.16528655974449
 30
0.0
 40
0.4720921639652044
100
AcDbArc
 50
324.2842594811778
 51
0.0000000000080735
  0
ARC
  5
1794
330
1E
100
AcDbEntity
  8
0
100
AcDbCircle
 10
4.293534521240188
 20
10.16528655974449
 30
0.0
 40
0.40431985910843
100
AcDbArc
 50
317.0300132606176
 51
0.0000000000240608
  0
ARC
  5
1795
330
1E
100
AcDbEntity
  8
0
100
AcDbCircle
 10
4.167077847285553
 20
10.16528655974496
 30
0.0
 40
0.4720921639652044
100
AcDbArc
 50
324.2842594811778
 51
0.0000000000080735
  0
ARC
  5
1796
330
1E
100
AcDbEntity
  8
0
100
AcDbCircle
 10
4.254535191142393
 20
10.16528655974496
 30
0.0
 40
0.40431985910843
100
AcDbArc
 50
317.0300132606176
 51
0.0000000000240608
  0
ARC
  5
1797
330
1E
100
AcDbEntity
  8
0
100
AcDbCircle
 10
4.128078517187757
 20
10.16528655974496
 30
0.0
 40
0.4720921639652044
100
AcDbArc
 50
324.2842594811778
 51
0.0000000000080735
  0
ARC
  5
1798
330
1E
100
AcDbEntity
  8
0
100
AcDbCircle
 10
4.215535861044372
 20
10.16528655974496
 30
0.0
 40
0.40431985910843
100
AcDbArc
 50
317.0300132606176
 51
0.0000000000240608
  0
ARC
  5
1799
330
1E
100
AcDbEntity
  8
0
100
AcDbCircle
 10
4.088708439187712
 20
10.16528655974496
 30
0.0
 40
0.4720921639652044
100
AcDbArc
 50
324.2842594811778
 51
0.0000000000080735
  0
ARC
  5
179A
330
1E
100
AcDbEntity
  8
0
100
AcDbCircle
 10
4.176165783044551
 20
10.16528655974496
 30
0.0
 40
0.40431985910843
100
AcDbArc
 50
317.0300132606176
 51
0.0000000000240608
  0
ARC
  5
179B
330
1E
100
AcDbEntity
  8
0
100
AcDbCircle
 10
4.457869699703906
 20
10.16528655974496
 30
0.0
 40
0.4720921639652044
100
AcDbArc
 50
324.2842594811778
 51
0.0000000000080735
  0
ARC
  5
179C
330
1E
100
AcDbEntity
  8
0
100
AcDbCircle
 10
4.545327043560746
 20
10.16528655974496
 30
0.0
 40
0.40431985910843
100
AcDbArc
 50
317.0300132606176
 51
0.0000000000240608
  0
LINE
  5
179D
330
1E
100
AcDbEntity
  8
0
100
AcDbLine
 10
4.433011681782318
 20
9.889696013745087
 30
0.0
 11
4.841172272396534
 21
9.889696013745087
 31
0.0
  0
ARC
  5
179E
330
1E
100
AcDbEntity
  8
0
100
AcDbCircle
 10
4.844926676137447
 20
9.850325935745036
 30
0.0
 40
0.157480312
100
AcDbArc
 50
270.0
 51
358.0
  0
LINE
  5
179F
330
1E
100
AcDbEntity
  8
0
100
AcDbLine
 10
5.013501646713621
 20
10.16528655974496
 30
0.0
 11
5.002311055386369
 21
9.844829952115723
 31
0.0
  0
LINE
  5
17A0
330
1E
100
AcDbEntity
  8
0
100
AcDbLine
 10
4.442635515713162
 20
10.16528655974496
 30
0.0
 11
4.521801273054959
 21
10.16528655974496
 31
0.0
  0
LINE
  5
17A1
330
1E
100
AcDbEntity
  8
0
100
AcDbLine
 10
4.312079787525133
 20
9.692845623745306
 30
0.0
 11
4.844926676137447
 21
9.692845623745306
 31
0.0
  0
LINE
  5
17A8
330
1E
100
AcDbEntity
  8
0
100
AcDbLine
 10
4.124160202173925
 20
9.948751130744931
 30
0.0
 11
3.163107980713448
 21
9.948751130744931
 31
0.0
  0
LINE
  5
17A9
330
1E
100
AcDbEntity
  8
0
100
AcDbLine
 10
4.124160202173925
 20
9.692845623745306
 30
0.0
 11
4.124160202173925
 21
9.948751130744931
 31
0.0
  0
ARC
  5
17AB
330
1E
100
AcDbEntity
  8
0
100
AcDbCircle
 10
4.049709109089915
 20
10.16528655974496
 30
0.0
 40
0.4720921639652044
100
AcDbArc
 50
324.2842594811778
 51
0.0000000000080735
  0
ARC
  5
17AC
330
1E
100
AcDbEntity
  8
0
100
AcDbCircle
 10
4.137166452946528
 20
10.16528655974496
 30
0.0
 40
0.40431985910843
100
AcDbArc
 50
317.0300132606176
 51
0.0000000000240608
  0
LINE
  5
17AD
330
1E
100
AcDbEntity
  8
0
100
AcDbLine
 10
4.442635515713162
 20
10.16528655974496
 30
0.0
 11
4.430118071961715
 21
9.806833870022892
 31
0.0
  0
ARC
  5
17AE
330
1E
100
AcDbEntity
  8
0
100
AcDbCircle
 10
4.312079787525133
 20
9.810955857744991
 30
0.0
 40
0.118110234
100
AcDbArc
 50
270.0000000000035
 51
358.000000000004
  0
LINE
  5
17AF
330
1E
100
AcDbEntity
  8
0
100
AcDbLine
 10
4.312079787525133
 20
9.692845623745306
 30
0.0
 11
3.163107980713673
 21
9.692845623744851
 31
0.0
  0
LINE
  5
17B0
330
1E
100
AcDbEntity
  8
0
100
AcDbLine
 10
4.442635515713162
 20
10.16528655974496
 30
0.0
 11
3.163107980713673
 21
10.16528655974496
 31
0.0
  0
LINE
  5
17B3
330
1E
100
AcDbEntity
  8
0
100
AcDbLine
 10
2.202055759253198
 20
9.948751130744931
 30
0.0
 11
3.163107980713448
 21
9.948751130744931
 31
0.0
  0
LINE
  5
17B6
330
1E
100
AcDbEntity
  8
0
100
AcDbLine
 10
2.014136173901988
 20
9.692845623745306
 30
0.0
 11
3.163107980713448
 21
9.692845623744851
 31
0.0
  0
LINE
  5
17B7
330
1E
100
AcDbEntity
  8
0
100
AcDbLine
 10
1.88358044571396
 20
10.16528655974496
 30
0.0
 11
3.163107980713448
 21
10.16528655974496
 31
0.0
  0
LINE
  5
17BE
330
1E
100
AcDbEntity
  8
0
100
AcDbLine
 10
7.728676225821767
 20
18.23833604529345
 30
0.0
 11
7.689306147821723
 21
18.23833604529345
 31
0.0
  0
LINE
  5
17C1
330
1E
100
AcDbEntity
  8
0
100
AcDbLine
 10
7.728676225821767
 20
11.97849364329321
 30
0.0
 11
7.689306147821723
 21
11.97849364329321
 31
0.0
  0
ARC
  5
17C2
330
1E
100
AcDbEntity
  8
0
100
AcDbCircle
 10
7.728676225821767
 20
15.22463262663749
 30
0.0
 40
0.275590546
100
AcDbArc
 50
0.0
 51
90.0
  0
LINE
  5
17C3
330
1E
100
AcDbEntity
  8
0
100
AcDbLine
 10
8.004266771821642
 20
15.22463262663749
 30
0.0
 11
8.004266771821642
 21
12.62620747863754
 31
0.0
  0
LINE
  5
17C4
330
1E
100
AcDbEntity
  8
0
100
AcDbLine
 10
7.728676225821767
 20
15.50022317263783
 30
0.0
 11
7.728676225821767
 21
15.50022317263783
 31
0.0
  0
ARC
  5
17C5
330
1E
100
AcDbEntity
  8
0
100
AcDbCircle
 10
7.728676225821767
 20
12.62620747863754
 30
0.0
 40
0.275590546
100
AcDbArc
 50
270.0
 51
359.9999999999996
  0
LINE
  5
17C6
330
1E
100
AcDbEntity
  8
0
100
AcDbLine
 10
7.728676225821767
 20
12.35061693263769
 30
0.0
 11
7.728676225821767
 21
12.35061693263769
 31
0.0
  0
LINE
  5
17C7
330
1E
100
AcDbEntity
  8
0
100
AcDbLine
 10
8.004266771821642
 20
15.19707357203769
 30
0.0
 11
7.728676225821767
 21
15.19707357203769
 31
0.0
  0
LINE
  5
17C8
330
1E
100
AcDbEntity
  8
0
100
AcDbLine
 10
8.004266771821642
 20
15.04746727563751
 30
0.0
 11
7.728676225821767
 21
15.04746727563751
 31
0.0
  0
LINE
  5
17C9
330
1E
100
AcDbEntity
  8
0
100
AcDbLine
 10
8.004266771821642
 20
14.89786097923779
 30
0.0
 11
7.728676225821767
 21
14.89786097923779
 31
0.0
  0
LINE
  5
17CA
330
1E
100
AcDbEntity
  8
0
100
AcDbLine
 10
8.004266771821642
 20
14.74825468283761
 30
0.0
 11
7.728676225821767
 21
14.74825468283761
 31
0.0
  0
LINE
  5
17CB
330
1E
100
AcDbEntity
  8
0
100
AcDbLine
 10
8.004266771821642
 20
14.59864838643743
 30
0.0
 11
7.728676225821767
 21
14.59864838643743
 31
0.0
  0
LINE
  5
17CC
330
1E
100
AcDbEntity
  8
0
100
AcDbLine
 10
8.004266771821642
 20
14.4490420900377
 30
0.0
 11
7.728676225821767
 21
14.4490420900377
 31
0.0
  0
LINE
  5
17CD
330
1E
100
AcDbEntity
  8
0
100
AcDbLine
 10
8.004266771821642
 20
14.29943579363752
 30
0.0
 11
7.728676225821767
 21
14.29943579363752
 31
0.0
  0
LINE
  5
17CE
330
1E
100
AcDbEntity
  8
0
100
AcDbLine
 10
8.004266771821642
 20
14.1498294972378
 30
0.0
 11
7.728676225821767
 21
14.1498294972378
 31
0.0
  0
LINE
  5
17CF
330
1E
100
AcDbEntity
  8
0
100
AcDbLine
 10
8.004266771821642
 20
14.00022320083762
 30
0.0
 11
7.728676225821767
 21
14.00022320083762
 31
0.0
  0
LINE
  5
17D0
330
1E
100
AcDbEntity
  8
0
100
AcDbLine
 10
8.004266771821642
 20
12.65376653323737
 30
0.0
 11
7.728676225821767
 21
12.65376653323737
 31
0.0
  0
LINE
  5
17D1
330
1E
100
AcDbEntity
  8
0
100
AcDbLine
 10
8.004266771821642
 20
12.80337282963755
 30
0.0
 11
7.728676225821767
 21
12.80337282963755
 31
0.0
  0
LINE
  5
17D2
330
1E
100
AcDbEntity
  8
0
100
AcDbLine
 10
8.004266771821642
 20
12.95297912603773
 30
0.0
 11
7.728676225821767
 21
12.95297912603773
 31
0.0
  0
LINE
  5
17D3
330
1E
100
AcDbEntity
  8
0
100
AcDbLine
 10
8.004266771821642
 20
13.10258542243744
 30
0.0
 11
7.728676225821767
 21
13.10258542243744
 31
0.0
  0
LINE
  5
17D4
330
1E
100
AcDbEntity
  8
0
100
AcDbLine
 10
8.004266771821642
 20
13.25219171883763
 30
0.0
 11
7.728676225821767
 21
13.25219171883763
 31
0.0
  0
LINE
  5
17D5
330
1E
100
AcDbEntity
  8
0
100
AcDbLine
 10
8.004266771821642
 20
13.40179801523781
 30
0.0
 11
7.728676225821767
 21
13.40179801523781
 31
0.0
  0
LINE
  5
17D6
330
1E
100
AcDbEntity
  8
0
100
AcDbLine
 10
8.004266771821642
 20
13.55140431163754
 30
0.0
 11
7.728676225821767
 21
13.55140431163754
 31
0.0
  0
LINE
  5
17D7
330
1E
100
AcDbEntity
  8
0
100
AcDbLine
 10
8.004266771821642
 20
13.70101060803772
 30
0.0
 11
7.728676225821767
 21
13.70101060803772
 31
0.0
  0
LINE
  5
17D8
330
1E
100
AcDbEntity
  8
0
100
AcDbLine
 10
8.004266771821642
 20
13.85061690443744
 30
0.0
 11
7.728676225821767
 21
13.85061690443744
 31
0.0
  0
ARC
  5
17D9
330
1E
100
AcDbEntity
  8
0
100
AcDbCircle
 10
8.043636849821691
 20
12.12738357486914
 30
0.0
 40
0.157480312
100
AcDbArc
 50
271.9999999999903
 51
0.0000000000001654
  0
LINE
  5
17DA
330
1E
100
AcDbEntity
  8
0
100
AcDbLine
 10
7.728676225821767
 20
11.95880860429342
 30
0.0
 11
8.049132833451007
 21
11.9699991956202
 31
0.0
  0
LINE
  5
17DB
330
1E
100
AcDbEntity
  8
0
100
AcDbLine
 10
7.728676225821767
 20
18.25802108429324
 30
0.0
 11
8.049132833451007
 21
18.24683049296599
 31
0.0
  0
ARC
  5
17DC
330
1E
100
AcDbEntity
  8
0
100
AcDbCircle
 10
8.043636849821691
 20
18.08944611371707
 30
0.0
 40
0.157480312
100
AcDbArc
 50
0.0000000000001527
 51
88.00000000000379
  0
LINE
  5
17DD
330
1E
100
AcDbEntity
  8
0
100
AcDbLine
 10
8.201117161821652
 20
18.08944611371707
 30
0.0
 11
8.201117161821652
 21
12.12738357486914
 31
0.0
  0
LINE
  5
17E0
330
1E
100
AcDbEntity
  8
0
100
AcDbLine
 10
7.728676225821767
 20
18.25802108429324
 30
0.0
 11
7.728676225821767
 21
11.95880860429342
 31
0.0
  0
ARC
  5
17E1
330
1E
100
AcDbEntity
  8
0
100
AcDbCircle
 10
8.043636849821691
 20
12.12738357486914
 30
0.0
 40
0.157480312
100
AcDbArc
 50
271.9999999999903
 51
0.0000000000001654
  0
ARC
  5
17E2
330
1E
100
AcDbEntity
  8
0
100
AcDbCircle
 10
8.043636849821691
 20
18.08944611371707
 30
0.0
 40
0.157480312
100
AcDbArc
 50
0.0000000000001527
 51
88.00000000000379
  0
LINE
  5
17E3
330
1E
100
AcDbEntity
  8
0
100
AcDbLine
 10
8.004266771821642
 20
12.65376653323737
 30
0.0
 11
7.728676225821767
 21
12.65376653323737
 31
0.0
  0
LINE
  5
17E4
330
1E
100
AcDbEntity
  8
0
100
AcDbLine
 10
8.004266771821642
 20
12.80337282963755
 30
0.0
 11
7.728676225821767
 21
12.80337282963755
 31
0.0
  0
LINE
  5
17E5
330
1E
100
AcDbEntity
  8
0
100
AcDbLine
 10
8.004266771821642
 20
12.95297912603726
 30
0.0
 11
7.728676225821767
 21
12.95297912603726
 31
0.0
  0
LINE
  5
17E6
330
1E
100
AcDbEntity
  8
0
100
AcDbLine
 10
8.004266771821642
 20
13.10258542243744
 30
0.0
 11
7.728676225821767
 21
13.10258542243744
 31
0.0
  0
LINE
  5
17E7
330
1E
100
AcDbEntity
  8
0
100
AcDbLine
 10
8.004266771821642
 20
13.25219171883763
 30
0.0
 11
7.728676225821767
 21
13.25219171883763
 31
0.0
  0
LINE
  5
17E8
330
1E
100
AcDbEntity
  8
0
100
AcDbLine
 10
8.004266771821642
 20
13.40179801523736
 30
0.0
 11
7.728676225821767
 21
13.40179801523736
 31
0.0
  0
LINE
  5
17E9
330
1E
100
AcDbEntity
  8
0
100
AcDbLine
 10
8.004266771821642
 20
13.55140431163754
 30
0.0
 11
7.728676225821767
 21
13.55140431163754
 31
0.0
  0
LINE
  5
17EA
330
1E
100
AcDbEntity
  8
0
100
AcDbLine
 10
8.004266771821642
 20
13.70101060803772
 30
0.0
 11
7.728676225821767
 21
13.70101060803772
 31
0.0
  0
LINE
  5
17EB
330
1E
100
AcDbEntity
  8
0
100
AcDbLine
 10
7.728676225821767
 20
18.23833604529299
 30
0.0
 11
7.689306147821723
 21
18.23833604529299
 31
0.0
  0
LINE
  5
17EE
330
1E
100
AcDbEntity
  8
0
100
AcDbLine
 10
7.728676225821767
 20
11.97849364329321
 30
0.0
 11
7.689306147821723
 21
11.97849364329321
 31
0.0
  0
LINE
  5
17F1
330
1E
100
AcDbEntity
  8
0
100
AcDbLine
 10
8.004266771821642
 20
15.19707357203769
 30
0.0
 11
7.728676225821767
 21
15.19707357203769
 31
0.0
  0
LINE
  5
17F2
330
1E
100
AcDbEntity
  8
0
100
AcDbLine
 10
8.004266771821642
 20
15.04746727563751
 30
0.0
 11
7.728676225821767
 21
15.04746727563751
 31
0.0
  0
LINE
  5
17F3
330
1E
100
AcDbEntity
  8
0
100
AcDbLine
 10
8.004266771821642
 20
14.89786097923732
 30
0.0
 11
7.728676225821767
 21
14.89786097923732
 31
0.0
  0
LINE
  5
17F4
330
1E
100
AcDbEntity
  8
0
100
AcDbLine
 10
8.004266771821642
 20
14.74825468283761
 30
0.0
 11
7.728676225821767
 21
14.74825468283761
 31
0.0
  0
LINE
  5
17F5
330
1E
100
AcDbEntity
  8
0
100
AcDbLine
 10
8.004266771821642
 20
14.59864838643743
 30
0.0
 11
7.728676225821767
 21
14.59864838643743
 31
0.0
  0
LINE
  5
17F6
330
1E
100
AcDbEntity
  8
0
100
AcDbLine
 10
8.004266771821642
 20
14.4490420900377
 30
0.0
 11
7.728676225821767
 21
14.4490420900377
 31
0.0
  0
LINE
  5
17F7
330
1E
100
AcDbEntity
  8
0
100
AcDbLine
 10
8.004266771821642
 20
14.29943579363752
 30
0.0
 11
7.728676225821767
 21
14.29943579363752
 31
0.0
  0
LINE
  5
17F8
330
1E
100
AcDbEntity
  8
0
100
AcDbLine
 10
8.004266771821642
 20
14.14982949723734
 30
0.0
 11
7.728676225821767
 21
14.14982949723734
 31
0.0
  0
LINE
  5
17F9
330
1E
100
AcDbEntity
  8
0
100
AcDbLine
 10
8.004266771821642
 20
13.85061690443744
 30
0.0
 11
7.728676225821767
 21
13.85061690443744
 31
0.0
  0
LINE
  5
17FA
330
1E
100
AcDbEntity
  8
0
100
AcDbLine
 10
8.004266771821642
 20
14.00022320083762
 30
0.0
 11
7.728676225821767
 21
14.00022320083762
 31
0.0
  0
ARC
  5
17FB
330
1E
100
AcDbEntity
  8
0
100
AcDbCircle
 10
7.728676225821767
 20
12.62620747863754
 30
0.0
 40
0.275590546
100
AcDbArc
 50
270.0
 51
359.9999999999996
  0
ARC
  5
17FC
330
1E
100
AcDbEntity
  8
0
100
AcDbCircle
 10
7.728676225821767
 20
15.22463262663749
 30
0.0
 40
0.275590546
100
AcDbArc
 50
0.0
 51
90.0
  0
LINE
  5
17FD
330
1E
100
AcDbEntity
  8
0
100
AcDbLine
 10
8.004266771821642
 20
15.22463262663749
 30
0.0
 11
8.004266771821642
 21
12.62620747863754
 31
0.0
  0
LINE
  5
17FE
330
1E
100
AcDbEntity
  8
0
100
AcDbLine
 10
7.728676225821767
 20
12.35061693263769
 30
0.0
 11
7.728676225821767
 21
12.35061693263769
 31
0.0
  0
LINE
  5
17FF
330
1E
100
AcDbEntity
  8
0
100
AcDbLine
 10
7.728676225821767
 20
15.50022317263737
 30
0.0
 11
7.728676225821767
 21
15.50022317263737
 31
0.0
  0
LINE
  5
1800
330
1E
100
AcDbEntity
  8
0
100
AcDbLine
 10
7.728676225821767
 20
11.95880860429296
 30
0.0
 11
8.049132833451007
 21
11.9699991956202
 31
0.0
  0
LINE
  5
1801
330
1E
100
AcDbEntity
  8
0
100
AcDbLine
 10
7.728676225821767
 20
18.25802108429324
 30
0.0
 11
8.049132833451007
 21
18.24683049296599
 31
0.0
  0
LINE
  5
1802
330
1E
100
AcDbEntity
  8
0
100
AcDbLine
 10
8.201117161821652
 20
18.08944611371707
 30
0.0
 11
8.201117161821652
 21
12.12738357486914
 31
0.0
  0
LINE
  5
1803
330
1E
100
AcDbEntity
  8
0
100
AcDbLine
 10
7.728676225821767
 20
18.25802108429324
 30
0.0
 11
7.728676225821767
 21
11.95880860429296
 31
0.0
  0
ARC
  5
1808
330
1E
100
AcDbEntity
  8
0
100
AcDbCircle
 10
4.23227298875008
 20
19.78860307881443
 30
0.0
 40
0.098425195
100
AcDbArc
 50
270.0
 51
0.0
  0
ARC
  5
1809
330
1E
100
AcDbEntity
  8
0
100
AcDbCircle
 10
2.196839956149688
 20
19.78860307881443
 30
0.0
 40
0.098425195
100
AcDbArc
 50
180.0
 51
270.0
  0
LINE
  5
180A
330
1E
100
AcDbEntity
  8
0
100
AcDbLine
 10
4.330698183749973
 20
19.95395740641417
 30
0.0
 11
4.330698183749973
 21
19.78860307881443
 31
0.0
  0
LINE
  5
180B
330
1E
100
AcDbEntity
  8
0
100
AcDbLine
 10
2.09841476114934
 20
19.95395740641417
 30
0.0
 11
2.09841476114934
 21
19.78860307881443
 31
0.0
  0
LINE
  5
180C
330
1E
100
AcDbEntity
  8
0
100
AcDbLine
 10
4.23227298875008
 20
19.69017788381455
 30
0.0
 11
2.196839956149688
 21
19.69017788381455
 31
0.0
  0
ARC
  5
180D
330
1E
100
AcDbEntity
  8
0
100
AcDbCircle
 10
1.532737777025429
 20
19.63899678241426
 30
0.0
 40
0.157480312
100
AcDbArc
 50
182.0000000000039
 51
270.0
  0
LINE
  5
180E
330
1E
100
AcDbEntity
  8
0
100
AcDbLine
 10
1.364162806449711
 20
19.95395740641417
 30
0.0
 11
1.375353397776507
 21
19.63350079878494
 31
0.0
  0
ARC
  5
180F
330
1E
100
AcDbEntity
  8
0
100
AcDbCircle
 10
4.896375167873427
 20
19.63899678241426
 30
0.0
 40
0.157480312
100
AcDbArc
 50
270.0
 51
357.999999999996
  0
LINE
  5
1810
330
1E
100
AcDbEntity
  8
0
100
AcDbLine
 10
5.064950138449603
 20
19.95395740641417
 30
0.0
 11
5.053759547122353
 21
19.63350079878494
 31
0.0
  0
LINE
  5
1811
330
1E
100
AcDbEntity
  8
0
100
AcDbLine
 10
4.896375167873427
 20
19.48151647041451
 30
0.0
 11
1.532737777025429
 21
19.48151647041451
 31
0.0
  0
LINE
  5
1812
330
1E
100
AcDbEntity
  8
0
100
AcDbLine
 10
2.09841476114934
 20
19.95395740641417
 30
0.0
 11
1.364162806449711
 21
19.95395740641417
 31
0.0
  0
LINE
  5
1813
330
1E
100
AcDbEntity
  8
0
100
AcDbLine
 10
5.064950138449603
 20
19.95395740641417
 30
0.0
 11
4.330698183749973
 21
19.95395740641417
 31
0.0
  0
LINE
  5
1818
330
1E
100
AcDbEntity
  8
0
100
AcDbLine
 10
1.38384784544962
 20
19.99332748441423
 30
0.0
 11
1.38384784544962
 21
19.95395740641417
 31
0.0
  0
LINE
  5
1819
330
1E
100
AcDbEntity
  8
0
100
AcDbLine
 10
5.045265099449693
 20
19.99332748441423
 30
0.0
 11
5.045265099449693
 21
19.95395740641417
 31
0.0
  0
ARC
  5
1823
330
1E
100
AcDbEntity
  8
0
100
AcDbCircle
 10
4.232272988749741
 20
20.15868181201442
 30
0.0
 40
0.098425195
100
AcDbArc
 50
0.0
 51
90.0
  0
ARC
  5
1824
330
1E
100
AcDbEntity
  8
0
100
AcDbCircle
 10
2.196839956149119
 20
20.15868181201442
 30
0.0
 40
0.098425195
100
AcDbArc
 50
90.0
 51
180.0
  0
LINE
  5
1825
330
1E
100
AcDbEntity
  8
0
100
AcDbLine
 10
4.330698183749627
 20
19.99332748441423
 30
0.0
 11
4.330698183749631
 21
20.15868181201442
 31
0.0
  0
LINE
  5
1826
330
1E
100
AcDbEntity
  8
0
100
AcDbLine
 10
2.098414761149228
 20
19.99332748441423
 30
0.0
 11
2.098414761149228
 21
20.15868181201442
 31
0.0
  0
LINE
  5
1827
330
1E
100
AcDbEntity
  8
0
100
AcDbLine
 10
2.196839956149119
 20
20.25710700701432
 30
0.0
 11
4.232272988749741
 21
20.25710700701432
 31
0.0
  0
LINE
  5
1828
330
1E
100
AcDbEntity
  8
0
100
AcDbLine
 10
4.330698183749631
 20
19.99332748441423
 30
0.0
 11
5.064950138449716
 21
19.99332748441423
 31
0.0
  0
ARC
  5
182C
330
1E
100
AcDbEntity
  8
0
100
AcDbCircle
 10
4.896375167873769
 20
20.30828810841414
 30
0.0
 40
0.157480312
100
AcDbArc
 50
2.000000000000226
 51
90.0
  0
ARC
  5
182D
330
1E
100
AcDbEntity
  8
0
100
AcDbCircle
 10
1.532737777025771
 20
20.30828810841414
 30
0.0
 40
0.157480312
100
AcDbArc
 50
90.0
 51
178.0
  0
LINE
  5
182E
330
1E
100
AcDbEntity
  8
0
100
AcDbLine
 10
5.064950138449716
 20
19.99332748441423
 30
0.0
 11
5.053759547122695
 21
20.31378409204346
 31
0.0
  0
LINE
  5
182F
330
1E
100
AcDbEntity
  8
0
100
AcDbLine
 10
1.364162806449596
 20
19.99332748441423
 30
0.0
 11
1.375353397776846
 21
20.31378409204346
 31
0.0
  0
LINE
  5
1830
330
1E
100
AcDbEntity
  8
0
100
AcDbLine
 10
1.532737777025771
 20
20.46576842041434
 30
0.0
 11
4.896375167873769
 21
20.46576842041434
 31
0.0
  0
LINE
  5
1831
330
1E
100
AcDbEntity
  8
0
100
AcDbLine
 10
1.364162806449596
 20
19.99332748441423
 30
0.0
 11
2.098414761149228
 21
19.99332748441423
 31
0.0
  0
ARC
  5
1835
330
1E
100
AcDbEntity
  8
0
100
AcDbCircle
 10
4.517445645430369
 20
5.265771739575476
 30
0.0
 40
0.40433070106
100
AcDbArc
 50
343.502114439638
 51
25.08971119252027
  0
ARC
  5
1836
330
1E
100
AcDbEntity
  8
0
100
AcDbCircle
 10
4.132847348056882
 20
2.560377519363093
 30
0.0
 40
0.40433070106
100
AcDbArc
 50
318.3624100585586
 51
1.762141562483069
  0
ARC
  5
1837
330
1E
100
AcDbEntity
  8
0
100
AcDbCircle
 10
1.793557065467629
 20
5.265771739574896
 30
0.0
 40
0.40433070106
100
AcDbArc
 50
154.9102888074795
 51
196.497885560362
  0
ARC
  5
1838
330
1E
100
AcDbEntity
  8
0
100
AcDbCircle
 10
2.178155362840925
 20
2.560377519363093
 30
0.0
 40
0.40433070106
100
AcDbArc
 50
178.2378584375169
 51
221.6375899414413
  0
LWPOLYLINE
  5
1839
330
1E
100
AcDbEntity
  8
0
100
AcDbPolyline
 90
       17
 70
     0
 43
0.0
 10
1.999989566148768
 20
8.126379018432992
 10
1.501958079448966
 20
8.126379018432992
 42
0.4142135623730618
 10
1.375973829849272
 20
8.000394768832839
 10
1.375973829849272
 20
5.866614586790994
 42
0.0793414481584313
 10
1.38223933080485
 20
5.827378731118635
 42
-0.0793414481584527
 10
1.946839960849274
 20
2.291733458832815
 10
1.946839960849274
 20
2.094883068833034
 42
0.4142135623730618
 10
2.07282421044897
 20
1.968898819232883
 10
3.155501355448676
 20
1.968898819232883
 10
4.238178500448839
 20
1.968898819232883
 42
0.4142135623731036
 10
4.36416275004899
 20
2.094883068832579
 10
4.36416275004899
 20
2.291733458832815
 42
-0.0793414481584524
 10
4.928763380092958
 20
5.827378731118635
 42
0.0793414481584194
 10
4.935028881048991
 20
5.866614586790994
 10
4.935028881048991
 20
8.000394768832839
 42
0.4142135623731033
 10
4.809044631449294
 20
8.126379018432537
 10
4.31101314474904
 20
8.126379018432537
  0
LINE
  5
183A
330
1E
100
AcDbEntity
  8
0
100
AcDbLine
 10
2.137784839148705
 20
8.094882956032954
 30
0.0
 11
2.137784839148705
 21
8.055512878032907
 31
0.0
  0
LINE
  5
183B
330
1E
100
AcDbEntity
  8
0
100
AcDbLine
 10
2.137784839148705
 20
8.197245158833077
 30
0.0
 11
2.137784839148705
 21
8.157875080833028
 31
0.0
  0
LINE
  5
183C
330
1E
100
AcDbEntity
  8
0
100
AcDbLine
 10
4.173217871749101
 20
8.094882956032954
 30
0.0
 11
4.173217871749101
 21
8.055512878032907
 31
0.0
  0
LINE
  5
183D
330
1E
100
AcDbEntity
  8
0
100
AcDbLine
 10
4.173217871749101
 20
8.197245158833077
 30
0.0
 11
4.173217871749101
 21
8.157875080833028
 31
0.0
  0
LINE
  5
183E
330
1E
100
AcDbEntity
  8
0
100
AcDbLine
 10
3.155501355449131
 20
8.055512878032907
 30
0.0
 11
4.271643066749446
 21
8.055512878032907
 31
0.0
  0
LINE
  5
183F
330
1E
100
AcDbEntity
  8
0
100
AcDbLine
 10
3.155501355448676
 20
8.055512878032907
 30
0.0
 11
2.039359644148815
 21
8.055512878032907
 31
0.0
  0
LINE
  5
1840
330
1E
100
AcDbEntity
  8
0
100
AcDbLine
 10
3.155501355449131
 20
8.094882956032954
 30
0.0
 11
4.311013144749495
 21
8.094882956032954
 31
0.0
  0
LINE
  5
1841
330
1E
100
AcDbEntity
  8
0
100
AcDbLine
 10
3.155501355448676
 20
8.094882956032954
 30
0.0
 11
1.999989566148768
 21
8.094882956032954
 31
0.0
  0
LINE
  5
1842
330
1E
100
AcDbEntity
  8
0
100
AcDbLine
 10
3.155501355449131
 20
8.197245158833077
 30
0.0
 11
4.533454085449418
 21
8.197245158832622
 31
0.0
  0
LINE
  5
1843
330
1E
100
AcDbEntity
  8
0
100
AcDbLine
 10
1.999989566148768
 20
8.157875080833028
 30
0.0
 11
1.999989566148768
 21
8.094882956032954
 31
0.0
  0
LINE
  5
1844
330
1E
100
AcDbEntity
  8
0
100
AcDbLine
 10
3.155501355448676
 20
8.157875080833028
 30
0.0
 11
1.999989566148768
 21
8.157875080833028
 31
0.0
  0
LINE
  5
1845
330
1E
100
AcDbEntity
  8
0
100
AcDbLine
 10
2.039359644148815
 20
8.094882956032954
 30
0.0
 11
2.039359644148815
 21
8.055512878032907
 31
0.0
  0
LINE
  5
1846
330
1E
100
AcDbEntity
  8
0
100
AcDbLine
 10
2.039359644148815
 20
8.157875080833028
 30
0.0
 11
1.999989566148768
 21
8.157875080833028
 31
0.0
  0
LINE
  5
1847
330
1E
100
AcDbEntity
  8
0
100
AcDbLine
 10
2.039359644148815
 20
8.197245158833077
 30
0.0
 11
2.039359644148815
 21
8.157875080833028
 31
0.0
  0
LINE
  5
1848
330
1E
100
AcDbEntity
  8
0
100
AcDbLine
 10
2.039359644148815
 20
8.094882956032954
 30
0.0
 11
2.039359644148815
 21
8.059449885832684
 31
0.0
  0
LINE
  5
1849
330
1E
100
AcDbEntity
  8
0
100
AcDbLine
 10
2.039359644148815
 20
8.197245158833077
 30
0.0
 11
2.039359644148815
 21
8.157875080833028
 31
0.0
  0
LINE
  5
184A
330
1E
100
AcDbEntity
  8
0
100
AcDbLine
 10
2.039359644148815
 20
8.197245158833077
 30
0.0
 11
2.039359644148815
 21
8.157875080833028
 31
0.0
  0
LINE
  5
184B
330
1E
100
AcDbEntity
  8
0
100
AcDbLine
 10
4.311013144749495
 20
8.157875080833028
 30
0.0
 11
4.311013144749495
 21
8.094882956032954
 31
0.0
  0
LINE
  5
184C
330
1E
100
AcDbEntity
  8
0
100
AcDbLine
 10
3.155501355449131
 20
8.157875080833028
 30
0.0
 11
4.311013144749495
 21
8.157875080833028
 31
0.0
  0
LINE
  5
184D
330
1E
100
AcDbEntity
  8
0
100
AcDbLine
 10
4.271643066749446
 20
8.094882956032954
 30
0.0
 11
4.271643066749446
 21
8.055512878032907
 31
0.0
  0
LINE
  5
184E
330
1E
100
AcDbEntity
  8
0
100
AcDbLine
 10
4.271643066749446
 20
8.157875080833028
 30
0.0
 11
4.311013144749495
 21
8.157875080833028
 31
0.0
  0
LINE
  5
184F
330
1E
100
AcDbEntity
  8
0
100
AcDbLine
 10
4.271643066749446
 20
8.197245158833077
 30
0.0
 11
4.271643066749446
 21
8.157875080833028
 31
0.0
  0
LINE
  5
1850
330
1E
100
AcDbEntity
  8
0
100
AcDbLine
 10
4.271643066749446
 20
8.094882956032954
 30
0.0
 11
4.271643066749446
 21
8.059449885832684
 31
0.0
  0
LINE
  5
1851
330
1E
100
AcDbEntity
  8
0
100
AcDbLine
 10
4.271643066749446
 20
8.197245158833077
 30
0.0
 11
4.271643066749446
 21
8.157875080833028
 31
0.0
  0
LINE
  5
1852
330
1E
100
AcDbEntity
  8
0
100
AcDbLine
 10
4.271643066749446
 20
8.197245158833077
 30
0.0
 11
4.271643066749446
 21
8.157875080833028
 31
0.0
  0
LINE
  5
1853
330
1E
100
AcDbEntity
  8
0
100
AcDbLine
 10
1.777548625449298
 20
8.197245158833077
 30
0.0
 11
3.155501355449131
 21
8.197245158833077
 31
0.0
  0
CIRCLE
  5
1854
330
1E
100
AcDbEntity
  8
0
100
AcDbCircle
 10
4.041328110449057
 20
2.685434238835107
 30
0.0
 40
0.0433070858
  0
CIRCLE
  5
1855
330
1E
100
AcDbEntity
  8
0
100
AcDbCircle
 10
4.041328110449057
 20
2.685434238835107
 30
0.0
 40
0.118110234
  0
CIRCLE
  5
1856
330
1E
100
AcDbEntity
  8
0
100
AcDbCircle
 10
2.269674600448752
 20
2.685434238835107
 30
0.0
 40
0.0433070858
  0
CIRCLE
  5
1857
330
1E
100
AcDbEntity
  8
0
100
AcDbCircle
 10
2.269674600448752
 20
2.685434238835107
 30
0.0
 40
0.118110234
  0
CIRCLE
  5
1858
330
1E
100
AcDbEntity
  8
0
100
AcDbCircle
 10
4.435028890449075
 20
5.441339698834773
 30
0.0
 40
0.0433070858
  0
CIRCLE
  5
1859
330
1E
100
AcDbEntity
  8
0
100
AcDbCircle
 10
4.435028890449075
 20
5.441339698834773
 30
0.0
 40
0.118110234
  0
CIRCLE
  5
185A
330
1E
100
AcDbEntity
  8
0
100
AcDbCircle
 10
4.435028890449075
 20
7.409843598834861
 30
0.0
 40
0.0433070858
  0
CIRCLE
  5
185B
330
1E
100
AcDbEntity
  8
0
100
AcDbCircle
 10
4.435028890449075
 20
7.409843598834861
 30
0.0
 40
0.118110234
  0
CIRCLE
  5
185C
330
1E
100
AcDbEntity
  8
0
100
AcDbCircle
 10
1.875973820449188
 20
5.441339698834773
 30
0.0
 40
0.0433070858
  0
CIRCLE
  5
185D
330
1E
100
AcDbEntity
  8
0
100
AcDbCircle
 10
1.875973820449188
 20
5.441339698834773
 30
0.0
 40
0.118110234
  0
CIRCLE
  5
185E
330
1E
100
AcDbEntity
  8
0
100
AcDbCircle
 10
1.875973820449188
 20
7.409843598834861
 30
0.0
 40
0.0433070858
  0
CIRCLE
  5
185F
330
1E
100
AcDbEntity
  8
0
100
AcDbCircle
 10
1.875973820449188
 20
7.409843598834861
 30
0.0
 40
0.118110234
  0
CIRCLE
  5
1860
330
1E
100
AcDbEntity
  8
0
100
AcDbCircle
 10
3.84447772044882
 20
2.21299330283272
 30
0.0
 40
0.05019684945
  0
CIRCLE
  5
1861
330
1E
100
AcDbEntity
  8
0
100
AcDbCircle
 10
3.84447772044882
 20
2.21299330283272
 30
0.0
 40
0.118110234
  0
CIRCLE
  5
1862
330
1E
100
AcDbEntity
  8
0
100
AcDbCircle
 10
2.466524990448988
 20
2.21299330283272
 30
0.0
 40
0.05019684945
  0
CIRCLE
  5
1863
330
1E
100
AcDbEntity
  8
0
100
AcDbCircle
 10
2.466524990448988
 20
2.21299330283272
 30
0.0
 40
0.118110234
  0
CIRCLE
  5
1864
330
1E
100
AcDbEntity
  8
0
100
AcDbCircle
 10
4.533454085449418
 20
7.803544378832602
 30
0.0
 40
0.05019684945
  0
CIRCLE
  5
1865
330
1E
100
AcDbEntity
  8
0
100
AcDbCircle
 10
1.777548625449298
 20
7.803544378833057
 30
0.0
 40
0.05019684945
  0
CIRCLE
  5
1866
330
1E
100
AcDbEntity
  8
0
100
AcDbCircle
 10
4.533454085449418
 20
7.803544378832602
 30
0.0
 40
0.118110234
  0
CIRCLE
  5
1867
330
1E
100
AcDbEntity
  8
0
100
AcDbCircle
 10
1.777548625449298
 20
7.803544378833057
 30
0.0
 40
0.118110234
  0
LINE
  5
1868
330
1E
100
AcDbEntity
  8
0
100
AcDbLine
 10
4.540245189997903
 20
3.041809496977286
 30
0.0
 11
4.538906856813126
 21
3.041809496977286
 31
0.0
  0
LINE
  5
1869
330
1E
100
AcDbEntity
  8
0
100
AcDbLine
 10
4.564884857945116
 20
3.34102208977719
 30
0.0
 11
4.563015488991139
 21
3.34102208977719
 31
0.0
  0
LINE
  5
186A
330
1E
100
AcDbEntity
  8
0
100
AcDbLine
 10
4.597627771889847
 20
3.640234682577093
 30
0.0
 11
4.595223290619513
 21
3.640234682577093
 31
0.0
  0
LINE
  5
186B
330
1E
100
AcDbEntity
  8
0
100
AcDbLine
 10
4.435441885535283
 20
2.289841007177066
 30
0.0
 11
4.43502889044953
 21
2.289841007177066
 31
0.0
  0
LINE
  5
186C
330
1E
100
AcDbEntity
  8
0
100
AcDbLine
 10
4.437800839142028
 20
2.443384311377021
 30
0.0
 11
4.436048178585449
 21
2.443384311377021
 31
0.0
  0
LINE
  5
186D
330
1E
100
AcDbEntity
  8
0
100
AcDbLine
 10
4.638545780661161
 20
3.939447275377451
 30
0.0
 11
4.635600881990511
 21
3.939447275377451
 31
0.0
  0
LINE
  5
186E
330
1E
100
AcDbEntity
  8
0
100
AcDbLine
 10
4.687729871953023
 20
4.238659868177356
 30
0.0
 11
4.684237962433826
 21
4.238659868177356
 31
0.0
  0
LINE
  5
186F
330
1E
100
AcDbEntity
  8
0
100
AcDbLine
 10
4.745291211734866
 20
4.537872460977261
 30
0.0
 11
4.741244333386247
 21
4.537872460977261
 31
0.0
  0
LINE
  5
1870
330
1E
100
AcDbEntity
  8
0
100
AcDbLine
 10
4.811362448571117
 20
4.837085053777165
 30
0.0
 11
4.806751184244375
 21
4.837085053777165
 31
0.0
  0
LINE
  5
1871
330
1E
100
AcDbEntity
  8
0
100
AcDbLine
 10
4.886099319900266
 20
5.136297646577521
 30
0.0
 11
4.880912677442438
 21
5.136297646577521
 31
0.0
  0
ARC
  5
1872
330
1E
100
AcDbEntity
  8
0
100
AcDbCircle
 10
15.71693201801894
 20
2.291733458832815
 30
0.0
 40
11.20316297156963
100
AcDbArc
 50
165.2911563659302
 51
166.08080077446
  0
ARC
  5
1873
330
1E
100
AcDbEntity
  8
0
100
AcDbCircle
 10
15.71693201801894
 20
2.291733458832815
 30
0.0
 40
11.20316297156963
100
AcDbArc
 50
166.867757046721
 51
167.6521994587778
  0
ARC
  5
1874
330
1E
100
AcDbEntity
  8
0
100
AcDbCircle
 10
15.71693201801894
 20
2.291733458832815
 30
0.0
 40
11.20316297156963
100
AcDbArc
 50
168.4342976431049
 51
169.2142169714181
  0
ARC
  5
1875
330
1E
100
AcDbEntity
  8
0
100
AcDbCircle
 10
15.71693201801894
 20
2.291733458832815
 30
0.0
 40
11.20316297156963
100
AcDbArc
 50
169.9921189149264
 51
170.7681613840449
  0
ARC
  5
1876
330
1E
100
AcDbEntity
  8
0
100
AcDbCircle
 10
15.71693201801894
 20
2.291733458832815
 30
0.0
 40
11.20316297156963
100
AcDbArc
 50
171.5424990500076
 51
172.315283649929
  0
ARC
  5
1877
330
1E
100
AcDbEntity
  8
0
100
AcDbCircle
 10
15.71693201801894
 20
2.291733458832815
 30
0.0
 40
11.20316297156963
100
AcDbArc
 50
173.0866642776025
 51
173.8567876612879
  0
ARC
  5
1878
330
1E
100
AcDbEntity
  8
0
100
AcDbCircle
 10
15.71693201801894
 20
2.291733458832815
 30
0.0
 40
11.20316297156963
100
AcDbArc
 50
174.6257984303196
 51
175.3938393715235
  0
ARC
  5
1879
330
1E
100
AcDbEntity
  8
0
100
AcDbCircle
 10
15.71693201801894
 20
2.291733458832815
 30
0.0
 40
11.20316297156963
100
AcDbArc
 50
176.1610516772572
 51
176.9275751860765
  0
ARC
  5
187A
330
1E
100
AcDbEntity
  8
0
100
AcDbCircle
 10
15.71693201801894
 20
2.291733458832815
 30
0.0
 40
11.20316297156963
100
AcDbArc
 50
177.6935486169728
 51
178.4591097987698
  0
ARC
  5
187B
330
1E
100
AcDbEntity
  8
0
100
AcDbCircle
 10
4.886099319900266
 20
5.15598268557732
 30
0.0
 40
0.019685039
100
AcDbArc
 50
270.0
 51
345.1870462402569
  0
ARC
  5
187C
330
1E
100
AcDbEntity
  8
0
100
AcDbCircle
 10
4.837879865691546
 20
4.967006311177549
 30
0.0
 40
0.019685039
100
AcDbArc
 50
346.1844974288729
 51
76.13416031450518
  0
ARC
  5
187D
330
1E
100
AcDbEntity
  8
0
100
AcDbCircle
 10
4.811362448571117
 20
4.856770092777416
 30
0.0
 40
0.019685039
100
AcDbArc
 50
269.9999999998957
 51
346.7643575003013
  0
ARC
  5
187E
330
1E
100
AcDbEntity
  8
0
100
AcDbCircle
 10
15.71693201801894
 20
2.291733458832815
 30
0.0
 40
11.18347793256961
100
AcDbArc
 50
166.1844974288474
 51
166.7643575003014
  0
ARC
  5
187F
330
1E
100
AcDbEntity
  8
0
100
AcDbCircle
 10
4.768635428569041
 20
4.66779371837719
 30
0.0
 40
0.019685039
100
AcDbArc
 50
347.7552374422723
 51
77.70490032782065
  0
ARC
  5
1880
330
1E
100
AcDbEntity
  8
0
100
AcDbCircle
 10
4.745291211734866
 20
4.557557499977058
 30
0.0
 40
0.019685039
100
AcDbArc
 50
270.0
 51
348.3315179948107
  0
ARC
  5
1881
330
1E
100
AcDbEntity
  8
0
100
AcDbCircle
 10
15.71693201801894
 20
2.291733458832815
 30
0.0
 40
11.18347793256961
100
AcDbArc
 50
167.7552374422158
 51
168.3315179948054
  0
ARC
  5
1882
330
1E
100
AcDbEntity
  8
0
100
AcDbCircle
 10
4.707955483541127
 20
4.368581125577286
 30
0.0
 40
0.019685039
100
AcDbArc
 50
349.3166843120168
 51
79.26634719766451
  0
ARC
  5
1883
330
1E
100
AcDbEntity
  8
0
100
AcDbCircle
 10
4.687729871953023
 20
4.258344907177153
 30
0.0
 40
0.019685039
100
AcDbArc
 50
270.0000000000521
 51
349.8898730024116
  0
ARC
  5
1884
330
1E
100
AcDbEntity
  8
0
100
AcDbCircle
 10
15.71693201801894
 20
2.291733458832815
 30
0.0
 40
11.18347793256961
100
AcDbArc
 50
169.3166843120424
 51
169.8898730023555
  0
ARC
  5
1885
330
1E
100
AcDbEntity
  8
0
100
AcDbCircle
 10
4.655699079895612
 20
4.069368532777381
 30
0.0
 40
0.019685039
100
AcDbArc
 50
350.8701420212687
 51
80.8198049068717
  0
ARC
  5
1886
330
1E
100
AcDbEntity
  8
0
100
AcDbCircle
 10
4.638545780661161
 20
3.959132314377248
 30
0.0
 40
0.019685039
100
AcDbArc
 50
270.0
 51
351.4407044883715
  0
ARC
  5
1887
330
1E
100
AcDbEntity
  8
0
100
AcDbCircle
 10
15.71693201801894
 20
2.291733458832815
 30
0.0
 40
11.18347793256961
100
AcDbArc
 50
170.8701420212944
 51
171.4407044884229
  0
ARC
  5
1888
330
1E
100
AcDbEntity
  8
0
100
AcDbCircle
 10
4.611747303895981
 20
3.770155939977477
 30
0.0
 40
0.019685039
100
AcDbArc
 50
352.4168581293613
 51
82.36652101498767
  0
ARC
  5
1889
330
1E
100
AcDbEntity
  8
0
100
AcDbCircle
 10
4.597627771889847
 20
3.659919721577345
 30
0.0
 40
0.019685039
100
AcDbArc
 50
269.9999999999478
 51
352.9852417963958
  0
ARC
  5
188A
330
1E
100
AcDbEntity
  8
0
100
AcDbCircle
 10
15.71693201801894
 20
2.291733458832815
 30
0.0
 40
11.18347793256961
100
AcDbArc
 50
172.4168581293613
 51
172.9852417964217
  0
ARC
  5
188B
330
1E
100
AcDbEntity
  8
0
100
AcDbCircle
 10
4.576001868036883
 20
3.470943347177118
 30
0.0
 40
0.019685039
100
AcDbArc
 50
353.9580337612645
 51
83.9076966468353
  0
ARC
  5
188C
330
1E
100
AcDbEntity
  8
0
100
AcDbCircle
 10
4.564884857945116
 20
3.360707128777441
 30
0.0
 40
0.019685039
100
AcDbArc
 50
269.9999999999478
 51
354.5246712719476
  0
ARC
  5
188D
330
1E
100
AcDbEntity
  8
0
100
AcDbCircle
 10
15.71693201801894
 20
2.291733458832815
 30
0.0
 40
11.18347793256961
100
AcDbArc
 50
173.9580337612385
 51
174.5246712719476
  0
ARC
  5
188E
330
1E
100
AcDbEntity
  8
0
100
AcDbCircle
 10
4.548383977768708
 20
3.171730754377215
 30
0.0
 40
0.019685039
100
AcDbArc
 50
355.4948326754115
 51
85.4444955610028
  0
ARC
  5
188F
330
1E
100
AcDbEntity
  8
0
100
AcDbCircle
 10
4.540245189997903
 20
3.061494535977082
 30
0.0
 40
0.019685039
100
AcDbArc
 50
269.9999999999478
 51
356.0601450439841
  0
ARC
  5
1890
330
1E
100
AcDbEntity
  8
0
100
AcDbCircle
 10
15.71693201801894
 20
2.291733458832815
 30
0.0
 40
11.18347793256961
100
AcDbArc
 50
175.4948326753596
 51
176.0601450439581
  0
ARC
  5
1891
330
1E
100
AcDbEntity
  8
0
100
AcDbCircle
 10
4.528833444239579
 20
2.87251816157731
 30
0.0
 40
0.019685039
100
AcDbArc
 50
357.0283896131513
 51
86.97805249879712
  0
ARC
  5
1892
330
1E
100
AcDbEntity
  8
0
100
AcDbCircle
 10
4.523655255094353
 20
2.762281943177178
 30
0.0
 40
0.019685039
100
AcDbArc
 50
267.6431262692239
 51
357.5927891548535
  0
ARC
  5
1893
330
1E
100
AcDbEntity
  8
0
100
AcDbCircle
 10
15.71693201801894
 20
2.291733458832815
 30
0.0
 40
11.18347793256961
100
AcDbArc
 50
177.0283896132033
 51
177.5927891548014
  0
ARC
  5
1894
330
1E
100
AcDbEntity
  8
0
100
AcDbCircle
 10
4.51730801922099
 20
2.573305568777404
 30
0.0
 40
0.019685039
100
AcDbArc
 50
358.5598181043463
 51
88.50948098998822
  0
LINE
  5
1895
330
1E
100
AcDbEntity
  8
0
100
AcDbLine
 10
1.770757520900813
 20
3.041809496977286
 30
0.0
 11
1.77209585408559
 21
3.041809496977286
 31
0.0
  0
LINE
  5
1896
330
1E
100
AcDbEntity
  8
0
100
AcDbLine
 10
1.7461178529536
 20
3.34102208977719
 30
0.0
 11
1.747987221907578
 21
3.34102208977719
 31
0.0
  0
LINE
  5
1897
330
1E
100
AcDbEntity
  8
0
100
AcDbLine
 10
1.71337493900887
 20
3.640234682577093
 30
0.0
 11
1.715779420278749
 21
3.640234682577093
 31
0.0
  0
LINE
  5
1898
330
1E
100
AcDbEntity
  8
0
100
AcDbLine
 10
1.875560825363436
 20
2.289841007177066
 30
0.0
 11
1.875973820449188
 21
2.289841007177066
 31
0.0
  0
ARC
  5
1899
330
1E
100
AcDbEntity
  8
0
100
AcDbCircle
 10
1.793694691677274
 20
2.573305568777404
 30
0.0
 40
0.019685039
100
AcDbArc
 50
91.49051901001179
 51
181.4401818956536
  0
ARC
  5
189A
330
1E
100
AcDbEntity
  8
0
100
AcDbCircle
 10
1.787347455804364
 20
2.762281943177178
 30
0.0
 40
0.019685039
100
AcDbArc
 50
182.4072108451465
 51
272.3568737307759
  0
ARC
  5
189B
330
1E
100
AcDbEntity
  8
0
100
AcDbCircle
 10
1.782169266659138
 20
2.87251816157731
 30
0.0
 40
0.019685039
100
AcDbArc
 50
93.02194750120287
 51
182.9716103868484
  0
ARC
  5
189C
330
1E
100
AcDbEntity
  8
0
100
AcDbCircle
 10
-9.405929307120231
 20
2.291733458832815
 30
0.0
 40
11.18347793256961
100
AcDbArc
 50
2.407210845198556
 51
2.971610386796553
  0
ARC
  5
189D
330
1E
100
AcDbEntity
  8
0
100
AcDbCircle
 10
-9.405929307120231
 20
2.291733458832815
 30
0.0
 40
11.20316297156963
100
AcDbArc
 50
3.072424813923323
 51
3.838948322742707
  0
ARC
  5
189E
330
1E
100
AcDbEntity
  8
0
100
AcDbCircle
 10
1.770757520900813
 20
3.061494535977082
 30
0.0
 40
0.019685039
100
AcDbArc
 50
183.9398549560158
 51
270.0000000000521
  0
ARC
  5
189F
330
1E
100
AcDbEntity
  8
0
100
AcDbCircle
 10
1.76261873313001
 20
3.171730754377215
 30
0.0
 40
0.019685039
100
AcDbArc
 50
94.55550443899722
 51
184.5051673245883
  0
ARC
  5
18A0
330
1E
100
AcDbEntity
  8
0
100
AcDbCircle
 10
1.7461178529536
 20
3.360707128777441
 30
0.0
 40
0.019685039
100
AcDbArc
 50
185.4753287280523
 51
270.0000000000521
  0
ARC
  5
18A1
330
1E
100
AcDbEntity
  8
0
100
AcDbCircle
 10
-9.405929307120231
 20
2.291733458832815
 30
0.0
 40
11.18347793256961
100
AcDbArc
 50
3.939854956041838
 51
4.505167324640386
  0
ARC
  5
18A2
330
1E
100
AcDbEntity
  8
0
100
AcDbCircle
 10
-9.405929307120231
 20
2.291733458832815
 30
0.0
 40
11.18347793256961
100
AcDbArc
 50
5.475328728052356
 51
6.041966238761411
  0
ARC
  5
18A3
330
1E
100
AcDbEntity
  8
0
100
AcDbCircle
 10
1.735000842861379
 20
3.470943347177118
 30
0.0
 40
0.019685039
100
AcDbArc
 50
96.09230335316469
 51
186.0419662387355
  0
ARC
  5
18A4
330
1E
100
AcDbEntity
  8
0
100
AcDbCircle
 10
1.71337493900887
 20
3.659919721577345
 30
0.0
 40
0.019685039
100
AcDbArc
 50
187.014758203604
 51
270.0000000000521
  0
ARC
  5
18A5
330
1E
100
AcDbEntity
  8
0
100
AcDbCircle
 10
-9.405929307120231
 20
2.291733458832815
 30
0.0
 40
11.18347793256961
100
AcDbArc
 50
7.014758203578216
 51
7.583141870638656
  0
ARC
  5
18A6
330
1E
100
AcDbEntity
  8
0
100
AcDbCircle
 10
1.699255407002738
 20
3.770155939977477
 30
0.0
 40
0.019685039
100
AcDbArc
 50
97.63347898501232
 51
187.5831418706385
  0
ARC
  5
18A7
330
1E
100
AcDbEntity
  8
0
100
AcDbCircle
 10
1.672456930237103
 20
3.959132314377248
 30
0.0
 40
0.019685039
100
AcDbArc
 50
188.5592955116285
 51
270.0
  0
ARC
  5
18A8
330
1E
100
AcDbEntity
  8
0
100
AcDbCircle
 10
-9.405929307120231
 20
2.291733458832815
 30
0.0
 40
11.18347793256961
100
AcDbArc
 50
8.55929551157696
 51
9.129857978705567
  0
ARC
  5
18A9
330
1E
100
AcDbEntity
  8
0
100
AcDbCircle
 10
-9.405929307120231
 20
2.291733458832815
 30
0.0
 40
11.20316297156963
100
AcDbArc
 50
4.606160628476433
 51
5.374201569680256
  0
ARC
  5
18AA
330
1E
100
AcDbEntity
  8
0
100
AcDbCircle
 10
-9.405929307120231
 20
2.291733458832815
 30
0.0
 40
11.20316297156963
100
AcDbArc
 50
6.143212338712057
 51
6.91333572239723
  0
ARC
  5
18AB
330
1E
100
AcDbEntity
  8
0
100
AcDbCircle
 10
-9.405929307120231
 20
2.291733458832815
 30
0.0
 40
11.20316297156963
100
AcDbArc
 50
7.684716350070988
 51
8.457500949992416
  0
LINE
  5
18AC
330
1E
100
AcDbEntity
  8
0
100
AcDbLine
 10
1.873201871756235
 20
2.443384311377021
 30
0.0
 11
1.874954532312813
 21
2.443384311377021
 31
0.0
  0
ARC
  5
18AD
330
1E
100
AcDbEntity
  8
0
100
AcDbCircle
 10
1.655303631003105
 20
4.069368532777381
 30
0.0
 40
0.019685039
100
AcDbArc
 50
99.18019509312832
 51
189.1298579787312
  0
ARC
  5
18AE
330
1E
100
AcDbEntity
  8
0
100
AcDbCircle
 10
1.623272838945695
 20
4.258344907177153
 30
0.0
 40
0.019685039
100
AcDbArc
 50
190.1101269975883
 51
269.9999999999478
  0
ARC
  5
18AF
330
1E
100
AcDbEntity
  8
0
100
AcDbCircle
 10
1.60304722735759
 20
4.368581125577286
 30
0.0
 40
0.019685039
100
AcDbArc
 50
100.7336528023354
 51
190.683315687983
  0
ARC
  5
18B0
330
1E
100
AcDbEntity
  8
0
100
AcDbCircle
 10
1.565711499163851
 20
4.557557499977058
 30
0.0
 40
0.019685039
100
AcDbArc
 50
191.6684820051892
 51
270.0
  0
ARC
  5
18B1
330
1E
100
AcDbEntity
  8
0
100
AcDbCircle
 10
1.542367282329678
 20
4.66779371837719
 30
0.0
 40
0.019685039
100
AcDbArc
 50
102.2950996721793
 51
192.2447625577276
  0
ARC
  5
18B2
330
1E
100
AcDbEntity
  8
0
100
AcDbCircle
 10
1.499640262327791
 20
4.856770092776836
 30
0.0
 40
0.019685039
100
AcDbArc
 50
193.2356424996983
 51
270.0000000001042
  0
ARC
  5
18B3
330
1E
100
AcDbEntity
  8
0
100
AcDbCircle
 10
1.473122845206907
 20
4.967006311176969
 30
0.0
 40
0.019685039
100
AcDbArc
 50
103.8658396854945
 51
193.8155025711268
  0
ARC
  5
18B4
330
1E
100
AcDbEntity
  8
0
100
AcDbCircle
 10
1.424903390998641
 20
5.15598268557674
 30
0.0
 40
0.019685039
100
AcDbArc
 50
194.8129537597431
 51
270.0
  0
ARC
  5
18B5
330
1E
100
AcDbEntity
  8
0
100
AcDbCircle
 10
-9.405929307120231
 20
2.291733458832815
 30
0.0
 40
11.20316297156963
100
AcDbArc
 50
9.231838615955098
 51
10.00788108507356
  0
ARC
  5
18B6
330
1E
100
AcDbEntity
  8
0
100
AcDbCircle
 10
-9.405929307120231
 20
2.291733458832815
 30
0.0
 40
11.20316297156963
100
AcDbArc
 50
10.78578302858167
 51
11.56570235689483
  0
ARC
  5
18B7
330
1E
100
AcDbEntity
  8
0
100
AcDbCircle
 10
-9.405929307120231
 20
2.291733458832815
 30
0.0
 40
11.20316297156963
100
AcDbArc
 50
12.34780054122214
 51
13.13224295327896
  0
ARC
  5
18B8
330
1E
100
AcDbEntity
  8
0
100
AcDbCircle
 10
-9.405929307120231
 20
2.291733458832815
 30
0.0
 40
11.18347793256961
100
AcDbArc
 50
10.11012699764425
 51
10.6833156879575
  0
ARC
  5
18B9
330
1E
100
AcDbEntity
  8
0
100
AcDbCircle
 10
-9.405929307120231
 20
2.291733458832815
 30
0.0
 40
11.18347793256961
100
AcDbArc
 50
11.66848200519454
 51
12.24476255778405
  0
ARC
  5
18BA
330
1E
100
AcDbEntity
  8
0
100
AcDbCircle
 10
-9.40592930712004
 20
2.291733458832236
 30
0.0
 40
11.18347793256961
100
AcDbArc
 50
13.2356424996986
 51
13.81550257115232
  0
ARC
  5
18BB
330
1E
100
AcDbEntity
  8
0
100
AcDbCircle
 10
-9.40592930712004
 20
2.291733458832236
 30
0.0
 40
11.20316297156963
100
AcDbArc
 50
13.91919922553972
 51
14.70884363406957
  0
LINE
  5
18BC
330
1E
100
AcDbEntity
  8
0
100
AcDbLine
 10
1.672456930237103
 20
3.939447275377451
 30
0.0
 11
1.675401828908205
 21
3.939447275377451
 31
0.0
  0
LINE
  5
18BD
330
1E
100
AcDbEntity
  8
0
100
AcDbLine
 10
1.623272838945695
 20
4.238659868177356
 30
0.0
 11
1.626764748464893
 21
4.238659868177356
 31
0.0
  0
LINE
  5
18BE
330
1E
100
AcDbEntity
  8
0
100
AcDbLine
 10
1.565711499163851
 20
4.537872460977261
 30
0.0
 11
1.569758377512016
 21
4.537872460977261
 31
0.0
  0
LINE
  5
18BF
330
1E
100
AcDbEntity
  8
0
100
AcDbLine
 10
1.499640262327791
 20
4.837085053776585
 30
0.0
 11
1.504251526654533
 21
4.837085053776585
 31
0.0
  0
LINE
  5
18C0
330
1E
100
AcDbEntity
  8
0
100
AcDbLine
 10
1.424903390998641
 20
5.136297646576941
 30
0.0
 11
1.430090033456471
 21
5.136297646576941
 31
0.0
  0
ARC
  5
18C1
330
1E
100
AcDbEntity
  8
0
100
AcDbCircle
 10
-9.405929307120231
 20
2.291733458832815
 30
0.0
 40
11.20316297156963
100
AcDbArc
 50
1.540890201230125
 51
2.30645138302717
  0
LWPOLYLINE
  5
18C2
330
1E
100
AcDbEntity
  8
0
100
AcDbPolyline
 90
       17
 70
     0
 43
0.0
 10
2.039359644148815
 20
8.079134924832933
 10
1.501958079448966
 20
8.079134924832933
 42
0.4142135623730951
 10
1.423217923449328
 20
8.000394768832839
 10
1.423217923449328
 20
5.866614586790994
 42
0.0793414481584511
 10
1.427133861546508
 20
5.842092176995712
 42
-0.0793414481584524
 10
1.994084054449331
 20
2.291733458832815
 10
1.994084054449331
 20
2.094883068833034
 42
0.4142135623730951
 10
2.07282421044897
 20
2.016142912832938
 10
3.155501355448676
 20
2.016142912832938
 10
4.238178500448839
 20
2.016142912832938
 42
0.4142135623730951
 10
4.316918656448931
 20
2.094883068832579
 10
4.316918656448931
 20
2.291733458832815
 42
-0.0793414481584525
 10
4.883868849351754
 20
5.842092176995712
 42
0.0793414481585407
 10
4.887784787448937
 20
5.866614586790994
 10
4.88778478744939
 20
8.000394768832839
 42
0.4142135623731618
 10
4.809044631449294
 20
8.079134924832933
 10
4.271643066748993
 20
8.079134924832933
  0
LINE
  5
18C3
330
1E
100
AcDbEntity
  8
0
100
AcDbLine
 10
4.435458237485137
 20
2.291733458832815
 30
0.0
 11
4.43502889044862
 21
2.291733458832815
 31
0.0
  0
LWPOLYLINE
  5
18C4
330
1E
100
AcDbEntity
  8
0
100
AcDbPolyline
 90
       17
 70
     0
 43
0.0
 10
1.777548625449298
 20
8.197245158833077
 10
1.501958079448966
 20
8.197245158833077
 42
0.4142135623730951
 10
1.305107689449187
 20
8.000394768832839
 10
1.305107689449187
 20
5.866614586790994
 42
0.0793414481584475
 10
1.314897534692818
 20
5.805308562302791
 42
-0.0793414481584524
 10
1.875973820449188
 20
2.291733458832815
 10
1.875973820449188
 20
2.094883068833034
 42
0.4142135623730951
 10
2.07282421044897
 20
1.898032678832796
 10
3.155501355448676
 20
1.898032678832796
 10
4.238178500448839
 20
1.898032678832796
 42
0.414213562373095
 10
4.43502889044862
 20
2.094883068832579
 10
4.43502889044862
 20
2.291733458832815
 42
-0.0793414481584525
 10
4.996105176205445
 20
5.805308562302791
 42
0.0793414481584475
 10
5.005895021449076
 20
5.866614586790994
 10
5.005895021449076
 20
8.000394768832839
 42
0.4142135623730951
 10
4.809044631449294
 20
8.197245158832622
 10
4.533454085448965
 20
8.197245158832622
  0
CIRCLE
  5
18C5
330
1E
100
AcDbEntity
  8
0
100
AcDbCircle
 10
12.28569766620636
 20
7.803544378832151
 30
0.0
 40
0.059055117
  0
CIRCLE
  5
18C6
330
1E
100
AcDbEntity
  8
0
100
AcDbCircle
 10
11.53766618420638
 20
7.803544378833057
 30
0.0
 40
0.059055117
  0
CIRCLE
  5
18C7
330
1E
100
AcDbEntity
  8
0
100
AcDbCircle
 10
12.28569766620636
 20
7.803544378833057
 30
0.0
 40
0.157480312
  0
CIRCLE
  5
18C8
330
1E
100
AcDbEntity
  8
0
100
AcDbCircle
 10
11.53766618420638
 20
7.803544378833057
 30
0.0
 40
0.157480312
  0
ARC
  5
18C9
330
1E
100
AcDbEntity
  8
0
100
AcDbCircle
 10
13.27362621518807
 20
5.265771739575931
 30
0.0
 40
0.40433070106
100
AcDbArc
 50
343.5021144396301
 51
25.08971119252601
  0
ARC
  5
18CA
330
1E
100
AcDbEntity
  8
0
100
AcDbCircle
 10
12.88902791781457
 20
2.560377519363093
 30
0.0
 40
0.40433070106
100
AcDbArc
 50
318.3624100585573
 51
1.762141562481694
  0
ARC
  5
18CB
330
1E
100
AcDbEntity
  8
0
100
AcDbCircle
 10
10.5497376352249
 20
5.265771739575931
 30
0.0
 40
0.40433070106
100
AcDbArc
 50
154.9102888074739
 51
196.4978855603698
  0
ARC
  5
18CC
330
1E
100
AcDbEntity
  8
0
100
AcDbCircle
 10
10.93433593259861
 20
2.560377519363093
 30
0.0
 40
0.40433070106
100
AcDbArc
 50
178.237858437518
 51
221.6375899414424
  0
LINE
  5
18CD
330
1E
100
AcDbEntity
  8
0
100
AcDbLine
 10
13.2964257597556
 20
3.041809496977286
 30
0.0
 11
13.29508742657083
 21
3.041809496977286
 31
0.0
  0
LINE
  5
18CE
330
1E
100
AcDbEntity
  8
0
100
AcDbLine
 10
13.32106542770282
 20
3.34102208977719
 30
0.0
 11
13.31919605874883
 21
3.34102208977719
 31
0.0
  0
LINE
  5
18CF
330
1E
100
AcDbEntity
  8
0
100
AcDbLine
 10
13.35380834164755
 20
3.640234682577548
 30
0.0
 11
13.35140386037743
 21
3.640234682577548
 31
0.0
  0
LINE
  5
18D0
330
1E
100
AcDbEntity
  8
0
100
AcDbLine
 10
13.19162245529298
 20
2.289841007177519
 30
0.0
 11
13.191209460207
 21
2.289841007177519
 31
0.0
  0
LINE
  5
18D1
330
1E
100
AcDbEntity
  8
0
100
AcDbLine
 10
13.19398140889995
 20
2.443384311377478
 30
0.0
 11
13.19222874834338
 21
2.443384311377478
 31
0.0
  0
LINE
  5
18D2
330
1E
100
AcDbEntity
  8
0
100
AcDbLine
 10
13.39472635041909
 20
3.939447275377451
 30
0.0
 11
13.39178145174797
 21
3.939447275377451
 31
0.0
  0
LINE
  5
18D3
330
1E
100
AcDbEntity
  8
0
100
AcDbLine
 10
13.44391044171072
 20
4.238659868177356
 30
0.0
 11
13.44041853219152
 21
4.238659868177356
 31
0.0
  0
LINE
  5
18D4
330
1E
100
AcDbEntity
  8
0
100
AcDbLine
 10
13.50147178149255
 20
4.537872460977261
 30
0.0
 11
13.49742490314415
 21
4.537872460977261
 31
0.0
  0
LINE
  5
18D5
330
1E
100
AcDbEntity
  8
0
100
AcDbLine
 10
13.56754301832859
 20
4.837085053777618
 30
0.0
 11
13.56293175400208
 21
4.837085053777618
 31
0.0
  0
LINE
  5
18D6
330
1E
100
AcDbEntity
  8
0
100
AcDbLine
 10
13.64227988965797
 20
5.136297646577521
 30
0.0
 11
13.63709324720014
 21
5.136297646577521
 31
0.0
  0
ARC
  5
18D7
330
1E
100
AcDbEntity
  8
0
100
AcDbCircle
 10
24.47311258777665
 20
2.29173345883327
 30
0.0
 40
11.20316297156963
100
AcDbArc
 50
165.2911563659384
 51
166.0808007744624
  0
ARC
  5
18D8
330
1E
100
AcDbEntity
  8
0
100
AcDbCircle
 10
24.47311258777665
 20
2.29173345883327
 30
0.0
 40
11.20316297156963
100
AcDbArc
 50
166.8677570467181
 51
167.6521994587889
  0
ARC
  5
18D9
330
1E
100
AcDbEntity
  8
0
100
AcDbCircle
 10
24.47311258777665
 20
2.29173345883327
 30
0.0
 40
11.20316297156963
100
AcDbArc
 50
168.4342976431111
 51
169.2142169714194
  0
ARC
  5
18DA
330
1E
100
AcDbEntity
  8
0
100
AcDbCircle
 10
24.47311258777665
 20
2.29173345883327
 30
0.0
 40
11.20316297156963
100
AcDbArc
 50
169.9921189149199
 51
170.7681613840561
  0
ARC
  5
18DB
330
1E
100
AcDbEntity
  8
0
100
AcDbCircle
 10
24.47311258777665
 20
2.29173345883327
 30
0.0
 40
11.20316297156963
100
AcDbArc
 50
171.5424990500116
 51
172.3152836499266
  0
ARC
  5
18DC
330
1E
100
AcDbEntity
  8
0
100
AcDbCircle
 10
24.47311258777665
 20
2.29173345883327
 30
0.0
 40
11.20316297156963
100
AcDbArc
 50
173.086664277593
 51
173.8567876612971
  0
ARC
  5
18DD
330
1E
100
AcDbEntity
  8
0
100
AcDbCircle
 10
24.47311258777665
 20
2.29173345883327
 30
0.0
 40
11.20316297156963
100
AcDbArc
 50
174.6257984303215
 51
175.3938393715179
  0
ARC
  5
18DE
330
1E
100
AcDbEntity
  8
0
100
AcDbCircle
 10
24.47311258777665
 20
2.29173345883327
 30
0.0
 40
11.20316297156963
100
AcDbArc
 50
176.1610516772697
 51
176.927575186082
  0
ARC
  5
18DF
330
1E
100
AcDbEntity
  8
0
100
AcDbCircle
 10
24.47311258777665
 20
2.29173345883327
 30
0.0
 40
11.20316297156963
100
AcDbArc
 50
177.693548616971
 51
178.4591097987614
  0
ARC
  5
18E0
330
1E
100
AcDbEntity
  8
0
100
AcDbCircle
 10
13.64227988965797
 20
5.15598268557732
 30
0.0
 40
0.019685039
100
AcDbArc
 50
270.0
 51
345.1870462402645
  0
ARC
  5
18E1
330
1E
100
AcDbEntity
  8
0
100
AcDbCircle
 10
13.59406043544947
 20
4.967006311177549
 30
0.0
 40
0.019685039
100
AcDbArc
 50
346.1844974288743
 51
76.13416031450547
  0
ARC
  5
18E2
330
1E
100
AcDbEntity
  8
0
100
AcDbCircle
 10
13.56754301832882
 20
4.856770092777416
 30
0.0
 40
0.019685039
100
AcDbArc
 50
269.9999999998961
 51
346.7643575003061
  0
ARC
  5
18E3
330
1E
100
AcDbEntity
  8
0
100
AcDbCircle
 10
24.47311258777665
 20
2.29173345883327
 30
0.0
 40
11.18347793256961
100
AcDbArc
 50
166.1844974288603
 51
166.7643575003078
  0
ARC
  5
18E4
330
1E
100
AcDbEntity
  8
0
100
AcDbCircle
 10
13.52481599832674
 20
4.667793718377644
 30
0.0
 40
0.019685039
100
AcDbArc
 50
347.7552374422571
 51
77.70490032781541
  0
ARC
  5
18E5
330
1E
100
AcDbEntity
  8
0
100
AcDbCircle
 10
13.50147178149255
 20
4.557557499977511
 30
0.0
 40
0.019685039
100
AcDbArc
 50
270.0
 51
348.3315179948136
  0
ARC
  5
18E6
330
1E
100
AcDbEntity
  8
0
100
AcDbCircle
 10
24.47311258777665
 20
2.29173345883327
 30
0.0
 40
11.18347793256961
100
AcDbArc
 50
167.7552374422149
 51
168.3315179948023
  0
ARC
  5
18E7
330
1E
100
AcDbEntity
  8
0
100
AcDbCircle
 10
13.46413605329883
 20
4.368581125577286
 30
0.0
 40
0.019685039
100
AcDbArc
 50
349.3166843120103
 51
79.26634719766474
  0
ARC
  5
18E8
330
1E
100
AcDbEntity
  8
0
100
AcDbCircle
 10
13.44391044171072
 20
4.258344907177606
 30
0.0
 40
0.019685039
100
AcDbArc
 50
270.0000000000522
 51
349.8898730023991
  0
ARC
  5
18E9
330
1E
100
AcDbEntity
  8
0
100
AcDbCircle
 10
24.47311258777665
 20
2.29173345883327
 30
0.0
 40
11.18347793256961
100
AcDbArc
 50
169.3166843120526
 51
169.8898730023628
  0
ARC
  5
18EA
330
1E
100
AcDbEntity
  8
0
100
AcDbCircle
 10
13.41187964965308
 20
4.069368532777381
 30
0.0
 40
0.019685039
100
AcDbArc
 50
350.8701420212708
 51
80.81980490686772
  0
ARC
  5
18EB
330
1E
100
AcDbEntity
  8
0
100
AcDbCircle
 10
13.39472635041909
 20
3.959132314377248
 30
0.0
 40
0.019685039
100
AcDbArc
 50
270.0
 51
351.4407044883767
  0
ARC
  5
18EC
330
1E
100
AcDbEntity
  8
0
100
AcDbCircle
 10
24.47311258777665
 20
2.29173345883327
 30
0.0
 40
11.18347793256961
100
AcDbArc
 50
170.870142021291
 51
171.4407044884143
  0
ARC
  5
18ED
330
1E
100
AcDbEntity
  8
0
100
AcDbCircle
 10
13.36792787365367
 20
3.770155939977477
 30
0.0
 40
0.019685039
100
AcDbArc
 50
352.4168581293685
 51
82.36652101498791
  0
ARC
  5
18EE
330
1E
100
AcDbEntity
  8
0
100
AcDbCircle
 10
13.35380834164755
 20
3.659919721577345
 30
0.0
 40
0.019685039
100
AcDbArc
 50
269.9999999999481
 51
352.9852417964064
  0
ARC
  5
18EF
330
1E
100
AcDbEntity
  8
0
100
AcDbCircle
 10
24.47311258777665
 20
2.29173345883327
 30
0.0
 40
11.18347793256961
100
AcDbArc
 50
172.4168581293683
 51
172.9852417964243
  0
ARC
  5
18F0
330
1E
100
AcDbEntity
  8
0
100
AcDbCircle
 10
13.33218243779481
 20
3.470943347177573
 30
0.0
 40
0.019685039
100
AcDbArc
 50
353.958033761255
 51
83.90769664683837
  0
ARC
  5
18F1
330
1E
100
AcDbEntity
  8
0
100
AcDbCircle
 10
13.32106542770282
 20
3.360707128777441
 30
0.0
 40
0.019685039
100
AcDbArc
 50
269.9999999999481
 51
354.5246712719388
  0
ARC
  5
18F2
330
1E
100
AcDbEntity
  8
0
100
AcDbCircle
 10
24.47311258777665
 20
2.29173345883327
 30
0.0
 40
11.18347793256961
100
AcDbArc
 50
173.9580337612304
 51
174.5246712719371
  0
ARC
  5
18F3
330
1E
100
AcDbEntity
  8
0
100
AcDbCircle
 10
13.3045645475264
 20
3.171730754377215
 30
0.0
 40
0.019685039
100
AcDbArc
 50
355.4948326754112
 51
85.44449556100717
  0
ARC
  5
18F4
330
1E
100
AcDbEntity
  8
0
100
AcDbCircle
 10
13.2964257597556
 20
3.061494535977537
 30
0.0
 40
0.019685039
100
AcDbArc
 50
269.9999999999481
 51
356.0601450439889
  0
ARC
  5
18F5
330
1E
100
AcDbEntity
  8
0
100
AcDbCircle
 10
24.47311258777665
 20
2.29173345883327
 30
0.0
 40
11.18347793256961
100
AcDbArc
 50
175.4948326753636
 51
176.0601450439592
  0
ARC
  5
18F6
330
1E
100
AcDbEntity
  8
0
100
AcDbCircle
 10
13.28501401399726
 20
2.87251816157731
 30
0.0
 40
0.019685039
100
AcDbArc
 50
357.0283896131587
 51
86.97805249879465
  0
ARC
  5
18F7
330
1E
100
AcDbEntity
  8
0
100
AcDbCircle
 10
13.27983582485205
 20
2.762281943177178
 30
0.0
 40
0.019685039
100
AcDbArc
 50
267.6431262692265
 51
357.5927891548666
  0
ARC
  5
18F8
330
1E
100
AcDbEntity
  8
0
100
AcDbCircle
 10
24.47311258777665
 20
2.29173345883327
 30
0.0
 40
11.18347793256961
100
AcDbArc
 50
177.0283896131938
 51
177.5927891548148
  0
ARC
  5
18F9
330
1E
100
AcDbEntity
  8
0
100
AcDbCircle
 10
13.27348858897892
 20
2.573305568777404
 30
0.0
 40
0.019685039
100
AcDbArc
 50
358.5598181043381
 51
88.50948098998918
  0
LINE
  5
18FA
330
1E
100
AcDbEntity
  8
0
100
AcDbLine
 10
10.52693809065851
 20
3.041809496977286
 30
0.0
 11
10.52827642384306
 21
3.041809496977286
 31
0.0
  0
LINE
  5
18FB
330
1E
100
AcDbEntity
  8
0
100
AcDbLine
 10
10.5022984227113
 20
3.34102208977719
 30
0.0
 11
10.50416779166505
 21
3.34102208977719
 31
0.0
  0
LINE
  5
18FC
330
1E
100
AcDbEntity
  8
0
100
AcDbLine
 10
10.46955550876634
 20
3.640234682577548
 30
0.0
 11
10.47195999003668
 21
3.640234682577548
 31
0.0
  0
LINE
  5
18FD
330
1E
100
AcDbEntity
  8
0
100
AcDbLine
 10
10.63174139512113
 20
2.289841007177519
 30
0.0
 11
10.63215439020689
 21
2.289841007177519
 31
0.0
  0
LINE
  5
18FE
330
1E
100
AcDbEntity
  8
0
100
AcDbLine
 10
10.62938244151416
 20
2.443384311377478
 30
0.0
 11
10.63113510207074
 21
2.443384311377478
 31
0.0
  0
LINE
  5
18FF
330
1E
100
AcDbEntity
  8
0
100
AcDbLine
 10
10.42863749999501
 20
3.939447275377451
 30
0.0
 11
10.43158239866591
 21
3.939447275377451
 31
0.0
  0
LINE
  5
1900
330
1E
100
AcDbEntity
  8
0
100
AcDbLine
 10
10.37945340870339
 20
4.238659868177356
 30
0.0
 11
10.38294531822258
 21
4.238659868177356
 31
0.0
  0
LINE
  5
1901
330
1E
100
AcDbEntity
  8
0
100
AcDbLine
 10
10.32189206892133
 20
4.537872460977261
 30
0.0
 11
10.32593894726993
 21
4.537872460977261
 31
0.0
  0
LINE
  5
1902
330
1E
100
AcDbEntity
  8
0
100
AcDbLine
 10
10.2558208320853
 20
4.837085053777618
 30
0.0
 11
10.26043209641203
 21
4.837085053777618
 31
0.0
  0
LINE
  5
1903
330
1E
100
AcDbEntity
  8
0
100
AcDbLine
 10
10.18108396075615
 20
5.136297646577521
 30
0.0
 11
10.18627060321398
 21
5.136297646577521
 31
0.0
  0
LINE
  5
1904
330
1E
100
AcDbEntity
  8
0
100
AcDbLine
 10
13.19163880724284
 20
2.291733458832815
 30
0.0
 11
13.19120946020632
 21
2.291733458832815
 31
0.0
  0
ARC
  5
1905
330
1E
100
AcDbEntity
  8
0
100
AcDbCircle
 10
-0.6497487373627564
 20
2.29173345883327
 30
0.0
 40
11.20316297156963
100
AcDbArc
 50
13.91919922553777
 51
14.70884363406161
  0
ARC
  5
1906
330
1E
100
AcDbEntity
  8
0
100
AcDbCircle
 10
-0.6497487373627564
 20
2.29173345883327
 30
0.0
 40
11.20316297156963
100
AcDbArc
 50
12.34780054121119
 51
13.13224295328206
  0
ARC
  5
1907
330
1E
100
AcDbEntity
  8
0
100
AcDbCircle
 10
-0.6497487373627564
 20
2.29173345883327
 30
0.0
 40
11.20316297156963
100
AcDbArc
 50
10.78578302858077
 51
11.5657023568891
  0
ARC
  5
1908
330
1E
100
AcDbEntity
  8
0
100
AcDbCircle
 10
-0.6497487373627564
 20
2.29173345883327
 30
0.0
 40
11.20316297156963
100
AcDbArc
 50
9.231838615944148
 51
10.00788108508015
  0
ARC
  5
1909
330
1E
100
AcDbEntity
  8
0
100
AcDbCircle
 10
-0.6497487373627564
 20
2.29173345883327
 30
0.0
 40
11.20316297156963
100
AcDbArc
 50
7.684716350073374
 51
8.457500949988363
  0
ARC
  5
190A
330
1E
100
AcDbEntity
  8
0
100
AcDbCircle
 10
-0.6497487373627564
 20
2.29173345883327
 30
0.0
 40
11.20316297156963
100
AcDbArc
 50
6.143212338703095
 51
6.913335722407143
  0
ARC
  5
190B
330
1E
100
AcDbEntity
  8
0
100
AcDbCircle
 10
-0.6497487373627564
 20
2.29173345883327
 30
0.0
 40
11.20316297156963
100
AcDbArc
 50
4.606160628482237
 51
5.374201569678641
  0
ARC
  5
190C
330
1E
100
AcDbEntity
  8
0
100
AcDbCircle
 10
-0.6497487373627564
 20
2.29173345883327
 30
0.0
 40
11.20316297156963
100
AcDbArc
 50
3.072424813918066
 51
3.838948322730549
  0
ARC
  5
190D
330
1E
100
AcDbEntity
  8
0
100
AcDbCircle
 10
-0.6497487373627564
 20
2.29173345883327
 30
0.0
 40
11.20316297156963
100
AcDbArc
 50
1.540890201238754
 51
2.306451383029183
  0
ARC
  5
190E
330
1E
100
AcDbEntity
  8
0
100
AcDbCircle
 10
10.18108396075615
 20
5.15598268557732
 30
0.0
 40
0.019685039
100
AcDbArc
 50
194.8129537597354
 51
270.0
  0
ARC
  5
190F
330
1E
100
AcDbEntity
  8
0
100
AcDbCircle
 10
10.22930341496442
 20
4.967006311177549
 30
0.0
 40
0.019685039
100
AcDbArc
 50
103.8658396854945
 51
193.8155025711255
  0
ARC
  5
1910
330
1E
100
AcDbEntity
  8
0
100
AcDbCircle
 10
10.2558208320853
 20
4.856770092777416
 30
0.0
 40
0.019685039
100
AcDbArc
 50
193.2356424996941
 51
270.0000000001042
  0
ARC
  5
1911
330
1E
100
AcDbEntity
  8
0
100
AcDbCircle
 10
-0.6497487373627564
 20
2.29173345883327
 30
0.0
 40
11.18347793256961
100
AcDbArc
 50
13.23564249969243
 51
13.81550257113993
  0
ARC
  5
1912
330
1E
100
AcDbEntity
  8
0
100
AcDbCircle
 10
10.29854785208714
 20
4.667793718377644
 30
0.0
 40
0.019685039
100
AcDbArc
 50
102.2950996721849
 51
192.2447625577429
  0
ARC
  5
1913
330
1E
100
AcDbEntity
  8
0
100
AcDbCircle
 10
10.32189206892133
 20
4.557557499977511
 30
0.0
 40
0.019685039
100
AcDbArc
 50
191.6684820051865
 51
270.0
  0
ARC
  5
1914
330
1E
100
AcDbEntity
  8
0
100
AcDbCircle
 10
-0.6497487373627564
 20
2.29173345883327
 30
0.0
 40
11.18347793256961
100
AcDbArc
 50
11.66848200519787
 51
12.24476255778514
  0
ARC
  5
1915
330
1E
100
AcDbEntity
  8
0
100
AcDbCircle
 10
10.35922779711528
 20
4.368581125577286
 30
0.0
 40
0.019685039
100
AcDbArc
 50
100.7336528023354
 51
190.6833156879898
  0
ARC
  5
1916
330
1E
100
AcDbEntity
  8
0
100
AcDbCircle
 10
10.37945340870339
 20
4.258344907177606
 30
0.0
 40
0.019685039
100
AcDbArc
 50
190.1101269976011
 51
269.9999999999478
  0
ARC
  5
1917
330
1E
100
AcDbEntity
  8
0
100
AcDbCircle
 10
-0.6497487373627564
 20
2.29173345883327
 30
0.0
 40
11.18347793256961
100
AcDbArc
 50
10.11012699763718
 51
10.6833156879476
  0
ARC
  5
1918
330
1E
100
AcDbEntity
  8
0
100
AcDbCircle
 10
10.4114842007608
 20
4.069368532777381
 30
0.0
 40
0.019685039
100
AcDbArc
 50
99.18019509313246
 51
189.1298579787294
  0
ARC
  5
1919
330
1E
100
AcDbEntity
  8
0
100
AcDbCircle
 10
10.42863749999501
 20
3.959132314377248
 30
0.0
 40
0.019685039
100
AcDbArc
 50
188.5592955116234
 51
270.0
  0
ARC
  5
191A
330
1E
100
AcDbEntity
  8
0
100
AcDbCircle
 10
-0.6497487373627564
 20
2.29173345883327
 30
0.0
 40
11.18347793256961
100
AcDbArc
 50
8.559295511585967
 51
9.129857978709052
  0
ARC
  5
191B
330
1E
100
AcDbEntity
  8
0
100
AcDbCircle
 10
10.45543597676042
 20
3.770155939977477
 30
0.0
 40
0.019685039
100
AcDbArc
 50
97.6334789850123
 51
187.5831418706316
  0
ARC
  5
191C
330
1E
100
AcDbEntity
  8
0
100
AcDbCircle
 10
10.46955550876634
 20
3.659919721577345
 30
0.0
 40
0.019685039
100
AcDbArc
 50
187.0147582035937
 51
270.0000000000521
  0
ARC
  5
191D
330
1E
100
AcDbEntity
  8
0
100
AcDbCircle
 10
-0.6497487373627564
 20
2.29173345883327
 30
0.0
 40
11.18347793256961
100
AcDbArc
 50
7.014758203575865
 51
7.583141870631909
  0
ARC
  5
191E
330
1E
100
AcDbEntity
  8
0
100
AcDbCircle
 10
10.49118141261931
 20
3.470943347177573
 30
0.0
 40
0.019685039
100
AcDbArc
 50
96.09230335316196
 51
186.0419662387452
  0
ARC
  5
191F
330
1E
100
AcDbEntity
  8
0
100
AcDbCircle
 10
10.5022984227113
 20
3.360707128777441
 30
0.0
 40
0.019685039
100
AcDbArc
 50
185.4753287280609
 51
270.0000000000521
  0
ARC
  5
1920
330
1E
100
AcDbEntity
  8
0
100
AcDbCircle
 10
-0.6497487373627564
 20
2.29173345883327
 30
0.0
 40
11.18347793256961
100
AcDbArc
 50
5.475328728063121
 51
6.041966238769735
  0
ARC
  5
1921
330
1E
100
AcDbEntity
  8
0
100
AcDbCircle
 10
10.51879930288771
 20
3.171730754377215
 30
0.0
 40
0.019685039
100
AcDbArc
 50
94.55550443899307
 51
184.5051673245888
  0
ARC
  5
1922
330
1E
100
AcDbEntity
  8
0
100
AcDbCircle
 10
10.52693809065827
 20
3.061494535977537
 30
0.0
 40
0.019685039
100
AcDbArc
 50
183.9398549560113
 51
270.0000000000521
  0
ARC
  5
1923
330
1E
100
AcDbEntity
  8
0
100
AcDbCircle
 10
-0.6497487373627564
 20
2.29173345883327
 30
0.0
 40
11.18347793256961
100
AcDbArc
 50
3.939854956041016
 51
4.5051673246365
  0
ARC
  5
1924
330
1E
100
AcDbEntity
  8
0
100
AcDbCircle
 10
10.5383498364166
 20
2.87251816157731
 30
0.0
 40
0.019685039
100
AcDbArc
 50
93.02194750120566
 51
182.9716103868413
  0
ARC
  5
1925
330
1E
100
AcDbEntity
  8
0
100
AcDbCircle
 10
10.54352802556183
 20
2.762281943177178
 30
0.0
 40
0.019685039
100
AcDbArc
 50
182.4072108451336
 51
272.3568737307737
  0
ARC
  5
1926
330
1E
100
AcDbEntity
  8
0
100
AcDbCircle
 10
-0.6497487373627564
 20
2.29173345883327
 30
0.0
 40
11.18347793256961
100
AcDbArc
 50
2.40721084518547
 51
2.971610386806358
  0
ARC
  5
1927
330
1E
100
AcDbEntity
  8
0
100
AcDbCircle
 10
10.54987526143519
 20
2.573305568777404
 30
0.0
 40
0.019685039
100
AcDbArc
 50
91.49051901001111
 51
181.440181895662
  0
LWPOLYLINE
  5
1928
330
1E
100
AcDbEntity
  8
0
100
AcDbPolyline
 90
       17
 70
     0
 43
0.0
 10
10.75617013590645
 20
8.118505002832982
 10
10.25813864920712
 20
8.118505002832982
 42
0.4142135623730951
 10
10.14002841520698
 20
8.000394768832839
 10
10.14002841520698
 20
5.866614586791449
 42
0.0793414481584312
 10
10.14590232235318
 20
5.829830972098527
 42
-0.0793414481584527
 10
10.71089454620698
 20
2.291733458832815
 10
10.71089454620698
 20
2.094883068833034
 42
0.4142135623730951
 10
10.82900478020712
 20
1.976772834832893
 10
11.91168192520658
 20
1.976772834832893
 10
12.99435907020654
 20
1.976772834832893
 42
0.4142135623731395
 10
13.11246930420667
 20
2.094883068833034
 10
13.11246930420667
 20
2.291733458832815
 42
-0.0793414481584524
 10
13.67746152806091
 20
5.829830972098072
 42
0.0793414481584185
 10
13.6833354352069
 20
5.866614586790994
 10
13.68333543520714
 20
8.000394768832839
 42
0.4142135623732285
 10
13.565225201207
 20
8.118505002832982
 10
13.06719371450719
 20
8.118505002832982
  0
LWPOLYLINE
  5
1929
330
1E
100
AcDbEntity
  8
0
100
AcDbPolyline
 90
       17
 70
     0
 43
0.0
 10
10.79554021390652
 20
8.177560119832826
 10
10.25813864920712
 20
8.177560119832826
 42
0.4142135623730951
 10
10.08097329820714
 20
8.000394768832839
 10
10.08097329820714
 20
5.866614586791449
 42
0.0793414481584627
 10
10.08978415892613
 20
5.811439164751838
 42
-0.0793414481584527
 10
10.65183942920713
 20
2.291733458832815
 10
10.65183942920713
 20
2.094883068833034
 42
0.4142135623730951
 10
10.82900478020712
 20
1.917717717833047
 10
11.91168192520658
 20
1.917717717833047
 10
12.99435907020654
 20
1.917717717833047
 42
0.4142135623731246
 10
13.17152442120675
 20
2.094883068833034
 10
13.17152442120675
 20
2.291733458832815
 42
-0.0793414481584523
 10
13.73357969148776
 20
5.811439164751838
 42
0.0793414481584542
 10
13.74239055220698
 20
5.866614586790994
 10
13.74239055220698
 20
8.000394768832839
 42
0.414213562373184
 10
13.565225201207
 20
8.177560119832826
 10
13.02782363650715
 20
8.177560119832826
  0
LINE
  5
192A
330
1E
100
AcDbEntity
  8
0
100
AcDbLine
 10
10.8939654089064
 20
8.094882956032954
 30
0.0
 11
10.8939654089064
 21
8.055512878032907
 31
0.0
  0
LINE
  5
192B
330
1E
100
AcDbEntity
  8
0
100
AcDbLine
 10
12.92939844150702
 20
8.094882956032954
 30
0.0
 11
12.92939844150702
 21
8.055512878032907
 31
0.0
  0
LINE
  5
192C
330
1E
100
AcDbEntity
  8
0
100
AcDbLine
 10
12.92939844150702
 20
8.197245158833077
 30
0.0
 11
12.92939844150702
 21
8.157875080833028
 31
0.0
  0
LINE
  5
192D
330
1E
100
AcDbEntity
  8
0
100
AcDbLine
 10
10.8939654089064
 20
8.197245158833077
 30
0.0
 11
10.8939654089064
 21
8.157875080833028
 31
0.0
  0
LINE
  5
192E
330
1E
100
AcDbEntity
  8
0
100
AcDbLine
 10
10.71680005790642
 20
8.055512878032907
 30
0.0
 11
13.10656379250699
 21
8.055512878032907
 31
0.0
  0
LINE
  5
192F
330
1E
100
AcDbEntity
  8
0
100
AcDbLine
 10
13.06719371450697
 20
8.094882956032954
 30
0.0
 11
11.91168192520706
 21
8.094882956032954
 31
0.0
  0
LINE
  5
1930
330
1E
100
AcDbEntity
  8
0
100
AcDbLine
 10
10.75617013590645
 20
8.094882956032954
 30
0.0
 11
11.91168192520638
 21
8.094882956032954
 31
0.0
  0
LINE
  5
1931
330
1E
100
AcDbEntity
  8
0
100
AcDbLine
 10
10.75617013590645
 20
8.157875080833028
 30
0.0
 11
10.75617013590645
 21
8.094882956032954
 31
0.0
  0
LINE
  5
1932
330
1E
100
AcDbEntity
  8
0
100
AcDbLine
 10
11.91168192520638
 20
8.157875080833028
 30
0.0
 11
10.75617013590645
 21
8.157875080833028
 31
0.0
  0
LINE
  5
1933
330
1E
100
AcDbEntity
  8
0
100
AcDbLine
 10
10.71680005790642
 20
8.079134924832933
 30
0.0
 11
10.71680005790642
 21
8.055512878032907
 31
0.0
  0
LINE
  5
1934
330
1E
100
AcDbEntity
  8
0
100
AcDbLine
 10
10.79554021390652
 20
8.094882956032954
 30
0.0
 11
10.79554021390652
 21
8.055512878032907
 31
0.0
  0
LINE
  5
1935
330
1E
100
AcDbEntity
  8
0
100
AcDbLine
 10
10.79554021390652
 20
8.157875080833028
 30
0.0
 11
10.75617013590645
 21
8.157875080833028
 31
0.0
  0
LINE
  5
1936
330
1E
100
AcDbEntity
  8
0
100
AcDbLine
 10
10.79554021390652
 20
8.197245158833077
 30
0.0
 11
10.79554021390652
 21
8.157875080833028
 31
0.0
  0
LINE
  5
1937
330
1E
100
AcDbEntity
  8
0
100
AcDbLine
 10
10.79554021390652
 20
8.094882956032954
 30
0.0
 11
10.79554021390652
 21
8.059449885833137
 31
0.0
  0
LINE
  5
1938
330
1E
100
AcDbEntity
  8
0
100
AcDbLine
 10
10.79554021390652
 20
8.197245158833077
 30
0.0
 11
10.79554021390652
 21
8.157875080833028
 31
0.0
  0
LINE
  5
1939
330
1E
100
AcDbEntity
  8
0
100
AcDbLine
 10
10.79554021390652
 20
8.197245158833077
 30
0.0
 11
10.79554021390652
 21
8.157875080833028
 31
0.0
  0
LINE
  5
193A
330
1E
100
AcDbEntity
  8
0
100
AcDbLine
 10
13.10656379250699
 20
8.079134924832933
 30
0.0
 11
13.10656379250699
 21
8.055512878032907
 31
0.0
  0
LINE
  5
193B
330
1E
100
AcDbEntity
  8
0
100
AcDbLine
 10
13.06719371450697
 20
8.157875080833028
 30
0.0
 11
13.06719371450697
 21
8.094882956032954
 31
0.0
  0
LINE
  5
193C
330
1E
100
AcDbEntity
  8
0
100
AcDbLine
 10
11.63609137920673
 20
4.279922397833153
 30
0.0
 11
11.63609137920673
 21
4.131656134114557
 31
0.0
  0
LINE
  5
193D
330
1E
100
AcDbEntity
  8
0
100
AcDbLine
 10
12.18727247120671
 20
4.279922397833153
 30
0.0
 11
12.18727247120671
 21
4.131656134114557
 31
0.0
  0
LINE
  5
193E
330
1E
100
AcDbEntity
  8
0
100
AcDbLine
 10
12.18727247120671
 20
4.131656134114557
 30
0.0
 11
11.91168192520658
 21
4.131656134114557
 31
0.0
  0
LINE
  5
193F
330
1E
100
AcDbEntity
  8
0
100
AcDbLine
 10
12.18727247120671
 20
4.279922397833153
 30
0.0
 11
11.91168192520658
 21
4.279922397833153
 31
0.0
  0
LINE
  5
1940
330
1E
100
AcDbEntity
  8
0
100
AcDbLine
 10
11.63609137920673
 20
4.131656134114557
 30
0.0
 11
11.91168192520682
 21
4.131656134114557
 31
0.0
  0
LINE
  5
1941
330
1E
100
AcDbEntity
  8
0
100
AcDbLine
 10
11.63609137920673
 20
4.279922397833153
 30
0.0
 11
11.91168192520658
 21
4.279922397833153
 31
0.0
  0
LINE
  5
1942
330
1E
100
AcDbEntity
  8
0
100
AcDbLine
 10
11.71483153520682
 20
4.65393813883292
 30
0.0
 11
12.10853231520684
 21
4.65393813883292
 31
0.0
  0
LINE
  5
1943
330
1E
100
AcDbEntity
  8
0
100
AcDbLine
 10
11.71483153520682
 20
4.622442076433336
 30
0.0
 11
12.10853231520684
 21
4.622442076433336
 31
0.0
  0
LINE
  5
1944
330
1E
100
AcDbEntity
  8
0
100
AcDbLine
 10
11.71483153520682
 20
4.693308216832965
 30
0.0
 11
12.10853231520684
 21
4.693308216832965
 31
0.0
  0
LWPOLYLINE
  5
1945
330
1E
100
AcDbEntity
  8
0
100
AcDbPolyline
 90
       17
 70
     0
 43
0.0
 10
10.71680005790642
 20
8.079134924832933
 10
10.25813864920712
 20
8.079134924832933
 42
0.4142135623731483
 10
10.17939849320703
 20
8.000394768832839
 10
10.17939849320703
 20
5.866614586791449
 42
0.0793414481584949
 10
10.18331443130443
 20
5.842092176996168
 42
-0.0793414481584528
 10
10.75026462420701
 20
2.291733458832815
 10
10.75026462420701
 20
2.094883068833034
 42
0.4142135623731483
 10
10.82900478020712
 20
2.016142912832938
 10
11.91168192520658
 20
2.016142912832938
 10
12.99435907020654
 20
2.016142912832938
 42
0.414213562373215
 10
13.07309922620663
 20
2.094883068833034
 10
13.07309922620663
 20
2.291733458832815
 42
-0.0793414481584525
 10
13.64004941910946
 20
5.842092176995712
 42
0.0793414481585553
 10
13.64396535720685
 20
5.866614586791449
 10
13.64396535720709
 20
8.000394768832839
 42
0.4142135623731483
 10
13.565225201207
 20
8.079134924832933
 10
13.10656379250699
 20
8.079134924832933
  0
ARC
  5
1946
330
1E
100
AcDbEntity
  8
0
100
AcDbCircle
 10
10.9471150142068
 20
2.153938185832878
 30
0.0
 40
0.039370078
100
AcDbArc
 50
180.0000000000004
 51
270.0000000000009
  0
LINE
  5
1947
330
1E
100
AcDbEntity
  8
0
100
AcDbLine
 10
11.02585517020668
 20
2.11456810783283
 30
0.0
 11
10.9471150142068
 21
2.11456810783283
 31
0.0
  0
ARC
  5
1948
330
1E
100
AcDbEntity
  8
0
100
AcDbCircle
 10
12.87624883620684
 20
2.153938185832878
 30
0.0
 40
0.039370078
100
AcDbArc
 50
269.999999999999
 51
359.9999999999991
  0
LINE
  5
1949
330
1E
100
AcDbEntity
  8
0
100
AcDbLine
 10
12.79750868020675
 20
2.11456810783283
 30
0.0
 11
12.87624883620684
 21
2.11456810783283
 31
0.0
  0
CIRCLE
  5
194A
330
1E
100
AcDbEntity
  8
0
100
AcDbCircle
 10
13.19120946020655
 20
5.441339698832955
 30
0.0
 40
0.0433070858
  0
CIRCLE
  5
194B
330
1E
100
AcDbEntity
  8
0
100
AcDbCircle
 10
13.19120946020655
 20
5.441339698832955
 30
0.0
 40
0.118110234
  0
CIRCLE
  5
194C
330
1E
100
AcDbEntity
  8
0
100
AcDbCircle
 10
13.191209460207
 20
7.409843598833042
 30
0.0
 40
0.0433070858
  0
CIRCLE
  5
194D
330
1E
100
AcDbEntity
  8
0
100
AcDbCircle
 10
13.191209460207
 20
7.409843598833042
 30
0.0
 40
0.118110234
  0
CIRCLE
  5
194E
330
1E
100
AcDbEntity
  8
0
100
AcDbCircle
 10
10.63215439020689
 20
5.441339698832955
 30
0.0
 40
0.0433070858
  0
CIRCLE
  5
194F
330
1E
100
AcDbEntity
  8
0
100
AcDbCircle
 10
10.63215439020689
 20
5.441339698832955
 30
0.0
 40
0.118110234
  0
CIRCLE
  5
1950
330
1E
100
AcDbEntity
  8
0
100
AcDbCircle
 10
10.63215439020689
 20
7.409843598833042
 30
0.0
 40
0.0433070858
  0
CIRCLE
  5
1951
330
1E
100
AcDbEntity
  8
0
100
AcDbCircle
 10
10.63215439020689
 20
7.409843598833042
 30
0.0
 40
0.118110234
  0
LINE
  5
1952
330
1E
100
AcDbEntity
  8
0
100
AcDbLine
 10
12.79750868020675
 20
2.016142912832938
 30
0.0
 11
12.79750868020675
 21
2.38572816702571
 31
0.0
  0
LINE
  5
1953
330
1E
100
AcDbEntity
  8
0
100
AcDbLine
 10
12.87624883620662
 20
2.11456810783283
 30
0.0
 11
12.87624883620662
 21
2.016142912832938
 31
0.0
  0
LINE
  5
1954
330
1E
100
AcDbEntity
  8
0
100
AcDbLine
 10
10.9471150142068
 20
2.11456810783283
 30
0.0
 11
10.9471150142068
 21
2.016142912832938
 31
0.0
  0
LINE
  5
1955
330
1E
100
AcDbEntity
  8
0
100
AcDbLine
 10
11.02585517020668
 20
2.016142912832938
 30
0.0
 11
11.02585517020668
 21
2.38572816702571
 31
0.0
  0
LINE
  5
1956
330
1E
100
AcDbEntity
  8
0
100
AcDbLine
 10
12.4628630172068
 20
2.450612743481078
 30
0.0
 11
12.60065829020675
 21
2.450612743481078
 31
0.0
  0
LINE
  5
1957
330
1E
100
AcDbEntity
  8
0
100
AcDbLine
 10
12.04947719820677
 20
2.450612743481078
 30
0.0
 11
12.18727247120671
 21
2.450612743481078
 31
0.0
  0
LINE
  5
1958
330
1E
100
AcDbEntity
  8
0
100
AcDbLine
 10
11.63609137920673
 20
2.450612743481078
 30
0.0
 11
11.77388665220665
 21
2.450612743481078
 31
0.0
  0
LINE
  5
1959
330
1E
100
AcDbEntity
  8
0
100
AcDbLine
 10
11.22270556020668
 20
2.450612743481078
 30
0.0
 11
11.36050083320685
 21
2.450612743481078
 31
0.0
  0
ARC
  5
195A
330
1E
100
AcDbEntity
  8
0
100
AcDbCircle
 10
11.02585517020668
 20
2.450612743481078
 30
0.0
 40
0.059055117
100
AcDbArc
 50
180.0
 51
269.9999999999993
  0
ARC
  5
195B
330
1E
100
AcDbEntity
  8
0
100
AcDbCircle
 10
12.79750868020675
 20
2.450612743481078
 30
0.0
 40
0.059055117
100
AcDbArc
 50
270.0
 51
0.0
  0
LINE
  5
195C
330
1E
100
AcDbEntity
  8
0
100
AcDbLine
 10
11.02585517020668
 20
2.391557626481235
 30
0.0
 11
12.79750868020675
 21
2.391557626481235
 31
0.0
  0
LINE
  5
195D
330
1E
100
AcDbEntity
  8
0
100
AcDbLine
 10
11.71483153520682
 20
4.476772787832933
 30
0.0
 11
12.10853231520684
 21
4.476772787832933
 31
0.0
  0
LINE
  5
195E
330
1E
100
AcDbEntity
  8
0
100
AcDbLine
 10
12.10853231520684
 20
4.476772787832933
 30
0.0
 11
12.79750868020675
 21
4.476772787832933
 31
0.0
  0
ARC
  5
195F
330
1E
100
AcDbEntity
  8
0
100
AcDbCircle
 10
12.79750868020675
 20
4.41771767083309
 30
0.0
 40
0.118110234
100
AcDbArc
 50
359.9999999999996
 51
89.99999999999849
  0
ARC
  5
1960
330
1E
100
AcDbEntity
  8
0
100
AcDbCircle
 10
11.02585517020668
 20
4.41771767083309
 30
0.0
 40
0.118110234
100
AcDbArc
 50
90.00000000000143
 51
180.0000000000006
  0
LINE
  5
1961
330
1E
100
AcDbEntity
  8
0
100
AcDbLine
 10
12.10853231520684
 20
4.535827904833233
 30
0.0
 11
12.79750868020675
 21
4.535827904833233
 31
0.0
  0
LINE
  5
1962
330
1E
100
AcDbEntity
  8
0
100
AcDbLine
 10
11.02585517020668
 20
4.535827904833233
 30
0.0
 11
11.71483153520682
 21
4.535827904833233
 31
0.0
  0
LINE
  5
1963
330
1E
100
AcDbEntity
  8
0
100
AcDbLine
 10
11.71483153520682
 20
4.811418450833108
 30
0.0
 11
11.71483153520682
 21
4.476772787832933
 31
0.0
  0
LINE
  5
1964
330
1E
100
AcDbEntity
  8
0
100
AcDbLine
 10
11.91168192520682
 20
4.811418450833108
 30
0.0
 11
11.71483153520682
 21
4.811418450833108
 31
0.0
  0
LINE
  5
1965
330
1E
100
AcDbEntity
  8
0
100
AcDbLine
 10
12.10853231520684
 20
4.811418450833108
 30
0.0
 11
12.10853231520684
 21
4.476772787832933
 31
0.0
  0
LINE
  5
1966
330
1E
100
AcDbEntity
  8
0
100
AcDbLine
 10
11.91168192520682
 20
4.811418450833108
 30
0.0
 11
12.10853231520684
 21
4.811418450833108
 31
0.0
  0
LINE
  5
1967
330
1E
100
AcDbEntity
  8
0
100
AcDbLine
 10
11.71483153520682
 20
4.496457826833187
 30
0.0
 11
12.10853231520684
 21
4.496457826833187
 31
0.0
  0
LINE
  5
1968
330
1E
100
AcDbEntity
  8
0
100
AcDbLine
 10
12.4628630172068
 20
4.41771767083309
 30
0.0
 11
12.60065829020675
 21
4.41771767083309
 31
0.0
  0
LINE
  5
1969
330
1E
100
AcDbEntity
  8
0
100
AcDbLine
 10
12.04947719820677
 20
4.41771767083309
 30
0.0
 11
12.18727247120671
 21
4.41771767083309
 31
0.0
  0
LINE
  5
196A
330
1E
100
AcDbEntity
  8
0
100
AcDbLine
 10
11.63609137920673
 20
4.41771767083309
 30
0.0
 11
11.77388665220689
 21
4.41771767083309
 31
0.0
  0
LINE
  5
196B
330
1E
100
AcDbEntity
  8
0
100
AcDbLine
 10
11.2227055602069
 20
4.41771767083309
 30
0.0
 11
11.36050083320685
 21
4.41771767083309
 31
0.0
  0
ARC
  5
196C
330
1E
100
AcDbEntity
  8
0
100
AcDbCircle
 10
12.79750868020675
 20
4.41771767083309
 30
0.0
 40
0.059055117
100
AcDbArc
 50
0.0
 51
89.99999999999666
  0
ARC
  5
196D
330
1E
100
AcDbEntity
  8
0
100
AcDbCircle
 10
11.02585517020668
 20
4.41771767083309
 30
0.0
 40
0.059055117
100
AcDbArc
 50
89.99999999999728
 51
180.0
  0
LINE
  5
196E
330
1E
100
AcDbEntity
  8
0
100
AcDbLine
 10
11.02585517020668
 20
4.476772787832933
 30
0.0
 11
11.71483153520682
 21
4.476772787832933
 31
0.0
  0
LINE
  5
196F
330
1E
100
AcDbEntity
  8
0
100
AcDbLine
 10
10.90774493620676
 20
2.153938185832878
 30
0.0
 11
10.90774493620676
 21
4.41771767083309
 31
0.0
  0
LINE
  5
1970
330
1E
100
AcDbEntity
  8
0
100
AcDbLine
 10
12.91561891420667
 20
2.153938185832878
 30
0.0
 11
12.9156189142069
 21
4.41771767083309
 31
0.0
  0
LINE
  5
1971
330
1E
100
AcDbEntity
  8
0
100
AcDbLine
 10
12.85656379720683
 20
2.450612743481078
 30
0.0
 11
12.85656379720683
 21
4.41771767083309
 31
0.0
  0
LINE
  5
1972
330
1E
100
AcDbEntity
  8
0
100
AcDbLine
 10
10.96680005320683
 20
2.450612743481078
 30
0.0
 11
10.96680005320683
 21
4.41771767083309
 31
0.0
  0
LINE
  5
1973
330
1E
100
AcDbEntity
  8
0
100
AcDbLine
 10
12.30538270520662
 20
4.535827904833233
 30
0.0
 11
12.30538270520685
 21
4.476772787832933
 31
0.0
  0
LINE
  5
1974
330
1E
100
AcDbEntity
  8
0
100
AcDbLine
 10
11.51798114520659
 20
4.535827904833233
 30
0.0
 11
11.51798114520681
 21
4.476772787832933
 31
0.0
  0
LINE
  5
1975
330
1E
100
AcDbEntity
  8
0
100
AcDbLine
 10
11.22270556020668
 20
4.378347592833042
 30
0.0
 11
11.36050083320685
 21
4.378347592833042
 31
0.0
  0
LINE
  5
1976
330
1E
100
AcDbEntity
  8
0
100
AcDbLine
 10
11.36050083320685
 20
4.41771767083309
 30
0.0
 11
11.36050083320685
 21
4.378347592833042
 31
0.0
  0
LINE
  5
1977
330
1E
100
AcDbEntity
  8
0
100
AcDbLine
 10
11.2227055602069
 20
4.41771767083309
 30
0.0
 11
11.22270556020668
 21
4.378347592833042
 31
0.0
  0
LINE
  5
1978
330
1E
100
AcDbEntity
  8
0
100
AcDbLine
 10
11.63609137920673
 20
4.378347592833042
 30
0.0
 11
11.77388665220689
 21
4.378347592833042
 31
0.0
  0
LINE
  5
1979
330
1E
100
AcDbEntity
  8
0
100
AcDbLine
 10
11.77388665220689
 20
4.41771767083309
 30
0.0
 11
11.77388665220689
 21
4.378347592833042
 31
0.0
  0
LINE
  5
197A
330
1E
100
AcDbEntity
  8
0
100
AcDbLine
 10
11.63609137920673
 20
4.41771767083309
 30
0.0
 11
11.63609137920673
 21
4.378347592833042
 31
0.0
  0
LINE
  5
197B
330
1E
100
AcDbEntity
  8
0
100
AcDbLine
 10
12.04947719820677
 20
4.378347592833042
 30
0.0
 11
12.18727247120671
 21
4.378347592833042
 31
0.0
  0
LINE
  5
197C
330
1E
100
AcDbEntity
  8
0
100
AcDbLine
 10
12.18727247120671
 20
4.41771767083309
 30
0.0
 11
12.18727247120671
 21
4.378347592833042
 31
0.0
  0
LINE
  5
197D
330
1E
100
AcDbEntity
  8
0
100
AcDbLine
 10
12.04947719820677
 20
4.41771767083309
 30
0.0
 11
12.04947719820677
 21
4.378347592833042
 31
0.0
  0
LINE
  5
197E
330
1E
100
AcDbEntity
  8
0
100
AcDbLine
 10
12.4628630172068
 20
4.378347592833042
 30
0.0
 11
12.60065829020675
 21
4.378347592833042
 31
0.0
  0
LINE
  5
197F
330
1E
100
AcDbEntity
  8
0
100
AcDbLine
 10
12.60065829020675
 20
4.41771767083309
 30
0.0
 11
12.60065829020675
 21
4.378347592833042
 31
0.0
  0
LINE
  5
1980
330
1E
100
AcDbEntity
  8
0
100
AcDbLine
 10
12.4628630172068
 20
4.41771767083309
 30
0.0
 11
12.4628630172068
 21
4.378347592833042
 31
0.0
  0
LINE
  5
1981
330
1E
100
AcDbEntity
  8
0
100
AcDbLine
 10
11.22270556020668
 20
2.489982821481127
 30
0.0
 11
11.36050083320685
 21
2.489982821481127
 31
0.0
  0
LINE
  5
1982
330
1E
100
AcDbEntity
  8
0
100
AcDbLine
 10
11.36050083320685
 20
2.450612743481078
 30
0.0
 11
11.36050083320685
 21
2.489982821481127
 31
0.0
  0
LINE
  5
1983
330
1E
100
AcDbEntity
  8
0
100
AcDbLine
 10
11.22270556020668
 20
2.450612743481078
 30
0.0
 11
11.22270556020668
 21
2.489982821481127
 31
0.0
  0
LINE
  5
1984
330
1E
100
AcDbEntity
  8
0
100
AcDbLine
 10
11.63609137920673
 20
2.489982821481127
 30
0.0
 11
11.77388665220665
 21
2.489982821481127
 31
0.0
  0
LINE
  5
1985
330
1E
100
AcDbEntity
  8
0
100
AcDbLine
 10
11.77388665220665
 20
2.450612743481078
 30
0.0
 11
11.77388665220665
 21
2.489982821481127
 31
0.0
  0
LINE
  5
1986
330
1E
100
AcDbEntity
  8
0
100
AcDbLine
 10
11.63609137920673
 20
2.450612743481078
 30
0.0
 11
11.63609137920673
 21
2.489982821481127
 31
0.0
  0
LINE
  5
1987
330
1E
100
AcDbEntity
  8
0
100
AcDbLine
 10
12.04947719820677
 20
2.489982821481127
 30
0.0
 11
12.18727247120671
 21
2.489982821481127
 31
0.0
  0
LINE
  5
1988
330
1E
100
AcDbEntity
  8
0
100
AcDbLine
 10
12.18727247120671
 20
2.450612743481078
 30
0.0
 11
12.18727247120671
 21
2.489982821481127
 31
0.0
  0
LINE
  5
1989
330
1E
100
AcDbEntity
  8
0
100
AcDbLine
 10
12.04947719820677
 20
2.450612743481078
 30
0.0
 11
12.04947719820677
 21
2.489982821481127
 31
0.0
  0
LINE
  5
198A
330
1E
100
AcDbEntity
  8
0
100
AcDbLine
 10
12.4628630172068
 20
2.489982821481127
 30
0.0
 11
12.60065829020675
 21
2.489982821481127
 31
0.0
  0
LINE
  5
198B
330
1E
100
AcDbEntity
  8
0
100
AcDbLine
 10
12.60065829020675
 20
2.450612743481078
 30
0.0
 11
12.60065829020675
 21
2.489982821481127
 31
0.0
  0
LINE
  5
198C
330
1E
100
AcDbEntity
  8
0
100
AcDbLine
 10
12.4628630172068
 20
2.450612743481078
 30
0.0
 11
12.4628630172068
 21
2.489982821481127
 31
0.0
  0
CIRCLE
  5
198D
330
1E
100
AcDbEntity
  8
0
100
AcDbCircle
 10
11.22270556020668
 20
2.21299330283272
 30
0.0
 40
0.0649606287
  0
CIRCLE
  5
198E
330
1E
100
AcDbEntity
  8
0
100
AcDbCircle
 10
12.60065829020675
 20
2.21299330283272
 30
0.0
 40
0.0649606287
  0
CIRCLE
  5
198F
330
1E
100
AcDbEntity
  8
0
100
AcDbCircle
 10
12.60065829020652
 20
2.21299330283272
 30
0.0
 40
0.118110234
  0
CIRCLE
  5
1990
330
1E
100
AcDbEntity
  8
0
100
AcDbCircle
 10
12.60065829020652
 20
2.21299330283272
 30
0.0
 40
0.177165351
  0
CIRCLE
  5
1991
330
1E
100
AcDbEntity
  8
0
100
AcDbCircle
 10
11.22270556020668
 20
2.21299330283272
 30
0.0
 40
0.118110234
  0
CIRCLE
  5
1992
330
1E
100
AcDbEntity
  8
0
100
AcDbCircle
 10
11.22270556020668
 20
2.21299330283272
 30
0.0
 40
0.177165351
  0
CIRCLE
  5
1993
330
1E
100
AcDbEntity
  8
0
100
AcDbCircle
 10
13.28963465520689
 20
7.803544378833057
 30
0.0
 40
0.118110234
  0
CIRCLE
  5
1994
330
1E
100
AcDbEntity
  8
0
100
AcDbCircle
 10
10.533729195207
 20
7.803544378833057
 30
0.0
 40
0.118110234
  0
CIRCLE
  5
1995
330
1E
100
AcDbEntity
  8
0
100
AcDbCircle
 10
13.28963465520689
 20
7.803544378833057
 30
0.0
 40
0.0649606287
  0
CIRCLE
  5
1996
330
1E
100
AcDbEntity
  8
0
100
AcDbCircle
 10
10.533729195207
 20
7.803544378833057
 30
0.0
 40
0.0649606287
  0
CIRCLE
  5
1997
330
1E
100
AcDbEntity
  8
0
100
AcDbCircle
 10
13.28963465520689
 20
7.803544378833057
 30
0.0
 40
0.177165351
  0
CIRCLE
  5
1998
330
1E
100
AcDbEntity
  8
0
100
AcDbCircle
 10
10.533729195207
 20
7.803544378833057
 30
0.0
 40
0.177165351
  0
LINE
  5
1999
330
1E
100
AcDbEntity
  8
0
100
AcDbLine
 10
10.533729195207
 20
8.197245158833077
 30
0.0
 11
13.28963465520689
 21
8.197245158833077
 31
0.0
  0
LINE
  5
199A
330
1E
100
AcDbEntity
  8
0
100
AcDbLine
 10
11.91168192520706
 20
8.157875080833028
 30
0.0
 11
13.06719371450697
 21
8.157875080833028
 31
0.0
  0
LINE
  5
199B
330
1E
100
AcDbEntity
  8
0
100
AcDbLine
 10
13.02782363650692
 20
8.094882956032954
 30
0.0
 11
13.02782363650692
 21
8.055512878032907
 31
0.0
  0
LINE
  5
199C
330
1E
100
AcDbEntity
  8
0
100
AcDbLine
 10
13.02782363650692
 20
8.157875080833028
 30
0.0
 11
13.06719371450697
 21
8.157875080833028
 31
0.0
  0
LINE
  5
199D
330
1E
100
AcDbEntity
  8
0
100
AcDbLine
 10
13.02782363650692
 20
8.197245158833077
 30
0.0
 11
13.02782363650692
 21
8.157875080833028
 31
0.0
  0
LINE
  5
199E
330
1E
100
AcDbEntity
  8
0
100
AcDbLine
 10
13.02782363650692
 20
8.094882956032954
 30
0.0
 11
13.02782363650692
 21
8.059449885833137
 31
0.0
  0
LINE
  5
199F
330
1E
100
AcDbEntity
  8
0
100
AcDbLine
 10
13.02782363650692
 20
8.197245158833077
 30
0.0
 11
13.02782363650692
 21
8.157875080833028
 31
0.0
  0
LINE
  5
19A0
330
1E
100
AcDbEntity
  8
0
100
AcDbLine
 10
13.02782363650692
 20
8.197245158833077
 30
0.0
 11
13.02782363650692
 21
8.157875080833028
 31
0.0
  0
LWPOLYLINE
  5
19A1
330
1E
100
AcDbEntity
  8
0
100
AcDbPolyline
 90
       15
 70
     0
 43
0.0
 10
10.20605693146433
 20
8.059449885833137
 42
0.2152504370213741
 10
10.17939849320703
 20
8.000394768832839
 10
10.17939849320703
 20
5.866614586791449
 42
0.0793414481584511
 10
10.18331443130443
 20
5.842092176996168
 42
-0.0793414481584524
 10
10.75026462420701
 20
2.291733458832815
 10
10.75026462420701
 20
2.094883068833034
 42
0.4142135623730951
 10
10.82900478020712
 20
2.016142912832938
 10
11.91168192520658
 20
2.016142912832938
 10
12.99435907020654
 20
2.016142912832938
 42
0.4142135623730951
 10
13.07309922620663
 20
2.094883068833034
 10
13.07309922620663
 20
2.291733458832815
 42
-0.0793414481584525
 10
13.64004941910946
 20
5.842092176995712
 42
0.0793414481585407
 10
13.64396535720685
 20
5.866614586791449
 10
13.64396535720709
 20
8.000394768832839
 42
0.2152504370219975
 10
13.61730691894956
 20
8.059449885833137
 42
0.2152504370219975
  0
LWPOLYLINE
  5
19A2
330
1E
100
AcDbEntity
  8
0
100
AcDbPolyline
 90
       17
 70
     0
 43
0.0
 10
10.533729195207
 20
8.197245158833077
 10
10.25813864920712
 20
8.197245158833077
 42
0.4142135623730951
 10
10.06128825920709
 20
8.000394768832839
 10
10.06128825920709
 20
5.866614586791449
 42
0.0793414481584475
 10
10.0710781044505
 20
5.805308562303244
 42
-0.0793414481584524
 10
10.63215439020712
 20
2.291733458832815
 10
10.63215439020712
 20
2.094883068833034
 42
0.4142135623730951
 10
10.82900478020712
 20
1.898032678832796
 10
11.91168192520658
 20
1.898032678832796
 10
12.99435907020654
 20
1.898032678832796
 42
0.414213562373095
 10
13.19120946020675
 20
2.094883068833034
 10
13.19120946020675
 20
2.291733458832815
 42
-0.0793414481584525
 10
13.75228574596335
 20
5.805308562302791
 42
0.0793414481584475
 10
13.76207559120699
 20
5.866614586790994
 10
13.76207559120699
 20
8.000394768832839
 42
0.4142135623730951
 10
13.565225201207
 20
8.197245158833077
 10
13.2896346552071
 20
8.197245158833077
  0
LINE
  5
19A6
330
1E
100
AcDbEntity
  8
0
100
AcDbLine
 10
8.110565982421771
 20
7.803544378833057
 30
0.0
 11
8.0515108654217
 21
7.744489261833216
 31
0.0
  0
LINE
  5
19A7
330
1E
100
AcDbEntity
  8
0
100
AcDbLine
 10
8.0515108654217
 20
7.862599495832902
 30
0.0
 11
8.110565982421771
 21
7.803544378833057
 31
0.0
  0
LINE
  5
19A8
330
1E
100
AcDbEntity
  8
0
100
AcDbLine
 10
8.0515108654217
 20
7.862599495832902
 30
0.0
 11
8.0515108654217
 21
7.744489261833216
 31
0.0
  0
LINE
  5
19A9
330
1E
100
AcDbEntity
  8
0
100
AcDbLine
 10
8.0515108654217
 20
7.862599495833357
 30
0.0
 11
8.0515108654217
 21
7.961024690833245
 31
0.0
  0
LINE
  5
19AA
330
1E
100
AcDbEntity
  8
0
100
AcDbLine
 10
8.0515108654217
 20
7.646064066832868
 30
0.0
 11
8.0515108654217
 21
7.744489261833216
 31
0.0
  0
LINE
  5
19AB
330
1E
100
AcDbEntity
  8
0
100
AcDbLine
 10
8.110565982421771
 20
7.646064066832868
 30
0.0
 11
8.0515108654217
 21
7.646064066832868
 31
0.0
  0
LINE
  5
19AC
330
1E
100
AcDbEntity
  8
0
100
AcDbLine
 10
8.110565982421771
 20
7.961024690833245
 30
0.0
 11
8.0515108654217
 21
7.961024690833245
 31
0.0
  0
HATCH
  5
19AD
330
1E
100
AcDbEntity
  8
0
100
AcDbHatch
 10
0.0
 20
0.0
 30
0.0
210
0.0
220
0.0
230
1.0
  2
ANSI31
 70
     0
 71
     0
 91
        3
 92
        7
 72
     1
 73
     1
 93
       14
 10
7.677495124421707
 20
4.131656134114557
 42
0.0
 10
7.618440007421861
 20
4.131656134114557
 42
0.0
 10
7.618440007421861
 20
2.43900919354427
 42
0.4091108014276764
 10
7.657122982819112
 20
2.399645111797772
 42
0.0
 10
7.886156537821728
 20
2.395647316224303
 42
0.0
 10
7.886156537821728
 20
2.38678123509225
 42
0.0
 10
7.850163878562366
 20
2.350788575833114
 42
0.0
 10
7.689306147821723
 20
2.350788575833114
 42
0.0
 10
7.689306147821723
 20
2.277953931532913
 42
0.0
 10
7.844142472173156
 20
2.277953931532913
 42
0.0
 10
7.907134596973687
 20
2.340946056332988
 42
0.0
 10
7.945211654821799
 20
2.340946056332988
 42
0.0
 10
7.945211654821799
 20
2.453680618073114
 42
0.0
 10
7.677495124421707
 20
2.45835362749357
 42
0.0
 97
        0
 92
        7
 72
     1
 73
     1
 93
        7
 10
7.677495124421707
 20
4.408568818421819
 42
0.0
 10
7.964896693821824
 20
4.413585431476342
 42
0.0
 10
7.964896693821824
 20
4.472649544226888
 42
0.0
 10
7.657122982819112
 20
4.467277334118072
 42
0.4091108014276758
 10
7.618440007421861
 20
4.427913252371573
 42
0.0
 10
7.618440007421861
 20
4.279922397833153
 42
0.0
 10
7.677495124421707
 20
4.279922397833153
 42
0.0
 97
        0
 92
        7
 72
     0
 73
     1
 93
       16
 10
7.945211654821799
 20
2.085040549332909
 10
7.907134596972777
 20
2.085040549332909
 10
7.844142472173156
 20
2.148032674132529
 10
7.689306147821723
 20
2.148032674132529
 10
7.689306147821723
 20
2.075198029833237
 10
7.850163878562366
 20
2.075198029833237
 10
7.886156537821728
 20
2.039205370573645
 10
7.886156537821728
 20
2.021714239927398
 10
7.728676225821767
 20
2.016214906252563
 10
7.630251030821877
 20
2.016214906252563
 10
7.630251030821877
 20
1.976772834832893
 10
7.689306147821723
 20
1.976772834832893
 10
7.689306147821723
 20
1.917717717833047
 10
7.728676225821767
 20
1.917717717833047
 10
7.728676225821767
 20
1.898032678832796
 10
7.945211654821799
 20
1.905594262635979
 97
        0
 75
     0
 76
     1
 52
0.0
 41
0.0118110234
 77
     0
 78
     1
 53
45.0
 43
12.88290263406222
 44
-13.10382971809803
 45
-0.0265165037959853
 46
0.0265165037959853
 79
     0
 47
0.1576373008890546
 98
        3
 10
7.646715453184208
 20
3.827835918933025
 10
7.65292625867411
 20
4.34915603768376
 10
7.839255928428396
 20
1.934946965165174
  0
LINE
  5
19AE
330
1E
100
AcDbEntity
  8
0
100
AcDbLine
 10
7.689306147821723
 20
7.9216546128332
 30
0.0
 11
7.689306147821723
 21
7.685434144833371
 31
0.0
  0
LINE
  5
19AF
330
1E
100
AcDbEntity
  8
0
100
AcDbLine
 10
7.689306147821723
 20
8.177560119832826
 30
0.0
 11
7.689306147821723
 21
8.157875080833028
 31
0.0
  0
LINE
  5
19B0
330
1E
100
AcDbEntity
  8
0
100
AcDbLine
 10
7.63025103082165
 20
2.41089333411809
 30
0.0
 11
7.63025103082165
 21
2.331103536832863
 31
0.0
  0
LINE
  5
19B1
330
1E
100
AcDbEntity
  8
0
100
AcDbLine
 10
7.689306147821723
 20
1.976772834832893
 30
0.0
 11
7.689306147821723
 21
1.917717717833047
 31
0.0
  0
LINE
  5
19B2
330
1E
100
AcDbEntity
  8
0
100
AcDbLine
 10
7.728676225821767
 20
1.917717717833047
 30
0.0
 11
7.728676225821767
 21
1.898032678833253
 31
0.0
  0
LINE
  5
19B3
330
1E
100
AcDbEntity
  8
0
100
AcDbLine
 10
7.728676225821767
 20
2.016214906253019
 30
0.0
 11
7.63025103082165
 21
2.016214906252563
 31
0.0
  0
LINE
  5
19B4
330
1E
100
AcDbEntity
  8
0
100
AcDbLine
 10
7.728676225821767
 20
8.197245158833077
 30
0.0
 11
7.728676225821767
 21
8.177560119832826
 31
0.0
  0
LINE
  5
19B5
330
1E
100
AcDbEntity
  8
0
100
AcDbLine
 10
7.728676225821767
 20
8.177560119833279
 30
0.0
 11
7.689306147821723
 21
8.177560119833279
 31
0.0
  0
LINE
  5
19B7
330
1E
100
AcDbEntity
  8
0
100
AcDbLine
 10
7.689306147821723
 20
1.976772834833345
 30
0.0
 11
7.63025103082165
 21
1.976772834833345
 31
0.0
  0
LINE
  5
19B8
330
1E
100
AcDbEntity
  8
0
100
AcDbLine
 10
7.728676225821767
 20
1.917717717833047
 30
0.0
 11
7.689306147821723
 21
1.917717717833047
 31
0.0
  0
LINE
  5
19B9
330
1E
100
AcDbEntity
  8
0
100
AcDbLine
 10
7.630251030821654
 20
8.055512878032907
 30
0.0
 11
7.630251030821646
 21
7.9216546128332
 31
0.0
  0
LINE
  5
19BA
330
1E
100
AcDbEntity
  8
0
100
AcDbLine
 10
7.689306147821723
 20
2.350788575833114
 30
0.0
 11
7.689306147821723
 21
2.016214906253019
 31
0.0
  0
LINE
  5
19BB
330
1E
100
AcDbEntity
  8
0
100
AcDbLine
 10
7.728676225821767
 20
8.177560119832826
 30
0.0
 11
7.689306147821723
 21
8.177560119832826
 31
0.0
  0
LINE
  5
19BD
330
1E
100
AcDbEntity
  8
0
100
AcDbLine
 10
7.689306147821723
 20
1.976772834832893
 30
0.0
 11
7.63025103082165
 21
1.976772834832893
 31
0.0
  0
LINE
  5
19BE
330
1E
100
AcDbEntity
  8
0
100
AcDbLine
 10
7.728676225821767
 20
1.917717717833047
 30
0.0
 11
7.689306147821723
 21
1.917717717833047
 31
0.0
  0
LINE
  5
19BF
330
1E
100
AcDbEntity
  8
0
100
AcDbLine
 10
7.99245574842163
 20
8.055512878032907
 30
0.0
 11
7.689306147821723
 21
8.055512878032907
 31
0.0
  0
LINE
  5
19C0
330
1E
100
AcDbEntity
  8
0
100
AcDbLine
 10
8.031825826421677
 20
8.094882956032954
 30
0.0
 11
7.689306147821723
 21
8.094882956032954
 31
0.0
  0
ARC
  5
19C1
330
1E
100
AcDbEntity
  8
0
100
AcDbCircle
 10
8.071195904421724
 20
8.025728597442132
 30
0.0
 40
0.039370078
100
AcDbArc
 50
0.0
 51
88.00000000003818
  0
LINE
  5
19C2
330
1E
100
AcDbEntity
  8
0
100
AcDbLine
 10
7.945211654821799
 20
4.338977514832997
 30
0.0
 11
7.945211654821799
 21
2.527953926833099
 31
0.0
  0
LINE
  5
19C3
330
1E
100
AcDbEntity
  8
0
100
AcDbLine
 10
7.677495124421707
 20
4.131656134114557
 30
0.0
 11
7.618440007421636
 21
4.131656134114557
 31
0.0
  0
LINE
  5
19C4
330
1E
100
AcDbEntity
  8
0
100
AcDbLine
 10
7.677495124421707
 20
4.279922397833153
 30
0.0
 11
7.618440007421636
 21
4.279922397833153
 31
0.0
  0
HATCH
  5
19C5
330
1E
100
AcDbEntity
  8
0
100
AcDbHatch
 10
0.0
 20
0.0
 30
0.0
210
0.0
220
0.0
230
1.0
  2
ANSI31
 70
     0
 71
     0
 91
        2
 92
        7
 72
     1
 73
     1
 93
       11
 10
8.201117161821652
 20
8.028670188256903
 42
0.4040262258351751
 10
8.049132833451007
 20
8.186054567505827
 42
0.0
 10
8.049132833451007
 20
8.157875080833028
 42
0.0
 10
8.088502911451055
 20
8.157875080833028
 42
0.0
 10
8.088502911451055
 20
8.098819963833186
 42
0.0
 10
8.049132833451007
 20
8.098819963833186
 42
0.0
 10
8.049132833451235
 20
8.067872340086061
 42
0.0
 10
8.072569900329167
 20
8.067053899676002
 42
-0.4040262258351816
 10
8.110565982421771
 20
8.027707804863888
 42
0.0
 10
8.110565982421771
 20
5.047638918832936
 42
0.0
 10
8.201117161821652
 20
5.047638918832936
 42
0.0
 97
        0
 92
        7
 72
     0
 73
     1
 93
       10
 10
8.201117161821652
 20
5.047638918832936
 10
8.110565982421771
 20
5.047638918832936
 10
8.110565982421771
 20
4.811418450833108
 10
8.149936060421817
 20
4.811418450833108
 10
8.149936060421817
 20
4.693308216832965
 10
8.118439998021781
 20
4.693308216832965
 10
8.118439998021781
 20
4.65393813883292
 10
8.149936060421817
 20
4.62244207643288
 10
8.149936060421817
 20
4.496457826833187
 10
8.201117161821652
 20
4.496457826833187
 97
        0
 75
     0
 76
     1
 52
0.0
 41
0.0118110234
 77
     0
 78
     1
 53
45.0
 43
12.88290263406222
 44
-13.10382971809803
 45
-0.0265165037959853
 46
0.0265165037959853
 79
     0
 47
0.2143444201797465
 98
        2
 10
8.170519890160187
 20
7.314923669682677
 10
8.178965207262502
 20
4.943633025623505
  0
LINE
  5
19C6
330
1E
100
AcDbEntity
  8
0
100
AcDbLine
 10
8.149936060421591
 20
4.693308216832965
 30
0.0
 11
8.118439998021781
 21
4.693308216832965
 31
0.0
  0
LINE
  5
19C7
330
1E
100
AcDbEntity
  8
0
100
AcDbLine
 10
8.110565982421771
 20
5.398032613032675
 30
0.0
 11
7.913715592421763
 21
5.398032613032675
 31
0.0
  0
LINE
  5
19C8
330
1E
100
AcDbEntity
  8
0
100
AcDbLine
 10
8.110565982421771
 20
5.484646784632777
 30
0.0
 11
7.913715592421763
 21
5.484646784632777
 31
0.0
  0
LINE
  5
19C9
330
1E
100
AcDbEntity
  8
0
100
AcDbLine
 10
7.913715592421763
 20
5.333071984332938
 30
0.0
 11
8.110565982421771
 21
5.323229464833268
 31
0.0
  0
LINE
  5
19CA
330
1E
100
AcDbEntity
  8
0
100
AcDbLine
 10
7.913715592421763
 20
5.549607413332971
 30
0.0
 11
8.110565982421771
 21
5.559449932833096
 31
0.0
  0
LINE
  5
19CB
330
1E
100
AcDbEntity
  8
0
100
AcDbLine
 10
7.913715592421763
 20
5.549607413332971
 30
0.0
 11
7.913715592421763
 21
5.333071984332938
 31
0.0
  0
LINE
  5
19CC
330
1E
100
AcDbEntity
  8
0
100
AcDbLine
 10
8.110565982421771
 20
7.366536513032762
 30
0.0
 11
7.913715592421763
 21
7.366536513032762
 31
0.0
  0
LINE
  5
19CD
330
1E
100
AcDbEntity
  8
0
100
AcDbLine
 10
8.110565982421771
 20
7.453150684632866
 30
0.0
 11
7.913715592421763
 21
7.453150684632866
 31
0.0
  0
LINE
  5
19CE
330
1E
100
AcDbEntity
  8
0
100
AcDbLine
 10
7.913715592421763
 20
7.301575884333026
 30
0.0
 11
8.110565982421771
 21
7.2917333648329
 31
0.0
  0
LINE
  5
19CF
330
1E
100
AcDbEntity
  8
0
100
AcDbLine
 10
7.913715592421763
 20
7.518111313333057
 30
0.0
 11
8.110565982421771
 21
7.527953832833182
 31
0.0
  0
LINE
  5
19D0
330
1E
100
AcDbEntity
  8
0
100
AcDbLine
 10
7.913715592421763
 20
7.518111313333057
 30
0.0
 11
7.913715592421763
 21
7.301575884333026
 31
0.0
  0
LINE
  5
19D1
330
1E
100
AcDbEntity
  8
0
100
AcDbLine
 10
7.99245574842163
 20
8.094882956032954
 30
0.0
 11
7.99245574842163
 21
8.055512878032907
 31
0.0
  0
LINE
  5
19D2
330
1E
100
AcDbEntity
  8
0
100
AcDbLine
 10
8.031825826421677
 20
8.157875080833028
 30
0.0
 11
8.031825826421677
 21
8.094882956032954
 31
0.0
  0
LINE
  5
19D3
330
1E
100
AcDbEntity
  8
0
100
AcDbLine
 10
7.99245574842163
 20
8.157875080833028
 30
0.0
 11
8.031825826421677
 21
8.157875080833028
 31
0.0
  0
LINE
  5
19D4
330
1E
100
AcDbEntity
  8
0
100
AcDbLine
 10
8.031825826421677
 20
8.157875080833028
 30
0.0
 11
7.689306147821723
 21
8.157875080833028
 31
0.0
  0
LINE
  5
19D5
330
1E
100
AcDbEntity
  8
0
100
AcDbLine
 10
7.99245574842163
 20
8.157875080833028
 30
0.0
 11
7.99245574842163
 21
8.186054567505827
 31
0.0
  0
LINE
  5
19D6
330
1E
100
AcDbEntity
  8
0
100
AcDbLine
 10
7.854660475421692
 20
7.626379027833074
 30
0.0
 11
7.854660475421692
 21
7.685434144833371
 31
0.0
  0
LINE
  5
19D7
330
1E
100
AcDbEntity
  8
0
100
AcDbLine
 10
7.854660475421692
 20
7.980709729833042
 30
0.0
 11
7.854660475421692
 21
7.9216546128332
 31
0.0
  0
LINE
  5
19D8
330
1E
100
AcDbEntity
  8
0
100
AcDbLine
 10
8.110565982421544
 20
7.626379027833074
 30
0.0
 11
7.854660475421692
 21
7.626379027833074
 31
0.0
  0
LINE
  5
19D9
330
1E
100
AcDbEntity
  8
0
100
AcDbLine
 10
8.110565982421544
 20
7.980709729833042
 30
0.0
 11
7.854660475421692
 21
7.980709729833042
 31
0.0
  0
LINE
  5
19DA
330
1E
100
AcDbEntity
  8
0
100
AcDbLine
 10
7.854660475421692
 20
7.685434144833371
 30
0.0
 11
7.689306147821723
 21
7.685434144833371
 31
0.0
  0
LINE
  5
19DB
330
1E
100
AcDbEntity
  8
0
100
AcDbLine
 10
7.854660475421692
 20
7.9216546128332
 30
0.0
 11
7.689306147821723
 21
7.9216546128332
 31
0.0
  0
LINE
  5
19DC
330
1E
100
AcDbEntity
  8
0
100
AcDbLine
 10
7.905841576821752
 20
7.676884645484269
 30
0.0
 11
7.844142472173156
 21
7.738583750132867
 31
0.0
  0
LINE
  5
19DD
330
1E
100
AcDbEntity
  8
0
100
AcDbLine
 10
7.689306147821723
 20
7.868505007532794
 30
0.0
 11
7.844142472173156
 21
7.868505007532794
 31
0.0
  0
LINE
  5
19DE
330
1E
100
AcDbEntity
  8
0
100
AcDbLine
 10
7.689306147821723
 20
7.738583750132867
 30
0.0
 11
7.844142472173156
 21
7.738583750132867
 31
0.0
  0
LINE
  5
19DF
330
1E
100
AcDbEntity
  8
0
100
AcDbLine
 10
7.905841576821752
 20
7.930204112181392
 30
0.0
 11
7.844142472173156
 21
7.868505007532794
 31
0.0
  0
LINE
  5
19E0
330
1E
100
AcDbEntity
  8
0
100
AcDbLine
 10
7.905841576821752
 20
7.931497132333326
 30
0.0
 11
8.110565982421771
 21
7.931497132333326
 31
0.0
  0
LINE
  5
19E1
330
1E
100
AcDbEntity
  8
0
100
AcDbLine
 10
7.905841576821752
 20
7.675591625333247
 30
0.0
 11
8.110565982421771
 21
7.675591625333247
 31
0.0
  0
LINE
  5
19E2
330
1E
100
AcDbEntity
  8
0
100
AcDbLine
 10
7.905841576821526
 20
2.086333569484388
 30
0.0
 11
7.844142472173156
 21
2.148032674132529
 31
0.0
  0
LINE
  5
19E3
330
1E
100
AcDbEntity
  8
0
100
AcDbLine
 10
7.905841576821752
 20
2.339653036181053
 30
0.0
 11
7.844142472173156
 21
2.277953931532913
 31
0.0
  0
LINE
  5
19E4
330
1E
100
AcDbEntity
  8
0
100
AcDbLine
 10
7.905841576821752
 20
2.085040549333363
 30
0.0
 11
7.945211654821572
 21
2.085040549332909
 31
0.0
  0
LINE
  5
19E5
330
1E
100
AcDbEntity
  8
0
100
AcDbLine
 10
7.905841576821752
 20
2.340946056332988
 30
0.0
 11
7.945211654821572
 21
2.340946056332988
 31
0.0
  0
LINE
  5
19E6
330
1E
100
AcDbEntity
  8
0
100
AcDbLine
 10
7.886156537821728
 20
2.039205370573645
 30
0.0
 11
7.850163878562366
 21
2.075198029833237
 31
0.0
  0
LINE
  5
19E7
330
1E
100
AcDbEntity
  8
0
100
AcDbLine
 10
7.886156537821728
 20
2.38678123509225
 30
0.0
 11
7.850163878562366
 21
2.350788575833114
 31
0.0
  0
LINE
  5
19E8
330
1E
100
AcDbEntity
  8
0
100
AcDbLine
 10
7.689306147821723
 20
2.148032674132982
 30
0.0
 11
7.844142472173156
 21
2.148032674132982
 31
0.0
  0
LINE
  5
19E9
330
1E
100
AcDbEntity
  8
0
100
AcDbLine
 10
7.689306147821723
 20
2.277953931532913
 30
0.0
 11
7.844142472173156
 21
2.277953931532913
 31
0.0
  0
LINE
  5
19EA
330
1E
100
AcDbEntity
  8
0
100
AcDbLine
 10
7.886156537821728
 20
2.039205370573645
 30
0.0
 11
7.886156537821728
 21
2.021714239927398
 31
0.0
  0
LINE
  5
19EB
330
1E
100
AcDbEntity
  8
0
100
AcDbLine
 10
7.689306147821723
 20
2.350788575833114
 30
0.0
 11
7.850163878562366
 21
2.350788575833114
 31
0.0
  0
LINE
  5
19EC
330
1E
100
AcDbEntity
  8
0
100
AcDbLine
 10
7.689306147821723
 20
2.075198029833237
 30
0.0
 11
7.850163878562366
 21
2.075198029833237
 31
0.0
  0
LINE
  5
19EE
330
1E
100
AcDbEntity
  8
0
100
AcDbLine
 10
7.91371559242199
 20
2.48858384883305
 30
0.0
 11
7.91371559242199
 21
2.454230383887527
 31
0.0
  0
LINE
  5
19EF
330
1E
100
AcDbEntity
  8
0
100
AcDbLine
 10
7.945211654821799
 20
4.378347592833042
 30
0.0
 11
7.945211654821572
 21
4.338977514833451
 31
0.0
  0
LINE
  5
19F0
330
1E
100
AcDbEntity
  8
0
100
AcDbLine
 10
7.945211654821799
 20
2.527953926833099
 30
0.0
 11
7.677495124421707
 21
2.527953926833099
 31
0.0
  0
LINE
  5
19F1
330
1E
100
AcDbEntity
  8
0
100
AcDbLine
 10
7.945211654821799
 20
2.48858384883305
 30
0.0
 11
7.945211654821799
 21
2.527953926833099
 31
0.0
  0
LINE
  5
19F2
330
1E
100
AcDbEntity
  8
0
100
AcDbLine
 10
7.677495124421707
 20
2.48858384883305
 30
0.0
 11
7.945211654821799
 21
2.48858384883305
 31
0.0
  0
LINE
  5
19F3
330
1E
100
AcDbEntity
  8
0
100
AcDbLine
 10
7.913715592421763
 20
4.41269206202832
 30
0.0
 11
7.913715592421763
 21
4.378347592833042
 31
0.0
  0
LINE
  5
19F4
330
1E
100
AcDbEntity
  8
0
100
AcDbLine
 10
7.677495124421707
 20
4.378347592833042
 30
0.0
 11
7.945211654821799
 21
4.378347592833042
 31
0.0
  0
LINE
  5
19F5
330
1E
100
AcDbEntity
  8
0
100
AcDbLine
 10
7.677495124421707
 20
4.338977514832997
 30
0.0
 11
7.945211654821799
 21
4.338977514832997
 31
0.0
  0
ARC
  5
19F6
330
1E
100
AcDbEntity
  8
0
100
AcDbCircle
 10
7.657810085421682
 20
2.43900919354427
 30
0.0
 40
0.039370078
100
AcDbArc
 50
180.0000000000004
 51
268.9999999999938
  0
ARC
  5
19F7
330
1E
100
AcDbEntity
  8
0
100
AcDbCircle
 10
7.657810085421682
 20
4.427913252371573
 30
0.0
 40
0.039370078
100
AcDbArc
 50
91.00000000001044
 51
180.0000000000004
  0
LINE
  5
19F8
330
1E
100
AcDbEntity
  8
0
100
AcDbLine
 10
7.618440007421636
 20
4.427913252371573
 30
0.0
 11
7.618440007421636
 21
2.43900919354427
 31
0.0
  0
LINE
  5
19F9
330
1E
100
AcDbEntity
  8
0
100
AcDbLine
 10
7.677495124421707
 20
4.408568818421819
 30
0.0
 11
7.677495124421707
 21
2.458353627494025
 31
0.0
  0
LINE
  5
19FA
330
1E
100
AcDbEntity
  8
0
100
AcDbLine
 10
8.149936060421591
 20
4.622442076433336
 30
0.0
 11
8.149936060421591
 21
4.496457826833187
 31
0.0
  0
LINE
  5
19FB
330
1E
100
AcDbEntity
  8
0
100
AcDbLine
 10
8.118439998021552
 20
4.65393813883292
 30
0.0
 11
8.118439998021781
 21
4.693308216832965
 31
0.0
  0
LINE
  5
19FC
330
1E
100
AcDbEntity
  8
0
100
AcDbLine
 10
8.118439998021552
 20
4.65393813883292
 30
0.0
 11
8.149936060421591
 21
4.622442076433336
 31
0.0
  0
LINE
  5
19FD
330
1E
100
AcDbEntity
  8
0
100
AcDbLine
 10
8.110565982421771
 20
4.475192211117238
 30
0.0
 11
8.110565982421771
 21
2.058733633808961
 31
0.0
  0
LINE
  5
19FE
330
1E
100
AcDbEntity
  8
0
100
AcDbLine
 10
8.039699842021686
 20
2.114568107833285
 30
0.0
 11
8.110565982421771
 21
2.114568107833285
 31
0.0
  0
LINE
  5
19FF
330
1E
100
AcDbEntity
  8
0
100
AcDbLine
 10
8.039699842021686
 20
2.385728167025254
 30
0.0
 11
7.945211654821572
 21
2.385728167025254
 31
0.0
  0
LINE
  5
1A00
330
1E
100
AcDbEntity
  8
0
100
AcDbLine
 10
8.039699842021686
 20
2.385728167025254
 30
0.0
 11
8.039699842021686
 21
2.114568107833285
 31
0.0
  0
LINE
  5
1A01
330
1E
100
AcDbEntity
  8
0
100
AcDbLine
 10
7.886156537821728
 20
2.395647316224303
 30
0.0
 11
7.657122982818886
 21
2.399645111797772
 31
0.0
  0
LINE
  5
1A02
330
1E
100
AcDbEntity
  8
0
100
AcDbLine
 10
7.945211654821572
 20
2.023776490055745
 30
0.0
 11
8.103752799267821
 21
2.029312868815875
 31
0.0
  0
LINE
  5
1A03
330
1E
100
AcDbEntity
  8
0
100
AcDbLine
 10
7.886156537821728
 20
2.394616505323021
 30
0.0
 11
7.886156537821728
 21
2.38678123509225
 31
0.0
  0
LINE
  5
1A04
330
1E
100
AcDbEntity
  8
0
100
AcDbLine
 10
8.110565982421771
 20
8.025728597442132
 30
0.0
 11
8.110565982421771
 21
4.76417435723305
 31
0.0
  0
LINE
  5
1A05
330
1E
100
AcDbEntity
  8
0
100
AcDbLine
 10
8.110565982421771
 20
4.496457826833187
 30
0.0
 11
8.110565982421771
 21
4.475192211117238
 31
0.0
  0
LINE
  5
1A06
330
1E
100
AcDbEntity
  8
0
100
AcDbLine
 10
7.945211654821572
 20
2.453680618073569
 30
0.0
 11
7.945211654821572
 21
1.905594262635979
 31
0.0
  0
LINE
  5
1A07
330
1E
100
AcDbEntity
  8
0
100
AcDbLine
 10
7.964896693821597
 20
4.472649544226888
 30
0.0
 11
7.964896693821597
 21
4.413585431476342
 31
0.0
  0
LINE
  5
1A08
330
1E
100
AcDbEntity
  8
0
100
AcDbLine
 10
8.149936060421591
 20
4.811418450833108
 30
0.0
 11
8.149936060421591
 21
4.693308216832965
 31
0.0
  0
LINE
  5
1A09
330
1E
100
AcDbEntity
  8
0
100
AcDbLine
 10
8.149936060421591
 20
4.811418450833108
 30
0.0
 11
8.110565982421771
 21
4.811418450833108
 31
0.0
  0
LINE
  5
1A0A
330
1E
100
AcDbEntity
  8
0
100
AcDbLine
 10
8.0515108654217
 20
4.415097287465508
 30
0.0
 11
7.677495124421707
 21
4.408568818421819
 31
0.0
  0
LINE
  5
1A0B
330
1E
100
AcDbEntity
  8
0
100
AcDbLine
 10
7.945211654821799
 20
2.453680618073569
 30
0.0
 11
7.677495124421707
 21
2.458353627494025
 31
0.0
  0
LINE
  5
1A0C
330
1E
100
AcDbEntity
  8
0
100
AcDbLine
 10
8.201117161821652
 20
4.496457826833187
 30
0.0
 11
8.110565982421771
 21
4.496457826833187
 31
0.0
  0
LINE
  5
1A0D
330
1E
100
AcDbEntity
  8
0
100
AcDbLine
 10
8.0515108654217
 20
4.474161400215677
 30
0.0
 11
7.657122982818886
 21
4.467277334118072
 31
0.0
  0
LINE
  5
1A0E
330
1E
100
AcDbEntity
  8
0
100
AcDbLine
 10
7.728676225821767
 20
2.016214906253019
 30
0.0
 11
7.886156537821728
 21
2.021714239927398
 31
0.0
  0
LINE
  5
1A0F
330
1E
100
AcDbEntity
  8
0
100
AcDbLine
 10
7.99245574842163
 20
8.067872340086061
 30
0.0
 11
8.072569900328938
 21
8.065074692254249
 31
0.0
  0
LINE
  5
1A10
330
1E
100
AcDbEntity
  8
0
100
AcDbLine
 10
7.728676225821767
 20
1.898032678833253
 30
0.0
 11
8.049132833451007
 21
1.909223270160048
 31
0.0
  0
LINE
  5
1A11
330
1E
100
AcDbEntity
  8
0
100
AcDbLine
 10
7.728676225821767
 20
8.197245158833077
 30
0.0
 11
8.049132833451007
 21
8.186054567505827
 31
0.0
  0
ARC
  5
1A12
330
1E
100
AcDbEntity
  8
0
100
AcDbCircle
 10
8.043636849821691
 20
8.028670188256903
 30
0.0
 40
0.157480312
100
AcDbArc
 50
0.0000000000001527
 51
88.00000000000379
  0
ARC
  5
1A13
330
1E
100
AcDbEntity
  8
0
100
AcDbCircle
 10
8.043636849821691
 20
2.06660764940897
 30
0.0
 40
0.157480312
100
AcDbArc
 50
271.9999999999903
 51
0.0000000000003435
  0
LINE
  5
1A14
330
1E
100
AcDbEntity
  8
0
100
AcDbLine
 10
8.201117161821652
 20
8.028670188256903
 30
0.0
 11
8.201117161821652
 21
2.06660764940897
 31
0.0
  0
LINE
  5
1ACB
330
1E
100
AcDbEntity
  8
0
100
AcDbLine
 10
7.216865211821607
 20
8.028670188256903
 30
0.0
 11
7.216865211821607
 21
2.06660764940897
 31
0.0
  0
LINE
  5
1ACC
330
1E
100
AcDbEntity
  8
0
100
AcDbLine
 10
7.216865211821607
 20
8.028670188256903
 30
0.0
 11
7.216865211821607
 21
2.06660764940897
 31
0.0
  0
LINE
  5
1ACD
330
1E
100
AcDbEntity
  8
0
100
AcDbLine
 10
7.307416391221488
 20
8.027707804863888
 30
0.0
 11
7.307416391221488
 21
2.067570032801988
 31
0.0
  0
LINE
  5
1ACE
330
1E
100
AcDbEntity
  8
0
100
AcDbLine
 10
7.256235289821655
 20
5.866614586790994
 30
0.0
 11
7.256235289821655
 21
7.882284534832699
 31
0.0
  0
LINE
  5
1AD0
330
1E
100
AcDbEntity
  8
0
100
AcDbLine
 10
7.618440007421636
 20
7.685434144832917
 30
0.0
 11
7.618440007421636
 21
2.331103536832863
 31
0.0
  0
HATCH
  5
1AD1
330
1E
100
AcDbEntity
  8
0
100
AcDbHatch
 10
0.0
 20
0.0
 30
0.0
210
0.0
220
0.0
230
1.0
  2
ANSI31
 70
     0
 71
     0
 91
        2
 92
        7
 72
     1
 73
     1
 93
       18
 10
7.216865211821607
 20
5.866614586790994
 42
0.0
 10
7.256235289821655
 20
5.866614586790994
 42
0.0
 10
7.256235289821655
 20
7.882284534832699
 42
0.0
 10
7.216865211821607
 20
7.882284534832699
 42
0.0
 10
7.216865211821607
 20
8.028670188256903
 42
-0.4040262258352413
 10
7.36884954019248
 20
8.186054567505827
 42
0.0
 10
7.425526625221632
 20
8.18803377492758
 42
0.0
 10
7.425526625221632
 20
8.157875080833028
 42
0.0
 10
7.386156547221585
 20
8.157875080833028
 42
0.0
 10
7.386156547221585
 20
8.094882956032954
 42
0.0
 10
7.425526625221632
 20
8.094882956032954
 42
0.0
 10
7.425526625221632
 20
8.069851547507816
 42
0.0
 10
7.345412473314322
 20
8.067053899676002
 42
0.4040262258352758
 10
7.307416391221945
 20
8.027707804863888
 42
0.0
 10
7.307416391221945
 20
5.047638918832936
 42
0.0
 10
7.256235289821655
 20
5.047638918832936
 42
0.0
 10
7.256235289821655
 20
5.197323260791101
 42
0.0
 10
7.216865211821607
 20
5.197323260791101
 42
0.0
 97
        0
 92
        7
 72
     1
 73
     1
 93
       13
 10
7.216865211821607
 20
2.06660764940897
 42
0.0
 10
7.216865211821607
 20
2.21299330283272
 42
0.0
 10
7.256235289821655
 20
2.21299330283272
 42
0.0
 10
7.256235289821655
 20
5.047638918832936
 42
0.0
 10
7.307416391221945
 20
5.047638918832936
 42
0.0
 10
7.307416391221945
 20
2.067570032801988
 42
0.4040262258352269
 10
7.345412473314322
 20
2.028223937989869
 42
0.0
 10
7.618440007421636
 20
2.018689606406489
 42
0.0
 10
7.618440007421636
 20
1.968898819232883
 42
0.0
 10
7.689306147821723
 20
1.968898819232883
 42
0.0
 10
7.689306147821723
 20
1.917717717833047
 42
0.0
 10
7.689306147821723
 20
1.898032678832796
 42
0.0
 10
7.36884954019248
 20
1.909223270160048
 42
-0.4040262258352393
 97
        0
 75
     0
 76
     1
 52
0.0
 41
0.0118110234
 77
     0
 78
     1
 53
135.0
 43
-21.79467533395567
 44
-13.10382971809803
 45
0.0265165037959853
 46
0.0265165037959853
 79
     0
 47
0.3552886399255722
 98
        2
 10
7.248115027802182
 20
5.535565052156464
 10
7.514087460527173
 20
1.954703170834811
  0
LINE
  5
1AD2
330
1E
100
AcDbEntity
  8
0
100
AcDbLine
 10
7.689306147821723
 20
1.898032678832796
 30
0.0
 11
7.36884954019248
 21
1.909223270160048
 31
0.0
  0
LINE
  5
1AD3
330
1E
100
AcDbEntity
  8
0
100
AcDbLine
 10
7.689306147821723
 20
1.898032678832796
 30
0.0
 11
7.36884954019248
 21
1.909223270160048
 31
0.0
  0
LINE
  5
1AD4
330
1E
100
AcDbEntity
  8
0
100
AcDbLine
 10
7.618440007421636
 20
2.018689606406489
 30
0.0
 11
7.345412473314322
 21
2.028223937989869
 31
0.0
  0
LINE
  5
1AD5
330
1E
100
AcDbEntity
  8
0
100
AcDbLine
 10
7.307416391221488
 20
2.331103536832863
 30
0.0
 11
7.689306147821723
 21
2.331103536832863
 31
0.0
  0
LINE
  5
1AD6
330
1E
100
AcDbEntity
  8
0
100
AcDbLine
 10
7.307416391221488
 20
2.094883068833034
 30
0.0
 11
7.689306147821723
 21
2.094883068833034
 31
0.0
  0
LINE
  5
1AD7
330
1E
100
AcDbEntity
  8
0
100
AcDbLine
 10
7.319227414621732
 20
2.162796453382716
 30
0.0
 11
7.689306147821723
 21
2.162796453382716
 31
0.0
  0
LINE
  5
1AD8
330
1E
100
AcDbEntity
  8
0
100
AcDbLine
 10
7.319227414621732
 20
2.263190152282724
 30
0.0
 11
7.689306147821723
 21
2.263190152282724
 31
0.0
  0
LINE
  5
1AD9
330
1E
100
AcDbEntity
  8
0
100
AcDbLine
 10
7.504266781221726
 20
2.793701953334667
 30
0.0
 11
7.307416391221488
 21
2.803544472834794
 31
0.0
  0
LINE
  5
1ADA
330
1E
100
AcDbEntity
  8
0
100
AcDbLine
 10
7.504266781221726
 20
2.577166524334634
 30
0.0
 11
7.307416391221488
 21
2.567324004834965
 31
0.0
  0
LINE
  5
1ADB
330
1E
100
AcDbEntity
  8
0
100
AcDbLine
 10
7.307416391221488
 20
2.728741324634476
 30
0.0
 11
7.504266781221726
 21
2.728741324634476
 31
0.0
  0
LINE
  5
1ADC
330
1E
100
AcDbEntity
  8
0
100
AcDbLine
 10
7.307416391221488
 20
2.642127153034826
 30
0.0
 11
7.504266781221726
 21
2.642127153034826
 31
0.0
  0
LINE
  5
1ADD
330
1E
100
AcDbEntity
  8
0
100
AcDbLine
 10
7.504266781221726
 20
5.54960741333479
 30
0.0
 11
7.307416391221488
 21
5.559449932834914
 31
0.0
  0
LINE
  5
1ADE
330
1E
100
AcDbEntity
  8
0
100
AcDbLine
 10
7.504266781221726
 20
5.333071984334758
 30
0.0
 11
7.307416391221488
 21
5.323229464835087
 31
0.0
  0
LINE
  5
1ADF
330
1E
100
AcDbEntity
  8
0
100
AcDbLine
 10
7.307416391221488
 20
5.484646784634596
 30
0.0
 11
7.504266781221726
 21
5.484646784634596
 31
0.0
  0
LINE
  5
1AE0
330
1E
100
AcDbEntity
  8
0
100
AcDbLine
 10
7.307416391221488
 20
5.398032613034493
 30
0.0
 11
7.504266781221726
 21
5.398032613034493
 31
0.0
  0
LINE
  5
1AE1
330
1E
100
AcDbEntity
  8
0
100
AcDbLine
 10
7.504266781221726
 20
7.518111313333057
 30
0.0
 11
7.307416391221488
 21
7.527953832833182
 31
0.0
  0
LINE
  5
1AE2
330
1E
100
AcDbEntity
  8
0
100
AcDbLine
 10
7.504266781221726
 20
7.301575884333026
 30
0.0
 11
7.307416391221488
 21
7.2917333648329
 31
0.0
  0
LINE
  5
1AE3
330
1E
100
AcDbEntity
  8
0
100
AcDbLine
 10
7.307416391221488
 20
7.453150684632866
 30
0.0
 11
7.504266781221726
 21
7.453150684632866
 31
0.0
  0
LINE
  5
1AE4
330
1E
100
AcDbEntity
  8
0
100
AcDbLine
 10
7.307416391221488
 20
7.366536513032762
 30
0.0
 11
7.504266781221726
 21
7.366536513032762
 31
0.0
  0
LINE
  5
1AE5
330
1E
100
AcDbEntity
  8
0
100
AcDbLine
 10
7.256235289821655
 20
2.21299330283272
 30
0.0
 11
7.256235289821655
 21
5.197323260791101
 31
0.0
  0
ARC
  5
1AE6
330
1E
100
AcDbEntity
  8
0
100
AcDbCircle
 10
7.374345523821797
 20
2.06660764940897
 30
0.0
 40
0.157480312
100
AcDbArc
 50
180.0
 51
268.0000000000221
  0
ARC
  5
1AE7
330
1E
100
AcDbEntity
  8
0
100
AcDbCircle
 10
7.374345523821797
 20
2.06660764940897
 30
0.0
 40
0.157480312
100
AcDbArc
 50
180.0
 51
268.0000000000221
  0
ARC
  5
1AE8
330
1E
100
AcDbEntity
  8
0
100
AcDbCircle
 10
7.346786469221536
 20
2.067570032801988
 30
0.0
 40
0.039370078
100
AcDbArc
 50
180.0
 51
268.0000000000221
  0
LINE
  5
1AE9
330
1E
100
AcDbEntity
  8
0
100
AcDbLine
 10
7.319227414621732
 20
2.263190152282724
 30
0.0
 11
7.319227414621732
 21
2.162796453382716
 31
0.0
  0
LINE
  5
1AEA
330
1E
100
AcDbEntity
  8
0
100
AcDbLine
 10
7.319227414621732
 20
2.263190152282724
 30
0.0
 11
7.307416391221488
 21
2.275001175682966
 31
0.0
  0
LINE
  5
1AEB
330
1E
100
AcDbEntity
  8
0
100
AcDbLine
 10
7.319227414621732
 20
2.162796453382716
 30
0.0
 11
7.307416391221488
 21
2.150985429982929
 31
0.0
  0
LINE
  5
1AEC
330
1E
100
AcDbEntity
  8
0
100
AcDbLine
 10
7.256235289821655
 20
2.21299330283272
 30
0.0
 11
7.216865211821607
 21
2.21299330283272
 31
0.0
  0
LINE
  5
1AED
330
1E
100
AcDbEntity
  8
0
100
AcDbLine
 10
7.256235289821655
 20
5.197323260791101
 30
0.0
 11
7.216865211821607
 21
5.197323260791101
 31
0.0
  0
LINE
  5
1AEE
330
1E
100
AcDbEntity
  8
0
100
AcDbLine
 10
7.256235289821655
 20
5.866614586790994
 30
0.0
 11
7.216865211821607
 21
5.866614586790994
 31
0.0
  0
LINE
  5
1AEF
330
1E
100
AcDbEntity
  8
0
100
AcDbLine
 10
7.504266781221726
 20
2.793701953334667
 30
0.0
 11
7.504266781221726
 21
2.577166524334634
 31
0.0
  0
LINE
  5
1AF0
330
1E
100
AcDbEntity
  8
0
100
AcDbLine
 10
7.618440007421636
 20
2.094883068833034
 30
0.0
 11
7.618440007421636
 21
1.968898819232883
 31
0.0
  0
LINE
  5
1AF1
330
1E
100
AcDbEntity
  8
0
100
AcDbLine
 10
7.689306147821723
 20
1.917717717833047
 30
0.0
 11
7.689306147821723
 21
1.898032678832796
 31
0.0
  0
LINE
  5
1AF2
330
1E
100
AcDbEntity
  8
0
100
AcDbLine
 10
7.618440007421636
 20
1.968898819232883
 30
0.0
 11
7.689306147821723
 21
1.968898819232883
 31
0.0
  0
LINE
  5
1AF3
330
1E
100
AcDbEntity
  8
0
100
AcDbLine
 10
7.504266781221726
 20
5.54960741333479
 30
0.0
 11
7.504266781221726
 21
5.333071984334758
 31
0.0
  0
LINE
  5
1AF4
330
1E
100
AcDbEntity
  8
0
100
AcDbLine
 10
7.504266781221726
 20
7.518111313333057
 30
0.0
 11
7.504266781221726
 21
7.301575884333026
 31
0.0
  0
LINE
  5
1AF5
330
1E
100
AcDbEntity
  8
0
100
AcDbLine
 10
7.689306147821723
 20
8.197245158832622
 30
0.0
 11
7.36884954019248
 21
8.186054567505827
 31
0.0
  0
LINE
  5
1AF6
330
1E
100
AcDbEntity
  8
0
100
AcDbLine
 10
7.689306147821723
 20
8.197245158833077
 30
0.0
 11
7.36884954019248
 21
8.186054567505827
 31
0.0
  0
LINE
  5
1AF7
330
1E
100
AcDbEntity
  8
0
100
AcDbLine
 10
7.386156547221585
 20
8.157875080833028
 30
0.0
 11
7.689306147821723
 21
8.157875080833028
 31
0.0
  0
LINE
  5
1AF8
330
1E
100
AcDbEntity
  8
0
100
AcDbLine
 10
7.307416391221488
 20
7.9216546128332
 30
0.0
 11
7.689306147821723
 21
7.9216546128332
 31
0.0
  0
LINE
  5
1AF9
330
1E
100
AcDbEntity
  8
0
100
AcDbLine
 10
7.307416391221488
 20
7.685434144832917
 30
0.0
 11
7.689306147821723
 21
7.685434144832917
 31
0.0
  0
LINE
  5
1AFA
330
1E
100
AcDbEntity
  8
0
100
AcDbLine
 10
7.319227414621732
 20
7.853741228283062
 30
0.0
 11
7.689306147821723
 21
7.853741228283062
 31
0.0
  0
LINE
  5
1AFB
330
1E
100
AcDbEntity
  8
0
100
AcDbLine
 10
7.319227414621732
 20
7.753347529383056
 30
0.0
 11
7.689306147821723
 21
7.753347529383056
 31
0.0
  0
LINE
  5
1AFC
330
1E
100
AcDbEntity
  8
0
100
AcDbLine
 10
7.386156547221585
 20
8.094882956032954
 30
0.0
 11
7.689306147821723
 21
8.094882956032954
 31
0.0
  0
LINE
  5
1AFD
330
1E
100
AcDbEntity
  8
0
100
AcDbLine
 10
7.425526625221632
 20
8.055512878032907
 30
0.0
 11
7.689306147821723
 21
8.055512878032907
 31
0.0
  0
ARC
  5
1AFE
330
1E
100
AcDbEntity
  8
0
100
AcDbCircle
 10
7.374345523821797
 20
8.028670188256903
 30
0.0
 40
0.157480312
100
AcDbArc
 50
92.00000000000395
 51
180.0
  0
ARC
  5
1AFF
330
1E
100
AcDbEntity
  8
0
100
AcDbCircle
 10
7.374345523821797
 20
8.028670188256903
 30
0.0
 40
0.157480312
100
AcDbArc
 50
92.00000000000395
 51
180.0
  0
LINE
  5
1B00
330
1E
100
AcDbEntity
  8
0
100
AcDbLine
 10
7.425526625221632
 20
8.069851547507816
 30
0.0
 11
7.345412473314322
 21
8.067053899676002
 31
0.0
  0
ARC
  5
1B01
330
1E
100
AcDbEntity
  8
0
100
AcDbCircle
 10
7.346786469221536
 20
8.027707804863888
 30
0.0
 40
0.039370078
100
AcDbArc
 50
91.99999999997791
 51
180.0
  0
LINE
  5
1B02
330
1E
100
AcDbEntity
  8
0
100
AcDbLine
 10
7.425526625221632
 20
8.055512878032907
 30
0.0
 11
7.425526625221632
 21
8.094882956032954
 31
0.0
  0
LINE
  5
1B03
330
1E
100
AcDbEntity
  8
0
100
AcDbLine
 10
7.386156547221585
 20
8.094882956032954
 30
0.0
 11
7.386156547221585
 21
8.157875080833028
 31
0.0
  0
LINE
  5
1B04
330
1E
100
AcDbEntity
  8
0
100
AcDbLine
 10
7.425526625221632
 20
8.157875080833028
 30
0.0
 11
7.425526625221632
 21
8.18803377492758
 31
0.0
  0
LINE
  5
1B05
330
1E
100
AcDbEntity
  8
0
100
AcDbLine
 10
7.319227414621732
 20
7.853741228283062
 30
0.0
 11
7.319227414621732
 21
7.753347529383056
 31
0.0
  0
LINE
  5
1B06
330
1E
100
AcDbEntity
  8
0
100
AcDbLine
 10
7.319227414621732
 20
7.853741228283062
 30
0.0
 11
7.307416391221488
 21
7.865552251682847
 31
0.0
  0
LINE
  5
1B07
330
1E
100
AcDbEntity
  8
0
100
AcDbLine
 10
7.319227414621732
 20
7.753347529383056
 30
0.0
 11
7.307416391221488
 21
7.741536505982812
 31
0.0
  0
LINE
  5
1B08
330
1E
100
AcDbEntity
  8
0
100
AcDbLine
 10
7.256235289821655
 20
7.882284534832699
 30
0.0
 11
7.216865211821607
 21
7.882284534832699
 31
0.0
  0
LINE
  5
1B09
330
1E
100
AcDbEntity
  8
0
100
AcDbLine
 10
7.689306147821723
 20
8.177560119832826
 30
0.0
 11
7.689306147821723
 21
8.197245158832622
 31
0.0
  0
LINE
  5
1B0A
330
1E
100
AcDbEntity
  8
0
100
AcDbLine
 10
7.618440007421636
 20
8.055512878032907
 30
0.0
 11
7.618440007421636
 21
7.9216546128332
 31
0.0
  0
LINE
  5
1B0C
330
1E
100
AcDbEntity
  8
0
100
AcDbLine
 10
7.630251030821646
 20
7.685434144832917
 30
0.0
 11
7.63025103082165
 21
4.456029111797754
 31
0.0
  0
LINE
  5
1B0D
330
1E
100
AcDbEntity
  8
0
100
AcDbLine
 10
7.63025103082165
 20
2.094883068833035
 30
0.0
 11
7.63025103082165
 21
1.976772834833345
 31
0.0
  0
LINE
  5
1B0E
330
1E
100
AcDbEntity
  8
0
100
AcDbLine
 10
7.689306147821723
 20
8.094882956032954
 30
0.0
 11
7.689306147821723
 21
8.055512878032907
 31
0.0
  0
LINE
  5
1B37
330
1E
100
AcDbEntity
  8
0
100
AcDbLine
 10
2.204446581413662
 20
9.948751130744931
 30
0.0
 11
2.204446581413662
 21
9.692845623744851
 31
0.0
  0
LINE
  5
1B38
330
1E
100
AcDbEntity
  8
0
100
AcDbLine
 10
4.121769380013688
 20
9.948751130744931
 30
0.0
 11
4.121769380013688
 21
9.692845623744851
 31
0.0
  0
LINE
  5
1B6D
330
1E
100
AcDbEntity
  8
0
100
AcDbLine
 10
12.8703433245065
 20
14.54604316096656
 30
0.0
 11
12.8703433245065
 21
11.95880860429342
 31
0.0
  0
LINE
  5
1B6E
330
1E
100
AcDbEntity
  8
0
100
AcDbLine
 10
10.95302052590648
 20
14.54604316096656
 30
0.0
 11
10.95302052590648
 21
11.95880860429342
 31
0.0
  0
LINE
  5
1B6F
330
1E
100
AcDbEntity
  8
0
100
AcDbLine
 10
12.85065828550647
 20
14.5263581219663
 30
0.0
 11
12.85065828550647
 21
11.95880860429342
 31
0.0
  0
LINE
  5
1B70
330
1E
100
AcDbEntity
  8
0
100
AcDbLine
 10
10.97270556490648
 20
14.5263581219663
 30
0.0
 11
10.97270556490648
 21
11.95880860429342
 31
0.0
  0
LINE
  5
1B71
330
1E
100
AcDbEntity
  8
0
100
AcDbLine
 10
10.95302052590648
 20
14.54604316096656
 30
0.0
 11
12.8703433245065
 21
14.54604316096656
 31
0.0
  0
LINE
  5
1B72
330
1E
100
AcDbEntity
  8
0
100
AcDbLine
 10
10.97270556490648
 20
14.5263581219663
 30
0.0
 11
12.85065828550647
 21
14.5263581219663
 31
0.0
  0
LINE
  5
1B73
330
1E
100
AcDbEntity
  8
0
100
AcDbLine
 10
11.51798114520634
 20
14.07360222496645
 30
0.0
 11
12.30538270520639
 21
14.07360222496645
 31
0.0
  0
LINE
  5
1B74
330
1E
100
AcDbEntity
  8
0
100
AcDbLine
 10
11.51798114520634
 20
14.46730300496646
 30
0.0
 11
12.30538270520639
 21
14.46730300496646
 31
0.0
  0
LWPOLYLINE
  5
1B75
330
1E
100
AcDbEntity
  8
0
100
AcDbPolyline
 90
        2
 70
     0
 43
0.0098425195
 10
11.51798114520659
 20
14.43239172640804
 10
12.30538270520639
 20
14.43239172640804
  0
LWPOLYLINE
  5
1B76
330
1E
100
AcDbEntity
  8
0
100
AcDbPolyline
 90
        2
 70
     0
 43
0.0098425195
 10
11.51798114520659
 20
14.38551747775572
 10
12.30538270520639
 20
14.38551747775572
  0
LWPOLYLINE
  5
1B77
330
1E
100
AcDbEntity
  8
0
100
AcDbPolyline
 90
        2
 70
     0
 43
0.0098425195
 10
11.51798114520659
 20
14.34059626988555
 10
12.30538270520639
 20
14.34059626988555
  0
LWPOLYLINE
  5
1B78
330
1E
100
AcDbEntity
  8
0
100
AcDbPolyline
 90
        2
 70
     0
 43
0.0098425195
 10
11.51798114520659
 20
14.29372202123322
 10
12.30538270520639
 20
14.29372202123322
  0
LWPOLYLINE
  5
1B79
330
1E
100
AcDbEntity
  8
0
100
AcDbPolyline
 90
        2
 70
     0
 43
0.0098425195
 10
11.51798114520659
 20
14.24824375824599
 10
12.30538270520639
 20
14.24824375824599
  0
LWPOLYLINE
  5
1B7A
330
1E
100
AcDbEntity
  8
0
100
AcDbPolyline
 90
        2
 70
     0
 43
0.0098425195
 10
11.51798114520659
 20
14.20136950959367
 10
12.30538270520639
 20
14.20136950959367
  0
LWPOLYLINE
  5
1B7B
330
1E
100
AcDbEntity
  8
0
100
AcDbPolyline
 90
        2
 70
     0
 43
0.0098425195
 10
11.51798114520659
 20
14.15644830172348
 10
12.30538270520639
 20
14.15644830172302
  0
LWPOLYLINE
  5
1B7C
330
1E
100
AcDbEntity
  8
0
100
AcDbPolyline
 90
        2
 70
     0
 43
0.0098425195
 10
11.51798114520659
 20
14.10957405307116
 10
12.30538270520639
 20
14.10957405307116
  0
LINE
  5
1B7D
330
1E
100
AcDbEntity
  8
0
100
AcDbLine
 10
11.51798114520634
 20
14.46730300496646
 30
0.0
 11
11.51798114520634
 21
14.07360222496645
 31
0.0
  0
LINE
  5
1B7E
330
1E
100
AcDbEntity
  8
0
100
AcDbLine
 10
12.30538270520639
 20
14.46730300496646
 30
0.0
 11
12.30538270520639
 21
14.07360222496645
 31
0.0
  0
LINE
  5
1B81
330
1E
100
AcDbEntity
  8
0
100
AcDbLine
 10
8.110565982421771
 20
4.693308216832965
 30
0.0
 11
8.110565982421771
 21
4.475192211117238
 31
0.0
  0
DIMENSION
  5
1BAF
330
1E
100
AcDbEntity
  8
0
100
AcDbDimension
  2
*D0
 10
4.316918656448931
 20
1.478416693378818
 30
0.0
 11
3.155501355449131
 21
1.478416693378818
 31
0.0
 70
    32
 71
     5
 42
2.322834601999602
  3
23NSTD
100
AcDbAlignedDimension
 13
1.994084054449331
 23
2.094883068833034
 33
0.0
 14
4.316918656448931
 24
2.094883068832579
 34
0.0
100
AcDbRotatedDimension
  0
DIMENSION
  5
1BBD
330
1E
100
AcDbEntity
  8
0
100
AcDbDimension
  2
*D1
 10
4.041328110449057
 20
3.168471137483236
 30
0.0
 11
3.155501355448904
 21
3.168471137483236
 31
0.0
 70
    32
 71
     5
 42
1.771653510000303
  3
23NSTD
100
AcDbAlignedDimension
 13
2.269674600448752
 23
2.685434238835107
 33
0.0
 14
4.041328110449057
 24
2.685434238835107
 34
0.0
100
AcDbRotatedDimension
  0
DIMENSION
  5
1BCB
330
1E
100
AcDbEntity
  8
0
100
AcDbDimension
  2
*D2
 10
4.435028890449075
 20
6.961039532940951
 30
0.0
 11
3.155501355449131
 21
6.961039532940951
 31
0.0
 70
    32
 71
     5
 42
2.559055069999884
  3
23NSTD
100
AcDbAlignedDimension
 13
1.875973820449188
 23
7.409843598834861
 33
0.0
 14
4.435028890449075
 24
7.409843598834861
 34
0.0
100
AcDbRotatedDimension
  0
DIMENSION
  5
1BD9
330
1E
100
AcDbEntity
  8
0
100
AcDbDimension
  2
*D3
 10
4.88778478744939
 20
8.621385137609742
 30
0.0
 11
3.155501355449357
 21
8.621385137609742
 31
0.0
 70
    32
 71
     5
 42
3.464566864000061
  3
23NSTD
100
AcDbAlignedDimension
 13
1.423217923449328
 23
8.000394768832839
 33
0.0
 14
4.88778478744939
 24
8.000394768832839
 34
0.0
100
AcDbRotatedDimension
  0
DIMENSION
  5
1BE7
330
1E
100
AcDbEntity
  8
0
100
AcDbDimension
  2
*D4
 10
5.581036758631157
 20
5.441339698834773
 30
0.0
 11
5.581036758631157
 21
6.425591648834817
 31
0.0
 70
    32
 71
     5
 42
1.968503900000087
  3
23NSTD
100
AcDbAlignedDimension
 13
4.435028890449075
 23
7.409843598834861
 33
0.0
 14
4.435028890449075
 24
5.441339698834773
 34
0.0
 50
90.0
100
AcDbRotatedDimension
  0
DIMENSION
  5
1BF7
330
1E
100
AcDbEntity
  8
0
100
AcDbDimension
  2
*D5
 10
11.26448520743638
 20
4.535827904833233
 30
0.0
 11
11.26448520743638
 21
6.295670391433072
 31
0.0
 70
    32
 71
     5
 42
3.519684973199672
  3
23NSTD
100
AcDbAlignedDimension
 13
11.15308661043833
 23
8.055512878032907
 33
0.0
 14
11.15308661043833
 24
4.535827904833233
 34
0.0
 50
90.0
100
AcDbRotatedDimension
  0
DIMENSION
  5
1C05
330
1E
100
AcDbEntity
  8
0
100
AcDbDimension
  2
*D6
 10
2.67083475394517
 20
2.016142912832938
 30
0.0
 11
2.67083475394517
 21
5.035827895432921
 31
0.0
 70
    32
 71
     5
 42
6.039369965199965
  3
23NSTD
100
AcDbAlignedDimension
 13
2.522443960245936
 23
8.055512878032907
 33
0.0
 14
2.522443960245936
 24
2.016142912832938
 34
0.0
 50
90.0
100
AcDbRotatedDimension
  0
DIMENSION
  5
1C3B
330
1E
100
AcDbEntity
  8
0
100
AcDbDimension
  2
*D7
 10
4.690934397449608
 20
18.65143068071157
 30
0.0
 11
3.155501355449587
 21
18.65143068071157
 31
0.0
 70
    32
 71
     5
 42
3.070866084000042
  3
23NSTD
100
AcDbAlignedDimension
 13
1.620068313449563
 23
17.94306046029332
 33
0.0
 14
4.690934397449608
 24
17.94306046029332
 34
0.0
100
AcDbRotatedDimension
  0
DIMENSION
  5
1C49
330
1E
100
AcDbEntity
  8
0
100
AcDbDimension
  2
*D8
 10
5.581036758631157
 20
15.89581640429359
 30
0.0
 11
5.581036758631151
 21
16.91943843229346
 31
0.0
 70
    32
 71
     5
 42
2.047244055999724
  3
23NSTD
100
AcDbAlignedDimension
 13
4.690934397449608
 23
17.94306046029332
 33
0.0
 14
4.690934397449608
 24
15.89581640429359
 34
0.0
 50
90.0
100
AcDbRotatedDimension
  0
DIMENSION
  5
1C57
330
1E
100
AcDbEntity
  8
0
100
AcDbDimension
  2
*D9
 10
4.120068266449607
 20
11.55748283662455
 30
0.0
 11
3.155501355449587
 21
11.55748283662455
 31
0.0
 70
    32
 71
     5
 42
1.929133822000038
  3
23NSTD
100
AcDbAlignedDimension
 13
2.190934444449565
 23
12.27376922829334
 33
0.0
 14
4.120068266449607
 24
12.27376922829334
 34
0.0
100
AcDbRotatedDimension
  0
DIMENSION
  5
1C65
330
1E
100
AcDbEntity
  8
0
100
AcDbDimension
  2
*D10
 10
4.435028890449075
 20
11.14772489152993
 30
0.0
 11
3.155501355449357
 21
11.14772489152993
 31
0.0
 70
    32
 71
     5
 42
2.55905506999943
  3
23NSTD
100
AcDbAlignedDimension
 13
1.875973820449644
 23
12.15565899429319
 33
0.0
 14
4.435028890449075
 24
12.15565899429319
 34
0.0
100
AcDbRotatedDimension
  0
DIMENSION
  5
1C73
330
1E
100
AcDbEntity
  8
0
100
AcDbDimension
  2
*D11
 10
5.005895021449531
 20
19.03835403837154
 30
0.0
 11
3.155501355449586
 21
19.03835403837154
 31
0.0
 70
    32
 71
     5
 42
3.700787331999888
  3
23NSTD
100
AcDbAlignedDimension
 13
1.305107689449639
 23
18.06117069429346
 33
0.0
 14
5.005895021449531
 24
18.06117069429324
 34
0.0
100
AcDbRotatedDimension
  0
DIMENSION
  5
1C82
330
1E
100
AcDbEntity
  8
0
100
AcDbDimension
  2
*D12
 10
6.122555895874667
 20
11.95880860429342
 30
0.0
 11
6.122555895874667
 21
15.10841484429333
 31
0.0
 70
    32
 71
     5
 42
6.299212479999821
  3
23NSTD
100
AcDbAlignedDimension
 13
4.809044631449294
 23
18.25802108429324
 33
0.0
 14
4.238178500449294
 24
11.95880860429342
 34
0.0
 50
90.0
100
AcDbRotatedDimension
  0
DIMENSION
  5
1C90
330
1E
100
AcDbEntity
  8
0
100
AcDbDimension
  2
*D13
 10
8.201117161821692
 20
18.65143068071157
 30
0.0
 11
7.700382930976173
 21
18.65143068071157
 31
0.0
 70
   160
 71
     5
 42
0.9842519500000792
  3
23NSTD
100
AcDbAlignedDimension
 13
7.216865211821612
 23
18.08944611371707
 33
0.0
 14
8.201117161821692
 24
18.08944611371707
 34
0.0
100
AcDbRotatedDimension
  0
DIMENSION
  5
1CE4
330
1E
100
AcDbEntity
  8
0
100
AcDbDimension
  2
*D14
 10
0.7302197532419217
 20
12.27376922829334
 30
0.0
 11
0.7302197532419198
 21
13.76987121507252
 31
0.0
 70
    32
 71
     5
 42
2.992203973558389
  3
23NSTD
100
AcDbAlignedDimension
 13
1.856288781449393
 23
15.26597320185173
 33
0.0
 14
2.190934444449565
 24
12.27376922829334
 34
0.0
 50
90.0
100
AcDbRotatedDimension
  0
DIMENSION
  5
1D1A
330
1E
100
AcDbEntity
  8
0
100
AcDbDimension
  2
*D15
 10
8.201117161821692
 20
1.478416693378818
 30
0.0
 11
9.122210911821692
 21
1.478416693378818
 31
0.0
 70
    32
 71
     5
 42
0.5118110139999708
  3
23NSTD
100
AcDbAlignedDimension
 13
7.689306147821723
 23
1.898032678832796
 33
0.0
 14
8.201117161821692
 24
2.066607649408973
 34
0.0
100
AcDbRotatedDimension
  0
DIMENSION
  5
1D28
330
1E
100
AcDbEntity
  8
0
100
AcDbDimension
  2
*D16
 10
7.216865211821607
 20
8.621385137609742
 30
0.0
 11
6.272333961821606
 21
8.621385137609742
 31
0.0
 70
    32
 71
     5
 42
0.472440936000112
  3
23NSTD
100
AcDbAlignedDimension
 13
7.689306147821723
 23
8.197245158833077
 33
0.0
 14
7.216865211821607
 24
8.028670188256903
 34
0.0
100
AcDbRotatedDimension
  0
DIMENSION
  5
1DF5
330
1E
100
AcDbEntity
  8
0
100
AcDbDimension
  2
*D17
 10
8.110565982421771
 20
6.425156700557856
 30
0.0
 11
9.043378482421774
 21
6.425156700557856
 31
0.0
 70
    32
 71
     5
 42
0.8031495912002819
  3
23NSTD
100
AcDbAlignedDimension
 13
7.307416391221487
 23
6.460712630621997
 33
0.0
 14
8.110565982421771
 24
6.460712630621997
 34
0.0
100
AcDbRotatedDimension
  0
DIMENSION
  5
1E03
330
1E
100
AcDbEntity
  8
0
100
AcDbDimension
  2
*D18
 10
8.201117161821652
 20
7.00623549356375
 30
0.0
 11
9.110492161821651
 21
7.00623549356375
 31
0.0
 70
    32
 71
     5
 42
0.0905511793998812
  3
23NSTD
100
AcDbAlignedDimension
 13
8.110565982421771
 23
6.974630184163037
 33
0.0
 14
8.201117161821652
 24
6.974630184163037
 34
0.0
100
AcDbRotatedDimension
  0
DIMENSION
  5
1E11
330
1E
100
AcDbEntity
  8
0
100
AcDbDimension
  2
*D19
 10
7.913715592421763
 20
5.870586163592848
 30
0.0
 11
8.846528092421761
 21
5.870586163592848
 31
0.0
 70
    32
 71
     5
 42
0.4094488112000363
  3
23NSTD
100
AcDbAlignedDimension
 13
7.504266781221726
 23
5.54960741333479
 33
0.0
 14
7.913715592421763
 24
5.549607413332971
 34
0.0
100
AcDbRotatedDimension
  0
DIMENSION
  5
1E3D
330
1E
100
AcDbEntity
  8
0
100
AcDbDimension
  2
*D20
 10
7.307416391221488
 20
4.95673379613823
 30
0.0
 11
6.386322641221489
 21
4.95673379613823
 31
0.0
 70
    32
 71
     5
 42
0.1968503900002361
  3
23NSTD
100
AcDbAlignedDimension
 13
7.504266781221726
 23
5.333071984334758
 33
0.0
 14
7.307416391221488
 24
5.025620577244623
 34
0.0
100
AcDbRotatedDimension
  0
DIMENSION
  5
1E55
330
1E
100
AcDbEntity
  8
0
100
AcDbDimension
  2
*D21
 10
5.581036758631157
 20
2.685434238835104
 30
0.0
 11
5.581036758631157
 21
4.063386968834941
 31
0.0
 70
    32
 71
     5
 42
2.755905459999666
  3
23NSTD
100
AcDbAlignedDimension
 13
4.435028890449075
 23
5.441339698834773
 33
0.0
 14
4.041328110449057
 24
2.685434238835107
 34
0.0
 50
90.0
100
AcDbRotatedDimension
  0
DIMENSION
  5
1E6F
330
1E
100
AcDbEntity
  8
0
100
AcDbDimension
  2
*D22
 10
4.330698183749631
 20
20.87199299662552
 30
0.0
 11
3.214556472449376
 21
20.87199299662552
 31
0.0
 70
    32
 71
     5
 42
2.23228342260051
  3
23NSTD
100
AcDbAlignedDimension
 13
2.098414761149119
 23
20.15868181201442
 33
0.0
 14
4.330698183749631
 24
20.15868181201442
 34
0.0
100
AcDbRotatedDimension
  0
DIMENSION
  5
1E7D
330
1E
100
AcDbEntity
  8
0
100
AcDbDimension
  2
*D23
 10
5.581036758631157
 20
19.69017788381443
 30
0.0
 11
5.581036758631151
 21
19.97364244541442
 31
0.0
 70
   160
 71
     5
 42
0.5669291231999907
  3
23NSTD
100
AcDbAlignedDimension
 13
4.232272988749741
 23
20.25710700701443
 33
0.0
 14
4.23227298875008
 24
19.69017788381443
 34
0.0
 50
90.0
100
AcDbRotatedDimension
  0
DIMENSION
  5
1ECA
330
1E
100
AcDbEntity
  8
0
100
AcDbDimension
  2
*D24
 10
4.454713929449326
 20
15.59007765299048
 30
0.0
 11
3.155501355449357
 21
15.59007765299048
 31
0.0
 70
    32
 71
     5
 42
2.598425147999931
  3
23NSTD
100
AcDbAlignedDimension
 13
1.856288781449393
 23
15.26597320185173
 33
0.0
 14
4.454713929449326
 24
15.26597320185173
 34
0.0
100
AcDbRotatedDimension
  0
LINE
  5
1F25
330
1E
100
AcDbEntity
  8
0
100
AcDbLine
 10
10.84454021390675
 20
20.28510700701432
 30
0.0
 11
12.97882363650715
 21
20.2851070070143
 31
0.0
  0
LINE
  5
1F28
330
1E
100
AcDbEntity
  8
0
100
AcDbLine
 10
13.05682363650714
 20
19.74017788381455
 30
0.0
 11
13.05682363650715
 21
20.20710700701429
 31
0.0
  0
LINE
  5
1F29
330
1E
100
AcDbEntity
  8
0
100
AcDbLine
 10
10.76654021390675
 20
19.74017788381454
 30
0.0
 11
10.76654021390675
 21
20.2071070070143
 31
0.0
  0
LINE
  5
1F2A
330
1E
100
AcDbEntity
  8
0
100
AcDbLine
 10
12.97882363650714
 20
19.66217788381455
 30
0.0
 11
10.84454021390675
 21
19.66217788381452
 31
0.0
  0
ARC
  5
1F72
330
1E
100
AcDbEntity
  8
0
100
AcDbCircle
 10
10.84454021390675
 20
20.2071070070143
 30
0.0
 40
0.078
100
AcDbArc
 50
90.0
 51
180.0
  0
ARC
  5
1F73
330
1E
100
AcDbEntity
  8
0
100
AcDbCircle
 10
12.97882363650715
 20
20.20710700701429
 30
0.0
 40
0.078
100
AcDbArc
 50
359.999999999999
 51
90.0
  0
ARC
  5
1F74
330
1E
100
AcDbEntity
  8
0
100
AcDbCircle
 10
12.97882363650714
 20
19.74017788381455
 30
0.0
 40
0.078
100
AcDbArc
 50
270.0
 51
359.9999999999988
  0
ARC
  5
1F75
330
1E
100
AcDbEntity
  8
0
100
AcDbCircle
 10
10.84454021390675
 20
19.74017788381454
 30
0.0
 40
0.078
100
AcDbArc
 50
179.9999999999999
 51
270.0
  0
DIMENSION
  5
1F79
330
1E
100
AcDbEntity
  8
0
100
AcDbDimension
  2
*D25
 10
13.55635261718396
 20
20.2851070070143
 30
0.0
 11
13.55635261718396
 21
19.97364244541442
 31
0.0
 70
   160
 71
     5
 42
0.6229291231997678
  3
23NSTD
100
AcDbAlignedDimension
 13
12.97882363650714
 23
19.66217788381455
 33
0.0
 14
12.97882363650715
 24
20.2851070070143
 34
0.0
 50
90.0
100
AcDbRotatedDimension
  0
DIMENSION
  5
1F88
330
1E
100
AcDbEntity
  8
0
100
AcDbDimension
  2
*D26
 10
10.76654021390675
 20
20.77133277355255
 30
0.0
 11
11.91168192520694
 21
20.77133277355255
 31
0.0
 70
    32
 71
     5
 42
2.290283422600403
  3
23NSTD
100
AcDbAlignedDimension
 13
13.05682363650715
 23
20.20710700701429
 33
0.0
 14
10.76654021390675
 24
20.2071070070143
 34
0.0
100
AcDbRotatedDimension
  0
TEXT
  5
1FBF
330
1E
100
AcDbEntity
  8
0
100
AcDbText
 10
1.870577196523356
 20
0.7872251775643166
 30
0.0
 40
0.187
  1
%%UINSIDE VIEW OF TOP
 41
0.75
 72
     1
 11
3.088414696523356
 21
0.7872251775643166
 31
0.0
100
AcDbText
  0
TEXT
  5
1FC0
330
1E
100
AcDbEntity
  8
0
100
AcDbText
 10
10.50853848067214
 20
0.3002957011253002
 30
0.0
 40
0.187
  1
%%UINSIDE VIEW OF BOTTOM
 41
0.75
 72
     1
 11
11.93675098067215
 21
0.3002957011253002
 31
0.0
100
AcDbText
  0
LEADER
  5
1FC1
330
1E
100
AcDbEntity
  8
0
100
AcDbLeader
  3
23NSTD
 73
     0
 74
     0
 75
     1
 40
0.5
 41
1.828125
 76
     3
 10
11.9303452974433
 20
12.41057121734305
 30
0.0
 10
12.42368351797656
 20
11.52420846551365
 30
0.0
 10
12.69368351797656
 20
11.52420846551365
 30
0.0
340
1FC2
213
0.0
223
-0.09375
233
0.0
  0
MTEXT
  5
1FC2
102
{ACAD_REACTORS
330
1FC1
102
}
330
1E
100
AcDbEntity
  8
0
100
AcDbMText
 10
12.82868351797656
 20
11.61795846551365
 30
0.0
 40
0.1875
 41
0.0
 71
     1
 72
     1
  1
\A1;REMOVABLE\PBATTERY COVER
 73
     1
 44
1.0
  0
TEXT
  5
1FC4
330
1E
100
AcDbEntity
  8
0
100
AcDbText
 10
11.13966348067215
 20
19.07395206794738
 30
0.0
 40
0.187
  1
%%UPANEL DETAIL
 41
0.75
 72
     1
 11
11.93675098067215
 21
19.07395206794738
 31
0.0
100
AcDbText
  0
LEADER
  5
1FC5
330
1E
100
AcDbEntity
  8
0
100
AcDbLeader
  3
23NSTD
 73
     0
 74
     0
 75
     1
 40
0.5
 41
1.921875
 76
     3
 10
3.658894635724536
 20
13.52002709358808
 30
0.0
 10
5.168722209967306
 20
11.52420846551365
 30
0.0
 10
5.438722209967306
 20
11.52420846551365
 30
0.0
340
1FC6
213
0.0
223
-0.09375
233
0.0
  0
MTEXT
  5
1FC6
102
{ACAD_REACTORS
330
1FC5
102
}
330
1E
100
AcDbEntity
  8
0
100
AcDbMText
 10
5.573722209967306
 20
11.61795846551365
 30
0.0
 40
0.1875
 41
0.0
 71
     1
 72
     1
  1
RECESSED AREAS\P0.039 DEEP TYP.
 73
     1
 44
1.0
  0
LEADER
  5
1FC7
330
1E
100
AcDbEntity
  8
0
100
AcDbLeader
  3
23NSTD
 73
     0
 74
     0
 75
     1
 40
0.1875
 41
0.421875
 76
     3
 10
3.363408029497819
 20
16.80834949360773
 30
0.0
 10
5.168722209967306
 20
11.52420846551365
 30
0.0
 10
5.438722209967306
 20
11.52420846551365
 30
0.0
340
1FC8
213
0.2250973883585221
223
0.0376796065528069
233
0.0
  0
MTEXT
  5
1FC8
102
{ACAD_REACTORS
330
1FC7
102
}
330
1E
100
AcDbEntity
  8
OBJECT
100
AcDbMText
 10
5.348624821608785
 20
11.13798522374733
 30
0.0
 40
0.1875
 41
0.0
 71
     1
 72
     1
  1
\A1;   
 73
     1
 44
1.0
  0
LEADER
  5
1FC9
330
1E
100
AcDbEntity
  8
0
100
AcDbLeader
  3
23NSTD
 73
     0
 74
     0
 75
     1
 40
0.8125
 41
3.234375
 76
     3
 10
11.85806588410007
 20
3.320909524031314
 30
0.0
 10
11.30723791535167
 20
1.481988381347149
 30
0.0
 10
11.57723791535167
 20
1.481988381347149
 30
0.0
340
1FCA
213
0.0
223
-0.09375
233
0.0
  0
MTEXT
  5
1FCA
102
{ACAD_REACTORS
330
1FC9
102
}
330
1E
100
AcDbEntity
  8
0
100
AcDbMText
 10
11.71223791535167
 20
1.575738381347149
 30
0.0
 40
0.1875
 41
0.0
 71
     1
 72
     1
  1
AAA BATTERY\PCOMPARTMENT (HOLDS FOUR)\P(CONTACTS INCLUDED)
 73
     1
 44
1.0
  0
TEXT
  5
209E
330
1E
100
AcDbEntity
  8
0
100
AcDbText
 10
0.7331148769108041
 20
22.06805932292155
 30
0.0
 40
0.187
  1
MATERIAL: ABS (UL94-VO)
 41
0.75
100
AcDbText
  0
TEXT
  5
209F
330
1E
100
AcDbEntity
  8
0
100
AcDbText
 10
0.7331148769108041
 20
21.68643148978197
 30
0.0
 40
0.187
  1
COLOR: BLACK (-BCB SUFFIX PART NO.)
 41
0.75
100
AcDbText
  0
TEXT
  5
20A0
330
1E
100
AcDbEntity
  8
0
100
AcDbText
 10
0.7331148769108041
 20
21.3747648231153
 30
0.0
 40
0.187
  1
       GRAY (-BCG SUFFIX PART NO.)
 41
0.75
100
AcDbText
  0
TEXT
  5
20A3
330
1E
100
AcDbEntity
  8
0
100
AcDbText
 10
1.892788878021918
 20
22.68687651583851
 30
0.0
 40
0.281
  1
GRABBER  (STYLE O)
 41
0.75
 72
     1
 11
3.684163878021919
 21
22.68687651583851
 31
0.0
100
AcDbText
  0
TEXT
  5
20A4
330
1E
100
AcDbEntity
  8
0
100
AcDbText
 10
7.771511855686012
 20
22.68687651583851
 30
0.0
 40
0.281
  1
HH-3510-BCB  HH-3510-BCG
 50
0.0238215097490277
 41
0.6697021675792265
 72
     5
 11
12.03706782638296
 21
22.68864997960599
 31
0.0
100
AcDbText
  0
TEXT
  5
20A7
330
1E
100
AcDbEntity
  8
0
100
AcDbText
 10
8.301357717004492
 20
22.06805932292155
 30
0.0
 40
0.187
  1
ALL DIMENSIONS HAVE %%P0.015 TOLERANCE
 41
0.75
100
AcDbText
  0
LEADER
  5
20C0
330
1E
100
AcDbEntity
  8
0
100
AcDbLeader
  3
23NSTD
 73
     0
 74
     0
 75
     1
 40
1.125
 41
2.625
 76
     3
 10
4.535338834571233
 20
7.477984160853814
 30
0.0
 10
6.148177152829429
 20
10.08752356963646
 30
0.0
 10
6.418177152829429
 20
10.08752356963646
 30
0.0
340
20C1
213
0.0
223
-0.09375
233
0.0
1001
ACAD
1000
DSTYLE
1002
{
1070
   147
1040
0.09
1070
    77
1070
     0
1002
}
  0
MTEXT
  5
20C1
102
{ACAD_REACTORS
330
20C0
102
}
330
1E
100
AcDbEntity
  8
0
100
AcDbMText
 10
6.553177152829428
 20
10.18127356963644
 30
0.0
 40
0.1875
 41
0.0
 71
     1
 72
     1
  1
0.236 DIA. BOSS\PWITH 0.087 DIA. HOLE\P(6) PLACES IN TOP\P(4) PLACES IN BOTTOM
 73
     1
 44
1.0
  0
TEXT
  5
20C5
330
1E
100
AcDbEntity
  8
0
100
AcDbText
 10
8.301357717004492
 20
21.3747648231153
 30
0.0
 40
0.187
  1
  SELF-TAPPING SCREWS SUPPLIED FOR ASSEMBLY
 41
0.75
100
AcDbText
  0
TEXT
  5
20C6
330
1E
100
AcDbEntity
  8
0
100
AcDbText
 10
8.301357717004492
 20
21.68643148978197
 30
0.0
 40
0.187
  1
FOUR (4) M3 x 0.433" LG. CSK. HD. ZINC PLATED
 41
0.75
100
AcDbText
  0
TEXT
  5
20F2
330
1E
100
AcDbEntity
  8
0
100
AcDbText
 10
10.13931398672311
 20
9.096479031144376
 30
0.0
 40
0.187
  1
 M2.5 METRIC OR #4 STD. SELF-TAPPING
 41
0.75
100
AcDbText
  0
TEXT
  5
20F3
330
1E
100
AcDbEntity
  8
0
100
AcDbText
 10
10.13931398672311
 20
9.408145697811043
 30
0.0
 40
0.187
  1
NOTE: MOUNTING BOSSES USE EITHER
 41
0.75
100
AcDbText
  0
LEADER
  5
20F6
330
1E
100
AcDbEntity
  8
0
100
AcDbLeader
  3
23NSTD
 73
     0
 74
     0
 75
     1
 40
0.5
 41
2.203125
 76
     3
 10
8.004266771821642
 20
12.95297912603726
 30
0.0
 10
8.454515164689363
 20
11.55420015768314
 30
0.0
 10
8.724515164689362
 20
11.55420015768314
 30
0.0
340
20F7
213
0.0
223
-0.09375
233
0.0
1001
ACAD
1000
DSTYLE
1002
{
1070
   147
1040
0.09
1070
    77
1070
     0
1002
}
  0
MTEXT
  5
20F7
102
{ACAD_REACTORS
330
20F6
102
}
330
1E
100
AcDbEntity
  8
0
100
AcDbMText
 10
8.859515164689362
 20
11.64795015768314
 30
0.0
 40
0.1875
 41
0.0
 71
     1
 72
     1
  1
MOLDED DARK GRAY\PRUBBER GRIPS
 73
     1
 44
1.0
  0
TEXT
  5
21E6
330
1E
100
AcDbEntity
  8
0
100
AcDbText
 10
10.13931398672311
 20
8.784812364477707
 30
0.0
 40
0.187
  1
 SCREWS x 0.187" LG. (NOT SUPPLIED)
 41
0.75
100
AcDbText
  0
LINE
  5
2534
330
1E
100
AcDbEntity
  8
0
100
AcDbLine
 10
0.0
 20
23.25
 30
0.0
 11
15.17999999999999
 21
23.24999999999998
 31
0.0
  0
LINE
  5
2535
330
1E
100
AcDbEntity
  8
0
100
AcDbLine
 10
15.17999999999999
 20
-0.0000000000000027
 30
0.0
 11
0.0
 21
0.0
 31
0.0
  0
LINE
  5
2536
330
1E
100
AcDbEntity
  8
0
100
AcDbLine
 10
0.0930000000000018
 20
23.15699999999999
 30
0.0
 11
15.087
 21
23.15699999999999
 31
0.0
  0
LINE
  5
2537
330
1E
100
AcDbEntity
  8
0
100
AcDbLine
 10
15.087
 20
0.0929999999999991
 30
0.0
 11
0.0929999999999964
 21
0.0930000000000018
 31
0.0
  0
LINE
  5
2538
330
1E
100
AcDbEntity
  8
0
100
AcDbLine
 10
0.0930000000000018
 20
22.53
 30
0.0
 11
15.087
 21
22.53
 31
0.0
  0
LINE
  5
2539
330
1E
100
AcDbEntity
  8
0
100
AcDbLine
 10
0.0
 20
0.0
 30
0.0
 11
0.0
 21
23.25
 31
0.0
  0
LINE
  5
253A
330
1E
100
AcDbEntity
  8
0
100
AcDbLine
 10
0.0929999999999964
 20
0.0930000000000018
 30
0.0
 11
0.0930000000000018
 21
23.15699999999999
 31
0.0
  0
TEXT
  5
253B
330
1E
100
AcDbEntity
  8
0
100
AcDbText
 10
0.3117500000000071
 20
22.90261879346012
 30
0.0
 40
0.1875
  1
PART
 72
     1
 11
0.6555000000000071
 21
22.90261879346012
 31
0.0
100
AcDbText
  0
TEXT
  5
253C
330
1E
100
AcDbEntity
  8
0
100
AcDbText
 10
0.3117500000000071
 20
22.59011879346012
 30
0.0
 40
0.1875
  1
NAME
 72
     1
 11
0.6555000000000071
 21
22.59011879346012
 31
0.0
100
AcDbText
  0
LINE
  5
253D
330
1E
100
AcDbEntity
  8
0
100
AcDbLine
 10
1.218000000000007
 20
22.53
 30
0.0
 11
1.218000000000001
 21
23.15699999999999
 31
0.0
  0
LINE
  5
253E
330
1E
100
AcDbEntity
  8
0
100
AcDbLine
 10
15.17999999999999
 20
23.24999999999998
 30
0.0
 11
15.17999999999999
 21
-0.0000000000000027
 31
0.0
  0
LINE
  5
253F
330
1E
100
AcDbEntity
  8
0
100
AcDbLine
 10
15.087
 20
23.15699999999999
 30
0.0
 11
15.087
 21
0.0929999999999991
 31
0.0
  0
TEXT
  5
2540
330
1E
100
AcDbEntity
  8
0
100
AcDbText
 10
6.542749999999996
 20
22.90261879346012
 30
0.0
 40
0.1875
  1
PART
 72
     1
 11
6.886499999999996
 21
22.90261879346012
 31
0.0
100
AcDbText
  0
LINE
  5
2541
330
1E
100
AcDbEntity
  8
0
100
AcDbLine
 10
6.230999999999997
 20
23.15699999999999
 30
0.0
 11
6.230999999999997
 21
22.53
 31
0.0
  0
LINE
  5
2542
330
1E
100
AcDbEntity
  8
0
100
AcDbLine
 10
6.323999999999996
 20
23.15699999999999
 30
0.0
 11
6.323999999999996
 21
22.53
 31
0.0
  0
TEXT
  5
2543
330
1E
100
AcDbEntity
  8
0
100
AcDbText
 10
6.698999999999996
 20
22.59011879346012
 30
0.0
 40
0.1875
  1
No.
 72
     1
 11
6.886499999999996
 21
22.59011879346012
 31
0.0
100
AcDbText
  0
LINE
  5
2544
330
1E
100
AcDbEntity
  8
0
100
AcDbLine
 10
7.448999999999996
 20
23.15699999999999
 30
0.0
 11
7.448999999999996
 21
22.53
 31
0.0
  0
LINE
  5
2545
330
1E
100
AcDbEntity
  8
0
100
AcDbLine
 10
12.46199999999999
 20
23.15699999999999
 30
0.0
 11
12.46199999999999
 21
22.53
 31
0.0
  0
LINE
  5
2546
330
1E
100
AcDbEntity
  8
0
100
AcDbLine
 10
12.36899999999998
 20
23.15699999999999
 30
0.0
 11
12.36899999999998
 21
22.53
 31
0.0
  0
TEXT
  5
2547
330
1E
100
AcDbEntity
  8
0
100
AcDbText
 10
12.68075
 20
22.59011879346012
 30
0.0
 40
0.1875
  1
DATE
 72
     1
 11
13.0245
 21
22.59011879346012
 31
0.0
100
AcDbText
  0
TEXT
  5
2548
330
1E
100
AcDbEntity
  8
0
100
AcDbText
 10
12.712
 20
22.90261879346011
 30
0.0
 40
0.1875
  1
REV.
 72
     1
 11
13.0245
 21
22.90261879346011
 31
0.0
100
AcDbText
  0
LINE
  5
2549
330
1E
100
AcDbEntity
  8
0
100
AcDbLine
 10
13.587
 20
23.15699999999999
 30
0.0
 11
13.587
 21
22.53
 31
0.0
  0
ENDSEC
  0
SECTION
  2
OBJECTS
  0
DICTIONARY
  5
C
330
0
100
AcDbDictionary
281
     1
  3
ACAD_GROUP
350
D
  3
ACAD_LAYOUT
350
19
  3
ACAD_MLINESTYLE
350
16
  3
ACAD_PLOTSETTINGS
350
18
  3
ACAD_PLOTSTYLENAME
350
E
  3
AcadDim
350
56
  0
DICTIONARY
  5
D
102
{ACAD_REACTORS
330
C
102
}
330
C
100
AcDbDictionary
281
     1
  0
DICTIONARY
  5
19
102
{ACAD_REACTORS
330
C
102
}
330
C
100
AcDbDictionary
281
     1
  3
Layout1
350
1D
  3
Model
350
21
  0
DICTIONARY
  5
16
102
{ACAD_REACTORS
330
C
102
}
330
C
100
AcDbDictionary
281
     1
  3
Standard
350
17
  0
DICTIONARY
  5
18
102
{ACAD_REACTORS
330
C
102
}
330
C
100
AcDbDictionary
281
     1
  0
ACDBDICTIONARYWDFLT
  5
E
102
{ACAD_REACTORS
330
C
102
}
330
C
100
AcDbDictionary
281
     1
  3
Normal
350
F
100
AcDbDictionaryWithDefault
340
F
  0
XRECORD
  5
56
102
{ACAD_REACTORS
330
C
102
}
330
C
100
AcDbXrecord
280
     1
 90
   990106
  3

 60
     0
 61
     0
 62
     1
 63
     1
 64
     0
 65
     0
 66
     0
 67
     3
 68
     1
 69
     0
 70
     0
 71
     0
 72
     0
 40
0.0
170
     2
340
20F7
  0
LAYOUT
  5
1D
102
{ACAD_REACTORS
330
19
102
}
330
19
100
AcDbPlotSettings
  1

  2
C:\Program Files\ACAD2000\plotters\DWF ePlot.pc3
  4

  6

 40
0.0
 41
0.0
 42
0.0
 43
0.0
 44
0.0
 45
0.0
 46
0.0
 47
0.0
 48
0.0
 49
0.0
140
0.0
141
0.0
142
1.0
143
1.0
 70
   688
 72
     0
 73
     0
 74
     5
  7
monochrome.ctb
 75
    16
147
1.0
148
0.0
149
0.0
100
AcDbLayout
  1
Layout1
 70
     1
 71
     1
 10
0.0
 20
0.0
 11
12.0
 21
9.0
 12
0.0
 22
0.0
 32
0.0
 14
1.000000000000000E+20
 24
1.000000000000000E+20
 34
1.000000000000000E+20
 15
-1.000000000000000E+20
 25
-1.000000000000000E+20
 35
-1.000000000000000E+20
146
0.0
 13
0.0
 23
0.0
 33
0.0
 16
1.0
 26
0.0
 36
0.0
 17
0.0
 27
1.0
 37
0.0
 76
     0
330
1A
  0
LAYOUT
  5
21
102
{ACAD_REACTORS
330
19
102
}
330
19
100
AcDbPlotSettings
  1

  2
RICOH Aficio 1060 PCL 6
  4
Tabloid
  6

 40
5.027083396911621
 41
5.027085304260253
 42
5.027099609375
 43
5.027069091796875
 44
279.3999938964843
 45
431.7999877929685
 46
0.0
 47
4.571999999999999
 48
0.0
 49
0.0
140
0.0
141
0.0
142
1.0
143
1.431556565058173
 70
 11956
 72
     0
 73
     0
 74
     1
  7
monochrome.ctb
 75
     0
147
0.698540333234659
148
0.0058792320362883
149
0.0090047526245698
100
AcDbLayout
  1
Model
 70
     1
 71
     0
 10
0.0
 20
0.0
 11
12.0
 21
9.0
 12
0.0
 22
0.0
 32
0.0
 14
0.0
 24
0.0
 34
0.0
 15
0.0
 25
0.0
 35
0.0
146
0.0
 13
0.0
 23
0.0
 33
0.0
 16
1.0
 26
0.0
 36
0.0
 17
0.0
 27
1.0
 37
0.0
 76
     0
330
1E
  0
MLINESTYLE
  5
17
102
{ACAD_REACTORS
330
16
102
}
330
16
100
AcDbMlineStyle
  2
STANDARD
 70
     0
  3

 62
   256
 51
90.0
 52
90.0
 71
     2
 49
0.5
 62
   256
  6
BYLAYER
 49
-0.5
 62
   256
  6
BYLAYER
  0
ACDBPLACEHOLDER
  5
F
102
{ACAD_REACTORS
330
E
102
}
330
E
  0
ENDSEC
  0
EOF
