  0
SECTION
  2
HEADER
  9
$ACADVER
  1
AC1015
  9
$ACADMAINTVER
 70
     6
  9
$DWGCODEPAGE
  3
ANSI_1252
  9
$INSBASE
 10
0.0
 20
0.0
 30
0.0
  9
$EXTMIN
 10
0.0
 20
0.0
 30
0.0
  9
$EXTMAX
 10
17.0
 20
11.0
 30
0.0
  9
$LIMMIN
 10
0.0
 20
0.0
  9
$LIMMAX
 10
17.0
 20
11.0
  9
$ORTHOMODE
 70
     0
  9
$REGENMODE
 70
     1
  9
$FILLMODE
 70
     1
  9
$QTEXTMODE
 70
     0
  9
$MIRRTEXT
 70
     1
  9
$LTSCALE
 40
1.0
  9
$ATTMODE
 70
     1
  9
$TEXTSIZE
 40
0.1377952756
  9
$TRACEWID
 40
0.05
  9
$TEXTSTYLE
  7
Standard
  9
$CLAYER
  8
0
  9
$CELTYPE
  6
ByLayer
  9
$CECOLOR
 62
   256
  9
$CELTSCALE
 40
1.0
  9
$DISPSILH
 70
     0
  9
$DIMSCALE
 40
1.0
  9
$DIMASZ
 40
0.156
  9
$DIMEXO
 40
0.05
  9
$DIMDLI
 40
0.38
  9
$DIMRND
 40
0.0
  9
$DIMDLE
 40
0.0
  9
$DIMEXE
 40
0.125
  9
$DIMTP
 40
0.0
  9
$DIMTM
 40
0.0
  9
$DIMTXT
 40
0.1377952756
  9
$DIMCEN
 40
0.09
  9
$DIMTSZ
 40
0.0
  9
$DIMTOL
 70
     0
  9
$DIMLIM
 70
     0
  9
$DIMTIH
 70
     1
  9
$DIMTOH
 70
     1
  9
$DIMSE1
 70
     0
  9
$DIMSE2
 70
     0
  9
$DIMTAD
 70
     0
  9
$DIMZIN
 70
     0
  9
$DIMBLK
  1

  9
$DIMASO
 70
     1
  9
$DIMSHO
 70
     1
  9
$DIMPOST
  1

  9
$DIMAPOST
  1

  9
$DIMALT
 70
     0
  9
$DIMALTD
 70
     2
  9
$DIMALTF
 40
25.4
  9
$DIMLFAC
 40
1.0
  9
$DIMTOFL
 70
     0
  9
$DIMTVP
 40
0.0
  9
$DIMTIX
 70
     0
  9
$DIMSOXD
 70
     0
  9
$DIMSAH
 70
     0
  9
$DIMBLK1
  1

  9
$DIMBLK2
  1

  9
$DIMSTYLE
  2
Standard
  9
$DIMCLRD
 70
     0
  9
$DIMCLRE
 70
     0
  9
$DIMCLRT
 70
     0
  9
$DIMTFAC
 40
1.0
  9
$DIMGAP
 40
0.06
  9
$DIMJUST
 70
     0
  9
$DIMSD1
 70
     0
  9
$DIMSD2
 70
     0
  9
$DIMTOLJ
 70
     1
  9
$DIMTZIN
 70
     0
  9
$DIMALTZ
 70
     0
  9
$DIMALTTZ
 70
     0
  9
$DIMUPT
 70
     0
  9
$DIMDEC
 70
     3
  9
$DIMTDEC
 70
     3
  9
$DIMALTU
 70
     2
  9
$DIMALTTD
 70
     2
  9
$DIMTXSTY
  7
Standard
  9
$DIMAUNIT
 70
     0
  9
$DIMADEC
 70
     2
  9
$DIMALTRND
 40
0.0
  9
$DIMAZIN
 70
     0
  9
$DIMDSEP
 70
    46
  9
$DIMATFIT
 70
     3
  9
$DIMFRAC
 70
     0
  9
$DIMLDRBLK
  1

  9
$DIMLUNIT
 70
     2
  9
$DIMLWD
 70
    -2
  9
$DIMLWE
 70
    -2
  9
$DIMTMOVE
 70
     0
  9
$LUNITS
 70
     2
  9
$LUPREC
 70
     3
  9
$SKETCHINC
 40
0.1
  9
$FILLETRAD
 40
0.5
  9
$AUNITS
 70
     0
  9
$AUPREC
 70
     2
  9
$MENU
  1
.
  9
$ELEVATION
 40
0.0
  9
$PELEVATION
 40
0.0
  9
$THICKNESS
 40
0.0
  9
$LIMCHECK
 70
     0
  9
$CHAMFERA
 40
0.5
  9
$CHAMFERB
 40
0.5
  9
$CHAMFERC
 40
1.0
  9
$CHAMFERD
 40
0.0
  9
$SKPOLY
 70
     0
  9
$TDCREATE
 40
2455785.434113426
  9
$TDUCREATE
 40
2455785.600780093
  9
$TDUPDATE
 40
2455785.434113437
  9
$TDUUPDATE
 40
2455785.600780104
  9
$TDINDWG
 40
0.0000000116
  9
$TDUSRTIMER
 40
0.0000000116
  9
$USRTIMER
 70
     1
  9
$ANGBASE
 50
0.0
  9
$ANGDIR
 70
     0
  9
$PDMODE
 70
     0
  9
$PDSIZE
 40
-1.0
  9
$PLINEWID
 40
0.0
  9
$SPLFRAME
 70
     0
  9
$SPLINETYPE
 70
     6
  9
$SPLINESEGS
 70
     8
  9
$HANDSEED
  5
5AD
  9
$SURFTAB1
 70
     6
  9
$SURFTAB2
 70
     6
  9
$SURFTYPE
 70
     6
  9
$SURFU
 70
     6
  9
$SURFV
 70
     6
  9
$UCSBASE
  2

  9
$UCSNAME
  2

  9
$UCSORG
 10
0.0
 20
0.0
 30
0.0
  9
$UCSXDIR
 10
1.0
 20
0.0
 30
0.0
  9
$UCSYDIR
 10
0.0
 20
1.0
 30
0.0
  9
$UCSORTHOREF
  2

  9
$UCSORTHOVIEW
 70
     0
  9
$UCSORGTOP
 10
0.0
 20
0.0
 30
0.0
  9
$UCSORGBOTTOM
 10
0.0
 20
0.0
 30
0.0
  9
$UCSORGLEFT
 10
0.0
 20
0.0
 30
0.0
  9
$UCSORGRIGHT
 10
0.0
 20
0.0
 30
0.0
  9
$UCSORGFRONT
 10
0.0
 20
0.0
 30
0.0
  9
$UCSORGBACK
 10
0.0
 20
0.0
 30
0.0
  9
$PUCSBASE
  2

  9
$PUCSNAME
  2

  9
$PUCSORG
 10
0.0
 20
0.0
 30
0.0
  9
$PUCSXDIR
 10
1.0
 20
0.0
 30
0.0
  9
$PUCSYDIR
 10
0.0
 20
1.0
 30
0.0
  9
$PUCSORTHOREF
  2

  9
$PUCSORTHOVIEW
 70
     0
  9
$PUCSORGTOP
 10
0.0
 20
0.0
 30
0.0
  9
$PUCSORGBOTTOM
 10
0.0
 20
0.0
 30
0.0
  9
$PUCSORGLEFT
 10
0.0
 20
0.0
 30
0.0
  9
$PUCSORGRIGHT
 10
0.0
 20
0.0
 30
0.0
  9
$PUCSORGFRONT
 10
0.0
 20
0.0
 30
0.0
  9
$PUCSORGBACK
 10
0.0
 20
0.0
 30
0.0
  9
$USERI1
 70
     0
  9
$USERI2
 70
     0
  9
$USERI3
 70
     0
  9
$USERI4
 70
     0
  9
$USERI5
 70
     0
  9
$USERR1
 40
0.0
  9
$USERR2
 40
0.0
  9
$USERR3
 40
0.0
  9
$USERR4
 40
0.0
  9
$USERR5
 40
0.0
  9
$WORLDVIEW
 70
     1
  9
$SHADEDGE
 70
     3
  9
$SHADEDIF
 70
    70
  9
$TILEMODE
 70
     1
  9
$MAXACTVP
 70
    64
  9
$PINSBASE
 10
0.0
 20
0.0
 30
0.0
  9
$PLIMCHECK
 70
     0
  9
$PEXTMIN
 10
1.0000000000E+20
 20
1.0000000000E+20
 30
1.0000000000E+20
  9
$PEXTMAX
 10
-1.0000000000E+20
 20
-1.0000000000E+20
 30
-1.0000000000E+20
  9
$PLIMMIN
 10
0.0
 20
0.0
  9
$PLIMMAX
 10
12.0
 20
9.0
  9
$UNITMODE
 70
     0
  9
$VISRETAIN
 70
     1
  9
$PLINEGEN
 70
     0
  9
$PSLTSCALE
 70
     1
  9
$TREEDEPTH
 70
  3020
  9
$CMLSTYLE
  2
Standard
  9
$CMLJUST
 70
     0
  9
$CMLSCALE
 40
1.0
  9
$PROXYGRAPHICS
 70
     1
  9
$MEASUREMENT
 70
     0
  9
$CELWEIGHT
370
    -1
  9
$ENDCAPS
280
     0
  9
$JOINSTYLE
280
     0
  9
$LWDISPLAY
290
     1
  9
$INSUNITS
 70
     1
  9
$HYPERLINKBASE
  1

  9
$STYLESHEET
  1

  9
$XEDIT
290
     1
  9
$CEPSNTYPE
380
     0
  9
$PSTYLEMODE
290
     1
  9
$FINGERPRINTGUID
  2
{45711D9D-FF44-462A-901F-81D6E6650548}
  9
$VERSIONGUID
  2
{FAEB1C32-E019-11D5-929B-00C0DF256EC4}
  9
$EXTNAMES
290
     1
  9
$PSVPSCALE
 40
0.0
  9
$OLESTARTUP
290
     0
  0
ENDSEC
  0
SECTION
  2
CLASSES
  0
CLASS
  1
ACDBDICTIONARYWDFLT
  2
AcDbDictionaryWithDefault
  3
ObjectDBX Classes
 90
        0
280
     0
281
     0
  0
CLASS
  1
VISUALSTYLE
  2
AcDbVisualStyle
  3
ObjectDBX Classes
 90
     4095
280
     0
281
     0
  0
CLASS
  1
MATERIAL
  2
AcDbMaterial
  3
ObjectDBX Classes
 90
     1153
280
     0
281
     0
  0
CLASS
  1
SCALE
  2
AcDbScale
  3
ObjectDBX Classes
 90
     1153
280
     0
281
     0
  0
CLASS
  1
DICTIONARYVAR
  2
AcDbDictionaryVar
  3
ObjectDBX Classes
 90
        0
280
     0
281
     0
  0
CLASS
  1
ACDBPLACEHOLDER
  2
AcDbPlaceHolder
  3
ObjectDBX Classes
 90
        0
280
     0
281
     0
  0
CLASS
  1
LAYOUT
  2
AcDbLayout
  3
ObjectDBX Classes
 90
        0
280
     0
281
     0
  0
ENDSEC
  0
SECTION
  2
TABLES
  0
TABLE
  2
VPORT
  5
8
330
0
100
AcDbSymbolTable
 70
     1
  0
VPORT
  5
29
330
8
100
AcDbSymbolTableRecord
100
AcDbViewportTableRecord
  2
*Active
 70
     0
 10
0.0
 20
0.0
 11
1.0
 21
1.0
 12
8.5
 22
5.5
 13
0.0
 23
0.0
 14
0.5
 24
0.5
 15
0.5
 25
0.5
 16
0.0
 26
0.0
 36
1.0
 17
0.0
 27
0.0
 37
0.0
 40
11.0
 41
1.5454545455
 42
50.0
 43
0.0
 44
0.0
 50
0.0
 51
0.0
 71
     0
 72
  2000
 73
     1
 74
     3
 75
     0
 76
     0
 77
     0
 78
     0
281
     0
 65
     1
110
0.0
120
0.0
130
0.0
111
1.0
121
0.0
131
0.0
112
0.0
122
1.0
132
0.0
 79
     0
146
0.0
  0
ENDTAB
  0
TABLE
  2
LTYPE
  5
5
330
0
100
AcDbSymbolTable
 70
     6
  0
LTYPE
  5
14
330
5
100
AcDbSymbolTableRecord
100
AcDbLinetypeTableRecord
  2
ByBlock
 70
     0
  3

 72
    65
 73
     0
 40
0.0
  0
LTYPE
  5
15
330
5
100
AcDbSymbolTableRecord
100
AcDbLinetypeTableRecord
  2
ByLayer
 70
     0
  3

 72
    65
 73
     0
 40
0.0
  0
LTYPE
  5
16
330
5
100
AcDbSymbolTableRecord
100
AcDbLinetypeTableRecord
  2
Continuous
 70
     0
  3
Solid line
 72
    65
 73
     0
 40
0.0
  0
LTYPE
  5
3F
330
5
100
AcDbSymbolTableRecord
100
AcDbLinetypeTableRecord
  2
HIDDEN
 70
     0
  3
Hidden __ __ __ __ __ __ __ __ __ __ __ __ __ __
 72
    65
 73
     2
 40
0.075
 49
0.05
 74
     0
 49
-0.025
 74
     0
  0
LTYPE
  5
40
330
5
100
AcDbSymbolTableRecord
100
AcDbLinetypeTableRecord
  2
PHANTOM
 70
     0
  3
Phantom ______  __  __  ______  __  __  ______
 72
    65
 73
     6
 40
0.5
 49
0.25
 74
     0
 49
-0.05
 74
     0
 49
0.05
 74
     0
 49
-0.05
 74
     0
 49
0.05
 74
     0
 49
-0.05
 74
     0
  0
LTYPE
  5
41
330
5
100
AcDbSymbolTableRecord
100
AcDbLinetypeTableRecord
  2
CENTER
 70
     0
  3
Center ____ _ ____ _ ____ _ ____ _ ____ _ ____
 72
    65
 73
     4
 40
0.4
 49
0.25
 74
     0
 49
-0.05
 74
     0
 49
0.05
 74
     0
 49
-0.05
 74
     0
  0
LTYPE
  5
42
330
5
100
AcDbSymbolTableRecord
100
AcDbLinetypeTableRecord
  2
CENTERX2
 70
     0
  3
Center (2x) ________  __  ________  __  _____
 72
    65
 73
     4
 40
0.8
 49
0.5
 74
     0
 49
-0.1
 74
     0
 49
0.1
 74
     0
 49
-0.1
 74
     0
  0
LTYPE
  5
43
330
5
100
AcDbSymbolTableRecord
100
AcDbLinetypeTableRecord
  2
DOT2
 70
     0
  3
Dot (.5x) ........................................
 72
    65
 73
     2
 40
0.025
 49
0.0
 74
     0
 49
-0.025
 74
     0
  0
ENDTAB
  0
TABLE
  2
LAYER
  5
2
330
0
100
AcDbSymbolTable
 70
     1
  0
LAYER
  5
10
330
2
100
AcDbSymbolTableRecord
100
AcDbLayerTableRecord
  2
0
 70
     0
 62
     7
  6
Continuous
370
    -3
390
F
  0
ENDTAB
  0
TABLE
  2
STYLE
  5
3
330
0
100
AcDbSymbolTable
 70
    12
  0
STYLE
  5
11
330
3
100
AcDbSymbolTableRecord
100
AcDbTextStyleTableRecord
  2
Standard
 70
     0
 40
0.0
 41
1.0
 50
0.0
 71
     0
 42
0.2
  3
txt
  4

  0
STYLE
  5
8E
330
3
100
AcDbSymbolTableRecord
100
AcDbTextStyleTableRecord
  2
SLDTEXTSTYLE0
 70
     0
 40
0.0
 41
0.75
 50
0.0
 71
     0
 42
0.2
  3
TXT
  4

  0
STYLE
  5
F1
330
3
100
AcDbSymbolTableRecord
100
AcDbTextStyleTableRecord
  2
SLDTEXTSTYLE1
 70
     0
 40
0.0
 41
0.605
 50
0.0
 71
     0
 42
0.2
  3
TXT
  4

  0
STYLE
  5
F4
330
3
100
AcDbSymbolTableRecord
100
AcDbTextStyleTableRecord
  2
SLDTEXTSTYLE2
 70
     0
 40
0.0
 41
0.69
 50
0.0
 71
     0
 42
0.2
  3
TXT
  4

  0
STYLE
  5
F8
330
3
100
AcDbSymbolTableRecord
100
AcDbTextStyleTableRecord
  2
SLDTEXTSTYLE3
 70
     0
 40
0.0
 41
0.6964285714
 50
0.0
 71
     0
 42
0.2
  3
TXT
  4

  0
STYLE
  5
FA
330
3
100
AcDbSymbolTableRecord
100
AcDbTextStyleTableRecord
  2
SLDTEXTSTYLE4
 70
     0
 40
0.0
 41
0.6944444444
 50
0.0
 71
     0
 42
0.2
  3
TXT
  4

  0
STYLE
  5
FD
330
3
100
AcDbSymbolTableRecord
100
AcDbTextStyleTableRecord
  2
SLDTEXTSTYLE5
 70
     0
 40
0.0
 41
0.6346153846
 50
0.0
 71
     0
 42
0.2
  3
TXT
  4

  0
STYLE
  5
10F
330
3
100
AcDbSymbolTableRecord
100
AcDbTextStyleTableRecord
  2
SLDTEXTSTYLE6
 70
     0
 40
0.0
 41
0.6847826087
 50
0.0
 71
     0
 42
0.2
  3
TXT
  4

  0
STYLE
  5
126
330
3
100
AcDbSymbolTableRecord
100
AcDbTextStyleTableRecord
  2
SLDTEXTSTYLE7
 70
     0
 40
0.0
 41
0.6833333333
 50
0.0
 71
     0
 42
0.2
  3
TXT
  4

  0
STYLE
  5
128
330
3
100
AcDbSymbolTableRecord
100
AcDbTextStyleTableRecord
  2
SLDTEXTSTYLE8
 70
     0
 40
0.0
 41
0.6857142857
 50
0.0
 71
     0
 42
0.2
  3
TXT
  4

  0
STYLE
  5
12A
330
3
100
AcDbSymbolTableRecord
100
AcDbTextStyleTableRecord
  2
SLDTEXTSTYLE9
 70
     0
 40
0.0
 41
0.6884057971
 50
0.0
 71
     0
 42
0.2
  3
TXT
  4

  0
STYLE
  5
13A
330
3
100
AcDbSymbolTableRecord
100
AcDbTextStyleTableRecord
  2
SLDTEXTSTYLE10
 70
     0
 40
0.0
 41
0.5833333333
 50
0.0
 71
     0
 42
0.2
  3
TXT
  4

  0
ENDTAB
  0
TABLE
  2
VIEW
  5
6
330
0
100
AcDbSymbolTable
 70
     0
  0
ENDTAB
  0
TABLE
  2
UCS
  5
7
330
0
100
AcDbSymbolTable
 70
     0
  0
ENDTAB
  0
TABLE
  2
APPID
  5
9
330
0
100
AcDbSymbolTable
 70
     1
  0
APPID
  5
12
330
9
100
AcDbSymbolTableRecord
100
AcDbRegAppTableRecord
  2
ACAD
 70
     0
  0
ENDTAB
  0
TABLE
  2
DIMSTYLE
  5
A
330
0
100
AcDbSymbolTable
 70
    10
100
AcDbDimStyleTable
  0
DIMSTYLE
105
27
330
A
100
AcDbSymbolTableRecord
100
AcDbDimStyleTableRecord
  2
Standard
 70
     0
340
11
  0
DIMSTYLE
105
22F
102
{ACAD_REACTORS
330
22E
330
23A
330
245
330
326
330
331
330
33C
330
347
330
35D
330
56A
330
575
102
}
330
A
100
AcDbSymbolTableRecord
100
AcDbDimStyleTableRecord
  2
SLDDIMSTYLE0
 70
     0
 41
0.156
 44
0.0
 45
0.000000001
 78
    12
140
0.1377952756
147
0.0344488189
173
     1
271
     3
272
     3
284
    12
340
8E
  0
DIMSTYLE
105
251
102
{ACAD_REACTORS
330
250
102
}
330
A
100
AcDbSymbolTableRecord
100
AcDbDimStyleTableRecord
  2
SLDDIMSTYLE1
 70
     0
 41
0.156
 44
0.0
 45
0.000000001
 78
     4
140
0.1377952756
147
0.0344488189
173
     1
271
     3
272
     3
284
    12
340
8E
  0
DIMSTYLE
105
25D
102
{ACAD_REACTORS
330
25C
102
}
330
A
100
AcDbSymbolTableRecord
100
AcDbDimStyleTableRecord
  2
SLDDIMSTYLE2
 70
     0
 41
0.156
 44
0.0
 45
0.000000001
 78
     4
140
0.1377952756
147
0.0344488189
172
     1
173
     1
271
     3
272
     3
284
    12
340
8E
  0
DIMSTYLE
105
268
102
{ACAD_REACTORS
330
267
330
2C5
330
2D0
330
55C
102
}
330
A
100
AcDbSymbolTableRecord
100
AcDbDimStyleTableRecord
  2
SLDDIMSTYLE3
 70
     0
 41
0.156
 44
0.0
 45
0.000000001
 78
    12
140
0.1377952756
147
0.0344488189
173
     1
271
     3
272
     3
284
    12
340
8E
  0
DIMSTYLE
105
274
102
{ACAD_REACTORS
330
273
330
352
102
}
330
A
100
AcDbSymbolTableRecord
100
AcDbDimStyleTableRecord
  2
SLDDIMSTYLE4
 70
     0
 41
0.156
 44
0.0
 45
0.000000001
 78
     4
140
0.1377952756
147
0.0344488189
173
     1
271
     3
272
     3
284
    12
340
8E
  0
DIMSTYLE
105
280
102
{ACAD_REACTORS
330
27F
102
}
330
A
100
AcDbSymbolTableRecord
100
AcDbDimStyleTableRecord
  2
SLDDIMSTYLE5
 70
     0
 41
0.156
 44
0.0
 45
0.000000001
 78
    12
140
0.1377952756
147
0.0344488189
172
     1
173
     1
271
     3
272
     3
284
    12
340
8E
  0
DIMSTYLE
105
369
102
{ACAD_REACTORS
330
368
102
}
330
A
100
AcDbSymbolTableRecord
100
AcDbDimStyleTableRecord
  2
SLDDIMSTYLE6
 70
     0
  3
<>
 41
0.156
 44
0.0
 45
0.000000001
 78
    12
140
0.1377952756
147
0.0344488189
172
     1
173
     1
271
     3
272
     3
284
    12
340
8E
  0
DIMSTYLE
105
378
330
A
100
AcDbSymbolTableRecord
100
AcDbDimStyleTableRecord
  2
SLDDIMSTYLE7
 70
     0
 41
0.052
 44
0.0
 45
0.000000001
140
0.0
146
0.052
147
0.0
173
     1
271
     0
272
     0
340
11
341
379
343
379
344
379
  0
DIMSTYLE
105
456
330
A
100
AcDbSymbolTableRecord
100
AcDbDimStyleTableRecord
  2
SLDDIMSTYLE8
 70
     0
 41
0.156
 44
0.0
 45
0.000000001
140
0.0
146
0.156
147
0.0
173
     1
271
     0
272
     0
340
11
  0
ENDTAB
  0
TABLE
  2
BLOCK_RECORD
  5
1
330
0
100
AcDbSymbolTable
 70
    44
  0
BLOCK_RECORD
  5
1F
330
1
100
AcDbSymbolTableRecord
100
AcDbBlockTableRecord
  2
*Model_Space
340
22
  0
BLOCK_RECORD
  5
1B
330
1
100
AcDbSymbolTableRecord
100
AcDbBlockTableRecord
  2
*Paper_Space
340
1E
  0
BLOCK_RECORD
  5
23
330
1
100
AcDbSymbolTableRecord
100
AcDbBlockTableRecord
  2
*Paper_Space0
340
26
  0
BLOCK_RECORD
  5
8A
330
1
100
AcDbSymbolTableRecord
100
AcDbBlockTableRecord
  2
SW_NOTE_0
340
0
102
{BLKREFS
331
B2
102
}
  0
BLOCK_RECORD
  5
B3
330
1
100
AcDbSymbolTableRecord
100
AcDbBlockTableRecord
  2
SW_NOTE_1
340
0
102
{BLKREFS
331
B8
102
}
  0
BLOCK_RECORD
  5
B9
330
1
100
AcDbSymbolTableRecord
100
AcDbBlockTableRecord
  2
SW_NOTE_2
340
0
102
{BLKREFS
331
BE
102
}
  0
BLOCK_RECORD
  5
BF
330
1
100
AcDbSymbolTableRecord
100
AcDbBlockTableRecord
  2
SW_NOTE_3
340
0
102
{BLKREFS
331
C4
102
}
  0
BLOCK_RECORD
  5
C5
330
1
100
AcDbSymbolTableRecord
100
AcDbBlockTableRecord
  2
SW_NOTE_4
340
0
102
{BLKREFS
331
CA
102
}
  0
BLOCK_RECORD
  5
CB
330
1
100
AcDbSymbolTableRecord
100
AcDbBlockTableRecord
  2
SW_NOTE_5
340
0
102
{BLKREFS
331
D0
102
}
  0
BLOCK_RECORD
  5
D1
330
1
100
AcDbSymbolTableRecord
100
AcDbBlockTableRecord
  2
SW_NOTE_6
340
0
102
{BLKREFS
331
D6
102
}
  0
BLOCK_RECORD
  5
D7
330
1
100
AcDbSymbolTableRecord
100
AcDbBlockTableRecord
  2
SW_NOTE_7
340
0
102
{BLKREFS
331
DC
102
}
  0
BLOCK_RECORD
  5
DD
330
1
100
AcDbSymbolTableRecord
100
AcDbBlockTableRecord
  2
SW_NOTE_8
340
0
102
{BLKREFS
331
E2
102
}
  0
BLOCK_RECORD
  5
E3
330
1
100
AcDbSymbolTableRecord
100
AcDbBlockTableRecord
  2
SW_NOTE_9
340
0
102
{BLKREFS
331
E8
102
}
  0
BLOCK_RECORD
  5
123
330
1
100
AcDbSymbolTableRecord
100
AcDbBlockTableRecord
  2
SW_NOTE_10
340
0
102
{BLKREFS
331
12C
102
}
  0
BLOCK_RECORD
  5
12F
330
1
100
AcDbSymbolTableRecord
100
AcDbBlockTableRecord
  2
SW_NOTE_11
340
0
102
{BLKREFS
331
134
102
}
  0
BLOCK_RECORD
  5
13C
330
1
100
AcDbSymbolTableRecord
100
AcDbBlockTableRecord
  2
SW_NOTE_12
340
0
102
{BLKREFS
331
141
102
}
  0
BLOCK_RECORD
  5
142
330
1
100
AcDbSymbolTableRecord
100
AcDbBlockTableRecord
  2
SW_NOTE_13
340
0
102
{BLKREFS
331
147
102
}
  0
BLOCK_RECORD
  5
148
330
1
100
AcDbSymbolTableRecord
100
AcDbBlockTableRecord
  2
SW_NOTE_14
340
0
102
{BLKREFS
331
14D
102
}
  0
BLOCK_RECORD
  5
14E
330
1
100
AcDbSymbolTableRecord
100
AcDbBlockTableRecord
  2
SW_NOTE_15
340
0
102
{BLKREFS
331
153
102
}
  0
BLOCK_RECORD
  5
154
330
1
100
AcDbSymbolTableRecord
100
AcDbBlockTableRecord
  2
SW_NOTE_16
340
0
102
{BLKREFS
331
159
102
}
  0
BLOCK_RECORD
  5
15A
330
1
100
AcDbSymbolTableRecord
100
AcDbBlockTableRecord
  2
SW_NOTE_17
340
0
102
{BLKREFS
331
15F
102
}
  0
BLOCK_RECORD
  5
230
330
1
100
AcDbSymbolTableRecord
100
AcDbBlockTableRecord
  2
*D19
340
0
  0
BLOCK_RECORD
  5
23B
330
1
100
AcDbSymbolTableRecord
100
AcDbBlockTableRecord
  2
*D20
340
0
  0
BLOCK_RECORD
  5
246
330
1
100
AcDbSymbolTableRecord
100
AcDbBlockTableRecord
  2
*D21
340
0
  0
BLOCK_RECORD
  5
252
330
1
100
AcDbSymbolTableRecord
100
AcDbBlockTableRecord
  2
*D22
340
0
  0
BLOCK_RECORD
  5
25E
330
1
100
AcDbSymbolTableRecord
100
AcDbBlockTableRecord
  2
*D23
340
0
  0
BLOCK_RECORD
  5
269
330
1
100
AcDbSymbolTableRecord
100
AcDbBlockTableRecord
  2
*D24
340
0
  0
BLOCK_RECORD
  5
275
330
1
100
AcDbSymbolTableRecord
100
AcDbBlockTableRecord
  2
*D25
340
0
  0
BLOCK_RECORD
  5
281
330
1
100
AcDbSymbolTableRecord
100
AcDbBlockTableRecord
  2
*D26
340
0
  0
BLOCK_RECORD
  5
2C6
330
1
100
AcDbSymbolTableRecord
100
AcDbBlockTableRecord
  2
*D27
340
0
  0
BLOCK_RECORD
  5
2D1
330
1
100
AcDbSymbolTableRecord
100
AcDbBlockTableRecord
  2
*D28
340
0
  0
BLOCK_RECORD
  5
2DB
330
1
100
AcDbSymbolTableRecord
100
AcDbBlockTableRecord
  2
SW_NOTE_18
340
0
102
{BLKREFS
331
2E7
102
}
  0
BLOCK_RECORD
  5
327
330
1
100
AcDbSymbolTableRecord
100
AcDbBlockTableRecord
  2
*D30
340
0
  0
BLOCK_RECORD
  5
332
330
1
100
AcDbSymbolTableRecord
100
AcDbBlockTableRecord
  2
*D31
340
0
  0
BLOCK_RECORD
  5
33D
330
1
100
AcDbSymbolTableRecord
100
AcDbBlockTableRecord
  2
*D32
340
0
  0
BLOCK_RECORD
  5
348
330
1
100
AcDbSymbolTableRecord
100
AcDbBlockTableRecord
  2
*D33
340
0
  0
BLOCK_RECORD
  5
353
330
1
100
AcDbSymbolTableRecord
100
AcDbBlockTableRecord
  2
*D34
340
0
  0
BLOCK_RECORD
  5
35E
330
1
100
AcDbSymbolTableRecord
100
AcDbBlockTableRecord
  2
*D35
340
0
  0
BLOCK_RECORD
  5
36A
330
1
100
AcDbSymbolTableRecord
100
AcDbBlockTableRecord
  2
*D36
340
0
  0
BLOCK_RECORD
  5
372
330
1
100
AcDbSymbolTableRecord
100
AcDbBlockTableRecord
  2
SW_NOTE_19
340
0
102
{BLKREFS
331
377
102
}
  0
BLOCK_RECORD
  5
379
330
1
100
AcDbSymbolTableRecord
100
AcDbBlockTableRecord
  2
_DOT
340
0
  0
BLOCK_RECORD
  5
45A
330
1
100
AcDbSymbolTableRecord
100
AcDbBlockTableRecord
  2
SW_NOTE_20
340
0
102
{BLKREFS
331
460
102
}
  0
BLOCK_RECORD
  5
462
330
1
100
AcDbSymbolTableRecord
100
AcDbBlockTableRecord
  2
SW_NOTE_21
340
0
102
{BLKREFS
331
469
102
}
  0
BLOCK_RECORD
  5
55D
330
1
100
AcDbSymbolTableRecord
100
AcDbBlockTableRecord
  2
*D41
340
0
  0
BLOCK_RECORD
  5
56B
330
1
100
AcDbSymbolTableRecord
100
AcDbBlockTableRecord
  2
*D42
340
0
  0
BLOCK_RECORD
  5
576
330
1
100
AcDbSymbolTableRecord
100
AcDbBlockTableRecord
  2
*D43
340
0
  0
ENDTAB
  0
ENDSEC
  0
SECTION
  2
BLOCKS
  0
BLOCK
  5
20
330
1F
100
AcDbEntity
  8
0
100
AcDbBlockBegin
  2
*Model_Space
 70
     0
 10
0.0
 20
0.0
 30
0.0
  3
*Model_Space
  1

  0
ENDBLK
  5
21
330
1F
100
AcDbEntity
  8
0
100
AcDbBlockEnd
  0
BLOCK
  5
1C
330
1B
100
AcDbEntity
 67
     1
  8
0
100
AcDbBlockBegin
  2
*Paper_Space
 70
     0
 10
0.0
 20
0.0
 30
0.0
  3
*Paper_Space
  1

  0
ENDBLK
  5
1D
330
1B
100
AcDbEntity
 67
     1
  8
0
100
AcDbBlockEnd
  0
BLOCK
  5
24
330
23
100
AcDbEntity
  8
0
100
AcDbBlockBegin
  2
*Paper_Space0
 70
     0
 10
0.0
 20
0.0
 30
0.0
  3
*Paper_Space0
  1

  0
ENDBLK
  5
25
330
23
100
AcDbEntity
  8
0
100
AcDbBlockEnd
  0
BLOCK
  5
8B
330
8A
100
AcDbEntity
  8
0
100
AcDbBlockBegin
  2
SW_NOTE_0
 70
     0
 10
0.0
 20
0.0
 30
0.0
  3
SW_NOTE_0
  1

  0
CIRCLE
  5
8D
330
8A
100
AcDbEntity
  8
0
  6
Continuous
 62
     0
370
     0
100
AcDbCircle
 10
0.0679407289
 20
0.104521529
 30
0.0
 40
0.1249253021338701
  0
MTEXT
  5
B1
330
8A
100
AcDbEntity
  8
0
  6
Continuous
 62
     0
370
     0
100
AcDbMText
 10
0.0
 20
0.1776274445
 30
0.0
 40
0.1377952756
 41
0.0
 71
     1
 72
     1
  1
A
  7
SLDTEXTSTYLE0
 73
     1
 44
1.0
  0
ENDBLK
  5
8C
330
8A
100
AcDbEntity
  8
0
100
AcDbBlockEnd
  0
BLOCK
  5
B4
330
B3
100
AcDbEntity
  8
0
100
AcDbBlockBegin
  2
SW_NOTE_1
 70
     0
 10
0.0
 20
0.0
 30
0.0
  3
SW_NOTE_1
  1

  0
CIRCLE
  5
B6
330
B3
100
AcDbEntity
  8
0
  6
Continuous
 62
     0
370
     0
100
AcDbCircle
 10
0.052725833
 20
0.104521529
 30
0.0
 40
0.1249253021338701
  0
MTEXT
  5
B7
330
B3
100
AcDbEntity
  8
0
  6
Continuous
 62
     0
370
     0
100
AcDbMText
 10
0.0
 20
0.1776274445
 30
0.0
 40
0.1377952756
 41
0.0
 71
     1
 72
     1
  1
B
  7
SLDTEXTSTYLE0
 73
     1
 44
1.0
  0
ENDBLK
  5
B5
330
B3
100
AcDbEntity
  8
0
100
AcDbBlockEnd
  0
BLOCK
  5
BA
330
B9
100
AcDbEntity
  8
0
100
AcDbBlockBegin
  2
SW_NOTE_2
 70
     0
 10
0.0
 20
0.0
 30
0.0
  3
SW_NOTE_2
  1

  0
CIRCLE
  5
BC
330
B9
100
AcDbEntity
  8
0
  6
Continuous
 62
     0
370
     0
100
AcDbCircle
 10
0.052725833
 20
0.104521529
 30
0.0
 40
0.1249253021338701
  0
MTEXT
  5
BD
330
B9
100
AcDbEntity
  8
0
  6
Continuous
 62
     0
370
     0
100
AcDbMText
 10
0.0
 20
0.1776274445
 30
0.0
 40
0.1377952756
 41
0.0
 71
     1
 72
     1
  1
B
  7
SLDTEXTSTYLE0
 73
     1
 44
1.0
  0
ENDBLK
  5
BB
330
B9
100
AcDbEntity
  8
0
100
AcDbBlockEnd
  0
BLOCK
  5
C0
330
BF
100
AcDbEntity
  8
0
100
AcDbBlockBegin
  2
SW_NOTE_3
 70
     0
 10
0.0
 20
0.0
 30
0.0
  3
SW_NOTE_3
  1

  0
CIRCLE
  5
C2
330
BF
100
AcDbEntity
  8
0
  6
Continuous
 62
     0
370
     0
100
AcDbCircle
 10
0.052725833
 20
0.104521529
 30
0.0
 40
0.1249253021338697
  0
MTEXT
  5
C3
330
BF
100
AcDbEntity
  8
0
  6
Continuous
 62
     0
370
     0
100
AcDbMText
 10
0.0
 20
0.1776274445
 30
0.0
 40
0.1377952756
 41
0.0
 71
     1
 72
     1
  1
B
  7
SLDTEXTSTYLE0
 73
     1
 44
1.0
  0
ENDBLK
  5
C1
330
BF
100
AcDbEntity
  8
0
100
AcDbBlockEnd
  0
BLOCK
  5
C6
330
C5
100
AcDbEntity
  8
0
100
AcDbBlockBegin
  2
SW_NOTE_4
 70
     0
 10
0.0
 20
0.0
 30
0.0
  3
SW_NOTE_4
  1

  0
CIRCLE
  5
C8
330
C5
100
AcDbEntity
  8
0
  6
Continuous
 62
     0
370
     0
100
AcDbCircle
 10
0.052725833
 20
0.104521529
 30
0.0
 40
0.1249253021338701
  0
MTEXT
  5
C9
330
C5
100
AcDbEntity
  8
0
  6
Continuous
 62
     0
370
     0
100
AcDbMText
 10
0.0
 20
0.1776274445
 30
0.0
 40
0.1377952756
 41
0.0
 71
     1
 72
     1
  1
B
  7
SLDTEXTSTYLE0
 73
     1
 44
1.0
  0
ENDBLK
  5
C7
330
C5
100
AcDbEntity
  8
0
100
AcDbBlockEnd
  0
BLOCK
  5
CC
330
CB
100
AcDbEntity
  8
0
100
AcDbBlockBegin
  2
SW_NOTE_5
 70
     0
 10
0.0
 20
0.0
 30
0.0
  3
SW_NOTE_5
  1

  0
CIRCLE
  5
CE
330
CB
100
AcDbEntity
  8
0
  6
Continuous
 62
     0
370
     0
100
AcDbCircle
 10
0.052725833
 20
0.104521529
 30
0.0
 40
0.1249253021338701
  0
MTEXT
  5
CF
330
CB
100
AcDbEntity
  8
0
  6
Continuous
 62
     0
370
     0
100
AcDbMText
 10
0.0
 20
0.1776274445
 30
0.0
 40
0.1377952756
 41
0.0
 71
     1
 72
     1
  1
B
  7
SLDTEXTSTYLE0
 73
     1
 44
1.0
  0
ENDBLK
  5
CD
330
CB
100
AcDbEntity
  8
0
100
AcDbBlockEnd
  0
BLOCK
  5
D2
330
D1
100
AcDbEntity
  8
0
100
AcDbBlockBegin
  2
SW_NOTE_6
 70
     0
 10
0.0
 20
0.0
 30
0.0
  3
SW_NOTE_6
  1

  0
CIRCLE
  5
D4
330
D1
100
AcDbEntity
  8
0
  6
Continuous
 62
     0
370
     0
100
AcDbCircle
 10
0.052725833
 20
0.104521529
 30
0.0
 40
0.1249253021338685
  0
MTEXT
  5
D5
330
D1
100
AcDbEntity
  8
0
  6
Continuous
 62
     0
370
     0
100
AcDbMText
 10
0.0
 20
0.1776274445
 30
0.0
 40
0.1377952756
 41
0.0
 71
     1
 72
     1
  1
B
  7
SLDTEXTSTYLE0
 73
     1
 44
1.0
  0
ENDBLK
  5
D3
330
D1
100
AcDbEntity
  8
0
100
AcDbBlockEnd
  0
BLOCK
  5
D8
330
D7
100
AcDbEntity
  8
0
100
AcDbBlockBegin
  2
SW_NOTE_7
 70
     0
 10
0.0
 20
0.0
 30
0.0
  3
SW_NOTE_7
  1

  0
CIRCLE
  5
DA
330
D7
100
AcDbEntity
  8
0
  6
Continuous
 62
     0
370
     0
100
AcDbCircle
 10
0.052725833
 20
0.104521529
 30
0.0
 40
0.1249253021338701
  0
MTEXT
  5
DB
330
D7
100
AcDbEntity
  8
0
  6
Continuous
 62
     0
370
     0
100
AcDbMText
 10
0.0
 20
0.1776274445
 30
0.0
 40
0.1377952756
 41
0.0
 71
     1
 72
     1
  1
B
  7
SLDTEXTSTYLE0
 73
     1
 44
1.0
  0
ENDBLK
  5
D9
330
D7
100
AcDbEntity
  8
0
100
AcDbBlockEnd
  0
BLOCK
  5
DE
330
DD
100
AcDbEntity
  8
0
100
AcDbBlockBegin
  2
SW_NOTE_8
 70
     0
 10
0.0
 20
0.0
 30
0.0
  3
SW_NOTE_8
  1

  0
CIRCLE
  5
E0
330
DD
100
AcDbEntity
  8
0
  6
Continuous
 62
     0
370
     0
100
AcDbCircle
 10
0.052725833
 20
0.104521529
 30
0.0
 40
0.1249253021338693
  0
MTEXT
  5
E1
330
DD
100
AcDbEntity
  8
0
  6
Continuous
 62
     0
370
     0
100
AcDbMText
 10
0.0
 20
0.1776274445
 30
0.0
 40
0.1377952756
 41
0.0
 71
     1
 72
     1
  1
B
  7
SLDTEXTSTYLE0
 73
     1
 44
1.0
  0
ENDBLK
  5
DF
330
DD
100
AcDbEntity
  8
0
100
AcDbBlockEnd
  0
BLOCK
  5
E4
330
E3
100
AcDbEntity
  8
0
100
AcDbBlockBegin
  2
SW_NOTE_9
 70
     0
 10
0.0
 20
0.0
 30
0.0
  3
SW_NOTE_9
  1

  0
CIRCLE
  5
E6
330
E3
100
AcDbEntity
  8
0
  6
Continuous
 62
     0
370
     0
100
AcDbCircle
 10
0.052725833
 20
0.104521529
 30
0.0
 40
0.1249253021338701
  0
MTEXT
  5
E7
330
E3
100
AcDbEntity
  8
0
  6
Continuous
 62
     0
370
     0
100
AcDbMText
 10
0.0
 20
0.1776274445
 30
0.0
 40
0.1377952756
 41
0.0
 71
     1
 72
     1
  1
B
  7
SLDTEXTSTYLE0
 73
     1
 44
1.0
  0
ENDBLK
  5
E5
330
E3
100
AcDbEntity
  8
0
100
AcDbBlockEnd
  0
BLOCK
  5
124
330
123
100
AcDbEntity
  8
0
100
AcDbBlockBegin
  2
SW_NOTE_10
 70
     0
 10
0.0
 20
0.0
 30
0.0
  3
SW_NOTE_10
  1

  0
MTEXT
  5
127
330
123
100
AcDbEntity
  8
0
  6
Continuous
 62
     0
370
     0
100
AcDbMText
 10
0.0
 20
0.1342778896
 30
0.0
 40
0.1041666667
 41
0.0
 71
     1
 72
     1
  1
THE  INFORMATION  CONTAINED  IN  THIS  DRAWING  IS  THE  SOLE  PROPERTY  OF
  7
SLDTEXTSTYLE7
 73
     1
 44
1.0
  0
MTEXT
  5
129
330
123
100
AcDbEntity
  8
0
  6
Continuous
 62
     0
370
     0
100
AcDbMText
 10
0.0
 20
-0.0046109977
 30
0.0
 40
0.1041666667
 41
0.0
 71
     1
 72
     1
  1
BUD  INDUSTRIES  INC.  ANY  REPRODUCTION  IN  PART  OR  WHOLE  WITHOUT
  7
SLDTEXTSTYLE8
 73
     1
 44
1.0
  0
MTEXT
  5
12B
330
123
100
AcDbEntity
  8
0
  6
Continuous
 62
     0
370
     0
100
AcDbMText
 10
0.0
 20
-0.1434998849
 30
0.0
 40
0.1041666667
 41
0.0
 71
     1
 72
     1
  1
THE  WRITTEN  PERMISSION  OF  BUD   INDUSTRIES  INC.  IS  PROHIBITED.
  7
SLDTEXTSTYLE9
 73
     1
 44
1.0
  0
ENDBLK
  5
125
330
123
100
AcDbEntity
  8
0
100
AcDbBlockEnd
  0
BLOCK
  5
130
330
12F
100
AcDbEntity
  8
0
100
AcDbBlockBegin
  2
SW_NOTE_11
 70
     0
 10
0.0
 20
0.0
 30
0.0
  3
SW_NOTE_11
  1

  0
MTEXT
  5
132
330
12F
100
AcDbEntity
  8
0
  6
Continuous
 62
     0
370
     0
100
AcDbMText
 10
0.0
 20
0.0805667337
 30
0.0
 40
0.0625
 41
0.0
 71
     1
 72
     1
  1
+/-.062 BETWEEN ASSEMBLED
  7
SLDTEXTSTYLE0
 73
     1
 44
1.0
  0
MTEXT
  5
133
330
12F
100
AcDbEntity
  8
0
  6
Continuous
 62
     0
370
     0
100
AcDbMText
 10
0.0
 20
-0.0027665986
 30
0.0
 40
0.0625
 41
0.0
 71
     1
 72
     1
  1
               SURFACES
  7
SLDTEXTSTYLE0
 73
     1
 44
1.0
  0
ENDBLK
  5
131
330
12F
100
AcDbEntity
  8
0
100
AcDbBlockEnd
  0
BLOCK
  5
13D
330
13C
100
AcDbEntity
  8
0
100
AcDbBlockBegin
  2
SW_NOTE_12
 70
     0
 10
0.0
 20
0.0
 30
0.0
  3
SW_NOTE_12
  1

  0
CIRCLE
  5
13F
330
13C
100
AcDbEntity
  8
0
  6
Continuous
 62
     0
370
     0
100
AcDbCircle
 10
0.0679407289
 20
0.104521529
 30
0.0
 40
0.1249253021338701
  0
MTEXT
  5
140
330
13C
100
AcDbEntity
  8
0
  6
Continuous
 62
     0
370
     0
100
AcDbMText
 10
0.0
 20
0.1776274445
 30
0.0
 40
0.1377952756
 41
0.0
 71
     1
 72
     1
  1
A
  7
SLDTEXTSTYLE0
 73
     1
 44
1.0
  0
ENDBLK
  5
13E
330
13C
100
AcDbEntity
  8
0
100
AcDbBlockEnd
  0
BLOCK
  5
143
330
142
100
AcDbEntity
  8
0
100
AcDbBlockBegin
  2
SW_NOTE_13
 70
     0
 10
0.0
 20
0.0
 30
0.0
  3
SW_NOTE_13
  1

  0
MTEXT
  5
145
330
142
100
AcDbEntity
  8
0
  6
Continuous
 62
     0
370
     0
100
AcDbMText
 10
0.0
 20
0.1776274445
 30
0.0
 40
0.1377952756
 41
0.0
 71
     1
 72
     1
  1
CHG'D MAT'L CALL-
  7
SLDTEXTSTYLE0
 73
     1
 44
1.0
  0
MTEXT
  5
146
330
142
100
AcDbEntity
  8
0
  6
Continuous
 62
     0
370
     0
100
AcDbMText
 10
0.0
 20
-0.0005495056
 30
0.0
 40
0.1377952756
 41
0.0
 71
     1
 72
     1
  1
OUT  10-29-08 DAB
  7
SLDTEXTSTYLE0
 73
     1
 44
1.0
  0
ENDBLK
  5
144
330
142
100
AcDbEntity
  8
0
100
AcDbBlockEnd
  0
BLOCK
  5
149
330
148
100
AcDbEntity
  8
0
100
AcDbBlockBegin
  2
SW_NOTE_14
 70
     0
 10
0.0
 20
0.0
 30
0.0
  3
SW_NOTE_14
  1

  0
CIRCLE
  5
14B
330
148
100
AcDbEntity
  8
0
  6
Continuous
 62
     0
370
     0
100
AcDbCircle
 10
0.052725833
 20
0.104521529
 30
0.0
 40
0.1249253021338701
  0
MTEXT
  5
14C
330
148
100
AcDbEntity
  8
0
  6
Continuous
 62
     0
370
     0
100
AcDbMText
 10
0.0
 20
0.1776274445
 30
0.0
 40
0.1377952756
 41
0.0
 71
     1
 72
     1
  1
B
  7
SLDTEXTSTYLE0
 73
     1
 44
1.0
  0
ENDBLK
  5
14A
330
148
100
AcDbEntity
  8
0
100
AcDbBlockEnd
  0
BLOCK
  5
14F
330
14E
100
AcDbEntity
  8
0
100
AcDbBlockBegin
  2
SW_NOTE_15
 70
     0
 10
0.0
 20
0.0
 30
0.0
  3
SW_NOTE_15
  1

  0
MTEXT
  5
151
330
14E
100
AcDbEntity
  8
0
  6
Continuous
 62
     0
370
     0
100
AcDbMText
 10
0.0
 20
0.1776274445
 30
0.0
 40
0.1377952756
 41
0.0
 71
     1
 72
     1
  1
PER ECN #10509
  7
SLDTEXTSTYLE0
 73
     1
 44
1.0
  0
MTEXT
  5
152
330
14E
100
AcDbEntity
  8
0
  6
Continuous
 62
     0
370
     0
100
AcDbMText
 10
0.0
 20
-0.0005495056
 30
0.0
 40
0.1377952756
 41
0.0
 71
     1
 72
     1
  1
7-9-09 DAB
  7
SLDTEXTSTYLE0
 73
     1
 44
1.0
  0
ENDBLK
  5
150
330
14E
100
AcDbEntity
  8
0
100
AcDbBlockEnd
  0
BLOCK
  5
155
330
154
100
AcDbEntity
  8
0
100
AcDbBlockBegin
  2
SW_NOTE_16
 70
     0
 10
0.0
 20
0.0
 30
0.0
  3
SW_NOTE_16
  1

  0
CIRCLE
  5
157
330
154
100
AcDbEntity
  8
0
  6
Continuous
 62
     0
370
     0
100
AcDbCircle
 10
0.0746391107
 20
0.104521529
 30
0.0
 40
0.1249253021338708
  0
MTEXT
  5
158
330
154
100
AcDbEntity
  8
0
  6
Continuous
 62
     0
370
     0
100
AcDbMText
 10
0.0
 20
0.1776274445
 30
0.0
 40
0.1377952756
 41
0.0
 71
     1
 72
     1
  1
C
  7
SLDTEXTSTYLE0
 73
     1
 44
1.0
  0
ENDBLK
  5
156
330
154
100
AcDbEntity
  8
0
100
AcDbBlockEnd
  0
BLOCK
  5
15B
330
15A
100
AcDbEntity
  8
0
100
AcDbBlockBegin
  2
SW_NOTE_17
 70
     0
 10
0.0
 20
0.0
 30
0.0
  3
SW_NOTE_17
  1

  0
MTEXT
  5
15D
330
15A
100
AcDbEntity
  8
0
  6
Continuous
 62
     0
370
     0
100
AcDbMText
 10
0.0
 20
0.1776274445
 30
0.0
 40
0.1377952756
 41
0.0
 71
     1
 72
     1
  1
ADD TORQUE SPEC.
  7
SLDTEXTSTYLE0
 73
     1
 44
1.0
  0
MTEXT
  5
15E
330
15A
100
AcDbEntity
  8
0
  6
Continuous
 62
     0
370
     0
100
AcDbMText
 10
0.0
 20
-0.0005495056
 30
0.0
 40
0.1377952756
 41
0.0
 71
     1
 72
     1
  1
8-11-11 DAB
  7
SLDTEXTSTYLE0
 73
     1
 44
1.0
  0
ENDBLK
  5
15C
330
15A
100
AcDbEntity
  8
0
100
AcDbBlockEnd
  0
BLOCK
  5
231
330
230
100
AcDbEntity
  8
0
100
AcDbBlockBegin
  2
*D19
 70
     1
 10
0.0
 20
0.0
 30
0.0
  3
*D19
  1

  0
SOLID
  5
233
330
230
100
AcDbEntity
  8
0
  6
Continuous
 62
     7
370
     0
100
AcDbTrace
 10
9.7336726654
 20
9.085642498
 30
0.0
 11
9.7076726654
 21
8.929642498
 31
0.0
 12
9.7596726654
 22
8.929642498
 32
0.0
 13
9.7596726654
 23
8.929642498
 33
0.0
  0
SOLID
  5
234
330
230
100
AcDbEntity
  8
0
  6
Continuous
 62
     7
370
     0
100
AcDbTrace
 10
9.7336726654
 20
7.274642498
 30
0.0
 11
9.7596726654
 21
7.430642498
 31
0.0
 12
9.7076726654
 22
7.430642498
 32
0.0
 13
9.7076726654
 23
7.430642498
 33
0.0
  0
LINE
  5
235
330
230
100
AcDbEntity
  8
0
  6
Continuous
 62
     7
370
     0
100
AcDbLine
 10
8.3888860473
 20
9.085642498
 30
0.0
 11
9.8586726654
 21
9.085642498
 31
0.0
  0
LINE
  5
236
330
230
100
AcDbEntity
  8
0
  6
Continuous
 62
     7
370
     0
100
AcDbLine
 10
8.3888860473
 20
7.274642498
 30
0.0
 11
9.8586726654
 21
7.274642498
 31
0.0
  0
LINE
  5
237
330
230
100
AcDbEntity
  8
0
  6
Continuous
 62
     7
370
     0
100
AcDbLine
 10
9.7336726654
 20
9.085642498
 30
0.0
 11
9.7336726654
 21
8.289468595
 31
0.0
  0
LINE
  5
238
330
230
100
AcDbEntity
  8
0
  6
Continuous
 62
     7
370
     0
100
AcDbLine
 10
9.7336726654
 20
7.274642498
 30
0.0
 11
9.7336726654
 21
8.070816401
 31
0.0
  0
MTEXT
  5
239
330
230
100
AcDbEntity
  8
0
  6
Continuous
 62
     7
370
     0
100
AcDbMText
 10
9.5046084622
 20
8.2484438386
 30
0.0
 40
0.1377952756
 41
0.0
 71
     1
 72
     1
  1
1.811
  7
SLDTEXTSTYLE0
 73
     1
 44
1.0
  0
ENDBLK
  5
232
330
230
100
AcDbEntity
  8
0
100
AcDbBlockEnd
  0
BLOCK
  5
23C
330
23B
100
AcDbEntity
  8
0
100
AcDbBlockBegin
  2
*D20
 70
     1
 10
0.0
 20
0.0
 30
0.0
  3
*D20
  1

  0
SOLID
  5
23E
330
23B
100
AcDbEntity
  8
0
  6
Continuous
 62
     7
370
     0
100
AcDbTrace
 10
1.1441852599
 20
8.652642498
 30
0.0
 11
1.1181852599
 21
8.496642498
 31
0.0
 12
1.1701852599
 22
8.496642498
 32
0.0
 13
1.1701852599
 23
8.496642498
 33
0.0
  0
SOLID
  5
23F
330
23B
100
AcDbEntity
  8
0
  6
Continuous
 62
     7
370
     0
100
AcDbTrace
 10
1.1441852599
 20
7.707642498
 30
0.0
 11
1.1701852599
 21
7.863642498
 31
0.0
 12
1.1181852599
 22
7.863642498
 32
0.0
 13
1.1181852599
 23
7.863642498
 33
0.0
  0
LINE
  5
240
330
23B
100
AcDbEntity
  8
0
  6
Continuous
 62
     7
370
     0
100
AcDbLine
 10
1.7148860473
 20
8.652642498
 30
0.0
 11
1.0191852599
 21
8.652642498
 31
0.0
  0
LINE
  5
241
330
23B
100
AcDbEntity
  8
0
  6
Continuous
 62
     7
370
     0
100
AcDbLine
 10
1.7148860473
 20
7.707642498
 30
0.0
 11
1.0191852599
 21
7.707642498
 31
0.0
  0
LINE
  5
242
330
23B
100
AcDbEntity
  8
0
  6
Continuous
 62
     7
370
     0
100
AcDbLine
 10
1.1441852599
 20
8.652642498
 30
0.0
 11
1.1441852599
 21
8.289468595
 31
0.0
  0
LINE
  5
243
330
23B
100
AcDbEntity
  8
0
  6
Continuous
 62
     7
370
     0
100
AcDbLine
 10
1.1441852599
 20
7.707642498
 30
0.0
 11
1.1441852599
 21
8.070816401
 31
0.0
  0
MTEXT
  5
244
330
23B
100
AcDbEntity
  8
0
  6
Continuous
 62
     7
370
     0
100
AcDbMText
 10
0.9660464608
 20
8.2484438386
 30
0.0
 40
0.1377952756
 41
0.0
 71
     1
 72
     1
  1
.945
  7
SLDTEXTSTYLE0
 73
     1
 44
1.0
  0
ENDBLK
  5
23D
330
23B
100
AcDbEntity
  8
0
100
AcDbBlockEnd
  0
BLOCK
  5
247
330
246
100
AcDbEntity
  8
0
100
AcDbBlockBegin
  2
*D21
 70
     1
 10
0.0
 20
0.0
 30
0.0
  3
*D21
  1

  0
SOLID
  5
249
330
246
100
AcDbEntity
  8
0
  6
Continuous
 62
     7
370
     0
100
AcDbTrace
 10
8.3388860473
 20
9.8533432854
 30
0.0
 11
8.1828860473
 21
9.8793432854
 31
0.0
 12
8.1828860473
 22
9.8273432854
 32
0.0
 13
8.1828860473
 23
9.8273432854
 33
0.0
  0
SOLID
  5
24A
330
246
100
AcDbEntity
  8
0
  6
Continuous
 62
     7
370
     0
100
AcDbTrace
 10
1.7648860473
 20
9.8533432854
 30
0.0
 11
1.9208860473
 21
9.8273432854
 31
0.0
 12
1.9208860473
 22
9.8793432854
 32
0.0
 13
1.9208860473
 23
9.8793432854
 33
0.0
  0
LINE
  5
24B
330
246
100
AcDbEntity
  8
0
  6
Continuous
 62
     7
370
     0
100
AcDbLine
 10
8.3388860473
 20
9.135642498
 30
0.0
 11
8.3388860473
 21
9.9783432854
 31
0.0
  0
LINE
  5
24C
330
246
100
AcDbEntity
  8
0
  6
Continuous
 62
     7
370
     0
100
AcDbLine
 10
1.7648860473
 20
8.702642498
 30
0.0
 11
1.7648860473
 21
9.9783432854
 31
0.0
  0
LINE
  5
24D
330
246
100
AcDbEntity
  8
0
  6
Continuous
 62
     7
370
     0
100
AcDbLine
 10
8.3388860473
 20
9.8533432854
 30
0.0
 11
5.3434502505
 21
9.8533432854
 31
0.0
  0
LINE
  5
24E
330
246
100
AcDbEntity
  8
0
  6
Continuous
 62
     7
370
     0
100
AcDbLine
 10
1.7648860473
 20
9.8533432854
 30
0.0
 11
4.7603218441
 21
9.8533432854
 31
0.0
  0
MTEXT
  5
24F
330
246
100
AcDbEntity
  8
0
  6
Continuous
 62
     7
370
     0
100
AcDbMText
 10
4.8228218441
 20
9.921644626
 30
0.0
 40
0.1377952756
 41
0.0
 71
     1
 72
     1
  1
6.574
  7
SLDTEXTSTYLE0
 73
     1
 44
1.0
  0
ENDBLK
  5
248
330
246
100
AcDbEntity
  8
0
100
AcDbBlockEnd
  0
BLOCK
  5
253
330
252
100
AcDbEntity
  8
0
100
AcDbBlockBegin
  2
*D22
 70
     1
 10
0.0
 20
0.0
 30
0.0
  3
*D22
  1

  0
SOLID
  5
255
330
252
100
AcDbEntity
  8
0
  6
Continuous
 62
     7
370
     0
100
AcDbTrace
 10
9.1919680279
 20
8.380142498
 30
0.0
 11
9.2179680279
 21
8.536142498
 31
0.0
 12
9.1659680279
 22
8.536142498
 32
0.0
 13
9.1659680279
 23
8.536142498
 33
0.0
  0
SOLID
  5
256
330
252
100
AcDbEntity
  8
0
  6
Continuous
 62
     7
370
     0
100
AcDbTrace
 10
9.1919680279
 20
7.980142498
 30
0.0
 11
9.1659680279
 21
7.824142498
 31
0.0
 12
9.2179680279
 22
7.824142498
 32
0.0
 13
9.2179680279
 23
7.824142498
 33
0.0
  0
LINE
  5
257
330
252
100
AcDbEntity
  8
0
  6
Continuous
 62
     7
370
     0
100
AcDbLine
 10
8.4480262693
 20
8.380142498
 30
0.0
 11
9.3169680279
 21
8.380142498
 31
0.0
  0
LINE
  5
258
330
252
100
AcDbEntity
  8
0
  6
Continuous
 62
     7
370
     0
100
AcDbLine
 10
8.4480262693
 20
7.980142498
 30
0.0
 11
9.3169680279
 21
7.980142498
 31
0.0
  0
LINE
  5
259
330
252
100
AcDbEntity
  8
0
  6
Continuous
 62
     7
370
     0
100
AcDbLine
 10
9.1919680279
 20
8.380142498
 30
0.0
 11
9.1919680279
 21
8.755142498
 31
0.0
  0
LINE
  5
25A
330
252
100
AcDbEntity
  8
0
  6
Continuous
 62
     7
370
     0
100
AcDbLine
 10
9.1919680279
 20
7.980142498
 30
0.0
 11
9.1919680279
 21
7.605142498
 31
0.0
  0
MTEXT
  5
25B
330
252
100
AcDbEntity
  8
0
  6
Continuous
 62
     7
370
     0
100
AcDbMText
 10
9.0138292289
 20
8.2484438386
 30
0.0
 40
0.1377952756
 41
0.0
 71
     1
 72
     1
  1
.400
  7
SLDTEXTSTYLE0
 73
     1
 44
1.0
  0
ENDBLK
  5
254
330
252
100
AcDbEntity
  8
0
100
AcDbBlockEnd
  0
BLOCK
  5
25F
330
25E
100
AcDbEntity
  8
0
100
AcDbBlockBegin
  2
*D23
 70
     1
 10
0.0
 20
0.0
 30
0.0
  3
*D23
  1

  0
SOLID
  5
261
330
25E
100
AcDbEntity
  8
0
  6
Continuous
 62
     7
370
     0
100
AcDbTrace
 10
8.41255483
 20
9.1373426958
 30
0.0
 11
8.5551829995
 21
9.2056742792
 31
0.0
 12
8.5253117741
 22
9.2482384648
 32
0.0
 13
8.5253117741
 23
9.2482384648
 33
0.0
  0
LINE
  5
262
330
25E
100
AcDbEntity
  8
0
  6
Continuous
 62
     7
370
     0
100
AcDbLine
 10
8.41255483
 20
9.1373426958
 30
0.0
 11
8.8409592705
 21
9.4379937108
 31
0.0
  0
LINE
  5
263
330
25E
100
AcDbEntity
  8
0
  6
Continuous
 62
     7
370
     0
100
AcDbLine
 10
8.8409592705
 20
9.4379937108
 30
0.0
 11
8.9659592705
 21
9.4379937108
 31
0.0
  0
MTEXT
  5
264
330
25E
100
AcDbEntity
  8
0
  6
Continuous
 62
     7
370
     0
100
AcDbMText
 10
9.0284592705
 20
9.5062950583
 30
0.0
 40
0.1377952756
 41
0.0
 71
     1
 72
     1
  1
%%c
  7
SLDTEXTSTYLE0
 73
     1
 44
1.0
  0
MTEXT
  5
265
330
25E
100
AcDbEntity
  8
0
  6
Continuous
 62
     7
370
     0
100
AcDbMText
 10
9.236165506
 20
9.5062950514
 30
0.0
 40
0.1377952756
 41
0.0
 71
     1
 72
     1
  1
.180
  7
SLDTEXTSTYLE0
 73
     1
 44
1.0
  0
MTEXT
  5
266
330
25E
100
AcDbEntity
  8
0
  6
Continuous
 62
     7
370
     0
100
AcDbMText
 10
9.5924431042
 20
9.5062950514
 30
0.0
 40
0.1377952756
 41
0.0
 71
     1
 72
     1
  1
 O.D. TYP.
  7
SLDTEXTSTYLE0
 73
     1
 44
1.0
  0
ENDBLK
  5
260
330
25E
100
AcDbEntity
  8
0
100
AcDbBlockEnd
  0
BLOCK
  5
26A
330
269
100
AcDbEntity
  8
0
100
AcDbBlockBegin
  2
*D24
 70
     1
 10
0.0
 20
0.0
 30
0.0
  3
*D24
  1

  0
SOLID
  5
26C
330
269
100
AcDbEntity
  8
0
  6
Continuous
 62
     7
370
     0
100
AcDbTrace
 10
8.2165672889
 20
7.487787548
 30
0.0
 11
8.0605672889
 21
7.513787548
 31
0.0
 12
8.0605672889
 22
7.461787548
 32
0.0
 13
8.0605672889
 23
7.461787548
 33
0.0
  0
SOLID
  5
26D
330
269
100
AcDbEntity
  8
0
  6
Continuous
 62
     7
370
     0
100
AcDbTrace
 10
8.509859085
 20
7.487787548
 30
0.0
 11
8.665859085
 21
7.461787548
 31
0.0
 12
8.665859085
 22
7.513787548
 32
0.0
 13
8.665859085
 23
7.513787548
 33
0.0
  0
LINE
  5
26E
330
269
100
AcDbEntity
  8
0
  6
Continuous
 62
     7
370
     0
100
AcDbLine
 10
8.2165672889
 20
7.960142498
 30
0.0
 11
8.2165672889
 21
7.362787548
 31
0.0
  0
LINE
  5
26F
330
269
100
AcDbEntity
  8
0
  6
Continuous
 62
     7
370
     0
100
AcDbLine
 10
8.509859085
 20
8.1167260902
 30
0.0
 11
8.509859085
 21
7.362787548
 31
0.0
  0
LINE
  5
270
330
269
100
AcDbEntity
  8
0
  6
Continuous
 62
     7
370
     0
100
AcDbLine
 10
8.2165672889
 20
7.487787548
 30
0.0
 11
7.8415672889
 21
7.487787548
 31
0.0
  0
LINE
  5
271
330
269
100
AcDbEntity
  8
0
  6
Continuous
 62
     7
370
     0
100
AcDbLine
 10
8.509859085
 20
7.487787548
 30
0.0
 11
8.8369480356
 21
7.487787548
 31
0.0
  0
MTEXT
  5
272
330
269
100
AcDbEntity
  8
0
  6
Continuous
 62
     7
370
     0
100
AcDbMText
 10
8.8994480356
 20
7.5560888886
 30
0.0
 40
0.1377952756
 41
0.0
 71
     1
 72
     1
  1
.293
  7
SLDTEXTSTYLE0
 73
     1
 44
1.0
  0
ENDBLK
  5
26B
330
269
100
AcDbEntity
  8
0
100
AcDbBlockEnd
  0
BLOCK
  5
276
330
275
100
AcDbEntity
  8
0
100
AcDbBlockBegin
  2
*D25
 70
     1
 10
0.0
 20
0.0
 30
0.0
  3
*D25
  1

  0
SOLID
  5
278
330
275
100
AcDbEntity
  8
0
  6
Continuous
 62
     7
370
     0
100
AcDbTrace
 10
1.9408860473
 20
6.5942552108
 30
0.0
 11
2.0968860473
 21
6.5682552108
 31
0.0
 12
2.0968860473
 22
6.6202552108
 32
0.0
 13
2.0968860473
 23
6.6202552108
 33
0.0
  0
SOLID
  5
279
330
275
100
AcDbEntity
  8
0
  6
Continuous
 62
     7
370
     0
100
AcDbTrace
 10
4.5408860473
 20
6.5942552108
 30
0.0
 11
4.3848860473
 21
6.6202552108
 31
0.0
 12
4.3848860473
 22
6.5682552108
 32
0.0
 13
4.3848860473
 23
6.5682552108
 33
0.0
  0
LINE
  5
27A
330
275
100
AcDbEntity
  8
0
  6
Continuous
 62
     7
370
     0
100
AcDbLine
 10
1.9408860473
 20
6.8512428462
 30
0.0
 11
1.9408860473
 21
6.4692552108
 31
0.0
  0
LINE
  5
27B
330
275
100
AcDbEntity
  8
0
  6
Continuous
 62
     7
370
     0
100
AcDbLine
 10
4.5408860473
 20
6.8512428462
 30
0.0
 11
4.5408860473
 21
6.4692552108
 31
0.0
  0
LINE
  5
27C
330
275
100
AcDbEntity
  8
0
  6
Continuous
 62
     7
370
     0
100
AcDbLine
 10
1.9408860473
 20
6.5942552108
 30
0.0
 11
2.9493218441
 21
6.5942552108
 31
0.0
  0
LINE
  5
27D
330
275
100
AcDbEntity
  8
0
  6
Continuous
 62
     7
370
     0
100
AcDbLine
 10
4.5408860473
 20
6.5942552108
 30
0.0
 11
3.5324502505
 21
6.5942552108
 31
0.0
  0
MTEXT
  5
27E
330
275
100
AcDbEntity
  8
0
  6
Continuous
 62
     7
370
     0
100
AcDbMText
 10
3.0118218441
 20
6.6625565514
 30
0.0
 40
0.1377952756
 41
0.0
 71
     1
 72
     1
  1
2.600
  7
SLDTEXTSTYLE0
 73
     1
 44
1.0
  0
ENDBLK
  5
277
330
275
100
AcDbEntity
  8
0
100
AcDbBlockEnd
  0
BLOCK
  5
282
330
281
100
AcDbEntity
  8
0
100
AcDbBlockBegin
  2
*D26
 70
     1
 10
0.0
 20
0.0
 30
0.0
  3
*D26
  1

  0
SOLID
  5
284
330
281
100
AcDbEntity
  8
0
  6
Continuous
 62
     7
370
     0
100
AcDbTrace
 10
8.3659454708
 20
7.2357387683
 30
0.0
 11
8.4336779927
 21
7.0928251388
 31
0.0
 12
8.4763671416
 22
7.1225175043
 32
0.0
 13
8.4763671416
 23
7.1225175043
 33
0.0
  0
LINE
  5
285
330
281
100
AcDbEntity
  8
0
  6
Continuous
 62
     7
370
     0
100
AcDbLine
 10
8.3659454708
 20
7.2357387683
 30
0.0
 11
8.7750527476
 21
6.6475592415
 31
0.0
  0
LINE
  5
286
330
281
100
AcDbEntity
  8
0
  6
Continuous
 62
     7
370
     0
100
AcDbLine
 10
8.7750527476
 20
6.6475592415
 30
0.0
 11
8.9000527476
 21
6.6475592415
 31
0.0
  0
MTEXT
  5
287
330
281
100
AcDbEntity
  8
0
  6
Continuous
 62
     7
370
     0
100
AcDbMText
 10
8.9625527476
 20
6.7158605889
 30
0.0
 40
0.1377952756
 41
0.0
 71
     1
 72
     1
  1
%%c
  7
SLDTEXTSTYLE0
 73
     1
 44
1.0
  0
MTEXT
  5
288
330
281
100
AcDbEntity
  8
0
  6
Continuous
 62
     7
370
     0
100
AcDbMText
 10
9.1702589831
 20
6.715860582
 30
0.0
 40
0.1377952756
 41
0.0
 71
     1
 72
     1
  1
.095
  7
SLDTEXTSTYLE0
 73
     1
 44
1.0
  0
MTEXT
  5
289
330
281
100
AcDbEntity
  8
0
  6
Continuous
 62
     7
370
     0
100
AcDbMText
 10
9.5265365813
 20
6.715860582
 30
0.0
 40
0.1377952756
 41
0.0
 71
     1
 72
     1
  1
 I.D. TYP.
  7
SLDTEXTSTYLE0
 73
     1
 44
1.0
  0
ENDBLK
  5
283
330
281
100
AcDbEntity
  8
0
100
AcDbBlockEnd
  0
BLOCK
  5
2C7
330
2C6
100
AcDbEntity
  8
0
100
AcDbBlockBegin
  2
*D27
 70
     1
 10
0.0
 20
0.0
 30
0.0
  3
*D27
  1

  0
SOLID
  5
2C9
330
2C6
100
AcDbEntity
  8
0
  6
Continuous
 62
     7
370
     0
100
AcDbTrace
 10
14.2008630045
 20
5.5511937338
 30
0.0
 11
14.1748630045
 21
5.3951937338
 31
0.0
 12
14.2268630045
 22
5.3951937338
 32
0.0
 13
14.2268630045
 23
5.3951937338
 33
0.0
  0
SOLID
  5
2CA
330
2C6
100
AcDbEntity
  8
0
  6
Continuous
 62
     7
370
     0
100
AcDbTrace
 10
14.2008630045
 20
6.0901937338
 30
0.0
 11
14.2268630045
 21
6.2461937338
 31
0.0
 12
14.1748630045
 22
6.2461937338
 32
0.0
 13
14.1748630045
 23
6.2461937338
 33
0.0
  0
LINE
  5
2CB
330
2C6
100
AcDbEntity
  8
0
  6
Continuous
 62
     7
370
     0
100
AcDbLine
 10
13.9174244065
 20
5.5511937338
 30
0.0
 11
14.3258630045
 21
5.5511937338
 31
0.0
  0
LINE
  5
2CC
330
2C6
100
AcDbEntity
  8
0
  6
Continuous
 62
     7
370
     0
100
AcDbLine
 10
13.6334244065
 20
6.0901937338
 30
0.0
 11
14.3258630045
 21
6.0901937338
 31
0.0
  0
LINE
  5
2CD
330
2C6
100
AcDbEntity
  8
0
  6
Continuous
 62
     7
370
     0
100
AcDbLine
 10
14.2008630045
 20
5.5511937338
 30
0.0
 11
14.2008630045
 21
5.1761937338
 31
0.0
  0
LINE
  5
2CE
330
2C6
100
AcDbEntity
  8
0
  6
Continuous
 62
     7
370
     0
100
AcDbLine
 10
14.2008630045
 20
6.0901937338
 30
0.0
 11
14.2008630045
 21
6.4651937338
 31
0.0
  0
MTEXT
  5
2CF
330
2C6
100
AcDbEntity
  8
0
  6
Continuous
 62
     7
370
     0
100
AcDbMText
 10
14.0227242054
 20
5.8889950744
 30
0.0
 40
0.1377952756
 41
0.0
 71
     1
 72
     1
  1
.539
  7
SLDTEXTSTYLE0
 73
     1
 44
1.0
  0
ENDBLK
  5
2C8
330
2C6
100
AcDbEntity
  8
0
100
AcDbBlockEnd
  0
BLOCK
  5
2D2
330
2D1
100
AcDbEntity
  8
0
100
AcDbBlockBegin
  2
*D28
 70
     1
 10
0.0
 20
0.0
 30
0.0
  3
*D28
  1

  0
SOLID
  5
2D4
330
2D1
100
AcDbEntity
  8
0
  6
Continuous
 62
     7
370
     0
100
AcDbTrace
 10
10.8380956542
 20
5.5391937338
 30
0.0
 11
10.8640956542
 21
5.6951937338
 31
0.0
 12
10.8120956542
 22
5.6951937338
 32
0.0
 13
10.8120956542
 23
5.6951937338
 33
0.0
  0
SOLID
  5
2D5
330
2D1
100
AcDbEntity
  8
0
  6
Continuous
 62
     7
370
     0
100
AcDbTrace
 10
10.8380956542
 20
5.0031937338
 30
0.0
 11
10.8120956542
 21
4.8471937338
 31
0.0
 12
10.8640956542
 22
4.8471937338
 32
0.0
 13
10.8640956542
 23
4.8471937338
 33
0.0
  0
LINE
  5
2D6
330
2D1
100
AcDbEntity
  8
0
  6
Continuous
 62
     7
370
     0
100
AcDbLine
 10
11.2584244065
 20
5.5391937338
 30
0.0
 11
10.7130956542
 21
5.5391937338
 31
0.0
  0
LINE
  5
2D7
330
2D1
100
AcDbEntity
  8
0
  6
Continuous
 62
     7
370
     0
100
AcDbLine
 10
11.3564244065
 20
5.0031937338
 30
0.0
 11
10.7130956542
 21
5.0031937338
 31
0.0
  0
LINE
  5
2D8
330
2D1
100
AcDbEntity
  8
0
  6
Continuous
 62
     7
370
     0
100
AcDbLine
 10
10.8380956542
 20
5.5391937338
 30
0.0
 11
10.8380956542
 21
5.9141937338
 31
0.0
  0
LINE
  5
2D9
330
2D1
100
AcDbEntity
  8
0
  6
Continuous
 62
     7
370
     0
100
AcDbLine
 10
10.8380956542
 20
5.0031937338
 30
0.0
 11
10.8380956542
 21
4.6281937338
 31
0.0
  0
MTEXT
  5
2DA
330
2D1
100
AcDbEntity
  8
0
  6
Continuous
 62
     7
370
     0
100
AcDbMText
 10
10.6599568552
 20
5.3394950744
 30
0.0
 40
0.1377952756
 41
0.0
 71
     1
 72
     1
  1
.536
  7
SLDTEXTSTYLE0
 73
     1
 44
1.0
  0
ENDBLK
  5
2D3
330
2D1
100
AcDbEntity
  8
0
100
AcDbBlockEnd
  0
BLOCK
  5
2DC
330
2DB
100
AcDbEntity
  8
0
100
AcDbBlockBegin
  2
SW_NOTE_18
 70
     0
 10
0.0
 20
0.0
 30
0.0
  3
SW_NOTE_18
  1

  0
MTEXT
  5
2DE
330
2DB
100
AcDbEntity
  8
0
  6
Continuous
 62
     0
370
     0
100
AcDbMText
 10
0.0
 20
0.1776274445
 30
0.0
 40
0.1377952756
 41
0.0
 71
     1
 72
     1
  1
MATERIAL: ABS - UL94-HB
  7
SLDTEXTSTYLE0
 73
     1
 44
1.0
  0
MTEXT
  5
2DF
330
2DB
100
AcDbEntity
  8
0
  6
Continuous
 62
     0
370
     0
100
AcDbMText
 10
0.0
 20
-0.176703249
 30
0.0
 40
0.1377952756
 41
0.0
 71
     1
 72
     1
  1
FINISH: LIGHT TEXTURE
  7
SLDTEXTSTYLE0
 73
     1
 44
1.0
  0
MTEXT
  5
2E0
330
2DB
100
AcDbEntity
  8
0
  6
Continuous
 62
     0
370
     0
100
AcDbMText
 10
0.0
 20
-0.3538685957
 30
0.0
 40
0.1377952756
 41
0.0
 71
     1
 72
     1
  1
COLOR: BLACK (HH-3570-B) OR
  7
SLDTEXTSTYLE0
 73
     1
 44
1.0
  0
MTEXT
  5
2E1
330
2DB
100
AcDbEntity
  8
0
  6
Continuous
 62
     0
370
     0
100
AcDbMText
 10
0.0
 20
-0.5310339424
 30
0.0
 40
0.1377952756
 41
0.0
 71
     1
 72
     1
  1
               LIGHT GRAY (HH-3570-G)
  7
SLDTEXTSTYLE0
 73
     1
 44
1.0
  0
MTEXT
  5
2E2
330
2DB
100
AcDbEntity
  8
0
  6
Continuous
 62
     0
370
     0
100
AcDbMText
 10
0.0
 20
-0.8853646358
 30
0.0
 40
0.1377952756
 41
0.0
 71
     1
 72
     1
  1
PACKAGING: SHRINK WRAP WITH A
  7
SLDTEXTSTYLE0
 73
     1
 44
1.0
  0
MTEXT
  5
2E3
330
2DB
100
AcDbEntity
  8
0
  6
Continuous
 62
     0
370
     0
100
AcDbMText
 10
0.0
 20
-1.0625299825
 30
0.0
 40
0.1377952756
 41
0.0
 71
     1
 72
     1
  1
                       SELF-ADHESIVE LABEL
  7
SLDTEXTSTYLE0
 73
     1
 44
1.0
  0
MTEXT
  5
2E4
330
2DB
100
AcDbEntity
  8
0
  6
Continuous
 62
     0
370
     0
100
AcDbMText
 10
0.0
 20
-1.2396953292
 30
0.0
 40
0.1377952756
 41
0.0
 71
     1
 72
     1
  1
                       AFFIXED ON THE OUTSIDE.
  7
SLDTEXTSTYLE0
 73
     1
 44
1.0
  0
MTEXT
  5
2E5
330
2DB
100
AcDbEntity
  8
0
  6
Continuous
 62
     0
370
     0
100
AcDbMText
 10
0.0
 20
-1.5940260226
 30
0.0
 40
0.1377952756
 41
0.0
 71
     1
 72
     1
  1
MAXIMUM PC BOARD SIZE: 3.50 x 2.312
  7
SLDTEXTSTYLE0
 73
     1
 44
1.0
  0
MTEXT
  5
2E6
330
2DB
100
AcDbEntity
  8
0
  6
Continuous
 62
     0
370
     0
100
AcDbMText
 10
0.0
 20
-1.7711913693
 30
0.0
 40
0.1377952756
 41
0.0
 71
     1
 72
     1
  1
(WITH MAX. 0.62 COMPONENT HEIGHT)
  7
SLDTEXTSTYLE0
 73
     1
 44
1.0
  0
ENDBLK
  5
2DD
330
2DB
100
AcDbEntity
  8
0
100
AcDbBlockEnd
  0
BLOCK
  5
328
330
327
100
AcDbEntity
  8
0
100
AcDbBlockBegin
  2
*D30
 70
     1
 10
0.0
 20
0.0
 30
0.0
  3
*D30
  1

  0
SOLID
  5
32A
330
327
100
AcDbEntity
  8
0
  6
Continuous
 62
     7
370
     0
100
AcDbTrace
 10
8.1818860473
 20
4.1777193841
 30
0.0
 11
8.0258860473
 21
4.2037193841
 31
0.0
 12
8.0258860473
 22
4.1517193841
 32
0.0
 13
8.0258860473
 23
4.1517193841
 33
0.0
  0
SOLID
  5
32B
330
327
100
AcDbEntity
  8
0
  6
Continuous
 62
     7
370
     0
100
AcDbTrace
 10
2.0398860473
 20
4.1777193841
 30
0.0
 11
2.1958860473
 21
4.1517193841
 31
0.0
 12
2.1958860473
 22
4.2037193841
 32
0.0
 13
2.1958860473
 23
4.2037193841
 33
0.0
  0
LINE
  5
32C
330
327
100
AcDbEntity
  8
0
  6
Continuous
 62
     7
370
     0
100
AcDbLine
 10
8.1818860473
 20
3.4886583424
 30
0.0
 11
8.1818860473
 21
4.3027193841
 31
0.0
  0
LINE
  5
32D
330
327
100
AcDbEntity
  8
0
  6
Continuous
 62
     7
370
     0
100
AcDbLine
 10
2.0398860473
 20
3.4886583424
 30
0.0
 11
2.0398860473
 21
4.3027193841
 31
0.0
  0
LINE
  5
32E
330
327
100
AcDbEntity
  8
0
  6
Continuous
 62
     7
370
     0
100
AcDbLine
 10
8.1818860473
 20
4.1777193841
 30
0.0
 11
5.4024502505
 21
4.1777193841
 31
0.0
  0
LINE
  5
32F
330
327
100
AcDbEntity
  8
0
  6
Continuous
 62
     7
370
     0
100
AcDbLine
 10
2.0398860473
 20
4.1777193841
 30
0.0
 11
4.8193218441
 21
4.1777193841
 31
0.0
  0
MTEXT
  5
330
330
327
100
AcDbEntity
  8
0
  6
Continuous
 62
     7
370
     0
100
AcDbMText
 10
4.8818218441
 20
4.2460207247
 30
0.0
 40
0.1377952756
 41
0.0
 71
     1
 72
     1
  1
6.142
  7
SLDTEXTSTYLE0
 73
     1
 44
1.0
  0
ENDBLK
  5
329
330
327
100
AcDbEntity
  8
0
100
AcDbBlockEnd
  0
BLOCK
  5
333
330
332
100
AcDbEntity
  8
0
100
AcDbBlockBegin
  2
*D31
 70
     1
 10
0.0
 20
0.0
 30
0.0
  3
*D31
  1

  0
SOLID
  5
335
330
332
100
AcDbEntity
  8
0
  6
Continuous
 62
     7
370
     0
100
AcDbTrace
 10
1.1441852599
 20
3.4386583424
 30
0.0
 11
1.1181852599
 21
3.2826583424
 31
0.0
 12
1.1701852599
 22
3.2826583424
 32
0.0
 13
1.1701852599
 23
3.2826583424
 33
0.0
  0
SOLID
  5
336
330
332
100
AcDbEntity
  8
0
  6
Continuous
 62
     7
370
     0
100
AcDbTrace
 10
1.1441852599
 20
1.2736583424
 30
0.0
 11
1.1701852599
 21
1.4296583424
 31
0.0
 12
1.1181852599
 22
1.4296583424
 32
0.0
 13
1.1181852599
 23
1.4296583424
 33
0.0
  0
LINE
  5
337
330
332
100
AcDbEntity
  8
0
  6
Continuous
 62
     7
370
     0
100
AcDbLine
 10
1.9898860473
 20
3.4386583424
 30
0.0
 11
1.0191852599
 21
3.4386583424
 31
0.0
  0
LINE
  5
338
330
332
100
AcDbEntity
  8
0
  6
Continuous
 62
     7
370
     0
100
AcDbLine
 10
1.9898860473
 20
1.2736583424
 30
0.0
 11
1.0191852599
 21
1.2736583424
 31
0.0
  0
LINE
  5
339
330
332
100
AcDbEntity
  8
0
  6
Continuous
 62
     7
370
     0
100
AcDbLine
 10
1.1441852599
 20
3.4386583424
 30
0.0
 11
1.1441852599
 21
2.4654844394
 31
0.0
  0
LINE
  5
33A
330
332
100
AcDbEntity
  8
0
  6
Continuous
 62
     7
370
     0
100
AcDbLine
 10
1.1441852599
 20
1.2736583424
 30
0.0
 11
1.1441852599
 21
2.2468322454
 31
0.0
  0
MTEXT
  5
33B
330
332
100
AcDbEntity
  8
0
  6
Continuous
 62
     7
370
     0
100
AcDbMText
 10
0.9151210567
 20
2.424459683
 30
0.0
 40
0.1377952756
 41
0.0
 71
     1
 72
     1
  1
2.165
  7
SLDTEXTSTYLE0
 73
     1
 44
1.0
  0
ENDBLK
  5
334
330
332
100
AcDbEntity
  8
0
100
AcDbBlockEnd
  0
BLOCK
  5
33E
330
33D
100
AcDbEntity
  8
0
100
AcDbBlockBegin
  2
*D32
 70
     1
 10
0.0
 20
0.0
 30
0.0
  3
*D32
  1

  0
SOLID
  5
340
330
33D
100
AcDbEntity
  8
0
  6
Continuous
 62
     7
370
     0
100
AcDbTrace
 10
1.5378860473
 20
4.5018000747
 30
0.0
 11
1.6938860473
 21
4.4758000747
 31
0.0
 12
1.6938860473
 22
4.5278000747
 32
0.0
 13
1.6938860473
 23
4.5278000747
 33
0.0
  0
SOLID
  5
341
330
33D
100
AcDbEntity
  8
0
  6
Continuous
 62
     7
370
     0
100
AcDbTrace
 10
8.6838860473
 20
4.5018000747
 30
0.0
 11
8.5278860473
 21
4.5278000747
 31
0.0
 12
8.5278860473
 22
4.4758000747
 32
0.0
 13
8.5278860473
 23
4.4758000747
 33
0.0
  0
LINE
  5
342
330
33D
100
AcDbEntity
  8
0
  6
Continuous
 62
     7
370
     0
100
AcDbLine
 10
1.5378860473
 20
2.8850277816
 30
0.0
 11
1.5378860473
 21
4.6268000747
 31
0.0
  0
LINE
  5
343
330
33D
100
AcDbEntity
  8
0
  6
Continuous
 62
     7
370
     0
100
AcDbLine
 10
8.6838860473
 20
2.9162557096
 30
0.0
 11
8.6838860473
 21
4.6268000747
 31
0.0
  0
LINE
  5
344
330
33D
100
AcDbEntity
  8
0
  6
Continuous
 62
     7
370
     0
100
AcDbLine
 10
1.5378860473
 20
4.5018000747
 30
0.0
 11
4.8193218441
 21
4.5018000747
 31
0.0
  0
LINE
  5
345
330
33D
100
AcDbEntity
  8
0
  6
Continuous
 62
     7
370
     0
100
AcDbLine
 10
8.6838860473
 20
4.5018000747
 30
0.0
 11
5.4024502505
 21
4.5018000747
 31
0.0
  0
MTEXT
  5
346
330
33D
100
AcDbEntity
  8
0
  6
Continuous
 62
     7
370
     0
100
AcDbMText
 10
4.8818218441
 20
4.5701014153
 30
0.0
 40
0.1377952756
 41
0.0
 71
     1
 72
     1
  1
7.146
  7
SLDTEXTSTYLE0
 73
     1
 44
1.0
  0
ENDBLK
  5
33F
330
33D
100
AcDbEntity
  8
0
100
AcDbBlockEnd
  0
BLOCK
  5
349
330
348
100
AcDbEntity
  8
0
100
AcDbBlockBegin
  2
*D33
 70
     1
 10
0.0
 20
0.0
 30
0.0
  3
*D33
  1

  0
SOLID
  5
34B
330
348
100
AcDbEntity
  8
0
  6
Continuous
 62
     7
370
     0
100
AcDbTrace
 10
9.6883430534
 20
3.6356583424
 30
0.0
 11
9.6623430534
 21
3.4796583424
 31
0.0
 12
9.7143430534
 22
3.4796583424
 32
0.0
 13
9.7143430534
 23
3.4796583424
 33
0.0
  0
SOLID
  5
34C
330
348
100
AcDbEntity
  8
0
  6
Continuous
 62
     7
370
     0
100
AcDbTrace
 10
9.6883430534
 20
1.0766583424
 30
0.0
 11
9.7143430534
 21
1.2326583424
 31
0.0
 12
9.6623430534
 22
1.2326583424
 32
0.0
 13
9.6623430534
 23
1.2326583424
 33
0.0
  0
LINE
  5
34D
330
348
100
AcDbEntity
  8
0
  6
Continuous
 62
     7
370
     0
100
AcDbLine
 10
8.4226352475
 20
3.6356583424
 30
0.0
 11
9.8133430534
 21
3.6356583424
 31
0.0
  0
LINE
  5
34E
330
348
100
AcDbEntity
  8
0
  6
Continuous
 62
     7
370
     0
100
AcDbLine
 10
8.4414907542
 20
1.0766583424
 30
0.0
 11
9.8133430534
 21
1.0766583424
 31
0.0
  0
LINE
  5
34F
330
348
100
AcDbEntity
  8
0
  6
Continuous
 62
     7
370
     0
100
AcDbLine
 10
9.6883430534
 20
3.6356583424
 30
0.0
 11
9.6883430534
 21
2.6001529166
 31
0.0
  0
LINE
  5
350
330
348
100
AcDbEntity
  8
0
  6
Continuous
 62
     7
370
     0
100
AcDbLine
 10
9.6883430534
 20
1.0766583424
 30
0.0
 11
9.6883430534
 21
2.3815007226
 31
0.0
  0
MTEXT
  5
351
330
348
100
AcDbEntity
  8
0
  6
Continuous
 62
     7
370
     0
100
AcDbMText
 10
9.4592788501
 20
2.5591281601
 30
0.0
 40
0.1377952756
 41
0.0
 71
     1
 72
     1
  1
2.559
  7
SLDTEXTSTYLE0
 73
     1
 44
1.0
  0
ENDBLK
  5
34A
330
348
100
AcDbEntity
  8
0
100
AcDbBlockEnd
  0
BLOCK
  5
354
330
353
100
AcDbEntity
  8
0
100
AcDbBlockBegin
  2
*D34
 70
     1
 10
0.0
 20
0.0
 30
0.0
  3
*D34
  1

  0
SOLID
  5
356
330
353
100
AcDbEntity
  8
0
  6
Continuous
 62
     7
370
     0
100
AcDbTrace
 10
7.9448860473
 20
3.862710913
 30
0.0
 11
7.7888860473
 21
3.888710913
 31
0.0
 12
7.7888860473
 22
3.836710913
 32
0.0
 13
7.7888860473
 23
3.836710913
 33
0.0
  0
SOLID
  5
357
330
353
100
AcDbEntity
  8
0
  6
Continuous
 62
     7
370
     0
100
AcDbTrace
 10
4.8148860473
 20
3.862710913
 30
0.0
 11
4.9708860473
 21
3.836710913
 31
0.0
 12
4.9708860473
 22
3.888710913
 32
0.0
 13
4.9708860473
 23
3.888710913
 33
0.0
  0
LINE
  5
358
330
353
100
AcDbEntity
  8
0
  6
Continuous
 62
     7
370
     0
100
AcDbLine
 10
7.9448860473
 20
3.4296583424
 30
0.0
 11
7.9448860473
 21
3.987710913
 31
0.0
  0
LINE
  5
359
330
353
100
AcDbEntity
  8
0
  6
Continuous
 62
     7
370
     0
100
AcDbLine
 10
4.8148860473
 20
3.4296583424
 30
0.0
 11
4.8148860473
 21
3.987710913
 31
0.0
  0
LINE
  5
35A
330
353
100
AcDbEntity
  8
0
  6
Continuous
 62
     7
370
     0
100
AcDbLine
 10
7.9448860473
 20
3.862710913
 30
0.0
 11
6.6714502505
 21
3.862710913
 31
0.0
  0
LINE
  5
35B
330
353
100
AcDbEntity
  8
0
  6
Continuous
 62
     7
370
     0
100
AcDbLine
 10
4.8148860473
 20
3.862710913
 30
0.0
 11
6.0883218441
 21
3.862710913
 31
0.0
  0
MTEXT
  5
35C
330
353
100
AcDbEntity
  8
0
  6
Continuous
 62
     7
370
     0
100
AcDbMText
 10
6.1508218441
 20
3.9310122536
 30
0.0
 40
0.1377952756
 41
0.0
 71
     1
 72
     1
  1
3.130
  7
SLDTEXTSTYLE0
 73
     1
 44
1.0
  0
ENDBLK
  5
355
330
353
100
AcDbEntity
  8
0
100
AcDbBlockEnd
  0
BLOCK
  5
35F
330
35E
100
AcDbEntity
  8
0
100
AcDbBlockBegin
  2
*D35
 70
     1
 10
0.0
 20
0.0
 30
0.0
  3
*D35
  1

  0
SOLID
  5
361
330
35E
100
AcDbEntity
  8
0
  6
Continuous
 62
     7
370
     0
100
AcDbTrace
 10
9.1769120199
 20
3.3796583424
 30
0.0
 11
9.1509120199
 21
3.2236583424
 31
0.0
 12
9.2029120199
 22
3.2236583424
 32
0.0
 13
9.2029120199
 23
3.2236583424
 33
0.0
  0
SOLID
  5
362
330
35E
100
AcDbEntity
  8
0
  6
Continuous
 62
     7
370
     0
100
AcDbTrace
 10
9.1769120199
 20
1.3326583424
 30
0.0
 11
9.2029120199
 21
1.4886583424
 31
0.0
 12
9.1509120199
 22
1.4886583424
 32
0.0
 13
9.1509120199
 23
1.4886583424
 33
0.0
  0
LINE
  5
363
330
35E
100
AcDbEntity
  8
0
  6
Continuous
 62
     7
370
     0
100
AcDbLine
 10
7.9948860473
 20
3.3796583424
 30
0.0
 11
9.3019120199
 21
3.3796583424
 31
0.0
  0
LINE
  5
364
330
35E
100
AcDbEntity
  8
0
  6
Continuous
 62
     7
370
     0
100
AcDbLine
 10
7.9948860473
 20
1.3326583424
 30
0.0
 11
9.3019120199
 21
1.3326583424
 31
0.0
  0
LINE
  5
365
330
35E
100
AcDbEntity
  8
0
  6
Continuous
 62
     7
370
     0
100
AcDbLine
 10
9.1769120199
 20
3.3796583424
 30
0.0
 11
9.1769120199
 21
2.3525366844
 31
0.0
  0
LINE
  5
366
330
35E
100
AcDbEntity
  8
0
  6
Continuous
 62
     7
370
     0
100
AcDbLine
 10
9.1769120199
 20
1.3326583424
 30
0.0
 11
9.1769120199
 21
2.1338844904
 31
0.0
  0
MTEXT
  5
367
330
35E
100
AcDbEntity
  8
0
  6
Continuous
 62
     7
370
     0
100
AcDbMText
 10
8.9478478166
 20
2.3115119279
 30
0.0
 40
0.1377952756
 41
0.0
 71
     1
 72
     1
  1
2.047
  7
SLDTEXTSTYLE0
 73
     1
 44
1.0
  0
ENDBLK
  5
360
330
35E
100
AcDbEntity
  8
0
100
AcDbBlockEnd
  0
BLOCK
  5
36B
330
36A
100
AcDbEntity
  8
0
100
AcDbBlockBegin
  2
*D36
 70
     1
 10
0.0
 20
0.0
 30
0.0
  3
*D36
  1

  0
SOLID
  5
36D
330
36A
100
AcDbEntity
  8
0
  6
Continuous
 62
     7
370
     0
100
AcDbTrace
 10
7.8987769202
 20
1.252678654
 30
0.0
 11
7.7983372129
 21
1.1305153813
 31
0.0
 12
7.8433869072
 22
1.1045437612
 32
0.0
 13
7.8433869072
 23
1.1045437612
 33
0.0
  0
LINE
  5
36E
330
36A
100
AcDbEntity
  8
0
  6
Continuous
 62
     7
370
     0
100
AcDbLine
 10
7.8987769202
 20
1.252678654
 30
0.0
 11
7.6641421412
 21
0.8456872906
 31
0.0
  0
LINE
  5
36F
330
36A
100
AcDbEntity
  8
0
  6
Continuous
 62
     7
370
     0
100
AcDbLine
 10
7.6641421412
 20
0.8456872906
 30
0.0
 11
7.5391421412
 21
0.8456872906
 31
0.0
  0
MTEXT
  5
370
330
36A
100
AcDbEntity
  8
0
  6
Continuous
 62
     7
370
     0
100
AcDbMText
 10
5.9478121181
 20
0.6953364372
 30
0.0
 40
0.1377952756
 41
0.0
 71
     1
 72
     1
  1
.079 DIA HOLE (4)
  7
SLDTEXTSTYLE0
 73
     1
 44
1.0
  0
MTEXT
  5
371
330
36A
100
AcDbEntity
  8
0
  6
Continuous
 62
     7
370
     0
100
AcDbMText
 10
5.783756229
 20
0.9139886312
 30
0.0
 40
0.1377952756
 41
0.0
 71
     1
 72
     1
  1
.197 DIA BOSS WITH
  7
SLDTEXTSTYLE0
 73
     1
 44
1.0
  0
ENDBLK
  5
36C
330
36A
100
AcDbEntity
  8
0
100
AcDbBlockEnd
  0
BLOCK
  5
373
330
372
100
AcDbEntity
  8
0
100
AcDbBlockBegin
  2
SW_NOTE_19
 70
     0
 10
0.0
 20
0.0
 30
0.0
  3
SW_NOTE_19
  1

  0
MTEXT
  5
375
330
372
100
AcDbEntity
  8
0
  6
Continuous
 62
     0
370
     0
100
AcDbMText
 10
0.01976414
 20
0.088991516
 30
0.0
 40
0.1377952756
 41
0.0
 71
     1
 72
     1
  1
.039 DEEP
  7
SLDTEXTSTYLE0
 73
     1
 44
1.0
  0
MTEXT
  5
376
330
372
100
AcDbEntity
  8
0
  6
Continuous
 62
     0
370
     0
100
AcDbMText
 10
0.01976414
 20
-0.0881738307
 30
0.0
 40
0.1377952756
 41
0.0
 71
     1
 72
     1
  1
SMOOTH RECESS
  7
SLDTEXTSTYLE0
 73
     1
 44
1.0
  0
ENDBLK
  5
374
330
372
100
AcDbEntity
  8
0
100
AcDbBlockEnd
  0
BLOCK
  5
37A
330
379
100
AcDbEntity
  8
0
100
AcDbBlockBegin
  2
_DOT
 70
     0
 10
0.0
 20
0.0
 30
0.0
  3
_DOT
  1

  0
POLYLINE
  5
37C
330
379
100
AcDbEntity
  8
0
  6
ByBlock
 62
     0
100
AcDb2dPolyline
 66
     1
 10
0.0
 20
0.0
 30
0.0
 70
     1
 40
0.5
 41
0.5
  0
VERTEX
  5
37E
330
37C
100
AcDbEntity
  8
0
  6
ByBlock
 62
     0
100
AcDbVertex
100
AcDb2dVertex
 10
-0.25
 20
0.0
 30
0.0
 42
1.0
  0
VERTEX
  5
37F
330
37C
100
AcDbEntity
  8
0
  6
ByBlock
 62
     0
100
AcDbVertex
100
AcDb2dVertex
 10
0.25
 20
0.0
 30
0.0
 42
1.0
  0
SEQEND
  5
380
330
37C
100
AcDbEntity
  8
0
  6
ByBlock
 62
     0
  0
LINE
  5
37D
330
379
100
AcDbEntity
  8
0
  6
ByBlock
 62
     0
370
    -2
100
AcDbLine
 10
-0.5
 20
0.0
 30
0.0
 11
-1.0
 21
0.0
 31
0.0
  0
ENDBLK
  5
37B
330
379
100
AcDbEntity
  8
0
100
AcDbBlockEnd
  0
BLOCK
  5
45B
330
45A
100
AcDbEntity
  8
0
100
AcDbBlockBegin
  2
SW_NOTE_20
 70
     0
 10
0.0
 20
0.0
 30
0.0
  3
SW_NOTE_20
  1

  0
MTEXT
  5
45D
330
45A
100
AcDbEntity
  8
0
  6
Continuous
 62
     0
370
     0
100
AcDbMText
 10
-1.3294279527
 20
0.0889882477
 30
0.0
 40
0.1377952756
 41
0.0
 71
     1
 72
     1
  1
BATTERY DOOR
  7
SLDTEXTSTYLE0
 73
     1
 44
1.0
  0
MTEXT
  5
45E
330
45A
100
AcDbEntity
  8
0
  6
Continuous
 62
     0
370
     0
100
AcDbMText
 10
-2.1394533153
 20
-0.088177099
 30
0.0
 40
0.1377952756
 41
0.0
 71
     1
 72
     1
  1
HOLDS (4) 'AA' BATTERIES
  7
SLDTEXTSTYLE0
 73
     1
 44
1.0
  0
MTEXT
  5
45F
330
45A
100
AcDbEntity
  8
0
  6
Continuous
 62
     0
370
     0
100
AcDbMText
 10
-2.3982502589
 20
-0.2653424457
 30
0.0
 40
0.1377952756
 41
0.0
 71
     1
 72
     1
  1
(CONTACT KIT IS INCLUDED)
  7
SLDTEXTSTYLE0
 73
     1
 44
1.0
  0
ENDBLK
  5
45C
330
45A
100
AcDbEntity
  8
0
100
AcDbBlockEnd
  0
BLOCK
  5
463
330
462
100
AcDbEntity
  8
0
100
AcDbBlockBegin
  2
SW_NOTE_21
 70
     0
 10
0.0
 20
0.0
 30
0.0
  3
SW_NOTE_21
  1

  0
MTEXT
  5
465
330
462
100
AcDbEntity
  8
0
  6
Continuous
 62
     0
370
     0
100
AcDbMText
 10
-3.5351957888
 20
0.0890444537
 30
0.0
 40
0.1377952756
 41
0.0
 71
     1
 72
     1
  1
SCREW, M2.3 x 10mm THREAD FORMING,
  7
SLDTEXTSTYLE0
 73
     1
 44
1.0
  0
MTEXT
  5
466
330
462
100
AcDbEntity
  8
0
  6
Continuous
 62
     0
370
     0
100
AcDbMText
 10
-3.2284102128
 20
-0.088120893
 30
0.0
 40
0.1377952756
 41
0.0
 71
     1
 72
     1
  1
ROUND HEAD, PHILLIPS RECESS, STEEL,
  7
SLDTEXTSTYLE0
 73
     1
 44
1.0
  0
MTEXT
  5
467
330
462
100
AcDbEntity
  8
0
  6
Continuous
 62
     0
370
     0
100
AcDbMText
 10
-3.3839798024
 20
-0.2652862397
 30
0.0
 40
0.1377952756
 41
0.0
 71
     1
 72
     1
  1
BLACK ANODIZED (4 PL'S, NOT SHOWN)
  7
SLDTEXTSTYLE0
 73
     1
 44
1.0
  0
MTEXT
  5
468
330
462
100
AcDbEntity
  8
0
  6
Continuous
 62
     0
370
     0
100
AcDbMText
 10
-3.8455227372
 20
-0.4424515864
 30
0.0
 40
0.1377952756
 41
0.0
 71
     1
 72
     1
  1
TIGHTEN SCREWS TO 1 IN./LBS. TORQUE MAX.
  7
SLDTEXTSTYLE0
 73
     1
 44
1.0
  0
ENDBLK
  5
464
330
462
100
AcDbEntity
  8
0
100
AcDbBlockEnd
  0
BLOCK
  5
55E
330
55D
100
AcDbEntity
  8
0
100
AcDbBlockBegin
  2
*D41
 70
     1
 10
0.0
 20
0.0
 30
0.0
  3
*D41
  1

  0
SOLID
  5
560
330
55D
100
AcDbEntity
  8
0
  6
Continuous
 62
     7
370
     0
100
AcDbTrace
 10
9.0775868347
 20
5.0971937338
 30
0.0
 11
9.0515868347
 21
4.9411937338
 31
0.0
 12
9.1035868347
 22
4.9411937338
 32
0.0
 13
9.1035868347
 23
4.9411937338
 33
0.0
  0
SOLID
  5
561
330
55D
100
AcDbEntity
  8
0
  6
Continuous
 62
     7
370
     0
100
AcDbTrace
 10
9.0775868347
 20
5.2741937338
 30
0.0
 11
9.1035868347
 21
5.4301937338
 31
0.0
 12
9.0515868347
 22
5.4301937338
 32
0.0
 13
9.0515868347
 23
5.4301937338
 33
0.0
  0
LINE
  5
562
330
55D
100
AcDbEntity
  8
0
  6
Continuous
 62
     7
370
     0
100
AcDbLine
 10
8.2903860473
 20
5.0971937338
 30
0.0
 11
9.2025868347
 21
5.0971937338
 31
0.0
  0
LINE
  5
563
330
55D
100
AcDbEntity
  8
0
  6
Continuous
 62
     7
370
     0
100
AcDbLine
 10
8.172304626
 20
5.2741937338
 30
0.0
 11
9.2025868347
 21
5.2741937338
 31
0.0
  0
LINE
  5
564
330
55D
100
AcDbEntity
  8
0
  6
Continuous
 62
     7
370
     0
100
AcDbLine
 10
9.2025868347
 20
4.6768794046
 30
0.0
 11
9.0775868347
 21
4.6768794046
 31
0.0
  0
LINE
  5
565
330
55D
100
AcDbEntity
  8
0
  6
Continuous
 62
     7
370
     0
100
AcDbLine
 10
9.0775868347
 20
4.6768794046
 30
0.0
 11
9.0775868347
 21
5.0971937338
 31
0.0
  0
LINE
  5
566
330
55D
100
AcDbEntity
  8
0
  6
Continuous
 62
     7
370
     0
100
AcDbLine
 10
9.0775868347
 20
5.2741937338
 30
0.0
 11
9.0775868347
 21
5.6491937338
 31
0.0
  0
MTEXT
  5
567
330
55D
100
AcDbEntity
  8
0
  6
Continuous
 62
     7
370
     0
100
AcDbMText
 10
9.2650868347
 20
4.7451807452
 30
0.0
 40
0.1377952756
 41
0.0
 71
     1
 72
     1
  1
.177
  7
SLDTEXTSTYLE0
 73
     1
 44
1.0
  0
MTEXT
  5
568
330
55D
100
AcDbEntity
  8
0
  6
Continuous
 62
     7
370
     0
100
AcDbMText
 10
9.6213644328
 20
4.7451807452
 30
0.0
 40
0.1377952756
 41
0.0
 71
     1
 72
     1
  1
 TALL PCB
  7
SLDTEXTSTYLE0
 73
     1
 44
1.0
  0
MTEXT
  5
569
330
55D
100
AcDbEntity
  8
0
  6
Continuous
 62
     7
370
     0
100
AcDbMText
 10
9.2650868347
 20
4.5265285512
 30
0.0
 40
0.1377952756
 41
0.0
 71
     1
 72
     1
  1
MOUNTING BOSSES
  7
SLDTEXTSTYLE0
 73
     1
 44
1.0
  0
ENDBLK
  5
55F
330
55D
100
AcDbEntity
  8
0
100
AcDbBlockEnd
  0
BLOCK
  5
56C
330
56B
100
AcDbEntity
  8
0
100
AcDbBlockBegin
  2
*D42
 70
     1
 10
0.0
 20
0.0
 30
0.0
  3
*D42
  1

  0
SOLID
  5
56E
330
56B
100
AcDbEntity
  8
0
  6
Continuous
 62
     7
370
     0
100
AcDbTrace
 10
1.1441852599
 20
6.0901937338
 30
0.0
 11
1.1181852599
 21
5.9341937338
 31
0.0
 12
1.1701852599
 22
5.9341937338
 32
0.0
 13
1.1701852599
 23
5.9341937338
 33
0.0
  0
SOLID
  5
56F
330
56B
100
AcDbEntity
  8
0
  6
Continuous
 62
     7
370
     0
100
AcDbTrace
 10
1.1441852599
 20
5.0031937338
 30
0.0
 11
1.1701852599
 21
5.1591937338
 31
0.0
 12
1.1181852599
 22
5.1591937338
 32
0.0
 13
1.1181852599
 23
5.1591937338
 33
0.0
  0
LINE
  5
570
330
56B
100
AcDbEntity
  8
0
  6
Continuous
 62
     7
370
     0
100
AcDbLine
 10
1.6271572628
 20
6.0901937338
 30
0.0
 11
1.0191852599
 21
6.0901937338
 31
0.0
  0
LINE
  5
571
330
56B
100
AcDbEntity
  8
0
  6
Continuous
 62
     7
370
     0
100
AcDbLine
 10
1.5858860473
 20
5.0031937338
 30
0.0
 11
1.0191852599
 21
5.0031937338
 31
0.0
  0
LINE
  5
572
330
56B
100
AcDbEntity
  8
0
  6
Continuous
 62
     7
370
     0
100
AcDbLine
 10
1.1441852599
 20
6.0901937338
 30
0.0
 11
1.1441852599
 21
5.6560198308
 31
0.0
  0
LINE
  5
573
330
56B
100
AcDbEntity
  8
0
  6
Continuous
 62
     7
370
     0
100
AcDbLine
 10
1.1441852599
 20
5.0031937338
 30
0.0
 11
1.1441852599
 21
5.4373676368
 31
0.0
  0
MTEXT
  5
574
330
56B
100
AcDbEntity
  8
0
  6
Continuous
 62
     7
370
     0
100
AcDbMText
 10
0.9151210567
 20
5.6149950744
 30
0.0
 40
0.1377952756
 41
0.0
 71
     1
 72
     1
  1
1.087
  7
SLDTEXTSTYLE0
 73
     1
 44
1.0
  0
ENDBLK
  5
56D
330
56B
100
AcDbEntity
  8
0
100
AcDbBlockEnd
  0
BLOCK
  5
577
330
576
100
AcDbEntity
  8
0
100
AcDbBlockBegin
  2
*D43
 70
     1
 10
0.0
 20
0.0
 30
0.0
  3
*D43
  1

  0
SOLID
  5
579
330
576
100
AcDbEntity
  8
0
  6
Continuous
 62
     7
370
     0
100
AcDbTrace
 10
9.5500277796
 20
5.0971937338
 30
0.0
 11
9.5760277796
 21
5.2531937338
 31
0.0
 12
9.5240277796
 22
5.2531937338
 32
0.0
 13
9.5240277796
 23
5.2531937338
 33
0.0
  0
SOLID
  5
57A
330
576
100
AcDbEntity
  8
0
  6
Continuous
 62
     7
370
     0
100
AcDbTrace
 10
9.5500277796
 20
6.0151937338
 30
0.0
 11
9.5240277796
 21
5.8591937338
 31
0.0
 12
9.5760277796
 22
5.8591937338
 32
0.0
 13
9.5760277796
 23
5.8591937338
 33
0.0
  0
LINE
  5
57B
330
576
100
AcDbEntity
  8
0
  6
Continuous
 62
     7
370
     0
100
AcDbLine
 10
8.2903860473
 20
5.0971937338
 30
0.0
 11
9.6750277796
 21
5.0971937338
 31
0.0
  0
LINE
  5
57C
330
576
100
AcDbEntity
  8
0
  6
Continuous
 62
     7
370
     0
100
AcDbLine
 10
8.2638860473
 20
6.0151937338
 30
0.0
 11
9.6750277796
 21
6.0151937338
 31
0.0
  0
LINE
  5
57D
330
576
100
AcDbEntity
  8
0
  6
Continuous
 62
     7
370
     0
100
AcDbLine
 10
9.5500277796
 20
5.0971937338
 30
0.0
 11
9.5500277796
 21
5.4468676368
 31
0.0
  0
LINE
  5
57E
330
576
100
AcDbEntity
  8
0
  6
Continuous
 62
     7
370
     0
100
AcDbLine
 10
9.5500277796
 20
6.0151937338
 30
0.0
 11
9.5500277796
 21
5.6655198308
 31
0.0
  0
MTEXT
  5
57F
330
576
100
AcDbEntity
  8
0
  6
Continuous
 62
     7
370
     0
100
AcDbMText
 10
9.3718889805
 20
5.6244950744
 30
0.0
 40
0.1377952756
 41
0.0
 71
     1
 72
     1
  1
.918
  7
SLDTEXTSTYLE0
 73
     1
 44
1.0
  0
ENDBLK
  5
578
330
576
100
AcDbEntity
  8
0
100
AcDbBlockEnd
  0
ENDSEC
  0
SECTION
  2
ENTITIES
  0
LINE
  5
44
330
1F
100
AcDbEntity
  8
0
  6
Continuous
 62
     7
370
     0
100
AcDbLine
 10
0.6262516046
 20
10.6420731707
 30
0.0
 11
16.3762516046
 21
10.6420731707
 31
0.0
  0
LINE
  5
45
330
1F
100
AcDbEntity
  8
0
  6
Continuous
 62
     7
370
     0
100
AcDbLine
 10
0.6262516046
 20
10.6420731707
 30
0.0
 11
0.6262516046
 21
0.3920731707
 31
0.0
  0
LINE
  5
46
330
1F
100
AcDbEntity
  8
0
  6
Continuous
 62
     7
370
     0
100
AcDbLine
 10
16.3762516046
 20
0.3920731707
 30
0.0
 11
0.6262516046
 21
0.3920731707
 31
0.0
  0
LINE
  5
47
330
1F
100
AcDbEntity
  8
0
  6
Continuous
 62
     7
370
     0
100
AcDbLine
 10
16.3762516046
 20
0.3920731707
 30
0.0
 11
16.3762516046
 21
10.6420731707
 31
0.0
  0
LINE
  5
48
330
1F
100
AcDbEntity
  8
0
  6
Continuous
 62
     7
370
     0
100
AcDbLine
 10
16.3762516046
 20
8.0752921748
 30
0.0
 11
16.5012516046
 21
8.0752921748
 31
0.0
  0
LINE
  5
49
330
1F
100
AcDbEntity
  8
0
  6
Continuous
 62
     7
370
     0
100
AcDbLine
 10
16.3762516046
 20
5.5127921748
 30
0.0
 11
16.5012516046
 21
5.5127921748
 31
0.0
  0
LINE
  5
4A
330
1F
100
AcDbEntity
  8
0
  6
Continuous
 62
     7
370
     0
100
AcDbLine
 10
16.3762516046
 20
5.5127921748
 30
0.0
 11
16.4434330337
 21
5.5368018253
 31
0.0
  0
LINE
  5
4B
330
1F
100
AcDbEntity
  8
0
  6
Continuous
 62
     7
370
     0
100
AcDbLine
 10
16.3762516046
 20
5.5127921748
 30
0.0
 11
16.4434330337
 21
5.4902136493
 31
0.0
  0
LINE
  5
4C
330
1F
100
AcDbEntity
  8
0
  6
Continuous
 62
     7
370
     0
100
AcDbLine
 10
16.4434330337
 20
5.5368018253
 30
0.0
 11
16.4434330337
 21
5.4902136493
 31
0.0
  0
LINE
  5
4D
330
1F
100
AcDbEntity
  8
0
  6
Continuous
 62
     7
370
     0
100
AcDbLine
 10
16.3762516046
 20
5.5127921748
 30
0.0
 11
16.4434330337
 21
5.5218303331
 31
0.0
  0
LINE
  5
4E
330
1F
100
AcDbEntity
  8
0
  6
Continuous
 62
     7
370
     0
100
AcDbLine
 10
16.3762516046
 20
5.5127921748
 30
0.0
 11
16.4434330337
 21
5.5024840548
 31
0.0
  0
LINE
  5
4F
330
1F
100
AcDbEntity
  8
0
  6
Continuous
 62
     7
370
     0
100
AcDbLine
 10
10.1407755953
 20
0.3920731707
 30
0.0
 11
10.1407755953
 21
0.8683811526
 31
0.0
  0
LINE
  5
50
330
1F
100
AcDbEntity
  8
0
  6
Continuous
 62
     7
370
     0
100
AcDbLine
 10
0.6262516046
 20
2.9545731707
 30
0.0
 11
0.5012516046
 21
2.9545731707
 31
0.0
  0
LINE
  5
51
330
1F
100
AcDbEntity
  8
0
  6
Continuous
 62
     7
370
     0
100
AcDbLine
 10
0.6262516046
 20
5.5170731707
 30
0.0
 11
0.5590701755
 21
5.5067650507
 31
0.0
  0
LINE
  5
52
330
1F
100
AcDbEntity
  8
0
  6
Continuous
 62
     7
370
     0
100
AcDbLine
 10
0.6262516046
 20
5.5170731707
 30
0.0
 11
0.5590701755
 21
5.5261113291
 31
0.0
  0
LINE
  5
53
330
1F
100
AcDbEntity
  8
0
  6
Continuous
 62
     7
370
     0
100
AcDbLine
 10
0.5590701755
 20
5.5410828212
 30
0.0
 11
0.5590701755
 21
5.4944946453
 31
0.0
  0
LINE
  5
54
330
1F
100
AcDbEntity
  8
0
  6
Continuous
 62
     7
370
     0
100
AcDbLine
 10
0.6262516046
 20
5.5170731707
 30
0.0
 11
0.5590701755
 21
5.4944946453
 31
0.0
  0
LINE
  5
55
330
1F
100
AcDbEntity
  8
0
  6
Continuous
 62
     7
370
     0
100
AcDbLine
 10
0.6262516046
 20
5.5170731707
 30
0.0
 11
0.5590701755
 21
5.5410828212
 31
0.0
  0
LINE
  5
56
330
1F
100
AcDbEntity
  8
0
  6
Continuous
 62
     7
370
     0
100
AcDbLine
 10
0.6262516046
 20
5.5170731707
 30
0.0
 11
0.5012516046
 21
5.5170731707
 31
0.0
  0
LINE
  5
57
330
1F
100
AcDbEntity
  8
0
  6
Continuous
 62
     7
370
     0
100
AcDbLine
 10
0.6262516046
 20
8.0795731707
 30
0.0
 11
0.5012516046
 21
8.0795731707
 31
0.0
  0
LINE
  5
58
330
1F
100
AcDbEntity
  8
0
  6
Continuous
 62
     7
370
     0
100
AcDbLine
 10
11.3762516046
 20
0.3920731707
 30
0.0
 11
11.3762516046
 21
1.8920731707
 31
0.0
  0
LINE
  5
59
330
1F
100
AcDbEntity
  8
0
  6
Continuous
 62
     7
370
     0
100
AcDbLine
 10
11.3762516046
 20
1.8920731707
 30
0.0
 11
16.3762516046
 21
1.8920731707
 31
0.0
  0
LINE
  5
5A
330
1F
100
AcDbEntity
  8
0
  6
Continuous
 62
     7
370
     0
100
AcDbLine
 10
12.672390737
 20
1.8920731707
 30
0.0
 11
12.672390737
 21
0.3920731707
 31
0.0
  0
LINE
  5
5B
330
1F
100
AcDbEntity
  8
0
  6
Continuous
 62
     7
370
     0
100
AcDbLine
 10
13.922390737
 20
1.8920731707
 30
0.0
 11
13.922390737
 21
0.3920731707
 31
0.0
  0
LINE
  5
5C
330
1F
100
AcDbEntity
  8
0
  6
Continuous
 62
     7
370
     0
100
AcDbLine
 10
13.922390737
 20
0.5170731707
 30
0.0
 11
16.3762516046
 21
0.5170731707
 31
0.0
  0
LINE
  5
5D
330
1F
100
AcDbEntity
  8
0
  6
Continuous
 62
     7
370
     0
100
AcDbLine
 10
13.922390737
 20
0.7670731707
 30
0.0
 11
16.3762516046
 21
0.7670731707
 31
0.0
  0
LINE
  5
5E
330
1F
100
AcDbEntity
  8
0
  6
Continuous
 62
     7
370
     0
100
AcDbLine
 10
13.922390737
 20
1.5170731707
 30
0.0
 11
16.3762516046
 21
1.5170731707
 31
0.0
  0
LINE
  5
5F
330
1F
100
AcDbEntity
  8
0
  6
Continuous
 62
     7
370
     0
100
AcDbLine
 10
14.109890737
 20
0.7670731707
 30
0.0
 11
14.109890737
 21
0.5170731707
 31
0.0
  0
LINE
  5
60
330
1F
100
AcDbEntity
  8
0
  6
Continuous
 62
     7
370
     0
100
AcDbLine
 10
14.422390737
 20
0.5170731707
 30
0.0
 11
14.422390737
 21
0.3920731707
 31
0.0
  0
LINE
  5
61
330
1F
100
AcDbEntity
  8
0
  6
Continuous
 62
     7
370
     0
100
AcDbLine
 10
16.047390737
 20
0.7670731707
 30
0.0
 11
16.047390737
 21
0.5170731707
 31
0.0
  0
LINE
  5
62
330
1F
100
AcDbEntity
  8
0
  6
Continuous
 62
     7
370
     0
100
AcDbLine
 10
15.747390737
 20
0.5170731707
 30
0.0
 11
15.747390737
 21
0.3920731707
 31
0.0
  0
LINE
  5
63
330
1F
100
AcDbEntity
  8
0
  6
Continuous
 62
     7
370
     0
100
AcDbLine
 10
9.7512516046
 20
0.6083437829
 30
0.0
 11
13.922390737
 21
0.6083437829
 31
0.0
  0
LINE
  5
64
330
1F
100
AcDbEntity
  8
0
  6
Continuous
 62
     7
370
     0
100
AcDbLine
 10
14.0012516046
 20
9.7360731707
 30
0.0
 11
16.3762516046
 21
9.7360731707
 31
0.0
  0
LINE
  5
65
330
1F
100
AcDbEntity
  8
0
  6
Continuous
 62
     7
370
     0
100
AcDbLine
 10
9.7512516046
 20
0.3920731707
 30
0.0
 11
9.7512516046
 21
0.8683811526
 31
0.0
  0
LINE
  5
66
330
1F
100
AcDbEntity
  8
0
  6
Continuous
 62
     7
370
     0
100
AcDbLine
 10
14.0012516046
 20
9.3300731707
 30
0.0
 11
16.3762516046
 21
9.3300731707
 31
0.0
  0
LINE
  5
67
330
1F
100
AcDbEntity
  8
0
  6
Continuous
 62
     7
370
     0
100
AcDbLine
 10
12.672390737
 20
1.4420731707
 30
0.0
 11
13.922390737
 21
1.4420731707
 31
0.0
  0
LINE
  5
68
330
1F
100
AcDbEntity
  8
0
  6
Continuous
 62
     7
370
     0
100
AcDbLine
 10
12.672390737
 20
1.5670731707
 30
0.0
 11
13.922390737
 21
1.5670731707
 31
0.0
  0
LINE
  5
69
330
1F
100
AcDbEntity
  8
0
  6
Continuous
 62
     7
370
     0
100
AcDbLine
 10
13.22847799
 20
1.5670731707
 30
0.0
 11
13.22847799
 21
0.3920731707
 31
0.0
  0
LINE
  5
6A
330
1F
100
AcDbEntity
  8
0
  6
Continuous
 62
     7
370
     0
100
AcDbLine
 10
11.3762516046
 20
0.8695217014
 30
0.0
 11
13.922390737
 21
0.8695217014
 31
0.0
  0
LINE
  5
6B
330
1F
100
AcDbEntity
  8
0
  6
Continuous
 62
     7
370
     0
100
AcDbLine
 10
13.922390737
 20
1.1292955729
 30
0.0
 11
11.3762516046
 21
1.1292955729
 31
0.0
  0
LINE
  5
6C
330
1F
100
AcDbEntity
  8
0
  6
Continuous
 62
     7
370
     0
100
AcDbLine
 10
14.0012516046
 20
8.9240731707
 30
0.0
 11
14.0012516046
 21
10.6420731707
 31
0.0
  0
LINE
  5
6D
330
1F
100
AcDbEntity
  8
0
  6
Continuous
 62
     7
370
     0
100
AcDbLine
 10
14.5012516046
 20
8.9240731707
 30
0.0
 11
14.5012516046
 21
10.3920731707
 31
0.0
  0
LINE
  5
6E
330
1F
100
AcDbEntity
  8
0
  6
Continuous
 62
     7
370
     0
100
AcDbLine
 10
14.0012516046
 20
10.1420731707
 30
0.0
 11
16.3762516046
 21
10.1420731707
 31
0.0
  0
LINE
  5
6F
330
1F
100
AcDbEntity
  8
0
  6
Continuous
 62
     7
370
     0
100
AcDbLine
 10
14.0012516046
 20
8.9240731707
 30
0.0
 11
16.3762516046
 21
8.9240731707
 31
0.0
  0
LINE
  5
70
330
1F
100
AcDbEntity
  8
0
  6
Continuous
 62
     7
370
     0
100
AcDbLine
 10
9.7512516046
 20
0.8683811526
 30
0.0
 11
11.3762516046
 21
0.8683811526
 31
0.0
  0
LINE
  5
71
330
1F
100
AcDbEntity
  8
0
  6
Continuous
 62
     7
370
     0
100
AcDbLine
 10
14.4072516046
 20
0.3920731707
 30
0.0
 11
14.4072516046
 21
0.3072739649
 31
0.0
  0
LINE
  5
72
330
1F
100
AcDbEntity
  8
0
  6
Continuous
 62
     7
370
     0
100
AcDbLine
 10
12.4385016046
 20
0.3920731707
 30
0.0
 11
12.4385016046
 21
0.3072739649
 31
0.0
  0
LINE
  5
73
330
1F
100
AcDbEntity
  8
0
  6
Continuous
 62
     7
370
     0
100
AcDbLine
 10
10.4697516046
 20
0.3920731707
 30
0.0
 11
10.4697516046
 21
0.3072739649
 31
0.0
  0
LINE
  5
74
330
1F
100
AcDbEntity
  8
0
  6
Continuous
 62
     7
370
     0
100
AcDbLine
 10
8.5010016046
 20
0.3920731707
 30
0.0
 11
8.5010016046
 21
0.3072739649
 31
0.0
  0
LINE
  5
75
330
1F
100
AcDbEntity
  8
0
  6
Continuous
 62
     7
370
     0
100
AcDbLine
 10
6.5322516046
 20
0.3920731707
 30
0.0
 11
6.5322516046
 21
0.3072739649
 31
0.0
  0
LINE
  5
76
330
1F
100
AcDbEntity
  8
0
  6
Continuous
 62
     7
370
     0
100
AcDbLine
 10
4.5635016046
 20
0.3920731707
 30
0.0
 11
4.5635016046
 21
0.3072739649
 31
0.0
  0
LINE
  5
77
330
1F
100
AcDbEntity
  8
0
  6
Continuous
 62
     7
370
     0
100
AcDbLine
 10
2.5947516046
 20
0.3920731707
 30
0.0
 11
2.5947516046
 21
0.3072739649
 31
0.0
  0
LINE
  5
78
330
1F
100
AcDbEntity
  8
0
  6
Continuous
 62
     7
370
     0
100
AcDbLine
 10
2.5947516046
 20
10.6420731707
 30
0.0
 11
2.5947516046
 21
10.7268723765
 31
0.0
  0
LINE
  5
79
330
1F
100
AcDbEntity
  8
0
  6
Continuous
 62
     7
370
     0
100
AcDbLine
 10
4.5635016046
 20
10.6420731707
 30
0.0
 11
4.5635016046
 21
10.7268723765
 31
0.0
  0
LINE
  5
7A
330
1F
100
AcDbEntity
  8
0
  6
Continuous
 62
     7
370
     0
100
AcDbLine
 10
6.5322516046
 20
10.6420731707
 30
0.0
 11
6.5322516046
 21
10.7268723765
 31
0.0
  0
LINE
  5
7B
330
1F
100
AcDbEntity
  8
0
  6
Continuous
 62
     7
370
     0
100
AcDbLine
 10
8.5010016046
 20
10.6420731707
 30
0.0
 11
8.5010016046
 21
10.7268723765
 31
0.0
  0
LINE
  5
7C
330
1F
100
AcDbEntity
  8
0
  6
Continuous
 62
     7
370
     0
100
AcDbLine
 10
10.4697516046
 20
10.6420731707
 30
0.0
 11
10.4697516046
 21
10.7268723765
 31
0.0
  0
LINE
  5
7D
330
1F
100
AcDbEntity
  8
0
  6
Continuous
 62
     7
370
     0
100
AcDbLine
 10
12.4385016046
 20
10.6420731707
 30
0.0
 11
12.4385016046
 21
10.7268723765
 31
0.0
  0
LINE
  5
7E
330
1F
100
AcDbEntity
  8
0
  6
Continuous
 62
     7
370
     0
100
AcDbLine
 10
14.4072516046
 20
10.6420731707
 30
0.0
 11
14.4072516046
 21
10.7268723765
 31
0.0
  0
LINE
  5
7F
330
1F
100
AcDbEntity
  8
0
  6
Continuous
 62
     7
370
     0
100
AcDbLine
 10
8.5010016046
 20
10.6420731707
 30
0.0
 11
8.4877504872
 21
10.6840054626
 31
0.0
  0
LINE
  5
80
330
1F
100
AcDbEntity
  8
0
  6
Continuous
 62
     7
370
     0
100
AcDbLine
 10
8.5010016046
 20
10.6420731707
 30
0.0
 11
8.5135565785
 21
10.6840054626
 31
0.0
  0
LINE
  5
81
330
1F
100
AcDbEntity
  8
0
  6
Continuous
 62
     7
370
     0
100
AcDbLine
 10
8.5135565785
 20
10.6840054626
 30
0.0
 11
8.4877504872
 21
10.6840054626
 31
0.0
  0
LINE
  5
82
330
1F
100
AcDbEntity
  8
0
  6
Continuous
 62
     7
370
     0
100
AcDbLine
 10
8.4939630647
 20
10.6840054626
 30
0.0
 11
8.5010016046
 21
10.6420731707
 31
0.0
  0
LINE
  5
83
330
1F
100
AcDbEntity
  8
0
  6
Continuous
 62
     7
370
     0
100
AcDbLine
 10
8.5059103292
 20
10.6840054626
 30
0.0
 11
8.5010016046
 21
10.6420731707
 31
0.0
  0
LINE
  5
84
330
1F
100
AcDbEntity
  8
0
  6
Continuous
 62
     7
370
     0
100
AcDbLine
 10
8.5010016046
 20
0.3920731707
 30
0.0
 11
8.5135565785
 21
0.3575
 31
0.0
  0
LINE
  5
85
330
1F
100
AcDbEntity
  8
0
  6
Continuous
 62
     7
370
     0
100
AcDbLine
 10
8.5135565785
 20
0.3575
 30
0.0
 11
8.4877504872
 21
0.3575
 31
0.0
  0
LINE
  5
86
330
1F
100
AcDbEntity
  8
0
  6
Continuous
 62
     7
370
     0
100
AcDbLine
 10
8.4877504872
 20
0.3575
 30
0.0
 11
8.5010016046
 21
0.3920731707
 31
0.0
  0
LINE
  5
87
330
1F
100
AcDbEntity
  8
0
  6
Continuous
 62
     7
370
     0
100
AcDbLine
 10
0.6262516046
 20
10.0758333333
 30
0.0
 11
6.1225
 21
10.0758333333
 31
0.0
  0
LINE
  5
88
330
1F
100
AcDbEntity
  8
0
  6
Continuous
 62
     7
370
     0
100
AcDbLine
 10
6.1225
 20
10.0758333333
 30
0.0
 11
6.1225
 21
10.6420731707
 31
0.0
  0
LINE
  5
89
330
1F
100
AcDbEntity
  8
0
  6
Continuous
 62
     7
370
     0
100
AcDbLine
 10
14.0012516046
 20
10.3920731707
 30
0.0
 11
16.3762516046
 21
10.3920731707
 31
0.0
  0
INSERT
  5
B2
330
1F
100
AcDbEntity
  8
0
  6
Continuous
 62
     7
370
     0
100
AcDbBlockReference
  2
SW_NOTE_0
 10
14.6850047676
 20
4.1356981077
 30
0.0
  0
INSERT
  5
B8
330
1F
100
AcDbEntity
  8
0
  6
Continuous
 62
     7
370
     0
100
AcDbBlockReference
  2
SW_NOTE_1
 10
6.749582712
 20
3.9117064218
 30
0.0
  0
INSERT
  5
BE
330
1F
100
AcDbEntity
  8
0
  6
Continuous
 62
     7
370
     0
100
AcDbBlockReference
  2
SW_NOTE_2
 10
5.5440589245
 20
0.5539669299
 30
0.0
  0
INSERT
  5
C4
330
1F
100
AcDbEntity
  8
0
  6
Continuous
 62
     7
370
     0
100
AcDbBlockReference
  2
SW_NOTE_3
 10
0.8497111185
 20
5.7491590777
 30
0.0
  0
INSERT
  5
CA
330
1F
100
AcDbEntity
  8
0
  6
Continuous
 62
     7
370
     0
100
AcDbBlockReference
  2
SW_NOTE_4
 10
9.8952108876
 20
4.8086075765
 30
0.0
  0
INSERT
  5
D0
330
1F
100
AcDbEntity
  8
0
  6
Continuous
 62
     7
370
     0
100
AcDbBlockReference
  2
SW_NOTE_5
 10
9.7378293633
 20
5.7319392163
 30
0.0
  0
INSERT
  5
D6
330
1F
100
AcDbEntity
  8
0
  6
Continuous
 62
     7
370
     0
100
AcDbBlockReference
  2
SW_NOTE_6
 10
10.4511854834
 20
5.2678038814
 30
0.0
  0
INSERT
  5
DC
330
1F
100
AcDbEntity
  8
0
  6
Continuous
 62
     7
370
     0
100
AcDbBlockReference
  2
SW_NOTE_7
 10
14.5085319037
 20
5.8355253595
 30
0.0
  0
INSERT
  5
E2
330
1F
100
AcDbEntity
  8
0
  6
Continuous
 62
     7
370
     0
100
AcDbBlockReference
  2
SW_NOTE_8
 10
3.0900284395
 20
0.5749244357
 30
0.0
  0
INSERT
  5
E8
330
1F
100
AcDbEntity
  8
0
  6
Continuous
 62
     7
370
     0
100
AcDbBlockReference
  2
SW_NOTE_9
 10
9.2089526889
 20
6.2753660061
 30
0.0
  0
MTEXT
  5
E9
330
1F
100
AcDbEntity
  8
0
  6
Continuous
 62
     7
370
     0
100
AcDbMText
 10
16.4276176072
 20
9.4742094433
 30
0.0
 40
0.09375
 41
0.0
 71
     1
 72
     1
  1
D
  7
SLDTEXTSTYLE0
 73
     1
 44
1.0
  0
MTEXT
  5
EA
330
1F
100
AcDbEntity
  8
0
  6
Continuous
 62
     7
370
     0
100
AcDbMText
 10
16.4418030901
 20
6.8992834127
 30
0.0
 40
0.09375
 41
0.0
 71
     1
 72
     1
  1
C
  7
SLDTEXTSTYLE0
 73
     1
 44
1.0
  0
MTEXT
  5
EB
330
1F
100
AcDbEntity
  8
0
  6
Continuous
 62
     7
370
     0
100
AcDbMText
 10
16.4593129831
 20
4.3672964072
 30
0.0
 40
0.09375
 41
0.0
 71
     1
 72
     1
  1
B
  7
SLDTEXTSTYLE0
 73
     1
 44
1.0
  0
MTEXT
  5
EC
330
1F
100
AcDbEntity
  8
0
  6
Continuous
 62
     7
370
     0
100
AcDbMText
 10
16.4295166016
 20
1.9629210654
 30
0.0
 40
0.09375
 41
0.0
 71
     1
 72
     1
  1
A
  7
SLDTEXTSTYLE0
 73
     1
 44
1.0
  0
MTEXT
  5
ED
330
1F
100
AcDbEntity
  8
0
  6
Continuous
 62
     7
370
     0
100
AcDbMText
 10
0.5071592882
 20
1.7558500975
 30
0.0
 40
0.09375
 41
0.0
 71
     1
 72
     1
  1
A
  7
SLDTEXTSTYLE0
 73
     1
 44
1.0
  0
MTEXT
  5
EE
330
1F
100
AcDbEntity
  8
0
  6
Continuous
 62
     7
370
     0
100
AcDbMText
 10
0.5227758247
 20
4.3642101236
 30
0.0
 40
0.09375
 41
0.0
 71
     1
 72
     1
  1
B
  7
SLDTEXTSTYLE0
 73
     1
 44
1.0
  0
MTEXT
  5
EF
330
1F
100
AcDbEntity
  8
0
  6
Continuous
 62
     7
370
     0
100
AcDbMText
 10
0.4893697917
 20
6.9328739691
 30
0.0
 40
0.09375
 41
0.0
 71
     1
 72
     1
  1
C
  7
SLDTEXTSTYLE0
 73
     1
 44
1.0
  0
MTEXT
  5
F0
330
1F
100
AcDbEntity
  8
0
  6
Continuous
 62
     7
370
     0
100
AcDbMText
 10
0.5049863281
 20
9.4575473632
 30
0.0
 40
0.09375
 41
0.0
 71
     1
 72
     1
  1
D
  7
SLDTEXTSTYLE0
 73
     1
 44
1.0
  0
MTEXT
  5
F2
330
1F
100
AcDbEntity
  8
0
  6
Continuous
 62
     7
370
     0
100
AcDbMText
 10
14.3291805355
 20
1.7891385861
 30
0.0
 40
0.125
 41
0.0
 71
     1
 72
     1
  1
BUD INDUSTRIES INC.
  7
SLDTEXTSTYLE1
 73
     1
 44
1.0
  0
MTEXT
  5
F3
330
1F
100
AcDbEntity
  8
0
  6
Continuous
 62
     7
370
     0
100
AcDbMText
 10
12.801671441
 20
1.8363121216
 30
0.0
 40
0.0520833333
 41
0.0
 71
     1
 72
     1
  1
CAD GENERATED DRAWING,
  7
SLDTEXTSTYLE0
 73
     1
 44
1.0
  0
MTEXT
  5
F5
330
1F
100
AcDbEntity
  8
0
  6
Continuous
 62
     7
370
     0
100
AcDbMText
 10
12.7940199653
 20
1.725365724
 30
0.0
 40
0.0520833333
 41
0.0
 71
     1
 72
     1
  1
DO  NOT  MANUALLY  UPDATE
  7
SLDTEXTSTYLE2
 73
     1
 44
1.0
  0
MTEXT
  5
F6
330
1F
100
AcDbEntity
  8
0
  6
Continuous
 62
     7
370
     0
100
AcDbMText
 10
13.9799986979
 20
0.4934781372
 30
0.0
 40
0.0520833333
 41
0.0
 71
     1
 72
     1
  1
SCALE 
  7
SLDTEXTSTYLE0
 73
     1
 44
1.0
  0
MTEXT
  5
F7
330
1F
100
AcDbEntity
  8
0
  6
Continuous
 62
     7
370
     0
100
AcDbMText
 10
13.9493927951
 20
0.7459768351
 30
0.0
 40
0.0520833333
 41
0.0
 71
     1
 72
     1
  1
SIZE
  7
SLDTEXTSTYLE0
 73
     1
 44
1.0
  0
MTEXT
  5
F9
330
1F
100
AcDbEntity
  8
0
  6
Continuous
 62
     7
370
     0
100
AcDbMText
 10
14.4658674045
 20
0.497303875
 30
0.0
 40
0.0520833333
 41
0.0
 71
     1
 72
     1
  1
CAD   FILE:   
  7
SLDTEXTSTYLE3
 73
     1
 44
1.0
  0
MTEXT
  5
FB
330
1F
100
AcDbEntity
  8
0
  6
Continuous
 62
     7
370
     0
100
AcDbMText
 10
14.129202474
 20
0.7498025729
 30
0.0
 40
0.0520833333
 41
0.0
 71
     1
 72
     1
  1
DWG.  NO.
  7
SLDTEXTSTYLE4
 73
     1
 44
1.0
  0
MTEXT
  5
FC
330
1F
100
AcDbEntity
  8
0
  6
Continuous
 62
     7
370
     0
100
AcDbMText
 10
13.9914759115
 20
0.6624086431
 30
0.0
 40
0.125
 41
0.0
 71
     1
 72
     1
  1
B
  7
SLDTEXTSTYLE0
 73
     1
 44
1.0
  0
MTEXT
  5
FE
330
1F
100
AcDbEntity
  8
0
  6
Continuous
 62
     7
370
     0
100
AcDbMText
 10
15.7933557906
 20
0.483935116
 30
0.0
 40
0.0520833333
 41
0.0
 71
     1
 72
     1
  1
SHEET      OF
  7
SLDTEXTSTYLE5
 73
     1
 44
1.0
  0
MTEXT
  5
FF
330
1F
100
AcDbEntity
  8
0
  6
Continuous
 62
     7
370
     0
100
AcDbMText
 10
16.1262376302
 20
0.7459768351
 30
0.0
 40
0.0520833333
 41
0.0
 71
     1
 72
     1
  1
REV.
  7
SLDTEXTSTYLE0
 73
     1
 44
1.0
  0
MTEXT
  5
100
330
1F
100
AcDbEntity
  8
0
  6
Continuous
 62
     7
370
     0
100
AcDbMText
 10
14.3416427468
 20
1.251781129
 30
0.0
 40
0.125
 41
0.0
 71
     1
 72
     1
  1
GRABBER STYLE J
  7
SLDTEXTSTYLE1
 73
     1
 44
1.0
  0
MTEXT
  5
101
330
1F
100
AcDbEntity
  8
0
  6
Continuous
 62
     7
370
     0
100
AcDbMText
 10
13.5275360706
 20
1.5372516876
 30
0.0
 40
0.0520833333
 41
0.0
 71
     1
 72
     1
  1
DATE
  7
SLDTEXTSTYLE0
 73
     1
 44
1.0
  0
MTEXT
  5
102
330
1F
100
AcDbEntity
  8
0
  6
Continuous
 62
     7
370
     0
100
AcDbMText
 10
12.7472067908
 20
1.5377674616
 30
0.0
 40
0.0520833333
 41
0.0
 71
     1
 72
     1
  1
APPROVALS
  7
SLDTEXTSTYLE0
 73
     1
 44
1.0
  0
MTEXT
  5
103
330
1F
100
AcDbEntity
  8
0
  6
Continuous
 62
     7
370
     0
100
AcDbMText
 10
12.6868993056
 20
1.4346096476
 30
0.0
 40
0.0520833333
 41
0.0
 71
     1
 72
     1
  1
DRAWN
  7
SLDTEXTSTYLE0
 73
     1
 44
1.0
  0
MTEXT
  5
104
330
1F
100
AcDbEntity
  8
0
  6
Continuous
 62
     7
370
     0
100
AcDbMText
 10
12.6907687504
 20
1.1049624408
 30
0.0
 40
0.0520833333
 41
0.0
 71
     1
 72
     1
  1
CHECKED
  7
SLDTEXTSTYLE0
 73
     1
 44
1.0
  0
MTEXT
  5
105
330
1F
100
AcDbEntity
  8
0
  6
Continuous
 62
     7
370
     0
100
AcDbMText
 10
12.7023115245
 20
0.8406587266
 30
0.0
 40
0.0520833333
 41
0.0
 71
     1
 72
     1
  1
APPROVED
  7
SLDTEXTSTYLE0
 73
     1
 44
1.0
  0
MTEXT
  5
106
330
1F
100
AcDbEntity
  8
0
  6
Continuous
 62
     7
370
     0
100
AcDbMText
 10
11.4429464303
 20
1.8646504331
 30
0.0
 40
0.0625
 41
0.0
 71
     1
 72
     1
  1
TOLERANCES:
  7
SLDTEXTSTYLE0
 73
     1
 44
1.0
  0
MTEXT
  5
107
330
1F
100
AcDbEntity
  8
0
  6
Continuous
 62
     7
370
     0
100
AcDbMText
 10
11.397795007
 20
1.7543735906
 30
0.0
 40
0.0625
 41
0.0
 71
     1
 72
     1
  1
+/- .005 BETWEEN HOLE CENTERS
  7
SLDTEXTSTYLE0
 73
     1
 44
1.0
  0
MTEXT
  5
108
330
1F
100
AcDbEntity
  8
0
  6
Continuous
 62
     7
370
     0
100
AcDbMText
 10
11.3991262014
 20
1.6585672994
 30
0.0
 40
0.0625
 41
0.0
 71
     1
 72
     1
  1
+/-.015 FROM SHEARED EDGE
  7
SLDTEXTSTYLE0
 73
     1
 44
1.0
  0
MTEXT
  5
109
330
1F
100
AcDbEntity
  8
0
  6
Continuous
 62
     7
370
     0
100
AcDbMText
 10
11.3992373698
 20
1.555505416
 30
0.0
 40
0.0625
 41
0.0
 71
     1
 72
     1
  1
+/-.032 FROM A BENT SURFACE
  7
SLDTEXTSTYLE0
 73
     1
 44
1.0
  0
MTEXT
  5
10A
330
1F
100
AcDbEntity
  8
0
  6
Continuous
 62
     7
370
     0
100
AcDbMText
 10
11.384670613
 20
1.2262617525
 30
0.0
 40
0.0625
 41
0.0
 71
     1
 72
     1
  1
UNLESS OTHERWISE SPECIFIED
  7
SLDTEXTSTYLE0
 73
     1
 44
1.0
  0
MTEXT
  5
10B
330
1F
100
AcDbEntity
  8
0
  6
Continuous
 62
     7
370
     0
100
AcDbMText
 10
11.3924053819
 20
1.1055408542
 30
0.0
 40
0.0520833333
 41
0.0
 71
     1
 72
     1
  1
MATERIAL
  7
SLDTEXTSTYLE0
 73
     1
 44
1.0
  0
MTEXT
  5
10C
330
1F
100
AcDbEntity
  8
0
  6
Continuous
 62
     7
370
     0
100
AcDbMText
 10
11.397171875
 20
0.8505334757
 30
0.0
 40
0.0520833333
 41
0.0
 71
     1
 72
     1
  1
FINISH
  7
SLDTEXTSTYLE0
 73
     1
 44
1.0
  0
MTEXT
  5
10D
330
1F
100
AcDbEntity
  8
0
  6
Continuous
 62
     7
370
     0
100
AcDbMText
 10
11.7237281212
 20
1.0691710927
 30
0.0
 40
0.1377952756
 41
0.0
 71
     1
 72
     1
  1
AS NOTED
  7
SLDTEXTSTYLE0
 73
     1
 44
1.0
  0
MTEXT
  5
10E
330
1F
100
AcDbEntity
  8
0
  6
Continuous
 62
     7
370
     0
100
AcDbMText
 10
11.7237281212
 20
0.8118161571
 30
0.0
 40
0.1377952756
 41
0.0
 71
     1
 72
     1
  1
AS NOTED
  7
SLDTEXTSTYLE0
 73
     1
 44
1.0
  0
MTEXT
  5
110
330
1F
100
AcDbEntity
  8
0
  6
Continuous
 62
     7
370
     0
100
AcDbMText
 10
11.4639027778
 20
0.5450168215
 30
0.0
 40
0.0625
 41
0.0
 71
     1
 72
     1
  1
DO  NOT  SCALE  DRAWING
  7
SLDTEXTSTYLE6
 73
     1
 44
1.0
  0
MTEXT
  5
111
330
1F
100
AcDbEntity
  8
0
  6
Continuous
 62
     7
370
     0
100
AcDbMText
 10
10.6125018079
 20
0.5450168215
 30
0.0
 40
0.0625
 41
0.0
 71
     1
 72
     1
  1
USED ON
  7
SLDTEXTSTYLE0
 73
     1
 44
1.0
  0
MTEXT
  5
112
330
1F
100
AcDbEntity
  8
0
  6
Continuous
 62
     7
370
     0
100
AcDbMText
 10
9.8738645635
 20
0.5450168215
 30
0.0
 40
0.0625
 41
0.0
 71
     1
 72
     1
  1
QTY.
  7
SLDTEXTSTYLE0
 73
     1
 44
1.0
  0
MTEXT
  5
113
330
1F
100
AcDbEntity
  8
0
  6
Continuous
 62
     7
370
     0
100
AcDbMText
 10
15.3587769097
 20
0.3858153753
 30
0.0
 40
0.09375
 41
0.0
 71
     1
 72
     1
  1
1
  7
SLDTEXTSTYLE0
 73
     1
 44
1.0
  0
MTEXT
  5
114
330
1F
100
AcDbEntity
  8
0
  6
Continuous
 62
     7
370
     0
100
AcDbMText
 10
13.3995379774
 20
0.3858153753
 30
0.0
 40
0.09375
 41
0.0
 71
     1
 72
     1
  1
2
  7
SLDTEXTSTYLE0
 73
     1
 44
1.0
  0
MTEXT
  5
115
330
1F
100
AcDbEntity
  8
0
  6
Continuous
 62
     7
370
     0
100
AcDbMText
 10
11.4063728299
 20
0.3858153753
 30
0.0
 40
0.09375
 41
0.0
 71
     1
 72
     1
  1
3
  7
SLDTEXTSTYLE0
 73
     1
 44
1.0
  0
MTEXT
  5
116
330
1F
100
AcDbEntity
  8
0
  6
Continuous
 62
     7
370
     0
100
AcDbMText
 10
9.4640970052
 20
0.3942969291
 30
0.0
 40
0.09375
 41
0.0
 71
     1
 72
     1
  1
4
  7
SLDTEXTSTYLE0
 73
     1
 44
1.0
  0
MTEXT
  5
117
330
1F
100
AcDbEntity
  8
0
  6
Continuous
 62
     7
370
     0
100
AcDbMText
 10
7.4454871962
 20
0.3942969291
 30
0.0
 40
0.09375
 41
0.0
 71
     1
 72
     1
  1
5
  7
SLDTEXTSTYLE0
 73
     1
 44
1.0
  0
MTEXT
  5
118
330
1F
100
AcDbEntity
  8
0
  6
Continuous
 62
     7
370
     0
100
AcDbMText
 10
5.4523220486
 20
0.3942969291
 30
0.0
 40
0.09375
 41
0.0
 71
     1
 72
     1
  1
6
  7
SLDTEXTSTYLE0
 73
     1
 44
1.0
  0
MTEXT
  5
119
330
1F
100
AcDbEntity
  8
0
  6
Continuous
 62
     7
370
     0
100
AcDbMText
 10
3.5015646701
 20
0.3858153753
 30
0.0
 40
0.09375
 41
0.0
 71
     1
 72
     1
  1
7
  7
SLDTEXTSTYLE0
 73
     1
 44
1.0
  0
MTEXT
  5
11A
330
1F
100
AcDbEntity
  8
0
  6
Continuous
 62
     7
370
     0
100
AcDbMText
 10
1.5083995226
 20
0.3942969291
 30
0.0
 40
0.09375
 41
0.0
 71
     1
 72
     1
  1
8
  7
SLDTEXTSTYLE0
 73
     1
 44
1.0
  0
MTEXT
  5
11B
330
1F
100
AcDbEntity
  8
0
  6
Continuous
 62
     7
370
     0
100
AcDbMText
 10
1.5762519531
 20
10.7842003579
 30
0.0
 40
0.09375
 41
0.0
 71
     1
 72
     1
  1
8
  7
SLDTEXTSTYLE0
 73
     1
 44
1.0
  0
MTEXT
  5
11C
330
1F
100
AcDbEntity
  8
0
  6
Continuous
 62
     7
370
     0
100
AcDbMText
 10
3.5863802083
 20
10.7822524413
 30
0.0
 40
0.09375
 41
0.0
 71
     1
 72
     1
  1
7
  7
SLDTEXTSTYLE0
 73
     1
 44
1.0
  0
MTEXT
  5
11D
330
1F
100
AcDbEntity
  8
0
  6
Continuous
 62
     7
370
     0
100
AcDbMText
 10
5.528656033
 20
10.7757188041
 30
0.0
 40
0.09375
 41
0.0
 71
     1
 72
     1
  1
6
  7
SLDTEXTSTYLE0
 73
     1
 44
1.0
  0
MTEXT
  5
11E
330
1F
100
AcDbEntity
  8
0
  6
Continuous
 62
     7
370
     0
100
AcDbMText
 10
7.4709318576
 20
10.7842003579
 30
0.0
 40
0.09375
 41
0.0
 71
     1
 72
     1
  1
5
  7
SLDTEXTSTYLE0
 73
     1
 44
1.0
  0
MTEXT
  5
11F
330
1F
100
AcDbEntity
  8
0
  6
Continuous
 62
     7
370
     0
100
AcDbMText
 10
9.4216892361
 20
10.7926819118
 30
0.0
 40
0.09375
 41
0.0
 71
     1
 72
     1
  1
4
  7
SLDTEXTSTYLE0
 73
     1
 44
1.0
  0
MTEXT
  5
120
330
1F
100
AcDbEntity
  8
0
  6
Continuous
 62
     7
370
     0
100
AcDbMText
 10
11.4148543837
 20
10.7842003579
 30
0.0
 40
0.09375
 41
0.0
 71
     1
 72
     1
  1
3
  7
SLDTEXTSTYLE0
 73
     1
 44
1.0
  0
MTEXT
  5
121
330
1F
100
AcDbEntity
  8
0
  6
Continuous
 62
     7
370
     0
100
AcDbMText
 10
13.374093316
 20
10.7842003579
 30
0.0
 40
0.09375
 41
0.0
 71
     1
 72
     1
  1
2
  7
SLDTEXTSTYLE0
 73
     1
 44
1.0
  0
MTEXT
  5
122
330
1F
100
AcDbEntity
  8
0
  6
Continuous
 62
     7
370
     0
100
AcDbMText
 10
15.3333322483
 20
10.7757188041
 30
0.0
 40
0.09375
 41
0.0
 71
     1
 72
     1
  1
1
  7
SLDTEXTSTYLE0
 73
     1
 44
1.0
  0
INSERT
  5
12C
330
1F
100
AcDbEntity
  8
0
  6
Continuous
 62
     7
370
     0
100
AcDbBlockReference
  2
SW_NOTE_10
 10
0.7063250705
 20
10.4114600235
 30
0.0
  0
MTEXT
  5
12D
330
1F
100
AcDbEntity
  8
0
  6
Continuous
 62
     7
370
     0
100
AcDbMText
 10
14.0882313632
 20
10.3326485296
 30
0.0
 40
0.1041666667
 41
0.0
 71
     1
 72
     1
  1
ISSUE
  7
SLDTEXTSTYLE0
 73
     1
 44
1.0
  0
MTEXT
  5
12E
330
1F
100
AcDbEntity
  8
0
  6
Continuous
 62
     7
370
     0
100
AcDbMText
 10
15.0620527661
 20
10.326164249
 30
0.0
 40
0.1041666667
 41
0.0
 71
     1
 72
     1
  1
REVISIONS
  7
SLDTEXTSTYLE0
 73
     1
 44
1.0
  0
INSERT
  5
134
330
1F
100
AcDbEntity
  8
0
  6
Continuous
 62
     7
370
     0
100
AcDbBlockReference
  2
SW_NOTE_11
 10
11.3777825306
 20
1.3642458778
 30
0.0
  0
MTEXT
  5
135
330
1F
100
AcDbEntity
  8
0
  6
Continuous
 62
     7
370
     0
100
AcDbMText
 10
14.7635376164
 20
0.7143064054
 30
0.0
 40
0.125
 41
0.0
 71
     1
 72
     1
  1
HH-3570
  7
SLDTEXTSTYLE0
 73
     1
 44
1.0
  0
MTEXT
  5
136
330
1F
100
AcDbEntity
  8
0
  6
Continuous
 62
     7
370
     0
100
AcDbMText
 10
12.8515991501
 20
1.3347374915
 30
0.0
 40
0.1377952756
 41
0.0
 71
     1
 72
     1
  1
DP
  7
SLDTEXTSTYLE0
 73
     1
 44
1.0
  0
MTEXT
  5
137
330
1F
100
AcDbEntity
  8
0
  6
Continuous
 62
     7
370
     0
100
AcDbMText
 10
13.2734028942
 20
1.3341395547
 30
0.0
 40
0.125
 41
0.0
 71
     1
 72
     1
  1
6/10/05
  7
SLDTEXTSTYLE0
 73
     1
 44
1.0
  0
MTEXT
  5
138
330
1F
100
AcDbEntity
  8
0
  6
Continuous
 62
     7
370
     0
100
AcDbMText
 10
14.0278181632
 20
10.6022853516
 30
0.0
 40
0.0520833333
 41
0.0
 71
     1
 72
     1
  1
DWG. NO.
  7
SLDTEXTSTYLE0
 73
     1
 44
1.0
  0
MTEXT
  5
139
330
1F
100
AcDbEntity
  8
0
  6
Continuous
 62
     7
370
     0
100
AcDbMText
 10
15.0445790102
 20
10.5747959346
 30
0.0
 40
0.125
 41
0.0
 71
     1
 72
     1
  1
HH-3570
  7
SLDTEXTSTYLE0
 73
     1
 44
1.0
  0
MTEXT
  5
13B
330
1F
100
AcDbEntity
  8
0
  6
Continuous
 62
     7
370
     0
100
AcDbMText
 10
16.0224297281
 20
0.5057742205
 30
0.0
 40
0.0833333333
 41
0.0
 71
     1
 72
     1
  1
1    1
  7
SLDTEXTSTYLE10
 73
     1
 44
1.0
  0
INSERT
  5
141
330
1F
100
AcDbEntity
  8
0
  6
Continuous
 62
     7
370
     0
100
AcDbBlockReference
  2
SW_NOTE_12
 10
14.1825585783
 20
9.8308001862
 30
0.0
  0
INSERT
  5
147
330
1F
100
AcDbEntity
  8
0
  6
Continuous
 62
     7
370
     0
100
AcDbBlockReference
  2
SW_NOTE_13
 10
14.5715197108
 20
9.9235541658
 30
0.0
  0
INSERT
  5
14D
330
1F
100
AcDbEntity
  8
0
  6
Continuous
 62
     7
370
     0
100
AcDbBlockReference
  2
SW_NOTE_14
 10
14.1977734742
 20
9.4306052671
 30
0.0
  0
INSERT
  5
153
330
1F
100
AcDbEntity
  8
0
  6
Continuous
 62
     7
370
     0
100
AcDbBlockReference
  2
SW_NOTE_15
 10
14.5715197108
 20
9.5187587899
 30
0.0
  0
INSERT
  5
159
330
1F
100
AcDbEntity
  8
0
  6
Continuous
 62
     7
370
     0
100
AcDbBlockReference
  2
SW_NOTE_16
 10
14.1758601965
 20
9.01746208
 30
0.0
  0
INSERT
  5
15F
330
1F
100
AcDbEntity
  8
0
  6
Continuous
 62
     7
370
     0
100
AcDbBlockReference
  2
SW_NOTE_17
 10
14.5672134806
 20
9.1076351717
 30
0.0
  0
CIRCLE
  5
160
330
1F
100
AcDbEntity
  8
0
  6
Continuous
 62
     7
370
     0
100
AcDbCircle
 10
2.0069291507
 20
8.975142498
 30
0.0
 40
0.0780000000000012
  0
CIRCLE
  5
161
330
1F
100
AcDbEntity
  8
0
  6
Continuous
 62
     7
370
     0
100
AcDbCircle
 10
2.0069291507
 20
7.385142498
 30
0.0
 40
0.0780000000000003
  0
LINE
  5
162
330
1F
100
AcDbEntity
  8
0
  6
Continuous
 62
     7
370
     0
100
AcDbLine
 10
4.519822872
 20
8.180142498
 30
0.0
 11
4.6138228361
 21
8.0946425024
 31
0.0
  0
LINE
  5
163
330
1F
100
AcDbEntity
  8
0
  6
Continuous
 62
     7
370
     0
100
AcDbLine
 10
4.6138228361
 20
8.0946425024
 30
0.0
 11
4.6138228361
 21
8.2656424937
 31
0.0
  0
LINE
  5
164
330
1F
100
AcDbEntity
  8
0
  6
Continuous
 62
     7
370
     0
100
AcDbLine
 10
4.6138228361
 20
8.2656424937
 30
0.0
 11
4.519822872
 21
8.180142498
 31
0.0
  0
LINE
  5
165
330
1F
100
AcDbEntity
  8
0
  6
Continuous
 62
     7
370
     0
100
AcDbLine
 10
4.4314784559
 20
8.4351425056
 30
0.0
 11
4.540886052
 21
8.4351425056
 31
0.0
  0
LINE
  5
166
330
1F
100
AcDbEntity
  8
0
  6
Continuous
 62
     7
370
     0
100
AcDbLine
 10
4.6791058353
 20
8.2432117224
 30
0.0
 11
4.6791058353
 21
8.1170732737
 31
0.0
  0
LINE
  5
167
330
1F
100
AcDbEntity
  8
0
  6
Continuous
 62
     7
370
     0
100
AcDbLine
 10
4.540886052
 20
7.9251424905
 30
0.0
 11
4.4314784559
 21
7.9251424905
 31
0.0
  0
LINE
  5
168
330
1F
100
AcDbEntity
  8
0
  6
Continuous
 62
     7
370
     0
100
AcDbLine
 10
4.4314784559
 20
8.069690574
 30
0.0
 11
4.4314784559
 21
7.9251424905
 31
0.0
  0
ARC
  5
169
330
1F
100
AcDbEntity
  8
0
  6
Continuous
 62
     7
370
     0
100
AcDbCircle
 10
4.3928860473
 20
8.180142498
 30
0.0
 40
0.1169999999999997
100
AcDbArc
 50
289.2596441911
 51
70.7403558089
  0
LINE
  5
16A
330
1F
100
AcDbEntity
  8
0
  6
Continuous
 62
     7
370
     0
100
AcDbLine
 10
4.4314784559
 20
8.4351425056
 30
0.0
 11
4.4314784559
 21
8.2905944221
 31
0.0
  0
ARC
  5
16B
330
1F
100
AcDbEntity
  8
0
  6
Continuous
 62
     7
370
     0
100
AcDbCircle
 10
4.3891619094
 20
8.180142498
 30
0.0
 40
0.2967241379310351
100
AcDbArc
 50
300.7525024977
 51
347.7280689388
  0
ARC
  5
16C
330
1F
100
AcDbEntity
  8
0
  6
Continuous
 62
     7
370
     0
100
AcDbCircle
 10
4.3891619094
 20
8.180142498
 30
0.0
 40
0.296724137931034
100
AcDbArc
 50
12.2719310612
 51
59.2474975023
  0
ARC
  5
16D
330
1F
100
AcDbEntity
  8
0
  6
Continuous
 62
     7
370
     0
100
AcDbCircle
 10
4.3891619094
 20
8.180142498
 30
0.0
 40
0.2967241379310348
100
AcDbArc
 50
347.7280689388
 51
12.2719310612
  0
LINE
  5
16E
330
1F
100
AcDbEntity
  8
0
  6
Continuous
 62
     7
370
     0
100
AcDbLine
 10
1.9408860541
 20
9.3111130596
 30
0.0
 11
1.9408860541
 21
9.2237013228
 31
0.0
  0
LINE
  5
16F
330
1F
100
AcDbEntity
  8
0
  6
Continuous
 62
     7
370
     0
100
AcDbLine
 10
4.540886052
 20
9.2237013228
 30
0.0
 11
4.540886052
 21
9.3111130596
 31
0.0
  0
LINE
  5
170
330
1F
100
AcDbEntity
  8
0
  6
Continuous
 62
     7
370
     0
100
AcDbLine
 10
1.9408860541
 20
7.2801425016
 30
0.0
 11
1.9408860541
 21
7.1365836733
 31
0.0
  0
ARC
  5
171
330
1F
100
AcDbEntity
  8
0
  6
Continuous
 62
     7
370
     0
100
AcDbCircle
 10
2.0069291507
 20
7.385142498
 30
0.0
 40
0.1240431034482765
100
AcDbArc
 50
122.1691513167
 51
237.8308486833
  0
LINE
  5
172
330
1F
100
AcDbEntity
  8
0
  6
Continuous
 62
     7
370
     0
100
AcDbLine
 10
1.9408860541
 20
8.8701425271
 30
0.0
 11
1.9408860541
 21
7.490142469
 31
0.0
  0
ARC
  5
173
330
1F
100
AcDbEntity
  8
0
  6
Continuous
 62
     7
370
     0
100
AcDbCircle
 10
2.0069291507
 20
8.975142498
 30
0.0
 40
0.1240431034482769
100
AcDbArc
 50
122.1691513167
 51
237.8308486833
  0
LINE
  5
174
330
1F
100
AcDbEntity
  8
0
  6
Continuous
 62
     7
370
     0
100
AcDbLine
 10
1.9408860541
 20
9.2237013228
 30
0.0
 11
1.9408860541
 21
9.0801424945
 31
0.0
  0
LINE
  5
175
330
1F
100
AcDbEntity
  8
0
  6
Continuous
 62
     7
370
     0
100
AcDbLine
 10
4.540886052
 20
7.1365836733
 30
0.0
 11
4.540886052
 21
7.9251424905
 31
0.0
  0
LINE
  5
176
330
1F
100
AcDbEntity
  8
0
  6
Continuous
 62
     7
370
     0
100
AcDbLine
 10
4.540886052
 20
8.4351425056
 30
0.0
 11
4.540886052
 21
9.2237013228
 31
0.0
  0
ARC
  5
177
330
1F
100
AcDbEntity
  8
0
  6
Continuous
 62
     7
370
     0
100
AcDbCircle
 10
4.3928860473
 20
8.180142498
 30
0.0
 40
0.1169999999999997
100
AcDbArc
 50
70.7403558089
 51
289.2596441911
  0
LINE
  5
178
330
1F
100
AcDbEntity
  8
0
  6
Continuous
 62
     7
370
     0
100
AcDbLine
 10
1.9408860541
 20
7.1365836733
 30
0.0
 11
1.9408860541
 21
7.0491719364
 31
0.0
  0
LINE
  5
179
330
1F
100
AcDbEntity
  8
0
  6
Continuous
 62
     7
370
     0
100
AcDbLine
 10
4.540886052
 20
7.0491719364
 30
0.0
 11
4.540886052
 21
7.1365836733
 31
0.0
  0
LINE
  5
17A
330
1F
100
AcDbEntity
  8
0
  6
Continuous
 62
     7
370
     0
100
AcDbLine
 10
1.9408860541
 20
9.3111130596
 30
0.0
 11
1.9408860541
 21
9.4082139246
 31
0.0
  0
LINE
  5
17B
330
1F
100
AcDbEntity
  8
0
  6
Continuous
 62
     7
370
     0
100
AcDbLine
 10
4.540886052
 20
9.4082139246
 30
0.0
 11
4.540886052
 21
9.3111130596
 31
0.0
  0
LINE
  5
17C
330
1F
100
AcDbEntity
  8
0
  6
Continuous
 62
     7
370
     0
100
AcDbLine
 10
1.9408860541
 20
6.9520710715
 30
0.0
 11
1.9408860541
 21
7.0491719364
 31
0.0
  0
LINE
  5
17D
330
1F
100
AcDbEntity
  8
0
  6
Continuous
 62
     7
370
     0
100
AcDbLine
 10
4.540886052
 20
7.0491719364
 30
0.0
 11
4.540886052
 21
6.9520710715
 31
0.0
  0
CIRCLE
  5
17E
330
1F
100
AcDbEntity
  8
0
  6
Continuous
 62
     7
370
     0
100
AcDbCircle
 10
4.3928860473
 20
8.180142498
 30
0.0
 40
0.0615000000000006
  0
LINE
  5
17F
330
1F
100
AcDbEntity
  8
0
  6
Continuous
 62
     7
370
     0
100
AcDbLine
 10
1.9012803516
 20
8.910142465
 30
0.0
 11
1.8954589255
 21
8.910142465
 31
0.0
  0
LINE
  5
180
330
1F
100
AcDbEntity
  8
0
  6
Continuous
 62
     7
370
     0
100
AcDbLine
 10
1.8954589255
 20
9.0401424832
 30
0.0
 11
1.9012803516
 21
9.0401424832
 31
0.0
  0
LINE
  5
181
330
1F
100
AcDbEntity
  8
0
  6
Continuous
 62
     7
370
     0
100
AcDbLine
 10
1.9012803516
 20
7.3201425128
 30
0.0
 11
1.8954589255
 21
7.3201425128
 31
0.0
  0
LINE
  5
182
330
1F
100
AcDbEntity
  8
0
  6
Continuous
 62
     7
370
     0
100
AcDbLine
 10
1.8954589255
 20
7.4501425311
 30
0.0
 11
1.9012803516
 21
7.4501425311
 31
0.0
  0
LINE
  5
183
330
1F
100
AcDbEntity
  8
0
  6
Continuous
 62
     7
370
     0
100
AcDbLine
 10
4.540886052
 20
9.4590421374
 30
0.0
 11
4.5396742693
 21
9.4596424371
 31
0.0
  0
LINE
  5
184
330
1F
100
AcDbEntity
  8
0
  6
Continuous
 62
     7
370
     0
100
AcDbLine
 10
1.9420978001
 20
9.4596424371
 30
0.0
 11
1.9408860541
 21
9.4590421374
 31
0.0
  0
LINE
  5
185
330
1F
100
AcDbEntity
  8
0
  6
Continuous
 62
     7
370
     0
100
AcDbLine
 10
1.9420978001
 20
9.4596424371
 30
0.0
 11
4.5396742693
 21
9.4596424371
 31
0.0
  0
LINE
  5
186
330
1F
100
AcDbEntity
  8
0
  6
Continuous
 62
     7
370
     0
100
AcDbLine
 10
1.9408860541
 20
9.4590421374
 30
0.0
 11
1.9408860541
 21
9.4082139246
 31
0.0
  0
LINE
  5
187
330
1F
100
AcDbEntity
  8
0
  6
Continuous
 62
     7
370
     0
100
AcDbLine
 10
4.540886052
 20
9.4082139246
 30
0.0
 11
4.540886052
 21
9.4590421374
 31
0.0
  0
LINE
  5
188
330
1F
100
AcDbEntity
  8
0
  6
Continuous
 62
     7
370
     0
100
AcDbLine
 10
4.5396742693
 20
6.9006425589
 30
0.0
 11
4.540886052
 21
6.9012428587
 31
0.0
  0
LINE
  5
189
330
1F
100
AcDbEntity
  8
0
  6
Continuous
 62
     7
370
     0
100
AcDbLine
 10
4.5396742693
 20
6.9006425589
 30
0.0
 11
1.9420978001
 21
6.9006425589
 31
0.0
  0
LINE
  5
18A
330
1F
100
AcDbEntity
  8
0
  6
Continuous
 62
     7
370
     0
100
AcDbLine
 10
1.9408860541
 20
6.9012428587
 30
0.0
 11
1.9420978001
 21
6.9006425589
 31
0.0
  0
LINE
  5
18B
330
1F
100
AcDbEntity
  8
0
  6
Continuous
 62
     7
370
     0
100
AcDbLine
 10
1.9408860541
 20
6.9520710715
 30
0.0
 11
1.9408860541
 21
6.9012428587
 31
0.0
  0
LINE
  5
18C
330
1F
100
AcDbEntity
  8
0
  6
Continuous
 62
     7
370
     0
100
AcDbLine
 10
4.540886052
 20
6.9012428587
 30
0.0
 11
4.540886052
 21
6.9520710715
 31
0.0
  0
LINE
  5
18D
330
1F
100
AcDbEntity
  8
0
  6
Continuous
 62
     7
370
     0
100
AcDbLine
 10
1.6771572074
 20
7.6875512118
 30
0.0
 11
1.6752435228
 21
7.6996291823
 31
0.0
  0
ARC
  5
18E
330
1F
100
AcDbEntity
  8
0
  6
Continuous
 62
     7
370
     0
100
AcDbCircle
 10
4.7468860473
 20
8.180142498
 30
0.0
 40
3.209000000000001
100
AcDbArc
 50
160.3874814873
 51
199.6125185127
  0
LINE
  5
18F
330
1F
100
AcDbEntity
  8
0
  6
Continuous
 62
     7
370
     0
100
AcDbLine
 10
1.6752435228
 20
8.6606558138
 30
0.0
 11
1.6771572074
 21
8.6727337843
 31
0.0
  0
ARC
  5
190
330
1F
100
AcDbEntity
  8
0
  6
Continuous
 62
     7
370
     0
100
AcDbCircle
 10
2.0068860473
 20
7.385142498
 30
0.0
 40
0.1290000000000006
100
AcDbArc
 50
122.3360259976
 51
237.6639740024
  0
LINE
  5
191
330
1F
100
AcDbEntity
  8
0
  6
Continuous
 62
     7
370
     0
100
AcDbLine
 10
1.9378861687
 20
7.2761470544
 30
0.0
 11
1.9378861687
 21
7.1365836733
 31
0.0
  0
ARC
  5
192
330
1F
100
AcDbEntity
  8
0
  6
Continuous
 62
     7
370
     0
100
AcDbCircle
 10
1.7648860473
 20
7.707642498
 30
0.0
 40
0.0900000000000001
100
AcDbArc
 50
192.8992101246
 51
185.1081972624
  0
ARC
  5
193
330
1F
100
AcDbEntity
  8
0
  6
Continuous
 62
     7
370
     0
100
AcDbCircle
 10
1.7648860473
 20
8.652642498
 30
0.0
 40
0.0899999999999999
100
AcDbArc
 50
174.8918027377
 51
167.1007898754
  0
LINE
  5
194
330
1F
100
AcDbEntity
  8
0
  6
Continuous
 62
     7
370
     0
100
AcDbLine
 10
1.9378861687
 20
9.2237013228
 30
0.0
 11
1.9378861687
 21
9.0841379417
 31
0.0
  0
ARC
  5
195
330
1F
100
AcDbEntity
  8
0
  6
Continuous
 62
     7
370
     0
100
AcDbCircle
 10
2.0068860473
 20
8.975142498
 30
0.0
 40
0.129000000000001
100
AcDbArc
 50
122.3360259976
 51
237.6639740024
  0
LINE
  5
196
330
1F
100
AcDbEntity
  8
0
  6
Continuous
 62
     7
370
     0
100
AcDbLine
 10
1.9378861687
 20
8.8661470799
 30
0.0
 11
1.9378861687
 21
7.4941379162
 31
0.0
  0
LINE
  5
197
330
1F
100
AcDbEntity
  8
0
  6
Continuous
 62
     7
370
     0
100
AcDbLine
 10
4.5428860489
 20
9.2237013228
 30
0.0
 11
4.5428860489
 21
9.3111130596
 31
0.0
  0
LINE
  5
198
330
1F
100
AcDbEntity
  8
0
  6
Continuous
 62
     7
370
     0
100
AcDbLine
 10
1.9378861687
 20
9.3111130596
 30
0.0
 11
1.9378861687
 21
9.2237013228
 31
0.0
  0
ARC
  5
199
330
1F
100
AcDbEntity
  8
0
  6
Continuous
 62
     7
370
     0
100
AcDbCircle
 10
5.4748860473
 20
8.180142498
 30
0.0
 40
3.209000000000001
100
AcDbArc
 50
340.3874814873
 51
19.6125185127
  0
ARC
  5
19A
330
1F
100
AcDbEntity
  8
0
  6
Continuous
 62
     7
370
     0
100
AcDbCircle
 10
8.4830262693
 20
8.180142498
 30
0.0
 40
0.0300000000000009
100
AcDbArc
 50
333.4349488229
 51
26.5650511771
  0
LINE
  5
19B
330
1F
100
AcDbEntity
  8
0
  6
Continuous
 62
     7
370
     0
100
AcDbLine
 10
8.5098591021
 20
8.1935589056
 30
0.0
 11
8.424859124
 21
8.3635589075
 31
0.0
  0
ARC
  5
19C
330
1F
100
AcDbEntity
  8
0
  6
Continuous
 62
     7
370
     0
100
AcDbCircle
 10
8.3980262693
 20
8.350142498
 30
0.0
 40
0.0300000000000011
100
AcDbArc
 50
26.5650511771
 51
90.0
  0
LINE
  5
19D
330
1F
100
AcDbEntity
  8
0
  6
Continuous
 62
     7
370
     0
100
AcDbLine
 10
8.3980261806
 20
8.3801424993
 30
0.0
 11
8.246567317
 21
8.3801424993
 31
0.0
  0
ARC
  5
19E
330
1F
100
AcDbEntity
  8
0
  6
Continuous
 62
     7
370
     0
100
AcDbCircle
 10
8.2465672889
 20
8.350142498
 30
0.0
 40
0.0300000000000011
100
AcDbArc
 50
90.0
 51
180.0
  0
LINE
  5
19F
330
1F
100
AcDbEntity
  8
0
  6
Continuous
 62
     7
370
     0
100
AcDbLine
 10
8.2165672902
 20
8.3501424909
 30
0.0
 11
8.2165672902
 21
8.0101425052
 31
0.0
  0
ARC
  5
1A0
330
1F
100
AcDbEntity
  8
0
  6
Continuous
 62
     7
370
     0
100
AcDbCircle
 10
8.2465672889
 20
8.010142498
 30
0.0
 40
0.0299999999999994
100
AcDbArc
 50
180.0
 51
270.0
  0
LINE
  5
1A1
330
1F
100
AcDbEntity
  8
0
  6
Continuous
 62
     7
370
     0
100
AcDbLine
 10
8.246567317
 20
7.9801424968
 30
0.0
 11
8.3980261806
 21
7.9801424968
 31
0.0
  0
ARC
  5
1A2
330
1F
100
AcDbEntity
  8
0
  6
Continuous
 62
     7
370
     0
100
AcDbCircle
 10
8.3980262693
 20
8.010142498
 30
0.0
 40
0.0300000000000001
100
AcDbArc
 50
270.0
 51
333.4349488229
  0
LINE
  5
1A3
330
1F
100
AcDbEntity
  8
0
  6
Continuous
 62
     7
370
     0
100
AcDbLine
 10
8.424859124
 20
7.9967260885
 30
0.0
 11
8.5098591021
 21
8.1667260905
 31
0.0
  0
CIRCLE
  5
1A4
330
1F
100
AcDbEntity
  8
0
  6
Continuous
 62
     7
370
     0
100
AcDbCircle
 10
8.3388860473
 20
7.274642498
 30
0.0
 40
0.0899999999999999
  0
CIRCLE
  5
1A5
330
1F
100
AcDbEntity
  8
0
  6
Continuous
 62
     7
370
     0
100
AcDbCircle
 10
8.3388860473
 20
9.085642498
 30
0.0
 40
0.0899999999999981
  0
LINE
  5
1A6
330
1F
100
AcDbEntity
  8
0
  6
Continuous
 62
     7
370
     0
100
AcDbLine
 10
4.5428860489
 20
8.4631883866
 30
0.0
 11
4.5428860489
 21
9.2237013228
 31
0.0
  0
LINE
  5
1A7
330
1F
100
AcDbEntity
  8
0
  6
Continuous
 62
     7
370
     0
100
AcDbLine
 10
4.5428860489
 20
7.1365836733
 30
0.0
 11
4.5428860489
 21
7.8970966095
 31
0.0
  0
LINE
  5
1A8
330
1F
100
AcDbEntity
  8
0
  6
Continuous
 62
     7
370
     0
100
AcDbLine
 10
4.5428860489
 20
8.4339418328
 30
0.0
 11
4.5428860489
 21
8.4631883866
 31
0.0
  0
LINE
  5
1A9
330
1F
100
AcDbEntity
  8
0
  6
Continuous
 62
     7
370
     0
100
AcDbLine
 10
4.5428860489
 20
7.8970966095
 30
0.0
 11
4.5428860489
 21
7.9263431633
 31
0.0
  0
LINE
  5
1AA
330
1F
100
AcDbEntity
  8
0
  6
Continuous
 62
     7
370
     0
100
AcDbLine
 10
4.5428860489
 20
7.0491719364
 30
0.0
 11
4.5428860489
 21
7.1365836733
 31
0.0
  0
LINE
  5
1AB
330
1F
100
AcDbEntity
  8
0
  6
Continuous
 62
     7
370
     0
100
AcDbLine
 10
1.9378861687
 20
7.1365836733
 30
0.0
 11
1.9378861687
 21
7.0491719364
 31
0.0
  0
LINE
  5
1AC
330
1F
100
AcDbEntity
  8
0
  6
Continuous
 62
     7
370
     0
100
AcDbLine
 10
4.5428860489
 20
9.4082139246
 30
0.0
 11
4.5428860489
 21
9.3111130596
 31
0.0
  0
SPLINE
  5
1AD
330
1F
100
AcDbEntity
  8
0
  6
Continuous
 62
     7
370
     0
100
AcDbSpline
210
0.0
220
0.0
230
1.0
 70
     8
 71
     3
 72
    10
 73
     6
 74
     0
 42
0.00000001
 43
0.00000001
 40
0.0
 40
0.0
 40
0.0
 40
0.0
 40
0.2920471523524346
 40
0.5930715547789365
 40
1.0
 40
1.0
 40
1.0
 40
1.0
 10
1.724058905538326
 20
9.257267068338727
 30
0.0
 10
1.727878946795082
 20
9.267886479579005
 30
0.0
 10
1.735636453722353
 20
9.289451732601945
 30
0.0
 10
1.753103868512226
 20
9.336172891129046
 30
0.0
 10
1.768780322316855
 20
9.37516703643515
 30
0.0
 10
1.777791084819606
 20
9.397580714090184
 30
0.0
  0
LINE
  5
1AE
330
1F
100
AcDbEntity
  8
0
  6
Continuous
 62
     7
370
     0
100
AcDbLine
 10
1.9378861687
 20
9.3111130596
 30
0.0
 11
1.9378861687
 21
9.4082139246
 31
0.0
  0
SPLINE
  5
1AF
330
1F
100
AcDbEntity
  8
0
  6
Continuous
 62
     7
370
     0
100
AcDbSpline
210
0.0
220
0.0
230
1.0
 70
     8
 71
     3
 72
    10
 73
     6
 74
     0
 42
0.00000001
 43
0.00000001
 40
0.0
 40
0.0
 40
0.0
 40
0.0
 40
0.4069292114324993
 40
0.6991083972523799
 40
1.0
 40
1.0
 40
1.0
 40
1.0
 10
8.44398100975808
 20
9.397580714090184
 30
0.0
 10
8.452992567250863
 20
9.3751658453689
 30
0.0
 10
8.468474511870541
 20
9.33665687991224
 30
0.0
 10
8.485992203445615
 20
9.289843523935724
 30
0.0
 10
8.493768116880455
 20
9.268231715209383
 30
0.0
 10
8.497713189039358
 20
9.257267068338727
 30
0.0
  0
SPLINE
  5
1B0
330
1F
100
AcDbEntity
  8
0
  6
Continuous
 62
     7
370
     0
100
AcDbSpline
210
0.0
220
0.0
230
1.0
 70
     8
 71
     3
 72
    10
 73
     6
 74
     0
 42
0.00000001
 43
0.00000001
 40
0.0
 40
0.0
 40
0.0
 40
0.0
 40
0.2920471523524346
 40
0.5930715547789365
 40
1.0
 40
1.0
 40
1.0
 40
1.0
 10
8.497713189039358
 20
7.103017927741962
 30
0.0
 10
8.493893147782602
 20
7.092398516501683
 30
0.0
 10
8.486135640855332
 20
7.070833263478745
 30
0.0
 10
8.468668226065459
 20
7.024112104951643
 30
0.0
 10
8.452991772260829
 20
6.985117959645539
 30
0.0
 10
8.443981009758078
 20
6.962704281990504
 30
0.0
  0
SPLINE
  5
1B1
330
1F
100
AcDbEntity
  8
0
  6
Continuous
 62
     7
370
     0
100
AcDbSpline
210
0.0
220
0.0
230
1.0
 70
     8
 71
     3
 72
    10
 73
     6
 74
     0
 42
0.00000001
 43
0.00000001
 40
0.0
 40
0.0
 40
0.0
 40
0.0
 40
0.4069292114324993
 40
0.6991083972523799
 40
1.0
 40
1.0
 40
1.0
 40
1.0
 10
1.777791084819605
 20
6.962704281990504
 30
0.0
 10
1.768779527326822
 20
6.985119150711788
 30
0.0
 10
1.753297582707143
 20
7.023628116168449
 30
0.0
 10
1.73577989113207
 20
7.070441472144963
 30
0.0
 10
1.728003977697229
 20
7.092053280871306
 30
0.0
 10
1.724058905538326
 20
7.103017927741962
 30
0.0
  0
LINE
  5
1B2
330
1F
100
AcDbEntity
  8
0
  6
Continuous
 62
     7
370
     0
100
AcDbLine
 10
4.5428860489
 20
7.0491719364
 30
0.0
 11
4.5428860489
 21
6.9520710715
 31
0.0
  0
LINE
  5
1B3
330
1F
100
AcDbEntity
  8
0
  6
Continuous
 62
     7
370
     0
100
AcDbLine
 10
1.9378861687
 20
6.9520710715
 30
0.0
 11
1.9378861687
 21
7.0491719364
 31
0.0
  0
LINE
  5
1B4
330
1F
100
AcDbEntity
  8
0
  6
Continuous
 62
     7
370
     0
100
AcDbLine
 10
4.5428860489
 20
9.4596424371
 30
0.0
 11
8.3514571186
 21
9.4596424371
 31
0.0
  0
LINE
  5
1B5
330
1F
100
AcDbEntity
  8
0
  6
Continuous
 62
     7
370
     0
100
AcDbLine
 10
4.5428860489
 20
9.4082139246
 30
0.0
 11
4.5428860489
 21
9.4596424371
 31
0.0
  0
LINE
  5
1B6
330
1F
100
AcDbEntity
  8
0
  6
Continuous
 62
     7
370
     0
100
AcDbLine
 10
1.870314976
 20
9.4596424371
 30
0.0
 11
1.9378861687
 21
9.4596424371
 31
0.0
  0
LINE
  5
1B7
330
1F
100
AcDbEntity
  8
0
  6
Continuous
 62
     7
370
     0
100
AcDbLine
 10
1.9378861687
 20
9.4596424371
 30
0.0
 11
1.9378861687
 21
9.4082139246
 31
0.0
  0
ARC
  5
1B8
330
1F
100
AcDbEntity
  8
0
  6
Continuous
 62
     7
370
     0
100
AcDbCircle
 10
1.8703150417
 20
9.359642498
 30
0.0
 40
0.1000000000000014
100
AcDbArc
 50
90.0
 51
157.7045652987
  0
ARC
  5
1B9
330
1F
100
AcDbEntity
  8
0
  6
Continuous
 62
     7
370
     0
100
AcDbCircle
 10
8.3514570528
 20
9.359642498
 30
0.0
 40
0.1000000000000012
100
AcDbArc
 50
22.2954347013
 51
90.0
  0
ARC
  5
1BA
330
1F
100
AcDbEntity
  8
0
  6
Continuous
 62
     7
370
     0
100
AcDbCircle
 10
8.3514570528
 20
7.000642498
 30
0.0
 40
0.1000000000000015
100
AcDbArc
 50
270.0
 51
337.7045652987
  0
ARC
  5
1BB
330
1F
100
AcDbEntity
  8
0
  6
Continuous
 62
     7
370
     0
100
AcDbCircle
 10
1.8703150417
 20
7.000642498
 30
0.0
 40
0.0999999999999999
100
AcDbArc
 50
202.2954347013
 51
270.0
  0
LINE
  5
1BC
330
1F
100
AcDbEntity
  8
0
  6
Continuous
 62
     7
370
     0
100
AcDbLine
 10
8.3514571186
 20
6.9006425589
 30
0.0
 11
4.5428860489
 21
6.9006425589
 31
0.0
  0
LINE
  5
1BD
330
1F
100
AcDbEntity
  8
0
  6
Continuous
 62
     7
370
     0
100
AcDbLine
 10
4.5428860489
 20
6.9006425589
 30
0.0
 11
4.5428860489
 21
6.9520710715
 31
0.0
  0
LINE
  5
1BE
330
1F
100
AcDbEntity
  8
0
  6
Continuous
 62
     7
370
     0
100
AcDbLine
 10
1.9378861687
 20
6.9006425589
 30
0.0
 11
1.870314976
 21
6.9006425589
 31
0.0
  0
LINE
  5
1BF
330
1F
100
AcDbEntity
  8
0
  6
Continuous
 62
     7
370
     0
100
AcDbLine
 10
1.9378861687
 20
6.9520710715
 30
0.0
 11
1.9378861687
 21
6.9006425589
 31
0.0
  0
LINE
  5
1C0
330
1F
100
AcDbEntity
  8
0
  6
Continuous
 62
     7
370
     0
100
AcDbLine
 10
1.8978859375
 20
9.0441352171
 30
0.0
 11
1.8978859375
 21
9.0401424832
 31
0.0
  0
LINE
  5
1C1
330
1F
100
AcDbEntity
  8
0
  6
Continuous
 62
     7
370
     0
100
AcDbLine
 10
1.8978859375
 20
8.910142465
 30
0.0
 11
1.8978859375
 21
8.9061497311
 31
0.0
  0
LINE
  5
1C2
330
1F
100
AcDbEntity
  8
0
  6
Continuous
 62
     7
370
     0
100
AcDbLine
 10
1.9378861687
 20
8.8661470799
 30
0.0
 11
1.9378861687
 21
8.8720903846
 31
0.0
  0
LINE
  5
1C3
330
1F
100
AcDbEntity
  8
0
  6
Continuous
 62
     7
370
     0
100
AcDbLine
 10
1.9378861687
 20
9.078194637
 30
0.0
 11
1.9378861687
 21
9.0841379417
 31
0.0
  0
LINE
  5
1C4
330
1F
100
AcDbEntity
  8
0
  6
Continuous
 62
     7
370
     0
100
AcDbLine
 10
1.8978859375
 20
7.4541352649
 30
0.0
 11
1.8978859375
 21
7.4501425311
 31
0.0
  0
LINE
  5
1C5
330
1F
100
AcDbEntity
  8
0
  6
Continuous
 62
     7
370
     0
100
AcDbLine
 10
1.8978859375
 20
7.3201425128
 30
0.0
 11
1.8978859375
 21
7.316149779
 31
0.0
  0
LINE
  5
1C6
330
1F
100
AcDbEntity
  8
0
  6
Continuous
 62
     7
370
     0
100
AcDbLine
 10
1.9378861687
 20
7.2761470544
 30
0.0
 11
1.9378861687
 21
7.2820903591
 31
0.0
  0
LINE
  5
1C7
330
1F
100
AcDbEntity
  8
0
  6
Continuous
 62
     7
370
     0
100
AcDbLine
 10
1.9378861687
 20
7.4881946115
 30
0.0
 11
1.9378861687
 21
7.4941379162
 31
0.0
  0
LINE
  5
1C8
330
1F
100
AcDbEntity
  8
0
  6
Continuous
 62
     7
370
     0
100
AcDbLine
 10
4.5428860489
 20
9.3846425169
 30
0.0
 11
4.540886052
 21
9.3846425169
 31
0.0
  0
LINE
  5
1C9
330
1F
100
AcDbEntity
  8
0
  6
Continuous
 62
     7
370
     0
100
AcDbLine
 10
1.9408860541
 20
9.3846425169
 30
0.0
 11
1.9378861687
 21
9.3846425169
 31
0.0
  0
LINE
  5
1CA
330
1F
100
AcDbEntity
  8
0
  6
Continuous
 62
     7
370
     0
100
AcDbLine
 10
4.5428860489
 20
9.4596424371
 30
0.0
 11
4.5396742693
 21
9.4596424371
 31
0.0
  0
LINE
  5
1CB
330
1F
100
AcDbEntity
  8
0
  6
Continuous
 62
     7
370
     0
100
AcDbLine
 10
1.9420978001
 20
9.4596424371
 30
0.0
 11
1.9378861687
 21
9.4596424371
 31
0.0
  0
LINE
  5
1CC
330
1F
100
AcDbEntity
  8
0
  6
Continuous
 62
     7
370
     0
100
AcDbLine
 10
1.9378861687
 20
6.9756424792
 30
0.0
 11
1.9408860541
 21
6.9756424792
 31
0.0
  0
LINE
  5
1CD
330
1F
100
AcDbEntity
  8
0
  6
Continuous
 62
     7
370
     0
100
AcDbLine
 10
4.540886052
 20
6.9756424792
 30
0.0
 11
4.5428860489
 21
6.9756424792
 31
0.0
  0
LINE
  5
1CE
330
1F
100
AcDbEntity
  8
0
  6
Continuous
 62
     7
370
     0
100
AcDbLine
 10
1.9378861687
 20
6.9006425589
 30
0.0
 11
1.9420978001
 21
6.9006425589
 31
0.0
  0
LINE
  5
1CF
330
1F
100
AcDbEntity
  8
0
  6
Continuous
 62
     7
370
     0
100
AcDbLine
 10
4.5396742693
 20
6.9006425589
 30
0.0
 11
4.5428860489
 21
6.9006425589
 31
0.0
  0
CIRCLE
  5
1D0
330
1F
100
AcDbEntity
  8
0
  6
Continuous
 62
     7
370
     0
100
AcDbCircle
 10
8.3388860473
 20
9.085642498
 30
0.0
 40
0.046341327033991
  0
CIRCLE
  5
1D1
330
1F
100
AcDbEntity
  8
0
  6
Continuous
 62
     7
370
     0
100
AcDbCircle
 10
1.7648860473
 20
8.652642498
 30
0.0
 40
0.0463413270339945
  0
CIRCLE
  5
1D2
330
1F
100
AcDbEntity
  8
0
  6
Continuous
 62
     7
370
     0
100
AcDbCircle
 10
1.7648860473
 20
7.707642498
 30
0.0
 40
0.0463413270339936
  0
CIRCLE
  5
1D3
330
1F
100
AcDbEntity
  8
0
  6
Continuous
 62
     7
370
     0
100
AcDbCircle
 10
8.3388860473
 20
7.274642498
 30
0.0
 40
0.0463413270339919
  0
CIRCLE
  5
1D4
330
1F
100
AcDbEntity
  8
0
  6
Continuous
 62
     7
370
     0
100
AcDbCircle
 10
4.3928860473
 20
8.180142498
 30
0.0
 40
0.0500000000000007
  0
ARC
  5
1D5
330
1F
100
AcDbEntity
  8
0
  6
Continuous
 62
     7
370
     0
100
AcDbCircle
 10
1.8689738266
 20
6.998642498
 30
0.0
 40
0.0979999999999999
100
AcDbArc
 50
202.3201440168
 51
270.0
  0
LINE
  5
1D6
330
1F
100
AcDbEntity
  8
0
  6
Continuous
 62
     7
370
     0
100
AcDbLine
 10
1.7783164388
 20
6.9614238968
 30
0.0
 11
1.7240589055
 21
7.1030179277
 31
0.0
  0
LINE
  5
1D7
330
1F
100
AcDbEntity
  8
0
  6
Continuous
 62
     7
370
     0
100
AcDbLine
 10
1.7240589055
 20
9.2572670683
 30
0.0
 11
1.7783164388
 21
9.3988610993
 31
0.0
  0
ARC
  5
1D8
330
1F
100
AcDbEntity
  8
0
  6
Continuous
 62
     7
370
     0
100
AcDbCircle
 10
8.352798268
 20
9.361642498
 30
0.0
 40
0.0980000000000013
100
AcDbArc
 50
22.3201440168
 51
90.0
  0
LINE
  5
1D9
330
1F
100
AcDbEntity
  8
0
  6
Continuous
 62
     7
370
     0
100
AcDbLine
 10
8.4434556558
 20
6.9614238968
 30
0.0
 11
8.497713189
 21
7.1030179277
 31
0.0
  0
LINE
  5
1DA
330
1F
100
AcDbEntity
  8
0
  6
Continuous
 62
     7
370
     0
100
AcDbLine
 10
8.497713189
 20
9.2572670683
 30
0.0
 11
8.4434556558
 21
9.3988610993
 31
0.0
  0
ARC
  5
1DB
330
1F
100
AcDbEntity
  8
0
  6
Continuous
 62
     7
370
     0
100
AcDbCircle
 10
8.352798268
 20
6.998642498
 30
0.0
 40
0.0980000000000016
100
AcDbArc
 50
270.0
 51
337.6798559832
  0
LINE
  5
1DC
330
1F
100
AcDbEntity
  8
0
  6
Continuous
 62
     7
370
     0
100
AcDbLine
 10
1.8689738715
 20
6.9006425589
 30
0.0
 11
1.870314976
 21
6.9006425589
 31
0.0
  0
LINE
  5
1DD
330
1F
100
AcDbEntity
  8
0
  6
Continuous
 62
     7
370
     0
100
AcDbLine
 10
8.3514571186
 20
6.9006425589
 30
0.0
 11
8.3527982231
 21
6.9006425589
 31
0.0
  0
ARC
  5
1DE
330
1F
100
AcDbEntity
  8
0
  6
Continuous
 62
     7
370
     0
100
AcDbCircle
 10
1.8689738266
 20
9.361642498
 30
0.0
 40
0.0980000000000025
100
AcDbArc
 50
90.0
 51
157.6798559832
  0
LINE
  5
1DF
330
1F
100
AcDbEntity
  8
0
  6
Continuous
 62
     7
370
     0
100
AcDbLine
 10
8.3527982231
 20
9.4596424371
 30
0.0
 11
8.3514571186
 21
9.4596424371
 31
0.0
  0
LINE
  5
1E0
330
1F
100
AcDbEntity
  8
0
  6
Continuous
 62
     7
370
     0
100
AcDbLine
 10
1.870314976
 20
9.4596424371
 30
0.0
 11
1.8689738715
 21
9.4596424371
 31
0.0
  0
CIRCLE
  5
1E1
330
1F
100
AcDbEntity
  8
0
  6
Continuous
 62
     7
370
     0
100
AcDbCircle
 10
8.3388860473
 20
9.085642498
 30
0.0
 40
0.037515930881451
  0
CIRCLE
  5
1E2
330
1F
100
AcDbEntity
  8
0
  6
Continuous
 62
     7
370
     0
100
AcDbCircle
 10
8.3388860473
 20
9.085642498
 30
0.0
 40
0.0224999999999991
  0
CIRCLE
  5
1E3
330
1F
100
AcDbEntity
  8
0
  6
Continuous
 62
     7
370
     0
100
AcDbCircle
 10
1.7648860473
 20
8.652642498
 30
0.0
 40
0.0375159308814528
  0
CIRCLE
  5
1E4
330
1F
100
AcDbEntity
  8
0
  6
Continuous
 62
     7
370
     0
100
AcDbCircle
 10
1.7648860473
 20
8.652642498
 30
0.0
 40
0.0225000000000026
  0
CIRCLE
  5
1E5
330
1F
100
AcDbEntity
  8
0
  6
Continuous
 62
     7
370
     0
100
AcDbCircle
 10
1.7648860473
 20
7.707642498
 30
0.0
 40
0.0375159308814528
  0
CIRCLE
  5
1E6
330
1F
100
AcDbEntity
  8
0
  6
Continuous
 62
     7
370
     0
100
AcDbCircle
 10
1.7648860473
 20
7.707642498
 30
0.0
 40
0.0225
  0
CIRCLE
  5
1E7
330
1F
100
AcDbEntity
  8
0
  6
Continuous
 62
     7
370
     0
100
AcDbCircle
 10
8.3388860473
 20
7.274642498
 30
0.0
 40
0.0375159308814519
  0
CIRCLE
  5
1E8
330
1F
100
AcDbEntity
  8
0
  6
Continuous
 62
     7
370
     0
100
AcDbCircle
 10
8.3388860473
 20
7.274642498
 30
0.0
 40
0.0225000000000009
  0
LINE
  5
1E9
330
1F
100
AcDbEntity
  8
0
  6
PHANTOM
 62
     8
370
     0
100
AcDbLine
 10
4.540886052
 20
9.2237013228
 30
0.0
 11
1.9408860541
 21
9.2237013228
 31
0.0
  0
LINE
  5
1EA
330
1F
100
AcDbEntity
  8
0
  6
PHANTOM
 62
     8
370
     0
100
AcDbLine
 10
1.9408860541
 20
9.3111130596
 30
0.0
 11
4.540886052
 21
9.3111130596
 31
0.0
  0
LINE
  5
1EB
330
1F
100
AcDbEntity
  8
0
  6
PHANTOM
 62
     8
370
     0
100
AcDbLine
 10
1.9408860541
 20
7.1365836733
 30
0.0
 11
4.540886052
 21
7.1365836733
 31
0.0
  0
LINE
  5
1EC
330
1F
100
AcDbEntity
  8
0
  6
PHANTOM
 62
     8
370
     0
100
AcDbLine
 10
4.540886052
 20
7.0491719364
 30
0.0
 11
1.9408860541
 21
7.0491719364
 31
0.0
  0
LINE
  5
1ED
330
1F
100
AcDbEntity
  8
0
  6
PHANTOM
 62
     8
370
     0
100
AcDbLine
 10
4.540886052
 20
9.4082139246
 30
0.0
 11
1.9408860541
 21
9.4082139246
 31
0.0
  0
LINE
  5
1EE
330
1F
100
AcDbEntity
  8
0
  6
PHANTOM
 62
     8
370
     0
100
AcDbLine
 10
1.9408860541
 20
6.9520710715
 30
0.0
 11
4.540886052
 21
6.9520710715
 31
0.0
  0
ARC
  5
1EF
330
1F
100
AcDbEntity
  8
0
  6
PHANTOM
 62
     8
370
     0
100
AcDbCircle
 10
4.7468860473
 20
8.180142498
 30
0.0
 40
3.109
100
AcDbArc
 50
171.1089774769
 51
188.8910225231
  0
ARC
  5
1F0
330
1F
100
AcDbEntity
  8
0
  6
PHANTOM
 62
     8
370
     0
100
AcDbCircle
 10
4.7468860473
 20
8.180142498
 30
0.0
 40
3.109000000000001
100
AcDbArc
 50
189.1163848639
 51
199.6125185127
  0
LWPOLYLINE
  5
1F1
330
1F
100
AcDbEntity
  8
0
  6
PHANTOM
 62
     8
370
     0
100
AcDbPolyline
 90
        9
 70
   128
 43
0.0
 10
1.7240589055
 20
7.1030179277
 10
1.7258690446
 20
7.103662887
 10
1.731229356
 20
7.1055729782
 10
1.7399342155
 20
7.1086747957
 10
1.7516489335
 20
7.1128491008
 10
1.7659235419
 20
7.1179355154
 10
1.7822092204
 20
7.1237386084
 10
1.7998802963
 20
7.1300353023
 10
1.8182574173
 20
7.1365836733
  0
LWPOLYLINE
  5
1F2
330
1F
100
AcDbEntity
  8
0
  6
PHANTOM
 62
     8
370
     0
100
AcDbPolyline
 90
        9
 70
   128
 43
0.0
 10
1.8182574173
 20
9.2237013228
 10
1.7998802963
 20
9.2302496938
 10
1.7822092204
 20
9.2365463877
 10
1.7659235419
 20
9.2423494807
 10
1.7516489335
 20
9.2474358952
 10
1.7399342155
 20
9.2516102004
 10
1.731229356
 20
9.2547120179
 10
1.7258690446
 20
9.2566221091
 10
1.7240589055
 20
9.2572670683
  0
ARC
  5
1F3
330
1F
100
AcDbEntity
  8
0
  6
PHANTOM
 62
     8
370
     0
100
AcDbCircle
 10
4.7468860473
 20
8.180142498
 30
0.0
 40
3.109
100
AcDbArc
 50
160.3874814873
 51
170.8836151361
  0
LINE
  5
1F4
330
1F
100
AcDbEntity
  8
0
  6
PHANTOM
 62
     8
370
     0
100
AcDbLine
 10
1.8182574173
 20
7.1365836733
 30
0.0
 11
1.9378861687
 21
7.1365836733
 31
0.0
  0
LINE
  5
1F5
330
1F
100
AcDbEntity
  8
0
  6
PHANTOM
 62
     8
370
     0
100
AcDbLine
 10
1.9378861687
 20
9.2237013228
 30
0.0
 11
1.8182574173
 21
9.2237013228
 31
0.0
  0
LINE
  5
1F6
330
1F
100
AcDbEntity
  8
0
  6
PHANTOM
 62
     8
370
     0
100
AcDbLine
 10
8.4035146772
 20
9.2237013228
 30
0.0
 11
8.4035146772
 21
9.3111130596
 31
0.0
  0
ARC
  5
1F7
330
1F
100
AcDbEntity
  8
0
  6
PHANTOM
 62
     8
370
     0
100
AcDbCircle
 10
8.4157066029
 20
9.2231229635
 30
0.0
 40
0.0888307383150312
100
AcDbArc
 50
22.6047981201
 51
97.8886860051
  0
LWPOLYLINE
  5
1F8
330
1F
100
AcDbEntity
  8
0
  6
PHANTOM
 62
     8
370
     0
100
AcDbPolyline
 90
        9
 70
   128
 43
0.0
 10
8.497713189
 20
9.2572670683
 10
8.49590305
 20
9.2566221091
 10
8.4905427385
 20
9.2547120179
 10
8.4818378791
 20
9.2516102004
 10
8.4701231611
 20
9.2474358952
 10
8.4558485527
 20
9.2423494807
 10
8.4395628741
 20
9.2365463877
 10
8.4218917983
 20
9.2302496938
 10
8.4035146772
 20
9.2237013228
  0
LINE
  5
1F9
330
1F
100
AcDbEntity
  8
0
  6
PHANTOM
 62
     8
370
     0
100
AcDbLine
 10
4.5428860489
 20
9.3111130596
 30
0.0
 11
8.4035146772
 21
9.3111130596
 31
0.0
  0
LINE
  5
1FA
330
1F
100
AcDbEntity
  8
0
  6
PHANTOM
 62
     8
370
     0
100
AcDbLine
 10
8.4035146772
 20
9.2237013228
 30
0.0
 11
4.5428860489
 21
9.2237013228
 31
0.0
  0
ARC
  5
1FB
330
1F
100
AcDbEntity
  8
0
  6
PHANTOM
 62
     8
370
     0
100
AcDbCircle
 10
1.8060654917
 20
9.2231229635
 30
0.0
 40
0.0888307383150319
100
AcDbArc
 50
82.1113139949
 51
157.3952018799
  0
LINE
  5
1FC
330
1F
100
AcDbEntity
  8
0
  6
PHANTOM
 62
     8
370
     0
100
AcDbLine
 10
1.8182574173
 20
9.2237013228
 30
0.0
 11
1.8182574173
 21
9.3111130596
 31
0.0
  0
LINE
  5
1FD
330
1F
100
AcDbEntity
  8
0
  6
PHANTOM
 62
     8
370
     0
100
AcDbLine
 10
1.8182574173
 20
9.3111130596
 30
0.0
 11
1.9378861687
 21
9.3111130596
 31
0.0
  0
LWPOLYLINE
  5
1FE
330
1F
100
AcDbEntity
  8
0
  6
PHANTOM
 62
     8
370
     0
100
AcDbPolyline
 90
        9
 70
   128
 43
0.0
 10
8.4035146772
 20
7.1365836733
 10
8.4218917983
 20
7.1300353023
 10
8.4395628741
 20
7.1237386084
 10
8.4558485527
 20
7.1179355154
 10
8.4701231611
 20
7.1128491008
 10
8.4818378791
 20
7.1086747957
 10
8.4905427385
 20
7.1055729782
 10
8.49590305
 20
7.103662887
 10
8.497713189
 20
7.1030179277
  0
ARC
  5
1FF
330
1F
100
AcDbEntity
  8
0
  6
PHANTOM
 62
     8
370
     0
100
AcDbCircle
 10
5.4748860473
 20
8.180142498
 30
0.0
 40
3.109000000000001
100
AcDbArc
 50
340.3874814873
 51
19.6125185127
  0
LINE
  5
200
330
1F
100
AcDbEntity
  8
0
  6
PHANTOM
 62
     8
370
     0
100
AcDbLine
 10
4.5428860489
 20
8.4631883866
 30
0.0
 11
4.6403860625
 21
8.4631883866
 31
0.0
  0
LINE
  5
201
330
1F
100
AcDbEntity
  8
0
  6
PHANTOM
 62
     8
370
     0
100
AcDbLine
 10
4.5428860489
 20
7.1365836733
 30
0.0
 11
8.4035146772
 21
7.1365836733
 31
0.0
  0
LINE
  5
202
330
1F
100
AcDbEntity
  8
0
  6
PHANTOM
 62
     8
370
     0
100
AcDbLine
 10
4.6403860625
 20
7.8970966095
 30
0.0
 11
4.5428860489
 21
7.8970966095
 31
0.0
  0
ARC
  5
203
330
1F
100
AcDbEntity
  8
0
  6
PHANTOM
 62
     8
370
     0
100
AcDbCircle
 10
4.6403860473
 20
8.180142498
 30
0.0
 40
0.2830458942492973
100
AcDbArc
 50
270.0
 51
90.0
  0
LINE
  5
204
330
1F
100
AcDbEntity
  8
0
  6
PHANTOM
 62
     8
370
     0
100
AcDbLine
 10
4.6403860625
 20
7.8970966095
 30
0.0
 11
4.6403860625
 21
7.9387446034
 31
0.0
  0
ARC
  5
205
330
1F
100
AcDbEntity
  8
0
  6
PHANTOM
 62
     8
370
     0
100
AcDbCircle
 10
4.6403860473
 20
8.180142498
 30
0.0
 40
0.2413978984325045
100
AcDbArc
 50
270.0
 51
90.0
  0
LINE
  5
206
330
1F
100
AcDbEntity
  8
0
  6
PHANTOM
 62
     8
370
     0
100
AcDbLine
 10
4.6403860625
 20
8.4631883866
 30
0.0
 11
4.6403860625
 21
8.4215403927
 31
0.0
  0
LINE
  5
207
330
1F
100
AcDbEntity
  8
0
  6
PHANTOM
 62
     8
370
     0
100
AcDbLine
 10
4.6403860625
 20
8.4215403927
 30
0.0
 11
4.5617083348
 21
8.4215403927
 31
0.0
  0
LINE
  5
208
330
1F
100
AcDbEntity
  8
0
  6
PHANTOM
 62
     8
370
     0
100
AcDbLine
 10
4.5617083348
 20
7.9387446034
 30
0.0
 11
4.6403860625
 21
7.9387446034
 31
0.0
  0
LINE
  5
209
330
1F
100
AcDbEntity
  8
0
  6
PHANTOM
 62
     8
370
     0
100
AcDbLine
 10
1.8182574173
 20
7.1365836733
 30
0.0
 11
1.8182574173
 21
7.0491719364
 31
0.0
  0
ARC
  5
20A
330
1F
100
AcDbEntity
  8
0
  6
PHANTOM
 62
     8
370
     0
100
AcDbCircle
 10
1.8060654917
 20
7.1371620326
 30
0.0
 40
0.0888307383150303
100
AcDbArc
 50
202.6047981201
 51
277.8886860051
  0
LINE
  5
20B
330
1F
100
AcDbEntity
  8
0
  6
PHANTOM
 62
     8
370
     0
100
AcDbLine
 10
8.4035146772
 20
7.1365836733
 30
0.0
 11
8.4035146772
 21
7.0491719364
 31
0.0
  0
LINE
  5
20C
330
1F
100
AcDbEntity
  8
0
  6
PHANTOM
 62
     8
370
     0
100
AcDbLine
 10
8.4035146772
 20
7.0491719364
 30
0.0
 11
4.5428860489
 21
7.0491719364
 31
0.0
  0
ARC
  5
20D
330
1F
100
AcDbEntity
  8
0
  6
PHANTOM
 62
     8
370
     0
100
AcDbCircle
 10
8.4157066029
 20
7.1371620326
 30
0.0
 40
0.0888307383150305
100
AcDbArc
 50
262.1113139949
 51
337.39520188
  0
LINE
  5
20E
330
1F
100
AcDbEntity
  8
0
  6
PHANTOM
 62
     8
370
     0
100
AcDbLine
 10
1.9378861687
 20
7.0491719364
 30
0.0
 11
1.8182574173
 21
7.0491719364
 31
0.0
  0
LINE
  5
20F
330
1F
100
AcDbEntity
  8
0
  6
PHANTOM
 62
     8
370
     0
100
AcDbLine
 10
4.6403860625
 20
8.338244405
 30
0.0
 11
4.6402575107
 21
8.338244405
 31
0.0
  0
LINE
  5
210
330
1F
100
AcDbEntity
  8
0
  6
PHANTOM
 62
     8
370
     0
100
AcDbLine
 10
4.6403860625
 20
8.4215403927
 30
0.0
 11
4.6403860625
 21
8.338244405
 31
0.0
  0
ARC
  5
211
330
1F
100
AcDbEntity
  8
0
  6
PHANTOM
 62
     8
370
     0
100
AcDbCircle
 10
4.6403860473
 20
8.180142498
 30
0.0
 40
0.1581019067989189
100
AcDbArc
 50
270.0
 51
90.0
  0
LINE
  5
212
330
1F
100
AcDbEntity
  8
0
  6
PHANTOM
 62
     8
370
     0
100
AcDbLine
 10
4.6403860625
 20
7.9387446034
 30
0.0
 11
4.6403860625
 21
8.0220405911
 31
0.0
  0
LINE
  5
213
330
1F
100
AcDbEntity
  8
0
  6
PHANTOM
 62
     8
370
     0
100
AcDbLine
 10
4.6402575107
 20
8.0220405911
 30
0.0
 11
4.6403860625
 21
8.0220405911
 31
0.0
  0
SPLINE
  5
214
330
1F
100
AcDbEntity
  8
0
  6
PHANTOM
 62
     8
370
     0
100
AcDbSpline
210
0.0
220
0.0
230
1.0
 70
     8
 71
     3
 72
    10
 73
     6
 74
     0
 42
0.00000001
 43
0.00000001
 40
0.0
 40
0.0
 40
0.0
 40
0.0
 40
0.2906043939789617
 40
0.5904114182666147
 40
1.0
 40
1.0
 40
1.0
 40
1.0
 10
8.403514677228605
 20
9.311113059638574
 30
0.0
 10
8.399800254071357
 20
9.318488801624227
 30
0.0
 10
8.392253782339509
 20
9.33347385476432
 30
0.0
 10
8.375265742124178
 20
9.36591755337353
 30
0.0
 10
8.360171933742523
 20
9.392731926818989
 30
0.0
 10
8.351457118601964
 20
9.408213924587763
 30
0.0
  0
LINE
  5
215
330
1F
100
AcDbEntity
  8
0
  6
PHANTOM
 62
     8
370
     0
100
AcDbLine
 10
8.3514571186
 20
9.4082139246
 30
0.0
 11
4.5428860489
 21
9.4082139246
 31
0.0
  0
SPLINE
  5
216
330
1F
100
AcDbEntity
  8
0
  6
PHANTOM
 62
     8
370
     0
100
AcDbSpline
210
0.0
220
0.0
230
1.0
 70
     8
 71
     3
 72
    10
 73
     6
 74
     0
 42
0.00000001
 43
0.00000001
 40
0.0
 40
0.0
 40
0.0
 40
0.0
 40
0.4095895946765596
 40
0.7003581754185552
 40
1.0
 40
1.0
 40
1.0
 40
1.0
 10
1.87031497597572
 20
9.408213924587763
 30
0.0
 10
1.861599393996205
 20
9.39273117964631
 30
0.0
 10
1.846696600633731
 20
9.366257199011548
 30
0.0
 10
1.829661684100901
 20
9.333752877906406
 30
0.0
 10
1.82209673731561
 20
9.318734900499184
 30
0.0
 10
1.818257417349079
 20
9.311113059638574
 30
0.0
  0
LWPOLYLINE
  5
217
330
1F
100
AcDbEntity
  8
0
  6
PHANTOM
 62
     8
370
     0
100
AcDbPolyline
 90
        9
 70
   128
 43
0.0
 10
1.870314976
 20
9.4082139246
 10
1.8540935367
 20
9.4125695809
 10
1.8383575585
 20
9.4153416956
 10
1.8235775426
 20
9.4164475495
 10
1.8101958305
 20
9.4158538497
 10
1.7986125243
 20
9.4135784893
 10
1.7891746333
 20
9.4096894475
 10
1.782164341
 20
9.4043031764
 10
1.7777910848
 20
9.3975807141
  0
LINE
  5
218
330
1F
100
AcDbEntity
  8
0
  6
PHANTOM
 62
     8
370
     0
100
AcDbLine
 10
1.9378861687
 20
9.4082139246
 30
0.0
 11
1.870314976
 21
9.4082139246
 31
0.0
  0
LWPOLYLINE
  5
219
330
1F
100
AcDbEntity
  8
0
  6
PHANTOM
 62
     8
370
     0
100
AcDbPolyline
 90
        9
 70
   128
 43
0.0
 10
8.3514571186
 20
9.4082139246
 10
8.3676785579
 20
9.4125695809
 10
8.3834145361
 20
9.4153416956
 10
8.398194552
 20
9.4164475495
 10
8.4115762641
 20
9.4158538497
 10
8.4231595703
 20
9.4135784893
 10
8.4325974613
 20
9.4096894475
 10
8.4396077536
 20
9.4043031764
 10
8.4439810098
 20
9.3975807141
  0
SPLINE
  5
21A
330
1F
100
AcDbEntity
  8
0
  6
PHANTOM
 62
     8
370
     0
100
AcDbSpline
210
0.0
220
0.0
230
1.0
 70
     8
 71
     3
 72
    10
 73
     6
 74
     0
 42
0.00000001
 43
0.00000001
 40
0.0
 40
0.0
 40
0.0
 40
0.0
 40
0.4095895946765596
 40
0.7003581754185552
 40
1.0
 40
1.0
 40
1.0
 40
1.0
 10
8.351457118601964
 20
6.952071071492925
 30
0.0
 10
8.36017270058148
 20
6.967553816434379
 30
0.0
 10
8.375075493943953
 20
6.994027797069141
 30
0.0
 10
8.392110410476782
 20
7.026532118174282
 30
0.0
 10
8.399675357262074
 20
7.041550095581505
 30
0.0
 10
8.403514677228605
 20
7.049171936442114
 30
0.0
  0
LWPOLYLINE
  5
21B
330
1F
100
AcDbEntity
  8
0
  6
PHANTOM
 62
     8
370
     0
100
AcDbPolyline
 90
        9
 70
   128
 43
0.0
 10
8.3514571186
 20
6.9520710715
 10
8.3676785579
 20
6.9477154151
 10
8.3834145361
 20
6.9449433005
 10
8.398194552
 20
6.9438374466
 10
8.4115762641
 20
6.9444311464
 10
8.4231595703
 20
6.9467065068
 10
8.4325974613
 20
6.9505955485
 10
8.4396077536
 20
6.9559818196
 10
8.4439810098
 20
6.962704282
  0
SPLINE
  5
21C
330
1F
100
AcDbEntity
  8
0
  6
PHANTOM
 62
     8
370
     0
100
AcDbSpline
210
0.0
220
0.0
230
1.0
 70
     8
 71
     3
 72
    10
 73
     6
 74
     0
 42
0.00000001
 43
0.00000001
 40
0.0
 40
0.0
 40
0.0
 40
0.0
 40
0.2906043939789617
 40
0.5904114182666147
 40
1.0
 40
1.0
 40
1.0
 40
1.0
 10
1.818257417349079
 20
7.049171936442114
 30
0.0
 10
1.821971840506327
 20
7.04179619445646
 30
0.0
 10
1.829518312238175
 20
7.02681114131637
 30
0.0
 10
1.846506352453505
 20
6.994367442707158
 30
0.0
 10
1.861600160835162
 20
6.967553069261699
 30
0.0
 10
1.87031497597572
 20
6.952071071492925
 30
0.0
  0
LWPOLYLINE
  5
21D
330
1F
100
AcDbEntity
  8
0
  6
PHANTOM
 62
     8
370
     0
100
AcDbPolyline
 90
        9
 70
   128
 43
0.0
 10
1.870314976
 20
6.9520710715
 10
1.8540935367
 20
6.9477154151
 10
1.8383575585
 20
6.9449433005
 10
1.8235775426
 20
6.9438374466
 10
1.8101958305
 20
6.9444311464
 10
1.7986125243
 20
6.9467065068
 10
1.7891746333
 20
6.9505955485
 10
1.782164341
 20
6.9559818196
 10
1.7777910848
 20
6.962704282
  0
LINE
  5
21E
330
1F
100
AcDbEntity
  8
0
  6
PHANTOM
 62
     8
370
     0
100
AcDbLine
 10
4.5428860489
 20
6.9520710715
 30
0.0
 11
8.3514571186
 21
6.9520710715
 31
0.0
  0
LINE
  5
21F
330
1F
100
AcDbEntity
  8
0
  6
PHANTOM
 62
     8
370
     0
100
AcDbLine
 10
1.870314976
 20
6.9520710715
 30
0.0
 11
1.9378861687
 21
6.9520710715
 31
0.0
  0
LINE
  5
220
330
1F
100
AcDbEntity
  8
0
  6
PHANTOM
 62
     8
370
     0
100
AcDbLine
 10
8.3514571186
 20
9.4082139246
 30
0.0
 11
8.3514571186
 21
9.4596424371
 31
0.0
  0
LINE
  5
221
330
1F
100
AcDbEntity
  8
0
  6
PHANTOM
 62
     8
370
     0
100
AcDbLine
 10
1.870314976
 20
9.4082139246
 30
0.0
 11
1.870314976
 21
9.4596424371
 31
0.0
  0
LINE
  5
222
330
1F
100
AcDbEntity
  8
0
  6
PHANTOM
 62
     8
370
     0
100
AcDbLine
 10
8.3514571186
 20
6.9520710715
 30
0.0
 11
8.3514571186
 21
6.9006425589
 31
0.0
  0
LINE
  5
223
330
1F
100
AcDbEntity
  8
0
  6
PHANTOM
 62
     8
370
     0
100
AcDbLine
 10
1.870314976
 20
6.9520710715
 30
0.0
 11
1.870314976
 21
6.9006425589
 31
0.0
  0
LINE
  5
224
330
1F
100
AcDbEntity
  8
0
  6
PHANTOM
 62
     8
370
     0
100
AcDbLine
 10
1.9378861687
 20
9.3464068853
 30
0.0
 11
1.9408860541
 21
9.3464068853
 31
0.0
  0
LINE
  5
225
330
1F
100
AcDbEntity
  8
0
  6
PHANTOM
 62
     8
370
     0
100
AcDbLine
 10
1.9408860541
 20
9.2986843765
 30
0.0
 11
1.9378861687
 21
9.2986843765
 31
0.0
  0
LINE
  5
226
330
1F
100
AcDbEntity
  8
0
  6
PHANTOM
 62
     8
370
     0
100
AcDbLine
 10
1.9378861687
 20
7.0616006195
 30
0.0
 11
1.9408860541
 21
7.0616006195
 31
0.0
  0
LINE
  5
227
330
1F
100
AcDbEntity
  8
0
  6
PHANTOM
 62
     8
370
     0
100
AcDbLine
 10
1.9408860541
 20
7.0138781108
 30
0.0
 11
1.9378861687
 21
7.0138781108
 31
0.0
  0
LINE
  5
228
330
1F
100
AcDbEntity
  8
0
  6
PHANTOM
 62
     8
370
     0
100
AcDbLine
 10
1.9378861687
 20
8.7906286257
 30
0.0
 11
1.9408860541
 21
8.7906286257
 31
0.0
  0
LINE
  5
229
330
1F
100
AcDbEntity
  8
0
  6
PHANTOM
 62
     8
370
     0
100
AcDbLine
 10
1.9408860541
 20
7.5696563704
 30
0.0
 11
1.9378861687
 21
7.5696563704
 31
0.0
  0
LINE
  5
22A
330
1F
100
AcDbEntity
  8
0
  6
PHANTOM
 62
     8
370
     0
100
AcDbLine
 10
1.9408860541
 20
8.7046563688
 30
0.0
 11
1.9378861687
 21
8.7046563688
 31
0.0
  0
LINE
  5
22B
330
1F
100
AcDbEntity
  8
0
  6
PHANTOM
 62
     8
370
     0
100
AcDbLine
 10
1.9378861687
 20
8.2231286402
 30
0.0
 11
1.9408860541
 21
8.2231286402
 31
0.0
  0
LINE
  5
22C
330
1F
100
AcDbEntity
  8
0
  6
PHANTOM
 62
     8
370
     0
100
AcDbLine
 10
1.9408860541
 20
8.1371563559
 30
0.0
 11
1.9378861687
 21
8.1371563559
 31
0.0
  0
LINE
  5
22D
330
1F
100
AcDbEntity
  8
0
  6
PHANTOM
 62
     8
370
     0
100
AcDbLine
 10
1.9378861687
 20
7.6556286273
 30
0.0
 11
1.9408860541
 21
7.6556286273
 31
0.0
  0
DIMENSION
  5
22E
330
1F
100
AcDbEntity
  8
0
  6
Continuous
 62
     7
370
     0
100
AcDbDimension
  2
*D19
 10
9.7336726654
 20
7.274642498
 30
0.0
 11
9.7336726654
 21
8.180142498
 31
0.0
 70
   160
 71
     2
 42
-1.0
  3
SLDDIMSTYLE0
100
AcDbAlignedDimension
 13
8.3388860473
 23
9.085642498
 33
0.0
 14
8.3388860473
 24
7.274642498
 34
0.0
 50
90.0
100
AcDbRotatedDimension
  0
DIMENSION
  5
23A
330
1F
100
AcDbEntity
  8
0
  6
Continuous
 62
     7
370
     0
100
AcDbDimension
  2
*D20
 10
1.1441852599
 20
7.707642498
 30
0.0
 11
1.1441852599
 21
8.180142498
 31
0.0
 70
   160
 71
     2
 42
-1.0
  3
SLDDIMSTYLE0
100
AcDbAlignedDimension
 13
1.7648860473
 23
8.652642498
 33
0.0
 14
1.7648860473
 24
7.707642498
 34
0.0
 50
90.0
100
AcDbRotatedDimension
  0
DIMENSION
  5
245
330
1F
100
AcDbEntity
  8
0
  6
Continuous
 62
     7
370
     0
100
AcDbDimension
  2
*D21
 10
1.7648860473
 20
9.8533432854
 30
0.0
 11
5.0518860473
 21
9.8533432854
 31
0.0
 70
   160
 71
     2
 42
-1.0
  3
SLDDIMSTYLE0
100
AcDbAlignedDimension
 13
8.3388860473
 23
9.085642498
 33
0.0
 14
1.7648860473
 24
8.652642498
 34
0.0
100
AcDbRotatedDimension
  0
DIMENSION
  5
250
330
1F
100
AcDbEntity
  8
0
  6
Continuous
 62
     7
370
     0
100
AcDbDimension
  2
*D22
 10
9.1919680279
 20
7.980142498
 30
0.0
 11
9.1919680279
 21
8.180142498
 31
0.0
 70
   160
 71
     2
 42
-1.0
  3
SLDDIMSTYLE1
100
AcDbAlignedDimension
 13
8.3980262693
 23
8.380142498
 33
0.0
 14
8.3980262693
 24
7.980142498
 34
0.0
 50
90.0
100
AcDbRotatedDimension
  0
DIMENSION
  5
25C
330
1F
100
AcDbEntity
  8
0
  6
Continuous
 62
     7
370
     0
100
AcDbDimension
  2
*D23
 10
8.2652172646
 20
9.0339423003
 30
0.0
 11
9.7336726654
 21
9.4379937108
 31
0.0
 70
   163
  1
<> O.D. TYP.
 71
     1
 42
-1.0
  3
SLDDIMSTYLE2
100
AcDbDiametricDimension
 15
8.41255483
 25
9.1373426958
 35
0.0
 40
0.0
  0
DIMENSION
  5
267
330
1F
100
AcDbEntity
  8
0
  6
Continuous
 62
     7
370
     0
100
AcDbDimension
  2
*D24
 10
8.509859085
 20
7.487787548
 30
0.0
 11
9.0775868347
 21
7.487787548
 31
0.0
 70
   160
 71
     2
 42
-1.0
  3
SLDDIMSTYLE3
100
AcDbAlignedDimension
 13
8.2165672889
 23
8.010142498
 33
0.0
 14
8.509859085
 24
8.1667260902
 34
0.0
100
AcDbRotatedDimension
  0
DIMENSION
  5
273
330
1F
100
AcDbEntity
  8
0
  6
Continuous
 62
     7
370
     0
100
AcDbDimension
  2
*D25
 10
4.5408860473
 20
6.5942552108
 30
0.0
 11
3.2408860473
 21
6.5942552108
 31
0.0
 70
   160
 71
     2
 42
-1.0
  3
SLDDIMSTYLE4
100
AcDbAlignedDimension
 13
1.9408860473
 23
6.9012428462
 33
0.0
 14
4.5408860473
 24
6.9012428462
 34
0.0
 50
0.0
100
AcDbRotatedDimension
  0
DIMENSION
  5
27F
330
1F
100
AcDbEntity
  8
0
  6
Continuous
 62
     7
370
     0
100
AcDbDimension
  2
*D26
 10
8.3118266237
 20
7.3135462278
 30
0.0
 11
9.6086980131
 21
6.6475592415
 31
0.0
 70
   163
  1
<> I.D. TYP.
 71
     1
 42
-1.0
  3
SLDDIMSTYLE5
100
AcDbDiametricDimension
 15
8.3659454708
 25
7.2357387683
 35
0.0
 40
0.0
  0
LINE
  5
28A
330
1F
100
AcDbEntity
  8
0
  6
Continuous
 62
     7
370
     0
100
AcDbLine
 10
13.4609244082
 20
6.0901937219
 30
0.0
 11
13.4609244082
 21
6.0991937446
 31
0.0
  0
LINE
  5
28B
330
1F
100
AcDbEntity
  8
0
  6
Continuous
 62
     7
370
     0
100
AcDbLine
 10
13.3049244304
 20
6.0991937446
 30
0.0
 11
13.3049244304
 21
6.0901937219
 31
0.0
  0
ARC
  5
28C
330
1F
100
AcDbEntity
  8
0
  6
Continuous
 62
     7
370
     0
100
AcDbCircle
 10
13.3829244065
 20
6.0991937338
 30
0.0
 40
0.0780000000000012
100
AcDbArc
 50
0.0
 51
180.0
  0
LINE
  5
28D
330
1F
100
AcDbEntity
  8
0
  6
Continuous
 62
     7
370
     0
100
AcDbLine
 10
11.8709243827
 20
6.0901937219
 30
0.0
 11
11.8709243827
 21
6.0991937446
 31
0.0
  0
LINE
  5
28E
330
1F
100
AcDbEntity
  8
0
  6
Continuous
 62
     7
370
     0
100
AcDbLine
 10
11.7149244048
 20
6.0991937446
 30
0.0
 11
11.7149244048
 21
6.0901937219
 31
0.0
  0
ARC
  5
28F
330
1F
100
AcDbEntity
  8
0
  6
Continuous
 62
     7
370
     0
100
AcDbCircle
 10
11.7929244065
 20
6.0991937338
 30
0.0
 40
0.0780000000000012
100
AcDbArc
 50
0.0
 51
180.0
  0
LINE
  5
290
330
1F
100
AcDbEntity
  8
0
  6
Continuous
 62
     7
370
     0
100
AcDbLine
 10
12.332924399
 20
6.1175867788
 30
0.0
 11
12.332924399
 21
6.0901937219
 31
0.0
  0
ELLIPSE
  5
291
330
1F
100
AcDbEntity
  8
0
  6
Continuous
 62
     7
370
     0
100
AcDbEllipse
 10
12.5879244065
 20
6.0795986818
 30
0.0
 11
0.2967241379310348
 21
0.0
 31
0.0
210
0.0
220
0.0
230
1.0
 40
0.2503761676
 41
1.784981929390107
 42
2.604860231777987
  0
LINE
  5
292
330
1F
100
AcDbEntity
  8
0
  6
Continuous
 62
     7
370
     0
100
AcDbLine
 10
12.5248551822
 20
6.1521937357
 30
0.0
 11
12.6509936309
 21
6.1521937357
 31
0.0
  0
ELLIPSE
  5
293
330
1F
100
AcDbEntity
  8
0
  6
Continuous
 62
     7
370
     0
100
AcDbEllipse
 10
12.5879244065
 20
6.0795986818
 30
0.0
 11
0.2967241379310348
 21
0.0
 31
0.0
210
0.0
220
0.0
230
1.0
 40
0.2503761676
 41
0.53673242181181
 42
1.356610724199692
  0
LINE
  5
294
330
1F
100
AcDbEntity
  8
0
  6
Continuous
 62
     7
370
     0
100
AcDbLine
 10
12.8429244141
 20
6.1175867788
 30
0.0
 11
12.8429244141
 21
6.0901937219
 31
0.0
  0
LINE
  5
295
330
1F
100
AcDbEntity
  8
0
  6
Continuous
 62
     7
370
     0
100
AcDbLine
 10
13.8053626226
 20
5.5511937335
 30
0.0
 11
11.3704861905
 21
5.5511937335
 31
0.0
  0
LINE
  5
296
330
1F
100
AcDbEntity
  8
0
  6
Continuous
 62
     7
370
     0
100
AcDbLine
 10
11.5443655818
 20
6.0901937219
 30
0.0
 11
13.6314832313
 21
6.0901937219
 31
0.0
  0
SPLINE
  5
297
330
1F
100
AcDbEntity
  8
0
  6
Continuous
 62
     7
370
     0
100
AcDbSpline
210
0.0
220
0.0
230
1.0
 70
     8
 71
     3
 72
    10
 73
     6
 74
     0
 42
0.00000001
 43
0.00000001
 40
0.0
 40
0.0
 40
0.0
 40
0.0
 40
0.2906043939789617
 40
0.5904114182666147
 40
1.0
 40
1.0
 40
1.0
 40
1.0
 10
13.71889496814419
 20
6.038765172690066
 30
0.0
 10
13.72627071012984
 20
6.026943510951377
 30
0.0
 10
13.74125576326993
 20
6.00292582843171
 30
0.0
 10
13.77369946187914
 20
5.96880729839448
 30
0.0
 10
13.8005138353246
 20
5.951599621543767
 30
0.0
 10
13.81599583309338
 20
5.941664307740878
 30
0.0
  0
SPLINE
  5
298
330
1F
100
AcDbEntity
  8
0
  6
Continuous
 62
     7
370
     0
100
AcDbSpline
210
0.0
220
0.0
230
1.0
 70
     8
 71
     3
 72
    10
 73
     6
 74
     0
 42
0.00000001
 43
0.00000001
 40
0.0
 40
0.0
 40
0.0
 40
0.0
 40
0.4095895946765596
 40
0.7003581754185552
 40
1.0
 40
1.0
 40
1.0
 40
1.0
 10
11.35985297999854
 20
5.941664307740878
 30
0.0
 10
11.37533572493999
 20
5.951598561207445
 30
0.0
 10
11.40180970557475
 20
5.968585163705209
 30
0.0
 10
11.4343140266799
 20
6.002588641965247
 30
0.0
 10
11.44933200408712
 20
6.026586110260697
 30
0.0
 10
11.45695384494773
 20
6.038765172690066
 30
0.0
  0
ARC
  5
299
330
1F
100
AcDbEntity
  8
0
  6
Continuous
 62
     7
370
     0
100
AcDbCircle
 10
13.6314832357
 20
5.9901937338
 30
0.0
 40
0.099999999999999
100
AcDbArc
 50
29.059281068
 51
90.0
  0
ARC
  5
29A
330
1F
100
AcDbEntity
  8
0
  6
Continuous
 62
     7
370
     0
100
AcDbCircle
 10
11.5443655774
 20
5.9901937338
 30
0.0
 40
0.099999999999999
100
AcDbArc
 50
90.0
 51
150.940718932
  0
LINE
  5
29B
330
1F
100
AcDbEntity
  8
0
  6
Continuous
 62
     7
370
     0
100
AcDbLine
 10
13.8674243457
 20
5.8542525709
 30
0.0
 11
13.8674243457
 21
5.5511937335
 31
0.0
  0
LINE
  5
29C
330
1F
100
AcDbEntity
  8
0
  6
Continuous
 62
     7
370
     0
100
AcDbLine
 10
13.8674243457
 20
5.5511937335
 30
0.0
 11
13.8053626226
 21
5.5511937335
 31
0.0
  0
ARC
  5
29D
330
1F
100
AcDbEntity
  8
0
  6
Continuous
 62
     7
370
     0
100
AcDbCircle
 10
13.7674244065
 20
5.854252563
 30
0.0
 40
0.1000000000000014
100
AcDbArc
 50
0.0
 51
60.940718932
  0
ARC
  5
29E
330
1F
100
AcDbEntity
  8
0
  6
Continuous
 62
     7
370
     0
100
AcDbCircle
 10
11.4084244065
 20
5.854252563
 30
0.0
 40
0.099999999999999
100
AcDbArc
 50
119.059281068
 51
180.0
  0
LINE
  5
29F
330
1F
100
AcDbEntity
  8
0
  6
Continuous
 62
     7
370
     0
100
AcDbLine
 10
11.3084244674
 20
5.5511937335
 30
0.0
 11
11.3084244674
 21
5.8542525709
 31
0.0
  0
LINE
  5
2A0
330
1F
100
AcDbEntity
  8
0
  6
Continuous
 62
     7
370
     0
100
AcDbLine
 10
11.3704861905
 20
5.5511937335
 30
0.0
 11
11.3084244674
 21
5.5511937335
 31
0.0
  0
LINE
  5
2A1
330
1F
100
AcDbEntity
  8
0
  6
Continuous
 62
     7
370
     0
100
AcDbLine
 10
13.8324243633
 20
5.5391937338
 30
0.0
 11
13.8324243633
 21
5.5511937335
 31
0.0
  0
LINE
  5
2A2
330
1F
100
AcDbEntity
  8
0
  6
Continuous
 62
     7
370
     0
100
AcDbLine
 10
11.3434244498
 20
5.5391937338
 30
0.0
 11
11.3434244498
 21
5.5511937335
 31
0.0
  0
LINE
  5
2A3
330
1F
100
AcDbEntity
  8
0
  6
Continuous
 62
     7
370
     0
100
AcDbLine
 10
11.3084244674
 20
5.8101937348
 30
0.0
 11
11.3084244674
 21
5.8151937271
 31
0.0
  0
LINE
  5
2A4
330
1F
100
AcDbEntity
  8
0
  6
Continuous
 62
     7
370
     0
100
AcDbLine
 10
13.8674243457
 20
5.8101937348
 30
0.0
 11
13.8674243457
 21
5.8151937271
 31
0.0
  0
LINE
  5
2A5
330
1F
100
AcDbEntity
  8
0
  6
Continuous
 62
     7
370
     0
100
AcDbLine
 10
13.7694244244
 20
5.0031937224
 30
0.0
 11
11.4064243887
 21
5.0031937224
 31
0.0
  0
LINE
  5
2A6
330
1F
100
AcDbEntity
  8
0
  6
Continuous
 62
     7
370
     0
100
AcDbLine
 10
11.3692058053
 20
5.5391937338
 30
0.0
 11
13.8066430078
 21
5.5391937338
 31
0.0
  0
ARC
  5
2A7
330
1F
100
AcDbEntity
  8
0
  6
Continuous
 62
     7
370
     0
100
AcDbCircle
 10
13.7694244065
 20
5.1011937338
 30
0.0
 40
0.0980000000000008
100
AcDbArc
 50
270.0
 51
0.0
  0
LINE
  5
2A8
330
1F
100
AcDbEntity
  8
0
  6
Continuous
 62
     7
370
     0
100
AcDbLine
 10
13.8674243457
 20
5.5391937338
 30
0.0
 11
13.8674243457
 21
5.1011937169
 31
0.0
  0
LINE
  5
2A9
330
1F
100
AcDbEntity
  8
0
  6
Continuous
 62
     7
370
     0
100
AcDbLine
 10
13.8066430078
 20
5.5391937338
 30
0.0
 11
13.8674243457
 21
5.5391937338
 31
0.0
  0
LINE
  5
2AA
330
1F
100
AcDbEntity
  8
0
  6
Continuous
 62
     7
370
     0
100
AcDbLine
 10
11.3084244674
 20
5.1011937169
 30
0.0
 11
11.3084244674
 21
5.5391937338
 31
0.0
  0
LINE
  5
2AB
330
1F
100
AcDbEntity
  8
0
  6
Continuous
 62
     7
370
     0
100
AcDbLine
 10
11.3084244674
 20
5.5391937338
 30
0.0
 11
11.3692058053
 21
5.5391937338
 31
0.0
  0
ARC
  5
2AC
330
1F
100
AcDbEntity
  8
0
  6
Continuous
 62
     7
370
     0
100
AcDbCircle
 10
11.4064244065
 20
5.1011937338
 30
0.0
 40
0.0980000000000008
100
AcDbArc
 50
180.0
 51
270.0
  0
LINE
  5
2AD
330
1F
100
AcDbEntity
  8
0
  6
PHANTOM
 62
     8
370
     0
100
AcDbLine
 10
13.3049244304
 20
6.0991937446
 30
0.0
 11
13.4609244082
 21
6.0991937446
 31
0.0
  0
LINE
  5
2AE
330
1F
100
AcDbEntity
  8
0
  6
PHANTOM
 62
     8
370
     0
100
AcDbLine
 10
11.8709243827
 20
6.0991937446
 30
0.0
 11
11.7149244048
 21
6.0991937446
 31
0.0
  0
LINE
  5
2AF
330
1F
100
AcDbEntity
  8
0
  6
PHANTOM
 62
     8
370
     0
100
AcDbLine
 10
11.3704861905
 20
5.8542525709
 30
0.0
 11
11.3704861905
 21
5.5511937335
 31
0.0
  0
SPLINE
  5
2B0
330
1F
100
AcDbEntity
  8
0
  6
PHANTOM
 62
     8
370
     0
100
AcDbSpline
210
0.0
220
0.0
230
1.0
 70
     8
 71
     3
 72
    10
 73
     6
 74
     0
 42
0.00000001
 43
0.00000001
 40
0.0
 40
0.0
 40
0.0
 40
0.0
 40
0.2920471523524346
 40
0.5930715547789365
 40
1.0
 40
1.0
 40
1.0
 40
1.0
 10
11.51079983624757
 20
5.990193730458179
 30
0.0
 10
11.5001804250073
 20
5.973695994996906
 30
0.0
 10
11.47861517198436
 20
5.940193399468972
 30
0.0
 10
11.43189401345725
 20
5.892471490860472
 30
0.0
 10
11.39289986815115
 20
5.86820236604874
 30
0.0
 10
11.37048619049612
 20
5.854252570862054
 30
0.0
  0
LINE
  5
2B1
330
1F
100
AcDbEntity
  8
0
  6
PHANTOM
 62
     8
370
     0
100
AcDbLine
 10
13.6650489768
 20
5.9901937305
 30
0.0
 11
11.5107998362
 21
5.9901937305
 31
0.0
  0
SPLINE
  5
2B2
330
1F
100
AcDbEntity
  8
0
  6
PHANTOM
 62
     8
370
     0
100
AcDbSpline
210
0.0
220
0.0
230
1.0
 70
     8
 71
     3
 72
    10
 73
     6
 74
     0
 42
0.00000001
 43
0.00000001
 40
0.0
 40
0.0
 40
0.0
 40
0.0
 40
0.4069292114324993
 40
0.6991083972523799
 40
1.0
 40
1.0
 40
1.0
 40
1.0
 10
13.8053626225958
 20
5.854252570862054
 30
0.0
 10
13.78294775387451
 20
5.868200892864197
 30
0.0
 10
13.74443878841785
 20
5.892164247583683
 30
0.0
 10
13.69762543244134
 20
5.93973315944212
 30
0.0
 10
13.676013623715
 20
5.973209613188719
 30
0.0
 10
13.66504897684434
 20
5.990193730458179
 30
0.0
  0
LINE
  5
2B3
330
1F
100
AcDbEntity
  8
0
  6
PHANTOM
 62
     8
370
     0
100
AcDbLine
 10
13.8053626226
 20
5.5511937335
 30
0.0
 11
13.8053626226
 21
5.8542525709
 31
0.0
  0
LWPOLYLINE
  5
2B4
330
1F
100
AcDbEntity
  8
0
  6
PHANTOM
 62
     8
370
     0
100
AcDbPolyline
 90
        9
 70
   128
 43
0.0
 10
11.5443655818
 20
6.0901937219
 10
11.5378172108
 20
6.0882722641
 10
11.5315205169
 20
6.0825816999
 10
11.5257174239
 20
6.0733407066
 10
11.5206310093
 20
6.0609043969
 10
11.5164567042
 20
6.045750752
 10
11.5133548867
 20
6.0284620684
 10
11.5114447955
 20
6.0097027751
 10
11.5107998362
 20
5.9901937305
  0
LWPOLYLINE
  5
2B5
330
1F
100
AcDbEntity
  8
0
  6
PHANTOM
 62
     8
370
     0
100
AcDbPolyline
 90
        9
 70
   128
 43
0.0
 10
13.6650489768
 20
5.9901937305
 10
13.6644040176
 20
6.0097027751
 10
13.6624939264
 20
6.0284620684
 10
13.6593921089
 20
6.045750752
 10
13.6552178037
 20
6.0609043969
 10
13.6501313892
 20
6.0733407066
 10
13.6443282962
 20
6.0825816999
 10
13.6380316023
 20
6.0882722641
 10
13.6314832313
 20
6.0901937219
  0
LINE
  5
2B6
330
1F
100
AcDbEntity
  8
0
  6
PHANTOM
 62
     8
370
     0
100
AcDbLine
 10
13.792084236
 20
5.5391937338
 30
0.0
 11
13.792084236
 21
5.5511937335
 31
0.0
  0
LINE
  5
2B7
330
1F
100
AcDbEntity
  8
0
  6
PHANTOM
 62
     8
370
     0
100
AcDbLine
 10
11.3837645771
 20
5.5391937338
 30
0.0
 11
11.3837645771
 21
5.5511937335
 31
0.0
  0
LWPOLYLINE
  5
2B8
330
1F
100
AcDbEntity
  8
0
  6
PHANTOM
 62
     8
370
     0
100
AcDbPolyline
 90
        9
 70
   128
 43
0.0
 10
13.8159958331
 20
5.9416643077
 10
13.8203514894
 20
5.9375327555
 10
13.8231236041
 20
5.9309096586
 10
13.824229458
 20
5.9219931983
 10
13.8236357582
 20
5.9110500847
 10
13.8213603978
 20
5.8984077108
 10
13.817471356
 20
5.8844443254
 10
13.8120850849
 20
5.8695777038
 10
13.8053626226
 20
5.8542525709
  0
ARC
  5
2B9
330
1F
100
AcDbEntity
  8
0
  6
PHANTOM
 62
     8
370
     0
100
AcDbCircle
 10
13.6258194509
 20
6.0878157155
 30
0.0
 40
0.1052093515997843
100
AcDbArc
 50
291.8927944004
 51
332.2108922296
  0
ARC
  5
2BA
330
1F
100
AcDbEntity
  8
0
  6
PHANTOM
 62
     8
370
     0
100
AcDbCircle
 10
11.5500293622
 20
6.0878157155
 30
0.0
 40
0.1052093515997843
100
AcDbArc
 50
207.7891077704
 51
248.1072055996
  0
LWPOLYLINE
  5
2BB
330
1F
100
AcDbEntity
  8
0
  6
PHANTOM
 62
     8
370
     0
100
AcDbPolyline
 90
        9
 70
   128
 43
0.0
 10
11.35985298
 20
5.9416643077
 10
11.3554973236
 20
5.9375327555
 10
11.352725209
 20
5.9309096586
 10
11.3516193551
 20
5.9219931983
 10
11.3522130549
 20
5.9110500847
 10
11.3544884153
 20
5.8984077108
 10
11.358377457
 20
5.8844443254
 10
11.3637637282
 20
5.8695777038
 10
11.3704861905
 20
5.8542525709
  0
LINE
  5
2BC
330
1F
100
AcDbEntity
  8
0
  6
PHANTOM
 62
     8
370
     0
100
AcDbLine
 10
13.8053626226
 20
5.8542525709
 30
0.0
 11
13.8674243457
 21
5.8542525709
 31
0.0
  0
LINE
  5
2BD
330
1F
100
AcDbEntity
  8
0
  6
PHANTOM
 62
     8
370
     0
100
AcDbLine
 10
11.3084244674
 20
5.8542525709
 30
0.0
 11
11.3704861905
 21
5.8542525709
 31
0.0
  0
LWPOLYLINE
  5
2BE
330
1F
100
AcDbEntity
  8
0
  6
PHANTOM
 62
     8
370
     0
100
AcDbPolyline
 90
        9
 70
   128
 43
0.0
 10
11.4064243887
 20
5.0031937224
 10
11.3991634459
 20
5.0050767906
 10
11.3921814599
 20
5.0106535429
 10
11.3857469009
 20
5.0197097016
 10
11.3801068994
 20
5.0318972674
 10
11.3754782995
 20
5.0467478659
 10
11.3720389326
 20
5.0636907502
 10
11.3699209437
 20
5.0820748745
 10
11.3692058053
 20
5.1011937169
  0
LINE
  5
2BF
330
1F
100
AcDbEntity
  8
0
  6
PHANTOM
 62
     8
370
     0
100
AcDbLine
 10
11.3692058053
 20
5.1011937169
 30
0.0
 11
13.8066430078
 21
5.1011937169
 31
0.0
  0
LWPOLYLINE
  5
2C0
330
1F
100
AcDbEntity
  8
0
  6
PHANTOM
 62
     8
370
     0
100
AcDbPolyline
 90
        9
 70
   128
 43
0.0
 10
13.7694244244
 20
5.0031937224
 10
13.7766853672
 20
5.0050767906
 10
13.7836673532
 20
5.0106535429
 10
13.7901019122
 20
5.0197097016
 10
13.7957419137
 20
5.0318972674
 10
13.8003705136
 20
5.0467478659
 10
13.8038098805
 20
5.0636907502
 10
13.8059278694
 20
5.0820748745
 10
13.8066430078
 20
5.1011937169
  0
LINE
  5
2C1
330
1F
100
AcDbEntity
  8
0
  6
PHANTOM
 62
     8
370
     0
100
AcDbLine
 10
13.8066430078
 20
5.1011937169
 30
0.0
 11
13.8066430078
 21
5.5391937338
 31
0.0
  0
LINE
  5
2C2
330
1F
100
AcDbEntity
  8
0
  6
PHANTOM
 62
     8
370
     0
100
AcDbLine
 10
11.3692058053
 20
5.5391937338
 30
0.0
 11
11.3692058053
 21
5.1011937169
 31
0.0
  0
LINE
  5
2C3
330
1F
100
AcDbEntity
  8
0
  6
PHANTOM
 62
     8
370
     0
100
AcDbLine
 10
13.8674243457
 20
5.1011937169
 30
0.0
 11
13.8066430078
 21
5.1011937169
 31
0.0
  0
LINE
  5
2C4
330
1F
100
AcDbEntity
  8
0
  6
PHANTOM
 62
     8
370
     0
100
AcDbLine
 10
11.3084244674
 20
5.1011937169
 30
0.0
 11
11.3692058053
 21
5.1011937169
 31
0.0
  0
DIMENSION
  5
2C5
330
1F
100
AcDbEntity
  8
0
  6
Continuous
 62
     7
370
     0
100
AcDbDimension
  2
*D27
 10
14.2008630045
 20
6.0901937338
 30
0.0
 11
14.2008630045
 21
5.8206937338
 31
0.0
 70
   160
 71
     2
 42
-1.0
  3
SLDDIMSTYLE3
100
AcDbAlignedDimension
 13
13.8674244065
 23
5.5511937338
 33
0.0
 14
13.5834244065
 24
6.0901937338
 34
0.0
 50
90.0
100
AcDbRotatedDimension
  0
DIMENSION
  5
2D0
330
1F
100
AcDbEntity
  8
0
  6
Continuous
 62
     7
370
     0
100
AcDbDimension
  2
*D28
 10
10.8380956542
 20
5.0031937338
 30
0.0
 11
10.8380956542
 21
5.2711937338
 31
0.0
 70
   160
 71
     2
 42
-1.0
  3
SLDDIMSTYLE3
100
AcDbAlignedDimension
 13
11.3084244065
 23
5.5391937338
 33
0.0
 14
11.4064244065
 24
5.0031937338
 34
0.0
 50
90.0
100
AcDbRotatedDimension
  0
INSERT
  5
2E7
330
1F
100
AcDbEntity
  8
0
  6
Continuous
 62
     7
370
     0
100
AcDbBlockReference
  2
SW_NOTE_18
 10
12.4605731948
 20
4.1177339808
 30
0.0
  0
LINE
  5
2E8
330
1F
100
AcDbEntity
  8
0
  6
PHANTOM
 62
     7
370
    30
100
AcDbLine
 10
11.6824244065
 20
4.7228621611
 30
0.0
 11
11.6824244065
 21
6.2188611027
 31
0.0
  0
LINE
  5
2E9
330
1F
100
AcDbEntity
  8
0
  6
Continuous
 62
     7
370
    30
100
AcDbLine
 10
11.6824244065
 20
4.7228621611
 30
0.0
 11
12.1524244065
 21
4.7228621611
 31
0.0
  0
SOLID
  5
2EA
330
1F
100
AcDbEntity
  8
0
  6
Continuous
 62
     7
370
    30
100
AcDbTrace
 10
12.1524244065
 20
4.7228621611
 30
0.0
 11
11.9124244065
 21
4.7828621611
 31
0.0
 12
11.9124244065
 22
4.6628621611
 32
0.0
 13
11.9124244065
 23
4.6628621611
 33
0.0
  0
LINE
  5
2EB
330
1F
100
AcDbEntity
  8
0
  6
Continuous
 62
     7
370
    30
100
AcDbLine
 10
11.6824244065
 20
6.2188611027
 30
0.0
 11
12.1524244065
 21
6.2188611027
 31
0.0
  0
SOLID
  5
2EC
330
1F
100
AcDbEntity
  8
0
  6
Continuous
 62
     7
370
    30
100
AcDbTrace
 10
12.1524244065
 20
6.2188611027
 30
0.0
 11
11.9124244065
 21
6.2788611027
 31
0.0
 12
11.9124244065
 22
6.1588611027
 32
0.0
 13
11.9124244065
 23
6.1588611027
 33
0.0
  0
MTEXT
  5
2ED
330
1F
100
AcDbEntity
  8
0
  6
Continuous
 62
     7
100
AcDbMText
 10
12.2277112426
 20
4.9213577731
 30
0.0
 40
0.25
 41
0.0
 71
     1
 72
     1
  1
A
  7
SLDTEXTSTYLE0
 73
     1
 44
1.0
  0
MTEXT
  5
2EE
330
1F
100
AcDbEntity
  8
0
  6
Continuous
 62
     7
100
AcDbMText
 10
12.2277112426
 20
6.4173567147
 30
0.0
 40
0.25
 41
0.0
 71
     1
 72
     1
  1
A
  7
SLDTEXTSTYLE0
 73
     1
 44
1.0
  0
LINE
  5
2EF
330
1F
100
AcDbEntity
  8
0
  6
Continuous
 62
     7
370
     0
100
AcDbLine
 10
8.3527982231
 20
1.0766584033
 30
0.0
 11
1.8689738715
 21
1.0766584033
 31
0.0
  0
ARC
  5
2F0
330
1F
100
AcDbEntity
  8
0
  6
Continuous
 62
     7
370
     0
100
AcDbCircle
 10
8.352798268
 20
1.1746583424
 30
0.0
 40
0.0980000000000009
100
AcDbArc
 50
270.0
 51
337.6798559832
  0
ARC
  5
2F1
330
1F
100
AcDbEntity
  8
0
  6
Continuous
 62
     7
370
     0
100
AcDbCircle
 10
1.8689738266
 20
1.1746583424
 30
0.0
 40
0.0980000000000003
100
AcDbArc
 50
202.3201440168
 51
270.0
  0
ARC
  5
2F2
330
1F
100
AcDbEntity
  8
0
  6
Continuous
 62
     7
370
     0
100
AcDbCircle
 10
4.7468860473
 20
2.3561583424
 30
0.0
 40
3.209
100
AcDbArc
 50
157.6798559832
 51
202.3201440168
  0
ARC
  5
2F3
330
1F
100
AcDbEntity
  8
0
  6
Continuous
 62
     7
370
     0
100
AcDbCircle
 10
5.4748860473
 20
2.3561583424
 30
0.0
 40
3.209000000000001
100
AcDbArc
 50
337.6798559832
 51
22.3201440168
  0
LINE
  5
2F4
330
1F
100
AcDbEntity
  8
0
  6
Continuous
 62
     7
370
     0
100
AcDbLine
 10
8.1818860108
 20
3.4386583306
 30
0.0
 11
2.0398860837
 21
3.4386583306
 31
0.0
  0
LINE
  5
2F5
330
1F
100
AcDbEntity
  8
0
  6
Continuous
 62
     7
370
     0
100
AcDbLine
 10
2.0398860837
 20
3.4386583306
 30
0.0
 11
2.0398860837
 21
1.2736583542
 31
0.0
  0
LINE
  5
2F6
330
1F
100
AcDbEntity
  8
0
  6
Continuous
 62
     7
370
     0
100
AcDbLine
 10
2.0398860837
 20
1.2736583542
 30
0.0
 11
8.1818860108
 21
1.2736583542
 31
0.0
  0
LINE
  5
2F7
330
1F
100
AcDbEntity
  8
0
  6
Continuous
 62
     7
370
     0
100
AcDbLine
 10
8.1818860108
 20
1.2736583542
 30
0.0
 11
8.1818860108
 21
3.4386583306
 31
0.0
  0
LINE
  5
2F8
330
1F
100
AcDbEntity
  8
0
  6
Continuous
 62
     7
370
     0
100
AcDbLine
 10
1.8689738715
 20
3.6356582815
 30
0.0
 11
8.3527982231
 21
3.6356582815
 31
0.0
  0
ARC
  5
2F9
330
1F
100
AcDbEntity
  8
0
  6
Continuous
 62
     7
370
     0
100
AcDbCircle
 10
8.352798268
 20
3.5376583424
 30
0.0
 40
0.098000000000001
100
AcDbArc
 50
22.3201440168
 51
90.0
  0
ARC
  5
2FA
330
1F
100
AcDbEntity
  8
0
  6
Continuous
 62
     7
370
     0
100
AcDbCircle
 10
1.8689738266
 20
3.5376583424
 30
0.0
 40
0.0980000000000002
100
AcDbArc
 50
90.0
 51
157.6798559832
  0
LINE
  5
2FB
330
1F
100
AcDbEntity
  8
0
  6
PHANTOM
 62
     8
370
     0
100
AcDbLine
 10
1.8689738715
 20
1.1746583245
 30
0.0
 11
8.3527982231
 21
1.1746583245
 31
0.0
  0
LINE
  5
2FC
330
1F
100
AcDbEntity
  8
0
  6
PHANTOM
 62
     8
370
     0
100
AcDbLine
 10
8.3527982231
 20
1.1746583245
 30
0.0
 11
8.3527982231
 21
1.0766584033
 31
0.0
  0
LINE
  5
2FD
330
1F
100
AcDbEntity
  8
0
  6
PHANTOM
 62
     8
370
     0
100
AcDbLine
 10
1.8689738715
 20
1.1746583245
 30
0.0
 11
1.8689738715
 21
1.0766584033
 31
0.0
  0
LWPOLYLINE
  5
2FE
330
1F
100
AcDbEntity
  8
0
  6
PHANTOM
 62
     8
370
     0
100
AcDbPolyline
 90
        9
 70
   128
 43
0.0
 10
8.3527982231
 20
1.1746583245
 10
8.3704845521
 20
1.1673973817
 10
8.3874912357
 20
1.1604153957
 10
8.4031647346
 20
1.1539808367
 10
8.4169028426
 20
1.1483408352
 10
8.4281772723
 20
1.1437122353
 10
8.4365547755
 20
1.1402728684
 10
8.4417138626
 20
1.1381548795
 10
8.4434556558
 20
1.1374397411
  0
LWPOLYLINE
  5
2FF
330
1F
100
AcDbEntity
  8
0
  6
PHANTOM
 62
     8
370
     0
100
AcDbPolyline
 90
        9
 70
   128
 43
0.0
 10
1.7783164388
 20
1.1374397411
 10
1.780058232
 20
1.1381548795
 10
1.785217319
 20
1.1402728684
 10
1.7935948223
 20
1.1437122353
 10
1.804869252
 20
1.1483408352
 10
1.81860736
 20
1.1539808367
 10
1.8342808589
 20
1.1604153957
 10
1.8512875424
 20
1.1673973817
 10
1.8689738715
 20
1.1746583245
  0
LWPOLYLINE
  5
300
330
1F
100
AcDbEntity
  8
0
  6
PHANTOM
 62
     8
370
     0
100
AcDbPolyline
 90
        9
 70
   128
 43
0.0
 10
1.7783164388
 20
3.5748769437
 10
1.780058232
 20
3.5741618053
 10
1.785217319
 20
3.5720438164
 10
1.7935948223
 20
3.5686044495
 10
1.804869252
 20
3.5639758496
 10
1.81860736
 20
3.5583358481
 10
1.8342808589
 20
3.5519012891
 10
1.8512875424
 20
3.5449193031
 10
1.8689738715
 20
3.5376583603
  0
ARC
  5
301
330
1F
100
AcDbEntity
  8
0
  6
PHANTOM
 62
     8
370
     0
100
AcDbCircle
 10
5.4748860473
 20
2.3561583424
 30
0.0
 40
3.111
100
AcDbArc
 50
337.6798559832
 51
22.3201440168
  0
LWPOLYLINE
  5
302
330
1F
100
AcDbEntity
  8
0
  6
PHANTOM
 62
     8
370
     0
100
AcDbPolyline
 90
        9
 70
   128
 43
0.0
 10
8.3527982231
 20
3.5376583603
 10
8.3704845521
 20
3.5449193031
 10
8.3874912357
 20
3.5519012891
 10
8.4031647346
 20
3.5583358481
 10
8.4169028426
 20
3.5639758496
 10
8.4281772723
 20
3.5686044495
 10
8.4365547755
 20
3.5720438164
 10
8.4417138626
 20
3.5741618053
 10
8.4434556558
 20
3.5748769437
  0
LINE
  5
303
330
1F
100
AcDbEntity
  8
0
  6
PHANTOM
 62
     8
370
     0
100
AcDbLine
 10
8.3527982231
 20
3.5376583603
 30
0.0
 11
1.8689738715
 21
3.5376583603
 31
0.0
  0
LINE
  5
304
330
1F
100
AcDbEntity
  8
0
  6
PHANTOM
 62
     8
370
     0
100
AcDbLine
 10
8.3527982231
 20
3.6356582815
 30
0.0
 11
8.3527982231
 21
3.5376583603
 31
0.0
  0
LINE
  5
305
330
1F
100
AcDbEntity
  8
0
  6
PHANTOM
 62
     8
370
     0
100
AcDbLine
 10
1.8689738715
 20
3.6356582815
 30
0.0
 11
1.8689738715
 21
3.5376583603
 31
0.0
  0
LINE
  5
306
330
1F
100
AcDbEntity
  8
0
  6
HIDDEN
 62
     7
370
     0
100
AcDbLine
 10
8.1818860108
 20
3.4386583306
 30
0.0
 11
2.0398860837
 21
3.4386583306
 31
0.0
  0
LINE
  5
307
330
1F
100
AcDbEntity
  8
0
  6
HIDDEN
 62
     7
370
     0
100
AcDbLine
 10
8.1818860108
 20
1.2736583542
 30
0.0
 11
8.1818860108
 21
3.4386583306
 31
0.0
  0
LINE
  5
308
330
1F
100
AcDbEntity
  8
0
  6
HIDDEN
 62
     7
370
     0
100
AcDbLine
 10
2.0398860837
 20
3.4386583306
 30
0.0
 11
2.0398860837
 21
1.2736583542
 31
0.0
  0
LINE
  5
309
330
1F
100
AcDbEntity
  8
0
  6
HIDDEN
 62
     7
370
     0
100
AcDbLine
 10
2.0398860837
 20
1.2736583542
 30
0.0
 11
8.1818860108
 21
1.2736583542
 31
0.0
  0
LINE
  5
30A
330
1F
100
AcDbEntity
  8
0
  6
HIDDEN
 62
     7
370
     0
100
AcDbLine
 10
8.3681775121
 20
1.1516583236
 30
0.0
 11
1.8535945825
 21
1.1516583236
 31
0.0
  0
ARC
  5
30B
330
1F
100
AcDbEntity
  8
0
  6
HIDDEN
 62
     7
370
     0
100
AcDbCircle
 10
5.4748860473
 20
2.3561583424
 30
0.0
 40
3.134
100
AcDbArc
 50
337.3976541836
 51
22.6023458164
  0
ARC
  5
30C
330
1F
100
AcDbEntity
  8
0
  6
HIDDEN
 62
     7
370
     0
100
AcDbCircle
 10
4.7468860473
 20
2.3561583424
 30
0.0
 40
3.134000000000001
100
AcDbArc
 50
157.3976541836
 51
202.6023458164
  0
LINE
  5
30D
330
1F
100
AcDbEntity
  8
0
  6
HIDDEN
 62
     7
370
     0
100
AcDbLine
 10
1.8535945825
 20
3.5606583612
 30
0.0
 11
8.3681775121
 21
3.5606583612
 31
0.0
  0
CIRCLE
  5
30E
330
1F
100
AcDbEntity
  8
0
  6
HIDDEN
 62
     7
370
     0
100
AcDbCircle
 10
4.8148860473
 20
1.3326583424
 30
0.0
 40
0.039680976200039
  0
CIRCLE
  5
30F
330
1F
100
AcDbEntity
  8
0
  6
HIDDEN
 62
     7
370
     0
100
AcDbCircle
 10
4.8148860473
 20
1.3326583424
 30
0.0
 40
0.0923190237999603
  0
CIRCLE
  5
310
330
1F
100
AcDbEntity
  8
0
  6
HIDDEN
 62
     7
370
     0
100
AcDbCircle
 10
7.9448860473
 20
1.3326583424
 30
0.0
 40
0.0396809762000394
  0
CIRCLE
  5
311
330
1F
100
AcDbEntity
  8
0
  6
HIDDEN
 62
     7
370
     0
100
AcDbCircle
 10
7.9448860473
 20
1.3326583424
 30
0.0
 40
0.0923190237999607
  0
CIRCLE
  5
312
330
1F
100
AcDbEntity
  8
0
  6
HIDDEN
 62
     7
370
     0
100
AcDbCircle
 10
4.8148860473
 20
3.3796583424
 30
0.0
 40
0.0396809762000401
  0
CIRCLE
  5
313
330
1F
100
AcDbEntity
  8
0
  6
HIDDEN
 62
     7
370
     0
100
AcDbCircle
 10
4.8148860473
 20
3.3796583424
 30
0.0
 40
0.0923190237999614
  0
CIRCLE
  5
314
330
1F
100
AcDbEntity
  8
0
  6
HIDDEN
 62
     7
370
     0
100
AcDbCircle
 10
7.9448860473
 20
3.3796583424
 30
0.0
 40
0.0396809762000392
  0
CIRCLE
  5
315
330
1F
100
AcDbEntity
  8
0
  6
HIDDEN
 62
     7
370
     0
100
AcDbCircle
 10
7.9448860473
 20
3.3796583424
 30
0.0
 40
0.0923190237999605
  0
ARC
  5
316
330
1F
100
AcDbEntity
  8
0
  6
HIDDEN
 62
     7
370
     0
100
AcDbCircle
 10
4.7468860473
 20
2.3561583424
 30
0.0
 40
3.134000000000001
100
AcDbArc
 50
157.3976541836
 51
202.6023458164
  0
LINE
  5
317
330
1F
100
AcDbEntity
  8
0
  6
HIDDEN
 62
     7
370
     0
100
AcDbLine
 10
1.8689738715
 20
3.5956583436
 30
0.0
 11
8.3527982231
 21
3.5956583436
 31
0.0
  0
ARC
  5
318
330
1F
100
AcDbEntity
  8
0
  6
HIDDEN
 62
     7
370
     0
100
AcDbCircle
 10
1.8689738266
 20
3.5376583424
 30
0.0
 40
0.0580000000000003
100
AcDbArc
 50
90.0
 51
157.6798559832
  0
ARC
  5
319
330
1F
100
AcDbEntity
  8
0
  6
HIDDEN
 62
     7
370
     0
100
AcDbCircle
 10
8.352798268
 20
3.5376583424
 30
0.0
 40
0.058
100
AcDbArc
 50
22.3201440168
 51
90.0
  0
ARC
  5
31A
330
1F
100
AcDbEntity
  8
0
  6
HIDDEN
 62
     7
370
     0
100
AcDbCircle
 10
5.4748860473
 20
2.3561583424
 30
0.0
 40
3.169
100
AcDbArc
 50
337.6798559832
 51
22.3201440168
  0
ARC
  5
31B
330
1F
100
AcDbEntity
  8
0
  6
HIDDEN
 62
     7
370
     0
100
AcDbCircle
 10
4.7468860473
 20
2.3561583424
 30
0.0
 40
3.169
100
AcDbArc
 50
157.6798559832
 51
202.3201440168
  0
ARC
  5
31C
330
1F
100
AcDbEntity
  8
0
  6
HIDDEN
 62
     7
370
     0
100
AcDbCircle
 10
8.352798268
 20
1.1746583424
 30
0.0
 40
0.0580000000000005
100
AcDbArc
 50
270.0
 51
337.6798559832
  0
ARC
  5
31D
330
1F
100
AcDbEntity
  8
0
  6
HIDDEN
 62
     7
370
     0
100
AcDbCircle
 10
1.8689738266
 20
1.1746583424
 30
0.0
 40
0.0580000000000001
100
AcDbArc
 50
202.3201440168
 51
270.0
  0
LINE
  5
31E
330
1F
100
AcDbEntity
  8
0
  6
HIDDEN
 62
     7
370
     0
100
AcDbLine
 10
1.8689738715
 20
3.6356582815
 30
0.0
 11
8.3527982231
 21
3.6356582815
 31
0.0
  0
ARC
  5
31F
330
1F
100
AcDbEntity
  8
0
  6
HIDDEN
 62
     7
370
     0
100
AcDbCircle
 10
1.8689738266
 20
3.5376583424
 30
0.0
 40
0.0980000000000002
100
AcDbArc
 50
90.0
 51
157.6798559832
  0
ARC
  5
320
330
1F
100
AcDbEntity
  8
0
  6
HIDDEN
 62
     7
370
     0
100
AcDbCircle
 10
8.352798268
 20
3.5376583424
 30
0.0
 40
0.098000000000001
100
AcDbArc
 50
22.3201440168
 51
90.0
  0
ARC
  5
321
330
1F
100
AcDbEntity
  8
0
  6
HIDDEN
 62
     7
370
     0
100
AcDbCircle
 10
4.7468860473
 20
2.3561583424
 30
0.0
 40
3.209
100
AcDbArc
 50
157.6798559832
 51
202.3201440168
  0
ARC
  5
322
330
1F
100
AcDbEntity
  8
0
  6
HIDDEN
 62
     7
370
     0
100
AcDbCircle
 10
5.4748860473
 20
2.3561583424
 30
0.0
 40
3.209000000000001
100
AcDbArc
 50
337.6798559832
 51
22.3201440168
  0
ARC
  5
323
330
1F
100
AcDbEntity
  8
0
  6
HIDDEN
 62
     7
370
     0
100
AcDbCircle
 10
1.8689738266
 20
1.1746583424
 30
0.0
 40
0.0980000000000003
100
AcDbArc
 50
202.3201440168
 51
270.0
  0
LINE
  5
324
330
1F
100
AcDbEntity
  8
0
  6
HIDDEN
 62
     7
370
     0
100
AcDbLine
 10
8.3527982231
 20
1.0766584033
 30
0.0
 11
1.8689738715
 21
1.0766584033
 31
0.0
  0
ARC
  5
325
330
1F
100
AcDbEntity
  8
0
  6
HIDDEN
 62
     7
370
     0
100
AcDbCircle
 10
8.352798268
 20
1.1746583424
 30
0.0
 40
0.098000000000001
100
AcDbArc
 50
270.0
 51
337.6798559832
  0
DIMENSION
  5
326
330
1F
100
AcDbEntity
  8
0
  6
Continuous
 62
     7
370
     0
100
AcDbDimension
  2
*D30
 10
2.0398860473
 20
4.1777193841
 30
0.0
 11
5.1108860473
 21
4.1777193841
 31
0.0
 70
   160
 71
     2
 42
-1.0
  3
SLDDIMSTYLE0
100
AcDbAlignedDimension
 13
8.1818860473
 23
3.4386583424
 33
0.0
 14
2.0398860473
 24
3.4386583424
 34
0.0
100
AcDbRotatedDimension
  0
DIMENSION
  5
331
330
1F
100
AcDbEntity
  8
0
  6
Continuous
 62
     7
370
     0
100
AcDbDimension
  2
*D31
 10
1.1441852599
 20
1.2736583424
 30
0.0
 11
1.1441852599
 21
2.3561583424
 31
0.0
 70
   160
 71
     2
 42
-1.0
  3
SLDDIMSTYLE0
100
AcDbAlignedDimension
 13
2.0398860473
 23
3.4386583424
 33
0.0
 14
2.0398860473
 24
1.2736583424
 34
0.0
 50
90.0
100
AcDbRotatedDimension
  0
DIMENSION
  5
33C
330
1F
100
AcDbEntity
  8
0
  6
Continuous
 62
     7
370
     0
100
AcDbDimension
  2
*D32
 10
8.6838860473
 20
4.5018000747
 30
0.0
 11
5.1108860473
 21
4.5018000747
 31
0.0
 70
   160
 71
     2
 42
-1.0
  3
SLDDIMSTYLE0
100
AcDbAlignedDimension
 13
1.5378860473
 23
2.3561583424
 33
0.0
 14
8.6838860473
 24
2.3561583424
 34
0.0
100
AcDbRotatedDimension
  0
DIMENSION
  5
347
330
1F
100
AcDbEntity
  8
0
  6
Continuous
 62
     7
370
     0
100
AcDbDimension
  2
*D33
 10
9.6883430534
 20
1.0766583424
 30
0.0
 11
9.6883430534
 21
2.4908268196
 31
0.0
 70
   160
 71
     2
 42
-1.0
  3
SLDDIMSTYLE0
100
AcDbAlignedDimension
 13
8.352798268
 23
3.6356583424
 33
0.0
 14
8.352798268
 24
1.0766583424
 34
0.0
 50
90.0
100
AcDbRotatedDimension
  0
DIMENSION
  5
352
330
1F
100
AcDbEntity
  8
0
  6
Continuous
 62
     7
370
     0
100
AcDbDimension
  2
*D34
 10
4.8148860473
 20
3.862710913
 30
0.0
 11
6.3798860473
 21
3.862710913
 31
0.0
 70
   160
 71
     2
 42
-1.0
  3
SLDDIMSTYLE4
100
AcDbAlignedDimension
 13
7.9448860473
 23
3.3796583424
 33
0.0
 14
4.8148860473
 24
3.3796583424
 34
0.0
100
AcDbRotatedDimension
  0
DIMENSION
  5
35D
330
1F
100
AcDbEntity
  8
0
  6
Continuous
 62
     7
370
     0
100
AcDbDimension
  2
*D35
 10
9.1769120199
 20
1.3326583424
 30
0.0
 11
9.1769120199
 21
2.2432105874
 31
0.0
 70
   160
 71
     2
 42
-1.0
  3
SLDDIMSTYLE0
100
AcDbAlignedDimension
 13
7.9448860473
 23
3.3796583424
 33
0.0
 14
7.9448860473
 24
1.3326583424
 34
0.0
 50
90.0
100
AcDbRotatedDimension
  0
DIMENSION
  5
368
330
1F
100
AcDbEntity
  8
0
  6
Continuous
 62
     7
370
     0
100
AcDbDimension
  2
*D36
 10
7.9909951744
 20
1.4126380308
 30
0.0
 11
6.6301991851
 21
0.8456872906
 31
0.0
 70
   163
  1
.197 DIA BOSS WITH\P.079 DIA HOLE (4)
 71
     1
 42
-1.0
  3
SLDDIMSTYLE6
100
AcDbDiametricDimension
 15
7.8987769202
 25
1.252678654
 35
0.0
 40
0.0
  0
INSERT
  5
377
102
{ACAD_REACTORS
330
381
102
}
330
1F
100
AcDbEntity
  8
0
  6
Continuous
 62
     7
370
     0
100
AcDbBlockReference
  2
SW_NOTE_19
 10
3.4575884017
 20
0.8605586605
 30
0.0
  0
LEADER
  5
381
330
1F
100
AcDbEntity
  8
0
  6
Continuous
 62
     7
370
     0
100
AcDbLeader
  3
SLDDIMSTYLE7
 73
     2
 76
     3
 10
2.6490079123
 20
2.1384973599
 30
0.0
 10
3.3325884017
 20
0.8605586605
 30
0.0
 10
3.4575884017
 20
0.8605586605
 30
0.0
340
377
  0
LINE
  5
382
330
1F
100
AcDbEntity
  8
0
  6
Continuous
 62
     7
370
     0
100
AcDbLine
 10
13.1286762849
 20
7.9129744846
 30
0.0
 11
13.1365239921
 21
7.9175048695
 31
0.0
  0
LINE
  5
383
330
1F
100
AcDbEntity
  8
0
  6
Continuous
 62
     7
370
     0
100
AcDbLine
 10
13.8650358984
 20
8.4402047378
 30
0.0
 11
13.8650358984
 21
8.4630340134
 31
0.0
  0
LINE
  5
384
330
1F
100
AcDbEntity
  8
0
  6
Continuous
 62
     7
370
     0
100
AcDbLine
 10
14.2640122193
 20
8.6862056285
 30
0.0
 11
13.0383604662
 21
9.3937593249
 31
0.0
  0
ARC
  5
385
330
1F
100
AcDbEntity
  8
0
  6
Continuous
 62
     7
370
     0
100
AcDbCircle
 10
12.1694579247
 20
8.8770472219
 30
0.0
 40
0.0520000000000014
100
AcDbArc
 50
0.0
 51
180.0
  0
LINE
  5
386
330
1F
100
AcDbEntity
  8
0
  6
Continuous
 62
     7
370
     0
100
AcDbLine
 10
12.2214579555
 20
8.8721479588
 30
0.0
 11
12.2214579555
 21
8.877047216
 31
0.0
  0
LINE
  5
387
330
1F
100
AcDbEntity
  8
0
  6
Continuous
 62
     7
370
     0
100
AcDbLine
 10
12.1174579104
 20
8.877047256
 30
0.0
 11
12.1174579104
 21
8.8721479987
 31
0.0
  0
LINE
  5
388
330
1F
100
AcDbEntity
  8
0
  6
Continuous
 62
     7
370
     0
100
AcDbLine
 10
12.086762546
 20
8.8721479588
 30
0.0
 11
12.086762546
 21
8.860354337
 31
0.0
  0
ARC
  5
389
330
1F
100
AcDbEntity
  8
0
  6
Continuous
 62
     7
370
     0
100
AcDbCircle
 10
12.9189911127
 20
9.3097435212
 30
0.0
 40
0.0520000000000014
100
AcDbArc
 50
0.0
 51
180.0
  0
LINE
  5
38A
330
1F
100
AcDbEntity
  8
0
  6
Continuous
 62
     7
370
     0
100
AcDbLine
 10
12.9709911211
 20
9.3048442451
 30
0.0
 11
12.9709911211
 21
9.3097435023
 31
0.0
  0
LINE
  5
38B
330
1F
100
AcDbEntity
  8
0
  6
Continuous
 62
     7
370
     0
100
AcDbLine
 10
12.866991076
 20
9.3097435422
 30
0.0
 11
12.866991076
 21
9.304844285
 31
0.0
  0
LINE
  5
38C
330
1F
100
AcDbEntity
  8
0
  6
Continuous
 62
     7
370
     0
100
AcDbLine
 10
12.8362957461
 20
9.304844265
 30
0.0
 11
12.8362957461
 21
9.2930506432
 31
0.0
  0
ARC
  5
38D
330
1F
100
AcDbEntity
  8
0
  6
Continuous
 62
     7
370
     0
100
AcDbCircle
 10
16.0515422289
 20
7.5773085849
 30
0.0
 40
0.0666666666666653
100
AcDbArc
 50
26.4261258614
 51
60.0026882664
  0
LINE
  5
38E
330
1F
100
AcDbEntity
  8
0
  6
Continuous
 62
     7
370
     0
100
AcDbLine
 10
16.1110202473
 20
7.6073395825
 30
0.0
 11
16.1110361146
 21
7.6073730772
 31
0.0
  0
LINE
  5
38F
330
1F
100
AcDbEntity
  8
0
  6
Continuous
 62
     7
370
     0
100
AcDbLine
 10
16.0848728154
 20
7.635045181
 30
0.0
 11
14.2649550269
 21
8.6856613573
 31
0.0
  0
ARC
  5
390
330
1F
100
AcDbEntity
  8
0
  6
Continuous
 62
     7
370
     0
100
AcDbCircle
 10
16.0910852863
 20
7.5544688375
 30
0.0
 40
0.0666666666666679
100
AcDbArc
 50
0.0
 51
60.0026882663
  0
LINE
  5
391
330
1F
100
AcDbEntity
  8
0
  6
Continuous
 62
     7
370
     0
100
AcDbLine
 10
16.1577519829
 20
7.3894955369
 30
0.0
 11
16.1577519829
 21
7.5544688097
 31
0.0
  0
LINE
  5
392
330
1F
100
AcDbEntity
  8
0
  6
Continuous
 62
     7
370
     0
100
AcDbLine
 10
16.1244159414
 20
7.612205414
 30
0.0
 11
16.0858882184
 21
7.634446995
 31
0.0
  0
SPLINE
  5
393
330
1F
100
AcDbEntity
  8
0
  6
Continuous
 62
     7
370
     0
100
AcDbSpline
210
0.0
220
0.0
230
1.0
 70
     8
 71
     3
 72
    19
 73
    15
 74
     0
 42
0.00000001
 43
0.00000001
 40
0.0
 40
0.0
 40
0.0
 40
0.0
 40
0.0147801403980742
 40
0.1137053364774467
 40
0.209752457386895
 40
0.3056775690361284
 40
0.4023390371276457
 40
0.4998350499295824
 40
0.5978956130459958
 40
0.6961487810208014
 40
0.7941210753723168
 40
0.8913635832811768
 40
0.9821574739295565
 40
1.0
 40
1.0
 40
1.0
 40
1.0
 10
13.93030057157836
 20
8.319345666865072
 30
0.0
 10
13.929891065119
 20
8.318729952361302
 30
0.0
 10
13.92674068437185
 20
8.313993189181822
 30
0.0
 10
13.91552303927779
 20
8.30443068928688
 30
0.0
 10
13.8962613075867
 20
8.292374863983238
 30
0.0
 10
13.87210239299771
 20
8.282182251329584
 30
0.0
 10
13.84446177425846
 20
8.274528706780991
 30
0.0
 10
13.81422634168924
 20
8.269851451936786
 30
0.0
 10
13.78269229370428
 20
8.268467500668539
 30
0.0
 10
13.75122408025747
 20
8.270484083596315
 30
0.0
 10
13.72121478975267
 20
8.275786801820878
 30
0.0
 10
13.69455218581536
 20
8.283887034444993
 30
0.0
 10
13.6778482149818
 20
8.291397586756728
 30
0.0
 10
13.67014877038624
 20
8.295746589395485
 30
0.0
 10
13.66888420786592
 20
8.296460872831059
 30
0.0
  0
LINE
  5
394
330
1F
100
AcDbEntity
  8
0
  6
Continuous
 62
     7
370
     0
100
AcDbLine
 10
13.6688842079
 20
8.2964608728
 30
0.0
 11
13.6229222606
 21
8.3229941402
 31
0.0
  0
SPLINE
  5
395
330
1F
100
AcDbEntity
  8
0
  6
Continuous
 62
     7
370
     0
100
AcDbSpline
210
0.0
220
0.0
230
1.0
 70
     8
 71
     3
 72
    12
 73
     8
 74
     0
 42
0.00000001
 43
0.00000001
 40
0.0
 40
0.0
 40
0.0
 40
0.0
 40
0.0278047597594883
 40
0.3047653669639385
 40
0.5874027634703027
 40
0.878676957338155
 40
1.0
 40
1.0
 40
1.0
 40
1.0
 10
11.89826100798515
 20
8.816038961325035
 30
0.0
 10
11.89802468581903
 20
8.814933200468829
 30
0.0
 10
11.89543438069492
 20
8.802813059312038
 30
0.0
 10
11.88909365467446
 20
8.779144152249598
 30
0.0
 10
11.87879357896581
 20
8.745939431297243
 30
0.0
 10
11.86946885280909
 20
8.719634683963127
 30
0.0
 10
11.86367147355731
 20
8.705750834887917
 30
0.0
 10
11.86196677069452
 20
8.701668328597206
 30
0.0
  0
ARC
  5
396
330
1F
100
AcDbEntity
  8
0
  6
Continuous
 62
     7
370
     0
100
AcDbCircle
 10
11.9238023779
 20
8.6762522295
 30
0.0
 40
0.0666666666666664
100
AcDbArc
 50
157.9377579589
 51
180.0
  0
ARC
  5
397
330
1F
100
AcDbEntity
  8
0
  6
Continuous
 62
     7
370
     0
100
AcDbCircle
 10
11.9633454353
 20
8.8014145007
 30
0.0
 40
0.0666666666666681
100
AcDbArc
 50
140.5776223696
 51
167.3213834909
  0
LINE
  5
398
330
1F
100
AcDbEntity
  8
0
  6
Continuous
 62
     7
370
     0
100
AcDbLine
 10
11.8571356813
 20
8.6762522659
 30
0.0
 11
11.8571356813
 21
8.5112789932
 31
0.0
  0
SPLINE
  5
399
330
1F
100
AcDbEntity
  8
0
  6
Continuous
 62
     7
370
     0
100
AcDbSpline
210
0.0
220
0.0
230
1.0
 70
     8
 71
     3
 72
    20
 73
    16
 74
     0
 42
0.00000001
 43
0.00000001
 40
0.0
 40
0.0
 40
0.0
 40
0.0
 40
0.0423416369272931
 40
0.1226289843491389
 40
0.2029567165001034
 40
0.283324042263503
 40
0.3637318185973299
 40
0.4441791004186901
 40
0.5246622795619039
 40
0.6051741880742254
 40
0.6857029034295719
 40
0.7662233783619865
 40
0.8467068136920572
 40
0.9271160340654832
 40
1.0
 40
1.0
 40
1.0
 40
1.0
 10
12.92960714710571
 20
9.43369179881142
 30
0.0
 10
12.91112114367868
 20
9.428512161614918
 30
0.0
 10
12.85758235799536
 20
9.41351100212279
 30
0.0
 10
12.77111912922047
 20
9.386117881064143
 30
0.0
 10
12.671475255204
 20
9.35051081675842
 30
0.0
 10
12.5752599520236
 20
9.311678197912004
 30
0.0
 10
12.48271498911231
 20
9.269777600524453
 30
0.0
 10
12.3941277154174
 20
9.224899995704083
 30
0.0
 10
12.30976356963047
 20
9.17716313077336
 30
0.0
 10
12.2298789861291
 20
9.126689425893824
 30
0.0
 10
12.15473649369246
 20
9.073608280364942
 30
0.0
 10
12.08454382036059
 20
9.018075568770497
 30
0.0
 10
12.01966914311108
 20
8.96020352332546
 30
0.0
 10
11.96167211286628
 20
8.902165225002348
 30
0.0
 10
11.92790241455996
 20
8.862573857421054
 30
0.0
 10
11.91184645277681
 20
8.843749955618277
 30
0.0
  0
LINE
  5
39A
330
1F
100
AcDbEntity
  8
0
  6
Continuous
 62
     7
370
     0
100
AcDbLine
 10
13.0369463067
 20
9.3945757018
 30
0.0
 11
12.9805527725
 21
9.4271309961
 31
0.0
  0
ARC
  5
39B
330
1F
100
AcDbEntity
  8
0
  6
Continuous
 62
     7
370
     0
100
AcDbCircle
 10
12.9472221348
 20
9.3693944296
 30
0.0
 40
0.0666666666666686
100
AcDbArc
 50
60.0026882663
 51
105.3209346408
  0
SPLINE
  5
39C
330
1F
100
AcDbEntity
  8
0
  6
Continuous
 62
     7
370
     0
100
AcDbSpline
210
0.0
220
0.0
230
1.0
 70
     8
 71
     3
 72
    22
 73
    18
 74
     0
 42
0.00000001
 43
0.00000001
 40
0.0
 40
0.0
 40
0.0
 40
0.0
 40
0.0371824218447355
 40
0.1076835258097954
 40
0.1782174347305761
 40
0.2487838515661517
 40
0.3193844897975709
 40
0.3900199565553684
 40
0.460689152619466
 40
0.5313886075979565
 40
0.6021116572041757
 40
0.6728470657654136
 40
0.7435720375684226
 40
0.8142612372974732
 40
0.8848815480752831
 40
0.9553921902536562
 40
1.0
 40
1.0
 40
1.0
 40
1.0
 10
14.99405326246323
 20
6.438143868239183
 30
0.0
 10
15.01292353419231
 20
6.442808885418579
 30
0.0
 10
15.06757348145128
 20
6.456319180684935
 30
0.0
 10
15.15607805825997
 20
6.481293545825181
 30
0.0
 10
15.25838770648308
 20
6.514096668074767
 30
0.0
 10
15.35752115052788
 20
6.550202679253026
 30
0.0
 10
15.45322535173941
 20
6.589458768731976
 30
0.0
 10
15.54520632723047
 20
6.631781002084302
 30
0.0
 10
15.63319240170316
 20
6.677057253891554
 30
0.0
 10
15.71691653840895
 20
6.725173233018027
 30
0.0
 10
15.79612132259484
 20
6.776004704186501
 30
0.0
 10
15.87055769720252
 20
6.829416697267735
 30
0.0
 10
15.93997535901915
 20
6.885265989911514
 30
0.0
 10
16.00417282560449
 20
6.943385136724935
 30
0.0
 10
16.06281734028147
 20
7.003635825053803
 30
0.0
 10
16.10963701939957
 20
7.058151779879484
 30
0.0
 10
16.13554383914501
 20
7.092927135702493
 30
0.0
 10
16.1455825989356
 20
7.106402407741667
 30
0.0
  0
ARC
  5
39D
330
1F
100
AcDbEntity
  8
0
  6
Continuous
 62
     7
370
     0
100
AcDbCircle
 10
14.9787314676
 20
6.5016551487
 30
0.0
 40
0.065333333333334
100
AcDbArc
 50
240.0026882664
 51
283.5632294965
  0
LINE
  5
39E
330
1F
100
AcDbEntity
  8
0
  6
Continuous
 62
     7
370
     0
100
AcDbLine
 10
11.8895633116
 20
8.2095555513
 30
0.0
 11
14.946067423
 21
6.4450732858
 31
0.0
  0
LINE
  5
39F
330
1F
100
AcDbEntity
  8
0
  6
Continuous
 62
     7
370
     0
100
AcDbLine
 10
16.1579936912
 20
7.1447125728
 30
0.0
 11
16.1579936912
 21
7.383142499
 31
0.0
  0
ARC
  5
3A0
330
1F
100
AcDbEntity
  8
0
  6
Continuous
 62
     7
370
     0
100
AcDbCircle
 10
16.0926603502
 20
7.1447126048
 30
0.0
 40
0.065333333333335
100
AcDbArc
 50
324.0993871136
 51
0.0
  0
LINE
  5
3A1
330
1F
100
AcDbEntity
  8
0
  6
Continuous
 62
     7
370
     0
100
AcDbLine
 10
11.856893973
 20
8.5045673785
 30
0.0
 11
11.856893973
 21
8.2661374522
 31
0.0
  0
ARC
  5
3A2
330
1F
100
AcDbEntity
  8
0
  6
Continuous
 62
     7
370
     0
100
AcDbCircle
 10
11.9222273139
 20
8.2661374385
 30
0.0
 40
0.0653333333333333
100
AcDbArc
 50
180.0
 51
240.0026882663
  0
ARC
  5
3A3
330
1F
100
AcDbEntity
  8
0
  6
Continuous
 62
     7
370
     0
100
AcDbCircle
 10
13.2413449817
 20
7.9157335728
 30
0.0
 40
0.1062385049574664
100
AcDbArc
 50
140.1148568659
 51
173.1529048385
  0
ARC
  5
3A4
330
1F
100
AcDbEntity
  8
0
  6
Continuous
 62
     7
370
     0
100
AcDbCircle
 10
12.9396698889
 20
8.1638206206
 30
0.0
 40
0.2843490003716392
100
AcDbArc
 50
320.7363625074
 51
339.263637347
  0
ARC
  5
3A5
330
1F
100
AcDbEntity
  8
0
  6
Continuous
 62
     7
370
     0
100
AcDbCircle
 10
13.3021752906
 20
8.0285781568
 30
0.0
 40
0.1025752664554055
100
AcDbArc
 50
122.6701922075
 51
160.3084139676
  0
LINE
  5
3A6
330
1F
100
AcDbEntity
  8
0
  6
Continuous
 62
     7
370
     0
100
AcDbLine
 10
13.2468049098
 20
8.1149251672
 30
0.0
 11
13.6185351011
 21
8.3295204389
 31
0.0
  0
LINE
  5
3A7
330
1F
100
AcDbEntity
  8
0
  6
Continuous
 62
     7
370
     0
100
AcDbLine
 10
13.8640862979
 20
8.4712741275
 30
0.0
 11
14.2306816051
 21
8.6829050937
 31
0.0
  0
ARC
  5
3A8
330
1F
100
AcDbEntity
  8
0
  6
Continuous
 62
     7
370
     0
100
AcDbCircle
 10
14.2502177298
 20
8.6555642684
 30
0.0
 40
0.0336032869199464
100
AcDbArc
 50
65.7631158821
 51
125.5473397314
  0
LINE
  5
3A9
330
1F
100
AcDbEntity
  8
0
  6
Continuous
 62
     7
370
     0
100
AcDbLine
 10
13.2055986218
 20
8.0631416107
 30
0.0
 11
11.9799468688
 21
8.770695307
 31
0.0
  0
LINE
  5
3AA
330
1F
100
AcDbEntity
  8
0
  6
Continuous
 62
     7
370
     0
100
AcDbLine
 10
11.934173082
 20
8.691412783
 30
0.0
 11
13.1598248351
 21
7.9838590867
 31
0.0
  0
ARC
  5
3AB
330
1F
100
AcDbEntity
  8
0
  6
Continuous
 62
     7
370
     0
100
AcDbCircle
 10
11.7140181359
 20
8.8713743169
 30
0.0
 40
0.284349000371702
100
AcDbArc
 50
320.7363625074
 51
339.263637347
  0
LINE
  5
3AC
330
1F
100
AcDbEntity
  8
0
  6
Continuous
 62
     7
370
     0
100
AcDbLine
 10
13.135009962
 20
7.9226098044
 30
0.0
 11
13.1358641858
 21
7.9283993392
 31
0.0
  0
LINE
  5
3AD
330
1F
100
AcDbEntity
  8
0
  6
Continuous
 62
     7
370
     0
100
AcDbLine
 10
13.135009962
 20
7.9226098044
 30
0.0
 11
11.9105006713
 21
8.6295039712
 31
0.0
  0
LINE
  5
3AE
330
1F
100
AcDbEntity
  8
0
  6
Continuous
 62
     7
370
     0
100
AcDbLine
 10
11.9102124327
 20
8.6359530356
 30
0.0
 11
11.9105006713
 21
8.6295039712
 31
0.0
  0
ARC
  5
3AF
330
1F
100
AcDbEntity
  8
0
  6
Continuous
 62
     7
370
     0
100
AcDbCircle
 10
12.0156932286
 20
8.6232872691
 30
0.0
 40
0.1062385049574741
100
AcDbArc
 50
140.1148568659
 51
173.1529048385
  0
ARC
  5
3B0
330
1F
100
AcDbEntity
  8
0
  6
Continuous
 62
     7
370
     0
100
AcDbCircle
 10
12.0765235375
 20
8.7361318531
 30
0.0
 40
0.102575266455439
100
AcDbArc
 50
122.6701922075
 51
160.3084139676
  0
LINE
  5
3B1
330
1F
100
AcDbEntity
  8
0
  6
Continuous
 62
     7
370
     0
100
AcDbLine
 10
12.0211531567
 20
8.8224788636
 30
0.0
 11
13.2468049098
 21
8.1149251672
 31
0.0
  0
LWPOLYLINE
  5
3B2
330
1F
100
AcDbEntity
  8
0
  6
Continuous
 62
     7
370
     0
100
AcDbPolyline
 90
        9
 70
   128
 43
0.0
 10
13.1120109778
 20
7.914624742
 10
13.1159701439
 20
7.9127258924
 10
13.1198168043
 20
7.9116544497
 10
13.1234416511
 20
7.9114408722
 10
13.1267416678
 20
7.912091218
 10
13.1296230852
 20
7.9135870155
 10
13.1320040261
 20
7.915885753
 10
13.1338168211
 20
7.9189221061
 10
13.135009962
 20
7.9226098044
  0
LWPOLYLINE
  5
3B3
330
1F
100
AcDbEntity
  8
0
  6
Continuous
 62
     7
370
     0
100
AcDbPolyline
 90
        8
 70
   128
 43
0.0
 10
12.8822216375
 20
9.2836176272
 10
12.8979871931
 20
9.2773831043
 10
12.9165895025
 20
9.2748573609
 10
12.9355162099
 20
9.276381492
 10
12.952211091
 20
9.2817496871
 10
12.9644195383
 20
9.2902368897
 10
12.9704924594
 20
9.3006969634
 10
12.9709911211
 20
9.3048442451
  0
ARC
  5
3B4
330
1F
100
AcDbEntity
  8
0
  6
Continuous
 62
     7
370
     0
100
AcDbCircle
 10
12.8914163976
 20
9.3062925046
 30
0.0
 40
0.0244682177258852
100
AcDbArc
 50
183.3931934369
 51
247.9272345881
  0
LINE
  5
3B5
330
1F
100
AcDbEntity
  8
0
  6
Continuous
 62
     7
370
     0
100
AcDbLine
 10
13.6351004857
 20
8.3986309312
 30
0.0
 11
13.5669598657
 21
8.3592941886
 31
0.0
  0
LINE
  5
3B6
330
1F
100
AcDbEntity
  8
0
  6
Continuous
 62
     7
370
     0
100
AcDbLine
 10
13.5669598657
 20
8.3592941886
 30
0.0
 11
13.6185351011
 21
8.3295204389
 31
0.0
  0
LINE
  5
3B7
330
1F
100
AcDbEntity
  8
0
  6
Continuous
 62
     7
370
     0
100
AcDbLine
 10
12.0888274373
 20
8.8615463942
 30
0.0
 11
12.0211531567
 21
8.8224788636
 31
0.0
  0
LWPOLYLINE
  5
3B8
330
1F
100
AcDbEntity
  8
0
  6
Continuous
 62
     7
370
     0
100
AcDbPolyline
 90
        7
 70
   128
 43
0.0
 10
12.0888274373
 20
8.8615463942
 10
12.0867958362
 20
8.8735032986
 10
12.0899997503
 20
8.8853743504
 10
12.0982361543
 20
8.8964077318
 10
12.1109833981
 20
8.9059046092
 10
12.1274342548
 20
8.9132634364
 10
12.1342954243
 20
8.9153563851
  0
LINE
  5
3B9
330
1F
100
AcDbEntity
  8
0
  6
Continuous
 62
     7
370
     0
100
AcDbLine
 10
12.8383606374
 20
9.2942427004
 30
0.0
 11
12.194562341
 21
8.9225858549
 31
0.0
  0
LWPOLYLINE
  5
3BA
330
1F
100
AcDbEntity
  8
0
  6
Continuous
 62
     7
370
     0
100
AcDbPolyline
 90
        7
 70
   128
 43
0.0
 10
12.8838286244
 20
9.3480526913
 10
12.8769674203
 20
9.3459597227
 10
12.8605165637
 20
9.3386008955
 10
12.8477693198
 20
9.3291040181
 10
12.8395329504
 20
9.3180706566
 10
12.8363290363
 20
9.3061996048
 10
12.8383606374
 20
9.2942427004
  0
LINE
  5
3BB
330
1F
100
AcDbEntity
  8
0
  6
Continuous
 62
     7
370
     0
100
AcDbLine
 10
13.0050298521
 20
9.39045879
 30
0.0
 11
12.9440955411
 21
9.3552821611
 31
0.0
  0
LINE
  5
3BC
330
1F
100
AcDbEntity
  8
0
  6
Continuous
 62
     7
370
     0
100
AcDbLine
 10
14.2306816051
 20
8.6829050937
 30
0.0
 11
13.0050298521
 21
9.39045879
 31
0.0
  0
LINE
  5
3BD
330
1F
100
AcDbEntity
  8
0
  6
Continuous
 62
     7
370
     0
100
AcDbLine
 10
13.8073761784
 20
8.4980835717
 30
0.0
 11
13.7392355584
 21
8.458746829
 31
0.0
  0
LWPOLYLINE
  5
3BE
330
1F
100
AcDbEntity
  8
0
  6
Continuous
 62
     7
370
     0
100
AcDbPolyline
 90
       13
 70
   128
 43
0.0
 10
13.7392355584
 20
8.458746829
 10
13.7251308573
 20
8.4704425488
 10
13.705401404
 20
8.4790079931
 10
13.6820233634
 20
8.4835852233
 10
13.6573383886
 20
8.4837157606
 10
13.6338190333
 20
8.4793865263
 10
13.6138210632
 20
8.4710311782
 10
13.5993476074
 20
8.4594865958
 10
13.5918483411
 20
8.4459091609
 10
13.592074463
 20
8.4316588283
 10
13.6000033173
 20
8.4181629728
 10
13.6148407096
 20
8.4067734018
 10
13.6351004857
 20
8.3986309312
  0
LWPOLYLINE
  5
3BF
330
1F
100
AcDbEntity
  8
0
  6
Continuous
 62
     7
370
     0
100
AcDbPolyline
 90
        8
 70
   128
 43
0.0
 10
12.1326884374
 20
8.850921321
 10
12.1484540275
 20
8.8446868181
 10
12.167056337
 20
8.8421610747
 10
12.1859830444
 20
8.8436852058
 10
12.2026779255
 20
8.8490534008
 10
12.2148863382
 20
8.8575405835
 10
12.2209592593
 20
8.8680006571
 10
12.2214579555
 20
8.8721479588
  0
ARC
  5
3C0
330
1F
100
AcDbEntity
  8
0
  6
Continuous
 62
     7
370
     0
100
AcDbCircle
 10
12.1418833131
 20
8.8735962402
 30
0.0
 40
0.0244682998971999
100
AcDbArc
 50
183.3932332626
 51
247.9270205369
  0
LINE
  5
3C1
330
1F
100
AcDbEntity
  8
0
  6
Continuous
 62
     7
370
     0
100
AcDbLine
 10
11.9334996036
 20
8.5949648769
 30
0.0
 11
13.1120109778
 21
7.914624742
 31
0.0
  0
ARC
  5
3C2
330
1F
100
AcDbEntity
  8
0
  6
Continuous
 62
     7
370
     0
100
AcDbCircle
 10
11.9618874361
 20
8.6387946249
 30
0.0
 40
0.052219879835381
100
AcDbArc
 50
190.2482863763
 51
237.0695100427
  0
LWPOLYLINE
  5
3C3
330
1F
100
AcDbEntity
  8
0
  6
Continuous
 62
     7
370
     0
100
AcDbPolyline
 90
       10
 70
   128
 43
0.0
 10
13.6185351011
 20
8.3295204389
 10
13.6589430291
 20
8.3261079423
 10
13.6997037279
 20
8.3275581598
 10
13.7390799621
 20
8.3338093114
 10
13.7753935819
 20
8.3445949477
 10
13.8070969106
 20
8.3594554064
 10
13.8328387694
 20
8.3777573485
 10
13.8515220638
 20
8.398720755
 10
13.8623505492
 20
8.4214521712
 10
13.8650358984
 20
8.4402047378
  0
LINE
  5
3C4
330
1F
100
AcDbEntity
  8
0
  6
Continuous
 62
     7
370
     0
100
AcDbLine
 10
13.6185351011
 20
8.3444321382
 30
0.0
 11
13.6185351011
 21
8.3295204389
 31
0.0
  0
ELLIPSE
  5
3C5
330
1F
100
AcDbEntity
  8
0
  6
Continuous
 62
     7
370
     0
100
AcDbEllipse
 10
13.6672198107
 20
8.4344372156
 30
0.0
 11
0.1972676334383081
 21
0.03488735861972537
 31
0.0
210
0.0
220
0.0
230
1.0
 40
0.4219377402
 41
4.389240356465931
 42
5.209118658853809
  0
ARC
  5
3C6
330
1F
100
AcDbEntity
  8
0
  6
Continuous
 62
     7
370
     0
100
AcDbCircle
 10
13.712785216
 20
8.5528846361
 30
0.0
 40
0.1854509021628147
100
AcDbArc
 50
289.329517367
 51
310.6651061003
  0
ELLIPSE
  5
3C7
330
1F
100
AcDbEntity
  8
0
  6
Continuous
 62
     7
370
     0
100
AcDbEllipse
 10
13.6672198107
 20
8.4344372156
 30
0.0
 11
0.1972676334383081
 21
0.03488735861972537
 31
0.0
210
0.0
220
0.0
230
1.0
 40
0.4219377402
 41
5.637489864044245
 42
6.457368166432119
  0
LINE
  5
3C8
330
1F
100
AcDbEntity
  8
0
  6
Continuous
 62
     7
370
     0
100
AcDbLine
 10
13.7288139792
 20
8.4166880828
 30
0.0
 11
13.7328209027
 21
8.3806513989
 31
0.0
  0
LINE
  5
3C9
330
1F
100
AcDbEntity
  8
0
  6
Continuous
 62
     7
370
     0
100
AcDbLine
 10
13.7328209027
 20
8.3806513989
 30
0.0
 11
13.8134310717
 21
8.4271866589
 31
0.0
  0
LINE
  5
3CA
330
1F
100
AcDbEntity
  8
0
  6
Continuous
 62
     7
370
     0
100
AcDbLine
 10
13.8134310717
 20
8.4271866589
 30
0.0
 11
13.7288139792
 21
8.4166880828
 31
0.0
  0
LINE
  5
3CB
330
1F
100
AcDbEntity
  8
0
  6
Continuous
 62
     7
370
     0
100
AcDbLine
 10
13.8073761784
 20
8.4980835717
 30
0.0
 11
13.8589514138
 21
8.4832215213
 31
0.0
  0
LINE
  5
3CC
330
1F
100
AcDbEntity
  8
0
  6
Continuous
 62
     7
370
     0
100
AcDbLine
 10
13.8336318056
 20
8.4122143162
 30
0.0
 11
13.7741695707
 21
8.3778874986
 31
0.0
  0
LINE
  5
3CD
330
1F
100
AcDbEntity
  8
0
  6
Continuous
 62
     7
370
     0
100
AcDbLine
 10
13.6185351011
 20
8.3444321382
 30
0.0
 11
13.5669598657
 21
8.3592941886
 31
0.0
  0
ELLIPSE
  5
3CE
330
1F
100
AcDbEntity
  8
0
  6
Continuous
 62
     7
370
     0
100
AcDbEllipse
 10
13.6689753862
 20
8.4339313245
 30
0.0
 11
0.07778373971600061
 21
0.01375628213791202
 31
0.0
210
0.0
220
0.0
230
0.9999999999999998
 40
0.4219377402
 41
4.188652138552019
 42
6.657956384345963
  0
LINE
  5
3CF
330
1F
100
AcDbEntity
  8
0
  6
Continuous
 62
     7
370
     0
100
AcDbLine
 10
13.7293676305
 20
8.4117087441
 30
0.0
 11
13.7840311364
 21
8.4102144224
 31
0.0
  0
ARC
  5
3D0
330
1F
100
AcDbEntity
  8
0
  6
Continuous
 62
     7
370
     0
100
AcDbCircle
 10
13.6695989617
 20
8.3551959703
 30
0.0
 40
0.1010238199806448
100
AcDbArc
 50
46.8387293469
 51
137.1122424625
  0
LWPOLYLINE
  5
3D1
330
1F
100
AcDbEntity
  8
0
  6
Continuous
 62
     7
370
     0
100
AcDbPolyline
 90
       10
 70
   128
 43
0.0
 10
13.6309320805
 20
8.3998818091
 10
13.627975369
 20
8.4087070921
 10
13.6310963298
 20
8.4177647364
 10
13.6399840167
 20
8.4254434437
 10
13.6532853691
 20
8.4305741961
 10
13.6689753692
 20
8.4323758884
 10
13.6846654125
 20
8.4305741961
 10
13.6979667714
 20
8.4254434449
 10
13.7068544561
 20
8.4177647339
 10
13.7097720567
 20
8.4110613089
  0
ARC
  5
3D2
330
1F
100
AcDbEntity
  8
0
  6
Continuous
 62
     7
370
     0
100
AcDbCircle
 10
13.0245659767
 20
9.3631179648
 30
0.0
 40
0.0336032869199634
100
AcDbArc
 50
65.7631158821
 51
125.5473397314
  0
LWPOLYLINE
  5
3D3
330
1F
100
AcDbEntity
  8
0
  6
Continuous
 62
     7
370
     0
100
AcDbPolyline
 90
       14
 70
   128
 43
0.0
 10
16.1525857445
 20
7.3746408219
 10
16.0996461984
 20
7.3073298192
 10
16.0398252598
 20
7.2419678995
 10
15.9733374655
 20
7.1787892312
 10
15.9004207557
 20
7.1180202597
 10
15.8213366902
 20
7.059878555
 10
15.7363685209
 20
7.0045724967
 10
15.6458205869
 20
6.9523002871
 10
15.5500173036
 20
6.903249207
 10
15.4493020042
 20
6.8575949478
 10
15.3440356523
 20
6.8155010272
 10
15.2345951308
 20
6.7771184406
 10
15.121372697
 20
6.7425845478
 10
15.0047739868
 20
6.7120231984
  0
LINE
  5
3D4
330
1F
100
AcDbEntity
  8
0
  6
Continuous
 62
     7
370
     0
100
AcDbLine
 10
15.0047739868
 20
6.8769964711
 30
0.0
 11
15.0047739868
 21
6.7120231984
 31
0.0
  0
SPLINE
  5
3D5
330
1F
100
AcDbEntity
  8
0
  6
Continuous
 62
     7
370
     0
100
AcDbSpline
210
0.0
220
0.0
230
1.0
 70
     8
 71
     3
 72
    10
 73
     6
 74
     0
 42
0.00000001
 43
0.00000001
 40
0.0
 40
0.0
 40
0.0
 40
0.0
 40
0.2920471523524346
 40
0.5930715547789365
 40
1.0
 40
1.0
 40
1.0
 40
1.0
 10
15.09624806595233
 20
6.974559411520899
 30
0.0
 10
15.08944124276748
 20
6.963728341712407
 30
0.0
 10
15.07561836116488
 20
6.941733265371137
 30
0.0
 10
15.04535957752013
 20
6.907794343475103
 30
0.0
 10
15.01958760994497
 20
6.888237605393156
 30
0.0
 10
15.00477398679127
 20
6.876996471117439
 30
0.0
  0
LWPOLYLINE
  5
3D6
330
1F
100
AcDbEntity
  8
0
  6
Continuous
 62
     7
370
     0
100
AcDbPolyline
 90
       12
 70
   128
 43
0.0
 10
16.1117708497
 20
7.5608082359
 10
16.0509812112
 20
7.4924377274
 10
15.9829430199
 20
7.4263822824
 10
15.9079199356
 20
7.3628975626
 10
15.8262020983
 20
7.3022296105
 10
15.7381062444
 20
7.244613161
 10
15.643973348
 20
7.1902713966
 10
15.544167916
 20
7.1394147427
 10
15.4390765537
 20
7.0922400393
 10
15.3291058779
 20
7.0489301347
 10
15.214682093
 20
7.0096525229
 10
15.096248066
 20
6.9745594115
  0
SPLINE
  5
3D7
330
1F
100
AcDbEntity
  8
0
  6
Continuous
 62
     7
370
     0
100
AcDbSpline
210
0.0
220
0.0
230
1.0
 70
     8
 71
     3
 72
    10
 73
     6
 74
     0
 42
0.00000001
 43
0.00000001
 40
0.0
 40
0.0
 40
0.0
 40
0.0
 40
0.4069292114324993
 40
0.6991083972523799
 40
1.0
 40
1.0
 40
1.0
 40
1.0
 10
16.1525857444506
 20
7.539614094601477
 30
0.0
 10
16.14626736294391
 20
7.538654747620605
 30
0.0
 10
16.13541232122101
 20
7.537006580049037
 30
0.0
 10
16.12160221258259
 20
7.54539442230092
 30
0.0
 10
16.11507990899299
 20
7.55562022452833
 30
0.0
 10
16.11177084973984
 20
7.560808235944331
 30
0.0
  0
LINE
  5
3D8
330
1F
100
AcDbEntity
  8
0
  6
Continuous
 62
     7
370
     0
100
AcDbLine
 10
16.1525857445
 20
7.3746408219
 30
0.0
 11
16.1525857445
 21
7.5396140946
 31
0.0
  0
ARC
  5
3D9
330
1F
100
AcDbEntity
  8
0
  6
Continuous
 62
     7
370
     0
100
AcDbCircle
 10
14.9376095071
 20
6.9729112891
 30
0.0
 40
0.1586471199589417
100
AcDbArc
 50
0.5952339886
 51
34.9370573164
  0
LWPOLYLINE
  5
3DA
330
1F
100
AcDbEntity
  8
0
  6
Continuous
 62
     7
370
     0
100
AcDbPolyline
 90
       12
 70
   128
 43
0.0
 10
15.0676655058
 20
7.0637647197
 10
15.1824089181
 20
7.0977642197
 10
15.2932670907
 20
7.135817785
 10
15.3998106559
 20
7.1777781273
 10
15.5016272371
 20
7.2234827016
 10
15.5983224161
 20
7.2727545844
 10
15.6895219116
 20
7.3254029325
 10
15.7748725639
 20
7.3812238712
 10
15.8540437872
 20
7.4400013324
 10
15.9267291076
 20
7.5015076234
 10
15.9926469584
 20
7.5655046842
 10
16.0515422012
 20
7.6317446462
  0
ARC
  5
3DB
330
1F
100
AcDbEntity
  8
0
  6
Continuous
 62
     7
370
     0
100
AcDbCircle
 10
16.0314897123
 20
7.553682245
 30
0.0
 40
0.0805967789641653
100
AcDbArc
 50
5.0724487997
 51
75.5934786827
  0
SPLINE
  5
3DC
330
1F
100
AcDbEntity
  8
0
  6
Continuous
 62
     7
370
     0
100
AcDbSpline
210
0.0
220
0.0
230
1.0
 70
     8
 71
     3
 72
     9
 73
     5
 74
     0
 42
0.00000001
 43
0.00000001
 40
0.0
 40
0.0
 40
0.0
 40
0.0
 40
0.4105119792809126
 40
0.9999999999999999
 40
0.9999999999999999
 40
0.9999999999999999
 40
0.9999999999999999
 10
14.95614526272002
 20
6.94686537684113
 30
0.0
 10
14.96769007931222
 20
6.954076954788673
 30
0.0
 10
14.99581305056491
 20
6.971644232508986
 30
0.0
 10
15.01509357796955
 20
6.997021542746606
 30
0.0
 10
15.02645921790773
 20
7.011981163129756
 30
0.0
  0
ARC
  5
3DD
330
1F
100
AcDbEntity
  8
0
  6
Continuous
 62
     7
370
     0
100
AcDbCircle
 10
15.1476553771
 20
7.1542167535
 30
0.0
 40
0.1868675257161778
100
AcDbArc
 50
229.5663336702
 51
254.0320089279
  0
ARC
  5
3DE
330
1F
100
AcDbEntity
  8
0
  6
Continuous
 62
     7
370
     0
100
AcDbCircle
 10
12.0867765862
 20
4.8979289502
 30
0.0
 40
3.525821476258706
100
AcDbArc
 50
34.1462189601
 51
35.529576741
  0
ARC
  5
3DF
330
1F
100
AcDbEntity
  8
0
  6
Continuous
 62
     7
370
     0
100
AcDbCircle
 10
15.1230358866
 20
6.9774177092
 30
0.0
 40
0.1025752664554211
100
AcDbArc
 50
122.6701922075
 51
160.3084139676
  0
ARC
  5
3E0
330
1F
100
AcDbEntity
  8
0
  6
Continuous
 62
     7
370
     0
100
AcDbCircle
 10
15.6013023992
 20
7.3334219749
 30
0.0
 40
0.0183798310507071
100
AcDbArc
 50
276.5862438893
 51
323.408379578
  0
LINE
  5
3E1
330
1F
100
AcDbEntity
  8
0
  6
Continuous
 62
     7
370
     0
100
AcDbLine
 10
15.6160596513
 20
7.3224656205
 30
0.0
 11
15.6561290468
 21
7.3918603046
 31
0.0
  0
ARC
  5
3E2
330
1F
100
AcDbEntity
  8
0
  6
Continuous
 62
     7
370
     0
100
AcDbCircle
 10
15.648331839
 20
7.3955672858
 30
0.0
 40
0.0086335485109025
100
AcDbArc
 50
334.5724554375
 51
69.9097904638
  0
LINE
  5
3E3
330
1F
100
AcDbEntity
  8
0
  6
Continuous
 62
     7
370
     0
100
AcDbLine
 10
15.6512974562
 20
7.4036755084
 30
0.0
 11
15.5798990631
 21
7.4448929234
 31
0.0
  0
ARC
  5
3E4
330
1F
100
AcDbEntity
  8
0
  6
Continuous
 62
     7
370
     0
100
AcDbCircle
 10
15.5657569144
 20
7.4175989357
 30
0.0
 40
0.0307402364145353
100
AcDbArc
 50
62.6094498778
 51
117.3905299092
  0
LINE
  5
3E5
330
1F
100
AcDbEntity
  8
0
  6
Continuous
 62
     7
370
     0
100
AcDbLine
 10
15.5516147753
 20
7.4448929284
 30
0.0
 11
15.391337245
 21
7.3523666796
 31
0.0
  0
ARC
  5
3E6
330
1F
100
AcDbEntity
  8
0
  6
Continuous
 62
     7
370
     0
100
AcDbCircle
 10
15.3944357234
 20
7.3442025954
 30
0.0
 40
0.0087322872452971
100
AcDbArc
 50
110.7830324843
 51
249.2170281678
  0
LINE
  5
3E7
330
1F
100
AcDbEntity
  8
0
  6
Continuous
 62
     7
370
     0
100
AcDbLine
 10
15.3913372536
 20
7.3360385078
 30
0.0
 11
15.4627356467
 21
7.2948210928
 31
0.0
  0
ARC
  5
3E8
330
1F
100
AcDbEntity
  8
0
  6
Continuous
 62
     7
370
     0
100
AcDbCircle
 10
15.4769101912
 20
7.3223460336
 30
0.0
 40
0.0309602984139198
100
AcDbArc
 50
242.752848639
 51
281.7261784025
  0
LINE
  5
3E9
330
1F
100
AcDbEntity
  8
0
  6
Continuous
 62
     7
370
     0
100
AcDbLine
 10
15.4832023976
 20
7.2920318749
 30
0.0
 11
15.603410541
 21
7.3151634446
 31
0.0
  0
LINE
  5
3EA
330
1F
100
AcDbEntity
  8
0
  6
Continuous
 62
     7
370
     0
100
AcDbLine
 10
13.8731151765
 20
8.4753978457
 30
0.0
 11
13.9190771237
 21
8.4488645784
 31
0.0
  0
LINE
  5
3EB
330
1F
100
AcDbEntity
  8
0
  6
Continuous
 62
     7
370
     0
100
AcDbLine
 10
13.8731151765
 20
8.4753978457
 30
0.0
 11
14.2316244127
 21
8.6823608225
 31
0.0
  0
LINE
  5
3EC
330
1F
100
AcDbEntity
  8
0
  6
Continuous
 62
     7
370
     0
100
AcDbLine
 10
16.0515422012
 20
7.6317446462
 30
0.0
 11
14.2316244127
 21
8.6823608225
 31
0.0
  0
LINE
  5
3ED
330
1F
100
AcDbEntity
  8
0
  6
Continuous
 62
     7
370
     0
100
AcDbLine
 10
13.2477477173
 20
8.114380896
 30
0.0
 11
15.0676655058
 21
7.0637647197
 31
0.0
  0
LINE
  5
3EE
330
1F
100
AcDbEntity
  8
0
  6
Continuous
 62
     7
370
     0
100
AcDbLine
 10
13.2477477173
 20
8.114380896
 30
0.0
 11
13.6062569536
 21
8.3213438728
 31
0.0
  0
LINE
  5
3EF
330
1F
100
AcDbEntity
  8
0
  6
Continuous
 62
     7
370
     0
100
AcDbLine
 10
13.6522189008
 20
8.2948106054
 30
0.0
 11
13.6062569536
 21
8.3213438728
 31
0.0
  0
LWPOLYLINE
  5
3F0
330
1F
100
AcDbEntity
  8
0
  6
Continuous
 62
     7
370
     0
100
AcDbPolyline
 90
       17
 70
   128
 43
0.0
 10
13.9190771237
 20
8.4488645784
 10
13.9425440461
 20
8.4323573077
 10
13.9599815442
 20
8.4135243018
 10
13.9707195099
 20
8.39308929
 10
13.9743452728
 20
8.3718375969
 10
13.9707195013
 20
8.3505858988
 10
13.9599815442
 20
8.3301508919
 10
13.9425440483
 20
8.3113178773
 10
13.9190771151
 20
8.2948106104
 10
13.8904825918
 20
8.2812634382
 10
13.8578593189
 20
8.2711969861
 10
13.8224610132
 20
8.2649980954
 10
13.7856480036
 20
8.2629049821
 10
13.7488350026
 20
8.2649980904
 10
13.7134366884
 20
8.2711969861
 10
13.6808134305
 20
8.2812634395
 10
13.6522189008
 20
8.2948106054
  0
LWPOLYLINE
  5
3F1
330
1F
100
AcDbEntity
  8
0
  6
Continuous
 62
     7
370
     0
100
AcDbPolyline
 90
       19
 70
   128
 43
0.0
 10
15.0598544766
 20
7.0944309999
 10
15.0769237774
 20
7.08753125
 10
15.0970515248
 20
7.0844178103
 10
15.1178099885
 20
7.0854662603
 10
15.1366954202
 20
7.0905500964
 10
15.1514299474
 20
7.0990561579
 10
15.1602363987
 20
7.1099585055
 10
15.1620525296
 20
7.1219420916
 10
15.1566593439
 20
7.1335616128
 10
15.1447072969
 20
7.1434154904
 10
15.1276378924
 20
7.1503153401
 10
15.1075101104
 20
7.15342876
 10
15.0867516813
 20
7.1523803299
 10
15.067866215
 20
7.1472964738
 10
15.0531316878
 20
7.1387904123
 10
15.0443252711
 20
7.1278880846
 10
15.0425091056
 20
7.1159044786
 10
15.0479023259
 20
7.1042849774
 10
15.0598544766
 20
7.0944309999
  0
LWPOLYLINE
  5
3F2
330
1F
100
AcDbEntity
  8
0
  6
Continuous
 62
     7
370
     0
100
AcDbPolyline
 90
       19
 70
   128
 43
0.0
 10
15.9135680696
 20
7.5872693668
 10
15.9306373359
 20
7.580369597
 10
15.9507651179
 20
7.5772561772
 10
15.971523547
 20
7.5783046072
 10
15.9904090133
 20
7.5833884633
 10
16.0051435405
 20
7.5918945248
 10
16.0139499571
 20
7.6027968525
 10
16.0157661226
 20
7.6147804585
 10
16.0103729024
 20
7.6263999598
 10
15.99842089
 20
7.6362538574
 10
15.9813514509
 20
7.6431536871
 10
15.9612237035
 20
7.6462671269
 10
15.9404652398
 20
7.6452186768
 10
15.921579808
 20
7.6401348407
 10
15.9068452809
 20
7.6316287792
 10
15.8980388296
 20
7.6207264316
 10
15.8962226987
 20
7.6087428455
 10
15.9016158844
 20
7.5971233243
 10
15.9135680696
 20
7.5872693668
  0
LINE
  5
3F3
330
1F
100
AcDbEntity
  8
0
  6
Continuous
 62
     7
370
     0
100
AcDbLine
 10
13.1607676427
 20
7.9833148154
 30
0.0
 11
14.9561452627
 21
6.9468653768
 31
0.0
  0
ARC
  5
3F4
330
1F
100
AcDbEntity
  8
0
  6
Continuous
 62
     7
370
     0
100
AcDbCircle
 10
12.9406126965
 20
8.1632763493
 30
0.0
 40
0.2843490003715644
100
AcDbArc
 50
320.7363625074
 51
339.263637347
  0
LINE
  5
3F5
330
1F
100
AcDbEntity
  8
0
  6
Continuous
 62
     7
370
     0
100
AcDbLine
 10
15.0264592179
 20
7.0119811631
 30
0.0
 11
13.2065414294
 21
8.0625973394
 31
0.0
  0
ARC
  5
3F6
330
1F
100
AcDbEntity
  8
0
  6
Continuous
 62
     7
370
     0
100
AcDbCircle
 10
14.9793343776
 20
6.9778072708
 30
0.0
 40
0.1039711068236501
100
AcDbArc
 50
242.8571297049
 51
284.1629000706
  0
ARC
  5
3F7
330
1F
100
AcDbEntity
  8
0
  6
Continuous
 62
     7
370
     0
100
AcDbCircle
 10
15.0343732555
 20
6.8805051888
 30
0.0
 40
0.102583104889622
100
AcDbArc
 50
139.6923215368
 51
177.3286225602
  0
ARC
  5
3F8
330
1F
100
AcDbEntity
  8
0
  6
Continuous
 62
     7
370
     0
100
AcDbCircle
 10
13.3031180981
 20
8.0280338855
 30
0.0
 40
0.1025752664554067
100
AcDbArc
 50
122.6701922074
 51
160.3084139676
  0
LINE
  5
3F9
330
1F
100
AcDbEntity
  8
0
  6
Continuous
 62
     7
370
     0
100
AcDbLine
 10
14.9319016294
 20
6.7203130521
 30
0.0
 11
14.9319016294
 21
6.8852863248
 31
0.0
  0
ARC
  5
3FA
330
1F
100
AcDbEntity
  8
0
  6
Continuous
 62
     7
370
     0
100
AcDbCircle
 10
14.9793343776
 20
6.8128339981
 30
0.0
 40
0.1039711068236217
100
AcDbArc
 50
242.8571297049
 51
284.1629000706
  0
LINE
  5
3FB
330
1F
100
AcDbEntity
  8
0
  6
Continuous
 62
     7
370
     0
100
AcDbLine
 10
14.9319016294
 20
6.8852863248
 30
0.0
 11
13.1365240094
 21
7.9217357634
 31
0.0
  0
ARC
  5
3FC
330
1F
100
AcDbEntity
  8
0
  6
Continuous
 62
     7
370
     0
100
AcDbCircle
 10
13.2389956354
 20
7.9169546274
 30
0.0
 40
0.1025831048896177
100
AcDbArc
 50
139.6923215368
 51
177.3286225602
  0
LINE
  5
3FD
330
1F
100
AcDbEntity
  8
0
  6
Continuous
 62
     7
370
     0
100
AcDbLine
 10
11.8766619235
 20
8.6490386645
 30
0.0
 11
11.8766619235
 21
8.4840653918
 31
0.0
  0
LINE
  5
3FE
330
1F
100
AcDbEntity
  8
0
  6
Continuous
 62
     7
370
     0
100
AcDbLine
 10
11.9085152892
 20
8.6306501079
 30
0.0
 11
11.8766619235
 21
8.6490386645
 31
0.0
  0
LINE
  5
3FF
330
1F
100
AcDbEntity
  8
0
  6
Continuous
 62
     7
370
     0
100
AcDbLine
 10
11.9085152892
 20
8.6066662161
 30
0.0
 11
11.9085152892
 21
8.6306501079
 31
0.0
  0
LINE
  5
400
330
1F
100
AcDbEntity
  8
0
  6
Continuous
 62
     7
370
     0
100
AcDbLine
 10
11.9085152892
 20
8.6066662161
 30
0.0
 11
13.1365240094
 21
7.8977518716
 31
0.0
  0
LINE
  5
401
330
1F
100
AcDbEntity
  8
0
  6
Continuous
 62
     7
370
     0
100
AcDbLine
 10
13.1365240094
 20
7.8977518716
 30
0.0
 11
13.1365240094
 21
7.9217357634
 31
0.0
  0
LINE
  5
402
330
1F
100
AcDbEntity
  8
0
  6
Continuous
 62
     7
370
     0
100
AcDbLine
 10
14.9319016294
 20
6.7203130521
 30
0.0
 11
11.8766619235
 21
8.4840653918
 31
0.0
  0
ARC
  5
403
330
1F
100
AcDbEntity
  8
0
  6
Continuous
 62
     7
370
     0
100
AcDbCircle
 10
16.0840118635
 20
7.5523011393
 30
0.0
 40
0.0697376386780416
100
AcDbArc
 50
349.518073525
 51
64.5478552904
  0
ARC
  5
404
330
1F
100
AcDbEntity
  8
0
  6
Continuous
 62
     7
370
     0
100
AcDbCircle
 10
14.2511605373
 20
8.6550199972
 30
0.0
 40
0.0336032869199432
100
AcDbArc
 50
65.7631158821
 51
125.5473397314
  0
ARC
  5
405
330
1F
100
AcDbEntity
  8
0
  6
Continuous
 62
     7
370
     0
100
AcDbCircle
 10
16.1326856114
 20
7.3898875042
 30
0.0
 40
0.0250694359964286
100
AcDbArc
 50
322.5421147481
 51
359.1041287008
  0
LINE
  5
406
330
1F
100
AcDbEntity
  8
0
  6
Continuous
 62
     7
370
     0
100
AcDbLine
 10
11.9173118537
 20
8.6117443646
 30
0.0
 11
11.9085152892
 21
8.6066662161
 31
0.0
  0
LWPOLYLINE
  5
407
330
1F
100
AcDbEntity
  8
0
  6
Continuous
 62
     7
370
     0
100
AcDbPolyline
 90
        3
 70
   128
 43
0.0
 10
13.9250964042
 20
8.3133055359
 10
13.9290394027
 20
8.317502665
 10
13.9313284109
 20
8.320203249
  0
ARC
  5
408
330
1F
100
AcDbEntity
  8
0
  6
Continuous
 62
     7
370
     0
100
AcDbCircle
 10
13.9462621021
 20
8.4061946133
 30
0.0
 40
0.0505939618230088
100
AcDbArc
 50
122.5011581962
 51
157.7239051073
  0
LWPOLYLINE
  5
409
330
1F
100
AcDbEntity
  8
0
  6
Continuous
 62
     7
370
     0
100
AcDbPolyline
 90
       13
 70
   128
 43
0.0
 10
13.7111180586
 20
8.2923402059
 10
13.7329473744
 20
8.282670506
 10
13.758368156
 20
8.2765918801
 10
13.7856479993
 20
8.2745185835
 10
13.8129278642
 20
8.2765918826
 10
13.8383486328
 20
8.282670516
 10
13.8601779659
 20
8.2923402059
 10
13.8769281751
 20
8.3049420117
 10
13.8874578178
 20
8.3196171091
 10
13.8910492664
 20
8.3353654398
 10
13.8874578221
 20
8.3511137581
 10
13.8769281924
 20
8.365788863
 10
13.8601779659
 20
8.3783906588
  0
ARC
  5
40A
330
1F
100
AcDbEntity
  8
0
  6
Continuous
 62
     7
370
     0
100
AcDbCircle
 10
13.8058078409
 20
8.4637307295
 30
0.0
 40
0.1011881325317492
100
AcDbArc
 50
302.5011957419
 51
337.7238675617
  0
ARC
  5
40B
330
1F
100
AcDbEntity
  8
0
  6
Continuous
 62
     7
370
     0
100
AcDbCircle
 10
13.6159459282
 20
8.3084721313
 30
0.0
 40
0.0161108025111398
100
AcDbArc
 50
64.3405005214
 51
126.9699550921
  0
LINE
  5
40C
330
1F
100
AcDbEntity
  8
0
  6
Continuous
 62
     7
370
     0
100
AcDbLine
 10
13.6651561114
 20
8.3188734733
 30
0.0
 11
13.7111180586
 21
8.2923402059
 31
0.0
  0
LINE
  5
40D
330
1F
100
AcDbEntity
  8
0
  6
Continuous
 62
     7
370
     0
100
AcDbLine
 10
13.6777977201
 20
8.3261713187
 30
0.0
 11
13.6651561114
 21
8.3188734733
 31
0.0
  0
ARC
  5
40E
330
1F
100
AcDbEntity
  8
0
  6
Continuous
 62
     7
370
     0
100
AcDbCircle
 10
13.6435509713
 20
8.3525803872
 30
0.0
 40
0.0400367097176559
100
AcDbArc
 50
266.1593006412
 51
302.6586765991
  0
ARC
  5
40F
330
1F
100
AcDbEntity
  8
0
  6
Continuous
 62
     7
370
     0
100
AcDbCircle
 10
13.89353635
 20
8.4409067284
 30
0.0
 40
0.0400831822255066
100
AcDbArc
 50
120.6285242468
 51
136.210324048
  0
LINE
  5
410
330
1F
100
AcDbEntity
  8
0
  6
Continuous
 62
     7
370
     0
100
AcDbLine
 10
13.0036156925
 20
9.3912751669
 30
0.0
 11
12.942621715
 21
9.3560640932
 31
0.0
  0
ARC
  5
411
330
1F
100
AcDbEntity
  8
0
  6
Continuous
 62
     7
370
     0
100
AcDbCircle
 10
13.0230401501
 20
9.3642395904
 30
0.0
 40
0.0332901179310757
100
AcDbArc
 50
63.9763634722
 51
125.6964010278
  0
ARC
  5
412
330
1F
100
AcDbEntity
  8
0
  6
Continuous
 62
     7
370
     0
100
AcDbCircle
 10
12.0109869153
 20
8.6258689718
 30
0.0
 40
0.1025831048896236
100
AcDbArc
 50
139.6923215368
 51
177.3286225602
  0
ARC
  5
413
330
1F
100
AcDbEntity
  8
0
  6
Continuous
 62
     7
370
     0
100
AcDbCircle
 10
11.7126039763
 20
8.8721906938
 30
0.0
 40
0.2843490003714966
100
AcDbArc
 50
320.7363625074
 51
339.263637347
  0
ARC
  5
414
330
1F
100
AcDbEntity
  8
0
  6
Continuous
 62
     7
370
     0
100
AcDbCircle
 10
12.075109378
 20
8.73694823
 30
0.0
 40
0.1025752664554312
100
AcDbArc
 50
122.6701922075
 51
160.3084139676
  0
LINE
  5
415
330
1F
100
AcDbEntity
  8
0
  6
Continuous
 62
     7
370
     0
100
AcDbLine
 10
12.085529806
 20
8.861275466
 30
0.0
 11
12.0197389972
 21
8.8232952405
 31
0.0
  0
LINE
  5
416
330
1F
100
AcDbEntity
  8
0
  6
Continuous
 62
     7
370
     0
100
AcDbLine
 10
12.085529806
 20
8.8596426464
 30
0.0
 11
12.085529806
 21
8.861275466
 31
0.0
  0
LINE
  5
417
330
1F
100
AcDbEntity
  8
0
  6
Continuous
 62
     7
370
     0
100
AcDbLine
 10
12.835063006
 20
9.2939717722
 30
0.0
 11
12.193088515
 21
8.923367787
 31
0.0
  0
LINE
  5
418
330
1F
100
AcDbEntity
  8
0
  6
Continuous
 62
     7
370
     0
100
AcDbLine
 10
12.835063006
 20
9.2939717722
 30
0.0
 11
12.835063006
 21
9.2923389526
 31
0.0
  0
SPLINE
  5
419
330
1F
100
AcDbEntity
  8
0
  6
Continuous
 62
     7
370
     0
100
AcDbSpline
210
0.0
220
0.0
230
1.0
 70
     8
 71
     3
 72
     9
 73
     5
 74
     0
 42
0.00000001
 43
0.00000001
 40
0.0
 40
0.0
 40
0.0
 40
0.0
 40
0.5894880207190873
 40
0.9999999999999999
 40
0.9999999999999999
 40
0.9999999999999999
 40
0.9999999999999999
 10
11.92213917502856
 20
8.80406697826477
 30
0.0
 10
11.9183876018146
 20
8.784711850722728
 30
0.0
 10
11.91202348060755
 20
8.751878057902932
 30
0.0
 10
11.90414129032904
 20
8.722626026043214
 30
0.0
 10
11.90090555679674
 20
8.710617716546492
 30
0.0
  0
LINE
  5
41A
330
1F
100
AcDbEntity
  8
0
  6
Continuous
 62
     7
370
     0
100
AcDbLine
 10
11.9785327092
 20
8.7715116839
 30
0.0
 11
11.922139175
 21
8.8040669783
 31
0.0
  0
LINE
  5
41B
330
1F
100
AcDbEntity
  8
0
  6
Continuous
 62
     7
370
     0
100
AcDbLine
 10
11.9009055568
 20
8.7106177165
 30
0.0
 11
11.9327589225
 21
8.6922291599
 31
0.0
  0
ARC
  5
41C
330
1F
100
AcDbEntity
  8
0
  6
Continuous
 62
     7
370
     0
100
AcDbCircle
 10
11.9791335495
 20
8.6442575285
 30
0.0
 40
0.1025831048896463
100
AcDbArc
 50
139.6923215368
 51
177.3286225602
  0
ARC
  5
41D
330
1F
100
AcDbEntity
  8
0
  6
Continuous
 62
     7
370
     0
100
AcDbCircle
 10
12.0187158438
 20
8.7695035244
 30
0.0
 40
0.1025752664554469
100
AcDbArc
 50
122.6701922075
 51
160.3084139676
  0
LINE
  5
41E
330
1F
100
AcDbEntity
  8
0
  6
Continuous
 62
     7
370
     0
100
AcDbLine
 10
11.963345463
 20
8.8558505348
 30
0.0
 11
12.0197389972
 21
8.8232952405
 31
0.0
  0
LWPOLYLINE
  5
41F
330
1F
100
AcDbEntity
  8
0
  6
Continuous
 62
     7
370
     0
100
AcDbPolyline
 90
        7
 70
   128
 43
0.0
 10
12.1378466904
 20
8.9183354983
 10
12.1256807288
 20
8.9148997625
 10
12.1086264656
 20
8.9072652374
 10
12.0954016128
 20
8.8974200009
 10
12.0868390132
 20
8.8859840587
 10
12.0834778781
 20
8.8736775579
 10
12.085529806
 20
8.861275466
  0
ARC
  5
420
330
1F
100
AcDbEntity
  8
0
  6
Continuous
 62
     7
370
     0
100
AcDbCircle
 10
12.958250409
 20
8.0284602358
 30
0.0
 40
1.293990169380494
100
AcDbArc
 50
128.2832819406
 51
140.2521586774
  0
LWPOLYLINE
  5
421
330
1F
100
AcDbEntity
  8
0
  6
Continuous
 62
     7
370
     0
100
AcDbPolyline
 90
       18
 70
   128
 43
0.0
 10
12.1565587745
 20
9.0441871094
 10
12.1485657727
 20
9.0326165214
 10
12.1481804118
 20
9.0201617345
 10
12.1554523334
 20
9.0084337102
 10
12.1694411669
 20
8.9989492457
 10
12.1883375917
 20
8.9929350417
 10
12.209697526
 20
8.991168979
 10
12.2307585572
 20
8.993879409
 10
12.2487966789
 20
9.0007157674
 10
12.2614787251
 20
9.0107939751
 10
12.2671646606
 20
9.0228104393
 10
12.2651189897
 20
9.0352110345
 10
12.2556062193
 20
9.0463919737
 10
12.2398568767
 20
9.0549070555
 10
12.2199078178
 20
9.0596550252
 10
12.1983391543
 20
9.0600217841
 10
12.1779405221
 20
9.0559599358
 10
12.1613502649
 20
9.047994743
  0
ARC
  5
422
330
1F
100
AcDbEntity
  8
0
  6
Continuous
 62
     7
370
     0
100
AcDbCircle
 10
13.3531391147
 20
7.5066771985
 30
0.0
 40
1.948337864866322
100
AcDbArc
 50
112.2824479208
 51
127.7121755465
  0
LWPOLYLINE
  5
423
330
1F
100
AcDbEntity
  8
0
  6
Continuous
 62
     7
370
     0
100
AcDbPolyline
 90
       18
 70
   128
 43
0.0
 10
12.6143825636
 20
9.3095247222
 10
12.6005849499
 20
9.2999473706
 10
12.5935488599
 20
9.2881714909
 10
12.5941841738
 20
9.2757201664
 10
12.6024087898
 20
9.2642038199
 10
12.6171589423
 20
9.255111918
 10
12.6365269955
 20
9.2496203124
 10
12.658007784
 20
9.2484393718
 10
12.678823166
 20
9.2517217925
 10
12.6962810253
 20
9.2590429819
 10
12.7081232285
 20
9.269456168
 10
12.7128183397
 20
9.2816144425
 10
12.709759098
 20
9.2939452701
 10
12.6993410621
 20
9.3048539439
 10
12.6829117076
 20
9.3129295256
 10
12.6625959725
 20
9.3171275166
 10
12.6410213111
 20
9.3169050525
 10
12.620978293
 20
9.3122907907
  0
ARC
  5
424
330
1F
100
AcDbEntity
  8
0
  6
Continuous
 62
     7
370
     0
100
AcDbCircle
 10
13.6543498553
 20
6.8226559149
 30
0.0
 40
2.695577600574123
100
AcDbArc
 50
105.2082911967
 51
112.5418481275
  0
LINE
  5
425
330
1F
100
AcDbEntity
  8
0
  6
Continuous
 62
     7
370
     0
100
AcDbLine
 10
13.0036156925
 20
9.3912751669
 30
0.0
 11
12.9472221583
 21
9.4238304613
 31
0.0
  0
LWPOLYLINE
  5
426
330
1F
100
AcDbEntity
  8
0
  6
Continuous
 62
     7
370
     0
100
AcDbPolyline
 90
        7
 70
   128
 43
0.0
 10
12.835063006
 20
9.2939717722
 10
12.8330110436
 20
9.3063738442
 10
12.8363722133
 20
9.3186803649
 10
12.8449348129
 20
9.3301163071
 10
12.8581596311
 20
9.3399615237
 10
12.8752139289
 20
9.3475960687
 10
12.8873798905
 20
9.3510318045
  0
ARC
  5
427
330
1F
100
AcDbEntity
  8
0
  6
Continuous
 62
     7
370
     0
100
AcDbCircle
 10
11.8900403345
 20
8.5142766527
 30
0.0
 40
0.0330409165916329
100
AcDbArc
 50
185.2053561152
 51
246.1148662567
  0
LINE
  5
428
330
1F
100
AcDbEntity
  8
0
  6
Continuous
 62
     7
370
     0
100
AcDbLine
 10
12.1565587745
 20
9.0441871094
 30
0.0
 11
12.1613502649
 21
9.047994743
 31
0.0
  0
LINE
  5
429
330
1F
100
AcDbEntity
  8
0
  6
Continuous
 62
     7
370
     0
100
AcDbLine
 10
12.6143825636
 20
9.3095247222
 30
0.0
 11
12.620978293
 21
9.3122907907
 31
0.0
  0
ARC
  5
42A
330
1F
100
AcDbEntity
  8
0
  6
Continuous
 62
     7
370
     0
100
AcDbCircle
 10
11.8881889923
 20
8.5064005081
 30
0.0
 40
0.0309877271982757
100
AcDbArc
 50
175.7552594899
 51
246.8967112292
  0
ARC
  5
42B
330
1F
100
AcDbEntity
  8
0
  6
Continuous
 62
     7
370
     0
100
AcDbCircle
 10
16.1342916327
 20
7.383173508
 30
0.0
 40
0.0236688373299947
100
AcDbArc
 50
321.9950402988
 51
9.6364534154
  0
LWPOLYLINE
  5
42C
330
1F
100
AcDbEntity
  8
0
  6
Continuous
 62
     7
370
     0
100
AcDbPolyline
 90
       14
 70
   128
 43
0.0
 10
15.0039227532
 20
6.7052854008
 10
15.120671736
 20
6.7358538348
 10
15.2340394644
 20
6.7704042315
 10
15.3436189198
 20
6.8088125819
 10
15.4490165657
 20
6.8509409472
 10
15.5498539465
 20
6.8966380628
 10
15.6457689016
 20
6.9457398796
 10
15.7364171642
 20
6.9980700077
 10
15.8214732215
 20
7.0534405327
 10
15.9006315245
 20
7.1116527135
 10
15.9736079008
 20
7.1724974794
 10
16.0401403241
 20
7.2357563525
 10
16.0999898515
 20
7.301202149
 10
16.1529416696
 20
7.3685999022
  0
ARC
  5
42D
330
1F
100
AcDbEntity
  8
0
  6
Continuous
 62
     7
370
     0
100
AcDbCircle
 10
14.9790171368
 20
6.8040823956
 30
0.0
 40
0.1018878594326074
100
AcDbArc
 50
242.8565252172
 51
284.1488277274
  0
LINE
  5
42E
330
1F
100
AcDbEntity
  8
0
  6
Continuous
 62
     7
370
     0
100
AcDbLine
 10
11.8760297208
 20
8.4778980283
 30
0.0
 11
14.9325338321
 21
6.7134157629
 31
0.0
  0
LINE
  5
42F
330
1F
100
AcDbEntity
  8
0
  6
Continuous
 62
     7
370
     0
100
AcDbLine
 10
16.1529416696
 20
7.130169976
 30
0.0
 11
16.1529416696
 21
7.3685999022
 31
0.0
  0
LWPOLYLINE
  5
430
330
1F
100
AcDbEntity
  8
0
  6
Continuous
 62
     7
370
     0
100
AcDbPolyline
 90
       14
 70
   128
 43
0.0
 10
15.0039227532
 20
6.4668554746
 10
15.120671736
 20
6.4974239085
 10
15.2340394644
 20
6.5319743053
 10
15.3436189198
 20
6.5703826556
 10
15.4490165657
 20
6.612511021
 10
15.5498539465
 20
6.6582081366
 10
15.6457689016
 20
6.7073099533
 10
15.7364171642
 20
6.7596400815
 10
15.8214732215
 20
6.8150106064
 10
15.9006315245
 20
6.8732227873
 10
15.9736079008
 20
6.9340675531
 10
16.0401403241
 20
6.9973264263
 10
16.0999898515
 20
7.0627722228
 10
16.1529416696
 20
7.130169976
  0
LINE
  5
431
330
1F
100
AcDbEntity
  8
0
  6
Continuous
 62
     7
370
     0
100
AcDbLine
 10
15.0039227532
 20
6.7052854008
 30
0.0
 11
15.0039227532
 21
6.4668554746
 31
0.0
  0
LINE
  5
432
330
1F
100
AcDbEntity
  8
0
  6
Continuous
 62
     7
370
     0
100
AcDbLine
 10
14.9325338321
 20
6.4749858366
 30
0.0
 11
14.9325338321
 21
6.7134157629
 31
0.0
  0
ARC
  5
433
330
1F
100
AcDbEntity
  8
0
  6
Continuous
 62
     7
370
     0
100
AcDbCircle
 10
14.9790171368
 20
6.5656524693
 30
0.0
 40
0.1018878594326138
100
AcDbArc
 50
242.8565252172
 51
284.1488277274
  0
LINE
  5
434
330
1F
100
AcDbEntity
  8
0
  6
Continuous
 62
     7
370
     0
100
AcDbLine
 10
11.8760297208
 20
8.4778980283
 30
0.0
 11
11.8760297208
 21
8.2394681021
 31
0.0
  0
LINE
  5
435
330
1F
100
AcDbEntity
  8
0
  6
Continuous
 62
     7
370
     0
100
AcDbLine
 10
11.8760297208
 20
8.2394681021
 30
0.0
 11
14.9325338321
 21
6.4749858366
 31
0.0
  0
LINE
  5
436
330
1F
100
AcDbEntity
  8
0
  6
Continuous
 62
     8
370
     0
100
AcDbLine
 10
13.1358641858
 20
7.9283993392
 30
0.0
 11
13.136920346
 21
7.9290090475
 31
0.0
  0
LWPOLYLINE
  5
437
330
1F
100
AcDbEntity
  8
0
  6
Continuous
 62
     8
370
     0
100
AcDbPolyline
 90
       10
 70
   128
 43
0.0
 10
12.2214579555
 20
8.877047216
 10
12.2187622442
 20
8.8675074922
 10
12.2094632501
 20
8.8578697425
 10
12.1947613909
 20
8.850821956
 10
12.1766420486
 20
8.8473161332
 10
12.1575524508
 20
8.8478256404
 10
12.1400708769
 20
8.8522816478
 10
12.1265580276
 20
8.8600824496
 10
12.11883916
 20
8.8701743474
 10
12.1174579104
 20
8.877047256
  0
LWPOLYLINE
  5
438
330
1F
100
AcDbEntity
  8
0
  6
Continuous
 62
     8
370
     0
100
AcDbPolyline
 90
        8
 70
   128
 43
0.0
 10
12.8822216375
 20
9.2885168844
 10
12.8979871931
 20
9.2822823616
 10
12.9165895025
 20
9.2797566182
 10
12.9355162099
 20
9.2812807492
 10
12.952211091
 20
9.2866489443
 10
12.9644195383
 20
9.295136147
 10
12.9704924594
 20
9.3055962206
 10
12.9709911211
 20
9.3097435023
  0
ARC
  5
439
330
1F
100
AcDbEntity
  8
0
  6
Continuous
 62
     8
370
     0
100
AcDbCircle
 10
12.8914163976
 20
9.3111917618
 30
0.0
 40
0.0244682177258882
100
AcDbArc
 50
183.3931934369
 51
247.9272345881
  0
LINE
  5
43A
330
1F
100
AcDbEntity
  8
0
  6
Continuous
 62
     8
370
     0
100
AcDbLine
 10
15.391337245
 20
7.3523666796
 30
0.0
 11
15.391337245
 21
7.3360385234
 31
0.0
  0
LINE
  5
43B
330
1F
100
AcDbEntity
  8
0
  6
Continuous
 62
     8
370
     0
100
AcDbLine
 10
15.5516147753
 20
7.3051964342
 30
0.0
 11
15.5516147753
 21
7.4448929284
 31
0.0
  0
LINE
  5
43C
330
1F
100
AcDbEntity
  8
0
  6
Continuous
 62
     8
370
     0
100
AcDbLine
 10
15.6512974562
 20
7.3834928033
 30
0.0
 11
15.6512974562
 21
7.4036755084
 31
0.0
  0
LINE
  5
43D
330
1F
100
AcDbEntity
  8
0
  6
Continuous
 62
     8
370
     0
100
AcDbLine
 10
15.5798990631
 20
7.4448929234
 30
0.0
 11
15.5798990631
 21
7.3106391479
 31
0.0
  0
ARC
  5
43E
330
1F
100
AcDbEntity
  8
0
  6
Continuous
 62
     8
370
     0
100
AcDbCircle
 10
16.0710783258
 20
7.6044038209
 30
0.0
 40
0.0336032869199618
100
AcDbArc
 50
65.7631158821
 51
125.5473397314
  0
ARC
  5
43F
330
1F
100
AcDbEntity
  8
0
  6
Continuous
 62
     8
370
     0
100
AcDbCircle
 10
16.0621101257
 20
7.5833282456
 30
0.0
 40
0.0545283260768376
100
AcDbArc
 50
335.6067881025
 51
25.7037388102
  0
LINE
  5
440
330
1F
100
AcDbEntity
  8
0
  6
Continuous
 62
     8
370
     0
100
AcDbLine
 10
16.1096826933
 20
7.6145247446
 30
0.0
 11
16.1139821074
 21
7.6152703599
 31
0.0
  0
LINE
  5
441
330
1F
100
AcDbEntity
  8
0
  6
Continuous
 62
     8
370
     0
100
AcDbLine
 10
16.1139821074
 20
7.6152703599
 30
0.0
 11
16.0994706211
 21
7.6236476626
 31
0.0
  0
ARC
  5
442
330
1F
100
AcDbEntity
  8
0
  6
Continuous
 62
     8
370
     0
100
AcDbCircle
 10
16.1127749855
 20
7.5918688695
 30
0.0
 40
0.0234326031888974
100
AcDbArc
 50
60.2125036229
 51
87.0471221153
  0
ARC
  5
443
330
1F
100
AcDbEntity
  8
0
  6
Continuous
 62
     8
370
     0
100
AcDbCircle
 10
16.1326856114
 20
7.554860777
 30
0.0
 40
0.0250694359964079
100
AcDbArc
 50
322.5421147481
 51
359.1041287008
  0
ARC
  5
444
330
1F
100
AcDbEntity
  8
0
  6
Continuous
 62
     8
370
     0
100
AcDbCircle
 10
13.6619017301
 20
8.2819588086
 30
0.0
 40
0.0160911734871301
100
AcDbArc
 50
64.0871013743
 51
126.995182134
  0
LWPOLYLINE
  5
445
330
1F
100
AcDbEntity
  8
0
  6
Continuous
 62
     8
370
     0
100
AcDbPolyline
 90
        7
 70
   128
 43
0.0
 10
13.9313284109
 20
8.320203249
 10
13.9410963112
 20
8.335634879
 10
13.9463593868
 20
8.3548179852
 10
13.9445986013
 20
8.3742136022
 10
13.9358908971
 20
8.3929740366
 10
13.9206168734
 20
8.4102793742
 10
13.8994440711
 20
8.4253732718
  0
ARC
  5
446
330
1F
100
AcDbEntity
  8
0
  6
Continuous
 62
     8
370
     0
100
AcDbCircle
 10
13.6887855689
 20
8.3280508095
 30
0.0
 40
0.0421187286364682
100
AcDbArc
 50
270.3905547888
 51
302.0207977246
  0
LINE
  5
447
330
1F
100
AcDbEntity
  8
0
  6
Continuous
 62
     8
370
     0
100
AcDbLine
 10
13.8601779659
 20
8.3783906588
 30
0.0
 11
13.8432833955
 21
8.3881436867
 31
0.0
  0
LINE
  5
448
330
1F
100
AcDbEntity
  8
0
  6
Continuous
 62
     8
370
     0
100
AcDbLine
 10
13.8994440711
 20
8.4253732718
 30
0.0
 11
13.8650358984
 21
8.4452366872
 31
0.0
  0
LWPOLYLINE
  5
449
330
1F
100
AcDbEntity
  8
0
  6
Continuous
 62
     8
370
     0
100
AcDbPolyline
 90
        7
 70
   128
 43
0.0
 10
11.9009055568
 20
8.7106177165
 10
11.8912054209
 20
8.7115977697
 10
11.8824806222
 20
8.7115203515
 10
11.8749919514
 20
8.7103878146
 10
11.8689636246
 20
8.7082340286
 10
11.8645758169
 20
8.7051234617
 10
11.8621396862
 20
8.7015831646
  0
ARC
  5
44A
330
1F
100
AcDbEntity
  8
0
  6
Continuous
 62
     8
370
     0
100
AcDbCircle
 10
11.9276921725
 20
8.8448729408
 30
0.0
 40
0.0411820635491872
100
AcDbArc
 50
224.4625268073
 51
262.2506207331
  0
ARC
  5
44B
330
1F
100
AcDbEntity
  8
0
  6
Continuous
 62
     8
370
     0
100
AcDbCircle
 10
11.8900403345
 20
8.6792499255
 30
0.0
 40
0.0330409165916368
100
AcDbArc
 50
185.2053561152
 51
246.1148662567
  0
ARC
  5
44C
330
1F
100
AcDbEntity
  8
0
  6
Continuous
 62
     8
370
     0
100
AcDbCircle
 10
11.9467365675
 20
8.8108986074
 30
0.0
 40
0.0479221367344977
100
AcDbArc
 50
69.7216726839
 51
136.7238698828
  0
LWPOLYLINE
  5
44D
330
1F
100
AcDbEntity
  8
0
  6
Continuous
 62
     8
370
     0
100
AcDbPolyline
 90
        5
 70
   128
 43
0.0
 10
12.9472221583
 20
9.4238304613
 10
12.9416460321
 20
9.4295676201
 10
12.936284097
 20
9.4329923954
 10
12.9313425588
 20
9.433973114
 10
12.9295984702
 20
9.4336895017
  0
ARC
  5
44E
330
1F
100
AcDbEntity
  8
0
  6
Continuous
 62
     8
370
     0
100
AcDbCircle
 10
12.966758283
 20
9.396489636
 30
0.0
 40
0.033603286919962
100
AcDbArc
 50
65.7631158821
 51
125.5473397314
  0
LWPOLYLINE
  5
44F
330
1F
100
AcDbEntity
  8
0
  6
Continuous
 62
     8
370
     0
100
AcDbPolyline
 90
        6
 70
   128
 43
0.0
 10
14.9940598998
 20
6.4381454665
 10
14.996544462
 20
6.4393257797
 10
14.9996773363
 20
6.4430820721
 10
15.002005196
 20
6.4490893135
 10
15.0034387835
 20
6.4571165508
 10
15.0039227532
 20
6.4668554746
  0
ARC
  5
450
330
1F
100
AcDbEntity
  8
0
  6
Continuous
 62
     8
370
     0
100
AcDbCircle
 10
16.1131122767
 20
7.1294787585
 30
0.0
 40
0.0398353902607192
100
AcDbArc
 50
324.6275021189
 51
0.9942372433
  0
ARC
  5
451
330
1F
100
AcDbEntity
  8
0
  6
Continuous
 62
     8
370
     0
100
AcDbCircle
 10
14.9637818584
 20
6.4711058136
 30
0.0
 40
0.0314879933214094
100
AcDbArc
 50
172.9218924758
 51
235.7657655156
  0
ARC
  5
452
330
1F
100
AcDbEntity
  8
0
  6
Continuous
 62
     8
370
     0
100
AcDbCircle
 10
11.907277747
 20
8.235588079
 30
0.0
 40
0.0314879933029888
100
AcDbArc
 50
172.9218924554
 51
235.7657655361
  0
ARC
  5
453
330
1F
100
AcDbEntity
  8
0
  6
Continuous
 62
     8
370
     0
100
AcDbCircle
 10
16.1334356379
 20
7.14509509
 30
0.0
 40
0.0245610321607417
100
AcDbArc
 50
322.5784533649
 51
359.1076307649
  0
ARC
  5
454
330
1F
100
AcDbEntity
  8
0
  6
Continuous
 62
     8
370
     0
100
AcDbCircle
 10
11.8891419402
 20
8.26907616
 30
0.0
 40
0.0323815903590924
100
AcDbArc
 50
185.2068949571
 51
246.1133714624
  0
MTEXT
  5
455
330
1F
100
AcDbEntity
  8
0
  6
Continuous
 62
     7
370
     0
100
AcDbMText
 10
15.741107919
 20
8.4366669468
 30
0.0
 40
0.1377952756
 41
0.0
 71
     1
 72
     1
  1
BODY
  7
SLDTEXTSTYLE0
 73
     1
 44
1.0
  0
LEADER
  5
457
330
1F
100
AcDbEntity
  8
0
  6
Continuous
 62
     7
370
     0
100
AcDbLeader
  3
SLDDIMSTYLE8
 76
     3
 10
15.4724701875
 20
7.966035813
 30
0.0
 10
15.5963334364
 20
8.3475942263
 30
0.0
 10
15.7213334364
 20
8.3475942263
 30
0.0
  0
MTEXT
  5
458
330
1F
100
AcDbEntity
  8
0
  6
Continuous
 62
     7
370
     0
100
AcDbMText
 10
13.2420635457
 20
6.6904737265
 30
0.0
 40
0.1377952756
 41
0.0
 71
     1
 72
     1
  1
COVER
  7
SLDTEXTSTYLE0
 73
     1
 44
1.0
  0
LEADER
  5
459
330
1F
100
AcDbEntity
  8
0
  6
Continuous
 62
     7
370
     0
100
AcDbLeader
  3
SLDDIMSTYLE8
 76
     3
 10
14.2828078974
 20
6.850064611
 30
0.0
 10
14.0218203742
 20
6.6013133949
 30
0.0
 10
13.8968203742
 20
6.6013133949
 30
0.0
  0
INSERT
  5
460
102
{ACAD_REACTORS
330
461
102
}
330
1F
100
AcDbEntity
  8
0
  6
Continuous
 62
     7
370
     0
100
AcDbBlockReference
  2
SW_NOTE_20
 10
12.3850767253
 20
7.6654741339
 30
0.0
  0
LEADER
  5
461
330
1F
100
AcDbEntity
  8
0
  6
Continuous
 62
     7
370
     0
100
AcDbLeader
  3
SLDDIMSTYLE7
 73
     2
 76
     3
 10
12.9763791628
 20
8.7643044861
 30
0.0
 10
12.5100767253
 20
7.6654741339
 30
0.0
 10
12.3850767253
 20
7.6654741339
 30
0.0
340
460
  0
INSERT
  5
469
102
{ACAD_REACTORS
330
46A
102
}
330
1F
100
AcDbEntity
  8
0
  6
Continuous
 62
     7
370
     0
100
AcDbBlockReference
  2
SW_NOTE_21
 10
12.3577118292
 20
10.3149300231
 30
0.0
  0
LEADER
  5
46A
330
1F
100
AcDbEntity
  8
0
  6
Continuous
 62
     7
370
     0
100
AcDbLeader
  3
SLDDIMSTYLE8
 73
     2
 76
     3
 10
12.6143825496
 20
9.3095247347
 30
0.0
 10
12.4827118292
 20
10.3149300231
 30
0.0
 10
12.3577118292
 20
10.3149300231
 30
0.0
340
469
  0
ARC
  5
46B
330
1F
100
AcDbEntity
  8
0
  6
Continuous
 62
     7
370
     0
100
AcDbCircle
 10
2.0069291507
 20
6.0991937338
 30
0.0
 40
0.0780000000000003
100
AcDbArc
 50
0.0
 51
180.0
  0
LINE
  5
46C
330
1F
100
AcDbEntity
  8
0
  6
Continuous
 62
     7
370
     0
100
AcDbLine
 10
2.0849292434
 20
6.0901937219
 30
0.0
 11
2.0849292434
 21
6.0991937446
 31
0.0
  0
LINE
  5
46D
330
1F
100
AcDbEntity
  8
0
  6
Continuous
 62
     7
370
     0
100
AcDbLine
 10
1.9289290455
 20
6.0991937446
 30
0.0
 11
1.9289290455
 21
6.0901937219
 31
0.0
  0
LINE
  5
46E
330
1F
100
AcDbEntity
  8
0
  6
Continuous
 62
     7
370
     0
100
AcDbLine
 10
4.6858860469
 20
6.0901937219
 30
0.0
 11
4.6858860469
 21
6.1521937357
 31
0.0
  0
ARC
  5
46F
330
1F
100
AcDbEntity
  8
0
  6
Continuous
 62
     7
370
     0
100
AcDbCircle
 10
4.4803860473
 20
5.9651937338
 30
0.0
 40
0.0500000000000007
100
AcDbArc
 50
270.0
 51
0.0
  0
ARC
  5
470
330
1F
100
AcDbEntity
  8
0
  6
Continuous
 62
     7
370
     0
100
AcDbCircle
 10
4.3053860473
 20
5.9651937338
 30
0.0
 40
0.0500000000000007
100
AcDbArc
 50
180.0
 51
270.0
  0
LINE
  5
471
330
1F
100
AcDbEntity
  8
0
  6
Continuous
 62
     7
370
     0
100
AcDbLine
 10
4.2553860368
 20
6.0151937283
 30
0.0
 11
4.2553860368
 21
5.9651937326
 31
0.0
  0
LINE
  5
472
330
1F
100
AcDbEntity
  8
0
  6
Continuous
 62
     7
370
     0
100
AcDbLine
 10
4.5303860499
 20
5.9651937326
 30
0.0
 11
4.5303860499
 21
6.0151937283
 31
0.0
  0
ARC
  5
473
330
1F
100
AcDbEntity
  8
0
  6
Continuous
 62
     7
370
     0
100
AcDbCircle
 10
1.6378860473
 20
5.9901937338
 30
0.0
 40
0.0999999999999994
100
AcDbArc
 50
90.0
 51
180.0
  0
LINE
  5
474
330
1F
100
AcDbEntity
  8
0
  6
Continuous
 62
     7
370
     0
100
AcDbLine
 10
1.5378859096
 20
5.9901937305
 30
0.0
 11
1.5378859096
 21
5.5511937335
 31
0.0
  0
LINE
  5
475
330
1F
100
AcDbEntity
  8
0
  6
Continuous
 62
     7
370
     0
100
AcDbLine
 10
1.5728860386
 20
5.5511937335
 30
0.0
 11
1.5728860386
 21
5.5391937338
 31
0.0
  0
LINE
  5
476
330
1F
100
AcDbEntity
  8
0
  6
Continuous
 62
     7
370
     0
100
AcDbLine
 10
1.8978859375
 20
5.3601937366
 30
0.0
 11
4.2428860745
 21
5.3601937366
 31
0.0
  0
ARC
  5
477
330
1F
100
AcDbEntity
  8
0
  6
Continuous
 62
     7
370
     0
100
AcDbCircle
 10
8.5838860473
 20
5.9901937338
 30
0.0
 40
0.0999999999999996
100
AcDbArc
 50
0.0
 51
90.0
  0
LINE
  5
478
330
1F
100
AcDbEntity
  8
0
  6
Continuous
 62
     7
370
     0
100
AcDbLine
 10
8.683886185
 20
5.5511937335
 30
0.0
 11
8.683886185
 21
5.9901937305
 31
0.0
  0
LINE
  5
479
330
1F
100
AcDbEntity
  8
0
  6
Continuous
 62
     7
370
     0
100
AcDbLine
 10
8.648886056
 20
5.5391937338
 30
0.0
 11
8.648886056
 21
5.5511937335
 31
0.0
  0
LINE
  5
47A
330
1F
100
AcDbEntity
  8
0
  6
Continuous
 62
     7
370
     0
100
AcDbLine
 10
4.2028860632
 20
5.5499405844
 30
0.0
 11
1.9378861687
 21
5.5499405844
 31
0.0
  0
LINE
  5
47B
330
1F
100
AcDbEntity
  8
0
  6
Continuous
 62
     7
370
     0
100
AcDbLine
 10
1.8739971468
 20
5.5601937333
 30
0.0
 11
1.8881400501
 21
5.9651937326
 31
0.0
  0
ARC
  5
47C
330
1F
100
AcDbEntity
  8
0
  6
Continuous
 62
     7
370
     0
100
AcDbCircle
 10
4.9428860473
 20
5.9651937338
 30
0.0
 40
0.0499999999999998
100
AcDbArc
 50
90.0
 51
160.5287793655
  0
ARC
  5
47D
330
1F
100
AcDbEntity
  8
0
  6
Continuous
 62
     7
370
     0
100
AcDbCircle
 10
4.8721753692
 20
5.9901937338
 30
0.0
 40
0.0250000000000004
100
AcDbArc
 50
270.0
 51
340.5287793655
  0
LINE
  5
47E
330
1F
100
AcDbEntity
  8
0
  6
Continuous
 62
     7
370
     0
100
AcDbLine
 10
1.5378859096
 20
5.5391937338
 30
0.0
 11
1.5378859096
 21
5.1011937169
 31
0.0
  0
ARC
  5
47F
330
1F
100
AcDbEntity
  8
0
  6
Continuous
 62
     7
370
     0
100
AcDbCircle
 10
1.6358860473
 20
5.1011937338
 30
0.0
 40
0.0979999999999999
100
AcDbArc
 50
180.0
 51
270.0
  0
ARC
  5
480
330
1F
100
AcDbEntity
  8
0
  6
Continuous
 62
     7
370
     0
100
AcDbCircle
 10
8.5858860473
 20
5.1011937338
 30
0.0
 40
0.0979999999999999
100
AcDbArc
 50
270.0
 51
0.0
  0
LINE
  5
481
330
1F
100
AcDbEntity
  8
0
  6
Continuous
 62
     7
370
     0
100
AcDbLine
 10
8.683886185
 20
5.1011937169
 30
0.0
 11
8.683886185
 21
5.5391937338
 31
0.0
  0
LINE
  5
482
330
1F
100
AcDbEntity
  8
0
  6
Continuous
 62
     7
370
     0
100
AcDbLine
 10
1.863385936
 20
5.0971937231
 30
0.0
 11
1.8483700828
 21
5.5271937341
 31
0.0
  0
LINE
  5
483
330
1F
100
AcDbEntity
  8
0
  6
Continuous
 62
     7
370
     0
100
AcDbLine
 10
8.0433861708
 20
5.0971937231
 30
0.0
 11
8.0372051222
 21
5.2741937418
 31
0.0
  0
LINE
  5
484
330
1F
100
AcDbEntity
  8
0
  6
Continuous
 62
     7
370
     0
100
AcDbLine
 10
7.8525671218
 20
5.2741937418
 30
0.0
 11
7.8463860732
 21
5.0971937231
 31
0.0
  0
LINE
  5
485
330
1F
100
AcDbEntity
  8
0
  6
Continuous
 62
     7
370
     0
100
AcDbLine
 10
4.9133860422
 20
5.0971937231
 30
0.0
 11
4.9072050669
 21
5.2741937418
 31
0.0
  0
LINE
  5
486
330
1F
100
AcDbEntity
  8
0
  6
Continuous
 62
     7
370
     0
100
AcDbLine
 10
4.7225670298
 20
5.2741937418
 30
0.0
 11
4.7163860546
 21
5.0971937231
 31
0.0
  0
LINE
  5
487
330
1F
100
AcDbEntity
  8
0
  6
Continuous
 62
     7
370
     0
100
AcDbLine
 10
4.540886052
 20
6.0901937219
 30
0.0
 11
4.540886052
 21
6.0151937283
 31
0.0
  0
LINE
  5
488
330
1F
100
AcDbEntity
  8
0
  6
Continuous
 62
     7
370
     0
100
AcDbLine
 10
3.6808859934
 20
6.0151937283
 30
0.0
 11
4.540886052
 21
6.0151937283
 31
0.0
  0
LINE
  5
489
330
1F
100
AcDbEntity
  8
0
  6
Continuous
 62
     7
370
     0
100
AcDbLine
 10
3.6808859934
 20
6.0151937283
 30
0.0
 11
3.6808859934
 21
5.9866460881
 31
0.0
  0
LINE
  5
48A
330
1F
100
AcDbEntity
  8
0
  6
Continuous
 62
     7
370
     0
100
AcDbLine
 10
3.6808859934
 20
5.9866460881
 30
0.0
 11
3.6448860493
 21
5.9866460881
 31
0.0
  0
LINE
  5
48B
330
1F
100
AcDbEntity
  8
0
  6
Continuous
 62
     7
370
     0
100
AcDbLine
 10
3.6448860493
 20
6.0151937283
 30
0.0
 11
3.6448860493
 21
5.9866460881
 31
0.0
  0
LINE
  5
48C
330
1F
100
AcDbEntity
  8
0
  6
Continuous
 62
     7
370
     0
100
AcDbLine
 10
2.8938860049
 20
6.0151937283
 30
0.0
 11
3.6448860493
 21
6.0151937283
 31
0.0
  0
LINE
  5
48D
330
1F
100
AcDbEntity
  8
0
  6
Continuous
 62
     7
370
     0
100
AcDbLine
 10
2.8938860049
 20
6.0151937283
 30
0.0
 11
2.8938860049
 21
5.9866460881
 31
0.0
  0
LINE
  5
48E
330
1F
100
AcDbEntity
  8
0
  6
Continuous
 62
     7
370
     0
100
AcDbLine
 10
2.8938860049
 20
5.9866460881
 30
0.0
 11
2.8578860608
 21
5.9866460881
 31
0.0
  0
LINE
  5
48F
330
1F
100
AcDbEntity
  8
0
  6
Continuous
 62
     7
370
     0
100
AcDbLine
 10
2.8578860608
 20
6.0151937283
 30
0.0
 11
2.8578860608
 21
5.9866460881
 31
0.0
  0
LINE
  5
490
330
1F
100
AcDbEntity
  8
0
  6
Continuous
 62
     7
370
     0
100
AcDbLine
 10
1.9408860541
 20
6.0151937283
 30
0.0
 11
2.8578860608
 21
6.0151937283
 31
0.0
  0
LINE
  5
491
330
1F
100
AcDbEntity
  8
0
  6
Continuous
 62
     7
370
     0
100
AcDbLine
 10
1.9408860541
 20
6.0151937283
 30
0.0
 11
1.9408860541
 21
6.0901937219
 31
0.0
  0
LINE
  5
492
330
1F
100
AcDbEntity
  8
0
  6
Continuous
 62
     7
370
     0
100
AcDbLine
 10
1.9408860541
 20
6.0901937219
 30
0.0
 11
4.540886052
 21
6.0901937219
 31
0.0
  0
LINE
  5
493
330
1F
100
AcDbEntity
  8
0
  6
Continuous
 62
     7
370
     0
100
AcDbLine
 10
2.8578860608
 20
5.8521937246
 30
0.0
 11
2.8938860049
 21
5.8521937246
 31
0.0
  0
LINE
  5
494
330
1F
100
AcDbEntity
  8
0
  6
Continuous
 62
     7
370
     0
100
AcDbLine
 10
2.8938860049
 20
5.9901937305
 30
0.0
 11
2.8938860049
 21
5.8521937246
 31
0.0
  0
LINE
  5
495
330
1F
100
AcDbEntity
  8
0
  6
Continuous
 62
     7
370
     0
100
AcDbLine
 10
2.8578860608
 20
5.9901937305
 30
0.0
 11
2.8578860608
 21
5.8521937246
 31
0.0
  0
LINE
  5
496
330
1F
100
AcDbEntity
  8
0
  6
Continuous
 62
     7
370
     0
100
AcDbLine
 10
3.6448860493
 20
5.8521937246
 30
0.0
 11
3.6808859934
 21
5.8521937246
 31
0.0
  0
LINE
  5
497
330
1F
100
AcDbEntity
  8
0
  6
Continuous
 62
     7
370
     0
100
AcDbLine
 10
3.6808859934
 20
5.9901937305
 30
0.0
 11
3.6808859934
 21
5.8521937246
 31
0.0
  0
LINE
  5
498
330
1F
100
AcDbEntity
  8
0
  6
Continuous
 62
     7
370
     0
100
AcDbLine
 10
3.6448860493
 20
5.9901937305
 30
0.0
 11
3.6448860493
 21
5.8521937246
 31
0.0
  0
LINE
  5
499
330
1F
100
AcDbEntity
  8
0
  6
Continuous
 62
     7
370
     0
100
AcDbLine
 10
1.9378861687
 20
6.0151937283
 30
0.0
 11
1.9408860541
 21
6.0151937283
 31
0.0
  0
LINE
  5
49A
330
1F
100
AcDbEntity
  8
0
  6
Continuous
 62
     7
370
     0
100
AcDbLine
 10
1.9408860541
 20
6.0901937219
 30
0.0
 11
1.9378861687
 21
6.0901937219
 31
0.0
  0
LINE
  5
49B
330
1F
100
AcDbEntity
  8
0
  6
Continuous
 62
     7
370
     0
100
AcDbLine
 10
1.8058859336
 20
5.9651937326
 30
0.0
 11
1.8058859336
 21
6.0151937283
 31
0.0
  0
LINE
  5
49C
330
1F
100
AcDbEntity
  8
0
  6
Continuous
 62
     7
370
     0
100
AcDbLine
 10
1.8358859604
 20
5.9651937326
 30
0.0
 11
1.8058859336
 21
5.9651937326
 31
0.0
  0
LINE
  5
49D
330
1F
100
AcDbEntity
  8
0
  6
Continuous
 62
     7
370
     0
100
AcDbLine
 10
2.0358859433
 20
5.9651937326
 30
0.0
 11
1.9378861687
 21
5.9651937326
 31
0.0
  0
LINE
  5
49E
330
1F
100
AcDbEntity
  8
0
  6
Continuous
 62
     7
370
     0
100
AcDbLine
 10
1.8978859375
 20
5.9651937326
 30
0.0
 11
1.8358859604
 21
5.9651937326
 31
0.0
  0
LINE
  5
49F
330
1F
100
AcDbEntity
  8
0
  6
Continuous
 62
     7
370
     0
100
AcDbLine
 10
2.0358859433
 20
5.9651937326
 30
0.0
 11
2.0358859433
 21
6.0151937283
 31
0.0
  0
LINE
  5
4A0
330
1F
100
AcDbEntity
  8
0
  6
Continuous
 62
     7
370
     0
100
AcDbLine
 10
2.0358859433
 20
5.9651937326
 30
0.0
 11
1.9418860158
 21
5.9651937326
 31
0.0
  0
LINE
  5
4A1
330
1F
100
AcDbEntity
  8
0
  6
Continuous
 62
     7
370
     0
100
AcDbLine
 10
3.6808859934
 20
5.9901937305
 30
0.0
 11
3.6808859934
 21
5.8521937246
 31
0.0
  0
LINE
  5
4A2
330
1F
100
AcDbEntity
  8
0
  6
Continuous
 62
     7
370
     0
100
AcDbLine
 10
3.6448860493
 20
5.9901937305
 30
0.0
 11
3.6448860493
 21
5.8521937246
 31
0.0
  0
LINE
  5
4A3
330
1F
100
AcDbEntity
  8
0
  6
Continuous
 62
     7
370
     0
100
AcDbLine
 10
2.8938860049
 20
5.9901937305
 30
0.0
 11
2.8938860049
 21
5.8521937246
 31
0.0
  0
LINE
  5
4A4
330
1F
100
AcDbEntity
  8
0
  6
Continuous
 62
     7
370
     0
100
AcDbLine
 10
2.8578860608
 20
5.9901937305
 30
0.0
 11
2.8578860608
 21
5.8521937246
 31
0.0
  0
LINE
  5
4A5
330
1F
100
AcDbEntity
  8
0
  6
Continuous
 62
     7
370
     0
100
AcDbLine
 10
4.540886052
 20
6.1175867788
 30
0.0
 11
4.540886052
 21
6.0901937219
 31
0.0
  0
LINE
  5
4A6
330
1F
100
AcDbEntity
  8
0
  6
Continuous
 62
     7
370
     0
100
AcDbLine
 10
4.6791058353
 20
6.1521937357
 30
0.0
 11
4.6858860469
 21
6.1521937357
 31
0.0
  0
LWPOLYLINE
  5
4A7
330
1F
100
AcDbEntity
  8
0
  6
Continuous
 62
     7
370
     0
100
AcDbPolyline
 90
        6
 70
   128
 43
0.0
 10
4.6791058353
 20
6.1521937357
 10
4.6649210224
 20
6.1486422067
 10
4.6433382084
 20
6.1432383725
 10
4.6149363532
 20
6.1361272113
 10
4.5804774913
 20
6.1274995343
 10
4.540886052
 20
6.1175867788
  0
LINE
  5
4A8
330
1F
100
AcDbEntity
  8
0
  6
Continuous
 62
     7
370
     0
100
AcDbLine
 10
4.540886052
 20
6.1175867788
 30
0.0
 11
4.4314784559
 21
6.0901937219
 31
0.0
  0
LINE
  5
4A9
330
1F
100
AcDbEntity
  8
0
  6
Continuous
 62
     7
370
     0
100
AcDbLine
 10
4.4803860175
 20
5.9151937369
 30
0.0
 11
4.3053860325
 21
5.9151937369
 31
0.0
  0
LINE
  5
4AA
330
1F
100
AcDbEntity
  8
0
  6
Continuous
 62
     7
370
     0
100
AcDbLine
 10
3.6808859934
 20
5.9901937305
 30
0.0
 11
3.6808859934
 21
5.8521937246
 31
0.0
  0
LINE
  5
4AB
330
1F
100
AcDbEntity
  8
0
  6
Continuous
 62
     7
370
     0
100
AcDbLine
 10
3.6448860493
 20
5.9901937305
 30
0.0
 11
3.6448860493
 21
5.8521937246
 31
0.0
  0
LINE
  5
4AC
330
1F
100
AcDbEntity
  8
0
  6
Continuous
 62
     7
370
     0
100
AcDbLine
 10
2.8938860049
 20
5.9901937305
 30
0.0
 11
2.8938860049
 21
5.8521937246
 31
0.0
  0
LINE
  5
4AD
330
1F
100
AcDbEntity
  8
0
  6
Continuous
 62
     7
370
     0
100
AcDbLine
 10
2.8578860608
 20
5.9901937305
 30
0.0
 11
2.8578860608
 21
5.8521937246
 31
0.0
  0
LINE
  5
4AE
330
1F
100
AcDbEntity
  8
0
  6
Continuous
 62
     7
370
     0
100
AcDbLine
 10
3.6808859934
 20
5.9901937305
 30
0.0
 11
3.6808859934
 21
5.6901937378
 31
0.0
  0
LINE
  5
4AF
330
1F
100
AcDbEntity
  8
0
  6
Continuous
 62
     7
370
     0
100
AcDbLine
 10
3.6448860493
 20
5.9901937305
 30
0.0
 11
3.6448860493
 21
5.6901937378
 31
0.0
  0
LINE
  5
4B0
330
1F
100
AcDbEntity
  8
0
  6
Continuous
 62
     7
370
     0
100
AcDbLine
 10
2.8938860049
 20
5.9901937305
 30
0.0
 11
2.8938860049
 21
5.6901937378
 31
0.0
  0
LINE
  5
4B1
330
1F
100
AcDbEntity
  8
0
  6
Continuous
 62
     7
370
     0
100
AcDbLine
 10
2.8578860608
 20
5.9901937305
 30
0.0
 11
2.8578860608
 21
5.6901937378
 31
0.0
  0
LINE
  5
4B2
330
1F
100
AcDbEntity
  8
0
  6
Continuous
 62
     7
370
     0
100
AcDbLine
 10
4.540886052
 20
6.0151937283
 30
0.0
 11
4.540886052
 21
6.0023366002
 31
0.0
  0
LINE
  5
4B3
330
1F
100
AcDbEntity
  8
0
  6
Continuous
 62
     7
370
     0
100
AcDbLine
 10
3.6808859934
 20
5.8965177859
 30
0.0
 11
4.075886077
 21
5.8965177859
 31
0.0
  0
LINE
  5
4B4
330
1F
100
AcDbEntity
  8
0
  6
Continuous
 62
     7
370
     0
100
AcDbLine
 10
4.540886052
 20
5.9101937446
 30
0.0
 11
4.540886052
 21
6.0023366002
 31
0.0
  0
LINE
  5
4B5
330
1F
100
AcDbEntity
  8
0
  6
Continuous
 62
     7
370
     0
100
AcDbLine
 10
2.8938860049
 20
5.8965177859
 30
0.0
 11
3.6448860493
 21
5.8965177859
 31
0.0
  0
LINE
  5
4B6
330
1F
100
AcDbEntity
  8
0
  6
Continuous
 62
     7
370
     0
100
AcDbLine
 10
2.5058861671
 20
5.8965177859
 30
0.0
 11
2.8578860608
 21
5.8965177859
 31
0.0
  0
LINE
  5
4B7
330
1F
100
AcDbEntity
  8
0
  6
Continuous
 62
     7
370
     0
100
AcDbLine
 10
1.9408860541
 20
5.9651937326
 30
0.0
 11
1.9408860541
 21
5.8761055051
 31
0.0
  0
LINE
  5
4B8
330
1F
100
AcDbEntity
  8
0
  6
Continuous
 62
     7
370
     0
100
AcDbLine
 10
4.075886077
 20
5.6801937349
 30
0.0
 11
4.075886077
 21
5.8965177859
 31
0.0
  0
ARC
  5
4B9
330
1F
100
AcDbEntity
  8
0
  6
Continuous
 62
     7
370
     0
100
AcDbCircle
 10
4.0258860473
 20
5.6801937338
 30
0.0
 40
0.0499999999999998
100
AcDbArc
 50
270.0
 51
0.0
  0
LINE
  5
4BA
330
1F
100
AcDbEntity
  8
0
  6
Continuous
 62
     7
370
     0
100
AcDbLine
 10
4.0258860813
 20
5.63019373
 30
0.0
 11
2.5558860162
 21
5.63019373
 31
0.0
  0
ARC
  5
4BB
330
1F
100
AcDbEntity
  8
0
  6
Continuous
 62
     7
370
     0
100
AcDbCircle
 10
2.5558860473
 20
5.6801937338
 30
0.0
 40
0.0499999999999998
100
AcDbArc
 50
180.0
 51
270.0
  0
LINE
  5
4BC
330
1F
100
AcDbEntity
  8
0
  6
Continuous
 62
     7
370
     0
100
AcDbLine
 10
2.5058861671
 20
5.6801937349
 30
0.0
 11
2.5058861671
 21
5.8965177859
 31
0.0
  0
SPLINE
  5
4BD
330
1F
100
AcDbEntity
  8
0
  6
Continuous
 62
     7
370
     0
100
AcDbSpline
210
0.0
220
0.0
230
1.0
 70
     8
 71
     3
 72
     9
 73
     5
 74
     0
 42
0.00000001
 43
0.00000001
 40
0.0
 40
0.0
 40
0.0
 40
0.0
 40
0.6730155809466942
 40
1.0
 40
1.0
 40
1.0
 40
1.0
 10
1.940886054065937
 20
5.865193741135388
 30
0.0
 10
1.940968178888296
 20
5.862785893327519
 30
0.0
 10
1.941090204031078
 20
5.859208193381133
 30
0.0
 10
1.941849516666704
 20
5.855473693979389
 30
0.0
 10
1.942097800067744
 20
5.854252570862054
 30
0.0
  0
LINE
  5
4BE
330
1F
100
AcDbEntity
  8
0
  6
Continuous
 62
     7
370
     0
100
AcDbLine
 10
1.9408860541
 20
5.8651937411
 30
0.0
 11
1.9408860541
 21
5.8761055051
 31
0.0
  0
LINE
  5
4BF
330
1F
100
AcDbEntity
  8
0
  6
Continuous
 62
     7
370
     0
100
AcDbLine
 10
4.075886077
 20
5.8151937271
 30
0.0
 11
4.2028860632
 21
5.8151937271
 31
0.0
  0
LINE
  5
4C0
330
1F
100
AcDbEntity
  8
0
  6
Continuous
 62
     7
370
     0
100
AcDbLine
 10
1.9908859031
 20
5.8151937271
 30
0.0
 11
2.5058861671
 21
5.8151937271
 31
0.0
  0
ARC
  5
4C1
330
1F
100
AcDbEntity
  8
0
  6
Continuous
 62
     7
370
     0
100
AcDbCircle
 10
1.9908860473
 20
5.8651937338
 30
0.0
 40
0.0499999999999998
100
AcDbArc
 50
192.6399359789
 51
270.0
  0
LINE
  5
4C2
330
1F
100
AcDbEntity
  8
0
  6
Continuous
 62
     7
370
     0
100
AcDbLine
 10
1.637885901
 20
6.0901937219
 30
0.0
 11
1.6665345567
 21
6.0901937219
 31
0.0
  0
LINE
  5
4C3
330
1F
100
AcDbEntity
  8
0
  6
Continuous
 62
     7
370
     0
100
AcDbLine
 10
1.6771572074
 20
6.0901937219
 30
0.0
 11
1.7726715973
 21
6.0901937219
 31
0.0
  0
SPLINE
  5
4C4
330
1F
100
AcDbEntity
  8
0
  6
Continuous
 62
     7
370
     0
100
AcDbSpline
210
0.0
220
0.0
230
1.0
 70
     8
 71
     3
 72
    14
 73
    10
 74
     0
 42
0.00000001
 43
0.00000001
 40
0.0
 40
0.0
 40
0.0
 40
0.0
 40
0.0051871065115087
 40
0.1231347666934368
 40
0.3298722612463393
 40
0.5364111582472866
 40
0.7481988550436247
 40
0.9686795578202348
 40
1.0
 40
1.0
 40
1.0
 40
1.0
 10
1.668290429780516
 20
5.990193730458179
 30
0.0
 10
1.668291194663673
 20
5.990470214979193
 30
0.0
 10
1.668309351936692
 20
5.997033576829174
 30
0.0
 10
1.670207782973439
 20
6.01463189590098
 30
0.0
 10
1.680849611116668
 20
6.041500071506351
 30
0.0
 10
1.703061153936162
 20
6.067147140991739
 30
0.0
 10
1.732901623249485
 20
6.084668590096842
 30
0.0
 10
1.757583628709396
 20
6.089972965393931
 30
0.0
 10
1.77100248455512
 20
6.090169300635193
 30
0.0
 10
1.772671597293696
 20
6.09019372191641
 30
0.0
  0
LINE
  5
4C5
330
1F
100
AcDbEntity
  8
0
  6
Continuous
 62
     7
370
     0
100
AcDbLine
 10
1.5378859096
 20
5.5511937335
 30
0.0
 11
1.6682904298
 21
5.5511937335
 31
0.0
  0
LINE
  5
4C6
330
1F
100
AcDbEntity
  8
0
  6
Continuous
 62
     7
370
     0
100
AcDbLine
 10
1.6682904298
 20
5.9901937305
 30
0.0
 11
1.6682904298
 21
5.5511937335
 31
0.0
  0
LINE
  5
4C7
330
1F
100
AcDbEntity
  8
0
  6
Continuous
 62
     7
370
     0
100
AcDbLine
 10
1.9378861687
 20
5.434601442
 30
0.0
 11
1.9378861687
 21
6.0901937219
 31
0.0
  0
LINE
  5
4C8
330
1F
100
AcDbEntity
  8
0
  6
Continuous
 62
     7
370
     0
100
AcDbLine
 10
1.9378861687
 20
5.434601442
 30
0.0
 11
4.2028860632
 21
5.434601442
 31
0.0
  0
LINE
  5
4C9
330
1F
100
AcDbEntity
  8
0
  6
Continuous
 62
     7
370
     0
100
AcDbLine
 10
4.2028860632
 20
5.9901937305
 30
0.0
 11
4.2028860632
 21
5.434601442
 31
0.0
  0
LINE
  5
4CA
330
1F
100
AcDbEntity
  8
0
  6
Continuous
 62
     7
370
     0
100
AcDbLine
 10
4.2028860632
 20
5.9901937305
 30
0.0
 11
4.2428860745
 21
5.9901937305
 31
0.0
  0
LINE
  5
4CB
330
1F
100
AcDbEntity
  8
0
  6
Continuous
 62
     7
370
     0
100
AcDbLine
 10
4.2428860745
 20
5.9901937305
 30
0.0
 11
4.2428860745
 21
5.6901937378
 31
0.0
  0
LINE
  5
4CC
330
1F
100
AcDbEntity
  8
0
  6
Continuous
 62
     7
370
     0
100
AcDbLine
 10
4.2428860745
 20
5.6901937378
 30
0.0
 11
4.5428860489
 21
5.6901937378
 31
0.0
  0
LINE
  5
4CD
330
1F
100
AcDbEntity
  8
0
  6
Continuous
 62
     7
370
     0
100
AcDbLine
 10
4.5428860489
 20
6.0901937219
 30
0.0
 11
4.5428860489
 21
5.6901937378
 31
0.0
  0
LINE
  5
4CE
330
1F
100
AcDbEntity
  8
0
  6
Continuous
 62
     7
370
     0
100
AcDbLine
 10
4.5428860489
 20
6.0901937219
 30
0.0
 11
8.2488860902
 21
6.0901937219
 31
0.0
  0
LINE
  5
4CF
330
1F
100
AcDbEntity
  8
0
  6
Continuous
 62
     7
370
     0
100
AcDbLine
 10
8.2488860902
 20
5.5901937325
 30
0.0
 11
8.2488860902
 21
6.0901937219
 31
0.0
  0
LINE
  5
4D0
330
1F
100
AcDbEntity
  8
0
  6
Continuous
 62
     7
370
     0
100
AcDbLine
 10
8.2488860902
 20
5.5901937325
 30
0.0
 11
8.2925447325
 21
5.5901937325
 31
0.0
  0
LINE
  5
4D1
330
1F
100
AcDbEntity
  8
0
  6
Continuous
 62
     7
370
     0
100
AcDbLine
 10
8.2925447325
 20
5.5901937325
 30
0.0
 11
8.2914969579
 21
5.5601937333
 31
0.0
  0
LINE
  5
4D2
330
1F
100
AcDbEntity
  8
0
  6
Continuous
 62
     7
370
     0
100
AcDbLine
 10
8.2914969579
 20
5.5601937333
 30
0.0
 11
8.2297750576
 21
5.5601937333
 31
0.0
  0
LINE
  5
4D3
330
1F
100
AcDbEntity
  8
0
  6
Continuous
 62
     7
370
     0
100
AcDbLine
 10
8.2138859612
 20
6.0151937283
 30
0.0
 11
8.2297750576
 21
5.5601937333
 31
0.0
  0
LINE
  5
4D4
330
1F
100
AcDbEntity
  8
0
  6
Continuous
 62
     7
370
     0
100
AcDbLine
 10
4.5828860601
 20
6.0151937283
 30
0.0
 11
8.2138859612
 21
6.0151937283
 31
0.0
  0
LINE
  5
4D5
330
1F
100
AcDbEntity
  8
0
  6
Continuous
 62
     7
370
     0
100
AcDbLine
 10
4.5828860601
 20
5.6201937364
 30
0.0
 11
4.5828860601
 21
6.0151937283
 31
0.0
  0
LINE
  5
4D6
330
1F
100
AcDbEntity
  8
0
  6
Continuous
 62
     7
370
     0
100
AcDbLine
 10
4.5828860601
 20
5.6201937364
 30
0.0
 11
4.2428860745
 21
5.6201937364
 31
0.0
  0
LINE
  5
4D7
330
1F
100
AcDbEntity
  8
0
  6
Continuous
 62
     7
370
     0
100
AcDbLine
 10
4.2428860745
 20
5.6201937364
 30
0.0
 11
4.2428860745
 21
5.3638339979
 31
0.0
  0
LINE
  5
4D8
330
1F
100
AcDbEntity
  8
0
  6
Continuous
 62
     7
370
     0
100
AcDbLine
 10
1.8978859375
 20
5.3638339979
 30
0.0
 11
4.2428860745
 21
5.3638339979
 31
0.0
  0
LINE
  5
4D9
330
1F
100
AcDbEntity
  8
0
  6
Continuous
 62
     7
370
     0
100
AcDbLine
 10
1.8978859375
 20
6.0151937283
 30
0.0
 11
1.8978859375
 21
5.3638339979
 31
0.0
  0
LINE
  5
4DA
330
1F
100
AcDbEntity
  8
0
  6
Continuous
 62
     7
370
     0
100
AcDbLine
 10
1.7726715973
 20
6.0151937283
 30
0.0
 11
1.8978859375
 21
6.0151937283
 31
0.0
  0
SPLINE
  5
4DB
330
1F
100
AcDbEntity
  8
0
  6
Continuous
 62
     7
370
     0
100
AcDbSpline
210
0.0
220
0.0
230
1.0
 70
     8
 71
     3
 72
    14
 73
    10
 74
     0
 42
0.00000001
 43
0.00000001
 40
0.0
 40
0.0
 40
0.0
 40
0.0
 40
0.0151438914921428
 40
0.1320116070344493
 40
0.3388759467872413
 40
0.545521402253599
 40
0.757818221320514
 40
0.979022548960367
 40
1.0
 40
1.0
 40
1.0
 40
1.0
 10
1.746548512403135
 20
5.990193730458179
 30
0.0
 10
1.746550148328515
 20
5.990395623527069
 30
0.0
 10
1.746564408939046
 20
5.992155556136674
 30
0.0
 10
1.747131357559891
 20
5.996668220513889
 30
0.0
 10
1.749889413102055
 20
6.00333610549189
 30
0.0
 10
1.755550007477628
 20
6.009671223986271
 30
0.0
 10
1.763092247412806
 20
6.013955084411992
 30
0.0
 10
1.769163761655032
 20
6.015159038079294
 30
0.0
 10
1.772391974000818
 20
6.015190963027808
 30
0.0
 10
1.772671597293696
 20
6.015193728322736
 30
0.0
  0
LINE
  5
4DC
330
1F
100
AcDbEntity
  8
0
  6
Continuous
 62
     7
370
     0
100
AcDbLine
 10
1.7465485124
 20
5.9901937305
 30
0.0
 11
1.7465485124
 21
5.4961937318
 31
0.0
  0
LINE
  5
4DD
330
1F
100
AcDbEntity
  8
0
  6
Continuous
 62
     7
370
     0
100
AcDbLine
 10
1.7465485124
 20
5.4961937318
 30
0.0
 11
1.7047903548
 21
5.4961937318
 31
0.0
  0
LINE
  5
4DE
330
1F
100
AcDbEntity
  8
0
  6
Continuous
 62
     7
370
     0
100
AcDbLine
 10
1.7047903548
 20
5.5511937335
 30
0.0
 11
1.7047903548
 21
5.4961937318
 31
0.0
  0
LINE
  5
4DF
330
1F
100
AcDbEntity
  8
0
  6
Continuous
 62
     7
370
     0
100
AcDbLine
 10
1.6682904298
 20
5.5511937335
 30
0.0
 11
1.7047903548
 21
5.5511937335
 31
0.0
  0
LINE
  5
4E0
330
1F
100
AcDbEntity
  8
0
  6
Continuous
 62
     7
370
     0
100
AcDbLine
 10
1.7726715973
 20
6.0901937219
 30
0.0
 11
1.9378861687
 21
6.0901937219
 31
0.0
  0
LINE
  5
4E1
330
1F
100
AcDbEntity
  8
0
  6
Continuous
 62
     7
370
     0
100
AcDbLine
 10
1.8535945825
 20
5.5601937333
 30
0.0
 11
1.8535945825
 21
5.5511937335
 31
0.0
  0
LINE
  5
4E2
330
1F
100
AcDbEntity
  8
0
  6
Continuous
 62
     7
370
     0
100
AcDbLine
 10
4.2428860745
 20
5.3638339979
 30
0.0
 11
4.2428860745
 21
5.3601937366
 31
0.0
  0
LINE
  5
4E3
330
1F
100
AcDbEntity
  8
0
  6
Continuous
 62
     7
370
     0
100
AcDbLine
 10
1.8978859375
 20
5.3638339979
 30
0.0
 11
1.8978859375
 21
5.3601937366
 31
0.0
  0
LINE
  5
4E4
330
1F
100
AcDbEntity
  8
0
  6
Continuous
 62
     7
370
     0
100
AcDbLine
 10
8.44799699
 20
5.5601937333
 30
0.0
 11
8.4637361949
 21
6.0109031546
 31
0.0
  0
LINE
  5
4E5
330
1F
100
AcDbEntity
  8
0
  6
Continuous
 62
     7
370
     0
100
AcDbLine
 10
8.4288859575
 20
6.0901937219
 30
0.0
 11
8.4288859575
 21
5.5901937325
 31
0.0
  0
LINE
  5
4E6
330
1F
100
AcDbEntity
  8
0
  6
Continuous
 62
     7
370
     0
100
AcDbLine
 10
8.4288859575
 20
6.0901937219
 30
0.0
 11
8.2488860902
 21
6.0901937219
 31
0.0
  0
LINE
  5
4E7
330
1F
100
AcDbEntity
  8
0
  6
Continuous
 62
     7
370
     0
100
AcDbLine
 10
8.3862750897
 20
5.5601937333
 30
0.0
 11
8.3852273152
 21
5.5901937325
 31
0.0
  0
LINE
  5
4E8
330
1F
100
AcDbEntity
  8
0
  6
Continuous
 62
     7
370
     0
100
AcDbLine
 10
8.3852273152
 20
5.5901937325
 30
0.0
 11
8.2925447325
 21
5.5901937325
 31
0.0
  0
LINE
  5
4E9
330
1F
100
AcDbEntity
  8
0
  6
Continuous
 62
     7
370
     0
100
AcDbLine
 10
8.2914969579
 20
5.5601937333
 30
0.0
 11
8.3862750897
 21
5.5601937333
 31
0.0
  0
LINE
  5
4EA
330
1F
100
AcDbEntity
  8
0
  6
Continuous
 62
     7
370
     0
100
AcDbLine
 10
8.4752235822
 20
5.9901937305
 30
0.0
 11
8.4752235822
 21
5.4961937318
 31
0.0
  0
SPLINE
  5
4EB
330
1F
100
AcDbEntity
  8
0
  6
Continuous
 62
     7
370
     0
100
AcDbSpline
210
0.0
220
0.0
230
1.0
 70
     8
 71
     3
 72
    11
 73
     7
 74
     0
 42
0.00000001
 43
0.00000001
 40
0.0
 40
0.0
 40
0.0
 40
0.0
 40
0.0810921142814229
 40
0.443321848141535
 40
0.7902496760050313
 40
1.0
 40
1.0
 40
1.0
 40
1.0
 10
8.463736194877827
 20
6.010903154554478
 30
0.0
 10
8.464285765938111
 20
6.010528753187959
 30
0.0
 10
8.467290211688345
 20
6.008481941272617
 30
0.0
 10
8.47174447989906
 20
6.003583564290328
 30
0.0
 10
8.474818372561892
 20
5.99648757874789
 30
0.0
 10
8.475112687485456
 20
5.991916183054257
 30
0.0
 10
8.475223582174548
 20
5.990193730458179
 30
0.0
  0
SPLINE
  5
4EC
330
1F
100
AcDbEntity
  8
0
  6
Continuous
 62
     7
370
     0
100
AcDbSpline
210
0.0
220
0.0
230
1.0
 70
     8
 71
     3
 72
    12
 73
     8
 74
     0
 42
0.00000001
 43
0.00000001
 40
0.0
 40
0.0
 40
0.0
 40
0.0
 40
0.1435390382338296
 40
0.3720000425972547
 40
0.5966354701847157
 40
0.8124885396320488
 40
1.0
 40
1.0
 40
1.0
 40
1.0
 10
8.449100497283988
 20
6.09019372191641
 30
0.0
 10
8.456756550472827
 20
6.089714392261484
 30
0.0
 10
8.476598205728555
 20
6.088472147264966
 30
0.0
 10
8.506792668081738
 20
6.075977690742927
 30
0.0
 10
8.533793764812968
 20
6.051955091176044
 30
0.0
 10
8.550566578746908
 20
6.021789859039618
 30
0.0
 10
8.552556577212862
 20
6.00022059956559
 30
0.0
 10
8.553481664797166
 20
5.990193730458179
 30
0.0
  0
LINE
  5
4ED
330
1F
100
AcDbEntity
  8
0
  6
Continuous
 62
     7
370
     0
100
AcDbLine
 10
8.5534816648
 20
5.9901937305
 30
0.0
 11
8.5534816648
 21
5.5511937335
 31
0.0
  0
LINE
  5
4EE
330
1F
100
AcDbEntity
  8
0
  6
Continuous
 62
     7
370
     0
100
AcDbLine
 10
8.5169817398
 20
5.4961937318
 30
0.0
 11
8.5169817398
 21
5.5511937335
 31
0.0
  0
LINE
  5
4EF
330
1F
100
AcDbEntity
  8
0
  6
Continuous
 62
     7
370
     0
100
AcDbLine
 10
8.3852273152
 20
5.5901937325
 30
0.0
 11
8.4288859575
 21
5.5901937325
 31
0.0
  0
LINE
  5
4F0
330
1F
100
AcDbEntity
  8
0
  6
Continuous
 62
     7
370
     0
100
AcDbLine
 10
8.44799699
 20
5.5601937333
 30
0.0
 11
8.3862750897
 21
5.5601937333
 31
0.0
  0
LINE
  5
4F1
330
1F
100
AcDbEntity
  8
0
  6
Continuous
 62
     7
370
     0
100
AcDbLine
 10
8.4288859575
 20
6.0901937219
 30
0.0
 11
8.4491004973
 21
6.0901937219
 31
0.0
  0
LINE
  5
4F2
330
1F
100
AcDbEntity
  8
0
  6
Continuous
 62
     7
370
     0
100
AcDbLine
 10
8.5169817398
 20
5.4961937318
 30
0.0
 11
8.4752235822
 21
5.4961937318
 31
0.0
  0
LINE
  5
4F3
330
1F
100
AcDbEntity
  8
0
  6
Continuous
 62
     7
370
     0
100
AcDbLine
 10
8.5169817398
 20
5.5511937335
 30
0.0
 11
8.5534816648
 21
5.5511937335
 31
0.0
  0
LINE
  5
4F4
330
1F
100
AcDbEntity
  8
0
  6
Continuous
 62
     7
370
     0
100
AcDbLine
 10
8.3681775121
 20
5.5601937333
 30
0.0
 11
8.3681775121
 21
5.5511937335
 31
0.0
  0
LINE
  5
4F5
330
1F
100
AcDbEntity
  8
0
  6
Continuous
 62
     7
370
     0
100
AcDbLine
 10
8.4234526069
 20
5.4961937318
 30
0.0
 11
8.4752235822
 21
5.4961937318
 31
0.0
  0
LINE
  5
4F6
330
1F
100
AcDbEntity
  8
0
  6
Continuous
 62
     7
370
     0
100
AcDbLine
 10
8.4491004973
 20
6.0901937219
 30
0.0
 11
8.5838861936
 21
6.0901937219
 31
0.0
  0
LINE
  5
4F7
330
1F
100
AcDbEntity
  8
0
  6
Continuous
 62
     7
370
     0
100
AcDbLine
 10
8.683886185
 20
5.5511937335
 30
0.0
 11
8.5534816648
 21
5.5511937335
 31
0.0
  0
LINE
  5
4F8
330
1F
100
AcDbEntity
  8
0
  6
Continuous
 62
     7
370
     0
100
AcDbLine
 10
1.8739971468
 20
5.5601937333
 30
0.0
 11
1.7465485124
 21
5.5601937333
 31
0.0
  0
LINE
  5
4F9
330
1F
100
AcDbEntity
  8
0
  6
Continuous
 62
     7
370
     0
100
AcDbLine
 10
4.2428860745
 20
5.4701637196
 30
0.0
 11
4.2428860745
 21
5.4662460873
 31
0.0
  0
LINE
  5
4FA
330
1F
100
AcDbEntity
  8
0
  6
Continuous
 62
     7
370
     0
100
AcDbLine
 10
4.2428860745
 20
5.4662460873
 30
0.0
 11
4.2428860745
 21
5.3601937366
 31
0.0
  0
LINE
  5
4FB
330
1F
100
AcDbEntity
  8
0
  6
Continuous
 62
     7
370
     0
100
AcDbLine
 10
1.8978859375
 20
5.4662460873
 30
0.0
 11
1.8978859375
 21
5.3601937366
 31
0.0
  0
LINE
  5
4FC
330
1F
100
AcDbEntity
  8
0
  6
Continuous
 62
     7
370
     0
100
AcDbLine
 10
4.8721753666
 20
5.9651937326
 30
0.0
 11
4.6403860625
 21
5.9651937326
 31
0.0
  0
LINE
  5
4FD
330
1F
100
AcDbEntity
  8
0
  6
Continuous
 62
     7
370
     0
100
AcDbLine
 10
4.6403860625
 20
5.9651937326
 30
0.0
 11
4.5828860601
 21
5.9651937326
 31
0.0
  0
LINE
  5
4FE
330
1F
100
AcDbEntity
  8
0
  6
Continuous
 62
     7
370
     0
100
AcDbLine
 10
8.1665671478
 20
6.0151937283
 30
0.0
 11
8.1665671478
 21
5.7001937406
 31
0.0
  0
LINE
  5
4FF
330
1F
100
AcDbEntity
  8
0
  6
Continuous
 62
     7
370
     0
100
AcDbLine
 10
8.1665671478
 20
5.7001937406
 30
0.0
 11
8.2248861274
 21
5.7001937406
 31
0.0
  0
LINE
  5
500
330
1F
100
AcDbEntity
  8
0
  6
Continuous
 62
     7
370
     0
100
AcDbLine
 10
8.4752235822
 20
5.7401937335
 30
0.0
 11
8.4542827574
 21
5.7401937335
 31
0.0
  0
LINE
  5
501
330
1F
100
AcDbEntity
  8
0
  6
Continuous
 62
     7
370
     0
100
AcDbLine
 10
8.4752235822
 20
5.7001937406
 30
0.0
 11
8.4528859202
 21
5.7001937406
 31
0.0
  0
LINE
  5
502
330
1F
100
AcDbEntity
  8
0
  6
Continuous
 62
     7
370
     0
100
AcDbLine
 10
4.2428860745
 20
5.4701637196
 30
0.0
 11
4.2428860745
 21
5.4662460873
 31
0.0
  0
LINE
  5
503
330
1F
100
AcDbEntity
  8
0
  6
Continuous
 62
     7
370
     0
100
AcDbLine
 10
4.2428860745
 20
5.4662460873
 30
0.0
 11
4.2428860745
 21
5.3601937366
 31
0.0
  0
LINE
  5
504
330
1F
100
AcDbEntity
  8
0
  6
Continuous
 62
     7
370
     0
100
AcDbLine
 10
1.8978859375
 20
5.4662460873
 30
0.0
 11
1.8978859375
 21
5.3601937366
 31
0.0
  0
LINE
  5
505
330
1F
100
AcDbEntity
  8
0
  6
Continuous
 62
     7
370
     0
100
AcDbLine
 10
4.5428860489
 20
6.0678603866
 30
0.0
 11
4.5428860489
 21
6.0901937219
 31
0.0
  0
LINE
  5
506
330
1F
100
AcDbEntity
  8
0
  6
Continuous
 62
     7
370
     0
100
AcDbLine
 10
4.2428860745
 20
5.4701637196
 30
0.0
 11
4.2428860745
 21
5.4662460873
 31
0.0
  0
LINE
  5
507
330
1F
100
AcDbEntity
  8
0
  6
Continuous
 62
     7
370
     0
100
AcDbLine
 10
4.2428860745
 20
5.4662460873
 30
0.0
 11
4.2428860745
 21
5.3601937366
 31
0.0
  0
LINE
  5
508
330
1F
100
AcDbEntity
  8
0
  6
Continuous
 62
     7
370
     0
100
AcDbLine
 10
1.8978859375
 20
5.4662460873
 30
0.0
 11
1.8978859375
 21
5.3601937366
 31
0.0
  0
LINE
  5
509
330
1F
100
AcDbEntity
  8
0
  6
Continuous
 62
     7
370
     0
100
AcDbLine
 10
1.8978859375
 20
5.8693329567
 30
0.0
 11
1.8847925687
 21
5.8693329567
 31
0.0
  0
LINE
  5
50A
330
1F
100
AcDbEntity
  8
0
  6
Continuous
 62
     7
370
     0
100
AcDbLine
 10
8.1665671478
 20
5.8693329567
 30
0.0
 11
4.5828860601
 21
5.8693329567
 31
0.0
  0
LINE
  5
50B
330
1F
100
AcDbEntity
  8
0
  6
Continuous
 62
     7
370
     0
100
AcDbLine
 10
1.9378861687
 20
5.5861937342
 30
0.0
 11
4.2028860632
 21
5.5861937342
 31
0.0
  0
LINE
  5
50C
330
1F
100
AcDbEntity
  8
0
  6
Continuous
 62
     7
370
     0
100
AcDbLine
 10
8.3514571186
 20
5.5511937335
 30
0.0
 11
8.3745879447
 21
5.5511937335
 31
0.0
  0
LINE
  5
50D
330
1F
100
AcDbEntity
  8
0
  6
Continuous
 62
     7
370
     0
100
AcDbLine
 10
1.8471841499
 20
5.5511937335
 30
0.0
 11
1.870314976
 21
5.5511937335
 31
0.0
  0
LINE
  5
50E
330
1F
100
AcDbEntity
  8
0
  6
Continuous
 62
     7
370
     0
100
AcDbLine
 10
1.8494527636
 20
5.4961937318
 30
0.0
 11
1.870314976
 21
5.4961937318
 31
0.0
  0
LINE
  5
50F
330
1F
100
AcDbEntity
  8
0
  6
Continuous
 62
     7
370
     0
100
AcDbLine
 10
1.870314976
 20
5.4961937318
 30
0.0
 11
1.8978859375
 21
5.4961937318
 31
0.0
  0
LINE
  5
510
330
1F
100
AcDbEntity
  8
0
  6
Continuous
 62
     7
370
     0
100
AcDbLine
 10
4.2428860745
 20
5.4961937318
 30
0.0
 11
8.2543194407
 21
5.4961937318
 31
0.0
  0
LINE
  5
511
330
1F
100
AcDbEntity
  8
0
  6
Continuous
 62
     7
370
     0
100
AcDbLine
 10
4.2028860632
 20
5.8101937348
 30
0.0
 11
4.075886077
 21
5.8101937348
 31
0.0
  0
LINE
  5
512
330
1F
100
AcDbEntity
  8
0
  6
Continuous
 62
     7
370
     0
100
AcDbLine
 10
2.5058861671
 20
5.8101937348
 30
0.0
 11
1.9378861687
 21
5.8101937348
 31
0.0
  0
LINE
  5
513
330
1F
100
AcDbEntity
  8
0
  6
Continuous
 62
     7
370
     0
100
AcDbLine
 10
1.7100075212
 20
5.4961937318
 30
0.0
 11
1.7100075212
 21
5.5391937338
 31
0.0
  0
LINE
  5
514
330
1F
100
AcDbEntity
  8
0
  6
Continuous
 62
     7
370
     0
100
AcDbLine
 10
1.6682904298
 20
5.5391937338
 30
0.0
 11
1.5378859096
 21
5.5391937338
 31
0.0
  0
LINE
  5
515
330
1F
100
AcDbEntity
  8
0
  6
Continuous
 62
     7
370
     0
100
AcDbLine
 10
1.6682904298
 20
5.5391937338
 30
0.0
 11
1.6682904298
 21
5.1011937169
 31
0.0
  0
LINE
  5
516
330
1F
100
AcDbEntity
  8
0
  6
Continuous
 62
     7
370
     0
100
AcDbLine
 10
1.7100075212
 20
5.4961937318
 30
0.0
 11
1.7465485124
 21
5.4961937318
 31
0.0
  0
LINE
  5
517
330
1F
100
AcDbEntity
  8
0
  6
Continuous
 62
     7
370
     0
100
AcDbLine
 10
1.7465485124
 20
5.4961937318
 30
0.0
 11
1.7465485124
 21
5.0971937231
 31
0.0
  0
LINE
  5
518
330
1F
100
AcDbEntity
  8
0
  6
Continuous
 62
     7
370
     0
100
AcDbLine
 10
8.240385975
 20
5.0971937231
 30
0.0
 11
1.7465485124
 21
5.0971937231
 31
0.0
  0
LINE
  5
519
330
1F
100
AcDbEntity
  8
0
  6
Continuous
 62
     7
370
     0
100
AcDbLine
 10
8.240385975
 20
5.0971937231
 30
0.0
 11
8.2554021216
 21
5.5271937341
 31
0.0
  0
LINE
  5
51A
330
1F
100
AcDbEntity
  8
0
  6
Continuous
 62
     7
370
     0
100
AcDbLine
 10
8.2554021216
 20
5.5271937341
 30
0.0
 11
8.3013701505
 21
5.5271937341
 31
0.0
  0
LINE
  5
51B
330
1F
100
AcDbEntity
  8
0
  6
Continuous
 62
     7
370
     0
100
AcDbLine
 10
8.3163860037
 20
5.0971937231
 30
0.0
 11
8.3013701505
 21
5.5271937341
 31
0.0
  0
LINE
  5
51C
330
1F
100
AcDbEntity
  8
0
  6
Continuous
 62
     7
370
     0
100
AcDbLine
 10
8.3613860439
 20
5.0971937231
 30
0.0
 11
8.3163860037
 21
5.0971937231
 31
0.0
  0
LINE
  5
51D
330
1F
100
AcDbEntity
  8
0
  6
Continuous
 62
     7
370
     0
100
AcDbLine
 10
8.3764018971
 20
5.5271937341
 30
0.0
 11
8.3613860439
 21
5.0971937231
 31
0.0
  0
LINE
  5
51E
330
1F
100
AcDbEntity
  8
0
  6
Continuous
 62
     7
370
     0
100
AcDbLine
 10
8.3764018971
 20
5.5271937341
 30
0.0
 11
8.4223702194
 21
5.5271937341
 31
0.0
  0
LINE
  5
51F
330
1F
100
AcDbEntity
  8
0
  6
Continuous
 62
     7
370
     0
100
AcDbLine
 10
8.4223702194
 20
5.5271937341
 30
0.0
 11
8.4373860726
 21
5.0971937231
 31
0.0
  0
LINE
  5
520
330
1F
100
AcDbEntity
  8
0
  6
Continuous
 62
     7
370
     0
100
AcDbLine
 10
8.4752235822
 20
5.0971937231
 30
0.0
 11
8.4373860726
 21
5.0971937231
 31
0.0
  0
LINE
  5
521
330
1F
100
AcDbEntity
  8
0
  6
Continuous
 62
     7
370
     0
100
AcDbLine
 10
8.4752235822
 20
5.4961937318
 30
0.0
 11
8.4752235822
 21
5.0971937231
 31
0.0
  0
LINE
  5
522
330
1F
100
AcDbEntity
  8
0
  6
Continuous
 62
     7
370
     0
100
AcDbLine
 10
8.4752235822
 20
5.4961937318
 30
0.0
 11
8.5117645734
 21
5.4961937318
 31
0.0
  0
LINE
  5
523
330
1F
100
AcDbEntity
  8
0
  6
Continuous
 62
     7
370
     0
100
AcDbLine
 10
8.5117645734
 20
5.5391937338
 30
0.0
 11
8.5117645734
 21
5.4961937318
 31
0.0
  0
LINE
  5
524
330
1F
100
AcDbEntity
  8
0
  6
Continuous
 62
     7
370
     0
100
AcDbLine
 10
8.5534816648
 20
5.5391937338
 30
0.0
 11
8.5534816648
 21
5.1011937169
 31
0.0
  0
SPLINE
  5
525
330
1F
100
AcDbEntity
  8
0
  6
Continuous
 62
     7
370
     0
100
AcDbSpline
210
0.0
220
0.0
230
1.0
 70
     8
 71
     3
 72
    20
 73
    16
 74
     0
 42
0.00000001
 43
0.00000001
 40
0.0
 40
0.0
 40
0.0
 40
0.0
 40
0.1250000000000023
 40
0.1250000000000023
 40
0.2500000000000046
 40
0.2500000000000046
 40
0.5000000000000038
 40
0.5000000000000038
 40
0.6250000000000029
 40
0.6250000000000029
 40
0.7500000000000019
 40
0.7500000000000019
 40
0.875000000000001
 40
0.875000000000001
 40
1.0
 40
1.0
 40
1.0
 40
1.0
 10
8.553481628069143
 20
5.101193733781959
 30
0.0
 10
8.553481628069143
 20
5.094608462736866
 30
0.0
 10
8.552796723596877
 20
5.088115172277974
 30
0.0
 10
8.550088739620229
 20
5.075308304194431
 30
0.0
 10
8.548033676783087
 20
5.068956509043161
 30
0.0
 10
8.540109596535777
 20
5.051010822135011
 30
0.0
 10
8.53228189179753
 20
5.040076792553271
 30
0.0
 10
8.517986851287862
 20
5.026671604979327
 30
0.0
 10
8.512719503583378
 20
5.02262121813741
 30
0.0
 10
8.501584481669916
 20
5.015654382658394
 30
0.0
 10
8.495743582912896
 20
5.012735778088954
 30
0.0
 10
8.48353038922139
 20
5.007996421741035
 30
0.0
 10
8.477121217237377
 20
5.006180966430629
 30
0.0
 10
8.46426832498866
 20
5.003794081713809
 30
0.0
 10
8.457767348181145
 20
5.003193733781959
 30
0.0
 10
8.451190929185186
 20
5.003193733781959
 30
0.0
  0
LINE
  5
526
330
1F
100
AcDbEntity
  8
0
  6
Continuous
 62
     7
370
     0
100
AcDbLine
 10
8.4511910598
 20
5.0031937224
 30
0.0
 11
8.1818860108
 21
5.0031937224
 31
0.0
  0
LINE
  5
527
330
1F
100
AcDbEntity
  8
0
  6
Continuous
 62
     7
370
     0
100
AcDbLine
 10
8.1818860108
 20
5.0421937352
 30
0.0
 11
8.1818860108
 21
5.0031937224
 31
0.0
  0
LINE
  5
528
330
1F
100
AcDbEntity
  8
0
  6
Continuous
 62
     7
370
     0
100
AcDbLine
 10
2.0398860837
 20
5.0421937352
 30
0.0
 11
8.1818860108
 21
5.0421937352
 31
0.0
  0
LINE
  5
529
330
1F
100
AcDbEntity
  8
0
  6
Continuous
 62
     7
370
     0
100
AcDbLine
 10
2.0398860837
 20
5.0031937224
 30
0.0
 11
2.0398860837
 21
5.0421937352
 31
0.0
  0
LINE
  5
52A
330
1F
100
AcDbEntity
  8
0
  6
Continuous
 62
     7
370
     0
100
AcDbLine
 10
2.0398860837
 20
5.0031937224
 30
0.0
 11
1.7705810348
 21
5.0031937224
 31
0.0
  0
SPLINE
  5
52B
330
1F
100
AcDbEntity
  8
0
  6
Continuous
 62
     7
370
     0
100
AcDbSpline
210
0.0
220
0.0
230
1.0
 70
     8
 71
     3
 72
    18
 73
    14
 74
     0
 42
0.00000001
 43
0.00000001
 40
0.0
 40
0.0
 40
0.0
 40
0.0
 40
0.2499999999999885
 40
0.2499999999999885
 40
0.3749999999999876
 40
0.3749999999999876
 40
0.4999999999999867
 40
0.4999999999999867
 40
0.7499999999999932
 40
0.7499999999999932
 40
0.8749999999999967
 40
0.8749999999999967
 40
1.0
 40
1.0
 40
1.0
 40
1.0
 10
1.770581165392507
 20
5.003193733781959
 30
0.0
 10
1.757404764562805
 20
5.003193733781959
 30
0.0
 10
1.744461715054309
 20
5.005584259256887
 30
0.0
 10
1.725987591478897
 20
5.012750895336684
 30
0.0
 10
1.720149504370225
 20
5.015678663984752
 30
0.0
 10
1.709100620769771
 20
5.022590729795455
 30
0.0
 10
1.703849523261421
 20
5.026613965641872
 30
0.0
 10
1.689425619385649
 20
5.040132094683131
 30
0.0
 10
1.681636772653164
 20
5.05105729550576
 30
0.0
 10
1.673730093357127
 20
5.068981278625691
 30
0.0
 10
1.67167814125721
 20
5.075325715650842
 30
0.0
 10
1.668971626431204
 20
5.088140151079925
 30
0.0
 10
1.668290466508546
 20
5.094626727864675
 30
0.0
 10
1.668290466508547
 20
5.101193733781959
 30
0.0
  0
LINE
  5
52C
330
1F
100
AcDbEntity
  8
0
  6
Continuous
 62
     7
370
     0
100
AcDbLine
 10
1.7100075212
 20
5.5391937338
 30
0.0
 11
1.6682904298
 21
5.5391937338
 31
0.0
  0
LINE
  5
52D
330
1F
100
AcDbEntity
  8
0
  6
Continuous
 62
     7
370
     0
100
AcDbLine
 10
8.5534816648
 20
5.5391937338
 30
0.0
 11
8.5117645734
 21
5.5391937338
 31
0.0
  0
LINE
  5
52E
330
1F
100
AcDbEntity
  8
0
  6
Continuous
 62
     7
370
     0
100
AcDbLine
 10
1.7705810348
 20
5.0031937224
 30
0.0
 11
1.6358859775
 21
5.0031937224
 31
0.0
  0
LINE
  5
52F
330
1F
100
AcDbEntity
  8
0
  6
Continuous
 62
     7
370
     0
100
AcDbLine
 10
1.8535945825
 20
5.3775858374
 30
0.0
 11
1.8535945825
 21
5.4961937318
 31
0.0
  0
LINE
  5
530
330
1F
100
AcDbEntity
  8
0
  6
Continuous
 62
     7
370
     0
100
AcDbLine
 10
8.3013701505
 20
5.5271937341
 30
0.0
 11
8.3764018971
 21
5.5271937341
 31
0.0
  0
LINE
  5
531
330
1F
100
AcDbEntity
  8
0
  6
Continuous
 62
     7
370
     0
100
AcDbLine
 10
8.5858861171
 20
5.0031937224
 30
0.0
 11
8.4511910598
 21
5.0031937224
 31
0.0
  0
LINE
  5
532
330
1F
100
AcDbEntity
  8
0
  6
Continuous
 62
     7
370
     0
100
AcDbLine
 10
8.5534816648
 20
5.5391937338
 30
0.0
 11
8.683886185
 21
5.5391937338
 31
0.0
  0
LINE
  5
533
330
1F
100
AcDbEntity
  8
0
  6
Continuous
 62
     7
370
     0
100
AcDbLine
 10
1.7648860339
 20
5.5271937341
 30
0.0
 11
1.7465485124
 21
5.5271937341
 31
0.0
  0
LINE
  5
534
330
1F
100
AcDbEntity
  8
0
  6
Continuous
 62
     7
370
     0
100
AcDbLine
 10
1.8483700828
 20
5.5271937341
 30
0.0
 11
1.7648860339
 21
5.5271937341
 31
0.0
  0
LINE
  5
535
330
1F
100
AcDbEntity
  8
0
  6
Continuous
 62
     7
370
     0
100
AcDbLine
 10
7.9448859753
 20
5.2741937418
 30
0.0
 11
8.0372051222
 21
5.2741937418
 31
0.0
  0
LINE
  5
536
330
1F
100
AcDbEntity
  8
0
  6
Continuous
 62
     7
370
     0
100
AcDbLine
 10
7.8525671218
 20
5.2741937418
 30
0.0
 11
7.9448859753
 21
5.2741937418
 31
0.0
  0
LINE
  5
537
330
1F
100
AcDbEntity
  8
0
  6
Continuous
 62
     7
370
     0
100
AcDbLine
 10
4.8148860484
 20
5.2741937418
 30
0.0
 11
4.9072050669
 21
5.2741937418
 31
0.0
  0
LINE
  5
538
330
1F
100
AcDbEntity
  8
0
  6
Continuous
 62
     7
370
     0
100
AcDbLine
 10
4.7225670298
 20
5.2741937418
 30
0.0
 11
4.8148860484
 21
5.2741937418
 31
0.0
  0
LINE
  5
539
330
1F
100
AcDbEntity
  8
0
  6
Continuous
 62
     7
370
     0
100
AcDbLine
 10
2.0398860837
 20
5.0031937224
 30
0.0
 11
8.1818860108
 21
5.0031937224
 31
0.0
  0
LINE
  5
53A
330
1F
100
AcDbEntity
  8
0
  6
Continuous
 62
     7
370
     0
100
AcDbLine
 10
4.3928860617
 20
5.9101937446
 30
0.0
 11
4.5428860489
 21
5.9101937446
 31
0.0
  0
LINE
  5
53B
330
1F
100
AcDbEntity
  8
0
  6
Continuous
 62
     7
370
     0
100
AcDbLine
 10
4.2428860745
 20
5.9101937446
 30
0.0
 11
4.3928860617
 21
5.9101937446
 31
0.0
  0
LINE
  5
53C
330
1F
100
AcDbEntity
  8
0
  6
PHANTOM
 62
     8
370
     0
100
AcDbLine
 10
2.0849292434
 20
6.0991937446
 30
0.0
 11
1.9289290455
 21
6.0991937446
 31
0.0
  0
LINE
  5
53D
330
1F
100
AcDbEntity
  8
0
  6
PHANTOM
 62
     8
370
     0
100
AcDbLine
 10
1.8358859604
 20
6.0151937283
 30
0.0
 11
1.8358859604
 21
5.9651937326
 31
0.0
  0
LINE
  5
53E
330
1F
100
AcDbEntity
  8
0
  6
PHANTOM
 62
     8
370
     0
100
AcDbLine
 10
4.2553860368
 20
5.9651937326
 30
0.0
 11
4.5303860499
 21
5.9651937326
 31
0.0
  0
LINE
  5
53F
330
1F
100
AcDbEntity
  8
0
  6
PHANTOM
 62
     8
370
     0
100
AcDbLine
 10
3.6448860493
 20
5.6901937378
 30
0.0
 11
3.6808859934
 21
5.6901937378
 31
0.0
  0
LINE
  5
540
330
1F
100
AcDbEntity
  8
0
  6
PHANTOM
 62
     8
370
     0
100
AcDbLine
 10
2.8578860608
 20
5.6901937378
 30
0.0
 11
2.8938860049
 21
5.6901937378
 31
0.0
  0
LINE
  5
541
330
1F
100
AcDbEntity
  8
0
  6
PHANTOM
 62
     8
370
     0
100
AcDbLine
 10
3.6808859934
 20
6.0023366002
 30
0.0
 11
4.2553860368
 21
6.0023366002
 31
0.0
  0
LINE
  5
542
330
1F
100
AcDbEntity
  8
0
  6
PHANTOM
 62
     8
370
     0
100
AcDbLine
 10
4.5303860499
 20
6.0023366002
 30
0.0
 11
4.540886052
 21
6.0023366002
 31
0.0
  0
LINE
  5
543
330
1F
100
AcDbEntity
  8
0
  6
PHANTOM
 62
     8
370
     0
100
AcDbLine
 10
2.8938860049
 20
6.0023366002
 30
0.0
 11
3.6448860493
 21
6.0023366002
 31
0.0
  0
LINE
  5
544
330
1F
100
AcDbEntity
  8
0
  6
PHANTOM
 62
     8
370
     0
100
AcDbLine
 10
2.0358859433
 20
6.0023366002
 30
0.0
 11
2.8578860608
 21
6.0023366002
 31
0.0
  0
LINE
  5
545
330
1F
100
AcDbEntity
  8
0
  6
PHANTOM
 62
     8
370
     0
100
AcDbLine
 10
4.2028860632
 20
5.8761055051
 30
0.0
 11
4.075886077
 21
5.8761055051
 31
0.0
  0
LINE
  5
546
330
1F
100
AcDbEntity
  8
0
  6
PHANTOM
 62
     8
370
     0
100
AcDbLine
 10
2.5058861671
 20
5.8761055051
 30
0.0
 11
1.9408860541
 21
5.8761055051
 31
0.0
  0
LINE
  5
547
330
1F
100
AcDbEntity
  8
0
  6
PHANTOM
 62
     8
370
     0
100
AcDbLine
 10
4.075886077
 20
5.8542525709
 30
0.0
 11
4.2028860632
 21
5.8542525709
 31
0.0
  0
LINE
  5
548
330
1F
100
AcDbEntity
  8
0
  6
PHANTOM
 62
     8
370
     0
100
AcDbLine
 10
1.9420978001
 20
5.8542525709
 30
0.0
 11
2.5058861671
 21
5.8542525709
 31
0.0
  0
LINE
  5
549
330
1F
100
AcDbEntity
  8
0
  6
PHANTOM
 62
     8
370
     0
100
AcDbLine
 10
1.6682904298
 20
5.9901937305
 30
0.0
 11
1.5378859096
 21
5.9901937305
 31
0.0
  0
LINE
  5
54A
330
1F
100
AcDbEntity
  8
0
  6
PHANTOM
 62
     8
370
     0
100
AcDbLine
 10
1.8471841499
 20
5.5271937341
 30
0.0
 11
1.8471841499
 21
5.5511937335
 31
0.0
  0
LINE
  5
54B
330
1F
100
AcDbEntity
  8
0
  6
PHANTOM
 62
     8
370
     0
100
AcDbLine
 10
4.2028860632
 20
5.5317997745
 30
0.0
 11
1.9378861687
 21
5.5317997745
 31
0.0
  0
LINE
  5
54C
330
1F
100
AcDbEntity
  8
0
  6
PHANTOM
 62
     8
370
     0
100
AcDbLine
 10
8.4630131366
 20
5.9901937305
 30
0.0
 11
8.4752235822
 21
5.9901937305
 31
0.0
  0
LINE
  5
54D
330
1F
100
AcDbEntity
  8
0
  6
PHANTOM
 62
     8
370
     0
100
AcDbLine
 10
8.3745879447
 20
5.5271937341
 30
0.0
 11
8.3745879447
 21
5.5511937335
 31
0.0
  0
LINE
  5
54E
330
1F
100
AcDbEntity
  8
0
  6
PHANTOM
 62
     8
370
     0
100
AcDbLine
 10
8.683886185
 20
5.9901937305
 30
0.0
 11
8.5534816648
 21
5.9901937305
 31
0.0
  0
LINE
  5
54F
330
1F
100
AcDbEntity
  8
0
  6
PHANTOM
 62
     8
370
     0
100
AcDbLine
 10
4.6403860625
 20
5.9818604101
 30
0.0
 11
4.8957456009
 21
5.9818604101
 31
0.0
  0
LINE
  5
550
330
1F
100
AcDbEntity
  8
0
  6
PHANTOM
 62
     8
370
     0
100
AcDbLine
 10
4.6403860625
 20
6.0151937283
 30
0.0
 11
4.6403860625
 21
5.9818604101
 31
0.0
  0
LINE
  5
551
330
1F
100
AcDbEntity
  8
0
  6
PHANTOM
 62
     8
370
     0
100
AcDbLine
 10
4.5828860601
 20
5.9818604101
 30
0.0
 11
4.6403860625
 21
5.9818604101
 31
0.0
  0
LINE
  5
552
330
1F
100
AcDbEntity
  8
0
  6
PHANTOM
 62
     8
370
     0
100
AcDbLine
 10
4.6403860625
 20
5.9818604101
 30
0.0
 11
4.6403860625
 21
5.9651937326
 31
0.0
  0
LINE
  5
553
330
1F
100
AcDbEntity
  8
0
  6
PHANTOM
 62
     8
370
     0
100
AcDbLine
 10
4.2028860632
 20
5.5625608257
 30
0.0
 11
1.9378861687
 21
5.5625608257
 31
0.0
  0
LINE
  5
554
330
1F
100
AcDbEntity
  8
0
  6
PHANTOM
 62
     8
370
     0
100
AcDbLine
 10
8.3514571186
 20
5.5271937341
 30
0.0
 11
8.3514571186
 21
5.5511937335
 31
0.0
  0
LINE
  5
555
330
1F
100
AcDbEntity
  8
0
  6
PHANTOM
 62
     8
370
     0
100
AcDbLine
 10
1.870314976
 20
5.4961937318
 30
0.0
 11
1.870314976
 21
5.5511937335
 31
0.0
  0
LINE
  5
556
330
1F
100
AcDbEntity
  8
0
  6
PHANTOM
 62
     8
370
     0
100
AcDbLine
 10
1.5378859096
 20
5.1011937169
 30
0.0
 11
1.6682904298
 21
5.1011937169
 31
0.0
  0
LINE
  5
557
330
1F
100
AcDbEntity
  8
0
  6
PHANTOM
 62
     8
370
     0
100
AcDbLine
 10
8.5534816648
 20
5.1011937169
 30
0.0
 11
8.683886185
 21
5.1011937169
 31
0.0
  0
HATCH
  5
558
330
1F
100
AcDbEntity
  8
0
  6
Continuous
 62
     7
370
     0
100
AcDbHatch
 10
0.0
 20
0.0
 30
0.0
210
0.0
220
0.0
230
1.0
  2
ANSI31
 70
     0
 71
     0
 91
        1
 92
        0
 93
       26
 72
     1
 10
1.710007592361816
 20
5.49619373378196
 11
1.710007592361816
 21
5.539193733781959
 72
     1
 10
1.710007592361816
 20
5.539193733781959
 11
1.668290466508548
 21
5.539193733781959
 72
     1
 10
1.668290466508548
 20
5.539193733781959
 11
1.668290466508548
 21
5.101193733781959
 72
     4
 94
        3
 73
     1
 74
     0
 95
       23
 96
       19
 40
0.0145218491413064
 40
0.0145218491413064
 40
0.0145218491413064
 40
0.0145218491413064
 40
0.0152153863844249
 40
0.0152153863844249
 40
0.0152153863844249
 40
0.0160363097944929
 40
0.0160363097944929
 40
0.0160363097944929
 40
0.0166307352636365
 40
0.0166307352636365
 40
0.0166307352636365
 40
0.0175453111117772
 40
0.0175453111117772
 40
0.0175453111117772
 40
0.0184633574048917
 40
0.0184633574048917
 40
0.0184633574048917
 40
0.0185272718483694
 40
0.0185272718483694
 40
0.0185272718483694
 40
0.0185272718483694
 10
1.668290466508547
 20
5.101193733781959
 42
1.0
 10
1.668290466508547
 20
5.092156622353811
 42
1.0
 10
1.669622420820788
 20
5.083028521273842
 42
1.0
 10
1.672193180637084
 20
5.07436477053114
 42
1.0
 10
1.675236356654315
 20
5.064108923869651
 42
1.0
 10
1.680103705519961
 20
5.054247482830809
 42
1.0
 10
1.686349277007675
 20
5.045562084290288
 42
1.0
 10
1.690903553722726
 20
5.039228683349823
 42
1.0
 10
1.696255541412029
 20
5.033404900412009
 42
1.0
 10
1.702165211255629
 20
5.028312827532564
 42
1.0
 10
1.711180372111246
 20
5.020544905243905
 42
1.0
 10
1.721736918850925
 20
5.014309425942513
 42
1.0
 10
1.732862726941766
 20
5.010086851341507
 42
1.0
 10
1.744036432785568
 20
5.005846098120715
 42
1.0
 10
1.756105812023927
 20
5.003505705242258
 42
1.0
 10
1.768053869961744
 20
5.003223567548836
 42
1.0
 10
1.768896125675237
 20
5.003203678786535
 42
1.0
 10
1.769738674888241
 20
5.003193733781959
 42
1.0
 10
1.770581165392507
 20
5.003193733781959
 42
1.0
 72
     1
 10
1.770581165392507
 20
5.003193733781959
 11
2.039886047288842
 21
5.003193733781959
 72
     1
 10
2.039886047288842
 20
5.003193733781959
 11
2.039886047288842
 21
5.042193733781959
 72
     1
 10
2.039886047288842
 20
5.042193733781959
 11
8.181886047288842
 21
5.042193733781959
 72
     1
 10
8.181886047288842
 20
5.042193733781959
 11
8.181886047288842
 21
5.003193733781959
 72
     1
 10
8.181886047288842
 20
5.003193733781959
 11
8.451190929185186
 21
5.003193733781959
 72
     4
 94
        3
 73
     1
 74
     0
 95
       20
 96
       16
 40
0.0016455720246927
 40
0.0016455720246927
 40
0.0016455720246927
 40
0.0016455720246927
 40
0.0024318812431628
 40
0.0024318812431628
 40
0.0024318812431628
 40
0.0032889702488832
 40
0.0032889702488832
 40
0.0032889702488832
 40
0.0041147372447232
 40
0.0041147372447232
 40
0.0041147372447232
 40
0.0049234337157164
 40
0.0049234337157164
 40
0.0049234337157164
 40
0.0056500031102167
 40
0.0056500031102167
 40
0.0056500031102167
 40
0.0056500031102167
 10
8.451190929185186
 20
5.003193733781959
 42
1.0
 10
8.461443019804415
 20
5.003193733781959
 42
1.0
 10
8.471801693433758
 20
5.004694575279352
 42
1.0
 10
8.481626549845796
 20
5.007623322203844
 42
1.0
 10
8.492340119552434
 20
5.010816990692497
 42
1.0
 10
8.502675384195905
 20
5.015796571264702
 42
1.0
 10
8.511814495499785
 20
5.022235262036102
 42
1.0
 10
8.520622126832603
 20
5.028440418390468
 42
1.0
 10
8.528538252439347
 20
5.036160396826556
 42
1.0
 10
8.534906507127294
 20
5.044850832218779
 42
1.0
 10
8.541142412210672
 20
5.053360656793115
 42
1.0
 10
8.546049660487595
 20
5.063022439930592
 42
1.0
 10
8.5491920380781
 20
5.073093640930152
 42
1.0
 10
8.552014267945184
 20
5.082138780618083
 42
1.0
 10
8.553481628069143
 20
5.09171852753635
 42
1.0
 10
8.553481628069143
 20
5.101193733781959
 42
1.0
 72
     1
 10
8.553481628069143
 20
5.101193733781959
 11
8.553481628069143
 21
5.539193733781959
 72
     1
 10
8.553481628069143
 20
5.539193733781959
 11
8.511764502215874
 21
5.539193733781959
 72
     1
 10
8.511764502215874
 20
5.539193733781959
 11
8.511764502215874
 21
5.49619373378196
 72
     1
 10
8.511764502215874
 20
5.49619373378196
 11
8.47522365329254
 21
5.49619373378196
 72
     1
 10
8.47522365329254
 20
5.49619373378196
 11
8.47522365329254
 21
5.097193733781959
 72
     1
 10
8.47522365329254
 20
5.097193733781959
 11
8.437386047288843
 21
5.097193733781959
 72
     1
 10
8.437386047288843
 20
5.097193733781959
 11
8.422370116407391
 21
5.527193733781959
 72
     1
 10
8.422370116407391
 20
5.527193733781959
 11
8.376401978170293
 21
5.527193733781959
 72
     1
 10
8.376401978170293
 20
5.527193733781959
 11
8.361386047288843
 21
5.097193733781959
 72
     1
 10
8.361386047288843
 20
5.097193733781959
 11
8.316386047288843
 21
5.097193733781959
 72
     1
 10
8.316386047288843
 20
5.097193733781959
 11
8.301370116407389
 21
5.527193733781959
 72
     1
 10
8.301370116407389
 20
5.527193733781959
 11
8.255401978170294
 21
5.527193733781959
 72
     1
 10
8.255401978170294
 20
5.527193733781959
 11
8.240386047288842
 21
5.097193733781959
 72
     1
 10
8.240386047288842
 20
5.097193733781959
 11
1.746548441285152
 21
5.097193733781959
 72
     1
 10
1.746548441285152
 20
5.097193733781959
 11
1.746548441285152
 21
5.49619373378196
 72
     1
 10
1.746548441285152
 20
5.49619373378196
 11
1.710007592361816
 21
5.49619373378196
 97
        0
 75
     0
 76
     1
 52
0.0
 41
1.0
 77
     0
 78
     1
 53
45.0
 43
0.0
 44
0.0
 45
-0.0883883476483184
 46
0.0883883476483184
 79
     0
 98
        1
 10
0.0
 20
0.0
  0
HATCH
  5
559
330
1F
100
AcDbEntity
  8
0
  6
Continuous
 62
     7
370
     0
100
AcDbHatch
 10
0.0
 20
0.0
 30
0.0
210
0.0
220
0.0
230
1.0
  2
ANSI31
 70
     0
 71
     0
 91
        1
 92
        0
 93
       13
 72
     1
 10
8.47522365329254
 20
5.49619373378196
 11
8.516981665444195
 21
5.49619373378196
 72
     1
 10
8.516981665444195
 20
5.49619373378196
 11
8.516981665444195
 21
5.551193733781958
 72
     1
 10
8.516981665444195
 20
5.551193733781958
 11
8.553481628069143
 21
5.551193733781958
 72
     1
 10
8.553481628069143
 20
5.551193733781958
 11
8.553481628069143
 21
5.990193733781959
 72
     4
 94
        3
 73
     1
 74
     0
 95
       20
 96
       16
 40
0.0119411638949379
 40
0.0119411638949379
 40
0.0119411638949379
 40
0.0119411638949379
 40
0.0127093622741719
 40
0.0127093622741719
 40
0.0127093622741719
 40
0.0135944881263046
 40
0.0135944881263046
 40
0.0135944881263046
 40
0.0145159883268668
 40
0.0145159883268668
 40
0.0145159883268668
 40
0.0154528803608322
 40
0.0154528803608322
 40
0.0154528803608322
 40
0.0160401109920417
 40
0.0160401109920417
 40
0.0160401109920417
 40
0.0160401109920417
 10
8.553481628069143
 20
5.990193733781959
 42
1.0
 10
8.553481628069143
 20
6.000184739008351
 42
1.0
 10
8.551880231546695
 20
6.010293170106536
 42
1.0
 10
8.548808242800408
 20
6.019800171241304
 42
1.0
 10
8.545271938436512
 20
6.030744107686745
 42
1.0
 10
8.539676453293835
 20
6.041197106256161
 42
1.0
 10
8.532584002800071
 20
6.05025096396818
 42
1.0
 10
8.52520295196813
 20
6.05967323403638
 42
1.0
 10
8.515981251594603
 20
6.06787046554394
 42
1.0
 10
8.505806051067209
 20
6.074173193433443
 42
1.0
 10
8.495457608577672
 20
6.080583230947313
 42
1.0
 10
8.4838202861645
 20
6.08523138537641
 42
1.0
 10
8.471917376411104
 20
6.087780813212416
 42
1.0
 10
8.464438907975895
 20
6.089382590928488
 42
1.0
 10
8.456748438853671
 20
6.090193733781958
 42
1.0
 10
8.44910035530365
 20
6.090193733781958
 42
1.0
 72
     1
 10
8.44910035530365
 20
6.090193733781958
 11
8.428886047288842
 21
6.090193733781958
 72
     1
 10
8.428886047288842
 20
6.090193733781958
 11
8.428886047288842
 21
5.590193733781959
 72
     1
 10
8.428886047288842
 20
5.590193733781959
 11
8.385227374322834
 21
5.590193733781959
 72
     1
 10
8.385227374322834
 20
5.590193733781959
 11
8.386274997407588
 21
5.56019373378196
 72
     1
 10
8.386274997407588
 20
5.56019373378196
 11
8.447997097170097
 21
5.560193733781959
 72
     1
 10
8.447997097170097
 20
5.560193733781959
 11
8.463736217528162
 21
6.0109031708058
 72
     4
 94
        3
 73
     1
 74
     0
 95
       17
 96
       13
 40
0.0012742403831887
 40
0.0012742403831887
 40
0.0012742403831887
 40
0.0012742403831887
 40
0.001324489247744
 40
0.001324489247744
 40
0.001324489247744
 40
0.0015510714053465
 40
0.0015510714053465
 40
0.0015510714053465
 40
0.0017679660290334
 40
0.0017679660290334
 40
0.0017679660290334
 40
0.0018987172772217
 40
0.0018987172772217
 40
0.0018987172772217
 40
0.0018987172772217
 10
8.463736217528162
 20
6.0109031708058
 42
1.0
 10
8.464294327316038
 20
6.010541974756824
 42
1.0
 10
8.464839088955035
 20
6.010159252120988
 42
1.0
 10
8.465367976861943
 20
6.009756478359371
 42
1.0
 10
8.467730495904958
 20
6.007957305662434
 42
1.0
 10
8.469811713033822
 20
6.005711584374715
 42
1.0
 10
8.471406876652065
 20
6.003206794632433
 42
1.0
 10
8.472934632744519
 20
6.000807850884391
 42
1.0
 10
8.474059956389013
 20
5.998100668214594
 42
1.0
 10
8.474668249450835
 20
5.995322368494398
 42
1.0
 10
8.47503602139657
 20
5.993642617798466
 42
1.0
 10
8.475223653292542
 20
5.991913274012532
 42
1.0
 10
8.475223653292542
 20
5.990193733781959
 42
1.0
 72
     1
 10
8.47522365329254
 20
5.990193733781959
 11
8.47522365329254
 21
5.49619373378196
 97
        0
 75
     0
 76
     1
 52
0.0
 41
1.0
 77
     0
 78
     1
 53
45.0
 43
0.0
 44
0.0
 45
-0.0883883476483184
 46
0.0883883476483184
 79
     0
 98
        1
 10
0.0
 20
0.0
  0
HATCH
  5
55A
330
1F
100
AcDbEntity
  8
0
  6
Continuous
 62
     7
370
     0
100
AcDbHatch
 10
0.0
 20
0.0
 30
0.0
210
0.0
220
0.0
230
1.0
  2
ANSI31
 70
     0
 71
     0
 91
        1
 92
        0
 93
       28
 72
     1
 10
1.668290466508548
 20
5.990193733781959
 11
1.668290466508548
 21
5.551193733781958
 72
     1
 10
1.668290466508548
 20
5.551193733781958
 11
1.704790429133496
 21
5.551193733781958
 72
     1
 10
1.704790429133496
 20
5.551193733781958
 11
1.704790429133496
 21
5.49619373378196
 72
     1
 10
1.704790429133496
 20
5.49619373378196
 11
1.746548441285152
 21
5.49619373378196
 72
     1
 10
1.746548441285152
 20
5.49619373378196
 11
1.746548441285152
 21
5.990193733781959
 72
     4
 94
        3
 73
     1
 74
     0
 95
       26
 96
       22
 40
0.0039282130593071
 40
0.0039282130593071
 40
0.0039282130593071
 40
0.0039282130593071
 40
0.0039433998292794
 40
0.0039433998292794
 40
0.0039433998292794
 40
0.0040609053172453
 40
0.0040609053172453
 40
0.0040609053172453
 40
0.0042710604442411
 40
0.0042710604442411
 40
0.0042710604442411
 40
0.0044808390923408
 40
0.0044808390923408
 40
0.0044808390923408
 40
0.0046963415487773
 40
0.0046963415487773
 40
0.0046963415487773
 40
0.0049210295617901
 40
0.0049210295617901
 40
0.0049210295617901
 40
0.0049421061435308
 40
0.0049421061435308
 40
0.0049421061435308
 40
0.0049421061435308
 10
1.746548441285152
 20
5.990193733781959
 42
1.0
 10
1.746548441285152
 20
5.990395638539015
 42
1.0
 10
1.74655099662406
 20
5.990597559456771
 42
1.0
 10
1.746556105871404
 20
5.990799399558123
 42
1.0
 10
1.746595533663505
 20
5.992356988967678
 42
1.0
 10
1.746788792334996
 20
5.99391798535779
 42
1.0
 10
1.747129540264395
 20
5.995438357078179
 42
1.0
 10
1.747732691417247
 20
5.99812953691171
 42
1.0
 10
1.748820439283307
 20
6.000750627878089
 42
1.0
 10
1.750288417410072
 20
6.003085425605717
 42
1.0
 10
1.751754864724388
 20
6.005417788598547
 42
1.0
 10
1.753638475452896
 20
6.007528502702475
 42
1.0
 10
1.755777982921078
 20
6.009264271307326
 42
1.0
 10
1.757975913333375
 20
6.011047438069792
 42
1.0
 10
1.760500539251929
 20
6.012482776941886
 42
1.0
 10
1.763151153408965
 20
6.013475161136939
 42
1.0
 10
1.76591312603282
 20
6.014509237700594
 42
1.0
 10
1.768884981683244
 20
6.015090266962792
 42
1.0
 10
1.771832794813258
 20
6.015180847672352
 42
1.0
 10
1.772112344006822
 20
6.015189437689151
 42
1.0
 10
1.77239205813415
 20
6.015193733781959
 42
1.0
 10
1.772671739274042
 20
6.015193733781959
 42
1.0
 72
     1
 10
1.772671739274042
 20
6.015193733781959
 11
1.897886047288842
 21
6.015193733781959
 72
     1
 10
1.897886047288842
 20
6.015193733781959
 11
1.897886047288842
 21
5.363833995502097
 72
     1
 10
1.897886047288842
 20
5.363833995502097
 11
4.242886047288843
 21
5.363833995502097
 72
     1
 10
4.242886047288843
 20
5.363833995502097
 11
4.242886047288843
 21
5.620193733781958
 72
     1
 10
4.242886047288843
 20
5.620193733781958
 11
4.582886047288842
 21
5.620193733781958
 72
     1
 10
4.582886047288842
 20
5.620193733781958
 11
4.582886047288842
 21
6.015193733781959
 72
     1
 10
4.582886047288842
 20
6.015193733781959
 11
8.213886047288842
 21
6.015193733781959
 72
     1
 10
8.213886047288842
 20
6.015193733781959
 11
8.229774997407587
 21
5.560193733781959
 72
     1
 10
8.229774997407587
 20
5.560193733781959
 11
8.291497097170097
 21
5.56019373378196
 72
     1
 10
8.291497097170097
 20
5.56019373378196
 11
8.292544720254849
 21
5.590193733781959
 72
     1
 10
8.292544720254849
 20
5.590193733781959
 11
8.248886047288842
 21
5.590193733781959
 72
     1
 10
8.248886047288842
 20
5.590193733781959
 11
8.248886047288842
 21
6.090193733781958
 72
     1
 10
8.248886047288842
 20
6.090193733781958
 11
4.542886047288842
 21
6.090193733781958
 72
     1
 10
4.542886047288842
 20
6.090193733781958
 11
4.542886047288842
 21
5.690193733781959
 72
     1
 10
4.542886047288842
 20
5.690193733781959
 11
4.242886047288843
 21
5.690193733781959
 72
     1
 10
4.242886047288843
 20
5.690193733781959
 11
4.242886047288843
 21
5.990193733781959
 72
     1
 10
4.242886047288843
 20
5.990193733781959
 11
4.202886047288843
 21
5.990193733781959
 72
     1
 10
4.202886047288843
 20
5.990193733781959
 11
4.202886047288843
 21
5.4346014421833
 72
     1
 10
4.202886047288843
 20
5.4346014421833
 11
1.937886047288842
 21
5.4346014421833
 72
     1
 10
1.937886047288842
 20
5.4346014421833
 11
1.937886047288842
 21
6.090193733781958
 72
     1
 10
1.937886047288842
 20
6.090193733781958
 11
1.772671739274042
 21
6.090193733781958
 72
     4
 94
        3
 73
     1
 74
     0
 95
       26
 96
       22
 40
0.0128157525719894
 40
0.0128157525719894
 40
0.0128157525719894
 40
0.0128157525719894
 40
0.0129430083900272
 40
0.0129430083900272
 40
0.0129430083900272
 40
0.0138475392565682
 40
0.0138475392565682
 40
0.0138475392565682
 40
0.0147159539713264
 40
0.0147159539713264
 40
0.0147159539713264
 40
0.0155628867540014
 40
0.0155628867540014
 40
0.0155628867540014
 40
0.0164112303814299
 40
0.0164112303814299
 40
0.0164112303814299
 40
0.0168903005739299
 40
0.0168903005739299
 40
0.0168903005739299
 40
0.0169112825749671
 40
0.0169112825749671
 40
0.0169112825749671
 40
0.0169112825749671
 10
1.772671739274042
 20
6.09019373378196
 42
1.0
 10
1.771002178110277
 20
6.09019373378196
 42
1.0
 10
1.769332178035675
 20
6.090155450743234
 42
1.0
 10
1.767664371946953
 20
6.090078917547987
 42
1.0
 10
1.755924425606429
 20
6.089540188488566
 42
1.0
 10
1.744118053945277
 20
6.087052029259648
 42
1.0
 10
1.733173094878077
 20
6.08277132369921
 42
1.0
 10
1.722659565146642
 20
6.078659355357906
 42
1.0
 10
1.712674481704021
 20
6.072786677741656
 42
1.0
 10
1.704014467072329
 20
6.065544665753779
 42
1.0
 10
1.695569136628618
 20
6.058482185271228
 42
1.0
 10
1.688171743901291
 20
6.049932554654839
 42
1.0
 10
1.682456939793496
 20
6.040522812316207
 42
1.0
 10
1.676736616597757
 20
6.031103982492771
 42
1.0
 10
1.672554423531041
 20
6.020564869203883
 42
1.0
 10
1.670308660122474
 20
6.009776310476263
 42
1.0
 10
1.669027410814333
 20
6.0036212393976
 42
1.0
 10
1.668348408375987
 20
5.997309956747564
 42
1.0
 10
1.668294052195929
 20
5.991023181327789
 42
1.0
 10
1.668291661763457
 20
5.99074670656283
 42
1.0
 10
1.668290466508548
 20
5.9904702188807
 42
1.0
 10
1.668290466508548
 20
5.990193733781959
 42
1.0
 97
        0
 75
     0
 76
     1
 52
0.0
 41
1.0
 77
     0
 78
     1
 53
45.0
 43
0.0
 44
0.0
 45
-0.0883883476483184
 46
0.0883883476483184
 79
     0
 98
        1
 10
0.0
 20
0.0
  0
HATCH
  5
55B
330
1F
100
AcDbEntity
  8
0
  6
Continuous
 62
     7
370
     0
100
AcDbHatch
 10
0.0
 20
0.0
 30
0.0
210
0.0
220
0.0
230
1.0
  2
ANSI31
 70
     0
 71
     0
 91
        1
 92
        0
 93
       12
 72
     1
 10
4.540886047288843
 20
6.09019373378196
 11
1.940886047288842
 21
6.09019373378196
 72
     1
 10
1.940886047288842
 20
6.09019373378196
 11
1.940886047288842
 21
6.015193733781959
 72
     1
 10
1.940886047288842
 20
6.015193733781959
 11
2.857886047288842
 21
6.015193733781959
 72
     1
 10
2.857886047288842
 20
6.015193733781959
 11
2.857886047288843
 21
5.986646090831111
 72
     1
 10
2.857886047288843
 20
5.986646090831111
 11
2.893886047288843
 21
5.986646090831111
 72
     1
 10
2.893886047288843
 20
5.986646090831111
 11
2.893886047288842
 21
6.015193733781959
 72
     1
 10
2.893886047288842
 20
6.015193733781959
 11
3.644886047288842
 21
6.015193733781959
 72
     1
 10
3.644886047288842
 20
6.015193733781959
 11
3.644886047288842
 21
5.986646090831113
 72
     1
 10
3.644886047288842
 20
5.986646090831113
 11
3.680886047288842
 21
5.986646090831113
 72
     1
 10
3.680886047288842
 20
5.986646090831113
 11
3.680886047288842
 21
6.015193733781959
 72
     1
 10
3.680886047288842
 20
6.015193733781959
 11
4.540886047288843
 21
6.015193733781959
 72
     1
 10
4.540886047288843
 20
6.015193733781959
 11
4.540886047288843
 21
6.09019373378196
 97
        0
 75
     0
 76
     1
 52
0.0
 41
1.0
 77
     0
 78
     1
 53
45.0
 43
0.0
 44
0.0
 45
-0.0883883476483184
 46
0.0883883476483184
 79
     0
 98
        1
 10
0.0
 20
0.0
  0
DIMENSION
  5
55C
330
1F
100
AcDbEntity
  8
0
  6
Continuous
 62
     7
370
     0
100
AcDbDimension
  2
*D41
 10
9.0775868347
 20
5.2741937338
 30
0.0
 11
9.0775868347
 21
4.6768794046
 31
0.0
 70
   160
  1
<> TALL PCB\PMOUNTING BOSSES
 71
     1
 42
-1.0
  3
SLDDIMSTYLE3
100
AcDbAlignedDimension
 13
8.2403860473
 23
5.0971937338
 33
0.0
 14
7.9845670235
 24
5.2741937338
 34
0.0
 50
90.0
100
AcDbRotatedDimension
  0
DIMENSION
  5
56A
330
1F
100
AcDbEntity
  8
0
  6
Continuous
 62
     7
370
     0
100
AcDbDimension
  2
*D42
 10
1.1441852599
 20
5.0031937338
 30
0.0
 11
1.1441852599
 21
5.5466937338
 31
0.0
 70
   160
 71
     2
 42
-1.0
  3
SLDDIMSTYLE0
100
AcDbAlignedDimension
 13
1.6771572628
 23
6.0901937338
 33
0.0
 14
1.6358860473
 24
5.0031937338
 34
0.0
 50
90.0
100
AcDbRotatedDimension
  0
DIMENSION
  5
575
330
1F
100
AcDbEntity
  8
0
  6
Continuous
 62
     7
370
     0
100
AcDbDimension
  2
*D43
 10
9.5500277796
 20
6.0151937338
 30
0.0
 11
9.5500277796
 21
5.5561937338
 31
0.0
 70
   160
 71
     2
 42
-1.0
  3
SLDDIMSTYLE0
100
AcDbAlignedDimension
 13
8.2403860473
 23
5.0971937338
 33
0.0
 14
8.2138860473
 24
6.0151937338
 34
0.0
 50
90.0
100
AcDbRotatedDimension
  0
MTEXT
  5
580
330
1F
100
AcDbEntity
  8
0
  6
Continuous
 62
     7
370
     0
100
AcDbMText
 10
4.4459650568
 20
4.809376659
 30
0.0
 40
0.1377952756
 41
0.0
 71
     1
 72
     1
  1
SECTION A-A
  7
SLDTEXTSTYLE0
 73
     1
 44
1.0
  0
ENDSEC
  0
SECTION
  2
OBJECTS
  0
DICTIONARY
  5
C
330
0
100
AcDbDictionary
281
     1
  3
ACAD_GROUP
350
D
  3
ACAD_LAYOUT
350
1A
  3
ACAD_MATERIAL
350
3B
  3
ACAD_MLEADERSTYLE
350
583
  3
ACAD_MLINESTYLE
350
17
  3
ACAD_PLOTSETTINGS
350
19
  3
ACAD_PLOTSTYLENAME
350
E
  3
ACAD_SCALELIST
350
8F
  3
ACAD_VISUALSTYLE
350
2A
  3
AcDbVariableDictionary
350
581
  0
DICTIONARY
  5
D
102
{ACAD_REACTORS
330
C
102
}
330
C
100
AcDbDictionary
281
     1
  0
DICTIONARY
  5
1A
102
{ACAD_REACTORS
330
C
102
}
330
C
100
AcDbDictionary
281
     1
  3
Layout1
350
1E
  3
Layout2
350
26
  3
Model
350
22
  0
DICTIONARY
  5
3B
102
{ACAD_REACTORS
330
C
102
}
330
C
100
AcDbDictionary
281
     1
  3
ByBlock
350
3D
  3
ByLayer
350
3C
  3
Global
350
3E
  0
DICTIONARY
  5
583
102
{ACAD_REACTORS
330
C
102
}
330
C
100
AcDbDictionary
281
     1
  0
DICTIONARY
  5
17
102
{ACAD_REACTORS
330
C
102
}
330
C
100
AcDbDictionary
281
     1
  3
Standard
350
18
  0
DICTIONARY
  5
19
102
{ACAD_REACTORS
330
C
102
}
330
C
100
AcDbDictionary
281
     1
  0
ACDBDICTIONARYWDFLT
  5
E
102
{ACAD_REACTORS
330
C
102
}
330
C
100
AcDbDictionary
281
     1
  3
Normal
350
F
100
AcDbDictionaryWithDefault
340
F
  0
DICTIONARY
  5
8F
102
{ACAD_REACTORS
330
C
102
}
330
C
100
AcDbDictionary
281
     1
  3
A0
350
90
  3
A1
350
91
  3
A2
350
92
  3
A3
350
93
  3
A4
350
94
  3
A5
350
95
  3
A6
350
96
  3
A7
350
97
  3
A8
350
98
  3
A9
350
99
  3
B0
350
9A
  3
B1
350
9B
  3
B2
350
9C
  3
B3
350
9D
  3
B4
350
9E
  3
B5
350
9F
  3
B6
350
A0
  3
B7
350
A1
  3
B8
350
A2
  3
B9
350
A3
  3
C0
350
A4
  3
C1
350
A5
  3
C2
350
A6
  3
C3
350
A7
  3
C4
350
A8
  3
C5
350
A9
  3
C6
350
AA
  3
C7
350
AB
  3
C8
350
AC
  3
C9
350
AD
  3
D0
350
AE
  3
D1
350
AF
  3
D2
350
B0
  0
DICTIONARY
  5
2A
102
{ACAD_REACTORS
330
C
102
}
330
C
100
AcDbDictionary
281
     1
  3
2dWireframe
350
2F
  3
3D Hidden
350
31
  3
3dWireframe
350
30
  3
Basic
350
32
  3
Brighten
350
36
  3
ColorChange
350
3A
  3
Conceptual
350
34
  3
Dim
350
35
  3
Facepattern
350
39
  3
Flat
350
2B
  3
FlatWithEdges
350
2C
  3
Gouraud
350
2D
  3
GouraudWithEdges
350
2E
  3
Linepattern
350
38
  3
Realistic
350
33
  3
Thicken
350
37
  0
DICTIONARY
  5
581
102
{ACAD_REACTORS
330
C
102
}
330
C
100
AcDbDictionary
281
     1
  3
CANNOSCALE
350
584
  3
DIMASSOC
350
585
  3
HIDETEXT
350
586
  0
LAYOUT
  5
1E
102
{ACAD_REACTORS
330
1A
102
}
330
1A
100
AcDbPlotSettings
  1

  2
none_device
  4

  6

 40
0.0
 41
0.0
 42
0.0
 43
0.0
 44
0.0
 45
0.0
 46
0.0
 47
0.0
 48
0.0
 49
0.0
140
0.0
141
0.0
142
1.0
143
1.0
 70
   688
 72
     0
 73
     0
 74
     5
  7

 75
    16
147
1.0
148
0.0
149
0.0
100
AcDbLayout
  1
Layout1
 70
     1
 71
     1
 10
0.0
 20
0.0
 11
12.0
 21
9.0
 12
0.0
 22
0.0
 32
0.0
 14
1.0000000000E+20
 24
1.0000000000E+20
 34
1.0000000000E+20
 15
-1.0000000000E+20
 25
-1.0000000000E+20
 35
-1.0000000000E+20
146
0.0
 13
0.0
 23
0.0
 33
0.0
 16
1.0
 26
0.0
 36
0.0
 17
0.0
 27
1.0
 37
0.0
 76
     0
330
1B
  0
LAYOUT
  5
26
102
{ACAD_REACTORS
330
1A
102
}
330
1A
100
AcDbPlotSettings
  1

  2
none_device
  4

  6

 40
0.0
 41
0.0
 42
0.0
 43
0.0
 44
0.0
 45
0.0
 46
0.0
 47
0.0
 48
0.0
 49
0.0
140
0.0
141
0.0
142
1.0
143
1.0
 70
   688
 72
     0
 73
     0
 74
     5
  7

 75
    16
147
1.0
148
0.0
149
0.0
100
AcDbLayout
  1
Layout2
 70
     1
 71
     2
 10
0.0
 20
0.0
 11
0.0
 21
0.0
 12
0.0
 22
0.0
 32
0.0
 14
0.0
 24
0.0
 34
0.0
 15
0.0
 25
0.0
 35
0.0
146
0.0
 13
0.0
 23
0.0
 33
0.0
 16
1.0
 26
0.0
 36
0.0
 17
0.0
 27
1.0
 37
0.0
 76
     0
330
23
  0
LAYOUT
  5
22
102
{ACAD_REACTORS
330
1A
102
}
330
1A
100
AcDbPlotSettings
  1

  2
none_device
  4

  6

 40
0.0
 41
0.0
 42
0.0
 43
0.0
 44
0.0
 45
0.0
 46
0.0
 47
0.0
 48
0.0
 49
0.0
140
0.0
141
0.0
142
1.0
143
1.0
 70
  1712
 72
     0
 73
     0
 74
     0
  7

 75
     0
147
1.0
148
0.0
149
0.0
100
AcDbLayout
  1
Model
 70
     1
 71
     0
 10
0.0
 20
0.0
 11
17.0
 21
11.0
 12
0.0
 22
0.0
 32
0.0
 14
0.0
 24
0.0
 34
0.0
 15
17.0
 25
11.0
 35
0.0
146
0.0
 13
0.0
 23
0.0
 33
0.0
 16
1.0
 26
0.0
 36
0.0
 17
0.0
 27
1.0
 37
0.0
 76
     0
330
1F
331
29
  0
MATERIAL
  5
3D
102
{ACAD_REACTORS
330
3B
102
}
102
{ACAD_XDICTIONARY
360
5A9
102
}
330
3B
100
AcDbMaterial
  1
ByBlock
  0
MATERIAL
  5
3C
102
{ACAD_REACTORS
330
3B
102
}
102
{ACAD_XDICTIONARY
360
5A7
102
}
330
3B
100
AcDbMaterial
  1
ByLayer
  0
MATERIAL
  5
3E
102
{ACAD_REACTORS
330
3B
102
}
102
{ACAD_XDICTIONARY
360
5AB
102
}
330
3B
100
AcDbMaterial
  1
Global
  0
MLINESTYLE
  5
18
102
{ACAD_REACTORS
330
17
102
}
330
17
100
AcDbMlineStyle
  2
Standard
 70
     0
  3

 62
   256
 51
90.0
 52
90.0
 71
     2
 49
0.5
 62
   256
  6
BYLAYER
 49
-0.5
 62
   256
  6
BYLAYER
  0
ACDBPLACEHOLDER
  5
F
102
{ACAD_REACTORS
330
E
102
}
330
E
  0
SCALE
  5
90
102
{ACAD_REACTORS
330
8F
102
}
330
8F
100
AcDbScale
 70
     0
300
1:1
140
1.0
141
1.0
290
     1
  0
SCALE
  5
91
102
{ACAD_REACTORS
330
8F
102
}
330
8F
100
AcDbScale
 70
     0
300
1:2
140
1.0
141
2.0
290
     0
  0
SCALE
  5
92
102
{ACAD_REACTORS
330
8F
102
}
330
8F
100
AcDbScale
 70
     0
300
1:4
140
1.0
141
4.0
290
     0
  0
SCALE
  5
93
102
{ACAD_REACTORS
330
8F
102
}
330
8F
100
AcDbScale
 70
     0
300
1:5
140
1.0
141
5.0
290
     0
  0
SCALE
  5
94
102
{ACAD_REACTORS
330
8F
102
}
330
8F
100
AcDbScale
 70
     0
300
1:8
140
1.0
141
8.0
290
     0
  0
SCALE
  5
95
102
{ACAD_REACTORS
330
8F
102
}
330
8F
100
AcDbScale
 70
     0
300
1:10
140
1.0
141
10.0
290
     0
  0
SCALE
  5
96
102
{ACAD_REACTORS
330
8F
102
}
330
8F
100
AcDbScale
 70
     0
300
1:16
140
1.0
141
16.0
290
     0
  0
SCALE
  5
97
102
{ACAD_REACTORS
330
8F
102
}
330
8F
100
AcDbScale
 70
     0
300
1:20
140
1.0
141
20.0
290
     0
  0
SCALE
  5
98
102
{ACAD_REACTORS
330
8F
102
}
330
8F
100
AcDbScale
 70
     0
300
1:30
140
1.0
141
30.0
290
     0
  0
SCALE
  5
99
102
{ACAD_REACTORS
330
8F
102
}
330
8F
100
AcDbScale
 70
     0
300
1:40
140
1.0
141
40.0
290
     0
  0
SCALE
  5
9A
102
{ACAD_REACTORS
330
8F
102
}
330
8F
100
AcDbScale
 70
     0
300
1:50
140
1.0
141
50.0
290
     0
  0
SCALE
  5
9B
102
{ACAD_REACTORS
330
8F
102
}
330
8F
100
AcDbScale
 70
     0
300
1:100
140
1.0
141
100.0
290
     0
  0
SCALE
  5
9C
102
{ACAD_REACTORS
330
8F
102
}
330
8F
100
AcDbScale
 70
     0
300
2:1
140
2.0
141
1.0
290
     0
  0
SCALE
  5
9D
102
{ACAD_REACTORS
330
8F
102
}
330
8F
100
AcDbScale
 70
     0
300
4:1
140
4.0
141
1.0
290
     0
  0
SCALE
  5
9E
102
{ACAD_REACTORS
330
8F
102
}
330
8F
100
AcDbScale
 70
     0
300
8:1
140
8.0
141
1.0
290
     0
  0
SCALE
  5
9F
102
{ACAD_REACTORS
330
8F
102
}
330
8F
100
AcDbScale
 70
     0
300
10:1
140
10.0
141
1.0
290
     0
  0
SCALE
  5
A0
102
{ACAD_REACTORS
330
8F
102
}
330
8F
100
AcDbScale
 70
     0
300
100:1
140
100.0
141
1.0
290
     0
  0
SCALE
  5
A1
102
{ACAD_REACTORS
330
8F
102
}
330
8F
100
AcDbScale
 70
     0
300
1/128" = 1'-0"
140
0.0078125
141
12.0
290
     0
  0
SCALE
  5
A2
102
{ACAD_REACTORS
330
8F
102
}
330
8F
100
AcDbScale
 70
     0
300
1/64" = 1'-0"
140
0.015625
141
12.0
290
     0
  0
SCALE
  5
A3
102
{ACAD_REACTORS
330
8F
102
}
330
8F
100
AcDbScale
 70
     0
300
1/32" = 1'-0"
140
0.03125
141
12.0
290
     0
  0
SCALE
  5
A4
102
{ACAD_REACTORS
330
8F
102
}
330
8F
100
AcDbScale
 70
     0
300
1/16" = 1'-0"
140
0.0625
141
12.0
290
     0
  0
SCALE
  5
A5
102
{ACAD_REACTORS
330
8F
102
}
330
8F
100
AcDbScale
 70
     0
300
3/32" = 1'-0"
140
0.09375
141
12.0
290
     0
  0
SCALE
  5
A6
102
{ACAD_REACTORS
330
8F
102
}
330
8F
100
AcDbScale
 70
     0
300
1/8" = 1'-0"
140
0.125
141
12.0
290
     0
  0
SCALE
  5
A7
102
{ACAD_REACTORS
330
8F
102
}
330
8F
100
AcDbScale
 70
     0
300
3/16" = 1'-0"
140
0.1875
141
12.0
290
     0
  0
SCALE
  5
A8
102
{ACAD_REACTORS
330
8F
102
}
330
8F
100
AcDbScale
 70
     0
300
1/4" = 1'-0"
140
0.25
141
12.0
290
     0
  0
SCALE
  5
A9
102
{ACAD_REACTORS
330
8F
102
}
330
8F
100
AcDbScale
 70
     0
300
3/8" = 1'-0"
140
0.375
141
12.0
290
     0
  0
SCALE
  5
AA
102
{ACAD_REACTORS
330
8F
102
}
330
8F
100
AcDbScale
 70
     0
300
1/2" = 1'-0"
140
0.5
141
12.0
290
     0
  0
SCALE
  5
AB
102
{ACAD_REACTORS
330
8F
102
}
330
8F
100
AcDbScale
 70
     0
300
3/4" = 1'-0"
140
0.75
141
12.0
290
     0
  0
SCALE
  5
AC
102
{ACAD_REACTORS
330
8F
102
}
330
8F
100
AcDbScale
 70
     0
300
1" = 1'-0"
140
1.0
141
12.0
290
     0
  0
SCALE
  5
AD
102
{ACAD_REACTORS
330
8F
102
}
330
8F
100
AcDbScale
 70
     0
300
1-1/2" = 1'-0"
140
1.5
141
12.0
290
     0
  0
SCALE
  5
AE
102
{ACAD_REACTORS
330
8F
102
}
330
8F
100
AcDbScale
 70
     0
300
3" = 1'-0"
140
3.0
141
12.0
290
     0
  0
SCALE
  5
AF
102
{ACAD_REACTORS
330
8F
102
}
330
8F
100
AcDbScale
 70
     0
300
6" = 1'-0"
140
6.0
141
12.0
290
     0
  0
SCALE
  5
B0
102
{ACAD_REACTORS
330
8F
102
}
330
8F
100
AcDbScale
 70
     0
300
1'-0" = 1'-0"
140
12.0
141
12.0
290
     0
  0
VISUALSTYLE
  5
2F
102
{ACAD_REACTORS
330
2A
102
}
102
{ACAD_XDICTIONARY
360
58F
102
}
330
2A
100
AcDbVisualStyle
  2
2dWireframe
 70
     4
 71
     0
 72
     2
 73
     0
 90
        0
 40
-0.6
 41
-30.0
 62
     5
 63
     7
 74
     1
 91
        4
 64
     7
 65
   257
 75
     1
175
     1
 42
1.0
 92
        0
 66
   257
 43
1.0
 76
     1
 77
     6
 78
     2
 67
     7
 79
     5
170
     0
171
     0
290
     0
174
     0
 93
        1
 44
0.0
173
     0
291
     0
 45
0.0
1001
ACAD
1000
AcDbSavedByObjectVersion
1070
     0
  0
VISUALSTYLE
  5
31
102
{ACAD_REACTORS
330
2A
102
}
102
{ACAD_XDICTIONARY
360
593
102
}
330
2A
100
AcDbVisualStyle
  2
3D Hidden
 70
     6
 71
     1
 72
     2
 73
     2
 90
        0
 40
-0.6
 41
-30.0
 62
     5
 63
     7
 74
     2
 91
        2
 64
     7
 65
   257
 75
     2
175
     1
 42
40.0
 92
        0
 66
   257
 43
1.0
 76
     1
 77
     6
 78
     2
 67
     7
 79
     3
170
     0
171
     0
290
     0
174
     0
 93
        1
 44
0.0
173
     0
291
     0
 45
0.0
1001
ACAD
1000
AcDbSavedByObjectVersion
1070
     0
  0
VISUALSTYLE
  5
30
102
{ACAD_REACTORS
330
2A
102
}
102
{ACAD_XDICTIONARY
360
591
102
}
330
2A
100
AcDbVisualStyle
  2
3dWireframe
 70
     5
 71
     0
 72
     2
 73
     0
 90
        0
 40
-0.6
 41
-30.0
 62
     5
 63
     7
 74
     1
 91
        4
 64
     7
 65
   257
 75
     1
175
     1
 42
1.0
 92
        0
 66
   257
 43
1.0
 76
     1
 77
     6
 78
     2
 67
     7
 79
     5
170
     0
171
     0
290
     0
174
     0
 93
        1
 44
0.0
173
     0
291
     0
 45
0.0
1001
ACAD
1000
AcDbSavedByObjectVersion
1070
     0
  0
VISUALSTYLE
  5
32
102
{ACAD_REACTORS
330
2A
102
}
102
{ACAD_XDICTIONARY
360
595
102
}
330
2A
100
AcDbVisualStyle
  2
Basic
 70
     7
 71
     1
 72
     0
 73
     1
 90
        0
 40
-0.6
 41
-30.0
 62
     5
 63
     7
 74
     0
 91
        4
 64
     7
 65
   257
 75
     1
175
     1
 42
1.0
 92
        8
 66
     7
 43
1.0
 76
     1
 77
     6
 78
     2
 67
     7
 79
     5
170
     0
171
     0
290
     0
174
     0
 93
        1
 44
0.0
173
     0
291
     1
 45
0.0
1001
ACAD
1000
AcDbSavedByObjectVersion
1070
     0
  0
VISUALSTYLE
  5
36
102
{ACAD_REACTORS
330
2A
102
}
102
{ACAD_XDICTIONARY
360
59D
102
}
330
2A
100
AcDbVisualStyle
  2
Brighten
 70
    12
 71
     2
 72
     2
 73
     0
 90
        0
 40
-0.6
 41
-30.0
 62
     5
 63
     7
 74
     1
 91
        4
 64
     7
 65
   257
 75
     1
175
     1
 42
1.0
 92
        8
 66
     7
 43
1.0
 76
     1
 77
     6
 78
     2
 67
     7
 79
     5
170
     0
171
     0
290
     0
174
     0
 93
        1
 44
50.0
173
     0
291
     1
 45
0.0
1001
ACAD
1000
AcDbSavedByObjectVersion
1070
     0
  0
VISUALSTYLE
  5
3A
102
{ACAD_REACTORS
330
2A
102
}
102
{ACAD_XDICTIONARY
360
5A5
102
}
330
2A
100
AcDbVisualStyle
  2
ColorChange
 70
    16
 71
     2
 72
     2
 73
     3
 90
        0
 40
-0.6
 41
-30.0
 62
     5
 63
     8
 74
     1
 91
        4
 64
     7
 65
   257
 75
     1
175
     1
 42
1.0
 92
        8
 66
     8
 43
1.0
 76
     1
 77
     6
 78
     2
 67
     7
 79
     5
170
     0
171
     0
290
     0
174
     0
 93
        1
 44
0.0
173
     0
291
     1
 45
0.0
1001
ACAD
1000
AcDbSavedByObjectVersion
1070
     0
  0
VISUALSTYLE
  5
34
102
{ACAD_REACTORS
330
2A
102
}
102
{ACAD_XDICTIONARY
360
599
102
}
330
2A
100
AcDbVisualStyle
  2
Conceptual
 70
     9
 71
     3
 72
     2
 73
     0
 90
        0
 40
-0.6
 41
-30.0
 62
     5
 63
     7
 74
     2
 91
        2
 64
     7
 65
   257
 75
     1
175
     1
 42
40.0
 92
        8
 66
     7
 43
1.0
 76
     1
 77
     6
 78
     2
 67
     7
 79
     3
170
     0
171
     0
290
     0
174
     0
 93
        1
 44
0.0
173
     0
291
     0
 45
0.0
1001
ACAD
1000
AcDbSavedByObjectVersion
1070
     0
  0
VISUALSTYLE
  5
35
102
{ACAD_REACTORS
330
2A
102
}
102
{ACAD_XDICTIONARY
360
59B
102
}
330
2A
100
AcDbVisualStyle
  2
Dim
 70
    11
 71
     2
 72
     2
 73
     0
 90
        0
 40
-0.6
 41
-30.0
 62
     5
 63
     7
 74
     1
 91
        4
 64
     7
 65
   257
 75
     1
175
     1
 42
1.0
 92
        8
 66
     7
 43
1.0
 76
     1
 77
     6
 78
     2
 67
     7
 79
     5
170
     0
171
     0
290
     0
174
     0
 93
        1
 44
-50.0
173
     0
291
     1
 45
0.0
1001
ACAD
1000
AcDbSavedByObjectVersion
1070
     0
  0
VISUALSTYLE
  5
39
102
{ACAD_REACTORS
330
2A
102
}
102
{ACAD_XDICTIONARY
360
5A3
102
}
330
2A
100
AcDbVisualStyle
  2
Facepattern
 70
    15
 71
     2
 72
     2
 73
     0
 90
        0
 40
-0.6
 41
-30.0
 62
     5
 63
     7
 74
     1
 91
        4
 64
     7
 65
   257
 75
     1
175
     1
 42
1.0
 92
        8
 66
     7
 43
1.0
 76
     1
 77
     6
 78
     2
 67
     7
 79
     5
170
     0
171
     0
290
     0
174
     0
 93
        1
 44
0.0
173
     0
291
     1
 45
0.0
1001
ACAD
1000
AcDbSavedByObjectVersion
1070
     0
  0
VISUALSTYLE
  5
2B
102
{ACAD_REACTORS
330
2A
102
}
102
{ACAD_XDICTIONARY
360
587
102
}
330
2A
100
AcDbVisualStyle
  2
Flat
 70
     0
 71
     2
 72
     1
 73
     1
 90
        2
 40
-0.6
 41
30.0
 62
     5
 63
     7
 74
     0
 91
        4
 64
     7
 65
   257
 75
     1
175
     1
 42
1.0
 92
        8
 66
     7
 43
1.0
 76
     1
 77
     6
 78
     2
 67
     7
 79
     5
170
     0
171
     0
290
     0
174
     0
 93
       13
 44
0.0
173
     0
291
     1
 45
0.0
1001
ACAD
1000
AcDbSavedByObjectVersion
1070
     0
  0
VISUALSTYLE
  5
2C
102
{ACAD_REACTORS
330
2A
102
}
102
{ACAD_XDICTIONARY
360
589
102
}
330
2A
100
AcDbVisualStyle
  2
FlatWithEdges
 70
     1
 71
     2
 72
     1
 73
     1
 90
        2
 40
-0.6
 41
30.0
 62
     5
 63
     7
 74
     1
 91
        4
 64
     7
 65
   257
 75
     1
175
     1
 42
1.0
 92
        0
 66
   257
 43
1.0
 76
     1
 77
     6
 78
     2
 67
     7
 79
     5
170
     0
171
     0
290
     0
174
     0
 93
       13
 44
0.0
173
     0
291
     1
 45
0.0
1001
ACAD
1000
AcDbSavedByObjectVersion
1070
     0
  0
VISUALSTYLE
  5
2D
102
{ACAD_REACTORS
330
2A
102
}
102
{ACAD_XDICTIONARY
360
58B
102
}
330
2A
100
AcDbVisualStyle
  2
Gouraud
 70
     2
 71
     2
 72
     2
 73
     1
 90
        2
 40
-0.6
 41
30.0
 62
     5
 63
     7
 74
     0
 91
        4
 64
     7
 65
   257
 75
     1
175
     1
 42
1.0
 92
        0
 66
     7
 43
1.0
 76
     1
 77
     6
 78
     2
 67
     7
 79
     5
170
     0
171
     0
290
     0
174
     0
 93
       13
 44
0.0
173
     0
291
     1
 45
0.0
1001
ACAD
1000
AcDbSavedByObjectVersion
1070
     0
  0
VISUALSTYLE
  5
2E
102
{ACAD_REACTORS
330
2A
102
}
102
{ACAD_XDICTIONARY
360
58D
102
}
330
2A
100
AcDbVisualStyle
  2
GouraudWithEdges
 70
     3
 71
     2
 72
     2
 73
     1
 90
        2
 40
-0.6
 41
30.0
 62
     5
 63
     7
 74
     1
 91
        4
 64
     7
 65
   257
 75
     1
175
     1
 42
1.0
 92
        0
 66
   257
 43
1.0
 76
     1
 77
     6
 78
     2
 67
     7
 79
     5
170
     0
171
     0
290
     0
174
     0
 93
       13
 44
0.0
173
     0
291
     1
 45
0.0
1001
ACAD
1000
AcDbSavedByObjectVersion
1070
     0
  0
VISUALSTYLE
  5
38
102
{ACAD_REACTORS
330
2A
102
}
102
{ACAD_XDICTIONARY
360
5A1
102
}
330
2A
100
AcDbVisualStyle
  2
Linepattern
 70
    14
 71
     2
 72
     2
 73
     0
 90
        0
 40
-0.6
 41
-30.0
 62
     5
 63
     7
 74
     1
 91
        4
 64
     7
 65
   257
 75
     7
175
     7
 42
1.0
 92
        8
 66
     7
 43
1.0
 76
     1
 77
     6
 78
     2
 67
     7
 79
     5
170
     0
171
     0
290
     0
174
     0
 93
        1
 44
0.0
173
     0
291
     1
 45
0.0
1001
ACAD
1000
AcDbSavedByObjectVersion
1070
     0
  0
VISUALSTYLE
  5
33
102
{ACAD_REACTORS
330
2A
102
}
102
{ACAD_XDICTIONARY
360
597
102
}
330
2A
100
AcDbVisualStyle
  2
Realistic
 70
     8
 71
     2
 72
     2
 73
     0
 90
        0
 40
-0.6
 41
-30.0
 62
     5
 63
     7
 74
     1
 91
        0
 64
     7
 65
   257
 75
     1
175
     1
 42
1.0
 92
        8
 66
     8
 43
1.0
 76
     1
 77
     6
 78
     2
 67
     7
 79
     5
170
     0
171
     0
290
     0
174
     0
 93
       13
 44
0.0
173
     0
291
     0
 45
0.0
1001
ACAD
1000
AcDbSavedByObjectVersion
1070
     0
  0
VISUALSTYLE
  5
37
102
{ACAD_REACTORS
330
2A
102
}
102
{ACAD_XDICTIONARY
360
59F
102
}
330
2A
100
AcDbVisualStyle
  2
Thicken
 70
    13
 71
     2
 72
     2
 73
     0
 90
        0
 40
-0.6
 41
-30.0
 62
     5
 63
     7
 74
     1
 91
        4
 64
     7
 65
   257
 75
     1
175
     1
 42
1.0
 92
       12
 66
     7
 43
1.0
 76
     1
 77
     6
 78
     2
 67
     7
 79
     5
170
     0
171
     0
290
     0
174
     0
 93
        1
 44
0.0
173
     0
291
     1
 45
0.0
1001
ACAD
1000
AcDbSavedByObjectVersion
1070
     0
  0
DICTIONARYVAR
  5
584
102
{ACAD_REACTORS
330
581
102
}
330
581
100
DictionaryVariables
280
     0
  1
1:1
  0
DICTIONARYVAR
  5
585
102
{ACAD_REACTORS
330
581
102
}
330
581
100
DictionaryVariables
280
     0
  1
2
  0
DICTIONARYVAR
  5
586
102
{ACAD_REACTORS
330
581
102
}
330
581
100
DictionaryVariables
280
     0
  1
1
  0
DICTIONARY
  5
5A9
330
3D
100
AcDbDictionary
280
     1
281
     1
  3
ACAD_XREC_ROUNDTRIP
360
5AA
  0
DICTIONARY
  5
5A7
330
3C
100
AcDbDictionary
280
     1
281
     1
  3
ACAD_XREC_ROUNDTRIP
360
5A8
  0
DICTIONARY
  5
5AB
330
3E
100
AcDbDictionary
280
     1
281
     1
  3
ACAD_XREC_ROUNDTRIP
360
5AC
  0
DICTIONARY
  5
58F
330
2F
100
AcDbDictionary
280
     1
281
     1
  3
ACAD_XREC_ROUNDTRIP
360
590
  0
DICTIONARY
  5
593
330
31
100
AcDbDictionary
280
     1
281
     1
  3
ACAD_XREC_ROUNDTRIP
360
594
  0
DICTIONARY
  5
591
330
30
100
AcDbDictionary
280
     1
281
     1
  3
ACAD_XREC_ROUNDTRIP
360
592
  0
DICTIONARY
  5
595
330
32
100
AcDbDictionary
280
     1
281
     1
  3
ACAD_XREC_ROUNDTRIP
360
596
  0
DICTIONARY
  5
59D
330
36
100
AcDbDictionary
280
     1
281
     1
  3
ACAD_XREC_ROUNDTRIP
360
59E
  0
DICTIONARY
  5
5A5
330
3A
100
AcDbDictionary
280
     1
281
     1
  3
ACAD_XREC_ROUNDTRIP
360
5A6
  0
DICTIONARY
  5
599
330
34
100
AcDbDictionary
280
     1
281
     1
  3
ACAD_XREC_ROUNDTRIP
360
59A
  0
DICTIONARY
  5
59B
330
35
100
AcDbDictionary
280
     1
281
     1
  3
ACAD_XREC_ROUNDTRIP
360
59C
  0
DICTIONARY
  5
5A3
330
39
100
AcDbDictionary
280
     1
281
     1
  3
ACAD_XREC_ROUNDTRIP
360
5A4
  0
DICTIONARY
  5
587
330
2B
100
AcDbDictionary
280
     1
281
     1
  3
ACAD_XREC_ROUNDTRIP
360
588
  0
DICTIONARY
  5
589
330
2C
100
AcDbDictionary
280
     1
281
     1
  3
ACAD_XREC_ROUNDTRIP
360
58A
  0
DICTIONARY
  5
58B
330
2D
100
AcDbDictionary
280
     1
281
     1
  3
ACAD_XREC_ROUNDTRIP
360
58C
  0
DICTIONARY
  5
58D
330
2E
100
AcDbDictionary
280
     1
281
     1
  3
ACAD_XREC_ROUNDTRIP
360
58E
  0
DICTIONARY
  5
5A1
330
38
100
AcDbDictionary
280
     1
281
     1
  3
ACAD_XREC_ROUNDTRIP
360
5A2
  0
DICTIONARY
  5
597
330
33
100
AcDbDictionary
280
     1
281
     1
  3
ACAD_XREC_ROUNDTRIP
360
598
  0
DICTIONARY
  5
59F
330
37
100
AcDbDictionary
280
     1
281
     1
  3
ACAD_XREC_ROUNDTRIP
360
5A0
  0
XRECORD
  5
5AA
102
{ACAD_REACTORS
330
5A9
102
}
330
5A9
100
AcDbXrecord
280
     1
102
MATERIAL
148
0.0
149
0.0
149
0.0
 93
        0
 94
      127
282
     0
 72
     1
 77
     1
171
     1
175
     1
179
     1
273
     0
  0
XRECORD
  5
5A8
102
{ACAD_REACTORS
330
5A7
102
}
330
5A7
100
AcDbXrecord
280
     1
102
MATERIAL
148
0.0
149
0.0
149
0.0
 93
        0
 94
      127
282
     0
 72
     1
 77
     1
171
     1
175
     1
179
     1
273
     0
  0
XRECORD
  5
5AC
102
{ACAD_REACTORS
330
5AB
102
}
330
5AB
100
AcDbXrecord
280
     1
102
MATERIAL
148
0.0
149
0.0
149
0.0
 93
        0
 94
      127
282
     0
 72
     1
 77
     1
171
     1
175
     1
179
     1
273
     0
  0
XRECORD
  5
590
102
{ACAD_REACTORS
330
58F
102
}
330
58F
100
AcDbXrecord
280
     1
102
RTVSPropertyOp0
 70
     1
102
RTVSPropertyOp1
 70
     1
102
RTVSPropertyOp2
 70
     1
102
RTVSPropertyOp3
 70
     1
102
RTVSPropertyOp4
 70
     1
102
RTVSPropertyOp5
 70
     1
102
RTVSPropertyOp6
 70
     1
102
RTVSPropertyOp7
 70
     1
102
RTVSPropertyOp8
 70
     1
102
RTVSPropertyOp9
 70
     1
102
RTVSPropertyOp10
 70
     1
102
RTVSPropertyOp11
 70
     1
102
RTVSPropertyOp12
 70
     1
102
RTVSPropertyOp13
 70
     1
102
RTVSPropertyOp14
 70
     1
102
RTVSPropertyOp15
 70
     1
102
RTVSPropertyOp16
 70
     1
102
RTVSPropertyOp17
 70
     1
102
RTVSPropertyOp18
 70
     1
102
RTVSPropertyOp19
 70
     1
102
RTVSPropertyOp20
 70
     1
102
RTVSPropertyOp21
 70
     1
102
RTVSPropertyOp22
 70
     1
102
RTVSPropertyOp23
 70
     1
102
RTVSPropertyOp24
 70
     1
102
RTVSPropertyOp25
 70
     1
102
RTVSPropertyOp26
 70
     1
102
RTVSPropertyOp27
 70
     1
  0
XRECORD
  5
594
102
{ACAD_REACTORS
330
593
102
}
330
593
100
AcDbXrecord
280
     1
102
RTVSPropertyOp0
 70
     1
102
RTVSPropertyOp1
 70
     1
102
RTVSPropertyOp2
 70
     1
102
RTVSPropertyOp3
 70
     1
102
RTVSPropertyOp4
 70
     1
102
RTVSPropertyOp5
 70
     1
102
RTVSPropertyOp6
 70
     1
102
RTVSPropertyOp7
 70
     1
102
RTVSPropertyOp8
 70
     1
102
RTVSPropertyOp9
 70
     1
102
RTVSPropertyOp10
 70
     1
102
RTVSPropertyOp11
 70
     1
102
RTVSPropertyOp12
 70
     1
102
RTVSPropertyOp13
 70
     1
102
RTVSPropertyOp14
 70
     1
102
RTVSPropertyOp15
 70
     1
102
RTVSPropertyOp16
 70
     1
102
RTVSPropertyOp17
 70
     1
102
RTVSPropertyOp18
 70
     1
102
RTVSPropertyOp19
 70
     1
102
RTVSPropertyOp20
 70
     1
102
RTVSPropertyOp21
 70
     1
102
RTVSPropertyOp22
 70
     1
102
RTVSPropertyOp23
 70
     1
102
RTVSPropertyOp24
 70
     1
102
RTVSPropertyOp25
 70
     1
102
RTVSPropertyOp26
 70
     1
102
RTVSPropertyOp27
 70
     1
  0
XRECORD
  5
592
102
{ACAD_REACTORS
330
591
102
}
330
591
100
AcDbXrecord
280
     1
102
RTVSPropertyOp0
 70
     1
102
RTVSPropertyOp1
 70
     1
102
RTVSPropertyOp2
 70
     1
102
RTVSPropertyOp3
 70
     1
102
RTVSPropertyOp4
 70
     1
102
RTVSPropertyOp5
 70
     1
102
RTVSPropertyOp6
 70
     1
102
RTVSPropertyOp7
 70
     1
102
RTVSPropertyOp8
 70
     1
102
RTVSPropertyOp9
 70
     1
102
RTVSPropertyOp10
 70
     1
102
RTVSPropertyOp11
 70
     1
102
RTVSPropertyOp12
 70
     1
102
RTVSPropertyOp13
 70
     1
102
RTVSPropertyOp14
 70
     1
102
RTVSPropertyOp15
 70
     1
102
RTVSPropertyOp16
 70
     1
102
RTVSPropertyOp17
 70
     1
102
RTVSPropertyOp18
 70
     1
102
RTVSPropertyOp19
 70
     1
102
RTVSPropertyOp20
 70
     1
102
RTVSPropertyOp21
 70
     1
102
RTVSPropertyOp22
 70
     1
102
RTVSPropertyOp23
 70
     1
102
RTVSPropertyOp24
 70
     1
102
RTVSPropertyOp25
 70
     1
102
RTVSPropertyOp26
 70
     1
102
RTVSPropertyOp27
 70
     1
  0
XRECORD
  5
596
102
{ACAD_REACTORS
330
595
102
}
330
595
100
AcDbXrecord
280
     1
102
RTVSPropertyOp0
 70
     1
102
RTVSPropertyOp1
 70
     1
102
RTVSPropertyOp2
 70
     1
102
RTVSPropertyOp3
 70
     1
102
RTVSPropertyOp4
 70
     1
102
RTVSPropertyOp5
 70
     1
102
RTVSPropertyOp6
 70
     1
102
RTVSPropertyOp7
 70
     1
102
RTVSPropertyOp8
 70
     1
102
RTVSPropertyOp9
 70
     1
102
RTVSPropertyOp10
 70
     1
102
RTVSPropertyOp11
 70
     1
102
RTVSPropertyOp12
 70
     1
102
RTVSPropertyOp13
 70
     1
102
RTVSPropertyOp14
 70
     1
102
RTVSPropertyOp15
 70
     1
102
RTVSPropertyOp16
 70
     1
102
RTVSPropertyOp17
 70
     1
102
RTVSPropertyOp18
 70
     1
102
RTVSPropertyOp19
 70
     1
102
RTVSPropertyOp20
 70
     1
102
RTVSPropertyOp21
 70
     1
102
RTVSPropertyOp22
 70
     1
102
RTVSPropertyOp23
 70
     1
102
RTVSPropertyOp24
 70
     1
102
RTVSPropertyOp25
 70
     1
102
RTVSPropertyOp26
 70
     1
102
RTVSPropertyOp27
 70
     1
  0
XRECORD
  5
59E
102
{ACAD_REACTORS
330
59D
102
}
330
59D
100
AcDbXrecord
280
     1
102
RTVSPropertyOp0
 70
     1
102
RTVSPropertyOp1
 70
     1
102
RTVSPropertyOp2
 70
     1
102
RTVSPropertyOp3
 70
     1
102
RTVSPropertyOp4
 70
     1
102
RTVSPropertyOp5
 70
     1
102
RTVSPropertyOp6
 70
     1
102
RTVSPropertyOp7
 70
     1
102
RTVSPropertyOp8
 70
     1
102
RTVSPropertyOp9
 70
     1
102
RTVSPropertyOp10
 70
     1
102
RTVSPropertyOp11
 70
     1
102
RTVSPropertyOp12
 70
     1
102
RTVSPropertyOp13
 70
     1
102
RTVSPropertyOp14
 70
     1
102
RTVSPropertyOp15
 70
     1
102
RTVSPropertyOp16
 70
     1
102
RTVSPropertyOp17
 70
     1
102
RTVSPropertyOp18
 70
     1
102
RTVSPropertyOp19
 70
     1
102
RTVSPropertyOp20
 70
     1
102
RTVSPropertyOp21
 70
     1
102
RTVSPropertyOp22
 70
     1
102
RTVSPropertyOp23
 70
     1
102
RTVSPropertyOp24
 70
     1
102
RTVSPropertyOp25
 70
     1
102
RTVSPropertyOp26
 70
     1
102
RTVSPropertyOp27
 70
     1
  0
XRECORD
  5
5A6
102
{ACAD_REACTORS
330
5A5
102
}
330
5A5
100
AcDbXrecord
280
     1
102
RTVSPropertyOp0
 70
     1
102
RTVSPropertyOp1
 70
     1
102
RTVSPropertyOp2
 70
     1
102
RTVSPropertyOp3
 70
     1
102
RTVSPropertyOp4
 70
     1
102
RTVSPropertyOp5
 70
     1
102
RTVSPropertyOp6
 70
     1
102
RTVSPropertyOp7
 70
     1
102
RTVSPropertyOp8
 70
     1
102
RTVSPropertyOp9
 70
     1
102
RTVSPropertyOp10
 70
     1
102
RTVSPropertyOp11
 70
     1
102
RTVSPropertyOp12
 70
     1
102
RTVSPropertyOp13
 70
     1
102
RTVSPropertyOp14
 70
     1
102
RTVSPropertyOp15
 70
     1
102
RTVSPropertyOp16
 70
     1
102
RTVSPropertyOp17
 70
     1
102
RTVSPropertyOp18
 70
     1
102
RTVSPropertyOp19
 70
     1
102
RTVSPropertyOp20
 70
     1
102
RTVSPropertyOp21
 70
     1
102
RTVSPropertyOp22
 70
     1
102
RTVSPropertyOp23
 70
     1
102
RTVSPropertyOp24
 70
     1
102
RTVSPropertyOp25
 70
     1
102
RTVSPropertyOp26
 70
     1
102
RTVSPropertyOp27
 70
     1
  0
XRECORD
  5
59A
102
{ACAD_REACTORS
330
599
102
}
330
599
100
AcDbXrecord
280
     1
102
RTVSPropertyOp0
 70
     1
102
RTVSPropertyOp1
 70
     1
102
RTVSPropertyOp2
 70
     1
102
RTVSPropertyOp3
 70
     1
102
RTVSPropertyOp4
 70
     1
102
RTVSPropertyOp5
 70
     1
102
RTVSPropertyOp6
 70
     1
102
RTVSPropertyOp7
 70
     1
102
RTVSPropertyOp8
 70
     1
102
RTVSPropertyOp9
 70
     1
102
RTVSPropertyOp10
 70
     1
102
RTVSPropertyOp11
 70
     1
102
RTVSPropertyOp12
 70
     1
102
RTVSPropertyOp13
 70
     1
102
RTVSPropertyOp14
 70
     1
102
RTVSPropertyOp15
 70
     1
102
RTVSPropertyOp16
 70
     1
102
RTVSPropertyOp17
 70
     1
102
RTVSPropertyOp18
 70
     1
102
RTVSPropertyOp19
 70
     1
102
RTVSPropertyOp20
 70
     1
102
RTVSPropertyOp21
 70
     1
102
RTVSPropertyOp22
 70
     1
102
RTVSPropertyOp23
 70
     1
102
RTVSPropertyOp24
 70
     1
102
RTVSPropertyOp25
 70
     1
102
RTVSPropertyOp26
 70
     1
102
RTVSPropertyOp27
 70
     1
  0
XRECORD
  5
59C
102
{ACAD_REACTORS
330
59B
102
}
330
59B
100
AcDbXrecord
280
     1
102
RTVSPropertyOp0
 70
     1
102
RTVSPropertyOp1
 70
     1
102
RTVSPropertyOp2
 70
     1
102
RTVSPropertyOp3
 70
     1
102
RTVSPropertyOp4
 70
     1
102
RTVSPropertyOp5
 70
     1
102
RTVSPropertyOp6
 70
     1
102
RTVSPropertyOp7
 70
     1
102
RTVSPropertyOp8
 70
     1
102
RTVSPropertyOp9
 70
     1
102
RTVSPropertyOp10
 70
     1
102
RTVSPropertyOp11
 70
     1
102
RTVSPropertyOp12
 70
     1
102
RTVSPropertyOp13
 70
     1
102
RTVSPropertyOp14
 70
     1
102
RTVSPropertyOp15
 70
     1
102
RTVSPropertyOp16
 70
     1
102
RTVSPropertyOp17
 70
     1
102
RTVSPropertyOp18
 70
     1
102
RTVSPropertyOp19
 70
     1
102
RTVSPropertyOp20
 70
     1
102
RTVSPropertyOp21
 70
     1
102
RTVSPropertyOp22
 70
     1
102
RTVSPropertyOp23
 70
     1
102
RTVSPropertyOp24
 70
     1
102
RTVSPropertyOp25
 70
     1
102
RTVSPropertyOp26
 70
     1
102
RTVSPropertyOp27
 70
     1
  0
XRECORD
  5
5A4
102
{ACAD_REACTORS
330
5A3
102
}
330
5A3
100
AcDbXrecord
280
     1
102
RTVSPropertyOp0
 70
     1
102
RTVSPropertyOp1
 70
     1
102
RTVSPropertyOp2
 70
     1
102
RTVSPropertyOp3
 70
     1
102
RTVSPropertyOp4
 70
     1
102
RTVSPropertyOp5
 70
     1
102
RTVSPropertyOp6
 70
     1
102
RTVSPropertyOp7
 70
     1
102
RTVSPropertyOp8
 70
     1
102
RTVSPropertyOp9
 70
     1
102
RTVSPropertyOp10
 70
     1
102
RTVSPropertyOp11
 70
     1
102
RTVSPropertyOp12
 70
     1
102
RTVSPropertyOp13
 70
     1
102
RTVSPropertyOp14
 70
     1
102
RTVSPropertyOp15
 70
     1
102
RTVSPropertyOp16
 70
     1
102
RTVSPropertyOp17
 70
     1
102
RTVSPropertyOp18
 70
     1
102
RTVSPropertyOp19
 70
     1
102
RTVSPropertyOp20
 70
     1
102
RTVSPropertyOp21
 70
     1
102
RTVSPropertyOp22
 70
     1
102
RTVSPropertyOp23
 70
     1
102
RTVSPropertyOp24
 70
     1
102
RTVSPropertyOp25
 70
     1
102
RTVSPropertyOp26
 70
     1
102
RTVSPropertyOp27
 70
     1
  0
XRECORD
  5
588
102
{ACAD_REACTORS
330
587
102
}
330
587
100
AcDbXrecord
280
     1
102
RTVSPropertyOp0
 70
     1
102
RTVSPropertyOp1
 70
     1
102
RTVSPropertyOp2
 70
     1
102
RTVSPropertyOp3
 70
     1
102
RTVSPropertyOp4
 70
     1
102
RTVSPropertyOp5
 70
     1
102
RTVSPropertyOp6
 70
     1
102
RTVSPropertyOp7
 70
     1
102
RTVSPropertyOp8
 70
     1
102
RTVSPropertyOp9
 70
     1
102
RTVSPropertyOp10
 70
     1
102
RTVSPropertyOp11
 70
     1
102
RTVSPropertyOp12
 70
     1
102
RTVSPropertyOp13
 70
     1
102
RTVSPropertyOp14
 70
     1
102
RTVSPropertyOp15
 70
     1
102
RTVSPropertyOp16
 70
     1
102
RTVSPropertyOp17
 70
     1
102
RTVSPropertyOp18
 70
     1
102
RTVSPropertyOp19
 70
     1
102
RTVSPropertyOp20
 70
     1
102
RTVSPropertyOp21
 70
     1
102
RTVSPropertyOp22
 70
     1
102
RTVSPropertyOp23
 70
     1
102
RTVSPropertyOp24
 70
     1
102
RTVSPropertyOp25
 70
     1
102
RTVSPropertyOp26
 70
     1
102
RTVSPropertyOp27
 70
     1
  0
XRECORD
  5
58A
102
{ACAD_REACTORS
330
589
102
}
330
589
100
AcDbXrecord
280
     1
102
RTVSPropertyOp0
 70
     1
102
RTVSPropertyOp1
 70
     1
102
RTVSPropertyOp2
 70
     1
102
RTVSPropertyOp3
 70
     1
102
RTVSPropertyOp4
 70
     1
102
RTVSPropertyOp5
 70
     1
102
RTVSPropertyOp6
 70
     1
102
RTVSPropertyOp7
 70
     1
102
RTVSPropertyOp8
 70
     1
102
RTVSPropertyOp9
 70
     1
102
RTVSPropertyOp10
 70
     1
102
RTVSPropertyOp11
 70
     1
102
RTVSPropertyOp12
 70
     1
102
RTVSPropertyOp13
 70
     1
102
RTVSPropertyOp14
 70
     1
102
RTVSPropertyOp15
 70
     1
102
RTVSPropertyOp16
 70
     1
102
RTVSPropertyOp17
 70
     1
102
RTVSPropertyOp18
 70
     1
102
RTVSPropertyOp19
 70
     1
102
RTVSPropertyOp20
 70
     1
102
RTVSPropertyOp21
 70
     1
102
RTVSPropertyOp22
 70
     1
102
RTVSPropertyOp23
 70
     1
102
RTVSPropertyOp24
 70
     1
102
RTVSPropertyOp25
 70
     1
102
RTVSPropertyOp26
 70
     1
102
RTVSPropertyOp27
 70
     1
  0
XRECORD
  5
58C
102
{ACAD_REACTORS
330
58B
102
}
330
58B
100
AcDbXrecord
280
     1
102
RTVSPropertyOp0
 70
     1
102
RTVSPropertyOp1
 70
     1
102
RTVSPropertyOp2
 70
     1
102
RTVSPropertyOp3
 70
     1
102
RTVSPropertyOp4
 70
     1
102
RTVSPropertyOp5
 70
     1
102
RTVSPropertyOp6
 70
     1
102
RTVSPropertyOp7
 70
     1
102
RTVSPropertyOp8
 70
     1
102
RTVSPropertyOp9
 70
     1
102
RTVSPropertyOp10
 70
     1
102
RTVSPropertyOp11
 70
     1
102
RTVSPropertyOp12
 70
     1
102
RTVSPropertyOp13
 70
     1
102
RTVSPropertyOp14
 70
     1
102
RTVSPropertyOp15
 70
     1
102
RTVSPropertyOp16
 70
     1
102
RTVSPropertyOp17
 70
     1
102
RTVSPropertyOp18
 70
     1
102
RTVSPropertyOp19
 70
     1
102
RTVSPropertyOp20
 70
     1
102
RTVSPropertyOp21
 70
     1
102
RTVSPropertyOp22
 70
     1
102
RTVSPropertyOp23
 70
     1
102
RTVSPropertyOp24
 70
     1
102
RTVSPropertyOp25
 70
     1
102
RTVSPropertyOp26
 70
     1
102
RTVSPropertyOp27
 70
     1
  0
XRECORD
  5
58E
102
{ACAD_REACTORS
330
58D
102
}
330
58D
100
AcDbXrecord
280
     1
102
RTVSPropertyOp0
 70
     1
102
RTVSPropertyOp1
 70
     1
102
RTVSPropertyOp2
 70
     1
102
RTVSPropertyOp3
 70
     1
102
RTVSPropertyOp4
 70
     1
102
RTVSPropertyOp5
 70
     1
102
RTVSPropertyOp6
 70
     1
102
RTVSPropertyOp7
 70
     1
102
RTVSPropertyOp8
 70
     1
102
RTVSPropertyOp9
 70
     1
102
RTVSPropertyOp10
 70
     1
102
RTVSPropertyOp11
 70
     1
102
RTVSPropertyOp12
 70
     1
102
RTVSPropertyOp13
 70
     1
102
RTVSPropertyOp14
 70
     1
102
RTVSPropertyOp15
 70
     1
102
RTVSPropertyOp16
 70
     1
102
RTVSPropertyOp17
 70
     1
102
RTVSPropertyOp18
 70
     1
102
RTVSPropertyOp19
 70
     1
102
RTVSPropertyOp20
 70
     1
102
RTVSPropertyOp21
 70
     1
102
RTVSPropertyOp22
 70
     1
102
RTVSPropertyOp23
 70
     1
102
RTVSPropertyOp24
 70
     1
102
RTVSPropertyOp25
 70
     1
102
RTVSPropertyOp26
 70
     1
102
RTVSPropertyOp27
 70
     1
  0
XRECORD
  5
5A2
102
{ACAD_REACTORS
330
5A1
102
}
330
5A1
100
AcDbXrecord
280
     1
102
RTVSPropertyOp0
 70
     1
102
RTVSPropertyOp1
 70
     1
102
RTVSPropertyOp2
 70
     1
102
RTVSPropertyOp3
 70
     1
102
RTVSPropertyOp4
 70
     1
102
RTVSPropertyOp5
 70
     1
102
RTVSPropertyOp6
 70
     1
102
RTVSPropertyOp7
 70
     1
102
RTVSPropertyOp8
 70
     1
102
RTVSPropertyOp9
 70
     1
102
RTVSPropertyOp10
 70
     1
102
RTVSPropertyOp11
 70
     1
102
RTVSPropertyOp12
 70
     1
102
RTVSPropertyOp13
 70
     1
102
RTVSPropertyOp14
 70
     1
102
RTVSPropertyOp15
 70
     1
102
RTVSPropertyOp16
 70
     1
102
RTVSPropertyOp17
 70
     1
102
RTVSPropertyOp18
 70
     1
102
RTVSPropertyOp19
 70
     1
102
RTVSPropertyOp20
 70
     1
102
RTVSPropertyOp21
 70
     1
102
RTVSPropertyOp22
 70
     1
102
RTVSPropertyOp23
 70
     1
102
RTVSPropertyOp24
 70
     1
102
RTVSPropertyOp25
 70
     1
102
RTVSPropertyOp26
 70
     1
102
RTVSPropertyOp27
 70
     1
  0
XRECORD
  5
598
102
{ACAD_REACTORS
330
597
102
}
330
597
100
AcDbXrecord
280
     1
102
RTVSPropertyOp0
 70
     1
102
RTVSPropertyOp1
 70
     1
102
RTVSPropertyOp2
 70
     1
102
RTVSPropertyOp3
 70
     1
102
RTVSPropertyOp4
 70
     1
102
RTVSPropertyOp5
 70
     1
102
RTVSPropertyOp6
 70
     1
102
RTVSPropertyOp7
 70
     1
102
RTVSPropertyOp8
 70
     1
102
RTVSPropertyOp9
 70
     1
102
RTVSPropertyOp10
 70
     1
102
RTVSPropertyOp11
 70
     1
102
RTVSPropertyOp12
 70
     1
102
RTVSPropertyOp13
 70
     1
102
RTVSPropertyOp14
 70
     1
102
RTVSPropertyOp15
 70
     1
102
RTVSPropertyOp16
 70
     1
102
RTVSPropertyOp17
 70
     1
102
RTVSPropertyOp18
 70
     1
102
RTVSPropertyOp19
 70
     1
102
RTVSPropertyOp20
 70
     1
102
RTVSPropertyOp21
 70
     1
102
RTVSPropertyOp22
 70
     1
102
RTVSPropertyOp23
 70
     1
102
RTVSPropertyOp24
 70
     1
102
RTVSPropertyOp25
 70
     1
102
RTVSPropertyOp26
 70
     1
102
RTVSPropertyOp27
 70
     1
  0
XRECORD
  5
5A0
102
{ACAD_REACTORS
330
59F
102
}
330
59F
100
AcDbXrecord
280
     1
102
RTVSPropertyOp0
 70
     1
102
RTVSPropertyOp1
 70
     1
102
RTVSPropertyOp2
 70
     1
102
RTVSPropertyOp3
 70
     1
102
RTVSPropertyOp4
 70
     1
102
RTVSPropertyOp5
 70
     1
102
RTVSPropertyOp6
 70
     1
102
RTVSPropertyOp7
 70
     1
102
RTVSPropertyOp8
 70
     1
102
RTVSPropertyOp9
 70
     1
102
RTVSPropertyOp10
 70
     1
102
RTVSPropertyOp11
 70
     1
102
RTVSPropertyOp12
 70
     1
102
RTVSPropertyOp13
 70
     1
102
RTVSPropertyOp14
 70
     1
102
RTVSPropertyOp15
 70
     1
102
RTVSPropertyOp16
 70
     1
102
RTVSPropertyOp17
 70
     1
102
RTVSPropertyOp18
 70
     1
102
RTVSPropertyOp19
 70
     1
102
RTVSPropertyOp20
 70
     1
102
RTVSPropertyOp21
 70
     1
102
RTVSPropertyOp22
 70
     1
102
RTVSPropertyOp23
 70
     1
102
RTVSPropertyOp24
 70
     1
102
RTVSPropertyOp25
 70
     1
102
RTVSPropertyOp26
 70
     1
102
RTVSPropertyOp27
 70
     1
  0
ENDSEC
  0
EOF
