  0
SECTION
  2
HEADER
  9
$ACADVER
  1
AC1015
  9
$ACADMAINTVER
 70
     6
  9
$DWGCODEPAGE
  3
ANSI_1252
  9
$INSBASE
 10
0.0
 20
0.0
 30
0.0
  9
$EXTMIN
 10
0.0
 20
-0.0000000000000022
 30
0.0
  9
$EXTMAX
 10
13.25
 20
19.57499999999999
 30
0.0
  9
$LIMMIN
 10
0.0
 20
0.0
  9
$LIMMAX
 10
11.0
 20
8.5
  9
$ORTHOMODE
 70
     1
  9
$REGENMODE
 70
     1
  9
$FILLMODE
 70
     1
  9
$QTEXTMODE
 70
     0
  9
$MIRRTEXT
 70
     0
  9
$LTSCALE
 40
0.25
  9
$ATTMODE
 70
     1
  9
$TEXTSIZE
 40
0.156
  9
$TRACEWID
 40
0.05
  9
$TEXTSTYLE
  7
TXT
  9
$CLAYER
  8
OBJECT
  9
$CELTYPE
  6
ByLayer
  9
$CECOLOR
 62
   256
  9
$CELTSCALE
 40
1.0
  9
$DISPSILH
 70
     0
  9
$DIMSCALE
 40
1.25
  9
$DIMASZ
 40
0.18
  9
$DIMEXO
 40
0.063
  9
$DIMDLI
 40
0.281
  9
$DIMRND
 40
0.0
  9
$DIMDLE
 40
0.0
  9
$DIMEXE
 40
0.093
  9
$DIMTP
 40
0.0
  9
$DIMTM
 40
0.0
  9
$DIMTXT
 40
0.125
  9
$DIMCEN
 40
0.09
  9
$DIMTSZ
 40
0.0
  9
$DIMTOL
 70
     0
  9
$DIMLIM
 70
     0
  9
$DIMTIH
 70
     1
  9
$DIMTOH
 70
     1
  9
$DIMSE1
 70
     0
  9
$DIMSE2
 70
     0
  9
$DIMTAD
 70
     0
  9
$DIMZIN
 70
     0
  9
$DIMBLK
  1

  9
$DIMASO
 70
     1
  9
$DIMSHO
 70
     1
  9
$DIMPOST
  1

  9
$DIMAPOST
  1

  9
$DIMALT
 70
     0
  9
$DIMALTD
 70
     2
  9
$DIMALTF
 40
25.4
  9
$DIMLFAC
 40
1.0
  9
$DIMTOFL
 70
     0
  9
$DIMTVP
 40
0.0
  9
$DIMTIX
 70
     0
  9
$DIMSOXD
 70
     0
  9
$DIMSAH
 70
     0
  9
$DIMBLK1
  1

  9
$DIMBLK2
  1

  9
$DIMSTYLE
  2
23NSTD
  9
$DIMCLRD
 70
     0
  9
$DIMCLRE
 70
     0
  9
$DIMCLRT
 70
     0
  9
$DIMTFAC
 40
1.0
  9
$DIMGAP
 40
0.09
  9
$DIMJUST
 70
     0
  9
$DIMSD1
 70
     0
  9
$DIMSD2
 70
     0
  9
$DIMTOLJ
 70
     1
  9
$DIMTZIN
 70
     0
  9
$DIMALTZ
 70
     0
  9
$DIMALTTZ
 70
     0
  9
$DIMUPT
 70
     0
  9
$DIMDEC
 70
     3
  9
$DIMTDEC
 70
     3
  9
$DIMALTU
 70
     2
  9
$DIMALTTD
 70
     2
  9
$DIMTXSTY
  7
TXT
  9
$DIMAUNIT
 70
     0
  9
$DIMADEC
 70
     0
  9
$DIMALTRND
 40
0.0
  9
$DIMAZIN
 70
     0
  9
$DIMDSEP
 70
    46
  9
$DIMATFIT
 70
     0
  9
$DIMFRAC
 70
     0
  9
$DIMLDRBLK
  1

  9
$DIMLUNIT
 70
     2
  9
$DIMLWD
 70
    -2
  9
$DIMLWE
 70
    -2
  9
$DIMTMOVE
 70
     0
  9
$LUNITS
 70
     2
  9
$LUPREC
 70
     3
  9
$SKETCHINC
 40
0.1
  9
$FILLETRAD
 40
0.0
  9
$AUNITS
 70
     0
  9
$AUPREC
 70
     0
  9
$MENU
  1
acad
  9
$ELEVATION
 40
0.0
  9
$PELEVATION
 40
0.0
  9
$THICKNESS
 40
0.0
  9
$LIMCHECK
 70
     0
  9
$CHAMFERA
 40
0.0
  9
$CHAMFERB
 40
0.0
  9
$CHAMFERC
 40
0.0
  9
$CHAMFERD
 40
0.0
  9
$SKPOLY
 70
     0
  9
$TDCREATE
 40
2454222.415810717
  9
$TDUCREATE
 40
2454222.582477384
  9
$TDUPDATE
 40
2454245.353064236
  9
$TDUUPDATE
 40
2454245.519730902
  9
$TDINDWG
 40
0.4191958218
  9
$TDUSRTIMER
 40
0.4191958218
  9
$USRTIMER
 70
     1
  9
$ANGBASE
 50
0.0
  9
$ANGDIR
 70
     0
  9
$PDMODE
 70
     0
  9
$PDSIZE
 40
0.0
  9
$PLINEWID
 40
0.0
  9
$SPLFRAME
 70
     0
  9
$SPLINETYPE
 70
     6
  9
$SPLINESEGS
 70
     8
  9
$HANDSEED
  5
4855
  9
$SURFTAB1
 70
     6
  9
$SURFTAB2
 70
     6
  9
$SURFTYPE
 70
     6
  9
$SURFU
 70
     6
  9
$SURFV
 70
     6
  9
$UCSBASE
  2

  9
$UCSNAME
  2

  9
$UCSORG
 10
0.0
 20
0.0
 30
0.0
  9
$UCSXDIR
 10
1.0
 20
0.0
 30
0.0
  9
$UCSYDIR
 10
0.0
 20
1.0
 30
0.0
  9
$UCSORTHOREF
  2

  9
$UCSORTHOVIEW
 70
     0
  9
$UCSORGTOP
 10
0.0
 20
0.0
 30
0.0
  9
$UCSORGBOTTOM
 10
0.0
 20
0.0
 30
0.0
  9
$UCSORGLEFT
 10
0.0
 20
0.0
 30
0.0
  9
$UCSORGRIGHT
 10
0.0
 20
0.0
 30
0.0
  9
$UCSORGFRONT
 10
0.0
 20
0.0
 30
0.0
  9
$UCSORGBACK
 10
0.0
 20
0.0
 30
0.0
  9
$PUCSBASE
  2

  9
$PUCSNAME
  2

  9
$PUCSORG
 10
0.0
 20
0.0
 30
0.0
  9
$PUCSXDIR
 10
1.0
 20
0.0
 30
0.0
  9
$PUCSYDIR
 10
0.0
 20
1.0
 30
0.0
  9
$PUCSORTHOREF
  2

  9
$PUCSORTHOVIEW
 70
     0
  9
$PUCSORGTOP
 10
0.0
 20
0.0
 30
0.0
  9
$PUCSORGBOTTOM
 10
0.0
 20
0.0
 30
0.0
  9
$PUCSORGLEFT
 10
0.0
 20
0.0
 30
0.0
  9
$PUCSORGRIGHT
 10
0.0
 20
0.0
 30
0.0
  9
$PUCSORGFRONT
 10
0.0
 20
0.0
 30
0.0
  9
$PUCSORGBACK
 10
0.0
 20
0.0
 30
0.0
  9
$USERI1
 70
     0
  9
$USERI2
 70
     0
  9
$USERI3
 70
     0
  9
$USERI4
 70
     0
  9
$USERI5
 70
     0
  9
$USERR1
 40
0.0
  9
$USERR2
 40
0.0
  9
$USERR3
 40
0.0
  9
$USERR4
 40
0.0
  9
$USERR5
 40
0.0
  9
$WORLDVIEW
 70
     1
  9
$SHADEDGE
 70
     3
  9
$SHADEDIF
 70
    70
  9
$TILEMODE
 70
     1
  9
$MAXACTVP
 70
    16
  9
$PINSBASE
 10
0.0
 20
0.0
 30
0.0
  9
$PLIMCHECK
 70
     0
  9
$PEXTMIN
 10
1.000000000000000E+20
 20
1.000000000000000E+20
 30
1.000000000000000E+20
  9
$PEXTMAX
 10
-1.000000000000000E+20
 20
-1.000000000000000E+20
 30
-1.000000000000000E+20
  9
$PLIMMIN
 10
0.0
 20
0.0
  9
$PLIMMAX
 10
12.0
 20
9.0
  9
$UNITMODE
 70
     0
  9
$VISRETAIN
 70
     0
  9
$PLINEGEN
 70
     0
  9
$PSLTSCALE
 70
     1
  9
$TREEDEPTH
 70
  3020
  9
$CMLSTYLE
  2
Standard
  9
$CMLJUST
 70
     0
  9
$CMLSCALE
 40
1.0
  9
$PROXYGRAPHICS
 70
     1
  9
$MEASUREMENT
 70
     0
  9
$CELWEIGHT
370
    -1
  9
$ENDCAPS
280
     0
  9
$JOINSTYLE
280
     0
  9
$LWDISPLAY
290
     0
  9
$INSUNITS
 70
     0
  9
$HYPERLINKBASE
  1

  9
$STYLESHEET
  1
monochrome.ctb
  9
$XEDIT
290
     1
  9
$CEPSNTYPE
380
     0
  9
$PSTYLEMODE
290
     1
  9
$FINGERPRINTGUID
  2
{5F9F434B-8232-11D3-80AD-00C04F604D1B}
  9
$VERSIONGUID
  2
{3DE7881D-B9B0-441E-B15D-A3347904F737}
  9
$EXTNAMES
290
     1
  9
$PSVPSCALE
 40
0.0
  9
$OLESTARTUP
290
     0
  0
ENDSEC
  0
SECTION
  2
CLASSES
  0
CLASS
  1
ACDBDICTIONARYWDFLT
  2
AcDbDictionaryWithDefault
  3
AutoCAD 2000
 90
        0
280
     0
281
     0
  0
CLASS
  1
ACDBPLACEHOLDER
  2
AcDbPlaceHolder
  3
AutoCAD 2000
 90
        0
280
     0
281
     0
  0
CLASS
  1
LAYOUT
  2
AcDbLayout
  3
AutoCAD 2000
 90
        0
280
     0
281
     0
  0
CLASS
  1
SORTENTSTABLE
  2
AcDbSortentsTable
  3
AutoCAD 2000
 90
    32768
280
     0
281
     0
  0
CLASS
  1
DICTIONARYVAR
  2
AcDbDictionaryVar
  3
AutoCAD 2000
 90
        0
280
     0
281
     0
  0
ENDSEC
  0
SECTION
  2
TABLES
  0
TABLE
  2
VPORT
  5
8
330
0
100
AcDbSymbolTable
 70
     3
  0
VPORT
  5
4854
330
8
100
AcDbSymbolTableRecord
100
AcDbViewportTableRecord
  2
*Active
 70
     0
 10
0.0
 20
0.0
 11
1.0
 21
1.0
 12
6.62500003085006
 22
9.787500045576599
 13
0.0
 23
0.0
 14
0.125
 24
0.125
 15
0.125
 25
0.125
 16
0.0
 26
0.0
 36
1.0
 17
0.0
 27
0.0
 37
0.0
 40
19.77195671081683
 41
1.824707846410684
 42
50.0
 43
0.0
 44
0.0
 50
0.0
 51
0.0
 71
     0
 72
   100
 73
     1
 74
     0
 75
     0
 76
     0
 77
     0
 78
     0
281
     0
 65
     1
110
0.0
120
0.0
130
0.0
111
1.0
121
0.0
131
0.0
112
0.0
122
1.0
132
0.0
 79
     0
146
0.0
  0
ENDTAB
  0
TABLE
  2
LTYPE
  5
5
330
0
100
AcDbSymbolTable
 70
     6
  0
LTYPE
  5
13
330
5
100
AcDbSymbolTableRecord
100
AcDbLinetypeTableRecord
  2
ByBlock
 70
     0
  3

 72
    65
 73
     0
 40
0.0
  0
LTYPE
  5
14
330
5
100
AcDbSymbolTableRecord
100
AcDbLinetypeTableRecord
  2
ByLayer
 70
     0
  3

 72
    65
 73
     0
 40
0.0
  0
LTYPE
  5
15
330
5
100
AcDbSymbolTableRecord
100
AcDbLinetypeTableRecord
  2
CONTINUOUS
 70
     0
  3
Solid line
 72
    65
 73
     0
 40
0.0
  0
LTYPE
  5
22
330
5
100
AcDbSymbolTableRecord
100
AcDbLinetypeTableRecord
  2
HIDDEN
 70
     0
  3
_ _ _ _ _ _ _ _ _ _ _ _ _ _ _ _ _ _ _ _ _ _ _
 72
    65
 73
     2
 40
0.375
 49
0.25
 74
     0
 49
-0.125
 74
     0
  0
LTYPE
  5
23
330
5
100
AcDbSymbolTableRecord
100
AcDbLinetypeTableRecord
  2
PHANTOM
 70
     0
  3
_____ _ _ _____ _ _ _____ _ _ _____ _ _ ____
 72
    65
 73
     6
 40
2.5
 49
1.25
 74
     0
 49
-0.25
 74
     0
 49
0.25
 74
     0
 49
-0.25
 74
     0
 49
0.25
 74
     0
 49
-0.25
 74
     0
  0
LTYPE
  5
24
330
5
100
AcDbSymbolTableRecord
100
AcDbLinetypeTableRecord
  2
CENTER
 70
     0
  3
____ _ ____ _ ____ _ ____ _ ____ _ ____ _ ____
 72
    65
 73
     4
 40
2.0
 49
1.25
 74
     0
 49
-0.25
 74
     0
 49
0.25
 74
     0
 49
-0.25
 74
     0
  0
LTYPE
  5
25
330
5
100
AcDbSymbolTableRecord
100
AcDbLinetypeTableRecord
  2
HIDDEN2
 70
     0
  3
_ _ _ _ _ _ _ _ _ _ _ _ _ _ _ _ _ _ _ _ _ _ _ _
 72
    65
 73
     2
 40
0.1875
 49
0.125
 74
     0
 49
-0.0625
 74
     0
  0
LTYPE
  5
26
330
5
100
AcDbSymbolTableRecord
100
AcDbLinetypeTableRecord
  2
PHANTOM2
 70
     0
  3
___ _ _ ___ _ _ ___ _ _ ___ _ _ ___ _ _ ___ _ _
 72
    65
 73
     6
 40
1.25
 49
0.625
 74
     0
 49
-0.125
 74
     0
 49
0.125
 74
     0
 49
-0.125
 74
     0
 49
0.125
 74
     0
 49
-0.125
 74
     0
  0
ENDTAB
  0
TABLE
  2
LAYER
  5
2
330
0
100
AcDbSymbolTable
 70
    10
  0
LAYER
  5
10
330
2
100
AcDbSymbolTableRecord
100
AcDbLayerTableRecord
  2
0
 70
     0
 62
     7
  6
CONTINUOUS
370
    -3
390
F
  0
LAYER
  5
29
330
2
100
AcDbSymbolTableRecord
100
AcDbLayerTableRecord
  2
OBJECT
 70
     0
 62
     7
  6
CONTINUOUS
370
    -3
390
F
  0
LAYER
  5
2A
330
2
100
AcDbSymbolTableRecord
100
AcDbLayerTableRecord
  2
DIM
 70
     0
 62
     7
  6
CONTINUOUS
370
    -3
390
F
  0
LAYER
  5
2B
330
2
100
AcDbSymbolTableRecord
100
AcDbLayerTableRecord
  2
HIDDEN
 70
     0
 62
     7
  6
HIDDEN
370
    -3
390
F
  0
LAYER
  5
2C
330
2
100
AcDbSymbolTableRecord
100
AcDbLayerTableRecord
  2
BEND
 70
     0
 62
     7
  6
PHANTOM
370
    -3
390
F
  0
LAYER
  5
2D
330
2
100
AcDbSymbolTableRecord
100
AcDbLayerTableRecord
  2
TEXT
 70
     0
 62
     7
  6
CONTINUOUS
370
    -3
390
F
  0
LAYER
  5
2E
330
2
100
AcDbSymbolTableRecord
100
AcDbLayerTableRecord
  2
TITLE
 70
     0
 62
     7
  6
CONTINUOUS
370
    -3
390
F
  0
LAYER
  5
2F
330
2
100
AcDbSymbolTableRecord
100
AcDbLayerTableRecord
  2
CENTER
 70
     0
 62
     7
  6
CENTER
370
    -3
390
F
  0
LAYER
  5
493
330
2
100
AcDbSymbolTableRecord
100
AcDbLayerTableRecord
  2
\M+2BBB2\M+2A755\M+2BD75
 70
     0
 62
     7
  6
CONTINUOUS
370
    15
390
F
  0
LAYER
  5
1B54
330
2
100
AcDbSymbolTableRecord
100
AcDbLayerTableRecord
  2
Defpoints
 70
     0
 62
     7
  6
CONTINUOUS
290
     0
370
    -3
390
F
  0
ENDTAB
  0
TABLE
  2
STYLE
  5
3
330
0
100
AcDbSymbolTable
 70
     2
  0
STYLE
  5
11
330
3
100
AcDbSymbolTableRecord
100
AcDbTextStyleTableRecord
  2
TXT
 70
     0
 40
0.0
 41
0.75
 50
0.0
 71
     0
 42
0.156
  3
TXT.shx
  4

  0
STYLE
  5
496
330
3
100
AcDbSymbolTableRecord
100
AcDbTextStyleTableRecord
  2
Standard
 70
     0
 40
0.0
 41
1.0
 50
0.0
 71
     0
 42
0.1551234490216302
  3
txt
  4

  0
ENDTAB
  0
TABLE
  2
VIEW
  5
6
330
0
100
AcDbSymbolTable
 70
     0
  0
ENDTAB
  0
TABLE
  2
UCS
  5
7
330
0
100
AcDbSymbolTable
 70
     0
  0
ENDTAB
  0
TABLE
  2
APPID
  5
9
330
0
100
AcDbSymbolTable
 70
    13
  0
APPID
  5
12
330
9
100
AcDbSymbolTableRecord
100
AcDbRegAppTableRecord
  2
ACAD
 70
     0
  0
APPID
  5
49C
330
9
100
AcDbSymbolTableRecord
100
AcDbRegAppTableRecord
  2
DCO15
 70
     0
  0
APPID
  5
49D
330
9
100
AcDbSymbolTableRecord
100
AcDbRegAppTableRecord
  2
ADE
 70
     0
  0
APPID
  5
49E
330
9
100
AcDbSymbolTableRecord
100
AcDbRegAppTableRecord
  2
ACAD_DSTYLE_DIMTEXT_FILL
 70
     0
  0
APPID
  5
49F
330
9
100
AcDbSymbolTableRecord
100
AcDbRegAppTableRecord
  2
ACAD_PSEXT
 70
     0
  0
APPID
  5
4A0
330
9
100
AcDbSymbolTableRecord
100
AcDbRegAppTableRecord
  2
AME_SOLVIEW
 70
     0
  0
APPID
  5
4A1
330
9
100
AcDbSymbolTableRecord
100
AcDbRegAppTableRecord
  2
ACAD_DSTYLE_DIMEXT_LENGTH
 70
     0
  0
APPID
  5
4A2
330
9
100
AcDbSymbolTableRecord
100
AcDbRegAppTableRecord
  2
ACAD_DSTYLE_DIMEXT_ENABLED
 70
     0
  0
APPID
  5
4A3
330
9
100
AcDbSymbolTableRecord
100
AcDbRegAppTableRecord
  2
ACAD_DSTYLE_DIM_LINETYPE
 70
     0
  0
APPID
  5
4A4
330
9
100
AcDbSymbolTableRecord
100
AcDbRegAppTableRecord
  2
ACAD_DSTYLE_DIM_EXT1_LINETYPE
 70
     0
  0
APPID
  5
4A5
330
9
100
AcDbSymbolTableRecord
100
AcDbRegAppTableRecord
  2
ACAD_DSTYLE_DIM_EXT2_LINETYPE
 70
     0
  0
APPID
  5
4A6
330
9
100
AcDbSymbolTableRecord
100
AcDbRegAppTableRecord
  2
ACAD_DSTYLE_DIMJOGGED_JOGANGLE_SYMBOL
 70
     0
  0
APPID
  5
4A7
330
9
100
AcDbSymbolTableRecord
100
AcDbRegAppTableRecord
  2
ACAD_DSTYLE_DIMARC_LENGTH_SYMBOL
 70
     0
  0
ENDTAB
  0
TABLE
  2
DIMSTYLE
  5
A
330
0
100
AcDbSymbolTable
 70
     2
100
AcDbDimStyleTable
 71
     2
340
38
340
39
  0
DIMSTYLE
105
38
102
{ACAD_REACTORS
330
1DE0
330
1DDF
330
1DDE
330
1E3E
330
200B
330
1ECA
330
1CC2
330
22F6
330
3769
330
46B0
102
}
330
A
100
AcDbSymbolTableRecord
100
AcDbDimStyleTableRecord
  2
23NSTD
 70
     0
 40
1.25
 42
0.063
 43
0.281
 44
0.093
140
0.125
271
     3
272
     3
289
     0
340
11
  0
DIMSTYLE
105
39
102
{ACAD_REACTORS
330
1CC3
330
22D5
102
}
330
A
100
AcDbSymbolTableRecord
100
AcDbDimStyleTableRecord
  2
23NSTDI
 70
     0
 40
1.25
 42
0.063
 43
0.281
 44
0.093
140
0.125
174
     1
271
     3
272
     3
289
     0
340
11
  0
ENDTAB
  0
TABLE
  2
BLOCK_RECORD
  5
1
330
0
100
AcDbSymbolTable
 70
    16
  0
BLOCK_RECORD
  5
1E
330
1
100
AcDbSymbolTableRecord
100
AcDbBlockTableRecord
  2
*Model_Space
340
21
  0
BLOCK_RECORD
  5
1A
330
1
100
AcDbSymbolTableRecord
100
AcDbBlockTableRecord
  2
*Paper_Space
340
1D
  0
BLOCK_RECORD
  5
1B36
330
1
100
AcDbSymbolTableRecord
100
AcDbBlockTableRecord
  2
HB
340
0
102
{BLKREFS
331
1CC4
102
}
  0
BLOCK_RECORD
  5
214B
330
1
100
AcDbSymbolTableRecord
100
AcDbBlockTableRecord
  2
*D1
340
0
  0
BLOCK_RECORD
  5
2158
330
1
100
AcDbSymbolTableRecord
100
AcDbBlockTableRecord
  2
*D2
340
0
  0
BLOCK_RECORD
  5
2165
330
1
100
AcDbSymbolTableRecord
100
AcDbBlockTableRecord
  2
*D3
340
0
  0
BLOCK_RECORD
  5
2172
330
1
100
AcDbSymbolTableRecord
100
AcDbBlockTableRecord
  2
*D4
340
0
  0
BLOCK_RECORD
  5
217F
330
1
100
AcDbSymbolTableRecord
100
AcDbBlockTableRecord
  2
*D5
340
0
  0
BLOCK_RECORD
  5
218C
330
1
100
AcDbSymbolTableRecord
100
AcDbBlockTableRecord
  2
*D6
340
0
  0
BLOCK_RECORD
  5
2199
330
1
100
AcDbSymbolTableRecord
100
AcDbBlockTableRecord
  2
*D7
340
0
  0
BLOCK_RECORD
  5
21A6
330
1
100
AcDbSymbolTableRecord
100
AcDbBlockTableRecord
  2
*D8
340
0
  0
BLOCK_RECORD
  5
22D6
330
1
100
AcDbSymbolTableRecord
100
AcDbBlockTableRecord
  2
*D9
340
0
  0
BLOCK_RECORD
  5
22F7
330
1
100
AcDbSymbolTableRecord
100
AcDbBlockTableRecord
  2
*D10
340
0
  0
BLOCK_RECORD
  5
376A
330
1
100
AcDbSymbolTableRecord
100
AcDbBlockTableRecord
  2
*D11
340
0
  0
BLOCK_RECORD
  5
46B1
330
1
100
AcDbSymbolTableRecord
100
AcDbBlockTableRecord
  2
*D12
340
0
  0
ENDTAB
  0
ENDSEC
  0
SECTION
  2
BLOCKS
  0
BLOCK
  5
33
330
1E
100
AcDbEntity
  8
0
100
AcDbBlockBegin
  2
*Model_Space
 70
     0
 10
0.0
 20
0.0
 30
0.0
  3
*Model_Space
  1

  0
ENDBLK
  5
34
330
1E
100
AcDbEntity
  8
0
100
AcDbBlockEnd
  0
BLOCK
  5
31
330
1A
100
AcDbEntity
 67
     1
  8
0
100
AcDbBlockBegin
  2
*Paper_Space
 70
     0
 10
0.0
 20
0.0
 30
0.0
  3
*Paper_Space
  1

  0
ENDBLK
  5
32
330
1A
100
AcDbEntity
 67
     1
  8
0
100
AcDbBlockEnd
  0
BLOCK
  5
1B4D
330
1B36
100
AcDbEntity
  8
0
100
AcDbBlockBegin
  2
HB
 70
     0
 10
0.0
 20
0.0
 30
0.0
  3
HB
  1

  0
TEXT
  5
1B37
330
1B36
100
AcDbEntity
  8
TEXT
100
AcDbText
 10
0.2078333333333363
 20
15.22007919564008
 30
0.0
 40
0.125
  1
NAME
 72
     1
 11
0.437000000000003
 21
15.22007919564008
 31
0.0
100
AcDbText
  0
TEXT
  5
1B38
330
1B36
100
AcDbEntity
  8
TEXT
100
AcDbText
 10
0.2078333333333363
 20
15.42841252897341
 30
0.0
 40
0.125
  1
PART
 72
     1
 11
0.437000000000003
 21
15.42841252897341
 31
0.0
100
AcDbText
  0
TEXT
  5
1B39
330
1B36
100
AcDbEntity
  8
TEXT
100
AcDbText
 10
4.561999999999998
 20
15.22007919564008
 30
0.0
 40
0.125
  1
No.
 72
     1
 11
4.686999999999998
 21
15.22007919564008
 31
0.0
100
AcDbText
  0
TEXT
  5
1B3A
330
1B36
100
AcDbEntity
  8
TEXT
100
AcDbText
 10
4.457833333333331
 20
15.42841252897341
 30
0.0
 40
0.125
  1
PART
 72
     1
 11
4.686999999999998
 21
15.42841252897341
 31
0.0
100
AcDbText
  0
LINE
  5
1B3B
330
1B36
100
AcDbEntity
  8
TITLE
100
AcDbLine
 10
5.062000000000002
 20
15.598
 30
0.0
 11
5.062000000000002
 21
15.17999999999999
 31
0.0
  0
LINE
  5
1B3C
330
1B36
100
AcDbEntity
  8
TITLE
100
AcDbLine
 10
4.312000000000002
 20
15.598
 30
0.0
 11
4.312000000000002
 21
15.17999999999999
 31
0.0
  0
LINE
  5
1B3D
330
1B36
100
AcDbEntity
  8
TITLE
100
AcDbLine
 10
4.25
 20
15.598
 30
0.0
 11
4.25
 21
15.17999999999999
 31
0.0
  0
LINE
  5
1B3E
330
1B36
100
AcDbEntity
  8
TITLE
100
AcDbLine
 10
0.8120000000000029
 20
15.17999999999999
 30
0.0
 11
0.8120000000000011
 21
15.598
 31
0.0
  0
LINE
  5
1B3F
330
1B36
100
AcDbEntity
  8
TITLE
100
AcDbLine
 10
0.0620000000000012
 20
15.17999999999999
 30
0.0
 11
10.538
 21
15.17999999999999
 31
0.0
  0
LINE
  5
1B40
330
1B36
100
AcDbEntity
  8
TITLE
100
AcDbLine
 10
10.538
 20
0.0619999999999994
 30
0.0
 11
0.0619999999999976
 21
0.0620000000000012
 31
0.0
  0
LINE
  5
1B41
330
1B36
100
AcDbEntity
  8
TITLE
100
AcDbLine
 10
10.538
 20
15.598
 30
0.0
 11
10.538
 21
0.0619999999999994
 31
0.0
  0
LINE
  5
1B42
330
1B36
100
AcDbEntity
  8
TITLE
100
AcDbLine
 10
0.0620000000000012
 20
15.598
 30
0.0
 11
10.538
 21
15.598
 31
0.0
  0
LINE
  5
1B43
330
1B36
100
AcDbEntity
  8
TITLE
100
AcDbLine
 10
0.0619999999999976
 20
0.0620000000000012
 30
0.0
 11
0.0620000000000012
 21
15.598
 31
0.0
  0
LINE
  5
1B44
330
1B36
100
AcDbEntity
  8
TITLE
100
AcDbLine
 10
0.0
 20
0.0
 30
0.0
 11
0.0
 21
15.66
 31
0.0
  0
LINE
  5
1B45
330
1B36
100
AcDbEntity
  8
TITLE
100
AcDbLine
 10
10.6
 20
-0.0000000000000018
 30
0.0
 11
0.0
 21
0.0
 31
0.0
  0
LINE
  5
1B46
330
1B36
100
AcDbEntity
  8
TITLE
100
AcDbLine
 10
10.6
 20
15.65999999999999
 30
0.0
 11
10.6
 21
-0.0000000000000018
 31
0.0
  0
LINE
  5
1B47
330
1B36
100
AcDbEntity
  8
TITLE
100
AcDbLine
 10
0.0
 20
15.66
 30
0.0
 11
10.6
 21
15.65999999999999
 31
0.0
  0
LINE
  5
1B48
330
1B36
100
AcDbEntity
  8
TITLE
100
AcDbLine
 10
8.500025722444004
 20
15.598
 30
0.0
 11
8.500025722444004
 21
15.17999999999999
 31
0.0
  0
TEXT
  5
1B49
330
1B36
100
AcDbEntity
  8
TEXT
100
AcDbText
 10
8.728692389110667
 20
15.42841252897341
 30
0.0
 40
0.125
  1
REV.
 72
     1
 11
8.937025722444001
 21
15.42841252897341
 31
0.0
100
AcDbText
  0
TEXT
  5
1B4A
330
1B36
100
AcDbEntity
  8
TEXT
100
AcDbText
 10
8.707859055777335
 20
15.22007919564008
 30
0.0
 40
0.125
  1
DATE
 72
     1
 11
8.937025722444001
 21
15.22007919564008
 31
0.0
100
AcDbText
  0
LINE
  5
1B4B
330
1B36
100
AcDbEntity
  8
TITLE
100
AcDbLine
 10
8.562025722444005
 20
15.598
 30
0.0
 11
8.562025722444005
 21
15.17999999999999
 31
0.0
  0
LINE
  5
1B4C
330
1B36
100
AcDbEntity
  8
TITLE
100
AcDbLine
 10
9.312025722444005
 20
15.598
 30
0.0
 11
9.312025722444005
 21
15.17999999999999
 31
0.0
  0
ENDBLK
  5
1B4E
330
1B36
100
AcDbEntity
  8
0
100
AcDbBlockEnd
  0
BLOCK
  5
2156
330
214B
100
AcDbEntity
  8
0
100
AcDbBlockBegin
  2
*D1
 70
     1
 10
0.0
 20
0.0
 30
0.0
  3
*D1
  1

  0
LINE
  5
2501
330
214B
100
AcDbEntity
  8
DIM
 62
     0
370
    -2
100
AcDbLine
 10
1.234075807897234
 20
14.18345103112038
 30
0.0
 11
1.234075807897234
 21
17.54889613181782
 31
0.0
  0
LINE
  5
2502
330
214B
100
AcDbEntity
  8
DIM
 62
     0
370
    -2
100
AcDbLine
 10
4.777358502470629
 20
14.18345103111947
 30
0.0
 11
4.777358502470629
 21
17.54889613181782
 31
0.0
  0
LINE
  5
2503
330
214B
100
AcDbEntity
  8
DIM
 62
     0
370
    -2
100
AcDbLine
 10
1.459075807897234
 20
17.43264613181781
 30
0.0
 11
2.658842155183932
 21
17.43264613181781
 31
0.0
  0
LINE
  5
2504
330
214B
100
AcDbEntity
  8
DIM
 62
     0
370
    -2
100
AcDbLine
 10
4.55235850247063
 20
17.43264613181781
 30
0.0
 11
3.352592155183931
 21
17.43264613181781
 31
0.0
  0
SOLID
  5
2505
330
214B
100
AcDbEntity
  8
DIM
 62
     0
100
AcDbTrace
 10
1.459075807897234
 20
17.47014613181782
 30
0.0
 11
1.459075807897234
 21
17.39514613181781
 31
0.0
 12
1.234075807897234
 22
17.43264613181781
 32
0.0
 13
1.234075807897234
 23
17.43264613181781
 33
0.0
  0
SOLID
  5
2506
330
214B
100
AcDbEntity
  8
DIM
 62
     0
100
AcDbTrace
 10
4.55235850247063
 20
17.47014613181782
 30
0.0
 11
4.55235850247063
 21
17.39514613181781
 31
0.0
 12
4.777358502470629
 22
17.43264613181781
 32
0.0
 13
4.777358502470629
 23
17.43264613181781
 33
0.0
  0
MTEXT
  5
2507
330
214B
100
AcDbEntity
  8
DIM
 62
     0
100
AcDbMText
 10
3.005717155183932
 20
17.43264613181781
 30
0.0
 40
0.15625
 41
0.0
 71
     5
 72
     1
  1
\A1;3.543
 73
     1
 44
1.0
  0
POINT
  5
2508
330
214B
100
AcDbEntity
  8
Defpoints
 62
     0
100
AcDbPoint
 10
1.234075807897234
 20
14.10470103112038
 30
0.0
  0
POINT
  5
2509
330
214B
100
AcDbEntity
  8
Defpoints
 62
     0
100
AcDbPoint
 10
4.777358502470629
 20
14.10470103111947
 30
0.0
  0
POINT
  5
250A
330
214B
100
AcDbEntity
  8
Defpoints
 62
     0
100
AcDbPoint
 10
4.777358502470629
 20
17.43264613181781
 30
0.0
  0
ENDBLK
  5
2157
330
214B
100
AcDbEntity
  8
0
100
AcDbBlockEnd
  0
BLOCK
  5
2163
330
2158
100
AcDbEntity
  8
0
100
AcDbBlockBegin
  2
*D2
 70
     1
 10
0.0
 20
0.0
 30
0.0
  3
*D2
  1

  0
LINE
  5
250B
330
2158
100
AcDbEntity
  8
DIM
 62
     0
370
    -2
100
AcDbLine
 10
2.927098013393276
 20
16.95938853111965
 30
0.0
 11
0.6062196291309994
 21
16.95938853111965
 31
0.0
  0
LINE
  5
250C
330
2158
100
AcDbEntity
  8
DIM
 62
     0
370
    -2
100
AcDbLine
 10
2.927097833258414
 20
11.25001353111984
 30
0.0
 11
0.6062196291309982
 21
11.25001353111984
 31
0.0
  0
LINE
  5
250D
330
2158
100
AcDbEntity
  8
DIM
 62
     0
370
    -2
100
AcDbLine
 10
0.7224696291309993
 20
16.73438853111965
 30
0.0
 11
0.722469629130999
 21
14.29532603111975
 31
0.0
  0
LINE
  5
250E
330
2158
100
AcDbEntity
  8
DIM
 62
     0
370
    -2
100
AcDbLine
 10
0.7224696291309983
 20
11.47501353111984
 30
0.0
 11
0.7224696291309988
 21
13.91407603111975
 31
0.0
  0
SOLID
  5
250F
330
2158
100
AcDbEntity
  8
DIM
 62
     0
100
AcDbTrace
 10
0.6849696291309994
 20
16.73438853111965
 30
0.0
 11
0.7599696291309993
 21
16.73438853111965
 31
0.0
 12
0.7224696291309995
 22
16.95938853111965
 32
0.0
 13
0.7224696291309995
 23
16.95938853111965
 33
0.0
  0
SOLID
  5
2510
330
2158
100
AcDbEntity
  8
DIM
 62
     0
100
AcDbTrace
 10
0.6849696291309983
 20
11.47501353111984
 30
0.0
 11
0.7599696291309983
 21
11.47501353111984
 31
0.0
 12
0.7224696291309983
 22
11.25001353111984
 32
0.0
 13
0.7224696291309983
 23
11.25001353111984
 33
0.0
  0
MTEXT
  5
2511
330
2158
100
AcDbEntity
  8
DIM
 62
     0
100
AcDbMText
 10
0.7224696291309966
 20
14.10470103111975
 30
0.0
 40
0.15625
 41
0.0
 71
     5
 72
     1
  1
\A1;5.709
 73
     1
 44
1.0
  0
POINT
  5
2512
330
2158
100
AcDbEntity
  8
Defpoints
 62
     0
100
AcDbPoint
 10
3.005848013393276
 20
16.95938853111965
 30
0.0
  0
POINT
  5
2513
330
2158
100
AcDbEntity
  8
Defpoints
 62
     0
100
AcDbPoint
 10
3.005847833258414
 20
11.25001353111984
 30
0.0
  0
POINT
  5
2514
330
2158
100
AcDbEntity
  8
Defpoints
 62
     0
100
AcDbPoint
 10
0.7224696291309983
 20
11.25001353111984
 30
0.0
  0
ENDBLK
  5
2164
330
2158
100
AcDbEntity
  8
0
100
AcDbBlockEnd
  0
BLOCK
  5
2170
330
2165
100
AcDbEntity
  8
0
100
AcDbBlockBegin
  2
*D3
 70
     1
 10
0.0
 20
0.0
 30
0.0
  3
*D3
  1

  0
LINE
  5
251F
330
2165
100
AcDbEntity
  8
DIM
 62
     0
370
    -2
100
AcDbLine
 10
5.766913784367041
 20
16.89199341257368
 30
0.0
 11
5.766913784367041
 21
17.54889613181782
 31
0.0
  0
LINE
  5
2520
330
2165
100
AcDbEntity
  8
DIM
 62
     0
370
    -2
100
AcDbLine
 10
7.026913784367202
 20
16.82138956556387
 30
0.0
 11
7.026913784367202
 21
17.54889613181782
 31
0.0
  0
LINE
  5
2521
330
2165
100
AcDbEntity
  8
DIM
 62
     0
370
    -2
100
AcDbLine
 10
5.541913784367041
 20
17.43264613181781
 30
0.0
 11
5.316913784367041
 21
17.43264613181781
 31
0.0
  0
LINE
  5
2522
330
2165
100
AcDbEntity
  8
DIM
 62
     0
370
    -2
100
AcDbLine
 10
7.251913784367202
 20
17.43264613181781
 30
0.0
 11
7.476913784367202
 21
17.43264613181781
 31
0.0
  0
SOLID
  5
2523
330
2165
100
AcDbEntity
  8
DIM
 62
     0
100
AcDbTrace
 10
5.541913784367041
 20
17.47014613181782
 30
0.0
 11
5.541913784367041
 21
17.39514613181781
 31
0.0
 12
5.766913784367041
 22
17.43264613181781
 32
0.0
 13
5.766913784367041
 23
17.43264613181781
 33
0.0
  0
SOLID
  5
2524
330
2165
100
AcDbEntity
  8
DIM
 62
     0
100
AcDbTrace
 10
7.251913784367202
 20
17.47014613181782
 30
0.0
 11
7.251913784367202
 21
17.39514613181781
 31
0.0
 12
7.026913784367202
 22
17.43264613181781
 32
0.0
 13
7.026913784367202
 23
17.43264613181781
 33
0.0
  0
MTEXT
  5
2525
330
2165
100
AcDbEntity
  8
DIM
 62
     0
100
AcDbMText
 10
6.396913784367121
 20
17.43264613181781
 30
0.0
 40
0.15625
 41
0.0
 71
     5
 72
     1
  1
\A1;1.260
 73
     1
 44
1.0
  0
POINT
  5
2526
330
2165
100
AcDbEntity
  8
Defpoints
 62
     0
100
AcDbPoint
 10
5.766913784367041
 20
16.81324341257368
 30
0.0
  0
POINT
  5
2527
330
2165
100
AcDbEntity
  8
Defpoints
 62
     0
100
AcDbPoint
 10
7.026913784367202
 20
16.74263956556387
 30
0.0
  0
POINT
  5
2528
330
2165
100
AcDbEntity
  8
Defpoints
 62
     0
100
AcDbPoint
 10
7.026913784367202
 20
17.43264613181781
 30
0.0
  0
ENDBLK
  5
2171
330
2165
100
AcDbEntity
  8
0
100
AcDbBlockEnd
  0
BLOCK
  5
217D
330
2172
100
AcDbEntity
  8
0
100
AcDbBlockBegin
  2
*D4
 70
     1
 10
0.0
 20
0.0
 30
0.0
  3
*D4
  1

  0
LINE
  5
2515
330
2172
100
AcDbEntity
  8
DIM
 62
     0
370
    -2
100
AcDbLine
 10
1.726160513393367
 20
11.66345103111929
 30
0.0
 11
1.726160513393367
 21
10.71128028150364
 31
0.0
  0
LINE
  5
2516
330
2172
100
AcDbEntity
  8
DIM
 62
     0
370
    -2
100
AcDbLine
 10
4.285535513393298
 20
11.66345103111929
 30
0.0
 11
4.285535513393298
 21
10.71128028150364
 31
0.0
  0
LINE
  5
2517
330
2172
100
AcDbEntity
  8
DIM
 62
     0
370
    -2
100
AcDbLine
 10
1.951160513393367
 20
10.82753028150364
 30
0.0
 11
2.658973013393333
 21
10.82753028150364
 31
0.0
  0
LINE
  5
2518
330
2172
100
AcDbEntity
  8
DIM
 62
     0
370
    -2
100
AcDbLine
 10
4.060535513393299
 20
10.82753028150364
 30
0.0
 11
3.352723013393332
 21
10.82753028150364
 31
0.0
  0
SOLID
  5
2519
330
2172
100
AcDbEntity
  8
DIM
 62
     0
100
AcDbTrace
 10
1.951160513393367
 20
10.86503028150364
 30
0.0
 11
1.951160513393367
 21
10.79003028150364
 31
0.0
 12
1.726160513393367
 22
10.82753028150364
 32
0.0
 13
1.726160513393367
 23
10.82753028150364
 33
0.0
  0
SOLID
  5
251A
330
2172
100
AcDbEntity
  8
DIM
 62
     0
100
AcDbTrace
 10
4.060535513393299
 20
10.86503028150364
 30
0.0
 11
4.060535513393299
 21
10.79003028150364
 31
0.0
 12
4.285535513393298
 22
10.82753028150364
 32
0.0
 13
4.285535513393298
 23
10.82753028150364
 33
0.0
  0
MTEXT
  5
251B
330
2172
100
AcDbEntity
  8
DIM
 62
     0
100
AcDbMText
 10
3.005848013393332
 20
10.82753028150364
 30
0.0
 40
0.15625
 41
0.0
 71
     5
 72
     1
  1
\A1;2.559
 73
     1
 44
1.0
  0
POINT
  5
251C
330
2172
100
AcDbEntity
  8
Defpoints
 62
     0
100
AcDbPoint
 10
1.726160513393367
 20
11.74220103111929
 30
0.0
  0
POINT
  5
251D
330
2172
100
AcDbEntity
  8
Defpoints
 62
     0
100
AcDbPoint
 10
4.285535513393298
 20
11.74220103111929
 30
0.0
  0
POINT
  5
251E
330
2172
100
AcDbEntity
  8
Defpoints
 62
     0
100
AcDbPoint
 10
4.285535513393298
 20
10.82753028150364
 30
0.0
  0
ENDBLK
  5
217E
330
2172
100
AcDbEntity
  8
0
100
AcDbBlockEnd
  0
BLOCK
  5
218A
330
217F
100
AcDbEntity
  8
0
100
AcDbBlockBegin
  2
*D5
 70
     1
 10
0.0
 20
0.0
 30
0.0
  3
*D5
  1

  0
LINE
  5
24F7
330
217F
100
AcDbEntity
  8
DIM
 62
     0
370
    -2
100
AcDbLine
 10
4.364285513393299
 20
11.74220103111929
 30
0.0
 11
5.351900085946459
 21
11.74220103111929
 31
0.0
  0
LINE
  5
24F8
330
217F
100
AcDbEntity
  8
DIM
 62
     0
370
    -2
100
AcDbLine
 10
4.364285513393299
 20
16.46720103111965
 30
0.0
 11
5.35190008594646
 21
16.46720103111965
 31
0.0
  0
LINE
  5
24F9
330
217F
100
AcDbEntity
  8
DIM
 62
     0
370
    -2
100
AcDbLine
 10
5.235650085946459
 20
11.96720103111929
 30
0.0
 11
5.235650085946459
 21
13.91407603111947
 31
0.0
  0
LINE
  5
24FA
330
217F
100
AcDbEntity
  8
DIM
 62
     0
370
    -2
100
AcDbLine
 10
5.23565008594646
 20
16.24220103111965
 30
0.0
 11
5.23565008594646
 21
14.29532603111947
 31
0.0
  0
SOLID
  5
24FB
330
217F
100
AcDbEntity
  8
DIM
 62
     0
100
AcDbTrace
 10
5.198150085946459
 20
11.96720103111929
 30
0.0
 11
5.273150085946459
 21
11.96720103111929
 31
0.0
 12
5.235650085946459
 22
11.74220103111929
 32
0.0
 13
5.235650085946459
 23
11.74220103111929
 33
0.0
  0
SOLID
  5
24FC
330
217F
100
AcDbEntity
  8
DIM
 62
     0
100
AcDbTrace
 10
5.19815008594646
 20
16.24220103111965
 30
0.0
 11
5.273150085946459
 21
16.24220103111965
 31
0.0
 12
5.23565008594646
 22
16.46720103111965
 32
0.0
 13
5.23565008594646
 23
16.46720103111965
 33
0.0
  0
MTEXT
  5
24FD
330
217F
100
AcDbEntity
  8
DIM
 62
     0
100
AcDbMText
 10
5.235650085946457
 20
14.10470103111947
 30
0.0
 40
0.15625
 41
0.0
 71
     5
 72
     1
  1
\A1;4.725
 73
     1
 44
1.0
  0
POINT
  5
24FE
330
217F
100
AcDbEntity
  8
Defpoints
 62
     0
100
AcDbPoint
 10
4.285535513393298
 20
11.74220103111929
 30
0.0
  0
POINT
  5
24FF
330
217F
100
AcDbEntity
  8
Defpoints
 62
     0
100
AcDbPoint
 10
4.285535513393298
 20
16.46720103111965
 30
0.0
  0
POINT
  5
2500
330
217F
100
AcDbEntity
  8
Defpoints
 62
     0
100
AcDbPoint
 10
5.23565008594646
 20
16.46720103111965
 30
0.0
  0
ENDBLK
  5
218B
330
217F
100
AcDbEntity
  8
0
100
AcDbBlockEnd
  0
BLOCK
  5
2197
330
218C
100
AcDbEntity
  8
0
100
AcDbBlockBegin
  2
*D6
 70
     1
 10
0.0
 20
0.0
 30
0.0
  3
*D6
  1

  0
LINE
  5
24E3
330
218C
100
AcDbEntity
  8
DIM
 62
     0
370
    -2
100
AcDbLine
 10
11.08245992544573
 20
4.978701894089311
 30
0.0
 11
12.78032336875349
 21
4.978701894089311
 31
0.0
  0
LINE
  5
24E4
330
218C
100
AcDbEntity
  8
DIM
 62
     0
370
    -2
100
AcDbLine
 10
11.08245987575332
 20
6.553701824520061
 30
0.0
 11
12.78032336875349
 21
6.553701824520061
 31
0.0
  0
LINE
  5
24E5
330
218C
100
AcDbEntity
  8
DIM
 62
     0
370
    -2
100
AcDbLine
 10
12.66407336875349
 20
5.203701894089311
 30
0.0
 11
12.66407336875349
 21
5.575576859304686
 31
0.0
  0
LINE
  5
24E6
330
218C
100
AcDbEntity
  8
DIM
 62
     0
370
    -2
100
AcDbLine
 10
12.66407336875349
 20
6.328701824520061
 30
0.0
 11
12.66407336875349
 21
5.956826859304686
 31
0.0
  0
SOLID
  5
24E7
330
218C
100
AcDbEntity
  8
DIM
 62
     0
100
AcDbTrace
 10
12.62657336875349
 20
5.203701894089311
 30
0.0
 11
12.70157336875349
 21
5.203701894089311
 31
0.0
 12
12.66407336875349
 22
4.978701894089311
 32
0.0
 13
12.66407336875349
 23
4.978701894089311
 33
0.0
  0
SOLID
  5
24E8
330
218C
100
AcDbEntity
  8
DIM
 62
     0
100
AcDbTrace
 10
12.62657336875349
 20
6.328701824520061
 30
0.0
 11
12.70157336875349
 21
6.328701824520061
 31
0.0
 12
12.66407336875349
 22
6.553701824520061
 32
0.0
 13
12.66407336875349
 23
6.553701824520061
 33
0.0
  0
MTEXT
  5
24E9
330
218C
100
AcDbEntity
  8
DIM
 62
     0
100
AcDbMText
 10
12.66407336875349
 20
5.766201859304688
 30
0.0
 40
0.15625
 41
0.0
 71
     5
 72
     1
  1
\A1;1.575
 73
     1
 44
1.0
  0
POINT
  5
24EA
330
218C
100
AcDbEntity
  8
Defpoints
 62
     0
100
AcDbPoint
 10
11.00370992544573
 20
4.978701894089311
 30
0.0
  0
POINT
  5
24EB
330
218C
100
AcDbEntity
  8
Defpoints
 62
     0
100
AcDbPoint
 10
11.00370987575333
 20
6.553701824520061
 30
0.0
  0
POINT
  5
24EC
330
218C
100
AcDbEntity
  8
Defpoints
 62
     0
100
AcDbPoint
 10
12.66407336875349
 20
6.553701824520061
 30
0.0
  0
ENDBLK
  5
2198
330
218C
100
AcDbEntity
  8
0
100
AcDbBlockEnd
  0
BLOCK
  5
21A4
330
2199
100
AcDbEntity
  8
0
100
AcDbBlockBegin
  2
*D7
 70
     1
 10
0.0
 20
0.0
 30
0.0
  3
*D7
  1

  0
LINE
  5
24ED
330
2199
100
AcDbEntity
  8
DIM
 62
     0
370
    -2
100
AcDbLine
 10
8.798709875753402
 20
6.632451824520061
 30
0.0
 11
8.798709875753402
 21
8.030685269894249
 31
0.0
  0
LINE
  5
24EE
330
2199
100
AcDbEntity
  8
DIM
 62
     0
370
    -2
100
AcDbLine
 10
11.00370987575333
 20
6.632451824520061
 30
0.0
 11
11.00370987575333
 21
8.030685269894249
 31
0.0
  0
LINE
  5
24EF
330
2199
100
AcDbEntity
  8
DIM
 62
     0
370
    -2
100
AcDbLine
 10
9.023709875753402
 20
7.914435269894248
 30
0.0
 11
9.564100500753365
 21
7.914435269894248
 31
0.0
  0
LINE
  5
24F0
330
2199
100
AcDbEntity
  8
DIM
 62
     0
370
    -2
100
AcDbLine
 10
10.77870987575333
 20
7.914435269894248
 30
0.0
 11
10.23831925075336
 21
7.914435269894248
 31
0.0
  0
SOLID
  5
24F1
330
2199
100
AcDbEntity
  8
DIM
 62
     0
100
AcDbTrace
 10
9.023709875753402
 20
7.951935269894248
 30
0.0
 11
9.023709875753402
 21
7.876935269894248
 31
0.0
 12
8.798709875753402
 22
7.914435269894248
 32
0.0
 13
8.798709875753402
 23
7.914435269894248
 33
0.0
  0
SOLID
  5
24F2
330
2199
100
AcDbEntity
  8
DIM
 62
     0
100
AcDbTrace
 10
10.77870987575333
 20
7.951935269894248
 30
0.0
 11
10.77870987575333
 21
7.876935269894248
 31
0.0
 12
11.00370987575333
 22
7.914435269894248
 32
0.0
 13
11.00370987575333
 23
7.914435269894248
 33
0.0
  0
MTEXT
  5
24F3
330
2199
100
AcDbEntity
  8
DIM
 62
     0
100
AcDbMText
 10
9.901209875753366
 20
7.914435269894248
 30
0.0
 40
0.15625
 41
0.0
 71
     5
 72
     1
  1
\A1;2.205
 73
     1
 44
1.0
  0
POINT
  5
24F4
330
2199
100
AcDbEntity
  8
Defpoints
 62
     0
100
AcDbPoint
 10
8.798709875753402
 20
6.553701824520061
 30
0.0
  0
POINT
  5
24F5
330
2199
100
AcDbEntity
  8
Defpoints
 62
     0
100
AcDbPoint
 10
11.00370987575333
 20
6.553701824520061
 30
0.0
  0
POINT
  5
24F6
330
2199
100
AcDbEntity
  8
Defpoints
 62
     0
100
AcDbPoint
 10
11.00370987575333
 20
7.914435269894248
 30
0.0
  0
ENDBLK
  5
21A5
330
2199
100
AcDbEntity
  8
0
100
AcDbBlockEnd
  0
BLOCK
  5
21B1
330
21A6
100
AcDbEntity
  8
0
100
AcDbBlockBegin
  2
*D8
 70
     1
 10
0.0
 20
0.0
 30
0.0
  3
*D8
  1

  0
LINE
  5
24C5
330
21A6
100
AcDbEntity
  8
DIM
 62
     0
370
    -2
100
AcDbLine
 10
6.743413784367177
 20
6.376514324520242
 30
0.0
 11
6.743413784367177
 21
5.842467918971061
 31
0.0
  0
LINE
  5
24C6
330
21A6
100
AcDbEntity
  8
DIM
 62
     0
370
    -2
100
AcDbLine
 10
6.94028878436724
 20
5.910788454393673
 30
0.0
 11
6.94028878436724
 21
5.842467918971061
 31
0.0
  0
LINE
  5
24C7
330
21A6
100
AcDbEntity
  8
DIM
 62
     0
370
    -2
100
AcDbLine
 10
6.518413784367178
 20
5.958717918971061
 30
0.0
 11
6.293413784367177
 21
5.958717918971061
 31
0.0
  0
LINE
  5
24C8
330
21A6
100
AcDbEntity
  8
DIM
 62
     0
370
    -2
100
AcDbLine
 10
7.165288784367239
 20
5.958717918971061
 30
0.0
 11
7.39028878436724
 21
5.958717918971061
 31
0.0
  0
SOLID
  5
24C9
330
21A6
100
AcDbEntity
  8
DIM
 62
     0
100
AcDbTrace
 10
6.518413784367178
 20
5.99621791897106
 30
0.0
 11
6.518413784367178
 21
5.921217918971061
 31
0.0
 12
6.743413784367177
 22
5.958717918971061
 32
0.0
 13
6.743413784367177
 23
5.958717918971061
 33
0.0
  0
SOLID
  5
24CA
330
21A6
100
AcDbEntity
  8
DIM
 62
     0
100
AcDbTrace
 10
7.165288784367239
 20
5.99621791897106
 30
0.0
 11
7.165288784367239
 21
5.921217918971061
 31
0.0
 12
6.94028878436724
 22
5.958717918971061
 32
0.0
 13
6.94028878436724
 23
5.958717918971061
 33
0.0
  0
MTEXT
  5
24CB
330
21A6
100
AcDbEntity
  8
DIM
 62
     0
100
AcDbMText
 10
7.70786690936724
 20
5.958717918971061
 30
0.0
 40
0.15625
 41
0.0
 71
     5
 72
     1
  1
\A1;0.197
 73
     1
 44
1.0
  0
POINT
  5
24CC
330
21A6
100
AcDbEntity
  8
Defpoints
 62
     0
100
AcDbPoint
 10
6.743413784367177
 20
6.455264324520243
 30
0.0
  0
POINT
  5
24CD
330
21A6
100
AcDbEntity
  8
Defpoints
 62
     0
100
AcDbPoint
 10
6.94028878436724
 20
5.989538454393673
 30
0.0
  0
POINT
  5
24CE
330
21A6
100
AcDbEntity
  8
Defpoints
 62
     0
100
AcDbPoint
 10
6.94028878436724
 20
5.958717918971061
 30
0.0
  0
ENDBLK
  5
21B2
330
21A6
100
AcDbEntity
  8
0
100
AcDbBlockEnd
  0
BLOCK
  5
22E1
330
22D6
100
AcDbEntity
  8
0
100
AcDbBlockBegin
  2
*D9
 70
     1
 10
0.0
 20
0.0
 30
0.0
  3
*D9
  1

  0
LINE
  5
24D9
330
22D6
100
AcDbEntity
  8
DIM
 62
     0
370
    -2
100
AcDbLine
 10
11.77115783687872
 20
4.584951824520061
 30
0.0
 11
12.2956865043813
 21
4.584951824520061
 31
0.0
  0
LINE
  5
24DA
330
22D6
100
AcDbEntity
  8
DIM
 62
     0
370
    -2
100
AcDbLine
 10
11.08245992544573
 20
4.978701894089311
 30
0.0
 11
12.2956865043813
 21
4.978701894089311
 31
0.0
  0
LINE
  5
24DB
330
22D6
100
AcDbEntity
  8
DIM
 62
     0
370
    -2
100
AcDbLine
 10
12.1794365043813
 20
4.359951824520061
 30
0.0
 11
12.1794365043813
 21
4.134951824520061
 31
0.0
  0
LINE
  5
24DC
330
22D6
100
AcDbEntity
  8
DIM
 62
     0
370
    -2
100
AcDbLine
 10
12.1794365043813
 20
5.203701894089311
 30
0.0
 11
12.1794365043813
 21
5.428701894089312
 31
0.0
  0
SOLID
  5
24DD
330
22D6
100
AcDbEntity
  8
DIM
 62
     0
100
AcDbTrace
 10
12.1419365043813
 20
4.359951824520061
 30
0.0
 11
12.2169365043813
 21
4.359951824520061
 31
0.0
 12
12.1794365043813
 22
4.584951824520061
 32
0.0
 13
12.1794365043813
 23
4.584951824520061
 33
0.0
  0
SOLID
  5
24DE
330
22D6
100
AcDbEntity
  8
DIM
 62
     0
100
AcDbTrace
 10
12.1419365043813
 20
5.203701894089311
 30
0.0
 11
12.2169365043813
 21
5.203701894089311
 31
0.0
 12
12.1794365043813
 22
4.978701894089311
 32
0.0
 13
12.1794365043813
 23
4.978701894089311
 33
0.0
  0
MTEXT
  5
24DF
330
22D6
100
AcDbEntity
  8
DIM
 62
     0
100
AcDbMText
 10
12.1794365043813
 20
4.781826859304688
 30
0.0
 40
0.15625
 41
0.0
 71
     5
 72
     1
  1
\A1;0.394
 73
     1
 44
1.0
  0
POINT
  5
24E0
330
22D6
100
AcDbEntity
  8
Defpoints
 62
     0
100
AcDbPoint
 10
11.69240783687872
 20
4.584951824520061
 30
0.0
  0
POINT
  5
24E1
330
22D6
100
AcDbEntity
  8
Defpoints
 62
     0
100
AcDbPoint
 10
11.00370992544573
 20
4.978701894089311
 30
0.0
  0
POINT
  5
24E2
330
22D6
100
AcDbEntity
  8
Defpoints
 62
     0
100
AcDbPoint
 10
12.1794365043813
 20
4.978701894089311
 30
0.0
  0
ENDBLK
  5
22E2
330
22D6
100
AcDbEntity
  8
0
100
AcDbBlockEnd
  0
BLOCK
  5
2302
330
22F7
100
AcDbEntity
  8
0
100
AcDbBlockBegin
  2
*D10
 70
     1
 10
0.0
 20
0.0
 30
0.0
  3
*D10
  1

  0
LINE
  5
24CF
330
22F7
100
AcDbEntity
  8
DIM
 62
     0
370
    -2
100
AcDbLine
 10
11.08245992544573
 20
4.978701894089311
 30
0.0
 11
12.78032336875349
 21
4.978701894089311
 31
0.0
  0
LINE
  5
24D0
330
22F7
100
AcDbEntity
  8
DIM
 62
     0
370
    -2
100
AcDbLine
 10
11.08245992544573
 20
2.616701894089311
 30
0.0
 11
12.78032336875349
 21
2.616701894089311
 31
0.0
  0
LINE
  5
24D1
330
22F7
100
AcDbEntity
  8
DIM
 62
     0
370
    -2
100
AcDbLine
 10
12.66407336875349
 20
4.753701894089312
 30
0.0
 11
12.66407336875349
 21
3.988326894089311
 31
0.0
  0
LINE
  5
24D2
330
22F7
100
AcDbEntity
  8
DIM
 62
     0
370
    -2
100
AcDbLine
 10
12.66407336875349
 20
2.841701894089311
 30
0.0
 11
12.66407336875349
 21
3.607076894089312
 31
0.0
  0
SOLID
  5
24D3
330
22F7
100
AcDbEntity
  8
DIM
 62
     0
100
AcDbTrace
 10
12.62657336875349
 20
4.753701894089312
 30
0.0
 11
12.70157336875349
 21
4.753701894089312
 31
0.0
 12
12.66407336875349
 22
4.978701894089311
 32
0.0
 13
12.66407336875349
 23
4.978701894089311
 33
0.0
  0
SOLID
  5
24D4
330
22F7
100
AcDbEntity
  8
DIM
 62
     0
100
AcDbTrace
 10
12.62657336875349
 20
2.841701894089311
 30
0.0
 11
12.70157336875349
 21
2.841701894089311
 31
0.0
 12
12.66407336875349
 22
2.616701894089311
 32
0.0
 13
12.66407336875349
 23
2.616701894089311
 33
0.0
  0
MTEXT
  5
24D5
330
22F7
100
AcDbEntity
  8
DIM
 62
     0
100
AcDbMText
 10
12.66407336875349
 20
3.797701894089313
 30
0.0
 40
0.15625
 41
0.0
 71
     5
 72
     1
  1
\A1;2.362
 73
     1
 44
1.0
  0
POINT
  5
24D6
330
22F7
100
AcDbEntity
  8
Defpoints
 62
     0
100
AcDbPoint
 10
11.00370992544573
 20
4.978701894089311
 30
0.0
  0
POINT
  5
24D7
330
22F7
100
AcDbEntity
  8
Defpoints
 62
     0
100
AcDbPoint
 10
11.00370992544573
 20
2.616701894089311
 30
0.0
  0
POINT
  5
24D8
330
22F7
100
AcDbEntity
  8
Defpoints
 62
     0
100
AcDbPoint
 10
12.66407336875349
 20
2.616701894089311
 30
0.0
  0
ENDBLK
  5
2303
330
22F7
100
AcDbEntity
  8
0
100
AcDbBlockEnd
  0
BLOCK
  5
3775
330
376A
100
AcDbEntity
  8
0
100
AcDbBlockBegin
  2
*D11
 70
     1
 10
0.0
 20
0.0
 30
0.0
  3
*D11
  1

  0
LINE
  5
3781
330
376A
100
AcDbEntity
  8
DIM
 62
     0
370
    -2
100
AcDbLine
 10
6.940288784367155
 20
3.564526200480059
 30
0.0
 11
6.940288784367155
 21
3.499304952731329
 31
0.0
  0
LINE
  5
3782
330
376A
100
AcDbEntity
  8
DIM
 62
     0
370
    -2
100
AcDbLine
 10
7.026913784367181
 20
3.564526200480059
 30
0.0
 11
7.026913784367181
 21
3.499304952731329
 31
0.0
  0
LINE
  5
3783
330
376A
100
AcDbEntity
  8
DIM
 62
     0
370
    -2
100
AcDbLine
 10
6.715288784367155
 20
3.615554952731329
 30
0.0
 11
6.490288784367154
 21
3.615554952731329
 31
0.0
  0
LINE
  5
3784
330
376A
100
AcDbEntity
  8
DIM
 62
     0
370
    -2
100
AcDbLine
 10
7.251913784367181
 20
3.615554952731329
 30
0.0
 11
7.476913784367181
 21
3.615554952731329
 31
0.0
  0
SOLID
  5
3785
330
376A
100
AcDbEntity
  8
DIM
 62
     0
100
AcDbTrace
 10
6.715288784367155
 20
3.653054952731329
 30
0.0
 11
6.715288784367155
 21
3.578054952731329
 31
0.0
 12
6.940288784367155
 22
3.615554952731329
 32
0.0
 13
6.940288784367155
 23
3.615554952731329
 33
0.0
  0
SOLID
  5
3786
330
376A
100
AcDbEntity
  8
DIM
 62
     0
100
AcDbTrace
 10
7.251913784367181
 20
3.653054952731329
 30
0.0
 11
7.251913784367181
 21
3.578054952731329
 31
0.0
 12
7.026913784367181
 22
3.615554952731329
 32
0.0
 13
7.026913784367181
 23
3.615554952731329
 33
0.0
  0
MTEXT
  5
3787
330
376A
100
AcDbEntity
  8
DIM
 62
     0
100
AcDbMText
 10
7.804257534367181
 20
3.615554952731329
 30
0.0
 40
0.15625
 41
0.0
 71
     5
 72
     1
  1
\A1;0.087
 73
     1
 44
1.0
  0
POINT
  5
3788
330
376A
100
AcDbEntity
  8
Defpoints
 62
     0
100
AcDbPoint
 10
6.940288784367155
 20
3.643276200480059
 30
0.0
  0
POINT
  5
3789
330
376A
100
AcDbEntity
  8
Defpoints
 62
     0
100
AcDbPoint
 10
7.026913784367181
 20
3.643276200480059
 30
0.0
  0
POINT
  5
378A
330
376A
100
AcDbEntity
  8
Defpoints
 62
     0
100
AcDbPoint
 10
7.026913784367181
 20
3.615554952731329
 30
0.0
  0
ENDBLK
  5
3776
330
376A
100
AcDbEntity
  8
0
100
AcDbBlockEnd
  0
BLOCK
  5
46BC
330
46B1
100
AcDbEntity
  8
0
100
AcDbBlockBegin
  2
*D12
 70
     1
 10
0.0
 20
0.0
 30
0.0
  3
*D12
  1

  0
LINE
  5
46DC
330
46B1
100
AcDbEntity
  8
DIM
 62
     0
370
    -2
100
AcDbLine
 10
6.357538784367122
 20
7.451451824520476
 30
0.0
 11
6.357538784367122
 21
8.025921328382395
 31
0.0
  0
LINE
  5
46DD
330
46B1
100
AcDbEntity
  8
DIM
 62
     0
370
    -2
100
AcDbLine
 10
7.026913784367204
 20
7.301640358964463
 30
0.0
 11
7.026913784367204
 21
8.025921328382395
 31
0.0
  0
LINE
  5
46DE
330
46B1
100
AcDbEntity
  8
DIM
 62
     0
370
    -2
100
AcDbLine
 10
6.132538784367122
 20
7.909671328382394
 30
0.0
 11
5.907538784367122
 21
7.909671328382394
 31
0.0
  0
LINE
  5
46DF
330
46B1
100
AcDbEntity
  8
DIM
 62
     0
370
    -2
100
AcDbLine
 10
7.251913784367204
 20
7.909671328382394
 30
0.0
 11
7.476913784367204
 21
7.909671328382394
 31
0.0
  0
SOLID
  5
46E0
330
46B1
100
AcDbEntity
  8
DIM
 62
     0
100
AcDbTrace
 10
6.132538784367122
 20
7.947171328382394
 30
0.0
 11
6.132538784367122
 21
7.872171328382394
 31
0.0
 12
6.357538784367122
 22
7.909671328382394
 32
0.0
 13
6.357538784367122
 23
7.909671328382394
 33
0.0
  0
SOLID
  5
46E1
330
46B1
100
AcDbEntity
  8
DIM
 62
     0
100
AcDbTrace
 10
7.251913784367204
 20
7.947171328382394
 30
0.0
 11
7.251913784367204
 21
7.872171328382394
 31
0.0
 12
7.026913784367204
 22
7.909671328382394
 32
0.0
 13
7.026913784367204
 23
7.909671328382394
 33
0.0
  0
MTEXT
  5
46E2
330
46B1
100
AcDbEntity
  8
DIM
 62
     0
100
AcDbMText
 10
6.692226284367163
 20
7.909671328382394
 30
0.0
 40
0.15625
 41
0.0
 71
     5
 72
     1
  1
\A1;0.669
 73
     1
 44
1.0
  0
POINT
  5
46E3
330
46B1
100
AcDbEntity
  8
Defpoints
 62
     0
100
AcDbPoint
 10
6.357538784367122
 20
7.372701824520476
 30
0.0
  0
POINT
  5
46E4
330
46B1
100
AcDbEntity
  8
Defpoints
 62
     0
100
AcDbPoint
 10
7.026913784367204
 20
7.222890358964463
 30
0.0
  0
POINT
  5
46E5
330
46B1
100
AcDbEntity
  8
Defpoints
 62
     0
100
AcDbPoint
 10
7.026913784367204
 20
7.909671328382394
 30
0.0
  0
ENDBLK
  5
46BD
330
46B1
100
AcDbEntity
  8
0
100
AcDbBlockEnd
  0
ENDSEC
  0
SECTION
  2
ENTITIES
  0
MTEXT
  5
82F
330
1E
100
AcDbEntity
  8
0
 62
     1
100
AcDbMText
 10
340.9770380334069
 20
144.948411974741
 30
0.0
 40
4.0
 41
0.0
 71
     9
 72
     1
  1

  7
Standard
 73
     1
 44
1.0
1001
ACAD
1000
MTEXTBEGIN
1070
    73
1070
     1
1070
    44
1040
1.0
1070
    74
1070
     0
1000
MTEXTEND
  0
MTEXT
  5
830
330
1E
100
AcDbEntity
  8
\M+2BBB2\M+2A755\M+2BD75
 62
     1
100
AcDbMText
 10
-4442.163630678289
 20
4205.20336559495
 30
0.0
 40
3.5
 41
0.0
 71
     1
 72
     1
  1

  7
Standard
 73
     1
 44
1.0
1001
ACAD
1000
MTEXTBEGIN
1070
    73
1070
     1
1070
    44
1040
1.0
1070
    74
1070
     0
1000
MTEXTEND
  0
DIMENSION
  5
1CC2
330
1E
100
AcDbEntity
  8
DIM
100
AcDbDimension
  2
*D8
 10
6.94028878436724
 20
5.958717918971061
 30
0.0
 11
7.70786690936724
 21
5.958717918971061
 31
0.0
 70
    32
 71
     5
 42
0.1968750000000625
  3
23NSTD
100
AcDbAlignedDimension
 13
6.743413784367177
 23
6.455264324520243
 33
0.0
 14
6.94028878436724
 24
5.989538454393673
 34
0.0
100
AcDbRotatedDimension
  0
DIMENSION
  5
1CC3
330
1E
100
AcDbEntity
  8
DIM
100
AcDbDimension
  2
*D3
 10
7.026913784367202
 20
17.43264613181781
 30
0.0
 11
6.396913784367121
 21
17.43264613181781
 31
0.0
 70
    32
 71
     5
 42
1.260000000000161
  3
23NSTDI
100
AcDbAlignedDimension
 13
5.766913784367041
 23
16.81324341257368
 33
0.0
 14
7.026913784367202
 24
16.74263956556387
 34
0.0
100
AcDbRotatedDimension
  0
INSERT
  5
1CC4
330
1E
100
AcDbEntity
  8
OBJECT
100
AcDbBlockReference
  2
HB
 10
0.0
 20
0.0
 30
0.0
 41
1.25
 42
1.25
 43
1.25
  0
LINE
  5
1CC7
330
1E
100
AcDbEntity
  8
OBJECT
100
AcDbLine
 10
5.766913784367076
 20
16.1718885311202
 30
0.0
 11
6.416601284367104
 21
16.1718885311202
 31
0.0
  0
LINE
  5
1CC8
330
1E
100
AcDbEntity
  8
OBJECT
100
AcDbLine
 10
5.767382537024374
 20
15.97501353111965
 30
0.0
 11
6.416601284367104
 21
15.97501353111965
 31
0.0
  0
LINE
  5
1CC9
330
1E
100
AcDbEntity
  8
OBJECT
100
AcDbLine
 10
5.769245388617761
 20
15.77813853112002
 30
0.0
 11
6.416601284367104
 21
15.77813853112002
 31
0.0
  0
LINE
  5
1CCA
330
1E
100
AcDbEntity
  8
OBJECT
100
AcDbLine
 10
5.771430676460155
 20
15.58126353111947
 30
0.0
 11
6.416601284367104
 21
15.58126353111947
 31
0.0
  0
LINE
  5
1CCB
330
1E
100
AcDbEntity
  8
OBJECT
100
AcDbLine
 10
5.776020219192488
 20
15.38438853111983
 30
0.0
 11
6.416601284367104
 21
15.38438853111983
 31
0.0
  0
LINE
  5
1CCC
330
1E
100
AcDbEntity
  8
OBJECT
100
AcDbLine
 10
5.779954585703464
 20
15.1875135311202
 30
0.0
 11
6.416601284367104
 21
15.1875135311202
 31
0.0
  0
LINE
  5
1CCD
330
1E
100
AcDbEntity
  8
OBJECT
100
AcDbLine
 10
5.787168724841123
 20
14.99063853111965
 30
0.0
 11
6.416601284367104
 21
14.99063853111965
 31
0.0
  0
LINE
  5
1CCE
330
1E
100
AcDbEntity
  8
OBJECT
100
AcDbLine
 10
5.792853626014832
 20
14.79376353112002
 30
0.0
 11
6.416601284367104
 21
14.79376353112002
 31
0.0
  0
LINE
  5
1CCF
330
1E
100
AcDbEntity
  8
OBJECT
100
AcDbLine
 10
5.797062749250514
 20
14.59666053846922
 30
0.0
 11
6.416601284367104
 21
14.59666053846922
 31
0.0
  0
LINE
  5
1CD0
330
1E
100
AcDbEntity
  8
OBJECT
100
AcDbLine
 10
5.804500291758969
 20
14.39978553846867
 30
0.0
 11
6.416601284367104
 21
14.39978553846867
 31
0.0
  0
LINE
  5
1CD1
330
1E
100
AcDbEntity
  8
OBJECT
100
AcDbLine
 10
5.814011187077355
 20
14.20270859295669
 30
0.0
 11
6.416601284367104
 21
14.20270859295669
 31
0.0
  0
LINE
  5
1CD2
330
1E
100
AcDbEntity
  8
OBJECT
100
AcDbLine
 10
5.82320413218251
 20
14.00583359295615
 30
0.0
 11
6.416601284367104
 21
14.00583359295615
 31
0.0
  0
LINE
  5
1CD3
330
1E
100
AcDbEntity
  8
OBJECT
100
AcDbLine
 10
5.834727936093756
 20
13.80866279456222
 30
0.0
 11
6.416601284367104
 21
13.80866279456222
 31
0.0
  0
LINE
  5
1CD4
330
1E
100
AcDbEntity
  8
OBJECT
100
AcDbLine
 10
5.845679704790015
 20
13.61178779456258
 30
0.0
 11
6.416601284367104
 21
13.61178779456258
 31
0.0
  0
LINE
  5
1CD5
330
1E
100
AcDbEntity
  8
OBJECT
100
AcDbLine
 10
5.871937195685788
 20
13.21876353111929
 30
0.0
 11
6.416601284367217
 21
13.21876353111929
 31
0.0
  0
LINE
  5
1CD6
330
1E
100
AcDbEntity
  8
OBJECT
100
AcDbLine
 10
5.859222516274073
 20
13.41563853111984
 30
0.0
 11
6.416601284367217
 21
13.41563853111984
 31
0.0
  0
LINE
  5
1CD7
330
1E
100
AcDbEntity
  8
OBJECT
100
AcDbLine
 10
5.887216340760502
 20
13.02134862353705
 30
0.0
 11
6.416601284367217
 21
13.02134862353705
 31
0.0
  0
LINE
  5
1CD8
330
1E
100
AcDbEntity
  8
OBJECT
100
AcDbLine
 10
5.901988554685473
 20
12.82447575750575
 30
0.0
 11
6.416601284367217
 21
12.82447575750575
 31
0.0
  0
LINE
  5
1CD9
330
1E
100
AcDbEntity
  8
OBJECT
100
AcDbLine
 10
5.935847518564898
 20
12.43003965475236
 30
0.0
 11
6.416601284367217
 21
12.43003965475236
 31
0.0
  0
LINE
  5
1CDA
330
1E
100
AcDbEntity
  8
OBJECT
100
AcDbLine
 10
5.919592052121785
 20
12.6269146547529
 30
0.0
 11
6.416601284367217
 21
12.6269146547529
 31
0.0
  0
LINE
  5
1CDB
330
1E
100
AcDbEntity
  8
OBJECT
100
AcDbLine
 10
5.955494919236159
 20
12.23231183040297
 30
0.0
 11
6.416601284367217
 21
12.23231183040297
 31
0.0
  0
LINE
  5
1CDC
330
1E
100
AcDbEntity
  8
OBJECT
100
AcDbLine
 10
5.973529637950761
 20
12.03543683040334
 30
0.0
 11
6.416601284367217
 21
12.03543683040334
 31
0.0
  0
LINE
  5
1CDD
330
1E
100
AcDbEntity
  8
OBJECT
100
AcDbLine
 10
6.416601284367104
 20
11.2500135311202
 30
0.0
 11
6.158119665838441
 21
11.2635599787327
 31
0.0
  0
LINE
  5
1CDE
330
1E
100
AcDbEntity
  8
OBJECT
100
AcDbLine
 10
6.416601284367104
 20
16.95938853111965
 30
0.0
 11
5.878856599535808
 21
16.93120652636662
 31
0.0
  0
LINE
  5
1CDF
330
1E
100
AcDbEntity
  8
OBJECT
100
AcDbLine
 10
6.416601284367217
 20
1.730264324520788
 30
0.0
 11
6.158119665838555
 21
1.743810772133286
 31
0.0
  0
LINE
  5
1CE0
330
1E
100
AcDbEntity
  8
HIDDEN
100
AcDbLine
 10
6.388913784367147
 20
2.147821291985195
 30
0.0
 11
6.073038784367208
 21
2.147821291985195
 31
0.0
  0
LINE
  5
1CE1
330
1E
100
AcDbEntity
  8
HIDDEN
100
AcDbLine
 10
6.388913784367147
 20
2.060821291985661
 30
0.0
 11
6.073038784367208
 21
2.060821291985661
 31
0.0
  0
LINE
  5
1CE2
330
1E
100
AcDbEntity
  8
OBJECT
100
AcDbLine
 10
6.113666450101774
 20
2.222571291984962
 30
0.0
 11
6.416601284367217
 21
2.222571291984962
 31
0.0
  0
LINE
  5
1CE3
330
1E
100
AcDbEntity
  8
OBJECT
100
AcDbLine
 10
6.117896480203214
 20
1.986321291985035
 30
0.0
 11
6.416601284367217
 21
1.986321291985035
 31
0.0
  0
LINE
  5
1CE4
330
1E
100
AcDbEntity
  8
OBJECT
100
AcDbLine
 10
6.388913784367034
 20
6.903951786312603
 30
0.0
 11
5.916663784367091
 21
6.903951786312603
 31
0.0
  0
LINE
  5
1CE5
330
1E
100
AcDbEntity
  8
OBJECT
100
AcDbLine
 10
6.388913784367034
 20
6.990951786312137
 30
0.0
 11
5.916663784367091
 21
6.990951786312137
 31
0.0
  0
LINE
  5
1CE6
330
1E
100
AcDbEntity
  8
OBJECT
100
AcDbLine
 10
5.853538784367103
 20
7.065576786312334
 30
0.0
 11
6.416601284367104
 21
7.065576786312334
 31
0.0
  0
LINE
  5
1CE7
330
1E
100
AcDbEntity
  8
OBJECT
100
AcDbLine
 10
5.881264475443273
 20
6.829326786312407
 30
0.0
 11
6.416601284367217
 21
6.829326786312407
 31
0.0
  0
LINE
  5
1CE8
330
1E
100
AcDbEntity
  8
OBJECT
100
AcDbLine
 10
6.345726284367103
 20
7.381564552438788
 30
0.0
 11
6.416601284367217
 21
7.381564552438788
 31
0.0
  0
LINE
  5
1CE9
330
1E
100
AcDbEntity
  8
OBJECT
100
AcDbLine
 10
6.416601284367217
 20
1.794252052438963
 30
0.0
 11
6.345726284367103
 21
1.794252052438963
 31
0.0
  0
LINE
  5
1CEA
330
1E
100
AcDbEntity
  8
OBJECT
100
AcDbLine
 10
6.416601284367217
 20
7.439639324520243
 30
0.0
 11
5.878856599535922
 21
7.411457319767208
 31
0.0
  0
LINE
  5
1CF1
330
1E
100
AcDbEntity
  8
OBJECT
100
AcDbLine
 10
6.455976284367167
 20
1.836722722054759
 30
0.0
 11
6.357538784367122
 21
1.836722722054759
 31
0.0
  0
LINE
  5
1CF2
330
1E
100
AcDbEntity
  8
OBJECT
100
AcDbLine
 10
6.455976284367167
 20
7.333180926986273
 30
0.0
 11
6.357538784367122
 21
7.333180926986273
 31
0.0
  0
LINE
  5
1CF3
330
1E
100
AcDbEntity
  8
OBJECT
100
AcDbLine
 10
6.416601284367217
 20
1.797201824520556
 30
0.0
 11
6.357538784367122
 21
1.797201824520556
 31
0.0
  0
LINE
  5
1CF4
330
1E
100
AcDbEntity
  8
OBJECT
100
AcDbLine
 10
6.416601284367217
 20
7.372701824520476
 30
0.0
 11
6.357538784367122
 21
7.372701824520476
 31
0.0
  0
LINE
  5
1CF5
330
1E
100
AcDbEntity
  8
OBJECT
100
AcDbLine
 10
1.262154764654475
 20
10.07301295135173
 30
0.0
 11
1.233972759901214
 21
9.535268266519304
 31
0.0
  0
LINE
  5
1CF6
330
1E
100
AcDbEntity
  8
OBJECT
100
AcDbLine
 10
4.749540755147883
 20
10.07301295135173
 30
0.0
 11
4.777722759901259
 21
9.535268266521123
 31
0.0
  0
ARC
  5
1CF7
330
1E
100
AcDbEntity
  8
OBJECT
100
AcDbCircle
 10
3.005848013393276
 20
7.537440711370066
 30
0.0
 40
5.807176386849635
100
AcDbArc
 50
257.6088217061802
 51
282.3911782938197
  0
ARC
  5
1CF8
330
1E
100
AcDbEntity
  8
OBJECT
100
AcDbCircle
 10
3.005848013393276
 20
7.537440711370066
 30
0.0
 40
5.700863886849635
100
AcDbArc
 50
257.6088217061802
 51
282.3911782938197
  0
ARC
  5
1CF9
330
1E
100
AcDbEntity
  8
OBJECT
100
AcDbCircle
 10
3.005848013393276
 20
7.537440711370066
 30
0.0
 40
5.749176386849635
100
AcDbArc
 50
257.6088217061802
 51
282.3911782938197
  0
ARC
  5
1CFA
330
1E
100
AcDbEntity
  8
OBJECT
100
AcDbCircle
 10
3.005848013393276
 20
1.632462937670055
 30
0.0
 40
5.749176386849635
100
AcDbArc
 50
77.60882170618026
 51
102.3911782938197
  0
LINE
  5
1CFB
330
1E
100
AcDbEntity
  8
CENTER
100
AcDbLine
 10
1.214388307835562
 20
4.58495182452097
 30
0.0
 11
4.797046002470594
 21
4.584951824520061
 31
0.0
  0
ARC
  5
1CFC
330
1E
100
AcDbEntity
  8
OBJECT
100
AcDbCircle
 10
3.005848013393276
 20
1.632462937670055
 30
0.0
 40
5.700863886849635
100
AcDbArc
 50
77.60882170618026
 51
102.3911782938197
  0
ARC
  5
1CFD
330
1E
100
AcDbEntity
  8
OBJECT
100
AcDbCircle
 10
3.005848013393276
 20
1.632462937670055
 30
0.0
 40
5.807176386849635
100
AcDbArc
 50
77.60882170618026
 51
102.3911782938197
  0
LINE
  5
1CFE
330
1E
100
AcDbEntity
  8
OBJECT
100
AcDbLine
 10
4.777722759901259
 20
9.535268266520214
 30
0.0
 11
1.233972759901214
 21
9.535268266520214
 31
0.0
  0
LINE
  5
1CFF
330
1E
100
AcDbEntity
  8
OBJECT
100
AcDbLine
 10
1.450721725457562
 20
8.92495576652025
 30
0.0
 11
4.560973794344796
 21
8.92495576652025
 31
0.0
  0
LINE
  5
1D01
330
1E
100
AcDbEntity
  8
OBJECT
100
AcDbLine
 10
4.777722759901145
 20
9.495893266519923
 30
0.0
 11
1.233972759901214
 21
9.495893266519923
 31
0.0
  0
ARC
  5
1D02
330
1E
100
AcDbEntity
  8
OBJECT
100
AcDbCircle
 10
1.242535668080151
 20
4.112613243711706
 30
0.0
 40
0.0196875
100
AcDbArc
 50
182.0567202389583
 51
269.9947545094855
  0
ARC
  5
1D03
330
1E
100
AcDbEntity
  8
OBJECT
100
AcDbCircle
 10
14.32677574776828
 20
4.584951824520061
 30
0.0
 40
12.98649023437504
100
AcDbArc
 50
180.0
 51
190.5946094360673
  0
ARC
  5
1D04
330
1E
100
AcDbEntity
  8
OBJECT
100
AcDbCircle
 10
14.32677568086039
 20
4.584951824520061
 30
0.0
 40
13.03480273437495
100
AcDbArc
 50
180.0
 51
190.5946094360673
  0
ARC
  5
1D05
330
1E
100
AcDbEntity
  8
OBJECT
100
AcDbCircle
 10
14.36625350108549
 20
4.583911755137336
 30
0.0
 40
13.15186523437504
100
AcDbArc
 50
188.2695731622401
 51
188.9646061853547
  0
ARC
  5
1D06
330
1E
100
AcDbEntity
  8
OBJECT
100
AcDbCircle
 10
1.844208190841797
 20
2.250118310711144
 30
0.0
 40
0.2874375
100
AcDbArc
 50
190.5946094360651
 51
257.6088217061802
  0
ARC
  5
1D07
330
1E
100
AcDbEntity
  8
OBJECT
100
AcDbCircle
 10
1.844208190841797
 20
2.250118310711144
 30
0.0
 40
0.39375
100
AcDbArc
 50
190.5946094360651
 51
257.6088217061802
  0
ARC
  5
1D08
330
1E
100
AcDbEntity
  8
OBJECT
100
AcDbCircle
 10
1.844208190841797
 20
2.250118310711144
 30
0.0
 40
0.33575
100
AcDbArc
 50
190.5946094360651
 51
257.6088217061802
  0
ARC
  5
1D09
330
1E
100
AcDbEntity
  8
OBJECT
100
AcDbCircle
 10
14.32677574776828
 20
4.584951824520061
 30
0.0
 40
13.09280273437504
100
AcDbArc
 50
189.0836375923574
 51
190.5946094360673
  0
LINE
  5
1D0A
330
1E
100
AcDbEntity
  8
OBJECT
100
AcDbLine
 10
1.394486302693323
 20
2.517911825783443
 30
0.0
 11
1.398170730582634
 21
2.517911488469138
 31
0.0
  0
ARC
  5
1D0B
330
1E
100
AcDbEntity
  8
OBJECT
100
AcDbCircle
 10
1.394488105105253
 20
2.537599325700824
 30
0.0
 40
0.0196875
100
AcDbArc
 50
188.9646061853675
 51
269.9947545094855
  0
CIRCLE
  5
1D0C
330
1E
100
AcDbEntity
  8
OBJECT
100
AcDbCircle
 10
2.100223013393289
 20
2.104321291985428
 30
0.0
 40
0.118
  0
CIRCLE
  5
1D0D
330
1E
100
AcDbEntity
  8
OBJECT
100
AcDbCircle
 10
2.100223013393289
 20
2.104321291985428
 30
0.0
 40
0.0435
  0
CIRCLE
  5
1D0E
330
1E
100
AcDbEntity
  8
OBJECT
100
AcDbCircle
 10
2.100223013393289
 20
2.104321291985428
 30
0.0
 40
0.071
  0
ARC
  5
1D0F
330
1E
100
AcDbEntity
  8
OBJECT
100
AcDbCircle
 10
14.36625350108549
 20
4.583911755137336
 30
0.0
 40
13.15186523437504
100
AcDbArc
 50
184.8106380307647
 51
185.5006128541205
  0
ARC
  5
1D10
330
1E
100
AcDbEntity
  8
OBJECT
100
AcDbCircle
 10
14.36625350108549
 20
4.583911755137336
 30
0.0
 40
13.15186523437504
100
AcDbArc
 50
186.5371109659473
 51
187.2292851231548
  0
ARC
  5
1D11
330
1E
100
AcDbEntity
  8
OBJECT
100
AcDbCircle
 10
1.370620084019535
 20
2.695101511504248
 30
0.0
 40
0.0196875
100
AcDbArc
 50
96.91982360000668
 51
188.2695731622679
  0
ARC
  5
1D12
330
1E
100
AcDbEntity
  8
OBJECT
100
AcDbCircle
 10
1.338469866871648
 20
2.931354455881404
 30
0.0
 40
0.0196875
100
AcDbArc
 50
187.2292851231823
 51
269.9947545094594
  0
LINE
  5
1D13
330
1E
100
AcDbEntity
  8
OBJECT
100
AcDbLine
 10
1.338468064459718
 20
2.911666955964022
 30
0.0
 11
1.341337737801083
 21
2.911666693241016
 31
0.0
  0
ARC
  5
1D14
330
1E
100
AcDbEntity
  8
OBJECT
100
AcDbCircle
 10
14.32677574776828
 20
4.584951824520061
 30
0.0
 40
13.09280273437504
100
AcDbArc
 50
187.3425912129283
 51
188.2127943390072
  0
ARC
  5
1D15
330
1E
100
AcDbEntity
  8
OBJECT
100
AcDbCircle
 10
1.31945692392189
 20
3.088856197196577
 30
0.0
 40
0.0196875
100
AcDbArc
 50
95.72226423956845
 51
186.5371109659862
  0
ARC
  5
1D16
330
1E
100
AcDbEntity
  8
OBJECT
100
AcDbCircle
 10
14.32677574776828
 20
4.584951824520061
 30
0.0
 40
13.09280273437504
100
AcDbArc
 50
185.6083430604272
 51
186.4751546602365
  0
ARC
  5
1D17
330
1E
100
AcDbEntity
  8
OBJECT
100
AcDbCircle
 10
1.294547171824135
 20
3.325108478701253
 30
0.0
 40
0.0196875
100
AcDbArc
 50
185.5006128541725
 51
269.9947545094594
  0
LINE
  5
1D18
330
1E
100
AcDbEntity
  8
OBJECT
100
AcDbLine
 10
1.294545369412318
 20
3.305420978783871
 30
0.0
 11
1.296645903290638
 21
3.305420786478492
 31
0.0
  0
ARC
  5
1D19
330
1E
100
AcDbEntity
  8
OBJECT
100
AcDbCircle
 10
1.262598288150726
 20
3.718861405306228
 30
0.0
 40
0.0196875
100
AcDbArc
 50
183.7769553341749
 51
269.9947545094594
  0
ARC
  5
1D1A
330
1E
100
AcDbEntity
  8
OBJECT
100
AcDbCircle
 10
1.280336414094833
 20
3.482609780372143
 30
0.0
 40
0.0196875
100
AcDbArc
 50
94.42495470175956
 51
184.8106380307257
  0
LINE
  5
1D1B
330
1E
100
AcDbEntity
  8
OBJECT
100
AcDbLine
 10
1.262596485738797
 20
3.699173905388846
 30
0.0
 11
1.263970509367524
 21
3.699173779596634
 31
0.0
  0
ARC
  5
1D1C
330
1E
100
AcDbEntity
  8
OBJECT
100
AcDbCircle
 10
14.32677574776828
 20
4.584951824520061
 30
0.0
 40
13.09280273437504
100
AcDbArc
 50
183.8792411136959
 51
184.7435085145237
  0
ARC
  5
1D1D
330
1E
100
AcDbEntity
  8
OBJECT
100
AcDbCircle
 10
14.36625350108549
 20
4.583911755137336
 30
0.0
 40
13.15186523437504
100
AcDbArc
 50
183.0885386893167
 51
183.7769553342139
  0
ARC
  5
1D1E
330
1E
100
AcDbEntity
  8
OBJECT
100
AcDbCircle
 10
1.253150673204615
 20
3.876362270906241
 30
0.0
 40
0.0196875
100
AcDbArc
 50
93.02727211609694
 51
183.0885386892907
  0
LINE
  5
1D1F
330
1E
100
AcDbEntity
  8
OBJECT
100
AcDbLine
 10
1.242533865668221
 20
4.092925743793415
 30
0.0
 11
1.24322142506223
 21
4.092925680846377
 31
0.0
  0
ARC
  5
1D20
330
1E
100
AcDbEntity
  8
OBJECT
100
AcDbCircle
 10
14.32677574776828
 20
4.584951824520061
 30
0.0
 40
13.09280273437504
100
AcDbArc
 50
182.1536764655753
 51
183.0162366979399
  0
ARC
  5
1D21
330
1E
100
AcDbEntity
  8
OBJECT
100
AcDbCircle
 10
1.844208190841797
 20
6.919785338328978
 30
0.0
 40
0.33575
100
AcDbArc
 50
102.3911782938197
 51
169.4053905639348
  0
ARC
  5
1D22
330
1E
100
AcDbEntity
  8
OBJECT
100
AcDbCircle
 10
1.844208190841797
 20
6.919785338328978
 30
0.0
 40
0.2874375
100
AcDbArc
 50
102.3911782938197
 51
169.4053905639348
  0
ARC
  5
1D23
330
1E
100
AcDbEntity
  8
OBJECT
100
AcDbCircle
 10
1.844208190841797
 20
6.919785338328978
 30
0.0
 40
0.39375
100
AcDbArc
 50
102.3911782938197
 51
169.4053905639348
  0
ARC
  5
1D24
330
1E
100
AcDbEntity
  8
OBJECT
100
AcDbCircle
 10
14.32677568086039
 20
4.584951824520061
 30
0.0
 40
13.03480273437495
100
AcDbArc
 50
169.4053905639326
 51
180.0
  0
ARC
  5
1D25
330
1E
100
AcDbEntity
  8
OBJECT
100
AcDbCircle
 10
14.32677574776828
 20
4.584951824520061
 30
0.0
 40
13.09280273437504
100
AcDbArc
 50
175.2564914854762
 51
176.120758886304
  0
ARC
  5
1D26
330
1E
100
AcDbEntity
  8
OBJECT
100
AcDbCircle
 10
14.32677574776828
 20
4.584951824520061
 30
0.0
 40
12.98649023437504
100
AcDbArc
 50
169.4053905639326
 51
180.0
  0
ARC
  5
1D27
330
1E
100
AcDbEntity
  8
OBJECT
100
AcDbCircle
 10
14.32677574776828
 20
4.584951824520061
 30
0.0
 40
13.09280273437504
100
AcDbArc
 50
178.7082429291302
 51
179.5699305506784
  0
ARC
  5
1D28
330
1E
100
AcDbEntity
  8
OBJECT
100
AcDbCircle
 10
14.32677574776828
 20
4.584951824520061
 30
0.0
 40
13.09280273437504
100
AcDbArc
 50
180.4314887928856
 51
181.2917570708697
  0
ARC
  5
1D29
330
1E
100
AcDbEntity
  8
OBJECT
100
AcDbCircle
 10
14.36625350108549
 20
4.583911755137336
 30
0.0
 40
13.15186523437504
100
AcDbArc
 50
181.3692334489709
 51
182.0567202389712
  0
ARC
  5
1D2A
330
1E
100
AcDbEntity
  8
OBJECT
100
AcDbCircle
 10
1.237825460665291
 20
4.270113675595524
 30
0.0
 40
0.0196875
100
AcDbArc
 50
91.52830322669142
 51
181.3692334489578
  0
ARC
  5
1D2B
330
1E
100
AcDbEntity
  8
OBJECT
100
AcDbCircle
 10
1.234304735090447
 20
4.663539650127489
 30
0.0
 40
0.0196875
100
AcDbArc
 50
90.00524549051444
 51
179.6616566531859
  0
ARC
  5
1D2C
330
1E
100
AcDbEntity
  8
OBJECT
100
AcDbCircle
 10
1.234319154385659
 20
4.506039650787528
 30
0.0
 40
0.0196875
100
AcDbArc
 50
180.3488343278891
 51
270.0731431917393
  0
ARC
  5
1D2D
330
1E
100
AcDbEntity
  8
OBJECT
100
AcDbCircle
 10
14.36625350108549
 20
4.585991893902786
 30
0.0
 40
13.15186523437504
100
AcDbArc
 50
179.6616566531729
 51
180.3488343279021
  0
ARC
  5
1D2E
330
1E
100
AcDbEntity
  8
OBJECT
100
AcDbCircle
 10
14.32677574776828
 20
4.584951824520061
 30
0.0
 40
13.09280273437504
100
AcDbArc
 50
176.98376330206
 51
177.8463235344247
  0
LINE
  5
1D2F
330
1E
100
AcDbEntity
  8
OBJECT
100
AcDbLine
 10
1.242533865668221
 20
5.076977905246707
 30
0.0
 11
1.24322142506223
 21
5.076977968193745
 31
0.0
  0
ARC
  5
1D30
330
1E
100
AcDbEntity
  8
OBJECT
100
AcDbCircle
 10
1.242535668080151
 20
5.057290405328416
 30
0.0
 40
0.0196875
100
AcDbArc
 50
90.00524549051444
 51
177.9432797610416
  0
ARC
  5
1D31
330
1E
100
AcDbEntity
  8
OBJECT
100
AcDbCircle
 10
1.237825460665291
 20
4.899789973444597
 30
0.0
 40
0.0196875
100
AcDbArc
 50
178.6307665510421
 51
268.4716967733086
  0
ARC
  5
1D32
330
1E
100
AcDbEntity
  8
OBJECT
100
AcDbCircle
 10
14.36625350108549
 20
4.585991893902786
 30
0.0
 40
13.15186523437504
100
AcDbArc
 50
177.9432797610287
 51
178.6307665510291
  0
LINE
  5
1D33
330
1E
100
AcDbEntity
  8
OBJECT
100
AcDbLine
 10
1.262596485738797
 20
5.470729743651276
 30
0.0
 11
1.263970509367524
 21
5.470729869443488
 31
0.0
  0
ARC
  5
1D34
330
1E
100
AcDbEntity
  8
OBJECT
100
AcDbCircle
 10
1.262598288150726
 20
5.451042243733894
 30
0.0
 40
0.0196875
100
AcDbArc
 50
90.00524549054052
 51
176.223044665825
  0
ARC
  5
1D35
330
1E
100
AcDbEntity
  8
OBJECT
100
AcDbCircle
 10
1.253150673204615
 20
5.29354137813388
 30
0.0
 40
0.0196875
100
AcDbArc
 50
176.9114613107092
 51
266.972727883903
  0
ARC
  5
1D36
330
1E
100
AcDbEntity
  8
OBJECT
100
AcDbCircle
 10
14.36625350108549
 20
4.585991893902786
 30
0.0
 40
13.15186523437504
100
AcDbArc
 50
176.223044665786
 51
176.9114613106832
  0
ARC
  5
1D37
330
1E
100
AcDbEntity
  8
OBJECT
100
AcDbCircle
 10
14.32677574776828
 20
4.584951824520061
 30
0.0
 40
13.09280273437504
100
AcDbArc
 50
171.7872056609927
 51
172.6574087870717
  0
ARC
  5
1D38
330
1E
100
AcDbEntity
  8
OBJECT
100
AcDbCircle
 10
14.32677574776828
 20
4.584951824520061
 30
0.0
 40
13.09280273437504
100
AcDbArc
 50
173.5248453397634
 51
174.3916569395727
  0
LINE
  5
1D39
330
1E
100
AcDbEntity
  8
OBJECT
100
AcDbLine
 10
1.294545369412318
 20
5.864482670256251
 30
0.0
 11
1.296645903290638
 21
5.864482862561629
 31
0.0
  0
ARC
  5
1D3A
330
1E
100
AcDbEntity
  8
OBJECT
100
AcDbCircle
 10
1.294547171824135
 20
5.844795170338869
 30
0.0
 40
0.0196875
100
AcDbArc
 50
90.00524549054052
 51
174.4993871458274
  0
ARC
  5
1D3B
330
1E
100
AcDbEntity
  8
OBJECT
100
AcDbCircle
 10
1.280336414094833
 20
5.687293868667978
 30
0.0
 40
0.0196875
100
AcDbArc
 50
175.1893619692742
 51
265.5750452982404
  0
ARC
  5
1D3C
330
1E
100
AcDbEntity
  8
OBJECT
100
AcDbCircle
 10
14.36625350108549
 20
4.585991893902786
 30
0.0
 40
13.15186523437504
100
AcDbArc
 50
174.4993871458794
 51
175.1893619692353
  0
ARC
  5
1D3D
330
1E
100
AcDbEntity
  8
OBJECT
100
AcDbCircle
 10
1.31945692392189
 20
6.081047451843545
 30
0.0
 40
0.0196875
100
AcDbArc
 50
173.4628890340137
 51
264.2777357604315
  0
ARC
  5
1D3E
330
1E
100
AcDbEntity
  8
OBJECT
100
AcDbCircle
 10
14.36625350108549
 20
4.585991893902786
 30
0.0
 40
13.15186523437504
100
AcDbArc
 50
172.7707148768451
 51
173.4628890340526
  0
LINE
  5
1D3F
330
1E
100
AcDbEntity
  8
OBJECT
100
AcDbLine
 10
1.338468064459718
 20
6.258236693076099
 30
0.0
 11
1.341337737801083
 21
6.258236955799105
 31
0.0
  0
ARC
  5
1D40
330
1E
100
AcDbEntity
  8
OBJECT
100
AcDbCircle
 10
1.338469866871648
 20
6.238549193158718
 30
0.0
 40
0.0196875
100
AcDbArc
 50
90.00524549054052
 51
172.7707148768176
  0
ARC
  5
1D41
330
1E
100
AcDbEntity
  8
OBJECT
100
AcDbCircle
 10
14.32677574776828
 20
4.584951824520061
 30
0.0
 40
13.09280273437504
100
AcDbArc
 50
169.4053905639326
 51
170.9163624076425
  0
ARC
  5
1D42
330
1E
100
AcDbEntity
  8
OBJECT
100
AcDbCircle
 10
1.394488105105253
 20
6.632304323339297
 30
0.0
 40
0.0196875
100
AcDbArc
 50
90.00524549051444
 51
171.0353938146324
  0
ARC
  5
1D43
330
1E
100
AcDbEntity
  8
OBJECT
100
AcDbCircle
 10
1.370620084019535
 20
6.474802137535874
 30
0.0
 40
0.0196875
100
AcDbArc
 50
171.730426837732
 51
263.0801763999933
  0
ARC
  5
1D44
330
1E
100
AcDbEntity
  8
OBJECT
100
AcDbCircle
 10
14.36625350108549
 20
4.585991893902786
 30
0.0
 40
13.15186523437504
100
AcDbArc
 50
171.0353938146452
 51
171.7304268377598
  0
LINE
  5
1D45
330
1E
100
AcDbEntity
  8
OBJECT
100
AcDbLine
 10
1.394486302693323
 20
6.651991823256679
 30
0.0
 11
1.398170730582634
 21
6.651992160570983
 31
0.0
  0
CIRCLE
  5
1D46
330
1E
100
AcDbEntity
  8
OBJECT
100
AcDbCircle
 10
1.903347985441357
 20
6.94745178631237
 30
0.0
 40
0.118125
  0
CIRCLE
  5
1D47
330
1E
100
AcDbEntity
  8
OBJECT
100
AcDbCircle
 10
1.903348013393312
 20
6.947451824520243
 30
0.0
 40
0.071
  0
CIRCLE
  5
1D48
330
1E
100
AcDbEntity
  8
OBJECT
100
AcDbCircle
 10
1.903347985441357
 20
6.94745178631237
 30
0.0
 40
0.0435
  0
ARC
  5
1D49
330
1E
100
AcDbEntity
  8
OBJECT
100
AcDbCircle
 10
1.450721725457562
 20
9.121830766519886
 30
0.0
 40
0.196875
100
AcDbArc
 50
183.0000000000057
 51
270.0
  0
ARC
  5
1D4A
330
1E
100
AcDbEntity
  8
OBJECT
100
AcDbCircle
 10
1.632489581987649
 20
9.121830766519886
 30
0.0
 40
0.196875
100
AcDbArc
 50
183.0000000000057
 51
270.0
  0
LINE
  5
1D4B
330
1E
100
AcDbEntity
  8
OBJECT
100
AcDbLine
 10
1.4157406164313
 20
9.495893266519923
 30
0.0
 11
1.435884392332902
 21
9.111527125135106
 31
0.0
  0
LINE
  5
1D4C
330
1E
100
AcDbEntity
  8
OBJECT
100
AcDbLine
 10
1.233972759901214
 20
9.495893266519923
 30
0.0
 11
1.254116535802815
 21
9.111527125135106
 31
0.0
  0
LINE
  5
1D4D
330
1E
100
AcDbEntity
  8
OBJECT
100
AcDbLine
 10
1.253660259901132
 20
9.535268266520214
 30
0.0
 11
1.253660259901132
 21
9.495893266519923
 31
0.0
  0
ARC
  5
1D4F
330
1E
100
AcDbEntity
  8
OBJECT
100
AcDbCircle
 10
4.769160178571652
 20
4.112613243711706
 30
0.0
 40
0.0196875
100
AcDbArc
 50
270.0052454905145
 51
357.9432797610416
  0
ARC
  5
1D50
330
1E
100
AcDbEntity
  8
OBJECT
100
AcDbCircle
 10
-8.315079720981728
 20
4.584951824520061
 30
0.0
 40
12.98649023437494
100
AcDbArc
 50
349.4053905639327
 51
0.0
  0
ARC
  5
1D51
330
1E
100
AcDbEntity
  8
OBJECT
100
AcDbCircle
 10
-8.315079720981728
 20
4.584951824520061
 30
0.0
 40
13.03480273437495
100
AcDbArc
 50
349.4053905639327
 51
0.0
  0
LINE
  5
1D52
330
1E
100
AcDbEntity
  8
CENTER
100
AcDbLine
 10
3.005848013393276
 20
7.439639324520243
 30
0.0
 11
3.005847833258414
 21
1.730264324519879
 31
0.0
  0
LINE
  5
1D53
330
1E
100
AcDbEntity
  8
OBJECT
100
AcDbLine
 10
6.115682814944918
 20
2.185438156745107
 30
0.0
 11
5.881413243542986
 21
6.829334291182875
 31
0.0
  0
LINE
  5
1D54
330
1E
100
AcDbEntity
  8
OBJECT
100
AcDbLine
 10
5.80628878436714
 20
6.950408302439058
 30
0.0
 11
6.043959957499666
 21
2.225408302438694
 31
0.0
  0
ARC
  5
1D55
330
1E
100
AcDbEntity
  8
OBJECT
100
AcDbCircle
 10
47.11066378436719
 20
6.652139324520788
 30
0.0
 40
41.34375
100
AcDbArc
 50
180.0
 51
186.6727710193452
  0
ARC
  5
1D56
330
1E
100
AcDbEntity
  8
OBJECT
100
AcDbCircle
 10
5.845679704790128
 20
4.111726087963319
 30
0.0
 40
0.0196875
100
AcDbArc
 50
184.1051515480749
 51
271.6688987272084
  0
ARC
  5
1D59
330
1E
100
AcDbEntity
  8
OBJECT
100
AcDbCircle
 10
4.167487835944754
 20
2.250118310711144
 30
0.0
 40
0.39375
100
AcDbArc
 50
282.3911782938197
 51
349.4053905639348
  0
ARC
  5
1D5A
330
1E
100
AcDbEntity
  8
OBJECT
100
AcDbCircle
 10
4.167487835944754
 20
2.250118310711144
 30
0.0
 40
0.2874375
100
AcDbArc
 50
282.3911782938197
 51
349.4053905639348
  0
ARC
  5
1D5B
330
1E
100
AcDbEntity
  8
OBJECT
100
AcDbCircle
 10
4.167487835944754
 20
2.250118310711144
 30
0.0
 40
0.33575
100
AcDbArc
 50
282.3911782938197
 51
349.4053905639348
  0
CIRCLE
  5
1D5C
330
1E
100
AcDbEntity
  8
OBJECT
100
AcDbCircle
 10
3.911473013393262
 20
2.104321291985428
 30
0.0
 40
0.118
  0
CIRCLE
  5
1D5D
330
1E
100
AcDbEntity
  8
OBJECT
100
AcDbCircle
 10
3.911473013393262
 20
2.104321291985428
 30
0.0
 40
0.0435
  0
CIRCLE
  5
1D5E
330
1E
100
AcDbEntity
  8
OBJECT
100
AcDbCircle
 10
3.911473013393262
 20
2.104321291985428
 30
0.0
 40
0.071
  0
ARC
  5
1D5F
330
1E
100
AcDbEntity
  8
OBJECT
100
AcDbCircle
 10
-8.354557654433691
 20
4.583911755137336
 30
0.0
 40
13.15186523437504
100
AcDbArc
 50
351.0353938146452
 51
351.7304268377598
  0
ARC
  5
1D60
330
1E
100
AcDbEntity
  8
OBJECT
100
AcDbCircle
 10
-8.315079901116476
 20
4.584951824520061
 30
0.0
 40
13.09280273437504
100
AcDbArc
 50
349.4053905639326
 51
350.9163624076425
  0
ARC
  5
1D61
330
1E
100
AcDbEntity
  8
OBJECT
100
AcDbCircle
 10
4.61720774154655
 20
2.537599325700824
 30
0.0
 40
0.0196875
100
AcDbArc
 50
270.0052454905145
 51
351.0353938146324
  0
LINE
  5
1D62
330
1E
100
AcDbEntity
  8
OBJECT
100
AcDbLine
 10
4.61720954395848
 20
2.517911825783443
 30
0.0
 11
4.613525116069169
 21
2.517911488469138
 31
0.0
  0
ARC
  5
1D63
330
1E
100
AcDbEntity
  8
OBJECT
100
AcDbCircle
 10
-8.354557654433691
 20
4.583911755137336
 30
0.0
 40
13.15186523437504
100
AcDbArc
 50
354.4993871458793
 51
355.1893619692352
  0
ARC
  5
1D64
330
1E
100
AcDbEntity
  8
OBJECT
100
AcDbCircle
 10
-8.354557654433691
 20
4.583911755137336
 30
0.0
 40
13.15186523437504
100
AcDbArc
 50
352.7707148768451
 51
353.4628890340526
  0
ARC
  5
1D65
330
1E
100
AcDbEntity
  8
OBJECT
100
AcDbCircle
 10
4.673225979780156
 20
2.931354455881404
 30
0.0
 40
0.0196875
100
AcDbArc
 50
270.0052454905405
 51
352.7707148768176
  0
ARC
  5
1D66
330
1E
100
AcDbEntity
  8
OBJECT
100
AcDbCircle
 10
-8.315079901116476
 20
4.584951824520061
 30
0.0
 40
13.09280273437504
100
AcDbArc
 50
351.7872056609927
 51
352.6574087870717
  0
LINE
  5
1D67
330
1E
100
AcDbEntity
  8
OBJECT
100
AcDbLine
 10
4.673227782192086
 20
2.911666955964022
 30
0.0
 11
4.67035810885072
 21
2.911666693241016
 31
0.0
  0
ARC
  5
1D68
330
1E
100
AcDbEntity
  8
OBJECT
100
AcDbCircle
 10
4.641075762632269
 20
2.695101511504248
 30
0.0
 40
0.0196875
100
AcDbArc
 50
351.730426837732
 51
83.08017639999334
  0
ARC
  5
1D69
330
1E
100
AcDbEntity
  8
OBJECT
100
AcDbCircle
 10
-8.315079901116476
 20
4.584951824520061
 30
0.0
 40
13.09280273437504
100
AcDbArc
 50
353.5248453397634
 51
354.3916569395727
  0
LINE
  5
1D6A
330
1E
100
AcDbEntity
  8
OBJECT
100
AcDbLine
 10
4.717150477239485
 20
3.305420978783871
 30
0.0
 11
4.715049943361165
 21
3.305420786478492
 31
0.0
  0
ARC
  5
1D6B
330
1E
100
AcDbEntity
  8
OBJECT
100
AcDbCircle
 10
4.717148674827669
 20
3.325108478701253
 30
0.0
 40
0.0196875
100
AcDbArc
 50
270.0052454905405
 51
354.4993871458273
  0
ARC
  5
1D6C
330
1E
100
AcDbEntity
  8
OBJECT
100
AcDbCircle
 10
4.692238922729913
 20
3.088856197196577
 30
0.0
 40
0.0196875
100
AcDbArc
 50
353.4628890340137
 51
84.27773576043158
  0
ARC
  5
1D6D
330
1E
100
AcDbEntity
  8
OBJECT
100
AcDbCircle
 10
4.749097558501077
 20
3.718861405306228
 30
0.0
 40
0.0196875
100
AcDbArc
 50
270.0052454905405
 51
356.2230446658249
  0
ARC
  5
1D6E
330
1E
100
AcDbEntity
  8
OBJECT
100
AcDbCircle
 10
-8.315079901116476
 20
4.584951824520061
 30
0.0
 40
13.09280273437504
100
AcDbArc
 50
355.2564914854762
 51
356.120758886304
  0
LINE
  5
1D6F
330
1E
100
AcDbEntity
  8
OBJECT
100
AcDbLine
 10
4.749099360913007
 20
3.699173905388846
 30
0.0
 11
4.747725337284279
 21
3.699173779596634
 31
0.0
  0
ARC
  5
1D70
330
1E
100
AcDbEntity
  8
OBJECT
100
AcDbCircle
 10
4.731359432556971
 20
3.482609780372143
 30
0.0
 40
0.0196875
100
AcDbArc
 50
355.1893619692742
 51
85.57504529824047
  0
ARC
  5
1D71
330
1E
100
AcDbEntity
  8
OBJECT
100
AcDbCircle
 10
-8.315079901116476
 20
4.584951824520061
 30
0.0
 40
13.09280273437504
100
AcDbArc
 50
356.98376330206
 51
357.8463235344246
  0
LINE
  5
1D72
330
1E
100
AcDbEntity
  8
OBJECT
100
AcDbLine
 10
4.769161980983582
 20
4.092925743793415
 30
0.0
 11
4.768474421589573
 21
4.092925680846377
 31
0.0
  0
ARC
  5
1D73
330
1E
100
AcDbEntity
  8
OBJECT
100
AcDbCircle
 10
4.758545173447188
 20
3.876362270906241
 30
0.0
 40
0.0196875
100
AcDbArc
 50
356.9114613107092
 51
86.97272788390307
  0
ARC
  5
1D74
330
1E
100
AcDbEntity
  8
OBJECT
100
AcDbCircle
 10
-8.354557654433691
 20
4.583911755137336
 30
0.0
 40
13.15186523437504
100
AcDbArc
 50
356.223044665786
 51
356.9114613106833
  0
ARC
  5
1D75
330
1E
100
AcDbEntity
  8
OBJECT
100
AcDbCircle
 10
41.21098139801659
 20
6.648929177960411
 30
0.0
 40
35.4965625
100
AcDbArc
 50
186.4042548534708
 51
186.6602824920689
  0
LINE
  5
1D76
330
1E
100
AcDbEntity
  8
OBJECT
100
AcDbLine
 10
6.357538784367122
 20
1.986321291984125
 30
0.0
 11
6.357538784367122
 21
1.797201824520556
 31
0.0
  0
LINE
  5
1D77
330
1E
100
AcDbEntity
  8
OBJECT
100
AcDbLine
 10
6.345726284367103
 20
1.794252052438963
 30
0.0
 11
6.345726284367103
 21
1.840437123410623
 31
0.0
  0
ARC
  5
1D78
330
1E
100
AcDbEntity
  8
OBJECT
100
AcDbCircle
 10
6.164301850669787
 20
1.861773885926226
 30
0.0
 40
0.118125
100
AcDbArc
 50
186.6727710193452
 51
266.9999999999943
  0
LINE
  5
1D79
330
1E
100
AcDbEntity
  8
OBJECT
100
AcDbLine
 10
6.115682814944918
 20
2.185438156745107
 30
0.0
 11
6.096275465723962
 21
2.183323584975909
 31
0.0
  0
ARC
  5
1D7A
330
1E
100
AcDbEntity
  8
OBJECT
100
AcDbCircle
 10
47.11066378436719
 20
6.652139324520788
 30
0.0
 40
41.257125
100
AcDbArc
 50
186.218261993465
 51
186.6877625658354
  0
ARC
  5
1D7B
330
1E
100
AcDbEntity
  8
OBJECT
100
AcDbCircle
 10
5.973529637950647
 20
2.534241677960011
 30
0.0
 40
0.0196875
100
AcDbArc
 50
186.6602824921205
 51
272.7447867284346
  0
LINE
  5
1D7C
330
1E
100
AcDbEntity
  8
OBJECT
100
AcDbLine
 10
6.043959957499666
 20
2.225408302438694
 30
0.0
 11
6.004584957499716
 21
2.225408302438694
 31
0.0
  0
LINE
  5
1D7D
330
1E
100
AcDbEntity
  8
OBJECT
100
AcDbLine
 10
6.345726284367103
 20
1.836310010792288
 30
0.0
 11
6.13427100055064
 21
1.84739191263506
 31
0.0
  0
LINE
  5
1D7E
330
1E
100
AcDbEntity
  8
HIDDEN
100
AcDbLine
 10
6.073038784367208
 20
2.147821291985195
 30
0.0
 11
6.073038784367208
 21
2.060821291985661
 31
0.0
  0
LINE
  5
1D7F
330
1E
100
AcDbEntity
  8
OBJECT
100
AcDbLine
 10
6.345726284367103
 20
1.840437123410623
 30
0.0
 11
6.345726284367103
 21
1.986321291984125
 31
0.0
  0
ARC
  5
1D83
330
1E
100
AcDbEntity
  8
OBJECT
100
AcDbCircle
 10
5.859222516273959
 20
3.875068378677127
 30
0.0
 40
0.0196875
100
AcDbArc
 50
90.74377622764405
 51
184.487775443511
  0
ARC
  5
1D84
330
1E
100
AcDbEntity
  8
OBJECT
100
AcDbCircle
 10
41.22732722605057
 20
6.651005878676727
 30
0.0
 40
35.4965625
100
AcDbArc
 50
184.4877754434589
 51
184.7429684423441
  0
ARC
  5
1D85
330
1E
100
AcDbEntity
  8
OBJECT
100
AcDbCircle
 10
41.22249935373069
 20
6.650468105063367
 30
0.0
 40
35.4965625
100
AcDbArc
 50
185.1259364474567
 51
185.3813750140889
  0
ARC
  5
1D86
330
1E
100
AcDbEntity
  8
OBJECT
100
AcDbCircle
 10
41.21705050098493
 20
6.649782002310161
 30
0.0
 40
35.4965625
100
AcDbArc
 50
185.764735723955
 51
186.0204523984016
  0
ARC
  5
1D87
330
1E
100
AcDbEntity
  8
OBJECT
100
AcDbCircle
 10
5.955494919236045
 20
2.691741677960266
 30
0.0
 40
0.0196875
100
AcDbArc
 50
91.00840835794114
 51
186.4042548534708
  0
ARC
  5
1D88
330
1E
100
AcDbEntity
  8
OBJECT
100
AcDbCircle
 10
5.935847518564898
 20
2.928844502309942
 30
0.0
 40
0.0196875
100
AcDbArc
 50
186.0204523984535
 51
272.4608637036904
  0
ARC
  5
1D89
330
1E
100
AcDbEntity
  8
OBJECT
100
AcDbCircle
 10
5.919592052121785
 20
3.086344502310197
 30
0.0
 40
0.0196875
100
AcDbArc
 50
90.93187649001825
 51
185.764735723955
  0
ARC
  5
1D8A
330
1E
100
AcDbEntity
  8
OBJECT
100
AcDbCircle
 10
5.901988554685473
 20
3.323280605063331
 30
0.0
 40
0.0196875
100
AcDbArc
 50
185.3813750140323
 51
272.1868795600192
  0
ARC
  5
1D8B
330
1E
100
AcDbEntity
  8
OBJECT
100
AcDbCircle
 10
5.871937195685788
 20
3.717568378676872
 30
0.0
 40
0.0196875
100
AcDbArc
 50
184.7429684422923
 51
271.9228759124991
  0
ARC
  5
1D8C
330
1E
100
AcDbEntity
  8
OBJECT
100
AcDbCircle
 10
5.887506203625591
 20
3.480780605063586
 30
0.0
 40
0.0196875
100
AcDbArc
 50
90.84360730863535
 51
185.1259364474567
  0
ARC
  5
1D8D
330
1E
100
AcDbEntity
  8
OBJECT
100
AcDbCircle
 10
4.167487835944754
 20
6.919785338328978
 30
0.0
 40
0.33575
100
AcDbArc
 50
10.59460943606513
 51
77.60882170618026
  0
ARC
  5
1D8E
330
1E
100
AcDbEntity
  8
OBJECT
100
AcDbCircle
 10
4.167487835944754
 20
6.919785338328978
 30
0.0
 40
0.39375
100
AcDbArc
 50
10.59460943606513
 51
77.60882170618026
  0
ARC
  5
1D8F
330
1E
100
AcDbEntity
  8
OBJECT
100
AcDbCircle
 10
4.167487835944754
 20
6.919785338328978
 30
0.0
 40
0.2874375
100
AcDbArc
 50
10.59460943606513
 51
77.60882170618026
  0
LINE
  5
1D90
330
1E
100
AcDbEntity
  8
OBJECT
100
AcDbLine
 10
2.913347991822462
 20
6.755951786312698
 30
0.0
 11
3.005847999236863
 21
6.99095178631237
 31
0.0
  0
LINE
  5
1D91
330
1E
100
AcDbEntity
  8
OBJECT
100
AcDbLine
 10
2.913347991822462
 20
6.755951786312698
 30
0.0
 11
3.098347991822408
 21
6.755951786312698
 31
0.0
  0
LINE
  5
1D92
330
1E
100
AcDbEntity
  8
OBJECT
100
AcDbLine
 10
3.005847999236863
 20
6.99095178631237
 30
0.0
 11
3.098347991822408
 21
6.755951786312698
 31
0.0
  0
CIRCLE
  5
1D93
330
1E
100
AcDbEntity
  8
OBJECT
100
AcDbCircle
 10
4.108347985441284
 20
6.94745178631237
 30
0.0
 40
0.118125
  0
CIRCLE
  5
1D94
330
1E
100
AcDbEntity
  8
OBJECT
100
AcDbCircle
 10
4.108347985441284
 20
6.94745178631237
 30
0.0
 40
0.071
  0
CIRCLE
  5
1D95
330
1E
100
AcDbEntity
  8
OBJECT
100
AcDbCircle
 10
4.108347985441284
 20
6.94745178631237
 30
0.0
 40
0.0435
  0
LINE
  5
1D97
330
1E
100
AcDbEntity
  8
OBJECT
100
AcDbLine
 10
6.345726284367103
 20
7.065576786312334
 30
0.0
 11
6.345726284367103
 21
7.381564552438788
 31
0.0
  0
LINE
  5
1D98
330
1E
100
AcDbEntity
  8
OBJECT
100
AcDbLine
 10
5.853538784367104
 20
7.065576786312334
 30
0.0
 11
5.853538784367103
 21
7.303672071763315
 31
0.0
  0
LINE
  5
1D99
330
1E
100
AcDbEntity
  8
OBJECT
100
AcDbLine
 10
5.76691378436719
 20
6.652139324520788
 30
0.0
 11
5.76691378436719
 21
7.293494205974269
 31
0.0
  0
LINE
  5
1D9A
330
1E
100
AcDbEntity
  8
OBJECT
100
AcDbLine
 10
6.357538784367122
 20
7.372701824520476
 30
0.0
 11
6.357538784367008
 21
7.065576786312334
 31
0.0
  0
ARC
  5
1D9B
330
1E
100
AcDbEntity
  8
OBJECT
100
AcDbCircle
 10
-8.315079901116476
 20
4.584951824520061
 30
0.0
 40
13.09280273437504
100
AcDbArc
 50
3.879241113695971
 51
4.743508514523771
  0
ARC
  5
1D9C
330
1E
100
AcDbEntity
  8
OBJECT
100
AcDbCircle
 10
-8.315079720981728
 20
4.584951824520061
 30
0.0
 40
13.03480273437495
100
AcDbArc
 50
0.0
 51
10.59460943606733
  0
ARC
  5
1D9D
330
1E
100
AcDbEntity
  8
OBJECT
100
AcDbCircle
 10
-8.315079720981728
 20
4.584951824520061
 30
0.0
 40
12.98649023437494
100
AcDbArc
 50
0.0
 51
10.59460943606733
  0
ARC
  5
1D9E
330
1E
100
AcDbEntity
  8
OBJECT
100
AcDbCircle
 10
-8.315079901116476
 20
4.584951824520061
 30
0.0
 40
13.09280273437504
100
AcDbArc
 50
0.4300694493215386
 51
1.291757070869759
  0
ARC
  5
1D9F
330
1E
100
AcDbEntity
  8
OBJECT
100
AcDbCircle
 10
-8.315079901116476
 20
4.584951824520061
 30
0.0
 40
13.09280273437504
100
AcDbArc
 50
358.7082429291302
 51
359.5685112071143
  0
ARC
  5
1DA0
330
1E
100
AcDbEntity
  8
OBJECT
100
AcDbCircle
 10
4.773870385986512
 20
4.270113675595524
 30
0.0
 40
0.0196875
100
AcDbArc
 50
358.6307665510421
 51
88.4716967733086
  0
ARC
  5
1DA1
330
1E
100
AcDbEntity
  8
OBJECT
100
AcDbCircle
 10
-8.354557654433691
 20
4.583911755137336
 30
0.0
 40
13.15186523437504
100
AcDbArc
 50
357.9432797610286
 51
358.630766551029
  0
ARC
  5
1DA2
330
1E
100
AcDbEntity
  8
OBJECT
100
AcDbCircle
 10
4.777376692266145
 20
4.506039650787528
 30
0.0
 40
0.0196875
100
AcDbArc
 50
269.9268568082606
 51
359.6511656721109
  0
ARC
  5
1DA3
330
1E
100
AcDbEntity
  8
OBJECT
100
AcDbCircle
 10
-8.354557654433691
 20
4.585991893902786
 30
0.0
 40
13.15186523437504
100
AcDbArc
 50
359.6511656720978
 51
0.3383433468270953
  0
ARC
  5
1DA4
330
1E
100
AcDbEntity
  8
OBJECT
100
AcDbCircle
 10
4.777391111561357
 20
4.663539650127489
 30
0.0
 40
0.0196875
100
AcDbArc
 50
0.3383433468140678
 51
89.99475450948557
  0
ARC
  5
1DA5
330
1E
100
AcDbEntity
  8
OBJECT
100
AcDbCircle
 10
-8.315079901116476
 20
4.584951824520061
 30
0.0
 40
13.09280273437504
100
AcDbArc
 50
2.1536764655753
 51
3.016236697939976
  0
ARC
  5
1DA6
330
1E
100
AcDbEntity
  8
OBJECT
100
AcDbCircle
 10
-8.354557654433691
 20
4.585991893902786
 30
0.0
 40
13.15186523437504
100
AcDbArc
 50
1.369233448970908
 51
2.05672023897132
  0
ARC
  5
1DA7
330
1E
100
AcDbEntity
  8
OBJECT
100
AcDbCircle
 10
4.769160178571652
 20
5.057290405328416
 30
0.0
 40
0.0196875
100
AcDbArc
 50
2.056720238958343
 51
89.99475450948557
  0
LINE
  5
1DA8
330
1E
100
AcDbEntity
  8
OBJECT
100
AcDbLine
 10
4.769161980983582
 20
5.076977905246707
 30
0.0
 11
4.768474421589573
 21
5.076977968193745
 31
0.0
  0
ARC
  5
1DA9
330
1E
100
AcDbEntity
  8
OBJECT
100
AcDbCircle
 10
4.773870385986512
 20
4.899789973444597
 30
0.0
 40
0.0196875
100
AcDbArc
 50
271.5283032266913
 51
1.369233448957881
  0
ARC
  5
1DAA
330
1E
100
AcDbEntity
  8
OBJECT
100
AcDbCircle
 10
4.749097558501077
 20
5.451042243733894
 30
0.0
 40
0.0196875
100
AcDbArc
 50
3.776955334174973
 51
89.99475450945949
  0
LINE
  5
1DAB
330
1E
100
AcDbEntity
  8
OBJECT
100
AcDbLine
 10
4.749099360913007
 20
5.470729743651276
 30
0.0
 11
4.747725337284279
 21
5.470729869443488
 31
0.0
  0
ARC
  5
1DAC
330
1E
100
AcDbEntity
  8
OBJECT
100
AcDbCircle
 10
-8.354557654433691
 20
4.585991893902786
 30
0.0
 40
13.15186523437504
100
AcDbArc
 50
3.088538689316718
 51
3.776955334213929
  0
ARC
  5
1DAD
330
1E
100
AcDbEntity
  8
OBJECT
100
AcDbCircle
 10
4.758545173447188
 20
5.29354137813388
 30
0.0
 40
0.0196875
100
AcDbArc
 50
273.0272721160969
 51
3.088538689290714
  0
ARC
  5
1DAE
330
1E
100
AcDbEntity
  8
OBJECT
100
AcDbCircle
 10
-8.315079901116476
 20
4.584951824520061
 30
0.0
 40
13.09280273437504
100
AcDbArc
 50
7.342591212928314
 51
8.212794339007242
  0
ARC
  5
1DAF
330
1E
100
AcDbEntity
  8
OBJECT
100
AcDbCircle
 10
-8.315079901116476
 20
4.584951824520061
 30
0.0
 40
13.09280273437504
100
AcDbArc
 50
5.608343060427284
 51
6.475154660236572
  0
ARC
  5
1DB0
330
1E
100
AcDbEntity
  8
OBJECT
100
AcDbCircle
 10
4.717148674827669
 20
5.844795170338869
 30
0.0
 40
0.0196875
100
AcDbArc
 50
5.500612854172612
 51
89.99475450945949
  0
LINE
  5
1DB1
330
1E
100
AcDbEntity
  8
OBJECT
100
AcDbLine
 10
4.717150477239485
 20
5.864482670256251
 30
0.0
 11
4.715049943361165
 21
5.864482862561629
 31
0.0
  0
ARC
  5
1DB2
330
1E
100
AcDbEntity
  8
OBJECT
100
AcDbCircle
 10
-8.354557654433691
 20
4.585991893902786
 30
0.0
 40
13.15186523437504
100
AcDbArc
 50
4.810638030764707
 51
5.500612854120603
  0
ARC
  5
1DB3
330
1E
100
AcDbEntity
  8
OBJECT
100
AcDbCircle
 10
4.731359432556971
 20
5.687293868667978
 30
0.0
 40
0.0196875
100
AcDbArc
 50
274.4249547017595
 51
4.810638030725752
  0
ARC
  5
1DB4
330
1E
100
AcDbEntity
  8
OBJECT
100
AcDbCircle
 10
4.673225979780156
 20
6.238549193158718
 30
0.0
 40
0.0196875
100
AcDbArc
 50
7.229285123182311
 51
89.99475450945949
  0
LINE
  5
1DB5
330
1E
100
AcDbEntity
  8
OBJECT
100
AcDbLine
 10
4.673227782192086
 20
6.258236693076099
 30
0.0
 11
4.67035810885072
 21
6.258236955799105
 31
0.0
  0
ARC
  5
1DB6
330
1E
100
AcDbEntity
  8
OBJECT
100
AcDbCircle
 10
-8.354557654433691
 20
4.585991893902786
 30
0.0
 40
13.15186523437504
100
AcDbArc
 50
6.537110965947334
 51
7.229285123154856
  0
ARC
  5
1DB7
330
1E
100
AcDbEntity
  8
OBJECT
100
AcDbCircle
 10
4.692238922729913
 20
6.081047451843545
 30
0.0
 40
0.0196875
100
AcDbArc
 50
275.7222642395684
 51
6.537110965986215
  0
ARC
  5
1DB8
330
1E
100
AcDbEntity
  8
OBJECT
100
AcDbCircle
 10
-8.315079901116476
 20
4.584951824520061
 30
0.0
 40
13.09280273437504
100
AcDbArc
 50
9.083637592357424
 51
10.59460943606734
  0
LINE
  5
1DB9
330
1E
100
AcDbEntity
  8
OBJECT
100
AcDbLine
 10
4.61720954395848
 20
6.651991823256679
 30
0.0
 11
4.613525116069169
 21
6.651992160570983
 31
0.0
  0
ARC
  5
1DBA
330
1E
100
AcDbEntity
  8
OBJECT
100
AcDbCircle
 10
-8.354557654433691
 20
4.585991893902786
 30
0.0
 40
13.15186523437504
100
AcDbArc
 50
8.269573162240137
 51
8.964606185354739
  0
ARC
  5
1DBB
330
1E
100
AcDbEntity
  8
OBJECT
100
AcDbCircle
 10
4.61720774154655
 20
6.632304323339297
 30
0.0
 40
0.0196875
100
AcDbArc
 50
8.964606185367566
 51
89.99475450948557
  0
ARC
  5
1DBC
330
1E
100
AcDbEntity
  8
OBJECT
100
AcDbCircle
 10
4.641075762632269
 20
6.474802137535874
 30
0.0
 40
0.0196875
100
AcDbArc
 50
276.9198236000066
 51
8.269573162267922
  0
LINE
  5
1DBD
330
1E
100
AcDbEntity
  8
OBJECT
100
AcDbLine
 10
6.357538784367463
 20
6.829326786313316
 30
0.0
 11
6.357538784366735
 21
2.222571291984962
 31
0.0
  0
LINE
  5
1DBE
330
1E
100
AcDbEntity
  8
OBJECT
100
AcDbLine
 10
6.345726284367103
 20
2.222571291984962
 30
0.0
 11
6.345726284367103
 21
6.829326786313316
 31
0.0
  0
ARC
  5
1DBF
330
1E
100
AcDbEntity
  8
OBJECT
100
AcDbCircle
 10
5.834727936093869
 20
4.269226087962664
 30
0.0
 40
0.0196875
100
AcDbArc
 50
90.63254636092279
 51
183.8501718548537
  0
ARC
  5
1DC0
330
1E
100
AcDbEntity
  8
OBJECT
100
AcDbCircle
 10
41.23153347671386
 20
6.651413587962991
 30
0.0
 40
35.4965625
100
AcDbArc
 50
183.8501718548017
 51
184.1051515480749
  0
ARC
  5
1DC1
330
1E
100
AcDbEntity
  8
OBJECT
100
AcDbCircle
 10
5.814011187077468
 20
4.663271886357136
 30
0.0
 40
0.0196875
100
AcDbArc
 50
90.51006932010883
 51
183.2130454525445
  0
ARC
  5
1DC2
330
1E
100
AcDbEntity
  8
OBJECT
100
AcDbCircle
 10
5.823204132182624
 20
4.505771886356882
 30
0.0
 40
0.0196875
100
AcDbArc
 50
183.4678438624076
 51
271.4249986097581
  0
ARC
  5
1DC3
330
1E
100
AcDbEntity
  8
OBJECT
100
AcDbCircle
 10
41.23511755142219
 20
6.651709386357282
 30
0.0
 40
35.4965625
100
AcDbArc
 50
183.2130454525964
 51
183.4678438624076
  0
ARC
  5
1DC4
330
1E
100
AcDbEntity
  8
OBJECT
100
AcDbCircle
 10
5.804500291759083
 20
4.899723831869408
 30
0.0
 40
0.0196875
100
AcDbArc
 50
182.8309654888854
 51
270.0
  0
ARC
  5
1DC5
330
1E
100
AcDbEntity
  8
OBJECT
100
AcDbCircle
 10
5.797062749250628
 20
5.057223831869663
 30
0.0
 40
0.0196875
100
AcDbArc
 50
89.99999999994789
 51
182.5763165436378
  0
ARC
  5
1DC6
330
1E
100
AcDbEntity
  8
OBJECT
100
AcDbCircle
 10
41.23807898105421
 20
6.651911331869627
 30
0.0
 40
35.4965625
100
AcDbArc
 50
182.5763165436897
 51
182.8309654888854
  0
ARC
  5
1DC7
330
1E
100
AcDbEntity
  8
OBJECT
100
AcDbCircle
 10
5.792853626014832
 20
5.293701824520752
 30
0.0
 40
0.0196875
100
AcDbArc
 50
182.19443701193
 51
270.0
  0
ARC
  5
1DC8
330
1E
100
AcDbEntity
  8
OBJECT
100
AcDbCircle
 10
5.787168724841237
 20
5.451201824520097
 30
0.0
 40
0.0196875
100
AcDbArc
 50
90.0
 51
181.9399058794463
  0
ARC
  5
1DC9
330
1E
100
AcDbEntity
  8
OBJECT
100
AcDbCircle
 10
41.24371126478324
 20
6.652139324520788
 30
0.0
 40
35.4965625
100
AcDbArc
 50
181.9399058794463
 51
182.1944370118779
  0
ARC
  5
1DCA
330
1E
100
AcDbEntity
  8
OBJECT
100
AcDbCircle
 10
5.779954585703464
 20
5.687451824520024
 30
0.0
 40
0.0196875
100
AcDbArc
 50
181.558179406573
 51
266.1513484500164
  0
ARC
  5
1DCB
330
1E
100
AcDbEntity
  8
OBJECT
100
AcDbCircle
 10
5.776020219192602
 20
5.844951824520279
 30
0.0
 40
0.0196875
100
AcDbArc
 50
94.67471928561582
 51
181.3037345662653
  0
ARC
  5
1DCC
330
1E
100
AcDbEntity
  8
OBJECT
100
AcDbCircle
 10
41.24371126478324
 20
6.652139324520788
 30
0.0
 40
35.4965625
100
AcDbArc
 50
181.3037345662653
 51
181.5581794065209
  0
ARC
  5
1DCD
330
1E
100
AcDbEntity
  8
OBJECT
100
AcDbCircle
 10
5.771430676460155
 20
6.081201824520206
 30
0.0
 40
0.0196875
100
AcDbArc
 50
180.9221139493495
 51
269.1328280647226
  0
ARC
  5
1DCE
330
1E
100
AcDbEntity
  8
OBJECT
100
AcDbCircle
 10
5.769245388617875
 20
6.238701824520461
 30
0.0
 40
0.0196875
100
AcDbArc
 50
91.32868653468587
 51
180.6677239766744
  0
ARC
  5
1DCF
330
1E
100
AcDbEntity
  8
OBJECT
100
AcDbCircle
 10
41.24371126478324
 20
6.652139324520788
 30
0.0
 40
35.4965625
100
AcDbArc
 50
180.6677239766744
 51
180.9221139494016
  0
ARC
  5
1DD0
330
1E
100
AcDbEntity
  8
OBJECT
100
AcDbCircle
 10
5.766836264783179
 20
6.474951824520388
 30
0.0
 40
0.0196875
100
AcDbArc
 50
180.0
 51
270.0
  0
LINE
  5
1DD1
330
1E
100
AcDbEntity
  8
OBJECT
100
AcDbLine
 10
5.747148764783148
 20
6.474951824520388
 30
0.0
 11
5.747148764783148
 21
6.632451824520643
 31
0.0
  0
ARC
  5
1DD2
330
1E
100
AcDbEntity
  8
OBJECT
100
AcDbCircle
 10
5.766836264783179
 20
6.632451824520643
 30
0.0
 40
0.0196875
100
AcDbArc
 50
90.0
 51
180.0
  0
LINE
  5
1DD3
330
1E
100
AcDbEntity
  8
OBJECT
100
AcDbLine
 10
5.766836264783179
 20
6.455264324520243
 30
0.0
 11
5.767382537024488
 21
6.455264324520243
 31
0.0
  0
LINE
  5
1DD4
330
1E
100
AcDbEntity
  8
OBJECT
100
AcDbLine
 10
5.80628878436714
 20
6.950408302439058
 30
0.0
 11
5.76691378436719
 21
6.950408302439058
 31
0.0
  0
LINE
  5
1DD5
330
1E
100
AcDbEntity
  8
OBJECT
100
AcDbLine
 10
5.916663784367091
 20
6.903951786312603
 30
0.0
 11
5.916663784367091
 21
6.990951786312137
 31
0.0
  0
LINE
  5
1DD6
330
1E
100
AcDbEntity
  8
HIDDEN
100
AcDbLine
 10
5.853538784367103
 20
6.991921111146069
 30
0.0
 11
5.873211263238928
 21
6.991921111146069
 31
0.0
  0
ARC
  5
1DD7
330
1E
100
AcDbEntity
  8
OBJECT
100
AcDbCircle
 10
4.560973794344796
 20
9.121830766519886
 30
0.0
 40
0.196875
100
AcDbArc
 50
270.0
 51
356.9999999999942
  0
ARC
  5
1DD8
330
1E
100
AcDbEntity
  8
OBJECT
100
AcDbCircle
 10
4.37920593781471
 20
9.121830766519886
 30
0.0
 40
0.196875
100
AcDbArc
 50
270.0
 51
356.9999999999942
  0
LINE
  5
1DD9
330
1E
100
AcDbEntity
  8
OBJECT
100
AcDbLine
 10
4.595954903371058
 20
9.495893266519923
 30
0.0
 11
4.575811127469457
 21
9.111527125135106
 31
0.0
  0
LINE
  5
1DDA
330
1E
100
AcDbEntity
  8
OBJECT
100
AcDbLine
 10
4.777722759901145
 20
9.495893266519923
 30
0.0
 11
4.757578983999543
 21
9.111527125135106
 31
0.0
  0
LINE
  5
1DDB
330
1E
100
AcDbEntity
  8
OBJECT
100
AcDbLine
 10
4.758035259901227
 20
9.535268266520214
 30
0.0
 11
4.758035259901227
 21
9.495893266519923
 31
0.0
  0
ARC
  5
1DDC
330
1E
100
AcDbEntity
  8
OBJECT
100
AcDbCircle
 10
5.885038784367154
 20
7.293494205974269
 30
0.0
 40
0.118125
100
AcDbArc
 50
93.0000000000056
 51
180.0
  0
LINE
  5
1DDD
330
1E
100
AcDbEntity
  8
OBJECT
100
AcDbLine
 10
6.345726284367103
 20
7.329466525629499
 30
0.0
 11
5.853538784367103
 21
7.303672071763315
 31
0.0
  0
DIMENSION
  5
1DDE
330
1E
100
AcDbEntity
  8
DIM
100
AcDbDimension
  2
*D4
 10
4.285535513393298
 20
10.82753028150364
 30
0.0
 11
3.005848013393332
 21
10.82753028150364
 31
0.0
 70
    32
 71
     5
 42
2.559374999999931
  3
23NSTD
100
AcDbAlignedDimension
 13
1.726160513393367
 23
11.74220103111929
 33
0.0
 14
4.285535513393298
 24
11.74220103111929
 34
0.0
100
AcDbRotatedDimension
  0
DIMENSION
  5
1DDF
330
1E
100
AcDbEntity
  8
DIM
100
AcDbDimension
  2
*D2
 10
0.7224696291309983
 20
11.25001353111984
 30
0.0
 11
0.7224696291309966
 21
14.10470103111975
 31
0.0
 70
    32
 71
     5
 42
5.709374999999809
  3
23NSTD
100
AcDbAlignedDimension
 13
3.005848013393276
 23
16.95938853111965
 33
0.0
 14
3.005847833258414
 24
11.25001353111984
 34
0.0
 50
90.0
100
AcDbRotatedDimension
  0
DIMENSION
  5
1DE0
330
1E
100
AcDbEntity
  8
DIM
100
AcDbDimension
  2
*D1
 10
4.777358502470629
 20
17.43264613181781
 30
0.0
 11
3.005717155183932
 21
17.43264613181781
 31
0.0
 70
    32
 71
     5
 42
3.543282694573395
  3
23NSTD
100
AcDbAlignedDimension
 13
1.234075807897234
 23
14.10470103112038
 33
0.0
 14
4.777358502470629
 24
14.10470103111947
 34
0.0
100
AcDbRotatedDimension
  0
LINE
  5
1DE1
330
1E
100
AcDbEntity
  8
OBJECT
100
AcDbLine
 10
1.380117878447415
 20
10.18495576652228
 30
0.0
 11
4.631577641355058
 21
10.18495576651955
 31
0.0
  0
LINE
  5
1DE2
330
1E
100
AcDbEntity
  8
OBJECT
100
AcDbLine
 10
1.365425357525375
 20
9.90460576651956
 30
0.0
 11
4.646270162277097
 21
9.90460576652047
 31
0.0
  0
ARC
  5
1DE3
330
1E
100
AcDbEntity
  8
OBJECT
100
AcDbCircle
 10
3.005848013393276
 20
17.05718991796948
 30
0.0
 40
5.807176386849635
100
AcDbArc
 50
257.6088217061802
 51
282.3911782938197
  0
LINE
  5
1DE4
330
1E
100
AcDbEntity
  8
OBJECT
100
AcDbLine
 10
1.726160513393367
 20
16.46720103111965
 30
0.0
 11
4.285535513393298
 21
16.46720103111965
 31
0.0
  0
LINE
  5
1DE5
330
1E
100
AcDbEntity
  8
OBJECT
100
AcDbLine
 10
1.726160513393367
 20
11.74220103111929
 30
0.0
 11
4.285535513393298
 21
11.74220103111929
 31
0.0
  0
ARC
  5
1DE6
330
1E
100
AcDbEntity
  8
OBJECT
100
AcDbCircle
 10
3.005848013393276
 20
11.15221214426947
 30
0.0
 40
5.807176386849635
100
AcDbArc
 50
77.60882170618033
 51
102.3911782938196
  0
LINE
  5
1DE7
330
1E
100
AcDbEntity
  8
CENTER
100
AcDbLine
 10
1.214388307835562
 20
14.10470103112038
 30
0.0
 11
4.797046002470594
 21
14.10470103111947
 31
0.0
  0
ARC
  5
1DE8
330
1E
100
AcDbEntity
  8
OBJECT
100
AcDbCircle
 10
14.36625350108549
 20
14.1057411005022
 30
0.0
 40
13.13217773437504
100
AcDbArc
 50
171.8172176719134
 51
172.6841205302238
  0
LINE
  5
1DE9
330
1E
100
AcDbEntity
  8
OBJECT
100
AcDbLine
 10
1.726160513393367
 20
16.46720103111965
 30
0.0
 11
1.726160513393367
 21
11.74220103111929
 31
0.0
  0
LINE
  5
1DEA
330
1E
100
AcDbEntity
  8
OBJECT
100
AcDbLine
 10
1.515964786052492
 20
13.02175213814189
 30
0.0
 11
1.534092970231128
 21
12.82487879697146
 31
0.0
  0
ARC
  5
1DEB
330
1E
100
AcDbEntity
  8
OBJECT
100
AcDbCircle
 10
14.36625350108549
 20
14.1057411005022
 30
0.0
 40
13.15186523437504
100
AcDbArc
 50
184.8211290118475
 51
185.5111038351993
  0
ARC
  5
1DEC
330
1E
100
AcDbEntity
  8
OBJECT
100
AcDbCircle
 10
1.380117878447301
 20
10.0668307665205
 30
0.0
 40
0.118125
100
AcDbArc
 50
90.0
 51
176.9999999999944
  0
ARC
  5
1DED
330
1E
100
AcDbEntity
  8
OBJECT
100
AcDbCircle
 10
1.365425357525375
 20
9.786480766520506
 30
0.0
 40
0.118125
100
AcDbArc
 50
90.0
 51
176.9999999999944
  0
ARC
  5
1DEE
330
1E
100
AcDbEntity
  8
OBJECT
100
AcDbCircle
 10
1.844208190841797
 20
11.76986751731055
 30
0.0
 40
0.39375
100
AcDbArc
 50
190.5946094360651
 51
257.6088217061802
  0
ARC
  5
1DEF
330
1E
100
AcDbEntity
  8
OBJECT
100
AcDbCircle
 10
14.36625350108549
 20
14.1057411005022
 30
0.0
 40
12.89592773437504
100
AcDbArc
 50
188.3443342150688
 51
189.2294214520609
  0
ARC
  5
1DF0
330
1E
100
AcDbEntity
  8
OBJECT
100
AcDbCircle
 10
14.36625350108549
 20
14.1057411005022
 30
0.0
 40
13.15186523437504
100
AcDbArc
 50
188.2800641433262
 51
188.9750971664229
  0
LINE
  5
1DF1
330
1E
100
AcDbEntity
  8
OBJECT
100
AcDbLine
 10
1.394864809192355
 20
12.03736604718233
 30
0.0
 11
1.6372759861611
 21
12.03738824018819
 31
0.0
  0
ARC
  5
1DF2
330
1E
100
AcDbEntity
  8
OBJECT
100
AcDbCircle
 10
14.32677574776839
 20
14.10470103111947
 30
0.0
 40
13.09280273437504
100
AcDbArc
 50
189.0842897803431
 51
190.5946094360674
  0
ARC
  5
1DF3
330
1E
100
AcDbEntity
  8
OBJECT
100
AcDbCircle
 10
1.394863006780425
 20
12.05705354709971
 30
0.0
 40
0.0196875
100
AcDbArc
 50
188.9750971664508
 51
270.0052454905665
  0
LINE
  5
1DF4
330
1E
100
AcDbEntity
  8
OBJECT
100
AcDbLine
 10
1.370964344692353
 20
12.2342388598945
 30
0.0
 11
1.606844724667823
 21
12.23426045499763
 31
0.0
  0
LINE
  5
1DF5
330
1E
100
AcDbEntity
  8
OBJECT
100
AcDbLine
 10
1.33877447448269
 20
12.43111091370155
 30
0.0
 11
1.579516634879993
 21
12.43113295390685
 31
0.0
  0
LINE
  5
1DF6
330
1E
100
AcDbEntity
  8
OBJECT
100
AcDbLine
 10
1.319729088118762
 20
12.62798417090107
 30
0.0
 11
1.555271871247143
 21
12.62800573509776
 31
0.0
  0
LINE
  5
1DF7
330
1E
100
AcDbEntity
  8
OBJECT
100
AcDbLine
 10
1.29477968295923
 20
12.82485688758151
 30
0.0
 11
1.534092970231128
 21
12.82487879697146
 31
0.0
  0
ARC
  5
1DF8
330
1E
100
AcDbEntity
  8
OBJECT
100
AcDbCircle
 10
14.36625350108549
 20
14.1057411005022
 30
0.0
 40
13.15186523437504
100
AcDbArc
 50
186.5476019470253
 51
187.239776104228
  0
ARC
  5
1DF9
330
1E
100
AcDbEntity
  8
OBJECT
100
AcDbCircle
 10
14.36625350108549
 20
14.1057411005022
 30
0.0
 40
13.13217773437504
100
AcDbArc
 50
187.3263704508483
 51
188.1932733091663
  0
ARC
  5
1DFA
330
1E
100
AcDbEntity
  8
OBJECT
100
AcDbCircle
 10
1.33877267207076
 20
12.45079841361894
 30
0.0
 40
0.0196875
100
AcDbArc
 50
187.2397761042667
 51
270.0052454905405
  0
ARC
  5
1DFB
330
1E
100
AcDbEntity
  8
OBJECT
100
AcDbCircle
 10
1.370966147104283
 20
12.21455135997712
 30
0.0
 40
0.0196875
100
AcDbArc
 50
90.00524549054052
 51
188.2800641433391
  0
ARC
  5
1DFC
330
1E
100
AcDbEntity
  8
OBJECT
100
AcDbCircle
 10
14.36625350108549
 20
14.1057411005022
 30
0.0
 40
13.13217773437504
100
AcDbArc
 50
185.5974049577504
 51
186.4611496651548
  0
ARC
  5
1DFD
330
1E
100
AcDbEntity
  8
OBJECT
100
AcDbCircle
 10
1.319730890530692
 20
12.60829667098369
 30
0.0
 40
0.0196875
100
AcDbArc
 50
90.00524549054052
 51
186.5476019470642
  0
ARC
  5
1DFE
330
1E
100
AcDbEntity
  8
OBJECT
100
AcDbCircle
 10
1.294777880547414
 20
12.84454438749889
 30
0.0
 40
0.0196875
100
AcDbArc
 50
185.5111038352382
 51
270.0052454905405
  0
ARC
  5
1DFF
330
1E
100
AcDbEntity
  8
OBJECT
100
AcDbCircle
 10
14.36625350108549
 20
14.1057411005022
 30
0.0
 40
12.89592773437504
100
AcDbArc
 50
186.5799372261848
 51
187.4612467899396
  0
ARC
  5
1E00
330
1E
100
AcDbEntity
  8
OBJECT
100
AcDbCircle
 10
14.36625350108549
 20
14.1057411005022
 30
0.0
 40
13.13217773437504
100
AcDbArc
 50
178.7166864538956
 51
179.5757579958482
  0
ARC
  5
1E01
330
1E
100
AcDbEntity
  8
OBJECT
100
AcDbCircle
 10
14.36625350108549
 20
14.1057411005022
 30
0.0
 40
13.13217773437504
100
AcDbArc
 50
182.1531659223855
 51
183.0130110590562
  0
ARC
  5
1E02
330
1E
100
AcDbEntity
  8
OBJECT
100
AcDbCircle
 10
1.24262218385131
 20
13.63203961588897
 30
0.0
 40
0.0196875
100
AcDbArc
 50
182.0672112200214
 51
270.0052454905665
  0
LINE
  5
1E03
330
1E
100
AcDbEntity
  8
OBJECT
100
AcDbLine
 10
1.280536481815758
 20
13.02173058442622
 30
0.0
 11
1.515964786052492
 21
13.02175213814189
 31
0.0
  0
LINE
  5
1E04
330
1E
100
AcDbEntity
  8
OBJECT
100
AcDbLine
 10
1.262758702809762
 20
13.21860395767635
 30
0.0
 11
1.500874435612601
 21
13.21862575742852
 31
0.0
  0
LINE
  5
1E05
330
1E
100
AcDbEntity
  8
OBJECT
100
AcDbLine
 10
1.25327864444948
 20
13.41547809059102
 30
0.0
 11
1.488811252115553
 21
13.41549965385638
 31
0.0
  0
ARC
  5
1E06
330
1E
100
AcDbEntity
  8
OBJECT
100
AcDbCircle
 10
1.262756900397945
 20
13.23829145759373
 30
0.0
 40
0.0196875
100
AcDbArc
 50
183.7874463152534
 51
270.0052454905405
  0
ARC
  5
1E07
330
1E
100
AcDbEntity
  8
OBJECT
100
AcDbCircle
 10
14.36625350108549
 20
14.1057411005022
 30
0.0
 40
13.13217773437504
100
AcDbArc
 50
183.8735348083619
 51
184.7349334253387
  0
ARC
  5
1E08
330
1E
100
AcDbEntity
  8
OBJECT
100
AcDbCircle
 10
1.280538284227688
 20
13.00204308450793
 30
0.0
 40
0.0196875
100
AcDbArc
 50
90.00524549051444
 51
184.8211290117944
  0
ARC
  5
1E09
330
1E
100
AcDbEntity
  8
OBJECT
100
AcDbCircle
 10
1.253280446861296
 20
13.39579059067364
 30
0.0
 40
0.0196875
100
AcDbArc
 50
90.00524549051444
 51
183.099029670367
  0
ARC
  5
1E0A
330
1E
100
AcDbEntity
  8
OBJECT
100
AcDbCircle
 10
14.36625350108549
 20
14.1057411005022
 30
0.0
 40
13.15186523437504
100
AcDbArc
 50
183.099029670393
 51
183.7874463152924
  0
ARC
  5
1E0B
330
1E
100
AcDbEntity
  8
OBJECT
100
AcDbCircle
 10
14.36625350108549
 20
14.1057411005022
 30
0.0
 40
12.89592773437504
100
AcDbArc
 50
183.0681646070046
 51
183.9445117111008
  0
LINE
  5
1E0C
330
1E
100
AcDbEntity
  8
OBJECT
100
AcDbLine
 10
1.242623986263239
 20
13.61235211597068
 30
0.0
 11
1.479766746996503
 21
13.61237382664694
 31
0.0
  0
LINE
  5
1E0D
330
1E
100
AcDbEntity
  8
OBJECT
100
AcDbLine
 10
1.237881335434209
 20
13.80922668260154
 30
0.0
 11
1.473734579835806
 21
13.80924827522085
 31
0.0
  0
LINE
  5
1E0E
330
1E
100
AcDbEntity
  8
OBJECT
100
AcDbLine
 10
1.234302932678517
 20
14.20297635664519
 30
0.0
 11
1.470692511890703
 21
14.20299799836629
 31
0.0
  0
LINE
  5
1E0F
330
1E
100
AcDbEntity
  8
OBJECT
100
AcDbLine
 10
1.234320956797589
 20
14.00610135746956
 30
0.0
 11
1.470710536009775
 21
14.00612299919157
 31
0.0
  0
ARC
  5
1E10
330
1E
100
AcDbEntity
  8
OBJECT
100
AcDbCircle
 10
14.36625350108549
 20
14.1057411005022
 30
0.0
 40
13.13217773437504
100
AcDbArc
 50
180.0045378296918
 51
181.2938045271783
  0
ARC
  5
1E11
330
1E
100
AcDbEntity
  8
OBJECT
100
AcDbCircle
 10
1.237883137846139
 20
13.78953918268416
 30
0.0
 40
0.0196875
100
AcDbArc
 50
90.00524549056656
 51
181.3797244300247
  0
ARC
  5
1E12
330
1E
100
AcDbEntity
  8
OBJECT
100
AcDbCircle
 10
14.36625350108549
 20
14.1057411005022
 30
0.0
 40
13.15186523437504
100
AcDbArc
 50
181.3797244300378
 51
182.0672112200474
  0
ARC
  5
1E13
330
1E
100
AcDbEntity
  8
OBJECT
100
AcDbCircle
 10
1.234319154385659
 20
14.02578885738694
 30
0.0
 40
0.0196875
100
AcDbArc
 50
180.3488343278891
 51
270.0052454905665
  0
ARC
  5
1E14
330
1E
100
AcDbEntity
  8
OBJECT
100
AcDbCircle
 10
1.234304735090447
 20
14.1832888567269
 30
0.0
 40
0.0196875
100
AcDbArc
 50
90.00524549051444
 51
179.6616566531859
  0
ARC
  5
1E15
330
1E
100
AcDbEntity
  8
OBJECT
100
AcDbCircle
 10
14.36625350108549
 20
14.1057411005022
 30
0.0
 40
13.15186523437504
100
AcDbArc
 50
179.6616566531729
 51
180.3488343279021
  0
ARC
  5
1E16
330
1E
100
AcDbEntity
  8
OBJECT
100
AcDbCircle
 10
1.234304735090447
 20
14.1832888567269
 30
0.0
 40
0.0196875
100
AcDbArc
 50
90.00524549051444
 51
179.6616566531859
  0
ARC
  5
1E17
330
1E
100
AcDbEntity
  8
OBJECT
100
AcDbCircle
 10
1.234319154385659
 20
14.02578885738694
 30
0.0
 40
0.0196875
100
AcDbArc
 50
180.3488343278891
 51
270.0052454905665
  0
ARC
  5
1E18
330
1E
100
AcDbEntity
  8
OBJECT
100
AcDbCircle
 10
14.36625350108549
 20
14.1057411005022
 30
0.0
 40
13.15186523437504
100
AcDbArc
 50
179.6616566531729
 51
180.3488343279021
  0
ARC
  5
1E19
330
1E
100
AcDbEntity
  8
OBJECT
100
AcDbCircle
 10
14.36625350108549
 20
14.1057411005022
 30
0.0
 40
12.89592773437504
100
AcDbArc
 50
181.3174146801211
 51
182.1925342132562
  0
ARC
  5
1E1A
330
1E
100
AcDbEntity
  8
OBJECT
100
AcDbCircle
 10
14.36625350108549
 20
14.1057411005022
 30
0.0
 40
12.89592773437504
100
AcDbArc
 50
179.567889746606
 51
180.4426012344612
  0
ARC
  5
1E1B
330
1E
100
AcDbEntity
  8
OBJECT
100
AcDbCircle
 10
14.36625350108549
 20
14.1057411005022
 30
0.0
 40
13.13217773437504
100
AcDbArc
 50
175.2755575557244
 51
176.1369561727115
  0
LINE
  5
1E1C
330
1E
100
AcDbEntity
  8
OBJECT
100
AcDbLine
 10
1.262596485738797
 20
14.99047895025069
 30
0.0
 11
1.500712218541636
 21
14.99050075000286
 31
0.0
  0
LINE
  5
1E1D
330
1E
100
AcDbEntity
  8
OBJECT
100
AcDbLine
 10
1.253152475616431
 20
14.79360308481591
 30
0.0
 11
1.488685083282618
 21
14.79362464808127
 31
0.0
  0
LINE
  5
1E1E
330
1E
100
AcDbEntity
  8
OBJECT
100
AcDbLine
 10
1.242533865668221
 20
14.59672711184612
 30
0.0
 11
1.479676626401484
 21
14.59674882252147
 31
0.0
  0
LINE
  5
1E1F
330
1E
100
AcDbEntity
  8
OBJECT
100
AcDbLine
 10
1.237827263077221
 20
14.39985168012572
 30
0.0
 11
1.473680507478817
 21
14.39987327274593
 31
0.0
  0
ARC
  5
1E20
330
1E
100
AcDbEntity
  8
OBJECT
100
AcDbCircle
 10
14.36625350108549
 20
14.1057411005022
 30
0.0
 40
13.13217773437504
100
AcDbArc
 50
176.9974799220119
 51
177.8573250586923
  0
ARC
  5
1E21
330
1E
100
AcDbEntity
  8
OBJECT
100
AcDbCircle
 10
1.242535668080151
 20
14.57703961192783
 30
0.0
 40
0.0196875
100
AcDbArc
 50
90.00524549051444
 51
177.9432797610416
  0
ARC
  5
1E22
330
1E
100
AcDbEntity
  8
OBJECT
100
AcDbCircle
 10
1.237825460665291
 20
14.41953918004401
 30
0.0
 40
0.0196875
100
AcDbArc
 50
178.6307665510421
 51
270.0052454905145
  0
ARC
  5
1E23
330
1E
100
AcDbEntity
  8
OBJECT
100
AcDbCircle
 10
14.36625350108549
 20
14.1057411005022
 30
0.0
 40
13.15186523437504
100
AcDbArc
 50
177.9432797610287
 51
178.6307665510291
  0
ARC
  5
1E24
330
1E
100
AcDbEntity
  8
OBJECT
100
AcDbCircle
 10
1.262598288150726
 20
14.9707914503333
 30
0.0
 40
0.0196875
100
AcDbArc
 50
90.00524549054052
 51
176.223044665825
  0
ARC
  5
1E25
330
1E
100
AcDbEntity
  8
OBJECT
100
AcDbCircle
 10
1.253150673204615
 20
14.81329058473329
 30
0.0
 40
0.0196875
100
AcDbArc
 50
176.9114613107092
 51
270.0052454905665
  0
ARC
  5
1E26
330
1E
100
AcDbEntity
  8
OBJECT
100
AcDbCircle
 10
14.36625350108549
 20
14.1057411005022
 30
0.0
 40
13.15186523437504
100
AcDbArc
 50
176.223044665786
 51
176.9114613106832
  0
ARC
  5
1E27
330
1E
100
AcDbEntity
  8
OBJECT
100
AcDbCircle
 10
14.36625350108549
 20
14.1057411005022
 30
0.0
 40
12.89592773437504
100
AcDbArc
 50
177.8179567678106
 51
178.6930763009488
  0
ARC
  5
1E28
330
1E
100
AcDbEntity
  8
OBJECT
100
AcDbCircle
 10
14.36625350108549
 20
14.1057411005022
 30
0.0
 40
12.89592773437504
100
AcDbArc
 50
176.0659792699764
 51
176.9423263740697
  0
LINE
  5
1E29
330
1E
100
AcDbEntity
  8
OBJECT
100
AcDbLine
 10
1.338468064459718
 20
15.77798589967551
 30
0.0
 11
1.579210224857021
 21
15.7780079398808
 31
0.0
  0
LINE
  5
1E2A
330
1E
100
AcDbEntity
  8
OBJECT
100
AcDbLine
 10
1.31945872633382
 20
15.58110915852557
 30
0.0
 11
1.555001509462201
 21
15.58113072272135
 31
0.0
  0
LINE
  5
1E2B
330
1E
100
AcDbEntity
  8
OBJECT
100
AcDbLine
 10
1.294545369412318
 20
15.38423187685566
 30
0.0
 11
1.533858656684103
 21
15.38425378624561
 31
0.0
  0
LINE
  5
1E2C
330
1E
100
AcDbEntity
  8
OBJECT
100
AcDbLine
 10
1.280338216506763
 20
15.18735557535001
 30
0.0
 11
1.515766520743611
 21
15.18737712906568
 31
0.0
  0
ARC
  5
1E2D
330
1E
100
AcDbEntity
  8
OBJECT
100
AcDbCircle
 10
14.36625350108549
 20
14.1057411005022
 30
0.0
 40
13.13217773437504
100
AcDbArc
 50
173.5493413159196
 51
174.4130860233277
  0
ARC
  5
1E2E
330
1E
100
AcDbEntity
  8
OBJECT
100
AcDbCircle
 10
1.294547171824135
 20
15.36454437693828
 30
0.0
 40
0.0196875
100
AcDbArc
 50
90.00524549054052
 51
174.4993871458274
  0
ARC
  5
1E2F
330
1E
100
AcDbEntity
  8
OBJECT
100
AcDbCircle
 10
1.280336414094833
 20
15.20704307526739
 30
0.0
 40
0.0196875
100
AcDbArc
 50
175.1893619692742
 51
270.0052454905665
  0
ARC
  5
1E30
330
1E
100
AcDbEntity
  8
OBJECT
100
AcDbCircle
 10
14.36625350108549
 20
14.1057411005022
 30
0.0
 40
13.15186523437504
100
AcDbArc
 50
174.4993871458794
 51
175.1893619692353
  0
ARC
  5
1E31
330
1E
100
AcDbEntity
  8
OBJECT
100
AcDbCircle
 10
1.31945692392189
 20
15.60079665844296
 30
0.0
 40
0.0196875
100
AcDbArc
 50
173.4628890340137
 51
270.0052454905405
  0
ARC
  5
1E32
330
1E
100
AcDbEntity
  8
OBJECT
100
AcDbCircle
 10
14.36625350108549
 20
14.1057411005022
 30
0.0
 40
13.15186523437504
100
AcDbArc
 50
172.7707148768451
 51
173.4628890340526
  0
ARC
  5
1E33
330
1E
100
AcDbEntity
  8
OBJECT
100
AcDbCircle
 10
1.338469866871648
 20
15.75829839975813
 30
0.0
 40
0.0196875
100
AcDbArc
 50
90.00524549054052
 51
172.7707148768176
  0
ARC
  5
1E34
330
1E
100
AcDbEntity
  8
OBJECT
100
AcDbCircle
 10
14.36625350108549
 20
14.1057411005022
 30
0.0
 40
12.89592773437504
100
AcDbArc
 50
174.3103035030162
 51
175.1887080897309
  0
ARC
  5
1E35
330
1E
100
AcDbEntity
  8
OBJECT
100
AcDbCircle
 10
14.36625350108549
 20
14.1057411005022
 30
0.0
 40
12.89592773437504
100
AcDbArc
 50
172.5492441911427
 51
173.430553754879
  0
ARC
  5
1E36
330
1E
100
AcDbEntity
  8
OBJECT
100
AcDbCircle
 10
1.844208190841797
 20
16.43953454492839
 30
0.0
 40
0.39375
100
AcDbArc
 50
102.3911782938196
 51
169.4053905639325
  0
LINE
  5
1E37
330
1E
100
AcDbEntity
  8
OBJECT
100
AcDbLine
 10
1.394486302693323
 20
16.17174102985609
 30
0.0
 11
1.636897479662067
 21
16.17176322286104
 31
0.0
  0
LINE
  5
1E38
330
1E
100
AcDbEntity
  8
OBJECT
100
AcDbLine
 10
1.370621886431464
 20
15.9748638442179
 30
0.0
 11
1.60650226640682
 21
15.97488543932195
 31
0.0
  0
ARC
  5
1E39
330
1E
100
AcDbEntity
  8
OBJECT
100
AcDbCircle
 10
14.32677574776839
 20
14.10470103111947
 30
0.0
 40
13.09280273437504
100
AcDbArc
 50
169.4053905639325
 51
170.9157102196568
  0
ARC
  5
1E3A
330
1E
100
AcDbEntity
  8
OBJECT
100
AcDbCircle
 10
1.394488105105253
 20
16.15205352993871
 30
0.0
 40
0.0196875
100
AcDbArc
 50
90.00524549051444
 51
171.0353938146324
  0
ARC
  5
1E3B
330
1E
100
AcDbEntity
  8
OBJECT
100
AcDbCircle
 10
1.370620084019535
 20
15.99455134413529
 30
0.0
 40
0.0196875
100
AcDbArc
 50
171.730426837732
 51
270.0052454905405
  0
ARC
  5
1E3C
330
1E
100
AcDbEntity
  8
OBJECT
100
AcDbCircle
 10
14.36625350108549
 20
14.1057411005022
 30
0.0
 40
13.15186523437504
100
AcDbArc
 50
171.0353938146452
 51
171.7304268377598
  0
ARC
  5
1E3D
330
1E
100
AcDbEntity
  8
OBJECT
100
AcDbCircle
 10
14.36625350108549
 20
14.1057411005022
 30
0.0
 40
12.89592773437504
100
AcDbArc
 50
170.7810695290037
 51
171.6661567659981
  0
DIMENSION
  5
1E3E
330
1E
100
AcDbEntity
  8
DIM
100
AcDbDimension
  2
*D5
 10
5.23565008594646
 20
16.46720103111965
 30
0.0
 11
5.235650085946457
 21
14.10470103111947
 31
0.0
 70
    32
 71
     5
 42
4.725000000000362
  3
23NSTD
100
AcDbAlignedDimension
 13
4.285535513393298
 23
11.74220103111929
 33
0.0
 14
4.285535513393298
 24
16.46720103111965
 34
0.0
 50
90.0
100
AcDbRotatedDimension
  0
ARC
  5
1E3F
330
1E
100
AcDbEntity
  8
OBJECT
100
AcDbCircle
 10
47.11066378436707
 20
16.1718885311202
 30
0.0
 40
41.34375
100
AcDbArc
 50
180.2728380764371
 51
180.5456823399839
  0
ARC
  5
1E40
330
1E
100
AcDbEntity
  8
OBJECT
100
AcDbCircle
 10
-8.354819231904414
 20
14.10470103111947
 30
0.0
 40
13.13217773437504
100
AcDbArc
 50
7.321124960309694
 51
8.188027818633297
  0
LINE
  5
1E41
330
1E
100
AcDbEntity
  8
OBJECT
100
AcDbLine
 10
4.285535513393298
 20
16.46720103111965
 30
0.0
 11
4.285535513393298
 21
11.74220103111929
 31
0.0
  0
LINE
  5
1E42
330
1E
100
AcDbEntity
  8
CENTER
100
AcDbLine
 10
3.005848013393276
 20
16.95938853111965
 30
0.0
 11
3.005847833258414
 21
11.25001353111929
 31
0.0
  0
ARC
  5
1E43
330
1E
100
AcDbEntity
  8
OBJECT
100
AcDbCircle
 10
4.167487835944754
 20
11.76986751731055
 30
0.0
 40
0.39375
100
AcDbArc
 50
282.3911782938197
 51
349.4053905639348
  0
ARC
  5
1E44
330
1E
100
AcDbEntity
  8
OBJECT
100
AcDbCircle
 10
41.22249935373069
 20
16.17135075750593
 30
0.0
 40
35.4965625
100
AcDbArc
 50
185.1259364474443
 51
185.3813750140737
  0
LINE
  5
1E45
330
1E
100
AcDbEntity
  8
OBJECT
100
AcDbLine
 10
4.495568669636483
 20
13.02188853111965
 30
0.0
 11
4.477458509500976
 21
12.82501353111911
 31
0.0
  0
ARC
  5
1E46
330
1E
100
AcDbEntity
  8
OBJECT
100
AcDbCircle
 10
-8.354819231904414
 20
14.10470103111947
 30
0.0
 40
13.15186523437504
100
AcDbArc
 50
354.4941416553454
 51
355.1841164786927
  0
ARC
  5
1E47
330
1E
100
AcDbEntity
  8
OBJECT
100
AcDbCircle
 10
4.631577641355058
 20
10.0668307665205
 30
0.0
 40
0.118125
100
AcDbArc
 50
3.000000000005599
 51
90.0
  0
ARC
  5
1E48
330
1E
100
AcDbEntity
  8
OBJECT
100
AcDbCircle
 10
4.646270162277097
 20
9.786480766520506
 30
0.0
 40
0.118125
100
AcDbArc
 50
3.000000000005599
 51
90.0
  0
ARC
  5
1E49
330
1E
100
AcDbEntity
  8
OBJECT
100
AcDbCircle
 10
-8.354819231904414
 20
14.10470103111947
 30
0.0
 40
12.89592773437504
100
AcDbArc
 50
350.7758240384724
 51
351.6609112754607
  0
ARC
  5
1E4A
330
1E
100
AcDbEntity
  8
OBJECT
100
AcDbCircle
 10
-8.354819231904414
 20
14.10470103111947
 30
0.0
 40
13.15186523437504
100
AcDbArc
 50
351.030148324114
 51
351.7251813472126
  0
LINE
  5
1E4B
330
1E
100
AcDbEntity
  8
OBJECT
100
AcDbLine
 10
4.616758767599478
 20
12.03751353111965
 30
0.0
 11
4.374347589614828
 21
12.03751353111965
 31
0.0
  0
ARC
  5
1E4C
330
1E
100
AcDbEntity
  8
OBJECT
100
AcDbCircle
 10
-8.315079720981614
 20
14.10470103111947
 30
0.0
 40
13.09280273437495
100
AcDbArc
 50
349.4053905639326
 51
350.9157102196567
  0
ARC
  5
1E4D
330
1E
100
AcDbEntity
  8
OBJECT
100
AcDbCircle
 10
4.616758767599478
 20
12.0572010311198
 30
0.0
 40
0.0196875
100
AcDbArc
 50
269.9999999999739
 51
351.0301483240864
  0
LINE
  5
1E4E
330
1E
100
AcDbEntity
  8
OBJECT
100
AcDbLine
 10
4.640641208080566
 20
12.23438853111929
 30
0.0
 11
4.404760827116589
 21
12.23438853111929
 31
0.0
  0
LINE
  5
1E4F
330
1E
100
AcDbEntity
  8
OBJECT
100
AcDbLine
 10
4.672813054306104
 20
12.43126353111984
 30
0.0
 11
4.43207089289983
 21
12.43126353111984
 31
0.0
  0
LINE
  5
1E50
330
1E
100
AcDbEntity
  8
OBJECT
100
AcDbLine
 10
4.691840416630654
 20
12.62813853111947
 30
0.0
 11
4.456297632515244
 21
12.62813853111947
 31
0.0
  0
LINE
  5
1E51
330
1E
100
AcDbEntity
  8
OBJECT
100
AcDbLine
 10
4.716771797775706
 20
12.82501353111911
 30
0.0
 11
4.477458509500976
 21
12.82501353111911
 31
0.0
  0
ARC
  5
1E52
330
1E
100
AcDbEntity
  8
OBJECT
100
AcDbCircle
 10
-8.354819231904414
 20
14.10470103111947
 30
0.0
 40
12.89592773437504
100
AcDbArc
 50
352.5439987006054
 51
353.425308264345
  0
ARC
  5
1E53
330
1E
100
AcDbEntity
  8
OBJECT
100
AcDbCircle
 10
-8.354819231904414
 20
14.10470103111947
 30
0.0
 40
13.15186523437504
100
AcDbArc
 50
352.7654693863092
 51
353.4576435435085
  0
ARC
  5
1E54
330
1E
100
AcDbEntity
  8
OBJECT
100
AcDbCircle
 10
4.672813054306104
 20
12.45095103111998
 30
0.0
 40
0.0196875
100
AcDbArc
 50
270.0
 51
352.7654693862705
  0
ARC
  5
1E55
330
1E
100
AcDbEntity
  8
OBJECT
100
AcDbCircle
 10
-8.354819231904414
 20
14.10470103111947
 30
0.0
 40
13.13217773437504
100
AcDbArc
 50
351.8119721813667
 51
352.6788750396903
  0
ARC
  5
1E56
330
1E
100
AcDbEntity
  8
OBJECT
100
AcDbCircle
 10
4.640641208080566
 20
12.21470103111914
 30
0.0
 40
0.0196875
100
AcDbArc
 50
351.7251813471866
 51
90.0
  0
ARC
  5
1E57
330
1E
100
AcDbEntity
  8
OBJECT
100
AcDbCircle
 10
-8.354819231904414
 20
14.10470103111947
 30
0.0
 40
13.13217773437504
100
AcDbArc
 50
353.5440958253746
 51
354.4078405327888
  0
ARC
  5
1E58
330
1E
100
AcDbEntity
  8
OBJECT
100
AcDbCircle
 10
4.716771797775706
 20
12.84470103111925
 30
0.0
 40
0.0196875
100
AcDbArc
 50
270.0
 51
354.4941416552933
  0
ARC
  5
1E59
330
1E
100
AcDbEntity
  8
OBJECT
100
AcDbCircle
 10
4.691840416630654
 20
12.60845103111932
 30
0.0
 40
0.0196875
100
AcDbArc
 50
353.4576435434682
 51
90.0
  0
ARC
  5
1E5A
330
1E
100
AcDbEntity
  8
OBJECT
100
AcDbCircle
 10
6.164301850669673
 20
11.38152309252564
 30
0.0
 40
0.118125
100
AcDbArc
 50
186.6727710193559
 51
267.0000000000074
  0
ARC
  5
1E5B
330
1E
100
AcDbEntity
  8
OBJECT
100
AcDbCircle
 10
41.21098139801659
 20
16.16981183040297
 30
0.0
 40
35.4965625
100
AcDbArc
 50
186.4042548534837
 51
186.6602824920829
  0
ARC
  5
1E5C
330
1E
100
AcDbEntity
  8
OBJECT
100
AcDbCircle
 10
47.11066378436707
 20
16.1718885311202
 30
0.0
 40
41.34375
100
AcDbArc
 50
185.7420629560632
 51
186.6727710193685
  0
ARC
  5
1E5D
330
1E
100
AcDbEntity
  8
OBJECT
100
AcDbCircle
 10
5.973529637950647
 20
12.05512433040257
 30
0.0
 40
0.0196875
100
AcDbArc
 50
186.660282492122
 51
270.000000000026
  0
ARC
  5
1E5E
330
1E
100
AcDbEntity
  8
OBJECT
100
AcDbCircle
 10
41.21705050098493
 20
16.17066465475272
 30
0.0
 40
35.4965625
100
AcDbArc
 50
185.7647357239565
 51
186.0204523984032
  0
ARC
  5
1E5F
330
1E
100
AcDbEntity
  8
OBJECT
100
AcDbCircle
 10
47.11066378436707
 20
16.1718885311202
 30
0.0
 40
41.34375
100
AcDbArc
 50
185.1927056459564
 51
185.4679222349673
  0
ARC
  5
1E60
330
1E
100
AcDbEntity
  8
OBJECT
100
AcDbCircle
 10
5.955494919236159
 20
12.21262433040283
 30
0.0
 40
0.0196875
100
AcDbArc
 50
89.99999999997395
 51
186.404254853471
  0
ARC
  5
1E61
330
1E
100
AcDbEntity
  8
OBJECT
100
AcDbCircle
 10
5.935847518564898
 20
12.44972715475251
 30
0.0
 40
0.0196875
100
AcDbArc
 50
186.0204523984554
 51
270.0
  0
ARC
  5
1E62
330
1E
100
AcDbEntity
  8
OBJECT
100
AcDbCircle
 10
47.11066378436707
 20
16.1718885311202
 30
0.0
 40
41.34375
100
AcDbArc
 50
184.6440584326401
 51
184.9188088593518
  0
ARC
  5
1E63
330
1E
100
AcDbEntity
  8
OBJECT
100
AcDbCircle
 10
5.919592052121785
 20
12.60722715475276
 30
0.0
 40
0.0196875
100
AcDbArc
 50
89.99999999997395
 51
185.7647357239565
  0
ARC
  5
1E64
330
1E
100
AcDbEntity
  8
OBJECT
100
AcDbCircle
 10
5.901988554685473
 20
12.84416325750589
 30
0.0
 40
0.0196875
100
AcDbArc
 50
185.3813750140349
 51
270.000000000026
  0
ARC
  5
1E65
330
1E
100
AcDbEntity
  8
OBJECT
100
AcDbCircle
 10
-8.354819231904414
 20
14.10470103111947
 30
0.0
 40
13.13217773437504
100
AcDbArc
 50
0.4294874946797805
 51
1.288559036641571
  0
ARC
  5
1E66
330
1E
100
AcDbEntity
  8
OBJECT
100
AcDbCircle
 10
-8.354819231904414
 20
14.10470103111947
 30
0.0
 40
13.13217773437504
100
AcDbArc
 50
356.9922344314728
 51
357.8520795681573
  0
ARC
  5
1E67
330
1E
100
AcDbEntity
  8
OBJECT
100
AcDbCircle
 10
4.768855398214029
 20
13.63220103111962
 30
0.0
 40
0.0196875
100
AcDbArc
 50
269.9999999999739
 51
357.938034270506
  0
LINE
  5
1E68
330
1E
100
AcDbEntity
  8
OBJECT
100
AcDbLine
 10
4.730996974859905
 20
13.02188853111965
 30
0.0
 11
4.495568669636483
 21
13.02188853111965
 31
0.0
  0
LINE
  5
1E69
330
1E
100
AcDbEntity
  8
OBJECT
100
AcDbLine
 10
4.748756729821295
 20
13.21876353111929
 30
0.0
 11
4.510640996020512
 21
13.21876353111929
 31
0.0
  0
LINE
  5
1E6A
330
1E
100
AcDbEntity
  8
OBJECT
100
AcDbLine
 10
4.758218764102295
 20
13.41563853111984
 30
0.0
 11
4.522686155449079
 21
13.41563853111984
 31
0.0
  0
ARC
  5
1E6B
330
1E
100
AcDbEntity
  8
OBJECT
100
AcDbCircle
 10
-8.354819231904414
 20
14.10470103111947
 30
0.0
 40
12.89592773437504
100
AcDbArc
 50
356.0607337794476
 51
356.9370808835303
  0
ARC
  5
1E6C
330
1E
100
AcDbEntity
  8
OBJECT
100
AcDbCircle
 10
4.748756729821295
 20
13.23845103111944
 30
0.0
 40
0.0196875
100
AcDbArc
 50
270.0
 51
356.2177991752896
  0
ARC
  5
1E6D
330
1E
100
AcDbEntity
  8
OBJECT
100
AcDbCircle
 10
-8.354819231904414
 20
14.10470103111947
 30
0.0
 40
13.13217773437504
100
AcDbArc
 50
355.2703120651895
 51
356.1317106821736
  0
ARC
  5
1E6E
330
1E
100
AcDbEntity
  8
OBJECT
100
AcDbCircle
 10
4.730996974859905
 20
13.00220103111951
 30
0.0
 40
0.0196875
100
AcDbArc
 50
355.1841164787445
 51
90.00000000002605
  0
LINE
  5
1E6F
330
1E
100
AcDbEntity
  8
OBJECT
100
AcDbLine
 10
4.731333717976141
 20
13.02188853111965
 30
0.0
 11
4.693467562124212
 21
13.02188853111965
 31
0.0
  0
ARC
  5
1E70
330
1E
100
AcDbEntity
  8
OBJECT
100
AcDbCircle
 10
4.758218764102295
 20
13.39595103111969
 30
0.0
 40
0.0196875
100
AcDbArc
 50
356.9062158201804
 51
90.00000000002605
  0
ARC
  5
1E71
330
1E
100
AcDbEntity
  8
OBJECT
100
AcDbCircle
 10
-8.354819231904414
 20
14.10470103111947
 30
0.0
 40
13.15186523437504
100
AcDbArc
 50
356.2177991752506
 51
356.9062158201414
  0
LINE
  5
1E72
330
1E
100
AcDbEntity
  8
OBJECT
100
AcDbLine
 10
4.768855398214029
 20
13.61251353111947
 30
0.0
 11
4.531712636487029
 21
13.61251353111947
 31
0.0
  0
LINE
  5
1E73
330
1E
100
AcDbEntity
  8
OBJECT
100
AcDbLine
 10
4.773580024943882
 20
13.80938853111911
 30
0.0
 11
4.537726779553779
 21
13.80938853111911
 31
0.0
  0
LINE
  5
1E74
330
1E
100
AcDbEntity
  8
OBJECT
100
AcDbLine
 10
4.777122379476324
 20
14.20313853111929
 30
0.0
 11
4.54073279927347
 21
14.20313853111929
 31
0.0
  0
LINE
  5
1E75
330
1E
100
AcDbEntity
  8
OBJECT
100
AcDbLine
 10
4.777122379476324
 20
14.00626353111965
 30
0.0
 11
4.54073279927347
 21
14.00626353111965
 31
0.0
  0
ARC
  5
1E76
330
1E
100
AcDbEntity
  8
OBJECT
100
AcDbCircle
 10
-8.354819231904414
 20
14.10470103111947
 30
0.0
 40
12.89592773437504
100
AcDbArc
 50
357.8127112772701
 51
358.6878308104148
  0
ARC
  5
1E77
330
1E
100
AcDbEntity
  8
OBJECT
100
AcDbCircle
 10
-8.354819231904414
 20
14.10470103111947
 30
0.0
 40
12.89592773437504
100
AcDbArc
 50
359.5626442560683
 51
0.4373557439316529
  0
ARC
  5
1E78
330
1E
100
AcDbEntity
  8
OBJECT
100
AcDbCircle
 10
-8.354819231904414
 20
14.10470103111947
 30
0.0
 40
13.13217773437504
100
AcDbArc
 50
358.7114409633584
 51
0.0000000000000155
  0
ARC
  5
1E79
330
1E
100
AcDbEntity
  8
OBJECT
100
AcDbCircle
 10
4.773580024943882
 20
13.78970103111987
 30
0.0
 40
0.0196875
100
AcDbArc
 50
358.6255210605035
 51
89.99999999997395
  0
ARC
  5
1E7A
330
1E
100
AcDbEntity
  8
OBJECT
100
AcDbCircle
 10
-8.354819231904414
 20
14.10470103111947
 30
0.0
 40
13.15186523437504
100
AcDbArc
 50
357.938034270493
 51
358.6255210604905
  0
ARC
  5
1E7B
330
1E
100
AcDbEntity
  8
OBJECT
100
AcDbCircle
 10
4.777122379476438
 20
14.0259510311198
 30
0.0
 40
0.0196875
100
AcDbArc
 50
269.9999999999739
 51
359.6564111626422
  0
ARC
  5
1E7C
330
1E
100
AcDbEntity
  8
OBJECT
100
AcDbCircle
 10
4.777122379476438
 20
14.18345103111914
 30
0.0
 40
0.0196875
100
AcDbArc
 50
0.3435888373577413
 51
90.00000000002605
  0
ARC
  5
1E7D
330
1E
100
AcDbEntity
  8
OBJECT
100
AcDbCircle
 10
-8.354819231904414
 20
14.10470103111947
 30
0.0
 40
13.15186523437504
100
AcDbArc
 50
359.6564111626422
 51
0.3435888373577413
  0
ARC
  5
1E7E
330
1E
100
AcDbEntity
  8
OBJECT
100
AcDbCircle
 10
4.777122379476438
 20
14.18345103111914
 30
0.0
 40
0.0196875
100
AcDbArc
 50
0.3435888373577413
 51
90.00000000002605
  0
ARC
  5
1E7F
330
1E
100
AcDbEntity
  8
OBJECT
100
AcDbCircle
 10
4.777122379476438
 20
14.0259510311198
 30
0.0
 40
0.0196875
100
AcDbArc
 50
269.9999999999739
 51
359.6564111626422
  0
ARC
  5
1E80
330
1E
100
AcDbEntity
  8
OBJECT
100
AcDbCircle
 10
-8.354819231904414
 20
14.10470103111947
 30
0.0
 40
13.15186523437504
100
AcDbArc
 50
359.6564111626422
 51
0.3435888373577413
  0
LINE
  5
1E81
330
1E
100
AcDbEntity
  8
OBJECT
100
AcDbLine
 10
4.777459122592674
 20
14.20313853111929
 30
0.0
 11
4.737950191957381
 21
14.20313853111929
 31
0.0
  0
LINE
  5
1E82
330
1E
100
AcDbEntity
  8
OBJECT
100
AcDbLine
 10
4.777459122592674
 20
14.20313853111929
 30
0.0
 11
4.737950191957381
 21
14.20313853111929
 31
0.0
  0
ARC
  5
1E83
330
1E
100
AcDbEntity
  8
OBJECT
100
AcDbCircle
 10
-8.354819231904414
 20
14.10470103111947
 30
0.0
 40
13.13217773437504
100
AcDbArc
 50
3.868289317826353
 51
4.729687934810439
  0
LINE
  5
1E84
330
1E
100
AcDbEntity
  8
OBJECT
100
AcDbLine
 10
4.748756729821295
 20
14.99063853111965
 30
0.0
 11
4.510640996020512
 21
14.99063853111965
 31
0.0
  0
LINE
  5
1E85
330
1E
100
AcDbEntity
  8
OBJECT
100
AcDbLine
 10
4.758218764102295
 20
14.79376353111911
 30
0.0
 11
4.522686155449079
 21
14.79376353111911
 31
0.0
  0
LINE
  5
1E86
330
1E
100
AcDbEntity
  8
OBJECT
100
AcDbLine
 10
4.768855398214029
 20
14.59688853111947
 30
0.0
 11
4.531712636487029
 21
14.59688853111947
 31
0.0
  0
LINE
  5
1E87
330
1E
100
AcDbEntity
  8
OBJECT
100
AcDbLine
 10
4.773580024943882
 20
14.40001353111983
 30
0.0
 11
4.537726779553779
 21
14.40001353111983
 31
0.0
  0
ARC
  5
1E88
330
1E
100
AcDbEntity
  8
OBJECT
100
AcDbCircle
 10
-8.354819231904414
 20
14.10470103111947
 30
0.0
 40
12.89592773437504
100
AcDbArc
 50
1.312169189585175
 51
2.187288722729852
  0
ARC
  5
1E89
330
1E
100
AcDbEntity
  8
OBJECT
100
AcDbCircle
 10
-8.354819231904414
 20
14.10470103111947
 30
0.0
 40
12.89592773437504
100
AcDbArc
 50
3.062919116469587
 51
3.939266220552306
  0
ARC
  5
1E8A
330
1E
100
AcDbEntity
  8
OBJECT
100
AcDbCircle
 10
-8.354819231904414
 20
14.10470103111947
 30
0.0
 40
13.13217773437504
100
AcDbArc
 50
2.147920431842705
 51
3.00776556852716
  0
ARC
  5
1E8B
330
1E
100
AcDbEntity
  8
OBJECT
100
AcDbCircle
 10
4.768855398214029
 20
14.57720103111933
 30
0.0
 40
0.0196875
100
AcDbArc
 50
2.061965729493975
 51
90.00000000002605
  0
ARC
  5
1E8C
330
1E
100
AcDbEntity
  8
OBJECT
100
AcDbCircle
 10
4.773580024943882
 20
14.41970103111998
 30
0.0
 40
0.0196875
100
AcDbArc
 50
270.000000000026
 51
1.374478939496447
  0
ARC
  5
1E8D
330
1E
100
AcDbEntity
  8
OBJECT
100
AcDbCircle
 10
-8.354819231904414
 20
14.10470103111947
 30
0.0
 40
13.15186523437504
100
AcDbArc
 50
1.374478939509447
 51
2.061965729506969
  0
ARC
  5
1E8E
330
1E
100
AcDbEntity
  8
OBJECT
100
AcDbCircle
 10
4.748756729821295
 20
14.97095103111951
 30
0.0
 40
0.0196875
100
AcDbArc
 50
3.782200824710384
 51
90.0
  0
ARC
  5
1E8F
330
1E
100
AcDbEntity
  8
OBJECT
100
AcDbCircle
 10
4.758218764102295
 20
14.81345103111925
 30
0.0
 40
0.0196875
100
AcDbArc
 50
269.9999999999739
 51
3.093784179819513
  0
ARC
  5
1E90
330
1E
100
AcDbEntity
  8
OBJECT
100
AcDbCircle
 10
-8.354819231904414
 20
14.10470103111947
 30
0.0
 40
13.15186523437504
100
AcDbArc
 50
3.093784179858525
 51
3.782200824749393
  0
LINE
  5
1E91
330
1E
100
AcDbEntity
  8
OBJECT
100
AcDbLine
 10
4.672813054306104
 20
15.77813853111911
 30
0.0
 11
4.43207089289983
 21
15.77813853111911
 31
0.0
  0
LINE
  5
1E92
330
1E
100
AcDbEntity
  8
OBJECT
100
AcDbLine
 10
4.691840416630654
 20
15.58126353111947
 30
0.0
 11
4.456297632515244
 21
15.58126353111947
 31
0.0
  0
LINE
  5
1E93
330
1E
100
AcDbEntity
  8
OBJECT
100
AcDbLine
 10
4.716771797775706
 20
15.38438853111983
 30
0.0
 11
4.477458509500976
 21
15.38438853111983
 31
0.0
  0
LINE
  5
1E94
330
1E
100
AcDbEntity
  8
OBJECT
100
AcDbLine
 10
4.730996974859905
 20
15.18751353111929
 30
0.0
 11
4.495568669636483
 21
15.18751353111929
 31
0.0
  0
ARC
  5
1E95
330
1E
100
AcDbEntity
  8
OBJECT
100
AcDbCircle
 10
-8.354819231904414
 20
14.10470103111947
 30
0.0
 40
12.89592773437504
100
AcDbArc
 50
4.816537400806518
 51
5.69494198752255
  0
ARC
  5
1E96
330
1E
100
AcDbEntity
  8
OBJECT
100
AcDbCircle
 10
-8.354819231904414
 20
14.10470103111947
 30
0.0
 40
12.89592773437504
100
AcDbArc
 50
6.574691735654896
 51
7.456001299394465
  0
ARC
  5
1E97
330
1E
100
AcDbEntity
  8
OBJECT
100
AcDbCircle
 10
-8.354819231904414
 20
14.10470103111947
 30
0.0
 40
13.13217773437504
100
AcDbArc
 50
5.592159467211104
 51
6.455904174625402
  0
ARC
  5
1E98
330
1E
100
AcDbEntity
  8
OBJECT
100
AcDbCircle
 10
4.716771797775706
 20
15.36470103111969
 30
0.0
 40
0.0196875
100
AcDbArc
 50
5.505858344706584
 51
90.0
  0
ARC
  5
1E99
330
1E
100
AcDbEntity
  8
OBJECT
100
AcDbCircle
 10
4.730996974859905
 20
15.20720103111943
 30
0.0
 40
0.0196875
100
AcDbArc
 50
269.9999999999739
 51
4.815883521255464
  0
ARC
  5
1E9A
330
1E
100
AcDbEntity
  8
OBJECT
100
AcDbCircle
 10
-8.354819231904414
 20
14.10470103111947
 30
0.0
 40
13.15186523437504
100
AcDbArc
 50
4.81588352130726
 51
5.505858344654591
  0
ARC
  5
1E9B
330
1E
100
AcDbEntity
  8
OBJECT
100
AcDbCircle
 10
4.672813054306104
 20
15.75845103111987
 30
0.0
 40
0.0196875
100
AcDbArc
 50
7.234530613729459
 51
90.0
  0
ARC
  5
1E9C
330
1E
100
AcDbEntity
  8
OBJECT
100
AcDbCircle
 10
4.691840416630654
 20
15.60095103111962
 30
0.0
 40
0.0196875
100
AcDbArc
 50
270.0
 51
6.5423564565318
  0
ARC
  5
1E9D
330
1E
100
AcDbEntity
  8
OBJECT
100
AcDbCircle
 10
-8.354819231904414
 20
14.10470103111947
 30
0.0
 40
13.15186523437504
100
AcDbArc
 50
6.542356456491456
 51
7.234530613690677
  0
ARC
  5
1E9E
330
1E
100
AcDbEntity
  8
OBJECT
100
AcDbCircle
 10
47.11066378436707
 20
16.1718885311202
 30
0.0
 40
41.34375
100
AcDbArc
 50
182.4566019752918
 51
182.7299991386713
  0
ARC
  5
1E9F
330
1E
100
AcDbEntity
  8
OBJECT
100
AcDbCircle
 10
5.859222516274073
 20
13.39595103111969
 30
0.0
 40
0.0196875
100
AcDbArc
 50
89.99999999997395
 51
184.4877754435125
  0
ARC
  5
1EA0
330
1E
100
AcDbEntity
  8
OBJECT
100
AcDbCircle
 10
41.22732722605057
 20
16.17188853111929
 30
0.0
 40
35.4965625
100
AcDbArc
 50
184.4877754434858
 51
184.7429684423195
  0
ARC
  5
1EA1
330
1E
100
AcDbEntity
  8
OBJECT
100
AcDbCircle
 10
5.845679704790015
 20
13.63147529456273
 30
0.0
 40
0.0196875
100
AcDbArc
 50
184.1051515480735
 51
270.0
  0
ARC
  5
1EA2
330
1E
100
AcDbEntity
  8
OBJECT
100
AcDbCircle
 10
47.11066378436707
 20
16.1718885311202
 30
0.0
 40
41.34375
100
AcDbArc
 50
183.0031782741826
 51
183.2768363603818
  0
ARC
  5
1EA3
330
1E
100
AcDbEntity
  8
OBJECT
100
AcDbCircle
 10
5.834727936093756
 20
13.78897529456208
 30
0.0
 40
0.0196875
100
AcDbArc
 50
89.99999999997395
 51
183.8501718548529
  0
ARC
  5
1EA4
330
1E
100
AcDbEntity
  8
OBJECT
100
AcDbCircle
 10
41.23153347671375
 20
16.1711627945624
 30
0.0
 40
35.4965625
100
AcDbArc
 50
183.8501718548135
 51
184.1051515480864
  0
ARC
  5
1EA5
330
1E
100
AcDbEntity
  8
OBJECT
100
AcDbCircle
 10
5.814011187077355
 20
14.18302109295655
 30
0.0
 40
0.0196875
100
AcDbArc
 50
89.99999999997395
 51
183.2130454525455
  0
ARC
  5
1EA6
330
1E
100
AcDbEntity
  8
OBJECT
100
AcDbCircle
 10
5.82320413218251
 20
14.02552109295629
 30
0.0
 40
0.0196875
100
AcDbArc
 50
183.4678438624079
 51
270.0
  0
ARC
  5
1EA7
330
1E
100
AcDbEntity
  8
OBJECT
100
AcDbCircle
 10
41.23511755142208
 20
16.17145859295669
 30
0.0
 40
35.4965625
100
AcDbArc
 50
183.2130454525977
 51
183.4678438624079
  0
ARC
  5
1EA8
330
1E
100
AcDbEntity
  8
OBJECT
100
AcDbCircle
 10
47.11066378436707
 20
16.1718885311202
 30
0.0
 40
41.34375
100
AcDbArc
 50
183.5501585847138
 51
183.8225575997335
  0
ARC
  5
1EA9
330
1E
100
AcDbEntity
  8
OBJECT
100
AcDbCircle
 10
5.871937195685788
 20
13.23845103111944
 30
0.0
 40
0.0196875
100
AcDbArc
 50
184.7429684422929
 51
270.0
  0
ARC
  5
1EAA
330
1E
100
AcDbEntity
  8
OBJECT
100
AcDbCircle
 10
47.11066378436707
 20
16.1718885311202
 30
0.0
 40
41.34375
100
AcDbArc
 50
184.0960437581536
 51
184.3703797469413
  0
ARC
  5
1EAB
330
1E
100
AcDbEntity
  8
OBJECT
100
AcDbCircle
 10
5.887506203625704
 20
13.00166325750615
 30
0.0
 40
0.0196875
100
AcDbArc
 50
90.0
 51
185.1259364474577
  0
ARC
  5
1EAC
330
1E
100
AcDbEntity
  8
OBJECT
100
AcDbCircle
 10
47.11066378436707
 20
16.1718885311202
 30
0.0
 40
41.34375
100
AcDbArc
 50
181.364314150672
 51
181.63724507778
  0
ARC
  5
1EAD
330
1E
100
AcDbEntity
  8
OBJECT
100
AcDbCircle
 10
47.11066378436707
 20
16.1718885311202
 30
0.0
 40
41.34375
100
AcDbArc
 50
181.910213171708
 51
182.1835408367754
  0
ARC
  5
1EAE
330
1E
100
AcDbEntity
  8
OBJECT
100
AcDbCircle
 10
5.804500291758969
 20
14.41947303846882
 30
0.0
 40
0.0196875
100
AcDbArc
 50
182.8309654888856
 51
270.0
  0
ARC
  5
1EAF
330
1E
100
AcDbEntity
  8
OBJECT
100
AcDbCircle
 10
5.797062749250514
 20
14.57697303846907
 30
0.0
 40
0.0196875
100
AcDbArc
 50
89.99999999997395
 51
182.5763165436382
  0
ARC
  5
1EB0
330
1E
100
AcDbEntity
  8
OBJECT
100
AcDbCircle
 10
41.2380789810541
 20
16.17166053846904
 30
0.0
 40
35.4965625
100
AcDbArc
 50
182.5763165436776
 51
182.8309654888726
  0
ARC
  5
1EB1
330
1E
100
AcDbEntity
  8
OBJECT
100
AcDbCircle
 10
5.792853626014832
 20
14.81345103112016
 30
0.0
 40
0.0196875
100
AcDbArc
 50
182.1944370119295
 51
270.000000000026
  0
ARC
  5
1EB2
330
1E
100
AcDbEntity
  8
OBJECT
100
AcDbCircle
 10
5.787168724841123
 20
14.97095103111951
 30
0.0
 40
0.0196875
100
AcDbArc
 50
90.0
 51
181.9399058794456
  0
ARC
  5
1EB3
330
1E
100
AcDbEntity
  8
OBJECT
100
AcDbCircle
 10
41.24371126478313
 20
16.1718885311202
 30
0.0
 40
35.4965625
100
AcDbArc
 50
181.9399058794719
 51
182.1944370118903
  0
ARC
  5
1EB4
330
1E
100
AcDbEntity
  8
OBJECT
100
AcDbCircle
 10
47.11066378436707
 20
16.1718885311202
 30
0.0
 40
41.34375
100
AcDbArc
 50
180.8185389789741
 51
181.0914141843067
  0
ARC
  5
1EB5
330
1E
100
AcDbEntity
  8
OBJECT
100
AcDbCircle
 10
5.779954585703464
 20
15.20720103111943
 30
0.0
 40
0.0196875
100
AcDbArc
 50
181.5581794065726
 51
270.0
  0
ARC
  5
1EB6
330
1E
100
AcDbEntity
  8
OBJECT
100
AcDbCircle
 10
5.776020219192488
 20
15.36470103111969
 30
0.0
 40
0.0196875
100
AcDbArc
 50
90.0
 51
181.3037345662651
  0
ARC
  5
1EB7
330
1E
100
AcDbEntity
  8
OBJECT
100
AcDbCircle
 10
41.24371126478313
 20
16.1718885311202
 30
0.0
 40
35.4965625
100
AcDbArc
 50
181.3037345662781
 51
181.5581794065204
  0
ARC
  5
1EB8
330
1E
100
AcDbEntity
  8
OBJECT
100
AcDbCircle
 10
5.771430676460155
 20
15.60095103111962
 30
0.0
 40
0.0196875
100
AcDbArc
 50
180.9221139493495
 51
270.0
  0
ARC
  5
1EB9
330
1E
100
AcDbEntity
  8
OBJECT
100
AcDbCircle
 10
5.769245388617761
 20
15.75845103111987
 30
0.0
 40
0.0196875
100
AcDbArc
 50
89.99999999997395
 51
180.6677239766746
  0
ARC
  5
1EBA
330
1E
100
AcDbEntity
  8
OBJECT
100
AcDbCircle
 10
41.24371126478313
 20
16.1718885311202
 30
0.0
 40
35.4965625
100
AcDbArc
 50
180.6677239766746
 51
180.9221139493885
  0
ARC
  5
1EBB
330
1E
100
AcDbEntity
  8
OBJECT
100
AcDbCircle
 10
4.167487835944754
 20
16.43953454492839
 30
0.0
 40
0.39375
100
AcDbArc
 50
10.59460943606738
 51
77.60882170618033
  0
LINE
  5
1EBC
330
1E
100
AcDbEntity
  8
OBJECT
100
AcDbLine
 10
4.616758767599478
 20
16.17188853111929
 30
0.0
 11
4.374347589614828
 21
16.17188853111929
 31
0.0
  0
LINE
  5
1EBD
330
1E
100
AcDbEntity
  8
OBJECT
100
AcDbLine
 10
4.640641208080566
 20
15.97501353111965
 30
0.0
 11
4.404760827116589
 21
15.97501353111965
 31
0.0
  0
ARC
  5
1EBE
330
1E
100
AcDbEntity
  8
OBJECT
100
AcDbCircle
 10
-8.354819231904414
 20
14.10470103111947
 30
0.0
 40
12.89592773437504
100
AcDbArc
 50
8.339088724539307
 51
9.224175961527532
  0
ARC
  5
1EBF
330
1E
100
AcDbEntity
  8
OBJECT
100
AcDbCircle
 10
-8.315079720981614
 20
14.10470103111947
 30
0.0
 40
13.09280273437495
100
AcDbArc
 50
9.084289780343173
 51
10.59460943606738
  0
ARC
  5
1EC0
330
1E
100
AcDbEntity
  8
OBJECT
100
AcDbCircle
 10
4.616758767599478
 20
16.15220103111914
 30
0.0
 40
0.0196875
100
AcDbArc
 50
8.969851675913565
 51
90.00000000002605
  0
ARC
  5
1EC1
330
1E
100
AcDbEntity
  8
OBJECT
100
AcDbCircle
 10
4.640641208080566
 20
15.9947010311198
 30
0.0
 40
0.0196875
100
AcDbArc
 50
270.0
 51
8.274818652813339
  0
ARC
  5
1EC2
330
1E
100
AcDbEntity
  8
OBJECT
100
AcDbCircle
 10
-8.354819231904414
 20
14.10470103111947
 30
0.0
 40
13.15186523437504
100
AcDbArc
 50
8.274818652787356
 51
8.969851675885971
  0
ARC
  5
1EC3
330
1E
100
AcDbEntity
  8
OBJECT
100
AcDbCircle
 10
5.88503878436704
 20
16.81324341257368
 30
0.0
 40
0.118125
100
AcDbArc
 50
93.0000000000056
 51
180.0
  0
LINE
  5
1EC4
330
1E
100
AcDbEntity
  8
OBJECT
100
AcDbLine
 10
5.766913784367076
 20
16.1718885311202
 30
0.0
 11
5.766913784367076
 21
16.81324341257368
 31
0.0
  0
ARC
  5
1EC5
330
1E
100
AcDbEntity
  8
OBJECT
100
AcDbCircle
 10
5.766836264783179
 20
15.9947010311198
 30
0.0
 40
0.0196875
100
AcDbArc
 50
180.0
 51
270.0
  0
LINE
  5
1EC6
330
1E
100
AcDbEntity
  8
OBJECT
100
AcDbLine
 10
5.747148764783148
 20
15.9947010311198
 30
0.0
 11
5.747148764783148
 21
16.15220103112005
 31
0.0
  0
ARC
  5
1EC7
330
1E
100
AcDbEntity
  8
OBJECT
100
AcDbCircle
 10
5.766836264783179
 20
16.15220103112005
 30
0.0
 40
0.0196875
100
AcDbArc
 50
90.0
 51
180.0
  0
LINE
  5
1EC8
330
1E
100
AcDbEntity
  8
OBJECT
100
AcDbLine
 10
5.766836264783179
 20
16.1718885311202
 30
0.0
 11
5.766913784367076
 21
16.1718885311202
 31
0.0
  0
LINE
  5
1EC9
330
1E
100
AcDbEntity
  8
OBJECT
100
AcDbLine
 10
5.766836264783179
 20
15.97501353111965
 30
0.0
 11
5.767382537024374
 21
15.97501353111965
 31
0.0
  0
DIMENSION
  5
1ECA
330
1E
100
AcDbEntity
  8
DIM
100
AcDbDimension
  2
*D7
 10
11.00370987575333
 20
7.914435269894248
 30
0.0
 11
9.901209875753366
 21
7.914435269894248
 31
0.0
 70
    32
 71
     5
 42
2.204999999999927
  3
23NSTD
100
AcDbAlignedDimension
 13
8.798709875753402
 23
6.553701824520061
 33
0.0
 14
11.00370987575333
 24
6.553701824520061
 34
0.0
100
AcDbRotatedDimension
  0
ARC
  5
1ECB
330
1E
100
AcDbEntity
  8
OBJECT
100
AcDbCircle
 10
9.901209847801411
 20
7.537440711370066
 30
0.0
 40
5.807176386849635
100
AcDbArc
 50
257.6088217061802
 51
282.3911782938197
  0
ARC
  5
1ECC
330
1E
100
AcDbEntity
  8
OBJECT
100
AcDbCircle
 10
9.901209847801411
 20
7.537440711370066
 30
0.0
 40
5.787176386849635
100
AcDbArc
 50
257.6088217061802
 51
282.3911782938197
  0
ARC
  5
1ECD
330
1E
100
AcDbEntity
  8
OBJECT
100
AcDbCircle
 10
9.901209847801411
 20
7.537440711370066
 30
0.0
 40
5.740176386849635
100
AcDbArc
 50
257.6088217061802
 51
282.3911782938197
  0
ARC
  5
1ECE
330
1E
100
AcDbEntity
  8
OBJECT
100
AcDbCircle
 10
9.901209847801411
 20
7.537440711370066
 30
0.0
 40
5.701176386849636
100
AcDbArc
 50
257.6088217061802
 51
282.3911782938197
  0
ARC
  5
1ECF
330
1E
100
AcDbEntity
  8
OBJECT
100
AcDbCircle
 10
9.901209847801411
 20
1.632462937670055
 30
0.0
 40
5.701176386849636
100
AcDbArc
 50
77.60882170618029
 51
102.3911782938197
  0
ARC
  5
1ED0
330
1E
100
AcDbEntity
  8
OBJECT
100
AcDbCircle
 10
9.901209847801411
 20
1.632462937670055
 30
0.0
 40
5.740176386849635
100
AcDbArc
 50
77.60882170618029
 51
102.3911782938197
  0
ARC
  5
1ED1
330
1E
100
AcDbEntity
  8
OBJECT
100
AcDbCircle
 10
9.901209847801411
 20
1.632462937670055
 30
0.0
 40
5.787176386849635
100
AcDbArc
 50
77.60882170618029
 51
102.3911782938197
  0
LINE
  5
1ED2
330
1E
100
AcDbEntity
  8
CENTER
100
AcDbLine
 10
8.109750142243697
 20
4.58495182452097
 30
0.0
 11
11.69240783687872
 21
4.584951824520061
 31
0.0
  0
ARC
  5
1ED5
330
1E
100
AcDbEntity
  8
OBJECT
100
AcDbCircle
 10
9.901209847801411
 20
1.632462937670055
 30
0.0
 40
5.807176386849635
100
AcDbArc
 50
77.60882170618029
 51
102.3911782938197
  0
ARC
  5
1ED7
330
1E
100
AcDbEntity
  8
OBJECT
100
AcDbCircle
 10
8.137897502488286
 20
4.112613243711706
 30
0.0
 40
0.0196875
100
AcDbArc
 50
182.0567202389583
 51
269.9947545094855
  0
ARC
  5
1ED8
330
1E
100
AcDbEntity
  8
OBJECT
100
AcDbCircle
 10
21.22213758217641
 20
4.584951824520061
 30
0.0
 40
13.07280273437504
100
AcDbArc
 50
180.0000000000039
 51
190.5946094360673
  0
ARC
  5
1ED9
330
1E
100
AcDbEntity
  8
OBJECT
100
AcDbCircle
 10
21.22213758217641
 20
4.584951824520061
 30
0.0
 40
13.02580273437504
100
AcDbArc
 50
180.0000000000039
 51
190.5946094360673
  0
ARC
  5
1EDA
330
1E
100
AcDbEntity
  8
OBJECT
100
AcDbCircle
 10
21.22213758217641
 20
4.584951824520061
 30
0.0
 40
12.98680273437504
100
AcDbArc
 50
180.0000000000039
 51
190.5946094360673
  0
LINE
  5
1EDD
330
1E
100
AcDbEntity
  8
CENTER
100
AcDbLine
 10
9.901209847801411
 20
7.439639324520243
 30
0.0
 11
9.901210027936272
 21
1.730264324519879
 31
0.0
  0
ARC
  5
1EDE
330
1E
100
AcDbEntity
  8
OBJECT
100
AcDbCircle
 10
7.026913784367181
 20
4.112451824520206
 30
0.0
 40
0.0196875
100
AcDbArc
 50
270.0
 51
0.0
  0
LINE
  5
1EDF
330
1E
100
AcDbEntity
  8
OBJECT
100
AcDbLine
 10
6.940288784367155
 20
4.703076824520024
 30
0.0
 11
6.940288784367155
 21
1.862104464658472
 31
0.0
  0
ARC
  5
1EE0
330
1E
100
AcDbEntity
  8
OBJECT
100
AcDbCircle
 10
8.739570025249932
 20
2.250118310711144
 30
0.0
 40
0.39375
100
AcDbArc
 50
190.5946094360651
 51
257.6088217061802
  0
ARC
  5
1EE1
330
1E
100
AcDbEntity
  8
OBJECT
100
AcDbCircle
 10
8.739570025249932
 20
2.250118310711144
 30
0.0
 40
0.37375
100
AcDbArc
 50
190.5946094360651
 51
257.6088217061802
  0
LINE
  5
1EE2
330
1E
100
AcDbEntity
  8
OBJECT
100
AcDbLine
 10
7.046601284367213
 20
2.537451824520388
 30
0.0
 11
7.046601284367213
 21
2.694951824520643
 31
0.0
  0
ARC
  5
1EE5
330
1E
100
AcDbEntity
  8
OBJECT
100
AcDbCircle
 10
6.830038784367204
 20
1.947013290076569
 30
0.0
 40
0.196875
100
AcDbArc
 50
273.0000000000056
 51
0.0
  0
LINE
  5
1EE7
330
1E
100
AcDbEntity
  8
OBJECT
100
AcDbLine
 10
6.455976284367167
 20
1.730264324520788
 30
0.0
 11
6.840342425752552
 21
1.750408100422276
 31
0.0
  0
LINE
  5
1EE8
330
1E
100
AcDbEntity
  8
OBJECT
100
AcDbLine
 10
6.416601284367217
 20
1.797201824521465
 30
0.0
 11
6.416601284367217
 21
1.730264324520788
 31
0.0
  0
LINE
  5
1EE9
330
1E
100
AcDbEntity
  8
OBJECT
100
AcDbLine
 10
6.416601284367217
 20
1.797201824521465
 30
0.0
 11
6.416601284367217
 21
1.730264324520788
 31
0.0
  0
LINE
  5
1EEA
330
1E
100
AcDbEntity
  8
OBJECT
100
AcDbLine
 10
6.455976284367167
 20
1.749951824520024
 30
0.0
 11
6.455976284367167
 21
1.730264324520788
 31
0.0
  0
LINE
  5
1EEB
330
1E
100
AcDbEntity
  8
OBJECT
100
AcDbLine
 10
6.416601284367217
 20
1.797201824520556
 30
0.0
 11
6.416601284367217
 21
1.749951824520024
 31
0.0
  0
LINE
  5
1EEC
330
1E
100
AcDbEntity
  8
OBJECT
100
AcDbLine
 10
6.455976284367167
 20
1.749951824520024
 30
0.0
 11
6.416601284367217
 21
1.749951824520024
 31
0.0
  0
LINE
  5
1EED
330
1E
100
AcDbEntity
  8
HIDDEN
100
AcDbLine
 10
6.587663784367165
 20
1.982258791985799
 30
0.0
 11
7.026913784367181
 21
1.982258791985799
 31
0.0
  0
LINE
  5
1EEE
330
1E
100
AcDbEntity
  8
HIDDEN
100
AcDbLine
 10
6.587663784367165
 20
2.226383791985966
 30
0.0
 11
7.026913784367181
 21
2.226383791985966
 31
0.0
  0
LINE
  5
1EEF
330
1E
100
AcDbEntity
  8
OBJECT
100
AcDbLine
 10
6.534851284367206
 20
1.927321291984839
 30
0.0
 11
6.940288784367151
 21
1.927321291984839
 31
0.0
  0
LINE
  5
1EF0
330
1E
100
AcDbEntity
  8
OBJECT
100
AcDbLine
 10
6.534851284367206
 20
2.281571291986068
 30
0.0
 11
6.940288784367151
 21
2.281571291982943
 31
0.0
  0
LINE
  5
1EF1
330
1E
100
AcDbEntity
  8
OBJECT
100
AcDbLine
 10
6.455976284367167
 20
1.836722722054759
 30
0.0
 11
6.940288784367151
 21
1.862104464658638
 31
0.0
  0
LINE
  5
1EF2
330
1E
100
AcDbEntity
  8
HIDDEN
100
AcDbLine
 10
6.587663784367165
 20
2.226383791985966
 30
0.0
 11
6.528601284367184
 21
2.16732129198553
 31
0.0
  0
LINE
  5
1EF3
330
1E
100
AcDbEntity
  8
OBJECT
100
AcDbLine
 10
6.416601284367217
 20
1.986321291984125
 30
0.0
 11
6.416601284367217
 21
2.222571291984962
 31
0.0
  0
LINE
  5
1EF4
330
1E
100
AcDbEntity
  8
HIDDEN
100
AcDbLine
 10
6.416601284367217
 20
2.16732129198553
 30
0.0
 11
6.52860128436832
 21
2.167321291986439
 31
0.0
  0
LINE
  5
1EF5
330
1E
100
AcDbEntity
  8
HIDDEN
100
AcDbLine
 10
6.416601284367217
 20
2.041321291985326
 30
0.0
 11
6.528601284367866
 21
2.041321291985326
 31
0.0
  0
LINE
  5
1EF6
330
1E
100
AcDbEntity
  8
OBJECT
100
AcDbLine
 10
6.416601284367217
 20
1.986321291985035
 30
0.0
 11
6.534851284367206
 21
1.986321291985035
 31
0.0
  0
LINE
  5
1EF7
330
1E
100
AcDbEntity
  8
HIDDEN
100
AcDbLine
 10
6.388913784367147
 20
2.147821291985195
 30
0.0
 11
6.388913784367147
 21
2.060821291985661
 31
0.0
  0
LINE
  5
1EF8
330
1E
100
AcDbEntity
  8
HIDDEN
100
AcDbLine
 10
6.388913784367147
 20
2.060821291985661
 30
0.0
 11
6.416601284367104
 21
2.033571291985566
 31
0.0
  0
LINE
  5
1EF9
330
1E
100
AcDbEntity
  8
HIDDEN
100
AcDbLine
 10
6.416601284367217
 20
2.175321291985341
 30
0.0
 11
6.388913784367147
 21
2.147821291985195
 31
0.0
  0
LINE
  5
1EFA
330
1E
100
AcDbEntity
  8
OBJECT
100
AcDbLine
 10
6.534851284367206
 20
1.986321291985035
 30
0.0
 11
6.534851284367206
 21
1.927321291984839
 31
0.0
  0
LINE
  5
1EFB
330
1E
100
AcDbEntity
  8
HIDDEN
100
AcDbLine
 10
6.587663784367165
 20
1.982258791985799
 30
0.0
 11
6.528601284367184
 21
2.041321291985326
 31
0.0
  0
LINE
  5
1EFC
330
1E
100
AcDbEntity
  8
OBJECT
100
AcDbLine
 10
6.416601284367217
 20
2.222571291984962
 30
0.0
 11
6.534851284367206
 21
2.222571291984962
 31
0.0
  0
LINE
  5
1EFE
330
1E
100
AcDbEntity
  8
OBJECT
100
AcDbLine
 10
6.534851284367206
 20
2.281571291986068
 30
0.0
 11
6.534851284367206
 21
2.222571291984962
 31
0.0
  0
LINE
  5
1F02
330
1E
100
AcDbEntity
  8
OBJECT
100
AcDbLine
 10
7.026913784367181
 20
1.947013290076569
 30
0.0
 11
7.026913784367181
 21
2.517764324520243
 31
0.0
  0
ARC
  5
1F03
330
1E
100
AcDbEntity
  8
OBJECT
100
AcDbCircle
 10
7.026913784367181
 20
2.537451824520388
 30
0.0
 40
0.0196875
100
AcDbArc
 50
270.0
 51
0.0
  0
LINE
  5
1F04
330
1E
100
AcDbEntity
  8
OBJECT
100
AcDbLine
 10
7.046601284367213
 20
3.324951824520752
 30
0.0
 11
7.046601284367213
 21
3.482451824520097
 31
0.0
  0
LINE
  5
1F05
330
1E
100
AcDbEntity
  8
OBJECT
100
AcDbLine
 10
7.046601284367213
 20
2.93120182452057
 30
0.0
 11
7.046601284367213
 21
3.088701824519915
 31
0.0
  0
LINE
  5
1F06
330
1E
100
AcDbEntity
  8
OBJECT
100
AcDbLine
 10
7.026913784367181
 20
2.911514324520425
 30
0.0
 11
7.026913784367181
 21
2.714639324520788
 31
0.0
  0
ARC
  5
1F07
330
1E
100
AcDbEntity
  8
OBJECT
100
AcDbCircle
 10
7.026913784367181
 20
2.93120182452057
 30
0.0
 40
0.0196875
100
AcDbArc
 50
270.0
 51
0.0
  0
ARC
  5
1F08
330
1E
100
AcDbEntity
  8
OBJECT
100
AcDbCircle
 10
7.026913784367181
 20
2.694951824520643
 30
0.0
 40
0.0196875
100
AcDbArc
 50
0.0
 51
90.0
  0
LINE
  5
1F09
330
1E
100
AcDbEntity
  8
OBJECT
100
AcDbLine
 10
7.026913784367181
 20
2.714639324520788
 30
0.0
 11
7.026913784367181
 21
2.813076824520607
 31
0.0
  0
LINE
  5
1F0A
330
1E
100
AcDbEntity
  8
OBJECT
100
AcDbLine
 10
7.026913784367181
 20
3.305264324520607
 30
0.0
 11
7.026913784367181
 21
3.108389324520061
 31
0.0
  0
ARC
  5
1F0B
330
1E
100
AcDbEntity
  8
OBJECT
100
AcDbCircle
 10
7.026913784367181
 20
3.324951824520752
 30
0.0
 40
0.0196875
100
AcDbArc
 50
270.0
 51
0.0
  0
ARC
  5
1F0C
330
1E
100
AcDbEntity
  8
OBJECT
100
AcDbCircle
 10
7.026913784367181
 20
3.088701824519915
 30
0.0
 40
0.0196875
100
AcDbArc
 50
0.0
 51
90.0
  0
ARC
  5
1F0D
330
1E
100
AcDbEntity
  8
OBJECT
100
AcDbCircle
 10
7.026913784367181
 20
3.718701824520024
 30
0.0
 40
0.0196875
100
AcDbArc
 50
270.0
 51
0.0
  0
LINE
  5
1F0E
330
1E
100
AcDbEntity
  8
OBJECT
100
AcDbLine
 10
7.026913784367181
 20
3.699014324520788
 30
0.0
 11
7.026913784367181
 21
3.502139324520243
 31
0.0
  0
ARC
  5
1F0F
330
1E
100
AcDbEntity
  8
OBJECT
100
AcDbCircle
 10
7.026913784367181
 20
3.482451824520097
 30
0.0
 40
0.0196875
100
AcDbArc
 50
0.0
 51
90.0
  0
LINE
  5
1F10
330
1E
100
AcDbEntity
  8
OBJECT
100
AcDbLine
 10
7.026913784367181
 20
4.092764324520061
 30
0.0
 11
7.026913784367181
 21
3.895889324520425
 31
0.0
  0
LINE
  5
1F11
330
1E
100
AcDbEntity
  8
OBJECT
100
AcDbLine
 10
7.046601284367213
 20
3.718701824520024
 30
0.0
 11
7.046601284367213
 21
3.876201824520279
 31
0.0
  0
ARC
  5
1F12
330
1E
100
AcDbEntity
  8
OBJECT
100
AcDbCircle
 10
7.026913784367181
 20
3.876201824520279
 30
0.0
 40
0.0196875
100
AcDbArc
 50
0.0
 51
90.0
  0
ARC
  5
1F13
330
1E
100
AcDbEntity
  8
OBJECT
100
AcDbCircle
 10
21.26161533549363
 20
4.583911755137336
 30
0.0
 40
13.15186523437504
100
AcDbArc
 50
188.2695731622401
 51
188.9646061853547
  0
ARC
  5
1F14
330
1E
100
AcDbEntity
  8
OBJECT
100
AcDbCircle
 10
21.22213758217641
 20
4.584951824520061
 30
0.0
 40
13.09280273437504
100
AcDbArc
 50
189.0836375923574
 51
190.5946094360673
  0
ARC
  5
1F15
330
1E
100
AcDbEntity
  8
OBJECT
100
AcDbCircle
 10
8.289849939513388
 20
2.537599325700824
 30
0.0
 40
0.0196875
100
AcDbArc
 50
188.9646061853675
 51
269.9947545094855
  0
LINE
  5
1F16
330
1E
100
AcDbEntity
  8
OBJECT
100
AcDbLine
 10
8.289848137101458
 20
2.517911825783443
 30
0.0
 11
8.293532564990769
 21
2.517911488469138
 31
0.0
  0
ARC
  5
1F17
330
1E
100
AcDbEntity
  8
OBJECT
100
AcDbCircle
 10
21.26161533549363
 20
4.583911755137336
 30
0.0
 40
13.15186523437504
100
AcDbArc
 50
184.8106380307647
 51
185.5006128541205
  0
ARC
  5
1F18
330
1E
100
AcDbEntity
  8
OBJECT
100
AcDbCircle
 10
21.26161533549363
 20
4.583911755137336
 30
0.0
 40
13.15186523437504
100
AcDbArc
 50
186.5371109659473
 51
187.2292851231548
  0
ARC
  5
1F19
330
1E
100
AcDbEntity
  8
OBJECT
100
AcDbCircle
 10
21.22213758217641
 20
4.584951824520061
 30
0.0
 40
13.09280273437504
100
AcDbArc
 50
187.3425912129283
 51
188.2127943390072
  0
LINE
  5
1F1A
330
1E
100
AcDbEntity
  8
OBJECT
100
AcDbLine
 10
8.233829898867853
 20
2.911666955964022
 30
0.0
 11
8.236699572209218
 21
2.911666693241016
 31
0.0
  0
ARC
  5
1F1B
330
1E
100
AcDbEntity
  8
OBJECT
100
AcDbCircle
 10
8.233831701279783
 20
2.931354455881404
 30
0.0
 40
0.0196875
100
AcDbArc
 50
187.2292851231823
 51
269.9947545094594
  0
ARC
  5
1F1C
330
1E
100
AcDbEntity
  8
OBJECT
100
AcDbCircle
 10
8.265981918427669
 20
2.695101511504248
 30
0.0
 40
0.0196875
100
AcDbArc
 50
96.91982360000668
 51
188.2695731622679
  0
ARC
  5
1F1D
330
1E
100
AcDbEntity
  8
OBJECT
100
AcDbCircle
 10
21.22213758217641
 20
4.584951824520061
 30
0.0
 40
13.09280273437504
100
AcDbArc
 50
185.6083430604272
 51
186.4751546602365
  0
LINE
  5
1F1E
330
1E
100
AcDbEntity
  8
OBJECT
100
AcDbLine
 10
8.189907203820453
 20
3.305420978783871
 30
0.0
 11
8.192007737698773
 21
3.305420786478492
 31
0.0
  0
ARC
  5
1F1F
330
1E
100
AcDbEntity
  8
OBJECT
100
AcDbCircle
 10
8.189909006232269
 20
3.325108478701253
 30
0.0
 40
0.0196875
100
AcDbArc
 50
185.5006128541725
 51
269.9947545094594
  0
ARC
  5
1F20
330
1E
100
AcDbEntity
  8
OBJECT
100
AcDbCircle
 10
8.214818758330025
 20
3.088856197196577
 30
0.0
 40
0.0196875
100
AcDbArc
 50
95.72226423956845
 51
186.5371109659862
  0
ARC
  5
1F21
330
1E
100
AcDbEntity
  8
OBJECT
100
AcDbCircle
 10
8.157960122558861
 20
3.718861405306228
 30
0.0
 40
0.0196875
100
AcDbArc
 50
183.7769553341749
 51
269.9947545094594
  0
ARC
  5
1F22
330
1E
100
AcDbEntity
  8
OBJECT
100
AcDbCircle
 10
21.22213758217641
 20
4.584951824520061
 30
0.0
 40
13.09280273437504
100
AcDbArc
 50
183.8792411136959
 51
184.7435085145237
  0
LINE
  5
1F23
330
1E
100
AcDbEntity
  8
OBJECT
100
AcDbLine
 10
8.157958320146931
 20
3.699173905388846
 30
0.0
 11
8.159332343775659
 21
3.699173779596634
 31
0.0
  0
ARC
  5
1F24
330
1E
100
AcDbEntity
  8
OBJECT
100
AcDbCircle
 10
8.175698248502968
 20
3.482609780372143
 30
0.0
 40
0.0196875
100
AcDbArc
 50
94.42495470175956
 51
184.8106380307257
  0
ARC
  5
1F25
330
1E
100
AcDbEntity
  8
OBJECT
100
AcDbCircle
 10
21.22213758217641
 20
4.584951824520061
 30
0.0
 40
13.09280273437504
100
AcDbArc
 50
182.1536764655753
 51
183.0162366979399
  0
LINE
  5
1F26
330
1E
100
AcDbEntity
  8
OBJECT
100
AcDbLine
 10
8.137895700076356
 20
4.092925743793415
 30
0.0
 11
8.138583259470365
 21
4.092925680846377
 31
0.0
  0
ARC
  5
1F27
330
1E
100
AcDbEntity
  8
OBJECT
100
AcDbCircle
 10
8.14851250761275
 20
3.876362270906241
 30
0.0
 40
0.0196875
100
AcDbArc
 50
93.02727211609694
 51
183.0885386892907
  0
ARC
  5
1F28
330
1E
100
AcDbEntity
  8
OBJECT
100
AcDbCircle
 10
21.26161533549363
 20
4.583911755137336
 30
0.0
 40
13.15186523437504
100
AcDbArc
 50
183.0885386893167
 51
183.7769553342139
  0
CIRCLE
  5
1F29
330
1E
100
AcDbEntity
  8
OBJECT
100
AcDbCircle
 10
8.995584817930435
 20
2.104321329794942
 30
0.0
 40
0.1771875
  0
CIRCLE
  5
1F2A
330
1E
100
AcDbEntity
  8
OBJECT
100
AcDbCircle
 10
8.995584847801424
 20
2.104321291985428
 30
0.0
 40
0.118
  0
ARC
  5
1F2B
330
1E
100
AcDbEntity
  8
OBJECT
100
AcDbCircle
 10
8.739570025249932
 20
2.250118310711144
 30
0.0
 40
0.32675
100
AcDbArc
 50
190.5946094360651
 51
257.6088217061802
  0
ARC
  5
1F2C
330
1E
100
AcDbEntity
  8
OBJECT
100
AcDbCircle
 10
8.739570025249932
 20
2.250118310711144
 30
0.0
 40
0.28775
100
AcDbArc
 50
190.5946094360651
 51
257.6088217061802
  0
CIRCLE
  5
1F31
330
1E
100
AcDbEntity
  8
OBJECT
100
AcDbCircle
 10
8.995584847801424
 20
2.104321291985428
 30
0.0
 40
0.063
  0
ARC
  5
1F3E
330
1E
100
AcDbEntity
  8
OBJECT
100
AcDbCircle
 10
21.22213758217641
 20
4.584951824520061
 30
0.0
 40
12.98680273437504
100
AcDbArc
 50
169.4053905639326
 51
179.9999999999959
  0
ARC
  5
1F3F
330
1E
100
AcDbEntity
  8
OBJECT
100
AcDbCircle
 10
21.22213758217641
 20
4.584951824520061
 30
0.0
 40
13.02580273437504
100
AcDbArc
 50
169.4053905639326
 51
179.9999999999959
  0
ARC
  5
1F40
330
1E
100
AcDbEntity
  8
OBJECT
100
AcDbCircle
 10
21.22213758217641
 20
4.584951824520061
 30
0.0
 40
13.07280273437504
100
AcDbArc
 50
169.4053905639326
 51
179.9999999999959
  0
ARC
  5
1F41
330
1E
100
AcDbEntity
  8
OBJECT
100
AcDbCircle
 10
8.739570025249932
 20
6.919785338328978
 30
0.0
 40
0.37375
100
AcDbArc
 50
102.3911782938197
 51
169.4053905639348
  0
ARC
  5
1F42
330
1E
100
AcDbEntity
  8
OBJECT
100
AcDbCircle
 10
8.739570025249932
 20
6.919785338328978
 30
0.0
 40
0.39375
100
AcDbArc
 50
102.3911782938197
 51
169.4053905639348
  0
LINE
  5
1F43
330
1E
100
AcDbEntity
  8
OBJECT
100
AcDbLine
 10
6.940288784367155
 20
7.124639324123194
 30
0.0
 11
6.940288784367155
 21
7.30779918438256
 31
0.0
  0
LINE
  5
1F44
330
1E
100
AcDbEntity
  8
OBJECT
100
AcDbLine
 10
7.026913784367181
 20
7.222890358964463
 30
0.0
 11
7.026913784367181
 21
6.652139324520788
 31
0.0
  0
LINE
  5
1F45
330
1E
100
AcDbEntity
  8
OBJECT
100
AcDbLine
 10
7.026913784367181
 20
5.470889324520243
 30
0.0
 11
7.026913784367181
 21
5.667764324520788
 31
0.0
  0
LINE
  5
1F46
330
1E
100
AcDbEntity
  8
OBJECT
100
AcDbLine
 10
6.940288784367155
 20
4.703076824520024
 30
0.0
 11
6.940288784367268
 21
6.435576824520097
 31
0.0
  0
LINE
  5
1F48
330
1E
100
AcDbEntity
  8
OBJECT
100
AcDbLine
 10
6.743413784367177
 20
4.880264394089493
 30
0.0
 11
6.940288784367155
 21
4.860576894089348
 31
0.0
  0
LINE
  5
1F49
330
1E
100
AcDbEntity
  8
OBJECT
100
AcDbLine
 10
6.743413784367177
 20
5.077139394090039
 30
0.0
 11
6.940288784367155
 21
5.096826894089275
 31
0.0
  0
LINE
  5
1F4F
330
1E
100
AcDbEntity
  8
OBJECT
100
AcDbLine
 10
6.743413784367177
 20
5.077139394090039
 30
0.0
 11
6.743413784367177
 21
4.880264394089493
 31
0.0
  0
LINE
  5
1F50
330
1E
100
AcDbEntity
  8
OBJECT
100
AcDbLine
 10
7.026913784367181
 20
4.880264324520425
 30
0.0
 11
7.026913784367181
 21
4.683389324520788
 31
0.0
  0
LINE
  5
1F52
330
1E
100
AcDbEntity
  8
OBJECT
100
AcDbLine
 10
7.026913784367181
 20
4.486514324520243
 30
0.0
 11
7.026913784367181
 21
4.289639324520607
 31
0.0
  0
LINE
  5
1F53
330
1E
100
AcDbEntity
  8
OBJECT
100
AcDbLine
 10
7.046601284367213
 20
4.112451824520206
 30
0.0
 11
7.046601284367213
 21
4.269951824520461
 31
0.0
  0
ARC
  5
1F54
330
1E
100
AcDbEntity
  8
OBJECT
100
AcDbCircle
 10
7.026913784367181
 20
4.269951824520461
 30
0.0
 40
0.0196875
100
AcDbArc
 50
0.0
 51
90.0
  0
ARC
  5
1F5A
330
1E
100
AcDbEntity
  8
OBJECT
100
AcDbCircle
 10
7.026913784367181
 20
4.506201824520388
 30
0.0
 40
0.0196875
100
AcDbArc
 50
270.0
 51
0.0
  0
LINE
  5
1F5B
330
1E
100
AcDbEntity
  8
OBJECT
100
AcDbLine
 10
7.046601284367213
 20
4.506201824520388
 30
0.0
 11
7.046601284367213
 21
4.663701824520643
 31
0.0
  0
ARC
  5
1F5C
330
1E
100
AcDbEntity
  8
OBJECT
100
AcDbCircle
 10
7.026913784367181
 20
4.663701824520643
 30
0.0
 40
0.0196875
100
AcDbArc
 50
0.0
 51
90.0
  0
LINE
  5
1F5D
330
1E
100
AcDbEntity
  8
OBJECT
100
AcDbLine
 10
7.026913784367181
 20
5.077139324520061
 30
0.0
 11
7.026913784367181
 21
5.274014324520607
 31
0.0
  0
ARC
  5
1F61
330
1E
100
AcDbEntity
  8
OBJECT
100
AcDbCircle
 10
7.026913784367181
 20
4.89995182452057
 30
0.0
 40
0.0196875
100
AcDbArc
 50
270.0
 51
0.0
  0
LINE
  5
1F62
330
1E
100
AcDbEntity
  8
OBJECT
100
AcDbLine
 10
7.046601284367213
 20
4.89995182452057
 30
0.0
 11
7.046601284367213
 21
5.057451824519915
 31
0.0
  0
ARC
  5
1F63
330
1E
100
AcDbEntity
  8
OBJECT
100
AcDbCircle
 10
7.026913784367181
 20
5.057451824519915
 30
0.0
 40
0.0196875
100
AcDbArc
 50
0.0
 51
90.0
  0
ARC
  5
1F64
330
1E
100
AcDbEntity
  8
OBJECT
100
AcDbCircle
 10
7.026913784367181
 20
5.293701824520752
 30
0.0
 40
0.0196875
100
AcDbArc
 50
270.0
 51
0.0
  0
LINE
  5
1F65
330
1E
100
AcDbEntity
  8
OBJECT
100
AcDbLine
 10
7.046601284367213
 20
5.293701824520752
 30
0.0
 11
7.046601284367213
 21
5.451201824520097
 31
0.0
  0
ARC
  5
1F66
330
1E
100
AcDbEntity
  8
OBJECT
100
AcDbCircle
 10
7.026913784367181
 20
5.451201824520097
 30
0.0
 40
0.0196875
100
AcDbArc
 50
0.0
 51
90.0
  0
LINE
  5
1F67
330
1E
100
AcDbEntity
  8
OBJECT
100
AcDbLine
 10
6.587663784367052
 20
6.825389324121346
 30
0.0
 11
7.026913784367181
 21
6.825389324122255
 31
0.0
  0
LINE
  5
1F68
330
1E
100
AcDbEntity
  8
OBJECT
100
AcDbLine
 10
6.587663784367052
 20
7.069514324121513
 30
0.0
 11
7.026913784367181
 21
7.069514324122422
 31
0.0
  0
LINE
  5
1F69
330
1E
100
AcDbEntity
  8
OBJECT
100
AcDbLine
 10
6.743413784367177
 20
6.597014324520017
 30
0.0
 11
6.979663784367218
 21
6.597014324520017
 31
0.0
  0
LINE
  5
1F6A
330
1E
100
AcDbEntity
  8
OBJECT
100
AcDbLine
 10
6.743413784367177
 20
6.510389324520104
 30
0.0
 11
6.979663784367218
 21
6.510389324520104
 31
0.0
  0
LINE
  5
1F6B
330
1E
100
AcDbEntity
  8
OBJECT
100
AcDbLine
 10
6.743413784367177
 20
6.455264324520243
 30
0.0
 11
6.940288784367155
 21
6.435576824520097
 31
0.0
  0
LINE
  5
1F6C
330
1E
100
AcDbEntity
  8
OBJECT
100
AcDbLine
 10
6.743413784367177
 20
6.652139324520788
 30
0.0
 11
6.940288784367155
 21
6.671826824520024
 31
0.0
  0
LINE
  5
1F6D
330
1E
100
AcDbEntity
  8
OBJECT
100
AcDbLine
 10
6.534851284367093
 20
7.124639324122284
 30
0.0
 11
6.940288784367155
 21
7.124639324122284
 31
0.0
  0
LINE
  5
1F6E
330
1E
100
AcDbEntity
  8
OBJECT
100
AcDbLine
 10
6.534851284367093
 20
6.770264324122393
 30
0.0
 11
6.940288784367155
 21
6.770264324122393
 31
0.0
  0
LINE
  5
1F6F
330
1E
100
AcDbEntity
  8
OBJECT
100
AcDbLine
 10
6.534851284367093
 20
6.82932682412192
 30
0.0
 11
6.534851284367093
 21
6.770264324122393
 31
0.0
  0
LINE
  5
1F70
330
1E
100
AcDbEntity
  8
OBJECT
100
AcDbLine
 10
6.416601284367217
 20
7.065576824121848
 30
0.0
 11
6.534851284367093
 21
7.065576824121848
 31
0.0
  0
LINE
  5
1F71
330
1E
100
AcDbEntity
  8
OBJECT
100
AcDbLine
 10
6.416601284367217
 20
6.82932682412192
 30
0.0
 11
6.534851284367093
 21
6.82932682412192
 31
0.0
  0
LINE
  5
1F72
330
1E
100
AcDbEntity
  8
OBJECT
100
AcDbLine
 10
6.416601284367217
 20
7.010451824121986
 30
0.0
 11
6.528601284366956
 21
7.010451824121076
 31
0.0
  0
LINE
  5
1F73
330
1E
100
AcDbEntity
  8
OBJECT
100
AcDbLine
 10
6.416601284367217
 20
6.884451824121782
 30
0.0
 11
6.528601284367184
 21
6.884451824121782
 31
0.0
  0
LINE
  5
1F74
330
1E
100
AcDbEntity
  8
OBJECT
100
AcDbLine
 10
6.388913784367034
 20
6.990951786312137
 30
0.0
 11
6.388913784367034
 21
6.903951786312603
 31
0.0
  0
LINE
  5
1F75
330
1E
100
AcDbEntity
  8
OBJECT
100
AcDbLine
 10
6.416601284367104
 20
7.018326786311803
 30
0.0
 11
6.388913784367034
 21
6.990951786312137
 31
0.0
  0
LINE
  5
1F76
330
1E
100
AcDbEntity
  8
OBJECT
100
AcDbLine
 10
6.388913784367147
 20
6.903951786312603
 30
0.0
 11
6.416601284367217
 21
6.876576786312028
 31
0.0
  0
LINE
  5
1F77
330
1E
100
AcDbEntity
  8
OBJECT
100
AcDbLine
 10
6.416601284367217
 20
7.065576824121848
 30
0.0
 11
6.416601284367217
 21
6.82932682412192
 31
0.0
  0
LINE
  5
1F78
330
1E
100
AcDbEntity
  8
OBJECT
100
AcDbLine
 10
6.534851284367093
 20
7.065576824121848
 30
0.0
 11
6.534851284367093
 21
7.124639324122284
 31
0.0
  0
LINE
  5
1F79
330
1E
100
AcDbEntity
  8
OBJECT
100
AcDbLine
 10
6.587663784367052
 20
6.825389324121346
 30
0.0
 11
6.52860128436707
 21
6.884451824121782
 31
0.0
  0
LINE
  5
1F7A
330
1E
100
AcDbEntity
  8
OBJECT
100
AcDbLine
 10
6.587663784367052
 20
7.069514324121513
 30
0.0
 11
6.52860128436707
 21
7.010451824121076
 31
0.0
  0
LINE
  5
1F7B
330
1E
100
AcDbEntity
  8
OBJECT
100
AcDbLine
 10
6.743413784367177
 20
6.652139324520788
 30
0.0
 11
6.743413784367177
 21
6.455264324520243
 31
0.0
  0
LINE
  5
1F7C
330
1E
100
AcDbEntity
  8
OBJECT
100
AcDbLine
 10
7.026913784367181
 20
6.258389324520607
 30
0.0
 11
7.026913784367181
 21
6.455264324520243
 31
0.0
  0
LINE
  5
1F7D
330
1E
100
AcDbEntity
  8
OBJECT
100
AcDbLine
 10
7.026913784367181
 20
5.864639324520425
 30
0.0
 11
7.026913784367181
 21
6.061514324520061
 31
0.0
  0
ARC
  5
1F7E
330
1E
100
AcDbEntity
  8
OBJECT
100
AcDbCircle
 10
7.026913784367181
 20
5.687451824520024
 30
0.0
 40
0.0196875
100
AcDbArc
 50
270.0
 51
0.0
  0
LINE
  5
1F7F
330
1E
100
AcDbEntity
  8
OBJECT
100
AcDbLine
 10
7.046601284367213
 20
5.687451824520024
 30
0.0
 11
7.046601284367213
 21
5.844951824520279
 31
0.0
  0
ARC
  5
1F80
330
1E
100
AcDbEntity
  8
OBJECT
100
AcDbCircle
 10
7.026913784367181
 20
5.844951824520279
 30
0.0
 40
0.0196875
100
AcDbArc
 50
0.0
 51
90.0
  0
ARC
  5
1F81
330
1E
100
AcDbEntity
  8
OBJECT
100
AcDbCircle
 10
7.026913784367181
 20
6.081201824520206
 30
0.0
 40
0.0196875
100
AcDbArc
 50
270.0
 51
0.0
  0
LINE
  5
1F82
330
1E
100
AcDbEntity
  8
OBJECT
100
AcDbLine
 10
7.046601284367213
 20
6.081201824520206
 30
0.0
 11
7.046601284367213
 21
6.238701824520461
 31
0.0
  0
ARC
  5
1F83
330
1E
100
AcDbEntity
  8
OBJECT
100
AcDbCircle
 10
7.026913784367181
 20
6.238701824520461
 30
0.0
 40
0.0196875
100
AcDbArc
 50
0.0
 51
90.0
  0
LINE
  5
1F84
330
1E
100
AcDbEntity
  8
OBJECT
100
AcDbLine
 10
6.940288784367268
 20
6.671826824520024
 30
0.0
 11
6.940288784367268
 21
6.770264324123303
 31
0.0
  0
LINE
  5
1F85
330
1E
100
AcDbEntity
  8
OBJECT
100
AcDbLine
 10
6.979663784367218
 20
6.597014324520017
 30
0.0
 11
6.979663784367218
 21
6.510389324520104
 31
0.0
  0
ARC
  5
1F86
330
1E
100
AcDbEntity
  8
OBJECT
100
AcDbCircle
 10
7.026913784367181
 20
6.474951824520388
 30
0.0
 40
0.0196875
100
AcDbArc
 50
270.0
 51
0.0
  0
LINE
  5
1F87
330
1E
100
AcDbEntity
  8
OBJECT
100
AcDbLine
 10
7.046601284367213
 20
6.474951824520388
 30
0.0
 11
7.046601284367213
 21
6.632451824520643
 31
0.0
  0
ARC
  5
1F88
330
1E
100
AcDbEntity
  8
OBJECT
100
AcDbCircle
 10
7.026913784367181
 20
6.632451824520643
 30
0.0
 40
0.0196875
100
AcDbArc
 50
0.0
 51
90.0
  0
ARC
  5
1F89
330
1E
100
AcDbEntity
  8
OBJECT
100
AcDbCircle
 10
21.22213758217641
 20
4.584951824520061
 30
0.0
 40
13.09280273437504
100
AcDbArc
 50
175.2564914854762
 51
176.120758886304
  0
ARC
  5
1F8A
330
1E
100
AcDbEntity
  8
OBJECT
100
AcDbCircle
 10
21.22213758217641
 20
4.584951824520061
 30
0.0
 40
13.09280273437504
100
AcDbArc
 50
178.7082429291302
 51
179.5699305506784
  0
ARC
  5
1F8B
330
1E
100
AcDbEntity
  8
OBJECT
100
AcDbCircle
 10
8.129666569498581
 20
4.506363998912632
 30
0.0
 40
0.0196875
100
AcDbArc
 50
180.3383433468141
 51
269.9947545094855
  0
ARC
  5
1F8C
330
1E
100
AcDbEntity
  8
OBJECT
100
AcDbCircle
 10
8.129666569498581
 20
4.663539650127489
 30
0.0
 40
0.0196875
100
AcDbArc
 50
90.00524549051444
 51
179.6616566531859
  0
ARC
  5
1F8D
330
1E
100
AcDbEntity
  8
OBJECT
100
AcDbCircle
 10
8.129680988793793
 20
4.506039650787528
 30
0.0
 40
0.0196875
100
AcDbArc
 50
180.3488343278891
 51
270.0731431917393
  0
ARC
  5
1F8E
330
1E
100
AcDbEntity
  8
OBJECT
100
AcDbCircle
 10
21.22213758217641
 20
4.584951824520061
 30
0.0
 40
13.09280273437504
100
AcDbArc
 50
180.4300694493215
 51
181.2917570708697
  0
ARC
  5
1F8F
330
1E
100
AcDbEntity
  8
OBJECT
100
AcDbCircle
 10
8.133187295073426
 20
4.270113675595524
 30
0.0
 40
0.0196875
100
AcDbArc
 50
91.52830322669142
 51
181.3692334489578
  0
ARC
  5
1F90
330
1E
100
AcDbEntity
  8
OBJECT
100
AcDbCircle
 10
21.26161533549363
 20
4.583911755137336
 30
0.0
 40
13.15186523437504
100
AcDbArc
 50
181.3692334489709
 51
182.0567202389712
  0
ARC
  5
1F91
330
1E
100
AcDbEntity
  8
OBJECT
100
AcDbCircle
 10
21.26161533549363
 20
4.585991893902786
 30
0.0
 40
13.15186523437504
100
AcDbArc
 50
179.6616566531729
 51
180.3488343279021
  0
ARC
  5
1F92
330
1E
100
AcDbEntity
  8
OBJECT
100
AcDbCircle
 10
21.22213758217641
 20
4.584951824520061
 30
0.0
 40
13.09280273437504
100
AcDbArc
 50
176.98376330206
 51
177.8463235344247
  0
ARC
  5
1F93
330
1E
100
AcDbEntity
  8
OBJECT
100
AcDbCircle
 10
21.26161533549363
 20
4.585991893902786
 30
0.0
 40
13.15186523437504
100
AcDbArc
 50
177.9432797610287
 51
178.6307665510291
  0
ARC
  5
1F94
330
1E
100
AcDbEntity
  8
OBJECT
100
AcDbCircle
 10
8.137897502488286
 20
5.057290405328416
 30
0.0
 40
0.0196875
100
AcDbArc
 50
90.00524549051444
 51
177.9432797610416
  0
LINE
  5
1F95
330
1E
100
AcDbEntity
  8
OBJECT
100
AcDbLine
 10
8.137895700076356
 20
5.076977905246707
 30
0.0
 11
8.138583259470365
 21
5.076977968193745
 31
0.0
  0
ARC
  5
1F96
330
1E
100
AcDbEntity
  8
OBJECT
100
AcDbCircle
 10
8.133187295073426
 20
4.899789973444597
 30
0.0
 40
0.0196875
100
AcDbArc
 50
178.6307665510421
 51
268.4716967733086
  0
ARC
  5
1F97
330
1E
100
AcDbEntity
  8
OBJECT
100
AcDbCircle
 10
8.157960122558861
 20
5.451042243733894
 30
0.0
 40
0.0196875
100
AcDbArc
 50
90.00524549054052
 51
176.223044665825
  0
LINE
  5
1F98
330
1E
100
AcDbEntity
  8
OBJECT
100
AcDbLine
 10
8.157958320146931
 20
5.470729743651276
 30
0.0
 11
8.159332343775659
 21
5.470729869443488
 31
0.0
  0
ARC
  5
1F99
330
1E
100
AcDbEntity
  8
OBJECT
100
AcDbCircle
 10
21.26161533549363
 20
4.585991893902786
 30
0.0
 40
13.15186523437504
100
AcDbArc
 50
176.223044665786
 51
176.9114613106832
  0
ARC
  5
1F9A
330
1E
100
AcDbEntity
  8
OBJECT
100
AcDbCircle
 10
8.14851250761275
 20
5.29354137813388
 30
0.0
 40
0.0196875
100
AcDbArc
 50
176.9114613107092
 51
266.972727883903
  0
ARC
  5
1F9B
330
1E
100
AcDbEntity
  8
OBJECT
100
AcDbCircle
 10
21.22213758217641
 20
4.584951824520061
 30
0.0
 40
13.09280273437504
100
AcDbArc
 50
171.7872056609927
 51
172.6574087870717
  0
ARC
  5
1F9C
330
1E
100
AcDbEntity
  8
OBJECT
100
AcDbCircle
 10
21.22213758217641
 20
4.584951824520061
 30
0.0
 40
13.09280273437504
100
AcDbArc
 50
173.5248453397634
 51
174.3916569395727
  0
ARC
  5
1F9D
330
1E
100
AcDbEntity
  8
OBJECT
100
AcDbCircle
 10
8.189909006232269
 20
5.844795170338869
 30
0.0
 40
0.0196875
100
AcDbArc
 50
90.00524549054052
 51
174.4993871458274
  0
LINE
  5
1F9E
330
1E
100
AcDbEntity
  8
OBJECT
100
AcDbLine
 10
8.189907203820453
 20
5.864482670256251
 30
0.0
 11
8.192007737698773
 21
5.864482862561629
 31
0.0
  0
ARC
  5
1F9F
330
1E
100
AcDbEntity
  8
OBJECT
100
AcDbCircle
 10
21.26161533549363
 20
4.585991893902786
 30
0.0
 40
13.15186523437504
100
AcDbArc
 50
174.4993871458794
 51
175.1893619692353
  0
ARC
  5
1FA0
330
1E
100
AcDbEntity
  8
OBJECT
100
AcDbCircle
 10
8.175698248502968
 20
5.687293868667978
 30
0.0
 40
0.0196875
100
AcDbArc
 50
175.1893619692742
 51
265.5750452982404
  0
LINE
  5
1FA1
330
1E
100
AcDbEntity
  8
OBJECT
100
AcDbLine
 10
8.233829898867853
 20
6.258236693076099
 30
0.0
 11
8.236699572209218
 21
6.258236955799105
 31
0.0
  0
ARC
  5
1FA2
330
1E
100
AcDbEntity
  8
OBJECT
100
AcDbCircle
 10
8.233831701279783
 20
6.238549193158718
 30
0.0
 40
0.0196875
100
AcDbArc
 50
90.00524549054052
 51
172.7707148768176
  0
ARC
  5
1FA3
330
1E
100
AcDbEntity
  8
OBJECT
100
AcDbCircle
 10
21.26161533549363
 20
4.585991893902786
 30
0.0
 40
13.15186523437504
100
AcDbArc
 50
172.7707148768451
 51
173.4628890340526
  0
ARC
  5
1FA4
330
1E
100
AcDbEntity
  8
OBJECT
100
AcDbCircle
 10
8.214818758330025
 20
6.081047451843545
 30
0.0
 40
0.0196875
100
AcDbArc
 50
173.4628890340137
 51
264.2777357604315
  0
ARC
  5
1FA5
330
1E
100
AcDbEntity
  8
OBJECT
100
AcDbCircle
 10
21.22213758217641
 20
4.584951824520061
 30
0.0
 40
13.09280273437504
100
AcDbArc
 50
169.4053905639326
 51
170.9163624076425
  0
LINE
  5
1FA6
330
1E
100
AcDbEntity
  8
OBJECT
100
AcDbLine
 10
8.289848137101458
 20
6.651991823256679
 30
0.0
 11
8.293532564990769
 21
6.651992160570983
 31
0.0
  0
ARC
  5
1FA7
330
1E
100
AcDbEntity
  8
OBJECT
100
AcDbCircle
 10
21.26161533549363
 20
4.585991893902786
 30
0.0
 40
13.15186523437504
100
AcDbArc
 50
171.0353938146452
 51
171.7304268377598
  0
ARC
  5
1FA8
330
1E
100
AcDbEntity
  8
OBJECT
100
AcDbCircle
 10
8.289849939513388
 20
6.632304323339297
 30
0.0
 40
0.0196875
100
AcDbArc
 50
90.00524549051444
 51
171.0353938146324
  0
ARC
  5
1FA9
330
1E
100
AcDbEntity
  8
OBJECT
100
AcDbCircle
 10
8.265981918427669
 20
6.474802137535874
 30
0.0
 40
0.0196875
100
AcDbArc
 50
171.730426837732
 51
263.0801763999933
  0
LINE
  5
1FAA
330
1E
100
AcDbEntity
  8
OBJECT
100
AcDbLine
 10
6.455976284367167
 20
7.333180926986273
 30
0.0
 11
6.940288784367155
 21
7.30779918438256
 31
0.0
  0
ARC
  5
1FAB
330
1E
100
AcDbEntity
  8
OBJECT
100
AcDbCircle
 10
6.830038784367204
 20
7.222890358964463
 30
0.0
 40
0.196875
100
AcDbArc
 50
0.0
 51
86.99999999999439
  0
LINE
  5
1FAC
330
1E
100
AcDbEntity
  8
OBJECT
100
AcDbLine
 10
6.455976284367167
 20
7.439639324520243
 30
0.0
 11
6.840342425752552
 21
7.419495548618755
 31
0.0
  0
LINE
  5
1FAD
330
1E
100
AcDbEntity
  8
OBJECT
100
AcDbLine
 10
6.416601284367217
 20
7.439639324520243
 30
0.0
 11
6.416601284367217
 21
7.372701824520476
 31
0.0
  0
LINE
  5
1FAE
330
1E
100
AcDbEntity
  8
OBJECT
100
AcDbLine
 10
6.416601284367217
 20
7.439639324520243
 30
0.0
 11
6.416601284367217
 21
7.372701824520476
 31
0.0
  0
LINE
  5
1FAF
330
1E
100
AcDbEntity
  8
OBJECT
100
AcDbLine
 10
6.416601284367217
 20
7.419951824520097
 30
0.0
 11
6.416601284367217
 21
7.372701824520476
 31
0.0
  0
LINE
  5
1FB0
330
1E
100
AcDbEntity
  8
OBJECT
100
AcDbLine
 10
6.455976284367167
 20
7.439639324520243
 30
0.0
 11
6.455976284367167
 21
7.419951824520097
 31
0.0
  0
LINE
  5
1FB1
330
1E
100
AcDbEntity
  8
OBJECT
100
AcDbLine
 10
6.455976284367167
 20
7.419951824520097
 30
0.0
 11
6.416601284367217
 21
7.419951824520097
 31
0.0
  0
ARC
  5
1FB2
330
1E
100
AcDbEntity
  8
OBJECT
100
AcDbCircle
 10
8.739570025249932
 20
6.919785338328978
 30
0.0
 40
0.28775
100
AcDbArc
 50
102.3911782938197
 51
169.4053905639348
  0
ARC
  5
1FB3
330
1E
100
AcDbEntity
  8
OBJECT
100
AcDbCircle
 10
8.739570025249932
 20
6.919785338328978
 30
0.0
 40
0.32675
100
AcDbArc
 50
102.3911782938197
 51
169.4053905639348
  0
CIRCLE
  5
1FB4
330
1E
100
AcDbEntity
  8
OBJECT
100
AcDbCircle
 10
9.527147378953955
 20
6.947451786046798
 30
0.0
 40
0.1575
  0
CIRCLE
  5
1FB6
330
1E
100
AcDbEntity
  8
OBJECT
100
AcDbCircle
 10
8.798709875753402
 20
4.978701824520243
 30
0.0
 40
0.118125
  0
CIRCLE
  5
1FB9
330
1E
100
AcDbEntity
  8
OBJECT
100
AcDbCircle
 10
8.798709875753402
 20
4.978701824520243
 30
0.0
 40
0.0433125
  0
CIRCLE
  5
1FBF
330
1E
100
AcDbEntity
  8
OBJECT
100
AcDbCircle
 10
8.798709875753402
 20
6.94745178631237
 30
0.0
 40
0.118125
  0
CIRCLE
  5
1FC0
330
1E
100
AcDbEntity
  8
OBJECT
100
AcDbCircle
 10
8.798709875753402
 20
6.553701754950992
 30
0.0
 40
0.118125
  0
CIRCLE
  5
1FC1
330
1E
100
AcDbEntity
  8
OBJECT
100
AcDbCircle
 10
8.798709845882413
 20
6.947451824121884
 30
0.0
 40
0.1771875
  0
CIRCLE
  5
1FC2
330
1E
100
AcDbEntity
  8
OBJECT
100
AcDbCircle
 10
8.798709875753402
 20
6.553701824520061
 30
0.0
 40
0.0433125
  0
CIRCLE
  5
1FC3
330
1E
100
AcDbEntity
  8
OBJECT
100
AcDbCircle
 10
8.798709875753402
 20
6.94745178631237
 30
0.0
 40
0.063
  0
LINE
  5
1FD6
330
1E
100
AcDbEntity
  8
OBJECT
100
AcDbLine
 10
9.808709855915836
 20
6.712451786047125
 30
0.0
 11
9.993709855915781
 21
6.712451786047125
 31
0.0
  0
LINE
  5
1FD7
330
1E
100
AcDbEntity
  8
OBJECT
100
AcDbLine
 10
9.901209863330237
 20
6.947451786046798
 30
0.0
 11
9.993709855915781
 21
6.712451786047125
 31
0.0
  0
CIRCLE
  5
1FD8
330
1E
100
AcDbEntity
  8
OBJECT
100
AcDbCircle
 10
9.527147378953955
 20
6.947451786046798
 30
0.0
 40
0.055
  0
LINE
  5
1FD9
330
1E
100
AcDbEntity
  8
OBJECT
100
AcDbLine
 10
9.808709855915836
 20
6.712451786047125
 30
0.0
 11
9.901209863330237
 21
6.947451786046798
 31
0.0
  0
CIRCLE
  5
1FDA
330
1E
100
AcDbEntity
  8
OBJECT
100
AcDbCircle
 10
10.27527237895391
 20
6.947451804895166
 30
0.0
 40
0.1575
  0
CIRCLE
  5
1FDB
330
1E
100
AcDbEntity
  8
OBJECT
100
AcDbCircle
 10
10.27527237895391
 20
6.947451786046798
 30
0.0
 40
0.055
  0
ARC
  5
1FDC
330
1E
100
AcDbEntity
  8
OBJECT
100
AcDbCircle
 10
11.66452201297978
 20
4.112613243711706
 30
0.0
 40
0.0196875
100
AcDbArc
 50
270.0052454905145
 51
357.9432797610416
  0
ARC
  5
1FDD
330
1E
100
AcDbEntity
  8
OBJECT
100
AcDbCircle
 10
-1.419718066708341
 20
4.584951824520061
 30
0.0
 40
13.07280273437504
100
AcDbArc
 50
349.4053905639326
 51
0.0
  0
ARC
  5
1FDE
330
1E
100
AcDbEntity
  8
OBJECT
100
AcDbCircle
 10
-1.419718066708341
 20
4.584951824520061
 30
0.0
 40
13.02580273437504
100
AcDbArc
 50
349.4053905639326
 51
0.0
  0
ARC
  5
1FDF
330
1E
100
AcDbEntity
  8
OBJECT
100
AcDbCircle
 10
-1.419718066708341
 20
4.584951824520061
 30
0.0
 40
12.98680273437504
100
AcDbArc
 50
349.4053905639326
 51
0.0
  0
ARC
  5
1FE2
330
1E
100
AcDbEntity
  8
OBJECT
100
AcDbCircle
 10
-1.419718066708341
 20
4.584951824520061
 30
0.0
 40
13.09280273437504
100
AcDbArc
 50
349.4053905639326
 51
350.9163624076425
  0
ARC
  5
1FE3
330
1E
100
AcDbEntity
  8
OBJECT
100
AcDbCircle
 10
11.06284967035289
 20
2.250118310711144
 30
0.0
 40
0.39375
100
AcDbArc
 50
282.3911782938197
 51
349.4053905639348
  0
ARC
  5
1FE4
330
1E
100
AcDbEntity
  8
OBJECT
100
AcDbCircle
 10
11.06284967035289
 20
2.250118310711144
 30
0.0
 40
0.37375
100
AcDbArc
 50
282.3911782938197
 51
349.4053905639348
  0
CIRCLE
  5
1FE5
330
1E
100
AcDbEntity
  8
OBJECT
100
AcDbCircle
 10
10.8068348179304
 20
2.104321329794942
 30
0.0
 40
0.1771875
  0
CIRCLE
  5
1FE6
330
1E
100
AcDbEntity
  8
OBJECT
100
AcDbCircle
 10
10.80683484780139
 20
2.104321291985428
 30
0.0
 40
0.118
  0
CIRCLE
  5
1FE7
330
1E
100
AcDbEntity
  8
OBJECT
100
AcDbCircle
 10
10.80683484780139
 20
2.104321291985428
 30
0.0
 40
0.063
  0
ARC
  5
1FEC
330
1E
100
AcDbEntity
  8
OBJECT
100
AcDbCircle
 10
11.06284967035289
 20
2.250118310711144
 30
0.0
 40
0.32675
100
AcDbArc
 50
282.3911782938197
 51
349.4053905639348
  0
ARC
  5
1FED
330
1E
100
AcDbEntity
  8
OBJECT
100
AcDbCircle
 10
11.06284967035289
 20
2.250118310711144
 30
0.0
 40
0.28775
100
AcDbArc
 50
282.3911782938197
 51
349.4053905639348
  0
ARC
  5
1FF2
330
1E
100
AcDbEntity
  8
OBJECT
100
AcDbCircle
 10
-1.459195820025556
 20
4.583911755137336
 30
0.0
 40
13.15186523437504
100
AcDbArc
 50
351.0353938146452
 51
351.7304268377598
  0
LINE
  5
1FF3
330
1E
100
AcDbEntity
  8
OBJECT
100
AcDbLine
 10
11.51257137836661
 20
2.517911825783443
 30
0.0
 11
11.5088869504773
 21
2.517911488469138
 31
0.0
  0
ARC
  5
1FF4
330
1E
100
AcDbEntity
  8
OBJECT
100
AcDbCircle
 10
11.51256957595468
 20
2.537599325700824
 30
0.0
 40
0.0196875
100
AcDbArc
 50
270.0052454905145
 51
351.0353938146324
  0
ARC
  5
1FF5
330
1E
100
AcDbEntity
  8
OBJECT
100
AcDbCircle
 10
-1.459195820025556
 20
4.583911755137336
 30
0.0
 40
13.15186523437504
100
AcDbArc
 50
354.4993871458793
 51
355.1893619692352
  0
ARC
  5
1FF6
330
1E
100
AcDbEntity
  8
OBJECT
100
AcDbCircle
 10
-1.459195820025556
 20
4.583911755137336
 30
0.0
 40
13.15186523437504
100
AcDbArc
 50
352.7707148768451
 51
353.4628890340526
  0
ARC
  5
1FF7
330
1E
100
AcDbEntity
  8
OBJECT
100
AcDbCircle
 10
11.5364375970404
 20
2.695101511504248
 30
0.0
 40
0.0196875
100
AcDbArc
 50
351.730426837732
 51
83.08017639999334
  0
ARC
  5
1FF8
330
1E
100
AcDbEntity
  8
OBJECT
100
AcDbCircle
 10
11.56858781418829
 20
2.931354455881404
 30
0.0
 40
0.0196875
100
AcDbArc
 50
270.0052454905405
 51
352.7707148768176
  0
LINE
  5
1FF9
330
1E
100
AcDbEntity
  8
OBJECT
100
AcDbLine
 10
11.56858961660022
 20
2.911666955964022
 30
0.0
 11
11.56571994325885
 21
2.911666693241016
 31
0.0
  0
ARC
  5
1FFA
330
1E
100
AcDbEntity
  8
OBJECT
100
AcDbCircle
 10
-1.419718066708341
 20
4.584951824520061
 30
0.0
 40
13.09280273437504
100
AcDbArc
 50
351.7872056609927
 51
352.6574087870717
  0
ARC
  5
1FFB
330
1E
100
AcDbEntity
  8
OBJECT
100
AcDbCircle
 10
11.58760075713804
 20
3.088856197196577
 30
0.0
 40
0.0196875
100
AcDbArc
 50
353.4628890340137
 51
84.27773576043158
  0
ARC
  5
1FFC
330
1E
100
AcDbEntity
  8
OBJECT
100
AcDbCircle
 10
-1.419718066708341
 20
4.584951824520061
 30
0.0
 40
13.09280273437504
100
AcDbArc
 50
353.5248453397634
 51
354.3916569395727
  0
ARC
  5
1FFD
330
1E
100
AcDbEntity
  8
OBJECT
100
AcDbCircle
 10
11.6125105092358
 20
3.325108478701253
 30
0.0
 40
0.0196875
100
AcDbArc
 50
270.0052454905405
 51
354.4993871458273
  0
LINE
  5
1FFE
330
1E
100
AcDbEntity
  8
OBJECT
100
AcDbLine
 10
11.61251231164762
 20
3.305420978783871
 30
0.0
 11
11.6104117777693
 21
3.305420786478492
 31
0.0
  0
ARC
  5
1FFF
330
1E
100
AcDbEntity
  8
OBJECT
100
AcDbCircle
 10
11.64445939290921
 20
3.718861405306228
 30
0.0
 40
0.0196875
100
AcDbArc
 50
270.0052454905405
 51
356.2230446658249
  0
LINE
  5
2000
330
1E
100
AcDbEntity
  8
OBJECT
100
AcDbLine
 10
11.64446119532114
 20
3.699173905388846
 30
0.0
 11
11.64308717169241
 21
3.699173779596634
 31
0.0
  0
ARC
  5
2001
330
1E
100
AcDbEntity
  8
OBJECT
100
AcDbCircle
 10
11.6267212669651
 20
3.482609780372143
 30
0.0
 40
0.0196875
100
AcDbArc
 50
355.1893619692742
 51
85.57504529824047
  0
ARC
  5
2002
330
1E
100
AcDbEntity
  8
OBJECT
100
AcDbCircle
 10
-1.419718066708341
 20
4.584951824520061
 30
0.0
 40
13.09280273437504
100
AcDbArc
 50
355.2564914854762
 51
356.120758886304
  0
ARC
  5
2003
330
1E
100
AcDbEntity
  8
OBJECT
100
AcDbCircle
 10
-1.459195820025556
 20
4.583911755137336
 30
0.0
 40
13.15186523437504
100
AcDbArc
 50
356.223044665786
 51
356.9114613106833
  0
ARC
  5
2004
330
1E
100
AcDbEntity
  8
OBJECT
100
AcDbCircle
 10
11.65390700785532
 20
3.876362270906241
 30
0.0
 40
0.0196875
100
AcDbArc
 50
356.9114613107092
 51
86.97272788390307
  0
LINE
  5
2005
330
1E
100
AcDbEntity
  8
OBJECT
100
AcDbLine
 10
11.66452381539171
 20
4.092925743793415
 30
0.0
 11
11.6638362559977
 21
4.092925680846377
 31
0.0
  0
ARC
  5
2006
330
1E
100
AcDbEntity
  8
OBJECT
100
AcDbCircle
 10
-1.419718066708341
 20
4.584951824520061
 30
0.0
 40
13.09280273437504
100
AcDbArc
 50
356.98376330206
 51
357.8463235344246
  0
ARC
  5
2007
330
1E
100
AcDbEntity
  8
OBJECT
100
AcDbCircle
 10
11.06284967035289
 20
6.919785338328978
 30
0.0
 40
0.28775
100
AcDbArc
 50
10.59460943606513
 51
77.60882170618029
  0
ARC
  5
2008
330
1E
100
AcDbEntity
  8
OBJECT
100
AcDbCircle
 10
11.06284967035289
 20
6.919785338328978
 30
0.0
 40
0.32675
100
AcDbArc
 50
10.59460943606513
 51
77.60882170618029
  0
ARC
  5
2009
330
1E
100
AcDbEntity
  8
OBJECT
100
AcDbCircle
 10
11.06284967035289
 20
6.919785338328978
 30
0.0
 40
0.37375
100
AcDbArc
 50
10.59460943606513
 51
77.60882170618029
  0
ARC
  5
200A
330
1E
100
AcDbEntity
  8
OBJECT
100
AcDbCircle
 10
11.06284967035289
 20
6.919785338328978
 30
0.0
 40
0.39375
100
AcDbArc
 50
10.59460943606513
 51
77.60882170618029
  0
DIMENSION
  5
200B
330
1E
100
AcDbEntity
  8
DIM
100
AcDbDimension
  2
*D6
 10
12.66407336875349
 20
6.553701824520061
 30
0.0
 11
12.66407336875349
 21
5.766201859304688
 31
0.0
 70
    32
 71
     5
 42
1.574999930430749
  3
23NSTD
100
AcDbAlignedDimension
 13
11.00370992544573
 23
4.978701894089311
 33
0.0
 14
11.00370987575333
 24
6.553701824520061
 34
0.0
 50
90.0
100
AcDbRotatedDimension
  0
ARC
  5
200C
330
1E
100
AcDbEntity
  8
OBJECT
100
AcDbCircle
 10
-1.419718066708341
 20
4.584951824520061
 30
0.0
 40
12.98680273437504
100
AcDbArc
 50
0.0
 51
10.59460943606734
  0
ARC
  5
200D
330
1E
100
AcDbEntity
  8
OBJECT
100
AcDbCircle
 10
-1.419718066708341
 20
4.584951824520061
 30
0.0
 40
13.02580273437504
100
AcDbArc
 50
0.0
 51
10.59460943606734
  0
ARC
  5
200E
330
1E
100
AcDbEntity
  8
OBJECT
100
AcDbCircle
 10
-1.419718066708341
 20
4.584951824520061
 30
0.0
 40
13.07280273437504
100
AcDbArc
 50
0.0
 51
10.59460943606734
  0
ARC
  5
200F
330
1E
100
AcDbEntity
  8
OBJECT
100
AcDbCircle
 10
-1.419718066708341
 20
4.584951824520061
 30
0.0
 40
13.09280273437504
100
AcDbArc
 50
9.083637592357424
 51
10.59460943606734
  0
CIRCLE
  5
2010
330
1E
100
AcDbEntity
  8
OBJECT
100
AcDbCircle
 10
11.00370992544573
 20
4.978701894089311
 30
0.0
 40
0.118125
  0
CIRCLE
  5
2018
330
1E
100
AcDbEntity
  8
OBJECT
100
AcDbCircle
 10
11.00370992544573
 20
4.978701824520243
 30
0.0
 40
0.0433125
  0
CIRCLE
  5
2019
330
1E
100
AcDbEntity
  8
OBJECT
100
AcDbCircle
 10
11.00370987575333
 20
6.94745178631237
 30
0.0
 40
0.118125
  0
CIRCLE
  5
201A
330
1E
100
AcDbEntity
  8
OBJECT
100
AcDbCircle
 10
11.00370987575333
 20
6.947451841866126
 30
0.0
 40
0.1771875
  0
CIRCLE
  5
201B
330
1E
100
AcDbEntity
  8
OBJECT
100
AcDbCircle
 10
11.00370987575333
 20
6.553701824520061
 30
0.0
 40
0.118125
  0
CIRCLE
  5
201C
330
1E
100
AcDbEntity
  8
OBJECT
100
AcDbCircle
 10
11.00370984780137
 20
6.947451824520243
 30
0.0
 40
0.063
  0
CIRCLE
  5
201D
330
1E
100
AcDbEntity
  8
OBJECT
100
AcDbCircle
 10
11.00370987575333
 20
6.553701824520061
 30
0.0
 40
0.0433125
  0
ARC
  5
201E
330
1E
100
AcDbEntity
  8
OBJECT
100
AcDbCircle
 10
-1.419718066708341
 20
4.584951824520061
 30
0.0
 40
13.09280273437504
100
AcDbArc
 50
3.879241113695971
 51
4.743508514523771
  0
ARC
  5
201F
330
1E
100
AcDbEntity
  8
OBJECT
100
AcDbCircle
 10
-1.419718066708341
 20
4.584951824520061
 30
0.0
 40
13.09280273437504
100
AcDbArc
 50
0.4300694493215386
 51
1.291757070869759
  0
ARC
  5
2020
330
1E
100
AcDbEntity
  8
OBJECT
100
AcDbCircle
 10
-1.419718066708341
 20
4.584951824520061
 30
0.0
 40
13.09280273437504
100
AcDbArc
 50
358.7082429291302
 51
359.5699305506784
  0
ARC
  5
2021
330
1E
100
AcDbEntity
  8
OBJECT
100
AcDbCircle
 10
-1.459195820025556
 20
4.583911755137336
 30
0.0
 40
13.15186523437504
100
AcDbArc
 50
357.9432797610286
 51
358.630766551029
  0
ARC
  5
2022
330
1E
100
AcDbEntity
  8
OBJECT
100
AcDbCircle
 10
11.66923222039464
 20
4.270113675595524
 30
0.0
 40
0.0196875
100
AcDbArc
 50
358.6307665510421
 51
88.4716967733086
  0
ARC
  5
2023
330
1E
100
AcDbEntity
  8
OBJECT
100
AcDbCircle
 10
11.67275294596949
 20
4.506363998912632
 30
0.0
 40
0.0196875
100
AcDbArc
 50
270.0052454905145
 51
359.6616566531859
  0
ARC
  5
2024
330
1E
100
AcDbEntity
  8
OBJECT
100
AcDbCircle
 10
11.67275294596949
 20
4.663539650127489
 30
0.0
 40
0.0196875
100
AcDbArc
 50
0.3383433468140678
 51
89.99475450948557
  0
ARC
  5
2025
330
1E
100
AcDbEntity
  8
OBJECT
100
AcDbCircle
 10
-1.459195820025556
 20
4.585991893902786
 30
0.0
 40
13.15186523437504
100
AcDbArc
 50
359.6511656720978
 51
0.3383433468270953
  0
ARC
  5
2026
330
1E
100
AcDbEntity
  8
OBJECT
100
AcDbCircle
 10
11.67273852667428
 20
4.506039650787528
 30
0.0
 40
0.0196875
100
AcDbArc
 50
269.9268568082606
 51
359.6511656721109
  0
ARC
  5
2027
330
1E
100
AcDbEntity
  8
OBJECT
100
AcDbCircle
 10
-1.419718066708341
 20
4.584951824520061
 30
0.0
 40
13.09280273437504
100
AcDbArc
 50
2.1536764655753
 51
3.016236697939976
  0
ARC
  5
2028
330
1E
100
AcDbEntity
  8
OBJECT
100
AcDbCircle
 10
11.66923222039464
 20
4.899789973444597
 30
0.0
 40
0.0196875
100
AcDbArc
 50
271.5283032266913
 51
1.369233448957881
  0
LINE
  5
2029
330
1E
100
AcDbEntity
  8
OBJECT
100
AcDbLine
 10
11.66452381539171
 20
5.076977905246707
 30
0.0
 11
11.6638362559977
 21
5.076977968193745
 31
0.0
  0
ARC
  5
202A
330
1E
100
AcDbEntity
  8
OBJECT
100
AcDbCircle
 10
11.66452201297978
 20
5.057290405328416
 30
0.0
 40
0.0196875
100
AcDbArc
 50
2.056720238958343
 51
89.99475450948557
  0
ARC
  5
202B
330
1E
100
AcDbEntity
  8
OBJECT
100
AcDbCircle
 10
-1.459195820025556
 20
4.585991893902786
 30
0.0
 40
13.15186523437504
100
AcDbArc
 50
1.369233448970908
 51
2.05672023897132
  0
ARC
  5
202C
330
1E
100
AcDbEntity
  8
OBJECT
100
AcDbCircle
 10
11.65390700785532
 20
5.29354137813388
 30
0.0
 40
0.0196875
100
AcDbArc
 50
273.0272721160969
 51
3.088538689290714
  0
ARC
  5
202D
330
1E
100
AcDbEntity
  8
OBJECT
100
AcDbCircle
 10
-1.459195820025556
 20
4.585991893902786
 30
0.0
 40
13.15186523437504
100
AcDbArc
 50
3.088538689316718
 51
3.776955334213929
  0
LINE
  5
202E
330
1E
100
AcDbEntity
  8
OBJECT
100
AcDbLine
 10
11.64446119532114
 20
5.470729743651276
 30
0.0
 11
11.64308717169241
 21
5.470729869443488
 31
0.0
  0
ARC
  5
202F
330
1E
100
AcDbEntity
  8
OBJECT
100
AcDbCircle
 10
11.64445939290921
 20
5.451042243733894
 30
0.0
 40
0.0196875
100
AcDbArc
 50
3.776955334174973
 51
89.99475450945949
  0
ARC
  5
2030
330
1E
100
AcDbEntity
  8
OBJECT
100
AcDbCircle
 10
-1.419718066708341
 20
4.584951824520061
 30
0.0
 40
13.09280273437504
100
AcDbArc
 50
7.342591212928314
 51
8.212794339007242
  0
ARC
  5
2031
330
1E
100
AcDbEntity
  8
OBJECT
100
AcDbCircle
 10
-1.419718066708341
 20
4.584951824520061
 30
0.0
 40
13.09280273437504
100
AcDbArc
 50
5.608343060427284
 51
6.475154660236572
  0
ARC
  5
2032
330
1E
100
AcDbEntity
  8
OBJECT
100
AcDbCircle
 10
11.6267212669651
 20
5.687293868667978
 30
0.0
 40
0.0196875
100
AcDbArc
 50
274.4249547017595
 51
4.810638030725752
  0
ARC
  5
2033
330
1E
100
AcDbEntity
  8
OBJECT
100
AcDbCircle
 10
-1.459195820025556
 20
4.585991893902786
 30
0.0
 40
13.15186523437504
100
AcDbArc
 50
4.810638030764707
 51
5.500612854120603
  0
LINE
  5
2034
330
1E
100
AcDbEntity
  8
OBJECT
100
AcDbLine
 10
11.61251231164762
 20
5.864482670256251
 30
0.0
 11
11.6104117777693
 21
5.864482862561629
 31
0.0
  0
ARC
  5
2035
330
1E
100
AcDbEntity
  8
OBJECT
100
AcDbCircle
 10
11.6125105092358
 20
5.844795170338869
 30
0.0
 40
0.0196875
100
AcDbArc
 50
5.500612854172612
 51
89.99475450945949
  0
ARC
  5
2036
330
1E
100
AcDbEntity
  8
OBJECT
100
AcDbCircle
 10
11.58760075713804
 20
6.081047451843545
 30
0.0
 40
0.0196875
100
AcDbArc
 50
275.7222642395684
 51
6.537110965986215
  0
ARC
  5
2037
330
1E
100
AcDbEntity
  8
OBJECT
100
AcDbCircle
 10
-1.459195820025556
 20
4.585991893902786
 30
0.0
 40
13.15186523437504
100
AcDbArc
 50
6.537110965947334
 51
7.229285123154856
  0
LINE
  5
2038
330
1E
100
AcDbEntity
  8
OBJECT
100
AcDbLine
 10
11.56858961660022
 20
6.258236693076099
 30
0.0
 11
11.56571994325885
 21
6.258236955799105
 31
0.0
  0
ARC
  5
2039
330
1E
100
AcDbEntity
  8
OBJECT
100
AcDbCircle
 10
11.56858781418829
 20
6.238549193158718
 30
0.0
 40
0.0196875
100
AcDbArc
 50
7.229285123182311
 51
89.99475450945949
  0
ARC
  5
203A
330
1E
100
AcDbEntity
  8
OBJECT
100
AcDbCircle
 10
11.5364375970404
 20
6.474802137535874
 30
0.0
 40
0.0196875
100
AcDbArc
 50
276.9198236000066
 51
8.269573162267922
  0
ARC
  5
203B
330
1E
100
AcDbEntity
  8
OBJECT
100
AcDbCircle
 10
11.51256957595468
 20
6.632304323339297
 30
0.0
 40
0.0196875
100
AcDbArc
 50
8.964606185367566
 51
89.99475450948557
  0
ARC
  5
203C
330
1E
100
AcDbEntity
  8
OBJECT
100
AcDbCircle
 10
-1.459195820025556
 20
4.585991893902786
 30
0.0
 40
13.15186523437504
100
AcDbArc
 50
8.269573162240137
 51
8.964606185354739
  0
LINE
  5
203D
330
1E
100
AcDbEntity
  8
OBJECT
100
AcDbLine
 10
11.51257137836661
 20
6.651991823256679
 30
0.0
 11
11.5088869504773
 21
6.651992160570983
 31
0.0
  0
LINE
  5
203F
330
1E
100
AcDbEntity
  8
CENTER
100
AcDbLine
 10
11.69266955335912
 20
14.10470103112038
 30
0.0
 11
8.110011858724092
 21
14.10470103111947
 31
0.0
  0
ARC
  5
2040
330
1E
100
AcDbEntity
  8
OBJECT
100
AcDbCircle
 10
9.901209847801411
 20
17.05718991796948
 30
0.0
 40
5.807176386849635
100
AcDbArc
 50
257.6088217061802
 51
282.3911782938197
  0
ARC
  5
2041
330
1E
100
AcDbEntity
  8
OBJECT
100
AcDbCircle
 10
9.901209847801411
 20
11.15221214426947
 30
0.0
 40
5.807176386849635
100
AcDbArc
 50
77.60882170618033
 51
102.3911782938196
  0
LINE
  5
2042
330
1E
100
AcDbEntity
  8
OBJECT
100
AcDbLine
 10
6.416601284367217
 20
11.25001353111929
 30
0.0
 11
6.416601284367217
 21
16.95938853112056
 31
0.0
  0
ARC
  5
2043
330
1E
100
AcDbEntity
  8
OBJECT
100
AcDbCircle
 10
21.2618770930991
 20
14.10470103111947
 30
0.0
 40
13.13217773437504
100
AcDbArc
 50
171.8119721813666
 51
172.6788750396903
  0
LINE
  5
2044
330
1E
100
AcDbEntity
  8
CENTER
100
AcDbLine
 10
9.901209847801411
 20
16.95938853111965
 30
0.0
 11
9.901210027936272
 21
11.25001353111929
 31
0.0
  0
LINE
  5
2045
330
1E
100
AcDbEntity
  8
OBJECT
100
AcDbLine
 10
6.455976284367167
 20
16.95938853111965
 30
0.0
 11
6.455976284367167
 21
11.2500135311202
 31
0.0
  0
LINE
  5
2046
330
1E
100
AcDbEntity
  8
OBJECT
100
AcDbLine
 10
6.455976284367167
 20
16.95938853111965
 30
0.0
 11
6.455976284367167
 21
11.2500135311202
 31
0.0
  0
LINE
  5
2047
330
1E
100
AcDbEntity
  8
OBJECT
100
AcDbLine
 10
6.455976284367167
 20
16.95938853111965
 30
0.0
 11
6.455976284367167
 21
11.2500135311202
 31
0.0
  0
LINE
  5
2048
330
1E
100
AcDbEntity
  8
OBJECT
100
AcDbLine
 10
7.026913784367067
 20
15.77813853112002
 30
0.0
 11
7.026913784367067
 21
15.97501353111965
 31
0.0
  0
ARC
  5
2049
330
1E
100
AcDbEntity
  8
OBJECT
100
AcDbCircle
 10
8.739570025249932
 20
11.76986751731055
 30
0.0
 40
0.39375
100
AcDbArc
 50
190.5946094360651
 51
257.6088217061802
  0
LINE
  5
204A
330
1E
100
AcDbEntity
  8
OBJECT
100
AcDbLine
 10
8.290299093595209
 20
12.03751353111965
 30
0.0
 11
8.532710271579858
 21
12.03751353111965
 31
0.0
  0
LINE
  5
204B
330
1E
100
AcDbEntity
  8
OBJECT
100
AcDbLine
 10
8.26641665311412
 20
12.23438853111929
 30
0.0
 11
8.502297034078097
 21
12.23438853111929
 31
0.0
  0
LINE
  5
204C
330
1E
100
AcDbEntity
  8
OBJECT
100
AcDbLine
 10
8.234244806888582
 20
12.43126353111984
 30
0.0
 11
8.474986968294857
 21
12.43126353111984
 31
0.0
  0
LINE
  5
204D
330
1E
100
AcDbEntity
  8
OBJECT
100
AcDbLine
 10
8.215217444564032
 20
12.62813853111947
 30
0.0
 11
8.450760228679442
 21
12.62813853111947
 31
0.0
  0
LINE
  5
204E
330
1E
100
AcDbEntity
  8
OBJECT
100
AcDbLine
 10
8.19028606341898
 20
12.82501353111911
 30
0.0
 11
8.42959935169371
 21
12.82501353111911
 31
0.0
  0
LINE
  5
204F
330
1E
100
AcDbEntity
  8
OBJECT
100
AcDbLine
 10
8.176060886334781
 20
13.02188853111965
 30
0.0
 11
8.411489191558203
 21
13.02188853111965
 31
0.0
  0
LINE
  5
2050
330
1E
100
AcDbEntity
  8
OBJECT
100
AcDbLine
 10
8.158301131373391
 20
13.21876353111929
 30
0.0
 11
8.396416865174174
 21
13.21876353111929
 31
0.0
  0
LINE
  5
2051
330
1E
100
AcDbEntity
  8
OBJECT
100
AcDbLine
 10
8.148839097092391
 20
13.41563853111984
 30
0.0
 11
8.384371705745607
 21
13.41563853111984
 31
0.0
  0
LINE
  5
2052
330
1E
100
AcDbEntity
  8
OBJECT
100
AcDbLine
 10
8.138202462980657
 20
13.61251353111947
 30
0.0
 11
8.375345224707658
 21
13.61251353111947
 31
0.0
  0
LINE
  5
2053
330
1E
100
AcDbEntity
  8
OBJECT
100
AcDbLine
 10
8.234244806888582
 20
15.77813853111911
 30
0.0
 11
8.474986968294857
 21
15.77813853111911
 31
0.0
  0
LINE
  5
2054
330
1E
100
AcDbEntity
  8
OBJECT
100
AcDbLine
 10
8.215217444564032
 20
15.58126353111947
 30
0.0
 11
8.450760228679442
 21
15.58126353111947
 31
0.0
  0
LINE
  5
2055
330
1E
100
AcDbEntity
  8
OBJECT
100
AcDbLine
 10
8.19028606341898
 20
15.38438853111983
 30
0.0
 11
8.42959935169371
 21
15.38438853111983
 31
0.0
  0
LINE
  5
2056
330
1E
100
AcDbEntity
  8
OBJECT
100
AcDbLine
 10
8.176060886334781
 20
15.18751353111929
 30
0.0
 11
8.411489191558203
 21
15.18751353111929
 31
0.0
  0
LINE
  5
2057
330
1E
100
AcDbEntity
  8
OBJECT
100
AcDbLine
 10
8.158301131373391
 20
14.99063853111965
 30
0.0
 11
8.396416865174174
 21
14.99063853111965
 31
0.0
  0
LINE
  5
2058
330
1E
100
AcDbEntity
  8
OBJECT
100
AcDbLine
 10
8.148839097092391
 20
14.79376353111911
 30
0.0
 11
8.384371705745607
 21
14.79376353111911
 31
0.0
  0
LINE
  5
2059
330
1E
100
AcDbEntity
  8
OBJECT
100
AcDbLine
 10
8.138202462980657
 20
14.59688853111947
 30
0.0
 11
8.375345224707658
 21
14.59688853111947
 31
0.0
  0
LINE
  5
205A
330
1E
100
AcDbEntity
  8
OBJECT
100
AcDbLine
 10
8.133477836250804
 20
13.80938853111911
 30
0.0
 11
8.369331081640908
 21
13.80938853111911
 31
0.0
  0
LINE
  5
205B
330
1E
100
AcDbEntity
  8
OBJECT
100
AcDbLine
 10
8.133477836250804
 20
14.40001353111983
 30
0.0
 11
8.369331081640908
 21
14.40001353111983
 31
0.0
  0
LINE
  5
205C
330
1E
100
AcDbEntity
  8
OBJECT
100
AcDbLine
 10
8.129935481718362
 20
14.20313853111929
 30
0.0
 11
8.366325061921216
 21
14.20313853111929
 31
0.0
  0
LINE
  5
205D
330
1E
100
AcDbEntity
  8
OBJECT
100
AcDbLine
 10
8.129935481718362
 20
14.00626353111965
 30
0.0
 11
8.366325061921216
 21
14.00626353111965
 31
0.0
  0
ARC
  5
205E
330
1E
100
AcDbEntity
  8
OBJECT
100
AcDbCircle
 10
21.2618770930991
 20
14.10470103111947
 30
0.0
 40
12.89592773437504
100
AcDbArc
 50
179.5626442560683
 51
180.4373557439316
  0
ARC
  5
205F
330
1E
100
AcDbEntity
  8
OBJECT
100
AcDbCircle
 10
21.2618770930991
 20
14.10470103111947
 30
0.0
 40
13.15186523437504
100
AcDbArc
 50
184.8158835213072
 51
185.5058583446546
  0
LINE
  5
2060
330
1E
100
AcDbEntity
  8
OBJECT
100
AcDbLine
 10
7.046601284367099
 20
12.84470103112016
 30
0.0
 11
7.046601284367099
 21
13.00220103111951
 31
0.0
  0
ARC
  5
2061
330
1E
100
AcDbEntity
  8
OBJECT
100
AcDbCircle
 10
6.830038784367204
 20
11.46676249667598
 30
0.0
 40
0.196875
100
AcDbArc
 50
273.0000000000056
 51
0.0
  0
LINE
  5
2062
330
1E
100
AcDbEntity
  8
OBJECT
100
AcDbLine
 10
6.455976284367167
 20
11.2500135311202
 30
0.0
 11
6.840342425752439
 21
11.27015730702169
 31
0.0
  0
LINE
  5
2063
330
1E
100
AcDbEntity
  8
OBJECT
100
AcDbLine
 10
6.416601284367217
 20
11.27001353112063
 30
0.0
 11
6.455976284367167
 21
11.27001353112063
 31
0.0
  0
LINE
  5
2064
330
1E
100
AcDbEntity
  8
OBJECT
100
AcDbLine
 10
7.026913784367181
 20
12.03751353111965
 30
0.0
 11
6.455976284367167
 21
12.03751353111965
 31
0.0
  0
LINE
  5
2065
330
1E
100
AcDbEntity
  8
OBJECT
100
AcDbLine
 10
7.026913784367181
 20
12.82501353112002
 30
0.0
 11
6.455976284367167
 21
12.82501353112002
 31
0.0
  0
LINE
  5
2066
330
1E
100
AcDbEntity
  8
OBJECT
100
AcDbLine
 10
7.026913784367181
 20
12.62813853111947
 30
0.0
 11
6.455976284367167
 21
12.62813853111947
 31
0.0
  0
LINE
  5
2067
330
1E
100
AcDbEntity
  8
OBJECT
100
AcDbLine
 10
7.026913784367181
 20
12.43126353111984
 30
0.0
 11
6.455976284367167
 21
12.43126353111984
 31
0.0
  0
LINE
  5
2068
330
1E
100
AcDbEntity
  8
OBJECT
100
AcDbLine
 10
7.026913784367181
 20
12.2343885311202
 30
0.0
 11
6.455976284367167
 21
12.2343885311202
 31
0.0
  0
LINE
  5
2069
330
1E
100
AcDbEntity
  8
OBJECT
100
AcDbLine
 10
7.046601284367099
 20
12.0572010311198
 30
0.0
 11
7.046601284367099
 21
12.21470103112005
 31
0.0
  0
LINE
  5
206A
330
1E
100
AcDbEntity
  8
OBJECT
100
AcDbLine
 10
7.026913784367181
 20
11.46676249667598
 30
0.0
 11
7.026913784367181
 21
12.03751353111965
 31
0.0
  0
ARC
  5
206B
330
1E
100
AcDbEntity
  8
OBJECT
100
AcDbCircle
 10
7.026913784367181
 20
12.0572010311198
 30
0.0
 40
0.0196875
100
AcDbArc
 50
270.0
 51
0.0
  0
LINE
  5
206C
330
1E
100
AcDbEntity
  8
OBJECT
100
AcDbLine
 10
7.046601284367099
 20
12.45095103111998
 30
0.0
 11
7.046601284367099
 21
12.60845103112024
 31
0.0
  0
LINE
  5
206D
330
1E
100
AcDbEntity
  8
OBJECT
100
AcDbLine
 10
7.026913784367181
 20
12.43126353111984
 30
0.0
 11
7.026913784367181
 21
12.2343885311202
 31
0.0
  0
ARC
  5
206E
330
1E
100
AcDbEntity
  8
OBJECT
100
AcDbCircle
 10
7.026913784367181
 20
12.45095103111998
 30
0.0
 40
0.0196875
100
AcDbArc
 50
270.0
 51
0.0
  0
ARC
  5
206F
330
1E
100
AcDbEntity
  8
OBJECT
100
AcDbCircle
 10
7.026913784367181
 20
12.21470103112005
 30
0.0
 40
0.0196875
100
AcDbArc
 50
0.0
 51
90.0
  0
LINE
  5
2070
330
1E
100
AcDbEntity
  8
OBJECT
100
AcDbLine
 10
7.026913784367181
 20
12.2343885311202
 30
0.0
 11
7.026913784367181
 21
12.33282603112002
 31
0.0
  0
LINE
  5
2071
330
1E
100
AcDbEntity
  8
OBJECT
100
AcDbLine
 10
7.026913784367181
 20
12.82501353112002
 30
0.0
 11
7.026913784367181
 21
12.62813853111947
 31
0.0
  0
ARC
  5
2072
330
1E
100
AcDbEntity
  8
OBJECT
100
AcDbCircle
 10
7.026913784367181
 20
12.84470103112016
 30
0.0
 40
0.0196875
100
AcDbArc
 50
270.0
 51
0.0
  0
ARC
  5
2073
330
1E
100
AcDbEntity
  8
OBJECT
100
AcDbCircle
 10
7.026913784367181
 20
12.60845103112024
 30
0.0
 40
0.0196875
100
AcDbArc
 50
0.0
 51
90.0
  0
ARC
  5
2074
330
1E
100
AcDbEntity
  8
OBJECT
100
AcDbCircle
 10
21.2618770930991
 20
14.10470103111947
 30
0.0
 40
13.15186523437504
100
AcDbArc
 50
188.2748186527874
 51
188.969851675886
  0
ARC
  5
2075
330
1E
100
AcDbEntity
  8
OBJECT
100
AcDbCircle
 10
21.2221375821763
 20
14.10470103111947
 30
0.0
 40
13.09280273437495
100
AcDbArc
 50
189.0842897803432
 51
190.5946094360674
  0
ARC
  5
2076
330
1E
100
AcDbEntity
  8
OBJECT
100
AcDbCircle
 10
8.290299093595209
 20
12.0572010311198
 30
0.0
 40
0.0196875
100
AcDbArc
 50
188.9698516759136
 51
270.000000000026
  0
ARC
  5
2077
330
1E
100
AcDbEntity
  8
OBJECT
100
AcDbCircle
 10
21.2618770930991
 20
14.10470103111947
 30
0.0
 40
13.15186523437504
100
AcDbArc
 50
186.5423564564915
 51
187.2345306136907
  0
ARC
  5
2078
330
1E
100
AcDbEntity
  8
OBJECT
100
AcDbCircle
 10
21.2618770930991
 20
14.10470103111947
 30
0.0
 40
13.13217773437504
100
AcDbArc
 50
187.3211249603096
 51
188.1880278186333
  0
ARC
  5
2079
330
1E
100
AcDbEntity
  8
OBJECT
100
AcDbCircle
 10
8.234244806888582
 20
12.45095103111998
 30
0.0
 40
0.0196875
100
AcDbArc
 50
187.2345306137294
 51
270.0
  0
ARC
  5
207A
330
1E
100
AcDbEntity
  8
OBJECT
100
AcDbCircle
 10
8.26641665311412
 20
12.21470103111914
 30
0.0
 40
0.0196875
100
AcDbArc
 50
90.0
 51
188.2748186528133
  0
ARC
  5
207B
330
1E
100
AcDbEntity
  8
OBJECT
100
AcDbCircle
 10
21.2618770930991
 20
14.10470103111947
 30
0.0
 40
13.13217773437504
100
AcDbArc
 50
185.592159467211
 51
186.4559041746254
  0
ARC
  5
207C
330
1E
100
AcDbEntity
  8
OBJECT
100
AcDbCircle
 10
8.19028606341898
 20
12.84470103111925
 30
0.0
 40
0.0196875
100
AcDbArc
 50
185.5058583447066
 51
270.0
  0
ARC
  5
207D
330
1E
100
AcDbEntity
  8
OBJECT
100
AcDbCircle
 10
8.215217444564032
 20
12.60845103111932
 30
0.0
 40
0.0196875
100
AcDbArc
 50
90.0
 51
186.5423564565318
  0
LINE
  5
207E
330
1E
100
AcDbEntity
  8
OBJECT
100
AcDbLine
 10
7.026913784367181
 20
14.40001353111983
 30
0.0
 11
7.026913784367181
 21
14.2031385311202
 31
0.0
  0
LINE
  5
207F
330
1E
100
AcDbEntity
  8
OBJECT
100
AcDbLine
 10
7.026913784367181
 20
14.2031385311202
 30
0.0
 11
6.455976284367167
 21
14.2031385311202
 31
0.0
  0
LINE
  5
2080
330
1E
100
AcDbEntity
  8
OBJECT
100
AcDbLine
 10
7.026913784367181
 20
14.00626353111965
 30
0.0
 11
6.455976284367167
 21
14.00626353111965
 31
0.0
  0
LINE
  5
2081
330
1E
100
AcDbEntity
  8
OBJECT
100
AcDbLine
 10
7.026913784367181
 20
13.80938853112002
 30
0.0
 11
6.455976284367167
 21
13.80938853112002
 31
0.0
  0
LINE
  5
2082
330
1E
100
AcDbEntity
  8
OBJECT
100
AcDbLine
 10
7.026913784367181
 20
13.61251353111947
 30
0.0
 11
6.455976284367167
 21
13.61251353111947
 31
0.0
  0
LINE
  5
2083
330
1E
100
AcDbEntity
  8
OBJECT
100
AcDbLine
 10
7.026913784367181
 20
13.41563853111984
 30
0.0
 11
6.455976284367167
 21
13.41563853111984
 31
0.0
  0
LINE
  5
2084
330
1E
100
AcDbEntity
  8
OBJECT
100
AcDbLine
 10
7.026913784367181
 20
13.2187635311202
 30
0.0
 11
6.455976284367167
 21
13.2187635311202
 31
0.0
  0
LINE
  5
2085
330
1E
100
AcDbEntity
  8
OBJECT
100
AcDbLine
 10
7.026913784367181
 20
13.02188853111965
 30
0.0
 11
6.455976284367167
 21
13.02188853111965
 31
0.0
  0
LINE
  5
2086
330
1E
100
AcDbEntity
  8
OBJECT
100
AcDbLine
 10
7.026913784367181
 20
13.61251353111947
 30
0.0
 11
7.026913784367181
 21
13.41563853111984
 31
0.0
  0
ARC
  5
2087
330
1E
100
AcDbEntity
  8
OBJECT
100
AcDbCircle
 10
7.026913784367181
 20
13.63220103111962
 30
0.0
 40
0.0196875
100
AcDbArc
 50
270.0
 51
0.0
  0
ARC
  5
2088
330
1E
100
AcDbEntity
  8
OBJECT
100
AcDbCircle
 10
7.026913784367181
 20
13.23845103111944
 30
0.0
 40
0.0196875
100
AcDbArc
 50
270.0
 51
0.0
  0
LINE
  5
2089
330
1E
100
AcDbEntity
  8
OBJECT
100
AcDbLine
 10
7.026913784367181
 20
13.2187635311202
 30
0.0
 11
7.026913784367181
 21
13.02188853111965
 31
0.0
  0
ARC
  5
208A
330
1E
100
AcDbEntity
  8
OBJECT
100
AcDbCircle
 10
7.026913784367181
 20
13.00220103111951
 30
0.0
 40
0.0196875
100
AcDbArc
 50
0.0
 51
90.0
  0
LINE
  5
208B
330
1E
100
AcDbEntity
  8
OBJECT
100
AcDbLine
 10
7.046601284367099
 20
13.23845103111944
 30
0.0
 11
7.046601284367099
 21
13.39595103111969
 31
0.0
  0
ARC
  5
208C
330
1E
100
AcDbEntity
  8
OBJECT
100
AcDbCircle
 10
7.026913784367181
 20
13.39595103111969
 30
0.0
 40
0.0196875
100
AcDbArc
 50
0.0
 51
90.0
  0
LINE
  5
208D
330
1E
100
AcDbEntity
  8
OBJECT
100
AcDbLine
 10
7.026913784367181
 20
14.00626353111965
 30
0.0
 11
7.026913784367181
 21
13.80938853112002
 31
0.0
  0
LINE
  5
208E
330
1E
100
AcDbEntity
  8
OBJECT
100
AcDbLine
 10
7.046601284367099
 20
13.63220103111962
 30
0.0
 11
7.046601284367099
 21
13.78970103111987
 31
0.0
  0
ARC
  5
208F
330
1E
100
AcDbEntity
  8
OBJECT
100
AcDbCircle
 10
7.026913784367181
 20
13.78970103111987
 30
0.0
 40
0.0196875
100
AcDbArc
 50
0.0
 51
90.0
  0
ARC
  5
2090
330
1E
100
AcDbEntity
  8
OBJECT
100
AcDbCircle
 10
7.026913784367181
 20
14.0259510311198
 30
0.0
 40
0.0196875
100
AcDbArc
 50
270.0
 51
0.0
  0
LINE
  5
2091
330
1E
100
AcDbEntity
  8
OBJECT
100
AcDbLine
 10
7.046601284367099
 20
14.0259510311198
 30
0.0
 11
7.046601284367099
 21
14.18345103112005
 31
0.0
  0
ARC
  5
2092
330
1E
100
AcDbEntity
  8
OBJECT
100
AcDbCircle
 10
7.026913784367181
 20
14.18345103112005
 30
0.0
 40
0.0196875
100
AcDbArc
 50
0.0
 51
90.0
  0
LINE
  5
2093
330
1E
100
AcDbEntity
  8
OBJECT
100
AcDbLine
 10
7.026913784367181
 20
15.77813853112002
 30
0.0
 11
6.455976284367167
 21
15.77813853112002
 31
0.0
  0
LINE
  5
2094
330
1E
100
AcDbEntity
  8
OBJECT
100
AcDbLine
 10
7.026913784367181
 20
15.58126353111947
 30
0.0
 11
6.455976284367167
 21
15.58126353111947
 31
0.0
  0
LINE
  5
2095
330
1E
100
AcDbEntity
  8
OBJECT
100
AcDbLine
 10
7.026913784367181
 20
15.38438853111983
 30
0.0
 11
6.455976284367167
 21
15.38438853111983
 31
0.0
  0
LINE
  5
2096
330
1E
100
AcDbEntity
  8
OBJECT
100
AcDbLine
 10
7.026913784367181
 20
15.1875135311202
 30
0.0
 11
6.455976284367167
 21
15.1875135311202
 31
0.0
  0
LINE
  5
2097
330
1E
100
AcDbEntity
  8
OBJECT
100
AcDbLine
 10
7.026913784367181
 20
15.1875135311202
 30
0.0
 11
6.455976284367167
 21
15.1875135311202
 31
0.0
  0
LINE
  5
2098
330
1E
100
AcDbEntity
  8
OBJECT
100
AcDbLine
 10
7.026913784367181
 20
14.99063853111965
 30
0.0
 11
6.455976284367167
 21
14.99063853111965
 31
0.0
  0
LINE
  5
2099
330
1E
100
AcDbEntity
  8
OBJECT
100
AcDbLine
 10
7.026913784367181
 20
14.79376353112002
 30
0.0
 11
6.455976284367167
 21
14.79376353112002
 31
0.0
  0
LINE
  5
209A
330
1E
100
AcDbEntity
  8
OBJECT
100
AcDbLine
 10
7.026913784367181
 20
14.59688853111947
 30
0.0
 11
6.455976284367167
 21
14.59688853111947
 31
0.0
  0
LINE
  5
209B
330
1E
100
AcDbEntity
  8
OBJECT
100
AcDbLine
 10
7.026913784367181
 20
14.40001353111983
 30
0.0
 11
6.455976284367167
 21
14.40001353111983
 31
0.0
  0
LINE
  5
209C
330
1E
100
AcDbEntity
  8
OBJECT
100
AcDbLine
 10
7.026913784367067
 20
14.99063853111965
 30
0.0
 11
7.026913784367067
 21
15.1875135311202
 31
0.0
  0
LINE
  5
209D
330
1E
100
AcDbEntity
  8
OBJECT
100
AcDbLine
 10
7.026913784367067
 20
14.59688853111947
 30
0.0
 11
7.026913784367067
 21
14.79376353112002
 31
0.0
  0
ARC
  5
209E
330
1E
100
AcDbEntity
  8
OBJECT
100
AcDbCircle
 10
7.026913784367181
 20
14.41970103111998
 30
0.0
 40
0.0196875
100
AcDbArc
 50
270.0
 51
0.0
  0
LINE
  5
209F
330
1E
100
AcDbEntity
  8
OBJECT
100
AcDbLine
 10
7.046601284367099
 20
14.41970103111998
 30
0.0
 11
7.046601284367099
 21
14.57720103112023
 31
0.0
  0
ARC
  5
20A0
330
1E
100
AcDbEntity
  8
OBJECT
100
AcDbCircle
 10
7.026913784367181
 20
14.57720103112023
 30
0.0
 40
0.0196875
100
AcDbArc
 50
0.0
 51
90.0
  0
ARC
  5
20A1
330
1E
100
AcDbEntity
  8
OBJECT
100
AcDbCircle
 10
7.026913784367181
 20
14.81345103112016
 30
0.0
 40
0.0196875
100
AcDbArc
 50
270.0
 51
0.0
  0
LINE
  5
20A2
330
1E
100
AcDbEntity
  8
OBJECT
100
AcDbLine
 10
7.046601284367099
 20
14.81345103112016
 30
0.0
 11
7.046601284367099
 21
14.97095103111951
 31
0.0
  0
ARC
  5
20A3
330
1E
100
AcDbEntity
  8
OBJECT
100
AcDbCircle
 10
7.026913784367181
 20
14.97095103111951
 30
0.0
 40
0.0196875
100
AcDbArc
 50
0.0
 51
90.0
  0
LINE
  5
20A4
330
1E
100
AcDbEntity
  8
OBJECT
100
AcDbLine
 10
7.026913784367067
 20
15.38438853111983
 30
0.0
 11
7.026913784367067
 21
15.58126353111947
 31
0.0
  0
ARC
  5
20A5
330
1E
100
AcDbEntity
  8
OBJECT
100
AcDbCircle
 10
7.026913784367181
 20
15.20720103111943
 30
0.0
 40
0.0196875
100
AcDbArc
 50
270.0
 51
0.0
  0
LINE
  5
20A6
330
1E
100
AcDbEntity
  8
OBJECT
100
AcDbLine
 10
7.046601284367099
 20
15.20720103111943
 30
0.0
 11
7.046601284367099
 21
15.36470103111969
 31
0.0
  0
ARC
  5
20A7
330
1E
100
AcDbEntity
  8
OBJECT
100
AcDbCircle
 10
7.026913784367181
 20
15.36470103111969
 30
0.0
 40
0.0196875
100
AcDbArc
 50
0.0
 51
90.0
  0
ARC
  5
20A8
330
1E
100
AcDbEntity
  8
OBJECT
100
AcDbCircle
 10
7.026913784367181
 20
15.60095103111962
 30
0.0
 40
0.0196875
100
AcDbArc
 50
270.0
 51
0.0
  0
LINE
  5
20A9
330
1E
100
AcDbEntity
  8
OBJECT
100
AcDbLine
 10
7.046601284367099
 20
15.60095103111962
 30
0.0
 11
7.046601284367099
 21
15.75845103111987
 31
0.0
  0
ARC
  5
20AA
330
1E
100
AcDbEntity
  8
OBJECT
100
AcDbCircle
 10
7.026913784367181
 20
15.75845103111987
 30
0.0
 40
0.0196875
100
AcDbArc
 50
0.0
 51
90.0
  0
ARC
  5
20AB
330
1E
100
AcDbEntity
  8
OBJECT
100
AcDbCircle
 10
21.2618770930991
 20
14.10470103111947
 30
0.0
 40
13.13217773437504
100
AcDbArc
 50
178.7114409633584
 51
179.5705125053202
  0
ARC
  5
20AC
330
1E
100
AcDbEntity
  8
OBJECT
100
AcDbCircle
 10
21.2618770930991
 20
14.10470103111947
 30
0.0
 40
13.13217773437504
100
AcDbArc
 50
182.1479204318426
 51
183.0077655685272
  0
ARC
  5
20AD
330
1E
100
AcDbEntity
  8
OBJECT
100
AcDbCircle
 10
8.138202462980657
 20
13.63220103111962
 30
0.0
 40
0.0196875
100
AcDbArc
 50
182.0619657294939
 51
270.000000000026
  0
ARC
  5
20AE
330
1E
100
AcDbEntity
  8
OBJECT
100
AcDbCircle
 10
8.158301131373391
 20
13.23845103111944
 30
0.0
 40
0.0196875
100
AcDbArc
 50
183.7822008247103
 51
270.0
  0
ARC
  5
20AF
330
1E
100
AcDbEntity
  8
OBJECT
100
AcDbCircle
 10
21.2618770930991
 20
14.10470103111947
 30
0.0
 40
13.13217773437504
100
AcDbArc
 50
183.8682893178263
 51
184.7296879348104
  0
ARC
  5
20B0
330
1E
100
AcDbEntity
  8
OBJECT
100
AcDbCircle
 10
8.176060886334781
 20
13.00220103111951
 30
0.0
 40
0.0196875
100
AcDbArc
 50
89.99999999997395
 51
184.8158835212555
  0
LINE
  5
20B1
330
1E
100
AcDbEntity
  8
OBJECT
100
AcDbLine
 10
8.175724143218545
 20
13.02188853111965
 30
0.0
 11
8.213590299070474
 21
13.02188853111965
 31
0.0
  0
ARC
  5
20B2
330
1E
100
AcDbEntity
  8
OBJECT
100
AcDbCircle
 10
8.148839097092391
 20
13.39595103111969
 30
0.0
 40
0.0196875
100
AcDbArc
 50
89.99999999997395
 51
183.0937841798195
  0
ARC
  5
20B3
330
1E
100
AcDbEntity
  8
OBJECT
100
AcDbCircle
 10
21.2618770930991
 20
14.10470103111947
 30
0.0
 40
13.15186523437504
100
AcDbArc
 50
183.0937841798585
 51
183.7822008247494
  0
ARC
  5
20B4
330
1E
100
AcDbEntity
  8
OBJECT
100
AcDbCircle
 10
8.129935481718248
 20
14.0259510311198
 30
0.0
 40
0.0196875
100
AcDbArc
 50
180.3435888373577
 51
270.000000000026
  0
ARC
  5
20B5
330
1E
100
AcDbEntity
  8
OBJECT
100
AcDbCircle
 10
8.129935481718248
 20
14.18345103111914
 30
0.0
 40
0.0196875
100
AcDbArc
 50
89.99999999997395
 51
179.6564111626422
  0
ARC
  5
20B6
330
1E
100
AcDbEntity
  8
OBJECT
100
AcDbCircle
 10
8.129935481718248
 20
14.18345103111914
 30
0.0
 40
0.0196875
100
AcDbArc
 50
89.99999999997395
 51
179.6564111626422
  0
ARC
  5
20B7
330
1E
100
AcDbEntity
  8
OBJECT
100
AcDbCircle
 10
8.129935481718248
 20
14.0259510311198
 30
0.0
 40
0.0196875
100
AcDbArc
 50
180.3435888373577
 51
270.000000000026
  0
ARC
  5
20B8
330
1E
100
AcDbEntity
  8
OBJECT
100
AcDbCircle
 10
21.2618770930991
 20
14.10470103111947
 30
0.0
 40
13.13217773437504
100
AcDbArc
 50
180.4294874946798
 51
181.2885590366416
  0
ARC
  5
20B9
330
1E
100
AcDbEntity
  8
OBJECT
100
AcDbCircle
 10
8.133477836250804
 20
13.78970103111987
 30
0.0
 40
0.0196875
100
AcDbArc
 50
90.00000000002605
 51
181.3744789394964
  0
ARC
  5
20BA
330
1E
100
AcDbEntity
  8
OBJECT
100
AcDbCircle
 10
21.2618770930991
 20
14.10470103111947
 30
0.0
 40
13.15186523437504
100
AcDbArc
 50
181.3744789395094
 51
182.0619657295069
  0
ARC
  5
20BB
330
1E
100
AcDbEntity
  8
OBJECT
100
AcDbCircle
 10
21.2618770930991
 20
14.10470103111947
 30
0.0
 40
13.15186523437504
100
AcDbArc
 50
179.6564111626422
 51
180.3435888373577
  0
ARC
  5
20BC
330
1E
100
AcDbEntity
  8
OBJECT
100
AcDbCircle
 10
21.2618770930991
 20
14.10470103111947
 30
0.0
 40
13.15186523437504
100
AcDbArc
 50
179.6564111626422
 51
180.3435888373577
  0
LINE
  5
20BD
330
1E
100
AcDbEntity
  8
OBJECT
100
AcDbLine
 10
8.129598738602012
 20
14.20313853111929
 30
0.0
 11
8.169107669237305
 21
14.20313853111929
 31
0.0
  0
LINE
  5
20BE
330
1E
100
AcDbEntity
  8
OBJECT
100
AcDbLine
 10
8.129598738602012
 20
14.20313853111929
 30
0.0
 11
8.169107669237305
 21
14.20313853111929
 31
0.0
  0
ARC
  5
20BF
330
1E
100
AcDbEntity
  8
OBJECT
100
AcDbCircle
 10
21.2618770930991
 20
14.10470103111947
 30
0.0
 40
13.13217773437504
100
AcDbArc
 50
175.2703120651895
 51
176.1317106821736
  0
ARC
  5
20C0
330
1E
100
AcDbEntity
  8
OBJECT
100
AcDbCircle
 10
21.2618770930991
 20
14.10470103111947
 30
0.0
 40
13.13217773437504
100
AcDbArc
 50
176.9922344314728
 51
177.8520795681573
  0
ARC
  5
20C1
330
1E
100
AcDbEntity
  8
OBJECT
100
AcDbCircle
 10
8.138202462980657
 20
14.57720103111933
 30
0.0
 40
0.0196875
100
AcDbArc
 50
89.99999999997395
 51
177.938034270506
  0
ARC
  5
20C2
330
1E
100
AcDbEntity
  8
OBJECT
100
AcDbCircle
 10
8.133477836250804
 20
14.41970103111998
 30
0.0
 40
0.0196875
100
AcDbArc
 50
178.6255210605035
 51
269.9999999999739
  0
ARC
  5
20C3
330
1E
100
AcDbEntity
  8
OBJECT
100
AcDbCircle
 10
21.2618770930991
 20
14.10470103111947
 30
0.0
 40
13.15186523437504
100
AcDbArc
 50
177.938034270493
 51
178.6255210604905
  0
ARC
  5
20C4
330
1E
100
AcDbEntity
  8
OBJECT
100
AcDbCircle
 10
8.158301131373391
 20
14.97095103111951
 30
0.0
 40
0.0196875
100
AcDbArc
 50
90.0
 51
176.2177991752896
  0
ARC
  5
20C5
330
1E
100
AcDbEntity
  8
OBJECT
100
AcDbCircle
 10
8.148839097092391
 20
14.81345103111925
 30
0.0
 40
0.0196875
100
AcDbArc
 50
176.9062158201804
 51
270.000000000026
  0
ARC
  5
20C6
330
1E
100
AcDbEntity
  8
OBJECT
100
AcDbCircle
 10
21.2618770930991
 20
14.10470103111947
 30
0.0
 40
13.15186523437504
100
AcDbArc
 50
176.2177991752506
 51
176.9062158201414
  0
ARC
  5
20C7
330
1E
100
AcDbEntity
  8
OBJECT
100
AcDbCircle
 10
21.2618770930991
 20
14.10470103111947
 30
0.0
 40
13.13217773437504
100
AcDbArc
 50
173.5440958253746
 51
174.4078405327889
  0
ARC
  5
20C8
330
1E
100
AcDbEntity
  8
OBJECT
100
AcDbCircle
 10
8.19028606341898
 20
15.36470103111969
 30
0.0
 40
0.0196875
100
AcDbArc
 50
90.0
 51
174.4941416552934
  0
ARC
  5
20C9
330
1E
100
AcDbEntity
  8
OBJECT
100
AcDbCircle
 10
8.176060886334781
 20
15.20720103111943
 30
0.0
 40
0.0196875
100
AcDbArc
 50
175.1841164787445
 51
270.000000000026
  0
ARC
  5
20CA
330
1E
100
AcDbEntity
  8
OBJECT
100
AcDbCircle
 10
21.2618770930991
 20
14.10470103111947
 30
0.0
 40
13.15186523437504
100
AcDbArc
 50
174.4941416553453
 51
175.1841164786927
  0
ARC
  5
20CB
330
1E
100
AcDbEntity
  8
OBJECT
100
AcDbCircle
 10
8.234244806888582
 20
15.75845103111987
 30
0.0
 40
0.0196875
100
AcDbArc
 50
90.0
 51
172.7654693862705
  0
ARC
  5
20CC
330
1E
100
AcDbEntity
  8
OBJECT
100
AcDbCircle
 10
8.215217444564032
 20
15.60095103111962
 30
0.0
 40
0.0196875
100
AcDbArc
 50
173.4576435434681
 51
270.0
  0
ARC
  5
20CD
330
1E
100
AcDbEntity
  8
OBJECT
100
AcDbCircle
 10
21.2618770930991
 20
14.10470103111947
 30
0.0
 40
13.15186523437504
100
AcDbArc
 50
172.7654693863093
 51
173.4576435435085
  0
LINE
  5
20CF
330
1E
100
AcDbEntity
  8
OBJECT
100
AcDbLine
 10
8.411489191558203
 20
13.02188853111965
 30
0.0
 11
8.42959935169371
 21
12.82501353111911
 31
0.0
  0
ARC
  5
20D0
330
1E
100
AcDbEntity
  8
OBJECT
100
AcDbCircle
 10
21.2618770930991
 20
14.10470103111947
 30
0.0
 40
12.89592773437504
100
AcDbArc
 50
188.3390887245393
 51
189.2241759615275
  0
ARC
  5
20D1
330
1E
100
AcDbEntity
  8
OBJECT
100
AcDbCircle
 10
21.2618770930991
 20
14.10470103111947
 30
0.0
 40
12.89592773437504
100
AcDbArc
 50
186.5746917356549
 51
187.4560012993945
  0
ARC
  5
20D2
330
1E
100
AcDbEntity
  8
OBJECT
100
AcDbCircle
 10
21.2618770930991
 20
14.10470103111947
 30
0.0
 40
12.89592773437504
100
AcDbArc
 50
183.0629191164696
 51
183.9392662205523
  0
ARC
  5
20D3
330
1E
100
AcDbEntity
  8
OBJECT
100
AcDbCircle
 10
21.2618770930991
 20
14.10470103111947
 30
0.0
 40
12.89592773437504
100
AcDbArc
 50
181.3121691895851
 51
182.1872887227298
  0
ARC
  5
20D4
330
1E
100
AcDbEntity
  8
OBJECT
100
AcDbCircle
 10
21.2618770930991
 20
14.10470103111947
 30
0.0
 40
12.89592773437504
100
AcDbArc
 50
177.8127112772701
 51
178.6878308104148
  0
ARC
  5
20D5
330
1E
100
AcDbEntity
  8
OBJECT
100
AcDbCircle
 10
21.2618770930991
 20
14.10470103111947
 30
0.0
 40
12.89592773437504
100
AcDbArc
 50
176.0607337794476
 51
176.9370808835303
  0
ARC
  5
20D6
330
1E
100
AcDbEntity
  8
OBJECT
100
AcDbCircle
 10
21.2618770930991
 20
14.10470103111947
 30
0.0
 40
12.89592773437504
100
AcDbArc
 50
174.3050580124774
 51
175.1834625991934
  0
ARC
  5
20D7
330
1E
100
AcDbEntity
  8
OBJECT
100
AcDbCircle
 10
21.2618770930991
 20
14.10470103111947
 30
0.0
 40
12.89592773437504
100
AcDbArc
 50
172.5439987006055
 51
173.4253082643451
  0
LINE
  5
20E2
330
1E
100
AcDbEntity
  8
OBJECT
100
AcDbLine
 10
8.290299093595209
 20
16.17188853111929
 30
0.0
 11
8.532710271579858
 21
16.17188853111929
 31
0.0
  0
LINE
  5
20E3
330
1E
100
AcDbEntity
  8
OBJECT
100
AcDbLine
 10
8.26641665311412
 20
15.97501353111965
 30
0.0
 11
8.502297034078097
 21
15.97501353111965
 31
0.0
  0
ARC
  5
20E4
330
1E
100
AcDbEntity
  8
OBJECT
100
AcDbCircle
 10
8.739570025249932
 20
16.43953454492839
 30
0.0
 40
0.39375
100
AcDbArc
 50
102.3911782938196
 51
169.4053905639326
  0
LINE
  5
20E5
330
1E
100
AcDbEntity
  8
OBJECT
100
AcDbLine
 10
7.026913784367181
 20
16.1718885311202
 30
0.0
 11
6.455976284367167
 21
16.1718885311202
 31
0.0
  0
LINE
  5
20E6
330
1E
100
AcDbEntity
  8
OBJECT
100
AcDbLine
 10
7.026913784367181
 20
15.97501353111965
 30
0.0
 11
6.455976284367167
 21
15.97501353111965
 31
0.0
  0
ARC
  5
20E7
330
1E
100
AcDbEntity
  8
OBJECT
100
AcDbCircle
 10
6.830038784367204
 20
16.74263956556387
 30
0.0
 40
0.196875
100
AcDbArc
 50
0.0
 51
86.99999999999439
  0
LINE
  5
20E8
330
1E
100
AcDbEntity
  8
OBJECT
100
AcDbLine
 10
6.455976284367167
 20
16.95938853111965
 30
0.0
 11
6.840342425752439
 21
16.93924475521817
 31
0.0
  0
LINE
  5
20E9
330
1E
100
AcDbEntity
  8
OBJECT
100
AcDbLine
 10
6.416601284367217
 20
16.93938853112013
 30
0.0
 11
6.455976284367167
 21
16.93938853112013
 31
0.0
  0
LINE
  5
20EA
330
1E
100
AcDbEntity
  8
OBJECT
100
AcDbLine
 10
7.026913784367181
 20
16.1718885311202
 30
0.0
 11
7.026913784367181
 21
16.74263956556387
 31
0.0
  0
ARC
  5
20EB
330
1E
100
AcDbEntity
  8
OBJECT
100
AcDbCircle
 10
7.026913784367181
 20
15.9947010311198
 30
0.0
 40
0.0196875
100
AcDbArc
 50
270.0
 51
0.0
  0
LINE
  5
20EC
330
1E
100
AcDbEntity
  8
OBJECT
100
AcDbLine
 10
7.046601284367099
 20
15.9947010311198
 30
0.0
 11
7.046601284367099
 21
16.15220103112005
 31
0.0
  0
ARC
  5
20ED
330
1E
100
AcDbEntity
  8
OBJECT
100
AcDbCircle
 10
7.026913784367181
 20
16.15220103112005
 30
0.0
 40
0.0196875
100
AcDbArc
 50
0.0
 51
90.0
  0
ARC
  5
20EE
330
1E
100
AcDbEntity
  8
OBJECT
100
AcDbCircle
 10
21.2221375821763
 20
14.10470103111947
 30
0.0
 40
13.09280273437495
100
AcDbArc
 50
169.4053905639326
 51
170.9157102196568
  0
ARC
  5
20EF
330
1E
100
AcDbEntity
  8
OBJECT
100
AcDbCircle
 10
8.290299093595209
 20
16.15220103111914
 30
0.0
 40
0.0196875
100
AcDbArc
 50
89.99999999997395
 51
171.0301483240864
  0
ARC
  5
20F0
330
1E
100
AcDbEntity
  8
OBJECT
100
AcDbCircle
 10
8.26641665311412
 20
15.9947010311198
 30
0.0
 40
0.0196875
100
AcDbArc
 50
171.7251813471866
 51
270.0
  0
ARC
  5
20F1
330
1E
100
AcDbEntity
  8
OBJECT
100
AcDbCircle
 10
21.2618770930991
 20
14.10470103111947
 30
0.0
 40
13.15186523437504
100
AcDbArc
 50
171.030148324114
 51
171.7251813472126
  0
CIRCLE
  5
20F2
330
1E
100
AcDbEntity
  8
OBJECT
100
AcDbCircle
 10
8.798709875753402
 20
16.46720099291178
 30
0.0
 40
0.122
  0
ARC
  5
20F3
330
1E
100
AcDbEntity
  8
OBJECT
100
AcDbCircle
 10
21.2618770930991
 20
14.10470103111947
 30
0.0
 40
12.89592773437504
100
AcDbArc
 50
170.7758240384724
 51
171.6609112754606
  0
CIRCLE
  5
20F4
330
1E
100
AcDbEntity
  8
OBJECT
100
AcDbCircle
 10
8.798709875753402
 20
16.46720099291178
 30
0.0
 40
0.063
  0
ARC
  5
20F5
330
1E
100
AcDbEntity
  8
OBJECT
100
AcDbCircle
 10
-1.459195639890808
 20
14.1057411005022
 30
0.0
 40
13.13217773437504
100
AcDbArc
 50
7.315879469776196
 51
8.182782328086544
  0
ARC
  5
20F7
330
1E
100
AcDbEntity
  8
OBJECT
100
AcDbCircle
 10
-1.459195639890808
 20
14.1057411005022
 30
0.0
 40
13.15186523437504
100
AcDbArc
 50
354.4888961648006
 51
355.1788709881524
  0
LINE
  5
20F8
330
1E
100
AcDbEntity
  8
OBJECT
100
AcDbLine
 10
11.39109307514219
 20
13.02175213814189
 30
0.0
 11
11.37296489096355
 21
12.82487879697146
 31
0.0
  0
LINE
  5
20F9
330
1E
100
AcDbEntity
  8
OBJECT
100
AcDbLine
 10
11.53609351650233
 20
12.2342388598945
 30
0.0
 11
11.30021313652686
 21
12.23426045499763
 31
0.0
  0
LINE
  5
20FA
330
1E
100
AcDbEntity
  8
OBJECT
100
AcDbLine
 10
11.56828338671199
 20
12.43111091370155
 30
0.0
 11
11.32754122631469
 21
12.43113295390685
 31
0.0
  0
LINE
  5
20FB
330
1E
100
AcDbEntity
  8
OBJECT
100
AcDbLine
 10
11.58732877307592
 20
12.62798417090107
 30
0.0
 11
11.35178598994754
 21
12.62800573509776
 31
0.0
  0
LINE
  5
20FC
330
1E
100
AcDbEntity
  8
OBJECT
100
AcDbLine
 10
11.61227817823545
 20
12.82485688758151
 30
0.0
 11
11.37296489096355
 21
12.82487879697146
 31
0.0
  0
ARC
  5
20FD
330
1E
100
AcDbEntity
  8
OBJECT
100
AcDbCircle
 10
11.06284967035289
 20
11.76986751731055
 30
0.0
 40
0.39375
100
AcDbArc
 50
282.3911782938197
 51
349.4053905639348
  0
LINE
  5
20FE
330
1E
100
AcDbEntity
  8
OBJECT
100
AcDbLine
 10
11.51219305200233
 20
12.03736604718233
 30
0.0
 11
11.26978187503358
 21
12.03738824018819
 31
0.0
  0
ARC
  5
20FF
330
1E
100
AcDbEntity
  8
OBJECT
100
AcDbCircle
 10
-1.419717886573707
 20
14.10470103111947
 30
0.0
 40
13.09280273437504
100
AcDbArc
 50
349.4053905639326
 51
350.9157102196568
  0
ARC
  5
2100
330
1E
100
AcDbEntity
  8
OBJECT
100
AcDbCircle
 10
-1.459195639890808
 20
14.1057411005022
 30
0.0
 40
12.89592773437504
100
AcDbArc
 50
350.770578547939
 51
351.6556657849311
  0
ARC
  5
2101
330
1E
100
AcDbEntity
  8
OBJECT
100
AcDbCircle
 10
-1.459195639890808
 20
14.1057411005022
 30
0.0
 40
12.89592773437504
100
AcDbArc
 50
352.5387532100603
 51
353.4200627738151
  0
ARC
  5
2102
330
1E
100
AcDbEntity
  8
OBJECT
100
AcDbCircle
 10
-1.459195639890808
 20
14.1057411005022
 30
0.0
 40
13.15186523437504
100
AcDbArc
 50
351.0249028335771
 51
351.7199358566737
  0
ARC
  5
2103
330
1E
100
AcDbEntity
  8
OBJECT
100
AcDbCircle
 10
11.51219485441426
 20
12.05705354709971
 30
0.0
 40
0.0196875
100
AcDbArc
 50
269.9947545094334
 51
351.0249028335491
  0
ARC
  5
2104
330
1E
100
AcDbEntity
  8
OBJECT
100
AcDbCircle
 10
-1.459195639890808
 20
14.1057411005022
 30
0.0
 40
13.15186523437504
100
AcDbArc
 50
352.7602238957719
 51
353.4523980529747
  0
ARC
  5
2105
330
1E
100
AcDbEntity
  8
OBJECT
100
AcDbCircle
 10
-1.459195639890808
 20
14.1057411005022
 30
0.0
 40
13.13217773437504
100
AcDbArc
 50
351.8067266908337
 51
352.6736295491517
  0
ARC
  5
2106
330
1E
100
AcDbEntity
  8
OBJECT
100
AcDbCircle
 10
11.56828518912392
 20
12.45079841361894
 30
0.0
 40
0.0196875
100
AcDbArc
 50
269.9947545094594
 51
352.7602238957332
  0
ARC
  5
2107
330
1E
100
AcDbEntity
  8
OBJECT
100
AcDbCircle
 10
11.5360917140904
 20
12.21455135997712
 30
0.0
 40
0.0196875
100
AcDbArc
 50
351.7199358566609
 51
89.99475450945949
  0
ARC
  5
2108
330
1E
100
AcDbEntity
  8
OBJECT
100
AcDbCircle
 10
-1.459195639890808
 20
14.1057411005022
 30
0.0
 40
13.13217773437504
100
AcDbArc
 50
353.5388503348451
 51
354.4025950422495
  0
ARC
  5
2109
330
1E
100
AcDbEntity
  8
OBJECT
100
AcDbCircle
 10
11.58732697066399
 20
12.60829667098369
 30
0.0
 40
0.0196875
100
AcDbArc
 50
353.4523980529357
 51
89.99475450945949
  0
ARC
  5
210A
330
1E
100
AcDbEntity
  8
OBJECT
100
AcDbCircle
 10
11.61227998064727
 20
12.84454438749889
 30
0.0
 40
0.0196875
100
AcDbArc
 50
269.9947545094594
 51
354.4888961647618
  0
LINE
  5
210B
330
1E
100
AcDbEntity
  8
OBJECT
100
AcDbLine
 10
11.62652137937892
 20
13.02173058442622
 30
0.0
 11
11.39109307514219
 21
13.02175213814189
 31
0.0
  0
LINE
  5
210C
330
1E
100
AcDbEntity
  8
OBJECT
100
AcDbLine
 10
11.64429915838492
 20
13.21860395767635
 30
0.0
 11
11.40618342558208
 21
13.21862575742852
 31
0.0
  0
LINE
  5
210D
330
1E
100
AcDbEntity
  8
OBJECT
100
AcDbLine
 10
11.6537792167452
 20
13.41547809059102
 30
0.0
 11
11.41824660907913
 21
13.41549965385638
 31
0.0
  0
LINE
  5
210E
330
1E
100
AcDbEntity
  8
OBJECT
100
AcDbLine
 10
11.66443387493144
 20
13.61235211597068
 30
0.0
 11
11.42729111419818
 21
13.61237382664694
 31
0.0
  0
LINE
  5
210F
330
1E
100
AcDbEntity
  8
OBJECT
100
AcDbLine
 10
11.66917652576047
 20
13.80922668260154
 30
0.0
 11
11.43332328135888
 21
13.80924827522085
 31
0.0
  0
LINE
  5
2110
330
1E
100
AcDbEntity
  8
OBJECT
100
AcDbLine
 10
11.66452399552646
 20
14.59672711184612
 30
0.0
 11
11.4273812347932
 21
14.59674882252147
 31
0.0
  0
LINE
  5
2111
330
1E
100
AcDbEntity
  8
OBJECT
100
AcDbLine
 10
11.66923059811746
 20
14.39985168012572
 30
0.0
 11
11.43337735371587
 21
14.39987327274593
 31
0.0
  0
LINE
  5
2112
330
1E
100
AcDbEntity
  8
OBJECT
100
AcDbLine
 10
11.67275492851617
 20
14.20297635664519
 30
0.0
 11
11.43636534930398
 21
14.20299799836629
 31
0.0
  0
LINE
  5
2113
330
1E
100
AcDbEntity
  8
OBJECT
100
AcDbLine
 10
11.67273690439709
 20
14.00610135746956
 30
0.0
 11
11.43634732518491
 21
14.00612299919157
 31
0.0
  0
LINE
  5
2114
330
1E
100
AcDbEntity
  8
OBJECT
100
AcDbLine
 10
11.56858979673496
 20
15.77798589967551
 30
0.0
 11
11.32784763633766
 21
15.7780079398808
 31
0.0
  0
LINE
  5
2115
330
1E
100
AcDbEntity
  8
OBJECT
100
AcDbLine
 10
11.58759913486086
 20
15.58110915852557
 30
0.0
 11
11.35205635173248
 21
15.58113072272135
 31
0.0
  0
LINE
  5
2116
330
1E
100
AcDbEntity
  8
OBJECT
100
AcDbLine
 10
11.61251249178236
 20
15.38423187685566
 30
0.0
 11
11.37319920451058
 21
15.38425378624561
 31
0.0
  0
LINE
  5
2117
330
1E
100
AcDbEntity
  8
OBJECT
100
AcDbLine
 10
11.62671964468792
 20
15.18735557535001
 30
0.0
 11
11.39129134045107
 21
15.18737712906568
 31
0.0
  0
LINE
  5
2118
330
1E
100
AcDbEntity
  8
OBJECT
100
AcDbLine
 10
11.64446137545589
 20
14.99047895025069
 30
0.0
 11
11.40634564265305
 21
14.99050075000286
 31
0.0
  0
LINE
  5
2119
330
1E
100
AcDbEntity
  8
OBJECT
100
AcDbLine
 10
11.65390538557825
 20
14.79360308481591
 30
0.0
 11
11.41837277791206
 21
14.79362464808127
 31
0.0
  0
ARC
  5
211A
330
1E
100
AcDbEntity
  8
OBJECT
100
AcDbCircle
 10
-1.459195639890808
 20
14.1057411005022
 30
0.0
 40
12.89592773437504
100
AcDbArc
 50
356.0554882888991
 51
356.9318353929953
  0
ARC
  5
211B
330
1E
100
AcDbEntity
  8
OBJECT
100
AcDbCircle
 10
-1.459195639890808
 20
14.1057411005022
 30
0.0
 40
12.89592773437504
100
AcDbArc
 50
357.8074657867437
 51
358.6825853198789
  0
ARC
  5
211C
330
1E
100
AcDbEntity
  8
OBJECT
100
AcDbCircle
 10
-1.459195639890808
 20
14.1057411005022
 30
0.0
 40
12.89592773437504
100
AcDbArc
 50
359.5573987655387
 51
0.4321102533939802
  0
ARC
  5
211D
330
1E
100
AcDbEntity
  8
OBJECT
100
AcDbCircle
 10
-1.459195639890808
 20
14.1057411005022
 30
0.0
 40
12.89592773437504
100
AcDbArc
 50
1.306923699051159
 51
2.182043232189306
  0
ARC
  5
211E
330
1E
100
AcDbEntity
  8
OBJECT
100
AcDbCircle
 10
-1.459195639890808
 20
14.1057411005022
 30
0.0
 40
12.89592773437504
100
AcDbArc
 50
3.057673625930239
 51
3.93402073002359
  0
ARC
  5
211F
330
1E
100
AcDbEntity
  8
OBJECT
100
AcDbCircle
 10
-1.459195639890808
 20
14.1057411005022
 30
0.0
 40
12.89592773437504
100
AcDbArc
 50
4.811291910269104
 51
5.689696496983783
  0
ARC
  5
2120
330
1E
100
AcDbEntity
  8
OBJECT
100
AcDbCircle
 10
-1.459195639890808
 20
14.1057411005022
 30
0.0
 40
12.89592773437504
100
AcDbArc
 50
6.569446245121001
 51
7.450755808857251
  0
ARC
  5
2121
330
1E
100
AcDbEntity
  8
OBJECT
100
AcDbCircle
 10
-1.459195639890808
 20
14.1057411005022
 30
0.0
 40
13.13217773437504
100
AcDbArc
 50
0.4242420041517802
 51
1.283313546104418
  0
ARC
  5
2122
330
1E
100
AcDbEntity
  8
OBJECT
100
AcDbCircle
 10
-1.459195639890808
 20
14.1057411005022
 30
0.0
 40
13.13217773437504
100
AcDbArc
 50
356.9869889409437
 51
357.8468340776144
  0
ARC
  5
2123
330
1E
100
AcDbEntity
  8
OBJECT
100
AcDbCircle
 10
11.66443567734337
 20
13.63203961588897
 30
0.0
 40
0.0196875
100
AcDbArc
 50
269.9947545094334
 51
357.9327887799785
  0
ARC
  5
2124
330
1E
100
AcDbEntity
  8
OBJECT
100
AcDbCircle
 10
11.64430096079674
 20
13.23829145759373
 30
0.0
 40
0.0196875
100
AcDbArc
 50
269.9947545094594
 51
356.2125536847465
  0
ARC
  5
2125
330
1E
100
AcDbEntity
  8
OBJECT
100
AcDbCircle
 10
-1.459195639890808
 20
14.1057411005022
 30
0.0
 40
13.13217773437504
100
AcDbArc
 50
355.2650665746611
 51
356.126465191638
  0
ARC
  5
2126
330
1E
100
AcDbEntity
  8
OBJECT
100
AcDbCircle
 10
11.62651957696699
 20
13.00204308450793
 30
0.0
 40
0.0196875
100
AcDbArc
 50
355.1788709882055
 51
89.99475450948557
  0
ARC
  5
2127
330
1E
100
AcDbEntity
  8
OBJECT
100
AcDbCircle
 10
11.65377741433339
 20
13.39579059067364
 30
0.0
 40
0.0196875
100
AcDbArc
 50
356.9009703296329
 51
89.99475450948557
  0
ARC
  5
2128
330
1E
100
AcDbEntity
  8
OBJECT
100
AcDbCircle
 10
-1.459195639890808
 20
14.1057411005022
 30
0.0
 40
13.15186523437504
100
AcDbArc
 50
356.2125536847076
 51
356.9009703296069
  0
ARC
  5
2129
330
1E
100
AcDbEntity
  8
OBJECT
100
AcDbCircle
 10
-1.459195639890808
 20
14.1057411005022
 30
0.0
 40
13.13217773437504
100
AcDbArc
 50
358.7061954728216
 51
359.565267014775
  0
ARC
  5
212A
330
1E
100
AcDbEntity
  8
OBJECT
100
AcDbCircle
 10
11.66917472334854
 20
13.78953918268416
 30
0.0
 40
0.0196875
100
AcDbArc
 50
358.6202755699752
 51
89.99475450943345
  0
ARC
  5
212B
330
1E
100
AcDbEntity
  8
OBJECT
100
AcDbCircle
 10
-1.459195639890808
 20
14.1057411005022
 30
0.0
 40
13.15186523437504
100
AcDbArc
 50
357.9327887799525
 51
358.6202755699622
  0
ARC
  5
212C
330
1E
100
AcDbEntity
  8
OBJECT
100
AcDbCircle
 10
11.67273870680902
 20
14.02578885738694
 30
0.0
 40
0.0196875
100
AcDbArc
 50
269.9947545094334
 51
359.6511656721109
  0
ARC
  5
212D
330
1E
100
AcDbEntity
  8
OBJECT
100
AcDbCircle
 10
11.67275312610424
 20
14.1832888567269
 30
0.0
 40
0.0196875
100
AcDbArc
 50
0.3383433468140678
 51
89.99475450948557
  0
ARC
  5
212E
330
1E
100
AcDbEntity
  8
OBJECT
100
AcDbCircle
 10
-1.459195639890808
 20
14.1057411005022
 30
0.0
 40
13.15186523437504
100
AcDbArc
 50
359.6511656720978
 51
0.3383433468270953
  0
ARC
  5
212F
330
1E
100
AcDbEntity
  8
OBJECT
100
AcDbCircle
 10
11.67275312610424
 20
14.1832888567269
 30
0.0
 40
0.0196875
100
AcDbArc
 50
0.3383433468140678
 51
89.99475450948557
  0
ARC
  5
2130
330
1E
100
AcDbEntity
  8
OBJECT
100
AcDbCircle
 10
11.67273870680902
 20
14.02578885738694
 30
0.0
 40
0.0196875
100
AcDbArc
 50
269.9947545094334
 51
359.6511656721109
  0
ARC
  5
2131
330
1E
100
AcDbEntity
  8
OBJECT
100
AcDbCircle
 10
-1.459195639890808
 20
14.1057411005022
 30
0.0
 40
13.15186523437504
100
AcDbArc
 50
359.6511656720978
 51
0.3383433468270953
  0
ARC
  5
2132
330
1E
100
AcDbEntity
  8
OBJECT
100
AcDbCircle
 10
-1.459195639890808
 20
14.1057411005022
 30
0.0
 40
13.13217773437504
100
AcDbArc
 50
3.863043827288421
 51
4.724442444275526
  0
ARC
  5
2133
330
1E
100
AcDbEntity
  8
OBJECT
100
AcDbCircle
 10
-1.459195639890808
 20
14.1057411005022
 30
0.0
 40
13.13217773437504
100
AcDbArc
 50
2.142674941307665
 51
3.00252007798808
  0
ARC
  5
2134
330
1E
100
AcDbEntity
  8
OBJECT
100
AcDbCircle
 10
11.66452219311453
 20
14.57703961192783
 30
0.0
 40
0.0196875
100
AcDbArc
 50
2.056720238958343
 51
89.99475450948557
  0
ARC
  5
2135
330
1E
100
AcDbEntity
  8
OBJECT
100
AcDbCircle
 10
11.66923240052939
 20
14.41953918004401
 30
0.0
 40
0.0196875
100
AcDbArc
 50
269.9947545094855
 51
1.369233448957881
  0
ARC
  5
2136
330
1E
100
AcDbEntity
  8
OBJECT
100
AcDbCircle
 10
-1.459195639890808
 20
14.1057411005022
 30
0.0
 40
13.15186523437504
100
AcDbArc
 50
1.369233448970908
 51
2.05672023897132
  0
ARC
  5
2137
330
1E
100
AcDbEntity
  8
OBJECT
100
AcDbCircle
 10
11.64445957304396
 20
14.9707914503333
 30
0.0
 40
0.0196875
100
AcDbArc
 50
3.776955334174973
 51
89.99475450945949
  0
ARC
  5
2138
330
1E
100
AcDbEntity
  8
OBJECT
100
AcDbCircle
 10
11.65390718799007
 20
14.81329058473329
 30
0.0
 40
0.0196875
100
AcDbArc
 50
269.9947545094334
 51
3.088538689290714
  0
ARC
  5
2139
330
1E
100
AcDbEntity
  8
OBJECT
100
AcDbCircle
 10
-1.459195639890808
 20
14.1057411005022
 30
0.0
 40
13.15186523437504
100
AcDbArc
 50
3.088538689316718
 51
3.776955334213929
  0
ARC
  5
213A
330
1E
100
AcDbEntity
  8
OBJECT
100
AcDbCircle
 10
-1.459195639890808
 20
14.1057411005022
 30
0.0
 40
13.13217773437504
100
AcDbArc
 50
5.586913976672235
 51
6.450658684080388
  0
ARC
  5
213B
330
1E
100
AcDbEntity
  8
OBJECT
100
AcDbCircle
 10
11.61251068937055
 20
15.36454437693828
 30
0.0
 40
0.0196875
100
AcDbArc
 50
5.500612854172612
 51
89.99475450945949
  0
ARC
  5
213C
330
1E
100
AcDbEntity
  8
OBJECT
100
AcDbCircle
 10
11.62672144709985
 20
15.20704307526739
 30
0.0
 40
0.0196875
100
AcDbArc
 50
269.9947545094334
 51
4.810638030725752
  0
ARC
  5
213D
330
1E
100
AcDbEntity
  8
OBJECT
100
AcDbCircle
 10
-1.459195639890808
 20
14.1057411005022
 30
0.0
 40
13.15186523437504
100
AcDbArc
 50
4.810638030764707
 51
5.500612854120603
  0
ARC
  5
213E
330
1E
100
AcDbEntity
  8
OBJECT
100
AcDbCircle
 10
11.58760093727279
 20
15.60079665844296
 30
0.0
 40
0.0196875
100
AcDbArc
 50
269.9947545094594
 51
6.537110965986215
  0
ARC
  5
213F
330
1E
100
AcDbEntity
  8
OBJECT
100
AcDbCircle
 10
-1.459195639890808
 20
14.1057411005022
 30
0.0
 40
13.15186523437504
100
AcDbArc
 50
6.537110965947334
 51
7.229285123154856
  0
ARC
  5
2140
330
1E
100
AcDbEntity
  8
OBJECT
100
AcDbCircle
 10
11.56858799432303
 20
15.75829839975813
 30
0.0
 40
0.0196875
100
AcDbArc
 50
7.229285123182311
 51
89.99475450945949
  0
LINE
  5
2141
330
1E
100
AcDbEntity
  8
OBJECT
100
AcDbLine
 10
11.53643597476322
 20
15.9748638442179
 30
0.0
 11
11.30055559478786
 21
15.97488543932195
 31
0.0
  0
ARC
  5
2142
330
1E
100
AcDbEntity
  8
OBJECT
100
AcDbCircle
 10
11.06284967035289
 20
16.43953454492839
 30
0.0
 40
0.39375
100
AcDbArc
 50
10.59460943606744
 51
77.60882170618033
  0
LINE
  5
2143
330
1E
100
AcDbEntity
  8
OBJECT
100
AcDbLine
 10
11.51257155850136
 20
16.17174102985609
 30
0.0
 11
11.27016038153261
 21
16.17176322286104
 31
0.0
  0
ARC
  5
2144
330
1E
100
AcDbEntity
  8
OBJECT
100
AcDbCircle
 10
-1.419717886573707
 20
14.10470103111947
 30
0.0
 40
13.09280273437504
100
AcDbArc
 50
9.084289780343176
 51
10.59460943606744
  0
CIRCLE
  5
2145
330
1E
100
AcDbEntity
  8
OBJECT
100
AcDbCircle
 10
11.00370987575333
 20
16.46720099291178
 30
0.0
 40
0.122
  0
CIRCLE
  5
2146
330
1E
100
AcDbEntity
  8
OBJECT
100
AcDbCircle
 10
11.00370984780137
 20
16.46720103111965
 30
0.0
 40
0.063
  0
ARC
  5
2147
330
1E
100
AcDbEntity
  8
OBJECT
100
AcDbCircle
 10
-1.459195639890808
 20
14.1057411005022
 30
0.0
 40
12.89592773437504
100
AcDbArc
 50
8.333843234001907
 51
9.218930470996216
  0
ARC
  5
2148
330
1E
100
AcDbEntity
  8
OBJECT
100
AcDbCircle
 10
11.51256975608943
 20
16.15205352993871
 30
0.0
 40
0.0196875
100
AcDbArc
 50
8.964606185367566
 51
89.99475450948557
  0
ARC
  5
2149
330
1E
100
AcDbEntity
  8
OBJECT
100
AcDbCircle
 10
11.53643777717515
 20
15.99455134413529
 30
0.0
 40
0.0196875
100
AcDbArc
 50
269.9947545094594
 51
8.269573162267922
  0
ARC
  5
214A
330
1E
100
AcDbEntity
  8
OBJECT
100
AcDbCircle
 10
-1.459195639890808
 20
14.1057411005022
 30
0.0
 40
13.15186523437504
100
AcDbArc
 50
8.269573162240137
 51
8.964606185354739
  0
CIRCLE
  5
2212
330
1E
100
AcDbEntity
  8
OBJECT
100
AcDbCircle
 10
8.995584847801424
 20
11.62407049858484
 30
0.0
 40
0.063
  0
CIRCLE
  5
2213
330
1E
100
AcDbEntity
  8
OBJECT
100
AcDbCircle
 10
10.80683484780139
 20
11.62407049858484
 30
0.0
 40
0.063
  0
CIRCLE
  5
2214
330
1E
100
AcDbEntity
  8
OBJECT
100
AcDbCircle
 10
8.995584847801424
 20
11.62407049858484
 30
0.0
 40
0.122
  0
CIRCLE
  5
2215
330
1E
100
AcDbEntity
  8
OBJECT
100
AcDbCircle
 10
10.80683484780139
 20
11.62407049858484
 30
0.0
 40
0.122
  0
HATCH
  5
22CA
330
1E
100
AcDbEntity
  8
OBJECT
100
AcDbHatch
 10
0.0
 20
0.0
 30
0.0
210
0.0
220
0.0
230
1.0
  2
ANSI31
 70
     0
 71
     0
 91
        2
 92
        7
 72
     1
 73
     1
 93
       18
 10
6.840342425752453
 20
7.41949554861876
 42
0.0
 10
6.455976284367171
 20
7.439639324520242
 42
0.0
 10
6.455976284367167
 20
7.419951824520098
 42
0.0
 10
6.416601284367214
 20
7.419951824520097
 42
0.0
 10
6.416601284367217
 20
7.372701824520475
 42
0.0
 10
6.357538784367122
 20
7.372701824520475
 42
0.0
 10
6.357538784367108
 20
7.333180926986273
 42
0.0
 10
6.455976284367185
 20
7.333180926986272
 42
0.0
 10
6.940288784367158
 20
7.30779918438256
 42
0.0
 10
6.940288784367151
 20
7.124639324122285
 42
0.0
 10
6.534851284367093
 20
7.124639324122283
 42
0.0
 10
6.534851284367093
 20
7.065576824121848
 42
0.0
 10
6.416601284367214
 20
7.065576824121847
 42
0.0
 10
6.416601284367217
 20
7.010451824121985
 42
0.0
 10
6.528601284367066
 20
7.010451824121077
 42
0.0
 10
6.587663784367052
 20
7.069514324121513
 42
0.0
 10
7.026913784367181
 20
7.069514324122422
 42
0.0
 10
7.026913784367181
 20
7.222890358964463
 42
0.3989595459730524
 97
        0
 92
        7
 72
     1
 73
     1
 93
       72
 10
7.026913784367181
 20
6.258389324520461
 42
0.0
 10
7.026913784367181
 20
6.455264324520388
 42
0.4142135623735708
 10
7.046601284367213
 20
6.474951824520388
 42
0.0
 10
7.046601284367213
 20
6.632451824520643
 42
0.4142135623735708
 10
7.026913784367181
 20
6.652139324520643
 42
0.0
 10
7.026913784367184
 20
6.825389324122256
 42
0.0
 10
6.587663784367052
 20
6.825389324121346
 42
0.0
 10
6.52860128436707
 20
6.884451824121781
 42
0.0
 10
6.416601284367217
 20
6.884451824121782
 42
0.0
 10
6.416601284367217
 20
6.82932682412192
 42
0.0
 10
6.534851284367096
 20
6.829326824121921
 42
0.0
 10
6.534851284367093
 20
6.770264324122392
 42
0.0
 10
6.940288784367268
 20
6.770264324122392
 42
0.0
 10
6.940288784367272
 20
6.671826824520037
 42
0.0
 10
6.743413784367177
 20
6.652139324520788
 42
0.0
 10
6.743413784367177
 20
6.597014324520017
 42
0.0
 10
6.979663784367222
 20
6.597014324520017
 42
0.0
 10
6.979663784367218
 20
6.510389324520104
 42
0.0
 10
6.743413784367177
 20
6.510389324520104
 42
0.0
 10
6.743413784367177
 20
6.455264324520243
 42
0.0
 10
6.940288784367272
 20
6.435576824520086
 42
0.0
 10
6.940288784367155
 20
4.703076824520024
 42
0.0
 10
6.940288784367151
 20
1.862104464658638
 42
0.0
 10
6.455976284367164
 20
1.836722722054759
 42
0.0
 10
6.357538784367122
 20
1.836722722054759
 42
0.0
 10
6.357538784367122
 20
1.797201824520556
 42
0.0
 10
6.416601284367217
 20
1.797201824520556
 42
0.0
 10
6.416601284367221
 20
1.749951824520024
 42
0.0
 10
6.455976284367167
 20
1.749951824520025
 42
0.0
 10
6.455976284367167
 20
1.730264324520789
 42
0.0
 10
6.840342425752449
 20
1.750408100422271
 42
0.3989595459738118
 10
7.026913784367181
 20
1.947013290077082
 42
0.0
 10
7.026913784367181
 20
2.517764324520388
 42
0.4142135623735708
 10
7.046601284367213
 20
2.537451824520388
 42
0.0
 10
7.046601284367213
 20
2.694951824520643
 42
0.4142135623735708
 10
7.026913784367181
 20
2.714639324520643
 42
0.0
 10
7.026913784367181
 20
2.813076824520607
 42
0.0
 10
7.026913784367181
 20
2.91151432452057
 42
0.4142135623735708
 10
7.046601284367213
 20
2.93120182452057
 42
0.0
 10
7.046601284367213
 20
3.088701824519915
 42
0.4142135623735708
 10
7.026913784367181
 20
3.108389324519915
 42
0.0
 10
7.026913784367181
 20
3.305264324520752
 42
0.4142135623735708
 10
7.046601284367213
 20
3.324951824520752
 42
0.0
 10
7.046601284367213
 20
3.482451824520097
 42
0.4142135623735708
 10
7.026913784367181
 20
3.502139324520097
 42
0.0
 10
7.026913784367181
 20
3.699014324520025
 42
0.4142135623735708
 10
7.046601284367213
 20
3.718701824520024
 42
0.0
 10
7.046601284367213
 20
3.876201824520279
 42
0.4142135623735708
 10
7.026913784367181
 20
3.895889324520279
 42
0.0
 10
7.026913784367181
 20
4.092764324520206
 42
0.4142135623735708
 10
7.046601284367213
 20
4.112451824520206
 42
0.0
 10
7.046601284367213
 20
4.269951824520461
 42
0.4142135623735708
 10
7.026913784367181
 20
4.289639324520461
 42
0.0
 10
7.026913784367181
 20
4.486514324520388
 42
0.4142135623735708
 10
7.046601284367213
 20
4.506201824520388
 42
0.0
 10
7.046601284367213
 20
4.663701824520643
 42
0.4142135623735708
 10
7.026913784367181
 20
4.683389324520643
 42
0.0
 10
7.026913784367181
 20
4.88026432452057
 42
0.4142135623735708
 10
7.046601284367213
 20
4.89995182452057
 42
0.0
 10
7.046601284367213
 20
5.057451824519915
 42
0.4142135623735708
 10
7.026913784367181
 20
5.077139324519915
 42
0.0
 10
7.026913784367181
 20
5.274014324520752
 42
0.4142135623735708
 10
7.046601284367213
 20
5.293701824520752
 42
0.0
 10
7.046601284367213
 20
5.451201824520097
 42
0.4142135623735708
 10
7.026913784367181
 20
5.470889324520097
 42
0.0
 10
7.026913784367181
 20
5.667764324520025
 42
0.4142135623735708
 10
7.046601284367213
 20
5.687451824520024
 42
0.0
 10
7.046601284367213
 20
5.844951824520279
 42
0.4142135623735708
 10
7.026913784367181
 20
5.864639324520279
 42
0.0
 10
7.026913784367181
 20
6.061514324520206
 42
0.4142135623735708
 10
7.046601284367213
 20
6.081201824520206
 42
0.0
 10
7.046601284367213
 20
6.238701824520461
 42
0.4142135623735708
 97
        0
 75
     0
 76
     1
 52
0.0
 41
0.375
 77
     0
 78
     1
 53
45.0
 43
-14.86726458073162
 44
0.4284196283748259
 45
-0.0331456303681194
 46
0.0331456303681194
 79
     0
 47
0.0113948685047507
 98
        2
 10
6.78314025390479
 20
7.355270179339967
 10
6.988402549803282
 20
6.238573054934654
  0
DIMENSION
  5
22D5
330
1E
100
AcDbEntity
  8
DIM
100
AcDbDimension
  2
*D9
 10
12.1794365043813
 20
4.978701894089311
 30
0.0
 11
12.1794365043813
 21
4.781826859304688
 31
0.0
 70
    32
 71
     5
 42
0.3937500695692506
  3
23NSTDI
100
AcDbAlignedDimension
 13
11.69240783687872
 23
4.584951824520061
 33
0.0
 14
11.00370992544573
 24
4.978701894089311
 34
0.0
 50
90.0
100
AcDbRotatedDimension
  0
CIRCLE
  5
22EF
330
1E
100
AcDbEntity
  8
OBJECT
100
AcDbCircle
 10
8.798709875753402
 20
2.616701824520243
 30
0.0
 40
0.0433125
  0
CIRCLE
  5
22F0
330
1E
100
AcDbEntity
  8
OBJECT
100
AcDbCircle
 10
8.798709875753402
 20
2.616701824520243
 30
0.0
 40
0.118125
  0
CIRCLE
  5
22F1
330
1E
100
AcDbEntity
  8
OBJECT
100
AcDbCircle
 10
11.00370992544573
 20
2.616701894089311
 30
0.0
 40
0.118125
  0
CIRCLE
  5
22F2
330
1E
100
AcDbEntity
  8
OBJECT
100
AcDbCircle
 10
11.00370992544573
 20
2.616701824520243
 30
0.0
 40
0.0433125
  0
LINE
  5
22F3
330
1E
100
AcDbEntity
  8
OBJECT
100
AcDbLine
 10
6.743413784367177
 20
2.715139394090039
 30
0.0
 11
6.940288784367155
 21
2.734826894089275
 31
0.0
  0
LINE
  5
22F4
330
1E
100
AcDbEntity
  8
OBJECT
100
AcDbLine
 10
6.743413784367177
 20
2.518264394089493
 30
0.0
 11
6.940288784367155
 21
2.498576894089348
 31
0.0
  0
LINE
  5
22F5
330
1E
100
AcDbEntity
  8
OBJECT
100
AcDbLine
 10
6.743413784367177
 20
2.715139394090039
 30
0.0
 11
6.743413784367177
 21
2.518264394089493
 31
0.0
  0
DIMENSION
  5
22F6
330
1E
100
AcDbEntity
  8
DIM
100
AcDbDimension
  2
*D10
 10
12.66407336875349
 20
2.616701894089311
 30
0.0
 11
12.66407336875349
 21
3.797701894089313
 31
0.0
 70
    32
 71
     5
 42
2.362
  3
23NSTD
100
AcDbAlignedDimension
 13
11.00370992544573
 23
4.978701894089311
 33
0.0
 14
11.00370992544573
 24
2.616701894089311
 34
0.0
 50
90.0
100
AcDbRotatedDimension
  0
TEXT
  5
241B
330
1E
100
AcDbEntity
  8
TEXT
100
AcDbText
 10
1.516948684124817
 20
19.15963241379304
 30
0.0
 40
0.195
  1
HAND HAND BOX  (STYLE L)
 41
0.75
 72
     1
 11
3.198823684124818
 21
19.15963241379304
 31
0.0
100
AcDbText
  0
TEXT
  5
241C
330
1E
100
AcDbEntity
  8
TEXT
100
AcDbText
 10
7.90351289414403
 20
19.15963241379304
 30
0.0
 40
0.195
  1
HH-3580
 41
0.75
 72
     1
 11
8.37882539414403
 21
19.15963241379304
 31
0.0
100
AcDbText
  0
TEXT
  5
2484
330
1E
100
AcDbEntity
  8
TEXT
100
AcDbText
 10
1.932473255714544
 20
1.020495792785631
 30
0.0
 40
0.156
  1
%%UINSIDE VIEW OF TOP
 41
0.75
 72
     1
 11
2.948423255714544
 21
1.020495792785631
 31
0.0
100
AcDbText
  0
TEXT
  5
2485
330
1E
100
AcDbEntity
  8
TEXT
100
AcDbText
 10
8.853444024119443
 20
1.020495792785631
 30
0.0
 40
0.156
  1
%%UINSIDE VIEW OF BOTTOM
 41
0.75
 72
     1
 11
10.04489402411944
 21
1.020495792785631
 31
0.0
100
AcDbText
  0
MTEXT
  5
248A
102
{ACAD_REACTORS
330
248B
102
}
330
1E
100
AcDbEntity
  8
DIM
100
AcDbMText
 10
5.15090380350448
 20
10.91123457949016
 30
0.0
 40
0.15625
 41
0.0
 71
     1
 72
     1
  1
SMOOTH RECESSED PAD
 73
     1
 44
1.0
  0
LEADER
  5
248B
330
1E
100
AcDbEntity
  8
DIM
100
AcDbLeader
  3
23NSTD
 73
     0
 74
     0
 75
     1
 40
0.15625
 41
1.484375
 76
     3
 10
3.685664892289054
 20
12.19744259528645
 30
0.0
 10
4.81340380350448
 20
10.83310957949016
 30
0.0
 10
5.03840380350448
 20
10.83310957949016
 30
0.0
340
248A
213
0.0
223
-0.078125
233
0.0
  0
MTEXT
  5
24B3
102
{ACAD_REACTORS
330
24B4
102
}
330
1E
100
AcDbEntity
  8
DIM
100
AcDbMText
 10
7.250507412482274
 20
8.927271132300148
 30
0.0
 40
0.15625
 41
0.0
 71
     3
 72
     1
  1
0.236 DIA. BOSS\PWITH 0.087 DIA. HOLE\P(6) PLACES
 73
     1
 44
1.0
  0
LEADER
  5
24B4
330
1E
100
AcDbEntity
  8
DIM
100
AcDbLeader
  3
23NSTD
 73
     0
 75
     1
 40
0.6770833333333333
 41
2.0703125
 76
     3
 10
8.717829173432292
 20
6.639793726801126
 30
0.0
 10
7.588007412482274
 20
8.849146132300148
 30
0.0
 10
7.363007412482274
 20
8.849146132300148
 30
0.0
340
24B3
213
0.0
223
-0.078125
233
0.0
  0
TEXT
  5
24B9
330
1E
100
AcDbEntity
  8
TEXT
100
AcDbText
 10
0.7402012333522521
 20
17.7913730181121
 30
0.0
 40
0.156
  1
FINISH: TEXTURED BLACK
 41
0.75
100
AcDbText
  0
TEXT
  5
24BA
330
1E
100
AcDbEntity
  8
TEXT
100
AcDbText
 10
0.7402012333522521
 20
18.15931176182167
 30
0.0
 40
0.156
  1
   FLAMMABILITY RATING
 41
0.75
100
AcDbText
  0
TEXT
  5
24BB
330
1E
100
AcDbEntity
  8
TEXT
100
AcDbText
 10
0.7402012333522521
 20
18.41931176182167
 30
0.0
 40
0.156
  1
MATERIAL: HIGH IMPACT ABS WITH UL94V-0
 41
0.75
100
AcDbText
  0
TEXT
  5
24BC
330
1E
100
AcDbEntity
  8
TEXT
100
AcDbText
 10
8.442615372571964
 20
18.02438830939358
 30
0.0
 40
0.156
  1
FOUR (4) M3 x 1/2" LG. FLAT HD. STAINLESS
 41
0.75
100
AcDbText
  0
TEXT
  5
24BD
330
1E
100
AcDbEntity
  8
TEXT
100
AcDbText
 10
8.442615372571964
 20
17.76438830939358
 30
0.0
 40
0.156
  1
   STEEL SCREWS SUPPLIED FOR ASSEMBLY
 41
0.75
100
AcDbText
  0
TEXT
  5
24BE
330
1E
100
AcDbEntity
  8
TEXT
100
AcDbText
 10
8.442615372571964
 20
18.41931176182167
 30
0.0
 40
0.156
  1
ALL DIMENSIONS HAVE %%P0.015 TOLERANCE
 41
0.75
100
AcDbText
  0
MTEXT
  5
2CEE
330
1E
100
AcDbEntity
  8
0
 62
     1
100
AcDbMText
 10
354.4208495899665
 20
147.9933589307736
 30
0.0
 40
4.0
 41
0.0
 71
     9
 72
     1
  1

  7
Standard
 73
     1
 44
1.0
1001
ACAD
1000
MTEXTBEGIN
1070
    73
1070
     1
1070
    44
1040
1.0
1070
    74
1070
     0
1000
MTEXTEND
  0
MTEXT
  5
2CEF
330
1E
100
AcDbEntity
  8
\M+2BBB2\M+2A755\M+2BD75
 62
     1
100
AcDbMText
 10
-4428.71981912173
 20
4208.248312550983
 30
0.0
 40
3.5
 41
0.0
 71
     1
 72
     1
  1

  7
Standard
 73
     1
 44
1.0
1001
ACAD
1000
MTEXTBEGIN
1070
    73
1070
     1
1070
    44
1040
1.0
1070
    74
1070
     0
1000
MTEXTEND
  0
LINE
  5
3759
330
1E
100
AcDbEntity
  8
OBJECT
100
AcDbLine
 10
8.999536106183896
 20
16.19928699481987
 30
0.0
 11
8.80266110618389
 21
16.19928699481987
 31
0.0
  0
LINE
  5
375A
330
1E
100
AcDbEntity
  8
OBJECT
100
AcDbLine
 10
8.999536106183896
 20
16.23866199481987
 30
0.0
 11
8.999536106183896
 21
16.19928699481987
 31
0.0
  0
LINE
  5
375B
330
1E
100
AcDbEntity
  8
OBJECT
100
AcDbLine
 10
8.763286106183912
 20
16.23866199481987
 30
0.0
 11
8.999536106183896
 21
16.23866199481987
 31
0.0
  0
LINE
  5
375C
330
1E
100
AcDbEntity
  8
OBJECT
100
AcDbLine
 10
8.80266110618389
 20
16.19928699481987
 30
0.0
 11
8.80266110618389
 21
16.00241199481987
 31
0.0
  0
LINE
  5
375D
330
1E
100
AcDbEntity
  8
OBJECT
100
AcDbLine
 10
8.80266110618389
 20
16.00241199481987
 30
0.0
 11
8.763286106183912
 21
16.00241199481987
 31
0.0
  0
LINE
  5
375E
330
1E
100
AcDbEntity
  8
OBJECT
100
AcDbLine
 10
8.763286106183912
 20
16.00241199481987
 30
0.0
 11
8.763286106183912
 21
16.23866199481987
 31
0.0
  0
LINE
  5
375F
330
1E
100
AcDbEntity
  8
OBJECT
100
AcDbLine
 10
10.99976770629199
 20
16.199300090496
 30
0.0
 11
10.99977005320702
 21
16.00242509051
 31
0.0
  0
LINE
  5
3760
330
1E
100
AcDbEntity
  8
OBJECT
100
AcDbLine
 10
11.03914505320422
 20
16.00242555989299
 30
0.0
 11
11.03914223690621
 21
16.2386755598762
 31
0.0
  0
LINE
  5
3761
330
1E
100
AcDbEntity
  8
OBJECT
100
AcDbLine
 10
10.802892236923
 20
16.23867274357819
 30
0.0
 11
10.80289270630599
 21
16.19929774358098
 31
0.0
  0
LINE
  5
3762
330
1E
100
AcDbEntity
  8
OBJECT
100
AcDbLine
 10
11.03914223690621
 20
16.2386755598762
 30
0.0
 11
10.802892236923
 21
16.23867274357819
 31
0.0
  0
LINE
  5
3763
330
1E
100
AcDbEntity
  8
OBJECT
100
AcDbLine
 10
10.80289270630599
 20
16.19929774358098
 30
0.0
 11
10.99976770629199
 21
16.199300090496
 31
0.0
  0
LINE
  5
3764
330
1E
100
AcDbEntity
  8
OBJECT
100
AcDbLine
 10
10.99977005320702
 20
16.00242509051
 30
0.0
 11
11.03914505320422
 21
16.00242555989299
 31
0.0
  0
CIRCLE
  5
3765
330
1E
100
AcDbEntity
  8
OBJECT
100
AcDbCircle
 10
9.901223606183847
 20
14.65578699481988
 30
0.0
 40
0.04921875
  0
DIMENSION
  5
3769
330
1E
100
AcDbEntity
  8
DIM
100
AcDbDimension
  2
*D11
 10
7.026913784367181
 20
3.615554952731329
 30
0.0
 11
7.804257534367181
 21
3.615554952731329
 31
0.0
 70
   160
 71
     5
 42
0.0866250000000264
  3
23NSTD
100
AcDbAlignedDimension
 13
6.940288784367155
 23
3.643276200480059
 33
0.0
 14
7.026913784367181
 24
3.643276200480059
 34
0.0
100
AcDbRotatedDimension
  0
LINE
  5
3845
330
1E
100
AcDbEntity
  8
OBJECT
100
AcDbLine
 10
4.285535513393298
 20
9.947284593387374
 30
0.0
 11
1.726160513393367
 21
9.947284593387372
 31
0.0
  0
LINE
  5
3846
330
1E
100
AcDbEntity
  8
OBJECT
100
AcDbLine
 10
1.726160513393367
 20
10.18495576652198
 30
0.0
 11
1.726160513393367
 21
9.947284593387374
 31
0.0
  0
LINE
  5
3847
330
1E
100
AcDbEntity
  8
OBJECT
100
AcDbLine
 10
4.2855355133933
 20
10.18495576651983
 30
0.0
 11
4.285535513393298
 21
9.947284593387374
 31
0.0
  0
LINE
  5
3849
330
1E
100
AcDbEntity
  8
OBJECT
100
AcDbLine
 10
4.2855355133933
 20
10.14558076651994
 30
0.0
 11
1.726160513393367
 21
10.14558076651994
 31
0.0
  0
LINE
  5
384B
330
1E
100
AcDbEntity
  8
OBJECT
100
AcDbLine
 10
4.540732799273506
 20
10.20472078655461
 30
0.0
 11
4.540732799273507
 21
10.18495576651963
 31
0.0
  0
LINE
  5
384F
330
1E
100
AcDbEntity
  8
OBJECT
100
AcDbLine
 10
4.639631087821852
 20
10.20472078655461
 30
0.0
 11
4.540732799273506
 21
10.20472078655461
 31
0.0
  0
ARC
  5
386D
330
1E
100
AcDbEntity
  8
OBJECT
100
AcDbCircle
 10
4.631577641355058
 20
10.0668307665205
 30
0.0
 40
0.138125
100
AcDbArc
 50
3.000000000005599
 51
86.65744554643284
  0
LINE
  5
386E
330
1E
100
AcDbEntity
  8
OBJECT
100
AcDbLine
 10
4.769513345842974
 20
10.0740596704766
 30
0.0
 11
4.797750206821265
 21
9.535268266520214
 31
0.0
  0
LINE
  5
3871
330
1E
100
AcDbEntity
  8
OBJECT
100
AcDbLine
 10
4.777722759901307
 20
9.535268266520214
 30
0.0
 11
4.797750206821265
 21
9.535268266520212
 31
0.0
  0
LINE
  5
3881
330
1E
100
AcDbEntity
  8
OBJECT
100
AcDbLine
 10
4.540847759901236
 20
8.92495576652025
 30
0.0
 11
4.540847759901236
 21
8.904955766520251
 31
0.0
  0
ARC
  5
3882
330
1E
100
AcDbEntity
  8
OBJECT
100
AcDbCircle
 10
4.560973794344796
 20
9.121830766519886
 30
0.0
 40
0.216875
100
AcDbArc
 50
270.0
 51
356.9999999999942
  0
LINE
  5
3883
330
1E
100
AcDbEntity
  8
OBJECT
100
AcDbLine
 10
4.540847759901236
 20
8.904955766520251
 30
0.0
 11
4.560973794344796
 21
8.904955766520251
 31
0.0
  0
LINE
  5
3884
330
1E
100
AcDbEntity
  8
OBJECT
100
AcDbLine
 10
4.797750206821103
 20
9.495893266519923
 30
0.0
 11
4.777551574694634
 21
9.110480406010246
 31
0.0
  0
LINE
  5
3885
330
1E
100
AcDbEntity
  8
OBJECT
100
AcDbLine
 10
4.777722759901145
 20
9.495893266519923
 30
0.0
 11
4.797750206821103
 21
9.495893266519923
 31
0.0
  0
LINE
  5
3886
330
1E
100
AcDbEntity
  8
OBJECT
100
AcDbLine
 10
1.233972759901327
 20
9.495893266519923
 30
0.0
 11
1.213945312981369
 21
9.495893266519923
 31
0.0
  0
LINE
  5
3887
330
1E
100
AcDbEntity
  8
OBJECT
100
AcDbLine
 10
1.213945312981369
 20
9.495893266519923
 30
0.0
 11
1.234143945107837
 21
9.110480406010246
 31
0.0
  0
ARC
  5
3888
330
1E
100
AcDbEntity
  8
OBJECT
100
AcDbCircle
 10
1.450721725457675
 20
9.121830766519886
 30
0.0
 40
0.216875
100
AcDbArc
 50
183.0000000000057
 51
270.0
  0
LINE
  5
3889
330
1E
100
AcDbEntity
  8
OBJECT
100
AcDbLine
 10
1.470847759901236
 20
8.92495576652025
 30
0.0
 11
1.470847759901236
 21
8.904955766520251
 31
0.0
  0
LINE
  5
388A
330
1E
100
AcDbEntity
  8
OBJECT
100
AcDbLine
 10
1.470847759901236
 20
8.904955766520251
 30
0.0
 11
1.450721725457675
 21
8.904955766520251
 31
0.0
  0
LINE
  5
388B
330
1E
100
AcDbEntity
  8
OBJECT
100
AcDbLine
 10
1.37206443198062
 20
10.20472078655461
 30
0.0
 11
1.470962720528966
 21
10.20472078655461
 31
0.0
  0
LINE
  5
388C
330
1E
100
AcDbEntity
  8
OBJECT
100
AcDbLine
 10
1.470962720528966
 20
10.20472078655461
 30
0.0
 11
1.470962720528965
 21
10.18495576651963
 31
0.0
  0
ARC
  5
388D
330
1E
100
AcDbEntity
  8
OBJECT
100
AcDbCircle
 10
1.380117878447414
 20
10.0668307665205
 30
0.0
 40
0.138125
100
AcDbArc
 50
93.34255445356715
 51
176.9999999999944
  0
LINE
  5
388E
330
1E
100
AcDbEntity
  8
OBJECT
100
AcDbLine
 10
1.242182173959498
 20
10.0740596704766
 30
0.0
 11
1.213945312981207
 21
9.535268266520214
 31
0.0
  0
LINE
  5
388F
330
1E
100
AcDbEntity
  8
OBJECT
100
AcDbLine
 10
1.233972759901165
 20
9.535268266520214
 30
0.0
 11
1.213945312981207
 21
9.535268266520212
 31
0.0
  0
LINE
  5
38A1
330
1E
100
AcDbEntity
  8
HIDDEN
100
AcDbLine
 10
1.365480318263918
 20
9.01195576652025
 30
0.0
 11
4.646215201538554
 21
9.01195576652025
 31
0.0
  0
LINE
  5
38B1
330
1E
100
AcDbEntity
  8
HIDDEN
100
AcDbLine
 10
1.369607430882533
 20
10.09795576652229
 30
0.0
 11
4.642088088920083
 21
10.09795576651955
 31
0.0
  0
LINE
  5
38B2
330
1E
100
AcDbEntity
  8
HIDDEN
100
AcDbLine
 10
4.033535551202405
 20
9.364580766520353
 30
0.0
 11
3.974473051201968
 21
9.423643266520334
 31
0.0
  0
LINE
  5
38B3
330
1E
100
AcDbEntity
  8
HIDDEN
100
AcDbLine
 10
3.789410551202238
 20
9.364580766520353
 30
0.0
 11
3.848473051202674
 21
9.423643266520334
 31
0.0
  0
LINE
  5
38B4
330
1E
100
AcDbEntity
  8
HIDDEN
100
AcDbLine
 10
4.029598051202739
 20
9.535643266520187
 30
0.0
 11
3.793348051202813
 21
9.535643266520187
 31
0.0
  0
LINE
  5
38B5
330
1E
100
AcDbEntity
  8
HIDDEN
100
AcDbLine
 10
3.867973013393495
 20
9.563330766520257
 30
0.0
 11
3.84059801339292
 21
9.535643266520187
 31
0.0
  0
LINE
  5
38B6
330
1E
100
AcDbEntity
  8
HIDDEN
100
AcDbLine
 10
3.982348013392695
 20
9.535643266520301
 30
0.0
 11
3.95497301339303
 21
9.563330766520371
 31
0.0
  0
LINE
  5
38B7
330
1E
100
AcDbEntity
  8
HIDDEN
100
AcDbLine
 10
3.95497301339303
 20
9.563330766520371
 30
0.0
 11
3.867973013393495
 21
9.563330766520371
 31
0.0
  0
LINE
  5
38B8
330
1E
100
AcDbEntity
  8
HIDDEN
100
AcDbLine
 10
3.848473051202674
 20
9.535643266520187
 30
0.0
 11
3.848473051202674
 21
9.423643266520221
 31
0.0
  0
LINE
  5
38B9
330
1E
100
AcDbEntity
  8
HIDDEN
100
AcDbLine
 10
3.974473051202878
 20
9.535643266520187
 30
0.0
 11
3.974473051201968
 21
9.423643266520448
 31
0.0
  0
LINE
  5
38BA
330
1E
100
AcDbEntity
  8
HIDDEN
100
AcDbLine
 10
3.793348051202813
 20
9.535643266520187
 30
0.0
 11
3.793348051202813
 21
9.417393266520312
 31
0.0
  0
LINE
  5
38BB
330
1E
100
AcDbEntity
  8
HIDDEN
100
AcDbLine
 10
4.029598051202739
 20
9.535643266520187
 30
0.0
 11
4.029598051202739
 21
9.417393266520312
 31
0.0
  0
LINE
  5
38BC
330
1E
100
AcDbEntity
  8
HIDDEN
100
AcDbLine
 10
4.029598051202739
 20
9.417393266520312
 30
0.0
 11
4.088660551203176
 21
9.417393266520312
 31
0.0
  0
LINE
  5
38BE
330
1E
100
AcDbEntity
  8
HIDDEN
100
AcDbLine
 10
3.867973013393495
 20
10.10658076652031
 30
0.0
 11
3.95497301339303
 21
10.10658076652031
 31
0.0
  0
LINE
  5
38BF
330
1E
100
AcDbEntity
  8
HIDDEN
100
AcDbLine
 10
3.793348013393299
 20
10.09795576652045
 30
0.0
 11
3.793348013393299
 21
9.535643266520187
 31
0.0
  0
LINE
  5
38C0
330
1E
100
AcDbEntity
  8
HIDDEN
100
AcDbLine
 10
4.029598013393226
 20
10.0987057665203
 30
0.0
 11
4.029598013393226
 21
9.535643266520301
 31
0.0
  0
LINE
  5
38C1
330
1E
100
AcDbEntity
  8
HIDDEN
100
AcDbLine
 10
3.95497301339303
 20
9.563330766520371
 30
0.0
 11
3.95497301339303
 21
10.10658076652031
 31
0.0
  0
LINE
  5
38C2
330
1E
100
AcDbEntity
  8
HIDDEN
100
AcDbLine
 10
3.867973013393495
 20
9.563330766520371
 30
0.0
 11
3.867973013393495
 21
10.10658076652031
 31
0.0
  0
LINE
  5
38C3
330
1E
100
AcDbEntity
  8
HIDDEN
100
AcDbLine
 10
4.088660551203176
 20
9.417393266520312
 30
0.0
 11
4.088660551203176
 21
9.01195576652025
 31
0.0
  0
LINE
  5
38C4
330
1E
100
AcDbEntity
  8
HIDDEN
100
AcDbLine
 10
4.033535551202405
 20
9.364580766520353
 30
0.0
 11
4.033535551203314
 21
8.925330766520223
 31
0.0
  0
LINE
  5
38C5
330
1E
100
AcDbEntity
  8
HIDDEN
100
AcDbLine
 10
3.789410551202238
 20
9.364580766520353
 30
0.0
 11
3.789410551203147
 21
8.925330766520223
 31
0.0
  0
LINE
  5
38C6
330
1E
100
AcDbEntity
  8
HIDDEN
100
AcDbLine
 10
3.793348051202813
 20
9.417393266520312
 30
0.0
 11
3.734285551203285
 21
9.417393266520312
 31
0.0
  0
LINE
  5
38C7
330
1E
100
AcDbEntity
  8
HIDDEN
100
AcDbLine
 10
3.734285551203285
 20
9.417393266520312
 30
0.0
 11
3.734285551203285
 21
9.01195576652025
 31
0.0
  0
LINE
  5
38E6
330
1E
100
AcDbEntity
  8
HIDDEN
100
AcDbLine
 10
4.642088088920083
 20
10.09795576651955
 30
0.0
 11
4.667862889868815
 21
9.606143266520328
 31
0.0
  0
LINE
  5
38E7
330
1E
100
AcDbEntity
  8
HIDDEN
100
AcDbLine
 10
4.671868029217161
 20
9.501440877881684
 30
0.0
 11
4.646215201538554
 21
9.01195576652025
 31
0.0
  0
LINE
  5
3904
330
1E
100
AcDbEntity
  8
HIDDEN
100
AcDbLine
 10
4.671264362367402
 20
9.495893266520264
 30
0.0
 11
4.671264362367402
 21
9.594330766520309
 31
0.0
  0
LINE
  5
3905
330
1E
100
AcDbEntity
  8
HIDDEN
100
AcDbLine
 10
4.719647987819918
 20
9.606143266520328
 30
0.0
 11
4.719647987819918
 21
9.535268266520214
 31
0.0
  0
LINE
  5
3906
330
1E
100
AcDbEntity
  8
HIDDEN
100
AcDbLine
 10
4.710785259901605
 20
9.535268266520214
 30
0.0
 11
4.710785259901605
 21
9.594330766520309
 31
0.0
  0
LINE
  5
3907
330
1E
100
AcDbEntity
  8
HIDDEN
100
AcDbLine
 10
1.292047531982554
 20
9.606143266520328
 30
0.0
 11
4.719647987819918
 21
9.606143266520328
 31
0.0
  0
LINE
  5
3908
330
1E
100
AcDbEntity
  8
HIDDEN
100
AcDbLine
 10
4.710785259901605
 20
9.594330766520309
 30
0.0
 11
1.300910259900867
 21
9.59433076652157
 31
0.0
  0
LINE
  5
3909
330
1E
100
AcDbEntity
  8
HIDDEN
100
AcDbLine
 10
1.339827490585311
 20
9.501440877881684
 30
0.0
 11
1.365480318263918
 21
9.01195576652025
 31
0.0
  0
LINE
  5
390A
330
1E
100
AcDbEntity
  8
HIDDEN
100
AcDbLine
 10
1.369607430882533
 20
10.09795576652229
 30
0.0
 11
1.343832629933657
 21
9.606143266520328
 31
0.0
  0
LINE
  5
390B
330
1E
100
AcDbEntity
  8
HIDDEN
100
AcDbLine
 10
1.34043115743507
 20
9.495893266520264
 30
0.0
 11
1.34043115743507
 21
9.594330766520309
 31
0.0
  0
LINE
  5
390C
330
1E
100
AcDbEntity
  8
HIDDEN
100
AcDbLine
 10
1.300910259900867
 20
9.535268266520214
 30
0.0
 11
1.300910259900867
 21
9.594330766520309
 31
0.0
  0
LINE
  5
390D
330
1E
100
AcDbEntity
  8
HIDDEN
100
AcDbLine
 10
1.292047531982554
 20
9.606143266520328
 30
0.0
 11
1.292047531982554
 21
9.535268266520214
 31
0.0
  0
LINE
  5
390E
330
1E
100
AcDbEntity
  8
HIDDEN
100
AcDbLine
 10
2.277410475583266
 20
9.417393266520312
 30
0.0
 11
2.277410475583266
 21
9.01195576652025
 31
0.0
  0
LINE
  5
390F
330
1E
100
AcDbEntity
  8
HIDDEN
100
AcDbLine
 10
2.218347975583739
 20
9.417393266520312
 30
0.0
 11
2.277410475583266
 21
9.417393266520312
 31
0.0
  0
LINE
  5
3910
330
1E
100
AcDbEntity
  8
HIDDEN
100
AcDbLine
 10
2.222285475584314
 20
9.364580766520353
 30
0.0
 11
2.222285475583404
 21
8.925330766520223
 31
0.0
  0
LINE
  5
3911
330
1E
100
AcDbEntity
  8
HIDDEN
100
AcDbLine
 10
1.978160475584147
 20
9.364580766520353
 30
0.0
 11
1.978160475583237
 21
8.925330766520223
 31
0.0
  0
LINE
  5
3912
330
1E
100
AcDbEntity
  8
HIDDEN
100
AcDbLine
 10
1.923035475583375
 20
9.417393266520312
 30
0.0
 11
1.923035475583375
 21
9.01195576652025
 31
0.0
  0
LINE
  5
3913
330
1E
100
AcDbEntity
  8
HIDDEN
100
AcDbLine
 10
1.982097975583812
 20
9.417393266520312
 30
0.0
 11
1.923035475583375
 21
9.417393266520312
 31
0.0
  0
LINE
  5
3914
330
1E
100
AcDbEntity
  8
HIDDEN
100
AcDbLine
 10
1.982097975583812
 20
9.535643266520187
 30
0.0
 11
1.982097975583812
 21
9.417393266520312
 31
0.0
  0
LINE
  5
3915
330
1E
100
AcDbEntity
  8
HIDDEN
100
AcDbLine
 10
2.218347975583739
 20
9.535643266520187
 30
0.0
 11
2.218347975583739
 21
9.417393266520312
 31
0.0
  0
LINE
  5
3916
330
1E
100
AcDbEntity
  8
HIDDEN
100
AcDbLine
 10
2.037222975583674
 20
9.535643266520187
 30
0.0
 11
2.037222975584583
 21
9.423643266520448
 31
0.0
  0
LINE
  5
3917
330
1E
100
AcDbEntity
  8
HIDDEN
100
AcDbLine
 10
2.163222975583877
 20
9.535643266520187
 30
0.0
 11
2.163222975583877
 21
9.423643266520221
 31
0.0
  0
LINE
  5
3918
330
1E
100
AcDbEntity
  8
HIDDEN
100
AcDbLine
 10
2.056723013393522
 20
9.563330766520371
 30
0.0
 11
2.143723013393056
 21
9.563330766520371
 31
0.0
  0
LINE
  5
3919
330
1E
100
AcDbEntity
  8
HIDDEN
100
AcDbLine
 10
2.029348013393857
 20
9.535643266520301
 30
0.0
 11
2.056723013393522
 21
9.563330766520371
 31
0.0
  0
LINE
  5
391A
330
1E
100
AcDbEntity
  8
HIDDEN
100
AcDbLine
 10
2.143723013393056
 20
9.563330766520257
 30
0.0
 11
2.171098013393631
 21
9.535643266520187
 31
0.0
  0
LINE
  5
391B
330
1E
100
AcDbEntity
  8
HIDDEN
100
AcDbLine
 10
1.982097975583812
 20
9.535643266520187
 30
0.0
 11
2.218347975583739
 21
9.535643266520187
 31
0.0
  0
LINE
  5
391C
330
1E
100
AcDbEntity
  8
HIDDEN
100
AcDbLine
 10
2.222285475584314
 20
9.364580766520353
 30
0.0
 11
2.163222975583877
 21
9.423643266520334
 31
0.0
  0
LINE
  5
391D
330
1E
100
AcDbEntity
  8
HIDDEN
100
AcDbLine
 10
1.978160475584147
 20
9.364580766520353
 30
0.0
 11
2.037222975584583
 21
9.423643266520334
 31
0.0
  0
LINE
  5
391E
330
1E
100
AcDbEntity
  8
HIDDEN
100
AcDbLine
 10
2.218348013393253
 20
10.09795576652045
 30
0.0
 11
2.218348013393253
 21
9.535643266520187
 31
0.0
  0
LINE
  5
391F
330
1E
100
AcDbEntity
  8
HIDDEN
100
AcDbLine
 10
1.982098013393326
 20
10.0987057665203
 30
0.0
 11
1.982098013393326
 21
9.535643266520301
 31
0.0
  0
LINE
  5
3920
330
1E
100
AcDbEntity
  8
HIDDEN
100
AcDbLine
 10
2.143723013393056
 20
10.10658076652031
 30
0.0
 11
2.056723013393522
 21
10.10658076652031
 31
0.0
  0
LINE
  5
3921
330
1E
100
AcDbEntity
  8
HIDDEN
100
AcDbLine
 10
2.056723013393522
 20
9.563330766520371
 30
0.0
 11
2.056723013393522
 21
10.10658076652031
 31
0.0
  0
LINE
  5
3922
330
1E
100
AcDbEntity
  8
HIDDEN
100
AcDbLine
 10
2.143723013393056
 20
9.563330766520371
 30
0.0
 11
2.143723013393056
 21
10.10658076652031
 31
0.0
  0
LINE
  5
3928
330
1E
100
AcDbEntity
  8
HIDDEN
100
AcDbLine
 10
2.47428554454582
 20
9.01195576652025
 30
0.0
 11
2.47428554454582
 21
9.06995576652025
 31
0.0
  0
LINE
  5
3929
330
1E
100
AcDbEntity
  8
HIDDEN
100
AcDbLine
 10
2.78928554454582
 20
9.01195576652025
 30
0.0
 11
2.78928554454582
 21
9.06995576652025
 31
0.0
  0
MTEXT
  5
40EF
330
1E
100
AcDbEntity
  8
0
 62
     1
100
AcDbMText
 10
332.8936236511156
 20
149.4848818619566
 30
0.0
 40
4.0
 41
0.0
 71
     9
 72
     1
  1

  7
Standard
 73
     1
 44
1.0
1001
ACAD
1000
MTEXTBEGIN
1070
    73
1070
     1
1070
    44
1040
1.0
1070
    74
1070
     0
1000
MTEXTEND
  0
MTEXT
  5
40F0
330
1E
100
AcDbEntity
  8
\M+2BBB2\M+2A755\M+2BD75
 62
     1
100
AcDbMText
 10
-4450.247045060581
 20
4209.739835482166
 30
0.0
 40
3.5
 41
0.0
 71
     1
 72
     1
  1

  7
Standard
 73
     1
 44
1.0
1001
ACAD
1000
MTEXTBEGIN
1070
    73
1070
     1
1070
    44
1040
1.0
1070
    74
1070
     0
1000
MTEXTEND
  0
MTEXT
  5
46A5
330
1E
100
AcDbEntity
  8
DIM
100
AcDbMText
 10
5.15090380350448
 20
10.66957943256198
 30
0.0
 40
0.15625
 41
0.0
 71
     1
 72
     1
  1
RECESSED MINIMUM 0.040
 73
     1
 44
1.0
  0
TEXT
  5
46A7
330
1E
100
AcDbEntity
  8
TEXT
100
AcDbText
 10
7.988181122621554
 20
9.121374698155118
 30
0.0
 40
0.156
  1
NOTE: MOUNTING BOSSES USE EITHER M2.5 METRIC
 41
0.75
100
AcDbText
  0
TEXT
  5
46A8
330
1E
100
AcDbEntity
  8
TEXT
100
AcDbText
 10
7.988181122621554
 20
8.861374698155117
 30
0.0
 40
0.156
  1
  OR #4 STD. SHEET METAL SCREWS x 3/16" LG.
 41
0.75
100
AcDbText
  0
TEXT
  5
46A9
330
1E
100
AcDbEntity
  8
TEXT
100
AcDbText
 10
7.988181122621554
 20
8.601374698155115
 30
0.0
 40
0.156
  1
  (NOT SUPPLIED)
 41
0.75
100
AcDbText
  0
DIMENSION
  5
46B0
330
1E
100
AcDbEntity
  8
DIM
100
AcDbDimension
  2
*D12
 10
7.026913784367204
 20
7.909671328382394
 30
0.0
 11
6.692226284367163
 21
7.909671328382394
 31
0.0
 70
   160
 71
     5
 42
0.6693750000000822
  3
23NSTD
100
AcDbAlignedDimension
 13
6.357538784367122
 23
7.372701824520476
 33
0.0
 14
7.026913784367204
 24
7.222890358964463
 34
0.0
100
AcDbRotatedDimension
  0
LINE
  5
47A5
330
1E
100
AcDbEntity
  8
HIDDEN
100
AcDbLine
 10
2.47428554454582
 20
9.069955766520251
 30
0.0
 11
2.78928554454582
 21
9.069955766520251
 31
0.0
  0
LINE
  5
47A6
330
1E
100
AcDbEntity
  8
HIDDEN
100
AcDbLine
 10
3.537409975256538
 20
9.069955766520251
 30
0.0
 11
3.222409975256538
 21
9.069955766520251
 31
0.0
  0
LINE
  5
47A7
330
1E
100
AcDbEntity
  8
HIDDEN
100
AcDbLine
 10
3.537409975256538
 20
9.01195576652025
 30
0.0
 11
3.537409975256538
 21
9.06995576652025
 31
0.0
  0
LINE
  5
47A8
330
1E
100
AcDbEntity
  8
HIDDEN
100
AcDbLine
 10
3.222409975256538
 20
9.01195576652025
 30
0.0
 11
3.222409975256538
 21
9.06995576652025
 31
0.0
  0
CIRCLE
  5
47B8
330
1E
100
AcDbEntity
  8
OBJECT
100
AcDbCircle
 10
9.901223606183847
 20
5.13603778822047
 30
0.0
 40
0.118
  0
LINE
  5
47B9
330
1E
100
AcDbEntity
  8
OBJECT
100
AcDbLine
 10
6.743413784367215
 20
5.234475357790339
 30
0.0
 11
6.940288784367192
 21
5.254162857789575
 31
0.0
  0
LINE
  5
47BA
330
1E
100
AcDbEntity
  8
OBJECT
100
AcDbLine
 10
6.743413784367215
 20
5.037600357789793
 30
0.0
 11
6.940288784367192
 21
5.017912857789648
 31
0.0
  0
LINE
  5
47BB
330
1E
100
AcDbEntity
  8
OBJECT
100
AcDbLine
 10
6.743413784367215
 20
5.234475357790339
 30
0.0
 11
6.743413784367215
 21
5.037600357789793
 31
0.0
  0
LINE
  5
480D
330
1E
100
AcDbEntity
  8
HIDDEN
100
AcDbLine
 10
5.881008691945692
 20
6.837353666416317
 30
0.0
 11
5.873241286418348
 21
6.991325965452773
 31
0.0
  0
HATCH
  5
484D
330
1E
100
AcDbEntity
  8
OBJECT
100
AcDbHatch
 10
0.0
 20
0.0
 30
0.0
210
0.0
220
0.0
230
1.0
  2
ANSI31
 70
     0
 71
     0
 91
        1
 92
        7
 72
     1
 73
     1
 93
       31
 10
5.916663784367091
 20
6.990951786312137
 42
0.0
 10
6.388913784367034
 20
6.990951786312137
 42
0.0
 10
6.416601284367217
 20
7.018326786311915
 42
0.0
 10
6.416601284367217
 20
7.065576786312335
 42
0.0
 10
5.853538784367103
 20
7.065576786312333
 42
0.0
 10
5.853538784367104
 20
7.303672071763315
 42
0.0
 10
6.345726284367102
 20
7.3294665256295
 42
0.0
 10
6.345726284367103
 20
7.381564552438788
 42
0.0
 10
6.416601284367217
 20
7.38156455243879
 42
0.0
 10
6.416601284367217
 20
7.419951824520097
 42
0.0
 10
6.416601284367217
 20
7.439639324520243
 42
0.0
 10
5.878856599536004
 20
7.411457319767213
 42
0.3989595459737535
 10
5.76691378436719
 20
7.293494205974326
 42
0.0
 10
5.76691378436719
 20
6.950408302439059
 42
0.0
 10
5.80628878436714
 20
6.950408302439059
 42
0.0
 10
6.043959957499665
 20
2.225408302438693
 42
0.0
 10
6.004584957499794
 20
2.225408302438694
 42
0.0022962119926461
 10
6.046977031375533
 20
1.848047910457474
 42
0.3655880294957647
 10
6.158119665838628
 20
1.743810772133283
 42
0.0
 10
6.416601284367218
 20
1.730264324520789
 42
0.0
 10
6.416601284367216
 20
1.794252052438963
 42
0.0
 10
6.345726284367103
 20
1.794252052438963
 42
0.0
 10
6.345726284367103
 20
1.836310010792288
 42
0.0
 10
6.134271000550768
 20
1.847391912635054
 42
-0.0020485855727902
 10
6.096275465734045
 20
2.183323584977007
 42
0.0
 10
6.115682814944919
 20
2.185438156745107
 42
0.0
 10
5.881413622139477
 20
6.829326786312407
 42
0.0
 10
6.416601284367216
 20
6.829326786312407
 42
0.0
 10
6.416601284367217
 20
6.876576786312027
 42
0.0
 10
6.388913784367146
 20
6.903951786312604
 42
0.0
 10
5.91666378436709
 20
6.903951786312603
 42
0.0
 97
        0
 75
     0
 76
     1
 52
90.0
 41
0.5
 77
     0
 78
     1
 53
135.0
 43
0.0
 44
0.0
 45
-0.0441941738241592
 46
-0.0441941738241592
 79
     0
 47
0.0104351994667065
 98
        1
 10
5.849190162445339
 20
6.915348740407821
  0
LINE
  5
484E
330
1E
100
AcDbEntity
  8
HIDDEN
100
AcDbLine
 10
5.853538784367103
 20
6.991921111146069
 30
0.0
 11
5.853538784367103
 21
7.046761661188689
 31
0.0
  0
ENDSEC
  0
SECTION
  2
OBJECTS
  0
DICTIONARY
  5
C
330
0
100
AcDbDictionary
281
     1
  3
ACAD_GROUP
350
D
  3
ACAD_LAYOUT
350
19
  3
ACAD_MLINESTYLE
350
16
  3
ACAD_PLOTSETTINGS
350
18
  3
ACAD_PLOTSTYLENAME
350
E
  3
AcadDim
350
56
  3
AcDbVariableDictionary
350
1A41
  0
DICTIONARY
  5
D
102
{ACAD_REACTORS
330
C
102
}
330
C
100
AcDbDictionary
281
     1
  0
DICTIONARY
  5
19
102
{ACAD_REACTORS
330
C
102
}
330
C
100
AcDbDictionary
281
     1
  3
Layout1
350
1D
  3
Model
350
21
  0
DICTIONARY
  5
16
102
{ACAD_REACTORS
330
C
102
}
330
C
100
AcDbDictionary
281
     1
  3
Standard
350
17
  0
DICTIONARY
  5
18
102
{ACAD_REACTORS
330
C
102
}
330
C
100
AcDbDictionary
281
     1
  0
ACDBDICTIONARYWDFLT
  5
E
102
{ACAD_REACTORS
330
C
102
}
330
C
100
AcDbDictionary
281
     1
  3
Normal
350
F
100
AcDbDictionaryWithDefault
340
F
  0
XRECORD
  5
56
102
{ACAD_REACTORS
330
C
102
}
330
C
100
AcDbXrecord
280
     1
 90
   990106
  3

 60
     0
 61
     0
 62
     1
 63
     1
 64
     0
 65
     0
 66
     0
 67
     3
 68
     1
 69
     0
 70
     0
 71
     0
 72
     0
 40
0.0
170
     2
340
0
  0
DICTIONARY
  5
1A41
102
{ACAD_REACTORS
330
C
102
}
330
C
100
AcDbDictionary
281
     1
  3
SORTENTS
350
1A42
  0
LAYOUT
  5
1D
102
{ACAD_REACTORS
330
19
102
}
330
19
100
AcDbPlotSettings
  1

  2
C:\Program Files\ACAD2000\plotters\DWF ePlot.pc3
  4

  6

 40
0.0
 41
0.0
 42
0.0
 43
0.0
 44
0.0
 45
0.0
 46
0.0
 47
0.0
 48
0.0
 49
0.0
140
0.0
141
0.0
142
1.0
143
1.0
 70
   688
 72
     0
 73
     0
 74
     5
  7
monochrome.ctb
 75
    16
147
1.0
148
0.0
149
0.0
100
AcDbLayout
  1
Layout1
 70
     1
 71
     1
 10
0.0
 20
0.0
 11
12.0
 21
9.0
 12
0.0
 22
0.0
 32
0.0
 14
1.000000000000000E+20
 24
1.000000000000000E+20
 34
1.000000000000000E+20
 15
-1.000000000000000E+20
 25
-1.000000000000000E+20
 35
-1.000000000000000E+20
146
0.0
 13
0.0
 23
0.0
 33
0.0
 16
1.0
 26
0.0
 36
0.0
 17
0.0
 27
1.0
 37
0.0
 76
     0
330
1A
  0
LAYOUT
  5
21
102
{ACAD_REACTORS
330
19
102
}
330
19
100
AcDbPlotSettings
  1

  2
RICOH Aficio 1060 PCL 6
  4
Letter
  6

 40
5.027083396911621
 41
5.027085304260253
 42
5.027084350585937
 43
5.027069091796875
 44
215.8999938964843
 45
279.3999938964843
 46
11.68399999999999
 47
0.0
 48
14.60342301250534
 49
0.0
140
27.85342301250534
141
19.57499999999999
142
1.0
143
1.846085122039206
 70
 11956
 72
     0
 73
     0
 74
     1
  7
monochrome.ctb
 75
     0
147
0.5416868312634409
148
0.0102699073383491
149
0.0151723348036896
100
AcDbLayout
  1
Model
 70
     1
 71
     0
 10
0.0
 20
0.0
 11
12.0
 21
9.0
 12
0.0
 22
0.0
 32
0.0
 14
0.0
 24
0.0
 34
0.0
 15
0.0
 25
0.0
 35
0.0
146
0.0
 13
0.0
 23
0.0
 33
0.0
 16
1.0
 26
0.0
 36
0.0
 17
0.0
 27
1.0
 37
0.0
 76
     0
330
1E
  0
MLINESTYLE
  5
17
102
{ACAD_REACTORS
330
16
102
}
330
16
100
AcDbMlineStyle
  2
STANDARD
 70
     0
  3

 62
   256
 51
90.0
 52
90.0
 71
     2
 49
0.5
 62
   256
  6
BYLAYER
 49
-0.5
 62
   256
  6
BYLAYER
  0
ACDBPLACEHOLDER
  5
F
102
{ACAD_REACTORS
330
E
102
}
330
E
  0
DICTIONARYVAR
  5
1A42
102
{ACAD_REACTORS
330
1A41
102
}
330
1A41
100
DictionaryVariables
280
     0
  1
96
  0
ENDSEC
  0
EOF
