  0
SECTION
  2
HEADER
  9
$ACADVER
  1
AC1015
  9
$ACADMAINTVER
 70
     6
  9
$DWGCODEPAGE
  3
ANSI_1252
  9
$INSBASE
 10
0.0
 20
0.0
 30
0.0
  9
$EXTMIN
 10
0.0
 20
-0.0000000000000022
 30
0.0
  9
$EXTMAX
 10
13.25
 20
19.57499999999999
 30
0.0
  9
$LIMMIN
 10
0.0
 20
0.0
  9
$LIMMAX
 10
11.0
 20
8.5
  9
$ORTHOMODE
 70
     1
  9
$REGENMODE
 70
     1
  9
$FILLMODE
 70
     1
  9
$QTEXTMODE
 70
     0
  9
$MIRRTEXT
 70
     0
  9
$LTSCALE
 40
0.25
  9
$ATTMODE
 70
     1
  9
$TEXTSIZE
 40
0.156
  9
$TRACEWID
 40
0.05
  9
$TEXTSTYLE
  7
TXT
  9
$CLAYER
  8
OBJECT
  9
$CELTYPE
  6
ByLayer
  9
$CECOLOR
 62
   256
  9
$CELTSCALE
 40
1.0
  9
$DISPSILH
 70
     0
  9
$DIMSCALE
 40
1.25
  9
$DIMASZ
 40
0.18
  9
$DIMEXO
 40
0.063
  9
$DIMDLI
 40
0.281
  9
$DIMRND
 40
0.0
  9
$DIMDLE
 40
0.0
  9
$DIMEXE
 40
0.093
  9
$DIMTP
 40
0.0
  9
$DIMTM
 40
0.0
  9
$DIMTXT
 40
0.125
  9
$DIMCEN
 40
0.09
  9
$DIMTSZ
 40
0.0
  9
$DIMTOL
 70
     0
  9
$DIMLIM
 70
     0
  9
$DIMTIH
 70
     1
  9
$DIMTOH
 70
     1
  9
$DIMSE1
 70
     0
  9
$DIMSE2
 70
     0
  9
$DIMTAD
 70
     0
  9
$DIMZIN
 70
     0
  9
$DIMBLK
  1

  9
$DIMASO
 70
     1
  9
$DIMSHO
 70
     1
  9
$DIMPOST
  1

  9
$DIMAPOST
  1

  9
$DIMALT
 70
     0
  9
$DIMALTD
 70
     2
  9
$DIMALTF
 40
25.4
  9
$DIMLFAC
 40
1.0
  9
$DIMTOFL
 70
     0
  9
$DIMTVP
 40
0.0
  9
$DIMTIX
 70
     0
  9
$DIMSOXD
 70
     0
  9
$DIMSAH
 70
     0
  9
$DIMBLK1
  1

  9
$DIMBLK2
  1

  9
$DIMSTYLE
  2
23NSTD
  9
$DIMCLRD
 70
     0
  9
$DIMCLRE
 70
     0
  9
$DIMCLRT
 70
     0
  9
$DIMTFAC
 40
1.0
  9
$DIMGAP
 40
0.09
  9
$DIMJUST
 70
     0
  9
$DIMSD1
 70
     0
  9
$DIMSD2
 70
     0
  9
$DIMTOLJ
 70
     1
  9
$DIMTZIN
 70
     0
  9
$DIMALTZ
 70
     0
  9
$DIMALTTZ
 70
     0
  9
$DIMUPT
 70
     0
  9
$DIMDEC
 70
     3
  9
$DIMTDEC
 70
     3
  9
$DIMALTU
 70
     2
  9
$DIMALTTD
 70
     2
  9
$DIMTXSTY
  7
TXT
  9
$DIMAUNIT
 70
     0
  9
$DIMADEC
 70
     0
  9
$DIMALTRND
 40
0.0
  9
$DIMAZIN
 70
     0
  9
$DIMDSEP
 70
    46
  9
$DIMATFIT
 70
     0
  9
$DIMFRAC
 70
     0
  9
$DIMLDRBLK
  1

  9
$DIMLUNIT
 70
     2
  9
$DIMLWD
 70
    -2
  9
$DIMLWE
 70
    -2
  9
$DIMTMOVE
 70
     0
  9
$LUNITS
 70
     2
  9
$LUPREC
 70
     3
  9
$SKETCHINC
 40
0.1
  9
$FILLETRAD
 40
0.0
  9
$AUNITS
 70
     0
  9
$AUPREC
 70
     0
  9
$MENU
  1
acad
  9
$ELEVATION
 40
0.0
  9
$PELEVATION
 40
0.0
  9
$THICKNESS
 40
0.0
  9
$LIMCHECK
 70
     0
  9
$CHAMFERA
 40
0.0
  9
$CHAMFERB
 40
0.0
  9
$CHAMFERC
 40
0.0
  9
$CHAMFERD
 40
0.0
  9
$SKPOLY
 70
     0
  9
$TDCREATE
 40
2454222.415810717
  9
$TDUCREATE
 40
2454222.582477384
  9
$TDUPDATE
 40
2454245.354171910
  9
$TDUUPDATE
 40
2454245.520838576
  9
$TDINDWG
 40
0.3775347338
  9
$TDUSRTIMER
 40
0.3775347338
  9
$USRTIMER
 70
     1
  9
$ANGBASE
 50
0.0
  9
$ANGDIR
 70
     0
  9
$PDMODE
 70
     0
  9
$PDSIZE
 40
0.0
  9
$PLINEWID
 40
0.0
  9
$SPLFRAME
 70
     0
  9
$SPLINETYPE
 70
     6
  9
$SPLINESEGS
 70
     8
  9
$HANDSEED
  5
3200
  9
$SURFTAB1
 70
     6
  9
$SURFTAB2
 70
     6
  9
$SURFTYPE
 70
     6
  9
$SURFU
 70
     6
  9
$SURFV
 70
     6
  9
$UCSBASE
  2

  9
$UCSNAME
  2

  9
$UCSORG
 10
0.0
 20
0.0
 30
0.0
  9
$UCSXDIR
 10
1.0
 20
0.0
 30
0.0
  9
$UCSYDIR
 10
0.0
 20
1.0
 30
0.0
  9
$UCSORTHOREF
  2

  9
$UCSORTHOVIEW
 70
     0
  9
$UCSORGTOP
 10
0.0
 20
0.0
 30
0.0
  9
$UCSORGBOTTOM
 10
0.0
 20
0.0
 30
0.0
  9
$UCSORGLEFT
 10
0.0
 20
0.0
 30
0.0
  9
$UCSORGRIGHT
 10
0.0
 20
0.0
 30
0.0
  9
$UCSORGFRONT
 10
0.0
 20
0.0
 30
0.0
  9
$UCSORGBACK
 10
0.0
 20
0.0
 30
0.0
  9
$PUCSBASE
  2

  9
$PUCSNAME
  2

  9
$PUCSORG
 10
0.0
 20
0.0
 30
0.0
  9
$PUCSXDIR
 10
1.0
 20
0.0
 30
0.0
  9
$PUCSYDIR
 10
0.0
 20
1.0
 30
0.0
  9
$PUCSORTHOREF
  2

  9
$PUCSORTHOVIEW
 70
     0
  9
$PUCSORGTOP
 10
0.0
 20
0.0
 30
0.0
  9
$PUCSORGBOTTOM
 10
0.0
 20
0.0
 30
0.0
  9
$PUCSORGLEFT
 10
0.0
 20
0.0
 30
0.0
  9
$PUCSORGRIGHT
 10
0.0
 20
0.0
 30
0.0
  9
$PUCSORGFRONT
 10
0.0
 20
0.0
 30
0.0
  9
$PUCSORGBACK
 10
0.0
 20
0.0
 30
0.0
  9
$USERI1
 70
     0
  9
$USERI2
 70
     0
  9
$USERI3
 70
     0
  9
$USERI4
 70
     0
  9
$USERI5
 70
     0
  9
$USERR1
 40
0.0
  9
$USERR2
 40
0.0
  9
$USERR3
 40
0.0
  9
$USERR4
 40
0.0
  9
$USERR5
 40
0.0
  9
$WORLDVIEW
 70
     1
  9
$SHADEDGE
 70
     3
  9
$SHADEDIF
 70
    70
  9
$TILEMODE
 70
     1
  9
$MAXACTVP
 70
    16
  9
$PINSBASE
 10
0.0
 20
0.0
 30
0.0
  9
$PLIMCHECK
 70
     0
  9
$PEXTMIN
 10
1.000000000000000E+20
 20
1.000000000000000E+20
 30
1.000000000000000E+20
  9
$PEXTMAX
 10
-1.000000000000000E+20
 20
-1.000000000000000E+20
 30
-1.000000000000000E+20
  9
$PLIMMIN
 10
0.0
 20
0.0
  9
$PLIMMAX
 10
12.0
 20
9.0
  9
$UNITMODE
 70
     0
  9
$VISRETAIN
 70
     0
  9
$PLINEGEN
 70
     0
  9
$PSLTSCALE
 70
     1
  9
$TREEDEPTH
 70
  3020
  9
$CMLSTYLE
  2
Standard
  9
$CMLJUST
 70
     0
  9
$CMLSCALE
 40
1.0
  9
$PROXYGRAPHICS
 70
     1
  9
$MEASUREMENT
 70
     0
  9
$CELWEIGHT
370
    -1
  9
$ENDCAPS
280
     0
  9
$JOINSTYLE
280
     0
  9
$LWDISPLAY
290
     0
  9
$INSUNITS
 70
     0
  9
$HYPERLINKBASE
  1

  9
$STYLESHEET
  1
monochrome.ctb
  9
$XEDIT
290
     1
  9
$CEPSNTYPE
380
     0
  9
$PSTYLEMODE
290
     1
  9
$FINGERPRINTGUID
  2
{5F9F434B-8232-11D3-80AD-00C04F604D1B}
  9
$VERSIONGUID
  2
{92127705-A540-4EB0-82D7-5530340F9A38}
  9
$EXTNAMES
290
     1
  9
$PSVPSCALE
 40
0.0
  9
$OLESTARTUP
290
     0
  0
ENDSEC
  0
SECTION
  2
CLASSES
  0
CLASS
  1
ACDBDICTIONARYWDFLT
  2
AcDbDictionaryWithDefault
  3
AutoCAD 2000
 90
        0
280
     0
281
     0
  0
CLASS
  1
ACDBPLACEHOLDER
  2
AcDbPlaceHolder
  3
AutoCAD 2000
 90
        0
280
     0
281
     0
  0
CLASS
  1
LAYOUT
  2
AcDbLayout
  3
AutoCAD 2000
 90
        0
280
     0
281
     0
  0
CLASS
  1
SORTENTSTABLE
  2
AcDbSortentsTable
  3
AutoCAD 2000
 90
    32768
280
     0
281
     0
  0
CLASS
  1
DICTIONARYVAR
  2
AcDbDictionaryVar
  3
AutoCAD 2000
 90
        0
280
     0
281
     0
  0
ENDSEC
  0
SECTION
  2
TABLES
  0
TABLE
  2
VPORT
  5
8
330
0
100
AcDbSymbolTable
 70
     2
  0
VPORT
  5
31FF
330
8
100
AcDbSymbolTableRecord
100
AcDbViewportTableRecord
  2
*Active
 70
     0
 10
0.0
 20
0.0
 11
1.0
 21
1.0
 12
6.62500003085006
 22
9.787500045576599
 13
0.0
 23
0.0
 14
0.125
 24
0.125
 15
0.125
 25
0.125
 16
0.0
 26
0.0
 36
1.0
 17
0.0
 27
0.0
 37
0.0
 40
19.77195671081683
 41
1.824707846410684
 42
50.0
 43
0.0
 44
0.0
 50
0.0
 51
0.0
 71
     0
 72
   100
 73
     1
 74
     0
 75
     0
 76
     0
 77
     0
 78
     0
281
     0
 65
     1
110
0.0
120
0.0
130
0.0
111
1.0
121
0.0
131
0.0
112
0.0
122
1.0
132
0.0
 79
     0
146
0.0
  0
ENDTAB
  0
TABLE
  2
LTYPE
  5
5
330
0
100
AcDbSymbolTable
 70
     7
  0
LTYPE
  5
13
330
5
100
AcDbSymbolTableRecord
100
AcDbLinetypeTableRecord
  2
ByBlock
 70
     0
  3

 72
    65
 73
     0
 40
0.0
  0
LTYPE
  5
14
330
5
100
AcDbSymbolTableRecord
100
AcDbLinetypeTableRecord
  2
ByLayer
 70
     0
  3

 72
    65
 73
     0
 40
0.0
  0
LTYPE
  5
15
330
5
100
AcDbSymbolTableRecord
100
AcDbLinetypeTableRecord
  2
CONTINUOUS
 70
     0
  3
Solid line
 72
    65
 73
     0
 40
0.0
  0
LTYPE
  5
22
330
5
100
AcDbSymbolTableRecord
100
AcDbLinetypeTableRecord
  2
HIDDEN
 70
     0
  3
_ _ _ _ _ _ _ _ _ _ _ _ _ _ _ _ _ _ _ _ _ _ _
 72
    65
 73
     2
 40
0.375
 49
0.25
 74
     0
 49
-0.125
 74
     0
  0
LTYPE
  5
23
330
5
100
AcDbSymbolTableRecord
100
AcDbLinetypeTableRecord
  2
PHANTOM
 70
     0
  3
_____ _ _ _____ _ _ _____ _ _ _____ _ _ ____
 72
    65
 73
     6
 40
2.5
 49
1.25
 74
     0
 49
-0.25
 74
     0
 49
0.25
 74
     0
 49
-0.25
 74
     0
 49
0.25
 74
     0
 49
-0.25
 74
     0
  0
LTYPE
  5
24
330
5
100
AcDbSymbolTableRecord
100
AcDbLinetypeTableRecord
  2
CENTER
 70
     0
  3
____ _ ____ _ ____ _ ____ _ ____ _ ____ _ ____
 72
    65
 73
     4
 40
2.0
 49
1.25
 74
     0
 49
-0.25
 74
     0
 49
0.25
 74
     0
 49
-0.25
 74
     0
  0
LTYPE
  5
25
330
5
100
AcDbSymbolTableRecord
100
AcDbLinetypeTableRecord
  2
HIDDEN2
 70
     0
  3
_ _ _ _ _ _ _ _ _ _ _ _ _ _ _ _ _ _ _ _ _ _ _ _
 72
    65
 73
     2
 40
0.1875
 49
0.125
 74
     0
 49
-0.0625
 74
     0
  0
LTYPE
  5
26
330
5
100
AcDbSymbolTableRecord
100
AcDbLinetypeTableRecord
  2
PHANTOM2
 70
     0
  3
___ _ _ ___ _ _ ___ _ _ ___ _ _ ___ _ _ ___ _ _
 72
    65
 73
     6
 40
1.25
 49
0.625
 74
     0
 49
-0.125
 74
     0
 49
0.125
 74
     0
 49
-0.125
 74
     0
 49
0.125
 74
     0
 49
-0.125
 74
     0
  0
LTYPE
  5
48C
330
5
100
AcDbSymbolTableRecord
100
AcDbLinetypeTableRecord
  2
DASHED2
 70
     0
  3
Dashed (.5x) _ _ _ _ _ _ _ _ _ _ _ _ _ _ _ _ _
 72
    65
 73
     2
 40
9.524999999999998
 49
6.349999999999999
 74
     0
 49
-3.174999999999999
 74
     0
  0
ENDTAB
  0
TABLE
  2
LAYER
  5
2
330
0
100
AcDbSymbolTable
 70
    10
  0
LAYER
  5
10
330
2
100
AcDbSymbolTableRecord
100
AcDbLayerTableRecord
  2
0
 70
     0
 62
     7
  6
CONTINUOUS
370
    -3
390
F
  0
LAYER
  5
29
330
2
100
AcDbSymbolTableRecord
100
AcDbLayerTableRecord
  2
OBJECT
 70
     0
 62
     7
  6
CONTINUOUS
370
    -3
390
F
  0
LAYER
  5
2A
330
2
100
AcDbSymbolTableRecord
100
AcDbLayerTableRecord
  2
DIM
 70
     0
 62
     7
  6
CONTINUOUS
370
    -3
390
F
  0
LAYER
  5
2B
330
2
100
AcDbSymbolTableRecord
100
AcDbLayerTableRecord
  2
HIDDEN
 70
     0
 62
     7
  6
HIDDEN
370
    -3
390
F
  0
LAYER
  5
2C
330
2
100
AcDbSymbolTableRecord
100
AcDbLayerTableRecord
  2
BEND
 70
     0
 62
     7
  6
PHANTOM
370
    -3
390
F
  0
LAYER
  5
2D
330
2
100
AcDbSymbolTableRecord
100
AcDbLayerTableRecord
  2
TEXT
 70
     0
 62
     7
  6
CONTINUOUS
370
    -3
390
F
  0
LAYER
  5
2E
330
2
100
AcDbSymbolTableRecord
100
AcDbLayerTableRecord
  2
TITLE
 70
     0
 62
     7
  6
CONTINUOUS
370
    -3
390
F
  0
LAYER
  5
2F
330
2
100
AcDbSymbolTableRecord
100
AcDbLayerTableRecord
  2
CENTER
 70
     0
 62
     7
  6
CENTER
370
    -3
390
F
  0
LAYER
  5
493
330
2
100
AcDbSymbolTableRecord
100
AcDbLayerTableRecord
  2
\M+2BBB2\M+2A755\M+2BD75
 70
     0
 62
     7
  6
CONTINUOUS
370
    15
390
F
  0
LAYER
  5
1B54
330
2
100
AcDbSymbolTableRecord
100
AcDbLayerTableRecord
  2
Defpoints
 70
     0
 62
     7
  6
CONTINUOUS
290
     0
370
    -3
390
F
  0
ENDTAB
  0
TABLE
  2
STYLE
  5
3
330
0
100
AcDbSymbolTable
 70
     2
  0
STYLE
  5
11
330
3
100
AcDbSymbolTableRecord
100
AcDbTextStyleTableRecord
  2
TXT
 70
     0
 40
0.0
 41
0.75
 50
0.0
 71
     0
 42
0.156
  3
TXT.shx
  4

  0
STYLE
  5
496
330
3
100
AcDbSymbolTableRecord
100
AcDbTextStyleTableRecord
  2
Standard
 70
     0
 40
0.0
 41
1.0
 50
0.0
 71
     0
 42
0.1551234490216302
  3
txt
  4

  0
ENDTAB
  0
TABLE
  2
VIEW
  5
6
330
0
100
AcDbSymbolTable
 70
     0
  0
ENDTAB
  0
TABLE
  2
UCS
  5
7
330
0
100
AcDbSymbolTable
 70
     0
  0
ENDTAB
  0
TABLE
  2
APPID
  5
9
330
0
100
AcDbSymbolTable
 70
    13
  0
APPID
  5
12
330
9
100
AcDbSymbolTableRecord
100
AcDbRegAppTableRecord
  2
ACAD
 70
     0
  0
APPID
  5
49C
330
9
100
AcDbSymbolTableRecord
100
AcDbRegAppTableRecord
  2
DCO15
 70
     0
  0
APPID
  5
49D
330
9
100
AcDbSymbolTableRecord
100
AcDbRegAppTableRecord
  2
ADE
 70
     0
  0
APPID
  5
49E
330
9
100
AcDbSymbolTableRecord
100
AcDbRegAppTableRecord
  2
ACAD_DSTYLE_DIMTEXT_FILL
 70
     0
  0
APPID
  5
49F
330
9
100
AcDbSymbolTableRecord
100
AcDbRegAppTableRecord
  2
ACAD_PSEXT
 70
     0
  0
APPID
  5
4A0
330
9
100
AcDbSymbolTableRecord
100
AcDbRegAppTableRecord
  2
AME_SOLVIEW
 70
     0
  0
APPID
  5
4A1
330
9
100
AcDbSymbolTableRecord
100
AcDbRegAppTableRecord
  2
ACAD_DSTYLE_DIMEXT_LENGTH
 70
     0
  0
APPID
  5
4A2
330
9
100
AcDbSymbolTableRecord
100
AcDbRegAppTableRecord
  2
ACAD_DSTYLE_DIMEXT_ENABLED
 70
     0
  0
APPID
  5
4A3
330
9
100
AcDbSymbolTableRecord
100
AcDbRegAppTableRecord
  2
ACAD_DSTYLE_DIM_LINETYPE
 70
     0
  0
APPID
  5
4A4
330
9
100
AcDbSymbolTableRecord
100
AcDbRegAppTableRecord
  2
ACAD_DSTYLE_DIM_EXT1_LINETYPE
 70
     0
  0
APPID
  5
4A5
330
9
100
AcDbSymbolTableRecord
100
AcDbRegAppTableRecord
  2
ACAD_DSTYLE_DIM_EXT2_LINETYPE
 70
     0
  0
APPID
  5
4A6
330
9
100
AcDbSymbolTableRecord
100
AcDbRegAppTableRecord
  2
ACAD_DSTYLE_DIMJOGGED_JOGANGLE_SYMBOL
 70
     0
  0
APPID
  5
4A7
330
9
100
AcDbSymbolTableRecord
100
AcDbRegAppTableRecord
  2
ACAD_DSTYLE_DIMARC_LENGTH_SYMBOL
 70
     0
  0
ENDTAB
  0
TABLE
  2
DIMSTYLE
  5
A
330
0
100
AcDbSymbolTable
 70
     2
100
AcDbDimStyleTable
 71
     2
340
38
340
39
  0
DIMSTYLE
105
38
102
{ACAD_REACTORS
330
1B70
330
1B7E
330
1C01
330
1C0F
330
1C84
330
1C76
330
1CAA
330
2421
330
241F
330
2424
330
249C
330
3036
330
304E
102
}
330
A
100
AcDbSymbolTableRecord
100
AcDbDimStyleTableRecord
  2
23NSTD
 70
     0
 40
1.25
 42
0.063
 43
0.281
 44
0.093
140
0.125
271
     3
272
     3
289
     0
340
11
  0
DIMSTYLE
105
39
102
{ACAD_REACTORS
330
1BD5
330
2216
102
}
330
A
100
AcDbSymbolTableRecord
100
AcDbDimStyleTableRecord
  2
23NSTDI
 70
     0
 40
1.25
 42
0.063
 43
0.281
 44
0.093
140
0.125
174
     1
271
     3
272
     3
289
     0
340
11
  0
ENDTAB
  0
TABLE
  2
BLOCK_RECORD
  5
1
330
0
100
AcDbSymbolTable
 70
    14
  0
BLOCK_RECORD
  5
1E
330
1
100
AcDbSymbolTableRecord
100
AcDbBlockTableRecord
  2
*Model_Space
340
21
  0
BLOCK_RECORD
  5
1A
330
1
100
AcDbSymbolTableRecord
100
AcDbBlockTableRecord
  2
*Paper_Space
340
1D
  0
BLOCK_RECORD
  5
1B36
330
1
100
AcDbSymbolTableRecord
100
AcDbBlockTableRecord
  2
HB
340
0
102
{BLKREFS
331
1BB4
102
}
  0
BLOCK_RECORD
  5
1B71
330
1
100
AcDbSymbolTableRecord
100
AcDbBlockTableRecord
  2
*D1
340
0
  0
BLOCK_RECORD
  5
1B7F
330
1
100
AcDbSymbolTableRecord
100
AcDbBlockTableRecord
  2
*D2
340
0
  0
BLOCK_RECORD
  5
1BD6
330
1
100
AcDbSymbolTableRecord
100
AcDbBlockTableRecord
  2
*D3
340
0
  0
BLOCK_RECORD
  5
1C02
330
1
100
AcDbSymbolTableRecord
100
AcDbBlockTableRecord
  2
*D4
340
0
  0
BLOCK_RECORD
  5
1C10
330
1
100
AcDbSymbolTableRecord
100
AcDbBlockTableRecord
  2
*D5
340
0
  0
BLOCK_RECORD
  5
1C77
330
1
100
AcDbSymbolTableRecord
100
AcDbBlockTableRecord
  2
*D6
340
0
  0
BLOCK_RECORD
  5
1C85
330
1
100
AcDbSymbolTableRecord
100
AcDbBlockTableRecord
  2
*D7
340
0
  0
BLOCK_RECORD
  5
1CAB
330
1
100
AcDbSymbolTableRecord
100
AcDbBlockTableRecord
  2
*D8
340
0
  0
BLOCK_RECORD
  5
2217
330
1
100
AcDbSymbolTableRecord
100
AcDbBlockTableRecord
  2
*D9
340
0
  0
BLOCK_RECORD
  5
3037
330
1
100
AcDbSymbolTableRecord
100
AcDbBlockTableRecord
  2
*D10
340
0
  0
BLOCK_RECORD
  5
304F
330
1
100
AcDbSymbolTableRecord
100
AcDbBlockTableRecord
  2
*D11
340
0
  0
ENDTAB
  0
ENDSEC
  0
SECTION
  2
BLOCKS
  0
BLOCK
  5
33
330
1E
100
AcDbEntity
  8
0
100
AcDbBlockBegin
  2
*Model_Space
 70
     0
 10
0.0
 20
0.0
 30
0.0
  3
*Model_Space
  1

  0
ENDBLK
  5
34
330
1E
100
AcDbEntity
  8
0
100
AcDbBlockEnd
  0
BLOCK
  5
31
330
1A
100
AcDbEntity
 67
     1
  8
0
100
AcDbBlockBegin
  2
*Paper_Space
 70
     0
 10
0.0
 20
0.0
 30
0.0
  3
*Paper_Space
  1

  0
ENDBLK
  5
32
330
1A
100
AcDbEntity
 67
     1
  8
0
100
AcDbBlockEnd
  0
BLOCK
  5
1B4D
330
1B36
100
AcDbEntity
  8
0
100
AcDbBlockBegin
  2
HB
 70
     0
 10
0.0
 20
0.0
 30
0.0
  3
HB
  1

  0
TEXT
  5
1B37
330
1B36
100
AcDbEntity
  8
TEXT
100
AcDbText
 10
0.2078333333333363
 20
15.22007919564008
 30
0.0
 40
0.125
  1
NAME
 72
     1
 11
0.437000000000003
 21
15.22007919564008
 31
0.0
100
AcDbText
  0
TEXT
  5
1B38
330
1B36
100
AcDbEntity
  8
TEXT
100
AcDbText
 10
0.2078333333333363
 20
15.42841252897341
 30
0.0
 40
0.125
  1
PART
 72
     1
 11
0.437000000000003
 21
15.42841252897341
 31
0.0
100
AcDbText
  0
TEXT
  5
1B39
330
1B36
100
AcDbEntity
  8
TEXT
100
AcDbText
 10
4.561999999999998
 20
15.22007919564008
 30
0.0
 40
0.125
  1
No.
 72
     1
 11
4.686999999999998
 21
15.22007919564008
 31
0.0
100
AcDbText
  0
TEXT
  5
1B3A
330
1B36
100
AcDbEntity
  8
TEXT
100
AcDbText
 10
4.457833333333331
 20
15.42841252897341
 30
0.0
 40
0.125
  1
PART
 72
     1
 11
4.686999999999998
 21
15.42841252897341
 31
0.0
100
AcDbText
  0
LINE
  5
1B3B
330
1B36
100
AcDbEntity
  8
TITLE
100
AcDbLine
 10
5.062000000000002
 20
15.598
 30
0.0
 11
5.062000000000002
 21
15.17999999999999
 31
0.0
  0
LINE
  5
1B3C
330
1B36
100
AcDbEntity
  8
TITLE
100
AcDbLine
 10
4.312000000000002
 20
15.598
 30
0.0
 11
4.312000000000002
 21
15.17999999999999
 31
0.0
  0
LINE
  5
1B3D
330
1B36
100
AcDbEntity
  8
TITLE
100
AcDbLine
 10
4.25
 20
15.598
 30
0.0
 11
4.25
 21
15.17999999999999
 31
0.0
  0
LINE
  5
1B3E
330
1B36
100
AcDbEntity
  8
TITLE
100
AcDbLine
 10
0.8120000000000029
 20
15.17999999999999
 30
0.0
 11
0.8120000000000011
 21
15.598
 31
0.0
  0
LINE
  5
1B3F
330
1B36
100
AcDbEntity
  8
TITLE
100
AcDbLine
 10
0.0620000000000012
 20
15.17999999999999
 30
0.0
 11
10.538
 21
15.17999999999999
 31
0.0
  0
LINE
  5
1B40
330
1B36
100
AcDbEntity
  8
TITLE
100
AcDbLine
 10
10.538
 20
0.0619999999999994
 30
0.0
 11
0.0619999999999976
 21
0.0620000000000012
 31
0.0
  0
LINE
  5
1B41
330
1B36
100
AcDbEntity
  8
TITLE
100
AcDbLine
 10
10.538
 20
15.598
 30
0.0
 11
10.538
 21
0.0619999999999994
 31
0.0
  0
LINE
  5
1B42
330
1B36
100
AcDbEntity
  8
TITLE
100
AcDbLine
 10
0.0620000000000012
 20
15.598
 30
0.0
 11
10.538
 21
15.598
 31
0.0
  0
LINE
  5
1B43
330
1B36
100
AcDbEntity
  8
TITLE
100
AcDbLine
 10
0.0619999999999976
 20
0.0620000000000012
 30
0.0
 11
0.0620000000000012
 21
15.598
 31
0.0
  0
LINE
  5
1B44
330
1B36
100
AcDbEntity
  8
TITLE
100
AcDbLine
 10
0.0
 20
0.0
 30
0.0
 11
0.0
 21
15.66
 31
0.0
  0
LINE
  5
1B45
330
1B36
100
AcDbEntity
  8
TITLE
100
AcDbLine
 10
10.6
 20
-0.0000000000000018
 30
0.0
 11
0.0
 21
0.0
 31
0.0
  0
LINE
  5
1B46
330
1B36
100
AcDbEntity
  8
TITLE
100
AcDbLine
 10
10.6
 20
15.65999999999999
 30
0.0
 11
10.6
 21
-0.0000000000000018
 31
0.0
  0
LINE
  5
1B47
330
1B36
100
AcDbEntity
  8
TITLE
100
AcDbLine
 10
0.0
 20
15.66
 30
0.0
 11
10.6
 21
15.65999999999999
 31
0.0
  0
LINE
  5
1B48
330
1B36
100
AcDbEntity
  8
TITLE
100
AcDbLine
 10
8.500025722444004
 20
15.598
 30
0.0
 11
8.500025722444004
 21
15.17999999999999
 31
0.0
  0
TEXT
  5
1B49
330
1B36
100
AcDbEntity
  8
TEXT
100
AcDbText
 10
8.728692389110667
 20
15.42841252897341
 30
0.0
 40
0.125
  1
REV.
 72
     1
 11
8.937025722444001
 21
15.42841252897341
 31
0.0
100
AcDbText
  0
TEXT
  5
1B4A
330
1B36
100
AcDbEntity
  8
TEXT
100
AcDbText
 10
8.707859055777335
 20
15.22007919564008
 30
0.0
 40
0.125
  1
DATE
 72
     1
 11
8.937025722444001
 21
15.22007919564008
 31
0.0
100
AcDbText
  0
LINE
  5
1B4B
330
1B36
100
AcDbEntity
  8
TITLE
100
AcDbLine
 10
8.562025722444005
 20
15.598
 30
0.0
 11
8.562025722444005
 21
15.17999999999999
 31
0.0
  0
LINE
  5
1B4C
330
1B36
100
AcDbEntity
  8
TITLE
100
AcDbLine
 10
9.312025722444005
 20
15.598
 30
0.0
 11
9.312025722444005
 21
15.17999999999999
 31
0.0
  0
ENDBLK
  5
1B4E
330
1B36
100
AcDbEntity
  8
0
100
AcDbBlockEnd
  0
BLOCK
  5
1B7C
330
1B71
100
AcDbEntity
  8
0
100
AcDbBlockBegin
  2
*D1
 70
     1
 10
0.0
 20
0.0
 30
0.0
  3
*D1
  1

  0
LINE
  5
23E1
330
1B71
100
AcDbEntity
  8
DIM
 62
     0
370
    -2
100
AcDbLine
 10
1.234075807897234
 20
14.18345103112038
 30
0.0
 11
1.234075807897234
 21
17.54889613181782
 31
0.0
  0
LINE
  5
23E2
330
1B71
100
AcDbEntity
  8
DIM
 62
     0
370
    -2
100
AcDbLine
 10
4.777358502470629
 20
14.18345103111947
 30
0.0
 11
4.777358502470629
 21
17.54889613181782
 31
0.0
  0
LINE
  5
23E3
330
1B71
100
AcDbEntity
  8
DIM
 62
     0
370
    -2
100
AcDbLine
 10
1.459075807897234
 20
17.43264613181781
 30
0.0
 11
2.658842155183932
 21
17.43264613181781
 31
0.0
  0
LINE
  5
23E4
330
1B71
100
AcDbEntity
  8
DIM
 62
     0
370
    -2
100
AcDbLine
 10
4.55235850247063
 20
17.43264613181781
 30
0.0
 11
3.352592155183931
 21
17.43264613181781
 31
0.0
  0
SOLID
  5
23E5
330
1B71
100
AcDbEntity
  8
DIM
 62
     0
100
AcDbTrace
 10
1.459075807897234
 20
17.47014613181782
 30
0.0
 11
1.459075807897234
 21
17.39514613181781
 31
0.0
 12
1.234075807897234
 22
17.43264613181781
 32
0.0
 13
1.234075807897234
 23
17.43264613181781
 33
0.0
  0
SOLID
  5
23E6
330
1B71
100
AcDbEntity
  8
DIM
 62
     0
100
AcDbTrace
 10
4.55235850247063
 20
17.47014613181782
 30
0.0
 11
4.55235850247063
 21
17.39514613181781
 31
0.0
 12
4.777358502470629
 22
17.43264613181781
 32
0.0
 13
4.777358502470629
 23
17.43264613181781
 33
0.0
  0
MTEXT
  5
23E7
330
1B71
100
AcDbEntity
  8
DIM
 62
     0
100
AcDbMText
 10
3.005717155183932
 20
17.43264613181781
 30
0.0
 40
0.15625
 41
0.0
 71
     5
 72
     1
  1
\A1;3.543
 73
     1
 44
1.0
  0
POINT
  5
23E8
330
1B71
100
AcDbEntity
  8
Defpoints
 62
     0
100
AcDbPoint
 10
1.234075807897234
 20
14.10470103112038
 30
0.0
  0
POINT
  5
23E9
330
1B71
100
AcDbEntity
  8
Defpoints
 62
     0
100
AcDbPoint
 10
4.777358502470629
 20
14.10470103111947
 30
0.0
  0
POINT
  5
23EA
330
1B71
100
AcDbEntity
  8
Defpoints
 62
     0
100
AcDbPoint
 10
4.777358502470629
 20
17.43264613181781
 30
0.0
  0
ENDBLK
  5
1B7D
330
1B71
100
AcDbEntity
  8
0
100
AcDbBlockEnd
  0
BLOCK
  5
1B8A
330
1B7F
100
AcDbEntity
  8
0
100
AcDbBlockBegin
  2
*D2
 70
     1
 10
0.0
 20
0.0
 30
0.0
  3
*D2
  1

  0
LINE
  5
23D7
330
1B7F
100
AcDbEntity
  8
DIM
 62
     0
370
    -2
100
AcDbLine
 10
2.927098013393276
 20
16.95938853111965
 30
0.0
 11
0.6062196291309994
 21
16.95938853111965
 31
0.0
  0
LINE
  5
23D8
330
1B7F
100
AcDbEntity
  8
DIM
 62
     0
370
    -2
100
AcDbLine
 10
2.927097833258414
 20
11.25001353111984
 30
0.0
 11
0.6062196291309982
 21
11.25001353111984
 31
0.0
  0
LINE
  5
23D9
330
1B7F
100
AcDbEntity
  8
DIM
 62
     0
370
    -2
100
AcDbLine
 10
0.7224696291309995
 20
16.73438853111965
 30
0.0
 11
0.7224696291309991
 21
14.29532603111975
 31
0.0
  0
LINE
  5
23DA
330
1B7F
100
AcDbEntity
  8
DIM
 62
     0
370
    -2
100
AcDbLine
 10
0.7224696291309983
 20
11.47501353111984
 30
0.0
 11
0.722469629130999
 21
13.91407603111975
 31
0.0
  0
SOLID
  5
23DB
330
1B7F
100
AcDbEntity
  8
DIM
 62
     0
100
AcDbTrace
 10
0.6849696291309995
 20
16.73438853111965
 30
0.0
 11
0.7599696291309995
 21
16.73438853111965
 31
0.0
 12
0.7224696291309996
 22
16.95938853111965
 32
0.0
 13
0.7224696291309996
 23
16.95938853111965
 33
0.0
  0
SOLID
  5
23DC
330
1B7F
100
AcDbEntity
  8
DIM
 62
     0
100
AcDbTrace
 10
0.6849696291309984
 20
11.47501353111984
 30
0.0
 11
0.7599696291309983
 21
11.47501353111984
 31
0.0
 12
0.7224696291309983
 22
11.25001353111984
 32
0.0
 13
0.7224696291309983
 23
11.25001353111984
 33
0.0
  0
MTEXT
  5
23DD
330
1B7F
100
AcDbEntity
  8
DIM
 62
     0
100
AcDbMText
 10
0.7224696291309967
 20
14.10470103111975
 30
0.0
 40
0.15625
 41
0.0
 71
     5
 72
     1
  1
\A1;5.709
 73
     1
 44
1.0
  0
POINT
  5
23DE
330
1B7F
100
AcDbEntity
  8
Defpoints
 62
     0
100
AcDbPoint
 10
3.005848013393276
 20
16.95938853111965
 30
0.0
  0
POINT
  5
23DF
330
1B7F
100
AcDbEntity
  8
Defpoints
 62
     0
100
AcDbPoint
 10
3.005847833258414
 20
11.25001353111984
 30
0.0
  0
POINT
  5
23E0
330
1B7F
100
AcDbEntity
  8
Defpoints
 62
     0
100
AcDbPoint
 10
0.7224696291309983
 20
11.25001353111984
 30
0.0
  0
ENDBLK
  5
1B8B
330
1B7F
100
AcDbEntity
  8
0
100
AcDbBlockEnd
  0
BLOCK
  5
1BE1
330
1BD6
100
AcDbEntity
  8
0
100
AcDbBlockBegin
  2
*D3
 70
     1
 10
0.0
 20
0.0
 30
0.0
  3
*D3
  1

  0
LINE
  5
23C3
330
1BD6
100
AcDbEntity
  8
DIM
 62
     0
370
    -2
100
AcDbLine
 10
5.76691378436704
 20
16.89199341257368
 30
0.0
 11
5.76691378436704
 21
17.54889613181782
 31
0.0
  0
LINE
  5
23C4
330
1BD6
100
AcDbEntity
  8
DIM
 62
     0
370
    -2
100
AcDbLine
 10
7.026913784367204
 20
16.82138956556387
 30
0.0
 11
7.026913784367204
 21
17.54889613181782
 31
0.0
  0
LINE
  5
23C5
330
1BD6
100
AcDbEntity
  8
DIM
 62
     0
370
    -2
100
AcDbLine
 10
5.54191378436704
 20
17.43264613181781
 30
0.0
 11
5.31691378436704
 21
17.43264613181781
 31
0.0
  0
LINE
  5
23C6
330
1BD6
100
AcDbEntity
  8
DIM
 62
     0
370
    -2
100
AcDbLine
 10
7.251913784367204
 20
17.43264613181781
 30
0.0
 11
7.476913784367204
 21
17.43264613181781
 31
0.0
  0
SOLID
  5
23C7
330
1BD6
100
AcDbEntity
  8
DIM
 62
     0
100
AcDbTrace
 10
5.54191378436704
 20
17.47014613181782
 30
0.0
 11
5.54191378436704
 21
17.39514613181781
 31
0.0
 12
5.76691378436704
 22
17.43264613181781
 32
0.0
 13
5.76691378436704
 23
17.43264613181781
 33
0.0
  0
SOLID
  5
23C8
330
1BD6
100
AcDbEntity
  8
DIM
 62
     0
100
AcDbTrace
 10
7.251913784367204
 20
17.47014613181782
 30
0.0
 11
7.251913784367204
 21
17.39514613181781
 31
0.0
 12
7.026913784367204
 22
17.43264613181781
 32
0.0
 13
7.026913784367204
 23
17.43264613181781
 33
0.0
  0
MTEXT
  5
23C9
330
1BD6
100
AcDbEntity
  8
DIM
 62
     0
100
AcDbMText
 10
6.396913784367121
 20
17.43264613181781
 30
0.0
 40
0.15625
 41
0.0
 71
     5
 72
     1
  1
\A1;1.260
 73
     1
 44
1.0
  0
POINT
  5
23CA
330
1BD6
100
AcDbEntity
  8
Defpoints
 62
     0
100
AcDbPoint
 10
5.76691378436704
 20
16.81324341257368
 30
0.0
  0
POINT
  5
23CB
330
1BD6
100
AcDbEntity
  8
Defpoints
 62
     0
100
AcDbPoint
 10
7.026913784367204
 20
16.74263956556387
 30
0.0
  0
POINT
  5
23CC
330
1BD6
100
AcDbEntity
  8
Defpoints
 62
     0
100
AcDbPoint
 10
7.026913784367204
 20
17.43264613181781
 30
0.0
  0
ENDBLK
  5
1BE2
330
1BD6
100
AcDbEntity
  8
0
100
AcDbBlockEnd
  0
BLOCK
  5
1C0D
330
1C02
100
AcDbEntity
  8
0
100
AcDbBlockBegin
  2
*D4
 70
     1
 10
0.0
 20
0.0
 30
0.0
  3
*D4
  1

  0
LINE
  5
23CD
330
1C02
100
AcDbEntity
  8
DIM
 62
     0
370
    -2
100
AcDbLine
 10
1.726160513393367
 20
11.66345103111929
 30
0.0
 11
1.726160513393367
 21
10.71128028150364
 31
0.0
  0
LINE
  5
23CE
330
1C02
100
AcDbEntity
  8
DIM
 62
     0
370
    -2
100
AcDbLine
 10
4.285535513393298
 20
11.66345103111929
 30
0.0
 11
4.285535513393298
 21
10.71128028150364
 31
0.0
  0
LINE
  5
23CF
330
1C02
100
AcDbEntity
  8
DIM
 62
     0
370
    -2
100
AcDbLine
 10
1.951160513393367
 20
10.82753028150364
 30
0.0
 11
2.658973013393333
 21
10.82753028150364
 31
0.0
  0
LINE
  5
23D0
330
1C02
100
AcDbEntity
  8
DIM
 62
     0
370
    -2
100
AcDbLine
 10
4.060535513393299
 20
10.82753028150364
 30
0.0
 11
3.352723013393332
 21
10.82753028150364
 31
0.0
  0
SOLID
  5
23D1
330
1C02
100
AcDbEntity
  8
DIM
 62
     0
100
AcDbTrace
 10
1.951160513393367
 20
10.86503028150364
 30
0.0
 11
1.951160513393367
 21
10.79003028150364
 31
0.0
 12
1.726160513393367
 22
10.82753028150364
 32
0.0
 13
1.726160513393367
 23
10.82753028150364
 33
0.0
  0
SOLID
  5
23D2
330
1C02
100
AcDbEntity
  8
DIM
 62
     0
100
AcDbTrace
 10
4.060535513393299
 20
10.86503028150364
 30
0.0
 11
4.060535513393299
 21
10.79003028150364
 31
0.0
 12
4.285535513393298
 22
10.82753028150364
 32
0.0
 13
4.285535513393298
 23
10.82753028150364
 33
0.0
  0
MTEXT
  5
23D3
330
1C02
100
AcDbEntity
  8
DIM
 62
     0
100
AcDbMText
 10
3.005848013393332
 20
10.82753028150364
 30
0.0
 40
0.15625
 41
0.0
 71
     5
 72
     1
  1
\A1;2.559
 73
     1
 44
1.0
  0
POINT
  5
23D4
330
1C02
100
AcDbEntity
  8
Defpoints
 62
     0
100
AcDbPoint
 10
1.726160513393367
 20
11.74220103111929
 30
0.0
  0
POINT
  5
23D5
330
1C02
100
AcDbEntity
  8
Defpoints
 62
     0
100
AcDbPoint
 10
4.285535513393298
 20
11.74220103111929
 30
0.0
  0
POINT
  5
23D6
330
1C02
100
AcDbEntity
  8
Defpoints
 62
     0
100
AcDbPoint
 10
4.285535513393298
 20
10.82753028150364
 30
0.0
  0
ENDBLK
  5
1C0E
330
1C02
100
AcDbEntity
  8
0
100
AcDbBlockEnd
  0
BLOCK
  5
1C1B
330
1C10
100
AcDbEntity
  8
0
100
AcDbBlockBegin
  2
*D5
 70
     1
 10
0.0
 20
0.0
 30
0.0
  3
*D5
  1

  0
LINE
  5
23EB
330
1C10
100
AcDbEntity
  8
DIM
 62
     0
370
    -2
100
AcDbLine
 10
4.364285513393299
 20
11.74220103111929
 30
0.0
 11
5.35190008594646
 21
11.74220103111929
 31
0.0
  0
LINE
  5
23EC
330
1C10
100
AcDbEntity
  8
DIM
 62
     0
370
    -2
100
AcDbLine
 10
4.364285513393299
 20
16.46720103111965
 30
0.0
 11
5.351900085946461
 21
16.46720103111965
 31
0.0
  0
LINE
  5
23ED
330
1C10
100
AcDbEntity
  8
DIM
 62
     0
370
    -2
100
AcDbLine
 10
5.23565008594646
 20
11.96720103111929
 30
0.0
 11
5.23565008594646
 21
13.91407603111947
 31
0.0
  0
LINE
  5
23EE
330
1C10
100
AcDbEntity
  8
DIM
 62
     0
370
    -2
100
AcDbLine
 10
5.235650085946461
 20
16.24220103111965
 30
0.0
 11
5.235650085946461
 21
14.29532603111947
 31
0.0
  0
SOLID
  5
23EF
330
1C10
100
AcDbEntity
  8
DIM
 62
     0
100
AcDbTrace
 10
5.19815008594646
 20
11.96720103111929
 30
0.0
 11
5.273150085946459
 21
11.96720103111929
 31
0.0
 12
5.23565008594646
 22
11.74220103111929
 32
0.0
 13
5.23565008594646
 23
11.74220103111929
 33
0.0
  0
SOLID
  5
23F0
330
1C10
100
AcDbEntity
  8
DIM
 62
     0
100
AcDbTrace
 10
5.198150085946461
 20
16.24220103111965
 30
0.0
 11
5.27315008594646
 21
16.24220103111965
 31
0.0
 12
5.235650085946461
 22
16.46720103111965
 32
0.0
 13
5.235650085946461
 23
16.46720103111965
 33
0.0
  0
MTEXT
  5
23F1
330
1C10
100
AcDbEntity
  8
DIM
 62
     0
100
AcDbMText
 10
5.235650085946458
 20
14.10470103111947
 30
0.0
 40
0.15625
 41
0.0
 71
     5
 72
     1
  1
\A1;4.725
 73
     1
 44
1.0
  0
POINT
  5
23F2
330
1C10
100
AcDbEntity
  8
Defpoints
 62
     0
100
AcDbPoint
 10
4.285535513393298
 20
11.74220103111929
 30
0.0
  0
POINT
  5
23F3
330
1C10
100
AcDbEntity
  8
Defpoints
 62
     0
100
AcDbPoint
 10
4.285535513393298
 20
16.46720103111965
 30
0.0
  0
POINT
  5
23F4
330
1C10
100
AcDbEntity
  8
Defpoints
 62
     0
100
AcDbPoint
 10
5.235650085946461
 20
16.46720103111965
 30
0.0
  0
ENDBLK
  5
1C1C
330
1C10
100
AcDbEntity
  8
0
100
AcDbBlockEnd
  0
BLOCK
  5
1C82
330
1C77
100
AcDbEntity
  8
0
100
AcDbBlockBegin
  2
*D6
 70
     1
 10
0.0
 20
0.0
 30
0.0
  3
*D6
  1

  0
LINE
  5
2444
330
1C77
100
AcDbEntity
  8
DIM
 62
     0
370
    -2
100
AcDbLine
 10
11.08245992544573
 20
4.978701894089311
 30
0.0
 11
12.35839540848922
 21
4.978701894089311
 31
0.0
  0
LINE
  5
2445
330
1C77
100
AcDbEntity
  8
DIM
 62
     0
370
    -2
100
AcDbLine
 10
11.08245987575332
 20
6.553701824520061
 30
0.0
 11
12.35839540848922
 21
6.553701824520061
 31
0.0
  0
LINE
  5
2446
330
1C77
100
AcDbEntity
  8
DIM
 62
     0
370
    -2
100
AcDbLine
 10
12.24214540848922
 20
5.203701894089311
 30
0.0
 11
12.24214540848922
 21
5.575576859304686
 31
0.0
  0
LINE
  5
2447
330
1C77
100
AcDbEntity
  8
DIM
 62
     0
370
    -2
100
AcDbLine
 10
12.24214540848922
 20
6.328701824520061
 30
0.0
 11
12.24214540848922
 21
5.956826859304686
 31
0.0
  0
SOLID
  5
2448
330
1C77
100
AcDbEntity
  8
DIM
 62
     0
100
AcDbTrace
 10
12.20464540848922
 20
5.203701894089311
 30
0.0
 11
12.27964540848922
 21
5.203701894089311
 31
0.0
 12
12.24214540848922
 22
4.978701894089311
 32
0.0
 13
12.24214540848922
 23
4.978701894089311
 33
0.0
  0
SOLID
  5
2449
330
1C77
100
AcDbEntity
  8
DIM
 62
     0
100
AcDbTrace
 10
12.20464540848922
 20
6.328701824520061
 30
0.0
 11
12.27964540848922
 21
6.328701824520061
 31
0.0
 12
12.24214540848922
 22
6.553701824520061
 32
0.0
 13
12.24214540848922
 23
6.553701824520061
 33
0.0
  0
MTEXT
  5
244A
330
1C77
100
AcDbEntity
  8
DIM
 62
     0
100
AcDbMText
 10
12.24214540848922
 20
5.766201859304688
 30
0.0
 40
0.15625
 41
0.0
 71
     5
 72
     1
  1
\A1;1.575
 73
     1
 44
1.0
  0
POINT
  5
244B
330
1C77
100
AcDbEntity
  8
Defpoints
 62
     0
100
AcDbPoint
 10
11.00370992544573
 20
4.978701894089311
 30
0.0
  0
POINT
  5
244C
330
1C77
100
AcDbEntity
  8
Defpoints
 62
     0
100
AcDbPoint
 10
11.00370987575333
 20
6.553701824520061
 30
0.0
  0
POINT
  5
244D
330
1C77
100
AcDbEntity
  8
Defpoints
 62
     0
100
AcDbPoint
 10
12.24214540848922
 20
6.553701824520061
 30
0.0
  0
ENDBLK
  5
1C83
330
1C77
100
AcDbEntity
  8
0
100
AcDbBlockEnd
  0
BLOCK
  5
1C90
330
1C85
100
AcDbEntity
  8
0
100
AcDbBlockBegin
  2
*D7
 70
     1
 10
0.0
 20
0.0
 30
0.0
  3
*D7
  1

  0
LINE
  5
2430
330
1C85
100
AcDbEntity
  8
DIM
 62
     0
370
    -2
100
AcDbLine
 10
8.798709875753402
 20
6.632451824520061
 30
0.0
 11
8.798709875753402
 21
8.030685269894249
 31
0.0
  0
LINE
  5
2431
330
1C85
100
AcDbEntity
  8
DIM
 62
     0
370
    -2
100
AcDbLine
 10
11.00370987575333
 20
6.632451824520061
 30
0.0
 11
11.00370987575333
 21
8.030685269894249
 31
0.0
  0
LINE
  5
2432
330
1C85
100
AcDbEntity
  8
DIM
 62
     0
370
    -2
100
AcDbLine
 10
9.023709875753402
 20
7.914435269894248
 30
0.0
 11
9.564100500753365
 21
7.914435269894248
 31
0.0
  0
LINE
  5
2433
330
1C85
100
AcDbEntity
  8
DIM
 62
     0
370
    -2
100
AcDbLine
 10
10.77870987575333
 20
7.914435269894248
 30
0.0
 11
10.23831925075336
 21
7.914435269894248
 31
0.0
  0
SOLID
  5
2434
330
1C85
100
AcDbEntity
  8
DIM
 62
     0
100
AcDbTrace
 10
9.023709875753402
 20
7.951935269894248
 30
0.0
 11
9.023709875753402
 21
7.876935269894248
 31
0.0
 12
8.798709875753402
 22
7.914435269894248
 32
0.0
 13
8.798709875753402
 23
7.914435269894248
 33
0.0
  0
SOLID
  5
2435
330
1C85
100
AcDbEntity
  8
DIM
 62
     0
100
AcDbTrace
 10
10.77870987575333
 20
7.951935269894248
 30
0.0
 11
10.77870987575333
 21
7.876935269894248
 31
0.0
 12
11.00370987575333
 22
7.914435269894248
 32
0.0
 13
11.00370987575333
 23
7.914435269894248
 33
0.0
  0
MTEXT
  5
2436
330
1C85
100
AcDbEntity
  8
DIM
 62
     0
100
AcDbMText
 10
9.901209875753366
 20
7.914435269894248
 30
0.0
 40
0.15625
 41
0.0
 71
     5
 72
     1
  1
\A1;2.205
 73
     1
 44
1.0
  0
POINT
  5
2437
330
1C85
100
AcDbEntity
  8
Defpoints
 62
     0
100
AcDbPoint
 10
8.798709875753402
 20
6.553701824520061
 30
0.0
  0
POINT
  5
2438
330
1C85
100
AcDbEntity
  8
Defpoints
 62
     0
100
AcDbPoint
 10
11.00370987575333
 20
6.553701824520061
 30
0.0
  0
POINT
  5
2439
330
1C85
100
AcDbEntity
  8
Defpoints
 62
     0
100
AcDbPoint
 10
11.00370987575333
 20
7.914435269894248
 30
0.0
  0
ENDBLK
  5
1C91
330
1C85
100
AcDbEntity
  8
0
100
AcDbBlockEnd
  0
BLOCK
  5
1CB6
330
1CAB
100
AcDbEntity
  8
0
100
AcDbBlockBegin
  2
*D8
 70
     1
 10
0.0
 20
0.0
 30
0.0
  3
*D8
  1

  0
LINE
  5
2426
330
1CAB
100
AcDbEntity
  8
DIM
 62
     0
370
    -2
100
AcDbLine
 10
6.743413784367177
 20
6.376514324520242
 30
0.0
 11
6.743413784367177
 21
5.842467918971061
 31
0.0
  0
LINE
  5
2427
330
1CAB
100
AcDbEntity
  8
DIM
 62
     0
370
    -2
100
AcDbLine
 10
6.940288784367239
 20
5.910788454393673
 30
0.0
 11
6.940288784367239
 21
5.842467918971061
 31
0.0
  0
LINE
  5
2428
330
1CAB
100
AcDbEntity
  8
DIM
 62
     0
370
    -2
100
AcDbLine
 10
6.518413784367178
 20
5.958717918971061
 30
0.0
 11
6.293413784367177
 21
5.958717918971061
 31
0.0
  0
LINE
  5
2429
330
1CAB
100
AcDbEntity
  8
DIM
 62
     0
370
    -2
100
AcDbLine
 10
7.165288784367239
 20
5.958717918971061
 30
0.0
 11
7.390288784367239
 21
5.958717918971061
 31
0.0
  0
SOLID
  5
242A
330
1CAB
100
AcDbEntity
  8
DIM
 62
     0
100
AcDbTrace
 10
6.518413784367178
 20
5.99621791897106
 30
0.0
 11
6.518413784367178
 21
5.921217918971061
 31
0.0
 12
6.743413784367177
 22
5.958717918971061
 32
0.0
 13
6.743413784367177
 23
5.958717918971061
 33
0.0
  0
SOLID
  5
242B
330
1CAB
100
AcDbEntity
  8
DIM
 62
     0
100
AcDbTrace
 10
7.165288784367239
 20
5.99621791897106
 30
0.0
 11
7.165288784367239
 21
5.921217918971061
 31
0.0
 12
6.940288784367239
 22
5.958717918971061
 32
0.0
 13
6.940288784367239
 23
5.958717918971061
 33
0.0
  0
MTEXT
  5
242C
330
1CAB
100
AcDbEntity
  8
DIM
 62
     0
100
AcDbMText
 10
7.707866909367239
 20
5.958717918971061
 30
0.0
 40
0.15625
 41
0.0
 71
     5
 72
     1
  1
\A1;0.197
 73
     1
 44
1.0
  0
POINT
  5
242D
330
1CAB
100
AcDbEntity
  8
Defpoints
 62
     0
100
AcDbPoint
 10
6.743413784367177
 20
6.455264324520243
 30
0.0
  0
POINT
  5
242E
330
1CAB
100
AcDbEntity
  8
Defpoints
 62
     0
100
AcDbPoint
 10
6.940288784367239
 20
5.989538454393673
 30
0.0
  0
POINT
  5
242F
330
1CAB
100
AcDbEntity
  8
Defpoints
 62
     0
100
AcDbPoint
 10
6.940288784367239
 20
5.958717918971061
 30
0.0
  0
ENDBLK
  5
1CB7
330
1CAB
100
AcDbEntity
  8
0
100
AcDbBlockEnd
  0
BLOCK
  5
2223
330
2217
100
AcDbEntity
  8
0
100
AcDbBlockBegin
  2
*D9
 70
     1
 10
0.0
 20
0.0
 30
0.0
  3
*D9
  1

  0
LINE
  5
243A
330
2217
100
AcDbEntity
  8
DIM
 62
     0
370
    -2
100
AcDbLine
 10
11.08245992544573
 20
4.978701894089311
 30
0.0
 11
12.35839540848922
 21
4.978701894089311
 31
0.0
  0
LINE
  5
243B
330
2217
100
AcDbEntity
  8
DIM
 62
     0
370
    -2
100
AcDbLine
 10
11.77115783687872
 20
4.584951824520061
 30
0.0
 11
12.35839540848922
 21
4.584951824520061
 31
0.0
  0
LINE
  5
243C
330
2217
100
AcDbEntity
  8
DIM
 62
     0
370
    -2
100
AcDbLine
 10
12.24214540848922
 20
5.203701894089311
 30
0.0
 11
12.24214540848922
 21
5.428701894089312
 31
0.0
  0
LINE
  5
243D
330
2217
100
AcDbEntity
  8
DIM
 62
     0
370
    -2
100
AcDbLine
 10
12.24214540848922
 20
4.359951824520061
 30
0.0
 11
12.24214540848922
 21
4.134951824520061
 31
0.0
  0
SOLID
  5
243E
330
2217
100
AcDbEntity
  8
DIM
 62
     0
100
AcDbTrace
 10
12.20464540848922
 20
5.203701894089311
 30
0.0
 11
12.27964540848922
 21
5.203701894089311
 31
0.0
 12
12.24214540848922
 22
4.978701894089311
 32
0.0
 13
12.24214540848922
 23
4.978701894089311
 33
0.0
  0
SOLID
  5
243F
330
2217
100
AcDbEntity
  8
DIM
 62
     0
100
AcDbTrace
 10
12.20464540848922
 20
4.359951824520061
 30
0.0
 11
12.27964540848922
 21
4.359951824520061
 31
0.0
 12
12.24214540848922
 22
4.584951824520061
 32
0.0
 13
12.24214540848922
 23
4.584951824520061
 33
0.0
  0
MTEXT
  5
2440
330
2217
100
AcDbEntity
  8
DIM
 62
     0
100
AcDbMText
 10
12.24214540848922
 20
4.781826859304688
 30
0.0
 40
0.15625
 41
0.0
 71
     5
 72
     1
  1
\A1;0.394
 73
     1
 44
1.0
  0
POINT
  5
2441
330
2217
100
AcDbEntity
  8
Defpoints
 62
     0
100
AcDbPoint
 10
11.00370992544573
 20
4.978701894089311
 30
0.0
  0
POINT
  5
2442
330
2217
100
AcDbEntity
  8
Defpoints
 62
     0
100
AcDbPoint
 10
11.69240783687872
 20
4.584951824520061
 30
0.0
  0
POINT
  5
2443
330
2217
100
AcDbEntity
  8
Defpoints
 62
     0
100
AcDbPoint
 10
12.24214540848922
 20
4.584951824520061
 30
0.0
  0
ENDBLK
  5
2224
330
2217
100
AcDbEntity
  8
0
100
AcDbBlockEnd
  0
BLOCK
  5
3042
330
3037
100
AcDbEntity
  8
0
100
AcDbBlockBegin
  2
*D10
 70
     1
 10
0.0
 20
0.0
 30
0.0
  3
*D10
  1

  0
LINE
  5
3093
330
3037
100
AcDbEntity
  8
DIM
 62
     0
370
    -2
100
AcDbLine
 10
6.940288784367187
 20
5.52039843398814
 30
0.0
 11
6.940288784367187
 21
5.464069613095184
 31
0.0
  0
LINE
  5
3094
330
3037
100
AcDbEntity
  8
DIM
 62
     0
370
    -2
100
AcDbLine
 10
7.026913784367181
 20
5.52039843398814
 30
0.0
 11
7.026913784367181
 21
5.464069613095184
 31
0.0
  0
LINE
  5
3095
330
3037
100
AcDbEntity
  8
DIM
 62
     0
370
    -2
100
AcDbLine
 10
6.715288784367188
 20
5.580319613095184
 30
0.0
 11
6.490288784367187
 21
5.580319613095184
 31
0.0
  0
LINE
  5
3096
330
3037
100
AcDbEntity
  8
DIM
 62
     0
370
    -2
100
AcDbLine
 10
7.251913784367181
 20
5.580319613095184
 30
0.0
 11
7.476913784367181
 21
5.580319613095184
 31
0.0
  0
SOLID
  5
3097
330
3037
100
AcDbEntity
  8
DIM
 62
     0
100
AcDbTrace
 10
6.715288784367188
 20
5.617819613095184
 30
0.0
 11
6.715288784367188
 21
5.542819613095185
 31
0.0
 12
6.940288784367187
 22
5.580319613095184
 32
0.0
 13
6.940288784367187
 23
5.580319613095184
 33
0.0
  0
SOLID
  5
3098
330
3037
100
AcDbEntity
  8
DIM
 62
     0
100
AcDbTrace
 10
7.251913784367181
 20
5.617819613095184
 30
0.0
 11
7.251913784367181
 21
5.542819613095185
 31
0.0
 12
7.026913784367181
 22
5.580319613095184
 32
0.0
 13
7.026913784367181
 23
5.580319613095184
 33
0.0
  0
MTEXT
  5
3099
330
3037
100
AcDbEntity
  8
DIM
 62
     0
100
AcDbMText
 10
7.804257534367181
 20
5.580319613095184
 30
0.0
 40
0.15625
 41
0.0
 71
     5
 72
     1
  1
\A1;0.087
 73
     1
 44
1.0
  0
POINT
  5
309A
330
3037
100
AcDbEntity
  8
Defpoints
 62
     0
100
AcDbPoint
 10
6.940288784367187
 20
5.59914843398814
 30
0.0
  0
POINT
  5
309B
330
3037
100
AcDbEntity
  8
Defpoints
 62
     0
100
AcDbPoint
 10
7.026913784367181
 20
5.59914843398814
 30
0.0
  0
POINT
  5
309C
330
3037
100
AcDbEntity
  8
Defpoints
 62
     0
100
AcDbPoint
 10
7.026913784367181
 20
5.580319613095184
 30
0.0
  0
ENDBLK
  5
3043
330
3037
100
AcDbEntity
  8
0
100
AcDbBlockEnd
  0
BLOCK
  5
305A
330
304F
100
AcDbEntity
  8
0
100
AcDbBlockBegin
  2
*D11
 70
     1
 10
0.0
 20
0.0
 30
0.0
  3
*D11
  1

  0
LINE
  5
305C
330
304F
100
AcDbEntity
  8
DIM
 62
     0
370
    -2
100
AcDbLine
 10
6.357538784367122
 20
7.451451824520476
 30
0.0
 11
6.357538784367122
 21
8.025921328382395
 31
0.0
  0
LINE
  5
305D
330
304F
100
AcDbEntity
  8
DIM
 62
     0
370
    -2
100
AcDbLine
 10
7.026913784367202
 20
7.301640358964463
 30
0.0
 11
7.026913784367202
 21
8.025921328382395
 31
0.0
  0
LINE
  5
305E
330
304F
100
AcDbEntity
  8
DIM
 62
     0
370
    -2
100
AcDbLine
 10
6.132538784367122
 20
7.909671328382394
 30
0.0
 11
5.907538784367122
 21
7.909671328382394
 31
0.0
  0
LINE
  5
305F
330
304F
100
AcDbEntity
  8
DIM
 62
     0
370
    -2
100
AcDbLine
 10
7.251913784367202
 20
7.909671328382394
 30
0.0
 11
7.476913784367202
 21
7.909671328382394
 31
0.0
  0
SOLID
  5
3060
330
304F
100
AcDbEntity
  8
DIM
 62
     0
100
AcDbTrace
 10
6.132538784367122
 20
7.947171328382394
 30
0.0
 11
6.132538784367122
 21
7.872171328382394
 31
0.0
 12
6.357538784367122
 22
7.909671328382394
 32
0.0
 13
6.357538784367122
 23
7.909671328382394
 33
0.0
  0
SOLID
  5
3061
330
304F
100
AcDbEntity
  8
DIM
 62
     0
100
AcDbTrace
 10
7.251913784367202
 20
7.947171328382394
 30
0.0
 11
7.251913784367202
 21
7.872171328382394
 31
0.0
 12
7.026913784367202
 22
7.909671328382394
 32
0.0
 13
7.026913784367202
 23
7.909671328382394
 33
0.0
  0
MTEXT
  5
3062
330
304F
100
AcDbEntity
  8
DIM
 62
     0
100
AcDbMText
 10
6.692226284367162
 20
7.909671328382394
 30
0.0
 40
0.15625
 41
0.0
 71
     5
 72
     1
  1
\A1;0.669
 73
     1
 44
1.0
  0
POINT
  5
3063
330
304F
100
AcDbEntity
  8
Defpoints
 62
     0
100
AcDbPoint
 10
6.357538784367122
 20
7.372701824520476
 30
0.0
  0
POINT
  5
3064
330
304F
100
AcDbEntity
  8
Defpoints
 62
     0
100
AcDbPoint
 10
7.026913784367202
 20
7.222890358964463
 30
0.0
  0
POINT
  5
3065
330
304F
100
AcDbEntity
  8
Defpoints
 62
     0
100
AcDbPoint
 10
7.026913784367202
 20
7.909671328382394
 30
0.0
  0
ENDBLK
  5
305B
330
304F
100
AcDbEntity
  8
0
100
AcDbBlockEnd
  0
ENDSEC
  0
SECTION
  2
ENTITIES
  0
MTEXT
  5
82F
330
1E
100
AcDbEntity
  8
0
 62
     1
100
AcDbMText
 10
340.9770380334069
 20
144.948411974741
 30
0.0
 40
4.0
 41
0.0
 71
     9
 72
     1
  1

  7
Standard
 73
     1
 44
1.0
1001
ACAD
1000
MTEXTBEGIN
1070
    73
1070
     1
1070
    44
1040
1.0
1070
    74
1070
     0
1000
MTEXTEND
  0
MTEXT
  5
830
330
1E
100
AcDbEntity
  8
\M+2BBB2\M+2A755\M+2BD75
 62
     1
100
AcDbMText
 10
-4442.163630678289
 20
4205.20336559495
 30
0.0
 40
3.5
 41
0.0
 71
     1
 72
     1
  1

  7
Standard
 73
     1
 44
1.0
1001
ACAD
1000
MTEXTBEGIN
1070
    73
1070
     1
1070
    44
1040
1.0
1070
    74
1070
     0
1000
MTEXTEND
  0
LINE
  5
87E
330
1E
100
AcDbEntity
  8
OBJECT
100
AcDbLine
 10
4.777459122592674
 20
14.20313853111929
 30
0.0
 11
4.737950191957381
 21
14.20313853111929
 31
0.0
  0
LINE
  5
87F
330
1E
100
AcDbEntity
  8
OBJECT
100
AcDbLine
 10
4.777459122592674
 20
14.20313853111929
 30
0.0
 11
4.737950191957381
 21
14.20313853111929
 31
0.0
  0
LINE
  5
880
330
1E
100
AcDbEntity
  8
OBJECT
100
AcDbLine
 10
4.731333717976141
 20
13.02188853111965
 30
0.0
 11
4.693467562124212
 21
13.02188853111965
 31
0.0
  0
LINE
  5
886
330
1E
100
AcDbEntity
  8
CENTER
100
AcDbLine
 10
3.005848013393276
 20
16.95938853111965
 30
0.0
 11
3.005847833258414
 21
11.25001353111929
 31
0.0
  0
LINE
  5
887
330
1E
100
AcDbEntity
  8
CENTER
100
AcDbLine
 10
1.214388307835562
 20
14.10470103112038
 30
0.0
 11
4.797046002470594
 21
14.10470103111947
 31
0.0
  0
LINE
  5
8AC
330
1E
100
AcDbEntity
  8
OBJECT
100
AcDbLine
 10
7.026913784367181
 20
11.46676249667598
 30
0.0
 11
7.026913784367181
 21
12.03751353111965
 31
0.0
  0
LINE
  5
8AD
330
1E
100
AcDbEntity
  8
OBJECT
100
AcDbLine
 10
7.026913784367181
 20
12.2343885311202
 30
0.0
 11
7.026913784367181
 21
12.33282603112002
 31
0.0
  0
LINE
  5
8AE
330
1E
100
AcDbEntity
  8
OBJECT
100
AcDbLine
 10
7.026913784367181
 20
16.1718885311202
 30
0.0
 11
7.026913784367181
 21
16.74263956556387
 31
0.0
  0
ARC
  5
8AF
330
1E
100
AcDbEntity
  8
OBJECT
100
AcDbCircle
 10
6.830038784367204
 20
16.74263956556387
 30
0.0
 40
0.196875
100
AcDbArc
 50
0.0
 51
86.99999999999439
  0
ARC
  5
8B0
330
1E
100
AcDbEntity
  8
OBJECT
100
AcDbCircle
 10
6.830038784367204
 20
11.46676249667598
 30
0.0
 40
0.196875
100
AcDbArc
 50
273.0000000000056
 51
0.0
  0
LINE
  5
8B1
330
1E
100
AcDbEntity
  8
OBJECT
100
AcDbLine
 10
6.455976284367167
 20
11.2500135311202
 30
0.0
 11
6.840342425752439
 21
11.27015730702169
 31
0.0
  0
LINE
  5
8B2
330
1E
100
AcDbEntity
  8
OBJECT
100
AcDbLine
 10
6.455976284367167
 20
16.95938853111965
 30
0.0
 11
6.840342425752439
 21
16.93924475521817
 31
0.0
  0
LINE
  5
8B3
330
1E
100
AcDbEntity
  8
OBJECT
100
AcDbLine
 10
7.026913784367181
 20
12.2343885311202
 30
0.0
 11
6.455976284367167
 21
12.2343885311202
 31
0.0
  0
ARC
  5
8B4
330
1E
100
AcDbEntity
  8
OBJECT
100
AcDbCircle
 10
7.026913784367181
 20
12.21470103112005
 30
0.0
 40
0.0196875
100
AcDbArc
 50
0.0
 51
90.0
  0
LINE
  5
8B5
330
1E
100
AcDbEntity
  8
OBJECT
100
AcDbLine
 10
7.026913784367181
 20
12.43126353111984
 30
0.0
 11
6.455976284367167
 21
12.43126353111984
 31
0.0
  0
LINE
  5
8B6
330
1E
100
AcDbEntity
  8
OBJECT
100
AcDbLine
 10
7.026913784367181
 20
12.62813853111947
 30
0.0
 11
6.455976284367167
 21
12.62813853111947
 31
0.0
  0
LINE
  5
8B7
330
1E
100
AcDbEntity
  8
OBJECT
100
AcDbLine
 10
7.026913784367181
 20
12.82501353112002
 30
0.0
 11
6.455976284367167
 21
12.82501353112002
 31
0.0
  0
ARC
  5
8B8
330
1E
100
AcDbEntity
  8
OBJECT
100
AcDbCircle
 10
7.026913784367181
 20
12.60845103112024
 30
0.0
 40
0.0196875
100
AcDbArc
 50
0.0
 51
90.0
  0
LINE
  5
8B9
330
1E
100
AcDbEntity
  8
OBJECT
100
AcDbLine
 10
7.026913784367181
 20
12.03751353111965
 30
0.0
 11
6.455976284367167
 21
12.03751353111965
 31
0.0
  0
LINE
  5
8BA
330
1E
100
AcDbEntity
  8
OBJECT
100
AcDbLine
 10
7.046601284367099
 20
12.0572010311198
 30
0.0
 11
7.046601284367099
 21
12.21470103112005
 31
0.0
  0
ARC
  5
8BB
330
1E
100
AcDbEntity
  8
OBJECT
100
AcDbCircle
 10
7.026913784367181
 20
12.0572010311198
 30
0.0
 40
0.0196875
100
AcDbArc
 50
270.0
 51
0.0
  0
LINE
  5
8BC
330
1E
100
AcDbEntity
  8
OBJECT
100
AcDbLine
 10
7.046601284367099
 20
12.45095103111998
 30
0.0
 11
7.046601284367099
 21
12.60845103112024
 31
0.0
  0
ARC
  5
8BD
330
1E
100
AcDbEntity
  8
OBJECT
100
AcDbCircle
 10
7.026913784367181
 20
12.45095103111998
 30
0.0
 40
0.0196875
100
AcDbArc
 50
270.0
 51
0.0
  0
LINE
  5
8BE
330
1E
100
AcDbEntity
  8
OBJECT
100
AcDbLine
 10
7.026913784367181
 20
13.02188853111965
 30
0.0
 11
6.455976284367167
 21
13.02188853111965
 31
0.0
  0
ARC
  5
8BF
330
1E
100
AcDbEntity
  8
OBJECT
100
AcDbCircle
 10
7.026913784367181
 20
13.00220103111951
 30
0.0
 40
0.0196875
100
AcDbArc
 50
0.0
 51
90.0
  0
LINE
  5
8C0
330
1E
100
AcDbEntity
  8
OBJECT
100
AcDbLine
 10
7.026913784367181
 20
13.2187635311202
 30
0.0
 11
6.455976284367167
 21
13.2187635311202
 31
0.0
  0
LINE
  5
8C1
330
1E
100
AcDbEntity
  8
OBJECT
100
AcDbLine
 10
7.026913784367181
 20
13.41563853111984
 30
0.0
 11
6.455976284367167
 21
13.41563853111984
 31
0.0
  0
LINE
  5
8C2
330
1E
100
AcDbEntity
  8
OBJECT
100
AcDbLine
 10
7.026913784367181
 20
13.61251353111947
 30
0.0
 11
6.455976284367167
 21
13.61251353111947
 31
0.0
  0
ARC
  5
8C3
330
1E
100
AcDbEntity
  8
OBJECT
100
AcDbCircle
 10
7.026913784367181
 20
13.39595103111969
 30
0.0
 40
0.0196875
100
AcDbArc
 50
0.0
 51
90.0
  0
LINE
  5
8C4
330
1E
100
AcDbEntity
  8
OBJECT
100
AcDbLine
 10
7.046601284367099
 20
12.84470103112016
 30
0.0
 11
7.046601284367099
 21
13.00220103111951
 31
0.0
  0
ARC
  5
8C5
330
1E
100
AcDbEntity
  8
OBJECT
100
AcDbCircle
 10
7.026913784367181
 20
12.84470103112016
 30
0.0
 40
0.0196875
100
AcDbArc
 50
270.0
 51
0.0
  0
LINE
  5
8C6
330
1E
100
AcDbEntity
  8
OBJECT
100
AcDbLine
 10
7.046601284367099
 20
13.23845103111944
 30
0.0
 11
7.046601284367099
 21
13.39595103111969
 31
0.0
  0
ARC
  5
8C7
330
1E
100
AcDbEntity
  8
OBJECT
100
AcDbCircle
 10
7.026913784367181
 20
13.23845103111944
 30
0.0
 40
0.0196875
100
AcDbArc
 50
270.0
 51
0.0
  0
LINE
  5
8C8
330
1E
100
AcDbEntity
  8
OBJECT
100
AcDbLine
 10
7.026913784367181
 20
13.80938853112002
 30
0.0
 11
6.455976284367167
 21
13.80938853112002
 31
0.0
  0
ARC
  5
8C9
330
1E
100
AcDbEntity
  8
OBJECT
100
AcDbCircle
 10
7.026913784367181
 20
13.78970103111987
 30
0.0
 40
0.0196875
100
AcDbArc
 50
0.0
 51
90.0
  0
LINE
  5
8CA
330
1E
100
AcDbEntity
  8
OBJECT
100
AcDbLine
 10
7.026913784367181
 20
14.00626353111965
 30
0.0
 11
6.455976284367167
 21
14.00626353111965
 31
0.0
  0
LINE
  5
8CB
330
1E
100
AcDbEntity
  8
OBJECT
100
AcDbLine
 10
7.026913784367181
 20
14.2031385311202
 30
0.0
 11
6.455976284367167
 21
14.2031385311202
 31
0.0
  0
LINE
  5
8CC
330
1E
100
AcDbEntity
  8
OBJECT
100
AcDbLine
 10
7.026913784367181
 20
14.40001353111983
 30
0.0
 11
6.455976284367167
 21
14.40001353111983
 31
0.0
  0
ARC
  5
8CD
330
1E
100
AcDbEntity
  8
OBJECT
100
AcDbCircle
 10
7.026913784367181
 20
14.18345103112005
 30
0.0
 40
0.0196875
100
AcDbArc
 50
0.0
 51
90.0
  0
LINE
  5
8CE
330
1E
100
AcDbEntity
  8
OBJECT
100
AcDbLine
 10
7.046601284367099
 20
13.63220103111962
 30
0.0
 11
7.046601284367099
 21
13.78970103111987
 31
0.0
  0
ARC
  5
8CF
330
1E
100
AcDbEntity
  8
OBJECT
100
AcDbCircle
 10
7.026913784367181
 20
13.63220103111962
 30
0.0
 40
0.0196875
100
AcDbArc
 50
270.0
 51
0.0
  0
LINE
  5
8D0
330
1E
100
AcDbEntity
  8
OBJECT
100
AcDbLine
 10
7.046601284367099
 20
14.0259510311198
 30
0.0
 11
7.046601284367099
 21
14.18345103112005
 31
0.0
  0
ARC
  5
8D1
330
1E
100
AcDbEntity
  8
OBJECT
100
AcDbCircle
 10
7.026913784367181
 20
14.0259510311198
 30
0.0
 40
0.0196875
100
AcDbArc
 50
270.0
 51
0.0
  0
LINE
  5
8D2
330
1E
100
AcDbEntity
  8
OBJECT
100
AcDbLine
 10
7.026913784367181
 20
14.59688853111947
 30
0.0
 11
6.455976284367167
 21
14.59688853111947
 31
0.0
  0
ARC
  5
8D3
330
1E
100
AcDbEntity
  8
OBJECT
100
AcDbCircle
 10
7.026913784367181
 20
14.57720103112023
 30
0.0
 40
0.0196875
100
AcDbArc
 50
0.0
 51
90.0
  0
LINE
  5
8D4
330
1E
100
AcDbEntity
  8
OBJECT
100
AcDbLine
 10
7.026913784367181
 20
14.79376353112002
 30
0.0
 11
6.455976284367167
 21
14.79376353112002
 31
0.0
  0
LINE
  5
8D5
330
1E
100
AcDbEntity
  8
OBJECT
100
AcDbLine
 10
7.026913784367181
 20
14.99063853111965
 30
0.0
 11
6.455976284367167
 21
14.99063853111965
 31
0.0
  0
LINE
  5
8D6
330
1E
100
AcDbEntity
  8
OBJECT
100
AcDbLine
 10
7.026913784367181
 20
15.1875135311202
 30
0.0
 11
6.455976284367167
 21
15.1875135311202
 31
0.0
  0
ARC
  5
8D7
330
1E
100
AcDbEntity
  8
OBJECT
100
AcDbCircle
 10
7.026913784367181
 20
14.97095103111951
 30
0.0
 40
0.0196875
100
AcDbArc
 50
0.0
 51
90.0
  0
LINE
  5
8D8
330
1E
100
AcDbEntity
  8
OBJECT
100
AcDbLine
 10
7.046601284367099
 20
14.41970103111998
 30
0.0
 11
7.046601284367099
 21
14.57720103112023
 31
0.0
  0
ARC
  5
8D9
330
1E
100
AcDbEntity
  8
OBJECT
100
AcDbCircle
 10
7.026913784367181
 20
14.41970103111998
 30
0.0
 40
0.0196875
100
AcDbArc
 50
270.0
 51
0.0
  0
LINE
  5
8DA
330
1E
100
AcDbEntity
  8
OBJECT
100
AcDbLine
 10
7.046601284367099
 20
14.81345103112016
 30
0.0
 11
7.046601284367099
 21
14.97095103111951
 31
0.0
  0
ARC
  5
8DB
330
1E
100
AcDbEntity
  8
OBJECT
100
AcDbCircle
 10
7.026913784367181
 20
14.81345103112016
 30
0.0
 40
0.0196875
100
AcDbArc
 50
270.0
 51
0.0
  0
LINE
  5
8DC
330
1E
100
AcDbEntity
  8
OBJECT
100
AcDbLine
 10
7.026913784367181
 20
15.1875135311202
 30
0.0
 11
6.455976284367167
 21
15.1875135311202
 31
0.0
  0
LINE
  5
8DD
330
1E
100
AcDbEntity
  8
OBJECT
100
AcDbLine
 10
7.026913784367181
 20
15.38438853111983
 30
0.0
 11
6.455976284367167
 21
15.38438853111983
 31
0.0
  0
LINE
  5
8DE
330
1E
100
AcDbEntity
  8
OBJECT
100
AcDbLine
 10
7.026913784367181
 20
15.58126353111947
 30
0.0
 11
6.455976284367167
 21
15.58126353111947
 31
0.0
  0
ARC
  5
8DF
330
1E
100
AcDbEntity
  8
OBJECT
100
AcDbCircle
 10
7.026913784367181
 20
15.36470103111969
 30
0.0
 40
0.0196875
100
AcDbArc
 50
0.0
 51
90.0
  0
LINE
  5
8E0
330
1E
100
AcDbEntity
  8
OBJECT
100
AcDbLine
 10
7.046601284367099
 20
15.20720103111943
 30
0.0
 11
7.046601284367099
 21
15.36470103111969
 31
0.0
  0
ARC
  5
8E1
330
1E
100
AcDbEntity
  8
OBJECT
100
AcDbCircle
 10
7.026913784367181
 20
15.20720103111943
 30
0.0
 40
0.0196875
100
AcDbArc
 50
270.0
 51
0.0
  0
LINE
  5
8E2
330
1E
100
AcDbEntity
  8
OBJECT
100
AcDbLine
 10
7.026913784367181
 20
15.77813853112002
 30
0.0
 11
6.455976284367167
 21
15.77813853112002
 31
0.0
  0
ARC
  5
8E3
330
1E
100
AcDbEntity
  8
OBJECT
100
AcDbCircle
 10
7.026913784367181
 20
15.75845103111987
 30
0.0
 40
0.0196875
100
AcDbArc
 50
0.0
 51
90.0
  0
LINE
  5
8E4
330
1E
100
AcDbEntity
  8
OBJECT
100
AcDbLine
 10
7.026913784367181
 20
15.97501353111965
 30
0.0
 11
6.455976284367167
 21
15.97501353111965
 31
0.0
  0
LINE
  5
8E5
330
1E
100
AcDbEntity
  8
OBJECT
100
AcDbLine
 10
7.026913784367181
 20
16.1718885311202
 30
0.0
 11
6.455976284367167
 21
16.1718885311202
 31
0.0
  0
ARC
  5
8E6
330
1E
100
AcDbEntity
  8
OBJECT
100
AcDbCircle
 10
7.026913784367181
 20
16.15220103112005
 30
0.0
 40
0.0196875
100
AcDbArc
 50
0.0
 51
90.0
  0
LINE
  5
8E7
330
1E
100
AcDbEntity
  8
OBJECT
100
AcDbLine
 10
7.046601284367099
 20
15.60095103111962
 30
0.0
 11
7.046601284367099
 21
15.75845103111987
 31
0.0
  0
ARC
  5
8E8
330
1E
100
AcDbEntity
  8
OBJECT
100
AcDbCircle
 10
7.026913784367181
 20
15.60095103111962
 30
0.0
 40
0.0196875
100
AcDbArc
 50
270.0
 51
0.0
  0
LINE
  5
8E9
330
1E
100
AcDbEntity
  8
OBJECT
100
AcDbLine
 10
7.046601284367099
 20
15.9947010311198
 30
0.0
 11
7.046601284367099
 21
16.15220103112005
 31
0.0
  0
ARC
  5
8EA
330
1E
100
AcDbEntity
  8
OBJECT
100
AcDbCircle
 10
7.026913784367181
 20
15.9947010311198
 30
0.0
 40
0.0196875
100
AcDbArc
 50
270.0
 51
0.0
  0
LINE
  5
8EB
330
1E
100
AcDbEntity
  8
OBJECT
100
AcDbLine
 10
7.026913784367067
 20
14.59688853111947
 30
0.0
 11
7.026913784367067
 21
14.79376353112002
 31
0.0
  0
LINE
  5
8EC
330
1E
100
AcDbEntity
  8
OBJECT
100
AcDbLine
 10
7.026913784367067
 20
14.99063853111965
 30
0.0
 11
7.026913784367067
 21
15.1875135311202
 31
0.0
  0
LINE
  5
8ED
330
1E
100
AcDbEntity
  8
OBJECT
100
AcDbLine
 10
7.026913784367067
 20
15.38438853111983
 30
0.0
 11
7.026913784367067
 21
15.58126353111947
 31
0.0
  0
LINE
  5
8EE
330
1E
100
AcDbEntity
  8
OBJECT
100
AcDbLine
 10
7.026913784367067
 20
15.77813853112002
 30
0.0
 11
7.026913784367067
 21
15.97501353111965
 31
0.0
  0
LINE
  5
8EF
330
1E
100
AcDbEntity
  8
OBJECT
100
AcDbLine
 10
7.026913784367181
 20
14.40001353111983
 30
0.0
 11
7.026913784367181
 21
14.2031385311202
 31
0.0
  0
LINE
  5
8F0
330
1E
100
AcDbEntity
  8
OBJECT
100
AcDbLine
 10
7.026913784367181
 20
14.00626353111965
 30
0.0
 11
7.026913784367181
 21
13.80938853112002
 31
0.0
  0
LINE
  5
8F1
330
1E
100
AcDbEntity
  8
OBJECT
100
AcDbLine
 10
7.026913784367181
 20
13.61251353111947
 30
0.0
 11
7.026913784367181
 21
13.41563853111984
 31
0.0
  0
LINE
  5
8F2
330
1E
100
AcDbEntity
  8
OBJECT
100
AcDbLine
 10
7.026913784367181
 20
13.2187635311202
 30
0.0
 11
7.026913784367181
 21
13.02188853111965
 31
0.0
  0
LINE
  5
8F3
330
1E
100
AcDbEntity
  8
OBJECT
100
AcDbLine
 10
7.026913784367181
 20
12.82501353112002
 30
0.0
 11
7.026913784367181
 21
12.62813853111947
 31
0.0
  0
LINE
  5
8F4
330
1E
100
AcDbEntity
  8
OBJECT
100
AcDbLine
 10
7.026913784367181
 20
12.43126353111984
 30
0.0
 11
7.026913784367181
 21
12.2343885311202
 31
0.0
  0
LINE
  5
8F5
330
1E
100
AcDbEntity
  8
OBJECT
100
AcDbLine
 10
6.455976284367167
 20
16.95938853111965
 30
0.0
 11
6.455976284367167
 21
11.2500135311202
 31
0.0
  0
ARC
  5
95D
330
1E
100
AcDbEntity
  8
OBJECT
100
AcDbCircle
 10
14.32677574776839
 20
14.10470103111947
 30
0.0
 40
13.09280273437504
100
AcDbArc
 50
169.4053905639325
 51
170.9157102196568
  0
ARC
  5
95E
330
1E
100
AcDbEntity
  8
OBJECT
100
AcDbCircle
 10
14.32677574776839
 20
14.10470103111947
 30
0.0
 40
13.09280273437504
100
AcDbArc
 50
189.0842897803431
 51
190.5946094360674
  0
ARC
  5
960
330
1E
100
AcDbEntity
  8
OBJECT
100
AcDbCircle
 10
-8.315079720981614
 20
14.10470103111947
 30
0.0
 40
13.09280273437495
100
AcDbArc
 50
349.4053905639326
 51
350.9157102196567
  0
ARC
  5
961
330
1E
100
AcDbEntity
  8
OBJECT
100
AcDbCircle
 10
-8.315079720981614
 20
14.10470103111947
 30
0.0
 40
13.09280273437495
100
AcDbArc
 50
9.084289780343173
 51
10.59460943606738
  0
ARC
  5
962
330
1E
100
AcDbEntity
  8
OBJECT
100
AcDbCircle
 10
3.005848013393276
 20
11.15221214426947
 30
0.0
 40
5.807176386849635
100
AcDbArc
 50
77.60882170618033
 51
102.3911782938196
  0
ARC
  5
963
330
1E
100
AcDbEntity
  8
OBJECT
100
AcDbCircle
 10
1.844208190841797
 20
16.43953454492839
 30
0.0
 40
0.39375
100
AcDbArc
 50
102.3911782938196
 51
169.4053905639325
  0
ARC
  5
964
330
1E
100
AcDbEntity
  8
OBJECT
100
AcDbCircle
 10
4.167487835944754
 20
16.43953454492839
 30
0.0
 40
0.39375
100
AcDbArc
 50
10.59460943606738
 51
77.60882170618033
  0
LINE
  5
974
330
1E
100
AcDbEntity
  8
OBJECT
100
AcDbLine
 10
1.726160513393367
 20
11.74220103111929
 30
0.0
 11
4.285535513393298
 21
11.74220103111929
 31
0.0
  0
LINE
  5
975
330
1E
100
AcDbEntity
  8
OBJECT
100
AcDbLine
 10
1.726160513393367
 20
16.46720103111965
 30
0.0
 11
4.285535513393298
 21
16.46720103111965
 31
0.0
  0
LINE
  5
97A
330
1E
100
AcDbEntity
  8
OBJECT
100
AcDbLine
 10
4.285535513393298
 20
16.46720103111965
 30
0.0
 11
4.285535513393298
 21
11.74220103111929
 31
0.0
  0
LINE
  5
97B
330
1E
100
AcDbEntity
  8
OBJECT
100
AcDbLine
 10
1.726160513393367
 20
16.46720103111965
 30
0.0
 11
1.726160513393367
 21
11.74220103111929
 31
0.0
  0
ARC
  5
98F
330
1E
100
AcDbEntity
  8
OBJECT
100
AcDbCircle
 10
-8.354819231904414
 20
14.10470103111947
 30
0.0
 40
13.15186523437504
100
AcDbArc
 50
8.274818652787356
 51
8.969851675885971
  0
ARC
  5
990
330
1E
100
AcDbEntity
  8
OBJECT
100
AcDbCircle
 10
4.640641208080566
 20
15.9947010311198
 30
0.0
 40
0.0196875
100
AcDbArc
 50
270.0
 51
8.274818652813339
  0
ARC
  5
991
330
1E
100
AcDbEntity
  8
OBJECT
100
AcDbCircle
 10
4.616758767599478
 20
16.15220103111914
 30
0.0
 40
0.0196875
100
AcDbArc
 50
8.969851675913565
 51
90.00000000002605
  0
ARC
  5
992
330
1E
100
AcDbEntity
  8
OBJECT
100
AcDbCircle
 10
-8.354819231904414
 20
14.10470103111947
 30
0.0
 40
13.15186523437504
100
AcDbArc
 50
6.542356456491456
 51
7.234530613690677
  0
ARC
  5
993
330
1E
100
AcDbEntity
  8
OBJECT
100
AcDbCircle
 10
4.691840416630654
 20
15.60095103111962
 30
0.0
 40
0.0196875
100
AcDbArc
 50
270.0
 51
6.5423564565318
  0
ARC
  5
994
330
1E
100
AcDbEntity
  8
OBJECT
100
AcDbCircle
 10
4.672813054306104
 20
15.75845103111987
 30
0.0
 40
0.0196875
100
AcDbArc
 50
7.234530613729459
 51
90.0
  0
ARC
  5
995
330
1E
100
AcDbEntity
  8
OBJECT
100
AcDbCircle
 10
-8.354819231904414
 20
14.10470103111947
 30
0.0
 40
13.15186523437504
100
AcDbArc
 50
4.81588352130726
 51
5.505858344654591
  0
ARC
  5
996
330
1E
100
AcDbEntity
  8
OBJECT
100
AcDbCircle
 10
4.730996974859905
 20
15.20720103111943
 30
0.0
 40
0.0196875
100
AcDbArc
 50
269.9999999999739
 51
4.815883521255464
  0
ARC
  5
997
330
1E
100
AcDbEntity
  8
OBJECT
100
AcDbCircle
 10
4.716771797775706
 20
15.36470103111969
 30
0.0
 40
0.0196875
100
AcDbArc
 50
5.505858344706584
 51
90.0
  0
ARC
  5
998
330
1E
100
AcDbEntity
  8
OBJECT
100
AcDbCircle
 10
-8.354819231904414
 20
14.10470103111947
 30
0.0
 40
13.15186523437504
100
AcDbArc
 50
3.093784179858525
 51
3.782200824749393
  0
ARC
  5
999
330
1E
100
AcDbEntity
  8
OBJECT
100
AcDbCircle
 10
4.758218764102295
 20
14.81345103111925
 30
0.0
 40
0.0196875
100
AcDbArc
 50
269.9999999999739
 51
3.093784179819513
  0
ARC
  5
99A
330
1E
100
AcDbEntity
  8
OBJECT
100
AcDbCircle
 10
4.748756729821295
 20
14.97095103111951
 30
0.0
 40
0.0196875
100
AcDbArc
 50
3.782200824710384
 51
90.0
  0
ARC
  5
99B
330
1E
100
AcDbEntity
  8
OBJECT
100
AcDbCircle
 10
-8.354819231904414
 20
14.10470103111947
 30
0.0
 40
13.15186523437504
100
AcDbArc
 50
1.374478939509447
 51
2.061965729506969
  0
ARC
  5
99C
330
1E
100
AcDbEntity
  8
OBJECT
100
AcDbCircle
 10
4.773580024943882
 20
14.41970103111998
 30
0.0
 40
0.0196875
100
AcDbArc
 50
270.000000000026
 51
1.374478939496447
  0
ARC
  5
99D
330
1E
100
AcDbEntity
  8
OBJECT
100
AcDbCircle
 10
4.768855398214029
 20
14.57720103111933
 30
0.0
 40
0.0196875
100
AcDbArc
 50
2.061965729493975
 51
90.00000000002605
  0
ARC
  5
99E
330
1E
100
AcDbEntity
  8
OBJECT
100
AcDbCircle
 10
-8.354819231904414
 20
14.10470103111947
 30
0.0
 40
13.15186523437504
100
AcDbArc
 50
359.6564111626422
 51
0.3435888373577413
  0
ARC
  5
99F
330
1E
100
AcDbEntity
  8
OBJECT
100
AcDbCircle
 10
4.777122379476438
 20
14.0259510311198
 30
0.0
 40
0.0196875
100
AcDbArc
 50
269.9999999999739
 51
359.6564111626422
  0
ARC
  5
9A0
330
1E
100
AcDbEntity
  8
OBJECT
100
AcDbCircle
 10
4.777122379476438
 20
14.18345103111914
 30
0.0
 40
0.0196875
100
AcDbArc
 50
0.3435888373577413
 51
90.00000000002605
  0
ARC
  5
9A1
330
1E
100
AcDbEntity
  8
OBJECT
100
AcDbCircle
 10
-8.354819231904414
 20
14.10470103111947
 30
0.0
 40
13.13217773437504
100
AcDbArc
 50
7.321124960309694
 51
8.188027818633297
  0
ARC
  5
9A2
330
1E
100
AcDbEntity
  8
OBJECT
100
AcDbCircle
 10
-8.354819231904414
 20
14.10470103111947
 30
0.0
 40
13.13217773437504
100
AcDbArc
 50
5.592159467211104
 51
6.455904174625402
  0
ARC
  5
9A3
330
1E
100
AcDbEntity
  8
OBJECT
100
AcDbCircle
 10
-8.354819231904414
 20
14.10470103111947
 30
0.0
 40
13.13217773437504
100
AcDbArc
 50
3.868289317826353
 51
4.729687934810439
  0
ARC
  5
9A4
330
1E
100
AcDbEntity
  8
OBJECT
100
AcDbCircle
 10
-8.354819231904414
 20
14.10470103111947
 30
0.0
 40
13.13217773437504
100
AcDbArc
 50
2.147920431842705
 51
3.00776556852716
  0
ARC
  5
9A5
330
1E
100
AcDbEntity
  8
OBJECT
100
AcDbCircle
 10
-8.354819231904414
 20
14.10470103111947
 30
0.0
 40
13.13217773437504
100
AcDbArc
 50
0.4294874946797805
 51
1.288559036641571
  0
ARC
  5
9A6
330
1E
100
AcDbEntity
  8
OBJECT
100
AcDbCircle
 10
-8.354819231904414
 20
14.10470103111947
 30
0.0
 40
12.89592773437504
100
AcDbArc
 50
359.5626442560683
 51
0.4373557439316529
  0
ARC
  5
9A7
330
1E
100
AcDbEntity
  8
OBJECT
100
AcDbCircle
 10
-8.354819231904414
 20
14.10470103111947
 30
0.0
 40
12.89592773437504
100
AcDbArc
 50
1.312169189585175
 51
2.187288722729852
  0
ARC
  5
9A8
330
1E
100
AcDbEntity
  8
OBJECT
100
AcDbCircle
 10
-8.354819231904414
 20
14.10470103111947
 30
0.0
 40
12.89592773437504
100
AcDbArc
 50
3.062919116469587
 51
3.939266220552306
  0
ARC
  5
9A9
330
1E
100
AcDbEntity
  8
OBJECT
100
AcDbCircle
 10
-8.354819231904414
 20
14.10470103111947
 30
0.0
 40
12.89592773437504
100
AcDbArc
 50
4.816537400806518
 51
5.69494198752255
  0
ARC
  5
9AA
330
1E
100
AcDbEntity
  8
OBJECT
100
AcDbCircle
 10
-8.354819231904414
 20
14.10470103111947
 30
0.0
 40
12.89592773437504
100
AcDbArc
 50
6.574691735654896
 51
7.456001299394465
  0
ARC
  5
9AB
330
1E
100
AcDbEntity
  8
OBJECT
100
AcDbCircle
 10
-8.354819231904414
 20
14.10470103111947
 30
0.0
 40
12.89592773437504
100
AcDbArc
 50
8.339088724539307
 51
9.224175961527532
  0
LINE
  5
9AC
330
1E
100
AcDbEntity
  8
OBJECT
100
AcDbLine
 10
4.777122379476324
 20
14.00626353111965
 30
0.0
 11
4.54073279927347
 21
14.00626353111965
 31
0.0
  0
LINE
  5
9AD
330
1E
100
AcDbEntity
  8
OBJECT
100
AcDbLine
 10
4.777122379476324
 20
14.20313853111929
 30
0.0
 11
4.54073279927347
 21
14.20313853111929
 31
0.0
  0
LINE
  5
9AE
330
1E
100
AcDbEntity
  8
OBJECT
100
AcDbLine
 10
4.773580024943882
 20
14.40001353111983
 30
0.0
 11
4.537726779553779
 21
14.40001353111983
 31
0.0
  0
LINE
  5
9AF
330
1E
100
AcDbEntity
  8
OBJECT
100
AcDbLine
 10
4.768855398214029
 20
14.59688853111947
 30
0.0
 11
4.531712636487029
 21
14.59688853111947
 31
0.0
  0
LINE
  5
9B0
330
1E
100
AcDbEntity
  8
OBJECT
100
AcDbLine
 10
4.758218764102295
 20
14.79376353111911
 30
0.0
 11
4.522686155449079
 21
14.79376353111911
 31
0.0
  0
LINE
  5
9B1
330
1E
100
AcDbEntity
  8
OBJECT
100
AcDbLine
 10
4.748756729821295
 20
14.99063853111965
 30
0.0
 11
4.510640996020512
 21
14.99063853111965
 31
0.0
  0
LINE
  5
9B2
330
1E
100
AcDbEntity
  8
OBJECT
100
AcDbLine
 10
4.730996974859905
 20
15.18751353111929
 30
0.0
 11
4.495568669636483
 21
15.18751353111929
 31
0.0
  0
LINE
  5
9B3
330
1E
100
AcDbEntity
  8
OBJECT
100
AcDbLine
 10
4.716771797775706
 20
15.38438853111983
 30
0.0
 11
4.477458509500976
 21
15.38438853111983
 31
0.0
  0
LINE
  5
9B4
330
1E
100
AcDbEntity
  8
OBJECT
100
AcDbLine
 10
4.691840416630654
 20
15.58126353111947
 30
0.0
 11
4.456297632515244
 21
15.58126353111947
 31
0.0
  0
LINE
  5
9B5
330
1E
100
AcDbEntity
  8
OBJECT
100
AcDbLine
 10
4.672813054306104
 20
15.77813853111911
 30
0.0
 11
4.43207089289983
 21
15.77813853111911
 31
0.0
  0
LINE
  5
9B6
330
1E
100
AcDbEntity
  8
OBJECT
100
AcDbLine
 10
4.640641208080566
 20
15.97501353111965
 30
0.0
 11
4.404760827116589
 21
15.97501353111965
 31
0.0
  0
LINE
  5
9B7
330
1E
100
AcDbEntity
  8
OBJECT
100
AcDbLine
 10
4.616758767599478
 20
16.17188853111929
 30
0.0
 11
4.374347589614828
 21
16.17188853111929
 31
0.0
  0
ARC
  5
9B8
330
1E
100
AcDbEntity
  8
OBJECT
100
AcDbCircle
 10
-8.354819231904414
 20
14.10470103111947
 30
0.0
 40
13.15186523437504
100
AcDbArc
 50
351.030148324114
 51
351.7251813472126
  0
ARC
  5
9B9
330
1E
100
AcDbEntity
  8
OBJECT
100
AcDbCircle
 10
4.640641208080566
 20
12.21470103111914
 30
0.0
 40
0.0196875
100
AcDbArc
 50
351.7251813471866
 51
90.0
  0
ARC
  5
9BA
330
1E
100
AcDbEntity
  8
OBJECT
100
AcDbCircle
 10
4.616758767599478
 20
12.0572010311198
 30
0.0
 40
0.0196875
100
AcDbArc
 50
269.9999999999739
 51
351.0301483240864
  0
ARC
  5
9BB
330
1E
100
AcDbEntity
  8
OBJECT
100
AcDbCircle
 10
-8.354819231904414
 20
14.10470103111947
 30
0.0
 40
13.15186523437504
100
AcDbArc
 50
352.7654693863092
 51
353.4576435435085
  0
ARC
  5
9BC
330
1E
100
AcDbEntity
  8
OBJECT
100
AcDbCircle
 10
4.691840416630654
 20
12.60845103111932
 30
0.0
 40
0.0196875
100
AcDbArc
 50
353.4576435434682
 51
90.0
  0
ARC
  5
9BD
330
1E
100
AcDbEntity
  8
OBJECT
100
AcDbCircle
 10
4.672813054306104
 20
12.45095103111998
 30
0.0
 40
0.0196875
100
AcDbArc
 50
270.0
 51
352.7654693862705
  0
ARC
  5
9BE
330
1E
100
AcDbEntity
  8
OBJECT
100
AcDbCircle
 10
-8.354819231904414
 20
14.10470103111947
 30
0.0
 40
13.15186523437504
100
AcDbArc
 50
354.4941416553454
 51
355.1841164786927
  0
ARC
  5
9BF
330
1E
100
AcDbEntity
  8
OBJECT
100
AcDbCircle
 10
4.730996974859905
 20
13.00220103111951
 30
0.0
 40
0.0196875
100
AcDbArc
 50
355.1841164787445
 51
90.00000000002605
  0
ARC
  5
9C0
330
1E
100
AcDbEntity
  8
OBJECT
100
AcDbCircle
 10
4.716771797775706
 20
12.84470103111925
 30
0.0
 40
0.0196875
100
AcDbArc
 50
270.0
 51
354.4941416552933
  0
ARC
  5
9C1
330
1E
100
AcDbEntity
  8
OBJECT
100
AcDbCircle
 10
-8.354819231904414
 20
14.10470103111947
 30
0.0
 40
13.15186523437504
100
AcDbArc
 50
356.2177991752506
 51
356.9062158201414
  0
ARC
  5
9C2
330
1E
100
AcDbEntity
  8
OBJECT
100
AcDbCircle
 10
4.758218764102295
 20
13.39595103111969
 30
0.0
 40
0.0196875
100
AcDbArc
 50
356.9062158201804
 51
90.00000000002605
  0
ARC
  5
9C3
330
1E
100
AcDbEntity
  8
OBJECT
100
AcDbCircle
 10
4.748756729821295
 20
13.23845103111944
 30
0.0
 40
0.0196875
100
AcDbArc
 50
270.0
 51
356.2177991752896
  0
ARC
  5
9C4
330
1E
100
AcDbEntity
  8
OBJECT
100
AcDbCircle
 10
-8.354819231904414
 20
14.10470103111947
 30
0.0
 40
13.15186523437504
100
AcDbArc
 50
357.938034270493
 51
358.6255210604905
  0
ARC
  5
9C5
330
1E
100
AcDbEntity
  8
OBJECT
100
AcDbCircle
 10
4.773580024943882
 20
13.78970103111987
 30
0.0
 40
0.0196875
100
AcDbArc
 50
358.6255210605035
 51
89.99999999997395
  0
ARC
  5
9C6
330
1E
100
AcDbEntity
  8
OBJECT
100
AcDbCircle
 10
4.768855398214029
 20
13.63220103111962
 30
0.0
 40
0.0196875
100
AcDbArc
 50
269.9999999999739
 51
357.938034270506
  0
ARC
  5
9C7
330
1E
100
AcDbEntity
  8
OBJECT
100
AcDbCircle
 10
-8.354819231904414
 20
14.10470103111947
 30
0.0
 40
13.15186523437504
100
AcDbArc
 50
359.6564111626422
 51
0.3435888373577413
  0
ARC
  5
9C8
330
1E
100
AcDbEntity
  8
OBJECT
100
AcDbCircle
 10
4.777122379476438
 20
14.18345103111914
 30
0.0
 40
0.0196875
100
AcDbArc
 50
0.3435888373577413
 51
90.00000000002605
  0
ARC
  5
9C9
330
1E
100
AcDbEntity
  8
OBJECT
100
AcDbCircle
 10
4.777122379476438
 20
14.0259510311198
 30
0.0
 40
0.0196875
100
AcDbArc
 50
269.9999999999739
 51
359.6564111626422
  0
ARC
  5
9CA
330
1E
100
AcDbEntity
  8
OBJECT
100
AcDbCircle
 10
-8.354819231904414
 20
14.10470103111947
 30
0.0
 40
13.13217773437504
100
AcDbArc
 50
351.8119721813667
 51
352.6788750396903
  0
ARC
  5
9CB
330
1E
100
AcDbEntity
  8
OBJECT
100
AcDbCircle
 10
-8.354819231904414
 20
14.10470103111947
 30
0.0
 40
13.13217773437504
100
AcDbArc
 50
353.5440958253746
 51
354.4078405327888
  0
ARC
  5
9CC
330
1E
100
AcDbEntity
  8
OBJECT
100
AcDbCircle
 10
-8.354819231904414
 20
14.10470103111947
 30
0.0
 40
13.13217773437504
100
AcDbArc
 50
355.2703120651895
 51
356.1317106821736
  0
ARC
  5
9CD
330
1E
100
AcDbEntity
  8
OBJECT
100
AcDbCircle
 10
-8.354819231904414
 20
14.10470103111947
 30
0.0
 40
13.13217773437504
100
AcDbArc
 50
356.9922344314728
 51
357.8520795681573
  0
ARC
  5
9CE
330
1E
100
AcDbEntity
  8
OBJECT
100
AcDbCircle
 10
-8.354819231904414
 20
14.10470103111947
 30
0.0
 40
13.13217773437504
100
AcDbArc
 50
358.7114409633584
 51
0.0000000000000155
  0
ARC
  5
9CF
330
1E
100
AcDbEntity
  8
OBJECT
100
AcDbCircle
 10
-8.354819231904414
 20
14.10470103111947
 30
0.0
 40
12.89592773437504
100
AcDbArc
 50
350.7758240384724
 51
351.6609112754607
  0
ARC
  5
9D0
330
1E
100
AcDbEntity
  8
OBJECT
100
AcDbCircle
 10
-8.354819231904414
 20
14.10470103111947
 30
0.0
 40
12.89592773437504
100
AcDbArc
 50
352.5439987006054
 51
353.425308264345
  0
ARC
  5
9D1
330
1E
100
AcDbEntity
  8
OBJECT
100
AcDbCircle
 10
-8.354819231904414
 20
14.10470103111947
 30
0.0
 40
12.89592773437504
100
AcDbArc
 50
356.0607337794476
 51
356.9370808835303
  0
ARC
  5
9D2
330
1E
100
AcDbEntity
  8
OBJECT
100
AcDbCircle
 10
-8.354819231904414
 20
14.10470103111947
 30
0.0
 40
12.89592773437504
100
AcDbArc
 50
357.8127112772701
 51
358.6878308104148
  0
LINE
  5
9D5
330
1E
100
AcDbEntity
  8
OBJECT
100
AcDbLine
 10
4.773580024943882
 20
13.80938853111911
 30
0.0
 11
4.537726779553779
 21
13.80938853111911
 31
0.0
  0
LINE
  5
9D6
330
1E
100
AcDbEntity
  8
OBJECT
100
AcDbLine
 10
4.768855398214029
 20
13.61251353111947
 30
0.0
 11
4.531712636487029
 21
13.61251353111947
 31
0.0
  0
LINE
  5
9D7
330
1E
100
AcDbEntity
  8
OBJECT
100
AcDbLine
 10
4.758218764102295
 20
13.41563853111984
 30
0.0
 11
4.522686155449079
 21
13.41563853111984
 31
0.0
  0
LINE
  5
9D8
330
1E
100
AcDbEntity
  8
OBJECT
100
AcDbLine
 10
4.748756729821295
 20
13.21876353111929
 30
0.0
 11
4.510640996020512
 21
13.21876353111929
 31
0.0
  0
LINE
  5
9D9
330
1E
100
AcDbEntity
  8
OBJECT
100
AcDbLine
 10
4.730996974859905
 20
13.02188853111965
 30
0.0
 11
4.495568669636483
 21
13.02188853111965
 31
0.0
  0
LINE
  5
9DA
330
1E
100
AcDbEntity
  8
OBJECT
100
AcDbLine
 10
4.716771797775706
 20
12.82501353111911
 30
0.0
 11
4.477458509500976
 21
12.82501353111911
 31
0.0
  0
LINE
  5
9DB
330
1E
100
AcDbEntity
  8
OBJECT
100
AcDbLine
 10
4.691840416630654
 20
12.62813853111947
 30
0.0
 11
4.456297632515244
 21
12.62813853111947
 31
0.0
  0
LINE
  5
9DC
330
1E
100
AcDbEntity
  8
OBJECT
100
AcDbLine
 10
4.672813054306104
 20
12.43126353111984
 30
0.0
 11
4.43207089289983
 21
12.43126353111984
 31
0.0
  0
LINE
  5
9DD
330
1E
100
AcDbEntity
  8
OBJECT
100
AcDbLine
 10
4.640641208080566
 20
12.23438853111929
 30
0.0
 11
4.404760827116589
 21
12.23438853111929
 31
0.0
  0
LINE
  5
9DE
330
1E
100
AcDbEntity
  8
OBJECT
100
AcDbLine
 10
4.616758767599478
 20
12.03751353111965
 30
0.0
 11
4.374347589614828
 21
12.03751353111965
 31
0.0
  0
LINE
  5
9DF
330
1E
100
AcDbEntity
  8
OBJECT
100
AcDbLine
 10
4.495568669636483
 20
13.02188853111965
 30
0.0
 11
4.477458509500976
 21
12.82501353111911
 31
0.0
  0
ARC
  5
9E0
330
1E
100
AcDbEntity
  8
OBJECT
100
AcDbCircle
 10
14.36625350108549
 20
14.1057411005022
 30
0.0
 40
13.15186523437504
100
AcDbArc
 50
171.0353938146452
 51
171.7304268377598
  0
ARC
  5
9E1
330
1E
100
AcDbEntity
  8
OBJECT
100
AcDbCircle
 10
1.370620084019535
 20
15.99455134413529
 30
0.0
 40
0.0196875
100
AcDbArc
 50
171.730426837732
 51
270.0052454905405
  0
ARC
  5
9E2
330
1E
100
AcDbEntity
  8
OBJECT
100
AcDbCircle
 10
1.394488105105253
 20
16.15205352993871
 30
0.0
 40
0.0196875
100
AcDbArc
 50
90.00524549051444
 51
171.0353938146324
  0
ARC
  5
9E3
330
1E
100
AcDbEntity
  8
OBJECT
100
AcDbCircle
 10
14.36625350108549
 20
14.1057411005022
 30
0.0
 40
13.15186523437504
100
AcDbArc
 50
172.7707148768451
 51
173.4628890340526
  0
ARC
  5
9E4
330
1E
100
AcDbEntity
  8
OBJECT
100
AcDbCircle
 10
1.31945692392189
 20
15.60079665844296
 30
0.0
 40
0.0196875
100
AcDbArc
 50
173.4628890340137
 51
270.0052454905405
  0
ARC
  5
9E5
330
1E
100
AcDbEntity
  8
OBJECT
100
AcDbCircle
 10
1.338469866871648
 20
15.75829839975813
 30
0.0
 40
0.0196875
100
AcDbArc
 50
90.00524549054052
 51
172.7707148768176
  0
ARC
  5
9E6
330
1E
100
AcDbEntity
  8
OBJECT
100
AcDbCircle
 10
14.36625350108549
 20
14.1057411005022
 30
0.0
 40
13.15186523437504
100
AcDbArc
 50
174.4993871458794
 51
175.1893619692353
  0
ARC
  5
9E7
330
1E
100
AcDbEntity
  8
OBJECT
100
AcDbCircle
 10
1.280336414094833
 20
15.20704307526739
 30
0.0
 40
0.0196875
100
AcDbArc
 50
175.1893619692742
 51
270.0052454905665
  0
ARC
  5
9E8
330
1E
100
AcDbEntity
  8
OBJECT
100
AcDbCircle
 10
1.294547171824135
 20
15.36454437693828
 30
0.0
 40
0.0196875
100
AcDbArc
 50
90.00524549054052
 51
174.4993871458274
  0
ARC
  5
9E9
330
1E
100
AcDbEntity
  8
OBJECT
100
AcDbCircle
 10
14.36625350108549
 20
14.1057411005022
 30
0.0
 40
13.15186523437504
100
AcDbArc
 50
176.223044665786
 51
176.9114613106832
  0
ARC
  5
9EA
330
1E
100
AcDbEntity
  8
OBJECT
100
AcDbCircle
 10
1.253150673204615
 20
14.81329058473329
 30
0.0
 40
0.0196875
100
AcDbArc
 50
176.9114613107092
 51
270.0052454905665
  0
ARC
  5
9EB
330
1E
100
AcDbEntity
  8
OBJECT
100
AcDbCircle
 10
1.262598288150726
 20
14.9707914503333
 30
0.0
 40
0.0196875
100
AcDbArc
 50
90.00524549054052
 51
176.223044665825
  0
ARC
  5
9EC
330
1E
100
AcDbEntity
  8
OBJECT
100
AcDbCircle
 10
14.36625350108549
 20
14.1057411005022
 30
0.0
 40
13.15186523437504
100
AcDbArc
 50
177.9432797610287
 51
178.6307665510291
  0
ARC
  5
9ED
330
1E
100
AcDbEntity
  8
OBJECT
100
AcDbCircle
 10
1.237825460665291
 20
14.41953918004401
 30
0.0
 40
0.0196875
100
AcDbArc
 50
178.6307665510421
 51
270.0052454905145
  0
ARC
  5
9EE
330
1E
100
AcDbEntity
  8
OBJECT
100
AcDbCircle
 10
1.242535668080151
 20
14.57703961192783
 30
0.0
 40
0.0196875
100
AcDbArc
 50
90.00524549051444
 51
177.9432797610416
  0
ARC
  5
9EF
330
1E
100
AcDbEntity
  8
OBJECT
100
AcDbCircle
 10
14.36625350108549
 20
14.1057411005022
 30
0.0
 40
13.15186523437504
100
AcDbArc
 50
179.6616566531729
 51
180.3488343279021
  0
ARC
  5
9F0
330
1E
100
AcDbEntity
  8
OBJECT
100
AcDbCircle
 10
1.234319154385659
 20
14.02578885738694
 30
0.0
 40
0.0196875
100
AcDbArc
 50
180.3488343278891
 51
270.0052454905665
  0
ARC
  5
9F1
330
1E
100
AcDbEntity
  8
OBJECT
100
AcDbCircle
 10
1.234304735090447
 20
14.1832888567269
 30
0.0
 40
0.0196875
100
AcDbArc
 50
90.00524549051444
 51
179.6616566531859
  0
ARC
  5
9F2
330
1E
100
AcDbEntity
  8
OBJECT
100
AcDbCircle
 10
14.36625350108549
 20
14.1057411005022
 30
0.0
 40
13.13217773437504
100
AcDbArc
 50
171.8172176719134
 51
172.6841205302238
  0
ARC
  5
9F3
330
1E
100
AcDbEntity
  8
OBJECT
100
AcDbCircle
 10
14.36625350108549
 20
14.1057411005022
 30
0.0
 40
13.13217773437504
100
AcDbArc
 50
173.5493413159196
 51
174.4130860233277
  0
ARC
  5
9F4
330
1E
100
AcDbEntity
  8
OBJECT
100
AcDbCircle
 10
14.36625350108549
 20
14.1057411005022
 30
0.0
 40
13.13217773437504
100
AcDbArc
 50
175.2755575557244
 51
176.1369561727115
  0
ARC
  5
9F5
330
1E
100
AcDbEntity
  8
OBJECT
100
AcDbCircle
 10
14.36625350108549
 20
14.1057411005022
 30
0.0
 40
13.13217773437504
100
AcDbArc
 50
176.9974799220119
 51
177.8573250586923
  0
ARC
  5
9F6
330
1E
100
AcDbEntity
  8
OBJECT
100
AcDbCircle
 10
14.36625350108549
 20
14.1057411005022
 30
0.0
 40
13.13217773437504
100
AcDbArc
 50
178.7166864538956
 51
179.5757579958482
  0
ARC
  5
9F7
330
1E
100
AcDbEntity
  8
OBJECT
100
AcDbCircle
 10
14.36625350108549
 20
14.1057411005022
 30
0.0
 40
12.89592773437504
100
AcDbArc
 50
179.567889746606
 51
180.4426012344612
  0
ARC
  5
9F8
330
1E
100
AcDbEntity
  8
OBJECT
100
AcDbCircle
 10
14.36625350108549
 20
14.1057411005022
 30
0.0
 40
12.89592773437504
100
AcDbArc
 50
177.8179567678106
 51
178.6930763009488
  0
ARC
  5
9F9
330
1E
100
AcDbEntity
  8
OBJECT
100
AcDbCircle
 10
14.36625350108549
 20
14.1057411005022
 30
0.0
 40
12.89592773437504
100
AcDbArc
 50
176.0659792699764
 51
176.9423263740697
  0
ARC
  5
9FA
330
1E
100
AcDbEntity
  8
OBJECT
100
AcDbCircle
 10
14.36625350108549
 20
14.1057411005022
 30
0.0
 40
12.89592773437504
100
AcDbArc
 50
174.3103035030162
 51
175.1887080897309
  0
ARC
  5
9FB
330
1E
100
AcDbEntity
  8
OBJECT
100
AcDbCircle
 10
14.36625350108549
 20
14.1057411005022
 30
0.0
 40
12.89592773437504
100
AcDbArc
 50
172.5492441911427
 51
173.430553754879
  0
ARC
  5
9FC
330
1E
100
AcDbEntity
  8
OBJECT
100
AcDbCircle
 10
14.36625350108549
 20
14.1057411005022
 30
0.0
 40
12.89592773437504
100
AcDbArc
 50
170.7810695290037
 51
171.6661567659981
  0
LINE
  5
9FD
330
1E
100
AcDbEntity
  8
OBJECT
100
AcDbLine
 10
1.234320956797589
 20
14.00610135746956
 30
0.0
 11
1.470710536009775
 21
14.00612299919157
 31
0.0
  0
LINE
  5
9FE
330
1E
100
AcDbEntity
  8
OBJECT
100
AcDbLine
 10
1.234302932678517
 20
14.20297635664519
 30
0.0
 11
1.470692511890703
 21
14.20299799836629
 31
0.0
  0
LINE
  5
9FF
330
1E
100
AcDbEntity
  8
OBJECT
100
AcDbLine
 10
1.237827263077221
 20
14.39985168012572
 30
0.0
 11
1.473680507478817
 21
14.39987327274593
 31
0.0
  0
LINE
  5
A00
330
1E
100
AcDbEntity
  8
OBJECT
100
AcDbLine
 10
1.242533865668221
 20
14.59672711184612
 30
0.0
 11
1.479676626401484
 21
14.59674882252147
 31
0.0
  0
LINE
  5
A01
330
1E
100
AcDbEntity
  8
OBJECT
100
AcDbLine
 10
1.253152475616431
 20
14.79360308481591
 30
0.0
 11
1.488685083282618
 21
14.79362464808127
 31
0.0
  0
LINE
  5
A02
330
1E
100
AcDbEntity
  8
OBJECT
100
AcDbLine
 10
1.262596485738797
 20
14.99047895025069
 30
0.0
 11
1.500712218541636
 21
14.99050075000286
 31
0.0
  0
LINE
  5
A03
330
1E
100
AcDbEntity
  8
OBJECT
100
AcDbLine
 10
1.280338216506763
 20
15.18735557535001
 30
0.0
 11
1.515766520743611
 21
15.18737712906568
 31
0.0
  0
LINE
  5
A04
330
1E
100
AcDbEntity
  8
OBJECT
100
AcDbLine
 10
1.294545369412318
 20
15.38423187685566
 30
0.0
 11
1.533858656684103
 21
15.38425378624561
 31
0.0
  0
LINE
  5
A05
330
1E
100
AcDbEntity
  8
OBJECT
100
AcDbLine
 10
1.31945872633382
 20
15.58110915852557
 30
0.0
 11
1.555001509462201
 21
15.58113072272135
 31
0.0
  0
LINE
  5
A06
330
1E
100
AcDbEntity
  8
OBJECT
100
AcDbLine
 10
1.338468064459718
 20
15.77798589967551
 30
0.0
 11
1.579210224857021
 21
15.7780079398808
 31
0.0
  0
LINE
  5
A07
330
1E
100
AcDbEntity
  8
OBJECT
100
AcDbLine
 10
1.370621886431464
 20
15.9748638442179
 30
0.0
 11
1.60650226640682
 21
15.97488543932195
 31
0.0
  0
LINE
  5
A08
330
1E
100
AcDbEntity
  8
OBJECT
100
AcDbLine
 10
1.394486302693323
 20
16.17174102985609
 30
0.0
 11
1.636897479662067
 21
16.17176322286104
 31
0.0
  0
ARC
  5
A09
330
1E
100
AcDbEntity
  8
OBJECT
100
AcDbCircle
 10
14.36625350108549
 20
14.1057411005022
 30
0.0
 40
13.15186523437504
100
AcDbArc
 50
188.2800641433262
 51
188.9750971664229
  0
ARC
  5
A0A
330
1E
100
AcDbEntity
  8
OBJECT
100
AcDbCircle
 10
1.370966147104283
 20
12.21455135997712
 30
0.0
 40
0.0196875
100
AcDbArc
 50
90.00524549054052
 51
188.2800641433391
  0
ARC
  5
A0B
330
1E
100
AcDbEntity
  8
OBJECT
100
AcDbCircle
 10
1.394863006780425
 20
12.05705354709971
 30
0.0
 40
0.0196875
100
AcDbArc
 50
188.9750971664508
 51
270.0052454905665
  0
ARC
  5
A0C
330
1E
100
AcDbEntity
  8
OBJECT
100
AcDbCircle
 10
14.36625350108549
 20
14.1057411005022
 30
0.0
 40
13.15186523437504
100
AcDbArc
 50
186.5476019470253
 51
187.239776104228
  0
ARC
  5
A0D
330
1E
100
AcDbEntity
  8
OBJECT
100
AcDbCircle
 10
1.319730890530692
 20
12.60829667098369
 30
0.0
 40
0.0196875
100
AcDbArc
 50
90.00524549054052
 51
186.5476019470642
  0
ARC
  5
A0E
330
1E
100
AcDbEntity
  8
OBJECT
100
AcDbCircle
 10
1.33877267207076
 20
12.45079841361894
 30
0.0
 40
0.0196875
100
AcDbArc
 50
187.2397761042667
 51
270.0052454905405
  0
ARC
  5
A0F
330
1E
100
AcDbEntity
  8
OBJECT
100
AcDbCircle
 10
14.36625350108549
 20
14.1057411005022
 30
0.0
 40
13.15186523437504
100
AcDbArc
 50
184.8211290118475
 51
185.5111038351993
  0
ARC
  5
A10
330
1E
100
AcDbEntity
  8
OBJECT
100
AcDbCircle
 10
1.280538284227688
 20
13.00204308450793
 30
0.0
 40
0.0196875
100
AcDbArc
 50
90.00524549051444
 51
184.8211290117944
  0
ARC
  5
A11
330
1E
100
AcDbEntity
  8
OBJECT
100
AcDbCircle
 10
1.294777880547414
 20
12.84454438749889
 30
0.0
 40
0.0196875
100
AcDbArc
 50
185.5111038352382
 51
270.0052454905405
  0
ARC
  5
A12
330
1E
100
AcDbEntity
  8
OBJECT
100
AcDbCircle
 10
14.36625350108549
 20
14.1057411005022
 30
0.0
 40
13.15186523437504
100
AcDbArc
 50
183.099029670393
 51
183.7874463152924
  0
ARC
  5
A13
330
1E
100
AcDbEntity
  8
OBJECT
100
AcDbCircle
 10
1.253280446861296
 20
13.39579059067364
 30
0.0
 40
0.0196875
100
AcDbArc
 50
90.00524549051444
 51
183.099029670367
  0
ARC
  5
A14
330
1E
100
AcDbEntity
  8
OBJECT
100
AcDbCircle
 10
1.262756900397945
 20
13.23829145759373
 30
0.0
 40
0.0196875
100
AcDbArc
 50
183.7874463152534
 51
270.0052454905405
  0
ARC
  5
A15
330
1E
100
AcDbEntity
  8
OBJECT
100
AcDbCircle
 10
14.36625350108549
 20
14.1057411005022
 30
0.0
 40
13.15186523437504
100
AcDbArc
 50
181.3797244300378
 51
182.0672112200474
  0
ARC
  5
A16
330
1E
100
AcDbEntity
  8
OBJECT
100
AcDbCircle
 10
1.237883137846139
 20
13.78953918268416
 30
0.0
 40
0.0196875
100
AcDbArc
 50
90.00524549056656
 51
181.3797244300247
  0
ARC
  5
A17
330
1E
100
AcDbEntity
  8
OBJECT
100
AcDbCircle
 10
1.24262218385131
 20
13.63203961588897
 30
0.0
 40
0.0196875
100
AcDbArc
 50
182.0672112200214
 51
270.0052454905665
  0
ARC
  5
A18
330
1E
100
AcDbEntity
  8
OBJECT
100
AcDbCircle
 10
14.36625350108549
 20
14.1057411005022
 30
0.0
 40
13.15186523437504
100
AcDbArc
 50
179.6616566531729
 51
180.3488343279021
  0
ARC
  5
A19
330
1E
100
AcDbEntity
  8
OBJECT
100
AcDbCircle
 10
1.234304735090447
 20
14.1832888567269
 30
0.0
 40
0.0196875
100
AcDbArc
 50
90.00524549051444
 51
179.6616566531859
  0
ARC
  5
A1A
330
1E
100
AcDbEntity
  8
OBJECT
100
AcDbCircle
 10
1.234319154385659
 20
14.02578885738694
 30
0.0
 40
0.0196875
100
AcDbArc
 50
180.3488343278891
 51
270.0052454905665
  0
ARC
  5
A1B
330
1E
100
AcDbEntity
  8
OBJECT
100
AcDbCircle
 10
14.36625350108549
 20
14.1057411005022
 30
0.0
 40
13.13217773437504
100
AcDbArc
 50
187.3263704508483
 51
188.1932733091663
  0
ARC
  5
A1C
330
1E
100
AcDbEntity
  8
OBJECT
100
AcDbCircle
 10
14.36625350108549
 20
14.1057411005022
 30
0.0
 40
13.13217773437504
100
AcDbArc
 50
185.5974049577504
 51
186.4611496651548
  0
ARC
  5
A1D
330
1E
100
AcDbEntity
  8
OBJECT
100
AcDbCircle
 10
14.36625350108549
 20
14.1057411005022
 30
0.0
 40
13.13217773437504
100
AcDbArc
 50
183.8735348083619
 51
184.7349334253387
  0
ARC
  5
A1E
330
1E
100
AcDbEntity
  8
OBJECT
100
AcDbCircle
 10
14.36625350108549
 20
14.1057411005022
 30
0.0
 40
13.13217773437504
100
AcDbArc
 50
182.1531659223855
 51
183.0130110590562
  0
ARC
  5
A1F
330
1E
100
AcDbEntity
  8
OBJECT
100
AcDbCircle
 10
14.36625350108549
 20
14.1057411005022
 30
0.0
 40
13.13217773437504
100
AcDbArc
 50
180.0045378296918
 51
181.2938045271783
  0
ARC
  5
A20
330
1E
100
AcDbEntity
  8
OBJECT
100
AcDbCircle
 10
14.36625350108549
 20
14.1057411005022
 30
0.0
 40
12.89592773437504
100
AcDbArc
 50
188.3443342150688
 51
189.2294214520609
  0
ARC
  5
A21
330
1E
100
AcDbEntity
  8
OBJECT
100
AcDbCircle
 10
14.36625350108549
 20
14.1057411005022
 30
0.0
 40
12.89592773437504
100
AcDbArc
 50
186.5799372261848
 51
187.4612467899396
  0
ARC
  5
A22
330
1E
100
AcDbEntity
  8
OBJECT
100
AcDbCircle
 10
14.36625350108549
 20
14.1057411005022
 30
0.0
 40
12.89592773437504
100
AcDbArc
 50
183.0681646070046
 51
183.9445117111008
  0
ARC
  5
A23
330
1E
100
AcDbEntity
  8
OBJECT
100
AcDbCircle
 10
14.36625350108549
 20
14.1057411005022
 30
0.0
 40
12.89592773437504
100
AcDbArc
 50
181.3174146801211
 51
182.1925342132562
  0
LINE
  5
A26
330
1E
100
AcDbEntity
  8
OBJECT
100
AcDbLine
 10
1.237881335434209
 20
13.80922668260154
 30
0.0
 11
1.473734579835806
 21
13.80924827522085
 31
0.0
  0
LINE
  5
A27
330
1E
100
AcDbEntity
  8
OBJECT
100
AcDbLine
 10
1.242623986263239
 20
13.61235211597068
 30
0.0
 11
1.479766746996503
 21
13.61237382664694
 31
0.0
  0
LINE
  5
A28
330
1E
100
AcDbEntity
  8
OBJECT
100
AcDbLine
 10
1.25327864444948
 20
13.41547809059102
 30
0.0
 11
1.488811252115553
 21
13.41549965385638
 31
0.0
  0
LINE
  5
A29
330
1E
100
AcDbEntity
  8
OBJECT
100
AcDbLine
 10
1.262758702809762
 20
13.21860395767635
 30
0.0
 11
1.500874435612601
 21
13.21862575742852
 31
0.0
  0
LINE
  5
A2A
330
1E
100
AcDbEntity
  8
OBJECT
100
AcDbLine
 10
1.280536481815758
 20
13.02173058442622
 30
0.0
 11
1.515964786052492
 21
13.02175213814189
 31
0.0
  0
LINE
  5
A2B
330
1E
100
AcDbEntity
  8
OBJECT
100
AcDbLine
 10
1.29477968295923
 20
12.82485688758151
 30
0.0
 11
1.534092970231128
 21
12.82487879697146
 31
0.0
  0
LINE
  5
A2C
330
1E
100
AcDbEntity
  8
OBJECT
100
AcDbLine
 10
1.319729088118762
 20
12.62798417090107
 30
0.0
 11
1.555271871247143
 21
12.62800573509776
 31
0.0
  0
LINE
  5
A2D
330
1E
100
AcDbEntity
  8
OBJECT
100
AcDbLine
 10
1.33877447448269
 20
12.43111091370155
 30
0.0
 11
1.579516634879993
 21
12.43113295390685
 31
0.0
  0
LINE
  5
A2E
330
1E
100
AcDbEntity
  8
OBJECT
100
AcDbLine
 10
1.370964344692353
 20
12.2342388598945
 30
0.0
 11
1.606844724667823
 21
12.23426045499763
 31
0.0
  0
LINE
  5
A2F
330
1E
100
AcDbEntity
  8
OBJECT
100
AcDbLine
 10
1.394864809192355
 20
12.03736604718233
 30
0.0
 11
1.6372759861611
 21
12.03738824018819
 31
0.0
  0
LINE
  5
A30
330
1E
100
AcDbEntity
  8
OBJECT
100
AcDbLine
 10
1.515964786052492
 20
13.02175213814189
 30
0.0
 11
1.534092970231128
 21
12.82487879697146
 31
0.0
  0
LINE
  5
A33
330
1E
100
AcDbEntity
  8
OBJECT
100
AcDbLine
 10
6.782788784367127
 20
4.621912301509468
 30
0.0
 11
6.782788784367127
 21
4.739702651794317
 31
0.0
  0
LINE
  5
A35
330
1E
100
AcDbEntity
  8
OBJECT
100
AcDbLine
 10
6.940288784367155
 20
4.703076824520024
 30
0.0
 11
6.940288784367268
 21
6.435576824520097
 31
0.0
  0
LINE
  5
A36
330
1E
100
AcDbEntity
  8
OBJECT
100
AcDbLine
 10
6.979663784367218
 20
4.703076894090003
 30
0.0
 11
6.979663784367218
 21
4.813326894089726
 31
0.0
  0
LINE
  5
A37
330
1E
100
AcDbEntity
  8
OBJECT
100
AcDbLine
 10
6.979663784367218
 20
4.880264394089493
 30
0.0
 11
6.979663784367218
 21
5.018037788220469
 31
0.0
  0
LINE
  5
A38
330
1E
100
AcDbEntity
  8
OBJECT
100
AcDbLine
 10
6.952101284367174
 20
4.840889394090112
 30
0.0
 11
6.952101284367174
 21
4.880264394089493
 31
0.0
  0
ARC
  5
A39
330
1E
100
AcDbEntity
  8
OBJECT
100
AcDbCircle
 10
6.830038784367204
 20
7.222890358964463
 30
0.0
 40
0.196875
100
AcDbArc
 50
0.0
 51
86.99999999999439
  0
ARC
  5
A3A
330
1E
100
AcDbEntity
  8
OBJECT
100
AcDbCircle
 10
6.830038784367204
 20
1.947013290076569
 30
0.0
 40
0.196875
100
AcDbArc
 50
273.0000000000056
 51
0.0
  0
LINE
  5
A3C
330
1E
100
AcDbEntity
  8
OBJECT
100
AcDbLine
 10
6.455976284367167
 20
1.730264324520788
 30
0.0
 11
6.840342425752552
 21
1.750408100422276
 31
0.0
  0
LINE
  5
A3D
330
1E
100
AcDbEntity
  8
OBJECT
100
AcDbLine
 10
6.455976284367167
 20
1.836722722054759
 30
0.0
 11
6.652851284367145
 21
1.84704050360105
 31
0.0
  0
LINE
  5
A3E
330
1E
100
AcDbEntity
  8
OBJECT
100
AcDbLine
 10
6.711913784367126
 20
1.850135838065028
 30
0.0
 11
6.940288784367155
 21
1.862104464658472
 31
0.0
  0
LINE
  5
A3F
330
1E
100
AcDbEntity
  8
OBJECT
100
AcDbLine
 10
6.455976284367167
 20
7.439639324520243
 30
0.0
 11
6.840342425752552
 21
7.419495548618755
 31
0.0
  0
LINE
  5
A40
330
1E
100
AcDbEntity
  8
OBJECT
100
AcDbLine
 10
6.455976284367167
 20
7.333180926986273
 30
0.0
 11
6.940288784367155
 21
7.30779918438256
 31
0.0
  0
LINE
  5
A41
330
1E
100
AcDbEntity
  8
OBJECT
100
AcDbLine
 10
6.455976284367167
 20
7.419951824520097
 30
0.0
 11
6.416601284367217
 21
7.419951824520097
 31
0.0
  0
LINE
  5
A42
330
1E
100
AcDbEntity
  8
OBJECT
100
AcDbLine
 10
6.455976284367167
 20
1.749951824520024
 30
0.0
 11
6.416601284367217
 21
1.749951824520024
 31
0.0
  0
LINE
  5
A43
330
1E
100
AcDbEntity
  8
OBJECT
100
AcDbLine
 10
6.416601284367217
 20
7.372701824520476
 30
0.0
 11
6.357538784367122
 21
7.372701824520476
 31
0.0
  0
LINE
  5
A44
330
1E
100
AcDbEntity
  8
OBJECT
100
AcDbLine
 10
6.357538784367122
 20
7.372701824520476
 30
0.0
 11
6.357538784367008
 21
7.065576786312334
 31
0.0
  0
LINE
  5
A45
330
1E
100
AcDbEntity
  8
OBJECT
100
AcDbLine
 10
6.357538784367122
 20
2.327074963154331
 30
0.0
 11
6.357538784367122
 21
2.222571291984962
 31
0.0
  0
LINE
  5
A46
330
1E
100
AcDbEntity
  8
OBJECT
100
AcDbLine
 10
6.459913784367174
 20
2.431051623486922
 30
0.0
 11
6.459913784367174
 21
2.385390437529707
 31
0.0
  0
LINE
  5
A47
330
1E
100
AcDbEntity
  8
OBJECT
100
AcDbLine
 10
6.251226284367177
 20
4.533683577041841
 30
0.0
 11
6.251226284367177
 21
2.38800215161936
 31
0.0
  0
LINE
  5
A48
330
1E
100
AcDbEntity
  8
OBJECT
100
AcDbLine
 10
6.192163784367195
 20
4.670674400661113
 30
0.0
 11
6.192163784367082
 21
2.329961594516674
 31
0.0
  0
LINE
  5
A49
330
1E
100
AcDbEntity
  8
OBJECT
100
AcDbLine
 10
6.416601284367217
 20
1.797201824520556
 30
0.0
 11
6.357538784367122
 21
1.797201824520556
 31
0.0
  0
LINE
  5
A4A
330
1E
100
AcDbEntity
  8
OBJECT
100
AcDbLine
 10
6.455976284367167
 20
7.333180926986273
 30
0.0
 11
6.357538784367122
 21
7.333180926986273
 31
0.0
  0
LINE
  5
A4B
330
1E
100
AcDbEntity
  8
OBJECT
100
AcDbLine
 10
6.455976284367167
 20
1.836722722054759
 30
0.0
 11
6.357538784367122
 21
1.836722722054759
 31
0.0
  0
LINE
  5
A4C
330
1E
100
AcDbEntity
  8
OBJECT
100
AcDbLine
 10
6.416601284367217
 20
1.797201824520556
 30
0.0
 11
6.416601284367217
 21
1.749951824520024
 31
0.0
  0
LINE
  5
A4D
330
1E
100
AcDbEntity
  8
OBJECT
100
AcDbLine
 10
6.455976284367167
 20
1.749951824520024
 30
0.0
 11
6.455976284367167
 21
1.730264324520788
 31
0.0
  0
LINE
  5
A4E
330
1E
100
AcDbEntity
  8
OBJECT
100
AcDbLine
 10
6.455976284367167
 20
7.439639324520243
 30
0.0
 11
6.455976284367167
 21
7.419951824520097
 31
0.0
  0
LINE
  5
A4F
330
1E
100
AcDbEntity
  8
OBJECT
100
AcDbLine
 10
6.416601284367217
 20
7.419951824520097
 30
0.0
 11
6.416601284367217
 21
7.372701824520476
 31
0.0
  0
LINE
  5
A50
330
1E
100
AcDbEntity
  8
OBJECT
100
AcDbLine
 10
6.940288784367155
 20
4.683732971111197
 30
0.0
 11
6.192163784367195
 21
4.670674400661113
 31
0.0
  0
LINE
  5
A51
330
1E
100
AcDbEntity
  8
OBJECT
100
AcDbLine
 10
6.940288784367155
 20
4.624661474236376
 30
0.0
 11
6.459913784367174
 21
4.616276497421125
 31
0.0
  0
LINE
  5
A52
330
1E
100
AcDbEntity
  8
OBJECT
100
AcDbLine
 10
6.711913784367126
 20
2.379951824520134
 30
0.0
 11
6.711913784367126
 21
1.743677440531058
 31
0.0
  0
LINE
  5
A53
330
1E
100
AcDbEntity
  8
OBJECT
100
AcDbLine
 10
6.652851284367145
 20
2.320889324520607
 30
0.0
 11
6.652851284367145
 21
1.84704050360105
 31
0.0
  0
LINE
  5
A54
330
1E
100
AcDbEntity
  8
OBJECT
100
AcDbLine
 10
6.652851284367145
 20
2.321920264292742
 30
0.0
 11
6.192163784367082
 21
2.329961594516674
 31
0.0
  0
LINE
  5
A55
330
1E
100
AcDbEntity
  8
OBJECT
100
AcDbLine
 10
6.940288784367155
 20
2.375974520942321
 30
0.0
 11
6.251226284367177
 21
2.38800215161936
 31
0.0
  0
LINE
  5
A56
330
1E
100
AcDbEntity
  8
OBJECT
100
AcDbLine
 10
6.940288784367155
 20
4.703076824520024
 30
0.0
 11
7.026913784367181
 21
4.703076824520024
 31
0.0
  0
LINE
  5
A57
330
1E
100
AcDbEntity
  8
OBJECT
100
AcDbLine
 10
6.940288784367155
 20
4.742451824520315
 30
0.0
 11
6.881226284367173
 21
4.742451824520315
 31
0.0
  0
LINE
  5
A58
330
1E
100
AcDbEntity
  8
OBJECT
100
AcDbLine
 10
6.881226284367173
 20
4.742451824520315
 30
0.0
 11
6.881226284367173
 21
4.682702031339061
 31
0.0
  0
LINE
  5
A59
330
1E
100
AcDbEntity
  8
OBJECT
100
AcDbLine
 10
6.940288784367155
 20
4.703076824520024
 30
0.0
 11
6.940288784367155
 21
1.862104464658472
 31
0.0
  0
LINE
  5
A5A
330
1E
100
AcDbEntity
  8
OBJECT
100
AcDbLine
 10
6.940288784367155
 20
2.104326824519915
 30
0.0
 11
6.841851284367223
 21
2.104326824519915
 31
0.0
  0
LINE
  5
A5B
330
1E
100
AcDbEntity
  8
OBJECT
100
AcDbLine
 10
6.841851284367223
 20
2.104326824519915
 30
0.0
 11
6.841851284367223
 21
2.377692753896184
 31
0.0
  0
LINE
  5
A5C
330
1E
100
AcDbEntity
  8
OBJECT
100
AcDbLine
 10
6.416601284367217
 20
2.222571291984962
 30
0.0
 11
6.534851284367206
 21
2.222571291984962
 31
0.0
  0
LINE
  5
A5D
330
1E
100
AcDbEntity
  8
OBJECT
100
AcDbLine
 10
6.416601284367217
 20
1.986321291985035
 30
0.0
 11
6.534851284367206
 21
1.986321291985035
 31
0.0
  0
LINE
  5
A5E
330
1E
100
AcDbEntity
  8
OBJECT
100
AcDbLine
 10
6.416601284367217
 20
1.986321291984125
 30
0.0
 11
6.416601284367217
 21
2.222571291984962
 31
0.0
  0
LINE
  5
A5F
330
1E
100
AcDbEntity
  8
HIDDEN
100
AcDbLine
 10
6.416601284367217
 20
2.041321291985326
 30
0.0
 11
6.528601284367866
 21
2.041321291985326
 31
0.0
  0
LINE
  5
A60
330
1E
100
AcDbEntity
  8
HIDDEN
100
AcDbLine
 10
6.416601284367217
 20
2.16732129198553
 30
0.0
 11
6.52860128436832
 21
2.167321291986439
 31
0.0
  0
LINE
  5
A63
330
1E
100
AcDbEntity
  8
HIDDEN
100
AcDbLine
 10
6.587663784367165
 20
2.226383791985966
 30
0.0
 11
6.528601284367184
 21
2.16732129198553
 31
0.0
  0
LINE
  5
A64
330
1E
100
AcDbEntity
  8
HIDDEN
100
AcDbLine
 10
6.587663784367165
 20
1.982258791985799
 30
0.0
 11
6.528601284367184
 21
2.041321291985326
 31
0.0
  0
LINE
  5
A66
330
1E
100
AcDbEntity
  8
OBJECT
100
AcDbLine
 10
6.416601284367217
 20
6.884451824121782
 30
0.0
 11
6.528601284367184
 21
6.884451824121782
 31
0.0
  0
LINE
  5
A67
330
1E
100
AcDbEntity
  8
OBJECT
100
AcDbLine
 10
6.416601284367217
 20
7.010451824121986
 30
0.0
 11
6.528601284366956
 21
7.010451824121076
 31
0.0
  0
LINE
  5
A68
330
1E
100
AcDbEntity
  8
OBJECT
100
AcDbLine
 10
6.416601284367217
 20
6.82932682412192
 30
0.0
 11
6.534851284367093
 21
6.82932682412192
 31
0.0
  0
LINE
  5
A69
330
1E
100
AcDbEntity
  8
OBJECT
100
AcDbLine
 10
6.534851284367093
 20
6.770264324122393
 30
0.0
 11
6.940288784367155
 21
6.770264324122393
 31
0.0
  0
LINE
  5
A6A
330
1E
100
AcDbEntity
  8
OBJECT
100
AcDbLine
 10
6.416601284367217
 20
7.065576824121848
 30
0.0
 11
6.534851284367093
 21
7.065576824121848
 31
0.0
  0
LINE
  5
A6B
330
1E
100
AcDbEntity
  8
OBJECT
100
AcDbLine
 10
6.534851284367093
 20
7.124639324122284
 30
0.0
 11
6.940288784367155
 21
7.124639324122284
 31
0.0
  0
LINE
  5
A6C
330
1E
100
AcDbEntity
  8
OBJECT
100
AcDbLine
 10
6.587663784367052
 20
7.069514324121513
 30
0.0
 11
6.52860128436707
 21
7.010451824121076
 31
0.0
  0
LINE
  5
A6D
330
1E
100
AcDbEntity
  8
OBJECT
100
AcDbLine
 10
6.587663784367052
 20
6.825389324121346
 30
0.0
 11
6.52860128436707
 21
6.884451824121782
 31
0.0
  0
LINE
  5
A6E
330
1E
100
AcDbEntity
  8
OBJECT
100
AcDbLine
 10
6.416601284367217
 20
7.065576824121848
 30
0.0
 11
6.416601284367217
 21
6.82932682412192
 31
0.0
  0
LINE
  5
A6F
330
1E
100
AcDbEntity
  8
OBJECT
100
AcDbLine
 10
6.251226284367177
 20
4.533683577041841
 30
0.0
 11
6.782788784367127
 21
4.533683577041841
 31
0.0
  0
LINE
  5
A70
330
1E
100
AcDbEntity
  8
OBJECT
100
AcDbLine
 10
6.459913784367174
 20
4.573058577042132
 30
0.0
 11
6.782788784367127
 21
4.573058577042132
 31
0.0
  0
LINE
  5
A71
330
1E
100
AcDbEntity
  8
OBJECT
100
AcDbLine
 10
6.251226284367177
 20
2.470426623486304
 30
0.0
 11
6.786726284367134
 21
2.470426623486304
 31
0.0
  0
LINE
  5
A72
330
1E
100
AcDbEntity
  8
OBJECT
100
AcDbLine
 10
6.251226284367177
 20
2.431051623486922
 30
0.0
 11
6.786726284367134
 21
2.431051623486922
 31
0.0
  0
LINE
  5
A73
330
1E
100
AcDbEntity
  8
OBJECT
100
AcDbLine
 10
6.786726284367134
 20
2.470426623486304
 30
0.0
 11
6.786726284367134
 21
2.431051623486922
 31
0.0
  0
LINE
  5
A74
330
1E
100
AcDbEntity
  8
OBJECT
100
AcDbLine
 10
6.743413784367177
 20
5.077139394090039
 30
0.0
 11
6.940288784367155
 21
5.096826894089275
 31
0.0
  0
LINE
  5
A75
330
1E
100
AcDbEntity
  8
OBJECT
100
AcDbLine
 10
6.743413784367177
 20
4.880264394089493
 30
0.0
 11
6.940288784367155
 21
4.860576894089348
 31
0.0
  0
LINE
  5
A76
330
1E
100
AcDbEntity
  8
OBJECT
100
AcDbLine
 10
6.743413784367177
 20
5.077139394090039
 30
0.0
 11
6.743413784367177
 21
4.880264394089493
 31
0.0
  0
LINE
  5
A77
330
1E
100
AcDbEntity
  8
OBJECT
100
AcDbLine
 10
6.743413784367177
 20
6.652139324520788
 30
0.0
 11
6.940288784367155
 21
6.671826824520024
 31
0.0
  0
LINE
  5
A78
330
1E
100
AcDbEntity
  8
OBJECT
100
AcDbLine
 10
6.743413784367177
 20
6.455264324520243
 30
0.0
 11
6.940288784367155
 21
6.435576824520097
 31
0.0
  0
LINE
  5
A79
330
1E
100
AcDbEntity
  8
OBJECT
100
AcDbLine
 10
6.743413784367177
 20
6.652139324520788
 30
0.0
 11
6.743413784367177
 21
6.455264324520243
 31
0.0
  0
LINE
  5
A7F
330
1E
100
AcDbEntity
  8
OBJECT
100
AcDbLine
 10
6.743413784367177
 20
6.510389324520104
 30
0.0
 11
6.979663784367218
 21
6.510389324520104
 31
0.0
  0
LINE
  5
A80
330
1E
100
AcDbEntity
  8
OBJECT
100
AcDbLine
 10
6.743413784367177
 20
6.597014324520017
 30
0.0
 11
6.979663784367218
 21
6.597014324520017
 31
0.0
  0
LINE
  5
A81
330
1E
100
AcDbEntity
  8
OBJECT
100
AcDbLine
 10
6.979663784367218
 20
6.597014324520017
 30
0.0
 11
6.979663784367218
 21
6.510389324520104
 31
0.0
  0
LINE
  5
A82
330
1E
100
AcDbEntity
  8
OBJECT
100
AcDbLine
 10
6.979663784367218
 20
5.018037788220469
 30
0.0
 11
6.940288784367155
 21
5.018037788220469
 31
0.0
  0
LINE
  5
A83
330
1E
100
AcDbEntity
  8
OBJECT
100
AcDbLine
 10
6.952101284367174
 20
4.840889394090112
 30
0.0
 11
6.979663784367218
 21
4.813326894089726
 31
0.0
  0
LINE
  5
A84
330
1E
100
AcDbEntity
  8
OBJECT
100
AcDbLine
 10
6.782788784367127
 20
4.573058577042132
 30
0.0
 11
6.782788784367127
 21
4.533683577041841
 31
0.0
  0
LINE
  5
A85
330
1E
100
AcDbEntity
  8
OBJECT
100
AcDbLine
 10
6.459913784367174
 20
4.615245557648989
 30
0.0
 11
6.459913784367174
 21
4.573058577042132
 31
0.0
  0
LINE
  5
A86
330
1E
100
AcDbEntity
  8
OBJECT
100
AcDbLine
 10
6.940288784367155
 20
4.742451824520315
 30
0.0
 11
6.782788784367127
 21
4.739702651794317
 31
0.0
  0
LINE
  5
A87
330
1E
100
AcDbEntity
  8
OBJECT
100
AcDbLine
 10
6.952101284367174
 20
4.880264394089493
 30
0.0
 11
6.979663784367218
 21
4.880264394089493
 31
0.0
  0
LINE
  5
A88
330
1E
100
AcDbEntity
  8
OBJECT
100
AcDbLine
 10
7.026913784367181
 20
2.714639324520788
 30
0.0
 11
7.026913784367181
 21
2.813076824520607
 31
0.0
  0
ARC
  5
A89
330
1E
100
AcDbEntity
  8
OBJECT
100
AcDbCircle
 10
7.026913784367181
 20
2.694951824520643
 30
0.0
 40
0.0196875
100
AcDbArc
 50
0.0
 51
90.0
  0
ARC
  5
A8A
330
1E
100
AcDbEntity
  8
OBJECT
100
AcDbCircle
 10
7.026913784367181
 20
3.088701824519915
 30
0.0
 40
0.0196875
100
AcDbArc
 50
0.0
 51
90.0
  0
LINE
  5
A8B
330
1E
100
AcDbEntity
  8
OBJECT
100
AcDbLine
 10
7.046601284367213
 20
2.537451824520388
 30
0.0
 11
7.046601284367213
 21
2.694951824520643
 31
0.0
  0
ARC
  5
A8C
330
1E
100
AcDbEntity
  8
OBJECT
100
AcDbCircle
 10
7.026913784367181
 20
2.537451824520388
 30
0.0
 40
0.0196875
100
AcDbArc
 50
270.0
 51
0.0
  0
LINE
  5
A8D
330
1E
100
AcDbEntity
  8
OBJECT
100
AcDbLine
 10
7.046601284367213
 20
2.93120182452057
 30
0.0
 11
7.046601284367213
 21
3.088701824519915
 31
0.0
  0
ARC
  5
A8E
330
1E
100
AcDbEntity
  8
OBJECT
100
AcDbCircle
 10
7.026913784367181
 20
2.93120182452057
 30
0.0
 40
0.0196875
100
AcDbArc
 50
270.0
 51
0.0
  0
ARC
  5
A8F
330
1E
100
AcDbEntity
  8
OBJECT
100
AcDbCircle
 10
7.026913784367181
 20
3.482451824520097
 30
0.0
 40
0.0196875
100
AcDbArc
 50
0.0
 51
90.0
  0
ARC
  5
A90
330
1E
100
AcDbEntity
  8
OBJECT
100
AcDbCircle
 10
7.026913784367181
 20
3.876201824520279
 30
0.0
 40
0.0196875
100
AcDbArc
 50
0.0
 51
90.0
  0
LINE
  5
A91
330
1E
100
AcDbEntity
  8
OBJECT
100
AcDbLine
 10
7.046601284367213
 20
3.324951824520752
 30
0.0
 11
7.046601284367213
 21
3.482451824520097
 31
0.0
  0
ARC
  5
A92
330
1E
100
AcDbEntity
  8
OBJECT
100
AcDbCircle
 10
7.026913784367181
 20
3.324951824520752
 30
0.0
 40
0.0196875
100
AcDbArc
 50
270.0
 51
0.0
  0
LINE
  5
A93
330
1E
100
AcDbEntity
  8
OBJECT
100
AcDbLine
 10
7.046601284367213
 20
3.718701824520024
 30
0.0
 11
7.046601284367213
 21
3.876201824520279
 31
0.0
  0
ARC
  5
A94
330
1E
100
AcDbEntity
  8
OBJECT
100
AcDbCircle
 10
7.026913784367181
 20
3.718701824520024
 30
0.0
 40
0.0196875
100
AcDbArc
 50
270.0
 51
0.0
  0
ARC
  5
A95
330
1E
100
AcDbEntity
  8
OBJECT
100
AcDbCircle
 10
7.026913784367181
 20
4.269951824520461
 30
0.0
 40
0.0196875
100
AcDbArc
 50
0.0
 51
90.0
  0
ARC
  5
A96
330
1E
100
AcDbEntity
  8
OBJECT
100
AcDbCircle
 10
7.026913784367181
 20
4.663701824520643
 30
0.0
 40
0.0196875
100
AcDbArc
 50
0.0
 51
90.0
  0
LINE
  5
A97
330
1E
100
AcDbEntity
  8
OBJECT
100
AcDbLine
 10
7.046601284367213
 20
4.112451824520206
 30
0.0
 11
7.046601284367213
 21
4.269951824520461
 31
0.0
  0
ARC
  5
A98
330
1E
100
AcDbEntity
  8
OBJECT
100
AcDbCircle
 10
7.026913784367181
 20
4.112451824520206
 30
0.0
 40
0.0196875
100
AcDbArc
 50
270.0
 51
0.0
  0
LINE
  5
A99
330
1E
100
AcDbEntity
  8
OBJECT
100
AcDbLine
 10
7.046601284367213
 20
4.506201824520388
 30
0.0
 11
7.046601284367213
 21
4.663701824520643
 31
0.0
  0
ARC
  5
A9A
330
1E
100
AcDbEntity
  8
OBJECT
100
AcDbCircle
 10
7.026913784367181
 20
4.506201824520388
 30
0.0
 40
0.0196875
100
AcDbArc
 50
270.0
 51
0.0
  0
ARC
  5
A9B
330
1E
100
AcDbEntity
  8
OBJECT
100
AcDbCircle
 10
7.026913784367181
 20
5.057451824519915
 30
0.0
 40
0.0196875
100
AcDbArc
 50
0.0
 51
90.0
  0
ARC
  5
A9C
330
1E
100
AcDbEntity
  8
OBJECT
100
AcDbCircle
 10
7.026913784367181
 20
5.451201824520097
 30
0.0
 40
0.0196875
100
AcDbArc
 50
0.0
 51
90.0
  0
LINE
  5
A9D
330
1E
100
AcDbEntity
  8
OBJECT
100
AcDbLine
 10
7.046601284367213
 20
4.89995182452057
 30
0.0
 11
7.046601284367213
 21
5.057451824519915
 31
0.0
  0
ARC
  5
A9E
330
1E
100
AcDbEntity
  8
OBJECT
100
AcDbCircle
 10
7.026913784367181
 20
4.89995182452057
 30
0.0
 40
0.0196875
100
AcDbArc
 50
270.0
 51
0.0
  0
LINE
  5
A9F
330
1E
100
AcDbEntity
  8
OBJECT
100
AcDbLine
 10
7.046601284367213
 20
5.293701824520752
 30
0.0
 11
7.046601284367213
 21
5.451201824520097
 31
0.0
  0
ARC
  5
AA0
330
1E
100
AcDbEntity
  8
OBJECT
100
AcDbCircle
 10
7.026913784367181
 20
5.293701824520752
 30
0.0
 40
0.0196875
100
AcDbArc
 50
270.0
 51
0.0
  0
ARC
  5
AA1
330
1E
100
AcDbEntity
  8
OBJECT
100
AcDbCircle
 10
7.026913784367181
 20
5.844951824520279
 30
0.0
 40
0.0196875
100
AcDbArc
 50
0.0
 51
90.0
  0
LINE
  5
AA2
330
1E
100
AcDbEntity
  8
OBJECT
100
AcDbLine
 10
7.046601284367213
 20
5.687451824520024
 30
0.0
 11
7.046601284367213
 21
5.844951824520279
 31
0.0
  0
ARC
  5
AA3
330
1E
100
AcDbEntity
  8
OBJECT
100
AcDbCircle
 10
7.026913784367181
 20
5.687451824520024
 30
0.0
 40
0.0196875
100
AcDbArc
 50
270.0
 51
0.0
  0
ARC
  5
AA4
330
1E
100
AcDbEntity
  8
OBJECT
100
AcDbCircle
 10
7.026913784367181
 20
6.238701824520461
 30
0.0
 40
0.0196875
100
AcDbArc
 50
0.0
 51
90.0
  0
ARC
  5
AA5
330
1E
100
AcDbEntity
  8
OBJECT
100
AcDbCircle
 10
7.026913784367181
 20
6.632451824520643
 30
0.0
 40
0.0196875
100
AcDbArc
 50
0.0
 51
90.0
  0
LINE
  5
AA6
330
1E
100
AcDbEntity
  8
OBJECT
100
AcDbLine
 10
7.046601284367213
 20
6.081201824520206
 30
0.0
 11
7.046601284367213
 21
6.238701824520461
 31
0.0
  0
ARC
  5
AA7
330
1E
100
AcDbEntity
  8
OBJECT
100
AcDbCircle
 10
7.026913784367181
 20
6.081201824520206
 30
0.0
 40
0.0196875
100
AcDbArc
 50
270.0
 51
0.0
  0
LINE
  5
AA8
330
1E
100
AcDbEntity
  8
OBJECT
100
AcDbLine
 10
7.046601284367213
 20
6.474951824520388
 30
0.0
 11
7.046601284367213
 21
6.632451824520643
 31
0.0
  0
ARC
  5
AA9
330
1E
100
AcDbEntity
  8
OBJECT
100
AcDbCircle
 10
7.026913784367181
 20
6.474951824520388
 30
0.0
 40
0.0196875
100
AcDbArc
 50
270.0
 51
0.0
  0
LINE
  5
AAA
330
1E
100
AcDbEntity
  8
OBJECT
100
AcDbLine
 10
7.026913784367181
 20
5.077139324520061
 30
0.0
 11
7.026913784367181
 21
5.274014324520607
 31
0.0
  0
LINE
  5
AAB
330
1E
100
AcDbEntity
  8
OBJECT
100
AcDbLine
 10
7.026913784367181
 20
5.470889324520243
 30
0.0
 11
7.026913784367181
 21
5.667764324520788
 31
0.0
  0
LINE
  5
AAC
330
1E
100
AcDbEntity
  8
OBJECT
100
AcDbLine
 10
7.026913784367181
 20
5.864639324520425
 30
0.0
 11
7.026913784367181
 21
6.061514324520061
 31
0.0
  0
LINE
  5
AAD
330
1E
100
AcDbEntity
  8
OBJECT
100
AcDbLine
 10
7.026913784367181
 20
6.258389324520607
 30
0.0
 11
7.026913784367181
 21
6.455264324520243
 31
0.0
  0
LINE
  5
AAE
330
1E
100
AcDbEntity
  8
OBJECT
100
AcDbLine
 10
7.026913784367181
 20
4.880264324520425
 30
0.0
 11
7.026913784367181
 21
1.947013290076569
 31
0.0
  0
LINE
  5
AB4
330
1E
100
AcDbEntity
  8
OBJECT
100
AcDbLine
 10
7.026913784367181
 20
7.222890358964463
 30
0.0
 11
7.026913784367181
 21
6.652139324520788
 31
0.0
  0
LINE
  5
AB5
330
1E
100
AcDbEntity
  8
OBJECT
100
AcDbLine
 10
6.534851284367093
 20
7.065576824121848
 30
0.0
 11
6.534851284367093
 21
7.124639324122284
 31
0.0
  0
LINE
  5
AB6
330
1E
100
AcDbEntity
  8
OBJECT
100
AcDbLine
 10
6.534851284367093
 20
6.82932682412192
 30
0.0
 11
6.534851284367093
 21
6.770264324122393
 31
0.0
  0
LINE
  5
AB7
330
1E
100
AcDbEntity
  8
OBJECT
100
AcDbLine
 10
6.587663784367052
 20
7.069514324121513
 30
0.0
 11
7.026913784367181
 21
7.069514324122422
 31
0.0
  0
LINE
  5
AB8
330
1E
100
AcDbEntity
  8
OBJECT
100
AcDbLine
 10
6.587663784367052
 20
6.825389324121346
 30
0.0
 11
7.026913784367181
 21
6.825389324122255
 31
0.0
  0
LINE
  5
AB9
330
1E
100
AcDbEntity
  8
OBJECT
100
AcDbLine
 10
6.416601284367217
 20
7.439639324520243
 30
0.0
 11
6.416601284367217
 21
7.372701824520476
 31
0.0
  0
LINE
  5
ABB
330
1E
100
AcDbEntity
  8
OBJECT
100
AcDbLine
 10
6.416601284367217
 20
7.439639324520243
 30
0.0
 11
6.416601284367217
 21
7.372701824520476
 31
0.0
  0
LINE
  5
ABC
330
1E
100
AcDbEntity
  8
OBJECT
100
AcDbLine
 10
6.416601284367217
 20
7.439639324520243
 30
0.0
 11
5.878856599535922
 21
7.411457319767208
 31
0.0
  0
LINE
  5
ABD
330
1E
100
AcDbEntity
  8
OBJECT
100
AcDbLine
 10
6.345726284367103
 20
7.329466525629499
 30
0.0
 11
5.853538784367103
 21
7.303672071763315
 31
0.0
  0
LINE
  5
ABE
330
1E
100
AcDbEntity
  8
OBJECT
100
AcDbLine
 10
5.766836264783179
 20
6.455264324520243
 30
0.0
 11
5.767382537024488
 21
6.455264324520243
 31
0.0
  0
ARC
  5
AC0
330
1E
100
AcDbEntity
  8
OBJECT
100
AcDbCircle
 10
5.766836264783179
 20
6.632451824520643
 30
0.0
 40
0.0196875
100
AcDbArc
 50
90.0
 51
180.0
  0
LINE
  5
AC1
330
1E
100
AcDbEntity
  8
OBJECT
100
AcDbLine
 10
5.747148764783148
 20
6.474951824520388
 30
0.0
 11
5.747148764783148
 21
6.632451824520643
 31
0.0
  0
ARC
  5
AC2
330
1E
100
AcDbEntity
  8
OBJECT
100
AcDbCircle
 10
5.766836264783179
 20
6.474951824520388
 30
0.0
 40
0.0196875
100
AcDbArc
 50
180.0
 51
270.0
  0
LINE
  5
AC3
330
1E
100
AcDbEntity
  8
OBJECT
100
AcDbLine
 10
5.76691378436719
 20
6.652139324520788
 30
0.0
 11
5.76691378436719
 21
7.293494205974269
 31
0.0
  0
ARC
  5
AC4
330
1E
100
AcDbEntity
  8
OBJECT
100
AcDbCircle
 10
5.885038784367154
 20
7.293494205974269
 30
0.0
 40
0.118125
100
AcDbArc
 50
93.0000000000056
 51
180.0
  0
LINE
  5
AC5
330
1E
100
AcDbEntity
  8
HIDDEN
100
AcDbLine
 10
5.853538784367103
 20
6.991921111146069
 30
0.0
 11
5.853538784367103
 21
7.043020916287112
 31
0.0
  0
ARC
  5
AC6
330
1E
100
AcDbEntity
  8
OBJECT
100
AcDbCircle
 10
41.24371126478324
 20
6.652139324520788
 30
0.0
 40
35.4965625
100
AcDbArc
 50
180.6677239766744
 51
180.9221139494016
  0
ARC
  5
AC7
330
1E
100
AcDbEntity
  8
OBJECT
100
AcDbCircle
 10
5.769245388617875
 20
6.238701824520461
 30
0.0
 40
0.0196875
100
AcDbArc
 50
91.32868653468587
 51
180.6677239766744
  0
ARC
  5
AC8
330
1E
100
AcDbEntity
  8
OBJECT
100
AcDbCircle
 10
5.771430676460155
 20
6.081201824520206
 30
0.0
 40
0.0196875
100
AcDbArc
 50
180.9221139493495
 51
269.1328280647226
  0
ARC
  5
AC9
330
1E
100
AcDbEntity
  8
OBJECT
100
AcDbCircle
 10
41.24371126478324
 20
6.652139324520788
 30
0.0
 40
35.4965625
100
AcDbArc
 50
181.3037345662653
 51
181.5581794065209
  0
ARC
  5
ACA
330
1E
100
AcDbEntity
  8
OBJECT
100
AcDbCircle
 10
5.776020219192602
 20
5.844951824520279
 30
0.0
 40
0.0196875
100
AcDbArc
 50
94.67471928561582
 51
181.3037345662653
  0
ARC
  5
ACB
330
1E
100
AcDbEntity
  8
OBJECT
100
AcDbCircle
 10
5.779954585703464
 20
5.687451824520024
 30
0.0
 40
0.0196875
100
AcDbArc
 50
181.558179406573
 51
266.1513484500164
  0
ARC
  5
ACC
330
1E
100
AcDbEntity
  8
OBJECT
100
AcDbCircle
 10
41.22249935373069
 20
6.650468105063367
 30
0.0
 40
35.4965625
100
AcDbArc
 50
185.1259364474567
 51
185.3813750140889
  0
ARC
  5
ACD
330
1E
100
AcDbEntity
  8
OBJECT
100
AcDbCircle
 10
5.887506203625591
 20
3.480780605063586
 30
0.0
 40
0.0196875
100
AcDbArc
 50
90.84360730863535
 51
185.1259364474567
  0
ARC
  5
ACE
330
1E
100
AcDbEntity
  8
OBJECT
100
AcDbCircle
 10
5.901988554685473
 20
3.323280605063331
 30
0.0
 40
0.0196875
100
AcDbArc
 50
185.3813750140323
 51
272.1868795600192
  0
ARC
  5
ACF
330
1E
100
AcDbEntity
  8
OBJECT
100
AcDbCircle
 10
41.21705050098493
 20
6.649782002310161
 30
0.0
 40
35.4965625
100
AcDbArc
 50
185.764735723955
 51
186.0204523984016
  0
ARC
  5
AD0
330
1E
100
AcDbEntity
  8
OBJECT
100
AcDbCircle
 10
5.919592052121785
 20
3.086344502310197
 30
0.0
 40
0.0196875
100
AcDbArc
 50
90.93187649001825
 51
185.764735723955
  0
ARC
  5
AD1
330
1E
100
AcDbEntity
  8
OBJECT
100
AcDbCircle
 10
5.935847518564898
 20
2.928844502309942
 30
0.0
 40
0.0196875
100
AcDbArc
 50
186.0204523984535
 51
272.4608637036904
  0
ARC
  5
AD2
330
1E
100
AcDbEntity
  8
OBJECT
100
AcDbCircle
 10
41.21098139801659
 20
6.648929177960411
 30
0.0
 40
35.4965625
100
AcDbArc
 50
186.4042548534708
 51
186.6602824920689
  0
ARC
  5
AD3
330
1E
100
AcDbEntity
  8
OBJECT
100
AcDbCircle
 10
5.955494919236045
 20
2.691741677960266
 30
0.0
 40
0.0196875
100
AcDbArc
 50
91.00840835794114
 51
186.4042548534708
  0
ARC
  5
AD4
330
1E
100
AcDbEntity
  8
OBJECT
100
AcDbCircle
 10
5.973529637950647
 20
2.534241677960011
 30
0.0
 40
0.0196875
100
AcDbArc
 50
186.6602824921205
 51
272.7447867284346
  0
ARC
  5
AD5
330
1E
100
AcDbEntity
  8
OBJECT
100
AcDbCircle
 10
41.24371126478324
 20
6.652139324520788
 30
0.0
 40
35.4965625
100
AcDbArc
 50
181.9399058794463
 51
182.1944370118779
  0
ARC
  5
AD6
330
1E
100
AcDbEntity
  8
OBJECT
100
AcDbCircle
 10
5.787168724841237
 20
5.451201824520097
 30
0.0
 40
0.0196875
100
AcDbArc
 50
90.0
 51
181.9399058794463
  0
ARC
  5
AD7
330
1E
100
AcDbEntity
  8
OBJECT
100
AcDbCircle
 10
5.792853626014832
 20
5.293701824520752
 30
0.0
 40
0.0196875
100
AcDbArc
 50
182.19443701193
 51
270.0
  0
ARC
  5
AD8
330
1E
100
AcDbEntity
  8
OBJECT
100
AcDbCircle
 10
41.23807898105421
 20
6.651911331869627
 30
0.0
 40
35.4965625
100
AcDbArc
 50
182.5763165436897
 51
182.8309654888854
  0
ARC
  5
AD9
330
1E
100
AcDbEntity
  8
OBJECT
100
AcDbCircle
 10
5.797062749250628
 20
5.057223831869663
 30
0.0
 40
0.0196875
100
AcDbArc
 50
89.99999999994789
 51
182.5763165436378
  0
ARC
  5
ADA
330
1E
100
AcDbEntity
  8
OBJECT
100
AcDbCircle
 10
5.804500291759083
 20
4.899723831869408
 30
0.0
 40
0.0196875
100
AcDbArc
 50
182.8309654888854
 51
270.0
  0
ARC
  5
ADB
330
1E
100
AcDbEntity
  8
OBJECT
100
AcDbCircle
 10
41.23511755142219
 20
6.651709386357282
 30
0.0
 40
35.4965625
100
AcDbArc
 50
183.2130454525964
 51
183.4678438624076
  0
ARC
  5
ADC
330
1E
100
AcDbEntity
  8
OBJECT
100
AcDbCircle
 10
5.823204132182624
 20
4.505771886356882
 30
0.0
 40
0.0196875
100
AcDbArc
 50
183.4678438624076
 51
271.4249986097581
  0
ARC
  5
ADD
330
1E
100
AcDbEntity
  8
OBJECT
100
AcDbCircle
 10
5.814011187077468
 20
4.663271886357136
 30
0.0
 40
0.0196875
100
AcDbArc
 50
90.51006932010883
 51
183.2130454525445
  0
ARC
  5
ADE
330
1E
100
AcDbEntity
  8
OBJECT
100
AcDbCircle
 10
41.23153347671386
 20
6.651413587962991
 30
0.0
 40
35.4965625
100
AcDbArc
 50
183.8501718548017
 51
184.1051515480749
  0
ARC
  5
ADF
330
1E
100
AcDbEntity
  8
OBJECT
100
AcDbCircle
 10
5.834727936093869
 20
4.269226087962664
 30
0.0
 40
0.0196875
100
AcDbArc
 50
90.63254636092279
 51
183.8501718548537
  0
ARC
  5
AE0
330
1E
100
AcDbEntity
  8
OBJECT
100
AcDbCircle
 10
5.845679704790128
 20
4.111726087963319
 30
0.0
 40
0.0196875
100
AcDbArc
 50
184.1051515480749
 51
271.6688987272084
  0
ARC
  5
AE1
330
1E
100
AcDbEntity
  8
OBJECT
100
AcDbCircle
 10
41.22732722605057
 20
6.651005878676727
 30
0.0
 40
35.4965625
100
AcDbArc
 50
184.4877754434589
 51
184.7429684423441
  0
ARC
  5
AE2
330
1E
100
AcDbEntity
  8
OBJECT
100
AcDbCircle
 10
5.859222516273959
 20
3.875068378677127
 30
0.0
 40
0.0196875
100
AcDbArc
 50
90.74377622764405
 51
184.487775443511
  0
ARC
  5
AE3
330
1E
100
AcDbEntity
  8
OBJECT
100
AcDbCircle
 10
5.871937195685788
 20
3.717568378676872
 30
0.0
 40
0.0196875
100
AcDbArc
 50
184.7429684422923
 51
271.9228759124991
  0
LINE
  5
AE4
330
1E
100
AcDbEntity
  8
OBJECT
100
AcDbLine
 10
6.345726284367103
 20
1.836310010792288
 30
0.0
 11
6.13427100055064
 21
1.84739191263506
 31
0.0
  0
ARC
  5
AE5
330
1E
100
AcDbEntity
  8
OBJECT
100
AcDbCircle
 10
47.11066378436719
 20
6.652139324520788
 30
0.0
 40
41.34375
100
AcDbArc
 50
180.0
 51
186.6727710193452
  0
ARC
  5
AE6
330
1E
100
AcDbEntity
  8
OBJECT
100
AcDbCircle
 10
6.164301850669787
 20
1.861773885926226
 30
0.0
 40
0.118125
100
AcDbArc
 50
186.6727710193452
 51
266.9999999999943
  0
ARC
  5
AE7
330
1E
100
AcDbEntity
  8
OBJECT
100
AcDbCircle
 10
47.11066378436719
 20
6.652139324520788
 30
0.0
 40
41.257125
100
AcDbArc
 50
186.218261993465
 51
186.6877625658354
  0
LINE
  5
AE8
330
1E
100
AcDbEntity
  8
OBJECT
100
AcDbLine
 10
6.416601284367217
 20
1.794252052438963
 30
0.0
 11
6.345726284367103
 21
1.794252052438963
 31
0.0
  0
LINE
  5
AE9
330
1E
100
AcDbEntity
  8
OBJECT
100
AcDbLine
 10
6.345726284367103
 20
1.794252052438963
 30
0.0
 11
6.345726284367103
 21
1.840437123410623
 31
0.0
  0
LINE
  5
AEA
330
1E
100
AcDbEntity
  8
OBJECT
100
AcDbLine
 10
6.345726284367103
 20
1.840437123410623
 30
0.0
 11
6.345726284367103
 21
1.986321291984125
 31
0.0
  0
LINE
  5
AEB
330
1E
100
AcDbEntity
  8
OBJECT
100
AcDbLine
 10
6.345726284367103
 20
2.225408302438694
 30
0.0
 11
6.345726284367103
 21
2.327281151108394
 31
0.0
  0
LINE
  5
AEC
330
1E
100
AcDbEntity
  8
OBJECT
100
AcDbLine
 10
6.345726284367103
 20
2.222571291984962
 30
0.0
 11
6.345726284367103
 21
2.327281151108394
 31
0.0
  0
LINE
  5
AED
330
1E
100
AcDbEntity
  8
OBJECT
100
AcDbLine
 10
6.345726284367103
 20
7.065576786312334
 30
0.0
 11
6.345726284367103
 21
7.381564552438788
 31
0.0
  0
LINE
  5
AEE
330
1E
100
AcDbEntity
  8
OBJECT
100
AcDbLine
 10
6.345726284367103
 20
7.381564552438788
 30
0.0
 11
6.416601284367217
 21
7.381564552438788
 31
0.0
  0
LINE
  5
AF0
330
1E
100
AcDbEntity
  8
OBJECT
100
AcDbLine
 10
5.80628878436714
 20
6.950408302439058
 30
0.0
 11
6.043959957499666
 21
2.225408302438694
 31
0.0
  0
LINE
  5
AF1
330
1E
100
AcDbEntity
  8
OBJECT
100
AcDbLine
 10
6.043959957499666
 20
2.225408302438694
 30
0.0
 11
6.004584957499716
 21
2.225408302438694
 31
0.0
  0
LINE
  5
AF2
330
1E
100
AcDbEntity
  8
OBJECT
100
AcDbLine
 10
5.80628878436714
 20
6.950408302439058
 30
0.0
 11
5.76691378436719
 21
6.950408302439058
 31
0.0
  0
LINE
  5
AF3
330
1E
100
AcDbEntity
  8
HIDDEN
100
AcDbLine
 10
5.853538784367103
 20
6.991921111146069
 30
0.0
 11
5.873211263238928
 21
6.991921111146069
 31
0.0
  0
LINE
  5
AF4
330
1E
100
AcDbEntity
  8
OBJECT
100
AcDbLine
 10
6.115682814944918
 20
2.185438156745107
 30
0.0
 11
5.881413622139477
 21
6.829326786312406
 31
0.0
  0
LINE
  5
AF6
330
1E
100
AcDbEntity
  8
OBJECT
100
AcDbLine
 10
6.388913784367147
 20
6.903951786312603
 30
0.0
 11
6.416601284367217
 21
6.876576786312028
 31
0.0
  0
LINE
  5
AF7
330
1E
100
AcDbEntity
  8
OBJECT
100
AcDbLine
 10
6.416601284367104
 20
7.018326786311803
 30
0.0
 11
6.388913784367034
 21
6.990951786312137
 31
0.0
  0
LINE
  5
AF8
330
1E
100
AcDbEntity
  8
OBJECT
100
AcDbLine
 10
5.881264475443273
 20
6.829326786312407
 30
0.0
 11
6.416601284367217
 21
6.829326786312407
 31
0.0
  0
LINE
  5
AF9
330
1E
100
AcDbEntity
  8
OBJECT
100
AcDbLine
 10
5.853538784367103
 20
7.065576786312334
 30
0.0
 11
6.416601284367104
 21
7.065576786312334
 31
0.0
  0
LINE
  5
AFB
330
1E
100
AcDbEntity
  8
OBJECT
100
AcDbLine
 10
6.388913784367034
 20
6.990951786312137
 30
0.0
 11
6.388913784367034
 21
6.903951786312603
 31
0.0
  0
LINE
  5
AFC
330
1E
100
AcDbEntity
  8
OBJECT
100
AcDbLine
 10
6.388913784367034
 20
6.990951786312137
 30
0.0
 11
5.91666378436709
 21
6.990951786312137
 31
0.0
  0
LINE
  5
AFD
330
1E
100
AcDbEntity
  8
OBJECT
100
AcDbLine
 10
6.388913784367034
 20
6.903951786312603
 30
0.0
 11
5.91666378436709
 21
6.903951786312603
 31
0.0
  0
LINE
  5
AFE
330
1E
100
AcDbEntity
  8
OBJECT
100
AcDbLine
 10
5.91666378436709
 20
6.903951786312603
 30
0.0
 11
5.91666378436709
 21
6.990951786312137
 31
0.0
  0
LINE
  5
B02
330
1E
100
AcDbEntity
  8
OBJECT
100
AcDbLine
 10
6.117896480203214
 20
1.986321291985035
 30
0.0
 11
6.416601284367217
 21
1.986321291985035
 31
0.0
  0
LINE
  5
B04
330
1E
100
AcDbEntity
  8
OBJECT
100
AcDbLine
 10
6.113666450101774
 20
2.222571291984962
 30
0.0
 11
6.416601284367217
 21
2.222571291984962
 31
0.0
  0
LINE
  5
B05
330
1E
100
AcDbEntity
  8
HIDDEN
100
AcDbLine
 10
6.388913784367147
 20
2.060821291985661
 30
0.0
 11
6.073038784367208
 21
2.060821291985661
 31
0.0
  0
LINE
  5
B06
330
1E
100
AcDbEntity
  8
HIDDEN
100
AcDbLine
 10
6.388913784367147
 20
2.147821291985195
 30
0.0
 11
6.073038784367208
 21
2.147821291985195
 31
0.0
  0
LINE
  5
B07
330
1E
100
AcDbEntity
  8
HIDDEN
100
AcDbLine
 10
6.416601284367217
 20
2.175321291985341
 30
0.0
 11
6.388913784367147
 21
2.147821291985195
 31
0.0
  0
LINE
  5
B08
330
1E
100
AcDbEntity
  8
HIDDEN
100
AcDbLine
 10
6.073038784367208
 20
2.147821291985195
 30
0.0
 11
6.073038784367208
 21
2.060821291985661
 31
0.0
  0
LINE
  5
B09
330
1E
100
AcDbEntity
  8
HIDDEN
100
AcDbLine
 10
6.388913784367147
 20
2.060821291985661
 30
0.0
 11
6.416601284367104
 21
2.033571291985566
 31
0.0
  0
LINE
  5
B0A
330
1E
100
AcDbEntity
  8
HIDDEN
100
AcDbLine
 10
6.388913784367147
 20
2.147821291985195
 30
0.0
 11
6.388913784367147
 21
2.060821291985661
 31
0.0
  0
LINE
  5
B0C
330
1E
100
AcDbEntity
  8
OBJECT
100
AcDbLine
 10
6.416601284367217
 20
1.730264324520788
 30
0.0
 11
6.158119665838555
 21
1.743810772133286
 31
0.0
  0
LINE
  5
B0D
330
1E
100
AcDbEntity
  8
OBJECT
100
AcDbLine
 10
6.115682814944918
 20
2.185438156745107
 30
0.0
 11
6.096275465723962
 21
2.183323584975909
 31
0.0
  0
ARC
  5
B11
330
1E
100
AcDbEntity
  8
OBJECT
100
AcDbCircle
 10
3.005848013393276
 20
17.05718991796948
 30
0.0
 40
5.807176386849635
100
AcDbArc
 50
257.6088217061802
 51
282.3911782938197
  0
ARC
  5
B15
330
1E
100
AcDbEntity
  8
OBJECT
100
AcDbCircle
 10
1.844208190841797
 20
11.76986751731055
 30
0.0
 40
0.39375
100
AcDbArc
 50
190.5946094360651
 51
257.6088217061802
  0
ARC
  5
B19
330
1E
100
AcDbEntity
  8
OBJECT
100
AcDbCircle
 10
4.167487835944754
 20
11.76986751731055
 30
0.0
 40
0.39375
100
AcDbArc
 50
282.3911782938197
 51
349.4053905639348
  0
LINE
  5
B2B
330
1E
100
AcDbEntity
  8
OBJECT
100
AcDbLine
 10
6.455976284367167
 20
16.95938853111965
 30
0.0
 11
6.455976284367167
 21
11.2500135311202
 31
0.0
  0
LINE
  5
B2C
330
1E
100
AcDbEntity
  8
OBJECT
100
AcDbLine
 10
6.455976284367167
 20
16.95938853111965
 30
0.0
 11
6.455976284367167
 21
11.2500135311202
 31
0.0
  0
LINE
  5
B2D
330
1E
100
AcDbEntity
  8
OBJECT
100
AcDbLine
 10
6.416601284367104
 20
16.95938853111965
 30
0.0
 11
5.878856599535808
 21
16.93120652636662
 31
0.0
  0
LINE
  5
B2E
330
1E
100
AcDbEntity
  8
OBJECT
100
AcDbLine
 10
5.766836264783179
 20
15.97501353111965
 30
0.0
 11
5.767382537024374
 21
15.97501353111965
 31
0.0
  0
LINE
  5
B2F
330
1E
100
AcDbEntity
  8
OBJECT
100
AcDbLine
 10
5.766836264783179
 20
16.1718885311202
 30
0.0
 11
5.766913784367076
 21
16.1718885311202
 31
0.0
  0
ARC
  5
B30
330
1E
100
AcDbEntity
  8
OBJECT
100
AcDbCircle
 10
5.766836264783179
 20
16.15220103112005
 30
0.0
 40
0.0196875
100
AcDbArc
 50
90.0
 51
180.0
  0
LINE
  5
B31
330
1E
100
AcDbEntity
  8
OBJECT
100
AcDbLine
 10
5.747148764783148
 20
15.9947010311198
 30
0.0
 11
5.747148764783148
 21
16.15220103112005
 31
0.0
  0
ARC
  5
B32
330
1E
100
AcDbEntity
  8
OBJECT
100
AcDbCircle
 10
5.766836264783179
 20
15.9947010311198
 30
0.0
 40
0.0196875
100
AcDbArc
 50
180.0
 51
270.0
  0
LINE
  5
B33
330
1E
100
AcDbEntity
  8
OBJECT
100
AcDbLine
 10
5.766913784367076
 20
16.1718885311202
 30
0.0
 11
5.766913784367076
 21
16.81324341257368
 31
0.0
  0
ARC
  5
B34
330
1E
100
AcDbEntity
  8
OBJECT
100
AcDbCircle
 10
5.88503878436704
 20
16.81324341257368
 30
0.0
 40
0.118125
100
AcDbArc
 50
93.0000000000056
 51
180.0
  0
ARC
  5
B35
330
1E
100
AcDbEntity
  8
OBJECT
100
AcDbCircle
 10
41.24371126478313
 20
16.1718885311202
 30
0.0
 40
35.4965625
100
AcDbArc
 50
180.6677239766746
 51
180.9221139493885
  0
ARC
  5
B36
330
1E
100
AcDbEntity
  8
OBJECT
100
AcDbCircle
 10
5.769245388617761
 20
15.75845103111987
 30
0.0
 40
0.0196875
100
AcDbArc
 50
89.99999999997395
 51
180.6677239766746
  0
ARC
  5
B37
330
1E
100
AcDbEntity
  8
OBJECT
100
AcDbCircle
 10
5.771430676460155
 20
15.60095103111962
 30
0.0
 40
0.0196875
100
AcDbArc
 50
180.9221139493495
 51
270.0
  0
ARC
  5
B38
330
1E
100
AcDbEntity
  8
OBJECT
100
AcDbCircle
 10
41.24371126478313
 20
16.1718885311202
 30
0.0
 40
35.4965625
100
AcDbArc
 50
181.3037345662781
 51
181.5581794065204
  0
ARC
  5
B39
330
1E
100
AcDbEntity
  8
OBJECT
100
AcDbCircle
 10
5.776020219192488
 20
15.36470103111969
 30
0.0
 40
0.0196875
100
AcDbArc
 50
90.0
 51
181.3037345662651
  0
ARC
  5
B3A
330
1E
100
AcDbEntity
  8
OBJECT
100
AcDbCircle
 10
5.779954585703464
 20
15.20720103111943
 30
0.0
 40
0.0196875
100
AcDbArc
 50
181.5581794065726
 51
270.0
  0
ARC
  5
B3B
330
1E
100
AcDbEntity
  8
OBJECT
100
AcDbCircle
 10
41.22249935373069
 20
16.17135075750593
 30
0.0
 40
35.4965625
100
AcDbArc
 50
185.1259364474443
 51
185.3813750140737
  0
ARC
  5
B3C
330
1E
100
AcDbEntity
  8
OBJECT
100
AcDbCircle
 10
5.887506203625704
 20
13.00166325750615
 30
0.0
 40
0.0196875
100
AcDbArc
 50
90.0
 51
185.1259364474577
  0
ARC
  5
B3D
330
1E
100
AcDbEntity
  8
OBJECT
100
AcDbCircle
 10
5.901988554685473
 20
12.84416325750589
 30
0.0
 40
0.0196875
100
AcDbArc
 50
185.3813750140349
 51
270.000000000026
  0
ARC
  5
B3E
330
1E
100
AcDbEntity
  8
OBJECT
100
AcDbCircle
 10
41.21705050098493
 20
16.17066465475272
 30
0.0
 40
35.4965625
100
AcDbArc
 50
185.7647357239565
 51
186.0204523984032
  0
ARC
  5
B3F
330
1E
100
AcDbEntity
  8
OBJECT
100
AcDbCircle
 10
5.919592052121785
 20
12.60722715475276
 30
0.0
 40
0.0196875
100
AcDbArc
 50
89.99999999997395
 51
185.7647357239565
  0
ARC
  5
B40
330
1E
100
AcDbEntity
  8
OBJECT
100
AcDbCircle
 10
5.935847518564898
 20
12.44972715475251
 30
0.0
 40
0.0196875
100
AcDbArc
 50
186.0204523984554
 51
270.0
  0
ARC
  5
B41
330
1E
100
AcDbEntity
  8
OBJECT
100
AcDbCircle
 10
41.21098139801659
 20
16.16981183040297
 30
0.0
 40
35.4965625
100
AcDbArc
 50
186.4042548534837
 51
186.6602824920829
  0
ARC
  5
B42
330
1E
100
AcDbEntity
  8
OBJECT
100
AcDbCircle
 10
5.955494919236159
 20
12.21262433040283
 30
0.0
 40
0.0196875
100
AcDbArc
 50
89.99999999997395
 51
186.404254853471
  0
ARC
  5
B43
330
1E
100
AcDbEntity
  8
OBJECT
100
AcDbCircle
 10
5.973529637950647
 20
12.05512433040257
 30
0.0
 40
0.0196875
100
AcDbArc
 50
186.660282492122
 51
270.000000000026
  0
ARC
  5
B44
330
1E
100
AcDbEntity
  8
OBJECT
100
AcDbCircle
 10
41.24371126478313
 20
16.1718885311202
 30
0.0
 40
35.4965625
100
AcDbArc
 50
181.9399058794719
 51
182.1944370118903
  0
ARC
  5
B45
330
1E
100
AcDbEntity
  8
OBJECT
100
AcDbCircle
 10
5.787168724841123
 20
14.97095103111951
 30
0.0
 40
0.0196875
100
AcDbArc
 50
90.0
 51
181.9399058794456
  0
ARC
  5
B46
330
1E
100
AcDbEntity
  8
OBJECT
100
AcDbCircle
 10
5.792853626014832
 20
14.81345103112016
 30
0.0
 40
0.0196875
100
AcDbArc
 50
182.1944370119295
 51
270.000000000026
  0
ARC
  5
B47
330
1E
100
AcDbEntity
  8
OBJECT
100
AcDbCircle
 10
41.2380789810541
 20
16.17166053846904
 30
0.0
 40
35.4965625
100
AcDbArc
 50
182.5763165436776
 51
182.8309654888726
  0
ARC
  5
B48
330
1E
100
AcDbEntity
  8
OBJECT
100
AcDbCircle
 10
5.797062749250514
 20
14.57697303846907
 30
0.0
 40
0.0196875
100
AcDbArc
 50
89.99999999997395
 51
182.5763165436382
  0
ARC
  5
B49
330
1E
100
AcDbEntity
  8
OBJECT
100
AcDbCircle
 10
5.804500291758969
 20
14.41947303846882
 30
0.0
 40
0.0196875
100
AcDbArc
 50
182.8309654888856
 51
270.0
  0
ARC
  5
B4A
330
1E
100
AcDbEntity
  8
OBJECT
100
AcDbCircle
 10
41.23511755142208
 20
16.17145859295669
 30
0.0
 40
35.4965625
100
AcDbArc
 50
183.2130454525977
 51
183.4678438624079
  0
ARC
  5
B4B
330
1E
100
AcDbEntity
  8
OBJECT
100
AcDbCircle
 10
5.82320413218251
 20
14.02552109295629
 30
0.0
 40
0.0196875
100
AcDbArc
 50
183.4678438624079
 51
270.0
  0
ARC
  5
B4C
330
1E
100
AcDbEntity
  8
OBJECT
100
AcDbCircle
 10
5.814011187077355
 20
14.18302109295655
 30
0.0
 40
0.0196875
100
AcDbArc
 50
89.99999999997395
 51
183.2130454525455
  0
ARC
  5
B4D
330
1E
100
AcDbEntity
  8
OBJECT
100
AcDbCircle
 10
41.23153347671375
 20
16.1711627945624
 30
0.0
 40
35.4965625
100
AcDbArc
 50
183.8501718548135
 51
184.1051515480864
  0
ARC
  5
B4E
330
1E
100
AcDbEntity
  8
OBJECT
100
AcDbCircle
 10
5.834727936093756
 20
13.78897529456208
 30
0.0
 40
0.0196875
100
AcDbArc
 50
89.99999999997395
 51
183.8501718548529
  0
ARC
  5
B4F
330
1E
100
AcDbEntity
  8
OBJECT
100
AcDbCircle
 10
5.845679704790015
 20
13.63147529456273
 30
0.0
 40
0.0196875
100
AcDbArc
 50
184.1051515480735
 51
270.0
  0
ARC
  5
B50
330
1E
100
AcDbEntity
  8
OBJECT
100
AcDbCircle
 10
41.22732722605057
 20
16.17188853111929
 30
0.0
 40
35.4965625
100
AcDbArc
 50
184.4877754434858
 51
184.7429684423195
  0
ARC
  5
B51
330
1E
100
AcDbEntity
  8
OBJECT
100
AcDbCircle
 10
5.859222516274073
 20
13.39595103111969
 30
0.0
 40
0.0196875
100
AcDbArc
 50
89.99999999997395
 51
184.4877754435125
  0
ARC
  5
B52
330
1E
100
AcDbEntity
  8
OBJECT
100
AcDbCircle
 10
5.871937195685788
 20
13.23845103111944
 30
0.0
 40
0.0196875
100
AcDbArc
 50
184.7429684422929
 51
270.0
  0
ARC
  5
B53
330
1E
100
AcDbEntity
  8
OBJECT
100
AcDbCircle
 10
47.11066378436707
 20
16.1718885311202
 30
0.0
 40
41.34375
100
AcDbArc
 50
185.7420629560632
 51
186.6727710193685
  0
ARC
  5
B54
330
1E
100
AcDbEntity
  8
OBJECT
100
AcDbCircle
 10
47.11066378436707
 20
16.1718885311202
 30
0.0
 40
41.34375
100
AcDbArc
 50
185.1927056459564
 51
185.4679222349673
  0
ARC
  5
B55
330
1E
100
AcDbEntity
  8
OBJECT
100
AcDbCircle
 10
47.11066378436707
 20
16.1718885311202
 30
0.0
 40
41.34375
100
AcDbArc
 50
184.6440584326401
 51
184.9188088593518
  0
ARC
  5
B56
330
1E
100
AcDbEntity
  8
OBJECT
100
AcDbCircle
 10
47.11066378436707
 20
16.1718885311202
 30
0.0
 40
41.34375
100
AcDbArc
 50
184.0960437581536
 51
184.3703797469413
  0
ARC
  5
B57
330
1E
100
AcDbEntity
  8
OBJECT
100
AcDbCircle
 10
47.11066378436707
 20
16.1718885311202
 30
0.0
 40
41.34375
100
AcDbArc
 50
183.5501585847138
 51
183.8225575997335
  0
ARC
  5
B58
330
1E
100
AcDbEntity
  8
OBJECT
100
AcDbCircle
 10
47.11066378436707
 20
16.1718885311202
 30
0.0
 40
41.34375
100
AcDbArc
 50
183.0031782741826
 51
183.2768363603818
  0
ARC
  5
B59
330
1E
100
AcDbEntity
  8
OBJECT
100
AcDbCircle
 10
47.11066378436707
 20
16.1718885311202
 30
0.0
 40
41.34375
100
AcDbArc
 50
182.4566019752918
 51
182.7299991386713
  0
ARC
  5
B5A
330
1E
100
AcDbEntity
  8
OBJECT
100
AcDbCircle
 10
47.11066378436707
 20
16.1718885311202
 30
0.0
 40
41.34375
100
AcDbArc
 50
181.910213171708
 51
182.1835408367754
  0
ARC
  5
B5B
330
1E
100
AcDbEntity
  8
OBJECT
100
AcDbCircle
 10
47.11066378436707
 20
16.1718885311202
 30
0.0
 40
41.34375
100
AcDbArc
 50
181.364314150672
 51
181.63724507778
  0
ARC
  5
B5C
330
1E
100
AcDbEntity
  8
OBJECT
100
AcDbCircle
 10
47.11066378436707
 20
16.1718885311202
 30
0.0
 40
41.34375
100
AcDbArc
 50
180.8185389789741
 51
181.0914141843067
  0
ARC
  5
B5D
330
1E
100
AcDbEntity
  8
OBJECT
100
AcDbCircle
 10
47.11066378436707
 20
16.1718885311202
 30
0.0
 40
41.34375
100
AcDbArc
 50
180.2728380764371
 51
180.5456823399839
  0
ARC
  5
B5E
330
1E
100
AcDbEntity
  8
OBJECT
100
AcDbCircle
 10
6.164301850669673
 20
11.38152309252564
 30
0.0
 40
0.118125
100
AcDbArc
 50
186.6727710193559
 51
267.0000000000074
  0
LINE
  5
B5F
330
1E
100
AcDbEntity
  8
OBJECT
100
AcDbLine
 10
6.416601284367104
 20
11.2500135311202
 30
0.0
 11
6.158119665838441
 21
11.2635599787327
 31
0.0
  0
LINE
  5
B60
330
1E
100
AcDbEntity
  8
OBJECT
100
AcDbLine
 10
5.973529637950761
 20
12.03543683040334
 30
0.0
 11
6.416601284367217
 21
12.03543683040334
 31
0.0
  0
LINE
  5
B61
330
1E
100
AcDbEntity
  8
OBJECT
100
AcDbLine
 10
5.955494919236159
 20
12.23231183040297
 30
0.0
 11
6.416601284367217
 21
12.23231183040297
 31
0.0
  0
LINE
  5
B62
330
1E
100
AcDbEntity
  8
OBJECT
100
AcDbLine
 10
5.919592052121785
 20
12.6269146547529
 30
0.0
 11
6.416601284367217
 21
12.6269146547529
 31
0.0
  0
LINE
  5
B63
330
1E
100
AcDbEntity
  8
OBJECT
100
AcDbLine
 10
5.935847518564898
 20
12.43003965475236
 30
0.0
 11
6.416601284367217
 21
12.43003965475236
 31
0.0
  0
LINE
  5
B64
330
1E
100
AcDbEntity
  8
OBJECT
100
AcDbLine
 10
5.901988554685473
 20
12.82447575750575
 30
0.0
 11
6.416601284367217
 21
12.82447575750575
 31
0.0
  0
LINE
  5
B65
330
1E
100
AcDbEntity
  8
OBJECT
100
AcDbLine
 10
5.887216340760502
 20
13.02134862353705
 30
0.0
 11
6.416601284367217
 21
13.02134862353705
 31
0.0
  0
LINE
  5
B66
330
1E
100
AcDbEntity
  8
OBJECT
100
AcDbLine
 10
5.859222516274073
 20
13.41563853111984
 30
0.0
 11
6.416601284367217
 21
13.41563853111984
 31
0.0
  0
LINE
  5
B67
330
1E
100
AcDbEntity
  8
OBJECT
100
AcDbLine
 10
5.871937195685788
 20
13.21876353111929
 30
0.0
 11
6.416601284367217
 21
13.21876353111929
 31
0.0
  0
LINE
  5
B68
330
1E
100
AcDbEntity
  8
OBJECT
100
AcDbLine
 10
5.845679704790015
 20
13.61178779456258
 30
0.0
 11
6.416601284367104
 21
13.61178779456258
 31
0.0
  0
LINE
  5
B69
330
1E
100
AcDbEntity
  8
OBJECT
100
AcDbLine
 10
5.834727936093756
 20
13.80866279456222
 30
0.0
 11
6.416601284367104
 21
13.80866279456222
 31
0.0
  0
LINE
  5
B6A
330
1E
100
AcDbEntity
  8
OBJECT
100
AcDbLine
 10
5.82320413218251
 20
14.00583359295615
 30
0.0
 11
6.416601284367104
 21
14.00583359295615
 31
0.0
  0
LINE
  5
B6B
330
1E
100
AcDbEntity
  8
OBJECT
100
AcDbLine
 10
5.814011187077355
 20
14.20270859295669
 30
0.0
 11
6.416601284367104
 21
14.20270859295669
 31
0.0
  0
LINE
  5
B6C
330
1E
100
AcDbEntity
  8
OBJECT
100
AcDbLine
 10
5.804500291758969
 20
14.39978553846867
 30
0.0
 11
6.416601284367104
 21
14.39978553846867
 31
0.0
  0
LINE
  5
B6D
330
1E
100
AcDbEntity
  8
OBJECT
100
AcDbLine
 10
5.797062749250514
 20
14.59666053846922
 30
0.0
 11
6.416601284367104
 21
14.59666053846922
 31
0.0
  0
LINE
  5
B6E
330
1E
100
AcDbEntity
  8
OBJECT
100
AcDbLine
 10
5.792853626014832
 20
14.79376353112002
 30
0.0
 11
6.416601284367104
 21
14.79376353112002
 31
0.0
  0
LINE
  5
B6F
330
1E
100
AcDbEntity
  8
OBJECT
100
AcDbLine
 10
5.787168724841123
 20
14.99063853111965
 30
0.0
 11
6.416601284367104
 21
14.99063853111965
 31
0.0
  0
LINE
  5
B70
330
1E
100
AcDbEntity
  8
OBJECT
100
AcDbLine
 10
5.779954585703464
 20
15.1875135311202
 30
0.0
 11
6.416601284367104
 21
15.1875135311202
 31
0.0
  0
LINE
  5
B71
330
1E
100
AcDbEntity
  8
OBJECT
100
AcDbLine
 10
5.776020219192488
 20
15.38438853111983
 30
0.0
 11
6.416601284367104
 21
15.38438853111983
 31
0.0
  0
LINE
  5
B72
330
1E
100
AcDbEntity
  8
OBJECT
100
AcDbLine
 10
5.771430676460155
 20
15.58126353111947
 30
0.0
 11
6.416601284367104
 21
15.58126353111947
 31
0.0
  0
LINE
  5
B73
330
1E
100
AcDbEntity
  8
OBJECT
100
AcDbLine
 10
5.769245388617761
 20
15.77813853112002
 30
0.0
 11
6.416601284367104
 21
15.77813853112002
 31
0.0
  0
LINE
  5
B74
330
1E
100
AcDbEntity
  8
OBJECT
100
AcDbLine
 10
5.767382537024374
 20
15.97501353111965
 30
0.0
 11
6.416601284367104
 21
15.97501353111965
 31
0.0
  0
LINE
  5
B75
330
1E
100
AcDbEntity
  8
OBJECT
100
AcDbLine
 10
5.766913784367076
 20
16.1718885311202
 30
0.0
 11
6.416601284367104
 21
16.1718885311202
 31
0.0
  0
ARC
  5
102B
330
1E
100
AcDbEntity
  8
OBJECT
100
AcDbCircle
 10
9.901209847801411
 20
11.15221214426947
 30
0.0
 40
5.807176386849635
100
AcDbArc
 50
77.60882170618033
 51
102.3911782938196
  0
ARC
  5
1039
330
1E
100
AcDbEntity
  8
OBJECT
100
AcDbCircle
 10
9.901209847801411
 20
17.05718991796948
 30
0.0
 40
5.807176386849635
100
AcDbArc
 50
257.6088217061802
 51
282.3911782938197
  0
LINE
  5
103D
330
1E
100
AcDbEntity
  8
CENTER
100
AcDbLine
 10
11.69266955335912
 20
14.10470103112038
 30
0.0
 11
8.110011858724092
 21
14.10470103111947
 31
0.0
  0
CIRCLE
  5
1045
330
1E
100
AcDbEntity
  8
OBJECT
100
AcDbCircle
 10
11.00370984780137
 20
16.46720103111965
 30
0.0
 40
0.063
  0
ARC
  5
104C
330
1E
100
AcDbEntity
  8
OBJECT
100
AcDbCircle
 10
-1.419717886573707
 20
14.10470103111947
 30
0.0
 40
13.09280273437504
100
AcDbArc
 50
9.084289780343176
 51
10.59460943606744
  0
ARC
  5
104D
330
1E
100
AcDbEntity
  8
OBJECT
100
AcDbCircle
 10
-1.459195639890808
 20
14.1057411005022
 30
0.0
 40
12.89592773437504
100
AcDbArc
 50
3.057673625930239
 51
3.93402073002359
  0
ARC
  5
104E
330
1E
100
AcDbEntity
  8
OBJECT
100
AcDbCircle
 10
-1.459195639890808
 20
14.1057411005022
 30
0.0
 40
12.89592773437504
100
AcDbArc
 50
4.811291910269104
 51
5.689696496983783
  0
ARC
  5
104F
330
1E
100
AcDbEntity
  8
OBJECT
100
AcDbCircle
 10
-1.459195639890808
 20
14.1057411005022
 30
0.0
 40
12.89592773437504
100
AcDbArc
 50
6.569446245121001
 51
7.450755808857251
  0
ARC
  5
1050
330
1E
100
AcDbEntity
  8
OBJECT
100
AcDbCircle
 10
-1.459195639890808
 20
14.1057411005022
 30
0.0
 40
12.89592773437504
100
AcDbArc
 50
8.333843234001907
 51
9.218930470996216
  0
LINE
  5
1051
330
1E
100
AcDbEntity
  8
OBJECT
100
AcDbLine
 10
11.51257155850136
 20
16.17174102985609
 30
0.0
 11
11.27016038153261
 21
16.17176322286104
 31
0.0
  0
ARC
  5
1056
330
1E
100
AcDbEntity
  8
OBJECT
100
AcDbCircle
 10
11.06284967035289
 20
16.43953454492839
 30
0.0
 40
0.39375
100
AcDbArc
 50
10.59460943606744
 51
77.60882170618033
  0
ARC
  5
1057
330
1E
100
AcDbEntity
  8
OBJECT
100
AcDbCircle
 10
-1.459195639890808
 20
14.1057411005022
 30
0.0
 40
13.15186523437504
100
AcDbArc
 50
8.269573162240137
 51
8.964606185354739
  0
ARC
  5
1058
330
1E
100
AcDbEntity
  8
OBJECT
100
AcDbCircle
 10
11.53643777717515
 20
15.99455134413529
 30
0.0
 40
0.0196875
100
AcDbArc
 50
269.9947545094594
 51
8.269573162267922
  0
ARC
  5
1059
330
1E
100
AcDbEntity
  8
OBJECT
100
AcDbCircle
 10
-1.459195639890808
 20
14.1057411005022
 30
0.0
 40
13.15186523437504
100
AcDbArc
 50
6.537110965947334
 51
7.229285123154856
  0
ARC
  5
105A
330
1E
100
AcDbEntity
  8
OBJECT
100
AcDbCircle
 10
11.58760093727279
 20
15.60079665844296
 30
0.0
 40
0.0196875
100
AcDbArc
 50
269.9947545094594
 51
6.537110965986215
  0
ARC
  5
105B
330
1E
100
AcDbEntity
  8
OBJECT
100
AcDbCircle
 10
11.56858799432303
 20
15.75829839975813
 30
0.0
 40
0.0196875
100
AcDbArc
 50
7.229285123182311
 51
89.99475450945949
  0
ARC
  5
105C
330
1E
100
AcDbEntity
  8
OBJECT
100
AcDbCircle
 10
-1.459195639890808
 20
14.1057411005022
 30
0.0
 40
13.15186523437504
100
AcDbArc
 50
4.810638030764707
 51
5.500612854120603
  0
ARC
  5
105D
330
1E
100
AcDbEntity
  8
OBJECT
100
AcDbCircle
 10
11.62672144709985
 20
15.20704307526739
 30
0.0
 40
0.0196875
100
AcDbArc
 50
269.9947545094334
 51
4.810638030725752
  0
ARC
  5
105E
330
1E
100
AcDbEntity
  8
OBJECT
100
AcDbCircle
 10
11.61251068937055
 20
15.36454437693828
 30
0.0
 40
0.0196875
100
AcDbArc
 50
5.500612854172612
 51
89.99475450945949
  0
ARC
  5
105F
330
1E
100
AcDbEntity
  8
OBJECT
100
AcDbCircle
 10
-1.459195639890808
 20
14.1057411005022
 30
0.0
 40
13.15186523437504
100
AcDbArc
 50
3.088538689316718
 51
3.776955334213929
  0
ARC
  5
1060
330
1E
100
AcDbEntity
  8
OBJECT
100
AcDbCircle
 10
11.65390718799007
 20
14.81329058473329
 30
0.0
 40
0.0196875
100
AcDbArc
 50
269.9947545094334
 51
3.088538689290714
  0
ARC
  5
1061
330
1E
100
AcDbEntity
  8
OBJECT
100
AcDbCircle
 10
11.64445957304396
 20
14.9707914503333
 30
0.0
 40
0.0196875
100
AcDbArc
 50
3.776955334174973
 51
89.99475450945949
  0
ARC
  5
1062
330
1E
100
AcDbEntity
  8
OBJECT
100
AcDbCircle
 10
-1.459195639890808
 20
14.1057411005022
 30
0.0
 40
13.13217773437504
100
AcDbArc
 50
7.315879469776196
 51
8.182782328086544
  0
ARC
  5
1063
330
1E
100
AcDbEntity
  8
OBJECT
100
AcDbCircle
 10
-1.459195639890808
 20
14.1057411005022
 30
0.0
 40
13.13217773437504
100
AcDbArc
 50
5.586913976672235
 51
6.450658684080388
  0
ARC
  5
1064
330
1E
100
AcDbEntity
  8
OBJECT
100
AcDbCircle
 10
-1.459195639890808
 20
14.1057411005022
 30
0.0
 40
13.13217773437504
100
AcDbArc
 50
3.863043827288421
 51
4.724442444275526
  0
ARC
  5
1065
330
1E
100
AcDbEntity
  8
OBJECT
100
AcDbCircle
 10
11.51256975608943
 20
16.15205352993871
 30
0.0
 40
0.0196875
100
AcDbArc
 50
8.964606185367566
 51
89.99475450948557
  0
LINE
  5
1066
330
1E
100
AcDbEntity
  8
OBJECT
100
AcDbLine
 10
11.65390538557825
 20
14.79360308481591
 30
0.0
 11
11.41837277791206
 21
14.79362464808127
 31
0.0
  0
LINE
  5
1067
330
1E
100
AcDbEntity
  8
OBJECT
100
AcDbLine
 10
11.64446137545589
 20
14.99047895025069
 30
0.0
 11
11.40634564265305
 21
14.99050075000286
 31
0.0
  0
LINE
  5
1068
330
1E
100
AcDbEntity
  8
OBJECT
100
AcDbLine
 10
11.62671964468792
 20
15.18735557535001
 30
0.0
 11
11.39129134045107
 21
15.18737712906568
 31
0.0
  0
LINE
  5
1069
330
1E
100
AcDbEntity
  8
OBJECT
100
AcDbLine
 10
11.61251249178236
 20
15.38423187685566
 30
0.0
 11
11.37319920451058
 21
15.38425378624561
 31
0.0
  0
LINE
  5
106A
330
1E
100
AcDbEntity
  8
OBJECT
100
AcDbLine
 10
11.58759913486086
 20
15.58110915852557
 30
0.0
 11
11.35205635173248
 21
15.58113072272135
 31
0.0
  0
LINE
  5
106B
330
1E
100
AcDbEntity
  8
OBJECT
100
AcDbLine
 10
11.56858979673496
 20
15.77798589967551
 30
0.0
 11
11.32784763633766
 21
15.7780079398808
 31
0.0
  0
LINE
  5
106C
330
1E
100
AcDbEntity
  8
OBJECT
100
AcDbLine
 10
11.53643597476322
 20
15.9748638442179
 30
0.0
 11
11.30055559478786
 21
15.97488543932195
 31
0.0
  0
CIRCLE
  5
106F
330
1E
100
AcDbEntity
  8
OBJECT
100
AcDbCircle
 10
11.00370987575333
 20
16.46720099291178
 30
0.0
 40
0.135
  0
ARC
  5
109E
330
1E
100
AcDbEntity
  8
OBJECT
100
AcDbCircle
 10
-1.419717886573707
 20
14.10470103111947
 30
0.0
 40
13.09280273437504
100
AcDbArc
 50
349.4053905639326
 51
350.9157102196568
  0
ARC
  5
109F
330
1E
100
AcDbEntity
  8
OBJECT
100
AcDbCircle
 10
-1.459195639890808
 20
14.1057411005022
 30
0.0
 40
12.89592773437504
100
AcDbArc
 50
359.5573987655387
 51
0.4321102533939802
  0
ARC
  5
10A0
330
1E
100
AcDbEntity
  8
OBJECT
100
AcDbCircle
 10
-1.459195639890808
 20
14.1057411005022
 30
0.0
 40
12.89592773437504
100
AcDbArc
 50
1.306923699051159
 51
2.182043232189306
  0
ARC
  5
10A1
330
1E
100
AcDbEntity
  8
OBJECT
100
AcDbCircle
 10
-1.459195639890808
 20
14.1057411005022
 30
0.0
 40
12.89592773437504
100
AcDbArc
 50
350.770578547939
 51
351.6556657849311
  0
ARC
  5
10A2
330
1E
100
AcDbEntity
  8
OBJECT
100
AcDbCircle
 10
-1.459195639890808
 20
14.1057411005022
 30
0.0
 40
12.89592773437504
100
AcDbArc
 50
352.5387532100603
 51
353.4200627738151
  0
ARC
  5
10A3
330
1E
100
AcDbEntity
  8
OBJECT
100
AcDbCircle
 10
-1.459195639890808
 20
14.1057411005022
 30
0.0
 40
12.89592773437504
100
AcDbArc
 50
356.0554882888991
 51
356.9318353929953
  0
ARC
  5
10A4
330
1E
100
AcDbEntity
  8
OBJECT
100
AcDbCircle
 10
-1.459195639890808
 20
14.1057411005022
 30
0.0
 40
12.89592773437504
100
AcDbArc
 50
357.8074657867437
 51
358.6825853198789
  0
LINE
  5
10A5
330
1E
100
AcDbEntity
  8
OBJECT
100
AcDbLine
 10
11.51219305200233
 20
12.03736604718233
 30
0.0
 11
11.26978187503358
 21
12.03738824018819
 31
0.0
  0
LINE
  5
10A6
330
1E
100
AcDbEntity
  8
OBJECT
100
AcDbLine
 10
11.39109307514219
 20
13.02175213814189
 30
0.0
 11
11.37296489096355
 21
12.82487879697146
 31
0.0
  0
ARC
  5
10A9
330
1E
100
AcDbEntity
  8
OBJECT
100
AcDbCircle
 10
11.06284967035289
 20
11.76986751731055
 30
0.0
 40
0.39375
100
AcDbArc
 50
282.3911782938197
 51
349.4053905639348
  0
ARC
  5
10AD
330
1E
100
AcDbEntity
  8
OBJECT
100
AcDbCircle
 10
-1.459195639890808
 20
14.1057411005022
 30
0.0
 40
13.15186523437504
100
AcDbArc
 50
1.369233448970908
 51
2.05672023897132
  0
ARC
  5
10AE
330
1E
100
AcDbEntity
  8
OBJECT
100
AcDbCircle
 10
11.66923240052939
 20
14.41953918004401
 30
0.0
 40
0.0196875
100
AcDbArc
 50
269.9947545094855
 51
1.369233448957881
  0
ARC
  5
10AF
330
1E
100
AcDbEntity
  8
OBJECT
100
AcDbCircle
 10
11.66452219311453
 20
14.57703961192783
 30
0.0
 40
0.0196875
100
AcDbArc
 50
2.056720238958343
 51
89.99475450948557
  0
ARC
  5
10B0
330
1E
100
AcDbEntity
  8
OBJECT
100
AcDbCircle
 10
-1.459195639890808
 20
14.1057411005022
 30
0.0
 40
13.15186523437504
100
AcDbArc
 50
359.6511656720978
 51
0.3383433468270953
  0
ARC
  5
10B1
330
1E
100
AcDbEntity
  8
OBJECT
100
AcDbCircle
 10
11.67273870680902
 20
14.02578885738694
 30
0.0
 40
0.0196875
100
AcDbArc
 50
269.9947545094334
 51
359.6511656721109
  0
ARC
  5
10B2
330
1E
100
AcDbEntity
  8
OBJECT
100
AcDbCircle
 10
11.67275312610424
 20
14.1832888567269
 30
0.0
 40
0.0196875
100
AcDbArc
 50
0.3383433468140678
 51
89.99475450948557
  0
ARC
  5
10B3
330
1E
100
AcDbEntity
  8
OBJECT
100
AcDbCircle
 10
-1.459195639890808
 20
14.1057411005022
 30
0.0
 40
13.13217773437504
100
AcDbArc
 50
0.4242420041517802
 51
1.283313546104418
  0
ARC
  5
10B4
330
1E
100
AcDbEntity
  8
OBJECT
100
AcDbCircle
 10
-1.459195639890808
 20
14.1057411005022
 30
0.0
 40
13.15186523437504
100
AcDbArc
 50
351.0249028335771
 51
351.7199358566737
  0
ARC
  5
10B5
330
1E
100
AcDbEntity
  8
OBJECT
100
AcDbCircle
 10
11.5360917140904
 20
12.21455135997712
 30
0.0
 40
0.0196875
100
AcDbArc
 50
351.7199358566609
 51
89.99475450945949
  0
ARC
  5
10B6
330
1E
100
AcDbEntity
  8
OBJECT
100
AcDbCircle
 10
-1.459195639890808
 20
14.1057411005022
 30
0.0
 40
13.15186523437504
100
AcDbArc
 50
352.7602238957719
 51
353.4523980529747
  0
ARC
  5
10B7
330
1E
100
AcDbEntity
  8
OBJECT
100
AcDbCircle
 10
11.58732697066399
 20
12.60829667098369
 30
0.0
 40
0.0196875
100
AcDbArc
 50
353.4523980529357
 51
89.99475450945949
  0
ARC
  5
10B8
330
1E
100
AcDbEntity
  8
OBJECT
100
AcDbCircle
 10
11.56828518912392
 20
12.45079841361894
 30
0.0
 40
0.0196875
100
AcDbArc
 50
269.9947545094594
 51
352.7602238957332
  0
ARC
  5
10B9
330
1E
100
AcDbEntity
  8
OBJECT
100
AcDbCircle
 10
-1.459195639890808
 20
14.1057411005022
 30
0.0
 40
13.15186523437504
100
AcDbArc
 50
354.4888961648006
 51
355.1788709881524
  0
ARC
  5
10BA
330
1E
100
AcDbEntity
  8
OBJECT
100
AcDbCircle
 10
11.62651957696699
 20
13.00204308450793
 30
0.0
 40
0.0196875
100
AcDbArc
 50
355.1788709882055
 51
89.99475450948557
  0
ARC
  5
10BB
330
1E
100
AcDbEntity
  8
OBJECT
100
AcDbCircle
 10
11.61227998064727
 20
12.84454438749889
 30
0.0
 40
0.0196875
100
AcDbArc
 50
269.9947545094594
 51
354.4888961647618
  0
ARC
  5
10BC
330
1E
100
AcDbEntity
  8
OBJECT
100
AcDbCircle
 10
-1.459195639890808
 20
14.1057411005022
 30
0.0
 40
13.15186523437504
100
AcDbArc
 50
356.2125536847076
 51
356.9009703296069
  0
ARC
  5
10BD
330
1E
100
AcDbEntity
  8
OBJECT
100
AcDbCircle
 10
11.65377741433339
 20
13.39579059067364
 30
0.0
 40
0.0196875
100
AcDbArc
 50
356.9009703296329
 51
89.99475450948557
  0
ARC
  5
10BE
330
1E
100
AcDbEntity
  8
OBJECT
100
AcDbCircle
 10
11.64430096079674
 20
13.23829145759373
 30
0.0
 40
0.0196875
100
AcDbArc
 50
269.9947545094594
 51
356.2125536847465
  0
ARC
  5
10BF
330
1E
100
AcDbEntity
  8
OBJECT
100
AcDbCircle
 10
-1.459195639890808
 20
14.1057411005022
 30
0.0
 40
13.15186523437504
100
AcDbArc
 50
357.9327887799525
 51
358.6202755699622
  0
ARC
  5
10C0
330
1E
100
AcDbEntity
  8
OBJECT
100
AcDbCircle
 10
11.66917472334854
 20
13.78953918268416
 30
0.0
 40
0.0196875
100
AcDbArc
 50
358.6202755699752
 51
89.99475450943345
  0
ARC
  5
10C1
330
1E
100
AcDbEntity
  8
OBJECT
100
AcDbCircle
 10
11.66443567734337
 20
13.63203961588897
 30
0.0
 40
0.0196875
100
AcDbArc
 50
269.9947545094334
 51
357.9327887799785
  0
ARC
  5
10C2
330
1E
100
AcDbEntity
  8
OBJECT
100
AcDbCircle
 10
-1.459195639890808
 20
14.1057411005022
 30
0.0
 40
13.15186523437504
100
AcDbArc
 50
359.6511656720978
 51
0.3383433468270953
  0
ARC
  5
10C3
330
1E
100
AcDbEntity
  8
OBJECT
100
AcDbCircle
 10
11.67275312610424
 20
14.1832888567269
 30
0.0
 40
0.0196875
100
AcDbArc
 50
0.3383433468140678
 51
89.99475450948557
  0
ARC
  5
10C4
330
1E
100
AcDbEntity
  8
OBJECT
100
AcDbCircle
 10
11.67273870680902
 20
14.02578885738694
 30
0.0
 40
0.0196875
100
AcDbArc
 50
269.9947545094334
 51
359.6511656721109
  0
ARC
  5
10C5
330
1E
100
AcDbEntity
  8
OBJECT
100
AcDbCircle
 10
-1.459195639890808
 20
14.1057411005022
 30
0.0
 40
13.13217773437504
100
AcDbArc
 50
351.8067266908337
 51
352.6736295491517
  0
ARC
  5
10C6
330
1E
100
AcDbEntity
  8
OBJECT
100
AcDbCircle
 10
-1.459195639890808
 20
14.1057411005022
 30
0.0
 40
13.13217773437504
100
AcDbArc
 50
353.5388503348451
 51
354.4025950422495
  0
ARC
  5
10C7
330
1E
100
AcDbEntity
  8
OBJECT
100
AcDbCircle
 10
-1.459195639890808
 20
14.1057411005022
 30
0.0
 40
13.13217773437504
100
AcDbArc
 50
355.2650665746611
 51
356.126465191638
  0
ARC
  5
10C8
330
1E
100
AcDbEntity
  8
OBJECT
100
AcDbCircle
 10
-1.459195639890808
 20
14.1057411005022
 30
0.0
 40
13.13217773437504
100
AcDbArc
 50
356.9869889409437
 51
357.8468340776144
  0
ARC
  5
10C9
330
1E
100
AcDbEntity
  8
OBJECT
100
AcDbCircle
 10
-1.459195639890808
 20
14.1057411005022
 30
0.0
 40
13.13217773437504
100
AcDbArc
 50
358.7061954728216
 51
359.565267014775
  0
LINE
  5
10CE
330
1E
100
AcDbEntity
  8
OBJECT
100
AcDbLine
 10
11.67273690439709
 20
14.00610135746956
 30
0.0
 11
11.43634732518491
 21
14.00612299919157
 31
0.0
  0
LINE
  5
10CF
330
1E
100
AcDbEntity
  8
OBJECT
100
AcDbLine
 10
11.67275492851617
 20
14.20297635664519
 30
0.0
 11
11.43636534930398
 21
14.20299799836629
 31
0.0
  0
LINE
  5
10D0
330
1E
100
AcDbEntity
  8
OBJECT
100
AcDbLine
 10
11.66923059811746
 20
14.39985168012572
 30
0.0
 11
11.43337735371587
 21
14.39987327274593
 31
0.0
  0
LINE
  5
10D1
330
1E
100
AcDbEntity
  8
OBJECT
100
AcDbLine
 10
11.66452399552646
 20
14.59672711184612
 30
0.0
 11
11.4273812347932
 21
14.59674882252147
 31
0.0
  0
ARC
  5
10D2
330
1E
100
AcDbEntity
  8
OBJECT
100
AcDbCircle
 10
11.51219485441426
 20
12.05705354709971
 30
0.0
 40
0.0196875
100
AcDbArc
 50
269.9947545094334
 51
351.0249028335491
  0
LINE
  5
10D5
330
1E
100
AcDbEntity
  8
OBJECT
100
AcDbLine
 10
11.66917652576047
 20
13.80922668260154
 30
0.0
 11
11.43332328135888
 21
13.80924827522085
 31
0.0
  0
LINE
  5
10D6
330
1E
100
AcDbEntity
  8
OBJECT
100
AcDbLine
 10
11.66443387493144
 20
13.61235211597068
 30
0.0
 11
11.42729111419818
 21
13.61237382664694
 31
0.0
  0
LINE
  5
10D7
330
1E
100
AcDbEntity
  8
OBJECT
100
AcDbLine
 10
11.6537792167452
 20
13.41547809059102
 30
0.0
 11
11.41824660907913
 21
13.41549965385638
 31
0.0
  0
LINE
  5
10D8
330
1E
100
AcDbEntity
  8
OBJECT
100
AcDbLine
 10
11.64429915838492
 20
13.21860395767635
 30
0.0
 11
11.40618342558208
 21
13.21862575742852
 31
0.0
  0
LINE
  5
10D9
330
1E
100
AcDbEntity
  8
OBJECT
100
AcDbLine
 10
11.62652137937892
 20
13.02173058442622
 30
0.0
 11
11.39109307514219
 21
13.02175213814189
 31
0.0
  0
LINE
  5
10DA
330
1E
100
AcDbEntity
  8
OBJECT
100
AcDbLine
 10
11.61227817823545
 20
12.82485688758151
 30
0.0
 11
11.37296489096355
 21
12.82487879697146
 31
0.0
  0
LINE
  5
10DB
330
1E
100
AcDbEntity
  8
OBJECT
100
AcDbLine
 10
11.58732877307592
 20
12.62798417090107
 30
0.0
 11
11.35178598994754
 21
12.62800573509776
 31
0.0
  0
LINE
  5
10DC
330
1E
100
AcDbEntity
  8
OBJECT
100
AcDbLine
 10
11.56828338671199
 20
12.43111091370155
 30
0.0
 11
11.32754122631469
 21
12.43113295390685
 31
0.0
  0
LINE
  5
10DD
330
1E
100
AcDbEntity
  8
OBJECT
100
AcDbLine
 10
11.53609351650233
 20
12.2342388598945
 30
0.0
 11
11.30021313652686
 21
12.23426045499763
 31
0.0
  0
LINE
  5
10E6
330
1E
100
AcDbEntity
  8
CENTER
100
AcDbLine
 10
9.901209847801411
 20
16.95938853111965
 30
0.0
 11
9.901210027936272
 21
11.25001353111929
 31
0.0
  0
ARC
  5
10E8
330
1E
100
AcDbEntity
  8
OBJECT
100
AcDbCircle
 10
-1.459195639890808
 20
14.1057411005022
 30
0.0
 40
13.13217773437504
100
AcDbArc
 50
2.142674941307665
 51
3.00252007798808
  0
ARC
  5
10EA
330
1E
100
AcDbEntity
  8
OBJECT
100
AcDbCircle
 10
21.2221375821763
 20
14.10470103111947
 30
0.0
 40
13.09280273437495
100
AcDbArc
 50
169.4053905639326
 51
170.9157102196568
  0
ARC
  5
10EB
330
1E
100
AcDbEntity
  8
OBJECT
100
AcDbCircle
 10
21.2618770930991
 20
14.10470103111947
 30
0.0
 40
13.15186523437504
100
AcDbArc
 50
171.030148324114
 51
171.7251813472126
  0
ARC
  5
10EC
330
1E
100
AcDbEntity
  8
OBJECT
100
AcDbCircle
 10
8.26641665311412
 20
15.9947010311198
 30
0.0
 40
0.0196875
100
AcDbArc
 50
171.7251813471866
 51
270.0
  0
ARC
  5
10ED
330
1E
100
AcDbEntity
  8
OBJECT
100
AcDbCircle
 10
8.290299093595209
 20
16.15220103111914
 30
0.0
 40
0.0196875
100
AcDbArc
 50
89.99999999997395
 51
171.0301483240864
  0
ARC
  5
10EE
330
1E
100
AcDbEntity
  8
OBJECT
100
AcDbCircle
 10
21.2618770930991
 20
14.10470103111947
 30
0.0
 40
13.15186523437504
100
AcDbArc
 50
172.7654693863093
 51
173.4576435435085
  0
ARC
  5
10EF
330
1E
100
AcDbEntity
  8
OBJECT
100
AcDbCircle
 10
8.215217444564032
 20
15.60095103111962
 30
0.0
 40
0.0196875
100
AcDbArc
 50
173.4576435434681
 51
270.0
  0
ARC
  5
10F0
330
1E
100
AcDbEntity
  8
OBJECT
100
AcDbCircle
 10
8.234244806888582
 20
15.75845103111987
 30
0.0
 40
0.0196875
100
AcDbArc
 50
90.0
 51
172.7654693862705
  0
ARC
  5
10F1
330
1E
100
AcDbEntity
  8
OBJECT
100
AcDbCircle
 10
21.2618770930991
 20
14.10470103111947
 30
0.0
 40
13.15186523437504
100
AcDbArc
 50
174.4941416553453
 51
175.1841164786927
  0
ARC
  5
10F2
330
1E
100
AcDbEntity
  8
OBJECT
100
AcDbCircle
 10
8.176060886334781
 20
15.20720103111943
 30
0.0
 40
0.0196875
100
AcDbArc
 50
175.1841164787445
 51
270.000000000026
  0
ARC
  5
10F3
330
1E
100
AcDbEntity
  8
OBJECT
100
AcDbCircle
 10
8.19028606341898
 20
15.36470103111969
 30
0.0
 40
0.0196875
100
AcDbArc
 50
90.0
 51
174.4941416552934
  0
ARC
  5
10F4
330
1E
100
AcDbEntity
  8
OBJECT
100
AcDbCircle
 10
21.2618770930991
 20
14.10470103111947
 30
0.0
 40
13.15186523437504
100
AcDbArc
 50
176.2177991752506
 51
176.9062158201414
  0
ARC
  5
10F5
330
1E
100
AcDbEntity
  8
OBJECT
100
AcDbCircle
 10
8.148839097092391
 20
14.81345103111925
 30
0.0
 40
0.0196875
100
AcDbArc
 50
176.9062158201804
 51
270.000000000026
  0
ARC
  5
10F6
330
1E
100
AcDbEntity
  8
OBJECT
100
AcDbCircle
 10
8.158301131373391
 20
14.97095103111951
 30
0.0
 40
0.0196875
100
AcDbArc
 50
90.0
 51
176.2177991752896
  0
ARC
  5
10F7
330
1E
100
AcDbEntity
  8
OBJECT
100
AcDbCircle
 10
21.2618770930991
 20
14.10470103111947
 30
0.0
 40
13.13217773437504
100
AcDbArc
 50
171.8119721813666
 51
172.6788750396903
  0
ARC
  5
10F8
330
1E
100
AcDbEntity
  8
OBJECT
100
AcDbCircle
 10
21.2618770930991
 20
14.10470103111947
 30
0.0
 40
13.13217773437504
100
AcDbArc
 50
173.5440958253746
 51
174.4078405327889
  0
ARC
  5
10F9
330
1E
100
AcDbEntity
  8
OBJECT
100
AcDbCircle
 10
21.2618770930991
 20
14.10470103111947
 30
0.0
 40
13.13217773437504
100
AcDbArc
 50
175.2703120651895
 51
176.1317106821736
  0
LINE
  5
10FB
330
1E
100
AcDbEntity
  8
OBJECT
100
AcDbLine
 10
8.129598738602012
 20
14.20313853111929
 30
0.0
 11
8.169107669237305
 21
14.20313853111929
 31
0.0
  0
LINE
  5
10FC
330
1E
100
AcDbEntity
  8
OBJECT
100
AcDbLine
 10
8.129598738602012
 20
14.20313853111929
 30
0.0
 11
8.169107669237305
 21
14.20313853111929
 31
0.0
  0
LINE
  5
10FD
330
1E
100
AcDbEntity
  8
OBJECT
100
AcDbLine
 10
8.175724143218545
 20
13.02188853111965
 30
0.0
 11
8.213590299070474
 21
13.02188853111965
 31
0.0
  0
ARC
  5
10FE
330
1E
100
AcDbEntity
  8
OBJECT
100
AcDbCircle
 10
21.2221375821763
 20
14.10470103111947
 30
0.0
 40
13.09280273437495
100
AcDbArc
 50
189.0842897803432
 51
190.5946094360674
  0
ARC
  5
10FF
330
1E
100
AcDbEntity
  8
OBJECT
100
AcDbCircle
 10
21.2618770930991
 20
14.10470103111947
 30
0.0
 40
13.15186523437504
100
AcDbArc
 50
177.938034270493
 51
178.6255210604905
  0
ARC
  5
1100
330
1E
100
AcDbEntity
  8
OBJECT
100
AcDbCircle
 10
8.133477836250804
 20
14.41970103111998
 30
0.0
 40
0.0196875
100
AcDbArc
 50
178.6255210605035
 51
269.9999999999739
  0
ARC
  5
1101
330
1E
100
AcDbEntity
  8
OBJECT
100
AcDbCircle
 10
8.138202462980657
 20
14.57720103111933
 30
0.0
 40
0.0196875
100
AcDbArc
 50
89.99999999997395
 51
177.938034270506
  0
ARC
  5
1102
330
1E
100
AcDbEntity
  8
OBJECT
100
AcDbCircle
 10
21.2618770930991
 20
14.10470103111947
 30
0.0
 40
13.15186523437504
100
AcDbArc
 50
179.6564111626422
 51
180.3435888373577
  0
ARC
  5
1103
330
1E
100
AcDbEntity
  8
OBJECT
100
AcDbCircle
 10
8.129935481718248
 20
14.0259510311198
 30
0.0
 40
0.0196875
100
AcDbArc
 50
180.3435888373577
 51
270.000000000026
  0
ARC
  5
1104
330
1E
100
AcDbEntity
  8
OBJECT
100
AcDbCircle
 10
8.129935481718248
 20
14.18345103111914
 30
0.0
 40
0.0196875
100
AcDbArc
 50
89.99999999997395
 51
179.6564111626422
  0
ARC
  5
1105
330
1E
100
AcDbEntity
  8
OBJECT
100
AcDbCircle
 10
21.2618770930991
 20
14.10470103111947
 30
0.0
 40
13.13217773437504
100
AcDbArc
 50
178.7114409633584
 51
179.5705125053202
  0
ARC
  5
1106
330
1E
100
AcDbEntity
  8
OBJECT
100
AcDbCircle
 10
21.2618770930991
 20
14.10470103111947
 30
0.0
 40
12.89592773437504
100
AcDbArc
 50
179.5626442560683
 51
180.4373557439316
  0
LINE
  5
1107
330
1E
100
AcDbEntity
  8
OBJECT
100
AcDbLine
 10
8.129935481718362
 20
14.00626353111965
 30
0.0
 11
8.366325061921216
 21
14.00626353111965
 31
0.0
  0
LINE
  5
1108
330
1E
100
AcDbEntity
  8
OBJECT
100
AcDbLine
 10
8.129935481718362
 20
14.20313853111929
 30
0.0
 11
8.366325061921216
 21
14.20313853111929
 31
0.0
  0
LINE
  5
1109
330
1E
100
AcDbEntity
  8
OBJECT
100
AcDbLine
 10
8.133477836250804
 20
14.40001353111983
 30
0.0
 11
8.369331081640908
 21
14.40001353111983
 31
0.0
  0
ARC
  5
110A
330
1E
100
AcDbEntity
  8
OBJECT
100
AcDbCircle
 10
21.2618770930991
 20
14.10470103111947
 30
0.0
 40
13.15186523437504
100
AcDbArc
 50
188.2748186527874
 51
188.969851675886
  0
ARC
  5
110B
330
1E
100
AcDbEntity
  8
OBJECT
100
AcDbCircle
 10
8.26641665311412
 20
12.21470103111914
 30
0.0
 40
0.0196875
100
AcDbArc
 50
90.0
 51
188.2748186528133
  0
ARC
  5
110C
330
1E
100
AcDbEntity
  8
OBJECT
100
AcDbCircle
 10
8.290299093595209
 20
12.0572010311198
 30
0.0
 40
0.0196875
100
AcDbArc
 50
188.9698516759136
 51
270.000000000026
  0
ARC
  5
110D
330
1E
100
AcDbEntity
  8
OBJECT
100
AcDbCircle
 10
21.2618770930991
 20
14.10470103111947
 30
0.0
 40
13.15186523437504
100
AcDbArc
 50
186.5423564564915
 51
187.2345306136907
  0
ARC
  5
110E
330
1E
100
AcDbEntity
  8
OBJECT
100
AcDbCircle
 10
8.215217444564032
 20
12.60845103111932
 30
0.0
 40
0.0196875
100
AcDbArc
 50
90.0
 51
186.5423564565318
  0
ARC
  5
110F
330
1E
100
AcDbEntity
  8
OBJECT
100
AcDbCircle
 10
8.234244806888582
 20
12.45095103111998
 30
0.0
 40
0.0196875
100
AcDbArc
 50
187.2345306137294
 51
270.0
  0
ARC
  5
1110
330
1E
100
AcDbEntity
  8
OBJECT
100
AcDbCircle
 10
21.2618770930991
 20
14.10470103111947
 30
0.0
 40
13.15186523437504
100
AcDbArc
 50
184.8158835213072
 51
185.5058583446546
  0
ARC
  5
1111
330
1E
100
AcDbEntity
  8
OBJECT
100
AcDbCircle
 10
8.176060886334781
 20
13.00220103111951
 30
0.0
 40
0.0196875
100
AcDbArc
 50
89.99999999997395
 51
184.8158835212555
  0
ARC
  5
1112
330
1E
100
AcDbEntity
  8
OBJECT
100
AcDbCircle
 10
8.19028606341898
 20
12.84470103111925
 30
0.0
 40
0.0196875
100
AcDbArc
 50
185.5058583447066
 51
270.0
  0
ARC
  5
1113
330
1E
100
AcDbEntity
  8
OBJECT
100
AcDbCircle
 10
21.2618770930991
 20
14.10470103111947
 30
0.0
 40
13.15186523437504
100
AcDbArc
 50
183.0937841798585
 51
183.7822008247494
  0
ARC
  5
1114
330
1E
100
AcDbEntity
  8
OBJECT
100
AcDbCircle
 10
8.148839097092391
 20
13.39595103111969
 30
0.0
 40
0.0196875
100
AcDbArc
 50
89.99999999997395
 51
183.0937841798195
  0
ARC
  5
1115
330
1E
100
AcDbEntity
  8
OBJECT
100
AcDbCircle
 10
8.158301131373391
 20
13.23845103111944
 30
0.0
 40
0.0196875
100
AcDbArc
 50
183.7822008247103
 51
270.0
  0
ARC
  5
1116
330
1E
100
AcDbEntity
  8
OBJECT
100
AcDbCircle
 10
21.2618770930991
 20
14.10470103111947
 30
0.0
 40
13.15186523437504
100
AcDbArc
 50
181.3744789395094
 51
182.0619657295069
  0
ARC
  5
1117
330
1E
100
AcDbEntity
  8
OBJECT
100
AcDbCircle
 10
8.133477836250804
 20
13.78970103111987
 30
0.0
 40
0.0196875
100
AcDbArc
 50
90.00000000002605
 51
181.3744789394964
  0
ARC
  5
1118
330
1E
100
AcDbEntity
  8
OBJECT
100
AcDbCircle
 10
8.138202462980657
 20
13.63220103111962
 30
0.0
 40
0.0196875
100
AcDbArc
 50
182.0619657294939
 51
270.000000000026
  0
ARC
  5
1119
330
1E
100
AcDbEntity
  8
OBJECT
100
AcDbCircle
 10
21.2618770930991
 20
14.10470103111947
 30
0.0
 40
13.15186523437504
100
AcDbArc
 50
179.6564111626422
 51
180.3435888373577
  0
ARC
  5
111A
330
1E
100
AcDbEntity
  8
OBJECT
100
AcDbCircle
 10
8.129935481718248
 20
14.18345103111914
 30
0.0
 40
0.0196875
100
AcDbArc
 50
89.99999999997395
 51
179.6564111626422
  0
ARC
  5
111B
330
1E
100
AcDbEntity
  8
OBJECT
100
AcDbCircle
 10
8.129935481718248
 20
14.0259510311198
 30
0.0
 40
0.0196875
100
AcDbArc
 50
180.3435888373577
 51
270.000000000026
  0
ARC
  5
111C
330
1E
100
AcDbEntity
  8
OBJECT
100
AcDbCircle
 10
21.2618770930991
 20
14.10470103111947
 30
0.0
 40
13.13217773437504
100
AcDbArc
 50
187.3211249603096
 51
188.1880278186333
  0
ARC
  5
111D
330
1E
100
AcDbEntity
  8
OBJECT
100
AcDbCircle
 10
21.2618770930991
 20
14.10470103111947
 30
0.0
 40
13.13217773437504
100
AcDbArc
 50
185.592159467211
 51
186.4559041746254
  0
ARC
  5
111E
330
1E
100
AcDbEntity
  8
OBJECT
100
AcDbCircle
 10
21.2618770930991
 20
14.10470103111947
 30
0.0
 40
13.13217773437504
100
AcDbArc
 50
183.8682893178263
 51
184.7296879348104
  0
ARC
  5
111F
330
1E
100
AcDbEntity
  8
OBJECT
100
AcDbCircle
 10
21.2618770930991
 20
14.10470103111947
 30
0.0
 40
13.13217773437504
100
AcDbArc
 50
182.1479204318426
 51
183.0077655685272
  0
ARC
  5
1120
330
1E
100
AcDbEntity
  8
OBJECT
100
AcDbCircle
 10
21.2618770930991
 20
14.10470103111947
 30
0.0
 40
13.13217773437504
100
AcDbArc
 50
180.4294874946798
 51
181.2885590366416
  0
LINE
  5
1123
330
1E
100
AcDbEntity
  8
OBJECT
100
AcDbLine
 10
8.133477836250804
 20
13.80938853111911
 30
0.0
 11
8.369331081640908
 21
13.80938853111911
 31
0.0
  0
ARC
  5
1125
330
1E
100
AcDbEntity
  8
OBJECT
100
AcDbCircle
 10
21.2618770930991
 20
14.10470103111947
 30
0.0
 40
13.13217773437504
100
AcDbArc
 50
176.9922344314728
 51
177.8520795681573
  0
ARC
  5
1128
330
1E
100
AcDbEntity
  8
OBJECT
100
AcDbCircle
 10
21.2618770930991
 20
14.10470103111947
 30
0.0
 40
12.89592773437504
100
AcDbArc
 50
176.0607337794476
 51
176.9370808835303
  0
ARC
  5
1129
330
1E
100
AcDbEntity
  8
OBJECT
100
AcDbCircle
 10
21.2618770930991
 20
14.10470103111947
 30
0.0
 40
12.89592773437504
100
AcDbArc
 50
174.3050580124774
 51
175.1834625991934
  0
ARC
  5
112A
330
1E
100
AcDbEntity
  8
OBJECT
100
AcDbCircle
 10
21.2618770930991
 20
14.10470103111947
 30
0.0
 40
12.89592773437504
100
AcDbArc
 50
172.5439987006055
 51
173.4253082643451
  0
ARC
  5
112B
330
1E
100
AcDbEntity
  8
OBJECT
100
AcDbCircle
 10
21.2618770930991
 20
14.10470103111947
 30
0.0
 40
12.89592773437504
100
AcDbArc
 50
170.7758240384724
 51
171.6609112754606
  0
CIRCLE
  5
1131
330
1E
100
AcDbEntity
  8
OBJECT
100
AcDbCircle
 10
8.798709875753402
 20
16.46720099291178
 30
0.0
 40
0.063
  0
CIRCLE
  5
1133
330
1E
100
AcDbEntity
  8
OBJECT
100
AcDbCircle
 10
8.798709875753402
 20
16.46720099291178
 30
0.0
 40
0.135
  0
ARC
  5
1136
330
1E
100
AcDbEntity
  8
OBJECT
100
AcDbCircle
 10
21.2618770930991
 20
14.10470103111947
 30
0.0
 40
12.89592773437504
100
AcDbArc
 50
188.3390887245393
 51
189.2241759615275
  0
ARC
  5
1137
330
1E
100
AcDbEntity
  8
OBJECT
100
AcDbCircle
 10
21.2618770930991
 20
14.10470103111947
 30
0.0
 40
12.89592773437504
100
AcDbArc
 50
186.5746917356549
 51
187.4560012993945
  0
ARC
  5
1138
330
1E
100
AcDbEntity
  8
OBJECT
100
AcDbCircle
 10
21.2618770930991
 20
14.10470103111947
 30
0.0
 40
12.89592773437504
100
AcDbArc
 50
183.0629191164696
 51
183.9392662205523
  0
LINE
  5
1139
330
1E
100
AcDbEntity
  8
OBJECT
100
AcDbLine
 10
8.411489191558203
 20
13.02188853111965
 30
0.0
 11
8.42959935169371
 21
12.82501353111911
 31
0.0
  0
ARC
  5
114F
330
1E
100
AcDbEntity
  8
OBJECT
100
AcDbCircle
 10
8.739570025249932
 20
16.43953454492839
 30
0.0
 40
0.39375
100
AcDbArc
 50
102.3911782938196
 51
169.4053905639326
  0
ARC
  5
1151
330
1E
100
AcDbEntity
  8
OBJECT
100
AcDbCircle
 10
21.2618770930991
 20
14.10470103111947
 30
0.0
 40
12.89592773437504
100
AcDbArc
 50
177.8127112772701
 51
178.6878308104148
  0
LINE
  5
1152
330
1E
100
AcDbEntity
  8
OBJECT
100
AcDbLine
 10
8.138202462980657
 20
14.59688853111947
 30
0.0
 11
8.375345224707658
 21
14.59688853111947
 31
0.0
  0
LINE
  5
1153
330
1E
100
AcDbEntity
  8
OBJECT
100
AcDbLine
 10
8.148839097092391
 20
14.79376353111911
 30
0.0
 11
8.384371705745607
 21
14.79376353111911
 31
0.0
  0
LINE
  5
1154
330
1E
100
AcDbEntity
  8
OBJECT
100
AcDbLine
 10
8.158301131373391
 20
14.99063853111965
 30
0.0
 11
8.396416865174174
 21
14.99063853111965
 31
0.0
  0
LINE
  5
1155
330
1E
100
AcDbEntity
  8
OBJECT
100
AcDbLine
 10
8.176060886334781
 20
15.18751353111929
 30
0.0
 11
8.411489191558203
 21
15.18751353111929
 31
0.0
  0
LINE
  5
1156
330
1E
100
AcDbEntity
  8
OBJECT
100
AcDbLine
 10
8.19028606341898
 20
15.38438853111983
 30
0.0
 11
8.42959935169371
 21
15.38438853111983
 31
0.0
  0
LINE
  5
1157
330
1E
100
AcDbEntity
  8
OBJECT
100
AcDbLine
 10
8.215217444564032
 20
15.58126353111947
 30
0.0
 11
8.450760228679442
 21
15.58126353111947
 31
0.0
  0
LINE
  5
1158
330
1E
100
AcDbEntity
  8
OBJECT
100
AcDbLine
 10
8.234244806888582
 20
15.77813853111911
 30
0.0
 11
8.474986968294857
 21
15.77813853111911
 31
0.0
  0
LINE
  5
1159
330
1E
100
AcDbEntity
  8
OBJECT
100
AcDbLine
 10
8.26641665311412
 20
15.97501353111965
 30
0.0
 11
8.502297034078097
 21
15.97501353111965
 31
0.0
  0
LINE
  5
115A
330
1E
100
AcDbEntity
  8
OBJECT
100
AcDbLine
 10
8.290299093595209
 20
16.17188853111929
 30
0.0
 11
8.532710271579858
 21
16.17188853111929
 31
0.0
  0
ARC
  5
115B
330
1E
100
AcDbEntity
  8
OBJECT
100
AcDbCircle
 10
21.2618770930991
 20
14.10470103111947
 30
0.0
 40
12.89592773437504
100
AcDbArc
 50
181.3121691895851
 51
182.1872887227298
  0
LINE
  5
115C
330
1E
100
AcDbEntity
  8
OBJECT
100
AcDbLine
 10
8.138202462980657
 20
13.61251353111947
 30
0.0
 11
8.375345224707658
 21
13.61251353111947
 31
0.0
  0
LINE
  5
115D
330
1E
100
AcDbEntity
  8
OBJECT
100
AcDbLine
 10
8.148839097092391
 20
13.41563853111984
 30
0.0
 11
8.384371705745607
 21
13.41563853111984
 31
0.0
  0
LINE
  5
115E
330
1E
100
AcDbEntity
  8
OBJECT
100
AcDbLine
 10
8.158301131373391
 20
13.21876353111929
 30
0.0
 11
8.396416865174174
 21
13.21876353111929
 31
0.0
  0
LINE
  5
115F
330
1E
100
AcDbEntity
  8
OBJECT
100
AcDbLine
 10
8.176060886334781
 20
13.02188853111965
 30
0.0
 11
8.411489191558203
 21
13.02188853111965
 31
0.0
  0
LINE
  5
1160
330
1E
100
AcDbEntity
  8
OBJECT
100
AcDbLine
 10
8.19028606341898
 20
12.82501353111911
 30
0.0
 11
8.42959935169371
 21
12.82501353111911
 31
0.0
  0
LINE
  5
1161
330
1E
100
AcDbEntity
  8
OBJECT
100
AcDbLine
 10
8.215217444564032
 20
12.62813853111947
 30
0.0
 11
8.450760228679442
 21
12.62813853111947
 31
0.0
  0
LINE
  5
1162
330
1E
100
AcDbEntity
  8
OBJECT
100
AcDbLine
 10
8.234244806888582
 20
12.43126353111984
 30
0.0
 11
8.474986968294857
 21
12.43126353111984
 31
0.0
  0
LINE
  5
1163
330
1E
100
AcDbEntity
  8
OBJECT
100
AcDbLine
 10
8.26641665311412
 20
12.23438853111929
 30
0.0
 11
8.502297034078097
 21
12.23438853111929
 31
0.0
  0
LINE
  5
1164
330
1E
100
AcDbEntity
  8
OBJECT
100
AcDbLine
 10
8.290299093595209
 20
12.03751353111965
 30
0.0
 11
8.532710271579858
 21
12.03751353111965
 31
0.0
  0
ARC
  5
1165
330
1E
100
AcDbEntity
  8
OBJECT
100
AcDbCircle
 10
8.739570025249932
 20
11.76986751731055
 30
0.0
 40
0.39375
100
AcDbArc
 50
190.5946094360651
 51
257.6088217061802
  0
LINE
  5
118A
330
1E
100
AcDbEntity
  8
CENTER
100
AcDbLine
 10
3.005848013393276
 20
7.439639324520243
 30
0.0
 11
3.005847833258414
 21
1.730264324519879
 31
0.0
  0
ARC
  5
11C7
330
1E
100
AcDbEntity
  8
OBJECT
100
AcDbCircle
 10
4.167487835944754
 20
6.919785338328978
 30
0.0
 40
0.2874375
100
AcDbArc
 50
10.59460943606513
 51
77.60882170618026
  0
CIRCLE
  5
11D2
330
1E
100
AcDbEntity
  8
OBJECT
100
AcDbCircle
 10
4.108347985441284
 20
6.94745178631237
 30
0.0
 40
0.071
  0
CIRCLE
  5
11D4
330
1E
100
AcDbEntity
  8
OBJECT
100
AcDbCircle
 10
4.108347985441284
 20
6.94745178631237
 30
0.0
 40
0.118125
  0
ARC
  5
11EC
330
1E
100
AcDbEntity
  8
OBJECT
100
AcDbCircle
 10
-8.315079720981728
 20
4.584951824520061
 30
0.0
 40
12.98649023437494
100
AcDbArc
 50
0.0
 51
10.59460943606733
  0
ARC
  5
11EE
330
1E
100
AcDbEntity
  8
OBJECT
100
AcDbCircle
 10
4.167487835944754
 20
6.919785338328978
 30
0.0
 40
0.39375
100
AcDbArc
 50
10.59460943606513
 51
77.60882170618026
  0
CIRCLE
  5
120F
330
1E
100
AcDbEntity
  8
OBJECT
100
AcDbCircle
 10
1.903348013393312
 20
6.947451824520243
 30
0.0
 40
0.071
  0
LINE
  5
121B
330
1E
100
AcDbEntity
  8
OBJECT
100
AcDbLine
 10
1.394486302693323
 20
6.651991823256679
 30
0.0
 11
1.398170730582634
 21
6.651992160570983
 31
0.0
  0
ARC
  5
121C
330
1E
100
AcDbEntity
  8
OBJECT
100
AcDbCircle
 10
1.844208190841797
 20
6.919785338328978
 30
0.0
 40
0.39375
100
AcDbArc
 50
102.3911782938197
 51
169.4053905639348
  0
ARC
  5
121E
330
1E
100
AcDbEntity
  8
OBJECT
100
AcDbCircle
 10
1.844208190841797
 20
6.919785338328978
 30
0.0
 40
0.2874375
100
AcDbArc
 50
102.3911782938197
 51
169.4053905639348
  0
ARC
  5
1221
330
1E
100
AcDbEntity
  8
OBJECT
100
AcDbCircle
 10
14.36625350108549
 20
4.585991893902786
 30
0.0
 40
13.15186523437504
100
AcDbArc
 50
171.0353938146452
 51
171.7304268377598
  0
ARC
  5
1222
330
1E
100
AcDbEntity
  8
OBJECT
100
AcDbCircle
 10
1.370620084019535
 20
6.474802137535874
 30
0.0
 40
0.0196875
100
AcDbArc
 50
171.730426837732
 51
263.0801763999933
  0
ARC
  5
1223
330
1E
100
AcDbEntity
  8
OBJECT
100
AcDbCircle
 10
14.36625350108549
 20
4.585991893902786
 30
0.0
 40
13.15186523437504
100
AcDbArc
 50
172.7707148768451
 51
173.4628890340526
  0
ARC
  5
1224
330
1E
100
AcDbEntity
  8
OBJECT
100
AcDbCircle
 10
1.31945692392189
 20
6.081047451843545
 30
0.0
 40
0.0196875
100
AcDbArc
 50
173.4628890340137
 51
264.2777357604315
  0
ARC
  5
1225
330
1E
100
AcDbEntity
  8
OBJECT
100
AcDbCircle
 10
1.338469866871648
 20
6.238549193158718
 30
0.0
 40
0.0196875
100
AcDbArc
 50
90.00524549054052
 51
172.7707148768176
  0
ARC
  5
1226
330
1E
100
AcDbEntity
  8
OBJECT
100
AcDbCircle
 10
14.36625350108549
 20
4.585991893902786
 30
0.0
 40
13.15186523437504
100
AcDbArc
 50
174.4993871458794
 51
175.1893619692353
  0
ARC
  5
1227
330
1E
100
AcDbEntity
  8
OBJECT
100
AcDbCircle
 10
1.280336414094833
 20
5.687293868667978
 30
0.0
 40
0.0196875
100
AcDbArc
 50
175.1893619692742
 51
265.5750452982404
  0
ARC
  5
1228
330
1E
100
AcDbEntity
  8
OBJECT
100
AcDbCircle
 10
1.294547171824135
 20
5.844795170338869
 30
0.0
 40
0.0196875
100
AcDbArc
 50
90.00524549054052
 51
174.4993871458274
  0
ARC
  5
1229
330
1E
100
AcDbEntity
  8
OBJECT
100
AcDbCircle
 10
14.36625350108549
 20
4.585991893902786
 30
0.0
 40
13.15186523437504
100
AcDbArc
 50
176.223044665786
 51
176.9114613106832
  0
ARC
  5
122A
330
1E
100
AcDbEntity
  8
OBJECT
100
AcDbCircle
 10
1.253150673204615
 20
5.29354137813388
 30
0.0
 40
0.0196875
100
AcDbArc
 50
176.9114613107092
 51
266.972727883903
  0
ARC
  5
122B
330
1E
100
AcDbEntity
  8
OBJECT
100
AcDbCircle
 10
1.262598288150726
 20
5.451042243733894
 30
0.0
 40
0.0196875
100
AcDbArc
 50
90.00524549054052
 51
176.223044665825
  0
ARC
  5
122F
330
1E
100
AcDbEntity
  8
OBJECT
100
AcDbCircle
 10
1.394488105105253
 20
6.632304323339297
 30
0.0
 40
0.0196875
100
AcDbArc
 50
90.00524549051444
 51
171.0353938146324
  0
LINE
  5
1231
330
1E
100
AcDbEntity
  8
OBJECT
100
AcDbLine
 10
1.262596485738797
 20
5.470729743651276
 30
0.0
 11
1.263970509367524
 21
5.470729869443488
 31
0.0
  0
LINE
  5
1233
330
1E
100
AcDbEntity
  8
OBJECT
100
AcDbLine
 10
1.294545369412318
 20
5.864482670256251
 30
0.0
 11
1.296645903290638
 21
5.864482862561629
 31
0.0
  0
LINE
  5
1235
330
1E
100
AcDbEntity
  8
OBJECT
100
AcDbLine
 10
1.338468064459718
 20
6.258236693076099
 30
0.0
 11
1.341337737801083
 21
6.258236955799105
 31
0.0
  0
CIRCLE
  5
1239
330
1E
100
AcDbEntity
  8
OBJECT
100
AcDbCircle
 10
1.903347985441357
 20
6.94745178631237
 30
0.0
 40
0.118125
  0
CIRCLE
  5
124F
330
1E
100
AcDbEntity
  8
OBJECT
100
AcDbCircle
 10
2.100223013393289
 20
2.104321291985428
 30
0.0
 40
0.071
  0
ARC
  5
1277
330
1E
100
AcDbEntity
  8
OBJECT
100
AcDbCircle
 10
14.36625350108549
 20
4.585991893902786
 30
0.0
 40
13.15186523437504
100
AcDbArc
 50
177.9432797610287
 51
178.6307665510291
  0
ARC
  5
1278
330
1E
100
AcDbEntity
  8
OBJECT
100
AcDbCircle
 10
1.237825460665291
 20
4.899789973444597
 30
0.0
 40
0.0196875
100
AcDbArc
 50
178.6307665510421
 51
268.4716967733086
  0
ARC
  5
1279
330
1E
100
AcDbEntity
  8
OBJECT
100
AcDbCircle
 10
1.242535668080151
 20
5.057290405328416
 30
0.0
 40
0.0196875
100
AcDbArc
 50
90.00524549051444
 51
177.9432797610416
  0
ARC
  5
127A
330
1E
100
AcDbEntity
  8
OBJECT
100
AcDbCircle
 10
14.36625350108549
 20
4.585991893902786
 30
0.0
 40
13.15186523437504
100
AcDbArc
 50
179.6616566531729
 51
180.3488343279021
  0
ARC
  5
127B
330
1E
100
AcDbEntity
  8
OBJECT
100
AcDbCircle
 10
1.234319154385659
 20
4.506039650787528
 30
0.0
 40
0.0196875
100
AcDbArc
 50
180.3488343278891
 51
270.0731431917393
  0
ARC
  5
127C
330
1E
100
AcDbEntity
  8
OBJECT
100
AcDbCircle
 10
1.234304735090447
 20
4.663539650127489
 30
0.0
 40
0.0196875
100
AcDbArc
 50
90.00524549051444
 51
179.6616566531859
  0
LINE
  5
129B
330
1E
100
AcDbEntity
  8
OBJECT
100
AcDbLine
 10
1.242533865668221
 20
5.076977905246707
 30
0.0
 11
1.24322142506223
 21
5.076977968193745
 31
0.0
  0
CIRCLE
  5
12A8
330
1E
100
AcDbEntity
  8
OBJECT
100
AcDbCircle
 10
2.100223013393289
 20
2.104321291985428
 30
0.0
 40
0.118
  0
ARC
  5
12AC
330
1E
100
AcDbEntity
  8
OBJECT
100
AcDbCircle
 10
14.32677574776828
 20
4.584951824520061
 30
0.0
 40
13.09280273437504
100
AcDbArc
 50
169.4053905639326
 51
170.9163624076425
  0
ARC
  5
12AE
330
1E
100
AcDbEntity
  8
OBJECT
100
AcDbCircle
 10
14.32677574776828
 20
4.584951824520061
 30
0.0
 40
12.98649023437504
100
AcDbArc
 50
169.4053905639326
 51
180.0
  0
ARC
  5
12B6
330
1E
100
AcDbEntity
  8
OBJECT
100
AcDbCircle
 10
3.005848013393276
 20
1.632462937670055
 30
0.0
 40
5.807176386849635
100
AcDbArc
 50
77.60882170618026
 51
102.3911782938197
  0
ARC
  5
12B8
330
1E
100
AcDbEntity
  8
OBJECT
100
AcDbCircle
 10
3.005848013393276
 20
1.632462937670055
 30
0.0
 40
5.700863886849635
100
AcDbArc
 50
77.60882170618026
 51
102.3911782938197
  0
CIRCLE
  5
12BC
330
1E
100
AcDbEntity
  8
OBJECT
100
AcDbCircle
 10
3.911473013393262
 20
2.104321291985428
 30
0.0
 40
0.118
  0
CIRCLE
  5
12BD
330
1E
100
AcDbEntity
  8
OBJECT
100
AcDbCircle
 10
3.911473013393262
 20
2.104321291985428
 30
0.0
 40
0.071
  0
LINE
  5
12E6
330
1E
100
AcDbEntity
  8
CENTER
100
AcDbLine
 10
9.901209847801411
 20
7.439639324520243
 30
0.0
 11
9.901210027936272
 21
1.730264324519879
 31
0.0
  0
CIRCLE
  5
12E8
330
1E
100
AcDbEntity
  8
OBJECT
100
AcDbCircle
 10
11.00370984780137
 20
6.947451824520243
 30
0.0
 40
0.063
  0
CIRCLE
  5
12E9
330
1E
100
AcDbEntity
  8
OBJECT
100
AcDbCircle
 10
11.00370987575333
 20
6.553701824520061
 30
0.0
 40
0.0433125
  0
ARC
  5
12F5
330
1E
100
AcDbEntity
  8
OBJECT
100
AcDbCircle
 10
11.06284967035289
 20
6.919785338328978
 30
0.0
 40
0.39375
100
AcDbArc
 50
10.59460943606513
 51
77.60882170618029
  0
CIRCLE
  5
1307
330
1E
100
AcDbEntity
  8
OBJECT
100
AcDbCircle
 10
11.00370987575333
 20
6.553701824520061
 30
0.0
 40
0.118125
  0
CIRCLE
  5
1308
330
1E
100
AcDbEntity
  8
OBJECT
100
AcDbCircle
 10
11.00370987575333
 20
6.947451841866126
 30
0.0
 40
0.1771875
  0
CIRCLE
  5
1309
330
1E
100
AcDbEntity
  8
OBJECT
100
AcDbCircle
 10
11.00370987575333
 20
6.94745178631237
 30
0.0
 40
0.118125
  0
CIRCLE
  5
130C
330
1E
100
AcDbEntity
  8
OBJECT
100
AcDbCircle
 10
10.80683484780139
 20
2.104321291985428
 30
0.0
 40
0.063
  0
LINE
  5
130D
330
1E
100
AcDbEntity
  8
OBJECT
100
AcDbLine
 10
10.69842554861647
 20
2.419140328386305
 30
0.0
 11
10.87561304618328
 21
2.419109182963978
 31
0.0
  0
LINE
  5
130E
330
1E
100
AcDbEntity
  8
OBJECT
100
AcDbLine
 10
10.69842208801402
 20
2.379765328386014
 30
0.0
 11
10.69842671309994
 21
2.419233764448648
 31
0.0
  0
LINE
  5
130F
330
1E
100
AcDbEntity
  8
OBJECT
100
AcDbLine
 10
10.87560958558084
 20
2.379734182963687
 30
0.0
 11
10.87561421309989
 21
2.419223382641206
 31
0.0
  0
LINE
  5
1310
330
1E
100
AcDbEntity
  8
OBJECT
100
AcDbLine
 10
10.87560958558084
 20
2.379734182963687
 30
0.0
 11
10.69842208679746
 21
2.379754946578572
 31
0.0
  0
LINE
  5
1311
330
1E
100
AcDbEntity
  8
OBJECT
100
AcDbLine
 10
10.69842562834516
 20
4.585138166306563
 30
0.0
 11
10.87561312591425
 21
4.585169298684917
 31
0.0
  0
LINE
  5
1312
330
1E
100
AcDbEntity
  8
OBJECT
100
AcDbLine
 10
10.69842217064139
 20
4.624513166306854
 30
0.0
 11
10.6984267928217
 21
4.585044730243311
 31
0.0
  0
LINE
  5
1313
330
1E
100
AcDbEntity
  8
OBJECT
100
AcDbLine
 10
10.87560966821048
 20
4.624544298684298
 30
0.0
 11
10.87561429282244
 21
4.58505509900678
 31
0.0
  0
LINE
  5
1314
330
1E
100
AcDbEntity
  8
OBJECT
100
AcDbLine
 10
10.87560966821048
 20
4.624544298684298
 30
0.0
 11
10.69842216942562
 21
4.624523548114297
 31
0.0
  0
ARC
  5
1315
330
1E
100
AcDbEntity
  8
OBJECT
100
AcDbCircle
 10
11.08245984997542
 20
2.379951824520134
 30
0.0
 40
0.0590625
100
AcDbArc
 50
270.0
 51
359.9999978909956
  0
LINE
  5
1316
330
1E
100
AcDbEntity
  8
OBJECT
100
AcDbLine
 10
11.14152243258901
 20
4.62432682234575
 30
0.0
 11
11.14152234997551
 21
2.379951822346441
 31
0.0
  0
LINE
  5
1317
330
1E
100
AcDbEntity
  8
OBJECT
100
AcDbLine
 10
11.20058493258899
 20
4.624326820172058
 30
0.0
 11
11.20058483982985
 21
2.104326824519915
 31
0.0
  0
ARC
  5
1318
330
1E
100
AcDbEntity
  8
OBJECT
100
AcDbCircle
 10
11.08245993258903
 20
4.624326824520352
 30
0.0
 40
0.0590625
100
AcDbArc
 50
359.9999978909956
 51
90.0
  0
LINE
  5
1319
330
1E
100
AcDbEntity
  8
OBJECT
100
AcDbLine
 10
11.08246000930161
 20
2.320889640177114
 30
0.0
 11
11.0824601038138
 21
1.967206686495586
 31
0.0
  0
LINE
  5
131A
330
1E
100
AcDbEntity
  8
OBJECT
100
AcDbLine
 10
11.20058483982985
 20
2.104326824519915
 30
0.0
 11
11.08246006717207
 21
2.104326824519915
 31
0.0
  0
CIRCLE
  5
131B
330
1E
100
AcDbEntity
  8
OBJECT
100
AcDbCircle
 10
11.00370992544573
 20
4.978701824520243
 30
0.0
 40
0.0433125
  0
ARC
  5
1326
330
1E
100
AcDbEntity
  8
OBJECT
100
AcDbCircle
 10
11.08245993258903
 20
4.624326824520352
 30
0.0
 40
0.118125
100
AcDbArc
 50
359.9999978909956
 51
90.0
  0
CIRCLE
  5
133A
330
1E
100
AcDbEntity
  8
OBJECT
100
AcDbCircle
 10
11.00370992544573
 20
4.978701894089311
 30
0.0
 40
0.118125
  0
CIRCLE
  5
133D
330
1E
100
AcDbEntity
  8
OBJECT
100
AcDbCircle
 10
8.798709845882413
 20
6.947451824121884
 30
0.0
 40
0.1771875
  0
CIRCLE
  5
1340
330
1E
100
AcDbEntity
  8
OBJECT
100
AcDbCircle
 10
8.995584847801424
 20
2.104321291985428
 30
0.0
 40
0.118
  0
CIRCLE
  5
1341
330
1E
100
AcDbEntity
  8
OBJECT
100
AcDbCircle
 10
8.995584847801424
 20
2.104321291985428
 30
0.0
 40
0.063
  0
LINE
  5
1342
330
1E
100
AcDbEntity
  8
OBJECT
100
AcDbLine
 10
9.103740366634056
 20
2.419327200648325
 30
0.0
 11
8.926552866634111
 21
2.419337582455767
 31
0.0
  0
LINE
  5
1343
330
1E
100
AcDbEntity
  8
OBJECT
100
AcDbLine
 10
9.103734598963356
 20
2.379952200918154
 30
0.0
 11
8.926547098963297
 21
2.379962582725596
 31
0.0
  0
LINE
  5
1344
330
1E
100
AcDbEntity
  8
OBJECT
100
AcDbLine
 10
9.103740446348993
 20
4.584951411443029
 30
0.0
 11
8.926552946348252
 21
4.58494104267956
 31
0.0
  0
LINE
  5
1345
330
1E
100
AcDbEntity
  8
OBJECT
100
AcDbLine
 10
9.103734681576966
 20
4.6243264111732
 30
0.0
 11
8.926547181576111
 21
4.624316042409731
 31
0.0
  0
LINE
  5
1346
330
1E
100
AcDbEntity
  8
OBJECT
100
AcDbLine
 10
11.08245993258903
 20
4.683389324519879
 30
0.0
 11
8.719959932589077
 21
4.683389324519879
 31
0.0
  0
LINE
  5
1347
330
1E
100
AcDbEntity
  8
OBJECT
100
AcDbLine
 10
9.704334932899669
 20
4.742451824520315
 30
0.0
 11
8.719959932589077
 21
4.742451824520315
 31
0.0
  0
CIRCLE
  5
1349
330
1E
100
AcDbEntity
  8
OBJECT
100
AcDbCircle
 10
9.527147378953955
 20
6.947451786046798
 30
0.0
 40
0.055
  0
CIRCLE
  5
134B
330
1E
100
AcDbEntity
  8
OBJECT
100
AcDbCircle
 10
10.27527237895391
 20
6.947451804895166
 30
0.0
 40
0.1575
  0
CIRCLE
  5
134C
330
1E
100
AcDbEntity
  8
OBJECT
100
AcDbCircle
 10
10.27527237895391
 20
6.947451786046798
 30
0.0
 40
0.055
  0
CIRCLE
  5
134D
330
1E
100
AcDbEntity
  8
OBJECT
100
AcDbCircle
 10
9.527147378953955
 20
6.947451786046798
 30
0.0
 40
0.1575
  0
LINE
  5
134E
330
1E
100
AcDbEntity
  8
OBJECT
100
AcDbLine
 10
9.103734598963356
 20
2.379952200918154
 30
0.0
 11
9.103739224049277
 21
2.419420636981698
 31
0.0
  0
LINE
  5
134F
330
1E
100
AcDbEntity
  8
OBJECT
100
AcDbLine
 10
9.310584934763042
 20
4.683389324519879
 30
0.0
 11
9.310584932899601
 21
4.742451824520315
 31
0.0
  0
LINE
  5
1350
330
1E
100
AcDbEntity
  8
OBJECT
100
AcDbLine
 10
9.103734681576966
 20
4.6243264111732
 30
0.0
 11
9.103739303757279
 21
4.584857975109656
 31
0.0
  0
LINE
  5
1351
330
1E
100
AcDbEntity
  8
OBJECT
100
AcDbLine
 10
9.517172094908019
 20
2.379893370676285
 30
0.0
 11
9.517176718371857
 21
2.419347964329602
 31
0.0
  0
LINE
  5
1352
330
1E
100
AcDbEntity
  8
OBJECT
100
AcDbLine
 10
9.517172177525949
 20
4.624385210977919
 30
0.0
 11
9.517176798085202
 21
4.584930617324602
 31
0.0
  0
LINE
  5
1353
330
1E
100
AcDbEntity
  8
OBJECT
100
AcDbLine
 10
9.694359594908078
 20
2.379882988869752
 30
0.0
 11
9.694364215938676
 21
2.419316818908185
 31
0.0
  0
LINE
  5
1355
330
1E
100
AcDbEntity
  8
OBJECT
100
AcDbLine
 10
9.70433493476311
 20
4.683389324519879
 30
0.0
 11
9.70434860618387
 21
5.018037782008621
 31
0.0
  0
LINE
  5
1356
330
1E
100
AcDbEntity
  8
OBJECT
100
AcDbLine
 10
9.694359677526691
 20
4.624395579741388
 30
0.0
 11
9.694364295654295
 21
4.584961749702046
 31
0.0
  0
LINE
  5
1357
330
1E
100
AcDbEntity
  8
OBJECT
100
AcDbLine
 10
10.1077970920693
 20
2.379834540435325
 30
0.0
 11
10.1078017130999
 21
2.419268370473758
 31
0.0
  0
LINE
  5
1358
330
1E
100
AcDbEntity
  8
OBJECT
100
AcDbLine
 10
10.09808493476306
 20
4.683389324519879
 30
0.0
 11
10.09809860618382
 21
5.018037794432318
 31
0.0
  0
LINE
  5
1359
330
1E
100
AcDbEntity
  8
OBJECT
100
AcDbLine
 10
10.10779717469155
 20
4.624443997738666
 30
0.0
 11
10.10780179281915
 21
4.585010167699323
 31
0.0
  0
LINE
  5
135A
330
1E
100
AcDbEntity
  8
OBJECT
100
AcDbLine
 10
10.09809860618382
 20
5.018037788220469
 30
0.0
 11
9.70434860618387
 21
5.018037788220469
 31
0.0
  0
LINE
  5
135B
330
1E
100
AcDbEntity
  8
OBJECT
100
AcDbLine
 10
10.09808493476306
 20
4.880264324520425
 30
0.0
 11
9.70433493476311
 21
4.880264324520425
 31
0.0
  0
LINE
  5
135C
330
1E
100
AcDbEntity
  8
OBJECT
100
AcDbLine
 10
10.09808493476306
 20
4.840889324520134
 30
0.0
 11
9.70433493476311
 21
4.840889324520134
 31
0.0
  0
LINE
  5
135D
330
1E
100
AcDbEntity
  8
OBJECT
100
AcDbLine
 10
10.09808493476306
 20
4.813326824519748
 30
0.0
 11
9.70433493476311
 21
4.813326824519748
 31
0.0
  0
LINE
  5
135E
330
1E
100
AcDbEntity
  8
OBJECT
100
AcDbLine
 10
10.28498458963612
 20
2.379803395012999
 30
0.0
 11
10.28498921309996
 21
2.419257988666316
 31
0.0
  0
LINE
  5
135F
330
1E
100
AcDbEntity
  8
OBJECT
100
AcDbLine
 10
10.49183493476302
 20
4.683389324519879
 30
0.0
 11
10.49183493289957
 21
4.742451824520315
 31
0.0
  0
LINE
  5
1360
330
1E
100
AcDbEntity
  8
OBJECT
100
AcDbLine
 10
10.28498467226076
 20
4.62447513011611
 30
0.0
 11
10.2849892928199
 21
4.585020536462792
 31
0.0
  0
LINE
  5
1361
330
1E
100
AcDbEntity
  8
OBJECT
100
AcDbLine
 10
10.10780055267186
 20
2.419209540434707
 30
0.0
 11
10.28498805023868
 21
2.41917839501329
 31
0.0
  0
LINE
  5
1362
330
1E
100
AcDbEntity
  8
OBJECT
100
AcDbLine
 10
10.28498458963612
 20
2.379803395012999
 30
0.0
 11
10.1077970920693
 21
2.379834540435325
 31
0.0
  0
LINE
  5
1363
330
1E
100
AcDbEntity
  8
OBJECT
100
AcDbLine
 10
10.10780063239532
 20
4.585068997738375
 30
0.0
 11
10.28498812996441
 21
4.585100130116728
 31
0.0
  0
LINE
  5
1364
330
1E
100
AcDbEntity
  8
OBJECT
100
AcDbLine
 10
10.28498467226076
 20
4.62447513011611
 30
0.0
 11
10.10779717469155
 21
4.624443997738666
 31
0.0
  0
LINE
  5
1365
330
1E
100
AcDbEntity
  8
OBJECT
100
AcDbLine
 10
9.694365362578778
 20
2.419257988599014
 30
0.0
 11
9.517177862578833
 21
2.419268370406456
 31
0.0
  0
LINE
  5
1366
330
1E
100
AcDbEntity
  8
OBJECT
100
AcDbLine
 10
9.694359594908078
 20
2.379882988869752
 30
0.0
 11
9.517172096124582
 21
2.379903752483727
 31
0.0
  0
LINE
  5
1367
330
1E
100
AcDbEntity
  8
OBJECT
100
AcDbLine
 10
9.694365442298717
 20
4.585020580011217
 30
0.0
 11
9.517177942297976
 21
4.585010211247748
 31
0.0
  0
LINE
  5
1368
330
1E
100
AcDbEntity
  8
OBJECT
100
AcDbLine
 10
9.694359677526691
 20
4.624395579741388
 30
0.0
 11
9.51717217874183
 21
4.624374829170477
 31
0.0
  0
CIRCLE
  5
13AC
330
1E
100
AcDbEntity
  8
OBJECT
100
AcDbCircle
 10
8.798709875753402
 20
6.553701824520061
 30
0.0
 40
0.0433125
  0
CIRCLE
  5
13B1
330
1E
100
AcDbEntity
  8
OBJECT
100
AcDbCircle
 10
8.798709875753402
 20
6.94745178631237
 30
0.0
 40
0.063
  0
CIRCLE
  5
13B2
330
1E
100
AcDbEntity
  8
OBJECT
100
AcDbCircle
 10
8.798709875753402
 20
6.553701754950992
 30
0.0
 40
0.118125
  0
CIRCLE
  5
13B3
330
1E
100
AcDbEntity
  8
OBJECT
100
AcDbCircle
 10
8.798709875753402
 20
6.94745178631237
 30
0.0
 40
0.118125
  0
LINE
  5
13B4
330
1E
100
AcDbEntity
  8
OBJECT
100
AcDbLine
 10
8.660897432589095
 20
4.624326826694044
 30
0.0
 11
8.660897349975485
 21
2.379951826693826
 31
0.0
  0
LINE
  5
13B5
330
1E
100
AcDbEntity
  8
OBJECT
100
AcDbLine
 10
8.601834932589
 20
4.624326828868646
 30
0.0
 11
8.601834839829862
 21
2.104326824519915
 31
0.0
  0
LINE
  5
13BC
330
1E
100
AcDbEntity
  8
OBJECT
100
AcDbLine
 10
8.926547098963297
 20
2.379962582725596
 30
0.0
 11
8.926551726482344
 21
2.419451782403115
 31
0.0
  0
LINE
  5
13BD
330
1E
100
AcDbEntity
  8
OBJECT
100
AcDbLine
 10
8.719960009301658
 20
2.32088900886319
 30
0.0
 11
8.719960103813846
 21
1.967206055181662
 31
0.0
  0
CIRCLE
  5
13BE
330
1E
100
AcDbEntity
  8
OBJECT
100
AcDbCircle
 10
8.798709875753402
 20
4.978701824520243
 30
0.0
 40
0.0433125
  0
LINE
  5
13C0
330
1E
100
AcDbEntity
  8
OBJECT
100
AcDbLine
 10
8.926547181576111
 20
4.624316042409731
 30
0.0
 11
8.926551806188072
 21
4.584826842731303
 31
0.0
  0
ARC
  5
13C1
330
1E
100
AcDbEntity
  8
OBJECT
100
AcDbCircle
 10
8.719959849975467
 20
2.379951824520134
 30
0.0
 40
0.0590625
100
AcDbArc
 50
179.9999978909956
 51
270.0
  0
ARC
  5
13C2
330
1E
100
AcDbEntity
  8
OBJECT
100
AcDbCircle
 10
8.719959932589077
 20
4.624326824520352
 30
0.0
 40
0.0590625
100
AcDbArc
 50
90.0
 51
179.9999978909956
  0
ARC
  5
13C3
330
1E
100
AcDbEntity
  8
OBJECT
100
AcDbCircle
 10
8.719959932589077
 20
4.624326824520352
 30
0.0
 40
0.118125
100
AcDbArc
 50
90.0
 51
179.9999978909956
  0
LINE
  5
13C4
330
1E
100
AcDbEntity
  8
OBJECT
100
AcDbLine
 10
8.71996006717201
 20
2.104326824519915
 30
0.0
 11
8.601834839829862
 21
2.104326824519915
 31
0.0
  0
CIRCLE
  5
13C5
330
1E
100
AcDbEntity
  8
OBJECT
100
AcDbCircle
 10
8.798709875753402
 20
4.978701824520243
 30
0.0
 40
0.118125
  0
ARC
  5
13CD
330
1E
100
AcDbEntity
  8
OBJECT
100
AcDbCircle
 10
8.739570025249932
 20
6.919785338328978
 30
0.0
 40
0.39375
100
AcDbArc
 50
102.3911782938197
 51
169.4053905639348
  0
ARC
  5
13E7
330
1E
100
AcDbEntity
  8
OBJECT
100
AcDbCircle
 10
9.901209847801411
 20
1.632462937670055
 30
0.0
 40
5.807176386849635
100
AcDbArc
 50
77.60882170618029
 51
102.3911782938197
  0
LINE
  5
13ED
330
1E
100
AcDbEntity
  8
OBJECT
100
AcDbLine
 10
11.08245984997542
 20
2.320889324519697
 30
0.0
 11
8.719959849975467
 21
2.320889324519697
 31
0.0
  0
CIRCLE
  5
13F4
330
1E
100
AcDbEntity
  8
OBJECT
100
AcDbCircle
 10
10.80683484780139
 20
2.104321291985428
 30
0.0
 40
0.118
  0
LINE
  5
13F6
330
1E
100
AcDbEntity
  8
OBJECT
100
AcDbLine
 10
11.08245993258903
 20
4.742451824520315
 30
0.0
 11
10.09808493289962
 21
4.742451824520315
 31
0.0
  0
LINE
  5
1783
330
1E
100
AcDbEntity
  8
CENTER
100
AcDbLine
 10
1.214388307835562
 20
4.58495182452097
 30
0.0
 11
4.797046002470594
 21
4.584951824520061
 31
0.0
  0
LINE
  5
17AF
330
1E
100
AcDbEntity
  8
OBJECT
100
AcDbLine
 10
6.416601284367217
 20
11.25001353111929
 30
0.0
 11
6.416601284367217
 21
16.95938853112056
 31
0.0
  0
LINE
  5
17B0
330
1E
100
AcDbEntity
  8
OBJECT
100
AcDbLine
 10
6.416601284367217
 20
11.27001353112063
 30
0.0
 11
6.455976284367167
 21
11.27001353112063
 31
0.0
  0
LINE
  5
17B3
330
1E
100
AcDbEntity
  8
OBJECT
100
AcDbLine
 10
6.416601284367217
 20
16.93938853112013
 30
0.0
 11
6.455976284367167
 21
16.93938853112013
 31
0.0
  0
LINE
  5
17C2
330
1E
100
AcDbEntity
  8
OBJECT
100
AcDbLine
 10
8.641209934230587
 20
14.22001353111954
 30
0.0
 11
11.16120993423079
 21
14.22001353111954
 31
0.0
  0
LINE
  5
17C7
330
1E
100
AcDbEntity
  8
OBJECT
100
AcDbLine
 10
9.547209936628306
 20
14.14401353111952
 30
0.0
 11
9.547209951962045
 21
13.65801353111965
 31
0.0
  0
LINE
  5
17C8
330
1E
100
AcDbEntity
  8
OBJECT
100
AcDbLine
 10
10.2552099366285
 20
14.14401353111952
 30
0.0
 11
10.25520995196224
 21
13.65801353111965
 31
0.0
  0
LINE
  5
17C9
330
1E
100
AcDbEntity
  8
OBJECT
100
AcDbLine
 10
9.547209936628306
 20
14.14401353111952
 30
0.0
 11
10.2552099366285
 21
14.14401353111952
 31
0.0
  0
LINE
  5
17CA
330
1E
100
AcDbEntity
  8
OBJECT
100
AcDbLine
 10
9.547209951962045
 20
13.65801353111965
 30
0.0
 11
10.25520995196224
 21
13.65801353111965
 31
0.0
  0
LINE
  5
17CC
330
1E
100
AcDbEntity
  8
OBJECT
100
AcDbLine
 10
9.626209943222207
 20
13.93501353361171
 30
0.0
 11
10.17620994322057
 21
13.93501355096577
 31
0.0
  0
LINE
  5
17D1
330
1E
100
AcDbEntity
  8
OBJECT
100
AcDbLine
 10
9.626209943222661
 20
13.93501353361171
 30
0.0
 11
9.901209938237585
 21
14.09301354228864
 31
0.0
  0
LINE
  5
17D2
330
1E
100
AcDbEntity
  8
OBJECT
100
AcDbLine
 10
9.901209938237585
 20
14.09301354228864
 30
0.0
 11
10.17620994322261
 21
13.93501355096486
 31
0.0
  0
LINE
  5
17D3
330
1E
100
AcDbEntity
  8
OBJECT
100
AcDbLine
 10
9.626209943222207
 20
13.86701352862655
 30
0.0
 11
10.17620994322057
 21
13.86701351127249
 31
0.0
  0
LINE
  5
17D4
330
1E
100
AcDbEntity
  8
OBJECT
100
AcDbLine
 10
9.626209943222661
 20
13.86701352862655
 30
0.0
 11
9.901209938237585
 21
13.70901351994962
 31
0.0
  0
LINE
  5
17D5
330
1E
100
AcDbEntity
  8
OBJECT
100
AcDbLine
 10
9.901209938237585
 20
13.70901351994962
 30
0.0
 11
10.17620994322261
 21
13.8670135112734
 31
0.0
  0
LINE
  5
17EC
330
1E
100
AcDbEntity
  8
OBJECT
100
AcDbLine
 10
2.913347991822462
 20
6.755951786312698
 30
0.0
 11
3.098347991822408
 21
6.755951786312698
 31
0.0
  0
ARC
  5
17F3
330
1E
100
AcDbEntity
  8
OBJECT
100
AcDbCircle
 10
14.32677574776828
 20
4.584951824520061
 30
0.0
 40
13.09280273437504
100
AcDbArc
 50
171.7872056609927
 51
172.6574087870717
  0
ARC
  5
17F4
330
1E
100
AcDbEntity
  8
OBJECT
100
AcDbCircle
 10
14.32677574776828
 20
4.584951824520061
 30
0.0
 40
13.09280273437504
100
AcDbArc
 50
173.5248453397634
 51
174.3916569395727
  0
ARC
  5
17F5
330
1E
100
AcDbEntity
  8
OBJECT
100
AcDbCircle
 10
14.32677574776828
 20
4.584951824520061
 30
0.0
 40
13.09280273437504
100
AcDbArc
 50
175.2564914854762
 51
176.120758886304
  0
ARC
  5
17F6
330
1E
100
AcDbEntity
  8
OBJECT
100
AcDbCircle
 10
14.32677574776828
 20
4.584951824520061
 30
0.0
 40
13.09280273437504
100
AcDbArc
 50
176.98376330206
 51
177.8463235344247
  0
ARC
  5
17F7
330
1E
100
AcDbEntity
  8
OBJECT
100
AcDbCircle
 10
14.32677574776828
 20
4.584951824520061
 30
0.0
 40
13.09280273437504
100
AcDbArc
 50
178.7082429291302
 51
179.5699305506784
  0
ARC
  5
17FA
330
1E
100
AcDbEntity
  8
OBJECT
100
AcDbCircle
 10
3.005848013393276
 20
1.632462937670055
 30
0.0
 40
5.749176386849635
100
AcDbArc
 50
77.60882170618026
 51
102.3911782938197
  0
ARC
  5
17FB
330
1E
100
AcDbEntity
  8
OBJECT
100
AcDbCircle
 10
4.167487835944754
 20
6.919785338328978
 30
0.0
 40
0.33575
100
AcDbArc
 50
10.59460943606513
 51
77.60882170618026
  0
ARC
  5
17FD
330
1E
100
AcDbEntity
  8
OBJECT
100
AcDbCircle
 10
-8.315079720981728
 20
4.584951824520061
 30
0.0
 40
13.03480273437495
100
AcDbArc
 50
0.0
 51
10.59460943606733
  0
ARC
  5
17FE
330
1E
100
AcDbEntity
  8
OBJECT
100
AcDbCircle
 10
1.844208190841797
 20
6.919785338328978
 30
0.0
 40
0.33575
100
AcDbArc
 50
102.3911782938197
 51
169.4053905639348
  0
ARC
  5
17FF
330
1E
100
AcDbEntity
  8
OBJECT
100
AcDbCircle
 10
14.32677568086039
 20
4.584951824520061
 30
0.0
 40
13.03480273437495
100
AcDbArc
 50
169.4053905639326
 51
180.0
  0
ARC
  5
1801
330
1E
100
AcDbEntity
  8
OBJECT
100
AcDbCircle
 10
4.777391111561357
 20
4.663539650127489
 30
0.0
 40
0.0196875
100
AcDbArc
 50
0.3383433468140678
 51
89.99475450948557
  0
ARC
  5
1802
330
1E
100
AcDbEntity
  8
OBJECT
100
AcDbCircle
 10
-8.354557654433691
 20
4.585991893902786
 30
0.0
 40
13.15186523437504
100
AcDbArc
 50
359.6511656720978
 51
0.3383433468270953
  0
ARC
  5
1804
330
1E
100
AcDbEntity
  8
OBJECT
100
AcDbCircle
 10
4.777376692266145
 20
4.506039650787528
 30
0.0
 40
0.0196875
100
AcDbArc
 50
269.9268568082606
 51
359.6511656721109
  0
ARC
  5
1806
330
1E
100
AcDbEntity
  8
OBJECT
100
AcDbCircle
 10
4.773870385986512
 20
4.899789973444597
 30
0.0
 40
0.0196875
100
AcDbArc
 50
271.5283032266913
 51
1.369233448957881
  0
ARC
  5
1807
330
1E
100
AcDbEntity
  8
OBJECT
100
AcDbCircle
 10
-8.315079901116476
 20
4.584951824520061
 30
0.0
 40
13.09280273437504
100
AcDbArc
 50
2.1536764655753
 51
3.016236697939976
  0
ARC
  5
1808
330
1E
100
AcDbEntity
  8
OBJECT
100
AcDbCircle
 10
-8.315079901116476
 20
4.584951824520061
 30
0.0
 40
13.09280273437504
100
AcDbArc
 50
0.4300694493215386
 51
1.291757070869759
  0
LINE
  5
1809
330
1E
100
AcDbEntity
  8
OBJECT
100
AcDbLine
 10
4.769161980983582
 20
5.076977905246707
 30
0.0
 11
4.768474421589573
 21
5.076977968193745
 31
0.0
  0
ARC
  5
180A
330
1E
100
AcDbEntity
  8
OBJECT
100
AcDbCircle
 10
4.769160178571652
 20
5.057290405328416
 30
0.0
 40
0.0196875
100
AcDbArc
 50
2.056720238958343
 51
89.99475450948557
  0
ARC
  5
180B
330
1E
100
AcDbEntity
  8
OBJECT
100
AcDbCircle
 10
-8.354557654433691
 20
4.585991893902786
 30
0.0
 40
13.15186523437504
100
AcDbArc
 50
1.369233448970908
 51
2.05672023897132
  0
ARC
  5
180C
330
1E
100
AcDbEntity
  8
OBJECT
100
AcDbCircle
 10
4.758545173447188
 20
5.29354137813388
 30
0.0
 40
0.0196875
100
AcDbArc
 50
273.0272721160969
 51
3.088538689290714
  0
ARC
  5
180D
330
1E
100
AcDbEntity
  8
OBJECT
100
AcDbCircle
 10
-8.315079901116476
 20
4.584951824520061
 30
0.0
 40
13.09280273437504
100
AcDbArc
 50
3.879241113695971
 51
4.743508514523771
  0
ARC
  5
180E
330
1E
100
AcDbEntity
  8
OBJECT
100
AcDbCircle
 10
-8.354557654433691
 20
4.585991893902786
 30
0.0
 40
13.15186523437504
100
AcDbArc
 50
3.088538689316718
 51
3.776955334213929
  0
LINE
  5
180F
330
1E
100
AcDbEntity
  8
OBJECT
100
AcDbLine
 10
4.749099360913007
 20
5.470729743651276
 30
0.0
 11
4.747725337284279
 21
5.470729869443488
 31
0.0
  0
ARC
  5
1810
330
1E
100
AcDbEntity
  8
OBJECT
100
AcDbCircle
 10
4.749097558501077
 20
5.451042243733894
 30
0.0
 40
0.0196875
100
AcDbArc
 50
3.776955334174973
 51
89.99475450945949
  0
ARC
  5
1811
330
1E
100
AcDbEntity
  8
OBJECT
100
AcDbCircle
 10
4.731359432556971
 20
5.687293868667978
 30
0.0
 40
0.0196875
100
AcDbArc
 50
274.4249547017595
 51
4.810638030725752
  0
ARC
  5
1812
330
1E
100
AcDbEntity
  8
OBJECT
100
AcDbCircle
 10
-8.315079901116476
 20
4.584951824520061
 30
0.0
 40
13.09280273437504
100
AcDbArc
 50
5.608343060427284
 51
6.475154660236572
  0
ARC
  5
1813
330
1E
100
AcDbEntity
  8
OBJECT
100
AcDbCircle
 10
-8.354557654433691
 20
4.585991893902786
 30
0.0
 40
13.15186523437504
100
AcDbArc
 50
4.810638030764707
 51
5.500612854120603
  0
LINE
  5
1814
330
1E
100
AcDbEntity
  8
OBJECT
100
AcDbLine
 10
4.717150477239485
 20
5.864482670256251
 30
0.0
 11
4.715049943361165
 21
5.864482862561629
 31
0.0
  0
ARC
  5
1815
330
1E
100
AcDbEntity
  8
OBJECT
100
AcDbCircle
 10
4.717148674827669
 20
5.844795170338869
 30
0.0
 40
0.0196875
100
AcDbArc
 50
5.500612854172612
 51
89.99475450945949
  0
ARC
  5
1816
330
1E
100
AcDbEntity
  8
OBJECT
100
AcDbCircle
 10
4.692238922729913
 20
6.081047451843545
 30
0.0
 40
0.0196875
100
AcDbArc
 50
275.7222642395684
 51
6.537110965986215
  0
ARC
  5
1817
330
1E
100
AcDbEntity
  8
OBJECT
100
AcDbCircle
 10
-8.315079901116476
 20
4.584951824520061
 30
0.0
 40
13.09280273437504
100
AcDbArc
 50
7.342591212928314
 51
8.212794339007242
  0
ARC
  5
1818
330
1E
100
AcDbEntity
  8
OBJECT
100
AcDbCircle
 10
-8.354557654433691
 20
4.585991893902786
 30
0.0
 40
13.15186523437504
100
AcDbArc
 50
6.537110965947334
 51
7.229285123154856
  0
LINE
  5
1819
330
1E
100
AcDbEntity
  8
OBJECT
100
AcDbLine
 10
4.673227782192086
 20
6.258236693076099
 30
0.0
 11
4.67035810885072
 21
6.258236955799105
 31
0.0
  0
ARC
  5
181A
330
1E
100
AcDbEntity
  8
OBJECT
100
AcDbCircle
 10
4.673225979780156
 20
6.238549193158718
 30
0.0
 40
0.0196875
100
AcDbArc
 50
7.229285123182311
 51
89.99475450945949
  0
ARC
  5
181B
330
1E
100
AcDbEntity
  8
OBJECT
100
AcDbCircle
 10
4.641075762632269
 20
6.474802137535874
 30
0.0
 40
0.0196875
100
AcDbArc
 50
276.9198236000066
 51
8.269573162267922
  0
ARC
  5
181C
330
1E
100
AcDbEntity
  8
OBJECT
100
AcDbCircle
 10
4.61720774154655
 20
6.632304323339297
 30
0.0
 40
0.0196875
100
AcDbArc
 50
8.964606185367566
 51
89.99475450948557
  0
ARC
  5
181D
330
1E
100
AcDbEntity
  8
OBJECT
100
AcDbCircle
 10
-8.354557654433691
 20
4.585991893902786
 30
0.0
 40
13.15186523437504
100
AcDbArc
 50
8.269573162240137
 51
8.964606185354739
  0
LINE
  5
181E
330
1E
100
AcDbEntity
  8
OBJECT
100
AcDbLine
 10
4.61720954395848
 20
6.651991823256679
 30
0.0
 11
4.613525116069169
 21
6.651992160570983
 31
0.0
  0
ARC
  5
181F
330
1E
100
AcDbEntity
  8
OBJECT
100
AcDbCircle
 10
-8.315079901116476
 20
4.584951824520061
 30
0.0
 40
13.09280273437504
100
AcDbArc
 50
9.083637592357424
 51
10.59460943606734
  0
ARC
  5
1821
330
1E
100
AcDbEntity
  8
OBJECT
100
AcDbCircle
 10
14.32677568086039
 20
4.584951824520061
 30
0.0
 40
13.03480273437495
100
AcDbArc
 50
180.0
 51
190.5946094360673
  0
ARC
  5
1822
330
1E
100
AcDbEntity
  8
OBJECT
100
AcDbCircle
 10
14.32677574776828
 20
4.584951824520061
 30
0.0
 40
12.98649023437504
100
AcDbArc
 50
180.0
 51
190.5946094360673
  0
ARC
  5
1825
330
1E
100
AcDbEntity
  8
OBJECT
100
AcDbCircle
 10
1.237825460665291
 20
4.270113675595524
 30
0.0
 40
0.0196875
100
AcDbArc
 50
91.52830322669142
 51
181.3692334489578
  0
ARC
  5
1826
330
1E
100
AcDbEntity
  8
OBJECT
100
AcDbCircle
 10
14.32677574776828
 20
4.584951824520061
 30
0.0
 40
13.09280273437504
100
AcDbArc
 50
182.1536764655753
 51
183.0162366979399
  0
ARC
  5
1827
330
1E
100
AcDbEntity
  8
OBJECT
100
AcDbCircle
 10
14.32677574776828
 20
4.584951824520061
 30
0.0
 40
13.09280273437504
100
AcDbArc
 50
180.4314887928856
 51
181.2917570708697
  0
LINE
  5
1828
330
1E
100
AcDbEntity
  8
OBJECT
100
AcDbLine
 10
1.242533865668221
 20
4.092925743793415
 30
0.0
 11
1.24322142506223
 21
4.092925680846377
 31
0.0
  0
ARC
  5
1829
330
1E
100
AcDbEntity
  8
OBJECT
100
AcDbCircle
 10
1.242535668080151
 20
4.112613243711706
 30
0.0
 40
0.0196875
100
AcDbArc
 50
182.0567202389583
 51
269.9947545094855
  0
ARC
  5
182A
330
1E
100
AcDbEntity
  8
OBJECT
100
AcDbCircle
 10
14.36625350108549
 20
4.583911755137336
 30
0.0
 40
13.15186523437504
100
AcDbArc
 50
181.3692334489709
 51
182.0567202389712
  0
ARC
  5
182B
330
1E
100
AcDbEntity
  8
OBJECT
100
AcDbCircle
 10
1.253150673204615
 20
3.876362270906241
 30
0.0
 40
0.0196875
100
AcDbArc
 50
93.02727211609694
 51
183.0885386892907
  0
ARC
  5
182C
330
1E
100
AcDbEntity
  8
OBJECT
100
AcDbCircle
 10
14.32677574776828
 20
4.584951824520061
 30
0.0
 40
13.09280273437504
100
AcDbArc
 50
183.8792411136959
 51
184.7435085145237
  0
ARC
  5
182D
330
1E
100
AcDbEntity
  8
OBJECT
100
AcDbCircle
 10
14.36625350108549
 20
4.583911755137336
 30
0.0
 40
13.15186523437504
100
AcDbArc
 50
183.0885386893167
 51
183.7769553342139
  0
LINE
  5
182E
330
1E
100
AcDbEntity
  8
OBJECT
100
AcDbLine
 10
1.262596485738797
 20
3.699173905388846
 30
0.0
 11
1.263970509367524
 21
3.699173779596634
 31
0.0
  0
ARC
  5
182F
330
1E
100
AcDbEntity
  8
OBJECT
100
AcDbCircle
 10
1.262598288150726
 20
3.718861405306228
 30
0.0
 40
0.0196875
100
AcDbArc
 50
183.7769553341749
 51
269.9947545094594
  0
ARC
  5
1830
330
1E
100
AcDbEntity
  8
OBJECT
100
AcDbCircle
 10
1.280336414094833
 20
3.482609780372143
 30
0.0
 40
0.0196875
100
AcDbArc
 50
94.42495470175956
 51
184.8106380307257
  0
ARC
  5
1831
330
1E
100
AcDbEntity
  8
OBJECT
100
AcDbCircle
 10
14.32677574776828
 20
4.584951824520061
 30
0.0
 40
13.09280273437504
100
AcDbArc
 50
185.6083430604272
 51
186.4751546602365
  0
ARC
  5
1832
330
1E
100
AcDbEntity
  8
OBJECT
100
AcDbCircle
 10
14.36625350108549
 20
4.583911755137336
 30
0.0
 40
13.15186523437504
100
AcDbArc
 50
184.8106380307647
 51
185.5006128541205
  0
LINE
  5
1833
330
1E
100
AcDbEntity
  8
OBJECT
100
AcDbLine
 10
1.294545369412318
 20
3.305420978783871
 30
0.0
 11
1.296645903290638
 21
3.305420786478492
 31
0.0
  0
ARC
  5
1834
330
1E
100
AcDbEntity
  8
OBJECT
100
AcDbCircle
 10
1.294547171824135
 20
3.325108478701253
 30
0.0
 40
0.0196875
100
AcDbArc
 50
185.5006128541725
 51
269.9947545094594
  0
ARC
  5
1835
330
1E
100
AcDbEntity
  8
OBJECT
100
AcDbCircle
 10
1.31945692392189
 20
3.088856197196577
 30
0.0
 40
0.0196875
100
AcDbArc
 50
95.72226423956845
 51
186.5371109659862
  0
ARC
  5
1836
330
1E
100
AcDbEntity
  8
OBJECT
100
AcDbCircle
 10
14.32677574776828
 20
4.584951824520061
 30
0.0
 40
13.09280273437504
100
AcDbArc
 50
187.3425912129283
 51
188.2127943390072
  0
ARC
  5
1837
330
1E
100
AcDbEntity
  8
OBJECT
100
AcDbCircle
 10
14.36625350108549
 20
4.583911755137336
 30
0.0
 40
13.15186523437504
100
AcDbArc
 50
186.5371109659473
 51
187.2292851231548
  0
LINE
  5
1838
330
1E
100
AcDbEntity
  8
OBJECT
100
AcDbLine
 10
1.338468064459718
 20
2.911666955964022
 30
0.0
 11
1.341337737801083
 21
2.911666693241016
 31
0.0
  0
ARC
  5
1839
330
1E
100
AcDbEntity
  8
OBJECT
100
AcDbCircle
 10
1.338469866871648
 20
2.931354455881404
 30
0.0
 40
0.0196875
100
AcDbArc
 50
187.2292851231823
 51
269.9947545094594
  0
ARC
  5
183A
330
1E
100
AcDbEntity
  8
OBJECT
100
AcDbCircle
 10
1.370620084019535
 20
2.695101511504248
 30
0.0
 40
0.0196875
100
AcDbArc
 50
96.91982360000668
 51
188.2695731622679
  0
ARC
  5
183B
330
1E
100
AcDbEntity
  8
OBJECT
100
AcDbCircle
 10
14.32677574776828
 20
4.584951824520061
 30
0.0
 40
13.09280273437504
100
AcDbArc
 50
189.0836375923574
 51
190.5946094360673
  0
ARC
  5
183C
330
1E
100
AcDbEntity
  8
OBJECT
100
AcDbCircle
 10
1.394488105105253
 20
2.537599325700824
 30
0.0
 40
0.0196875
100
AcDbArc
 50
188.9646061853675
 51
269.9947545094855
  0
ARC
  5
183D
330
1E
100
AcDbEntity
  8
OBJECT
100
AcDbCircle
 10
14.36625350108549
 20
4.583911755137336
 30
0.0
 40
13.15186523437504
100
AcDbArc
 50
188.2695731622401
 51
188.9646061853547
  0
LINE
  5
183E
330
1E
100
AcDbEntity
  8
OBJECT
100
AcDbLine
 10
1.394486302693323
 20
2.517911825783443
 30
0.0
 11
1.398170730582634
 21
2.517911488469138
 31
0.0
  0
ARC
  5
183F
330
1E
100
AcDbEntity
  8
OBJECT
100
AcDbCircle
 10
3.005848013393276
 20
7.537440711370066
 30
0.0
 40
5.749176386849635
100
AcDbArc
 50
257.6088217061802
 51
282.3911782938197
  0
ARC
  5
1840
330
1E
100
AcDbEntity
  8
OBJECT
100
AcDbCircle
 10
3.005848013393276
 20
7.537440711370066
 30
0.0
 40
5.700863886849635
100
AcDbArc
 50
257.6088217061802
 51
282.3911782938197
  0
ARC
  5
1841
330
1E
100
AcDbEntity
  8
OBJECT
100
AcDbCircle
 10
3.005848013393276
 20
7.537440711370066
 30
0.0
 40
5.807176386849635
100
AcDbArc
 50
257.6088217061802
 51
282.3911782938197
  0
ARC
  5
1842
330
1E
100
AcDbEntity
  8
OBJECT
100
AcDbCircle
 10
1.844208190841797
 20
2.250118310711144
 30
0.0
 40
0.33575
100
AcDbArc
 50
190.5946094360651
 51
257.6088217061802
  0
ARC
  5
1843
330
1E
100
AcDbEntity
  8
OBJECT
100
AcDbCircle
 10
1.844208190841797
 20
2.250118310711144
 30
0.0
 40
0.39375
100
AcDbArc
 50
190.5946094360651
 51
257.6088217061802
  0
ARC
  5
1844
330
1E
100
AcDbEntity
  8
OBJECT
100
AcDbCircle
 10
1.844208190841797
 20
2.250118310711144
 30
0.0
 40
0.2874375
100
AcDbArc
 50
190.5946094360651
 51
257.6088217061802
  0
ARC
  5
1845
330
1E
100
AcDbEntity
  8
OBJECT
100
AcDbCircle
 10
4.167487835944754
 20
2.250118310711144
 30
0.0
 40
0.33575
100
AcDbArc
 50
282.3911782938197
 51
349.4053905639348
  0
ARC
  5
1846
330
1E
100
AcDbEntity
  8
OBJECT
100
AcDbCircle
 10
4.167487835944754
 20
2.250118310711144
 30
0.0
 40
0.2874375
100
AcDbArc
 50
282.3911782938197
 51
349.4053905639348
  0
ARC
  5
1847
330
1E
100
AcDbEntity
  8
OBJECT
100
AcDbCircle
 10
4.167487835944754
 20
2.250118310711144
 30
0.0
 40
0.39375
100
AcDbArc
 50
282.3911782938197
 51
349.4053905639348
  0
ARC
  5
1848
330
1E
100
AcDbEntity
  8
OBJECT
100
AcDbCircle
 10
-8.315079720981728
 20
4.584951824520061
 30
0.0
 40
13.03480273437495
100
AcDbArc
 50
349.4053905639327
 51
0.0
  0
ARC
  5
1849
330
1E
100
AcDbEntity
  8
OBJECT
100
AcDbCircle
 10
-8.315079720981728
 20
4.584951824520061
 30
0.0
 40
12.98649023437494
100
AcDbArc
 50
349.4053905639327
 51
0.0
  0
ARC
  5
184A
330
1E
100
AcDbEntity
  8
OBJECT
100
AcDbCircle
 10
-8.315079901116476
 20
4.584951824520061
 30
0.0
 40
13.09280273437504
100
AcDbArc
 50
349.4053905639326
 51
350.9163624076425
  0
LINE
  5
184B
330
1E
100
AcDbEntity
  8
OBJECT
100
AcDbLine
 10
4.61720954395848
 20
2.517911825783443
 30
0.0
 11
4.613525116069169
 21
2.517911488469138
 31
0.0
  0
ARC
  5
184C
330
1E
100
AcDbEntity
  8
OBJECT
100
AcDbCircle
 10
-8.354557654433691
 20
4.583911755137336
 30
0.0
 40
13.15186523437504
100
AcDbArc
 50
351.0353938146452
 51
351.7304268377598
  0
ARC
  5
184D
330
1E
100
AcDbEntity
  8
OBJECT
100
AcDbCircle
 10
4.61720774154655
 20
2.537599325700824
 30
0.0
 40
0.0196875
100
AcDbArc
 50
270.0052454905145
 51
351.0353938146324
  0
ARC
  5
184E
330
1E
100
AcDbEntity
  8
OBJECT
100
AcDbCircle
 10
4.641075762632269
 20
2.695101511504248
 30
0.0
 40
0.0196875
100
AcDbArc
 50
351.730426837732
 51
83.08017639999334
  0
ARC
  5
184F
330
1E
100
AcDbEntity
  8
OBJECT
100
AcDbCircle
 10
4.673225979780156
 20
2.931354455881404
 30
0.0
 40
0.0196875
100
AcDbArc
 50
270.0052454905405
 51
352.7707148768176
  0
LINE
  5
1850
330
1E
100
AcDbEntity
  8
OBJECT
100
AcDbLine
 10
4.673227782192086
 20
2.911666955964022
 30
0.0
 11
4.67035810885072
 21
2.911666693241016
 31
0.0
  0
ARC
  5
1851
330
1E
100
AcDbEntity
  8
OBJECT
100
AcDbCircle
 10
-8.354557654433691
 20
4.583911755137336
 30
0.0
 40
13.15186523437504
100
AcDbArc
 50
352.7707148768451
 51
353.4628890340526
  0
ARC
  5
1852
330
1E
100
AcDbEntity
  8
OBJECT
100
AcDbCircle
 10
-8.315079901116476
 20
4.584951824520061
 30
0.0
 40
13.09280273437504
100
AcDbArc
 50
351.7872056609927
 51
352.6574087870717
  0
ARC
  5
1853
330
1E
100
AcDbEntity
  8
OBJECT
100
AcDbCircle
 10
4.692238922729913
 20
3.088856197196577
 30
0.0
 40
0.0196875
100
AcDbArc
 50
353.4628890340137
 51
84.27773576043158
  0
ARC
  5
1854
330
1E
100
AcDbEntity
  8
OBJECT
100
AcDbCircle
 10
4.717148674827669
 20
3.325108478701253
 30
0.0
 40
0.0196875
100
AcDbArc
 50
270.0052454905405
 51
354.4993871458273
  0
LINE
  5
1855
330
1E
100
AcDbEntity
  8
OBJECT
100
AcDbLine
 10
4.717150477239485
 20
3.305420978783871
 30
0.0
 11
4.715049943361165
 21
3.305420786478492
 31
0.0
  0
ARC
  5
1856
330
1E
100
AcDbEntity
  8
OBJECT
100
AcDbCircle
 10
-8.354557654433691
 20
4.583911755137336
 30
0.0
 40
13.15186523437504
100
AcDbArc
 50
354.4993871458793
 51
355.1893619692352
  0
ARC
  5
1857
330
1E
100
AcDbEntity
  8
OBJECT
100
AcDbCircle
 10
-8.315079901116476
 20
4.584951824520061
 30
0.0
 40
13.09280273437504
100
AcDbArc
 50
353.5248453397634
 51
354.3916569395727
  0
ARC
  5
1858
330
1E
100
AcDbEntity
  8
OBJECT
100
AcDbCircle
 10
4.731359432556971
 20
3.482609780372143
 30
0.0
 40
0.0196875
100
AcDbArc
 50
355.1893619692742
 51
85.57504529824047
  0
ARC
  5
1859
330
1E
100
AcDbEntity
  8
OBJECT
100
AcDbCircle
 10
4.749097558501077
 20
3.718861405306228
 30
0.0
 40
0.0196875
100
AcDbArc
 50
270.0052454905405
 51
356.2230446658249
  0
LINE
  5
185A
330
1E
100
AcDbEntity
  8
OBJECT
100
AcDbLine
 10
4.749099360913007
 20
3.699173905388846
 30
0.0
 11
4.747725337284279
 21
3.699173779596634
 31
0.0
  0
ARC
  5
185B
330
1E
100
AcDbEntity
  8
OBJECT
100
AcDbCircle
 10
-8.354557654433691
 20
4.583911755137336
 30
0.0
 40
13.15186523437504
100
AcDbArc
 50
356.223044665786
 51
356.9114613106833
  0
ARC
  5
185C
330
1E
100
AcDbEntity
  8
OBJECT
100
AcDbCircle
 10
-8.315079901116476
 20
4.584951824520061
 30
0.0
 40
13.09280273437504
100
AcDbArc
 50
355.2564914854762
 51
356.120758886304
  0
ARC
  5
185D
330
1E
100
AcDbEntity
  8
OBJECT
100
AcDbCircle
 10
4.758545173447188
 20
3.876362270906241
 30
0.0
 40
0.0196875
100
AcDbArc
 50
356.9114613107092
 51
86.97272788390307
  0
ARC
  5
185E
330
1E
100
AcDbEntity
  8
OBJECT
100
AcDbCircle
 10
-8.354557654433691
 20
4.583911755137336
 30
0.0
 40
13.15186523437504
100
AcDbArc
 50
357.9432797610286
 51
358.630766551029
  0
ARC
  5
185F
330
1E
100
AcDbEntity
  8
OBJECT
100
AcDbCircle
 10
4.769160178571652
 20
4.112613243711706
 30
0.0
 40
0.0196875
100
AcDbArc
 50
270.0052454905145
 51
357.9432797610416
  0
LINE
  5
1860
330
1E
100
AcDbEntity
  8
OBJECT
100
AcDbLine
 10
4.769161980983582
 20
4.092925743793415
 30
0.0
 11
4.768474421589573
 21
4.092925680846377
 31
0.0
  0
ARC
  5
1861
330
1E
100
AcDbEntity
  8
OBJECT
100
AcDbCircle
 10
-8.315079901116476
 20
4.584951824520061
 30
0.0
 40
13.09280273437504
100
AcDbArc
 50
356.98376330206
 51
357.8463235344246
  0
ARC
  5
1862
330
1E
100
AcDbEntity
  8
OBJECT
100
AcDbCircle
 10
4.773870385986512
 20
4.270113675595524
 30
0.0
 40
0.0196875
100
AcDbArc
 50
358.6307665510421
 51
88.4716967733086
  0
ARC
  5
1863
330
1E
100
AcDbEntity
  8
OBJECT
100
AcDbCircle
 10
-8.315079901116476
 20
4.584951824520061
 30
0.0
 40
13.09280273437504
100
AcDbArc
 50
358.7082429291302
 51
359.5685112071143
  0
LINE
  5
1889
330
1E
100
AcDbEntity
  8
OBJECT
100
AcDbLine
 10
2.913347991822462
 20
6.755951786312698
 30
0.0
 11
3.005847999236863
 21
6.99095178631237
 31
0.0
  0
LINE
  5
188A
330
1E
100
AcDbEntity
  8
OBJECT
100
AcDbLine
 10
3.005847999236863
 20
6.99095178631237
 30
0.0
 11
3.098347991822408
 21
6.755951786312698
 31
0.0
  0
LINE
  5
188C
330
1E
100
AcDbEntity
  8
CENTER
100
AcDbLine
 10
8.109750142243697
 20
4.58495182452097
 30
0.0
 11
11.69240783687872
 21
4.584951824520061
 31
0.0
  0
ARC
  5
188D
330
1E
100
AcDbEntity
  8
OBJECT
100
AcDbCircle
 10
8.129680988793793
 20
4.506039650787528
 30
0.0
 40
0.0196875
100
AcDbArc
 50
180.3488343278891
 51
270.0731431917393
  0
ARC
  5
188E
330
1E
100
AcDbEntity
  8
OBJECT
100
AcDbCircle
 10
8.129666569498581
 20
4.663539650127489
 30
0.0
 40
0.0196875
100
AcDbArc
 50
90.00524549051444
 51
179.6616566531859
  0
ARC
  5
188F
330
1E
100
AcDbEntity
  8
OBJECT
100
AcDbCircle
 10
21.26161533549363
 20
4.585991893902786
 30
0.0
 40
13.15186523437504
100
AcDbArc
 50
179.6616566531729
 51
180.3488343279021
  0
ARC
  5
1890
330
1E
100
AcDbEntity
  8
OBJECT
100
AcDbCircle
 10
8.133187295073426
 20
4.899789973444597
 30
0.0
 40
0.0196875
100
AcDbArc
 50
178.6307665510421
 51
268.4716967733086
  0
ARC
  5
1891
330
1E
100
AcDbEntity
  8
OBJECT
100
AcDbCircle
 10
21.22213758217641
 20
4.584951824520061
 30
0.0
 40
13.09280273437504
100
AcDbArc
 50
176.98376330206
 51
177.8463235344247
  0
ARC
  5
1892
330
1E
100
AcDbEntity
  8
OBJECT
100
AcDbCircle
 10
21.22213758217641
 20
4.584951824520061
 30
0.0
 40
13.09280273437504
100
AcDbArc
 50
178.7082429291302
 51
179.5699305506784
  0
LINE
  5
1893
330
1E
100
AcDbEntity
  8
OBJECT
100
AcDbLine
 10
8.137895700076356
 20
5.076977905246707
 30
0.0
 11
8.138583259470365
 21
5.076977968193745
 31
0.0
  0
ARC
  5
1894
330
1E
100
AcDbEntity
  8
OBJECT
100
AcDbCircle
 10
8.137897502488286
 20
5.057290405328416
 30
0.0
 40
0.0196875
100
AcDbArc
 50
90.00524549051444
 51
177.9432797610416
  0
ARC
  5
1895
330
1E
100
AcDbEntity
  8
OBJECT
100
AcDbCircle
 10
21.26161533549363
 20
4.585991893902786
 30
0.0
 40
13.15186523437504
100
AcDbArc
 50
177.9432797610287
 51
178.6307665510291
  0
ARC
  5
1896
330
1E
100
AcDbEntity
  8
OBJECT
100
AcDbCircle
 10
8.14851250761275
 20
5.29354137813388
 30
0.0
 40
0.0196875
100
AcDbArc
 50
176.9114613107092
 51
266.972727883903
  0
ARC
  5
1897
330
1E
100
AcDbEntity
  8
OBJECT
100
AcDbCircle
 10
21.22213758217641
 20
4.584951824520061
 30
0.0
 40
13.09280273437504
100
AcDbArc
 50
175.2564914854762
 51
176.120758886304
  0
ARC
  5
1898
330
1E
100
AcDbEntity
  8
OBJECT
100
AcDbCircle
 10
21.26161533549363
 20
4.585991893902786
 30
0.0
 40
13.15186523437504
100
AcDbArc
 50
176.223044665786
 51
176.9114613106832
  0
LINE
  5
1899
330
1E
100
AcDbEntity
  8
OBJECT
100
AcDbLine
 10
8.157958320146931
 20
5.470729743651276
 30
0.0
 11
8.159332343775659
 21
5.470729869443488
 31
0.0
  0
ARC
  5
189A
330
1E
100
AcDbEntity
  8
OBJECT
100
AcDbCircle
 10
8.157960122558861
 20
5.451042243733894
 30
0.0
 40
0.0196875
100
AcDbArc
 50
90.00524549054052
 51
176.223044665825
  0
ARC
  5
189B
330
1E
100
AcDbEntity
  8
OBJECT
100
AcDbCircle
 10
8.175698248502968
 20
5.687293868667978
 30
0.0
 40
0.0196875
100
AcDbArc
 50
175.1893619692742
 51
265.5750452982404
  0
ARC
  5
189C
330
1E
100
AcDbEntity
  8
OBJECT
100
AcDbCircle
 10
21.22213758217641
 20
4.584951824520061
 30
0.0
 40
13.09280273437504
100
AcDbArc
 50
173.5248453397634
 51
174.3916569395727
  0
ARC
  5
189D
330
1E
100
AcDbEntity
  8
OBJECT
100
AcDbCircle
 10
21.26161533549363
 20
4.585991893902786
 30
0.0
 40
13.15186523437504
100
AcDbArc
 50
174.4993871458794
 51
175.1893619692353
  0
LINE
  5
189E
330
1E
100
AcDbEntity
  8
OBJECT
100
AcDbLine
 10
8.189907203820453
 20
5.864482670256251
 30
0.0
 11
8.192007737698773
 21
5.864482862561629
 31
0.0
  0
ARC
  5
189F
330
1E
100
AcDbEntity
  8
OBJECT
100
AcDbCircle
 10
8.189909006232269
 20
5.844795170338869
 30
0.0
 40
0.0196875
100
AcDbArc
 50
90.00524549054052
 51
174.4993871458274
  0
ARC
  5
18A0
330
1E
100
AcDbEntity
  8
OBJECT
100
AcDbCircle
 10
8.214818758330025
 20
6.081047451843545
 30
0.0
 40
0.0196875
100
AcDbArc
 50
173.4628890340137
 51
264.2777357604315
  0
ARC
  5
18A1
330
1E
100
AcDbEntity
  8
OBJECT
100
AcDbCircle
 10
21.22213758217641
 20
4.584951824520061
 30
0.0
 40
13.09280273437504
100
AcDbArc
 50
171.7872056609927
 51
172.6574087870717
  0
ARC
  5
18A2
330
1E
100
AcDbEntity
  8
OBJECT
100
AcDbCircle
 10
21.26161533549363
 20
4.585991893902786
 30
0.0
 40
13.15186523437504
100
AcDbArc
 50
172.7707148768451
 51
173.4628890340526
  0
LINE
  5
18A3
330
1E
100
AcDbEntity
  8
OBJECT
100
AcDbLine
 10
8.233829898867853
 20
6.258236693076099
 30
0.0
 11
8.236699572209218
 21
6.258236955799105
 31
0.0
  0
ARC
  5
18A4
330
1E
100
AcDbEntity
  8
OBJECT
100
AcDbCircle
 10
8.233831701279783
 20
6.238549193158718
 30
0.0
 40
0.0196875
100
AcDbArc
 50
90.00524549054052
 51
172.7707148768176
  0
ARC
  5
18A5
330
1E
100
AcDbEntity
  8
OBJECT
100
AcDbCircle
 10
8.265981918427669
 20
6.474802137535874
 30
0.0
 40
0.0196875
100
AcDbArc
 50
171.730426837732
 51
263.0801763999933
  0
ARC
  5
18A6
330
1E
100
AcDbEntity
  8
OBJECT
100
AcDbCircle
 10
8.289849939513388
 20
6.632304323339297
 30
0.0
 40
0.0196875
100
AcDbArc
 50
90.00524549051444
 51
171.0353938146324
  0
ARC
  5
18A7
330
1E
100
AcDbEntity
  8
OBJECT
100
AcDbCircle
 10
21.26161533549363
 20
4.585991893902786
 30
0.0
 40
13.15186523437504
100
AcDbArc
 50
171.0353938146452
 51
171.7304268377598
  0
LINE
  5
18A8
330
1E
100
AcDbEntity
  8
OBJECT
100
AcDbLine
 10
8.289848137101458
 20
6.651991823256679
 30
0.0
 11
8.293532564990769
 21
6.651992160570983
 31
0.0
  0
ARC
  5
18A9
330
1E
100
AcDbEntity
  8
OBJECT
100
AcDbCircle
 10
21.22213758217641
 20
4.584951824520061
 30
0.0
 40
13.09280273437504
100
AcDbArc
 50
169.4053905639326
 51
170.9163624076425
  0
ARC
  5
18AA
330
1E
100
AcDbEntity
  8
OBJECT
100
AcDbCircle
 10
11.67273852667428
 20
4.506039650787528
 30
0.0
 40
0.0196875
100
AcDbArc
 50
269.9268568082606
 51
359.6511656721109
  0
ARC
  5
18AB
330
1E
100
AcDbEntity
  8
OBJECT
100
AcDbCircle
 10
11.64445939290921
 20
5.451042243733894
 30
0.0
 40
0.0196875
100
AcDbArc
 50
3.776955334174973
 51
89.99475450945949
  0
LINE
  5
18AC
330
1E
100
AcDbEntity
  8
OBJECT
100
AcDbLine
 10
11.64446119532114
 20
5.470729743651276
 30
0.0
 11
11.64308717169241
 21
5.470729869443488
 31
0.0
  0
ARC
  5
18AD
330
1E
100
AcDbEntity
  8
OBJECT
100
AcDbCircle
 10
-1.459195820025556
 20
4.585991893902786
 30
0.0
 40
13.15186523437504
100
AcDbArc
 50
3.088538689316718
 51
3.776955334213929
  0
ARC
  5
18AE
330
1E
100
AcDbEntity
  8
OBJECT
100
AcDbCircle
 10
11.65390700785532
 20
5.29354137813388
 30
0.0
 40
0.0196875
100
AcDbArc
 50
273.0272721160969
 51
3.088538689290714
  0
ARC
  5
18AF
330
1E
100
AcDbEntity
  8
OBJECT
100
AcDbCircle
 10
-1.459195820025556
 20
4.585991893902786
 30
0.0
 40
13.15186523437504
100
AcDbArc
 50
1.369233448970908
 51
2.05672023897132
  0
ARC
  5
18B0
330
1E
100
AcDbEntity
  8
OBJECT
100
AcDbCircle
 10
11.66452201297978
 20
5.057290405328416
 30
0.0
 40
0.0196875
100
AcDbArc
 50
2.056720238958343
 51
89.99475450948557
  0
LINE
  5
18B1
330
1E
100
AcDbEntity
  8
OBJECT
100
AcDbLine
 10
11.66452381539171
 20
5.076977905246707
 30
0.0
 11
11.6638362559977
 21
5.076977968193745
 31
0.0
  0
ARC
  5
18B2
330
1E
100
AcDbEntity
  8
OBJECT
100
AcDbCircle
 10
-1.419718066708341
 20
4.584951824520061
 30
0.0
 40
13.09280273437504
100
AcDbArc
 50
0.4300694493215386
 51
1.291757070869759
  0
ARC
  5
18B3
330
1E
100
AcDbEntity
  8
OBJECT
100
AcDbCircle
 10
-1.419718066708341
 20
4.584951824520061
 30
0.0
 40
13.09280273437504
100
AcDbArc
 50
2.1536764655753
 51
3.016236697939976
  0
ARC
  5
18B4
330
1E
100
AcDbEntity
  8
OBJECT
100
AcDbCircle
 10
11.66923222039464
 20
4.899789973444597
 30
0.0
 40
0.0196875
100
AcDbArc
 50
271.5283032266913
 51
1.369233448957881
  0
ARC
  5
18B5
330
1E
100
AcDbEntity
  8
OBJECT
100
AcDbCircle
 10
-1.459195820025556
 20
4.585991893902786
 30
0.0
 40
13.15186523437504
100
AcDbArc
 50
359.6511656720978
 51
0.3383433468270953
  0
ARC
  5
18B6
330
1E
100
AcDbEntity
  8
OBJECT
100
AcDbCircle
 10
11.67275294596949
 20
4.663539650127489
 30
0.0
 40
0.0196875
100
AcDbArc
 50
0.3383433468140678
 51
89.99475450948557
  0
LINE
  5
18B7
330
1E
100
AcDbEntity
  8
OBJECT
100
AcDbLine
 10
11.51257137836661
 20
6.651991823256679
 30
0.0
 11
11.5088869504773
 21
6.651992160570983
 31
0.0
  0
ARC
  5
18B8
330
1E
100
AcDbEntity
  8
OBJECT
100
AcDbCircle
 10
-1.459195820025556
 20
4.585991893902786
 30
0.0
 40
13.15186523437504
100
AcDbArc
 50
8.269573162240137
 51
8.964606185354739
  0
ARC
  5
18B9
330
1E
100
AcDbEntity
  8
OBJECT
100
AcDbCircle
 10
11.51256957595468
 20
6.632304323339297
 30
0.0
 40
0.0196875
100
AcDbArc
 50
8.964606185367566
 51
89.99475450948557
  0
ARC
  5
18BA
330
1E
100
AcDbEntity
  8
OBJECT
100
AcDbCircle
 10
11.5364375970404
 20
6.474802137535874
 30
0.0
 40
0.0196875
100
AcDbArc
 50
276.9198236000066
 51
8.269573162267922
  0
ARC
  5
18BB
330
1E
100
AcDbEntity
  8
OBJECT
100
AcDbCircle
 10
11.56858781418829
 20
6.238549193158718
 30
0.0
 40
0.0196875
100
AcDbArc
 50
7.229285123182311
 51
89.99475450945949
  0
LINE
  5
18BC
330
1E
100
AcDbEntity
  8
OBJECT
100
AcDbLine
 10
11.56858961660022
 20
6.258236693076099
 30
0.0
 11
11.56571994325885
 21
6.258236955799105
 31
0.0
  0
ARC
  5
18BD
330
1E
100
AcDbEntity
  8
OBJECT
100
AcDbCircle
 10
-1.459195820025556
 20
4.585991893902786
 30
0.0
 40
13.15186523437504
100
AcDbArc
 50
6.537110965947334
 51
7.229285123154856
  0
ARC
  5
18BE
330
1E
100
AcDbEntity
  8
OBJECT
100
AcDbCircle
 10
-1.419718066708341
 20
4.584951824520061
 30
0.0
 40
13.09280273437504
100
AcDbArc
 50
7.342591212928314
 51
8.212794339007242
  0
ARC
  5
18BF
330
1E
100
AcDbEntity
  8
OBJECT
100
AcDbCircle
 10
11.58760075713804
 20
6.081047451843545
 30
0.0
 40
0.0196875
100
AcDbArc
 50
275.7222642395684
 51
6.537110965986215
  0
ARC
  5
18C0
330
1E
100
AcDbEntity
  8
OBJECT
100
AcDbCircle
 10
11.6125105092358
 20
5.844795170338869
 30
0.0
 40
0.0196875
100
AcDbArc
 50
5.500612854172612
 51
89.99475450945949
  0
LINE
  5
18C1
330
1E
100
AcDbEntity
  8
OBJECT
100
AcDbLine
 10
11.61251231164762
 20
5.864482670256251
 30
0.0
 11
11.6104117777693
 21
5.864482862561629
 31
0.0
  0
ARC
  5
18C2
330
1E
100
AcDbEntity
  8
OBJECT
100
AcDbCircle
 10
-1.459195820025556
 20
4.585991893902786
 30
0.0
 40
13.15186523437504
100
AcDbArc
 50
4.810638030764707
 51
5.500612854120603
  0
ARC
  5
18C3
330
1E
100
AcDbEntity
  8
OBJECT
100
AcDbCircle
 10
-1.419718066708341
 20
4.584951824520061
 30
0.0
 40
13.09280273437504
100
AcDbArc
 50
5.608343060427284
 51
6.475154660236572
  0
ARC
  5
18C4
330
1E
100
AcDbEntity
  8
OBJECT
100
AcDbCircle
 10
11.6267212669651
 20
5.687293868667978
 30
0.0
 40
0.0196875
100
AcDbArc
 50
274.4249547017595
 51
4.810638030725752
  0
ARC
  5
18C5
330
1E
100
AcDbEntity
  8
OBJECT
100
AcDbCircle
 10
-1.419718066708341
 20
4.584951824520061
 30
0.0
 40
13.09280273437504
100
AcDbArc
 50
3.879241113695971
 51
4.743508514523771
  0
ARC
  5
18C6
330
1E
100
AcDbEntity
  8
OBJECT
100
AcDbCircle
 10
-1.419718066708341
 20
4.584951824520061
 30
0.0
 40
13.09280273437504
100
AcDbArc
 50
9.083637592357424
 51
10.59460943606734
  0
ARC
  5
18C9
330
1E
100
AcDbEntity
  8
OBJECT
100
AcDbCircle
 10
9.901209847801411
 20
1.632462937670055
 30
0.0
 40
5.787176386849635
100
AcDbArc
 50
77.60882170618029
 51
102.3911782938197
  0
ARC
  5
18CA
330
1E
100
AcDbEntity
  8
OBJECT
100
AcDbCircle
 10
8.739570025249932
 20
6.919785338328978
 30
0.0
 40
0.37375
100
AcDbArc
 50
102.3911782938197
 51
169.4053905639348
  0
ARC
  5
18CB
330
1E
100
AcDbEntity
  8
OBJECT
100
AcDbCircle
 10
21.22213758217641
 20
4.584951824520061
 30
0.0
 40
13.07280273437504
100
AcDbArc
 50
169.4053905639326
 51
179.9999999999959
  0
ARC
  5
18CC
330
1E
100
AcDbEntity
  8
OBJECT
100
AcDbCircle
 10
11.06284967035289
 20
6.919785338328978
 30
0.0
 40
0.37375
100
AcDbArc
 50
10.59460943606513
 51
77.60882170618029
  0
ARC
  5
18CD
330
1E
100
AcDbEntity
  8
OBJECT
100
AcDbCircle
 10
-1.419718066708341
 20
4.584951824520061
 30
0.0
 40
13.07280273437504
100
AcDbArc
 50
0.0
 51
10.59460943606734
  0
ARC
  5
18DE
330
1E
100
AcDbEntity
  8
OBJECT
100
AcDbCircle
 10
9.901209847801411
 20
1.632462937670055
 30
0.0
 40
5.740176386849635
100
AcDbArc
 50
77.60882170618029
 51
102.3911782938197
  0
ARC
  5
18DF
330
1E
100
AcDbEntity
  8
OBJECT
100
AcDbCircle
 10
11.06284967035289
 20
6.919785338328978
 30
0.0
 40
0.32675
100
AcDbArc
 50
10.59460943606513
 51
77.60882170618029
  0
ARC
  5
18E0
330
1E
100
AcDbEntity
  8
OBJECT
100
AcDbCircle
 10
-1.419718066708341
 20
4.584951824520061
 30
0.0
 40
13.02580273437504
100
AcDbArc
 50
0.0
 51
10.59460943606734
  0
ARC
  5
18E1
330
1E
100
AcDbEntity
  8
OBJECT
100
AcDbCircle
 10
8.739570025249932
 20
6.919785338328978
 30
0.0
 40
0.32675
100
AcDbArc
 50
102.3911782938197
 51
169.4053905639348
  0
ARC
  5
18E2
330
1E
100
AcDbEntity
  8
OBJECT
100
AcDbCircle
 10
21.22213758217641
 20
4.584951824520061
 30
0.0
 40
13.02580273437504
100
AcDbArc
 50
169.4053905639326
 51
179.9999999999959
  0
ARC
  5
18E4
330
1E
100
AcDbEntity
  8
OBJECT
100
AcDbCircle
 10
9.901209847801411
 20
1.632462937670055
 30
0.0
 40
5.701176386849636
100
AcDbArc
 50
77.60882170618029
 51
102.3911782938197
  0
ARC
  5
18E5
330
1E
100
AcDbEntity
  8
OBJECT
100
AcDbCircle
 10
8.739570025249932
 20
6.919785338328978
 30
0.0
 40
0.28775
100
AcDbArc
 50
102.3911782938197
 51
169.4053905639348
  0
ARC
  5
18E6
330
1E
100
AcDbEntity
  8
OBJECT
100
AcDbCircle
 10
21.22213758217641
 20
4.584951824520061
 30
0.0
 40
12.98680273437504
100
AcDbArc
 50
169.4053905639326
 51
179.9999999999959
  0
ARC
  5
18E7
330
1E
100
AcDbEntity
  8
OBJECT
100
AcDbCircle
 10
11.06284967035289
 20
6.919785338328978
 30
0.0
 40
0.28775
100
AcDbArc
 50
10.59460943606513
 51
77.60882170618029
  0
ARC
  5
18E8
330
1E
100
AcDbEntity
  8
OBJECT
100
AcDbCircle
 10
-1.419718066708341
 20
4.584951824520061
 30
0.0
 40
12.98680273437504
100
AcDbArc
 50
0.0
 51
10.59460943606734
  0
ARC
  5
18F1
330
1E
100
AcDbEntity
  8
OBJECT
100
AcDbCircle
 10
9.901209847801411
 20
7.537440711370066
 30
0.0
 40
5.701176386849636
100
AcDbArc
 50
257.6088217061802
 51
282.3911782938197
  0
ARC
  5
18F2
330
1E
100
AcDbEntity
  8
OBJECT
100
AcDbCircle
 10
9.901209847801411
 20
7.537440711370066
 30
0.0
 40
5.740176386849635
100
AcDbArc
 50
257.6088217061802
 51
282.3911782938197
  0
ARC
  5
18F3
330
1E
100
AcDbEntity
  8
OBJECT
100
AcDbCircle
 10
9.901209847801411
 20
7.537440711370066
 30
0.0
 40
5.787176386849635
100
AcDbArc
 50
257.6088217061802
 51
282.3911782938197
  0
ARC
  5
18F4
330
1E
100
AcDbEntity
  8
OBJECT
100
AcDbCircle
 10
9.901209847801411
 20
7.537440711370066
 30
0.0
 40
5.807176386849635
100
AcDbArc
 50
257.6088217061802
 51
282.3911782938197
  0
ARC
  5
18F5
330
1E
100
AcDbEntity
  8
OBJECT
100
AcDbCircle
 10
8.739570025249932
 20
2.250118310711144
 30
0.0
 40
0.28775
100
AcDbArc
 50
190.5946094360651
 51
257.6088217061802
  0
ARC
  5
18F6
330
1E
100
AcDbEntity
  8
OBJECT
100
AcDbCircle
 10
8.739570025249932
 20
2.250118310711144
 30
0.0
 40
0.32675
100
AcDbArc
 50
190.5946094360651
 51
257.6088217061802
  0
ARC
  5
18F7
330
1E
100
AcDbEntity
  8
OBJECT
100
AcDbCircle
 10
8.739570025249932
 20
2.250118310711144
 30
0.0
 40
0.37375
100
AcDbArc
 50
190.5946094360651
 51
257.6088217061802
  0
ARC
  5
18F8
330
1E
100
AcDbEntity
  8
OBJECT
100
AcDbCircle
 10
8.739570025249932
 20
2.250118310711144
 30
0.0
 40
0.39375
100
AcDbArc
 50
190.5946094360651
 51
257.6088217061802
  0
ARC
  5
18F9
330
1E
100
AcDbEntity
  8
OBJECT
100
AcDbCircle
 10
21.22213758217641
 20
4.584951824520061
 30
0.0
 40
12.98680273437504
100
AcDbArc
 50
180.0000000000039
 51
190.5946094360673
  0
ARC
  5
18FA
330
1E
100
AcDbEntity
  8
OBJECT
100
AcDbCircle
 10
21.22213758217641
 20
4.584951824520061
 30
0.0
 40
13.02580273437504
100
AcDbArc
 50
180.0000000000039
 51
190.5946094360673
  0
ARC
  5
18FB
330
1E
100
AcDbEntity
  8
OBJECT
100
AcDbCircle
 10
21.22213758217641
 20
4.584951824520061
 30
0.0
 40
13.07280273437504
100
AcDbArc
 50
180.0000000000039
 51
190.5946094360673
  0
ARC
  5
18FC
330
1E
100
AcDbEntity
  8
OBJECT
100
AcDbCircle
 10
21.22213758217641
 20
4.584951824520061
 30
0.0
 40
13.09280273437504
100
AcDbArc
 50
189.0836375923574
 51
190.5946094360673
  0
LINE
  5
18FD
330
1E
100
AcDbEntity
  8
OBJECT
100
AcDbLine
 10
8.289848137101458
 20
2.517911825783443
 30
0.0
 11
8.293532564990769
 21
2.517911488469138
 31
0.0
  0
ARC
  5
18FE
330
1E
100
AcDbEntity
  8
OBJECT
100
AcDbCircle
 10
21.26161533549363
 20
4.583911755137336
 30
0.0
 40
13.15186523437504
100
AcDbArc
 50
188.2695731622401
 51
188.9646061853547
  0
ARC
  5
18FF
330
1E
100
AcDbEntity
  8
OBJECT
100
AcDbCircle
 10
8.289849939513388
 20
2.537599325700824
 30
0.0
 40
0.0196875
100
AcDbArc
 50
188.9646061853675
 51
269.9947545094855
  0
ARC
  5
1900
330
1E
100
AcDbEntity
  8
OBJECT
100
AcDbCircle
 10
8.265981918427669
 20
2.695101511504248
 30
0.0
 40
0.0196875
100
AcDbArc
 50
96.91982360000668
 51
188.2695731622679
  0
ARC
  5
1901
330
1E
100
AcDbEntity
  8
OBJECT
100
AcDbCircle
 10
8.233831701279783
 20
2.931354455881404
 30
0.0
 40
0.0196875
100
AcDbArc
 50
187.2292851231823
 51
269.9947545094594
  0
LINE
  5
1902
330
1E
100
AcDbEntity
  8
OBJECT
100
AcDbLine
 10
8.233829898867853
 20
2.911666955964022
 30
0.0
 11
8.236699572209218
 21
2.911666693241016
 31
0.0
  0
ARC
  5
1903
330
1E
100
AcDbEntity
  8
OBJECT
100
AcDbCircle
 10
21.26161533549363
 20
4.583911755137336
 30
0.0
 40
13.15186523437504
100
AcDbArc
 50
186.5371109659473
 51
187.2292851231548
  0
ARC
  5
1904
330
1E
100
AcDbEntity
  8
OBJECT
100
AcDbCircle
 10
21.22213758217641
 20
4.584951824520061
 30
0.0
 40
13.09280273437504
100
AcDbArc
 50
187.3425912129283
 51
188.2127943390072
  0
ARC
  5
1905
330
1E
100
AcDbEntity
  8
OBJECT
100
AcDbCircle
 10
8.214818758330025
 20
3.088856197196577
 30
0.0
 40
0.0196875
100
AcDbArc
 50
95.72226423956845
 51
186.5371109659862
  0
ARC
  5
1906
330
1E
100
AcDbEntity
  8
OBJECT
100
AcDbCircle
 10
8.189909006232269
 20
3.325108478701253
 30
0.0
 40
0.0196875
100
AcDbArc
 50
185.5006128541725
 51
269.9947545094594
  0
LINE
  5
1907
330
1E
100
AcDbEntity
  8
OBJECT
100
AcDbLine
 10
8.189907203820453
 20
3.305420978783871
 30
0.0
 11
8.192007737698773
 21
3.305420786478492
 31
0.0
  0
ARC
  5
1908
330
1E
100
AcDbEntity
  8
OBJECT
100
AcDbCircle
 10
21.26161533549363
 20
4.583911755137336
 30
0.0
 40
13.15186523437504
100
AcDbArc
 50
184.8106380307647
 51
185.5006128541205
  0
ARC
  5
1909
330
1E
100
AcDbEntity
  8
OBJECT
100
AcDbCircle
 10
21.22213758217641
 20
4.584951824520061
 30
0.0
 40
13.09280273437504
100
AcDbArc
 50
185.6083430604272
 51
186.4751546602365
  0
ARC
  5
190A
330
1E
100
AcDbEntity
  8
OBJECT
100
AcDbCircle
 10
8.175698248502968
 20
3.482609780372143
 30
0.0
 40
0.0196875
100
AcDbArc
 50
94.42495470175956
 51
184.8106380307257
  0
ARC
  5
190B
330
1E
100
AcDbEntity
  8
OBJECT
100
AcDbCircle
 10
8.157960122558861
 20
3.718861405306228
 30
0.0
 40
0.0196875
100
AcDbArc
 50
183.7769553341749
 51
269.9947545094594
  0
LINE
  5
190C
330
1E
100
AcDbEntity
  8
OBJECT
100
AcDbLine
 10
8.157958320146931
 20
3.699173905388846
 30
0.0
 11
8.159332343775659
 21
3.699173779596634
 31
0.0
  0
ARC
  5
190D
330
1E
100
AcDbEntity
  8
OBJECT
100
AcDbCircle
 10
21.26161533549363
 20
4.583911755137336
 30
0.0
 40
13.15186523437504
100
AcDbArc
 50
183.0885386893167
 51
183.7769553342139
  0
ARC
  5
190E
330
1E
100
AcDbEntity
  8
OBJECT
100
AcDbCircle
 10
21.22213758217641
 20
4.584951824520061
 30
0.0
 40
13.09280273437504
100
AcDbArc
 50
183.8792411136959
 51
184.7435085145237
  0
ARC
  5
190F
330
1E
100
AcDbEntity
  8
OBJECT
100
AcDbCircle
 10
8.14851250761275
 20
3.876362270906241
 30
0.0
 40
0.0196875
100
AcDbArc
 50
93.02727211609694
 51
183.0885386892907
  0
ARC
  5
1910
330
1E
100
AcDbEntity
  8
OBJECT
100
AcDbCircle
 10
21.26161533549363
 20
4.583911755137336
 30
0.0
 40
13.15186523437504
100
AcDbArc
 50
181.3692334489709
 51
182.0567202389712
  0
ARC
  5
1911
330
1E
100
AcDbEntity
  8
OBJECT
100
AcDbCircle
 10
8.137897502488286
 20
4.112613243711706
 30
0.0
 40
0.0196875
100
AcDbArc
 50
182.0567202389583
 51
269.9947545094855
  0
LINE
  5
1912
330
1E
100
AcDbEntity
  8
OBJECT
100
AcDbLine
 10
8.137895700076356
 20
4.092925743793415
 30
0.0
 11
8.138583259470365
 21
4.092925680846377
 31
0.0
  0
ARC
  5
1913
330
1E
100
AcDbEntity
  8
OBJECT
100
AcDbCircle
 10
21.22213758217641
 20
4.584951824520061
 30
0.0
 40
13.09280273437504
100
AcDbArc
 50
180.4300694493215
 51
181.2917570708697
  0
ARC
  5
1914
330
1E
100
AcDbEntity
  8
OBJECT
100
AcDbCircle
 10
21.22213758217641
 20
4.584951824520061
 30
0.0
 40
13.09280273437504
100
AcDbArc
 50
182.1536764655753
 51
183.0162366979399
  0
ARC
  5
1915
330
1E
100
AcDbEntity
  8
OBJECT
100
AcDbCircle
 10
8.133187295073426
 20
4.270113675595524
 30
0.0
 40
0.0196875
100
AcDbArc
 50
91.52830322669142
 51
181.3692334489578
  0
ARC
  5
1916
330
1E
100
AcDbEntity
  8
OBJECT
100
AcDbCircle
 10
8.129666569498581
 20
4.506363998912632
 30
0.0
 40
0.0196875
100
AcDbArc
 50
180.3383433468141
 51
269.9947545094855
  0
ARC
  5
1917
330
1E
100
AcDbEntity
  8
OBJECT
100
AcDbCircle
 10
-1.419718066708341
 20
4.584951824520061
 30
0.0
 40
12.98680273437504
100
AcDbArc
 50
349.4053905639326
 51
0.0
  0
ARC
  5
1918
330
1E
100
AcDbEntity
  8
OBJECT
100
AcDbCircle
 10
-1.419718066708341
 20
4.584951824520061
 30
0.0
 40
13.02580273437504
100
AcDbArc
 50
349.4053905639326
 51
0.0
  0
ARC
  5
1919
330
1E
100
AcDbEntity
  8
OBJECT
100
AcDbCircle
 10
-1.419718066708341
 20
4.584951824520061
 30
0.0
 40
13.07280273437504
100
AcDbArc
 50
349.4053905639326
 51
0.0
  0
ARC
  5
191A
330
1E
100
AcDbEntity
  8
OBJECT
100
AcDbCircle
 10
-1.419718066708341
 20
4.584951824520061
 30
0.0
 40
13.09280273437504
100
AcDbArc
 50
355.2564914854762
 51
356.120758886304
  0
ARC
  5
191B
330
1E
100
AcDbEntity
  8
OBJECT
100
AcDbCircle
 10
11.6267212669651
 20
3.482609780372143
 30
0.0
 40
0.0196875
100
AcDbArc
 50
355.1893619692742
 51
85.57504529824047
  0
ARC
  5
191C
330
1E
100
AcDbEntity
  8
OBJECT
100
AcDbCircle
 10
-1.419718066708341
 20
4.584951824520061
 30
0.0
 40
13.09280273437504
100
AcDbArc
 50
353.5248453397634
 51
354.3916569395727
  0
ARC
  5
191D
330
1E
100
AcDbEntity
  8
OBJECT
100
AcDbCircle
 10
-1.459195820025556
 20
4.583911755137336
 30
0.0
 40
13.15186523437504
100
AcDbArc
 50
354.4993871458793
 51
355.1893619692352
  0
LINE
  5
191E
330
1E
100
AcDbEntity
  8
OBJECT
100
AcDbLine
 10
11.61251231164762
 20
3.305420978783871
 30
0.0
 11
11.6104117777693
 21
3.305420786478492
 31
0.0
  0
ARC
  5
191F
330
1E
100
AcDbEntity
  8
OBJECT
100
AcDbCircle
 10
11.6125105092358
 20
3.325108478701253
 30
0.0
 40
0.0196875
100
AcDbArc
 50
270.0052454905405
 51
354.4993871458273
  0
ARC
  5
1920
330
1E
100
AcDbEntity
  8
OBJECT
100
AcDbCircle
 10
11.58760075713804
 20
3.088856197196577
 30
0.0
 40
0.0196875
100
AcDbArc
 50
353.4628890340137
 51
84.27773576043158
  0
ARC
  5
1921
330
1E
100
AcDbEntity
  8
OBJECT
100
AcDbCircle
 10
11.67275294596949
 20
4.506363998912632
 30
0.0
 40
0.0196875
100
AcDbArc
 50
270.0052454905145
 51
359.6616566531859
  0
ARC
  5
1922
330
1E
100
AcDbEntity
  8
OBJECT
100
AcDbCircle
 10
11.66923222039464
 20
4.270113675595524
 30
0.0
 40
0.0196875
100
AcDbArc
 50
358.6307665510421
 51
88.4716967733086
  0
ARC
  5
1923
330
1E
100
AcDbEntity
  8
OBJECT
100
AcDbCircle
 10
-1.419718066708341
 20
4.584951824520061
 30
0.0
 40
13.09280273437504
100
AcDbArc
 50
356.98376330206
 51
357.8463235344246
  0
ARC
  5
1924
330
1E
100
AcDbEntity
  8
OBJECT
100
AcDbCircle
 10
-1.419718066708341
 20
4.584951824520061
 30
0.0
 40
13.09280273437504
100
AcDbArc
 50
358.7082429291302
 51
359.5699305506784
  0
LINE
  5
1925
330
1E
100
AcDbEntity
  8
OBJECT
100
AcDbLine
 10
11.66452381539171
 20
4.092925743793415
 30
0.0
 11
11.6638362559977
 21
4.092925680846377
 31
0.0
  0
ARC
  5
1926
330
1E
100
AcDbEntity
  8
OBJECT
100
AcDbCircle
 10
11.66452201297978
 20
4.112613243711706
 30
0.0
 40
0.0196875
100
AcDbArc
 50
270.0052454905145
 51
357.9432797610416
  0
ARC
  5
1927
330
1E
100
AcDbEntity
  8
OBJECT
100
AcDbCircle
 10
-1.459195820025556
 20
4.583911755137336
 30
0.0
 40
13.15186523437504
100
AcDbArc
 50
357.9432797610286
 51
358.630766551029
  0
ARC
  5
1928
330
1E
100
AcDbEntity
  8
OBJECT
100
AcDbCircle
 10
11.65390700785532
 20
3.876362270906241
 30
0.0
 40
0.0196875
100
AcDbArc
 50
356.9114613107092
 51
86.97272788390307
  0
ARC
  5
1929
330
1E
100
AcDbEntity
  8
OBJECT
100
AcDbCircle
 10
-1.459195820025556
 20
4.583911755137336
 30
0.0
 40
13.15186523437504
100
AcDbArc
 50
356.223044665786
 51
356.9114613106833
  0
LINE
  5
192A
330
1E
100
AcDbEntity
  8
OBJECT
100
AcDbLine
 10
11.64446119532114
 20
3.699173905388846
 30
0.0
 11
11.64308717169241
 21
3.699173779596634
 31
0.0
  0
ARC
  5
192B
330
1E
100
AcDbEntity
  8
OBJECT
100
AcDbCircle
 10
11.64445939290921
 20
3.718861405306228
 30
0.0
 40
0.0196875
100
AcDbArc
 50
270.0052454905405
 51
356.2230446658249
  0
ARC
  5
192C
330
1E
100
AcDbEntity
  8
OBJECT
100
AcDbCircle
 10
-1.419718066708341
 20
4.584951824520061
 30
0.0
 40
13.09280273437504
100
AcDbArc
 50
351.7872056609927
 51
352.6574087870717
  0
ARC
  5
192D
330
1E
100
AcDbEntity
  8
OBJECT
100
AcDbCircle
 10
-1.459195820025556
 20
4.583911755137336
 30
0.0
 40
13.15186523437504
100
AcDbArc
 50
352.7707148768451
 51
353.4628890340526
  0
LINE
  5
192E
330
1E
100
AcDbEntity
  8
OBJECT
100
AcDbLine
 10
11.56858961660022
 20
2.911666955964022
 30
0.0
 11
11.56571994325885
 21
2.911666693241016
 31
0.0
  0
ARC
  5
192F
330
1E
100
AcDbEntity
  8
OBJECT
100
AcDbCircle
 10
11.56858781418829
 20
2.931354455881404
 30
0.0
 40
0.0196875
100
AcDbArc
 50
270.0052454905405
 51
352.7707148768176
  0
ARC
  5
1930
330
1E
100
AcDbEntity
  8
OBJECT
100
AcDbCircle
 10
11.5364375970404
 20
2.695101511504248
 30
0.0
 40
0.0196875
100
AcDbArc
 50
351.730426837732
 51
83.08017639999334
  0
ARC
  5
1931
330
1E
100
AcDbEntity
  8
OBJECT
100
AcDbCircle
 10
11.51256957595468
 20
2.537599325700824
 30
0.0
 40
0.0196875
100
AcDbArc
 50
270.0052454905145
 51
351.0353938146324
  0
ARC
  5
1932
330
1E
100
AcDbEntity
  8
OBJECT
100
AcDbCircle
 10
-1.459195820025556
 20
4.583911755137336
 30
0.0
 40
13.15186523437504
100
AcDbArc
 50
351.0353938146452
 51
351.7304268377598
  0
LINE
  5
1933
330
1E
100
AcDbEntity
  8
OBJECT
100
AcDbLine
 10
11.51257137836661
 20
2.517911825783443
 30
0.0
 11
11.5088869504773
 21
2.517911488469138
 31
0.0
  0
ARC
  5
1934
330
1E
100
AcDbEntity
  8
OBJECT
100
AcDbCircle
 10
11.06284967035289
 20
2.250118310711144
 30
0.0
 40
0.28775
100
AcDbArc
 50
282.3911782938197
 51
349.4053905639348
  0
ARC
  5
1935
330
1E
100
AcDbEntity
  8
OBJECT
100
AcDbCircle
 10
11.06284967035289
 20
2.250118310711144
 30
0.0
 40
0.32675
100
AcDbArc
 50
282.3911782938197
 51
349.4053905639348
  0
ARC
  5
1936
330
1E
100
AcDbEntity
  8
OBJECT
100
AcDbCircle
 10
11.06284967035289
 20
2.250118310711144
 30
0.0
 40
0.37375
100
AcDbArc
 50
282.3911782938197
 51
349.4053905639348
  0
ARC
  5
1937
330
1E
100
AcDbEntity
  8
OBJECT
100
AcDbCircle
 10
11.06284967035289
 20
2.250118310711144
 30
0.0
 40
0.39375
100
AcDbArc
 50
282.3911782938197
 51
349.4053905639348
  0
ARC
  5
1938
330
1E
100
AcDbEntity
  8
OBJECT
100
AcDbCircle
 10
-1.419718066708341
 20
4.584951824520061
 30
0.0
 40
13.09280273437504
100
AcDbArc
 50
349.4053905639326
 51
350.9163624076425
  0
CIRCLE
  5
1941
330
1E
100
AcDbEntity
  8
OBJECT
100
AcDbCircle
 10
8.995584817930435
 20
2.104321329794942
 30
0.0
 40
0.1771875
  0
CIRCLE
  5
1942
330
1E
100
AcDbEntity
  8
OBJECT
100
AcDbCircle
 10
10.8068348179304
 20
2.104321329794942
 30
0.0
 40
0.1771875
  0
LINE
  5
1943
330
1E
100
AcDbEntity
  8
OBJECT
100
AcDbLine
 10
8.645210016134356
 20
2.104326824519915
 30
0.0
 11
8.645210020111349
 21
1.978279660166293
 31
0.0
  0
LINE
  5
1944
330
1E
100
AcDbEntity
  8
OBJECT
100
AcDbLine
 10
11.15721001613452
 20
2.104326824520825
 30
0.0
 11
11.1572100201114
 21
1.978279779789403
 31
0.0
  0
LINE
  5
194C
330
1E
100
AcDbEntity
  8
OBJECT
100
AcDbLine
 10
6.416601284367217
 20
1.797201824521465
 30
0.0
 11
6.416601284367217
 21
1.730264324520788
 31
0.0
  0
LINE
  5
194D
330
1E
100
AcDbEntity
  8
OBJECT
100
AcDbLine
 10
6.416601284367217
 20
1.797201824521465
 30
0.0
 11
6.416601284367217
 21
1.730264324520788
 31
0.0
  0
LINE
  5
1961
330
1E
100
AcDbEntity
  8
OBJECT
100
AcDbLine
 10
10.19020994164101
 20
4.465389324518213
 30
0.0
 11
9.61220994164104
 21
4.465389324519122
 31
0.0
  0
LINE
  5
1962
330
1E
100
AcDbEntity
  8
OBJECT
100
AcDbLine
 10
10.19020995148504
 20
4.153389324520134
 30
0.0
 11
9.612209951484956
 21
4.153389324519224
 31
0.0
  0
LINE
  5
1965
330
1E
100
AcDbEntity
  8
OBJECT
100
AcDbLine
 10
9.61220994164104
 20
4.465389324519122
 30
0.0
 11
9.612209951484956
 21
4.153389324519224
 31
0.0
  0
LINE
  5
1966
330
1E
100
AcDbEntity
  8
OBJECT
100
AcDbLine
 10
10.19020994164101
 20
4.465389324518213
 30
0.0
 11
10.19020995148504
 21
4.153389324520134
 31
0.0
  0
LINE
  5
196A
330
1E
100
AcDbEntity
  8
OBJECT
100
AcDbLine
 10
6.940288784367268
 20
6.671826824520024
 30
0.0
 11
6.940288784367268
 21
6.770264324123303
 31
0.0
  0
LINE
  5
196C
330
1E
100
AcDbEntity
  8
OBJECT
100
AcDbLine
 10
6.940288784367155
 20
7.124639324123194
 30
0.0
 11
6.940288784367155
 21
7.30779918438256
 31
0.0
  0
LINE
  5
1973
330
1E
100
AcDbEntity
  8
OBJECT
100
AcDbLine
 10
6.345726284367103
 20
4.673354844069393
 30
0.0
 11
6.345726284367103
 21
6.829326786313316
 31
0.0
  0
LINE
  5
1974
330
1E
100
AcDbEntity
  8
OBJECT
100
AcDbLine
 10
6.357538784367463
 20
6.829326786313316
 30
0.0
 11
6.357538784367122
 21
4.673561032024366
 31
0.0
  0
LINE
  5
1975
330
1E
100
AcDbEntity
  8
OBJECT
100
AcDbLine
 10
6.357538784367122
 20
1.986321291984125
 30
0.0
 11
6.357538784367122
 21
1.797201824520556
 31
0.0
  0
CIRCLE
  5
19B5
330
1E
100
AcDbEntity
  8
OBJECT
100
AcDbCircle
 10
4.108347985441284
 20
6.94745178631237
 30
0.0
 40
0.0435
  0
CIRCLE
  5
19B9
330
1E
100
AcDbEntity
  8
OBJECT
100
AcDbCircle
 10
1.903347985441357
 20
6.94745178631237
 30
0.0
 40
0.0435
  0
CIRCLE
  5
19BA
330
1E
100
AcDbEntity
  8
OBJECT
100
AcDbCircle
 10
2.100223013393289
 20
2.104321291985428
 30
0.0
 40
0.0435
  0
CIRCLE
  5
19BB
330
1E
100
AcDbEntity
  8
OBJECT
100
AcDbCircle
 10
3.911473013393262
 20
2.104321291985428
 30
0.0
 40
0.0435
  0
LINE
  5
1A09
330
1E
100
AcDbEntity
  8
OBJECT
100
AcDbLine
 10
6.534851284367206
 20
2.281571291986068
 30
0.0
 11
6.534851284367206
 21
2.222571291984962
 31
0.0
  0
LINE
  5
1A1A
330
1E
100
AcDbEntity
  8
OBJECT
100
AcDbLine
 10
6.534851284367206
 20
2.281571291986068
 30
0.0
 11
6.652851284367145
 21
2.281571291985159
 31
0.0
  0
LINE
  5
1A1B
330
1E
100
AcDbEntity
  8
OBJECT
100
AcDbLine
 10
6.534851284367206
 20
1.927321291984839
 30
0.0
 11
6.652851284367145
 21
1.927321291984839
 31
0.0
  0
LINE
  5
1A1C
330
1E
100
AcDbEntity
  8
OBJECT
100
AcDbLine
 10
6.534851284367206
 20
1.986321291985035
 30
0.0
 11
6.534851284367206
 21
1.927321291984839
 31
0.0
  0
LINE
  5
1A20
330
1E
100
AcDbEntity
  8
HIDDEN
100
AcDbLine
 10
6.587663784367165
 20
2.226383791985966
 30
0.0
 11
6.711913784367126
 21
2.226383791985966
 31
0.0
  0
LINE
  5
1A21
330
1E
100
AcDbEntity
  8
HIDDEN
100
AcDbLine
 10
6.587663784367165
 20
1.982258791985799
 30
0.0
 11
6.711913784367126
 21
1.982258791985799
 31
0.0
  0
LINE
  5
1A3E
330
1E
100
AcDbEntity
  8
OBJECT
100
AcDbLine
 10
9.901209863330237
 20
6.947451786046798
 30
0.0
 11
9.993709855915781
 21
6.712451786047125
 31
0.0
  0
LINE
  5
1A3F
330
1E
100
AcDbEntity
  8
OBJECT
100
AcDbLine
 10
9.808709855915836
 20
6.712451786047125
 30
0.0
 11
9.993709855915781
 21
6.712451786047125
 31
0.0
  0
LINE
  5
1A40
330
1E
100
AcDbEntity
  8
OBJECT
100
AcDbLine
 10
9.808709855915836
 20
6.712451786047125
 30
0.0
 11
9.901209863330237
 21
6.947451786046798
 31
0.0
  0
LINE
  5
1B2D
330
1E
100
AcDbEntity
  8
OBJECT
100
AcDbLine
 10
11.16120993423079
 20
14.22001353111954
 30
0.0
 11
11.16121002356375
 21
11.38860080827817
 31
0.0
  0
LINE
  5
1B2E
330
1E
100
AcDbEntity
  8
OBJECT
100
AcDbLine
 10
8.641209934230587
 20
14.22001353111954
 30
0.0
 11
8.641210023563772
 21
11.38860071759154
 31
0.0
  0
DIMENSION
  5
1B70
330
1E
100
AcDbEntity
  8
DIM
100
AcDbDimension
  2
*D1
 10
4.777358502470629
 20
17.43264613181781
 30
0.0
 11
3.005717155183932
 21
17.43264613181781
 31
0.0
 70
    32
 71
     5
 42
3.543282694573395
  3
23NSTD
100
AcDbAlignedDimension
 13
1.234075807897234
 23
14.10470103112038
 33
0.0
 14
4.777358502470629
 24
14.10470103111947
 34
0.0
100
AcDbRotatedDimension
  0
DIMENSION
  5
1B7E
330
1E
100
AcDbEntity
  8
DIM
100
AcDbDimension
  2
*D2
 10
0.7224696291309983
 20
11.25001353111984
 30
0.0
 11
0.7224696291309967
 21
14.10470103111975
 31
0.0
 70
    32
 71
     5
 42
5.709374999999809
  3
23NSTD
100
AcDbAlignedDimension
 13
3.005848013393276
 23
16.95938853111965
 33
0.0
 14
3.005847833258414
 24
11.25001353111984
 34
0.0
 50
90.0
100
AcDbRotatedDimension
  0
INSERT
  5
1BB4
330
1E
100
AcDbEntity
  8
OBJECT
100
AcDbBlockReference
  2
HB
 10
0.0
 20
0.0
 30
0.0
 41
1.25
 42
1.25
 43
1.25
  0
DIMENSION
  5
1BD5
330
1E
100
AcDbEntity
  8
DIM
100
AcDbDimension
  2
*D3
 10
7.026913784367204
 20
17.43264613181781
 30
0.0
 11
6.396913784367121
 21
17.43264613181781
 31
0.0
 70
    32
 71
     5
 42
1.260000000000164
  3
23NSTDI
100
AcDbAlignedDimension
 13
5.76691378436704
 23
16.81324341257368
 33
0.0
 14
7.026913784367204
 24
16.74263956556387
 34
0.0
100
AcDbRotatedDimension
  0
DIMENSION
  5
1C01
330
1E
100
AcDbEntity
  8
DIM
100
AcDbDimension
  2
*D4
 10
4.285535513393298
 20
10.82753028150364
 30
0.0
 11
3.005848013393332
 21
10.82753028150364
 31
0.0
 70
    32
 71
     5
 42
2.559374999999931
  3
23NSTD
100
AcDbAlignedDimension
 13
1.726160513393367
 23
11.74220103111929
 33
0.0
 14
4.285535513393298
 24
11.74220103111929
 34
0.0
100
AcDbRotatedDimension
  0
DIMENSION
  5
1C0F
330
1E
100
AcDbEntity
  8
DIM
100
AcDbDimension
  2
*D5
 10
5.235650085946461
 20
16.46720103111965
 30
0.0
 11
5.235650085946458
 21
14.10470103111947
 31
0.0
 70
    32
 71
     5
 42
4.725000000000362
  3
23NSTD
100
AcDbAlignedDimension
 13
4.285535513393298
 23
11.74220103111929
 33
0.0
 14
4.285535513393298
 24
16.46720103111965
 34
0.0
 50
90.0
100
AcDbRotatedDimension
  0
DIMENSION
  5
1C76
330
1E
100
AcDbEntity
  8
DIM
100
AcDbDimension
  2
*D6
 10
12.24214540848922
 20
6.553701824520061
 30
0.0
 11
12.24214540848922
 21
5.766201859304688
 31
0.0
 70
    32
 71
     5
 42
1.574999930430749
  3
23NSTD
100
AcDbAlignedDimension
 13
11.00370992544573
 23
4.978701894089311
 33
0.0
 14
11.00370987575333
 24
6.553701824520061
 34
0.0
 50
90.0
100
AcDbRotatedDimension
  0
DIMENSION
  5
1C84
330
1E
100
AcDbEntity
  8
DIM
100
AcDbDimension
  2
*D7
 10
11.00370987575333
 20
7.914435269894248
 30
0.0
 11
9.901209875753366
 21
7.914435269894248
 31
0.0
 70
    32
 71
     5
 42
2.204999999999927
  3
23NSTD
100
AcDbAlignedDimension
 13
8.798709875753402
 23
6.553701824520061
 33
0.0
 14
11.00370987575333
 24
6.553701824520061
 34
0.0
100
AcDbRotatedDimension
  0
DIMENSION
  5
1CAA
330
1E
100
AcDbEntity
  8
DIM
100
AcDbDimension
  2
*D8
 10
6.940288784367239
 20
5.958717918971061
 30
0.0
 11
7.707866909367239
 21
5.958717918971061
 31
0.0
 70
    32
 71
     5
 42
0.1968750000000616
  3
23NSTD
100
AcDbAlignedDimension
 13
6.743413784367177
 23
6.455264324520243
 33
0.0
 14
6.940288784367239
 24
5.989538454393673
 34
0.0
100
AcDbRotatedDimension
  0
DIMENSION
  5
2216
330
1E
100
AcDbEntity
  8
DIM
100
AcDbDimension
  2
*D9
 10
12.24214540848922
 20
4.584951824520061
 30
0.0
 11
12.24214540848922
 21
4.781826859304688
 31
0.0
 70
    32
 71
     5
 42
0.3937500695692506
  3
23NSTDI
100
AcDbAlignedDimension
 13
11.00370992544573
 23
4.978701894089311
 33
0.0
 14
11.69240783687872
 24
4.584951824520061
 34
0.0
 50
90.0
100
AcDbRotatedDimension
  0
TEXT
  5
2417
330
1E
100
AcDbEntity
  8
TEXT
100
AcDbText
 10
0.7402012333522521
 20
18.41931176182167
 30
0.0
 40
0.156
  1
MATERIAL: HIGH IMPACT ABS WITH UL94V-O
 41
0.75
100
AcDbText
  0
TEXT
  5
2418
330
1E
100
AcDbEntity
  8
TEXT
100
AcDbText
 10
0.7402012333522521
 20
18.15931176182167
 30
0.0
 40
0.156
  1
   FLAMMABILITY RATING
 41
0.75
100
AcDbText
  0
TEXT
  5
2419
330
1E
100
AcDbEntity
  8
TEXT
100
AcDbText
 10
7.68413789414403
 20
19.15963241379304
 30
0.0
 40
0.195
  1
HH-3580-BC
 41
0.75
 72
     1
 11
8.37882539414403
 21
19.15963241379304
 31
0.0
100
AcDbText
  0
TEXT
  5
241A
330
1E
100
AcDbEntity
  8
TEXT
100
AcDbText
 10
1.516948684124817
 20
19.15963241379304
 30
0.0
 40
0.195
  1
HAND HAND BOX  (STYLE L)
 41
0.75
 72
     1
 11
3.198823684124818
 21
19.15963241379304
 31
0.0
100
AcDbText
  0
TEXT
  5
241E
330
1E
100
AcDbEntity
  8
TEXT
100
AcDbText
 10
0.7402012333522521
 20
17.7913730181121
 30
0.0
 40
0.156
  1
FINISH: TEXTURED BLACK
 41
0.75
100
AcDbText
  0
LEADER
  5
241F
330
1E
100
AcDbEntity
  8
DIM
100
AcDbLeader
  3
23NSTD
 73
     0
 74
     0
 75
     1
 40
0.4166666666666666
 41
1.5234375
 76
     3
 10
10.40312690787861
 20
11.85036773319174
 30
0.0
 10
10.85031897380866
 20
10.80731292727171
 30
0.0
 10
11.07531897380866
 20
10.80731292727171
 30
0.0
340
2420
213
0.0
223
-0.078125
233
0.0
  0
MTEXT
  5
2420
102
{ACAD_REACTORS
330
241F
102
}
330
1E
100
AcDbEntity
  8
DIM
100
AcDbMText
 10
11.18781897380866
 20
10.88543792727171
 30
0.0
 40
0.15625
 41
0.0
 71
     1
 72
     1
  1
REMOVABLE\PBATTERY COVER
 73
     1
 44
1.0
  0
LEADER
  5
2421
330
1E
100
AcDbEntity
  8
DIM
100
AcDbLeader
  3
23NSTD
 73
     0
 74
     0
 75
     1
 40
0.4166666666666666
 41
2.32421875
 76
     3
 10
3.685664892289054
 20
12.19744259528645
 30
0.0
 10
4.813403803504479
 20
10.83310957949016
 30
0.0
 10
5.038403803504479
 20
10.83310957949016
 30
0.0
340
2422
213
0.0
223
-0.078125
233
0.0
  0
MTEXT
  5
2422
102
{ACAD_REACTORS
330
2421
102
}
330
1E
100
AcDbEntity
  8
DIM
100
AcDbMText
 10
5.150903803504479
 20
10.91123457949016
 30
0.0
 40
0.15625
 41
0.0
 71
     1
 72
     1
  1
SMOOTH RECESSED PAD\PRECESSED MINIMUM 0.040
 73
     1
 44
1.0
  0
LEADER
  5
2424
330
1E
100
AcDbEntity
  8
DIM
100
AcDbLeader
  3
23NSTD
 73
     0
 75
     1
 40
0.6770833333333336
 41
3.125
 76
     3
 10
9.619902170664488
 20
3.329989486391646
 30
0.0
 10
8.358274445671943
 20
1.135786606918756
 30
0.0
 10
8.133274445671943
 20
1.135786606918756
 30
0.0
340
2425
213
0.0
223
-0.078125
233
0.0
  0
MTEXT
  5
2425
102
{ACAD_REACTORS
330
2424
102
}
330
1E
100
AcDbEntity
  8
DIM
100
AcDbMText
 10
8.020774445671943
 20
1.213911606918756
 30
0.0
 40
0.15625
 41
0.0
 71
     3
 72
     1
  1
BATTERY COMPARTMENT ACCEPTS\P(2) OR (4) AA, (1) 9V, OR\P(1) 9V AND (2) AA BATTERIES
 73
     1
 44
1.0
  0
TEXT
  5
2482
330
1E
100
AcDbEntity
  8
TEXT
100
AcDbText
 10
1.932473255714544
 20
1.020495792785631
 30
0.0
 40
0.156
  1
%%UINSIDE VIEW OF TOP
 41
0.75
 72
     1
 11
2.948423255714544
 21
1.020495792785631
 31
0.0
100
AcDbText
  0
TEXT
  5
2483
330
1E
100
AcDbEntity
  8
TEXT
100
AcDbText
 10
8.853444024119443
 20
1.020495792785631
 30
0.0
 40
0.156
  1
%%UINSIDE VIEW OF BOTTOM
 41
0.75
 72
     1
 11
10.04489402411944
 21
1.020495792785631
 31
0.0
100
AcDbText
  0
LEADER
  5
249C
330
1E
100
AcDbEntity
  8
DIM
100
AcDbLeader
  3
23NSTD
 73
     0
 75
     1
 40
0.6770833333333333
 41
2.0703125
 76
     3
 10
8.717829173432294
 20
6.639793726801126
 30
0.0
 10
7.783771641060345
 20
8.885206443608701
 30
0.0
 10
7.558771641060346
 20
8.885206443608701
 30
0.0
340
249D
213
0.0
223
-0.078125
233
0.0
  0
MTEXT
  5
249D
102
{ACAD_REACTORS
330
249C
102
}
330
1E
100
AcDbEntity
  8
DIM
100
AcDbMText
 10
7.446271641060346
 20
8.963331443608701
 30
0.0
 40
0.15625
 41
0.0
 71
     3
 72
     1
  1
0.236 DIA. BOSS\PWITH 0.087 DIA. HOLE\P(4) PLACES
 73
     1
 44
1.0
  0
TEXT
  5
24B6
330
1E
100
AcDbEntity
  8
TEXT
100
AcDbText
 10
8.442615372571964
 20
18.41931176182167
 30
0.0
 40
0.156
  1
ALL DIMENSIONS HAVE %%P0.015 TOLERANCE
 41
0.75
100
AcDbText
  0
MTEXT
  5
2A0A
330
1E
100
AcDbEntity
  8
0
 62
     1
100
AcDbMText
 10
356.2251498582625
 20
145.0316675957164
 30
0.0
 40
4.0
 41
0.0
 71
     9
 72
     1
  1

  7
Standard
 73
     1
 44
1.0
1001
ACAD
1000
MTEXTBEGIN
1070
    73
1070
     1
1070
    44
1040
1.0
1070
    74
1070
     0
1000
MTEXTEND
  0
MTEXT
  5
2A0B
330
1E
100
AcDbEntity
  8
\M+2BBB2\M+2A755\M+2BD75
 62
     1
100
AcDbMText
 10
-4426.915518853434
 20
4205.286621215925
 30
0.0
 40
3.5
 41
0.0
 71
     1
 72
     1
  1

  7
Standard
 73
     1
 44
1.0
1001
ACAD
1000
MTEXTBEGIN
1070
    73
1070
     1
1070
    44
1040
1.0
1070
    74
1070
     0
1000
MTEXTEND
  0
MTEXT
  5
2E3F
330
1E
100
AcDbEntity
  8
0
 62
     1
100
AcDbMText
 10
369.668961414822
 20
148.0766145517489
 30
0.0
 40
4.0
 41
0.0
 71
     9
 72
     1
  1

  7
Standard
 73
     1
 44
1.0
1001
ACAD
1000
MTEXTBEGIN
1070
    73
1070
     1
1070
    44
1040
1.0
1070
    74
1070
     0
1000
MTEXTEND
  0
MTEXT
  5
2E40
330
1E
100
AcDbEntity
  8
\M+2BBB2\M+2A755\M+2BD75
 62
     1
100
AcDbMText
 10
-4413.471707296875
 20
4208.331568171959
 30
0.0
 40
3.5
 41
0.0
 71
     1
 72
     1
  1

  7
Standard
 73
     1
 44
1.0
1001
ACAD
1000
MTEXTBEGIN
1070
    73
1070
     1
1070
    44
1040
1.0
1070
    74
1070
     0
1000
MTEXTEND
  0
MTEXT
  5
2EA1
330
1E
100
AcDbEntity
  8
0
 62
     1
100
AcDbMText
 10
348.1417354759712
 20
149.568137482932
 30
0.0
 40
4.0
 41
0.0
 71
     9
 72
     1
  1

  7
Standard
 73
     1
 44
1.0
1001
ACAD
1000
MTEXTBEGIN
1070
    73
1070
     1
1070
    44
1040
1.0
1070
    74
1070
     0
1000
MTEXTEND
  0
MTEXT
  5
2EA2
330
1E
100
AcDbEntity
  8
\M+2BBB2\M+2A755\M+2BD75
 62
     1
100
AcDbMText
 10
-4434.998933235725
 20
4209.823091103142
 30
0.0
 40
3.5
 41
0.0
 71
     1
 72
     1
  1

  7
Standard
 73
     1
 44
1.0
1001
ACAD
1000
MTEXTBEGIN
1070
    73
1070
     1
1070
    44
1040
1.0
1070
    74
1070
     0
1000
MTEXTEND
  0
TEXT
  5
2FC0
330
1E
100
AcDbEntity
  8
TEXT
100
AcDbText
 10
8.442615372571964
 20
17.76438830939358
 30
0.0
 40
0.156
  1
   STEEL SCREWS SUPPLIED FOR ASSEMBLY
 41
0.75
100
AcDbText
  0
TEXT
  5
2FC1
330
1E
100
AcDbEntity
  8
TEXT
100
AcDbText
 10
8.442615372571964
 20
18.02438830939358
 30
0.0
 40
0.156
  1
FOUR (4) M3 x 1/2" LG. FLAT HD. STAINLESS
 41
0.75
100
AcDbText
  0
LINE
  5
2FC8
330
1E
100
AcDbEntity
  8
HIDDEN
100
AcDbLine
 10
2.143723086750291
 20
9.563330766971033
 30
0.0
 11
2.143723086750291
 21
10.10658076697097
 31
0.0
  0
LINE
  5
2FC9
330
1E
100
AcDbEntity
  8
HIDDEN
100
AcDbLine
 10
2.056723086750757
 20
9.563330766971033
 30
0.0
 11
2.056723086750757
 21
10.10658076697097
 31
0.0
  0
LINE
  5
2FCA
330
1E
100
AcDbEntity
  8
HIDDEN
100
AcDbLine
 10
1.982098086750561
 20
10.09870576697096
 30
0.0
 11
1.982098086750561
 21
9.535643266970962
 31
0.0
  0
LINE
  5
2FCB
330
1E
100
AcDbEntity
  8
HIDDEN
100
AcDbLine
 10
2.218348086750488
 20
10.09795576697111
 30
0.0
 11
2.218348086750488
 21
9.535643266970849
 31
0.0
  0
LINE
  5
2FCC
330
1E
100
AcDbEntity
  8
HIDDEN
100
AcDbLine
 10
1.36960750423977
 20
10.09795576697296
 30
0.0
 11
1.343832703290892
 21
9.60614326697099
 31
0.0
  0
LINE
  5
2FCD
330
1E
100
AcDbEntity
  8
HIDDEN
100
AcDbLine
 10
4.642088162277318
 20
10.09795576697021
 30
0.0
 11
4.667862963226049
 21
9.60614326697099
 31
0.0
  0
LINE
  5
2FCE
330
1E
100
AcDbEntity
  8
HIDDEN
100
AcDbLine
 10
3.86797308675073
 20
9.563330766971033
 30
0.0
 11
3.86797308675073
 21
10.10658076697097
 31
0.0
  0
LINE
  5
2FCF
330
1E
100
AcDbEntity
  8
HIDDEN
100
AcDbLine
 10
3.954973086750264
 20
9.563330766971033
 30
0.0
 11
3.954973086750264
 21
10.10658076697097
 31
0.0
  0
LINE
  5
2FD0
330
1E
100
AcDbEntity
  8
HIDDEN
100
AcDbLine
 10
4.029598086750461
 20
10.09870576697096
 30
0.0
 11
4.029598086750461
 21
9.535643266970962
 31
0.0
  0
LINE
  5
2FD1
330
1E
100
AcDbEntity
  8
HIDDEN
100
AcDbLine
 10
3.793348086750533
 20
10.09795576697111
 30
0.0
 11
3.793348086750533
 21
9.535643266970849
 31
0.0
  0
LINE
  5
2FD2
330
1E
100
AcDbEntity
  8
OBJECT
100
AcDbLine
 10
1.242182247316733
 20
10.07405967092726
 30
0.0
 11
1.213945386338441
 21
9.535268266970875
 31
0.0
  0
LINE
  5
2FD3
330
1E
100
AcDbEntity
  8
OBJECT
100
AcDbLine
 10
4.769513419200208
 20
10.07405967092726
 30
0.0
 11
4.797750280178501
 21
9.535268266970875
 31
0.0
  0
LINE
  5
2FD4
330
1E
100
AcDbEntity
  8
OBJECT
100
AcDbLine
 10
4.749540828505118
 20
10.0730129518024
 30
0.0
 11
4.777722833258494
 21
9.535268266971785
 31
0.0
  0
LINE
  5
2FD5
330
1E
100
AcDbEntity
  8
OBJECT
100
AcDbLine
 10
1.26215483801171
 20
10.0730129518024
 30
0.0
 11
1.233972833258448
 21
9.535268266969966
 31
0.0
  0
LINE
  5
2FD6
330
1E
100
AcDbEntity
  8
HIDDEN
100
AcDbLine
 10
4.71078533325884
 20
9.594330766970971
 30
0.0
 11
1.300910333258102
 21
9.594330766972232
 31
0.0
  0
LINE
  5
2FD7
330
1E
100
AcDbEntity
  8
HIDDEN
100
AcDbLine
 10
1.292047605339789
 20
9.60614326697099
 30
0.0
 11
4.719648061177153
 21
9.60614326697099
 31
0.0
  0
LINE
  5
2FD8
330
1E
100
AcDbEntity
  8
HIDDEN
100
AcDbLine
 10
4.029598124559974
 20
9.535643266970849
 30
0.0
 11
3.793348124560047
 21
9.535643266970849
 31
0.0
  0
LINE
  5
2FD9
330
1E
100
AcDbEntity
  8
HIDDEN
100
AcDbLine
 10
3.789410624559472
 20
9.364580766971014
 30
0.0
 11
3.848473124559909
 21
9.423643266970996
 31
0.0
  0
LINE
  5
2FDA
330
1E
100
AcDbEntity
  8
HIDDEN
100
AcDbLine
 10
1.365480391621154
 20
9.011955766970912
 30
0.0
 11
4.646215274895787
 21
9.011955766970912
 31
0.0
  0
LINE
  5
2FDB
330
1E
100
AcDbEntity
  8
OBJECT
100
AcDbLine
 10
4.77772283325838
 20
9.495893266970584
 30
0.0
 11
1.233972833258448
 21
9.495893266970584
 31
0.0
  0
LINE
  5
2FDC
330
1E
100
AcDbEntity
  8
OBJECT
100
AcDbLine
 10
1.450721798814797
 20
8.924955766970912
 30
0.0
 11
4.560973867702031
 21
8.924955766970912
 31
0.0
  0
LINE
  5
2FDD
330
1E
100
AcDbEntity
  8
OBJECT
100
AcDbLine
 10
4.777722833258494
 20
9.535268266970875
 30
0.0
 11
1.233972833258448
 21
9.535268266970875
 31
0.0
  0
ARC
  5
2FDE
330
1E
100
AcDbEntity
  8
OBJECT
100
AcDbCircle
 10
1.45072179881491
 20
9.121830766970548
 30
0.0
 40
0.216875
100
AcDbArc
 50
183.0000000000057
 51
270.0
  0
ARC
  5
2FDF
330
1E
100
AcDbEntity
  8
OBJECT
100
AcDbCircle
 10
1.632489655344883
 20
9.121830766970548
 30
0.0
 40
0.196875
100
AcDbArc
 50
183.0000000000057
 51
270.0
  0
ARC
  5
2FE0
330
1E
100
AcDbEntity
  8
OBJECT
100
AcDbCircle
 10
1.450721798814797
 20
9.121830766970548
 30
0.0
 40
0.196875
100
AcDbArc
 50
183.0000000000057
 51
270.0
  0
LINE
  5
2FE1
330
1E
100
AcDbEntity
  8
OBJECT
100
AcDbLine
 10
1.470847833258471
 20
8.904955766970912
 30
0.0
 11
1.45072179881491
 21
8.904955766970912
 31
0.0
  0
LINE
  5
2FE2
330
1E
100
AcDbEntity
  8
OBJECT
100
AcDbLine
 10
1.470847833258471
 20
8.924955766970912
 30
0.0
 11
1.470847833258471
 21
8.904955766970912
 31
0.0
  0
LINE
  5
2FE3
330
1E
100
AcDbEntity
  8
HIDDEN
100
AcDbLine
 10
1.339827563942545
 20
9.501440878332346
 30
0.0
 11
1.365480391621154
 21
9.011955766970912
 31
0.0
  0
LINE
  5
2FE4
330
1E
100
AcDbEntity
  8
OBJECT
100
AcDbLine
 10
1.213945386338604
 20
9.495893266970584
 30
0.0
 11
1.234144018465073
 21
9.110480406460908
 31
0.0
  0
LINE
  5
2FE5
330
1E
100
AcDbEntity
  8
OBJECT
100
AcDbLine
 10
1.233972833258448
 20
9.495893266970584
 30
0.0
 11
1.25411660916005
 21
9.111527125585768
 31
0.0
  0
LINE
  5
2FE6
330
1E
100
AcDbEntity
  8
OBJECT
100
AcDbLine
 10
1.415740689788535
 20
9.495893266970584
 30
0.0
 11
1.435884465690136
 21
9.111527125585768
 31
0.0
  0
LINE
  5
2FE7
330
1E
100
AcDbEntity
  8
HIDDEN
100
AcDbLine
 10
1.292047605339789
 20
9.60614326697099
 30
0.0
 11
1.292047605339789
 21
9.535268266970875
 31
0.0
  0
LINE
  5
2FE8
330
1E
100
AcDbEntity
  8
HIDDEN
100
AcDbLine
 10
1.300910333258102
 20
9.535268266970875
 30
0.0
 11
1.300910333258102
 21
9.594330766970971
 31
0.0
  0
LINE
  5
2FE9
330
1E
100
AcDbEntity
  8
HIDDEN
100
AcDbLine
 10
1.340431230792304
 20
9.495893266970925
 30
0.0
 11
1.340431230792304
 21
9.594330766970971
 31
0.0
  0
LINE
  5
2FEA
330
1E
100
AcDbEntity
  8
OBJECT
100
AcDbLine
 10
1.233972833258398
 20
9.535268266970875
 30
0.0
 11
1.213945386338441
 21
9.535268266970874
 31
0.0
  0
LINE
  5
2FEB
330
1E
100
AcDbEntity
  8
OBJECT
100
AcDbLine
 10
1.233972833258562
 20
9.495893266970584
 30
0.0
 11
1.213945386338604
 21
9.495893266970584
 31
0.0
  0
LINE
  5
2FEC
330
1E
100
AcDbEntity
  8
OBJECT
100
AcDbLine
 10
1.253660333258366
 20
9.535268266970875
 30
0.0
 11
1.253660333258366
 21
9.495893266970584
 31
0.0
  0
LINE
  5
2FED
330
1E
100
AcDbEntity
  8
HIDDEN
100
AcDbLine
 10
2.474285617903056
 20
9.069955766970913
 30
0.0
 11
2.789285617903054
 21
9.069955766970913
 31
0.0
  0
LINE
  5
2FEE
330
1E
100
AcDbEntity
  8
HIDDEN
100
AcDbLine
 10
2.218348048940974
 20
9.417393266970973
 30
0.0
 11
2.277410548940501
 21
9.417393266970973
 31
0.0
  0
LINE
  5
2FEF
330
1E
100
AcDbEntity
  8
HIDDEN
100
AcDbLine
 10
1.978160548941382
 20
9.364580766971014
 30
0.0
 11
1.978160548940472
 21
8.925330766970885
 31
0.0
  0
LINE
  5
2FF0
330
1E
100
AcDbEntity
  8
HIDDEN
100
AcDbLine
 10
2.222285548941549
 20
9.364580766971014
 30
0.0
 11
2.222285548940639
 21
8.925330766970885
 31
0.0
  0
LINE
  5
2FF1
330
1E
100
AcDbEntity
  8
HIDDEN
100
AcDbLine
 10
1.978160548941382
 20
9.364580766971014
 30
0.0
 11
2.037223048941818
 21
9.423643266970996
 31
0.0
  0
LINE
  5
2FF2
330
1E
100
AcDbEntity
  8
HIDDEN
100
AcDbLine
 10
1.982098048941047
 20
9.535643266970849
 30
0.0
 11
2.218348048940974
 21
9.535643266970849
 31
0.0
  0
LINE
  5
2FF3
330
1E
100
AcDbEntity
  8
HIDDEN
100
AcDbLine
 10
1.92303554894061
 20
9.417393266970973
 30
0.0
 11
1.92303554894061
 21
9.011955766970912
 31
0.0
  0
LINE
  5
2FF4
330
1E
100
AcDbEntity
  8
HIDDEN
100
AcDbLine
 10
1.982098048941047
 20
9.535643266970849
 30
0.0
 11
1.982098048941047
 21
9.417393266970973
 31
0.0
  0
LINE
  5
2FF5
330
1E
100
AcDbEntity
  8
HIDDEN
100
AcDbLine
 10
1.982098048941047
 20
9.417393266970973
 30
0.0
 11
1.92303554894061
 21
9.417393266970973
 31
0.0
  0
LINE
  5
2FF6
330
1E
100
AcDbEntity
  8
HIDDEN
100
AcDbLine
 10
2.056723086750757
 20
9.563330766971033
 30
0.0
 11
2.143723086750291
 21
9.563330766971033
 31
0.0
  0
LINE
  5
2FF7
330
1E
100
AcDbEntity
  8
HIDDEN
100
AcDbLine
 10
2.029348086751092
 20
9.535643266970962
 30
0.0
 11
2.056723086750757
 21
9.563330766971033
 31
0.0
  0
LINE
  5
2FF8
330
1E
100
AcDbEntity
  8
HIDDEN
100
AcDbLine
 10
2.037223048940909
 20
9.535643266970849
 30
0.0
 11
2.037223048941818
 21
9.42364326697111
 31
0.0
  0
LINE
  5
2FF9
330
1E
100
AcDbEntity
  8
HIDDEN
100
AcDbLine
 10
2.222285548941549
 20
9.364580766971014
 30
0.0
 11
2.163223048941112
 21
9.423643266970996
 31
0.0
  0
LINE
  5
2FFA
330
1E
100
AcDbEntity
  8
HIDDEN
100
AcDbLine
 10
2.143723086750291
 20
9.563330766970919
 30
0.0
 11
2.171098086750866
 21
9.535643266970849
 31
0.0
  0
LINE
  5
2FFB
330
1E
100
AcDbEntity
  8
HIDDEN
100
AcDbLine
 10
2.163223048941112
 20
9.535643266970849
 30
0.0
 11
2.163223048941112
 21
9.423643266970882
 31
0.0
  0
LINE
  5
2FFC
330
1E
100
AcDbEntity
  8
HIDDEN
100
AcDbLine
 10
2.218348048940974
 20
9.535643266970849
 30
0.0
 11
2.218348048940974
 21
9.417393266970973
 31
0.0
  0
LINE
  5
2FFD
330
1E
100
AcDbEntity
  8
HIDDEN
100
AcDbLine
 10
2.277410548940501
 20
9.417393266970973
 30
0.0
 11
2.277410548940501
 21
9.011955766970912
 31
0.0
  0
LINE
  5
2FFE
330
1E
100
AcDbEntity
  8
HIDDEN
100
AcDbLine
 10
2.474285617903056
 20
9.011955766970912
 30
0.0
 11
2.474285617903056
 21
9.069955766970911
 31
0.0
  0
LINE
  5
2FFF
330
1E
100
AcDbEntity
  8
HIDDEN
100
AcDbLine
 10
3.537410048613772
 20
9.069955766970913
 30
0.0
 11
3.222410048613774
 21
9.069955766970913
 31
0.0
  0
LINE
  5
3000
330
1E
100
AcDbEntity
  8
HIDDEN
100
AcDbLine
 10
2.789285617903054
 20
9.011955766970912
 30
0.0
 11
2.789285617903054
 21
9.069955766970911
 31
0.0
  0
LINE
  5
3001
330
1E
100
AcDbEntity
  8
HIDDEN
100
AcDbLine
 10
3.222410048613774
 20
9.011955766970912
 30
0.0
 11
3.222410048613774
 21
9.069955766970911
 31
0.0
  0
LINE
  5
3002
330
1E
100
AcDbEntity
  8
HIDDEN
100
AcDbLine
 10
3.789410624559472
 20
9.364580766971014
 30
0.0
 11
3.789410624560382
 21
8.925330766970885
 31
0.0
  0
LINE
  5
3003
330
1E
100
AcDbEntity
  8
HIDDEN
100
AcDbLine
 10
3.537410048613772
 20
9.011955766970912
 30
0.0
 11
3.537410048613772
 21
9.069955766970911
 31
0.0
  0
LINE
  5
3004
330
1E
100
AcDbEntity
  8
HIDDEN
100
AcDbLine
 10
3.73428562456052
 20
9.417393266970973
 30
0.0
 11
3.73428562456052
 21
9.011955766970912
 31
0.0
  0
LINE
  5
3005
330
1E
100
AcDbEntity
  8
HIDDEN
100
AcDbLine
 10
3.793348124560047
 20
9.417393266970973
 30
0.0
 11
3.73428562456052
 21
9.417393266970973
 31
0.0
  0
LINE
  5
3006
330
1E
100
AcDbEntity
  8
HIDDEN
100
AcDbLine
 10
3.793348124560047
 20
9.535643266970849
 30
0.0
 11
3.793348124560047
 21
9.417393266970973
 31
0.0
  0
LINE
  5
3007
330
1E
100
AcDbEntity
  8
HIDDEN
100
AcDbLine
 10
4.03353562455964
 20
9.364580766971014
 30
0.0
 11
4.033535624560549
 21
8.925330766970885
 31
0.0
  0
LINE
  5
3008
330
1E
100
AcDbEntity
  8
HIDDEN
100
AcDbLine
 10
4.029598124559974
 20
9.417393266970973
 30
0.0
 11
4.088660624560411
 21
9.417393266970973
 31
0.0
  0
LINE
  5
3009
330
1E
100
AcDbEntity
  8
HIDDEN
100
AcDbLine
 10
3.954973086750264
 20
9.563330766971033
 30
0.0
 11
3.86797308675073
 21
9.563330766971033
 31
0.0
  0
LINE
  5
300A
330
1E
100
AcDbEntity
  8
HIDDEN
100
AcDbLine
 10
3.848473124559909
 20
9.535643266970849
 30
0.0
 11
3.848473124559909
 21
9.423643266970882
 31
0.0
  0
LINE
  5
300B
330
1E
100
AcDbEntity
  8
HIDDEN
100
AcDbLine
 10
3.86797308675073
 20
9.563330766970919
 30
0.0
 11
3.840598086750155
 21
9.535643266970849
 31
0.0
  0
LINE
  5
300C
330
1E
100
AcDbEntity
  8
HIDDEN
100
AcDbLine
 10
4.029598124559974
 20
9.535643266970849
 30
0.0
 11
4.029598124559974
 21
9.417393266970973
 31
0.0
  0
LINE
  5
300D
330
1E
100
AcDbEntity
  8
HIDDEN
100
AcDbLine
 10
3.974473124560113
 20
9.535643266970849
 30
0.0
 11
3.974473124559203
 21
9.42364326697111
 31
0.0
  0
LINE
  5
300E
330
1E
100
AcDbEntity
  8
HIDDEN
100
AcDbLine
 10
3.982348086749929
 20
9.535643266970962
 30
0.0
 11
3.954973086750264
 21
9.563330766971033
 31
0.0
  0
LINE
  5
300F
330
1E
100
AcDbEntity
  8
HIDDEN
100
AcDbLine
 10
4.03353562455964
 20
9.364580766971014
 30
0.0
 11
3.974473124559203
 21
9.423643266970996
 31
0.0
  0
LINE
  5
3010
330
1E
100
AcDbEntity
  8
HIDDEN
100
AcDbLine
 10
4.088660624560411
 20
9.417393266970973
 30
0.0
 11
4.088660624560411
 21
9.011955766970912
 31
0.0
  0
ARC
  5
3011
330
1E
100
AcDbEntity
  8
OBJECT
100
AcDbCircle
 10
4.560973867702031
 20
9.121830766970548
 30
0.0
 40
0.216875
100
AcDbArc
 50
270.0
 51
356.9999999999942
  0
ARC
  5
3012
330
1E
100
AcDbEntity
  8
OBJECT
100
AcDbCircle
 10
4.379206011171945
 20
9.121830766970548
 30
0.0
 40
0.196875
100
AcDbArc
 50
270.0
 51
356.9999999999942
  0
ARC
  5
3013
330
1E
100
AcDbEntity
  8
OBJECT
100
AcDbCircle
 10
4.560973867702031
 20
9.121830766970548
 30
0.0
 40
0.196875
100
AcDbArc
 50
270.0
 51
356.9999999999942
  0
LINE
  5
3014
330
1E
100
AcDbEntity
  8
OBJECT
100
AcDbLine
 10
4.540847833258471
 20
8.904955766970912
 30
0.0
 11
4.560973867702031
 21
8.904955766970912
 31
0.0
  0
LINE
  5
3015
330
1E
100
AcDbEntity
  8
OBJECT
100
AcDbLine
 10
4.540847833258471
 20
8.924955766970912
 30
0.0
 11
4.540847833258471
 21
8.904955766970912
 31
0.0
  0
LINE
  5
3016
330
1E
100
AcDbEntity
  8
OBJECT
100
AcDbLine
 10
4.595954976728293
 20
9.495893266970584
 30
0.0
 11
4.575811200826692
 21
9.111527125585768
 31
0.0
  0
LINE
  5
3017
330
1E
100
AcDbEntity
  8
HIDDEN
100
AcDbLine
 10
4.671868102574396
 20
9.501440878332346
 30
0.0
 11
4.646215274895787
 21
9.011955766970912
 31
0.0
  0
LINE
  5
3018
330
1E
100
AcDbEntity
  8
OBJECT
100
AcDbLine
 10
4.797750280178338
 20
9.495893266970584
 30
0.0
 11
4.777551648051868
 21
9.110480406460908
 31
0.0
  0
LINE
  5
3019
330
1E
100
AcDbEntity
  8
OBJECT
100
AcDbLine
 10
4.77772283325838
 20
9.495893266970584
 30
0.0
 11
4.757579057356778
 21
9.111527125585768
 31
0.0
  0
LINE
  5
301A
330
1E
100
AcDbEntity
  8
HIDDEN
100
AcDbLine
 10
4.671264435724637
 20
9.495893266970925
 30
0.0
 11
4.671264435724637
 21
9.594330766970971
 31
0.0
  0
LINE
  5
301B
330
1E
100
AcDbEntity
  8
HIDDEN
100
AcDbLine
 10
4.71078533325884
 20
9.535268266970875
 30
0.0
 11
4.71078533325884
 21
9.594330766970971
 31
0.0
  0
LINE
  5
301C
330
1E
100
AcDbEntity
  8
HIDDEN
100
AcDbLine
 10
4.719648061177153
 20
9.60614326697099
 30
0.0
 11
4.719648061177153
 21
9.535268266970875
 31
0.0
  0
LINE
  5
301D
330
1E
100
AcDbEntity
  8
OBJECT
100
AcDbLine
 10
4.77772283325838
 20
9.495893266970584
 30
0.0
 11
4.797750280178338
 21
9.495893266970584
 31
0.0
  0
LINE
  5
301E
330
1E
100
AcDbEntity
  8
OBJECT
100
AcDbLine
 10
4.777722833258543
 20
9.535268266970875
 30
0.0
 11
4.797750280178501
 21
9.535268266970874
 31
0.0
  0
LINE
  5
301F
330
1E
100
AcDbEntity
  8
OBJECT
100
AcDbLine
 10
4.758035333258462
 20
9.535268266970875
 30
0.0
 11
4.758035333258462
 21
9.495893266970584
 31
0.0
  0
LINE
  5
3020
330
1E
100
AcDbEntity
  8
HIDDEN
100
AcDbLine
 10
1.36960750423977
 20
10.09795576697296
 30
0.0
 11
4.642088162277318
 21
10.09795576697021
 31
0.0
  0
LINE
  5
3021
330
1E
100
AcDbEntity
  8
OBJECT
100
AcDbLine
 10
4.285535586750533
 20
10.1455807669706
 30
0.0
 11
1.726160586750602
 21
10.1455807669706
 31
0.0
  0
LINE
  5
3022
330
1E
100
AcDbEntity
  8
OBJECT
100
AcDbLine
 10
4.285535586750533
 20
9.947284593838036
 30
0.0
 11
1.726160586750602
 21
9.947284593838034
 31
0.0
  0
LINE
  5
3023
330
1E
100
AcDbEntity
  8
OBJECT
100
AcDbLine
 10
1.365425430882609
 20
9.904605766970222
 30
0.0
 11
4.646270235634332
 21
9.904605766971132
 31
0.0
  0
LINE
  5
3024
330
1E
100
AcDbEntity
  8
OBJECT
100
AcDbLine
 10
1.380117951804649
 20
10.18495576697294
 30
0.0
 11
4.631577714712292
 21
10.18495576697022
 31
0.0
  0
ARC
  5
3025
330
1E
100
AcDbEntity
  8
OBJECT
100
AcDbCircle
 10
1.380117951804649
 20
10.06683076697116
 30
0.0
 40
0.138125
100
AcDbArc
 50
93.34255445356719
 51
176.9999999999944
  0
ARC
  5
3026
330
1E
100
AcDbEntity
  8
OBJECT
100
AcDbCircle
 10
1.380117951804535
 20
10.06683076697116
 30
0.0
 40
0.118125
100
AcDbArc
 50
90.0
 51
176.9999999999944
  0
ARC
  5
3027
330
1E
100
AcDbEntity
  8
OBJECT
100
AcDbCircle
 10
1.365425430882609
 20
9.786480766971168
 30
0.0
 40
0.118125
100
AcDbArc
 50
90.0
 51
176.9999999999944
  0
LINE
  5
3028
330
1E
100
AcDbEntity
  8
OBJECT
100
AcDbLine
 10
1.470962793886201
 20
10.20472078700527
 30
0.0
 11
1.470962793886201
 21
10.1849557669703
 31
0.0
  0
LINE
  5
3029
330
1E
100
AcDbEntity
  8
OBJECT
100
AcDbLine
 10
1.372064505337853
 20
10.20472078700527
 30
0.0
 11
1.470962793886201
 21
10.20472078700527
 31
0.0
  0
LINE
  5
302A
330
1E
100
AcDbEntity
  8
OBJECT
100
AcDbLine
 10
1.726160586750602
 20
10.18495576697264
 30
0.0
 11
1.726160586750602
 21
9.947284593838036
 31
0.0
  0
LINE
  5
302B
330
1E
100
AcDbEntity
  8
HIDDEN
100
AcDbLine
 10
2.143723086750291
 20
10.10658076697097
 30
0.0
 11
2.056723086750757
 21
10.10658076697097
 31
0.0
  0
LINE
  5
302C
330
1E
100
AcDbEntity
  8
HIDDEN
100
AcDbLine
 10
3.86797308675073
 20
10.10658076697097
 30
0.0
 11
3.954973086750264
 21
10.10658076697097
 31
0.0
  0
LINE
  5
302D
330
1E
100
AcDbEntity
  8
OBJECT
100
AcDbLine
 10
4.285535586750533
 20
10.18495576697049
 30
0.0
 11
4.285535586750533
 21
9.947284593838036
 31
0.0
  0
LINE
  5
302E
330
1E
100
AcDbEntity
  8
OBJECT
100
AcDbLine
 10
4.639631161179089
 20
10.20472078700527
 30
0.0
 11
4.540732872630741
 21
10.20472078700527
 31
0.0
  0
LINE
  5
302F
330
1E
100
AcDbEntity
  8
OBJECT
100
AcDbLine
 10
4.540732872630741
 20
10.20472078700527
 30
0.0
 11
4.540732872630741
 21
10.1849557669703
 31
0.0
  0
ARC
  5
3030
330
1E
100
AcDbEntity
  8
OBJECT
100
AcDbCircle
 10
4.631577714712292
 20
10.06683076697116
 30
0.0
 40
0.138125
100
AcDbArc
 50
3.000000000005605
 51
86.6574455464328
  0
ARC
  5
3031
330
1E
100
AcDbEntity
  8
OBJECT
100
AcDbCircle
 10
4.631577714712292
 20
10.06683076697116
 30
0.0
 40
0.118125
100
AcDbArc
 50
3.000000000005605
 51
90.0
  0
ARC
  5
3032
330
1E
100
AcDbEntity
  8
OBJECT
100
AcDbCircle
 10
4.646270235634332
 20
9.786480766971168
 30
0.0
 40
0.118125
100
AcDbArc
 50
3.000000000005605
 51
90.0
  0
LINE
  5
3033
330
1E
100
AcDbEntity
  8
OBJECT
100
AcDbLine
 10
4.265848469805391
 20
9.239955766970512
 30
0.0
 11
1.745848469800293
 21
9.239955766970512
 31
0.0
  0
LINE
  5
3034
330
1E
100
AcDbEntity
  8
OBJECT
100
AcDbLine
 10
1.745848469800293
 20
9.239955766970512
 30
0.0
 11
1.745847833260981
 21
8.924958313148623
 31
0.0
  0
LINE
  5
3035
330
1E
100
AcDbEntity
  8
OBJECT
100
AcDbLine
 10
4.265848469805504
 20
9.239955766970512
 30
0.0
 11
4.265847833255847
 21
8.9249532207932
 31
0.0
  0
DIMENSION
  5
3036
330
1E
100
AcDbEntity
  8
DIM
100
AcDbDimension
  2
*D10
 10
7.026913784367181
 20
5.580319613095184
 30
0.0
 11
7.804257534367181
 21
5.580319613095184
 31
0.0
 70
    32
 71
     5
 42
0.0866249999999935
  3
23NSTD
100
AcDbAlignedDimension
 13
6.940288784367187
 23
5.59914843398814
 33
0.0
 14
7.026913784367181
 24
5.59914843398814
 34
0.0
100
AcDbRotatedDimension
  0
DIMENSION
  5
304E
330
1E
100
AcDbEntity
  8
DIM
100
AcDbDimension
  2
*D11
 10
7.026913784367202
 20
7.909671328382394
 30
0.0
 11
6.692226284367162
 21
7.909671328382394
 31
0.0
 70
   160
 71
     5
 42
0.6693750000000805
  3
23NSTD
100
AcDbAlignedDimension
 13
6.357538784367122
 23
7.372701824520476
 33
0.0
 14
7.026913784367202
 24
7.222890358964463
 34
0.0
100
AcDbRotatedDimension
  0
TEXT
  5
3066
330
1E
100
AcDbEntity
  8
TEXT
100
AcDbText
 10
7.988181122621554
 20
8.861374698155117
 30
0.0
 40
0.156
  1
  OR #4 STD. SHEET METAL SCREWS x 3/16" LG.
 41
0.75
100
AcDbText
  0
TEXT
  5
3067
330
1E
100
AcDbEntity
  8
TEXT
100
AcDbText
 10
7.988181122621554
 20
9.121374698155118
 30
0.0
 40
0.156
  1
NOTE: MOUNTING BOSSES USE EITHER M2.5 METRIC
 41
0.75
100
AcDbText
  0
TEXT
  5
3068
330
1E
100
AcDbEntity
  8
TEXT
100
AcDbText
 10
7.988181122621554
 20
8.601374698155115
 30
0.0
 40
0.156
  1
  (NOT SUPPLIED)
 41
0.75
100
AcDbText
  0
LINE
  5
306B
330
1E
100
AcDbEntity
  8
OBJECT
100
AcDbLine
 10
8.763286106183912
 20
16.23866199481987
 30
0.0
 11
8.999536106183896
 21
16.23866199481987
 31
0.0
  0
LINE
  5
306C
330
1E
100
AcDbEntity
  8
OBJECT
100
AcDbLine
 10
8.999536106183896
 20
16.19928699481987
 30
0.0
 11
8.80266110618389
 21
16.19928699481987
 31
0.0
  0
LINE
  5
306D
330
1E
100
AcDbEntity
  8
OBJECT
100
AcDbLine
 10
8.763286106183912
 20
16.00241199481987
 30
0.0
 11
8.763286106183912
 21
16.23866199481987
 31
0.0
  0
LINE
  5
306E
330
1E
100
AcDbEntity
  8
OBJECT
100
AcDbLine
 10
8.80266110618389
 20
16.00241199481987
 30
0.0
 11
8.763286106183912
 21
16.00241199481987
 31
0.0
  0
LINE
  5
306F
330
1E
100
AcDbEntity
  8
OBJECT
100
AcDbLine
 10
8.80266110618389
 20
16.19928699481987
 30
0.0
 11
8.80266110618389
 21
16.00241199481987
 31
0.0
  0
LINE
  5
3070
330
1E
100
AcDbEntity
  8
OBJECT
100
AcDbLine
 10
8.999536106183896
 20
16.23866199481987
 30
0.0
 11
8.999536106183896
 21
16.19928699481987
 31
0.0
  0
LINE
  5
3071
330
1E
100
AcDbEntity
  8
OBJECT
100
AcDbLine
 10
10.802892236923
 20
16.23867274357819
 30
0.0
 11
10.80289270630599
 21
16.19929774358098
 31
0.0
  0
LINE
  5
3072
330
1E
100
AcDbEntity
  8
OBJECT
100
AcDbLine
 10
11.03914505320422
 20
16.00242555989299
 30
0.0
 11
11.03914223690621
 21
16.2386755598762
 31
0.0
  0
LINE
  5
3073
330
1E
100
AcDbEntity
  8
OBJECT
100
AcDbLine
 10
10.80289270630599
 20
16.19929774358098
 30
0.0
 11
10.99976770629199
 21
16.199300090496
 31
0.0
  0
LINE
  5
3074
330
1E
100
AcDbEntity
  8
OBJECT
100
AcDbLine
 10
10.99977005320702
 20
16.00242509051
 30
0.0
 11
11.03914505320422
 21
16.00242555989299
 31
0.0
  0
LINE
  5
3075
330
1E
100
AcDbEntity
  8
OBJECT
100
AcDbLine
 10
10.99976770629199
 20
16.199300090496
 30
0.0
 11
10.99977005320702
 21
16.00242509051
 31
0.0
  0
LINE
  5
3076
330
1E
100
AcDbEntity
  8
OBJECT
100
AcDbLine
 10
11.03914223690621
 20
16.2386755598762
 30
0.0
 11
10.802892236923
 21
16.23867274357819
 31
0.0
  0
CIRCLE
  5
3077
330
1E
100
AcDbEntity
  8
OBJECT
100
AcDbCircle
 10
9.901223606183847
 20
14.65578699481988
 30
0.0
 40
0.04921875
  0
LINE
  5
3079
330
1E
100
AcDbEntity
  8
HIDDEN
100
AcDbLine
 10
1.765347833258414
 20
9.759955766970909
 30
0.0
 11
1.765347833258414
 21
9.011955766970912
 31
0.0
  0
LINE
  5
307A
330
1E
100
AcDbEntity
  8
HIDDEN
100
AcDbLine
 10
4.246347833258415
 20
9.759955766970909
 30
0.0
 11
4.246347833258414
 21
9.011955766970912
 31
0.0
  0
LINE
  5
307B
330
1E
100
AcDbEntity
  8
HIDDEN
100
AcDbLine
 10
1.765347833258414
 20
9.759955766970909
 30
0.0
 11
4.246347833258415
 21
9.759955766970909
 31
0.0
  0
LINE
  5
307D
330
1E
100
AcDbEntity
  8
OBJECT
100
AcDbLine
 10
8.6572099347354
 20
14.20401353111954
 30
0.0
 11
8.657210023563772
 21
11.38860071809635
 31
0.0
  0
LINE
  5
307E
330
1E
100
AcDbEntity
  8
OBJECT
100
AcDbLine
 10
8.6572099347354
 20
14.20401353111954
 30
0.0
 11
11.1452099347356
 21
14.20401353111954
 31
0.0
  0
LINE
  5
307F
330
1E
100
AcDbEntity
  8
OBJECT
100
AcDbLine
 10
11.1452099347356
 20
14.20401353111954
 30
0.0
 11
11.14521002356375
 21
11.38860080777335
 31
0.0
  0
LINE
  5
3080
330
1E
100
AcDbEntity
  8
OBJECT
100
AcDbLine
 10
4.249848437473052
 20
9.223955766970512
 30
0.0
 11
1.761848437467909
 21
9.223955766970512
 31
0.0
  0
LINE
  5
3081
330
1E
100
AcDbEntity
  8
OBJECT
100
AcDbLine
 10
4.249848437473052
 20
9.223955766970512
 30
0.0
 11
4.24984783325588
 21
8.92495325312562
 31
0.0
  0
LINE
  5
3082
330
1E
100
AcDbEntity
  8
OBJECT
100
AcDbLine
 10
1.761848437467909
 20
9.223955766970512
 30
0.0
 11
1.761847833260948
 21
8.924958280816206
 31
0.0
  0
CIRCLE
  5
308E
330
1E
100
AcDbEntity
  8
OBJECT
100
AcDbCircle
 10
9.901223606183847
 20
5.13603778822047
 30
0.0
 40
0.118
  0
LINE
  5
3090
330
1E
100
AcDbEntity
  8
OBJECT
100
AcDbLine
 10
6.743413784367177
 20
5.03760035778972
 30
0.0
 11
6.940288784367155
 21
5.017912857789575
 31
0.0
  0
LINE
  5
3091
330
1E
100
AcDbEntity
  8
OBJECT
100
AcDbLine
 10
6.743413784367177
 20
5.234475357790266
 30
0.0
 11
6.940288784367155
 21
5.254162857789502
 31
0.0
  0
LINE
  5
3092
330
1E
100
AcDbEntity
  8
OBJECT
100
AcDbLine
 10
6.743413784367177
 20
5.234475357790266
 30
0.0
 11
6.743413784367177
 21
5.03760035778972
 31
0.0
  0
HATCH
  5
318A
330
1E
100
AcDbEntity
  8
OBJECT
100
AcDbHatch
 10
0.0
 20
0.0
 30
0.0
210
0.0
220
0.0
230
1.0
  2
ANSI31
 70
     0
 71
     0
 91
        3
 92
        7
 72
     1
 73
     1
 93
       18
 10
6.840342425752449
 20
7.41949554861876
 42
0.0
 10
6.455976284367167
 20
7.439639324520243
 42
0.0
 10
6.455976284367168
 20
7.419951824520097
 42
0.0
 10
6.416601284367216
 20
7.419951824520096
 42
0.0
 10
6.416601284367219
 20
7.372701824520476
 42
0.0
 10
6.357538784367122
 20
7.372701824520476
 42
0.0
 10
6.357538784367108
 20
7.333180926986273
 42
0.0
 10
6.455976284367143
 20
7.333180926986273
 42
0.0
 10
6.940288784367155
 20
7.307799184382559
 42
0.0
 10
6.940288784367155
 20
7.124639324122285
 42
0.0
 10
6.534851284367093
 20
7.124639324122283
 42
0.0
 10
6.534851284367093
 20
7.065576824121849
 42
0.0
 10
6.416601284367217
 20
7.065576824121849
 42
0.0
 10
6.416601284367218
 20
7.010451824121986
 42
0.0
 10
6.52860128436707
 20
7.010451824121076
 42
0.0
 10
6.587663784367051
 20
7.069514324121512
 42
0.0
 10
7.026913784367181
 20
7.069514324122422
 42
0.0
 10
7.026913784367181
 20
7.222890358964463
 42
0.3989595459730548
 97
        0
 92
        7
 72
     1
 73
     1
 93
       44
 10
7.026913784367181
 20
6.455264324520388
 42
0.4142135623735708
 10
7.046601284367213
 20
6.474951824520388
 42
0.0
 10
7.046601284367213
 20
6.632451824520643
 42
0.4142135623735708
 10
7.026913784367181
 20
6.652139324520643
 42
0.0
 10
7.026913784367181
 20
6.825389324122254
 42
0.0
 10
6.587663784367053
 20
6.825389324121346
 42
0.0
 10
6.528601284367069
 20
6.884451824121782
 42
0.0
 10
6.416601284367216
 20
6.884451824121782
 42
0.0
 10
6.416601284367218
 20
6.82932682412192
 42
0.0
 10
6.534851284367092
 20
6.82932682412192
 42
0.0
 10
6.534851284367093
 20
6.770264324122393
 42
0.0
 10
6.940288784367267
 20
6.770264324122393
 42
0.0
 10
6.940288784367266
 20
6.671826824520036
 42
0.0
 10
6.743413784367178
 20
6.652139324520788
 42
0.0
 10
6.743413784367178
 20
6.597014324520017
 42
0.0
 10
6.979663784367217
 20
6.597014324520017
 42
0.0
 10
6.979663784367218
 20
6.510389324520104
 42
0.0
 10
6.743413784367176
 20
6.510389324520104
 42
0.0
 10
6.743413784367175
 20
6.455264324520243
 42
0.0
 10
6.940288784367268
 20
6.435576824520087
 42
0.0
 10
6.940288784367175
 20
5.01803778822047
 42
0.0
 10
6.979663784367219
 20
5.01803778822047
 42
0.0
 10
6.979663784367219
 20
4.880264394089493
 42
0.0
 10
6.952101284367173
 20
4.880264394089492
 42
0.0
 10
6.952101284367174
 20
4.840889394090112
 42
0.0
 10
6.979663784367218
 20
4.813326894089724
 42
0.0
 10
6.979663784367219
 20
4.703076824520024
 42
0.0
 10
7.026913784367181
 20
4.703076824520024
 42
0.0
 10
7.026913784367181
 20
4.88026432452057
 42
0.4142135623735708
 10
7.046601284367213
 20
4.89995182452057
 42
0.0
 10
7.046601284367213
 20
5.057451824519915
 42
0.4142135623735708
 10
7.026913784367181
 20
5.077139324519915
 42
0.0
 10
7.026913784367181
 20
5.274014324520752
 42
0.4142135623735708
 10
7.046601284367213
 20
5.293701824520752
 42
0.0
 10
7.046601284367213
 20
5.451201824520097
 42
0.4142135623735708
 10
7.026913784367181
 20
5.470889324520097
 42
0.0
 10
7.026913784367181
 20
5.667764324520025
 42
0.4142135623735708
 10
7.046601284367213
 20
5.687451824520024
 42
0.0
 10
7.046601284367213
 20
5.844951824520279
 42
0.4142135623735708
 10
7.026913784367181
 20
5.864639324520279
 42
0.0
 10
7.026913784367181
 20
6.061514324520206
 42
0.4142135623735708
 10
7.046601284367213
 20
6.081201824520206
 42
0.0
 10
7.046601284367213
 20
6.238701824520461
 42
0.4142135623735708
 10
7.026913784367181
 20
6.258389324520461
 42
0.0
 97
        0
 92
        7
 72
     0
 73
     1
 93
       21
 10
6.459913784367174
 20
4.616276497421125
 10
6.782788784367127
 20
4.621912301510064
 10
6.782788784367127
 20
4.680983798384863
 10
6.192163784367195
 20
4.670674400661113
 10
6.192163784367083
 20
2.329961594516674
 10
6.652851284367145
 20
2.321920264292742
 10
6.652851284367145
 20
1.84704050360105
 10
6.455976284367175
 20
1.836722722054759
 10
6.357538784367122
 20
1.836722722054758
 10
6.357538784367123
 20
1.797201824520556
 10
6.416601284367217
 20
1.797201824520556
 10
6.416601284367218
 20
1.749951824520025
 10
6.455976284367166
 20
1.749951824520024
 10
6.455976284367167
 20
1.730264324520788
 10
6.711913784367126
 20
1.743677440530965
 10
6.711913784367127
 20
2.379960821395283
 10
6.251226284367177
 20
2.38800215161936
 10
6.251226284367177
 20
4.533683577041842
 10
6.782788784367127
 20
4.533683577041842
 10
6.782788784367127
 20
4.573058577042132
 10
6.459913784367175
 20
4.573058577042132
 97
        0
 75
     0
 76
     1
 52
0.0
 41
0.375
 77
     0
 78
     1
 53
45.0
 43
0.0
 44
0.0
 45
-0.0331456303681194
 46
0.0331456303681194
 79
     0
 47
0.0108196815250625
 98
        3
 10
6.718687958664858
 20
7.365979200238108
 10
7.000211742745676
 20
6.316470093522426
 10
6.383025007728036
 20
4.585321025204905
  0
LINE
  5
31C4
330
1E
100
AcDbEntity
  8
OBJECT
100
AcDbLine
 10
5.853538784367103
 20
7.065576786312334
 30
0.0
 11
5.853538784367103
 21
7.303672071763315
 31
0.0
  0
LINE
  5
31C5
330
1E
100
AcDbEntity
  8
HIDDEN
100
AcDbLine
 10
5.880701791725758
 20
6.843437310726085
 30
0.0
 11
5.873241286418348
 21
6.991325965452773
 31
0.0
  0
HATCH
  5
31FA
330
1E
100
AcDbEntity
  8
OBJECT
100
AcDbHatch
 10
0.0
 20
0.0
 30
0.0
210
0.0
220
0.0
230
1.0
  2
ANSI31
 70
     0
 71
     0
 91
        1
 92
        7
 72
     1
 73
     1
 93
       30
 10
6.345726284367104
 20
7.381564552438789
 42
0.0
 10
6.416601284367218
 20
7.381564552438789
 42
0.0
 10
6.416601284367217
 20
7.439639324520243
 42
0.0
 10
5.878856599536004
 20
7.411457319767213
 42
0.3989595459737535
 10
5.76691378436719
 20
7.293494205974326
 42
0.0
 10
5.76691378436719
 20
6.950408302439059
 42
0.0
 10
5.80628878436714
 20
6.950408302439059
 42
0.0
 10
6.043959957499665
 20
2.225408302438693
 42
0.0
 10
6.004584957499794
 20
2.225408302438694
 42
0.0022962119926461
 10
6.046977031375533
 20
1.848047910457474
 42
0.3655880294957647
 10
6.158119665838628
 20
1.743810772133283
 42
0.0
 10
6.416601284367218
 20
1.730264324520789
 42
0.0
 10
6.416601284367216
 20
1.794252052438963
 42
0.0
 10
6.345726284367103
 20
1.794252052438963
 42
0.0
 10
6.345726284367103
 20
1.836310010792288
 42
0.0
 10
6.134271000550768
 20
1.847391912635054
 42
-0.0020485855727902
 10
6.096275465734045
 20
2.183323584977007
 42
0.0
 10
6.115682814944916
 20
2.185438156745107
 42
0.0
 10
5.881413622139477
 20
6.829326786312407
 42
0.0
 10
6.416601284367217
 20
6.829326786312406
 42
0.0
 10
6.416601284367217
 20
6.876576786312028
 42
0.0
 10
6.388913784367145
 20
6.903951786312604
 42
0.0
 10
5.916663784367089
 20
6.903951786312603
 42
0.0
 10
5.916663784367091
 20
6.990951786312137
 42
0.0
 10
6.388913784367034
 20
6.990951786312137
 42
0.0
 10
6.416601284367217
 20
7.018326786311915
 42
0.0
 10
6.416601284367217
 20
7.065576786312335
 42
0.0
 10
5.853538784367103
 20
7.065576786312333
 42
0.0
 10
5.853538784367104
 20
7.303672071763315
 42
0.0
 10
6.345726284367102
 20
7.3294665256295
 42
0.0
 97
        0
 75
     0
 76
     1
 52
90.0
 41
0.5
 77
     0
 78
     1
 53
135.0
 43
0.0
 44
0.0
 45
-0.0441941738241592
 46
-0.0441941738241592
 79
     0
 47
0.0121301466022317
 98
        1
 10
6.015648267998159
 20
7.33777188897973
  0
ENDSEC
  0
SECTION
  2
OBJECTS
  0
DICTIONARY
  5
C
330
0
100
AcDbDictionary
281
     1
  3
ACAD_GROUP
350
D
  3
ACAD_LAYOUT
350
19
  3
ACAD_MLINESTYLE
350
16
  3
ACAD_PLOTSETTINGS
350
18
  3
ACAD_PLOTSTYLENAME
350
E
  3
AcadDim
350
56
  3
AcDbVariableDictionary
350
1A41
  0
DICTIONARY
  5
D
102
{ACAD_REACTORS
330
C
102
}
330
C
100
AcDbDictionary
281
     1
  0
DICTIONARY
  5
19
102
{ACAD_REACTORS
330
C
102
}
330
C
100
AcDbDictionary
281
     1
  3
Layout1
350
1D
  3
Model
350
21
  0
DICTIONARY
  5
16
102
{ACAD_REACTORS
330
C
102
}
330
C
100
AcDbDictionary
281
     1
  3
Standard
350
17
  0
DICTIONARY
  5
18
102
{ACAD_REACTORS
330
C
102
}
330
C
100
AcDbDictionary
281
     1
  0
ACDBDICTIONARYWDFLT
  5
E
102
{ACAD_REACTORS
330
C
102
}
330
C
100
AcDbDictionary
281
     1
  3
Normal
350
F
100
AcDbDictionaryWithDefault
340
F
  0
XRECORD
  5
56
102
{ACAD_REACTORS
330
C
102
}
330
C
100
AcDbXrecord
280
     1
 90
   990106
  3

 60
     0
 61
     0
 62
     1
 63
     1
 64
     0
 65
     0
 66
     0
 67
     3
 68
     1
 69
     0
 70
     0
 71
     0
 72
     0
 40
0.0
170
     2
340
249D
  0
DICTIONARY
  5
1A41
102
{ACAD_REACTORS
330
C
102
}
330
C
100
AcDbDictionary
281
     1
  3
SORTENTS
350
1A42
  0
LAYOUT
  5
1D
102
{ACAD_REACTORS
330
19
102
}
330
19
100
AcDbPlotSettings
  1

  2
C:\Program Files\ACAD2000\plotters\DWF ePlot.pc3
  4

  6

 40
0.0
 41
0.0
 42
0.0
 43
0.0
 44
0.0
 45
0.0
 46
0.0
 47
0.0
 48
0.0
 49
0.0
140
0.0
141
0.0
142
1.0
143
1.0
 70
   688
 72
     0
 73
     0
 74
     5
  7
monochrome.ctb
 75
    16
147
1.0
148
0.0
149
0.0
100
AcDbLayout
  1
Layout1
 70
     1
 71
     1
 10
0.0
 20
0.0
 11
12.0
 21
9.0
 12
0.0
 22
0.0
 32
0.0
 14
1.000000000000000E+20
 24
1.000000000000000E+20
 34
1.000000000000000E+20
 15
-1.000000000000000E+20
 25
-1.000000000000000E+20
 35
-1.000000000000000E+20
146
0.0
 13
0.0
 23
0.0
 33
0.0
 16
1.0
 26
0.0
 36
0.0
 17
0.0
 27
1.0
 37
0.0
 76
     0
330
1A
  0
LAYOUT
  5
21
102
{ACAD_REACTORS
330
19
102
}
330
19
100
AcDbPlotSettings
  1

  2
RICOH Aficio 1060 PCL 6
  4
Letter
  6

 40
5.027083396911621
 41
5.027085304260253
 42
5.027084350585937
 43
5.027069091796875
 44
215.8999938964843
 45
279.3999938964843
 46
11.68399999999999
 47
0.0
 48
14.60342301250534
 49
0.0
140
27.85342301250534
141
19.57499999999999
142
1.0
143
1.846085122039206
 70
 11956
 72
     0
 73
     0
 74
     1
  7
monochrome.ctb
 75
     0
147
0.5416868312634409
148
0.0102699073383491
149
0.0151723348036896
100
AcDbLayout
  1
Model
 70
     1
 71
     0
 10
0.0
 20
0.0
 11
12.0
 21
9.0
 12
0.0
 22
0.0
 32
0.0
 14
0.0
 24
0.0
 34
0.0
 15
0.0
 25
0.0
 35
0.0
146
0.0
 13
0.0
 23
0.0
 33
0.0
 16
1.0
 26
0.0
 36
0.0
 17
0.0
 27
1.0
 37
0.0
 76
     0
330
1E
  0
MLINESTYLE
  5
17
102
{ACAD_REACTORS
330
16
102
}
330
16
100
AcDbMlineStyle
  2
STANDARD
 70
     0
  3

 62
   256
 51
90.0
 52
90.0
 71
     2
 49
0.5
 62
   256
  6
BYLAYER
 49
-0.5
 62
   256
  6
BYLAYER
  0
ACDBPLACEHOLDER
  5
F
102
{ACAD_REACTORS
330
E
102
}
330
E
  0
DICTIONARYVAR
  5
1A42
102
{ACAD_REACTORS
330
1A41
102
}
330
1A41
100
DictionaryVariables
280
     0
  1
96
  0
ENDSEC
  0
EOF
