  0
SECTION
  2
HEADER
  9
$ACADVER
  1
AC1015
  9
$ACADMAINTVER
 70
     6
  9
$DWGCODEPAGE
  3
ANSI_1252
  9
$INSBASE
 10
0.0
 20
0.0
 30
0.0
  9
$EXTMIN
 10
0.0
 20
0.0
 30
0.0
  9
$EXTMAX
 10
29.05
 20
16.90499999999999
 30
0.0
  9
$LIMMIN
 10
0.0
 20
0.0
  9
$LIMMAX
 10
11.0
 20
8.5
  9
$ORTHOMODE
 70
     0
  9
$REGENMODE
 70
     1
  9
$FILLMODE
 70
     1
  9
$QTEXTMODE
 70
     0
  9
$MIRRTEXT
 70
     0
  9
$LTSCALE
 40
0.5
  9
$ATTMODE
 70
     1
  9
$TEXTSIZE
 40
0.218
  9
$TRACEWID
 40
0.05
  9
$TEXTSTYLE
  7
TXT
  9
$CLAYER
  8
TEXT
  9
$CELTYPE
  6
ByLayer
  9
$CECOLOR
 62
   256
  9
$CELTSCALE
 40
1.0
  9
$DISPSILH
 70
     0
  9
$DIMSCALE
 40
1.75
  9
$DIMASZ
 40
0.18
  9
$DIMEXO
 40
0.063
  9
$DIMDLI
 40
0.281
  9
$DIMRND
 40
0.0
  9
$DIMDLE
 40
0.0
  9
$DIMEXE
 40
0.093
  9
$DIMTP
 40
0.0
  9
$DIMTM
 40
0.0
  9
$DIMTXT
 40
0.125
  9
$DIMCEN
 40
0.09
  9
$DIMTSZ
 40
0.0
  9
$DIMTOL
 70
     0
  9
$DIMLIM
 70
     0
  9
$DIMTIH
 70
     1
  9
$DIMTOH
 70
     1
  9
$DIMSE1
 70
     0
  9
$DIMSE2
 70
     0
  9
$DIMTAD
 70
     0
  9
$DIMZIN
 70
     0
  9
$DIMBLK
  1

  9
$DIMASO
 70
     1
  9
$DIMSHO
 70
     1
  9
$DIMPOST
  1

  9
$DIMAPOST
  1

  9
$DIMALT
 70
     0
  9
$DIMALTD
 70
     2
  9
$DIMALTF
 40
25.4
  9
$DIMLFAC
 40
1.0
  9
$DIMTOFL
 70
     0
  9
$DIMTVP
 40
0.0
  9
$DIMTIX
 70
     0
  9
$DIMSOXD
 70
     0
  9
$DIMSAH
 70
     0
  9
$DIMBLK1
  1

  9
$DIMBLK2
  1

  9
$DIMSTYLE
  2
23NSTD
  9
$DIMCLRD
 70
     0
  9
$DIMCLRE
 70
     0
  9
$DIMCLRT
 70
     0
  9
$DIMTFAC
 40
1.0
  9
$DIMGAP
 40
0.09
  9
$DIMJUST
 70
     0
  9
$DIMSD1
 70
     0
  9
$DIMSD2
 70
     0
  9
$DIMTOLJ
 70
     1
  9
$DIMTZIN
 70
     0
  9
$DIMALTZ
 70
     0
  9
$DIMALTTZ
 70
     0
  9
$DIMUPT
 70
     0
  9
$DIMDEC
 70
     3
  9
$DIMTDEC
 70
     3
  9
$DIMALTU
 70
     2
  9
$DIMALTTD
 70
     2
  9
$DIMTXSTY
  7
TXT
  9
$DIMAUNIT
 70
     0
  9
$DIMADEC
 70
     2
  9
$DIMALTRND
 40
0.0
  9
$DIMAZIN
 70
     0
  9
$DIMDSEP
 70
    46
  9
$DIMATFIT
 70
     1
  9
$DIMFRAC
 70
     0
  9
$DIMLDRBLK
  1

  9
$DIMLUNIT
 70
     2
  9
$DIMLWD
 70
    -2
  9
$DIMLWE
 70
    -2
  9
$DIMTMOVE
 70
     0
  9
$LUNITS
 70
     2
  9
$LUPREC
 70
     8
  9
$SKETCHINC
 40
0.1
  9
$FILLETRAD
 40
0.0
  9
$AUNITS
 70
     0
  9
$AUPREC
 70
     7
  9
$MENU
  1
acad
  9
$ELEVATION
 40
0.0
  9
$PELEVATION
 40
0.0
  9
$THICKNESS
 40
0.0
  9
$LIMCHECK
 70
     0
  9
$CHAMFERA
 40
0.0
  9
$CHAMFERB
 40
0.0
  9
$CHAMFERC
 40
0.0
  9
$CHAMFERD
 40
0.0
  9
$SKPOLY
 70
     0
  9
$TDCREATE
 40
2454229.327248252
  9
$TDUCREATE
 40
2454229.493914918
  9
$TDUPDATE
 40
2454245.498902627
  9
$TDUUPDATE
 40
2454245.665569294
  9
$TDINDWG
 40
0.9105745602
  9
$TDUSRTIMER
 40
0.9105745602
  9
$USRTIMER
 70
     1
  9
$ANGBASE
 50
0.0
  9
$ANGDIR
 70
     0
  9
$PDMODE
 70
     0
  9
$PDSIZE
 40
0.0
  9
$PLINEWID
 40
0.0
  9
$SPLFRAME
 70
     0
  9
$SPLINETYPE
 70
     6
  9
$SPLINESEGS
 70
     8
  9
$HANDSEED
  5
36E8
  9
$SURFTAB1
 70
     6
  9
$SURFTAB2
 70
     6
  9
$SURFTYPE
 70
     6
  9
$SURFU
 70
     6
  9
$SURFV
 70
     6
  9
$UCSBASE
  2

  9
$UCSNAME
  2

  9
$UCSORG
 10
0.0
 20
0.0
 30
0.0
  9
$UCSXDIR
 10
1.0
 20
0.0
 30
0.0
  9
$UCSYDIR
 10
0.0
 20
1.0
 30
0.0
  9
$UCSORTHOREF
  2

  9
$UCSORTHOVIEW
 70
     0
  9
$UCSORGTOP
 10
0.0
 20
0.0
 30
0.0
  9
$UCSORGBOTTOM
 10
0.0
 20
0.0
 30
0.0
  9
$UCSORGLEFT
 10
0.0
 20
0.0
 30
0.0
  9
$UCSORGRIGHT
 10
0.0
 20
0.0
 30
0.0
  9
$UCSORGFRONT
 10
0.0
 20
0.0
 30
0.0
  9
$UCSORGBACK
 10
0.0
 20
0.0
 30
0.0
  9
$PUCSBASE
  2

  9
$PUCSNAME
  2

  9
$PUCSORG
 10
0.0
 20
0.0
 30
0.0
  9
$PUCSXDIR
 10
1.0
 20
0.0
 30
0.0
  9
$PUCSYDIR
 10
0.0
 20
1.0
 30
0.0
  9
$PUCSORTHOREF
  2

  9
$PUCSORTHOVIEW
 70
     0
  9
$PUCSORGTOP
 10
0.0
 20
0.0
 30
0.0
  9
$PUCSORGBOTTOM
 10
0.0
 20
0.0
 30
0.0
  9
$PUCSORGLEFT
 10
0.0
 20
0.0
 30
0.0
  9
$PUCSORGRIGHT
 10
0.0
 20
0.0
 30
0.0
  9
$PUCSORGFRONT
 10
0.0
 20
0.0
 30
0.0
  9
$PUCSORGBACK
 10
0.0
 20
0.0
 30
0.0
  9
$USERI1
 70
     0
  9
$USERI2
 70
     0
  9
$USERI3
 70
     0
  9
$USERI4
 70
     0
  9
$USERI5
 70
     0
  9
$USERR1
 40
0.0
  9
$USERR2
 40
0.0
  9
$USERR3
 40
0.0
  9
$USERR4
 40
0.0
  9
$USERR5
 40
0.0
  9
$WORLDVIEW
 70
     1
  9
$SHADEDGE
 70
     3
  9
$SHADEDIF
 70
    70
  9
$TILEMODE
 70
     1
  9
$MAXACTVP
 70
    16
  9
$PINSBASE
 10
0.0
 20
0.0
 30
0.0
  9
$PLIMCHECK
 70
     0
  9
$PEXTMIN
 10
1.000000000000000E+20
 20
1.000000000000000E+20
 30
1.000000000000000E+20
  9
$PEXTMAX
 10
-1.000000000000000E+20
 20
-1.000000000000000E+20
 30
-1.000000000000000E+20
  9
$PLIMMIN
 10
0.0
 20
0.0
  9
$PLIMMAX
 10
12.0
 20
9.0
  9
$UNITMODE
 70
     0
  9
$VISRETAIN
 70
     0
  9
$PLINEGEN
 70
     0
  9
$PSLTSCALE
 70
     1
  9
$TREEDEPTH
 70
  3020
  9
$CMLSTYLE
  2
Standard
  9
$CMLJUST
 70
     0
  9
$CMLSCALE
 40
1.0
  9
$PROXYGRAPHICS
 70
     1
  9
$MEASUREMENT
 70
     0
  9
$CELWEIGHT
370
    -1
  9
$ENDCAPS
280
     0
  9
$JOINSTYLE
280
     0
  9
$LWDISPLAY
290
     0
  9
$INSUNITS
 70
     0
  9
$HYPERLINKBASE
  1

  9
$STYLESHEET
  1
monochrome.ctb
  9
$XEDIT
290
     1
  9
$CEPSNTYPE
380
     0
  9
$PSTYLEMODE
290
     1
  9
$FINGERPRINTGUID
  2
{5F9F434B-8232-11D3-80AD-00C04F604D1B}
  9
$VERSIONGUID
  2
{4DFD1210-D7B6-4AF7-892F-11952FED4606}
  9
$EXTNAMES
290
     1
  9
$PSVPSCALE
 40
0.0
  9
$OLESTARTUP
290
     0
  0
ENDSEC
  0
SECTION
  2
CLASSES
  0
CLASS
  1
ACDBDICTIONARYWDFLT
  2
AcDbDictionaryWithDefault
  3
AutoCAD 2000
 90
        0
280
     0
281
     0
  0
CLASS
  1
ACDBPLACEHOLDER
  2
AcDbPlaceHolder
  3
AutoCAD 2000
 90
        0
280
     0
281
     0
  0
CLASS
  1
LAYOUT
  2
AcDbLayout
  3
AutoCAD 2000
 90
        0
280
     0
281
     0
  0
CLASS
  1
DICTIONARYVAR
  2
AcDbDictionaryVar
  3
AutoCAD 2000
 90
        0
280
     0
281
     0
  0
ENDSEC
  0
SECTION
  2
TABLES
  0
TABLE
  2
VPORT
  5
8
330
0
100
AcDbSymbolTable
 70
     3
  0
VPORT
  5
36E7
330
8
100
AcDbSymbolTableRecord
100
AcDbViewportTableRecord
  2
*Active
 70
     0
 10
0.0
 20
0.0
 11
1.0
 21
1.0
 12
14.525028073757
 22
8.452862582660923
 13
0.0
 23
0.0
 14
0.125
 24
0.125
 15
0.25
 25
0.25
 16
0.0
 26
0.0
 36
1.0
 17
0.0
 27
0.0
 37
0.0
 40
17.07938230942129
 41
1.851027397260273
 42
50.0
 43
0.0
 44
0.0
 50
0.0
 51
0.0
 71
     0
 72
   100
 73
     1
 74
     0
 75
     0
 76
     0
 77
     0
 78
     0
281
     0
 65
     1
110
0.0
120
0.0
130
0.0
111
1.0
121
0.0
131
0.0
112
0.0
122
1.0
132
0.0
 79
     0
146
0.0
  0
ENDTAB
  0
TABLE
  2
LTYPE
  5
5
330
0
100
AcDbSymbolTable
 70
     6
  0
LTYPE
  5
13
330
5
100
AcDbSymbolTableRecord
100
AcDbLinetypeTableRecord
  2
ByBlock
 70
     0
  3

 72
    65
 73
     0
 40
0.0
  0
LTYPE
  5
14
330
5
100
AcDbSymbolTableRecord
100
AcDbLinetypeTableRecord
  2
ByLayer
 70
     0
  3

 72
    65
 73
     0
 40
0.0
  0
LTYPE
  5
15
330
5
100
AcDbSymbolTableRecord
100
AcDbLinetypeTableRecord
  2
CONTINUOUS
 70
     0
  3
Solid line
 72
    65
 73
     0
 40
0.0
  0
LTYPE
  5
22
330
5
100
AcDbSymbolTableRecord
100
AcDbLinetypeTableRecord
  2
HIDDEN
 70
     0
  3
_ _ _ _ _ _ _ _ _ _ _ _ _ _ _ _ _ _ _ _ _ _ _
 72
    65
 73
     2
 40
0.375
 49
0.25
 74
     0
 49
-0.125
 74
     0
  0
LTYPE
  5
23
330
5
100
AcDbSymbolTableRecord
100
AcDbLinetypeTableRecord
  2
PHANTOM
 70
     0
  3
_____ _ _ _____ _ _ _____ _ _ _____ _ _ ____
 72
    65
 73
     6
 40
2.5
 49
1.25
 74
     0
 49
-0.25
 74
     0
 49
0.25
 74
     0
 49
-0.25
 74
     0
 49
0.25
 74
     0
 49
-0.25
 74
     0
  0
LTYPE
  5
24
330
5
100
AcDbSymbolTableRecord
100
AcDbLinetypeTableRecord
  2
CENTER
 70
     0
  3
____ _ ____ _ ____ _ ____ _ ____ _ ____ _ ____
 72
    65
 73
     4
 40
2.0
 49
1.25
 74
     0
 49
-0.25
 74
     0
 49
0.25
 74
     0
 49
-0.25
 74
     0
  0
LTYPE
  5
25
330
5
100
AcDbSymbolTableRecord
100
AcDbLinetypeTableRecord
  2
HIDDEN2
 70
     0
  3
_ _ _ _ _ _ _ _ _ _ _ _ _ _ _ _ _ _ _ _ _ _ _ _
 72
    65
 73
     2
 40
0.1875
 49
0.125
 74
     0
 49
-0.0625
 74
     0
  0
LTYPE
  5
26
330
5
100
AcDbSymbolTableRecord
100
AcDbLinetypeTableRecord
  2
PHANTOM2
 70
     0
  3
___ _ _ ___ _ _ ___ _ _ ___ _ _ ___ _ _ ___ _ _
 72
    65
 73
     6
 40
1.25
 49
0.625
 74
     0
 49
-0.125
 74
     0
 49
0.125
 74
     0
 49
-0.125
 74
     0
 49
0.125
 74
     0
 49
-0.125
 74
     0
  0
ENDTAB
  0
TABLE
  2
LAYER
  5
2
330
0
100
AcDbSymbolTable
 70
     9
  0
LAYER
  5
10
330
2
100
AcDbSymbolTableRecord
100
AcDbLayerTableRecord
  2
0
 70
     0
 62
     7
  6
CONTINUOUS
370
    -3
390
F
  0
LAYER
  5
29
330
2
100
AcDbSymbolTableRecord
100
AcDbLayerTableRecord
  2
OBJECT
 70
     0
 62
     7
  6
CONTINUOUS
370
    -3
390
F
  0
LAYER
  5
2A
330
2
100
AcDbSymbolTableRecord
100
AcDbLayerTableRecord
  2
DIM
 70
     0
 62
     2
  6
CONTINUOUS
370
    -3
390
F
  0
LAYER
  5
2B
330
2
100
AcDbSymbolTableRecord
100
AcDbLayerTableRecord
  2
HIDDEN
 70
     0
 62
     6
  6
HIDDEN
370
    -3
390
F
  0
LAYER
  5
2C
330
2
100
AcDbSymbolTableRecord
100
AcDbLayerTableRecord
  2
BEND
 70
     0
 62
     4
  6
PHANTOM
370
    -3
390
F
  0
LAYER
  5
2D
330
2
100
AcDbSymbolTableRecord
100
AcDbLayerTableRecord
  2
TEXT
 70
     0
 62
     1
  6
CONTINUOUS
370
    -3
390
F
  0
LAYER
  5
2E
330
2
100
AcDbSymbolTableRecord
100
AcDbLayerTableRecord
  2
TITLE
 70
     0
 62
     8
  6
CONTINUOUS
370
    -3
390
F
  0
LAYER
  5
2F
330
2
100
AcDbSymbolTableRecord
100
AcDbLayerTableRecord
  2
CENTER
 70
     0
 62
     3
  6
CENTER
370
    -3
390
F
  0
LAYER
  5
1269
330
2
100
AcDbSymbolTableRecord
100
AcDbLayerTableRecord
  2
Defpoints
 70
     0
 62
     7
  6
CONTINUOUS
290
     0
370
    -3
390
F
  0
ENDTAB
  0
TABLE
  2
STYLE
  5
3
330
0
100
AcDbSymbolTable
 70
     1
  0
STYLE
  5
11
330
3
100
AcDbSymbolTableRecord
100
AcDbTextStyleTableRecord
  2
TXT
 70
     0
 40
0.0
 41
0.75
 50
0.0
 71
     0
 42
0.218
  3
TXT.shx
  4

  0
ENDTAB
  0
TABLE
  2
VIEW
  5
6
330
0
100
AcDbSymbolTable
 70
     0
  0
ENDTAB
  0
TABLE
  2
UCS
  5
7
330
0
100
AcDbSymbolTable
 70
     0
  0
ENDTAB
  0
TABLE
  2
APPID
  5
9
330
0
100
AcDbSymbolTable
 70
     2
  0
APPID
  5
12
330
9
100
AcDbSymbolTableRecord
100
AcDbRegAppTableRecord
  2
ACAD
 70
     0
  0
APPID
  5
171E
330
9
100
AcDbSymbolTableRecord
100
AcDbRegAppTableRecord
  2
DCO15
 70
     0
  0
ENDTAB
  0
TABLE
  2
DIMSTYLE
  5
A
330
0
100
AcDbSymbolTable
 70
     2
100
AcDbDimStyleTable
 71
     2
340
38
340
39
  0
DIMSTYLE
105
38
102
{ACAD_REACTORS
330
1268
330
1277
330
1285
330
12A7
330
12C0
330
12CE
330
12DC
330
12EA
330
2510
330
2528
330
2536
330
267A
330
2688
330
2698
330
2717
330
2866
330
2892
330
28B4
330
28C4
330
28EE
330
2BAA
330
2BA9
330
2BA8
330
2CA4
330
2C96
330
2CC6
330
2CD4
330
2CED
330
2CFB
330
2D15
330
2D23
330
2D6D
330
2D8F
330
2DC5
330
2DD4
330
3027
330
306B
330
3084
330
30FB
330
3094
330
3097
330
309A
102
}
330
A
100
AcDbSymbolTableRecord
100
AcDbDimStyleTableRecord
  2
23NSTD
 70
     0
 40
1.75
 42
0.063
 43
0.281
 44
0.093
140
0.125
179
     2
271
     3
272
     3
289
     1
340
11
  0
DIMSTYLE
105
39
102
{ACAD_REACTORS
330
2739
330
2748
330
2988
330
2BA6
330
2BA7
330
2C46
330
2C6E
330
2C7C
102
}
330
A
100
AcDbSymbolTableRecord
100
AcDbDimStyleTableRecord
  2
23NSTDI
 70
     0
 40
1.75
 42
0.063
 43
0.281
 44
0.093
140
0.125
174
     1
271
     3
272
     3
289
     0
340
11
  0
ENDTAB
  0
TABLE
  2
BLOCK_RECORD
  5
1
330
0
100
AcDbSymbolTable
 70
    48
  0
BLOCK_RECORD
  5
1E
330
1
100
AcDbSymbolTableRecord
100
AcDbBlockTableRecord
  2
*Model_Space
340
21
  0
BLOCK_RECORD
  5
1A
330
1
100
AcDbSymbolTableRecord
100
AcDbBlockTableRecord
  2
*Paper_Space
340
1D
  0
BLOCK_RECORD
  5
1241
330
1
100
AcDbSymbolTableRecord
100
AcDbBlockTableRecord
  2
HBS
340
0
102
{BLKREFS
331
1A9A
102
}
  0
BLOCK_RECORD
  5
126A
330
1
100
AcDbSymbolTableRecord
100
AcDbBlockTableRecord
  2
*D1
340
0
  0
BLOCK_RECORD
  5
1278
330
1
100
AcDbSymbolTableRecord
100
AcDbBlockTableRecord
  2
*D2
340
0
  0
BLOCK_RECORD
  5
1286
330
1
100
AcDbSymbolTableRecord
100
AcDbBlockTableRecord
  2
*D3
340
0
  0
BLOCK_RECORD
  5
12A8
330
1
100
AcDbSymbolTableRecord
100
AcDbBlockTableRecord
  2
*D4
340
0
  0
BLOCK_RECORD
  5
12C1
330
1
100
AcDbSymbolTableRecord
100
AcDbBlockTableRecord
  2
*D5
340
0
  0
BLOCK_RECORD
  5
12CF
330
1
100
AcDbSymbolTableRecord
100
AcDbBlockTableRecord
  2
*D6
340
0
  0
BLOCK_RECORD
  5
12DD
330
1
100
AcDbSymbolTableRecord
100
AcDbBlockTableRecord
  2
*D7
340
0
  0
BLOCK_RECORD
  5
12EB
330
1
100
AcDbSymbolTableRecord
100
AcDbBlockTableRecord
  2
*D8
340
0
  0
BLOCK_RECORD
  5
2511
330
1
100
AcDbSymbolTableRecord
100
AcDbBlockTableRecord
  2
*D9
340
0
  0
BLOCK_RECORD
  5
2529
330
1
100
AcDbSymbolTableRecord
100
AcDbBlockTableRecord
  2
*D10
340
0
  0
BLOCK_RECORD
  5
2537
330
1
100
AcDbSymbolTableRecord
100
AcDbBlockTableRecord
  2
*D11
340
0
  0
BLOCK_RECORD
  5
267B
330
1
100
AcDbSymbolTableRecord
100
AcDbBlockTableRecord
  2
*D12
340
0
  0
BLOCK_RECORD
  5
2689
330
1
100
AcDbSymbolTableRecord
100
AcDbBlockTableRecord
  2
*D13
340
0
  0
BLOCK_RECORD
  5
2699
330
1
100
AcDbSymbolTableRecord
100
AcDbBlockTableRecord
  2
*D14
340
0
  0
BLOCK_RECORD
  5
2718
330
1
100
AcDbSymbolTableRecord
100
AcDbBlockTableRecord
  2
*D15
340
0
  0
BLOCK_RECORD
  5
273A
330
1
100
AcDbSymbolTableRecord
100
AcDbBlockTableRecord
  2
*D16
340
0
  0
BLOCK_RECORD
  5
2749
330
1
100
AcDbSymbolTableRecord
100
AcDbBlockTableRecord
  2
*D17
340
0
  0
BLOCK_RECORD
  5
2867
330
1
100
AcDbSymbolTableRecord
100
AcDbBlockTableRecord
  2
*D18
340
0
  0
BLOCK_RECORD
  5
2893
330
1
100
AcDbSymbolTableRecord
100
AcDbBlockTableRecord
  2
*D19
340
0
  0
BLOCK_RECORD
  5
28B5
330
1
100
AcDbSymbolTableRecord
100
AcDbBlockTableRecord
  2
*D20
340
0
  0
BLOCK_RECORD
  5
28C5
330
1
100
AcDbSymbolTableRecord
100
AcDbBlockTableRecord
  2
*D21
340
0
  0
BLOCK_RECORD
  5
28EF
330
1
100
AcDbSymbolTableRecord
100
AcDbBlockTableRecord
  2
*D22
340
0
  0
BLOCK_RECORD
  5
2989
330
1
100
AcDbSymbolTableRecord
100
AcDbBlockTableRecord
  2
*D23
340
0
  0
BLOCK_RECORD
  5
2BAB
330
1
100
AcDbSymbolTableRecord
100
AcDbBlockTableRecord
  2
*D24
340
0
  0
BLOCK_RECORD
  5
2BB8
330
1
100
AcDbSymbolTableRecord
100
AcDbBlockTableRecord
  2
*D25
340
0
  0
BLOCK_RECORD
  5
2BC5
330
1
100
AcDbSymbolTableRecord
100
AcDbBlockTableRecord
  2
*D26
340
0
  0
BLOCK_RECORD
  5
2BD2
330
1
100
AcDbSymbolTableRecord
100
AcDbBlockTableRecord
  2
*D27
340
0
  0
BLOCK_RECORD
  5
2BDF
330
1
100
AcDbSymbolTableRecord
100
AcDbBlockTableRecord
  2
*D28
340
0
  0
BLOCK_RECORD
  5
2C47
330
1
100
AcDbSymbolTableRecord
100
AcDbBlockTableRecord
  2
*D29
340
0
  0
BLOCK_RECORD
  5
2C6F
330
1
100
AcDbSymbolTableRecord
100
AcDbBlockTableRecord
  2
*D30
340
0
  0
BLOCK_RECORD
  5
2C7D
330
1
100
AcDbSymbolTableRecord
100
AcDbBlockTableRecord
  2
*D31
340
0
  0
BLOCK_RECORD
  5
2C97
330
1
100
AcDbSymbolTableRecord
100
AcDbBlockTableRecord
  2
*D32
340
0
  0
BLOCK_RECORD
  5
2CA5
330
1
100
AcDbSymbolTableRecord
100
AcDbBlockTableRecord
  2
*D33
340
0
  0
BLOCK_RECORD
  5
2CC7
330
1
100
AcDbSymbolTableRecord
100
AcDbBlockTableRecord
  2
*D34
340
0
  0
BLOCK_RECORD
  5
2CD5
330
1
100
AcDbSymbolTableRecord
100
AcDbBlockTableRecord
  2
*D35
340
0
  0
BLOCK_RECORD
  5
2CEE
330
1
100
AcDbSymbolTableRecord
100
AcDbBlockTableRecord
  2
*D36
340
0
  0
BLOCK_RECORD
  5
2CFC
330
1
100
AcDbSymbolTableRecord
100
AcDbBlockTableRecord
  2
*D37
340
0
  0
BLOCK_RECORD
  5
2D16
330
1
100
AcDbSymbolTableRecord
100
AcDbBlockTableRecord
  2
*D38
340
0
  0
BLOCK_RECORD
  5
2D24
330
1
100
AcDbSymbolTableRecord
100
AcDbBlockTableRecord
  2
*D39
340
0
  0
BLOCK_RECORD
  5
2D6E
330
1
100
AcDbSymbolTableRecord
100
AcDbBlockTableRecord
  2
*D40
340
0
  0
BLOCK_RECORD
  5
2D90
330
1
100
AcDbSymbolTableRecord
100
AcDbBlockTableRecord
  2
*D41
340
0
  0
BLOCK_RECORD
  5
2DC6
330
1
100
AcDbSymbolTableRecord
100
AcDbBlockTableRecord
  2
*D42
340
0
  0
BLOCK_RECORD
  5
2DD5
330
1
100
AcDbSymbolTableRecord
100
AcDbBlockTableRecord
  2
*D43
340
0
  0
BLOCK_RECORD
  5
3028
330
1
100
AcDbSymbolTableRecord
100
AcDbBlockTableRecord
  2
*D44
340
0
  0
BLOCK_RECORD
  5
306C
330
1
100
AcDbSymbolTableRecord
100
AcDbBlockTableRecord
  2
*D45
340
0
  0
BLOCK_RECORD
  5
3085
330
1
100
AcDbSymbolTableRecord
100
AcDbBlockTableRecord
  2
*D46
340
0
  0
BLOCK_RECORD
  5
30FC
330
1
100
AcDbSymbolTableRecord
100
AcDbBlockTableRecord
  2
*D47
340
0
  0
ENDTAB
  0
ENDSEC
  0
SECTION
  2
BLOCKS
  0
BLOCK
  5
33
330
1E
100
AcDbEntity
  8
0
100
AcDbBlockBegin
  2
*Model_Space
 70
     0
 10
0.0
 20
0.0
 30
0.0
  3
*Model_Space
  1

  0
ENDBLK
  5
34
330
1E
100
AcDbEntity
  8
0
100
AcDbBlockEnd
  0
BLOCK
  5
31
330
1A
100
AcDbEntity
 67
     1
  8
0
100
AcDbBlockBegin
  2
*Paper_Space
 70
     0
 10
0.0
 20
0.0
 30
0.0
  3
*Paper_Space
  1

  0
ENDBLK
  5
32
330
1A
100
AcDbEntity
 67
     1
  8
0
100
AcDbBlockEnd
  0
BLOCK
  5
1258
330
1241
100
AcDbEntity
  8
0
100
AcDbBlockBegin
  2
HBS
 70
     0
 10
0.0
 20
0.0
 30
0.0
  3
HBS
  1

  0
LINE
  5
1242
330
1241
100
AcDbEntity
  8
TITLE
100
AcDbLine
 10
0.0619999999999976
 20
9.179999999999999
 30
0.0
 11
16.53799999999999
 21
9.180000000000003
 31
0.0
  0
TEXT
  5
1243
330
1241
100
AcDbEntity
  8
TEXT
100
AcDbText
 10
0.2078333333333345
 20
9.220079195640078
 30
0.0
 40
0.125
  1
NAME
 72
     1
 11
0.4370000000000012
 21
9.220079195640078
 31
0.0
100
AcDbText
  0
TEXT
  5
1244
330
1241
100
AcDbEntity
  8
TEXT
100
AcDbText
 10
0.2078333333333345
 20
9.42841252897341
 30
0.0
 40
0.125
  1
PART
 72
     1
 11
0.4370000000000012
 21
9.42841252897341
 31
0.0
100
AcDbText
  0
LINE
  5
1245
330
1241
100
AcDbEntity
  8
TITLE
100
AcDbLine
 10
0.8120000000000011
 20
9.179999999999999
 30
0.0
 11
0.8119999999999976
 21
9.597999999999998
 31
0.0
  0
TEXT
  5
1246
330
1241
100
AcDbEntity
  8
TEXT
100
AcDbText
 10
7.207833333333332
 20
9.42841252897341
 30
0.0
 40
0.125
  1
PART
 72
     1
 11
7.436999999999999
 21
9.42841252897341
 31
0.0
100
AcDbText
  0
TEXT
  5
1247
330
1241
100
AcDbEntity
  8
TEXT
100
AcDbText
 10
7.311999999999999
 20
9.220079195640078
 30
0.0
 40
0.125
  1
No.
 72
     1
 11
7.436999999999999
 21
9.220079195640078
 31
0.0
100
AcDbText
  0
LINE
  5
1248
330
1241
100
AcDbEntity
  8
TITLE
100
AcDbLine
 10
7.061999999999999
 20
9.597999999999998
 30
0.0
 11
7.061999999999999
 21
9.179999999999999
 31
0.0
  0
LINE
  5
1249
330
1241
100
AcDbEntity
  8
TITLE
100
AcDbLine
 10
7.000000000000001
 20
9.597999999999998
 30
0.0
 11
7.000000000000001
 21
9.179999999999999
 31
0.0
  0
LINE
  5
124A
330
1241
100
AcDbEntity
  8
TITLE
100
AcDbLine
 10
7.811999999999999
 20
9.597999999999998
 30
0.0
 11
7.811999999999999
 21
9.179999999999999
 31
0.0
  0
LINE
  5
124B
330
1241
100
AcDbEntity
  8
TITLE
100
AcDbLine
 10
16.6
 20
9.659999999999996
 30
0.0
 11
16.59999999999999
 21
0.0
 31
0.0
  0
LINE
  5
124C
330
1241
100
AcDbEntity
  8
TITLE
100
AcDbLine
 10
16.59999999999999
 20
0.0
 30
0.0
 11
0.0
 21
0.0
 31
0.0
  0
LINE
  5
124D
330
1241
100
AcDbEntity
  8
TITLE
100
AcDbLine
 10
0.0
 20
0.0
 30
0.0
 11
0.0
 21
9.659999999999996
 31
0.0
  0
LINE
  5
124E
330
1241
100
AcDbEntity
  8
TITLE
100
AcDbLine
 10
0.0
 20
9.659999999999996
 30
0.0
 11
16.6
 21
9.659999999999996
 31
0.0
  0
LINE
  5
124F
330
1241
100
AcDbEntity
  8
TITLE
100
AcDbLine
 10
16.53799999999999
 20
9.598000000000006
 30
0.0
 11
16.53799999999999
 21
0.0620000000000012
 31
0.0
  0
LINE
  5
1250
330
1241
100
AcDbEntity
  8
TITLE
100
AcDbLine
 10
16.53799999999999
 20
0.0620000000000012
 30
0.0
 11
0.0620000000000012
 21
0.0620000000000012
 31
0.0
  0
LINE
  5
1251
330
1241
100
AcDbEntity
  8
TITLE
100
AcDbLine
 10
0.0620000000000012
 20
0.0620000000000012
 30
0.0
 11
0.0620000000000012
 21
9.597999999999998
 31
0.0
  0
LINE
  5
1252
330
1241
100
AcDbEntity
  8
TITLE
100
AcDbLine
 10
0.0620000000000012
 20
9.597999999999998
 30
0.0
 11
16.53799999999999
 21
9.598000000000006
 31
0.0
  0
LINE
  5
1253
330
1241
100
AcDbEntity
  8
TITLE
100
AcDbLine
 10
13.99999113305
 20
9.597999999999998
 30
0.0
 11
13.99999113305
 21
9.179999999999999
 31
0.0
  0
LINE
  5
1254
330
1241
100
AcDbEntity
  8
TITLE
100
AcDbLine
 10
14.81199113305
 20
9.597999999999998
 30
0.0
 11
14.81199113305
 21
9.179999999999999
 31
0.0
  0
LINE
  5
1255
330
1241
100
AcDbEntity
  8
TITLE
100
AcDbLine
 10
14.06199113305
 20
9.597999999999998
 30
0.0
 11
14.06199113305
 21
9.179999999999999
 31
0.0
  0
TEXT
  5
1256
330
1241
100
AcDbEntity
  8
TEXT
100
AcDbText
 10
14.20782446638333
 20
9.220079195640078
 30
0.0
 40
0.125
  1
DATE
 72
     1
 11
14.43699113305
 21
9.220079195640078
 31
0.0
100
AcDbText
  0
TEXT
  5
1257
330
1241
100
AcDbEntity
  8
TEXT
100
AcDbText
 10
14.22865779971667
 20
9.42841252897341
 30
0.0
 40
0.125
  1
REV.
 72
     1
 11
14.43699113305
 21
9.42841252897341
 31
0.0
100
AcDbText
  0
ENDBLK
  5
1259
330
1241
100
AcDbEntity
  8
0
100
AcDbBlockEnd
  0
BLOCK
  5
1275
330
126A
100
AcDbEntity
  8
0
100
AcDbBlockBegin
  2
*D1
 70
     1
 10
0.0
 20
0.0
 30
0.0
  3
*D1
  1

  0
LINE
  5
3689
330
126A
100
AcDbEntity
  8
DIM
 62
     0
370
    -2
100
AcDbLine
 10
14.85270760392958
 20
11.05837507980359
 30
0.0
 11
14.85270760392958
 21
12.15370839639273
 31
0.0
  0
LINE
  5
368A
330
126A
100
AcDbEntity
  8
DIM
 62
     0
370
    -2
100
AcDbLine
 10
18.11270760392958
 20
11.05837507980359
 30
0.0
 11
18.11270760392958
 21
12.15370839639273
 31
0.0
  0
LINE
  5
368B
330
126A
100
AcDbEntity
  8
DIM
 62
     0
370
    -2
100
AcDbLine
 10
15.16770760392958
 20
11.99095839639273
 30
0.0
 11
16.01075447892958
 21
11.99095839639273
 31
0.0
  0
LINE
  5
368C
330
126A
100
AcDbEntity
  8
DIM
 62
     0
370
    -2
100
AcDbLine
 10
17.79770760392958
 20
11.99095839639273
 30
0.0
 11
16.95466072892958
 21
11.99095839639273
 31
0.0
  0
SOLID
  5
368D
330
126A
100
AcDbEntity
  8
DIM
 62
     0
100
AcDbTrace
 10
15.16770760392958
 20
12.04345839639273
 30
0.0
 11
15.16770760392958
 21
11.93845839639273
 31
0.0
 12
14.85270760392958
 22
11.99095839639273
 32
0.0
 13
14.85270760392958
 23
11.99095839639273
 33
0.0
  0
SOLID
  5
368E
330
126A
100
AcDbEntity
  8
DIM
 62
     0
100
AcDbTrace
 10
17.79770760392958
 20
12.04345839639273
 30
0.0
 11
17.79770760392958
 21
11.93845839639273
 31
0.0
 12
18.11270760392958
 22
11.99095839639273
 32
0.0
 13
18.11270760392958
 23
11.99095839639273
 33
0.0
  0
MTEXT
  5
368F
330
126A
100
AcDbEntity
  8
DIM
 62
     0
100
AcDbMText
 10
16.48270760392958
 20
11.99095839639273
 30
0.0
 40
0.21875
 41
0.0
 71
     5
 72
     1
  1
\A1;3.260
 73
     1
 44
1.0
  0
POINT
  5
3690
330
126A
100
AcDbEntity
  8
Defpoints
 62
     0
100
AcDbPoint
 10
14.85270760392958
 20
10.94812507980359
 30
0.0
  0
POINT
  5
3691
330
126A
100
AcDbEntity
  8
Defpoints
 62
     0
100
AcDbPoint
 10
18.11270760392958
 20
10.94812507980359
 30
0.0
  0
POINT
  5
3692
330
126A
100
AcDbEntity
  8
Defpoints
 62
     0
100
AcDbPoint
 10
18.11270760392958
 20
11.99095839639273
 30
0.0
  0
ENDBLK
  5
1276
330
126A
100
AcDbEntity
  8
0
100
AcDbBlockEnd
  0
BLOCK
  5
1283
330
1278
100
AcDbEntity
  8
0
100
AcDbBlockBegin
  2
*D2
 70
     1
 10
0.0
 20
0.0
 30
0.0
  3
*D2
  1

  0
LINE
  5
3611
330
1278
100
AcDbEntity
  8
DIM
 62
     0
370
    -2
100
AcDbLine
 10
18.16095760392959
 20
11.01012507980358
 30
0.0
 11
19.55834724895841
 21
11.01012507980358
 31
0.0
  0
LINE
  5
3612
330
1278
100
AcDbEntity
  8
DIM
 62
     0
370
    -2
100
AcDbLine
 10
18.03595760392958
 20
5.026125079803586
 30
0.0
 11
19.5583472489584
 21
5.026125079803586
 31
0.0
  0
LINE
  5
3613
330
1278
100
AcDbEntity
  8
DIM
 62
     0
370
    -2
100
AcDbLine
 10
19.39559724895841
 20
10.69512507980359
 30
0.0
 11
19.39559724895841
 21
8.285000079803589
 31
0.0
  0
LINE
  5
3614
330
1278
100
AcDbEntity
  8
DIM
 62
     0
370
    -2
100
AcDbLine
 10
19.39559724895841
 20
5.341125079803586
 30
0.0
 11
19.39559724895841
 21
7.751250079803588
 31
0.0
  0
SOLID
  5
3615
330
1278
100
AcDbEntity
  8
DIM
 62
     0
100
AcDbTrace
 10
19.34309724895841
 20
10.69512507980359
 30
0.0
 11
19.44809724895841
 21
10.69512507980359
 31
0.0
 12
19.39559724895841
 22
11.01012507980358
 32
0.0
 13
19.39559724895841
 23
11.01012507980358
 33
0.0
  0
SOLID
  5
3616
330
1278
100
AcDbEntity
  8
DIM
 62
     0
100
AcDbTrace
 10
19.34309724895841
 20
5.341125079803586
 30
0.0
 11
19.4480972489584
 21
5.341125079803586
 31
0.0
 12
19.39559724895841
 22
5.026125079803586
 32
0.0
 13
19.39559724895841
 23
5.026125079803586
 33
0.0
  0
MTEXT
  5
3617
330
1278
100
AcDbEntity
  8
DIM
 62
     0
100
AcDbMText
 10
19.39559724895841
 20
8.01812507980359
 30
0.0
 40
0.21875
 41
0.0
 71
     5
 72
     1
  1
\A1;5.984
 73
     1
 44
1.0
  0
POINT
  5
3618
330
1278
100
AcDbEntity
  8
Defpoints
 62
     0
100
AcDbPoint
 10
18.05070760392958
 20
11.01012507980358
 30
0.0
  0
POINT
  5
3619
330
1278
100
AcDbEntity
  8
Defpoints
 62
     0
100
AcDbPoint
 10
17.92570760392958
 20
5.026125079803587
 30
0.0
  0
POINT
  5
361A
330
1278
100
AcDbEntity
  8
Defpoints
 62
     0
100
AcDbPoint
 10
19.39559724895841
 20
5.026125079803586
 30
0.0
  0
ENDBLK
  5
1284
330
1278
100
AcDbEntity
  8
0
100
AcDbBlockEnd
  0
BLOCK
  5
1291
330
1286
100
AcDbEntity
  8
0
100
AcDbBlockBegin
  2
*D3
 70
     1
 10
0.0
 20
0.0
 30
0.0
  3
*D3
  1

  0
LINE
  5
361B
330
1286
100
AcDbEntity
  8
DIM
 62
     0
370
    -2
100
AcDbLine
 10
18.16095760392959
 20
11.01012507980358
 30
0.0
 11
18.77232558749907
 21
11.01012507980358
 31
0.0
  0
LINE
  5
361C
330
1286
100
AcDbEntity
  8
DIM
 62
     0
370
    -2
100
AcDbLine
 10
18.47295760392958
 20
8.018125079803589
 30
0.0
 11
18.77232558749907
 21
8.018125079803589
 31
0.0
  0
LINE
  5
361D
330
1286
100
AcDbEntity
  8
DIM
 62
     0
370
    -2
100
AcDbLine
 10
18.60957558749908
 20
10.69512507980359
 30
0.0
 11
18.60957558749908
 21
9.78100007980359
 31
0.0
  0
LINE
  5
361E
330
1286
100
AcDbEntity
  8
DIM
 62
     0
370
    -2
100
AcDbLine
 10
18.60957558749908
 20
8.333125079803588
 30
0.0
 11
18.60957558749908
 21
9.247250079803588
 31
0.0
  0
SOLID
  5
361F
330
1286
100
AcDbEntity
  8
DIM
 62
     0
100
AcDbTrace
 10
18.55707558749908
 20
10.69512507980359
 30
0.0
 11
18.66207558749907
 21
10.69512507980359
 31
0.0
 12
18.60957558749908
 22
11.01012507980358
 32
0.0
 13
18.60957558749908
 23
11.01012507980358
 33
0.0
  0
SOLID
  5
3620
330
1286
100
AcDbEntity
  8
DIM
 62
     0
100
AcDbTrace
 10
18.55707558749908
 20
8.333125079803588
 30
0.0
 11
18.66207558749907
 21
8.333125079803588
 31
0.0
 12
18.60957558749908
 22
8.018125079803589
 32
0.0
 13
18.60957558749908
 23
8.018125079803589
 33
0.0
  0
MTEXT
  5
3621
330
1286
100
AcDbEntity
  8
DIM
 62
     0
100
AcDbMText
 10
18.60957558749907
 20
9.514125079803591
 30
0.0
 40
0.21875
 41
0.0
 71
     5
 72
     1
  1
\A1;2.992
 73
     1
 44
1.0
  0
POINT
  5
3622
330
1286
100
AcDbEntity
  8
Defpoints
 62
     0
100
AcDbPoint
 10
18.05070760392958
 20
11.01012507980358
 30
0.0
  0
POINT
  5
3623
330
1286
100
AcDbEntity
  8
Defpoints
 62
     0
100
AcDbPoint
 10
18.36270760392958
 20
8.018125079803589
 30
0.0
  0
POINT
  5
3624
330
1286
100
AcDbEntity
  8
Defpoints
 62
     0
100
AcDbPoint
 10
18.60957558749908
 20
8.018125079803589
 30
0.0
  0
ENDBLK
  5
1292
330
1286
100
AcDbEntity
  8
0
100
AcDbBlockEnd
  0
BLOCK
  5
12B3
330
12A8
100
AcDbEntity
  8
0
100
AcDbBlockBegin
  2
*D4
 70
     1
 10
0.0
 20
0.0
 30
0.0
  3
*D4
  1

  0
LINE
  5
34ED
330
12A8
100
AcDbEntity
  8
DIM
 62
     0
370
    -2
100
AcDbLine
 10
14.85270760392958
 20
11.05837507980359
 30
0.0
 11
14.85270760392958
 21
11.69587507980359
 31
0.0
  0
LINE
  5
34EE
330
12A8
100
AcDbEntity
  8
DIM
 62
     0
370
    -2
100
AcDbLine
 10
16.48270760392958
 20
11.37037507980359
 30
0.0
 11
16.48270760392958
 21
11.69587507980359
 31
0.0
  0
LINE
  5
34EF
330
12A8
100
AcDbEntity
  8
DIM
 62
     0
370
    -2
100
AcDbLine
 10
14.53770760392958
 20
11.53312507980359
 30
0.0
 11
14.22270760392958
 21
11.53312507980359
 31
0.0
  0
LINE
  5
34F0
330
12A8
100
AcDbEntity
  8
DIM
 62
     0
370
    -2
100
AcDbLine
 10
16.79770760392958
 20
11.53312507980359
 30
0.0
 11
17.11270760392958
 21
11.53312507980359
 31
0.0
  0
SOLID
  5
34F1
330
12A8
100
AcDbEntity
  8
DIM
 62
     0
100
AcDbTrace
 10
14.53770760392958
 20
11.58562507980359
 30
0.0
 11
14.53770760392958
 21
11.48062507980359
 31
0.0
 12
14.85270760392958
 22
11.53312507980359
 32
0.0
 13
14.85270760392958
 23
11.53312507980359
 33
0.0
  0
SOLID
  5
34F2
330
12A8
100
AcDbEntity
  8
DIM
 62
     0
100
AcDbTrace
 10
16.79770760392958
 20
11.58562507980359
 30
0.0
 11
16.79770760392958
 21
11.48062507980359
 31
0.0
 12
16.48270760392958
 22
11.53312507980359
 32
0.0
 13
16.48270760392958
 23
11.53312507980359
 33
0.0
  0
MTEXT
  5
34F3
330
12A8
100
AcDbEntity
  8
DIM
 62
     0
100
AcDbMText
 10
15.66770760392958
 20
11.53312507980359
 30
0.0
 40
0.21875
 41
0.0
 71
     5
 72
     1
  1
\A1;1.630
 73
     1
 44
1.0
  0
POINT
  5
34F4
330
12A8
100
AcDbEntity
  8
Defpoints
 62
     0
100
AcDbPoint
 10
14.85270760392958
 20
10.94812507980359
 30
0.0
  0
POINT
  5
34F5
330
12A8
100
AcDbEntity
  8
Defpoints
 62
     0
100
AcDbPoint
 10
16.48270760392958
 20
11.26012507980359
 30
0.0
  0
POINT
  5
34F6
330
12A8
100
AcDbEntity
  8
Defpoints
 62
     0
100
AcDbPoint
 10
16.48270760392958
 20
11.53312507980359
 30
0.0
  0
ENDBLK
  5
12B4
330
12A8
100
AcDbEntity
  8
0
100
AcDbBlockEnd
  0
BLOCK
  5
12CC
330
12C1
100
AcDbEntity
  8
0
100
AcDbBlockBegin
  2
*D5
 70
     1
 10
0.0
 20
0.0
 30
0.0
  3
*D5
  1

  0
LINE
  5
34F7
330
12C1
100
AcDbEntity
  8
DIM
 62
     0
370
    -2
100
AcDbLine
 10
15.03545760392958
 20
10.65212507980358
 30
0.0
 11
14.15389845381402
 21
10.65212507980358
 31
0.0
  0
LINE
  5
34F8
330
12C1
100
AcDbEntity
  8
DIM
 62
     0
370
    -2
100
AcDbLine
 10
14.49245760392958
 20
8.018125079803589
 30
0.0
 11
14.15389845381402
 21
8.018125079803589
 31
0.0
  0
LINE
  5
34F9
330
12C1
100
AcDbEntity
  8
DIM
 62
     0
370
    -2
100
AcDbLine
 10
14.31664845381402
 20
10.33712507980359
 30
0.0
 11
14.31664845381402
 21
9.602000079803589
 31
0.0
  0
LINE
  5
34FA
330
12C1
100
AcDbEntity
  8
DIM
 62
     0
370
    -2
100
AcDbLine
 10
14.31664845381402
 20
8.333125079803588
 30
0.0
 11
14.31664845381402
 21
9.068250079803588
 31
0.0
  0
SOLID
  5
34FB
330
12C1
100
AcDbEntity
  8
DIM
 62
     0
100
AcDbTrace
 10
14.26414845381402
 20
10.33712507980359
 30
0.0
 11
14.36914845381402
 21
10.33712507980359
 31
0.0
 12
14.31664845381402
 22
10.65212507980358
 32
0.0
 13
14.31664845381402
 23
10.65212507980358
 33
0.0
  0
SOLID
  5
34FC
330
12C1
100
AcDbEntity
  8
DIM
 62
     0
100
AcDbTrace
 10
14.26414845381402
 20
8.333125079803588
 30
0.0
 11
14.36914845381402
 21
8.333125079803588
 31
0.0
 12
14.31664845381402
 22
8.018125079803589
 32
0.0
 13
14.31664845381402
 23
8.018125079803589
 33
0.0
  0
MTEXT
  5
34FD
330
12C1
100
AcDbEntity
  8
DIM
 62
     0
100
AcDbMText
 10
14.31664845381402
 20
9.335125079803592
 30
0.0
 40
0.21875
 41
0.0
 71
     5
 72
     1
  1
\A1;2.634
 73
     1
 44
1.0
  0
POINT
  5
34FE
330
12C1
100
AcDbEntity
  8
Defpoints
 62
     0
100
AcDbPoint
 10
15.14570760392958
 20
10.65212507980358
 30
0.0
  0
POINT
  5
34FF
330
12C1
100
AcDbEntity
  8
Defpoints
 62
     0
100
AcDbPoint
 10
14.60270760392958
 20
8.018125079803589
 30
0.0
  0
POINT
  5
3500
330
12C1
100
AcDbEntity
  8
Defpoints
 62
     0
100
AcDbPoint
 10
14.31664845381402
 20
8.018125079803589
 30
0.0
  0
ENDBLK
  5
12CD
330
12C1
100
AcDbEntity
  8
0
100
AcDbBlockEnd
  0
BLOCK
  5
12DA
330
12CF
100
AcDbEntity
  8
0
100
AcDbBlockBegin
  2
*D6
 70
     1
 10
0.0
 20
0.0
 30
0.0
  3
*D6
  1

  0
LINE
  5
3501
330
12CF
100
AcDbEntity
  8
DIM
 62
     0
370
    -2
100
AcDbLine
 10
15.03545760392958
 20
10.65212507980358
 30
0.0
 11
13.40395993633
 21
10.65212507980358
 31
0.0
  0
LINE
  5
3502
330
12CF
100
AcDbEntity
  8
DIM
 62
     0
370
    -2
100
AcDbLine
 10
15.03545760392958
 20
5.560125079803604
 30
0.0
 11
13.40395993633
 21
5.560125079803605
 31
0.0
  0
LINE
  5
3503
330
12CF
100
AcDbEntity
  8
DIM
 62
     0
370
    -2
100
AcDbLine
 10
13.56670993633001
 20
10.33712507980359
 30
0.0
 11
13.56670993633001
 21
8.373000079803597
 31
0.0
  0
LINE
  5
3504
330
12CF
100
AcDbEntity
  8
DIM
 62
     0
370
    -2
100
AcDbLine
 10
13.56670993633001
 20
5.875125079803606
 30
0.0
 11
13.56670993633001
 21
7.839250079803598
 31
0.0
  0
SOLID
  5
3505
330
12CF
100
AcDbEntity
  8
DIM
 62
     0
100
AcDbTrace
 10
13.51420993633001
 20
10.33712507980359
 30
0.0
 11
13.61920993633001
 21
10.33712507980359
 31
0.0
 12
13.56670993633001
 22
10.65212507980358
 32
0.0
 13
13.56670993633001
 23
10.65212507980358
 33
0.0
  0
SOLID
  5
3506
330
12CF
100
AcDbEntity
  8
DIM
 62
     0
100
AcDbTrace
 10
13.51420993633001
 20
5.875125079803606
 30
0.0
 11
13.61920993633001
 21
5.875125079803606
 31
0.0
 12
13.56670993633001
 22
5.560125079803605
 32
0.0
 13
13.56670993633001
 23
5.560125079803605
 33
0.0
  0
MTEXT
  5
3507
330
12CF
100
AcDbEntity
  8
DIM
 62
     0
100
AcDbMText
 10
13.56670993633001
 20
8.1061250798036
 30
0.0
 40
0.21875
 41
0.0
 71
     5
 72
     1
  1
\A1;5.092
 73
     1
 44
1.0
  0
POINT
  5
3508
330
12CF
100
AcDbEntity
  8
Defpoints
 62
     0
100
AcDbPoint
 10
15.14570760392958
 20
10.65212507980358
 30
0.0
  0
POINT
  5
3509
330
12CF
100
AcDbEntity
  8
Defpoints
 62
     0
100
AcDbPoint
 10
15.14570760392958
 20
5.560125079803604
 30
0.0
  0
POINT
  5
350A
330
12CF
100
AcDbEntity
  8
Defpoints
 62
     0
100
AcDbPoint
 10
13.56670993633001
 20
5.560125079803605
 30
0.0
  0
ENDBLK
  5
12DB
330
12CF
100
AcDbEntity
  8
0
100
AcDbBlockEnd
  0
BLOCK
  5
12E8
330
12DD
100
AcDbEntity
  8
0
100
AcDbBlockBegin
  2
*D7
 70
     1
 10
0.0
 20
0.0
 30
0.0
  3
*D7
  1

  0
LINE
  5
350B
330
12DD
100
AcDbEntity
  8
DIM
 62
     0
370
    -2
100
AcDbLine
 10
15.14570760392958
 20
5.449875079803605
 30
0.0
 11
15.14570760392958
 21
4.30165205768313
 31
0.0
  0
LINE
  5
350C
330
12DD
100
AcDbEntity
  8
DIM
 62
     0
370
    -2
100
AcDbLine
 10
16.48270760392958
 20
4.665875079803588
 30
0.0
 11
16.48270760392958
 21
4.30165205768313
 31
0.0
  0
LINE
  5
350D
330
12DD
100
AcDbEntity
  8
DIM
 62
     0
370
    -2
100
AcDbLine
 10
14.83070760392958
 20
4.46440205768313
 30
0.0
 11
14.51570760392958
 21
4.46440205768313
 31
0.0
  0
LINE
  5
350E
330
12DD
100
AcDbEntity
  8
DIM
 62
     0
370
    -2
100
AcDbLine
 10
16.79770760392958
 20
4.46440205768313
 30
0.0
 11
17.11270760392958
 21
4.46440205768313
 31
0.0
  0
SOLID
  5
350F
330
12DD
100
AcDbEntity
  8
DIM
 62
     0
100
AcDbTrace
 10
14.83070760392958
 20
4.516902057683131
 30
0.0
 11
14.83070760392958
 21
4.41190205768313
 31
0.0
 12
15.14570760392958
 22
4.46440205768313
 32
0.0
 13
15.14570760392958
 23
4.46440205768313
 33
0.0
  0
SOLID
  5
3510
330
12DD
100
AcDbEntity
  8
DIM
 62
     0
100
AcDbTrace
 10
16.79770760392958
 20
4.516902057683131
 30
0.0
 11
16.79770760392958
 21
4.41190205768313
 31
0.0
 12
16.48270760392958
 22
4.46440205768313
 32
0.0
 13
16.48270760392958
 23
4.46440205768313
 33
0.0
  0
MTEXT
  5
3511
330
12DD
100
AcDbEntity
  8
DIM
 62
     0
100
AcDbMText
 10
15.81420760392958
 20
4.46440205768313
 30
0.0
 40
0.21875
 41
0.0
 71
     5
 72
     1
  1
\A1;1.337
 73
     1
 44
1.0
  0
POINT
  5
3512
330
12DD
100
AcDbEntity
  8
Defpoints
 62
     0
100
AcDbPoint
 10
15.14570760392958
 20
5.560125079803604
 30
0.0
  0
POINT
  5
3513
330
12DD
100
AcDbEntity
  8
Defpoints
 62
     0
100
AcDbPoint
 10
16.48270760392958
 20
4.776125079803588
 30
0.0
  0
POINT
  5
3514
330
12DD
100
AcDbEntity
  8
Defpoints
 62
     0
100
AcDbPoint
 10
16.48270760392958
 20
4.46440205768313
 30
0.0
  0
ENDBLK
  5
12E9
330
12DD
100
AcDbEntity
  8
0
100
AcDbBlockEnd
  0
BLOCK
  5
12F6
330
12EB
100
AcDbEntity
  8
0
100
AcDbBlockBegin
  2
*D8
 70
     1
 10
0.0
 20
0.0
 30
0.0
  3
*D8
  1

  0
LINE
  5
362F
330
12EB
100
AcDbEntity
  8
DIM
 62
     0
370
    -2
100
AcDbLine
 10
15.14570760392958
 20
5.449875079803605
 30
0.0
 11
15.14570760392958
 21
3.723208108468507
 31
0.0
  0
LINE
  5
3630
330
12EB
100
AcDbEntity
  8
DIM
 62
     0
370
    -2
100
AcDbLine
 10
17.81970760392958
 20
5.449875079803605
 30
0.0
 11
17.81970760392958
 21
3.723208108468507
 31
0.0
  0
LINE
  5
3631
330
12EB
100
AcDbEntity
  8
DIM
 62
     0
370
    -2
100
AcDbLine
 10
15.46070760392958
 20
3.885958108468507
 30
0.0
 11
15.99708260392958
 21
3.885958108468507
 31
0.0
  0
LINE
  5
3632
330
12EB
100
AcDbEntity
  8
DIM
 62
     0
370
    -2
100
AcDbLine
 10
17.50470760392958
 20
3.885958108468507
 30
0.0
 11
16.96833260392958
 21
3.885958108468507
 31
0.0
  0
SOLID
  5
3633
330
12EB
100
AcDbEntity
  8
DIM
 62
     0
100
AcDbTrace
 10
15.46070760392958
 20
3.938458108468507
 30
0.0
 11
15.46070760392958
 21
3.833458108468507
 31
0.0
 12
15.14570760392958
 22
3.885958108468507
 32
0.0
 13
15.14570760392958
 23
3.885958108468507
 33
0.0
  0
SOLID
  5
3634
330
12EB
100
AcDbEntity
  8
DIM
 62
     0
100
AcDbTrace
 10
17.50470760392958
 20
3.938458108468507
 30
0.0
 11
17.50470760392958
 21
3.833458108468507
 31
0.0
 12
17.81970760392958
 22
3.885958108468507
 32
0.0
 13
17.81970760392958
 23
3.885958108468507
 33
0.0
  0
MTEXT
  5
3635
330
12EB
100
AcDbEntity
  8
DIM
 62
     0
100
AcDbMText
 10
16.48270760392958
 20
3.885958108468507
 30
0.0
 40
0.21875
 41
0.0
 71
     5
 72
     1
  1
\A1;2.674
 73
     1
 44
1.0
  0
POINT
  5
3636
330
12EB
100
AcDbEntity
  8
Defpoints
 62
     0
100
AcDbPoint
 10
15.14570760392958
 20
5.560125079803604
 30
0.0
  0
POINT
  5
3637
330
12EB
100
AcDbEntity
  8
Defpoints
 62
     0
100
AcDbPoint
 10
17.81970760392958
 20
5.560125079803604
 30
0.0
  0
POINT
  5
3638
330
12EB
100
AcDbEntity
  8
Defpoints
 62
     0
100
AcDbPoint
 10
17.81970760392958
 20
3.885958108468507
 30
0.0
  0
ENDBLK
  5
12F7
330
12EB
100
AcDbEntity
  8
0
100
AcDbBlockEnd
  0
BLOCK
  5
251C
330
2511
100
AcDbEntity
  8
0
100
AcDbBlockBegin
  2
*D9
 70
     1
 10
0.0
 20
0.0
 30
0.0
  3
*D9
  1

  0
LINE
  5
369D
330
2511
100
AcDbEntity
  8
DIM
 62
     0
370
    -2
100
AcDbLine
 10
21.1068232905846
 20
9.332285613650116
 30
0.0
 11
21.1068232905846
 21
9.169535613650113
 31
0.0
  0
LINE
  5
369E
330
2511
100
AcDbEntity
  8
DIM
 62
     0
370
    -2
100
AcDbLine
 10
21.04482329058461
 20
9.332285613650114
 30
0.0
 11
21.04482329058461
 21
9.169535613650113
 31
0.0
  0
LINE
  5
369F
330
2511
100
AcDbEntity
  8
DIM
 62
     0
370
    -2
100
AcDbLine
 10
21.4218232905846
 20
9.332285613650114
 30
0.0
 11
21.7368232905846
 21
9.332285613650114
 31
0.0
  0
LINE
  5
36A0
330
2511
100
AcDbEntity
  8
DIM
 62
     0
370
    -2
100
AcDbLine
 10
20.72982329058461
 20
9.332285613650114
 30
0.0
 11
20.41482329058461
 21
9.332285613650114
 31
0.0
  0
SOLID
  5
36A1
330
2511
100
AcDbEntity
  8
DIM
 62
     0
100
AcDbTrace
 10
21.4218232905846
 20
9.384785613650114
 30
0.0
 11
21.4218232905846
 21
9.279785613650114
 31
0.0
 12
21.1068232905846
 22
9.332285613650114
 32
0.0
 13
21.1068232905846
 23
9.332285613650114
 33
0.0
  0
SOLID
  5
36A2
330
2511
100
AcDbEntity
  8
DIM
 62
     0
100
AcDbTrace
 10
20.72982329058461
 20
9.384785613650114
 30
0.0
 11
20.72982329058461
 21
9.279785613650114
 31
0.0
 12
21.04482329058461
 22
9.332285613650114
 32
0.0
 13
21.04482329058461
 23
9.332285613650114
 33
0.0
  0
MTEXT
  5
36A3
330
2511
100
AcDbEntity
  8
DIM
 62
     0
100
AcDbMText
 10
19.95654204058461
 20
9.332285613650114
 30
0.0
 40
0.21875
 41
0.0
 71
     5
 72
     1
  1
\A1;0.062
 73
     1
 44
1.0
  0
POINT
  5
36A4
330
2511
100
AcDbEntity
  8
Defpoints
 62
     0
100
AcDbPoint
 10
21.1068232905846
 20
9.442535613650116
 30
0.0
  0
POINT
  5
36A5
330
2511
100
AcDbEntity
  8
Defpoints
 62
     0
100
AcDbPoint
 10
21.04482329058461
 20
9.442535613650115
 30
0.0
  0
POINT
  5
36A6
330
2511
100
AcDbEntity
  8
Defpoints
 62
     0
100
AcDbPoint
 10
21.04482329058461
 20
9.332285613650114
 30
0.0
  0
ENDBLK
  5
251D
330
2511
100
AcDbEntity
  8
0
100
AcDbBlockEnd
  0
BLOCK
  5
2534
330
2529
100
AcDbEntity
  8
0
100
AcDbBlockBegin
  2
*D10
 70
     1
 10
0.0
 20
0.0
 30
0.0
  3
*D10
  1

  0
LINE
  5
367F
330
2529
100
AcDbEntity
  8
DIM
 62
     0
370
    -2
100
AcDbLine
 10
22.32982329058461
 20
10.30004571717426
 30
0.0
 11
22.32982329058461
 21
10.13729571717426
 31
0.0
  0
LINE
  5
3680
330
2529
100
AcDbEntity
  8
DIM
 62
     0
370
    -2
100
AcDbLine
 10
22.35482329058461
 20
10.30004571717426
 30
0.0
 11
22.35482329058461
 21
10.13729571717426
 31
0.0
  0
LINE
  5
3681
330
2529
100
AcDbEntity
  8
DIM
 62
     0
370
    -2
100
AcDbLine
 10
22.01482329058461
 20
10.30004571717426
 30
0.0
 11
21.69982329058461
 21
10.30004571717426
 31
0.0
  0
LINE
  5
3682
330
2529
100
AcDbEntity
  8
DIM
 62
     0
370
    -2
100
AcDbLine
 10
22.66982329058461
 20
10.30004571717426
 30
0.0
 11
22.98482329058461
 21
10.30004571717426
 31
0.0
  0
SOLID
  5
3683
330
2529
100
AcDbEntity
  8
DIM
 62
     0
100
AcDbTrace
 10
22.01482329058461
 20
10.35254571717426
 30
0.0
 11
22.01482329058461
 21
10.24754571717426
 31
0.0
 12
22.32982329058461
 22
10.30004571717426
 32
0.0
 13
22.32982329058461
 23
10.30004571717426
 33
0.0
  0
SOLID
  5
3684
330
2529
100
AcDbEntity
  8
DIM
 62
     0
100
AcDbTrace
 10
22.66982329058461
 20
10.35254571717426
 30
0.0
 11
22.66982329058461
 21
10.24754571717426
 31
0.0
 12
22.35482329058461
 22
10.30004571717426
 32
0.0
 13
22.35482329058461
 23
10.30004571717426
 33
0.0
  0
MTEXT
  5
3685
330
2529
100
AcDbEntity
  8
DIM
 62
     0
100
AcDbMText
 10
23.44310454058461
 20
10.30004571717426
 30
0.0
 40
0.21875
 41
0.0
 71
     5
 72
     1
  1
\A1;0.025
 73
     1
 44
1.0
  0
POINT
  5
3686
330
2529
100
AcDbEntity
  8
Defpoints
 62
     0
100
AcDbPoint
 10
22.32982329058461
 20
10.41029571717426
 30
0.0
  0
POINT
  5
3687
330
2529
100
AcDbEntity
  8
Defpoints
 62
     0
100
AcDbPoint
 10
22.35482329058461
 20
10.41029571717426
 30
0.0
  0
POINT
  5
3688
330
2529
100
AcDbEntity
  8
Defpoints
 62
     0
100
AcDbPoint
 10
22.35482329058461
 20
10.30004571717426
 30
0.0
  0
ENDBLK
  5
2535
330
2529
100
AcDbEntity
  8
0
100
AcDbBlockEnd
  0
BLOCK
  5
2542
330
2537
100
AcDbEntity
  8
0
100
AcDbBlockBegin
  2
*D11
 70
     1
 10
0.0
 20
0.0
 30
0.0
  3
*D11
  1

  0
LINE
  5
3639
330
2537
100
AcDbEntity
  8
DIM
 62
     0
370
    -2
100
AcDbLine
 10
22.13982329058461
 20
5.865658299863878
 30
0.0
 11
22.13982329058461
 21
6.028408299863878
 31
0.0
  0
LINE
  5
363A
330
2537
100
AcDbEntity
  8
DIM
 62
     0
370
    -2
100
AcDbLine
 10
22.15482329058461
 20
5.865658299863878
 30
0.0
 11
22.15482329058461
 21
6.028408299863878
 31
0.0
  0
LINE
  5
363B
330
2537
100
AcDbEntity
  8
DIM
 62
     0
370
    -2
100
AcDbLine
 10
21.82482329058461
 20
5.865658299863878
 30
0.0
 11
21.50982329058461
 21
5.865658299863878
 31
0.0
  0
LINE
  5
363C
330
2537
100
AcDbEntity
  8
DIM
 62
     0
370
    -2
100
AcDbLine
 10
22.46982329058461
 20
5.865658299863878
 30
0.0
 11
22.78482329058462
 21
5.865658299863878
 31
0.0
  0
SOLID
  5
363D
330
2537
100
AcDbEntity
  8
DIM
 62
     0
100
AcDbTrace
 10
21.82482329058461
 20
5.918158299863878
 30
0.0
 11
21.82482329058461
 21
5.813158299863878
 31
0.0
 12
22.13982329058461
 22
5.865658299863878
 32
0.0
 13
22.13982329058461
 23
5.865658299863878
 33
0.0
  0
SOLID
  5
363E
330
2537
100
AcDbEntity
  8
DIM
 62
     0
100
AcDbTrace
 10
22.46982329058461
 20
5.918158299863878
 30
0.0
 11
22.46982329058461
 21
5.813158299863878
 31
0.0
 12
22.15482329058461
 22
5.865658299863878
 32
0.0
 13
22.15482329058461
 23
5.865658299863878
 33
0.0
  0
MTEXT
  5
363F
330
2537
100
AcDbEntity
  8
DIM
 62
     0
100
AcDbMText
 10
23.21576079058461
 20
5.865658299863878
 30
0.0
 40
0.21875
 41
0.0
 71
     5
 72
     1
  1
\A1;0.015
 73
     1
 44
1.0
  0
POINT
  5
3640
330
2537
100
AcDbEntity
  8
Defpoints
 62
     0
100
AcDbPoint
 10
22.13982329058461
 20
5.755408299863878
 30
0.0
  0
POINT
  5
3641
330
2537
100
AcDbEntity
  8
Defpoints
 62
     0
100
AcDbPoint
 10
22.15482329058461
 20
5.755408299863878
 30
0.0
  0
POINT
  5
3642
330
2537
100
AcDbEntity
  8
Defpoints
 62
     0
100
AcDbPoint
 10
22.15482329058461
 20
5.865658299863878
 30
0.0
  0
ENDBLK
  5
2543
330
2537
100
AcDbEntity
  8
0
100
AcDbBlockEnd
  0
BLOCK
  5
2686
330
267B
100
AcDbEntity
  8
0
100
AcDbBlockBegin
  2
*D12
 70
     1
 10
0.0
 20
0.0
 30
0.0
  3
*D12
  1

  0
LINE
  5
36A7
330
267B
100
AcDbEntity
  8
DIM
 62
     0
370
    -2
100
AcDbLine
 10
25.29599669310194
 20
10.65837507980359
 30
0.0
 11
25.29599669310194
 21
11.64714925391664
 31
0.0
  0
LINE
  5
36A8
330
267B
100
AcDbEntity
  8
DIM
 62
     0
370
    -2
100
AcDbLine
 10
26.86999669310195
 20
10.65837507980359
 30
0.0
 11
26.86999669310195
 21
11.64714925391664
 31
0.0
  0
LINE
  5
36A9
330
267B
100
AcDbEntity
  8
DIM
 62
     0
370
    -2
100
AcDbLine
 10
24.98099669310194
 20
11.48439925391664
 30
0.0
 11
24.66599669310195
 21
11.48439925391664
 31
0.0
  0
LINE
  5
36AA
330
267B
100
AcDbEntity
  8
DIM
 62
     0
370
    -2
100
AcDbLine
 10
27.18499669310195
 20
11.48439925391664
 30
0.0
 11
27.49999669310195
 21
11.48439925391664
 31
0.0
  0
SOLID
  5
36AB
330
267B
100
AcDbEntity
  8
DIM
 62
     0
100
AcDbTrace
 10
24.98099669310194
 20
11.53689925391664
 30
0.0
 11
24.98099669310194
 21
11.43189925391664
 31
0.0
 12
25.29599669310194
 22
11.48439925391664
 32
0.0
 13
25.29599669310194
 23
11.48439925391664
 33
0.0
  0
SOLID
  5
36AC
330
267B
100
AcDbEntity
  8
DIM
 62
     0
100
AcDbTrace
 10
27.18499669310195
 20
11.53689925391664
 30
0.0
 11
27.18499669310195
 21
11.43189925391664
 31
0.0
 12
26.86999669310195
 22
11.48439925391664
 32
0.0
 13
26.86999669310195
 23
11.48439925391664
 33
0.0
  0
MTEXT
  5
36AD
330
267B
100
AcDbEntity
  8
DIM
 62
     0
100
AcDbMText
 10
26.08299669310195
 20
11.48439925391664
 30
0.0
 40
0.21875
 41
0.0
 71
     5
 72
     1
  1
\A1;1.574
 73
     1
 44
1.0
  0
POINT
  5
36AE
330
267B
100
AcDbEntity
  8
Defpoints
 62
     0
100
AcDbPoint
 10
25.29599669310194
 20
10.54812507980358
 30
0.0
  0
POINT
  5
36AF
330
267B
100
AcDbEntity
  8
Defpoints
 62
     0
100
AcDbPoint
 10
26.86999669310195
 20
10.54812507980358
 30
0.0
  0
POINT
  5
36B0
330
267B
100
AcDbEntity
  8
Defpoints
 62
     0
100
AcDbPoint
 10
26.86999669310195
 20
11.48439925391664
 30
0.0
  0
ENDBLK
  5
2687
330
267B
100
AcDbEntity
  8
0
100
AcDbBlockEnd
  0
BLOCK
  5
2694
330
2689
100
AcDbEntity
  8
0
100
AcDbBlockBegin
  2
*D13
 70
     1
 10
0.0
 20
0.0
 30
0.0
  3
*D13
  1

  0
LINE
  5
36B1
330
2689
100
AcDbEntity
  8
DIM
 62
     0
370
    -2
100
AcDbLine
 10
27.20499669310195
 20
10.70737507980359
 30
0.0
 11
27.20499669310195
 21
12.1263733020197
 31
0.0
  0
LINE
  5
36B2
330
2689
100
AcDbEntity
  8
DIM
 62
     0
370
    -2
100
AcDbLine
 10
24.96099669310195
 20
10.70737507980359
 30
0.0
 11
24.96099669310195
 21
12.1263733020197
 31
0.0
  0
LINE
  5
36B3
330
2689
100
AcDbEntity
  8
DIM
 62
     0
370
    -2
100
AcDbLine
 10
26.88999669310195
 20
11.9636233020197
 30
0.0
 11
26.56862169310195
 21
11.9636233020197
 31
0.0
  0
LINE
  5
36B4
330
2689
100
AcDbEntity
  8
DIM
 62
     0
370
    -2
100
AcDbLine
 10
25.27599669310195
 20
11.9636233020197
 30
0.0
 11
25.59737169310195
 21
11.9636233020197
 31
0.0
  0
SOLID
  5
36B5
330
2689
100
AcDbEntity
  8
DIM
 62
     0
100
AcDbTrace
 10
26.88999669310195
 20
12.0161233020197
 30
0.0
 11
26.88999669310195
 21
11.9111233020197
 31
0.0
 12
27.20499669310195
 22
11.9636233020197
 32
0.0
 13
27.20499669310195
 23
11.9636233020197
 33
0.0
  0
SOLID
  5
36B6
330
2689
100
AcDbEntity
  8
DIM
 62
     0
100
AcDbTrace
 10
25.27599669310195
 20
12.0161233020197
 30
0.0
 11
25.27599669310195
 21
11.9111233020197
 31
0.0
 12
24.96099669310195
 22
11.9636233020197
 32
0.0
 13
24.96099669310195
 23
11.9636233020197
 33
0.0
  0
MTEXT
  5
36B7
330
2689
100
AcDbEntity
  8
DIM
 62
     0
100
AcDbMText
 10
26.08299669310195
 20
11.9636233020197
 30
0.0
 40
0.21875
 41
0.0
 71
     5
 72
     1
  1
\A1;2.244
 73
     1
 44
1.0
  0
POINT
  5
36B8
330
2689
100
AcDbEntity
  8
Defpoints
 62
     0
100
AcDbPoint
 10
27.20499669310195
 20
10.59712507980359
 30
0.0
  0
POINT
  5
36B9
330
2689
100
AcDbEntity
  8
Defpoints
 62
     0
100
AcDbPoint
 10
24.96099669310195
 20
10.59712507980359
 30
0.0
  0
POINT
  5
36BA
330
2689
100
AcDbEntity
  8
Defpoints
 62
     0
100
AcDbPoint
 10
24.96099669310195
 20
11.9636233020197
 30
0.0
  0
ENDBLK
  5
2695
330
2689
100
AcDbEntity
  8
0
100
AcDbBlockEnd
  0
BLOCK
  5
26A4
330
2699
100
AcDbEntity
  8
0
100
AcDbBlockBegin
  2
*D14
 70
     1
 10
0.0
 20
0.0
 30
0.0
  3
*D14
  1

  0
LINE
  5
366B
330
2699
100
AcDbEntity
  8
DIM
 62
     0
370
    -2
100
AcDbLine
 10
27.30199669310195
 20
5.273875079803592
 30
0.0
 11
27.30199669310195
 21
4.148628862959792
 31
0.0
  0
LINE
  5
366C
330
2699
100
AcDbEntity
  8
DIM
 62
     0
370
    -2
100
AcDbLine
 10
24.86399669310195
 20
5.273875079803592
 30
0.0
 11
24.86399669310195
 21
4.148628862959792
 31
0.0
  0
LINE
  5
366D
330
2699
100
AcDbEntity
  8
DIM
 62
     0
370
    -2
100
AcDbLine
 10
26.98699669310194
 20
4.311378862959792
 30
0.0
 11
26.56862169310194
 21
4.311378862959792
 31
0.0
  0
LINE
  5
366E
330
2699
100
AcDbEntity
  8
DIM
 62
     0
370
    -2
100
AcDbLine
 10
25.17899669310195
 20
4.311378862959792
 30
0.0
 11
25.59737169310194
 21
4.311378862959792
 31
0.0
  0
SOLID
  5
366F
330
2699
100
AcDbEntity
  8
DIM
 62
     0
100
AcDbTrace
 10
26.98699669310194
 20
4.363878862959792
 30
0.0
 11
26.98699669310194
 21
4.258878862959791
 31
0.0
 12
27.30199669310195
 22
4.311378862959792
 32
0.0
 13
27.30199669310195
 23
4.311378862959792
 33
0.0
  0
SOLID
  5
3670
330
2699
100
AcDbEntity
  8
DIM
 62
     0
100
AcDbTrace
 10
25.17899669310195
 20
4.363878862959792
 30
0.0
 11
25.17899669310195
 21
4.258878862959791
 31
0.0
 12
24.86399669310195
 22
4.311378862959792
 32
0.0
 13
24.86399669310195
 23
4.311378862959792
 33
0.0
  0
MTEXT
  5
3671
330
2699
100
AcDbEntity
  8
DIM
 62
     0
100
AcDbMText
 10
26.08299669310194
 20
4.311378862959792
 30
0.0
 40
0.21875
 41
0.0
 71
     5
 72
     1
  1
\A1;2.438
 73
     1
 44
1.0
  0
POINT
  5
3672
330
2699
100
AcDbEntity
  8
Defpoints
 62
     0
100
AcDbPoint
 10
27.30199669310195
 20
5.384125079803592
 30
0.0
  0
POINT
  5
3673
330
2699
100
AcDbEntity
  8
Defpoints
 62
     0
100
AcDbPoint
 10
24.86399669310195
 20
5.384125079803592
 30
0.0
  0
POINT
  5
3674
330
2699
100
AcDbEntity
  8
Defpoints
 62
     0
100
AcDbPoint
 10
24.86399669310195
 20
4.311378862959792
 30
0.0
  0
ENDBLK
  5
26A5
330
2699
100
AcDbEntity
  8
0
100
AcDbBlockEnd
  0
BLOCK
  5
2723
330
2718
100
AcDbEntity
  8
0
100
AcDbBlockBegin
  2
*D15
 70
     1
 10
0.0
 20
0.0
 30
0.0
  3
*D15
  1

  0
LINE
  5
3661
330
2718
100
AcDbEntity
  8
DIM
 62
     0
370
    -2
100
AcDbLine
 10
27.41224669310195
 20
5.384125079803592
 30
0.0
 11
28.31667687610386
 21
5.384125079803592
 31
0.0
  0
LINE
  5
3662
330
2718
100
AcDbEntity
  8
DIM
 62
     0
370
    -2
100
AcDbLine
 10
27.41224669310195
 20
6.79812507980359
 30
0.0
 11
28.31667687610386
 21
6.79812507980359
 31
0.0
  0
LINE
  5
3663
330
2718
100
AcDbEntity
  8
DIM
 62
     0
370
    -2
100
AcDbLine
 10
28.15392687610386
 20
5.699125079803592
 30
0.0
 11
28.15392687610386
 21
5.824250079803591
 31
0.0
  0
LINE
  5
3664
330
2718
100
AcDbEntity
  8
DIM
 62
     0
370
    -2
100
AcDbLine
 10
28.15392687610386
 20
6.483125079803589
 30
0.0
 11
28.15392687610386
 21
6.35800007980359
 31
0.0
  0
SOLID
  5
3665
330
2718
100
AcDbEntity
  8
DIM
 62
     0
100
AcDbTrace
 10
28.10142687610386
 20
5.699125079803592
 30
0.0
 11
28.20642687610386
 21
5.699125079803592
 31
0.0
 12
28.15392687610386
 22
5.384125079803592
 32
0.0
 13
28.15392687610386
 23
5.384125079803592
 33
0.0
  0
SOLID
  5
3666
330
2718
100
AcDbEntity
  8
DIM
 62
     0
100
AcDbTrace
 10
28.10142687610386
 20
6.483125079803589
 30
0.0
 11
28.20642687610386
 21
6.483125079803589
 31
0.0
 12
28.15392687610386
 22
6.79812507980359
 32
0.0
 13
28.15392687610386
 23
6.79812507980359
 33
0.0
  0
MTEXT
  5
3667
330
2718
100
AcDbEntity
  8
DIM
 62
     0
100
AcDbMText
 10
28.15392687610386
 20
6.091125079803595
 30
0.0
 40
0.21875
 41
0.0
 71
     5
 72
     1
  1
\A1;1.414
 73
     1
 44
1.0
  0
POINT
  5
3668
330
2718
100
AcDbEntity
  8
Defpoints
 62
     0
100
AcDbPoint
 10
27.30199669310195
 20
5.384125079803592
 30
0.0
  0
POINT
  5
3669
330
2718
100
AcDbEntity
  8
Defpoints
 62
     0
100
AcDbPoint
 10
27.30199669310195
 20
6.79812507980359
 30
0.0
  0
POINT
  5
366A
330
2718
100
AcDbEntity
  8
Defpoints
 62
     0
100
AcDbPoint
 10
28.15392687610386
 20
6.79812507980359
 30
0.0
  0
ENDBLK
  5
2724
330
2718
100
AcDbEntity
  8
0
100
AcDbBlockEnd
  0
BLOCK
  5
2746
330
273A
100
AcDbEntity
  8
0
100
AcDbBlockBegin
  2
*D16
 70
     1
 10
0.0
 20
0.0
 30
0.0
  3
*D16
  1

  0
LINE
  5
3607
330
273A
100
AcDbEntity
  8
DIM
 62
     0
370
    -2
100
AcDbLine
 10
24.85074669310195
 20
10.59712507980359
 30
0.0
 11
23.76724669310195
 21
10.59712507980359
 31
0.0
  0
LINE
  5
3608
330
273A
100
AcDbEntity
  8
DIM
 62
     0
370
    -2
100
AcDbLine
 10
24.09274669310195
 20
8.018125079803589
 30
0.0
 11
23.76724669310195
 21
8.018125079803589
 31
0.0
  0
LINE
  5
3609
330
273A
100
AcDbEntity
  8
DIM
 62
     0
370
    -2
100
AcDbLine
 10
23.92999669310195
 20
10.28212507980359
 30
0.0
 11
23.92999669310195
 21
9.574500079803589
 31
0.0
  0
LINE
  5
360A
330
273A
100
AcDbEntity
  8
DIM
 62
     0
370
    -2
100
AcDbLine
 10
23.92999669310195
 20
8.333125079803588
 30
0.0
 11
23.92999669310195
 21
9.040750079803588
 31
0.0
  0
SOLID
  5
360B
330
273A
100
AcDbEntity
  8
DIM
 62
     0
100
AcDbTrace
 10
23.87749669310195
 20
10.28212507980359
 30
0.0
 11
23.98249669310195
 21
10.28212507980359
 31
0.0
 12
23.92999669310195
 22
10.59712507980359
 32
0.0
 13
23.92999669310195
 23
10.59712507980359
 33
0.0
  0
SOLID
  5
360C
330
273A
100
AcDbEntity
  8
DIM
 62
     0
100
AcDbTrace
 10
23.87749669310195
 20
8.333125079803588
 30
0.0
 11
23.98249669310195
 21
8.333125079803588
 31
0.0
 12
23.92999669310195
 22
8.018125079803589
 32
0.0
 13
23.92999669310195
 23
8.018125079803589
 33
0.0
  0
MTEXT
  5
360D
330
273A
100
AcDbEntity
  8
DIM
 62
     0
100
AcDbMText
 10
23.92999669310194
 20
9.307625079803592
 30
0.0
 40
0.21875
 41
0.0
 71
     5
 72
     1
  1
\A1;2.579
 73
     1
 44
1.0
  0
POINT
  5
360E
330
273A
100
AcDbEntity
  8
Defpoints
 62
     0
100
AcDbPoint
 10
24.96099669310195
 20
10.59712507980359
 30
0.0
  0
POINT
  5
360F
330
273A
100
AcDbEntity
  8
Defpoints
 62
     0
100
AcDbPoint
 10
24.20299669310195
 20
8.018125079803589
 30
0.0
  0
POINT
  5
3610
330
273A
100
AcDbEntity
  8
Defpoints
 62
     0
100
AcDbPoint
 10
23.92999669310195
 20
8.018125079803589
 30
0.0
  0
ENDBLK
  5
2747
330
273A
100
AcDbEntity
  8
0
100
AcDbBlockEnd
  0
BLOCK
  5
2755
330
2749
100
AcDbEntity
  8
0
100
AcDbBlockBegin
  2
*D17
 70
     1
 10
0.0
 20
0.0
 30
0.0
  3
*D17
  1

  0
LINE
  5
35FD
330
2749
100
AcDbEntity
  8
DIM
 62
     0
370
    -2
100
AcDbLine
 10
26.98024669310195
 20
10.54812507980358
 30
0.0
 11
28.39874669310194
 21
10.54812507980358
 31
0.0
  0
LINE
  5
35FE
330
2749
100
AcDbEntity
  8
DIM
 62
     0
370
    -2
100
AcDbLine
 10
28.07324669310195
 20
8.018125079803587
 30
0.0
 11
28.39874669310194
 21
8.018125079803587
 31
0.0
  0
LINE
  5
35FF
330
2749
100
AcDbEntity
  8
DIM
 62
     0
370
    -2
100
AcDbLine
 10
28.23599669310194
 20
10.23312507980358
 30
0.0
 11
28.23599669310194
 21
9.550000079803588
 31
0.0
  0
LINE
  5
3600
330
2749
100
AcDbEntity
  8
DIM
 62
     0
370
    -2
100
AcDbLine
 10
28.23599669310194
 20
8.333125079803586
 30
0.0
 11
28.23599669310194
 21
9.016250079803587
 31
0.0
  0
SOLID
  5
3601
330
2749
100
AcDbEntity
  8
DIM
 62
     0
100
AcDbTrace
 10
28.18349669310195
 20
10.23312507980358
 30
0.0
 11
28.28849669310194
 21
10.23312507980358
 31
0.0
 12
28.23599669310194
 22
10.54812507980358
 32
0.0
 13
28.23599669310194
 23
10.54812507980358
 33
0.0
  0
SOLID
  5
3602
330
2749
100
AcDbEntity
  8
DIM
 62
     0
100
AcDbTrace
 10
28.18349669310195
 20
8.333125079803586
 30
0.0
 11
28.28849669310194
 21
8.333125079803586
 31
0.0
 12
28.23599669310194
 22
8.018125079803587
 32
0.0
 13
28.23599669310194
 23
8.018125079803587
 33
0.0
  0
MTEXT
  5
3603
330
2749
100
AcDbEntity
  8
DIM
 62
     0
100
AcDbMText
 10
28.23599669310194
 20
9.283125079803593
 30
0.0
 40
0.21875
 41
0.0
 71
     5
 72
     1
  1
\A1;2.530
 73
     1
 44
1.0
  0
POINT
  5
3604
330
2749
100
AcDbEntity
  8
Defpoints
 62
     0
100
AcDbPoint
 10
26.86999669310195
 20
10.54812507980358
 30
0.0
  0
POINT
  5
3605
330
2749
100
AcDbEntity
  8
Defpoints
 62
     0
100
AcDbPoint
 10
27.96299669310195
 20
8.018125079803589
 30
0.0
  0
POINT
  5
3606
330
2749
100
AcDbEntity
  8
Defpoints
 62
     0
100
AcDbPoint
 10
28.23599669310194
 20
8.018125079803587
 30
0.0
  0
ENDBLK
  5
2756
330
2749
100
AcDbEntity
  8
0
100
AcDbBlockEnd
  0
BLOCK
  5
2872
330
2867
100
AcDbEntity
  8
0
100
AcDbBlockBegin
  2
*D18
 70
     1
 10
0.0
 20
0.0
 30
0.0
  3
*D18
  1

  0
LINE
  5
3657
330
2867
100
AcDbEntity
  8
DIM
 62
     0
370
    -2
100
AcDbLine
 10
22.06482329058461
 20
6.430581586172807
 30
0.0
 11
22.06482329058461
 21
6.593331586172807
 31
0.0
  0
LINE
  5
3658
330
2867
100
AcDbEntity
  8
DIM
 62
     0
370
    -2
100
AcDbLine
 10
22.15482329058461
 20
6.430581586172807
 30
0.0
 11
22.15482329058461
 21
6.593331586172807
 31
0.0
  0
LINE
  5
3659
330
2867
100
AcDbEntity
  8
DIM
 62
     0
370
    -2
100
AcDbLine
 10
21.74982329058461
 20
6.430581586172807
 30
0.0
 11
21.43482329058461
 21
6.430581586172807
 31
0.0
  0
LINE
  5
365A
330
2867
100
AcDbEntity
  8
DIM
 62
     0
370
    -2
100
AcDbLine
 10
22.46982329058461
 20
6.430581586172807
 30
0.0
 11
22.78482329058462
 21
6.430581586172807
 31
0.0
  0
SOLID
  5
365B
330
2867
100
AcDbEntity
  8
DIM
 62
     0
100
AcDbTrace
 10
21.74982329058461
 20
6.483081586172807
 30
0.0
 11
21.74982329058461
 21
6.378081586172807
 31
0.0
 12
22.06482329058461
 22
6.430581586172807
 32
0.0
 13
22.06482329058461
 23
6.430581586172807
 33
0.0
  0
SOLID
  5
365C
330
2867
100
AcDbEntity
  8
DIM
 62
     0
100
AcDbTrace
 10
22.46982329058461
 20
6.483081586172807
 30
0.0
 11
22.46982329058461
 21
6.378081586172807
 31
0.0
 12
22.15482329058461
 22
6.430581586172807
 32
0.0
 13
22.15482329058461
 23
6.430581586172807
 33
0.0
  0
MTEXT
  5
365D
330
2867
100
AcDbEntity
  8
DIM
 62
     0
100
AcDbMText
 10
23.22943266558461
 20
6.430581586172807
 30
0.0
 40
0.21875
 41
0.0
 71
     5
 72
     1
  1
\A1;0.090
 73
     1
 44
1.0
  0
POINT
  5
365E
330
2867
100
AcDbEntity
  8
Defpoints
 62
     0
100
AcDbPoint
 10
22.06482329058461
 20
6.320331586172807
 30
0.0
  0
POINT
  5
365F
330
2867
100
AcDbEntity
  8
Defpoints
 62
     0
100
AcDbPoint
 10
22.15482329058461
 20
6.320331586172807
 30
0.0
  0
POINT
  5
3660
330
2867
100
AcDbEntity
  8
Defpoints
 62
     0
100
AcDbPoint
 10
22.15482329058461
 20
6.430581586172807
 30
0.0
  0
ENDBLK
  5
2873
330
2867
100
AcDbEntity
  8
0
100
AcDbBlockEnd
  0
BLOCK
  5
289E
330
2893
100
AcDbEntity
  8
0
100
AcDbBlockBegin
  2
*D19
 70
     1
 10
0.0
 20
0.0
 30
0.0
  3
*D19
  1

  0
LINE
  5
3643
330
2893
100
AcDbEntity
  8
DIM
 62
     0
370
    -2
100
AcDbLine
 10
21.20182329058461
 20
7.620743440848438
 30
0.0
 11
21.20182329058461
 21
7.783493440848439
 31
0.0
  0
LINE
  5
3644
330
2893
100
AcDbEntity
  8
DIM
 62
     0
370
    -2
100
AcDbLine
 10
21.1068232905846
 20
7.620743440848439
 30
0.0
 11
21.1068232905846
 21
7.783493440848439
 31
0.0
  0
LINE
  5
3645
330
2893
100
AcDbEntity
  8
DIM
 62
     0
370
    -2
100
AcDbLine
 10
21.51682329058461
 20
7.620743440848439
 30
0.0
 11
21.83182329058461
 21
7.620743440848439
 31
0.0
  0
LINE
  5
3646
330
2893
100
AcDbEntity
  8
DIM
 62
     0
370
    -2
100
AcDbLine
 10
20.7918232905846
 20
7.620743440848439
 30
0.0
 11
20.4768232905846
 21
7.620743440848439
 31
0.0
  0
SOLID
  5
3647
330
2893
100
AcDbEntity
  8
DIM
 62
     0
100
AcDbTrace
 10
21.51682329058461
 20
7.673243440848439
 30
0.0
 11
21.51682329058461
 21
7.568243440848439
 31
0.0
 12
21.20182329058461
 22
7.620743440848439
 32
0.0
 13
21.20182329058461
 23
7.620743440848439
 33
0.0
  0
SOLID
  5
3648
330
2893
100
AcDbEntity
  8
DIM
 62
     0
100
AcDbTrace
 10
20.7918232905846
 20
7.673243440848439
 30
0.0
 11
20.7918232905846
 21
7.568243440848439
 31
0.0
 12
21.1068232905846
 22
7.620743440848439
 32
0.0
 13
21.1068232905846
 23
7.620743440848439
 33
0.0
  0
MTEXT
  5
3649
330
2893
100
AcDbEntity
  8
DIM
 62
     0
100
AcDbMText
 10
20.0185420405846
 20
7.620743440848439
 30
0.0
 40
0.21875
 41
0.0
 71
     5
 72
     1
  1
\A1;0.095
 73
     1
 44
1.0
  0
POINT
  5
364A
330
2893
100
AcDbEntity
  8
Defpoints
 62
     0
100
AcDbPoint
 10
21.20182329058461
 20
7.510493440848438
 30
0.0
  0
POINT
  5
364B
330
2893
100
AcDbEntity
  8
Defpoints
 62
     0
100
AcDbPoint
 10
21.1068232905846
 20
7.510493440848439
 30
0.0
  0
POINT
  5
364C
330
2893
100
AcDbEntity
  8
Defpoints
 62
     0
100
AcDbPoint
 10
21.1068232905846
 20
7.620743440848439
 30
0.0
  0
ENDBLK
  5
289F
330
2893
100
AcDbEntity
  8
0
100
AcDbBlockEnd
  0
BLOCK
  5
28C0
330
28B5
100
AcDbEntity
  8
0
100
AcDbBlockBegin
  2
*D20
 70
     1
 10
0.0
 20
0.0
 30
0.0
  3
*D20
  1

  0
LINE
  5
35E9
330
28B5
100
AcDbEntity
  8
DIM
 62
     0
370
    -2
100
AcDbLine
 10
11.60402228087556
 20
11.01437227531254
 30
0.0
 11
11.60402228087556
 21
11.93412507980359
 31
0.0
  0
LINE
  5
35EA
330
28B5
100
AcDbEntity
  8
DIM
 62
     0
370
    -2
100
AcDbLine
 10
12.91402228087555
 20
11.07136950315225
 30
0.0
 11
12.91402228087555
 21
11.93412507980359
 31
0.0
  0
LINE
  5
35EB
330
28B5
100
AcDbEntity
  8
DIM
 62
     0
370
    -2
100
AcDbLine
 10
11.28902228087556
 20
11.77137507980358
 30
0.0
 11
10.97402228087556
 21
11.77137507980358
 31
0.0
  0
LINE
  5
35EC
330
28B5
100
AcDbEntity
  8
DIM
 62
     0
370
    -2
100
AcDbLine
 10
13.22902228087555
 20
11.77137507980358
 30
0.0
 11
13.54402228087555
 21
11.77137507980358
 31
0.0
  0
SOLID
  5
35ED
330
28B5
100
AcDbEntity
  8
DIM
 62
     0
100
AcDbTrace
 10
11.28902228087556
 20
11.82387507980359
 30
0.0
 11
11.28902228087556
 21
11.71887507980359
 31
0.0
 12
11.60402228087556
 22
11.77137507980358
 32
0.0
 13
11.60402228087556
 23
11.77137507980358
 33
0.0
  0
SOLID
  5
35EE
330
28B5
100
AcDbEntity
  8
DIM
 62
     0
100
AcDbTrace
 10
13.22902228087555
 20
11.82387507980359
 30
0.0
 11
13.22902228087555
 21
11.71887507980359
 31
0.0
 12
12.91402228087555
 22
11.77137507980358
 32
0.0
 13
12.91402228087555
 23
11.77137507980358
 33
0.0
  0
MTEXT
  5
35EF
330
28B5
100
AcDbEntity
  8
DIM
 62
     0
100
AcDbMText
 10
12.25902228087556
 20
11.77137507980358
 30
0.0
 40
0.21875
 41
0.0
 71
     5
 72
     1
  1
\A1;1.310
 73
     1
 44
1.0
  0
POINT
  5
35F0
330
28B5
100
AcDbEntity
  8
Defpoints
 62
     0
100
AcDbPoint
 10
11.60402228087556
 20
10.90412227531254
 30
0.0
  0
POINT
  5
35F1
330
28B5
100
AcDbEntity
  8
Defpoints
 62
     0
100
AcDbPoint
 10
12.91402228087555
 20
10.96111950315225
 30
0.0
  0
POINT
  5
35F2
330
28B5
100
AcDbEntity
  8
Defpoints
 62
     0
100
AcDbPoint
 10
12.91402228087555
 20
11.77137507980358
 30
0.0
  0
ENDBLK
  5
28C1
330
28B5
100
AcDbEntity
  8
0
100
AcDbBlockEnd
  0
BLOCK
  5
28D0
330
28C5
100
AcDbEntity
  8
0
100
AcDbBlockBegin
  2
*D21
 70
     1
 10
0.0
 20
0.0
 30
0.0
  3
*D21
  1

  0
LINE
  5
35F3
330
28C5
100
AcDbEntity
  8
DIM
 62
     0
370
    -2
100
AcDbLine
 10
12.50402228087556
 20
11.12037507980358
 30
0.0
 11
12.50402228087556
 21
11.44587507980358
 31
0.0
  0
LINE
  5
35F4
330
28C5
100
AcDbEntity
  8
DIM
 62
     0
370
    -2
100
AcDbLine
 10
11.60402228087556
 20
11.01437227531254
 30
0.0
 11
11.60402228087556
 21
11.44587507980358
 31
0.0
  0
LINE
  5
35F5
330
28C5
100
AcDbEntity
  8
DIM
 62
     0
370
    -2
100
AcDbLine
 10
12.81902228087556
 20
11.28312507980358
 30
0.0
 11
13.13402228087556
 21
11.28312507980358
 31
0.0
  0
LINE
  5
35F6
330
28C5
100
AcDbEntity
  8
DIM
 62
     0
370
    -2
100
AcDbLine
 10
11.28902228087556
 20
11.28312507980358
 30
0.0
 11
10.97402228087556
 21
11.28312507980358
 31
0.0
  0
SOLID
  5
35F7
330
28C5
100
AcDbEntity
  8
DIM
 62
     0
100
AcDbTrace
 10
12.81902228087556
 20
11.33562507980358
 30
0.0
 11
12.81902228087556
 21
11.23062507980358
 31
0.0
 12
12.50402228087556
 22
11.28312507980358
 32
0.0
 13
12.50402228087556
 23
11.28312507980358
 33
0.0
  0
SOLID
  5
35F8
330
28C5
100
AcDbEntity
  8
DIM
 62
     0
100
AcDbTrace
 10
11.28902228087556
 20
11.33562507980358
 30
0.0
 11
11.28902228087556
 21
11.23062507980358
 31
0.0
 12
11.60402228087556
 22
11.28312507980358
 32
0.0
 13
11.60402228087556
 23
11.28312507980358
 33
0.0
  0
MTEXT
  5
35F9
330
28C5
100
AcDbEntity
  8
DIM
 62
     0
100
AcDbMText
 10
12.05402228087556
 20
11.28312507980358
 30
0.0
 40
0.21875
 41
0.0
 71
     5
 72
     1
  1
\A1;0.900
 73
     1
 44
1.0
  0
POINT
  5
35FA
330
28C5
100
AcDbEntity
  8
Defpoints
 62
     0
100
AcDbPoint
 10
12.50402228087556
 20
11.01012507980358
 30
0.0
  0
POINT
  5
35FB
330
28C5
100
AcDbEntity
  8
Defpoints
 62
     0
100
AcDbPoint
 10
11.60402228087556
 20
10.90412227531254
 30
0.0
  0
POINT
  5
35FC
330
28C5
100
AcDbEntity
  8
Defpoints
 62
     0
100
AcDbPoint
 10
11.60402228087556
 20
11.28312507980358
 30
0.0
  0
ENDBLK
  5
28D1
330
28C5
100
AcDbEntity
  8
0
100
AcDbBlockEnd
  0
BLOCK
  5
28FA
330
28EF
100
AcDbEntity
  8
0
100
AcDbBlockBegin
  2
*D22
 70
     1
 10
0.0
 20
0.0
 30
0.0
  3
*D22
  1

  0
LINE
  5
358F
330
28EF
100
AcDbEntity
  8
DIM
 62
     0
370
    -2
100
AcDbLine
 10
12.53902228087556
 20
4.915875079803584
 30
0.0
 11
12.53902228087556
 21
4.590375079803584
 31
0.0
  0
LINE
  5
3590
330
28EF
100
AcDbEntity
  8
DIM
 62
     0
370
    -2
100
AcDbLine
 10
12.91402228087556
 20
5.449875079803587
 30
0.0
 11
12.91402228087556
 21
4.590375079803584
 31
0.0
  0
LINE
  5
3591
330
28EF
100
AcDbEntity
  8
DIM
 62
     0
370
    -2
100
AcDbLine
 10
12.22402228087556
 20
4.753125079803584
 30
0.0
 11
11.90902228087556
 21
4.753125079803584
 31
0.0
  0
LINE
  5
3592
330
28EF
100
AcDbEntity
  8
DIM
 62
     0
370
    -2
100
AcDbLine
 10
13.22902228087556
 20
4.753125079803584
 30
0.0
 11
13.54402228087556
 21
4.753125079803584
 31
0.0
  0
SOLID
  5
3593
330
28EF
100
AcDbEntity
  8
DIM
 62
     0
100
AcDbTrace
 10
12.22402228087556
 20
4.805625079803585
 30
0.0
 11
12.22402228087556
 21
4.700625079803584
 31
0.0
 12
12.53902228087556
 22
4.753125079803584
 32
0.0
 13
12.53902228087556
 23
4.753125079803584
 33
0.0
  0
SOLID
  5
3594
330
28EF
100
AcDbEntity
  8
DIM
 62
     0
100
AcDbTrace
 10
13.22902228087556
 20
4.805625079803585
 30
0.0
 11
13.22902228087556
 21
4.700625079803584
 31
0.0
 12
12.91402228087556
 22
4.753125079803584
 32
0.0
 13
12.91402228087556
 23
4.753125079803584
 33
0.0
  0
MTEXT
  5
3595
330
28EF
100
AcDbEntity
  8
DIM
 62
     0
100
AcDbMText
 10
14.01597540587556
 20
4.753125079803584
 30
0.0
 40
0.21875
 41
0.0
 71
     5
 72
     1
  1
\A1;0.375
 73
     1
 44
1.0
  0
POINT
  5
3596
330
28EF
100
AcDbEntity
  8
Defpoints
 62
     0
100
AcDbPoint
 10
12.53902228087556
 20
5.026125079803584
 30
0.0
  0
POINT
  5
3597
330
28EF
100
AcDbEntity
  8
Defpoints
 62
     0
100
AcDbPoint
 10
12.91402228087556
 20
5.560125079803587
 30
0.0
  0
POINT
  5
3598
330
28EF
100
AcDbEntity
  8
Defpoints
 62
     0
100
AcDbPoint
 10
12.91402228087556
 20
4.753125079803584
 30
0.0
  0
ENDBLK
  5
28FB
330
28EF
100
AcDbEntity
  8
0
100
AcDbBlockEnd
  0
BLOCK
  5
2994
330
2989
100
AcDbEntity
  8
0
100
AcDbBlockBegin
  2
*D23
 70
     1
 10
0.0
 20
0.0
 30
0.0
  3
*D23
  1

  0
LINE
  5
3675
330
2989
100
AcDbEntity
  8
DIM
 62
     0
370
    -2
100
AcDbLine
 10
24.75374669310195
 20
6.79812507980359
 30
0.0
 11
23.76724669310195
 21
6.79812507980359
 31
0.0
  0
LINE
  5
3676
330
2989
100
AcDbEntity
  8
DIM
 62
     0
370
    -2
100
AcDbLine
 10
24.09274669310195
 20
8.018125079803589
 30
0.0
 11
23.76724669310195
 21
8.018125079803589
 31
0.0
  0
LINE
  5
3677
330
2989
100
AcDbEntity
  8
DIM
 62
     0
370
    -2
100
AcDbLine
 10
23.92999669310195
 20
6.483125079803589
 30
0.0
 11
23.92999669310195
 21
6.16812507980359
 31
0.0
  0
LINE
  5
3678
330
2989
100
AcDbEntity
  8
DIM
 62
     0
370
    -2
100
AcDbLine
 10
23.92999669310195
 20
8.333125079803588
 30
0.0
 11
23.92999669310195
 21
8.648125079803589
 31
0.0
  0
SOLID
  5
3679
330
2989
100
AcDbEntity
  8
DIM
 62
     0
100
AcDbTrace
 10
23.87749669310195
 20
6.483125079803589
 30
0.0
 11
23.98249669310195
 21
6.483125079803589
 31
0.0
 12
23.92999669310195
 22
6.79812507980359
 32
0.0
 13
23.92999669310195
 23
6.79812507980359
 33
0.0
  0
SOLID
  5
367A
330
2989
100
AcDbEntity
  8
DIM
 62
     0
100
AcDbTrace
 10
23.87749669310195
 20
8.333125079803588
 30
0.0
 11
23.98249669310195
 21
8.333125079803588
 31
0.0
 12
23.92999669310195
 22
8.018125079803589
 32
0.0
 13
23.92999669310195
 23
8.018125079803589
 33
0.0
  0
MTEXT
  5
367B
330
2989
100
AcDbEntity
  8
DIM
 62
     0
100
AcDbMText
 10
23.92999669310195
 20
7.408125079803593
 30
0.0
 40
0.21875
 41
0.0
 71
     5
 72
     1
  1
\A1;1.220
 73
     1
 44
1.0
  0
POINT
  5
367C
330
2989
100
AcDbEntity
  8
Defpoints
 62
     0
100
AcDbPoint
 10
24.86399669310195
 20
6.79812507980359
 30
0.0
  0
POINT
  5
367D
330
2989
100
AcDbEntity
  8
Defpoints
 62
     0
100
AcDbPoint
 10
24.20299669310195
 20
8.018125079803589
 30
0.0
  0
POINT
  5
367E
330
2989
100
AcDbEntity
  8
Defpoints
 62
     0
100
AcDbPoint
 10
23.92999669310195
 20
8.018125079803589
 30
0.0
  0
ENDBLK
  5
2995
330
2989
100
AcDbEntity
  8
0
100
AcDbBlockEnd
  0
BLOCK
  5
2BB6
330
2BAB
100
AcDbEntity
  8
0
100
AcDbBlockBegin
  2
*D24
 70
     1
 10
0.0
 20
0.0
 30
0.0
  3
*D24
  1

  0
LINE
  5
35AD
330
2BAB
100
AcDbEntity
  8
DIM
 62
     0
370
    -2
100
AcDbLine
 10
2.404236690036391
 20
10.70737507980359
 30
0.0
 11
2.404236690036391
 21
11.64714925391664
 31
0.0
  0
LINE
  5
35AE
330
2BAB
100
AcDbEntity
  8
DIM
 62
     0
370
    -2
100
AcDbLine
 10
3.748236690036392
 20
10.70737507980359
 30
0.0
 11
3.748236690036392
 21
11.64714925391664
 31
0.0
  0
LINE
  5
35AF
330
2BAB
100
AcDbEntity
  8
DIM
 62
     0
370
    -2
100
AcDbLine
 10
2.089236690036391
 20
11.48439925391664
 30
0.0
 11
1.774236690036391
 21
11.48439925391664
 31
0.0
  0
LINE
  5
35B0
330
2BAB
100
AcDbEntity
  8
DIM
 62
     0
370
    -2
100
AcDbLine
 10
4.063236690036393
 20
11.48439925391664
 30
0.0
 11
4.378236690036392
 21
11.48439925391664
 31
0.0
  0
SOLID
  5
35B1
330
2BAB
100
AcDbEntity
  8
DIM
 62
     0
100
AcDbTrace
 10
2.089236690036391
 20
11.53689925391664
 30
0.0
 11
2.089236690036391
 21
11.43189925391664
 31
0.0
 12
2.404236690036391
 22
11.48439925391664
 32
0.0
 13
2.404236690036391
 23
11.48439925391664
 33
0.0
  0
SOLID
  5
35B2
330
2BAB
100
AcDbEntity
  8
DIM
 62
     0
100
AcDbTrace
 10
4.063236690036393
 20
11.53689925391664
 30
0.0
 11
4.063236690036393
 21
11.43189925391664
 31
0.0
 12
3.748236690036392
 22
11.48439925391664
 32
0.0
 13
3.748236690036392
 23
11.48439925391664
 33
0.0
  0
MTEXT
  5
35B3
330
2BAB
100
AcDbEntity
  8
DIM
 62
     0
100
AcDbMText
 10
3.076236690036392
 20
11.48439925391664
 30
0.0
 40
0.21875
 41
0.0
 71
     5
 72
     1
  1
\A1;1.344
 73
     1
 44
1.0
  0
POINT
  5
35B4
330
2BAB
100
AcDbEntity
  8
Defpoints
 62
     0
100
AcDbPoint
 10
2.404236690036391
 20
10.59712507980359
 30
0.0
  0
POINT
  5
35B5
330
2BAB
100
AcDbEntity
  8
Defpoints
 62
     0
100
AcDbPoint
 10
3.748236690036392
 20
10.59712507980359
 30
0.0
  0
POINT
  5
35B6
330
2BAB
100
AcDbEntity
  8
Defpoints
 62
     0
100
AcDbPoint
 10
3.748236690036392
 20
11.48439925391664
 30
0.0
  0
ENDBLK
  5
2BB7
330
2BAB
100
AcDbEntity
  8
0
100
AcDbBlockEnd
  0
BLOCK
  5
2BC3
330
2BB8
100
AcDbEntity
  8
0
100
AcDbBlockBegin
  2
*D25
 70
     1
 10
0.0
 20
0.0
 30
0.0
  3
*D25
  1

  0
LINE
  5
35B7
330
2BB8
100
AcDbEntity
  8
DIM
 62
     0
370
    -2
100
AcDbLine
 10
4.198236690036392
 20
10.70737507980359
 30
0.0
 11
4.198236690036392
 21
12.1263733020197
 31
0.0
  0
LINE
  5
35B8
330
2BB8
100
AcDbEntity
  8
DIM
 62
     0
370
    -2
100
AcDbLine
 10
1.954236690036392
 20
10.70737507980359
 30
0.0
 11
1.954236690036392
 21
12.1263733020197
 31
0.0
  0
LINE
  5
35B9
330
2BB8
100
AcDbEntity
  8
DIM
 62
     0
370
    -2
100
AcDbLine
 10
3.883236690036392
 20
11.9636233020197
 30
0.0
 11
3.561861690036391
 21
11.9636233020197
 31
0.0
  0
LINE
  5
35BA
330
2BB8
100
AcDbEntity
  8
DIM
 62
     0
370
    -2
100
AcDbLine
 10
2.269236690036392
 20
11.9636233020197
 30
0.0
 11
2.590611690036392
 21
11.9636233020197
 31
0.0
  0
SOLID
  5
35BB
330
2BB8
100
AcDbEntity
  8
DIM
 62
     0
100
AcDbTrace
 10
3.883236690036392
 20
12.0161233020197
 30
0.0
 11
3.883236690036392
 21
11.9111233020197
 31
0.0
 12
4.198236690036392
 22
11.9636233020197
 32
0.0
 13
4.198236690036392
 23
11.9636233020197
 33
0.0
  0
SOLID
  5
35BC
330
2BB8
100
AcDbEntity
  8
DIM
 62
     0
100
AcDbTrace
 10
2.269236690036392
 20
12.0161233020197
 30
0.0
 11
2.269236690036392
 21
11.9111233020197
 31
0.0
 12
1.954236690036392
 22
11.9636233020197
 32
0.0
 13
1.954236690036392
 23
11.9636233020197
 33
0.0
  0
MTEXT
  5
35BD
330
2BB8
100
AcDbEntity
  8
DIM
 62
     0
100
AcDbMText
 10
3.076236690036392
 20
11.9636233020197
 30
0.0
 40
0.21875
 41
0.0
 71
     5
 72
     1
  1
\A1;2.244
 73
     1
 44
1.0
  0
POINT
  5
35BE
330
2BB8
100
AcDbEntity
  8
Defpoints
 62
     0
100
AcDbPoint
 10
4.198236690036392
 20
10.59712507980359
 30
0.0
  0
POINT
  5
35BF
330
2BB8
100
AcDbEntity
  8
Defpoints
 62
     0
100
AcDbPoint
 10
1.954236690036392
 20
10.59712507980359
 30
0.0
  0
POINT
  5
35C0
330
2BB8
100
AcDbEntity
  8
Defpoints
 62
     0
100
AcDbPoint
 10
1.954236690036392
 20
11.9636233020197
 30
0.0
  0
ENDBLK
  5
2BC4
330
2BB8
100
AcDbEntity
  8
0
100
AcDbBlockEnd
  0
BLOCK
  5
2BD0
330
2BC5
100
AcDbEntity
  8
0
100
AcDbBlockBegin
  2
*D26
 70
     1
 10
0.0
 20
0.0
 30
0.0
  3
*D26
  1

  0
LINE
  5
355D
330
2BC5
100
AcDbEntity
  8
DIM
 62
     0
370
    -2
100
AcDbLine
 10
4.295236690036393
 20
6.68787507980359
 30
0.0
 11
4.295236690036393
 21
3.772357752843457
 31
0.0
  0
LINE
  5
355E
330
2BC5
100
AcDbEntity
  8
DIM
 62
     0
370
    -2
100
AcDbLine
 10
1.857236690036391
 20
6.68787507980359
 30
0.0
 11
1.85723669003639
 21
3.772357752843457
 31
0.0
  0
LINE
  5
355F
330
2BC5
100
AcDbEntity
  8
DIM
 62
     0
370
    -2
100
AcDbLine
 10
3.980236690036393
 20
3.935107752843457
 30
0.0
 11
3.561861690036388
 21
3.935107752843457
 31
0.0
  0
LINE
  5
3560
330
2BC5
100
AcDbEntity
  8
DIM
 62
     0
370
    -2
100
AcDbLine
 10
2.17223669003639
 20
3.935107752843457
 30
0.0
 11
2.590611690036388
 21
3.935107752843457
 31
0.0
  0
SOLID
  5
3561
330
2BC5
100
AcDbEntity
  8
DIM
 62
     0
100
AcDbTrace
 10
3.980236690036393
 20
3.987607752843457
 30
0.0
 11
3.980236690036393
 21
3.882607752843457
 31
0.0
 12
4.295236690036393
 22
3.935107752843457
 32
0.0
 13
4.295236690036393
 23
3.935107752843457
 33
0.0
  0
SOLID
  5
3562
330
2BC5
100
AcDbEntity
  8
DIM
 62
     0
100
AcDbTrace
 10
2.17223669003639
 20
3.987607752843457
 30
0.0
 11
2.17223669003639
 21
3.882607752843457
 31
0.0
 12
1.85723669003639
 22
3.935107752843457
 32
0.0
 13
1.85723669003639
 23
3.935107752843457
 33
0.0
  0
MTEXT
  5
3563
330
2BC5
100
AcDbEntity
  8
DIM
 62
     0
100
AcDbMText
 10
3.076236690036388
 20
3.935107752843457
 30
0.0
 40
0.21875
 41
0.0
 71
     5
 72
     1
  1
\A1;2.438
 73
     1
 44
1.0
  0
POINT
  5
3564
330
2BC5
100
AcDbEntity
  8
Defpoints
 62
     0
100
AcDbPoint
 10
4.295236690036393
 20
6.79812507980359
 30
0.0
  0
POINT
  5
3565
330
2BC5
100
AcDbEntity
  8
Defpoints
 62
     0
100
AcDbPoint
 10
1.857236690036391
 20
6.79812507980359
 30
0.0
  0
POINT
  5
3566
330
2BC5
100
AcDbEntity
  8
Defpoints
 62
     0
100
AcDbPoint
 10
1.85723669003639
 20
3.935107752843457
 30
0.0
  0
ENDBLK
  5
2BD1
330
2BC5
100
AcDbEntity
  8
0
100
AcDbBlockEnd
  0
BLOCK
  5
2BDD
330
2BD2
100
AcDbEntity
  8
0
100
AcDbBlockBegin
  2
*D27
 70
     1
 10
0.0
 20
0.0
 30
0.0
  3
*D27
  1

  0
LINE
  5
3515
330
2BD2
100
AcDbEntity
  8
DIM
 62
     0
370
    -2
100
AcDbLine
 10
1.843986690036392
 20
10.59712507980359
 30
0.0
 11
0.7604866900363941
 21
10.59712507980359
 31
0.0
  0
LINE
  5
3516
330
2BD2
100
AcDbEntity
  8
DIM
 62
     0
370
    -2
100
AcDbLine
 10
1.085986690036393
 20
8.018125079803589
 30
0.0
 11
0.7604866900363935
 21
8.018125079803589
 31
0.0
  0
LINE
  5
3517
330
2BD2
100
AcDbEntity
  8
DIM
 62
     0
370
    -2
100
AcDbLine
 10
0.923236690036394
 20
10.28212507980359
 30
0.0
 11
0.9232366900363938
 21
9.574500079803589
 31
0.0
  0
LINE
  5
3518
330
2BD2
100
AcDbEntity
  8
DIM
 62
     0
370
    -2
100
AcDbLine
 10
0.9232366900363937
 20
8.333125079803588
 30
0.0
 11
0.9232366900363937
 21
9.040750079803588
 31
0.0
  0
SOLID
  5
3519
330
2BD2
100
AcDbEntity
  8
DIM
 62
     0
100
AcDbTrace
 10
0.870736690036394
 20
10.28212507980359
 30
0.0
 11
0.975736690036394
 21
10.28212507980359
 31
0.0
 12
0.923236690036394
 22
10.59712507980359
 32
0.0
 13
0.923236690036394
 23
10.59712507980359
 33
0.0
  0
SOLID
  5
351A
330
2BD2
100
AcDbEntity
  8
DIM
 62
     0
100
AcDbTrace
 10
0.8707366900363936
 20
8.333125079803588
 30
0.0
 11
0.9757366900363935
 21
8.333125079803588
 31
0.0
 12
0.9232366900363935
 22
8.018125079803589
 32
0.0
 13
0.9232366900363935
 23
8.018125079803589
 33
0.0
  0
MTEXT
  5
351B
330
2BD2
100
AcDbEntity
  8
DIM
 62
     0
100
AcDbMText
 10
0.9232366900363922
 20
9.307625079803589
 30
0.0
 40
0.21875
 41
0.0
 71
     5
 72
     1
  1
\A1;2.579
 73
     1
 44
1.0
  0
POINT
  5
351C
330
2BD2
100
AcDbEntity
  8
Defpoints
 62
     0
100
AcDbPoint
 10
1.954236690036392
 20
10.59712507980359
 30
0.0
  0
POINT
  5
351D
330
2BD2
100
AcDbEntity
  8
Defpoints
 62
     0
100
AcDbPoint
 10
1.196236690036393
 20
8.018125079803589
 30
0.0
  0
POINT
  5
351E
330
2BD2
100
AcDbEntity
  8
Defpoints
 62
     0
100
AcDbPoint
 10
0.9232366900363935
 20
8.018125079803589
 30
0.0
  0
ENDBLK
  5
2BDE
330
2BD2
100
AcDbEntity
  8
0
100
AcDbBlockEnd
  0
BLOCK
  5
2BEA
330
2BDF
100
AcDbEntity
  8
0
100
AcDbBlockBegin
  2
*D28
 70
     1
 10
0.0
 20
0.0
 30
0.0
  3
*D28
  1

  0
LINE
  5
3549
330
2BDF
100
AcDbEntity
  8
DIM
 62
     0
370
    -2
100
AcDbLine
 10
1.746986690036391
 20
6.79812507980359
 30
0.0
 11
0.760486690036397
 21
6.79812507980359
 31
0.0
  0
LINE
  5
354A
330
2BDF
100
AcDbEntity
  8
DIM
 62
     0
370
    -2
100
AcDbLine
 10
1.085986690036393
 20
8.018125079803589
 30
0.0
 11
0.7604866900363971
 21
8.018125079803589
 31
0.0
  0
LINE
  5
354B
330
2BDF
100
AcDbEntity
  8
DIM
 62
     0
370
    -2
100
AcDbLine
 10
0.9232366900363967
 20
6.483125079803589
 30
0.0
 11
0.9232366900363967
 21
6.16812507980359
 31
0.0
  0
LINE
  5
354C
330
2BDF
100
AcDbEntity
  8
DIM
 62
     0
370
    -2
100
AcDbLine
 10
0.9232366900363972
 20
8.333125079803588
 30
0.0
 11
0.9232366900363972
 21
8.648125079803589
 31
0.0
  0
SOLID
  5
354D
330
2BDF
100
AcDbEntity
  8
DIM
 62
     0
100
AcDbTrace
 10
0.8707366900363966
 20
6.483125079803589
 30
0.0
 11
0.9757366900363967
 21
6.483125079803589
 31
0.0
 12
0.9232366900363969
 22
6.79812507980359
 32
0.0
 13
0.9232366900363969
 23
6.79812507980359
 33
0.0
  0
SOLID
  5
354E
330
2BDF
100
AcDbEntity
  8
DIM
 62
     0
100
AcDbTrace
 10
0.8707366900363972
 20
8.333125079803588
 30
0.0
 11
0.9757366900363971
 21
8.333125079803588
 31
0.0
 12
0.923236690036397
 22
8.018125079803589
 32
0.0
 13
0.923236690036397
 23
8.018125079803589
 33
0.0
  0
MTEXT
  5
354F
330
2BDF
100
AcDbEntity
  8
DIM
 62
     0
100
AcDbMText
 10
0.9232366900363956
 20
7.408125079803589
 30
0.0
 40
0.21875
 41
0.0
 71
     5
 72
     1
  1
\A1;1.220
 73
     1
 44
1.0
  0
POINT
  5
3550
330
2BDF
100
AcDbEntity
  8
Defpoints
 62
     0
100
AcDbPoint
 10
1.857236690036391
 20
6.79812507980359
 30
0.0
  0
POINT
  5
3551
330
2BDF
100
AcDbEntity
  8
Defpoints
 62
     0
100
AcDbPoint
 10
1.196236690036393
 20
8.018125079803589
 30
0.0
  0
POINT
  5
3552
330
2BDF
100
AcDbEntity
  8
Defpoints
 62
     0
100
AcDbPoint
 10
0.923236690036397
 20
8.018125079803589
 30
0.0
  0
ENDBLK
  5
2BEB
330
2BDF
100
AcDbEntity
  8
0
100
AcDbBlockEnd
  0
BLOCK
  5
2C52
330
2C47
100
AcDbEntity
  8
0
100
AcDbBlockBegin
  2
*D29
 70
     1
 10
0.0
 20
0.0
 30
0.0
  3
*D29
  1

  0
LINE
  5
3553
330
2C47
100
AcDbEntity
  8
DIM
 62
     0
370
    -2
100
AcDbLine
 10
2.201236690036392
 20
6.687875079803561
 30
0.0
 11
2.201236690036392
 21
4.247519355376812
 31
0.0
  0
LINE
  5
3554
330
2C47
100
AcDbEntity
  8
DIM
 62
     0
370
    -2
100
AcDbLine
 10
3.951236690036392
 20
6.68787507980359
 30
0.0
 11
3.951236690036392
 21
4.247519355376812
 31
0.0
  0
LINE
  5
3555
330
2C47
100
AcDbEntity
  8
DIM
 62
     0
370
    -2
100
AcDbLine
 10
2.516236690036392
 20
4.410269355376811
 30
0.0
 11
2.631627315036392
 21
4.410269355376811
 31
0.0
  0
LINE
  5
3556
330
2C47
100
AcDbEntity
  8
DIM
 62
     0
370
    -2
100
AcDbLine
 10
3.636236690036392
 20
4.410269355376811
 30
0.0
 11
3.520846065036391
 21
4.410269355376811
 31
0.0
  0
SOLID
  5
3557
330
2C47
100
AcDbEntity
  8
DIM
 62
     0
100
AcDbTrace
 10
2.516236690036392
 20
4.462769355376812
 30
0.0
 11
2.516236690036392
 21
4.357769355376811
 31
0.0
 12
2.201236690036392
 22
4.410269355376811
 32
0.0
 13
2.201236690036392
 23
4.410269355376811
 33
0.0
  0
SOLID
  5
3558
330
2C47
100
AcDbEntity
  8
DIM
 62
     0
100
AcDbTrace
 10
3.636236690036392
 20
4.462769355376812
 30
0.0
 11
3.636236690036392
 21
4.357769355376811
 31
0.0
 12
3.951236690036392
 22
4.410269355376811
 32
0.0
 13
3.951236690036392
 23
4.410269355376811
 33
0.0
  0
MTEXT
  5
3559
330
2C47
100
AcDbEntity
  8
DIM
 62
     0
100
AcDbMText
 10
3.076236690036392
 20
4.410269355376811
 30
0.0
 40
0.21875
 41
0.0
 71
     5
 72
     1
  1
\A1;1.750
 73
     1
 44
1.0
  0
POINT
  5
355A
330
2C47
100
AcDbEntity
  8
Defpoints
 62
     0
100
AcDbPoint
 10
2.201236690036392
 20
6.798125079803561
 30
0.0
  0
POINT
  5
355B
330
2C47
100
AcDbEntity
  8
Defpoints
 62
     0
100
AcDbPoint
 10
3.951236690036392
 20
6.79812507980359
 30
0.0
  0
POINT
  5
355C
330
2C47
100
AcDbEntity
  8
Defpoints
 62
     0
100
AcDbPoint
 10
3.951236690036392
 20
4.410269355376811
 30
0.0
  0
ENDBLK
  5
2C53
330
2C47
100
AcDbEntity
  8
0
100
AcDbBlockEnd
  0
BLOCK
  5
2C7A
330
2C6F
100
AcDbEntity
  8
0
100
AcDbBlockBegin
  2
*D30
 70
     1
 10
0.0
 20
0.0
 30
0.0
  3
*D30
  1

  0
LINE
  5
35A3
330
2C6F
100
AcDbEntity
  8
DIM
 62
     0
370
    -2
100
AcDbLine
 10
4.308486690036391
 20
10.59712507980359
 30
0.0
 11
5.427191748004046
 21
10.59712507980359
 31
0.0
  0
LINE
  5
35A4
330
2C6F
100
AcDbEntity
  8
DIM
 62
     0
370
    -2
100
AcDbLine
 10
3.858486690036393
 20
9.81012507980359
 30
0.0
 11
5.427191748004045
 21
9.810125079803588
 31
0.0
  0
LINE
  5
35A5
330
2C6F
100
AcDbEntity
  8
DIM
 62
     0
370
    -2
100
AcDbLine
 10
5.264441748004046
 20
10.91212507980358
 30
0.0
 11
5.264441748004046
 21
11.22712507980359
 31
0.0
  0
LINE
  5
35A6
330
2C6F
100
AcDbEntity
  8
DIM
 62
     0
370
    -2
100
AcDbLine
 10
5.264441748004045
 20
9.495125079803589
 30
0.0
 11
5.264441748004045
 21
9.180125079803588
 31
0.0
  0
SOLID
  5
35A7
330
2C6F
100
AcDbEntity
  8
DIM
 62
     0
100
AcDbTrace
 10
5.211941748004046
 20
10.91212507980358
 30
0.0
 11
5.316941748004047
 21
10.91212507980358
 31
0.0
 12
5.264441748004046
 22
10.59712507980359
 32
0.0
 13
5.264441748004046
 23
10.59712507980359
 33
0.0
  0
SOLID
  5
35A8
330
2C6F
100
AcDbEntity
  8
DIM
 62
     0
100
AcDbTrace
 10
5.211941748004045
 20
9.495125079803589
 30
0.0
 11
5.316941748004046
 21
9.495125079803589
 31
0.0
 12
5.264441748004045
 22
9.810125079803588
 32
0.0
 13
5.264441748004045
 23
9.810125079803588
 33
0.0
  0
MTEXT
  5
35A9
330
2C6F
100
AcDbEntity
  8
DIM
 62
     0
100
AcDbMText
 10
5.264441748004045
 20
10.20362507980359
 30
0.0
 40
0.21875
 41
0.0
 71
     5
 72
     1
  1
\A1;0.787
 73
     1
 44
1.0
  0
POINT
  5
35AA
330
2C6F
100
AcDbEntity
  8
Defpoints
 62
     0
100
AcDbPoint
 10
4.198236690036392
 20
10.59712507980359
 30
0.0
  0
POINT
  5
35AB
330
2C6F
100
AcDbEntity
  8
Defpoints
 62
     0
100
AcDbPoint
 10
3.748236690036392
 20
9.81012507980359
 30
0.0
  0
POINT
  5
35AC
330
2C6F
100
AcDbEntity
  8
Defpoints
 62
     0
100
AcDbPoint
 10
5.264441748004045
 20
9.810125079803588
 30
0.0
  0
ENDBLK
  5
2C7B
330
2C6F
100
AcDbEntity
  8
0
100
AcDbBlockEnd
  0
BLOCK
  5
2C88
330
2C7D
100
AcDbEntity
  8
0
100
AcDbBlockBegin
  2
*D31
 70
     1
 10
0.0
 20
0.0
 30
0.0
  3
*D31
  1

  0
LINE
  5
353F
330
2C7D
100
AcDbEntity
  8
DIM
 62
     0
370
    -2
100
AcDbLine
 10
4.061486690036392
 20
6.79812507980359
 30
0.0
 11
5.427191748004045
 21
6.79812507980359
 31
0.0
  0
LINE
  5
3540
330
2C7D
100
AcDbEntity
  8
DIM
 62
     0
370
    -2
100
AcDbLine
 10
4.061486690036391
 20
8.624125079803588
 30
0.0
 11
5.427191748004045
 21
8.624125079803588
 31
0.0
  0
LINE
  5
3541
330
2C7D
100
AcDbEntity
  8
DIM
 62
     0
370
    -2
100
AcDbLine
 10
5.264441748004045
 20
7.11312507980359
 30
0.0
 11
5.264441748004045
 21
7.44425007980359
 31
0.0
  0
LINE
  5
3542
330
2C7D
100
AcDbEntity
  8
DIM
 62
     0
370
    -2
100
AcDbLine
 10
5.264441748004045
 20
8.309125079803589
 30
0.0
 11
5.264441748004045
 21
7.97800007980359
 31
0.0
  0
SOLID
  5
3543
330
2C7D
100
AcDbEntity
  8
DIM
 62
     0
100
AcDbTrace
 10
5.211941748004045
 20
7.11312507980359
 30
0.0
 11
5.316941748004046
 21
7.11312507980359
 31
0.0
 12
5.264441748004045
 22
6.79812507980359
 32
0.0
 13
5.264441748004045
 23
6.79812507980359
 33
0.0
  0
SOLID
  5
3544
330
2C7D
100
AcDbEntity
  8
DIM
 62
     0
100
AcDbTrace
 10
5.211941748004045
 20
8.309125079803589
 30
0.0
 11
5.316941748004046
 21
8.309125079803589
 31
0.0
 12
5.264441748004045
 22
8.624125079803588
 32
0.0
 13
5.264441748004045
 23
8.624125079803588
 33
0.0
  0
MTEXT
  5
3545
330
2C7D
100
AcDbEntity
  8
DIM
 62
     0
100
AcDbMText
 10
5.264441748004045
 20
7.711125079803591
 30
0.0
 40
0.21875
 41
0.0
 71
     5
 72
     1
  1
\A1;1.826
 73
     1
 44
1.0
  0
POINT
  5
3546
330
2C7D
100
AcDbEntity
  8
Defpoints
 62
     0
100
AcDbPoint
 10
3.951236690036392
 20
6.79812507980359
 30
0.0
  0
POINT
  5
3547
330
2C7D
100
AcDbEntity
  8
Defpoints
 62
     0
100
AcDbPoint
 10
3.951236690036392
 20
8.62412507980359
 30
0.0
  0
POINT
  5
3548
330
2C7D
100
AcDbEntity
  8
Defpoints
 62
     0
100
AcDbPoint
 10
5.264441748004045
 20
8.624125079803588
 30
0.0
  0
ENDBLK
  5
2C89
330
2C7D
100
AcDbEntity
  8
0
100
AcDbBlockEnd
  0
BLOCK
  5
2CA2
330
2C97
100
AcDbEntity
  8
0
100
AcDbBlockBegin
  2
*D32
 70
     1
 10
0.0
 20
0.0
 30
0.0
  3
*D32
  1

  0
LINE
  5
351F
330
2C97
100
AcDbEntity
  8
DIM
 62
     0
370
    -2
100
AcDbLine
 10
7.370898625072869
 20
9.590125079803588
 30
0.0
 11
6.501517345982594
 21
9.590125079803588
 31
0.0
  0
LINE
  5
3520
330
2C97
100
AcDbEntity
  8
DIM
 62
     0
370
    -2
100
AcDbLine
 10
6.790898625072871
 20
8.018125079803589
 30
0.0
 11
6.501517345982594
 21
8.018125079803589
 31
0.0
  0
LINE
  5
3521
330
2C97
100
AcDbEntity
  8
DIM
 62
     0
370
    -2
100
AcDbLine
 10
6.664267345982594
 20
9.275125079803588
 30
0.0
 11
6.664267345982594
 21
9.071000079803589
 31
0.0
  0
LINE
  5
3522
330
2C97
100
AcDbEntity
  8
DIM
 62
     0
370
    -2
100
AcDbLine
 10
6.664267345982594
 20
8.333125079803588
 30
0.0
 11
6.664267345982594
 21
8.537250079803587
 31
0.0
  0
SOLID
  5
3523
330
2C97
100
AcDbEntity
  8
DIM
 62
     0
100
AcDbTrace
 10
6.611767345982594
 20
9.275125079803588
 30
0.0
 11
6.716767345982594
 21
9.275125079803588
 31
0.0
 12
6.664267345982594
 22
9.590125079803588
 32
0.0
 13
6.664267345982594
 23
9.590125079803588
 33
0.0
  0
SOLID
  5
3524
330
2C97
100
AcDbEntity
  8
DIM
 62
     0
100
AcDbTrace
 10
6.611767345982594
 20
8.333125079803588
 30
0.0
 11
6.716767345982594
 21
8.333125079803588
 31
0.0
 12
6.664267345982594
 22
8.018125079803589
 32
0.0
 13
6.664267345982594
 23
8.018125079803589
 33
0.0
  0
MTEXT
  5
3525
330
2C97
100
AcDbEntity
  8
DIM
 62
     0
100
AcDbMText
 10
6.664267345982593
 20
8.80412507980359
 30
0.0
 40
0.21875
 41
0.0
 71
     5
 72
     1
  1
\A1;1.572
 73
     1
 44
1.0
  0
POINT
  5
3526
330
2C97
100
AcDbEntity
  8
Defpoints
 62
     0
100
AcDbPoint
 10
7.481148625072869
 20
9.590125079803588
 30
0.0
  0
POINT
  5
3527
330
2C97
100
AcDbEntity
  8
Defpoints
 62
     0
100
AcDbPoint
 10
6.90114862507287
 20
8.018125079803589
 30
0.0
  0
POINT
  5
3528
330
2C97
100
AcDbEntity
  8
Defpoints
 62
     0
100
AcDbPoint
 10
6.664267345982594
 20
8.018125079803589
 30
0.0
  0
ENDBLK
  5
2CA3
330
2C97
100
AcDbEntity
  8
0
100
AcDbBlockEnd
  0
BLOCK
  5
2CB0
330
2CA5
100
AcDbEntity
  8
0
100
AcDbBlockBegin
  2
*D33
 70
     1
 10
0.0
 20
0.0
 30
0.0
  3
*D33
  1

  0
LINE
  5
35DF
330
2CA5
100
AcDbEntity
  8
DIM
 62
     0
370
    -2
100
AcDbLine
 10
7.370898625072869
 20
9.590125079803588
 30
0.0
 11
6.501517345982593
 21
9.590125079803588
 31
0.0
  0
LINE
  5
35E0
330
2CA5
100
AcDbEntity
  8
DIM
 62
     0
370
    -2
100
AcDbLine
 10
7.370898625072869
 20
10.85012507980358
 30
0.0
 11
6.501517345982594
 21
10.85012507980358
 31
0.0
  0
LINE
  5
35E1
330
2CA5
100
AcDbEntity
  8
DIM
 62
     0
370
    -2
100
AcDbLine
 10
6.664267345982593
 20
9.275125079803588
 30
0.0
 11
6.664267345982593
 21
8.960125079803587
 31
0.0
  0
LINE
  5
35E2
330
2CA5
100
AcDbEntity
  8
DIM
 62
     0
370
    -2
100
AcDbLine
 10
6.664267345982594
 20
11.16512507980359
 30
0.0
 11
6.664267345982594
 21
11.48012507980359
 31
0.0
  0
SOLID
  5
35E3
330
2CA5
100
AcDbEntity
  8
DIM
 62
     0
100
AcDbTrace
 10
6.611767345982593
 20
9.275125079803588
 30
0.0
 11
6.716767345982593
 21
9.275125079803588
 31
0.0
 12
6.664267345982593
 22
9.590125079803588
 32
0.0
 13
6.664267345982593
 23
9.590125079803588
 33
0.0
  0
SOLID
  5
35E4
330
2CA5
100
AcDbEntity
  8
DIM
 62
     0
100
AcDbTrace
 10
6.611767345982594
 20
11.16512507980359
 30
0.0
 11
6.716767345982594
 21
11.16512507980359
 31
0.0
 12
6.664267345982594
 22
10.85012507980358
 32
0.0
 13
6.664267345982594
 23
10.85012507980358
 33
0.0
  0
MTEXT
  5
35E5
330
2CA5
100
AcDbEntity
  8
DIM
 62
     0
100
AcDbMText
 10
6.664267345982592
 20
10.22012507980359
 30
0.0
 40
0.21875
 41
0.0
 71
     5
 72
     1
  1
\A1;1.260
 73
     1
 44
1.0
  0
POINT
  5
35E6
330
2CA5
100
AcDbEntity
  8
Defpoints
 62
     0
100
AcDbPoint
 10
7.481148625072869
 20
9.590125079803588
 30
0.0
  0
POINT
  5
35E7
330
2CA5
100
AcDbEntity
  8
Defpoints
 62
     0
100
AcDbPoint
 10
7.481148625072869
 20
10.85012507980358
 30
0.0
  0
POINT
  5
35E8
330
2CA5
100
AcDbEntity
  8
Defpoints
 62
     0
100
AcDbPoint
 10
6.664267345982594
 20
10.85012507980358
 30
0.0
  0
ENDBLK
  5
2CB1
330
2CA5
100
AcDbEntity
  8
0
100
AcDbBlockEnd
  0
BLOCK
  5
2CD2
330
2CC7
100
AcDbEntity
  8
0
100
AcDbBlockBegin
  2
*D34
 70
     1
 10
0.0
 20
0.0
 30
0.0
  3
*D34
  1

  0
LINE
  5
3585
330
2CC7
100
AcDbEntity
  8
DIM
 62
     0
370
    -2
100
AcDbLine
 10
6.790898625072871
 20
8.018125079803589
 30
0.0
 11
6.501517345982594
 21
8.018125079803589
 31
0.0
  0
LINE
  5
3586
330
2CC7
100
AcDbEntity
  8
DIM
 62
     0
370
    -2
100
AcDbLine
 10
7.29589862507287
 20
6.935625079803591
 30
0.0
 11
6.501517345982594
 21
6.935625079803591
 31
0.0
  0
LINE
  5
3587
330
2CC7
100
AcDbEntity
  8
DIM
 62
     0
370
    -2
100
AcDbLine
 10
6.664267345982594
 20
8.333125079803588
 30
0.0
 11
6.664267345982594
 21
8.648125079803589
 31
0.0
  0
LINE
  5
3588
330
2CC7
100
AcDbEntity
  8
DIM
 62
     0
370
    -2
100
AcDbLine
 10
6.664267345982594
 20
6.62062507980359
 30
0.0
 11
6.664267345982594
 21
6.305625079803591
 31
0.0
  0
SOLID
  5
3589
330
2CC7
100
AcDbEntity
  8
DIM
 62
     0
100
AcDbTrace
 10
6.611767345982594
 20
8.333125079803588
 30
0.0
 11
6.716767345982594
 21
8.333125079803588
 31
0.0
 12
6.664267345982594
 22
8.018125079803589
 32
0.0
 13
6.664267345982594
 23
8.018125079803589
 33
0.0
  0
SOLID
  5
358A
330
2CC7
100
AcDbEntity
  8
DIM
 62
     0
100
AcDbTrace
 10
6.611767345982594
 20
6.62062507980359
 30
0.0
 11
6.716767345982594
 21
6.62062507980359
 31
0.0
 12
6.664267345982594
 22
6.935625079803591
 32
0.0
 13
6.664267345982594
 23
6.935625079803591
 33
0.0
  0
MTEXT
  5
358B
330
2CC7
100
AcDbEntity
  8
DIM
 62
     0
100
AcDbMText
 10
6.664267345982593
 20
7.476875079803591
 30
0.0
 40
0.21875
 41
0.0
 71
     5
 72
     1
  1
\A1;1.083
 73
     1
 44
1.0
  0
POINT
  5
358C
330
2CC7
100
AcDbEntity
  8
Defpoints
 62
     0
100
AcDbPoint
 10
6.90114862507287
 20
8.018125079803589
 30
0.0
  0
POINT
  5
358D
330
2CC7
100
AcDbEntity
  8
Defpoints
 62
     0
100
AcDbPoint
 10
7.406148625072869
 20
6.935625079803591
 30
0.0
  0
POINT
  5
358E
330
2CC7
100
AcDbEntity
  8
Defpoints
 62
     0
100
AcDbPoint
 10
6.664267345982594
 20
6.935625079803591
 30
0.0
  0
ENDBLK
  5
2CD3
330
2CC7
100
AcDbEntity
  8
0
100
AcDbBlockEnd
  0
BLOCK
  5
2CE0
330
2CD5
100
AcDbEntity
  8
0
100
AcDbBlockBegin
  2
*D35
 70
     1
 10
0.0
 20
0.0
 30
0.0
  3
*D35
  1

  0
LINE
  5
3571
330
2CD5
100
AcDbEntity
  8
DIM
 62
     0
370
    -2
100
AcDbLine
 10
7.29589862507287
 20
6.935625079803591
 30
0.0
 11
6.013267345982598
 21
6.935625079803591
 31
0.0
  0
LINE
  5
3572
330
2CD5
100
AcDbEntity
  8
DIM
 62
     0
370
    -2
100
AcDbLine
 10
7.29589862507287
 20
5.585625079803591
 30
0.0
 11
6.013267345982597
 21
5.585625079803591
 31
0.0
  0
LINE
  5
3573
330
2CD5
100
AcDbEntity
  8
DIM
 62
     0
370
    -2
100
AcDbLine
 10
6.176017345982597
 20
6.62062507980359
 30
0.0
 11
6.176017345982597
 21
6.527500079803591
 31
0.0
  0
LINE
  5
3574
330
2CD5
100
AcDbEntity
  8
DIM
 62
     0
370
    -2
100
AcDbLine
 10
6.176017345982597
 20
5.900625079803591
 30
0.0
 11
6.176017345982597
 21
5.993750079803591
 31
0.0
  0
SOLID
  5
3575
330
2CD5
100
AcDbEntity
  8
DIM
 62
     0
100
AcDbTrace
 10
6.123517345982597
 20
6.62062507980359
 30
0.0
 11
6.228517345982598
 21
6.62062507980359
 31
0.0
 12
6.176017345982597
 22
6.935625079803591
 32
0.0
 13
6.176017345982597
 23
6.935625079803591
 33
0.0
  0
SOLID
  5
3576
330
2CD5
100
AcDbEntity
  8
DIM
 62
     0
100
AcDbTrace
 10
6.123517345982596
 20
5.900625079803591
 30
0.0
 11
6.228517345982597
 21
5.900625079803591
 31
0.0
 12
6.176017345982597
 22
5.585625079803591
 32
0.0
 13
6.176017345982597
 23
5.585625079803591
 33
0.0
  0
MTEXT
  5
3577
330
2CD5
100
AcDbEntity
  8
DIM
 62
     0
100
AcDbMText
 10
6.176017345982596
 20
6.260625079803593
 30
0.0
 40
0.21875
 41
0.0
 71
     5
 72
     1
  1
\A1;1.350
 73
     1
 44
1.0
  0
POINT
  5
3578
330
2CD5
100
AcDbEntity
  8
Defpoints
 62
     0
100
AcDbPoint
 10
7.406148625072869
 20
6.935625079803591
 30
0.0
  0
POINT
  5
3579
330
2CD5
100
AcDbEntity
  8
Defpoints
 62
     0
100
AcDbPoint
 10
7.406148625072869
 20
5.585625079803591
 30
0.0
  0
POINT
  5
357A
330
2CD5
100
AcDbEntity
  8
Defpoints
 62
     0
100
AcDbPoint
 10
6.176017345982597
 20
5.585625079803591
 30
0.0
  0
ENDBLK
  5
2CE1
330
2CD5
100
AcDbEntity
  8
0
100
AcDbBlockEnd
  0
BLOCK
  5
2CF9
330
2CEE
100
AcDbEntity
  8
0
100
AcDbBlockBegin
  2
*D36
 70
     1
 10
0.0
 20
0.0
 30
0.0
  3
*D36
  1

  0
LINE
  5
35CB
330
2CEE
100
AcDbEntity
  8
DIM
 62
     0
370
    -2
100
AcDbLine
 10
7.481148625072869
 20
10.96037507980359
 30
0.0
 11
7.481148625072869
 21
12.23424965597795
 31
0.0
  0
LINE
  5
35CC
330
2CEE
100
AcDbEntity
  8
DIM
 62
     0
370
    -2
100
AcDbLine
 10
10.08114862507287
 20
10.96037507980359
 30
0.0
 11
10.08114862507287
 21
12.23424965597795
 31
0.0
  0
LINE
  5
35CD
330
2CEE
100
AcDbEntity
  8
DIM
 62
     0
370
    -2
100
AcDbLine
 10
7.796148625072869
 20
12.07149965597795
 30
0.0
 11
8.322867375072869
 21
12.07149965597795
 31
0.0
  0
LINE
  5
35CE
330
2CEE
100
AcDbEntity
  8
DIM
 62
     0
370
    -2
100
AcDbLine
 10
9.766148625072871
 20
12.07149965597795
 30
0.0
 11
9.23942987507287
 21
12.07149965597795
 31
0.0
  0
SOLID
  5
35CF
330
2CEE
100
AcDbEntity
  8
DIM
 62
     0
100
AcDbTrace
 10
7.796148625072869
 20
12.12399965597795
 30
0.0
 11
7.796148625072869
 21
12.01899965597795
 31
0.0
 12
7.481148625072869
 22
12.07149965597795
 32
0.0
 13
7.481148625072869
 23
12.07149965597795
 33
0.0
  0
SOLID
  5
35D0
330
2CEE
100
AcDbEntity
  8
DIM
 62
     0
100
AcDbTrace
 10
9.766148625072871
 20
12.12399965597795
 30
0.0
 11
9.766148625072871
 21
12.01899965597795
 31
0.0
 12
10.08114862507287
 22
12.07149965597795
 32
0.0
 13
10.08114862507287
 23
12.07149965597795
 33
0.0
  0
MTEXT
  5
35D1
330
2CEE
100
AcDbEntity
  8
DIM
 62
     0
100
AcDbMText
 10
8.781148625072869
 20
12.07149965597795
 30
0.0
 40
0.21875
 41
0.0
 71
     5
 72
     1
  1
\A1;2.600
 73
     1
 44
1.0
  0
POINT
  5
35D2
330
2CEE
100
AcDbEntity
  8
Defpoints
 62
     0
100
AcDbPoint
 10
7.481148625072869
 20
10.85012507980358
 30
0.0
  0
POINT
  5
35D3
330
2CEE
100
AcDbEntity
  8
Defpoints
 62
     0
100
AcDbPoint
 10
10.08114862507287
 20
10.85012507980358
 30
0.0
  0
POINT
  5
35D4
330
2CEE
100
AcDbEntity
  8
Defpoints
 62
     0
100
AcDbPoint
 10
10.08114862507287
 20
12.07149965597795
 30
0.0
  0
ENDBLK
  5
2CFA
330
2CEE
100
AcDbEntity
  8
0
100
AcDbBlockEnd
  0
BLOCK
  5
2D07
330
2CFC
100
AcDbEntity
  8
0
100
AcDbBlockBegin
  2
*D37
 70
     1
 10
0.0
 20
0.0
 30
0.0
  3
*D37
  1

  0
LINE
  5
3567
330
2CFC
100
AcDbEntity
  8
DIM
 62
     0
370
    -2
100
AcDbLine
 10
7.406148625072869
 20
5.475375079803591
 30
0.0
 11
7.406148625072869
 21
3.931367508043488
 31
0.0
  0
LINE
  5
3568
330
2CFC
100
AcDbEntity
  8
DIM
 62
     0
370
    -2
100
AcDbLine
 10
10.15614862507286
 20
5.475375079803591
 30
0.0
 11
10.15614862507286
 21
3.931367508043488
 31
0.0
  0
LINE
  5
3569
330
2CFC
100
AcDbEntity
  8
DIM
 62
     0
370
    -2
100
AcDbLine
 10
7.72114862507287
 20
4.094117508043488
 30
0.0
 11
8.309195500072869
 21
4.094117508043488
 31
0.0
  0
LINE
  5
356A
330
2CFC
100
AcDbEntity
  8
DIM
 62
     0
370
    -2
100
AcDbLine
 10
9.84114862507287
 20
4.094117508043488
 30
0.0
 11
9.25310175007287
 21
4.094117508043488
 31
0.0
  0
SOLID
  5
356B
330
2CFC
100
AcDbEntity
  8
DIM
 62
     0
100
AcDbTrace
 10
7.72114862507287
 20
4.146617508043489
 30
0.0
 11
7.72114862507287
 21
4.041617508043488
 31
0.0
 12
7.406148625072869
 22
4.094117508043488
 32
0.0
 13
7.406148625072869
 23
4.094117508043488
 33
0.0
  0
SOLID
  5
356C
330
2CFC
100
AcDbEntity
  8
DIM
 62
     0
100
AcDbTrace
 10
9.84114862507287
 20
4.146617508043489
 30
0.0
 11
9.84114862507287
 21
4.041617508043488
 31
0.0
 12
10.15614862507286
 22
4.094117508043488
 32
0.0
 13
10.15614862507286
 23
4.094117508043488
 33
0.0
  0
MTEXT
  5
356D
330
2CFC
100
AcDbEntity
  8
DIM
 62
     0
100
AcDbMText
 10
8.781148625072869
 20
4.094117508043488
 30
0.0
 40
0.21875
 41
0.0
 71
     5
 72
     1
  1
\A1;2.750
 73
     1
 44
1.0
  0
POINT
  5
356E
330
2CFC
100
AcDbEntity
  8
Defpoints
 62
     0
100
AcDbPoint
 10
7.406148625072869
 20
5.585625079803591
 30
0.0
  0
POINT
  5
356F
330
2CFC
100
AcDbEntity
  8
Defpoints
 62
     0
100
AcDbPoint
 10
10.15614862507286
 20
5.585625079803591
 30
0.0
  0
POINT
  5
3570
330
2CFC
100
AcDbEntity
  8
Defpoints
 62
     0
100
AcDbPoint
 10
10.15614862507286
 20
4.094117508043488
 30
0.0
  0
ENDBLK
  5
2D08
330
2CFC
100
AcDbEntity
  8
0
100
AcDbBlockEnd
  0
BLOCK
  5
2D21
330
2D16
100
AcDbEntity
  8
0
100
AcDbBlockBegin
  2
*D38
 70
     1
 10
0.0
 20
0.0
 30
0.0
  3
*D38
  1

  0
LINE
  5
35D5
330
2D16
100
AcDbEntity
  8
DIM
 62
     0
370
    -2
100
AcDbLine
 10
7.481148625072869
 20
10.96037507980359
 30
0.0
 11
7.481148625072869
 21
11.69587507980359
 31
0.0
  0
LINE
  5
35D6
330
2D16
100
AcDbEntity
  8
DIM
 62
     0
370
    -2
100
AcDbLine
 10
8.781148625072873
 20
11.37037507980359
 30
0.0
 11
8.781148625072873
 21
11.69587507980359
 31
0.0
  0
LINE
  5
35D7
330
2D16
100
AcDbEntity
  8
DIM
 62
     0
370
    -2
100
AcDbLine
 10
7.166148625072868
 20
11.53312507980359
 30
0.0
 11
6.851148625072869
 21
11.53312507980359
 31
0.0
  0
LINE
  5
35D8
330
2D16
100
AcDbEntity
  8
DIM
 62
     0
370
    -2
100
AcDbLine
 10
9.096148625072872
 20
11.53312507980359
 30
0.0
 11
9.411148625072874
 21
11.53312507980359
 31
0.0
  0
SOLID
  5
35D9
330
2D16
100
AcDbEntity
  8
DIM
 62
     0
100
AcDbTrace
 10
7.166148625072868
 20
11.58562507980359
 30
0.0
 11
7.166148625072868
 21
11.48062507980359
 31
0.0
 12
7.481148625072869
 22
11.53312507980359
 32
0.0
 13
7.481148625072869
 23
11.53312507980359
 33
0.0
  0
SOLID
  5
35DA
330
2D16
100
AcDbEntity
  8
DIM
 62
     0
100
AcDbTrace
 10
9.096148625072872
 20
11.58562507980359
 30
0.0
 11
9.096148625072872
 21
11.48062507980359
 31
0.0
 12
8.781148625072873
 22
11.53312507980359
 32
0.0
 13
8.781148625072873
 23
11.53312507980359
 33
0.0
  0
MTEXT
  5
35DB
330
2D16
100
AcDbEntity
  8
DIM
 62
     0
100
AcDbMText
 10
8.131148625072871
 20
11.53312507980359
 30
0.0
 40
0.21875
 41
0.0
 71
     5
 72
     1
  1
\A1;1.300
 73
     1
 44
1.0
  0
POINT
  5
35DC
330
2D16
100
AcDbEntity
  8
Defpoints
 62
     0
100
AcDbPoint
 10
7.481148625072869
 20
10.85012507980358
 30
0.0
  0
POINT
  5
35DD
330
2D16
100
AcDbEntity
  8
Defpoints
 62
     0
100
AcDbPoint
 10
8.781148625072873
 20
11.26012507980359
 30
0.0
  0
POINT
  5
35DE
330
2D16
100
AcDbEntity
  8
Defpoints
 62
     0
100
AcDbPoint
 10
8.781148625072873
 20
11.53312507980359
 30
0.0
  0
ENDBLK
  5
2D22
330
2D16
100
AcDbEntity
  8
0
100
AcDbBlockEnd
  0
BLOCK
  5
2D2F
330
2D24
100
AcDbEntity
  8
0
100
AcDbBlockBegin
  2
*D39
 70
     1
 10
0.0
 20
0.0
 30
0.0
  3
*D39
  1

  0
LINE
  5
357B
330
2D24
100
AcDbEntity
  8
DIM
 62
     0
370
    -2
100
AcDbLine
 10
7.406148625072869
 20
5.475375079803591
 30
0.0
 11
7.406148625072869
 21
4.34037507980359
 31
0.0
  0
LINE
  5
357C
330
2D24
100
AcDbEntity
  8
DIM
 62
     0
370
    -2
100
AcDbLine
 10
8.781148625072873
 20
4.66587507980359
 30
0.0
 11
8.781148625072873
 21
4.34037507980359
 31
0.0
  0
LINE
  5
357D
330
2D24
100
AcDbEntity
  8
DIM
 62
     0
370
    -2
100
AcDbLine
 10
7.091148625072869
 20
4.50312507980359
 30
0.0
 11
6.776148625072869
 21
4.50312507980359
 31
0.0
  0
LINE
  5
357E
330
2D24
100
AcDbEntity
  8
DIM
 62
     0
370
    -2
100
AcDbLine
 10
9.096148625072872
 20
4.50312507980359
 30
0.0
 11
9.411148625072874
 21
4.50312507980359
 31
0.0
  0
SOLID
  5
357F
330
2D24
100
AcDbEntity
  8
DIM
 62
     0
100
AcDbTrace
 10
7.091148625072869
 20
4.55562507980359
 30
0.0
 11
7.091148625072869
 21
4.45062507980359
 31
0.0
 12
7.406148625072869
 22
4.50312507980359
 32
0.0
 13
7.406148625072869
 23
4.50312507980359
 33
0.0
  0
SOLID
  5
3580
330
2D24
100
AcDbEntity
  8
DIM
 62
     0
100
AcDbTrace
 10
9.096148625072872
 20
4.55562507980359
 30
0.0
 11
9.096148625072872
 21
4.45062507980359
 31
0.0
 12
8.781148625072873
 22
4.50312507980359
 32
0.0
 13
8.781148625072873
 23
4.50312507980359
 33
0.0
  0
MTEXT
  5
3581
330
2D24
100
AcDbEntity
  8
DIM
 62
     0
100
AcDbMText
 10
8.093648625072871
 20
4.50312507980359
 30
0.0
 40
0.21875
 41
0.0
 71
     5
 72
     1
  1
\A1;1.375
 73
     1
 44
1.0
  0
POINT
  5
3582
330
2D24
100
AcDbEntity
  8
Defpoints
 62
     0
100
AcDbPoint
 10
7.406148625072869
 20
5.585625079803591
 30
0.0
  0
POINT
  5
3583
330
2D24
100
AcDbEntity
  8
Defpoints
 62
     0
100
AcDbPoint
 10
8.781148625072873
 20
4.776125079803589
 30
0.0
  0
POINT
  5
3584
330
2D24
100
AcDbEntity
  8
Defpoints
 62
     0
100
AcDbPoint
 10
8.781148625072873
 20
4.50312507980359
 30
0.0
  0
ENDBLK
  5
2D30
330
2D24
100
AcDbEntity
  8
0
100
AcDbBlockEnd
  0
BLOCK
  5
2D79
330
2D6E
100
AcDbEntity
  8
0
100
AcDbBlockBegin
  2
*D40
 70
     1
 10
0.0
 20
0.0
 30
0.0
  3
*D40
  1

  0
LINE
  5
36BB
330
2D6E
100
AcDbEntity
  8
DIM
 62
     0
370
    -2
100
AcDbLine
 10
24.65299669310195
 20
9.467233815349381
 30
0.0
 11
24.65299669310195
 21
9.30448381534938
 31
0.0
  0
LINE
  5
36BC
330
2D6E
100
AcDbEntity
  8
DIM
 62
     0
370
    -2
100
AcDbLine
 10
27.51299669310195
 20
9.467233815349381
 30
0.0
 11
27.51299669310195
 21
9.30448381534938
 31
0.0
  0
LINE
  5
36BD
330
2D6E
100
AcDbEntity
  8
DIM
 62
     0
370
    -2
100
AcDbLine
 10
24.96799669310195
 20
9.467233815349381
 30
0.0
 11
25.61104356810195
 21
9.467233815349381
 31
0.0
  0
LINE
  5
36BE
330
2D6E
100
AcDbEntity
  8
DIM
 62
     0
370
    -2
100
AcDbLine
 10
27.19799669310194
 20
9.467233815349381
 30
0.0
 11
26.55494981810194
 21
9.467233815349381
 31
0.0
  0
SOLID
  5
36BF
330
2D6E
100
AcDbEntity
  8
DIM
 62
     0
100
AcDbTrace
 10
24.96799669310195
 20
9.519733815349381
 30
0.0
 11
24.96799669310195
 21
9.41473381534938
 31
0.0
 12
24.65299669310195
 22
9.467233815349381
 32
0.0
 13
24.65299669310195
 23
9.467233815349381
 33
0.0
  0
SOLID
  5
36C0
330
2D6E
100
AcDbEntity
  8
DIM
 62
     0
100
AcDbTrace
 10
27.19799669310194
 20
9.519733815349381
 30
0.0
 11
27.19799669310194
 21
9.41473381534938
 31
0.0
 12
27.51299669310195
 22
9.467233815349381
 32
0.0
 13
27.51299669310195
 23
9.467233815349381
 33
0.0
  0
MTEXT
  5
36C1
330
2D6E
100
AcDbEntity
  8
DIM
 62
     0
100
AcDbMText
 10
26.08299669310195
 20
9.467233815349381
 30
0.0
 40
0.21875
 41
0.0
 71
     5
 72
     1
  1
\A1;2.860
 73
     1
 44
1.0
  0
POINT
  5
36C2
330
2D6E
100
AcDbEntity
  8
Defpoints
 62
     0
100
AcDbPoint
 10
24.65299669310195
 20
9.577483815349381
 30
0.0
  0
POINT
  5
36C3
330
2D6E
100
AcDbEntity
  8
Defpoints
 62
     0
100
AcDbPoint
 10
27.51299669310195
 20
9.577483815349381
 30
0.0
  0
POINT
  5
36C4
330
2D6E
100
AcDbEntity
  8
Defpoints
 62
     0
100
AcDbPoint
 10
27.51299669310195
 20
9.467233815349381
 30
0.0
  0
ENDBLK
  5
2D7A
330
2D6E
100
AcDbEntity
  8
0
100
AcDbBlockEnd
  0
BLOCK
  5
2D9B
330
2D90
100
AcDbEntity
  8
0
100
AcDbBlockBegin
  2
*D41
 70
     1
 10
0.0
 20
0.0
 30
0.0
  3
*D41
  1

  0
LINE
  5
3625
330
2D90
100
AcDbEntity
  8
DIM
 62
     0
370
    -2
100
AcDbLine
 10
25.65768359255736
 20
10.81012507980359
 30
0.0
 11
25.82043359255736
 21
10.81012507980359
 31
0.0
  0
LINE
  5
3626
330
2D90
100
AcDbEntity
  8
DIM
 62
     0
370
    -2
100
AcDbLine
 10
25.65768359255736
 20
5.226125079803589
 30
0.0
 11
25.82043359255736
 21
5.226125079803589
 31
0.0
  0
LINE
  5
3627
330
2D90
100
AcDbEntity
  8
DIM
 62
     0
370
    -2
100
AcDbLine
 10
25.65768359255736
 20
10.49512507980359
 30
0.0
 11
25.65768359255736
 21
8.551875079803586
 31
0.0
  0
LINE
  5
3628
330
2D90
100
AcDbEntity
  8
DIM
 62
     0
370
    -2
100
AcDbLine
 10
25.65768359255736
 20
5.541125079803589
 30
0.0
 11
25.65768359255736
 21
8.018125079803585
 31
0.0
  0
SOLID
  5
3629
330
2D90
100
AcDbEntity
  8
DIM
 62
     0
100
AcDbTrace
 10
25.60518359255737
 20
10.49512507980359
 30
0.0
 11
25.71018359255736
 21
10.49512507980359
 31
0.0
 12
25.65768359255736
 22
10.81012507980359
 32
0.0
 13
25.65768359255736
 23
10.81012507980359
 33
0.0
  0
SOLID
  5
362A
330
2D90
100
AcDbEntity
  8
DIM
 62
     0
100
AcDbTrace
 10
25.60518359255736
 20
5.541125079803589
 30
0.0
 11
25.71018359255736
 21
5.541125079803589
 31
0.0
 12
25.65768359255736
 22
5.226125079803589
 32
0.0
 13
25.65768359255736
 23
5.226125079803589
 33
0.0
  0
MTEXT
  5
362B
330
2D90
100
AcDbEntity
  8
DIM
 62
     0
100
AcDbMText
 10
25.65768359255736
 20
8.285000079803589
 30
0.0
 40
0.21875
 41
0.0
 71
     5
 72
     1
  1
\A1;5.584
 73
     1
 44
1.0
  0
POINT
  5
362C
330
2D90
100
AcDbEntity
  8
Defpoints
 62
     0
100
AcDbPoint
 10
25.54743359255736
 20
10.81012507980359
 30
0.0
  0
POINT
  5
362D
330
2D90
100
AcDbEntity
  8
Defpoints
 62
     0
100
AcDbPoint
 10
25.54743359255736
 20
5.226125079803589
 30
0.0
  0
POINT
  5
362E
330
2D90
100
AcDbEntity
  8
Defpoints
 62
     0
100
AcDbPoint
 10
25.65768359255736
 20
5.226125079803589
 30
0.0
  0
ENDBLK
  5
2D9C
330
2D90
100
AcDbEntity
  8
0
100
AcDbBlockEnd
  0
BLOCK
  5
2DD1
330
2DC6
100
AcDbEntity
  8
0
100
AcDbBlockBegin
  2
*D42
 70
     1
 10
0.0
 20
0.0
 30
0.0
  3
*D42
  1

  0
LINE
  5
35C1
330
2DC6
100
AcDbEntity
  8
DIM
 62
     0
370
    -2
100
AcDbLine
 10
1.638236690036392
 20
8.939009744208478
 30
0.0
 11
1.638236690036392
 21
9.101759744208477
 31
0.0
  0
LINE
  5
35C2
330
2DC6
100
AcDbEntity
  8
DIM
 62
     0
370
    -2
100
AcDbLine
 10
4.514236690036392
 20
8.93900974420848
 30
0.0
 11
4.514236690036392
 21
9.101759744208477
 31
0.0
  0
LINE
  5
35C3
330
2DC6
100
AcDbEntity
  8
DIM
 62
     0
370
    -2
100
AcDbLine
 10
1.953236690036391
 20
8.939009744208476
 30
0.0
 11
2.590611690036392
 21
8.939009744208476
 31
0.0
  0
LINE
  5
35C4
330
2DC6
100
AcDbEntity
  8
DIM
 62
     0
370
    -2
100
AcDbLine
 10
4.199236690036392
 20
8.939009744208476
 30
0.0
 11
3.561861690036391
 21
8.939009744208476
 31
0.0
  0
SOLID
  5
35C5
330
2DC6
100
AcDbEntity
  8
DIM
 62
     0
100
AcDbTrace
 10
1.953236690036391
 20
8.991509744208476
 30
0.0
 11
1.953236690036391
 21
8.886509744208476
 31
0.0
 12
1.638236690036392
 22
8.939009744208476
 32
0.0
 13
1.638236690036392
 23
8.939009744208476
 33
0.0
  0
SOLID
  5
35C6
330
2DC6
100
AcDbEntity
  8
DIM
 62
     0
100
AcDbTrace
 10
4.199236690036392
 20
8.991509744208476
 30
0.0
 11
4.199236690036392
 21
8.886509744208476
 31
0.0
 12
4.514236690036392
 22
8.939009744208476
 32
0.0
 13
4.514236690036392
 23
8.939009744208476
 33
0.0
  0
MTEXT
  5
35C7
330
2DC6
100
AcDbEntity
  8
DIM
 62
     0
100
AcDbMText
 10
3.076236690036392
 20
8.939009744208476
 30
0.0
 40
0.21875
 41
0.0
 71
     5
 72
     1
  1
\A1;2.876
 73
     1
 44
1.0
  0
POINT
  5
35C8
330
2DC6
100
AcDbEntity
  8
Defpoints
 62
     0
100
AcDbPoint
 10
1.638236690036392
 20
8.828759744208477
 30
0.0
  0
POINT
  5
35C9
330
2DC6
100
AcDbEntity
  8
Defpoints
 62
     0
100
AcDbPoint
 10
4.514236690036392
 20
8.828759744208479
 30
0.0
  0
POINT
  5
35CA
330
2DC6
100
AcDbEntity
  8
Defpoints
 62
     0
100
AcDbPoint
 10
4.514236690036392
 20
8.939009744208476
 30
0.0
  0
ENDBLK
  5
2DD2
330
2DC6
100
AcDbEntity
  8
0
100
AcDbBlockEnd
  0
BLOCK
  5
2DE0
330
2DD5
100
AcDbEntity
  8
0
100
AcDbBlockBegin
  2
*D43
 70
     1
 10
0.0
 20
0.0
 30
0.0
  3
*D43
  1

  0
LINE
  5
3529
330
2DD5
100
AcDbEntity
  8
DIM
 62
     0
370
    -2
100
AcDbLine
 10
2.635802386199177
 20
5.204190353071798
 30
0.0
 11
2.798552386199177
 21
5.204190353071798
 31
0.0
  0
LINE
  5
352A
330
2DD5
100
AcDbEntity
  8
DIM
 62
     0
370
    -2
100
AcDbLine
 10
2.596460281199117
 20
10.82795048254125
 30
0.0
 11
2.798552386199178
 21
10.82795048254125
 31
0.0
  0
LINE
  5
352B
330
2DD5
100
AcDbEntity
  8
DIM
 62
     0
370
    -2
100
AcDbLine
 10
2.635802386199177
 20
5.519190353071798
 30
0.0
 11
2.635802386199177
 21
7.482320417806527
 31
0.0
  0
LINE
  5
352C
330
2DD5
100
AcDbEntity
  8
DIM
 62
     0
370
    -2
100
AcDbLine
 10
2.635802386199178
 20
10.51295048254125
 30
0.0
 11
2.635802386199177
 21
8.016070417806528
 31
0.0
  0
SOLID
  5
352D
330
2DD5
100
AcDbEntity
  8
DIM
 62
     0
100
AcDbTrace
 10
2.583302386199177
 20
5.519190353071798
 30
0.0
 11
2.688302386199177
 21
5.519190353071798
 31
0.0
 12
2.635802386199177
 22
5.204190353071798
 32
0.0
 13
2.635802386199177
 23
5.204190353071798
 33
0.0
  0
SOLID
  5
352E
330
2DD5
100
AcDbEntity
  8
DIM
 62
     0
100
AcDbTrace
 10
2.583302386199178
 20
10.51295048254125
 30
0.0
 11
2.688302386199178
 21
10.51295048254125
 31
0.0
 12
2.635802386199178
 22
10.82795048254125
 32
0.0
 13
2.635802386199178
 23
10.82795048254125
 33
0.0
  0
MTEXT
  5
352F
330
2DD5
100
AcDbEntity
  8
DIM
 62
     0
100
AcDbMText
 10
2.635802386199176
 20
7.749195417806528
 30
0.0
 40
0.21875
 41
0.0
 71
     5
 72
     1
  1
\A1;5.624
 73
     1
 44
1.0
  0
POINT
  5
3530
330
2DD5
100
AcDbEntity
  8
Defpoints
 62
     0
100
AcDbPoint
 10
2.525552386199176
 20
5.204190353071798
 30
0.0
  0
POINT
  5
3531
330
2DD5
100
AcDbEntity
  8
Defpoints
 62
     0
100
AcDbPoint
 10
2.486210281199117
 20
10.82795048254125
 30
0.0
  0
POINT
  5
3532
330
2DD5
100
AcDbEntity
  8
Defpoints
 62
     0
100
AcDbPoint
 10
2.635802386199178
 20
10.82795048254125
 30
0.0
  0
ENDBLK
  5
2DE1
330
2DD5
100
AcDbEntity
  8
0
100
AcDbBlockEnd
  0
BLOCK
  5
3033
330
3028
100
AcDbEntity
  8
0
100
AcDbBlockBegin
  2
*D44
 70
     1
 10
0.0
 20
0.0
 30
0.0
  3
*D44
  1

  0
LINE
  5
3599
330
3028
100
AcDbEntity
  8
DIM
 62
     0
370
    -2
100
AcDbLine
 10
12.91402228087556
 20
5.449875079803587
 30
0.0
 11
12.91402228087556
 21
4.022239696565963
 31
0.0
  0
LINE
  5
359A
330
3028
100
AcDbEntity
  8
DIM
 62
     0
370
    -2
100
AcDbLine
 10
11.80402228087555
 20
5.390274290143216
 30
0.0
 11
11.80402228087555
 21
4.022239696565963
 31
0.0
  0
LINE
  5
359B
330
3028
100
AcDbEntity
  8
DIM
 62
     0
370
    -2
100
AcDbLine
 10
13.22902228087556
 20
4.184989696565963
 30
0.0
 11
13.54402228087556
 21
4.184989696565963
 31
0.0
  0
LINE
  5
359C
330
3028
100
AcDbEntity
  8
DIM
 62
     0
370
    -2
100
AcDbLine
 10
11.48902228087555
 20
4.184989696565963
 30
0.0
 11
11.17402228087555
 21
4.184989696565963
 31
0.0
  0
SOLID
  5
359D
330
3028
100
AcDbEntity
  8
DIM
 62
     0
100
AcDbTrace
 10
13.22902228087556
 20
4.237489696565964
 30
0.0
 11
13.22902228087556
 21
4.132489696565963
 31
0.0
 12
12.91402228087556
 22
4.184989696565963
 32
0.0
 13
12.91402228087556
 23
4.184989696565963
 33
0.0
  0
SOLID
  5
359E
330
3028
100
AcDbEntity
  8
DIM
 62
     0
100
AcDbTrace
 10
11.48902228087555
 20
4.237489696565964
 30
0.0
 11
11.48902228087555
 21
4.132489696565963
 31
0.0
 12
11.80402228087555
 22
4.184989696565963
 32
0.0
 13
11.80402228087555
 23
4.184989696565963
 33
0.0
  0
MTEXT
  5
359F
330
3028
100
AcDbEntity
  8
DIM
 62
     0
100
AcDbMText
 10
12.35902228087556
 20
4.184989696565963
 30
0.0
 40
0.21875
 41
0.0
 71
     5
 72
     1
  1
\A1;1.110
 73
     1
 44
1.0
  0
POINT
  5
35A0
330
3028
100
AcDbEntity
  8
Defpoints
 62
     0
100
AcDbPoint
 10
12.91402228087556
 20
5.560125079803587
 30
0.0
  0
POINT
  5
35A1
330
3028
100
AcDbEntity
  8
Defpoints
 62
     0
100
AcDbPoint
 10
11.80402228087555
 20
5.500524290143216
 30
0.0
  0
POINT
  5
35A2
330
3028
100
AcDbEntity
  8
Defpoints
 62
     0
100
AcDbPoint
 10
11.80402228087555
 20
4.184989696565963
 30
0.0
  0
ENDBLK
  5
3034
330
3028
100
AcDbEntity
  8
0
100
AcDbBlockEnd
  0
BLOCK
  5
3077
330
306C
100
AcDbEntity
  8
0
100
AcDbBlockBegin
  2
*D45
 70
     1
 10
0.0
 20
0.0
 30
0.0
  3
*D45
  1

  0
LINE
  5
3693
330
306C
100
AcDbEntity
  8
DIM
 62
     0
370
    -2
100
AcDbLine
 10
21.83482329058461
 20
8.83437507980356
 30
0.0
 11
21.83482329058461
 21
9.145632960539634
 31
0.0
  0
LINE
  5
3694
330
306C
100
AcDbEntity
  8
DIM
 62
     0
370
    -2
100
AcDbLine
 10
22.06482329058461
 20
8.847375079803562
 30
0.0
 11
22.06482329058461
 21
9.145632960539634
 31
0.0
  0
LINE
  5
3695
330
306C
100
AcDbEntity
  8
DIM
 62
     0
370
    -2
100
AcDbLine
 10
21.5198232905846
 20
8.982882960539633
 30
0.0
 11
21.2048232905846
 21
8.982882960539633
 31
0.0
  0
LINE
  5
3696
330
306C
100
AcDbEntity
  8
DIM
 62
     0
370
    -2
100
AcDbLine
 10
22.37982329058461
 20
8.982882960539633
 30
0.0
 11
22.69482329058461
 21
8.982882960539633
 31
0.0
  0
SOLID
  5
3697
330
306C
100
AcDbEntity
  8
DIM
 62
     0
100
AcDbTrace
 10
21.5198232905846
 20
9.035382960539633
 30
0.0
 11
21.5198232905846
 21
8.930382960539633
 31
0.0
 12
21.83482329058461
 22
8.982882960539633
 32
0.0
 13
21.83482329058461
 23
8.982882960539633
 33
0.0
  0
SOLID
  5
3698
330
306C
100
AcDbEntity
  8
DIM
 62
     0
100
AcDbTrace
 10
22.37982329058461
 20
9.035382960539633
 30
0.0
 11
22.37982329058461
 21
8.930382960539633
 31
0.0
 12
22.06482329058461
 22
8.982882960539633
 32
0.0
 13
22.06482329058461
 23
8.982882960539633
 33
0.0
  0
MTEXT
  5
3699
330
306C
100
AcDbEntity
  8
DIM
 62
     0
100
AcDbMText
 10
23.15310454058461
 20
8.982882960539633
 30
0.0
 40
0.21875
 41
0.0
 71
     5
 72
     1
  1
\A1;0.230
 73
     1
 44
1.0
  0
POINT
  5
369A
330
306C
100
AcDbEntity
  8
Defpoints
 62
     0
100
AcDbPoint
 10
21.83482329058461
 20
8.72412507980356
 30
0.0
  0
POINT
  5
369B
330
306C
100
AcDbEntity
  8
Defpoints
 62
     0
100
AcDbPoint
 10
22.06482329058461
 20
8.737125079803561
 30
0.0
  0
POINT
  5
369C
330
306C
100
AcDbEntity
  8
Defpoints
 62
     0
100
AcDbPoint
 10
22.06482329058461
 20
8.982882960539633
 30
0.0
  0
ENDBLK
  5
3078
330
306C
100
AcDbEntity
  8
0
100
AcDbBlockEnd
  0
BLOCK
  5
3090
330
3085
100
AcDbEntity
  8
0
100
AcDbBlockBegin
  2
*D46
 70
     1
 10
0.0
 20
0.0
 30
0.0
  3
*D46
  1

  0
LINE
  5
364D
330
3085
100
AcDbEntity
  8
DIM
 62
     0
370
    -2
100
AcDbLine
 10
21.4198232905846
 20
7.006375079803588
 30
0.0
 11
21.4198232905846
 21
7.302726133633503
 31
0.0
  0
LINE
  5
364E
330
3085
100
AcDbEntity
  8
DIM
 62
     0
370
    -2
100
AcDbLine
 10
21.20182329058461
 20
7.011658776558431
 30
0.0
 11
21.20182329058461
 21
7.302726133633503
 31
0.0
  0
LINE
  5
364F
330
3085
100
AcDbEntity
  8
DIM
 62
     0
370
    -2
100
AcDbLine
 10
21.73482329058461
 20
7.139976133633503
 30
0.0
 11
22.04982329058461
 21
7.139976133633503
 31
0.0
  0
LINE
  5
3650
330
3085
100
AcDbEntity
  8
DIM
 62
     0
370
    -2
100
AcDbLine
 10
20.88682329058461
 20
7.139976133633503
 30
0.0
 11
20.5718232905846
 21
7.139976133633503
 31
0.0
  0
SOLID
  5
3651
330
3085
100
AcDbEntity
  8
DIM
 62
     0
100
AcDbTrace
 10
21.73482329058461
 20
7.192476133633503
 30
0.0
 11
21.73482329058461
 21
7.087476133633503
 31
0.0
 12
21.4198232905846
 22
7.139976133633503
 32
0.0
 13
21.4198232905846
 23
7.139976133633503
 33
0.0
  0
SOLID
  5
3652
330
3085
100
AcDbEntity
  8
DIM
 62
     0
100
AcDbTrace
 10
20.88682329058461
 20
7.192476133633503
 30
0.0
 11
20.88682329058461
 21
7.087476133633503
 31
0.0
 12
21.20182329058461
 22
7.139976133633503
 32
0.0
 13
21.20182329058461
 23
7.139976133633503
 33
0.0
  0
MTEXT
  5
3653
330
3085
100
AcDbEntity
  8
DIM
 62
     0
100
AcDbMText
 10
20.12721391558461
 20
7.139976133633503
 30
0.0
 40
0.21875
 41
0.0
 71
     5
 72
     1
  1
\A1;0.218
 73
     1
 44
1.0
  0
POINT
  5
3654
330
3085
100
AcDbEntity
  8
Defpoints
 62
     0
100
AcDbPoint
 10
21.4198232905846
 20
6.896125079803589
 30
0.0
  0
POINT
  5
3655
330
3085
100
AcDbEntity
  8
Defpoints
 62
     0
100
AcDbPoint
 10
21.20182329058461
 20
6.901408776558431
 30
0.0
  0
POINT
  5
3656
330
3085
100
AcDbEntity
  8
Defpoints
 62
     0
100
AcDbPoint
 10
21.20182329058461
 20
7.139976133633503
 30
0.0
  0
ENDBLK
  5
3091
330
3085
100
AcDbEntity
  8
0
100
AcDbBlockEnd
  0
BLOCK
  5
3109
330
30FC
100
AcDbEntity
  8
0
100
AcDbBlockBegin
  2
*D47
 70
     1
 10
0.0
 20
0.0
 30
0.0
  3
*D47
  1

  0
LINE
  5
36D3
330
30FC
100
AcDbEntity
  8
DIM
 62
     0
370
    -2
100
AcDbLine
 10
21.35042106165168
 20
2.5048564458567
 30
0.0
 11
20.22939105917543
 21
2.578332634138773
 31
0.0
  0
LINE
  5
36D4
330
30FC
100
AcDbEntity
  8
DIM
 62
     0
370
    -2
100
AcDbLine
 10
20.97279883853218
 20
1.033043301151165
 30
0.0
 11
20.1788035243061
 21
1.033043301151168
 31
0.0
  0
ARC
  5
36D5
330
30FC
100
AcDbEntity
  8
DIM
 62
     0
370
    -2
100
AcDbCircle
 10
43.80595028589306
 20
1.033043301151164
 30
0.0
 40
23.46439676158695
100
AcDbArc
 50
177.0191783538807
 51
177.4728552277079
  0
ARC
  5
36D6
330
30FC
100
AcDbEntity
  8
DIM
 62
     0
370
    -2
100
AcDbCircle
 10
43.80595028589306
 20
1.033043301151164
 30
0.0
 40
23.46439676158695
100
AcDbArc
 50
178.7769018536884
 51
179.2308216461192
  0
SOLID
  5
36D7
330
30FC
100
AcDbEntity
  8
DIM
 62
     0
100
AcDbTrace
 10
20.32089146278832
 20
2.256313454272977
 30
0.0
 11
20.42571038493134
 21
2.250149562582081
 31
0.0
 12
20.39179259893252
 22
2.567688274856567
 32
0.0
 13
20.39179259893252
 23
2.567688274856567
 33
0.0
  0
SOLID
  5
36D8
330
30FC
100
AcDbEntity
  8
DIM
 62
     0
100
AcDbTrace
 10
20.39616671515598
 20
1.347683809327077
 30
0.0
 11
20.2911690805665
 21
1.348388600512123
 31
0.0
 12
20.3415535243061
 22
1.033043301151167
 32
0.0
 13
20.3415535243061
 23
1.033043301151167
 33
0.0
  0
MTEXT
  5
36D9
330
30FC
100
AcDbEntity
  8
DIM
 62
     0
100
AcDbMText
 10
20.35411665619178
 20
1.800776842156535
 30
0.0
 40
0.21875
 41
0.0
 71
     5
 72
     1
  1
\A1;3.75° REF.
 73
     1
 44
1.0
  0
POINT
  5
36DA
330
30FC
100
AcDbEntity
  8
Defpoints
 62
     0
100
AcDbPoint
 10
20.36388643073851
 20
2.056545912788747
 30
0.0
  0
POINT
  5
36DB
330
30FC
100
AcDbEntity
  8
Defpoints
 62
     0
100
AcDbPoint
 10
21.46043500793874
 20
2.497645750859076
 30
0.0
  0
POINT
  5
36DC
330
30FC
100
AcDbEntity
  8
Defpoints
 62
     0
100
AcDbPoint
 10
21.08304883853218
 20
1.033043301151165
 30
0.0
  0
POINT
  5
36DD
330
30FC
100
AcDbEntity
  8
Defpoints
 62
     0
100
AcDbPoint
 10
27.50724585009302
 20
1.033043301151165
 30
0.0
  0
POINT
  5
36DE
330
30FC
100
AcDbEntity
  8
Defpoints
 62
     0
100
AcDbPoint
 10
26.84986548763914
 20
2.144403814617527
 30
0.0
  0
ENDBLK
  5
310A
330
30FC
100
AcDbEntity
  8
0
100
AcDbBlockEnd
  0
ENDSEC
  0
SECTION
  2
ENTITIES
  0
CIRCLE
  5
209
330
1E
100
AcDbEntity
  8
OBJECT
100
AcDbCircle
 10
1.954236690036392
 20
10.59712507980359
 30
0.0
 40
0.06
  0
CIRCLE
  5
20B
330
1E
100
AcDbEntity
  8
OBJECT
100
AcDbCircle
 10
1.954236690036392
 20
10.59712507980359
 30
0.0
 40
0.0983552625
  0
CIRCLE
  5
231
330
1E
100
AcDbEntity
  8
HIDDEN
100
AcDbCircle
 10
1.954236690036392
 20
10.59712507980359
 30
0.0
 40
0.1375
  0
CIRCLE
  5
232
330
1E
100
AcDbEntity
  8
OBJECT
100
AcDbCircle
 10
1.954236690036392
 20
10.59712507980359
 30
0.0
 40
0.177
  0
CIRCLE
  5
233
330
1E
100
AcDbEntity
  8
OBJECT
100
AcDbCircle
 10
1.954236690036392
 20
10.59712507980359
 30
0.0
 40
0.118
  0
CIRCLE
  5
2E1
330
1E
100
AcDbEntity
  8
OBJECT
100
AcDbCircle
 10
2.404236690036391
 20
10.59712507980359
 30
0.0
 40
0.041
  0
CIRCLE
  5
2E2
330
1E
100
AcDbEntity
  8
OBJECT
100
AcDbCircle
 10
3.748236690036392
 20
10.59712507980359
 30
0.0
 40
0.041
  0
CIRCLE
  5
2E3
330
1E
100
AcDbEntity
  8
OBJECT
100
AcDbCircle
 10
2.404236690036391
 20
9.81012507980359
 30
0.0
 40
0.041
  0
CIRCLE
  5
2E4
330
1E
100
AcDbEntity
  8
OBJECT
100
AcDbCircle
 10
3.748236690036392
 20
9.81012507980359
 30
0.0
 40
0.041
  0
CIRCLE
  5
2E5
330
1E
100
AcDbEntity
  8
OBJECT
100
AcDbCircle
 10
2.201236690036392
 20
8.624125079803562
 30
0.0
 40
0.041
  0
CIRCLE
  5
2E6
330
1E
100
AcDbEntity
  8
OBJECT
100
AcDbCircle
 10
3.951236690036392
 20
8.62412507980359
 30
0.0
 40
0.041
  0
CIRCLE
  5
2E7
330
1E
100
AcDbEntity
  8
OBJECT
100
AcDbCircle
 10
2.201236690036392
 20
6.798125079803561
 30
0.0
 40
0.041
  0
CIRCLE
  5
2E8
330
1E
100
AcDbEntity
  8
OBJECT
100
AcDbCircle
 10
3.951236690036392
 20
6.79812507980359
 30
0.0
 40
0.041
  0
CIRCLE
  5
2F9
330
1E
100
AcDbEntity
  8
OBJECT
100
AcDbCircle
 10
2.404236690036391
 20
10.59712507980359
 30
0.0
 40
0.125
  0
CIRCLE
  5
2FA
330
1E
100
AcDbEntity
  8
OBJECT
100
AcDbCircle
 10
3.748236690036392
 20
10.59712507980359
 30
0.0
 40
0.125
  0
CIRCLE
  5
2FB
330
1E
100
AcDbEntity
  8
OBJECT
100
AcDbCircle
 10
2.404236690036391
 20
9.81012507980359
 30
0.0
 40
0.125
  0
CIRCLE
  5
2FC
330
1E
100
AcDbEntity
  8
OBJECT
100
AcDbCircle
 10
3.748236690036392
 20
9.81012507980359
 30
0.0
 40
0.125
  0
CIRCLE
  5
2FD
330
1E
100
AcDbEntity
  8
OBJECT
100
AcDbCircle
 10
2.201236690036392
 20
8.624125079803562
 30
0.0
 40
0.113
  0
CIRCLE
  5
2FE
330
1E
100
AcDbEntity
  8
OBJECT
100
AcDbCircle
 10
3.951236690036392
 20
8.62412507980359
 30
0.0
 40
0.113
  0
CIRCLE
  5
2FF
330
1E
100
AcDbEntity
  8
OBJECT
100
AcDbCircle
 10
2.201236690036392
 20
6.798125079803561
 30
0.0
 40
0.113
  0
CIRCLE
  5
300
330
1E
100
AcDbEntity
  8
OBJECT
100
AcDbCircle
 10
3.951236690036392
 20
6.79812507980359
 30
0.0
 40
0.113
  0
LINE
  5
443
330
1E
100
AcDbEntity
  8
CENTER
100
AcDbLine
 10
3.076236690036392
 20
11.26012507980359
 30
0.0
 11
3.076236690036392
 21
4.776125079803589
 31
0.0
  0
LINE
  5
444
330
1E
100
AcDbEntity
  8
CENTER
100
AcDbLine
 10
1.196236690036393
 20
8.018125079803589
 30
0.0
 11
4.956236690036391
 21
8.018125079803589
 31
0.0
  0
LWPOLYLINE
  5
451
330
1E
100
AcDbEntity
  8
OBJECT
100
AcDbPolyline
 90
        8
 70
     1
 43
0.0
 10
24.45299669310195
 20
5.213125079803589
 10
24.45299669310195
 20
10.94812507980359
 42
-0.4142135623730951
 10
24.51499669310194
 20
11.01012507980358
 10
27.65099669310195
 20
11.01012507980358
 42
-0.4142135623730951
 10
27.71299669310195
 20
10.94812507980359
 10
27.71299669310195
 20
5.213125079803589
 42
-0.4142135623730951
 10
27.52599669310195
 20
5.026125079803588
 10
24.63999669310195
 20
5.026125079803588
 42
-0.4142135623730951
  0
LINE
  5
464
330
1E
100
AcDbEntity
  8
CENTER
100
AcDbLine
 10
24.20299669310195
 20
8.018125079803589
 30
0.0
 11
27.96299669310195
 21
8.018125079803589
 31
0.0
  0
CIRCLE
  5
46C
330
1E
100
AcDbEntity
  8
OBJECT
100
AcDbCircle
 10
24.86399669310195
 20
5.384125079803592
 30
0.0
 40
0.098
  0
CIRCLE
  5
46E
330
1E
100
AcDbEntity
  8
OBJECT
100
AcDbCircle
 10
24.86399669310195
 20
5.384125079803592
 30
0.0
 40
0.041
  0
CIRCLE
  5
474
330
1E
100
AcDbEntity
  8
OBJECT
100
AcDbCircle
 10
24.86399669310195
 20
6.79812507980359
 30
0.0
 40
0.041
  0
CIRCLE
  5
475
330
1E
100
AcDbEntity
  8
OBJECT
100
AcDbCircle
 10
24.86399669310195
 20
6.79812507980359
 30
0.0
 40
0.098
  0
CIRCLE
  5
47F
330
1E
100
AcDbEntity
  8
OBJECT
100
AcDbCircle
 10
27.30199669310195
 20
5.384125079803592
 30
0.0
 40
0.098
  0
CIRCLE
  5
483
330
1E
100
AcDbEntity
  8
OBJECT
100
AcDbCircle
 10
27.30199669310195
 20
5.384125079803592
 30
0.0
 40
0.041
  0
CIRCLE
  5
486
330
1E
100
AcDbEntity
  8
OBJECT
100
AcDbCircle
 10
27.30199669310172
 20
6.79812507980359
 30
0.0
 40
0.098
  0
CIRCLE
  5
487
330
1E
100
AcDbEntity
  8
OBJECT
100
AcDbCircle
 10
27.30199669310172
 20
6.798125079803561
 30
0.0
 40
0.041
  0
CIRCLE
  5
491
330
1E
100
AcDbEntity
  8
OBJECT
100
AcDbCircle
 10
27.20499669310195
 20
10.59712507980359
 30
0.0
 40
0.041
  0
CIRCLE
  5
492
330
1E
100
AcDbEntity
  8
OBJECT
100
AcDbCircle
 10
27.20499669310195
 20
10.59712507980359
 30
0.0
 40
0.098
  0
CIRCLE
  5
497
330
1E
100
AcDbEntity
  8
OBJECT
100
AcDbCircle
 10
25.29599669310194
 20
10.54812507980358
 30
0.0
 40
0.098
  0
CIRCLE
  5
4A3
330
1E
100
AcDbEntity
  8
OBJECT
100
AcDbCircle
 10
24.96099669310195
 20
10.59712507980359
 30
0.0
 40
0.098
  0
LINE
  5
4A7
330
1E
100
AcDbEntity
  8
OBJECT
100
AcDbLine
 10
24.98066774560186
 20
10.81012507980359
 30
0.0
 11
24.98066774560186
 21
10.6931305468018
 31
0.0
  0
LINE
  5
4A8
330
1E
100
AcDbEntity
  8
OBJECT
100
AcDbLine
 10
24.9413256406018
 20
10.81012507980359
 30
0.0
 11
24.9413256406018
 21
10.69313054680176
 31
0.0
  0
CIRCLE
  5
4AA
330
1E
100
AcDbEntity
  8
OBJECT
100
AcDbCircle
 10
24.96099669310195
 20
10.59712507980359
 30
0.0
 40
0.041
  0
LINE
  5
4AF
330
1E
100
AcDbEntity
  8
OBJECT
100
AcDbLine
 10
24.90273354310209
 20
10.85212507980358
 30
0.0
 11
24.90273354310209
 21
10.81012507980359
 31
0.0
  0
LINE
  5
4B0
330
1E
100
AcDbEntity
  8
OBJECT
100
AcDbLine
 10
24.94207564810192
 20
10.85212507980358
 30
0.0
 11
24.94207564810192
 21
10.81012507980359
 31
0.0
  0
CIRCLE
  5
4B1
330
1E
100
AcDbEntity
  8
OBJECT
100
AcDbCircle
 10
25.29599669310194
 20
10.54812507980358
 30
0.0
 40
0.041
  0
CIRCLE
  5
4B6
330
1E
100
AcDbEntity
  8
OBJECT
100
AcDbCircle
 10
26.86999669310195
 20
10.54812507980358
 30
0.0
 40
0.098
  0
CIRCLE
  5
4B7
330
1E
100
AcDbEntity
  8
OBJECT
100
AcDbCircle
 10
26.86999669310195
 20
10.54812507980358
 30
0.0
 40
0.041
  0
LINE
  5
4B9
330
1E
100
AcDbEntity
  8
OBJECT
100
AcDbLine
 10
27.1853256406018
 20
10.81012507980359
 30
0.0
 11
27.1853256406018
 21
10.69313054680176
 31
0.0
  0
LINE
  5
4BD
330
1E
100
AcDbEntity
  8
OBJECT
100
AcDbLine
 10
27.22466774560186
 20
10.81012507980359
 30
0.0
 11
27.22466774560186
 21
10.6931305468018
 31
0.0
  0
LINE
  5
4C0
330
1E
100
AcDbEntity
  8
OBJECT
100
AcDbLine
 10
27.22391773810198
 20
10.85212507980358
 30
0.0
 11
27.22391773810198
 21
10.81012507980359
 31
0.0
  0
LINE
  5
4C1
330
1E
100
AcDbEntity
  8
OBJECT
100
AcDbLine
 10
27.26325984310204
 20
10.85212507980358
 30
0.0
 11
27.26325984310204
 21
10.81012507980359
 31
0.0
  0
LINE
  5
4C3
330
1E
100
AcDbEntity
  8
CENTER
100
AcDbLine
 10
26.08299669310195
 20
11.26012507980359
 30
0.0
 11
26.08299669310195
 21
4.776125079803589
 31
0.0
  0
LWPOLYLINE
  5
4F7
330
1E
100
AcDbEntity
  8
OBJECT
100
AcDbPolyline
 90
       10
 70
     0
 43
0.0
 10
24.9413256406018
 20
10.73612507980358
 10
24.77699669310195
 20
10.73612507980358
 42
0.4142135623730951
 10
24.68299669310194
 20
10.64212507980358
 10
24.68299669310194
 20
5.58012507980359
 42
0.4142135623730951
 10
24.77699669310195
 20
5.486125079803588
 10
27.38899669310195
 20
5.486125079803588
 42
0.4142135623730951
 10
27.48299669310195
 20
5.580125079803588
 10
27.48299669310195
 20
10.64212507980359
 42
0.4142135623730951
 10
27.38899669310195
 20
10.73612507980358
 10
27.22466774560186
 20
10.73612507980358
  0
LINE
  5
5F1
330
1E
100
AcDbEntity
  8
OBJECT
100
AcDbLine
 10
24.94207564810192
 20
5.184125079803589
 30
0.0
 11
24.94207564810192
 21
5.226125079803589
 31
0.0
  0
LINE
  5
5F2
330
1E
100
AcDbEntity
  8
OBJECT
100
AcDbLine
 10
24.90273354310209
 20
5.184125079803589
 30
0.0
 11
24.90273354310209
 21
5.226125079803589
 31
0.0
  0
LINE
  5
5F3
330
1E
100
AcDbEntity
  8
OBJECT
100
AcDbLine
 10
27.26325984310204
 20
5.184125079803591
 30
0.0
 11
27.26325984310204
 21
5.226125079803589
 31
0.0
  0
LINE
  5
5F4
330
1E
100
AcDbEntity
  8
OBJECT
100
AcDbLine
 10
27.22391773810198
 20
5.184125079803591
 30
0.0
 11
27.22391773810198
 21
5.226125079803589
 31
0.0
  0
LWPOLYLINE
  5
6AE
330
1E
100
AcDbEntity
  8
OBJECT
100
AcDbPolyline
 90
        2
 70
     0
 43
0.0
 10
27.1853256406018
 20
10.73612507980358
 10
24.98066774560186
 20
10.73612507980358
  0
LWPOLYLINE
  5
73A
330
1E
100
AcDbEntity
  8
OBJECT
100
AcDbPolyline
 90
        8
 70
     1
 43
0.0
 10
1.446236690036393
 20
5.213125079803589
 10
1.446236690036393
 20
10.94812507980359
 42
-0.4142135623730951
 10
1.50823669003639
 20
11.01012507980358
 10
4.644236690036393
 20
11.01012507980358
 42
-0.4142135623730951
 10
4.706236690036391
 20
10.94812507980359
 10
4.706236690036391
 20
5.213125079803589
 42
-0.4142135623730951
 10
4.519236690036393
 20
5.026125079803589
 10
1.63323669003639
 20
5.026125079803589
 42
-0.4142135623730951
  0
CIRCLE
  5
756
330
1E
100
AcDbEntity
  8
OBJECT
100
AcDbCircle
 10
2.201236690036392
 20
6.798125079803561
 30
0.0
 40
0.1
  0
CIRCLE
  5
75B
330
1E
100
AcDbEntity
  8
OBJECT
100
AcDbCircle
 10
2.404236690036391
 20
9.81012507980359
 30
0.0
 40
0.1
  0
CIRCLE
  5
75C
330
1E
100
AcDbEntity
  8
OBJECT
100
AcDbCircle
 10
2.404236690036391
 20
10.59712507980359
 30
0.0
 40
0.1
  0
CIRCLE
  5
75D
330
1E
100
AcDbEntity
  8
OBJECT
100
AcDbCircle
 10
3.748236690036392
 20
10.59712507980359
 30
0.0
 40
0.1
  0
CIRCLE
  5
75E
330
1E
100
AcDbEntity
  8
OBJECT
100
AcDbCircle
 10
3.748236690036392
 20
9.81012507980359
 30
0.0
 40
0.1
  0
CIRCLE
  5
75F
330
1E
100
AcDbEntity
  8
OBJECT
100
AcDbCircle
 10
2.201236690036392
 20
8.624125079803562
 30
0.0
 40
0.1
  0
CIRCLE
  5
760
330
1E
100
AcDbEntity
  8
OBJECT
100
AcDbCircle
 10
3.951236690036392
 20
8.62412507980359
 30
0.0
 40
0.1
  0
CIRCLE
  5
761
330
1E
100
AcDbEntity
  8
OBJECT
100
AcDbCircle
 10
3.951236690036392
 20
6.79812507980359
 30
0.0
 40
0.1
  0
CIRCLE
  5
77F
330
1E
100
AcDbEntity
  8
OBJECT
100
AcDbCircle
 10
1.857236690036391
 20
6.79812507980359
 30
0.0
 40
0.177
  0
CIRCLE
  5
780
330
1E
100
AcDbEntity
  8
OBJECT
100
AcDbCircle
 10
1.857236690036391
 20
6.79812507980359
 30
0.0
 40
0.118
  0
CIRCLE
  5
781
330
1E
100
AcDbEntity
  8
HIDDEN
100
AcDbCircle
 10
1.857236690036391
 20
6.79812507980359
 30
0.0
 40
0.1375
  0
CIRCLE
  5
782
330
1E
100
AcDbEntity
  8
OBJECT
100
AcDbCircle
 10
1.857236690036391
 20
6.79812507980359
 30
0.0
 40
0.0983552625
  0
CIRCLE
  5
783
330
1E
100
AcDbEntity
  8
OBJECT
100
AcDbCircle
 10
1.857236690036391
 20
6.79812507980359
 30
0.0
 40
0.06
  0
CIRCLE
  5
784
330
1E
100
AcDbEntity
  8
OBJECT
100
AcDbCircle
 10
4.198236690036392
 20
10.59712507980359
 30
0.0
 40
0.177
  0
CIRCLE
  5
785
330
1E
100
AcDbEntity
  8
OBJECT
100
AcDbCircle
 10
4.198236690036392
 20
10.59712507980359
 30
0.0
 40
0.118
  0
CIRCLE
  5
786
330
1E
100
AcDbEntity
  8
HIDDEN
100
AcDbCircle
 10
4.198236690036392
 20
10.59712507980359
 30
0.0
 40
0.1375
  0
CIRCLE
  5
787
330
1E
100
AcDbEntity
  8
OBJECT
100
AcDbCircle
 10
4.198236690036392
 20
10.59712507980359
 30
0.0
 40
0.0983552625
  0
CIRCLE
  5
788
330
1E
100
AcDbEntity
  8
OBJECT
100
AcDbCircle
 10
4.198236690036392
 20
10.59712507980359
 30
0.0
 40
0.06
  0
CIRCLE
  5
789
330
1E
100
AcDbEntity
  8
OBJECT
100
AcDbCircle
 10
4.295236690036393
 20
6.79812507980359
 30
0.0
 40
0.0983552625
  0
CIRCLE
  5
78A
330
1E
100
AcDbEntity
  8
HIDDEN
100
AcDbCircle
 10
4.295236690036393
 20
6.79812507980359
 30
0.0
 40
0.1375
  0
CIRCLE
  5
78B
330
1E
100
AcDbEntity
  8
OBJECT
100
AcDbCircle
 10
4.295236690036393
 20
6.79812507980359
 30
0.0
 40
0.118
  0
CIRCLE
  5
78C
330
1E
100
AcDbEntity
  8
OBJECT
100
AcDbCircle
 10
4.295236690036393
 20
6.79812507980359
 30
0.0
 40
0.177
  0
CIRCLE
  5
78D
330
1E
100
AcDbEntity
  8
OBJECT
100
AcDbCircle
 10
4.295236690036393
 20
6.79812507980359
 30
0.0
 40
0.06
  0
LWPOLYLINE
  5
78F
330
1E
100
AcDbEntity
  8
OBJECT
100
AcDbPolyline
 90
        8
 70
     1
 43
0.0
 10
1.49023669003639
 20
5.226125079803589
 10
1.490236690036393
 20
10.81012507980359
 42
-0.4142135623730951
 10
1.646236690036392
 20
10.96612507980359
 10
4.506236690036391
 20
10.96612507980359
 42
-0.4142135623730951
 10
4.66223669003639
 20
10.81012507980359
 10
4.66223669003639
 20
5.226125079803589
 42
-0.4142135623730951
 10
4.506236690036391
 20
5.07012507980359
 10
1.646236690036392
 20
5.07012507980359
 42
-0.4142135623730951
  0
LWPOLYLINE
  5
794
330
1E
100
AcDbEntity
  8
OBJECT
100
AcDbPolyline
 90
        8
 70
     1
 43
0.0
 10
1.501236690036392
 20
5.226125079803589
 10
1.501236690036392
 20
10.81012507980359
 42
-0.4142135623730991
 10
1.646236690036392
 20
10.95512507980359
 10
4.506236690036391
 20
10.95512507980359
 42
-0.4142135623730911
 10
4.651236690036391
 20
10.81012507980359
 10
4.651236690036391
 20
5.22612507980359
 42
-0.4142135623730958
 10
4.506236690036391
 20
5.081125079803589
 10
1.646236690036392
 20
5.081125079803589
 42
-0.4142135623730942
  0
LWPOLYLINE
  5
7A0
330
1E
100
AcDbEntity
  8
OBJECT
100
AcDbPolyline
 90
        8
 70
     1
 43
0.0
 10
1.536236690036389
 20
5.226125079803589
 10
1.536236690036393
 20
10.81012507980359
 42
-0.4142135623730966
 10
1.646236690036392
 20
10.92012507980359
 10
4.506236690036391
 20
10.92012507980359
 42
-0.4142135623730896
 10
4.616236690036387
 20
10.81012507980359
 10
4.616236690036391
 20
5.22612507980359
 42
-0.4142135623730999
 10
4.506236690036391
 20
5.116125079803589
 10
1.646236690036392
 20
5.116125079803589
 42
-0.4142135623730929
  0
LWPOLYLINE
  5
7CD
330
1E
100
AcDbEntity
  8
OBJECT
100
AcDbPolyline
 90
        8
 70
     1
 43
0.0
 10
1.556236690036392
 20
5.226125079803589
 10
1.556236690036392
 20
10.81012507980359
 42
-0.4142135623731051
 10
1.646236690036392
 20
10.90012507980359
 10
4.506236690036391
 20
10.90012507980359
 42
-0.4142135623730921
 10
4.596236690036391
 20
10.81012507980359
 10
4.596236690036391
 20
5.22612507980359
 42
-0.4142135623730978
 10
4.506236690036391
 20
5.136125079803589
 10
1.646236690036392
 20
5.136125079803589
 42
-0.4142135623730925
  0
LWPOLYLINE
  5
7CF
330
1E
100
AcDbEntity
  8
OBJECT
100
AcDbPolyline
 90
        8
 70
     1
 43
0.0
 10
1.58623669003639
 20
5.226125079803589
 10
1.586236690036393
 20
10.81012507980359
 42
-0.4142135623731078
 10
1.646236690036392
 20
10.87012507980358
 10
4.506236690036391
 20
10.87012507980358
 42
-0.4142135623730753
 10
4.56623669003639
 20
10.81012507980359
 10
4.56623669003639
 20
5.22612507980359
 42
-0.4142135623730992
 10
4.506236690036391
 20
5.16612507980359
 10
1.646236690036392
 20
5.16612507980359
 42
-0.4142135623730899
  0
LWPOLYLINE
  5
92B
330
1E
100
AcDbEntity
  8
OBJECT
100
AcDbPolyline
 90
        8
 70
     1
 43
0.0
 10
7.15114862507287
 20
5.213125079803589
 10
7.15114862507287
 20
10.94812507980359
 42
-0.4142135623730951
 10
7.213148625072868
 20
11.01012507980358
 10
10.34914862507287
 20
11.01012507980358
 42
-0.4142135623730951
 10
10.41114862507287
 20
10.94812507980359
 10
10.41114862507287
 20
5.213125079803589
 42
-0.4142135623730951
 10
10.22414862507287
 20
5.026125079803589
 10
7.338148625072868
 20
5.026125079803589
 42
-0.4142135623730951
  0
LINE
  5
92C
330
1E
100
AcDbEntity
  8
CENTER
100
AcDbLine
 10
8.781148625072873
 20
11.26012507980359
 30
0.0
 11
8.781148625072873
 21
4.776125079803589
 31
0.0
  0
LINE
  5
931
330
1E
100
AcDbEntity
  8
CENTER
100
AcDbLine
 10
6.90114862507287
 20
8.018125079803589
 30
0.0
 11
10.66114862507286
 21
8.018125079803589
 31
0.0
  0
LWPOLYLINE
  5
937
330
1E
100
AcDbEntity
  8
OBJECT
100
AcDbPolyline
 90
        5
 70
     1
 43
0.0
 10
10.15614862507286
 20
5.585625079803591
 10
10.15614862507286
 20
6.935625079803591
 10
7.406148625072869
 20
6.935625079803591
 10
7.406148625072869
 20
5.585625079803591
 10
10.15614862507286
 20
5.585625079803591
  0
CIRCLE
  5
941
330
1E
100
AcDbEntity
  8
OBJECT
100
AcDbCircle
 10
7.562148625072865
 20
6.79812507980359
 30
0.0
 40
0.06
  0
CIRCLE
  5
943
330
1E
100
AcDbEntity
  8
OBJECT
100
AcDbCircle
 10
7.562148625072865
 20
6.79812507980359
 30
0.0
 40
0.1375
  0
CIRCLE
  5
94B
330
1E
100
AcDbEntity
  8
OBJECT
100
AcDbCircle
 10
10.00014862507286
 20
6.79812507980359
 30
0.0
 40
0.1375
  0
CIRCLE
  5
950
330
1E
100
AcDbEntity
  8
OBJECT
100
AcDbCircle
 10
10.00014862507286
 20
6.79812507980359
 30
0.0
 40
0.06
  0
LWPOLYLINE
  5
957
330
1E
100
AcDbEntity
  8
OBJECT
100
AcDbPolyline
 90
        5
 70
     0
 43
0.0
 10
7.481148625072869
 20
9.590125079803588
 10
10.08114862507287
 20
9.590125079803588
 10
10.08114862507287
 20
10.85012507980358
 10
7.481148625072869
 20
10.85012507980358
 10
7.481148625072869
 20
9.590125079803588
  0
LWPOLYLINE
  5
960
330
1E
100
AcDbEntity
  8
OBJECT
100
AcDbPolyline
 90
        4
 70
     1
 43
0.0
 10
7.754148625072872
 20
9.410125079803588
 10
7.568148625072872
 20
9.410125079803588
 42
-0.9999999999999998
 10
7.568148625072872
 20
9.53412507980359
 10
7.754148625072872
 20
9.53412507980359
 42
-0.9999999999999998
  0
CIRCLE
  5
968
330
1E
100
AcDbEntity
  8
OBJECT
100
AcDbCircle
 10
7.659148625072873
 20
10.59712507980359
 30
0.0
 40
0.1375
  0
CIRCLE
  5
96A
330
1E
100
AcDbEntity
  8
OBJECT
100
AcDbCircle
 10
7.659148625072873
 20
10.59712507980359
 30
0.0
 40
0.06
  0
LWPOLYLINE
  5
973
330
1E
100
AcDbEntity
  8
OBJECT
100
AcDbPolyline
 90
        4
 70
     1
 43
0.0
 10
9.994148625072867
 20
9.410125079803588
 10
9.808148625072867
 20
9.410125079803588
 42
-0.9999999999999998
 10
9.808148625072867
 20
9.53412507980359
 10
9.994148625072867
 20
9.53412507980359
 42
-0.9999999999999998
  0
CIRCLE
  5
976
330
1E
100
AcDbEntity
  8
OBJECT
100
AcDbCircle
 10
9.903148625072873
 20
10.59712507980359
 30
0.0
 40
0.06
  0
CIRCLE
  5
978
330
1E
100
AcDbEntity
  8
OBJECT
100
AcDbCircle
 10
9.903148625072873
 20
10.59712507980359
 30
0.0
 40
0.1375
  0
LWPOLYLINE
  5
99A
330
1E
100
AcDbEntity
  8
OBJECT
100
AcDbPolyline
 90
        4
 70
     1
 43
0.0
 10
8.312148625072872
 20
9.221848648933871
 10
8.250148625072867
 20
9.221848648933871
 10
8.250148625072867
 20
7.01462507980359
 42
0.9999999999999785
 10
8.312148625072872
 20
7.01462507980359
  0
LWPOLYLINE
  5
99C
330
1E
100
AcDbEntity
  8
OBJECT
100
AcDbPolyline
 90
        4
 70
     1
 43
0.0
 10
8.172148625072871
 20
9.221848648933871
 10
8.11014862507287
 20
9.221848648933871
 10
8.11014862507287
 20
7.01462507980359
 42
0.9999999999999785
 10
8.172148625072871
 20
7.01462507980359
  0
LWPOLYLINE
  5
99D
330
1E
100
AcDbEntity
  8
OBJECT
100
AcDbPolyline
 90
        4
 70
     1
 43
0.0
 10
8.032148625072871
 20
9.221848648933871
 10
7.970148625072869
 20
9.221848648933871
 10
7.970148625072869
 20
7.01462507980359
 42
0.9999999999999785
 10
8.032148625072871
 20
7.01462507980359
  0
LWPOLYLINE
  5
99E
330
1E
100
AcDbEntity
  8
OBJECT
100
AcDbPolyline
 90
        4
 70
     1
 43
0.0
 10
7.89214862507287
 20
9.221848648933871
 10
7.830148625072869
 20
9.221848648933871
 10
7.830148625072869
 20
7.01462507980359
 42
0.9999999999999785
 10
7.89214862507287
 20
7.01462507980359
  0
LWPOLYLINE
  5
99F
330
1E
100
AcDbEntity
  8
OBJECT
100
AcDbPolyline
 90
        4
 70
     1
 43
0.0
 10
7.752148625072869
 20
9.221848648933871
 10
7.690148625072868
 20
9.221848648933871
 10
7.690148625072868
 20
7.01462507980359
 42
0.9999999999999785
 10
7.752148625072869
 20
7.01462507980359
  0
LWPOLYLINE
  5
9A0
330
1E
100
AcDbEntity
  8
OBJECT
100
AcDbPolyline
 90
        4
 70
     1
 43
0.0
 10
7.612148625072869
 20
9.221848648933871
 10
7.550148625072871
 20
9.221848648933871
 10
7.550148625072868
 20
7.01462507980359
 42
0.9999999999999785
 10
7.612148625072869
 20
7.01462507980359
  0
LWPOLYLINE
  5
9A1
330
1E
100
AcDbEntity
  8
OBJECT
100
AcDbPolyline
 90
        4
 70
     1
 43
0.0
 10
7.472148625072868
 20
9.221848648933871
 10
7.410148625072871
 20
9.221848648933871
 10
7.410148625072871
 20
7.01462507980359
 42
0.9999999999999785
 10
7.472148625072868
 20
7.01462507980359
  0
LWPOLYLINE
  5
9A2
330
1E
100
AcDbEntity
  8
OBJECT
100
AcDbPolyline
 90
        4
 70
     1
 43
0.0
 10
10.09014862507287
 20
9.221848648933871
 10
10.15214862507286
 20
9.221848648933871
 10
10.15214862507286
 20
7.01462507980359
 42
-0.9999999999999785
 10
10.09014862507287
 20
7.01462507980359
  0
LWPOLYLINE
  5
9A3
330
1E
100
AcDbEntity
  8
OBJECT
100
AcDbPolyline
 90
        4
 70
     1
 43
0.0
 10
9.95014862507287
 20
9.221848648933871
 10
10.01214862507286
 20
9.221848648933871
 10
10.01214862507286
 20
7.01462507980359
 42
-0.9999999999999785
 10
9.95014862507287
 20
7.01462507980359
  0
LWPOLYLINE
  5
9A4
330
1E
100
AcDbEntity
  8
OBJECT
100
AcDbPolyline
 90
        4
 70
     1
 43
0.0
 10
9.810148625072869
 20
9.221848648933871
 10
9.87214862507287
 20
9.221848648933871
 10
9.872148625072867
 20
7.01462507980359
 42
-0.9999999999999785
 10
9.810148625072869
 20
7.01462507980359
  0
LWPOLYLINE
  5
9A5
330
1E
100
AcDbEntity
  8
OBJECT
100
AcDbPolyline
 90
        4
 70
     1
 43
0.0
 10
9.670148625072869
 20
9.221848648933871
 10
9.73214862507287
 20
9.221848648933871
 10
9.73214862507287
 20
7.01462507980359
 42
-0.9999999999999785
 10
9.670148625072869
 20
7.01462507980359
  0
LWPOLYLINE
  5
9A6
330
1E
100
AcDbEntity
  8
OBJECT
100
AcDbPolyline
 90
        4
 70
     1
 43
0.0
 10
9.530148625072868
 20
9.221848648933871
 10
9.592148625072869
 20
9.221848648933871
 10
9.592148625072869
 20
7.01462507980359
 42
-0.9999999999999785
 10
9.530148625072868
 20
7.01462507980359
  0
LWPOLYLINE
  5
9A7
330
1E
100
AcDbEntity
  8
OBJECT
100
AcDbPolyline
 90
        4
 70
     1
 43
0.0
 10
9.390148625072868
 20
9.221848648933871
 10
9.452148625072872
 20
9.221848648933871
 10
9.452148625072869
 20
7.01462507980359
 42
-0.9999999999999785
 10
9.390148625072868
 20
7.01462507980359
  0
LWPOLYLINE
  5
9A8
330
1E
100
AcDbEntity
  8
OBJECT
100
AcDbPolyline
 90
        4
 70
     1
 43
0.0
 10
9.250148625072867
 20
9.221848648933871
 10
9.312148625072872
 20
9.221848648933871
 10
9.312148625072872
 20
7.01462507980359
 42
-0.9999999999999785
 10
9.250148625072867
 20
7.01462507980359
  0
LINE
  5
9BC
330
1E
100
AcDbEntity
  8
OBJECT
100
AcDbLine
 10
1.638236690036386
 20
5.502856853852863
 30
0.0
 11
4.514236690036391
 21
5.502856853852865
 31
0.0
  0
LINE
  5
9C2
330
1E
100
AcDbEntity
  8
OBJECT
100
AcDbLine
 10
1.741236690036391
 20
10.81545278236318
 30
0.0
 11
1.638236690036393
 21
10.82795048254125
 31
0.0
  0
LINE
  5
9C8
330
1E
100
AcDbEntity
  8
OBJECT
100
AcDbLine
 10
4.514236690036391
 20
10.82795048254125
 30
0.0
 11
4.411236690036393
 21
10.81545278236318
 31
0.0
  0
LINE
  5
9CB
330
1E
100
AcDbEntity
  8
OBJECT
100
AcDbLine
 10
1.741236690036391
 20
9.379468926684651
 30
0.0
 11
1.619843152156192
 21
9.263998872846727
 31
0.0
  0
LINE
  5
9CC
330
1E
100
AcDbEntity
  8
OBJECT
100
AcDbLine
 10
1.619843152156192
 20
9.263998872846727
 30
0.0
 11
4.532630227916609
 21
9.263998872846727
 31
0.0
  0
LINE
  5
9CD
330
1E
100
AcDbEntity
  8
OBJECT
100
AcDbLine
 10
4.532630227916609
 20
9.263998872846727
 30
0.0
 11
4.411236690036393
 21
9.379468926684651
 31
0.0
  0
LWPOLYLINE
  5
9CF
330
1E
100
AcDbEntity
  8
OBJECT
100
AcDbPolyline
 90
        6
 70
     0
 43
0.0
 10
1.638236690036392
 20
10.82795048254125
 10
1.638236690036392
 20
5.243532458071772
 42
0.4142135623730918
 10
1.677578795036391
 20
5.204190353071798
 10
4.474894585036333
 20
5.204190353071798
 42
0.4142135623731
 10
4.514236690036392
 20
5.243532458071797
 10
4.514236690036392
 20
10.82795048254125
  0
LWPOLYLINE
  5
9D0
330
1E
100
AcDbEntity
  8
OBJECT
100
AcDbPolyline
 90
        4
 70
     1
 43
0.0
 10
4.411236690036393
 20
9.379468926684651
 10
4.411236690036393
 20
10.81545278236318
 10
1.741236690036391
 20
10.81545278236318
 10
1.741236690036391
 20
9.379468926684651
  0
LINE
  5
A1B
330
1E
100
AcDbEntity
  8
OBJECT
100
AcDbLine
 10
10.20369548077575
 20
5.485362626030463
 30
0.0
 11
7.358601769369983
 21
5.485362626030463
 31
0.0
  0
LINE
  5
AA0
330
1E
100
AcDbEntity
  8
OBJECT
100
AcDbLine
 10
10.20369548077575
 20
9.212037348619663
 30
0.0
 11
10.15214862507286
 21
9.212037348619663
 31
0.0
  0
LWPOLYLINE
  5
C30
330
1E
100
AcDbEntity
  8
OBJECT
100
AcDbPolyline
 90
        8
 70
     1
 43
0.0
 10
7.180148625072867
 20
5.213125079803589
 10
7.18014862507287
 20
10.94812507980359
 42
-0.4142135623730887
 10
7.213148625072868
 20
10.98112507980359
 10
10.34914862507287
 20
10.98112507980359
 42
-0.4142135623730934
 10
10.38214862507286
 20
10.94812507980359
 10
10.38214862507286
 20
5.213125079803589
 42
-0.4142135623730948
 10
10.22414862507287
 20
5.055125079803589
 10
7.338148625072868
 20
5.055125079803589
 42
-0.414213562373094
  0
LWPOLYLINE
  5
C34
330
1E
100
AcDbEntity
  8
OBJECT
100
AcDbPolyline
 90
        8
 70
     1
 43
0.0
 10
7.483575639751848
 20
9.327507402457591
 10
10.07872161039389
 20
9.327507402457591
 42
0.4142135623730951
 10
10.14072161039389
 20
9.389507402457589
 10
10.14072161039389
 20
10.90095807844887
 42
0.4142135623730951
 10
10.07872161039389
 20
10.96295807844887
 10
7.483575639751848
 20
10.96295807844887
 42
0.4142135623730951
 10
7.42157563975185
 20
10.90095807844887
 10
7.42157563975185
 20
9.389507402457589
 42
0.4142135623730951
  0
LINE
  5
C37
330
1E
100
AcDbEntity
  8
OBJECT
100
AcDbLine
 10
7.296601769369985
 20
5.547362626030462
 30
0.0
 11
7.296601769369985
 21
9.150037348619662
 31
0.0
  0
LINE
  5
C38
330
1E
100
AcDbEntity
  8
OBJECT
100
AcDbLine
 10
10.26569548077575
 20
5.547362626030462
 30
0.0
 11
10.26569548077575
 21
9.150037348619662
 31
0.0
  0
ARC
  5
C39
330
1E
100
AcDbEntity
  8
OBJECT
100
AcDbCircle
 10
7.358601769369983
 20
5.547362626030462
 30
0.0
 40
0.062
100
AcDbArc
 50
180.0
 51
270.0
  0
ARC
  5
C3A
330
1E
100
AcDbEntity
  8
OBJECT
100
AcDbCircle
 10
10.20369548077575
 20
5.547362626030462
 30
0.0
 40
0.062
100
AcDbArc
 50
270.0
 51
0.0000000000000127
  0
ARC
  5
C42
330
1E
100
AcDbEntity
  8
OBJECT
100
AcDbCircle
 10
7.358601769369983
 20
9.150037348619662
 30
0.0
 40
0.062
100
AcDbArc
 50
90.0
 51
180.0
  0
ARC
  5
C43
330
1E
100
AcDbEntity
  8
OBJECT
100
AcDbCircle
 10
10.20369548077575
 20
9.150037348619662
 30
0.0
 40
0.062
100
AcDbArc
 50
0.0
 51
89.99999999999998
  0
LINE
  5
C45
330
1E
100
AcDbEntity
  8
OBJECT
100
AcDbLine
 10
7.358601769369983
 20
9.212037348619663
 30
0.0
 11
7.483575639751848
 21
9.327507402457591
 31
0.0
  0
LINE
  5
C46
330
1E
100
AcDbEntity
  8
OBJECT
100
AcDbLine
 10
7.42157563975185
 20
9.389507402457589
 30
0.0
 11
7.304498715423491
 21
9.180317037416983
 31
0.0
  0
LINE
  5
C4A
330
1E
100
AcDbEntity
  8
OBJECT
100
AcDbLine
 10
10.14072161039389
 20
9.389507402457589
 30
0.0
 11
10.25779853472225
 21
9.180317037416983
 31
0.0
  0
LINE
  5
C4B
330
1E
100
AcDbEntity
  8
OBJECT
100
AcDbLine
 10
10.20369548077575
 20
9.212037348619663
 30
0.0
 11
10.07872161039389
 21
9.327507402457591
 31
0.0
  0
LINE
  5
C4C
330
1E
100
AcDbEntity
  8
OBJECT
100
AcDbLine
 10
7.410148625072871
 20
9.212037348619663
 30
0.0
 11
7.358601769369983
 21
9.212037348619663
 31
0.0
  0
LINE
  5
C4D
330
1E
100
AcDbEntity
  8
OBJECT
100
AcDbLine
 10
7.550148625072871
 20
9.212037348619663
 30
0.0
 11
7.472148625072868
 21
9.212037348619663
 31
0.0
  0
LINE
  5
C4E
330
1E
100
AcDbEntity
  8
OBJECT
100
AcDbLine
 10
7.690148625072865
 20
9.212037348619663
 30
0.0
 11
7.612148625072869
 21
9.212037348619663
 31
0.0
  0
LINE
  5
C4F
330
1E
100
AcDbEntity
  8
OBJECT
100
AcDbLine
 10
7.830148625072865
 20
9.212037348619663
 30
0.0
 11
7.752148625072869
 21
9.212037348619663
 31
0.0
  0
LINE
  5
C50
330
1E
100
AcDbEntity
  8
OBJECT
100
AcDbLine
 10
7.970148625072866
 20
9.212037348619663
 30
0.0
 11
7.89214862507287
 21
9.212037348619663
 31
0.0
  0
LINE
  5
C51
330
1E
100
AcDbEntity
  8
OBJECT
100
AcDbLine
 10
8.110148625072866
 20
9.212037348619663
 30
0.0
 11
8.032148625072871
 21
9.212037348619663
 31
0.0
  0
LINE
  5
C52
330
1E
100
AcDbEntity
  8
OBJECT
100
AcDbLine
 10
8.250148625072867
 20
9.212037348619663
 30
0.0
 11
8.172148625072871
 21
9.212037348619663
 31
0.0
  0
LINE
  5
C53
330
1E
100
AcDbEntity
  8
OBJECT
100
AcDbLine
 10
9.250148625072867
 20
9.212037348619663
 30
0.0
 11
8.312148625072872
 21
9.212037348619663
 31
0.0
  0
LINE
  5
C54
330
1E
100
AcDbEntity
  8
OBJECT
100
AcDbLine
 10
9.390148625072868
 20
9.212037348619663
 30
0.0
 11
9.312148625072872
 21
9.212037348619663
 31
0.0
  0
LINE
  5
C55
330
1E
100
AcDbEntity
  8
OBJECT
100
AcDbLine
 10
9.530148625072868
 20
9.212037348619663
 30
0.0
 11
9.452148625072872
 21
9.212037348619663
 31
0.0
  0
LINE
  5
C56
330
1E
100
AcDbEntity
  8
OBJECT
100
AcDbLine
 10
9.670148625072869
 20
9.212037348619663
 30
0.0
 11
9.592148625072866
 21
9.212037348619663
 31
0.0
  0
LINE
  5
C57
330
1E
100
AcDbEntity
  8
OBJECT
100
AcDbLine
 10
9.810148625072869
 20
9.212037348619663
 30
0.0
 11
9.732148625072866
 21
9.212037348619663
 31
0.0
  0
LINE
  5
C58
330
1E
100
AcDbEntity
  8
OBJECT
100
AcDbLine
 10
9.95014862507287
 20
9.212037348619663
 30
0.0
 11
9.872148625072867
 21
9.212037348619663
 31
0.0
  0
LINE
  5
C59
330
1E
100
AcDbEntity
  8
OBJECT
100
AcDbLine
 10
10.09014862507287
 20
9.212037348619663
 30
0.0
 11
10.01214862507286
 21
9.212037348619663
 31
0.0
  0
LINE
  5
C5E
330
1E
100
AcDbEntity
  8
OBJECT
100
AcDbLine
 10
7.42157563975185
 20
10.90095807844887
 30
0.0
 11
7.180148625072874
 21
10.94812507980359
 31
0.0
  0
LINE
  5
C5F
330
1E
100
AcDbEntity
  8
OBJECT
100
AcDbLine
 10
7.483575639751848
 20
10.96295807844887
 30
0.0
 11
7.213148625072868
 21
10.98112507980359
 31
0.0
  0
LINE
  5
C60
330
1E
100
AcDbEntity
  8
OBJECT
100
AcDbLine
 10
10.14072161039389
 20
10.90095807844887
 30
0.0
 11
10.38214862507287
 21
10.94812507980359
 31
0.0
  0
LINE
  5
C61
330
1E
100
AcDbEntity
  8
OBJECT
100
AcDbLine
 10
10.07872161039389
 20
10.96295807844887
 30
0.0
 11
10.34914862507287
 21
10.98112507980359
 31
0.0
  0
LINE
  5
C62
330
1E
100
AcDbEntity
  8
OBJECT
100
AcDbLine
 10
7.358601769369983
 20
5.485362626030463
 30
0.0
 11
7.338148625072868
 21
5.055125079803589
 31
0.0
  0
LINE
  5
C63
330
1E
100
AcDbEntity
  8
OBJECT
100
AcDbLine
 10
7.296601769369985
 20
5.547362626030462
 30
0.0
 11
7.180148625072867
 21
5.213125079803589
 31
0.0
  0
LINE
  5
C64
330
1E
100
AcDbEntity
  8
OBJECT
100
AcDbLine
 10
10.20369548077575
 20
5.485362626030463
 30
0.0
 11
10.22414862507287
 21
5.055125079803589
 31
0.0
  0
LINE
  5
C65
330
1E
100
AcDbEntity
  8
OBJECT
100
AcDbLine
 10
10.26569548077575
 20
5.547362626030462
 30
0.0
 11
10.38214862507287
 21
5.213125079803589
 31
0.0
  0
LWPOLYLINE
  5
E3B
330
1E
100
AcDbEntity
  8
OBJECT
100
AcDbPolyline
 90
        8
 70
     1
 43
0.0
 10
24.61099669310195
 20
5.207125079803589
 10
24.61099669310195
 20
10.82912507980358
 42
-0.4142135623731402
 10
24.63399669310195
 20
10.85212507980358
 10
27.53199669310195
 20
10.85212507980358
 42
-0.4142135623731402
 10
27.55499669310195
 20
10.82912507980358
 10
27.55499669310195
 20
5.207125079803589
 42
-0.4142135623731344
 10
27.53199669310195
 20
5.184125079803591
 10
24.63399669310195
 20
5.184125079803589
 42
-0.4142135623731218
  0
LWPOLYLINE
  5
E3C
330
1E
100
AcDbEntity
  8
OBJECT
100
AcDbPolyline
 90
        4
 70
     1
 43
0.0
 10
24.65299669310194
 20
5.226125079803589
 10
24.65299669310195
 20
10.81012507980359
 10
27.51299669310195
 20
10.81012507980359
 10
27.51299669310195
 20
5.226125079803589
  0
LWPOLYLINE
  5
103C
330
1E
100
AcDbEntity
  8
HIDDEN
100
AcDbPolyline
 90
        8
 70
     1
 43
0.0
 10
15.17670760392958
 20
5.486125079803588
 10
17.78870760392958
 20
5.486125079803588
 42
0.4142135623730951
 10
17.88270760392959
 20
5.580125079803588
 10
17.88270760392959
 20
10.64212507980359
 42
0.4142135623730951
 10
17.78870760392958
 20
10.73612507980358
 10
15.17670760392958
 20
10.73612507980358
 42
0.4142135623730951
 10
15.08270760392958
 20
10.64212507980358
 10
15.08270760392958
 20
5.58012507980359
 42
0.4142135623730951
  0
LWPOLYLINE
  5
103D
330
1E
100
AcDbEntity
  8
HIDDEN
100
AcDbPolyline
 90
        4
 70
     1
 43
0.0
 10
15.04470760392958
 20
5.218125079803588
 10
15.04470760392958
 20
10.81812507980359
 10
17.92070760392958
 20
10.81812507980359
 10
17.92070760392958
 20
5.21812507980359
  0
LWPOLYLINE
  5
103E
330
1E
100
AcDbEntity
  8
HIDDEN
100
AcDbPolyline
 90
        8
 70
     1
 43
0.0
 10
15.00270760392958
 20
5.207125079803589
 10
15.00270760392958
 20
10.82912507980358
 42
-0.4142135623730952
 10
15.03370760392958
 20
10.86012507980358
 10
17.93170760392958
 20
10.86012507980358
 42
-0.414213562373095
 10
17.96270760392958
 20
10.82912507980358
 10
17.96270760392958
 20
5.20712507980359
 42
-0.4142135623730951
 10
17.93170760392958
 20
5.17612507980359
 10
15.03370760392958
 20
5.176125079803588
 42
-0.4142135623730951
  0
LINE
  5
1040
330
1E
100
AcDbEntity
  8
CENTER
100
AcDbLine
 10
16.48270760392958
 20
11.26012507980359
 30
0.0
 11
16.48270760392958
 21
4.776125079803588
 31
0.0
  0
LWPOLYLINE
  5
1041
330
1E
100
AcDbEntity
  8
OBJECT
100
AcDbPolyline
 90
        8
 70
     1
 43
0.0
 10
14.85270760392958
 20
5.213125079803589
 10
14.85270760392958
 20
10.94812507980359
 42
-0.4142135623730951
 10
14.91470760392958
 20
11.01012507980358
 10
18.05070760392958
 20
11.01012507980358
 42
-0.4142135623730951
 10
18.11270760392958
 20
10.94812507980359
 10
18.11270760392958
 20
5.213125079803589
 42
-0.4142135623730951
 10
17.92570760392958
 20
5.026125079803588
 10
15.03970760392958
 20
5.026125079803588
 42
-0.4142135623730951
  0
LWPOLYLINE
  5
1042
330
1E
100
AcDbEntity
  8
OBJECT
100
AcDbPolyline
 90
        4
 70
     1
 43
0.0
 10
15.14570760392958
 20
5.560125079803604
 10
17.81970760392958
 20
5.560125079803604
 10
17.81970760392958
 20
10.65212507980358
 10
15.14570760392958
 20
10.65212507980358
  0
LINE
  5
1043
330
1E
100
AcDbEntity
  8
OBJECT
100
AcDbLine
 10
15.08370760392958
 20
11.01012507980358
 30
0.0
 11
15.08370760392958
 21
5.560125079803604
 31
0.0
  0
LINE
  5
1044
330
1E
100
AcDbEntity
  8
OBJECT
100
AcDbLine
 10
17.88170760392958
 20
11.01012507980358
 30
0.0
 11
17.88170760392958
 21
5.560125079803604
 31
0.0
  0
CIRCLE
  5
1045
330
1E
100
AcDbEntity
  8
HIDDEN
100
AcDbCircle
 10
15.26370760392959
 20
5.384125079803592
 30
0.0
 40
0.098
  0
LINE
  5
1046
330
1E
100
AcDbEntity
  8
HIDDEN
100
AcDbLine
 10
15.30244445392972
 20
5.176125079803588
 30
0.0
 11
15.30244445392972
 21
5.218125079803588
 31
0.0
  0
CIRCLE
  5
1047
330
1E
100
AcDbEntity
  8
HIDDEN
100
AcDbCircle
 10
15.26370760392959
 20
5.384125079803592
 30
0.0
 40
0.041
  0
LINE
  5
1048
330
1E
100
AcDbEntity
  8
HIDDEN
100
AcDbLine
 10
15.34178655892955
 20
5.176125079803588
 30
0.0
 11
15.34178655892955
 21
5.218125079803588
 31
0.0
  0
CIRCLE
  5
1049
330
1E
100
AcDbEntity
  8
HIDDEN
100
AcDbCircle
 10
17.70170760392958
 20
5.384125079803592
 30
0.0
 40
0.098
  0
LINE
  5
104A
330
1E
100
AcDbEntity
  8
HIDDEN
100
AcDbLine
 10
17.66297075392967
 20
5.17612507980359
 30
0.0
 11
17.66297075392967
 21
5.218125079803588
 31
0.0
  0
LINE
  5
104B
330
1E
100
AcDbEntity
  8
HIDDEN
100
AcDbLine
 10
17.62362864892961
 20
5.17612507980359
 30
0.0
 11
17.62362864892961
 21
5.218125079803588
 31
0.0
  0
CIRCLE
  5
104C
330
1E
100
AcDbEntity
  8
HIDDEN
100
AcDbCircle
 10
17.70170760392958
 20
5.384125079803592
 30
0.0
 40
0.041
  0
LINE
  5
104D
330
1E
100
AcDbEntity
  8
CENTER
100
AcDbLine
 10
14.60270760392958
 20
8.018125079803589
 30
0.0
 11
18.36270760392958
 21
8.018125079803589
 31
0.0
  0
CIRCLE
  5
104E
330
1E
100
AcDbEntity
  8
HIDDEN
100
AcDbCircle
 10
15.26370760392959
 20
6.798125079803591
 30
0.0
 40
0.098
  0
CIRCLE
  5
104F
330
1E
100
AcDbEntity
  8
HIDDEN
100
AcDbCircle
 10
15.26370760392959
 20
6.798125079803591
 30
0.0
 40
0.041
  0
CIRCLE
  5
1050
330
1E
100
AcDbEntity
  8
HIDDEN
100
AcDbCircle
 10
17.70170760392935
 20
6.798125079803591
 30
0.0
 40
0.098
  0
CIRCLE
  5
1051
330
1E
100
AcDbEntity
  8
HIDDEN
100
AcDbCircle
 10
17.70170760392935
 20
6.798125079803563
 30
0.0
 40
0.041
  0
CIRCLE
  5
1052
330
1E
100
AcDbEntity
  8
HIDDEN
100
AcDbCircle
 10
15.36070760392958
 20
10.59712507980359
 30
0.0
 40
0.098
  0
LINE
  5
1053
330
1E
100
AcDbEntity
  8
HIDDEN
100
AcDbLine
 10
15.30244445392972
 20
10.86012507980358
 30
0.0
 11
15.30244445392972
 21
10.81812507980359
 31
0.0
  0
CIRCLE
  5
1054
330
1E
100
AcDbEntity
  8
HIDDEN
100
AcDbCircle
 10
15.69570760392958
 20
10.54812507980358
 30
0.0
 40
0.041
  0
CIRCLE
  5
1055
330
1E
100
AcDbEntity
  8
HIDDEN
100
AcDbCircle
 10
15.69570760392958
 20
10.54812507980358
 30
0.0
 40
0.098
  0
LINE
  5
1056
330
1E
100
AcDbEntity
  8
HIDDEN
100
AcDbLine
 10
15.34103655142944
 20
10.81812507980359
 30
0.0
 11
15.34103655142944
 21
10.69313054680176
 31
0.0
  0
LINE
  5
1057
330
1E
100
AcDbEntity
  8
HIDDEN
100
AcDbLine
 10
15.3803786564295
 20
10.81812507980359
 30
0.0
 11
15.3803786564295
 21
10.6931305468018
 31
0.0
  0
CIRCLE
  5
1058
330
1E
100
AcDbEntity
  8
HIDDEN
100
AcDbCircle
 10
15.36070760392958
 20
10.59712507980359
 30
0.0
 40
0.041
  0
LINE
  5
1059
330
1E
100
AcDbEntity
  8
HIDDEN
100
AcDbLine
 10
15.34178655892955
 20
10.86012507980358
 30
0.0
 11
15.34178655892955
 21
10.81812507980359
 31
0.0
  0
CIRCLE
  5
105A
330
1E
100
AcDbEntity
  8
HIDDEN
100
AcDbCircle
 10
17.26970760392958
 20
10.54812507980358
 30
0.0
 40
0.098
  0
CIRCLE
  5
105B
330
1E
100
AcDbEntity
  8
HIDDEN
100
AcDbCircle
 10
17.26970760392958
 20
10.54812507980358
 30
0.0
 40
0.041
  0
LINE
  5
105C
330
1E
100
AcDbEntity
  8
HIDDEN
100
AcDbLine
 10
17.6243786564295
 20
10.81812507980359
 30
0.0
 11
17.6243786564295
 21
10.6931305468018
 31
0.0
  0
LINE
  5
105D
330
1E
100
AcDbEntity
  8
HIDDEN
100
AcDbLine
 10
17.58503655142944
 20
10.81812507980359
 30
0.0
 11
17.58503655142944
 21
10.69313054680176
 31
0.0
  0
CIRCLE
  5
105E
330
1E
100
AcDbEntity
  8
HIDDEN
100
AcDbCircle
 10
17.60470760392958
 20
10.59712507980359
 30
0.0
 40
0.098
  0
CIRCLE
  5
105F
330
1E
100
AcDbEntity
  8
HIDDEN
100
AcDbCircle
 10
17.60470760392958
 20
10.59712507980359
 30
0.0
 40
0.041
  0
LINE
  5
1060
330
1E
100
AcDbEntity
  8
HIDDEN
100
AcDbLine
 10
17.62362864892961
 20
10.86012507980358
 30
0.0
 11
17.62362864892961
 21
10.81812507980359
 31
0.0
  0
LINE
  5
1061
330
1E
100
AcDbEntity
  8
HIDDEN
100
AcDbLine
 10
17.66297075392967
 20
10.86012507980358
 30
0.0
 11
17.66297075392967
 21
10.81812507980359
 31
0.0
  0
LINE
  5
123A
330
1E
100
AcDbEntity
  8
OBJECT
100
AcDbLine
 10
21.08304883853218
 20
1.033043301151165
 30
0.0
 11
27.50724585009303
 21
1.033043301151165
 31
0.0
  0
DIMENSION
  5
1268
330
1E
100
AcDbEntity
  8
DIM
100
AcDbDimension
  2
*D1
 10
18.11270760392958
 20
11.99095839639273
 30
0.0
 11
16.48270760392958
 21
11.99095839639273
 31
0.0
 70
   160
 71
     5
 42
3.259999999999998
  3
23NSTD
100
AcDbAlignedDimension
 13
14.85270760392958
 23
10.94812507980359
 33
0.0
 14
18.11270760392958
 24
10.94812507980359
 34
0.0
100
AcDbRotatedDimension
  0
DIMENSION
  5
1277
330
1E
100
AcDbEntity
  8
DIM
100
AcDbDimension
  2
*D2
 10
19.39559724895841
 20
5.026125079803586
 30
0.0
 11
19.39559724895841
 21
8.01812507980359
 31
0.0
 70
    32
 71
     5
 42
5.984000000000002
  3
23NSTD
100
AcDbAlignedDimension
 13
18.05070760392958
 23
11.01012507980358
 33
0.0
 14
17.92570760392958
 24
5.026125079803587
 34
0.0
 50
90.0
100
AcDbRotatedDimension
  0
DIMENSION
  5
1285
330
1E
100
AcDbEntity
  8
DIM
100
AcDbDimension
  2
*D3
 10
18.60957558749908
 20
8.018125079803589
 30
0.0
 11
18.60957558749907
 21
9.514125079803591
 31
0.0
 70
    32
 71
     5
 42
2.992
  3
23NSTD
100
AcDbAlignedDimension
 13
18.05070760392958
 23
11.01012507980358
 33
0.0
 14
18.36270760392958
 24
8.018125079803589
 34
0.0
 50
90.0
100
AcDbRotatedDimension
  0
DIMENSION
  5
12A7
330
1E
100
AcDbEntity
  8
DIM
100
AcDbDimension
  2
*D4
 10
16.48270760392958
 20
11.53312507980359
 30
0.0
 11
15.66770760392958
 21
11.53312507980359
 31
0.0
 70
    32
 71
     5
 42
1.629999999999995
  3
23NSTD
100
AcDbAlignedDimension
 13
14.85270760392958
 23
10.94812507980359
 33
0.0
 14
16.48270760392958
 24
11.26012507980359
 34
0.0
100
AcDbRotatedDimension
  0
DIMENSION
  5
12C0
330
1E
100
AcDbEntity
  8
DIM
100
AcDbDimension
  2
*D5
 10
14.31664845381402
 20
8.018125079803589
 30
0.0
 11
14.31664845381402
 21
9.335125079803592
 31
0.0
 70
    32
 71
     5
 42
2.634
  3
23NSTD
100
AcDbAlignedDimension
 13
15.14570760392958
 23
10.65212507980358
 33
0.0
 14
14.60270760392958
 24
8.018125079803589
 34
0.0
 50
90.0
100
AcDbRotatedDimension
  0
DIMENSION
  5
12CE
330
1E
100
AcDbEntity
  8
DIM
100
AcDbDimension
  2
*D6
 10
13.56670993633001
 20
5.560125079803605
 30
0.0
 11
13.56670993633001
 21
8.1061250798036
 31
0.0
 70
    32
 71
     5
 42
5.091999999999984
  3
23NSTD
100
AcDbAlignedDimension
 13
15.14570760392958
 23
10.65212507980358
 33
0.0
 14
15.14570760392958
 24
5.560125079803604
 34
0.0
 50
90.0
100
AcDbRotatedDimension
  0
DIMENSION
  5
12DC
330
1E
100
AcDbEntity
  8
DIM
100
AcDbDimension
  2
*D7
 10
16.48270760392958
 20
4.46440205768313
 30
0.0
 11
15.81420760392958
 21
4.46440205768313
 31
0.0
 70
    32
 71
     5
 42
1.336999999999996
  3
23NSTD
100
AcDbAlignedDimension
 13
15.14570760392958
 23
5.560125079803604
 33
0.0
 14
16.48270760392958
 24
4.776125079803588
 34
0.0
100
AcDbRotatedDimension
  0
DIMENSION
  5
12EA
330
1E
100
AcDbEntity
  8
DIM
100
AcDbDimension
  2
*D8
 10
17.81970760392958
 20
3.885958108468507
 30
0.0
 11
16.48270760392958
 21
3.885958108468507
 31
0.0
 70
    32
 71
     5
 42
2.673999999999999
  3
23NSTD
100
AcDbAlignedDimension
 13
15.14570760392958
 23
5.560125079803604
 33
0.0
 14
17.81970760392958
 24
5.560125079803604
 34
0.0
100
AcDbRotatedDimension
  0
INSERT
  5
1A9A
330
1E
100
AcDbEntity
  8
DIM
100
AcDbBlockReference
  2
HBS
 10
0.0
 20
0.0
 30
0.0
 41
1.75
 42
1.75
 43
1.75
  0
LWPOLYLINE
  5
2268
330
1E
100
AcDbEntity
  8
HIDDEN
100
AcDbPolyline
 90
        8
 70
     1
 43
0.0
 10
14.89770760392959
 20
5.213125079803589
 10
14.89770760392959
 20
10.82912507980358
 42
-0.4142135623730952
 10
15.03370760392958
 20
10.96512507980358
 10
17.93170760392958
 20
10.96512507980358
 42
-0.414213562373095
 10
18.06770760392958
 20
10.82912507980358
 10
18.06770760392958
 20
5.213125079803589
 42
-0.4142135623730807
 10
17.92570760392958
 20
5.071125079803589
 10
15.03970760392958
 20
5.071125079803588
 42
-0.414213562373088
  0
LWPOLYLINE
  5
2269
330
1E
100
AcDbEntity
  8
OBJECT
100
AcDbPolyline
 90
        8
 70
     1
 43
0.0
 10
24.49799669310195
 20
5.213125079803589
 10
24.49799669310195
 20
10.82912507980358
 42
-0.4142135623730952
 10
24.63399669310195
 20
10.96512507980358
 10
27.53199669310195
 20
10.96512507980358
 42
-0.414213562373095
 10
27.66799669310195
 20
10.82912507980358
 10
27.66799669310195
 20
5.213125079803589
 42
-0.4142135623730807
 10
27.52599669310195
 20
5.071125079803589
 10
24.63999669310195
 20
5.071125079803588
 42
-0.414213562373088
  0
LWPOLYLINE
  5
226C
330
1E
100
AcDbEntity
  8
HIDDEN
100
AcDbPolyline
 90
        4
 70
     0
 43
0.0
 10
15.18270760392958
 20
14.46596446875101
 10
15.18270760392958
 20
14.44096446875102
 10
17.78270760392958
 20
14.44096446875102
 10
17.78270760392958
 20
14.46596446875101
  0
LINE
  5
226D
330
1E
100
AcDbEntity
  8
HIDDEN
100
AcDbLine
 10
15.04470760392958
 20
14.17596446875101
 30
0.0
 11
17.92070760392958
 21
14.17596446875101
 31
0.0
  0
LINE
  5
226F
330
1E
100
AcDbEntity
  8
HIDDEN
100
AcDbLine
 10
18.05770760392958
 20
13.33096446875102
 30
0.0
 11
14.90770760392958
 21
13.33096446875102
 31
0.0
  0
LWPOLYLINE
  5
2270
330
1E
100
AcDbEntity
  8
HIDDEN
100
AcDbPolyline
 90
        6
 70
     0
 43
0.0
 10
14.89670760392958
 20
13.56596446875101
 10
14.90770760392958
 20
13.33096446875102
 10
14.94270760392959
 20
13.29596446875102
 10
18.02270760392959
 20
13.29596446875102
 10
18.05770760392958
 20
13.33096446875102
 10
18.06870760392958
 20
13.56596446875101
  0
LWPOLYLINE
  5
2271
330
1E
100
AcDbEntity
  8
HIDDEN
100
AcDbPolyline
 90
       10
 70
     0
 43
0.0
 10
17.91270760392958
 20
13.70675393875117
 10
17.90417575199449
 20
13.21796446875101
 10
17.88270760392958
 20
13.21796446875101
 10
17.88270760392958
 20
13.23496446875102
 42
0.4142135623730951
 10
17.80470760392958
 20
13.31296446875102
 10
15.16070760392958
 20
13.31296446875102
 42
0.414213562373095
 10
15.08270760392958
 20
13.23496446875102
 10
15.08270760392958
 20
13.21796446875101
 10
15.06123945586468
 20
13.21796446875101
 10
15.05270760392958
 20
13.70675393875117
  0
LWPOLYLINE
  5
2272
330
1E
100
AcDbEntity
  8
HIDDEN
100
AcDbPolyline
 90
        4
 70
     0
 43
0.0
 10
17.81970760392958
 20
13.15596446875101
 10
17.81970760392958
 20
13.21796446875101
 10
15.14570760392958
 20
13.21796446875102
 10
15.14570760392958
 20
13.15596446875101
  0
LINE
  5
2273
330
1E
100
AcDbEntity
  8
OBJECT
100
AcDbLine
 10
14.87174613712984
 20
13.22289314607613
 30
0.0
 11
18.09366907072932
 21
13.22289314607613
 31
0.0
  0
LWPOLYLINE
  5
2274
330
1E
100
AcDbEntity
  8
OBJECT
100
AcDbPolyline
 90
        8
 70
     1
 43
0.0
 10
18.11270760392958
 20
13.53096446875101
 10
18.09730037232988
 20
13.23591422878693
 42
-0.3249717290217399
 10
18.07436594227396
 20
13.20758711492552
 10
17.88170760392958
 20
13.15596446875102
 10
15.08370760392959
 20
13.15596446875102
 10
14.8910492655852
 20
13.20758711492552
 42
-0.3249717290217399
 10
14.86811483552928
 20
13.23591422878693
 10
14.85270760392958
 20
13.53096446875101
  0
LWPOLYLINE
  5
2275
330
1E
100
AcDbEntity
  8
HIDDEN
100
AcDbPolyline
 90
        8
 70
     0
 43
0.0
 10
18.00270760392958
 20
13.29596446875102
 10
17.9748175801614
 20
13.33096446875102
 10
17.92070760392958
 20
14.17596446875101
 10
17.81672564463282
 20
14.37596446875102
 10
15.14868956322635
 20
14.37596446875102
 10
15.04470760392958
 20
14.17596446875101
 10
14.99059762769776
 20
13.33096446875102
 10
14.96270760392958
 20
13.29596446875102
  0
LWPOLYLINE
  5
2276
330
1E
100
AcDbEntity
  8
OBJECT
100
AcDbPolyline
 90
       10
 70
     1
 43
0.0
 10
15.15750177979863
 20
14.46596446875101
 10
17.80791342806053
 20
14.46596446875102
 42
-0.2586175843558913
 10
17.86049241002223
 20
14.43681946313348
 10
18.07748275721402
 20
14.08956231805384
 42
-0.1272160680010516
 10
18.0868188064071
 20
14.05995215295845
 10
18.11270760392958
 20
13.56596446875101
 10
14.85270760392958
 20
13.56596446875101
 10
14.87859640145206
 20
14.05995215295845
 42
-0.1272160680010516
 10
14.88793245064514
 20
14.08956231805384
 10
15.10492279783693
 20
14.43681946313347
 42
-0.2586175843558903
  0
LWPOLYLINE
  5
2277
330
1E
100
AcDbEntity
  8
HIDDEN
100
AcDbPolyline
 90
        8
 70
     0
 43
0.0
 10
15.08670760392958
 20
14.17596446875101
 10
15.08670760392958
 20
14.11596446875102
 10
15.14570760392958
 20
14.05596446875102
 10
15.16535234142958
 20
13.61596446875102
 10
15.36206286642958
 20
13.61596446875101
 10
15.38170760392958
 20
14.05596446875102
 10
15.44070760392958
 20
14.11596446875102
 10
15.44070760392958
 20
14.17596446875101
  0
LINE
  5
2278
330
1E
100
AcDbEntity
  8
HIDDEN
100
AcDbLine
 10
15.32370760392958
 20
13.61596446875101
 30
0.0
 11
15.32370760392958
 21
14.11596446875102
 31
0.0
  0
LINE
  5
2279
330
1E
100
AcDbEntity
  8
HIDDEN
100
AcDbLine
 10
15.20370760392958
 20
13.61596446875101
 30
0.0
 11
15.20370760392958
 21
14.11596446875102
 31
0.0
  0
LWPOLYLINE
  5
227A
330
1E
100
AcDbEntity
  8
HIDDEN
100
AcDbPolyline
 90
        4
 70
     0
 43
0.0
 10
15.25243788517284
 20
13.31296446875102
 10
15.26270760392958
 20
13.73833288875103
 10
15.45870760392959
 20
13.73833288875103
 10
15.46901731833493
 20
13.31296446875101
  0
LWPOLYLINE
  5
227B
330
1E
100
AcDbEntity
  8
HIDDEN
100
AcDbPolyline
 90
        7
 70
     0
 43
0.0
 10
15.30003655142958
 20
13.73833288875103
 10
15.31970760392958
 20
13.71866183625111
 10
15.31970760392958
 20
13.28833288875103
 10
15.36070760392959
 20
13.26466152771446
 10
15.40170760392959
 20
13.28833288875103
 10
15.40170760392958
 20
13.71866183625111
 10
15.42137865642958
 20
13.73833288875103
  0
LWPOLYLINE
  5
227C
330
1E
100
AcDbEntity
  8
HIDDEN
100
AcDbPolyline
 90
       10
 70
     0
 43
0.0
 10
14.89770760392959
 20
13.53096446875101
 10
14.91115661479531
 20
13.27309205160749
 42
0.3989595459737129
 10
14.9421141303727
 20
13.24371446625102
 10
14.95702283188731
 20
13.24371446625101
 42
0.3989595459737335
 10
14.98798034746471
 20
13.27309205160748
 10
15.01070760392958
 20
13.70675393875117
 10
15.24365851876922
 20
13.70675393875117
 42
-0.3394542588634413
 10
15.30066085168934
 20
13.66301451032381
 10
15.32432360916476
 20
13.57470389717837
 42
0.3394542588634419
 10
15.38132594208487
 20
13.53096446875101
  0
LWPOLYLINE
  5
227D
330
1E
100
AcDbEntity
  8
HIDDEN
100
AcDbPolyline
 90
        4
 70
     0
 43
0.0
 10
15.59244440482098
 20
13.31296446875102
 10
15.59770760392958
 20
13.53096446875102
 10
15.79370760392959
 20
13.53096446875102
 10
15.79899130068442
 20
13.31296446875101
  0
LWPOLYLINE
  5
227E
330
1E
100
AcDbEntity
  8
HIDDEN
100
AcDbPolyline
 90
        7
 70
     0
 43
0.0
 10
15.20303655142981
 20
13.53096446875102
 10
15.22270760392981
 20
13.5112934162511
 10
15.22270760392981
 20
13.28096446875101
 10
15.26370760392981
 20
13.25729310771444
 10
15.30470760392981
 20
13.28096446875101
 10
15.30470760392981
 20
13.5112934162511
 10
15.32437865642981
 20
13.53096446875102
  0
LWPOLYLINE
  5
227F
330
1E
100
AcDbEntity
  8
HIDDEN
100
AcDbPolyline
 90
        4
 70
     0
 43
0.0
 10
15.36840920827186
 20
13.2544630315275
 10
15.36170760392981
 20
13.53096446875102
 10
15.16570760392981
 20
13.53096446875102
 10
15.1590319978843
 20
13.2544630315275
  0
LINE
  5
2280
330
1E
100
AcDbEntity
  8
HIDDEN
100
AcDbLine
 10
15.30470760392981
 20
13.28096446875102
 30
0.0
 11
15.22270760392981
 21
13.28096446875101
 31
0.0
  0
LINE
  5
2281
330
1E
100
AcDbEntity
  8
HIDDEN
100
AcDbLine
 10
15.40170760392958
 20
13.28833288875103
 30
0.0
 11
15.31970760392958
 21
13.28833288875103
 31
0.0
  0
LINE
  5
2282
330
1E
100
AcDbEntity
  8
HIDDEN
100
AcDbLine
 10
15.30470760392981
 20
13.5112934162511
 30
0.0
 11
15.22270760392981
 21
13.5112934162511
 31
0.0
  0
LWPOLYLINE
  5
2283
330
1E
100
AcDbEntity
  8
HIDDEN
100
AcDbPolyline
 90
        7
 70
     0
 43
0.0
 10
15.63503655142958
 20
13.53096446875102
 10
15.65470760392958
 20
13.5112934162511
 10
15.65470760392958
 20
13.28096446875101
 10
15.69570760392958
 20
13.25729310771444
 10
15.73670760392958
 20
13.28096446875101
 10
15.73670760392958
 20
13.5112934162511
 10
15.75637865642959
 20
13.53096446875102
  0
LINE
  5
2284
330
1E
100
AcDbEntity
  8
HIDDEN
100
AcDbLine
 10
15.73670760392958
 20
13.28096446875102
 30
0.0
 11
15.65470760392958
 21
13.28096446875101
 31
0.0
  0
LINE
  5
2285
330
1E
100
AcDbEntity
  8
HIDDEN
100
AcDbLine
 10
15.73670760392958
 20
13.5112934162511
 30
0.0
 11
15.65470760392958
 21
13.5112934162511
 31
0.0
  0
LWPOLYLINE
  5
2287
330
1E
100
AcDbEntity
  8
HIDDEN
100
AcDbPolyline
 90
        4
 70
     0
 43
0.0
 10
15.22320760392958
 20
14.44096446875102
 10
15.22320760392958
 20
14.29596446875101
 10
15.49820760392958
 20
14.29596446875102
 10
15.49820760392958
 20
14.44096446875102
  0
LWPOLYLINE
  5
2288
330
1E
100
AcDbEntity
  8
HIDDEN
100
AcDbPolyline
 90
        8
 70
     0
 43
0.0
 10
15.18370760392959
 20
14.37596446875101
 10
15.18370760392959
 20
14.31596446875102
 10
15.24270760392958
 20
14.25596446875101
 10
15.26235234142959
 20
13.74096446875102
 10
15.45906286642959
 20
13.74096446875102
 10
15.47870760392958
 20
14.25596446875101
 10
15.53770760392959
 20
14.31596446875102
 10
15.53770760392959
 20
14.37596446875101
  0
LINE
  5
228A
330
1E
100
AcDbEntity
  8
HIDDEN
100
AcDbLine
 10
15.85170760392958
 20
13.94596446875101
 30
0.0
 11
15.85170760392958
 21
14.37596446875101
 31
0.0
  0
LINE
  5
228C
330
1E
100
AcDbEntity
  8
HIDDEN
100
AcDbLine
 10
15.76970760392959
 20
13.94596446875101
 30
0.0
 11
15.76970760392959
 21
14.37596446875101
 31
0.0
  0
LWPOLYLINE
  5
228D
330
1E
100
AcDbEntity
  8
HIDDEN
100
AcDbPolyline
 90
        4
 70
     0
 43
0.0
 10
15.72070760392958
 20
14.17596446875102
 10
15.70770760392958
 20
13.94596446875102
 10
15.50770760392959
 20
13.94596446875102
 10
15.49470760392958
 20
14.17596446875102
  0
LINE
  5
228E
330
1E
100
AcDbEntity
  8
HIDDEN
100
AcDbLine
 10
15.56670760392958
 20
13.94596446875102
 30
0.0
 11
15.56670760392958
 21
14.17596446875102
 31
0.0
  0
LINE
  5
228F
330
1E
100
AcDbEntity
  8
HIDDEN
100
AcDbLine
 10
15.42070760392958
 20
13.74096446875102
 30
0.0
 11
15.42070760392958
 21
14.29596446875102
 31
0.0
  0
LINE
  5
2290
330
1E
100
AcDbEntity
  8
HIDDEN
100
AcDbLine
 10
15.30070760392958
 20
13.74096446875102
 30
0.0
 11
15.30070760392958
 21
14.29596446875102
 31
0.0
  0
LINE
  5
2291
330
1E
100
AcDbEntity
  8
HIDDEN
100
AcDbLine
 10
15.40170760392958
 20
13.71866183625111
 30
0.0
 11
15.31970760392958
 21
13.71866183625111
 31
0.0
  0
LINE
  5
2293
330
1E
100
AcDbEntity
  8
HIDDEN
100
AcDbLine
 10
15.14570760392958
 20
14.05596446875102
 30
0.0
 11
15.38170760392958
 21
14.05596446875102
 31
0.0
  0
LWPOLYLINE
  5
2294
330
1E
100
AcDbEntity
  8
HIDDEN
100
AcDbPolyline
 90
        4
 70
     0
 43
0.0
 10
15.12620760392958
 20
14.25096446875102
 10
15.12620760392958
 20
14.11596446875102
 10
15.40120760392958
 20
14.11596446875101
 10
15.40120760392958
 20
14.25096446875102
  0
LINE
  5
2298
330
1E
100
AcDbEntity
  8
HIDDEN
100
AcDbLine
 10
15.64870760392958
 20
13.94596446875102
 30
0.0
 11
15.64870760392958
 21
14.17596446875102
 31
0.0
  0
LINE
  5
229D
330
1E
100
AcDbEntity
  8
OBJECT
100
AcDbLine
 10
15.45570760392958
 20
14.52596446875102
 30
0.0
 11
15.26970760392958
 21
14.52596446875102
 31
0.0
  0
LINE
  5
229E
330
1E
100
AcDbEntity
  8
OBJECT
100
AcDbLine
 10
15.51770760392958
 20
14.48896446875102
 30
0.0
 11
15.20770760392959
 21
14.48896446875102
 31
0.0
  0
LINE
  5
229F
330
1E
100
AcDbEntity
  8
OBJECT
100
AcDbLine
 10
15.20770760392959
 20
14.48896446875102
 30
0.0
 11
15.20770760392959
 21
14.46596446875101
 31
0.0
  0
ARC
  5
22A0
330
1E
100
AcDbEntity
  8
OBJECT
100
AcDbCircle
 10
15.26970760392958
 20
14.45551852280507
 30
0.0
 40
0.0704459459459456
100
AcDbArc
 50
90.00000000000003
 51
151.6553245997362
  0
LINE
  5
22A1
330
1E
100
AcDbEntity
  8
OBJECT
100
AcDbLine
 10
15.51770760392958
 20
14.48896446875102
 30
0.0
 11
15.51770760392958
 21
14.46596446875101
 31
0.0
  0
ARC
  5
22A2
330
1E
100
AcDbEntity
  8
OBJECT
100
AcDbCircle
 10
15.45570760392958
 20
14.45551852280507
 30
0.0
 40
0.0704459459459456
100
AcDbArc
 50
28.34467540026446
 51
90.00000000000003
  0
LWPOLYLINE
  5
22A3
330
1E
100
AcDbEntity
  8
HIDDEN
100
AcDbPolyline
 90
        8
 70
     0
 43
0.0
 10
17.52470760392958
 20
14.17596446875101
 10
17.52470760392958
 20
14.11596446875102
 10
17.58370760392959
 20
14.05596446875102
 10
17.60335234142958
 20
13.61596446875102
 10
17.80006286642958
 20
13.61596446875102
 10
17.81970760392958
 20
14.05596446875102
 10
17.87870760392958
 20
14.11596446875102
 10
17.87870760392958
 20
14.17596446875101
  0
LINE
  5
22A4
330
1E
100
AcDbEntity
  8
HIDDEN
100
AcDbLine
 10
17.76170760392958
 20
13.61596446875102
 30
0.0
 11
17.76170760392958
 21
14.11596446875102
 31
0.0
  0
LINE
  5
22A5
330
1E
100
AcDbEntity
  8
HIDDEN
100
AcDbLine
 10
17.64170760392959
 20
13.61596446875102
 30
0.0
 11
17.64170760392959
 21
14.11596446875102
 31
0.0
  0
LWPOLYLINE
  5
22A6
330
1E
100
AcDbEntity
  8
HIDDEN
100
AcDbPolyline
 90
       10
 70
     0
 43
0.0
 10
18.06770760392958
 20
13.53096446875101
 10
18.05425859306386
 20
13.27309205160749
 42
-0.3989595459737129
 10
18.02330107748647
 20
13.24371446625102
 10
18.00839237597185
 20
13.24371446625101
 42
-0.3989595459737334
 10
17.97743486039446
 20
13.27309205160748
 10
17.95470760392958
 20
13.70675393875117
 10
17.72175668908995
 20
13.70675393875117
 42
0.3394542588634413
 10
17.66475435616983
 20
13.66301451032381
 10
17.6410915986944
 20
13.57470389717837
 42
-0.3394542588634419
 10
17.58408926577429
 20
13.53096446875101
  0
LWPOLYLINE
  5
22A7
330
1E
100
AcDbEntity
  8
HIDDEN
100
AcDbPolyline
 90
        4
 70
     0
 43
0.0
 10
17.71297732268633
 20
13.31296446875102
 10
17.70270760392959
 20
13.73833288875103
 10
17.50670760392958
 20
13.73833288875103
 10
17.49639788952424
 20
13.31296446875101
  0
LWPOLYLINE
  5
22A8
330
1E
100
AcDbEntity
  8
HIDDEN
100
AcDbPolyline
 90
        7
 70
     0
 43
0.0
 10
17.66537865642958
 20
13.73833288875103
 10
17.64570760392958
 20
13.71866183625111
 10
17.64570760392958
 20
13.28833288875103
 10
17.60470760392958
 20
13.26466152771446
 10
17.56370760392957
 20
13.28833288875103
 10
17.56370760392958
 20
13.71866183625111
 10
17.54403655142958
 20
13.73833288875103
  0
LINE
  5
22A9
330
1E
100
AcDbEntity
  8
HIDDEN
100
AcDbLine
 10
17.22870760392958
 20
13.5112934162511
 30
0.0
 11
17.31070760392958
 21
13.5112934162511
 31
0.0
  0
LINE
  5
22AA
330
1E
100
AcDbEntity
  8
HIDDEN
100
AcDbLine
 10
17.22870760392958
 20
13.28096446875102
 30
0.0
 11
17.31070760392958
 21
13.28096446875101
 31
0.0
  0
LWPOLYLINE
  5
22AB
330
1E
100
AcDbEntity
  8
HIDDEN
100
AcDbPolyline
 90
        7
 70
     0
 43
0.0
 10
17.33037865642958
 20
13.53096446875102
 10
17.31070760392958
 20
13.5112934162511
 10
17.31070760392958
 20
13.28096446875101
 10
17.26970760392958
 20
13.25729310771444
 10
17.22870760392958
 20
13.28096446875101
 10
17.22870760392958
 20
13.5112934162511
 10
17.20903655142958
 20
13.53096446875102
  0
LWPOLYLINE
  5
22AC
330
1E
100
AcDbEntity
  8
HIDDEN
100
AcDbPolyline
 90
        4
 70
     0
 43
0.0
 10
17.37297080303818
 20
13.31296446875102
 10
17.36770760392959
 20
13.53096446875102
 10
17.17170760392958
 20
13.53096446875102
 10
17.16642390717474
 20
13.31296446875101
  0
LWPOLYLINE
  5
22AD
330
1E
100
AcDbEntity
  8
HIDDEN
100
AcDbPolyline
 90
        4
 70
     0
 43
0.0
 10
17.59700599958731
 20
13.2544630315275
 10
17.60370760392935
 20
13.53096446875102
 10
17.79970760392935
 20
13.53096446875102
 10
17.80638320997486
 20
13.2544630315275
  0
LWPOLYLINE
  5
22AE
330
1E
100
AcDbEntity
  8
HIDDEN
100
AcDbPolyline
 90
        7
 70
     0
 43
0.0
 10
17.76237865642936
 20
13.53096446875102
 10
17.74270760392936
 20
13.5112934162511
 10
17.74270760392936
 20
13.28096446875101
 10
17.70170760392935
 20
13.25729310771444
 10
17.66070760392935
 20
13.28096446875101
 10
17.66070760392935
 20
13.5112934162511
 10
17.64103655142935
 20
13.53096446875102
  0
LINE
  5
22AF
330
1E
100
AcDbEntity
  8
HIDDEN
100
AcDbLine
 10
17.56370760392958
 20
13.28833288875103
 30
0.0
 11
17.64570760392958
 21
13.28833288875103
 31
0.0
  0
LINE
  5
22B0
330
1E
100
AcDbEntity
  8
HIDDEN
100
AcDbLine
 10
17.66070760392935
 20
13.28096446875102
 30
0.0
 11
17.74270760392936
 21
13.28096446875101
 31
0.0
  0
LINE
  5
22B1
330
1E
100
AcDbEntity
  8
HIDDEN
100
AcDbLine
 10
17.66070760392935
 20
13.5112934162511
 30
0.0
 11
17.74270760392936
 21
13.5112934162511
 31
0.0
  0
LWPOLYLINE
  5
22B2
330
1E
100
AcDbEntity
  8
HIDDEN
100
AcDbPolyline
 90
        4
 70
     0
 43
0.0
 10
17.24470760392958
 20
14.17596446875102
 10
17.25770760392959
 20
13.94596446875102
 10
17.45770760392958
 20
13.94596446875102
 10
17.47070760392958
 20
14.17596446875102
  0
LINE
  5
22B4
330
1E
100
AcDbEntity
  8
HIDDEN
100
AcDbLine
 10
17.11370760392958
 20
13.94596446875101
 30
0.0
 11
17.11370760392958
 21
14.37596446875101
 31
0.0
  0
LINE
  5
22B5
330
1E
100
AcDbEntity
  8
HIDDEN
100
AcDbLine
 10
17.19570760392959
 20
13.94596446875101
 30
0.0
 11
17.19570760392959
 21
14.37596446875101
 31
0.0
  0
LWPOLYLINE
  5
22BB
330
1E
100
AcDbEntity
  8
HIDDEN
100
AcDbPolyline
 90
        4
 70
     0
 43
0.0
 10
17.74220760392958
 20
14.44096446875102
 10
17.74220760392958
 20
14.29596446875102
 10
17.46720760392958
 20
14.29596446875102
 10
17.46720760392958
 20
14.44096446875102
  0
LWPOLYLINE
  5
22BC
330
1E
100
AcDbEntity
  8
HIDDEN
100
AcDbPolyline
 90
        8
 70
     0
 43
0.0
 10
17.78170760392959
 20
14.37596446875101
 10
17.78170760392959
 20
14.31596446875102
 10
17.72270760392958
 20
14.25596446875101
 10
17.70306286642959
 20
13.74096446875102
 10
17.50635234142959
 20
13.74096446875102
 10
17.48670760392958
 20
14.25596446875101
 10
17.42770760392959
 20
14.31596446875102
 10
17.42770760392959
 20
14.37596446875101
  0
LINE
  5
22BD
330
1E
100
AcDbEntity
  8
HIDDEN
100
AcDbLine
 10
17.39870760392958
 20
13.94596446875102
 30
0.0
 11
17.39870760392958
 21
14.17596446875102
 31
0.0
  0
LINE
  5
22BE
330
1E
100
AcDbEntity
  8
HIDDEN
100
AcDbLine
 10
17.31670760392958
 20
13.94596446875102
 30
0.0
 11
17.31670760392958
 21
14.17596446875102
 31
0.0
  0
LINE
  5
22BF
330
1E
100
AcDbEntity
  8
HIDDEN
100
AcDbLine
 10
17.54470760392958
 20
13.74096446875102
 30
0.0
 11
17.54470760392958
 21
14.29596446875102
 31
0.0
  0
LINE
  5
22C0
330
1E
100
AcDbEntity
  8
HIDDEN
100
AcDbLine
 10
17.66470760392958
 20
13.74096446875102
 30
0.0
 11
17.66470760392958
 21
14.29596446875102
 31
0.0
  0
LINE
  5
22C1
330
1E
100
AcDbEntity
  8
HIDDEN
100
AcDbLine
 10
17.56370760392958
 20
13.71866183625111
 30
0.0
 11
17.64570760392958
 21
13.71866183625111
 31
0.0
  0
LINE
  5
22C3
330
1E
100
AcDbEntity
  8
HIDDEN
100
AcDbLine
 10
17.58370760392958
 20
14.05596446875102
 30
0.0
 11
17.81970760392958
 21
14.05596446875102
 31
0.0
  0
LWPOLYLINE
  5
22C4
330
1E
100
AcDbEntity
  8
HIDDEN
100
AcDbPolyline
 90
        4
 70
     0
 43
0.0
 10
17.56420760392958
 20
14.25096446875102
 10
17.56420760392958
 20
14.11596446875102
 10
17.83920760392958
 20
14.11596446875101
 10
17.83920760392958
 20
14.25096446875102
  0
LINE
  5
22CA
330
1E
100
AcDbEntity
  8
OBJECT
100
AcDbLine
 10
17.69570760392959
 20
14.52596446875102
 30
0.0
 11
17.50970760392958
 21
14.52596446875102
 31
0.0
  0
LINE
  5
22CB
330
1E
100
AcDbEntity
  8
OBJECT
100
AcDbLine
 10
17.75770760392958
 20
14.48896446875102
 30
0.0
 11
17.44770760392958
 21
14.48896446875102
 31
0.0
  0
ARC
  5
22CC
330
1E
100
AcDbEntity
  8
OBJECT
100
AcDbCircle
 10
17.50970760392958
 20
14.45551852280507
 30
0.0
 40
0.0704459459459456
100
AcDbArc
 50
90.00000000000003
 51
151.6553245997362
  0
LINE
  5
22CD
330
1E
100
AcDbEntity
  8
OBJECT
100
AcDbLine
 10
17.44770760392958
 20
14.48896446875102
 30
0.0
 11
17.44770760392958
 21
14.46596446875101
 31
0.0
  0
ARC
  5
22CE
330
1E
100
AcDbEntity
  8
OBJECT
100
AcDbCircle
 10
17.69570760392959
 20
14.45551852280507
 30
0.0
 40
0.0704459459459456
100
AcDbArc
 50
28.34467540026446
 51
90.00000000000003
  0
LINE
  5
22CF
330
1E
100
AcDbEntity
  8
OBJECT
100
AcDbLine
 10
17.75770760392958
 20
14.48896446875102
 30
0.0
 11
17.75770760392958
 21
14.46596446875101
 31
0.0
  0
LINE
  5
22D1
330
1E
100
AcDbEntity
  8
HIDDEN
100
AcDbLine
 10
11.69402228087555
 20
10.81746892668465
 30
0.0
 11
11.69402228087555
 21
9.379468926684651
 31
0.0
  0
LWPOLYLINE
  5
22D2
330
1E
100
AcDbEntity
  8
HIDDEN
100
AcDbPolyline
 90
        4
 70
     0
 43
0.0
 10
11.60402228087556
 20
9.590125079803584
 10
11.62902228087556
 20
9.590125079803584
 10
11.62902228087556
 20
10.85012507980358
 10
11.60402228087556
 20
10.85012507980358
  0
LWPOLYLINE
  5
22D3
330
1E
100
AcDbEntity
  8
HIDDEN
100
AcDbPolyline
 90
       10
 70
     0
 43
0.0
 10
12.36323281087541
 20
10.81012507980358
 10
12.85202228087556
 20
10.80159322786849
 10
12.85202228087556
 20
10.73612507980358
 10
12.83502228087556
 20
10.73612507980358
 42
0.4142135623730951
 10
12.75702228087556
 20
10.65812507980358
 10
12.75702228087556
 20
5.564125079803584
 42
0.4142135623730951
 10
12.83502228087556
 20
5.486125079803585
 10
12.84194388163864
 20
5.486125079803585
 10
12.80935098108924
 20
5.233912101430334
 10
12.36323281087541
 20
5.226125079803583
  0
LWPOLYLINE
  5
22D4
330
1E
100
AcDbEntity
  8
HIDDEN
100
AcDbPolyline
 90
       18
 70
     0
 43
0.0
 10
12.53902228087556
 20
5.071125079803584
 10
12.79689469801909
 20
5.08457409066931
 42
0.3989595459737131
 10
12.82627228337555
 20
5.115531606246701
 10
12.82627228337556
 20
5.130440307761318
 42
0.3989595459737335
 10
12.79689469801909
 20
5.161397823338711
 10
12.36351783641929
 20
5.184110142247792
 10
12.36323281087541
 20
8.211437338963943
 42
-0.4142135623730951
 10
12.4222459683754
 20
8.270450496463947
 10
12.70157491387546
 20
8.270450496463947
 10
12.70157491387546
 20
10.50114784996395
 10
12.42224596837538
 20
10.50114784996395
 42
-0.4142135623730951
 10
12.36323281087541
 20
10.56016100746394
 10
12.36323281087541
 20
10.85212507980358
 10
12.79689469801909
 20
10.87485233626845
 42
0.3989595459737334
 10
12.82627228337556
 20
10.90580985184585
 10
12.82627228337555
 20
10.92071855336046
 42
0.3989595459737131
 10
12.79689469801909
 20
10.95167606893786
 10
12.53902228087556
 20
10.96512507980358
  0
LWPOLYLINE
  5
22D5
330
1E
100
AcDbEntity
  8
HIDDEN
100
AcDbPolyline
 90
        4
 70
     0
 43
0.0
 10
12.91402228087556
 20
10.65212507980358
 10
12.85202228087556
 20
10.65212507980358
 10
12.85202228087556
 20
5.560125079803587
 10
12.91402228087556
 20
5.560125079803587
  0
LWPOLYLINE
  5
22D6
330
1E
100
AcDbEntity
  8
OBJECT
100
AcDbPolyline
 90
       12
 70
     1
 43
0.0
 10
11.80402228087555
 20
9.176241631929904
 10
11.80402228087555
 20
5.500524290143209
 42
0.0962890481975786
 10
11.80970194021935
 20
5.471304975856757
 10
11.95982274347434
 20
5.099742949296206
 42
0.2914734195860665
 10
12.0280608795436
 20
5.051069159871801
 10
12.50402228087556
 20
5.026125079803588
 10
12.50402228087556
 20
11.01012507980358
 10
11.66277745158849
 20
10.96603730646732
 42
0.398959545973725
 10
11.60402228087556
 20
10.90412227531254
 10
11.60402228087556
 20
9.363303119147339
 42
0.2679491924311231
 10
11.63502228087555
 20
9.309609544112703
 10
11.77302228087555
 20
9.22993520696454
 42
-0.2679491924311233
  0
LINE
  5
22D7
330
1E
100
AcDbEntity
  8
HIDDEN
100
AcDbLine
 10
12.73902228087556
 20
10.95512507980358
 30
0.0
 11
12.73902228087556
 21
5.081125079803586
 31
0.0
  0
LWPOLYLINE
  5
22D8
330
1E
100
AcDbEntity
  8
HIDDEN
100
AcDbPolyline
 90
        6
 70
     0
 43
0.0
 10
12.50402228087556
 20
10.96612507980359
 10
12.73902228087556
 20
10.95512507980358
 10
12.77402228087555
 20
10.92012507980359
 10
12.77402228087555
 20
5.116125079803586
 10
12.73902228087556
 20
5.081125079803586
 10
12.50402228087556
 20
5.070125079803586
  0
LWPOLYLINE
  5
22D9
330
1E
100
AcDbEntity
  8
OBJECT
100
AcDbPolyline
 90
        7
 70
     1
 43
0.0
 10
12.53902228087556
 20
11.01012507980358
 10
12.8846388676291
 20
10.99207732360634
 42
-0.3990141013959219
 10
12.91402228087555
 20
10.96111950315225
 10
12.91402228087556
 20
5.560125079803587
 10
12.85040658497028
 20
5.067849036091587
 42
-0.3622288529481167
 10
12.8212788210102
 20
5.040864237056641
 10
12.53902228087556
 20
5.026125079803584
  0
LINE
  5
22DA
330
1E
100
AcDbEntity
  8
OBJECT
100
AcDbLine
 10
11.99402228087555
 20
10.98339711236924
 30
0.0
 11
11.99402228087555
 21
5.060912249922157
 31
0.0
  0
LINE
  5
22DB
330
1E
100
AcDbEntity
  8
HIDDEN
100
AcDbLine
 10
11.89402228087556
 20
10.82795048254125
 30
0.0
 11
11.89402228087556
 21
5.502856853852863
 31
0.0
  0
LWPOLYLINE
  5
22DC
330
1E
100
AcDbEntity
  8
OBJECT
100
AcDbPolyline
 90
        3
 70
     0
 43
0.0
 10
11.78402228087556
 20
9.221848648933868
 10
11.78402228087556
 20
7.01190935105105
 42
0.3178372451957825
 10
11.80402228087555
 20
6.983625079803589
  0
LWPOLYLINE
  5
22DD
330
1E
100
AcDbEntity
  8
HIDDEN
100
AcDbPolyline
 90
        4
 70
     0
 43
0.0
 10
11.80402228087555
 20
5.585625079803589
 10
11.81902228087555
 20
5.585625079803589
 10
11.81902228087555
 20
6.935625079803589
 10
11.80402228087555
 20
6.935625079803589
  0
LINE
  5
22DE
330
1E
100
AcDbEntity
  8
HIDDEN
100
AcDbLine
 10
11.89402228087556
 20
5.502856853852863
 30
0.0
 11
12.01560552313495
 21
5.201927769341043
 31
0.0
  0
LWPOLYLINE
  5
22DF
330
1E
100
AcDbEntity
  8
HIDDEN
100
AcDbPolyline
 90
        7
 70
     0
 43
0.0
 10
12.53902228087556
 20
5.323454027303588
 10
12.55869333337548
 20
5.34312507980359
 10
12.78902228087556
 20
5.34312507980359
 10
12.81269364191213
 20
5.384125079803588
 10
12.78902228087556
 20
5.425125079803592
 10
12.55869333337548
 20
5.425125079803592
 10
12.53902228087556
 20
5.444796132303594
  0
LINE
  5
22E0
330
1E
100
AcDbEntity
  8
HIDDEN
100
AcDbLine
 10
12.73902228087556
 20
5.164015103571779
 30
0.0
 11
12.01560552313495
 21
5.201927769341043
 31
0.0
  0
LWPOLYLINE
  5
22E1
330
1E
100
AcDbEntity
  8
HIDDEN
100
AcDbPolyline
 90
        4
 70
     0
 43
0.0
 10
12.81523656641919
 20
5.27945640649416
 10
12.53902228087556
 20
5.286125079803589
 10
12.53902228087556
 20
5.482125079803591
 10
12.81474181541033
 20
5.488807733059864
  0
LINE
  5
22E2
330
1E
100
AcDbEntity
  8
HIDDEN
100
AcDbLine
 10
12.73891200458904
 20
5.164020882907063
 30
0.0
 11
12.77402228087555
 21
5.136125079803585
 31
0.0
  0
LINE
  5
22E3
330
1E
100
AcDbEntity
  8
HIDDEN
100
AcDbLine
 10
12.78902228087556
 20
5.34312507980359
 30
0.0
 11
12.78902228087556
 21
5.425125079803592
 31
0.0
  0
LINE
  5
22E4
330
1E
100
AcDbEntity
  8
HIDDEN
100
AcDbLine
 10
12.55869333337548
 20
5.425125079803592
 30
0.0
 11
12.55869333337548
 21
5.34312507980359
 31
0.0
  0
LINE
  5
22E5
330
1E
100
AcDbEntity
  8
HIDDEN
100
AcDbLine
 10
12.45402228087556
 20
6.858125079803588
 30
0.0
 11
11.95402228087556
 21
6.858125079803588
 31
0.0
  0
LINE
  5
22E6
330
1E
100
AcDbEntity
  8
HIDDEN
100
AcDbLine
 10
12.45402228087556
 20
6.738125079803589
 30
0.0
 11
11.95402228087556
 21
6.738125079803589
 31
0.0
  0
LWPOLYLINE
  5
22E7
330
1E
100
AcDbEntity
  8
HIDDEN
100
AcDbPolyline
 90
        8
 70
     0
 43
0.0
 10
11.89402228087556
 20
6.975125079803589
 10
11.95402228087556
 20
6.975125079803589
 10
12.01402228087555
 20
6.916125079803588
 10
12.45402228087556
 20
6.896480342303588
 10
12.45402228087556
 20
6.699769817303588
 10
12.01402228087555
 20
6.680125079803589
 10
11.95402228087556
 20
6.621125079803588
 10
11.89402228087556
 20
6.621125079803588
  0
LWPOLYLINE
  5
22E8
330
1E
100
AcDbEntity
  8
HIDDEN
100
AcDbPolyline
 90
        4
 70
     0
 43
0.0
 10
11.81902228087555
 20
6.935625079803589
 10
11.95402228087556
 20
6.935625079803589
 10
11.95402228087556
 20
6.660625079803589
 10
11.81902228087555
 20
6.660625079803589
  0
LWPOLYLINE
  5
22E9
330
1E
100
AcDbEntity
  8
HIDDEN
100
AcDbPolyline
 90
        4
 70
     0
 43
0.0
 10
12.75702228087556
 20
6.69486188069499
 10
12.53902228087556
 20
6.700125079803589
 10
12.53902228087556
 20
6.896125079803589
 10
12.75702228087556
 20
6.901408776558431
  0
LWPOLYLINE
  5
22EA
330
1E
100
AcDbEntity
  8
HIDDEN
100
AcDbPolyline
 90
        7
 70
     0
 43
0.0
 10
12.53902228087556
 20
6.858796132303591
 10
12.55869333337548
 20
6.83912507980359
 10
12.78902228087555
 20
6.83912507980359
 10
12.81269364191213
 20
6.798125079803586
 10
12.78902228087556
 20
6.757125079803582
 10
12.55869333337548
 20
6.757125079803589
 10
12.53902228087556
 20
6.737454027303588
  0
LINE
  5
22EB
330
1E
100
AcDbEntity
  8
HIDDEN
100
AcDbLine
 10
12.01402228087555
 20
6.91612507980359
 30
0.0
 11
12.01402228087555
 21
6.680125079803589
 31
0.0
  0
LINE
  5
22EC
330
1E
100
AcDbEntity
  8
HIDDEN
100
AcDbLine
 10
12.55869333337548
 20
6.83912507980359
 30
0.0
 11
12.55869333337548
 21
6.757125079803589
 31
0.0
  0
LINE
  5
22ED
330
1E
100
AcDbEntity
  8
HIDDEN
100
AcDbLine
 10
12.78902228087555
 20
6.83912507980359
 30
0.0
 11
12.78902228087556
 21
6.757125079803589
 31
0.0
  0
LINE
  5
22EF
330
1E
100
AcDbEntity
  8
HIDDEN
100
AcDbLine
 10
12.12402228087556
 20
8.665125079803559
 30
0.0
 11
11.89402228087556
 21
8.665125079803559
 31
0.0
  0
LINE
  5
22F0
330
1E
100
AcDbEntity
  8
HIDDEN
100
AcDbLine
 10
12.12402228087556
 20
8.583125079803558
 30
0.0
 11
11.89402228087556
 21
8.583125079803558
 31
0.0
  0
LWPOLYLINE
  5
22F1
330
1E
100
AcDbEntity
  8
HIDDEN
100
AcDbPolyline
 90
        4
 70
     0
 43
0.0
 10
11.89402228087556
 20
8.511125079803562
 10
12.12402228087556
 20
8.52412507980356
 10
12.12402228087556
 20
8.72412507980356
 10
11.89402228087556
 20
8.737125079803561
  0
LINE
  5
22F2
330
1E
100
AcDbEntity
  8
OBJECT
100
AcDbLine
 10
11.58102228087555
 20
9.534125079803587
 30
0.0
 11
11.58102228087555
 21
9.410125079803584
 31
0.0
  0
ARC
  5
22F3
330
1E
100
AcDbEntity
  8
OBJECT
100
AcDbCircle
 10
11.6144682268215
 20
9.472125079803589
 30
0.0
 40
0.0704459459459456
100
AcDbArc
 50
118.3446754002644
 51
241.6553245997361
  0
LINE
  5
22F4
330
1E
100
AcDbEntity
  8
HIDDEN
100
AcDbLine
 10
11.69402228087555
 20
9.379468926684651
 30
0.0
 11
11.89402228087556
 21
9.263998872846727
 31
0.0
  0
LINE
  5
22F5
330
1E
100
AcDbEntity
  8
OBJECT
100
AcDbLine
 10
11.58102228087555
 20
9.410125079803584
 30
0.0
 11
11.60402228087556
 21
9.410125079803584
 31
0.0
  0
LINE
  5
22F6
330
1E
100
AcDbEntity
  8
OBJECT
100
AcDbLine
 10
11.58102228087555
 20
9.534125079803587
 30
0.0
 11
11.60402228087556
 21
9.534125079803587
 31
0.0
  0
LWPOLYLINE
  5
22F7
330
1E
100
AcDbEntity
  8
HIDDEN
100
AcDbPolyline
 90
        8
 70
     0
 43
0.0
 10
11.69402228087555
 20
10.77412507980358
 10
11.75402228087556
 20
10.77412507980358
 10
11.81402228087556
 20
10.71512507980359
 10
12.32902228087556
 20
10.69548034230358
 10
12.32902228087556
 20
10.49876981730359
 10
11.81402228087556
 20
10.47912507980359
 10
11.75402228087556
 20
10.42012507980359
 10
11.69402228087555
 20
10.42012507980359
  0
LINE
  5
22F8
330
1E
100
AcDbEntity
  8
HIDDEN
100
AcDbLine
 10
12.32902228087556
 20
10.65712507980359
 30
0.0
 11
11.77402228087555
 21
10.65712507980359
 31
0.0
  0
LINE
  5
22F9
330
1E
100
AcDbEntity
  8
HIDDEN
100
AcDbLine
 10
12.32902228087556
 20
10.53712507980359
 30
0.0
 11
11.77402228087555
 21
10.53712507980359
 31
0.0
  0
LINE
  5
22FA
330
1E
100
AcDbEntity
  8
HIDDEN
100
AcDbLine
 10
12.73902228087556
 20
10.8722350560354
 30
0.0
 11
11.69402228087555
 21
10.81746892668465
 31
0.0
  0
LINE
  5
22FC
330
1E
100
AcDbEntity
  8
HIDDEN
100
AcDbLine
 10
12.12402228087556
 20
9.851125079803587
 30
0.0
 11
11.69402228087555
 21
9.851125079803587
 31
0.0
  0
LINE
  5
22FD
330
1E
100
AcDbEntity
  8
HIDDEN
100
AcDbLine
 10
12.12402228087556
 20
9.769125079803586
 30
0.0
 11
11.69402228087555
 21
9.769125079803586
 31
0.0
  0
LWPOLYLINE
  5
22FE
330
1E
100
AcDbEntity
  8
HIDDEN
100
AcDbPolyline
 90
        4
 70
     0
 43
0.0
 10
11.62902228087556
 20
10.73462507980359
 10
11.77402228087555
 20
10.73462507980359
 10
11.77402228087555
 20
10.45962507980359
 10
11.62902228087556
 20
10.45962507980359
  0
LINE
  5
22FF
330
1E
100
AcDbEntity
  8
HIDDEN
100
AcDbLine
 10
11.81402228087556
 20
10.71512507980359
 30
0.0
 11
11.81402228087556
 21
10.47912507980359
 31
0.0
  0
LWPOLYLINE
  5
2300
330
1E
100
AcDbEntity
  8
HIDDEN
100
AcDbPolyline
 90
        7
 70
     0
 43
0.0
 10
12.33202228087556
 20
10.53645402730358
 10
12.35169333337547
 20
10.55612507980358
 10
12.78202228087556
 20
10.55612507980358
 10
12.80569364191213
 20
10.59712507980359
 10
12.78202228087556
 20
10.63812507980358
 10
12.35169333337547
 20
10.63812507980358
 10
12.33202228087556
 20
10.65779613230358
  0
LWPOLYLINE
  5
2301
330
1E
100
AcDbEntity
  8
HIDDEN
100
AcDbPolyline
 90
        4
 70
     0
 43
0.0
 10
12.75702228087556
 20
10.48881536539823
 10
12.33202228087556
 20
10.49912507980358
 10
12.33202228087556
 20
10.69512507980358
 10
12.77327832889137
 20
10.7057872701999
  0
LWPOLYLINE
  5
2302
330
1E
100
AcDbEntity
  8
HIDDEN
100
AcDbPolyline
 90
        4
 70
     0
 43
0.0
 10
12.75702228087556
 20
10.44484138304874
 10
12.53902228087556
 20
10.45012507980358
 10
12.53902228087556
 20
10.64612507980358
 10
12.75702228087556
 20
10.65138827891218
  0
LWPOLYLINE
  5
2303
330
1E
100
AcDbEntity
  8
HIDDEN
100
AcDbPolyline
 90
        7
 70
     0
 43
0.0
 10
12.53902228087556
 20
10.60879613230358
 10
12.55869333337548
 20
10.58912507980358
 10
12.78902228087556
 20
10.58912507980358
 10
12.81269364191213
 20
10.54812507980358
 10
12.78902228087555
 20
10.50712507980358
 10
12.55869333337548
 20
10.50712507980358
 10
12.53902228087556
 20
10.48745402730358
  0
LINE
  5
2304
330
1E
100
AcDbEntity
  8
HIDDEN
100
AcDbLine
 10
12.35169333337547
 20
10.55612507980358
 30
0.0
 11
12.35169333337547
 21
10.63812507980358
 31
0.0
  0
LINE
  5
2305
330
1E
100
AcDbEntity
  8
HIDDEN
100
AcDbLine
 10
12.55869333337548
 20
10.50712507980358
 30
0.0
 11
12.55869333337548
 21
10.58912507980358
 31
0.0
  0
LINE
  5
2306
330
1E
100
AcDbEntity
  8
HIDDEN
100
AcDbLine
 10
12.78902228087555
 20
10.50712507980358
 30
0.0
 11
12.78902228087556
 21
10.58912507980358
 31
0.0
  0
LINE
  5
2307
330
1E
100
AcDbEntity
  8
HIDDEN
100
AcDbLine
 10
12.78202228087556
 20
10.55612507980358
 30
0.0
 11
12.78202228087556
 21
10.63812507980358
 31
0.0
  0
LINE
  5
2308
330
1E
100
AcDbEntity
  8
HIDDEN
100
AcDbLine
 10
12.73902228087556
 20
10.8722350560354
 30
0.0
 11
12.77402228087555
 21
10.90012507980358
 31
0.0
  0
LWPOLYLINE
  5
2309
330
1E
100
AcDbEntity
  8
OBJECT
100
AcDbPolyline
 90
       10
 70
     1
 43
0.0
 10
15.15750177979863
 20
1.52382152682397
 10
17.80791342806053
 20
1.523821526823969
 42
0.2586175843558913
 10
17.86049241002223
 20
1.55296653244151
 10
18.07748275721402
 20
1.900223677521143
 42
0.1272160680010516
 10
18.0868188064071
 20
1.929833842616542
 10
18.11270760392958
 20
2.423821526823971
 10
14.85270760392958
 20
2.423821526823971
 10
14.87859640145206
 20
1.929833842616542
 42
0.1272160680010516
 10
14.88793245064514
 20
1.900223677521143
 10
15.10492279783693
 20
1.552966532441512
 42
0.2586175843558903
  0
LWPOLYLINE
  5
230A
330
1E
100
AcDbEntity
  8
HIDDEN
100
AcDbPolyline
 90
        8
 70
     0
 43
0.0
 10
18.00270760392958
 20
2.69382152682397
 10
17.9748175801614
 20
2.65882152682397
 10
17.92070760392958
 20
1.813821526823971
 10
17.81672564463282
 20
1.61382152682397
 10
15.14868956322635
 20
1.613821526823967
 10
15.04470760392958
 20
1.813821526823971
 10
14.99059762769776
 20
2.65882152682397
 10
14.96270760392958
 20
2.69382152682397
  0
LWPOLYLINE
  5
230B
330
1E
100
AcDbEntity
  8
HIDDEN
100
AcDbPolyline
 90
        4
 70
     0
 43
0.0
 10
15.18270760392958
 20
1.523821526823972
 10
15.18270760392958
 20
1.548821526823971
 10
17.78270760392958
 20
1.548821526823971
 10
17.78270760392958
 20
1.523821526823972
  0
LWPOLYLINE
  5
230C
330
1E
100
AcDbEntity
  8
OBJECT
100
AcDbPolyline
 90
        8
 70
     1
 43
0.0
 10
18.11270760392958
 20
2.458821526823973
 10
18.09730037232988
 20
2.75387176678806
 42
0.3249717290217399
 10
18.07436594227396
 20
2.78219888064947
 10
17.88170760392958
 20
2.833821526823969
 10
15.08370760392959
 20
2.833821526823971
 10
14.8910492655852
 20
2.78219888064947
 42
0.3249717290217399
 10
14.86811483552928
 20
2.75387176678806
 10
14.85270760392958
 20
2.458821526823973
  0
LINE
  5
230D
330
1E
100
AcDbEntity
  8
OBJECT
100
AcDbLine
 10
14.87174613712984
 20
2.766892849498855
 30
0.0
 11
18.09366907072932
 21
2.766892849498855
 31
0.0
  0
LWPOLYLINE
  5
230E
330
1E
100
AcDbEntity
  8
HIDDEN
100
AcDbPolyline
 90
        4
 70
     0
 43
0.0
 10
17.81970760392958
 20
2.833821526823973
 10
17.81970760392958
 20
2.771821526823973
 10
15.14570760392958
 20
2.771821526823972
 10
15.14570760392958
 20
2.833821526823973
  0
LWPOLYLINE
  5
230F
330
1E
100
AcDbEntity
  8
HIDDEN
100
AcDbPolyline
 90
       10
 70
     0
 43
0.0
 10
17.91270760392958
 20
2.283032056823817
 10
17.90417575199449
 20
2.771821526823973
 10
17.88270760392958
 20
2.771821526823973
 10
17.88270760392958
 20
2.75482152682397
 42
-0.4142135623730951
 10
17.80470760392958
 20
2.676821526823971
 10
15.16070760392958
 20
2.676821526823971
 42
-0.414213562373095
 10
15.08270760392958
 20
2.75482152682397
 10
15.08270760392958
 20
2.771821526823973
 10
15.06123945586468
 20
2.771821526823973
 10
15.05270760392958
 20
2.283032056823817
  0
LWPOLYLINE
  5
2310
330
1E
100
AcDbEntity
  8
HIDDEN
100
AcDbPolyline
 90
        6
 70
     0
 43
0.0
 10
14.89670760392958
 20
2.423821526823971
 10
14.90770760392958
 20
2.65882152682397
 10
14.94270760392959
 20
2.69382152682397
 10
18.02270760392959
 20
2.69382152682397
 10
18.05770760392958
 20
2.65882152682397
 10
18.06870760392958
 20
2.423821526823971
  0
LINE
  5
2311
330
1E
100
AcDbEntity
  8
HIDDEN
100
AcDbLine
 10
18.05770760392958
 20
2.65882152682397
 30
0.0
 11
14.90770760392958
 21
2.65882152682397
 31
0.0
  0
LINE
  5
2312
330
1E
100
AcDbEntity
  8
OBJECT
100
AcDbLine
 10
14.88157789068561
 20
1.913821526823969
 30
0.0
 11
18.08383731717356
 21
1.913821526823969
 31
0.0
  0
LWPOLYLINE
  5
2313
330
1E
100
AcDbEntity
  8
HIDDEN
100
AcDbPolyline
 90
        4
 70
     0
 43
0.0
 10
17.85770760392958
 20
1.723821526823972
 10
17.85770760392958
 20
1.73882152682397
 10
15.10770760392958
 20
1.73882152682397
 10
15.10770760392958
 20
1.723821526823972
  0
LINE
  5
2314
330
1E
100
AcDbEntity
  8
OBJECT
100
AcDbLine
 10
15.03252790941677
 20
1.723821526823972
 30
0.0
 11
17.9328872984424
 21
1.723821526823972
 31
0.0
  0
LINE
  5
2315
330
1E
100
AcDbEntity
  8
HIDDEN
100
AcDbLine
 10
15.04470760392958
 20
1.813821526823971
 30
0.0
 11
17.92070760392958
 21
1.813821526823971
 31
0.0
  0
LINE
  5
2316
330
1E
100
AcDbEntity
  8
HIDDEN
100
AcDbLine
 10
15.64870760392958
 20
2.04382152682397
 30
0.0
 11
15.64870760392958
 21
1.81382152682397
 31
0.0
  0
LINE
  5
2317
330
1E
100
AcDbEntity
  8
HIDDEN
100
AcDbLine
 10
15.56670760392958
 20
2.04382152682397
 30
0.0
 11
15.56670760392958
 21
1.81382152682397
 31
0.0
  0
LINE
  5
2318
330
1E
100
AcDbEntity
  8
HIDDEN
100
AcDbLine
 10
15.76970760392959
 20
2.043821526823972
 30
0.0
 11
15.76970760392959
 21
1.613821526823972
 31
0.0
  0
LINE
  5
231A
330
1E
100
AcDbEntity
  8
HIDDEN
100
AcDbLine
 10
15.85170760392958
 20
2.043821526823972
 30
0.0
 11
15.85170760392958
 21
1.613821526823972
 31
0.0
  0
LWPOLYLINE
  5
231C
330
1E
100
AcDbEntity
  8
HIDDEN
100
AcDbPolyline
 90
        4
 70
     0
 43
0.0
 10
15.12620760392958
 20
1.73882152682397
 10
15.12620760392958
 20
1.87382152682397
 10
15.40120760392958
 20
1.873821526823972
 10
15.40120760392958
 20
1.73882152682397
  0
LWPOLYLINE
  5
231D
330
1E
100
AcDbEntity
  8
HIDDEN
100
AcDbPolyline
 90
        4
 70
     0
 43
0.0
 10
15.72070760392958
 20
1.81382152682397
 10
15.70770760392958
 20
2.04382152682397
 10
15.50770760392959
 20
2.04382152682397
 10
15.49470760392958
 20
1.81382152682397
  0
LWPOLYLINE
  5
231E
330
1E
100
AcDbEntity
  8
HIDDEN
100
AcDbPolyline
 90
        8
 70
     0
 43
0.0
 10
15.18370760392959
 20
1.613821526823972
 10
15.18370760392959
 20
1.673821526823971
 10
15.24270760392958
 20
1.733821526823971
 10
15.26235234142959
 20
2.248821526823968
 10
15.45906286642959
 20
2.24882152682397
 10
15.47870760392958
 20
1.733821526823971
 10
15.53770760392959
 20
1.673821526823971
 10
15.53770760392959
 20
1.613821526823972
  0
LWPOLYLINE
  5
231F
330
1E
100
AcDbEntity
  8
HIDDEN
100
AcDbPolyline
 90
        8
 70
     0
 43
0.0
 10
15.08670760392958
 20
1.813821526823971
 10
15.08670760392958
 20
1.87382152682397
 10
15.14570760392958
 20
1.933821526823971
 10
15.16535234142958
 20
2.37382152682397
 10
15.36206286642958
 20
2.373821526823972
 10
15.38170760392958
 20
1.933821526823971
 10
15.44070760392958
 20
1.87382152682397
 10
15.44070760392958
 20
1.813821526823971
  0
LINE
  5
2320
330
1E
100
AcDbEntity
  8
HIDDEN
100
AcDbLine
 10
15.30070760392958
 20
2.24882152682397
 30
0.0
 11
15.30070760392958
 21
1.69382152682397
 31
0.0
  0
LINE
  5
2321
330
1E
100
AcDbEntity
  8
HIDDEN
100
AcDbLine
 10
15.42070760392958
 20
2.24882152682397
 30
0.0
 11
15.42070760392958
 21
1.69382152682397
 31
0.0
  0
ARC
  5
2322
330
1E
100
AcDbEntity
  8
OBJECT
100
AcDbCircle
 10
15.03252790941677
 20
1.785821526823971
 30
0.0
 40
0.062
100
AcDbArc
 50
211.9999999999999
 51
270.0
  0
LINE
  5
2323
330
1E
100
AcDbEntity
  8
OBJECT
100
AcDbLine
 10
15.51770760392958
 20
1.500821526823969
 30
0.0
 11
15.51770760392958
 21
1.523821526823972
 31
0.0
  0
LINE
  5
2324
330
1E
100
AcDbEntity
  8
OBJECT
100
AcDbLine
 10
15.20770760392959
 20
1.500821526823965
 30
0.0
 11
15.20770760392959
 21
1.523821526823972
 31
0.0
  0
LINE
  5
2325
330
1E
100
AcDbEntity
  8
OBJECT
100
AcDbLine
 10
15.45570760392958
 20
1.46382152682397
 30
0.0
 11
15.26970760392958
 21
1.46382152682397
 31
0.0
  0
LINE
  5
2326
330
1E
100
AcDbEntity
  8
OBJECT
100
AcDbLine
 10
15.51770760392958
 20
1.500821526823969
 30
0.0
 11
15.20770760392959
 21
1.500821526823969
 31
0.0
  0
ARC
  5
2327
330
1E
100
AcDbEntity
  8
OBJECT
100
AcDbCircle
 10
15.26970760392958
 20
1.534267472769915
 30
0.0
 40
0.0704459459459456
100
AcDbArc
 50
208.3446754002638
 51
270.0
  0
ARC
  5
2328
330
1E
100
AcDbEntity
  8
OBJECT
100
AcDbCircle
 10
15.45570760392958
 20
1.534267472769915
 30
0.0
 40
0.0704459459459456
100
AcDbArc
 50
270.0
 51
331.6553245997355
  0
LWPOLYLINE
  5
2329
330
1E
100
AcDbEntity
  8
HIDDEN
100
AcDbPolyline
 90
        4
 70
     0
 43
0.0
 10
15.22320760392958
 20
1.548821526823971
 10
15.22320760392958
 20
1.693821526823972
 10
15.49820760392958
 20
1.69382152682397
 10
15.49820760392958
 20
1.548821526823971
  0
LINE
  5
232A
330
1E
100
AcDbEntity
  8
HIDDEN
100
AcDbLine
 10
15.24270760392958
 20
1.733821526823971
 30
0.0
 11
15.47870760392958
 21
1.733821526823971
 31
0.0
  0
LWPOLYLINE
  5
232B
330
1E
100
AcDbEntity
  8
OBJECT
100
AcDbPolyline
 90
        4
 70
     0
 43
0.0
 10
15.25170760392958
 20
1.723821526823972
 42
0.3178372451957826
 10
15.27999187517704
 20
1.703821526823972
 10
15.28542333268212
 20
1.703821526823972
 42
0.3178372451957825
 10
15.31370760392958
 20
1.723821526823972
  0
LWPOLYLINE
  5
232C
330
1E
100
AcDbEntity
  8
OBJECT
100
AcDbPolyline
 90
        4
 70
     0
 43
0.0
 10
15.53170760392958
 20
1.723821526823972
 42
0.3178372451957826
 10
15.55999187517704
 20
1.703821526823972
 10
15.56542333268213
 20
1.703821526823972
 42
0.3178372451957825
 10
15.59370760392958
 20
1.723821526823972
  0
LWPOLYLINE
  5
232D
330
1E
100
AcDbEntity
  8
OBJECT
100
AcDbPolyline
 90
        4
 70
     0
 43
0.0
 10
15.39170760392958
 20
1.723821526823972
 42
0.3178372451957826
 10
15.41999187517704
 20
1.703821526823972
 10
15.42542333268213
 20
1.703821526823972
 42
0.3178372451957825
 10
15.45370760392958
 20
1.723821526823972
  0
LWPOLYLINE
  5
232E
330
1E
100
AcDbEntity
  8
OBJECT
100
AcDbPolyline
 90
        4
 70
     0
 43
0.0
 10
15.67170760392959
 20
1.723821526823972
 42
0.3178372451957826
 10
15.69999187517704
 20
1.703821526823972
 10
15.70542333268212
 20
1.703821526823972
 42
0.3178372451957825
 10
15.73370760392958
 20
1.723821526823972
  0
LWPOLYLINE
  5
232F
330
1E
100
AcDbEntity
  8
OBJECT
100
AcDbPolyline
 90
        4
 70
     0
 43
0.0
 10
15.81170760392959
 20
1.723821526823972
 42
0.3178372451957826
 10
15.83999187517704
 20
1.703821526823972
 10
15.84542333268212
 20
1.703821526823972
 42
0.3178372451957825
 10
15.87370760392959
 20
1.723821526823972
  0
LWPOLYLINE
  5
2330
330
1E
100
AcDbEntity
  8
OBJECT
100
AcDbPolyline
 90
        4
 70
     0
 43
0.0
 10
15.95170760392959
 20
1.723821526823972
 42
0.3178372451957826
 10
15.97999187517705
 20
1.703821526823972
 10
15.98542333268212
 20
1.703821526823972
 42
0.3178372451957825
 10
16.01370760392959
 20
1.723821526823972
  0
LWPOLYLINE
  5
2331
330
1E
100
AcDbEntity
  8
HIDDEN
100
AcDbPolyline
 90
       10
 70
     0
 43
0.0
 10
14.89770760392959
 20
2.458821526823975
 10
14.91115661479531
 20
2.7166939439675
 42
-0.3989595459737129
 10
14.9421141303727
 20
2.74607152932397
 10
14.95702283188731
 20
2.746071529323971
 42
-0.3989595459737335
 10
14.98798034746471
 20
2.716693943967502
 10
15.01070760392958
 20
2.283032056823817
 10
15.24365851876922
 20
2.283032056823817
 42
0.3394542588634413
 10
15.30066085168934
 20
2.326771485251173
 10
15.32432360916476
 20
2.415082098396613
 42
-0.3394542588634419
 10
15.38132594208487
 20
2.458821526823975
  0
LWPOLYLINE
  5
2332
330
1E
100
AcDbEntity
  8
HIDDEN
100
AcDbPolyline
 90
        4
 70
     0
 43
0.0
 10
15.59244440482098
 20
2.676821526823971
 10
15.59770760392958
 20
2.458821526823971
 10
15.79370760392959
 20
2.458821526823971
 10
15.79899130068442
 20
2.676821526823973
  0
LWPOLYLINE
  5
2333
330
1E
100
AcDbEntity
  8
HIDDEN
100
AcDbPolyline
 90
        7
 70
     0
 43
0.0
 10
15.63503655142958
 20
2.458821526823971
 10
15.65470760392958
 20
2.478492579323887
 10
15.65470760392958
 20
2.708821526823973
 10
15.69570760392958
 20
2.732492887860546
 10
15.73670760392958
 20
2.708821526823973
 10
15.73670760392958
 20
2.478492579323887
 10
15.75637865642959
 20
2.458821526823971
  0
LWPOLYLINE
  5
2334
330
1E
100
AcDbEntity
  8
HIDDEN
100
AcDbPolyline
 90
        4
 70
     0
 43
0.0
 10
15.36840920827186
 20
2.735322964047487
 10
15.36170760392981
 20
2.458821526823971
 10
15.16570760392981
 20
2.458821526823971
 10
15.1590319978843
 20
2.735322964047487
  0
LWPOLYLINE
  5
2335
330
1E
100
AcDbEntity
  8
HIDDEN
100
AcDbPolyline
 90
        7
 70
     0
 43
0.0
 10
15.20303655142981
 20
2.458821526823971
 10
15.22270760392981
 20
2.478492579323887
 10
15.22270760392981
 20
2.708821526823973
 10
15.26370760392981
 20
2.732492887860546
 10
15.30470760392981
 20
2.708821526823973
 10
15.30470760392981
 20
2.478492579323887
 10
15.32437865642981
 20
2.458821526823971
  0
LWPOLYLINE
  5
2336
330
1E
100
AcDbEntity
  8
HIDDEN
100
AcDbPolyline
 90
        7
 70
     0
 43
0.0
 10
15.30003655142958
 20
2.251453106823959
 10
15.31970760392958
 20
2.271124159323875
 10
15.31970760392958
 20
2.701453106823958
 10
15.36070760392959
 20
2.725124467860531
 10
15.40170760392959
 20
2.701453106823958
 10
15.40170760392958
 20
2.271124159323875
 10
15.42137865642958
 20
2.251453106823959
  0
LWPOLYLINE
  5
2337
330
1E
100
AcDbEntity
  8
HIDDEN
100
AcDbPolyline
 90
        4
 70
     0
 43
0.0
 10
15.25243788517284
 20
2.676821526823969
 10
15.26270760392958
 20
2.251453106823959
 10
15.45870760392959
 20
2.251453106823959
 10
15.46901731833493
 20
2.676821526823973
  0
LINE
  5
2338
330
1E
100
AcDbEntity
  8
HIDDEN
100
AcDbLine
 10
15.20370760392958
 20
2.373821526823972
 30
0.0
 11
15.20370760392958
 21
1.87382152682397
 31
0.0
  0
LINE
  5
2339
330
1E
100
AcDbEntity
  8
HIDDEN
100
AcDbLine
 10
15.32370760392958
 20
2.373821526823972
 30
0.0
 11
15.32370760392958
 21
1.87382152682397
 31
0.0
  0
LINE
  5
233A
330
1E
100
AcDbEntity
  8
HIDDEN
100
AcDbLine
 10
15.14570760392958
 20
1.933821526823971
 30
0.0
 11
15.38170760392958
 21
1.933821526823971
 31
0.0
  0
LINE
  5
233B
330
1E
100
AcDbEntity
  8
HIDDEN
100
AcDbLine
 10
15.30470760392981
 20
2.478492579323887
 30
0.0
 11
15.22270760392981
 21
2.478492579323887
 31
0.0
  0
LINE
  5
233C
330
1E
100
AcDbEntity
  8
HIDDEN
100
AcDbLine
 10
15.40170760392958
 20
2.271124159323875
 30
0.0
 11
15.31970760392958
 21
2.271124159323875
 31
0.0
  0
LINE
  5
233E
330
1E
100
AcDbEntity
  8
HIDDEN
100
AcDbLine
 10
15.73670760392958
 20
2.478492579323887
 30
0.0
 11
15.65470760392958
 21
2.478492579323887
 31
0.0
  0
LINE
  5
233F
330
1E
100
AcDbEntity
  8
HIDDEN
100
AcDbLine
 10
15.30470760392981
 20
2.708821526823969
 30
0.0
 11
15.22270760392981
 21
2.708821526823973
 31
0.0
  0
LINE
  5
2340
330
1E
100
AcDbEntity
  8
HIDDEN
100
AcDbLine
 10
15.40170760392958
 20
2.701453106823956
 30
0.0
 11
15.31970760392958
 21
2.70145310682396
 31
0.0
  0
LINE
  5
2341
330
1E
100
AcDbEntity
  8
HIDDEN
100
AcDbLine
 10
15.73670760392958
 20
2.708821526823969
 30
0.0
 11
15.65470760392958
 21
2.708821526823973
 31
0.0
  0
LINE
  5
2342
330
1E
100
AcDbEntity
  8
HIDDEN
100
AcDbLine
 10
17.39870760392958
 20
2.04382152682397
 30
0.0
 11
17.39870760392958
 21
1.81382152682397
 31
0.0
  0
LWPOLYLINE
  5
2343
330
1E
100
AcDbEntity
  8
HIDDEN
100
AcDbPolyline
 90
        4
 70
     0
 43
0.0
 10
17.56420760392958
 20
1.73882152682397
 10
17.56420760392958
 20
1.87382152682397
 10
17.83920760392958
 20
1.873821526823972
 10
17.83920760392958
 20
1.73882152682397
  0
LWPOLYLINE
  5
2344
330
1E
100
AcDbEntity
  8
HIDDEN
100
AcDbPolyline
 90
        8
 70
     0
 43
0.0
 10
17.78170760392959
 20
1.613821526823972
 10
17.78170760392959
 20
1.673821526823971
 10
17.72270760392958
 20
1.733821526823971
 10
17.70306286642959
 20
2.248821526823968
 10
17.50635234142959
 20
2.24882152682397
 10
17.48670760392958
 20
1.733821526823971
 10
17.42770760392959
 20
1.673821526823971
 10
17.42770760392959
 20
1.613821526823972
  0
LWPOLYLINE
  5
2345
330
1E
100
AcDbEntity
  8
HIDDEN
100
AcDbPolyline
 90
        8
 70
     0
 43
0.0
 10
17.52470760392958
 20
1.813821526823971
 10
17.52470760392958
 20
1.87382152682397
 10
17.58370760392959
 20
1.933821526823971
 10
17.60335234142958
 20
2.37382152682397
 10
17.80006286642958
 20
2.37382152682397
 10
17.81970760392958
 20
1.933821526823971
 10
17.87870760392958
 20
1.87382152682397
 10
17.87870760392958
 20
1.813821526823971
  0
LINE
  5
2346
330
1E
100
AcDbEntity
  8
HIDDEN
100
AcDbLine
 10
17.66470760392958
 20
2.24882152682397
 30
0.0
 11
17.66470760392958
 21
1.69382152682397
 31
0.0
  0
LINE
  5
2347
330
1E
100
AcDbEntity
  8
HIDDEN
100
AcDbLine
 10
17.54470760392958
 20
2.24882152682397
 30
0.0
 11
17.54470760392958
 21
1.69382152682397
 31
0.0
  0
LINE
  5
2348
330
1E
100
AcDbEntity
  8
HIDDEN
100
AcDbLine
 10
17.31670760392958
 20
2.04382152682397
 30
0.0
 11
17.31670760392958
 21
1.81382152682397
 31
0.0
  0
LINE
  5
234A
330
1E
100
AcDbEntity
  8
HIDDEN
100
AcDbLine
 10
17.19570760392959
 20
2.043821526823972
 30
0.0
 11
17.19570760392959
 21
1.613821526823972
 31
0.0
  0
LINE
  5
234B
330
1E
100
AcDbEntity
  8
HIDDEN
100
AcDbLine
 10
17.11370760392958
 20
2.043821526823972
 30
0.0
 11
17.11370760392958
 21
1.613821526823972
 31
0.0
  0
LWPOLYLINE
  5
234D
330
1E
100
AcDbEntity
  8
HIDDEN
100
AcDbPolyline
 90
        4
 70
     0
 43
0.0
 10
17.24470760392958
 20
1.81382152682397
 10
17.25770760392959
 20
2.04382152682397
 10
17.45770760392958
 20
2.04382152682397
 10
17.47070760392958
 20
1.81382152682397
  0
LWPOLYLINE
  5
234E
330
1E
100
AcDbEntity
  8
OBJECT
100
AcDbPolyline
 90
        4
 70
     0
 43
0.0
 10
16.95170760392959
 20
1.723821526823972
 42
0.3178372451957826
 10
16.97999187517704
 20
1.703821526823972
 10
16.98542333268212
 20
1.703821526823972
 42
0.3178372451957825
 10
17.01370760392959
 20
1.723821526823972
  0
LWPOLYLINE
  5
234F
330
1E
100
AcDbEntity
  8
OBJECT
100
AcDbPolyline
 90
        4
 70
     0
 43
0.0
 10
17.09170760392958
 20
1.723821526823972
 42
0.3178372451957826
 10
17.11999187517704
 20
1.703821526823972
 10
17.12542333268212
 20
1.703821526823972
 42
0.3178372451957825
 10
17.15370760392959
 20
1.723821526823972
  0
LWPOLYLINE
  5
2350
330
1E
100
AcDbEntity
  8
OBJECT
100
AcDbPolyline
 90
        4
 70
     0
 43
0.0
 10
17.23170760392958
 20
1.723821526823972
 42
0.3178372451957826
 10
17.25999187517705
 20
1.703821526823972
 10
17.26542333268212
 20
1.703821526823972
 42
0.3178372451957825
 10
17.29370760392959
 20
1.723821526823972
  0
LINE
  5
2351
330
1E
100
AcDbEntity
  8
OBJECT
100
AcDbLine
 10
17.75770760392958
 20
1.500821526823969
 30
0.0
 11
17.75770760392958
 21
1.523821526823972
 31
0.0
  0
LINE
  5
2352
330
1E
100
AcDbEntity
  8
OBJECT
100
AcDbLine
 10
17.44770760392958
 20
1.500821526823965
 30
0.0
 11
17.44770760392958
 21
1.523821526823972
 31
0.0
  0
LINE
  5
2353
330
1E
100
AcDbEntity
  8
OBJECT
100
AcDbLine
 10
17.75770760392958
 20
1.500821526823969
 30
0.0
 11
17.44770760392958
 21
1.500821526823969
 31
0.0
  0
LINE
  5
2354
330
1E
100
AcDbEntity
  8
OBJECT
100
AcDbLine
 10
17.69570760392959
 20
1.46382152682397
 30
0.0
 11
17.50970760392958
 21
1.46382152682397
 31
0.0
  0
ARC
  5
2355
330
1E
100
AcDbEntity
  8
OBJECT
100
AcDbCircle
 10
17.50970760392958
 20
1.534267472769915
 30
0.0
 40
0.0704459459459456
100
AcDbArc
 50
208.3446754002638
 51
270.0
  0
ARC
  5
2356
330
1E
100
AcDbEntity
  8
OBJECT
100
AcDbCircle
 10
17.69570760392959
 20
1.534267472769915
 30
0.0
 40
0.0704459459459456
100
AcDbArc
 50
270.0
 51
331.6553245997355
  0
LWPOLYLINE
  5
2357
330
1E
100
AcDbEntity
  8
HIDDEN
100
AcDbPolyline
 90
        4
 70
     0
 43
0.0
 10
17.74220760392958
 20
1.548821526823971
 10
17.74220760392958
 20
1.69382152682397
 10
17.46720760392958
 20
1.69382152682397
 10
17.46720760392958
 20
1.548821526823971
  0
LINE
  5
2358
330
1E
100
AcDbEntity
  8
HIDDEN
100
AcDbLine
 10
17.72270760392958
 20
1.733821526823971
 30
0.0
 11
17.48670760392958
 21
1.733821526823971
 31
0.0
  0
LWPOLYLINE
  5
2359
330
1E
100
AcDbEntity
  8
OBJECT
100
AcDbPolyline
 90
        4
 70
     0
 43
0.0
 10
17.51170760392958
 20
1.723821526823972
 42
0.3178372451957826
 10
17.53999187517705
 20
1.703821526823972
 10
17.54542333268212
 20
1.703821526823972
 42
0.3178372451957825
 10
17.57370760392959
 20
1.723821526823972
  0
LWPOLYLINE
  5
235A
330
1E
100
AcDbEntity
  8
OBJECT
100
AcDbPolyline
 90
        4
 70
     0
 43
0.0
 10
17.37170760392958
 20
1.723821526823972
 42
0.3178372451957826
 10
17.39999187517705
 20
1.703821526823972
 10
17.40542333268212
 20
1.703821526823972
 42
0.3178372451957825
 10
17.43370760392959
 20
1.723821526823972
  0
LWPOLYLINE
  5
235B
330
1E
100
AcDbEntity
  8
OBJECT
100
AcDbPolyline
 90
        4
 70
     0
 43
0.0
 10
17.79170760392958
 20
1.723821526823972
 42
0.3178372451957826
 10
17.81999187517705
 20
1.703821526823972
 10
17.82542333268212
 20
1.703821526823972
 42
0.3178372451957825
 10
17.85370760392958
 20
1.723821526823972
  0
LWPOLYLINE
  5
235C
330
1E
100
AcDbEntity
  8
OBJECT
100
AcDbPolyline
 90
        4
 70
     0
 43
0.0
 10
17.65170760392958
 20
1.723821526823972
 42
0.3178372451957826
 10
17.67999187517705
 20
1.703821526823972
 10
17.68542333268212
 20
1.703821526823972
 42
0.3178372451957825
 10
17.71370760392959
 20
1.723821526823972
  0
ARC
  5
235D
330
1E
100
AcDbEntity
  8
OBJECT
100
AcDbCircle
 10
17.9328872984424
 20
1.785821526823971
 30
0.0
 40
0.062
100
AcDbArc
 50
270.0
 51
327.9999999999999
  0
LWPOLYLINE
  5
235E
330
1E
100
AcDbEntity
  8
HIDDEN
100
AcDbPolyline
 90
        4
 70
     0
 43
0.0
 10
17.37297080303818
 20
2.676821526823971
 10
17.36770760392959
 20
2.458821526823971
 10
17.17170760392958
 20
2.458821526823971
 10
17.16642390717474
 20
2.676821526823973
  0
LWPOLYLINE
  5
235F
330
1E
100
AcDbEntity
  8
HIDDEN
100
AcDbPolyline
 90
        7
 70
     0
 43
0.0
 10
17.33037865642958
 20
2.458821526823971
 10
17.31070760392958
 20
2.478492579323887
 10
17.31070760392958
 20
2.708821526823973
 10
17.26970760392958
 20
2.732492887860546
 10
17.22870760392958
 20
2.708821526823973
 10
17.22870760392958
 20
2.478492579323887
 10
17.20903655142958
 20
2.458821526823971
  0
LINE
  5
2360
330
1E
100
AcDbEntity
  8
HIDDEN
100
AcDbLine
 10
17.22870760392958
 20
2.478492579323887
 30
0.0
 11
17.31070760392958
 21
2.478492579323887
 31
0.0
  0
LINE
  5
2361
330
1E
100
AcDbEntity
  8
HIDDEN
100
AcDbLine
 10
17.22870760392958
 20
2.708821526823969
 30
0.0
 11
17.31070760392958
 21
2.708821526823973
 31
0.0
  0
LWPOLYLINE
  5
2363
330
1E
100
AcDbEntity
  8
HIDDEN
100
AcDbPolyline
 90
        7
 70
     0
 43
0.0
 10
17.76237865642936
 20
2.458821526823971
 10
17.74270760392936
 20
2.478492579323887
 10
17.74270760392936
 20
2.708821526823973
 10
17.70170760392935
 20
2.732492887860546
 10
17.66070760392935
 20
2.708821526823973
 10
17.66070760392935
 20
2.478492579323887
 10
17.64103655142935
 20
2.458821526823971
  0
LWPOLYLINE
  5
2364
330
1E
100
AcDbEntity
  8
HIDDEN
100
AcDbPolyline
 90
        4
 70
     0
 43
0.0
 10
17.59700599958731
 20
2.735322964047487
 10
17.60370760392935
 20
2.458821526823971
 10
17.79970760392935
 20
2.458821526823971
 10
17.80638320997486
 20
2.735322964047487
  0
LWPOLYLINE
  5
2365
330
1E
100
AcDbEntity
  8
HIDDEN
100
AcDbPolyline
 90
        7
 70
     0
 43
0.0
 10
17.66537865642958
 20
2.251453106823959
 10
17.64570760392958
 20
2.271124159323875
 10
17.64570760392958
 20
2.701453106823958
 10
17.60470760392958
 20
2.725124467860531
 10
17.56370760392957
 20
2.701453106823958
 10
17.56370760392958
 20
2.271124159323875
 10
17.54403655142958
 20
2.251453106823959
  0
LWPOLYLINE
  5
2366
330
1E
100
AcDbEntity
  8
HIDDEN
100
AcDbPolyline
 90
        4
 70
     0
 43
0.0
 10
17.71297732268633
 20
2.676821526823969
 10
17.70270760392959
 20
2.251453106823959
 10
17.50670760392958
 20
2.251453106823959
 10
17.49639788952424
 20
2.676821526823973
  0
LWPOLYLINE
  5
2367
330
1E
100
AcDbEntity
  8
HIDDEN
100
AcDbPolyline
 90
       10
 70
     0
 43
0.0
 10
18.06770760392958
 20
2.458821526823975
 10
18.05425859306386
 20
2.7166939439675
 42
0.3989595459737129
 10
18.02330107748647
 20
2.74607152932397
 10
18.00839237597185
 20
2.746071529323971
 42
0.3989595459737334
 10
17.97743486039446
 20
2.716693943967502
 10
17.95470760392958
 20
2.283032056823817
 10
17.72175668908995
 20
2.283032056823817
 42
-0.3394542588634413
 10
17.66475435616983
 20
2.326771485251173
 10
17.6410915986944
 20
2.415082098396613
 42
0.3394542588634419
 10
17.58408926577429
 20
2.458821526823975
  0
LINE
  5
2368
330
1E
100
AcDbEntity
  8
HIDDEN
100
AcDbLine
 10
17.64170760392959
 20
2.37382152682397
 30
0.0
 11
17.64170760392959
 21
1.87382152682397
 31
0.0
  0
LINE
  5
2369
330
1E
100
AcDbEntity
  8
HIDDEN
100
AcDbLine
 10
17.76170760392958
 20
2.37382152682397
 30
0.0
 11
17.76170760392958
 21
1.87382152682397
 31
0.0
  0
LINE
  5
236A
330
1E
100
AcDbEntity
  8
HIDDEN
100
AcDbLine
 10
17.58370760392958
 20
1.933821526823971
 30
0.0
 11
17.81970760392958
 21
1.933821526823971
 31
0.0
  0
LINE
  5
236B
330
1E
100
AcDbEntity
  8
HIDDEN
100
AcDbLine
 10
17.56370760392958
 20
2.271124159323875
 30
0.0
 11
17.64570760392958
 21
2.271124159323875
 31
0.0
  0
LINE
  5
236C
330
1E
100
AcDbEntity
  8
HIDDEN
100
AcDbLine
 10
17.66070760392935
 20
2.478492579323887
 30
0.0
 11
17.74270760392936
 21
2.478492579323887
 31
0.0
  0
LINE
  5
236D
330
1E
100
AcDbEntity
  8
HIDDEN
100
AcDbLine
 10
17.56370760392958
 20
2.701453106823956
 30
0.0
 11
17.64570760392958
 21
2.70145310682396
 31
0.0
  0
LINE
  5
236E
330
1E
100
AcDbEntity
  8
HIDDEN
100
AcDbLine
 10
17.66070760392935
 20
2.708821526823969
 30
0.0
 11
17.74270760392936
 21
2.708821526823973
 31
0.0
  0
LWPOLYLINE
  5
236F
102
{ACAD_REACTORS
330
250E
102
}
330
1E
100
AcDbEntity
  8
OBJECT
100
AcDbPolyline
 90
       32
 70
     1
 43
0.0
 10
21.59561276058476
 20
5.226125079803583
 10
21.14949459037092
 20
5.233912101430334
 10
21.11690168982153
 20
5.486125079803585
 10
21.12382329058461
 20
5.486125079803585
 42
0.4142135623730951
 10
21.20182329058461
 20
5.564125079803584
 10
21.20182329058461
 20
10.65812507980358
 42
0.4142135623730951
 10
21.12382329058461
 20
10.73612507980358
 10
21.1068232905846
 20
10.73612507980358
 10
21.1068232905846
 20
10.80159322786849
 10
21.59561276058476
 20
10.81012507980358
 10
21.59561276058476
 20
10.85212507980358
 10
21.16195087344107
 20
10.87485233626845
 42
-0.3989595459737334
 10
21.1325732880846
 20
10.90580985184585
 10
21.13257328808461
 20
10.92071855336046
 42
-0.3989595459737131
 10
21.16195087344107
 20
10.95167606893786
 10
21.4198232905846
 20
10.96512507980358
 10
21.4198232905846
 20
11.01012507980358
 10
21.07420670383106
 20
10.99207732360634
 42
0.3990141013959219
 10
21.04482329058461
 20
10.96111950315225
 10
21.0448232905846
 20
10.65212507980358
 10
21.1068232905846
 20
10.65212507980358
 10
21.1068232905846
 20
5.560125079803587
 10
21.0448232905846
 20
5.560125079803587
 10
21.10843898648988
 20
5.067849036091587
 42
0.3622288529481167
 10
21.13756675044997
 20
5.040864237056641
 10
21.4198232905846
 20
5.026125079803584
 10
21.4198232905846
 20
5.071125079803584
 10
21.16195087344107
 20
5.08457409066931
 42
-0.3989595459737131
 10
21.13257328808461
 20
5.115531606246701
 10
21.1325732880846
 20
5.130440307761318
 42
-0.3989595459737335
 10
21.16195087344107
 20
5.161397823338711
 10
21.59532773504088
 20
5.184110142247792
  0
LWPOLYLINE
  5
2371
330
1E
100
AcDbEntity
  8
OBJECT
100
AcDbPolyline
 90
       14
 70
     0
 43
0.0
 10
21.45482329058461
 20
10.96612507980359
 10
21.45482329058461
 20
11.01012507980358
 10
22.29606811987167
 20
10.96603730646732
 42
-0.398959545973725
 10
22.35482329058461
 20
10.90412227531254
 10
22.35482329058461
 20
9.363303119147339
 42
-0.2679491924311231
 10
22.32382329058461
 20
9.309609544112703
 10
22.18582329058461
 20
9.22993520696454
 42
0.2679491924311233
 10
22.15482329058461
 20
9.176241631929904
 10
22.15482329058461
 20
5.500524290143209
 42
-0.0962890481975786
 10
22.14914363124081
 20
5.471304975856757
 10
21.99902282798582
 20
5.099742949296206
 42
-0.2914734195860665
 10
21.93078469191657
 20
5.051069159871801
 10
21.45482329058461
 20
5.026125079803588
 10
21.45482329058461
 20
5.070125079803587
  0
LINE
  5
2373
330
1E
100
AcDbEntity
  8
OBJECT
100
AcDbLine
 10
22.06482329058461
 20
10.82795048254125
 30
0.0
 11
22.06482329058461
 21
10.71207347009485
 31
0.0
  0
LINE
  5
2374
330
1E
100
AcDbEntity
  8
OBJECT
100
AcDbLine
 10
22.26482329058461
 20
9.379468926684651
 30
0.0
 11
22.06482329058461
 21
9.263998872846727
 31
0.0
  0
LWPOLYLINE
  5
2377
330
1E
100
AcDbEntity
  8
OBJECT
100
AcDbPolyline
 90
        4
 70
     0
 43
0.0
 10
21.45482329058461
 20
10.96612507980359
 10
21.21982329058461
 20
10.95512507980358
 10
21.18482329058462
 20
10.92012507980359
 10
21.18482329058462
 20
10.87365364367913
  0
LWPOLYLINE
  5
2379
330
1E
100
AcDbEntity
  8
OBJECT
100
AcDbPolyline
 90
        4
 70
     0
 43
0.0
 10
22.15482329058461
 20
5.585625079803589
 10
22.13982329058461
 20
5.585625079803589
 10
22.13982329058461
 20
6.935625079803589
 10
22.15482329058461
 20
6.935625079803589
  0
LWPOLYLINE
  5
237A
330
1E
100
AcDbEntity
  8
OBJECT
100
AcDbPolyline
 90
        8
 70
     0
 43
0.0
 10
22.06482329058461
 20
6.975125079803589
 10
22.0048232905846
 20
6.975125079803589
 10
21.94482329058461
 20
6.916125079803588
 10
21.50482329058461
 20
6.896480342303588
 10
21.50482329058461
 20
6.699769817303588
 10
21.94482329058461
 20
6.680125079803589
 10
22.0048232905846
 20
6.621125079803588
 10
22.06482329058461
 20
6.621125079803588
  0
LWPOLYLINE
  5
237B
330
1E
100
AcDbEntity
  8
HIDDEN
100
AcDbPolyline
 90
        4
 70
     0
 43
0.0
 10
22.13982329058461
 20
6.935625079803589
 10
22.0048232905846
 20
6.935625079803589
 10
22.0048232905846
 20
6.660625079803589
 10
22.13982329058461
 20
6.660625079803589
  0
LINE
  5
237C
330
1E
100
AcDbEntity
  8
OBJECT
100
AcDbLine
 10
22.06482329058461
 20
5.502856853852863
 30
0.0
 11
21.94324004832522
 21
5.201927769341043
 31
0.0
  0
LINE
  5
237D
330
1E
100
AcDbEntity
  8
HIDDEN
100
AcDbLine
 10
21.16982329058461
 20
5.34312507980359
 30
0.0
 11
21.16982329058461
 21
5.425125079803592
 31
0.0
  0
LINE
  5
237E
330
1E
100
AcDbEntity
  8
HIDDEN
100
AcDbLine
 10
21.40015223808469
 20
5.425125079803592
 30
0.0
 11
21.40015223808469
 21
5.34312507980359
 31
0.0
  0
LWPOLYLINE
  5
237F
330
1E
100
AcDbEntity
  8
HIDDEN
100
AcDbPolyline
 90
        7
 70
     0
 43
0.0
 10
21.4198232905846
 20
5.323454027303588
 10
21.40015223808469
 20
5.34312507980359
 10
21.16982329058461
 20
5.34312507980359
 10
21.14615192954804
 20
5.384125079803588
 10
21.16982329058461
 20
5.425125079803592
 10
21.40015223808469
 20
5.425125079803592
 10
21.4198232905846
 20
5.444796132303594
  0
LWPOLYLINE
  5
2380
330
1E
100
AcDbEntity
  8
OBJECT
100
AcDbPolyline
 90
        4
 70
     0
 43
0.0
 10
21.14360900504097
 20
5.27945640649416
 10
21.4198232905846
 20
5.286125079803589
 10
21.4198232905846
 20
5.482125079803591
 10
21.14410375604984
 20
5.488807733059864
  0
LINE
  5
2381
330
1E
100
AcDbEntity
  8
OBJECT
100
AcDbLine
 10
21.21982329058461
 20
5.164015103571779
 30
0.0
 11
21.94324004832522
 21
5.201927769341043
 31
0.0
  0
LINE
  5
2382
330
1E
100
AcDbEntity
  8
OBJECT
100
AcDbLine
 10
21.21993356687113
 20
5.164020882907063
 30
0.0
 11
21.18482329058462
 21
5.136125079803585
 31
0.0
  0
LINE
  5
2383
330
1E
100
AcDbEntity
  8
HIDDEN
100
AcDbLine
 10
21.83482329058461
 20
8.665125079803559
 30
0.0
 11
22.06482329058461
 21
8.665125079803559
 31
0.0
  0
LINE
  5
2384
330
1E
100
AcDbEntity
  8
HIDDEN
100
AcDbLine
 10
21.83482329058461
 20
8.583125079803558
 30
0.0
 11
22.06482329058461
 21
8.583125079803558
 31
0.0
  0
LWPOLYLINE
  5
2385
330
1E
100
AcDbEntity
  8
OBJECT
100
AcDbPolyline
 90
        4
 70
     0
 43
0.0
 10
22.06482329058461
 20
8.511125079803562
 10
21.83482329058461
 20
8.52412507980356
 10
21.83482329058461
 20
8.72412507980356
 10
22.06482329058461
 20
8.737125079803561
  0
LWPOLYLINE
  5
2386
330
1E
100
AcDbEntity
  8
OBJECT
100
AcDbPolyline
 90
        3
 70
     0
 43
0.0
 10
22.17482329058461
 20
9.221848648933868
 10
22.17482329058461
 20
7.01190935105105
 42
-0.3178372451957825
 10
22.15482329058461
 20
6.983625079803589
  0
LINE
  5
2387
330
1E
100
AcDbEntity
  8
HIDDEN
100
AcDbLine
 10
21.50482329058461
 20
6.858125079803588
 30
0.0
 11
22.0048232905846
 21
6.858125079803588
 31
0.0
  0
LINE
  5
2388
330
1E
100
AcDbEntity
  8
HIDDEN
100
AcDbLine
 10
21.50482329058461
 20
6.738125079803589
 30
0.0
 11
22.0048232905846
 21
6.738125079803589
 31
0.0
  0
LINE
  5
2389
330
1E
100
AcDbEntity
  8
HIDDEN
100
AcDbLine
 10
21.94482329058461
 20
6.91612507980359
 30
0.0
 11
21.94482329058461
 21
6.680125079803589
 31
0.0
  0
LWPOLYLINE
  5
238A
330
1E
100
AcDbEntity
  8
OBJECT
100
AcDbPolyline
 90
        4
 70
     0
 43
0.0
 10
21.20182329058461
 20
6.69486188069499
 10
21.4198232905846
 20
6.700125079803589
 10
21.4198232905846
 20
6.896125079803589
 10
21.20182329058461
 20
6.901408776558431
  0
LWPOLYLINE
  5
238B
330
1E
100
AcDbEntity
  8
HIDDEN
100
AcDbPolyline
 90
        7
 70
     0
 43
0.0
 10
21.4198232905846
 20
6.858796132303591
 10
21.40015223808469
 20
6.83912507980359
 10
21.16982329058461
 20
6.83912507980359
 10
21.14615192954804
 20
6.798125079803586
 10
21.16982329058461
 20
6.757125079803582
 10
21.40015223808469
 20
6.757125079803589
 10
21.4198232905846
 20
6.737454027303588
  0
LINE
  5
238C
330
1E
100
AcDbEntity
  8
HIDDEN
100
AcDbLine
 10
21.40015223808469
 20
6.83912507980359
 30
0.0
 11
21.40015223808469
 21
6.757125079803589
 31
0.0
  0
LINE
  5
238D
330
1E
100
AcDbEntity
  8
HIDDEN
100
AcDbLine
 10
21.16982329058461
 20
6.83912507980359
 30
0.0
 11
21.16982329058461
 21
6.757125079803589
 31
0.0
  0
LINE
  5
238E
330
1E
100
AcDbEntity
  8
HIDDEN
100
AcDbLine
 10
21.62982329058461
 20
10.65712507980359
 30
0.0
 11
22.18482329058461
 21
10.65712507980359
 31
0.0
  0
LINE
  5
238F
330
1E
100
AcDbEntity
  8
HIDDEN
100
AcDbLine
 10
21.62982329058461
 20
10.53712507980359
 30
0.0
 11
22.18482329058461
 21
10.53712507980359
 31
0.0
  0
LINE
  5
2392
330
1E
100
AcDbEntity
  8
HIDDEN
100
AcDbLine
 10
21.83482329058461
 20
9.851125079803587
 30
0.0
 11
22.26482329058461
 21
9.851125079803587
 31
0.0
  0
LINE
  5
2393
330
1E
100
AcDbEntity
  8
HIDDEN
100
AcDbLine
 10
21.83482329058461
 20
9.769125079803586
 30
0.0
 11
22.26482329058461
 21
9.769125079803586
 31
0.0
  0
LWPOLYLINE
  5
2394
330
1E
100
AcDbEntity
  8
OBJECT
100
AcDbPolyline
 90
        8
 70
     0
 43
0.0
 10
22.26482329058461
 20
10.77412507980358
 10
22.20482329058461
 20
10.77412507980358
 10
22.14482329058461
 20
10.71512507980359
 10
21.62982329058461
 20
10.69548034230358
 10
21.62982329058461
 20
10.49876981730359
 10
22.14482329058461
 20
10.47912507980359
 10
22.20482329058461
 20
10.42012507980359
 10
22.26482329058461
 20
10.42012507980359
  0
LINE
  5
2395
330
1E
100
AcDbEntity
  8
OBJECT
100
AcDbLine
 10
21.21982329058461
 20
10.8722350560354
 30
0.0
 11
22.26482329058461
 21
10.81746892668465
 31
0.0
  0
LINE
  5
2396
330
1E
100
AcDbEntity
  8
OBJECT
100
AcDbLine
 10
22.26482329058461
 20
10.81746892668465
 30
0.0
 11
22.26482329058461
 21
9.379468926684651
 31
0.0
  0
LWPOLYLINE
  5
2397
330
1E
100
AcDbEntity
  8
OBJECT
100
AcDbPolyline
 90
        4
 70
     0
 43
0.0
 10
22.35482329058461
 20
9.590125079803584
 10
22.32982329058461
 20
9.590125079803584
 10
22.32982329058461
 20
10.85012507980358
 10
22.35482329058461
 20
10.85012507980358
  0
LWPOLYLINE
  5
2398
330
1E
100
AcDbEntity
  8
HIDDEN
100
AcDbPolyline
 90
        4
 70
     0
 43
0.0
 10
22.32982329058461
 20
10.73462507980359
 10
22.18482329058461
 20
10.73462507980359
 10
22.18482329058461
 20
10.45962507980359
 10
22.32982329058461
 20
10.45962507980359
  0
LINE
  5
2399
330
1E
100
AcDbEntity
  8
HIDDEN
100
AcDbLine
 10
22.14482329058461
 20
10.71512507980359
 30
0.0
 11
22.14482329058461
 21
10.47912507980359
 31
0.0
  0
LINE
  5
239A
330
1E
100
AcDbEntity
  8
OBJECT
100
AcDbLine
 10
22.37782329058461
 20
9.534125079803587
 30
0.0
 11
22.37782329058461
 21
9.410125079803584
 31
0.0
  0
ARC
  5
239B
330
1E
100
AcDbEntity
  8
OBJECT
100
AcDbCircle
 10
22.34437734463866
 20
9.472125079803589
 30
0.0
 40
0.0704459459459456
100
AcDbArc
 50
298.3446754002637
 51
61.65532459973555
  0
LINE
  5
239C
330
1E
100
AcDbEntity
  8
OBJECT
100
AcDbLine
 10
22.37782329058461
 20
9.410125079803584
 30
0.0
 11
22.35482329058461
 21
9.410125079803584
 31
0.0
  0
LINE
  5
239D
330
1E
100
AcDbEntity
  8
OBJECT
100
AcDbLine
 10
22.37782329058461
 20
9.534125079803587
 30
0.0
 11
22.35482329058461
 21
9.534125079803587
 31
0.0
  0
LWPOLYLINE
  5
239E
330
1E
100
AcDbEntity
  8
HIDDEN
100
AcDbPolyline
 90
        7
 70
     0
 43
0.0
 10
21.62682329058461
 20
10.53645402730358
 10
21.60715223808469
 20
10.55612507980358
 10
21.1768232905846
 20
10.55612507980358
 10
21.15315192954803
 20
10.59712507980359
 10
21.1768232905846
 20
10.63812507980358
 10
21.60715223808469
 20
10.63812507980358
 10
21.62682329058461
 20
10.65779613230358
  0
LWPOLYLINE
  5
239F
330
1E
100
AcDbEntity
  8
OBJECT
100
AcDbPolyline
 90
        4
 70
     0
 43
0.0
 10
21.4198232905846
 20
10.49410364243439
 10
21.62682329058461
 20
10.49912507980358
 10
21.62682329058461
 20
10.69512507980358
 10
21.18556724256879
 20
10.7057872701999
  0
LWPOLYLINE
  5
23A0
330
1E
100
AcDbEntity
  8
OBJECT
100
AcDbPolyline
 90
        4
 70
     0
 43
0.0
 10
21.20182329058461
 20
10.44484138304874
 10
21.4198232905846
 20
10.45012507980358
 10
21.4198232905846
 20
10.64612507980358
 10
21.20182329058461
 20
10.65138827891218
  0
LINE
  5
23A2
330
1E
100
AcDbEntity
  8
HIDDEN
100
AcDbLine
 10
21.60715223808469
 20
10.55612507980358
 30
0.0
 11
21.60715223808469
 21
10.63812507980358
 31
0.0
  0
LWPOLYLINE
  5
23A3
330
1E
100
AcDbEntity
  8
HIDDEN
100
AcDbPolyline
 90
        7
 70
     0
 43
0.0
 10
21.4198232905846
 20
10.60879613230358
 10
21.40015223808469
 20
10.58912507980358
 10
21.16982329058461
 20
10.58912507980358
 10
21.14615192954804
 20
10.54812507980358
 10
21.16982329058461
 20
10.50712507980358
 10
21.40015223808469
 20
10.50712507980358
 10
21.4198232905846
 20
10.48745402730358
  0
LINE
  5
23A4
330
1E
100
AcDbEntity
  8
HIDDEN
100
AcDbLine
 10
21.40015223808469
 20
10.50712507980358
 30
0.0
 11
21.40015223808469
 21
10.58912507980358
 31
0.0
  0
LINE
  5
23A5
330
1E
100
AcDbEntity
  8
HIDDEN
100
AcDbLine
 10
21.16982329058461
 20
10.50712507980358
 30
0.0
 11
21.16982329058461
 21
10.58912507980358
 31
0.0
  0
LINE
  5
23A6
330
1E
100
AcDbEntity
  8
HIDDEN
100
AcDbLine
 10
21.1768232905846
 20
10.55612507980358
 30
0.0
 11
21.1768232905846
 21
10.63812507980358
 31
0.0
  0
LINE
  5
23A7
330
1E
100
AcDbEntity
  8
OBJECT
100
AcDbLine
 10
21.21982329058461
 20
10.8722350560354
 30
0.0
 11
21.18482329058462
 21
10.90012507980358
 31
0.0
  0
LWPOLYLINE
  5
23AA
330
1E
100
AcDbEntity
  8
OBJECT
100
AcDbPolyline
 90
        4
 70
     0
 43
0.0
 10
21.18482329058462
 20
5.16259651592804
 10
21.18482329058462
 20
5.116125079803586
 10
21.21982329058461
 20
5.081125079803586
 10
21.45482329058461
 20
5.070125079803586
  0
LWPOLYLINE
  5
23AE
330
1E
100
AcDbEntity
  8
OBJECT
100
AcDbPolyline
 90
        2
 70
     0
 43
0.0
 10
21.4198232905846
 20
8.270450496463947
 10
21.4198232905846
 20
10.45012507980358
  0
LINE
  5
23B1
330
1E
100
AcDbEntity
  8
HIDDEN
100
AcDbLine
 10
21.4198232905846
 20
10.49410364243439
 30
0.0
 11
21.20182329058461
 21
10.48881536539823
 31
0.0
  0
LWPOLYLINE
  5
23B3
330
1E
100
AcDbEntity
  8
OBJECT
100
AcDbPolyline
 90
        4
 70
     0
 43
0.0
 10
22.26482329058461
 20
9.68512507980359
 10
21.83482329058461
 20
9.710125079803589
 10
21.83482329058461
 20
9.910125079803588
 10
22.26482329058461
 20
9.93512507980359
  0
LWPOLYLINE
  5
23B4
330
1E
100
AcDbEntity
  8
HIDDEN
100
AcDbPolyline
 90
        4
 70
     0
 43
0.0
 10
11.69402228087555
 20
9.68512507980359
 10
12.12402228087556
 20
9.710125079803589
 10
12.12402228087556
 20
9.910125079803588
 10
11.69402228087555
 20
9.93512507980359
  0
LWPOLYLINE
  5
23B6
330
1E
100
AcDbEntity
  8
HIDDEN
100
AcDbPolyline
 90
        4
 70
     0
 43
0.0
 10
15.68570760392958
 20
14.37596446875101
 10
15.71070760392959
 20
13.94596446875101
 10
15.91070760392958
 20
13.94596446875101
 10
15.93570760392958
 20
14.37596446875101
  0
LWPOLYLINE
  5
23B7
330
1E
100
AcDbEntity
  8
HIDDEN
100
AcDbPolyline
 90
        4
 70
     0
 43
0.0
 10
17.27970760392958
 20
14.37596446875101
 10
17.25470760392958
 20
13.94596446875101
 10
17.05470760392958
 20
13.94596446875101
 10
17.02970760392958
 20
14.37596446875101
  0
LWPOLYLINE
  5
23B8
330
1E
100
AcDbEntity
  8
HIDDEN
100
AcDbPolyline
 90
        4
 70
     0
 43
0.0
 10
15.68570760392958
 20
1.613821526823972
 10
15.71070760392959
 20
2.043821526823972
 10
15.91070760392958
 20
2.043821526823972
 10
15.93570760392958
 20
1.613821526823972
  0
LWPOLYLINE
  5
23B9
330
1E
100
AcDbEntity
  8
HIDDEN
100
AcDbPolyline
 90
        4
 70
     0
 43
0.0
 10
17.27970760392958
 20
1.613821526823972
 10
17.25470760392958
 20
2.043821526823972
 10
17.05470760392958
 20
2.043821526823972
 10
17.02970760392958
 20
1.613821526823972
  0
LINE
  5
23BA
330
1E
100
AcDbEntity
  8
OBJECT
100
AcDbLine
 10
22.06482329058461
 20
9.696752986780333
 30
0.0
 11
22.06482329058461
 21
5.502856853852863
 31
0.0
  0
LINE
  5
23BB
330
1E
100
AcDbEntity
  8
OBJECT
100
AcDbLine
 10
22.06482329058461
 20
10.48217668951233
 30
0.0
 11
22.06482329058461
 21
9.923497172826845
 31
0.0
  0
HATCH
  5
23FE
330
1E
100
AcDbEntity
  8
OBJECT
100
AcDbHatch
 10
0.0
 20
0.0
 30
0.0
210
0.0
220
0.0
230
1.0
  2
ANSI31
 70
     0
 71
     0
 91
        1
 92
        7
 72
     1
 73
     1
 93
       37
 10
21.45482329058461
 20
11.01012507980358
 42
0.0
 10
21.45482329058461
 20
10.96612507980358
 42
0.0
 10
21.30040878282824
 20
10.95889716667457
 42
0.0
 10
21.21936884146535
 20
10.95467063068432
 42
0.0
 10
21.18482329058462
 20
10.92012507980359
 42
0.0
 10
21.18482329058462
 20
10.90012507980358
 42
0.0
 10
21.21982329058461
 20
10.8722350560354
 42
0.0
 10
22.26482329058461
 20
10.81746892668465
 42
0.0
 10
22.26482329058461
 20
9.37946892668465
 42
0.0
 10
22.06482329058461
 20
9.263998872846727
 42
0.0
 10
22.06482329058461
 20
5.50285685385286
 42
0.0
 10
21.94324004832522
 20
5.201927769341043
 42
0.0
 10
21.21993356687112
 20
5.164020882907063
 42
0.0
 10
21.18482329058462
 20
5.136125079803585
 42
0.0
 10
21.18482329058462
 20
5.116125079803582
 42
0.0
 10
21.21936884146535
 20
5.081579528922845
 42
0.0
 10
21.30040878282783
 20
5.077352992932627
 42
0.0
 10
21.45482329058461
 20
5.070125079803585
 42
0.0
 10
21.45482329058461
 20
5.026125079803587
 42
0.0
 10
21.93078469191656
 20
5.051069159871801
 42
0.2914734195860677
 10
21.99902282798582
 20
5.099742949296202
 42
0.0
 10
22.14914363124082
 20
5.471304975856764
 42
0.0962890481975706
 10
22.15482329058461
 20
5.500524290143214
 42
0.0
 10
22.15482329058461
 20
5.585625079803589
 42
0.0
 10
22.13982329058461
 20
5.58562507980359
 42
0.0
 10
22.13982329058461
 20
6.935625079803589
 42
0.0
 10
22.15482329058461
 20
6.935625079803589
 42
0.0
 10
22.15482329058461
 20
9.176241631929906
 42
-0.2679491924311322
 10
22.18582329058461
 20
9.229935206964542
 42
0.0
 10
22.32382329058461
 20
9.309609544112701
 42
0.2679491924311396
 10
22.35482329058461
 20
9.363303119147339
 42
0.0
 10
22.35482329058461
 20
9.590125079803584
 42
0.0
 10
22.32982329058461
 20
9.590125079803582
 42
0.0
 10
22.32982329058461
 20
10.85012507980358
 42
0.0
 10
22.35482329058461
 20
10.85012507980358
 42
0.0
 10
22.35482329058461
 20
10.90412227531254
 42
0.3989595459737333
 10
22.29606811987167
 20
10.96603730646732
 42
0.0
 97
        0
 75
     0
 76
     1
 52
0.0
 41
0.75
 77
     0
 78
     1
 53
45.0
 43
-0.9349931619119189
 44
0.8657485330046128
 45
-0.0662912607362388
 46
0.0662912607362388
 79
     0
 47
0.01337504413021
 98
        1
 10
21.94363996137444
 20
10.91812663584386
  0
LINE
  5
248A
330
1E
100
AcDbEntity
  8
OBJECT
100
AcDbLine
 10
21.04482329058461
 20
10.65212507980358
 30
0.0
 11
21.0448232905846
 21
5.560125079803587
 31
0.0
  0
LINE
  5
2504
330
1E
100
AcDbEntity
  8
OBJECT
100
AcDbLine
 10
21.59561276058476
 20
10.81012507980358
 30
0.0
 11
21.59561276058476
 21
10.69587922836364
 31
0.0
  0
LWPOLYLINE
  5
2506
330
1E
100
AcDbEntity
  8
OBJECT
100
AcDbPolyline
 90
        5
 70
     0
 43
0.0
 10
21.59548933733663
 20
6.900528321141329
 10
21.59561276058476
 20
8.211437338963943
 42
0.4142135623730951
 10
21.53659960308477
 20
8.270450496463947
 10
21.2572706575847
 20
8.270450496463947
 10
21.2572706575847
 20
10.44618526870508
  0
LINE
  5
2507
330
1E
100
AcDbEntity
  8
OBJECT
100
AcDbLine
 10
21.59550443403729
 20
6.695721164441479
 30
0.0
 11
21.59561276058476
 21
5.226125079803583
 31
0.0
  0
HATCH
  5
250E
330
1E
100
AcDbEntity
  8
OBJECT
100
AcDbHatch
 10
0.0
 20
0.0
 30
0.0
210
0.0
220
0.0
230
1.0
  2
ANSI31
 70
     0
 71
     1
 91
        1
 92
        1
 93
       32
 72
     1
 10
21.59561276058476
 20
5.226125079803583
 11
21.14949459037092
 21
5.233912101430334
 72
     1
 10
21.14949459037092
 20
5.233912101430334
 11
21.11690168982153
 21
5.486125079803585
 72
     1
 10
21.11690168982153
 20
5.486125079803585
 11
21.12382329058461
 21
5.486125079803585
 72
     2
 10
21.12382329058461
 20
5.564125079803586
 40
0.0780000000000012
 50
270.0
 51
359.9999999999987
 73
     1
 72
     1
 10
21.20182329058461
 20
5.564125079803584
 11
21.20182329058461
 21
10.65812507980358
 72
     2
 10
21.12382329058461
 20
10.65812507980358
 40
0.078000000000003
 50
0.0000000000013048
 51
90.0
 73
     1
 72
     1
 10
21.12382329058461
 20
10.73612507980358
 11
21.1068232905846
 21
10.73612507980358
 72
     1
 10
21.1068232905846
 20
10.73612507980358
 11
21.1068232905846
 21
10.80159322786849
 72
     1
 10
21.1068232905846
 20
10.80159322786849
 11
21.59561276058476
 21
10.81012507980358
 72
     1
 10
21.59561276058476
 20
10.81012507980358
 11
21.59561276058476
 21
10.85212507980358
 72
     1
 10
21.59561276058476
 20
10.85212507980358
 11
21.16195087344107
 21
10.87485233626845
 72
     2
 10
21.16357328808461
 20
10.90580985184585
 40
0.0310000000000031
 50
92.99999999999975
 51
180.0
 73
     0
 72
     1
 10
21.1325732880846
 20
10.90580985184585
 11
21.13257328808461
 21
10.92071855336046
 72
     2
 10
21.16357328808461
 20
10.92071855336047
 40
0.0309999999999988
 50
179.9999999999966
 51
266.9999999999931
 73
     0
 72
     1
 10
21.16195087344107
 20
10.95167606893786
 11
21.4198232905846
 21
10.96512507980358
 72
     1
 10
21.4198232905846
 20
10.96512507980358
 11
21.4198232905846
 21
11.01012507980358
 72
     1
 10
21.4198232905846
 20
11.01012507980358
 11
21.07420670383106
 21
10.99207732360634
 72
     2
 10
21.07582329058461
 20
10.96111950315225
 40
0.030999999999999
 50
92.98921386784421
 51
180.0
 73
     1
 72
     1
 10
21.04482329058461
 20
10.96111950315225
 11
21.0448232905846
 21
10.65212507980358
 72
     1
 10
21.0448232905846
 20
10.65212507980358
 11
21.1068232905846
 21
10.65212507980358
 72
     1
 10
21.1068232905846
 20
10.65212507980358
 11
21.1068232905846
 21
5.560125079803587
 72
     1
 10
21.1068232905846
 20
5.560125079803587
 11
21.0448232905846
 21
5.560125079803587
 72
     1
 10
21.0448232905846
 20
5.560125079803587
 11
21.10843898648988
 21
5.067849036091587
 72
     2
 10
21.13918333720352
 20
5.071822057510741
 40
0.0309999999999984
 50
187.3633931276459
 51
267.0107861321558
 73
     1
 72
     1
 10
21.13756675044997
 20
5.040864237056641
 11
21.4198232905846
 21
5.026125079803584
 72
     1
 10
21.4198232905846
 20
5.026125079803584
 11
21.4198232905846
 21
5.071125079803584
 72
     1
 10
21.4198232905846
 20
5.071125079803584
 11
21.16195087344107
 21
5.08457409066931
 72
     2
 10
21.16357328808461
 20
5.115531606246699
 40
0.030999999999998
 50
93.00000000000684
 51
180.0000000000032
 73
     0
 72
     1
 10
21.13257328808461
 20
5.115531606246701
 11
21.1325732880846
 21
5.130440307761318
 72
     2
 10
21.16357328808461
 20
5.130440307761318
 40
0.0310000000000024
 50
180.0
 51
267.0
 73
     0
 72
     1
 10
21.16195087344107
 20
5.161397823338711
 11
21.59532773504088
 21
5.184110142247792
 72
     1
 10
21.59532773504088
 20
5.184110142247792
 11
21.59561276058476
 21
5.226125079803583
 97
        1
330
236F
 75
     0
 76
     1
 52
90.0
 41
0.75
 77
     0
 78
     1
 53
135.0
 43
-0.9349931619119189
 44
0.8657485330046128
 45
-0.0662912607362388
 46
-0.0662912607362388
 79
     0
 98
        1
 10
-0.9349931619119189
 20
0.8657485330046128
  0
DIMENSION
  5
2510
330
1E
100
AcDbEntity
  8
DIM
100
AcDbDimension
  2
*D9
 10
21.04482329058461
 20
9.332285613650114
 30
0.0
 11
19.95654204058461
 21
9.332285613650114
 31
0.0
 70
    32
 71
     5
 42
0.0619999999999905
  3
23NSTD
100
AcDbAlignedDimension
 13
21.1068232905846
 23
9.442535613650116
 33
0.0
 14
21.04482329058461
 24
9.442535613650115
 34
0.0
100
AcDbRotatedDimension
  0
DIMENSION
  5
2528
330
1E
100
AcDbEntity
  8
DIM
100
AcDbDimension
  2
*D10
 10
22.35482329058461
 20
10.30004571717426
 30
0.0
 11
23.44310454058461
 21
10.30004571717426
 31
0.0
 70
    32
 71
     5
 42
0.0249999999999986
  3
23NSTD
100
AcDbAlignedDimension
 13
22.32982329058461
 23
10.41029571717426
 33
0.0
 14
22.35482329058461
 24
10.41029571717426
 34
0.0
100
AcDbRotatedDimension
  0
DIMENSION
  5
2536
330
1E
100
AcDbEntity
  8
DIM
100
AcDbDimension
  2
*D11
 10
22.15482329058461
 20
5.865658299863878
 30
0.0
 11
23.21576079058461
 21
5.865658299863878
 31
0.0
 70
    32
 71
     5
 42
0.0150000000000006
  3
23NSTD
100
AcDbAlignedDimension
 13
22.13982329058461
 23
5.755408299863878
 33
0.0
 14
22.15482329058461
 24
5.755408299863878
 34
0.0
100
AcDbRotatedDimension
  0
DIMENSION
  5
267A
330
1E
100
AcDbEntity
  8
DIM
100
AcDbDimension
  2
*D12
 10
26.86999669310195
 20
11.48439925391664
 30
0.0
 11
26.08299669310195
 21
11.48439925391664
 31
0.0
 70
    32
 71
     5
 42
1.574000000000005
  3
23NSTD
100
AcDbAlignedDimension
 13
25.29599669310194
 23
10.54812507980358
 33
0.0
 14
26.86999669310195
 24
10.54812507980358
 34
0.0
100
AcDbRotatedDimension
  0
DIMENSION
  5
2688
330
1E
100
AcDbEntity
  8
DIM
100
AcDbDimension
  2
*D13
 10
24.96099669310195
 20
11.9636233020197
 30
0.0
 11
26.08299669310195
 21
11.9636233020197
 31
0.0
 70
   160
 71
     5
 42
2.243999999999999
  3
23NSTD
100
AcDbAlignedDimension
 13
27.20499669310195
 23
10.59712507980359
 33
0.0
 14
24.96099669310195
 24
10.59712507980359
 34
0.0
100
AcDbRotatedDimension
  0
DIMENSION
  5
2698
330
1E
100
AcDbEntity
  8
DIM
100
AcDbDimension
  2
*D14
 10
24.86399669310195
 20
4.311378862959792
 30
0.0
 11
26.08299669310194
 21
4.311378862959792
 31
0.0
 70
   160
 71
     5
 42
2.437999999999998
  3
23NSTD
100
AcDbAlignedDimension
 13
27.30199669310195
 23
5.384125079803592
 33
0.0
 14
24.86399669310195
 24
5.384125079803592
 34
0.0
100
AcDbRotatedDimension
  0
LINE
  5
26B4
330
1E
100
AcDbEntity
  8
CENTER
100
AcDbLine
 10
24.86399669310195
 20
6.70012507980359
 30
0.0
 11
24.86399669310195
 21
5.482125079803592
 31
0.0
  0
LINE
  5
26B5
330
1E
100
AcDbEntity
  8
CENTER
100
AcDbLine
 10
27.30199669310195
 20
5.482125079803592
 30
0.0
 11
27.30199669310174
 21
6.70012507980359
 31
0.0
  0
LINE
  5
26B6
330
1E
100
AcDbEntity
  8
CENTER
100
AcDbLine
 10
27.20399669310172
 20
6.79812507980359
 30
0.0
 11
24.96199669310195
 21
6.79812507980359
 31
0.0
  0
LINE
  5
26B8
330
1E
100
AcDbEntity
  8
CENTER
100
AcDbLine
 10
27.20399669310195
 20
5.384125079803592
 30
0.0
 11
24.96199669310195
 21
5.384125079803592
 31
0.0
  0
LINE
  5
26B9
330
1E
100
AcDbEntity
  8
CENTER
100
AcDbLine
 10
25.39399669310194
 20
10.54812507980358
 30
0.0
 11
26.77199669310195
 21
10.54812507980358
 31
0.0
  0
DIMENSION
  5
2717
330
1E
100
AcDbEntity
  8
DIM
100
AcDbDimension
  2
*D15
 10
28.15392687610386
 20
6.79812507980359
 30
0.0
 11
28.15392687610386
 21
6.091125079803595
 31
0.0
 70
   160
 71
     5
 42
1.413999999999997
  3
23NSTD
100
AcDbAlignedDimension
 13
27.30199669310195
 23
5.384125079803592
 33
0.0
 14
27.30199669310195
 24
6.79812507980359
 34
0.0
 50
90.0
100
AcDbRotatedDimension
  0
DIMENSION
  5
2739
330
1E
100
AcDbEntity
  8
DIM
100
AcDbDimension
  2
*D16
 10
23.92999669310195
 20
8.018125079803589
 30
0.0
 11
23.92999669310194
 21
9.307625079803592
 31
0.0
 70
    32
 71
     5
 42
2.579
  3
23NSTDI
100
AcDbAlignedDimension
 13
24.96099669310195
 23
10.59712507980359
 33
0.0
 14
24.20299669310195
 24
8.018125079803589
 34
0.0
 50
90.0
100
AcDbRotatedDimension
  0
DIMENSION
  5
2748
330
1E
100
AcDbEntity
  8
DIM
100
AcDbDimension
  2
*D17
 10
28.23599669310194
 20
8.018125079803587
 30
0.0
 11
28.23599669310194
 21
9.283125079803593
 31
0.0
 70
    32
 71
     5
 42
2.530000000000001
  3
23NSTDI
100
AcDbAlignedDimension
 13
26.86999669310195
 23
10.54812507980358
 33
0.0
 14
27.96299669310195
 24
8.018125079803589
 34
0.0
 50
90.0
100
AcDbRotatedDimension
  0
DIMENSION
  5
2866
330
1E
100
AcDbEntity
  8
DIM
100
AcDbDimension
  2
*D18
 10
22.15482329058461
 20
6.430581586172807
 30
0.0
 11
23.22943266558461
 21
6.430581586172807
 31
0.0
 70
    32
 71
     5
 42
0.0900000000000034
  3
23NSTD
100
AcDbAlignedDimension
 13
22.06482329058461
 23
6.320331586172807
 33
0.0
 14
22.15482329058461
 24
6.320331586172807
 34
0.0
100
AcDbRotatedDimension
  0
DIMENSION
  5
2892
330
1E
100
AcDbEntity
  8
DIM
100
AcDbDimension
  2
*D19
 10
21.1068232905846
 20
7.620743440848439
 30
0.0
 11
20.0185420405846
 21
7.620743440848439
 31
0.0
 70
    32
 71
     5
 42
0.095000000000006
  3
23NSTD
100
AcDbAlignedDimension
 13
21.20182329058461
 23
7.510493440848438
 33
0.0
 14
21.1068232905846
 24
7.510493440848439
 34
0.0
100
AcDbRotatedDimension
  0
DIMENSION
  5
28B4
330
1E
100
AcDbEntity
  8
DIM
100
AcDbDimension
  2
*D20
 10
12.91402228087555
 20
11.77137507980358
 30
0.0
 11
12.25902228087556
 21
11.77137507980358
 31
0.0
 70
    32
 71
     5
 42
1.309999999999995
  3
23NSTD
100
AcDbAlignedDimension
 13
11.60402228087556
 23
10.90412227531254
 33
0.0
 14
12.91402228087555
 24
10.96111950315225
 34
0.0
100
AcDbRotatedDimension
  0
DIMENSION
  5
28C4
330
1E
100
AcDbEntity
  8
DIM
100
AcDbDimension
  2
*D21
 10
11.60402228087556
 20
11.28312507980358
 30
0.0
 11
12.05402228087556
 21
11.28312507980358
 31
0.0
 70
    32
 71
     5
 42
0.8999999999999985
  3
23NSTD
100
AcDbAlignedDimension
 13
12.50402228087556
 23
11.01012507980358
 33
0.0
 14
11.60402228087556
 24
10.90412227531254
 34
0.0
100
AcDbRotatedDimension
  0
DIMENSION
  5
28EE
330
1E
100
AcDbEntity
  8
DIM
100
AcDbDimension
  2
*D22
 10
12.91402228087556
 20
4.753125079803584
 30
0.0
 11
14.01597540587556
 21
4.753125079803584
 31
0.0
 70
    32
 71
     5
 42
0.375
  3
23NSTD
100
AcDbAlignedDimension
 13
12.53902228087556
 23
5.026125079803584
 33
0.0
 14
12.91402228087556
 24
5.560125079803587
 34
0.0
100
AcDbRotatedDimension
  0
DIMENSION
  5
2988
330
1E
100
AcDbEntity
  8
DIM
100
AcDbDimension
  2
*D23
 10
23.92999669310195
 20
8.018125079803589
 30
0.0
 11
23.92999669310195
 21
7.408125079803593
 31
0.0
 70
    32
 71
     5
 42
1.219999999999998
  3
23NSTDI
100
AcDbAlignedDimension
 13
24.86399669310195
 23
6.79812507980359
 33
0.0
 14
24.20299669310195
 24
8.018125079803589
 34
0.0
 50
90.0
100
AcDbRotatedDimension
  0
DIMENSION
  5
2BA6
330
1E
100
AcDbEntity
  8
DIM
100
AcDbDimension
  2
*D27
 10
0.9232366900363935
 20
8.018125079803589
 30
0.0
 11
0.9232366900363922
 21
9.307625079803589
 31
0.0
 70
    32
 71
     5
 42
2.579
  3
23NSTDI
100
AcDbAlignedDimension
 13
1.954236690036392
 23
10.59712507980359
 33
0.0
 14
1.196236690036393
 24
8.018125079803589
 34
0.0
 50
90.0
100
AcDbRotatedDimension
  0
DIMENSION
  5
2BA7
330
1E
100
AcDbEntity
  8
DIM
100
AcDbDimension
  2
*D28
 10
0.923236690036397
 20
8.018125079803589
 30
0.0
 11
0.9232366900363956
 21
7.408125079803589
 31
0.0
 70
    32
 71
     5
 42
1.219999999999998
  3
23NSTDI
100
AcDbAlignedDimension
 13
1.857236690036391
 23
6.79812507980359
 33
0.0
 14
1.196236690036393
 24
8.018125079803589
 34
0.0
 50
90.0
100
AcDbRotatedDimension
  0
DIMENSION
  5
2BA8
330
1E
100
AcDbEntity
  8
DIM
100
AcDbDimension
  2
*D26
 10
1.85723669003639
 20
3.935107752843457
 30
0.0
 11
3.076236690036388
 21
3.935107752843457
 31
0.0
 70
   160
 71
     5
 42
2.438000000000002
  3
23NSTD
100
AcDbAlignedDimension
 13
4.295236690036393
 23
6.79812507980359
 33
0.0
 14
1.857236690036391
 24
6.79812507980359
 34
0.0
100
AcDbRotatedDimension
  0
DIMENSION
  5
2BA9
330
1E
100
AcDbEntity
  8
DIM
100
AcDbDimension
  2
*D25
 10
1.954236690036392
 20
11.9636233020197
 30
0.0
 11
3.076236690036392
 21
11.9636233020197
 31
0.0
 70
   160
 71
     5
 42
2.243999999999999
  3
23NSTD
100
AcDbAlignedDimension
 13
4.198236690036392
 23
10.59712507980359
 33
0.0
 14
1.954236690036392
 24
10.59712507980359
 34
0.0
100
AcDbRotatedDimension
  0
DIMENSION
  5
2BAA
330
1E
100
AcDbEntity
  8
DIM
100
AcDbDimension
  2
*D24
 10
3.748236690036392
 20
11.48439925391664
 30
0.0
 11
3.076236690036392
 21
11.48439925391664
 31
0.0
 70
    32
 71
     5
 42
1.344000000000001
  3
23NSTD
100
AcDbAlignedDimension
 13
2.404236690036391
 23
10.59712507980359
 33
0.0
 14
3.748236690036392
 24
10.59712507980359
 34
0.0
100
AcDbRotatedDimension
  0
DIMENSION
  5
2C46
330
1E
100
AcDbEntity
  8
DIM
100
AcDbDimension
  2
*D29
 10
3.951236690036392
 20
4.410269355376811
 30
0.0
 11
3.076236690036392
 21
4.410269355376811
 31
0.0
 70
   160
 71
     5
 42
1.75
  3
23NSTDI
100
AcDbAlignedDimension
 13
2.201236690036392
 23
6.798125079803561
 33
0.0
 14
3.951236690036392
 24
6.79812507980359
 34
0.0
100
AcDbRotatedDimension
  0
LINE
  5
2C5E
330
1E
100
AcDbEntity
  8
CENTER
100
AcDbLine
 10
2.314236690036391
 20
8.624125079803562
 30
0.0
 11
3.838236690036392
 21
8.624125079803588
 31
0.0
  0
LINE
  5
2C60
330
1E
100
AcDbEntity
  8
CENTER
100
AcDbLine
 10
2.314236690036391
 20
6.798125079803561
 30
0.0
 11
3.838236690036392
 21
6.798125079803588
 31
0.0
  0
LINE
  5
2C62
330
1E
100
AcDbEntity
  8
CENTER
100
AcDbLine
 10
2.201236690036392
 20
8.511125079803562
 30
0.0
 11
2.201236690036392
 21
6.911125079803562
 31
0.0
  0
LINE
  5
2C64
330
1E
100
AcDbEntity
  8
CENTER
100
AcDbLine
 10
3.951236690036392
 20
8.511125079803591
 30
0.0
 11
3.951236690036392
 21
6.91112507980359
 31
0.0
  0
LINE
  5
2C67
330
1E
100
AcDbEntity
  8
CENTER
100
AcDbLine
 10
2.529236690036391
 20
10.59712507980359
 30
0.0
 11
3.623236690036392
 21
10.59712507980359
 31
0.0
  0
LINE
  5
2C69
330
1E
100
AcDbEntity
  8
CENTER
100
AcDbLine
 10
2.529236690036391
 20
9.81012507980359
 30
0.0
 11
3.623236690036392
 21
9.81012507980359
 31
0.0
  0
LINE
  5
2C6B
330
1E
100
AcDbEntity
  8
CENTER
100
AcDbLine
 10
2.404236690036391
 20
10.47212507980358
 30
0.0
 11
2.404236690036391
 21
9.93512507980359
 31
0.0
  0
LINE
  5
2C6D
330
1E
100
AcDbEntity
  8
CENTER
100
AcDbLine
 10
3.748236690036392
 20
10.47212507980358
 30
0.0
 11
3.748236690036392
 21
9.93512507980359
 31
0.0
  0
DIMENSION
  5
2C6E
330
1E
100
AcDbEntity
  8
DIM
100
AcDbDimension
  2
*D30
 10
5.264441748004045
 20
9.810125079803588
 30
0.0
 11
5.264441748004045
 21
10.20362507980359
 31
0.0
 70
    32
 71
     5
 42
0.7870000000000008
  3
23NSTDI
100
AcDbAlignedDimension
 13
4.198236690036392
 23
10.59712507980359
 33
0.0
 14
3.748236690036392
 24
9.81012507980359
 34
0.0
 50
90.0
100
AcDbRotatedDimension
  0
DIMENSION
  5
2C7C
330
1E
100
AcDbEntity
  8
DIM
100
AcDbDimension
  2
*D31
 10
5.264441748004045
 20
8.624125079803588
 30
0.0
 11
5.264441748004045
 21
7.711125079803591
 31
0.0
 70
    32
 71
     5
 42
1.825999999999999
  3
23NSTDI
100
AcDbAlignedDimension
 13
3.951236690036392
 23
6.79812507980359
 33
0.0
 14
3.951236690036392
 24
8.62412507980359
 34
0.0
 50
90.0
100
AcDbRotatedDimension
  0
DIMENSION
  5
2C96
330
1E
100
AcDbEntity
  8
DIM
100
AcDbDimension
  2
*D32
 10
6.664267345982594
 20
8.018125079803589
 30
0.0
 11
6.664267345982593
 21
8.80412507980359
 31
0.0
 70
    32
 71
     5
 42
1.571999999999999
  3
23NSTD
100
AcDbAlignedDimension
 13
7.481148625072869
 23
9.590125079803588
 33
0.0
 14
6.90114862507287
 24
8.018125079803589
 34
0.0
 50
90.0
100
AcDbRotatedDimension
  0
DIMENSION
  5
2CA4
330
1E
100
AcDbEntity
  8
DIM
100
AcDbDimension
  2
*D33
 10
6.664267345982594
 20
10.85012507980358
 30
0.0
 11
6.664267345982592
 21
10.22012507980359
 31
0.0
 70
    32
 71
     5
 42
1.260000000000001
  3
23NSTD
100
AcDbAlignedDimension
 13
7.481148625072869
 23
9.590125079803588
 33
0.0
 14
7.481148625072869
 24
10.85012507980358
 34
0.0
 50
90.0
100
AcDbRotatedDimension
  0
DIMENSION
  5
2CC6
330
1E
100
AcDbEntity
  8
DIM
100
AcDbDimension
  2
*D34
 10
6.664267345982594
 20
6.935625079803591
 30
0.0
 11
6.664267345982593
 21
7.476875079803591
 31
0.0
 70
    32
 71
     5
 42
1.082499999999997
  3
23NSTD
100
AcDbAlignedDimension
 13
6.90114862507287
 23
8.018125079803589
 33
0.0
 14
7.406148625072869
 24
6.935625079803591
 34
0.0
 50
90.0
100
AcDbRotatedDimension
  0
DIMENSION
  5
2CD4
330
1E
100
AcDbEntity
  8
DIM
100
AcDbDimension
  2
*D35
 10
6.176017345982597
 20
5.585625079803591
 30
0.0
 11
6.176017345982596
 21
6.260625079803593
 31
0.0
 70
   160
 71
     5
 42
1.349999999999999
  3
23NSTD
100
AcDbAlignedDimension
 13
7.406148625072869
 23
6.935625079803591
 33
0.0
 14
7.406148625072869
 24
5.585625079803591
 34
0.0
 50
90.0
100
AcDbRotatedDimension
  0
DIMENSION
  5
2CED
330
1E
100
AcDbEntity
  8
DIM
100
AcDbDimension
  2
*D36
 10
10.08114862507287
 20
12.07149965597795
 30
0.0
 11
8.781148625072869
 21
12.07149965597795
 31
0.0
 70
   160
 71
     5
 42
2.600000000000001
  3
23NSTD
100
AcDbAlignedDimension
 13
7.481148625072869
 23
10.85012507980358
 33
0.0
 14
10.08114862507287
 24
10.85012507980358
 34
0.0
100
AcDbRotatedDimension
  0
DIMENSION
  5
2CFB
330
1E
100
AcDbEntity
  8
DIM
100
AcDbDimension
  2
*D37
 10
10.15614862507286
 20
4.094117508043488
 30
0.0
 11
8.781148625072869
 21
4.094117508043488
 31
0.0
 70
   160
 71
     5
 42
2.75
  3
23NSTD
100
AcDbAlignedDimension
 13
7.406148625072869
 23
5.585625079803591
 33
0.0
 14
10.15614862507286
 24
5.585625079803591
 34
0.0
100
AcDbRotatedDimension
  0
DIMENSION
  5
2D15
330
1E
100
AcDbEntity
  8
DIM
100
AcDbDimension
  2
*D38
 10
8.781148625072873
 20
11.53312507980359
 30
0.0
 11
8.131148625072871
 21
11.53312507980359
 31
0.0
 70
    32
 71
     5
 42
1.300000000000004
  3
23NSTD
100
AcDbAlignedDimension
 13
7.481148625072869
 23
10.85012507980358
 33
0.0
 14
8.781148625072873
 24
11.26012507980359
 34
0.0
100
AcDbRotatedDimension
  0
DIMENSION
  5
2D23
330
1E
100
AcDbEntity
  8
DIM
100
AcDbDimension
  2
*D39
 10
8.781148625072873
 20
4.50312507980359
 30
0.0
 11
8.093648625072871
 21
4.50312507980359
 31
0.0
 70
    32
 71
     5
 42
1.375000000000003
  3
23NSTD
100
AcDbAlignedDimension
 13
7.406148625072869
 23
5.585625079803591
 33
0.0
 14
8.781148625072873
 24
4.776125079803589
 34
0.0
100
AcDbRotatedDimension
  0
DIMENSION
  5
2D6D
330
1E
100
AcDbEntity
  8
DIM
100
AcDbDimension
  2
*D40
 10
27.51299669310195
 20
9.467233815349381
 30
0.0
 11
26.08299669310195
 21
9.467233815349381
 31
0.0
 70
    32
 71
     5
 42
2.859999999999999
  3
23NSTD
100
AcDbAlignedDimension
 13
24.65299669310195
 23
9.577483815349381
 33
0.0
 14
27.51299669310195
 24
9.577483815349381
 34
0.0
100
AcDbRotatedDimension
  0
DIMENSION
  5
2D8F
330
1E
100
AcDbEntity
  8
DIM
100
AcDbDimension
  2
*D41
 10
25.65768359255736
 20
5.226125079803589
 30
0.0
 11
25.65768359255736
 21
8.285000079803589
 31
0.0
 70
   160
 71
     5
 42
5.584000000000001
  3
23NSTD
100
AcDbAlignedDimension
 13
25.54743359255736
 23
10.81012507980359
 33
0.0
 14
25.54743359255736
 24
5.226125079803589
 34
0.0
 50
90.0
100
AcDbRotatedDimension
  0
DIMENSION
  5
2DC5
330
1E
100
AcDbEntity
  8
DIM
100
AcDbDimension
  2
*D42
 10
4.514236690036392
 20
8.939009744208476
 30
0.0
 11
3.076236690036392
 21
8.939009744208476
 31
0.0
 70
    32
 71
     5
 42
2.876
  3
23NSTD
100
AcDbAlignedDimension
 13
1.638236690036392
 23
8.828759744208477
 33
0.0
 14
4.514236690036392
 24
8.828759744208479
 34
0.0
100
AcDbRotatedDimension
  0
DIMENSION
  5
2DD4
330
1E
100
AcDbEntity
  8
DIM
100
AcDbDimension
  2
*D43
 10
2.635802386199178
 20
10.82795048254125
 30
0.0
 11
2.635802386199176
 21
7.749195417806528
 31
0.0
 70
   160
 71
     5
 42
5.623760129469459
  3
23NSTD
100
AcDbAlignedDimension
 13
2.525552386199176
 23
5.204190353071798
 33
0.0
 14
2.486210281199117
 24
10.82795048254125
 34
0.0
 50
90.0
100
AcDbRotatedDimension
  0
DIMENSION
  5
3027
330
1E
100
AcDbEntity
  8
DIM
100
AcDbDimension
  2
*D44
 10
11.80402228087555
 20
4.184989696565963
 30
0.0
 11
12.35902228087556
 21
4.184989696565963
 31
0.0
 70
    32
 71
     5
 42
1.110000000000006
  3
23NSTD
100
AcDbAlignedDimension
 13
12.91402228087556
 23
5.560125079803587
 33
0.0
 14
11.80402228087555
 24
5.500524290143216
 34
0.0
100
AcDbRotatedDimension
  0
DIMENSION
  5
306B
330
1E
100
AcDbEntity
  8
DIM
100
AcDbDimension
  2
*D45
 10
22.06482329058461
 20
8.982882960539633
 30
0.0
 11
23.15310454058461
 21
8.982882960539633
 31
0.0
 70
    32
 71
     5
 42
0.230000000000004
  3
23NSTD
100
AcDbAlignedDimension
 13
21.83482329058461
 23
8.72412507980356
 33
0.0
 14
22.06482329058461
 24
8.737125079803561
 34
0.0
100
AcDbRotatedDimension
  0
DIMENSION
  5
3084
330
1E
100
AcDbEntity
  8
DIM
100
AcDbDimension
  2
*D46
 10
21.20182329058461
 20
7.139976133633503
 30
0.0
 11
20.12721391558461
 21
7.139976133633503
 31
0.0
 70
    32
 71
     5
 42
0.2179999999999964
  3
23NSTD
100
AcDbAlignedDimension
 13
21.4198232905846
 23
6.896125079803589
 33
0.0
 14
21.20182329058461
 24
6.901408776558431
 34
0.0
100
AcDbRotatedDimension
  0
LEADER
  5
3094
330
1E
100
AcDbEntity
  8
DIM
100
AcDbLeader
  3
23NSTD
 73
     0
 74
     0
 75
     1
 40
0.9479166666666664
 41
4.18359375
 76
     3
 10
3.81619052267099
 20
10.67048908071867
 30
0.0
 10
4.8925162046154
 20
13.06596499256851
 30
0.0
 10
5.207516204615401
 20
13.06596499256851
 30
0.0
340
3095
213
0.0
223
-0.109375
233
0.0
1001
ACAD
1000
DSTYLE
1002
{
1070
   147
1040
0.09
1070
    77
1070
     0
1002
}
  0
MTEXT
  5
3095
102
{ACAD_REACTORS
330
3094
102
}
330
1E
100
AcDbEntity
  8
DIM
100
AcDbMText
 10
5.3650162046154
 20
13.17533999256851
 30
0.0
 40
0.21875
 41
0.0
 71
     1
 72
     1
  1
0.200 DIA. BOSS WITH \P0.0820 DIA. HOLE x 0.430 DEEP\P(4) PLACES
 73
     1
 44
1.0
  0
LEADER
  5
3097
330
1E
100
AcDbEntity
  8
DIM
100
AcDbLeader
  3
23NSTD
 73
     0
 74
     0
 75
     1
 40
0.9479166666666664
 41
4.046875
 76
     3
 10
4.01142425789734
 20
6.718266099876572
 30
0.0
 10
4.862792873051913
 20
3.646814767270015
 30
0.0
 10
5.177792873051913
 20
3.646814767270015
 30
0.0
340
3098
213
0.0
223
-0.109375
233
0.0
1001
ACAD
1000
DSTYLE
1002
{
1070
   147
1040
0.09
1070
    77
1070
     0
1002
}
  0
MTEXT
  5
3098
102
{ACAD_REACTORS
330
3097
102
}
330
1E
100
AcDbEntity
  8
DIM
100
AcDbMText
 10
5.335292873051913
 20
3.756189767270015
 30
0.0
 40
0.21875
 41
0.0
 71
     1
 72
     1
  1
\A1;0.200 DIA. BOSS WITH\P0.082 DIA. HOLE x 0.230 DEEP\P(4) PLACES
 73
     1
 44
1.0
  0
LEADER
  5
309A
330
1E
100
AcDbEntity
  8
DIM
100
AcDbLeader
  3
23NSTD
 73
     0
 75
     1
 40
0.9479166666666666
 41
4.046875
 76
     3
 10
24.82038318451267
 20
6.710364827590339
 30
0.0
 10
23.97619054069906
 20
4.367349416093212
 30
0.0
 10
23.66119054069906
 20
4.367349416093212
 30
0.0
340
309B
213
0.0
223
-0.109375
233
0.0
1001
ACAD
1000
DSTYLE
1002
{
1070
   147
1040
0.09
1070
    77
1070
     0
1002
}
  0
MTEXT
  5
309B
102
{ACAD_REACTORS
330
309A
102
}
330
1E
100
AcDbEntity
  8
DIM
100
AcDbMText
 10
23.50369054069906
 20
4.476724416093212
 30
0.0
 40
0.21875
 41
0.0
 71
     3
 72
     1
  1
\A1;0.196 DIA. BOSS WITH\P0.082 DIA. HOLE x 0.250 DEEP\P(6) PLACES
 73
     1
 44
1.0
  0
LWPOLYLINE
  5
30C4
330
1E
100
AcDbEntity
  8
OBJECT
100
AcDbPolyline
 90
        7
 70
     1
 43
0.0
 10
21.38700818252745
 20
2.126653772707333
 10
21.42762170338083
 20
2.470349988087741
 42
-0.3990141013959219
 10
21.46043500793874
 20
2.497645750859076
 10
26.84986548763915
 20
2.144403814617527
 10
27.3369268649734
 20
2.048727931096612
 42
-0.3622288529481167
 10
27.36194884057176
 20
2.017897641616523
 10
27.35819597918726
 20
1.735281447394152
  0
LWPOLYLINE
  5
30C5
330
1E
100
AcDbEntity
  8
HIDDEN
100
AcDbPolyline
 90
        6
 70
     0
 43
0.0
 10
21.42862486562689
 20
2.088850972707851
 10
21.45497104915161
 20
2.322628385247393
 10
21.49218522098801
 20
2.355264338037686
 10
27.28375841146486
 20
1.975664575985932
 10
27.31639436425516
 20
1.938450404149525
 10
27.3120010770417
 20
1.703234122766923
  0
LWPOLYLINE
  5
30C6
330
1E
100
AcDbEntity
  8
HIDDEN
100
AcDbPolyline
 90
       18
 70
     0
 43
0.0
 10
27.31329232764152
 20
1.73822458820951
 10
27.31673777516375
 20
1.996424488108955
 42
0.3989595459737131
 10
27.28776792801509
 20
2.02776389219206
 10
27.27289114717483
 20
2.02873896792388
 42
0.3989595459737335
 10
27.2400785280031
 20
2.001449000624676
 10
27.18907063502766
 20
1.570485488880899
 10
24.16820653665906
 20
1.768197745467338
 42
-0.4142135623730951
 10
24.11317937602545
 20
1.83094419643344
 10
24.13144836314571
 20
2.109675077219515
 10
21.90552710391099
 20
2.255569664503815
 10
21.88725811679073
 20
1.976838783717726
 42
-0.4142135623730951
 10
21.82451166582463
 20
1.92181162308414
 10
21.53317271097543
 20
1.940906987037928
 10
21.53885695975828
 20
2.375126804484365
 42
0.3989595459737334
 10
21.50988711260962
 20
2.406466208567477
 10
21.49501033176935
 20
2.407441284299283
 42
0.3989595459737131
 10
21.46219771259761
 20
2.380151317000086
 10
21.43191183407319
 20
2.123710631891976
  0
LWPOLYLINE
  5
30C7
330
1E
100
AcDbEntity
  8
HIDDEN
100
AcDbPolyline
 90
       10
 70
     0
 43
0.0
 10
21.57508278575146
 20
1.938160055610262
 10
21.61556473120939
 20
2.425344980020307
 10
21.68089270694387
 20
2.421063158271957
 10
21.67978085374695
 20
2.404099556576897
 42
0.4142135623730951
 10
21.75251240567961
 20
2.321165116484335
 10
26.83560576065706
 20
1.988001576185981
 42
0.4142135623730951
 10
26.91854020074962
 20
2.060733128118643
 10
26.91899289509881
 20
2.067639909203178
 10
27.16853418843852
 20
2.018621274537666
 10
27.14712701311582
 20
1.57294898198914
  0
LINE
  5
30C8
330
1E
100
AcDbEntity
  8
HIDDEN
100
AcDbLine
 10
22.95890733145165
 20
1.176812967458337
 30
0.0
 11
23.08721078088669
 21
1.36883264925269
 31
0.0
  0
LINE
  5
30C9
330
1E
100
AcDbEntity
  8
OBJECT
100
AcDbLine
 10
21.37803421790141
 20
1.581072566834114
 30
0.0
 11
27.28783858563979
 21
1.19372352401192
 31
0.0
  0
LWPOLYLINE
  5
30CA
330
1E
100
AcDbEntity
  8
OBJECT
100
AcDbPolyline
 90
       12
 70
     1
 43
0.0
 10
23.16889384518363
 20
1.27328574799265
 10
26.83674119398836
 20
1.032882331674292
 42
0.0962890481975786
 10
26.86626941497406
 20
1.036638795843161
 10
27.24685426900954
 20
1.162136859694752
 42
0.2914734195860665
 10
27.29988683174628
 20
1.227045474536781
 10
27.3559068696642
 20
1.700356385080796
 10
21.3847190730044
 20
2.091728710393978
 10
21.37369240674965
 20
1.249401572524567
 42
0.398959545973725
 10
21.43163210104697
 20
1.186722764358352
 10
22.9691522451234
 20
1.085948369967395
 42
0.2679491924311231
 10
23.02475835509842
 20
1.113370268760975
 10
23.1132877352086
 20
1.24586384919907
 42
-0.2679491924311233
  0
LINE
  5
30CB
330
1E
100
AcDbEntity
  8
HIDDEN
100
AcDbLine
 10
21.45497104915161
 20
2.322628385247393
 30
0.0
 11
27.31639436425516
 21
1.938450404149525
 31
0.0
  0
LWPOLYLINE
  5
30CC
330
1E
100
AcDbEntity
  8
HIDDEN
100
AcDbPolyline
 90
        4
 70
     0
 43
0.0
 10
21.76876785050818
 20
2.477436548657417
 10
21.76471285649591
 20
2.415569295416625
 10
26.84581049362687
 20
2.082536561376736
 10
26.84986548763915
 20
2.144403814617527
  0
LINE
  5
30CD
330
1E
100
AcDbEntity
  8
HIDDEN
100
AcDbLine
 10
21.52660771163962
 20
1.471119978491232
 30
0.0
 11
26.84029990610738
 21
1.122842191731509
 31
0.0
  0
LWPOLYLINE
  5
30CE
330
1E
100
AcDbEntity
  8
HIDDEN
100
AcDbPolyline
 90
        4
 70
     0
 43
0.0
 10
25.40569411221744
 20
1.141710297927312
 10
25.4145235346635
 20
1.276421252564526
 10
25.68893473855412
 20
1.258435392026237
 10
25.68010531610806
 20
1.123724437389023
  0
LWPOLYLINE
  5
30CF
330
1E
100
AcDbEntity
  8
HIDDEN
100
AcDbPolyline
 90
        8
 70
     0
 43
0.0
 10
25.37118391944177
 20
1.219133140774799
 10
25.37510810719558
 20
1.279004676169117
 10
25.43790597142047
 20
1.335017426938849
 10
25.48628602489078
 20
1.772790525858434
 10
25.68257537755699
 20
1.759925041970932
 10
25.67340067730478
 20
1.319582288440537
 10
25.72835016602205
 20
1.255851968421646
 10
25.72442597826824
 20
1.195980433027328
  0
LWPOLYLINE
  5
30D0
330
1E
100
AcDbEntity
  8
HIDDEN
100
AcDbPolyline
 90
        4
 70
     0
 43
0.0
 10
26.7518226116511
 20
1.038448189618039
 10
26.75280365858955
 20
1.053416073466619
 10
25.40569411221744
 20
1.141710297927312
 10
25.40471306527898
 20
1.126742414078732
  0
LINE
  5
30D1
330
1E
100
AcDbEntity
  8
HIDDEN
100
AcDbLine
 10
27.23368181439061
 20
1.943871671085927
 30
0.0
 11
27.14853660285523
 21
1.224483411132888
 31
0.0
  0
LINE
  5
30D2
330
1E
100
AcDbEntity
  8
HIDDEN
100
AcDbLine
 10
26.84029990610738
 20
1.122842191731509
 30
0.0
 11
27.14853660285523
 21
1.224483411132888
 31
0.0
  0
LWPOLYLINE
  5
30D3
330
1E
100
AcDbEntity
  8
HIDDEN
100
AcDbPolyline
 90
        4
 70
     0
 43
0.0
 10
27.12347233292581
 20
2.027472998447427
 10
27.09875265914522
 20
1.752286260993992
 10
26.90317231019045
 20
1.765105274323099
 10
26.91453688535622
 20
2.04067153860433
  0
LWPOLYLINE
  5
30D4
330
1E
100
AcDbEntity
  8
HIDDEN
100
AcDbPolyline
 90
        7
 70
     0
 43
0.0
 10
27.06150363578724
 20
1.754727690971359
 10
27.04316124890936
 20
1.775643174626646
 10
27.05822548282815
 20
2.005478970169759
 10
27.0188614480603
 20
2.03178117730374
 10
26.97640105112258
 20
2.01084202676663
 10
26.96133681720379
 20
1.781006231223516
 10
26.94042133354843
 20
1.762663844345732
  0
LINE
  5
30D5
330
1E
100
AcDbEntity
  8
HIDDEN
100
AcDbLine
 10
26.96133681720379
 20
1.781006231223516
 30
0.0
 11
27.04316124890936
 21
1.775643174626646
 31
0.0
  0
LINE
  5
30D6
330
1E
100
AcDbEntity
  8
HIDDEN
100
AcDbLine
 10
27.05822548282815
 20
2.005478970169759
 30
0.0
 11
26.97640105112258
 21
2.01084202676663
 31
0.0
  0
LINE
  5
30D7
330
1E
100
AcDbEntity
  8
HIDDEN
100
AcDbLine
 10
27.23366883501511
 20
1.943762008896014
 30
0.0
 11
27.2638012330001
 21
1.976972638570535
 31
0.0
  0
LINE
  5
30D8
330
1E
100
AcDbEntity
  8
HIDDEN
100
AcDbLine
 10
25.64430223661821
 20
1.762433596160873
 30
0.0
 11
25.61160067200313
 21
1.263504134541571
 31
0.0
  0
LINE
  5
30D9
330
1E
100
AcDbEntity
  8
HIDDEN
100
AcDbLine
 10
25.52455916582957
 20
1.77028197166849
 30
0.0
 11
25.4918576012145
 21
1.271352510049188
 31
0.0
  0
LWPOLYLINE
  5
30DA
330
1E
100
AcDbEntity
  8
OBJECT
100
AcDbPolyline
 90
        3
 70
     0
 43
0.0
 10
23.12207641371932
 20
1.256311411154792
 10
25.32728406192735
 20
1.11177446566459
 42
0.3178372451957825
 10
25.35681583696353
 20
1.129881764281778
  0
LINE
  5
30DB
330
1E
100
AcDbEntity
  8
HIDDEN
100
AcDbLine
 10
25.43790597142046
 20
1.335017426938849
 30
0.0
 11
25.67340067730478
 21
1.319582288440537
 31
0.0
  0
LWPOLYLINE
  5
30DC
330
1E
100
AcDbEntity
  8
HIDDEN
100
AcDbPolyline
 90
        4
 70
     0
 43
0.0
 10
23.8384726133473
 20
1.319592347272296
 10
23.84054316706814
 20
1.549950140297175
 10
23.64097138242042
 20
1.563030766143201
 10
23.61295649669538
 20
1.334373454478312
  0
LINE
  5
30DD
330
1E
100
AcDbEntity
  8
HIDDEN
100
AcDbLine
 10
23.78166949059706
 20
1.553808924921751
 30
0.0
 11
23.76662677087413
 21
1.324301372576867
 31
0.0
  0
LINE
  5
30DE
330
1E
100
AcDbEntity
  8
HIDDEN
100
AcDbLine
 10
23.6998450588915
 20
1.559171981518625
 30
0.0
 11
23.68480233916856
 21
1.329664429173741
 31
0.0
  0
LWPOLYLINE
  5
30DF
330
1E
100
AcDbEntity
  8
HIDDEN
100
AcDbPolyline
 90
        7
 70
     0
 43
0.0
 10
25.52944881608905
 20
1.855143869077155
 10
25.55036429974441
 20
1.873486255954938
 10
25.5654285336632
 20
2.103322051498045
 10
25.60788893060092
 20
2.124261202035162
 10
25.64725296536877
 20
2.097958994901182
 10
25.63218873144998
 20
1.868123199358068
 10
25.65053111832785
 20
1.847207715702781
  0
LWPOLYLINE
  5
30E0
330
1E
100
AcDbEntity
  8
HIDDEN
100
AcDbPolyline
 90
        4
 70
     0
 43
0.0
 10
25.7072899540533
 20
2.061955301299962
 10
25.68778014168583
 20
1.844766285725414
 10
25.49219979273106
 20
1.857585299054521
 10
25.50118529094873
 20
2.075464114622205
  0
LINE
  5
30E1
330
1E
100
AcDbEntity
  8
HIDDEN
100
AcDbLine
 10
25.5654285336632
 20
2.103322051498045
 30
0.0
 11
25.64725296536877
 21
2.097958994901182
 31
0.0
  0
LINE
  5
30E2
330
1E
100
AcDbEntity
  8
HIDDEN
100
AcDbLine
 10
25.55036429974441
 20
1.873486255954938
 30
0.0
 11
25.63218873144998
 21
1.868123199358068
 31
0.0
  0
LINE
  5
30E3
330
1E
100
AcDbEntity
  8
HIDDEN
100
AcDbLine
 10
21.53768359901615
 20
2.317207118310991
 30
0.0
 11
21.52398619983453
 21
1.270862667291284
 31
0.0
  0
LWPOLYLINE
  5
30E4
330
1E
100
AcDbEntity
  8
HIDDEN
100
AcDbPolyline
 90
        8
 70
     0
 43
0.0
 10
21.56723724421229
 20
1.26802784407239
 10
21.5711614319661
 20
1.327899379466709
 10
21.63395929619098
 20
1.383912130236451
 10
21.68724458435356
 20
1.896524648398928
 10
21.88353393701976
 20
1.883659164511422
 10
21.86945400207529
 20
1.368476991738136
 10
21.92440349079257
 20
1.304746671719238
 10
21.92047930303875
 20
1.244875136324919
  0
LINE
  5
30E5
330
1E
100
AcDbEntity
  8
HIDDEN
100
AcDbLine
 10
21.84526079608098
 20
1.886167718701367
 30
0.0
 11
21.80896205935825
 21
1.332356016303934
 31
0.0
  0
LINE
  5
30E6
330
1E
100
AcDbEntity
  8
HIDDEN
100
AcDbLine
 10
21.72551772529235
 20
1.894016094208984
 30
0.0
 11
21.68921898856961
 21
1.340204391811552
 31
0.0
  0
LINE
  5
30E7
330
1E
100
AcDbEntity
  8
HIDDEN
100
AcDbLine
 10
21.63395929619098
 20
1.383912130236451
 30
0.0
 11
21.86945400207529
 21
1.368476991738136
 31
0.0
  0
LWPOLYLINE
  5
30E8
330
1E
100
AcDbEntity
  8
HIDDEN
100
AcDbPolyline
 90
        4
 70
     0
 43
0.0
 10
21.60240146828025
 20
1.200583590457293
 10
21.61188492201862
 20
1.345273134326886
 10
21.88629612590924
 20
1.327287273788597
 10
21.87681267217087
 20
1.182597729919004
  0
LWPOLYLINE
  5
30E9
330
1E
100
AcDbEntity
  8
HIDDEN
100
AcDbPolyline
 90
        4
 70
     0
 43
0.0
 10
22.74281592769609
 20
1.10078323597243
 10
22.74445100592684
 20
1.125729709053393
 10
21.4871487626462
 20
1.208137651883374
 10
21.48551368441544
 20
1.183191178802411
  0
LINE
  5
30EA
330
1E
100
AcDbEntity
  8
HIDDEN
100
AcDbLine
 10
21.52398619983453
 20
1.270862667291284
 30
0.0
 11
22.95890733145165
 21
1.176812967458337
 31
0.0
  0
LINE
  5
30EB
330
1E
100
AcDbEntity
  8
OBJECT
100
AcDbLine
 10
22.79719175542515
 20
1.074169905501049
 30
0.0
 11
22.79869602739745
 21
1.097120660735543
 31
0.0
  0
LINE
  5
30EC
330
1E
100
AcDbEntity
  8
OBJECT
100
AcDbLine
 10
22.92092626190674
 20
1.066059917476513
 30
0.0
 11
22.92243053387904
 21
1.089010672711006
 31
0.0
  0
ARC
  5
30ED
330
1E
100
AcDbEntity
  8
OBJECT
100
AcDbCircle
 10
22.86124647819087
 20
1.10348924709711
 30
0.0
 40
0.0704459459459456
100
AcDbArc
 50
204.5946754002644
 51
327.9053245997361
  0
LINE
  5
30EE
330
1E
100
AcDbEntity
  8
OBJECT
100
AcDbLine
 10
22.79719175542515
 20
1.074169905501049
 30
0.0
 11
22.92092626190674
 21
1.066059917476513
 31
0.0
  0
LINE
  5
30EF
330
1E
100
AcDbEntity
  8
HIDDEN
100
AcDbLine
 10
22.59820880763605
 20
1.631377036188704
 30
0.0
 11
22.57008546206709
 21
1.202297699196096
 31
0.0
  0
LINE
  5
30F0
330
1E
100
AcDbEntity
  8
HIDDEN
100
AcDbLine
 10
22.51638437593049
 20
1.636740092785577
 30
0.0
 11
22.48826103036152
 21
1.20766075579297
 31
0.0
  0
LWPOLYLINE
  5
30F1
330
1E
100
AcDbEntity
  8
HIDDEN
100
AcDbPolyline
 90
        4
 70
     0
 43
0.0
 10
22.65390561161912
 20
1.196803836340764
 10
22.65708248410712
 20
1.627518251564127
 10
22.4575106994594
 20
1.640598877410154
 10
22.40444088080947
 20
1.213154618648301
  0
LWPOLYLINE
  5
30F2
330
1E
100
AcDbEntity
  8
HIDDEN
100
AcDbPolyline
 90
        4
 70
     0
 43
0.0
 10
21.96533944566775
 20
2.307215695302796
 10
21.94580917954107
 20
2.090028020338452
 10
21.7502288305863
 20
2.102847033667559
 10
21.75923478256318
 20
2.320724508625035
  0
LWPOLYLINE
  5
30F3
330
1E
100
AcDbEntity
  8
HIDDEN
100
AcDbPolyline
 90
        4
 70
     0
 43
0.0
 10
21.92145961498997
 20
2.310091731353162
 10
21.88337564455174
 20
1.886675976560338
 10
21.68779529559697
 20
1.899494989889445
 10
21.7060154601007
 20
2.340503615451398
  0
LWPOLYLINE
  5
30F4
330
1E
100
AcDbEntity
  8
HIDDEN
100
AcDbPolyline
 90
        7
 70
     0
 43
0.0
 10
21.84612662119376
 20
1.889117406537705
 10
21.82778423431588
 20
1.910032890192992
 10
21.8559290940807
 20
2.339440470383829
 10
21.81656505931285
 20
2.365742677517809
 10
21.77410466237513
 20
2.344803526980699
 10
21.74595980261032
 20
1.915395946789862
 10
21.72504431895495
 20
1.897053559912079
  0
LWPOLYLINE
  5
30F5
330
1E
100
AcDbEntity
  8
HIDDEN
100
AcDbPolyline
 90
        7
 70
     0
 43
0.0
 10
21.78747785394429
 20
2.100405603690193
 10
21.80839333759965
 20
2.118747990567976
 10
21.82345757151844
 20
2.34858378611109
 10
21.86591796845615
 20
2.3695229366482
 10
21.90528200322401
 20
2.343220729514213
 10
21.89021776930522
 20
2.113384933971106
 10
21.90856015618309
 20
2.092469450315819
  0
LINE
  5
30F6
330
1E
100
AcDbEntity
  8
HIDDEN
100
AcDbLine
 10
21.82778423431588
 20
1.910032890192992
 30
0.0
 11
21.74595980261032
 21
1.915395946789862
 31
0.0
  0
LINE
  5
30F7
330
1E
100
AcDbEntity
  8
HIDDEN
100
AcDbLine
 10
21.8559290940807
 20
2.339440470383829
 30
0.0
 11
21.77410466237513
 21
2.344803526980699
 31
0.0
  0
LINE
  5
30F8
330
1E
100
AcDbEntity
  8
HIDDEN
100
AcDbLine
 10
21.90528200322401
 20
2.343220729514213
 30
0.0
 11
21.82345757151844
 21
2.34858378611109
 31
0.0
  0
LINE
  5
30F9
330
1E
100
AcDbEntity
  8
HIDDEN
100
AcDbLine
 10
21.89021776930522
 20
2.113384933971106
 30
0.0
 11
21.80839333759965
 21
2.118747990567976
 31
0.0
  0
LINE
  5
30FA
330
1E
100
AcDbEntity
  8
HIDDEN
100
AcDbLine
 10
21.53768359901615
 20
2.317207118310991
 30
0.0
 11
21.51214239945278
 21
2.35395627545308
 31
0.0
  0
DIMENSION
  5
30FB
330
1E
100
AcDbEntity
  8
DIM
100
AcDbDimension
  2
*D47
 10
26.84986548763915
 20
2.144403814617527
 30
0.0
 11
20.35411665619178
 21
1.800776842156535
 31
0.0
 70
    34
  1
<> REF.
 71
     5
 42
0.0654498469497864
  3
23NSTD
100
AcDb2LineAngularDimension
 13
21.08304883853218
 23
1.033043301151165
 33
0.0
 14
27.50724585009303
 24
1.033043301151165
 34
0.0
 15
21.46043500793874
 25
2.497645750859076
 35
0.0
 16
20.36388643073851
 26
2.056545912788747
 36
0.0
  0
TEXT
  5
3156
330
1E
100
AcDbEntity
  8
TEXT
100
AcDbText
 10
0.7192921915587363
 20
15.34300658111487
 30
0.0
 40
0.218
  1
MATERIAL: HIGH IMPACT ABS WITH UL94V-0
 41
0.75
100
AcDbText
  0
TEXT
  5
3157
330
1E
100
AcDbEntity
  8
TEXT
100
AcDbText
 10
0.7192921915587363
 20
14.97900658111487
 30
0.0
 40
0.218
  1
   FLAMMABILITY RATING
 41
0.75
100
AcDbText
  0
TEXT
  5
3158
330
1E
100
AcDbEntity
  8
TEXT
100
AcDbText
 10
0.7192921915587363
 20
14.46389233992148
 30
0.0
 40
0.218
  1
FINISH: TEXTURED BLACK
 41
0.75
100
AcDbText
  0
TEXT
  5
3159
330
1E
100
AcDbEntity
  8
TEXT
100
AcDbText
 10
21.0389458709053
 20
15.46304000577727
 30
0.0
 40
0.218
  1
ALL DIMENSIONS HAVE %%P0.015 TOLERANCE
 41
0.75
100
AcDbText
  0
TEXT
  5
315A
330
1E
100
AcDbEntity
  8
TEXT
100
AcDbText
 10
21.0389458709053
 20
14.54614717237794
 30
0.0
 40
0.218
  1
SUPPLIED FOR ASSEMBLY
 41
0.75
100
AcDbText
  0
TEXT
  5
315B
330
1E
100
AcDbEntity
  8
TEXT
100
AcDbText
 10
21.0389458709053
 20
14.91014717237794
 30
0.0
 40
0.218
  1
FOUR (4) M3 x 3/4" LG. SCREWS
 41
0.75
100
AcDbText
  0
TEXT
  5
315C
330
1E
100
AcDbEntity
  8
TEXT
100
AcDbText
 10
20.40273792097472
 20
13.16326848374681
 30
0.0
 40
0.218
  1
  OR #4 STD. SHEET METAL SCREWS x 3/16" LG.
 41
0.75
100
AcDbText
  0
TEXT
  5
315D
330
1E
100
AcDbEntity
  8
TEXT
100
AcDbText
 10
20.40273792097472
 20
13.52726848374682
 30
0.0
 40
0.218
  1
NOTE: MOUNTING BOSSES USE EITHER M2.5 METRIC
 41
0.75
100
AcDbText
  0
TEXT
  5
315E
330
1E
100
AcDbEntity
  8
TEXT
100
AcDbText
 10
20.40273792097472
 20
12.79926848374681
 30
0.0
 40
0.218
  1
  (NOT SUPPLIED)
 41
0.75
100
AcDbText
  0
TEXT
  5
32F7
330
1E
100
AcDbEntity
  8
TEXT
100
AcDbText
 10
3.559500000000002
 20
16.27474999999999
 30
0.0
 40
0.312
  1
HAND HELD ENCLOSURE (STYLE M)
 41
0.75
 72
     4
 11
6.835500000000003
 21
16.43074999999999
 31
0.0
100
AcDbText
  0
TEXT
  5
32F8
330
1E
100
AcDbEntity
  8
TEXT
100
AcDbText
 10
18.34449224141875
 20
16.27474999999999
 30
0.0
 40
0.312
  1
HH-3600
 41
0.75
 72
     4
 11
19.08549224141875
 21
16.43074999999999
 31
0.0
100
AcDbText
  0
TEXT
  5
32F9
330
1E
100
AcDbEntity
  8
TEXT
100
AcDbText
 10
1.411261690036392
 20
3.070768677066759
 30
0.0
 40
0.218
  1
%%uINSIDE VIEW OF BOTTOM
 41
0.75
 72
     1
 11
3.076236690036392
 21
3.070768677066759
 31
0.0
100
AcDbText
  0
TEXT
  5
32FB
330
1E
100
AcDbEntity
  8
TEXT
100
AcDbText
 10
24.66327169310195
 20
3.596288139321423
 30
0.0
 40
0.218
  1
%%uINSIDE VIEW OF TOP
 41
0.75
 72
     1
 11
26.08299669310195
 21
3.596288139321423
 31
0.0
100
AcDbText
  0
ENDSEC
  0
SECTION
  2
OBJECTS
  0
DICTIONARY
  5
C
330
0
100
AcDbDictionary
281
     1
  3
ACAD_GROUP
350
D
  3
ACAD_LAYOUT
350
19
  3
ACAD_MLINESTYLE
350
16
  3
ACAD_PLOTSETTINGS
350
18
  3
ACAD_PLOTSTYLENAME
350
E
  3
AcadDim
350
3093
  3
AcDbVariableDictionary
350
23BC
  0
DICTIONARY
  5
D
102
{ACAD_REACTORS
330
C
102
}
330
C
100
AcDbDictionary
281
     1
  0
DICTIONARY
  5
19
102
{ACAD_REACTORS
330
C
102
}
330
C
100
AcDbDictionary
281
     1
  3
Layout1
350
1D
  3
Model
350
21
  0
DICTIONARY
  5
16
102
{ACAD_REACTORS
330
C
102
}
330
C
100
AcDbDictionary
281
     1
  3
Standard
350
17
  0
DICTIONARY
  5
18
102
{ACAD_REACTORS
330
C
102
}
330
C
100
AcDbDictionary
281
     1
  0
ACDBDICTIONARYWDFLT
  5
E
102
{ACAD_REACTORS
330
C
102
}
330
C
100
AcDbDictionary
281
     1
  3
Normal
350
F
100
AcDbDictionaryWithDefault
340
F
  0
XRECORD
  5
3093
102
{ACAD_REACTORS
330
C
102
}
330
C
100
AcDbXrecord
280
     1
 90
   990106
  3

 60
     0
 61
     0
 62
     1
 63
     1
 64
     0
 65
     0
 66
     0
 67
     3
 68
     1
 69
     0
 70
     0
 71
     0
 72
     0
 40
0.0
170
     2
340
309B
  0
DICTIONARY
  5
23BC
102
{ACAD_REACTORS
330
C
102
}
330
C
100
AcDbDictionary
281
     1
  3
SORTENTS
350
23BD
  0
LAYOUT
  5
1D
102
{ACAD_REACTORS
330
19
102
}
330
19
100
AcDbPlotSettings
  1

  2
C:\Program Files\ACAD2000\plotters\DWF ePlot.pc3
  4

  6

 40
0.0
 41
0.0
 42
0.0
 43
0.0
 44
0.0
 45
0.0
 46
0.0
 47
0.0
 48
0.0
 49
0.0
140
0.0
141
0.0
142
1.0
143
1.0
 70
   688
 72
     0
 73
     0
 74
     5
  7
monochrome.ctb
 75
    16
147
1.0
148
0.0
149
0.0
100
AcDbLayout
  1
Layout1
 70
     1
 71
     1
 10
0.0
 20
0.0
 11
12.0
 21
9.0
 12
0.0
 22
0.0
 32
0.0
 14
1.000000000000000E+20
 24
1.000000000000000E+20
 34
1.000000000000000E+20
 15
-1.000000000000000E+20
 25
-1.000000000000000E+20
 35
-1.000000000000000E+20
146
0.0
 13
0.0
 23
0.0
 33
0.0
 16
1.0
 26
0.0
 36
0.0
 17
0.0
 27
1.0
 37
0.0
 76
     0
330
1A
  0
LAYOUT
  5
21
102
{ACAD_REACTORS
330
19
102
}
330
19
100
AcDbPlotSettings
  1

  2
RICOH1060
  4
Letter
  6

 40
7.143749713897705
 41
5.027085304260253
 42
7.14373779296875
 43
5.027069091796875
 44
215.8999938964843
 45
279.3999938964843
 46
81.026
 47
84.836
 48
-3.453485570439347
 49
8.673451752430352
140
0.4734988782753149
141
10.23606341808626
142
1.0
143
1.0
 70
 11956
 72
     0
 73
     1
 74
     4
  7
monochrome.ctb
 75
    16
147
1.0
148
87.71853348915943
149
-220.3056745117309
100
AcDbLayout
  1
Model
 70
     1
 71
     0
 10
0.0
 20
0.0
 11
12.0
 21
9.0
 12
0.0
 22
0.0
 32
0.0
 14
0.0
 24
0.0
 34
0.0
 15
0.0
 25
0.0
 35
0.0
146
0.0
 13
0.0
 23
0.0
 33
0.0
 16
1.0
 26
0.0
 36
0.0
 17
0.0
 27
1.0
 37
0.0
 76
     0
330
1E
  0
MLINESTYLE
  5
17
102
{ACAD_REACTORS
330
16
102
}
330
16
100
AcDbMlineStyle
  2
STANDARD
 70
     0
  3

 62
   256
 51
90.0
 52
90.0
 71
     2
 49
0.5
 62
   256
  6
BYLAYER
 49
-0.5
 62
   256
  6
BYLAYER
  0
ACDBPLACEHOLDER
  5
F
102
{ACAD_REACTORS
330
E
102
}
330
E
  0
DICTIONARYVAR
  5
23BD
102
{ACAD_REACTORS
330
23BC
102
}
330
23BC
100
DictionaryVariables
280
     0
  1
96
  0
ENDSEC
  0
EOF
