  0
SECTION
  2
HEADER
  9
$ACADVER
  1
AC1015
  9
$ACADMAINTVER
 70
     6
  9
$DWGCODEPAGE
  3
ANSI_1252
  9
$INSBASE
 10
0.0
 20
0.0
 30
0.0
  9
$EXTMIN
 10
-0.0004447597666228
 20
-0.000657069617489
 30
-0.0015258207003583
  9
$EXTMAX
 10
14.57544482763675
 20
21.53315716988598
 30
0.0000000349246037
  9
$LIMMIN
 10
0.0
 20
0.0
  9
$LIMMAX
 10
11.0
 20
8.5
  9
$ORTHOMODE
 70
     1
  9
$REGENMODE
 70
     1
  9
$FILLMODE
 70
     1
  9
$QTEXTMODE
 70
     0
  9
$MIRRTEXT
 70
     0
  9
$LTSCALE
 40
0.25
  9
$ATTMODE
 70
     1
  9
$TEXTSIZE
 40
0.156
  9
$TRACEWID
 40
0.05
  9
$TEXTSTYLE
  7
TXT
  9
$CLAYER
  8
DIM
  9
$CELTYPE
  6
ByLayer
  9
$CECOLOR
 62
   256
  9
$CELTSCALE
 40
1.0
  9
$DISPSILH
 70
     0
  9
$DIMSCALE
 40
1.375
  9
$DIMASZ
 40
0.18
  9
$DIMEXO
 40
0.063
  9
$DIMDLI
 40
0.281
  9
$DIMRND
 40
0.0
  9
$DIMDLE
 40
0.0
  9
$DIMEXE
 40
0.093
  9
$DIMTP
 40
0.0
  9
$DIMTM
 40
0.0
  9
$DIMTXT
 40
0.125
  9
$DIMCEN
 40
0.09
  9
$DIMTSZ
 40
0.0
  9
$DIMTOL
 70
     0
  9
$DIMLIM
 70
     0
  9
$DIMTIH
 70
     1
  9
$DIMTOH
 70
     1
  9
$DIMSE1
 70
     0
  9
$DIMSE2
 70
     0
  9
$DIMTAD
 70
     0
  9
$DIMZIN
 70
     0
  9
$DIMBLK
  1

  9
$DIMASO
 70
     1
  9
$DIMSHO
 70
     1
  9
$DIMPOST
  1

  9
$DIMAPOST
  1

  9
$DIMALT
 70
     0
  9
$DIMALTD
 70
     2
  9
$DIMALTF
 40
25.4
  9
$DIMLFAC
 40
1.0
  9
$DIMTOFL
 70
     0
  9
$DIMTVP
 40
0.0
  9
$DIMTIX
 70
     0
  9
$DIMSOXD
 70
     0
  9
$DIMSAH
 70
     0
  9
$DIMBLK1
  1

  9
$DIMBLK2
  1

  9
$DIMSTYLE
  2
23NSTD
  9
$DIMCLRD
 70
     0
  9
$DIMCLRE
 70
     0
  9
$DIMCLRT
 70
     0
  9
$DIMTFAC
 40
1.0
  9
$DIMGAP
 40
0.09
  9
$DIMJUST
 70
     0
  9
$DIMSD1
 70
     0
  9
$DIMSD2
 70
     0
  9
$DIMTOLJ
 70
     1
  9
$DIMTZIN
 70
     0
  9
$DIMALTZ
 70
     0
  9
$DIMALTTZ
 70
     0
  9
$DIMUPT
 70
     0
  9
$DIMDEC
 70
     3
  9
$DIMTDEC
 70
     3
  9
$DIMALTU
 70
     2
  9
$DIMALTTD
 70
     2
  9
$DIMTXSTY
  7
TXT
  9
$DIMAUNIT
 70
     0
  9
$DIMADEC
 70
     0
  9
$DIMALTRND
 40
0.0
  9
$DIMAZIN
 70
     0
  9
$DIMDSEP
 70
    46
  9
$DIMATFIT
 70
     0
  9
$DIMFRAC
 70
     0
  9
$DIMLDRBLK
  1

  9
$DIMLUNIT
 70
     2
  9
$DIMLWD
 70
    -2
  9
$DIMLWE
 70
    -2
  9
$DIMTMOVE
 70
     0
  9
$LUNITS
 70
     2
  9
$LUPREC
 70
     3
  9
$SKETCHINC
 40
0.1
  9
$FILLETRAD
 40
0.156
  9
$AUNITS
 70
     0
  9
$AUPREC
 70
     0
  9
$MENU
  1
acad
  9
$ELEVATION
 40
0.0
  9
$PELEVATION
 40
0.0
  9
$THICKNESS
 40
0.0
  9
$LIMCHECK
 70
     0
  9
$CHAMFERA
 40
0.0
  9
$CHAMFERB
 40
0.0
  9
$CHAMFERC
 40
0.0
  9
$CHAMFERD
 40
0.0
  9
$SKPOLY
 70
     0
  9
$TDCREATE
 40
2454222.374144050
  9
$TDUCREATE
 40
2454222.582477384
  9
$TDUPDATE
 40
2454847.483265150
  9
$TDUUPDATE
 40
2454847.691598483
  9
$TDINDWG
 40
0.7343690278
  9
$TDUSRTIMER
 40
0.7343688542
  9
$USRTIMER
 70
     1
  9
$ANGBASE
 50
0.0
  9
$ANGDIR
 70
     0
  9
$PDMODE
 70
     0
  9
$PDSIZE
 40
0.0
  9
$PLINEWID
 40
0.0
  9
$SPLFRAME
 70
     0
  9
$SPLINETYPE
 70
     6
  9
$SPLINESEGS
 70
     8
  9
$HANDSEED
  5
5739
  9
$SURFTAB1
 70
     6
  9
$SURFTAB2
 70
     6
  9
$SURFTYPE
 70
     6
  9
$SURFU
 70
     6
  9
$SURFV
 70
     6
  9
$UCSBASE
  2

  9
$UCSNAME
  2

  9
$UCSORG
 10
0.0
 20
0.0
 30
0.0
  9
$UCSXDIR
 10
1.0
 20
0.0
 30
0.0
  9
$UCSYDIR
 10
0.0
 20
1.0
 30
0.0
  9
$UCSORTHOREF
  2

  9
$UCSORTHOVIEW
 70
     0
  9
$UCSORGTOP
 10
0.0
 20
0.0
 30
0.0
  9
$UCSORGBOTTOM
 10
0.0
 20
0.0
 30
0.0
  9
$UCSORGLEFT
 10
0.0
 20
0.0
 30
0.0
  9
$UCSORGRIGHT
 10
0.0
 20
0.0
 30
0.0
  9
$UCSORGFRONT
 10
0.0
 20
0.0
 30
0.0
  9
$UCSORGBACK
 10
0.0
 20
0.0
 30
0.0
  9
$PUCSBASE
  2

  9
$PUCSNAME
  2

  9
$PUCSORG
 10
0.0
 20
0.0
 30
0.0
  9
$PUCSXDIR
 10
1.0
 20
0.0
 30
0.0
  9
$PUCSYDIR
 10
0.0
 20
1.0
 30
0.0
  9
$PUCSORTHOREF
  2

  9
$PUCSORTHOVIEW
 70
     0
  9
$PUCSORGTOP
 10
0.0
 20
0.0
 30
0.0
  9
$PUCSORGBOTTOM
 10
0.0
 20
0.0
 30
0.0
  9
$PUCSORGLEFT
 10
0.0
 20
0.0
 30
0.0
  9
$PUCSORGRIGHT
 10
0.0
 20
0.0
 30
0.0
  9
$PUCSORGFRONT
 10
0.0
 20
0.0
 30
0.0
  9
$PUCSORGBACK
 10
0.0
 20
0.0
 30
0.0
  9
$USERI1
 70
     0
  9
$USERI2
 70
     0
  9
$USERI3
 70
     0
  9
$USERI4
 70
     0
  9
$USERI5
 70
     0
  9
$USERR1
 40
0.0
  9
$USERR2
 40
0.0
  9
$USERR3
 40
0.0
  9
$USERR4
 40
0.0
  9
$USERR5
 40
0.0
  9
$WORLDVIEW
 70
     1
  9
$SHADEDGE
 70
     3
  9
$SHADEDIF
 70
    70
  9
$TILEMODE
 70
     1
  9
$MAXACTVP
 70
    16
  9
$PINSBASE
 10
0.0
 20
0.0
 30
0.0
  9
$PLIMCHECK
 70
     0
  9
$PEXTMIN
 10
1.000000000000000E+20
 20
1.000000000000000E+20
 30
1.000000000000000E+20
  9
$PEXTMAX
 10
-1.000000000000000E+20
 20
-1.000000000000000E+20
 30
-1.000000000000000E+20
  9
$PLIMMIN
 10
0.0
 20
0.0
  9
$PLIMMAX
 10
12.0
 20
9.0
  9
$UNITMODE
 70
     0
  9
$VISRETAIN
 70
     0
  9
$PLINEGEN
 70
     0
  9
$PSLTSCALE
 70
     1
  9
$TREEDEPTH
 70
  3020
  9
$CMLSTYLE
  2
Standard
  9
$CMLJUST
 70
     0
  9
$CMLSCALE
 40
1.0
  9
$PROXYGRAPHICS
 70
     1
  9
$MEASUREMENT
 70
     0
  9
$CELWEIGHT
370
    -1
  9
$ENDCAPS
280
     0
  9
$JOINSTYLE
280
     0
  9
$LWDISPLAY
290
     0
  9
$INSUNITS
 70
     0
  9
$HYPERLINKBASE
  1

  9
$STYLESHEET
  1
monochrome.ctb
  9
$XEDIT
290
     1
  9
$CEPSNTYPE
380
     0
  9
$PSTYLEMODE
290
     1
  9
$FINGERPRINTGUID
  2
{5F9F434B-8232-11D3-80AD-00C04F604D1B}
  9
$VERSIONGUID
  2
{37B037D2-56E7-479C-B4BD-41D07B5D2311}
  9
$EXTNAMES
290
     1
  9
$PSVPSCALE
 40
0.0
  9
$OLESTARTUP
290
     0
  0
ENDSEC
  0
SECTION
  2
CLASSES
  0
CLASS
  1
ACDBDICTIONARYWDFLT
  2
AcDbDictionaryWithDefault
  3
AutoCAD 2000
 90
        0
280
     0
281
     0
  0
CLASS
  1
ACDBPLACEHOLDER
  2
AcDbPlaceHolder
  3
AutoCAD 2000
 90
        0
280
     0
281
     0
  0
CLASS
  1
LAYOUT
  2
AcDbLayout
  3
AutoCAD 2000
 90
        0
280
     0
281
     0
  0
CLASS
  1
SORTENTSTABLE
  2
AcDbSortentsTable
  3
AutoCAD 2000
 90
    32768
280
     0
281
     0
  0
CLASS
  1
DICTIONARYVAR
  2
AcDbDictionaryVar
  3
AutoCAD 2000
 90
        0
280
     0
281
     0
  0
ENDSEC
  0
SECTION
  2
TABLES
  0
TABLE
  2
VPORT
  5
8
330
0
100
AcDbSymbolTable
 70
    22
  0
VPORT
  5
5738
330
8
100
AcDbSymbolTableRecord
100
AcDbViewportTableRecord
  2
*Active
 70
     0
 10
0.0
 20
0.0
 11
1.0
 21
1.0
 12
7.287500033935065
 22
10.76625005013424
 13
0.0
 23
0.0
 14
0.125
 24
0.125
 15
0.125
 25
0.125
 16
0.0
 26
0.0
 36
1.0
 17
0.0
 27
0.0
 37
0.0
 40
21.74915238189851
 41
1.796327212020033
 42
50.0
 43
0.0
 44
0.0
 50
0.0
 51
0.0
 71
     0
 72
   100
 73
     1
 74
     0
 75
     0
 76
     0
 77
     0
 78
     0
281
     0
 65
     1
110
0.0
120
0.0
130
0.0
111
1.0
121
0.0
131
0.0
112
0.0
122
1.0
132
0.0
 79
     0
146
0.0
  0
ENDTAB
  0
TABLE
  2
LTYPE
  5
5
330
0
100
AcDbSymbolTable
 70
     6
  0
LTYPE
  5
13
330
5
100
AcDbSymbolTableRecord
100
AcDbLinetypeTableRecord
  2
ByBlock
 70
     0
  3

 72
    65
 73
     0
 40
0.0
  0
LTYPE
  5
14
330
5
100
AcDbSymbolTableRecord
100
AcDbLinetypeTableRecord
  2
ByLayer
 70
     0
  3

 72
    65
 73
     0
 40
0.0
  0
LTYPE
  5
15
330
5
100
AcDbSymbolTableRecord
100
AcDbLinetypeTableRecord
  2
CONTINUOUS
 70
     0
  3
Solid line
 72
    65
 73
     0
 40
0.0
  0
LTYPE
  5
22
330
5
100
AcDbSymbolTableRecord
100
AcDbLinetypeTableRecord
  2
HIDDEN
 70
     0
  3
_ _ _ _ _ _ _ _ _ _ _ _ _ _ _ _ _ _ _ _ _ _ _
 72
    65
 73
     2
 40
0.375
 49
0.25
 74
     0
 49
-0.125
 74
     0
  0
LTYPE
  5
23
330
5
100
AcDbSymbolTableRecord
100
AcDbLinetypeTableRecord
  2
PHANTOM
 70
     0
  3
_____ _ _ _____ _ _ _____ _ _ _____ _ _ ____
 72
    65
 73
     6
 40
2.5
 49
1.25
 74
     0
 49
-0.25
 74
     0
 49
0.25
 74
     0
 49
-0.25
 74
     0
 49
0.25
 74
     0
 49
-0.25
 74
     0
  0
LTYPE
  5
24
330
5
100
AcDbSymbolTableRecord
100
AcDbLinetypeTableRecord
  2
CENTER
 70
     0
  3
____ _ ____ _ ____ _ ____ _ ____ _ ____ _ ____
 72
    65
 73
     4
 40
2.0
 49
1.25
 74
     0
 49
-0.25
 74
     0
 49
0.25
 74
     0
 49
-0.25
 74
     0
  0
LTYPE
  5
25
330
5
100
AcDbSymbolTableRecord
100
AcDbLinetypeTableRecord
  2
HIDDEN2
 70
     0
  3
_ _ _ _ _ _ _ _ _ _ _ _ _ _ _ _ _ _ _ _ _ _ _ _
 72
    65
 73
     2
 40
0.1875
 49
0.125
 74
     0
 49
-0.0625
 74
     0
  0
LTYPE
  5
26
330
5
100
AcDbSymbolTableRecord
100
AcDbLinetypeTableRecord
  2
PHANTOM2
 70
     0
  3
___ _ _ ___ _ _ ___ _ _ ___ _ _ ___ _ _ ___ _ _
 72
    65
 73
     6
 40
1.25
 49
0.625
 74
     0
 49
-0.125
 74
     0
 49
0.125
 74
     0
 49
-0.125
 74
     0
 49
0.125
 74
     0
 49
-0.125
 74
     0
  0
ENDTAB
  0
TABLE
  2
LAYER
  5
2
330
0
100
AcDbSymbolTable
 70
    10
  0
LAYER
  5
10
330
2
100
AcDbSymbolTableRecord
100
AcDbLayerTableRecord
  2
0
 70
     0
 62
     7
  6
CONTINUOUS
370
    -3
390
F
  0
LAYER
  5
29
330
2
100
AcDbSymbolTableRecord
100
AcDbLayerTableRecord
  2
OBJECT
 70
     0
 62
     7
  6
CONTINUOUS
370
    -3
390
F
  0
LAYER
  5
2A
330
2
100
AcDbSymbolTableRecord
100
AcDbLayerTableRecord
  2
DIM
 70
     0
 62
     2
  6
CONTINUOUS
370
    -3
390
F
  0
LAYER
  5
2B
330
2
100
AcDbSymbolTableRecord
100
AcDbLayerTableRecord
  2
HIDDEN
 70
     0
 62
     6
  6
HIDDEN
370
    -3
390
F
  0
LAYER
  5
2D
330
2
100
AcDbSymbolTableRecord
100
AcDbLayerTableRecord
  2
TEXT
 70
     0
 62
     1
  6
CONTINUOUS
370
    -3
390
F
  0
LAYER
  5
2E
330
2
100
AcDbSymbolTableRecord
100
AcDbLayerTableRecord
  2
TITLE
 70
     0
 62
     8
  6
CONTINUOUS
370
    -3
390
F
  0
LAYER
  5
2F
330
2
100
AcDbSymbolTableRecord
100
AcDbLayerTableRecord
  2
CENTER
 70
     0
 62
     3
  6
CENTER
370
    -3
390
F
  0
LAYER
  5
1B54
330
2
100
AcDbSymbolTableRecord
100
AcDbLayerTableRecord
  2
Defpoints
 70
     0
 62
     7
  6
CONTINUOUS
290
     0
370
    -3
390
F
  0
ENDTAB
  0
TABLE
  2
STYLE
  5
3
330
0
100
AcDbSymbolTable
 70
     2
  0
STYLE
  5
11
330
3
100
AcDbSymbolTableRecord
100
AcDbTextStyleTableRecord
  2
TXT
 70
     0
 40
0.0
 41
0.75
 50
0.0
 71
     0
 42
0.156
  3
TXT.shx
  4

  0
ENDTAB
  0
TABLE
  2
VIEW
  5
6
330
0
100
AcDbSymbolTable
 70
     0
  0
ENDTAB
  0
TABLE
  2
UCS
  5
7
330
0
100
AcDbSymbolTable
 70
     0
  0
ENDTAB
  0
TABLE
  2
APPID
  5
9
330
0
100
AcDbSymbolTable
 70
    14
  0
APPID
  5
12
330
9
100
AcDbSymbolTableRecord
100
AcDbRegAppTableRecord
  2
ACAD
 70
     0
  0
APPID
  5
49C
330
9
100
AcDbSymbolTableRecord
100
AcDbRegAppTableRecord
  2
DCO15
 70
     0
  0
APPID
  5
49D
330
9
100
AcDbSymbolTableRecord
100
AcDbRegAppTableRecord
  2
ADE
 70
     0
  0
APPID
  5
49E
330
9
100
AcDbSymbolTableRecord
100
AcDbRegAppTableRecord
  2
ACAD_DSTYLE_DIMTEXT_FILL
 70
     0
  0
APPID
  5
49F
330
9
100
AcDbSymbolTableRecord
100
AcDbRegAppTableRecord
  2
ACAD_PSEXT
 70
     0
  0
APPID
  5
4A0
330
9
100
AcDbSymbolTableRecord
100
AcDbRegAppTableRecord
  2
AME_SOLVIEW
 70
     0
  0
APPID
  5
4A1
330
9
100
AcDbSymbolTableRecord
100
AcDbRegAppTableRecord
  2
ACAD_DSTYLE_DIMEXT_LENGTH
 70
     0
  0
APPID
  5
4A2
330
9
100
AcDbSymbolTableRecord
100
AcDbRegAppTableRecord
  2
ACAD_DSTYLE_DIMEXT_ENABLED
 70
     0
  0
APPID
  5
4A3
330
9
100
AcDbSymbolTableRecord
100
AcDbRegAppTableRecord
  2
ACAD_DSTYLE_DIM_LINETYPE
 70
     0
  0
APPID
  5
4A4
330
9
100
AcDbSymbolTableRecord
100
AcDbRegAppTableRecord
  2
ACAD_DSTYLE_DIM_EXT1_LINETYPE
 70
     0
  0
APPID
  5
4A5
330
9
100
AcDbSymbolTableRecord
100
AcDbRegAppTableRecord
  2
ACAD_DSTYLE_DIM_EXT2_LINETYPE
 70
     0
  0
APPID
  5
4A6
330
9
100
AcDbSymbolTableRecord
100
AcDbRegAppTableRecord
  2
ACAD_DSTYLE_DIMJOGGED_JOGANGLE_SYMBOL
 70
     0
  0
APPID
  5
4A7
330
9
100
AcDbSymbolTableRecord
100
AcDbRegAppTableRecord
  2
ACAD_DSTYLE_DIMARC_LENGTH_SYMBOL
 70
     0
  0
APPID
  5
33DD
330
9
100
AcDbSymbolTableRecord
100
AcDbRegAppTableRecord
  2
ACAD_EXEMPT_FROM_CAD_STANDARDS
 70
     0
  0
ENDTAB
  0
TABLE
  2
DIMSTYLE
  5
A
330
0
100
AcDbSymbolTable
 70
     2
100
AcDbDimStyleTable
 71
     2
340
39
340
38
  0
DIMSTYLE
105
38
102
{ACAD_REACTORS
330
40DF
330
411D
330
412B
330
414D
330
4D6B
330
4D83
330
4DB4
330
4E8B
330
4EA3
330
2421
330
249C
330
531A
330
5336
330
534E
330
537E
330
53C7
330
53AB
330
5328
330
53E6
330
53FE
330
540D
330
4D5D
330
548A
330
568F
330
56A7
330
56C1
330
56D0
330
56DE
102
}
330
A
100
AcDbSymbolTableRecord
100
AcDbDimStyleTableRecord
  2
23NSTD
 70
     0
 40
1.375
 42
0.063
 43
0.281
 44
0.093
140
0.125
271
     3
272
     3
289
     0
340
11
  0
DIMSTYLE
105
39
102
{ACAD_REACTORS
330
5366
330
53B9
330
547C
330
543A
330
55C4
330
40FB
102
}
330
A
100
AcDbSymbolTableRecord
100
AcDbDimStyleTableRecord
  2
23NSTDI
 70
     0
 40
1.375
 42
0.063
 43
0.281
 44
0.093
140
0.125
174
     1
271
     3
272
     3
289
     0
340
11
  0
ENDTAB
  0
TABLE
  2
BLOCK_RECORD
  5
1
330
0
100
AcDbSymbolTable
 70
    33
  0
BLOCK_RECORD
  5
1E
330
1
100
AcDbSymbolTableRecord
100
AcDbBlockTableRecord
  2
*Model_Space
340
21
  0
BLOCK_RECORD
  5
1A
330
1
100
AcDbSymbolTableRecord
100
AcDbBlockTableRecord
  2
*Paper_Space
340
1D
  0
BLOCK_RECORD
  5
1B36
330
1
100
AcDbSymbolTableRecord
100
AcDbBlockTableRecord
  2
HB
340
0
102
{BLKREFS
331
1BB4
102
}
  0
BLOCK_RECORD
  5
40E0
330
1
100
AcDbSymbolTableRecord
100
AcDbBlockTableRecord
  2
*D1
340
0
  0
BLOCK_RECORD
  5
40FC
330
1
100
AcDbSymbolTableRecord
100
AcDbBlockTableRecord
  2
*D2
340
0
  0
BLOCK_RECORD
  5
411E
330
1
100
AcDbSymbolTableRecord
100
AcDbBlockTableRecord
  2
*D3
340
0
  0
BLOCK_RECORD
  5
412C
330
1
100
AcDbSymbolTableRecord
100
AcDbBlockTableRecord
  2
*D4
340
0
  0
BLOCK_RECORD
  5
414E
330
1
100
AcDbSymbolTableRecord
100
AcDbBlockTableRecord
  2
*D5
340
0
  0
BLOCK_RECORD
  5
4D6C
330
1
100
AcDbSymbolTableRecord
100
AcDbBlockTableRecord
  2
*D7
340
0
  0
BLOCK_RECORD
  5
4D84
330
1
100
AcDbSymbolTableRecord
100
AcDbBlockTableRecord
  2
*D8
340
0
  0
BLOCK_RECORD
  5
4DB5
330
1
100
AcDbSymbolTableRecord
100
AcDbBlockTableRecord
  2
*D9
340
0
  0
BLOCK_RECORD
  5
4E8C
330
1
100
AcDbSymbolTableRecord
100
AcDbBlockTableRecord
  2
*D10
340
0
  0
BLOCK_RECORD
  5
4EA4
330
1
100
AcDbSymbolTableRecord
100
AcDbBlockTableRecord
  2
*D11
340
0
  0
BLOCK_RECORD
  5
531B
330
1
100
AcDbSymbolTableRecord
100
AcDbBlockTableRecord
  2
*D12
340
0
  0
BLOCK_RECORD
  5
5337
330
1
100
AcDbSymbolTableRecord
100
AcDbBlockTableRecord
  2
*D14
340
0
  0
BLOCK_RECORD
  5
534F
330
1
100
AcDbSymbolTableRecord
100
AcDbBlockTableRecord
  2
*D15
340
0
  0
BLOCK_RECORD
  5
53BA
330
1
100
AcDbSymbolTableRecord
100
AcDbBlockTableRecord
  2
*D19
340
0
  0
BLOCK_RECORD
  5
53E7
330
1
100
AcDbSymbolTableRecord
100
AcDbBlockTableRecord
  2
*D21
340
0
  0
BLOCK_RECORD
  5
53FF
330
1
100
AcDbSymbolTableRecord
100
AcDbBlockTableRecord
  2
*D22
340
0
  0
BLOCK_RECORD
  5
540E
330
1
100
AcDbSymbolTableRecord
100
AcDbBlockTableRecord
  2
*D23
340
0
  0
BLOCK_RECORD
  5
547D
330
1
100
AcDbSymbolTableRecord
100
AcDbBlockTableRecord
  2
*D25
340
0
  0
BLOCK_RECORD
  5
548B
330
1
100
AcDbSymbolTableRecord
100
AcDbBlockTableRecord
  2
*D26
340
0
  0
BLOCK_RECORD
  5
55C5
330
1
100
AcDbSymbolTableRecord
100
AcDbBlockTableRecord
  2
*D27
340
0
  0
BLOCK_RECORD
  5
56A8
330
1
100
AcDbSymbolTableRecord
100
AcDbBlockTableRecord
  2
*D29
340
0
  0
BLOCK_RECORD
  5
56C2
330
1
100
AcDbSymbolTableRecord
100
AcDbBlockTableRecord
  2
*D30
340
0
  0
BLOCK_RECORD
  5
56D1
330
1
100
AcDbSymbolTableRecord
100
AcDbBlockTableRecord
  2
*D31
340
0
  0
BLOCK_RECORD
  5
56DF
330
1
100
AcDbSymbolTableRecord
100
AcDbBlockTableRecord
  2
*D32
340
0
  0
ENDTAB
  0
ENDSEC
  0
SECTION
  2
BLOCKS
  0
BLOCK
  5
33
330
1E
100
AcDbEntity
  8
0
100
AcDbBlockBegin
  2
*Model_Space
 70
     0
 10
0.0
 20
0.0
 30
0.0
  3
*Model_Space
  1

  0
ENDBLK
  5
34
330
1E
100
AcDbEntity
  8
0
100
AcDbBlockEnd
  0
BLOCK
  5
31
330
1A
100
AcDbEntity
 67
     1
  8
0
100
AcDbBlockBegin
  2
*Paper_Space
 70
     0
 10
0.0
 20
0.0
 30
0.0
  3
*Paper_Space
  1

  0
ENDBLK
  5
32
330
1A
100
AcDbEntity
 67
     1
  8
0
100
AcDbBlockEnd
  0
BLOCK
  5
1B4D
330
1B36
100
AcDbEntity
  8
0
100
AcDbBlockBegin
  2
HB
 70
     0
 10
0.0
 20
0.0
 30
0.0
  3
HB
  1

  0
TEXT
  5
1B37
330
1B36
100
AcDbEntity
  8
TEXT
100
AcDbText
 10
0.2078333333333365
 20
15.22007919564008
 30
0.0
 40
0.125
  1
NAME
 72
     1
 11
0.4370000000000032
 21
15.22007919564008
 31
0.0
100
AcDbText
  0
TEXT
  5
1B38
330
1B36
100
AcDbEntity
  8
TEXT
100
AcDbText
 10
0.2078333333333365
 20
15.42841252897341
 30
0.0
 40
0.125
  1
PART
 72
     1
 11
0.4370000000000032
 21
15.42841252897341
 31
0.0
100
AcDbText
  0
TEXT
  5
1B39
330
1B36
100
AcDbEntity
  8
TEXT
100
AcDbText
 10
4.561999999999998
 20
15.22007919564008
 30
0.0
 40
0.125
  1
No.
 72
     1
 11
4.686999999999998
 21
15.22007919564008
 31
0.0
100
AcDbText
  0
TEXT
  5
1B3A
330
1B36
100
AcDbEntity
  8
TEXT
100
AcDbText
 10
4.457833333333331
 20
15.42841252897341
 30
0.0
 40
0.125
  1
PART
 72
     1
 11
4.686999999999998
 21
15.42841252897341
 31
0.0
100
AcDbText
  0
LINE
  5
1B3B
330
1B36
100
AcDbEntity
  8
TITLE
100
AcDbLine
 10
5.062000000000002
 20
15.598
 30
0.0
 11
5.062000000000002
 21
15.17999999999999
 31
0.0
  0
LINE
  5
1B3C
330
1B36
100
AcDbEntity
  8
TITLE
100
AcDbLine
 10
4.312000000000002
 20
15.598
 30
0.0
 11
4.312000000000002
 21
15.17999999999999
 31
0.0
  0
LINE
  5
1B3D
330
1B36
100
AcDbEntity
  8
TITLE
100
AcDbLine
 10
4.25
 20
15.598
 30
0.0
 11
4.25
 21
15.17999999999999
 31
0.0
  0
LINE
  5
1B3E
330
1B36
100
AcDbEntity
  8
TITLE
100
AcDbLine
 10
0.8120000000000029
 20
15.17999999999999
 30
0.0
 11
0.8120000000000009
 21
15.598
 31
0.0
  0
LINE
  5
1B3F
330
1B36
100
AcDbEntity
  8
TITLE
100
AcDbLine
 10
0.0620000000000012
 20
15.17999999999999
 30
0.0
 11
10.538
 21
15.17999999999999
 31
0.0
  0
LINE
  5
1B40
330
1B36
100
AcDbEntity
  8
TITLE
100
AcDbLine
 10
10.538
 20
0.0619999999999994
 30
0.0
 11
0.0619999999999976
 21
0.0620000000000012
 31
0.0
  0
LINE
  5
1B41
330
1B36
100
AcDbEntity
  8
TITLE
100
AcDbLine
 10
10.538
 20
15.598
 30
0.0
 11
10.538
 21
0.0619999999999994
 31
0.0
  0
LINE
  5
1B42
330
1B36
100
AcDbEntity
  8
TITLE
100
AcDbLine
 10
0.0620000000000012
 20
15.598
 30
0.0
 11
10.538
 21
15.598
 31
0.0
  0
LINE
  5
1B43
330
1B36
100
AcDbEntity
  8
TITLE
100
AcDbLine
 10
0.0619999999999976
 20
0.0620000000000012
 30
0.0
 11
0.0620000000000012
 21
15.598
 31
0.0
  0
LINE
  5
1B44
330
1B36
100
AcDbEntity
  8
TITLE
100
AcDbLine
 10
0.0
 20
0.0
 30
0.0
 11
0.0
 21
15.66
 31
0.0
  0
LINE
  5
1B45
330
1B36
100
AcDbEntity
  8
TITLE
100
AcDbLine
 10
10.6
 20
-0.0000000000000018
 30
0.0
 11
0.0
 21
0.0
 31
0.0
  0
LINE
  5
1B46
330
1B36
100
AcDbEntity
  8
TITLE
100
AcDbLine
 10
10.6
 20
15.65999999999999
 30
0.0
 11
10.6
 21
-0.0000000000000018
 31
0.0
  0
LINE
  5
1B47
330
1B36
100
AcDbEntity
  8
TITLE
100
AcDbLine
 10
0.0
 20
15.66
 30
0.0
 11
10.6
 21
15.65999999999999
 31
0.0
  0
LINE
  5
1B48
330
1B36
100
AcDbEntity
  8
TITLE
100
AcDbLine
 10
8.500025722444004
 20
15.598
 30
0.0
 11
8.500025722444004
 21
15.17999999999999
 31
0.0
  0
TEXT
  5
1B49
330
1B36
100
AcDbEntity
  8
TEXT
100
AcDbText
 10
8.728692389110667
 20
15.42841252897341
 30
0.0
 40
0.125
  1
REV.
 72
     1
 11
8.937025722444001
 21
15.42841252897341
 31
0.0
100
AcDbText
  0
TEXT
  5
1B4A
330
1B36
100
AcDbEntity
  8
TEXT
100
AcDbText
 10
8.707859055777335
 20
15.22007919564008
 30
0.0
 40
0.125
  1
DATE
 72
     1
 11
8.937025722444001
 21
15.22007919564008
 31
0.0
100
AcDbText
  0
LINE
  5
1B4B
330
1B36
100
AcDbEntity
  8
TITLE
100
AcDbLine
 10
8.562025722444005
 20
15.598
 30
0.0
 11
8.562025722444005
 21
15.17999999999999
 31
0.0
  0
LINE
  5
1B4C
330
1B36
100
AcDbEntity
  8
TITLE
100
AcDbLine
 10
9.312025722444003
 20
15.598
 30
0.0
 11
9.312025722444003
 21
15.17999999999999
 31
0.0
  0
ENDBLK
  5
1B4E
330
1B36
100
AcDbEntity
  8
0
100
AcDbBlockEnd
  0
BLOCK
  5
40EB
330
40E0
100
AcDbEntity
  8
0
100
AcDbBlockBegin
  2
*D1
 70
     1
 10
0.0
 20
0.0
 30
0.0
  3
*D1
  1

  0
LINE
  5
553A
330
40E0
100
AcDbEntity
  8
DIM
 62
     0
370
    -2
100
AcDbLine
 10
0.9035113052985453
 20
16.56280234973416
 30
0.0
 11
0.9035113052985455
 21
19.43277596190142
 31
0.0
  0
LINE
  5
553B
330
40E0
100
AcDbEntity
  8
DIM
 62
     0
370
    -2
100
AcDbLine
 10
5.318677592598948
 20
16.56280234973416
 30
0.0
 11
5.318677592598948
 21
19.43277596190142
 31
0.0
  0
LINE
  5
553C
330
40E0
100
AcDbEntity
  8
DIM
 62
     0
370
    -2
100
AcDbLine
 10
1.151011305298545
 20
19.30490096190142
 30
0.0
 11
2.751016323948746
 21
19.30490096190142
 31
0.0
  0
LINE
  5
553D
330
40E0
100
AcDbEntity
  8
DIM
 62
     0
370
    -2
100
AcDbLine
 10
5.071177592598949
 20
19.30490096190142
 30
0.0
 11
3.471172573948747
 21
19.30490096190142
 31
0.0
  0
SOLID
  5
553E
330
40E0
100
AcDbEntity
  8
DIM
 62
     0
100
AcDbTrace
 10
1.151011305298545
 20
19.34615096190142
 30
0.0
 11
1.151011305298545
 21
19.26365096190141
 31
0.0
 12
0.9035113052985455
 22
19.30490096190142
 32
0.0
 13
0.9035113052985455
 23
19.30490096190142
 33
0.0
  0
SOLID
  5
553F
330
40E0
100
AcDbEntity
  8
DIM
 62
     0
100
AcDbTrace
 10
5.071177592598949
 20
19.34615096190142
 30
0.0
 11
5.071177592598949
 21
19.26365096190141
 31
0.0
 12
5.318677592598948
 22
19.30490096190142
 32
0.0
 13
5.318677592598948
 23
19.30490096190142
 33
0.0
  0
MTEXT
  5
5540
330
40E0
100
AcDbEntity
  8
DIM
 62
     0
100
AcDbMText
 10
3.111094448948747
 20
19.30490096190142
 30
0.0
 40
0.171875
 41
0.0
 71
     5
 72
     1
  1
\A1;4.415
 73
     1
 44
1.0
  0
POINT
  5
5541
330
40E0
100
AcDbEntity
  8
Defpoints
 62
     0
100
AcDbPoint
 10
0.9035113052985453
 20
16.47617734973416
 30
0.0
  0
POINT
  5
5542
330
40E0
100
AcDbEntity
  8
Defpoints
 62
     0
100
AcDbPoint
 10
5.318677592598948
 20
16.47617734973416
 30
0.0
  0
POINT
  5
5543
330
40E0
100
AcDbEntity
  8
Defpoints
 62
     0
100
AcDbPoint
 10
5.318677592598948
 20
19.30490096190142
 30
0.0
  0
ENDBLK
  5
40EC
330
40E0
100
AcDbEntity
  8
0
100
AcDbBlockEnd
  0
BLOCK
  5
4107
330
40FC
100
AcDbEntity
  8
0
100
AcDbBlockBegin
  2
*D2
 70
     1
 10
0.0
 20
0.0
 30
0.0
  3
*D2
  1

  0
LINE
  5
5717
330
40FC
100
AcDbEntity
  8
DIM
 62
     0
370
    -2
100
AcDbLine
 10
6.306311248214469
 20
18.76551024362919
 30
0.0
 11
6.306311248214469
 21
19.43277596190142
 31
0.0
  0
LINE
  5
5718
330
40FC
100
AcDbEntity
  8
DIM
 62
     0
370
    -2
100
AcDbLine
 10
7.684061248214497
 20
18.70109706554672
 30
0.0
 11
7.684061248214497
 21
19.43277596190142
 31
0.0
  0
LINE
  5
5719
330
40FC
100
AcDbEntity
  8
DIM
 62
     0
370
    -2
100
AcDbLine
 10
6.553811248214469
 20
19.30490096190142
 30
0.0
 11
6.635108123214483
 21
19.30490096190142
 31
0.0
  0
LINE
  5
571A
330
40FC
100
AcDbEntity
  8
DIM
 62
     0
370
    -2
100
AcDbLine
 10
7.436561248214498
 20
19.30490096190142
 30
0.0
 11
7.355264373214484
 21
19.30490096190142
 31
0.0
  0
SOLID
  5
571B
330
40FC
100
AcDbEntity
  8
DIM
 62
     0
100
AcDbTrace
 10
6.553811248214469
 20
19.34615096190142
 30
0.0
 11
6.553811248214469
 21
19.26365096190141
 31
0.0
 12
6.306311248214469
 22
19.30490096190142
 32
0.0
 13
6.306311248214469
 23
19.30490096190142
 33
0.0
  0
SOLID
  5
571C
330
40FC
100
AcDbEntity
  8
DIM
 62
     0
100
AcDbTrace
 10
7.436561248214498
 20
19.34615096190142
 30
0.0
 11
7.436561248214498
 21
19.26365096190141
 31
0.0
 12
7.684061248214497
 22
19.30490096190142
 32
0.0
 13
7.684061248214497
 23
19.30490096190142
 33
0.0
  0
MTEXT
  5
571D
330
40FC
100
AcDbEntity
  8
DIM
 62
     0
100
AcDbMText
 10
6.995186248214483
 20
19.30490096190142
 30
0.0
 40
0.171875
 41
0.0
 71
     5
 72
     1
  1
\A1;1.378
 73
     1
 44
1.0
  0
POINT
  5
571E
330
40FC
100
AcDbEntity
  8
Defpoints
 62
     0
100
AcDbPoint
 10
6.306311248214469
 20
18.67888524362919
 30
0.0
  0
POINT
  5
571F
330
40FC
100
AcDbEntity
  8
Defpoints
 62
     0
100
AcDbPoint
 10
7.684061248214497
 20
18.61447206554672
 30
0.0
  0
POINT
  5
5720
330
40FC
100
AcDbEntity
  8
Defpoints
 62
     0
100
AcDbPoint
 10
7.684061248214497
 20
19.30490096190142
 30
0.0
  0
ENDBLK
  5
4108
330
40FC
100
AcDbEntity
  8
0
100
AcDbBlockEnd
  0
BLOCK
  5
4129
330
411E
100
AcDbEntity
  8
0
100
AcDbBlockBegin
  2
*D3
 70
     1
 10
0.0
 20
0.0
 30
0.0
  3
*D3
  1

  0
LINE
  5
5544
330
411E
100
AcDbEntity
  8
DIM
 62
     0
370
    -2
100
AcDbLine
 10
4.572719448948717
 20
18.23832980090646
 30
0.0
 11
5.947842277361316
 21
18.23832980090646
 31
0.0
  0
LINE
  5
5545
330
411E
100
AcDbEntity
  8
DIM
 62
     0
370
    -2
100
AcDbLine
 10
4.572719448948717
 20
12.72895480090647
 30
0.0
 11
5.947842277361314
 21
12.72895480090647
 31
0.0
  0
LINE
  5
5546
330
411E
100
AcDbEntity
  8
DIM
 62
     0
370
    -2
100
AcDbLine
 10
5.819967277361315
 20
17.99082980090646
 30
0.0
 11
5.819967277361315
 21
15.69332980090646
 31
0.0
  0
LINE
  5
5547
330
411E
100
AcDbEntity
  8
DIM
 62
     0
370
    -2
100
AcDbLine
 10
5.819967277361314
 20
12.97645480090647
 30
0.0
 11
5.819967277361315
 21
15.27395480090646
 31
0.0
  0
SOLID
  5
5548
330
411E
100
AcDbEntity
  8
DIM
 62
     0
100
AcDbTrace
 10
5.778717277361315
 20
17.99082980090646
 30
0.0
 11
5.861217277361315
 21
17.99082980090646
 31
0.0
 12
5.819967277361316
 22
18.23832980090646
 32
0.0
 13
5.819967277361316
 23
18.23832980090646
 33
0.0
  0
SOLID
  5
5549
330
411E
100
AcDbEntity
  8
DIM
 62
     0
100
AcDbTrace
 10
5.778717277361314
 20
12.97645480090647
 30
0.0
 11
5.861217277361314
 21
12.97645480090647
 31
0.0
 12
5.819967277361314
 22
12.72895480090647
 32
0.0
 13
5.819967277361314
 23
12.72895480090647
 33
0.0
  0
MTEXT
  5
554A
330
411E
100
AcDbEntity
  8
DIM
 62
     0
100
AcDbMText
 10
5.819967277361312
 20
15.48364230090646
 30
0.0
 40
0.171875
 41
0.0
 71
     5
 72
     1
  1
\A1;5.509
 73
     1
 44
1.0
  0
POINT
  5
554B
330
411E
100
AcDbEntity
  8
Defpoints
 62
     0
100
AcDbPoint
 10
4.486094448948717
 20
18.23832980090646
 30
0.0
  0
POINT
  5
554C
330
411E
100
AcDbEntity
  8
Defpoints
 62
     0
100
AcDbPoint
 10
4.486094448948717
 20
12.72895480090647
 30
0.0
  0
POINT
  5
554D
330
411E
100
AcDbEntity
  8
Defpoints
 62
     0
100
AcDbPoint
 10
5.819967277361314
 20
12.72895480090647
 30
0.0
  0
ENDBLK
  5
412A
330
411E
100
AcDbEntity
  8
0
100
AcDbBlockEnd
  0
BLOCK
  5
4137
330
412C
100
AcDbEntity
  8
0
100
AcDbBlockBegin
  2
*D4
 70
     1
 10
0.0
 20
0.0
 30
0.0
  3
*D4
  1

  0
LINE
  5
5530
330
412C
100
AcDbEntity
  8
DIM
 62
     0
370
    -2
100
AcDbLine
 10
4.486094448948717
 20
12.64232980090647
 30
0.0
 11
4.486094448948717
 21
11.53069199031738
 31
0.0
  0
LINE
  5
5531
330
412C
100
AcDbEntity
  8
DIM
 62
     0
370
    -2
100
AcDbLine
 10
1.736094448948712
 20
12.64232980090647
 30
0.0
 11
1.736094448948712
 21
11.53069199031738
 31
0.0
  0
LINE
  5
5532
330
412C
100
AcDbEntity
  8
DIM
 62
     0
370
    -2
100
AcDbLine
 10
4.238594448948718
 20
11.65856699031738
 30
0.0
 11
3.481914761448715
 21
11.65856699031738
 31
0.0
  0
LINE
  5
5533
330
412C
100
AcDbEntity
  8
DIM
 62
     0
370
    -2
100
AcDbLine
 10
1.983594448948712
 20
11.65856699031738
 30
0.0
 11
2.740274136448714
 21
11.65856699031738
 31
0.0
  0
SOLID
  5
5534
330
412C
100
AcDbEntity
  8
DIM
 62
     0
100
AcDbTrace
 10
4.238594448948718
 20
11.69981699031737
 30
0.0
 11
4.238594448948718
 21
11.61731699031738
 31
0.0
 12
4.486094448948717
 22
11.65856699031738
 32
0.0
 13
4.486094448948717
 23
11.65856699031738
 33
0.0
  0
SOLID
  5
5535
330
412C
100
AcDbEntity
  8
DIM
 62
     0
100
AcDbTrace
 10
1.983594448948712
 20
11.69981699031737
 30
0.0
 11
1.983594448948712
 21
11.61731699031738
 31
0.0
 12
1.736094448948712
 22
11.65856699031738
 32
0.0
 13
1.736094448948712
 23
11.65856699031738
 33
0.0
  0
MTEXT
  5
5536
330
412C
100
AcDbEntity
  8
DIM
 62
     0
100
AcDbMText
 10
3.111094448948715
 20
11.65856699031738
 30
0.0
 40
0.171875
 41
0.0
 71
     5
 72
     1
  1
\A1;2.750
 73
     1
 44
1.0
  0
POINT
  5
5537
330
412C
100
AcDbEntity
  8
Defpoints
 62
     0
100
AcDbPoint
 10
4.486094448948717
 20
12.72895480090647
 30
0.0
  0
POINT
  5
5538
330
412C
100
AcDbEntity
  8
Defpoints
 62
     0
100
AcDbPoint
 10
1.736094448948712
 20
12.72895480090648
 30
0.0
  0
POINT
  5
5539
330
412C
100
AcDbEntity
  8
Defpoints
 62
     0
100
AcDbPoint
 10
1.736094448948712
 20
11.65856699031738
 30
0.0
  0
ENDBLK
  5
4138
330
412C
100
AcDbEntity
  8
0
100
AcDbBlockEnd
  0
BLOCK
  5
4159
330
414E
100
AcDbEntity
  8
0
100
AcDbBlockBegin
  2
*D5
 70
     1
 10
0.0
 20
0.0
 30
0.0
  3
*D5
  1

  0
LINE
  5
5526
330
414E
100
AcDbEntity
  8
DIM
 62
     0
370
    -2
100
AcDbLine
 10
3.024469448948772
 20
18.83051403464789
 30
0.0
 11
0.3807149690165985
 21
18.83051403464789
 31
0.0
  0
LINE
  5
5527
330
414E
100
AcDbEntity
  8
DIM
 62
     0
370
    -2
100
AcDbLine
 10
3.024469448948772
 20
12.13676403464793
 30
0.0
 11
0.380714969016597
 21
12.13676403464793
 31
0.0
  0
LINE
  5
5528
330
414E
100
AcDbEntity
  8
DIM
 62
     0
370
    -2
100
AcDbLine
 10
0.5085899690165983
 20
18.58301403464789
 30
0.0
 11
0.5085899690165976
 21
15.69332653464791
 31
0.0
  0
LINE
  5
5529
330
414E
100
AcDbEntity
  8
DIM
 62
     0
370
    -2
100
AcDbLine
 10
0.508589969016597
 20
12.38426403464794
 30
0.0
 11
0.5085899690165976
 21
15.27395153464791
 31
0.0
  0
SOLID
  5
552A
330
414E
100
AcDbEntity
  8
DIM
 62
     0
100
AcDbTrace
 10
0.4673399690165983
 20
18.58301403464789
 30
0.0
 11
0.5498399690165983
 21
18.58301403464789
 31
0.0
 12
0.5085899690165984
 22
18.83051403464789
 32
0.0
 13
0.5085899690165984
 23
18.83051403464789
 33
0.0
  0
SOLID
  5
552B
330
414E
100
AcDbEntity
  8
DIM
 62
     0
100
AcDbTrace
 10
0.4673399690165969
 20
12.38426403464794
 30
0.0
 11
0.549839969016597
 21
12.38426403464794
 31
0.0
 12
0.5085899690165969
 22
12.13676403464793
 32
0.0
 13
0.5085899690165969
 23
12.13676403464793
 33
0.0
  0
MTEXT
  5
552C
330
414E
100
AcDbEntity
  8
DIM
 62
     0
100
AcDbMText
 10
0.5085899690165952
 20
15.48363903464791
 30
0.0
 40
0.171875
 41
0.0
 71
     5
 72
     1
  1
\A1;6.694
 73
     1
 44
1.0
  0
POINT
  5
552D
330
414E
100
AcDbEntity
  8
Defpoints
 62
     0
100
AcDbPoint
 10
3.111094448948772
 20
18.83051403464789
 30
0.0
  0
POINT
  5
552E
330
414E
100
AcDbEntity
  8
Defpoints
 62
     0
100
AcDbPoint
 10
3.111094448948772
 20
12.13676403464793
 30
0.0
  0
POINT
  5
552F
330
414E
100
AcDbEntity
  8
Defpoints
 62
     0
100
AcDbPoint
 10
0.5085899690165969
 20
12.13676403464793
 30
0.0
  0
ENDBLK
  5
415A
330
414E
100
AcDbEntity
  8
0
100
AcDbBlockEnd
  0
BLOCK
  5
4D77
330
4D6C
100
AcDbEntity
  8
0
100
AcDbBlockBegin
  2
*D7
 70
     1
 10
0.0
 20
0.0
 30
0.0
  3
*D7
  1

  0
LINE
  5
5580
330
4D6C
100
AcDbEntity
  8
DIM
 62
     0
370
    -2
100
AcDbLine
 10
12.39178443138449
 20
7.015297626945246
 30
0.0
 11
13.92609928086615
 21
7.015297626945246
 31
0.0
  0
LINE
  5
5581
330
4D6C
100
AcDbEntity
  8
DIM
 62
     0
370
    -2
100
AcDbLine
 10
13.29381381905466
 20
4.652794360686758
 30
0.0
 11
13.92609928086615
 21
4.652794360686758
 31
0.0
  0
LINE
  5
5582
330
4D6C
100
AcDbEntity
  8
DIM
 62
     0
370
    -2
100
AcDbLine
 10
13.79822428086615
 20
6.767797626945246
 30
0.0
 11
13.79822428086615
 21
6.043733493816003
 31
0.0
  0
LINE
  5
5583
330
4D6C
100
AcDbEntity
  8
DIM
 62
     0
370
    -2
100
AcDbLine
 10
13.79822428086615
 20
4.900294360686758
 30
0.0
 11
13.79822428086615
 21
5.624358493816003
 31
0.0
  0
SOLID
  5
5584
330
4D6C
100
AcDbEntity
  8
DIM
 62
     0
100
AcDbTrace
 10
13.75697428086615
 20
6.767797626945246
 30
0.0
 11
13.83947428086615
 21
6.767797626945246
 31
0.0
 12
13.79822428086615
 22
7.015297626945246
 32
0.0
 13
13.79822428086615
 23
7.015297626945246
 33
0.0
  0
SOLID
  5
5585
330
4D6C
100
AcDbEntity
  8
DIM
 62
     0
100
AcDbTrace
 10
13.75697428086615
 20
4.900294360686758
 30
0.0
 11
13.83947428086615
 21
4.900294360686758
 31
0.0
 12
13.79822428086615
 22
4.652794360686758
 32
0.0
 13
13.79822428086615
 23
4.652794360686758
 33
0.0
  0
MTEXT
  5
5586
330
4D6C
100
AcDbEntity
  8
DIM
 62
     0
100
AcDbMText
 10
13.79822428086615
 20
5.834045993816005
 30
0.0
 40
0.171875
 41
0.0
 71
     5
 72
     1
  1
\A1;2.363
 73
     1
 44
1.0
  0
POINT
  5
5587
330
4D6C
100
AcDbEntity
  8
Defpoints
 62
     0
100
AcDbPoint
 10
12.30515943138449
 20
7.015297626945246
 30
0.0
  0
POINT
  5
5588
330
4D6C
100
AcDbEntity
  8
Defpoints
 62
     0
100
AcDbPoint
 10
13.20718881905466
 20
4.652794360686758
 30
0.0
  0
POINT
  5
5589
330
4D6C
100
AcDbEntity
  8
Defpoints
 62
     0
100
AcDbPoint
 10
13.79822428086615
 20
4.652794360686758
 30
0.0
  0
ENDBLK
  5
4D78
330
4D6C
100
AcDbEntity
  8
0
100
AcDbBlockEnd
  0
BLOCK
  5
4D8F
330
4D84
100
AcDbEntity
  8
0
100
AcDbBlockBegin
  2
*D8
 70
     1
 10
0.0
 20
0.0
 30
0.0
  3
*D8
  1

  0
LINE
  5
5576
330
4D84
100
AcDbEntity
  8
DIM
 62
     0
370
    -2
100
AcDbLine
 10
13.29381381905466
 20
4.652794360686758
 30
0.0
 11
13.92609928086615
 21
4.652794360686758
 31
0.0
  0
LINE
  5
5577
330
4D84
100
AcDbEntity
  8
DIM
 62
     0
370
    -2
100
AcDbLine
 10
12.39178443138449
 20
2.290297626945243
 30
0.0
 11
13.92609928086615
 21
2.290297626945242
 31
0.0
  0
LINE
  5
5578
330
4D84
100
AcDbEntity
  8
DIM
 62
     0
370
    -2
100
AcDbLine
 10
13.79822428086615
 20
4.405294360686759
 30
0.0
 11
13.79822428086615
 21
3.681233493816
 31
0.0
  0
LINE
  5
5579
330
4D84
100
AcDbEntity
  8
DIM
 62
     0
370
    -2
100
AcDbLine
 10
13.79822428086615
 20
2.537797626945242
 30
0.0
 11
13.79822428086615
 21
3.261858493816
 31
0.0
  0
SOLID
  5
557A
330
4D84
100
AcDbEntity
  8
DIM
 62
     0
100
AcDbTrace
 10
13.75697428086615
 20
4.405294360686759
 30
0.0
 11
13.83947428086615
 21
4.405294360686759
 31
0.0
 12
13.79822428086615
 22
4.652794360686758
 32
0.0
 13
13.79822428086615
 23
4.652794360686758
 33
0.0
  0
SOLID
  5
557B
330
4D84
100
AcDbEntity
  8
DIM
 62
     0
100
AcDbTrace
 10
13.75697428086615
 20
2.537797626945242
 30
0.0
 11
13.83947428086615
 21
2.537797626945242
 31
0.0
 12
13.79822428086615
 22
2.290297626945242
 32
0.0
 13
13.79822428086615
 23
2.290297626945242
 33
0.0
  0
MTEXT
  5
557C
330
4D84
100
AcDbEntity
  8
DIM
 62
     0
100
AcDbMText
 10
13.79822428086615
 20
3.471545993816002
 30
0.0
 40
0.171875
 41
0.0
 71
     5
 72
     1
  1
\A1;2.362
 73
     1
 44
1.0
  0
POINT
  5
557D
330
4D84
100
AcDbEntity
  8
Defpoints
 62
     0
100
AcDbPoint
 10
13.20718881905466
 20
4.652794360686758
 30
0.0
  0
POINT
  5
557E
330
4D84
100
AcDbEntity
  8
Defpoints
 62
     0
100
AcDbPoint
 10
12.30515943138449
 20
2.290297626945243
 30
0.0
  0
POINT
  5
557F
330
4D84
100
AcDbEntity
  8
Defpoints
 62
     0
100
AcDbPoint
 10
13.79822428086615
 20
2.290297626945242
 30
0.0
  0
ENDBLK
  5
4D90
330
4D84
100
AcDbEntity
  8
0
100
AcDbBlockEnd
  0
BLOCK
  5
4DC0
330
4DB5
100
AcDbEntity
  8
0
100
AcDbBlockBegin
  2
*D9
 70
     1
 10
0.0
 20
0.0
 30
0.0
  3
*D9
  1

  0
LINE
  5
5507
330
4DB5
100
AcDbEntity
  8
DIM
 62
     0
370
    -2
100
AcDbLine
 10
7.01468624821447
 20
8.019360126945402
 30
0.0
 11
7.01468624821447
 21
8.420743157352891
 31
0.0
  0
LINE
  5
5508
330
4DB5
100
AcDbEntity
  8
DIM
 62
     0
370
    -2
100
AcDbLine
 10
7.684061248214494
 20
7.869548661389572
 30
0.0
 11
7.684061248214494
 21
8.420743157352891
 31
0.0
  0
LINE
  5
5509
330
4DB5
100
AcDbEntity
  8
DIM
 62
     0
370
    -2
100
AcDbLine
 10
6.76718624821447
 20
8.292868157352891
 30
0.0
 11
6.51968624821447
 21
8.292868157352891
 31
0.0
  0
LINE
  5
550A
330
4DB5
100
AcDbEntity
  8
DIM
 62
     0
370
    -2
100
AcDbLine
 10
7.931561248214493
 20
8.292868157352891
 30
0.0
 11
8.179061248214493
 21
8.292868157352891
 31
0.0
  0
SOLID
  5
550B
330
4DB5
100
AcDbEntity
  8
DIM
 62
     0
100
AcDbTrace
 10
6.76718624821447
 20
8.334118157352891
 30
0.0
 11
6.76718624821447
 21
8.251618157352892
 31
0.0
 12
7.01468624821447
 22
8.292868157352891
 32
0.0
 13
7.01468624821447
 23
8.292868157352891
 33
0.0
  0
SOLID
  5
550C
330
4DB5
100
AcDbEntity
  8
DIM
 62
     0
100
AcDbTrace
 10
7.931561248214493
 20
8.334118157352891
 30
0.0
 11
7.931561248214493
 21
8.251618157352892
 31
0.0
 12
7.684061248214494
 22
8.292868157352891
 32
0.0
 13
7.684061248214494
 23
8.292868157352891
 33
0.0
  0
MTEXT
  5
550D
330
4DB5
100
AcDbEntity
  8
DIM
 62
     0
100
AcDbMText
 10
7.349373748214482
 20
8.292868157352891
 30
0.0
 40
0.171875
 41
0.0
 71
     5
 72
     1
  1
\A1;0.669
 73
     1
 44
1.0
  0
POINT
  5
550E
330
4DB5
100
AcDbEntity
  8
Defpoints
 62
     0
100
AcDbPoint
 10
7.01468624821447
 20
7.932735126945402
 30
0.0
  0
POINT
  5
550F
330
4DB5
100
AcDbEntity
  8
Defpoints
 62
     0
100
AcDbPoint
 10
7.684061248214494
 20
7.782923661389572
 30
0.0
  0
POINT
  5
5510
330
4DB5
100
AcDbEntity
  8
Defpoints
 62
     0
100
AcDbPoint
 10
7.684061248214494
 20
8.292868157352891
 30
0.0
  0
ENDBLK
  5
4DC1
330
4DB5
100
AcDbEntity
  8
0
100
AcDbBlockEnd
  0
BLOCK
  5
4E97
330
4E8C
100
AcDbEntity
  8
0
100
AcDbBlockBegin
  2
*D10
 70
     1
 10
0.0
 20
0.0
 30
0.0
  3
*D10
  1

  0
LINE
  5
5511
330
4E8C
100
AcDbEntity
  8
DIM
 62
     0
370
    -2
100
AcDbLine
 10
7.400561248214419
 20
6.830235126944973
 30
0.0
 11
7.400561248214419
 21
6.469949005147977
 31
0.0
  0
LINE
  5
5512
330
4E8C
100
AcDbEntity
  8
DIM
 62
     0
370
    -2
100
AcDbLine
 10
7.59743624821439
 20
6.572893631028723
 30
0.0
 11
7.59743624821439
 21
6.469949005147977
 31
0.0
  0
LINE
  5
5513
330
4E8C
100
AcDbEntity
  8
DIM
 62
     0
370
    -2
100
AcDbLine
 10
7.153061248214419
 20
6.597824005147978
 30
0.0
 11
6.905561248214419
 21
6.597824005147978
 31
0.0
  0
LINE
  5
5514
330
4E8C
100
AcDbEntity
  8
DIM
 62
     0
370
    -2
100
AcDbLine
 10
7.84493624821439
 20
6.597824005147978
 30
0.0
 11
8.09243624821439
 21
6.597824005147978
 31
0.0
  0
SOLID
  5
5515
330
4E8C
100
AcDbEntity
  8
DIM
 62
     0
100
AcDbTrace
 10
7.153061248214419
 20
6.639074005147977
 30
0.0
 11
7.153061248214419
 21
6.556574005147978
 31
0.0
 12
7.400561248214419
 22
6.597824005147978
 32
0.0
 13
7.400561248214419
 23
6.597824005147978
 33
0.0
  0
SOLID
  5
5516
330
4E8C
100
AcDbEntity
  8
DIM
 62
     0
100
AcDbTrace
 10
7.84493624821439
 20
6.639074005147977
 30
0.0
 11
7.84493624821439
 21
6.556574005147978
 31
0.0
 12
7.59743624821439
 22
6.597824005147978
 32
0.0
 13
7.59743624821439
 23
6.597824005147978
 33
0.0
  0
MTEXT
  5
5517
330
4E8C
100
AcDbEntity
  8
DIM
 62
     0
100
AcDbMText
 10
8.441772185714389
 20
6.597824005147978
 30
0.0
 40
0.171875
 41
0.0
 71
     5
 72
     1
  1
\A1;0.197
 73
     1
 44
1.0
  0
POINT
  5
5518
330
4E8C
100
AcDbEntity
  8
Defpoints
 62
     0
100
AcDbPoint
 10
7.400561248214419
 20
6.916860126944973
 30
0.0
  0
POINT
  5
5519
330
4E8C
100
AcDbEntity
  8
Defpoints
 62
     0
100
AcDbPoint
 10
7.59743624821439
 20
6.659518631028722
 30
0.0
  0
POINT
  5
551A
330
4E8C
100
AcDbEntity
  8
Defpoints
 62
     0
100
AcDbPoint
 10
7.59743624821439
 20
6.597824005147978
 30
0.0
  0
ENDBLK
  5
4E98
330
4E8C
100
AcDbEntity
  8
0
100
AcDbBlockEnd
  0
BLOCK
  5
4EAF
330
4EA4
100
AcDbEntity
  8
0
100
AcDbBlockBegin
  2
*D11
 70
     1
 10
0.0
 20
0.0
 30
0.0
  3
*D11
  1

  0
LINE
  5
556C
330
4EA4
100
AcDbEntity
  8
DIM
 62
     0
370
    -2
100
AcDbLine
 10
7.5974362482144
 20
5.024893229646086
 30
0.0
 11
7.5974362482144
 21
4.969508376835195
 31
0.0
  0
LINE
  5
556D
330
4EA4
100
AcDbEntity
  8
DIM
 62
     0
370
    -2
100
AcDbLine
 10
7.684061248214491
 20
5.024893229646086
 30
0.0
 11
7.684061248214491
 21
4.969508376835195
 31
0.0
  0
LINE
  5
556E
330
4EA4
100
AcDbEntity
  8
DIM
 62
     0
370
    -2
100
AcDbLine
 10
7.3499362482144
 20
5.097383376835195
 30
0.0
 11
7.1024362482144
 21
5.097383376835195
 31
0.0
  0
LINE
  5
556F
330
4EA4
100
AcDbEntity
  8
DIM
 62
     0
370
    -2
100
AcDbLine
 10
7.931561248214491
 20
5.097383376835195
 30
0.0
 11
8.179061248214491
 21
5.097383376835195
 31
0.0
  0
SOLID
  5
5570
330
4EA4
100
AcDbEntity
  8
DIM
 62
     0
100
AcDbTrace
 10
7.3499362482144
 20
5.138633376835195
 30
0.0
 11
7.3499362482144
 21
5.056133376835195
 31
0.0
 12
7.5974362482144
 22
5.097383376835195
 32
0.0
 13
7.5974362482144
 23
5.097383376835195
 33
0.0
  0
SOLID
  5
5571
330
4EA4
100
AcDbEntity
  8
DIM
 62
     0
100
AcDbTrace
 10
7.931561248214491
 20
5.138633376835195
 30
0.0
 11
7.931561248214491
 21
5.056133376835195
 31
0.0
 12
7.684061248214491
 22
5.097383376835195
 32
0.0
 13
7.684061248214491
 23
5.097383376835195
 33
0.0
  0
MTEXT
  5
5572
330
4EA4
100
AcDbEntity
  8
DIM
 62
     0
100
AcDbMText
 10
8.53913937321449
 20
5.097383376835195
 30
0.0
 40
0.171875
 41
0.0
 71
     5
 72
     1
  1
\A1;0.087
 73
     1
 44
1.0
  0
POINT
  5
5573
330
4EA4
100
AcDbEntity
  8
Defpoints
 62
     0
100
AcDbPoint
 10
7.5974362482144
 20
5.111518229646086
 30
0.0
  0
POINT
  5
5574
330
4EA4
100
AcDbEntity
  8
Defpoints
 62
     0
100
AcDbPoint
 10
7.684061248214491
 20
5.111518229646086
 30
0.0
  0
POINT
  5
5575
330
4EA4
100
AcDbEntity
  8
Defpoints
 62
     0
100
AcDbPoint
 10
7.684061248214491
 20
5.097383376835195
 30
0.0
  0
ENDBLK
  5
4EB0
330
4EA4
100
AcDbEntity
  8
0
100
AcDbBlockEnd
  0
BLOCK
  5
5326
330
531B
100
AcDbEntity
  8
0
100
AcDbBlockBegin
  2
*D12
 70
     1
 10
0.0
 20
0.0
 30
0.0
  3
*D12
  1

  0
LINE
  5
559E
330
531B
100
AcDbEntity
  8
DIM
 62
     0
370
    -2
100
AcDbLine
 10
9.587740311038729
 20
18.32651403464785
 30
0.0
 11
9.587740311038729
 21
19.57625382051431
 31
0.0
  0
LINE
  5
559F
330
531B
100
AcDbEntity
  8
DIM
 62
     0
370
    -2
100
AcDbLine
 10
12.58132855173028
 20
18.32651403464785
 30
0.0
 11
12.58132855173028
 21
19.57625382051431
 31
0.0
  0
LINE
  5
55A0
330
531B
100
AcDbEntity
  8
DIM
 62
     0
370
    -2
100
AcDbLine
 10
9.835240311038729
 20
19.44837882051431
 30
0.0
 11
10.7029719313845
 21
19.44837882051431
 31
0.0
  0
LINE
  5
55A1
330
531B
100
AcDbEntity
  8
DIM
 62
     0
370
    -2
100
AcDbLine
 10
12.33382855173028
 20
19.44837882051431
 30
0.0
 11
11.4660969313845
 21
19.44837882051431
 31
0.0
  0
SOLID
  5
55A2
330
531B
100
AcDbEntity
  8
DIM
 62
     0
100
AcDbTrace
 10
9.835240311038729
 20
19.48962882051431
 30
0.0
 11
9.835240311038729
 21
19.40712882051431
 31
0.0
 12
9.587740311038729
 22
19.44837882051431
 32
0.0
 13
9.587740311038729
 23
19.44837882051431
 33
0.0
  0
SOLID
  5
55A3
330
531B
100
AcDbEntity
  8
DIM
 62
     0
100
AcDbTrace
 10
12.33382855173028
 20
19.48962882051431
 30
0.0
 11
12.33382855173028
 21
19.40712882051431
 31
0.0
 12
12.58132855173028
 22
19.44837882051431
 32
0.0
 13
12.58132855173028
 23
19.44837882051431
 33
0.0
  0
MTEXT
  5
55A4
330
531B
100
AcDbEntity
  8
DIM
 62
     0
100
AcDbMText
 10
11.0845344313845
 20
19.44837882051431
 30
0.0
 40
0.171875
 41
0.0
 71
     5
 72
     1
  1
\A1;2.994
 73
     1
 44
1.0
  0
POINT
  5
55A5
330
531B
100
AcDbEntity
  8
Defpoints
 62
     0
100
AcDbPoint
 10
9.587740311038729
 20
18.23988903464785
 30
0.0
  0
POINT
  5
55A6
330
531B
100
AcDbEntity
  8
Defpoints
 62
     0
100
AcDbPoint
 10
12.58132855173028
 20
18.23988903464785
 30
0.0
  0
POINT
  5
55A7
330
531B
100
AcDbEntity
  8
Defpoints
 62
     0
100
AcDbPoint
 10
12.58132855173028
 20
19.44837882051431
 30
0.0
  0
ENDBLK
  5
5327
330
531B
100
AcDbEntity
  8
0
100
AcDbBlockEnd
  0
BLOCK
  5
5342
330
5337
100
AcDbEntity
  8
0
100
AcDbBlockBegin
  2
*D14
 70
     1
 10
0.0
 20
0.0
 30
0.0
  3
*D14
  1

  0
LINE
  5
55A8
330
5337
100
AcDbEntity
  8
DIM
 62
     0
370
    -2
100
AcDbLine
 10
9.501115311038729
 20
18.23988903464785
 30
0.0
 11
8.315350346196485
 21
18.23988903464785
 31
0.0
  0
LINE
  5
55A9
330
5337
100
AcDbEntity
  8
DIM
 62
     0
370
    -2
100
AcDbLine
 10
10.086468743359
 20
12.51083515244093
 30
0.0
 11
8.315350346196485
 21
12.51083515244093
 31
0.0
  0
LINE
  5
55AA
330
5337
100
AcDbEntity
  8
DIM
 62
     0
370
    -2
100
AcDbLine
 10
8.443225346196484
 20
17.99238903464785
 30
0.0
 11
8.443225346196484
 21
15.58504959354439
 31
0.0
  0
LINE
  5
55AB
330
5337
100
AcDbEntity
  8
DIM
 62
     0
370
    -2
100
AcDbLine
 10
8.443225346196484
 20
12.75833515244093
 30
0.0
 11
8.443225346196484
 21
15.16567459354439
 31
0.0
  0
SOLID
  5
55AC
330
5337
100
AcDbEntity
  8
DIM
 62
     0
100
AcDbTrace
 10
8.401975346196485
 20
17.99238903464785
 30
0.0
 11
8.484475346196484
 21
17.99238903464785
 31
0.0
 12
8.443225346196484
 22
18.23988903464785
 32
0.0
 13
8.443225346196484
 23
18.23988903464785
 33
0.0
  0
SOLID
  5
55AD
330
5337
100
AcDbEntity
  8
DIM
 62
     0
100
AcDbTrace
 10
8.401975346196485
 20
12.75833515244093
 30
0.0
 11
8.484475346196484
 21
12.75833515244093
 31
0.0
 12
8.443225346196484
 22
12.51083515244093
 32
0.0
 13
8.443225346196484
 23
12.51083515244093
 33
0.0
  0
MTEXT
  5
55AE
330
5337
100
AcDbEntity
  8
DIM
 62
     0
100
AcDbMText
 10
8.443225346196483
 20
15.37536209354439
 30
0.0
 40
0.171875
 41
0.0
 71
     5
 72
     1
  1
\A1;5.729
 73
     1
 44
1.0
  0
POINT
  5
55AF
330
5337
100
AcDbEntity
  8
Defpoints
 62
     0
100
AcDbPoint
 10
9.587740311038729
 20
18.23988903464785
 30
0.0
  0
POINT
  5
55B0
330
5337
100
AcDbEntity
  8
Defpoints
 62
     0
100
AcDbPoint
 10
10.173093743359
 20
12.51083515244093
 30
0.0
  0
POINT
  5
55B1
330
5337
100
AcDbEntity
  8
Defpoints
 62
     0
100
AcDbPoint
 10
8.443225346196484
 20
12.51083515244093
 30
0.0
  0
ENDBLK
  5
5343
330
5337
100
AcDbEntity
  8
0
100
AcDbBlockEnd
  0
BLOCK
  5
535A
330
534F
100
AcDbEntity
  8
0
100
AcDbBlockBegin
  2
*D15
 70
     1
 10
0.0
 20
0.0
 30
0.0
  3
*D15
  1

  0
LINE
  5
55B2
330
534F
100
AcDbEntity
  8
DIM
 62
     0
370
    -2
100
AcDbLine
 10
9.587740311038729
 20
18.32651403464785
 30
0.0
 11
9.587740311038729
 21
19.1730663120311
 31
0.0
  0
LINE
  5
55B3
330
534F
100
AcDbEntity
  8
DIM
 62
     0
370
    -2
100
AcDbLine
 10
11.08453443138449
 20
18.91713903464789
 30
0.0
 11
11.08453443138449
 21
19.1730663120311
 31
0.0
  0
LINE
  5
55B4
330
534F
100
AcDbEntity
  8
DIM
 62
     0
370
    -2
100
AcDbLine
 10
9.835240311038729
 20
19.0451913120311
 30
0.0
 11
9.976059246211612
 21
19.0451913120311
 31
0.0
  0
LINE
  5
55B5
330
534F
100
AcDbEntity
  8
DIM
 62
     0
370
    -2
100
AcDbLine
 10
10.83703443138449
 20
19.0451913120311
 30
0.0
 11
10.69621549621161
 21
19.0451913120311
 31
0.0
  0
SOLID
  5
55B6
330
534F
100
AcDbEntity
  8
DIM
 62
     0
100
AcDbTrace
 10
9.835240311038729
 20
19.0864413120311
 30
0.0
 11
9.835240311038729
 21
19.0039413120311
 31
0.0
 12
9.587740311038729
 22
19.0451913120311
 32
0.0
 13
9.587740311038729
 23
19.0451913120311
 33
0.0
  0
SOLID
  5
55B7
330
534F
100
AcDbEntity
  8
DIM
 62
     0
100
AcDbTrace
 10
10.83703443138449
 20
19.0864413120311
 30
0.0
 11
10.83703443138449
 21
19.0039413120311
 31
0.0
 12
11.08453443138449
 22
19.0451913120311
 32
0.0
 13
11.08453443138449
 23
19.0451913120311
 33
0.0
  0
MTEXT
  5
55B8
330
534F
100
AcDbEntity
  8
DIM
 62
     0
100
AcDbMText
 10
10.33613737121161
 20
19.0451913120311
 30
0.0
 40
0.171875
 41
0.0
 71
     5
 72
     1
  1
\A1;1.497
 73
     1
 44
1.0
  0
POINT
  5
55B9
330
534F
100
AcDbEntity
  8
Defpoints
 62
     0
100
AcDbPoint
 10
9.587740311038729
 20
18.23988903464785
 30
0.0
  0
POINT
  5
55BA
330
534F
100
AcDbEntity
  8
Defpoints
 62
     0
100
AcDbPoint
 10
11.08453443138449
 20
18.83051403464789
 30
0.0
  0
POINT
  5
55BB
330
534F
100
AcDbEntity
  8
Defpoints
 62
     0
100
AcDbPoint
 10
11.08453443138449
 20
19.0451913120311
 30
0.0
  0
ENDBLK
  5
535B
330
534F
100
AcDbEntity
  8
0
100
AcDbBlockEnd
  0
BLOCK
  5
53C5
330
53BA
100
AcDbEntity
  8
0
100
AcDbBlockBegin
  2
*D19
 70
     1
 10
0.0
 20
0.0
 30
0.0
  3
*D19
  1

  0
LINE
  5
558A
330
53BA
100
AcDbEntity
  8
DIM
 62
     0
370
    -2
100
AcDbLine
 10
10.173093743359
 20
12.42421015244093
 30
0.0
 11
10.173093743359
 21
11.66645176791439
 31
0.0
  0
LINE
  5
558B
330
53BA
100
AcDbEntity
  8
DIM
 62
     0
370
    -2
100
AcDbLine
 10
11.08453443138449
 20
12.05013903464793
 30
0.0
 11
11.08453443138449
 21
11.66645176791439
 31
0.0
  0
LINE
  5
558C
330
53BA
100
AcDbEntity
  8
DIM
 62
     0
370
    -2
100
AcDbLine
 10
9.925593743359003
 20
11.79432676791439
 30
0.0
 11
9.678093743359005
 21
11.79432676791439
 31
0.0
  0
LINE
  5
558D
330
53BA
100
AcDbEntity
  8
DIM
 62
     0
370
    -2
100
AcDbLine
 10
11.33203443138449
 20
11.79432676791439
 30
0.0
 11
11.57953443138449
 21
11.79432676791439
 31
0.0
  0
SOLID
  5
558E
330
53BA
100
AcDbEntity
  8
DIM
 62
     0
100
AcDbTrace
 10
9.925593743359003
 20
11.83557676791439
 30
0.0
 11
9.925593743359003
 21
11.75307676791439
 31
0.0
 12
10.173093743359
 22
11.79432676791439
 32
0.0
 13
10.173093743359
 23
11.79432676791439
 33
0.0
  0
SOLID
  5
558F
330
53BA
100
AcDbEntity
  8
DIM
 62
     0
100
AcDbTrace
 10
11.33203443138449
 20
11.83557676791439
 30
0.0
 11
11.33203443138449
 21
11.75307676791439
 31
0.0
 12
11.08453443138449
 22
11.79432676791439
 32
0.0
 13
11.08453443138449
 23
11.79432676791439
 33
0.0
  0
MTEXT
  5
5590
330
53BA
100
AcDbEntity
  8
DIM
 62
     0
100
AcDbMText
 10
10.62881408737174
 20
11.79432676791439
 30
0.0
 40
0.171875
 41
0.0
 71
     5
 72
     1
  1
\A1;0.911
 73
     1
 44
1.0
  0
POINT
  5
5591
330
53BA
100
AcDbEntity
  8
Defpoints
 62
     0
100
AcDbPoint
 10
10.173093743359
 20
12.51083515244093
 30
0.0
  0
POINT
  5
5592
330
53BA
100
AcDbEntity
  8
Defpoints
 62
     0
100
AcDbPoint
 10
11.08453443138449
 20
12.13676403464793
 30
0.0
  0
POINT
  5
5593
330
53BA
100
AcDbEntity
  8
Defpoints
 62
     0
100
AcDbPoint
 10
11.08453443138449
 20
11.79432676791439
 30
0.0
  0
ENDBLK
  5
53C6
330
53BA
100
AcDbEntity
  8
0
100
AcDbBlockEnd
  0
BLOCK
  5
53F2
330
53E7
100
AcDbEntity
  8
0
100
AcDbBlockBegin
  2
*D21
 70
     1
 10
0.0
 20
0.0
 30
0.0
  3
*D21
  1

  0
LINE
  5
5594
330
53E7
100
AcDbEntity
  8
DIM
 62
     0
370
    -2
100
AcDbLine
 10
10.173093743359
 20
12.42421015244093
 30
0.0
 11
10.173093743359
 21
11.25547702178502
 31
0.0
  0
LINE
  5
5595
330
53E7
100
AcDbEntity
  8
DIM
 62
     0
370
    -2
100
AcDbLine
 10
11.99597511940998
 20
12.42421015244093
 30
0.0
 11
11.99597511940998
 21
11.25547702178502
 31
0.0
  0
LINE
  5
5596
330
53E7
100
AcDbEntity
  8
DIM
 62
     0
370
    -2
100
AcDbLine
 10
10.420593743359
 20
11.38335202178502
 30
0.0
 11
10.72445630638449
 21
11.38335202178502
 31
0.0
  0
LINE
  5
5597
330
53E7
100
AcDbEntity
  8
DIM
 62
     0
370
    -2
100
AcDbLine
 10
11.74847511940998
 20
11.38335202178502
 30
0.0
 11
11.44461255638449
 21
11.38335202178502
 31
0.0
  0
SOLID
  5
5598
330
53E7
100
AcDbEntity
  8
DIM
 62
     0
100
AcDbTrace
 10
10.420593743359
 20
11.42460202178502
 30
0.0
 11
10.420593743359
 21
11.34210202178502
 31
0.0
 12
10.173093743359
 22
11.38335202178502
 32
0.0
 13
10.173093743359
 23
11.38335202178502
 33
0.0
  0
SOLID
  5
5599
330
53E7
100
AcDbEntity
  8
DIM
 62
     0
100
AcDbTrace
 10
11.74847511940998
 20
11.42460202178502
 30
0.0
 11
11.74847511940998
 21
11.34210202178502
 31
0.0
 12
11.99597511940998
 22
11.38335202178502
 32
0.0
 13
11.99597511940998
 23
11.38335202178502
 33
0.0
  0
MTEXT
  5
559A
330
53E7
100
AcDbEntity
  8
DIM
 62
     0
100
AcDbMText
 10
11.08453443138449
 20
11.38335202178502
 30
0.0
 40
0.171875
 41
0.0
 71
     5
 72
     1
  1
\A1;1.823
 73
     1
 44
1.0
  0
POINT
  5
559B
330
53E7
100
AcDbEntity
  8
Defpoints
 62
     0
100
AcDbPoint
 10
10.173093743359
 20
12.51083515244093
 30
0.0
  0
POINT
  5
559C
330
53E7
100
AcDbEntity
  8
Defpoints
 62
     0
100
AcDbPoint
 10
11.99597511940998
 20
12.51083515244093
 30
0.0
  0
POINT
  5
559D
330
53E7
100
AcDbEntity
  8
Defpoints
 62
     0
100
AcDbPoint
 10
11.99597511940998
 20
11.38335202178502
 30
0.0
  0
ENDBLK
  5
53F3
330
53E7
100
AcDbEntity
  8
0
100
AcDbBlockEnd
  0
BLOCK
  5
540B
330
53FF
100
AcDbEntity
  8
0
100
AcDbBlockBegin
  2
*D22
 70
     1
 10
0.0
 20
0.0
 30
0.0
  3
*D22
  1

  0
LINE
  5
551B
330
53FF
100
AcDbEntity
  8
DIM
 62
     0
370
    -2
100
AcDbLine
 10
2.982169224490147
 20
9.738597018719246
 30
0.0
 11
3.199570160264866
 21
9.738597018719246
 31
0.0
  0
LINE
  5
551C
330
53FF
100
AcDbEntity
  8
DIM
 62
     0
370
    -2
100
AcDbLine
 10
2.982169224490147
 20
9.680597018719243
 30
0.0
 11
3.199570160264866
 21
9.680597018719243
 31
0.0
  0
LINE
  5
551D
330
53FF
100
AcDbEntity
  8
DIM
 62
     0
370
    -2
100
AcDbLine
 10
3.071695160264866
 20
9.986097018719247
 30
0.0
 11
3.071695160264866
 21
10.23359701871924
 31
0.0
  0
LINE
  5
551E
330
53FF
100
AcDbEntity
  8
DIM
 62
     0
370
    -2
100
AcDbLine
 10
3.071695160264866
 20
9.433097018719243
 30
0.0
 11
3.071695160264866
 21
9.185597018719244
 31
0.0
  0
LINE
  5
551F
330
53FF
100
AcDbEntity
  8
DIM
 62
     0
370
    -2
100
AcDbLine
 10
3.071695160264866
 20
9.185597018719244
 30
0.0
 11
2.824195160264866
 21
9.185597018719244
 31
0.0
  0
SOLID
  5
5520
330
53FF
100
AcDbEntity
  8
DIM
 62
     0
100
AcDbTrace
 10
3.030445160264866
 20
9.986097018719247
 30
0.0
 11
3.112945160264866
 21
9.986097018719247
 31
0.0
 12
3.071695160264866
 22
9.738597018719246
 32
0.0
 13
3.071695160264866
 23
9.738597018719246
 33
0.0
  0
SOLID
  5
5521
330
53FF
100
AcDbEntity
  8
DIM
 62
     0
100
AcDbTrace
 10
3.030445160264866
 20
9.433097018719243
 30
0.0
 11
3.112945160264866
 21
9.433097018719243
 31
0.0
 12
3.071695160264866
 22
9.680597018719243
 32
0.0
 13
3.071695160264866
 23
9.680597018719243
 33
0.0
  0
MTEXT
  5
5522
330
53FF
100
AcDbEntity
  8
DIM
 62
     0
100
AcDbMText
 10
2.464117035264864
 20
9.185597018719244
 30
0.0
 40
0.171875
 41
0.0
 71
     5
 72
     1
  1
\A1;0.058
 73
     1
 44
1.0
  0
POINT
  5
5523
330
53FF
100
AcDbEntity
  8
Defpoints
 62
     0
100
AcDbPoint
 10
2.895544224490147
 20
9.738597018719246
 30
0.0
  0
POINT
  5
5524
330
53FF
100
AcDbEntity
  8
Defpoints
 62
     0
100
AcDbPoint
 10
2.895544224490147
 20
9.680597018719243
 30
0.0
  0
POINT
  5
5525
330
53FF
100
AcDbEntity
  8
Defpoints
 62
     0
100
AcDbPoint
 10
3.071695160264866
 20
9.680597018719243
 30
0.0
  0
ENDBLK
  5
540C
330
53FF
100
AcDbEntity
  8
0
100
AcDbBlockEnd
  0
BLOCK
  5
5419
330
540E
100
AcDbEntity
  8
0
100
AcDbBlockBegin
  2
*D23
 70
     1
 10
0.0
 20
0.0
 30
0.0
  3
*D23
  1

  0
LINE
  5
5562
330
540E
100
AcDbEntity
  8
DIM
 62
     0
370
    -2
100
AcDbLine
 10
9.863909431384465
 20
2.203666094428271
 30
0.0
 11
9.863909431384465
 21
0.9366716633025152
 31
0.0
  0
LINE
  5
5563
330
540E
100
AcDbEntity
  8
DIM
 62
     0
370
    -2
100
AcDbLine
 10
12.30515943138449
 20
2.203666094428271
 30
0.0
 11
12.30515943138449
 21
0.9366716633025152
 31
0.0
  0
LINE
  5
5564
330
540E
100
AcDbEntity
  8
DIM
 62
     0
370
    -2
100
AcDbLine
 10
10.11140943138446
 20
1.064546663302515
 30
0.0
 11
10.72445630638447
 21
1.064546663302515
 31
0.0
  0
LINE
  5
5565
330
540E
100
AcDbEntity
  8
DIM
 62
     0
370
    -2
100
AcDbLine
 10
12.05765943138449
 20
1.064546663302515
 30
0.0
 11
11.44461255638447
 21
1.064546663302515
 31
0.0
  0
SOLID
  5
5566
330
540E
100
AcDbEntity
  8
DIM
 62
     0
100
AcDbTrace
 10
10.11140943138446
 20
1.105796663302515
 30
0.0
 11
10.11140943138446
 21
1.023296663302515
 31
0.0
 12
9.863909431384465
 22
1.064546663302515
 32
0.0
 13
9.863909431384465
 23
1.064546663302515
 33
0.0
  0
SOLID
  5
5567
330
540E
100
AcDbEntity
  8
DIM
 62
     0
100
AcDbTrace
 10
12.05765943138449
 20
1.105796663302515
 30
0.0
 11
12.05765943138449
 21
1.023296663302515
 31
0.0
 12
12.30515943138449
 22
1.064546663302515
 32
0.0
 13
12.30515943138449
 23
1.064546663302515
 33
0.0
  0
MTEXT
  5
5568
330
540E
100
AcDbEntity
  8
DIM
 62
     0
100
AcDbMText
 10
11.08453443138448
 20
1.064546663302515
 30
0.0
 40
0.171875
 41
0.0
 71
     5
 72
     1
  1
\A1;2.441
 73
     1
 44
1.0
  0
POINT
  5
5569
330
540E
100
AcDbEntity
  8
Defpoints
 62
     0
100
AcDbPoint
 10
9.863909431384465
 20
2.290291094428271
 30
0.0
  0
POINT
  5
556A
330
540E
100
AcDbEntity
  8
Defpoints
 62
     0
100
AcDbPoint
 10
12.30515943138449
 20
2.290291094428271
 30
0.0
  0
POINT
  5
556B
330
540E
100
AcDbEntity
  8
Defpoints
 62
     0
100
AcDbPoint
 10
12.30515943138449
 20
1.064546663302515
 30
0.0
  0
ENDBLK
  5
541A
330
540E
100
AcDbEntity
  8
0
100
AcDbBlockEnd
  0
BLOCK
  5
5488
330
547D
100
AcDbEntity
  8
0
100
AcDbBlockBegin
  2
*D25
 70
     1
 10
0.0
 20
0.0
 30
0.0
  3
*D25
  1

  0
LINE
  5
554E
330
547D
100
AcDbEntity
  8
DIM
 62
     0
370
    -2
100
AcDbLine
 10
10.71047194700822
 20
7.495672626945206
 30
0.0
 11
10.71047194700822
 21
8.725669360686733
 31
0.0
  0
LINE
  5
554F
330
547D
100
AcDbEntity
  8
DIM
 62
     0
370
    -2
100
AcDbLine
 10
11.45859694700818
 20
7.495672645793575
 30
0.0
 11
11.45859694700818
 21
8.725669360686733
 31
0.0
  0
LINE
  5
5550
330
547D
100
AcDbEntity
  8
DIM
 62
     0
370
    -2
100
AcDbLine
 10
10.46297194700822
 20
8.597794360686734
 30
0.0
 11
10.21547194700822
 21
8.597794360686734
 31
0.0
  0
LINE
  5
5551
330
547D
100
AcDbEntity
  8
DIM
 62
     0
370
    -2
100
AcDbLine
 10
11.70609694700818
 20
8.597794360686734
 30
0.0
 11
11.95359694700818
 21
8.597794360686734
 31
0.0
  0
SOLID
  5
5552
330
547D
100
AcDbEntity
  8
DIM
 62
     0
100
AcDbTrace
 10
10.46297194700822
 20
8.639044360686733
 30
0.0
 11
10.46297194700822
 21
8.556544360686734
 31
0.0
 12
10.71047194700822
 22
8.597794360686734
 32
0.0
 13
10.71047194700822
 23
8.597794360686734
 33
0.0
  0
SOLID
  5
5553
330
547D
100
AcDbEntity
  8
DIM
 62
     0
100
AcDbTrace
 10
11.70609694700818
 20
8.639044360686733
 30
0.0
 11
11.70609694700818
 21
8.556544360686734
 31
0.0
 12
11.45859694700818
 22
8.597794360686734
 32
0.0
 13
11.45859694700818
 23
8.597794360686734
 33
0.0
  0
MTEXT
  5
5554
330
547D
100
AcDbEntity
  8
DIM
 62
     0
100
AcDbMText
 10
11.0845344470082
 20
8.597794360686734
 30
0.0
 40
0.171875
 41
0.0
 71
     5
 72
     1
  1
\A1;0.748
 73
     1
 44
1.0
  0
POINT
  5
5555
330
547D
100
AcDbEntity
  8
Defpoints
 62
     0
100
AcDbPoint
 10
10.71047194700822
 20
7.409047626945207
 30
0.0
  0
POINT
  5
5556
330
547D
100
AcDbEntity
  8
Defpoints
 62
     0
100
AcDbPoint
 10
11.45859694700818
 20
7.409047645793576
 30
0.0
  0
POINT
  5
5557
330
547D
100
AcDbEntity
  8
Defpoints
 62
     0
100
AcDbPoint
 10
11.45859694700818
 20
8.597794360686734
 30
0.0
  0
ENDBLK
  5
5489
330
547D
100
AcDbEntity
  8
0
100
AcDbBlockEnd
  0
BLOCK
  5
5496
330
548B
100
AcDbEntity
  8
0
100
AcDbBlockBegin
  2
*D26
 70
     1
 10
0.0
 20
0.0
 30
0.0
  3
*D26
  1

  0
LINE
  5
5558
330
548B
100
AcDbEntity
  8
DIM
 62
     0
370
    -2
100
AcDbLine
 10
11.08453443138449
 20
8.086294360686736
 30
0.0
 11
11.08453443138449
 21
8.342044360686735
 31
0.0
  0
LINE
  5
5559
330
548B
100
AcDbEntity
  8
DIM
 62
     0
370
    -2
100
AcDbLine
 10
10.71047194700822
 20
7.495672626945206
 30
0.0
 11
10.71047194700822
 21
8.342044360686735
 31
0.0
  0
LINE
  5
555A
330
548B
100
AcDbEntity
  8
DIM
 62
     0
370
    -2
100
AcDbLine
 10
11.33203443138449
 20
8.214169360686735
 30
0.0
 11
11.57953443138449
 21
8.214169360686735
 31
0.0
  0
LINE
  5
555B
330
548B
100
AcDbEntity
  8
DIM
 62
     0
370
    -2
100
AcDbLine
 10
10.46297194700822
 20
8.214169360686735
 30
0.0
 11
10.21547194700822
 21
8.214169360686735
 31
0.0
  0
SOLID
  5
555C
330
548B
100
AcDbEntity
  8
DIM
 62
     0
100
AcDbTrace
 10
11.33203443138449
 20
8.255419360686735
 30
0.0
 11
11.33203443138449
 21
8.172919360686735
 31
0.0
 12
11.08453443138449
 22
8.214169360686735
 32
0.0
 13
11.08453443138449
 23
8.214169360686735
 33
0.0
  0
SOLID
  5
555D
330
548B
100
AcDbEntity
  8
DIM
 62
     0
100
AcDbTrace
 10
10.46297194700822
 20
8.255419360686735
 30
0.0
 11
10.46297194700822
 21
8.172919360686735
 31
0.0
 12
10.71047194700822
 22
8.214169360686735
 32
0.0
 13
10.71047194700822
 23
8.214169360686735
 33
0.0
  0
MTEXT
  5
555E
330
548B
100
AcDbEntity
  8
DIM
 62
     0
100
AcDbMText
 10
9.844651634508224
 20
8.214169360686735
 30
0.0
 40
0.171875
 41
0.0
 71
     5
 72
     1
  1
\A1;0.374
 73
     1
 44
1.0
  0
POINT
  5
555F
330
548B
100
AcDbEntity
  8
Defpoints
 62
     0
100
AcDbPoint
 10
11.08453443138449
 20
7.999669360686736
 30
0.0
  0
POINT
  5
5560
330
548B
100
AcDbEntity
  8
Defpoints
 62
     0
100
AcDbPoint
 10
10.71047194700822
 20
7.409047626945207
 30
0.0
  0
POINT
  5
5561
330
548B
100
AcDbEntity
  8
Defpoints
 62
     0
100
AcDbPoint
 10
10.71047194700822
 20
8.214169360686735
 30
0.0
  0
ENDBLK
  5
5497
330
548B
100
AcDbEntity
  8
0
100
AcDbBlockEnd
  0
BLOCK
  5
55D0
330
55C5
100
AcDbEntity
  8
0
100
AcDbBlockBegin
  2
*D27
 70
     1
 10
0.0
 20
0.0
 30
0.0
  3
*D27
  1

  0
LINE
  5
572D
330
55C5
100
AcDbEntity
  8
DIM
 62
     0
370
    -2
100
AcDbLine
 10
7.074123748214462
 20
8.086277974028083
 30
0.0
 11
7.074123748214462
 21
8.71362679859154
 31
0.0
  0
LINE
  5
572E
330
55C5
100
AcDbEntity
  8
DIM
 62
     0
370
    -2
100
AcDbLine
 10
6.30631124821447
 20
7.933942186554125
 30
0.0
 11
6.30631124821447
 21
8.71362679859154
 31
0.0
  0
LINE
  5
572F
330
55C5
100
AcDbEntity
  8
DIM
 62
     0
370
    -2
100
AcDbLine
 10
7.321623748214461
 20
8.585751798591541
 30
0.0
 11
7.569123748214462
 21
8.585751798591541
 31
0.0
  0
LINE
  5
5730
330
55C5
100
AcDbEntity
  8
DIM
 62
     0
370
    -2
100
AcDbLine
 10
6.05881124821447
 20
8.585751798591541
 30
0.0
 11
5.81131124821447
 21
8.585751798591541
 31
0.0
  0
SOLID
  5
5731
330
55C5
100
AcDbEntity
  8
DIM
 62
     0
100
AcDbTrace
 10
7.321623748214461
 20
8.627001798591541
 30
0.0
 11
7.321623748214461
 21
8.544501798591541
 31
0.0
 12
7.074123748214462
 22
8.585751798591541
 32
0.0
 13
7.074123748214462
 23
8.585751798591541
 33
0.0
  0
SOLID
  5
5732
330
55C5
100
AcDbEntity
  8
DIM
 62
     0
100
AcDbTrace
 10
6.05881124821447
 20
8.627001798591541
 30
0.0
 11
6.05881124821447
 21
8.544501798591541
 31
0.0
 12
6.30631124821447
 22
8.585751798591541
 32
0.0
 13
6.30631124821447
 23
8.585751798591541
 33
0.0
  0
MTEXT
  5
5733
330
55C5
100
AcDbEntity
  8
DIM
 62
     0
100
AcDbMText
 10
6.690217498214465
 20
8.585751798591541
 30
0.0
 40
0.171875
 41
0.0
 71
     5
 72
     1
  1
\A1;0.768
 73
     1
 44
1.0
  0
POINT
  5
5734
330
55C5
100
AcDbEntity
  8
Defpoints
 62
     0
100
AcDbPoint
 10
7.074123748214462
 20
7.999652974028084
 30
0.0
  0
POINT
  5
5735
330
55C5
100
AcDbEntity
  8
Defpoints
 62
     0
100
AcDbPoint
 10
6.30631124821447
 20
7.847317186554125
 30
0.0
  0
POINT
  5
5736
330
55C5
100
AcDbEntity
  8
Defpoints
 62
     0
100
AcDbPoint
 10
6.30631124821447
 20
8.585751798591541
 30
0.0
  0
ENDBLK
  5
55D1
330
55C5
100
AcDbEntity
  8
0
100
AcDbBlockEnd
  0
BLOCK
  5
56B3
330
56A8
100
AcDbEntity
  8
0
100
AcDbBlockBegin
  2
*D29
 70
     1
 10
0.0
 20
0.0
 30
0.0
  3
*D29
  1

  0
LINE
  5
56B6
330
56A8
100
AcDbEntity
  8
DIM
 62
     0
370
    -2
100
AcDbLine
 10
6.413436248214421
 20
7.62394524524613
 30
0.0
 11
6.413436248214421
 21
7.529422786766306
 31
0.0
  0
LINE
  5
56B7
330
56A8
100
AcDbEntity
  8
DIM
 62
     0
370
    -2
100
AcDbLine
 10
7.597436248214389
 20
7.672851692299007
 30
0.0
 11
7.597436248214389
 21
7.785172786766307
 31
0.0
  0
LINE
  5
56B8
330
56A8
100
AcDbEntity
  8
DIM
 62
     0
370
    -2
100
AcDbLine
 10
6.165936248214421
 20
7.657297786766307
 30
0.0
 11
5.918436248214421
 21
7.657297786766307
 31
0.0
  0
LINE
  5
56B9
330
56A8
100
AcDbEntity
  8
DIM
 62
     0
370
    -2
100
AcDbLine
 10
7.844936248214389
 20
7.657297786766307
 30
0.0
 11
8.09243624821439
 21
7.657297786766307
 31
0.0
  0
SOLID
  5
56BA
330
56A8
100
AcDbEntity
  8
DIM
 62
     0
100
AcDbTrace
 10
6.165936248214421
 20
7.698547786766306
 30
0.0
 11
6.165936248214421
 21
7.616047786766307
 31
0.0
 12
6.413436248214421
 22
7.657297786766307
 32
0.0
 13
6.413436248214421
 23
7.657297786766307
 33
0.0
  0
SOLID
  5
56BB
330
56A8
100
AcDbEntity
  8
DIM
 62
     0
100
AcDbTrace
 10
7.844936248214389
 20
7.698547786766306
 30
0.0
 11
7.844936248214389
 21
7.616047786766307
 31
0.0
 12
7.597436248214389
 22
7.657297786766307
 32
0.0
 13
7.597436248214389
 23
7.657297786766307
 33
0.0
  0
MTEXT
  5
56BC
330
56A8
100
AcDbEntity
  8
DIM
 62
     0
100
AcDbMText
 10
8.431029998214389
 20
7.657297786766307
 30
0.0
 40
0.171875
 41
0.0
 71
     5
 72
     1
  1
\A1;1.184
 73
     1
 44
1.0
  0
POINT
  5
56BD
330
56A8
100
AcDbEntity
  8
Defpoints
 62
     0
100
AcDbPoint
 10
6.413436248214421
 20
7.710570245246129
 30
0.0
  0
POINT
  5
56BE
330
56A8
100
AcDbEntity
  8
Defpoints
 62
     0
100
AcDbPoint
 10
7.597436248214389
 20
7.586226692299008
 30
0.0
  0
POINT
  5
56BF
330
56A8
100
AcDbEntity
  8
Defpoints
 62
     0
100
AcDbPoint
 10
7.597436248214389
 20
7.657297786766307
 30
0.0
  0
ENDBLK
  5
56B4
330
56A8
100
AcDbEntity
  8
0
100
AcDbBlockEnd
  0
BLOCK
  5
56CD
330
56C2
100
AcDbEntity
  8
0
100
AcDbBlockBegin
  2
*D30
 70
     1
 10
0.0
 20
0.0
 30
0.0
  3
*D30
  1

  0
LINE
  5
56C3
330
56C2
100
AcDbEntity
  8
DIM
 62
     0
370
    -2
100
AcDbLine
 10
10.62384694700822
 20
7.409047626945207
 30
0.0
 11
10.27389871729831
 21
7.409047626945207
 31
0.0
  0
LINE
  5
56C4
330
56C2
100
AcDbEntity
  8
DIM
 62
     0
370
    -2
100
AcDbLine
 10
10.62384694700822
 20
4.652794360686758
 30
0.0
 11
10.27389871729831
 21
4.652794360686758
 31
0.0
  0
LINE
  5
56C5
330
56C2
100
AcDbEntity
  8
DIM
 62
     0
370
    -2
100
AcDbLine
 10
10.40177371729831
 20
7.161547626945207
 30
0.0
 11
10.40177371729831
 21
6.240608493815983
 31
0.0
  0
LINE
  5
56C6
330
56C2
100
AcDbEntity
  8
DIM
 62
     0
370
    -2
100
AcDbLine
 10
10.40177371729831
 20
4.900294360686758
 30
0.0
 11
10.40177371729831
 21
5.821233493815983
 31
0.0
  0
SOLID
  5
56C7
330
56C2
100
AcDbEntity
  8
DIM
 62
     0
100
AcDbTrace
 10
10.36052371729831
 20
7.161547626945207
 30
0.0
 11
10.44302371729831
 21
7.161547626945207
 31
0.0
 12
10.40177371729831
 22
7.409047626945207
 32
0.0
 13
10.40177371729831
 23
7.409047626945207
 33
0.0
  0
SOLID
  5
56C8
330
56C2
100
AcDbEntity
  8
DIM
 62
     0
100
AcDbTrace
 10
10.36052371729831
 20
4.900294360686758
 30
0.0
 11
10.44302371729831
 21
4.900294360686758
 31
0.0
 12
10.40177371729831
 22
4.652794360686758
 32
0.0
 13
10.40177371729831
 23
4.652794360686758
 33
0.0
  0
MTEXT
  5
56C9
330
56C2
100
AcDbEntity
  8
DIM
 62
     0
100
AcDbMText
 10
10.40177371729831
 20
6.030920993815985
 30
0.0
 40
0.171875
 41
0.0
 71
     5
 72
     1
  1
\A1;2.756
 73
     1
 44
1.0
  0
POINT
  5
56CA
330
56C2
100
AcDbEntity
  8
Defpoints
 62
     0
100
AcDbPoint
 10
10.71047194700822
 20
7.409047626945207
 30
0.0
  0
POINT
  5
56CB
330
56C2
100
AcDbEntity
  8
Defpoints
 62
     0
100
AcDbPoint
 10
10.71047194700822
 20
4.652794360686758
 30
0.0
  0
POINT
  5
56CC
330
56C2
100
AcDbEntity
  8
Defpoints
 62
     0
100
AcDbPoint
 10
10.40177371729831
 20
4.652794360686758
 30
0.0
  0
ENDBLK
  5
56CE
330
56C2
100
AcDbEntity
  8
0
100
AcDbBlockEnd
  0
BLOCK
  5
56DC
330
56D1
100
AcDbEntity
  8
0
100
AcDbBlockBegin
  2
*D31
 70
     1
 10
0.0
 20
0.0
 30
0.0
  3
*D31
  1

  0
LINE
  5
56D2
330
56D1
100
AcDbEntity
  8
DIM
 62
     0
370
    -2
100
AcDbLine
 10
12.66795355173028
 20
18.23988903464785
 30
0.0
 11
13.88599772849837
 21
18.23988903464785
 31
0.0
  0
LINE
  5
56D3
330
56D1
100
AcDbEntity
  8
DIM
 62
     0
370
    -2
100
AcDbLine
 10
13.29381381905466
 20
15.48363903464792
 30
0.0
 11
13.88599772849837
 21
15.48363903464792
 31
0.0
  0
LINE
  5
56D4
330
56D1
100
AcDbEntity
  8
DIM
 62
     0
370
    -2
100
AcDbLine
 10
13.75812272849837
 20
17.99238903464785
 30
0.0
 11
13.75812272849837
 21
17.07145153464789
 31
0.0
  0
LINE
  5
56D5
330
56D1
100
AcDbEntity
  8
DIM
 62
     0
370
    -2
100
AcDbLine
 10
13.75812272849837
 20
15.73113903464792
 30
0.0
 11
13.75812272849837
 21
16.65207653464788
 31
0.0
  0
SOLID
  5
56D6
330
56D1
100
AcDbEntity
  8
DIM
 62
     0
100
AcDbTrace
 10
13.71687272849837
 20
17.99238903464785
 30
0.0
 11
13.79937272849837
 21
17.99238903464785
 31
0.0
 12
13.75812272849837
 22
18.23988903464785
 32
0.0
 13
13.75812272849837
 23
18.23988903464785
 33
0.0
  0
SOLID
  5
56D7
330
56D1
100
AcDbEntity
  8
DIM
 62
     0
100
AcDbTrace
 10
13.71687272849837
 20
15.73113903464792
 30
0.0
 11
13.79937272849837
 21
15.73113903464792
 31
0.0
 12
13.75812272849837
 22
15.48363903464792
 32
0.0
 13
13.75812272849837
 23
15.48363903464792
 33
0.0
  0
MTEXT
  5
56D8
330
56D1
100
AcDbEntity
  8
DIM
 62
     0
100
AcDbMText
 10
13.75812272849837
 20
16.86176403464789
 30
0.0
 40
0.171875
 41
0.0
 71
     5
 72
     1
  1
\A1;2.756
 73
     1
 44
1.0
  0
POINT
  5
56D9
330
56D1
100
AcDbEntity
  8
Defpoints
 62
     0
100
AcDbPoint
 10
12.58132855173028
 20
18.23988903464785
 30
0.0
  0
POINT
  5
56DA
330
56D1
100
AcDbEntity
  8
Defpoints
 62
     0
100
AcDbPoint
 10
13.20718881905466
 20
15.48363903464792
 30
0.0
  0
POINT
  5
56DB
330
56D1
100
AcDbEntity
  8
Defpoints
 62
     0
100
AcDbPoint
 10
13.75812272849837
 20
15.48363903464792
 30
0.0
  0
ENDBLK
  5
56DD
330
56D1
100
AcDbEntity
  8
0
100
AcDbBlockEnd
  0
BLOCK
  5
56EA
330
56DF
100
AcDbEntity
  8
0
100
AcDbBlockBegin
  2
*D32
 70
     1
 10
0.0
 20
0.0
 30
0.0
  3
*D32
  1

  0
LINE
  5
56E0
330
56DF
100
AcDbEntity
  8
DIM
 62
     0
370
    -2
100
AcDbLine
 10
13.29381381905466
 20
15.48363903464792
 30
0.0
 11
13.88599772849837
 21
15.48363903464792
 31
0.0
  0
LINE
  5
56E1
330
56DF
100
AcDbEntity
  8
DIM
 62
     0
370
    -2
100
AcDbLine
 10
12.08260011940998
 20
12.51083515244092
 30
0.0
 11
13.88599772849837
 21
12.51083515244092
 31
0.0
  0
LINE
  5
56E2
330
56DF
100
AcDbEntity
  8
DIM
 62
     0
370
    -2
100
AcDbLine
 10
13.75812272849837
 20
15.23613903464791
 30
0.0
 11
13.75812272849837
 21
14.20692459354442
 31
0.0
  0
LINE
  5
56E3
330
56DF
100
AcDbEntity
  8
DIM
 62
     0
370
    -2
100
AcDbLine
 10
13.75812272849837
 20
12.75833515244092
 30
0.0
 11
13.75812272849837
 21
13.78754959354442
 31
0.0
  0
SOLID
  5
56E4
330
56DF
100
AcDbEntity
  8
DIM
 62
     0
100
AcDbTrace
 10
13.71687272849837
 20
15.23613903464791
 30
0.0
 11
13.79937272849837
 21
15.23613903464791
 31
0.0
 12
13.75812272849837
 22
15.48363903464792
 32
0.0
 13
13.75812272849837
 23
15.48363903464792
 33
0.0
  0
SOLID
  5
56E5
330
56DF
100
AcDbEntity
  8
DIM
 62
     0
100
AcDbTrace
 10
13.71687272849837
 20
12.75833515244092
 30
0.0
 11
13.79937272849837
 21
12.75833515244092
 31
0.0
 12
13.75812272849837
 22
12.51083515244092
 32
0.0
 13
13.75812272849837
 23
12.51083515244092
 33
0.0
  0
MTEXT
  5
56E6
330
56DF
100
AcDbEntity
  8
DIM
 62
     0
100
AcDbMText
 10
13.75812272849837
 20
13.99723709354442
 30
0.0
 40
0.171875
 41
0.0
 71
     5
 72
     1
  1
\A1;2.973
 73
     1
 44
1.0
  0
POINT
  5
56E7
330
56DF
100
AcDbEntity
  8
Defpoints
 62
     0
100
AcDbPoint
 10
13.20718881905466
 20
15.48363903464792
 30
0.0
  0
POINT
  5
56E8
330
56DF
100
AcDbEntity
  8
Defpoints
 62
     0
100
AcDbPoint
 10
11.99597511940998
 20
12.51083515244093
 30
0.0
  0
POINT
  5
56E9
330
56DF
100
AcDbEntity
  8
Defpoints
 62
     0
100
AcDbPoint
 10
13.75812272849837
 20
12.51083515244092
 30
0.0
  0
ENDBLK
  5
56EB
330
56DF
100
AcDbEntity
  8
0
100
AcDbBlockEnd
  0
ENDSEC
  0
SECTION
  2
ENTITIES
  0
INSERT
  5
1BB4
330
1E
100
AcDbEntity
  8
OBJECT
100
AcDbBlockReference
  2
HB
 10
0.0
 20
0.0
 30
0.0
 41
1.375
 42
1.375
 43
1.375
  0
TEXT
  5
2417
330
1E
100
AcDbEntity
  8
TEXT
100
AcDbText
 10
0.8142213566874776
 20
20.52771277179431
 30
0.0
 40
0.1716
  1
MATERIAL: HIGH IMPACT ABS WITH UL94V-O
 41
0.75
100
AcDbText
  0
TEXT
  5
2418
330
1E
100
AcDbEntity
  8
TEXT
100
AcDbText
 10
0.8142213566874776
 20
20.24171277179432
 30
0.0
 40
0.1716
  1
   FLAMMABILITY RATING
 41
0.75
100
AcDbText
  0
TEXT
  5
2419
330
1E
100
AcDbEntity
  8
TEXT
100
AcDbText
 10
8.720676683558432
 20
21.07559565517235
 30
0.0
 40
0.2145
  1
HH-3610
 41
0.75
 72
     1
 11
9.216707933558431
 21
21.07559565517235
 31
0.0
100
AcDbText
  0
TEXT
  5
241A
330
1E
100
AcDbEntity
  8
TEXT
100
AcDbText
 10
1.668643552537301
 20
21.07559565517235
 30
0.0
 40
0.2145
  1
HAND HAND BOX  (STYLE N)
 41
0.75
 72
     1
 11
3.5187060525373
 21
21.07559565517235
 31
0.0
100
AcDbText
  0
TEXT
  5
241E
330
1E
100
AcDbEntity
  8
TEXT
100
AcDbText
 10
0.8142213566874776
 20
19.83698015371379
 30
0.0
 40
0.1716
  1
FINISH: TEXTURED BLACK
 41
0.75
100
AcDbText
  0
LEADER
  5
2421
330
1E
100
AcDbEntity
  8
DIM
100
AcDbLeader
  3
23NSTD
 73
     0
 74
     0
 75
     1
 40
0.4583333333333334
 41
2.556640625
 76
     3
 10
3.730069626493685
 20
13.26241087663817
 30
0.0
 10
4.970582428830653
 20
11.76164455926225
 30
0.0
 10
5.218082428830653
 20
11.76164455926225
 30
0.0
340
2422
213
0.0
223
-0.0859375
233
0.0
  0
MTEXT
  5
2422
102
{ACAD_REACTORS
330
2421
102
}
330
1E
100
AcDbEntity
  8
DIM
100
AcDbMText
 10
5.341832428830653
 20
11.84758205926225
 30
0.0
 40
0.171875
 41
0.0
 71
     1
 72
     1
  1
SMOOTH RECESSED PAD\PRECESSED MINIMUM 0.040
 73
     1
 44
1.0
  0
TEXT
  5
2482
330
1E
100
AcDbEntity
  8
TEXT
100
AcDbText
 10
2.13264870504351
 20
0.6753834898301819
 30
0.0
 40
0.156
  1
%%UINSIDE VIEW OF TOP
 41
0.75
 72
     1
 11
3.14859870504351
 21
0.6753834898301819
 31
0.0
100
AcDbText
  0
TEXT
  5
2483
330
1E
100
AcDbEntity
  8
TEXT
100
AcDbText
 10
9.893370059516625
 20
0.6753834898301801
 30
0.0
 40
0.156
  1
%%UINSIDE VIEW OF BOTTOM
 41
0.75
 72
     1
 11
11.08482005951662
 21
0.6753834898301801
 31
0.0
100
AcDbText
  0
LEADER
  5
249C
330
1E
100
AcDbEntity
  8
DIM
100
AcDbLeader
  3
23NSTD
 73
     0
 75
     1
 40
0.7447916666666668
 41
2.27734375
 76
     3
 10
9.771318908620184
 20
7.116579733519165
 30
0.0
 10
8.447411405337856
 20
9.669911894348139
 30
0.0
 10
8.199911405337855
 20
9.669911894348139
 30
0.0
340
249D
213
0.0
223
-0.0859375
233
0.0
  0
MTEXT
  5
249D
102
{ACAD_REACTORS
330
249C
102
}
330
1E
100
AcDbEntity
  8
DIM
100
AcDbMText
 10
8.076161405337856
 20
9.755849394348139
 30
0.0
 40
0.171875
 41
0.0
 71
     3
 72
     1
  1
0.236 DIA. BOSS\PWITH 0.087 DIA. HOLE\P(6) PLACES
 73
     1
 44
1.0
  0
TEXT
  5
24B6
330
1E
100
AcDbEntity
  8
TEXT
100
AcDbText
 10
9.28687690982916
 20
20.52771277179431
 30
0.0
 40
0.1716
  1
ALL DIMENSIONS HAVE %%P0.015 TOLERANCE
 41
0.75
100
AcDbText
  0
TEXT
  5
2FC0
330
1E
100
AcDbEntity
  8
TEXT
100
AcDbText
 10
9.28687690982916
 20
19.80729697412341
 30
0.0
 40
0.1716
  1
   STEEL SCREWS SUPPLIED FOR ASSEMBLY
 41
0.75
100
AcDbText
  0
TEXT
  5
2FC1
330
1E
100
AcDbEntity
  8
TEXT
100
AcDbText
 10
9.28687690982916
 20
20.09329697412342
 30
0.0
 40
0.1716
  1
FOUR (4) M3 x 1/2" LG. FLAT HD. STAINLESS
 41
0.75
100
AcDbText
  0
TEXT
  5
3066
330
1E
100
AcDbEntity
  8
TEXT
100
AcDbText
 10
8.797974650949797
 20
9.399510771423832
 30
0.0
 40
0.156
  1
  OR #4 STD. SHEET METAL SCREWS x 3/16" LG.
 41
0.75
100
AcDbText
  0
TEXT
  5
3067
330
1E
100
AcDbEntity
  8
TEXT
100
AcDbText
 10
8.797974650949797
 20
9.659510771423834
 30
0.0
 40
0.156
  1
NOTE: MOUNTING BOSSES USE EITHER M2.5 METRIC
 41
0.75
100
AcDbText
  0
TEXT
  5
3068
330
1E
100
AcDbEntity
  8
TEXT
100
AcDbText
 10
8.797974650949797
 20
9.139510771423832
 30
0.0
 40
0.156
  1
  (NOT SUPPLIED)
 41
0.75
100
AcDbText
  0
LINE
  5
36EB
102
{ACAD_REACTORS
330
568A
102
}
330
1E
100
AcDbEntity
  8
OBJECT
100
AcDbLine
 10
7.01468624821447
 20
7.932735126945402
 30
0.0
 11
7.01468624821447
 21
7.527164154489057
 31
0.0
  0
LINE
  5
373A
330
1E
100
AcDbEntity
  8
OBJECT
100
AcDbLine
 10
7.074123748214461
 20
7.979985126945351
 30
0.0
 11
7.113123748214457
 21
7.979985126945351
 31
0.0
  0
LINE
  5
373E
102
{ACAD_REACTORS
330
568A
102
}
330
1E
100
AcDbEntity
  8
OBJECT
100
AcDbLine
 10
7.01468624821447
 20
7.893218690328366
 30
0.0
 11
7.113123748214457
 21
7.893214229411441
 31
0.0
  0
LINE
  5
3740
102
{ACAD_REACTORS
330
568A
102
}
330
1E
100
AcDbEntity
  8
OBJECT
100
AcDbLine
 10
7.074123748214461
 20
7.979985126945351
 30
0.0
 11
7.113123748214457
 21
7.979985126945351
 31
0.0
  0
LINE
  5
3741
330
1E
100
AcDbEntity
  8
OBJECT
100
AcDbLine
 10
7.113123748214457
 20
7.893214229411441
 30
0.0
 11
7.073748748214452
 21
7.893214229411441
 31
0.0
  0
LINE
  5
3742
330
1E
100
AcDbEntity
  8
OBJECT
100
AcDbLine
 10
7.073748748214452
 20
7.893214229411441
 30
0.0
 11
7.01468624821447
 21
7.893214229411441
 31
0.0
  0
LINE
  5
3743
102
{ACAD_REACTORS
330
568A
102
}
330
1E
100
AcDbEntity
  8
OBJECT
100
AcDbLine
 10
7.01468624821447
 20
7.93273512694536
 30
0.0
 11
7.074123748214461
 21
7.93273512694536
 31
0.0
  0
LINE
  5
3746
330
1E
100
AcDbEntity
  8
OBJECT
100
AcDbLine
 10
7.074123748214461
 20
7.93273512694536
 30
0.0
 11
7.074123748214461
 21
7.979985126945351
 31
0.0
  0
LINE
  5
3747
102
{ACAD_REACTORS
330
568A
102
}
330
1E
100
AcDbEntity
  8
OBJECT
100
AcDbLine
 10
7.113123748214457
 20
7.999672626945352
 30
0.0
 11
7.113123748214457
 21
7.979985126945351
 31
0.0
  0
LINE
  5
376F
102
{ACAD_REACTORS
330
5634
330
568A
102
}
330
1E
100
AcDbEntity
  8
OBJECT
100
AcDbLine
 10
7.074123748214461
 20
7.93273512694536
 30
0.0
 11
7.074123748214461
 21
7.999672626945316
 31
0.0
  0
ARC
  5
377F
102
{ACAD_REACTORS
330
5634
102
}
330
1E
100
AcDbEntity
  8
OBJECT
100
AcDbCircle
 10
47.64981124821443
 20
7.113735126945172
 30
0.0
 40
41.304375
100
AcDbArc
 50
179.5925182958827
 51
187.2545347749652
  0
ARC
  5
3781
102
{ACAD_REACTORS
330
5634
102
}
330
1E
100
AcDbEntity
  8
OBJECT
100
AcDbCircle
 10
47.64981124821443
 20
7.113735126945172
 30
0.0
 40
41.24531249999999
100
AcDbArc
 50
187.4875215625784
 51
187.7515679065609
  0
LINE
  5
37B6
102
{ACAD_REACTORS
330
5634
102
}
330
1E
100
AcDbEntity
  8
OBJECT
100
AcDbLine
 10
7.002873748214451
 20
7.889499828054709
 30
0.0
 11
6.561271839040545
 21
7.866356452667819
 31
0.0
  0
LINE
  5
37BB
102
{ACAD_REACTORS
330
5634
102
}
330
1E
100
AcDbEntity
  8
OBJECT
100
AcDbLine
 10
7.002873748214451
 20
7.936672626945306
 30
0.0
 11
7.074123748214461
 21
7.936672626945266
 31
0.0
  0
LINE
  5
37BC
330
1E
100
AcDbEntity
  8
OBJECT
100
AcDbLine
 10
6.80657899756661
 20
1.798110126945315
 30
0.0
 11
6.77626178255295
 21
1.798110126945315
 31
0.0
  0
LINE
  5
37BD
102
{ACAD_REACTORS
330
5634
102
}
330
1E
100
AcDbEntity
  8
OBJECT
100
AcDbLine
 10
6.783986292148217
 20
1.739047626945254
 30
0.0
 11
6.756186592285505
 21
1.739047626945284
 31
0.0
  0
LINE
  5
37C4
330
1E
100
AcDbEntity
  8
OBJECT
100
AcDbLine
 10
7.113123748214462
 20
18.83122103110316
 30
0.0
 11
7.113123748214462
 21
12.13747103110316
 31
0.0
  0
LINE
  5
37C5
330
1E
100
AcDbEntity
  8
OBJECT
100
AcDbLine
 10
6.30631124821447
 20
18.67888524362919
 30
0.0
 11
6.30631124821447
 21
18.24059603109001
 31
0.0
  0
ARC
  5
37C6
330
1E
100
AcDbEntity
  8
OBJECT
100
AcDbCircle
 10
6.42443624821449
 20
18.67888524362919
 30
0.0
 40
0.118125
100
AcDbArc
 50
93.00000000000558
 51
180.0
  0
LINE
  5
37C7
330
1E
100
AcDbEntity
  8
OBJECT
100
AcDbLine
 10
7.074123748214461
 20
12.13747103110316
 30
0.0
 11
6.817190703404506
 21
12.15093632140606
 31
0.0
  0
LINE
  5
37C8
330
1E
100
AcDbEntity
  8
OBJECT
100
AcDbLine
 10
7.074123748214461
 20
18.83122103110316
 30
0.0
 11
6.418254063383258
 21
18.7968483574221
 31
0.0
  0
LINE
  5
37C9
330
1E
100
AcDbEntity
  8
OBJECT
100
AcDbLine
 10
6.719748748214513
 20
12.9641060449475
 30
0.0
 11
6.719748748214513
 21
12.95623322271707
 31
0.0
  0
ARC
  5
37CA
330
1E
100
AcDbEntity
  8
OBJECT
100
AcDbCircle
 10
6.778811248214495
 20
12.9641060449475
 30
0.0
 40
0.0590625
100
AcDbArc
 50
93.00000000000558
 51
180.0
  0
LINE
  5
37CB
330
1E
100
AcDbEntity
  8
OBJECT
100
AcDbLine
 10
7.074123748214461
 20
12.881612996212
 30
0.0
 11
6.775720155798877
 21
12.89725166582064
 31
0.0
  0
ARC
  5
37CC
330
1E
100
AcDbEntity
  8
OBJECT
100
AcDbCircle
 10
6.778811248214495
 20
12.95623322271707
 30
0.0
 40
0.0590625
100
AcDbArc
 50
180.0
 51
266.9999999999943
  0
LINE
  5
37CD
330
1E
100
AcDbEntity
  8
OBJECT
100
AcDbLine
 10
7.074123748214461
 20
13.03872627145252
 30
0.0
 11
6.775720155798877
 21
13.02308760184395
 31
0.0
  0
LINE
  5
37CE
330
1E
100
AcDbEntity
  8
OBJECT
100
AcDbLine
 10
6.719748748214513
 20
13.2791060449475
 30
0.0
 11
6.719748748214513
 21
13.27123322271709
 31
0.0
  0
ARC
  5
37CF
330
1E
100
AcDbEntity
  8
OBJECT
100
AcDbCircle
 10
6.778811248214495
 20
13.2791060449475
 30
0.0
 40
0.0590625
100
AcDbArc
 50
93.00000000000558
 51
180.0
  0
LINE
  5
37D0
330
1E
100
AcDbEntity
  8
OBJECT
100
AcDbLine
 10
7.074123748214461
 20
13.196612996212
 30
0.0
 11
6.775720155798877
 21
13.21225166582064
 31
0.0
  0
ARC
  5
37D1
330
1E
100
AcDbEntity
  8
OBJECT
100
AcDbCircle
 10
6.778811248214495
 20
13.27123322271709
 30
0.0
 40
0.0590625
100
AcDbArc
 50
180.0
 51
266.9999999999943
  0
LINE
  5
37D2
330
1E
100
AcDbEntity
  8
OBJECT
100
AcDbLine
 10
7.074123748214461
 20
13.35372627145251
 30
0.0
 11
6.775720155798877
 21
13.33808760184393
 31
0.0
  0
LINE
  5
37D3
330
1E
100
AcDbEntity
  8
OBJECT
100
AcDbLine
 10
6.719748748214513
 20
13.5941060449475
 30
0.0
 11
6.719748748214513
 21
13.58623322271709
 31
0.0
  0
ARC
  5
37D4
330
1E
100
AcDbEntity
  8
OBJECT
100
AcDbCircle
 10
6.778811248214495
 20
13.5941060449475
 30
0.0
 40
0.0590625
100
AcDbArc
 50
93.00000000000558
 51
180.0
  0
LINE
  5
37D5
330
1E
100
AcDbEntity
  8
OBJECT
100
AcDbLine
 10
7.074123748214461
 20
13.511612996212
 30
0.0
 11
6.775720155798877
 21
13.52725166582064
 31
0.0
  0
ARC
  5
37D6
330
1E
100
AcDbEntity
  8
OBJECT
100
AcDbCircle
 10
6.778811248214495
 20
13.58623322271709
 30
0.0
 40
0.0590625
100
AcDbArc
 50
180.0
 51
266.9999999999943
  0
LINE
  5
37D7
330
1E
100
AcDbEntity
  8
OBJECT
100
AcDbLine
 10
7.074123748214461
 20
13.66872627145252
 30
0.0
 11
6.775720155798877
 21
13.65308760184394
 31
0.0
  0
LINE
  5
37D8
330
1E
100
AcDbEntity
  8
OBJECT
100
AcDbLine
 10
6.719748748214513
 20
13.9091060449475
 30
0.0
 11
6.719748748214513
 21
13.90123322271707
 31
0.0
  0
ARC
  5
37D9
330
1E
100
AcDbEntity
  8
OBJECT
100
AcDbCircle
 10
6.778811248214495
 20
13.9091060449475
 30
0.0
 40
0.0590625
100
AcDbArc
 50
93.00000000000558
 51
180.0
  0
LINE
  5
37DA
330
1E
100
AcDbEntity
  8
OBJECT
100
AcDbLine
 10
7.074123748214461
 20
13.826612996212
 30
0.0
 11
6.775720155798877
 21
13.84225166582064
 31
0.0
  0
ARC
  5
37DB
330
1E
100
AcDbEntity
  8
OBJECT
100
AcDbCircle
 10
6.778811248214495
 20
13.90123322271707
 30
0.0
 40
0.0590625
100
AcDbArc
 50
180.0
 51
266.9999999999943
  0
LINE
  5
37DC
330
1E
100
AcDbEntity
  8
OBJECT
100
AcDbLine
 10
7.074123748214461
 20
13.98372627145252
 30
0.0
 11
6.775720155798877
 21
13.96808760184393
 31
0.0
  0
LINE
  5
37DD
330
1E
100
AcDbEntity
  8
OBJECT
100
AcDbLine
 10
6.719748748214513
 20
14.2241060449475
 30
0.0
 11
6.719748748214513
 21
14.21623322271709
 31
0.0
  0
ARC
  5
37DE
330
1E
100
AcDbEntity
  8
OBJECT
100
AcDbCircle
 10
6.778811248214495
 20
14.2241060449475
 30
0.0
 40
0.0590625
100
AcDbArc
 50
93.00000000000558
 51
180.0
  0
LINE
  5
37DF
330
1E
100
AcDbEntity
  8
OBJECT
100
AcDbLine
 10
7.074123748214461
 20
14.141612996212
 30
0.0
 11
6.775720155798877
 21
14.15725166582064
 31
0.0
  0
ARC
  5
37E0
330
1E
100
AcDbEntity
  8
OBJECT
100
AcDbCircle
 10
6.778811248214495
 20
14.21623322271709
 30
0.0
 40
0.0590625
100
AcDbArc
 50
180.0
 51
266.9999999999943
  0
LINE
  5
37E1
330
1E
100
AcDbEntity
  8
OBJECT
100
AcDbLine
 10
7.074123748214461
 20
14.29872627145251
 30
0.0
 11
6.775720155798877
 21
14.28308760184394
 31
0.0
  0
LINE
  5
37E2
330
1E
100
AcDbEntity
  8
OBJECT
100
AcDbLine
 10
6.719748748214513
 20
14.5391060449475
 30
0.0
 11
6.719748748214513
 21
14.53123322271709
 31
0.0
  0
ARC
  5
37E3
330
1E
100
AcDbEntity
  8
OBJECT
100
AcDbCircle
 10
6.778811248214495
 20
14.5391060449475
 30
0.0
 40
0.0590625
100
AcDbArc
 50
93.00000000000558
 51
180.0
  0
LINE
  5
37E4
330
1E
100
AcDbEntity
  8
OBJECT
100
AcDbLine
 10
7.074123748214461
 20
14.456612996212
 30
0.0
 11
6.775720155798877
 21
14.47225166582064
 31
0.0
  0
ARC
  5
37E5
330
1E
100
AcDbEntity
  8
OBJECT
100
AcDbCircle
 10
6.778811248214495
 20
14.53123322271709
 30
0.0
 40
0.0590625
100
AcDbArc
 50
180.0
 51
266.9999999999943
  0
LINE
  5
37E6
330
1E
100
AcDbEntity
  8
OBJECT
100
AcDbLine
 10
7.074123748214461
 20
14.61372627145252
 30
0.0
 11
6.775720155798877
 21
14.59808760184395
 31
0.0
  0
LINE
  5
37E7
330
1E
100
AcDbEntity
  8
OBJECT
100
AcDbLine
 10
6.719748748214513
 20
14.8541060449475
 30
0.0
 11
6.719748748214513
 21
14.84623322271708
 31
0.0
  0
ARC
  5
37E8
330
1E
100
AcDbEntity
  8
OBJECT
100
AcDbCircle
 10
6.778811248214495
 20
14.8541060449475
 30
0.0
 40
0.0590625
100
AcDbArc
 50
93.00000000000558
 51
180.0
  0
LINE
  5
37E9
330
1E
100
AcDbEntity
  8
OBJECT
100
AcDbLine
 10
7.074123748214461
 20
14.771612996212
 30
0.0
 11
6.775720155798877
 21
14.78725166582064
 31
0.0
  0
ARC
  5
37EA
330
1E
100
AcDbEntity
  8
OBJECT
100
AcDbCircle
 10
6.778811248214495
 20
14.84623322271708
 30
0.0
 40
0.0590625
100
AcDbArc
 50
180.0
 51
266.9999999999943
  0
LINE
  5
37EB
330
1E
100
AcDbEntity
  8
OBJECT
100
AcDbLine
 10
7.074123748214461
 20
14.92872627145252
 30
0.0
 11
6.775720155798877
 21
14.91308760184393
 31
0.0
  0
LINE
  5
37EC
330
1E
100
AcDbEntity
  8
OBJECT
100
AcDbLine
 10
6.719748748214513
 20
15.1691060449475
 30
0.0
 11
6.719748748214513
 21
15.16123322271709
 31
0.0
  0
ARC
  5
37ED
330
1E
100
AcDbEntity
  8
OBJECT
100
AcDbCircle
 10
6.778811248214495
 20
15.1691060449475
 30
0.0
 40
0.0590625
100
AcDbArc
 50
93.00000000000558
 51
180.0
  0
LINE
  5
37EE
330
1E
100
AcDbEntity
  8
OBJECT
100
AcDbLine
 10
7.074123748214461
 20
15.086612996212
 30
0.0
 11
6.775720155798877
 21
15.10225166582064
 31
0.0
  0
ARC
  5
37EF
330
1E
100
AcDbEntity
  8
OBJECT
100
AcDbCircle
 10
6.778811248214495
 20
15.16123322271709
 30
0.0
 40
0.0590625
100
AcDbArc
 50
180.0
 51
266.9999999999943
  0
LINE
  5
37F0
330
1E
100
AcDbEntity
  8
OBJECT
100
AcDbLine
 10
7.074123748214461
 20
15.24372627145251
 30
0.0
 11
6.775720155798877
 21
15.22808760184394
 31
0.0
  0
LINE
  5
37F1
330
1E
100
AcDbEntity
  8
OBJECT
100
AcDbLine
 10
6.719748748214513
 20
15.4841060449475
 30
0.0
 11
6.719748748214513
 21
15.47623322271709
 31
0.0
  0
ARC
  5
37F2
330
1E
100
AcDbEntity
  8
OBJECT
100
AcDbCircle
 10
6.778811248214495
 20
15.4841060449475
 30
0.0
 40
0.0590625
100
AcDbArc
 50
93.00000000000558
 51
180.0
  0
LINE
  5
37F3
330
1E
100
AcDbEntity
  8
OBJECT
100
AcDbLine
 10
7.074123748214461
 20
15.401612996212
 30
0.0
 11
6.775720155798877
 21
15.41725166582063
 31
0.0
  0
ARC
  5
37F4
330
1E
100
AcDbEntity
  8
OBJECT
100
AcDbCircle
 10
6.778811248214495
 20
15.47623322271709
 30
0.0
 40
0.0590625
100
AcDbArc
 50
180.0
 51
266.9999999999943
  0
LINE
  5
37F5
330
1E
100
AcDbEntity
  8
OBJECT
100
AcDbLine
 10
7.074123748214461
 20
15.55872627145252
 30
0.0
 11
6.775720155798877
 21
15.54308760184395
 31
0.0
  0
LINE
  5
37F6
330
1E
100
AcDbEntity
  8
OBJECT
100
AcDbLine
 10
7.113123748214462
 20
18.83122103110316
 30
0.0
 11
7.113123748214462
 21
18.81153353110314
 31
0.0
  0
ARC
  5
37F7
330
1E
100
AcDbEntity
  8
OBJECT
100
AcDbCircle
 10
47.64933427034937
 20
17.99541965840534
 30
0.0
 40
41.34375
100
AcDbArc
 50
179.66022303908
 51
187.9845932305763
  0
ARC
  5
37F8
330
1E
100
AcDbEntity
  8
OBJECT
100
AcDbCircle
 10
6.823372888235681
 20
12.268899435199
 30
0.0
 40
0.118125
100
AcDbArc
 50
187.9845932305763
 51
266.9999999999943
  0
LINE
  5
37FF
330
1E
100
AcDbEntity
  8
OBJECT
100
AcDbLine
 10
7.684061248214476
 20
18.61447206554672
 30
0.0
 11
7.684061248214476
 21
12.35421999665954
 31
0.0
  0
ARC
  5
3800
330
1E
100
AcDbEntity
  8
OBJECT
100
AcDbCircle
 10
7.487186248214499
 20
18.61447206554672
 30
0.0
 40
0.196875
100
AcDbArc
 50
0.0
 51
86.99999999999439
  0
LINE
  5
3801
330
1E
100
AcDbEntity
  8
OBJECT
100
AcDbLine
 10
7.113123748214462
 20
12.13747103110316
 30
0.0
 11
7.497489889599791
 21
12.15761480700473
 31
0.0
  0
ARC
  5
3802
330
1E
100
AcDbEntity
  8
OBJECT
100
AcDbCircle
 10
7.487186248214499
 20
12.35421999665954
 30
0.0
 40
0.196875
100
AcDbArc
 50
273.0000000000056
 51
0.0
  0
LINE
  5
3803
330
1E
100
AcDbEntity
  8
OBJECT
100
AcDbLine
 10
7.113123748214462
 20
18.83122103110316
 30
0.0
 11
7.497489889599791
 21
18.81107725520156
 31
0.0
  0
LINE
  5
3804
330
1E
100
AcDbEntity
  8
OBJECT
100
AcDbLine
 10
7.467498748214465
 20
12.9641060449475
 30
0.0
 11
7.467498748214465
 21
12.95623322271707
 31
0.0
  0
ARC
  5
3805
330
1E
100
AcDbEntity
  8
OBJECT
100
AcDbCircle
 10
7.408436248214485
 20
12.9641060449475
 30
0.0
 40
0.0590625
100
AcDbArc
 50
0.0
 51
86.99999999999439
  0
LINE
  5
3806
330
1E
100
AcDbEntity
  8
OBJECT
100
AcDbLine
 10
7.113123748214462
 20
12.881612996212
 30
0.0
 11
7.411527340630101
 21
12.89725166582064
 31
0.0
  0
ARC
  5
3807
330
1E
100
AcDbEntity
  8
OBJECT
100
AcDbCircle
 10
7.408436248214485
 20
12.95623322271707
 30
0.0
 40
0.0590625
100
AcDbArc
 50
273.0000000000056
 51
0.0
  0
LINE
  5
3808
330
1E
100
AcDbEntity
  8
OBJECT
100
AcDbLine
 10
7.113123748214462
 20
13.03872627145252
 30
0.0
 11
7.411527340630101
 21
13.02308760184395
 31
0.0
  0
LINE
  5
3809
330
1E
100
AcDbEntity
  8
OBJECT
100
AcDbLine
 10
7.467498748214465
 20
13.2791060449475
 30
0.0
 11
7.467498748214465
 21
13.27123322271709
 31
0.0
  0
ARC
  5
380A
330
1E
100
AcDbEntity
  8
OBJECT
100
AcDbCircle
 10
7.408436248214485
 20
13.2791060449475
 30
0.0
 40
0.0590625
100
AcDbArc
 50
0.0
 51
86.99999999999439
  0
LINE
  5
380B
330
1E
100
AcDbEntity
  8
OBJECT
100
AcDbLine
 10
7.113123748214462
 20
13.196612996212
 30
0.0
 11
7.411527340630101
 21
13.21225166582064
 31
0.0
  0
ARC
  5
380C
330
1E
100
AcDbEntity
  8
OBJECT
100
AcDbCircle
 10
7.408436248214485
 20
13.27123322271709
 30
0.0
 40
0.0590625
100
AcDbArc
 50
273.0000000000056
 51
0.0
  0
LINE
  5
380D
330
1E
100
AcDbEntity
  8
OBJECT
100
AcDbLine
 10
7.113123748214462
 20
13.35372627145251
 30
0.0
 11
7.411527340630101
 21
13.33808760184393
 31
0.0
  0
LINE
  5
380E
330
1E
100
AcDbEntity
  8
OBJECT
100
AcDbLine
 10
7.467498748214465
 20
13.5941060449475
 30
0.0
 11
7.467498748214465
 21
13.58623322271709
 31
0.0
  0
ARC
  5
380F
330
1E
100
AcDbEntity
  8
OBJECT
100
AcDbCircle
 10
7.408436248214485
 20
13.5941060449475
 30
0.0
 40
0.0590625
100
AcDbArc
 50
0.0
 51
86.99999999999439
  0
LINE
  5
3810
330
1E
100
AcDbEntity
  8
OBJECT
100
AcDbLine
 10
7.113123748214462
 20
13.511612996212
 30
0.0
 11
7.411527340630101
 21
13.52725166582064
 31
0.0
  0
ARC
  5
3811
330
1E
100
AcDbEntity
  8
OBJECT
100
AcDbCircle
 10
7.408436248214485
 20
13.58623322271709
 30
0.0
 40
0.0590625
100
AcDbArc
 50
273.0000000000056
 51
0.0
  0
LINE
  5
3812
330
1E
100
AcDbEntity
  8
OBJECT
100
AcDbLine
 10
7.113123748214462
 20
13.66872627145252
 30
0.0
 11
7.411527340630101
 21
13.65308760184394
 31
0.0
  0
LINE
  5
3813
330
1E
100
AcDbEntity
  8
OBJECT
100
AcDbLine
 10
7.467498748214465
 20
13.9091060449475
 30
0.0
 11
7.467498748214465
 21
13.90123322271707
 31
0.0
  0
ARC
  5
3814
330
1E
100
AcDbEntity
  8
OBJECT
100
AcDbCircle
 10
7.408436248214485
 20
13.9091060449475
 30
0.0
 40
0.0590625
100
AcDbArc
 50
0.0
 51
86.99999999999439
  0
LINE
  5
3815
330
1E
100
AcDbEntity
  8
OBJECT
100
AcDbLine
 10
7.113123748214462
 20
13.826612996212
 30
0.0
 11
7.411527340630101
 21
13.84225166582064
 31
0.0
  0
ARC
  5
3816
330
1E
100
AcDbEntity
  8
OBJECT
100
AcDbCircle
 10
7.408436248214485
 20
13.90123322271707
 30
0.0
 40
0.0590625
100
AcDbArc
 50
273.0000000000056
 51
0.0
  0
LINE
  5
3817
330
1E
100
AcDbEntity
  8
OBJECT
100
AcDbLine
 10
7.113123748214462
 20
13.98372627145252
 30
0.0
 11
7.411527340630101
 21
13.96808760184393
 31
0.0
  0
LINE
  5
3818
330
1E
100
AcDbEntity
  8
OBJECT
100
AcDbLine
 10
7.467498748214465
 20
14.2241060449475
 30
0.0
 11
7.467498748214465
 21
14.21623322271709
 31
0.0
  0
ARC
  5
3819
330
1E
100
AcDbEntity
  8
OBJECT
100
AcDbCircle
 10
7.408436248214485
 20
14.2241060449475
 30
0.0
 40
0.0590625
100
AcDbArc
 50
0.0
 51
86.99999999999439
  0
LINE
  5
381A
330
1E
100
AcDbEntity
  8
OBJECT
100
AcDbLine
 10
7.113123748214462
 20
14.141612996212
 30
0.0
 11
7.411527340630101
 21
14.15725166582064
 31
0.0
  0
ARC
  5
381B
330
1E
100
AcDbEntity
  8
OBJECT
100
AcDbCircle
 10
7.408436248214485
 20
14.21623322271709
 30
0.0
 40
0.0590625
100
AcDbArc
 50
273.0000000000056
 51
0.0
  0
LINE
  5
381C
330
1E
100
AcDbEntity
  8
OBJECT
100
AcDbLine
 10
7.113123748214462
 20
14.29872627145251
 30
0.0
 11
7.411527340630101
 21
14.28308760184394
 31
0.0
  0
LINE
  5
381D
330
1E
100
AcDbEntity
  8
OBJECT
100
AcDbLine
 10
7.467498748214465
 20
14.5391060449475
 30
0.0
 11
7.467498748214465
 21
14.53123322271709
 31
0.0
  0
ARC
  5
381E
330
1E
100
AcDbEntity
  8
OBJECT
100
AcDbCircle
 10
7.408436248214485
 20
14.5391060449475
 30
0.0
 40
0.0590625
100
AcDbArc
 50
0.0
 51
86.99999999999439
  0
LINE
  5
381F
330
1E
100
AcDbEntity
  8
OBJECT
100
AcDbLine
 10
7.113123748214462
 20
14.456612996212
 30
0.0
 11
7.411527340630101
 21
14.47225166582064
 31
0.0
  0
ARC
  5
3820
330
1E
100
AcDbEntity
  8
OBJECT
100
AcDbCircle
 10
7.408436248214485
 20
14.53123322271709
 30
0.0
 40
0.0590625
100
AcDbArc
 50
273.0000000000056
 51
0.0
  0
LINE
  5
3821
330
1E
100
AcDbEntity
  8
OBJECT
100
AcDbLine
 10
7.113123748214462
 20
14.61372627145252
 30
0.0
 11
7.411527340630101
 21
14.59808760184395
 31
0.0
  0
LINE
  5
3822
330
1E
100
AcDbEntity
  8
OBJECT
100
AcDbLine
 10
7.467498748214465
 20
14.8541060449475
 30
0.0
 11
7.467498748214465
 21
14.84623322271708
 31
0.0
  0
ARC
  5
3823
330
1E
100
AcDbEntity
  8
OBJECT
100
AcDbCircle
 10
7.408436248214485
 20
14.8541060449475
 30
0.0
 40
0.0590625
100
AcDbArc
 50
0.0
 51
86.99999999999439
  0
LINE
  5
3824
330
1E
100
AcDbEntity
  8
OBJECT
100
AcDbLine
 10
7.113123748214462
 20
14.771612996212
 30
0.0
 11
7.411527340630101
 21
14.78725166582064
 31
0.0
  0
ARC
  5
3825
330
1E
100
AcDbEntity
  8
OBJECT
100
AcDbCircle
 10
7.408436248214485
 20
14.84623322271708
 30
0.0
 40
0.0590625
100
AcDbArc
 50
273.0000000000056
 51
0.0
  0
LINE
  5
3826
330
1E
100
AcDbEntity
  8
OBJECT
100
AcDbLine
 10
7.113123748214462
 20
14.92872627145252
 30
0.0
 11
7.411527340630101
 21
14.91308760184393
 31
0.0
  0
LINE
  5
3827
330
1E
100
AcDbEntity
  8
OBJECT
100
AcDbLine
 10
7.467498748214465
 20
15.1691060449475
 30
0.0
 11
7.467498748214465
 21
15.16123322271709
 31
0.0
  0
ARC
  5
3828
330
1E
100
AcDbEntity
  8
OBJECT
100
AcDbCircle
 10
7.408436248214485
 20
15.1691060449475
 30
0.0
 40
0.0590625
100
AcDbArc
 50
0.0
 51
86.99999999999439
  0
LINE
  5
3829
330
1E
100
AcDbEntity
  8
OBJECT
100
AcDbLine
 10
7.113123748214462
 20
15.086612996212
 30
0.0
 11
7.411527340630101
 21
15.10225166582064
 31
0.0
  0
ARC
  5
382A
330
1E
100
AcDbEntity
  8
OBJECT
100
AcDbCircle
 10
7.408436248214485
 20
15.16123322271709
 30
0.0
 40
0.0590625
100
AcDbArc
 50
273.0000000000056
 51
0.0
  0
LINE
  5
382B
330
1E
100
AcDbEntity
  8
OBJECT
100
AcDbLine
 10
7.113123748214462
 20
15.24372627145251
 30
0.0
 11
7.411527340630101
 21
15.22808760184394
 31
0.0
  0
LINE
  5
382C
330
1E
100
AcDbEntity
  8
OBJECT
100
AcDbLine
 10
7.467498748214465
 20
15.4841060449475
 30
0.0
 11
7.467498748214465
 21
15.47623322271709
 31
0.0
  0
ARC
  5
382D
330
1E
100
AcDbEntity
  8
OBJECT
100
AcDbCircle
 10
7.408436248214485
 20
15.4841060449475
 30
0.0
 40
0.0590625
100
AcDbArc
 50
0.0
 51
86.99999999999439
  0
LINE
  5
382E
330
1E
100
AcDbEntity
  8
OBJECT
100
AcDbLine
 10
7.113123748214462
 20
15.401612996212
 30
0.0
 11
7.411527340630101
 21
15.41725166582063
 31
0.0
  0
ARC
  5
382F
330
1E
100
AcDbEntity
  8
OBJECT
100
AcDbCircle
 10
7.408436248214485
 20
15.47623322271709
 30
0.0
 40
0.0590625
100
AcDbArc
 50
273.0000000000056
 51
0.0
  0
LINE
  5
3830
330
1E
100
AcDbEntity
  8
OBJECT
100
AcDbLine
 10
7.113123748214462
 20
15.55872627145252
 30
0.0
 11
7.411527340630101
 21
15.54308760184395
 31
0.0
  0
LINE
  5
3831
330
1E
100
AcDbEntity
  8
OBJECT
100
AcDbLine
 10
7.113123748214462
 20
18.83122103110316
 30
0.0
 11
7.113123748214462
 21
18.81153353110314
 31
0.0
  0
LINE
  5
3832
330
1E
100
AcDbEntity
  8
OBJECT
100
AcDbLine
 10
7.113123748214462
 20
18.81153353110314
 30
0.0
 11
7.073748748214512
 21
18.81153353110314
 31
0.0
  0
LINE
  5
3833
330
1E
100
AcDbEntity
  8
OBJECT
100
AcDbLine
 10
7.073748748214507
 20
18.83120137818593
 30
0.0
 11
7.073748748214507
 21
12.13749068402039
 31
0.0
  0
LINE
  5
3836
330
1E
100
AcDbEntity
  8
OBJECT
100
AcDbLine
 10
7.073748748214512
 20
12.15715853110316
 30
0.0
 11
7.113123748214462
 21
12.15715853110316
 31
0.0
  0
CIRCLE
  5
3850
330
1E
100
AcDbEntity
  8
OBJECT
100
AcDbCircle
 10
9.587740311038729
 20
18.23988903464785
 30
0.0
 40
0.135
  0
CIRCLE
  5
3851
330
1E
100
AcDbEntity
  8
OBJECT
100
AcDbCircle
 10
9.587740311038729
 20
18.23988903464785
 30
0.0
 40
0.063
  0
LINE
  5
38DD
330
1E
100
AcDbEntity
  8
OBJECT
100
AcDbLine
 10
10.1828469313844
 20
17.93276403464782
 30
0.0
 11
9.946596931384414
 21
17.93276403464789
 31
0.0
  0
LINE
  5
38DF
330
1E
100
AcDbEntity
  8
OBJECT
100
AcDbLine
 10
10.1828469313844
 20
17.89338903464786
 30
0.0
 11
9.985971931384424
 21
17.8933890346478
 31
0.0
  0
LINE
  5
38E0
330
1E
100
AcDbEntity
  8
OBJECT
100
AcDbLine
 10
9.985971931384424
 20
17.8933890346478
 30
0.0
 11
9.985971931384424
 21
17.69651403464785
 31
0.0
  0
LINE
  5
38E1
330
1E
100
AcDbEntity
  8
OBJECT
100
AcDbLine
 10
9.946596931384414
 20
17.93276403464783
 30
0.0
 11
9.946596931384414
 21
17.69651403464785
 31
0.0
  0
LINE
  5
38E2
330
1E
100
AcDbEntity
  8
OBJECT
100
AcDbLine
 10
10.1828469313844
 20
17.93276403464783
 30
0.0
 11
10.1828469313844
 21
17.8933890346478
 31
0.0
  0
LINE
  5
38E3
330
1E
100
AcDbEntity
  8
OBJECT
100
AcDbLine
 10
9.946596931384414
 20
17.69651403464785
 30
0.0
 11
9.985971931384424
 21
17.69651403464785
 31
0.0
  0
LINE
  5
38E4
330
1E
100
AcDbEntity
  8
OBJECT
100
AcDbLine
 10
11.98622193138443
 20
17.93276403464782
 30
0.0
 11
12.22247193138441
 21
17.93276403464789
 31
0.0
  0
LINE
  5
38E5
330
1E
100
AcDbEntity
  8
OBJECT
100
AcDbLine
 10
11.98622193138443
 20
17.89338903464786
 30
0.0
 11
12.1830969313844
 21
17.8933890346478
 31
0.0
  0
LINE
  5
38E6
330
1E
100
AcDbEntity
  8
OBJECT
100
AcDbLine
 10
12.1830969313844
 20
17.8933890346478
 30
0.0
 11
12.1830969313844
 21
17.69651403464785
 31
0.0
  0
LINE
  5
38E7
330
1E
100
AcDbEntity
  8
OBJECT
100
AcDbLine
 10
12.22247193138441
 20
17.93276403464783
 30
0.0
 11
12.22247193138441
 21
17.69651403464785
 31
0.0
  0
LINE
  5
38E8
330
1E
100
AcDbEntity
  8
OBJECT
100
AcDbLine
 10
11.98622193138443
 20
17.93276403464783
 30
0.0
 11
11.98622193138443
 21
17.8933890346478
 31
0.0
  0
LINE
  5
38E9
330
1E
100
AcDbEntity
  8
OBJECT
100
AcDbLine
 10
12.22247193138441
 20
17.69651403464785
 30
0.0
 11
12.1830969313844
 21
17.69651403464785
 31
0.0
  0
CIRCLE
  5
38EA
330
1E
100
AcDbEntity
  8
OBJECT
100
AcDbCircle
 10
11.08453443138445
 20
16.34988903464784
 30
0.0
 40
0.04921875
  0
LINE
  5
38F7
330
1E
100
AcDbEntity
  8
OBJECT
100
AcDbLine
 10
7.684061248214476
 20
17.92559603110316
 30
0.0
 11
7.723436248214481
 21
17.92559603110316
 31
0.0
  0
LINE
  5
38F8
330
1E
100
AcDbEntity
  8
OBJECT
100
AcDbLine
 10
7.723436248214481
 20
17.92559603110316
 30
0.0
 11
7.723436248214481
 21
17.68934603110316
 31
0.0
  0
LINE
  5
38F9
330
1E
100
AcDbEntity
  8
OBJECT
100
AcDbLine
 10
7.723436248214481
 20
17.68934603110316
 30
0.0
 11
7.684061248214476
 21
17.68934603110316
 31
0.0
  0
LWPOLYLINE
  5
3DD0
330
1E
100
AcDbEntity
  8
OBJECT
100
AcDbPolyline
 90
       24
 70
     0
 43
0.0
 10
3.117253963827165
 20
12.13676730090647
 42
-0.0675986807624592
 10
1.567995177933354
 20
12.34551137384225
 42
-0.3220547251245924
 10
1.337175638527284
 20
12.63168132618877
 42
0.0028825037661966
 10
1.321860212970234
 20
12.88090599975906
 10
1.310721657717961
 20
13.03801927499725
 42
0.0018188195621573
 10
1.298436863443255
 20
13.19509433566587
 10
1.285004905073989
 20
13.35212895639881
 42
0.0018221236260025
 10
1.270408073745427
 20
13.50929349849031
 10
1.254677920828143
 20
13.66623418822913
 42
0.0018260130513249
 10
1.237755297670483
 20
13.82350420461549
 10
1.219721349948299
 20
13.980335356783
 42
0.0018304988593078
 10
1.200456853137822
 20
14.13772720103423
 10
1.180112704599066
 20
14.29443282593476
 42
0.0018355938306769
 10
1.158487848959495
 20
14.45196326635103
 10
1.135826291436827
 20
14.60852693749493
 42
0.0018413125727635
 10
1.111820100208069
 20
14.76621321177962
 10
1.086833127374788
 20
14.92261801154064
 42
0.0018476715973638
 10
1.060422031475218
 20
15.08047788218151
 10
1.033100843146356
 20
15.23670634671761
 42
0.0018546894102842
 10
1.004258566891659
 20
15.39475815733116
 10
0.9761909137080664
 20
15.55246443499339
 42
-0.1219428314126295
 10
1.219018742796137
 20
18.38074729130205
 42
-0.2415518767666402
 10
1.425785069026444
 20
18.58061646104809
 42
-0.0737368616922185
 10
3.111094448948719
 20
18.83051403464789
  0
LWPOLYLINE
  5
3DD1
330
1E
100
AcDbEntity
  8
OBJECT
100
AcDbPolyline
 90
       24
 70
     0
 43
0.0
 10
3.104934934070271
 20
12.13676730090647
 42
0.0675986807624592
 10
4.65419371996414
 20
12.34551137384225
 42
0.3220547251245924
 10
4.885013259370097
 20
12.63168132618877
 42
-0.0028825037661966
 10
4.900328684927201
 20
12.88090599975906
 10
4.911467240179475
 20
13.03801927499725
 42
-0.0018188195621573
 10
4.923752034458387
 20
13.19509433566844
 10
4.937183992823448
 20
13.35212895639881
 42
-0.0018221236260025
 10
4.951780824152008
 20
13.50929349849031
 10
4.967510977069295
 20
13.66623418822913
 42
-0.0018260130513249
 10
4.984433600232746
 20
13.82350420461885
 10
5.002467547949137
 20
13.980335356783
 42
-0.0018304988593078
 10
5.021732044768717
 20
14.13772720103933
 10
5.042076193298369
 20
14.29443282593476
 42
-0.0018355938306769
 10
5.063701048958462
 20
14.45196326636209
 10
5.08636260646061
 20
14.60852693749493
 42
-0.0018413125727635
 10
5.110368797679071
 20
14.76621321177429
 10
5.135355770514463
 20
14.92261801154887
 10
5.161766866410046
 20
15.08047788217545
 10
5.189088054751081
 20
15.23670634671761
 42
-0.0018546894102842
 10
5.217930330993779
 20
15.39475815732542
 10
5.245997984189429
 20
15.55246443499339
 42
0.1219428314126295
 10
5.003170155101358
 20
18.38074729130205
 42
0.2415518767666402
 10
4.796403828870992
 20
18.58061646104809
 42
0.0737368616922185
 10
3.111094448948719
 20
18.83051403464789
  0
LWPOLYLINE
  5
3DD4
330
1E
100
AcDbEntity
  8
OBJECT
100
AcDbPolyline
 90
        2
 70
     0
 43
0.0
 10
4.90032868492362
 20
12.88090599975673
 42
0.500040291501851
 10
4.911467240176234
 20
13.03801927500003
  0
LWPOLYLINE
  5
3DD5
330
1E
100
AcDbEntity
  8
OBJECT
100
AcDbPolyline
 90
        2
 70
     0
 43
0.0
 10
4.923752034458387
 20
13.19509433566844
 42
0.5005720418603011
 10
4.937183992827086
 20
13.35212895639555
  0
LWPOLYLINE
  5
3DD6
330
1E
100
AcDbEntity
  8
OBJECT
100
AcDbPolyline
 90
        2
 70
     0
 43
0.0
 10
4.951780824152008
 20
13.50929349849031
 42
0.5012033706101759
 10
4.967510977063099
 20
13.66623418823482
  0
LWPOLYLINE
  5
3DD7
330
1E
100
AcDbEntity
  8
OBJECT
100
AcDbPolyline
 90
        2
 70
     0
 43
0.0
 10
4.984433600232746
 20
13.82350420461885
 42
0.5019346143857906
 10
5.002467547954025
 20
13.98033535677836
  0
LWPOLYLINE
  5
3DD8
330
1E
100
AcDbEntity
  8
OBJECT
100
AcDbPolyline
 90
        2
 70
     0
 43
0.0
 10
5.021732044759616
 20
14.13772720103423
 42
0.5027661677900448
 10
5.042076193290922
 20
14.29443282594196
  0
LWPOLYLINE
  5
3DD9
330
1E
100
AcDbEntity
  8
OBJECT
100
AcDbPolyline
 90
        2
 70
     0
 43
0.0
 10
5.063701048937999
 20
14.45196326635103
 42
0.5036984840427105
 10
5.086362606444069
 20
14.60852693751138
  0
LWPOLYLINE
  5
3DDA
330
1E
100
AcDbEntity
  8
OBJECT
100
AcDbPolyline
 90
        2
 70
     0
 43
0.0
 10
5.110368797679071
 20
14.76621321177429
 42
0.5047320779864101
 10
5.135355770514463
 20
14.92261801154887
  0
LWPOLYLINE
  5
3DDB
330
1E
100
AcDbEntity
  8
OBJECT
100
AcDbPolyline
 90
        2
 70
     0
 43
0.0
 10
5.161766866410046
 20
15.08047788217545
 42
0.5058675289630053
 10
5.189088054741702
 20
15.23670634672739
  0
LWPOLYLINE
  5
3DDC
330
1E
100
AcDbEntity
  8
OBJECT
100
AcDbPolyline
 90
        2
 70
     0
 43
0.0
 10
5.217930330993779
 20
15.39475815732542
 42
0.5145111880172629
 10
5.245997984182719
 20
15.55246443500005
  0
LWPOLYLINE
  5
3DE2
330
1E
100
AcDbEntity
  8
OBJECT
100
AcDbPolyline
 90
        2
 70
     0
 43
0.0
 10
5.161766866422211
 20
15.08047788218147
 42
0.0018476715973638
 10
5.13535577052265
 20
14.92261801154064
  0
LWPOLYLINE
  5
3DE5
330
1E
100
AcDbEntity
  8
OBJECT
100
AcDbPolyline
 90
        2
 70
     0
 43
0.0
 10
1.310721657721202
 20
13.03801927500003
 42
0.500040291501851
 10
1.321860212973815
 20
12.88090599975673
  0
LWPOLYLINE
  5
3DE6
330
1E
100
AcDbEntity
  8
OBJECT
100
AcDbPolyline
 90
        2
 70
     0
 43
0.0
 10
1.28500490507035
 20
13.35212895639555
 42
0.5005720418603011
 10
1.298436863439107
 20
13.19509433566844
  0
LWPOLYLINE
  5
3DE7
330
1E
100
AcDbEntity
  8
OBJECT
100
AcDbPolyline
 90
        2
 70
     0
 43
0.0
 10
1.254677920834338
 20
13.66623418823482
 42
0.5012033706101759
 10
1.270408073745427
 20
13.50929349849031
  0
LWPOLYLINE
  5
3DE8
330
1E
100
AcDbEntity
  8
OBJECT
100
AcDbPolyline
 90
        2
 70
     0
 43
0.0
 10
1.219721349943412
 20
13.98033535677836
 42
0.5019346143857905
 10
1.237755297664689
 20
13.82350420461885
  0
LWPOLYLINE
  5
3DE9
330
1E
100
AcDbEntity
  8
OBJECT
100
AcDbPolyline
 90
        2
 70
     0
 43
0.0
 10
1.18011270460657
 20
14.29443282594196
 42
0.5027661677900448
 10
1.200456853137822
 20
14.13772720103423
  0
LWPOLYLINE
  5
3DEA
330
1E
100
AcDbEntity
  8
OBJECT
100
AcDbPolyline
 90
        2
 70
     0
 43
0.0
 10
1.135826291453369
 20
14.60852693751138
 42
0.5036984840427105
 10
1.158487848959495
 20
14.45196326635103
  0
LWPOLYLINE
  5
3DEB
330
1E
100
AcDbEntity
  8
OBJECT
100
AcDbPolyline
 90
        2
 70
     0
 43
0.0
 10
1.086833127382973
 20
14.92261801154887
 42
0.50473207798641
 10
1.111820100218365
 20
14.76621321177429
  0
LWPOLYLINE
  5
3DEC
330
1E
100
AcDbEntity
  8
OBJECT
100
AcDbPolyline
 90
        2
 70
     0
 43
0.0
 10
1.033100843155736
 20
15.23670634672739
 42
0.5058675289630053
 10
1.060422031487389
 20
15.08047788217545
  0
LWPOLYLINE
  5
3DED
330
1E
100
AcDbEntity
  8
OBJECT
100
AcDbPolyline
 90
        2
 70
     0
 43
0.0
 10
0.9761909137147164
 20
15.55246443500005
 42
0.5145111880172629
 10
1.004258566903713
 20
15.39475815732542
  0
LINE
  5
3E0A
330
1E
100
AcDbEntity
  8
OBJECT
100
AcDbLine
 10
4.486094448948717
 20
12.72895480090647
 30
0.0
 11
1.736094448948712
 21
12.72895480090648
 31
0.0
  0
LINE
  5
3E0B
330
1E
100
AcDbEntity
  8
OBJECT
100
AcDbLine
 10
4.486094448948717
 20
18.23832980090646
 30
0.0
 11
1.736094448948719
 21
18.23832980090646
 31
0.0
  0
LINE
  5
3E0D
330
1E
100
AcDbEntity
  8
OBJECT
100
AcDbLine
 10
1.736094448948719
 20
18.23832980090646
 30
0.0
 11
1.736094448948712
 21
12.72895480090648
 31
0.0
  0
LINE
  5
3E0E
330
1E
100
AcDbEntity
  8
OBJECT
100
AcDbLine
 10
4.486094448948717
 20
18.23832980090646
 30
0.0
 11
4.486094448948717
 21
12.72895480090647
 31
0.0
  0
LINE
  5
3E0F
330
1E
100
AcDbEntity
  8
CENTER
100
AcDbLine
 10
3.111094448948772
 20
18.83051403464789
 30
0.0
 11
3.111094448948772
 21
12.13676403464793
 31
0.0
  0
LINE
  5
3E11
330
1E
100
AcDbEntity
  8
CENTER
100
AcDbLine
 10
5.233748836618936
 20
15.48363903464792
 30
0.0
 11
0.98844006127816
 21
15.48363903464792
 31
0.0
  0
LINE
  5
3E12
330
1E
100
AcDbEntity
  8
CENTER
100
AcDbLine
 10
13.20718881905466
 20
15.48363903464792
 30
0.0
 11
8.961880043713897
 21
15.48363903464792
 31
0.0
  0
LINE
  5
3E13
330
1E
100
AcDbEntity
  8
CENTER
100
AcDbLine
 10
11.08453443138449
 20
18.83051403464789
 30
0.0
 11
11.08453443138449
 21
12.13676403464793
 31
0.0
  0
LINE
  5
3E50
330
1E
100
AcDbEntity
  8
CENTER
100
AcDbLine
 10
3.111094448948772
 20
7.999669360686737
 30
0.0
 11
3.111094448948772
 21
1.30591936068679
 31
0.0
  0
LINE
  5
3E53
330
1E
100
AcDbEntity
  8
CENTER
100
AcDbLine
 10
5.233748836618936
 20
4.652794360686761
 30
0.0
 11
0.98844006127816
 21
4.652794360686761
 31
0.0
  0
LINE
  5
3E69
330
1E
100
AcDbEntity
  8
CENTER
100
AcDbLine
 10
11.08453443138449
 20
7.999669360686736
 30
0.0
 11
11.08453443138449
 21
1.305919360686788
 31
0.0
  0
CIRCLE
  5
3E6B
330
1E
100
AcDbEntity
  8
OBJECT
100
AcDbCircle
 10
12.30515943138449
 20
4.652797626945242
 30
0.0
 40
0.118125
  0
CIRCLE
  5
3E6C
330
1E
100
AcDbEntity
  8
OBJECT
100
AcDbCircle
 10
9.863909431384465
 20
4.652797626945242
 30
0.0
 40
0.118125
  0
CIRCLE
  5
3E6E
330
1E
100
AcDbEntity
  8
OBJECT
100
AcDbCircle
 10
10.173093743359
 20
1.679990478479766
 30
0.0
 40
0.1771875
  0
LINE
  5
3E75
330
1E
100
AcDbEntity
  8
CENTER
100
AcDbLine
 10
13.20718881905466
 20
4.652794360686758
 30
0.0
 11
8.961880043713897
 21
4.652794360686758
 31
0.0
  0
CIRCLE
  5
3E8E
330
1E
100
AcDbEntity
  8
OBJECT
100
AcDbCircle
 10
9.863909431384465
 20
2.290297626945243
 30
0.0
 40
0.0433125
  0
CIRCLE
  5
3E8F
330
1E
100
AcDbEntity
  8
OBJECT
100
AcDbCircle
 10
9.863909431384465
 20
2.290297626945243
 30
0.0
 40
0.118125
  0
CIRCLE
  5
3E93
330
1E
100
AcDbEntity
  8
OBJECT
100
AcDbCircle
 10
10.173093743359
 20
1.679990478479766
 30
0.0
 40
0.063
  0
CIRCLE
  5
3E94
330
1E
100
AcDbEntity
  8
OBJECT
100
AcDbCircle
 10
10.173093743359
 20
1.679990478479766
 30
0.0
 40
0.118125
  0
CIRCLE
  5
3EE5
330
1E
100
AcDbEntity
  8
OBJECT
100
AcDbCircle
 10
9.863909431384465
 20
4.652797626945242
 30
0.0
 40
0.0433125
  0
CIRCLE
  5
3F18
330
1E
100
AcDbEntity
  8
OBJECT
100
AcDbCircle
 10
12.30515943138449
 20
2.290297626945243
 30
0.0
 40
0.0433125
  0
CIRCLE
  5
3F19
330
1E
100
AcDbEntity
  8
OBJECT
100
AcDbCircle
 10
12.30515943138449
 20
2.290297626945243
 30
0.0
 40
0.118125
  0
CIRCLE
  5
3F2F
330
1E
100
AcDbEntity
  8
OBJECT
100
AcDbCircle
 10
12.30515943138449
 20
4.652797626945242
 30
0.0
 40
0.0433125
  0
CIRCLE
  5
3F36
330
1E
100
AcDbEntity
  8
OBJECT
100
AcDbCircle
 10
11.08453443138445
 20
5.519047626945278
 30
0.0
 40
0.118125
  0
CIRCLE
  5
3F3A
330
1E
100
AcDbEntity
  8
OBJECT
100
AcDbCircle
 10
9.863909431384465
 20
7.015297626945246
 30
0.0
 40
0.0433125
  0
CIRCLE
  5
3F3B
330
1E
100
AcDbEntity
  8
OBJECT
100
AcDbCircle
 10
9.863909431384465
 20
7.015297626945246
 30
0.0
 40
0.118125
  0
CIRCLE
  5
3F40
330
1E
100
AcDbEntity
  8
OBJECT
100
AcDbCircle
 10
9.587740311038672
 20
7.409047626945207
 30
0.0
 40
0.1771875
  0
CIRCLE
  5
3F41
330
1E
100
AcDbEntity
  8
OBJECT
100
AcDbCircle
 10
9.587740311038729
 20
7.409044360686705
 30
0.0
 40
0.063
  0
CIRCLE
  5
3F42
330
1E
100
AcDbEntity
  8
OBJECT
100
AcDbCircle
 10
9.587740311038729
 20
7.409044360686705
 30
0.0
 40
0.118125
  0
CIRCLE
  5
3F44
330
1E
100
AcDbEntity
  8
OBJECT
100
AcDbCircle
 10
12.30515943138449
 20
7.015297626945246
 30
0.0
 40
0.118125
  0
CIRCLE
  5
3F45
330
1E
100
AcDbEntity
  8
OBJECT
100
AcDbCircle
 10
12.30515943138449
 20
7.015297626945246
 30
0.0
 40
0.0433125
  0
CIRCLE
  5
3F49
330
1E
100
AcDbEntity
  8
OBJECT
100
AcDbCircle
 10
12.58024157323002
 20
7.409042458557116
 30
0.0
 40
0.1771875
  0
CIRCLE
  5
3F4A
330
1E
100
AcDbEntity
  8
OBJECT
100
AcDbCircle
 10
12.58024157323007
 20
7.409039192298605
 30
0.0
 40
0.063
  0
CIRCLE
  5
3F4B
330
1E
100
AcDbEntity
  8
OBJECT
100
AcDbCircle
 10
12.58024157323007
 20
7.409039192298605
 30
0.0
 40
0.118125
  0
LWPOLYLINE
  5
3F9F
330
1E
100
AcDbEntity
  8
OBJECT
100
AcDbPolyline
 90
       24
 70
     0
 43
0.0
 10
11.09069394626289
 20
12.13676730090647
 42
-0.0675986807624592
 10
9.541435160369086
 20
12.34551137384225
 42
-0.3220547251245924
 10
9.310615620963019
 20
12.63168132618877
 42
0.0028825037661966
 10
9.295300195405973
 20
12.88090599975906
 10
9.284161640153698
 20
13.03801927499725
 42
0.0018188195621573
 10
9.271876845878992
 20
13.19509433566587
 10
9.258444887509725
 20
13.35212895639881
 42
0.0018221236260025
 10
9.243848056181164
 20
13.50929349849031
 10
9.228117903263878
 20
13.66623418822913
 42
0.0018260130513249
 10
9.211195280106217
 20
13.82350420461549
 10
9.193161332384036
 20
13.980335356783
 42
0.0018304988593078
 10
9.173896835573556
 20
14.13772720103423
 10
9.153552687034805
 20
14.29443282593476
 42
0.0018355938306769
 10
9.131927831395231
 20
14.45196326635103
 10
9.109266273872565
 20
14.60852693749493
 42
0.0018413125727635
 10
9.085260082643804
 20
14.76621321177962
 10
9.060273109810523
 20
14.92261801154064
 42
0.0018476715973638
 10
9.033862013910955
 20
15.08047788218151
 10
9.006540825582092
 20
15.23670634671761
 42
0.0018546894102842
 10
8.977698549327396
 20
15.39475815733116
 10
8.949630896143801
 20
15.55246443499339
 42
-0.1219428314126295
 10
9.192458725231871
 20
18.38074729130205
 42
-0.2415518767666402
 10
9.399225051462179
 20
18.58061646104809
 42
-0.0737368616922185
 10
11.08453443138445
 20
18.83051403464789
  0
LWPOLYLINE
  5
3FA0
330
1E
100
AcDbEntity
  8
OBJECT
100
AcDbPolyline
 90
        2
 70
     0
 43
0.0
 10
9.193161332379148
 20
13.98033535677836
 42
0.5019346143857905
 10
9.211195280100426
 20
13.82350420461885
  0
LWPOLYLINE
  5
3FA1
330
1E
100
AcDbEntity
  8
OBJECT
100
AcDbPolyline
 90
        2
 70
     0
 43
0.0
 10
9.284161640156938
 20
13.03801927500003
 42
0.500040291501851
 10
9.29530019540955
 20
12.88090599975673
  0
LWPOLYLINE
  5
3FA2
330
1E
100
AcDbEntity
  8
OBJECT
100
AcDbPolyline
 90
        2
 70
     0
 43
0.0
 10
9.228117903270074
 20
13.66623418823482
 42
0.5012033706101759
 10
9.243848056181164
 20
13.50929349849031
  0
LWPOLYLINE
  5
3FA3
330
1E
100
AcDbEntity
  8
OBJECT
100
AcDbPolyline
 90
        2
 70
     0
 43
0.0
 10
9.258444887506085
 20
13.35212895639555
 42
0.5005720418603011
 10
9.271876845874841
 20
13.19509433566844
  0
LWPOLYLINE
  5
3FA4
330
1E
100
AcDbEntity
  8
OBJECT
100
AcDbPolyline
 90
        2
 70
     0
 43
0.0
 10
9.060273109818707
 20
14.92261801154887
 42
0.50473207798641
 10
9.0852600826541
 20
14.76621321177429
  0
LWPOLYLINE
  5
3FA5
330
1E
100
AcDbEntity
  8
OBJECT
100
AcDbPolyline
 90
        2
 70
     0
 43
0.0
 10
9.153552687042306
 20
14.29443282594196
 42
0.5027661677900448
 10
9.173896835573556
 20
14.13772720103423
  0
LWPOLYLINE
  5
3FA6
330
1E
100
AcDbEntity
  8
OBJECT
100
AcDbPolyline
 90
        2
 70
     0
 43
0.0
 10
9.109266273889101
 20
14.60852693751138
 42
0.5036984840427105
 10
9.131927831395231
 20
14.45196326635103
  0
LWPOLYLINE
  5
3FA7
330
1E
100
AcDbEntity
  8
OBJECT
100
AcDbPolyline
 90
        2
 70
     0
 43
0.0
 10
8.94963089615045
 20
15.55246443500005
 42
0.5145111880172629
 10
8.97769854933945
 20
15.39475815732542
  0
LWPOLYLINE
  5
3FA8
330
1E
100
AcDbEntity
  8
OBJECT
100
AcDbPolyline
 90
        2
 70
     0
 43
0.0
 10
9.006540825591471
 20
15.23670634672739
 42
0.5058675289630053
 10
9.033862013923126
 20
15.08047788217545
  0
LWPOLYLINE
  5
3FA9
330
1E
100
AcDbEntity
  8
OBJECT
100
AcDbPolyline
 90
       24
 70
     0
 43
0.0
 10
11.07837491650599
 20
12.13676730090647
 42
0.0675986807624592
 10
12.62763370239987
 20
12.34551137384225
 42
0.3220547251245924
 10
12.85845324180581
 20
12.63168132618877
 42
-0.0028825037661966
 10
12.87376866736293
 20
12.88090599975906
 10
12.8849072226152
 20
13.03801927499725
 42
-0.0018188195621573
 10
12.89719201689412
 20
13.19509433566844
 10
12.91062397525918
 20
13.35212895639881
 42
-0.0018221236260025
 10
12.92522080658774
 20
13.50929349849031
 10
12.94095095950502
 20
13.66623418822913
 42
-0.0018260130513249
 10
12.95787358266847
 20
13.82350420461885
 10
12.97590753038487
 20
13.980335356783
 42
-0.0018304988593078
 10
12.99517202720445
 20
14.13772720103933
 10
13.0155161757341
 20
14.29443282593476
 42
-0.0018355938306769
 10
13.03714103139418
 20
14.45196326636209
 10
13.05980258889634
 20
14.60852693749493
 42
-0.0018413125727635
 10
13.08380878011479
 20
14.76621321177429
 10
13.10879575295018
 20
14.92261801154887
 10
13.13520684884576
 20
15.08047788217545
 10
13.16252803718681
 20
15.23670634671761
 42
-0.0018546894102842
 10
13.19137031342951
 20
15.39475815732542
 10
13.21943796662516
 20
15.55246443499339
 42
0.1219428314126295
 10
12.97661013753708
 20
18.38074729130205
 42
0.2415518767666402
 10
12.76984381130672
 20
18.58061646104809
 42
0.0737368616922185
 10
11.08453443138445
 20
18.83051403464789
  0
LWPOLYLINE
  5
3FAA
330
1E
100
AcDbEntity
  8
OBJECT
100
AcDbPolyline
 90
        2
 70
     0
 43
0.0
 10
12.95787358266847
 20
13.82350420461885
 42
0.5019346143857906
 10
12.97590753038975
 20
13.98033535677836
  0
LWPOLYLINE
  5
3FAB
330
1E
100
AcDbEntity
  8
OBJECT
100
AcDbPolyline
 90
        2
 70
     0
 43
0.0
 10
12.87376866735935
 20
12.88090599975673
 42
0.500040291501851
 10
12.88490722261196
 20
13.03801927500003
  0
LWPOLYLINE
  5
3FAC
330
1E
100
AcDbEntity
  8
OBJECT
100
AcDbPolyline
 90
        2
 70
     0
 43
0.0
 10
12.92522080658774
 20
13.50929349849031
 42
0.5012033706101759
 10
12.94095095949883
 20
13.66623418823482
  0
LWPOLYLINE
  5
3FAD
330
1E
100
AcDbEntity
  8
OBJECT
100
AcDbPolyline
 90
        2
 70
     0
 43
0.0
 10
12.89719201689412
 20
13.19509433566844
 42
0.5005720418603011
 10
12.91062397526281
 20
13.35212895639555
  0
LWPOLYLINE
  5
3FAE
330
1E
100
AcDbEntity
  8
OBJECT
100
AcDbPolyline
 90
        2
 70
     0
 43
0.0
 10
13.08380878011479
 20
14.76621321177429
 42
0.5047320779864101
 10
13.10879575295018
 20
14.92261801154887
  0
LWPOLYLINE
  5
3FAF
330
1E
100
AcDbEntity
  8
OBJECT
100
AcDbPolyline
 90
        2
 70
     0
 43
0.0
 10
12.99517202719533
 20
14.13772720103423
 42
0.5027661677900448
 10
13.01551617572664
 20
14.29443282594196
  0
LWPOLYLINE
  5
3FB0
330
1E
100
AcDbEntity
  8
OBJECT
100
AcDbPolyline
 90
        2
 70
     0
 43
0.0
 10
13.03714103137373
 20
14.45196326635103
 42
0.5036984840427105
 10
13.0598025888798
 20
14.60852693751138
  0
LWPOLYLINE
  5
3FB1
330
1E
100
AcDbEntity
  8
OBJECT
100
AcDbPolyline
 90
        2
 70
     0
 43
0.0
 10
13.13520684884576
 20
15.08047788217545
 42
0.5058675289630053
 10
13.16252803717742
 20
15.23670634672739
  0
LWPOLYLINE
  5
3FB2
330
1E
100
AcDbEntity
  8
OBJECT
100
AcDbPolyline
 90
        2
 70
     0
 43
0.0
 10
13.13520684885793
 20
15.08047788218147
 42
0.0018476715973638
 10
13.10879575295838
 20
14.92261801154064
  0
LWPOLYLINE
  5
3FB3
330
1E
100
AcDbEntity
  8
OBJECT
100
AcDbPolyline
 90
        2
 70
     0
 43
0.0
 10
13.19137031342951
 20
15.39475815732542
 42
0.5145111880172629
 10
13.21943796661845
 20
15.55246443500005
  0
CIRCLE
  5
3FB4
330
1E
100
AcDbEntity
  8
OBJECT
100
AcDbCircle
 10
12.58132855173028
 20
18.23988903464785
 30
0.0
 40
0.135
  0
CIRCLE
  5
3FB5
330
1E
100
AcDbEntity
  8
OBJECT
100
AcDbCircle
 10
12.58132855173028
 20
18.23988903464785
 30
0.0
 40
0.063
  0
CIRCLE
  5
3FB7
330
1E
100
AcDbEntity
  8
OBJECT
100
AcDbCircle
 10
10.173093743359
 20
12.51083515244093
 30
0.0
 40
0.063
  0
CIRCLE
  5
3FB9
330
1E
100
AcDbEntity
  8
OBJECT
100
AcDbCircle
 10
10.173093743359
 20
12.51083515244093
 30
0.0
 40
0.135
  0
LWPOLYLINE
  5
3FD9
330
1E
100
AcDbEntity
  8
OBJECT
100
AcDbPolyline
 90
       24
 70
     0
 43
0.0
 10
3.11718714875052
 20
1.368922591514715
 42
-0.0675986807624601
 10
1.584733881890132
 20
1.575402321964405
 42
-0.3220547251245929
 10
1.400078250365263
 20
1.804338283841629
 42
0.0028838232812955
 10
1.384710579746982
 20
2.05440235090639
 10
1.37355583467217
 20
2.211743989337792
 42
0.0018214594203441
 10
1.361217420488308
 20
2.369504638088018
 10
1.347765938849059
 20
2.526767507689311
 42
0.0018247653224566
 10
1.333105419935647
 20
2.684617772591924
 10
1.317352403336282
 20
2.841786574673638
 42
0.0018286568972869
 10
1.300355977340581
 20
2.99974247264687
 10
1.282295817384753
 20
3.156801577942935
 42
0.0018331451653943
 10
1.262947346959425
 20
3.314879487145578
 10
1.242573628323828
 20
3.471812882724013
 42
0.0018382429065554
 10
1.220854564608053
 20
3.630029596644852
 10
1.198160068647489
 20
3.786820832145428
 42
0.0018439647271599
 10
1.174049362784313
 20
3.945193614362543
 10
1.149026071535958
 20
4.101825747561443
 42
0.0018503271380786
 10
1.122500073644032
 20
4.260372387227044
 10
1.095139174131798
 20
4.416827928899358
 42
0.0018530864706519
 10
1.066239342160631
 20
4.575202778056936
 10
1.038321900243348
 20
4.7320650500049
 42
-0.1219167910061628
 10
1.278653330129494
 20
7.529587204630846
 42
-0.241551876766635
 10
1.444066391113745
 20
7.689482540427677
 42
-0.0737368616922189
 10
3.111094448948719
 20
7.936669360686737
 42
-0.0737368616922189
  0
LWPOLYLINE
  5
3FDA
330
1E
100
AcDbEntity
  8
OBJECT
100
AcDbPolyline
 90
       24
 70
     0
 43
0.0
 10
3.105001749146918
 20
1.368922591514714
 42
0.0675986807624599
 10
4.637455016007364
 20
1.575402321964405
 42
0.3220547251245853
 10
4.822110647532115
 20
1.804338283841616
 42
-0.0028838232813091
 10
4.837478318150512
 20
2.054402350907281
 10
4.848633063225408
 20
2.211743989339796
 42
-0.0018214594203352
 10
4.860971477413281
 20
2.369504638089916
 10
4.874422959048295
 20
2.526767507688345
 42
-0.0018247653224693
 10
4.889083477961776
 20
2.684617772591791
 10
4.904836494561382
 20
2.841786574675888
 42
-0.0018286568972689
 10
4.921832920562529
 20
2.999742472649121
 10
4.939893080512845
 20
3.156801577944366
 42
-0.0018331451653516
 10
4.959241550946931
 20
3.314879487149188
 10
4.979615269573936
 20
3.471812882726568
 42
-0.001838242906517
 10
5.001334333309677
 20
3.630029596654272
 10
5.024028829248976
 20
3.786820832138793
 42
-0.0018439647272343
 10
5.048139535102506
 20
3.945193614355138
 10
5.073181203207289
 20
4.101940776636567
 10
5.099668757418437
 20
4.260257640787822
 10
5.127049723765923
 20
4.416827928900938
 42
-0.0018530864706239
 10
5.15594955572488
 20
4.575202778051488
 10
5.183866997654491
 20
4.732065050007086
 42
0.1219167910060661
 10
4.943535567767999
 20
7.529587204630846
 42
0.2415518767666319
 10
4.778122506783702
 20
7.689482540427674
 42
0.0737368616922172
 10
3.111094448948719
 20
7.936669360686737
 42
0.0737368616922172
  0
LWPOLYLINE
  5
3FDB
330
1E
100
AcDbEntity
  8
OBJECT
100
AcDbPolyline
 90
       24
 70
     0
 43
0.0
 10
3.117136242025456
 20
1.416922564519973
 42
-0.0675986807624615
 10
1.597487180142915
 20
1.621677081646931
 42
-0.3220547251245824
 10
1.448004049860868
 20
1.807006193642789
 42
0.0028848247787857
 10
1.432596565604474
 20
2.057709909718408
 10
1.421429501181015
 20
2.215225316935022
 42
0.0018234630437456
 10
1.409050216356983
 20
2.373508540671897
 10
1.3955838788433
 20
2.530945092065763
 42
0.0018267703411429
 10
1.380874815432593
 20
2.689318034483448
 10
1.365104401133478
 20
2.846660414470816
 42
0.0018306635473992
 10
1.348051720526072
 20
3.005139110790528
 10
1.329971614851615
 20
3.162371672840521
 42
0.0018351536826927
 10
1.310559137388563
 20
3.320972519927348
 10
1.290162917929847
 20
3.478079233427679
 42
0.001840253526119
 10
1.268372046219143
 20
3.636819043939481
 10
1.245652486358002
 20
3.793783440366193
 42
0.0018459776833159
 10
1.22146211660016
 20
3.952679497577207
 10
1.1964111895202
 20
4.109484615984706
 42
0.0018523426644072
 10
1.169797610260618
 20
4.268554729336033
 10
1.142406493251412
 20
4.4251830611922
 42
0.0018518698570139
 10
1.113462833348078
 20
4.583803901787191
 10
1.085660177604474
 20
4.740021214213247
 42
-0.1218966664364801
 10
1.324089206193007
 20
7.514108794946992
 42
-0.2415518767666354
 10
1.457995017465977
 20
7.643547876306341
 42
-0.0737368616922187
 10
3.111094448948719
 20
7.888669360686737
 42
-0.0737368616922187
  0
LWPOLYLINE
  5
3FDC
330
1E
100
AcDbEntity
  8
OBJECT
100
AcDbPolyline
 90
       24
 70
     0
 43
0.0
 10
3.105052655871982
 20
1.41692256451997
 42
0.0675986807624597
 10
4.624701717754577
 20
1.621677081646931
 42
0.3220547251245741
 10
4.774184848036511
 20
1.807006193642761
 42
-0.0028848247788448
 10
4.789592332293095
 20
2.05770990972049
 10
4.800759396716557
 20
2.215225316936924
 42
-0.0018234630437562
 10
4.813138681544677
 20
2.373508540674603
 10
4.82660501905396
 20
2.530945092063739
 42
-0.0018267703411755
 10
4.841314082464926
 20
2.689318034484315
 10
4.857084496764292
 20
2.84666041447412
 42
-0.0018306635473892
 10
4.874137177376805
 20
3.005139110790658
 10
4.892217283045944
 20
3.162371672841615
 42
-0.0018351536827112
 10
4.911629760517906
 20
3.320972519931818
 10
4.932025979968083
 20
3.478079233431562
 42
-0.0018402535261019
 10
4.953816851698677
 20
3.636819043949497
 10
4.976536411537952
 20
3.793783440356083
 42
-0.0018459776833881
 10
5.000726781286218
 20
3.952679497566993
 10
5.025810104306586
 20
4.109687396864279
 10
5.052355912472481
 20
4.268352446558314
 10
5.079782404646171
 20
4.425183061192962
 42
-0.0018518698570587
 10
5.108726064537598
 20
4.58380390178257
 10
5.136528720293614
 20
4.740021214217017
 42
0.1218966664363139
 10
4.898099691704489
 20
7.514108794946992
 42
0.2415518767666441
 10
4.764193880431477
 20
7.643547876306333
 42
0.0737368616922162
 10
3.111094448948721
 20
7.888669360686737
 42
0.0737368616922162
  0
LWPOLYLINE
  5
3FE0
330
1E
100
AcDbEntity
  8
OBJECT
100
AcDbPolyline
 90
       31
 70
     0
 43
0.0
 10
3.117253963827165
 20
1.305922626945317
 42
-0.0675986807624592
 10
1.567995177933354
 20
1.51466669988109
 42
-0.3220547251245924
 10
1.337175638527284
 20
1.80083665222761
 42
0.0028825037661966
 10
1.321860212973815
 20
2.050061325795573
 42
-0.500040291501851
 10
1.310721657717961
 20
2.207174601036093
 10
1.310721657717961
 20
2.207174601036093
 42
0.0018188195621573
 10
1.298436863439107
 20
2.364249661707289
 42
-0.5005720418603011
 10
1.285004905073989
 20
2.521284282437654
 10
1.285004905073989
 20
2.521284282437654
 42
0.0018221236260025
 10
1.270408073745427
 20
2.678448824529148
 42
-0.5012033706101759
 10
1.254677920828138
 20
2.835389514267991
 42
0.0018260130513246
 10
1.237755297664689
 20
2.992659530657698
 42
-0.5019346143857905
 10
1.219721349948305
 20
3.149490682821803
 10
1.219721349948299
 20
3.149490682821856
 42
0.0018304988593078
 10
1.200456853137822
 20
3.306882527073081
 42
-0.5027661677900448
 10
1.180112704599073
 20
3.46358815197356
 10
1.180112704599066
 20
3.463588151973606
 42
0.0018355938306769
 10
1.158487848959495
 20
3.621118592389873
 42
-0.5036984840427105
 10
1.135826291436824
 20
3.777682263533812
 42
0.0018413125727632
 10
1.111820100218365
 20
3.935368537813131
 42
-0.50473207798641
 10
1.086833127374802
 20
4.091773337579391
 10
1.086833127374788
 20
4.091773337579478
 42
0.0018476715973638
 10
1.060422031487389
 20
4.249633208214303
 42
-0.5058675289630053
 10
1.033100843146359
 20
4.40586167275644
 10
1.033100843146356
 20
4.405861672756458
 42
0.0018546894102842
 10
1.004258566903713
 20
4.563913483364261
 42
-0.5145111880172629
 10
0.9761909137080863
 20
4.721619761032116
 10
0.9761909137080664
 20
4.721619761032235
 42
-0.1219428314126295
 10
1.219018742796137
 20
7.549902617340902
 42
-0.2415518767666402
 10
1.425785069026444
 20
7.749771787086931
 42
-0.0737368616922185
 10
3.111094448948719
 20
7.999669360686737
  0
CIRCLE
  5
3FFC
330
1E
100
AcDbEntity
  8
OBJECT
100
AcDbCircle
 10
1.614300300651037
 20
7.409044322478834
 30
0.0
 40
0.118125
  0
CIRCLE
  5
3FFD
330
1E
100
AcDbEntity
  8
OBJECT
100
AcDbCircle
 10
1.614300328602993
 20
7.409044360686706
 30
0.0
 40
0.071
  0
CIRCLE
  5
3FFE
330
1E
100
AcDbEntity
  8
OBJECT
100
AcDbCircle
 10
1.614300300651037
 20
7.409044322478834
 30
0.0
 40
0.0435
  0
CIRCLE
  5
3FFF
330
1E
100
AcDbEntity
  8
OBJECT
100
AcDbCircle
 10
2.199653732971325
 20
1.679990440271897
 30
0.0
 40
0.118125
  0
CIRCLE
  5
4000
330
1E
100
AcDbEntity
  8
OBJECT
100
AcDbCircle
 10
2.199653732971325
 20
1.679990440271897
 30
0.0
 40
0.0435
  0
CIRCLE
  5
4001
330
1E
100
AcDbEntity
  8
OBJECT
100
AcDbCircle
 10
2.199653760923281
 20
1.679990478479767
 30
0.0
 40
0.071
  0
CIRCLE
  5
4002
330
1E
100
AcDbEntity
  8
OBJECT
100
AcDbCircle
 10
4.607888597246505
 20
7.409044322478834
 30
0.0
 40
0.118125
  0
CIRCLE
  5
4003
330
1E
100
AcDbEntity
  8
OBJECT
100
AcDbCircle
 10
4.607888597246505
 20
7.409044322478834
 30
0.0
 40
0.0435
  0
CIRCLE
  5
4004
330
1E
100
AcDbEntity
  8
OBJECT
100
AcDbCircle
 10
4.607888569294551
 20
7.409044360686706
 30
0.0
 40
0.071
  0
CIRCLE
  5
4005
330
1E
100
AcDbEntity
  8
OBJECT
100
AcDbCircle
 10
4.022535136974262
 20
1.679990478479767
 30
0.0
 40
0.071
  0
CIRCLE
  5
4006
330
1E
100
AcDbEntity
  8
OBJECT
100
AcDbCircle
 10
4.022535164926217
 20
1.679990440271897
 30
0.0
 40
0.0435
  0
CIRCLE
  5
4007
330
1E
100
AcDbEntity
  8
OBJECT
100
AcDbCircle
 10
4.022535164926217
 20
1.679990440271897
 30
0.0
 40
0.118125
  0
LINE
  5
400B
330
1E
100
AcDbEntity
  8
OBJECT
100
AcDbLine
 10
3.111094448948815
 20
7.365544322478942
 30
0.0
 11
3.20359444153436
 21
7.130544322479268
 31
0.0
  0
LINE
  5
400C
330
1E
100
AcDbEntity
  8
OBJECT
100
AcDbLine
 10
3.018594441534414
 20
7.130544322479268
 30
0.0
 11
3.111094448948815
 21
7.365544322478942
 31
0.0
  0
LINE
  5
400D
330
1E
100
AcDbEntity
  8
OBJECT
100
AcDbLine
 10
3.018594441534414
 20
7.130544322479268
 30
0.0
 11
3.20359444153436
 21
7.130544322479268
 31
0.0
  0
LWPOLYLINE
  5
400E
330
1E
100
AcDbEntity
  8
OBJECT
100
AcDbPolyline
 90
       31
 70
     0
 43
0.0
 10
3.104934934070377
 20
1.305922626945317
 42
0.0675986807624592
 10
4.65419371996419
 20
1.51466669988109
 42
0.3220547251245924
 10
4.885013259370261
 20
1.80083665222761
 42
-0.0028825037661966
 10
4.900328684923727
 20
2.050061325795573
 42
0.500040291501851
 10
4.911467240179581
 20
2.207174601036093
 10
4.911467240179581
 20
2.207174601036093
 42
-0.0018188195621573
 10
4.923752034458436
 20
2.364249661707289
 42
0.5005720418603011
 10
4.937183992823555
 20
2.521284282437654
 10
4.937183992823555
 20
2.521284282437654
 42
-0.0018221236260025
 10
4.951780824152116
 20
2.678448824529148
 42
0.5012033706101759
 10
4.967510977069405
 20
2.835389514267991
 42
-0.0018260130513246
 10
4.984433600232854
 20
2.992659530657698
 42
0.5019346143857905
 10
5.002467547949236
 20
3.149490682821803
 10
5.002467547949244
 20
3.149490682821856
 42
-0.0018304988593078
 10
5.021732044759723
 20
3.306882527073081
 42
0.5027661677900448
 10
5.042076193298468
 20
3.46358815197356
 10
5.042076193298477
 20
3.463588151973606
 42
-0.0018355938306769
 10
5.063701048938048
 20
3.621118592389873
 42
0.5036984840427105
 10
5.086362606460719
 20
3.777682263533812
 42
-0.0018413125727632
 10
5.110368797679178
 20
3.935368537813131
 42
0.50473207798641
 10
5.135355770522741
 20
4.091773337579391
 10
5.135355770522755
 20
4.091773337579478
 42
-0.0018476715973638
 10
5.161766866410153
 20
4.249633208214303
 42
0.5058675289630053
 10
5.189088054751183
 20
4.40586167275644
 10
5.189088054751187
 20
4.405861672756458
 42
-0.0018546894102842
 10
5.21793033099383
 20
4.563913483364261
 42
0.5145111880172629
 10
5.245997984189455
 20
4.721619761032116
 10
5.245997984189477
 20
4.721619761032235
 42
0.1219428314126295
 10
5.003170155101406
 20
7.549902617340902
 42
0.2415518767666402
 10
4.796403828871099
 20
7.749771787086931
 42
0.0737368616922185
 10
3.111094448948825
 20
7.999669360686737
  0
CIRCLE
  5
4018
330
1E
100
AcDbEntity
  8
OBJECT
100
AcDbCircle
 10
10.71047194700822
 20
7.409047626945207
 30
0.0
 40
0.1575
  0
CIRCLE
  5
4019
330
1E
100
AcDbEntity
  8
OBJECT
100
AcDbCircle
 10
11.45859694700818
 20
7.409047645793576
 30
0.0
 40
0.1575
  0
CIRCLE
  5
401B
330
1E
100
AcDbEntity
  8
OBJECT
100
AcDbCircle
 10
10.71047194700822
 20
7.409047626945207
 30
0.0
 40
0.055
  0
CIRCLE
  5
401C
330
1E
100
AcDbEntity
  8
OBJECT
100
AcDbCircle
 10
11.45859694700818
 20
7.409047626945207
 30
0.0
 40
0.055
  0
LINE
  5
401D
330
1E
100
AcDbEntity
  8
OBJECT
100
AcDbLine
 10
10.99203442397009
 20
7.174047626945535
 30
0.0
 11
11.17703442397004
 21
7.174047626945535
 31
0.0
  0
LINE
  5
401E
330
1E
100
AcDbEntity
  8
OBJECT
100
AcDbLine
 10
11.08453443138449
 20
7.409047626945207
 30
0.0
 11
11.17703442397004
 21
7.174047626945535
 31
0.0
  0
LINE
  5
401F
330
1E
100
AcDbEntity
  8
OBJECT
100
AcDbLine
 10
10.99203442397009
 20
7.174047626945535
 30
0.0
 11
11.08453443138449
 21
7.409047626945207
 31
0.0
  0
LWPOLYLINE
  5
4073
330
1E
100
AcDbEntity
  8
OBJECT
100
AcDbPolyline
 90
       24
 70
     0
 43
0.0
 10
11.09058152724498
 20
1.41192256733192
 42
-0.0675986807624601
 10
9.569598694010601
 20
1.61685679418
 42
-0.3220547251245986
 10
9.416451761515755
 20
1.80672828637183
 42
0.002884720610758
 10
9.401048424830484
 20
2.057365367868785
 10
9.389882643038244
 20
2.21486268311667
 42
0.0018232546423272
 10
9.377507616271914
 20
2.373091463017438
 10
9.364042825480769
 20
2.530509931494226
 42
0.0018265617946464
 10
9.349338819618418
 20
2.688828419402625
 10
9.333570216684032
 20
2.846152727294246
 42
0.0018304548311581
 10
9.316523396893748
 20
3.004576956515419
 10
9.298445367871167
 20
3.16179145908616
 42
0.0018349447722857
 10
9.279039558900667
 20
3.320337824549167
 10
9.258645682119327
 20
3.477426493021866
 42
0.0018400443969936
 10
9.236862291632156
 20
3.636111805389106
 10
9.21414534130373
 20
3.793058173133438
 42
0.0018457683111519
 10
9.189963271224947
 20
3.951899713621491
 10
9.164915221454885
 20
4.108686821640913
 42
0.0018521330249787
 10
9.138310766743508
 20
4.267702397583687
 10
9.110922795834611
 20
4.424312739357755
 42
0.0018519963998104
 10
9.081983700372816
 20
4.582907961206726
 10
9.054169073891541
 20
4.739192534706115
 42
-0.1218987743909834
 10
9.292796284872071
 20
7.515721129289052
 42
-0.2415518767666284
 10
9.429984101323301
 20
7.648332737152307
 42
-0.0737368616922226
 10
11.08453443138439
 20
7.893669360686737
 42
-0.0737368616922226
  0
LWPOLYLINE
  5
4074
330
1E
100
AcDbEntity
  8
OBJECT
100
AcDbPolyline
 90
       24
 70
     0
 43
0.0
 10
11.09062288895911
 20
1.372922589265153
 42
-0.0675986807624597
 10
9.559236639180216
 20
1.579258551937948
 42
-0.3220547251245946
 10
9.377512049425581
 20
1.804560609658389
 42
0.0028839068661647
 10
9.36214106126396
 20
2.054677977142308
 10
9.350985289057135
 20
2.212034103635279
 42
0.0018216266425846
 10
9.338643469559512
 20
2.369838292975837
 10
9.325190749304574
 20
2.527115643380214
 42
0.0018249326612552
 10
9.310526185696067
 20
2.685009457424742
 10
9.294771718554766
 20
2.842192731651227
 42
0.0018288243721301
 10
9.277770605462563
 20
3.000192188832293
 10
9.259708782522196
 20
3.157265756174371
 42
0.0018333127960905
 10
9.240354979072243
 20
3.315387236220843
 10
9.219979384419055
 20
3.472335082269341
 42
0.0018384107127119
 10
9.198254337706377
 20
3.630595380268951
 10
9.175557752030451
 20
3.787401053149102
 42
0.0018441327282795
 10
9.151440408620786
 20
3.945817434315745
 10
9.126414813221121
 20
4.102463990243093
 42
0.0018504953537378
 10
9.099881518101993
 20
4.261054245423716
 10
9.072518099190297
 20
4.417524193567143
 42
0.0018529849321902
 10
9.043614614098437
 20
4.575919546403612
 10
9.015706726406301
 20
4.732728135157103
 42
-0.1219151234383992
 10
9.255879635570472
 20
7.528297337157185
 42
-0.2415518767666384
 10
9.418667092412112
 20
7.685654651750896
 42
-0.0737368616922224
 10
11.08453443138439
 20
7.932669360686736
 42
-0.0737368616922224
  0
LWPOLYLINE
  5
4075
330
1E
100
AcDbEntity
  8
OBJECT
100
AcDbPolyline
 90
       24
 70
     0
 43
0.0
 10
11.0906727351274
 20
1.325922615697504
 42
-0.0675986807624611
 10
9.546749034641031
 20
1.533947849748809
 42
-0.3220547251245927
 10
9.330584704086135
 20
1.801948281311424
 42
0.0028829232830694
 10
9.315252694069419
 20
2.051439411035929
 10
9.304108996642861
 20
2.208625218467529
 42
0.0018196588591436
 10
9.291807182985177
 20
2.365917890213573
 10
9.278369023679736
 20
2.523025006827857
 42
0.001822963507453
 10
9.263751977405739
 20
2.680407202789254
 10
9.248014562578267
 20
2.837420345046393
 42
0.0018268536161397
 10
9.231068513810438
 20
2.994908065727305
 10
9.21302624061856
 20
3.151811619846133
 42
0.001831340206282
 10
9.193735089907518
 20
3.309421226630968
 10
9.173381549382277
 20
3.466199195532943
 42
0.0018364360582673
 10
9.151726791335816
 20
3.62394746472278
 10
9.129054771982026
 20
3.780583414335852
 42
0.001842155779082
 10
9.105015406954805
 20
3.938487591846
 10
9.080016898749629
 20
4.094964596733313
 42
0.0018485158802955
 10
9.053569332010541
 20
4.253042453525278
 10
9.026235530706328
 20
4.409343041782681
 42
0.001854179783542
 10
8.997374978906755
 20
4.567497425854947
 10
8.9693549575346
 20
4.724936070322764
 42
-0.1219346099083003
 10
9.211390340258285
 20
7.543453279972625
 42
-0.2415518767666362
 10
9.405028645775558
 20
7.730632343703037
 42
-0.0737368616922209
 10
11.08453443138439
 20
7.979669360686735
 42
-0.0737368616922209
  0
LWPOLYLINE
  5
4076
330
1E
100
AcDbEntity
  8
OBJECT
100
AcDbPolyline
 90
       24
 70
     0
 43
0.0
 10
11.0784873355238
 20
1.41192256733192
 42
0.0675986807624611
 10
12.59947016875825
 20
1.616856794179998
 42
0.3220547251245707
 10
12.75261710125298
 20
1.806728286371809
 42
-0.0028847206107233
 10
12.76802043793808
 20
2.057365367865525
 10
12.77918621973067
 20
2.214862683118377
 42
-0.0018232546422745
 10
12.79156124650063
 20
2.373091463014377
 10
12.8050260372885
 20
2.530509931499884
 42
-0.0018265617945271
 10
12.81973004315011
 20
2.688828419399993
 10
12.83549864608508
 20
2.846152727297258
 42
-0.0018304548311436
 10
12.85254546588115
 20
3.004576956521511
 10
12.8706234948983
 20
3.161791459092182
 42
-0.0018349447721103
 10
12.89002930387731
 20
3.320337824554796
 10
12.91042318065017
 20
3.477426493027466
 42
-0.0018400443968795
 10
12.93220657115681
 20
3.636111805397571
 10
12.95492352146424
 20
3.793058173127883
 42
-0.0018457683111734
 10
12.97910559153307
 20
3.951899713613142
 10
13.00418457621108
 20
4.108880457257169
 10
13.03072431625676
 20
4.267509237624353
 10
13.05814606693417
 20
4.424312739357604
 42
-0.0018519963998326
 10
13.08708516238417
 20
4.582907961201847
 10
13.11489978887787
 20
4.739192534709646
 42
0.1218987743908246
 10
12.87627257789678
 20
7.515721129289058
 42
0.2415518767666366
 10
12.73908476144551
 20
7.648332737152307
 42
0.0737368616922132
 10
11.08453443138439
 20
7.893669360686732
 42
0.0737368616922132
  0
LWPOLYLINE
  5
4077
330
1E
100
AcDbEntity
  8
OBJECT
100
AcDbPolyline
 90
       24
 70
     0
 43
0.0
 10
11.07844597380967
 20
1.372922589265153
 42
0.0675986807624605
 10
12.60983222358864
 20
1.579258551937946
 42
0.3220547251245807
 10
12.79155681334316
 20
1.804560609658375
 42
-0.0028839068661576
 10
12.8069278015047
 20
2.054677977140388
 10
12.8180835737119
 20
2.21203410363865
 42
-0.0018216266424915
 10
12.83042539321307
 20
2.369838292973404
 10
12.84387811346464
 20
2.527115643385233
 42
-0.0018249326611186
 10
12.85854267707236
 20
2.685009457421088
 10
12.87429714421424
 20
2.842192731653366
 42
-0.0018288243721267
 10
12.89129825731215
 20
3.000192188836872
 10
12.90936008024731
 20
3.157265756180588
 42
-0.0018333127959555
 10
12.9287138837057
 20
3.315387236226271
 10
12.94908947835029
 20
3.472335082273571
 42
-0.0018384107126375
 10
12.97081452508244
 20
3.630595380276417
 10
12.99351111073762
 20
3.78740105314422
 42
-0.0018441327283481
 10
13.01762845413735
 20
3.945817434308167
 10
13.04267359406794
 20
4.102586328322406
 10
13.06916600277532
 20
4.260932207935592
 10
13.09655076357842
 20
4.417524193566671
 42
-0.0018529849322053
 10
13.12545424865857
 20
4.575919546398886
 10
13.15336213636288
 20
4.732728135159203
 42
0.1219151234383048
 10
12.91318922719838
 20
7.528297337157192
 42
0.2415518767666499
 10
12.75040177035669
 20
7.685654651750896
 42
0.0737368616922158
 10
11.08453443138439
 20
7.932669360686736
 42
0.0737368616922158
  0
LWPOLYLINE
  5
4078
330
1E
100
AcDbEntity
  8
OBJECT
100
AcDbPolyline
 90
       24
 70
     0
 43
0.0
 10
11.07839612764139
 20
1.325922615697504
 42
0.0675986807624596
 10
12.62231982812782
 20
1.533947849748807
 42
0.3220547251245803
 10
12.8384841586826
 20
1.801948281311419
 42
-0.002882923283045
 10
12.85381616869921
 20
2.05143941103352
 10
12.86495986612624
 20
2.208625218471869
 42
-0.0018196588590823
 10
12.87726167978758
 20
2.365917890213294
 10
12.89069983908938
 20
2.523025006831676
 42
-0.0018229635073879
 10
12.90531688536283
 20
2.680407202787095
 10
12.92105430019066
 20
2.837420345047823
 42
-0.0018268536161439
 10
12.93800034896413
 20
2.994908065730545
 10
12.95604262215069
 20
3.151811619850068
 42
-0.001831340206227
 10
12.97533377287035
 20
3.309421226635913
 10
12.99568731338676
 20
3.466199195534807
 42
-0.00183643605822
 10
13.01734207145302
 20
3.623947464730497
 10
13.04001409078645
 20
3.780583414333726
 42
-0.0018421557791244
 10
13.06405345580365
 20
3.938487591840366
 10
13.08905779507484
 20
4.095001096015963
 10
13.1154931634516
 20
4.253006043952225
 10
13.14283333206241
 20
4.409343041782358
 42
-0.0018541797835482
 10
13.17169388385022
 20
4.567497425850161
 10
13.19971390523432
 20
4.724936070323312
 42
0.121934609908277
 10
12.95767852251057
 20
7.543453279972633
 42
0.2415518767666348
 10
12.76404021699324
 20
7.730632343703041
 42
0.0737368616922172
 10
11.08453443138439
 20
7.979669360686735
 42
0.0737368616922172
  0
LWPOLYLINE
  5
4079
330
1E
100
AcDbEntity
  8
OBJECT
100
AcDbPolyline
 90
       31
 70
     0
 43
0.0
 10
11.09069394626284
 20
1.305922626945315
 42
-0.0675986807624592
 10
9.541435160369037
 20
1.51466669988109
 42
-0.3220547251245924
 10
9.310615620962966
 20
1.80083665222761
 42
0.0028825037661966
 10
9.295300195409495
 20
2.050061325795573
 42
-0.500040291501851
 10
9.284161640153644
 20
2.20717460103609
 10
9.284161640153644
 20
2.20717460103609
 42
0.0018188195621573
 10
9.271876845874787
 20
2.364249661707287
 42
-0.5005720418603011
 10
9.258444887509671
 20
2.521284282437654
 10
9.258444887509671
 20
2.521284282437654
 42
0.0018221236260025
 10
9.243848056181111
 20
2.678448824529148
 42
-0.5012033706101759
 10
9.22811790326382
 20
2.835389514267988
 42
0.0018260130513246
 10
9.211195280100371
 20
2.992659530657696
 42
-0.5019346143857905
 10
9.193161332383986
 20
3.149490682821801
 10
9.193161332383981
 20
3.149490682821852
 42
0.0018304988593078
 10
9.173896835573504
 20
3.306882527073078
 42
-0.5027661677900448
 10
9.153552687034752
 20
3.463588151973556
 10
9.153552687034748
 20
3.463588151973602
 42
0.0018355938306769
 10
9.131927831395175
 20
3.62111859238987
 42
-0.5036984840427105
 10
9.109266273872504
 20
3.777682263533808
 42
0.0018413125727632
 10
9.085260082654048
 20
3.935368537813127
 42
-0.50473207798641
 10
9.060273109810484
 20
4.09177333757939
 10
9.06027310981047
 20
4.091773337579477
 42
0.0018476715973638
 10
9.033862013923073
 20
4.249633208214301
 42
-0.5058675289630053
 10
9.006540825582041
 20
4.405861672756436
 10
9.006540825582037
 20
4.405861672756456
 42
0.0018546894102842
 10
8.977698549339397
 20
4.563913483364261
 42
-0.5145111880172629
 10
8.949630896143768
 20
4.721619761032113
 10
8.949630896143748
 20
4.721619761032235
 42
-0.1219428314126295
 10
9.192458725231819
 20
7.549902617340902
 42
-0.2415518767666402
 10
9.39922505146213
 20
7.749771787086928
 42
-0.0737368616922185
 10
11.08453443138439
 20
7.999669360686736
  0
LWPOLYLINE
  5
407A
330
1E
100
AcDbEntity
  8
OBJECT
100
AcDbPolyline
 90
       31
 70
     0
 43
0.0
 10
11.07837491650605
 20
1.305922626945315
 42
0.0675986807624592
 10
12.62763370239985
 20
1.51466669988109
 42
0.3220547251245924
 10
12.85845324180593
 20
1.80083665222761
 42
-0.0028825037661966
 10
12.87376866735939
 20
2.050061325795573
 42
0.500040291501851
 10
12.88490722261526
 20
2.20717460103609
 10
12.88490722261526
 20
2.20717460103609
 42
-0.0018188195621573
 10
12.8971920168941
 20
2.364249661707287
 42
0.5005720418603011
 10
12.91062397525923
 20
2.521284282437654
 10
12.91062397525923
 20
2.521284282437654
 42
-0.0018221236260025
 10
12.92522080658779
 20
2.678448824529148
 42
0.5012033706101759
 10
12.94095095950508
 20
2.835389514267988
 42
-0.0018260130513246
 10
12.95787358266853
 20
2.992659530657696
 42
0.5019346143857905
 10
12.97590753038491
 20
3.149490682821801
 10
12.97590753038491
 20
3.149490682821852
 42
-0.0018304988593078
 10
12.9951720271954
 20
3.306882527073078
 42
0.5027661677900448
 10
13.01551617573414
 20
3.463588151973556
 10
13.01551617573415
 20
3.463588151973602
 42
-0.0018355938306769
 10
13.03714103137371
 20
3.62111859238987
 42
0.5036984840427105
 10
13.0598025888964
 20
3.777682263533808
 42
-0.0018413125727632
 10
13.08380878011485
 20
3.935368537813127
 42
0.50473207798641
 10
13.10879575295841
 20
4.09177333757939
 10
13.10879575295842
 20
4.091773337579477
 42
-0.0018476715973638
 10
13.13520684884582
 20
4.249633208214301
 42
0.5058675289630053
 10
13.16252803718685
 20
4.405861672756436
 10
13.16252803718685
 20
4.405861672756456
 42
-0.0018546894102842
 10
13.1913703134295
 20
4.563913483364261
 42
0.5145111880172629
 10
13.21943796662513
 20
4.721619761032113
 10
13.21943796662515
 20
4.721619761032235
 42
0.1219428314126295
 10
12.97661013753708
 20
7.549902617340902
 42
0.2415518767666402
 10
12.76984381130677
 20
7.749771787086928
 42
0.0737368616922185
 10
11.08453443138449
 20
7.999669360686736
  0
DIMENSION
  5
40DF
330
1E
100
AcDbEntity
  8
DIM
100
AcDbDimension
  2
*D1
 10
5.318677592598948
 20
19.30490096190142
 30
0.0
 11
3.111094448948747
 21
19.30490096190142
 31
0.0
 70
    33
 71
     5
 42
4.415166287300403
  3
23NSTD
100
AcDbAlignedDimension
 13
0.9035113052985453
 23
16.47617734973416
 33
0.0
 14
5.318677592598948
 24
16.47617734973416
 34
0.0
  0
DIMENSION
  5
40FB
330
1E
100
AcDbEntity
  8
DIM
100
AcDbDimension
  2
*D2
 10
7.684061248214497
 20
19.30490096190142
 30
0.0
 11
6.995186248214483
 21
19.30490096190142
 31
0.0
 70
   160
 71
     5
 42
1.377750000000028
  3
23NSTDI
100
AcDbAlignedDimension
 13
6.306311248214469
 23
18.67888524362919
 33
0.0
 14
7.684061248214497
 24
18.61447206554672
 34
0.0
100
AcDbRotatedDimension
  0
DIMENSION
  5
411D
330
1E
100
AcDbEntity
  8
DIM
100
AcDbDimension
  2
*D3
 10
5.819967277361314
 20
12.72895480090647
 30
0.0
 11
5.819967277361312
 21
15.48364230090646
 31
0.0
 70
    32
 71
     5
 42
5.509374999999987
  3
23NSTD
100
AcDbAlignedDimension
 13
4.486094448948717
 23
18.23832980090646
 33
0.0
 14
4.486094448948717
 24
12.72895480090647
 34
0.0
 50
90.0
100
AcDbRotatedDimension
  0
DIMENSION
  5
412B
330
1E
100
AcDbEntity
  8
DIM
100
AcDbDimension
  2
*D4
 10
1.736094448948712
 20
11.65856699031738
 30
0.0
 11
3.111094448948715
 21
11.65856699031738
 31
0.0
 70
    32
 71
     5
 42
2.750000000000005
  3
23NSTD
100
AcDbAlignedDimension
 13
4.486094448948717
 23
12.72895480090647
 33
0.0
 14
1.736094448948712
 24
12.72895480090648
 34
0.0
100
AcDbRotatedDimension
  0
DIMENSION
  5
414D
330
1E
100
AcDbEntity
  8
DIM
100
AcDbDimension
  2
*D5
 10
0.5085899690165969
 20
12.13676403464793
 30
0.0
 11
0.5085899690165952
 21
15.48363903464791
 31
0.0
 70
    32
 71
     5
 42
6.693749999999951
  3
23NSTD
100
AcDbAlignedDimension
 13
3.111094448948772
 23
18.83051403464789
 33
0.0
 14
3.111094448948772
 24
12.13676403464793
 34
0.0
 50
90.0
100
AcDbRotatedDimension
  0
LINE
  5
41D0
102
{ACAD_REACTORS
330
568A
102
}
330
1E
100
AcDbEntity
  8
OBJECT
100
AcDbLine
 10
7.191998748214327
 20
7.231851692299115
 30
0.0
 11
7.597436248214389
 21
7.231851692299115
 31
0.0
  0
LINE
  5
41D1
102
{ACAD_REACTORS
330
568A
102
}
330
1E
100
AcDbEntity
  8
OBJECT
100
AcDbLine
 10
7.244811248214286
 20
7.286976692298067
 30
0.0
 11
7.684061248214414
 21
7.286976692298977
 31
0.0
  0
LINE
  5
41D2
102
{ACAD_REACTORS
330
568A
102
}
330
1E
100
AcDbEntity
  8
OBJECT
100
AcDbLine
 10
7.191998748214327
 20
7.586226692299008
 30
0.0
 11
7.597436248214389
 21
7.586226692299008
 31
0.0
  0
LINE
  5
41D3
102
{ACAD_REACTORS
330
568A
102
}
330
1E
100
AcDbEntity
  8
OBJECT
100
AcDbLine
 10
7.244811248214286
 20
7.531101692298236
 30
0.0
 11
7.684061248214414
 21
7.531101692299142
 31
0.0
  0
LINE
  5
41D4
102
{ACAD_REACTORS
330
5634
102
}
330
1E
100
AcDbEntity
  8
OBJECT
100
AcDbLine
 10
7.046061248214266
 20
7.365539154489326
 30
0.0
 11
6.386811248214325
 21
7.365539154489326
 31
0.0
  0
LINE
  5
41D5
102
{ACAD_REACTORS
330
5634
102
}
330
1E
100
AcDbEntity
  8
OBJECT
100
AcDbLine
 10
7.046061248214266
 20
7.45253915448886
 30
0.0
 11
6.386811248214325
 21
7.45253915448886
 31
0.0
  0
LINE
  5
41D6
102
{ACAD_REACTORS
330
5634
102
}
330
1E
100
AcDbEntity
  8
OBJECT
100
AcDbLine
 10
6.413436248214392
 20
7.52716415448906
 30
0.0
 11
7.073748748214336
 21
7.527164154489057
 31
0.0
  0
LINE
  5
41D7
102
{ACAD_REACTORS
330
5634
102
}
330
1E
100
AcDbEntity
  8
OBJECT
100
AcDbLine
 10
6.43244206173313
 20
7.290914154489127
 30
0.0
 11
7.073748748214452
 21
7.290914154489127
 31
0.0
  0
LINE
  5
41D8
102
{ACAD_REACTORS
330
5634
102
}
330
1E
100
AcDbEntity
  8
OBJECT
100
AcDbLine
 10
6.386811248214325
 20
7.365539154489326
 30
0.0
 11
6.386811248214325
 21
7.45253915448886
 31
0.0
  0
LINE
  5
41DA
102
{ACAD_REACTORS
330
568A
330
5634
102
}
330
1E
100
AcDbEntity
  8
OBJECT
100
AcDbLine
 10
7.073748748214452
 20
7.52716419229857
 30
0.0
 11
7.073748748214452
 21
7.290914192298642
 31
0.0
  0
LINE
  5
41DB
330
1E
100
AcDbEntity
  8
OBJECT
100
AcDbLine
 10
7.046061248214266
 20
7.45253915448886
 30
0.0
 11
7.046061248214266
 21
7.365539154489326
 31
0.0
  0
LINE
  5
41DC
102
{ACAD_REACTORS
330
568A
102
}
330
1E
100
AcDbEntity
  8
OBJECT
100
AcDbLine
 10
7.073748748214452
 20
7.290914192298642
 30
0.0
 11
7.191998748214327
 21
7.290914192298642
 31
0.0
  0
LINE
  5
41DD
102
{ACAD_REACTORS
330
568A
102
}
330
1E
100
AcDbEntity
  8
OBJECT
100
AcDbLine
 10
7.244811248214286
 20
7.286976692298067
 30
0.0
 11
7.185748748214304
 21
7.346039192298505
 31
0.0
  0
LINE
  5
41DE
102
{ACAD_REACTORS
330
5634
102
}
330
1E
100
AcDbEntity
  8
OBJECT
100
AcDbLine
 10
7.046061248214382
 20
7.365539154489326
 30
0.0
 11
7.073748748214452
 21
7.338164154488749
 31
0.0
  0
LINE
  5
41DF
102
{ACAD_REACTORS
330
568A
102
}
330
1E
100
AcDbEntity
  8
OBJECT
100
AcDbLine
 10
7.073748748214452
 20
7.346039192298505
 30
0.0
 11
7.185748748214416
 21
7.346039192298505
 31
0.0
  0
LINE
  5
41E0
102
{ACAD_REACTORS
330
568A
102
}
330
1E
100
AcDbEntity
  8
OBJECT
100
AcDbLine
 10
7.191998748214327
 20
7.290914192298642
 30
0.0
 11
7.191998748214327
 21
7.231851692299115
 31
0.0
  0
LINE
  5
41E1
102
{ACAD_REACTORS
330
568A
102
}
330
1E
100
AcDbEntity
  8
OBJECT
100
AcDbLine
 10
7.073748748214452
 20
7.52716419229857
 30
0.0
 11
7.191998748214327
 21
7.52716419229857
 31
0.0
  0
LINE
  5
41E2
102
{ACAD_REACTORS
330
568A
102
}
330
1E
100
AcDbEntity
  8
OBJECT
100
AcDbLine
 10
7.244811248214286
 20
7.531101692298236
 30
0.0
 11
7.185748748214304
 21
7.472039192297798
 31
0.0
  0
LINE
  5
41E3
102
{ACAD_REACTORS
330
5634
102
}
330
1E
100
AcDbEntity
  8
OBJECT
100
AcDbLine
 10
7.073748748214336
 20
7.479914154488525
 30
0.0
 11
7.046061248214266
 21
7.45253915448886
 31
0.0
  0
LINE
  5
41E4
102
{ACAD_REACTORS
330
568A
102
}
330
1E
100
AcDbEntity
  8
OBJECT
100
AcDbLine
 10
7.073748748214452
 20
7.472039192298709
 30
0.0
 11
7.185748748214191
 21
7.472039192297798
 31
0.0
  0
LINE
  5
41E5
102
{ACAD_REACTORS
330
568A
102
}
330
1E
100
AcDbEntity
  8
OBJECT
100
AcDbLine
 10
7.191998748214327
 20
7.52716419229857
 30
0.0
 11
7.191998748214327
 21
7.586226692299008
 31
0.0
  0
LINE
  5
4242
102
{ACAD_REACTORS
330
568A
102
}
330
1E
100
AcDbEntity
  8
OBJECT
100
AcDbLine
 10
7.113123748214457
 20
7.893214229411382
 30
0.0
 11
7.449600657388219
 21
7.875580221821776
 31
0.0
  0
ARC
  5
4243
102
{ACAD_REACTORS
330
568A
102
}
330
1E
100
AcDbEntity
  8
OBJECT
100
AcDbCircle
 10
7.487186248214495
 20
7.782923661389572
 30
0.0
 40
0.196875
100
AcDbArc
 50
0.0
 51
86.99999999999439
  0
LINE
  5
4244
102
{ACAD_REACTORS
330
568A
102
}
330
1E
100
AcDbEntity
  8
OBJECT
100
AcDbLine
 10
7.113123748214457
 20
7.999672626945352
 30
0.0
 11
7.497489889599844
 21
7.979528851043865
 31
0.0
  0
LINE
  5
4245
102
{ACAD_REACTORS
330
568A
102
}
330
1E
100
AcDbEntity
  8
OBJECT
100
AcDbLine
 10
7.68406124821449
 20
7.782923661389572
 30
0.0
 11
7.68406124821449
 21
1.522671592501096
 31
0.0
  0
LINE
  5
4246
102
{ACAD_REACTORS
330
568A
102
}
330
1E
100
AcDbEntity
  8
OBJECT
100
AcDbLine
 10
7.597436248214417
 20
7.719794014400026
 30
0.0
 11
7.597436248214389
 21
7.586226692299008
 31
0.0
  0
LINE
  5
4266
102
{ACAD_REACTORS
330
568A
102
}
330
1E
100
AcDbEntity
  8
OBJECT
100
AcDbLine
 10
7.113123748214457
 20
1.305922626945317
 30
0.0
 11
7.497489889599844
 21
1.326066402846803
 31
0.0
  0
ARC
  5
4267
102
{ACAD_REACTORS
330
568A
102
}
330
1E
100
AcDbEntity
  8
OBJECT
100
AcDbCircle
 10
7.487186248214495
 20
1.522671592501096
 30
0.0
 40
0.196875
100
AcDbArc
 50
273.0000000000056
 51
0.0
  0
LINE
  5
426B
102
{ACAD_REACTORS
330
568A
102
}
330
1E
100
AcDbEntity
  8
HIDDEN
100
AcDbLine
 10
7.244811248214457
 20
1.557917094410328
 30
0.0
 11
7.68406124821449
 21
1.557917094410328
 31
0.0
  0
LINE
  5
426C
102
{ACAD_REACTORS
330
568A
102
}
330
1E
100
AcDbEntity
  8
HIDDEN
100
AcDbLine
 10
7.244811248214457
 20
1.802042094410495
 30
0.0
 11
7.68406124821449
 21
1.802042094410495
 31
0.0
  0
LINE
  5
426D
330
1E
100
AcDbEntity
  8
OBJECT
100
AcDbLine
 10
7.191998748214498
 20
1.857229594410595
 30
0.0
 11
7.191998748214498
 21
1.798229594409489
 31
0.0
  0
LINE
  5
426E
330
1E
100
AcDbEntity
  8
OBJECT
100
AcDbLine
 10
7.191998748214498
 20
1.502979594409366
 30
0.0
 11
7.57363524634233
 21
1.502979594409366
 31
0.0
  0
LINE
  5
426F
330
1E
100
AcDbEntity
  8
HIDDEN
100
AcDbLine
 10
7.244811248214457
 20
1.557917094410328
 30
0.0
 11
7.185748748214475
 21
1.616979594409855
 31
0.0
  0
LINE
  5
4270
330
1E
100
AcDbEntity
  8
HIDDEN
100
AcDbLine
 10
7.244811248214457
 20
1.802042094410495
 30
0.0
 11
7.185748748214475
 21
1.742979594410059
 31
0.0
  0
LINE
  5
4271
330
1E
100
AcDbEntity
  8
OBJECT
100
AcDbLine
 10
7.191998748214498
 20
1.561979594409562
 30
0.0
 11
7.191998748214498
 21
1.502979594409366
 31
0.0
  0
LINE
  5
4272
330
1E
100
AcDbEntity
  8
HIDDEN
100
AcDbLine
 10
7.073748748214507
 20
1.742979594410059
 30
0.0
 11
7.185748748215612
 21
1.742979594410968
 31
0.0
  0
LINE
  5
4273
330
1E
100
AcDbEntity
  8
HIDDEN
100
AcDbLine
 10
7.073748748214507
 20
1.616979594409855
 30
0.0
 11
7.185748748215157
 21
1.616979594409855
 31
0.0
  0
LINE
  5
4274
330
1E
100
AcDbEntity
  8
OBJECT
100
AcDbLine
 10
7.073748748214507
 20
1.561979594408654
 30
0.0
 11
7.073748748214507
 21
1.798229594409489
 31
0.0
  0
LINE
  5
4275
330
1E
100
AcDbEntity
  8
OBJECT
100
AcDbLine
 10
7.073748748214507
 20
1.561979594409562
 30
0.0
 11
7.191998748214498
 21
1.561979594409562
 31
0.0
  0
LINE
  5
4276
330
1E
100
AcDbEntity
  8
OBJECT
100
AcDbLine
 10
7.073748748214507
 20
1.798229594409489
 30
0.0
 11
7.191998748214498
 21
1.798229594409489
 31
0.0
  0
LINE
  5
4277
330
1E
100
AcDbEntity
  8
OBJECT
100
AcDbLine
 10
7.191998748214498
 20
1.857229594410595
 30
0.0
 11
7.597436248214442
 21
1.857229594407471
 31
0.0
  0
LINE
  5
4278
102
{ACAD_REACTORS
330
5634
102
}
330
1E
100
AcDbEntity
  8
HIDDEN
100
AcDbLine
 10
7.046061248214437
 20
1.723479594409724
 30
0.0
 11
6.730186248214497
 21
1.723479594409724
 31
0.0
  0
LINE
  5
4279
102
{ACAD_REACTORS
330
5634
102
}
330
1E
100
AcDbEntity
  8
HIDDEN
100
AcDbLine
 10
7.046061248214437
 20
1.636479594410189
 30
0.0
 11
6.730186248214497
 21
1.636479594410189
 31
0.0
  0
LINE
  5
427A
330
1E
100
AcDbEntity
  8
OBJECT
100
AcDbLine
 10
6.776246245928639
 20
1.798229594409489
 30
0.0
 11
7.073748748214507
 21
1.798229594409489
 31
0.0
  0
LINE
  5
427B
330
1E
100
AcDbEntity
  8
OBJECT
100
AcDbLine
 10
6.779849005393408
 20
1.561979594409562
 30
0.0
 11
7.073748748214507
 21
1.561979594409562
 31
0.0
  0
LINE
  5
427C
102
{ACAD_REACTORS
330
5634
102
}
330
1E
100
AcDbEntity
  8
HIDDEN
100
AcDbLine
 10
6.730186248214497
 20
1.723479594409724
 30
0.0
 11
6.730186248214497
 21
1.636479594410189
 31
0.0
  0
LINE
  5
427D
330
1E
100
AcDbEntity
  8
HIDDEN
100
AcDbLine
 10
7.046061248214437
 20
1.723479594409724
 30
0.0
 11
7.046061248214437
 21
1.636479594410189
 31
0.0
  0
LINE
  5
427E
330
1E
100
AcDbEntity
  8
HIDDEN
100
AcDbLine
 10
7.046061248214437
 20
1.636479594410189
 30
0.0
 11
7.073748748214395
 21
1.609229594410093
 31
0.0
  0
LINE
  5
427F
330
1E
100
AcDbEntity
  8
HIDDEN
100
AcDbLine
 10
7.073748748214507
 20
1.750979594409868
 30
0.0
 11
7.046061248214437
 21
1.723479594409724
 31
0.0
  0
LINE
  5
4281
102
{ACAD_REACTORS
330
568A
102
}
330
1E
100
AcDbEntity
  8
OBJECT
100
AcDbLine
 10
7.597436248214389
 20
7.231851692299115
 30
0.0
 11
7.597436248214389
 21
7.133422626944755
 31
0.0
  0
LINE
  5
4286
102
{ACAD_REACTORS
330
568A
102
}
330
1E
100
AcDbEntity
  8
OBJECT
100
AcDbLine
 10
7.014686248214411
 20
1.561979594408654
 30
0.0
 11
7.014686248214411
 21
1.372860126945083
 31
0.0
  0
LINE
  5
4287
102
{ACAD_REACTORS
330
5634
102
}
330
1E
100
AcDbEntity
  8
OBJECT
100
AcDbLine
 10
7.002873748214394
 20
1.36991035486349
 30
0.0
 11
7.002873748214394
 21
1.41609542583515
 31
0.0
  0
LINE
  5
4288
330
1E
100
AcDbEntity
  8
OBJECT
100
AcDbLine
 10
7.073748748214507
 20
1.372860126945994
 30
0.0
 11
7.073748748214507
 21
1.305922626945317
 31
0.0
  0
LINE
  5
4289
102
{ACAD_REACTORS
330
5634
102
}
330
1E
100
AcDbEntity
  8
OBJECT
100
AcDbLine
 10
7.073748748214507
 20
1.372860126945994
 30
0.0
 11
7.073748748214507
 21
1.305922626945317
 31
0.0
  0
LINE
  5
428A
102
{ACAD_REACTORS
330
5634
102
}
330
1E
100
AcDbEntity
  8
OBJECT
100
AcDbLine
 10
7.073748748214507
 20
1.36991035486349
 30
0.0
 11
7.002873748214394
 21
1.36991035486349
 31
0.0
  0
LINE
  5
428B
102
{ACAD_REACTORS
330
568A
102
}
330
1E
100
AcDbEntity
  8
OBJECT
100
AcDbLine
 10
7.113123748214457
 20
1.325610126944553
 30
0.0
 11
7.113123748214457
 21
1.305922626945317
 31
0.0
  0
LINE
  5
428C
102
{ACAD_REACTORS
330
568A
102
}
330
1E
100
AcDbEntity
  8
OBJECT
100
AcDbLine
 10
7.073748748214507
 20
1.372860126945083
 30
0.0
 11
7.073748748214507
 21
1.325610126944553
 31
0.0
  0
LINE
  5
428D
102
{ACAD_REACTORS
330
568A
102
}
330
1E
100
AcDbEntity
  8
OBJECT
100
AcDbLine
 10
7.073748748214507
 20
1.372860126945083
 30
0.0
 11
7.014686248214411
 21
1.372860126945083
 31
0.0
  0
LINE
  5
428E
102
{ACAD_REACTORS
330
568A
102
}
330
1E
100
AcDbEntity
  8
OBJECT
100
AcDbLine
 10
7.113123748214457
 20
1.325610126944553
 30
0.0
 11
7.073748748214507
 21
1.325610126944553
 31
0.0
  0
LINE
  5
428F
330
1E
100
AcDbEntity
  8
OBJECT
100
AcDbLine
 10
7.002873748214394
 20
1.41609542583515
 30
0.0
 11
7.002873748214394
 21
1.561979594408654
 31
0.0
  0
LINE
  5
4290
102
{ACAD_REACTORS
330
568A
102
}
330
1E
100
AcDbEntity
  8
OBJECT
100
AcDbLine
 10
7.113123748214457
 20
1.412381024479286
 30
0.0
 11
7.014686248214411
 21
1.412381024479286
 31
0.0
  0
LINE
  5
4291
102
{ACAD_REACTORS
330
568A
102
}
330
1E
100
AcDbEntity
  8
OBJECT
100
AcDbLine
 10
7.113123748214457
 20
1.412381024479286
 30
0.0
 11
7.449600657388298
 21
1.430015032069012
 31
0.0
  0
LINE
  5
4292
102
{ACAD_REACTORS
330
5634
102
}
330
1E
100
AcDbEntity
  8
OBJECT
100
AcDbLine
 10
7.002873748214394
 20
1.411968313216815
 30
0.0
 11
6.927799979297294
 21
1.41590276272827
 31
0.0
  0
LINE
  5
4294
102
{ACAD_REACTORS
330
568A
102
}
330
1E
100
AcDbEntity
  8
OBJECT
100
AcDbLine
 10
7.400561248214419
 20
7.113735126945518
 30
0.0
 11
7.400561248214419
 21
6.916860126944973
 31
0.0
  0
LINE
  5
4295
102
{ACAD_REACTORS
330
568A
102
}
330
1E
100
AcDbEntity
  8
OBJECT
100
AcDbLine
 10
7.400561248214419
 20
7.058610126944749
 30
0.0
 11
7.63681124821446
 21
7.058610126944749
 31
0.0
  0
LINE
  5
4296
102
{ACAD_REACTORS
330
568A
102
}
330
1E
100
AcDbEntity
  8
OBJECT
100
AcDbLine
 10
7.400561248214419
 20
6.971985126944836
 30
0.0
 11
7.63681124821446
 21
6.971985126944836
 31
0.0
  0
LINE
  5
4297
102
{ACAD_REACTORS
330
568A
102
}
330
1E
100
AcDbEntity
  8
OBJECT
100
AcDbLine
 10
7.400561248214419
 20
6.916860126944973
 30
0.0
 11
7.597436248214396
 21
6.897172626944827
 31
0.0
  0
LINE
  5
4298
102
{ACAD_REACTORS
330
568A
102
}
330
1E
100
AcDbEntity
  8
OBJECT
100
AcDbLine
 10
7.63681124821446
 20
7.058610126944749
 30
0.0
 11
7.63681124821446
 21
6.971985126944836
 31
0.0
  0
LINE
  5
4299
102
{ACAD_REACTORS
330
568A
102
}
330
1E
100
AcDbEntity
  8
OBJECT
100
AcDbLine
 10
7.400561248214419
 20
7.113735126945518
 30
0.0
 11
7.597436248214396
 21
7.133422626944755
 31
0.0
  0
LINE
  5
429A
102
{ACAD_REACTORS
330
568A
102
}
330
1E
100
AcDbEntity
  8
OBJECT
100
AcDbLine
 10
7.597436248214389
 20
6.897172626944827
 30
0.0
 11
7.597436248214443
 21
1.585801239490729
 31
0.0
  0
LINE
  5
42A2
102
{ACAD_REACTORS
330
5634
102
}
330
1E
100
AcDbEntity
  8
OBJECT
100
AcDbLine
 10
7.074123748214461
 20
7.999652974028084
 30
0.0
 11
6.418254063383258
 21
7.965280300347028
 31
0.0
  0
ARC
  5
42A3
102
{ACAD_REACTORS
330
5634
102
}
330
1E
100
AcDbEntity
  8
OBJECT
100
AcDbCircle
 10
6.42443624821449
 20
7.847317186554125
 30
0.0
 40
0.118125
100
AcDbArc
 50
93.00000000000558
 51
180.0
  0
ARC
  5
42A4
102
{ACAD_REACTORS
330
5634
102
}
330
1E
100
AcDbEntity
  8
OBJECT
100
AcDbCircle
 10
47.64933427034937
 20
7.163851601330267
 30
0.0
 40
41.34375
100
AcDbArc
 50
179.66022303908
 51
187.9845932305763
  0
LINE
  5
42A5
102
{ACAD_REACTORS
330
5634
102
}
330
1E
100
AcDbEntity
  8
OBJECT
100
AcDbLine
 10
6.30631124821447
 20
7.847317186554125
 30
0.0
 11
6.30631124821447
 21
7.409027974014936
 31
0.0
  0
ARC
  5
42A6
102
{ACAD_REACTORS
330
5634
102
}
330
1E
100
AcDbEntity
  8
OBJECT
100
AcDbCircle
 10
6.823372888235681
 20
1.437331378123923
 30
0.0
 40
0.118125
100
AcDbArc
 50
187.9845932305763
 51
266.9999999999943
  0
LINE
  5
42A7
102
{ACAD_REACTORS
330
5634
102
}
330
1E
100
AcDbEntity
  8
OBJECT
100
AcDbLine
 10
7.074123748214461
 20
1.305902974028088
 30
0.0
 11
6.817190703404506
 21
1.319368264330988
 31
0.0
  0
LINE
  5
42AD
102
{ACAD_REACTORS
330
5634
102
}
330
1E
100
AcDbEntity
  8
OBJECT
100
AcDbLine
 10
7.002873748214451
 20
7.936672626945306
 30
0.0
 11
7.002873748214444
 21
7.527164154489057
 31
0.0
  0
LINE
  5
42AE
330
1E
100
AcDbEntity
  8
OBJECT
100
AcDbLine
 10
7.01468624821447
 20
7.290914154489127
 30
0.0
 11
7.014686248214466
 21
1.798229594409489
 31
0.0
  0
LINE
  5
42AF
330
1E
100
AcDbEntity
  8
OBJECT
100
AcDbLine
 10
7.002873748214451
 20
7.290914154489127
 30
0.0
 11
7.002873748214451
 21
1.798229594409489
 31
0.0
  0
LINE
  5
42B4
330
1E
100
AcDbEntity
  8
OBJECT
100
AcDbLine
 10
7.400561248214419
 20
4.55436012694497
 30
0.0
 11
7.597436248214396
 21
4.534672626944825
 31
0.0
  0
LINE
  5
42B5
330
1E
100
AcDbEntity
  8
OBJECT
100
AcDbLine
 10
7.400561248214419
 20
4.751235126945516
 30
0.0
 11
7.400561248214419
 21
4.55436012694497
 31
0.0
  0
LINE
  5
42B6
330
1E
100
AcDbEntity
  8
OBJECT
100
AcDbLine
 10
7.400561248214419
 20
4.751235126945516
 30
0.0
 11
7.597436248214396
 21
4.77092262694475
 31
0.0
  0
LINE
  5
42B7
330
1E
100
AcDbEntity
  8
OBJECT
100
AcDbLine
 10
7.400561248214419
 20
5.617485126945553
 30
0.0
 11
7.597436248214396
 21
5.637172626944789
 31
0.0
  0
LINE
  5
42B8
330
1E
100
AcDbEntity
  8
OBJECT
100
AcDbLine
 10
7.400561248214419
 20
5.420610126945005
 30
0.0
 11
7.597436248214396
 21
5.400922626944861
 31
0.0
  0
LINE
  5
42B9
330
1E
100
AcDbEntity
  8
OBJECT
100
AcDbLine
 10
7.400561248214419
 20
5.617485126945553
 30
0.0
 11
7.400561248214419
 21
5.420610126945005
 31
0.0
  0
LINE
  5
4404
330
1E
100
AcDbEntity
  8
OBJECT
100
AcDbLine
 10
1.055721921229411
 20
10.97159701872139
 30
0.0
 11
5.166466976668331
 21
10.97159701871867
 31
0.0
  0
LINE
  5
4405
330
1E
100
AcDbEntity
  8
OBJECT
100
AcDbLine
 10
1.468628236151417
 20
10.57324701871865
 30
0.0
 11
4.753560661746274
 21
10.57324701871934
 31
0.0
  0
LINE
  5
4406
330
1E
100
AcDbEntity
  8
OBJECT
100
AcDbLine
 10
4.486094448948717
 20
10.62237808134556
 30
0.0
 11
1.736094448948712
 21
10.62237808134556
 31
0.0
  0
LINE
  5
4407
330
1E
100
AcDbEntity
  8
OBJECT
100
AcDbLine
 10
4.486094448948717
 20
10.9303451886616
 30
0.0
 11
1.736094448948712
 21
10.9303451886616
 31
0.0
  0
LINE
  5
4408
330
1E
100
AcDbEntity
  8
HIDDEN
100
AcDbLine
 10
1.193368566642885
 20
10.88459701872131
 30
0.0
 11
5.028820331255068
 21
10.88459701871876
 31
0.0
  0
LINE
  5
4409
330
1E
100
AcDbEntity
  8
HIDDEN
100
AcDbLine
 10
3.643668655200865
 20
9.738597018719246
 30
0.0
 11
3.328668655200866
 21
9.738597018719246
 31
0.0
  0
LINE
  5
440A
330
1E
100
AcDbEntity
  8
OBJECT
100
AcDbLine
 10
5.318677592599062
 20
10.20390951871918
 30
0.0
 11
0.9035113052985455
 21
10.20390951871918
 31
0.0
  0
LINE
  5
440B
330
1E
100
AcDbEntity
  8
OBJECT
100
AcDbLine
 10
1.120260270854894
 20
9.593597018719243
 30
0.0
 11
5.1019286270426
 21
9.593597018719243
 31
0.0
  0
LINE
  5
440C
330
1E
100
AcDbEntity
  8
OBJECT
100
AcDbLine
 10
5.318677592598948
 20
10.16453451871891
 30
0.0
 11
0.9035113052985455
 21
10.16453451871891
 31
0.0
  0
LINE
  5
440D
330
1E
100
AcDbEntity
  8
HIDDEN
100
AcDbLine
 10
1.18305733606876
 20
9.680597018719241
 30
0.0
 11
5.039131561828848
 21
9.680597018719243
 31
0.0
  0
LINE
  5
440E
330
1E
100
AcDbEntity
  8
HIDDEN
100
AcDbLine
 10
0.9615860773798875
 20
10.27478451871931
 30
0.0
 11
5.260602820517721
 21
10.27478451871931
 31
0.0
  0
LINE
  5
440F
330
1E
100
AcDbEntity
  8
HIDDEN
100
AcDbLine
 10
5.251740092599408
 20
10.2629720187193
 30
0.0
 11
0.9704488052981993
 21
10.26297201872056
 31
0.0
  0
LINE
  5
4410
330
1E
100
AcDbEntity
  8
HIDDEN
100
AcDbLine
 10
2.324606655528068
 20
10.0860345187193
 30
0.0
 11
2.383669155527595
 21
10.0860345187193
 31
0.0
  0
LINE
  5
4412
330
1E
100
AcDbEntity
  8
HIDDEN
100
AcDbLine
 10
2.328544155528643
 20
10.03322201871932
 30
0.0
 11
2.269481655528204
 21
10.09228451871932
 31
0.0
  0
LINE
  5
4413
330
1E
100
AcDbEntity
  8
HIDDEN
100
AcDbLine
 10
2.029294155527702
 20
10.0860345187193
 30
0.0
 11
2.029294155527702
 21
9.680597018719243
 31
0.0
  0
LINE
  5
4414
330
1E
100
AcDbEntity
  8
HIDDEN
100
AcDbLine
 10
2.084419155528474
 20
10.03322201871932
 30
0.0
 11
2.143481655528912
 21
10.09228451871932
 31
0.0
  0
LINE
  5
4415
330
1E
100
AcDbEntity
  8
OBJECT
100
AcDbLine
 10
1.337175638527284
 20
10.16453451871891
 30
0.0
 11
1.357319414428884
 21
9.780168377334099
 31
0.0
  0
LINE
  5
4416
330
1E
100
AcDbEntity
  8
OBJECT
100
AcDbLine
 10
0.9035113052985455
 20
10.16453451871891
 30
0.0
 11
0.9236550812001471
 21
9.780168377334099
 31
0.0
  0
LINE
  5
4418
330
1E
100
AcDbEntity
  8
HIDDEN
100
AcDbLine
 10
1.009366035982644
 20
10.17008213008067
 30
0.0
 11
1.027271128647047
 21
9.828432609545329
 31
0.0
  0
ARC
  5
4419
330
1E
100
AcDbEntity
  8
OBJECT
100
AcDbCircle
 10
1.553924604083631
 20
9.79047201871888
 30
0.0
 40
0.196875
100
AcDbArc
 50
183.0000000000056
 51
270.0
  0
ARC
  5
441A
330
1E
100
AcDbEntity
  8
OBJECT
100
AcDbCircle
 10
1.120260270854894
 20
9.79047201871888
 30
0.0
 40
0.196875
100
AcDbArc
 50
183.0000000000056
 51
270.0
  0
LINE
  5
4420
330
1E
100
AcDbEntity
  8
HIDDEN
100
AcDbLine
 10
2.328544155528643
 20
10.03322201871932
 30
0.0
 11
2.328544155527731
 21
9.59397201871922
 31
0.0
  0
LINE
  5
4421
330
1E
100
AcDbEntity
  8
HIDDEN
100
AcDbLine
 10
2.084419155528474
 20
10.03322201871932
 30
0.0
 11
2.084419155527564
 21
9.59397201871922
 31
0.0
  0
LINE
  5
4423
330
1E
100
AcDbEntity
  8
OBJECT
100
AcDbLine
 10
0.9378836361282925
 20
10.85977266155805
 30
0.0
 11
0.9035113052985455
 21
10.20390951871829
 31
0.0
  0
LINE
  5
4425
330
1E
100
AcDbEntity
  8
HIDDEN
100
AcDbLine
 10
1.03758235922107
 20
10.73676142789525
 30
0.0
 11
1.01337117533099
 21
10.27478451871931
 31
0.0
  0
LINE
  5
4426
330
1E
100
AcDbEntity
  8
OBJECT
100
AcDbLine
 10
0.9231988052984645
 20
10.20390951871918
 30
0.0
 11
0.9231988052984645
 21
10.16453451871891
 31
0.0
  0
LINE
  5
4429
330
1E
100
AcDbEntity
  8
HIDDEN
100
AcDbLine
 10
0.9615860773798875
 20
10.27478451871931
 30
0.0
 11
0.9615860773798875
 21
10.20390951871918
 31
0.0
  0
LINE
  5
442A
330
1E
100
AcDbEntity
  8
HIDDEN
100
AcDbLine
 10
1.009969702832403
 20
10.16453451871925
 30
0.0
 11
1.009969702832403
 21
10.2629720187193
 31
0.0
  0
LINE
  5
442B
330
1E
100
AcDbEntity
  8
HIDDEN
100
AcDbLine
 10
0.9704488052981993
 20
10.20390951871918
 30
0.0
 11
0.9704488052981993
 21
10.2629720187193
 31
0.0
  0
LINE
  5
442C
330
1E
100
AcDbEntity
  8
HIDDEN
100
AcDbLine
 10
2.324606693337583
 20
10.88459701872056
 30
0.0
 11
2.32460669333758
 21
10.20428451871917
 31
0.0
  0
LINE
  5
442D
330
1E
100
AcDbEntity
  8
HIDDEN
100
AcDbLine
 10
2.088356693337654
 20
10.88459701872072
 30
0.0
 11
2.088356693337654
 21
10.20428451871927
 31
0.0
  0
LINE
  5
442E
330
1E
100
AcDbEntity
  8
HIDDEN
100
AcDbLine
 10
2.162981693337849
 20
10.23197201871935
 30
0.0
 11
2.162981693337849
 21
10.77522201871931
 31
0.0
  0
LINE
  5
442F
330
1E
100
AcDbEntity
  8
HIDDEN
100
AcDbLine
 10
2.249981693337385
 20
10.23197201871935
 30
0.0
 11
2.249981693337385
 21
10.77522201871931
 31
0.0
  0
LINE
  5
4430
330
1E
100
AcDbEntity
  8
HIDDEN
100
AcDbLine
 10
2.324606655528068
 20
10.20428451871917
 30
0.0
 11
2.324606655528068
 21
10.0860345187193
 31
0.0
  0
LINE
  5
4431
330
1E
100
AcDbEntity
  8
HIDDEN
100
AcDbLine
 10
2.269481655528204
 20
10.20428451871917
 30
0.0
 11
2.269481655528204
 21
10.09228451871921
 31
0.0
  0
LINE
  5
4432
330
1E
100
AcDbEntity
  8
HIDDEN
100
AcDbLine
 10
2.249981693337385
 20
10.23197201871923
 30
0.0
 11
2.277356693337958
 21
10.20428451871917
 31
0.0
  0
LINE
  5
4433
330
1E
100
AcDbEntity
  8
HIDDEN
100
AcDbLine
 10
2.143481655528002
 20
10.20428451871917
 30
0.0
 11
2.143481655528912
 21
10.09228451871944
 31
0.0
  0
LINE
  5
4434
330
1E
100
AcDbEntity
  8
HIDDEN
100
AcDbLine
 10
2.135606693338184
 20
10.20428451871927
 30
0.0
 11
2.162981693337849
 21
10.23197201871935
 31
0.0
  0
LINE
  5
4435
330
1E
100
AcDbEntity
  8
HIDDEN
100
AcDbLine
 10
2.162981693337849
 20
10.23197201871935
 30
0.0
 11
2.249981693337385
 21
10.23197201871935
 31
0.0
  0
LINE
  5
4436
330
1E
100
AcDbEntity
  8
HIDDEN
100
AcDbLine
 10
2.088356655528139
 20
10.0860345187193
 30
0.0
 11
2.029294155527702
 21
10.0860345187193
 31
0.0
  0
LINE
  5
4437
330
1E
100
AcDbEntity
  8
HIDDEN
100
AcDbLine
 10
2.088356655528139
 20
10.20428451871917
 30
0.0
 11
2.088356655528139
 21
10.0860345187193
 31
0.0
  0
LINE
  5
4438
330
1E
100
AcDbEntity
  8
HIDDEN
100
AcDbLine
 10
2.088356655528139
 20
10.20428451871917
 30
0.0
 11
2.324606655528068
 21
10.20428451871917
 31
0.0
  0
LINE
  5
4439
330
1E
100
AcDbEntity
  8
OBJECT
100
AcDbLine
 10
1.736094448948712
 20
10.97159701872094
 30
0.0
 11
1.736094448948712
 21
10.62237808134556
 31
0.0
  0
LINE
  5
443A
330
1E
100
AcDbEntity
  8
HIDDEN
100
AcDbLine
 10
2.249981693337385
 20
10.77522201871931
 30
0.0
 11
2.162981693337849
 21
10.77522201871931
 31
0.0
  0
LINE
  5
443B
330
1E
100
AcDbEntity
  8
HIDDEN
100
AcDbLine
 10
2.383669155527595
 20
10.0860345187193
 30
0.0
 11
2.383669155527595
 21
9.680597018719243
 31
0.0
  0
LINE
  5
443C
330
1E
100
AcDbEntity
  8
HIDDEN
100
AcDbLine
 10
2.580544224490149
 20
9.738597018719246
 30
0.0
 11
2.895544224490147
 21
9.738597018719246
 31
0.0
  0
LINE
  5
443D
330
1E
100
AcDbEntity
  8
HIDDEN
100
AcDbLine
 10
2.580544224490149
 20
9.680597018719243
 30
0.0
 11
2.580544224490149
 21
9.738597018719243
 31
0.0
  0
LINE
  5
443E
330
1E
100
AcDbEntity
  8
HIDDEN
100
AcDbLine
 10
2.895544224490147
 20
9.680597018719243
 30
0.0
 11
2.895544224490147
 21
9.738597018719243
 31
0.0
  0
LINE
  5
443F
330
1E
100
AcDbEntity
  8
HIDDEN
100
AcDbLine
 10
3.328668655200866
 20
9.680597018719243
 30
0.0
 11
3.328668655200866
 21
9.738597018719243
 31
0.0
  0
ARC
  5
4441
330
1E
100
AcDbEntity
  8
OBJECT
100
AcDbCircle
 10
5.1019286270426
 20
9.79047201871888
 30
0.0
 40
0.196875
100
AcDbArc
 50
270.0
 51
356.9999999999942
  0
LINE
  5
4444
330
1E
100
AcDbEntity
  8
HIDDEN
100
AcDbLine
 10
5.212822861914962
 20
10.17008213008067
 30
0.0
 11
5.194917769250561
 21
9.82843260954533
 31
0.0
  0
LINE
  5
4446
330
1E
100
AcDbEntity
  8
HIDDEN
100
AcDbLine
 10
4.194919231147502
 20
10.0860345187193
 30
0.0
 11
4.194919231147502
 21
9.680597018719243
 31
0.0
  0
LINE
  5
4447
330
1E
100
AcDbEntity
  8
HIDDEN
100
AcDbLine
 10
4.139794231146733
 20
10.03322201871932
 30
0.0
 11
4.080731731146295
 21
10.09228451871932
 31
0.0
  0
LINE
  5
4448
330
1E
100
AcDbEntity
  8
HIDDEN
100
AcDbLine
 10
3.840544231147613
 20
10.0860345187193
 30
0.0
 11
3.840544231147613
 21
9.680597018719243
 31
0.0
  0
LINE
  5
4449
330
1E
100
AcDbEntity
  8
HIDDEN
100
AcDbLine
 10
3.895669231146565
 20
10.03322201871932
 30
0.0
 11
3.954731731147003
 21
10.09228451871932
 31
0.0
  0
LINE
  5
444A
330
1E
100
AcDbEntity
  8
HIDDEN
100
AcDbLine
 10
4.139794231146733
 20
10.03322201871932
 30
0.0
 11
4.139794231147642
 21
9.59397201871922
 31
0.0
  0
LINE
  5
444B
330
1E
100
AcDbEntity
  8
HIDDEN
100
AcDbLine
 10
3.895669231146565
 20
10.03322201871932
 30
0.0
 11
3.895669231147476
 21
9.59397201871922
 31
0.0
  0
LINE
  5
444C
330
1E
100
AcDbEntity
  8
HIDDEN
100
AcDbLine
 10
3.643668655200865
 20
9.680597018719243
 30
0.0
 11
3.643668655200865
 21
9.738597018719243
 31
0.0
  0
LINE
  5
4452
330
1E
100
AcDbEntity
  8
HIDDEN
100
AcDbLine
 10
4.135856731147068
 20
10.0860345187193
 30
0.0
 11
4.194919231147502
 21
10.0860345187193
 31
0.0
  0
LINE
  5
4453
330
1E
100
AcDbEntity
  8
HIDDEN
100
AcDbLine
 10
3.899606693337622
 20
10.88459701871949
 30
0.0
 11
3.899606693337627
 21
10.20428451871917
 31
0.0
  0
LINE
  5
4454
330
1E
100
AcDbEntity
  8
HIDDEN
100
AcDbLine
 10
4.135856693337558
 20
10.88459701871934
 30
0.0
 11
4.135856693337554
 21
10.20428451871927
 31
0.0
  0
LINE
  5
4455
330
1E
100
AcDbEntity
  8
HIDDEN
100
AcDbLine
 10
4.061231693337357
 20
10.23197201871935
 30
0.0
 11
4.061231693337357
 21
10.77522201871931
 31
0.0
  0
LINE
  5
4456
330
1E
100
AcDbEntity
  8
HIDDEN
100
AcDbLine
 10
3.974231693337821
 20
10.23197201871935
 30
0.0
 11
3.974231693337821
 21
10.77522201871931
 31
0.0
  0
LINE
  5
4457
330
1E
100
AcDbEntity
  8
HIDDEN
100
AcDbLine
 10
3.899606731147141
 20
10.0860345187193
 30
0.0
 11
3.840544231147613
 21
10.0860345187193
 31
0.0
  0
LINE
  5
4458
330
1E
100
AcDbEntity
  8
HIDDEN
100
AcDbLine
 10
4.088606693337022
 20
10.20428451871927
 30
0.0
 11
4.061231693337357
 21
10.23197201871935
 31
0.0
  0
LINE
  5
4459
330
1E
100
AcDbEntity
  8
HIDDEN
100
AcDbLine
 10
4.080731731147205
 20
10.20428451871917
 30
0.0
 11
4.080731731146295
 21
10.09228451871944
 31
0.0
  0
LINE
  5
445A
330
1E
100
AcDbEntity
  8
HIDDEN
100
AcDbLine
 10
4.135856731147068
 20
10.20428451871917
 30
0.0
 11
4.135856731147068
 21
10.0860345187193
 31
0.0
  0
LINE
  5
445B
330
1E
100
AcDbEntity
  8
HIDDEN
100
AcDbLine
 10
3.974231693337821
 20
10.23197201871923
 30
0.0
 11
3.946856693337248
 21
10.20428451871917
 31
0.0
  0
LINE
  5
445C
330
1E
100
AcDbEntity
  8
HIDDEN
100
AcDbLine
 10
3.954731731147003
 20
10.20428451871917
 30
0.0
 11
3.954731731147003
 21
10.09228451871921
 31
0.0
  0
LINE
  5
445D
330
1E
100
AcDbEntity
  8
HIDDEN
100
AcDbLine
 10
4.061231693337357
 20
10.23197201871935
 30
0.0
 11
3.974231693337821
 21
10.23197201871935
 31
0.0
  0
LINE
  5
445E
330
1E
100
AcDbEntity
  8
HIDDEN
100
AcDbLine
 10
3.899606731147141
 20
10.20428451871917
 30
0.0
 11
3.899606731147141
 21
10.0860345187193
 31
0.0
  0
LINE
  5
445F
330
1E
100
AcDbEntity
  8
HIDDEN
100
AcDbLine
 10
4.135856731147068
 20
10.20428451871917
 30
0.0
 11
3.899606731147141
 21
10.20428451871917
 31
0.0
  0
LINE
  5
4460
330
1E
100
AcDbEntity
  8
HIDDEN
100
AcDbLine
 10
3.974231693337821
 20
10.77522201871931
 30
0.0
 11
4.061231693337357
 21
10.77522201871931
 31
0.0
  0
LINE
  5
4461
330
1E
100
AcDbEntity
  8
HIDDEN
100
AcDbLine
 10
5.184606538676676
 20
10.73676142789269
 30
0.0
 11
5.208817722566617
 21
10.27478451871931
 31
0.0
  0
LINE
  5
4462
330
1E
100
AcDbEntity
  8
HIDDEN
100
AcDbLine
 10
5.212219195065204
 20
10.16453451871925
 30
0.0
 11
5.212219195065204
 21
10.2629720187193
 31
0.0
  0
LINE
  5
4463
330
1E
100
AcDbEntity
  8
OBJECT
100
AcDbLine
 10
4.486094448948717
 20
10.97159701871913
 30
0.0
 11
4.486094448948717
 21
10.62237808134556
 31
0.0
  0
LINE
  5
4464
330
1E
100
AcDbEntity
  8
OBJECT
100
AcDbLine
 10
5.318677592598948
 20
10.16453451871891
 30
0.0
 11
5.298533816697347
 21
9.780168377334099
 31
0.0
  0
LINE
  5
4466
330
1E
100
AcDbEntity
  8
OBJECT
100
AcDbLine
 10
5.28430526176929
 20
10.85977266155536
 30
0.0
 11
5.318677592599062
 21
10.20390951872012
 31
0.0
  0
LINE
  5
4468
330
1E
100
AcDbEntity
  8
OBJECT
100
AcDbLine
 10
5.29899009259903
 20
10.20390951871918
 30
0.0
 11
5.29899009259903
 21
10.16453451871891
 31
0.0
  0
LINE
  5
446B
330
1E
100
AcDbEntity
  8
HIDDEN
100
AcDbLine
 10
5.260602820517721
 20
10.27478451871931
 30
0.0
 11
5.260602820517721
 21
10.20390951871918
 31
0.0
  0
LINE
  5
446C
330
1E
100
AcDbEntity
  8
HIDDEN
100
AcDbLine
 10
5.251740092599408
 20
10.20390951871918
 30
0.0
 11
5.251740092599408
 21
10.2629720187193
 31
0.0
  0
ARC
  5
4504
330
1E
100
AcDbEntity
  8
OBJECT
100
AcDbCircle
 10
1.055721921229333
 20
10.85359701872139
 30
0.0
 40
0.118
100
AcDbArc
 50
89.99999999996211
 51
177.0000000000069
  0
ARC
  5
4505
330
1E
100
AcDbEntity
  8
OBJECT
100
AcDbCircle
 10
5.166466976668251
 20
10.85359701871867
 30
0.0
 40
0.118
100
AcDbArc
 50
3.000000000015333
 51
89.99999999996211
  0
LINE
  5
4509
330
1E
100
AcDbEntity
  8
OBJECT
100
AcDbLine
 10
4.885013259370323
 20
10.16453451871891
 30
0.0
 11
4.864869483468722
 21
9.780168377334099
 31
0.0
  0
ARC
  5
450A
330
1E
100
AcDbEntity
  8
OBJECT
100
AcDbCircle
 10
4.668264293813976
 20
9.79047201871888
 30
0.0
 40
0.196875
100
AcDbArc
 50
270.0
 51
356.9999999999942
  0
ARC
  5
450B
330
1E
100
AcDbEntity
  8
OBJECT
100
AcDbCircle
 10
1.468628236151443
 20
10.4551220187195
 30
0.0
 40
0.118125
100
AcDbArc
 50
90.0
 51
176.9999999999944
  0
LINE
  5
450C
330
1E
100
AcDbEntity
  8
OBJECT
100
AcDbLine
 10
1.350665122358574
 20
10.46130420355068
 30
0.0
 11
1.337175638527284
 21
10.20390951871829
 31
0.0
  0
LINE
  5
450D
330
1E
100
AcDbEntity
  8
OBJECT
100
AcDbLine
 10
4.871523775539165
 20
10.46130420355068
 30
0.0
 11
4.885013259370458
 21
10.20390951871829
 31
0.0
  0
ARC
  5
450E
330
1E
100
AcDbEntity
  8
OBJECT
100
AcDbCircle
 10
4.753560661746297
 20
10.4551220187195
 30
0.0
 40
0.118125
100
AcDbArc
 50
3.000000000005596
 51
90.0
  0
LINE
  5
4530
330
1E
100
AcDbEntity
  8
OBJECT
100
AcDbLine
 10
4.929415436697208
 20
10.50940729515296
 30
0.0
 11
4.945425896736022
 21
10.20390951871829
 31
0.0
  0
LINE
  5
4547
330
1E
100
AcDbEntity
  8
OBJECT
100
AcDbLine
 10
4.90032868492362
 20
10.55790951871922
 30
0.0
 11
4.918881038789825
 21
10.20390951871829
 31
0.0
  0
ARC
  5
4548
330
1E
100
AcDbEntity
  8
OBJECT
100
AcDbCircle
 10
4.869168272705787
 20
10.50624987508008
 30
0.0
 40
0.0603298439456642
100
AcDbArc
 50
3.00000000000405
 51
58.90217708597019
  0
LINE
  5
4549
330
1E
100
AcDbEntity
  8
OBJECT
100
AcDbLine
 10
4.929415436697208
 20
9.859036742285159
 30
0.0
 11
4.945425896736022
 21
10.16453451871982
 31
0.0
  0
LINE
  5
454A
330
1E
100
AcDbEntity
  8
OBJECT
100
AcDbLine
 10
4.90032868492362
 20
9.810534518718904
 30
0.0
 11
4.918881038789825
 21
10.16453451871982
 31
0.0
  0
ARC
  5
454B
330
1E
100
AcDbEntity
  8
OBJECT
100
AcDbCircle
 10
4.869168272705787
 20
9.862194162358044
 30
0.0
 40
0.0603298439456642
100
AcDbArc
 50
301.0978229140298
 51
356.9999999999958
  0
LINE
  5
454C
330
1E
100
AcDbEntity
  8
OBJECT
100
AcDbLine
 10
1.292773461200484
 20
10.50940729515296
 30
0.0
 11
1.276763001161672
 21
10.20390951871829
 31
0.0
  0
LINE
  5
454D
330
1E
100
AcDbEntity
  8
OBJECT
100
AcDbLine
 10
1.321860212974073
 20
10.55790951871922
 30
0.0
 11
1.303307859107867
 21
10.20390951871829
 31
0.0
  0
LINE
  5
454E
330
1E
100
AcDbEntity
  8
OBJECT
100
AcDbLine
 10
1.321860212974073
 20
9.810534518718904
 30
0.0
 11
1.303307859107867
 21
10.16453451871982
 31
0.0
  0
LINE
  5
454F
330
1E
100
AcDbEntity
  8
OBJECT
100
AcDbLine
 10
1.292773461200484
 20
9.859036742285159
 30
0.0
 11
1.276763001161672
 21
10.16453451871982
 31
0.0
  0
ARC
  5
4550
330
1E
100
AcDbEntity
  8
OBJECT
100
AcDbCircle
 10
1.353020625191905
 20
9.862194162358044
 30
0.0
 40
0.0603298439456642
100
AcDbArc
 50
183.000000000004
 51
238.90217708597
  0
ARC
  5
4551
330
1E
100
AcDbEntity
  8
OBJECT
100
AcDbCircle
 10
1.353020625191905
 20
10.50624987508008
 30
0.0
 40
0.0603298439456642
100
AcDbArc
 50
121.0978229140298
 51
176.9999999999959
  0
DIMENSION
  5
4D6B
330
1E
100
AcDbEntity
  8
DIM
100
AcDbDimension
  2
*D7
 10
13.79822428086615
 20
4.652794360686758
 30
0.0
 11
13.79822428086615
 21
5.834045993816005
 31
0.0
 70
   160
 71
     5
 42
2.362503266258487
  3
23NSTD
100
AcDbAlignedDimension
 13
12.30515943138449
 23
7.015297626945246
 33
0.0
 14
13.20718881905466
 24
4.652794360686758
 34
0.0
 50
90.0
100
AcDbRotatedDimension
  0
DIMENSION
  5
4D83
330
1E
100
AcDbEntity
  8
DIM
100
AcDbDimension
  2
*D8
 10
13.79822428086615
 20
2.290297626945242
 30
0.0
 11
13.79822428086615
 21
3.471545993816002
 31
0.0
 70
    32
 71
     5
 42
2.362496733741515
  3
23NSTD
100
AcDbAlignedDimension
 13
13.20718881905466
 23
4.652794360686758
 33
0.0
 14
12.30515943138449
 24
2.290297626945243
 34
0.0
 50
90.0
100
AcDbRotatedDimension
  0
DIMENSION
  5
4DB4
330
1E
100
AcDbEntity
  8
DIM
100
AcDbDimension
  2
*D9
 10
7.684061248214494
 20
8.292868157352891
 30
0.0
 11
7.349373748214482
 21
8.292868157352891
 31
0.0
 70
   160
 71
     5
 42
0.6693750000000236
  3
23NSTD
100
AcDbAlignedDimension
 13
7.01468624821447
 23
7.932735126945402
 33
0.0
 14
7.684061248214494
 24
7.782923661389572
 34
0.0
100
AcDbRotatedDimension
  0
LINE
  5
4E0D
330
1E
100
AcDbEntity
  8
OBJECT
100
AcDbLine
 10
7.684061248214472
 20
7.094047626945354
 30
0.0
 11
7.723436248214479
 21
7.094047626945354
 31
0.0
  0
LINE
  5
4E0E
330
1E
100
AcDbEntity
  8
OBJECT
100
AcDbLine
 10
7.723436248214479
 20
6.857797626945353
 30
0.0
 11
7.684061248214472
 21
6.857797626945353
 31
0.0
  0
LINE
  5
4E0F
330
1E
100
AcDbEntity
  8
OBJECT
100
AcDbLine
 10
7.723436248214479
 20
7.094047626945354
 30
0.0
 11
7.723436248214479
 21
6.857797626945353
 31
0.0
  0
LINE
  5
4E10
330
1E
100
AcDbEntity
  8
OBJECT
100
AcDbLine
 10
7.684061248214472
 20
7.055047626945352
 30
0.0
 11
7.723436248214479
 21
7.055047626945352
 31
0.0
  0
DIMENSION
  5
4E8B
330
1E
100
AcDbEntity
  8
DIM
100
AcDbDimension
  2
*D10
 10
7.59743624821439
 20
6.597824005147978
 30
0.0
 11
8.441772185714389
 21
6.597824005147978
 31
0.0
 70
    32
 71
     5
 42
0.196874999999971
  3
23NSTD
100
AcDbAlignedDimension
 13
7.400561248214419
 23
6.916860126944973
 33
0.0
 14
7.59743624821439
 24
6.659518631028722
 34
0.0
100
AcDbRotatedDimension
  0
DIMENSION
  5
4EA3
330
1E
100
AcDbEntity
  8
DIM
100
AcDbDimension
  2
*D11
 10
7.684061248214491
 20
5.097383376835195
 30
0.0
 11
8.53913937321449
 21
5.097383376835195
 31
0.0
 70
    32
 71
     5
 42
0.0866250000000912
  3
23NSTD
100
AcDbAlignedDimension
 13
7.5974362482144
 23
5.111518229646086
 33
0.0
 14
7.684061248214491
 24
5.111518229646086
 34
0.0
100
AcDbRotatedDimension
  0
LINE
  5
521F
330
1E
100
AcDbEntity
  8
OBJECT
100
AcDbLine
 10
7.400561248214419
 20
2.388735126945519
 30
0.0
 11
7.597436248214396
 21
2.408422626944755
 31
0.0
  0
LINE
  5
5220
330
1E
100
AcDbEntity
  8
OBJECT
100
AcDbLine
 10
7.400561248214419
 20
2.191860126944973
 30
0.0
 11
7.597436248214396
 21
2.172172626944826
 31
0.0
  0
LINE
  5
5221
330
1E
100
AcDbEntity
  8
OBJECT
100
AcDbLine
 10
7.400561248214419
 20
2.388735126945519
 30
0.0
 11
7.400561248214419
 21
2.191860126944973
 31
0.0
  0
ARC
  5
526A
102
{ACAD_REACTORS
330
5634
102
}
330
1E
100
AcDbEntity
  8
OBJECT
100
AcDbCircle
 10
47.64981124821443
 20
7.113735126945172
 30
0.0
 40
41.21774999999997
100
AcDbArc
 50
179.7537070373706
 51
187.4925572304415
  0
LINE
  5
52DB
102
{ACAD_REACTORS
330
5634
102
}
330
1E
100
AcDbEntity
  8
OBJECT
100
AcDbLine
 10
6.346480812544662
 20
7.407485126945316
 30
0.0
 11
6.306302127463482
 21
7.407485126945316
 31
0.0
  0
LINE
  5
52DC
102
{ACAD_REACTORS
330
5634
102
}
330
1E
100
AcDbEntity
  8
OBJECT
100
AcDbLine
 10
6.642314674928478
 20
1.897922626945316
 30
0.0
 11
6.676079491081665
 21
1.897922626945316
 31
0.0
  0
TEXT
  5
530A
330
1E
100
AcDbEntity
  8
TEXT
100
AcDbText
 10
13.12926892598201
 20
21.07559565517235
 30
0.0
 40
0.2145
  1
8-27-08
 41
0.75
 72
     1
 11
13.65211267598201
 21
21.07559565517235
 31
0.0
100
AcDbText
  0
DIMENSION
  5
531A
330
1E
100
AcDbEntity
  8
DIM
100
AcDbDimension
  2
*D12
 10
12.58132855173028
 20
19.44837882051431
 30
0.0
 11
11.0845344313845
 21
19.44837882051431
 31
0.0
 70
    32
 71
     5
 42
2.993588240691556
  3
23NSTD
100
AcDbAlignedDimension
 13
9.587740311038729
 23
18.23988903464785
 33
0.0
 14
12.58132855173028
 24
18.23988903464785
 34
0.0
100
AcDbRotatedDimension
  0
DIMENSION
  5
5336
330
1E
100
AcDbEntity
  8
DIM
100
AcDbDimension
  2
*D14
 10
8.443225346196484
 20
12.51083515244093
 30
0.0
 11
8.443225346196483
 21
15.37536209354439
 31
0.0
 70
    32
 71
     5
 42
5.729053882206924
  3
23NSTD
100
AcDbAlignedDimension
 13
9.587740311038729
 23
18.23988903464785
 33
0.0
 14
10.173093743359
 24
12.51083515244093
 34
0.0
 50
90.0
100
AcDbRotatedDimension
  0
DIMENSION
  5
534E
330
1E
100
AcDbEntity
  8
DIM
100
AcDbDimension
  2
*D15
 10
11.08453443138449
 20
19.0451913120311
 30
0.0
 11
10.33613737121161
 21
19.0451913120311
 31
0.0
 70
    32
 71
     5
 42
1.496794120345764
  3
23NSTD
100
AcDbAlignedDimension
 13
9.587740311038729
 23
18.23988903464785
 33
0.0
 14
11.08453443138449
 24
18.83051403464789
 34
0.0
100
AcDbRotatedDimension
  0
DIMENSION
  5
53B9
330
1E
100
AcDbEntity
  8
DIM
100
AcDbDimension
  2
*D19
 10
11.08453443138449
 20
11.79432676791439
 30
0.0
 11
10.62881408737174
 21
11.79432676791439
 31
0.0
 70
    32
 71
     5
 42
0.9114406880254897
  3
23NSTDI
100
AcDbAlignedDimension
 13
10.173093743359
 23
12.51083515244093
 33
0.0
 14
11.08453443138449
 24
12.13676403464793
 34
0.0
100
AcDbRotatedDimension
  0
CIRCLE
  5
53D7
330
1E
100
AcDbEntity
  8
OBJECT
100
AcDbCircle
 10
11.99597511940998
 20
1.679990478479766
 30
0.0
 40
0.1771875
  0
CIRCLE
  5
53D8
330
1E
100
AcDbEntity
  8
OBJECT
100
AcDbCircle
 10
11.99597511940998
 20
1.679990478479766
 30
0.0
 40
0.118125
  0
CIRCLE
  5
53D9
330
1E
100
AcDbEntity
  8
OBJECT
100
AcDbCircle
 10
11.99597511940998
 20
1.679990478479766
 30
0.0
 40
0.063
  0
CIRCLE
  5
53DA
330
1E
100
AcDbEntity
  8
OBJECT
100
AcDbCircle
 10
11.99597511940998
 20
12.51083515244093
 30
0.0
 40
0.135
  0
CIRCLE
  5
53DB
330
1E
100
AcDbEntity
  8
OBJECT
100
AcDbCircle
 10
11.99597511940998
 20
12.51083515244093
 30
0.0
 40
0.063
  0
DIMENSION
  5
53E6
330
1E
100
AcDbEntity
  8
DIM
100
AcDbDimension
  2
*D21
 10
11.99597511940998
 20
11.38335202178502
 30
0.0
 11
11.08453443138449
 21
11.38335202178502
 31
0.0
 70
    32
 71
     5
 42
1.822881376050979
  3
23NSTD
100
AcDbAlignedDimension
 13
10.173093743359
 23
12.51083515244093
 33
0.0
 14
11.99597511940998
 24
12.51083515244093
 34
0.0
100
AcDbRotatedDimension
  0
DIMENSION
  5
53FE
330
1E
100
AcDbEntity
  8
DIM
100
AcDbDimension
  2
*D22
 10
3.071695160264866
 20
9.680597018719243
 30
0.0
 11
2.464117035264864
 21
9.185597018719244
 31
0.0
 70
    32
 71
     5
 42
0.0580000000000034
  3
23NSTD
100
AcDbAlignedDimension
 13
2.895544224490147
 23
9.738597018719246
 33
0.0
 14
2.895544224490147
 24
9.680597018719243
 34
0.0
 50
90.0
100
AcDbRotatedDimension
  0
DIMENSION
  5
540D
330
1E
100
AcDbEntity
  8
DIM
100
AcDbDimension
  2
*D23
 10
12.30515943138449
 20
1.064546663302515
 30
0.0
 11
11.08453443138448
 21
1.064546663302515
 31
0.0
 70
    32
 71
     5
 42
2.441250000000028
  3
23NSTD
100
AcDbAlignedDimension
 13
9.863909431384465
 23
2.290291094428271
 33
0.0
 14
12.30515943138449
 24
2.290291094428271
 34
0.0
100
AcDbRotatedDimension
  0
LINE
  5
5475
330
1E
100
AcDbEntity
  8
HIDDEN
100
AcDbLine
 10
2.738044224490148
 20
9.678597018719246
 30
0.0
 11
2.793044224490149
 21
9.738597018719246
 31
0.0
  0
LINE
  5
5476
330
1E
100
AcDbEntity
  8
HIDDEN
100
AcDbLine
 10
2.683044224490148
 20
9.738597018719246
 30
0.0
 11
2.738044224490148
 21
9.678597018719246
 31
0.0
  0
LINE
  5
5477
330
1E
100
AcDbEntity
  8
HIDDEN
100
AcDbLine
 10
3.431168655200865
 20
9.738597018719246
 30
0.0
 11
3.486168655200865
 21
9.678597018719246
 31
0.0
  0
LINE
  5
5478
330
1E
100
AcDbEntity
  8
HIDDEN
100
AcDbLine
 10
3.486168655200865
 20
9.678597018719246
 30
0.0
 11
3.541168655200865
 21
9.738597018719246
 31
0.0
  0
LEADER
  5
547A
330
1E
100
AcDbEntity
  8
DIM
100
AcDbLeader
  3
23NSTD
 73
     0
 74
     0
 75
     1
 40
0.7447916666666668
 41
1.84765625
 76
     3
 10
11.59853464529455
 20
7.481322749379206
 30
0.0
 10
12.11573472676697
 20
8.643540703248874
 30
0.0
 10
12.36323472676697
 20
8.643540703248874
 30
0.0
340
547B
213
0.0
223
-0.0859375
233
0.0
1001
ACAD
1000
DSTYLE
1002
{
1070
   147
1040
0.09
1070
    77
1070
     0
1002
}
  0
MTEXT
  5
547B
102
{ACAD_REACTORS
330
547A
102
}
330
1E
100
AcDbEntity
  8
DIM
100
AcDbMText
 10
12.48698472676697
 20
8.729478203248874
 30
0.0
 40
0.171875
 41
0.0
 71
     1
 72
     1
  1
0.315 DIA. BOSS\PW/0.110 DIA. HOLE\P(2) PLACES
 73
     1
 44
1.0
  0
DIMENSION
  5
547C
330
1E
100
AcDbEntity
  8
DIM
100
AcDbDimension
  2
*D25
 10
11.45859694700818
 20
8.597794360686734
 30
0.0
 11
11.0845344470082
 21
8.597794360686734
 31
0.0
 70
    32
 71
     5
 42
0.7481249999999591
  3
23NSTDI
100
AcDbAlignedDimension
 13
10.71047194700822
 23
7.409047626945207
 33
0.0
 14
11.45859694700818
 24
7.409047645793576
 34
0.0
100
AcDbRotatedDimension
  0
DIMENSION
  5
548A
330
1E
100
AcDbEntity
  8
DIM
100
AcDbDimension
  2
*D26
 10
10.71047194700822
 20
8.214169360686735
 30
0.0
 11
9.844651634508224
 21
8.214169360686735
 31
0.0
 70
    32
 71
     5
 42
0.3740624843762692
  3
23NSTD
100
AcDbAlignedDimension
 13
11.08453443138449
 23
7.999669360686736
 33
0.0
 14
10.71047194700822
 24
7.409047626945207
 34
0.0
100
AcDbRotatedDimension
  0
DIMENSION
  5
55C4
330
1E
100
AcDbEntity
  8
DIM
100
AcDbDimension
  2
*D27
 10
6.30631124821447
 20
8.585751798591541
 30
0.0
 11
6.690217498214465
 21
8.585751798591541
 31
0.0
 70
    32
 71
     5
 42
0.7678124999999918
  3
23NSTDI
100
AcDbAlignedDimension
 13
7.074123748214462
 23
7.999652974028084
 33
0.0
 14
6.30631124821447
 24
7.847317186554125
 34
0.0
100
AcDbRotatedDimension
  0
LINE
  5
55EA
102
{ACAD_REACTORS
330
5634
102
}
330
1E
100
AcDbEntity
  8
OBJECT
100
AcDbLine
 10
6.413436248214421
 20
7.710570245246129
 30
0.0
 11
6.413436248214392
 21
7.52716415448906
 31
0.0
  0
ARC
  5
55ED
102
{ACAD_REACTORS
330
568A
102
}
330
1E
100
AcDbEntity
  8
OBJECT
100
AcDbCircle
 10
7.441436248214418
 20
7.719794014400057
 30
0.0
 40
0.156
100
AcDbArc
 50
359.9999999999884
 51
87.00000000003589
  0
ARC
  5
55EE
102
{ACAD_REACTORS
330
5634
102
}
330
1E
100
AcDbEntity
  8
OBJECT
100
AcDbCircle
 10
6.569436248214421
 20
7.710570245246104
 30
0.0
 40
0.156
100
AcDbArc
 50
92.99999999999149
 51
179.9999999999909
  0
ARC
  5
55EF
102
{ACAD_REACTORS
330
5634
102
}
330
1E
100
AcDbEntity
  8
OBJECT
100
AcDbCircle
 10
6.935964388471404
 20
1.571688970149973
 30
0.0
 40
0.156
100
AcDbArc
 50
187.751567906559
 51
266.9999999999223
  0
ARC
  5
55F0
102
{ACAD_REACTORS
330
568A
102
}
330
1E
100
AcDbEntity
  8
OBJECT
100
AcDbCircle
 10
7.441436248214444
 20
1.585801239490727
 30
0.0
 40
0.156
100
AcDbArc
 50
272.9999999999836
 51
0.0000000000005979
  0
HATCH
  5
5634
330
1E
100
AcDbEntity
  8
OBJECT
100
AcDbHatch
 10
0.0
 20
0.0
 30
0.0
210
0.0
220
0.0
230
1.0
  2
ANSI31
 70
     0
 71
     1
 91
        1
 92
        7
 72
     1
 73
     1
 93
       37
 10
6.418254063383295
 20
7.965280300347029
 42
0.3989595459737718
 10
6.30631124821447
 20
7.847317186554145
 42
0.0
 10
6.306311248214463
 20
7.409027974017234
 42
0.000009329548185
 10
6.30630212746346
 20
7.407485126945316
 42
0.0
 10
6.346480812544669
 20
7.407485126945316
 42
0.0334443147665454
 10
6.676079491081672
 20
1.897922626945316
 42
0.0
 10
6.642314674928471
 20
1.897922626945316
 42
0.002910285565958
 10
6.706393056195299
 20
1.420923010722193
 42
0.359112578881565
 10
6.817190703404548
 20
1.319368264330985
 42
0.0
 10
7.073748748214508
 20
1.305922626945316
 42
0.0
 10
7.073748748214508
 20
1.36991035486349
 42
0.0
 10
7.002873748214394
 20
1.36991035486349
 42
0.0
 10
7.002873748214393
 20
1.411968313216815
 42
0.0
 10
6.927799979297295
 20
1.41590276272827
 42
-0.3602608872101257
 10
6.781389884210238
 20
1.550647995067701
 42
-0.0005249738187584
 10
6.769798099317704
 20
1.636479594410189
 42
0.0
 10
6.730186248214497
 20
1.636479594410189
 42
0.0
 10
6.730186248214497
 20
1.723479594409724
 42
0.0
 10
6.75823572810728
 20
1.723479594409724
 42
-0.0000951763421806
 10
6.756186592285487
 20
1.739047626945283
 42
0.0
 10
6.783986292148235
 20
1.739047626945253
 42
-0.0337799438486878
 10
6.432442061733148
 20
7.290914154489127
 42
0.0
 10
7.073748748214453
 20
7.290914154489128
 42
0.0
 10
7.073748748214452
 20
7.33816415448875
 42
0.0
 10
7.046061248214383
 20
7.365539154489327
 42
0.0
 10
6.386811248214325
 20
7.365539154489327
 42
0.0
 10
6.386811248214325
 20
7.452539154488861
 42
0.0
 10
7.046061248214265
 20
7.452539154488858
 42
0.0
 10
7.073748748214452
 20
7.479914154488638
 42
0.0
 10
7.073748748214452
 20
7.527164154489056
 42
0.0
 10
6.413436248214392
 20
7.527164154489059
 42
0.0
 10
6.413436248214421
 20
7.710570245246129
 42
-0.3989595459737165
 10
6.561271839040545
 20
7.866356452667819
 42
0.0
 10
7.002873748214451
 20
7.889499828054709
 42
0.0
 10
7.002873748214452
 20
7.936672626945306
 42
0.0
 10
7.074123748214461
 20
7.936672626945266
 42
0.0
 10
7.07412374821446
 20
7.999652974028081
 42
0.0
 97
       34
330
37BB
330
376F
330
42A2
330
42A3
330
42A5
330
52DB
330
377F
330
52DC
330
42A4
330
42A6
330
42A7
330
4289
330
428A
330
4287
330
4292
330
55EF
330
3781
330
4279
330
427C
330
4278
330
37BD
330
526A
330
41D7
330
41DA
330
41DE
330
41D4
330
41D8
330
41D5
330
41E3
330
41D6
330
55EA
330
55EE
330
37B6
330
42AD
 75
     0
 76
     1
 52
90.0
 41
0.5
 77
     0
 78
     1
 53
135.0
 43
0.0
 44
0.0
 45
-0.0441941738241592
 46
-0.0441941738241592
 79
     0
 47
0.0137140489042985
 98
        1
 10
6.572330728277066
 20
7.935567674858511
  0
HATCH
  5
568A
330
1E
100
AcDbEntity
  8
OBJECT
100
AcDbHatch
 10
0.0
 20
0.0
 30
0.0
210
0.0
220
0.0
230
1.0
  2
ANSI31
 70
     0
 71
     1
 91
        4
 92
        7
 72
     1
 73
     1
 93
       19
 10
7.113123748214457
 20
7.999672626945353
 42
0.0
 10
7.113123748214456
 20
7.97998512694535
 42
0.0
 10
7.074123748214461
 20
7.979985126945353
 42
0.0
 10
7.074123748214461
 20
7.93273512694536
 42
0.0
 10
7.014686248214469
 20
7.93273512694536
 42
0.0
 10
7.014686248214471
 20
7.893218690328365
 42
0.0
 10
7.113123748213333
 20
7.893214229411442
 42
0.0
 10
7.449600657388219
 20
7.875580221821776
 42
-0.3989595459739609
 10
7.597436248214417
 20
7.719794014400025
 42
0.0
 10
7.597436248214389
 20
7.586226692299008
 42
0.0
 10
7.191998748214327
 20
7.586226692299007
 42
0.0
 10
7.191998748214327
 20
7.52716419229857
 42
0.0
 10
7.073748748214452
 20
7.527164192298571
 42
0.0
 10
7.073748748214452
 20
7.472039192298709
 42
0.0
 10
7.185748748214304
 20
7.472039192297797
 42
0.0
 10
7.244811248214287
 20
7.531101692298237
 42
0.0
 10
7.68406124821449
 20
7.531101692299143
 42
0.0
 10
7.68406124821449
 20
7.782923661389572
 42
0.3989595459730883
 10
7.497489889599735
 20
7.979528851043871
 42
0.0
 97
       19
330
4244
330
3747
330
3740
330
376F
330
3743
330
36EB
330
373E
330
4242
330
55ED
330
4246
330
41D2
330
41E5
330
41E1
330
41DA
330
41E4
330
41E2
330
41D3
330
4245
330
4243
 92
        7
 72
     0
 73
     1
 93
       18
 10
7.68406124821449
 20
7.286976692298977
 10
7.244811248214286
 20
7.286976692298067
 10
7.185748748214304
 20
7.346039192298505
 10
7.073748748214451
 20
7.346039192298504
 10
7.073748748214454
 20
7.290914192298642
 10
7.191998748214328
 20
7.290914192298642
 10
7.191998748214328
 20
7.231851692299115
 10
7.597436248214389
 20
7.231851692299116
 10
7.597436248214389
 20
7.133422626944754
 10
7.40056124821442
 20
7.113735126945518
 10
7.400561248214421
 20
7.05861012694475
 10
7.636811248214461
 20
7.058610126944749
 10
7.636811248214462
 20
6.971985126944836
 10
7.400561248214419
 20
6.971985126944836
 10
7.400561248214419
 20
6.916860126944972
 10
7.597436248214391
 20
6.897172626944828
 10
7.597436248214441
 20
1.802042094410495
 10
7.684061248214491
 20
1.802042094410495
 97
       17
330
41D1
330
41DD
330
41DF
330
41DA
330
41DC
330
41E0
330
41D0
330
4281
330
4299
330
4294
330
4295
330
4298
330
4296
330
4297
330
429A
330
426C
330
4245
 92
        7
 72
     1
 73
     1
 93
        5
 10
7.684061248214491
 20
1.802042094410495
 42
0.0
 10
7.597436248214441
 20
1.802042094410495
 42
0.0
 10
7.597436248214443
 20
1.585801239490729
 42
-0.0449578212155815
 10
7.594923949523489
 20
1.557917094410328
 42
0.0
 10
7.68406124821449
 20
1.557917094410328
 42
0.0
 97
        5
330
426C
330
429A
330
55F0
330
426B
330
4245
 92
        7
 72
     1
 73
     1
 93
       12
 10
7.113123748214461
 20
1.412381024479285
 42
0.0
 10
7.014686248214411
 20
1.412381024479286
 42
0.0
 10
7.014686248214412
 20
1.372860126945082
 42
0.0
 10
7.073748748214508
 20
1.372860126945083
 42
0.0
 10
7.073748748214506
 20
1.325610126944553
 42
0.0
 10
7.113123748214457
 20
1.325610126944553
 42
0.0
 10
7.113123748214457
 20
1.305922626945317
 42
0.0
 10
7.49748988959974
 20
1.326066402846798
 42
0.3989595459738371
 10
7.68406124821449
 20
1.522671592501609
 42
0.0
 10
7.68406124821449
 20
1.557917094410328
 42
0.0
 10
7.594923949523489
 20
1.557917094410328
 42
-0.3477641053721203
 10
7.449600657388297
 20
1.430015032069012
 42
0.0
 97
       12
330
4245
330
426B
330
55F0
330
4291
330
4290
330
4286
330
428D
330
428C
330
428E
330
428B
330
4266
330
4267
 75
     0
 76
     1
 52
0.0
 41
0.375
 77
     0
 78
     1
 53
45.0
 43
0.0
 44
0.0
 45
-0.0331456303681194
 46
0.0331456303681194
 79
     0
 47
0.0137140489042985
 98
        4
 10
7.382057883847394
 20
7.935567674858511
 10
7.656541717297386
 20
5.755033880774931
 10
7.642817462580765
 20
1.695675377025686
 10
7.409506303217611
 20
1.380252282058528
  0
ARC
  5
568B
330
1E
100
AcDbEntity
  8
HIDDEN
100
AcDbCircle
 10
1.193368566642781
 20
10.72859701872131
 30
0.0
 40
0.156
100
AcDbArc
 50
89.99999999996184
 51
176.9999999999844
  0
ARC
  5
568C
330
1E
100
AcDbEntity
  8
HIDDEN
100
AcDbCircle
 10
1.18305733606876
 20
9.836597018719242
 30
0.0
 40
0.156
100
AcDbArc
 50
183.0000000000051
 51
270.0
  0
ARC
  5
568D
330
1E
100
AcDbEntity
  8
HIDDEN
100
AcDbCircle
 10
5.039131561828848
 20
9.836597018719244
 30
0.0
 40
0.156
100
AcDbArc
 50
270.0
 51
356.999999999995
  0
ARC
  5
568E
330
1E
100
AcDbEntity
  8
HIDDEN
100
AcDbCircle
 10
5.028820331254964
 20
10.72859701871875
 30
0.0
 40
0.156
100
AcDbArc
 50
3.000000000015079
 51
89.9999999999618
  0
DIMENSION
  5
56A7
330
1E
100
AcDbEntity
  8
DIM
100
AcDbDimension
  2
*D29
 10
7.597436248214389
 20
7.657297786766307
 30
0.0
 11
8.431029998214389
 21
7.657297786766307
 31
0.0
 70
    32
 71
     5
 42
1.183999999999968
  3
23NSTD
100
AcDbAlignedDimension
 13
6.413436248214421
 23
7.710570245246129
 33
0.0
 14
7.597436248214389
 24
7.586226692299008
 34
0.0
100
AcDbRotatedDimension
  0
DIMENSION
  5
56C1
330
1E
100
AcDbEntity
  8
DIM
100
AcDbDimension
  2
*D30
 10
10.40177371729831
 20
4.652794360686758
 30
0.0
 11
10.40177371729831
 21
6.030920993815985
 31
0.0
 70
    32
 71
     5
 42
2.756253266258448
  3
23NSTD
100
AcDbAlignedDimension
 13
10.71047194700822
 23
7.409047626945207
 33
0.0
 14
10.71047194700822
 24
4.652794360686758
 34
0.0
 50
90.0
100
AcDbRotatedDimension
  0
DIMENSION
  5
56D0
330
1E
100
AcDbEntity
  8
DIM
100
AcDbDimension
  2
*D31
 10
13.75812272849837
 20
15.48363903464792
 30
0.0
 11
13.75812272849837
 21
16.86176403464789
 31
0.0
 70
    32
 71
     5
 42
2.756249999999932
  3
23NSTD
100
AcDbAlignedDimension
 13
12.58132855173028
 23
18.23988903464785
 33
0.0
 14
13.20718881905466
 24
15.48363903464792
 34
0.0
 50
90.0
100
AcDbRotatedDimension
  0
DIMENSION
  5
56DE
330
1E
100
AcDbEntity
  8
DIM
100
AcDbDimension
  2
*D32
 10
13.75812272849837
 20
12.51083515244092
 30
0.0
 11
13.75812272849837
 21
13.99723709354442
 31
0.0
 70
    32
 71
     5
 42
2.972803882206992
  3
23NSTD
100
AcDbAlignedDimension
 13
13.20718881905466
 23
15.48363903464792
 33
0.0
 14
11.99597511940998
 24
12.51083515244093
 34
0.0
 50
90.0
100
AcDbRotatedDimension
  0
ENDSEC
  0
SECTION
  2
OBJECTS
  0
DICTIONARY
  5
C
330
0
100
AcDbDictionary
281
     1
  3
ACAD_GROUP
350
D
  3
ACAD_LAYOUT
350
19
  3
ACAD_MLINESTYLE
350
16
  3
ACAD_PLOTSETTINGS
350
18
  3
ACAD_PLOTSTYLENAME
350
E
  3
AcadDim
350
5479
  3
AcDbVariableDictionary
350
1A41
  0
DICTIONARY
  5
D
102
{ACAD_REACTORS
330
C
102
}
330
C
100
AcDbDictionary
281
     1
  0
DICTIONARY
  5
19
102
{ACAD_REACTORS
330
C
102
}
330
C
100
AcDbDictionary
281
     1
  3
Layout1
350
1D
  3
Model
350
21
  0
DICTIONARY
  5
16
102
{ACAD_REACTORS
330
C
102
}
330
C
100
AcDbDictionary
281
     1
  3
Standard
350
17
  0
DICTIONARY
  5
18
102
{ACAD_REACTORS
330
C
102
}
330
C
100
AcDbDictionary
281
     1
  0
ACDBDICTIONARYWDFLT
  5
E
102
{ACAD_REACTORS
330
C
102
}
330
C
100
AcDbDictionary
281
     1
  3
Normal
350
F
100
AcDbDictionaryWithDefault
340
F
  0
XRECORD
  5
5479
102
{ACAD_REACTORS
330
C
102
}
330
C
100
AcDbXrecord
280
     1
 90
   990106
  3

 60
     0
 61
     0
 62
     1
 63
     1
 64
     0
 65
     0
 66
     0
 67
     3
 68
     1
 69
     0
 70
     0
 71
     0
 72
     0
 40
0.0
170
     2
340
547B
  0
DICTIONARY
  5
1A41
102
{ACAD_REACTORS
330
C
102
}
330
C
100
AcDbDictionary
281
     1
  3
SORTENTS
350
1A42
  0
LAYOUT
  5
1D
102
{ACAD_REACTORS
330
19
102
}
330
19
100
AcDbPlotSettings
  1

  2
C:\Program Files\ACAD2000\plotters\DWF ePlot.pc3
  4

  6

 40
0.0
 41
0.0
 42
0.0
 43
0.0
 44
0.0
 45
0.0
 46
0.0
 47
0.0
 48
0.0
 49
0.0
140
0.0
141
0.0
142
1.0
143
1.0
 70
   688
 72
     0
 73
     0
 74
     5
  7
monochrome.ctb
 75
    16
147
1.0
148
0.0
149
0.0
100
AcDbLayout
  1
Layout1
 70
     1
 71
     1
 10
0.0
 20
0.0
 11
12.0
 21
9.0
 12
0.0
 22
0.0
 32
0.0
 14
1.000000000000000E+20
 24
1.000000000000000E+20
 34
1.000000000000000E+20
 15
-1.000000000000000E+20
 25
-1.000000000000000E+20
 35
-1.000000000000000E+20
146
0.0
 13
0.0
 23
0.0
 33
0.0
 16
1.0
 26
0.0
 36
0.0
 17
0.0
 27
1.0
 37
0.0
 76
     0
330
1A
  0
LAYOUT
  5
21
102
{ACAD_REACTORS
330
19
102
}
330
19
100
AcDbPlotSettings
  1

  2
RICOH Aficio 1060 PCL 6
  4
Letter
  6

 40
5.027083396911621
 41
5.027085304260253
 42
5.027084350585936
 43
5.027069091796875
 44
215.8999938964841
 45
279.3999938964843
 46
11.68399999999998
 47
0.0
 48
14.60342301250534
 49
0.0
140
27.85342301250534
141
19.57499999999998
142
1.0
143
2.030792260873894
 70
 11956
 72
     0
 73
     0
 74
     1
  7
monochrome.ctb
 75
     0
147
0.4924186581101492
148
0.0135535489888795
149
0.0345316084711129
100
AcDbLayout
  1
Model
 70
     1
 71
     0
 10
0.0
 20
0.0
 11
12.0
 21
9.0
 12
0.0
 22
0.0
 32
0.0
 14
0.0
 24
0.0
 34
0.0
 15
0.0
 25
0.0
 35
0.0
146
0.0
 13
0.0
 23
0.0
 33
0.0
 16
1.0
 26
0.0
 36
0.0
 17
0.0
 27
1.0
 37
0.0
 76
     0
330
1E
  0
MLINESTYLE
  5
17
102
{ACAD_REACTORS
330
16
102
}
330
16
100
AcDbMlineStyle
  2
STANDARD
 70
     0
  3

 62
   256
 51
90.0
 52
90.0
 71
     2
 49
0.5
 62
   256
  6
BYLAYER
 49
-0.5
 62
   256
  6
BYLAYER
  0
ACDBPLACEHOLDER
  5
F
102
{ACAD_REACTORS
330
E
102
}
330
E
  0
DICTIONARYVAR
  5
1A42
102
{ACAD_REACTORS
330
1A41
102
}
330
1A41
100
DictionaryVariables
280
     0
  1
96
  0
ENDSEC
  0
EOF
