  0
SECTION
  2
HEADER
  9
$ACADVER
  1
AC1015
  9
$ACADMAINTVER
 70
     6
  9
$DWGCODEPAGE
  3
ANSI_1252
  9
$INSBASE
 10
0.0
 20
0.0
 30
0.0
  9
$EXTMIN
 10
1718.214648278789
 20
607.0861620448177
 30
0.0
  9
$EXTMAX
 10
1738.714648278789
 20
623.0861620448177
 30
0.0
  9
$LIMMIN
 10
0.0
 20
0.0
  9
$LIMMAX
 10
420.0
 20
297.0
  9
$ORTHOMODE
 70
     0
  9
$REGENMODE
 70
     1
  9
$FILLMODE
 70
     1
  9
$QTEXTMODE
 70
     0
  9
$MIRRTEXT
 70
     0
  9
$LTSCALE
 40
1.0
  9
$ATTMODE
 70
     1
  9
$TEXTSIZE
 40
2.5
  9
$TRACEWID
 40
1.0
  9
$TEXTSTYLE
  7
Standard
  9
$CLAYER
  8
\M+2BBB2\M+2A755\M+2BD75
  9
$CELTYPE
  6
ByLayer
  9
$CECOLOR
 62
   256
  9
$CELTSCALE
 40
0.4
  9
$DISPSILH
 70
     0
  9
$DIMSCALE
 40
1.0
  9
$DIMASZ
 40
0.18
  9
$DIMEXO
 40
0.0625
  9
$DIMDLI
 40
0.38
  9
$DIMRND
 40
0.0
  9
$DIMDLE
 40
0.0
  9
$DIMEXE
 40
0.18
  9
$DIMTP
 40
0.0
  9
$DIMTM
 40
0.0
  9
$DIMTXT
 40
0.125
  9
$DIMCEN
 40
0.09
  9
$DIMTSZ
 40
0.0
  9
$DIMTOL
 70
     0
  9
$DIMLIM
 70
     0
  9
$DIMTIH
 70
     1
  9
$DIMTOH
 70
     1
  9
$DIMSE1
 70
     0
  9
$DIMSE2
 70
     0
  9
$DIMTAD
 70
     0
  9
$DIMZIN
 70
     0
  9
$DIMBLK
  1

  9
$DIMASO
 70
     1
  9
$DIMSHO
 70
     1
  9
$DIMPOST
  1

  9
$DIMAPOST
  1

  9
$DIMALT
 70
     1
  9
$DIMALTD
 70
     2
  9
$DIMALTF
 40
25.4
  9
$DIMLFAC
 40
1.0
  9
$DIMTOFL
 70
     0
  9
$DIMTVP
 40
0.0
  9
$DIMTIX
 70
     0
  9
$DIMSOXD
 70
     0
  9
$DIMSAH
 70
     0
  9
$DIMBLK1
  1

  9
$DIMBLK2
  1

  9
$DIMSTYLE
  2
Standard
  9
$DIMCLRD
 70
     0
  9
$DIMCLRE
 70
     0
  9
$DIMCLRT
 70
     0
  9
$DIMTFAC
 40
1.0
  9
$DIMGAP
 40
0.09
  9
$DIMJUST
 70
     0
  9
$DIMSD1
 70
     0
  9
$DIMSD2
 70
     0
  9
$DIMTOLJ
 70
     1
  9
$DIMTZIN
 70
     0
  9
$DIMALTZ
 70
     0
  9
$DIMALTTZ
 70
     0
  9
$DIMUPT
 70
     0
  9
$DIMDEC
 70
     3
  9
$DIMTDEC
 70
     3
  9
$DIMALTU
 70
     2
  9
$DIMALTTD
 70
     2
  9
$DIMTXSTY
  7
Standard
  9
$DIMAUNIT
 70
     0
  9
$DIMADEC
 70
     0
  9
$DIMALTRND
 40
0.0
  9
$DIMAZIN
 70
     0
  9
$DIMDSEP
 70
    46
  9
$DIMATFIT
 70
     3
  9
$DIMFRAC
 70
     0
  9
$DIMLDRBLK
  1

  9
$DIMLUNIT
 70
     2
  9
$DIMLWD
 70
    -2
  9
$DIMLWE
 70
    -2
  9
$DIMTMOVE
 70
     0
  9
$LUNITS
 70
     2
  9
$LUPREC
 70
     3
  9
$SKETCHINC
 40
1.0
  9
$FILLETRAD
 40
2.5
  9
$AUNITS
 70
     0
  9
$AUPREC
 70
     0
  9
$MENU
  1
.
  9
$ELEVATION
 40
0.0
  9
$PELEVATION
 40
0.0
  9
$THICKNESS
 40
0.0
  9
$LIMCHECK
 70
     0
  9
$CHAMFERA
 40
0.5
  9
$CHAMFERB
 40
0.5
  9
$CHAMFERC
 40
0.0
  9
$CHAMFERD
 40
0.0
  9
$SKPOLY
 70
     0
  9
$TDCREATE
 40
2453229.936254896
  9
$TDUCREATE
 40
2453230.102921562
  9
$TDUPDATE
 40
2454936.389555659
  9
$TDUUPDATE
 40
2454936.556222326
  9
$TDINDWG
 40
3.3929126620
  9
$TDUSRTIMER
 40
3.3929126620
  9
$USRTIMER
 70
     1
  9
$ANGBASE
 50
0.0
  9
$ANGDIR
 70
     0
  9
$PDMODE
 70
     0
  9
$PDSIZE
 40
0.0
  9
$PLINEWID
 40
0.0
  9
$SPLFRAME
 70
     0
  9
$SPLINETYPE
 70
     6
  9
$SPLINESEGS
 70
     8
  9
$HANDSEED
  5
80C2
  9
$SURFTAB1
 70
     6
  9
$SURFTAB2
 70
     6
  9
$SURFTYPE
 70
     6
  9
$SURFU
 70
     6
  9
$SURFV
 70
     6
  9
$UCSBASE
  2

  9
$UCSNAME
  2

  9
$UCSORG
 10
1414.43346388044
 20
369.1851960562051
 30
0.0
  9
$UCSXDIR
 10
1.0
 20
0.0
 30
0.0
  9
$UCSYDIR
 10
0.0
 20
1.0
 30
0.0
  9
$UCSORTHOREF
  2

  9
$UCSORTHOVIEW
 70
     0
  9
$UCSORGTOP
 10
0.0
 20
0.0
 30
0.0
  9
$UCSORGBOTTOM
 10
0.0
 20
0.0
 30
0.0
  9
$UCSORGLEFT
 10
0.0
 20
0.0
 30
0.0
  9
$UCSORGRIGHT
 10
0.0
 20
0.0
 30
0.0
  9
$UCSORGFRONT
 10
0.0
 20
0.0
 30
0.0
  9
$UCSORGBACK
 10
0.0
 20
0.0
 30
0.0
  9
$PUCSBASE
  2

  9
$PUCSNAME
  2

  9
$PUCSORG
 10
0.0
 20
0.0
 30
0.0
  9
$PUCSXDIR
 10
1.0
 20
0.0
 30
0.0
  9
$PUCSYDIR
 10
0.0
 20
1.0
 30
0.0
  9
$PUCSORTHOREF
  2

  9
$PUCSORTHOVIEW
 70
     0
  9
$PUCSORGTOP
 10
0.0
 20
0.0
 30
0.0
  9
$PUCSORGBOTTOM
 10
0.0
 20
0.0
 30
0.0
  9
$PUCSORGLEFT
 10
0.0
 20
0.0
 30
0.0
  9
$PUCSORGRIGHT
 10
0.0
 20
0.0
 30
0.0
  9
$PUCSORGFRONT
 10
0.0
 20
0.0
 30
0.0
  9
$PUCSORGBACK
 10
0.0
 20
0.0
 30
0.0
  9
$USERI1
 70
     0
  9
$USERI2
 70
     0
  9
$USERI3
 70
     0
  9
$USERI4
 70
     0
  9
$USERI5
 70
     0
  9
$USERR1
 40
0.0
  9
$USERR2
 40
0.0
  9
$USERR3
 40
0.0
  9
$USERR4
 40
0.0
  9
$USERR5
 40
0.0
  9
$WORLDVIEW
 70
     1
  9
$SHADEDGE
 70
     3
  9
$SHADEDIF
 70
    70
  9
$TILEMODE
 70
     1
  9
$MAXACTVP
 70
    64
  9
$PINSBASE
 10
0.0
 20
0.0
 30
0.0
  9
$PLIMCHECK
 70
     0
  9
$PEXTMIN
 10
0.0
 20
0.0
 30
0.0
  9
$PEXTMAX
 10
0.0
 20
0.0
 30
0.0
  9
$PLIMMIN
 10
0.0
 20
0.0
  9
$PLIMMAX
 10
12.0
 20
9.0
  9
$UNITMODE
 70
     0
  9
$VISRETAIN
 70
     1
  9
$PLINEGEN
 70
     0
  9
$PSLTSCALE
 70
     1
  9
$TREEDEPTH
 70
  3020
  9
$CMLSTYLE
  2
Standard
  9
$CMLJUST
 70
     0
  9
$CMLSCALE
 40
20.0
  9
$PROXYGRAPHICS
 70
     1
  9
$MEASUREMENT
 70
     1
  9
$CELWEIGHT
370
    -1
  9
$ENDCAPS
280
     0
  9
$JOINSTYLE
280
     0
  9
$LWDISPLAY
290
     0
  9
$INSUNITS
 70
     1
  9
$HYPERLINKBASE
  1

  9
$STYLESHEET
  1
monochrome.ctb
  9
$XEDIT
290
     1
  9
$CEPSNTYPE
380
     0
  9
$PSTYLEMODE
290
     1
  9
$FINGERPRINTGUID
  2
{FDEAD578-A652-11D2-9A35-0060089B3A3F}
  9
$VERSIONGUID
  2
{4E2CFCFD-C999-467E-ABD6-4D10D05565AC}
  9
$EXTNAMES
290
     1
  9
$PSVPSCALE
 40
0.0
  9
$OLESTARTUP
290
     0
  0
ENDSEC
  0
SECTION
  2
CLASSES
  0
CLASS
  1
ACDBDICTIONARYWDFLT
  2
AcDbDictionaryWithDefault
  3
AutoCAD 2000
 90
        0
280
     0
281
     0
  0
CLASS
  1
ACDBPLACEHOLDER
  2
AcDbPlaceHolder
  3
AutoCAD 2000
 90
        0
280
     0
281
     0
  0
CLASS
  1
LAYOUT
  2
AcDbLayout
  3
AutoCAD 2000
 90
        0
280
     0
281
     0
  0
CLASS
  1
DICTIONARYVAR
  2
AcDbDictionaryVar
  3
AutoCAD 2000
 90
        0
280
     0
281
     0
  0
CLASS
  1
TABLESTYLE
  2
AcDbTableStyle
  3
ObjectDBX Classes
 90
     2047
280
     0
281
     0
  0
CLASS
  1
SORTENTSTABLE
  2
AcDbSortentsTable
  3
AutoCAD 2000
 90
        0
280
     0
281
     0
  0
CLASS
  1
DIMASSOC
  2
AcDbDimAssoc
  3
"AcDbDimAssoc|Product Desc:     AcDim ARX App For Dimension|Company:          Autodesk, Inc.|WEB Address:      www.autodesk.com"
 90
        0
280
     0
281
     0
  0
ENDSEC
  0
SECTION
  2
TABLES
  0
TABLE
  2
VPORT
  5
8
330
0
100
AcDbSymbolTable
 70
     2
  0
VPORT
  5
80C1
330
8
100
AcDbSymbolTableRecord
100
AcDbViewportTableRecord
  2
*Active
 70
     0
 10
0.0
 20
0.0
 11
1.0
 21
1.0
 12
1728.724961823299
 22
615.0850814726412
 13
0.0
 23
0.0
 14
10.0
 24
10.0
 15
10.0
 25
10.0
 16
0.0
 26
0.0
 36
1.0
 17
0.0
 27
0.0
 37
0.0
 40
16.13954886648345
 41
1.987577639751552
 42
50.0
 43
0.0
 44
0.0
 50
0.0
 51
0.0
 71
     0
 72
  1000
 73
     1
 74
     3
 75
     0
 76
     0
 77
     0
 78
     0
281
     0
 65
     1
110
1414.43346388044
120
369.1851960562051
130
0.0
111
1.0
121
0.0
131
0.0
112
0.0
122
1.0
132
0.0
 79
     0
146
0.0
  0
ENDTAB
  0
TABLE
  2
LTYPE
  5
5
330
0
100
AcDbSymbolTable
 70
     7
  0
LTYPE
  5
14
330
5
100
AcDbSymbolTableRecord
100
AcDbLinetypeTableRecord
  2
ByBlock
 70
     0
  3

 72
    65
 73
     0
 40
0.0
  0
LTYPE
  5
15
330
5
100
AcDbSymbolTableRecord
100
AcDbLinetypeTableRecord
  2
ByLayer
 70
     0
  3

 72
    65
 73
     0
 40
0.0
  0
LTYPE
  5
16
330
5
100
AcDbSymbolTableRecord
100
AcDbLinetypeTableRecord
  2
Continuous
 70
     0
  3
Solid line
 72
    65
 73
     0
 40
0.0
  0
LTYPE
  5
92
330
5
100
AcDbSymbolTableRecord
100
AcDbLinetypeTableRecord
  2
ACAD_ISO04W100
 70
     0
  3
ISO long-dash dot ____ . ____ . ____ . ____ . _
 72
    65
 73
     4
 40
30.0
 49
24.0
 74
     0
 49
-3.0
 74
     0
 49
0.0
 74
     0
 49
-3.0
 74
     0
  0
LTYPE
  5
93
330
5
100
AcDbSymbolTableRecord
100
AcDbLinetypeTableRecord
  2
ACAD_ISO10W100
 70
     0
  3
ISO dash dot __ . __ . __ . __ . __ . __ . __ .
 72
    65
 73
     4
 40
18.0
 49
12.0
 74
     0
 49
-3.0
 74
     0
 49
0.0
 74
     0
 49
-3.0
 74
     0
  0
LTYPE
  5
94
330
5
100
AcDbSymbolTableRecord
100
AcDbLinetypeTableRecord
  2
DASHED2
 70
     0
  3
Dashed (.5x) _ _ _ _ _ _ _ _ _ _ _ _ _ _ _ _ _
 72
    65
 73
     2
 40
9.524999999999998
 49
6.349999999999999
 74
     0
 49
-3.174999999999999
 74
     0
  0
LTYPE
  5
95
330
5
100
AcDbSymbolTableRecord
100
AcDbLinetypeTableRecord
  2
HIDDEN2
 70
     0
  3
Hidden (.5x) _ _ _ _ _ _ _ _ _ _ _ _ _ _ _ _ _
 72
    65
 73
     2
 40
4.762499999999999
 49
3.174999999999999
 74
     0
 49
-1.587499999999999
 74
     0
  0
LTYPE
  5
15E2
330
5
100
AcDbSymbolTableRecord
100
AcDbLinetypeTableRecord
  2
CENTER
 70
     0
  3
Center ____ _ ____ _ ____ _ ____ _ ____ _ ____
 72
    65
 73
     4
 40
2.0
 49
1.25
 74
     0
 49
-0.25
 74
     0
 49
0.25
 74
     0
 49
-0.25
 74
     0
  0
LTYPE
  5
15E3
330
5
100
AcDbSymbolTableRecord
100
AcDbLinetypeTableRecord
  2
HIDDEN
 70
     0
  3
Hidden __ __ __ __ __ __ __ __ __ __ __ __ __ _
 72
    65
 73
     2
 40
0.375
 49
0.25
 74
     0
 49
-0.125
 74
     0
  0
ENDTAB
  0
TABLE
  2
LAYER
  5
2
102
{ACAD_XDICTIONARY
360
26E
102
}
330
0
100
AcDbSymbolTable
 70
    14
  0
LAYER
  5
10
330
2
100
AcDbSymbolTableRecord
100
AcDbLayerTableRecord
  2
0
 70
     0
 62
     7
  6
Continuous
370
    30
390
F
  0
LAYER
  5
81
330
2
100
AcDbSymbolTableRecord
100
AcDbLayerTableRecord
  2
\M+2B5EA\M+2BD75
 70
     0
 62
     7
  6
HIDDEN2
370
    20
390
F
  0
LAYER
  5
82
330
2
100
AcDbSymbolTableRecord
100
AcDbLayerTableRecord
  2
\M+2A4A4\M+2A4DF\M+2BD75
 70
     0
 62
     7
  6
ACAD_ISO04W100
370
    20
390
F
  0
LAYER
  5
83
330
2
100
AcDbSymbolTableRecord
100
AcDbLayerTableRecord
  2
\M+2A4A4\M+2A4DF\M+2BD751
 70
     0
 62
     7
  6
ACAD_ISO10W100
370
    20
390
F
  0
LAYER
  5
84
330
2
100
AcDbSymbolTableRecord
100
AcDbLayerTableRecord
  2
\M+2A4A4\M+2A4DF\M+2BD752
 70
     0
 62
     7
  6
DASHED2
370
    20
390
F
  0
LAYER
  5
85
330
2
100
AcDbSymbolTableRecord
100
AcDbLayerTableRecord
  2
\M+2ADE5\M+2ADB1\M+2BD75
 70
     0
 62
     7
  6
Continuous
370
    20
390
F
  0
LAYER
  5
86
330
2
100
AcDbSymbolTableRecord
100
AcDbLayerTableRecord
  2
\M+2A4E5\M+2A672
 70
     0
 62
     7
  6
Continuous
370
    25
390
F
  0
LAYER
  5
87
330
2
100
AcDbSymbolTableRecord
100
AcDbLayerTableRecord
  2
\M+2BBB2\M+2A755\M+2BD75
 70
     0
 62
     7
  6
Continuous
370
    15
390
F
  0
LAYER
  5
10A
330
2
100
AcDbSymbolTableRecord
100
AcDbLayerTableRecord
  2
PLASTIC
 70
     0
 62
     7
  6
Continuous
370
    -3
390
F
  0
LAYER
  5
2C1
330
2
100
AcDbSymbolTableRecord
100
AcDbLayerTableRecord
  2
Defpoints
 70
     0
 62
     7
  6
Continuous
290
     0
370
    -3
390
F
  0
LAYER
  5
15E4
330
2
100
AcDbSymbolTableRecord
100
AcDbLayerTableRecord
  2
DIM
 70
     0
 62
     1
  6
Continuous
370
    15
390
F
  0
LAYER
  5
6173
330
2
100
AcDbSymbolTableRecord
100
AcDbLayerTableRecord
  2
OBJECT
 70
     0
 62
     7
  6
Continuous
370
    -3
390
F
  0
LAYER
  5
7F5C
330
2
100
AcDbSymbolTableRecord
100
AcDbLayerTableRecord
  2
TEXT
 70
     0
 62
     1
  6
Continuous
370
    -3
390
F
  0
LAYER
  5
7F5D
330
2
100
AcDbSymbolTableRecord
100
AcDbLayerTableRecord
  2
TITLE
 70
     0
 62
     8
  6
Continuous
370
    -3
390
F
  0
ENDTAB
  0
TABLE
  2
STYLE
  5
3
330
0
100
AcDbSymbolTable
 70
     5
  0
STYLE
  5
11
330
3
100
AcDbSymbolTableRecord
100
AcDbTextStyleTableRecord
  2
Standard
 70
     0
 40
0.0
 41
1.0
 50
0.0
 71
     0
 42
2.5
  3

  4

1001
ACAD
1000
DFKai-SB
1071
    34881
  0
STYLE
  5
91
330
3
100
AcDbSymbolTableRecord
100
AcDbTextStyleTableRecord
  2

 70
     1
 40
0.0
 41
1.0
 50
0.0
 71
     0
 42
2.5
  3
ltypeshp.shx
  4

  0
STYLE
  5
10B
330
3
100
AcDbSymbolTableRecord
100
AcDbTextStyleTableRecord
  2
ITALICT
 70
     0
 40
3.0
 41
1.0
 50
0.0
 71
     0
 42
3.0
  3
italict
  4

  0
STYLE
  5
10C
330
3
100
AcDbSymbolTableRecord
100
AcDbTextStyleTableRecord
  2
ROMANS
 70
     0
 40
0.0
 41
1.0
 50
0.0
 71
     0
 42
5.0
  3

  4

1001
ACAD
1000
DFKai-SB
1071
    34881
  0
STYLE
  5
6174
330
3
100
AcDbSymbolTableRecord
100
AcDbTextStyleTableRecord
  2
TXT
 70
     0
 40
0.0
 41
0.75
 50
0.0
 71
     0
 42
0.3125
  3
txt
  4

  0
ENDTAB
  0
TABLE
  2
VIEW
  5
6
330
0
100
AcDbSymbolTable
 70
     0
  0
ENDTAB
  0
TABLE
  2
UCS
  5
7
330
0
100
AcDbSymbolTable
 70
     0
  0
ENDTAB
  0
TABLE
  2
APPID
  5
9
330
0
100
AcDbSymbolTable
 70
     5
  0
APPID
  5
12
330
9
100
AcDbSymbolTableRecord
100
AcDbRegAppTableRecord
  2
ACAD
 70
     0
  0
APPID
  5
8A
330
9
100
AcDbSymbolTableRecord
100
AcDbRegAppTableRecord
  2
DCO15
 70
     0
  0
APPID
  5
8C
330
9
100
AcDbSymbolTableRecord
100
AcDbRegAppTableRecord
  2
ADE
 70
     0
  0
APPID
  5
740
330
9
100
AcDbSymbolTableRecord
100
AcDbRegAppTableRecord
  2
ACAD_DSTYLE_DIMTEXT_FILL
 70
     0
  0
APPID
  5
6175
330
9
100
AcDbSymbolTableRecord
100
AcDbRegAppTableRecord
  2
ACAD_EXEMPT_FROM_CAD_STANDARDS
 70
     0
  0
ENDTAB
  0
TABLE
  2
DIMSTYLE
  5
A
330
0
100
AcDbSymbolTable
 70
     4
100
AcDbDimStyleTable
 71
     2
340
296
340
27
  0
DIMSTYLE
105
27
102
{ACAD_REACTORS
330
6F4E
102
}
330
A
100
AcDbSymbolTableRecord
100
AcDbDimStyleTableRecord
  2
ISO-25
 70
     0
 41
2.5
 42
0.625
 43
3.75
 44
1.25
 73
     0
 74
     0
 77
     1
 78
     8
140
1.8
141
2.5
143
0.03937007874016
147
0.625
171
     3
172
     1
176
     1
177
     1
178
     1
271
     2
272
     2
274
     3
278
    44
283
     0
284
     8
340
11
  0
DIMSTYLE
105
296
102
{ACAD_REACTORS
330
7111
330
4737
330
6F51
330
471F
330
4703
330
5E04
330
5E3C
330
5E20
330
47D3
330
47EB
330
46E7
330
47C3
330
79C1
330
79CD
330
72EE
330
474F
330
6FE9
330
4C3C
330
4860
330
715C
330
483F
330
6FD3
330
46D7
330
725E
330
4687
330
7B26
330
4B3B
330
4B53
330
4AED
330
71D7
330
7274
330
70ED
330
4A76
330
4A5E
330
4974
330
4ABA
330
4AD2
330
7C37
330
7C43
330
7CA5
330
7146
330
7207
102
}
330
A
100
AcDbSymbolTableRecord
100
AcDbDimStyleTableRecord
  2
Standard
 70
     0
140
0.125
170
     1
271
     3
272
     3
340
11
  0
DIMSTYLE
105
7F5E
330
A
100
AcDbSymbolTableRecord
100
AcDbDimStyleTableRecord
  2
23NSTD
 70
     0
 42
0.063
 43
0.281
 44
0.093
140
0.125
171
     0
271
     3
272
     3
274
     0
289
     1
340
6174
  0
DIMSTYLE
105
7F5F
330
A
100
AcDbSymbolTableRecord
100
AcDbDimStyleTableRecord
  2
23NSTDI
 70
     0
 42
0.063
 43
0.281
 44
0.093
140
0.125
171
     0
174
     1
271
     3
272
     3
274
     0
289
     1
340
6174
  0
ENDTAB
  0
TABLE
  2
BLOCK_RECORD
  5
1
330
0
100
AcDbSymbolTable
 70
    47
  0
BLOCK_RECORD
  5
1F
102
{ACAD_XDICTIONARY
360
1F3
102
}
330
1
100
AcDbSymbolTableRecord
100
AcDbBlockTableRecord
  2
*Model_Space
340
22
  0
BLOCK_RECORD
  5
50
330
1
100
AcDbSymbolTableRecord
100
AcDbBlockTableRecord
  2
*Paper_Space
340
51
  0
BLOCK_RECORD
  5
55
330
1
100
AcDbSymbolTableRecord
100
AcDbBlockTableRecord
  2
*Paper_Space0
340
56
  0
BLOCK_RECORD
  5
9E
330
1
100
AcDbSymbolTableRecord
100
AcDbBlockTableRecord
  2
\M+2B9CF\M+2AED8
340
0
  0
BLOCK_RECORD
  5
10D
102
{ACAD_XDICTIONARY
360
25F
102
}
330
1
100
AcDbSymbolTableRecord
100
AcDbBlockTableRecord
  2
A0
340
0
1001
ACAD
1000
DesignCenter Data
1002
{
1070
     1
1070
     4
1002
}
  0
BLOCK_RECORD
  5
4688
330
1
100
AcDbSymbolTableRecord
100
AcDbBlockTableRecord
  2
*D3
340
0
  0
BLOCK_RECORD
  5
46D8
330
1
100
AcDbSymbolTableRecord
100
AcDbBlockTableRecord
  2
*D4
340
0
  0
BLOCK_RECORD
  5
46E8
330
1
100
AcDbSymbolTableRecord
100
AcDbBlockTableRecord
  2
*D5
340
0
  0
BLOCK_RECORD
  5
4704
330
1
100
AcDbSymbolTableRecord
100
AcDbBlockTableRecord
  2
*D6
340
0
  0
BLOCK_RECORD
  5
4720
330
1
100
AcDbSymbolTableRecord
100
AcDbBlockTableRecord
  2
*D7
340
0
  0
BLOCK_RECORD
  5
4738
330
1
100
AcDbSymbolTableRecord
100
AcDbBlockTableRecord
  2
*D8
340
0
  0
BLOCK_RECORD
  5
4750
330
1
100
AcDbSymbolTableRecord
100
AcDbBlockTableRecord
  2
*D9
340
0
  0
BLOCK_RECORD
  5
47C4
330
1
100
AcDbSymbolTableRecord
100
AcDbBlockTableRecord
  2
*D10
340
0
  0
BLOCK_RECORD
  5
47D4
330
1
100
AcDbSymbolTableRecord
100
AcDbBlockTableRecord
  2
*D11
340
0
  0
BLOCK_RECORD
  5
47EC
330
1
100
AcDbSymbolTableRecord
100
AcDbBlockTableRecord
  2
*D12
340
0
  0
BLOCK_RECORD
  5
4840
330
1
100
AcDbSymbolTableRecord
100
AcDbBlockTableRecord
  2
*D13
340
0
  0
BLOCK_RECORD
  5
4861
330
1
100
AcDbSymbolTableRecord
100
AcDbBlockTableRecord
  2
*D14
340
0
  0
BLOCK_RECORD
  5
4975
330
1
100
AcDbSymbolTableRecord
100
AcDbBlockTableRecord
  2
*D15
340
0
  0
BLOCK_RECORD
  5
4A5F
330
1
100
AcDbSymbolTableRecord
100
AcDbBlockTableRecord
  2
*D16
340
0
  0
BLOCK_RECORD
  5
4A77
330
1
100
AcDbSymbolTableRecord
100
AcDbBlockTableRecord
  2
*D17
340
0
  0
BLOCK_RECORD
  5
4ABB
330
1
100
AcDbSymbolTableRecord
100
AcDbBlockTableRecord
  2
*D18
340
0
  0
BLOCK_RECORD
  5
4AD3
330
1
100
AcDbSymbolTableRecord
100
AcDbBlockTableRecord
  2
*D19
340
0
  0
BLOCK_RECORD
  5
4AEE
330
1
100
AcDbSymbolTableRecord
100
AcDbBlockTableRecord
  2
*D20
340
0
  0
BLOCK_RECORD
  5
4B3C
330
1
100
AcDbSymbolTableRecord
100
AcDbBlockTableRecord
  2
*D21
340
0
  0
BLOCK_RECORD
  5
4B54
330
1
100
AcDbSymbolTableRecord
100
AcDbBlockTableRecord
  2
*D22
340
0
  0
BLOCK_RECORD
  5
4C3D
330
1
100
AcDbSymbolTableRecord
100
AcDbBlockTableRecord
  2
*D23
340
0
  0
BLOCK_RECORD
  5
5E05
330
1
100
AcDbSymbolTableRecord
100
AcDbBlockTableRecord
  2
*D24
340
0
  0
BLOCK_RECORD
  5
5E21
330
1
100
AcDbSymbolTableRecord
100
AcDbBlockTableRecord
  2
*D25
340
0
  0
BLOCK_RECORD
  5
5E3D
330
1
100
AcDbSymbolTableRecord
100
AcDbBlockTableRecord
  2
*D26
340
0
  0
BLOCK_RECORD
  5
615B
330
1
100
AcDbSymbolTableRecord
100
AcDbBlockTableRecord
  2
A$C68FB25C3
340
0
  0
BLOCK_RECORD
  5
6F52
330
1
100
AcDbSymbolTableRecord
100
AcDbBlockTableRecord
  2
*D28
340
0
  0
BLOCK_RECORD
  5
6FD4
330
1
100
AcDbSymbolTableRecord
100
AcDbBlockTableRecord
  2
*D29
340
0
  0
BLOCK_RECORD
  5
6FEA
330
1
100
AcDbSymbolTableRecord
100
AcDbBlockTableRecord
  2
*D30
340
0
  0
BLOCK_RECORD
  5
70EE
330
1
100
AcDbSymbolTableRecord
100
AcDbBlockTableRecord
  2
*D31
340
0
  0
BLOCK_RECORD
  5
7112
330
1
100
AcDbSymbolTableRecord
100
AcDbBlockTableRecord
  2
*D32
340
0
  0
BLOCK_RECORD
  5
7147
330
1
100
AcDbSymbolTableRecord
100
AcDbBlockTableRecord
  2
*D33
340
0
  0
BLOCK_RECORD
  5
715D
330
1
100
AcDbSymbolTableRecord
100
AcDbBlockTableRecord
  2
*D34
340
0
  0
BLOCK_RECORD
  5
71D8
330
1
100
AcDbSymbolTableRecord
100
AcDbBlockTableRecord
  2
*D35
340
0
  0
BLOCK_RECORD
  5
7208
330
1
100
AcDbSymbolTableRecord
100
AcDbBlockTableRecord
  2
*D36
340
0
  0
BLOCK_RECORD
  5
725F
330
1
100
AcDbSymbolTableRecord
100
AcDbBlockTableRecord
  2
*D37
340
0
  0
BLOCK_RECORD
  5
7275
330
1
100
AcDbSymbolTableRecord
100
AcDbBlockTableRecord
  2
*D38
340
0
  0
BLOCK_RECORD
  5
72EF
330
1
100
AcDbSymbolTableRecord
100
AcDbBlockTableRecord
  2
*D39
340
0
  0
BLOCK_RECORD
  5
79C2
330
1
100
AcDbSymbolTableRecord
100
AcDbBlockTableRecord
  2
*D40
340
0
  0
BLOCK_RECORD
  5
79CE
330
1
100
AcDbSymbolTableRecord
100
AcDbBlockTableRecord
  2
*D41
340
0
  0
BLOCK_RECORD
  5
7B27
330
1
100
AcDbSymbolTableRecord
100
AcDbBlockTableRecord
  2
*D42
340
0
  0
BLOCK_RECORD
  5
7C38
330
1
100
AcDbSymbolTableRecord
100
AcDbBlockTableRecord
  2
*D43
340
0
  0
BLOCK_RECORD
  5
7C44
330
1
100
AcDbSymbolTableRecord
100
AcDbBlockTableRecord
  2
*D44
340
0
  0
BLOCK_RECORD
  5
7CA6
330
1
100
AcDbSymbolTableRecord
100
AcDbBlockTableRecord
  2
*D45
340
0
  0
BLOCK_RECORD
  5
7F60
330
1
100
AcDbSymbolTableRecord
100
AcDbBlockTableRecord
  2
C
340
0
102
{BLKREFS
331
7FC4
102
}
  0
ENDTAB
  0
ENDSEC
  0
SECTION
  2
BLOCKS
  0
BLOCK
  5
20
330
1F
100
AcDbEntity
  8
0
100
AcDbBlockBegin
  2
*Model_Space
 70
     0
 10
0.0
 20
0.0
 30
0.0
  3
*Model_Space
  1

  0
ENDBLK
  5
21
330
1F
100
AcDbEntity
  8
0
100
AcDbBlockEnd
  0
BLOCK
  5
52
330
50
100
AcDbEntity
 67
     1
  8
0
100
AcDbBlockBegin
  2
*Paper_Space
 70
     0
 10
0.0
 20
0.0
 30
0.0
  3
*Paper_Space
  1

  0
ENDBLK
  5
53
330
50
100
AcDbEntity
 67
     1
  8
0
100
AcDbBlockEnd
  0
BLOCK
  5
57
330
55
100
AcDbEntity
  8
0
100
AcDbBlockBegin
  2
*Paper_Space0
 70
     0
 10
0.0
 20
0.0
 30
0.0
  3
*Paper_Space0
  1

  0
ENDBLK
  5
58
330
55
100
AcDbEntity
  8
0
100
AcDbBlockEnd
  0
BLOCK
  5
9F
330
9E
100
AcDbEntity
  8
0
100
AcDbBlockBegin
  2
\M+2B9CF\M+2AED8
 70
     0
 10
0.0
 20
0.0
 30
0.0
  3
\M+2B9CF\M+2AED8
  1

  0
LINE
  5
A0
330
9E
100
AcDbEntity
  8
0
100
AcDbLine
 10
337.3667199999999
 20
45.80394999999993
 30
0.0
 11
5.0
 21
45.80394999999998
 31
0.0
  0
TEXT
  5
A1
330
9E
100
AcDbEntity
  8
0
 62
     1
100
AcDbText
 10
262.7516470860521
 20
14.54093326914275
 30
0.0
 40
2.967559999999999
  1
50~180
  7
ITALICT
100
AcDbText
  0
TEXT
  5
A2
330
9E
100
AcDbEntity
  8
0
 62
     1
100
AcDbText
 10
229.5197482017944
 20
40.52383010199323
 30
0.0
 40
2.967559999999999
  1
TOLERANCE GRADE(%%P)
  7
ITALICT
100
AcDbText
  0
LINE
  5
A3
330
9E
100
AcDbEntity
  8
0
100
AcDbLine
 10
337.3667199999999
 20
39.12694
 30
0.0
 11
5.0
 21
39.12694
 31
0.0
  0
LINE
  5
A4
330
9E
100
AcDbEntity
  8
0
100
AcDbLine
 10
337.3667199999999
 20
32.44993000000001
 30
0.0
 11
5.0
 21
32.44993
 31
0.0
  0
LINE
  5
A5
330
9E
100
AcDbEntity
  8
0
100
AcDbLine
 10
337.3667199999999
 20
25.77291999999999
 30
0.0
 11
5.0
 21
25.77291999999999
 31
0.0
  0
LINE
  5
A6
330
9E
100
AcDbEntity
  8
0
100
AcDbLine
 10
337.3667199999999
 20
19.09591
 30
0.0
 11
5.0
 21
19.09590999999999
 31
0.0
  0
LINE
  5
A7
330
9E
100
AcDbEntity
  8
0
100
AcDbLine
 10
337.3667199999999
 20
12.41890000000001
 30
0.0
 11
5.0
 21
12.4189
 31
0.0
  0
LWPOLYLINE
  5
A8
330
9E
100
AcDbEntity
  8
0
100
AcDbPolyline
 90
        5
 70
     0
 43
0.593512
 10
5.0
 20
358.13964
 10
5.0
 20
4.999999999999991
 10
553.9985999999998
 20
4.999999999999991
 10
553.9985999999998
 20
358.13964
 10
5.0
 20
358.13964
  0
LINE
  5
A9
330
9E
100
AcDbEntity
  8
0
100
AcDbLine
 10
13.63408757863196
 20
4.999999999999981
 30
0.0
 11
13.63408757863196
 21
45.80394999999998
 31
0.0
  0
TEXT
  5
AA
330
9E
100
AcDbEntity
  8
0
 62
     1
100
AcDbText
 10
8.277343556919419
 20
6.992603417437853
 30
0.0
 40
2.967559999999999
  1
6
  7
ITALICT
100
AcDbText
  0
TEXT
  5
AB
330
9E
100
AcDbEntity
  8
0
 62
     1
100
AcDbText
 10
8.277343556919419
 20
14.54093326914279
 30
0.0
 40
2.967559999999999
  1
5
  7
ITALICT
100
AcDbText
  0
TEXT
  5
AC
330
9E
100
AcDbEntity
  8
0
 62
     1
100
AcDbText
 10
8.277343556919419
 20
20.52142946409116
 30
0.0
 40
2.967559999999999
  1
4
  7
ITALICT
100
AcDbText
  0
TEXT
  5
AD
330
9E
100
AcDbEntity
  8
0
 62
     1
100
AcDbText
 10
8.277343556919419
 20
27.67780090160697
 30
0.0
 40
2.967559999999999
  1
3
  7
ITALICT
100
AcDbText
  0
TEXT
  5
AE
330
9E
100
AcDbEntity
  8
0
 62
     1
100
AcDbText
 10
8.277343556919419
 20
34.15137549285574
 30
0.0
 40
2.967559999999999
  1
2
  7
ITALICT
100
AcDbText
  0
TEXT
  5
AF
330
9E
100
AcDbEntity
  8
0
 62
     1
100
AcDbText
 10
8.277343556919419
 20
40.52383010199327
 30
0.0
 40
2.967559999999999
  1
1
  7
ITALICT
100
AcDbText
  0
LINE
  5
B0
330
9E
100
AcDbEntity
  8
0
100
AcDbLine
 10
124.9175875786319
 20
4.999999999999981
 30
0.0
 11
124.9175875786319
 21
45.80394999999998
 31
0.0
  0
LINE
  5
B1
330
9E
100
AcDbEntity
  8
0
100
AcDbLine
 10
132.3364875786319
 20
4.999999999999981
 30
0.0
 11
132.3364875786319
 21
45.80394999999998
 31
0.0
  0
TEXT
  5
B2
330
9E
100
AcDbEntity
  8
0
 62
     1
100
AcDbText
 10
125.3942470437855
 20
6.777841938959531
 30
0.0
 40
2.967559999999999
  1
12
  7
ITALICT
100
AcDbText
  0
TEXT
  5
B3
330
9E
100
AcDbEntity
  8
0
 62
     1
100
AcDbText
 10
125.5948442504748
 20
13.93421337647533
 30
0.0
 40
2.967559999999999
  1
11
  7
ITALICT
100
AcDbText
  0
TEXT
  5
B4
330
9E
100
AcDbEntity
  8
0
 62
     1
100
AcDbText
 10
125.3900738065248
 20
19.91470957142371
 30
0.0
 40
2.967559999999999
  1
10
  7
ITALICT
100
AcDbText
  0
TEXT
  5
B5
330
9E
100
AcDbEntity
  8
0
 62
     1
100
AcDbText
 10
126.6061767584429
 20
27.46303942312865
 30
0.0
 40
2.967559999999999
  1
9
  7
ITALICT
100
AcDbText
  0
TEXT
  5
B6
330
9E
100
AcDbEntity
  8
0
 62
     1
100
AcDbText
 10
126.6061767584429
 20
33.83549403226617
 30
0.0
 40
2.967559999999999
  1
8
  7
ITALICT
100
AcDbText
  0
TEXT
  5
B7
330
9E
100
AcDbEntity
  8
0
 62
     1
100
AcDbText
 10
126.6061767584429
 20
40.59990705559284
 30
0.0
 40
2.967559999999999
  1
7
  7
ITALICT
100
AcDbText
  0
LINE
  5
B8
330
9E
100
AcDbEntity
  8
0
100
AcDbLine
 10
228.6199875786319
 20
4.999999999999982
 30
0.0
 11
228.6199875786319
 21
45.80394999999998
 31
0.0
  0
TEXT
  5
B9
330
9E
100
AcDbEntity
  8
0
 62
     1
100
AcDbText
 10
259.7833146396574
 20
6.992603417437811
 30
0.0
 40
2.967559999999999
  1
180~
  7
ITALICT
100
AcDbText
  0
TEXT
  5
BA
330
9E
100
AcDbEntity
  8
0
 62
     1
100
AcDbText
 10
262.6668357048004
 20
20.52142946409112
 30
0.0
 40
2.967559999999999
  1
18~50
  7
ITALICT
100
AcDbText
  0
TEXT
  5
BB
330
9E
100
AcDbEntity
  8
0
 62
     1
100
AcDbText
 10
265.6351681511951
 20
27.67780090160693
 30
0.0
 40
2.967559999999999
  1
6~18
  7
ITALICT
100
AcDbText
  0
TEXT
  5
BC
330
9E
100
AcDbEntity
  8
0
 62
     1
100
AcDbText
 10
268.5186892163375
 20
34.1513754928557
 30
0.0
 40
2.967559999999999
  1
~6
  7
ITALICT
100
AcDbText
  0
LINE
  5
BD
330
9E
100
AcDbEntity
  8
0
100
AcDbLine
 10
553.9985999999998
 20
45.80394999999992
 30
0.0
 11
337.3667199999999
 21
45.80394999999996
 31
0.0
  0
LINE
  5
BE
330
9E
100
AcDbEntity
  8
0
100
AcDbLine
 10
337.3667199999999
 20
31.70803999999999
 30
0.0
 11
459.0366799999999
 21
31.70803999999999
 31
0.0
  0
LINE
  5
BF
330
9E
100
AcDbEntity
  8
0
100
AcDbLine
 10
337.3667199999999
 20
18.35401999999999
 30
0.0
 11
459.0366799999999
 21
18.35401999999999
 31
0.0
  0
TEXT
  5
C0
330
9E
100
AcDbEntity
  8
0
 62
     1
100
AcDbText
 10
359.9521240721246
 20
35.02273635994098
 30
0.0
 40
2.967559999999999
  1
MM
  7
ITALICT
100
AcDbText
  0
LINE
  5
C1
330
9E
100
AcDbEntity
  8
0
100
AcDbLine
 10
337.3667199999999
 20
45.80394999999998
 30
0.0
 11
337.3667199999999
 21
4.999999999999996
 31
0.0
  0
LINE
  5
C2
330
9E
100
AcDbEntity
  8
0
100
AcDbLine
 10
319.5613599999999
 20
45.80394999999994
 30
0.0
 11
319.5613599999999
 21
4.999999999999949
 31
0.0
  0
LINE
  5
C3
330
9E
100
AcDbEntity
  8
0
100
AcDbLine
 10
301.7559999999999
 20
45.80394999999994
 30
0.0
 11
301.7559999999999
 21
4.999999999999949
 31
0.0
  0
TEXT
  5
C4
330
9E
100
AcDbEntity
  8
0
 62
     1
100
AcDbText
 10
305.5240172452581
 20
6.992603417437843
 30
0.0
 40
2.967559999999999
  1
0.3
  7
ITALICT
100
AcDbText
  0
TEXT
  5
C5
330
9E
100
AcDbEntity
  8
0
 62
     1
100
AcDbText
 10
323.6162989126314
 20
6.992603417437843
 30
0.0
 40
2.967559999999999
  1
0.5
  7
ITALICT
100
AcDbText
  0
TEXT
  5
C6
330
9E
100
AcDbEntity
  8
0
 62
     1
100
AcDbText
 10
305.5240172452581
 20
14.54093326914278
 30
0.0
 40
2.967559999999999
  1
0.2
  7
ITALICT
100
AcDbText
  0
TEXT
  5
C7
330
9E
100
AcDbEntity
  8
0
 62
     1
100
AcDbText
 10
305.5240172452581
 20
20.52142946409115
 30
0.0
 40
2.967559999999999
  1
0.1
  7
ITALICT
100
AcDbText
  0
TEXT
  5
C8
330
9E
100
AcDbEntity
  8
0
 62
     1
100
AcDbText
 10
305.5240172452581
 20
34.15137549285573
 30
0.0
 40
2.967559999999999
  1
0.05
  7
ITALICT
100
AcDbText
  0
TEXT
  5
C9
330
9E
100
AcDbEntity
  8
0
 62
     1
100
AcDbText
 10
305.5240172452581
 20
27.67780090160696
 30
0.0
 40
2.967559999999999
  1
0.08
  7
ITALICT
100
AcDbText
  0
TEXT
  5
CA
330
9E
100
AcDbEntity
  8
0
 62
     1
100
AcDbText
 10
309.7886669075029
 20
40.52383010199325
 30
0.0
 40
2.967559999999999
  1
A
  7
ITALICT
100
AcDbText
  0
TEXT
  5
CB
330
9E
100
AcDbEntity
  8
0
 62
     1
100
AcDbText
 10
338.8504999999999
 20
27.25669999999999
 30
0.0
 40
2.967559999999999
  1
IE NO.
  7
ITALICT
100
AcDbText
  0
TEXT
  5
CC
330
9E
100
AcDbEntity
  8
0
 62
     1
100
AcDbText
 10
323.6162989126314
 20
14.54093326914278
 30
0.0
 40
2.967559999999999
  1
0.4
  7
ITALICT
100
AcDbText
  0
TEXT
  5
CD
330
9E
100
AcDbEntity
  8
0
 62
     1
100
AcDbText
 10
323.6162989126314
 20
20.52142946409115
 30
0.0
 40
2.967559999999999
  1
0.25
  7
ITALICT
100
AcDbText
  0
TEXT
  5
CE
330
9E
100
AcDbEntity
  8
0
 62
     1
100
AcDbText
 10
323.6162989126314
 20
27.67780090160696
 30
0.0
 40
2.967559999999999
  1
0.18
  7
ITALICT
100
AcDbText
  0
TEXT
  5
CF
330
9E
100
AcDbEntity
  8
0
 62
     1
100
AcDbText
 10
323.6162989126314
 20
34.15137549285573
 30
0.0
 40
2.967559999999999
  1
0.1
  7
ITALICT
100
AcDbText
  0
TEXT
  5
D0
330
9E
100
AcDbEntity
  8
0
 62
     1
100
AcDbText
 10
338.8504999999999
 20
40.61071999999999
 30
0.0
 40
2.967559999999999
  1
DIM.
  7
ITALICT
100
AcDbText
  0
TEXT
  5
D1
330
9E
100
AcDbEntity
  8
0
 62
     1
100
AcDbText
 10
326.9061715092203
 20
40.52383010199325
 30
0.0
 40
2.967559999999999
  1
B
  7
ITALICT
100
AcDbText
  0
LINE
  5
D2
330
9E
100
AcDbEntity
  8
0
100
AcDbLine
 10
429.3610799999999
 20
45.80394999999998
 30
0.0
 11
429.3610799999999
 21
5.000000000000001
 31
0.0
  0
LINE
  5
D3
330
9E
100
AcDbEntity
  8
0
100
AcDbLine
 10
383.3638999999999
 20
45.80394999999998
 30
0.0
 11
383.3638999999999
 21
4.999999999999991
 31
0.0
  0
TEXT
  5
D4
330
9E
100
AcDbEntity
  8
0
 62
     1
100
AcDbText
 10
384.8476799999999
 20
27.25669999999999
 30
0.0
 40
2.967559999999999
  1
CHK.
  7
ITALICT
100
AcDbText
  0
TEXT
  5
D5
330
9E
100
AcDbEntity
  8
0
 62
     1
100
AcDbText
 10
384.8476799999999
 20
13.16078999999999
 30
0.0
 40
2.967559999999999
  1
APPD.
  7
ITALICT
100
AcDbText
  0
TEXT
  5
D6
330
9E
100
AcDbEntity
  8
0
 62
     1
100
AcDbText
 10
384.8476799999999
 20
40.61071999999998
 30
0.0
 40
2.967559999999999
  1
DWN.
  7
ITALICT
100
AcDbText
  0
TEXT
  5
D7
330
9E
100
AcDbEntity
  8
0
 62
     1
100
AcDbText
 10
430.84486
 20
27.25669999999999
 30
0.0
 40
2.967559999999999
  1
DATE
  7
ITALICT
100
AcDbText
  0
TEXT
  5
D8
330
9E
100
AcDbEntity
  8
0
 62
     1
100
AcDbText
 10
430.84486
 20
13.16078999999999
 30
0.0
 40
2.967559999999999
  1
DATE
  7
ITALICT
100
AcDbText
  0
TEXT
  5
D9
330
9E
100
AcDbEntity
  8
0
 62
     1
100
AcDbText
 10
430.84486
 20
40.61071999999998
 30
0.0
 40
2.967559999999999
  1
DATE
  7
ITALICT
100
AcDbText
  0
LINE
  5
DA
330
9E
100
AcDbEntity
  8
0
100
AcDbLine
 10
459.0366799999999
 20
17.61212999999998
 30
0.0
 11
553.9985999999998
 21
17.61212999999998
 31
0.0
  0
LINE
  5
DB
330
9E
100
AcDbEntity
  8
0
100
AcDbLine
 10
553.9985999999998
 20
63.60930999999999
 30
0.0
 11
459.0366799999999
 21
63.60930999999999
 31
0.0
  0
TEXT
  5
DC
330
9E
100
AcDbEntity
  8
0
 62
     1
100
AcDbText
 10
532.4032585078564
 20
6.560559479086327
 30
0.0
 40
3.709449999999999
  1
1
  7
ROMANS
100
AcDbText
  0
LINE
  5
DD
330
9E
100
AcDbEntity
  8
0
100
AcDbLine
 10
506.5176399999999
 20
17.61212999999998
 30
0.0
 11
506.5176399999999
 21
4.999999999999991
 31
0.0
  0
LINE
  5
DE
330
9E
100
AcDbEntity
  8
0
100
AcDbLine
 10
459.0366799999999
 20
63.60930999999999
 30
0.0
 11
459.0366799999999
 21
4.999999999999991
 31
0.0
  0
TEXT
  5
DF
330
9E
100
AcDbEntity
  8
0
 62
     1
100
AcDbText
 10
508.0014199999999
 20
12.87933999999999
 30
0.0
 40
2.967559999999999
  1
SHEET            
  7
ITALICT
100
AcDbText
  0
TEXT
  5
E0
330
9E
100
AcDbEntity
  8
0
 62
     1
100
AcDbText
 10
460.5204599999999
 20
39.86882999999998
 30
0.0
 40
3.0
  1
TITLE
  7
ITALICT
100
AcDbText
  0
TEXT
  5
E1
330
9E
100
AcDbEntity
  8
0
 62
     1
100
AcDbText
 10
460.5204599999999
 20
13.16078999999999
 30
0.0
 40
2.967559999999999
  1
DWG. NO.
  7
ITALICT
100
AcDbText
  0
TEXT
  5
E2
330
9E
100
AcDbEntity
  8
0
 62
     1
100
AcDbText
 10
548.8100811484279
 20
6.560559479086327
 30
0.0
 40
3.709449999999999
  1
1
  7
ROMANS
100
AcDbText
  0
LWPOLYLINE
  5
E3
330
9E
100
AcDbEntity
  8
0
 62
     7
100
AcDbPolyline
 90
        4
 70
     1
 43
0.0
 10
547.1695374572801
 20
24.14076199999998
 10
547.1695374572801
 20
17.61212999999998
 10
553.6981694572801
 20
17.61212999999998
 10
553.6981694572801
 20
24.14076199999998
  0
LINE
  5
E4
330
9E
100
AcDbEntity
  8
0
100
AcDbLine
 10
553.4902238570027
 20
351.4626299999999
 30
0.0
 11
380.8230838570027
 21
351.4626299999999
 31
0.0
  0
LINE
  5
E5
330
9E
100
AcDbEntity
  8
0
100
AcDbLine
 10
553.4902238570027
 20
344.7856199999999
 30
0.0
 11
380.8230838570027
 21
344.7856199999999
 31
0.0
  0
TEXT
  5
E6
330
9E
100
AcDbEntity
  8
0
 62
     1
100
AcDbText
 10
382.729096880479
 20
352.2045199999999
 30
0.0
 40
2.967559999999999
  1
REV
  7
ITALICT
 72
     1
 11
387.6043740233361
 21
352.2045199999999
 31
0.0
100
AcDbText
  0
TEXT
  5
E7
330
9E
100
AcDbEntity
  8
0
 62
     1
100
AcDbText
 10
411.0494929046218
 20
352.7975199999999
 30
0.0
 40
2.967559999999999
  1
REVISION RECORD
  7
ITALICT
 72
     1
 11
433.6594738570027
 21
352.7975199999999
 31
0.0
100
AcDbText
  0
LINE
  5
E8
330
9E
100
AcDbEntity
  8
0
100
AcDbLine
 10
409.1771038570027
 20
358.13964
 30
0.0
 11
409.1771038570027
 21
344.7856199999999
 31
0.0
  0
LINE
  5
E9
330
9E
100
AcDbEntity
  8
0
100
AcDbLine
 10
380.8230838570027
 20
358.13964
 30
0.0
 11
380.8230838570027
 21
344.7856199999999
 31
0.0
  0
TEXT
  5
EA
330
9E
100
AcDbEntity
  8
0
 62
     1
100
AcDbText
 10
514.4296419522409
 20
353.03352
 30
0.0
 40
2.967559999999999
  1
NAME
  7
ITALICT
 72
     1
 11
521.0713238570027
 21
353.03352
 31
0.0
100
AcDbText
  0
TEXT
  5
EB
330
9E
100
AcDbEntity
  8
0
 62
     1
100
AcDbText
 10
485.1570914760503
 20
353.05352
 30
0.0
 40
2.967559999999999
  1
DATE
  7
ITALICT
 72
     1
 11
491.2335238570027
 21
353.05352
 31
0.0
100
AcDbText
  0
LINE
  5
EC
330
9E
100
AcDbEntity
  8
0
100
AcDbLine
 10
513.6524238570027
 20
358.13964
 30
0.0
 11
513.6524238570029
 21
344.7856199999999
 31
0.0
  0
LINE
  5
ED
330
9E
100
AcDbEntity
  8
0
100
AcDbLine
 10
483.8146238570027
 20
358.13964
 30
0.0
 11
483.8146238570027
 21
344.7856199999999
 31
0.0
  0
TEXT
  5
EE
330
9E
100
AcDbEntity
  8
PLASTIC
 62
     1
100
AcDbText
 10
460.562
 20
51.04600000000001
 30
0.0
 40
8.0
  1
ShingTek 
  7
ROMANS
100
AcDbText
  0
TEXT
  5
EF
330
9E
100
AcDbEntity
  8
PLASTIC
 62
     1
100
AcDbText
 10
476.559
 20
39.694
 30
0.0
 40
3.5
  1
/\M+2ABAC\M+2B8B9
  7
ROMANS
100
AcDbText
  0
TEXT
  5
F0
330
9E
100
AcDbEntity
  8
PLASTIC
 62
     1
100
AcDbText
 10
484.3449999999999
 20
13.14799999999999
 30
0.0
 40
3.5
  1
/\M+2B9CF\M+2B8B9
  7
ROMANS
100
AcDbText
  0
TEXT
  5
F1
330
9E
100
AcDbEntity
  8
PLASTIC
 62
     1
100
AcDbText
 10
526.086
 20
12.64999999999999
 30
0.0
 40
3.5
  1
/\M+2ADB6\M+2BCC6
  7
ROMANS
100
AcDbText
  0
TEXT
  5
F2
330
9E
100
AcDbEntity
  8
PLASTIC
 62
     1
100
AcDbText
 10
397.3109999999999
 20
40.46899999999999
 30
0.0
 40
3.5
  1
/\M+2C3B8\M+2B9CF
  7
ROMANS
100
AcDbText
  0
TEXT
  5
F3
330
9E
100
AcDbEntity
  8
PLASTIC
 62
     1
100
AcDbText
 10
397.431
 20
27.38099999999999
 30
0.0
 40
3.5
  1
/\M+2BC66\M+2AC64
  7
ROMANS
100
AcDbText
  0
TEXT
  5
F4
330
9E
100
AcDbEntity
  8
PLASTIC
 62
     1
100
AcDbText
 10
399.3069999999999
 20
13.52999999999999
 30
0.0
 40
3.5
  1
/\M+2AED6\M+2ADE3
  7
ROMANS
100
AcDbText
  0
TEXT
  5
F5
330
9E
100
AcDbEntity
  8
PLASTIC
 62
     1
100
AcDbText
 10
444.623
 20
40.42699999999999
 30
0.0
 40
3.5
  1
/\M+2A4E9\M+2B4C1
  7
ROMANS
100
AcDbText
  0
TEXT
  5
F6
330
9E
100
AcDbEntity
  8
PLASTIC
 62
     1
100
AcDbText
 10
349.509
 20
40.503
 30
0.0
 40
3.5
  1
/\M+2B3E6\M+2A6EC
  7
ROMANS
100
AcDbText
  0
TEXT
  5
F7
330
9E
100
AcDbEntity
  8
PLASTIC
 62
     1
100
AcDbText
 10
356.238
 20
26.981
 30
0.0
 40
3.5
  1
/\M+2ABC8\M+2A4E1\M+2ABAC\M+2B8B9 
  7
ROMANS
100
AcDbText
  0
TEXT
  5
F8
330
9E
100
AcDbEntity
  8
PLASTIC
 62
     1
100
AcDbText
 10
285.711
 20
40.441
 30
0.0
 40
3.5
  1
/\M+2A4BD\M+2AE74
  7
ROMANS
100
AcDbText
  0
TEXT
  5
F9
330
9E
100
AcDbEntity
  8
0
 62
     1
100
AcDbText
 10
339.2189999999999
 20
13.23999999999999
 30
0.0
 40
2.967559999999999
  1
MATERIAL
  7
ITALICT
100
AcDbText
  0
TEXT
  5
FA
330
9E
100
AcDbEntity
  8
PLASTIC
 62
     1
100
AcDbText
 10
363.5039999999998
 20
13.22999999999999
 30
0.0
 40
3.5
  1
/\M+2A7F7\M+2BDE8
  7
ROMANS
100
AcDbText
  0
TEXT
  5
FB
330
9E
100
AcDbEntity
  8
PLASTIC
 62
     1
100
AcDbText
 10
457.751
 20
353.114
 30
0.0
 40
3.5
  1
/\M+2AAA9\M+2A5BB\M+2B1D4\M+2AD7A
  7
ROMANS
100
AcDbText
  0
TEXT
  5
FC
330
9E
100
AcDbEntity
  8
PLASTIC
 62
     1
100
AcDbText
 10
528.911
 20
353.376
 30
0.0
 40
3.5
  1
/\M+2BD73\M+2ADD7\M+2AACC
  7
ROMANS
100
AcDbText
  0
TEXT
  5
FD
330
9E
100
AcDbEntity
  8
PLASTIC
 62
     1
100
AcDbText
 10
498.817
 20
353.0750000000001
 30
0.0
 40
3.5
  1
/\M+2A4E9\M+2B4C1
  7
ROMANS
100
AcDbText
  0
TEXT
  5
FE
330
9E
100
AcDbEntity
  8
PLASTIC
 62
     1
100
AcDbText
 10
392.687
 20
352.234
 30
0.0
 40
3.5
  1
/\M+2AAA9\M+2A6B8
  7
ROMANS
100
AcDbText
  0
TEXT
  5
FF
330
9E
100
AcDbEntity
  8
PLASTIC
 62
     1
100
AcDbText
 10
512.4929999999999
 20
51.292
 30
0.0
 40
6.0
  1
\M+2BCE9\M+2BFB3\M+2A475\M+2B77E
  7
ROMANS
100
AcDbText
  0
TEXT
  5
100
330
9E
100
AcDbEntity
  8
0
 62
     1
100
AcDbText
 10
539.7802585078563
 20
6.560559479086327
 30
0.0
 40
3.709449999999999
  1
OF
  7
ROMANS
100
AcDbText
  0
TEXT
  5
101
330
9E
100
AcDbEntity
  8
PLASTIC
 62
     1
100
AcDbText
 10
444.623
 20
27.022
 30
0.0
 40
3.5
  1
/\M+2A4E9\M+2B4C1
  7
ROMANS
100
AcDbText
  0
TEXT
  5
102
330
9E
100
AcDbEntity
  8
PLASTIC
 62
     1
100
AcDbText
 10
444.623
 20
12.918
 30
0.0
 40
3.5
  1
/\M+2A4E9\M+2B4C1
  7
ROMANS
100
AcDbText
  0
TEXT
  5
103
330
9E
100
AcDbEntity
  8
PLASTIC
 62
     1
100
AcDbText
 10
399.7039999999998
 20
33.78303999999999
 30
0.0
 40
3.5
  1
\M+2B8AD\M+2C2C5\M+2BED0
  7
ROMANS
100
AcDbText
  0
TEXT
  5
104
330
9E
100
AcDbEntity
  8
PLASTIC
 62
     1
100
AcDbText
 10
525.8679999999998
 20
346.6660399999999
 30
0.0
 40
3.5
  1
\M+2B8AD\M+2C2C5\M+2BED0
  7
ROMANS
100
AcDbText
  0
TEXT
  5
105
330
9E
100
AcDbEntity
  8
0
 62
     1
100
AcDbText
 10
392.2691873566694
 20
346.25352
 30
0.0
 40
2.967559999999999
  1
A
  7
ITALICT
 72
     1
 11
393.2583740233361
 21
346.25352
 31
0.0
100
AcDbText
  0
TEXT
  5
106
330
9E
100
AcDbEntity
  8
0
 62
     1
100
AcDbText
 10
429.5213948093837
 20
346.4425199999999
 30
0.0
 40
2.967559999999999
  1
NEW DRAWING
  7
ITALICT
 72
     1
 11
446.9734738570028
 21
346.4425199999999
 31
0.0
100
AcDbText
  0
TEXT
  5
107
330
9E
100
AcDbEntity
  8
PLASTIC
 62
     1
100
AcDbText
 10
488.9400000000001
 20
346.5250000000001
 30
0.0
 40
3.5
  1
93.08.07
  7
ROMANS
100
AcDbText
  0
TEXT
  5
108
330
9E
100
AcDbEntity
  8
PLASTIC
 62
     1
100
AcDbText
 10
434.173
 20
33.56600000000009
 30
0.0
 40
3.5
  1
93.08.07
  7
ROMANS
100
AcDbText
  0
ENDBLK
  5
109
330
9E
100
AcDbEntity
  8
0
100
AcDbBlockEnd
  0
BLOCK
  5
177
330
10D
100
AcDbEntity
  8
0
100
AcDbBlockBegin
  2
A0
 70
     0
 10
0.0
 20
0.0
 30
0.0
  3
A0
  1

  0
LINE
  5
10E
330
10D
100
AcDbEntity
  8
0
100
AcDbLine
 10
697.9701119999999
 20
85.68829499999992
 30
0.0
 11
0.0
 21
85.68829499999997
 31
0.0
  0
TEXT
  5
10F
330
10D
100
AcDbEntity
  8
0
 62
     1
100
AcDbText
 10
541.2784588807094
 20
20.0359598651998
 30
0.0
 40
6.231875999999999
  1
50~180
  7
ITALICT
100
AcDbText
  0
TEXT
  5
110
330
10D
100
AcDbEntity
  8
0
 62
     1
100
AcDbText
 10
471.4914712237685
 20
74.6000432141858
 30
0.0
 40
6.231875999999999
  1
TOLERANCE GRADE(%%P)
  7
ITALICT
100
AcDbText
  0
LINE
  5
111
330
10D
100
AcDbEntity
  8
0
100
AcDbLine
 10
697.9701119999999
 20
71.66657400000002
 30
0.0
 11
0.0
 21
71.66657400000002
 31
0.0
  0
LINE
  5
112
330
10D
100
AcDbEntity
  8
0
100
AcDbLine
 10
697.9701119999999
 20
57.64485300000012
 30
0.0
 11
0.0
 21
57.64485300000001
 31
0.0
  0
LINE
  5
113
330
10D
100
AcDbEntity
  8
0
100
AcDbLine
 10
697.9701119999999
 20
43.623132
 30
0.0
 11
0.0
 21
43.623132
 31
0.0
  0
LINE
  5
114
330
10D
100
AcDbEntity
  8
0
100
AcDbLine
 10
697.9701119999999
 20
29.6014110000001
 30
0.0
 11
0.0
 21
29.6014110000001
 31
0.0
  0
LINE
  5
115
330
10D
100
AcDbEntity
  8
0
100
AcDbLine
 10
697.9701119999999
 20
15.57969000000008
 30
0.0
 11
0.0
 21
15.57969000000008
 31
0.0
  0
LWPOLYLINE
  5
116
330
10D
100
AcDbEntity
  8
0
100
AcDbPolyline
 90
        5
 70
     0
 43
1.246375199999999
 10
0.0
 20
741.5932440000001
 10
0.0
 20
0.0
 10
1152.897059999999
 20
0.0
 10
1152.897059999999
 20
741.5932440000001
 10
0.0
 20
741.5932440000001
  0
LINE
  5
117
330
10D
100
AcDbEntity
  8
0
100
AcDbLine
 10
18.13158391512718
 20
0.0
 30
0.0
 11
18.13158391512718
 21
85.68829499999997
 31
0.0
  0
TEXT
  5
118
330
10D
100
AcDbEntity
  8
0
 62
     1
100
AcDbText
 10
6.882421469530754
 20
4.184467176619591
 30
0.0
 40
6.231875999999999
  1
6
  7
ITALICT
100
AcDbText
  0
TEXT
  5
119
330
10D
100
AcDbEntity
  8
0
 62
     1
100
AcDbText
 10
6.882421469530754
 20
20.03595986519991
 30
0.0
 40
6.231875999999999
  1
5
  7
ITALICT
100
AcDbText
  0
TEXT
  5
11A
330
10D
100
AcDbEntity
  8
0
 62
     1
100
AcDbText
 10
6.882421469530754
 20
32.5950018745915
 30
0.0
 40
6.231875999999999
  1
4
  7
ITALICT
100
AcDbText
  0
TEXT
  5
11B
330
10D
100
AcDbEntity
  8
0
 62
     1
100
AcDbText
 10
6.882421469530754
 20
47.62338189337469
 30
0.0
 40
6.231875999999999
  1
3
  7
ITALICT
100
AcDbText
  0
TEXT
  5
11C
330
10D
100
AcDbEntity
  8
0
 62
     1
100
AcDbText
 10
6.882421469530754
 20
61.21788853499708
 30
0.0
 40
6.231875999999999
  1
2
  7
ITALICT
100
AcDbText
  0
TEXT
  5
11D
330
10D
100
AcDbEntity
  8
0
 62
     1
100
AcDbText
 10
6.882421469530754
 20
74.60004321418591
 30
0.0
 40
6.231875999999999
  1
1
  7
ITALICT
100
AcDbText
  0
LINE
  5
11E
330
10D
100
AcDbEntity
  8
0
100
AcDbLine
 10
251.826933915127
 20
0.0
 30
0.0
 11
251.826933915127
 21
85.68829499999997
 31
0.0
  0
LINE
  5
11F
330
10D
100
AcDbEntity
  8
0
100
AcDbLine
 10
267.406623915127
 20
0.0
 30
0.0
 11
267.406623915127
 21
85.68829499999997
 31
0.0
  0
TEXT
  5
120
330
10D
100
AcDbEntity
  8
0
 62
     1
100
AcDbText
 10
252.8279187919495
 20
3.733468071815025
 30
0.0
 40
6.231875999999999
  1
12
  7
ITALICT
100
AcDbText
  0
TEXT
  5
121
330
10D
100
AcDbEntity
  8
0
 62
     1
100
AcDbText
 10
253.2491729259973
 20
18.76184809059822
 30
0.0
 40
6.231875999999999
  1
11
  7
ITALICT
100
AcDbText
  0
TEXT
  5
122
330
10D
100
AcDbEntity
  8
0
 62
     1
100
AcDbText
 10
252.8191549937023
 20
31.32089009998987
 30
0.0
 40
6.231875999999999
  1
10
  7
ITALICT
100
AcDbText
  0
TEXT
  5
123
330
10D
100
AcDbEntity
  8
0
 62
     1
100
AcDbText
 10
255.3729711927301
 20
47.17238278857024
 30
0.0
 40
6.231875999999999
  1
9
  7
ITALICT
100
AcDbText
  0
TEXT
  5
124
330
10D
100
AcDbEntity
  8
0
 62
     1
100
AcDbText
 10
255.3729711927301
 20
60.55453746775896
 30
0.0
 40
6.231875999999999
  1
8
  7
ITALICT
100
AcDbText
  0
TEXT
  5
125
330
10D
100
AcDbEntity
  8
0
 62
     1
100
AcDbText
 10
255.3729711927301
 20
74.75980481674497
 30
0.0
 40
6.231875999999999
  1
7
  7
ITALICT
100
AcDbText
  0
LINE
  5
126
330
10D
100
AcDbEntity
  8
0
100
AcDbLine
 10
469.601973915127
 20
0.0
 30
0.0
 11
469.601973915127
 21
85.68829499999997
 31
0.0
  0
TEXT
  5
127
330
10D
100
AcDbEntity
  8
0
 62
     1
100
AcDbText
 10
535.0449607432806
 20
4.184467176619477
 30
0.0
 40
6.231875999999999
  1
180~
  7
ITALICT
100
AcDbText
  0
TEXT
  5
128
330
10D
100
AcDbEntity
  8
0
 62
     1
100
AcDbText
 10
541.1003549800807
 20
32.59500187459138
 30
0.0
 40
6.231875999999999
  1
18~50
  7
ITALICT
100
AcDbText
  0
TEXT
  5
129
330
10D
100
AcDbEntity
  8
0
 62
     1
100
AcDbText
 10
547.3338531175097
 20
47.62338189337464
 30
0.0
 40
6.231875999999999
  1
6~18
  7
ITALICT
100
AcDbText
  0
TEXT
  5
12A
330
10D
100
AcDbEntity
  8
0
 62
     1
100
AcDbText
 10
553.3892473543089
 20
61.21788853499703
 30
0.0
 40
6.231875999999999
  1
~6
  7
ITALICT
100
AcDbText
  0
LINE
  5
12B
330
10D
100
AcDbEntity
  8
0
100
AcDbLine
 10
1152.897059999999
 20
85.68829499999992
 30
0.0
 11
697.9701119999999
 21
85.68829499999992
 31
0.0
  0
LINE
  5
12C
330
10D
100
AcDbEntity
  8
0
100
AcDbLine
 10
697.9701119999999
 20
56.086884
 30
0.0
 11
953.4770279999998
 21
56.086884
 31
0.0
  0
LINE
  5
12D
330
10D
100
AcDbEntity
  8
0
100
AcDbLine
 10
697.9701119999999
 20
28.04344200000002
 30
0.0
 11
953.4770279999998
 21
28.04344200000002
 31
0.0
  0
TEXT
  5
12E
330
10D
100
AcDbEntity
  8
0
 62
     1
100
AcDbText
 10
745.3994605514617
 20
63.04774635587614
 30
0.0
 40
6.231875999999999
  1
MM
  7
ITALICT
100
AcDbText
  0
LINE
  5
12F
330
10D
100
AcDbEntity
  8
0
100
AcDbLine
 10
697.9701119999999
 20
85.68829499999997
 30
0.0
 11
697.9701119999999
 21
0.0
 31
0.0
  0
LINE
  5
130
330
10D
100
AcDbEntity
  8
0
100
AcDbLine
 10
660.578856
 20
85.68829499999992
 30
0.0
 11
660.578856
 21
-0.0000000000000568
 31
0.0
  0
LINE
  5
131
330
10D
100
AcDbEntity
  8
0
100
AcDbLine
 10
623.1875999999999
 20
85.68829499999992
 30
0.0
 11
623.1875999999999
 21
-0.0000000000000568
 31
0.0
  0
TEXT
  5
132
330
10D
100
AcDbEntity
  8
0
 62
     1
100
AcDbText
 10
631.100436215042
 20
4.184467176619477
 30
0.0
 40
6.231875999999999
  1
0.3
  7
ITALICT
100
AcDbText
  0
TEXT
  5
133
330
10D
100
AcDbEntity
  8
0
 62
     1
100
AcDbText
 10
669.0942277165261
 20
4.184467176619477
 30
0.0
 40
6.231875999999999
  1
0.5
  7
ITALICT
100
AcDbText
  0
TEXT
  5
134
330
10D
100
AcDbEntity
  8
0
 62
     1
100
AcDbText
 10
631.100436215042
 20
20.03595986519991
 30
0.0
 40
6.231875999999999
  1
0.2
  7
ITALICT
100
AcDbText
  0
TEXT
  5
135
330
10D
100
AcDbEntity
  8
0
 62
     1
100
AcDbText
 10
631.100436215042
 20
32.5950018745915
 30
0.0
 40
6.231875999999999
  1
0.1
  7
ITALICT
100
AcDbText
  0
TEXT
  5
136
330
10D
100
AcDbEntity
  8
0
 62
     1
100
AcDbText
 10
631.100436215042
 20
61.21788853499708
 30
0.0
 40
6.231875999999999
  1
0.05
  7
ITALICT
100
AcDbText
  0
TEXT
  5
137
330
10D
100
AcDbEntity
  8
0
 62
     1
100
AcDbText
 10
631.100436215042
 20
47.62338189337464
 30
0.0
 40
6.231875999999999
  1
0.08
  7
ITALICT
100
AcDbText
  0
TEXT
  5
138
330
10D
100
AcDbEntity
  8
0
 62
     1
100
AcDbText
 10
640.0562005057564
 20
74.60004321418586
 30
0.0
 40
6.231875999999999
  1
A
  7
ITALICT
100
AcDbText
  0
TEXT
  5
139
330
10D
100
AcDbEntity
  8
0
 62
     1
100
AcDbText
 10
701.0860499999998
 20
46.73907000000008
 30
0.0
 40
6.231875999999999
  1
IE NO.
  7
ITALICT
100
AcDbText
  0
TEXT
  5
13A
330
10D
100
AcDbEntity
  8
0
 62
     1
100
AcDbText
 10
669.0942277165261
 20
20.03595986519991
 30
0.0
 40
6.231875999999999
  1
0.4
  7
ITALICT
100
AcDbText
  0
TEXT
  5
13B
330
10D
100
AcDbEntity
  8
0
 62
     1
100
AcDbText
 10
669.0942277165261
 20
32.5950018745915
 30
0.0
 40
6.231875999999999
  1
0.25
  7
ITALICT
100
AcDbText
  0
TEXT
  5
13C
330
10D
100
AcDbEntity
  8
0
 62
     1
100
AcDbText
 10
669.0942277165261
 20
47.62338189337464
 30
0.0
 40
6.231875999999999
  1
0.18
  7
ITALICT
100
AcDbText
  0
TEXT
  5
13D
330
10D
100
AcDbEntity
  8
0
 62
     1
100
AcDbText
 10
669.0942277165261
 20
61.21788853499708
 30
0.0
 40
6.231875999999999
  1
0.1
  7
ITALICT
100
AcDbText
  0
TEXT
  5
13E
330
10D
100
AcDbEntity
  8
0
 62
     1
100
AcDbText
 10
701.0860499999998
 20
74.78251200000016
 30
0.0
 40
6.231875999999999
  1
DIM.
  7
ITALICT
100
AcDbText
  0
TEXT
  5
13F
330
10D
100
AcDbEntity
  8
0
 62
     1
100
AcDbText
 10
676.0029601693627
 20
74.60004321418586
 30
0.0
 40
6.231875999999999
  1
B
  7
ITALICT
100
AcDbText
  0
LINE
  5
140
330
10D
100
AcDbEntity
  8
0
100
AcDbLine
 10
891.1582679999998
 20
85.68829499999997
 30
0.0
 11
891.1582679999998
 21
0.0
 31
0.0
  0
LINE
  5
141
330
10D
100
AcDbEntity
  8
0
100
AcDbLine
 10
794.56419
 20
85.68829499999997
 30
0.0
 11
794.56419
 21
0.0
 31
0.0
  0
TEXT
  5
142
330
10D
100
AcDbEntity
  8
0
 62
     1
100
AcDbText
 10
797.680128
 20
46.73906999999997
 30
0.0
 40
6.231875999999999
  1
CHK.
  7
ITALICT
100
AcDbText
  0
TEXT
  5
143
330
10D
100
AcDbEntity
  8
0
 62
     1
100
AcDbText
 10
797.680128
 20
17.13765899999998
 30
0.0
 40
6.231875999999999
  1
APPD.
  7
ITALICT
100
AcDbText
  0
TEXT
  5
144
330
10D
100
AcDbEntity
  8
0
 62
     1
100
AcDbText
 10
797.680128
 20
74.78251199999999
 30
0.0
 40
6.231875999999999
  1
DWN.
  7
ITALICT
100
AcDbText
  0
TEXT
  5
145
330
10D
100
AcDbEntity
  8
0
 62
     1
100
AcDbText
 10
894.274206
 20
46.73906999999997
 30
0.0
 40
6.231875999999999
  1
DATE
  7
ITALICT
100
AcDbText
  0
TEXT
  5
146
330
10D
100
AcDbEntity
  8
0
 62
     1
100
AcDbText
 10
894.274206
 20
17.13765899999998
 30
0.0
 40
6.231875999999999
  1
DATE
  7
ITALICT
100
AcDbText
  0
TEXT
  5
147
330
10D
100
AcDbEntity
  8
0
 62
     1
100
AcDbText
 10
894.274206
 20
74.78251199999999
 30
0.0
 40
6.231875999999999
  1
DATE
  7
ITALICT
100
AcDbText
  0
LINE
  5
148
330
10D
100
AcDbEntity
  8
0
100
AcDbLine
 10
953.4770279999998
 20
26.48547300000001
 30
0.0
 11
1152.897059999999
 21
26.48547300000001
 31
0.0
  0
LINE
  5
149
330
10D
100
AcDbEntity
  8
0
100
AcDbLine
 10
1152.897059999999
 20
123.0795509999999
 30
0.0
 11
953.4770279999998
 21
123.0795509999999
 31
0.0
  0
TEXT
  5
14A
330
10D
100
AcDbEntity
  8
0
 62
     1
100
AcDbText
 10
1107.546842866498
 20
3.277174906081313
 30
0.0
 40
7.789844999999998
  1
1
  7
ROMANS
100
AcDbText
  0
LINE
  5
14B
330
10D
100
AcDbEntity
  8
0
100
AcDbLine
 10
1053.187044
 20
26.48547300000001
 30
0.0
 11
1053.187044
 21
0.0
 31
0.0
  0
LINE
  5
14C
330
10D
100
AcDbEntity
  8
0
100
AcDbLine
 10
953.4770279999998
 20
123.0795509999999
 30
0.0
 11
953.4770279999998
 21
0.0
 31
0.0
  0
TEXT
  5
14D
330
10D
100
AcDbEntity
  8
0
 62
     1
100
AcDbText
 10
1056.302981999999
 20
16.54661400000003
 30
0.0
 40
6.231875999999999
  1
SHEET            
  7
ITALICT
100
AcDbText
  0
TEXT
  5
14E
330
10D
100
AcDbEntity
  8
0
 62
     1
100
AcDbText
 10
956.592966
 20
73.22454300000003
 30
0.0
 40
6.3
  1
TITLE
  7
ITALICT
100
AcDbText
  0
TEXT
  5
14F
330
10D
100
AcDbEntity
  8
0
 62
     1
100
AcDbText
 10
956.592966
 20
17.13765899999998
 30
0.0
 40
6.231875999999999
  1
DWG. NO.
  7
ITALICT
100
AcDbText
  0
TEXT
  5
150
330
10D
100
AcDbEntity
  8
0
 62
     1
100
AcDbText
 10
1142.001170411699
 20
3.277174906081313
 30
0.0
 40
7.789844999999998
  1
1
  7
ROMANS
100
AcDbText
  0
LWPOLYLINE
  5
151
330
10D
100
AcDbEntity
  8
0
 62
     7
100
AcDbPolyline
 90
        4
 70
     1
 43
0.0
 10
1138.556028660288
 20
40.1956002
 10
1138.556028660288
 20
26.48547300000001
 10
1152.266155860288
 20
26.48547300000001
 10
1152.266155860288
 20
40.1956002
  0
LINE
  5
152
330
10D
100
AcDbEntity
  8
0
100
AcDbLine
 10
1151.829470099706
 20
727.5715230000001
 30
0.0
 11
789.228476099706
 21
727.5715230000001
 31
0.0
  0
LINE
  5
153
330
10D
100
AcDbEntity
  8
0
100
AcDbLine
 10
1151.829470099706
 20
713.5498019999999
 30
0.0
 11
789.228476099706
 21
713.5498019999999
 31
0.0
  0
TEXT
  5
154
330
10D
100
AcDbEntity
  8
0
 62
     1
100
AcDbText
 10
793.231103449006
 20
729.129492
 30
0.0
 40
6.231875999999999
  1
REV
  7
ITALICT
 72
     1
 11
803.4691854490059
 21
729.129492
 31
0.0
100
AcDbText
  0
TEXT
  5
155
330
10D
100
AcDbEntity
  8
0
 62
     1
100
AcDbText
 10
852.7039350997059
 20
730.3747920000001
 30
0.0
 40
6.231875999999999
  1
REVISION RECORD
  7
ITALICT
 72
     1
 11
900.1848950997059
 21
730.3747920000001
 31
0.0
100
AcDbText
  0
LINE
  5
156
330
10D
100
AcDbEntity
  8
0
100
AcDbLine
 10
848.7719180997057
 20
741.5932440000001
 30
0.0
 11
848.7719180997057
 21
713.5498019999999
 31
0.0
  0
LINE
  5
157
330
10D
100
AcDbEntity
  8
0
100
AcDbLine
 10
789.228476099706
 20
741.5932440000001
 30
0.0
 11
789.228476099706
 21
713.5498019999999
 31
0.0
  0
TEXT
  5
158
330
10D
100
AcDbEntity
  8
0
 62
     1
100
AcDbText
 10
1069.802248099706
 20
730.870392
 30
0.0
 40
6.231875999999999
  1
NAME
  7
ITALICT
 72
     1
 11
1083.749780099706
 21
730.870392
 31
0.0
100
AcDbText
  0
TEXT
  5
159
330
10D
100
AcDbEntity
  8
0
 62
     1
100
AcDbText
 10
1008.329892099705
 20
730.9123920000001
 30
0.0
 40
6.231875999999999
  1
DATE
  7
ITALICT
 72
     1
 11
1021.090400099706
 21
730.9123920000001
 31
0.0
100
AcDbText
  0
LINE
  5
15A
330
10D
100
AcDbEntity
  8
0
100
AcDbLine
 10
1068.170090099705
 20
741.5932440000001
 30
0.0
 11
1068.170090099706
 21
713.5498019999999
 31
0.0
  0
LINE
  5
15B
330
10D
100
AcDbEntity
  8
0
100
AcDbLine
 10
1005.510710099705
 20
741.5932440000001
 30
0.0
 11
1005.510710099705
 21
713.5498019999999
 31
0.0
  0
TEXT
  5
15C
330
10D
100
AcDbEntity
  8
PLASTIC
 62
     1
100
AcDbText
 10
956.6802
 20
96.69660000000005
 30
0.0
 40
16.8
  1
ShingTek 
  7
ROMANS
100
AcDbText
  0
TEXT
  5
15D
330
10D
100
AcDbEntity
  8
PLASTIC
 62
     1
100
AcDbText
 10
990.2739000000002
 20
72.85740000000004
 30
0.0
 40
7.35
  1
/\M+2ABAC\M+2B8B9
  7
ROMANS
100
AcDbText
  0
TEXT
  5
15E
330
10D
100
AcDbEntity
  8
PLASTIC
 62
     1
100
AcDbText
 10
1006.624499999999
 20
17.11080000000004
 30
0.0
 40
7.35
  1
/\M+2B9CF\M+2B8B9
  7
ROMANS
100
AcDbText
  0
TEXT
  5
15F
330
10D
100
AcDbEntity
  8
PLASTIC
 62
     1
100
AcDbText
 10
1094.2806
 20
16.06500000000005
 30
0.0
 40
7.35
  1
/\M+2ADB6\M+2BCC6
  7
ROMANS
100
AcDbText
  0
TEXT
  5
160
330
10D
100
AcDbEntity
  8
PLASTIC
 62
     1
100
AcDbText
 10
823.8530999999996
 20
74.48490000000004
 30
0.0
 40
7.35
  1
/\M+2C3B8\M+2B9CF
  7
ROMANS
100
AcDbText
  0
TEXT
  5
161
330
10D
100
AcDbEntity
  8
PLASTIC
 62
     1
100
AcDbText
 10
824.1051
 20
47.00010000000003
 30
0.0
 40
7.35
  1
/\M+2BC66\M+2AC64
  7
ROMANS
100
AcDbText
  0
TEXT
  5
162
330
10D
100
AcDbEntity
  8
PLASTIC
 62
     1
100
AcDbText
 10
828.0447
 20
17.91300000000001
 30
0.0
 40
7.35
  1
/\M+2AED6\M+2ADE3
  7
ROMANS
100
AcDbText
  0
TEXT
  5
163
330
10D
100
AcDbEntity
  8
PLASTIC
 62
     1
100
AcDbText
 10
923.2083000000002
 20
74.39670000000006
 30
0.0
 40
7.35
  1
/\M+2A4E9\M+2B4C1
  7
ROMANS
100
AcDbText
  0
TEXT
  5
164
330
10D
100
AcDbEntity
  8
PLASTIC
 62
     1
100
AcDbText
 10
723.4689000000001
 20
74.55630000000013
 30
0.0
 40
7.35
  1
/\M+2B3E6\M+2A6EC
  7
ROMANS
100
AcDbText
  0
TEXT
  5
165
330
10D
100
AcDbEntity
  8
PLASTIC
 62
     1
100
AcDbText
 10
737.5998
 20
46.1601
 30
0.0
 40
7.35
  1
/\M+2ABC8\M+2A4E1\M+2ABAC\M+2B8B9 
  7
ROMANS
100
AcDbText
  0
TEXT
  5
166
330
10D
100
AcDbEntity
  8
PLASTIC
 62
     1
100
AcDbText
 10
589.4931000000001
 20
74.42610000000001
 30
0.0
 40
7.35
  1
/\M+2A4BD\M+2AE74
  7
ROMANS
100
AcDbText
  0
TEXT
  5
167
330
10D
100
AcDbEntity
  8
0
 62
     1
100
AcDbText
 10
701.8598999999999
 20
17.30400000000003
 30
0.0
 40
6.231875999999999
  1
MATERIAL
  7
ITALICT
100
AcDbText
  0
TEXT
  5
168
330
10D
100
AcDbEntity
  8
PLASTIC
 62
     1
100
AcDbText
 10
752.8583999999997
 20
17.28300000000001
 30
0.0
 40
7.35
  1
/\M+2A7F7\M+2BDE8
  7
ROMANS
100
AcDbText
  0
TEXT
  5
169
330
10D
100
AcDbEntity
  8
PLASTIC
 62
     1
100
AcDbText
 10
950.7770999999999
 20
731.0394000000001
 30
0.0
 40
7.35
  1
/\M+2AAA9\M+2A5BB\M+2B1D4\M+2AD7A
  7
ROMANS
100
AcDbText
  0
TEXT
  5
16A
330
10D
100
AcDbEntity
  8
PLASTIC
 62
     1
100
AcDbText
 10
1100.2131
 20
731.5896
 30
0.0
 40
7.35
  1
/\M+2BD73\M+2ADD7\M+2AACC
  7
ROMANS
100
AcDbText
  0
TEXT
  5
16B
330
10D
100
AcDbEntity
  8
PLASTIC
 62
     1
100
AcDbText
 10
1037.0157
 20
730.9575000000002
 30
0.0
 40
7.35
  1
/\M+2A4E9\M+2B4C1
  7
ROMANS
100
AcDbText
  0
TEXT
  5
16C
330
10D
100
AcDbEntity
  8
PLASTIC
 62
     1
100
AcDbText
 10
814.1427000000001
 20
729.1914000000002
 30
0.0
 40
7.35
  1
/\M+2AAA9\M+2A6B8
  7
ROMANS
100
AcDbText
  0
TEXT
  5
16D
330
10D
100
AcDbEntity
  8
PLASTIC
 62
     1
100
AcDbText
 10
1065.735299999999
 20
97.21320000000003
 30
0.0
 40
12.6
  1
\M+2BCE9\M+2BFB3\M+2A475\M+2B77E
  7
ROMANS
100
AcDbText
  0
TEXT
  5
16E
330
10D
100
AcDbEntity
  8
0
 62
     1
100
AcDbText
 10
1123.038542866498
 20
3.277174906081313
 30
0.0
 40
7.789844999999998
  1
OF
  7
ROMANS
100
AcDbText
  0
TEXT
  5
16F
330
10D
100
AcDbEntity
  8
PLASTIC
 62
     1
100
AcDbText
 10
923.2083000000002
 20
46.24620000000004
 30
0.0
 40
7.35
  1
/\M+2A4E9\M+2B4C1
  7
ROMANS
100
AcDbText
  0
TEXT
  5
170
330
10D
100
AcDbEntity
  8
PLASTIC
 62
     1
100
AcDbText
 10
923.2083000000002
 20
16.62779999999997
 30
0.0
 40
7.35
  1
/\M+2A4E9\M+2B4C1
  7
ROMANS
100
AcDbText
  0
TEXT
  5
171
330
10D
100
AcDbEntity
  8
PLASTIC
 62
     1
100
AcDbText
 10
828.8783999999997
 20
60.44438400000001
 30
0.0
 40
7.35
  1
\M+2C4AC\M+2BDF7\M+2A6F9
  7
ROMANS
100
AcDbText
  0
TEXT
  5
173
330
10D
100
AcDbEntity
  8
0
 62
     1
100
AcDbText
 10
813.265293449006
 20
716.6323919999999
 30
0.0
 40
6.231875999999999
  1
A
  7
ITALICT
 72
     1
 11
815.3425854490061
 21
716.6323919999999
 31
0.0
100
AcDbText
  0
TEXT
  5
174
330
10D
100
AcDbEntity
  8
0
 62
     1
100
AcDbText
 10
891.4949290997059
 20
717.0292920000001
 30
0.0
 40
6.231875999999999
  1
NEW DRAWING
  7
ITALICT
 72
     1
 11
928.1442950997059
 21
717.0292920000001
 31
0.0
100
AcDbText
  0
ENDBLK
  5
178
330
10D
100
AcDbEntity
  8
0
100
AcDbBlockEnd
  0
BLOCK
  5
4692
330
4688
100
AcDbEntity
  8
0
100
AcDbBlockBegin
  2
*D3
 70
     1
 10
0.0
 20
0.0
 30
0.0
  3
*D3
  1

  0
LINE
  5
7E7D
330
4688
100
AcDbEntity
  8
DIM
 62
     0
 48
0.4
370
    -2
100
AcDbLine
 10
1730.358567923252
 20
620.7667300595014
 30
0.0
 11
1731.687620684803
 21
620.7667300595014
 31
0.0
  0
LINE
  5
7E7E
330
4688
100
AcDbEntity
  8
DIM
 62
     0
 48
0.4
370
    -2
100
AcDbLine
 10
1730.358567923252
 20
617.7353158467513
 30
0.0
 11
1731.687620684803
 21
617.7353158467513
 31
0.0
  0
LINE
  5
7E7F
330
4688
100
AcDbEntity
  8
DIM
 62
     0
 48
0.4
370
    -2
100
AcDbLine
 10
1731.507620684803
 20
620.5867300595015
 30
0.0
 11
1731.507620684803
 21
619.2618807785419
 31
0.0
  0
LINE
  5
7E80
330
4688
100
AcDbEntity
  8
DIM
 62
     0
 48
0.4
370
    -2
100
AcDbLine
 10
1731.507620684803
 20
617.9153158467514
 30
0.0
 11
1731.507620684803
 21
618.8914045880657
 31
0.0
  0
SOLID
  5
7E81
330
4688
100
AcDbEntity
  8
DIM
 62
     0
 48
0.4
100
AcDbTrace
 10
1731.477620684803
 20
620.5867300595015
 30
0.0
 11
1731.537620684803
 21
620.5867300595015
 31
0.0
 12
1731.507620684803
 22
620.7667300595014
 32
0.0
 13
1731.507620684803
 23
620.7667300595014
 33
0.0
  0
SOLID
  5
7E82
330
4688
100
AcDbEntity
  8
DIM
 62
     0
 48
0.4
100
AcDbTrace
 10
1731.477620684803
 20
617.9153158467514
 30
0.0
 11
1731.537620684803
 21
617.9153158467514
 31
0.0
 12
1731.507620684803
 22
617.7353158467513
 32
0.0
 13
1731.507620684803
 23
617.7353158467513
 33
0.0
  0
MTEXT
  5
7E83
330
4688
100
AcDbEntity
  8
DIM
 62
     0
 48
0.4
100
AcDbMText
 10
1731.507620684803
 20
619.076642683304
 30
0.0
 40
0.125
 41
0.0
 71
     5
 72
     1
  1
\A1;3.031 [77.00]
 73
     1
 44
1.0
  0
POINT
  5
7E84
330
4688
100
AcDbEntity
  8
Defpoints
 62
     0
 48
0.4
100
AcDbPoint
 10
1730.296067923252
 20
620.7667300595014
 30
0.0
  0
POINT
  5
7E85
330
4688
100
AcDbEntity
  8
Defpoints
 62
     0
 48
0.4
100
AcDbPoint
 10
1730.296067923252
 20
617.7353158467513
 30
0.0
  0
POINT
  5
7E86
330
4688
100
AcDbEntity
  8
Defpoints
 62
     0
 48
0.4
100
AcDbPoint
 10
1731.507620684803
 20
617.7353158467513
 30
0.0
  0
ENDBLK
  5
4693
330
4688
100
AcDbEntity
  8
0
100
AcDbBlockEnd
  0
BLOCK
  5
46DE
330
46D8
100
AcDbEntity
  8
0
100
AcDbBlockBegin
  2
*D4
 70
     1
 10
0.0
 20
0.0
 30
0.0
  3
*D4
  1

  0
LINE
  5
7E61
330
46D8
100
AcDbEntity
  8
DIM
 62
     0
 48
0.4
370
    -2
100
AcDbLine
 10
1727.626166451883
 20
622.4135673305627
 30
0.0
 11
1727.446166451883
 21
622.4135673305629
 31
0.0
  0
LINE
  5
7E62
330
46D8
100
AcDbEntity
  8
DIM
 62
     0
 48
0.4
370
    -2
100
AcDbLine
 10
1727.446166451883
 20
622.4135673305629
 30
0.0
 11
1728.965263299269
 21
620.8308014987701
 31
0.0
  0
MTEXT
  5
7E63
330
46D8
100
AcDbEntity
  8
DIM
 62
     0
 48
0.4
100
AcDbMText
 10
1728.439380737598
 20
622.4135673305629
 30
0.0
 40
0.125
 41
0.0
 71
     5
 72
     1
  1
\A1;R0.236 [R6.00]
 73
     1
 44
1.0
  0
SOLID
  5
7E64
330
46D8
100
AcDbEntity
  8
DIM
 62
     0
 48
0.4
100
AcDbTrace
 10
1728.986907366907
 20
620.8515749033081
 30
0.0
 11
1728.943619231632
 21
620.8100280942321
 31
0.0
 12
1729.089903726497
 22
620.7009370929448
 32
0.0
 13
1729.089903726497
 23
620.7009370929448
 33
0.0
  0
LINE
  5
7E65
330
46D8
100
AcDbEntity
  8
DIM
 62
     0
 48
0.4
370
    -2
100
AcDbLine
 10
1729.163469424585
 20
620.5305159650013
 30
0.0
 11
1729.343469424585
 21
620.5305159650012
 31
0.0
  0
LINE
  5
7E66
330
46D8
100
AcDbEntity
  8
DIM
 62
     0
 48
0.4
370
    -2
100
AcDbLine
 10
1729.253469424585
 20
620.4405159650015
 30
0.0
 11
1729.253469424585
 21
620.6205159650015
 31
0.0
  0
POINT
  5
7E67
330
46D8
100
AcDbEntity
  8
Defpoints
 62
     0
 48
0.4
100
AcDbPoint
 10
1729.089903726497
 20
620.7009370929448
 30
0.0
  0
POINT
  5
7E68
330
46D8
100
AcDbEntity
  8
Defpoints
 62
     0
 48
0.4
100
AcDbPoint
 10
1729.253469424585
 20
620.5305159650014
 30
0.0
  0
ENDBLK
  5
46DF
330
46D8
100
AcDbEntity
  8
0
100
AcDbBlockEnd
  0
BLOCK
  5
46F4
330
46E8
100
AcDbEntity
  8
0
100
AcDbBlockBegin
  2
*D5
 70
     1
 10
0.0
 20
0.0
 30
0.0
  3
*D5
  1

  0
LINE
  5
7DE7
330
46E8
100
AcDbEntity
  8
DIM
 62
     0
 48
0.4
370
    -2
100
AcDbLine
 10
1723.459807531087
 20
620.6921052087514
 30
0.0
 11
1722.759530357045
 21
620.6921052087514
 31
0.0
  0
LINE
  5
7DE8
330
46E8
100
AcDbEntity
  8
DIM
 62
     0
 48
0.4
370
    -2
100
AcDbLine
 10
1723.459807531087
 20
620.7667300595014
 30
0.0
 11
1722.759530357045
 21
620.7667300595014
 31
0.0
  0
LINE
  5
7DE9
330
46E8
100
AcDbEntity
  8
DIM
 62
     0
 48
0.4
370
    -2
100
AcDbLine
 10
1722.939530357044
 20
620.5121052087514
 30
0.0
 11
1722.939530357044
 21
620.3321052087513
 31
0.0
  0
LINE
  5
7DEA
330
46E8
100
AcDbEntity
  8
DIM
 62
     0
 48
0.4
370
    -2
100
AcDbLine
 10
1722.939530357044
 20
620.9467300595014
 30
0.0
 11
1722.939530357044
 21
621.5193493753848
 31
0.0
  0
LINE
  5
7DEB
330
46E8
100
AcDbEntity
  8
DIM
 62
     0
 48
0.4
370
    -2
100
AcDbLine
 10
1722.939530357044
 20
621.5193493753848
 30
0.0
 11
1723.119530357045
 21
621.5193493753848
 31
0.0
  0
SOLID
  5
7DEC
330
46E8
100
AcDbEntity
  8
DIM
 62
     0
 48
0.4
100
AcDbTrace
 10
1722.909530357044
 20
620.5121052087514
 30
0.0
 11
1722.969530357044
 21
620.5121052087514
 31
0.0
 12
1722.939530357044
 22
620.6921052087514
 32
0.0
 13
1722.939530357044
 23
620.6921052087514
 33
0.0
  0
SOLID
  5
7DED
330
46E8
100
AcDbEntity
  8
DIM
 62
     0
 48
0.4
100
AcDbTrace
 10
1722.909530357044
 20
620.9467300595014
 30
0.0
 11
1722.969530357044
 21
620.9467300595014
 31
0.0
 12
1722.939530357044
 22
620.7667300595014
 32
0.0
 13
1722.939530357044
 23
620.7667300595014
 33
0.0
  0
MTEXT
  5
7DEE
330
46E8
100
AcDbEntity
  8
DIM
 62
     0
 48
0.4
100
AcDbMText
 10
1723.795839880854
 20
621.5193493753851
 30
0.0
 40
0.125
 41
0.0
 71
     5
 72
     1
  1
\A1;0.075 [1.90]
 73
     1
 44
1.0
  0
POINT
  5
7DEF
330
46E8
100
AcDbEntity
  8
Defpoints
 62
     0
 48
0.4
100
AcDbPoint
 10
1723.522307531087
 20
620.6921052087514
 30
0.0
  0
POINT
  5
7DF0
330
46E8
100
AcDbEntity
  8
Defpoints
 62
     0
 48
0.4
100
AcDbPoint
 10
1723.522307531087
 20
620.7667300595014
 30
0.0
  0
POINT
  5
7DF1
330
46E8
100
AcDbEntity
  8
Defpoints
 62
     0
 48
0.4
100
AcDbPoint
 10
1722.939530357044
 20
620.7667300595014
 30
0.0
  0
ENDBLK
  5
46F5
330
46E8
100
AcDbEntity
  8
0
100
AcDbBlockEnd
  0
BLOCK
  5
4710
330
4704
100
AcDbEntity
  8
0
100
AcDbBlockBegin
  2
*D6
 70
     1
 10
0.0
 20
0.0
 30
0.0
  3
*D6
  1

  0
LINE
  5
7F51
330
4704
100
AcDbEntity
  8
DIM
 62
     0
 48
0.4
370
    -2
100
AcDbLine
 10
1722.934517056892
 20
615.3592327132153
 30
0.0
 11
1722.934517056892
 21
616.0755049376157
 31
0.0
  0
LINE
  5
7F52
330
4704
100
AcDbEntity
  8
DIM
 62
     0
 48
0.4
370
    -2
100
AcDbLine
 10
1723.110796231892
 20
615.3592327132153
 30
0.0
 11
1723.110796231892
 21
616.0755049376157
 31
0.0
  0
LINE
  5
7F53
330
4704
100
AcDbEntity
  8
DIM
 62
     0
 48
0.4
370
    -2
100
AcDbLine
 10
1723.290796231892
 20
615.8955049376158
 30
0.0
 11
1723.470796231892
 21
615.8955049376158
 31
0.0
  0
LINE
  5
7F54
330
4704
100
AcDbEntity
  8
DIM
 62
     0
 48
0.4
370
    -2
100
AcDbLine
 10
1722.754517056892
 20
615.8955049376158
 30
0.0
 11
1722.574517056892
 21
615.8955049376158
 31
0.0
  0
SOLID
  5
7F55
330
4704
100
AcDbEntity
  8
DIM
 62
     0
 48
0.4
100
AcDbTrace
 10
1723.290796231892
 20
615.9255049376157
 30
0.0
 11
1723.290796231892
 21
615.8655049376157
 31
0.0
 12
1723.110796231892
 22
615.8955049376158
 32
0.0
 13
1723.110796231892
 23
615.8955049376158
 33
0.0
  0
SOLID
  5
7F56
330
4704
100
AcDbEntity
  8
DIM
 62
     0
 48
0.4
100
AcDbTrace
 10
1722.754517056892
 20
615.9255049376157
 30
0.0
 11
1722.754517056892
 21
615.8655049376157
 31
0.0
 12
1722.934517056892
 22
615.8955049376158
 32
0.0
 13
1722.934517056892
 23
615.8955049376158
 33
0.0
  0
MTEXT
  5
7F57
330
4704
100
AcDbEntity
  8
DIM
 62
     0
 48
0.4
100
AcDbMText
 10
1722.091164215419
 20
615.8955049376158
 30
0.0
 40
0.125
 41
0.0
 71
     5
 72
     1
  1
\A1;{\fTahoma|b0|i0|c0|p32;.177 [}4.5{\fTahoma|b0|i0|c0|p32;]}
 73
     1
 44
1.0
  0
POINT
  5
7F58
330
4704
100
AcDbEntity
  8
Defpoints
 62
     0
 48
0.4
100
AcDbPoint
 10
1722.934517056892
 20
615.2967327132152
 30
0.0
  0
POINT
  5
7F59
330
4704
100
AcDbEntity
  8
Defpoints
 62
     0
 48
0.4
100
AcDbPoint
 10
1723.110796231892
 20
615.2967327132152
 30
0.0
  0
POINT
  5
7F5A
330
4704
100
AcDbEntity
  8
Defpoints
 62
     0
 48
0.4
100
AcDbPoint
 10
1723.110796231892
 20
615.8955049376158
 30
0.0
  0
ENDBLK
  5
4711
330
4704
100
AcDbEntity
  8
0
100
AcDbBlockEnd
  0
BLOCK
  5
472A
330
4720
100
AcDbEntity
  8
0
100
AcDbBlockBegin
  2
*D7
 70
     1
 10
0.0
 20
0.0
 30
0.0
  3
*D7
  1

  0
LINE
  5
7F47
330
4720
100
AcDbEntity
  8
DIM
 62
     0
 48
0.4
370
    -2
100
AcDbLine
 10
1722.895343906892
 20
615.4101578082153
 30
0.0
 11
1722.895343906892
 21
616.4149451237935
 31
0.0
  0
LINE
  5
7F48
330
4720
100
AcDbEntity
  8
DIM
 62
     0
 48
0.4
370
    -2
100
AcDbLine
 10
1723.149969381892
 20
615.4101578082153
 30
0.0
 11
1723.149969381892
 21
616.4149451237935
 31
0.0
  0
LINE
  5
7F49
330
4720
100
AcDbEntity
  8
DIM
 62
     0
 48
0.4
370
    -2
100
AcDbLine
 10
1723.329969381892
 20
616.2349451237935
 30
0.0
 11
1723.509969381892
 21
616.2349451237935
 31
0.0
  0
LINE
  5
7F4A
330
4720
100
AcDbEntity
  8
DIM
 62
     0
 48
0.4
370
    -2
100
AcDbLine
 10
1722.715343906892
 20
616.2349451237935
 30
0.0
 11
1722.535343906892
 21
616.2349451237935
 31
0.0
  0
SOLID
  5
7F4B
330
4720
100
AcDbEntity
  8
DIM
 62
     0
 48
0.4
100
AcDbTrace
 10
1723.329969381892
 20
616.2649451237935
 30
0.0
 11
1723.329969381892
 21
616.2049451237935
 31
0.0
 12
1723.149969381892
 22
616.2349451237935
 32
0.0
 13
1723.149969381892
 23
616.2349451237935
 33
0.0
  0
SOLID
  5
7F4C
330
4720
100
AcDbEntity
  8
DIM
 62
     0
 48
0.4
100
AcDbTrace
 10
1722.715343906892
 20
616.2649451237935
 30
0.0
 11
1722.715343906892
 21
616.2049451237935
 31
0.0
 12
1722.895343906892
 22
616.2349451237935
 32
0.0
 13
1722.895343906892
 23
616.2349451237935
 33
0.0
  0
MTEXT
  5
7F4D
330
4720
100
AcDbEntity
  8
DIM
 62
     0
 48
0.4
100
AcDbMText
 10
1722.051991065419
 20
616.2349451237935
 30
0.0
 40
0.125
 41
0.0
 71
     5
 72
     1
  1
\A1;{\fTahoma|b0|i0|c0|p32;.256 [}6.5{\fTahoma|b0|i0|c0|p32;]}
 73
     1
 44
1.0
  0
POINT
  5
7F4E
330
4720
100
AcDbEntity
  8
Defpoints
 62
     0
 48
0.4
100
AcDbPoint
 10
1722.895343906892
 20
615.3476578082153
 30
0.0
  0
POINT
  5
7F4F
330
4720
100
AcDbEntity
  8
Defpoints
 62
     0
 48
0.4
100
AcDbPoint
 10
1723.149969381892
 20
615.3476578082153
 30
0.0
  0
POINT
  5
7F50
330
4720
100
AcDbEntity
  8
Defpoints
 62
     0
 48
0.4
100
AcDbPoint
 10
1723.149969381892
 20
616.2349451237935
 30
0.0
  0
ENDBLK
  5
472B
330
4720
100
AcDbEntity
  8
0
100
AcDbBlockEnd
  0
BLOCK
  5
4742
330
4738
100
AcDbEntity
  8
0
100
AcDbBlockBegin
  2
*D8
 70
     1
 10
0.0
 20
0.0
 30
0.0
  3
*D8
  1

  0
LINE
  5
7F29
330
4738
100
AcDbEntity
  8
DIM
 62
     0
 48
0.4
370
    -2
100
AcDbLine
 10
1722.428928467851
 20
619.8011337627003
 30
0.0
 11
1720.407800850921
 21
619.8011337627003
 31
0.0
  0
LINE
  5
7F2A
330
4738
100
AcDbEntity
  8
DIM
 62
     0
 48
0.4
370
    -2
100
AcDbLine
 10
1722.428928467851
 20
618.7009121435525
 30
0.0
 11
1720.407800850921
 21
618.7009121435525
 31
0.0
  0
LINE
  5
7F2B
330
4738
100
AcDbEntity
  8
DIM
 62
     0
 48
0.4
370
    -2
100
AcDbLine
 10
1720.587800850921
 20
619.6211337627004
 30
0.0
 11
1720.587800850921
 21
619.5726768518718
 31
0.0
  0
LINE
  5
7F2C
330
4738
100
AcDbEntity
  8
DIM
 62
     0
 48
0.4
370
    -2
100
AcDbLine
 10
1720.587800850921
 20
618.8809121435524
 30
0.0
 11
1720.587800850921
 21
619.2291442796756
 31
0.0
  0
SOLID
  5
7F2D
330
4738
100
AcDbEntity
  8
DIM
 62
     0
 48
0.4
100
AcDbTrace
 10
1720.557800850921
 20
619.6211337627004
 30
0.0
 11
1720.617800850921
 21
619.6211337627004
 31
0.0
 12
1720.587800850921
 22
619.8011337627003
 32
0.0
 13
1720.587800850921
 23
619.8011337627003
 33
0.0
  0
SOLID
  5
7F2E
330
4738
100
AcDbEntity
  8
DIM
 62
     0
 48
0.4
100
AcDbTrace
 10
1720.557800850921
 20
618.8809121435524
 30
0.0
 11
1720.617800850921
 21
618.8809121435524
 31
0.0
 12
1720.587800850921
 22
618.7009121435525
 32
0.0
 13
1720.587800850921
 23
618.7009121435525
 33
0.0
  0
MTEXT
  5
7F2F
330
4738
100
AcDbEntity
  8
DIM
 62
     0
 48
0.4
100
AcDbMText
 10
1720.587800850921
 20
619.4009105657739
 30
0.0
 40
0.125
 41
0.0
 71
     5
 72
     1
  1
\A1;{\fTahoma|b0|i0|c0|p32;1.102 [}28{\fTahoma|b0|i0|c0|p32;]}
 73
     1
 44
1.0
  0
POINT
  5
7F30
330
4738
100
AcDbEntity
  8
Defpoints
 62
     0
 48
0.4
100
AcDbPoint
 10
1722.491428467852
 20
619.8011337627003
 30
0.0
  0
POINT
  5
7F31
330
4738
100
AcDbEntity
  8
Defpoints
 62
     0
 48
0.4
100
AcDbPoint
 10
1722.491428467852
 20
618.7009121435525
 30
0.0
  0
POINT
  5
7F32
330
4738
100
AcDbEntity
  8
Defpoints
 62
     0
 48
0.4
100
AcDbPoint
 10
1720.587800850921
 20
618.7009121435525
 30
0.0
  0
ENDBLK
  5
4743
330
4738
100
AcDbEntity
  8
0
100
AcDbBlockEnd
  0
BLOCK
  5
475A
330
4750
100
AcDbEntity
  8
0
100
AcDbBlockBegin
  2
*D9
 70
     1
 10
0.0
 20
0.0
 30
0.0
  3
*D9
  1

  0
LINE
  5
7DCE
330
4750
100
AcDbEntity
  8
DIM
 62
     0
 48
0.4
370
    -2
100
AcDbLine
 10
1722.491428467852
 20
618.6384121435525
 30
0.0
 11
1722.491428467852
 21
617.1768323323651
 31
0.0
  0
LINE
  5
7DCF
330
4750
100
AcDbEntity
  8
DIM
 62
     0
 48
0.4
370
    -2
100
AcDbLine
 10
1723.554391893102
 20
618.6384121435525
 30
0.0
 11
1723.554391893102
 21
617.1768323323651
 31
0.0
  0
LINE
  5
7DD0
330
4750
100
AcDbEntity
  8
DIM
 62
     0
 48
0.4
370
    -2
100
AcDbLine
 10
1723.374391893101
 20
617.356832332365
 30
0.0
 11
1722.671428467851
 21
617.356832332365
 31
0.0
  0
LINE
  5
7DD1
330
4750
100
AcDbEntity
  8
DIM
 62
     0
 48
0.4
370
    -2
100
AcDbLine
 10
1722.491428467852
 20
617.356832332365
 30
0.0
 11
1721.669408052915
 21
617.356832332365
 31
0.0
  0
SOLID
  5
7DD2
330
4750
100
AcDbEntity
  8
DIM
 62
     0
 48
0.4
100
AcDbTrace
 10
1723.374391893101
 20
617.3868323323651
 30
0.0
 11
1723.374391893101
 21
617.3268323323651
 31
0.0
 12
1723.554391893102
 22
617.356832332365
 32
0.0
 13
1723.554391893102
 23
617.356832332365
 33
0.0
  0
SOLID
  5
7DD3
330
4750
100
AcDbEntity
  8
DIM
 62
     0
 48
0.4
100
AcDbTrace
 10
1722.671428467851
 20
617.3868323323651
 30
0.0
 11
1722.671428467851
 21
617.3268323323651
 31
0.0
 12
1722.491428467852
 22
617.356832332365
 32
0.0
 13
1722.491428467852
 23
617.356832332365
 33
0.0
  0
MTEXT
  5
7DD4
330
4750
100
AcDbEntity
  8
DIM
 62
     0
 48
0.4
100
AcDbMText
 10
1720.933574719582
 20
617.356832332365
 30
0.0
 40
0.125
 41
0.0
 71
     5
 72
     1
  1
\A1;1.063 [27.00]
 73
     1
 44
1.0
  0
POINT
  5
7DD5
330
4750
100
AcDbEntity
  8
Defpoints
 62
     0
 48
0.4
100
AcDbPoint
 10
1722.491428467852
 20
618.7009121435525
 30
0.0
  0
POINT
  5
7DD6
330
4750
100
AcDbEntity
  8
Defpoints
 62
     0
 48
0.4
100
AcDbPoint
 10
1723.554391893102
 20
618.7009121435525
 30
0.0
  0
POINT
  5
7DD7
330
4750
100
AcDbEntity
  8
Defpoints
 62
     0
 48
0.4
100
AcDbPoint
 10
1723.554391893102
 20
617.356832332365
 30
0.0
  0
ENDBLK
  5
475B
330
4750
100
AcDbEntity
  8
0
100
AcDbBlockEnd
  0
BLOCK
  5
47CA
330
47C4
100
AcDbEntity
  8
0
100
AcDbBlockBegin
  2
*D10
 70
     1
 10
0.0
 20
0.0
 30
0.0
  3
*D10
  1

  0
LINE
  5
7DE2
330
47C4
100
AcDbEntity
  8
DIM
 62
     0
 48
0.4
370
    -2
100
AcDbLine
 10
1724.195042882133
 20
619.0416781201693
 30
0.0
 11
1722.289346279651
 21
619.3820386752064
 31
0.0
  0
MTEXT
  5
7DE3
330
47C4
100
AcDbEntity
  8
DIM
 62
     0
 48
0.4
100
AcDbMText
 10
1725.067780977371
 20
619.0416781201691
 30
0.0
 40
0.125
 41
0.0
 71
     5
 72
     1
  1
\A1;R0.925 [R23.50]
 73
     1
 44
1.0
  0
SOLID
  5
7DE4
330
47C4
100
AcDbEntity
  8
DIM
 62
     0
 48
0.4
100
AcDbTrace
 10
1722.294620863703
 20
619.4115713480125
 30
0.0
 11
1722.284071695599
 21
619.3525060024001
 31
0.0
 12
1722.112150242814
 22
619.4136861795205
 32
0.0
 13
1722.112150242814
 23
619.4136861795205
 33
0.0
  0
POINT
  5
7DE5
330
47C4
100
AcDbEntity
  8
Defpoints
 62
     0
 48
0.4
100
AcDbPoint
 10
1722.112150242814
 20
619.4136861795205
 30
0.0
  0
POINT
  5
7DE6
330
47C4
100
AcDbEntity
  8
Defpoints
 62
     0
 48
0.4
100
AcDbPoint
 10
1723.022910180476
 20
619.2510229531261
 30
0.0
  0
ENDBLK
  5
47CB
330
47C4
100
AcDbEntity
  8
0
100
AcDbBlockEnd
  0
BLOCK
  5
47DE
330
47D4
100
AcDbEntity
  8
0
100
AcDbBlockBegin
  2
*D11
 70
     1
 10
0.0
 20
0.0
 30
0.0
  3
*D11
  1

  0
LINE
  5
7DC4
330
47D4
100
AcDbEntity
  8
DIM
 62
     0
 48
0.4
370
    -2
100
AcDbLine
 10
1722.439110931143
 20
620.7273610437514
 30
0.0
 11
1719.87443183848
 21
620.7273610437514
 31
0.0
  0
LINE
  5
7DC5
330
47D4
100
AcDbEntity
  8
DIM
 62
     0
 48
0.4
370
    -2
100
AcDbLine
 10
1722.439110931143
 20
617.7746848625014
 30
0.0
 11
1719.87443183848
 21
617.7746848625014
 31
0.0
  0
LINE
  5
7DC6
330
47D4
100
AcDbEntity
  8
DIM
 62
     0
 48
0.4
370
    -2
100
AcDbLine
 10
1720.05443183848
 20
620.5473610437515
 30
0.0
 11
1720.05443183848
 21
618.507104682776
 31
0.0
  0
LINE
  5
7DC7
330
47D4
100
AcDbEntity
  8
DIM
 62
     0
 48
0.4
370
    -2
100
AcDbLine
 10
1720.05443183848
 20
617.9546848625014
 30
0.0
 11
1720.05443183848
 21
618.1366284922997
 31
0.0
  0
SOLID
  5
7DC8
330
47D4
100
AcDbEntity
  8
DIM
 62
     0
 48
0.4
100
AcDbTrace
 10
1720.02443183848
 20
620.5473610437515
 30
0.0
 11
1720.08443183848
 21
620.5473610437515
 31
0.0
 12
1720.05443183848
 22
620.7273610437514
 32
0.0
 13
1720.05443183848
 23
620.7273610437514
 33
0.0
  0
SOLID
  5
7DC9
330
47D4
100
AcDbEntity
  8
DIM
 62
     0
 48
0.4
100
AcDbTrace
 10
1720.02443183848
 20
617.9546848625014
 30
0.0
 11
1720.08443183848
 21
617.9546848625014
 31
0.0
 12
1720.05443183848
 22
617.7746848625014
 32
0.0
 13
1720.05443183848
 23
617.7746848625014
 33
0.0
  0
MTEXT
  5
7DCA
330
47D4
100
AcDbEntity
  8
DIM
 62
     0
 48
0.4
100
AcDbMText
 10
1720.05443183848
 20
618.3218665875381
 30
0.0
 40
0.125
 41
0.0
 71
     5
 72
     1
  1
\A1;2.953 [75.00]
 73
     1
 44
1.0
  0
POINT
  5
7DCB
330
47D4
100
AcDbEntity
  8
Defpoints
 62
     0
 48
0.4
100
AcDbPoint
 10
1722.501610931143
 20
620.7273610437514
 30
0.0
  0
POINT
  5
7DCC
330
47D4
100
AcDbEntity
  8
Defpoints
 62
     0
 48
0.4
100
AcDbPoint
 10
1722.501610931143
 20
617.7746848625014
 30
0.0
  0
POINT
  5
7DCD
330
47D4
100
AcDbEntity
  8
Defpoints
 62
     0
 48
0.4
100
AcDbPoint
 10
1720.05443183848
 20
617.7746848625014
 30
0.0
  0
ENDBLK
  5
47DF
330
47D4
100
AcDbEntity
  8
0
100
AcDbBlockEnd
  0
BLOCK
  5
47F8
330
47EC
100
AcDbEntity
  8
0
100
AcDbBlockBegin
  2
*D12
 70
     1
 10
0.0
 20
0.0
 30
0.0
  3
*D12
  1

  0
LINE
  5
7DA5
330
47EC
100
AcDbEntity
  8
DIM
 62
     0
 48
0.4
370
    -2
100
AcDbLine
 10
1722.439110931143
 20
620.7469476187513
 30
0.0
 11
1721.567885172907
 21
620.7469476187513
 31
0.0
  0
LINE
  5
7DA6
330
47EC
100
AcDbEntity
  8
DIM
 62
     0
 48
0.4
370
    -2
100
AcDbLine
 10
1722.439110931143
 20
620.7667300595014
 30
0.0
 11
1721.567885172907
 21
620.7667300595014
 31
0.0
  0
LINE
  5
7DA7
330
47EC
100
AcDbEntity
  8
DIM
 62
     0
 48
0.4
370
    -2
100
AcDbLine
 10
1721.747885172907
 20
620.9467300595014
 30
0.0
 11
1721.747885172907
 21
621.1267300595014
 31
0.0
  0
LINE
  5
7DA8
330
47EC
100
AcDbEntity
  8
DIM
 62
     0
 48
0.4
370
    -2
100
AcDbLine
 10
1721.747885172907
 20
620.5669476187514
 30
0.0
 11
1721.747885172907
 21
620.1934113771784
 31
0.0
  0
LINE
  5
7DA9
330
47EC
100
AcDbEntity
  8
DIM
 62
     0
 48
0.4
370
    -2
100
AcDbLine
 10
1721.747885172907
 20
620.1934113771784
 30
0.0
 11
1721.567885172907
 21
620.1934113771784
 31
0.0
  0
SOLID
  5
7DAA
330
47EC
100
AcDbEntity
  8
DIM
 62
     0
 48
0.4
100
AcDbTrace
 10
1721.717885172907
 20
620.9467300595014
 30
0.0
 11
1721.777885172907
 21
620.9467300595014
 31
0.0
 12
1721.747885172907
 22
620.7667300595014
 32
0.0
 13
1721.747885172907
 23
620.7667300595014
 33
0.0
  0
SOLID
  5
7DAB
330
47EC
100
AcDbEntity
  8
DIM
 62
     0
 48
0.4
100
AcDbTrace
 10
1721.717885172907
 20
620.5669476187514
 30
0.0
 11
1721.777885172907
 21
620.5669476187514
 31
0.0
 12
1721.747885172907
 22
620.7469476187513
 32
0.0
 13
1721.747885172907
 23
620.7469476187513
 33
0.0
  0
MTEXT
  5
7DAC
330
47EC
100
AcDbEntity
  8
DIM
 62
     0
 48
0.4
100
AcDbMText
 10
1720.879670887192
 20
620.1934113771787
 30
0.0
 40
0.125
 41
0.0
 71
     5
 72
     1
  1
\A1;0.020 [0.50]
 73
     1
 44
1.0
  0
POINT
  5
7DAD
330
47EC
100
AcDbEntity
  8
Defpoints
 62
     0
 48
0.4
100
AcDbPoint
 10
1722.501610931143
 20
620.7469476187513
 30
0.0
  0
POINT
  5
7DAE
330
47EC
100
AcDbEntity
  8
Defpoints
 62
     0
 48
0.4
100
AcDbPoint
 10
1722.501610931143
 20
620.7667300595014
 30
0.0
  0
POINT
  5
7DAF
330
47EC
100
AcDbEntity
  8
Defpoints
 62
     0
 48
0.4
100
AcDbPoint
 10
1721.747885172907
 20
620.7667300595014
 30
0.0
  0
ENDBLK
  5
47F9
330
47EC
100
AcDbEntity
  8
0
100
AcDbBlockEnd
  0
BLOCK
  5
484C
330
4840
100
AcDbEntity
  8
0
100
AcDbBlockBegin
  2
*D13
 70
     1
 10
0.0
 20
0.0
 30
0.0
  3
*D13
  1

  0
LINE
  5
7E4D
330
4840
100
AcDbEntity
  8
DIM
 62
     0
 48
0.4
370
    -2
100
AcDbLine
 10
1726.818339248842
 20
619.7859511421263
 30
0.0
 11
1726.818339248842
 21
620.4935120105704
 31
0.0
  0
LINE
  5
7E4E
330
4840
100
AcDbEntity
  8
DIM
 62
     0
 48
0.4
370
    -2
100
AcDbLine
 10
1726.838024248841
 20
619.6636940976504
 30
0.0
 11
1726.838024248841
 21
620.4935120105704
 31
0.0
  0
LINE
  5
7E4F
330
4840
100
AcDbEntity
  8
DIM
 62
     0
 48
0.4
370
    -2
100
AcDbLine
 10
1726.638339248841
 20
620.3135120105705
 30
0.0
 11
1726.458339248842
 21
620.3135120105705
 31
0.0
  0
LINE
  5
7E50
330
4840
100
AcDbEntity
  8
DIM
 62
     0
 48
0.4
370
    -2
100
AcDbLine
 10
1727.018024248842
 20
620.3135120105705
 30
0.0
 11
1727.198024248841
 21
620.3135120105705
 31
0.0
  0
SOLID
  5
7E51
330
4840
100
AcDbEntity
  8
DIM
 62
     0
 48
0.4
100
AcDbTrace
 10
1726.638339248841
 20
620.3435120105705
 30
0.0
 11
1726.638339248841
 21
620.2835120105706
 31
0.0
 12
1726.818339248842
 22
620.3135120105705
 32
0.0
 13
1726.818339248842
 23
620.3135120105705
 33
0.0
  0
SOLID
  5
7E52
330
4840
100
AcDbEntity
  8
DIM
 62
     0
 48
0.4
100
AcDbTrace
 10
1727.018024248842
 20
620.3435120105705
 30
0.0
 11
1727.018024248842
 21
620.2835120105706
 31
0.0
 12
1726.838024248841
 22
620.3135120105705
 32
0.0
 13
1726.838024248841
 23
620.3135120105705
 33
0.0
  0
MTEXT
  5
7E53
330
4840
100
AcDbEntity
  8
DIM
 62
     0
 48
0.4
100
AcDbMText
 10
1727.886238534556
 20
620.3135120105705
 30
0.0
 40
0.125
 41
0.0
 71
     5
 72
     1
  1
\A1;0.020 [0.50]
 73
     1
 44
1.0
  0
POINT
  5
7E54
330
4840
100
AcDbEntity
  8
Defpoints
 62
     0
 48
0.4
100
AcDbPoint
 10
1726.818339248842
 20
619.7234511421263
 30
0.0
  0
POINT
  5
7E55
330
4840
100
AcDbEntity
  8
Defpoints
 62
     0
 48
0.4
100
AcDbPoint
 10
1726.838024248841
 20
619.6011940976505
 30
0.0
  0
POINT
  5
7E56
330
4840
100
AcDbEntity
  8
Defpoints
 62
     0
 48
0.4
100
AcDbPoint
 10
1726.838024248841
 20
620.3135120105705
 30
0.0
  0
ENDBLK
  5
484D
330
4840
100
AcDbEntity
  8
0
100
AcDbBlockEnd
  0
BLOCK
  5
486B
330
4861
100
AcDbEntity
  8
0
100
AcDbBlockBegin
  2
*D14
 70
     1
 10
0.0
 20
0.0
 30
0.0
  3
*D14
  1

  0
LINE
  5
7F33
330
4861
100
AcDbEntity
  8
DIM
 62
     0
 48
0.4
370
    -2
100
AcDbLine
 10
1726.326227044092
 20
619.2794459911964
 30
0.0
 11
1726.326227044092
 21
617.2913331396541
 31
0.0
  0
LINE
  5
7F34
330
4861
100
AcDbEntity
  8
DIM
 62
     0
 48
0.4
370
    -2
100
AcDbLine
 10
1726.740091373842
 20
619.3776935092109
 30
0.0
 11
1726.740091373842
 21
617.2913331396541
 31
0.0
  0
LINE
  5
7F35
330
4861
100
AcDbEntity
  8
DIM
 62
     0
 48
0.4
370
    -2
100
AcDbLine
 10
1726.146227044091
 20
617.471333139654
 30
0.0
 11
1725.966227044092
 21
617.471333139654
 31
0.0
  0
LINE
  5
7F36
330
4861
100
AcDbEntity
  8
DIM
 62
     0
 48
0.4
370
    -2
100
AcDbLine
 10
1726.920091373842
 20
617.471333139654
 30
0.0
 11
1727.209438301582
 21
617.471333139654
 31
0.0
  0
SOLID
  5
7F37
330
4861
100
AcDbEntity
  8
DIM
 62
     0
 48
0.4
100
AcDbTrace
 10
1726.146227044091
 20
617.5013331396541
 30
0.0
 11
1726.146227044091
 21
617.4413331396541
 31
0.0
 12
1726.326227044092
 22
617.471333139654
 32
0.0
 13
1726.326227044092
 23
617.471333139654
 33
0.0
  0
SOLID
  5
7F38
330
4861
100
AcDbEntity
  8
DIM
 62
     0
 48
0.4
100
AcDbTrace
 10
1726.920091373842
 20
617.5013331396541
 30
0.0
 11
1726.920091373842
 21
617.4413331396541
 31
0.0
 12
1726.740091373842
 22
617.471333139654
 32
0.0
 13
1726.740091373842
 23
617.471333139654
 33
0.0
  0
MTEXT
  5
7F39
330
4861
100
AcDbEntity
  8
DIM
 62
     0
 48
0.4
100
AcDbMText
 10
1727.740410190674
 20
617.471333139654
 30
0.0
 40
0.125
 41
0.0
 71
     5
 72
     1
  1
\A1;{\fTahoma|b0|i0|c0|p32;.413 [}10.5{\fTahoma|b0|i0|c0|p32;]}
 73
     1
 44
1.0
  0
POINT
  5
7F3A
330
4861
100
AcDbEntity
  8
Defpoints
 62
     0
 48
0.4
100
AcDbPoint
 10
1726.326227044092
 20
619.3419459911964
 30
0.0
  0
POINT
  5
7F3B
330
4861
100
AcDbEntity
  8
Defpoints
 62
     0
 48
0.4
100
AcDbPoint
 10
1726.740091373842
 20
619.4401935092108
 30
0.0
  0
POINT
  5
7F3C
330
4861
100
AcDbEntity
  8
Defpoints
 62
     0
 48
0.4
100
AcDbPoint
 10
1726.740091373842
 20
617.471333139654
 30
0.0
  0
ENDBLK
  5
486C
330
4861
100
AcDbEntity
  8
0
100
AcDbBlockEnd
  0
BLOCK
  5
4981
330
4975
100
AcDbEntity
  8
0
100
AcDbBlockBegin
  2
*D15
 70
     1
 10
0.0
 20
0.0
 30
0.0
  3
*D15
  1

  0
LINE
  5
802D
330
4975
100
AcDbEntity
  8
DIM
 62
     0
 48
0.4
370
    -2
100
AcDbLine
 10
1729.487567501363
 20
611.2769467734366
 30
0.0
 11
1729.487567501363
 21
610.5110436794985
 31
0.0
  0
LINE
  5
802E
330
4975
100
AcDbEntity
  8
DIM
 62
     0
 48
0.4
370
    -2
100
AcDbLine
 10
1729.644260101362
 20
611.2769467734366
 30
0.0
 11
1729.644260101362
 21
610.5110436794985
 31
0.0
  0
LINE
  5
802F
330
4975
100
AcDbEntity
  8
DIM
 62
     0
 48
0.4
370
    -2
100
AcDbLine
 10
1729.824260101363
 20
610.6910436794985
 30
0.0
 11
1730.004260101362
 21
610.6910436794985
 31
0.0
  0
LINE
  5
8030
330
4975
100
AcDbEntity
  8
DIM
 62
     0
 48
0.4
370
    -2
100
AcDbLine
 10
1729.307567501362
 20
610.6910436794985
 30
0.0
 11
1729.127567501363
 21
610.6910436794985
 31
0.0
  0
SOLID
  5
8031
330
4975
100
AcDbEntity
  8
DIM
 62
     0
 48
0.4
100
AcDbTrace
 10
1729.824260101363
 20
610.7210436794985
 30
0.0
 11
1729.824260101363
 21
610.6610436794985
 31
0.0
 12
1729.644260101362
 22
610.6910436794985
 32
0.0
 13
1729.644260101362
 23
610.6910436794985
 33
0.0
  0
SOLID
  5
8032
330
4975
100
AcDbEntity
  8
DIM
 62
     0
 48
0.4
100
AcDbTrace
 10
1729.307567501362
 20
610.7210436794985
 30
0.0
 11
1729.307567501362
 21
610.6610436794985
 31
0.0
 12
1729.487567501363
 22
610.6910436794985
 32
0.0
 13
1729.487567501363
 23
610.6910436794985
 33
0.0
  0
MTEXT
  5
8033
330
4975
100
AcDbEntity
  8
DIM
 62
     0
 48
0.4
100
AcDbMText
 10
1728.451257977553
 20
610.6910436794985
 30
0.0
 40
0.125
 41
0.0
 71
     5
 72
     1
  1
\A1;0.157 [3.98]
 73
     1
 44
1.0
  0
POINT
  5
8034
330
4975
100
AcDbEntity
  8
Defpoints
 62
     0
 48
0.4
100
AcDbPoint
 10
1729.487567501363
 20
611.3394467734366
 30
0.0
  0
POINT
  5
8035
330
4975
100
AcDbEntity
  8
Defpoints
 62
     0
 48
0.4
100
AcDbPoint
 10
1729.644260101362
 20
611.3394467734366
 30
0.0
  0
POINT
  5
8036
330
4975
100
AcDbEntity
  8
Defpoints
 62
     0
 48
0.4
100
AcDbPoint
 10
1729.644260101362
 20
610.6910436794985
 30
0.0
  0
ENDBLK
  5
4982
330
4975
100
AcDbEntity
  8
0
100
AcDbBlockEnd
  0
BLOCK
  5
4A69
330
4A5F
100
AcDbEntity
  8
0
100
AcDbBlockBegin
  2
*D16
 70
     1
 10
0.0
 20
0.0
 30
0.0
  3
*D16
  1

  0
LINE
  5
8069
330
4A5F
100
AcDbEntity
  8
DIM
 62
     0
 48
0.4
370
    -2
100
AcDbLine
 10
1728.981987783986
 20
614.3354092854366
 30
0.0
 11
1726.684390418033
 21
614.3354092854366
 31
0.0
  0
LINE
  5
806A
330
4A5F
100
AcDbEntity
  8
DIM
 62
     0
 48
0.4
370
    -2
100
AcDbLine
 10
1728.981987783986
 20
611.3039950726865
 30
0.0
 11
1726.684390418033
 21
611.3039950726865
 31
0.0
  0
LINE
  5
806B
330
4A5F
100
AcDbEntity
  8
DIM
 62
     0
 48
0.4
370
    -2
100
AcDbLine
 10
1726.864390418033
 20
614.1554092854367
 30
0.0
 11
1726.864390418033
 21
613.7185754762927
 31
0.0
  0
LINE
  5
806C
330
4A5F
100
AcDbEntity
  8
DIM
 62
     0
 48
0.4
370
    -2
100
AcDbLine
 10
1726.864390418033
 20
611.4839950726865
 30
0.0
 11
1726.864390418033
 21
613.3480992858165
 31
0.0
  0
SOLID
  5
806D
330
4A5F
100
AcDbEntity
  8
DIM
 62
     0
 48
0.4
100
AcDbTrace
 10
1726.834390418033
 20
614.1554092854367
 30
0.0
 11
1726.894390418033
 21
614.1554092854367
 31
0.0
 12
1726.864390418033
 22
614.3354092854366
 32
0.0
 13
1726.864390418033
 23
614.3354092854366
 33
0.0
  0
SOLID
  5
806E
330
4A5F
100
AcDbEntity
  8
DIM
 62
     0
 48
0.4
100
AcDbTrace
 10
1726.834390418033
 20
611.4839950726865
 30
0.0
 11
1726.894390418033
 21
611.4839950726865
 31
0.0
 12
1726.864390418033
 22
611.3039950726865
 32
0.0
 13
1726.864390418033
 23
611.3039950726865
 33
0.0
  0
MTEXT
  5
806F
330
4A5F
100
AcDbEntity
  8
DIM
 62
     0
 48
0.4
100
AcDbMText
 10
1726.864390418033
 20
613.5333373810547
 30
0.0
 40
0.125
 41
0.0
 71
     5
 72
     1
  1
\A1;3.031 [77.00]
 73
     1
 44
1.0
  0
POINT
  5
8070
330
4A5F
100
AcDbEntity
  8
Defpoints
 62
     0
 48
0.4
100
AcDbPoint
 10
1729.044487783986
 20
614.3354092854366
 30
0.0
  0
POINT
  5
8071
330
4A5F
100
AcDbEntity
  8
Defpoints
 62
     0
 48
0.4
100
AcDbPoint
 10
1729.044487783986
 20
611.3039950726865
 30
0.0
  0
POINT
  5
8072
330
4A5F
100
AcDbEntity
  8
Defpoints
 62
     0
 48
0.4
100
AcDbPoint
 10
1726.864390418033
 20
611.3039950726865
 30
0.0
  0
ENDBLK
  5
4A6A
330
4A5F
100
AcDbEntity
  8
0
100
AcDbBlockEnd
  0
BLOCK
  5
4A81
330
4A77
100
AcDbEntity
  8
0
100
AcDbBlockBegin
  2
*D17
 70
     1
 10
0.0
 20
0.0
 30
0.0
  3
*D17
  1

  0
LINE
  5
805F
330
4A77
100
AcDbEntity
  8
DIM
 62
     0
 48
0.4
370
    -2
100
AcDbLine
 10
1728.982114552029
 20
614.2999575846865
 30
0.0
 11
1727.636255233563
 21
614.2999575846865
 31
0.0
  0
LINE
  5
8060
330
4A77
100
AcDbEntity
  8
DIM
 62
     0
 48
0.4
370
    -2
100
AcDbLine
 10
1728.982114552029
 20
611.3394467734366
 30
0.0
 11
1727.636255233563
 21
611.3394467734366
 31
0.0
  0
LINE
  5
8061
330
4A77
100
AcDbEntity
  8
DIM
 62
     0
 48
0.4
370
    -2
100
AcDbLine
 10
1727.816255233563
 20
614.1199575846866
 30
0.0
 11
1727.816255233563
 21
612.709271159002
 31
0.0
  0
LINE
  5
8062
330
4A77
100
AcDbEntity
  8
DIM
 62
     0
 48
0.4
370
    -2
100
AcDbLine
 10
1727.816255233563
 20
611.5194467734365
 30
0.0
 11
1727.816255233563
 21
612.3387949685258
 31
0.0
  0
SOLID
  5
8063
330
4A77
100
AcDbEntity
  8
DIM
 62
     0
 48
0.4
100
AcDbTrace
 10
1727.786255233563
 20
614.1199575846866
 30
0.0
 11
1727.846255233563
 21
614.1199575846866
 31
0.0
 12
1727.816255233563
 22
614.2999575846865
 32
0.0
 13
1727.816255233563
 23
614.2999575846865
 33
0.0
  0
SOLID
  5
8064
330
4A77
100
AcDbEntity
  8
DIM
 62
     0
 48
0.4
100
AcDbTrace
 10
1727.786255233563
 20
611.5194467734365
 30
0.0
 11
1727.846255233563
 21
611.5194467734365
 31
0.0
 12
1727.816255233563
 22
611.3394467734366
 32
0.0
 13
1727.816255233563
 23
611.3394467734366
 33
0.0
  0
MTEXT
  5
8065
330
4A77
100
AcDbEntity
  8
DIM
 62
     0
 48
0.4
100
AcDbMText
 10
1727.816255233563
 20
612.5240330637641
 30
0.0
 40
0.125
 41
0.0
 71
     5
 72
     1
  1
\A1;2.961 [75.20]
 73
     1
 44
1.0
  0
POINT
  5
8066
330
4A77
100
AcDbEntity
  8
Defpoints
 62
     0
 48
0.4
100
AcDbPoint
 10
1729.044614552029
 20
614.2999575846865
 30
0.0
  0
POINT
  5
8067
330
4A77
100
AcDbEntity
  8
Defpoints
 62
     0
 48
0.4
100
AcDbPoint
 10
1729.044614552029
 20
611.3394467734366
 30
0.0
  0
POINT
  5
8068
330
4A77
100
AcDbEntity
  8
Defpoints
 62
     0
 48
0.4
100
AcDbPoint
 10
1727.816255233563
 20
611.3394467734366
 30
0.0
  0
ENDBLK
  5
4A82
330
4A77
100
AcDbEntity
  8
0
100
AcDbBlockEnd
  0
BLOCK
  5
4AC5
330
4ABB
100
AcDbEntity
  8
0
100
AcDbBlockBegin
  2
*D18
 70
     1
 10
0.0
 20
0.0
 30
0.0
  3
*D18
  1

  0
LINE
  5
8055
330
4ABB
100
AcDbEntity
  8
DIM
 62
     0
 48
0.4
370
    -2
100
AcDbLine
 10
1729.03455885678
 20
613.4323129886355
 30
0.0
 11
1729.03455885678
 21
615.0036729944576
 31
0.0
  0
LINE
  5
8056
330
4ABB
100
AcDbEntity
  8
DIM
 62
     0
 48
0.4
370
    -2
100
AcDbLine
 10
1730.09752228203
 20
613.4323129886355
 30
0.0
 11
1730.09752228203
 21
615.0036729944576
 31
0.0
  0
LINE
  5
8057
330
4ABB
100
AcDbEntity
  8
DIM
 62
     0
 48
0.4
370
    -2
100
AcDbLine
 10
1729.91752228203
 20
614.8236729944577
 30
0.0
 11
1729.21455885678
 21
614.8236729944577
 31
0.0
  0
LINE
  5
8058
330
4ABB
100
AcDbEntity
  8
DIM
 62
     0
 48
0.4
370
    -2
100
AcDbLine
 10
1729.03455885678
 20
614.8236729944577
 30
0.0
 11
1728.389870795917
 21
614.8236729944577
 31
0.0
  0
SOLID
  5
8059
330
4ABB
100
AcDbEntity
  8
DIM
 62
     0
 48
0.4
100
AcDbTrace
 10
1729.91752228203
 20
614.8536729944577
 30
0.0
 11
1729.91752228203
 21
614.7936729944578
 31
0.0
 12
1730.09752228203
 22
614.8236729944577
 32
0.0
 13
1730.09752228203
 23
614.8236729944577
 33
0.0
  0
SOLID
  5
805A
330
4ABB
100
AcDbEntity
  8
DIM
 62
     0
 48
0.4
100
AcDbTrace
 10
1729.21455885678
 20
614.8536729944577
 30
0.0
 11
1729.21455885678
 21
614.7936729944578
 31
0.0
 12
1729.03455885678
 22
614.8236729944577
 32
0.0
 13
1729.03455885678
 23
614.8236729944577
 33
0.0
  0
MTEXT
  5
805B
330
4ABB
100
AcDbEntity
  8
DIM
 62
     0
 48
0.4
100
AcDbMText
 10
1727.654037462584
 20
614.8236729944577
 30
0.0
 40
0.125
 41
0.0
 71
     5
 72
     1
  1
\A1;1.063 [27.00]
 73
     1
 44
1.0
  0
POINT
  5
805C
330
4ABB
100
AcDbEntity
  8
Defpoints
 62
     0
 48
0.4
100
AcDbPoint
 10
1729.03455885678
 20
613.3698129886355
 30
0.0
  0
POINT
  5
805D
330
4ABB
100
AcDbEntity
  8
Defpoints
 62
     0
 48
0.4
100
AcDbPoint
 10
1730.09752228203
 20
613.3698129886355
 30
0.0
  0
POINT
  5
805E
330
4ABB
100
AcDbEntity
  8
Defpoints
 62
     0
 48
0.4
100
AcDbPoint
 10
1730.09752228203
 20
614.8236729944577
 30
0.0
  0
ENDBLK
  5
4AC6
330
4ABB
100
AcDbEntity
  8
0
100
AcDbBlockEnd
  0
BLOCK
  5
4ADD
330
4AD3
100
AcDbEntity
  8
0
100
AcDbBlockBegin
  2
*D19
 70
     1
 10
0.0
 20
0.0
 30
0.0
  3
*D19
  1

  0
LINE
  5
8037
330
4AD3
100
AcDbEntity
  8
DIM
 62
     0
 48
0.4
370
    -2
100
AcDbLine
 10
1730.16002228203
 20
613.3698129886355
 30
0.0
 11
1731.320017630757
 21
613.3698129886355
 31
0.0
  0
LINE
  5
8038
330
4AD3
100
AcDbEntity
  8
DIM
 62
     0
 48
0.4
370
    -2
100
AcDbLine
 10
1730.16002228203
 20
612.2695913694876
 30
0.0
 11
1731.320017630757
 21
612.2695913694876
 31
0.0
  0
LINE
  5
8039
330
4AD3
100
AcDbEntity
  8
DIM
 62
     0
 48
0.4
370
    -2
100
AcDbLine
 10
1731.140017630757
 20
613.1898129886356
 30
0.0
 11
1731.140017630757
 21
612.9756595363268
 31
0.0
  0
LINE
  5
803A
330
4AD3
100
AcDbEntity
  8
DIM
 62
     0
 48
0.4
370
    -2
100
AcDbLine
 10
1731.140017630757
 20
612.4495913694876
 30
0.0
 11
1731.140017630757
 21
612.6321269641306
 31
0.0
  0
SOLID
  5
803B
330
4AD3
100
AcDbEntity
  8
DIM
 62
     0
 48
0.4
100
AcDbTrace
 10
1731.110017630757
 20
613.1898129886356
 30
0.0
 11
1731.170017630757
 21
613.1898129886356
 31
0.0
 12
1731.140017630757
 22
613.3698129886355
 32
0.0
 13
1731.140017630757
 23
613.3698129886355
 33
0.0
  0
SOLID
  5
803C
330
4AD3
100
AcDbEntity
  8
DIM
 62
     0
 48
0.4
100
AcDbTrace
 10
1731.110017630757
 20
612.4495913694876
 30
0.0
 11
1731.170017630757
 21
612.4495913694876
 31
0.0
 12
1731.140017630757
 22
612.2695913694876
 32
0.0
 13
1731.140017630757
 23
612.2695913694876
 33
0.0
  0
MTEXT
  5
803D
330
4AD3
100
AcDbEntity
  8
DIM
 62
     0
 48
0.4
100
AcDbMText
 10
1731.140017630757
 20
612.8038932502289
 30
0.0
 40
0.125
 41
0.0
 71
     5
 72
     1
  1
\A1;{\fTahoma|b0|i0|c0|p32;1.102 [}28{\fTahoma|b0|i0|c0|p32;.0]}
 73
     1
 44
1.0
  0
POINT
  5
803E
330
4AD3
100
AcDbEntity
  8
Defpoints
 62
     0
 48
0.4
100
AcDbPoint
 10
1730.09752228203
 20
613.3698129886355
 30
0.0
  0
POINT
  5
803F
330
4AD3
100
AcDbEntity
  8
Defpoints
 62
     0
 48
0.4
100
AcDbPoint
 10
1730.09752228203
 20
612.2695913694876
 30
0.0
  0
POINT
  5
8040
330
4AD3
100
AcDbEntity
  8
Defpoints
 62
     0
 48
0.4
100
AcDbPoint
 10
1731.140017630757
 20
612.2695913694876
 30
0.0
  0
ENDBLK
  5
4ADE
330
4AD3
100
AcDbEntity
  8
0
100
AcDbBlockEnd
  0
BLOCK
  5
4AFA
330
4AEE
100
AcDbEntity
  8
0
100
AcDbBlockBegin
  2
*D20
 70
     1
 10
0.0
 20
0.0
 30
0.0
  3
*D20
  1

  0
LINE
  5
8023
330
4AEE
100
AcDbEntity
  8
DIM
 62
     0
 48
0.4
370
    -2
100
AcDbLine
 10
1733.023641434409
 20
613.1793636874481
 30
0.0
 11
1733.023641434409
 21
610.5336522851469
 31
0.0
  0
LINE
  5
8024
330
4AEE
100
AcDbEntity
  8
DIM
 62
     0
 48
0.4
370
    -2
100
AcDbLine
 10
1732.808189109409
 20
611.2414950726865
 30
0.0
 11
1732.808189109409
 21
610.5336522851469
 31
0.0
  0
LINE
  5
8025
330
4AEE
100
AcDbEntity
  8
DIM
 62
     0
 48
0.4
370
    -2
100
AcDbLine
 10
1733.203641434409
 20
610.7136522851469
 30
0.0
 11
1733.383641434409
 21
610.7136522851469
 31
0.0
  0
LINE
  5
8026
330
4AEE
100
AcDbEntity
  8
DIM
 62
     0
 48
0.4
370
    -2
100
AcDbLine
 10
1732.628189109409
 20
610.7136522851469
 30
0.0
 11
1732.448189109409
 21
610.7136522851469
 31
0.0
  0
SOLID
  5
8027
330
4AEE
100
AcDbEntity
  8
DIM
 62
     0
 48
0.4
100
AcDbTrace
 10
1733.203641434409
 20
610.7436522851469
 30
0.0
 11
1733.203641434409
 21
610.683652285147
 31
0.0
 12
1733.023641434409
 22
610.7136522851469
 32
0.0
 13
1733.023641434409
 23
610.7136522851469
 33
0.0
  0
SOLID
  5
8028
330
4AEE
100
AcDbEntity
  8
DIM
 62
     0
 48
0.4
100
AcDbTrace
 10
1732.628189109409
 20
610.7436522851469
 30
0.0
 11
1732.628189109409
 21
610.683652285147
 31
0.0
 12
1732.808189109409
 22
610.7136522851469
 32
0.0
 13
1732.808189109409
 23
610.7136522851469
 33
0.0
  0
MTEXT
  5
8029
330
4AEE
100
AcDbEntity
  8
DIM
 62
     0
 48
0.4
100
AcDbMText
 10
1731.964836267937
 20
610.7136522851469
 30
0.0
 40
0.125
 41
0.0
 71
     5
 72
     1
  1
\A1;{\fTahoma|b0|i0|c0|p32;.217 [}5.5{\fTahoma|b0|i0|c0|p32;]}
 73
     1
 44
1.0
  0
POINT
  5
802A
330
4AEE
100
AcDbEntity
  8
Defpoints
 62
     0
 48
0.4
100
AcDbPoint
 10
1733.023641434409
 20
613.2418636874481
 30
0.0
  0
POINT
  5
802B
330
4AEE
100
AcDbEntity
  8
Defpoints
 62
     0
 48
0.4
100
AcDbPoint
 10
1732.808189109409
 20
611.3039950726865
 30
0.0
  0
POINT
  5
802C
330
4AEE
100
AcDbEntity
  8
Defpoints
 62
     0
 48
0.4
100
AcDbPoint
 10
1732.808189109409
 20
610.7136522851469
 30
0.0
  0
ENDBLK
  5
4AFB
330
4AEE
100
AcDbEntity
  8
0
100
AcDbBlockEnd
  0
BLOCK
  5
4B46
330
4B3C
100
AcDbEntity
  8
0
100
AcDbBlockBegin
  2
*D21
 70
     1
 10
0.0
 20
0.0
 30
0.0
  3
*D21
  1

  0
LINE
  5
800F
330
4B3C
100
AcDbEntity
  8
DIM
 62
     0
 48
0.4
370
    -2
100
AcDbLine
 10
1732.808189109409
 20
611.2414950726865
 30
0.0
 11
1732.808189109409
 21
609.5011448489653
 31
0.0
  0
LINE
  5
8010
330
4B3C
100
AcDbEntity
  8
DIM
 62
     0
 48
0.4
370
    -2
100
AcDbLine
 10
1733.319986314159
 20
612.2847739900615
 30
0.0
 11
1733.319986314159
 21
609.5011448489653
 31
0.0
  0
LINE
  5
8011
330
4B3C
100
AcDbEntity
  8
DIM
 62
     0
 48
0.4
370
    -2
100
AcDbLine
 10
1733.499986314159
 20
609.6811448489653
 30
0.0
 11
1733.679986314159
 21
609.6811448489653
 31
0.0
  0
LINE
  5
8012
330
4B3C
100
AcDbEntity
  8
DIM
 62
     0
 48
0.4
370
    -2
100
AcDbLine
 10
1732.628189109409
 20
609.6811448489653
 30
0.0
 11
1732.448189109409
 21
609.6811448489653
 31
0.0
  0
SOLID
  5
8013
330
4B3C
100
AcDbEntity
  8
DIM
 62
     0
 48
0.4
100
AcDbTrace
 10
1733.499986314159
 20
609.7111448489653
 30
0.0
 11
1733.499986314159
 21
609.6511448489653
 31
0.0
 12
1733.319986314159
 22
609.6811448489653
 32
0.0
 13
1733.319986314159
 23
609.6811448489653
 33
0.0
  0
SOLID
  5
8014
330
4B3C
100
AcDbEntity
  8
DIM
 62
     0
 48
0.4
100
AcDbTrace
 10
1732.628189109409
 20
609.7111448489653
 30
0.0
 11
1732.628189109409
 21
609.6511448489653
 31
0.0
 12
1732.808189109409
 22
609.6811448489653
 32
0.0
 13
1732.808189109409
 23
609.6811448489653
 33
0.0
  0
MTEXT
  5
8015
330
4B3C
100
AcDbEntity
  8
DIM
 62
     0
 48
0.4
100
AcDbMText
 10
1731.724260537981
 20
609.6811448489653
 30
0.0
 40
0.125
 41
0.0
 71
     5
 72
     1
  1
\A1;0.512 [13.00]
 73
     1
 44
1.0
  0
POINT
  5
8016
330
4B3C
100
AcDbEntity
  8
Defpoints
 62
     0
 48
0.4
100
AcDbPoint
 10
1732.808189109409
 20
611.3039950726865
 30
0.0
  0
POINT
  5
8017
330
4B3C
100
AcDbEntity
  8
Defpoints
 62
     0
 48
0.4
100
AcDbPoint
 10
1733.319986314159
 20
612.3472739900615
 30
0.0
  0
POINT
  5
8018
330
4B3C
100
AcDbEntity
  8
Defpoints
 62
     0
 48
0.4
100
AcDbPoint
 10
1733.319986314159
 20
609.6811448489653
 30
0.0
  0
ENDBLK
  5
4B47
330
4B3C
100
AcDbEntity
  8
0
100
AcDbBlockEnd
  0
BLOCK
  5
4B5E
330
4B54
100
AcDbEntity
  8
0
100
AcDbBlockBegin
  2
*D22
 70
     1
 10
0.0
 20
0.0
 30
0.0
  3
*D22
  1

  0
LINE
  5
8019
330
4B54
100
AcDbEntity
  8
DIM
 62
     0
 48
0.4
370
    -2
100
AcDbLine
 10
1732.808189109409
 20
611.2414950726865
 30
0.0
 11
1732.808189109409
 21
610.069603752157
 31
0.0
  0
LINE
  5
801A
330
4B54
100
AcDbEntity
  8
DIM
 62
     0
 48
0.4
370
    -2
100
AcDbLine
 10
1733.241633644495
 20
613.2272799790615
 30
0.0
 11
1733.241633644495
 21
610.069603752157
 31
0.0
  0
LINE
  5
801B
330
4B54
100
AcDbEntity
  8
DIM
 62
     0
 48
0.4
370
    -2
100
AcDbLine
 10
1733.421633644494
 20
610.249603752157
 30
0.0
 11
1733.601633644495
 21
610.249603752157
 31
0.0
  0
LINE
  5
801C
330
4B54
100
AcDbEntity
  8
DIM
 62
     0
 48
0.4
370
    -2
100
AcDbLine
 10
1732.628189109409
 20
610.249603752157
 30
0.0
 11
1732.448189109409
 21
610.249603752157
 31
0.0
  0
SOLID
  5
801D
330
4B54
100
AcDbEntity
  8
DIM
 62
     0
 48
0.4
100
AcDbTrace
 10
1733.421633644494
 20
610.2796037521569
 30
0.0
 11
1733.421633644494
 21
610.219603752157
 31
0.0
 12
1733.241633644495
 22
610.249603752157
 32
0.0
 13
1733.241633644495
 23
610.249603752157
 33
0.0
  0
SOLID
  5
801E
330
4B54
100
AcDbEntity
  8
DIM
 62
     0
 48
0.4
100
AcDbTrace
 10
1732.628189109409
 20
610.2796037521569
 30
0.0
 11
1732.628189109409
 21
610.219603752157
 31
0.0
 12
1732.808189109409
 22
610.249603752157
 32
0.0
 13
1732.808189109409
 23
610.249603752157
 33
0.0
  0
MTEXT
  5
801F
330
4B54
100
AcDbEntity
  8
DIM
 62
     0
 48
0.4
100
AcDbMText
 10
1731.945456051109
 20
610.249603752157
 30
0.0
 40
0.125
 41
0.0
 71
     5
 72
     1
  1
\A1;{\fTahoma|b0|i0|c0|p32;.433 [}11{\fTahoma|b0|i0|c0|p32;.0]}
 73
     1
 44
1.0
  0
POINT
  5
8020
330
4B54
100
AcDbEntity
  8
Defpoints
 62
     0
 48
0.4
100
AcDbPoint
 10
1732.808189109409
 20
611.3039950726865
 30
0.0
  0
POINT
  5
8021
330
4B54
100
AcDbEntity
  8
Defpoints
 62
     0
 48
0.4
100
AcDbPoint
 10
1733.241633644495
 20
613.2897799790615
 30
0.0
  0
POINT
  5
8022
330
4B54
100
AcDbEntity
  8
Defpoints
 62
     0
 48
0.4
100
AcDbPoint
 10
1733.241633644495
 20
610.249603752157
 30
0.0
  0
ENDBLK
  5
4B5F
330
4B54
100
AcDbEntity
  8
0
100
AcDbBlockEnd
  0
BLOCK
  5
4C47
330
4C3D
100
AcDbEntity
  8
0
100
AcDbBlockBegin
  2
*D23
 70
     1
 10
0.0
 20
0.0
 30
0.0
  3
*D23
  1

  0
LINE
  5
7DF2
330
4C3D
100
AcDbEntity
  8
DIM
 62
     0
 48
0.4
370
    -2
100
AcDbLine
 10
1726.326227044092
 20
617.6728158467514
 30
0.0
 11
1726.326227044092
 21
616.7799369205148
 31
0.0
  0
LINE
  5
7DF3
330
4C3D
100
AcDbEntity
  8
DIM
 62
     0
 48
0.4
370
    -2
100
AcDbLine
 10
1726.838024248841
 20
618.7160947641265
 30
0.0
 11
1726.838024248841
 21
616.7799369205148
 31
0.0
  0
LINE
  5
7DF4
330
4C3D
100
AcDbEntity
  8
DIM
 62
     0
 48
0.4
370
    -2
100
AcDbLine
 10
1727.018024248842
 20
616.9599369205148
 30
0.0
 11
1727.198024248841
 21
616.9599369205148
 31
0.0
  0
LINE
  5
7DF5
330
4C3D
100
AcDbEntity
  8
DIM
 62
     0
 48
0.4
370
    -2
100
AcDbLine
 10
1726.146227044091
 20
616.9599369205148
 30
0.0
 11
1725.966227044092
 21
616.9599369205148
 31
0.0
  0
SOLID
  5
7DF6
330
4C3D
100
AcDbEntity
  8
DIM
 62
     0
 48
0.4
100
AcDbTrace
 10
1727.018024248842
 20
616.9899369205147
 30
0.0
 11
1727.018024248842
 21
616.9299369205148
 31
0.0
 12
1726.838024248841
 22
616.9599369205148
 32
0.0
 13
1726.838024248841
 23
616.9599369205148
 33
0.0
  0
SOLID
  5
7DF7
330
4C3D
100
AcDbEntity
  8
DIM
 62
     0
 48
0.4
100
AcDbTrace
 10
1726.146227044091
 20
616.9899369205147
 30
0.0
 11
1726.146227044091
 21
616.9299369205148
 31
0.0
 12
1726.326227044092
 22
616.9599369205148
 32
0.0
 13
1726.326227044092
 23
616.9599369205148
 33
0.0
  0
MTEXT
  5
7DF8
330
4C3D
100
AcDbEntity
  8
DIM
 62
     0
 48
0.4
100
AcDbMText
 10
1725.242298472663
 20
616.9599369205148
 30
0.0
 40
0.125
 41
0.0
 71
     5
 72
     1
  1
\A1;0.512 [13.00]
 73
     1
 44
1.0
  0
POINT
  5
7DF9
330
4C3D
100
AcDbEntity
  8
Defpoints
 62
     0
 48
0.4
100
AcDbPoint
 10
1726.326227044092
 20
617.7353158467513
 30
0.0
  0
POINT
  5
7DFA
330
4C3D
100
AcDbEntity
  8
Defpoints
 62
     0
 48
0.4
100
AcDbPoint
 10
1726.838024248841
 20
618.7785947641265
 30
0.0
  0
POINT
  5
7DFB
330
4C3D
100
AcDbEntity
  8
Defpoints
 62
     0
 48
0.4
100
AcDbPoint
 10
1726.838024248841
 20
616.9599369205148
 30
0.0
  0
ENDBLK
  5
4C48
330
4C3D
100
AcDbEntity
  8
0
100
AcDbBlockEnd
  0
BLOCK
  5
5E11
330
5E05
100
AcDbEntity
  8
0
 48
0.4
100
AcDbBlockBegin
  2
*D24
 70
     1
 10
0.0
 20
0.0
 30
0.0
  3
*D24
  1

  0
LINE
  5
7E30
330
5E05
100
AcDbEntity
  8
DIM
 62
     0
 48
0.4
370
    -2
100
AcDbLine
 10
1723.192882806892
 20
615.3672443832152
 30
0.0
 11
1724.598584602711
 21
615.3672443832152
 31
0.0
  0
LINE
  5
7E31
330
5E05
100
AcDbEntity
  8
DIM
 62
     0
 48
0.4
370
    -2
100
AcDbLine
 10
1724.010582050602
 20
615.3476578082153
 30
0.0
 11
1724.598584602711
 21
615.3476578082153
 31
0.0
  0
LINE
  5
7E32
330
5E05
100
AcDbEntity
  8
DIM
 62
     0
 48
0.4
370
    -2
100
AcDbLine
 10
1724.418584602711
 20
615.5472443832152
 30
0.0
 11
1724.418584602711
 21
615.7272443832153
 31
0.0
  0
LINE
  5
7E33
330
5E05
100
AcDbEntity
  8
DIM
 62
     0
 48
0.4
370
    -2
100
AcDbLine
 10
1724.418584602711
 20
615.1676578082153
 30
0.0
 11
1724.418584602711
 21
614.3069256481293
 31
0.0
  0
LINE
  5
7E34
330
5E05
100
AcDbEntity
  8
DIM
 62
     0
 48
0.4
370
    -2
100
AcDbLine
 10
1724.418584602711
 20
614.3069256481293
 30
0.0
 11
1724.23858460271
 21
614.3069256481293
 31
0.0
  0
SOLID
  5
7E35
330
5E05
100
AcDbEntity
  8
DIM
 62
     0
 48
0.4
100
AcDbTrace
 10
1724.388584602711
 20
615.5472443832152
 30
0.0
 11
1724.448584602711
 21
615.5472443832152
 31
0.0
 12
1724.418584602711
 22
615.3672443832152
 32
0.0
 13
1724.418584602711
 23
615.3672443832152
 33
0.0
  0
SOLID
  5
7E36
330
5E05
100
AcDbEntity
  8
DIM
 62
     0
 48
0.4
100
AcDbTrace
 10
1724.388584602711
 20
615.1676578082153
 30
0.0
 11
1724.448584602711
 21
615.1676578082153
 31
0.0
 12
1724.418584602711
 22
615.3476578082153
 32
0.0
 13
1724.418584602711
 23
615.3476578082153
 33
0.0
  0
MTEXT
  5
7E37
330
5E05
100
AcDbEntity
  8
DIM
 62
     0
 48
0.4
100
AcDbMText
 10
1723.550370316996
 20
614.3069256481295
 30
0.0
 40
0.125
 41
0.0
 71
     5
 72
     1
  1
\A1;0.020 [0.50]
 73
     1
 44
1.0
  0
POINT
  5
7E38
330
5E05
100
AcDbEntity
  8
Defpoints
 62
     0
 48
0.4
100
AcDbPoint
 10
1723.130382806892
 20
615.3672443832152
 30
0.0
  0
POINT
  5
7E39
330
5E05
100
AcDbEntity
  8
Defpoints
 62
     0
 48
0.4
100
AcDbPoint
 10
1723.948082050602
 20
615.3476578082153
 30
0.0
  0
POINT
  5
7E3A
330
5E05
100
AcDbEntity
  8
Defpoints
 62
     0
 48
0.4
100
AcDbPoint
 10
1724.418584602711
 20
615.3476578082153
 30
0.0
  0
ENDBLK
  5
5E12
330
5E05
100
AcDbEntity
  8
0
 48
0.4
100
AcDbBlockEnd
  0
BLOCK
  5
5E2D
330
5E21
100
AcDbEntity
  8
0
 48
0.4
100
AcDbBlockBegin
  2
*D25
 70
     1
 10
0.0
 20
0.0
 30
0.0
  3
*D25
  1

  0
LINE
  5
7E1A
330
5E21
100
AcDbEntity
  8
DIM
 62
     0
 48
0.4
370
    -2
100
AcDbLine
 10
1722.852430481892
 20
615.3672443832152
 30
0.0
 11
1720.950848840969
 21
615.3672443832152
 31
0.0
  0
LINE
  5
7E1B
330
5E21
100
AcDbEntity
  8
DIM
 62
     0
 48
0.4
370
    -2
100
AcDbLine
 10
1721.995742526559
 20
615.2771461382153
 30
0.0
 11
1720.950848840969
 21
615.2771461382153
 31
0.0
  0
LINE
  5
7E1C
330
5E21
100
AcDbEntity
  8
DIM
 62
     0
 48
0.4
370
    -2
100
AcDbLine
 10
1721.130848840969
 20
615.5472443832152
 30
0.0
 11
1721.130848840969
 21
615.7272443832153
 31
0.0
  0
LINE
  5
7E1D
330
5E21
100
AcDbEntity
  8
DIM
 62
     0
 48
0.4
370
    -2
100
AcDbLine
 10
1721.130848840969
 20
615.0971461382154
 30
0.0
 11
1721.130848840969
 21
614.7142535457819
 31
0.0
  0
LINE
  5
7E1E
330
5E21
100
AcDbEntity
  8
DIM
 62
     0
 48
0.4
370
    -2
100
AcDbLine
 10
1721.130848840969
 20
614.7142535457819
 30
0.0
 11
1720.950848840969
 21
614.7142535457819
 31
0.0
  0
SOLID
  5
7E1F
330
5E21
100
AcDbEntity
  8
DIM
 62
     0
 48
0.4
100
AcDbTrace
 10
1721.100848840969
 20
615.5472443832152
 30
0.0
 11
1721.160848840969
 21
615.5472443832152
 31
0.0
 12
1721.130848840969
 22
615.3672443832152
 32
0.0
 13
1721.130848840969
 23
615.3672443832152
 33
0.0
  0
SOLID
  5
7E20
330
5E21
100
AcDbEntity
  8
DIM
 62
     0
 48
0.4
100
AcDbTrace
 10
1721.100848840969
 20
615.0971461382154
 30
0.0
 11
1721.160848840969
 21
615.0971461382154
 31
0.0
 12
1721.130848840969
 22
615.2771461382153
 32
0.0
 13
1721.130848840969
 23
615.2771461382153
 33
0.0
  0
MTEXT
  5
7E21
330
5E21
100
AcDbEntity
  8
DIM
 62
     0
 48
0.4
100
AcDbMText
 10
1720.262634555254
 20
614.7142535457821
 30
0.0
 40
0.125
 41
0.0
 71
     5
 72
     1
  1
\A1;0.090 [2.29]
 73
     1
 44
1.0
  0
POINT
  5
7E22
330
5E21
100
AcDbEntity
  8
Defpoints
 62
     0
 48
0.4
100
AcDbPoint
 10
1722.914930481892
 20
615.3672443832152
 30
0.0
  0
POINT
  5
7E23
330
5E21
100
AcDbEntity
  8
Defpoints
 62
     0
 48
0.4
100
AcDbPoint
 10
1722.058242526559
 20
615.2771461382153
 30
0.0
  0
POINT
  5
7E24
330
5E21
100
AcDbEntity
  8
Defpoints
 62
     0
 48
0.4
100
AcDbPoint
 10
1721.130848840969
 20
615.2771461382153
 30
0.0
  0
ENDBLK
  5
5E2E
330
5E21
100
AcDbEntity
  8
0
 48
0.4
100
AcDbBlockEnd
  0
BLOCK
  5
5E49
330
5E3D
100
AcDbEntity
  8
0
 48
0.4
100
AcDbBlockBegin
  2
*D26
 70
     1
 10
0.0
 20
0.0
 30
0.0
  3
*D26
  1

  0
LINE
  5
7E25
330
5E3D
100
AcDbEntity
  8
DIM
 62
     0
 48
0.4
370
    -2
100
AcDbLine
 10
1722.015398199267
 20
615.2967327132152
 30
0.0
 11
1721.372004969651
 21
615.2967327132152
 31
0.0
  0
LINE
  5
7E26
330
5E3D
100
AcDbEntity
  8
DIM
 62
     0
 48
0.4
370
    -2
100
AcDbLine
 10
1721.995742526559
 20
615.2771461382153
 30
0.0
 11
1721.372004969651
 21
615.2771461382153
 31
0.0
  0
LINE
  5
7E27
330
5E3D
100
AcDbEntity
  8
DIM
 62
     0
 48
0.4
370
    -2
100
AcDbLine
 10
1721.552004969651
 20
615.4767327132153
 30
0.0
 11
1721.552004969651
 21
615.6567327132153
 31
0.0
  0
LINE
  5
7E28
330
5E3D
100
AcDbEntity
  8
DIM
 62
     0
 48
0.4
370
    -2
100
AcDbLine
 10
1721.552004969651
 20
615.0971461382154
 30
0.0
 11
1721.552004969651
 21
614.0082185774774
 31
0.0
  0
LINE
  5
7E29
330
5E3D
100
AcDbEntity
  8
DIM
 62
     0
 48
0.4
370
    -2
100
AcDbLine
 10
1721.552004969651
 20
614.0082185774774
 30
0.0
 11
1721.372004969651
 21
614.0082185774774
 31
0.0
  0
SOLID
  5
7E2A
330
5E3D
100
AcDbEntity
  8
DIM
 62
     0
 48
0.4
100
AcDbTrace
 10
1721.522004969651
 20
615.4767327132153
 30
0.0
 11
1721.582004969651
 21
615.4767327132153
 31
0.0
 12
1721.552004969651
 22
615.2967327132152
 32
0.0
 13
1721.552004969651
 23
615.2967327132152
 33
0.0
  0
SOLID
  5
7E2B
330
5E3D
100
AcDbEntity
  8
DIM
 62
     0
 48
0.4
100
AcDbTrace
 10
1721.522004969651
 20
615.0971461382154
 30
0.0
 11
1721.582004969651
 21
615.0971461382154
 31
0.0
 12
1721.552004969651
 22
615.2771461382153
 32
0.0
 13
1721.552004969651
 23
615.2771461382153
 33
0.0
  0
MTEXT
  5
7E2C
330
5E3D
100
AcDbEntity
  8
DIM
 62
     0
 48
0.4
100
AcDbMText
 10
1720.683790683937
 20
614.0082185774777
 30
0.0
 40
0.125
 41
0.0
 71
     5
 72
     1
  1
\A1;0.020 [0.50]
 73
     1
 44
1.0
  0
POINT
  5
7E2D
330
5E3D
100
AcDbEntity
  8
Defpoints
 62
     0
 48
0.4
100
AcDbPoint
 10
1722.077898199267
 20
615.2967327132152
 30
0.0
  0
POINT
  5
7E2E
330
5E3D
100
AcDbEntity
  8
Defpoints
 62
     0
 48
0.4
100
AcDbPoint
 10
1722.058242526559
 20
615.2771461382153
 30
0.0
  0
POINT
  5
7E2F
330
5E3D
100
AcDbEntity
  8
Defpoints
 62
     0
 48
0.4
100
AcDbPoint
 10
1721.552004969651
 20
615.2771461382153
 30
0.0
  0
ENDBLK
  5
5E4A
330
5E3D
100
AcDbEntity
  8
0
 48
0.4
100
AcDbBlockEnd
  0
BLOCK
  5
615F
330
615B
100
AcDbEntity
  8
0
100
AcDbBlockBegin
  2
A$C68FB25C3
 70
     0
 10
0.0
 20
0.0
 30
0.0
  3
A$C68FB25C3
  1

  0
TEXT
  5
615C
330
615B
100
AcDbEntity
  8
0
100
AcDbText
 10
1441.117283403373
 20
14.63643563368543
 30
0.0
 40
3.0
  1
2008/2
100
AcDbText
  0
TEXT
  5
615D
330
615B
100
AcDbEntity
  8
0
100
AcDbText
 10
1421.369154564725
 20
14.63643563368543
 30
0.0
 40
3.0
  1
G1910T
100
AcDbText
  0
TEXT
  5
615E
330
615B
100
AcDbEntity
  8
0
100
AcDbText
 10
1421.369154564725
 20
8.814589702497073
 30
0.0
 40
3.0
  1
115X83X19.5mm
100
AcDbText
  0
ENDBLK
  5
6160
330
615B
100
AcDbEntity
  8
0
100
AcDbBlockEnd
  0
BLOCK
  5
6F5C
330
6F52
100
AcDbEntity
  8
0
 48
0.4
100
AcDbBlockBegin
  2
*D28
 70
     1
 10
0.0
 20
0.0
 30
0.0
  3
*D28
  1

  0
LINE
  5
7DBA
330
6F52
100
AcDbEntity
  8
DIM
 62
     0
 48
0.4
370
    -2
100
AcDbLine
 10
1722.960283412434
 20
620.7667300595014
 30
0.0
 11
1719.11716084495
 21
620.7667300595014
 31
0.0
  0
LINE
  5
7DBB
330
6F52
100
AcDbEntity
  8
DIM
 62
     0
 48
0.4
370
    -2
100
AcDbLine
 10
1722.960283412434
 20
617.7353158467513
 30
0.0
 11
1719.11716084495
 21
617.7353158467513
 31
0.0
  0
LINE
  5
7DBC
330
6F52
100
AcDbEntity
  8
DIM
 62
     0
 48
0.4
370
    -2
100
AcDbLine
 10
1719.29716084495
 20
620.5867300595015
 30
0.0
 11
1719.29716084495
 21
619.3417515966595
 31
0.0
  0
LINE
  5
7DBD
330
6F52
100
AcDbEntity
  8
DIM
 62
     0
 48
0.4
370
    -2
100
AcDbLine
 10
1719.29716084495
 20
617.9153158467514
 30
0.0
 11
1719.29716084495
 21
618.9712754061834
 31
0.0
  0
SOLID
  5
7DBE
330
6F52
100
AcDbEntity
  8
DIM
 62
     0
 48
0.4
100
AcDbTrace
 10
1719.267160844951
 20
620.5867300595015
 30
0.0
 11
1719.32716084495
 21
620.5867300595015
 31
0.0
 12
1719.29716084495
 22
620.7667300595014
 32
0.0
 13
1719.29716084495
 23
620.7667300595014
 33
0.0
  0
SOLID
  5
7DBF
330
6F52
100
AcDbEntity
  8
DIM
 62
     0
 48
0.4
100
AcDbTrace
 10
1719.267160844951
 20
617.9153158467514
 30
0.0
 11
1719.32716084495
 21
617.9153158467514
 31
0.0
 12
1719.29716084495
 22
617.7353158467513
 32
0.0
 13
1719.29716084495
 23
617.7353158467513
 33
0.0
  0
MTEXT
  5
7DC0
330
6F52
100
AcDbEntity
  8
DIM
 62
     0
 48
0.4
100
AcDbMText
 10
1719.29716084495
 20
619.1565135014217
 30
0.0
 40
0.125
 41
0.0
 71
     5
 72
     1
  1
\A1;3.031 [77.00]
 73
     1
 44
1.0
  0
POINT
  5
7DC1
330
6F52
100
AcDbEntity
  8
Defpoints
 62
     0
 48
0.4
100
AcDbPoint
 10
1723.022783412434
 20
620.7667300595014
 30
0.0
  0
POINT
  5
7DC2
330
6F52
100
AcDbEntity
  8
Defpoints
 62
     0
 48
0.4
100
AcDbPoint
 10
1723.022783412434
 20
617.7353158467513
 30
0.0
  0
POINT
  5
7DC3
330
6F52
100
AcDbEntity
  8
Defpoints
 62
     0
 48
0.4
100
AcDbPoint
 10
1719.29716084495
 20
617.7353158467513
 30
0.0
  0
ENDBLK
  5
6F5D
330
6F52
100
AcDbEntity
  8
0
 48
0.4
100
AcDbBlockEnd
  0
BLOCK
  5
6FDE
330
6FD4
100
AcDbEntity
  8
0
 48
0.4
100
AcDbBlockBegin
  2
*D29
 70
     1
 10
0.0
 20
0.0
 30
0.0
  3
*D29
  1

  0
LINE
  5
7E69
330
6FD4
100
AcDbEntity
  8
DIM
 62
     0
 48
0.4
370
    -2
100
AcDbLine
 10
1728.987388358919
 20
619.8706327807862
 30
0.0
 11
1728.987388358919
 21
622.175339480531
 31
0.0
  0
LINE
  5
7E6A
330
6FD4
100
AcDbEntity
  8
DIM
 62
     0
 48
0.4
370
    -2
100
AcDbLine
 10
1730.562148988919
 20
619.8706327807862
 30
0.0
 11
1730.562148988919
 21
622.175339480531
 31
0.0
  0
LINE
  5
7E6B
330
6FD4
100
AcDbEntity
  8
DIM
 62
     0
 48
0.4
370
    -2
100
AcDbLine
 10
1728.807388358919
 20
621.9953394805311
 30
0.0
 11
1728.627388358918
 21
621.9953394805311
 31
0.0
  0
LINE
  5
7E6C
330
6FD4
100
AcDbEntity
  8
DIM
 62
     0
 48
0.4
370
    -2
100
AcDbLine
 10
1730.742148988919
 20
621.9953394805311
 30
0.0
 11
1730.922148988919
 21
621.9953394805311
 31
0.0
  0
SOLID
  5
7E6D
330
6FD4
100
AcDbEntity
  8
DIM
 62
     0
 48
0.4
100
AcDbTrace
 10
1728.807388358919
 20
622.0253394805311
 30
0.0
 11
1728.807388358919
 21
621.9653394805312
 31
0.0
 12
1728.987388358919
 22
621.9953394805311
 32
0.0
 13
1728.987388358919
 23
621.9953394805311
 33
0.0
  0
SOLID
  5
7E6E
330
6FD4
100
AcDbEntity
  8
DIM
 62
     0
 48
0.4
100
AcDbTrace
 10
1730.742148988919
 20
622.0253394805311
 30
0.0
 11
1730.742148988919
 21
621.9653394805312
 31
0.0
 12
1730.562148988919
 22
621.9953394805311
 32
0.0
 13
1730.562148988919
 23
621.9953394805311
 33
0.0
  0
MTEXT
  5
7E6F
330
6FD4
100
AcDbEntity
  8
DIM
 62
     0
 48
0.4
100
AcDbMText
 10
1729.789193636868
 20
621.9953394805311
 30
0.0
 40
0.125
 41
0.0
 71
     5
 72
     1
  1
\A1;1.575 [40.00]
 73
     1
 44
1.0
  0
POINT
  5
7E70
330
6FD4
100
AcDbEntity
  8
Defpoints
 62
     0
 48
0.4
100
AcDbPoint
 10
1728.987388358919
 20
619.8081327807861
 30
0.0
  0
POINT
  5
7E71
330
6FD4
100
AcDbEntity
  8
Defpoints
 62
     0
 48
0.4
100
AcDbPoint
 10
1730.562148988919
 20
619.8081327807861
 30
0.0
  0
POINT
  5
7E72
330
6FD4
100
AcDbEntity
  8
Defpoints
 62
     0
 48
0.4
100
AcDbPoint
 10
1730.562148988919
 20
621.9953394805311
 30
0.0
  0
ENDBLK
  5
6FDF
330
6FD4
100
AcDbEntity
  8
0
 48
0.4
100
AcDbBlockEnd
  0
BLOCK
  5
6FF4
330
6FEA
100
AcDbEntity
  8
0
 48
0.4
100
AcDbBlockBegin
  2
*D30
 70
     1
 10
0.0
 20
0.0
 30
0.0
  3
*D30
  1

  0
LINE
  5
7DFC
330
6FEA
100
AcDbEntity
  8
DIM
 62
     0
 48
0.4
370
    -2
100
AcDbLine
 10
1726.255715374092
 20
617.8233239137337
 30
0.0
 11
1726.255715374092
 21
616.1308579496396
 31
0.0
  0
LINE
  5
7DFD
330
6FEA
100
AcDbEntity
  8
DIM
 62
     0
 48
0.4
370
    -2
100
AcDbLine
 10
1726.838024248841
 20
618.2658480961086
 30
0.0
 11
1726.838024248841
 21
616.1308579496396
 31
0.0
  0
LINE
  5
7DFE
330
6FEA
100
AcDbEntity
  8
DIM
 62
     0
 48
0.4
370
    -2
100
AcDbLine
 10
1726.658024248842
 20
616.3108579496396
 30
0.0
 11
1726.435715374092
 21
616.3108579496396
 31
0.0
  0
LINE
  5
7DFF
330
6FEA
100
AcDbEntity
  8
DIM
 62
     0
 48
0.4
370
    -2
100
AcDbLine
 10
1726.255715374092
 20
616.3108579496396
 30
0.0
 11
1726.075715374092
 21
616.3108579496396
 31
0.0
  0
SOLID
  5
7E00
330
6FEA
100
AcDbEntity
  8
DIM
 62
     0
 48
0.4
100
AcDbTrace
 10
1726.658024248842
 20
616.3408579496396
 30
0.0
 11
1726.658024248842
 21
616.2808579496396
 31
0.0
 12
1726.838024248841
 22
616.3108579496396
 32
0.0
 13
1726.838024248841
 23
616.3108579496396
 33
0.0
  0
SOLID
  5
7E01
330
6FEA
100
AcDbEntity
  8
DIM
 62
     0
 48
0.4
100
AcDbTrace
 10
1726.435715374092
 20
616.3408579496396
 30
0.0
 11
1726.435715374092
 21
616.2808579496396
 31
0.0
 12
1726.255715374092
 22
616.3108579496396
 32
0.0
 13
1726.255715374092
 23
616.3108579496396
 33
0.0
  0
MTEXT
  5
7E02
330
6FEA
100
AcDbEntity
  8
DIM
 62
     0
 48
0.4
100
AcDbMText
 10
1725.544743485
 20
616.3108579496396
 30
0.0
 40
0.125
 41
0.0
 71
     5
 72
     1
  1
\A1;{\fTahoma|b0|i0|c0|p32;.583 [}14.8{\fTahoma|b0|i0|c0|p32;]}
 73
     1
 44
1.0
  0
POINT
  5
7E03
330
6FEA
100
AcDbEntity
  8
Defpoints
 62
     0
 48
0.4
100
AcDbPoint
 10
1726.255715374092
 20
617.8858239137337
 30
0.0
  0
POINT
  5
7E04
330
6FEA
100
AcDbEntity
  8
Defpoints
 62
     0
 48
0.4
100
AcDbPoint
 10
1726.838024248841
 20
618.3283480961086
 30
0.0
  0
POINT
  5
7E05
330
6FEA
100
AcDbEntity
  8
Defpoints
 62
     0
 48
0.4
100
AcDbPoint
 10
1726.838024248841
 20
616.3108579496396
 30
0.0
  0
ENDBLK
  5
6FF5
330
6FEA
100
AcDbEntity
  8
0
 48
0.4
100
AcDbBlockEnd
  0
BLOCK
  5
70F8
330
70EE
100
AcDbEntity
  8
0
 48
0.4
100
AcDbBlockBegin
  2
*D31
 70
     1
 10
0.0
 20
0.0
 30
0.0
  3
*D31
  1

  0
LINE
  5
804B
330
70EE
100
AcDbEntity
  8
DIM
 62
     0
 48
0.4
370
    -2
100
AcDbLine
 10
1728.77840671832
 20
613.4393120067214
 30
0.0
 11
1728.77840671832
 21
615.4187140906296
 31
0.0
  0
LINE
  5
804C
330
70EE
100
AcDbEntity
  8
DIM
 62
     0
 48
0.4
370
    -2
100
AcDbLine
 10
1730.35316734832
 20
613.4393120067212
 30
0.0
 11
1730.35316734832
 21
615.4187140906296
 31
0.0
  0
LINE
  5
804D
330
70EE
100
AcDbEntity
  8
DIM
 62
     0
 48
0.4
370
    -2
100
AcDbLine
 10
1728.59840671832
 20
615.2387140906297
 30
0.0
 11
1728.41840671832
 21
615.2387140906297
 31
0.0
  0
LINE
  5
804E
330
70EE
100
AcDbEntity
  8
DIM
 62
     0
 48
0.4
370
    -2
100
AcDbLine
 10
1730.53316734832
 20
615.2387140906297
 30
0.0
 11
1730.71316734832
 21
615.2387140906297
 31
0.0
  0
SOLID
  5
804F
330
70EE
100
AcDbEntity
  8
DIM
 62
     0
 48
0.4
100
AcDbTrace
 10
1728.59840671832
 20
615.2687140906297
 30
0.0
 11
1728.59840671832
 21
615.2087140906298
 31
0.0
 12
1728.77840671832
 22
615.2387140906297
 32
0.0
 13
1728.77840671832
 23
615.2387140906297
 33
0.0
  0
SOLID
  5
8050
330
70EE
100
AcDbEntity
  8
DIM
 62
     0
 48
0.4
100
AcDbTrace
 10
1730.53316734832
 20
615.2687140906297
 30
0.0
 11
1730.53316734832
 21
615.2087140906298
 31
0.0
 12
1730.35316734832
 22
615.2387140906297
 32
0.0
 13
1730.35316734832
 23
615.2387140906297
 33
0.0
  0
MTEXT
  5
8051
330
70EE
100
AcDbEntity
  8
DIM
 62
     0
 48
0.4
100
AcDbMText
 10
1729.452998663789
 20
615.2387140906297
 30
0.0
 40
0.125
 41
0.0
 71
     5
 72
     1
  1
\A1;1.575 [40.00]
 73
     1
 44
1.0
  0
POINT
  5
8052
330
70EE
100
AcDbEntity
  8
Defpoints
 62
     0
 48
0.4
100
AcDbPoint
 10
1728.77840671832
 20
613.3768120067213
 30
0.0
  0
POINT
  5
8053
330
70EE
100
AcDbEntity
  8
Defpoints
 62
     0
 48
0.4
100
AcDbPoint
 10
1730.35316734832
 20
613.3768120067212
 30
0.0
  0
POINT
  5
8054
330
70EE
100
AcDbEntity
  8
Defpoints
 62
     0
 48
0.4
100
AcDbPoint
 10
1730.35316734832
 20
615.2387140906297
 30
0.0
  0
ENDBLK
  5
70F9
330
70EE
100
AcDbEntity
  8
0
 48
0.4
100
AcDbBlockEnd
  0
BLOCK
  5
7119
330
7112
100
AcDbEntity
  8
0
 48
0.4
100
AcDbBlockBegin
  2
*D32
 70
     1
 10
0.0
 20
0.0
 30
0.0
  3
*D32
  1

  0
LINE
  5
7FED
330
7112
100
AcDbEntity
  8
DIM
 62
     0
 48
0.4
370
    -2
100
AcDbLine
 10
1735.939516831179
 20
614.5624754271127
 30
0.0
 11
1736.11951683118
 21
614.5624754271127
 31
0.0
  0
LINE
  5
7FEE
330
7112
100
AcDbEntity
  8
DIM
 62
     0
 48
0.4
370
    -2
100
AcDbLine
 10
1736.11951683118
 20
614.5624754271127
 30
0.0
 11
1736.232818782681
 21
614.422608819998
 31
0.0
  0
MTEXT
  5
7FEF
330
7112
100
AcDbEntity
  8
DIM
 62
     0
 48
0.4
100
AcDbMText
 10
1735.126302545465
 20
614.5624754271129
 30
0.0
 40
0.125
 41
0.0
 71
     5
 72
     1
  1
\A1;R0.236 [R6.00]
 73
     1
 44
1.0
  0
SOLID
  5
7FF0
330
7112
100
AcDbEntity
  8
DIM
 62
     0
 48
0.4
100
AcDbTrace
 10
1736.256129883867
 20
614.4414924785817
 30
0.0
 11
1736.209507681496
 21
614.4037251614145
 31
0.0
 12
1736.346120734184
 22
614.2827422128833
 32
0.0
 13
1736.346120734184
 23
614.2827422128833
 33
0.0
  0
LINE
  5
7FF1
330
7112
100
AcDbEntity
  8
DIM
 62
     0
 48
0.4
370
    -2
100
AcDbLine
 10
1736.404806944625
 20
614.0991951909366
 30
0.0
 11
1736.584806944624
 21
614.0991951909366
 31
0.0
  0
LINE
  5
7FF2
330
7112
100
AcDbEntity
  8
DIM
 62
     0
 48
0.4
370
    -2
100
AcDbLine
 10
1736.494806944624
 20
614.0091951909364
 30
0.0
 11
1736.494806944625
 21
614.1891951909366
 31
0.0
  0
POINT
  5
7FF3
330
7112
100
AcDbEntity
  8
Defpoints
 62
     0
 48
0.4
100
AcDbPoint
 10
1736.346120734184
 20
614.2827422128833
 30
0.0
  0
POINT
  5
7FF4
330
7112
100
AcDbEntity
  8
Defpoints
 62
     0
 48
0.4
100
AcDbPoint
 10
1736.494806944624
 20
614.0991951909366
 30
0.0
  0
ENDBLK
  5
711A
330
7112
100
AcDbEntity
  8
0
 48
0.4
100
AcDbBlockEnd
  0
BLOCK
  5
7151
330
7147
100
AcDbEntity
  8
0
 48
0.4
100
AcDbBlockBegin
  2
*D33
 70
     1
 10
0.0
 20
0.0
 30
0.0
  3
*D33
  1

  0
LINE
  5
7FDB
330
7147
100
AcDbEntity
  8
DIM
 62
     0
 48
0.4
370
    -2
100
AcDbLine
 10
1720.280880635289
 20
611.4200769922822
 30
0.0
 11
1718.739649126257
 21
611.4200769922822
 31
0.0
  0
LINE
  5
7FDC
330
7147
100
AcDbEntity
  8
DIM
 62
     0
 48
0.4
370
    -2
100
AcDbLine
 10
1720.280880635289
 20
608.3734295422821
 30
0.0
 11
1718.739649126257
 21
608.3734295422821
 31
0.0
  0
LINE
  5
7FDD
330
7147
100
AcDbEntity
  8
DIM
 62
     0
 48
0.4
370
    -2
100
AcDbLine
 10
1718.919649126258
 20
611.2400769922823
 30
0.0
 11
1718.919649126258
 21
609.9707618970136
 31
0.0
  0
LINE
  5
7FDE
330
7147
100
AcDbEntity
  8
DIM
 62
     0
 48
0.4
370
    -2
100
AcDbLine
 10
1718.919649126258
 20
608.553429542282
 30
0.0
 11
1718.919649126258
 21
609.6272293248174
 31
0.0
  0
SOLID
  5
7FDF
330
7147
100
AcDbEntity
  8
DIM
 62
     0
 48
0.4
100
AcDbTrace
 10
1718.889649126258
 20
611.2400769922823
 30
0.0
 11
1718.949649126258
 21
611.2400769922823
 31
0.0
 12
1718.919649126258
 22
611.4200769922822
 32
0.0
 13
1718.919649126258
 23
611.4200769922822
 33
0.0
  0
SOLID
  5
7FE0
330
7147
100
AcDbEntity
  8
DIM
 62
     0
 48
0.4
100
AcDbTrace
 10
1718.889649126258
 20
608.553429542282
 30
0.0
 11
1718.949649126258
 21
608.553429542282
 31
0.0
 12
1718.919649126258
 22
608.3734295422821
 32
0.0
 13
1718.919649126258
 23
608.3734295422821
 33
0.0
  0
MTEXT
  5
7FE1
330
7147
100
AcDbEntity
  8
DIM
 62
     0
 48
0.4
100
AcDbMText
 10
1718.919649126257
 20
609.7989956109158
 30
0.0
 40
0.125
 41
0.0
 71
     5
 72
     1
  1
\A1;{\fTahoma|b0|i0|c0|p32;3.03 [}77{\fTahoma|b0|i0|c0|p32;.0]}
 73
     1
 44
1.0
  0
POINT
  5
7FE2
330
7147
100
AcDbEntity
  8
Defpoints
 62
     0
 48
0.4
100
AcDbPoint
 10
1720.343380635289
 20
611.4200769922822
 30
0.0
  0
POINT
  5
7FE3
330
7147
100
AcDbEntity
  8
Defpoints
 62
     0
 48
0.4
100
AcDbPoint
 10
1720.343380635289
 20
608.3734295422821
 30
0.0
  0
POINT
  5
7FE4
330
7147
100
AcDbEntity
  8
Defpoints
 62
     0
 48
0.4
100
AcDbPoint
 10
1718.919649126258
 20
608.3734295422821
 30
0.0
  0
ENDBLK
  5
7152
330
7147
100
AcDbEntity
  8
0
 48
0.4
100
AcDbBlockEnd
  0
BLOCK
  5
7167
330
715D
100
AcDbEntity
  8
0
 48
0.4
100
AcDbBlockBegin
  2
*D34
 70
     1
 10
0.0
 20
0.0
 30
0.0
  3
*D34
  1

  0
LINE
  5
7F3D
330
715D
100
AcDbEntity
  8
DIM
 62
     0
 48
0.4
370
    -2
100
AcDbLine
 10
1726.541679369092
 20
619.9915830638878
 30
0.0
 11
1726.541679369092
 21
621.1917637418091
 31
0.0
  0
LINE
  5
7F3E
330
715D
100
AcDbEntity
  8
DIM
 62
     0
 48
0.4
370
    -2
100
AcDbLine
 10
1726.255715374092
 20
619.9915830638878
 30
0.0
 11
1726.255715374092
 21
621.1917637418091
 31
0.0
  0
LINE
  5
7F3F
330
715D
100
AcDbEntity
  8
DIM
 62
     0
 48
0.4
370
    -2
100
AcDbLine
 10
1726.075715374092
 20
621.0117637418091
 30
0.0
 11
1725.895715374092
 21
621.0117637418091
 31
0.0
  0
LINE
  5
7F40
330
715D
100
AcDbEntity
  8
DIM
 62
     0
 48
0.4
370
    -2
100
AcDbLine
 10
1726.721679369092
 20
621.0117637418091
 30
0.0
 11
1727.030248254418
 21
621.0117637418091
 31
0.0
  0
SOLID
  5
7F41
330
715D
100
AcDbEntity
  8
DIM
 62
     0
 48
0.4
100
AcDbTrace
 10
1726.075715374092
 20
621.0417637418092
 30
0.0
 11
1726.075715374092
 21
620.9817637418092
 31
0.0
 12
1726.255715374092
 22
621.0117637418091
 32
0.0
 13
1726.255715374092
 23
621.0117637418091
 33
0.0
  0
SOLID
  5
7F42
330
715D
100
AcDbEntity
  8
DIM
 62
     0
 48
0.4
100
AcDbTrace
 10
1726.721679369092
 20
621.0417637418092
 30
0.0
 11
1726.721679369092
 21
620.9817637418092
 31
0.0
 12
1726.541679369092
 22
621.0117637418091
 32
0.0
 13
1726.541679369092
 23
621.0117637418091
 33
0.0
  0
MTEXT
  5
7F43
330
715D
100
AcDbEntity
  8
DIM
 62
     0
 48
0.4
100
AcDbMText
 10
1727.573124905415
 20
621.0117637418091
 30
0.0
 40
0.125
 41
0.0
 71
     5
 72
     1
  1
\A1;{\fTahoma|b0|i0|c0|p32;.283 [}7.20{\fTahoma|b0|i0|c0|p32;]}
 73
     1
 44
1.0
  0
POINT
  5
7F44
330
715D
100
AcDbEntity
  8
Defpoints
 62
     0
 48
0.4
100
AcDbPoint
 10
1726.541679369092
 20
619.9290830638878
 30
0.0
  0
POINT
  5
7F45
330
715D
100
AcDbEntity
  8
Defpoints
 62
     0
 48
0.4
100
AcDbPoint
 10
1726.255715374092
 20
619.9290830638878
 30
0.0
  0
POINT
  5
7F46
330
715D
100
AcDbEntity
  8
Defpoints
 62
     0
 48
0.4
100
AcDbPoint
 10
1726.255715374092
 20
621.0117637418091
 30
0.0
  0
ENDBLK
  5
7168
330
715D
100
AcDbEntity
  8
0
 48
0.4
100
AcDbBlockEnd
  0
BLOCK
  5
71E4
330
71D8
100
AcDbEntity
  8
0
 48
0.4
100
AcDbBlockBegin
  2
*D35
 70
     1
 10
0.0
 20
0.0
 30
0.0
  3
*D35
  1

  0
LINE
  5
8005
330
71D8
100
AcDbEntity
  8
DIM
 62
     0
 48
0.4
370
    -2
100
AcDbLine
 10
1733.023641434409
 20
613.5602622898231
 30
0.0
 11
1733.023641434409
 21
614.8844649453311
 31
0.0
  0
LINE
  5
8006
330
71D8
100
AcDbEntity
  8
DIM
 62
     0
 48
0.4
370
    -2
100
AcDbLine
 10
1732.808189109409
 20
613.5602622898231
 30
0.0
 11
1732.808189109409
 21
614.8844649453311
 31
0.0
  0
LINE
  5
8007
330
71D8
100
AcDbEntity
  8
DIM
 62
     0
 48
0.4
370
    -2
100
AcDbLine
 10
1733.203641434409
 20
614.7044649453312
 30
0.0
 11
1733.383641434409
 21
614.7044649453312
 31
0.0
  0
LINE
  5
8008
330
71D8
100
AcDbEntity
  8
DIM
 62
     0
 48
0.4
370
    -2
100
AcDbLine
 10
1732.628189109409
 20
614.7044649453312
 30
0.0
 11
1732.448189109409
 21
614.7044649453312
 31
0.0
  0
SOLID
  5
8009
330
71D8
100
AcDbEntity
  8
DIM
 62
     0
 48
0.4
100
AcDbTrace
 10
1733.203641434409
 20
614.7344649453311
 30
0.0
 11
1733.203641434409
 21
614.6744649453312
 31
0.0
 12
1733.023641434409
 22
614.7044649453312
 32
0.0
 13
1733.023641434409
 23
614.7044649453312
 33
0.0
  0
SOLID
  5
800A
330
71D8
100
AcDbEntity
  8
DIM
 62
     0
 48
0.4
100
AcDbTrace
 10
1732.628189109409
 20
614.7344649453311
 30
0.0
 11
1732.628189109409
 21
614.6744649453312
 31
0.0
 12
1732.808189109409
 22
614.7044649453312
 32
0.0
 13
1732.808189109409
 23
614.7044649453312
 33
0.0
  0
MTEXT
  5
800B
330
71D8
100
AcDbEntity
  8
DIM
 62
     0
 48
0.4
100
AcDbMText
 10
1731.964836267937
 20
614.7044649453312
 30
0.0
 40
0.125
 41
0.0
 71
     5
 72
     1
  1
\A1;{\fTahoma|b0|i0|c0|p32;.217 [}5.5{\fTahoma|b0|i0|c0|p32;]}
 73
     1
 44
1.0
  0
POINT
  5
800C
330
71D8
100
AcDbEntity
  8
Defpoints
 62
     0
 48
0.4
100
AcDbPoint
 10
1733.023641434409
 20
613.497762289823
 30
0.0
  0
POINT
  5
800D
330
71D8
100
AcDbEntity
  8
Defpoints
 62
     0
 48
0.4
100
AcDbPoint
 10
1732.808189109409
 20
613.497762289823
 30
0.0
  0
POINT
  5
800E
330
71D8
100
AcDbEntity
  8
Defpoints
 62
     0
 48
0.4
100
AcDbPoint
 10
1732.808189109409
 20
614.7044649453312
 30
0.0
  0
ENDBLK
  5
71E5
330
71D8
100
AcDbEntity
  8
0
 48
0.4
100
AcDbBlockEnd
  0
BLOCK
  5
7212
330
7208
100
AcDbEntity
  8
0
 48
0.4
100
AcDbBlockBegin
  2
*D36
 70
     1
 10
0.0
 20
0.0
 30
0.0
  3
*D36
  1

  0
LINE
  5
7FD1
330
7208
100
AcDbEntity
  8
DIM
 62
     0
 48
0.4
370
    -2
100
AcDbLine
 10
1719.829011585289
 20
609.3972236242603
 30
0.0
 11
1719.829011585289
 21
607.6037781450215
 31
0.0
  0
LINE
  5
7FD2
330
7208
100
AcDbEntity
  8
DIM
 62
     0
 48
0.4
370
    -2
100
AcDbLine
 10
1720.877434685289
 20
609.3972236242603
 30
0.0
 11
1720.877434685289
 21
607.6037781450215
 31
0.0
  0
LINE
  5
7FD3
330
7208
100
AcDbEntity
  8
DIM
 62
     0
 48
0.4
370
    -2
100
AcDbLine
 10
1720.697434685289
 20
607.7837781450214
 30
0.0
 11
1720.009011585289
 21
607.7837781450214
 31
0.0
  0
LINE
  5
7FD4
330
7208
100
AcDbEntity
  8
DIM
 62
     0
 48
0.4
370
    -2
100
AcDbLine
 10
1719.829011585289
 20
607.7837781450214
 30
0.0
 11
1719.649011585289
 21
607.7837781450214
 31
0.0
  0
SOLID
  5
7FD5
330
7208
100
AcDbEntity
  8
DIM
 62
     0
 48
0.4
100
AcDbTrace
 10
1720.697434685289
 20
607.8137781450213
 30
0.0
 11
1720.697434685289
 21
607.7537781450214
 31
0.0
 12
1720.877434685289
 22
607.7837781450214
 32
0.0
 13
1720.877434685289
 23
607.7837781450214
 33
0.0
  0
SOLID
  5
7FD6
330
7208
100
AcDbEntity
  8
DIM
 62
     0
 48
0.4
100
AcDbTrace
 10
1720.009011585289
 20
607.8137781450213
 30
0.0
 11
1720.009011585289
 21
607.7537781450214
 31
0.0
 12
1719.829011585289
 22
607.7837781450214
 32
0.0
 13
1719.829011585289
 23
607.7837781450214
 33
0.0
  0
MTEXT
  5
7FD7
330
7208
100
AcDbEntity
  8
DIM
 62
     0
 48
0.4
100
AcDbMText
 10
1719.060718547456
 20
607.7837781450214
 30
0.0
 40
0.125
 41
0.0
 71
     5
 72
     1
  1
\A1;{\fTahoma|b0|i0|c0|p32;1.047 [}26.6{\fTahoma|b0|i0|c0|p32;]}
 73
     1
 44
1.0
  0
POINT
  5
7FD8
330
7208
100
AcDbEntity
  8
Defpoints
 62
     0
 48
0.4
100
AcDbPoint
 10
1719.829011585289
 20
609.4597236242602
 30
0.0
  0
POINT
  5
7FD9
330
7208
100
AcDbEntity
  8
Defpoints
 62
     0
 48
0.4
100
AcDbPoint
 10
1720.877434685289
 20
609.4597236242602
 30
0.0
  0
POINT
  5
7FDA
330
7208
100
AcDbEntity
  8
Defpoints
 62
     0
 48
0.4
100
AcDbPoint
 10
1720.877434685289
 20
607.7837781450214
 30
0.0
  0
ENDBLK
  5
7213
330
7208
100
AcDbEntity
  8
0
 48
0.4
100
AcDbBlockEnd
  0
BLOCK
  5
7269
330
725F
100
AcDbEntity
  8
0
 48
0.4
100
AcDbBlockBegin
  2
*D37
 70
     1
 10
0.0
 20
0.0
 30
0.0
  3
*D37
  1

  0
LINE
  5
7E73
330
725F
100
AcDbEntity
  8
DIM
 62
     0
 48
0.4
370
    -2
100
AcDbLine
 10
1728.810227788044
 20
619.1885229531265
 30
0.0
 11
1728.810227788044
 21
616.7343149515719
 31
0.0
  0
LINE
  5
7E74
330
725F
100
AcDbEntity
  8
DIM
 62
     0
 48
0.4
370
    -2
100
AcDbLine
 10
1730.739309559794
 20
619.1885229531264
 30
0.0
 11
1730.739309559794
 21
616.7343149515719
 31
0.0
  0
LINE
  5
7E75
330
725F
100
AcDbEntity
  8
DIM
 62
     0
 48
0.4
370
    -2
100
AcDbLine
 10
1728.630227788043
 20
616.9143149515718
 30
0.0
 11
1728.450227788044
 21
616.9143149515718
 31
0.0
  0
LINE
  5
7E76
330
725F
100
AcDbEntity
  8
DIM
 62
     0
 48
0.4
370
    -2
100
AcDbLine
 10
1730.919309559794
 20
616.9143149515718
 30
0.0
 11
1731.099309559794
 21
616.9143149515718
 31
0.0
  0
SOLID
  5
7E77
330
725F
100
AcDbEntity
  8
DIM
 62
     0
 48
0.4
100
AcDbTrace
 10
1728.630227788043
 20
616.9443149515719
 30
0.0
 11
1728.630227788043
 21
616.8843149515719
 31
0.0
 12
1728.810227788044
 22
616.9143149515718
 32
0.0
 13
1728.810227788044
 23
616.9143149515718
 33
0.0
  0
SOLID
  5
7E78
330
725F
100
AcDbEntity
  8
DIM
 62
     0
 48
0.4
100
AcDbTrace
 10
1730.919309559794
 20
616.9443149515719
 30
0.0
 11
1730.919309559794
 21
616.8843149515719
 31
0.0
 12
1730.739309559794
 22
616.9143149515718
 32
0.0
 13
1730.739309559794
 23
616.9143149515718
 33
0.0
  0
MTEXT
  5
7E79
330
725F
100
AcDbEntity
  8
DIM
 62
     0
 48
0.4
100
AcDbMText
 10
1729.700156312448
 20
616.9143149515718
 30
0.0
 40
0.125
 41
0.0
 71
     5
 72
     1
  1
\A1;1.929 [49.00]
 73
     1
 44
1.0
  0
POINT
  5
7E7A
330
725F
100
AcDbEntity
  8
Defpoints
 62
     0
 48
0.4
100
AcDbPoint
 10
1728.810227788044
 20
619.2510229531265
 30
0.0
  0
POINT
  5
7E7B
330
725F
100
AcDbEntity
  8
Defpoints
 62
     0
 48
0.4
100
AcDbPoint
 10
1730.739309559794
 20
619.2510229531263
 30
0.0
  0
POINT
  5
7E7C
330
725F
100
AcDbEntity
  8
Defpoints
 62
     0
 48
0.4
100
AcDbPoint
 10
1730.739309559794
 20
616.9143149515718
 30
0.0
  0
ENDBLK
  5
726A
330
725F
100
AcDbEntity
  8
0
 48
0.4
100
AcDbBlockEnd
  0
BLOCK
  5
727F
330
7275
100
AcDbEntity
  8
0
 48
0.4
100
AcDbBlockBegin
  2
*D38
 70
     1
 10
0.0
 20
0.0
 30
0.0
  3
*D38
  1

  0
LINE
  5
8041
330
7275
100
AcDbEntity
  8
DIM
 62
     0
 48
0.4
370
    -2
100
AcDbLine
 10
1728.601246147445
 20
612.8822021790616
 30
0.0
 11
1728.601246147445
 21
616.1611910918923
 31
0.0
  0
LINE
  5
8042
330
7275
100
AcDbEntity
  8
DIM
 62
     0
 48
0.4
370
    -2
100
AcDbLine
 10
1730.530327919195
 20
612.8822021790615
 30
0.0
 11
1730.530327919195
 21
616.1611910918923
 31
0.0
  0
LINE
  5
8043
330
7275
100
AcDbEntity
  8
DIM
 62
     0
 48
0.4
370
    -2
100
AcDbLine
 10
1728.781246147445
 20
615.9811910918923
 30
0.0
 11
1728.833246910318
 21
615.9811910918923
 31
0.0
  0
LINE
  5
8044
330
7275
100
AcDbEntity
  8
DIM
 62
     0
 48
0.4
370
    -2
100
AcDbLine
 10
1730.350327919195
 20
615.9811910918923
 30
0.0
 11
1730.304913576985
 21
615.9811910918923
 31
0.0
  0
SOLID
  5
8045
330
7275
100
AcDbEntity
  8
DIM
 62
     0
 48
0.4
100
AcDbTrace
 10
1728.781246147445
 20
616.0111910918923
 30
0.0
 11
1728.781246147445
 21
615.9511910918923
 31
0.0
 12
1728.601246147445
 22
615.9811910918923
 32
0.0
 13
1728.601246147445
 23
615.9811910918923
 33
0.0
  0
SOLID
  5
8046
330
7275
100
AcDbEntity
  8
DIM
 62
     0
 48
0.4
100
AcDbTrace
 10
1730.350327919195
 20
616.0111910918923
 30
0.0
 11
1730.350327919195
 21
615.9511910918923
 31
0.0
 12
1730.530327919195
 22
615.9811910918923
 32
0.0
 13
1730.530327919195
 23
615.9811910918923
 33
0.0
  0
MTEXT
  5
8047
330
7275
100
AcDbEntity
  8
DIM
 62
     0
 48
0.4
100
AcDbMText
 10
1729.569080243651
 20
615.9811910918923
 30
0.0
 40
0.125
 41
0.0
 71
     5
 72
     1
  1
\A1;1.929 [49.00]
 73
     1
 44
1.0
  0
POINT
  5
8048
330
7275
100
AcDbEntity
  8
Defpoints
 62
     0
 48
0.4
100
AcDbPoint
 10
1728.601246147445
 20
612.8197021790616
 30
0.0
  0
POINT
  5
8049
330
7275
100
AcDbEntity
  8
Defpoints
 62
     0
 48
0.4
100
AcDbPoint
 10
1730.530327919195
 20
612.8197021790615
 30
0.0
  0
POINT
  5
804A
330
7275
100
AcDbEntity
  8
Defpoints
 62
     0
 48
0.4
100
AcDbPoint
 10
1730.530327919195
 20
615.9811910918923
 30
0.0
  0
ENDBLK
  5
7280
330
7275
100
AcDbEntity
  8
0
 48
0.4
100
AcDbBlockEnd
  0
BLOCK
  5
72F9
330
72EF
100
AcDbEntity
  8
0
 48
0.4
100
AcDbBlockBegin
  2
*D39
 70
     1
 10
0.0
 20
0.0
 30
0.0
  3
*D39
  1

  0
LINE
  5
7DD8
330
72EF
100
AcDbEntity
  8
DIM
 62
     0
 48
0.4
370
    -2
100
AcDbLine
 10
1722.058242526559
 20
619.1885229531265
 30
0.0
 11
1722.058242526559
 21
616.7278746629127
 31
0.0
  0
LINE
  5
7DD9
330
72EF
100
AcDbEntity
  8
DIM
 62
     0
 48
0.4
370
    -2
100
AcDbLine
 10
1723.987324298309
 20
619.1885229531264
 30
0.0
 11
1723.987324298309
 21
616.7278746629127
 31
0.0
  0
LINE
  5
7DDA
330
72EF
100
AcDbEntity
  8
DIM
 62
     0
 48
0.4
370
    -2
100
AcDbLine
 10
1723.807324298309
 20
616.9078746629126
 30
0.0
 11
1722.238242526559
 21
616.9078746629126
 31
0.0
  0
LINE
  5
7DDB
330
72EF
100
AcDbEntity
  8
DIM
 62
     0
 48
0.4
370
    -2
100
AcDbLine
 10
1722.058242526559
 20
616.9078746629126
 30
0.0
 11
1721.878242526559
 21
616.9078746629126
 31
0.0
  0
SOLID
  5
7DDC
330
72EF
100
AcDbEntity
  8
DIM
 62
     0
 48
0.4
100
AcDbTrace
 10
1723.807324298309
 20
616.9378746629125
 30
0.0
 11
1723.807324298309
 21
616.8778746629126
 31
0.0
 12
1723.987324298309
 22
616.9078746629126
 32
0.0
 13
1723.987324298309
 23
616.9078746629126
 33
0.0
  0
SOLID
  5
7DDD
330
72EF
100
AcDbEntity
  8
DIM
 62
     0
 48
0.4
100
AcDbTrace
 10
1722.238242526559
 20
616.9378746629125
 30
0.0
 11
1722.238242526559
 21
616.8778746629126
 31
0.0
 12
1722.058242526559
 22
616.9078746629126
 32
0.0
 13
1722.058242526559
 23
616.9078746629126
 33
0.0
  0
MTEXT
  5
7DDE
330
72EF
100
AcDbEntity
  8
DIM
 62
     0
 48
0.4
100
AcDbMText
 10
1721.142409193226
 20
616.9078746629126
 30
0.0
 40
0.125
 41
0.0
 71
     5
 72
     1
  1
\A1;1.929 [49.00]
 73
     1
 44
1.0
  0
POINT
  5
7DDF
330
72EF
100
AcDbEntity
  8
Defpoints
 62
     0
 48
0.4
100
AcDbPoint
 10
1722.058242526559
 20
619.2510229531265
 30
0.0
  0
POINT
  5
7DE0
330
72EF
100
AcDbEntity
  8
Defpoints
 62
     0
 48
0.4
100
AcDbPoint
 10
1723.987324298309
 20
619.2510229531263
 30
0.0
  0
POINT
  5
7DE1
330
72EF
100
AcDbEntity
  8
Defpoints
 62
     0
 48
0.4
100
AcDbPoint
 10
1723.987324298309
 20
616.9078746629126
 30
0.0
  0
ENDBLK
  5
72FA
330
72EF
100
AcDbEntity
  8
0
 48
0.4
100
AcDbBlockEnd
  0
BLOCK
  5
79CB
330
79C2
100
AcDbEntity
  8
0
 48
0.4
100
AcDbBlockBegin
  2
*D40
 70
     1
 10
0.0
 20
0.0
 30
0.0
  3
*D40
  1

  0
LINE
  5
7D95
330
79C2
100
AcDbEntity
  8
DIM
 62
     0
 48
0.4
370
    -2
100
AcDbLine
 10
1721.458833907584
 20
621.8929309097129
 30
0.0
 11
1721.638833907585
 21
621.8929309097129
 31
0.0
  0
LINE
  5
7D96
330
79C2
100
AcDbEntity
  8
DIM
 62
     0
 48
0.4
370
    -2
100
AcDbLine
 10
1721.638833907585
 20
621.8929309097129
 30
0.0
 11
1722.375195620115
 21
620.086305109804
 31
0.0
  0
MTEXT
  5
7D97
330
79C2
100
AcDbEntity
  8
DIM
 62
     0
 48
0.4
100
AcDbMText
 10
1720.657524383775
 20
621.8929309097128
 30
0.0
 40
0.125
 41
0.0
 71
     5
 72
     1
  1
\A1;\U+22050.256 [\U+22056.50]
 73
     1
 44
1.0
  0
SOLID
  5
7D98
330
79C2
100
AcDbEntity
  8
DIM
 62
     0
 48
0.4
100
AcDbTrace
 10
1722.402976622962
 20
620.0976283549571
 30
0.0
 11
1722.347414617268
 21
620.0749818646507
 31
0.0
 12
1722.443135091034
 22
619.9196190927203
 32
0.0
 13
1722.443135091034
 23
619.9196190927203
 33
0.0
  0
LINE
  5
7D99
330
79C2
100
AcDbEntity
  8
DIM
 62
     0
 48
0.4
370
    -2
100
AcDbLine
 10
1722.401428467852
 20
619.8011337627004
 30
0.0
 11
1722.581428467851
 21
619.8011337627003
 31
0.0
  0
LINE
  5
7D9A
330
79C2
100
AcDbEntity
  8
DIM
 62
     0
 48
0.4
370
    -2
100
AcDbLine
 10
1722.491428467852
 20
619.7111337627005
 30
0.0
 11
1722.491428467851
 21
619.8911337627004
 31
0.0
  0
POINT
  5
7D9B
330
79C2
100
AcDbEntity
  8
Defpoints
 62
     0
 48
0.4
100
AcDbPoint
 10
1722.443135091034
 20
619.9196190927203
 30
0.0
  0
POINT
  5
7D9C
330
79C2
100
AcDbEntity
  8
Defpoints
 62
     0
 48
0.4
100
AcDbPoint
 10
1722.539721844669
 20
619.6826484326805
 30
0.0
  0
ENDBLK
  5
79CC
330
79C2
100
AcDbEntity
  8
0
 48
0.4
100
AcDbBlockEnd
  0
BLOCK
  5
79D7
330
79CE
100
AcDbEntity
  8
0
 48
0.4
100
AcDbBlockBegin
  2
*D41
 70
     1
 10
0.0
 20
0.0
 30
0.0
  3
*D41
  1

  0
LINE
  5
7D9D
330
79CE
100
AcDbEntity
  8
DIM
 62
     0
 48
0.4
370
    -2
100
AcDbLine
 10
1721.208692062703
 20
621.500138453637
 30
0.0
 11
1721.388692062703
 21
621.5001384536369
 31
0.0
  0
LINE
  5
7D9E
330
79CE
100
AcDbEntity
  8
DIM
 62
     0
 48
0.4
370
    -2
100
AcDbLine
 10
1721.388692062703
 20
621.5001384536369
 30
0.0
 11
1722.368905617365
 21
619.9899067974452
 31
0.0
  0
MTEXT
  5
7D9F
330
79CE
100
AcDbEntity
  8
DIM
 62
     0
 48
0.4
100
AcDbMText
 10
1720.407382538893
 20
621.5001384536371
 30
0.0
 40
0.125
 41
0.0
 71
     5
 72
     1
  1
\A1;\U+22050.090 [\U+22052.29]
 73
     1
 44
1.0
  0
SOLID
  5
7DA0
330
79CE
100
AcDbEntity
  8
DIM
 62
     0
 48
0.4
100
AcDbTrace
 10
1722.394069861417
 20
620.0062396116939
 30
0.0
 11
1722.343741373313
 21
619.9735739831967
 31
0.0
 12
1722.466902502857
 22
619.8389213331315
 32
0.0
 13
1722.466902502857
 23
619.8389213331315
 33
0.0
  0
LINE
  5
7DA1
330
79CE
100
AcDbEntity
  8
DIM
 62
     0
 48
0.4
370
    -2
100
AcDbLine
 10
1722.401428467852
 20
619.8011337627007
 30
0.0
 11
1722.581428467852
 21
619.8011337627008
 31
0.0
  0
LINE
  5
7DA2
330
79CE
100
AcDbEntity
  8
DIM
 62
     0
 48
0.4
370
    -2
100
AcDbLine
 10
1722.491428467852
 20
619.7111337627007
 30
0.0
 11
1722.491428467852
 21
619.8911337627009
 31
0.0
  0
POINT
  5
7DA3
330
79CE
100
AcDbEntity
  8
Defpoints
 62
     0
 48
0.4
100
AcDbPoint
 10
1722.466902502857
 20
619.8389213331315
 30
0.0
  0
POINT
  5
7DA4
330
79CE
100
AcDbEntity
  8
Defpoints
 62
     0
 48
0.4
100
AcDbPoint
 10
1722.515954432847
 20
619.7633461922699
 30
0.0
  0
ENDBLK
  5
79D8
330
79CE
100
AcDbEntity
  8
0
 48
0.4
100
AcDbBlockEnd
  0
BLOCK
  5
7B30
330
7B27
100
AcDbEntity
  8
0
 48
0.4
100
AcDbBlockBegin
  2
*D42
 70
     1
 10
0.0
 20
0.0
 30
0.0
  3
*D42
  1

  0
LINE
  5
7E45
330
7B27
100
AcDbEntity
  8
DIM
 62
     0
 48
0.4
370
    -2
100
AcDbLine
 10
1728.5312539059
 20
618.4534510993296
 30
0.0
 11
1728.7112539059
 21
618.4534510993296
 31
0.0
  0
LINE
  5
7E46
330
7B27
100
AcDbEntity
  8
DIM
 62
     0
 48
0.4
370
    -2
100
AcDbLine
 10
1728.7112539059
 20
618.4534510993296
 30
0.0
 11
1729.252810993827
 21
618.8595862123938
 31
0.0
  0
MTEXT
  5
7E47
330
7B27
100
AcDbEntity
  8
DIM
 62
     0
 48
0.4
100
AcDbMText
 10
1727.670420572567
 20
618.4534510993296
 30
0.0
 40
0.125
 41
0.0
 71
     5
 72
     1
  1
\A1;\U+22050.945 [\U+220524.00]
 73
     1
 44
1.0
  0
SOLID
  5
7E48
330
7B27
100
AcDbEntity
  8
DIM
 62
     0
 48
0.4
100
AcDbTrace
 10
1729.234811921408
 20
618.8835869080516
 30
0.0
 11
1729.270810066246
 21
618.835585516736
 31
0.0
 12
1729.396815167774
 22
618.9675806469076
 32
0.0
 13
1729.396815167774
 23
618.9675806469076
 33
0.0
  0
LINE
  5
7E49
330
7B27
100
AcDbEntity
  8
DIM
 62
     0
 48
0.4
370
    -2
100
AcDbLine
 10
1729.684768673919
 20
619.2510229531265
 30
0.0
 11
1729.864768673919
 21
619.2510229531265
 31
0.0
  0
LINE
  5
7E4A
330
7B27
100
AcDbEntity
  8
DIM
 62
     0
 48
0.4
370
    -2
100
AcDbLine
 10
1729.774768673919
 20
619.1610229531265
 30
0.0
 11
1729.774768673919
 21
619.3410229531266
 31
0.0
  0
POINT
  5
7E4B
330
7B27
100
AcDbEntity
  8
Defpoints
 62
     0
 48
0.4
100
AcDbPoint
 10
1729.396815167774
 20
618.9675806469076
 30
0.0
  0
POINT
  5
7E4C
330
7B27
100
AcDbEntity
  8
Defpoints
 62
     0
 48
0.4
100
AcDbPoint
 10
1730.152722180064
 20
619.5344652593455
 30
0.0
  0
ENDBLK
  5
7B31
330
7B27
100
AcDbEntity
  8
0
 48
0.4
100
AcDbBlockEnd
  0
BLOCK
  5
7C41
330
7C38
100
AcDbEntity
  8
0
 48
0.4
100
AcDbBlockBegin
  2
*D43
 70
     1
 10
0.0
 20
0.0
 30
0.0
  3
*D43
  1

  0
LINE
  5
7FF5
330
7C38
100
AcDbEntity
  8
DIM
 62
     0
 48
0.4
370
    -2
100
AcDbLine
 10
1730.765313475734
 20
611.5755946864737
 30
0.0
 11
1730.585313475729
 21
611.5755946864737
 31
0.0
  0
LINE
  5
7FF6
330
7C38
100
AcDbEntity
  8
DIM
 62
     0
 48
0.4
370
    -2
100
AcDbLine
 10
1730.585313475729
 20
611.5755946864737
 30
0.0
 11
1729.315644513959
 21
612.1437993767758
 31
0.0
  0
MTEXT
  5
7FF7
330
7C38
100
AcDbEntity
  8
DIM
 62
     0
 48
0.4
100
AcDbMText
 10
1731.566622999544
 20
611.575594686474
 30
0.0
 40
0.125
 41
0.0
 71
     5
 72
     1
  1
\A1;\U+22050.256 [\U+22056.50]
 73
     1
 44
1.0
  0
SOLID
  5
7FF8
330
7C38
100
AcDbEntity
  8
DIM
 62
     0
 48
0.4
100
AcDbTrace
 10
1729.327898997949
 20
612.1711823572952
 30
0.0
 11
1729.303390029968
 21
612.1164163962567
 31
0.0
 12
1729.151346630843
 22
612.2173262807202
 32
0.0
 13
1729.151346630843
 23
612.2173262807202
 33
0.0
  0
LINE
  5
7FF9
330
7C38
100
AcDbEntity
  8
DIM
 62
     0
 48
0.4
370
    -2
100
AcDbLine
 10
1728.944558856781
 20
612.2695913694879
 30
0.0
 11
1729.12455885678
 21
612.2695913694879
 31
0.0
  0
LINE
  5
7FFA
330
7C38
100
AcDbEntity
  8
DIM
 62
     0
 48
0.4
370
    -2
100
AcDbLine
 10
1729.03455885678
 20
612.179591369488
 30
0.0
 11
1729.03455885678
 21
612.3595913694879
 31
0.0
  0
POINT
  5
7FFB
330
7C38
100
AcDbEntity
  8
Defpoints
 62
     0
 48
0.4
100
AcDbPoint
 10
1729.151346630843
 20
612.2173262807202
 30
0.0
  0
POINT
  5
7FFC
330
7C38
100
AcDbEntity
  8
Defpoints
 62
     0
 48
0.4
100
AcDbPoint
 10
1728.917771082717
 20
612.3218564582554
 30
0.0
  0
ENDBLK
  5
7C42
330
7C38
100
AcDbEntity
  8
0
 48
0.4
100
AcDbBlockEnd
  0
BLOCK
  5
7C4D
330
7C44
100
AcDbEntity
  8
0
 48
0.4
100
AcDbBlockBegin
  2
*D44
 70
     1
 10
0.0
 20
0.0
 30
0.0
  3
*D44
  1

  0
LINE
  5
7FFD
330
7C44
100
AcDbEntity
  8
DIM
 62
     0
 48
0.4
370
    -2
100
AcDbLine
 10
1731.011516977405
 20
611.8069613235942
 30
0.0
 11
1730.831516977406
 21
611.8069613235944
 31
0.0
  0
LINE
  5
7FFE
330
7C44
100
AcDbEntity
  8
DIM
 62
     0
 48
0.4
370
    -2
100
AcDbLine
 10
1730.831516977406
 20
611.8069613235944
 30
0.0
 11
1730.287909469007
 21
612.1495920921034
 31
0.0
  0
MTEXT
  5
7FFF
330
7C44
100
AcDbEntity
  8
DIM
 62
     0
 48
0.4
100
AcDbMText
 10
1731.812826501215
 20
611.8069613235941
 30
0.0
 40
0.125
 41
0.0
 71
     5
 72
     1
  1
\A1;\U+22050.090 [\U+22052.29]
 73
     1
 44
1.0
  0
SOLID
  5
8000
330
7C44
100
AcDbEntity
  8
DIM
 62
     0
 48
0.4
100
AcDbTrace
 10
1730.303905880286
 20
612.1749715094762
 30
0.0
 11
1730.271913057728
 21
612.1242126747305
 31
0.0
 12
1730.13563296477
 22
612.2455705597785
 32
0.0
 13
1730.13563296477
 23
612.2455705597785
 33
0.0
  0
LINE
  5
8001
330
7C44
100
AcDbEntity
  8
DIM
 62
     0
 48
0.4
370
    -2
100
AcDbLine
 10
1730.007522282029
 20
612.2695913694874
 30
0.0
 11
1730.187522282029
 21
612.2695913694875
 31
0.0
  0
LINE
  5
8002
330
7C44
100
AcDbEntity
  8
DIM
 62
     0
 48
0.4
370
    -2
100
AcDbLine
 10
1730.097522282029
 20
612.1795913694874
 30
0.0
 11
1730.097522282029
 21
612.3595913694877
 31
0.0
  0
POINT
  5
8003
330
7C44
100
AcDbEntity
  8
Defpoints
 62
     0
 48
0.4
100
AcDbPoint
 10
1730.13563296477
 20
612.2455705597785
 30
0.0
  0
POINT
  5
8004
330
7C44
100
AcDbEntity
  8
Defpoints
 62
     0
 48
0.4
100
AcDbPoint
 10
1730.059411599289
 20
612.2936121791968
 30
0.0
  0
ENDBLK
  5
7C4E
330
7C44
100
AcDbEntity
  8
0
 48
0.4
100
AcDbBlockEnd
  0
BLOCK
  5
7CAF
330
7CA6
100
AcDbEntity
  8
0
 48
0.4
100
AcDbBlockBegin
  2
*D45
 70
     1
 10
0.0
 20
0.0
 30
0.0
  3
*D45
  1

  0
LINE
  5
7FE5
330
7CA6
100
AcDbEntity
  8
DIM
 62
     0
 48
0.4
370
    -2
100
AcDbLine
 10
1735.417637542158
 20
612.4217735284574
 30
0.0
 11
1735.597637542159
 21
612.4217735284574
 31
0.0
  0
LINE
  5
7FE6
330
7CA6
100
AcDbEntity
  8
DIM
 62
     0
 48
0.4
370
    -2
100
AcDbLine
 10
1735.597637542159
 20
612.4217735284574
 30
0.0
 11
1736.387917120328
 21
612.6434738006081
 31
0.0
  0
MTEXT
  5
7FE7
330
7CA6
100
AcDbEntity
  8
DIM
 62
     0
 48
0.4
100
AcDbMText
 10
1734.556804208825
 20
612.4217735284574
 30
0.0
 40
0.125
 41
0.0
 71
     5
 72
     1
  1
\A1;\U+22050.945 [\U+220524.00]
 73
     1
 44
1.0
  0
SOLID
  5
7FE8
330
7CA6
100
AcDbEntity
  8
DIM
 62
     0
 48
0.4
100
AcDbTrace
 10
1736.379813921024
 20
612.6723587129508
 30
0.0
 11
1736.396020319631
 21
612.6145888882653
 31
0.0
 12
1736.561226594384
 22
612.6920929964295
 32
0.0
 13
1736.561226594384
 23
612.6920929964295
 33
0.0
  0
LINE
  5
7FE9
330
7CA6
100
AcDbEntity
  8
DIM
 62
     0
 48
0.4
370
    -2
100
AcDbLine
 10
1736.926106193958
 20
612.819702179062
 30
0.0
 11
1737.106106193957
 21
612.819702179062
 31
0.0
  0
LINE
  5
7FEA
330
7CA6
100
AcDbEntity
  8
DIM
 62
     0
 48
0.4
370
    -2
100
AcDbLine
 10
1737.016106193958
 20
612.7297021790618
 30
0.0
 11
1737.016106193957
 21
612.9097021790619
 31
0.0
  0
POINT
  5
7FEB
330
7CA6
100
AcDbEntity
  8
Defpoints
 62
     0
 48
0.4
100
AcDbPoint
 10
1736.561226594384
 20
612.6920929964295
 30
0.0
  0
POINT
  5
7FEC
330
7CA6
100
AcDbEntity
  8
Defpoints
 62
     0
 48
0.4
100
AcDbPoint
 10
1737.47098579353
 20
612.9473113616943
 30
0.0
  0
ENDBLK
  5
7CB0
330
7CA6
100
AcDbEntity
  8
0
 48
0.4
100
AcDbBlockEnd
  0
BLOCK
  5
7FC2
330
7F60
100
AcDbEntity
  8
0
 48
0.4
100
AcDbBlockBegin
  2
C
 70
     2
 10
0.0
 20
0.0
 30
0.0
  3
C
  1

  0
ATTDEF
  5
7F61
330
7F60
100
AcDbEntity
  8
TEXT
100
AcDbText
 10
15.47785051577858
 20
0.5394050456177202
 30
0.0
 40
0.125
  1

 41
0.75
  7
TXT
 72
     1
 11
15.47785051577858
 21
0.5394050456177202
 31
0.0
100
AcDbAttributeDefinition
  3
ENTER INITIALS
  2
NAME
 70
     4
  0
ATTDEF
  5
7F62
330
7F60
100
AcDbEntity
  8
TEXT
100
AcDbText
 10
16.17323597631695
 20
0.5394050456177202
 30
0.0
 40
0.125
  1

 41
0.75
  7
TXT
 72
     1
 11
16.17323597631695
 21
0.5394050456177202
 31
0.0
100
AcDbAttributeDefinition
  3
ENTER DATE
  2
DATE
 70
     4
  0
ATTDEF
  5
7F63
330
7F60
100
AcDbEntity
  8
TEXT
100
AcDbText
 10
19.4336228000444
 20
0.7106068173304485
 30
0.0
 40
0.125
  1

 41
0.75
  7
TXT
 72
     1
 11
19.4336228000444
 21
0.7106068173304485
 31
0.0
100
AcDbAttributeDefinition
  3
ENTER TITLE LINE #1
  2
TITLE1
 70
     4
  0
ATTDEF
  5
7F64
330
7F60
100
AcDbEntity
  8
TEXT
100
AcDbText
 10
19.3867478000444
 20
0.4994773512041509
 30
0.0
 40
0.125
  1
 
 41
0.75
  7
TXT
 72
     1
 11
19.4336228000444
 21
0.4994773512041509
 31
0.0
100
AcDbAttributeDefinition
  3
ENTER TITLE LINE #2
  2
TITLE2
 70
     4
  0
ATTDEF
  5
7F65
330
7F60
100
AcDbEntity
  8
TEXT
100
AcDbText
 10
19.57174758838052
 20
0.1062243331644149
 30
0.0
 40
0.156
  1
 
 41
0.75
  7
TXT
 72
     1
 11
19.63024758838052
 21
0.1062243331644149
 31
0.0
100
AcDbAttributeDefinition
  3
ENTER PART #
  2
PART
 70
     4
  0
ATTDEF
  5
7F66
330
7F60
100
AcDbEntity
  8
TEXT
100
AcDbText
 10
19.63024758838052
 20
15.67764083603647
 30
0.0
 40
0.156
  1

 41
0.75
  7
TXT
 72
     1
 11
19.63024758838052
 21
15.67764083603647
 31
0.0
100
AcDbAttributeDefinition
  3
ENTER PART #
  2
PART
 70
     4
  0
ATTDEF
  5
7F67
330
7F60
100
AcDbEntity
  8
TEXT
100
AcDbText
 10
11.05689760415074
 20
1.182012335097561
 30
0.0
 40
0.125
  1

 41
4.936416426385731
  7
TXT
 72
     5
 11
14.96489394170611
 21
1.182012335097561
 31
0.0
100
AcDbAttributeDefinition
  3
ENTER CUT SIZE
  2
CUTSIZE
 70
     4
  0
ATTDEF
  5
7F68
330
7F60
100
AcDbEntity
  8
TEXT
100
AcDbText
 10
11.19437068912895
 20
0.2867788269611924
 30
0.0
 40
0.125
  1

 41
0.75
  7
TXT
 72
     1
 11
11.19437068912895
 21
0.2867788269611924
 31
0.0
100
AcDbAttributeDefinition
  3
ENTER QUANTITY
  2
QTY
 70
     4
  0
ATTDEF
  5
7F69
330
7F60
100
AcDbEntity
  8
TEXT
100
AcDbText
 10
12.13905420252699
 20
0.2867788269611924
 30
0.0
 40
0.125
  1

 41
0.75
  7
TXT
 72
     1
 11
12.13905420252699
 21
0.2867788269611924
 31
0.0
100
AcDbAttributeDefinition
  3
ENTER "USED ON" PART #
  2
USED
 70
     4
  0
ATTDEF
  5
7F6A
330
7F60
100
AcDbEntity
  8
TEXT
100
AcDbText
 10
15.72398122291403
 20
0.9555323710702353
 30
0.0
 40
0.125
  1
AS NOTED
 41
0.75
  7
TXT
 72
     1
 11
16.08335622291403
 21
0.9555323710702353
 31
0.0
100
AcDbAttributeDefinition
  3
ENTER MATERIAL
  2
MAT
 70
     4
  0
ATTDEF
  5
7F6B
330
7F60
100
AcDbEntity
  8
TEXT
100
AcDbText
 10
15.70835622291403
 20
0.7436542078606632
 30
0.0
 40
0.125
  1
SEE SPEC.
 41
0.75
  7
TXT
 72
     1
 11
16.08335622291403
 21
0.7436542078606632
 31
0.0
100
AcDbAttributeDefinition
  3
ENTER FINISH
  2
FINISH
 70
     4
  0
LINE
  5
7F6C
330
7F60
100
AcDbEntity
  8
TITLE
100
AcDbLine
 10
20.5
 20
0.0
 30
0.0
 11
20.5
 21
16.0
 31
0.0
  0
LINE
  5
7F6D
330
7F60
100
AcDbEntity
  8
TITLE
100
AcDbLine
 10
0.0
 20
0.0
 30
0.0
 11
20.5
 21
0.0
 31
0.0
  0
LINE
  5
7F6E
330
7F60
100
AcDbEntity
  8
TITLE
100
AcDbLine
 10
0.0
 20
16.0
 30
0.0
 11
0.0
 21
0.0
 31
0.0
  0
LINE
  5
7F6F
330
7F60
100
AcDbEntity
  8
TITLE
100
AcDbLine
 10
0.0
 20
16.0
 30
0.0
 11
20.5
 21
16.0
 31
0.0
  0
LINE
  5
7F70
330
7F60
100
AcDbEntity
  8
TITLE
100
AcDbLine
 10
11.01999999999999
 20
1.377
 30
0.0
 11
11.01999999999999
 21
-0.0000000000000004
 31
0.0
  0
LINE
  5
7F71
330
7F60
100
AcDbEntity
  8
TITLE
 62
     8
100
AcDbLine
 10
18.6875
 20
15.3125
 30
0.0
 11
18.6875
 21
15.5625
 31
0.0
  0
TEXT
  5
7F72
330
7F60
100
AcDbEntity
  8
TITLE
 62
     8
100
AcDbText
 10
18.1875
 20
15.8125
 30
0.0
 40
0.09375
  1
DWG.
  7
TXT
100
AcDbText
  0
TEXT
  5
7F73
330
7F60
100
AcDbEntity
  8
TITLE
 62
     8
100
AcDbText
 10
18.17928468339758
 20
15.39867246868617
 30
0.0
 40
0.09375
  1
ISSUE
  7
TXT
100
AcDbText
  0
LINE
  5
7F74
330
7F60
100
AcDbEntity
  8
TITLE
100
AcDbLine
 10
18.0625
 20
15.3125
 30
0.0
 11
18.0625
 21
16.0
 31
0.0
  0
TEXT
  5
7F75
330
7F60
100
AcDbEntity
  8
TITLE
 62
     8
100
AcDbText
 10
18.1875
 20
15.65625
 30
0.0
 40
0.09375
  1
NO.
  7
TXT
100
AcDbText
  0
LINE
  5
7F76
330
7F60
100
AcDbEntity
  8
TITLE
 62
     8
100
AcDbLine
 10
18.0625
 20
15.3125
 30
0.0
 11
20.5
 21
15.3125
 31
0.0
  0
LINE
  5
7F77
330
7F60
100
AcDbEntity
  8
TITLE
 62
     8
100
AcDbLine
 10
18.0625
 20
15.5625
 30
0.0
 11
20.5
 21
15.5625
 31
0.0
  0
TEXT
  5
7F78
330
7F60
100
AcDbEntity
  8
TITLE
 62
     8
100
AcDbText
 10
19.12324012267809
 20
15.40084779209924
 30
0.0
 40
0.09375
  1
REVISIONS
  7
TXT
100
AcDbText
  0
TEXT
  5
7F79
330
7F60
100
AcDbEntity
  8
TITLE
 62
     8
100
AcDbText
 10
18.4375
 20
0.9903543852819179
 30
0.0
 40
0.09375
  1
NAME:
  7
TXT
100
AcDbText
  0
TEXT
  5
7F7A
330
7F60
100
AcDbEntity
  8
TITLE
 62
     8
100
AcDbText
 10
18.4375
 20
0.0631657164931343
 30
0.0
 40
0.0938
  1
NO.
  7
TXT
100
AcDbText
  0
TEXT
  5
7F7B
330
7F60
100
AcDbEntity
  8
TITLE
 62
     8
100
AcDbText
 10
18.4375
 20
0.2194990498264686
 30
0.0
 40
0.0938
  1
DWG.
  7
TXT
100
AcDbText
  0
LINE
  5
7F7C
330
7F60
100
AcDbEntity
  8
TITLE
 62
     8
100
AcDbLine
 10
18.36724560008883
 20
-0.0000000000000004
 30
0.0
 11
18.36724560008883
 21
1.127
 31
0.0
  0
LINE
  5
7F7D
330
7F60
100
AcDbEntity
  8
TITLE
 62
     8
100
AcDbLine
 10
17.4365
 20
1.127
 30
0.0
 11
17.4365
 21
1.377
 31
0.0
  0
LINE
  5
7F7E
330
7F60
100
AcDbEntity
  8
TITLE
100
AcDbLine
 10
17.63673299114847
 20
0.8590073451518431
 30
0.0
 11
17.66976251320413
 21
0.8590073451518431
 31
0.0
  0
ARC
  5
7F7F
330
7F60
100
AcDbEntity
  8
TITLE
100
AcDbCircle
 10
17.66976251320413
 20
0.7660701812170974
 30
0.0
 40
0.0929371639347451
100
AcDbArc
 50
0.0
 51
90.0
  0
LINE
  5
7F80
330
7F60
100
AcDbEntity
  8
TITLE
100
AcDbLine
 10
17.71386129933556
 20
0.7328783369546899
 30
0.0
 11
17.67256370982726
 21
0.7328783369546899
 31
0.0
  0
LINE
  5
7F81
330
7F60
100
AcDbEntity
  8
TITLE
100
AcDbLine
 10
17.63673299114847
 20
0.5934725910525716
 30
0.0
 11
17.66976251320413
 21
0.5934725910525716
 31
0.0
  0
ARC
  5
7F82
330
7F60
100
AcDbEntity
  8
TITLE
100
AcDbCircle
 10
17.66976251320413
 20
0.6864097549873174
 30
0.0
 40
0.0929371639347451
100
AcDbArc
 50
270.0
 51
0.0
  0
LINE
  5
7F83
330
7F60
100
AcDbEntity
  8
TITLE
100
AcDbLine
 10
17.71386129933556
 20
0.7196015992497254
 30
0.0
 11
17.67256370982726
 21
0.7196015992497254
 31
0.0
  0
LINE
  5
7F84
330
7F60
100
AcDbEntity
  8
TITLE
100
AcDbLine
 10
17.63673299114847
 20
0.5934725910525716
 30
0.0
 11
17.63673299114847
 21
0.8590073451518431
 31
0.0
  0
LINE
  5
7F85
330
7F60
100
AcDbEntity
  8
TITLE
100
AcDbLine
 10
17.67256370982726
 20
0.7196015992497254
 30
0.0
 11
17.67256370982726
 21
0.7328783369546899
 31
0.0
  0
LINE
  5
7F86
330
7F60
100
AcDbEntity
  8
TITLE
100
AcDbLine
 10
17.76269967713888
 20
0.6864097549873174
 30
0.0
 11
17.76269967713888
 21
0.7660701812170974
 31
0.0
  0
LINE
  5
7F87
330
7F60
100
AcDbEntity
  8
TITLE
100
AcDbLine
 10
17.71386129933556
 20
0.7196015992497254
 30
0.0
 11
17.71386129933556
 21
0.7328783369546899
 31
0.0
  0
LINE
  5
7F88
330
7F60
100
AcDbEntity
  8
TITLE
100
AcDbLine
 10
17.53388478947083
 20
0.8590073451518431
 30
0.0
 11
17.58242241159558
 21
0.8590073451518431
 31
0.0
  0
LINE
  5
7F89
330
7F60
100
AcDbEntity
  8
TITLE
100
AcDbLine
 10
17.46223401395335
 20
0.8590073451518431
 30
0.0
 11
17.5107716360781
 21
0.8590073451518431
 31
0.0
  0
ARC
  5
7F8A
330
7F60
100
AcDbEntity
  8
TITLE
100
AcDbCircle
 10
17.52404837378307
 20
0.6367964281680929
 30
0.0
 40
0.0132767377049636
100
AcDbArc
 50
180.0
 51
262.5557159022863
  0
ARC
  5
7F8B
330
7F60
100
AcDbEntity
  8
TITLE
100
AcDbCircle
 10
17.52060805176588
 20
0.6367964281680929
 30
0.0
 40
0.0132767377049636
100
AcDbArc
 50
277.4442840977136
 51
0.0
  0
ARC
  5
7F8C
330
7F60
100
AcDbEntity
  8
TITLE
100
AcDbCircle
 10
17.56582648946438
 20
0.6100685131837765
 30
0.0
 40
0.0165959221312045
100
AcDbArc
 50
270.0
 51
0.0
  0
ARC
  5
7F8D
330
7F60
100
AcDbEntity
  8
TITLE
100
AcDbCircle
 10
17.47882993608456
 20
0.6100685131837765
 30
0.0
 40
0.0165959221312045
100
AcDbArc
 50
180.0
 51
270.0
  0
LINE
  5
7F8E
330
7F60
100
AcDbEntity
  8
TITLE
100
AcDbLine
 10
17.47882993608456
 20
0.5934725910525716
 30
0.0
 11
17.56582648946438
 21
0.5934725910525716
 31
0.0
  0
LINE
  5
7F8F
330
7F60
100
AcDbEntity
  8
TITLE
100
AcDbLine
 10
17.5107716360781
 20
0.6367964281680929
 30
0.0
 11
17.5107716360781
 21
0.8590073451518431
 31
0.0
  0
LINE
  5
7F90
330
7F60
100
AcDbEntity
  8
TITLE
100
AcDbLine
 10
17.53388478947083
 20
0.6367964281680929
 30
0.0
 11
17.53388478947083
 21
0.8590073451518431
 31
0.0
  0
LINE
  5
7F91
330
7F60
100
AcDbEntity
  8
TITLE
100
AcDbLine
 10
17.46223401395335
 20
0.6100685131837765
 30
0.0
 11
17.46223401395335
 21
0.8590073451518431
 31
0.0
  0
LINE
  5
7F92
330
7F60
100
AcDbEntity
  8
TITLE
100
AcDbLine
 10
17.58242241159558
 20
0.6100685131837765
 30
0.0
 11
17.58242241159558
 21
0.8590073451518431
 31
0.0
  0
LINE
  5
7F93
330
7F60
100
AcDbEntity
  8
TITLE
100
AcDbLine
 10
17.36284745436459
 20
0.7328783369546899
 30
0.0
 11
17.29004102117746
 21
0.7328783369546899
 31
0.0
  0
LINE
  5
7F94
330
7F60
100
AcDbEntity
  8
TITLE
100
AcDbLine
 10
17.27732878681146
 20
0.8590073451518431
 30
0.0
 11
17.36284745436459
 21
0.8590073451518431
 31
0.0
  0
LINE
  5
7F95
330
7F60
100
AcDbEntity
  8
TITLE
100
AcDbLine
 10
17.29004102117746
 20
0.7196015992497254
 30
0.0
 11
17.29004102117746
 21
0.7262399681022083
 31
0.0
  0
LINE
  5
7F96
330
7F60
100
AcDbEntity
  8
TITLE
100
AcDbLine
 10
17.27732878681146
 20
0.5934725910525716
 30
0.0
 11
17.36284745436459
 21
0.5934725910525716
 31
0.0
  0
LINE
  5
7F97
330
7F60
100
AcDbEntity
  8
TITLE
100
AcDbLine
 10
17.36284745436459
 20
0.7196015992497254
 30
0.0
 11
17.29004102117746
 21
0.7196015992497254
 31
0.0
  0
LINE
  5
7F98
330
7F60
100
AcDbEntity
  8
TITLE
100
AcDbLine
 10
17.27732878681146
 20
0.5934725910525716
 30
0.0
 11
17.27732878681146
 21
0.8590073451518431
 31
0.0
  0
LINE
  5
7F99
330
7F60
100
AcDbEntity
  8
TITLE
100
AcDbLine
 10
17.29004102117746
 20
0.7328783369546899
 30
0.0
 11
17.29004102117746
 21
0.7262399681022083
 31
0.0
  0
ARC
  5
7F9A
330
7F60
100
AcDbEntity
  8
TITLE
100
AcDbCircle
 10
17.36284745436459
 20
0.7959428410532668
 30
0.0
 40
0.063064504098577
100
AcDbArc
 50
270.0
 51
90.0
  0
ARC
  5
7F9B
330
7F60
100
AcDbEntity
  8
TITLE
100
AcDbCircle
 10
17.36284745436459
 20
0.6565370951511494
 30
0.0
 40
0.063064504098577
100
AcDbArc
 50
270.0
 51
90.00000000000003
  0
TEXT
  5
7F9C
330
7F60
100
AcDbEntity
  8
TITLE
 62
     8
100
AcDbText
 10
16.3755
 20
1.197740762992484
 30
0.0
 40
0.09375
  1
PART NO.
  7
TXT
100
AcDbText
  0
TEXT
  5
7F9D
330
7F60
100
AcDbEntity
  8
TITLE
 62
     8
100
AcDbText
 10
16.70237987390002
 20
0.9755983592151281
 30
0.0
 40
0.09375
  1
SCALE:
  7
TXT
100
AcDbText
  0
LINE
  5
7F9E
330
7F60
100
AcDbEntity
  8
TITLE
 62
     8
100
AcDbLine
 10
16.66353790782162
 20
-0.0000000000000004
 30
0.0
 11
16.66353790782162
 21
1.127
 31
0.0
  0
TEXT
  5
7F9F
330
7F60
100
AcDbEntity
  8
TITLE
 62
     8
100
AcDbText
 10
16.76389543567033
 20
0.1249999999999996
 30
0.0
 40
0.09375
  1
WILLOUGHBY, OHIO
  7
TXT
100
AcDbText
  0
TEXT
  5
7FA0
330
7F60
100
AcDbEntity
  8
TITLE
 62
     8
100
AcDbText
 10
16.70461451425917
 20
0.3749999999999996
 30
0.0
 40
0.09375
  1
BUD INDUSTRIES, INC.
  7
TXT
100
AcDbText
  0
LINE
  5
7FA1
330
7F60
100
AcDbEntity
  8
TITLE
 62
     8
100
AcDbLine
 10
18.36724560008883
 20
0.3819999999999992
 30
0.0
 11
20.49999999999999
 21
0.3819999999999992
 31
0.0
  0
TEXT
  5
7FA2
330
7F60
100
AcDbEntity
  8
TITLE
 62
     8
100
AcDbText
 10
18.50244590285365
 20
1.197740762992484
 30
0.0
 40
0.09375
  1
DESCRIPTION
  7
TXT
100
AcDbText
  0
LINE
  5
7FA3
330
7F60
100
AcDbEntity
  8
TITLE
 62
     8
100
AcDbLine
 10
15.93749999999999
 20
1.127
 30
0.0
 11
15.9375
 21
1.377
 31
0.0
  0
LINE
  5
7FA4
330
7F60
100
AcDbEntity
  8
TITLE
 62
     8
100
AcDbLine
 10
15.41929648007106
 20
1.127
 30
0.0
 11
15.41929648007106
 21
1.377
 31
0.0
  0
TEXT
  5
7FA5
330
7F60
100
AcDbEntity
  8
TITLE
 62
     8
100
AcDbText
 10
15.47084736005329
 20
1.197740762992484
 30
0.0
 40
0.09375
  1
REQ'D.
  7
TXT
100
AcDbText
  0
TEXT
  5
7FA6
330
7F60
100
AcDbEntity
  8
TITLE
 62
     8
100
AcDbText
 10
15.06299999999999
 20
0.9728772779084607
 30
0.0
 40
0.09375
  1
MAT:
  7
TXT
100
AcDbText
  0
TEXT
  5
7FA7
330
7F60
100
AcDbEntity
  8
TITLE
 62
     8
100
AcDbText
 10
15.05657245370309
 20
1.199407818911626
 30
0.0
 40
0.09375
  1
ITEM
  7
TXT
100
AcDbText
  0
TEXT
  5
7FA8
330
7F60
100
AcDbEntity
  8
TITLE
 62
     8
100
AcDbText
 10
15.06299999999999
 20
0.3124999999999996
 30
0.0
 40
0.09375
  1
CH.
  7
TXT
100
AcDbText
  0
TEXT
  5
7FA9
330
7F60
100
AcDbEntity
  8
TITLE
 62
     8
100
AcDbText
 10
15.06299999999999
 20
0.5693740809498898
 30
0.0
 40
0.09375
  1
DR.
  7
TXT
100
AcDbText
  0
TEXT
  5
7FAA
330
7F60
100
AcDbEntity
  8
TITLE
 62
     8
100
AcDbText
 10
15.06299999999999
 20
0.7741181638829385
 30
0.0
 40
0.09375
  1
FINISH:
  7
TXT
100
AcDbText
  0
TEXT
  5
7FAB
330
7F60
100
AcDbEntity
  8
TITLE
 62
     8
100
AcDbText
 10
15.06299999999999
 20
0.0624999999999996
 30
0.0
 40
0.09375
  1
APP.
  7
TXT
100
AcDbText
  0
LINE
  5
7FAC
330
7F60
100
AcDbEntity
  8
TITLE
 62
     8
100
AcDbLine
 10
15.6977560980471
 20
-0.0000000000000004
 30
0.0
 11
15.69775609804711
 21
0.709000000000001
 31
0.0
  0
LINE
  5
7FAD
330
7F60
100
AcDbEntity
  8
TITLE
 62
     8
100
AcDbLine
 10
15.00049999999999
 20
-0.0000000000000004
 30
0.0
 11
15.00049999999999
 21
1.377
 31
0.0
  0
TEXT
  5
7FAE
330
7F60
100
AcDbEntity
  8
TITLE
100
AcDbText
 10
13.04590599630992
 20
0.9520717565666277
 30
0.0
 40
0.1117888355610499
  1
%%uTOLERANCES:
  7
TXT
100
AcDbText
  0
TEXT
  5
7FAF
330
7F60
100
AcDbEntity
  8
TITLE
 62
     8
100
AcDbText
 10
13.09148536758392
 20
0.2344895723568654
 30
0.0
 40
0.0772424143690822
  1
    SURFACES
  7
TXT
100
AcDbText
  0
TEXT
  5
7FB0
330
7F60
100
AcDbEntity
  8
TITLE
 62
     8
100
AcDbText
 10
12.99371994674778
 20
0.7494390014840789
 30
0.0
 40
0.0772424143690822
  1
%%p.005 BETWEEN HOLE CENTERS
  7
TXT
100
AcDbText
  0
TEXT
  5
7FB1
330
7F60
100
AcDbEntity
  8
TITLE
 62
     8
100
AcDbText
 10
12.99371994674778
 20
0.6207016442022755
 30
0.0
 40
0.0772424143690822
  1
%%p.015 FROM SHEARED EDGE
  7
TXT
100
AcDbText
  0
TEXT
  5
7FB2
330
7F60
100
AcDbEntity
  8
TITLE
 62
     8
100
AcDbText
 10
12.99371994674778
 20
0.4919642869204704
 30
0.0
 40
0.0772424143690822
  1
%%p.032 FROM A BENT SURFACE
  7
TXT
100
AcDbText
  0
TEXT
  5
7FB3
330
7F60
100
AcDbEntity
  8
TITLE
 62
     8
100
AcDbText
 10
12.99864980528381
 20
0.0564750904941671
 30
0.0
 40
0.0772424143690822
  1
UNLESS OTHERWISE SPECIFIED
  7
TXT
100
AcDbText
  0
TEXT
  5
7FB4
330
7F60
100
AcDbEntity
  8
TITLE
 62
     8
100
AcDbText
 10
12.99371994674778
 20
0.363226929638667
 30
0.0
 40
0.0772424143690822
  1
%%p.063 BETWEEN ASSEMBLED
  7
TXT
100
AcDbText
  0
LINE
  5
7FB5
330
7F60
100
AcDbEntity
  8
TITLE
 62
     8
100
AcDbLine
 10
11.39499999999999
 20
0.0000000000000013
 30
0.0
 11
11.39499999999999
 21
0.2499999999999996
 31
0.0
  0
TEXT
  5
7FB6
330
7F60
100
AcDbEntity
  8
TITLE
 62
     8
100
AcDbText
 10
11.81725974114937
 20
0.0776282744477839
 30
0.0
 40
0.09375
  1
USED ON
  7
TXT
100
AcDbText
  0
LINE
  5
7FB7
330
7F60
100
AcDbEntity
  8
TITLE
 62
     8
100
AcDbLine
 10
12.9225
 20
0.0000000000000013
 30
0.0
 11
12.9225
 21
1.127
 31
0.0
  0
LINE
  5
7FB8
330
7F60
100
AcDbEntity
  8
TITLE
100
AcDbLine
 10
11.01999999999999
 20
0.2499999999999996
 30
0.0
 11
12.9225
 21
0.2499999999999996
 31
0.0
  0
LINE
  5
7FB9
330
7F60
100
AcDbEntity
  8
TITLE
100
AcDbLine
 10
12.9225
 20
1.127
 30
0.0
 11
11.01999999999999
 21
1.127
 31
0.0
  0
TEXT
  5
7FBA
330
7F60
100
AcDbEntity
  8
TITLE
 62
     8
100
AcDbText
 10
11.07174918381226
 20
0.0776282744477839
 30
0.0
 40
0.09375
  1
QTY.
  7
TXT
100
AcDbText
  0
LINE
  5
7FBB
330
7F60
100
AcDbEntity
  8
TITLE
100
AcDbLine
 10
15.00049999999999
 20
1.377
 30
0.0
 11
11.01999999999999
 21
1.377
 31
0.0
  0
LINE
  5
7FBC
330
7F60
100
AcDbEntity
  8
TITLE
100
AcDbLine
 10
15.00049999999999
 20
1.377
 30
0.0
 11
20.49999999999999
 21
1.377
 31
0.0
  0
LINE
  5
7FBD
330
7F60
100
AcDbEntity
  8
TITLE
100
AcDbLine
 10
12.9225
 20
1.127
 30
0.0
 11
20.49999999999999
 21
1.127
 31
0.0
  0
LINE
  5
7FBE
330
7F60
100
AcDbEntity
  8
TITLE
100
AcDbLine
 10
15.00049999999999
 20
0.9180000000000006
 30
0.0
 11
18.36724560008883
 21
0.9180000000000006
 31
0.0
  0
LINE
  5
7FBF
330
7F60
100
AcDbEntity
  8
TITLE
100
AcDbLine
 10
15.00049999999999
 20
0.2499999999999996
 30
0.0
 11
16.66353790782162
 21
0.2499999999999996
 31
0.0
  0
LINE
  5
7FC0
330
7F60
100
AcDbEntity
  8
TITLE
100
AcDbLine
 10
15.00049999999999
 20
0.709000000000001
 30
0.0
 11
16.66353790782162
 21
0.709000000000001
 31
0.0
  0
LINE
  5
7FC1
330
7F60
100
AcDbEntity
  8
TITLE
100
AcDbLine
 10
15.00049999999999
 20
0.4999999999999996
 30
0.0
 11
16.66353790782162
 21
0.4999999999999996
 31
0.0
  0
ENDBLK
  5
7FC3
330
7F60
100
AcDbEntity
  8
0
 48
0.4
100
AcDbBlockEnd
  0
ENDSEC
  0
SECTION
  2
ENTITIES
  0
LINE
  5
3821
330
1F
100
AcDbEntity
  8
0
 62
     1
100
AcDbLine
 10
1720.877434685289
 20
610.3794993102773
 30
0.0
 11
1720.877434685289
 21
610.3715554672821
 31
0.0
  0
ARC
  5
3823
330
1F
100
AcDbEntity
  8
\M+2BBB2\M+2A755\M+2BD75
100
AcDbCircle
 10
1720.989726144266
 20
610.7868917413843
 30
0.0
 40
0.2374011
100
AcDbArc
 50
191.8922194574888
 51
213.5272219807866
  0
ARC
  5
3824
330
1F
100
AcDbEntity
  8
\M+2BBB2\M+2A755\M+2BD75
100
AcDbCircle
 10
1720.989726144266
 20
610.7868917413843
 30
0.0
 40
0.3122041
100
AcDbArc
 50
191.3677237481945
 51
213.5272219807866
  0
ARC
  5
3825
330
1F
100
AcDbEntity
  8
\M+2BBB2\M+2A755\M+2BD75
100
AcDbCircle
 10
1720.362868785289
 20
610.3715554672821
 30
0.0
 40
0.5145659000000001
100
AcDbArc
 50
0.0000000000069544
 51
33.52722198078653
  0
ARC
  5
3826
330
1F
100
AcDbEntity
  8
\M+2BBB2\M+2A755\M+2BD75
100
AcDbCircle
 10
1720.362868785289
 20
610.3715554672821
 30
0.0
 40
0.4397629000000001
100
AcDbArc
 50
0.0000000000069544
 51
33.52722198078653
  0
LINE
  5
382C
330
1F
100
AcDbEntity
  8
\M+2BBB2\M+2A755\M+2BD75
100
AcDbLine
 10
1720.363065635289
 20
611.4200769922822
 30
0.0
 11
1720.454781838685
 21
611.415270349738
 31
0.0
  0
LINE
  5
382D
330
1F
100
AcDbEntity
  8
\M+2BBB2\M+2A755\M+2BD75
100
AcDbLine
 10
1720.857552835289
 20
610.3715554672821
 30
0.0
 11
1720.857552835289
 21
609.8967532672822
 31
0.0
  0
LINE
  5
382E
330
1F
100
AcDbEntity
  8
\M+2BBB2\M+2A755\M+2BD75
100
AcDbLine
 10
1720.694928760024
 20
611.1944271611688
 30
0.0
 11
1720.757420389346
 21
610.7379701867072
 31
0.0
  0
LINE
  5
382F
330
1F
100
AcDbEntity
  8
\M+2BBB2\M+2A755\M+2BD75
100
AcDbLine
 10
1720.620817081097
 20
611.1842808388931
 30
0.0
 11
1720.683646750418
 21
610.7253547222927
 31
0.0
  0
ARC
  5
3830
330
1F
100
AcDbEntity
  8
\M+2BBB2\M+2A755\M+2BD75
100
AcDbCircle
 10
1720.441388805802
 20
611.1597160586466
 30
0.0
 40
0.255905
100
AcDbArc
 50
7.795663123828314
 51
86.99999999999272
  0
ARC
  5
3831
330
1F
100
AcDbEntity
  8
\M+2BBB2\M+2A755\M+2BD75
100
AcDbCircle
 10
1720.441388805802
 20
611.1597160586466
 30
0.0
 40
0.181102
100
AcDbArc
 50
7.795663123828314
 51
86.99999999999272
  0
LINE
  5
3838
330
1F
100
AcDbEntity
  8
\M+2BBB2\M+2A755\M+2BD75
100
AcDbLine
 10
1720.363065635289
 20
611.3726361422822
 30
0.0
 11
1720.363065635289
 21
611.4200769922821
 31
0.0
  0
LINE
  5
3839
330
1F
100
AcDbEntity
  8
\M+2BBB2\M+2A755\M+2BD75
100
AcDbLine
 10
1720.422120635289
 20
611.3482997142391
 30
0.0
 11
1720.422120635289
 21
611.3844471422821
 31
0.0
  0
LINE
  5
383A
330
1F
100
AcDbEntity
  8
\M+2BBB2\M+2A755\M+2BD75
100
AcDbLine
 10
1720.422120635289
 20
611.3844471422821
 30
0.0
 11
1720.386687635289
 21
611.3844471422821
 31
0.0
  0
LINE
  5
384E
330
1F
100
AcDbEntity
  8
\M+2BBB2\M+2A755\M+2BD75
100
AcDbLine
 10
1720.782946685289
 20
610.3210361902836
 30
0.0
 11
1720.579600635289
 21
610.3210361902835
 31
0.0
  0
LINE
  5
384F
330
1F
100
AcDbEntity
  8
\M+2BBB2\M+2A755\M+2BD75
100
AcDbLine
 10
1720.746579210453
 20
610.5782207152835
 30
0.0
 11
1720.579600635289
 21
610.5782207152835
 31
0.0
  0
LINE
  5
3850
330
1F
100
AcDbEntity
  8
\M+2BBB2\M+2A755\M+2BD75
100
AcDbLine
 10
1720.798104193006
 20
610.4040773627835
 30
0.0
 11
1720.599285635289
 21
610.4040773627835
 31
0.0
  0
LINE
  5
3851
330
1F
100
AcDbEntity
  8
\M+2BBB2\M+2A755\M+2BD75
100
AcDbLine
 10
1720.777755382246
 20
610.4951795427836
 30
0.0
 11
1720.599285635289
 21
610.4951795427836
 31
0.0
  0
LINE
  5
3852
330
1F
100
AcDbEntity
  8
\M+2BBB2\M+2A755\M+2BD75
100
AcDbLine
 10
1720.579600635289
 20
610.5148645427836
 30
0.0
 11
1720.579600635289
 21
610.5782207152835
 31
0.0
  0
LINE
  5
3853
330
1F
100
AcDbEntity
  8
\M+2BBB2\M+2A755\M+2BD75
100
AcDbLine
 10
1720.599285635289
 20
610.4951795427836
 30
0.0
 11
1720.579600635289
 21
610.5148645427836
 31
0.0
  0
LINE
  5
3854
330
1F
100
AcDbEntity
  8
\M+2BBB2\M+2A755\M+2BD75
100
AcDbLine
 10
1720.579600635289
 20
610.3210361902835
 30
0.0
 11
1720.579600635289
 21
610.3843923627835
 31
0.0
  0
LINE
  5
3855
330
1F
100
AcDbEntity
  8
\M+2BBB2\M+2A755\M+2BD75
100
AcDbLine
 10
1720.599285635289
 20
610.4040773627835
 30
0.0
 11
1720.579600635289
 21
610.3843923627835
 31
0.0
  0
LINE
  5
3856
330
1F
100
AcDbEntity
  8
\M+2BBB2\M+2A755\M+2BD75
100
AcDbLine
 10
1720.579600635289
 20
610.3843923627835
 30
0.0
 11
1720.579600635289
 21
610.5148645427836
 31
0.0
  0
LINE
  5
3859
330
1F
100
AcDbEntity
  8
\M+2BBB2\M+2A755\M+2BD75
100
AcDbLine
 10
1720.386687635289
 20
611.3844471422821
 30
0.0
 11
1720.441805635289
 21
611.3844471422821
 31
0.0
  0
LINE
  5
385A
330
1F
100
AcDbEntity
  8
\M+2BBB2\M+2A755\M+2BD75
100
AcDbLine
 10
1720.441805635289
 20
611.3844471422821
 30
0.0
 11
1720.441805635289
 21
611.3405698646497
 31
0.0
  0
LINE
  5
385D
330
1F
100
AcDbEntity
  8
\M+2BBB2\M+2A755\M+2BD75
100
AcDbLine
 10
1720.363065635289
 20
611.3482997142391
 30
0.0
 11
1720.441805635289
 21
611.3482997142391
 31
0.0
  0
LINE
  5
3860
330
1F
100
AcDbEntity
  8
\M+2BBB2\M+2A755\M+2BD75
100
AcDbLine
 10
1720.802631685289
 20
610.3691932672822
 30
0.0
 11
1720.802631685289
 21
610.371555467282
 31
0.0
  0
LINE
  5
3861
330
1F
100
AcDbEntity
  8
\M+2BBB2\M+2A755\M+2BD75
100
AcDbLine
 10
1720.782946685289
 20
609.9991383308105
 30
0.0
 11
1720.782946685289
 21
610.3691932672822
 31
0.0
  0
LINE
  5
3862
330
1F
100
AcDbEntity
  8
\M+2BBB2\M+2A755\M+2BD75
100
AcDbLine
 10
1720.450866952149
 20
611.3405698646497
 30
0.0
 11
1720.441805635289
 21
611.3405698646497
 31
0.0
  0
LINE
  5
3863
330
1F
100
AcDbEntity
  8
\M+2BBB2\M+2A755\M+2BD75
100
AcDbLine
 10
1720.374876635289
 20
611.3608251422822
 30
0.0
 11
1720.374876635289
 21
611.3608251422822
 31
0.0
  0
ARC
  5
3864
330
1F
100
AcDbEntity
  8
\M+2BBB2\M+2A755\M+2BD75
100
AcDbCircle
 10
1720.374876635289
 20
611.3726361422822
 30
0.0
 40
0.011811
100
AcDbArc
 50
180.0
 51
270.0
  0
LINE
  5
3865
330
1F
100
AcDbEntity
  8
\M+2BBB2\M+2A755\M+2BD75
100
AcDbLine
 10
1720.386687635289
 20
611.3726361422822
 30
0.0
 11
1720.386687635289
 21
611.3844471422821
 31
0.0
  0
ARC
  5
3866
330
1F
100
AcDbEntity
  8
\M+2BBB2\M+2A755\M+2BD75
100
AcDbCircle
 10
1720.374876635289
 20
611.3726361422822
 30
0.0
 40
0.011811
100
AcDbArc
 50
270.0
 51
0.0
  0
LINE
  5
3867
330
1F
100
AcDbEntity
  8
\M+2BBB2\M+2A755\M+2BD75
100
AcDbLine
 10
1720.782946685289
 20
610.3691932672822
 30
0.0
 11
1720.802631685289
 21
610.3691932672822
 31
0.0
  0
LINE
  5
38A0
330
1F
100
AcDbEntity
  8
\M+2BBB2\M+2A755\M+2BD75
100
AcDbLine
 10
1719.829011585289
 20
610.3794993102775
 30
0.0
 11
1719.829011585289
 21
610.3715554672821
 31
0.0
  0
ARC
  5
38A2
330
1F
100
AcDbEntity
  8
\M+2BBB2\M+2A755\M+2BD75
100
AcDbCircle
 10
1719.716720126312
 20
610.7868917413843
 30
0.0
 40
0.2374011
100
AcDbArc
 50
326.4727780192133
 51
356.300893209827
  0
ARC
  5
38A3
330
1F
100
AcDbEntity
  8
\M+2BBB2\M+2A755\M+2BD75
100
AcDbCircle
 10
1720.343577485289
 20
610.3715554672821
 30
0.0
 40
0.5145659000000001
100
AcDbArc
 50
146.4727780192134
 51
179.999999999993
  0
ARC
  5
38A4
330
1F
100
AcDbEntity
  8
\M+2BBB2\M+2A755\M+2BD75
100
AcDbCircle
 10
1720.343577485289
 20
610.3715554672821
 30
0.0
 40
0.4358259000000001
100
AcDbArc
 50
146.4727780192134
 51
179.999999999993
  0
LINE
  5
38AA
330
1F
100
AcDbEntity
  8
\M+2BBB2\M+2A755\M+2BD75
100
AcDbLine
 10
1720.343380635289
 20
611.4200769922822
 30
0.0
 11
1720.251664431893
 21
611.415270349738
 31
0.0
  0
LINE
  5
38AB
330
1F
100
AcDbEntity
  8
\M+2BBB2\M+2A755\M+2BD75
100
AcDbLine
 10
1720.34731612649
 20
611.3449833467462
 30
0.0
 11
1720.255599923094
 21
611.3401767042018
 31
0.0
  0
LINE
  5
38AC
330
1F
100
AcDbEntity
  8
\M+2BBB2\M+2A755\M+2BD75
100
AcDbLine
 10
1719.848893435289
 20
610.1032955089964
 30
0.0
 11
1719.848893435289
 21
609.8967532672822
 31
0.0
  0
LINE
  5
38AD
330
1F
100
AcDbEntity
  8
\M+2BBB2\M+2A755\M+2BD75
100
AcDbLine
 10
1720.011517510554
 20
611.1944271611688
 30
0.0
 11
1719.953626630599
 21
610.7715753936604
 31
0.0
  0
LINE
  5
38AE
330
1F
100
AcDbEntity
  8
\M+2BBB2\M+2A755\M+2BD75
100
AcDbLine
 10
1720.086019250948
 20
611.1842274371968
 30
0.0
 11
1720.02846807565
 21
610.7638569709701
 31
0.0
  0
ARC
  5
38AF
330
1F
100
AcDbEntity
  8
\M+2BBB2\M+2A755\M+2BD75
100
AcDbCircle
 10
1720.265057464776
 20
611.1597160586466
 30
0.0
 40
0.255905
100
AcDbArc
 50
93.00000000000727
 51
172.2043368761716
  0
ARC
  5
38B0
330
1F
100
AcDbEntity
  8
\M+2BBB2\M+2A755\M+2BD75
100
AcDbCircle
 10
1720.265057464776
 20
611.1597160586466
 30
0.0
 40
0.1807083
100
AcDbArc
 50
93.00000000000727
 51
172.2043368761716
  0
LINE
  5
38B5
330
1F
100
AcDbEntity
  8
\M+2BBB2\M+2A755\M+2BD75
100
AcDbLine
 10
1720.414246635289
 20
609.8967532672822
 30
0.0
 11
1720.414246635289
 21
611.3686991422821
 31
0.0
  0
LINE
  5
38B6
330
1F
100
AcDbEntity
  8
\M+2BBB2\M+2A755\M+2BD75
100
AcDbLine
 10
1720.363065635289
 20
609.8967532672822
 30
0.0
 11
1720.363065635289
 21
609.951868157591
 31
0.0
  0
LINE
  5
38B8
330
1F
100
AcDbEntity
  8
\M+2BBB2\M+2A755\M+2BD75
100
AcDbLine
 10
1719.907751585289
 20
610.3691932672822
 30
0.0
 11
1719.907751585289
 21
610.3715554672821
 31
0.0
  0
LINE
  5
38B9
330
1F
100
AcDbEntity
  8
\M+2BBB2\M+2A755\M+2BD75
100
AcDbLine
 10
1720.363065635289
 20
611.4001951422821
 30
0.0
 11
1720.343380635289
 21
611.4001951422821
 31
0.0
  0
LINE
  5
38BA
330
1F
100
AcDbEntity
  8
\M+2BBB2\M+2A755\M+2BD75
100
AcDbLine
 10
1720.402435635289
 20
611.3805101422821
 30
0.0
 11
1720.363065635289
 21
611.3805101422821
 31
0.0
  0
ARC
  5
38BB
330
1F
100
AcDbEntity
  8
\M+2BBB2\M+2A755\M+2BD75
100
AcDbCircle
 10
1720.402435635289
 20
611.3686991422821
 30
0.0
 40
0.011811
100
AcDbArc
 50
359.9999999999991
 51
90.0
  0
LINE
  5
38C0
330
1F
100
AcDbEntity
  8
\M+2BBB2\M+2A755\M+2BD75
100
AcDbLine
 10
1720.343380635289
 20
611.3447770963919
 30
0.0
 11
1720.414246635289
 21
611.3447770963919
 31
0.0
  0
LINE
  5
38C2
330
1F
100
AcDbEntity
  8
\M+2BBB2\M+2A755\M+2BD75
100
AcDbLine
 10
1719.848893435289
 20
610.3715554672821
 30
0.0
 11
1719.829011585289
 21
610.3715554672821
 31
0.0
  0
LINE
  5
38C3
330
1F
100
AcDbEntity
  8
\M+2BBB2\M+2A755\M+2BD75
100
AcDbLine
 10
1719.848893435289
 20
610.3715554672821
 30
0.0
 11
1719.848893435289
 21
610.1032955089964
 31
0.0
  0
LINE
  5
38C4
330
1F
100
AcDbEntity
  8
\M+2BBB2\M+2A755\M+2BD75
100
AcDbLine
 10
1719.907751585289
 20
610.3691932672822
 30
0.0
 11
1719.927436585289
 21
610.3691932672822
 31
0.0
  0
LINE
  5
38C5
330
1F
100
AcDbEntity
  8
\M+2BBB2\M+2A755\M+2BD75
100
AcDbLine
 10
1719.927436585289
 20
610.3691932672822
 30
0.0
 11
1719.927436585289
 21
610.0994769977842
 31
0.0
  0
LINE
  5
38C6
330
1F
100
AcDbEntity
  8
\M+2BBB2\M+2A755\M+2BD75
100
AcDbLine
 10
1720.343380635289
 20
611.4001951422821
 30
0.0
 11
1720.343380635289
 21
611.4200769922822
 31
0.0
  0
LINE
  5
38C7
330
1F
100
AcDbEntity
  8
\M+2BBB2\M+2A755\M+2BD75
100
AcDbLine
 10
1720.363065635289
 20
611.3805101422821
 30
0.0
 11
1720.363065635289
 21
611.4001951422821
 31
0.0
  0
LINE
  5
38C8
330
1F
100
AcDbEntity
  8
\M+2BBB2\M+2A755\M+2BD75
100
AcDbLine
 10
1720.363065635289
 20
611.3805101422821
 30
0.0
 11
1720.363065635289
 21
611.3447770963919
 31
0.0
  0
LINE
  5
38C9
330
1F
100
AcDbEntity
  8
\M+2BBB2\M+2A755\M+2BD75
100
AcDbLine
 10
1720.394561635289
 20
611.3805101422821
 30
0.0
 11
1720.394561635289
 21
611.3447770963919
 31
0.0
  0
ARC
  5
38CA
330
1F
100
AcDbEntity
  8
\M+2BBB2\M+2A755\M+2BD75
100
AcDbCircle
 10
1719.628029705545
 20
610.807748280481
 30
0.0
 40
0.4028366111751481
100
AcDbArc
 50
330.9719161388562
 51
353.7448853104724
  0
LINE
  5
38CB
330
1F
100
AcDbEntity
  8
\M+2BBB2\M+2A755\M+2BD75
100
AcDbLine
 10
1720.126845635289
 20
610.3210361902835
 30
0.0
 11
1719.927436585289
 21
610.3210361902835
 31
0.0
  0
LINE
  5
38CC
330
1F
100
AcDbEntity
  8
\M+2BBB2\M+2A755\M+2BD75
100
AcDbLine
 10
1720.126845635289
 20
610.5782207152834
 30
0.0
 11
1719.959867060125
 21
610.5782207152834
 31
0.0
  0
LINE
  5
38CD
330
1F
100
AcDbEntity
  8
\M+2BBB2\M+2A755\M+2BD75
100
AcDbLine
 10
1720.126845635289
 20
610.5782207152834
 30
0.0
 11
1720.126845635289
 21
610.5145889527834
 31
0.0
  0
LINE
  5
38CE
330
1F
100
AcDbEntity
  8
\M+2BBB2\M+2A755\M+2BD75
100
AcDbLine
 10
1720.107160635289
 20
610.4043529527834
 30
0.0
 11
1719.908987402503
 21
610.4043529527834
 31
0.0
  0
LINE
  5
38CF
330
1F
100
AcDbEntity
  8
\M+2BBB2\M+2A755\M+2BD75
100
AcDbLine
 10
1720.107160635289
 20
610.4949039527834
 30
0.0
 11
1719.925571066396
 21
610.4949039527834
 31
0.0
  0
LINE
  5
38D0
330
1F
100
AcDbEntity
  8
\M+2BBB2\M+2A755\M+2BD75
100
AcDbLine
 10
1720.126845635289
 20
610.3210361902835
 30
0.0
 11
1720.126845635289
 21
610.3846679527834
 31
0.0
  0
LINE
  5
38D1
330
1F
100
AcDbEntity
  8
\M+2BBB2\M+2A755\M+2BD75
100
AcDbLine
 10
1720.126845635289
 20
610.3846679527834
 30
0.0
 11
1720.126845635289
 21
610.5145889527834
 31
0.0
  0
LINE
  5
38D2
330
1F
100
AcDbEntity
  8
\M+2BBB2\M+2A755\M+2BD75
100
AcDbLine
 10
1720.126845635289
 20
610.3846679527834
 30
0.0
 11
1720.107160635289
 21
610.4043529527834
 31
0.0
  0
LINE
  5
38D3
330
1F
100
AcDbEntity
  8
\M+2BBB2\M+2A755\M+2BD75
100
AcDbLine
 10
1720.107160635289
 20
610.4949039527834
 30
0.0
 11
1720.126845635289
 21
610.5145889527834
 31
0.0
  0
LINE
  5
38D4
330
1F
100
AcDbEntity
  8
\M+2BBB2\M+2A755\M+2BD75
100
AcDbLine
 10
1720.107160635289
 20
610.4043529527834
 30
0.0
 11
1720.107160635289
 21
610.4949039527834
 31
0.0
  0
LWPOLYLINE
  5
3E8A
102
{ACAD_REACTORS
330
4806
102
}
330
1F
100
AcDbEntity
  8
\M+2BBB2\M+2A755\M+2BD75
100
AcDbPolyline
 90
       18
 70
     1
 43
0.0
 10
1722.250037154348
 20
619.7943790105315
 42
0.3163403014552268
 10
1722.250037154348
 20
618.7076668957213
 10
1722.255411926827
 20
618.6918935159844
 10
1722.285361573983
 20
617.9626487097509
 42
0.4022418350901705
 10
1722.501610931143
 20
617.7550982875013
 10
1723.022910180477
 20
617.7550982875013
 10
1723.54420942981
 20
617.7550982875013
 42
0.4022418350901004
 10
1723.76045878697
 20
617.9626487097509
 10
1723.790408434125
 20
618.6918935159844
 10
1723.795783206604
 20
618.7076668957213
 42
0.3163403014552317
 10
1723.795783206604
 20
619.7943790105315
 10
1723.790408434125
 20
619.8101523902685
 10
1723.76045878697
 20
620.5393971965019
 42
0.4022418350901705
 10
1723.54420942981
 20
620.7469476187513
 10
1723.022910180477
 20
620.7469476187513
 10
1722.501610931143
 20
620.7469476187513
 42
0.4022418350901004
 10
1722.285361573983
 20
620.5393971965019
 10
1722.255411926827
 20
619.8101523902685
  0
LWPOLYLINE
  5
3E8B
102
{ACAD_REACTORS
330
4702
102
}
330
1F
100
AcDbEntity
  8
\M+2BBB2\M+2A755\M+2BD75
100
AcDbPolyline
 90
       18
 70
     1
 43
0.0
 10
1722.299377951578
 20
619.7691461656131
 42
0.3211278750237676
 10
1722.299377951578
 20
618.7328997406397
 10
1722.309882551615
 20
618.702071822615
 10
1722.340157791182
 20
617.964899157552
 42
0.4022418350901597
 10
1722.501610931143
 20
617.8099406975015
 10
1723.022910180477
 20
617.8099406975015
 10
1723.54420942981
 20
617.8099406975015
 42
0.4022418350900875
 10
1723.705662569771
 20
617.964899157552
 10
1723.735937809338
 20
618.702071822615
 10
1723.746442409375
 20
618.7328997406398
 42
0.3211278750237669
 10
1723.746442409375
 20
619.7691461656131
 10
1723.735937809338
 20
619.7999740836378
 10
1723.705662569771
 20
620.5371467487008
 42
0.4022418350901597
 10
1723.54420942981
 20
620.6921052087514
 10
1723.022910180477
 20
620.6921052087514
 10
1722.501610931143
 20
620.6921052087514
 42
0.4022418350900875
 10
1722.340157791182
 20
620.5371467487008
 10
1722.309882551615
 20
619.7999740836378
  0
LWPOLYLINE
  5
3E8C
102
{ACAD_REACTORS
330
47D2
330
47EA
102
}
330
1F
100
AcDbEntity
  8
\M+2BBB2\M+2A755\M+2BD75
100
AcDbPolyline
 90
       18
 70
     1
 43
0.0
 10
1722.267667837517
 20
619.7853936041469
 42
0.3179993640019361
 10
1722.267667837517
 20
618.7166523021057
 10
1722.274865721394
 20
618.6955286254953
 10
1722.304931651554
 20
617.9634524411085
 42
0.4022418350901751
 10
1722.501610931143
 20
617.7746848625014
 10
1723.022910180477
 20
617.7746848625014
 10
1723.54420942981
 20
617.7746848625014
 42
0.4022418350900746
 10
1723.740888709399
 20
617.9634524411085
 10
1723.770954639558
 20
618.6955286254953
 10
1723.778152523436
 20
618.7166523021058
 42
0.3179993640019277
 10
1723.778152523436
 20
619.7853936041469
 10
1723.770954639558
 20
619.8065172807575
 10
1723.740888709399
 20
620.5385934651443
 42
0.4022418350901751
 10
1723.54420942981
 20
620.7273610437514
 10
1723.022910180477
 20
620.7273610437514
 10
1722.501610931143
 20
620.7273610437514
 42
0.4022418350900873
 10
1722.304931651554
 20
620.5385934651443
 10
1722.274865721394
 20
619.8065172807575
  0
CIRCLE
  5
3E8D
330
1F
100
AcDbEntity
  8
\M+2BBB2\M+2A755\M+2BD75
100
AcDbCircle
 10
1722.491428467851
 20
618.7009121435525
 30
0.0
 40
0.1279493011875
  0
CIRCLE
  5
3E8E
102
{ACAD_REACTORS
330
474E
102
}
330
1F
100
AcDbEntity
  8
\M+2BBB2\M+2A755\M+2BD75
100
AcDbCircle
 10
1722.491428467851
 20
619.8011337627003
 30
0.0
 40
0.1279493011875
  0
CIRCLE
  5
3E8F
330
1F
100
AcDbEntity
  8
\M+2BBB2\M+2A755\M+2BD75
100
AcDbCircle
 10
1723.554391893102
 20
619.8011337627003
 30
0.0
 40
0.1279493011875
  0
CIRCLE
  5
3E90
102
{ACAD_REACTORS
330
4766
102
}
330
1F
100
AcDbEntity
  8
\M+2BBB2\M+2A755\M+2BD75
100
AcDbCircle
 10
1723.554391893102
 20
618.7009121435525
 30
0.0
 40
0.1279493011875
  0
LINE
  5
3E96
330
1F
100
AcDbEntity
  8
\M+2BBB2\M+2A755\M+2BD75
100
AcDbLine
 10
1723.111049767976
 20
620.6921052087514
 30
0.0
 11
1723.111049767976
 21
620.7273610437514
 31
0.0
  0
LINE
  5
3E97
330
1F
100
AcDbEntity
  8
\M+2BBB2\M+2A755\M+2BD75
100
AcDbLine
 10
1723.150222917976
 20
620.6921052087514
 30
0.0
 11
1723.150222917976
 21
620.7273610437514
 31
0.0
  0
LINE
  5
3E98
330
1F
100
AcDbEntity
  8
\M+2BBB2\M+2A755\M+2BD75
100
AcDbLine
 10
1722.934770592976
 20
620.6921052087514
 30
0.0
 11
1722.934770592976
 21
620.7273610437514
 31
0.0
  0
LINE
  5
3E99
330
1F
100
AcDbEntity
  8
\M+2BBB2\M+2A755\M+2BD75
100
AcDbLine
 10
1722.895597442976
 20
620.6921052087514
 30
0.0
 11
1722.895597442976
 21
620.7273610437514
 31
0.0
  0
LINE
  5
3E9D
330
1F
100
AcDbEntity
  8
\M+2BBB2\M+2A755\M+2BD75
100
AcDbLine
 10
1723.120843055476
 20
617.8099406975015
 30
0.0
 11
1723.120843055476
 21
617.7746848625014
 31
0.0
  0
LINE
  5
3E9E
330
1F
100
AcDbEntity
  8
\M+2BBB2\M+2A755\M+2BD75
100
AcDbLine
 10
1722.924977305476
 20
617.8099406975015
 30
0.0
 11
1722.924977305476
 21
617.7746848625014
 31
0.0
  0
CIRCLE
  5
3EA0
330
1F
100
AcDbEntity
  8
\M+2BBB2\M+2A755\M+2BD75
100
AcDbCircle
 10
1723.554391893102
 20
619.8011337627003
 30
0.0
 40
0.0450491225
  0
CIRCLE
  5
3EA1
330
1F
100
AcDbEntity
  8
\M+2BBB2\M+2A755\M+2BD75
100
AcDbCircle
 10
1723.554391893102
 20
619.8011337627003
 30
0.0
 40
0.0646356975
  0
CIRCLE
  5
3EA2
330
1F
100
AcDbEntity
  8
\M+2BBB2\M+2A755\M+2BD75
100
AcDbCircle
 10
1723.554391893102
 20
618.7009121435525
 30
0.0
 40
0.0450491225
  0
CIRCLE
  5
3EA3
330
1F
100
AcDbEntity
  8
\M+2BBB2\M+2A755\M+2BD75
100
AcDbCircle
 10
1723.554391893102
 20
618.7009121435525
 30
0.0
 40
0.0646356975
  0
CIRCLE
  5
3EA4
330
1F
100
AcDbEntity
  8
\M+2BBB2\M+2A755\M+2BD75
100
AcDbCircle
 10
1722.491428467851
 20
618.7009121435525
 30
0.0
 40
0.0450491225
  0
CIRCLE
  5
3EA5
102
{ACAD_REACTORS
330
474E
102
}
330
1F
100
AcDbEntity
  8
\M+2BBB2\M+2A755\M+2BD75
100
AcDbCircle
 10
1722.491428467851
 20
618.7009121435525
 30
0.0
 40
0.0646356975
  0
CIRCLE
  5
3EA6
330
1F
100
AcDbEntity
  8
\M+2BBB2\M+2A755\M+2BD75
100
AcDbCircle
 10
1722.491428467851
 20
619.8011337627003
 30
0.0
 40
0.0450491225
  0
CIRCLE
  5
3EA7
330
1F
100
AcDbEntity
  8
\M+2BBB2\M+2A755\M+2BD75
100
AcDbCircle
 10
1722.491428467851
 20
619.8011337627003
 30
0.0
 40
0.0646356975
  0
LINE
  5
3EA9
330
1F
100
AcDbEntity
  8
\M+2BBB2\M+2A755\M+2BD75
100
AcDbLine
 10
1723.150222917976
 20
617.8099406975015
 30
0.0
 11
1723.150222917976
 21
617.7746848625014
 31
0.0
  0
LINE
  5
3EAA
330
1F
100
AcDbEntity
  8
\M+2BBB2\M+2A755\M+2BD75
100
AcDbLine
 10
1722.895597442976
 20
617.8099406975015
 30
0.0
 11
1722.895597442976
 21
617.7746848625014
 31
0.0
  0
CIRCLE
  5
3EAB
330
1F
100
AcDbEntity
  8
\M+2BBB2\M+2A755\M+2BD75
100
AcDbCircle
 10
1723.022783412434
 20
619.2510229531265
 30
0.0
 40
0.4700778
  0
LWPOLYLINE
  5
3EE2
102
{ACAD_REACTORS
330
4702
330
4806
102
}
330
1F
100
AcDbEntity
  8
\M+2BBB2\M+2A755\M+2BD75
100
AcDbPolyline
 90
       14
 70
     1
 43
0.0
 10
1722.501484163101
 20
617.7353158467513
 42
-0.4022418350901689
 10
1722.265469027594
 20
617.9618369410799
 10
1722.235403097434
 20
618.6939131254667
 42
-0.3179993640019241
 10
1722.235403097434
 20
619.8081327807861
 10
1722.265469027594
 20
620.5402089651729
 42
-0.4022418350901029
 10
1722.501484163101
 20
620.7667300595014
 10
1723.022783412434
 20
620.7667300595014
 10
1723.544082661768
 20
620.7667300595014
 42
-0.4022418350901689
 10
1723.780097797274
 20
620.5402089651729
 10
1723.810163727434
 20
619.8081327807861
 42
-0.3179993640019241
 10
1723.810163727434
 20
618.6939131254667
 10
1723.780097797274
 20
617.9618369410799
 42
-0.402241835090103
 10
1723.544082661768
 20
617.7353158467513
 10
1723.022783412434
 20
617.7353158467513
  0
LINE
  5
3EEA
330
1F
100
AcDbEntity
  8
0
 62
     1
100
AcDbLine
 10
1726.838024248841
 20
619.7313552659067
 30
0.0
 11
1726.838024248841
 21
619.7234511421264
 31
0.0
  0
ARC
  5
3EED
330
1F
100
AcDbEntity
  8
\M+2BBB2\M+2A755\M+2BD75
100
AcDbCircle
 10
1726.949754250524
 20
620.136710734858
 30
0.0
 40
0.2362140945
100
AcDbArc
 50
183.6991067901729
 51
213.5272219807866
  0
ARC
  5
3EF1
330
1F
100
AcDbEntity
  8
\M+2BBB2\M+2A755\M+2BD75
100
AcDbCircle
 10
1726.326031178341
 20
619.7234511421263
 30
0.0
 40
0.5119930705
100
AcDbArc
 50
0.0000000000069544
 51
33.52722198078653
  0
LINE
  5
3EF3
330
1F
100
AcDbEntity
  8
0
 62
     1
100
AcDbLine
 10
1726.838024248841
 20
618.7706906403461
 30
0.0
 11
1726.838024248841
 21
618.7785947641265
 31
0.0
  0
ARC
  5
3EF4
330
1F
100
AcDbEntity
  8
0
 62
     4
100
AcDbCircle
 10
1726.723818944484
 20
618.7557446475733
 30
0.0
 40
0.0098422539375
100
AcDbArc
 50
359.9074489539076
 51
151.2293229073177
  0
ARC
  5
3EF5
330
1F
100
AcDbEntity
  8
\M+2BBB2\M+2A755\M+2BD75
100
AcDbCircle
 10
1726.949754250524
 20
618.3653351713949
 30
0.0
 40
0.2362140945
100
AcDbArc
 50
146.4727780192133
 51
176.300893209827
  0
ARC
  5
3EF6
330
1F
100
AcDbEntity
  8
\M+2BBB2\M+2A755\M+2BD75
100
AcDbCircle
 10
1726.263772840212
 20
618.9661971317574
 30
0.0
 40
0.4960824351551968
100
AcDbArc
 50
277.2324328500519
 51
335.5008474502795
  0
ARC
  5
3EF7
102
{ACAD_REACTORS
330
4C53
102
}
330
1F
100
AcDbEntity
  8
\M+2BBB2\M+2A755\M+2BD75
100
AcDbCircle
 10
1726.326031178341
 20
618.7785947641265
 30
0.0
 40
0.5119930705
100
AcDbArc
 50
326.4727780192135
 51
359.999999999993
  0
ARC
  5
3EF8
330
1F
100
AcDbEntity
  8
\M+2BBB2\M+2A755\M+2BD75
100
AcDbCircle
 10
1711.458287726071
 20
619.3668808603027
 30
0.0
 40
15.28759435720448
100
AcDbArc
 50
356.3728156908728
 51
357.708876263796
  0
LINE
  5
3EF9
330
1F
100
AcDbEntity
  8
\M+2BBB2\M+2A755\M+2BD75
100
AcDbLine
 10
1726.326227044092
 20
620.7667300595014
 30
0.0
 11
1726.41748466647
 21
620.7619474501699
 31
0.0
  0
LINE
  5
3EFA
330
1F
100
AcDbEntity
  8
\M+2BBB2\M+2A755\M+2BD75
100
AcDbLine
 10
1726.656430853203
 20
620.5422084775435
 30
0.0
 11
1726.714032278758
 21
620.1214709688727
 31
0.0
  0
ARC
  5
3EFB
330
1F
100
AcDbEntity
  8
\M+2BBB2\M+2A755\M+2BD75
100
AcDbCircle
 10
1726.404158598752
 20
620.5076709305339
 30
0.0
 40
0.2546254750000001
100
AcDbArc
 50
7.795663123828314
 51
86.99999999999272
  0
LINE
  5
3EFC
330
1F
100
AcDbEntity
  8
\M+2BBB2\M+2A755\M+2BD75
100
AcDbLine
 10
1726.326227044092
 20
617.7353158467513
 30
0.0
 11
1726.41748466647
 21
617.7400984560829
 31
0.0
  0
LINE
  5
3EFD
330
1F
100
AcDbEntity
  8
\M+2BBB2\M+2A755\M+2BD75
100
AcDbLine
 10
1726.656430853203
 20
617.9598374287093
 30
0.0
 11
1726.714032278758
 21
618.3805749373801
 31
0.0
  0
ARC
  5
3EFE
330
1F
100
AcDbEntity
  8
\M+2BBB2\M+2A755\M+2BD75
100
AcDbCircle
 10
1726.404158598752
 20
617.9943749757188
 30
0.0
 40
0.2546254750000001
100
AcDbArc
 50
273.0000000000093
 51
352.2043368761738
  0
LINE
  5
3F00
102
{ACAD_REACTORS
330
485A
330
4C53
102
}
330
1F
100
AcDbEntity
  8
\M+2BBB2\M+2A755\M+2BD75
100
AcDbLine
 10
1726.838024248841
 20
618.7746427022362
 30
0.0
 11
1726.838024248841
 21
619.7313552659067
 31
0.0
  0
LINE
  5
3F01
330
1F
100
AcDbEntity
  8
\M+2BBB2\M+2A755\M+2BD75
100
AcDbLine
 10
1726.306640469092
 20
617.7550982875015
 30
0.0
 11
1726.326227044092
 21
617.7550982875015
 31
0.0
  0
LINE
  5
3F03
330
1F
100
AcDbEntity
  8
\M+2BBB2\M+2A755\M+2BD75
100
AcDbLine
 10
1726.306640469092
 20
617.7550982875015
 30
0.0
 11
1726.306640469092
 21
619.3407104542083
 31
0.0
  0
LINE
  5
3F04
330
1F
100
AcDbEntity
  8
\M+2BBB2\M+2A755\M+2BD75
100
AcDbLine
 10
1726.255715374092
 20
617.7746848625014
 30
0.0
 11
1726.255715374091
 21
620.6921052087514
 31
0.0
  0
LINE
  5
3F05
330
1F
100
AcDbEntity
  8
\M+2BBB2\M+2A755\M+2BD75
100
AcDbLine
 10
1726.255715374092
 20
617.7746848625014
 30
0.0
 11
1726.306640469092
 21
617.7746848625014
 31
0.0
  0
ARC
  5
3F06
102
{ACAD_REACTORS
330
4877
102
}
330
1F
100
AcDbEntity
  8
\M+2BBB2\M+2A755\M+2BD75
100
AcDbCircle
 10
1726.233729953955
 20
620.6524053079588
 30
0.0
 40
1.313719655243405
100
AcDbArc
 50
270.9589036641613
 51
297.3862849385925
  0
LINE
  5
3F34
330
1F
100
AcDbEntity
  8
\M+2BBB2\M+2A755\M+2BD75
100
AcDbLine
 10
1726.326227044092
 20
619.2510229531263
 30
0.0
 11
1726.326227044092
 21
619.3419459911964
 31
0.0
  0
LINE
  5
3F57
330
1F
100
AcDbEntity
  8
\M+2BBB2\M+2A755\M+2BD75
100
AcDbLine
 10
1726.740091373841
 20
619.6731844615128
 30
0.0
 11
1726.541679369092
 21
619.6731844615128
 31
0.0
  0
LINE
  5
3F58
330
1F
100
AcDbEntity
  8
\M+2BBB2\M+2A755\M+2BD75
100
AcDbLine
 10
1726.70782305138
 20
619.9290830638878
 30
0.0
 11
1726.541679369092
 21
619.9290830638878
 31
0.0
  0
LINE
  5
3F59
330
1F
100
AcDbEntity
  8
\M+2B5EA\M+2BD75
100
AcDbLine
 10
1726.75909040902
 20
619.7558104281503
 30
0.0
 11
1726.561265944091
 21
619.7558104281503
 31
0.0
  0
LINE
  5
3F5A
330
1F
100
AcDbEntity
  8
\M+2B5EA\M+2BD75
100
AcDbLine
 10
1726.738843342314
 20
619.8464570972503
 30
0.0
 11
1726.561265944091
 21
619.8464570972503
 31
0.0
  0
LINE
  5
3F5B
330
1F
100
AcDbEntity
  8
\M+2B5EA\M+2BD75
100
AcDbLine
 10
1726.541679369092
 20
619.8660436722503
 30
0.0
 11
1726.541679369092
 21
619.9290830638878
 31
0.0
  0
LINE
  5
3F5C
330
1F
100
AcDbEntity
  8
\M+2B5EA\M+2BD75
100
AcDbLine
 10
1726.561265944091
 20
619.8464570972503
 30
0.0
 11
1726.541679369092
 21
619.8660436722503
 31
0.0
  0
LINE
  5
3F5D
330
1F
100
AcDbEntity
  8
\M+2BBB2\M+2A755\M+2BD75
100
AcDbLine
 10
1726.541679369092
 20
619.6731844615128
 30
0.0
 11
1726.541679369092
 21
619.9290830638878
 31
0.0
  0
LINE
  5
3F5E
330
1F
100
AcDbEntity
  8
\M+2B5EA\M+2BD75
100
AcDbLine
 10
1726.561265944091
 20
619.7558104281503
 30
0.0
 11
1726.541679369092
 21
619.7362238531503
 31
0.0
  0
ARC
  5
3F74
330
1F
100
AcDbEntity
  8
\M+2BBB2\M+2A755\M+2BD75
100
AcDbCircle
 10
1726.949754250524
 20
620.136710734858
 30
0.0
 40
0.3145603945
100
AcDbArc
 50
183.6991067901728
 51
213.5272219807864
  0
ARC
  5
3F76
330
1F
100
AcDbEntity
  8
\M+2BBB2\M+2A755\M+2BD75
100
AcDbCircle
 10
1726.326031178341
 20
619.7234511421263
 30
0.0
 40
0.4336467705000001
100
AcDbArc
 50
0.0000000000067946
 51
33.52722198078629
  0
LINE
  5
3F78
330
1F
100
AcDbEntity
  8
\M+2BBB2\M+2A755\M+2BD75
100
AcDbLine
 10
1726.57826770067
 20
620.5355325793503
 30
0.0
 11
1726.636410046619
 21
620.1108440313312
 31
0.0
  0
ARC
  5
3F79
330
1F
100
AcDbEntity
  8
\M+2BBB2\M+2A755\M+2BD75
100
AcDbCircle
 10
1726.403617678358
 20
620.5116219698822
 30
0.0
 40
0.176279175
100
AcDbArc
 50
7.795663123827836
 51
87.00000000000368
  0
LINE
  5
3F7A
102
{ACAD_REACTORS
330
4877
102
}
330
1F
100
AcDbEntity
  8
\M+2BBB2\M+2A755\M+2BD75
100
AcDbLine
 10
1726.326227044092
 20
619.2510229531263
 30
0.0
 11
1726.326227044092
 21
619.3419459911964
 31
0.0
  0
LINE
  5
3F7E
330
1F
100
AcDbEntity
  8
\M+2BBB2\M+2A755\M+2BD75
100
AcDbLine
 10
1726.759677948842
 20
619.7234511421263
 30
0.0
 11
1726.740091373841
 21
619.7234511421263
 31
0.0
  0
LINE
  5
3F7F
102
{ACAD_REACTORS
330
4877
102
}
330
1F
100
AcDbEntity
  8
\M+2BBB2\M+2A755\M+2BD75
100
AcDbLine
 10
1726.740091373841
 20
619.7234511421263
 30
0.0
 11
1726.740091373841
 21
619.4401935092108
 31
0.0
  0
LINE
  5
3F9C
330
1F
100
AcDbEntity
  8
\M+2BBB2\M+2A755\M+2BD75
100
AcDbLine
 10
1726.326227044092
 20
620.6921052087514
 30
0.0
 11
1726.236128799092
 21
620.6921052087514
 31
0.0
  0
LINE
  5
3F9E
330
1F
100
AcDbEntity
  8
\M+2BBB2\M+2A755\M+2BD75
100
AcDbLine
 10
1726.236128799092
 20
620.6921052087514
 30
0.0
 11
1726.236128799092
 21
620.7156090987514
 31
0.0
  0
ARC
  5
3F9F
330
1F
100
AcDbEntity
  8
\M+2BBB2\M+2A755\M+2BD75
100
AcDbCircle
 10
1726.247880744091
 20
620.7156090987514
 30
0.0
 40
0.011751945
100
AcDbArc
 50
90.00000000000168
 51
180.0000000000161
  0
LINE
  5
3FA1
330
1F
100
AcDbEntity
  8
\M+2BBB2\M+2A755\M+2BD75
100
AcDbLine
 10
1726.306640469092
 20
620.6921052087514
 30
0.0
 11
1726.306640469092
 21
620.7469476187513
 31
0.0
  0
LINE
  5
3FA2
330
1F
100
AcDbEntity
  8
\M+2BBB2\M+2A755\M+2BD75
100
AcDbLine
 10
1726.326227044092
 20
620.7469476187513
 30
0.0
 11
1726.306640469092
 21
620.7469476187513
 31
0.0
  0
LINE
  5
3FA3
330
1F
100
AcDbEntity
  8
\M+2BBB2\M+2A755\M+2BD75
100
AcDbLine
 10
1726.306640469092
 20
620.7273610437514
 30
0.0
 11
1726.267467319091
 21
620.7273610437514
 31
0.0
  0
LINE
  5
3FA6
330
1F
100
AcDbEntity
  8
\M+2BBB2\M+2A755\M+2BD75
100
AcDbLine
 10
1726.267467319091
 20
620.7273610437514
 30
0.0
 11
1726.247880744091
 21
620.7273610437514
 31
0.0
  0
LINE
  5
3FA8
330
1F
100
AcDbEntity
  8
\M+2BBB2\M+2A755\M+2BD75
100
AcDbLine
 10
1726.326227044092
 20
620.6921052087514
 30
0.0
 11
1726.412843417548
 21
620.6876595603993
 31
0.0
  0
LINE
  5
3FAA
102
{ACAD_REACTORS
330
4C53
102
}
330
1F
100
AcDbEntity
  8
\M+2BBB2\M+2A755\M+2BD75
100
AcDbLine
 10
1726.326227044092
 20
617.7353158467513
 30
0.0
 11
1726.326227044092
 21
619.2510229531263
 31
0.0
  0
LINE
  5
3FAB
330
1F
100
AcDbEntity
  8
\M+2BBB2\M+2A755\M+2BD75
100
AcDbLine
 10
1726.326227044092
 20
620.7469476187513
 30
0.0
 11
1726.326227044092
 21
620.7667300595014
 31
0.0
  0
LINE
  5
3FAC
330
1F
100
AcDbEntity
  8
\M+2BBB2\M+2A755\M+2BD75
100
AcDbLine
 10
1726.275301949091
 20
620.6921052087514
 30
0.0
 11
1726.275301949091
 21
620.7273610437514
 31
0.0
  0
HATCH
  5
3FBF
330
1F
100
AcDbEntity
  8
\M+2BBB2\M+2A755\M+2BD75
100
AcDbHatch
 10
0.0
 20
0.0
 30
0.0
210
0.0
220
0.0
230
1.0
  2
ANSI31
 70
     0
 71
     0
 91
        1
 92
        5
 93
       19
 72
     1
 10
1726.818339248842
 20
619.4759312092616
 11
1726.818339248842
 21
619.7234511421263
 72
     1
 10
1726.818339248842
 20
619.7234511421263
 11
1726.838024248841
 21
619.7234511421263
 72
     2
 10
1726.326031178341
 20
619.7234511421263
 40
0.5119930704999983
 50
359.9999999999994
 51
393.5272219807868
 73
     1
 72
     2
 10
1726.949754250524
 20
620.136710734858
 40
0.2362140945000027
 50
146.4727780192109
 51
176.3008932098234
 73
     0
 72
     1
 10
1726.714032278758
 20
620.1214709688727
 11
1726.656430853203
 21
620.5422084775436
 72
     2
 10
1726.404158598752
 20
620.5076709305339
 40
0.2546254750000008
 50
7.795663123829406
 51
86.99999999999405
 73
     1
 72
     1
 10
1726.41748466647
 20
620.7619474501699
 11
1726.326227044092
 21
620.7667300595014
 72
     1
 10
1726.326227044092
 20
620.7667300595014
 11
1726.326227044092
 21
620.7469476187514
 72
     1
 10
1726.326227044092
 20
620.7469476187513
 11
1726.306640469092
 21
620.7469476187513
 72
     1
 10
1726.306640469092
 20
620.7469476187513
 11
1726.306640469092
 21
620.6921052087514
 72
     1
 10
1726.306640469092
 20
620.6921052087514
 11
1726.326227044092
 21
620.6921052087514
 72
     1
 10
1726.326227044092
 20
620.6921052087514
 11
1726.412463454809
 21
620.687679062263
 72
     2
 10
1726.403617678358
 20
620.5116219698822
 40
0.1762791750000016
 50
272.8763386446485
 51
352.204336876172
 73
     0
 72
     1
 10
1726.57826770067
 20
620.5355325793503
 11
1726.636057180208
 21
620.1134214698862
 72
     2
 10
1726.949754250524
 20
620.136710734858
 40
0.3145603944999995
 50
184.2459213135392
 51
213.5272219807898
 73
     1
 72
     2
 10
1726.326031178341
 20
619.7234511421263
 40
0.4336467705000045
 50
326.4727780192126
 51
360.0
 73
     0
 72
     1
 10
1726.759677948842
 20
619.7234511421263
 11
1726.740091373842
 21
619.7234511421263
 72
     1
 10
1726.740091373842
 20
619.7234511421263
 11
1726.740091373842
 21
619.4401935092108
 72
     2
 10
1726.233729953955
 20
620.6524053079588
 40
1.313719655243413
 50
292.6711209139686
 51
296.423535923215
 73
     1
 97
        0
 75
     0
 76
     1
 52
90.0
 41
0.00783463
 77
     0
 78
     1
 53
135.0
 43
1746.753313254962
 44
547.1615505485421
 45
-0.017589246003453
 46
-0.017589246003453
 79
     0
 47
0.0704744251599913
 98
        1
 10
1726.820485288497
 20
619.7516226715882
  0
HATCH
  5
3FC6
330
1F
100
AcDbEntity
  8
\M+2BBB2\M+2A755\M+2BD75
100
AcDbHatch
 10
0.0
 20
0.0
 30
0.0
210
0.0
220
0.0
230
1.0
  2
ANSI31
 70
     0
 71
     0
 91
        1
 92
        7
 72
     1
 73
     1
 93
        6
 10
1726.275301949091
 20
620.6921052087514
 42
0.0
 10
1726.275301949091
 20
620.7273610437514
 42
0.0
 10
1726.267467319092
 20
620.7273610437514
 42
0.0
 10
1726.247880744091
 20
620.7273610437514
 42
0.4142135623730576
 10
1726.236128799092
 20
620.7156090987514
 42
0.0
 10
1726.236128799092
 20
620.6921052087514
 42
0.0
 97
        0
 75
     0
 76
     1
 52
90.0
 41
0.00783463
 77
     0
 78
     1
 53
135.0
 43
1746.753313254962
 44
547.1615505485421
 45
-0.017589246003453
 46
-0.017589246003453
 79
     0
 47
0.0214988752698381
 98
        1
 10
1726.252325290607
 20
620.7034294238815
  0
LINE
  5
3FCF
330
1F
100
AcDbEntity
  8
\M+2BBB2\M+2A755\M+2BD75
100
AcDbLine
 10
1723.548003395886
 20
614.8854146382153
 30
0.0
 11
1723.022783412434
 21
614.8854146382153
 31
0.0
  0
LINE
  5
3FD1
330
1F
100
AcDbEntity
  8
\M+2BBB2\M+2A755\M+2BD75
100
AcDbLine
 10
1723.987324298309
 20
615.2771461382153
 30
0.0
 11
1723.986614748201
 21
615.256827281615
 31
0.0
  0
ARC
  5
3FD2
330
1F
100
AcDbEntity
  8
\M+2BBB2\M+2A755\M+2BD75
100
AcDbCircle
 10
1723.47767402012
 20
615.2745998834653
 30
0.0
 40
0.5092509500000002
100
AcDbArc
 50
271.9735419548394
 51
358.0000000000001
  0
LINE
  5
3FD3
330
1F
100
AcDbEntity
  8
\M+2BBB2\M+2A755\M+2BD75
100
AcDbLine
 10
1722.497563428982
 20
614.8854146382153
 30
0.0
 11
1723.022783412434
 21
614.8854146382153
 31
0.0
  0
ARC
  5
3FD6
330
1F
100
AcDbEntity
  8
\M+2BBB2\M+2A755\M+2BD75
100
AcDbCircle
 10
1722.567892804748
 20
615.2745998834653
 30
0.0
 40
0.5092509500000002
100
AcDbArc
 50
181.9999999999998
 51
268.0264580451604
  0
LINE
  5
3FD7
330
1F
100
AcDbEntity
  8
\M+2BBB2\M+2A755\M+2BD75
100
AcDbLine
 10
1723.810163727434
 20
615.2771461382153
 30
0.0
 11
1723.802279915522
 21
615.1267140454974
 31
0.0
  0
ARC
  5
3FD8
330
1F
100
AcDbEntity
  8
\M+2BBB2\M+2A755\M+2BD75
100
AcDbCircle
 10
1723.548003395886
 20
615.1400401132153
 30
0.0
 40
0.2546254750000001
100
AcDbArc
 50
270.0
 51
357.0000000000002
  0
LINE
  5
3FD9
330
1F
100
AcDbEntity
  8
\M+2BBB2\M+2A755\M+2BD75
100
AcDbLine
 10
1722.235403097434
 20
615.2771461382153
 30
0.0
 11
1722.243286909346
 21
615.1267140454974
 31
0.0
  0
ARC
  5
3FDA
330
1F
100
AcDbEntity
  8
\M+2BBB2\M+2A755\M+2BD75
100
AcDbCircle
 10
1722.497563428982
 20
615.1400401132153
 30
0.0
 40
0.2546254750000001
100
AcDbArc
 50
182.9999999999997
 51
270.0
  0
LINE
  5
3FEE
330
1F
100
AcDbEntity
  8
\M+2BBB2\M+2A755\M+2BD75
100
AcDbLine
 10
1723.987324298309
 20
615.2771461382153
 30
0.0
 11
1722.058242526559
 21
615.2771461382153
 31
0.0
  0
LINE
  5
3FF0
330
1F
100
AcDbEntity
  8
\M+2BBB2\M+2A755\M+2BD75
100
AcDbLine
 10
1723.495211601434
 20
614.7656510026162
 30
0.0
 11
1722.550355223434
 21
614.7656510026162
 31
0.0
  0
LINE
  5
3FF4
330
1F
100
AcDbEntity
  8
\M+2BBB2\M+2A755\M+2BD75
100
AcDbLine
 10
1723.022783412434
 20
615.2967327132152
 30
0.0
 11
1722.077898199267
 21
615.2967327132152
 31
0.0
  0
LINE
  5
3FF6
330
1F
100
AcDbEntity
  8
\M+2BBB2\M+2A755\M+2BD75
100
AcDbLine
 10
1722.097484774267
 20
615.3476578082153
 30
0.0
 11
1722.097484774267
 21
615.2967327132152
 31
0.0
  0
LINE
  5
3FF7
330
1F
100
AcDbEntity
  8
\M+2BBB2\M+2A755\M+2BD75
100
AcDbLine
 10
1723.987324298309
 20
615.2771461382153
 30
0.0
 11
1723.986614748201
 21
615.256827281615
 31
0.0
  0
LINE
  5
3FF8
330
1F
100
AcDbEntity
  8
\M+2BBB2\M+2A755\M+2BD75
100
AcDbLine
 10
1723.022783412434
 20
615.2967327132152
 30
0.0
 11
1723.967668625602
 21
615.2967327132152
 31
0.0
  0
LINE
  5
3FFA
330
1F
100
AcDbEntity
  8
\M+2BBB2\M+2A755\M+2BD75
100
AcDbLine
 10
1723.967668625602
 20
615.2967327132152
 30
0.0
 11
1723.967668625602
 21
615.2771461382153
 31
0.0
  0
LINE
  5
3FFB
102
{ACAD_REACTORS
330
5E1F
102
}
330
1F
100
AcDbEntity
  8
\M+2BBB2\M+2A755\M+2BD75
100
AcDbLine
 10
1723.948082050602
 20
615.3476578082153
 30
0.0
 11
1723.948082050602
 21
615.2967327132152
 31
0.0
  0
LINE
  5
3FFD
102
{ACAD_REACTORS
330
471E
102
}
330
1F
100
AcDbEntity
  8
\M+2BBB2\M+2A755\M+2BD75
100
AcDbLine
 10
1723.110796231892
 20
615.3280712332153
 30
0.0
 11
1723.110796231892
 21
615.2967327132152
 31
0.0
  0
LINE
  5
3FFE
102
{ACAD_REACTORS
330
471E
102
}
330
1F
100
AcDbEntity
  8
\M+2BBB2\M+2A755\M+2BD75
100
AcDbLine
 10
1722.934517056891
 20
615.3280712332153
 30
0.0
 11
1722.934517056891
 21
615.2967327132152
 31
0.0
  0
LINE
  5
4001
330
1F
100
AcDbEntity
  8
\M+2BBB2\M+2A755\M+2BD75
100
AcDbLine
 10
1723.110796231892
 20
615.3280712332153
 30
0.0
 11
1722.934517056891
 21
615.3280712332153
 31
0.0
  0
LINE
  5
4002
330
1F
100
AcDbEntity
  8
\M+2BBB2\M+2A755\M+2BD75
100
AcDbLine
 10
1723.948082050602
 20
615.3476578082153
 30
0.0
 11
1723.149969381892
 21
615.3476578082153
 31
0.0
  0
LINE
  5
4003
330
1F
100
AcDbEntity
  8
\M+2BBB2\M+2A755\M+2BD75
100
AcDbLine
 10
1723.149969381892
 20
615.3476578082153
 30
0.0
 11
1723.149969381892
 21
615.3476578082153
 31
0.0
  0
LINE
  5
4004
102
{ACAD_REACTORS
330
4736
102
}
330
1F
100
AcDbEntity
  8
\M+2BBB2\M+2A755\M+2BD75
100
AcDbLine
 10
1722.895343906892
 20
615.3476578082153
 30
0.0
 11
1722.895343906892
 21
615.3476578082153
 31
0.0
  0
LINE
  5
4005
102
{ACAD_REACTORS
330
5E3B
102
}
330
1F
100
AcDbEntity
  8
\M+2BBB2\M+2A755\M+2BD75
100
AcDbLine
 10
1723.130382806892
 20
615.3672443832154
 30
0.0
 11
1722.914930481892
 21
615.3672443832152
 31
0.0
  0
LINE
  5
4006
330
1F
100
AcDbEntity
  8
\M+2BBB2\M+2A755\M+2BD75
100
AcDbLine
 10
1722.895343906892
 20
615.3476578082153
 30
0.0
 11
1722.097484774267
 21
615.3476578082153
 31
0.0
  0
ARC
  5
4007
102
{ACAD_REACTORS
330
4736
330
5E1F
102
}
330
1F
100
AcDbEntity
  8
\M+2BBB2\M+2A755\M+2BD75
100
AcDbCircle
 10
1723.130382806892
 20
615.3476578082153
 30
0.0
 40
0.019586575
100
AcDbArc
 50
0.0
 51
90.000000000002
  0
ARC
  5
4008
330
1F
100
AcDbEntity
  8
\M+2BBB2\M+2A755\M+2BD75
100
AcDbCircle
 10
1722.914930481892
 20
615.3476578082153
 30
0.0
 40
0.019586575
100
AcDbArc
 50
90.00000000000216
 51
180.0
  0
CIRCLE
  5
4011
330
1F
100
AcDbEntity
  8
\M+2A4A4\M+2A4DF\M+2BD75
 48
0.15
100
AcDbCircle
 10
1726.247880744091
 20
620.7722090883034
 30
0.0
 40
0.1242246768693188
  0
LINE
  5
4012
330
1F
100
AcDbEntity
  8
\M+2BBB2\M+2A755\M+2BD75
100
AcDbLine
 10
1727.035608288063
 20
622.0150975661367
 30
0.0
 11
1727.173182593156
 21
622.0078876023202
 31
0.0
  0
LINE
  5
4013
330
1F
100
AcDbEntity
  8
\M+2BBB2\M+2A755\M+2BD75
100
AcDbLine
 10
1726.823010288063
 20
621.6578161275588
 30
0.0
 11
1726.823010288063
 21
621.7900980161366
 31
0.0
  0
HATCH
  5
4014
330
1F
100
AcDbEntity
  8
\M+2BBB2\M+2A755\M+2BD75
100
AcDbHatch
 10
0.0
 20
0.0
 30
0.0
210
0.0
220
0.0
230
1.0
  2
ANSI31
 70
     0
 71
     0
 91
        1
 92
        7
 72
     1
 73
     1
 93
        6
 10
1726.763955288063
 20
621.7900980161366
 42
0.0
 10
1726.882065288063
 20
621.7900980161366
 42
0.0
 10
1726.882065288063
 20
621.8963970161366
 42
0.0
 10
1726.858443288063
 20
621.8963970161366
 42
0.0
 10
1726.799388288063
 20
621.8963970161366
 42
0.4142135623732985
 10
1726.763955288063
 20
621.8609640161367
 42
0.0
 97
        0
 75
     0
 76
     1
 52
90.0
 41
0.023622
 77
     0
 78
     1
 53
135.0
 43
1788.624812943954
 44
400.0899332114854
 45
-0.0530329025229739
 46
-0.0530329025229739
 79
     0
 47
0.0214988752698381
 98
        1
 10
1726.812788930825
 20
621.8242413783379
  0
LINE
  5
4015
330
1F
100
AcDbEntity
  8
\M+2BBB2\M+2A755\M+2BD75
100
AcDbLine
 10
1727.035608288063
 20
621.7900980161366
 30
0.0
 11
1726.763955288063
 21
621.7900980161366
 31
0.0
  0
LINE
  5
4016
330
1F
100
AcDbEntity
  8
\M+2BBB2\M+2A755\M+2BD75
100
AcDbLine
 10
1726.763955288063
 20
621.7900980161366
 30
0.0
 11
1726.763955288063
 21
621.8609640161367
 31
0.0
  0
ARC
  5
4017
330
1F
100
AcDbEntity
  8
\M+2BBB2\M+2A755\M+2BD75
100
AcDbCircle
 10
1726.799388288063
 20
621.8609640161367
 30
0.0
 40
0.035433
100
AcDbArc
 50
90.00000000000168
 51
180.0000000000161
  0
LINE
  5
4018
330
1F
100
AcDbEntity
  8
\M+2BBB2\M+2A755\M+2BD75
100
AcDbLine
 10
1726.976553288063
 20
621.7900980161366
 30
0.0
 11
1726.976553288063
 21
621.9554520161366
 31
0.0
  0
LINE
  5
4019
330
1F
100
AcDbEntity
  8
\M+2BBB2\M+2A755\M+2BD75
100
AcDbLine
 10
1726.882065288063
 20
621.7900980161366
 30
0.0
 11
1726.882065288063
 21
621.8963970161366
 31
0.0
  0
LINE
  5
401A
330
1F
100
AcDbEntity
  8
\M+2BBB2\M+2A755\M+2BD75
100
AcDbLine
 10
1727.035608288063
 20
621.9554520161366
 30
0.0
 11
1726.976553288063
 21
621.9554520161366
 31
0.0
  0
LINE
  5
401B
330
1F
100
AcDbEntity
  8
\M+2BBB2\M+2A755\M+2BD75
100
AcDbLine
 10
1726.976553288063
 20
621.8963970161366
 30
0.0
 11
1726.858443288063
 21
621.8963970161366
 31
0.0
  0
LINE
  5
401C
330
1F
100
AcDbEntity
  8
\M+2BBB2\M+2A755\M+2BD75
100
AcDbLine
 10
1726.858443288063
 20
621.8963970161366
 30
0.0
 11
1726.799388288063
 21
621.8963970161366
 31
0.0
  0
LINE
  5
401D
330
1F
100
AcDbEntity
  8
\M+2BBB2\M+2A755\M+2BD75
100
AcDbLine
 10
1727.035608288064
 20
621.7900980161366
 30
0.0
 11
1727.083568907243
 21
621.7876364024818
 31
0.0
  0
LINE
  5
401E
330
1F
100
AcDbEntity
  8
\M+2BBB2\M+2A755\M+2BD75
100
AcDbLine
 10
1727.035608288063
 20
621.9554520161366
 30
0.0
 11
1727.035608288063
 21
622.0150975661367
 31
0.0
  0
CIRCLE
  5
401F
330
1F
100
AcDbEntity
  8
\M+2BBB2\M+2A755\M+2BD75
100
AcDbCircle
 10
1726.799388288063
 20
622.0316172509669
 30
0.0
 40
0.3745467644301069
  0
HATCH
  5
44F7
330
1F
100
AcDbEntity
  8
\M+2BBB2\M+2A755\M+2BD75
100
AcDbHatch
 10
0.0
 20
0.0
 30
0.0
210
0.0
220
0.0
230
1.0
  2
ANSI31
 70
     0
 71
     0
 91
        2
 92
        7
 72
     1
 73
     1
 93
        9
 10
1727.083568907243
 20
621.7876364024818
 42
0.0
 10
1727.035608288064
 20
621.7900980161366
 42
0.0
 10
1726.976553288063
 20
621.7900980161365
 42
0.0
 10
1726.976553288063
 20
621.9554520161366
 42
0.0
 10
1727.035608288063
 20
621.9554520161366
 42
0.0
 10
1727.035608288063
 20
622.0150975661367
 42
0.0
 10
1727.173182593157
 20
622.0078876023202
 42
0.0158508516706941
 10
1727.173935052493
 20
622.0316172509669
 42
1.0
 10
1726.424841523633
 20
622.0316172509669
 42
0.6960056645891304
 97
        0
 92
       23
 72
     1
 73
     1
 93
        6
 10
1726.763955288063
 20
621.7900980161366
 42
0.0
 10
1726.882065288063
 20
621.7900980161366
 42
0.0
 10
1726.882065288063
 20
621.8963970161366
 42
0.0
 10
1726.858443288063
 20
621.8963970161366
 42
0.0
 10
1726.799388288063
 20
621.8963970161366
 42
0.4142135623732985
 10
1726.763955288063
 20
621.8609640161367
 42
0.0
 97
        0
 75
     0
 76
     1
 52
90.0
 41
0.007874
 77
     0
 78
     1
 53
135.0
 43
1747.450780071631
 44
547.1401027605434
 45
-0.0176776341743246
 46
-0.0176776341743246
 79
     0
 47
0.0615655404175015
 98
        2
 10
1727.073730088655
 20
621.8878566961686
 10
1726.841041946289
 20
621.8466336991141
  0
CIRCLE
  5
4503
330
1F
100
AcDbEntity
  8
\M+2BBB2\M+2A755\M+2BD75
100
AcDbCircle
 10
1729.774768673919
 20
619.2510229531265
 30
0.0
 40
0.4724281890000001
  0
LWPOLYLINE
  5
4504
102
{ACAD_REACTORS
330
469E
330
46E6
102
}
330
1F
100
AcDbEntity
  8
\M+2BBB2\M+2A755\M+2BD75
100
AcDbPolyline
 90
       14
 70
     1
 43
0.0
 10
1730.296067923252
 20
617.7353158467513
 42
0.4022418350901689
 10
1730.532083058759
 20
617.9618369410799
 10
1730.562148988919
 20
618.6939131254667
 42
0.3179993640019241
 10
1730.562148988919
 20
619.8081327807861
 10
1730.532083058759
 20
620.5402089651729
 42
0.4022418350901029
 10
1730.296067923252
 20
620.7667300595014
 10
1729.774768673919
 20
620.7667300595014
 10
1729.253469424585
 20
620.7667300595014
 42
0.4022418350901689
 10
1729.017454289079
 20
620.5402089651729
 10
1728.987388358919
 20
619.8081327807861
 42
0.3179993640019241
 10
1728.987388358919
 20
618.6939131254667
 10
1729.017454289079
 20
617.9618369410799
 42
0.402241835090103
 10
1729.253469424585
 20
617.7353158467513
 10
1729.774768673919
 20
617.7353158467513
  0
LINE
  5
4505
330
1F
100
AcDbEntity
  8
\M+2BBB2\M+2A755\M+2BD75
100
AcDbLine
 10
1729.774768673919
 20
619.1526004137514
 30
0.0
 11
1729.774768673919
 21
619.3494454925014
 31
0.0
  0
LINE
  5
4506
330
1F
100
AcDbEntity
  8
\M+2BBB2\M+2A755\M+2BD75
100
AcDbLine
 10
1729.676346134544
 20
619.2510229531265
 30
0.0
 11
1729.873191213294
 21
619.2510229531265
 31
0.0
  0
ARC
  5
4507
330
1F
100
AcDbEntity
  8
\M+2BBB2\M+2A755\M+2BD75
100
AcDbCircle
 10
1729.774768673919
 20
619.2510229531265
 30
0.0
 40
0.776961224370429
100
AcDbArc
 50
44.79411481912757
 51
138.5903817992363
  0
ARC
  5
4508
330
1F
100
AcDbEntity
  8
\M+2BBB2\M+2A755\M+2BD75
100
AcDbCircle
 10
1729.774768673919
 20
619.2510229531265
 30
0.0
 40
0.776961224370429
100
AcDbArc
 50
221.4096182009022
 51
318.590381799167
  0
ARC
  5
4509
330
1F
100
AcDbEntity
  8
\M+2BBB2\M+2A755\M+2BD75
100
AcDbCircle
 10
1729.366825449543
 20
620.4124089177514
 30
0.0
 40
0.11810704725
100
AcDbArc
 50
90.0
 51
177.6482183251938
  0
ARC
  5
450A
330
1F
100
AcDbEntity
  8
\M+2BBB2\M+2A755\M+2BD75
100
AcDbCircle
 10
1729.366825449543
 20
618.0896369885013
 30
0.0
 40
0.11810704725
100
AcDbArc
 50
182.3517816748191
 51
270.0
  0
LINE
  5
450B
330
1F
100
AcDbEntity
  8
\M+2BBB2\M+2A755\M+2BD75
100
AcDbLine
 10
1729.24881788179
 20
620.4172554178371
 30
0.0
 11
1729.223403494425
 21
619.7984397806147
 31
0.0
  0
LINE
  5
450C
330
1F
100
AcDbEntity
  8
\M+2BBB2\M+2A755\M+2BD75
100
AcDbLine
 10
1729.24881788179
 20
618.0847904884156
 30
0.0
 11
1729.223403494425
 21
618.7036061256382
 31
0.0
  0
ARC
  5
450D
330
1F
100
AcDbEntity
  8
\M+2BBB2\M+2A755\M+2BD75
100
AcDbCircle
 10
1729.10832912367
 20
618.6273391288283
 30
0.0
 40
0.1380534882104052
100
AcDbArc
 50
33.5349310967299
 51
151.1686322528985
  0
ARC
  5
450E
330
1F
100
AcDbEntity
  8
\M+2BBB2\M+2A755\M+2BD75
100
AcDbCircle
 10
1729.10832912367
 20
619.8747067774245
 30
0.0
 40
0.1380534882104052
100
AcDbArc
 50
208.8313677471014
 51
326.4650689032701
  0
LINE
  5
450F
330
1F
100
AcDbEntity
  8
\M+2BBB2\M+2A755\M+2BD75
100
AcDbLine
 10
1730.300719466047
 20
620.4172554178371
 30
0.0
 11
1730.326133853412
 21
619.7984397806147
 31
0.0
  0
LINE
  5
4510
330
1F
100
AcDbEntity
  8
\M+2BBB2\M+2A755\M+2BD75
100
AcDbLine
 10
1730.182711898294
 20
617.9715299412514
 30
0.0
 11
1729.774768673919
 21
617.9715299412514
 31
0.0
  0
LINE
  5
4511
330
1F
100
AcDbEntity
  8
\M+2BBB2\M+2A755\M+2BD75
100
AcDbLine
 10
1729.366825449543
 20
617.9715299412514
 30
0.0
 11
1729.774768673919
 21
617.9715299412514
 31
0.0
  0
LINE
  5
4512
330
1F
100
AcDbEntity
  8
\M+2BBB2\M+2A755\M+2BD75
100
AcDbLine
 10
1730.300719466047
 20
618.0847904884156
 30
0.0
 11
1730.326133853412
 21
618.7036061256382
 31
0.0
  0
ARC
  5
4513
330
1F
100
AcDbEntity
  8
\M+2BBB2\M+2A755\M+2BD75
100
AcDbCircle
 10
1730.182711898294
 20
618.0896369885013
 30
0.0
 40
0.11810704725
100
AcDbArc
 50
270.0
 51
357.6482183251938
  0
ARC
  5
4514
330
1F
100
AcDbEntity
  8
\M+2BBB2\M+2A755\M+2BD75
100
AcDbCircle
 10
1730.441208224167
 20
619.8747067774245
 30
0.0
 40
0.1380534882104052
100
AcDbArc
 50
213.53493109673
 51
331.1686322528986
  0
LWPOLYLINE
  5
4515
330
1F
100
AcDbEntity
  8
\M+2BBB2\M+2A755\M+2BD75
100
AcDbPolyline
 90
        2
 70
     0
 43
0.0
 10
1730.326133853412
 20
618.7036061256382
 42
-0.5636647947092635
 10
1730.562148988919
 20
618.6939131254667
  0
LINE
  5
4516
330
1F
100
AcDbEntity
  8
\M+2BBB2\M+2A755\M+2BD75
100
AcDbLine
 10
1730.182711898294
 20
620.5305159650014
 30
0.0
 11
1729.774768673919
 21
620.5305159650014
 31
0.0
  0
LINE
  5
4517
330
1F
100
AcDbEntity
  8
\M+2BBB2\M+2A755\M+2BD75
100
AcDbLine
 10
1729.366825449543
 20
620.5305159650014
 30
0.0
 11
1729.774768673919
 21
620.5305159650014
 31
0.0
  0
ARC
  5
4518
330
1F
100
AcDbEntity
  8
\M+2BBB2\M+2A755\M+2BD75
100
AcDbCircle
 10
1730.182711898294
 20
620.4124089177514
 30
0.0
 40
0.11810704725
100
AcDbArc
 50
2.351781674819166
 51
90.0
  0
LINE
  5
45E3
102
{ACAD_REACTORS
330
5E57
102
}
330
1F
100
AcDbEntity
  8
\M+2BBB2\M+2A755\M+2BD75
100
AcDbLine
 10
1722.077898199267
 20
615.2967327132152
 30
0.0
 11
1722.077898199267
 21
615.2771461382153
 31
0.0
  0
LINE
  5
45E4
102
{ACAD_REACTORS
330
5E3B
102
}
330
1F
100
AcDbEntity
  8
\M+2BBB2\M+2A755\M+2BD75
100
AcDbLine
 10
1722.058242526559
 20
615.2771461382153
 30
0.0
 11
1722.058952076667
 21
615.2568272816153
 31
0.0
  0
LINE
  5
4648
330
1F
100
AcDbEntity
  8
\M+2BBB2\M+2A755\M+2BD75
100
AcDbLine
 10
1726.236128799092
 20
617.8099406975015
 30
0.0
 11
1726.236128799092
 21
617.7864368075014
 31
0.0
  0
ARC
  5
4649
330
1F
100
AcDbEntity
  8
\M+2BBB2\M+2A755\M+2BD75
100
AcDbCircle
 10
1726.247880744091
 20
617.7864368075014
 30
0.0
 40
0.011751945
100
AcDbArc
 50
179.9999999999838
 51
269.9999999999983
  0
LINE
  5
464A
330
1F
100
AcDbEntity
  8
\M+2BBB2\M+2A755\M+2BD75
100
AcDbLine
 10
1726.306640469092
 20
617.8099406975015
 30
0.0
 11
1726.306640469092
 21
617.7550982875015
 31
0.0
  0
LINE
  5
464C
330
1F
100
AcDbEntity
  8
\M+2BBB2\M+2A755\M+2BD75
100
AcDbLine
 10
1726.306640469092
 20
617.7746848625014
 30
0.0
 11
1726.267467319091
 21
617.7746848625014
 31
0.0
  0
LINE
  5
464D
330
1F
100
AcDbEntity
  8
\M+2BBB2\M+2A755\M+2BD75
100
AcDbLine
 10
1726.267467319091
 20
617.7746848625014
 30
0.0
 11
1726.247880744091
 21
617.7746848625014
 31
0.0
  0
LINE
  5
464E
330
1F
100
AcDbEntity
  8
\M+2BBB2\M+2A755\M+2BD75
100
AcDbLine
 10
1726.236128799092
 20
617.8099406975015
 30
0.0
 11
1726.255715374092
 21
617.8099406975015
 31
0.0
  0
DIMENSION
  5
4687
102
{ACAD_XDICTIONARY
360
4694
102
}
102
{ACAD_REACTORS
330
469E
102
}
330
1F
100
AcDbEntity
  8
DIM
100
AcDbDimension
  2
*D3
 10
1731.507620684803
 20
617.7353158467513
 30
0.0
 11
1731.507620684803
 21
619.076642683304
 31
0.0
 70
   160
 71
     5
 42
3.031414212750064
  3
Standard
100
AcDbAlignedDimension
 13
1730.296067923252
 23
620.7667300595014
 33
0.0
 14
1730.296067923252
 24
617.7353158467513
 34
0.0
 50
90.0
100
AcDbRotatedDimension
  0
LINE
  5
46B0
330
1F
100
AcDbEntity
  8
\M+2BBB2\M+2A755\M+2BD75
100
AcDbLine
 10
1726.838024248841
 20
619.7234511421263
 30
0.0
 11
1726.818339248841
 21
619.7234511421263
 31
0.0
  0
LINE
  5
46B2
102
{ACAD_REACTORS
330
485A
102
}
330
1F
100
AcDbEntity
  8
\M+2BBB2\M+2A755\M+2BD75
100
AcDbLine
 10
1726.818339248841
 20
619.7234511421263
 30
0.0
 11
1726.818339248841
 21
619.4759312092616
 31
0.0
  0
DIMENSION
  5
46D7
102
{ACAD_XDICTIONARY
360
46E0
102
}
102
{ACAD_REACTORS
330
46E6
102
}
330
1F
100
AcDbEntity
  8
DIM
100
AcDbDimension
  2
*D4
 10
1729.253469424585
 20
620.5305159650014
 30
0.0
 11
1728.439380737598
 21
622.4135673305629
 31
0.0
 70
   164
 71
     5
 42
0.2362140945000419
  3
Standard
100
AcDbRadialDimension
 15
1729.089903726497
 25
620.7009370929448
 35
0.0
 40
0.0
  0
DIMENSION
  5
46E7
102
{ACAD_XDICTIONARY
360
46F6
102
}
102
{ACAD_REACTORS
330
4702
102
}
330
1F
100
AcDbEntity
  8
DIM
100
AcDbDimension
  2
*D5
 10
1722.939530357044
 20
620.7667300595014
 30
0.0
 11
1723.795839880854
 21
621.5193493753851
 31
0.0
 70
   160
 71
     5
 42
0.0746248507500695
  3
Standard
100
AcDbAlignedDimension
 13
1723.522307531087
 23
620.6921052087514
 33
0.0
 14
1723.522307531087
 24
620.7667300595014
 34
0.0
 50
90.0
100
AcDbRotatedDimension
  0
DIMENSION
  5
4703
102
{ACAD_XDICTIONARY
360
4712
102
}
102
{ACAD_REACTORS
330
471E
102
}
330
1F
100
AcDbEntity
  8
DIM
100
AcDbDimension
  2
*D6
 10
1723.110796231892
 20
615.8955049376158
 30
0.0
 11
1722.091164215419
 21
615.8955049376158
 31
0.0
 70
   160
  1
{\fTahoma|b0|i0|c0|p32;.177 [}4.5{\fTahoma|b0|i0|c0|p32;]}
 71
     5
 42
0.1762791749999906
  3
Standard
100
AcDbAlignedDimension
 13
1722.934517056892
 23
615.2967327132152
 33
0.0
 14
1723.110796231892
 24
615.2967327132152
 34
0.0
100
AcDbRotatedDimension
  0
DIMENSION
  5
471F
102
{ACAD_XDICTIONARY
360
472C
102
}
102
{ACAD_REACTORS
330
4736
102
}
330
1F
100
AcDbEntity
  8
DIM
100
AcDbDimension
  2
*D7
 10
1723.149969381892
 20
616.2349451237935
 30
0.0
 11
1722.051991065419
 21
616.2349451237935
 31
0.0
 70
   160
  1
{\fTahoma|b0|i0|c0|p32;.256 [}6.5{\fTahoma|b0|i0|c0|p32;]}
 71
     5
 42
0.2546254750000116
  3
Standard
100
AcDbAlignedDimension
 13
1722.895343906892
 23
615.3476578082153
 33
0.0
 14
1723.149969381892
 24
615.3476578082153
 34
0.0
100
AcDbRotatedDimension
  0
DIMENSION
  5
4737
102
{ACAD_XDICTIONARY
360
4744
102
}
102
{ACAD_REACTORS
330
474E
102
}
330
1F
100
AcDbEntity
  8
DIM
100
AcDbDimension
  2
*D8
 10
1720.587800850921
 20
618.7009121435525
 30
0.0
 11
1720.587800850921
 21
619.4009105657739
 31
0.0
 70
   160
  1
{\fTahoma|b0|i0|c0|p32;1.102 [}28{\fTahoma|b0|i0|c0|p32;]}
 71
     5
 42
1.100221619147873
  3
Standard
100
AcDbAlignedDimension
 13
1722.491428467852
 23
619.8011337627003
 33
0.0
 14
1722.491428467852
 24
618.7009121435525
 34
0.0
 50
90.0
100
AcDbRotatedDimension
  0
DIMENSION
  5
474F
102
{ACAD_XDICTIONARY
360
475C
102
}
102
{ACAD_REACTORS
330
4766
102
}
330
1F
100
AcDbEntity
  8
DIM
100
AcDbDimension
  2
*D9
 10
1723.554391893102
 20
617.356832332365
 30
0.0
 11
1720.933574719582
 21
617.356832332365
 31
0.0
 70
   160
 71
     5
 42
1.062963425250018
  3
Standard
100
AcDbAlignedDimension
 13
1722.491428467852
 23
618.7009121435525
 33
0.0
 14
1723.554391893102
 24
618.7009121435525
 34
0.0
100
AcDbRotatedDimension
  0
DIMENSION
  5
47C3
102
{ACAD_XDICTIONARY
360
47CC
102
}
102
{ACAD_REACTORS
330
47D2
102
}
330
1F
100
AcDbEntity
  8
DIM
100
AcDbDimension
  2
*D10
 10
1723.022910180476
 20
619.2510229531261
 30
0.0
 11
1724.195042882133
 21
619.0416781201693
 31
0.0
 70
   164
 71
     5
 42
0.925171870125041
  3
Standard
100
AcDbRadialDimension
 15
1722.112150242814
 25
619.4136861795205
 35
0.0
 40
0.0
  0
DIMENSION
  5
47D3
102
{ACAD_XDICTIONARY
360
47E0
102
}
102
{ACAD_REACTORS
330
47EA
102
}
330
1F
100
AcDbEntity
  8
DIM
100
AcDbDimension
  2
*D11
 10
1720.05443183848
 20
617.7746848625014
 30
0.0
 11
1720.05443183848
 21
618.3218665875381
 31
0.0
 70
   160
 71
     5
 42
2.952676181250012
  3
Standard
100
AcDbAlignedDimension
 13
1722.501610931143
 23
620.7273610437514
 33
0.0
 14
1722.501610931143
 24
617.7746848625014
 34
0.0
 50
90.0
100
AcDbRotatedDimension
  0
DIMENSION
  5
47EB
102
{ACAD_XDICTIONARY
360
47FA
102
}
102
{ACAD_REACTORS
330
4806
102
}
330
1F
100
AcDbEntity
  8
DIM
100
AcDbDimension
  2
*D12
 10
1721.747885172907
 20
620.7667300595014
 30
0.0
 11
1720.879670887192
 21
620.1934113771787
 31
0.0
 70
   160
 71
     5
 42
0.0197824407500775
  3
Standard
100
AcDbAlignedDimension
 13
1722.501610931143
 23
620.7469476187513
 33
0.0
 14
1722.501610931143
 24
620.7667300595014
 34
0.0
 50
90.0
100
AcDbRotatedDimension
  0
DIMENSION
  5
483F
102
{ACAD_XDICTIONARY
360
484E
102
}
102
{ACAD_REACTORS
330
485A
102
}
330
1F
100
AcDbEntity
  8
DIM
100
AcDbDimension
  2
*D13
 10
1726.838024248841
 20
620.3135120105705
 30
0.0
 11
1727.886238534556
 21
620.3135120105705
 31
0.0
 70
   160
 71
     5
 42
0.0196849999999813
  3
Standard
100
AcDbAlignedDimension
 13
1726.818339248842
 23
619.7234511421263
 33
0.0
 14
1726.838024248841
 24
619.6011940976505
 34
0.0
100
AcDbRotatedDimension
  0
DIMENSION
  5
4860
102
{ACAD_XDICTIONARY
360
486D
102
}
102
{ACAD_REACTORS
330
4877
102
}
330
1F
100
AcDbEntity
  8
DIM
100
AcDbDimension
  2
*D14
 10
1726.740091373842
 20
617.471333139654
 30
0.0
 11
1727.740410190674
 21
617.471333139654
 31
0.0
 70
   160
  1
{\fTahoma|b0|i0|c0|p32;.413 [}10.5{\fTahoma|b0|i0|c0|p32;]}
 71
     5
 42
0.4138643297501404
  3
Standard
100
AcDbAlignedDimension
 13
1726.326227044092
 23
619.3419459911964
 33
0.0
 14
1726.740091373842
 24
619.4401935092108
 34
0.0
100
AcDbRotatedDimension
  0
LWPOLYLINE
  5
4895
330
1F
100
AcDbEntity
  8
\M+2BBB2\M+2A755\M+2BD75
100
AcDbPolyline
 90
       14
 70
     1
 43
0.0
 10
1736.494806944624
 20
611.3039950726865
 42
-0.4022418350901689
 10
1736.258791809118
 20
611.5305161670151
 10
1736.228725878957
 20
612.2625923514018
 42
-0.3179993640019241
 10
1736.228725878957
 20
613.3768120067213
 10
1736.258791809118
 20
614.108888191108
 42
-0.4022418350901029
 10
1736.494806944624
 20
614.3354092854366
 10
1737.016106193958
 20
614.3354092854366
 10
1737.537405443291
 20
614.3354092854366
 42
-0.4022418350901689
 10
1737.773420578798
 20
614.108888191108
 10
1737.803486508957
 20
613.3768120067212
 42
-0.3179993640019241
 10
1737.803486508957
 20
612.2625923514018
 10
1737.773420578798
 20
611.5305161670151
 42
-0.402241835090103
 10
1737.537405443291
 20
611.3039950726865
 10
1737.016106193958
 20
611.3039950726865
  0
ARC
  5
4898
330
1F
100
AcDbEntity
  8
\M+2BBB2\M+2A755\M+2BD75
100
AcDbCircle
 10
1737.016106193957
 20
612.8197021790616
 30
0.0
 40
0.776961224370429
100
AcDbArc
 50
41.40961820076375
 51
135.2058851808724
  0
ARC
  5
4899
330
1F
100
AcDbEntity
  8
\M+2BBB2\M+2A755\M+2BD75
100
AcDbCircle
 10
1737.016106193957
 20
612.8197021790616
 30
0.0
 40
0.776961224370429
100
AcDbArc
 50
221.4096182008329
 51
318.5903817990977
  0
ARC
  5
489A
330
1F
100
AcDbEntity
  8
\M+2BBB2\M+2A755\M+2BD75
100
AcDbCircle
 10
1737.424049418333
 20
613.9810881436866
 30
0.0
 40
0.11810704725
100
AcDbArc
 50
2.351781674806137
 51
90.0
  0
ARC
  5
489B
330
1F
100
AcDbEntity
  8
\M+2BBB2\M+2A755\M+2BD75
100
AcDbCircle
 10
1737.424049418333
 20
611.6583162144365
 30
0.0
 40
0.11810704725
100
AcDbArc
 50
270.0
 51
357.6482183251808
  0
LINE
  5
489C
330
1F
100
AcDbEntity
  8
\M+2BBB2\M+2A755\M+2BD75
100
AcDbLine
 10
1737.542056986086
 20
613.9859346437723
 30
0.0
 11
1737.567471373451
 21
613.3671190065498
 31
0.0
  0
LINE
  5
489D
330
1F
100
AcDbEntity
  8
\M+2BBB2\M+2A755\M+2BD75
100
AcDbLine
 10
1737.542056986086
 20
611.6534697143508
 30
0.0
 11
1737.567471373451
 21
612.2722853515734
 31
0.0
  0
ARC
  5
489E
330
1F
100
AcDbEntity
  8
\M+2BBB2\M+2A755\M+2BD75
100
AcDbCircle
 10
1737.682545744206
 20
612.1960183547635
 30
0.0
 40
0.1380534882104052
100
AcDbArc
 50
28.83136774710139
 51
146.46506890327
  0
ARC
  5
489F
330
1F
100
AcDbEntity
  8
\M+2BBB2\M+2A755\M+2BD75
100
AcDbCircle
 10
1737.682545744206
 20
613.4433860033596
 30
0.0
 40
0.1380534882104052
100
AcDbArc
 50
213.5349310967299
 51
331.1686322528986
  0
LINE
  5
48A0
330
1F
100
AcDbEntity
  8
\M+2BBB2\M+2A755\M+2BD75
100
AcDbLine
 10
1736.490155401829
 20
613.9859346437723
 30
0.0
 11
1736.464741014464
 21
613.3671190065498
 31
0.0
  0
LINE
  5
48A1
330
1F
100
AcDbEntity
  8
\M+2BBB2\M+2A755\M+2BD75
100
AcDbLine
 10
1736.608162969582
 20
611.5402091671866
 30
0.0
 11
1737.016106193957
 21
611.5402091671866
 31
0.0
  0
LINE
  5
48A2
330
1F
100
AcDbEntity
  8
\M+2BBB2\M+2A755\M+2BD75
100
AcDbLine
 10
1737.424049418333
 20
611.5402091671866
 30
0.0
 11
1737.016106193957
 21
611.5402091671866
 31
0.0
  0
LINE
  5
48A3
330
1F
100
AcDbEntity
  8
\M+2BBB2\M+2A755\M+2BD75
100
AcDbLine
 10
1736.490155401829
 20
611.6534697143508
 30
0.0
 11
1736.464741014464
 21
612.2722853515734
 31
0.0
  0
ARC
  5
48A4
330
1F
100
AcDbEntity
  8
\M+2BBB2\M+2A755\M+2BD75
100
AcDbCircle
 10
1736.608162969582
 20
611.6583162144365
 30
0.0
 40
0.11810704725
100
AcDbArc
 50
182.3517816748061
 51
270.0
  0
ARC
  5
48A5
330
1F
100
AcDbEntity
  8
\M+2BBB2\M+2A755\M+2BD75
100
AcDbCircle
 10
1736.349666643709
 20
613.4433860033596
 30
0.0
 40
0.1380534882104052
100
AcDbArc
 50
208.8313677471014
 51
326.46506890327
  0
LWPOLYLINE
  5
48A6
330
1F
100
AcDbEntity
  8
\M+2BBB2\M+2A755\M+2BD75
100
AcDbPolyline
 90
        2
 70
     0
 43
0.0
 10
1736.464741014464
 20
612.2722853515734
 42
0.5636647947092635
 10
1736.228725878957
 20
612.2625923514018
  0
LINE
  5
48A7
330
1F
100
AcDbEntity
  8
\M+2BBB2\M+2A755\M+2BD75
100
AcDbLine
 10
1736.608162969582
 20
614.0991951909366
 30
0.0
 11
1737.016106193957
 21
614.0991951909366
 31
0.0
  0
LINE
  5
48A8
330
1F
100
AcDbEntity
  8
\M+2BBB2\M+2A755\M+2BD75
100
AcDbLine
 10
1737.424049418333
 20
614.0991951909366
 30
0.0
 11
1737.016106193957
 21
614.0991951909366
 31
0.0
  0
ARC
  5
48A9
330
1F
100
AcDbEntity
  8
\M+2BBB2\M+2A755\M+2BD75
100
AcDbCircle
 10
1736.608162969582
 20
613.9810881436866
 30
0.0
 40
0.11810704725
100
AcDbArc
 50
90.0
 51
177.6482183251808
  0
LINE
  5
48AE
330
1F
100
AcDbEntity
  8
\M+2BBB2\M+2A755\M+2BD75
100
AcDbLine
 10
1733.835762128489
 20
612.8197021790616
 30
0.0
 11
1733.835762128489
 21
612.8197021790616
 31
0.0
  0
LINE
  5
48CD
330
1F
100
AcDbEntity
  8
\M+2BBB2\M+2A755\M+2BD75
100
AcDbLine
 10
1729.565913801363
 20
612.7207875269897
 30
0.0
 11
1729.565913801363
 21
612.9186168311335
 31
0.0
  0
LINE
  5
48CE
330
1F
100
AcDbEntity
  8
\M+2BBB2\M+2A755\M+2BD75
100
AcDbLine
 10
1729.664828453434
 20
612.8197021790616
 30
0.0
 11
1729.46699914929
 21
612.8197021790616
 31
0.0
  0
LINE
  5
48D0
330
1F
100
AcDbEntity
  8
\M+2BBB2\M+2A755\M+2BD75
100
AcDbLine
 10
1729.46699914929
 20
612.8197021790616
 30
0.0
 11
1729.664828453434
 21
612.8197021790616
 31
0.0
  0
LINE
  5
48D1
330
1F
100
AcDbEntity
  8
\M+2BBB2\M+2A755\M+2BD75
100
AcDbLine
 10
1729.664701685392
 20
612.8197021790616
 30
0.0
 11
1729.466872381248
 21
612.8197021790616
 31
0.0
  0
LWPOLYLINE
  5
48D2
102
{ACAD_REACTORS
330
4A8D
102
}
330
1F
100
AcDbEntity
  8
\M+2BBB2\M+2A755\M+2BD75
100
AcDbPolyline
 90
        7
 70
     0
 43
0.0
 10
1728.837201961082
 20
611.69801414829
 10
1728.844021256926
 20
611.5319709207722
 42
0.4022418350901673
 10
1729.044614552029
 20
611.3394467734366
 10
1729.565913801363
 20
611.3394467734366
 10
1730.087213050696
 20
611.3394467734366
 42
0.4022418350900952
 10
1730.287806345799
 20
611.5319709207722
 10
1730.317849019358
 20
612.2634808295282
  0
LWPOLYLINE
  5
48D3
330
1F
100
AcDbEntity
  8
\M+2BBB2\M+2A755\M+2BD75
100
AcDbPolyline
 90
        6
 70
     0
 43
0.0
 10
1730.305887366202
 20
611.97222619829
 10
1730.317849019358
 20
612.2634808295282
 10
1730.324681500859
 20
612.2835321574115
 42
0.3176632015043394
 10
1730.324681500859
 20
613.3558722007117
 10
1730.317849019358
 20
613.375923528595
 10
1730.287806345799
 20
614.1074334373509
  0
LWPOLYLINE
  5
48D4
102
{ACAD_REACTORS
330
4A8D
102
}
330
1F
100
AcDbEntity
  8
\M+2BBB2\M+2A755\M+2BD75
100
AcDbPolyline
 90
        7
 70
     0
 43
0.0
 10
1730.294625641644
 20
613.9413902098331
 10
1730.287806345799
 20
614.1074334373509
 42
0.4022418350901673
 10
1730.087213050696
 20
614.2999575846865
 10
1729.565913801363
 20
614.2999575846865
 10
1729.044614552029
 20
614.2999575846865
 42
0.4022418350900952
 10
1728.844021256926
 20
614.1074334373509
 10
1728.813978583367
 20
613.375923528595
  0
LWPOLYLINE
  5
48D5
330
1F
100
AcDbEntity
  8
\M+2BBB2\M+2A755\M+2BD75
100
AcDbPolyline
 90
        6
 70
     0
 43
0.0
 10
1728.825940236523
 20
613.6671781598331
 10
1728.813978583367
 20
613.375923528595
 10
1728.807146101865
 20
613.3558722007117
 42
0.3176632015043368
 10
1728.807146101865
 20
612.2835321574115
 10
1728.813978583367
 20
612.2634808295282
 10
1728.844021256926
 20
611.5319709207722
  0
LWPOLYLINE
  5
48D6
330
1F
100
AcDbEntity
  8
\M+2BBB2\M+2A755\M+2BD75
100
AcDbPolyline
 90
       18
 70
     1
 43
0.0
 10
1728.838859867006
 20
613.3396354770265
 42
0.3207707919871196
 10
1728.838859867006
 20
612.2997688810967
 10
1728.848995413588
 20
612.270024026648
 10
1728.879247396553
 20
611.5334176372157
 42
0.4022418350901609
 10
1729.044614552029
 20
611.3747026084365
 10
1729.565913801363
 20
611.3747026084365
 10
1730.087213050696
 20
611.3747026084365
 42
0.4022418350901162
 10
1730.252580206171
 20
611.5334176372156
 10
1730.282832189137
 20
612.270024026648
 10
1730.292967735719
 20
612.2997688810967
 42
0.3207707919871248
 10
1730.292967735719
 20
613.3396354770265
 10
1730.282832189137
 20
613.3693803314752
 10
1730.252580206171
 20
614.1059867209074
 42
0.4022418350901609
 10
1730.087213050696
 20
614.2647017496866
 10
1729.565913801363
 20
614.2647017496866
 10
1729.044614552029
 20
614.2647017496866
 42
0.4022418350901162
 10
1728.879247396553
 20
614.1059867209074
 10
1728.848995413588
 20
613.3693803314752
  0
LINE
  5
48DB
330
1F
100
AcDbEntity
  8
\M+2BBB2\M+2A755\M+2BD75
100
AcDbLine
 10
1729.565913801363
 20
614.2764536946865
 30
0.0
 11
1729.487567501363
 21
614.2764536946865
 31
0.0
  0
LINE
  5
48DC
330
1F
100
AcDbEntity
  8
\M+2BBB2\M+2A755\M+2BD75
100
AcDbLine
 10
1729.487567501363
 20
614.2764536946865
 30
0.0
 11
1729.487567501363
 21
614.2999575846865
 31
0.0
  0
LINE
  5
48DD
330
1F
100
AcDbEntity
  8
\M+2BBB2\M+2A755\M+2BD75
100
AcDbLine
 10
1729.565913801363
 20
614.2764536946865
 30
0.0
 11
1729.644260101362
 21
614.2764536946865
 31
0.0
  0
LINE
  5
48DE
330
1F
100
AcDbEntity
  8
\M+2BBB2\M+2A755\M+2BD75
100
AcDbLine
 10
1729.644260101362
 20
614.2764536946865
 30
0.0
 11
1729.644260101362
 21
614.2999575846865
 31
0.0
  0
LINE
  5
48DF
330
1F
100
AcDbEntity
  8
\M+2BBB2\M+2A755\M+2BD75
100
AcDbLine
 10
1729.428807776362
 20
614.2999575846865
 30
0.0
 11
1729.703019826362
 21
614.2999575846865
 31
0.0
  0
LINE
  5
48E4
330
1F
100
AcDbEntity
  8
\M+2BBB2\M+2A755\M+2BD75
100
AcDbLine
 10
1729.565913801363
 20
611.3629506634366
 30
0.0
 11
1729.487567501363
 21
611.3629506634366
 31
0.0
  0
LINE
  5
48E5
102
{ACAD_REACTORS
330
498F
102
}
330
1F
100
AcDbEntity
  8
\M+2BBB2\M+2A755\M+2BD75
100
AcDbLine
 10
1729.487567501363
 20
611.3629506634366
 30
0.0
 11
1729.487567501363
 21
611.3394467734366
 31
0.0
  0
LINE
  5
48E6
330
1F
100
AcDbEntity
  8
\M+2BBB2\M+2A755\M+2BD75
100
AcDbLine
 10
1729.565913801363
 20
611.3629506634366
 30
0.0
 11
1729.644260101362
 21
611.3629506634366
 31
0.0
  0
LINE
  5
48E7
102
{ACAD_REACTORS
330
498F
102
}
330
1F
100
AcDbEntity
  8
\M+2BBB2\M+2A755\M+2BD75
100
AcDbLine
 10
1729.644260101362
 20
611.3629506634366
 30
0.0
 11
1729.644260101362
 21
611.3394467734366
 31
0.0
  0
LINE
  5
48E8
330
1F
100
AcDbEntity
  8
\M+2BBB2\M+2A755\M+2BD75
100
AcDbLine
 10
1729.428807776362
 20
611.3394467734366
 30
0.0
 11
1729.703019826362
 21
611.3394467734366
 31
0.0
  0
CIRCLE
  5
48EB
102
{ACAD_REACTORS
330
4AD1
102
}
330
1F
100
AcDbEntity
  8
\M+2BBB2\M+2A755\M+2BD75
100
AcDbCircle
 10
1729.03455885678
 20
613.3698129886355
 30
0.0
 40
0.1279493011875
  0
CIRCLE
  5
48EC
330
1F
100
AcDbEntity
  8
\M+2BBB2\M+2A755\M+2BD75
100
AcDbCircle
 10
1729.03455885678
 20
612.2695913694876
 30
0.0
 40
0.1279493011875
  0
CIRCLE
  5
48ED
102
{ACAD_REACTORS
330
4AE9
102
}
330
1F
100
AcDbEntity
  8
\M+2BBB2\M+2A755\M+2BD75
100
AcDbCircle
 10
1730.09752228203
 20
612.2695913694876
 30
0.0
 40
0.1279493011875
  0
CIRCLE
  5
48EE
102
{ACAD_REACTORS
330
4AD1
102
}
330
1F
100
AcDbEntity
  8
\M+2BBB2\M+2A755\M+2BD75
100
AcDbCircle
 10
1730.09752228203
 20
613.3698129886355
 30
0.0
 40
0.1279493011875
  0
CIRCLE
  5
48EF
330
1F
100
AcDbEntity
  8
\M+2BBB2\M+2A755\M+2BD75
100
AcDbCircle
 10
1730.09752228203
 20
612.2695913694876
 30
0.0
 40
0.0450491225
  0
CIRCLE
  5
48F0
330
1F
100
AcDbEntity
  8
\M+2BBB2\M+2A755\M+2BD75
100
AcDbCircle
 10
1730.09752228203
 20
612.2695913694876
 30
0.0
 40
0.0646356975
  0
CIRCLE
  5
48F1
330
1F
100
AcDbEntity
  8
\M+2BBB2\M+2A755\M+2BD75
100
AcDbCircle
 10
1730.09752228203
 20
613.3698129886355
 30
0.0
 40
0.0450491225
  0
CIRCLE
  5
48F2
330
1F
100
AcDbEntity
  8
\M+2BBB2\M+2A755\M+2BD75
100
AcDbCircle
 10
1730.09752228203
 20
613.3698129886355
 30
0.0
 40
0.0646356975
  0
CIRCLE
  5
48F3
330
1F
100
AcDbEntity
  8
\M+2BBB2\M+2A755\M+2BD75
100
AcDbCircle
 10
1729.03455885678
 20
613.3698129886355
 30
0.0
 40
0.0450491225
  0
CIRCLE
  5
48F4
330
1F
100
AcDbEntity
  8
\M+2BBB2\M+2A755\M+2BD75
100
AcDbCircle
 10
1729.03455885678
 20
613.3698129886355
 30
0.0
 40
0.0646356975
  0
CIRCLE
  5
48F5
330
1F
100
AcDbEntity
  8
\M+2BBB2\M+2A755\M+2BD75
100
AcDbCircle
 10
1729.03455885678
 20
612.2695913694876
 30
0.0
 40
0.0450491225
  0
CIRCLE
  5
48F6
330
1F
100
AcDbEntity
  8
\M+2BBB2\M+2A755\M+2BD75
100
AcDbCircle
 10
1729.03455885678
 20
612.2695913694876
 30
0.0
 40
0.0646356975
  0
LINE
  5
48FD
330
1F
100
AcDbEntity
  8
\M+2BBB2\M+2A755\M+2BD75
 62
     4
100
AcDbLine
 10
1728.527825957049
 20
612.8197021790616
 30
0.0
 11
1728.527825957049
 21
612.8197021790616
 31
0.0
  0
LWPOLYLINE
  5
48FE
102
{ACAD_REACTORS
330
4A75
102
}
330
1F
100
AcDbEntity
  8
\M+2BBB2\M+2A755\M+2BD75
100
AcDbPolyline
 90
       14
 70
     1
 43
0.0
 10
1729.044487783986
 20
611.3039950726865
 42
-0.4022418350901689
 10
1728.80847264848
 20
611.5305161670151
 10
1728.77840671832
 20
612.262592351402
 42
-0.3179993640019241
 10
1728.77840671832
 20
613.3768120067213
 10
1728.80847264848
 20
614.108888191108
 42
-0.4022418350901029
 10
1729.044487783986
 20
614.3354092854366
 10
1729.56578703332
 20
614.3354092854366
 10
1730.087086282654
 20
614.3354092854366
 42
-0.4022418350901689
 10
1730.32310141816
 20
614.108888191108
 10
1730.35316734832
 20
613.3768120067212
 42
-0.3179993640019241
 10
1730.35316734832
 20
612.2625923514018
 10
1730.32310141816
 20
611.5305161670151
 42
-0.402241835090103
 10
1730.087086282654
 20
611.3039950726865
 10
1729.56578703332
 20
611.3039950726865
  0
ARC
  5
4902
330
1F
100
AcDbEntity
  8
\M+2BBB2\M+2A755\M+2BD75
100
AcDbCircle
 10
1733.431716315842
 20
613.7053899607932
 30
0.0
 40
0.2362140945
100
AcDbArc
 50
183.6991067901729
 51
213.5272219807866
  0
ARC
  5
4906
330
1F
100
AcDbEntity
  8
\M+2BBB2\M+2A755\M+2BD75
100
AcDbCircle
 10
1732.807993243659
 20
613.2921303680615
 30
0.0
 40
0.5119930705
100
AcDbArc
 50
0.0000000000069544
 51
33.52722198078653
  0
ARC
  5
4909
330
1F
100
AcDbEntity
  8
0
 62
     4
100
AcDbCircle
 10
1733.205781009802
 20
612.3244238735083
 30
0.0
 40
0.0098422539375
100
AcDbArc
 50
359.9074489539076
 51
151.2293229073177
  0
ARC
  5
490A
330
1F
100
AcDbEntity
  8
\M+2BBB2\M+2A755\M+2BD75
100
AcDbCircle
 10
1733.431716315842
 20
611.93401439733
 30
0.0
 40
0.2362140945
100
AcDbArc
 50
146.4727780192133
 51
176.300893209827
  0
ARC
  5
490B
330
1F
100
AcDbEntity
  8
\M+2BBB2\M+2A755\M+2BD75
100
AcDbCircle
 10
1732.74573490553
 20
612.5348763576925
 30
0.0
 40
0.4960824351551968
100
AcDbArc
 50
277.2324328500519
 51
335.5008474502795
  0
ARC
  5
490C
102
{ACAD_REACTORS
330
4B52
102
}
330
1F
100
AcDbEntity
  8
\M+2BBB2\M+2A755\M+2BD75
100
AcDbCircle
 10
1732.807993243659
 20
612.3472739900616
 30
0.0
 40
0.5119930705
100
AcDbArc
 50
326.4727780192135
 51
359.999999999993
  0
ARC
  5
490D
330
1F
100
AcDbEntity
  8
\M+2BBB2\M+2A755\M+2BD75
100
AcDbCircle
 10
1717.940249791388
 20
612.9355600862379
 30
0.0
 40
15.28759435720448
100
AcDbArc
 50
356.3728156908728
 51
357.708876263796
  0
LINE
  5
490E
330
1F
100
AcDbEntity
  8
\M+2BBB2\M+2A755\M+2BD75
100
AcDbLine
 10
1732.808189109409
 20
614.3354092854366
 30
0.0
 11
1732.899446731788
 21
614.3306266761051
 31
0.0
  0
LINE
  5
490F
330
1F
100
AcDbEntity
  8
\M+2BBB2\M+2A755\M+2BD75
100
AcDbLine
 10
1733.13839291852
 20
614.1108877034787
 30
0.0
 11
1733.195994344075
 21
613.6901501948078
 31
0.0
  0
ARC
  5
4910
330
1F
100
AcDbEntity
  8
\M+2BBB2\M+2A755\M+2BD75
100
AcDbCircle
 10
1732.88612066407
 20
614.0763501564691
 30
0.0
 40
0.2546254750000001
100
AcDbArc
 50
7.795663123828314
 51
86.99999999999272
  0
LINE
  5
4911
330
1F
100
AcDbEntity
  8
\M+2BBB2\M+2A755\M+2BD75
100
AcDbLine
 10
1732.808189109409
 20
611.3039950726865
 30
0.0
 11
1732.899446731788
 21
611.308777682018
 31
0.0
  0
LINE
  5
4912
330
1F
100
AcDbEntity
  8
\M+2BBB2\M+2A755\M+2BD75
100
AcDbLine
 10
1733.13839291852
 20
611.5285166546445
 30
0.0
 11
1733.195994344076
 21
611.9492541633153
 31
0.0
  0
ARC
  5
4913
330
1F
100
AcDbEntity
  8
\M+2BBB2\M+2A755\M+2BD75
100
AcDbCircle
 10
1732.88612066407
 20
611.563054201654
 30
0.0
 40
0.2546254750000001
100
AcDbArc
 50
273.0000000000093
 51
352.2043368761738
  0
LINE
  5
4914
102
{ACAD_REACTORS
330
4B08
102
}
330
1F
100
AcDbEntity
  8
\M+2BBB2\M+2A755\M+2BD75
100
AcDbLine
 10
1732.808189109409
 20
611.3039950726865
 30
0.0
 11
1732.808189109409
 21
614.3354092854366
 31
0.0
  0
LINE
  5
4915
330
1F
100
AcDbEntity
  8
\M+2BBB2\M+2A755\M+2BD75
100
AcDbLine
 10
1733.319986314159
 20
612.3472739900616
 30
0.0
 11
1733.319986314159
 21
613.2921303680615
 31
0.0
  0
LINE
  5
4920
330
1F
100
AcDbEntity
  8
\M+2BBB2\M+2A755\M+2BD75
100
AcDbLine
 10
1732.808189109409
 20
614.2999575846865
 30
0.0
 11
1732.808189109409
 21
614.2764536946867
 31
0.0
  0
LINE
  5
4921
330
1F
100
AcDbEntity
  8
\M+2BBB2\M+2A755\M+2BD75
100
AcDbLine
 10
1732.808189109409
 20
614.2764536946867
 30
0.0
 11
1732.823858369409
 21
614.2764536946867
 31
0.0
  0
LINE
  5
4922
330
1F
100
AcDbEntity
  8
\M+2BBB2\M+2A755\M+2BD75
100
AcDbLine
 10
1732.831692999409
 20
614.2842883246865
 30
0.0
 11
1732.831692999409
 21
614.2999575846865
 31
0.0
  0
LINE
  5
4923
330
1F
100
AcDbEntity
  8
\M+2B5EA\M+2BD75
100
AcDbLine
 10
1733.222053439159
 20
613.2418636874481
 30
0.0
 11
1733.023641434409
 21
613.2418636874481
 31
0.0
  0
LINE
  5
4924
330
1F
100
AcDbEntity
  8
\M+2B5EA\M+2BD75
100
AcDbLine
 10
1733.189785116697
 20
613.497762289823
 30
0.0
 11
1733.023641434409
 21
613.497762289823
 31
0.0
  0
LINE
  5
4925
330
1F
100
AcDbEntity
  8
\M+2B5EA\M+2BD75
100
AcDbLine
 10
1733.241052474337
 20
613.3244896540856
 30
0.0
 11
1733.043228009409
 21
613.3244896540856
 31
0.0
  0
LINE
  5
4926
330
1F
100
AcDbEntity
  8
\M+2B5EA\M+2BD75
100
AcDbLine
 10
1733.220805407631
 20
613.4151363231856
 30
0.0
 11
1733.043228009409
 21
613.4151363231856
 31
0.0
  0
LINE
  5
4927
330
1F
100
AcDbEntity
  8
\M+2B5EA\M+2BD75
100
AcDbLine
 10
1733.023641434409
 20
613.4347228981856
 30
0.0
 11
1733.023641434409
 21
613.497762289823
 31
0.0
  0
LINE
  5
4928
330
1F
100
AcDbEntity
  8
\M+2B5EA\M+2BD75
100
AcDbLine
 10
1733.043228009409
 20
613.4151363231856
 30
0.0
 11
1733.023641434409
 21
613.4347228981856
 31
0.0
  0
LINE
  5
4929
102
{ACAD_REACTORS
330
4B08
102
}
330
1F
100
AcDbEntity
  8
\M+2B5EA\M+2BD75
100
AcDbLine
 10
1733.023641434409
 20
613.2418636874481
 30
0.0
 11
1733.023641434409
 21
613.3049030790856
 31
0.0
  0
LINE
  5
492A
330
1F
100
AcDbEntity
  8
\M+2B5EA\M+2BD75
100
AcDbLine
 10
1733.043228009409
 20
613.3244896540856
 30
0.0
 11
1733.023641434409
 21
613.3049030790856
 31
0.0
  0
LINE
  5
492B
330
1F
100
AcDbEntity
  8
\M+2B5EA\M+2BD75
100
AcDbLine
 10
1733.023641434409
 20
613.3049030790856
 30
0.0
 11
1733.023641434409
 21
613.4347228981856
 31
0.0
  0
LINE
  5
4935
330
1F
100
AcDbEntity
  8
\M+2BBB2\M+2A755\M+2BD75
100
AcDbLine
 10
1732.831692999409
 20
614.2999575846865
 30
0.0
 11
1732.886535409409
 21
614.2999575846865
 31
0.0
  0
LINE
  5
4936
330
1F
100
AcDbEntity
  8
\M+2BBB2\M+2A755\M+2BD75
100
AcDbLine
 10
1732.886535409409
 20
614.2999575846865
 30
0.0
 11
1732.886535409409
 21
614.264689624524
 31
0.0
  0
ARC
  5
493A
330
1F
100
AcDbEntity
  8
\M+2BBB2\M+2A755\M+2BD75
100
AcDbCircle
 10
1733.431716315842
 20
613.7053899607932
 30
0.0
 40
0.3145603945
100
AcDbArc
 50
183.6991067901729
 51
213.5272219807866
  0
ARC
  5
493B
330
1F
100
AcDbEntity
  8
\M+2BBB2\M+2A755\M+2BD75
100
AcDbCircle
 10
1732.807993243659
 20
613.2921303680615
 30
0.0
 40
0.4336467705000001
100
AcDbArc
 50
359.6894522490833
 51
33.52722198078647
  0
LINE
  5
493C
330
1F
100
AcDbEntity
  8
\M+2BBB2\M+2A755\M+2BD75
100
AcDbLine
 10
1733.059117901724
 20
614.1123331841548
 30
0.0
 11
1733.118372111937
 21
613.6795232572664
 31
0.0
  0
ARC
  5
493D
330
1F
100
AcDbEntity
  8
\M+2BBB2\M+2A755\M+2BD75
100
AcDbCircle
 10
1732.884467879412
 20
614.0884225746866
 30
0.0
 40
0.176279175
100
AcDbArc
 50
7.795663123827962
 51
89.3279781404542
  0
LINE
  5
4940
102
{ACAD_REACTORS
330
4B6A
102
}
330
1F
100
AcDbEntity
  8
\M+2BBB2\M+2A755\M+2BD75
100
AcDbLine
 10
1733.241633644495
 20
613.2897799790615
 30
0.0
 11
1733.222053439159
 21
613.2897799790615
 31
0.0
  0
LINE
  5
494A
330
1F
100
AcDbEntity
  8
\M+2BBB2\M+2A755\M+2BD75
100
AcDbLine
 10
1733.222053439159
 20
613.2897799790615
 30
0.0
 11
1733.222053439159
 21
613.0349397883158
 31
0.0
  0
ARC
  5
494D
330
1F
100
AcDbEntity
  8
\M+2BBB2\M+2A755\M+2BD75
100
AcDbCircle
 10
1731.960176210204
 20
614.9557960879309
 30
0.0
 40
2.298265229412624
100
AcDbArc
 50
291.6526980317718
 51
306.2754675657837
  0
HATCH
  5
4973
330
1F
100
AcDbEntity
  8
\M+2BBB2\M+2A755\M+2BD75
100
AcDbHatch
 10
0.0
 20
0.0
 30
0.0
210
0.0
220
0.0
230
1.0
  2
ANSI31
 70
     0
 71
     0
 91
        1
 92
        7
 72
     1
 73
     1
 93
       19
 10
1732.899446731788
 20
614.3306266761051
 42
0.0
 10
1732.808189109409
 20
614.3354092854366
 42
0.0
 10
1732.808189109409
 20
614.2764536946867
 42
0.0
 10
1732.831692999409
 20
614.2764536946867
 42
0.0
 10
1732.831692999409
 20
614.2999575846865
 42
0.0
 10
1732.886535409409
 20
614.2999575846865
 42
0.0
 10
1732.886535409409
 20
614.264689624524
 42
-0.3715605253600398
 10
1733.059117901724
 20
614.1123331841548
 42
0.0
 10
1733.118019245525
 20
613.6821006958212
 42
0.128463533367073
 10
1733.169491380259
 20
613.5316478388228
 42
-0.1487274041482407
 10
1733.241633644495
 20
613.2897799790615
 42
0.0
 10
1733.222053439159
 20
613.2897799790615
 42
0.0
 10
1733.222053439159
 20
613.0349397883158
 42
0.0103143398747667
 10
1733.300203873409
 20
613.0886193618088
 42
0.0
 10
1733.300203873409
 20
613.2921303680615
 42
0.0
 10
1733.319986314159
 20
613.2921303680615
 42
0.1473426893452063
 10
1733.234802696718
 20
613.5749210946062
 42
-0.1308895847144639
 10
1733.195994344076
 20
613.6901501948078
 42
0.0
 10
1733.13839291852
 20
614.1108877034787
 42
0.3600435291809884
 97
        0
 75
     0
 76
     1
 52
0.0
 41
0.00783463
 77
     0
 78
     1
 53
45.0
 43
1647.913073301644
 44
590.6003133768884
 45
-0.017589246003453
 46
0.017589246003453
 79
     0
 47
0.0915803290922591
 98
        1
 10
1732.970132616163
 20
614.2588782691653
  0
DIMENSION
  5
4974
102
{ACAD_XDICTIONARY
360
4983
102
}
102
{ACAD_REACTORS
330
498F
102
}
330
1F
100
AcDbEntity
  8
DIM
100
AcDbDimension
  2
*D15
 10
1729.644260101362
 20
610.6910436794985
 30
0.0
 11
1728.451257977553
 21
610.6910436794985
 31
0.0
 70
   160
 71
     5
 42
0.1566925999998148
  3
Standard
100
AcDbAlignedDimension
 13
1729.487567501363
 23
611.3394467734366
 33
0.0
 14
1729.644260101362
 24
611.3394467734366
 34
0.0
100
AcDbRotatedDimension
  0
CIRCLE
  5
4990
330
1F
100
AcDbEntity
  8
\M+2A4A4\M+2A4DF\M+2BD75
100
AcDbCircle
 10
1732.845726854493
 20
614.2860149900849
 30
0.0
 40
0.0831938460051236
  0
LINE
  5
49CF
330
1F
100
AcDbEntity
  8
\M+2BBB2\M+2A755\M+2BD75
100
AcDbLine
 10
1732.886535409409
 20
614.264689624524
 30
0.0
 11
1732.886535409409
 21
612.8524935184524
 31
0.0
  0
ARC
  5
49D2
330
1F
100
AcDbEntity
  8
\M+2BBB2\M+2A755\M+2BD75
100
AcDbCircle
 10
1732.823858369409
 20
614.2842883246865
 30
0.0
 40
0.00783463
100
AcDbArc
 50
270.0
 51
0.0
  0
DIMENSION
  5
4A5E
102
{ACAD_XDICTIONARY
360
4A6B
102
}
102
{ACAD_REACTORS
330
4A75
102
}
330
1F
100
AcDbEntity
  8
DIM
100
AcDbDimension
  2
*D16
 10
1726.864390418033
 20
611.3039950726865
 30
0.0
 11
1726.864390418033
 21
613.5333373810547
 31
0.0
 70
   160
 71
     5
 42
3.031414212750064
  3
Standard
100
AcDbAlignedDimension
 13
1729.044487783986
 23
614.3354092854366
 33
0.0
 14
1729.044487783986
 24
611.3039950726865
 34
0.0
 50
90.0
100
AcDbRotatedDimension
  0
DIMENSION
  5
4A76
102
{ACAD_XDICTIONARY
360
4A83
102
}
102
{ACAD_REACTORS
330
4A8D
102
}
330
1F
100
AcDbEntity
  8
DIM
100
AcDbDimension
  2
*D17
 10
1727.816255233563
 20
611.3394467734366
 30
0.0
 11
1727.816255233563
 21
612.5240330637641
 31
0.0
 70
   160
 71
     5
 42
2.960510811249946
  3
Standard
100
AcDbAlignedDimension
 13
1729.044614552029
 23
614.2999575846865
 33
0.0
 14
1729.044614552029
 24
611.3394467734366
 34
0.0
 50
90.0
100
AcDbRotatedDimension
  0
DIMENSION
  5
4ABA
102
{ACAD_XDICTIONARY
360
4AC7
102
}
102
{ACAD_REACTORS
330
4AD1
102
}
330
1F
100
AcDbEntity
  8
DIM
100
AcDbDimension
  2
*D18
 10
1730.09752228203
 20
614.8236729944577
 30
0.0
 11
1727.654037462584
 21
614.8236729944577
 31
0.0
 70
   160
 71
     5
 42
1.062963425250018
  3
Standard
100
AcDbAlignedDimension
 13
1729.03455885678
 23
613.3698129886355
 33
0.0
 14
1730.09752228203
 24
613.3698129886355
 34
0.0
100
AcDbRotatedDimension
  0
DIMENSION
  5
4AD2
102
{ACAD_XDICTIONARY
360
4ADF
102
}
102
{ACAD_REACTORS
330
4AE9
102
}
330
1F
100
AcDbEntity
  8
DIM
100
AcDbDimension
  2
*D19
 10
1731.140017630757
 20
612.2695913694876
 30
0.0
 11
1731.140017630757
 21
612.8038932502289
 31
0.0
 70
   160
  1
{\fTahoma|b0|i0|c0|p32;1.102 [}28{\fTahoma|b0|i0|c0|p32;.0]}
 71
     5
 42
1.100221619147873
  3
Standard
100
AcDbAlignedDimension
 13
1730.09752228203
 23
613.3698129886355
 33
0.0
 14
1730.09752228203
 24
612.2695913694876
 34
0.0
 50
90.0
100
AcDbRotatedDimension
  0
CIRCLE
  5
4AEB
330
1F
100
AcDbEntity
  8
\M+2BBB2\M+2A755\M+2BD75
100
AcDbCircle
 10
1737.016106193957
 20
612.8197021790616
 30
0.0
 40
0.4724400000000001
  0
CIRCLE
  5
4AEC
330
1F
100
AcDbEntity
  8
\M+2BBB2\M+2A755\M+2BD75
100
AcDbCircle
 10
1729.565660265278
 20
612.8197021790616
 30
0.0
 40
0.4700778
  0
DIMENSION
  5
4AED
102
{ACAD_XDICTIONARY
360
4AFC
102
}
102
{ACAD_REACTORS
330
4B08
102
}
330
1F
100
AcDbEntity
  8
DIM
100
AcDbDimension
  2
*D20
 10
1732.808189109409
 20
610.7136522851469
 30
0.0
 11
1731.964836267937
 21
610.7136522851469
 31
0.0
 70
   160
  1
{\fTahoma|b0|i0|c0|p32;.217 [}5.5{\fTahoma|b0|i0|c0|p32;]}
 71
     5
 42
0.2154523249998874
  3
Standard
100
AcDbAlignedDimension
 13
1733.023641434409
 23
613.2418636874481
 33
0.0
 14
1732.808189109409
 24
611.3039950726865
 34
0.0
100
AcDbRotatedDimension
  0
LINE
  5
4B39
330
1F
100
AcDbEntity
  8
\M+2BBB2\M+2A755\M+2BD75
100
AcDbLine
 10
1733.300203873409
 20
613.2921303680615
 30
0.0
 11
1733.300203873409
 21
613.0886193618088
 31
0.0
  0
LINE
  5
4B3A
330
1F
100
AcDbEntity
  8
\M+2BBB2\M+2A755\M+2BD75
100
AcDbLine
 10
1733.300203873409
 20
613.2921303680615
 30
0.0
 11
1733.319986314159
 21
613.2921303680615
 31
0.0
  0
DIMENSION
  5
4B3B
102
{ACAD_XDICTIONARY
360
4B48
102
}
102
{ACAD_REACTORS
330
4B52
102
}
330
1F
100
AcDbEntity
  8
DIM
100
AcDbDimension
  2
*D21
 10
1733.319986314159
 20
609.6811448489653
 30
0.0
 11
1731.724260537981
 21
609.6811448489653
 31
0.0
 70
   160
 71
     5
 42
0.5117972047498825
  3
Standard
100
AcDbAlignedDimension
 13
1732.808189109409
 23
611.3039950726865
 33
0.0
 14
1733.319986314159
 24
612.3472739900615
 34
0.0
100
AcDbRotatedDimension
  0
DIMENSION
  5
4B53
102
{ACAD_XDICTIONARY
360
4B60
102
}
102
{ACAD_REACTORS
330
4B6A
102
}
330
1F
100
AcDbEntity
  8
DIM
100
AcDbDimension
  2
*D22
 10
1733.241633644495
 20
610.249603752157
 30
0.0
 11
1731.945456051109
 21
610.249603752157
 31
0.0
 70
   160
  1
{\fTahoma|b0|i0|c0|p32;.433 [}11{\fTahoma|b0|i0|c0|p32;.0]}
 71
     5
 42
0.4334445350853003
  3
Standard
100
AcDbAlignedDimension
 13
1732.808189109409
 23
611.3039950726865
 33
0.0
 14
1733.241633644495
 24
613.2897799790615
 34
0.0
100
AcDbRotatedDimension
  0
HATCH
  5
4BEF
330
1F
100
AcDbEntity
  8
\M+2BBB2\M+2A755\M+2BD75
100
AcDbHatch
 10
0.0
 20
0.0
 30
0.0
210
0.0
220
0.0
230
1.0
  2
ANSI31
 70
     0
 71
     0
 91
        1
 92
        7
 72
     1
 73
     1
 93
        9
 10
1734.020709549225
 20
615.4171184966955
 42
0.0
 10
1733.530824396294
 20
615.4427922896643
 42
0.0
 10
1733.530824396294
 20
615.1761589646645
 42
0.0
 10
1733.601690396294
 20
615.1761589646645
 42
0.414213562373169
 10
1733.637123396294
 20
615.2115919646645
 42
0.0
 10
1733.637123396294
 20
615.2824579646644
 42
0.0
 10
1733.885154396294
 20
615.2824579646644
 42
0.0
 10
1733.885154396294
 20
614.8915231643692
 42
0.2708741622192043
 10
1734.076846667553
 20
615.2194010041545
 42
0.139211724864682
 97
        0
 75
     0
 76
     1
 52
0.0
 41
0.007874
 77
     0
 78
     1
 53
45.0
 43
1648.424651782191
 44
590.8361179552282
 45
-0.0176776341743246
 46
0.0176776341743246
 79
     0
 47
0.0550451677758568
 98
        1
 10
1733.655317396601
 20
615.3378392580678
  0
LINE
  5
4BF0
330
1F
100
AcDbEntity
  8
\M+2BBB2\M+2A755\M+2BD75
100
AcDbLine
 10
1733.530824396294
 20
615.4427922896643
 30
0.0
 11
1734.020709549225
 21
615.4171184966955
 31
0.0
  0
LINE
  5
4BF1
330
1F
100
AcDbEntity
  8
\M+2BBB2\M+2A755\M+2BD75
100
AcDbLine
 10
1733.530824396294
 20
614.883625271918
 30
0.0
 11
1733.530824396294
 21
615.4427922896643
 31
0.0
  0
LINE
  5
4BF2
330
1F
100
AcDbEntity
  8
\M+2BBB2\M+2A755\M+2BD75
100
AcDbLine
 10
1733.530824396294
 20
615.2824579646644
 30
0.0
 11
1733.530824396294
 21
615.1761589646645
 31
0.0
  0
LINE
  5
4BF3
330
1F
100
AcDbEntity
  8
\M+2BBB2\M+2A755\M+2BD75
100
AcDbLine
 10
1733.530824396294
 20
615.1761589646645
 30
0.0
 11
1733.601690396294
 21
615.1761589646645
 31
0.0
  0
ARC
  5
4BF4
330
1F
100
AcDbEntity
  8
\M+2BBB2\M+2A755\M+2BD75
100
AcDbCircle
 10
1733.601690396294
 20
615.2115919646645
 30
0.0
 40
0.035433
100
AcDbArc
 50
270.0
 51
0.0
  0
LINE
  5
4BF5
330
1F
100
AcDbEntity
  8
\M+2BBB2\M+2A755\M+2BD75
100
AcDbLine
 10
1733.637123396294
 20
615.2115919646645
 30
0.0
 11
1733.637123396294
 21
615.2824579646644
 31
0.0
  0
LINE
  5
4BF6
330
1F
100
AcDbEntity
  8
\M+2BBB2\M+2A755\M+2BD75
100
AcDbLine
 10
1733.637123396294
 20
615.2824579646644
 30
0.0
 11
1733.885154396294
 21
615.2824579646644
 31
0.0
  0
LINE
  5
4BF7
330
1F
100
AcDbEntity
  8
\M+2BBB2\M+2A755\M+2BD75
100
AcDbLine
 10
1733.885154396294
 20
615.2824579646644
 30
0.0
 11
1733.885154396294
 21
614.8915231643692
 31
0.0
  0
CIRCLE
  5
4BF8
330
1F
100
AcDbEntity
  8
\M+2BBB2\M+2A755\M+2BD75
100
AcDbCircle
 10
1733.700593092655
 20
615.2194010041545
 30
0.0
 40
0.3762535748975439
  0
DIMENSION
  5
4C3C
102
{ACAD_XDICTIONARY
360
4C49
102
}
102
{ACAD_REACTORS
330
4C53
102
}
330
1F
100
AcDbEntity
  8
DIM
100
AcDbDimension
  2
*D23
 10
1726.838024248841
 20
616.9599369205148
 30
0.0
 11
1725.242298472663
 21
616.9599369205148
 31
0.0
 70
   160
 71
     5
 42
0.5117972047501099
  3
Standard
100
AcDbAlignedDimension
 13
1726.326227044092
 23
617.7353158467513
 33
0.0
 14
1726.838024248841
 24
618.7785947641265
 34
0.0
100
AcDbRotatedDimension
  0
LINE
  5
540D
330
1F
100
AcDbEntity
  8
\M+2BBB2\M+2A755\M+2BD75
 48
0.4
100
AcDbLine
 10
1720.857552835289
 20
610.3715554672821
 30
0.0
 11
1720.877434685289
 21
610.371555467282
 31
0.0
  0
DIMENSION
  5
5E04
102
{ACAD_XDICTIONARY
360
5E13
102
}
102
{ACAD_REACTORS
330
5E1F
102
}
330
1F
100
AcDbEntity
  8
DIM
100
AcDbDimension
  2
*D24
 10
1724.418584602711
 20
615.3476578082153
 30
0.0
 11
1723.550370316996
 21
614.3069256481295
 31
0.0
 70
   160
 71
     5
 42
0.0195865749999484
  3
Standard
100
AcDbAlignedDimension
 13
1723.130382806892
 23
615.3672443832152
 33
0.0
 14
1723.948082050602
 24
615.3476578082153
 34
0.0
 50
90.0
100
AcDbRotatedDimension
  0
DIMENSION
  5
5E20
102
{ACAD_XDICTIONARY
360
5E2F
102
}
102
{ACAD_REACTORS
330
5E3B
102
}
330
1F
100
AcDbEntity
  8
DIM
100
AcDbDimension
  2
*D25
 10
1721.130848840969
 20
615.2771461382153
 30
0.0
 11
1720.262634555254
 21
614.7142535457821
 31
0.0
 70
   160
 71
     5
 42
0.0900982449999219
  3
Standard
100
AcDbAlignedDimension
 13
1722.914930481892
 23
615.3672443832152
 33
0.0
 14
1722.058242526559
 24
615.2771461382153
 34
0.0
 50
90.0
100
AcDbRotatedDimension
  0
DIMENSION
  5
5E3C
102
{ACAD_XDICTIONARY
360
5E4B
102
}
102
{ACAD_REACTORS
330
5E57
102
}
330
1F
100
AcDbEntity
  8
DIM
100
AcDbDimension
  2
*D26
 10
1721.552004969651
 20
615.2771461382153
 30
0.0
 11
1720.683790683937
 21
614.0082185774777
 31
0.0
 70
   160
 71
     5
 42
0.0195865749999484
  3
Standard
100
AcDbAlignedDimension
 13
1722.077898199267
 23
615.2967327132152
 33
0.0
 14
1722.058242526559
 24
615.2771461382153
 34
0.0
 50
90.0
100
AcDbRotatedDimension
  0
TEXT
  5
63F7
330
1F
100
AcDbEntity
  8
0
100
AcDbText
 10
1724.44719393672
 20
613.6306935390162
 30
0.0
 40
0.2739213169084292
  1
LID
100
AcDbText
1001
ACAD
1000
ACAD_MTEXT_DEFINED_HEIGHT_BEGIN
1070
    46
1040
0.0
1000
ACAD_MTEXT_DEFINED_HEIGHT_END
1000
MTEXTBEGIN
1070
    73
1070
     1
1070
    44
1040
1.0
1070
    74
1070
     0
1000
MTEXTEND
  0
TEXT
  5
63F8
330
1F
100
AcDbEntity
  8
0
100
AcDbText
 10
1732.523418334285
 20
608.7202597993711
 30
0.0
 40
0.2739213169084292
  1
BASE
100
AcDbText
1001
ACAD
1000
ACAD_MTEXT_DEFINED_HEIGHT_BEGIN
1070
    46
1040
0.0
1000
ACAD_MTEXT_DEFINED_HEIGHT_END
1000
MTEXTBEGIN
1070
    73
1070
     1
1070
    44
1040
1.0
1070
    74
1070
     0
1000
MTEXTEND
  0
LINE
  5
6A2A
330
1F
100
AcDbEntity
  8
\M+2BBB2\M+2A755\M+2BD75
100
AcDbLine
 10
1719.927436585289
 20
610.0994769977842
 30
0.0
 11
1719.927436585289
 21
609.8967532672822
 31
0.0
  0
LINE
  5
6A50
330
1F
100
AcDbEntity
  8
\M+2BBB2\M+2A755\M+2BD75
100
AcDbLine
 10
1720.782946685289
 20
609.9991383308105
 30
0.0
 11
1720.782946685289
 21
609.8967532672822
 31
0.0
  0
LINE
  5
6A53
330
1F
100
AcDbEntity
  8
\M+2BBB2\M+2A755\M+2BD75
100
AcDbLine
 10
1719.829011585289
 20
609.8967532672822
 30
0.0
 11
1719.829011585289
 21
610.3715554672821
 31
0.0
  0
LINE
  5
6A54
330
1F
100
AcDbEntity
  8
\M+2BBB2\M+2A755\M+2BD75
100
AcDbLine
 10
1720.877434685289
 20
609.8967532672822
 30
0.0
 11
1720.877434685289
 21
610.371555467282
 31
0.0
  0
LINE
  5
6A56
330
1F
100
AcDbEntity
  8
\M+2BBB2\M+2A755\M+2BD75
100
AcDbLine
 10
1720.363065635289
 20
609.8967532672822
 30
0.0
 11
1720.363065635289
 21
611.4200769922821
 31
0.0
  0
LINE
  5
6A59
330
1F
100
AcDbEntity
  8
0
 62
     1
100
AcDbLine
 10
1720.877434685289
 20
609.4140072242869
 30
0.0
 11
1720.877434685289
 21
609.4219510672822
 31
0.0
  0
ARC
  5
6A5B
330
1F
100
AcDbEntity
  8
\M+2BBB2\M+2A755\M+2BD75
100
AcDbCircle
 10
1720.989726144266
 20
609.0066147931801
 30
0.0
 40
0.2374011
100
AcDbArc
 50
146.4727780192133
 51
168.1077805425111
  0
ARC
  5
6A5C
330
1F
100
AcDbEntity
  8
\M+2BBB2\M+2A755\M+2BD75
100
AcDbCircle
 10
1720.989726144266
 20
609.0066147931801
 30
0.0
 40
0.3122041
100
AcDbArc
 50
146.4727780192133
 51
168.6322762518054
  0
ARC
  5
6A5D
330
1F
100
AcDbEntity
  8
\M+2BBB2\M+2A755\M+2BD75
100
AcDbCircle
 10
1720.362868785289
 20
609.4219510672822
 30
0.0
 40
0.5145659000000001
100
AcDbArc
 50
326.4727780192134
 51
359.999999999993
  0
ARC
  5
6A5E
330
1F
100
AcDbEntity
  8
\M+2BBB2\M+2A755\M+2BD75
100
AcDbCircle
 10
1720.362868785289
 20
609.4219510672822
 30
0.0
 40
0.4397629000000001
100
AcDbArc
 50
326.4727780192134
 51
359.999999999993
  0
LINE
  5
6A5F
330
1F
100
AcDbEntity
  8
\M+2BBB2\M+2A755\M+2BD75
100
AcDbLine
 10
1720.363065635289
 20
608.3734295422821
 30
0.0
 11
1720.454781838685
 21
608.3782361848264
 31
0.0
  0
LINE
  5
6A60
330
1F
100
AcDbEntity
  8
\M+2BBB2\M+2A755\M+2BD75
100
AcDbLine
 10
1720.857552835289
 20
609.4219510672822
 30
0.0
 11
1720.857552835289
 21
609.8967532672822
 31
0.0
  0
LINE
  5
6A61
330
1F
100
AcDbEntity
  8
\M+2BBB2\M+2A755\M+2BD75
100
AcDbLine
 10
1720.694928760024
 20
608.5990793733956
 30
0.0
 11
1720.757420389346
 21
609.0555363478571
 31
0.0
  0
LINE
  5
6A62
330
1F
100
AcDbEntity
  8
\M+2BBB2\M+2A755\M+2BD75
100
AcDbLine
 10
1720.620817081097
 20
608.6092256956712
 30
0.0
 11
1720.683646750418
 21
609.0681518122716
 31
0.0
  0
ARC
  5
6A63
330
1F
100
AcDbEntity
  8
\M+2BBB2\M+2A755\M+2BD75
100
AcDbCircle
 10
1720.441388805802
 20
608.6337904759177
 30
0.0
 40
0.255905
100
AcDbArc
 50
273.0000000000072
 51
352.2043368761716
  0
ARC
  5
6A64
330
1F
100
AcDbEntity
  8
\M+2BBB2\M+2A755\M+2BD75
100
AcDbCircle
 10
1720.441388805802
 20
608.6337904759177
 30
0.0
 40
0.181102
100
AcDbArc
 50
273.0000000000072
 51
352.2043368761716
  0
LINE
  5
6A67
330
1F
100
AcDbEntity
  8
\M+2BBB2\M+2A755\M+2BD75
100
AcDbLine
 10
1720.363065635289
 20
608.4208703922821
 30
0.0
 11
1720.363065635289
 21
608.3734295422821
 31
0.0
  0
LINE
  5
6A68
330
1F
100
AcDbEntity
  8
\M+2BBB2\M+2A755\M+2BD75
100
AcDbLine
 10
1720.422120635289
 20
608.4452068203252
 30
0.0
 11
1720.422120635289
 21
608.4090593922821
 31
0.0
  0
LINE
  5
6A69
330
1F
100
AcDbEntity
  8
\M+2BBB2\M+2A755\M+2BD75
100
AcDbLine
 10
1720.422120635289
 20
608.4090593922821
 30
0.0
 11
1720.386687635289
 21
608.4090593922821
 31
0.0
  0
LINE
  5
6A6C
330
1F
100
AcDbEntity
  8
\M+2BBB2\M+2A755\M+2BD75
100
AcDbLine
 10
1720.782946685289
 20
609.4724703442808
 30
0.0
 11
1720.579600635289
 21
609.4724703442808
 31
0.0
  0
LINE
  5
6A6D
330
1F
100
AcDbEntity
  8
\M+2BBB2\M+2A755\M+2BD75
100
AcDbLine
 10
1720.746579210453
 20
609.2152858192807
 30
0.0
 11
1720.579600635289
 21
609.2152858192807
 31
0.0
  0
LINE
  5
6A6E
330
1F
100
AcDbEntity
  8
\M+2BBB2\M+2A755\M+2BD75
100
AcDbLine
 10
1720.798104193006
 20
609.3894291717807
 30
0.0
 11
1720.599285635289
 21
609.3894291717807
 31
0.0
  0
LINE
  5
6A6F
330
1F
100
AcDbEntity
  8
\M+2BBB2\M+2A755\M+2BD75
100
AcDbLine
 10
1720.777755382246
 20
609.2983269917807
 30
0.0
 11
1720.599285635289
 21
609.2983269917807
 31
0.0
  0
LINE
  5
6A70
330
1F
100
AcDbEntity
  8
\M+2BBB2\M+2A755\M+2BD75
100
AcDbLine
 10
1720.579600635289
 20
609.2786419917807
 30
0.0
 11
1720.579600635289
 21
609.2152858192807
 31
0.0
  0
LINE
  5
6A71
330
1F
100
AcDbEntity
  8
\M+2BBB2\M+2A755\M+2BD75
100
AcDbLine
 10
1720.599285635289
 20
609.2983269917807
 30
0.0
 11
1720.579600635289
 21
609.2786419917807
 31
0.0
  0
LINE
  5
6A72
330
1F
100
AcDbEntity
  8
\M+2BBB2\M+2A755\M+2BD75
100
AcDbLine
 10
1720.579600635289
 20
609.4724703442808
 30
0.0
 11
1720.579600635289
 21
609.4091141717808
 31
0.0
  0
LINE
  5
6A73
330
1F
100
AcDbEntity
  8
\M+2BBB2\M+2A755\M+2BD75
100
AcDbLine
 10
1720.599285635289
 20
609.3894291717807
 30
0.0
 11
1720.579600635289
 21
609.4091141717808
 31
0.0
  0
LINE
  5
6A74
330
1F
100
AcDbEntity
  8
\M+2BBB2\M+2A755\M+2BD75
100
AcDbLine
 10
1720.579600635289
 20
609.4091141717808
 30
0.0
 11
1720.579600635289
 21
609.2786419917807
 31
0.0
  0
LINE
  5
6A75
330
1F
100
AcDbEntity
  8
\M+2BBB2\M+2A755\M+2BD75
100
AcDbLine
 10
1720.386687635289
 20
608.4090593922821
 30
0.0
 11
1720.441805635289
 21
608.4090593922821
 31
0.0
  0
LINE
  5
6A76
330
1F
100
AcDbEntity
  8
\M+2BBB2\M+2A755\M+2BD75
100
AcDbLine
 10
1720.441805635289
 20
608.4090593922821
 30
0.0
 11
1720.441805635289
 21
608.4529366699146
 31
0.0
  0
LINE
  5
6A77
330
1F
100
AcDbEntity
  8
\M+2BBB2\M+2A755\M+2BD75
100
AcDbLine
 10
1720.363065635289
 20
608.4452068203253
 30
0.0
 11
1720.441805635289
 21
608.4452068203252
 31
0.0
  0
LINE
  5
6A78
330
1F
100
AcDbEntity
  8
\M+2BBB2\M+2A755\M+2BD75
100
AcDbLine
 10
1720.802631685289
 20
609.4243132672821
 30
0.0
 11
1720.802631685289
 21
609.4219510672822
 31
0.0
  0
LINE
  5
6A79
330
1F
100
AcDbEntity
  8
\M+2BBB2\M+2A755\M+2BD75
100
AcDbLine
 10
1720.782946685289
 20
609.7943682037538
 30
0.0
 11
1720.782946685289
 21
609.4243132672821
 31
0.0
  0
LINE
  5
6A7A
330
1F
100
AcDbEntity
  8
\M+2BBB2\M+2A755\M+2BD75
100
AcDbLine
 10
1720.450866952149
 20
608.4529366699146
 30
0.0
 11
1720.441805635289
 21
608.4529366699146
 31
0.0
  0
LINE
  5
6A7B
330
1F
100
AcDbEntity
  8
\M+2BBB2\M+2A755\M+2BD75
100
AcDbLine
 10
1720.374876635289
 20
608.4326813922822
 30
0.0
 11
1720.374876635289
 21
608.4326813922822
 31
0.0
  0
ARC
  5
6A7C
330
1F
100
AcDbEntity
  8
\M+2BBB2\M+2A755\M+2BD75
100
AcDbCircle
 10
1720.374876635289
 20
608.4208703922821
 30
0.0
 40
0.011811
100
AcDbArc
 50
90.00000000000003
 51
180.0
  0
LINE
  5
6A7D
330
1F
100
AcDbEntity
  8
\M+2BBB2\M+2A755\M+2BD75
100
AcDbLine
 10
1720.386687635289
 20
608.4208703922821
 30
0.0
 11
1720.386687635289
 21
608.4090593922821
 31
0.0
  0
ARC
  5
6A7E
330
1F
100
AcDbEntity
  8
\M+2BBB2\M+2A755\M+2BD75
100
AcDbCircle
 10
1720.374876635289
 20
608.4208703922821
 30
0.0
 40
0.011811
100
AcDbArc
 50
0.0
 51
90.00000000000003
  0
LINE
  5
6A7F
330
1F
100
AcDbEntity
  8
\M+2BBB2\M+2A755\M+2BD75
100
AcDbLine
 10
1720.782946685289
 20
609.4243132672821
 30
0.0
 11
1720.802631685289
 21
609.4243132672821
 31
0.0
  0
LINE
  5
6A81
330
1F
100
AcDbEntity
  8
\M+2BBB2\M+2A755\M+2BD75
100
AcDbLine
 10
1719.829011585289
 20
609.4140072242869
 30
0.0
 11
1719.829011585289
 21
609.4219510672822
 31
0.0
  0
ARC
  5
6A82
330
1F
100
AcDbEntity
  8
\M+2BBB2\M+2A755\M+2BD75
100
AcDbCircle
 10
1719.716720126312
 20
609.00661479318
 30
0.0
 40
0.2374011
100
AcDbArc
 50
3.699106790172999
 51
33.52722198078662
  0
ARC
  5
6A83
330
1F
100
AcDbEntity
  8
\M+2BBB2\M+2A755\M+2BD75
100
AcDbCircle
 10
1720.343577485289
 20
609.4219510672822
 30
0.0
 40
0.5145659000000001
100
AcDbArc
 50
180.0000000000069
 51
213.5272219807864
  0
ARC
  5
6A84
330
1F
100
AcDbEntity
  8
\M+2BBB2\M+2A755\M+2BD75
100
AcDbCircle
 10
1720.343577485289
 20
609.4219510672822
 30
0.0
 40
0.4358259000000001
100
AcDbArc
 50
180.0000000000069
 51
213.5272219807864
  0
LINE
  5
6A85
330
1F
100
AcDbEntity
  8
\M+2BBB2\M+2A755\M+2BD75
100
AcDbLine
 10
1720.343380635289
 20
608.3734295422821
 30
0.0
 11
1720.251664431893
 21
608.3782361848264
 31
0.0
  0
LINE
  5
6A86
330
1F
100
AcDbEntity
  8
\M+2BBB2\M+2A755\M+2BD75
100
AcDbLine
 10
1720.34731612649
 20
608.4485231878182
 30
0.0
 11
1720.255599923094
 21
608.4533298303624
 31
0.0
  0
LINE
  5
6A87
330
1F
100
AcDbEntity
  8
\M+2BBB2\M+2A755\M+2BD75
100
AcDbLine
 10
1719.848893435289
 20
609.690211025568
 30
0.0
 11
1719.848893435289
 21
609.8967532672822
 31
0.0
  0
LINE
  5
6A88
330
1F
100
AcDbEntity
  8
\M+2BBB2\M+2A755\M+2BD75
100
AcDbLine
 10
1720.011517510554
 20
608.5990793733955
 30
0.0
 11
1719.953626630599
 21
609.021931140904
 31
0.0
  0
LINE
  5
6A89
330
1F
100
AcDbEntity
  8
\M+2BBB2\M+2A755\M+2BD75
100
AcDbLine
 10
1720.086019250948
 20
608.6092790973674
 30
0.0
 11
1720.02846807565
 21
609.0296495635942
 31
0.0
  0
ARC
  5
6A8A
330
1F
100
AcDbEntity
  8
\M+2BBB2\M+2A755\M+2BD75
100
AcDbCircle
 10
1720.265057464776
 20
608.6337904759177
 30
0.0
 40
0.255905
100
AcDbArc
 50
187.7956631238282
 51
266.9999999999927
  0
ARC
  5
6A8B
330
1F
100
AcDbEntity
  8
\M+2BBB2\M+2A755\M+2BD75
100
AcDbCircle
 10
1720.265057464776
 20
608.6337904759177
 30
0.0
 40
0.1807083
100
AcDbArc
 50
187.7956631238282
 51
266.9999999999927
  0
LINE
  5
6A8C
330
1F
100
AcDbEntity
  8
\M+2BBB2\M+2A755\M+2BD75
100
AcDbLine
 10
1720.414246635289
 20
609.8967532672822
 30
0.0
 11
1720.414246635289
 21
608.4248073922823
 31
0.0
  0
LINE
  5
6A8D
330
1F
100
AcDbEntity
  8
\M+2BBB2\M+2A755\M+2BD75
100
AcDbLine
 10
1720.363065635289
 20
609.8967532672822
 30
0.0
 11
1720.363065635289
 21
609.8416383769733
 31
0.0
  0
LINE
  5
6A8E
330
1F
100
AcDbEntity
  8
\M+2BBB2\M+2A755\M+2BD75
100
AcDbLine
 10
1719.907751585289
 20
609.4243132672821
 30
0.0
 11
1719.907751585289
 21
609.4219510672822
 31
0.0
  0
LINE
  5
6A8F
330
1F
100
AcDbEntity
  8
\M+2BBB2\M+2A755\M+2BD75
100
AcDbLine
 10
1720.363065635289
 20
608.3933113922823
 30
0.0
 11
1720.343380635289
 21
608.3933113922823
 31
0.0
  0
LINE
  5
6A90
330
1F
100
AcDbEntity
  8
\M+2BBB2\M+2A755\M+2BD75
100
AcDbLine
 10
1720.402435635289
 20
608.4129963922822
 30
0.0
 11
1720.363065635289
 21
608.4129963922822
 31
0.0
  0
ARC
  5
6A91
330
1F
100
AcDbEntity
  8
\M+2BBB2\M+2A755\M+2BD75
100
AcDbCircle
 10
1720.402435635289
 20
608.4248073922823
 30
0.0
 40
0.011811
100
AcDbArc
 50
270.0
 51
0.0000000000008791
  0
LINE
  5
6A92
330
1F
100
AcDbEntity
  8
\M+2BBB2\M+2A755\M+2BD75
100
AcDbLine
 10
1720.343380635289
 20
608.4487294381724
 30
0.0
 11
1720.414246635289
 21
608.4487294381724
 31
0.0
  0
LINE
  5
6A93
330
1F
100
AcDbEntity
  8
\M+2BBB2\M+2A755\M+2BD75
100
AcDbLine
 10
1719.848893435289
 20
609.4219510672822
 30
0.0
 11
1719.829011585289
 21
609.4219510672822
 31
0.0
  0
LINE
  5
6A94
330
1F
100
AcDbEntity
  8
\M+2BBB2\M+2A755\M+2BD75
100
AcDbLine
 10
1719.848893435289
 20
609.4219510672822
 30
0.0
 11
1719.848893435289
 21
609.690211025568
 31
0.0
  0
LINE
  5
6A95
330
1F
100
AcDbEntity
  8
\M+2BBB2\M+2A755\M+2BD75
100
AcDbLine
 10
1719.907751585289
 20
609.4243132672821
 30
0.0
 11
1719.927436585289
 21
609.4243132672821
 31
0.0
  0
LINE
  5
6A96
330
1F
100
AcDbEntity
  8
\M+2BBB2\M+2A755\M+2BD75
100
AcDbLine
 10
1719.927436585289
 20
609.4243132672821
 30
0.0
 11
1719.927436585289
 21
609.6940295367801
 31
0.0
  0
LINE
  5
6A97
330
1F
100
AcDbEntity
  8
\M+2BBB2\M+2A755\M+2BD75
100
AcDbLine
 10
1720.343380635289
 20
608.3933113922823
 30
0.0
 11
1720.343380635289
 21
608.3734295422821
 31
0.0
  0
LINE
  5
6A98
330
1F
100
AcDbEntity
  8
\M+2BBB2\M+2A755\M+2BD75
100
AcDbLine
 10
1720.363065635289
 20
608.4129963922822
 30
0.0
 11
1720.363065635289
 21
608.3933113922823
 31
0.0
  0
LINE
  5
6A99
330
1F
100
AcDbEntity
  8
\M+2BBB2\M+2A755\M+2BD75
100
AcDbLine
 10
1720.363065635289
 20
608.4129963922822
 30
0.0
 11
1720.363065635289
 21
608.4487294381724
 31
0.0
  0
LINE
  5
6A9A
330
1F
100
AcDbEntity
  8
\M+2BBB2\M+2A755\M+2BD75
100
AcDbLine
 10
1720.394561635289
 20
608.4129963922822
 30
0.0
 11
1720.394561635289
 21
608.4487294381724
 31
0.0
  0
ARC
  5
6A9B
330
1F
100
AcDbEntity
  8
\M+2BBB2\M+2A755\M+2BD75
100
AcDbCircle
 10
1719.628029705545
 20
608.9857582540834
 30
0.0
 40
0.4028366111751481
100
AcDbArc
 50
6.255114689527561
 51
29.02808386114374
  0
LINE
  5
6A9C
330
1F
100
AcDbEntity
  8
\M+2BBB2\M+2A755\M+2BD75
100
AcDbLine
 10
1720.126845635289
 20
609.4724703442808
 30
0.0
 11
1719.927436585289
 21
609.4724703442808
 31
0.0
  0
LINE
  5
6A9D
330
1F
100
AcDbEntity
  8
\M+2BBB2\M+2A755\M+2BD75
100
AcDbLine
 10
1720.126845635289
 20
609.2152858192808
 30
0.0
 11
1719.959867060125
 21
609.2152858192808
 31
0.0
  0
LINE
  5
6A9E
330
1F
100
AcDbEntity
  8
\M+2BBB2\M+2A755\M+2BD75
100
AcDbLine
 10
1720.126845635289
 20
609.2152858192808
 30
0.0
 11
1720.126845635289
 21
609.2789175817808
 31
0.0
  0
LINE
  5
6A9F
330
1F
100
AcDbEntity
  8
\M+2BBB2\M+2A755\M+2BD75
100
AcDbLine
 10
1720.107160635289
 20
609.3891535817808
 30
0.0
 11
1719.908987402503
 21
609.3891535817808
 31
0.0
  0
LINE
  5
6AA0
330
1F
100
AcDbEntity
  8
\M+2BBB2\M+2A755\M+2BD75
100
AcDbLine
 10
1720.107160635289
 20
609.2986025817809
 30
0.0
 11
1719.925571066396
 21
609.2986025817809
 31
0.0
  0
LINE
  5
6AA1
330
1F
100
AcDbEntity
  8
\M+2BBB2\M+2A755\M+2BD75
100
AcDbLine
 10
1720.126845635289
 20
609.4724703442808
 30
0.0
 11
1720.126845635289
 21
609.4088385817808
 31
0.0
  0
LINE
  5
6AA2
330
1F
100
AcDbEntity
  8
\M+2BBB2\M+2A755\M+2BD75
100
AcDbLine
 10
1720.126845635289
 20
609.4088385817808
 30
0.0
 11
1720.126845635289
 21
609.2789175817808
 31
0.0
  0
LINE
  5
6AA3
330
1F
100
AcDbEntity
  8
\M+2BBB2\M+2A755\M+2BD75
100
AcDbLine
 10
1720.126845635289
 20
609.4088385817808
 30
0.0
 11
1720.107160635289
 21
609.3891535817808
 31
0.0
  0
LINE
  5
6AA4
330
1F
100
AcDbEntity
  8
\M+2BBB2\M+2A755\M+2BD75
100
AcDbLine
 10
1720.107160635289
 20
609.2986025817809
 30
0.0
 11
1720.126845635289
 21
609.2789175817808
 31
0.0
  0
LINE
  5
6AA5
330
1F
100
AcDbEntity
  8
\M+2BBB2\M+2A755\M+2BD75
100
AcDbLine
 10
1720.107160635289
 20
609.3891535817808
 30
0.0
 11
1720.107160635289
 21
609.2986025817809
 31
0.0
  0
LINE
  5
6AA6
330
1F
100
AcDbEntity
  8
\M+2BBB2\M+2A755\M+2BD75
 48
0.4
100
AcDbLine
 10
1720.857552835289
 20
609.4219510672822
 30
0.0
 11
1720.877434685289
 21
609.4219510672822
 31
0.0
  0
LINE
  5
6AA7
330
1F
100
AcDbEntity
  8
\M+2BBB2\M+2A755\M+2BD75
100
AcDbLine
 10
1719.927436585289
 20
609.6940295367801
 30
0.0
 11
1719.927436585289
 21
609.8967532672822
 31
0.0
  0
LINE
  5
6AA9
330
1F
100
AcDbEntity
  8
\M+2BBB2\M+2A755\M+2BD75
100
AcDbLine
 10
1720.782946685289
 20
609.7943682037538
 30
0.0
 11
1720.782946685289
 21
609.8967532672822
 31
0.0
  0
LINE
  5
6AAB
330
1F
100
AcDbEntity
  8
\M+2BBB2\M+2A755\M+2BD75
100
AcDbLine
 10
1719.829011585289
 20
609.8967532672822
 30
0.0
 11
1719.829011585289
 21
609.4219510672822
 31
0.0
  0
LINE
  5
6AAC
330
1F
100
AcDbEntity
  8
\M+2BBB2\M+2A755\M+2BD75
100
AcDbLine
 10
1720.877434685289
 20
609.8967532672822
 30
0.0
 11
1720.877434685289
 21
609.4219510672822
 31
0.0
  0
LINE
  5
6AAD
330
1F
100
AcDbEntity
  8
\M+2BBB2\M+2A755\M+2BD75
100
AcDbLine
 10
1720.363065635289
 20
609.8967532672822
 30
0.0
 11
1720.363065635289
 21
608.3734295422821
 31
0.0
  0
HATCH
  5
6B0B
330
1F
100
AcDbEntity
  8
\M+2A4A4\M+2A4DF\M+2BD75
 48
0.4
100
AcDbHatch
 10
0.0
 20
0.0
 30
0.0
210
0.0
220
0.0
230
1.0
  2
ANSI31
 70
     0
 71
     0
 91
        2
 92
        7
 72
     1
 73
     1
 93
       42
 10
1719.927436585289
 20
609.8967532672822
 42
0.0
 10
1719.927436585289
 20
610.0994769977842
 42
0.0
 10
1719.927436585289
 20
610.3691932672822
 42
0.0
 10
1719.907751585289
 20
610.3691932672822
 42
0.0
 10
1719.907751585289
 20
610.3715554672821
 42
-0.1473426893452375
 10
1719.980262775139
 20
610.612276543424
 42
0.099694151592672
 10
1720.02846807565
 20
610.7638569709699
 42
0.0
 10
1720.086019250949
 20
611.1842274371968
 42
-0.3600435291810844
 10
1720.255599923095
 20
611.3401767042018
 42
0.0
 10
1720.343380635289
 20
611.3447770963919
 42
0.0
 10
1720.363065635289
 20
611.3447770963919
 42
0.0
 10
1720.363065635289
 20
611.4001951422821
 42
0.0
 10
1720.343380635289
 20
611.4001951422821
 42
0.0
 10
1720.343380635289
 20
611.4200769922822
 42
0.0
 10
1720.251664431894
 20
611.415270349738
 42
0.3600435291810728
 10
1720.011517510554
 20
611.1944271611688
 42
0.0
 10
1719.953626630599
 20
610.7715753936605
 42
-0.1308895847146388
 10
1719.914623261109
 20
610.6557672527541
 42
0.1473426893452268
 10
1719.829011585289
 20
610.3715554672821
 42
0.0
 10
1719.848893435289
 20
610.3715554672821
 42
0.0
 10
1719.848893435289
 20
610.1032955089963
 42
0.0
 10
1719.848893435289
 20
609.8967532672822
 42
0.0
 10
1719.848893435289
 20
609.690211025568
 42
0.0
 10
1719.848893435289
 20
609.4219510672822
 42
0.0
 10
1719.829011585289
 20
609.4219510672822
 42
0.1473426893452275
 10
1719.914623261109
 20
609.1377392818102
 42
-0.1308895847147031
 10
1719.953626630599
 20
609.0219311409038
 42
0.0
 10
1720.011517510554
 20
608.5990793733955
 42
0.3600435291810752
 10
1720.251664431894
 20
608.3782361848264
 42
0.0
 10
1720.343380635289
 20
608.3734295422821
 42
0.0
 10
1720.343380635289
 20
608.3933113922823
 42
0.0
 10
1720.363065635289
 20
608.3933113922823
 42
0.0
 10
1720.363065635289
 20
608.4487294381724
 42
0.0
 10
1720.343380635289
 20
608.4487294381724
 42
0.0
 10
1720.255599923095
 20
608.4533298303624
 42
-0.3600435291810626
 10
1720.086019250949
 20
608.6092790973674
 42
0.0
 10
1720.02846807565
 20
609.0296495635942
 42
0.0996941515927667
 10
1719.980262775139
 20
609.1812299911403
 42
-0.147342689345241
 10
1719.907751585289
 20
609.4219510672822
 42
0.0
 10
1719.907751585289
 20
609.4243132672821
 42
0.0
 10
1719.927436585289
 20
609.4243132672821
 42
0.0
 10
1719.927436585289
 20
609.6940295367801
 42
0.0
 97
        0
 92
        7
 72
     1
 73
     1
 93
       42
 10
1720.857552835289
 20
610.3715554672821
 42
0.0
 10
1720.877434685289
 20
610.371555467282
 42
0.1473426893452296
 10
1720.791823009469
 20
610.6557672527541
 42
-0.0946819254212019
 10
1720.757420389346
 20
610.7379701867072
 42
0.0
 10
1720.694928760024
 20
611.1944271611687
 42
0.3600435291810252
 10
1720.454781838685
 20
611.415270349738
 42
0.0
 10
1720.363065635289
 20
611.4200769922822
 42
0.0
 10
1720.363065635289
 20
611.3805101422821
 42
0.0
 10
1720.386687635289
 20
611.3805101422821
 42
0.0
 10
1720.386687635289
 20
611.3844471422821
 42
0.0
 10
1720.441805635289
 20
611.3844471422821
 42
0.0
 10
1720.441805635289
 20
611.3405698646497
 42
0.0
 10
1720.450866952149
 20
611.3405698646497
 42
-0.3600435291812376
 10
1720.620817081097
 20
611.1842808388931
 42
0.0
 10
1720.683646750418
 20
610.7253547222927
 42
0.096991490194009
 10
1720.729465471141
 20
610.6144510788904
 42
-0.1473426893452245
 10
1720.802631685289
 20
610.371555467282
 42
0.0
 10
1720.802631685289
 20
610.3691932672822
 42
0.0
 10
1720.782946685289
 20
610.3691932672822
 42
0.0
 10
1720.782946685289
 20
609.9991383308105
 42
0.0
 10
1720.782946685289
 20
609.8967532672822
 42
0.0
 10
1720.782946685289
 20
609.7943682037538
 42
0.0
 10
1720.782946685289
 20
609.4243132672821
 42
0.0
 10
1720.802631685289
 20
609.4243132672821
 42
0.0
 10
1720.802631685289
 20
609.4219510672814
 42
-0.147342689344741
 10
1720.729465471141
 20
609.1790554556738
 42
0.0969914901940142
 10
1720.683646750418
 20
609.0681518122716
 42
0.0
 10
1720.620817081097
 20
608.6092256956712
 42
-0.3600435291812511
 10
1720.450866952149
 20
608.4529366699146
 42
0.0
 10
1720.441805635289
 20
608.4529366699146
 42
0.0
 10
1720.441805635289
 20
608.4090593922821
 42
0.0
 10
1720.386687635289
 20
608.4090593922821
 42
0.0
 10
1720.386687635289
 20
608.4129963922822
 42
0.0
 10
1720.363065635289
 20
608.4129963922822
 42
0.0
 10
1720.363065635289
 20
608.3734295422821
 42
0.0
 10
1720.454781838685
 20
608.3782361848264
 42
0.3600435291810186
 10
1720.694928760024
 20
608.5990793733956
 42
0.0
 10
1720.757420389346
 20
609.0555363478571
 42
-0.0946819254212087
 10
1720.791823009469
 20
609.1377392818102
 42
0.1473426893452297
 10
1720.877434685289
 20
609.4219510672822
 42
0.0
 10
1720.857552835289
 20
609.4219510672822
 42
0.0
 10
1720.857552835289
 20
609.8967532672822
 42
0.0
 97
        0
 75
     0
 76
     1
 52
0.0
 41
0.007874
 77
     0
 78
     1
 53
45.0
 43
1699.183935244336
 44
596.0191955161844
 45
-0.0176776341743246
 46
0.0176776341743246
 79
     0
 47
0.2059079041067916
 98
        2
 10
1719.912305041481
 20
609.7971302150409
 10
1720.82084580246
 20
610.0403280303839
  0
HATCH
  5
6B7A
330
1F
100
AcDbEntity
  8
\M+2A4A4\M+2A4DF\M+2BD75
 48
0.4
100
AcDbHatch
 10
0.0
 20
0.0
 30
0.0
210
0.0
220
0.0
230
1.0
  2
ANSI31
 70
     0
 71
     0
 91
        2
 92
        7
 72
     1
 73
     1
 93
        8
 10
1720.126845635289
 20
610.3846679527834
 42
0.0
 10
1720.107160635289
 20
610.4043529527834
 42
0.0
 10
1719.908987402503
 20
610.4043529527834
 42
0.0188334388002565
 10
1719.907751585289
 20
610.3715554672821
 42
0.0
 10
1719.907751585289
 20
610.3691932672822
 42
0.0
 10
1719.927436585289
 20
610.3691932672822
 42
0.0
 10
1719.927436585289
 20
610.3210361902835
 42
0.0
 10
1720.126845635289
 20
610.3210361902835
 42
0.0
 97
        0
 92
        7
 72
     1
 73
     1
 93
        5
 10
1720.126845635289
 20
610.5782207152834
 42
0.0
 10
1719.959867060125
 20
610.5782207152834
 42
0.0518219212868245
 10
1719.925571066396
 20
610.4949039527834
 42
0.0
 10
1720.107160635289
 20
610.4949039527834
 42
0.0
 10
1720.126845635289
 20
610.5145889527834
 42
0.0
 97
        0
 75
     0
 76
     1
 52
0.0
 41
0.007874
 77
     0
 78
     1
 53
45.0
 43
1699.183935244336
 44
596.0191955161844
 45
-0.0176776341743246
 46
0.0176776341743246
 79
     0
 47
0.0482619391702879
 98
        2
 10
1720.088048464313
 20
610.3631735732066
 10
1720.088048464313
 20
610.5227796662666
  0
HATCH
  5
6B8B
330
1F
100
AcDbEntity
  8
\M+2A4A4\M+2A4DF\M+2BD75
 48
0.4
100
AcDbHatch
 10
0.0
 20
0.0
 30
0.0
210
0.0
220
0.0
230
1.0
  2
ANSI31
 70
     0
 71
     0
 91
        2
 92
        7
 72
     1
 73
     1
 93
        5
 10
1720.126845635289
 20
609.2789175817808
 42
0.0
 10
1720.107160635289
 20
609.2986025817809
 42
0.0
 10
1719.925571066396
 20
609.2986025817809
 42
0.0518219212868245
 10
1719.959867060125
 20
609.2152858192808
 42
0.0
 10
1720.126845635289
 20
609.2152858192808
 42
0.0
 97
        0
 92
        7
 72
     1
 73
     1
 93
        8
 10
1720.126845635289
 20
609.4724703442808
 42
0.0
 10
1719.927436585289
 20
609.4724703442808
 42
0.0
 10
1719.927436585289
 20
609.4243132672821
 42
0.0
 10
1719.907751585289
 20
609.4243132672821
 42
0.0
 10
1719.907751585289
 20
609.4219510672822
 42
0.0188334388002719
 10
1719.908987402503
 20
609.3891535817808
 42
0.0
 10
1720.107160635289
 20
609.3891535817808
 42
0.0
 10
1720.126845635289
 20
609.4088385817808
 42
0.0
 97
        0
 75
     0
 76
     1
 52
0.0
 41
0.007874
 77
     0
 78
     1
 53
45.0
 43
1699.183935244336
 44
596.0191955161844
 45
-0.0176776341743246
 46
0.0176776341743246
 79
     0
 47
0.046739012570217
 98
        2
 10
1720.084452169947
 20
609.26198257728
 10
1720.054990833972
 20
609.4275929305756
  0
LINE
  5
6C4E
330
1F
100
AcDbEntity
  8
\M+2A4A4\M+2A4DF\M+2BD75
 48
0.4
100
AcDbLine
 10
1720.798104193006
 20
609.3894291717807
 30
0.0
 11
1720.801409103725
 21
609.3891822204548
 31
0.0
  0
LINE
  5
6C4F
330
1F
100
AcDbEntity
  8
\M+2A4A4\M+2A4DF\M+2BD75
 48
0.4
100
AcDbLine
 10
1720.777755382246
 20
609.2983269917807
 30
0.0
 11
1720.784897808192
 21
609.2983269917807
 31
0.0
  0
LINE
  5
6C50
330
1F
100
AcDbEntity
  8
\M+2A4A4\M+2A4DF\M+2BD75
 48
0.4
100
AcDbLine
 10
1720.746579210453
 20
609.2152858192807
 30
0.0
 11
1720.751045141453
 21
609.2152858192807
 31
0.0
  0
HATCH
  5
6C63
330
1F
100
AcDbEntity
  8
\M+2A4A4\M+2A4DF\M+2BD75
 48
0.4
100
AcDbHatch
 10
0.0
 20
0.0
 30
0.0
210
0.0
220
0.0
230
1.0
  2
ANSI31
 70
     0
 71
     0
 91
        2
 92
        7
 72
     1
 73
     1
 93
        9
 10
1720.802631685289
 20
609.4219510672822
 42
0.0
 10
1720.802631685289
 20
609.4243132672821
 42
0.0
 10
1720.782946685289
 20
609.4243132672821
 42
0.0
 10
1720.782946685289
 20
609.4724703442807
 42
0.0
 10
1720.579600635289
 20
609.4724703442808
 42
0.0
 10
1720.579600635289
 20
609.4091141717807
 42
0.0
 10
1720.599285635289
 20
609.3894291717807
 42
0.0
 10
1720.798104193006
 20
609.3894291717807
 42
0.0
 10
1720.801409103725
 20
609.3891822204548
 42
0.0186481448917405
 97
        0
 92
        7
 72
     1
 73
     1
 93
        7
 10
1720.784897808192
 20
609.2983269917807
 42
0.0
 10
1720.777755382246
 20
609.2983269917807
 42
0.0
 10
1720.599285635289
 20
609.2983269917807
 42
0.0
 10
1720.579600635289
 20
609.2786419917807
 42
0.0
 10
1720.579600635289
 20
609.2152858192807
 42
0.0
 10
1720.746579210453
 20
609.2152858192807
 42
0.0
 10
1720.751045141453
 20
609.2152858192807
 42
0.0511131038350303
 97
        0
 75
     0
 76
     1
 52
0.0
 41
0.007874
 77
     0
 78
     1
 53
45.0
 43
1699.183935244336
 44
596.0191955161844
 45
-0.0176776341743246
 46
0.0176776341743246
 79
     0
 47
0.0463208509851572
 98
        2
 10
1720.701896377671
 20
609.4114904141608
 10
1720.69277207119
 20
609.2510090508767
  0
LINE
  5
6C64
330
1F
100
AcDbEntity
  8
\M+2A4A4\M+2A4DF\M+2BD75
 48
0.4
100
AcDbLine
 10
1720.777755382246
 20
610.4951795427836
 30
0.0
 11
1720.784897808192
 21
610.4951795427836
 31
0.0
  0
LINE
  5
6C65
330
1F
100
AcDbEntity
  8
\M+2A4A4\M+2A4DF\M+2BD75
 48
0.4
100
AcDbLine
 10
1720.798104193006
 20
610.4040773627835
 30
0.0
 11
1720.801482470975
 21
610.4040773627835
 31
0.0
  0
LINE
  5
6C69
330
1F
100
AcDbEntity
  8
\M+2A4A4\M+2A4DF\M+2BD75
 48
0.4
100
AcDbLine
 10
1720.746579210453
 20
610.5782207152835
 30
0.0
 11
1720.751045141453
 21
610.5782207152835
 31
0.0
  0
HATCH
  5
6C7C
330
1F
100
AcDbEntity
  8
\M+2A4A4\M+2A4DF\M+2BD75
 48
0.4
100
AcDbHatch
 10
0.0
 20
0.0
 30
0.0
210
0.0
220
0.0
230
1.0
  2
ANSI31
 70
     0
 71
     0
 91
        2
 92
        7
 72
     1
 73
     1
 93
        7
 10
1720.751045141453
 20
610.5782207152835
 42
0.0
 10
1720.746579210453
 20
610.5782207152835
 42
0.0
 10
1720.579600635289
 20
610.5782207152835
 42
0.0
 10
1720.579600635289
 20
610.5148645427836
 42
0.0
 10
1720.599285635289
 20
610.4951795427836
 42
0.0
 10
1720.777755382246
 20
610.4951795427836
 42
0.0
 10
1720.784897808192
 20
610.4951795427836
 42
0.0511131038350337
 97
        0
 92
        7
 72
     1
 73
     1
 93
        9
 10
1720.782946685289
 20
610.3691932672822
 42
0.0
 10
1720.802631685289
 20
610.3691932672822
 42
0.0
 10
1720.802631685289
 20
610.371555467282
 42
0.0185073189729339
 10
1720.801427486638
 20
610.4040773627835
 42
0.0
 10
1720.798104193006
 20
610.4040773627835
 42
0.0
 10
1720.599285635289
 20
610.4040773627835
 42
0.0
 10
1720.579600635289
 20
610.3843923627835
 42
0.0
 10
1720.579600635289
 20
610.3210361902835
 42
0.0
 10
1720.782946685289
 20
610.3210361902836
 42
0.0
 97
        0
 75
     0
 76
     1
 52
0.0
 41
0.007874
 77
     0
 78
     1
 53
45.0
 43
1699.183935244336
 44
596.0191955161844
 45
-0.0176776341743246
 46
0.0176776341743246
 79
     0
 47
0.0395883549635384
 98
        2
 10
1720.658091781566
 20
610.5599320796552
 10
1720.665889879281
 20
610.3557563040935
  0
LINE
  5
6C7D
330
1F
100
AcDbEntity
  8
\M+2A4A4\M+2A4DF\M+2BD75
 48
0.4
100
AcDbLine
 10
1720.599285635289
 20
610.4951795427836
 30
0.0
 11
1720.599285635289
 21
610.4040773627835
 31
0.0
  0
LINE
  5
6C7E
330
1F
100
AcDbEntity
  8
\M+2A4A4\M+2A4DF\M+2BD75
 48
0.4
100
AcDbLine
 10
1720.599285635289
 20
609.3894291717807
 30
0.0
 11
1720.599285635289
 21
609.2983269917807
 31
0.0
  0
LEADER
  5
6F4E
330
1F
100
AcDbEntity
  8
\M+2BBB2\M+2A755\M+2BD75
100
AcDbLeader
  3
ISO-25
 76
     2
 10
1729.774768673919
 20
619.7234511421264
 30
0.0
 10
1730.856642378017
 20
621.2116084311126
 30
0.0
1001
ACAD
1000
DSTYLE
1002
{
1070
    41
1040
3.5
1070
   140
1040
4.0
1002
}
  0
TEXT
  5
6F4F
330
1F
100
AcDbEntity
  8
DIM
100
AcDbText
 10
1730.775412569697
 20
621.3467122952854
 30
0.0
 40
0.1917449218359004
  1
.015" RECESS
100
AcDbText
1001
ACAD
1000
ACAD_MTEXT_DEFINED_HEIGHT_BEGIN
1070
    46
1040
0.0
1000
ACAD_MTEXT_DEFINED_HEIGHT_END
1000
MTEXTBEGIN
1070
    73
1070
     1
1070
    44
1040
1.0
1070
    74
1070
     0
1000
MTEXTEND
  0
DIMENSION
  5
6F51
330
1F
100
AcDbEntity
  8
DIM
100
AcDbDimension
  2
*D28
 10
1719.29716084495
 20
617.7353158467513
 30
0.0
 11
1719.29716084495
 21
619.1565135014217
 31
0.0
 70
   160
 71
     5
 42
3.031414212750064
  3
Standard
100
AcDbAlignedDimension
 13
1723.022783412434
 23
620.7667300595014
 33
0.0
 14
1723.022783412434
 24
617.7353158467513
 34
0.0
 50
90.0
100
AcDbRotatedDimension
  0
DIMENSION
  5
6FD3
330
1F
100
AcDbEntity
  8
DIM
100
AcDbDimension
  2
*D29
 10
1730.562148988919
 20
621.9953394805311
 30
0.0
 11
1729.789193636868
 21
621.9953394805311
 31
0.0
 70
   160
 71
     5
 42
1.574760630000128
  3
Standard
100
AcDbAlignedDimension
 13
1728.987388358919
 23
619.8081327807861
 33
0.0
 14
1730.562148988919
 24
619.8081327807861
 34
0.0
100
AcDbRotatedDimension
  0
DIMENSION
  5
6FE9
330
1F
100
AcDbEntity
  8
DIM
100
AcDbDimension
  2
*D30
 10
1726.838024248841
 20
616.3108579496396
 30
0.0
 11
1725.544743485
 21
616.3108579496396
 31
0.0
 70
   160
  1
{\fTahoma|b0|i0|c0|p32;.583 [}14.8{\fTahoma|b0|i0|c0|p32;]}
 71
     5
 42
0.5823088747499697
  3
Standard
100
AcDbAlignedDimension
 13
1726.255715374092
 23
617.8858239137337
 33
0.0
 14
1726.838024248841
 24
618.3283480961086
 34
0.0
100
AcDbRotatedDimension
  0
DIMENSION
  5
70ED
330
1F
100
AcDbEntity
  8
DIM
100
AcDbDimension
  2
*D31
 10
1730.35316734832
 20
615.2387140906297
 30
0.0
 11
1729.452998663789
 21
615.2387140906297
 31
0.0
 70
   160
 71
     5
 42
1.5747606299999
  3
Standard
100
AcDbAlignedDimension
 13
1728.77840671832
 23
613.3768120067213
 33
0.0
 14
1730.35316734832
 24
613.3768120067212
 34
0.0
100
AcDbRotatedDimension
  0
DIMENSION
  5
7111
330
1F
100
AcDbEntity
  8
DIM
100
AcDbDimension
  2
*D32
 10
1736.494806944624
 20
614.0991951909366
 30
0.0
 11
1735.126302545465
 21
614.5624754271129
 31
0.0
 70
    36
 71
     5
 42
0.236214094500383
  3
Standard
100
AcDbRadialDimension
 15
1736.346120734184
 25
614.2827422128833
 35
0.0
 40
0.0
  0
ARC
  5
7141
330
1F
100
AcDbEntity
  8
\M+2BBB2\M+2A755\M+2BD75
 48
0.4
100
AcDbCircle
 10
1733.910018279924
 20
613.8947754669506
 30
0.0
 40
1.165248153827372
100
AcDbArc
 50
114.2757671737112
 51
155.9739333800971
  0
LEADER
  5
7143
330
1F
100
AcDbEntity
  8
\M+2BBB2\M+2A755\M+2BD75
100
AcDbLeader
  3
ISO-25
 76
     2
 10
1736.753342109117
 20
613.2123274320928
 30
0.0
 10
1737.185604423255
 20
614.7004847210789
 30
0.0
1001
ACAD
1000
DSTYLE
1002
{
1070
    41
1040
3.5
1070
   140
1040
4.0
1002
}
  0
TEXT
  5
7144
330
1F
100
AcDbEntity
  8
DIM
100
AcDbText
 10
1736.660850172988
 20
614.8092058435826
 30
0.0
 40
0.1917449218359004
  1
.015" RECESS
100
AcDbText
1001
ACAD
1000
ACAD_MTEXT_DEFINED_HEIGHT_BEGIN
1070
    46
1040
0.0
1000
ACAD_MTEXT_DEFINED_HEIGHT_END
1000
MTEXTBEGIN
1070
    73
1070
     1
1070
    44
1040
1.0
1070
    74
1070
     0
1000
MTEXTEND
  0
DIMENSION
  5
7146
330
1F
100
AcDbEntity
  8
DIM
100
AcDbDimension
  2
*D33
 10
1718.919649126258
 20
608.3734295422821
 30
0.0
 11
1718.919649126257
 21
609.7989956109158
 31
0.0
 70
   160
  1
{\fTahoma|b0|i0|c0|p32;3.03 [}77{\fTahoma|b0|i0|c0|p32;.0]}
 71
     5
 42
3.046647450000136
  3
Standard
100
AcDbAlignedDimension
 13
1720.343380635289
 23
611.4200769922822
 33
0.0
 14
1720.343380635289
 24
608.3734295422821
 34
0.0
 50
90.0
100
AcDbRotatedDimension
  0
DIMENSION
  5
715C
330
1F
100
AcDbEntity
  8
DIM
100
AcDbDimension
  2
*D34
 10
1726.255715374092
 20
621.0117637418091
 30
0.0
 11
1727.573124905415
 21
621.0117637418091
 31
0.0
 70
   160
  1
{\fTahoma|b0|i0|c0|p32;.283 [}7.20{\fTahoma|b0|i0|c0|p32;]}
 71
     5
 42
0.2859639949999746
  3
Standard
100
AcDbAlignedDimension
 13
1726.541679369092
 23
619.9290830638878
 33
0.0
 14
1726.255715374092
 24
619.9290830638878
 34
0.0
100
AcDbRotatedDimension
  0
DIMENSION
  5
71D7
330
1F
100
AcDbEntity
  8
DIM
100
AcDbDimension
  2
*D35
 10
1732.808189109409
 20
614.7044649453312
 30
0.0
 11
1731.964836267937
 21
614.7044649453312
 31
0.0
 70
   160
  1
{\fTahoma|b0|i0|c0|p32;.217 [}5.5{\fTahoma|b0|i0|c0|p32;]}
 71
     5
 42
0.2154523249998874
  3
Standard
100
AcDbAlignedDimension
 13
1733.023641434409
 23
613.497762289823
 33
0.0
 14
1732.808189109409
 24
613.497762289823
 34
0.0
100
AcDbRotatedDimension
  0
DIMENSION
  5
7207
330
1F
100
AcDbEntity
  8
DIM
100
AcDbDimension
  2
*D36
 10
1720.877434685289
 20
607.7837781450214
 30
0.0
 11
1719.060718547456
 21
607.7837781450214
 31
0.0
 70
   160
  1
{\fTahoma|b0|i0|c0|p32;1.047 [}26.6{\fTahoma|b0|i0|c0|p32;]}
 71
     5
 42
1.048423099999808
  3
Standard
100
AcDbAlignedDimension
 13
1719.829011585289
 23
609.4597236242602
 33
0.0
 14
1720.877434685289
 24
609.4597236242602
 34
0.0
100
AcDbRotatedDimension
  0
LWPOLYLINE
  5
725C
330
1F
100
AcDbEntity
  8
\M+2A4A4\M+2A4DF\M+2BD75
 48
0.4
100
AcDbPolyline
 90
        4
 70
     1
 43
0.0
 10
1718.365177758525
 20
611.6253087668042
 10
1721.733881296303
 20
611.6253087668042
 10
1721.733881296303
 20
607.2464465460797
 10
1718.365177758525
 20
607.2464465460797
  0
DIMENSION
  5
725E
330
1F
100
AcDbEntity
  8
DIM
100
AcDbDimension
  2
*D37
 10
1730.739309559794
 20
616.9143149515718
 30
0.0
 11
1729.700156312448
 21
616.9143149515718
 31
0.0
 70
   160
 71
     5
 42
1.929081771750134
  3
Standard
100
AcDbAlignedDimension
 13
1728.810227788044
 23
619.2510229531265
 33
0.0
 14
1730.739309559794
 24
619.2510229531263
 34
0.0
100
AcDbRotatedDimension
  0
DIMENSION
  5
7274
330
1F
100
AcDbEntity
  8
DIM
100
AcDbDimension
  2
*D38
 10
1730.530327919195
 20
615.9811910918923
 30
0.0
 11
1729.569080243651
 21
615.9811910918923
 31
0.0
 70
   160
 71
     5
 42
1.929081771749906
  3
Standard
100
AcDbAlignedDimension
 13
1728.601246147445
 23
612.8197021790616
 33
0.0
 14
1730.530327919195
 24
612.8197021790615
 34
0.0
100
AcDbRotatedDimension
  0
ARC
  5
72ED
330
1F
100
AcDbEntity
  8
\M+2BBB2\M+2A755\M+2BD75
 48
0.4
100
AcDbCircle
 10
1727.079167898308
 20
620.9509964817243
 30
0.0
 40
0.8330758805788445
100
AcDbArc
 50
119.120493776545
 51
183.7553034974333
  0
DIMENSION
  5
72EE
330
1F
100
AcDbEntity
  8
DIM
100
AcDbDimension
  2
*D39
 10
1723.987324298309
 20
616.9078746629126
 30
0.0
 11
1721.142409193226
 21
616.9078746629126
 31
0.0
 70
   160
 71
     5
 42
1.929081771749906
  3
Standard
100
AcDbAlignedDimension
 13
1722.058242526559
 23
619.2510229531265
 33
0.0
 14
1723.987324298309
 24
619.2510229531263
 34
0.0
100
AcDbRotatedDimension
  0
DIMENSION
  5
79C1
330
1F
100
AcDbEntity
  8
DIM
 48
0.4
100
AcDbDimension
  2
*D40
 10
1722.539721844669
 20
619.6826484326805
 30
0.0
 11
1720.657524383775
 21
621.8929309097128
 31
0.0
 70
   163
 71
     5
 42
0.2558986023748275
  3
Standard
100
AcDbDiametricDimension
 15
1722.443135091034
 25
619.9196190927203
 35
0.0
 40
0.0
  0
DIMENSION
  5
79CD
330
1F
100
AcDbEntity
  8
DIM
 48
0.4
100
AcDbDimension
  2
*D41
 10
1722.515954432847
 20
619.7633461922699
 30
0.0
 11
1720.407382538893
 21
621.5001384536371
 31
0.0
 70
   163
 71
     5
 42
0.0900982449998083
  3
Standard
100
AcDbDiametricDimension
 15
1722.466902502857
 25
619.8389213331315
 35
0.0
 40
0.0
1001
ACAD
1000
DSTYLE
1002
{
1070
   288
1070
     1
1002
}
  0
DIMENSION
  5
7B26
330
1F
100
AcDbEntity
  8
DIM
 48
0.4
100
AcDbDimension
  2
*D42
 10
1730.152722180064
 20
619.5344652593455
 30
0.0
 11
1727.670420572567
 21
618.4534510993296
 31
0.0
 70
   163
 71
     5
 42
0.9448563780003951
  3
Standard
100
AcDbDiametricDimension
 15
1729.396815167774
 25
618.9675806469076
 35
0.0
 40
0.0
1001
ACAD
1000
DSTYLE
1002
{
1070
   288
1070
     1
1002
}
  0
DIMENSION
  5
7C37
330
1F
100
AcDbEntity
  8
DIM
 48
0.4
100
AcDbDimension
  2
*D43
 10
1728.917771082717
 20
612.3218564582554
 30
0.0
 11
1731.566622999544
 21
611.575594686474
 31
0.0
 70
   163
 71
     5
 42
0.2558986023752823
  3
Standard
100
AcDbDiametricDimension
 15
1729.151346630843
 25
612.2173262807202
 35
0.0
 40
0.0
1001
ACAD
1000
DSTYLE
1002
{
1070
   288
1070
     1
1002
}
  0
DIMENSION
  5
7C43
330
1F
100
AcDbEntity
  8
DIM
 48
0.4
100
AcDbDimension
  2
*D44
 10
1730.059411599289
 20
612.2936121791968
 30
0.0
 11
1731.812826501215
 21
611.8069613235941
 31
0.0
 70
   163
 71
     5
 42
0.0900982449998083
  3
Standard
100
AcDbDiametricDimension
 15
1730.13563296477
 25
612.2455705597785
 35
0.0
 40
0.0
1001
ACAD
1000
DSTYLE
1002
{
1070
   288
1070
     1
1002
}
  0
DIMENSION
  5
7CA5
330
1F
100
AcDbEntity
  8
DIM
 48
0.4
100
AcDbDimension
  2
*D45
 10
1737.47098579353
 20
612.9473113616943
 30
0.0
 11
1734.556804208825
 21
612.4217735284574
 31
0.0
 70
   163
 71
     5
 42
0.9448799999997845
  3
Standard
100
AcDbDiametricDimension
 15
1736.561226594384
 25
612.6920929964295
 35
0.0
 40
0.0
1001
ACAD
1000
DSTYLE
1002
{
1070
   288
1070
     1
1002
}
  0
INSERT
  5
7FC4
330
1F
100
AcDbEntity
  8
\M+2BBB2\M+2A755\M+2BD75
 48
0.4
100
AcDbBlockReference
 66
     1
  2
C
 10
1718.214648278789
 20
607.0861620448177
 30
0.0
  0
ATTRIB
  5
7FC5
330
7FC4
100
AcDbEntity
  8
TEXT
100
AcDbText
 10
1733.614373794567
 20
607.6255670904354
 30
0.0
 40
0.125
  1
RD
 41
0.75
  7
TXT
 72
     1
 11
1733.692498794567
 21
607.6255670904354
 31
0.0
100
AcDbAttribute
  2
NAME
 70
     4
  0
ATTRIB
  5
7FC6
330
7FC4
100
AcDbEntity
  8
TEXT
100
AcDbText
 10
1734.083196755106
 20
607.6255670904354
 30
0.0
 40
0.125
  1
10-10-08
 41
0.75
  7
TXT
 72
     1
 11
1734.387884255106
 21
607.6255670904354
 31
0.0
100
AcDbAttribute
  2
DATE
 70
     4
  0
ATTRIB
  5
7FC7
330
7FC4
100
AcDbEntity
  8
TEXT
100
AcDbText
 10
1736.679521078833
 20
607.7967688621481
 30
0.0
 40
0.125
  1
HAND-HELD BOX STYLE Q
 41
0.75
  7
TXT
 72
     1
 11
1737.648271078833
 21
607.7967688621481
 31
0.0
100
AcDbAttribute
  2
TITLE1
 70
     4
  0
ATTRIB
  5
7FC8
330
7FC4
100
AcDbEntity
  8
TEXT
100
AcDbText
 10
1736.867021078833
 20
607.5856393960219
 30
0.0
 40
0.125
  1
 3.03 X 1.93 X 1.05
 41
0.75
  7
TXT
 72
     1
 11
1737.648271078833
 21
607.5856393960219
 31
0.0
100
AcDbAttribute
  2
TITLE2
 70
     4
  0
ATTRIB
  5
7FC9
330
7FC4
100
AcDbEntity
  8
TEXT
100
AcDbText
 10
1737.46464586717
 20
607.192386377982
 30
0.0
 40
0.156
  1
HH-3640
 41
0.75
  7
TXT
 72
     1
 11
1737.84489586717
 21
607.192386377982
 31
0.0
100
AcDbAttribute
  2
PART
 70
     4
  0
ATTRIB
  5
7FCA
330
7FC4
100
AcDbEntity
  8
TEXT
100
AcDbText
 10
1737.46464586717
 20
622.7638028808542
 30
0.0
 40
0.156
  1
HH-3640
 41
0.75
  7
TXT
 72
     1
 11
1737.84489586717
 21
622.7638028808542
 31
0.0
100
AcDbAttribute
  2
PART
 70
     4
  0
ATTRIB
  5
7FCB
330
7FC4
100
AcDbEntity
  8
TEXT
100
AcDbText
 10
1729.27154588294
 20
608.2681743799152
 30
0.0
 40
0.125
  1

 41
4.936416426385731
  7
TXT
 72
     5
 11
1733.179542220495
 21
608.2681743799152
 31
0.0
100
AcDbAttribute
  2
CUTSIZE
 70
     4
  0
ATTRIB
  5
7FCC
330
7FC4
100
AcDbEntity
  8
TEXT
100
AcDbText
 10
1729.409018967918
 20
607.3729408717788
 30
0.0
 40
0.125
  1

 41
0.75
  7
TXT
 72
     1
 11
1729.409018967918
 21
607.3729408717788
 31
0.0
100
AcDbAttribute
  2
QTY
 70
     4
  0
ATTRIB
  5
7FCD
330
7FC4
100
AcDbEntity
  8
TEXT
100
AcDbText
 10
1730.353702481316
 20
607.3729408717788
 30
0.0
 40
0.125
  1

 41
0.75
  7
TXT
 72
     1
 11
1730.353702481316
 21
607.3729408717788
 31
0.0
100
AcDbAttribute
  2
USED
 70
     4
  0
ATTRIB
  5
7FCE
330
7FC4
100
AcDbEntity
  8
TEXT
100
AcDbText
 10
1733.938629501703
 20
608.0416944158879
 30
0.0
 40
0.125
  1
SEE NOTE
 41
0.75
  7
TXT
 72
     1
 11
1734.298004501703
 21
608.0416944158879
 31
0.0
100
AcDbAttribute
  2
MAT
 70
     4
  0
ATTRIB
  5
7FCF
330
7FC4
100
AcDbEntity
  8
TEXT
100
AcDbText
 10
1734.079254501703
 20
607.8298162526784
 30
0.0
 40
0.125
  1
BLACK
 41
0.75
  7
TXT
 72
     1
 11
1734.298004501703
 21
607.8298162526784
 31
0.0
100
AcDbAttribute
  2
FINISH
 70
     4
  0
SEQEND
  5
7FD0
330
7FC4
100
AcDbEntity
  8
\M+2BBB2\M+2A755\M+2BD75
 48
0.4
  0
LINE
  5
8073
330
1F
100
AcDbEntity
  8
\M+2BBB2\M+2A755\M+2BD75
 48
0.4
100
AcDbLine
 10
1738.714648278789
 20
616.5827239384186
 30
0.0
 11
1727.874359273844
 21
616.5827239384185
 31
0.0
  0
LINE
  5
8074
330
1F
100
AcDbEntity
  8
\M+2BBB2\M+2A755\M+2BD75
 48
0.4
100
AcDbLine
 10
1727.874359273844
 20
616.5827239384185
 30
0.0
 11
1725.127861069292
 21
613.0096683796641
 31
0.0
  0
LINE
  5
8075
330
1F
100
AcDbEntity
  8
\M+2BBB2\M+2A755\M+2BD75
 48
0.4
100
AcDbLine
 10
1725.127861069292
 20
613.0096683796641
 30
0.0
 11
1718.214648278789
 21
613.0096683796641
 31
0.0
  0
MTEXT
  5
8084
330
1F
100
AcDbEntity
  8
\M+2BBB2\M+2A755\M+2BD75
 48
0.6
100
AcDbMText
 10
1722.660085378199
 20
609.9600713517994
 30
0.0
 40
0.125
 41
6.056
 71
     1
 72
     5
  3
{\fArial|b0|i0|c0|p34;\C1;MATERIAL : FLAME RETARDANT OF ABS ( UL94-V0 )\PCOLOR: BLACK\PFINISH:\P   SHELL EXTERIOR SURFACES ARE TEXTURED.\P   RECESSED AREAS ON EXTERIOR ARE SMOOTH.\PFOUR (4) INTERNAL BOSSES ON BASE & LID ARE\P   AVAILABLE FOR PCB ASSE
  1
MBLY. USE M2.5 OR\P  #4 STD SHEET METAL SCREWS.\PALL DIMENSIONAL TOLERANCES ARE  +/-.015}
 73
     1
 44
1.0
  0
ENDSEC
  0
SECTION
  2
OBJECTS
  0
DICTIONARY
  5
C
330
0
100
AcDbDictionary
281
     1
  3
ACAD_COLOR
350
6B
  3
ACAD_GROUP
350
D
  3
ACAD_LAYOUT
350
1A
  3
ACAD_MATERIAL
350
6A
  3
ACAD_MLINESTYLE
350
17
  3
ACAD_PLOTSETTINGS
350
19
  3
ACAD_PLOTSTYLENAME
350
E
  3
ACAD_TABLESTYLE
350
181
  3
AcadDim
350
485B
  3
AcDbVariableDictionary
350
5E
  3
ADE_QUERY_LIBRARY
350
8D
  3
ASE_INDEX_DICTIONARY
350
17C
1001
ADE
1000
ADE02C004
1000
[Query]
1000
CaseSensitiveMatch=0
1000
SaveCurrQueryInSession=1
1000
MkSelSetWithQryObj=0
1000
ShowBlockAsInsPt=0
1000
CreateAssociativeHatchObjects=0
1000
ReferenceBoundaryForAreaLocation=1
1000
ShowImageAsBoundary=1
1000
DefaultJoinOperator=2
1000
ColorForAdd=red
1000
ColorForRemove=red
1000
BlockLocnForQuery=1
1000
TextLocnForQuery=1
1000
[Save Back]
1000
RedefineBlockDefinitions=1
1000
RedefineLayerDefinitions=1
1000
RedefineTextStyleDefinitions=1
1000
RemoveUnusedGroups=1
1000
EraseSavedBackObjects=1
1000
RemoveLockAfterSave=1
1000
CreateHistoryFileOfChanges=0
1000
CreateBackupFileOfSourceDwg=1
1000
DontAddObjectsToSaveSet=0
1000
MarkObjectsForEditingWithoutPrompting=0
1000
[Coordinate Transformation]
1000
RestoreLastActiveDwgsOnStartup=1
1000
ActivateDwgsOnAttach=1
1000
AdjustSizesAndScalesForChangesInUnits=1
1000
AdjustRotationsForMapDistortions=1
1000
AdjustSizesAndScalesForMapDistortions=1
1000
AdjustElevations=1
1000
AdjustZeroRotationObjects=1
1000
ReconnectDbOnWSOpen=1
1000
NoOfSQLConditionsInHistory=10
  0
DICTIONARY
  5
26E
330
2
100
AcDbDictionary
280
     1
281
     1
  3
ACAD_LAYERFILTERS
360
5B07
  3
ACLYDICTIONARY
360
5B06
  0
DICTIONARY
  5
1F3
330
1F
100
AcDbDictionary
280
     1
281
     1
  3
ACAD_SORTENTS
360
276
  0
DICTIONARY
  5
25F
330
10D
100
AcDbDictionary
280
     1
281
     1
  3
ACAD_SORTENTS
360
1451
  0
DICTIONARY
  5
4694
330
4687
100
AcDbDictionary
280
     1
281
     1
  3
ACAD_DIMASSOC
360
469E
  0
DICTIONARY
  5
46E0
330
46D7
100
AcDbDictionary
280
     1
281
     1
  3
ACAD_DIMASSOC
360
46E6
  0
DICTIONARY
  5
46F6
330
46E7
100
AcDbDictionary
280
     1
281
     1
  3
ACAD_DIMASSOC
360
4702
  0
DICTIONARY
  5
4712
330
4703
100
AcDbDictionary
280
     1
281
     1
  3
ACAD_DIMASSOC
360
471E
  0
DICTIONARY
  5
472C
330
471F
100
AcDbDictionary
280
     1
281
     1
  3
ACAD_DIMASSOC
360
4736
  0
DICTIONARY
  5
4744
330
4737
100
AcDbDictionary
280
     1
281
     1
  3
ACAD_DIMASSOC
360
474E
  0
DICTIONARY
  5
475C
330
474F
100
AcDbDictionary
280
     1
281
     1
  3
ACAD_DIMASSOC
360
4766
  0
DICTIONARY
  5
47CC
330
47C3
100
AcDbDictionary
280
     1
281
     1
  3
ACAD_DIMASSOC
360
47D2
  0
DICTIONARY
  5
47E0
330
47D3
100
AcDbDictionary
280
     1
281
     1
  3
ACAD_DIMASSOC
360
47EA
  0
DICTIONARY
  5
47FA
330
47EB
100
AcDbDictionary
280
     1
281
     1
  3
ACAD_DIMASSOC
360
4806
  0
DICTIONARY
  5
484E
330
483F
100
AcDbDictionary
280
     1
281
     1
  3
ACAD_DIMASSOC
360
485A
  0
DICTIONARY
  5
486D
330
4860
100
AcDbDictionary
280
     1
281
     1
  3
ACAD_DIMASSOC
360
4877
  0
DICTIONARY
  5
4983
330
4974
100
AcDbDictionary
280
     1
281
     1
  3
ACAD_DIMASSOC
360
498F
  0
DICTIONARY
  5
4A6B
330
4A5E
100
AcDbDictionary
280
     1
281
     1
  3
ACAD_DIMASSOC
360
4A75
  0
DICTIONARY
  5
4A83
330
4A76
100
AcDbDictionary
280
     1
281
     1
  3
ACAD_DIMASSOC
360
4A8D
  0
DICTIONARY
  5
4AC7
330
4ABA
100
AcDbDictionary
280
     1
281
     1
  3
ACAD_DIMASSOC
360
4AD1
  0
DICTIONARY
  5
4ADF
330
4AD2
100
AcDbDictionary
280
     1
281
     1
  3
ACAD_DIMASSOC
360
4AE9
  0
DICTIONARY
  5
4AFC
330
4AED
100
AcDbDictionary
280
     1
281
     1
  3
ACAD_DIMASSOC
360
4B08
  0
DICTIONARY
  5
4B48
330
4B3B
100
AcDbDictionary
280
     1
281
     1
  3
ACAD_DIMASSOC
360
4B52
  0
DICTIONARY
  5
4B60
330
4B53
100
AcDbDictionary
280
     1
281
     1
  3
ACAD_DIMASSOC
360
4B6A
  0
DICTIONARY
  5
4C49
330
4C3C
100
AcDbDictionary
280
     1
281
     1
  3
ACAD_DIMASSOC
360
4C53
  0
DICTIONARY
  5
5E13
330
5E04
100
AcDbDictionary
280
     1
281
     1
  3
ACAD_DIMASSOC
360
5E1F
  0
DICTIONARY
  5
5E2F
330
5E20
100
AcDbDictionary
280
     1
281
     1
  3
ACAD_DIMASSOC
360
5E3B
  0
DICTIONARY
  5
5E4B
330
5E3C
100
AcDbDictionary
280
     1
281
     1
  3
ACAD_DIMASSOC
360
5E57
  0
DICTIONARY
  5
6B
102
{ACAD_REACTORS
330
C
102
}
330
C
100
AcDbDictionary
281
     1
  0
DICTIONARY
  5
D
102
{ACAD_REACTORS
330
C
102
}
330
C
100
AcDbDictionary
281
     1
  0
DICTIONARY
  5
1A
102
{ACAD_REACTORS
330
C
102
}
330
C
100
AcDbDictionary
281
     1
  3
Layout1
350
51
  3
Layout2
350
56
  3
Model
350
22
  0
DICTIONARY
  5
6A
102
{ACAD_REACTORS
330
C
102
}
330
C
100
AcDbDictionary
281
     1
  0
DICTIONARY
  5
17
102
{ACAD_REACTORS
330
C
102
}
330
C
100
AcDbDictionary
281
     1
  3
Standard
350
18
  0
DICTIONARY
  5
19
102
{ACAD_REACTORS
330
C
102
}
330
C
100
AcDbDictionary
281
     1
  0
ACDBDICTIONARYWDFLT
  5
E
102
{ACAD_REACTORS
330
C
102
}
330
C
100
AcDbDictionary
281
     1
  3
Normal
350
F
100
AcDbDictionaryWithDefault
340
F
  0
DICTIONARY
  5
181
102
{ACAD_REACTORS
330
C
102
}
330
C
100
AcDbDictionary
281
     1
  3
Standard
350
182
  0
XRECORD
  5
485B
102
{ACAD_REACTORS
330
C
102
}
330
C
100
AcDbXrecord
280
     1
 90
   990106
  3

 60
     0
 61
     0
 62
     1
 63
     3
 64
     0
 65
     0
 66
     0
 67
     3
 68
     1
 69
     0
 70
     0
 71
     0
 72
     0
 40
1.5
170
     0
340
0
  0
DICTIONARY
  5
5E
102
{ACAD_REACTORS
330
C
102
}
330
C
100
AcDbDictionary
281
     1
  3
CTABLESTYLE
350
262
  3
DIMASSOC
350
5F
  3
HIDETEXT
350
63
  3
PROJECTNAME
350
5F6D
  3
SORTENTS
350
6A2B
  0
DICTIONARY
  5
8D
102
{ACAD_REACTORS
330
C
102
}
330
C
100
AcDbDictionary
281
     1
  3
_CurrQry
350
17E
  0
DICTIONARY
  5
17C
102
{ACAD_REACTORS
330
C
102
}
330
C
100
AcDbDictionary
281
     1
  3
ASEBlockHierarchyIndexRecord
350
17D
1001
DCO15
1040
1505712231.282
  0
DICTIONARY
  5
5B07
102
{ACAD_REACTORS
330
26E
102
}
330
26E
100
AcDbDictionary
281
     1
  0
DICTIONARY
  5
5B06
102
{ACAD_REACTORS
330
26E
102
}
330
26E
100
AcDbDictionary
281
     1
1001
ACAD
1000
<All
  0
SORTENTSTABLE
  5
276
102
{ACAD_REACTORS
330
1F3
102
}
330
1F3
100
AcDbSortentsTable
330
1F
331
4902
  5
4928
331
48D6
  5
48F5
331
4BF5
  5
4C96
331
5E20
  5
5E81
331
38C8
  5
3905
331
3EFB
  5
3F79
331
3864
  5
38BE
331
38BB
  5
38F7
331
3EF6
  5
3F5D
331
4014
  5
4501
331
4513
  5
46B2
331
48DE
  5
4904
331
4007
  5
4015
331
48FD
  5
4925
331
48D1
  5
48F0
331
4973
  5
4927
331
4BF0
  5
4C7D
331
4AED
  5
4BF6
331
38C3
  5
3900
331
3830
  5
384D
331
3F5D
  5
3FCF
331
3FAC
  5
4001
331
3823
  5
3840
331
38B6
  5
38F1
331
3EF1
  5
3F59
331
450E
  5
464D
331
3E8D
  5
3EE2
331
3F9F
  5
3FFF
331
4002
  5
4016
331
4737
  5
489B
331
4927
  5
4AD2
331
49D2
  5
4991
331
4BF8
  5
4CB5
331
385A
  5
38AF
331
3F58
  5
3FAA
331
3FD6
  5
400E
331
4509
  5
4633
331
3FFD
  5
401F
331
4703
  5
4899
331
48F3
  5
491A
331
4922
  5
49D4
331
48EE
  5
4912
331
490D
  5
493A
331
3855
  5
38AA
331
3E90
  5
3EEF
331
38AC
  5
38CF
331
3FA2
  5
4002
331
38D3
  5
3967
331
3F06
  5
3FA3
331
3FD1
  5
400B
331
4504
  5
45E3
331
3EAA
  5
3F03
331
3FF8
  5
401C
331
401F
  5
450C
331
4915
  5
4960
331
489D
  5
48D5
331
5E04
  5
5E80
331
3850
  5
38A5
331
3EE2
  5
3F06
331
38CE
  5
3962
331
3F01
  5
3FA1
331
3EA5
  5
3EFE
331
3F78
  5
3FD8
331
3FBF
  5
3F57
331
401A
  5
4507
331
47D3
  5
48A0
331
48A5
  5
48E5
331
4910
  5
493D
331
48E4
  5
490A
331
4898
  5
48D0
331
4BF6
  5
4C97
331
38A2
  5
38C5
331
38C9
  5
3906
331
3EFC
  5
3F7A
331
3FEE
  5
4013
331
3865
  5
38BF
331
3EA0
  5
3EF9
331
3EF7
  5
3F5E
331
4015
  5
4502
331
48A0
  5
48DC
331
4514
  5
46C6
331
493A
  5
4B36
331
48DF
  5
4905
331
48FE
  5
4926
331
48D2
  5
48F1
331
540D
  5
5ADC
331
4974
  5
4B97
331
4BF1
  5
4C8E
331
3831
  5
384E
331
38C4
  5
3901
331
3860
  5
38BA
331
3F5E
  5
3FD2
331
3824
  5
3841
331
450F
  5
464E
331
3E8E
  5
3EEA
331
4003
  5
44F8
331
4928
  5
4AEB
331
48CD
  5
48ED
331
382C
  5
3849
331
3E96
  5
3EF3
331
3F59
  5
3FAB
331
3EED
  5
3F58
331
3FA8
  5
4006
331
384E
  5
38A3
331
3F34
  5
3FA6
331
3FD7
  5
400F
331
450A
  5
4648
331
3FFE
  5
4419
331
48F4
  5
4922
331
46B0
  5
4883
331
4923
  5
4A5E
331
48EF
  5
4913
331
494A
  5
4B6B
331
490E
  5
493B
331
3856
  5
38AB
331
38AD
  5
38D0
331
3FA3
  5
4004
331
38D4
  5
3968
331
3FD2
  5
400C
331
4505
  5
45E4
331
3EAB
  5
3F05
331
3F7E
  5
3FF3
331
464C
  5
483F
331
489E
  5
48D6
331
4909
  5
492A
331
5E3C
  5
5E82
331
3851
  5
38A6
331
38CF
  5
3963
331
3EA6
  5
3F00
331
3F79
  5
3FD9
331
3FF4
  5
4018
331
401B
  5
4508
331
48A6
  5
48E6
331
4911
  5
4940
331
48E5
  5
490B
331
4940
  5
4B53
331
4899
  5
48D1
331
4AD2
  5
4BF3
331
4C3C
  5
4CC1
331
4A5E
  5
4BEF
331
4B39
  5
4BFF
331
4BF7
  5
4CB3
331
38A3
  5
38C6
331
38CA
  5
3920
331
3EFD
  5
3F7E
331
3F74
  5
3FD3
331
3866
  5
38C0
331
3EA1
  5
3EFA
331
4016
  5
4503
331
4515
  5
46D7
331
48A1
  5
48DD
331
3F57
  5
3FA8
331
493B
  5
4B39
331
48D3
  5
48F2
331
4B53
  5
4C3C
331
4BF2
  5
4C92
331
38C5
  5
3902
331
3EF8
  5
3F73
331
3861
  5
38BB
331
3825
  5
3842
331
38B8
  5
38F3
331
3EF3
  5
3F5A
331
4011
  5
44FC
331
3E8F
  5
3EED
331
4510
  5
4687
331
48DB
  5
48F6
331
4004
  5
44F9
331
4687
  5
4860
331
4929
  5
4AEC
331
48CE
  5
48EE
331
382D
  5
384A
331
38C0
  5
38FC
331
3E97
  5
3EF4
331
3F5A
  5
3FAC
331
384F
  5
38A4
331
3E8A
  5
3EA9
331
3FD8
  5
4010
331
450B
  5
4649
331
3F9C
  5
3FFB
331
48F5
  5
4923
331
4924
  5
4A76
331
49CF
  5
4BBF
331
490F
  5
493C
331
38AE
  5
38D1
331
3FD3
  5
400D
331
4506
  5
45FA
331
3F7F
  5
3FF7
331
3FFA
  5
401D
331
464D
  5
485C
331
48F0
  5
4914
331
3FC6
  5
3FF9
331
48EB
  5
490F
331
4860
  5
48A7
331
489F
  5
48DB
331
490A
  5
492B
331
3852
  5
38A7
331
38D0
  5
3964
331
3F03
  5
3F9E
331
4648
  5
47EB
331
3EA7
  5
3F01
331
3F7A
  5
3FEE
331
401C
  5
4509
331
48A7
  5
48E7
331
4912
  5
4946
331
48E6
  5
490C
331
4990
  5
4BA7
331
489A
  5
48D2
331
4B3A
  5
4C02
331
38A4
  5
38C7
331
3838
  5
3855
331
38CB
  5
3921
331
3EFE
  5
3F7F
331
3867
  5
38C1
331
3EA2
  5
3EFB
331
3FF0
  5
4019
331
45E3
  5
4737
331
4017
  5
4504
331
4516
  5
46E7
331
48A2
  5
48DE
331
47C3
  5
489F
331
493C
  5
4B3A
331
4895
  5
48AE
331
48D4
  5
48F3
331
4BF3
  5
4C94
331
38C6
  5
3903
331
3EF9
  5
3F75
331
3862
  5
38BC
331
3E9D
  5
3EF7
331
3826
  5
3843
331
38B9
  5
38F4
331
3EF4
  5
3F5B
331
4012
  5
44FF
331
4511
  5
469F
331
48DC
  5
48FD
331
4005
  5
4014
331
492A
  5
4AED
331
4AEB
  5
4BF4
331
382E
  5
384B
331
385D
  5
38B7
331
3E98
  5
3EF5
331
3F5B
  5
3FAD
331
3821
  5
383E
331
3FAA
  5
4007
331
3E8B
  5
3EAA
331
3FD9
  5
4011
331
450C
  5
464A
331
46D7
  5
4897
331
48F6
  5
4924
331
44F7
  5
44FD
331
46B2
  5
4895
331
4925
  5
4A8E
331
483F
  5
48A4
331
4008
  5
44FA
331
38AF
  5
38D2
331
3EEA
  5
3F2D
331
4507
  5
460A
331
464E
  5
485D
331
3FFB
  5
401E
331
48F1
  5
4915
331
474F
  5
489C
331
4920
  5
4974
331
48EC
  5
4910
331
490B
  5
4935
331
3853
  5
38A8
331
38AA
  5
38CD
331
38D1
  5
3965
331
3F04
  5
3F9C
331
3FCF
  5
400A
331
3FF6
  5
401A
331
4649
  5
4807
331
401D
  5
450A
331
48A8
  5
48E8
331
46E7
  5
4898
331
4913
  5
494A
331
48E7
  5
490D
331
489B
  5
48D3
331
4906
  5
4929
331
4B3B
  5
4C05
331
4935
  5
4B1F
331
3839
  5
3857
331
38CC
  5
3960
331
3EA3
  5
3EFC
331
3F76
  5
3FD5
331
45E4
  5
474F
331
4018
  5
4505
331
48A3
  5
48DF
331
4517
  5
4703
331
493D
  5
4B3B
331
47EB
  5
48A1
331
48D5
  5
48F4
331
4ABA
  5
4BF2
331
4BF4
  5
4C95
331
38A0
  5
38C3
331
38C7
  5
3904
331
3EFA
  5
3F78
331
3863
  5
38BD
331
3E9E
  5
3EF8
331
38BA
  5
38F5
331
3EF5
  5
3F5C
331
4013
  5
4500
331
4512
  5
46B0
331
48DD
  5
48FE
331
4006
  5
4017
331
492B
  5
4B09
331
48D0
  5
48EF
331
4BEF
  5
4C7C
331
4AEC
  5
4BF5
331
382F
  5
384C
331
38C2
  5
38FF
331
3E99
  5
3EF6
331
3F5C
  5
3FC0
331
38B5
  5
38F0
331
3FAB
  5
4008
331
3E8C
  5
3EAB
331
3FDA
  5
4012
331
450D
  5
464C
331
3F9E
  5
3FFE
331
4001
  5
447F
331
4926
  5
4ABA
331
494D
  5
4B87
331
3859
  5
38AE
331
3FA6
  5
4005
331
38B0
  5
38D3
331
4508
  5
461F
331
48F2
  5
4918
331
48AE
  5
48EC
331
4921
  5
4990
331
48ED
  5
4911
331
490C
  5
4936
331
3854
  5
38A9
331
38AB
  5
38CE
331
3FA1
  5
4000
331
38D2
  5
3966
331
3F05
  5
3FA2
331
4503
  5
4518
331
3EA9
  5
3F02
331
3FF7
  5
401B
331
464A
  5
4823
331
401E
  5
450B
331
48A9
  5
48EB
331
4914
  5
494E
331
4A76
  5
4BF0
331
48E8
  5
490E
331
471F
  5
489A
331
489C
  5
48D4
331
4936
  5
4B35
331
383A
  5
3858
331
38CD
  5
3961
331
3F00
  5
3F9F
331
3EA4
  5
3EFD
331
4019
  5
4506
331
48A4
  5
48E4
331
4518
  5
471F
  0
SORTENTSTABLE
  5
1451
102
{ACAD_REACTORS
330
25F
102
}
330
25F
100
AcDbSortentsTable
330
10D
  0
ACAD_PROXY_OBJECT
  5
469E
102
{ACAD_REACTORS
330
4694
102
}
330
4694
100
AcDbProxyObject
 90
      499
 91
      506
 95
   393239
 70
     0
 93
      601
310
40C0088A0B1A23127B9B730B82837B4B73A2932B300A028120B1865688A9F643F27F44D323F62870DB0A5111416344624F736E6170506F696E74526566014050243A689A647EC50E1B614A4C
330
4687
330
4504
330
4504
 94
        0
  0
ACAD_PROXY_OBJECT
  5
46E6
102
{ACAD_REACTORS
330
46E0
102
}
330
46E0
100
AcDbProxyObject
 90
      499
 91
      506
 95
   393239
 70
     0
 93
      214
310
4080088A0B1A23127B9B730B82837B4B73A2932B301A0281211553
330
46D7
330
4504
 94
        0
  0
ACAD_PROXY_OBJECT
  5
4702
102
{ACAD_REACTORS
330
46F6
102
}
330
46F6
100
AcDbProxyObject
 90
      499
 91
      506
 95
   393239
 70
     0
 93
      796
310
40C0088A0B1A23127B9B730B82837B4B73A2932B3052028121D1373C81F1BB054A7F5111416344624F736E6170506F696E74526566084050241E13F40C86F42A7B8FEAA2282C688C49EE6DCC2E0A0DED2DCE8A4CACC1480A048744DCF207C6EC1529FD40
330
46E7
330
3E8B
330
3EE2
330
3E8B
 94
        0
  0
ACAD_PROXY_OBJECT
  5
471E
102
{ACAD_REACTORS
330
4712
102
}
330
4712
100
AcDbProxyObject
 90
      499
 91
      506
 95
   393239
 70
     0
 93
      585
310
40C0088A0B1A23127B9B730B82837B4B73A2932B300A02815344D323F62870DB0A5111416344624F736E6170506F696E745265660140502A3FFFFFFFFFFFFBCFE89A647EC50E1B614A6E
330
4703
330
3FFE
330
3FFD
 94
        0
  0
ACAD_PROXY_OBJECT
  5
4736
102
{ACAD_REACTORS
330
472C
102
}
330
472C
100
AcDbProxyObject
 90
      499
 91
      506
 95
   393239
 70
     0
 93
      521
310
40C0088A0B1A23127B9B730B82837B4B73A2932B306A02815544D323F62870DB0A5111416344624F736E6170506F696E745265660D40502AA89A647EC50E1B614A1A
330
471F
330
4004
330
4007
 94
        0
  0
ACAD_PROXY_OBJECT
  5
474E
102
{ACAD_REACTORS
330
4744
102
}
330
4744
100
AcDbProxyObject
 90
      499
 91
      506
 95
   393239
 70
     0
 93
      393
310
40C0088A0B1A23127B9B730B82837B4B73A2932B301A0281555111416344624F736E6170506F696E745265660340502AAA74
330
4737
330
3E8E
330
3EA5
 94
        0
  0
ACAD_PROXY_OBJECT
  5
4766
102
{ACAD_REACTORS
330
475C
102
}
330
475C
100
AcDbProxyObject
 90
      499
 91
      506
 95
   393239
 70
     0
 93
      206
310
4080088A0B1A23127B9B730B82837B4B73A2932B301A02815551
330
474F
330
3E90
 94
        0
  0
ACAD_PROXY_OBJECT
  5
47D2
102
{ACAD_REACTORS
330
47CC
102
}
330
47CC
100
AcDbProxyObject
 90
      499
 91
      506
 95
   393239
 70
     0
 93
      214
310
4080088A0B1A23127B9B730B82837B4B73A2932B301A0281203550
330
47C3
330
3E8C
 94
        0
  0
ACAD_PROXY_OBJECT
  5
47EA
102
{ACAD_REACTORS
330
47E0
102
}
330
47E0
100
AcDbProxyObject
 90
      499
 91
      506
 95
   393239
 70
     0
 93
      601
310
40C0088A0B1A23127B9B730B82837B4B73A2932B300A028121F1FFFFFFFFFFFFDE7F44D323F62870DB0A5111416344624F736E6170506F696E74526566054050241234884CDFDF3644902A4C
330
47D3
330
3E8C
330
3E8C
 94
        0
  0
ACAD_PROXY_OBJECT
  5
4806
102
{ACAD_REACTORS
330
47FA
102
}
330
47FA
100
AcDbProxyObject
 90
      499
 91
      506
 95
   393239
 70
     0
 93
      796
310
40C0088A0B1A23127B9B730B82837B4B73A2932B302A02812210305A88A9F643F27F5111416344624F736E6170506F696E74526566084050241A01ED6B1B6AF7CBCFEAA2282C688C49EE6DCC2E0A0DED2DCE8A4CACC0A80A048840C16A22A7D90FC9FD40
330
47EB
330
3E8A
330
3EE2
330
3E8A
 94
        0
  0
ACAD_PROXY_OBJECT
  5
485A
102
{ACAD_REACTORS
330
484E
102
}
330
484E
100
AcDbProxyObject
 90
      499
 91
      506
 95
   393239
 70
     0
 93
      521
310
40C0088A0B1A23127B9B730B82837B4B73A2932B306A02815544D323F62870DB0A5111416344624F736E6170506F696E745265660A40502A293420629E697ACFEA12
330
483F
330
46B2
330
3F00
 94
        0
  0
ACAD_PROXY_OBJECT
  5
4877
102
{ACAD_REACTORS
330
486D
102
}
330
486D
100
AcDbProxyObject
 90
      499
 91
      506
 95
   393239
 70
     0
 93
      545
310
40C0088A0B1A23127B9B730B82837B4B73A2932B300A02815344D323F62870DB0A5111416344624F736E6170506F696E745265660B40502A1CBFFFFFFFFFFBCFEA40502A28
330
4860
330
3F7A
330
3F7F
330
3F06
 94
        0
  0
ACAD_PROXY_OBJECT
  5
498F
102
{ACAD_REACTORS
330
4983
102
}
330
4983
100
AcDbProxyObject
 90
      499
 91
      506
 95
   393239
 70
     0
 93
      772
310
40C0088A0B1A23127B9B730B82837B4B73A2932B300A02815344D323F62870DB0A5111416344624F736E6170506F696E745265660840502A15FE7FFFFFFFFBCFEAA2282C688C49EE6DCC2E0A0DED2DCE8A4CACC0280A054D134C8FD8A1C36C2945
330
4974
330
48E5
330
48E7
330
48E5
 94
        0
  0
ACAD_PROXY_OBJECT
  5
4A75
102
{ACAD_REACTORS
330
4A6B
102
}
330
4A6B
100
AcDbProxyObject
 90
      499
 91
      506
 95
   393239
 70
     0
 93
      489
310
40C0088A0B1A23127B9B730B82837B4B73A2932B302A028120B0305A88A9F643F27F5111416344624F736E6170506F696E745265660B40502AAA40502A5F
330
4A5E
330
48FE
330
48FE
330
48FE
 94
        0
  0
ACAD_PROXY_OBJECT
  5
4A8D
102
{ACAD_REACTORS
330
4A83
102
}
330
4A83
100
AcDbProxyObject
 90
      499
 91
      506
 95
   393239
 70
     0
 93
      601
310
40C0088A0B1A23127B9B730B82837B4B73A2932B300A0281209344D323F62870DB0A5111416344624F736E6170506F696E74526566014050240A0D888CDFDF364490289A647EC50E1B614A4C
330
4A76
330
48D4
330
48D2
 94
        0
  0
ACAD_PROXY_OBJECT
  5
4AD1
102
{ACAD_REACTORS
330
4AC7
102
}
330
4AC7
100
AcDbProxyObject
 90
      499
 91
      506
 95
   393239
 70
     0
 93
      393
310
40C0088A0B1A23127B9B730B82837B4B73A2932B301A0281555111416344624F736E6170506F696E745265660340502AAA74
330
4ABA
330
48EB
330
48EE
 94
        0
  0
ACAD_PROXY_OBJECT
  5
4AE9
102
{ACAD_REACTORS
330
4ADF
102
}
330
4ADF
100
AcDbProxyObject
 90
      499
 91
      506
 95
   393239
 70
     0
 93
      206
310
4080088A0B1A23127B9B730B82837B4B73A2932B301A02815550
330
4AD2
330
48ED
 94
        0
  0
ACAD_PROXY_OBJECT
  5
4B08
102
{ACAD_REACTORS
330
4AFC
102
}
330
4AFC
100
AcDbProxyObject
 90
      499
 91
      506
 95
   393239
 70
     0
 93
      521
310
40C0088A0B1A23127B9B730B82837B4B73A2932B306A02815544D323F62870DB0A5111416344624F736E6170506F696E745265660D40502AA89A647EC50E1B614A10
330
4AED
330
4929
330
4914
 94
        0
  0
ACAD_PROXY_OBJECT
  5
4B52
102
{ACAD_REACTORS
330
4B48
102
}
330
4B48
100
AcDbProxyObject
 90
      499
 91
      506
 95
   393239
 70
     0
 93
      334
310
4080088A0B1A23127B9B730B82837B4B73A2932B300A0281511C5888A9F642328144D323F62870DB0A52
330
4B3B
330
490C
 94
        0
  0
ACAD_PROXY_OBJECT
  5
4B6A
102
{ACAD_REACTORS
330
4B60
102
}
330
4B60
100
AcDbProxyObject
 90
      499
 91
      506
 95
   393239
 70
     0
 93
      270
310
4080088A0B1A23127B9B730B82837B4B73A2932B306A02815544D323F62870DB0A50
330
4B53
330
4940
 94
        0
  0
ACAD_PROXY_OBJECT
  5
4C53
102
{ACAD_REACTORS
330
4C49
102
}
330
4C49
100
AcDbProxyObject
 90
      499
 91
      506
 95
   393239
 70
     0
 93
      545
310
40C0088A0B1A23127B9B730B82837B4B73A2932B306A02815544D323F62870DB0A5111416344624F736E6170506F696E745265660B40502A25CB5A75E27ADC0FEA40502A28
330
4C3C
330
3FAA
330
3F00
330
3EF7
 94
        0
  0
ACAD_PROXY_OBJECT
  5
5E1F
102
{ACAD_REACTORS
330
5E13
102
}
330
5E13
100
AcDbProxyObject
 90
      499
 91
      506
 95
   393239
 70
     0
 93
      585
310
40C0088A0B1A23127B9B730B82837B4B73A2932B300A028150305A88A9F643F27F44D323F62870DB0A5111416344624F736E6170506F696E745265660D40502AA89A647EC50E1B614A10
330
5E04
330
4007
330
3FFB
 94
        0
  0
ACAD_PROXY_OBJECT
  5
5E3B
102
{ACAD_REACTORS
330
5E2F
102
}
330
5E2F
100
AcDbProxyObject
 90
      499
 91
      506
 95
   393239
 70
     0
 93
      521
310
40C0088A0B1A23127B9B730B82837B4B73A2932B300A02815344D323F62870DB0A5111416344624F736E6170506F696E745265660D40502AA89A647EC50E1B614A1A
330
5E20
330
4005
330
45E4
 94
        0
  0
ACAD_PROXY_OBJECT
  5
5E57
102
{ACAD_REACTORS
330
5E4B
102
}
330
5E4B
100
AcDbProxyObject
 90
      499
 91
      506
 95
   393239
 70
     0
 93
      270
310
4040088A0B1A23127B9B730B82837B4B73A2932B306A02815544D323F62870DB0A53
330
5E3C
330
45E3
 94
        0
  0
LAYOUT
  5
51
102
{ACAD_XDICTIONARY
360
5F69
102
}
102
{ACAD_REACTORS
330
1A
102
}
330
1A
100
AcDbPlotSettings
  1

  2
None
  4

  6

 40
0.0
 41
0.0
 42
0.0
 43
0.0
 44
0.0
 45
0.0
 46
0.0
 47
0.0
 48
0.0
 49
0.0
140
0.0
141
0.0
142
1.0
143
1.0
 70
   688
 72
     0
 73
     0
 74
     5
  7
monochrome.ctb
 75
    16
147
1.0
148
0.0
149
0.0
100
AcDbLayout
  1
Layout1
 70
     1
 71
     1
 10
0.0
 20
0.0
 11
12.0
 21
9.0
 12
0.0
 22
0.0
 32
0.0
 14
0.0
 24
0.0
 34
0.0
 15
0.0
 25
0.0
 35
0.0
146
0.0
 13
0.0
 23
0.0
 33
0.0
 16
1.0
 26
0.0
 36
0.0
 17
0.0
 27
1.0
 37
0.0
 76
     0
330
50
  0
LAYOUT
  5
56
102
{ACAD_XDICTIONARY
360
5F6B
102
}
102
{ACAD_REACTORS
330
1A
102
}
330
1A
100
AcDbPlotSettings
  1

  2
None
  4

  6

 40
0.0
 41
0.0
 42
0.0
 43
0.0
 44
0.0
 45
0.0
 46
0.0
 47
0.0
 48
0.0
 49
0.0
140
0.0
141
0.0
142
1.0
143
1.0
 70
   688
 72
     0
 73
     0
 74
     5
  7
monochrome.ctb
 75
    16
147
1.0
148
0.0
149
0.0
100
AcDbLayout
  1
Layout2
 70
     1
 71
     2
 10
0.0
 20
0.0
 11
12.0
 21
9.0
 12
0.0
 22
0.0
 32
0.0
 14
0.0
 24
0.0
 34
0.0
 15
0.0
 25
0.0
 35
0.0
146
0.0
 13
0.0
 23
0.0
 33
0.0
 16
1.0
 26
0.0
 36
0.0
 17
0.0
 27
1.0
 37
0.0
 76
     0
330
55
  0
LAYOUT
  5
22
102
{ACAD_XDICTIONARY
360
5F67
102
}
102
{ACAD_REACTORS
330
1A
102
}
330
1A
100
AcDbPlotSettings
  1

  2
PDF reDirect
  4
A4
  6

 40
5.704416751861572
 41
5.704396724700927
 42
5.70440673828125
 43
5.70440673828125
 44
209.8886566162109
 45
297.0106506347656
 46
21.62999999999999
 47
0.0
 48
1747.764030641562
 49
650.8440531896622
140
2163.771449322871
141
876.9354205156195
142
1.0
143
1.456599187998564
 70
 11956
 72
     1
 73
     1
 74
     4
  7
acad.ctb
 75
     0
147
0.6865306587010026
148
-1747.764030641562
149
-650.8440531896622
100
AcDbLayout
  1
Model
 70
     1
 71
     0
 10
0.0
 20
0.0
 11
12.0
 21
9.0
 12
0.0
 22
0.0
 32
0.0
 14
0.0
 24
0.0
 34
0.0
 15
0.0
 25
0.0
 35
0.0
146
0.0
 13
0.0
 23
0.0
 33
0.0
 16
1.0
 26
0.0
 36
0.0
 17
0.0
 27
1.0
 37
0.0
 76
     0
330
1F
  0
MLINESTYLE
  5
18
102
{ACAD_REACTORS
330
17
102
}
330
17
100
AcDbMlineStyle
  2
STANDARD
 70
     0
  3

 62
   256
 51
90.0
 52
90.0
 71
     2
 49
0.5
 62
   256
  6
BYLAYER
 49
-0.5
 62
   256
  6
BYLAYER
  0
ACDBPLACEHOLDER
  5
F
102
{ACAD_REACTORS
330
E
102
}
330
E
  0
ACAD_PROXY_OBJECT
  5
182
102
{ACAD_REACTORS
330
181
102
}
330
181
100
AcDbProxyObject
 90
      499
 91
      504
 95
   393239
 70
     0
 93
     1841
310
4214DD185B99185C9928000000000000F83F0000000000003E0FC00000000000004901028000000C1008070000C3001FDFF8000000C1003FBFF000000182007F7FE00000030400FEFFC00000060801FDFF8000000C1003FBFF000000182000000000000000C2020B0000001820100E000186003FBFF000000182007F7FE000
310
00030400FEFFC00000060801FDFF8000000C1003FBFF000000182007F7FE0000003040000000000000012404160000003040201C00030C007F7FE00000030400FEFFC00000060801FDFF8000000C1003FBFF000000182007F7FE00000030400FEFFC000000608025
340
11
340
11
340
11
 94
        0
  0
DICTIONARYVAR
  5
262
102
{ACAD_REACTORS
330
5E
102
}
330
5E
100
DictionaryVariables
280
     0
  1
STANDARD
  0
DICTIONARYVAR
  5
5F
102
{ACAD_REACTORS
330
5E
102
}
330
5E
100
DictionaryVariables
280
     0
  1
2
  0
DICTIONARYVAR
  5
63
102
{ACAD_REACTORS
330
5E
102
}
330
5E
100
DictionaryVariables
280
     0
  1
1
  0
DICTIONARYVAR
  5
5F6D
102
{ACAD_REACTORS
330
5E
102
}
330
5E
100
DictionaryVariables
280
     0
  1

  0
DICTIONARYVAR
  5
6A2B
102
{ACAD_REACTORS
330
5E
102
}
330
5E
100
DictionaryVariables
280
     0
  1
96
  0
XRECORD
  5
17E
102
{ACAD_REACTORS
330
8D
102
}
330
8D
100
AcDbXrecord
280
     1
1000
ADE02C001
1070
     1
1070
     0
1002
{
1002
}
1002
{
1002
}
1002
{
1002
}
1000

  0
XRECORD
  5
17D
102
{ACAD_REACTORS
330
17C
102
}
330
17C
100
AcDbXrecord
280
     1
330
0
  0
DICTIONARY
  5
5F69
330
51
100
AcDbDictionary
280
     1
281
     1
  3
ACAD_XREC_ROUNDTRIP
360
5F6A
  0
DICTIONARY
  5
5F6B
330
56
100
AcDbDictionary
280
     1
281
     1
  3
ACAD_XREC_ROUNDTRIP
360
5F6C
  0
DICTIONARY
  5
5F67
330
22
100
AcDbDictionary
280
     1
281
     1
  3
ACAD_XREC_ROUNDTRIP
360
5F68
  0
XRECORD
  5
5F6A
102
{ACAD_REACTORS
330
5F69
102
}
330
5F69
100
AcDbXrecord
280
     1
102
SHADEPLOT
 70
     0
102
SHADEPLOTRESLEVEL
 70
     2
102
SHADEPLOTCUSTOMDPI
 70
   300
  0
XRECORD
  5
5F6C
102
{ACAD_REACTORS
330
5F6B
102
}
330
5F6B
100
AcDbXrecord
280
     1
102
SHADEPLOT
 70
     0
102
SHADEPLOTRESLEVEL
 70
     2
102
SHADEPLOTCUSTOMDPI
 70
   300
  0
XRECORD
  5
5F68
102
{ACAD_REACTORS
330
5F67
102
}
330
5F67
100
AcDbXrecord
280
     1
102
SHADEPLOT
 70
     0
102
SHADEPLOTRESLEVEL
 70
     2
102
SHADEPLOTCUSTOMDPI
 70
   300
  0
ENDSEC
  0
EOF
