  0
SECTION
  2
HEADER
  9
$ACADVER
  1
AC1015
  9
$ACADMAINTVER
 70
     6
  9
$DWGCODEPAGE
  3
ANSI_1252
  9
$INSBASE
 10
0.0
 20
0.0
 30
0.0
  9
$EXTMIN
 10
0.2501907945263539
 20
0.2663727193912209
 30
-0.0000000100021362
  9
$EXTMAX
 10
25.00273138203509
 20
16.01710514039395
 30
0.0000000100021363
  9
$LIMMIN
 10
0.0
 20
0.0
  9
$LIMMAX
 10
25.5
 20
16.5
  9
$ORTHOMODE
 70
     0
  9
$REGENMODE
 70
     1
  9
$FILLMODE
 70
     1
  9
$QTEXTMODE
 70
     0
  9
$MIRRTEXT
 70
     1
  9
$LTSCALE
 40
1.0
  9
$ATTMODE
 70
     1
  9
$TEXTSIZE
 40
0.2
  9
$TRACEWID
 40
0.05
  9
$TEXTSTYLE
  7
Standard
  9
$CLAYER
  8
0
  9
$CELTYPE
  6
ByLayer
  9
$CECOLOR
 62
   256
  9
$CELTSCALE
 40
1.0
  9
$DISPSILH
 70
     0
  9
$DIMSCALE
 40
1.0
  9
$DIMASZ
 40
0.13
  9
$DIMEXO
 40
0.05
  9
$DIMDLI
 40
0.38
  9
$DIMRND
 40
0.0
  9
$DIMDLE
 40
0.0
  9
$DIMEXE
 40
0.125
  9
$DIMTP
 40
0.0
  9
$DIMTM
 40
0.0
  9
$DIMTXT
 40
0.125
  9
$DIMCEN
 40
0.09
  9
$DIMTSZ
 40
0.0
  9
$DIMTOL
 70
     0
  9
$DIMLIM
 70
     0
  9
$DIMTIH
 70
     1
  9
$DIMTOH
 70
     1
  9
$DIMSE1
 70
     0
  9
$DIMSE2
 70
     0
  9
$DIMTAD
 70
     0
  9
$DIMZIN
 70
     0
  9
$DIMBLK
  1

  9
$DIMASO
 70
     1
  9
$DIMSHO
 70
     1
  9
$DIMPOST
  1

  9
$DIMAPOST
  1

  9
$DIMALT
 70
     1
  9
$DIMALTD
 70
     2
  9
$DIMALTF
 40
25.4
  9
$DIMLFAC
 40
1.0
  9
$DIMTOFL
 70
     0
  9
$DIMTVP
 40
0.0
  9
$DIMTIX
 70
     0
  9
$DIMSOXD
 70
     0
  9
$DIMSAH
 70
     0
  9
$DIMBLK1
  1

  9
$DIMBLK2
  1

  9
$DIMSTYLE
  2
Standard
  9
$DIMCLRD
 70
     0
  9
$DIMCLRE
 70
     0
  9
$DIMCLRT
 70
     0
  9
$DIMTFAC
 40
1.0
  9
$DIMGAP
 40
0.06
  9
$DIMJUST
 70
     0
  9
$DIMSD1
 70
     0
  9
$DIMSD2
 70
     0
  9
$DIMTOLJ
 70
     1
  9
$DIMTZIN
 70
     0
  9
$DIMALTZ
 70
     0
  9
$DIMALTTZ
 70
     0
  9
$DIMUPT
 70
     0
  9
$DIMDEC
 70
     3
  9
$DIMTDEC
 70
     3
  9
$DIMALTU
 70
     2
  9
$DIMALTTD
 70
     2
  9
$DIMTXSTY
  7
Standard
  9
$DIMAUNIT
 70
     0
  9
$DIMADEC
 70
     0
  9
$DIMALTRND
 40
0.0
  9
$DIMAZIN
 70
     0
  9
$DIMDSEP
 70
    46
  9
$DIMATFIT
 70
     3
  9
$DIMFRAC
 70
     0
  9
$DIMLDRBLK
  1

  9
$DIMLUNIT
 70
     2
  9
$DIMLWD
 70
    -2
  9
$DIMLWE
 70
    -2
  9
$DIMTMOVE
 70
     0
  9
$LUNITS
 70
     2
  9
$LUPREC
 70
     3
  9
$SKETCHINC
 40
0.1
  9
$FILLETRAD
 40
0.5
  9
$AUNITS
 70
     0
  9
$AUPREC
 70
     0
  9
$MENU
  1
.
  9
$ELEVATION
 40
0.0
  9
$PELEVATION
 40
0.0
  9
$THICKNESS
 40
0.0
  9
$LIMCHECK
 70
     0
  9
$CHAMFERA
 40
0.5
  9
$CHAMFERB
 40
0.5
  9
$CHAMFERC
 40
1.0
  9
$CHAMFERD
 40
0.0
  9
$SKPOLY
 70
     0
  9
$TDCREATE
 40
2454874.692805266
  9
$TDUCREATE
 40
2454874.859471932
  9
$TDUPDATE
 40
2454960.447525671
  9
$TDUUPDATE
 40
2454960.614192338
  9
$TDINDWG
 40
0.0031608218
  9
$TDUSRTIMER
 40
0.0031608218
  9
$USRTIMER
 70
     1
  9
$ANGBASE
 50
0.0
  9
$ANGDIR
 70
     0
  9
$PDMODE
 70
     0
  9
$PDSIZE
 40
-1.0
  9
$PLINEWID
 40
0.0
  9
$SPLFRAME
 70
     0
  9
$SPLINETYPE
 70
     6
  9
$SPLINESEGS
 70
     8
  9
$HANDSEED
  5
5AF
  9
$SURFTAB1
 70
     6
  9
$SURFTAB2
 70
     6
  9
$SURFTYPE
 70
     6
  9
$SURFU
 70
     6
  9
$SURFV
 70
     6
  9
$UCSBASE
  2

  9
$UCSNAME
  2

  9
$UCSORG
 10
0.0
 20
0.0
 30
0.0
  9
$UCSXDIR
 10
1.0
 20
0.0
 30
0.0
  9
$UCSYDIR
 10
0.0
 20
1.0
 30
0.0
  9
$UCSORTHOREF
  2

  9
$UCSORTHOVIEW
 70
     0
  9
$UCSORGTOP
 10
0.0
 20
0.0
 30
0.0
  9
$UCSORGBOTTOM
 10
0.0
 20
0.0
 30
0.0
  9
$UCSORGLEFT
 10
0.0
 20
0.0
 30
0.0
  9
$UCSORGRIGHT
 10
0.0
 20
0.0
 30
0.0
  9
$UCSORGFRONT
 10
0.0
 20
0.0
 30
0.0
  9
$UCSORGBACK
 10
0.0
 20
0.0
 30
0.0
  9
$PUCSBASE
  2

  9
$PUCSNAME
  2

  9
$PUCSORG
 10
0.0
 20
0.0
 30
0.0
  9
$PUCSXDIR
 10
1.0
 20
0.0
 30
0.0
  9
$PUCSYDIR
 10
0.0
 20
1.0
 30
0.0
  9
$PUCSORTHOREF
  2

  9
$PUCSORTHOVIEW
 70
     0
  9
$PUCSORGTOP
 10
0.0
 20
0.0
 30
0.0
  9
$PUCSORGBOTTOM
 10
0.0
 20
0.0
 30
0.0
  9
$PUCSORGLEFT
 10
0.0
 20
0.0
 30
0.0
  9
$PUCSORGRIGHT
 10
0.0
 20
0.0
 30
0.0
  9
$PUCSORGFRONT
 10
0.0
 20
0.0
 30
0.0
  9
$PUCSORGBACK
 10
0.0
 20
0.0
 30
0.0
  9
$USERI1
 70
     0
  9
$USERI2
 70
     0
  9
$USERI3
 70
     0
  9
$USERI4
 70
     0
  9
$USERI5
 70
     0
  9
$USERR1
 40
0.0
  9
$USERR2
 40
0.0
  9
$USERR3
 40
0.0
  9
$USERR4
 40
0.0
  9
$USERR5
 40
0.0
  9
$WORLDVIEW
 70
     1
  9
$SHADEDGE
 70
     3
  9
$SHADEDIF
 70
    70
  9
$TILEMODE
 70
     1
  9
$MAXACTVP
 70
    64
  9
$PINSBASE
 10
0.0
 20
0.0
 30
0.0
  9
$PLIMCHECK
 70
     0
  9
$PEXTMIN
 10
1.000000000000000E+20
 20
1.000000000000000E+20
 30
1.000000000000000E+20
  9
$PEXTMAX
 10
-1.000000000000000E+20
 20
-1.000000000000000E+20
 30
-1.000000000000000E+20
  9
$PLIMMIN
 10
0.0
 20
0.0
  9
$PLIMMAX
 10
12.0
 20
9.0
  9
$UNITMODE
 70
     0
  9
$VISRETAIN
 70
     1
  9
$PLINEGEN
 70
     0
  9
$PSLTSCALE
 70
     1
  9
$TREEDEPTH
 70
  3020
  9
$CMLSTYLE
  2
Standard
  9
$CMLJUST
 70
     0
  9
$CMLSCALE
 40
1.0
  9
$PROXYGRAPHICS
 70
     1
  9
$MEASUREMENT
 70
     0
  9
$CELWEIGHT
370
    -1
  9
$ENDCAPS
280
     0
  9
$JOINSTYLE
280
     0
  9
$LWDISPLAY
290
     1
  9
$INSUNITS
 70
     1
  9
$HYPERLINKBASE
  1

  9
$STYLESHEET
  1

  9
$XEDIT
290
     1
  9
$CEPSNTYPE
380
     0
  9
$PSTYLEMODE
290
     1
  9
$FINGERPRINTGUID
  2
{6AAF8BDE-EAE5-4C67-91C6-6BF76FA07539}
  9
$VERSIONGUID
  2
{EA29A2ED-2777-4B0F-A3F9-71F8100BB40D}
  9
$EXTNAMES
290
     1
  9
$PSVPSCALE
 40
0.0
  9
$OLESTARTUP
290
     0
  0
ENDSEC
  0
SECTION
  2
CLASSES
  0
CLASS
  1
ACDBDICTIONARYWDFLT
  2
AcDbDictionaryWithDefault
  3
AutoCAD 2000
 90
        0
280
     0
281
     0
  0
CLASS
  1
VISUALSTYLE
  2
AcDbVisualStyle
  3
ObjectDBX Classes
 90
     4095
280
     0
281
     0
  0
CLASS
  1
SCALE
  2
AcDbScale
  3
ObjectDBX Classes
 90
     1153
280
     0
281
     0
  0
CLASS
  1
DICTIONARYVAR
  2
AcDbDictionaryVar
  3
AutoCAD 2000
 90
        0
280
     0
281
     0
  0
CLASS
  1
ACDBPLACEHOLDER
  2
AcDbPlaceHolder
  3
AutoCAD 2000
 90
        0
280
     0
281
     0
  0
CLASS
  1
LAYOUT
  2
AcDbLayout
  3
AutoCAD 2000
 90
        0
280
     0
281
     0
  0
ENDSEC
  0
SECTION
  2
TABLES
  0
TABLE
  2
VPORT
  5
8
330
0
100
AcDbSymbolTable
 70
     3
  0
VPORT
  5
5AE
330
8
100
AcDbSymbolTableRecord
100
AcDbViewportTableRecord
  2
*Active
 70
     0
 10
0.0
 20
0.0
 11
1.0
 21
1.0
 12
15.80064081788564
 22
7.375580495334906
 13
0.0
 23
0.0
 14
0.5
 24
0.5
 15
0.5
 25
0.5
 16
0.0
 26
0.0
 36
1.0
 17
0.0
 27
0.0
 37
0.0
 40
19.53021011089827
 41
1.987577639751552
 42
50.0
 43
0.0
 44
0.0
 50
0.0
 51
0.0
 71
     0
 72
  2000
 73
     1
 74
     3
 75
     0
 76
     0
 77
     0
 78
     0
281
     0
 65
     1
110
0.0
120
0.0
130
0.0
111
1.0
121
0.0
131
0.0
112
0.0
122
1.0
132
0.0
 79
     0
146
0.0
  0
ENDTAB
  0
TABLE
  2
LTYPE
  5
5
330
0
100
AcDbSymbolTable
 70
     6
  0
LTYPE
  5
14
330
5
100
AcDbSymbolTableRecord
100
AcDbLinetypeTableRecord
  2
ByBlock
 70
     0
  3

 72
    65
 73
     0
 40
0.0
  0
LTYPE
  5
15
330
5
100
AcDbSymbolTableRecord
100
AcDbLinetypeTableRecord
  2
ByLayer
 70
     0
  3

 72
    65
 73
     0
 40
0.0
  0
LTYPE
  5
16
330
5
100
AcDbSymbolTableRecord
100
AcDbLinetypeTableRecord
  2
Continuous
 70
     0
  3
Solid line
 72
    65
 73
     0
 40
0.0
  0
LTYPE
  5
5D
330
5
100
AcDbSymbolTableRecord
100
AcDbLinetypeTableRecord
  2
HIDDEN
 70
     0
  3
Hidden __ __ __ __ __ __ __ __ __ __ __ __ __ __
 72
    65
 73
     2
 40
0.075
 49
0.05
 74
     0
 49
-0.025
 74
     0
  0
LTYPE
  5
5E
330
5
100
AcDbSymbolTableRecord
100
AcDbLinetypeTableRecord
  2
PHANTOM
 70
     0
  3
Phantom ______  __  __  ______  __  __  ______
 72
    65
 73
     6
 40
0.5
 49
0.25
 74
     0
 49
-0.05
 74
     0
 49
0.05
 74
     0
 49
-0.05
 74
     0
 49
0.05
 74
     0
 49
-0.05
 74
     0
  0
LTYPE
  5
5F
330
5
100
AcDbSymbolTableRecord
100
AcDbLinetypeTableRecord
  2
CENTER
 70
     0
  3
Center ____ _ ____ _ ____ _ ____ _ ____ _ ____
 72
    65
 73
     4
 40
0.4
 49
0.25
 74
     0
 49
-0.05
 74
     0
 49
0.05
 74
     0
 49
-0.05
 74
     0
  0
LTYPE
  5
60
330
5
100
AcDbSymbolTableRecord
100
AcDbLinetypeTableRecord
  2
CENTERX2
 70
     0
  3
Center (2x) ________  __  ________  __  _____
 72
    65
 73
     4
 40
0.8
 49
0.5
 74
     0
 49
-0.1
 74
     0
 49
0.1
 74
     0
 49
-0.1
 74
     0
  0
LTYPE
  5
61
330
5
100
AcDbSymbolTableRecord
100
AcDbLinetypeTableRecord
  2
DOT2
 70
     0
  3
Dot (.5x) ........................................
 72
    65
 73
     2
 40
0.025
 49
0.0
 74
     0
 49
-0.025
 74
     0
  0
ENDTAB
  0
TABLE
  2
LAYER
  5
2
330
0
100
AcDbSymbolTable
 70
     2
  0
LAYER
  5
10
330
2
100
AcDbSymbolTableRecord
100
AcDbLayerTableRecord
  2
0
 70
     0
 62
     7
  6
Continuous
370
    -3
390
F
  0
LAYER
  5
575
330
2
100
AcDbSymbolTableRecord
100
AcDbLayerTableRecord
  2
Defpoints
 70
     0
 62
     7
  6
Continuous
290
     0
370
    -3
390
F
  0
ENDTAB
  0
TABLE
  2
STYLE
  5
3
330
0
100
AcDbSymbolTable
 70
     2
  0
STYLE
  5
11
330
3
100
AcDbSymbolTableRecord
100
AcDbTextStyleTableRecord
  2
Standard
 70
     0
 40
0.0
 41
1.0
 50
0.0
 71
     0
 42
0.2
  3
txt
  4

  0
STYLE
  5
72
330
3
100
AcDbSymbolTableRecord
100
AcDbTextStyleTableRecord
  2
SLDTEXTSTYLE0
 70
     0
 40
0.0
 41
0.75
 50
0.0
 71
     0
 42
0.2
  3
TXT
  4

  0
ENDTAB
  0
TABLE
  2
VIEW
  5
6
330
0
100
AcDbSymbolTable
 70
     0
  0
ENDTAB
  0
TABLE
  2
UCS
  5
7
330
0
100
AcDbSymbolTable
 70
     0
  0
ENDTAB
  0
TABLE
  2
APPID
  5
9
330
0
100
AcDbSymbolTable
 70
     1
  0
APPID
  5
12
330
9
100
AcDbSymbolTableRecord
100
AcDbRegAppTableRecord
  2
ACAD
 70
     0
  0
ENDTAB
  0
TABLE
  2
DIMSTYLE
  5
A
330
0
100
AcDbSymbolTable
 70
     7
100
AcDbDimStyleTable
 71
     1
340
27
  0
DIMSTYLE
105
27
102
{ACAD_REACTORS
330
574
330
583
102
}
330
A
100
AcDbSymbolTableRecord
100
AcDbDimStyleTableRecord
  2
Standard
 70
     0
340
11
  0
DIMSTYLE
105
EF
102
{ACAD_REACTORS
330
EE
330
102
330
115
330
127
330
279
330
2CB
330
2DD
330
314
330
34B
330
396
330
3A8
330
52C
102
}
330
A
100
AcDbSymbolTableRecord
100
AcDbDimStyleTableRecord
  2
SLDDIMSTYLE0
 70
     0
 41
0.13
 44
0.0
 45
0.000000001
 78
    12
140
0.125
147
0.03125
148
0.000000001
170
     1
173
     1
271
     3
272
     3
284
    12
340
72
  0
DIMSTYLE
105
28C
102
{ACAD_REACTORS
330
28B
330
2F0
102
}
330
A
100
AcDbSymbolTableRecord
100
AcDbDimStyleTableRecord
  2
SLDDIMSTYLE1
 70
     0
 41
0.13
 44
0.0
 45
0.000000001
 78
    12
140
0.125
147
0.03125
148
0.000000001
170
     1
172
     1
173
     1
271
     3
272
     3
284
    12
340
72
  0
DIMSTYLE
105
2A6
330
A
100
AcDbSymbolTableRecord
100
AcDbDimStyleTableRecord
  2
SLDDIMSTYLE2
 70
     0
 41
0.13
 44
0.0
 45
0.000000001
140
0.13
147
0.0325
173
     1
271
     0
272
     0
340
11
  0
DIMSTYLE
105
2B9
102
{ACAD_REACTORS
330
2B8
102
}
330
A
100
AcDbSymbolTableRecord
100
AcDbDimStyleTableRecord
  2
SLDDIMSTYLE3
 70
     0
 41
0.13
 44
0.0
 45
0.000000001
 78
     4
140
0.125
147
0.03125
148
0.000000001
170
     1
173
     1
271
     3
272
     3
284
    12
340
72
  0
DIMSTYLE
105
302
102
{ACAD_REACTORS
330
301
330
326
330
339
330
53E
102
}
330
A
100
AcDbSymbolTableRecord
100
AcDbDimStyleTableRecord
  2
SLDDIMSTYLE4
 70
     0
 41
0.13
 44
0.0
 45
0.000000001
 78
    12
140
0.125
147
0.03125
148
0.000000001
170
     1
173
     1
271
     3
272
     3
284
    12
340
72
  0
DIMSTYLE
105
3C0
330
A
100
AcDbSymbolTableRecord
100
AcDbDimStyleTableRecord
  2
SLDDIMSTYLE5
 70
     0
 41
0.04
 44
0.0
 45
0.000000001
140
0.04
147
0.01
173
     1
271
     0
272
     0
340
11
341
3C1
343
3C1
344
3C1
  0
ENDTAB
  0
TABLE
  2
BLOCK_RECORD
  5
1
330
0
100
AcDbSymbolTable
 70
    38
  0
BLOCK_RECORD
  5
1F
330
1
100
AcDbSymbolTableRecord
100
AcDbBlockTableRecord
  2
*Model_Space
340
22
  0
BLOCK_RECORD
  5
1B
330
1
100
AcDbSymbolTableRecord
100
AcDbBlockTableRecord
  2
*Paper_Space
340
1E
  0
BLOCK_RECORD
  5
23
330
1
100
AcDbSymbolTableRecord
100
AcDbBlockTableRecord
  2
*Paper_Space0
340
26
  0
BLOCK_RECORD
  5
74
330
1
100
AcDbSymbolTableRecord
100
AcDbBlockTableRecord
  2
SW_NOTE_0
340
0
102
{BLKREFS
331
79
102
}
  0
BLOCK_RECORD
  5
7B
330
1
100
AcDbSymbolTableRecord
100
AcDbBlockTableRecord
  2
SW_NOTE_1
340
0
102
{BLKREFS
331
84
102
}
  0
BLOCK_RECORD
  5
85
330
1
100
AcDbSymbolTableRecord
100
AcDbBlockTableRecord
  2
SW_NOTE_2
340
0
102
{BLKREFS
331
8A
102
}
  0
BLOCK_RECORD
  5
8B
330
1
100
AcDbSymbolTableRecord
100
AcDbBlockTableRecord
  2
SW_NOTE_3
340
0
102
{BLKREFS
331
90
102
}
  0
BLOCK_RECORD
  5
91
330
1
100
AcDbSymbolTableRecord
100
AcDbBlockTableRecord
  2
SW_NOTE_4
340
0
102
{BLKREFS
331
96
102
}
  0
BLOCK_RECORD
  5
F0
330
1
100
AcDbSymbolTableRecord
100
AcDbBlockTableRecord
  2
*D6
340
0
  0
BLOCK_RECORD
  5
103
330
1
100
AcDbSymbolTableRecord
100
AcDbBlockTableRecord
  2
*D7
340
0
  0
BLOCK_RECORD
  5
116
330
1
100
AcDbSymbolTableRecord
100
AcDbBlockTableRecord
  2
*D8
340
0
  0
BLOCK_RECORD
  5
128
330
1
100
AcDbSymbolTableRecord
100
AcDbBlockTableRecord
  2
*D9
340
0
  0
BLOCK_RECORD
  5
27A
330
1
100
AcDbSymbolTableRecord
100
AcDbBlockTableRecord
  2
*D10
340
0
  0
BLOCK_RECORD
  5
28D
330
1
100
AcDbSymbolTableRecord
100
AcDbBlockTableRecord
  2
*D11
340
0
  0
BLOCK_RECORD
  5
29F
330
1
100
AcDbSymbolTableRecord
100
AcDbBlockTableRecord
  2
SW_NOTE_5
340
0
102
{BLKREFS
331
2A5
102
}
  0
BLOCK_RECORD
  5
2BA
330
1
100
AcDbSymbolTableRecord
100
AcDbBlockTableRecord
  2
*D13
340
0
  0
BLOCK_RECORD
  5
2CC
330
1
100
AcDbSymbolTableRecord
100
AcDbBlockTableRecord
  2
*D14
340
0
  0
BLOCK_RECORD
  5
2DE
330
1
100
AcDbSymbolTableRecord
100
AcDbBlockTableRecord
  2
*D15
340
0
  0
BLOCK_RECORD
  5
2F1
330
1
100
AcDbSymbolTableRecord
100
AcDbBlockTableRecord
  2
*D16
340
0
  0
BLOCK_RECORD
  5
303
330
1
100
AcDbSymbolTableRecord
100
AcDbBlockTableRecord
  2
*D17
340
0
  0
BLOCK_RECORD
  5
315
330
1
100
AcDbSymbolTableRecord
100
AcDbBlockTableRecord
  2
*D18
340
0
  0
BLOCK_RECORD
  5
327
330
1
100
AcDbSymbolTableRecord
100
AcDbBlockTableRecord
  2
*D19
340
0
  0
BLOCK_RECORD
  5
33A
330
1
100
AcDbSymbolTableRecord
100
AcDbBlockTableRecord
  2
*D20
340
0
  0
BLOCK_RECORD
  5
34C
330
1
100
AcDbSymbolTableRecord
100
AcDbBlockTableRecord
  2
*D21
340
0
  0
BLOCK_RECORD
  5
35E
330
1
100
AcDbSymbolTableRecord
100
AcDbBlockTableRecord
  2
SW_CENTERMARKSYMBOL_0
340
0
102
{BLKREFS
331
369
102
}
  0
BLOCK_RECORD
  5
36A
330
1
100
AcDbSymbolTableRecord
100
AcDbBlockTableRecord
  2
SW_CENTERMARKSYMBOL_1
340
0
102
{BLKREFS
331
375
102
}
  0
BLOCK_RECORD
  5
376
330
1
100
AcDbSymbolTableRecord
100
AcDbBlockTableRecord
  2
SW_CENTERMARKSYMBOL_2
340
0
102
{BLKREFS
331
381
102
}
  0
BLOCK_RECORD
  5
382
330
1
100
AcDbSymbolTableRecord
100
AcDbBlockTableRecord
  2
SW_CENTERMARKSYMBOL_3
340
0
102
{BLKREFS
331
38D
102
}
  0
BLOCK_RECORD
  5
397
330
1
100
AcDbSymbolTableRecord
100
AcDbBlockTableRecord
  2
*D26
340
0
  0
BLOCK_RECORD
  5
3A9
330
1
100
AcDbSymbolTableRecord
100
AcDbBlockTableRecord
  2
*D27
340
0
  0
BLOCK_RECORD
  5
3BA
330
1
100
AcDbSymbolTableRecord
100
AcDbBlockTableRecord
  2
SW_NOTE_6
340
0
102
{BLKREFS
331
3BF
102
}
  0
BLOCK_RECORD
  5
3C1
330
1
100
AcDbSymbolTableRecord
100
AcDbBlockTableRecord
  2
_DOT
340
0
  0
BLOCK_RECORD
  5
52D
330
1
100
AcDbSymbolTableRecord
100
AcDbBlockTableRecord
  2
*D30
340
0
  0
BLOCK_RECORD
  5
53F
330
1
100
AcDbSymbolTableRecord
100
AcDbBlockTableRecord
  2
*D31
340
0
  0
BLOCK_RECORD
  5
551
330
1
100
AcDbSymbolTableRecord
100
AcDbBlockTableRecord
  2
SW_NOTE_7
340
0
102
{BLKREFS
331
555
102
}
  0
BLOCK_RECORD
  5
557
330
1
100
AcDbSymbolTableRecord
100
AcDbBlockTableRecord
  2
SW_NOTE_8
340
0
102
{BLKREFS
331
55B
102
}
  0
BLOCK_RECORD
  5
55D
330
1
100
AcDbSymbolTableRecord
100
AcDbBlockTableRecord
  2
SW_NOTE_9
340
0
102
{BLKREFS
331
562
102
}
  0
BLOCK_RECORD
  5
564
330
1
100
AcDbSymbolTableRecord
100
AcDbBlockTableRecord
  2
SW_NOTE_10
340
0
102
{BLKREFS
331
56A
102
}
  0
BLOCK_RECORD
  5
576
330
1
100
AcDbSymbolTableRecord
100
AcDbBlockTableRecord
  2
*D36
340
0
  0
BLOCK_RECORD
  5
584
330
1
100
AcDbSymbolTableRecord
100
AcDbBlockTableRecord
  2
*D37
340
0
  0
ENDTAB
  0
ENDSEC
  0
SECTION
  2
BLOCKS
  0
BLOCK
  5
20
330
1F
100
AcDbEntity
  8
0
100
AcDbBlockBegin
  2
*Model_Space
 70
     0
 10
0.0
 20
0.0
 30
0.0
  3
*Model_Space
  1

  0
ENDBLK
  5
21
330
1F
100
AcDbEntity
  8
0
100
AcDbBlockEnd
  0
BLOCK
  5
1C
330
1B
100
AcDbEntity
 67
     1
  8
0
100
AcDbBlockBegin
  2
*Paper_Space
 70
     0
 10
0.0
 20
0.0
 30
0.0
  3
*Paper_Space
  1

  0
ENDBLK
  5
1D
330
1B
100
AcDbEntity
 67
     1
  8
0
100
AcDbBlockEnd
  0
BLOCK
  5
24
330
23
100
AcDbEntity
  8
0
100
AcDbBlockBegin
  2
*Paper_Space0
 70
     0
 10
0.0
 20
0.0
 30
0.0
  3
*Paper_Space0
  1

  0
ENDBLK
  5
25
330
23
100
AcDbEntity
  8
0
100
AcDbBlockEnd
  0
BLOCK
  5
75
330
74
100
AcDbEntity
  8
0
100
AcDbBlockBegin
  2
SW_NOTE_0
 70
     0
 10
0.0
 20
0.0
 30
0.0
  3
SW_NOTE_0
  1

  0
MTEXT
  5
77
330
74
100
AcDbEntity
  8
0
  6
Continuous
 62
     0
370
     0
100
AcDbMText
 10
0.0
 20
0.161133467471496
 30
0.0
 40
0.125
 41
0.0
 71
     1
 72
     1
  1
MAXIMUM PC BOARD SIZE
  7
SLDTEXTSTYLE0
 73
     1
 44
1.0
  0
MTEXT
  5
78
330
74
100
AcDbEntity
  8
0
  6
Continuous
 62
     0
370
     0
100
AcDbMText
 10
0.0
 20
-0.0032366070447103
 30
0.0
 40
0.125
 41
0.0
 71
     1
 72
     1
  1
CUSTOMER SUPPLIED
  7
SLDTEXTSTYLE0
 73
     1
 44
1.0
  0
ENDBLK
  5
76
330
74
100
AcDbEntity
  8
0
100
AcDbBlockEnd
  0
BLOCK
  5
7C
330
7B
100
AcDbEntity
  8
0
100
AcDbBlockBegin
  2
SW_NOTE_1
 70
     0
 10
0.0
 20
0.0
 30
0.0
  3
SW_NOTE_1
  1

  0
MTEXT
  5
7E
330
7B
100
AcDbEntity
  8
0
  6
Continuous
 62
     0
370
     0
100
AcDbMText
 10
0.0
 20
0.1611334674714955
 30
0.0
 40
0.125
 41
0.0
 71
     1
 72
     1
  1
MATERIAL AND FINISH:
  7
SLDTEXTSTYLE0
 73
     1
 44
1.0
  0
MTEXT
  5
7F
330
7B
100
AcDbEntity
  8
0
  6
Continuous
 62
     0
370
     0
100
AcDbMText
 10
0.0
 20
-0.1676066815609171
 30
0.0
 40
0.125
 41
0.0
 71
     1
 72
     1
  1
BLACK HIGH-IMPACT ABS (UL94-HB) - TOP, BOTTOM,  AND END PANEL
  7
SLDTEXTSTYLE0
 73
     1
 44
1.0
  0
MTEXT
  5
80
330
7B
100
AcDbEntity
  8
0
  6
Continuous
 62
     0
370
     0
100
AcDbMText
 10
0.0
 20
-0.4963468305933298
 30
0.0
 40
0.125
 41
0.0
 71
     1
 72
     1
  1
TWO (2) M3 X .63 [16] LG SCREWS SUPPLIED FOR ASSEMBLY
  7
SLDTEXTSTYLE0
 73
     1
 44
1.0
  0
MTEXT
  5
81
330
7B
100
AcDbEntity
  8
0
  6
Continuous
 62
     0
370
     0
100
AcDbMText
 10
0.0
 20
-0.8250869796257422
 30
0.0
 40
0.125
 41
0.0
 71
     1
 72
     1
  1
OPTIONAL ACCESSORIES:
  7
SLDTEXTSTYLE0
 73
     1
 44
1.0
  0
MTEXT
  5
82
330
7B
100
AcDbEntity
  8
0
  6
Continuous
 62
     0
370
     0
100
AcDbMText
 10
0.0
 20
-0.9894570541419483
 30
0.0
 40
0.125
 41
0.0
 71
     1
 72
     1
  1
INFRARED PANELS P/N HP-3645
  7
SLDTEXTSTYLE0
 73
     1
 44
1.0
  0
MTEXT
  5
83
330
7B
100
AcDbEntity
  8
0
  6
Continuous
 62
     0
370
     0
100
AcDbMText
 10
0.0
 20
-1.153827128658154
 30
0.0
 40
0.125
 41
0.0
 71
     1
 72
     1
  1
BELT CLIP (BLACK) P/N HH-3595-BCB
  7
SLDTEXTSTYLE0
 73
     1
 44
1.0
  0
ENDBLK
  5
7D
330
7B
100
AcDbEntity
  8
0
100
AcDbBlockEnd
  0
BLOCK
  5
86
330
85
100
AcDbEntity
  8
0
100
AcDbBlockBegin
  2
SW_NOTE_2
 70
     0
 10
0.0
 20
0.0
 30
0.0
  3
SW_NOTE_2
  1

  0
MTEXT
  5
88
330
85
100
AcDbEntity
  8
0
  6
Continuous
 62
     0
370
     0
100
AcDbMText
 10
0.0
 20
0.2417002012072429
 30
0.0
 40
0.1875
 41
0.0
 71
     1
 72
     1
  1
PART
  7
SLDTEXTSTYLE0
 73
     1
 44
1.0
  0
MTEXT
  5
89
330
85
100
AcDbEntity
  8
0
  6
Continuous
 62
     0
370
     0
100
AcDbMText
 10
-0.0700303976695369
 20
-0.0082997957714587
 30
0.0
 40
0.1875
 41
0.0
 71
     1
 72
     1
  1
NAME
  7
SLDTEXTSTYLE0
 73
     1
 44
1.0
  0
ENDBLK
  5
87
330
85
100
AcDbEntity
  8
0
100
AcDbBlockEnd
  0
BLOCK
  5
8C
330
8B
100
AcDbEntity
  8
0
100
AcDbBlockBegin
  2
SW_NOTE_3
 70
     0
 10
0.0
 20
0.0
 30
0.0
  3
SW_NOTE_3
  1

  0
MTEXT
  5
8E
330
8B
100
AcDbEntity
  8
0
  6
Continuous
 62
     0
370
     0
100
AcDbMText
 10
0.0
 20
0.2417002012072429
 30
0.0
 40
0.1875
 41
0.0
 71
     1
 72
     1
  1
PART
  7
SLDTEXTSTYLE0
 73
     1
 44
1.0
  0
MTEXT
  5
8F
330
8B
100
AcDbEntity
  8
0
  6
Continuous
 62
     0
370
     0
100
AcDbMText
 10
0.0610242883755466
 20
-0.0082997957714587
 30
0.0
 40
0.1875
 41
0.0
 71
     1
 72
     1
  1
NO.
  7
SLDTEXTSTYLE0
 73
     1
 44
1.0
  0
ENDBLK
  5
8D
330
8B
100
AcDbEntity
  8
0
100
AcDbBlockEnd
  0
BLOCK
  5
92
330
91
100
AcDbEntity
  8
0
100
AcDbBlockBegin
  2
SW_NOTE_4
 70
     0
 10
0.0
 20
0.0
 30
0.0
  3
SW_NOTE_4
  1

  0
MTEXT
  5
94
330
91
100
AcDbEntity
  8
0
  6
Continuous
 62
     0
370
     0
100
AcDbMText
 10
0.0
 20
0.2417002012072429
 30
0.0
 40
0.1875
 41
0.0
 71
     1
 72
     1
  1
REVISION
  7
SLDTEXTSTYLE0
 73
     1
 44
1.0
  0
MTEXT
  5
95
330
91
100
AcDbEntity
  8
0
  6
Continuous
 62
     0
370
     0
100
AcDbMText
 10
0.2345486038078473
 20
-0.0082997957714587
 30
0.0
 40
0.1875
 41
0.0
 71
     1
 72
     1
  1
DATE
  7
SLDTEXTSTYLE0
 73
     1
 44
1.0
  0
ENDBLK
  5
93
330
91
100
AcDbEntity
  8
0
100
AcDbBlockEnd
  0
BLOCK
  5
F1
330
F0
100
AcDbEntity
  8
0
100
AcDbBlockBegin
  2
*D6
 70
     1
 10
0.0
 20
0.0
 30
0.0
  3
*D6
  1

  0
SOLID
  5
F3
330
F0
100
AcDbEntity
  8
0
  6
Continuous
 62
     7
370
     0
100
AcDbTrace
 10
8.076816653197186
 20
10.9456430462057
 30
0.0
 11
8.206816653197186
 21
10.9256430462057
 31
0.0
 12
8.206816653197186
 22
10.9656430462057
 32
0.0
 13
8.206816653197186
 23
10.9656430462057
 33
0.0
  0
SOLID
  5
F4
330
F0
100
AcDbEntity
  8
0
  6
Continuous
 62
     7
370
     0
100
AcDbTrace
 10
10.24217098390584
 20
10.9456430462057
 30
0.0
 11
10.11217098390584
 21
10.9656430462057
 31
0.0
 12
10.11217098390584
 22
10.9256430462057
 32
0.0
 13
10.11217098390584
 23
10.9256430462057
 33
0.0
  0
LINE
  5
F5
330
F0
100
AcDbEntity
  8
0
  6
Continuous
 62
     7
370
     0
100
AcDbLine
 10
9.278847091454805
 20
11.12909281337991
 30
0.0
 11
9.278847091454805
 21
10.96051735165226
 31
0.0
  0
LINE
  5
F6
330
F0
100
AcDbEntity
  8
0
  6
Continuous
 62
     7
370
     0
100
AcDbLine
 10
9.278847091454805
 20
10.96051735165226
 30
0.0
 11
9.304192198050914
 21
10.96051735165226
 31
0.0
  0
LINE
  5
F7
330
F0
100
AcDbEntity
  8
0
  6
Continuous
 62
     7
370
     0
100
AcDbLine
 10
9.278847091454805
 20
11.12909281337991
 30
0.0
 11
9.304192198050914
 21
11.12909281337991
 31
0.0
  0
LINE
  5
F8
330
F0
100
AcDbEntity
  8
0
  6
Continuous
 62
     7
370
     0
100
AcDbLine
 10
9.564797572000843
 20
11.1290928133799
 30
0.0
 11
9.564797572000843
 21
10.96051735165226
 31
0.0
  0
LINE
  5
F9
330
F0
100
AcDbEntity
  8
0
  6
Continuous
 62
     7
370
     0
100
AcDbLine
 10
9.564797572000843
 20
10.96051735165226
 30
0.0
 11
9.539452465404734
 21
10.96051735165226
 31
0.0
  0
LINE
  5
FA
330
F0
100
AcDbEntity
  8
0
  6
Continuous
 62
     7
370
     0
100
AcDbLine
 10
9.564797572000843
 20
11.1290928133799
 30
0.0
 11
9.539452465404734
 21
11.1290928133799
 31
0.0
  0
LINE
  5
FB
330
F0
100
AcDbEntity
  8
0
  6
Continuous
 62
     7
370
     0
100
AcDbLine
 10
8.076816653197186
 20
9.416434821428799
 30
0.0
 11
8.076816653197186
 21
11.0706430462057
 31
0.0
  0
LINE
  5
FC
330
F0
100
AcDbEntity
  8
0
  6
Continuous
 62
     7
370
     0
100
AcDbLine
 10
10.24217098390584
 20
9.416434821428797
 30
0.0
 11
10.24217098390584
 21
11.0706430462057
 31
0.0
  0
LINE
  5
FD
330
F0
100
AcDbEntity
  8
0
  6
Continuous
 62
     7
370
     0
100
AcDbLine
 10
8.076816653197186
 20
10.9456430462057
 30
0.0
 11
8.724807310795473
 21
10.9456430462057
 31
0.0
  0
LINE
  5
FE
330
F0
100
AcDbEntity
  8
0
  6
Continuous
 62
     7
370
     0
100
AcDbLine
 10
10.24217098390584
 20
10.9456430462057
 30
0.0
 11
9.703332891789173
 21
10.9456430462057
 31
0.0
  0
MTEXT
  5
FF
330
F0
100
AcDbEntity
  8
0
  6
Continuous
 62
     7
370
     0
100
AcDbMText
 10
8.81265241739158
 20
11.10677652742704
 30
-0.0000000000000864
 40
0.125
 41
0.0
 71
     1
 72
     1
  1
2.165
  7
SLDTEXTSTYLE0
 73
     1
 44
1.0
  0
MTEXT
  5
100
330
F0
100
AcDbEntity
  8
0
  6
Continuous
 62
     7
370
     0
100
AcDbMText
 10
9.329537304647024
 20
11.10677652742704
 30
-0.0000000000000864
 40
0.125
 41
0.0
 71
     1
 72
     1
  1
55
  7
SLDTEXTSTYLE0
 73
     1
 44
1.0
  0
MTEXT
  5
101
330
F0
100
AcDbEntity
  8
0
  6
Continuous
 62
     7
370
     0
100
AcDbMText
 10
8.939086001590762
 20
10.90845245480628
 30
-0.000000000000085
 40
0.125
 41
0.0
 71
     1
 72
     1
  1
RECESS
  7
SLDTEXTSTYLE0
 73
     1
 44
1.0
  0
ENDBLK
  5
F2
330
F0
100
AcDbEntity
  8
0
100
AcDbBlockEnd
  0
BLOCK
  5
104
330
103
100
AcDbEntity
  8
0
100
AcDbBlockBegin
  2
*D7
 70
     1
 10
0.0
 20
0.0
 30
0.0
  3
*D7
  1

  0
SOLID
  5
106
330
103
100
AcDbEntity
  8
0
  6
Continuous
 62
     7
370
     0
100
AcDbTrace
 10
11.42508598814174
 20
7.201080490720136
 30
0.0
 11
11.44508598814174
 21
7.331080490720136
 31
0.0
 12
11.40508598814174
 22
7.331080490720136
 32
0.0
 13
11.40508598814174
 23
7.331080490720136
 33
0.0
  0
SOLID
  5
107
330
103
100
AcDbEntity
  8
0
  6
Continuous
 62
     7
370
     0
100
AcDbTrace
 10
11.42508598814174
 20
9.366434821428798
 30
0.0
 11
11.40508598814174
 21
9.236434821428797
 31
0.0
 12
11.44508598814174
 22
9.236434821428797
 32
0.0
 13
11.44508598814174
 23
9.236434821428797
 33
0.0
  0
LINE
  5
108
330
103
100
AcDbEntity
  8
0
  6
Continuous
 62
     7
370
     0
100
AcDbLine
 10
11.48986297830422
 20
8.807879165791534
 30
0.0
 11
11.48986297830422
 21
8.639303704063891
 31
0.0
  0
LINE
  5
109
330
103
100
AcDbEntity
  8
0
  6
Continuous
 62
     7
370
     0
100
AcDbLine
 10
11.48986297830422
 20
8.639303704063891
 30
0.0
 11
11.51520808490033
 21
8.639303704063891
 31
0.0
  0
LINE
  5
10A
330
103
100
AcDbEntity
  8
0
  6
Continuous
 62
     7
370
     0
100
AcDbLine
 10
11.48986297830422
 20
8.807879165791534
 30
0.0
 11
11.51520808490033
 21
8.807879165791534
 31
0.0
  0
LINE
  5
10B
330
103
100
AcDbEntity
  8
0
  6
Continuous
 62
     7
370
     0
100
AcDbLine
 10
11.77581345885026
 20
8.807879165791534
 30
0.0
 11
11.77581345885026
 21
8.639303704063891
 31
0.0
  0
LINE
  5
10C
330
103
100
AcDbEntity
  8
0
  6
Continuous
 62
     7
370
     0
100
AcDbLine
 10
11.77581345885026
 20
8.639303704063891
 30
0.0
 11
11.75046835225415
 21
8.639303704063891
 31
0.0
  0
LINE
  5
10D
330
103
100
AcDbEntity
  8
0
  6
Continuous
 62
     7
370
     0
100
AcDbLine
 10
11.77581345885026
 20
8.807879165791534
 30
0.0
 11
11.75046835225415
 21
8.807879165791534
 31
0.0
  0
LINE
  5
10E
330
103
100
AcDbEntity
  8
0
  6
Continuous
 62
     7
370
     0
100
AcDbLine
 10
10.29217098390584
 20
7.201080490720136
 30
0.0
 11
11.55008598814174
 21
7.201080490720136
 31
0.0
  0
LINE
  5
10F
330
103
100
AcDbEntity
  8
0
  6
Continuous
 62
     7
370
     0
100
AcDbLine
 10
10.29217098390585
 20
9.366434821428798
 30
0.0
 11
11.55008598814174
 21
9.366434821428798
 31
0.0
  0
LINE
  5
110
330
103
100
AcDbEntity
  8
0
  6
Continuous
 62
     7
370
     0
100
AcDbLine
 10
11.42508598814174
 20
7.201080490720136
 30
0.0
 11
11.42508598814174
 21
8.426105325996575
 31
0.0
  0
LINE
  5
111
330
103
100
AcDbEntity
  8
0
  6
Continuous
 62
     7
370
     0
100
AcDbLine
 10
11.42508598814174
 20
9.366434821428798
 30
0.0
 11
11.42508598814174
 21
8.822753471238092
 31
0.0
  0
MTEXT
  5
112
330
103
100
AcDbEntity
  8
0
  6
Continuous
 62
     7
370
     0
100
AcDbMText
 10
11.023668304241
 20
8.785562879838671
 30
-0.0000000000000702
 40
0.125
 41
0.0
 71
     1
 72
     1
  1
2.165
  7
SLDTEXTSTYLE0
 73
     1
 44
1.0
  0
MTEXT
  5
113
330
103
100
AcDbEntity
  8
0
  6
Continuous
 62
     7
370
     0
100
AcDbMText
 10
11.54055319149644
 20
8.785562879838671
 30
-0.0000000000000702
 40
0.125
 41
0.0
 71
     1
 72
     1
  1
55
  7
SLDTEXTSTYLE0
 73
     1
 44
1.0
  0
MTEXT
  5
114
330
103
100
AcDbEntity
  8
0
  6
Continuous
 62
     7
370
     0
100
AcDbMText
 10
11.15010188844018
 20
8.587238807217913
 30
-0.0000000000000688
 40
0.125
 41
0.0
 71
     1
 72
     1
  1
RECESS
  7
SLDTEXTSTYLE0
 73
     1
 44
1.0
  0
ENDBLK
  5
105
330
103
100
AcDbEntity
  8
0
100
AcDbBlockEnd
  0
BLOCK
  5
117
330
116
100
AcDbEntity
  8
0
100
AcDbBlockBegin
  2
*D8
 70
     1
 10
0.0
 20
0.0
 30
0.0
  3
*D8
  1

  0
SOLID
  5
119
330
116
100
AcDbEntity
  8
0
  6
Continuous
 62
     7
370
     0
100
AcDbTrace
 10
7.855894599270476
 20
11.5015078382721
 30
0.0
 11
7.985894599270476
 21
11.4815078382721
 31
0.0
 12
7.985894599270476
 22
11.52150783827209
 32
0.0
 13
7.985894599270476
 23
11.52150783827209
 33
0.0
  0
SOLID
  5
11A
330
116
100
AcDbEntity
  8
0
  6
Continuous
 62
     7
370
     0
100
AcDbTrace
 10
10.46307989066568
 20
11.5015078382721
 30
0.0
 11
10.33307989066568
 21
11.52150783827209
 31
0.0
 12
10.33307989066568
 22
11.4815078382721
 32
0.0
 13
10.33307989066568
 23
11.4815078382721
 33
0.0
  0
LINE
  5
11B
330
116
100
AcDbEntity
  8
0
  6
Continuous
 62
     7
370
     0
100
AcDbLine
 10
8.988396792871981
 20
11.58579556913592
 30
0.0
 11
8.988396792871981
 21
11.41722010740827
 31
0.0
  0
LINE
  5
11C
330
116
100
AcDbEntity
  8
0
  6
Continuous
 62
     7
370
     0
100
AcDbLine
 10
8.988396792871981
 20
11.41722010740827
 30
0.0
 11
9.01374189946809
 21
11.41722010740827
 31
0.0
  0
LINE
  5
11D
330
116
100
AcDbEntity
  8
0
  6
Continuous
 62
     7
370
     0
100
AcDbLine
 10
8.988396792871981
 20
11.58579556913592
 30
0.0
 11
9.01374189946809
 21
11.58579556913592
 31
0.0
  0
LINE
  5
11E
330
116
100
AcDbEntity
  8
0
  6
Continuous
 62
     7
370
     0
100
AcDbLine
 10
9.505281680127424
 20
11.58579556913592
 30
0.0
 11
9.505281680127424
 21
11.41722010740827
 31
0.0
  0
LINE
  5
11F
330
116
100
AcDbEntity
  8
0
  6
Continuous
 62
     7
370
     0
100
AcDbLine
 10
9.505281680127424
 20
11.41722010740827
 30
0.0
 11
9.479936573531317
 21
11.41722010740827
 31
0.0
  0
LINE
  5
120
330
116
100
AcDbEntity
  8
0
  6
Continuous
 62
     7
370
     0
100
AcDbLine
 10
9.505281680127424
 20
11.58579556913592
 30
0.0
 11
9.479936573531317
 21
11.58579556913592
 31
0.0
  0
LINE
  5
121
330
116
100
AcDbEntity
  8
0
  6
Continuous
 62
     7
370
     0
100
AcDbLine
 10
7.855894599270476
 20
9.539042432027583
 30
0.0
 11
7.855894599270476
 21
11.62650783827209
 31
0.0
  0
LINE
  5
122
330
116
100
AcDbEntity
  8
0
  6
Continuous
 62
     7
370
     0
100
AcDbLine
 10
10.46307989066568
 20
9.539042432027585
 30
0.0
 11
10.46307989066568
 21
11.62650783827209
 31
0.0
  0
LINE
  5
123
330
116
100
AcDbEntity
  8
0
  6
Continuous
 62
     7
370
     0
100
AcDbLine
 10
7.855894599270476
 20
11.5015078382721
 30
0.0
 11
8.43435701221265
 21
11.5015078382721
 31
0.0
  0
LINE
  5
124
330
116
100
AcDbEntity
  8
0
  6
Continuous
 62
     7
370
     0
100
AcDbLine
 10
10.46307989066568
 20
11.5015078382721
 30
0.0
 11
9.643816999915753
 21
11.5015078382721
 31
0.0
  0
MTEXT
  5
125
330
116
100
AcDbEntity
  8
0
  6
Continuous
 62
     7
370
     0
100
AcDbMText
 10
8.522202118808756
 20
11.56347928318305
 30
-0.0000000000000896
 40
0.125
 41
0.0
 71
     1
 72
     1
  1
2.607
  7
SLDTEXTSTYLE0
 73
     1
 44
1.0
  0
MTEXT
  5
126
330
116
100
AcDbEntity
  8
0
  6
Continuous
 62
     7
370
     0
100
AcDbMText
 10
9.0390870060642
 20
11.56347928318305
 30
-0.0000000000000896
 40
0.125
 41
0.0
 71
     1
 72
     1
  1
66.22
  7
SLDTEXTSTYLE0
 73
     1
 44
1.0
  0
ENDBLK
  5
118
330
116
100
AcDbEntity
  8
0
100
AcDbBlockEnd
  0
BLOCK
  5
129
330
128
100
AcDbEntity
  8
0
100
AcDbBlockBegin
  2
*D9
 70
     1
 10
0.0
 20
0.0
 30
0.0
  3
*D9
  1

  0
SOLID
  5
12B
330
128
100
AcDbEntity
  8
0
  6
Continuous
 62
     7
370
     0
100
AcDbTrace
 10
6.868568736677461
 20
9.606993303875809
 30
0.0
 11
6.848574258560167
 21
9.476992454475441
 31
0.0
 12
6.888574258524083
 22
9.476994153510721
 32
0.0
 13
6.888574258524083
 23
9.476994153510721
 33
0.0
  0
SOLID
  5
12C
330
128
100
AcDbEntity
  8
0
  6
Continuous
 62
     7
370
     0
100
AcDbTrace
 10
6.868681151451257
 20
6.96043793374044
 30
0.0
 11
6.888675629568551
 21
7.090438783140807
 31
0.0
 12
6.848675629604635
 22
7.090437084105526
 32
0.0
 13
6.848675629604635
 23
7.090437084105526
 33
0.0
  0
LINE
  5
12D
330
128
100
AcDbEntity
  8
0
  6
Continuous
 62
     7
370
     0
100
AcDbLine
 10
6.817935913207988
 20
8.340167886565593
 30
0.0
 11
6.817935913207988
 21
8.17159242483795
 31
0.0
  0
LINE
  5
12E
330
128
100
AcDbEntity
  8
0
  6
Continuous
 62
     7
370
     0
100
AcDbLine
 10
6.817935913207988
 20
8.17159242483795
 30
0.0
 11
6.843281019804097
 21
8.17159242483795
 31
0.0
  0
LINE
  5
12F
330
128
100
AcDbEntity
  8
0
  6
Continuous
 62
     7
370
     0
100
AcDbLine
 10
6.817935913207988
 20
8.340167886565593
 30
0.0
 11
6.843281019804097
 21
8.340167886565593
 31
0.0
  0
LINE
  5
130
330
128
100
AcDbEntity
  8
0
  6
Continuous
 62
     7
370
     0
100
AcDbLine
 10
7.334820800463432
 20
8.340167886565593
 30
0.0
 11
7.334820800463432
 21
8.17159242483795
 31
0.0
  0
LINE
  5
131
330
128
100
AcDbEntity
  8
0
  6
Continuous
 62
     7
370
     0
100
AcDbLine
 10
7.334820800463432
 20
8.17159242483795
 30
0.0
 11
7.309475693867323
 21
8.17159242483795
 31
0.0
  0
LINE
  5
132
330
128
100
AcDbEntity
  8
0
  6
Continuous
 62
     7
370
     0
100
AcDbLine
 10
7.334820800463432
 20
8.340167886565593
 30
0.0
 11
7.309475693867323
 21
8.340167886565593
 31
0.0
  0
LINE
  5
133
330
128
100
AcDbEntity
  8
0
  6
Continuous
 62
     7
370
     0
100
AcDbLine
 10
7.923892420762258
 20
9.607038129680159
 30
0.0
 11
6.743568736790224
 21
9.606987994390554
 31
0.0
  0
LINE
  5
134
330
128
100
AcDbEntity
  8
0
  6
Continuous
 62
     7
370
     0
100
AcDbLine
 10
7.924004835536055
 20
6.960482759544791
 30
0.0
 11
6.74368115156402
 21
6.960432624255186
 31
0.0
  0
LINE
  5
135
330
128
100
AcDbEntity
  8
0
  6
Continuous
 62
     7
370
     0
100
AcDbLine
 10
6.868568736677461
 20
9.606993303875809
 30
0.0
 11
6.868621914405247
 21
8.355042192012151
 31
0.0
  0
LINE
  5
136
330
128
100
AcDbEntity
  8
0
  6
Continuous
 62
     7
370
     0
100
AcDbLine
 10
6.868681151451257
 20
6.96043793374044
 30
0.0
 11
6.868630338395167
 21
8.156718119391394
 31
0.0
  0
MTEXT
  5
137
330
128
100
AcDbEntity
  8
0
  6
Continuous
 62
     7
370
     0
100
AcDbMText
 10
6.351741239144762
 20
8.31785160061273
 30
-0.0000000000000669
 40
0.125
 41
0.0
 71
     1
 72
     1
  1
2.647
  7
SLDTEXTSTYLE0
 73
     1
 44
1.0
  0
MTEXT
  5
138
330
128
100
AcDbEntity
  8
0
  6
Continuous
 62
     7
370
     0
100
AcDbMText
 10
6.868626126400207
 20
8.31785160061273
 30
-0.0000000000000669
 40
0.125
 41
0.0
 71
     1
 72
     1
  1
67.22
  7
SLDTEXTSTYLE0
 73
     1
 44
1.0
  0
ENDBLK
  5
12A
330
128
100
AcDbEntity
  8
0
100
AcDbBlockEnd
  0
BLOCK
  5
27B
330
27A
100
AcDbEntity
  8
0
100
AcDbBlockBegin
  2
*D10
 70
     1
 10
0.0
 20
0.0
 30
0.0
  3
*D10
  1

  0
SOLID
  5
27D
330
27A
100
AcDbEntity
  8
0
  6
Continuous
 62
     7
370
     0
100
AcDbTrace
 10
14.8267735050158
 20
10.19247054530272
 30
0.0
 11
14.95677350501581
 21
10.17247054530272
 31
0.0
 12
14.95677350501581
 22
10.21247054530272
 32
0.0
 13
14.95677350501581
 23
10.21247054530272
 33
0.0
  0
SOLID
  5
27E
330
27A
100
AcDbEntity
  8
0
  6
Continuous
 62
     7
370
     0
100
AcDbTrace
 10
17.16149073624402
 20
10.19247054530272
 30
0.0
 11
17.03149073624402
 21
10.21247054530272
 31
0.0
 12
17.03149073624402
 22
10.17247054530272
 32
0.0
 13
17.03149073624402
 23
10.17247054530272
 33
0.0
  0
LINE
  5
27F
330
27A
100
AcDbEntity
  8
0
  6
Continuous
 62
     7
370
     0
100
AcDbLine
 10
16.11937082925589
 20
10.27675827616654
 30
0.0
 11
16.11937082925589
 21
10.1081828144389
 31
0.0
  0
LINE
  5
280
330
27A
100
AcDbEntity
  8
0
  6
Continuous
 62
     7
370
     0
100
AcDbLine
 10
16.11937082925589
 20
10.1081828144389
 30
0.0
 11
16.14471593585199
 21
10.1081828144389
 31
0.0
  0
LINE
  5
281
330
27A
100
AcDbEntity
  8
0
  6
Continuous
 62
     7
370
     0
100
AcDbLine
 10
16.11937082925589
 20
10.27675827616654
 30
0.0
 11
16.14471593585199
 21
10.27675827616654
 31
0.0
  0
LINE
  5
282
330
27A
100
AcDbEntity
  8
0
  6
Continuous
 62
     7
370
     0
100
AcDbLine
 10
16.63625571651133
 20
10.27675827616654
 30
0.0
 11
16.63625571651133
 21
10.1081828144389
 31
0.0
  0
LINE
  5
283
330
27A
100
AcDbEntity
  8
0
  6
Continuous
 62
     7
370
     0
100
AcDbLine
 10
16.63625571651133
 20
10.1081828144389
 30
0.0
 11
16.61091060991522
 21
10.1081828144389
 31
0.0
  0
LINE
  5
284
330
27A
100
AcDbEntity
  8
0
  6
Continuous
 62
     7
370
     0
100
AcDbLine
 10
16.63625571651133
 20
10.27675827616654
 30
0.0
 11
16.61091060991522
 21
10.27675827616654
 31
0.0
  0
LINE
  5
285
330
27A
100
AcDbEntity
  8
0
  6
Continuous
 62
     7
370
     0
100
AcDbLine
 10
14.8267735050158
 20
9.272276979672655
 30
0.0
 11
14.8267735050158
 21
10.31747054530272
 31
0.0
  0
LINE
  5
286
330
27A
100
AcDbEntity
  8
0
  6
Continuous
 62
     7
370
     0
100
AcDbLine
 10
17.16149073624402
 20
9.27227697967263
 30
0.0
 11
17.16149073624402
 21
10.31747054530272
 31
0.0
  0
LINE
  5
287
330
27A
100
AcDbEntity
  8
0
  6
Continuous
 62
     7
370
     0
100
AcDbLine
 10
14.8267735050158
 20
10.19247054530272
 30
0.0
 11
15.56533104859655
 21
10.19247054530272
 31
0.0
  0
LINE
  5
288
330
27A
100
AcDbEntity
  8
0
  6
Continuous
 62
     7
370
     0
100
AcDbLine
 10
17.16149073624402
 20
10.19247054530272
 30
0.0
 11
16.77479103629966
 21
10.19247054530272
 31
0.0
  0
MTEXT
  5
289
330
27A
100
AcDbEntity
  8
0
  6
Continuous
 62
     7
370
     0
100
AcDbMText
 10
15.65317615519266
 20
10.25444199021368
 30
-0.0000000000000804
 40
0.125
 41
0.0
 71
     1
 72
     1
  1
2.335
  7
SLDTEXTSTYLE0
 73
     1
 44
1.0
  0
MTEXT
  5
28A
330
27A
100
AcDbEntity
  8
0
  6
Continuous
 62
     7
370
     0
100
AcDbMText
 10
16.17006104244811
 20
10.25444199021368
 30
-0.0000000000000804
 40
0.125
 41
0.0
 71
     1
 72
     1
  1
59.30
  7
SLDTEXTSTYLE0
 73
     1
 44
1.0
  0
ENDBLK
  5
27C
330
27A
100
AcDbEntity
  8
0
100
AcDbBlockEnd
  0
BLOCK
  5
28E
330
28D
100
AcDbEntity
  8
0
100
AcDbBlockBegin
  2
*D11
 70
     1
 10
0.0
 20
0.0
 30
0.0
  3
*D11
  1

  0
SOLID
  5
290
330
28D
100
AcDbEntity
  8
0
  6
Continuous
 62
     7
370
     0
100
AcDbTrace
 10
15.40033476898077
 20
7.550776204856778
 30
0.0
 11
15.2777574952388
 21
7.503081216000642
 31
0.0
 12
15.29776187448999
 22
7.468442728580218
 32
0.0
 13
15.29776187448999
 23
7.468442728580218
 33
0.0
  0
LINE
  5
291
330
28D
100
AcDbEntity
  8
0
  6
Continuous
 62
     7
370
     0
100
AcDbLine
 10
12.6386120229965
 20
7.17454519948087
 30
0.0
 11
12.6386120229965
 21
7.005969737753226
 31
0.0
  0
LINE
  5
292
330
28D
100
AcDbEntity
  8
0
  6
Continuous
 62
     7
370
     0
100
AcDbLine
 10
12.6386120229965
 20
7.005969737753226
 30
0.0
 11
12.66395712959261
 21
7.005969737753226
 31
0.0
  0
LINE
  5
293
330
28D
100
AcDbEntity
  8
0
  6
Continuous
 62
     7
370
     0
100
AcDbLine
 10
12.6386120229965
 20
7.17454519948087
 30
0.0
 11
12.66395712959261
 21
7.17454519948087
 31
0.0
  0
LINE
  5
294
330
28D
100
AcDbEntity
  8
0
  6
Continuous
 62
     7
370
     0
100
AcDbLine
 10
13.06321188317114
 20
7.17454519948087
 30
0.0
 11
13.06321188317114
 21
7.005969737753226
 31
0.0
  0
LINE
  5
295
330
28D
100
AcDbEntity
  8
0
  6
Continuous
 62
     7
370
     0
100
AcDbLine
 10
13.06321188317114
 20
7.005969737753226
 30
0.0
 11
13.03786677657504
 21
7.005969737753226
 31
0.0
  0
LINE
  5
296
330
28D
100
AcDbEntity
  8
0
  6
Continuous
 62
     7
370
     0
100
AcDbLine
 10
13.06321188317114
 20
7.17454519948087
 30
0.0
 11
13.03786677657504
 21
7.17454519948087
 31
0.0
  0
LINE
  5
297
330
28D
100
AcDbEntity
  8
0
  6
Continuous
 62
     7
370
     0
100
AcDbLine
 10
15.40033476898077
 20
7.550776204856778
 30
0.0
 11
14.08781509694367
 21
6.792771359685911
 31
0.0
  0
LINE
  5
298
330
28D
100
AcDbEntity
  8
0
  6
Continuous
 62
     7
370
     0
100
AcDbLine
 10
14.08781509694367
 20
6.792771359685911
 30
0.0
 11
13.83781509694367
 21
6.792771359685911
 31
0.0
  0
MTEXT
  5
299
330
28D
100
AcDbEntity
  8
0
  6
Continuous
 62
     7
370
     0
100
AcDbMText
 10
12.07636105872658
 20
7.152228897486525
 30
-0.0000000000000587
 40
0.125
 41
0.0
 71
     1
 72
     1
  1
%%c
  7
SLDTEXTSTYLE0
 73
     1
 44
1.0
  0
MTEXT
  5
29A
330
28D
100
AcDbEntity
  8
0
  6
Continuous
 62
     7
370
     0
100
AcDbMText
 10
12.26470237601408
 20
7.152228913528007
 30
-0.0000000000000587
 40
0.125
 41
0.0
 71
     1
 72
     1
  1
.098
  7
SLDTEXTSTYLE0
 73
     1
 44
1.0
  0
MTEXT
  5
29B
330
28D
100
AcDbEntity
  8
0
  6
Continuous
 62
     7
370
     0
100
AcDbMText
 10
12.68930223618872
 20
7.152228913528007
 30
-0.0000000000000587
 40
0.125
 41
0.0
 71
     1
 72
     1
  1
2.50
  7
SLDTEXTSTYLE0
 73
     1
 44
1.0
  0
MTEXT
  5
29C
330
28D
100
AcDbEntity
  8
0
  6
Continuous
 62
     7
370
     0
100
AcDbMText
 10
11.74114766851435
 20
6.953904840907249
 30
-0.0000000000000574
 40
0.125
 41
0.0
 71
     1
 72
     1
  1
MOUNTING HOLE TYP.
  7
SLDTEXTSTYLE0
 73
     1
 44
1.0
  0
MTEXT
  5
29D
330
28D
100
AcDbEntity
  8
0
  6
Continuous
 62
     7
370
     0
100
AcDbMText
 10
11.43057305814627
 20
6.75558076828649
 30
-0.000000000000056
 40
0.125
 41
0.0
 71
     1
 72
     1
  1
FOR M2.5 OR #4 SHEET METAL
  7
SLDTEXTSTYLE0
 73
     1
 44
1.0
  0
MTEXT
  5
29E
330
28D
100
AcDbEntity
  8
0
  6
Continuous
 62
     7
370
     0
100
AcDbMText
 10
12.32624805054707
 20
6.557256695665732
 30
-0.0000000000000546
 40
0.125
 41
0.0
 71
     1
 72
     1
  1
SCREW
  7
SLDTEXTSTYLE0
 73
     1
 44
1.0
  0
ENDBLK
  5
28F
330
28D
100
AcDbEntity
  8
0
100
AcDbBlockEnd
  0
BLOCK
  5
2A0
330
29F
100
AcDbEntity
  8
0
100
AcDbBlockBegin
  2
SW_NOTE_5
 70
     0
 10
0.0
 20
0.0
 30
0.0
  3
SW_NOTE_5
  1

  0
MTEXT
  5
2A2
330
29F
100
AcDbEntity
  8
0
  6
Continuous
 62
     0
370
     0
100
AcDbMText
 10
-1.013685805645109
 20
0.389638729167046
 30
0.0
 40
0.125
 41
0.0
 71
     1
 72
     1
  1
MOUNTING BOSS
  7
SLDTEXTSTYLE0
 73
     1
 44
1.0
  0
MTEXT
  5
2A3
330
29F
100
AcDbEntity
  8
0
  6
Continuous
 62
     0
370
     0
100
AcDbMText
 10
-1.013685805645109
 20
0.2252686546508397
 30
0.0
 40
0.125
 41
0.0
 71
     1
 72
     1
  1
FOR BELT CLIP
  7
SLDTEXTSTYLE0
 73
     1
 44
1.0
  0
MTEXT
  5
2A4
330
29F
100
AcDbEntity
  8
0
  6
Continuous
 62
     0
370
     0
100
AcDbMText
 10
-1.013685805645109
 20
0.0608985801346334
 30
0.0
 40
0.125
 41
0.0
 71
     1
 72
     1
  1
ACCESSORY
  7
SLDTEXTSTYLE0
 73
     1
 44
1.0
  0
ENDBLK
  5
2A1
330
29F
100
AcDbEntity
  8
0
100
AcDbBlockEnd
  0
BLOCK
  5
2BB
330
2BA
100
AcDbEntity
  8
0
100
AcDbBlockBegin
  2
*D13
 70
     1
 10
0.0
 20
0.0
 30
0.0
  3
*D13
  1

  0
SOLID
  5
2BD
330
2BA
100
AcDbEntity
  8
0
  6
Continuous
 62
     7
370
     0
100
AcDbTrace
 10
24.12118094630291
 20
9.325113794727251
 30
0.0
 11
24.10118094630291
 21
9.19511379472725
 31
0.0
 12
24.14118094630291
 22
9.19511379472725
 32
0.0
 13
24.14118094630291
 23
9.19511379472725
 33
0.0
  0
SOLID
  5
2BE
330
2BA
100
AcDbEntity
  8
0
  6
Continuous
 62
     7
370
     0
100
AcDbTrace
 10
24.12118094630291
 20
7.055035054569771
 30
0.0
 11
24.14118094630291
 21
7.18503505456977
 31
0.0
 12
24.10118094630291
 22
7.18503505456977
 32
0.0
 13
24.10118094630291
 23
7.18503505456977
 33
0.0
  0
LINE
  5
2BF
330
2BA
100
AcDbEntity
  8
0
  6
Continuous
 62
     7
370
     0
100
AcDbLine
 10
24.07049073311069
 20
8.491579541257618
 30
0.0
 11
24.07049073311069
 21
8.323004079529974
 31
0.0
  0
LINE
  5
2C0
330
2BA
100
AcDbEntity
  8
0
  6
Continuous
 62
     7
370
     0
100
AcDbLine
 10
24.07049073311069
 20
8.323004079529974
 30
0.0
 11
24.0958358397068
 21
8.323004079529974
 31
0.0
  0
LINE
  5
2C1
330
2BA
100
AcDbEntity
  8
0
  6
Continuous
 62
     7
370
     0
100
AcDbLine
 10
24.07049073311069
 20
8.491579541257618
 30
0.0
 11
24.0958358397068
 21
8.491579541257618
 31
0.0
  0
LINE
  5
2C2
330
2BA
100
AcDbEntity
  8
0
  6
Continuous
 62
     7
370
     0
100
AcDbLine
 10
24.58737562036613
 20
8.491579541257618
 30
0.0
 11
24.58737562036613
 21
8.323004079529974
 31
0.0
  0
LINE
  5
2C3
330
2BA
100
AcDbEntity
  8
0
  6
Continuous
 62
     7
370
     0
100
AcDbLine
 10
24.58737562036613
 20
8.323004079529974
 30
0.0
 11
24.56203051377002
 21
8.323004079529974
 31
0.0
  0
LINE
  5
2C4
330
2BA
100
AcDbEntity
  8
0
  6
Continuous
 62
     7
370
     0
100
AcDbLine
 10
24.58737562036613
 20
8.491579541257618
 30
0.0
 11
24.56203051377002
 21
8.491579541257618
 31
0.0
  0
LINE
  5
2C5
330
2BA
100
AcDbEntity
  8
0
  6
Continuous
 62
     7
370
     0
100
AcDbLine
 10
22.59637779669661
 20
9.325113794727251
 30
0.0
 11
24.24618094630291
 21
9.325113794727251
 31
0.0
  0
LINE
  5
2C6
330
2BA
100
AcDbEntity
  8
0
  6
Continuous
 62
     7
370
     0
100
AcDbLine
 10
22.59637779669661
 20
7.055035054569771
 30
0.0
 11
24.24618094630291
 21
7.055035054569771
 31
0.0
  0
LINE
  5
2C7
330
2BA
100
AcDbEntity
  8
0
  6
Continuous
 62
     7
370
     0
100
AcDbLine
 10
24.12118094630291
 20
9.325113794727251
 30
0.0
 11
24.12118094630291
 21
8.506453846704177
 31
0.0
  0
LINE
  5
2C8
330
2BA
100
AcDbEntity
  8
0
  6
Continuous
 62
     7
370
     0
100
AcDbLine
 10
24.12118094630291
 20
7.055035054569771
 30
0.0
 11
24.12118094630291
 21
8.308129774083418
 31
0.0
  0
MTEXT
  5
2C9
330
2BA
100
AcDbEntity
  8
0
  6
Continuous
 62
     7
370
     0
100
AcDbMText
 10
23.60429605904746
 20
8.469263255304753
 30
-0.0000000000000679
 40
0.125
 41
0.0
 71
     1
 72
     1
  1
2.270
  7
SLDTEXTSTYLE0
 73
     1
 44
1.0
  0
MTEXT
  5
2CA
330
2BA
100
AcDbEntity
  8
0
  6
Continuous
 62
     7
370
     0
100
AcDbMText
 10
24.12118094630291
 20
8.469263255304753
 30
-0.0000000000000679
 40
0.125
 41
0.0
 71
     1
 72
     1
  1
57.66
  7
SLDTEXTSTYLE0
 73
     1
 44
1.0
  0
ENDBLK
  5
2BC
330
2BA
100
AcDbEntity
  8
0
100
AcDbBlockEnd
  0
BLOCK
  5
2CD
330
2CC
100
AcDbEntity
  8
0
100
AcDbBlockBegin
  2
*D14
 70
     1
 10
0.0
 20
0.0
 30
0.0
  3
*D14
  1

  0
SOLID
  5
2CF
330
2CC
100
AcDbEntity
  8
0
  6
Continuous
 62
     7
370
     0
100
AcDbTrace
 10
19.67551165496432
 20
8.741255527010716
 30
0.0
 11
19.65551165496432
 21
8.611255527010715
 31
0.0
 12
19.69551165496432
 22
8.611255527010715
 32
0.0
 13
19.69551165496432
 23
8.611255527010715
 33
0.0
  0
SOLID
  5
2D0
330
2CC
100
AcDbEntity
  8
0
  6
Continuous
 62
     7
370
     0
100
AcDbTrace
 10
19.67551165496432
 20
7.638893322286306
 30
0.0
 11
19.69551165496432
 21
7.768893322286306
 31
0.0
 12
19.65551165496432
 22
7.768893322286306
 32
0.0
 13
19.65551165496432
 23
7.768893322286306
 33
0.0
  0
LINE
  5
2D1
330
2CC
100
AcDbEntity
  8
0
  6
Continuous
 62
     7
370
     0
100
AcDbLine
 10
19.7402886451268
 20
8.18533956335645
 30
0.0
 11
19.7402886451268
 21
8.016764101628808
 31
0.0
  0
LINE
  5
2D2
330
2CC
100
AcDbEntity
  8
0
  6
Continuous
 62
     7
370
     0
100
AcDbLine
 10
19.7402886451268
 20
8.016764101628808
 30
0.0
 11
19.76563375172291
 21
8.016764101628808
 31
0.0
  0
LINE
  5
2D3
330
2CC
100
AcDbEntity
  8
0
  6
Continuous
 62
     7
370
     0
100
AcDbLine
 10
19.7402886451268
 20
8.18533956335645
 30
0.0
 11
19.76563375172291
 21
8.18533956335645
 31
0.0
  0
LINE
  5
2D4
330
2CC
100
AcDbEntity
  8
0
  6
Continuous
 62
     7
370
     0
100
AcDbLine
 10
20.02623912567284
 20
8.18533956335645
 30
0.0
 11
20.02623912567284
 21
8.016764101628808
 31
0.0
  0
LINE
  5
2D5
330
2CC
100
AcDbEntity
  8
0
  6
Continuous
 62
     7
370
     0
100
AcDbLine
 10
20.02623912567284
 20
8.016764101628808
 30
0.0
 11
20.00089401907673
 21
8.016764101628808
 31
0.0
  0
LINE
  5
2D6
330
2CC
100
AcDbEntity
  8
0
  6
Continuous
 62
     7
370
     0
100
AcDbLine
 10
20.02623912567284
 20
8.18533956335645
 30
0.0
 11
20.00089401907673
 21
8.18533956335645
 31
0.0
  0
LINE
  5
2D7
330
2CC
100
AcDbEntity
  8
0
  6
Continuous
 62
     7
370
     0
100
AcDbLine
 10
20.66783448960999
 20
8.741255527010716
 30
0.0
 11
19.55051165496432
 21
8.741255527010716
 31
0.0
  0
LINE
  5
2D8
330
2CC
100
AcDbEntity
  8
0
  6
Continuous
 62
     7
370
     0
100
AcDbLine
 10
20.66783448960999
 20
7.638893322286306
 30
0.0
 11
19.55051165496432
 21
7.638893322286306
 31
0.0
  0
LINE
  5
2D9
330
2CC
100
AcDbEntity
  8
0
  6
Continuous
 62
     7
370
     0
100
AcDbLine
 10
19.67551165496432
 20
8.741255527010716
 30
0.0
 11
19.67551165496432
 21
8.200213868803007
 31
0.0
  0
LINE
  5
2DA
330
2CC
100
AcDbEntity
  8
0
  6
Continuous
 62
     7
370
     0
100
AcDbLine
 10
19.67551165496432
 20
7.638893322286306
 30
0.0
 11
19.67551165496432
 21
8.001889796182251
 31
0.0
  0
MTEXT
  5
2DB
330
2CC
100
AcDbEntity
  8
0
  6
Continuous
 62
     7
370
     0
100
AcDbMText
 10
19.27409397106358
 20
8.163023277403587
 30
-0.0000000000000658
 40
0.125
 41
0.0
 71
     1
 72
     1
  1
1.102
  7
SLDTEXTSTYLE0
 73
     1
 44
1.0
  0
MTEXT
  5
2DC
330
2CC
100
AcDbEntity
  8
0
  6
Continuous
 62
     7
370
     0
100
AcDbMText
 10
19.79097885831902
 20
8.163023277403587
 30
-0.0000000000000658
 40
0.125
 41
0.0
 71
     1
 72
     1
  1
28
  7
SLDTEXTSTYLE0
 73
     1
 44
1.0
  0
ENDBLK
  5
2CE
330
2CC
100
AcDbEntity
  8
0
100
AcDbBlockEnd
  0
BLOCK
  5
2DF
330
2DE
100
AcDbEntity
  8
0
100
AcDbBlockBegin
  2
*D15
 70
     1
 10
0.0
 20
0.0
 30
0.0
  3
*D15
  1

  0
SOLID
  5
2E1
330
2DE
100
AcDbEntity
  8
0
  6
Continuous
 62
     7
370
     0
100
AcDbTrace
 10
19.67551165496432
 20
8.741255527010716
 30
0.0
 11
19.69551165496432
 21
8.871255527010717
 31
0.0
 12
19.65551165496432
 22
8.871255527010717
 32
0.0
 13
19.65551165496432
 23
8.871255527010717
 33
0.0
  0
SOLID
  5
2E2
330
2DE
100
AcDbEntity
  8
0
  6
Continuous
 62
     7
370
     0
100
AcDbTrace
 10
19.67551165496432
 20
9.325113794727251
 30
0.0
 11
19.65551165496432
 21
9.19511379472725
 31
0.0
 12
19.69551165496432
 22
9.19511379472725
 32
0.0
 13
19.69551165496432
 23
9.19511379472725
 33
0.0
  0
LINE
  5
2E3
330
2DE
100
AcDbEntity
  8
0
  6
Continuous
 62
     7
370
     0
100
AcDbLine
 10
18.77009144792055
 20
10.38578313176628
 30
0.0
 11
18.77009144792055
 21
10.21720767003864
 31
0.0
  0
LINE
  5
2E4
330
2DE
100
AcDbEntity
  8
0
  6
Continuous
 62
     7
370
     0
100
AcDbLine
 10
18.77009144792055
 20
10.21720767003864
 30
0.0
 11
18.79543655451666
 21
10.21720767003864
 31
0.0
  0
LINE
  5
2E5
330
2DE
100
AcDbEntity
  8
0
  6
Continuous
 62
     7
370
     0
100
AcDbLine
 10
18.77009144792055
 20
10.38578313176628
 30
0.0
 11
18.79543655451666
 21
10.38578313176628
 31
0.0
  0
LINE
  5
2E6
330
2DE
100
AcDbEntity
  8
0
  6
Continuous
 62
     7
370
     0
100
AcDbLine
 10
19.28697633517599
 20
10.38578313176628
 30
0.0
 11
19.28697633517599
 21
10.21720767003864
 31
0.0
  0
LINE
  5
2E7
330
2DE
100
AcDbEntity
  8
0
  6
Continuous
 62
     7
370
     0
100
AcDbLine
 10
19.28697633517599
 20
10.21720767003864
 30
0.0
 11
19.26163122857989
 21
10.21720767003864
 31
0.0
  0
LINE
  5
2E8
330
2DE
100
AcDbEntity
  8
0
  6
Continuous
 62
     7
370
     0
100
AcDbLine
 10
19.28697633517599
 20
10.38578313176628
 30
0.0
 11
19.26163122857989
 21
10.38578313176628
 31
0.0
  0
LINE
  5
2E9
330
2DE
100
AcDbEntity
  8
0
  6
Continuous
 62
     7
370
     0
100
AcDbLine
 10
20.66783448960999
 20
8.741255527010716
 30
0.0
 11
19.55051165496432
 21
8.741255527010716
 31
0.0
  0
LINE
  5
2EA
330
2DE
100
AcDbEntity
  8
0
  6
Continuous
 62
     7
370
     0
100
AcDbLine
 10
20.26763763921629
 20
9.325113794727251
 30
0.0
 11
19.55051165496432
 21
9.325113794727251
 31
0.0
  0
LINE
  5
2EB
330
2DE
100
AcDbEntity
  8
0
  6
Continuous
 62
     7
370
     0
100
AcDbLine
 10
19.42551165496432
 20
10.30149540090246
 30
0.0
 11
19.67551165496432
 21
10.30149540090246
 31
0.0
  0
LINE
  5
2EC
330
2DE
100
AcDbEntity
  8
0
  6
Continuous
 62
     7
370
     0
100
AcDbLine
 10
19.67551165496432
 20
10.30149540090246
 30
0.0
 11
19.67551165496432
 21
9.325113794727251
 31
0.0
  0
LINE
  5
2ED
330
2DE
100
AcDbEntity
  8
0
  6
Continuous
 62
     7
370
     0
100
AcDbLine
 10
19.67551165496432
 20
8.741255527010716
 30
0.0
 11
19.67551165496432
 21
9.325113794727251
 31
0.0
  0
MTEXT
  5
2EE
330
2DE
100
AcDbEntity
  8
0
  6
Continuous
 62
     7
370
     0
100
AcDbMText
 10
18.39618180093812
 20
10.36346684581342
 30
-0.0000000000000812
 40
0.125
 41
0.0
 71
     1
 72
     1
  1
.584
  7
SLDTEXTSTYLE0
 73
     1
 44
1.0
  0
MTEXT
  5
2EF
330
2DE
100
AcDbEntity
  8
0
  6
Continuous
 62
     7
370
     0
100
AcDbMText
 10
18.82078166111277
 20
10.36346684581342
 30
-0.0000000000000812
 40
0.125
 41
0.0
 71
     1
 72
     1
  1
14.83
  7
SLDTEXTSTYLE0
 73
     1
 44
1.0
  0
ENDBLK
  5
2E0
330
2DE
100
AcDbEntity
  8
0
100
AcDbBlockEnd
  0
BLOCK
  5
2F2
330
2F1
100
AcDbEntity
  8
0
100
AcDbBlockBegin
  2
*D16
 70
     1
 10
0.0
 20
0.0
 30
0.0
  3
*D16
  1

  0
SOLID
  5
2F4
330
2F1
100
AcDbEntity
  8
0
  6
Continuous
 62
     7
370
     0
100
AcDbTrace
 10
20.83097903061716
 20
7.600380646347486
 30
0.0
 11
20.71587830251014
 21
7.536726719608966
 31
0.0
 12
20.74033385173129
 22
7.50507350314852
 32
0.0
 13
20.74033385173129
 23
7.50507350314852
 33
0.0
  0
LINE
  5
2F5
330
2F1
100
AcDbEntity
  8
0
  6
Continuous
 62
     7
370
     0
100
AcDbLine
 10
19.01033068309302
 20
6.985835164170325
 30
0.0
 11
19.01033068309302
 21
6.817259702442681
 31
0.0
  0
LINE
  5
2F6
330
2F1
100
AcDbEntity
  8
0
  6
Continuous
 62
     7
370
     0
100
AcDbLine
 10
19.01033068309302
 20
6.817259702442681
 30
0.0
 11
19.03567578968912
 21
6.817259702442681
 31
0.0
  0
LINE
  5
2F7
330
2F1
100
AcDbEntity
  8
0
  6
Continuous
 62
     7
370
     0
100
AcDbLine
 10
19.01033068309302
 20
6.985835164170325
 30
0.0
 11
19.03567578968912
 21
6.985835164170325
 31
0.0
  0
LINE
  5
2F8
330
2F1
100
AcDbEntity
  8
0
  6
Continuous
 62
     7
370
     0
100
AcDbLine
 10
19.43493054326766
 20
6.985835164170325
 30
0.0
 11
19.43493054326766
 21
6.817259702442681
 31
0.0
  0
LINE
  5
2F9
330
2F1
100
AcDbEntity
  8
0
  6
Continuous
 62
     7
370
     0
100
AcDbLine
 10
19.43493054326766
 20
6.817259702442681
 30
0.0
 11
19.40958543667155
 21
6.817259702442681
 31
0.0
  0
LINE
  5
2FA
330
2F1
100
AcDbEntity
  8
0
  6
Continuous
 62
     7
370
     0
100
AcDbLine
 10
19.43493054326766
 20
6.985835164170325
 30
0.0
 11
19.40958543667155
 21
6.985835164170325
 31
0.0
  0
LINE
  5
2FB
330
2F1
100
AcDbEntity
  8
0
  6
Continuous
 62
     7
370
     0
100
AcDbLine
 10
20.83097903061716
 20
7.600380646347486
 30
0.0
 11
19.79812075645988
 21
6.802385396996124
 31
0.0
  0
LINE
  5
2FC
330
2F1
100
AcDbEntity
  8
0
  6
Continuous
 62
     7
370
     0
100
AcDbLine
 10
19.79812075645988
 20
6.802385396996124
 30
0.0
 11
19.54812075645988
 21
6.802385396996124
 31
0.0
  0
MTEXT
  5
2FD
330
2F1
100
AcDbEntity
  8
0
  6
Continuous
 62
     7
370
     0
100
AcDbMText
 10
18.44807971882309
 20
6.96351886217598
 30
-0.0000000000000574
 40
0.125
 41
0.0
 71
     1
 72
     1
  1
%%c
  7
SLDTEXTSTYLE0
 73
     1
 44
1.0
  0
MTEXT
  5
2FE
330
2F1
100
AcDbEntity
  8
0
  6
Continuous
 62
     7
370
     0
100
AcDbMText
 10
18.63642103611059
 20
6.963518878217461
 30
-0.0000000000000574
 40
0.125
 41
0.0
 71
     1
 72
     1
  1
.126
  7
SLDTEXTSTYLE0
 73
     1
 44
1.0
  0
MTEXT
  5
2FF
330
2F1
100
AcDbEntity
  8
0
  6
Continuous
 62
     7
370
     0
100
AcDbMText
 10
19.06102089628523
 20
6.963518878217461
 30
-0.0000000000000574
 40
0.125
 41
0.0
 71
     1
 72
     1
  1
3.20
  7
SLDTEXTSTYLE0
 73
     1
 44
1.0
  0
MTEXT
  5
300
330
2F1
100
AcDbEntity
  8
0
  6
Continuous
 62
     7
370
     0
100
AcDbMText
 10
18.65925580385128
 20
6.765194805596703
 30
-0.000000000000056
 40
0.125
 41
0.0
 71
     1
 72
     1
  1
4 HOLES
  7
SLDTEXTSTYLE0
 73
     1
 44
1.0
  0
ENDBLK
  5
2F3
330
2F1
100
AcDbEntity
  8
0
100
AcDbBlockEnd
  0
BLOCK
  5
304
330
303
100
AcDbEntity
  8
0
100
AcDbBlockBegin
  2
*D17
 70
     1
 10
0.0
 20
0.0
 30
0.0
  3
*D17
  1

  0
SOLID
  5
306
330
303
100
AcDbEntity
  8
0
  6
Continuous
 62
     7
370
     0
100
AcDbTrace
 10
20.88082661559425
 20
9.695831511230927
 30
0.0
 11
20.75082661559425
 21
9.715831511230927
 31
0.0
 12
20.75082661559425
 22
9.675831511230928
 32
0.0
 13
20.75082661559425
 23
9.675831511230928
 33
0.0
  0
SOLID
  5
307
330
303
100
AcDbEntity
  8
0
  6
Continuous
 62
     7
370
     0
100
AcDbTrace
 10
21.98318882031866
 20
9.695831511230927
 30
0.0
 11
22.11318882031866
 21
9.675831511230928
 31
0.0
 12
22.11318882031866
 22
9.715831511230927
 32
0.0
 13
22.11318882031866
 23
9.715831511230927
 33
0.0
  0
LINE
  5
308
330
303
100
AcDbEntity
  8
0
  6
Continuous
 62
     7
370
     0
100
AcDbLine
 10
21.50032930230419
 20
9.780119242094748
 30
0.0
 11
21.50032930230419
 21
9.611543780367105
 31
0.0
  0
LINE
  5
309
330
303
100
AcDbEntity
  8
0
  6
Continuous
 62
     7
370
     0
100
AcDbLine
 10
21.50032930230419
 20
9.611543780367105
 30
0.0
 11
21.5256744089003
 21
9.611543780367105
 31
0.0
  0
LINE
  5
30A
330
303
100
AcDbEntity
  8
0
  6
Continuous
 62
     7
370
     0
100
AcDbLine
 10
21.50032930230419
 20
9.780119242094748
 30
0.0
 11
21.5256744089003
 21
9.780119242094748
 31
0.0
  0
LINE
  5
30B
330
303
100
AcDbEntity
  8
0
  6
Continuous
 62
     7
370
     0
100
AcDbLine
 10
21.78627978285023
 20
9.780119242094748
 30
0.0
 11
21.78627978285023
 21
9.611543780367105
 31
0.0
  0
LINE
  5
30C
330
303
100
AcDbEntity
  8
0
  6
Continuous
 62
     7
370
     0
100
AcDbLine
 10
21.78627978285023
 20
9.611543780367105
 30
0.0
 11
21.76093467625412
 21
9.611543780367105
 31
0.0
  0
LINE
  5
30D
330
303
100
AcDbEntity
  8
0
  6
Continuous
 62
     7
370
     0
100
AcDbLine
 10
21.78627978285023
 20
9.780119242094748
 30
0.0
 11
21.76093467625412
 21
9.780119242094748
 31
0.0
  0
LINE
  5
30E
330
303
100
AcDbEntity
  8
0
  6
Continuous
 62
     7
370
     0
100
AcDbLine
 10
20.88082661559425
 20
8.954247652994967
 30
0.0
 11
20.88082661559425
 21
9.820831511230929
 31
0.0
  0
LINE
  5
30F
330
303
100
AcDbEntity
  8
0
  6
Continuous
 62
     7
370
     0
100
AcDbLine
 10
21.98318882031866
 20
8.954247652994967
 30
0.0
 11
21.98318882031866
 21
9.820831511230929
 31
0.0
  0
LINE
  5
310
330
303
100
AcDbEntity
  8
0
  6
Continuous
 62
     7
370
     0
100
AcDbLine
 10
20.88082661559425
 20
9.695831511230927
 30
0.0
 11
20.63082661559425
 21
9.695831511230927
 31
0.0
  0
LINE
  5
311
330
303
100
AcDbEntity
  8
0
  6
Continuous
 62
     7
370
     0
100
AcDbLine
 10
21.98318882031866
 20
9.695831511230927
 30
0.0
 11
22.23318882031865
 21
9.695831511230927
 31
0.0
  0
MTEXT
  5
312
330
303
100
AcDbEntity
  8
0
  6
Continuous
 62
     7
370
     0
100
AcDbMText
 10
21.03413462824097
 20
9.757802956141887
 30
-0.0000000000000769
 40
0.125
 41
0.0
 71
     1
 72
     1
  1
1.102
  7
SLDTEXTSTYLE0
 73
     1
 44
1.0
  0
MTEXT
  5
313
330
303
100
AcDbEntity
  8
0
  6
Continuous
 62
     7
370
     0
100
AcDbMText
 10
21.55101951549641
 20
9.757802956141887
 30
-0.0000000000000769
 40
0.125
 41
0.0
 71
     1
 72
     1
  1
28
  7
SLDTEXTSTYLE0
 73
     1
 44
1.0
  0
ENDBLK
  5
305
330
303
100
AcDbEntity
  8
0
100
AcDbBlockEnd
  0
BLOCK
  5
316
330
315
100
AcDbEntity
  8
0
100
AcDbBlockBegin
  2
*D18
 70
     1
 10
0.0
 20
0.0
 30
0.0
  3
*D18
  1

  0
SOLID
  5
318
330
315
100
AcDbEntity
  8
0
  6
Continuous
 62
     7
370
     0
100
AcDbTrace
 10
22.54637779669661
 20
10.89991694433355
 30
0.0
 11
22.41637779669661
 21
10.91991694433355
 31
0.0
 12
22.41637779669661
 22
10.87991694433355
 32
0.0
 13
22.41637779669661
 23
10.87991694433355
 33
0.0
  0
SOLID
  5
319
330
315
100
AcDbEntity
  8
0
  6
Continuous
 62
     7
370
     0
100
AcDbTrace
 10
20.31763763921629
 20
10.89991694433355
 30
0.0
 11
20.44763763921629
 21
10.87991694433355
 31
0.0
 12
20.44763763921629
 22
10.91991694433355
 32
0.0
 13
20.44763763921629
 23
10.91991694433355
 33
0.0
  0
LINE
  5
31A
330
315
100
AcDbEntity
  8
0
  6
Continuous
 62
     7
370
     0
100
AcDbLine
 10
21.38486209894949
 20
10.98420467519737
 30
0.0
 11
21.38486209894949
 21
10.81562921346972
 31
0.0
  0
LINE
  5
31B
330
315
100
AcDbEntity
  8
0
  6
Continuous
 62
     7
370
     0
100
AcDbLine
 10
21.38486209894949
 20
10.81562921346972
 30
0.0
 11
21.4102072055456
 21
10.81562921346972
 31
0.0
  0
LINE
  5
31C
330
315
100
AcDbEntity
  8
0
  6
Continuous
 62
     7
370
     0
100
AcDbLine
 10
21.38486209894949
 20
10.98420467519737
 30
0.0
 11
21.4102072055456
 21
10.98420467519737
 31
0.0
  0
LINE
  5
31D
330
315
100
AcDbEntity
  8
0
  6
Continuous
 62
     7
370
     0
100
AcDbLine
 10
21.90174698620493
 20
10.98420467519737
 30
0.0
 11
21.90174698620493
 21
10.81562921346972
 31
0.0
  0
LINE
  5
31E
330
315
100
AcDbEntity
  8
0
  6
Continuous
 62
     7
370
     0
100
AcDbLine
 10
21.90174698620493
 20
10.81562921346972
 30
0.0
 11
21.87640187960882
 21
10.81562921346972
 31
0.0
  0
LINE
  5
31F
330
315
100
AcDbEntity
  8
0
  6
Continuous
 62
     7
370
     0
100
AcDbLine
 10
21.90174698620493
 20
10.98420467519737
 30
0.0
 11
21.87640187960882
 21
10.98420467519737
 31
0.0
  0
LINE
  5
320
330
315
100
AcDbEntity
  8
0
  6
Continuous
 62
     7
370
     0
100
AcDbLine
 10
22.54637779669661
 20
9.37511379472725
 30
0.0
 11
22.54637779669661
 21
11.02491694433355
 31
0.0
  0
LINE
  5
321
330
315
100
AcDbEntity
  8
0
  6
Continuous
 62
     7
370
     0
100
AcDbLine
 10
20.31763763921629
 20
9.37511379472725
 30
0.0
 11
20.31763763921629
 21
11.02491694433355
 31
0.0
  0
LINE
  5
322
330
315
100
AcDbEntity
  8
0
  6
Continuous
 62
     7
370
     0
100
AcDbLine
 10
22.54637779669661
 20
10.89991694433355
 30
0.0
 11
22.04028230599326
 21
10.89991694433355
 31
0.0
  0
LINE
  5
323
330
315
100
AcDbEntity
  8
0
  6
Continuous
 62
     7
370
     0
100
AcDbLine
 10
20.31763763921629
 20
10.89991694433355
 30
0.0
 11
20.83082231829015
 21
10.89991694433355
 31
0.0
  0
MTEXT
  5
324
330
315
100
AcDbEntity
  8
0
  6
Continuous
 62
     7
370
     0
100
AcDbMText
 10
20.91866742488626
 20
10.9618883892445
 30
-0.0000000000000854
 40
0.125
 41
0.0
 71
     1
 72
     1
  1
2.229
  7
SLDTEXTSTYLE0
 73
     1
 44
1.0
  0
MTEXT
  5
325
330
315
100
AcDbEntity
  8
0
  6
Continuous
 62
     7
370
     0
100
AcDbMText
 10
21.43555231214171
 20
10.9618883892445
 30
-0.0000000000000854
 40
0.125
 41
0.0
 71
     1
 72
     1
  1
56.61
  7
SLDTEXTSTYLE0
 73
     1
 44
1.0
  0
ENDBLK
  5
317
330
315
100
AcDbEntity
  8
0
100
AcDbBlockEnd
  0
BLOCK
  5
328
330
327
100
AcDbEntity
  8
0
100
AcDbBlockBegin
  2
*D19
 70
     1
 10
0.0
 20
0.0
 30
0.0
  3
*D19
  1

  0
SOLID
  5
32A
330
327
100
AcDbEntity
  8
0
  6
Continuous
 62
     7
370
     0
100
AcDbTrace
 10
23.3285683865653
 20
8.609365763231187
 30
0.0
 11
23.34856838656529
 21
8.739365763231187
 31
0.0
 12
23.30856838656529
 22
8.739365763231187
 32
0.0
 13
23.30856838656529
 23
8.739365763231187
 33
0.0
  0
SOLID
  5
32B
330
327
100
AcDbEntity
  8
0
  6
Continuous
 62
     7
370
     0
100
AcDbTrace
 10
23.3285683865653
 20
8.348342141183943
 30
0.0
 11
23.30856838656529
 21
8.218342141183942
 31
0.0
 12
23.34856838656529
 22
8.218342141183942
 32
0.0
 13
23.34856838656529
 23
8.218342141183942
 33
0.0
  0
LINE
  5
32C
330
327
100
AcDbEntity
  8
0
  6
Continuous
 62
     7
370
     0
100
AcDbLine
 10
24.04032314014383
 20
9.803102312992647
 30
0.0
 11
24.04032314014383
 21
9.634526851265004
 31
0.0
  0
LINE
  5
32D
330
327
100
AcDbEntity
  8
0
  6
Continuous
 62
     7
370
     0
100
AcDbLine
 10
24.04032314014383
 20
9.634526851265004
 30
0.0
 11
24.06566824673994
 21
9.634526851265004
 31
0.0
  0
LINE
  5
32E
330
327
100
AcDbEntity
  8
0
  6
Continuous
 62
     7
370
     0
100
AcDbLine
 10
24.04032314014383
 20
9.803102312992647
 30
0.0
 11
24.06566824673994
 21
9.803102312992647
 31
0.0
  0
LINE
  5
32F
330
327
100
AcDbEntity
  8
0
  6
Continuous
 62
     7
370
     0
100
AcDbLine
 10
24.46492300031847
 20
9.803102312992647
 30
0.0
 11
24.46492300031847
 21
9.634526851265004
 31
0.0
  0
LINE
  5
330
330
327
100
AcDbEntity
  8
0
  6
Continuous
 62
     7
370
     0
100
AcDbLine
 10
24.46492300031847
 20
9.634526851265004
 30
0.0
 11
24.43957789372236
 21
9.634526851265004
 31
0.0
  0
LINE
  5
331
330
327
100
AcDbEntity
  8
0
  6
Continuous
 62
     7
370
     0
100
AcDbLine
 10
24.46492300031847
 20
9.803102312992647
 30
0.0
 11
24.43957789372236
 21
9.803102312992647
 31
0.0
  0
LINE
  5
332
330
327
100
AcDbEntity
  8
0
  6
Continuous
 62
     7
370
     0
100
AcDbLine
 10
22.59637779669661
 20
8.609365763231187
 30
0.0
 11
23.45356838656529
 21
8.609365763231187
 31
0.0
  0
LINE
  5
333
330
327
100
AcDbEntity
  8
0
  6
Continuous
 62
     7
370
     0
100
AcDbLine
 10
22.59637779669661
 20
8.348342141183943
 30
0.0
 11
23.45356838656529
 21
8.348342141183943
 31
0.0
  0
LINE
  5
334
330
327
100
AcDbEntity
  8
0
  6
Continuous
 62
     7
370
     0
100
AcDbLine
 10
23.57856838656529
 20
9.718814582128826
 30
0.0
 11
23.3285683865653
 21
9.718814582128826
 31
0.0
  0
LINE
  5
335
330
327
100
AcDbEntity
  8
0
  6
Continuous
 62
     7
370
     0
100
AcDbLine
 10
23.3285683865653
 20
9.718814582128826
 30
0.0
 11
23.3285683865653
 21
8.609365763231187
 31
0.0
  0
LINE
  5
336
330
327
100
AcDbEntity
  8
0
  6
Continuous
 62
     7
370
     0
100
AcDbLine
 10
23.3285683865653
 20
8.348342141183943
 30
0.0
 11
23.3285683865653
 21
8.098342141183943
 31
0.0
  0
MTEXT
  5
337
330
327
100
AcDbEntity
  8
0
  6
Continuous
 62
     7
370
     0
100
AcDbMText
 10
23.6664134931614
 20
9.780786027039784
 30
-0.0000000000000771
 40
0.125
 41
0.0
 71
     1
 72
     1
  1
.261
  7
SLDTEXTSTYLE0
 73
     1
 44
1.0
  0
MTEXT
  5
338
330
327
100
AcDbEntity
  8
0
  6
Continuous
 62
     7
370
     0
100
AcDbMText
 10
24.09101335333605
 20
9.780786027039784
 30
-0.0000000000000771
 40
0.125
 41
0.0
 71
     1
 72
     1
  1
6.63
  7
SLDTEXTSTYLE0
 73
     1
 44
1.0
  0
ENDBLK
  5
329
330
327
100
AcDbEntity
  8
0
100
AcDbBlockEnd
  0
BLOCK
  5
33B
330
33A
100
AcDbEntity
  8
0
100
AcDbBlockBegin
  2
*D20
 70
     1
 10
0.0
 20
0.0
 30
0.0
  3
*D20
  1

  0
SOLID
  5
33D
330
33A
100
AcDbEntity
  8
0
  6
Continuous
 62
     7
370
     0
100
AcDbTrace
 10
22.28574787543676
 20
10.42747599945166
 30
0.0
 11
22.15574787543676
 21
10.44747599945166
 31
0.0
 12
22.15574787543676
 22
10.40747599945166
 32
0.0
 13
22.15574787543676
 23
10.40747599945166
 33
0.0
  0
SOLID
  5
33E
330
33A
100
AcDbEntity
  8
0
  6
Continuous
 62
     7
370
     0
100
AcDbTrace
 10
22.54637779669661
 20
10.42747599945166
 30
0.0
 11
22.6763777966966
 21
10.40747599945166
 31
0.0
 12
22.6763777966966
 22
10.44747599945166
 32
0.0
 13
22.6763777966966
 23
10.44747599945166
 33
0.0
  0
LINE
  5
33F
330
33A
100
AcDbEntity
  8
0
  6
Continuous
 62
     7
370
     0
100
AcDbLine
 10
23.12560884334691
 20
10.51176373031548
 30
0.0
 11
23.12560884334691
 21
10.34318826858783
 31
0.0
  0
LINE
  5
340
330
33A
100
AcDbEntity
  8
0
  6
Continuous
 62
     7
370
     0
100
AcDbLine
 10
23.12560884334691
 20
10.34318826858783
 30
0.0
 11
23.15095394994301
 21
10.34318826858783
 31
0.0
  0
LINE
  5
341
330
33A
100
AcDbEntity
  8
0
  6
Continuous
 62
     7
370
     0
100
AcDbLine
 10
23.12560884334691
 20
10.51176373031548
 30
0.0
 11
23.15095394994301
 21
10.51176373031548
 31
0.0
  0
LINE
  5
342
330
33A
100
AcDbEntity
  8
0
  6
Continuous
 62
     7
370
     0
100
AcDbLine
 10
23.55020870352155
 20
10.51176373031548
 30
0.0
 11
23.55020870352155
 21
10.34318826858783
 31
0.0
  0
LINE
  5
343
330
33A
100
AcDbEntity
  8
0
  6
Continuous
 62
     7
370
     0
100
AcDbLine
 10
23.55020870352155
 20
10.34318826858783
 30
0.0
 11
23.52486359692544
 21
10.34318826858783
 31
0.0
  0
LINE
  5
344
330
33A
100
AcDbEntity
  8
0
  6
Continuous
 62
     7
370
     0
100
AcDbLine
 10
23.55020870352155
 20
10.51176373031548
 30
0.0
 11
23.52486359692544
 21
10.51176373031548
 31
0.0
  0
LINE
  5
345
330
33A
100
AcDbEntity
  8
0
  6
Continuous
 62
     7
370
     0
100
AcDbLine
 10
22.28574787543676
 20
8.528853952207565
 30
0.0
 11
22.28574787543676
 21
10.55247599945165
 31
0.0
  0
LINE
  5
346
330
33A
100
AcDbEntity
  8
0
  6
Continuous
 62
     7
370
     0
100
AcDbLine
 10
22.54637779669661
 20
9.37511379472725
 30
0.0
 11
22.54637779669661
 21
10.55247599945165
 31
0.0
  0
LINE
  5
347
330
33A
100
AcDbEntity
  8
0
  6
Continuous
 62
     7
370
     0
100
AcDbLine
 10
22.28574787543676
 20
10.42747599945166
 30
0.0
 11
22.03574787543677
 21
10.42747599945166
 31
0.0
  0
LINE
  5
348
330
33A
100
AcDbEntity
  8
0
  6
Continuous
 62
     7
370
     0
100
AcDbLine
 10
22.54637779669661
 20
10.42747599945166
 30
0.0
 11
22.66385408976837
 21
10.42747599945166
 31
0.0
  0
MTEXT
  5
349
330
33A
100
AcDbEntity
  8
0
  6
Continuous
 62
     7
370
     0
100
AcDbMText
 10
22.75169919636448
 20
10.48944744436261
 30
-0.0000000000000821
 40
0.125
 41
0.0
 71
     1
 72
     1
  1
.261
  7
SLDTEXTSTYLE0
 73
     1
 44
1.0
  0
MTEXT
  5
34A
330
33A
100
AcDbEntity
  8
0
  6
Continuous
 62
     7
370
     0
100
AcDbMText
 10
23.17629905653912
 20
10.48944744436261
 30
-0.0000000000000821
 40
0.125
 41
0.0
 71
     1
 72
     1
  1
6.62
  7
SLDTEXTSTYLE0
 73
     1
 44
1.0
  0
ENDBLK
  5
33C
330
33A
100
AcDbEntity
  8
0
100
AcDbBlockEnd
  0
BLOCK
  5
34D
330
34C
100
AcDbEntity
  8
0
100
AcDbBlockBegin
  2
*D21
 70
     1
 10
0.0
 20
0.0
 30
0.0
  3
*D21
  1

  0
SOLID
  5
34F
330
34C
100
AcDbEntity
  8
0
  6
Continuous
 62
     7
370
     0
100
AcDbTrace
 10
23.03684639102781
 20
8.609365763231187
 30
0.0
 11
23.05684639102782
 21
8.739365763231187
 31
0.0
 12
23.01684639102782
 22
8.739365763231187
 32
0.0
 13
23.01684639102782
 23
8.739365763231187
 33
0.0
  0
SOLID
  5
350
330
34C
100
AcDbEntity
  8
0
  6
Continuous
 62
     7
370
     0
100
AcDbTrace
 10
23.03684639102781
 20
9.325113794727251
 30
0.0
 11
23.01684639102782
 21
9.19511379472725
 31
0.0
 12
23.05684639102782
 22
9.19511379472725
 32
0.0
 13
23.05684639102782
 23
9.19511379472725
 33
0.0
  0
LINE
  5
351
330
34C
100
AcDbEntity
  8
0
  6
Continuous
 62
     7
370
     0
100
AcDbLine
 10
23.74860114460635
 20
10.1222695491742
 30
0.0
 11
23.74860114460635
 21
9.95369408744656
 31
0.0
  0
LINE
  5
352
330
34C
100
AcDbEntity
  8
0
  6
Continuous
 62
     7
370
     0
100
AcDbLine
 10
23.74860114460635
 20
9.95369408744656
 30
0.0
 11
23.77394625120246
 21
9.95369408744656
 31
0.0
  0
LINE
  5
353
330
34C
100
AcDbEntity
  8
0
  6
Continuous
 62
     7
370
     0
100
AcDbLine
 10
23.74860114460635
 20
10.1222695491742
 30
0.0
 11
23.77394625120246
 21
10.1222695491742
 31
0.0
  0
LINE
  5
354
330
34C
100
AcDbEntity
  8
0
  6
Continuous
 62
     7
370
     0
100
AcDbLine
 10
24.26548603186179
 20
10.1222695491742
 30
0.0
 11
24.26548603186179
 21
9.95369408744656
 31
0.0
  0
LINE
  5
355
330
34C
100
AcDbEntity
  8
0
  6
Continuous
 62
     7
370
     0
100
AcDbLine
 10
24.26548603186179
 20
9.95369408744656
 30
0.0
 11
24.24014092526569
 21
9.95369408744656
 31
0.0
  0
LINE
  5
356
330
34C
100
AcDbEntity
  8
0
  6
Continuous
 62
     7
370
     0
100
AcDbLine
 10
24.26548603186179
 20
10.1222695491742
 30
0.0
 11
24.24014092526569
 21
10.1222695491742
 31
0.0
  0
LINE
  5
357
330
34C
100
AcDbEntity
  8
0
  6
Continuous
 62
     7
370
     0
100
AcDbLine
 10
22.59637779669661
 20
8.609365763231187
 30
0.0
 11
23.16184639102782
 21
8.609365763231187
 31
0.0
  0
LINE
  5
358
330
34C
100
AcDbEntity
  8
0
  6
Continuous
 62
     7
370
     0
100
AcDbLine
 10
22.59637779669661
 20
9.325113794727251
 30
0.0
 11
23.16184639102782
 21
9.325113794727251
 31
0.0
  0
LINE
  5
359
330
34C
100
AcDbEntity
  8
0
  6
Continuous
 62
     7
370
     0
100
AcDbLine
 10
23.28684639102781
 20
10.03798181831038
 30
0.0
 11
23.03684639102781
 21
10.03798181831038
 31
0.0
  0
LINE
  5
35A
330
34C
100
AcDbEntity
  8
0
  6
Continuous
 62
     7
370
     0
100
AcDbLine
 10
23.03684639102781
 20
10.03798181831038
 30
0.0
 11
23.03684639102781
 21
9.325113794727251
 31
0.0
  0
LINE
  5
35B
330
34C
100
AcDbEntity
  8
0
  6
Continuous
 62
     7
370
     0
100
AcDbLine
 10
23.03684639102781
 20
8.609365763231187
 30
0.0
 11
23.03684639102781
 21
9.325113794727251
 31
0.0
  0
MTEXT
  5
35C
330
34C
100
AcDbEntity
  8
0
  6
Continuous
 62
     7
370
     0
100
AcDbMText
 10
23.37469149762392
 20
10.09995326322134
 30
-0.0000000000000793
 40
0.125
 41
0.0
 71
     1
 72
     1
  1
.716
  7
SLDTEXTSTYLE0
 73
     1
 44
1.0
  0
MTEXT
  5
35D
330
34C
100
AcDbEntity
  8
0
  6
Continuous
 62
     7
370
     0
100
AcDbMText
 10
23.79929135779856
 20
10.09995326322134
 30
-0.0000000000000793
 40
0.125
 41
0.0
 71
     1
 72
     1
  1
18.18
  7
SLDTEXTSTYLE0
 73
     1
 44
1.0
  0
ENDBLK
  5
34E
330
34C
100
AcDbEntity
  8
0
100
AcDbBlockEnd
  0
BLOCK
  5
35F
330
35E
100
AcDbEntity
  8
0
100
AcDbBlockBegin
  2
SW_CENTERMARKSYMBOL_0
 70
     0
 10
0.0
 20
0.0
 30
0.0
  3
SW_CENTERMARKSYMBOL_0
  1

  0
LINE
  5
361
330
35E
100
AcDbEntity
  8
0
  6
Continuous
 62
     0
370
     0
100
AcDbLine
 10
0.0
 20
0.0
 30
0.0
 11
0.0
 21
0.0999999999999995
 31
0.0
  0
LINE
  5
362
330
35E
100
AcDbEntity
  8
0
  6
Continuous
 62
     0
370
     0
100
AcDbLine
 10
0.0
 20
0.0
 30
0.0
 11
-0.0999999999999995
 21
0.0
 31
0.0
  0
LINE
  5
363
330
35E
100
AcDbEntity
  8
0
  6
Continuous
 62
     0
370
     0
100
AcDbLine
 10
0.0
 20
0.0
 30
0.0
 11
0.0
 21
-0.1000000000000006
 31
0.0
  0
LINE
  5
364
330
35E
100
AcDbEntity
  8
0
  6
Continuous
 62
     0
370
     0
100
AcDbLine
 10
0.0
 20
0.0
 30
0.0
 11
0.0999999999999995
 21
0.0
 31
0.0
  0
LINE
  5
365
330
35E
100
AcDbEntity
  8
0
  6
Continuous
 62
     0
370
     0
100
AcDbLine
 10
0.0
 20
0.0999999999999995
 30
0.0
 11
0.0
 21
0.1629921259842511
 31
0.0
  0
LINE
  5
366
330
35E
100
AcDbEntity
  8
0
  6
Continuous
 62
     0
370
     0
100
AcDbLine
 10
-0.0999999999999995
 20
0.0
 30
0.0
 11
-0.1629921259842532
 21
0.0
 31
0.0
  0
LINE
  5
367
330
35E
100
AcDbEntity
  8
0
  6
Continuous
 62
     0
370
     0
100
AcDbLine
 10
0.0
 20
-0.1000000000000006
 30
0.0
 11
0.0
 21
-0.1629921259842532
 31
0.0
  0
LINE
  5
368
330
35E
100
AcDbEntity
  8
0
  6
Continuous
 62
     0
370
     0
100
AcDbLine
 10
0.0999999999999995
 20
0.0
 30
0.0
 11
0.1629921259842532
 21
0.0
 31
0.0
  0
ENDBLK
  5
360
330
35E
100
AcDbEntity
  8
0
100
AcDbBlockEnd
  0
BLOCK
  5
36B
330
36A
100
AcDbEntity
  8
0
100
AcDbBlockBegin
  2
SW_CENTERMARKSYMBOL_1
 70
     0
 10
0.0
 20
0.0
 30
0.0
  3
SW_CENTERMARKSYMBOL_1
  1

  0
LINE
  5
36D
330
36A
100
AcDbEntity
  8
0
  6
Continuous
 62
     0
370
     0
100
AcDbLine
 10
0.0
 20
0.0
 30
0.0
 11
0.0
 21
0.1000000000000006
 31
0.0
  0
LINE
  5
36E
330
36A
100
AcDbEntity
  8
0
  6
Continuous
 62
     0
370
     0
100
AcDbLine
 10
0.0
 20
0.0
 30
0.0
 11
-0.0999999999999995
 21
0.0
 31
0.0
  0
LINE
  5
36F
330
36A
100
AcDbEntity
  8
0
  6
Continuous
 62
     0
370
     0
100
AcDbLine
 10
0.0
 20
0.0
 30
0.0
 11
0.0
 21
-0.0999999999999995
 31
0.0
  0
LINE
  5
370
330
36A
100
AcDbEntity
  8
0
  6
Continuous
 62
     0
370
     0
100
AcDbLine
 10
0.0
 20
0.0
 30
0.0
 11
0.0999999999999995
 21
0.0
 31
0.0
  0
LINE
  5
371
330
36A
100
AcDbEntity
  8
0
  6
Continuous
 62
     0
370
     0
100
AcDbLine
 10
0.0
 20
0.1000000000000006
 30
0.0
 11
0.0
 21
0.1629921259842522
 31
0.0
  0
LINE
  5
372
330
36A
100
AcDbEntity
  8
0
  6
Continuous
 62
     0
370
     0
100
AcDbLine
 10
-0.0999999999999995
 20
0.0
 30
0.0
 11
-0.1629921259842532
 21
0.0
 31
0.0
  0
LINE
  5
373
330
36A
100
AcDbEntity
  8
0
  6
Continuous
 62
     0
370
     0
100
AcDbLine
 10
0.0
 20
-0.0999999999999995
 30
0.0
 11
0.0
 21
-0.1629921259842511
 31
0.0
  0
LINE
  5
374
330
36A
100
AcDbEntity
  8
0
  6
Continuous
 62
     0
370
     0
100
AcDbLine
 10
0.0999999999999995
 20
0.0
 30
0.0
 11
0.1629921259842532
 21
0.0
 31
0.0
  0
ENDBLK
  5
36C
330
36A
100
AcDbEntity
  8
0
100
AcDbBlockEnd
  0
BLOCK
  5
377
330
376
100
AcDbEntity
  8
0
100
AcDbBlockBegin
  2
SW_CENTERMARKSYMBOL_2
 70
     0
 10
0.0
 20
0.0
 30
0.0
  3
SW_CENTERMARKSYMBOL_2
  1

  0
LINE
  5
379
330
376
100
AcDbEntity
  8
0
  6
Continuous
 62
     0
370
     0
100
AcDbLine
 10
0.0
 20
0.0
 30
0.0
 11
0.0
 21
0.1000000000000006
 31
0.0
  0
LINE
  5
37A
330
376
100
AcDbEntity
  8
0
  6
Continuous
 62
     0
370
     0
100
AcDbLine
 10
0.0
 20
0.0
 30
0.0
 11
-0.0999999999999995
 21
0.0
 31
0.0
  0
LINE
  5
37B
330
376
100
AcDbEntity
  8
0
  6
Continuous
 62
     0
370
     0
100
AcDbLine
 10
0.0
 20
0.0
 30
0.0
 11
0.0
 21
-0.0999999999999995
 31
0.0
  0
LINE
  5
37C
330
376
100
AcDbEntity
  8
0
  6
Continuous
 62
     0
370
     0
100
AcDbLine
 10
0.0
 20
0.0
 30
0.0
 11
0.0999999999999995
 21
0.0
 31
0.0
  0
LINE
  5
37D
330
376
100
AcDbEntity
  8
0
  6
Continuous
 62
     0
370
     0
100
AcDbLine
 10
0.0
 20
0.1000000000000006
 30
0.0
 11
0.0
 21
0.1629921259842522
 31
0.0
  0
LINE
  5
37E
330
376
100
AcDbEntity
  8
0
  6
Continuous
 62
     0
370
     0
100
AcDbLine
 10
-0.0999999999999995
 20
0.0
 30
0.0
 11
-0.1629921259842532
 21
0.0
 31
0.0
  0
LINE
  5
37F
330
376
100
AcDbEntity
  8
0
  6
Continuous
 62
     0
370
     0
100
AcDbLine
 10
0.0
 20
-0.0999999999999995
 30
0.0
 11
0.0
 21
-0.1629921259842511
 31
0.0
  0
LINE
  5
380
330
376
100
AcDbEntity
  8
0
  6
Continuous
 62
     0
370
     0
100
AcDbLine
 10
0.0999999999999995
 20
0.0
 30
0.0
 11
0.1629921259842532
 21
0.0
 31
0.0
  0
ENDBLK
  5
378
330
376
100
AcDbEntity
  8
0
100
AcDbBlockEnd
  0
BLOCK
  5
383
330
382
100
AcDbEntity
  8
0
100
AcDbBlockBegin
  2
SW_CENTERMARKSYMBOL_3
 70
     0
 10
0.0
 20
0.0
 30
0.0
  3
SW_CENTERMARKSYMBOL_3
  1

  0
LINE
  5
385
330
382
100
AcDbEntity
  8
0
  6
Continuous
 62
     0
370
     0
100
AcDbLine
 10
0.0
 20
0.0
 30
0.0
 11
0.0
 21
0.0999999999999995
 31
0.0
  0
LINE
  5
386
330
382
100
AcDbEntity
  8
0
  6
Continuous
 62
     0
370
     0
100
AcDbLine
 10
0.0
 20
0.0
 30
0.0
 11
-0.0999999999999995
 21
0.0
 31
0.0
  0
LINE
  5
387
330
382
100
AcDbEntity
  8
0
  6
Continuous
 62
     0
370
     0
100
AcDbLine
 10
0.0
 20
0.0
 30
0.0
 11
0.0
 21
-0.1000000000000006
 31
0.0
  0
LINE
  5
388
330
382
100
AcDbEntity
  8
0
  6
Continuous
 62
     0
370
     0
100
AcDbLine
 10
0.0
 20
0.0
 30
0.0
 11
0.0999999999999995
 21
0.0
 31
0.0
  0
LINE
  5
389
330
382
100
AcDbEntity
  8
0
  6
Continuous
 62
     0
370
     0
100
AcDbLine
 10
0.0
 20
0.0999999999999995
 30
0.0
 11
0.0
 21
0.1629921259842511
 31
0.0
  0
LINE
  5
38A
330
382
100
AcDbEntity
  8
0
  6
Continuous
 62
     0
370
     0
100
AcDbLine
 10
-0.0999999999999995
 20
0.0
 30
0.0
 11
-0.1629921259842532
 21
0.0
 31
0.0
  0
LINE
  5
38B
330
382
100
AcDbEntity
  8
0
  6
Continuous
 62
     0
370
     0
100
AcDbLine
 10
0.0
 20
-0.1000000000000006
 30
0.0
 11
0.0
 21
-0.1629921259842532
 31
0.0
  0
LINE
  5
38C
330
382
100
AcDbEntity
  8
0
  6
Continuous
 62
     0
370
     0
100
AcDbLine
 10
0.0999999999999995
 20
0.0
 30
0.0
 11
0.1629921259842532
 21
0.0
 31
0.0
  0
ENDBLK
  5
384
330
382
100
AcDbEntity
  8
0
100
AcDbBlockEnd
  0
BLOCK
  5
398
330
397
100
AcDbEntity
  8
0
100
AcDbBlockBegin
  2
*D26
 70
     1
 10
0.0
 20
0.0
 30
0.0
  3
*D26
  1

  0
LINE
  5
597
330
397
100
AcDbEntity
  8
0
  6
Continuous
 62
     0
370
    -2
100
AcDbLine
 10
12.73698444770688
 20
3.928461025480192
 30
0.0
 11
12.73698444770688
 21
4.318716930992004
 31
0.0
  0
LINE
  5
598
330
397
100
AcDbEntity
  8
0
  6
Continuous
 62
     0
370
    -2
100
AcDbLine
 10
15.05194507762814
 20
3.928461025480192
 30
0.0
 11
15.05194507762814
 21
4.318716930992004
 31
0.0
  0
LINE
  5
599
330
397
100
AcDbEntity
  8
0
  6
Continuous
 62
     0
370
    -2
100
AcDbLine
 10
12.86698444770688
 20
4.318716930992004
 30
0.0
 11
13.64787737010638
 21
4.318716930992004
 31
0.0
  0
LINE
  5
59A
330
397
100
AcDbEntity
  8
0
  6
Continuous
 62
     0
370
    -2
100
AcDbLine
 10
14.92194507762814
 20
4.318716930992004
 30
0.0
 11
14.46037737010638
 21
4.318716930992004
 31
0.0
  0
SOLID
  5
59B
330
397
100
AcDbEntity
  8
0
  6
Continuous
 62
     0
100
AcDbTrace
 10
12.86698444770688
 20
4.340383597658671
 30
0.0
 11
12.86698444770688
 21
4.297050264325338
 31
0.0
 12
12.73698444770688
 22
4.318716930992004
 32
0.0
 13
12.73698444770688
 23
4.318716930992004
 33
0.0
  0
SOLID
  5
59C
330
397
100
AcDbEntity
  8
0
  6
Continuous
 62
     0
100
AcDbTrace
 10
14.92194507762814
 20
4.340383597658671
 30
0.0
 11
14.92194507762814
 21
4.297050264325338
 31
0.0
 12
15.05194507762814
 22
4.318716930992004
 32
0.0
 13
15.05194507762814
 23
4.318716930992004
 33
0.0
  0
MTEXT
  5
59D
330
397
100
AcDbEntity
  8
0
  6
Continuous
 62
     0
370
     0
100
AcDbMText
 10
14.05412737010638
 20
4.381216930992004
 30
0.0
 40
0.125
 41
0.0
 71
     2
 72
     1
  1
\A1;2.40 [61.0]
  7
SLDTEXTSTYLE0
 73
     1
 44
1.0
  0
POINT
  5
59E
330
397
100
AcDbEntity
  8
Defpoints
  6
Continuous
 62
     0
100
AcDbPoint
 10
12.73698444770688
 20
3.865961025480192
 30
0.0
  0
POINT
  5
59F
330
397
100
AcDbEntity
  8
Defpoints
  6
Continuous
 62
     0
100
AcDbPoint
 10
15.05194507762814
 20
3.865961025480192
 30
0.0
  0
POINT
  5
5A0
330
397
100
AcDbEntity
  8
Defpoints
  6
Continuous
 62
     0
100
AcDbPoint
 10
15.05194507762814
 20
4.318716930992004
 30
0.0
  0
ENDBLK
  5
399
330
397
100
AcDbEntity
  8
0
100
AcDbBlockEnd
  0
BLOCK
  5
3AA
330
3A9
100
AcDbEntity
  8
0
100
AcDbBlockBegin
  2
*D27
 70
     1
 10
0.0
 20
0.0
 30
0.0
  3
*D27
  1

  0
LINE
  5
5A1
330
3A9
100
AcDbEntity
  8
0
  6
Continuous
 62
     0
370
    -2
100
AcDbLine
 10
15.0553899595179
 20
3.925016143590428
 30
0.0
 11
15.79504874330073
 21
3.925016143590428
 31
0.0
  0
LINE
  5
5A2
330
3A9
100
AcDbEntity
  8
0
  6
Continuous
 62
     0
370
    -2
100
AcDbLine
 10
15.0553899595179
 20
3.039189371936884
 30
0.0
 11
15.79504874330073
 21
3.039189371936884
 31
0.0
  0
LINE
  5
5A3
330
3A9
100
AcDbEntity
  8
0
  6
Continuous
 62
     0
370
    -2
100
AcDbLine
 10
15.79504874330073
 20
3.795016143590428
 30
0.0
 11
15.79504874330073
 21
3.609877396382954
 31
0.0
  0
LINE
  5
5A4
330
3A9
100
AcDbEntity
  8
0
  6
Continuous
 62
     0
370
    -2
100
AcDbLine
 10
15.79504874330073
 20
3.169189371936884
 30
0.0
 11
15.79504874330073
 21
3.422377396382954
 31
0.0
  0
SOLID
  5
5A5
330
3A9
100
AcDbEntity
  8
0
  6
Continuous
 62
     0
100
AcDbTrace
 10
15.77338207663407
 20
3.795016143590428
 30
0.0
 11
15.8167154099674
 21
3.795016143590428
 31
0.0
 12
15.79504874330073
 22
3.925016143590428
 32
0.0
 13
15.79504874330073
 23
3.925016143590428
 33
0.0
  0
SOLID
  5
5A6
330
3A9
100
AcDbEntity
  8
0
  6
Continuous
 62
     0
100
AcDbTrace
 10
15.77338207663407
 20
3.169189371936884
 30
0.0
 11
15.8167154099674
 21
3.169189371936884
 31
0.0
 12
15.79504874330073
 22
3.039189371936884
 32
0.0
 13
15.79504874330073
 23
3.039189371936884
 33
0.0
  0
MTEXT
  5
5A7
330
3A9
100
AcDbEntity
  8
0
  6
Continuous
 62
     0
370
     0
100
AcDbMText
 10
15.79504874330073
 20
3.578627396382957
 30
0.0
 40
0.125
 41
0.0
 71
     2
 72
     1
  1
\A1;.90 [22.9]
  7
SLDTEXTSTYLE0
 73
     1
 44
1.0
  0
POINT
  5
5A8
330
3A9
100
AcDbEntity
  8
Defpoints
  6
Continuous
 62
     0
100
AcDbPoint
 10
14.9928899595179
 20
3.925016143590429
 30
0.0
  0
POINT
  5
5A9
330
3A9
100
AcDbEntity
  8
Defpoints
  6
Continuous
 62
     0
100
AcDbPoint
 10
14.9928899595179
 20
3.039189371936885
 30
0.0
  0
POINT
  5
5AA
330
3A9
100
AcDbEntity
  8
Defpoints
  6
Continuous
 62
     0
100
AcDbPoint
 10
15.79504874330073
 20
3.039189371936884
 30
0.0
  0
ENDBLK
  5
3AB
330
3A9
100
AcDbEntity
  8
0
100
AcDbBlockEnd
  0
BLOCK
  5
3BB
330
3BA
100
AcDbEntity
  8
0
100
AcDbBlockBegin
  2
SW_NOTE_6
 70
     0
 10
0.0
 20
0.0
 30
0.0
  3
SW_NOTE_6
  1

  0
MTEXT
  5
3BD
330
3BA
100
AcDbEntity
  8
0
  6
Continuous
 62
     0
370
     0
100
AcDbMText
 10
-2.017656614952632
 20
0.2252472576401913
 30
0.0
 40
0.125
 41
0.0
 71
     1
 72
     1
  1
VIEWING AREA
  7
SLDTEXTSTYLE0
 73
     1
 44
1.0
  0
MTEXT
  5
3BE
330
3BA
100
AcDbEntity
  8
0
  6
Continuous
 62
     0
370
     0
100
AcDbMText
 10
-2.017656614952632
 20
0.0608771831239853
 30
0.0
 40
0.125
 41
0.0
 71
     1
 72
     1
  1
2.271 [57.69 X .818 [20.8]]
  7
SLDTEXTSTYLE0
 73
     1
 44
1.0
  0
ENDBLK
  5
3BC
330
3BA
100
AcDbEntity
  8
0
100
AcDbBlockEnd
  0
BLOCK
  5
3C2
330
3C1
100
AcDbEntity
  8
0
100
AcDbBlockBegin
  2
_DOT
 70
     0
 10
0.0
 20
0.0
 30
0.0
  3
_DOT
  1

  0
POLYLINE
  5
3C4
330
3C1
100
AcDbEntity
  8
0
  6
ByBlock
 62
     0
100
AcDb2dPolyline
 66
     1
 10
0.0
 20
0.0
 30
0.0
 70
     1
 40
0.5
 41
0.5
  0
VERTEX
  5
3C7
330
3C4
100
AcDbEntity
  8
0
  6
ByBlock
 62
     0
100
AcDbVertex
100
AcDb2dVertex
 10
-0.25
 20
0.0
 30
0.0
 42
1.0
  0
VERTEX
  5
3C8
330
3C4
100
AcDbEntity
  8
0
  6
ByBlock
 62
     0
100
AcDbVertex
100
AcDb2dVertex
 10
0.25
 20
0.0
 30
0.0
 42
1.0
  0
SEQEND
  5
3C6
330
3C4
100
AcDbEntity
  8
0
  6
ByBlock
 62
     0
  0
LINE
  5
3C5
330
3C1
100
AcDbEntity
  8
0
  6
ByBlock
 62
     0
370
    -2
100
AcDbLine
 10
-0.5
 20
0.0
 30
0.0
 11
-1.0
 21
0.0
 31
0.0
  0
ENDBLK
  5
3C3
330
3C1
100
AcDbEntity
  8
0
100
AcDbBlockEnd
  0
BLOCK
  5
52E
330
52D
100
AcDbEntity
  8
0
100
AcDbBlockBegin
  2
*D30
 70
     1
 10
0.0
 20
0.0
 30
0.0
  3
*D30
  1

  0
SOLID
  5
530
330
52D
100
AcDbEntity
  8
0
  6
Continuous
 62
     7
370
     0
100
AcDbTrace
 10
3.318465541164246
 20
10.76979239954547
 30
0.0
 11
3.448465541164245
 21
10.74979239954547
 31
0.0
 12
3.448465541164245
 22
10.78979239954547
 32
0.0
 13
3.448465541164245
 23
10.78979239954547
 33
0.0
  0
SOLID
  5
531
330
52D
100
AcDbEntity
  8
0
  6
Continuous
 62
     7
370
     0
100
AcDbTrace
 10
4.003504911242986
 20
10.76979239954547
 30
0.0
 11
3.873504911242986
 21
10.78979239954547
 31
0.0
 12
3.873504911242986
 22
10.74979239954547
 32
0.0
 13
3.873504911242986
 23
10.74979239954547
 33
0.0
  0
LINE
  5
532
330
52D
100
AcDbEntity
  8
0
  6
Continuous
 62
     7
370
     0
100
AcDbLine
 10
4.674439474908909
 20
10.85408013040928
 30
0.0
 11
4.674439474908909
 21
10.68550466868164
 31
0.0
  0
LINE
  5
533
330
52D
100
AcDbEntity
  8
0
  6
Continuous
 62
     7
370
     0
100
AcDbLine
 10
4.674439474908909
 20
10.68550466868164
 30
0.0
 11
4.699784581505018
 21
10.68550466868164
 31
0.0
  0
LINE
  5
534
330
52D
100
AcDbEntity
  8
0
  6
Continuous
 62
     7
370
     0
100
AcDbLine
 10
4.674439474908909
 20
10.85408013040928
 30
0.0
 11
4.699784581505018
 21
10.85408013040928
 31
0.0
  0
LINE
  5
535
330
52D
100
AcDbEntity
  8
0
  6
Continuous
 62
     7
370
     0
100
AcDbLine
 10
5.191324362164352
 20
10.85408013040928
 30
0.0
 11
5.191324362164352
 21
10.68550466868164
 31
0.0
  0
LINE
  5
536
330
52D
100
AcDbEntity
  8
0
  6
Continuous
 62
     7
370
     0
100
AcDbLine
 10
5.191324362164352
 20
10.68550466868164
 30
0.0
 11
5.165979255568243
 21
10.68550466868164
 31
0.0
  0
LINE
  5
537
330
52D
100
AcDbEntity
  8
0
  6
Continuous
 62
     7
370
     0
100
AcDbLine
 10
5.191324362164352
 20
10.85408013040928
 30
0.0
 11
5.165979255568243
 21
10.85408013040928
 31
0.0
  0
LINE
  5
538
330
52D
100
AcDbEntity
  8
0
  6
Continuous
 62
     7
370
     0
100
AcDbLine
 10
3.318465541164242
 20
9.469661405865474
 30
0.0
 11
3.318465541164246
 21
10.89479239954547
 31
0.0
  0
LINE
  5
539
330
52D
100
AcDbEntity
  8
0
  6
Continuous
 62
     7
370
     0
100
AcDbLine
 10
4.003504911242981
 20
9.43033002116954
 30
0.0
 11
4.003504911242987
 21
10.89479239954547
 31
0.0
  0
LINE
  5
53A
330
52D
100
AcDbEntity
  8
0
  6
Continuous
 62
     7
370
     0
100
AcDbLine
 10
3.318465541164246
 20
10.76979239954547
 30
0.0
 11
4.003504911242986
 21
10.76979239954547
 31
0.0
  0
LINE
  5
53B
330
52D
100
AcDbEntity
  8
0
  6
Continuous
 62
     7
370
     0
100
AcDbLine
 10
4.003504911242986
 20
10.76979239954547
 30
0.0
 11
4.212684721330375
 21
10.76979239954547
 31
0.0
  0
MTEXT
  5
53C
330
52D
100
AcDbEntity
  8
0
  6
Continuous
 62
     7
370
     0
100
AcDbMText
 10
4.300529827926484
 20
10.83176384445642
 30
-0.0000000000000844
 40
0.125
 41
0.0
 71
     1
 72
     1
  1
.685
  7
SLDTEXTSTYLE0
 73
     1
 44
1.0
  0
MTEXT
  5
53D
330
52D
100
AcDbEntity
  8
0
  6
Continuous
 62
     7
370
     0
100
AcDbMText
 10
4.725129688101127
 20
10.83176384445642
 30
-0.0000000000000844
 40
0.125
 41
0.0
 71
     1
 72
     1
  1
17.40
  7
SLDTEXTSTYLE0
 73
     1
 44
1.0
  0
ENDBLK
  5
52F
330
52D
100
AcDbEntity
  8
0
100
AcDbBlockEnd
  0
BLOCK
  5
540
330
53F
100
AcDbEntity
  8
0
100
AcDbBlockBegin
  2
*D31
 70
     1
 10
0.0
 20
0.0
 30
0.0
  3
*D31
  1

  0
SOLID
  5
542
330
53F
100
AcDbEntity
  8
0
  6
Continuous
 62
     7
370
     0
100
AcDbTrace
 10
3.318465541164246
 20
11.18184746125546
 30
0.0
 11
3.448465541164246
 21
11.16184746125546
 31
0.0
 12
3.448465541164246
 22
11.20184746125546
 32
0.0
 13
3.448465541164246
 23
11.20184746125546
 33
0.0
  0
SOLID
  5
543
330
53F
100
AcDbEntity
  8
0
  6
Continuous
 62
     7
370
     0
100
AcDbTrace
 10
3.141300186833538
 20
11.18184746125546
 30
0.0
 11
3.011300186833538
 21
11.20184746125546
 31
0.0
 12
3.011300186833538
 22
11.16184746125546
 32
0.0
 13
3.011300186833538
 23
11.16184746125546
 33
0.0
  0
LINE
  5
544
330
53F
100
AcDbEntity
  8
0
  6
Continuous
 62
     7
370
     0
100
AcDbLine
 10
2.362184035319458
 20
11.26613519211928
 30
0.0
 11
2.362184035319458
 21
11.09755973039163
 31
0.0
  0
LINE
  5
545
330
53F
100
AcDbEntity
  8
0
  6
Continuous
 62
     7
370
     0
100
AcDbLine
 10
2.362184035319458
 20
11.09755973039163
 30
0.0
 11
2.387529141915566
 21
11.09755973039163
 31
0.0
  0
LINE
  5
546
330
53F
100
AcDbEntity
  8
0
  6
Continuous
 62
     7
370
     0
100
AcDbLine
 10
2.362184035319458
 20
11.26613519211928
 30
0.0
 11
2.387529141915566
 21
11.26613519211928
 31
0.0
  0
LINE
  5
547
330
53F
100
AcDbEntity
  8
0
  6
Continuous
 62
     7
370
     0
100
AcDbLine
 10
2.7867838954941
 20
11.26613519211928
 30
0.0
 11
2.7867838954941
 21
11.09755973039163
 31
0.0
  0
LINE
  5
548
330
53F
100
AcDbEntity
  8
0
  6
Continuous
 62
     7
370
     0
100
AcDbLine
 10
2.7867838954941
 20
11.09755973039163
 30
0.0
 11
2.761438788897992
 21
11.09755973039163
 31
0.0
  0
LINE
  5
549
330
53F
100
AcDbEntity
  8
0
  6
Continuous
 62
     7
370
     0
100
AcDbLine
 10
2.7867838954941
 20
11.26613519211928
 30
0.0
 11
2.761438788897992
 21
11.26613519211928
 31
0.0
  0
LINE
  5
54A
330
53F
100
AcDbEntity
  8
0
  6
Continuous
 62
     7
370
     0
100
AcDbLine
 10
3.318465541164242
 20
9.469661405865474
 30
0.0
 11
3.318465541164247
 21
11.30684746125546
 31
0.0
  0
LINE
  5
54B
330
53F
100
AcDbEntity
  8
0
  6
Continuous
 62
     7
370
     0
100
AcDbLine
 10
3.141300186833533
 20
9.430330021169538
 30
0.0
 11
3.141300186833538
 21
11.30684746125546
 31
0.0
  0
LINE
  5
54C
330
53F
100
AcDbEntity
  8
0
  6
Continuous
 62
     7
370
     0
100
AcDbLine
 10
3.318465541164246
 20
11.18184746125546
 30
0.0
 11
3.568465541164246
 21
11.18184746125546
 31
0.0
  0
LINE
  5
54D
330
53F
100
AcDbEntity
  8
0
  6
Continuous
 62
     7
370
     0
100
AcDbLine
 10
3.141300186833538
 20
11.18184746125546
 30
0.0
 11
2.925319215282427
 21
11.18184746125546
 31
0.0
  0
MTEXT
  5
54E
330
53F
100
AcDbEntity
  8
0
  6
Continuous
 62
     7
370
     0
100
AcDbMText
 10
1.988274388337032
 20
11.24381890616642
 30
-0.0000000000000873
 40
0.125
 41
0.0
 71
     1
 72
     1
  1
.177
  7
SLDTEXTSTYLE0
 73
     1
 44
1.0
  0
MTEXT
  5
54F
330
53F
100
AcDbEntity
  8
0
  6
Continuous
 62
     7
370
     0
100
AcDbMText
 10
2.412874248511676
 20
11.24381890616642
 30
-0.0000000000000873
 40
0.125
 41
0.0
 71
     1
 72
     1
  1
4.50
  7
SLDTEXTSTYLE0
 73
     1
 44
1.0
  0
ENDBLK
  5
541
330
53F
100
AcDbEntity
  8
0
100
AcDbBlockEnd
  0
BLOCK
  5
552
330
551
100
AcDbEntity
  8
0
100
AcDbBlockBegin
  2
SW_NOTE_7
 70
     0
 10
0.0
 20
0.0
 30
0.0
  3
SW_NOTE_7
  1

  0
MTEXT
  5
554
330
551
100
AcDbEntity
  8
0
  6
Continuous
 62
     0
370
     0
100
AcDbMText
 10
-0.699940315365346
 20
0.0606708445781347
 30
0.0
 40
0.125
 41
0.0
 71
     1
 72
     1
  1
BOTTOM
  7
SLDTEXTSTYLE0
 73
     1
 44
1.0
  0
ENDBLK
  5
553
330
551
100
AcDbEntity
  8
0
100
AcDbBlockEnd
  0
BLOCK
  5
558
330
557
100
AcDbEntity
  8
0
100
AcDbBlockBegin
  2
SW_NOTE_8
 70
     0
 10
0.0
 20
0.0
 30
0.0
  3
SW_NOTE_8
  1

  0
MTEXT
  5
55A
330
557
100
AcDbEntity
  8
0
  6
Continuous
 62
     0
370
     0
100
AcDbMText
 10
0.0196986834890794
 20
0.060525813920673
 30
0.0
 40
0.125
 41
0.0
 71
     1
 72
     1
  1
TOP
  7
SLDTEXTSTYLE0
 73
     1
 44
1.0
  0
ENDBLK
  5
559
330
557
100
AcDbEntity
  8
0
100
AcDbBlockEnd
  0
BLOCK
  5
55E
330
55D
100
AcDbEntity
  8
0
100
AcDbBlockBegin
  2
SW_NOTE_9
 70
     0
 10
0.0
 20
0.0
 30
0.0
  3
SW_NOTE_9
  1

  0
MTEXT
  5
560
330
55D
100
AcDbEntity
  8
0
  6
Continuous
 62
     0
370
     0
100
AcDbMText
 10
0.0198614137214548
 20
0.0604494979645463
 30
0.0
 40
0.125
 41
0.0
 71
     1
 72
     1
  1
END PANEL
  7
SLDTEXTSTYLE0
 73
     1
 44
1.0
  0
MTEXT
  5
561
330
55D
100
AcDbEntity
  8
0
  6
Continuous
 62
     0
370
     0
100
AcDbMText
 10
0.0198614137214548
 20
-0.10392057655166
 30
0.0
 40
0.125
 41
0.0
 71
     1
 72
     1
  1
(2X0
  7
SLDTEXTSTYLE0
 73
     1
 44
1.0
  0
ENDBLK
  5
55F
330
55D
100
AcDbEntity
  8
0
100
AcDbBlockEnd
  0
BLOCK
  5
565
330
564
100
AcDbEntity
  8
0
100
AcDbBlockBegin
  2
SW_NOTE_10
 70
     0
 10
0.0
 20
0.0
 30
0.0
  3
SW_NOTE_10
  1

  0
MTEXT
  5
567
330
564
100
AcDbEntity
  8
0
  6
Continuous
 62
     0
370
     0
100
AcDbMText
 10
-0.7369062002501772
 20
0.389500431931955
 30
0.0
 40
0.125
 41
0.0
 71
     1
 72
     1
  1
PC BOARD
  7
SLDTEXTSTYLE0
 73
     1
 44
1.0
  0
MTEXT
  5
568
330
564
100
AcDbEntity
  8
0
  6
Continuous
 62
     0
370
     0
100
AcDbMText
 10
-0.7369062002501772
 20
0.2251303574157487
 30
0.0
 40
0.125
 41
0.0
 71
     1
 72
     1
  1
CUSTOMER
  7
SLDTEXTSTYLE0
 73
     1
 44
1.0
  0
MTEXT
  5
569
330
564
100
AcDbEntity
  8
0
  6
Continuous
 62
     0
370
     0
100
AcDbMText
 10
-0.7369062002501772
 20
0.0607602828995424
 30
0.0
 40
0.125
 41
0.0
 71
     1
 72
     1
  1
SUPPLIED
  7
SLDTEXTSTYLE0
 73
     1
 44
1.0
  0
ENDBLK
  5
566
330
564
100
AcDbEntity
  8
0
100
AcDbBlockEnd
  0
BLOCK
  5
581
330
576
100
AcDbEntity
  8
0
100
AcDbBlockBegin
  2
*D36
 70
     1
 10
0.0
 20
0.0
 30
0.0
  3
*D36
  1

  0
LINE
  5
577
330
576
100
AcDbEntity
  8
0
 62
     0
370
    -2
100
AcDbLine
 10
7.980714286691908
 20
4.093927025666618
 30
0.0
 11
6.008857673186952
 21
4.093927025666618
 31
0.0
  0
LINE
  5
578
330
576
100
AcDbEntity
  8
0
 62
     0
370
    -2
100
AcDbLine
 10
7.98071434642623
 20
2.995501861434513
 30
0.0
 11
6.008857673186952
 21
2.995501861434513
 31
0.0
  0
LINE
  5
579
330
576
100
AcDbEntity
  8
0
 62
     0
370
    -2
100
AcDbLine
 10
6.133857673186952
 20
3.963927025666618
 30
0.0
 11
6.133857673186952
 21
3.667214443550566
 31
0.0
  0
LINE
  5
57A
330
576
100
AcDbEntity
  8
0
 62
     0
370
    -2
100
AcDbLine
 10
6.133857673186952
 20
3.125501861434513
 30
0.0
 11
6.133857673186952
 21
3.422214443550565
 31
0.0
  0
SOLID
  5
57B
330
576
100
AcDbEntity
  8
0
 62
     0
100
AcDbTrace
 10
6.112191006520285
 20
3.963927025666618
 30
0.0
 11
6.155524339853618
 21
3.963927025666618
 31
0.0
 12
6.133857673186952
 22
4.093927025666618
 32
0.0
 13
6.133857673186952
 23
4.093927025666618
 33
0.0
  0
SOLID
  5
57C
330
576
100
AcDbEntity
  8
0
 62
     0
100
AcDbTrace
 10
6.112191006520285
 20
3.125501861434513
 30
0.0
 11
6.155524339853618
 21
3.125501861434513
 31
0.0
 12
6.133857673186952
 22
2.995501861434513
 32
0.0
 13
6.133857673186952
 23
2.995501861434513
 33
0.0
  0
MTEXT
  5
57D
330
576
100
AcDbEntity
  8
0
 62
     0
100
AcDbMText
 10
6.133857673186951
 20
3.544714443550566
 30
0.0
 40
0.125
 41
0.0
 71
     5
 72
     1
  1
\A1;1.098 [27.90]
 73
     1
 44
1.0
  0
POINT
  5
57E
330
576
100
AcDbEntity
  8
Defpoints
 62
     0
100
AcDbPoint
 10
8.030714286691909
 20
4.093927025666618
 30
0.0
  0
POINT
  5
57F
330
576
100
AcDbEntity
  8
Defpoints
 62
     0
100
AcDbPoint
 10
8.030714346426229
 20
2.995501861434513
 30
0.0
  0
POINT
  5
580
330
576
100
AcDbEntity
  8
Defpoints
 62
     0
100
AcDbPoint
 10
6.133857673186952
 20
2.995501861434513
 30
0.0
  0
ENDBLK
  5
582
330
576
100
AcDbEntity
  8
0
100
AcDbBlockEnd
  0
BLOCK
  5
590
330
584
100
AcDbEntity
  8
0
100
AcDbBlockBegin
  2
*D37
 70
     1
 10
0.0
 20
0.0
 30
0.0
  3
*D37
  1

  0
LINE
  5
585
330
584
100
AcDbEntity
  8
0
 62
     0
370
    -2
100
AcDbLine
 10
7.805894626223544
 20
3.542745942957518
 30
0.0
 11
7.165464236854504
 21
3.542745942957518
 31
0.0
  0
LINE
  5
586
330
584
100
AcDbEntity
  8
0
 62
     0
370
    -2
100
AcDbLine
 10
7.941623524938391
 20
2.995501861434513
 30
0.0
 11
7.165464236854504
 21
2.995501861434513
 31
0.0
  0
LINE
  5
587
330
584
100
AcDbEntity
  8
0
 62
     0
370
    -2
100
AcDbLine
 10
7.290464236854504
 20
3.412745942957518
 30
0.0
 11
7.290464236854504
 21
3.125501861434512
 31
0.0
  0
LINE
  5
588
330
584
100
AcDbEntity
  8
0
 62
     0
370
    -2
100
AcDbLine
 10
7.290464236854504
 20
2.995501861434513
 30
0.0
 11
7.290464236854504
 21
2.865501861434513
 31
0.0
  0
LINE
  5
589
330
584
100
AcDbEntity
  8
0
 62
     0
370
    -2
100
AcDbLine
 10
7.290464236854504
 20
2.865501861434513
 30
0.0
 11
7.160464236854504
 21
2.865501861434513
 31
0.0
  0
SOLID
  5
58A
330
584
100
AcDbEntity
  8
0
 62
     0
100
AcDbTrace
 10
7.268797570187837
 20
3.412745942957518
 30
0.0
 11
7.31213090352117
 21
3.412745942957518
 31
0.0
 12
7.290464236854504
 22
3.542745942957518
 32
0.0
 13
7.290464236854504
 23
3.542745942957518
 33
0.0
  0
SOLID
  5
58B
330
584
100
AcDbEntity
  8
0
 62
     0
100
AcDbTrace
 10
7.268797570187837
 20
3.125501861434512
 30
0.0
 11
7.31213090352117
 21
3.125501861434512
 31
0.0
 12
7.290464236854504
 22
2.995501861434513
 32
0.0
 13
7.290464236854504
 23
2.995501861434513
 33
0.0
  0
MTEXT
  5
58C
330
584
100
AcDbEntity
  8
0
 62
     0
100
AcDbMText
 10
6.475464236854503
 20
2.865501861434514
 30
0.0
 40
0.125
 41
0.0
 71
     5
 72
     1
  1
\A1;0.547 [13.90]
 73
     1
 44
1.0
  0
POINT
  5
58D
330
584
100
AcDbEntity
  8
Defpoints
 62
     0
100
AcDbPoint
 10
7.855894626223544
 20
3.542745942957518
 30
0.0
  0
POINT
  5
58E
330
584
100
AcDbEntity
  8
Defpoints
 62
     0
100
AcDbPoint
 10
7.991623524938391
 20
2.995501861434513
 30
0.0
  0
POINT
  5
58F
330
584
100
AcDbEntity
  8
Defpoints
 62
     0
100
AcDbPoint
 10
7.290464236854504
 20
2.995501861434513
 30
0.0
  0
ENDBLK
  5
591
330
584
100
AcDbEntity
  8
0
100
AcDbBlockEnd
  0
ENDSEC
  0
SECTION
  2
ENTITIES
  0
LINE
  5
62
330
1F
100
AcDbEntity
  8
0
  6
Continuous
 62
     7
370
     0
100
AcDbLine
 10
0.3442516046213063
 20
15.9240731707317
 30
0.0
 11
24.9082516046213
 21
15.9240731707317
 31
0.0
  0
LINE
  5
63
330
1F
100
AcDbEntity
  8
0
  6
Continuous
 62
     7
370
     0
100
AcDbLine
 10
24.9082516046213
 20
0.360073170731707
 30
0.0
 11
24.9082516046213
 21
15.9240731707317
 31
0.0
  0
LINE
  5
64
330
1F
100
AcDbEntity
  8
0
  6
Continuous
 62
     7
370
     0
100
AcDbLine
 10
24.9082516046213
 20
0.360073170731707
 30
0.0
 11
0.3442516046213068
 21
0.360073170731707
 31
0.0
  0
LINE
  5
65
330
1F
100
AcDbEntity
  8
0
  6
Continuous
 62
     7
370
     0
100
AcDbLine
 10
0.3442516046213063
 20
15.9240731707317
 30
0.0
 11
0.3442516046213068
 21
0.360073170731707
 31
0.0
  0
LINE
  5
66
330
1F
100
AcDbEntity
  8
0
  6
Continuous
 62
     7
370
     0
100
AcDbLine
 10
0.2512516046213063
 20
16.0170731707317
 30
0.0
 11
25.0012516046213
 21
16.0170731707317
 31
0.0
  0
LINE
  5
67
330
1F
100
AcDbEntity
  8
0
  6
Continuous
 62
     7
370
     0
100
AcDbLine
 10
25.0012516046213
 20
0.267073170731706
 30
0.0
 11
0.2512516046213063
 21
0.267073170731707
 31
0.0
  0
LINE
  5
68
330
1F
100
AcDbEntity
  8
0
  6
Continuous
 62
     7
370
     0
100
AcDbLine
 10
0.2512516046213063
 20
16.0170731707317
 30
0.0
 11
0.2512516046213063
 21
0.267073170731707
 31
0.0
  0
LINE
  5
69
330
1F
100
AcDbEntity
  8
0
  6
Continuous
 62
     7
370
     0
100
AcDbLine
 10
25.0012516046213
 20
0.267073170731706
 30
0.0
 11
25.0012516046213
 21
16.0170731707317
 31
0.0
  0
LINE
  5
6A
330
1F
100
AcDbEntity
  8
0
  6
Continuous
 62
     7
370
     0
100
AcDbLine
 10
0.3442516046213063
 20
15.3150731707317
 30
0.0
 11
24.9082516046213
 21
15.3150731707317
 31
0.0
  0
LINE
  5
6B
330
1F
100
AcDbEntity
  8
0
  6
Continuous
 62
     7
370
     0
100
AcDbLine
 10
1.469251604621304
 20
15.9240731707317
 30
0.0
 11
1.469251604621303
 21
15.3150731707317
 31
0.0
  0
LINE
  5
6C
330
1F
100
AcDbEntity
  8
0
  6
Continuous
 62
     7
370
     0
100
AcDbLine
 10
11.0332516046213
 20
15.3150731707317
 30
0.0
 11
11.0332516046213
 21
15.9240731707317
 31
0.0
  0
LINE
  5
6D
330
1F
100
AcDbEntity
  8
0
  6
Continuous
 62
     7
370
     0
100
AcDbLine
 10
11.1262516046213
 20
15.3150731707317
 30
0.0
 11
11.1262516046213
 21
15.9240731707317
 31
0.0
  0
LINE
  5
6E
330
1F
100
AcDbEntity
  8
0
  6
Continuous
 62
     7
370
     0
100
AcDbLine
 10
12.2512516046213
 20
15.3150731707317
 30
0.0
 11
12.2512516046213
 21
15.9240731707317
 31
0.0
  0
LINE
  5
6F
330
1F
100
AcDbEntity
  8
0
  6
Continuous
 62
     7
370
     0
100
AcDbLine
 10
21.8152516046213
 20
15.3150731707317
 30
0.0
 11
21.8152516046213
 21
15.9240731707317
 31
0.0
  0
LINE
  5
70
330
1F
100
AcDbEntity
  8
0
  6
Continuous
 62
     7
370
     0
100
AcDbLine
 10
21.9082516046213
 20
15.3150731707317
 30
0.0
 11
21.9082516046213
 21
15.9240731707317
 31
0.0
  0
LINE
  5
71
330
1F
100
AcDbEntity
  8
0
  6
Continuous
 62
     7
370
     0
100
AcDbLine
 10
23.0332516046213
 20
15.3150731707317
 30
0.0
 11
23.0332516046213
 21
15.9240731707317
 31
0.0
  0
MTEXT
  5
73
330
1F
100
AcDbEntity
  8
0
  6
Continuous
 62
     7
370
     0
100
AcDbMText
 10
15.07775838118352
 20
6.345344356724344
 30
0.0
 40
0.125
 41
0.0
 71
     1
 72
     1
  1
VIEW OF BOTTOM HALF
  7
SLDTEXTSTYLE0
 73
     1
 44
1.0
  0
INSERT
  5
79
330
1F
100
AcDbEntity
  8
0
  6
Continuous
 62
     7
370
     0
100
AcDbBlockReference
  2
SW_NOTE_0
 10
20.73089674596236
 20
6.592360156523983
 30
0.0
  0
MTEXT
  5
7A
330
1F
100
AcDbEntity
  8
0
  6
Continuous
 62
     7
370
     0
100
AcDbMText
 10
13.9182096148662
 20
2.75528739039358
 30
0.0
 40
0.125
 41
0.0
 71
     1
 72
     1
  1
END PANEL
  7
SLDTEXTSTYLE0
 73
     1
 44
1.0
  0
INSERT
  5
84
330
1F
100
AcDbEntity
  8
0
  6
Continuous
 62
     7
370
     0
100
AcDbBlockReference
  2
SW_NOTE_1
 10
17.68348763648045
 20
3.420492738240478
 30
0.0
  0
INSERT
  5
8A
330
1F
100
AcDbEntity
  8
0
  6
Continuous
 62
     7
370
     0
100
AcDbBlockReference
  2
SW_NOTE_2
 10
0.60333369952084
 20
15.60171867431539
 30
0.0
  0
INSERT
  5
90
330
1F
100
AcDbEntity
  8
0
  6
Continuous
 62
     7
370
     0
100
AcDbBlockReference
  2
SW_NOTE_3
 10
11.38611183856012
 20
15.59763966192094
 30
0.0
  0
INSERT
  5
96
330
1F
100
AcDbEntity
  8
0
  6
Continuous
 62
     7
370
     0
100
AcDbBlockReference
  2
SW_NOTE_4
 10
21.9355375155424
 20
15.57691558996247
 30
0.0
  0
MTEXT
  5
97
330
1F
100
AcDbEntity
  8
0
  6
Continuous
 62
     7
370
     0
100
AcDbMText
 10
15.91103163930345
 20
15.77343774965945
 30
0.0
 40
0.2916666666666666
 41
0.0
 71
     1
 72
     1
  1
HP-3650-B
  7
SLDTEXTSTYLE0
 73
     1
 44
1.0
  0
MTEXT
  5
98
330
1F
100
AcDbEntity
  8
0
  6
Continuous
 62
     7
370
     0
100
AcDbMText
 10
23.19246250011451
 20
15.77337372561754
 30
0.0
 40
0.2916666666666666
 41
0.0
 71
     1
 72
     1
  1
2-6-2009
  7
SLDTEXTSTYLE0
 73
     1
 44
1.0
  0
MTEXT
  5
99
330
1F
100
AcDbEntity
  8
0
  6
Continuous
 62
     7
370
     0
100
AcDbMText
 10
1.765251525200667
 20
15.77544314185062
 30
0.0
 40
0.2083333333333333
 41
0.0
 71
     1
 72
     1
  1
HAND-HELD PLASTIC BOX, STYLE 2
  7
SLDTEXTSTYLE0
 73
     1
 44
1.0
  0
LINE
  5
9A
330
1F
100
AcDbEntity
  8
0
  6
Continuous
 62
     7
370
    15
100
AcDbLine
 10
7.976263742375909
 20
9.604781282636627
 30
0.0
 11
7.974864338541942
 21
9.60691320467515
 31
0.0
  0
LINE
  5
9B
330
1F
100
AcDbEntity
  8
0
  6
Continuous
 62
     7
370
    15
100
AcDbLine
 10
7.974864338541942
 20
9.60691320467515
 30
0.0
 11
7.979818387979006
 21
9.601226710366017
 31
0.0
  0
LINE
  5
9C
330
1F
100
AcDbEntity
  8
0
  6
Continuous
 62
     7
370
    15
100
AcDbLine
 10
10.33915612604146
 20
9.601226710366017
 30
0.0
 11
10.34411017547852
 21
9.60691320467515
 31
0.0
  0
LINE
  5
9D
330
1F
100
AcDbEntity
  8
0
  6
Continuous
 62
     7
370
    15
100
AcDbLine
 10
10.34411017547852
 20
9.60691320467515
 30
0.0
 11
10.34271069831207
 21
9.604781282636627
 31
0.0
  0
LINE
  5
9E
330
1F
100
AcDbEntity
  8
0
  6
Continuous
 62
     7
370
    15
100
AcDbLine
 10
7.974864338541942
 20
9.60704021654123
 30
0.0
 11
7.974751919840612
 21
9.60704021654123
 31
0.0
  0
LINE
  5
9F
330
1F
100
AcDbEntity
  8
0
  6
Continuous
 62
     7
370
    15
100
AcDbLine
 10
7.974864338541942
 20
9.60691320467515
 30
0.0
 11
7.974864338541942
 21
9.60704021654123
 31
0.0
  0
LINE
  5
A0
330
1F
100
AcDbEntity
  8
0
  6
Continuous
 62
     7
370
    15
100
AcDbLine
 10
10.34411017547852
 20
9.60704021654123
 30
0.0
 11
10.34411017547852
 21
9.60691320467515
 31
0.0
  0
LINE
  5
A1
330
1F
100
AcDbEntity
  8
0
  6
Continuous
 62
     7
370
    15
100
AcDbLine
 10
10.34422266751234
 20
9.60704021654123
 30
0.0
 11
10.34411017547852
 21
9.60704021654123
 31
0.0
  0
LINE
  5
A2
330
1F
100
AcDbEntity
  8
0
  6
Continuous
 62
     7
370
    15
100
AcDbLine
 10
10.32735091574959
 20
9.590281103477268
 30
0.0
 11
10.34411017547852
 21
9.60704021654123
 31
0.0
  0
LINE
  5
A3
330
1F
100
AcDbEntity
  8
0
  6
Continuous
 62
     7
370
    15
100
AcDbLine
 10
7.992822217757655
 20
6.980615883885909
 30
0.0
 11
7.99162352493839
 21
6.978963042979668
 31
0.0
  0
LINE
  5
A4
330
1F
100
AcDbEntity
  8
0
  6
Continuous
 62
     7
370
    15
100
AcDbLine
 10
7.974864338541942
 20
9.60704021654123
 30
0.0
 11
7.99162352493839
 21
9.590281103477268
 31
0.0
  0
LINE
  5
A5
330
1F
100
AcDbEntity
  8
0
  6
Continuous
 62
     7
370
    15
100
AcDbLine
 10
10.32735091574959
 20
6.978963042979668
 30
0.0
 11
10.32615222293032
 21
6.980615663888451
 31
0.0
  0
LINE
  5
A6
330
1F
100
AcDbEntity
  8
0
  6
Continuous
 62
     7
370
    15
100
AcDbLine
 10
8.030714286691909
 20
9.469909200690427
 30
0.0
 11
10.28826015399607
 21
9.469909200690427
 31
0.0
  0
LINE
  5
A7
330
1F
100
AcDbEntity
  8
0
  6
Continuous
 62
     7
370
    15
100
AcDbLine
 10
10.28826015399607
 20
9.469909200690427
 30
0.0
 11
10.28826015399607
 21
7.097615958957725
 31
0.0
  0
LINE
  5
A8
330
1F
100
AcDbEntity
  8
0
  6
Continuous
 62
     7
370
    15
100
AcDbLine
 10
10.28826015399607
 20
7.097615958957725
 30
0.0
 11
8.030714286691909
 21
7.097615958957725
 31
0.0
  0
LINE
  5
A9
330
1F
100
AcDbEntity
  8
0
  6
Continuous
 62
     7
370
    15
100
AcDbLine
 10
8.030714286691909
 20
7.097615958957725
 30
0.0
 11
8.030714286691909
 21
9.469909200690427
 31
0.0
  0
LINE
  5
AA
330
1F
100
AcDbEntity
  8
0
  6
Continuous
 62
     7
370
    15
100
AcDbLine
 10
8.076816660780014
 20
9.366434862701476
 30
0.0
 11
8.076816660780014
 21
7.201080470393526
 31
0.0
  0
LINE
  5
AB
330
1F
100
AcDbEntity
  8
0
  6
Continuous
 62
     7
370
    15
100
AcDbLine
 10
8.076816660780014
 20
7.201080470393526
 30
0.0
 11
10.24217097975548
 21
7.201080470393526
 31
0.0
  0
LINE
  5
AC
330
1F
100
AcDbEntity
  8
0
  6
Continuous
 62
     7
370
    15
100
AcDbLine
 10
10.24217097975548
 20
7.201080470393526
 30
0.0
 11
10.24217097975548
 21
9.366434862701476
 31
0.0
  0
LINE
  5
AD
330
1F
100
AcDbEntity
  8
0
  6
Continuous
 62
     7
370
    15
100
AcDbLine
 10
10.24217097975548
 20
9.366434862701476
 30
0.0
 11
8.076816660780014
 21
9.366434862701476
 31
0.0
  0
LINE
  5
AE
330
1F
100
AcDbEntity
  8
0
  6
Continuous
 62
     7
370
    15
100
AcDbLine
 10
8.030714286691909
 20
6.979618122078806
 30
0.0
 11
10.28826015399607
 21
6.979618122078806
 31
0.0
  0
LINE
  5
AF
330
1F
100
AcDbEntity
  8
0
  6
Continuous
 62
     7
370
    15
100
AcDbLine
 10
8.030714286691909
 20
6.979618122078806
 30
0.0
 11
8.030714286691909
 21
7.097615958957725
 31
0.0
  0
LINE
  5
B0
330
1F
100
AcDbEntity
  8
0
  6
Continuous
 62
     7
370
    15
100
AcDbLine
 10
10.28826015399607
 20
7.097615958957725
 30
0.0
 11
10.28826015399607
 21
6.979618122078806
 31
0.0
  0
LINE
  5
B1
330
1F
100
AcDbEntity
  8
0
  6
Continuous
 62
     7
370
    15
100
AcDbLine
 10
7.873383837520016
 20
7.095971991282313
 30
0.0
 11
7.873383837520016
 21
9.471553168365838
 31
0.0
  0
ARC
  5
B2
330
1F
100
AcDbEntity
  8
0
  6
Continuous
 62
     7
370
    15
100
AcDbCircle
 10
7.996720311319029
 20
13.74584425936549
 30
0.0
 40
4.276070183751458
100
AcDbArc
 50
268.3471647296228
 51
270.4554957590465
  0
ARC
  5
B3
330
1F
100
AcDbEntity
  8
0
  6
Continuous
 62
     7
370
    15
100
AcDbCircle
 10
7.993625424312856
 20
3.117866749981419
 30
0.0
 40
3.979922028138252
100
AcDbArc
 50
89.466053348517
 51
91.73128616281557
  0
LINE
  5
B4
330
1F
100
AcDbEntity
  8
0
  6
Continuous
 62
     7
370
    15
100
AcDbLine
 10
10.28826015399607
 20
9.587907037569346
 30
0.0
 11
8.030714286691909
 21
9.587907037569346
 31
0.0
  0
LINE
  5
B5
330
1F
100
AcDbEntity
  8
0
  6
Continuous
 62
     7
370
    15
100
AcDbLine
 10
10.28826015399607
 20
9.587907037569346
 30
0.0
 11
10.28826015399607
 21
9.469909200690427
 31
0.0
  0
LINE
  5
B6
330
1F
100
AcDbEntity
  8
0
  6
Continuous
 62
     7
370
    15
100
AcDbLine
 10
8.030714286691909
 20
9.469909200690427
 30
0.0
 11
8.030714286691909
 21
9.587907037569346
 31
0.0
  0
ARC
  5
B7
330
1F
100
AcDbEntity
  8
0
  6
Continuous
 62
     7
370
    15
100
AcDbCircle
 10
10.32534838685722
 20
13.44971865558099
 30
0.0
 40
3.97998226557018
100
AcDbArc
 50
269.4660704930141
 51
271.7312690183197
  0
LINE
  5
B8
330
1F
100
AcDbEntity
  8
0
  6
Continuous
 62
     7
370
    15
100
AcDbLine
 10
10.44559060316796
 20
9.471553168365838
 30
0.0
 11
10.44559060316796
 21
7.095971991282313
 31
0.0
  0
ARC
  5
B9
330
1F
100
AcDbEntity
  8
0
  6
Continuous
 62
     7
370
    15
100
AcDbCircle
 10
10.32225561279942
 20
2.821822867055755
 30
0.0
 40
4.275928233258349
100
AcDbArc
 50
88.34712972992241
 51
90.45553075874478
  0
LINE
  5
BA
330
1F
100
AcDbEntity
  8
0
  6
Continuous
 62
     7
370
    15
100
AcDbLine
 10
10.32735091574959
 20
9.589421646739118
 30
0.0
 11
10.3269722267909
 21
9.589032104572476
 31
0.0
  0
LINE
  5
BB
330
1F
100
AcDbEntity
  8
0
  6
Continuous
 62
     7
370
    15
100
AcDbLine
 10
10.32759276628904
 20
9.589551005244759
 30
0.0
 11
10.3273513557445
 21
9.589421646739118
 31
0.0
  0
ARC
  5
BC
330
1F
100
AcDbEntity
  8
0
  6
Continuous
 62
     7
370
    15
100
AcDbCircle
 10
10.32732930238499
 20
9.47128970446179
 30
0.0
 40
0.1182615942565824
100
AcDbArc
 50
0.1276439941267305
 51
89.8723560058724
  0
LWPOLYLINE
  5
BD
330
1F
100
AcDbEntity
  8
0
  6
Continuous
 62
     7
370
    15
100
AcDbPolyline
 90
        3
 70
   128
 43
0.0
 10
10.28826015399607
 20
9.587907037569346
 10
10.29833251763926
 20
9.58796394357863
 10
10.30773124906432
 20
9.588132021636978
  0
LINE
  5
BE
330
1F
100
AcDbEntity
  8
0
  6
Continuous
 62
     7
370
    15
100
AcDbLine
 10
10.30773124906432
 20
9.588132021636978
 30
0.0
 11
10.31541546696224
 21
9.588381352090024
 31
0.0
  0
LWPOLYLINE
  5
BF
330
1F
100
AcDbEntity
  8
0
  6
Continuous
 62
     7
370
    15
100
AcDbPolyline
 90
        3
 70
   128
 43
0.0
 10
10.3269706134762
 20
9.589032104572476
 10
10.32234802687672
 20
9.588655908918321
 10
10.3154135603176
 20
9.588381498754998
  0
LINE
  5
C0
330
1F
100
AcDbEntity
  8
0
  6
Continuous
 62
     7
370
    15
100
AcDbLine
 10
7.99162352493839
 20
6.97810358624152
 30
0.0
 11
7.992002287229563
 21
6.978492981743189
 31
0.0
  0
LINE
  5
C1
330
1F
100
AcDbEntity
  8
0
  6
Continuous
 62
     7
370
    15
100
AcDbLine
 10
7.991381674398935
 20
6.977974154403393
 30
0.0
 11
7.991623231608445
 21
6.97810358624152
 31
0.0
  0
ARC
  5
C2
330
1F
100
AcDbEntity
  8
0
  6
Continuous
 62
     7
370
    15
100
AcDbCircle
 10
7.991645022305844
 20
7.096235339189222
 30
0.0
 40
0.1182614780013679
100
AcDbArc
 50
180.1275879207231
 51
269.8724120792785
  0
LWPOLYLINE
  5
C3
330
1F
100
AcDbEntity
  8
0
  6
Continuous
 62
     7
370
    15
100
AcDbPolyline
 90
        3
 70
   128
 43
0.0
 10
8.030714286691909
 20
6.979618122078806
 10
8.020641996381199
 20
6.979561216069522
 10
8.011243338288632
 20
6.979393138011174
  0
LINE
  5
C4
330
1F
100
AcDbEntity
  8
0
  6
Continuous
 62
     7
370
    15
100
AcDbLine
 10
8.011243338288632
 20
6.979393138011174
 30
0.0
 11
8.003559047058221
 21
6.979143734225641
 31
0.0
  0
LWPOLYLINE
  5
C5
330
1F
100
AcDbEntity
  8
0
  6
Continuous
 62
     7
370
    15
100
AcDbPolyline
 90
        3
 70
   128
 43
0.0
 10
7.992003827211773
 20
6.978492981743189
 10
7.996626267146285
 20
6.978869324062317
 10
8.00356095370286
 20
6.979143660893154
  0
LWPOLYLINE
  5
C6
330
1F
100
AcDbEntity
  8
0
  6
Continuous
 62
     7
370
    15
100
AcDbPolyline
 90
        3
 70
   128
 43
0.0
 10
8.011243338288632
 20
9.588132021636978
 10
8.020641996381199
 20
9.58796394357863
 10
8.030714286691909
 20
9.587907037569346
  0
ARC
  5
C7
330
1F
100
AcDbEntity
  8
0
  6
Continuous
 62
     7
370
    15
100
AcDbCircle
 10
7.991645138302982
 20
9.471289704461794
 30
0.0
 40
0.1182615942565798
100
AcDbArc
 50
90.12764399412629
 51
179.8723560058749
  0
LINE
  5
C8
330
1F
100
AcDbEntity
  8
0
  6
Continuous
 62
     7
370
    15
100
AcDbLine
 10
7.991381674398935
 20
9.589551005244759
 30
0.0
 11
7.99162352493839
 21
9.589421646739118
 31
0.0
  0
LINE
  5
C9
330
1F
100
AcDbEntity
  8
0
  6
Continuous
 62
     7
370
    15
100
AcDbLine
 10
7.992002287229563
 20
9.589032104572476
 30
0.0
 11
7.99162352493839
 21
9.589421646739118
 31
0.0
  0
LWPOLYLINE
  5
CA
330
1F
100
AcDbEntity
  8
0
  6
Continuous
 62
     7
370
    15
100
AcDbPolyline
 90
        3
 70
   128
 43
0.0
 10
7.992003827211773
 20
9.589032104572476
 10
7.996626340478772
 20
9.588655908918321
 10
8.00356095370286
 20
9.588381498754998
  0
LINE
  5
CB
330
1F
100
AcDbEntity
  8
0
  6
Continuous
 62
     7
370
    15
100
AcDbLine
 10
8.003559047058221
 20
9.588381352090024
 30
0.0
 11
8.011243338288632
 21
9.588132021636978
 31
0.0
  0
LWPOLYLINE
  5
CC
330
1F
100
AcDbEntity
  8
0
  6
Continuous
 62
     7
370
    15
100
AcDbPolyline
 90
        3
 70
   128
 43
0.0
 10
10.30773124906432
 20
6.979393138011174
 10
10.29833251763926
 20
6.979561216069522
 10
10.28826015399607
 20
6.979618122078806
  0
ARC
  5
CD
330
1F
100
AcDbEntity
  8
0
  6
Continuous
 62
     7
370
    15
100
AcDbCircle
 10
10.32732941838213
 20
7.096235339189222
 30
0.0
 40
0.1182614780013688
100
AcDbArc
 50
270.127587920724
 51
359.8724120792784
  0
LINE
  5
CE
330
1F
100
AcDbEntity
  8
0
  6
Continuous
 62
     7
370
    15
100
AcDbLine
 10
10.32759276628904
 20
6.977974154403393
 30
0.0
 11
10.32735091574959
 21
6.97810358624152
 31
0.0
  0
LINE
  5
CF
330
1F
100
AcDbEntity
  8
0
  6
Continuous
 62
     7
370
    15
100
AcDbLine
 10
10.3269722267909
 20
6.978493055075675
 30
0.0
 11
10.32735091574959
 21
6.97810358624152
 31
0.0
  0
LWPOLYLINE
  5
D0
330
1F
100
AcDbEntity
  8
0
  6
Continuous
 62
     7
370
    15
100
AcDbPolyline
 90
        3
 70
   128
 43
0.0
 10
10.32697076014118
 20
6.978492981743189
 10
10.32234817354169
 20
6.978869324062317
 10
10.3154135603176
 20
6.979143660893154
  0
LINE
  5
D1
330
1F
100
AcDbEntity
  8
0
  6
Continuous
 62
     7
370
    15
100
AcDbLine
 10
10.31541546696224
 20
6.979143734225641
 30
0.0
 11
10.30773124906432
 21
6.979393138011174
 31
0.0
  0
ARC
  5
D2
330
1F
100
AcDbEntity
  8
0
  6
Continuous
 62
     7
370
    15
100
AcDbCircle
 10
10.29680001374649
 20
6.288968484174338
 30
0.0
 40
0.6904261283256917
100
AcDbArc
 50
88.45514697742414
 51
90.1184131258015
  0
LINE
  5
D3
330
1F
100
AcDbEntity
  8
0
  6
Continuous
 62
     7
370
    15
100
AcDbLine
 10
8.023601402193889
 20
6.979393138011174
 30
0.0
 11
10.29537311182657
 21
6.979393138011174
 31
0.0
  0
LWPOLYLINE
  5
D4
330
1F
100
AcDbEntity
  8
0
  6
Continuous
 62
     7
370
    15
100
AcDbPolyline
 90
        3
 70
   128
 43
0.0
 10
8.00356095370286
 20
6.979143660893154
 10
8.013327447546158
 20
6.979335132014598
 10
8.023601402193889
 20
6.979393138011174
  0
ARC
  5
D5
330
1F
100
AcDbEntity
  8
0
  6
Continuous
 62
     7
370
    15
100
AcDbCircle
 10
8.022164325806937
 20
10.27773936251087
 30
0.0
 40
0.6896088382378132
100
AcDbArc
 50
268.4541612979339
 51
270.1193988052933
  0
LINE
  5
D6
330
1F
100
AcDbEntity
  8
0
  6
Continuous
 62
     7
370
    15
100
AcDbLine
 10
10.29537311182657
 20
9.588132021636978
 30
0.0
 11
8.023601402193889
 21
9.588132021636978
 31
0.0
  0
LWPOLYLINE
  5
D7
330
1F
100
AcDbEntity
  8
0
  6
Continuous
 62
     7
370
    15
100
AcDbPolyline
 90
        3
 70
   128
 43
0.0
 10
10.3154135603176
 20
9.588381498754998
 10
10.30564699314182
 20
9.588189954301068
 10
10.29537311182657
 20
9.588132021636978
  0
LINE
  5
D8
330
1F
100
AcDbEntity
  8
0
  6
Continuous
 62
     7
370
    15
100
AcDbLine
 10
10.34508212425049
 20
9.60704021654123
 30
0.0
 11
10.32759276628904
 21
9.589551005244759
 31
0.0
  0
ELLIPSE
  5
D9
330
1F
100
AcDbEntity
  8
0
  6
Continuous
 62
     7
370
    15
100
AcDbEllipse
 10
10.34485713257553
 20
9.488817495384106
 30
0.0
 11
0.0836756032569568
 21
0.083675603256955
 31
0.0
210
0.0
220
0.0
230
1.0
 40
0.9980991556472311
 41
5.498738469833211
 42
7.06763214452601
  0
LINE
  5
DA
330
1F
100
AcDbEntity
  8
0
  6
Continuous
 62
     7
370
    15
100
AcDbLine
 10
10.4630799611294
 20
9.489042379662311
 30
0.0
 11
10.44559060316796
 21
9.471553168365838
 31
0.0
  0
LINE
  5
DB
330
1F
100
AcDbEntity
  8
0
  6
Continuous
 62
     7
370
    15
100
AcDbLine
 10
10.4630799611294
 20
7.078482706653355
 30
0.0
 11
10.44559060316796
 21
7.095971991282313
 31
0.0
  0
ELLIPSE
  5
DC
330
1F
100
AcDbEntity
  8
0
  6
Continuous
 62
     7
370
    15
100
AcDbEllipse
 10
10.34485713257553
 20
7.078707641429048
 30
0.0
 11
0.0836756032569568
 21
-0.0836756032569568
 31
0.0
210
0.0
220
0.0
230
1.0
 40
0.9980991556472417
 41
5.498738469833206
 42
7.067632144526001
  0
LINE
  5
DD
330
1F
100
AcDbEntity
  8
0
  6
Continuous
 62
     7
370
    15
100
AcDbLine
 10
10.32759276628904
 20
6.977974154403393
 30
0.0
 11
10.34508212425049
 21
6.960484869774435
 31
0.0
  0
LINE
  5
DE
330
1F
100
AcDbEntity
  8
0
  6
Continuous
 62
     7
370
    15
100
AcDbLine
 10
7.973892389769977
 20
6.960484869774435
 30
0.0
 11
7.991381674398935
 21
6.977974154403393
 31
0.0
  0
ELLIPSE
  5
DF
330
1F
100
AcDbEntity
  8
0
  6
Continuous
 62
     7
370
    15
100
AcDbEllipse
 10
7.974117357360633
 20
7.078707641429049
 30
0.0
 11
-0.0836756032569559
 21
-0.0836756032569568
 31
0.0
210
0.0
220
0.0
230
1.0
 40
0.9980991556472309
 41
5.498738469833195
 42
7.067632144525994
  0
LINE
  5
E0
330
1F
100
AcDbEntity
  8
0
  6
Continuous
 62
     7
370
    15
100
AcDbLine
 10
7.855894626223544
 20
7.078482706653355
 30
0.0
 11
7.873383837520016
 21
7.095971991282313
 31
0.0
  0
LINE
  5
E1
330
1F
100
AcDbEntity
  8
0
  6
Continuous
 62
     7
370
    15
100
AcDbLine
 10
7.855894626223544
 20
9.489042379662311
 30
0.0
 11
7.873383837520016
 21
9.471553168365838
 31
0.0
  0
ELLIPSE
  5
E2
330
1F
100
AcDbEntity
  8
0
  6
Continuous
 62
     7
370
    15
100
AcDbEllipse
 10
7.974117357360633
 20
9.488817495384106
 30
0.0
 11
-0.0836756032569559
 21
0.083675603256955
 31
0.0
210
0.0
220
0.0
230
1.0
 40
0.9980991556472471
 41
5.498738469833188
 42
7.067632144526001
  0
LINE
  5
E3
330
1F
100
AcDbEntity
  8
0
  6
Continuous
 62
     7
370
    15
100
AcDbLine
 10
7.991381674398935
 20
9.589551005244759
 30
0.0
 11
7.973892389769977
 21
9.60704021654123
 31
0.0
  0
LINE
  5
E4
330
1F
100
AcDbEntity
  8
0
  6
Continuous
 62
     7
370
    15
100
AcDbLine
 10
10.34508212425049
 20
9.60704021654123
 30
0.0
 11
10.34496963221667
 21
9.60704021654123
 31
0.0
  0
LINE
  5
E5
330
1F
100
AcDbEntity
  8
0
  6
Continuous
 62
     7
370
    15
100
AcDbLine
 10
10.34496963221667
 20
9.60704021654123
 30
0.0
 11
10.32735091574959
 21
9.589421646739118
 31
0.0
  0
LINE
  5
E6
330
1F
100
AcDbEntity
  8
0
  6
Continuous
 62
     7
370
    15
100
AcDbLine
 10
7.973892389769977
 20
6.960484869774435
 30
0.0
 11
7.974004808471306
 21
6.960484869774435
 31
0.0
  0
LINE
  5
E7
330
1F
100
AcDbEntity
  8
0
  6
Continuous
 62
     7
370
    15
100
AcDbLine
 10
7.974004808471306
 20
6.960484869774435
 30
0.0
 11
7.99162352493839
 21
6.97810358624152
 31
0.0
  0
LINE
  5
E8
330
1F
100
AcDbEntity
  8
0
  6
Continuous
 62
     7
370
    15
100
AcDbLine
 10
10.34496963221667
 20
6.960484869774435
 30
0.0
 11
10.34508212425049
 21
6.960484869774435
 31
0.0
  0
LINE
  5
E9
330
1F
100
AcDbEntity
  8
0
  6
Continuous
 62
     7
370
    15
100
AcDbLine
 10
10.32735091574959
 20
6.97810358624152
 30
0.0
 11
10.34496963221667
 21
6.960484869774435
 31
0.0
  0
LINE
  5
EA
330
1F
100
AcDbEntity
  8
0
  6
Continuous
 62
     7
370
    15
100
AcDbLine
 10
7.974004808471306
 20
9.60704021654123
 30
0.0
 11
7.973892389769977
 21
9.60704021654123
 31
0.0
  0
LINE
  5
EB
330
1F
100
AcDbEntity
  8
0
  6
Continuous
 62
     7
370
    15
100
AcDbLine
 10
7.99162352493839
 20
9.589421646739118
 30
0.0
 11
7.974004808471306
 21
9.60704021654123
 31
0.0
  0
LINE
  5
EC
330
1F
100
AcDbEntity
  8
0
  6
Continuous
 62
     7
370
    15
100
AcDbLine
 10
7.855894626223544
 20
7.078482706653355
 30
0.0
 11
7.855894626223544
 21
9.489042379662311
 31
0.0
  0
LINE
  5
ED
330
1F
100
AcDbEntity
  8
0
  6
Continuous
 62
     7
370
    15
100
AcDbLine
 10
10.4630799611294
 20
9.489042379662311
 30
0.0
 11
10.4630799611294
 21
7.078482706653355
 31
0.0
  0
DIMENSION
  5
EE
330
1F
100
AcDbEntity
  8
0
  6
Continuous
 62
     7
370
     0
100
AcDbDimension
  2
*D6
 10
10.24217098390584
 20
10.9456430462057
 30
0.0
 11
9.214070101292323
 21
10.9456430462057
 31
0.0
 70
   160
  1
<>\PRECESS
 71
     2
 42
-1.0
  3
SLDDIMSTYLE0
100
AcDbAlignedDimension
 13
8.076816653197186
 23
9.366434821428798
 33
0.0
 14
10.24217098390584
 24
9.366434821428798
 34
0.0
100
AcDbRotatedDimension
  0
DIMENSION
  5
102
330
1F
100
AcDbEntity
  8
0
  6
Continuous
 62
     7
370
     0
100
AcDbDimension
  2
*D7
 10
11.42508598814174
 20
9.366434821428798
 30
0.0
 11
11.42508598814174
 21
8.624429398617333
 31
0.0
 70
   160
  1
<>\PRECESS
 71
     2
 42
-1.0
  3
SLDDIMSTYLE0
100
AcDbAlignedDimension
 13
10.24217098390584
 23
7.201080490720136
 33
0.0
 14
10.24217098390584
 24
9.366434821428798
 34
0.0
 50
90.00000000000019
100
AcDbRotatedDimension
  0
DIMENSION
  5
115
330
1F
100
AcDbEntity
  8
0
  6
Continuous
 62
     7
370
     0
100
AcDbDimension
  2
*D8
 10
10.46307989066568
 20
11.5015078382721
 30
0.0
 11
9.0390870060642
 21
11.5015078382721
 31
0.0
 70
   160
 71
     2
 42
-1.0
  3
SLDDIMSTYLE0
100
AcDbAlignedDimension
 13
7.855894599270476
 23
9.489042432027584
 33
0.0
 14
10.46307989066568
 24
9.489042432027586
 34
0.0
100
AcDbRotatedDimension
  0
DIMENSION
  5
127
330
1F
100
AcDbEntity
  8
0
  6
Continuous
 62
     7
370
     0
100
AcDbDimension
  2
*D9
 10
6.868681151451257
 20
6.96043793374044
 30
0.0
 11
6.868626126400207
 21
8.255880155701772
 31
0.0
 70
   160
 71
     2
 42
-1.0
  3
SLDDIMSTYLE0
100
AcDbAlignedDimension
 13
7.973892420717152
 23
9.607040253474261
 33
0.0
 14
7.97400483549095
 24
6.960484883338893
 34
0.0
 50
-89.99756631122769
100
AcDbRotatedDimension
  0
LINE
  5
139
330
1F
100
AcDbEntity
  8
0
  6
CENTER
 62
     7
370
     0
100
AcDbLine
 10
9.172795161032825
 20
9.965718400299458
 30
0.0
 11
9.172795161032837
 21
6.383289836707522
 31
0.0
  0
LINE
  5
13A
330
1F
100
AcDbEntity
  8
0
  6
Continuous
 62
     7
370
     0
100
AcDbLine
 10
9.172795161032825
 20
9.965718400299458
 30
0.0
 11
9.672795161032825
 21
9.96571840029946
 31
0.0
  0
SOLID
  5
13B
330
1F
100
AcDbEntity
  8
0
  6
Continuous
 62
     7
370
     0
100
AcDbTrace
 10
9.672795161032825
 20
9.96571840029946
 30
0.0
 11
9.422795161032825
 21
10.00571840029945
 31
0.0
 12
9.422795161032825
 22
9.925718400299459
 32
0.0
 13
9.422795161032825
 23
9.925718400299459
 33
0.0
  0
LINE
  5
13C
330
1F
100
AcDbEntity
  8
0
  6
Continuous
 62
     7
370
     0
100
AcDbLine
 10
9.172795161032837
 20
6.383289836707522
 30
0.0
 11
9.672795161032837
 21
6.383289836707525
 31
0.0
  0
SOLID
  5
13D
330
1F
100
AcDbEntity
  8
0
  6
Continuous
 62
     7
370
     0
100
AcDbTrace
 10
9.672795161032837
 20
6.383289836707525
 30
0.0
 11
9.422795161032837
 21
6.423289836707524
 31
0.0
 12
9.422795161032837
 22
6.343289836707524
 32
0.0
 13
9.422795161032837
 23
6.343289836707524
 33
0.0
  0
MTEXT
  5
13E
330
1F
100
AcDbEntity
  8
0
  6
Continuous
 62
     7
100
AcDbMText
 10
9.771957197343203
 20
10.02450573726199
 30
-0.000000000000046
 40
0.125
 41
0.0
 71
     1
 72
     1
  1
F
  7
SLDTEXTSTYLE0
 73
     1
 44
1.0
  0
MTEXT
  5
13F
330
1F
100
AcDbEntity
  8
0
  6
Continuous
 62
     7
100
AcDbMText
 10
9.771957197343215
 20
6.442077173670053
 30
-0.000000000000046
 40
0.125
 41
0.0
 71
     1
 72
     1
  1
F
  7
SLDTEXTSTYLE0
 73
     1
 44
1.0
  0
LINE
  5
140
330
1F
100
AcDbEntity
  8
0
  6
Continuous
 62
     7
370
    15
100
AcDbLine
 10
7.991381674398935
 20
3.146112983228648
 30
0.0
 11
7.974751919840612
 21
3.526997938213146
 31
0.0
  0
LINE
  5
141
330
1F
100
AcDbEntity
  8
0
  6
Continuous
 62
     7
370
    15
100
AcDbLine
 10
7.974751919840612
 20
3.526997938213146
 30
0.0
 11
7.974864338541942
 21
3.526997938213146
 31
0.0
  0
LINE
  5
142
330
1F
100
AcDbEntity
  8
0
  6
Continuous
 62
     7
370
    15
100
AcDbLine
 10
7.991381674398935
 20
3.146112983228648
 30
0.0
 11
7.99162352493839
 21
3.143149085801177
 31
0.0
  0
LINE
  5
143
330
1F
100
AcDbEntity
  8
0
  6
Continuous
 62
     7
370
    15
100
AcDbLine
 10
7.99162352493839
 20
3.143149085801177
 30
0.0
 11
7.974864338541942
 21
3.526997938213146
 31
0.0
  0
LINE
  5
144
330
1F
100
AcDbEntity
  8
0
  6
Continuous
 62
     7
370
    15
100
AcDbLine
 10
10.34411017547852
 20
3.526997938213146
 30
0.0
 11
10.34422266751234
 21
3.526997938213146
 31
0.0
  0
LINE
  5
145
330
1F
100
AcDbEntity
  8
0
  6
Continuous
 62
     7
370
    15
100
AcDbLine
 10
10.34422266751234
 20
3.526997938213146
 30
0.0
 11
10.32759276628904
 21
3.146112983228648
 31
0.0
  0
LINE
  5
146
330
1F
100
AcDbEntity
  8
0
  6
Continuous
 62
     7
370
    15
100
AcDbLine
 10
10.32735091574959
 20
3.143149085801177
 30
0.0
 11
10.32759276628904
 21
3.146112983228648
 31
0.0
  0
LINE
  5
147
330
1F
100
AcDbEntity
  8
0
  6
Continuous
 62
     7
370
    15
100
AcDbLine
 10
10.34411017547852
 20
3.526997938213146
 30
0.0
 11
10.32735091574959
 21
3.143149085801177
 31
0.0
  0
LINE
  5
148
330
1F
100
AcDbEntity
  8
0
  6
Continuous
 62
     7
370
    15
100
AcDbLine
 10
7.873383837520016
 20
3.146112983228648
 30
0.0
 11
7.856754082961693
 21
3.526997938213146
 31
0.0
  0
ARC
  5
149
330
1F
100
AcDbEntity
  8
0
  6
Continuous
 62
     7
370
    15
100
AcDbCircle
 10
7.932382755959475
 20
3.823898422403371
 30
0.0
 40
0.6803484209831736
100
AcDbArc
 50
265.0251369039823
 51
274.9748630960193
  0
LINE
  5
14A
330
1F
100
AcDbEntity
  8
0
  6
Continuous
 62
     7
370
    15
100
AcDbLine
 10
7.974751919840612
 20
3.526997938213146
 30
0.0
 11
7.856754082961693
 21
3.526997938213146
 31
0.0
  0
LINE
  5
14B
330
1F
100
AcDbEntity
  8
0
  6
Continuous
 62
     7
370
    15
100
AcDbLine
 10
10.46222035772628
 20
3.526997938213146
 30
0.0
 11
10.44559060316796
 21
3.146112983228648
 31
0.0
  0
ARC
  5
14C
330
1F
100
AcDbEntity
  8
0
  6
Continuous
 62
     7
370
    15
100
AcDbCircle
 10
10.3865916847285
 20
3.8238984224032
 30
0.0
 40
0.6803484209830032
100
AcDbArc
 50
265.0251369039811
 51
274.9748630960206
  0
LINE
  5
14D
330
1F
100
AcDbEntity
  8
0
  6
Continuous
 62
     7
370
    15
100
AcDbLine
 10
10.46222035772628
 20
3.526997938213146
 30
0.0
 11
10.34422266751234
 21
3.526997938213146
 31
0.0
  0
LINE
  5
14E
330
1F
100
AcDbEntity
  8
0
  6
Continuous
 62
     7
370
    15
100
AcDbLine
 10
8.002645690942721
 20
3.526997938213146
 30
0.0
 11
8.002523519020728
 21
3.542745942957518
 31
0.0
  0
LINE
  5
14F
330
1F
100
AcDbEntity
  8
0
  6
Continuous
 62
     7
370
    15
100
AcDbLine
 10
8.03477969306132
 20
3.167088824247276
 30
0.0
 11
8.033059972927674
 21
3.546682980809854
 31
0.0
  0
LINE
  5
150
330
1F
100
AcDbEntity
  8
0
  6
Continuous
 62
     7
370
    15
100
AcDbLine
 10
8.03477969306132
 20
3.167088824247276
 30
0.0
 11
7.997266533083212
 21
3.131869999431479
 31
0.0
  0
LINE
  5
151
330
1F
100
AcDbEntity
  8
0
  6
Continuous
 62
     7
370
    15
100
AcDbLine
 10
7.997266533083212
 20
3.131869999431479
 30
0.0
 11
7.992320990214545
 21
3.127174217844215
 31
0.0
  0
LINE
  5
152
330
1F
100
AcDbEntity
  8
0
  6
Continuous
 62
     7
370
    15
100
AcDbLine
 10
7.974864338541942
 20
3.526997938213146
 30
0.0
 11
8.002645690942721
 21
3.526997938213146
 31
0.0
  0
LINE
  5
153
330
1F
100
AcDbEntity
  8
0
  6
Continuous
 62
     7
370
    15
100
AcDbLine
 10
10.32665352380592
 20
3.127174217844215
 30
0.0
 11
10.32170798093725
 21
3.131869999431479
 31
0.0
  0
LINE
  5
154
330
1F
100
AcDbEntity
  8
0
  6
Continuous
 62
     7
370
    15
100
AcDbLine
 10
10.32170798093725
 20
3.131869999431479
 30
0.0
 11
10.28419474762666
 21
3.167088824247276
 31
0.0
  0
LINE
  5
155
330
1F
100
AcDbEntity
  8
0
  6
Continuous
 62
     7
370
    15
100
AcDbLine
 10
10.28591454109279
 20
3.546682980809854
 30
0.0
 11
10.28419474762666
 21
3.167088824247276
 31
0.0
  0
LINE
  5
156
330
1F
100
AcDbEntity
  8
0
  6
Continuous
 62
     7
370
    15
100
AcDbLine
 10
10.31632874974525
 20
3.526997938213146
 30
0.0
 11
10.31645092166725
 21
3.542745942957518
 31
0.0
  0
LINE
  5
157
330
1F
100
AcDbEntity
  8
0
  6
Continuous
 62
     7
370
    15
100
AcDbLine
 10
10.31632874974525
 20
3.526997938213146
 30
0.0
 11
10.34411017547852
 21
3.526997938213146
 31
0.0
  0
LINE
  5
158
330
1F
100
AcDbEntity
  8
0
  6
Continuous
 62
     7
370
    15
100
AcDbLine
 10
8.026424996242157
 20
3.093927083584614
 30
0.0
 11
8.030714286691909
 21
3.09816206216178
 31
0.0
  0
ARC
  5
159
330
1F
100
AcDbEntity
  8
0
  6
Continuous
 62
     7
370
    15
100
AcDbCircle
 10
8.024642683621289
 20
3.127993669425261
 30
0.0
 40
0.0341126966066518
100
AcDbArc
 50
201.1329845261728
 51
272.9950642113265
  0
ARC
  5
15A
330
1F
100
AcDbEntity
  8
0
  6
Continuous
 62
     7
370
    15
100
AcDbCircle
 10
8.044408297901529
 20
3.145199117476773
 30
0.0
 40
0.0489899109822735
100
AcDbArc
 50
195.7880073368744
 51
253.7680131864035
  0
ARC
  5
15B
330
1F
100
AcDbEntity
  8
0
  6
Continuous
 62
     7
370
    15
100
AcDbCircle
 10
10.2746146964296
 20
3.14515104107345
 30
0.0
 40
0.0489301901980214
100
AcDbArc
 50
286.1931345843578
 51
344.2507192782183
  0
ARC
  5
15C
330
1F
100
AcDbEntity
  8
0
  6
Continuous
 62
     7
370
    15
100
AcDbCircle
 10
10.29418743930081
 20
3.128217094512633
 30
0.0
 40
0.0343284484720996
100
AcDbArc
 50
267.2651943595957
 51
338.6060482358661
  0
LINE
  5
15D
330
1F
100
AcDbEntity
  8
0
  6
Continuous
 62
     7
370
    15
100
AcDbLine
 10
10.2925495177783
 20
3.093927083584614
 30
0.0
 11
10.28826015399607
 21
3.098162052995219
 31
0.0
  0
ARC
  5
15E
330
1F
100
AcDbEntity
  8
0
  6
Continuous
 62
     7
370
    15
100
AcDbCircle
 10
10.28826016708433
 20
3.15298218414
 30
0.0
 40
0.1574803227054883
100
AcDbArc
 50
269.9999952381206
 51
357.4999979195272
  0
LINE
  5
15F
330
1F
100
AcDbEntity
  8
0
  6
Continuous
 62
     7
370
    15
100
AcDbLine
 10
10.28826015399607
 20
2.995501861434513
 30
0.0
 11
10.28826015399607
 21
3.093927056084932
 31
0.0
  0
LWPOLYLINE
  5
160
330
1F
100
AcDbEntity
  8
0
  6
Continuous
 62
     7
370
    15
100
AcDbPolyline
 90
        3
 70
   128
 43
0.0
 10
10.2925495177783
 20
3.09392774357699
 10
10.29040483588719
 20
3.093927706910747
 10
10.28826015399607
 20
3.093927624411699
  0
LINE
  5
161
330
1F
100
AcDbEntity
  8
0
  6
Continuous
 62
     7
370
    15
100
AcDbLine
 10
10.32735091574959
 20
3.143149085801177
 30
0.0
 11
10.32615222293032
 21
3.115694310461085
 31
0.0
  0
LINE
  5
162
330
1F
100
AcDbEntity
  8
0
  6
Continuous
 62
     7
370
    15
100
AcDbLine
 10
8.030714286691909
 20
3.093927056084932
 30
0.0
 11
8.030714286691909
 21
2.995501861434513
 31
0.0
  0
ARC
  5
163
330
1F
100
AcDbEntity
  8
0
  6
Continuous
 62
     7
370
    15
100
AcDbCircle
 10
8.030714346426229
 20
3.152982260211477
 30
0.0
 40
0.1574803987769757
100
AcDbArc
 50
182.5000285753735
 51
269.999978266982
  0
LWPOLYLINE
  5
164
330
1F
100
AcDbEntity
  8
0
  6
Continuous
 62
     7
370
    15
100
AcDbPolyline
 90
        3
 70
   128
 43
0.0
 10
8.030714286691909
 20
3.093927551079213
 10
8.028569678133276
 20
3.093927578578896
 10
8.026425069574644
 20
3.093927560245774
  0
LINE
  5
165
330
1F
100
AcDbEntity
  8
0
  6
Continuous
 62
     7
370
    15
100
AcDbLine
 10
7.992822217757655
 20
3.115694328794206
 30
0.0
 11
7.99162352493839
 21
3.143149085801177
 31
0.0
  0
LINE
  5
166
330
1F
100
AcDbEntity
  8
0
  6
Continuous
 62
     7
370
    15
100
AcDbLine
 10
8.030714286691909
 20
3.098162052995219
 30
0.0
 11
8.030714286691909
 21
3.093927056084932
 31
0.0
  0
LINE
  5
167
330
1F
100
AcDbEntity
  8
0
  6
Continuous
 62
     7
370
    15
100
AcDbLine
 10
10.28826015399607
 20
3.093927056084932
 30
0.0
 11
10.28826015399607
 21
3.098162052995219
 31
0.0
  0
LINE
  5
168
330
1F
100
AcDbEntity
  8
0
  6
Continuous
 62
     7
370
    15
100
AcDbLine
 10
10.28826015399607
 20
3.093927056084932
 30
0.0
 11
8.030714286691909
 21
3.093927056084932
 31
0.0
  0
LINE
  5
169
330
1F
100
AcDbEntity
  8
0
  6
Continuous
 62
     7
370
    15
100
AcDbLine
 10
8.030714286691909
 20
2.995501861434513
 30
0.0
 11
10.28826015399607
 21
2.995501861434513
 31
0.0
  0
LINE
  5
16A
330
1F
100
AcDbEntity
  8
0
  6
Continuous
 62
     7
370
    15
100
AcDbLine
 10
8.068899978900866
 20
3.13382291687121
 30
0.0
 11
8.030714286691909
 21
3.098162052995219
 31
0.0
  0
LINE
  5
16B
330
1F
100
AcDbEntity
  8
0
  6
Continuous
 62
     7
370
    15
100
AcDbLine
 10
10.25007446178711
 20
3.13382291687121
 30
0.0
 11
8.068899978900866
 21
3.13382291687121
 31
0.0
  0
LINE
  5
16C
330
1F
100
AcDbEntity
  8
0
  6
Continuous
 62
     7
370
    15
100
AcDbLine
 10
10.28826015399607
 20
3.098162052995219
 30
0.0
 11
10.25007446178711
 21
3.13382291687121
 31
0.0
  0
ARC
  5
16D
330
1F
100
AcDbEntity
  8
0
  6
Continuous
 62
     7
370
    15
100
AcDbCircle
 10
8.067461746266928
 20
3.166479003140198
 30
0.0
 40
0.0326877420987887
100
AcDbArc
 50
178.9310303937144
 51
272.5217792964694
  0
ARC
  5
16E
330
1F
100
AcDbEntity
  8
0
  6
Continuous
 62
     7
370
    15
100
AcDbCircle
 10
10.25144477107972
 20
3.166548670977447
 30
0.0
 40
0.0327544306831832
100
AcDbArc
 50
267.6022828596195
 51
0.9449074502003448
  0
LINE
  5
16F
330
1F
100
AcDbEntity
  8
0
  6
Continuous
 62
     7
370
    15
100
AcDbLine
 10
7.899201712603053
 20
3.542745942957518
 30
0.0
 11
7.899201712603053
 21
3.526997938213146
 31
0.0
  0
LINE
  5
170
330
1F
100
AcDbEntity
  8
0
  6
Continuous
 62
     7
370
    15
100
AcDbLine
 10
10.41977287474989
 20
3.542745942957518
 30
0.0
 11
10.41977287474989
 21
3.526997938213146
 31
0.0
  0
LINE
  5
171
330
1F
100
AcDbEntity
  8
0
  6
Continuous
 62
     7
370
    15
100
AcDbLine
 10
7.974004808471306
 20
3.546682980809854
 30
0.0
 11
7.974176699818936
 21
3.546682980809854
 31
0.0
  0
LINE
  5
172
330
1F
100
AcDbEntity
  8
0
  6
Continuous
 62
     7
370
    15
100
AcDbLine
 10
8.034344464755781
 20
3.263150256204084
 30
0.0
 11
8.034344464755781
 21
3.936446758225438
 31
0.0
  0
LINE
  5
173
330
1F
100
AcDbEntity
  8
0
  6
Continuous
 62
     7
370
    15
100
AcDbLine
 10
8.034344464755781
 20
3.936446758225438
 30
0.0
 11
8.034618068261757
 21
3.942124305971255
 31
0.0
  0
LWPOLYLINE
  5
174
330
1F
100
AcDbEntity
  8
0
  6
Continuous
 62
     7
370
    15
100
AcDbPolyline
 90
        3
 70
   128
 43
0.0
 10
8.035627123271734
 20
3.156489016697157
 10
8.035479211647087
 20
3.157209123378423
 10
8.034344464755781
 20
3.16873020695255
  0
LWPOLYLINE
  5
175
330
1F
100
AcDbEntity
  8
0
  6
Continuous
 62
     7
370
    15
100
AcDbPolyline
 90
        4
 70
   128
 43
0.0
 10
8.023278079262277
 20
3.911798242967189
 10
8.026290431129998
 20
3.798147849199569
 10
8.029302856330206
 20
3.684492908817806
 10
8.033059972927674
 20
3.542745942957518
  0
LINE
  5
176
330
1F
100
AcDbEntity
  8
0
  6
Continuous
 62
     7
370
    15
100
AcDbLine
 10
8.033059972927674
 20
3.542745942957518
 30
0.0
 11
7.974004808471306
 21
3.542745942957518
 31
0.0
  0
LINE
  5
177
330
1F
100
AcDbEntity
  8
0
  6
Continuous
 62
     7
370
    15
100
AcDbLine
 10
7.991589205334853
 20
3.945493493716777
 30
0.0
 11
7.993413644258779
 21
3.944048990403802
 31
0.0
  0
LINE
  5
178
330
1F
100
AcDbEntity
  8
0
  6
Continuous
 62
     7
370
    15
100
AcDbLine
 10
7.993413644258779
 20
3.944048990403802
 30
0.0
 11
8.023887398890032
 21
3.920504862387578
 31
0.0
  0
LINE
  5
179
330
1F
100
AcDbEntity
  8
0
  6
Continuous
 62
     7
370
    15
100
AcDbLine
 10
8.023278079262277
 20
3.911798242967189
 30
0.0
 11
8.023883952263181
 21
3.920507062362164
 31
0.0
  0
LWPOLYLINE
  5
17A
330
1F
100
AcDbEntity
  8
0
  6
Continuous
 62
     7
370
    15
100
AcDbPolyline
 90
        4
 70
   128
 43
0.0
 10
10.28591454109279
 20
3.542745942957518
 10
10.28892703962548
 20
3.656403633307514
 10
10.29193953815817
 20
3.770059307014139
 10
10.29569650809067
 20
3.911798242967189
  0
LINE
  5
17B
330
1F
100
AcDbEntity
  8
0
  6
Continuous
 62
     7
370
    15
100
AcDbLine
 10
10.29508564848071
 20
3.920503909065258
 30
0.0
 11
10.29569650809067
 21
3.911798242967189
 31
0.0
  0
LINE
  5
17C
330
1F
100
AcDbEntity
  8
0
  6
Continuous
 62
     7
370
    15
100
AcDbLine
 10
10.29508711513043
 20
3.920504862387578
 30
0.0
 11
10.32556086976168
 21
3.944048990403802
 31
0.0
  0
LINE
  5
17D
330
1F
100
AcDbEntity
  8
0
  6
Continuous
 62
     7
370
    15
100
AcDbLine
 10
10.32556086976168
 20
3.944048990403802
 30
0.0
 11
10.32738538201809
 21
3.945493493716777
 31
0.0
  0
LINE
  5
17E
330
1F
100
AcDbEntity
  8
0
  6
Continuous
 62
     7
370
    15
100
AcDbLine
 10
10.34496963221667
 20
3.542745942957518
 30
0.0
 11
10.28591454109279
 21
3.542745942957518
 31
0.0
  0
LINE
  5
17F
330
1F
100
AcDbEntity
  8
0
  6
Continuous
 62
     7
370
    15
100
AcDbLine
 10
10.4630799611294
 20
3.542745942957518
 30
0.0
 11
10.44559060316796
 21
3.943315958871846
 31
0.0
  0
LINE
  5
180
330
1F
100
AcDbEntity
  8
0
  6
Continuous
 62
     7
370
    15
100
AcDbLine
 10
10.4630799611294
 20
3.542745942957518
 30
0.0
 11
10.34508212425049
 21
3.542745942957518
 31
0.0
  0
LINE
  5
181
330
1F
100
AcDbEntity
  8
0
  6
Continuous
 62
     7
370
    15
100
AcDbLine
 10
10.32759276628904
 20
3.943315958871846
 30
0.0
 11
10.34508212425049
 21
3.542745942957518
 31
0.0
  0
ARC
  5
182
330
1F
100
AcDbEntity
  8
0
  6
Continuous
 62
     7
370
    15
100
AcDbCircle
 10
10.3865916847285
 20
3.265522022904893
 30
0.0
 40
0.6803568857670212
100
AcDbArc
 50
85.02519895565702
 51
94.97480104434222
  0
LINE
  5
183
330
1F
100
AcDbEntity
  8
0
  6
Continuous
 62
     7
370
    15
100
AcDbLine
 10
10.34496963221667
 20
3.542745942957518
 30
0.0
 11
10.34508212425049
 21
3.542745942957518
 31
0.0
  0
LINE
  5
184
330
1F
100
AcDbEntity
  8
0
  6
Continuous
 62
     7
370
    15
100
AcDbLine
 10
10.32759276628904
 20
3.943315958871846
 30
0.0
 11
10.32735091574959
 21
3.946279837966195
 31
0.0
  0
LINE
  5
185
330
1F
100
AcDbEntity
  8
0
  6
Continuous
 62
     7
370
    15
100
AcDbLine
 10
10.32735091574959
 20
3.946279837966195
 30
0.0
 11
10.34496963221667
 21
3.542745942957518
 31
0.0
  0
LINE
  5
186
330
1F
100
AcDbEntity
  8
0
  6
Continuous
 62
     7
370
    15
100
AcDbLine
 10
7.973892389769977
 20
3.542745942957518
 30
0.0
 11
7.991381674398935
 21
3.943315958871846
 31
0.0
  0
LINE
  5
187
330
1F
100
AcDbEntity
  8
0
  6
Continuous
 62
     7
370
    15
100
AcDbLine
 10
7.973892389769977
 20
3.542745942957518
 30
0.0
 11
7.855894626223544
 21
3.542745942957518
 31
0.0
  0
LINE
  5
188
330
1F
100
AcDbEntity
  8
0
  6
Continuous
 62
     7
370
    15
100
AcDbLine
 10
7.855894626223544
 20
3.542745942957518
 30
0.0
 11
7.873383837520016
 21
3.943315958871846
 31
0.0
  0
ARC
  5
189
330
1F
100
AcDbEntity
  8
0
  6
Continuous
 62
     7
370
    15
100
AcDbCircle
 10
7.932382755959475
 20
3.265522022904868
 30
0.0
 40
0.6803568857670457
100
AcDbArc
 50
85.02519895565752
 51
94.97480104434234
  0
LINE
  5
18A
330
1F
100
AcDbEntity
  8
0
  6
Continuous
 62
     7
370
    15
100
AcDbLine
 10
7.991381674398935
 20
3.943315958871846
 30
0.0
 11
7.991623231608445
 21
3.946279837966195
 31
0.0
  0
LINE
  5
18B
330
1F
100
AcDbEntity
  8
0
  6
Continuous
 62
     7
370
    15
100
AcDbLine
 10
7.974004808471306
 20
3.542745942957518
 30
0.0
 11
7.99162352493839
 21
3.946279837966195
 31
0.0
  0
LINE
  5
18C
330
1F
100
AcDbEntity
  8
0
  6
Continuous
 62
     7
370
    15
100
AcDbLine
 10
7.973892389769977
 20
3.542745942957518
 30
0.0
 11
7.974004808471306
 21
3.542745942957518
 31
0.0
  0
ARC
  5
18D
330
1F
100
AcDbEntity
  8
0
  6
Continuous
 62
     7
370
    15
100
AcDbCircle
 10
8.034752351536045
 20
3.934993475026893
 30
0.0
 40
0.0423189210412681
100
AcDbArc
 50
105.2777203945299
 51
167.6441508277599
  0
LWPOLYLINE
  5
18E
330
1F
100
AcDbEntity
  8
0
  6
Continuous
 62
     7
370
    15
100
AcDbPolyline
 90
        3
 70
   128
 43
0.0
 10
7.992003827211773
 20
3.954955511077412
 10
7.996626267146285
 20
3.9636685104241
 10
8.00356095370286
 20
3.970101822772593
  0
LWPOLYLINE
  5
18F
330
1F
100
AcDbEntity
  8
0
  6
Continuous
 62
     7
370
    15
100
AcDbPolyline
 90
        3
 70
   128
 43
0.0
 10
8.00356095370286
 20
3.970101822772593
 10
8.013327447546158
 20
3.974488132101574
 10
8.023601402193889
 20
3.975816843418854
  0
ARC
  5
190
330
1F
100
AcDbEntity
  8
0
  6
Continuous
 62
     7
370
    15
100
AcDbCircle
 10
10.28422206631282
 20
3.934993383638758
 30
0.0
 40
0.0423190345408164
100
AcDbArc
 50
12.35594217480617
 51
74.72218660290296
  0
ARC
  5
191
330
1F
100
AcDbEntity
  8
0
  6
Continuous
 62
     7
370
    15
100
AcDbCircle
 10
10.29605609483401
 20
3.940217106310882
 30
0.0
 40
0.0356062880394066
100
AcDbArc
 50
57.06733732173151
 51
91.09908799839818
  0
LWPOLYLINE
  5
192
330
1F
100
AcDbEntity
  8
0
  6
Continuous
 62
     7
370
    15
100
AcDbPolyline
 90
        3
 70
   128
 43
0.0
 10
10.32697076014118
 20
3.954955511077412
 10
10.32234817354169
 20
3.963668657089072
 10
10.3154135603176
 20
3.970101822772593
  0
LWPOLYLINE
  5
193
330
1F
100
AcDbEntity
  8
0
  6
Continuous
 62
     7
370
    15
100
AcDbPolyline
 90
        3
 70
   128
 43
0.0
 10
8.030714286691909
 20
3.98096874390366
 10
8.020641996381199
 20
3.979665552291574
 10
8.011243338288632
 20
3.975816843418854
  0
LINE
  5
194
330
1F
100
AcDbEntity
  8
0
  6
Continuous
 62
     7
370
    15
100
AcDbLine
 10
8.030714286691909
 20
3.98096874390366
 30
0.0
 11
10.28826015399607
 21
3.98096874390366
 31
0.0
  0
LWPOLYLINE
  5
195
330
1F
100
AcDbEntity
  8
0
  6
Continuous
 62
     7
370
    15
100
AcDbPolyline
 90
        3
 70
   128
 43
0.0
 10
10.30773124906432
 20
3.975816843418854
 10
10.29833251763926
 20
3.979665552291574
 10
10.28826015399607
 20
3.98096874390366
  0
LINE
  5
196
330
1F
100
AcDbEntity
  8
0
  6
Continuous
 62
     7
370
    15
100
AcDbLine
 10
10.31541546696224
 20
3.970104682739555
 30
0.0
 11
10.30773124906432
 21
3.975816843418854
 31
0.0
  0
LINE
  5
197
330
1F
100
AcDbEntity
  8
0
  6
Continuous
 62
     7
370
    15
100
AcDbLine
 10
8.023601402193889
 20
3.975816843418854
 30
0.0
 11
10.29537311182657
 21
3.975816843418854
 31
0.0
  0
LINE
  5
198
330
1F
100
AcDbEntity
  8
0
  6
Continuous
 62
     7
370
    15
100
AcDbLine
 10
8.011243338288632
 20
3.975816843418854
 30
0.0
 11
8.003559047058221
 21
3.970104682739555
 31
0.0
  0
ARC
  5
199
330
1F
100
AcDbEntity
  8
0
  6
Continuous
 62
     7
370
    15
100
AcDbCircle
 10
8.03071424314149
 20
3.936446732273856
 30
0.0
 40
0.1574802933927674
100
AcDbArc
 50
89.99998415512751
 51
177.4999880994633
  0
LINE
  5
19A
330
1F
100
AcDbEntity
  8
0
  6
Continuous
 62
     7
370
    15
100
AcDbLine
 10
8.030714286691909
 20
3.98096874390366
 30
0.0
 11
8.030714286691909
 21
4.093927025666617
 31
0.0
  0
LINE
  5
19B
330
1F
100
AcDbEntity
  8
0
  6
Continuous
 62
     7
370
    15
100
AcDbLine
 10
7.99162352493839
 20
3.946279837966195
 30
0.0
 11
7.992002287229563
 21
3.954955877739843
 31
0.0
  0
LINE
  5
19C
330
1F
100
AcDbEntity
  8
0
  6
Continuous
 62
     7
370
    15
100
AcDbLine
 10
10.28826015399607
 20
4.093927025666617
 30
0.0
 11
10.28826015399607
 21
3.98096874390366
 31
0.0
  0
ARC
  5
19D
330
1F
100
AcDbEntity
  8
0
  6
Continuous
 62
     7
370
    15
100
AcDbCircle
 10
10.28826025904539
 20
3.936446796516485
 30
0.0
 40
0.1574802291501704
100
AcDbArc
 50
2.49998952548076
 51
90.00003821992725
  0
LINE
  5
19E
330
1F
100
AcDbEntity
  8
0
  6
Continuous
 62
     7
370
    15
100
AcDbLine
 10
10.3269722267909
 20
3.954955877739843
 30
0.0
 11
10.32735091574959
 21
3.946279837966195
 31
0.0
  0
LINE
  5
19F
330
1F
100
AcDbEntity
  8
0
  6
Continuous
 62
     7
370
    15
100
AcDbLine
 10
8.023601402193889
 20
3.975816843418854
 30
0.0
 11
8.053863959264916
 21
3.953145298655807
 31
0.0
  0
ARC
  5
1A0
330
1F
100
AcDbEntity
  8
0
  6
Continuous
 62
     7
370
    15
100
AcDbCircle
 10
8.06413590452173
 20
3.913620351365198
 30
0.0
 40
0.040836827116959
100
AcDbArc
 50
104.5667414887942
 51
170.2912612124196
  0
ARC
  5
1A1
330
1F
100
AcDbEntity
  8
0
  6
Continuous
 62
     7
370
    15
100
AcDbCircle
 10
10.25482868788655
 20
3.913618457178531
 30
0.0
 40
0.0408415514392349
100
AcDbArc
 50
9.705812827875424
 51
75.41996151374118
  0
LINE
  5
1A2
330
1F
100
AcDbEntity
  8
0
  6
Continuous
 62
     7
370
    15
100
AcDbLine
 10
10.26511055475555
 20
3.953145298655807
 30
0.0
 11
10.29537311182657
 21
3.975816843418854
 31
0.0
  0
LWPOLYLINE
  5
1A3
330
1F
100
AcDbEntity
  8
0
  6
Continuous
 62
     7
370
    15
100
AcDbPolyline
 90
        3
 70
   128
 43
0.0
 10
10.25139737983798
 20
3.954979050805479
 10
10.25960929830653
 20
3.954344944797392
 10
10.26510982143068
 20
3.953144785328404
  0
LINE
  5
1A4
330
1F
100
AcDbEntity
  8
0
  6
Continuous
 62
     7
370
    15
100
AcDbLine
 10
8.067577060849995
 20
3.954979050805479
 30
0.0
 11
10.25139737983798
 21
3.954979050805479
 31
0.0
  0
LWPOLYLINE
  5
1A5
330
1F
100
AcDbEntity
  8
0
  6
Continuous
 62
     7
370
    15
100
AcDbPolyline
 90
        3
 70
   128
 43
0.0
 10
8.053865132584695
 20
3.953144491998459
 10
8.061482837917646
 20
3.954631968148341
 10
8.067577060849995
 20
3.954979050805479
  0
LINE
  5
1A6
330
1F
100
AcDbEntity
  8
0
  6
Continuous
 62
     7
370
    15
100
AcDbLine
 10
10.28826015399607
 20
4.093927025666617
 30
0.0
 11
8.030714286691909
 21
4.093927025666617
 31
0.0
  0
ARC
  5
1A7
330
1F
100
AcDbEntity
  8
0
  6
Continuous
 62
     7
370
    15
100
AcDbCircle
 10
8.067395081767676
 20
3.87742909680531
 30
0.0
 40
0.0393700787401566
100
AcDbArc
 50
147.0857509300357
 51
177.5000000000001
  0
LINE
  5
1A8
330
1F
100
AcDbEntity
  8
0
  6
Continuous
 62
     7
370
    15
100
AcDbLine
 10
8.028062510658784
 20
3.879146366831115
 30
0.0
 11
8.025623912163016
 21
3.823293852044132
 31
0.0
  0
LINE
  5
1A9
330
1F
100
AcDbEntity
  8
0
  6
Continuous
 62
     7
370
    15
100
AcDbLine
 10
7.974004808471306
 20
3.542745942957518
 30
0.0
 11
7.974004808471306
 21
3.526997938213146
 31
0.0
  0
LINE
  5
1AA
330
1F
100
AcDbEntity
  8
0
  6
Continuous
 62
     7
370
    15
100
AcDbLine
 10
10.34496963221667
 20
3.542745942957518
 30
0.0
 11
10.34496963221667
 21
3.526997938213146
 31
0.0
  0
LINE
  5
1AB
330
1F
100
AcDbEntity
  8
0
  6
Continuous
 62
     7
370
    15
100
AcDbLine
 10
17.22602165177921
 20
9.199492017233659
 30
0.0
 11
17.25131769289051
 21
9.199492017233659
 31
0.0
  0
LINE
  5
1AC
330
1F
100
AcDbEntity
  8
0
  6
Continuous
 62
     7
370
    15
100
AcDbLine
 10
17.25131769289051
 20
9.199492017233659
 30
0.0
 11
17.25131769289051
 21
7.053646046229427
 31
0.0
  0
LINE
  5
1AD
330
1F
100
AcDbEntity
  8
0
  6
Continuous
 62
     7
370
    15
100
AcDbLine
 10
17.25131769289051
 20
7.053646046229427
 30
0.0
 11
17.22602165177921
 21
7.053646046229427
 31
0.0
  0
LINE
  5
1AE
330
1F
100
AcDbEntity
  8
0
  6
Continuous
 62
     7
370
    15
100
AcDbLine
 10
17.22602165177921
 20
7.053646046229427
 30
0.0
 11
17.22602165177921
 21
9.199492017233659
 31
0.0
  0
LINE
  5
1AF
330
1F
100
AcDbEntity
  8
0
  6
Continuous
 62
     7
370
    15
100
AcDbLine
 10
17.22602165177921
 20
9.199492017233659
 30
0.0
 11
17.222921594258
 21
9.202591928089891
 31
0.0
  0
LINE
  5
1B0
330
1F
100
AcDbEntity
  8
0
  6
Continuous
 62
     7
370
    15
100
AcDbLine
 10
17.222921594258
 20
7.05054606204071
 30
0.0
 11
17.22602165177921
 21
7.053646046229427
 31
0.0
  0
LINE
  5
1B1
330
1F
100
AcDbEntity
  8
0
  6
Continuous
 62
     7
370
    15
100
AcDbLine
 10
17.222921594258
 20
7.05054606204071
 30
0.0
 11
17.222921594258
 21
9.202591928089891
 31
0.0
  0
LINE
  5
1B2
330
1F
100
AcDbEntity
  8
0
  6
Continuous
 62
     7
370
    15
100
AcDbLine
 10
17.25441775041172
 20
9.202591928089891
 30
0.0
 11
17.25131769289051
 21
9.199492017233659
 31
0.0
  0
LINE
  5
1B3
330
1F
100
AcDbEntity
  8
0
  6
Continuous
 62
     7
370
    15
100
AcDbLine
 10
17.222921594258
 20
9.202591928089891
 30
0.0
 11
17.25441775041172
 21
9.202591928089891
 31
0.0
  0
LINE
  5
1B4
330
1F
100
AcDbEntity
  8
0
  6
Continuous
 62
     7
370
    15
100
AcDbLine
 10
17.25131769289051
 20
7.053646046229427
 30
0.0
 11
17.25441775041172
 21
7.05054606204071
 31
0.0
  0
LINE
  5
1B5
330
1F
100
AcDbEntity
  8
0
  6
Continuous
 62
     7
370
    15
100
AcDbLine
 10
17.25441775041172
 20
7.05054606204071
 30
0.0
 11
17.222921594258
 21
7.05054606204071
 31
0.0
  0
LINE
  5
1B6
330
1F
100
AcDbEntity
  8
0
  6
Continuous
 62
     7
370
    15
100
AcDbLine
 10
14.73694657245359
 20
7.053646046229427
 30
0.0
 11
14.73694657245359
 21
9.199492017233659
 31
0.0
  0
LINE
  5
1B7
330
1F
100
AcDbEntity
  8
0
  6
Continuous
 62
     7
370
    15
100
AcDbLine
 10
14.73694657245359
 20
9.199492017233659
 30
0.0
 11
14.7622426135649
 21
9.199492017233659
 31
0.0
  0
LINE
  5
1B8
330
1F
100
AcDbEntity
  8
0
  6
Continuous
 62
     7
370
    15
100
AcDbLine
 10
14.7622426135649
 20
9.199492017233659
 30
0.0
 11
14.7622426135649
 21
7.053646046229427
 31
0.0
  0
LINE
  5
1B9
330
1F
100
AcDbEntity
  8
0
  6
Continuous
 62
     7
370
    15
100
AcDbLine
 10
14.7622426135649
 20
7.053646046229427
 30
0.0
 11
14.73694657245359
 21
7.053646046229427
 31
0.0
  0
LINE
  5
1BA
330
1F
100
AcDbEntity
  8
0
  6
Continuous
 62
     7
370
    15
100
AcDbLine
 10
14.76534259775361
 20
9.202591928089891
 30
0.0
 11
14.7622426135649
 21
9.199492017233659
 31
0.0
  0
LINE
  5
1BB
330
1F
100
AcDbEntity
  8
0
  6
Continuous
 62
     7
370
    15
100
AcDbLine
 10
14.73694657245359
 20
9.199492017233659
 30
0.0
 11
14.73384658826487
 21
9.202591928089891
 31
0.0
  0
LINE
  5
1BC
330
1F
100
AcDbEntity
  8
0
  6
Continuous
 62
     7
370
    15
100
AcDbLine
 10
14.73384658826487
 20
9.202591928089891
 30
0.0
 11
14.76534259775361
 21
9.202591928089891
 31
0.0
  0
LINE
  5
1BD
330
1F
100
AcDbEntity
  8
0
  6
Continuous
 62
     7
370
    15
100
AcDbLine
 10
14.7622426135649
 20
7.053646046229427
 30
0.0
 11
14.76534259775361
 21
7.05054606204071
 31
0.0
  0
LINE
  5
1BE
330
1F
100
AcDbEntity
  8
0
  6
Continuous
 62
     7
370
    15
100
AcDbLine
 10
14.76534259775361
 20
9.202591928089891
 30
0.0
 11
14.76534259775361
 21
7.05054606204071
 31
0.0
  0
LINE
  5
1BF
330
1F
100
AcDbEntity
  8
0
  6
Continuous
 62
     7
370
    15
100
AcDbLine
 10
17.25441775041172
 20
7.05054606204071
 30
0.0
 11
17.25441775041172
 21
9.202591928089891
 31
0.0
  0
LINE
  5
1C0
330
1F
100
AcDbEntity
  8
0
  6
Continuous
 62
     7
370
    15
100
AcDbLine
 10
14.73384658826487
 20
7.05054606204071
 30
0.0
 11
14.73694657245359
 21
7.053646046229427
 31
0.0
  0
LINE
  5
1C1
330
1F
100
AcDbEntity
  8
0
  6
Continuous
 62
     7
370
    15
100
AcDbLine
 10
14.73384658826487
 20
9.202591928089891
 30
0.0
 11
14.73384658826487
 21
7.05054606204071
 31
0.0
  0
LINE
  5
1C2
330
1F
100
AcDbEntity
  8
0
  6
Continuous
 62
     7
370
    15
100
AcDbLine
 10
14.76534259775361
 20
7.05054606204071
 30
0.0
 11
14.73384658826487
 21
7.05054606204071
 31
0.0
  0
LINE
  5
1C3
330
1F
100
AcDbEntity
  8
0
  6
Continuous
 62
     7
370
    15
100
AcDbLine
 10
17.1238379655472
 20
6.971805891653877
 30
0.0
 11
17.14024449601756
 21
6.971805891653877
 31
0.0
  0
LINE
  5
1C4
330
1F
100
AcDbEntity
  8
0
  6
Continuous
 62
     7
370
    15
100
AcDbLine
 10
17.1238379655472
 20
7.030860982777759
 30
0.0
 11
17.1238379655472
 21
6.971805891653877
 31
0.0
  0
LINE
  5
1C5
330
1F
100
AcDbEntity
  8
0
  6
Continuous
 62
     7
370
    15
100
AcDbLine
 10
17.1238379655472
 20
7.030860982777759
 30
0.0
 11
17.14024449601756
 21
7.030860982777759
 31
0.0
  0
LINE
  5
1C6
330
1F
100
AcDbEntity
  8
0
  6
Continuous
 62
     7
370
    15
100
AcDbLine
 10
17.14024449601756
 20
6.971805891653877
 30
0.0
 11
17.14024449601756
 21
7.030860982777759
 31
0.0
  0
LINE
  5
1C7
330
1F
100
AcDbEntity
  8
0
  6
Continuous
 62
     7
370
    15
100
AcDbLine
 10
17.25441775041172
 20
6.921289121894579
 30
0.0
 11
17.25441775041172
 21
7.05054606204071
 31
0.0
  0
ARC
  5
1C8
330
1F
100
AcDbEntity
  8
0
  6
Continuous
 62
     7
370
    15
100
AcDbCircle
 10
17.17976329553152
 20
6.92125276019479
 30
0.0
 40
0.0746544637354826
100
AcDbArc
 50
269.8858084328862
 51
0.0279068646663101
  0
LINE
  5
1C9
330
1F
100
AcDbEntity
  8
0
  6
Continuous
 62
     7
370
    15
100
AcDbLine
 10
17.15112630364332
 20
6.846598444727655
 30
0.0
 11
17.17961450787849
 21
6.846598444727655
 31
0.0
  0
LINE
  5
1CA
330
1F
100
AcDbEntity
  8
0
  6
Continuous
 62
     7
370
    15
100
AcDbLine
 10
17.12055941675461
 20
6.893065721267045
 30
0.0
 11
17.15112630364332
 21
6.846598444727655
 31
0.0
  0
LINE
  5
1CB
330
1F
100
AcDbEntity
  8
0
  6
Continuous
 62
     7
370
    15
100
AcDbLine
 10
17.17961450787849
 20
6.893065721267045
 30
0.0
 11
17.12055941675461
 21
6.893065721267045
 31
0.0
  0
LINE
  5
1CC
330
1F
100
AcDbEntity
  8
0
  6
Continuous
 62
     7
370
    15
100
AcDbLine
 10
17.17961450787849
 20
6.971805891653877
 30
0.0
 11
17.17961450787849
 21
6.893065721267045
 31
0.0
  0
LINE
  5
1CD
330
1F
100
AcDbEntity
  8
0
  6
Continuous
 62
     7
370
    15
100
AcDbLine
 10
17.17961450787849
 20
7.030860982777759
 30
0.0
 11
17.14024449601756
 21
7.030860982777759
 31
0.0
  0
LINE
  5
1CE
330
1F
100
AcDbEntity
  8
0
  6
Continuous
 62
     7
370
    15
100
AcDbLine
 10
17.17961450787849
 20
9.222277007352841
 30
0.0
 11
17.17961450787849
 21
7.030860982777759
 31
0.0
  0
LINE
  5
1CF
330
1F
100
AcDbEntity
  8
0
  6
Continuous
 62
     7
370
    15
100
AcDbLine
 10
17.14024449601756
 20
9.222277007352841
 30
0.0
 11
17.17961450787849
 21
9.222277007352841
 31
0.0
  0
LINE
  5
1D0
330
1F
100
AcDbEntity
  8
0
  6
Continuous
 62
     7
370
    15
100
AcDbLine
 10
17.14024449601756
 20
9.281332098476722
 30
0.0
 11
17.14024449601756
 21
9.222277007352841
 31
0.0
  0
LINE
  5
1D1
330
1F
100
AcDbEntity
  8
0
  6
Continuous
 62
     7
370
    15
100
AcDbLine
 10
17.17961450787849
 20
9.281332098476722
 30
0.0
 11
17.14024449601756
 21
9.281332098476722
 31
0.0
  0
LINE
  5
1D2
330
1F
100
AcDbEntity
  8
0
  6
Continuous
 62
     7
370
    15
100
AcDbLine
 10
17.17961450787849
 20
9.360072268863556
 30
0.0
 11
17.17961450787849
 21
9.281332098476722
 31
0.0
  0
LINE
  5
1D3
330
1F
100
AcDbEntity
  8
0
  6
Continuous
 62
     7
370
    15
100
AcDbLine
 10
17.12055941675461
 20
9.360072268863556
 30
0.0
 11
17.17961450787849
 21
9.360072268863556
 31
0.0
  0
LINE
  5
1D4
330
1F
100
AcDbEntity
  8
0
  6
Continuous
 62
     7
370
    15
100
AcDbLine
 10
17.1511264503083
 20
9.406539545402946
 30
0.0
 11
17.12055941675461
 21
9.360072268863556
 31
0.0
  0
LINE
  5
1D5
330
1F
100
AcDbEntity
  8
0
  6
Continuous
 62
     7
370
    15
100
AcDbLine
 10
17.17972699991231
 20
9.406539545402946
 30
0.0
 11
17.1511264503083
 21
9.406539545402946
 31
0.0
  0
ARC
  5
1D6
330
1F
100
AcDbEntity
  8
0
  6
Continuous
 62
     7
370
    15
100
AcDbCircle
 10
17.17975883387092
 20
9.331880628862148
 30
0.0
 40
0.0746589233276693
100
AcDbArc
 50
359.9755695441671
 51
90.02443045583367
  0
LINE
  5
1D7
330
1F
100
AcDbEntity
  8
0
  6
Continuous
 62
     7
370
    15
100
AcDbLine
 10
17.25441775041172
 20
9.202591928089891
 30
0.0
 11
17.25441775041172
 21
9.331848794903535
 31
0.0
  0
LINE
  5
1D8
330
1F
100
AcDbEntity
  8
0
  6
Continuous
 62
     7
370
    15
100
AcDbLine
 10
17.14024449601756
 20
6.971805891653877
 30
0.0
 11
17.17961450787849
 21
6.971805891653877
 31
0.0
  0
LINE
  5
1D9
330
1F
100
AcDbEntity
  8
0
  6
Continuous
 62
     7
370
    15
100
AcDbLine
 10
14.73384658826487
 20
9.331848794903535
 30
0.0
 11
14.73384658826487
 21
9.202591928089891
 31
0.0
  0
ARC
  5
1DA
330
1F
100
AcDbEntity
  8
0
  6
Continuous
 62
     7
370
    15
100
AcDbCircle
 10
14.80850531170534
 20
9.331880821931063
 30
0.0
 40
0.0746587303099355
100
AcDbArc
 50
89.97547756687492
 51
180.024578686999
  0
LINE
  5
1DB
330
1F
100
AcDbEntity
  8
0
  6
Continuous
 62
     7
370
    15
100
AcDbLine
 10
14.8371378150358
 20
9.406539545402946
 30
0.0
 11
14.8085372654318
 21
9.406539545402946
 31
0.0
  0
LINE
  5
1DC
330
1F
100
AcDbEntity
  8
0
  6
Continuous
 62
     7
370
    15
100
AcDbLine
 10
14.86770484858949
 20
9.360072268863556
 30
0.0
 11
14.8371378150358
 21
9.406539545402946
 31
0.0
  0
LINE
  5
1DD
330
1F
100
AcDbEntity
  8
0
  6
Continuous
 62
     7
370
    15
100
AcDbLine
 10
14.80864968413312
 20
9.360072268863556
 30
0.0
 11
14.86770484858949
 21
9.360072268863556
 31
0.0
  0
LINE
  5
1DE
330
1F
100
AcDbEntity
  8
0
  6
Continuous
 62
     7
370
    15
100
AcDbLine
 10
14.80864968413312
 20
9.281332098476722
 30
0.0
 11
14.80864968413312
 21
9.360072268863556
 31
0.0
  0
LINE
  5
1DF
330
1F
100
AcDbEntity
  8
0
  6
Continuous
 62
     7
370
    15
100
AcDbLine
 10
14.84801976932654
 20
9.281332098476722
 30
0.0
 11
14.80864968413312
 21
9.281332098476722
 31
0.0
  0
LINE
  5
1E0
330
1F
100
AcDbEntity
  8
0
  6
Continuous
 62
     7
370
    15
100
AcDbLine
 10
14.84801976932654
 20
9.222277007352841
 30
0.0
 11
14.84801976932654
 21
9.281332098476722
 31
0.0
  0
LINE
  5
1E1
330
1F
100
AcDbEntity
  8
0
  6
Continuous
 62
     7
370
    15
100
AcDbLine
 10
14.80864968413312
 20
9.222277007352841
 30
0.0
 11
14.84801976932654
 21
9.222277007352841
 31
0.0
  0
LINE
  5
1E2
330
1F
100
AcDbEntity
  8
0
  6
Continuous
 62
     7
370
    15
100
AcDbLine
 10
14.80864968413312
 20
7.030860982777759
 30
0.0
 11
14.80864968413312
 21
9.222277007352841
 31
0.0
  0
LINE
  5
1E3
330
1F
100
AcDbEntity
  8
0
  6
Continuous
 62
     7
370
    15
100
AcDbLine
 10
14.84801976932654
 20
7.030860982777759
 30
0.0
 11
14.80864968413312
 21
7.030860982777759
 31
0.0
  0
LINE
  5
1E4
330
1F
100
AcDbEntity
  8
0
  6
Continuous
 62
     7
370
    15
100
AcDbLine
 10
14.84801976932654
 20
7.030860982777759
 30
0.0
 11
14.84801976932654
 21
6.971805891653877
 31
0.0
  0
LINE
  5
1E5
330
1F
100
AcDbEntity
  8
0
  6
Continuous
 62
     7
370
    15
100
AcDbLine
 10
14.80864968413312
 20
6.893065721267045
 30
0.0
 11
14.80864968413312
 21
6.971805891653877
 31
0.0
  0
LINE
  5
1E6
330
1F
100
AcDbEntity
  8
0
  6
Continuous
 62
     7
370
    15
100
AcDbLine
 10
14.86770484858949
 20
6.893065721267045
 30
0.0
 11
14.80864968413312
 21
6.893065721267045
 31
0.0
  0
LINE
  5
1E7
330
1F
100
AcDbEntity
  8
0
  6
Continuous
 62
     7
370
    15
100
AcDbLine
 10
14.83713788836829
 20
6.846598444727655
 30
0.0
 11
14.86770484858949
 21
6.893065721267045
 31
0.0
  0
LINE
  5
1E8
330
1F
100
AcDbEntity
  8
0
  6
Continuous
 62
     7
370
    15
100
AcDbLine
 10
14.80864968413312
 20
6.846598444727655
 30
0.0
 11
14.83713788836829
 21
6.846598444727655
 31
0.0
  0
ARC
  5
1E9
330
1F
100
AcDbEntity
  8
0
  6
Continuous
 62
     7
370
    15
100
AcDbCircle
 10
14.80850092269536
 20
6.921252639855817
 30
0.0
 40
0.0746543433445036
100
AcDbArc
 50
179.9720007324601
 51
270.1141716315069
  0
LINE
  5
1EA
330
1F
100
AcDbEntity
  8
0
  6
Continuous
 62
     7
370
    15
100
AcDbLine
 10
14.73384658826487
 20
7.05054606204071
 30
0.0
 11
14.73384658826487
 21
6.921289121894579
 31
0.0
  0
LINE
  5
1EB
330
1F
100
AcDbEntity
  8
0
  6
Continuous
 62
     7
370
    15
100
AcDbLine
 10
14.80864968413312
 20
6.971805891653877
 30
0.0
 11
14.84801976932654
 21
6.971805891653877
 31
0.0
  0
LINE
  5
1EC
330
1F
100
AcDbEntity
  8
0
  6
Continuous
 62
     7
370
    15
100
AcDbLine
 10
14.84801976932654
 20
7.030860982777759
 30
0.0
 11
14.8644262997969
 21
7.030860982777759
 31
0.0
  0
LINE
  5
1ED
330
1F
100
AcDbEntity
  8
0
  6
Continuous
 62
     7
370
    15
100
AcDbLine
 10
14.8644262997969
 20
6.971805891653877
 30
0.0
 11
14.8644262997969
 21
7.030860982777759
 31
0.0
  0
LINE
  5
1EE
330
1F
100
AcDbEntity
  8
0
  6
Continuous
 62
     7
370
    15
100
AcDbLine
 10
14.84801976932654
 20
6.971805891653877
 30
0.0
 11
14.8644262997969
 21
6.971805891653877
 31
0.0
  0
LINE
  5
1EF
330
1F
100
AcDbEntity
  8
0
  6
Continuous
 62
     7
370
    15
100
AcDbLine
 10
17.16149067724653
 20
9.222277007352841
 30
0.0
 11
17.16149067724653
 21
7.030860982777759
 31
0.0
  0
LINE
  5
1F0
330
1F
100
AcDbEntity
  8
0
  6
Continuous
 62
     7
370
    15
100
AcDbLine
 10
14.8644262997969
 20
9.281332098476722
 30
0.0
 11
14.84801976932654
 21
9.281332098476722
 31
0.0
  0
LINE
  5
1F1
330
1F
100
AcDbEntity
  8
0
  6
Continuous
 62
     7
370
    15
100
AcDbLine
 10
14.8644262997969
 20
9.222277007352841
 30
0.0
 11
14.8644262997969
 21
9.281332098476722
 31
0.0
  0
LINE
  5
1F2
330
1F
100
AcDbEntity
  8
0
  6
Continuous
 62
     7
370
    15
100
AcDbLine
 10
14.8644262997969
 20
9.222277007352841
 30
0.0
 11
14.84801976932654
 21
9.222277007352841
 31
0.0
  0
LINE
  5
1F3
330
1F
100
AcDbEntity
  8
0
  6
Continuous
 62
     7
370
    15
100
AcDbLine
 10
14.82677351476509
 20
7.030860982777759
 30
0.0
 11
14.82677351476509
 21
9.222277007352841
 31
0.0
  0
LINE
  5
1F4
330
1F
100
AcDbEntity
  8
0
  6
Continuous
 62
     7
370
    15
100
AcDbLine
 10
14.8371378150358
 20
9.406539545402946
 30
0.0
 11
14.83729049327205
 21
9.406539545402946
 31
0.0
  0
LINE
  5
1F5
330
1F
100
AcDbEntity
  8
0
  6
Continuous
 62
     7
370
    15
100
AcDbLine
 10
14.83724444047072
 20
9.406609797924716
 30
0.0
 11
14.80950921420376
 21
9.448860163178224
 31
0.0
  0
LINE
  5
1F6
330
1F
100
AcDbEntity
  8
0
  6
Continuous
 62
     7
370
    15
100
AcDbLine
 10
14.80950921420376
 20
9.448860163178224
 30
0.0
 11
14.82696586587636
 21
9.428822647986642
 31
0.0
  0
LINE
  5
1F7
330
1F
100
AcDbEntity
  8
0
  6
Continuous
 62
     7
370
    15
100
AcDbLine
 10
14.82696586587636
 20
9.428822647986642
 30
0.0
 11
14.83191140874503
 21
9.420760767784837
 31
0.0
  0
LINE
  5
1F8
330
1F
100
AcDbEntity
  8
0
  6
Continuous
 62
     7
370
    15
100
AcDbLine
 10
14.83191140874503
 20
9.420760767784837
 30
0.0
 11
14.86942456872314
 21
9.360072268863556
 31
0.0
  0
LINE
  5
1F9
330
1F
100
AcDbEntity
  8
0
  6
Continuous
 62
     7
370
    15
100
AcDbLine
 10
14.86770484858949
 20
9.360072268863556
 30
0.0
 11
14.86942456872314
 21
9.360072268863556
 31
0.0
  0
LINE
  5
1FA
330
1F
100
AcDbEntity
  8
0
  6
Continuous
 62
     7
370
    15
100
AcDbLine
 10
17.1238379655472
 20
9.281332098476722
 30
0.0
 11
17.1238379655472
 21
9.222277007352841
 31
0.0
  0
LINE
  5
1FB
330
1F
100
AcDbEntity
  8
0
  6
Continuous
 62
     7
370
    15
100
AcDbLine
 10
17.14024449601756
 20
9.281332098476722
 30
0.0
 11
17.1238379655472
 21
9.281332098476722
 31
0.0
  0
LINE
  5
1FC
330
1F
100
AcDbEntity
  8
0
  6
Continuous
 62
     7
370
    15
100
AcDbLine
 10
17.14024449601756
 20
9.222277007352841
 30
0.0
 11
17.1238379655472
 21
9.222277007352841
 31
0.0
  0
LINE
  5
1FD
330
1F
100
AcDbEntity
  8
0
  6
Continuous
 62
     7
370
    15
100
AcDbLine
 10
17.15097362540707
 20
6.846598444727655
 30
0.0
 11
17.17875505114034
 21
6.804277826952376
 31
0.0
  0
LINE
  5
1FE
330
1F
100
AcDbEntity
  8
0
  6
Continuous
 62
     7
370
    15
100
AcDbLine
 10
17.17875505114034
 20
6.804277826952376
 30
0.0
 11
17.16129839946774
 21
6.824315268811472
 31
0.0
  0
LINE
  5
1FF
330
1F
100
AcDbEntity
  8
0
  6
Continuous
 62
     7
370
    15
100
AcDbLine
 10
17.16129839946774
 20
6.824315268811472
 30
0.0
 11
17.15635285659907
 21
6.832377149013277
 31
0.0
  0
LINE
  5
200
330
1F
100
AcDbEntity
  8
0
  6
Continuous
 62
     7
370
    15
100
AcDbLine
 10
17.15635285659907
 20
6.832377149013277
 30
0.0
 11
17.11883962328847
 21
6.893065721267045
 31
0.0
  0
LINE
  5
201
330
1F
100
AcDbEntity
  8
0
  6
Continuous
 62
     7
370
    15
100
AcDbLine
 10
17.12055941675461
 20
6.893065721267045
 30
0.0
 11
17.11883962328847
 21
6.893065721267045
 31
0.0
  0
LINE
  5
202
330
1F
100
AcDbEntity
  8
0
  6
Continuous
 62
     7
370
    15
100
AcDbLine
 10
17.15097362540707
 20
6.846598444727655
 30
0.0
 11
17.15112630364332
 21
6.846598444727655
 31
0.0
  0
LINE
  5
203
330
1F
100
AcDbEntity
  8
0
  6
Continuous
 62
     7
370
    15
100
AcDbLine
 10
17.15097377207205
 20
9.406539545402946
 30
0.0
 11
17.1511264503083
 21
9.406539545402946
 31
0.0
  0
LINE
  5
204
330
1F
100
AcDbEntity
  8
0
  6
Continuous
 62
     7
370
    15
100
AcDbLine
 10
17.11883962328847
 20
9.360072268863556
 30
0.0
 11
17.15635285659907
 21
9.420760767784837
 31
0.0
  0
LINE
  5
205
330
1F
100
AcDbEntity
  8
0
  6
Continuous
 62
     7
370
    15
100
AcDbLine
 10
17.15635285659907
 20
9.420760767784837
 30
0.0
 11
17.16129839946774
 21
9.428822647986642
 31
0.0
  0
LINE
  5
206
330
1F
100
AcDbEntity
  8
0
  6
Continuous
 62
     7
370
    15
100
AcDbLine
 10
17.16129839946774
 20
9.428822647986642
 30
0.0
 11
17.17875505114034
 21
9.448860163178224
 31
0.0
  0
LINE
  5
207
330
1F
100
AcDbEntity
  8
0
  6
Continuous
 62
     7
370
    15
100
AcDbLine
 10
17.17875505114034
 20
9.448860163178224
 30
0.0
 11
17.15101982487338
 21
9.406609797924716
 31
0.0
  0
LINE
  5
208
330
1F
100
AcDbEntity
  8
0
  6
Continuous
 62
     7
370
    15
100
AcDbLine
 10
17.11883962328847
 20
9.360072268863556
 30
0.0
 11
17.12055941675461
 21
9.360072268863556
 31
0.0
  0
LINE
  5
209
330
1F
100
AcDbEntity
  8
0
  6
Continuous
 62
     7
370
    15
100
AcDbLine
 10
14.83729056660454
 20
6.846598444727655
 30
0.0
 11
14.83713788836829
 21
6.846598444727655
 31
0.0
  0
LINE
  5
20A
330
1F
100
AcDbEntity
  8
0
  6
Continuous
 62
     7
370
    15
100
AcDbLine
 10
14.86942456872314
 20
6.893065721267045
 30
0.0
 11
14.83191140874503
 21
6.832377149013277
 31
0.0
  0
LINE
  5
20B
330
1F
100
AcDbEntity
  8
0
  6
Continuous
 62
     7
370
    15
100
AcDbLine
 10
14.83191140874503
 20
6.832377149013277
 30
0.0
 11
14.82696586587636
 21
6.824315268811472
 31
0.0
  0
LINE
  5
20C
330
1F
100
AcDbEntity
  8
0
  6
Continuous
 62
     7
370
    15
100
AcDbLine
 10
14.82696586587636
 20
6.824315268811472
 30
0.0
 11
14.80950921420376
 21
6.804277826952376
 31
0.0
  0
LINE
  5
20D
330
1F
100
AcDbEntity
  8
0
  6
Continuous
 62
     7
370
    15
100
AcDbLine
 10
14.80950921420376
 20
6.804277826952376
 30
0.0
 11
14.83729056660454
 21
6.846598444727655
 31
0.0
  0
LINE
  5
20E
330
1F
100
AcDbEntity
  8
0
  6
Continuous
 62
     7
370
    15
100
AcDbLine
 10
14.86942456872314
 20
6.893065721267045
 30
0.0
 11
14.86770484858949
 21
6.893065721267045
 31
0.0
  0
LINE
  5
20F
330
1F
100
AcDbEntity
  8
0
  6
Continuous
 62
     7
370
    15
100
AcDbLine
 10
14.80950921420376
 20
6.804150741753809
 30
0.0
 11
14.80950921420376
 21
6.804277826952376
 31
0.0
  0
LINE
  5
210
330
1F
100
AcDbEntity
  8
0
  6
Continuous
 62
     7
370
    15
100
AcDbLine
 10
14.80939679550243
 20
6.804150741753809
 30
0.0
 11
14.80950921420376
 21
6.804150741753809
 31
0.0
  0
ELLIPSE
  5
211
330
1F
100
AcDbEntity
  8
0
  6
Continuous
 62
     7
370
    15
100
AcDbEllipse
 10
14.80962170040255
 20
6.922373534692392
 30
0.0
 11
-0.0836756032569568
 21
-0.0836756032569568
 31
0.0
210
0.0
220
0.0
230
1.0
 40
0.9980991556472311
 41
5.498738469833201
 42
7.067632144526014
  0
LINE
  5
212
330
1F
100
AcDbEntity
  8
0
  6
Continuous
 62
     7
370
    15
100
AcDbLine
 10
14.69139895862351
 20
6.922148578632728
 30
0.0
 11
14.69139895862351
 21
9.330989338165386
 31
0.0
  0
ELLIPSE
  5
213
330
1F
100
AcDbEntity
  8
0
  6
Continuous
 62
     7
370
    15
100
AcDbEllipse
 10
14.80962170040255
 20
9.330764453887271
 30
0.0
 11
-0.0836756032569568
 21
0.0836756032569568
 31
0.0
210
0.0
220
0.0
230
1.0
 40
0.9980991556472311
 41
5.498738469833201
 42
7.067632144525999
  0
LINE
  5
214
330
1F
100
AcDbEntity
  8
0
  6
Continuous
 62
     7
370
    15
100
AcDbLine
 10
14.80950921420376
 20
9.448987175044305
 30
0.0
 11
14.80939679550243
 21
9.448987175044305
 31
0.0
  0
LINE
  5
215
330
1F
100
AcDbEntity
  8
0
  6
Continuous
 62
     7
370
    15
100
AcDbLine
 10
14.80950921420376
 20
9.448860163178224
 30
0.0
 11
14.80950921420376
 21
9.448987175044305
 31
0.0
  0
LINE
  5
216
330
1F
100
AcDbEntity
  8
0
  6
Continuous
 62
     7
370
    15
100
AcDbLine
 10
17.17875505114034
 20
6.804150741753809
 30
0.0
 11
17.17886754317416
 21
6.804150741753809
 31
0.0
  0
LINE
  5
217
330
1F
100
AcDbEntity
  8
0
  6
Continuous
 62
     7
370
    15
100
AcDbLine
 10
17.17875505114034
 20
6.804277826952376
 30
0.0
 11
17.17875505114034
 21
6.804150741753809
 31
0.0
  0
LINE
  5
218
330
1F
100
AcDbEntity
  8
0
  6
Continuous
 62
     7
370
    15
100
AcDbLine
 10
17.17875505114034
 20
9.448987175044305
 30
0.0
 11
17.17875505114034
 21
9.448860163178224
 31
0.0
  0
LINE
  5
219
330
1F
100
AcDbEntity
  8
0
  6
Continuous
 62
     7
370
    15
100
AcDbLine
 10
17.17886754317416
 20
9.448987175044305
 30
0.0
 11
17.17875505114034
 21
9.448987175044305
 31
0.0
  0
ELLIPSE
  5
21A
330
1F
100
AcDbEntity
  8
0
  6
Continuous
 62
     7
370
    15
100
AcDbEllipse
 10
17.17864254085727
 20
9.330764453887271
 30
0.0
 11
0.0836756032569568
 21
0.0836756032569568
 31
0.0
210
0.0
220
0.0
230
1.0
 40
0.9980991556472417
 41
5.498738469833206
 42
7.067632144525994
  0
LINE
  5
21B
330
1F
100
AcDbEntity
  8
0
  6
Continuous
 62
     7
370
    15
100
AcDbLine
 10
17.2968652333881
 20
9.330989338165386
 30
0.0
 11
17.2968652333881
 21
6.922148578632728
 31
0.0
  0
ELLIPSE
  5
21C
330
1F
100
AcDbEntity
  8
0
  6
Continuous
 62
     7
370
    15
100
AcDbEllipse
 10
17.17864254085727
 20
6.922373534692392
 30
0.0
 11
0.0836756032569568
 21
-0.0836756032569568
 31
0.0
210
0.0
220
0.0
230
1.0
 40
0.9980991556472149
 41
5.498738469833192
 42
7.067632144526007
  0
ARC
  5
21D
330
1F
100
AcDbEntity
  8
0
  6
Continuous
 62
     7
370
    15
100
AcDbCircle
 10
17.16330406320135
 20
9.430344473579978
 30
0.0
 40
0.00251766561498
100
AcDbArc
 50
174.6793718122351
 51
217.1899206354404
  0
ARC
  5
21E
330
1F
100
AcDbEntity
  8
0
  6
Continuous
 62
     7
370
    15
100
AcDbCircle
 10
17.16536771287692
 20
9.428521642807424
 30
0.0
 40
0.0050107282359905
100
AcDbArc
 50
132.2944139820562
 51
155.8063681121145
  0
LINE
  5
21F
330
1F
100
AcDbEntity
  8
0
  6
Continuous
 62
     7
370
    15
100
AcDbLine
 10
17.16199579141141
 20
9.432228061980342
 30
0.0
 11
17.17875505114034
 21
9.448987175044305
 31
0.0
  0
ARC
  5
220
330
1F
100
AcDbEntity
  8
0
  6
Continuous
 62
     7
370
    15
100
AcDbCircle
 10
14.82495896704216
 20
6.822792995533027
 30
0.0
 40
0.0025189201783702
100
AcDbArc
 50
354.6939316911409
 51
37.18105132580778
  0
ARC
  5
221
330
1F
100
AcDbEntity
  8
0
  6
Continuous
 62
     7
370
    15
100
AcDbCircle
 10
14.82290019381257
 20
6.824613817763658
 30
0.0
 40
0.0050063032276391
100
AcDbArc
 50
312.2830133869809
 51
335.8153524746719
  0
LINE
  5
222
330
1F
100
AcDbEntity
  8
0
  6
Continuous
 62
     7
370
    15
100
AcDbLine
 10
14.82626840060021
 20
6.820910001482744
 30
0.0
 11
14.80950921420376
 21
6.804150741753809
 31
0.0
  0
LINE
  5
223
330
1F
100
AcDbEntity
  8
0
  6
Continuous
 62
     7
370
    15
100
AcDbLine
 10
14.80950921420376
 20
9.448987175044305
 30
0.0
 11
14.82626840060021
 21
9.432228061980342
 31
0.0
  0
ARC
  5
224
330
1F
100
AcDbEntity
  8
0
  6
Continuous
 62
     7
370
    15
100
AcDbCircle
 10
14.82289545239534
 20
9.428520898216408
 30
0.0
 40
0.005011969948567
100
AcDbArc
 50
24.19658598023276
 51
47.70263192560841
  0
LWPOLYLINE
  5
225
330
1F
100
AcDbEntity
  8
0
  6
Continuous
 62
     7
370
    15
100
AcDbPolyline
 90
        7
 70
   128
 43
0.0
 10
14.82746709341947
 20
9.43057793437609
 10
14.82737058786764
 20
9.429917795335407
 10
14.82727224900367
 20
9.429390681424672
 10
14.8271711968377
 20
9.429013605780681
 10
14.82706860468951
 20
9.428815461402995
 10
14.82701727194918
 20
9.428791995007415
 10
14.82696586587636
 20
9.428822647986642
  0
LINE
  5
226
330
1F
100
AcDbEntity
  8
0
  6
Continuous
 62
     7
370
    15
100
AcDbLine
 10
17.17875505114034
 20
6.804150741753809
 30
0.0
 11
17.16199579141141
 21
6.820910001482744
 31
0.0
  0
ARC
  5
227
330
1F
100
AcDbEntity
  8
0
  6
Continuous
 62
     7
370
    15
100
AcDbCircle
 10
17.16536897963592
 20
6.824617703982299
 30
0.0
 40
0.0050125299623232
100
AcDbArc
 50
204.204136833333
 51
227.7047468456084
  0
LWPOLYLINE
  5
228
330
1F
100
AcDbEntity
  8
0
  6
Continuous
 62
     7
370
    15
100
AcDbPolyline
 90
        7
 70
   128
 43
0.0
 10
17.16079724525712
 20
6.822560055754509
 10
17.16089360414397
 20
6.823220194795193
 10
17.16099201634044
 20
6.823747308705928
 10
17.16109306850641
 20
6.824124311017432
 10
17.1611955873221
 20
6.824322455395118
 10
17.16124692006243
 20
6.824346068455671
 10
17.16129839946774
 20
6.824315268811472
  0
CIRCLE
  5
229
330
1F
100
AcDbEntity
  8
0
  6
Continuous
 62
     7
370
    15
100
AcDbCircle
 10
16.97838408913384
 20
8.4151903654994
 30
0.0
 40
0.1075197681980704
  0
CIRCLE
  5
22A
330
1F
100
AcDbEntity
  8
0
  6
Continuous
 62
     7
370
    15
100
AcDbCircle
 10
16.97838408913384
 20
8.4151903654994
 30
0.0
 40
0.1131889763779341
  0
CIRCLE
  5
22B
330
1F
100
AcDbEntity
  8
0
  6
Continuous
 62
     7
370
    15
100
AcDbCircle
 10
15.00988015212597
 20
8.415190365499416
 30
0.0
 40
0.1075197681980988
  0
CIRCLE
  5
22C
330
1F
100
AcDbEntity
  8
0
  6
Continuous
 62
     7
370
    15
100
AcDbCircle
 10
15.00988015212597
 20
8.415190365499416
 30
0.0
 40
0.0590551181102352
  0
CIRCLE
  5
22D
330
1F
100
AcDbEntity
  8
0
  6
Continuous
 62
     7
370
    15
100
AcDbCircle
 10
16.97838408913384
 20
8.415190365499398
 30
0.0
 40
0.059055118110237
  0
CIRCLE
  5
22E
330
1F
100
AcDbEntity
  8
0
  6
Continuous
 62
     7
370
    15
100
AcDbCircle
 10
15.00988015212597
 20
8.415190365499416
 30
0.0
 40
0.1131889763779625
  0
CIRCLE
  5
22F
330
1F
100
AcDbEntity
  8
0
  6
Continuous
 62
     7
370
    15
100
AcDbCircle
 10
15.4429510182677
 20
7.575387891927626
 30
0.0
 40
0.0953327640910189
  0
CIRCLE
  5
230
330
1F
100
AcDbEntity
  8
0
  6
Continuous
 62
     7
370
    15
100
AcDbCircle
 10
15.4429510182677
 20
7.575387891927626
 30
0.0
 40
0.0492125984251963
  0
CIRCLE
  5
231
330
1F
100
AcDbEntity
  8
0
  6
Continuous
 62
     7
370
    15
100
AcDbCircle
 10
15.4429510182677
 20
8.677750096652035
 30
0.0
 40
0.0953327640910189
  0
CIRCLE
  5
232
330
1F
100
AcDbEntity
  8
0
  6
Continuous
 62
     7
370
    15
100
AcDbCircle
 10
15.4429510182677
 20
8.677750096652035
 30
0.0
 40
0.0984251968504086
  0
CIRCLE
  5
233
330
1F
100
AcDbEntity
  8
0
  6
Continuous
 62
     7
370
    15
100
AcDbCircle
 10
15.4429510182677
 20
7.575387891927626
 30
0.0
 40
0.0984251968504086
  0
CIRCLE
  5
234
330
1F
100
AcDbEntity
  8
0
  6
Continuous
 62
     7
370
    15
100
AcDbCircle
 10
16.54531322299212
 20
7.575387891927628
 30
0.0
 40
0.0953327640910722
  0
CIRCLE
  5
235
330
1F
100
AcDbEntity
  8
0
  6
Continuous
 62
     7
370
    15
100
AcDbCircle
 10
16.54531322299212
 20
7.575387891927628
 30
0.0
 40
0.0984251968504602
  0
CIRCLE
  5
236
330
1F
100
AcDbEntity
  8
0
  6
Continuous
 62
     7
370
    15
100
AcDbCircle
 10
16.54531322299212
 20
8.677750096652038
 30
0.0
 40
0.0953327640910722
  0
CIRCLE
  5
237
330
1F
100
AcDbEntity
  8
0
  6
Continuous
 62
     7
370
    15
100
AcDbCircle
 10
16.54531322299212
 20
8.677750096652038
 30
0.0
 40
0.0984251968504602
  0
CIRCLE
  5
238
330
1F
100
AcDbEntity
  8
0
  6
Continuous
 62
     7
370
    15
100
AcDbCircle
 10
15.4429510182677
 20
8.677750096652035
 30
0.0
 40
0.0492125984251963
  0
CIRCLE
  5
239
330
1F
100
AcDbEntity
  8
0
  6
Continuous
 62
     7
370
    15
100
AcDbCircle
 10
16.54531322299212
 20
8.677750096652038
 30
0.0
 40
0.0492125984251963
  0
CIRCLE
  5
23A
330
1F
100
AcDbEntity
  8
0
  6
Continuous
 62
     7
370
    15
100
AcDbCircle
 10
16.54531322299212
 20
7.575387891927628
 30
0.0
 40
0.0492125984251963
  0
CIRCLE
  5
23B
330
1F
100
AcDbEntity
  8
0
  6
Continuous
 62
     7
370
    15
100
AcDbCircle
 10
15.4429510182677
 20
7.575387891927626
 30
0.0
 40
0.044291338582676
  0
CIRCLE
  5
23C
330
1F
100
AcDbEntity
  8
0
  6
Continuous
 62
     7
370
    15
100
AcDbCircle
 10
16.54531322299212
 20
7.575387891927628
 30
0.0
 40
0.0442913385826778
  0
CIRCLE
  5
23D
330
1F
100
AcDbEntity
  8
0
  6
Continuous
 62
     7
370
    15
100
AcDbCircle
 10
15.4429510182677
 20
8.677750096652035
 30
0.0
 40
0.044291338582676
  0
CIRCLE
  5
23E
330
1F
100
AcDbEntity
  8
0
  6
Continuous
 62
     7
370
    15
100
AcDbCircle
 10
16.54531322299212
 20
8.677750096652038
 30
0.0
 40
0.044291338582676
  0
LINE
  5
23F
330
1F
100
AcDbEntity
  8
0
  6
Continuous
 62
     7
370
    15
100
AcDbLine
 10
14.90375891208987
 20
7.030860982777759
 30
0.0
 11
14.90375891208987
 21
6.971805891653877
 31
0.0
  0
LINE
  5
240
330
1F
100
AcDbEntity
  8
0
  6
Continuous
 62
     7
370
    15
100
AcDbLine
 10
14.8644262997969
 20
7.030860982777759
 30
0.0
 11
14.90375891208987
 21
7.030860982777759
 31
0.0
  0
LINE
  5
241
330
1F
100
AcDbEntity
  8
0
  6
Continuous
 62
     7
370
    15
100
AcDbLine
 10
14.8644262997969
 20
6.971805891653877
 30
0.0
 11
14.90375891208987
 21
6.971805891653877
 31
0.0
  0
LINE
  5
242
330
1F
100
AcDbEntity
  8
0
  6
Continuous
 62
     7
370
    15
100
AcDbLine
 10
17.08450535325423
 20
6.971805891653877
 30
0.0
 11
17.08450535325423
 21
7.030860982777759
 31
0.0
  0
LINE
  5
243
330
1F
100
AcDbEntity
  8
0
  6
Continuous
 62
     7
370
    15
100
AcDbLine
 10
17.08450535325423
 20
7.030860982777759
 30
0.0
 11
17.1238379655472
 21
7.030860982777759
 31
0.0
  0
LINE
  5
244
330
1F
100
AcDbEntity
  8
0
  6
Continuous
 62
     7
370
    15
100
AcDbLine
 10
17.08450535325423
 20
6.971805891653877
 30
0.0
 11
17.1238379655472
 21
6.971805891653877
 31
0.0
  0
LINE
  5
245
330
1F
100
AcDbEntity
  8
0
  6
Continuous
 62
     7
370
    15
100
AcDbLine
 10
17.08450535325423
 20
9.222277007352841
 30
0.0
 11
17.08450535325423
 21
9.281332098476722
 31
0.0
  0
LINE
  5
246
330
1F
100
AcDbEntity
  8
0
  6
Continuous
 62
     7
370
    15
100
AcDbLine
 10
17.1238379655472
 20
9.281332098476722
 30
0.0
 11
17.08450535325423
 21
9.281332098476722
 31
0.0
  0
LINE
  5
247
330
1F
100
AcDbEntity
  8
0
  6
Continuous
 62
     7
370
    15
100
AcDbLine
 10
17.1238379655472
 20
9.222277007352841
 30
0.0
 11
17.08450535325423
 21
9.222277007352841
 31
0.0
  0
LINE
  5
248
330
1F
100
AcDbEntity
  8
0
  6
Continuous
 62
     7
370
    15
100
AcDbLine
 10
14.90375891208987
 20
9.281332098476722
 30
0.0
 11
14.90375891208987
 21
9.222277007352841
 31
0.0
  0
LINE
  5
249
330
1F
100
AcDbEntity
  8
0
  6
Continuous
 62
     7
370
    15
100
AcDbLine
 10
14.90375891208987
 20
9.281332098476722
 30
0.0
 11
14.8644262997969
 21
9.281332098476722
 31
0.0
  0
LINE
  5
24A
330
1F
100
AcDbEntity
  8
0
  6
Continuous
 62
     7
370
    15
100
AcDbLine
 10
14.90375891208987
 20
9.222277007352841
 30
0.0
 11
14.8644262997969
 21
9.222277007352841
 31
0.0
  0
LINE
  5
24B
330
1F
100
AcDbEntity
  8
0
  6
Continuous
 62
     7
370
    15
100
AcDbLine
 10
17.08471933744893
 20
9.360072268863556
 30
0.0
 11
17.12290502965789
 21
9.421838608666861
 31
0.0
  0
LWPOLYLINE
  5
24C
330
1F
100
AcDbEntity
  8
0
  6
Continuous
 62
     7
370
    15
100
AcDbPolyline
 90
        5
 70
   128
 43
0.0
 10
17.12290502965789
 20
9.421838608666861
 10
17.13523588721077
 20
9.417440272810145
 10
17.14596252329575
 20
9.416174114103585
 10
17.15234391624402
 20
9.417499378794014
 10
17.15635285659907
 20
9.420760767784837
  0
LINE
  5
24D
330
1F
100
AcDbEntity
  8
0
  6
Continuous
 62
     7
370
    15
100
AcDbLine
 10
17.08471933744893
 20
9.360072268863556
 30
0.0
 11
17.11883962328847
 21
9.360072268863556
 31
0.0
  0
LINE
  5
24E
330
1F
100
AcDbEntity
  8
0
  6
Continuous
 62
     7
370
    15
100
AcDbLine
 10
14.90354485456268
 20
6.893065721267045
 30
0.0
 11
14.86535916235373
 21
6.831299308131253
 31
0.0
  0
LWPOLYLINE
  5
24F
330
1F
100
AcDbEntity
  8
0
  6
Continuous
 62
     7
370
    15
100
AcDbPolyline
 90
        5
 70
   128
 43
0.0
 10
14.86535916235373
 20
6.831299308131253
 10
14.85302830480084
 20
6.835697790652941
 10
14.84230174204834
 20
6.836963949359501
 10
14.83592034910008
 20
6.835638611336586
 10
14.83191140874503
 20
6.832377149013277
  0
LINE
  5
250
330
1F
100
AcDbEntity
  8
0
  6
Continuous
 62
     7
370
    15
100
AcDbLine
 10
14.90354485456268
 20
6.893065721267045
 30
0.0
 11
14.86942456872314
 21
6.893065721267045
 31
0.0
  0
LINE
  5
251
330
1F
100
AcDbEntity
  8
0
  6
Continuous
 62
     7
370
    15
100
AcDbLine
 10
14.86535916235373
 20
9.421838608666861
 30
0.0
 11
14.90354485456268
 21
9.360072268863556
 31
0.0
  0
LWPOLYLINE
  5
252
330
1F
100
AcDbEntity
  8
0
  6
Continuous
 62
     7
370
    15
100
AcDbPolyline
 90
        5
 70
   128
 43
0.0
 10
14.83191140874503
 20
9.420760767784837
 10
14.83744405149813
 20
9.416938531939631
 10
14.84660709231257
 20
9.416314179152209
 10
14.85558834189374
 20
9.418133118139671
 10
14.86535916235373
 20
9.421838608666861
  0
LINE
  5
253
330
1F
100
AcDbEntity
  8
0
  6
Continuous
 62
     7
370
    15
100
AcDbLine
 10
14.86942456872314
 20
9.360072268863556
 30
0.0
 11
14.90354485456268
 21
9.360072268863556
 31
0.0
  0
LINE
  5
254
330
1F
100
AcDbEntity
  8
0
  6
Continuous
 62
     7
370
    15
100
AcDbLine
 10
17.12290502965789
 20
6.831299308131253
 30
0.0
 11
17.08471933744893
 21
6.893065721267045
 31
0.0
  0
LWPOLYLINE
  5
255
330
1F
100
AcDbEntity
  8
0
  6
Continuous
 62
     7
370
    15
100
AcDbPolyline
 90
        5
 70
   128
 43
0.0
 10
17.15635285659907
 20
6.832377149013277
 10
17.15082021384597
 20
6.836199384858482
 10
17.14165717303153
 20
6.836823810978391
 10
17.13267585011787
 20
6.83500487199093
 10
17.12290502965789
 20
6.831299308131253
  0
LINE
  5
256
330
1F
100
AcDbEntity
  8
0
  6
Continuous
 62
     7
370
    15
100
AcDbLine
 10
17.11883962328847
 20
6.893065721267045
 30
0.0
 11
17.08471933744893
 21
6.893065721267045
 31
0.0
  0
LINE
  5
257
330
1F
100
AcDbEntity
  8
0
  6
Continuous
 62
     7
370
    15
100
AcDbLine
 10
14.86535916235373
 20
9.429173910595494
 30
0.0
 11
14.86535916235373
 21
9.421838608666861
 31
0.0
  0
LINE
  5
258
330
1F
100
AcDbEntity
  8
0
  6
Continuous
 62
     7
370
    15
100
AcDbLine
 10
14.86535916235373
 20
9.429173910595494
 30
0.0
 11
17.12290502965789
 21
9.429173910595494
 31
0.0
  0
LINE
  5
259
330
1F
100
AcDbEntity
  8
0
  6
Continuous
 62
     7
370
    15
100
AcDbLine
 10
17.12290502965789
 20
9.421838608666861
 30
0.0
 11
17.12290502965789
 21
9.429173910595494
 31
0.0
  0
LINE
  5
25A
330
1F
100
AcDbEntity
  8
0
  6
Continuous
 62
     7
370
    15
100
AcDbLine
 10
14.90354485456268
 20
9.360072268863556
 30
0.0
 11
17.08471933744893
 21
9.360072268863556
 31
0.0
  0
LINE
  5
25B
330
1F
100
AcDbEntity
  8
0
  6
Continuous
 62
     7
370
    15
100
AcDbLine
 10
14.86535916235373
 20
6.831299308131253
 30
0.0
 11
14.86535916235373
 21
6.823964079535106
 31
0.0
  0
LINE
  5
25C
330
1F
100
AcDbEntity
  8
0
  6
Continuous
 62
     7
370
    15
100
AcDbLine
 10
17.12290502965789
 20
6.823964079535106
 30
0.0
 11
17.12290502965789
 21
6.831299308131253
 31
0.0
  0
LINE
  5
25D
330
1F
100
AcDbEntity
  8
0
  6
Continuous
 62
     7
370
    15
100
AcDbLine
 10
17.12290502965789
 20
6.823964079535106
 30
0.0
 11
14.86535916235373
 21
6.823964079535106
 31
0.0
  0
LINE
  5
25E
330
1F
100
AcDbEntity
  8
0
  6
Continuous
 62
     7
370
    15
100
AcDbLine
 10
17.08471933744893
 20
6.893065721267045
 30
0.0
 11
14.90354485456268
 21
6.893065721267045
 31
0.0
  0
CIRCLE
  5
25F
330
1F
100
AcDbEntity
  8
0
  6
Continuous
 62
     7
370
    15
100
AcDbCircle
 10
15.37053841969765
 20
9.005944987824303
 30
0.0
 40
0.059055118110237
  0
CIRCLE
  5
260
330
1F
100
AcDbEntity
  8
0
  6
Continuous
 62
     7
370
    15
100
AcDbCircle
 10
15.37053841969765
 20
9.005944987824303
 30
0.0
 40
0.1181102362204722
  0
CIRCLE
  5
261
330
1F
100
AcDbEntity
  8
0
  6
Continuous
 62
     7
370
    15
100
AcDbCircle
 10
16.61772582156217
 20
9.005944987824303
 30
0.0
 40
0.1181102362204704
  0
CIRCLE
  5
262
330
1F
100
AcDbEntity
  8
0
  6
Continuous
 62
     7
370
    15
100
AcDbCircle
 10
16.61772582156217
 20
9.005944987824303
 30
0.0
 40
0.0590551181102335
  0
LINE
  5
263
330
1F
100
AcDbEntity
  8
0
  6
Continuous
 62
     7
370
    15
100
AcDbLine
 10
14.90375891208987
 20
7.030860982777759
 30
0.0
 11
17.08450535325423
 21
7.030860982777759
 31
0.0
  0
LINE
  5
264
330
1F
100
AcDbEntity
  8
0
  6
Continuous
 62
     7
370
    15
100
AcDbLine
 10
14.90375891208987
 20
6.971805891653877
 30
0.0
 11
17.08450535325423
 21
6.971805891653877
 31
0.0
  0
LINE
  5
265
330
1F
100
AcDbEntity
  8
0
  6
Continuous
 62
     7
370
    15
100
AcDbLine
 10
17.08450535325423
 20
9.281332098476722
 30
0.0
 11
14.90375891208987
 21
9.281332098476722
 31
0.0
  0
LINE
  5
266
330
1F
100
AcDbEntity
  8
0
  6
Continuous
 62
     7
370
    15
100
AcDbLine
 10
17.08450535325423
 20
9.222277007352841
 30
0.0
 11
14.90375891208987
 21
9.222277007352841
 31
0.0
  0
LINE
  5
267
330
1F
100
AcDbEntity
  8
0
  6
Continuous
 62
     7
370
    15
100
AcDbLine
 10
14.86535916235373
 20
9.421838608666861
 30
0.0
 11
14.86106994523646
 21
9.429152497509527
 31
0.0
  0
ARC
  5
268
330
1F
100
AcDbEntity
  8
0
  6
Continuous
 62
     7
370
    15
100
AcDbCircle
 10
14.85281615468573
 20
9.631535178776047
 30
0.0
 40
0.2025520912152326
100
AcDbArc
 50
262.8112412685378
 51
272.3353910298445
  0
LINE
  5
269
330
1F
100
AcDbEntity
  8
0
  6
Continuous
 62
     7
370
    15
100
AcDbLine
 10
17.12719439344013
 20
6.82398556595356
 30
0.0
 11
17.12290502965789
 21
6.831299308131253
 31
0.0
  0
ARC
  5
26A
330
1F
100
AcDbEntity
  8
0
  6
Continuous
 62
     7
370
    15
100
AcDbCircle
 10
17.13544812449181
 20
6.621641490654678
 30
0.0
 40
0.2025134416226886
100
AcDbArc
 50
82.80982417143993
 51
92.33582013749316
  0
LINE
  5
26B
330
1F
100
AcDbEntity
  8
0
  6
Continuous
 62
     7
370
    15
100
AcDbLine
 10
17.12719439344013
 20
9.429152497509527
 30
0.0
 11
17.12290502965789
 21
9.421838608666861
 31
0.0
  0
ARC
  5
26C
330
1F
100
AcDbEntity
  8
0
  6
Continuous
 62
     7
370
    15
100
AcDbCircle
 10
17.13609064770646
 20
9.616371395402655
 30
0.0
 40
0.1874313165000381
100
AcDbArc
 50
267.2794866297442
 51
277.5739128109035
  0
LINE
  5
26D
330
1F
100
AcDbEntity
  8
0
  6
Continuous
 62
     7
370
    15
100
AcDbLine
 10
14.86106987190398
 20
6.82398556595356
 30
0.0
 11
14.86535916235373
 21
6.831299308131253
 31
0.0
  0
ARC
  5
26E
330
1F
100
AcDbEntity
  8
0
  6
Continuous
 62
     7
370
    15
100
AcDbCircle
 10
14.85217196300776
 20
6.636774555246795
 30
0.0
 40
0.1874231539818827
100
AcDbArc
 50
87.27883921967954
 51
97.57377955305216
  0
LINE
  5
26F
330
1F
100
AcDbEntity
  8
0
  6
Continuous
 62
     7
370
    15
100
AcDbLine
 10
17.12215806495356
 20
7.030860982777759
 30
0.0
 11
17.12215806495356
 21
9.222277007352841
 31
0.0
  0
LINE
  5
270
330
1F
100
AcDbEntity
  8
0
  6
Continuous
 62
     7
370
    15
100
AcDbLine
 10
14.86610612705806
 20
9.222277007352841
 30
0.0
 11
14.86610612705806
 21
7.030860982777759
 31
0.0
  0
LINE
  5
271
330
1F
100
AcDbEntity
  8
0
  6
Continuous
 62
     7
370
    15
100
AcDbLine
 10
14.82833476339608
 20
9.360072268863556
 30
0.0
 11
14.82833476339608
 21
9.281332098476722
 31
0.0
  0
LINE
  5
272
330
1F
100
AcDbEntity
  8
0
  6
Continuous
 62
     7
370
    15
100
AcDbLine
 10
14.82833476339608
 20
6.971805891653877
 30
0.0
 11
14.82833476339608
 21
6.893065721267045
 31
0.0
  0
LINE
  5
273
330
1F
100
AcDbEntity
  8
0
  6
Continuous
 62
     7
370
    15
100
AcDbLine
 10
17.15992942861554
 20
6.893065721267045
 30
0.0
 11
17.15992942861554
 21
6.971805891653877
 31
0.0
  0
LINE
  5
274
330
1F
100
AcDbEntity
  8
0
  6
Continuous
 62
     7
370
    15
100
AcDbLine
 10
17.15992942861554
 20
9.281332098476722
 30
0.0
 11
17.15992942861554
 21
9.360072268863556
 31
0.0
  0
ARC
  5
275
330
1F
100
AcDbEntity
  8
0
  6
Continuous
 62
     7
370
    15
100
AcDbCircle
 10
17.12287464072588
 20
8.993462569842431
 30
0.0
 40
0.4357101684930341
100
AcDbArc
 50
89.4319442790484
 51
89.99600386294504
  0
ARC
  5
276
330
1F
100
AcDbEntity
  8
0
  6
Continuous
 62
     7
370
    15
100
AcDbCircle
 10
14.86535264107013
 20
7.252252120591515
 30
0.0
 40
0.4282871611162224
100
AcDbArc
 50
269.4270561716361
 51
270.0008724100582
  0
ARC
  5
277
330
1F
100
AcDbEntity
  8
0
  6
Continuous
 62
     7
370
    15
100
AcDbCircle
 10
14.86539389684137
 20
8.995591441544206
 30
0.0
 40
0.4335814437877817
100
AcDbArc
 50
90.00459000166257
 51
90.571399648255
  0
ARC
  5
278
330
1F
100
AcDbEntity
  8
0
  6
Continuous
 62
     7
370
    15
100
AcDbCircle
 10
17.1228836269893
 20
7.254923566565254
 30
0.0
 40
0.4309584609068013
100
AcDbArc
 50
270.0028454774471
 51
270.573124478173
  0
DIMENSION
  5
279
330
1F
100
AcDbEntity
  8
0
  6
Continuous
 62
     7
370
     0
100
AcDbDimension
  2
*D10
 10
17.16149073624402
 20
10.19247054530272
 30
0.0
 11
16.17006104244811
 21
10.19247054530272
 31
0.0
 70
   160
 71
     2
 42
-1.0
  3
SLDDIMSTYLE0
100
AcDbAlignedDimension
 13
14.8267735050158
 23
9.222276979672654
 33
0.0
 14
17.16149073624402
 24
9.22227697967263
 34
0.0
100
AcDbRotatedDimension
  0
DIMENSION
  5
28B
330
1F
100
AcDbEntity
  8
0
  6
Continuous
 62
     7
370
     0
100
AcDbDimension
  2
*D11
 10
15.48556726755464
 20
7.59999957899847
 30
0.0
 11
12.59513157754497
 21
6.792771359685911
 31
0.0
 70
   163
  1
<>\PMOUNTING HOLE TYP.\PFOR M2.5 OR #4 SHEET METAL\PSCREW
 42
-1.0
  3
SLDDIMSTYLE1
100
AcDbDiametricDimension
 15
15.40033476898077
 25
7.550776204856778
 35
0.0
 40
0.0
  0
INSERT
  5
2A5
330
1F
100
AcDbEntity
  8
0
  6
Continuous
 62
     7
370
     0
100
AcDbBlockReference
  2
SW_NOTE_5
 10
13.3225370533701
 20
9.66067424809329
 30
0.0
  0
LEADER
  5
2A7
330
1F
100
AcDbEntity
  8
0
  6
Continuous
 62
     7
370
     0
100
AcDbLeader
  3
SLDDIMSTYLE2
 76
     2
 10
15.25286585702946
 20
9.016103525866608
 30
0.0
 10
13.3225370533701
 20
9.66067424809329
 30
0.0
  0
CIRCLE
  5
2A8
330
1F
100
AcDbEntity
  8
0
  6
Continuous
 62
     7
370
    15
100
AcDbCircle
 10
20.88082661559425
 20
8.741255527010716
 30
0.0
 40
0.0629921259842554
  0
CIRCLE
  5
2A9
330
1F
100
AcDbEntity
  8
0
  6
Continuous
 62
     7
370
    15
100
AcDbCircle
 10
21.98318882031866
 20
7.638893322286306
 30
0.0
 40
0.0629921259842554
  0
CIRCLE
  5
2AA
330
1F
100
AcDbEntity
  8
0
  6
Continuous
 62
     7
370
    15
100
AcDbCircle
 10
21.98318882031866
 20
8.741255527010716
 30
0.0
 40
0.0629921259842554
  0
CIRCLE
  5
2AB
330
1F
100
AcDbEntity
  8
0
  6
Continuous
 62
     7
370
    15
100
AcDbCircle
 10
20.88082661559425
 20
7.638893322286306
 30
0.0
 40
0.0629921259842554
  0
ARC
  5
2AC
330
1F
100
AcDbEntity
  8
0
  6
Continuous
 62
     7
370
    15
100
AcDbCircle
 10
20.44775574945251
 20
8.478853952207566
 30
0.0
 40
0.1305118110236219
100
AcDbArc
 50
270.0000000000008
 51
90.0
  0
LINE
  5
2AD
330
1F
100
AcDbEntity
  8
0
  6
Continuous
 62
     7
370
    15
100
AcDbLine
 10
20.44775573478601
 20
8.609365767279141
 30
0.0
 11
20.31763765125455
 21
8.609365767279141
 31
0.0
  0
LINE
  5
2AE
330
1F
100
AcDbEntity
  8
0
  6
Continuous
 62
     7
370
    15
100
AcDbLine
 10
20.31763765125455
 20
9.325113785563624
 30
0.0
 11
20.31763765125455
 21
8.609365767279141
 31
0.0
  0
LINE
  5
2AF
330
1F
100
AcDbEntity
  8
0
  6
Continuous
 62
     7
370
    15
100
AcDbLine
 10
22.54637778465835
 20
9.325113785563624
 30
0.0
 11
20.31763765125455
 21
9.325113785563624
 31
0.0
  0
LINE
  5
2B0
330
1F
100
AcDbEntity
  8
0
  6
Continuous
 62
     7
370
    15
100
AcDbLine
 10
22.54637778465835
 20
8.609365767279141
 30
0.0
 11
22.41625970112688
 21
8.609365767279141
 31
0.0
  0
ARC
  5
2B1
330
1F
100
AcDbEntity
  8
0
  6
Continuous
 62
     7
370
    15
100
AcDbCircle
 10
22.41625968646039
 20
8.478853952207566
 30
0.0
 40
0.1305118110236219
100
AcDbArc
 50
90.0
 51
270.0000000000008
  0
LINE
  5
2B2
330
1F
100
AcDbEntity
  8
0
  6
Continuous
 62
     7
370
    15
100
AcDbLine
 10
22.41625970112688
 20
8.348342155979507
 30
0.0
 11
22.54637778465835
 21
8.348342155979507
 31
0.0
  0
LINE
  5
2B3
330
1F
100
AcDbEntity
  8
0
  6
Continuous
 62
     7
370
    15
100
AcDbLine
 10
22.54637778465835
 20
7.055034993040881
 30
0.0
 11
22.54637778465835
 21
8.348342155979507
 31
0.0
  0
LINE
  5
2B4
330
1F
100
AcDbEntity
  8
0
  6
Continuous
 62
     7
370
    15
100
AcDbLine
 10
20.31763765125455
 20
7.055034993040881
 30
0.0
 11
22.54637778465835
 21
7.055034993040881
 31
0.0
  0
LINE
  5
2B5
330
1F
100
AcDbEntity
  8
0
  6
Continuous
 62
     7
370
    15
100
AcDbLine
 10
20.31763765125455
 20
8.348342155979507
 30
0.0
 11
20.44775573478601
 21
8.348342155979507
 31
0.0
  0
LINE
  5
2B6
330
1F
100
AcDbEntity
  8
0
  6
Continuous
 62
     7
370
    15
100
AcDbLine
 10
22.54637778465835
 20
8.609365767279141
 30
0.0
 11
22.54637778465835
 21
9.325113785563624
 31
0.0
  0
LINE
  5
2B7
330
1F
100
AcDbEntity
  8
0
  6
Continuous
 62
     7
370
    15
100
AcDbLine
 10
20.31763765125455
 20
8.348342155979507
 30
0.0
 11
20.31763765125455
 21
7.055034993040881
 31
0.0
  0
DIMENSION
  5
2B8
330
1F
100
AcDbEntity
  8
0
  6
Continuous
 62
     7
370
     0
100
AcDbDimension
  2
*D13
 10
24.12118094630291
 20
7.055035054569771
 30
0.0
 11
24.12118094630291
 21
8.407291810393799
 31
0.0
 70
   160
 71
     2
 42
-1.0
  3
SLDDIMSTYLE3
100
AcDbAlignedDimension
 13
22.54637779669661
 23
9.325113794727251
 33
0.0
 14
22.54637779669661
 24
7.055035054569771
 34
0.0
 50
90.00000000000019
100
AcDbRotatedDimension
  0
DIMENSION
  5
2CB
330
1F
100
AcDbEntity
  8
0
  6
Continuous
 62
     7
370
     0
100
AcDbDimension
  2
*D14
 10
19.67551165496432
 20
7.638893322286306
 30
0.0
 11
19.67551165496432
 21
8.101051832492629
 31
0.0
 70
   160
 71
     2
 42
-1.0
  3
SLDDIMSTYLE0
100
AcDbAlignedDimension
 13
20.71783448960999
 23
8.741255527010716
 33
0.0
 14
20.71783448960999
 24
7.638893322286306
 34
0.0
 50
90.00000000000019
100
AcDbRotatedDimension
  0
DIMENSION
  5
2DD
330
1F
100
AcDbEntity
  8
0
  6
Continuous
 62
     7
370
     0
100
AcDbDimension
  2
*D15
 10
19.67551165496432
 20
9.325113794727251
 30
0.0
 11
19.67551165496432
 21
10.30149540090246
 31
0.0
 70
   160
 71
     2
 42
-1.0
  3
SLDDIMSTYLE0
100
AcDbAlignedDimension
 13
20.71783448960999
 23
8.741255527010716
 33
0.0
 14
20.31763763921629
 24
9.325113794727251
 34
0.0
 50
90.00000000000019
100
AcDbRotatedDimension
  0
DIMENSION
  5
2F0
330
1F
100
AcDbEntity
  8
0
  6
Continuous
 62
     7
370
     0
100
AcDbDimension
  2
*D16
 10
20.93067420057133
 20
7.677405998225127
 30
0.0
 11
18.96685023764149
 21
6.802385396996125
 31
0.0
 70
   163
  1
<>\P4 HOLES
 42
-1.0
  3
SLDDIMSTYLE1
100
AcDbDiametricDimension
 15
20.83097903061716
 25
7.600380646347486
 35
0.0
 40
0.0
  0
DIMENSION
  5
301
330
1F
100
AcDbEntity
  8
0
  6
Continuous
 62
     7
370
     0
100
AcDbDimension
  2
*D17
 10
21.98318882031866
 20
9.695831511230931
 30
0.0
 11
21.43555231214171
 21
9.695831511230931
 31
0.0
 70
   160
 71
     2
 42
-1.0
  3
SLDDIMSTYLE4
100
AcDbAlignedDimension
 13
20.88082661559425
 23
8.904247652994968
 33
0.0
 14
21.98318882031866
 24
8.904247652994968
 34
0.0
100
AcDbRotatedDimension
  0
DIMENSION
  5
314
330
1F
100
AcDbEntity
  8
0
  6
Continuous
 62
     7
370
     0
100
AcDbDimension
  2
*D18
 10
20.31763763921629
 20
10.89991694433355
 30
0.0
 11
21.43555231214171
 21
10.89991694433355
 31
0.0
 70
   160
 71
     2
 42
-1.0
  3
SLDDIMSTYLE0
100
AcDbAlignedDimension
 13
22.54637779669661
 23
9.325113794727251
 33
0.0
 14
20.31763763921629
 24
9.325113794727251
 34
0.0
100
AcDbRotatedDimension
  0
DIMENSION
  5
326
330
1F
100
AcDbEntity
  8
0
  6
Continuous
 62
     7
370
     0
100
AcDbDimension
  2
*D19
 10
23.3285683865653
 20
8.348342141183943
 30
0.0
 11
23.3285683865653
 21
9.718814582128826
 31
0.0
 70
   160
 71
     2
 42
-1.0
  3
SLDDIMSTYLE4
100
AcDbAlignedDimension
 13
22.54637779669661
 23
8.609365763231187
 33
0.0
 14
22.54637779669661
 24
8.348342141183943
 34
0.0
 50
90.00000000000019
100
AcDbRotatedDimension
  0
DIMENSION
  5
339
330
1F
100
AcDbEntity
  8
0
  6
Continuous
 62
     7
370
     0
100
AcDbDimension
  2
*D20
 10
22.54637779669661
 20
10.42747599945166
 30
0.0
 11
23.17629905653913
 21
10.42747599945166
 31
0.0
 70
   160
 71
     2
 42
-1.0
  3
SLDDIMSTYLE4
100
AcDbAlignedDimension
 13
22.28574787543676
 23
8.478853952207566
 33
0.0
 14
22.54637779669661
 24
9.325113794727251
 34
0.0
100
AcDbRotatedDimension
  0
DIMENSION
  5
34B
330
1F
100
AcDbEntity
  8
0
  6
Continuous
 62
     7
370
     0
100
AcDbDimension
  2
*D21
 10
23.03684639102781
 20
9.325113794727251
 30
0.0
 11
23.03684639102781
 21
10.03798181831038
 31
0.0
 70
   160
 71
     2
 42
-1.0
  3
SLDDIMSTYLE0
100
AcDbAlignedDimension
 13
22.54637779669661
 23
8.609365763231187
 33
0.0
 14
22.54637779669661
 24
9.325113794727251
 34
0.0
 50
90.00000000000019
100
AcDbRotatedDimension
  0
INSERT
  5
369
330
1F
100
AcDbEntity
  8
0
  6
Continuous
 62
     7
370
     0
100
AcDbBlockReference
  2
SW_CENTERMARKSYMBOL_0
 10
21.98318882031866
 20
8.741255527010716
 30
0.0
  0
INSERT
  5
375
330
1F
100
AcDbEntity
  8
0
  6
Continuous
 62
     7
370
     0
100
AcDbBlockReference
  2
SW_CENTERMARKSYMBOL_1
 10
21.98318882031866
 20
7.638893322286305
 30
0.0
  0
INSERT
  5
381
330
1F
100
AcDbEntity
  8
0
  6
Continuous
 62
     7
370
     0
100
AcDbBlockReference
  2
SW_CENTERMARKSYMBOL_2
 10
20.88082661559425
 20
7.638893322286305
 30
0.0
  0
INSERT
  5
38D
330
1F
100
AcDbEntity
  8
0
  6
Continuous
 62
     7
370
     0
100
AcDbBlockReference
  2
SW_CENTERMARKSYMBOL_3
 10
20.88082661559425
 20
8.741255527010716
 30
0.0
  0
LINE
  5
38E
330
1F
100
AcDbEntity
  8
0
  6
Continuous
 62
     7
370
    15
100
AcDbLine
 10
12.73698443397904
 20
3.098244482127213
 30
0.0
 11
12.73698443397904
 21
3.8659610334001
 31
0.0
  0
ARC
  5
38F
330
1F
100
AcDbEntity
  8
0
  6
Continuous
 62
     7
370
    15
100
AcDbCircle
 10
12.79603956581711
 20
3.865961025480192
 30
0.0
 40
0.0590551181102357
100
AcDbArc
 50
90.0
 51
180.0
  0
LINE
  5
390
330
1F
100
AcDbEntity
  8
0
  6
Continuous
 62
     7
370
    15
100
AcDbLine
 10
12.7960395984354
 20
3.925016161190225
 30
0.0
 11
14.99288992689961
 21
3.925016161190225
 31
0.0
  0
ARC
  5
391
330
1F
100
AcDbEntity
  8
0
  6
Continuous
 62
     7
370
    15
100
AcDbCircle
 10
14.9928899595179
 20
3.865961025480192
 30
0.0
 40
0.0590551181102361
100
AcDbArc
 50
0.0
 51
90.0
  0
LINE
  5
392
330
1F
100
AcDbEntity
  8
0
  6
Continuous
 62
     7
370
    15
100
AcDbLine
 10
15.05194509135598
 20
3.8659610334001
 30
0.0
 11
15.05194509135598
 21
3.098244482127213
 31
0.0
  0
ARC
  5
393
330
1F
100
AcDbEntity
  8
0
  6
Continuous
 62
     7
370
    15
100
AcDbCircle
 10
14.9928899595179
 20
3.098244490047121
 30
0.0
 40
0.0590551181102361
100
AcDbArc
 50
270.0000000000008
 51
0.0
  0
LINE
  5
394
330
1F
100
AcDbEntity
  8
0
  6
Continuous
 62
     7
370
    15
100
AcDbLine
 10
14.99288992689961
 20
3.039189354337088
 30
0.0
 11
12.7960395984354
 21
3.039189354337088
 31
0.0
  0
ARC
  5
395
330
1F
100
AcDbEntity
  8
0
  6
Continuous
 62
     7
370
    15
100
AcDbCircle
 10
12.79603956581711
 20
3.098244490047121
 30
0.0
 40
0.0590551181102357
100
AcDbArc
 50
180.0
 51
270.0000000000008
  0
DIMENSION
  5
396
330
1F
100
AcDbEntity
  8
0
  6
Continuous
 62
     7
370
     0
100
AcDbDimension
  2
*D26
 10
15.05194507762814
 20
4.318716930992004
 30
0.0
 11
14.05412737010638
 21
4.318716930992004
 31
0.0
 70
   160
  1
2.40 [61.0]
 71
     2
 42
2.314960629921257
  3
SLDDIMSTYLE0
100
AcDbAlignedDimension
 13
12.73698444770688
 23
3.865961025480192
 33
0.0
 14
15.05194507762814
 24
3.865961025480192
 34
0.0
 50
-0.000000000000022
100
AcDbRotatedDimension
  0
DIMENSION
  5
3A8
330
1F
100
AcDbEntity
  8
0
  6
Continuous
 62
     7
370
     0
100
AcDbDimension
  2
*D27
 10
15.79504874330073
 20
3.039189371936884
 30
0.0
 11
15.79504874330073
 21
3.516127396382957
 31
0.0
 70
   160
  1
.90 [22.9]
 71
     2
 42
0.885826771653544
  3
SLDDIMSTYLE0
100
AcDbAlignedDimension
 13
14.9928899595179
 23
3.925016143590429
 33
0.0
 14
14.9928899595179
 24
3.039189371936885
 34
0.0
 50
90.00000000000019
100
AcDbRotatedDimension
  0
LEADER
  5
3C9
330
1F
100
AcDbEntity
  8
0
  6
Continuous
 62
     7
370
     0
100
AcDbLeader
  3
SLDDIMSTYLE5
 76
     2
 10
13.44022351745364
 20
3.241245074299639
 30
0.0
 10
12.97793058361125
 20
2.347751368962085
 30
0.0
  0
ARC
  5
3CA
330
1F
100
AcDbEntity
  8
0
  6
Continuous
 62
     7
370
    15
100
AcDbCircle
 10
21.80511992568951
 20
12.93261929798104
 30
0.0
 40
0.0743877685491304
100
AcDbArc
 50
246.0690692564952
 51
291.4683110457975
  0
LINE
  5
3CB
330
1F
100
AcDbEntity
  8
0
  6
Continuous
 62
     7
370
    15
100
AcDbLine
 10
21.83237997114428
 20
12.86340279820493
 30
0.0
 11
22.79261974302465
 21
13.238627636813
 31
0.0
  0
LINE
  5
3CC
330
1F
100
AcDbEntity
  8
0
  6
Continuous
 62
     7
370
    15
100
AcDbLine
 10
21.19310178865698
 20
13.12682479008489
 30
0.0
 11
21.77524711920822
 21
12.86449256700253
 31
0.0
  0
LINE
  5
3CD
330
1F
100
AcDbEntity
  8
0
  6
Continuous
 62
     7
370
    15
100
AcDbLine
 10
22.84311399062925
 20
13.32560067871777
 30
0.0
 11
22.8178971596859
 21
13.50196589719647
 31
0.0
  0
ARC
  5
3CE
330
1F
100
AcDbEntity
  8
0
  6
Continuous
 62
     7
370
    15
100
AcDbCircle
 10
22.76160585206541
 20
13.31476356378847
 30
0.0
 40
0.0822081469619347
100
AcDbArc
 50
292.0989391177158
 51
8.330260497035308
  0
LINE
  5
3CF
330
1F
100
AcDbEntity
  8
0
  6
Continuous
 62
     7
370
    15
100
AcDbLine
 10
21.10432429082293
 20
13.35018981904388
 30
0.0
 11
21.15192787426669
 21
13.17573589801846
 31
0.0
  0
ARC
  5
3D0
330
1F
100
AcDbEntity
  8
0
  6
Continuous
 62
     7
370
    15
100
AcDbCircle
 10
21.2246994877399
 20
13.19519348800624
 30
0.0
 40
0.0753234336257639
100
AcDbArc
 50
195.1134585942208
 51
245.4779419480885
  0
ARC
  5
3D1
330
1F
100
AcDbEntity
  8
0
  6
Continuous
 62
     7
370
    15
100
AcDbCircle
 10
22.69364560562488
 20
13.6740758926898
 30
0.0
 40
0.0754590190182449
100
AcDbArc
 50
15.17170485870221
 51
65.41894768344111
  0
LINE
  5
3D2
330
1F
100
AcDbEntity
  8
0
  6
Continuous
 62
     7
370
    15
100
AcDbLine
 10
22.81658083520918
 20
13.51021321078693
 30
0.0
 11
22.76652769836722
 21
13.69364395827926
 31
0.0
  0
LINE
  5
3D3
330
1F
100
AcDbEntity
  8
0
  6
Continuous
 62
     7
370
    15
100
AcDbLine
 10
22.7253537283241
 20
13.74255509891043
 30
0.0
 11
22.14321384249219
 21
14.00488486843824
 31
0.0
  0
ARC
  5
3D4
330
1F
100
AcDbEntity
  8
0
  6
Continuous
 62
     7
370
    15
100
AcDbCircle
 10
21.15697564981874
 20
13.55454114125081
 30
0.0
 40
0.0823262889462702
100
AcDbArc
 50
112.1570743256807
 51
187.7933828650305
  0
LINE
  5
3D5
330
1F
100
AcDbEntity
  8
0
  6
Continuous
 62
     7
370
    15
100
AcDbLine
 10
21.07534157851522
 20
13.54377919438991
 30
0.0
 11
21.10185562366601
 21
13.35834125239713
 31
0.0
  0
LINE
  5
3D6
330
1F
100
AcDbEntity
  8
0
  6
Continuous
 62
     7
370
    15
100
AcDbLine
 10
22.08606623988247
 20
14.00597342407281
 30
0.0
 11
21.12583570021521
 21
13.63075219305918
 31
0.0
  0
ARC
  5
3D7
330
1F
100
AcDbEntity
  8
0
  6
Continuous
 62
     7
370
    15
100
AcDbCircle
 10
22.11332273797695
 20
13.9367294180849
 30
0.0
 40
0.0744171480003539
100
AcDbArc
 50
66.04840406023801
 51
111.4486864258918
  0
LINE
  5
3D8
330
1F
100
AcDbEntity
  8
0
  6
Continuous
 62
     7
370
    15
100
AcDbLine
 10
21.78256775872233
 20
13.09289110094461
 30
0.0
 11
21.77978493264816
 21
13.09180367934937
 31
0.0
  0
LINE
  5
3D9
330
1F
100
AcDbEntity
  8
0
  6
Continuous
 62
     7
370
    15
100
AcDbLine
 10
21.78118694260848
 20
13.0836261038009
 30
0.0
 11
21.78263032350741
 21
13.09290106459046
 31
0.0
  0
LINE
  5
3DA
330
1F
100
AcDbEntity
  8
0
  6
Continuous
 62
     7
370
    15
100
AcDbLine
 10
21.78121806555862
 20
13.08361207886199
 30
0.0
 11
21.78118694260848
 21
13.0836261038009
 31
0.0
  0
LINE
  5
3DB
330
1F
100
AcDbEntity
  8
0
  6
Continuous
 62
     7
370
    15
100
AcDbLine
 10
21.78117022023799
 20
13.08359338274749
 30
0.0
 11
21.78121806555862
 21
13.08361207886199
 31
0.0
  0
ELLIPSE
  5
3DC
330
1F
100
AcDbEntity
  8
0
  6
Continuous
 62
     7
370
    15
100
AcDbEllipse
 10
21.75229665928512
 20
13.0966851932453
 30
0.0
 11
0.0578287205545465
 21
0.0120327567266845
 31
0.0
210
0.0
220
0.0
230
0.9999999999999998
 40
0.3512847318307104
 41
3.591783688292039
 42
5.160677362984795
  0
LINE
  5
3DD
330
1F
100
AcDbEntity
  8
0
  6
Continuous
 62
     7
370
    15
100
AcDbLine
 10
21.70206906851194
 20
13.07701182049789
 30
0.0
 11
21.11180744039531
 21
13.3430014917668
 31
0.0
  0
ELLIPSE
  5
3DE
330
1F
100
AcDbEntity
  8
0
  6
Continuous
 62
     7
370
    15
100
AcDbEllipse
 10
21.16214525991197
 20
13.36262519212175
 30
0.0
 11
0.0579263476910832
 21
0.0119959044847082
 31
0.0
210
0.0
220
0.0
230
1.0
 40
0.3502391859891713
 41
2.992837665790687
 42
3.591395609897318
  0
LINE
  5
3DF
330
1F
100
AcDbEntity
  8
0
  6
Continuous
 62
     7
370
    15
100
AcDbLine
 10
21.74131500283662
 20
12.90699183266185
 30
0.0
 11
21.70206906851194
 21
13.07701182049789
 31
0.0
  0
LINE
  5
3E0
330
1F
100
AcDbEntity
  8
0
  6
Continuous
 62
     7
370
    15
100
AcDbLine
 10
21.82041621694247
 20
12.91357341928709
 30
0.0
 11
21.78117022023799
 21
13.08359338274749
 31
0.0
  0
ARC
  5
3E1
330
1F
100
AcDbEntity
  8
0
  6
Continuous
 62
     7
370
    15
100
AcDbCircle
 10
21.77259186718119
 20
13.00972112472787
 30
0.0
 40
0.1073850533902059
100
AcDbArc
 50
253.0666538436877
 51
296.4459818766974
  0
LINE
  5
3E2
330
1F
100
AcDbEntity
  8
0
  6
Continuous
 62
     7
370
    15
100
AcDbLine
 10
21.78263262283502
 20
13.09291682899333
 30
0.0
 11
21.78176809467711
 21
13.09693085080264
 31
0.0
  0
LINE
  5
3E3
330
1F
100
AcDbEntity
  8
0
  6
Continuous
 62
     7
370
    15
100
AcDbLine
 10
21.81916539128743
 20
12.93838460027634
 30
0.0
 11
21.7841991750112
 21
13.10321610882303
 31
0.0
  0
LINE
  5
3E4
330
1F
100
AcDbEntity
  8
0
  6
Continuous
 62
     7
370
    15
100
AcDbLine
 10
21.81916539128743
 20
12.93838460027634
 30
0.0
 11
21.82143297423243
 21
12.90930217189523
 31
0.0
  0
LINE
  5
3E5
330
1F
100
AcDbEntity
  8
0
  6
Continuous
 62
     7
370
    15
100
AcDbLine
 10
21.82143297423243
 20
12.90930217189523
 30
0.0
 11
21.82175189351163
 21
12.9054371908654
 31
0.0
  0
LINE
  5
3E6
330
1F
100
AcDbEntity
  8
0
  6
Continuous
 62
     7
370
    15
100
AcDbLine
 10
21.82076945013697
 20
12.91226907329544
 30
0.0
 11
21.78121806555862
 21
13.08361207886199
 31
0.0
  0
LINE
  5
3E7
330
1F
100
AcDbEntity
  8
0
  6
Continuous
 62
     7
370
    15
100
AcDbLine
 10
21.82041621694247
 20
12.91357341928709
 30
0.0
 11
21.82076945013697
 21
12.91226907329544
 31
0.0
  0
LINE
  5
3E8
330
1F
100
AcDbEntity
  8
0
  6
Continuous
 62
     7
370
    15
100
AcDbLine
 10
21.11180744039531
 20
13.3430014917668
 30
0.0
 11
21.15920329297805
 21
13.16930890524727
 31
0.0
  0
LINE
  5
3E9
330
1F
100
AcDbEntity
  8
0
  6
Continuous
 62
     7
370
    15
100
AcDbLine
 10
21.74131500283662
 20
12.90699183266185
 30
0.0
 11
21.15920329297805
 21
13.16930890524727
 31
0.0
  0
ARC
  5
3EA
330
1F
100
AcDbEntity
  8
0
  6
Continuous
 62
     7
370
    15
100
AcDbCircle
 10
21.83380457344459
 20
12.90667418756934
 30
0.0
 40
0.0122523986766656
100
AcDbArc
 50
212.6468059181133
 51
297.7084059157864
  0
LWPOLYLINE
  5
3EB
330
1F
100
AcDbEntity
  8
0
  6
Continuous
 62
     7
370
    15
100
AcDbPolyline
 90
        3
 70
   128
 43
0.0
 10
21.84133120134772
 20
12.89653735721462
 10
21.84041769065892
 20
12.89618151567782
 10
21.83950159674253
 20
12.89582681917429
  0
LINE
  5
3EC
330
1F
100
AcDbEntity
  8
0
  6
Continuous
 62
     7
370
    15
100
AcDbLine
 10
21.82348705174721
 20
12.90006393742896
 30
0.0
 11
21.82076945013697
 21
12.91226907329544
 31
0.0
  0
LINE
  5
3ED
330
1F
100
AcDbEntity
  8
0
  6
Continuous
 62
     7
370
    15
100
AcDbLine
 10
22.73683374126964
 20
13.50135300903424
 30
0.0
 11
22.73779373548336
 21
13.50172813791815
 31
0.0
  0
LINE
  5
3EE
330
1F
100
AcDbEntity
  8
0
  6
Continuous
 62
     7
370
    15
100
AcDbLine
 10
21.83950194706232
 20
12.8958263870342
 30
0.0
 11
21.83913108154929
 21
12.89928845726129
 31
0.0
  0
ARC
  5
3EF
330
1F
100
AcDbEntity
  8
0
  6
Continuous
 62
     7
370
    15
100
AcDbCircle
 10
21.8372452003208
 20
12.91660192636329
 30
0.0
 40
0.0174158809471064
100
AcDbArc
 50
204.7805291185164
 51
276.216474118615
  0
LINE
  5
3F0
330
1F
100
AcDbEntity
  8
0
  6
Continuous
 62
     7
370
    15
100
AcDbLine
 10
21.83684332935972
 20
12.92880431817056
 30
0.0
 11
21.83913108242165
 21
12.8992884530588
 31
0.0
  0
ARC
  5
3F1
330
1F
100
AcDbEntity
  8
0
  6
Continuous
 62
     7
370
    15
100
AcDbCircle
 10
21.83157924270054
 20
12.94019098201661
 30
0.0
 40
0.0125445893475407
100
AcDbArc
 50
188.2791951141726
 51
294.8112332266692
  0
LINE
  5
3F2
330
1F
100
AcDbEntity
  8
0
  6
Continuous
 62
     7
370
    15
100
AcDbLine
 10
22.80151515575564
 20
13.27173978820547
 30
0.0
 11
22.79931468127564
 21
13.27449134140469
 31
0.0
  0
LINE
  5
3F3
330
1F
100
AcDbEntity
  8
0
  6
Continuous
 62
     7
370
    15
100
AcDbLine
 10
22.80151515575564
 20
13.27173978820547
 30
0.0
 11
21.84133155690165
 21
12.89653689985958
 31
0.0
  0
LINE
  5
3F4
330
1F
100
AcDbEntity
  8
0
  6
Continuous
 62
     7
370
    15
100
AcDbLine
 10
21.83913108242165
 20
12.8992884530588
 30
0.0
 11
21.84133155690165
 21
12.89653689985958
 31
0.0
  0
LINE
  5
3F5
330
1F
100
AcDbEntity
  8
0
  6
Continuous
 62
     7
370
    15
100
AcDbLine
 10
22.79931468127564
 20
13.27449134140469
 30
0.0
 11
22.76454450922862
 21
13.29131432419872
 31
0.0
  0
LINE
  5
3F6
330
1F
100
AcDbEntity
  8
0
  6
Continuous
 62
     7
370
    15
100
AcDbLine
 10
22.76454450922862
 20
13.29131432419872
 30
0.0
 11
21.83684332935972
 21
12.92880431817056
 31
0.0
  0
LINE
  5
3F7
330
1F
100
AcDbEntity
  8
0
  6
Continuous
 62
     7
370
    15
100
AcDbLine
 10
22.7654041965921
 20
13.48389779720212
 30
0.0
 11
22.76669268975155
 21
13.47744972442459
 31
0.0
  0
LINE
  5
3F8
330
1F
100
AcDbEntity
  8
0
  6
Continuous
 62
     7
370
    15
100
AcDbLine
 10
22.76672956494985
 20
13.4774492679225
 30
0.0
 11
22.78887897988973
 21
13.47739346600365
 31
0.0
  0
LINE
  5
3F9
330
1F
100
AcDbEntity
  8
0
  6
Continuous
 62
     7
370
    15
100
AcDbLine
 10
22.78887897988973
 20
13.47739346600365
 30
0.0
 11
22.81459453980624
 21
13.29340198114856
 31
0.0
  0
LINE
  5
3FA
330
1F
100
AcDbEntity
  8
0
  6
Continuous
 62
     7
370
    15
100
AcDbLine
 10
22.81459453980624
 20
13.29340198114856
 30
0.0
 11
22.8100687255809
 21
13.29562306913893
 31
0.0
  0
LINE
  5
3FB
330
1F
100
AcDbEntity
  8
0
  6
Continuous
 62
     7
370
    15
100
AcDbLine
 10
22.8100687255809
 20
13.29562306913893
 30
0.0
 11
22.77589077777451
 21
13.31223615199231
 31
0.0
  0
LINE
  5
3FC
330
1F
100
AcDbEntity
  8
0
  6
Continuous
 62
     7
370
    15
100
AcDbLine
 10
22.74049716806063
 20
13.48655032961247
 30
0.0
 11
22.74058043701966
 21
13.48655014980294
 31
0.0
  0
LINE
  5
3FD
330
1F
100
AcDbEntity
  8
0
  6
Continuous
 62
     7
370
    15
100
AcDbLine
 10
22.74049716806063
 20
13.48655032961247
 30
0.0
 11
22.77589077777451
 21
13.31223615199231
 31
0.0
  0
LINE
  5
3FE
330
1F
100
AcDbEntity
  8
0
  6
Continuous
 62
     7
370
    15
100
AcDbLine
 10
22.77892213926795
 20
13.48222814215525
 30
0.0
 11
22.76675770042057
 21
13.47747474645458
 31
0.0
  0
LINE
  5
3FF
330
1F
100
AcDbEntity
  8
0
  6
Continuous
 62
     7
370
    15
100
AcDbLine
 10
22.78423434035228
 20
13.48460841846118
 30
0.0
 11
22.77892213926795
 21
13.48222814215525
 31
0.0
  0
ELLIPSE
  5
400
330
1F
100
AcDbEntity
  8
0
  6
Continuous
 62
     7
370
    15
100
AcDbEllipse
 10
22.75989300064507
 20
13.49041516115583
 30
0.0
 11
0.0579263476910832
 21
0.0119959044847065
 31
0.0
210
0.0
220
0.0
230
1.0
 40
0.3502391859891734
 41
5.164094588794267
 42
6.445680832019046
  0
LINE
  5
401
330
1F
100
AcDbEntity
  8
0
  6
Continuous
 62
     7
370
    15
100
AcDbLine
 10
22.78891010283988
 20
13.47737944106474
 30
0.0
 11
22.78895791697061
 21
13.47739812499141
 31
0.0
  0
LINE
  5
402
330
1F
100
AcDbEntity
  8
0
  6
Continuous
 62
     7
370
    15
100
AcDbLine
 10
22.78887897988973
 20
13.47739346600365
 30
0.0
 11
22.78891010283988
 21
13.47737944106474
 31
0.0
  0
LINE
  5
403
330
1F
100
AcDbEntity
  8
0
  6
Continuous
 62
     7
370
    15
100
AcDbLine
 10
22.78891010283988
 20
13.47737944106474
 30
0.0
 11
22.81420535969352
 21
13.30046568808559
 31
0.0
  0
LINE
  5
404
330
1F
100
AcDbEntity
  8
0
  6
Continuous
 62
     7
370
    15
100
AcDbLine
 10
22.81420535969352
 20
13.30046568808559
 30
0.0
 11
22.81590330166619
 21
13.28786210383478
 31
0.0
  0
LWPOLYLINE
  5
405
330
1F
100
AcDbEntity
  8
0
  6
Continuous
 62
     7
370
    15
100
AcDbPolyline
 90
        3
 70
   128
 43
0.0
 10
22.81590393390545
 20
13.28786203987283
 10
22.81477304860141
 20
13.2923067642883
 10
22.81459453980624
 20
13.29340198114856
  0
LINE
  5
406
330
1F
100
AcDbEntity
  8
0
  6
Continuous
 62
     7
370
    15
100
AcDbLine
 10
22.78895791697061
 20
13.47739812499141
 30
0.0
 11
22.81405785513978
 21
13.30185042493199
 31
0.0
  0
LINE
  5
407
330
1F
100
AcDbEntity
  8
0
  6
Continuous
 62
     7
370
    15
100
AcDbLine
 10
22.81420535969352
 20
13.30046568808559
 30
0.0
 11
22.81405785513978
 21
13.30185042493199
 31
0.0
  0
LINE
  5
408
330
1F
100
AcDbEntity
  8
0
  6
Continuous
 62
     7
370
    15
100
AcDbLine
 10
22.84280459777029
 20
13.32598424376858
 30
0.0
 11
22.84284312336379
 21
13.32556385622317
 31
0.0
  0
LINE
  5
409
330
1F
100
AcDbEntity
  8
0
  6
Continuous
 62
     7
370
    15
100
AcDbLine
 10
22.74054155130135
 20
13.48656767287905
 30
0.0
 11
22.74049716806063
 21
13.48655032961247
 31
0.0
  0
ARC
  5
40A
330
1F
100
AcDbEntity
  8
0
  6
Continuous
 62
     7
370
    15
100
AcDbCircle
 10
22.75380640151671
 20
13.31095299562672
 30
0.0
 40
0.058313426886304
100
AcDbArc
 50
321.2979701183365
 51
344.7584780942547
  0
ARC
  5
40B
330
1F
100
AcDbEntity
  8
0
  6
Continuous
 62
     7
370
    15
100
AcDbCircle
 10
22.75803419861868
 20
13.30838253067144
 30
0.0
 40
0.0182676713467629
100
AcDbArc
 50
290.8783066015061
 51
12.17821031885733
  0
LWPOLYLINE
  5
40C
330
1F
100
AcDbEntity
  8
0
  6
Continuous
 62
     7
370
    15
100
AcDbPolyline
 90
        3
 70
   128
 43
0.0
 10
22.80333385093162
 20
13.27245547558097
 10
22.80242568997945
 20
13.27209725673064
 10
22.80151484835348
 20
13.27174017053054
  0
ARC
  5
40D
330
1F
100
AcDbEntity
  8
0
  6
Continuous
 62
     7
370
    15
100
AcDbCircle
 10
22.7960856193537
 20
13.29119852523417
 30
0.0
 40
0.0200957401284392
100
AcDbArc
 50
291.1422687961654
 51
350.4428833639313
  0
LINE
  5
40E
330
1F
100
AcDbEntity
  8
0
  6
Continuous
 62
     7
370
    15
100
AcDbLine
 10
22.79931468127564
 20
13.27449134140469
 30
0.0
 11
22.80333420474085
 21
13.27245502663091
 31
0.0
  0
LINE
  5
40F
330
1F
100
AcDbEntity
  8
0
  6
Continuous
 62
     7
370
    15
100
AcDbLine
 10
22.70285798348048
 20
13.66502756315226
 30
0.0
 11
22.70220129564441
 21
13.66758501331583
 31
0.0
  0
LINE
  5
410
330
1F
100
AcDbEntity
  8
0
  6
Continuous
 62
     7
370
    15
100
AcDbLine
 10
22.77591968352157
 20
13.31306099338811
 30
0.0
 11
22.70285798348048
 21
13.66502756315226
 31
0.0
  0
LWPOLYLINE
  5
411
330
1F
100
AcDbEntity
  8
0
  6
Continuous
 62
     7
370
    15
100
AcDbPolyline
 90
        3
 70
   128
 43
0.0
 10
22.776537176235
 20
13.30643492634235
 10
22.77653348411589
 20
13.30759045451031
 10
22.77591968352157
 20
13.31306099338811
  0
LINE
  5
412
330
1F
100
AcDbEntity
  8
0
  6
Continuous
 62
     7
370
    15
100
AcDbLine
 10
21.74412686648591
 20
13.28056650569334
 30
0.0
 11
21.74336680046696
 21
13.28465006632454
 31
0.0
  0
LINE
  5
413
330
1F
100
AcDbEntity
  8
0
  6
Continuous
 62
     7
370
    15
100
AcDbLine
 10
21.74433776523495
 20
13.27915320913156
 30
0.0
 11
21.74412667934646
 21
13.28056643256643
 31
0.0
  0
ARC
  5
414
330
1F
100
AcDbEntity
  8
0
  6
Continuous
 62
     7
370
    15
100
AcDbCircle
 10
21.6933174267468
 20
13.41371210672998
 30
0.0
 40
0.1439068165944446
100
AcDbArc
 50
258.7475446597011
 51
290.7650910606808
  0
ARC
  5
415
330
1F
100
AcDbEntity
  8
0
  6
Continuous
 62
     7
370
    15
100
AcDbCircle
 10
21.75258180370551
 20
13.2867493794277
 30
0.0
 40
0.0884884282771628
100
AcDbArc
 50
113.4157370046887
 51
189.2197584880501
  0
ARC
  5
416
330
1F
100
AcDbEntity
  8
0
  6
Continuous
 62
     7
370
    15
100
AcDbCircle
 10
21.65783592795055
 20
13.28694594862284
 30
0.0
 40
0.1005562759200485
100
AcDbArc
 50
9.264106236317831
 51
53.66468577365928
  0
LWPOLYLINE
  5
417
330
1F
100
AcDbEntity
  8
0
  6
Continuous
 62
     7
370
    15
100
AcDbPolyline
 90
        3
 70
   128
 43
0.0
 10
21.75708062440972
 20
13.30313405696311
 10
21.75293459378727
 20
13.30085629200815
 10
21.74934456586677
 20
13.29751119316679
  0
LINE
  5
418
330
1F
100
AcDbEntity
  8
0
  6
Continuous
 62
     7
370
    15
100
AcDbLine
 10
21.74934456586677
 20
13.29751119316679
 30
0.0
 11
21.74668100822012
 21
13.29358775719207
 31
0.0
  0
LWPOLYLINE
  5
419
330
1F
100
AcDbEntity
  8
0
  6
Continuous
 62
     7
370
    15
100
AcDbPolyline
 90
        3
 70
   128
 43
0.0
 10
21.74336752153932
 20
13.28465016635687
 10
21.74441221007969
 20
13.28945463201153
 10
21.74668212727253
 20
13.29358674670267
  0
LINE
  5
41A
330
1F
100
AcDbEntity
  8
0
  6
Continuous
 62
     7
370
    15
100
AcDbLine
 10
21.77930597554026
 20
13.09067035616628
 30
0.0
 11
21.74433776523495
 21
13.27915320913156
 31
0.0
  0
ELLIPSE
  5
41B
330
1F
100
AcDbEntity
  8
0
  6
Continuous
 62
     7
370
    15
100
AcDbEllipse
 10
21.75043240751524
 20
13.10376217715996
 30
0.0
 11
0.0578287205545465
 21
0.0120327567266845
 31
0.0
210
0.0
220
0.0
230
0.9999999999999998
 40
0.3512847318306858
 41
3.591783688291937
 42
5.160677362984768
  0
LINE
  5
41C
330
1F
100
AcDbEntity
  8
0
  6
Continuous
 62
     7
370
    15
100
AcDbLine
 10
21.7002047614344
 20
13.08408876954104
 30
0.0
 11
21.66523655112909
 21
13.27257162250632
 31
0.0
  0
LINE
  5
41D
330
1F
100
AcDbEntity
  8
0
  6
Continuous
 62
     7
370
    15
100
AcDbLine
 10
21.75708062440972
 20
13.30313405696311
 30
0.0
 11
22.71726422326371
 21
13.678336945309
 31
0.0
  0
LINE
  5
41E
330
1F
100
AcDbEntity
  8
0
  6
Continuous
 62
     7
370
    15
100
AcDbLine
 10
22.67760010572165
 20
13.7431532766175
 30
0.0
 11
21.71741650686766
 21
13.36795038827161
 31
0.0
  0
ARC
  5
41F
330
1F
100
AcDbEntity
  8
0
  6
Continuous
 62
     7
370
    15
100
AcDbCircle
 10
22.61801952680449
 20
13.6621488369687
 30
0.0
 40
0.1005562759201098
100
AcDbArc
 50
9.264106236326275
 51
53.66468577364116
  0
LINE
  5
420
330
1F
100
AcDbEntity
  8
0
  6
Continuous
 62
     7
370
    15
100
AcDbLine
 10
21.77930597554026
 20
13.09067035616628
 30
0.0
 11
21.7793538208609
 21
13.09068905228077
 31
0.0
  0
LINE
  5
421
330
1F
100
AcDbEntity
  8
0
  6
Continuous
 62
     7
370
    15
100
AcDbLine
 10
21.7793538208609
 20
13.09068905228077
 30
0.0
 11
21.74412686648591
 21
13.28056650569334
 31
0.0
  0
LINE
  5
422
330
1F
100
AcDbEntity
  8
0
  6
Continuous
 62
     7
370
    15
100
AcDbLine
 10
21.74797685028971
 20
13.27582986378656
 30
0.0
 11
21.74711461771536
 21
13.280054860787
 31
0.0
  0
ARC
  5
423
330
1F
100
AcDbEntity
  8
0
  6
Continuous
 62
     7
370
    15
100
AcDbCircle
 10
61.33004809750312
 20
22.26683872108813
 30
0.0
 40
40.59037576189156
100
AcDbArc
 50
192.7974988051428
 51
193.0395597995924
  0
LINE
  5
424
330
1F
100
AcDbEntity
  8
0
  6
Continuous
 62
     7
370
    15
100
AcDbLine
 10
21.7863148458752
 20
13.10868579510731
 30
0.0
 11
21.7793538208609
 21
13.09068905228077
 31
0.0
  0
LINE
  5
425
330
1F
100
AcDbEntity
  8
0
  6
Continuous
 62
     7
370
    15
100
AcDbLine
 10
21.74373018839895
 20
13.28040614266415
 30
0.0
 11
21.74390850027753
 21
13.2803784165928
 31
0.0
  0
LINE
  5
426
330
1F
100
AcDbEntity
  8
0
  6
Continuous
 62
     7
370
    15
100
AcDbLine
 10
21.74390850027753
 20
13.2803784165928
 30
0.0
 11
21.74711451415043
 21
13.28005477877347
 31
0.0
  0
ARC
  5
427
330
1F
100
AcDbEntity
  8
0
  6
Continuous
 62
     7
370
    15
100
AcDbCircle
 10
21.76142311562537
 20
13.28319057554832
 30
0.0
 40
0.0177389398999373
100
AcDbArc
 50
112.6187966630863
 51
189.1215982064124
  0
LWPOLYLINE
  5
428
330
1F
100
AcDbEntity
  8
0
  6
Continuous
 62
     7
370
    15
100
AcDbPolyline
 90
        3
 70
   128
 43
0.0
 10
21.74668212727253
 20
13.29358674670267
 10
21.75037169146264
 20
13.29724203863008
 10
21.75460075173654
 20
13.29956510881623
  0
LINE
  5
429
330
1F
100
AcDbEntity
  8
0
  6
Continuous
 62
     7
370
    15
100
AcDbLine
 10
21.75460075173654
 20
13.29956510881623
 30
0.0
 11
21.75771601708873
 21
13.29956940797513
 31
0.0
  0
ARC
  5
42A
330
1F
100
AcDbEntity
  8
0
  6
Continuous
 62
     7
370
    15
100
AcDbCircle
 10
21.76446094692664
 20
13.28326825920779
 30
0.0
 40
0.0176414587411929
100
AcDbArc
 50
112.4780749277763
 51
190.4950385049223
  0
LWPOLYLINE
  5
42B
330
1F
100
AcDbEntity
  8
0
  6
Continuous
 62
     7
370
    15
100
AcDbPolyline
 90
        3
 70
   128
 43
0.0
 10
22.72609106693629
 20
13.67918622783769
 10
22.72168615425448
 20
13.67940721082274
 10
22.71726422326371
 20
13.678336945309
  0
LINE
  5
42C
330
1F
100
AcDbEntity
  8
0
  6
Continuous
 62
     7
370
    15
100
AcDbLine
 10
22.7299640721199
 20
13.67781702967405
 30
0.0
 11
22.72609106693629
 21
13.67918622783769
 31
0.0
  0
ARC
  5
42D
330
1F
100
AcDbEntity
  8
0
  6
Continuous
 62
     7
370
    15
100
AcDbCircle
 10
22.72639176197646
 20
13.66420946843538
 30
0.0
 40
0.0140669394139185
100
AcDbArc
 50
75.29069499566753
 51
113.2677858783972
  0
LINE
  5
42E
330
1F
100
AcDbEntity
  8
0
  6
Continuous
 62
     7
370
    15
100
AcDbLine
 10
21.75460075173654
 20
13.29956510881623
 30
0.0
 11
22.72083491225644
 21
13.67713232437608
 31
0.0
  0
LINE
  5
42F
330
1F
100
AcDbEntity
  8
0
  6
Continuous
 62
     7
370
    15
100
AcDbLine
 10
21.71741650686766
 20
13.36795038827161
 30
0.0
 11
21.13611047171617
 21
13.62990439956306
 31
0.0
  0
LINE
  5
430
330
1F
100
AcDbEntity
  8
0
  6
Continuous
 62
     7
370
    15
100
AcDbLine
 10
21.66523655112909
 20
13.27257162250632
 30
0.0
 11
21.08312484127052
 21
13.53488869509174
 31
0.0
  0
ARC
  5
431
330
1F
100
AcDbEntity
  8
0
  6
Continuous
 62
     7
370
    15
100
AcDbCircle
 10
21.17128903736829
 20
13.54800542204663
 30
0.0
 40
0.0891345836338318
100
AcDbArc
 50
113.245268142966
 51
188.4621731808944
  0
LINE
  5
432
330
1F
100
AcDbEntity
  8
0
  6
Continuous
 62
     7
370
    15
100
AcDbLine
 10
22.69820752371191
 20
13.66707738266972
 30
0.0
 11
22.72083491225644
 21
13.67713232437608
 31
0.0
  0
LWPOLYLINE
  5
433
330
1F
100
AcDbEntity
  8
0
  6
Continuous
 62
     7
370
    15
100
AcDbPolyline
 90
        3
 70
   128
 43
0.0
 10
22.69316415367512
 20
13.66520473421259
 10
22.69638701071296
 20
13.66642992423578
 10
22.69820670611481
 20
13.66707699599116
  0
LINE
  5
434
330
1F
100
AcDbEntity
  8
0
  6
Continuous
 62
     7
370
    15
100
AcDbLine
 10
21.7643376418841
 20
13.30225499167151
 30
0.0
 11
22.69316415367512
 21
13.66520473421259
 31
0.0
  0
LWPOLYLINE
  5
435
330
1F
100
AcDbEntity
  8
0
  6
Continuous
 62
     7
370
    15
100
AcDbPolyline
 90
        3
 70
   128
 43
0.0
 10
21.75771609033
 20
13.29956942407439
 10
21.76158914842602
 20
13.30116246508466
 10
21.7643376418841
 20
13.30225499167151
  0
LINE
  5
436
330
1F
100
AcDbEntity
  8
0
  6
Continuous
 62
     7
370
    15
100
AcDbLine
 10
21.7002047614344
 20
13.08408876954104
 30
0.0
 11
21.10952193126732
 21
13.35026824714259
 31
0.0
  0
LINE
  5
437
330
1F
100
AcDbEntity
  8
0
  6
Continuous
 62
     7
370
    15
100
AcDbLine
 10
21.10952193126732
 20
13.35026824714259
 30
0.0
 11
21.08312484127052
 21
13.53488869509174
 31
0.0
  0
LINE
  5
438
330
1F
100
AcDbEntity
  8
0
  6
Continuous
 62
     7
370
    15
100
AcDbLine
 10
21.13611047171617
 20
13.62990439956306
 30
0.0
 11
22.09629407057016
 21
14.00510728790895
 31
0.0
  0
LINE
  5
439
330
1F
100
AcDbEntity
  8
0
  6
Continuous
 62
     7
370
    15
100
AcDbLine
 10
22.09629407057016
 20
14.00510728790895
 30
0.0
 11
22.67760010572165
 21
13.7431532766175
 31
0.0
  0
LINE
  5
43A
330
1F
100
AcDbEntity
  8
0
  6
Continuous
 62
     7
370
    15
100
AcDbLine
 10
22.63263643718361
 20
13.74691695882858
 30
0.0
 11
22.10203863656305
 21
13.98602031205414
 31
0.0
  0
LINE
  5
43B
330
1F
100
AcDbEntity
  8
0
  6
Continuous
 62
     7
370
    15
100
AcDbLine
 10
22.10203863656305
 20
13.98602031205414
 30
0.0
 11
21.18106611817489
 21
13.62613960861487
 31
0.0
  0
LINE
  5
43C
330
1F
100
AcDbEntity
  8
0
  6
Continuous
 62
     7
370
    15
100
AcDbLine
 10
21.18106611817489
 20
13.62613960861487
 30
0.0
 11
21.71166391879545
 21
13.38703625538931
 31
0.0
  0
LINE
  5
43D
330
1F
100
AcDbEntity
  8
0
  6
Continuous
 62
     7
370
    15
100
AcDbLine
 10
21.71166391879545
 20
13.38703625538931
 30
0.0
 11
22.63263643718361
 21
13.74691695882858
 31
0.0
  0
LINE
  5
43E
330
1F
100
AcDbEntity
  8
0
  6
Continuous
 62
     7
370
    15
100
AcDbLine
 10
22.73812403047271
 20
13.49990582417697
 30
0.0
 11
22.7372084194997
 21
13.49954803855963
 31
0.0
  0
LINE
  5
43F
330
1F
100
AcDbEntity
  8
0
  6
Continuous
 62
     7
370
    15
100
AcDbLine
 10
22.61319105216649
 20
13.73931849571542
 30
0.0
 11
22.10578538396927
 21
13.96797077540772
 31
0.0
  0
LINE
  5
440
330
1F
100
AcDbEntity
  8
0
  6
Continuous
 62
     7
370
    15
100
AcDbLine
 10
22.10578538396927
 20
13.96797077540772
 30
0.0
 11
21.20425821444063
 21
13.61568856778289
 31
0.0
  0
LINE
  5
441
330
1F
100
AcDbEntity
  8
0
  6
Continuous
 62
     7
370
    15
100
AcDbLine
 10
22.73797940343225
 20
13.66743021477646
 30
0.0
 11
22.73756277604246
 21
13.6687631204835
 31
0.0
  0
LINE
  5
442
330
1F
100
AcDbEntity
  8
0
  6
Continuous
 62
     7
370
    15
100
AcDbLine
 10
22.7364805494519
 20
13.67272079313127
 30
0.0
 11
22.73756277604246
 21
13.6687631204835
 31
0.0
  0
LWPOLYLINE
  5
443
330
1F
100
AcDbEntity
  8
0
  6
Continuous
 62
     7
370
    15
100
AcDbPolyline
 90
        3
 70
   128
 43
0.0
 10
22.73647992935817
 20
13.67272036908737
 10
22.73359248881984
 20
13.6759882369611
 10
22.72996356929705
 20
13.67781538541805
  0
LINE
  5
444
330
1F
100
AcDbEntity
  8
0
  6
Continuous
 62
     7
370
    15
100
AcDbLine
 10
22.71310539337896
 20
13.65752692934437
 30
0.0
 11
22.73582168727947
 21
13.66798000986695
 31
0.0
  0
ARC
  5
445
330
1F
100
AcDbEntity
  8
0
  6
Continuous
 62
     7
370
    15
100
AcDbCircle
 10
22.69977218366779
 20
13.65311875032412
 30
0.0
 40
0.0140457588641673
100
AcDbArc
 50
18.29533877720371
 51
96.39922751893452
  0
ARC
  5
446
330
1F
100
AcDbEntity
  8
0
  6
Continuous
 62
     7
370
    15
100
AcDbCircle
 10
22.72208876912434
 20
13.66233903112689
 30
0.0
 40
0.0148463356489552
100
AcDbArc
 50
22.33105915855972
 51
94.84472312529495
  0
LINE
  5
447
330
1F
100
AcDbEntity
  8
0
  6
Continuous
 62
     7
370
    15
100
AcDbLine
 10
22.7131079437332
 20
13.65752792774718
 30
0.0
 11
22.71448607461839
 21
13.653504563723
 31
0.0
  0
LINE
  5
448
330
1F
100
AcDbEntity
  8
0
  6
Continuous
 62
     7
370
    15
100
AcDbLine
 10
22.73582168727947
 20
13.66798000986695
 30
0.0
 11
22.73719535409028
 21
13.66861418962862
 31
0.0
  0
LINE
  5
449
330
1F
100
AcDbEntity
  8
0
  6
Continuous
 62
     7
370
    15
100
AcDbLine
 10
22.78777698080253
 20
13.48474210915091
 30
0.0
 11
22.73719535409028
 21
13.66861418962862
 31
0.0
  0
LINE
  5
44A
330
1F
100
AcDbEntity
  8
0
  6
Continuous
 62
     7
370
    15
100
AcDbLine
 10
22.78777698080253
 20
13.48474210915091
 30
0.0
 11
22.74450313267116
 21
13.48310899210227
 31
0.0
  0
ARC
  5
44B
330
1F
100
AcDbEntity
  8
0
  6
Continuous
 62
     7
370
    15
100
AcDbCircle
 10
63.27202884782607
 20
20.71032104764023
 30
0.0
 40
41.16689124391416
100
AcDbArc
 50
189.8703741495559
 51
190.1111813144848
  0
LWPOLYLINE
  5
44C
330
1F
100
AcDbEntity
  8
0
  6
Continuous
 62
     7
370
    15
100
AcDbPolyline
 90
        3
 70
   128
 43
0.0
 10
22.73719535409028
 20
13.66861418962862
 10
22.73654915891194
 20
13.67197662715807
 10
22.73648110144639
 20
13.67272033106058
  0
LINE
  5
44D
330
1F
100
AcDbEntity
  8
0
  6
Continuous
 62
     7
370
    15
100
AcDbLine
 10
22.73756277604246
 20
13.6687631204835
 30
0.0
 11
22.78777698080253
 21
13.48474210915091
 31
0.0
  0
ELLIPSE
  5
44E
330
1F
100
AcDbEntity
  8
0
  6
Continuous
 62
     7
370
    15
100
AcDbEllipse
 10
22.75875984939815
 20
13.49777783108744
 30
0.0
 11
0.0579263476910832
 21
0.0119959044847082
 31
0.0
210
0.0
220
0.0
230
1.0
 40
0.350239185989159
 41
5.164094588794226
 42
6.304989391841058
  0
LINE
  5
44F
330
1F
100
AcDbEntity
  8
0
  6
Continuous
 62
     7
370
    15
100
AcDbLine
 10
22.73797940343225
 20
13.66743021477646
 30
0.0
 11
22.78782479493326
 21
13.48476079307758
 31
0.0
  0
LINE
  5
450
330
1F
100
AcDbEntity
  8
0
  6
Continuous
 62
     7
370
    15
100
AcDbLine
 10
22.78777698080253
 20
13.48474210915091
 30
0.0
 11
22.78782479493326
 21
13.48476079307758
 31
0.0
  0
LINE
  5
451
330
1F
100
AcDbEntity
  8
0
  6
Continuous
 62
     7
370
    15
100
AcDbLine
 10
22.71448607461839
 20
13.653504563723
 30
0.0
 11
22.70991049780487
 21
13.65556645647449
 31
0.0
  0
ARC
  5
452
330
1F
100
AcDbEntity
  8
0
  6
Continuous
 62
     7
370
    15
100
AcDbCircle
 10
22.69487383383355
 20
13.65392322641611
 30
0.0
 40
0.0151261848597464
100
AcDbArc
 50
6.236623723579564
 51
61.51626833600899
  0
LINE
  5
453
330
1F
100
AcDbEntity
  8
0
  6
Continuous
 62
     7
370
    15
100
AcDbLine
 10
22.74450313267116
 20
13.48310899210227
 30
0.0
 11
22.74087184629069
 21
13.48474535913787
 31
0.0
  0
LINE
  5
454
330
1F
100
AcDbEntity
  8
0
  6
Continuous
 62
     7
370
    15
100
AcDbLine
 10
22.74087184629069
 20
13.48474535913787
 30
0.0
 11
22.70991049780487
 21
13.65556645647449
 31
0.0
  0
LINE
  5
455
330
1F
100
AcDbEntity
  8
0
  6
Continuous
 62
     7
370
    15
100
AcDbLine
 10
22.10578538396927
 20
13.96797077540772
 30
0.0
 11
22.10203863656305
 21
13.98602031205414
 31
0.0
  0
LINE
  5
456
330
1F
100
AcDbEntity
  8
0
  6
Continuous
 62
     7
370
    15
100
AcDbLine
 10
21.07564956210038
 20
13.54341153269476
 30
0.0
 11
21.07561246074593
 21
13.5438160287649
 31
0.0
  0
ELLIPSE
  5
457
330
1F
100
AcDbEntity
  8
0
  6
Continuous
 62
     7
370
    15
100
AcDbEllipse
 10
21.15985980087624
 20
13.36989198471928
 30
0.0
 11
0.0579263476910832
 21
0.0119959044847082
 31
0.0
210
0.0
220
0.0
230
1.0
 40
0.3502391859891713
 41
3.119788568928617
 42
3.591395609897375
  0
LWPOLYLINE
  5
458
330
1F
100
AcDbEntity
  8
0
  6
Continuous
 62
     7
370
    15
100
AcDbPolyline
 90
        4
 70
   128
 43
0.0
 10
21.84133155690165
 20
12.89653689985958
 10
21.84163040342219
 20
12.88026727893643
 10
21.83818794950918
 20
12.86864594494625
 10
21.83219143028205
 20
12.86371949297081
  0
ARC
  5
459
330
1F
100
AcDbEntity
  8
0
  6
Continuous
 62
     7
370
    15
100
AcDbCircle
 10
21.79979399265659
 20
12.91902296272017
 30
0.0
 40
0.0597037715797324
100
AcDbArc
 50
191.6254921581326
 51
245.4691662641502
  0
LWPOLYLINE
  5
45A
330
1F
100
AcDbEntity
  8
0
  6
Continuous
 62
     7
370
    15
100
AcDbPolyline
 90
        4
 70
   128
 43
0.0
 10
22.79243756481379
 20
13.23897375739957
 10
22.79837154836318
 20
13.24384883329214
 10
22.80181400227619
 20
13.25547016728232
 10
22.80151515575564
 20
13.27173978820547
  0
ARC
  5
45B
330
1F
100
AcDbEntity
  8
0
  6
Continuous
 62
     7
370
    15
100
AcDbCircle
 10
21.21526173734224
 20
13.17966452419057
 30
0.0
 40
0.0570069121092416
100
AcDbArc
 50
190.4662026824351
 51
247.5893371215422
  0
LWPOLYLINE
  5
45C
330
1F
100
AcDbEntity
  8
0
  6
Continuous
 62
     7
370
    15
100
AcDbPolyline
 90
        7
 70
   128
 43
0.0
 10
22.84284312336379
 20
13.32556385622317
 10
22.84307545622684
 20
13.32303082531518
 10
22.84122597254499
 20
13.31855430409945
 10
22.83720773653671
 20
13.31402746495772
 10
22.83117466883882
 20
13.30962386097052
 10
22.82335817133123
 20
13.30551229998357
 10
22.81405785513978
 20
13.30185042493199
  0
LINE
  5
45D
330
1F
100
AcDbEntity
  8
0
  6
Continuous
 62
     7
370
    15
100
AcDbLine
 10
22.77847317093761
 20
13.48439099688043
 30
0.0
 11
22.77892213926795
 21
13.48222814215525
 31
0.0
  0
LWPOLYLINE
  5
45E
330
1F
100
AcDbEntity
  8
0
  6
Continuous
 62
     7
370
    15
100
AcDbPolyline
 90
        4
 70
   128
 43
0.0
 10
21.15920329297805
 20
13.16930890524727
 10
21.15463572714967
 20
13.17181690841643
 10
21.15214848874893
 20
13.17507115095118
 10
21.15209168005582
 20
13.17577697400664
  0
ARC
  5
45F
330
1F
100
AcDbEntity
  8
0
  6
Continuous
 62
     7
370
    15
100
AcDbCircle
 10
22.70068183587647
 20
13.68919214743641
 30
0.0
 40
0.0586904568855796
100
AcDbArc
 50
65.46742839792099
 51
113.1586891756889
  0
LWPOLYLINE
  5
460
330
1F
100
AcDbEntity
  8
0
  6
Continuous
 62
     7
370
    15
100
AcDbPolyline
 90
        7
 70
   128
 43
0.0
 10
22.76634845362298
 20
13.69379482995597
 10
22.76661870687138
 20
13.69043302177513
 10
22.76474267119584
 20
13.68608441181978
 10
22.76075098718125
 20
13.68142966141767
 10
22.75479657137911
 20
13.67664716071803
 10
22.74710780294506
 20
13.67192027920268
 10
22.73797940343225
 20
13.66743021477646
  0
ARC
  5
461
330
1F
100
AcDbEntity
  8
0
  6
Continuous
 62
     7
370
    15
100
AcDbCircle
 10
22.11913027269344
 20
13.95175336835547
 30
0.0
 40
0.0580356171599358
100
AcDbArc
 50
65.26407850399547
 51
113.1715823771218
  0
ARC
  5
462
330
1F
100
AcDbEntity
  8
0
  6
Continuous
 62
     7
370
    15
100
AcDbCircle
 10
21.13027997700886
 20
13.62123904321574
 30
0.0
 40
0.0104442840423861
100
AcDbArc
 50
56.06531782112585
 51
114.5156926979302
  0
ARC
  5
463
330
1F
100
AcDbEntity
  8
0
  6
Continuous
 62
     7
370
    15
100
AcDbCircle
 10
21.08606899558851
 20
13.54501063560084
 30
0.0
 40
0.0105414289504791
100
AcDbArc
 50
188.7252816852315
 51
253.7819470830146
  0
ARC
  5
464
330
1F
100
AcDbEntity
  8
0
  6
Continuous
 62
     7
370
    15
100
AcDbCircle
 10
22.09047656638249
 20
13.99646795966928
 30
0.0
 40
0.0104154379363681
100
AcDbArc
 50
56.04467668882356
 51
115.0516156783448
  0
LINE
  5
465
330
1F
100
AcDbEntity
  8
0
  6
Continuous
 62
     7
370
    15
100
AcDbLine
 10
3.993662426405535
 20
8.686303552969713
 30
0.0
 11
3.609804114102848
 21
8.681278591018502
 31
0.0
  0
LINE
  5
466
330
1F
100
AcDbEntity
  8
0
  6
Continuous
 62
     7
370
    15
100
AcDbLine
 10
3.609804114102848
 20
8.465208270414617
 30
0.0
 11
4.003504892704524
 21
8.460054426618926
 31
0.0
  0
LINE
  5
467
330
1F
100
AcDbEntity
  8
0
  6
Continuous
 62
     7
370
    15
100
AcDbLine
 10
3.141300184633554
 20
7.635015740869563
 30
0.0
 11
3.318465549670805
 21
7.638108171812204
 31
0.0
  0
LINE
  5
468
330
1F
100
AcDbEntity
  8
0
  6
Continuous
 62
     7
370
    15
100
AcDbLine
 10
3.318465549670805
 20
7.828773699227761
 30
0.0
 11
3.141300184633554
 21
7.831866130170401
 31
0.0
  0
LINE
  5
469
330
1F
100
AcDbEntity
  8
0
  6
Continuous
 62
     7
370
    15
100
AcDbLine
 10
3.141300184633555
 20
8.737377942954003
 30
0.0
 11
3.318465549670807
 21
8.740470373896643
 31
0.0
  0
LINE
  5
46A
330
1F
100
AcDbEntity
  8
0
  6
Continuous
 62
     7
370
    15
100
AcDbLine
 10
3.318465549670807
 20
8.931135937978444
 30
0.0
 11
3.141300184633555
 21
8.934228368921084
 31
0.0
  0
LINE
  5
46B
330
1F
100
AcDbEntity
  8
0
  6
Continuous
 62
     7
370
    15
100
AcDbLine
 10
3.141300184633555
 20
9.045887785688639
 30
0.0
 11
3.180670269826971
 21
9.045887785688639
 31
0.0
  0
LINE
  5
46C
330
1F
100
AcDbEntity
  8
0
  6
Continuous
 62
     7
370
    15
100
AcDbLine
 10
3.180670269826972
 20
9.282108223516651
 30
0.0
 11
3.141300184633556
 21
9.282108223516651
 31
0.0
  0
LINE
  5
46D
330
1F
100
AcDbEntity
  8
0
  6
Continuous
 62
     7
370
    15
100
AcDbLine
 10
3.141300184633553
 20
8.460054426618929
 30
0.0
 11
3.318465549670805
 21
8.462373639827179
 31
0.0
  0
LINE
  5
46E
330
1F
100
AcDbEntity
  8
0
  6
Continuous
 62
     7
370
    15
100
AcDbLine
 10
3.380465526775112
 20
8.463185283784332
 30
0.0
 11
3.574371066761767
 21
8.465723651127563
 31
0.0
  0
LINE
  5
46F
330
1F
100
AcDbEntity
  8
0
  6
Continuous
 62
     7
370
    15
100
AcDbLine
 10
3.574371066761768
 20
8.680763210305558
 30
0.0
 11
3.380465526775112
 21
8.683301540982546
 31
0.0
  0
LINE
  5
470
330
1F
100
AcDbEntity
  8
0
  6
Continuous
 62
     7
370
    15
100
AcDbLine
 10
3.318465549670805
 20
8.684113184939699
 30
0.0
 11
3.141300184633554
 21
8.686432398147951
 31
0.0
  0
LINE
  5
471
330
1F
100
AcDbEntity
  8
0
  6
Continuous
 62
     7
370
    15
100
AcDbLine
 10
4.042874977897946
 20
9.518125310360458
 30
0.0
 11
3.157048216877612
 21
9.518125310360458
 31
0.0
  0
LINE
  5
472
330
1F
100
AcDbEntity
  8
0
  6
Continuous
 62
     7
370
    15
100
AcDbLine
 10
4.042874977897946
 20
9.45119621686439
 30
0.0
 11
4.042874977897946
 21
9.518125310360458
 31
0.0
  0
LINE
  5
473
330
1F
100
AcDbEntity
  8
0
  6
Continuous
 62
     7
370
    15
100
AcDbLine
 10
4.042874977897946
 20
9.45119621686439
 30
0.0
 11
3.157048216877612
 21
9.451196216864392
 31
0.0
  0
LINE
  5
474
330
1F
100
AcDbEntity
  8
0
  6
Continuous
 62
     7
370
    15
100
AcDbLine
 10
3.157048216877612
 20
9.518125310360458
 30
0.0
 11
3.157048216877612
 21
9.451196216864392
 31
0.0
  0
LINE
  5
475
330
1F
100
AcDbEntity
  8
0
  6
Continuous
 62
     7
370
    15
100
AcDbLine
 10
3.380465526775114
 20
7.149582658633954
 30
0.0
 11
3.380465526775117
 21
9.419661341157967
 31
0.0
  0
LINE
  5
476
330
1F
100
AcDbEntity
  8
0
  6
Continuous
 62
     7
370
    15
100
AcDbLine
 10
3.318465549670806
 20
7.149582658633954
 30
0.0
 11
3.31846554967081
 21
9.419661341157967
 31
0.0
  0
LINE
  5
477
330
1F
100
AcDbEntity
  8
0
  6
Continuous
 62
     7
370
    15
100
AcDbLine
 10
3.31846554967081
 20
9.419661341157967
 30
0.0
 11
3.380465526775117
 21
9.419661341157967
 31
0.0
  0
LINE
  5
478
330
1F
100
AcDbEntity
  8
0
  6
Continuous
 62
     7
370
    15
100
AcDbLine
 10
3.380465526775114
 20
7.149582658633954
 30
0.0
 11
3.318465549670806
 21
7.149582658633954
 31
0.0
  0
LINE
  5
479
330
1F
100
AcDbEntity
  8
0
  6
Continuous
 62
     7
370
    15
100
AcDbLine
 10
3.157048216877609
 20
7.128140019674482
 30
0.0
 11
3.157048216877609
 21
7.061210852845928
 31
0.0
  0
LINE
  5
47A
330
1F
100
AcDbEntity
  8
0
  6
Continuous
 62
     7
370
    15
100
AcDbLine
 10
4.042874977897942
 20
7.128140019674481
 30
0.0
 11
3.157048216877609
 21
7.128140019674482
 31
0.0
  0
LINE
  5
47B
330
1F
100
AcDbEntity
  8
0
  6
Continuous
 62
     7
370
    15
100
AcDbLine
 10
4.042874977897941
 20
7.061210852845928
 30
0.0
 11
4.042874977897942
 21
7.128140019674481
 31
0.0
  0
LINE
  5
47C
330
1F
100
AcDbEntity
  8
0
  6
Continuous
 62
     7
370
    15
100
AcDbLine
 10
4.042874977897941
 20
7.061210852845928
 30
0.0
 11
3.157048216877609
 21
7.061210852845928
 31
0.0
  0
LINE
  5
47D
330
1F
100
AcDbEntity
  8
0
  6
Continuous
 62
     7
370
    15
100
AcDbLine
 10
4.003504892704528
 20
8.604555064001901
 30
0.0
 11
3.993662426405538
 21
8.604555064001901
 31
0.0
  0
LINE
  5
47E
330
1F
100
AcDbEntity
  8
0
  6
Continuous
 62
     7
370
    15
100
AcDbLine
 10
3.993662426405538
 20
8.63610005959142
 30
0.0
 11
3.993662426405538
 21
8.604555064001901
 31
0.0
  0
LINE
  5
47F
330
1F
100
AcDbEntity
  8
0
  6
Continuous
 62
     7
370
    15
100
AcDbLine
 10
3.993662426405538
 20
8.63610005959142
 30
0.0
 11
4.003504892704528
 21
8.63610005959142
 31
0.0
  0
LINE
  5
480
330
1F
100
AcDbEntity
  8
0
  6
Continuous
 62
     7
370
    15
100
AcDbLine
 10
4.141300154215243
 20
9.366434862701453
 30
0.0
 11
4.101930142354313
 21
9.366434862701453
 31
0.0
  0
LINE
  5
481
330
1F
100
AcDbEntity
  8
0
  6
Continuous
 62
     7
370
    15
100
AcDbLine
 10
4.101930142354313
 20
9.366434862701453
 30
0.0
 11
4.101930142354309
 21
7.201080470393503
 31
0.0
  0
LINE
  5
482
330
1F
100
AcDbEntity
  8
0
  6
Continuous
 62
     7
370
    15
100
AcDbLine
 10
4.101930142354309
 20
7.201080470393503
 30
0.0
 11
4.141300154215239
 21
7.201080470393503
 31
0.0
  0
LINE
  5
483
330
1F
100
AcDbEntity
  8
0
  6
Continuous
 62
     7
370
    15
100
AcDbLine
 10
4.002352179354102
 20
7.024079901785842
 30
0.0
 11
4.002352179354102
 21
7.049399849287649
 31
0.0
  0
LINE
  5
484
330
1F
100
AcDbEntity
  8
0
  6
Continuous
 62
     7
370
    15
100
AcDbLine
 10
4.002352179354102
 20
7.049399849287649
 30
0.0
 11
4.042874977897941
 21
7.049399849287649
 31
0.0
  0
LINE
  5
485
330
1F
100
AcDbEntity
  8
0
  6
Continuous
 62
     7
370
    15
100
AcDbLine
 10
4.042874977897942
 20
7.128140019674481
 30
0.0
 11
4.042874977897941
 21
7.049399849287649
 31
0.0
  0
LINE
  5
486
330
1F
100
AcDbEntity
  8
0
  6
Continuous
 62
     7
370
    15
100
AcDbLine
 10
4.042874977897942
 20
7.128140019674481
 30
0.0
 11
3.964172280411553
 21
7.128140019674481
 31
0.0
  0
LINE
  5
487
330
1F
100
AcDbEntity
  8
0
  6
Continuous
 62
     7
370
    15
100
AcDbLine
 10
3.964172280411553
 20
7.187195110798362
 30
0.0
 11
3.964172280411553
 21
7.128140019674481
 31
0.0
  0
LINE
  5
488
330
1F
100
AcDbEntity
  8
0
  6
Continuous
 62
     7
370
    15
100
AcDbLine
 10
4.003504892704526
 20
7.187195110798362
 30
0.0
 11
3.964172280411553
 21
7.187195110798362
 31
0.0
  0
LINE
  5
489
330
1F
100
AcDbEntity
  8
0
  6
Continuous
 62
     7
370
    15
100
AcDbLine
 10
3.964172280411556
 20
9.380330048849744
 30
0.0
 11
4.003504892704529
 21
9.380330048849744
 31
0.0
  0
LINE
  5
48A
330
1F
100
AcDbEntity
  8
0
  6
Continuous
 62
     7
370
    15
100
AcDbLine
 10
3.964172280411556
 20
9.439385139973625
 30
0.0
 11
3.964172280411556
 21
9.380330048849744
 31
0.0
  0
LINE
  5
48B
330
1F
100
AcDbEntity
  8
0
  6
Continuous
 62
     7
370
    15
100
AcDbLine
 10
3.964172280411556
 20
9.439385139973625
 30
0.0
 11
4.042874977897946
 21
9.439385139973625
 31
0.0
  0
LINE
  5
48C
330
1F
100
AcDbEntity
  8
0
  6
Continuous
 62
     7
370
    15
100
AcDbLine
 10
4.042874977897946
 20
9.518125310360458
 30
0.0
 11
4.042874977897946
 21
9.439385139973625
 31
0.0
  0
LINE
  5
48D
330
1F
100
AcDbEntity
  8
0
  6
Continuous
 62
     7
370
    15
100
AcDbLine
 10
4.042874977897946
 20
9.518125310360458
 30
0.0
 11
4.002352179354105
 21
9.518125310360458
 31
0.0
  0
LINE
  5
48E
330
1F
100
AcDbEntity
  8
0
  6
Continuous
 62
     7
370
    15
100
AcDbLine
 10
4.002352179354105
 20
9.518125310360458
 30
0.0
 11
4.002352179354105
 21
9.543445257862263
 31
0.0
  0
LINE
  5
48F
330
1F
100
AcDbEntity
  8
0
  6
Continuous
 62
     7
370
    15
100
AcDbLine
 10
4.028341872452287
 20
9.587907037569323
 30
0.0
 11
4.023189971967481
 21
9.588132021636955
 31
0.0
  0
LINE
  5
490
330
1F
100
AcDbEntity
  8
0
  6
Continuous
 62
     7
370
    15
100
AcDbLine
 10
4.023189971967481
 20
9.588132021636955
 30
0.0
 11
4.002352179354105
 21
9.543445257862263
 31
0.0
  0
ARC
  5
491
330
1F
100
AcDbEntity
  8
0
  6
Continuous
 62
     7
370
    15
100
AcDbCircle
 10
4.02318995061306
 20
9.469909213022129
 30
0.0
 40
0.1181102362204732
100
AcDbArc
 50
0.0000000000002154
 51
87.49999999999959
  0
LINE
  5
492
330
1F
100
AcDbEntity
  8
0
  6
Continuous
 62
     7
370
    15
100
AcDbLine
 10
4.003504892704528
 20
8.672054757573015
 30
0.0
 11
3.993662426405538
 21
8.672054757573015
 31
0.0
  0
LINE
  5
493
330
1F
100
AcDbEntity
  8
0
  6
Continuous
 62
     7
370
    15
100
AcDbLine
 10
3.993662426405538
 20
8.672054757573015
 30
0.0
 11
3.993662426405538
 21
8.63610005959142
 31
0.0
  0
ARC
  5
494
330
1F
100
AcDbEntity
  8
0
  6
Continuous
 62
     7
370
    15
100
AcDbCircle
 10
4.023189950613057
 20
7.097615923790979
 30
0.0
 40
0.1181102362204722
100
AcDbArc
 50
272.5000000000008
 51
0.0000000000002693
  0
LINE
  5
495
330
1F
100
AcDbEntity
  8
0
  6
Continuous
 62
     7
370
    15
100
AcDbLine
 10
4.023189971967476
 20
6.979393138011151
 30
0.0
 11
4.028341872452283
 21
6.979618122078782
 31
0.0
  0
LINE
  5
496
330
1F
100
AcDbEntity
  8
0
  6
Continuous
 62
     7
370
    15
100
AcDbLine
 10
4.002352179354102
 20
7.024079901785842
 30
0.0
 11
4.023189971967476
 21
6.979393138011151
 31
0.0
  0
LINE
  5
497
330
1F
100
AcDbEntity
  8
0
  6
Continuous
 62
     7
370
    15
100
AcDbLine
 10
4.141300154215239
 20
7.201080470393503
 30
0.0
 11
4.141300154215239
 21
7.097615958957701
 31
0.0
  0
LINE
  5
498
330
1F
100
AcDbEntity
  8
0
  6
Continuous
 62
     7
370
    15
100
AcDbLine
 10
4.141300154215243
 20
9.469909200690404
 30
0.0
 11
4.141300154215243
 21
9.366434862701453
 31
0.0
  0
LINE
  5
499
330
1F
100
AcDbEntity
  8
0
  6
Continuous
 62
     7
370
    15
100
AcDbLine
 10
4.003504892704529
 20
8.874215702192531
 30
0.0
 11
3.993662426405539
 21
8.874215702192531
 31
0.0
  0
LINE
  5
49A
330
1F
100
AcDbEntity
  8
0
  6
Continuous
 62
     7
370
    15
100
AcDbLine
 10
3.993662426405539
 20
8.874215702192531
 30
0.0
 11
3.993662426405538
 21
8.822009131953953
 31
0.0
  0
LINE
  5
49B
330
1F
100
AcDbEntity
  8
0
  6
Continuous
 62
     7
370
    15
100
AcDbLine
 10
3.993662426405538
 20
8.822009131953953
 30
0.0
 11
4.003504892704528
 21
8.822009131953953
 31
0.0
  0
LINE
  5
49C
330
1F
100
AcDbEntity
  8
0
  6
Continuous
 62
     7
370
    15
100
AcDbLine
 10
4.003504892704528
 20
8.822009131953953
 30
0.0
 11
4.003504892704528
 21
8.672054757573015
 31
0.0
  0
LINE
  5
49D
330
1F
100
AcDbEntity
  8
0
  6
Continuous
 62
     7
370
    15
100
AcDbLine
 10
4.003504892704528
 20
8.63610005959142
 30
0.0
 11
4.003504892704526
 21
7.187195110798362
 31
0.0
  0
LINE
  5
49E
330
1F
100
AcDbEntity
  8
0
  6
Continuous
 62
     7
370
    15
100
AcDbLine
 10
4.003504892704529
 20
9.380330048849744
 30
0.0
 11
4.003504892704529
 21
8.874215702192531
 31
0.0
  0
LINE
  5
49F
330
1F
100
AcDbEntity
  8
0
  6
Continuous
 62
     7
370
    15
100
AcDbLine
 10
4.003504892704528
 20
8.877207667629091
 30
0.0
 11
3.993662426405538
 21
8.877207667629091
 31
0.0
  0
LINE
  5
4A0
330
1F
100
AcDbEntity
  8
0
  6
Continuous
 62
     7
370
    15
100
AcDbLine
 10
4.003504892704528
 20
8.910516162846512
 30
0.0
 11
3.993662426405538
 21
8.910516162846512
 31
0.0
  0
LINE
  5
4A1
330
1F
100
AcDbEntity
  8
0
  6
Continuous
 62
     7
370
    15
100
AcDbLine
 10
3.993662426405538
 20
8.910516162846512
 30
0.0
 11
3.993662426405538
 21
8.877207667629091
 31
0.0
  0
LINE
  5
4A2
330
1F
100
AcDbEntity
  8
0
  6
Continuous
 62
     7
370
    15
100
AcDbLine
 10
4.003504892704528
 20
8.72266531958215
 30
0.0
 11
3.993662426405538
 21
8.72266531958215
 31
0.0
  0
LINE
  5
4A3
330
1F
100
AcDbEntity
  8
0
  6
Continuous
 62
     7
370
    15
100
AcDbLine
 10
3.993662426405538
 20
8.72266531958215
 30
0.0
 11
3.993662426405538
 21
8.623819948118983
 31
0.0
  0
LINE
  5
4A4
330
1F
100
AcDbEntity
  8
0
  6
Continuous
 62
     7
370
    15
100
AcDbLine
 10
4.003504892704528
 20
8.875317156135109
 30
0.0
 11
3.993662426405538
 21
8.875317156135109
 31
0.0
  0
LINE
  5
4A5
330
1F
100
AcDbEntity
  8
0
  6
Continuous
 62
     7
370
    15
100
AcDbLine
 10
3.993662426405538
 20
8.877207667629091
 30
0.0
 11
3.993662426405538
 21
8.875317156135109
 31
0.0
  0
LINE
  5
4A6
330
1F
100
AcDbEntity
  8
0
  6
Continuous
 62
     7
370
    15
100
AcDbLine
 10
4.003504892704528
 20
8.789975302011489
 30
0.0
 11
3.993662426405538
 21
8.789975302011489
 31
0.0
  0
LINE
  5
4A7
330
1F
100
AcDbEntity
  8
0
  6
Continuous
 62
     7
370
    15
100
AcDbLine
 10
4.003504892704528
 20
8.820583108427499
 30
0.0
 11
3.993662426405538
 21
8.820583108427499
 31
0.0
  0
LINE
  5
4A8
330
1F
100
AcDbEntity
  8
0
  6
Continuous
 62
     7
370
    15
100
AcDbLine
 10
3.993662426405538
 20
8.820583108427499
 30
0.0
 11
3.993662426405538
 21
8.789975302011489
 31
0.0
  0
LINE
  5
4A9
330
1F
100
AcDbEntity
  8
0
  6
Continuous
 62
     7
370
    15
100
AcDbLine
 10
3.993662426405538
 20
8.822009131953953
 30
0.0
 11
3.993662426405538
 21
8.820583108427499
 31
0.0
  0
LINE
  5
4AA
330
1F
100
AcDbEntity
  8
0
  6
Continuous
 62
     7
370
    15
100
AcDbLine
 10
4.003504892704527
 20
8.724645810036689
 30
0.0
 11
3.993662426405538
 21
8.724645810036689
 31
0.0
  0
LINE
  5
4AB
330
1F
100
AcDbEntity
  8
0
  6
Continuous
 62
     7
370
    15
100
AcDbLine
 10
3.993662426405538
 20
8.724645810036689
 30
0.0
 11
3.993662426405538
 21
8.723738613850031
 31
0.0
  0
LINE
  5
4AC
330
1F
100
AcDbEntity
  8
0
  6
Continuous
 62
     7
370
    15
100
AcDbLine
 10
4.003504892704527
 20
8.602484521254321
 30
0.0
 11
3.993662426405538
 21
8.602484521254321
 31
0.0
  0
LINE
  5
4AD
330
1F
100
AcDbEntity
  8
0
  6
Continuous
 62
     7
370
    15
100
AcDbLine
 10
3.993662426405538
 20
8.603481696401535
 30
0.0
 11
3.993662426405538
 21
8.602484521254321
 31
0.0
  0
LINE
  5
4AE
330
1F
100
AcDbEntity
  8
0
  6
Continuous
 62
     7
370
    15
100
AcDbLine
 10
3.993662426405538
 20
8.875317156135109
 30
0.0
 11
3.993662426405538
 21
8.87387675944136
 31
0.0
  0
LINE
  5
4AF
330
1F
100
AcDbEntity
  8
0
  6
Continuous
 62
     7
370
    15
100
AcDbLine
 10
3.609804114102848
 20
8.681278591018502
 30
0.0
 11
3.609804114102848
 21
8.465208270414617
 31
0.0
  0
LINE
  5
4B0
330
1F
100
AcDbEntity
  8
0
  6
Continuous
 62
     7
370
    15
100
AcDbLine
 10
4.141300154215236
 20
7.201080470393501
 30
0.0
 11
4.141300154215239
 21
9.366434862701451
 31
0.0
  0
LWPOLYLINE
  5
4B1
330
1F
100
AcDbEntity
  8
0
  6
Continuous
 62
     7
370
    15
100
AcDbPolyline
 90
        6
 70
   128
 43
0.0
 10
4.000517913877023
 20
7.028013529677568
 10
3.996478833870153
 20
7.032289840277264
 10
3.989684725689603
 20
7.034220391308707
 10
3.980100683071948
 20
7.034247304331138
 10
3.96920897556055
 20
7.032304140112071
 10
3.967877037613877
 20
7.031924937825981
  0
LINE
  5
4B2
330
1F
100
AcDbEntity
  8
0
  6
Continuous
 62
     7
370
    15
100
AcDbLine
 10
3.967877037613877
 20
7.031924937825981
 30
0.0
 11
3.959171371515808
 21
7.030727051664064
 31
0.0
  0
LINE
  5
4B3
330
1F
100
AcDbEntity
  8
0
  6
Continuous
 62
     7
370
    15
100
AcDbLine
 10
3.959171371515808
 20
7.049399849287646
 30
0.0
 11
3.959171371515808
 21
7.030727051664064
 31
0.0
  0
LINE
  5
4B4
330
1F
100
AcDbEntity
  8
0
  6
Continuous
 62
     7
370
    15
100
AcDbLine
 10
4.002352179354098
 20
7.049399849287646
 30
0.0
 11
3.959171371515808
 21
7.049399849287646
 31
0.0
  0
LWPOLYLINE
  5
4B5
330
1F
100
AcDbEntity
  8
0
  6
Continuous
 62
     7
370
    15
100
AcDbPolyline
 90
        3
 70
   128
 43
0.0
 10
4.002352179354097
 20
7.024079901785841
 10
4.001718073346011
 20
7.025439706077265
 10
4.000517913877023
 20
7.028013529677568
  0
LINE
  5
4B6
330
1F
100
AcDbEntity
  8
0
  6
Continuous
 62
     7
370
    15
100
AcDbLine
 10
3.959171371515812
 20
9.536798107984038
 30
0.0
 11
3.967877037613881
 21
9.535600148489635
 31
0.0
  0
LWPOLYLINE
  5
4B7
330
1F
100
AcDbEntity
  8
0
  6
Continuous
 62
     7
370
    15
100
AcDbPolyline
 90
        5
 70
   128
 43
0.0
 10
3.967877037613881
 20
9.535600148489635
 10
3.97900318908363
 20
9.533386240731553
 10
3.988797549271678
 20
9.533211416084476
 10
3.996020945826385
 20
9.534997355453151
 10
4.000517913877026
 20
9.539511556638048
  0
LINE
  5
4B8
330
1F
100
AcDbEntity
  8
0
  6
Continuous
 62
     7
370
    15
100
AcDbLine
 10
3.959171371515812
 20
9.536798107984038
 30
0.0
 11
3.959171371515812
 21
9.518125310360456
 31
0.0
  0
LWPOLYLINE
  5
4B9
330
1F
100
AcDbEntity
  8
0
  6
Continuous
 62
     7
370
    15
100
AcDbPolyline
 90
        3
 70
   128
 43
0.0
 10
4.000517913877026
 20
9.539511556638048
 10
4.002005683356854
 20
9.542702106447212
 10
4.002352179354102
 20
9.543445257862263
  0
LINE
  5
4BA
330
1F
100
AcDbEntity
  8
0
  6
Continuous
 62
     7
370
    15
100
AcDbLine
 10
3.926519495379734
 20
7.128140019674479
 30
0.0
 11
3.926519495379734
 21
7.18719511079836
 31
0.0
  0
LINE
  5
4BB
330
1F
100
AcDbEntity
  8
0
  6
Continuous
 62
     7
370
    15
100
AcDbLine
 10
3.926519495379734
 20
7.18719511079836
 30
0.0
 11
3.964172280411549
 21
7.187195110798361
 31
0.0
  0
LINE
  5
4BC
330
1F
100
AcDbEntity
  8
0
  6
Continuous
 62
     7
370
    15
100
AcDbLine
 10
3.926519495379738
 20
9.380330048849742
 30
0.0
 11
3.926519495379738
 21
9.439385139973625
 31
0.0
  0
LINE
  5
4BD
330
1F
100
AcDbEntity
  8
0
  6
Continuous
 62
     7
370
    15
100
AcDbLine
 10
3.964172280411552
 20
9.380330048849742
 30
0.0
 11
3.926519495379738
 21
9.380330048849742
 31
0.0
  0
LINE
  5
4BE
330
1F
100
AcDbEntity
  8
0
  6
Continuous
 62
     7
370
    15
100
AcDbLine
 10
3.926519495379738
 20
9.439385139973625
 30
0.0
 11
3.964172280411552
 21
9.439385139973625
 31
0.0
  0
LINE
  5
4BF
330
1F
100
AcDbEntity
  8
0
  6
Continuous
 62
     7
370
    15
100
AcDbLine
 10
3.991422118952425
 20
9.58455706293518
 30
0.0
 11
3.967877990936201
 21
9.535602641794167
 31
0.0
  0
LWPOLYLINE
  5
4C0
330
1F
100
AcDbEntity
  8
0
  6
Continuous
 62
     7
370
    15
100
AcDbPolyline
 90
        5
 70
   128
 43
0.0
 10
4.023189971967476
 20
9.588132021636953
 10
4.018310208338922
 20
9.583489635266197
 10
4.009649715052346
 20
9.58157125742746
 10
4.000961208756046
 20
9.582163050591015
 10
3.991422118952425
 20
9.58455706293518
  0
LINE
  5
4C1
330
1F
100
AcDbEntity
  8
0
  6
Continuous
 62
     7
370
    15
100
AcDbLine
 10
3.967877990936198
 20
7.031922517853937
 30
0.0
 11
3.991422118952422
 21
6.982968023380434
 31
0.0
  0
LWPOLYLINE
  5
4C2
330
1F
100
AcDbEntity
  8
0
  6
Continuous
 62
     7
370
    15
100
AcDbPolyline
 90
        5
 70
   128
 43
0.0
 10
4.023189971967473
 20
6.979393138011149
 10
4.018310208338919
 20
6.984035451049419
 10
4.009649715052343
 20
6.985953902220641
 10
4.000961208756042
 20
6.985362182389572
 10
3.991422118952422
 20
6.982968023380434
  0
ARC
  5
4C3
330
1F
100
AcDbEntity
  8
0
  6
Continuous
 62
     7
370
    15
100
AcDbCircle
 10
3.340156332597122
 20
-34.57732178357567
 30
0.0
 40
41.61265321382551
100
AcDbArc
 50
89.147656911405
 51
89.65582833588559
  0
LINE
  5
4C4
330
1F
100
AcDbEntity
  8
0
  6
Continuous
 62
     7
370
    15
100
AcDbLine
 10
3.991422118952422
 20
6.982968023380434
 30
0.0
 11
3.992866622265396
 21
6.979967844705421
 31
0.0
  0
ARC
  5
4C5
330
1F
100
AcDbEntity
  8
0
  6
Continuous
 62
     7
370
    15
100
AcDbCircle
 10
-6.397549056236302
 20
217.5957435381115
 30
0.0
 40
210.8719177816411
100
AcDbArc
 50
272.7147541030897
 51
272.8243121858215
  0
LINE
  5
4C6
330
1F
100
AcDbEntity
  8
0
  6
Continuous
 62
     7
370
    15
100
AcDbLine
 10
3.590119071506137
 20
6.960484869774411
 30
0.0
 11
3.590119071506137
 21
7.03458067381336
 31
0.0
  0
LINE
  5
4C7
330
1F
100
AcDbEntity
  8
0
  6
Continuous
 62
     7
370
    15
100
AcDbLine
 10
3.590119071506137
 20
7.03458067381336
 30
0.0
 11
3.590119071506137
 21
7.049399849287647
 31
0.0
  0
LINE
  5
4C8
330
1F
100
AcDbEntity
  8
0
  6
Continuous
 62
     7
370
    15
100
AcDbLine
 10
3.959171371515808
 20
7.049399849287646
 30
0.0
 11
3.590119071506137
 21
7.049399849287647
 31
0.0
  0
ARC
  5
4C9
330
1F
100
AcDbEntity
  8
0
  6
Continuous
 62
     7
370
    15
100
AcDbCircle
 10
3.354262956105832
 20
49.79388889660428
 30
0.0
 40
40.26163524938159
100
AcDbArc
 50
270.3356455144829
 51
270.8608692382278
  0
LINE
  5
4CA
330
1F
100
AcDbEntity
  8
0
  6
Continuous
 62
     7
370
    15
100
AcDbLine
 10
3.590119071506141
 20
9.518125310360456
 30
0.0
 11
3.590119071506141
 21
9.532944485834743
 31
0.0
  0
ARC
  5
4CB
330
1F
100
AcDbEntity
  8
0
  6
Continuous
 62
     7
370
    15
100
AcDbCircle
 10
-7.176776528622847
 20
-217.1362285015498
 30
0.0
 40
226.9987575953413
100
AcDbArc
 50
87.17957952299633
 51
87.28135418809374
  0
LINE
  5
4CC
330
1F
100
AcDbEntity
  8
0
  6
Continuous
 62
     7
370
    15
100
AcDbLine
 10
3.9928666222654
 20
9.587557241610195
 30
0.0
 11
3.991422118952425
 21
9.58455706293518
 31
0.0
  0
LINE
  5
4CD
330
1F
100
AcDbEntity
  8
0
  6
Continuous
 62
     7
370
    15
100
AcDbLine
 10
3.590119071506141
 20
9.532944485834743
 30
0.0
 11
3.590119071506141
 21
9.607040216541205
 31
0.0
  0
LINE
  5
4CE
330
1F
100
AcDbEntity
  8
0
  6
Continuous
 62
     7
370
    15
100
AcDbLine
 10
3.993652966514817
 20
9.589421646739094
 30
0.0
 11
4.002329006288466
 21
9.589032104572451
 31
0.0
  0
LWPOLYLINE
  5
4CF
330
1F
100
AcDbEntity
  8
0
  6
Continuous
 62
     7
370
    15
100
AcDbPolyline
 90
        3
 70
   128
 43
0.0
 10
4.002328639626035
 20
9.589032104572451
 10
4.011041858970181
 20
9.588655908918296
 10
4.017474951321216
 20
9.588381498754971
  0
LINE
  5
4D0
330
1F
100
AcDbEntity
  8
0
  6
Continuous
 62
     7
370
    15
100
AcDbLine
 10
4.002329006288461
 20
6.97849305507565
 30
0.0
 11
3.993652966514813
 21
6.978103586241494
 31
0.0
  0
LWPOLYLINE
  5
4D1
330
1F
100
AcDbEntity
  8
0
  6
Continuous
 62
     7
370
    15
100
AcDbPolyline
 90
        3
 70
   128
 43
0.0
 10
4.002328639626031
 20
6.978492981743164
 10
4.011041785637691
 20
6.978869324062292
 10
4.017474951321212
 20
6.97914366089313
  0
LINE
  5
4D2
330
1F
100
AcDbEntity
  8
0
  6
Continuous
 62
     7
370
    15
100
AcDbLine
 10
3.590119071506137
 20
7.128140019674479
 30
0.0
 11
3.590119071506137
 21
7.129858933150778
 31
0.0
  0
LINE
  5
4D3
330
1F
100
AcDbEntity
  8
0
  6
Continuous
 62
     7
370
    15
100
AcDbLine
 10
3.592087572099184
 20
7.187195110798361
 30
0.0
 11
3.926519495379734
 21
7.18719511079836
 31
0.0
  0
LINE
  5
4D4
330
1F
100
AcDbEntity
  8
0
  6
Continuous
 62
     7
370
    15
100
AcDbLine
 10
3.926519495379738
 20
9.380330048849742
 30
0.0
 11
3.592087572099187
 21
9.380330048849742
 31
0.0
  0
LINE
  5
4D5
330
1F
100
AcDbEntity
  8
0
  6
Continuous
 62
     7
370
    15
100
AcDbLine
 10
3.926519495379738
 20
9.439385139973625
 30
0.0
 11
3.592087572099187
 21
9.439385139973625
 31
0.0
  0
LINE
  5
4D6
330
1F
100
AcDbEntity
  8
0
  6
Continuous
 62
     7
370
    15
100
AcDbLine
 10
4.002328492961062
 20
9.589034157882064
 30
0.0
 11
3.9928666222654
 21
9.587557241610195
 31
0.0
  0
LWPOLYLINE
  5
4D7
330
1F
100
AcDbEntity
  8
0
  6
Continuous
 62
     7
370
    15
100
AcDbPolyline
 90
        3
 70
   128
 43
0.0
 10
4.017474951321216
 20
9.588381498754971
 10
4.021861260650196
 20
9.588189954301043
 10
4.023189971967476
 20
9.588132021636953
  0
LWPOLYLINE
  5
4D8
330
1F
100
AcDbEntity
  8
0
  6
Continuous
 62
     7
370
    15
100
AcDbPolyline
 90
        3
 70
   128
 43
0.0
 10
3.992866622265396
 20
6.979967844705421
 10
4.000545853554261
 20
6.979040702082519
 10
4.002328492961058
 20
6.978491001766037
  0
LWPOLYLINE
  5
4D9
330
1F
100
AcDbEntity
  8
0
  6
Continuous
 62
     7
370
    15
100
AcDbPolyline
 90
        4
 70
   128
 43
0.0
 10
4.023189971967473
 20
6.979393138011149
 10
4.022674811251986
 20
6.979370698270375
 10
4.018666310891858
 20
6.979195653625839
 10
4.017474951321212
 20
6.97914366089313
  0
LINE
  5
4DA
330
1F
100
AcDbEntity
  8
0
  6
Continuous
 62
     7
370
    15
100
AcDbLine
 10
3.590119071506141
 20
9.607040216541205
 30
0.0
 11
3.993652966514817
 21
9.589421646739094
 31
0.0
  0
LINE
  5
4DB
330
1F
100
AcDbEntity
  8
0
  6
Continuous
 62
     7
370
    15
100
AcDbLine
 10
3.993652966514813
 20
6.978103586241494
 30
0.0
 11
3.590119071506137
 21
6.960484869774411
 31
0.0
  0
LINE
  5
4DC
330
1F
100
AcDbEntity
  8
0
  6
Continuous
 62
     7
370
    15
100
AcDbLine
 10
3.590119071506137
 20
7.051118762763946
 30
0.0
 11
3.590119071506137
 21
7.061210852845927
 31
0.0
  0
LINE
  5
4DD
330
1F
100
AcDbEntity
  8
0
  6
Continuous
 62
     7
370
    15
100
AcDbLine
 10
3.590119071506141
 20
9.439385139973625
 30
0.0
 11
3.590119071506141
 21
9.451196216864389
 31
0.0
  0
LINE
  5
4DE
330
1F
100
AcDbEntity
  8
0
  6
Continuous
 62
     7
370
    15
100
AcDbLine
 10
3.180632796926528
 20
7.12985893315078
 30
0.0
 11
3.180632796926528
 21
7.188914024274661
 31
0.0
  0
LINE
  5
4DF
330
1F
100
AcDbEntity
  8
0
  6
Continuous
 62
     7
370
    15
100
AcDbLine
 10
3.180632796926528
 20
7.12985893315078
 30
0.0
 11
3.140906490014882
 21
7.12985893315078
 31
0.0
  0
LINE
  5
4E0
330
1F
100
AcDbEntity
  8
0
  6
Continuous
 62
     7
370
    15
100
AcDbLine
 10
3.140906490014881
 20
7.051118762763947
 30
0.0
 11
3.140906490014882
 21
7.12985893315078
 31
0.0
  0
LINE
  5
4E1
330
1F
100
AcDbEntity
  8
0
  6
Continuous
 62
     7
370
    15
100
AcDbLine
 10
3.140906490014885
 20
9.439385139973627
 30
0.0
 11
3.140906490014885
 21
9.518125310360458
 31
0.0
  0
LINE
  5
4E2
330
1F
100
AcDbEntity
  8
0
  6
Continuous
 62
     7
370
    15
100
AcDbLine
 10
3.140906490014885
 20
9.439385139973627
 30
0.0
 11
3.180632796926531
 21
9.439385139973627
 31
0.0
  0
LINE
  5
4E3
330
1F
100
AcDbEntity
  8
0
  6
Continuous
 62
     7
370
    15
100
AcDbLine
 10
3.180632796926531
 20
9.380330048849744
 30
0.0
 11
3.180632796926531
 21
9.439385139973627
 31
0.0
  0
LINE
  5
4E4
330
1F
100
AcDbEntity
  8
0
  6
Continuous
 62
     7
370
    15
100
AcDbLine
 10
3.141300184633558
 20
9.380330048849744
 30
0.0
 11
3.180632796926531
 21
9.380330048849744
 31
0.0
  0
LINE
  5
4E5
330
1F
100
AcDbEntity
  8
0
  6
Continuous
 62
     7
370
    15
100
AcDbLine
 10
3.141300184633555
 20
7.188914024274661
 30
0.0
 11
3.141300184633558
 21
9.380330048849744
 31
0.0
  0
LINE
  5
4E6
330
1F
100
AcDbEntity
  8
0
  6
Continuous
 62
     7
370
    15
100
AcDbLine
 10
3.180632796926528
 20
7.188914024274661
 30
0.0
 11
3.141300184633555
 21
7.188914024274661
 31
0.0
  0
LINE
  5
4E7
330
1F
100
AcDbEntity
  8
0
  6
Continuous
 62
     7
370
    15
100
AcDbLine
 10
3.181196045419837
 20
9.518125310360458
 30
0.0
 11
3.140906490014885
 21
9.518125310360458
 31
0.0
  0
LINE
  5
4E8
330
1F
100
AcDbEntity
  8
0
  6
Continuous
 62
     7
370
    15
100
AcDbLine
 10
3.181196045419837
 20
9.518125310360458
 30
0.0
 11
3.141300184633559
 21
9.587226952092397
 31
0.0
  0
ARC
  5
4E9
330
1F
100
AcDbEntity
  8
0
  6
Continuous
 62
     7
370
    15
100
AcDbCircle
 10
3.160985226203611
 20
9.47076868040231
 30
0.0
 40
0.1181102362204727
100
AcDbArc
 50
99.59406822686039
 51
179.9999999999998
  0
LINE
  5
4EA
330
1F
100
AcDbEntity
  8
0
  6
Continuous
 62
     7
370
    15
100
AcDbLine
 10
3.140906490014881
 20
7.051118762763947
 30
0.0
 11
3.181196045419833
 21
7.051118762763947
 31
0.0
  0
LINE
  5
4EB
330
1F
100
AcDbEntity
  8
0
  6
Continuous
 62
     7
370
    15
100
AcDbLine
 10
3.141300184633554
 20
6.98201712103201
 30
0.0
 11
3.181196045419833
 21
7.051118762763947
 31
0.0
  0
LINE
  5
4EC
330
1F
100
AcDbEntity
  8
0
  6
Continuous
 62
     7
370
    15
100
AcDbLine
 10
3.042874989983135
 20
7.098475415695852
 30
0.0
 11
3.042874989983139
 21
9.470768657428555
 31
0.0
  0
ARC
  5
4ED
330
1F
100
AcDbEntity
  8
0
  6
Continuous
 62
     7
370
    15
100
AcDbCircle
 10
3.160985226203608
 20
7.09847539117116
 30
0.0
 40
0.1181102362204727
100
AcDbArc
 50
179.9999999999998
 51
260.4059317731401
  0
LINE
  5
4EE
330
1F
100
AcDbEntity
  8
0
  6
Continuous
 62
     7
370
    15
100
AcDbLine
 10
3.180670269826972
 20
9.163998041268889
 30
0.0
 11
3.180670269826971
 21
9.045887785688639
 31
0.0
  0
LINE
  5
4EF
330
1F
100
AcDbEntity
  8
0
  6
Continuous
 62
     7
370
    15
100
AcDbLine
 10
3.180670269826972
 20
9.282108223516651
 30
0.0
 11
3.180670269826972
 21
9.163998041268889
 31
0.0
  0
LINE
  5
4F0
330
1F
100
AcDbEntity
  8
0
  6
Continuous
 62
     7
370
    15
100
AcDbLine
 10
3.574371066761768
 20
8.573243412383439
 30
0.0
 11
3.574371066761768
 21
8.680763210305558
 31
0.0
  0
LINE
  5
4F1
330
1F
100
AcDbEntity
  8
0
  6
Continuous
 62
     7
370
    15
100
AcDbLine
 10
3.574371066761767
 20
8.465723651127563
 30
0.0
 11
3.574371066761768
 21
8.573243412383439
 31
0.0
  0
LINE
  5
4F2
330
1F
100
AcDbEntity
  8
0
  6
Continuous
 62
     7
370
    15
100
AcDbLine
 10
3.214461952795899
 20
9.518125310360456
 30
0.0
 11
3.179243127980102
 21
9.578813809281738
 31
0.0
  0
LWPOLYLINE
  5
4F3
330
1F
100
AcDbEntity
  8
0
  6
Continuous
 62
     7
370
    15
100
AcDbPolyline
 90
        5
 70
   128
 43
0.0
 10
3.145535181543842
 20
9.579891650163762
 10
3.151031818046228
 20
9.575493314307045
 10
3.160247502419189
 20
9.574227155600485
 10
3.169330299160613
 20
9.575552420290916
 10
3.179243127980102
 20
9.578813809281738
  0
LINE
  5
4F4
330
1F
100
AcDbEntity
  8
0
  6
Continuous
 62
     7
370
    15
100
AcDbLine
 10
3.179243127980098
 20
6.990430190510178
 30
0.0
 11
3.214461952795895
 21
7.051118762763946
 31
0.0
  0
LWPOLYLINE
  5
4F5
330
1F
100
AcDbEntity
  8
0
  6
Continuous
 62
     7
370
    15
100
AcDbPolyline
 90
        5
 70
   128
 43
0.0
 10
3.179243127980098
 20
6.990430190510178
 10
3.166738316603412
 20
6.994252426355383
 10
3.155911141679861
 20
6.994876852475292
 10
3.149509105636728
 20
6.993057913487831
 10
3.145535181543838
 20
6.989352349628154
  0
LINE
  5
4F6
330
1F
100
AcDbEntity
  8
0
  6
Continuous
 62
     7
370
    15
100
AcDbLine
 10
3.214461952795895
 20
7.051118762763946
 30
0.0
 11
3.18119604541983
 21
7.051118762763946
 31
0.0
  0
LINE
  5
4F7
330
1F
100
AcDbEntity
  8
0
  6
Continuous
 62
     7
370
    15
100
AcDbLine
 10
3.218285581958342
 20
9.439385139973625
 30
0.0
 11
3.218285581958342
 21
9.380330048849742
 31
0.0
  0
LINE
  5
4F8
330
1F
100
AcDbEntity
  8
0
  6
Continuous
 62
     7
370
    15
100
AcDbLine
 10
3.218285581958342
 20
9.439385139973625
 30
0.0
 11
3.180632796926528
 21
9.439385139973625
 31
0.0
  0
LINE
  5
4F9
330
1F
100
AcDbEntity
  8
0
  6
Continuous
 62
     7
370
    15
100
AcDbLine
 10
3.218285581958342
 20
9.380330048849742
 30
0.0
 11
3.180632796926528
 21
9.380330048849742
 31
0.0
  0
LINE
  5
4FA
330
1F
100
AcDbEntity
  8
0
  6
Continuous
 62
     7
370
    15
100
AcDbLine
 10
3.218285581958338
 20
7.18891402427466
 30
0.0
 11
3.218285581958338
 21
7.129858933150778
 31
0.0
  0
LINE
  5
4FB
330
1F
100
AcDbEntity
  8
0
  6
Continuous
 62
     7
370
    15
100
AcDbLine
 10
3.180632796926524
 20
7.18891402427466
 30
0.0
 11
3.218285581958338
 21
7.18891402427466
 31
0.0
  0
LINE
  5
4FC
330
1F
100
AcDbEntity
  8
0
  6
Continuous
 62
     7
370
    15
100
AcDbLine
 10
3.180632796926524
 20
7.129858933150778
 30
0.0
 11
3.218285581958338
 21
7.129858933150778
 31
0.0
  0
LINE
  5
4FD
330
1F
100
AcDbEntity
  8
0
  6
Continuous
 62
     7
370
    15
100
AcDbLine
 10
3.574371066761765
 20
7.004651486224556
 30
0.0
 11
3.574371066761765
 21
6.962330868449277
 31
0.0
  0
LINE
  5
4FE
330
1F
100
AcDbEntity
  8
0
  6
Continuous
 62
     7
370
    15
100
AcDbLine
 10
3.574371066761765
 20
6.962330868449277
 30
0.0
 11
3.174547346392834
 21
6.982368310308372
 31
0.0
  0
LINE
  5
4FF
330
1F
100
AcDbEntity
  8
0
  6
Continuous
 62
     7
370
    15
100
AcDbLine
 10
3.174547346392834
 20
6.982368310308372
 30
0.0
 11
3.179243127980098
 21
6.990430190510178
 31
0.0
  0
LINE
  5
500
330
1F
100
AcDbEntity
  8
0
  6
Continuous
 62
     7
370
    15
100
AcDbLine
 10
3.594056109358473
 20
7.051118762763946
 30
0.0
 11
3.594056109358473
 21
7.049399849287647
 31
0.0
  0
LINE
  5
501
330
1F
100
AcDbEntity
  8
0
  6
Continuous
 62
     7
370
    15
100
AcDbLine
 10
3.574371066761765
 20
7.004651486224556
 30
0.0
 11
3.590119071506137
 21
7.004651486224556
 31
0.0
  0
LINE
  5
502
330
1F
100
AcDbEntity
  8
0
  6
Continuous
 62
     7
370
    15
100
AcDbLine
 10
3.594056109358473
 20
7.051118762763946
 30
0.0
 11
3.214461952795895
 21
7.051118762763946
 31
0.0
  0
LINE
  5
503
330
1F
100
AcDbEntity
  8
0
  6
Continuous
 62
     7
370
    15
100
AcDbLine
 10
3.574371836752874
 20
9.564592586899847
 30
0.0
 11
3.594056109358477
 21
9.564592586899847
 31
0.0
  0
LINE
  5
504
330
1F
100
AcDbEntity
  8
0
  6
Continuous
 62
     7
370
    15
100
AcDbLine
 10
3.594056109358477
 20
9.564592586899847
 30
0.0
 11
3.594056109358477
 21
9.518125310360456
 31
0.0
  0
LINE
  5
505
330
1F
100
AcDbEntity
  8
0
  6
Continuous
 62
     7
370
    15
100
AcDbLine
 10
3.179243127980102
 20
9.578813809281738
 30
0.0
 11
3.174547346392838
 21
9.586875689483543
 31
0.0
  0
LINE
  5
506
330
1F
100
AcDbEntity
  8
0
  6
Continuous
 62
     7
370
    15
100
AcDbLine
 10
3.174547346392838
 20
9.586875689483543
 30
0.0
 11
3.574371066761769
 21
9.606913204675125
 31
0.0
  0
LINE
  5
507
330
1F
100
AcDbEntity
  8
0
  6
Continuous
 62
     7
370
    15
100
AcDbLine
 10
3.574371066761769
 20
9.606913204675125
 30
0.0
 11
3.574371066761769
 21
9.564662839421616
 31
0.0
  0
LWPOLYLINE
  5
508
330
1F
100
AcDbEntity
  8
0
  6
Continuous
 62
     7
370
    15
100
AcDbPolyline
 90
        3
 70
   128
 43
0.0
 10
3.163067943170546
 20
6.98061309725141
 10
3.172193905246654
 20
6.982375496892019
 10
3.174547346392834
 20
6.982368310308372
  0
ARC
  5
509
330
1F
100
AcDbEntity
  8
0
  6
Continuous
 62
     7
370
    15
100
AcDbCircle
 10
3.128933072275968
 20
6.625976580354274
 30
0.0
 40
0.356277859179584
100
AcDbArc
 50
84.50207583920464
 51
88.01063940995074
  0
LWPOLYLINE
  5
50A
330
1F
100
AcDbEntity
  8
0
  6
Continuous
 62
     7
370
    15
100
AcDbPolyline
 90
        3
 70
   128
 43
0.0
 10
3.174547346392838
 20
9.586875689483543
 10
3.165267615259751
 20
9.587973330136838
 10
3.163067998169915
 20
9.588630975872993
  0
ARC
  5
50B
330
1F
100
AcDbEntity
  8
0
  6
Continuous
 62
     7
370
    15
100
AcDbCircle
 10
3.124130625575852
 20
10.0167539168172
 30
0.0
 40
0.4298925852728901
100
AcDbArc
 50
272.2890496353621
 51
275.1966723303411
  0
LINE
  5
50C
330
1F
100
AcDbEntity
  8
0
  6
Continuous
 62
     7
370
    15
100
AcDbLine
 10
3.592087572099187
 20
9.439385139973625
 30
0.0
 11
3.218285581958342
 21
9.439385139973625
 31
0.0
  0
LINE
  5
50D
330
1F
100
AcDbEntity
  8
0
  6
Continuous
 62
     7
370
    15
100
AcDbLine
 10
3.592087572099187
 20
9.380330048849742
 30
0.0
 11
3.380465526775113
 21
9.380330048849742
 31
0.0
  0
LINE
  5
50E
330
1F
100
AcDbEntity
  8
0
  6
Continuous
 62
     7
370
    15
100
AcDbLine
 10
3.318465549670806
 20
9.380330048849742
 30
0.0
 11
3.218285581958342
 21
9.380330048849742
 31
0.0
  0
LINE
  5
50F
330
1F
100
AcDbEntity
  8
0
  6
Continuous
 62
     7
370
    15
100
AcDbLine
 10
3.594056109358473
 20
7.187195110798361
 30
0.0
 11
3.594056109358473
 21
7.18891402427466
 31
0.0
  0
LINE
  5
510
330
1F
100
AcDbEntity
  8
0
  6
Continuous
 62
     7
370
    15
100
AcDbLine
 10
3.218285581958338
 20
7.18891402427466
 30
0.0
 11
3.318465549670803
 21
7.18891402427466
 31
0.0
  0
LINE
  5
511
330
1F
100
AcDbEntity
  8
0
  6
Continuous
 62
     7
370
    15
100
AcDbLine
 10
3.38046552677511
 20
7.18891402427466
 30
0.0
 11
3.594056109358473
 21
7.18891402427466
 31
0.0
  0
LINE
  5
512
330
1F
100
AcDbEntity
  8
0
  6
Continuous
 62
     7
370
    15
100
AcDbLine
 10
3.218285581958338
 20
7.129858933150778
 30
0.0
 11
3.592087572099183
 21
7.129858933150778
 31
0.0
  0
LINE
  5
513
330
1F
100
AcDbEntity
  8
0
  6
Continuous
 62
     7
370
    15
100
AcDbLine
 10
3.1905222143498
 20
9.590281103477243
 30
0.0
 11
3.574371066761769
 21
9.607040216541205
 31
0.0
  0
LINE
  5
514
330
1F
100
AcDbEntity
  8
0
  6
Continuous
 62
     7
370
    15
100
AcDbLine
 10
3.574371066761769
 20
9.607040216541205
 30
0.0
 11
3.574371066761769
 21
9.606913204675125
 31
0.0
  0
LINE
  5
515
330
1F
100
AcDbEntity
  8
0
  6
Continuous
 62
     7
370
    15
100
AcDbLine
 10
3.16306746650939
 20
9.588628189238518
 30
0.0
 11
3.1905222143498
 21
9.590281103477243
 31
0.0
  0
LINE
  5
516
330
1F
100
AcDbEntity
  8
0
  6
Continuous
 62
     7
370
    15
100
AcDbLine
 10
3.574371066761765
 20
6.96220378325071
 30
0.0
 11
3.190522214349796
 21
6.978963042979644
 31
0.0
  0
LINE
  5
517
330
1F
100
AcDbEntity
  8
0
  6
Continuous
 62
     7
370
    15
100
AcDbLine
 10
3.574371066761765
 20
6.962330868449277
 30
0.0
 11
3.574371066761765
 21
6.96220378325071
 31
0.0
  0
LINE
  5
518
330
1F
100
AcDbEntity
  8
0
  6
Continuous
 62
     7
370
    15
100
AcDbLine
 10
3.190522214349796
 20
6.978963042979644
 30
0.0
 11
3.163067439009704
 21
6.980615663888427
 31
0.0
  0
LINE
  5
519
330
1F
100
AcDbEntity
  8
0
  6
Continuous
 62
     7
370
    15
100
AcDbLine
 10
3.594056109358473
 20
7.061210852845927
 30
0.0
 11
3.594056109358473
 21
7.051118762763946
 31
0.0
  0
LINE
  5
51A
330
1F
100
AcDbEntity
  8
0
  6
Continuous
 62
     7
370
    15
100
AcDbLine
 10
3.594056109358477
 20
9.451196216864389
 30
0.0
 11
3.594056109358477
 21
9.439385139973625
 31
0.0
  0
LINE
  5
51B
330
1F
100
AcDbEntity
  8
0
  6
Continuous
 62
     7
370
    15
100
AcDbLine
 10
3.965852107672707
 20
7.18719511079836
 30
0.0
 11
3.965852107672709
 21
8.460547330924853
 31
0.0
  0
LINE
  5
51C
330
1F
100
AcDbEntity
  8
0
  6
Continuous
 62
     7
370
    15
100
AcDbLine
 10
3.96585210767271
 20
8.685939457175777
 30
0.0
 11
3.965852107672711
 21
9.380330048849742
 31
0.0
  0
LINE
  5
51D
330
1F
100
AcDbEntity
  8
0
  6
Continuous
 62
     7
370
    15
100
AcDbLine
 10
4.023018153952329
 20
7.061210852845925
 30
0.0
 11
4.023018153952329
 21
7.049399849287646
 31
0.0
  0
LINE
  5
51E
330
1F
100
AcDbEntity
  8
0
  6
Continuous
 62
     7
370
    15
100
AcDbLine
 10
4.023018153952333
 20
9.451196216864389
 30
0.0
 11
4.023018153952333
 21
9.439385139973623
 31
0.0
  0
LINE
  5
51F
330
1F
100
AcDbEntity
  8
0
  6
Continuous
 62
     7
370
    15
100
AcDbLine
 10
3.178952969665369
 20
9.380330048849742
 30
0.0
 11
3.178952969665368
 21
9.282108223516651
 31
0.0
  0
LINE
  5
520
330
1F
100
AcDbEntity
  8
0
  6
Continuous
 62
     7
370
    15
100
AcDbLine
 10
3.178952969665368
 20
9.045887785688639
 30
0.0
 11
3.178952969665367
 21
8.93357108984736
 31
0.0
  0
LINE
  5
521
330
1F
100
AcDbEntity
  8
0
  6
Continuous
 62
     7
370
    15
100
AcDbLine
 10
3.178952969665367
 20
8.738035148695239
 30
0.0
 11
3.178952969665367
 21
8.685939457175779
 31
0.0
  0
LINE
  5
522
330
1F
100
AcDbEntity
  8
0
  6
Continuous
 62
     7
370
    15
100
AcDbLine
 10
3.178952969665367
 20
8.460547330924855
 30
0.0
 11
3.178952969665366
 21
7.831208896929481
 31
0.0
  0
LINE
  5
523
330
1F
100
AcDbEntity
  8
0
  6
Continuous
 62
     7
370
    15
100
AcDbLine
 10
3.178952969665366
 20
7.63567296494392
 30
0.0
 11
3.178952969665365
 21
7.18891402427466
 31
0.0
  0
LINE
  5
524
330
1F
100
AcDbEntity
  8
0
  6
Continuous
 62
     7
370
    15
100
AcDbLine
 10
3.160591523445025
 20
7.051118762763946
 30
0.0
 11
3.160591523445025
 21
7.061210852845927
 31
0.0
  0
LINE
  5
525
330
1F
100
AcDbEntity
  8
0
  6
Continuous
 62
     7
370
    15
100
AcDbLine
 10
3.160591523445025
 20
7.128140019674479
 30
0.0
 11
3.160591523445025
 21
7.129858933150778
 31
0.0
  0
LINE
  5
526
330
1F
100
AcDbEntity
  8
0
  6
Continuous
 62
     7
370
    15
100
AcDbLine
 10
3.160591523445029
 20
9.439385139973625
 30
0.0
 11
3.160591523445029
 21
9.451196216864389
 31
0.0
  0
HATCH
  5
527
330
1F
100
AcDbEntity
  8
0
  6
Continuous
 62
     7
370
     0
100
AcDbHatch
 10
0.0
 20
0.0
 30
0.0
210
0.0
220
0.0
230
1.0
  2
ANSI31
 70
     0
 71
     0
 91
        1
 92
        0
 93
       16
 72
     1
 10
3.180632793981944
 20
7.188914050403933
 11
3.14130018683353
 21
7.188914050403941
 72
     1
 10
3.14130018683353
 20
7.188914050403941
 11
3.141300186833533
 21
9.380330021169539
 72
     1
 10
3.141300186833533
 20
9.380330021169539
 11
3.180632793981482
 21
9.380330021169537
 72
     1
 10
3.180632793981482
 20
9.380330021169537
 11
3.180632793981469
 21
9.439385139279865
 72
     1
 10
3.180632793981469
 20
9.439385139279865
 11
3.140906486046131
 21
9.439385139279865
 72
     1
 10
3.140906486046131
 20
9.439385139279865
 11
3.140906486046131
 21
9.51812529676018
 72
     1
 10
3.140906486046131
 20
9.51812529676018
 11
3.181196041379175
 21
9.518125296764722
 72
     1
 10
3.181196041379175
 20
9.518125296764722
 11
3.141300186833533
 21
9.587226943849151
 72
     2
 10
3.160985226203611
 20
9.470768680402308
 40
0.1181102362204724
 50
99.59406822686025
 51
180.0
 73
     1
 72
     1
 10
3.042874989983139
 20
9.470768680402308
 11
3.042874989983136
 21
7.09847539117116
 72
     2
 10
3.160985226203608
 20
7.09847539117116
 40
0.1181102362204724
 50
180.0
 51
260.4059317731402
 73
     1
 72
     1
 10
3.141300186833529
 20
6.982017127724317
 11
3.181196041379171
 21
7.051118774808747
 72
     1
 10
3.181196041379171
 20
7.051118774808747
 11
3.140906486046127
 21
7.051118774813287
 72
     1
 10
3.140906486046127
 20
7.051118774813287
 11
3.140906486046127
 21
7.129858932293603
 72
     1
 10
3.140906486046127
 20
7.129858932293603
 11
3.180632793981931
 21
7.129858932293603
 72
     1
 10
3.180632793981931
 20
7.129858932293603
 11
3.180632793981944
 21
7.188914050403933
 97
        0
 75
     0
 76
     1
 52
0.0
 41
1.0
 77
     0
 78
     1
 53
45.0
 43
0.0
 44
0.0
 45
-0.0883883476483184
 46
0.0883883476483185
 79
     0
 98
        1
 10
0.0
 20
0.0
  0
HATCH
  5
528
330
1F
100
AcDbEntity
  8
0
  6
Continuous
 62
     7
370
     0
100
AcDbHatch
 10
0.0
 20
0.0
 30
0.0
210
0.0
220
0.0
230
1.0
  2
ANSI31
 70
     0
 71
     0
 91
        1
 92
        0
 93
       32
 72
     1
 10
4.141300186833532
 20
9.366434821428775
 11
4.141300186833533
 21
9.469909213022129
 72
     2
 10
4.02318995061306
 20
9.469909213022129
 40
0.1181102362204724
 50
0.0
 51
87.49999999999955
 73
     1
 72
     1
 10
4.028341846758573
 20
9.587907034468804
 11
4.023189950613061
 21
9.588131971112284
 72
     1
 10
4.023189950613061
 20
9.588131971112284
 11
4.002352179308188
 21
9.54344522634099
 72
     1
 10
4.002352179308188
 20
9.54344522634099
 11
4.002352179308188
 21
9.518125296760089
 72
     1
 10
4.002352179308188
 20
9.518125296760089
 11
4.042874989983139
 21
9.518125296760089
 72
     1
 10
4.042874989983139
 20
9.518125296760089
 11
4.042874989983139
 21
9.439385139279774
 72
     1
 10
4.042874989983139
 20
9.439385139279774
 11
3.96417230409409
 21
9.439385139279776
 72
     1
 10
3.96417230409409
 20
9.439385139279776
 11
3.96417230409409
 21
9.380330021169539
 72
     1
 10
3.96417230409409
 20
9.380330021169539
 11
4.003504911242981
 21
9.380330021169539
 72
     1
 10
4.003504911242981
 20
9.380330021169539
 11
4.003504911242981
 21
8.874215717605295
 72
     1
 10
4.003504911242981
 20
8.874215717605295
 11
3.993662391557941
 21
8.874215717604533
 72
     1
 10
3.993662391557941
 20
8.874215717604533
 11
3.993662391557941
 21
8.822009165137721
 72
     1
 10
3.993662391557941
 20
8.822009165137721
 11
4.003504911242981
 21
8.822009165137721
 72
     1
 10
4.003504911242981
 20
8.822009165137721
 11
4.003504911242981
 21
8.67205477273735
 72
     1
 10
4.003504911242981
 20
8.67205477273735
 11
3.993662391557943
 21
8.67205477273735
 72
     1
 10
3.993662391557943
 20
8.67205477273735
 11
3.993662391557943
 21
8.636100060002254
 72
     1
 10
3.993662391557943
 20
8.636100060002254
 11
4.003504911242981
 21
8.636100060002254
 72
     1
 10
4.003504911242981
 20
8.636100060002254
 11
4.003504911242979
 21
7.187195115643567
 72
     1
 10
4.003504911242979
 20
7.187195115643567
 11
3.96417230409409
 21
7.187195115643568
 72
     1
 10
3.96417230409409
 20
7.187195115643568
 11
3.96417230409409
 21
7.128139997533333
 72
     1
 10
3.96417230409409
 20
7.128139997533333
 11
4.042874989983135
 21
7.128139997533332
 72
     1
 10
4.042874989983135
 20
7.128139997533332
 11
4.042874989983135
 21
7.049399840053016
 72
     1
 10
4.042874989983135
 20
7.049399840053016
 11
4.002352179308185
 21
7.049399840053016
 72
     1
 10
4.002352179308185
 20
7.049399840053016
 11
4.002352179308185
 21
7.024079910472116
 72
     1
 10
4.002352179308185
 20
7.024079910472116
 11
4.023189950613057
 21
6.979393165700822
 72
     1
 10
4.023189950613057
 20
6.979393165700822
 11
4.028341846758569
 21
6.979618102344303
 72
     2
 10
4.023189950613057
 20
7.097615923790979
 40
0.1181102362204724
 50
272.5000000000008
 51
360.0000000000004
 73
     1
 72
     1
 10
4.141300186833529
 20
7.097615923790978
 11
4.141300186833529
 21
7.201080490720112
 72
     1
 10
4.141300186833529
 20
7.201080490720112
 11
4.101930108093371
 21
7.201080490720112
 72
     1
 10
4.101930108093371
 20
7.201080490720112
 11
4.101930108093375
 21
9.366434821428775
 72
     1
 10
4.101930108093375
 20
9.366434821428775
 11
4.141300186833532
 21
9.366434821428775
 97
        0
 75
     0
 76
     1
 52
0.0
 41
1.0
 77
     0
 78
     1
 53
45.0
 43
0.0
 44
0.0
 45
-0.0883883476483184
 46
0.0883883476483185
 79
     0
 98
        1
 10
0.0
 20
0.0
  0
HATCH
  5
529
330
1F
100
AcDbEntity
  8
0
  6
Continuous
 62
     7
370
     0
100
AcDbHatch
 10
0.0
 20
0.0
 30
0.0
210
0.0
220
0.0
230
1.0
  2
ANSI31
 70
     0
 71
     0
 91
        1
 92
        0
 93
        4
 72
     1
 10
3.157048218329596
 20
9.451196162901913
 11
4.042874989983139
 21
9.451196162901911
 72
     1
 10
4.042874989983139
 20
9.451196162901911
 11
4.042874989983139
 21
9.51812529676018
 72
     1
 10
4.042874989983139
 20
9.51812529676018
 11
3.157048218329596
 21
9.51812529676018
 72
     1
 10
3.157048218329596
 20
9.51812529676018
 11
3.157048218329596
 21
9.451196162901913
 97
        0
 75
     0
 76
     1
 52
90.00000000000019
 41
1.0
 77
     0
 78
     1
 53
135.0000000000002
 43
0.0
 44
0.0
 45
-0.0883883476483182
 46
-0.0883883476483188
 79
     0
 98
        1
 10
0.0
 20
0.0
  0
HATCH
  5
52A
330
1F
100
AcDbEntity
  8
0
  6
Continuous
 62
     7
370
     0
100
AcDbHatch
 10
0.0
 20
0.0
 30
0.0
210
0.0
220
0.0
230
1.0
  2
ANSI31
 70
     0
 71
     0
 91
        1
 92
        0
 93
        4
 72
     1
 10
3.380465541164241
 20
9.419661405865475
 11
3.318465541164242
 21
9.419661405865475
 72
     1
 10
3.318465541164242
 20
9.419661405865475
 11
3.318465541164235
 21
7.149582665707995
 72
     1
 10
3.318465541164235
 20
7.149582665707995
 11
3.380465541164236
 21
7.149582665707993
 72
     1
 10
3.380465541164236
 20
7.149582665707993
 11
3.380465541164241
 21
9.419661405865475
 97
        0
 75
     0
 76
     1
 52
0.0
 41
1.0
 77
     0
 78
     1
 53
45.0
 43
0.0
 44
0.0
 45
-0.0883883476483184
 46
0.0883883476483185
 79
     0
 98
        1
 10
0.0
 20
0.0
  0
HATCH
  5
52B
330
1F
100
AcDbEntity
  8
0
  6
Continuous
 62
     7
370
     0
100
AcDbHatch
 10
0.0
 20
0.0
 30
0.0
210
0.0
220
0.0
230
1.0
  2
ANSI31
 70
     0
 71
     0
 91
        1
 92
        0
 93
        4
 72
     1
 10
3.157048218329592
 20
7.061210863675064
 11
4.042874989983135
 21
7.061210863675063
 72
     1
 10
4.042874989983135
 20
7.061210863675063
 11
4.042874989983135
 21
7.128139997533332
 72
     1
 10
4.042874989983135
 20
7.128139997533332
 11
3.157048218329592
 21
7.128139997533333
 72
     1
 10
3.157048218329592
 20
7.128139997533333
 11
3.157048218329592
 21
7.061210863675064
 97
        0
 75
     0
 76
     1
 52
90.00000000000019
 41
1.0
 77
     0
 78
     1
 53
135.0000000000002
 43
0.0
 44
0.0
 45
-0.0883883476483182
 46
-0.0883883476483188
 79
     0
 98
        1
 10
0.0
 20
0.0
  0
DIMENSION
  5
52C
330
1F
100
AcDbEntity
  8
0
  6
Continuous
 62
     7
370
     0
100
AcDbDimension
  2
*D30
 10
4.003504911242986
 20
10.76979239954547
 30
0.0
 11
4.771272201641527
 21
10.76979239954547
 31
0.0
 70
   160
 71
     2
 42
-1.0
  3
SLDDIMSTYLE0
100
AcDbAlignedDimension
 13
3.318465541164242
 23
9.419661405865475
 33
0.0
 14
4.003504911242981
 24
9.380330021169539
 34
0.0
 50
-0.0000000000001486
100
AcDbRotatedDimension
  0
DIMENSION
  5
53E
330
1F
100
AcDbEntity
  8
0
  6
Continuous
 62
     7
370
     0
100
AcDbDimension
  2
*D31
 10
3.141300186833538
 20
11.18184746125546
 30
0.0
 11
2.412874248511674
 21
11.18184746125546
 31
0.0
 70
   160
 71
     2
 42
-1.0
  3
SLDDIMSTYLE4
100
AcDbAlignedDimension
 13
3.318465541164242
 23
9.419661405865475
 33
0.0
 14
3.141300186833533
 24
9.380330021169539
 34
0.0
 50
-0.0000000000005745
100
AcDbRotatedDimension
  0
MTEXT
  5
550
330
1F
100
AcDbEntity
  8
0
  6
Continuous
 62
     7
370
     0
100
AcDbMText
 10
3.118288494944899
 20
6.630068657554855
 30
0.0
 40
0.125
 41
0.0
 71
     1
 72
     1
  1
SECTION F-F
  7
SLDTEXTSTYLE0
 73
     1
 44
1.0
  0
INSERT
  5
555
330
1F
100
AcDbEntity
  8
0
  6
Continuous
 62
     7
370
     0
100
AcDbBlockReference
  2
SW_NOTE_7
 10
2.482505304236879
 20
8.18300461976346
 30
0.0
  0
LEADER
  5
556
330
1F
100
AcDbEntity
  8
0
  6
Continuous
 62
     7
370
     0
100
AcDbLeader
  3
SLDDIMSTYLE2
 76
     2
 10
3.042874989983138
 20
8.896782886932513
 30
0.0
 10
2.482505304236879
 20
8.18300461976346
 30
0.0
  0
INSERT
  5
55B
330
1F
100
AcDbEntity
  8
0
  6
Continuous
 62
     7
370
     0
100
AcDbBlockReference
  2
SW_NOTE_8
 10
5.408235398482242
 20
9.330577805073501
 30
0.0
  0
LEADER
  5
55C
330
1F
100
AcDbEntity
  8
0
  6
Continuous
 62
     7
370
     0
100
AcDbLeader
  3
SLDDIMSTYLE2
 76
     2
 10
4.141300186833528
 20
8.683544026333347
 30
0.0
 10
5.408235398482242
 20
9.330577805073501
 30
0.0
  0
INSERT
  5
562
330
1F
100
AcDbEntity
  8
0
  6
Continuous
 62
     7
370
     0
100
AcDbBlockReference
  2
SW_NOTE_9
 10
4.901998783582274
 20
7.853795532773298
 30
0.0
  0
LEADER
  5
563
330
1F
100
AcDbEntity
  8
0
  6
Continuous
 62
     7
370
     0
100
AcDbLeader
  3
SLDDIMSTYLE2
 76
     2
 10
3.837851160158927
 20
7.128139997533332
 30
0.0
 10
4.901998783582274
 20
7.853795532773298
 30
0.0
  0
INSERT
  5
56A
102
{ACAD_REACTORS
330
56B
102
}
330
1F
100
AcDbEntity
  8
0
  6
Continuous
 62
     7
370
     0
100
AcDbBlockReference
  2
SW_NOTE_10
 10
2.51947118912171
 20
9.165973261578425
 30
0.0
  0
LEADER
  5
56B
330
1F
100
AcDbEntity
  8
0
  6
Continuous
 62
     7
370
     0
100
AcDbLeader
  3
SLDDIMSTYLE2
 73
     2
 76
     2
 10
3.318465541164242
 20
9.230234957091091
 30
0.0
 10
2.51947118912171
 20
9.165973261578425
 30
0.0
340
56A
  0
DIMENSION
  5
574
330
1F
100
AcDbEntity
  8
0
100
AcDbDimension
  2
*D36
 10
6.133857673186952
 20
2.995501861434513
 30
0.0
 11
6.133857673186951
 21
3.544714443550566
 31
0.0
 70
    32
 71
     5
 42
1.098425164232105
  3
Standard
100
AcDbAlignedDimension
 13
8.030714286691909
 23
4.093927025666618
 33
0.0
 14
8.030714346426229
 24
2.995501861434513
 34
0.0
 50
90.0
100
AcDbRotatedDimension
1001
ACAD
1000
DSTYLE
1002
{
1070
    41
1040
0.13
1070
    42
1040
0.05
1070
    44
1040
0.125
1070
   140
1040
0.125
1070
   147
1040
0.06
1070
   170
1070
     1
1070
   271
1070
     3
1070
   272
1070
     3
1002
}
  0
DIMENSION
  5
583
330
1F
100
AcDbEntity
  8
0
100
AcDbDimension
  2
*D37
 10
7.290464236854504
 20
2.995501861434513
 30
0.0
 11
6.475464236854503
 21
2.865501861434514
 31
0.0
 70
    32
 71
     5
 42
0.5472440815230053
  3
Standard
100
AcDbAlignedDimension
 13
7.855894626223544
 23
3.542745942957518
 33
0.0
 14
7.991623524938391
 24
2.995501861434513
 34
0.0
 50
90.0
100
AcDbRotatedDimension
1001
ACAD
1000
DSTYLE
1002
{
1070
    41
1040
0.13
1070
    42
1040
0.05
1070
    44
1040
0.125
1070
   140
1040
0.125
1070
   147
1040
0.06
1070
   170
1070
     1
1070
   271
1070
     3
1070
   272
1070
     3
1002
}
  0
MTEXT
  5
5AB
330
1F
100
AcDbEntity
  8
0
  6
Continuous
 62
     0
370
     0
100
AcDbMText
 10
10.96027396865862
 20
2.572998626602276
 30
0.0
 40
0.125
 41
0.0
 71
     1
 72
     1
  1
VIEWING AREA
  7
SLDTEXTSTYLE0
 73
     1
 44
1.0
  0
MTEXT
  5
5AC
330
1F
100
AcDbEntity
  8
0
  6
Continuous
 62
     0
370
     0
100
AcDbMText
 10
10.96027396865862
 20
2.40862855208607
 30
0.0
 40
0.125
 41
0.0
 71
     1
 72
     1
  1
2.28 [57.9 X .82 [20.8]
  7
SLDTEXTSTYLE0
 73
     1
 44
1.0
  0
ENDSEC
  0
SECTION
  2
OBJECTS
  0
DICTIONARY
  5
C
330
0
100
AcDbDictionary
281
     1
  3
ACAD_GROUP
350
D
  3
ACAD_LAYOUT
350
1A
  3
ACAD_MLEADERSTYLE
350
570
  3
ACAD_MLINESTYLE
350
17
  3
ACAD_PLOTSETTINGS
350
19
  3
ACAD_PLOTSTYLENAME
350
E
  3
ACAD_SCALELIST
350
3B
  3
ACAD_TABLESTYLE
350
56F
  3
ACAD_VISUALSTYLE
350
2A
  3
AcDbVariableDictionary
350
56D
  0
DICTIONARY
  5
D
102
{ACAD_REACTORS
330
C
102
}
330
C
100
AcDbDictionary
281
     1
  0
DICTIONARY
  5
1A
102
{ACAD_REACTORS
330
C
102
}
330
C
100
AcDbDictionary
281
     1
  3
Layout1
350
1E
  3
Layout2
350
26
  3
Model
350
22
  0
DICTIONARY
  5
570
102
{ACAD_REACTORS
330
C
102
}
330
C
100
AcDbDictionary
281
     1
  0
DICTIONARY
  5
17
102
{ACAD_REACTORS
330
C
102
}
330
C
100
AcDbDictionary
281
     1
  3
Standard
350
18
  0
DICTIONARY
  5
19
102
{ACAD_REACTORS
330
C
102
}
330
C
100
AcDbDictionary
281
     1
  0
ACDBDICTIONARYWDFLT
  5
E
102
{ACAD_REACTORS
330
C
102
}
330
C
100
AcDbDictionary
281
     1
  3
Normal
350
F
100
AcDbDictionaryWithDefault
340
F
  0
DICTIONARY
  5
3B
102
{ACAD_REACTORS
330
C
102
}
330
C
100
AcDbDictionary
281
     1
  3
A0
350
3C
  3
A1
350
3D
  3
A2
350
3E
  3
A3
350
3F
  3
A4
350
40
  3
A5
350
41
  3
A6
350
42
  3
A7
350
43
  3
A8
350
44
  3
A9
350
45
  3
B0
350
46
  3
B1
350
47
  3
B2
350
48
  3
B3
350
49
  3
B4
350
4A
  3
B5
350
4B
  3
B6
350
4C
  3
B7
350
4D
  3
B8
350
4E
  3
B9
350
4F
  3
C0
350
50
  3
C1
350
51
  3
C2
350
52
  3
C3
350
53
  3
C4
350
54
  3
C5
350
55
  3
C6
350
56
  3
C7
350
57
  3
C8
350
58
  3
C9
350
59
  3
D0
350
5A
  3
D1
350
5B
  3
D2
350
5C
  0
DICTIONARY
  5
56F
102
{ACAD_REACTORS
330
C
102
}
330
C
100
AcDbDictionary
281
     1
  0
DICTIONARY
  5
2A
102
{ACAD_REACTORS
330
C
102
}
330
C
100
AcDbDictionary
281
     1
  3
2dWireframe
350
2F
  3
3D Hidden
350
31
  3
3dWireframe
350
30
  3
Basic
350
32
  3
Brighten
350
36
  3
ColorChange
350
3A
  3
Conceptual
350
34
  3
Dim
350
35
  3
Facepattern
350
39
  3
Flat
350
2B
  3
FlatWithEdges
350
2C
  3
Gouraud
350
2D
  3
GouraudWithEdges
350
2E
  3
Linepattern
350
38
  3
Realistic
350
33
  3
Thicken
350
37
  0
DICTIONARY
  5
56D
102
{ACAD_REACTORS
330
C
102
}
330
C
100
AcDbDictionary
281
     1
  3
CANNOSCALE
350
56E
  0
LAYOUT
  5
1E
102
{ACAD_REACTORS
330
1A
102
}
330
1A
100
AcDbPlotSettings
  1

  2
none_device
  4

  6

 40
0.0
 41
0.0
 42
0.0
 43
0.0
 44
0.0
 45
0.0
 46
0.0
 47
0.0
 48
0.0
 49
0.0
140
0.0
141
0.0
142
1.0
143
1.0
 70
   688
 72
     0
 73
     0
 74
     5
  7

 75
    16
147
1.0
148
0.0
149
0.0
100
AcDbLayout
  1
Layout1
 70
     1
 71
     1
 10
0.0
 20
0.0
 11
12.0
 21
9.0
 12
0.0
 22
0.0
 32
0.0
 14
1.000000000000000E+20
 24
1.000000000000000E+20
 34
1.000000000000000E+20
 15
-1.000000000000000E+20
 25
-1.000000000000000E+20
 35
-1.000000000000000E+20
146
0.0
 13
0.0
 23
0.0
 33
0.0
 16
1.0
 26
0.0
 36
0.0
 17
0.0
 27
1.0
 37
0.0
 76
     0
330
1B
  0
LAYOUT
  5
26
102
{ACAD_REACTORS
330
1A
102
}
330
1A
100
AcDbPlotSettings
  1

  2
none_device
  4

  6

 40
0.0
 41
0.0
 42
0.0
 43
0.0
 44
0.0
 45
0.0
 46
0.0
 47
0.0
 48
0.0
 49
0.0
140
0.0
141
0.0
142
1.0
143
1.0
 70
   688
 72
     0
 73
     0
 74
     5
  7

 75
    16
147
1.0
148
0.0
149
0.0
100
AcDbLayout
  1
Layout2
 70
     1
 71
     2
 10
0.0
 20
0.0
 11
0.0
 21
0.0
 12
0.0
 22
0.0
 32
0.0
 14
0.0
 24
0.0
 34
0.0
 15
0.0
 25
0.0
 35
0.0
146
0.0
 13
0.0
 23
0.0
 33
0.0
 16
1.0
 26
0.0
 36
0.0
 17
0.0
 27
1.0
 37
0.0
 76
     0
330
23
  0
LAYOUT
  5
22
102
{ACAD_REACTORS
330
1A
102
}
330
1A
100
AcDbPlotSettings
  1

  2
none_device
  4
Letter_(8.50_x_11.00_Inches)
  6

 40
6.349999904632568
 41
6.349999904632568
 42
6.350006103515625
 43
6.350006103515625
 44
215.8999938964843
 45
279.3999938964843
 46
0.0
 47
0.0
 48
0.0
 49
0.0
140
0.0
141
0.0
142
1.0
143
1.0
 70
 11952
 72
     0
 73
     1
 74
     0
  7

 75
     0
147
1.0
148
-153.3026083658873
149
60.6939238269014
100
AcDbLayout
  1
Model
 70
     1
 71
     0
 10
0.0
 20
0.0
 11
25.5
 21
16.5
 12
0.0
 22
0.0
 32
0.0
 14
0.0
 24
0.0
 34
0.0
 15
25.5
 25
16.5
 35
0.0
146
0.0
 13
0.0
 23
0.0
 33
0.0
 16
1.0
 26
0.0
 36
0.0
 17
0.0
 27
1.0
 37
0.0
 76
     0
330
1F
  0
MLINESTYLE
  5
18
102
{ACAD_REACTORS
330
17
102
}
330
17
100
AcDbMlineStyle
  2
STANDARD
 70
     0
  3

 62
   256
 51
90.0
 52
90.0
 71
     2
 49
0.5
 62
   256
  6
BYLAYER
 49
-0.5
 62
   256
  6
BYLAYER
  0
ACDBPLACEHOLDER
  5
F
102
{ACAD_REACTORS
330
E
102
}
330
E
  0
ACAD_PROXY_OBJECT
  5
3C
102
{ACAD_REACTORS
330
3B
102
}
330
3B
100
AcDbProxyObject
 90
      499
 91
      502
 95
   393239
 70
     0
 93
       41
310
903313A31581
 94
        0
  0
ACAD_PROXY_OBJECT
  5
3D
102
{ACAD_REACTORS
330
3B
102
}
330
3B
100
AcDbProxyObject
 90
      499
 91
      502
 95
   393239
 70
     0
 93
      105
310
903313A324000000000000004004
 94
        0
  0
ACAD_PROXY_OBJECT
  5
3E
102
{ACAD_REACTORS
330
3B
102
}
330
3B
100
AcDbProxyObject
 90
      499
 91
      502
 95
   393239
 70
     0
 93
      105
310
903313A344000000000000104074
 94
        0
  0
ACAD_PROXY_OBJECT
  5
3F
102
{ACAD_REACTORS
330
3B
102
}
330
3B
100
AcDbProxyObject
 90
      499
 91
      502
 95
   393239
 70
     0
 93
      105
310
903313A354000000000000144004
 94
        0
  0
ACAD_PROXY_OBJECT
  5
40
102
{ACAD_REACTORS
330
3B
102
}
330
3B
100
AcDbProxyObject
 90
      499
 91
      502
 95
   393239
 70
     0
 93
      105
310
903313A384000000000000204074
 94
        0
  0
ACAD_PROXY_OBJECT
  5
41
102
{ACAD_REACTORS
330
3B
102
}
330
3B
100
AcDbProxyObject
 90
      499
 91
      502
 95
   393239
 70
     0
 93
      113
310
904313A31304000000000000244009
 94
        0
  0
ACAD_PROXY_OBJECT
  5
42
102
{ACAD_REACTORS
330
3B
102
}
330
3B
100
AcDbProxyObject
 90
      499
 91
      502
 95
   393239
 70
     0
 93
      113
310
904313A31364000000000000304009
 94
        0
  0
ACAD_PROXY_OBJECT
  5
43
102
{ACAD_REACTORS
330
3B
102
}
330
3B
100
AcDbProxyObject
 90
      499
 91
      502
 95
   393239
 70
     0
 93
      113
310
904313A32304000000000000344009
 94
        0
  0
ACAD_PROXY_OBJECT
  5
44
102
{ACAD_REACTORS
330
3B
102
}
330
3B
100
AcDbProxyObject
 90
      499
 91
      502
 95
   393239
 70
     0
 93
      113
310
904313A333040000000000003E4009
 94
        0
  0
ACAD_PROXY_OBJECT
  5
45
102
{ACAD_REACTORS
330
3B
102
}
330
3B
100
AcDbProxyObject
 90
      499
 91
      502
 95
   393239
 70
     0
 93
      113
310
904313A34304000000000000444009
 94
        0
  0
ACAD_PROXY_OBJECT
  5
46
102
{ACAD_REACTORS
330
3B
102
}
330
3B
100
AcDbProxyObject
 90
      499
 91
      502
 95
   393239
 70
     0
 93
      113
310
904313A35304000000000000494009
 94
        0
  0
ACAD_PROXY_OBJECT
  5
47
102
{ACAD_REACTORS
330
3B
102
}
330
3B
100
AcDbProxyObject
 90
      499
 91
      502
 95
   393239
 70
     0
 93
      121
310
905313A3130304000000000000594002
 94
        0
  0
ACAD_PROXY_OBJECT
  5
48
102
{ACAD_REACTORS
330
3B
102
}
330
3B
100
AcDbProxyObject
 90
      499
 91
      502
 95
   393239
 70
     0
 93
      105
310
903323A310000000000000010140
 94
        0
  0
ACAD_PROXY_OBJECT
  5
49
102
{ACAD_REACTORS
330
3B
102
}
330
3B
100
AcDbProxyObject
 90
      499
 91
      502
 95
   393239
 70
     0
 93
      105
310
903343A310000000000000410159
 94
        0
  0
ACAD_PROXY_OBJECT
  5
4A
102
{ACAD_REACTORS
330
3B
102
}
330
3B
100
AcDbProxyObject
 90
      499
 91
      502
 95
   393239
 70
     0
 93
      105
310
903383A310000000000000810140
 94
        0
  0
ACAD_PROXY_OBJECT
  5
4B
102
{ACAD_REACTORS
330
3B
102
}
330
3B
100
AcDbProxyObject
 90
      499
 91
      502
 95
   393239
 70
     0
 93
      113
310
90431303A310000000000000910140
 94
        0
  0
ACAD_PROXY_OBJECT
  5
4C
102
{ACAD_REACTORS
330
3B
102
}
330
3B
100
AcDbProxyObject
 90
      499
 91
      502
 95
   393239
 70
     0
 93
      121
310
9053130303A310000000000001650102
 94
        0
  0
ACAD_PROXY_OBJECT
  5
4D
102
{ACAD_REACTORS
330
3B
102
}
330
3B
100
AcDbProxyObject
 90
      499
 91
      502
 95
   393239
 70
     0
 93
      257
310
90E312F31323822203D2031272D3022000000000000200FC00000000000028407B
 94
        0
  0
ACAD_PROXY_OBJECT
  5
4E
102
{ACAD_REACTORS
330
3B
102
}
330
3B
100
AcDbProxyObject
 90
      499
 91
      502
 95
   393239
 70
     0
 93
      249
310
90D312F363422203D2031272D3022000000000000240FC00000000000028407B
 94
        0
  0
ACAD_PROXY_OBJECT
  5
4F
102
{ACAD_REACTORS
330
3B
102
}
330
3B
100
AcDbProxyObject
 90
      499
 91
      502
 95
   393239
 70
     0
 93
      249
310
90D312F333222203D2031272D3022000000000000280FC000000000000284040
 94
        0
  0
ACAD_PROXY_OBJECT
  5
50
102
{ACAD_REACTORS
330
3B
102
}
330
3B
100
AcDbProxyObject
 90
      499
 91
      502
 95
   393239
 70
     0
 93
      249
310
90D312F313622203D2031272D30220000000000002C0FC00000000000028407B
 94
        0
  0
ACAD_PROXY_OBJECT
  5
51
102
{ACAD_REACTORS
330
3B
102
}
330
3B
100
AcDbProxyObject
 90
      499
 91
      502
 95
   393239
 70
     0
 93
      249
310
90D332F333222203D2031272D30220000000000002E0FC000000000000284040
 94
        0
  0
ACAD_PROXY_OBJECT
  5
52
102
{ACAD_REACTORS
330
3B
102
}
330
3B
100
AcDbProxyObject
 90
      499
 91
      502
 95
   393239
 70
     0
 93
      241
310
90C312F3822203D2031272D3022000000000000300FC000000000000284040
 94
        0
  0
ACAD_PROXY_OBJECT
  5
53
102
{ACAD_REACTORS
330
3B
102
}
330
3B
100
AcDbProxyObject
 90
      499
 91
      502
 95
   393239
 70
     0
 93
      249
310
90D332F313622203D2031272D3022000000000000320FC000000000000284040
 94
        0
  0
ACAD_PROXY_OBJECT
  5
54
102
{ACAD_REACTORS
330
3B
102
}
330
3B
100
AcDbProxyObject
 90
      499
 91
      502
 95
   393239
 70
     0
 93
      241
310
90C312F3422203D2031272D3022000000000000340FC000000000000284040
 94
        0
  0
ACAD_PROXY_OBJECT
  5
55
102
{ACAD_REACTORS
330
3B
102
}
330
3B
100
AcDbProxyObject
 90
      499
 91
      502
 95
   393239
 70
     0
 93
      241
310
90C332F3822203D2031272D3022000000000000360FC000000000000284040
 94
        0
  0
ACAD_PROXY_OBJECT
  5
56
102
{ACAD_REACTORS
330
3B
102
}
330
3B
100
AcDbProxyObject
 90
      499
 91
      502
 95
   393239
 70
     0
 93
      241
310
90C312F3222203D2031272D3022000000000000380FC000000000000284040
 94
        0
  0
ACAD_PROXY_OBJECT
  5
57
102
{ACAD_REACTORS
330
3B
102
}
330
3B
100
AcDbProxyObject
 90
      499
 91
      502
 95
   393239
 70
     0
 93
      241
310
90C332F3422203D2031272D30220000000000003A0FC000000000000284040
 94
        0
  0
ACAD_PROXY_OBJECT
  5
58
102
{ACAD_REACTORS
330
3B
102
}
330
3B
100
AcDbProxyObject
 90
      499
 91
      502
 95
   393239
 70
     0
 93
      161
310
90A3122203D2031272D30224000000000000284000
 94
        0
  0
ACAD_PROXY_OBJECT
  5
59
102
{ACAD_REACTORS
330
3B
102
}
330
3B
100
AcDbProxyObject
 90
      499
 91
      502
 95
   393239
 70
     0
 93
      257
310
90E312D312F3222203D2031272D30220000000000003E0FC00000000000028407B
 94
        0
  0
ACAD_PROXY_OBJECT
  5
5A
102
{ACAD_REACTORS
330
3B
102
}
330
3B
100
AcDbProxyObject
 90
      499
 91
      502
 95
   393239
 70
     0
 93
      225
310
90A3322203D2031272D302200000000000002100000000000000284028
 94
        0
  0
ACAD_PROXY_OBJECT
  5
5B
102
{ACAD_REACTORS
330
3B
102
}
330
3B
100
AcDbProxyObject
 90
      499
 91
      502
 95
   393239
 70
     0
 93
      225
310
90A3622203D2031272D302200000000000006100000000000000284000
 94
        0
  0
ACAD_PROXY_OBJECT
  5
5C
102
{ACAD_REACTORS
330
3B
102
}
330
3B
100
AcDbProxyObject
 90
      499
 91
      502
 95
   393239
 70
     0
 93
      249
310
90D31272D3022203D2031272D30220000000000000A10000000000000028407B
 94
        0
  0
ACAD_PROXY_OBJECT
  5
2F
102
{ACAD_REACTORS
330
2A
102
}
330
2A
100
AcDbProxyObject
 90
      499
 91
      501
 95
   393239
 70
     0
 93
      436
310
42CC9915DA5C99599C985B595049028333333333333E3BF0000000000000FB0107901411070040501600405405064090741402480A0341
 94
        0
1001
ACAD
1000
AcDbSavedByObjectVersion
1070
     0
  0
ACAD_PROXY_OBJECT
  5
31
102
{ACAD_REACTORS
330
2A
102
}
330
2A
100
AcDbProxyObject
 90
      499
 91
      501
 95
   393239
 70
     0
 93
      500
310
424CD108121A5919195B90640502408333333333333E3BF0000000000000FB01079024090700405020000000000001110200405405064090740C02480A0343
 94
        0
1001
ACAD
1000
AcDbSavedByObjectVersion
1070
     0
  0
ACAD_PROXY_OBJECT
  5
30
102
{ACAD_REACTORS
330
2A
102
}
330
2A
100
AcDbProxyObject
 90
      499
 91
      501
 95
   393239
 70
     0
 93
      436
310
42CCD915DA5C99599C985B595059028333333333333E3BF0000000000000FB0107901411070040501600405405064090741402480A0340
 94
        0
1001
ACAD
1000
AcDbSavedByObjectVersion
1070
     0
  0
ACAD_PROXY_OBJECT
  5
32
102
{ACAD_REACTORS
330
2A
102
}
330
2A
100
AcDbProxyObject
 90
      499
 91
      501
 95
   393239
 70
     0
 93
      388
310
4150985CDA58D07406404333333333333E3BF0000000000000FB0107A41107004050150841D405064090741402480A0354
 94
        0
1001
ACAD
1000
AcDbSavedByObjectVersion
1070
     0
  0
ACAD_PROXY_OBJECT
  5
36
102
{ACAD_REACTORS
330
2A
102
}
330
2A
100
AcDbProxyObject
 90
      499
 91
      501
 95
   393239
 70
     0
 93
      428
310
42109C9A59DA1D195B90C409028333333333333E3BF0000000000000FB010790141107004050150841D405064090741402480A029956
 94
        0
1001
ACAD
1000
AcDbSavedByObjectVersion
1070
     0
  0
ACAD_PROXY_OBJECT
  5
3A
102
{ACAD_REACTORS
330
2A
102
}
330
2A
100
AcDbProxyObject
 90
      499
 91
      501
 95
   393239
 70
     0
 93
      452
310
42D0DBDB1BDC90DA185B99D95104090240C333333333333E3BF0000000000000FB0108901411070040501508421405064090741402480A0354
 94
        0
1001
ACAD
1000
AcDbSavedByObjectVersion
1070
     0
  0
ACAD_PROXY_OBJECT
  5
34
102
{ACAD_REACTORS
330
2A
102
}
330
2A
100
AcDbProxyObject
 90
      499
 91
      501
 95
   393239
 70
     0
 93
      500
310
4290DBDB98D95C1D1D585B10940D028333333333333E3BF0000000000000FB0107902409070040501000000000000111010841D405064090740C02480A0340
 94
        0
1001
ACAD
1000
AcDbSavedByObjectVersion
1070
     0
  0
ACAD_PROXY_OBJECT
  5
35
102
{ACAD_REACTORS
330
2A
102
}
330
2A
100
AcDbProxyObject
 90
      499
 91
      501
 95
   393239
 70
     0
 93
      412
310
40D11A5B50B409028333333333333E3BF0000000000000FB010790141107004050150841D405064090741402480A02677FFFFFDB
 94
        0
1001
ACAD
1000
AcDbSavedByObjectVersion
1070
     0
  0
ACAD_PROXY_OBJECT
  5
39
102
{ACAD_REACTORS
330
2A
102
}
330
2A
100
AcDbProxyObject
 90
      499
 91
      501
 95
   393239
 70
     0
 93
      444
310
42D19858D95C185D1D195C9B90F409028333333333333E3BF0000000000000FB010790141107004050150841D405064090741402480A0350
 94
        0
1001
ACAD
1000
AcDbSavedByObjectVersion
1070
     0
  0
ACAD_PROXY_OBJECT
  5
2B
102
{ACAD_REACTORS
330
2A
102
}
330
2A
100
AcDbProxyObject
 90
      499
 91
      501
 95
   393239
 70
     0
 93
      388
310
41119B185D240901404333333333333E3BF0000000000000F9010740A41107004050150841D405064090741402480A1B5C
 94
        0
1001
ACAD
1000
AcDbSavedByObjectVersion
1070
     0
  0
ACAD_PROXY_OBJECT
  5
2C
102
{ACAD_REACTORS
330
2A
102
}
330
2A
100
AcDbProxyObject
 90
      499
 91
      501
 95
   393239
 70
     0
 93
      476
310
43519B185D15DA5D1A115919D95CD0140901404333333333333E3BF0000000000000F9010740901411070040501600405405064090741402480A1B50
 94
        0
1001
ACAD
1000
AcDbSavedByObjectVersion
1070
     0
  0
ACAD_PROXY_OBJECT
  5
2D
102
{ACAD_REACTORS
330
2A
102
}
330
2A
100
AcDbProxyObject
 90
      499
 91
      501
 95
   393239
 70
     0
 93
      412
310
41D1DBDD5C985D5910240902404333333333333E3BF0000000000000F9010740A411070040501641D405064090741402480A1B5E
 94
        0
1001
ACAD
1000
AcDbSavedByObjectVersion
1070
     0
  0
ACAD_PROXY_OBJECT
  5
2E
102
{ACAD_REACTORS
330
2A
102
}
330
2A
100
AcDbProxyObject
 90
      499
 91
      501
 95
   393239
 70
     0
 93
      500
310
4411DBDD5C985D5915DA5D1A115919D95CD0340902404333333333333E3BF0000000000000F9010740901411070040501600405405064090741402480A1B50
 94
        0
1001
ACAD
1000
AcDbSavedByObjectVersion
1070
     0
  0
ACAD_PROXY_OBJECT
  5
38
102
{ACAD_REACTORS
330
2A
102
}
330
2A
100
AcDbProxyObject
 90
      499
 91
      501
 95
   393239
 70
     0
 93
      444
310
42D31A5B995C185D1D195C9B90E409028333333333333E3BF0000000000000FB010790141107004050750841D405064090741402483A0350
 94
        0
1001
ACAD
1000
AcDbSavedByObjectVersion
1070
     0
  0
ACAD_PROXY_OBJECT
  5
33
102
{ACAD_REACTORS
330
2A
102
}
330
2A
100
AcDbProxyObject
 90
      499
 91
      501
 95
   393239
 70
     0
 93
      420
310
425499585B1A5CDD1A58D08409028333333333333E3BF0000000000000FB01079019070040501508421405064090741402480A1B45
 94
        0
1001
ACAD
1000
AcDbSavedByObjectVersion
1070
     0
  0
ACAD_PROXY_OBJECT
  5
37
102
{ACAD_REACTORS
330
2A
102
}
330
2A
100
AcDbProxyObject
 90
      499
 91
      501
 95
   393239
 70
     0
 93
      412
310
41D51A1A58DAD95B90D409028333333333333E3BF0000000000000FB010790141107004050150C41D405064090741402480A035B
 94
        0
1001
ACAD
1000
AcDbSavedByObjectVersion
1070
     0
  0
DICTIONARYVAR
  5
56E
102
{ACAD_REACTORS
330
56D
102
}
330
56D
100
DictionaryVariables
280
     0
  1
1:1
  0
ENDSEC
  0
EOF
