  0
SECTION
  2
HEADER
  9
$ACADVER
  1
AC1015
  9
$ACADMAINTVER
 70
     6
  9
$DWGCODEPAGE
  3
ANSI_1252
  9
$INSBASE
 10
0.0
 20
0.0
 30
0.0
  9
$EXTMIN
 10
0.2501907945263539
 20
0.2663727193912209
 30
-0.0015258207003583
  9
$EXTMAX
 10
25.00273138203509
 20
16.01710514039395
 30
0.0000000349246037
  9
$LIMMIN
 10
0.0
 20
0.0
  9
$LIMMAX
 10
25.5
 20
16.5
  9
$ORTHOMODE
 70
     0
  9
$REGENMODE
 70
     1
  9
$FILLMODE
 70
     1
  9
$QTEXTMODE
 70
     0
  9
$MIRRTEXT
 70
     1
  9
$LTSCALE
 40
1.0
  9
$ATTMODE
 70
     1
  9
$TEXTSIZE
 40
0.2
  9
$TRACEWID
 40
0.05
  9
$TEXTSTYLE
  7
Standard
  9
$CLAYER
  8
0
  9
$CELTYPE
  6
ByLayer
  9
$CECOLOR
 62
   256
  9
$CELTSCALE
 40
1.0
  9
$DISPSILH
 70
     0
  9
$DIMSCALE
 40
1.0
  9
$DIMASZ
 40
0.13
  9
$DIMEXO
 40
0.05
  9
$DIMDLI
 40
0.38
  9
$DIMRND
 40
0.0
  9
$DIMDLE
 40
0.0
  9
$DIMEXE
 40
0.125
  9
$DIMTP
 40
0.0
  9
$DIMTM
 40
0.0
  9
$DIMTXT
 40
0.125
  9
$DIMCEN
 40
0.09
  9
$DIMTSZ
 40
0.0
  9
$DIMTOL
 70
     0
  9
$DIMLIM
 70
     0
  9
$DIMTIH
 70
     1
  9
$DIMTOH
 70
     1
  9
$DIMSE1
 70
     0
  9
$DIMSE2
 70
     0
  9
$DIMTAD
 70
     0
  9
$DIMZIN
 70
     0
  9
$DIMBLK
  1

  9
$DIMASO
 70
     1
  9
$DIMSHO
 70
     1
  9
$DIMPOST
  1

  9
$DIMAPOST
  1

  9
$DIMALT
 70
     1
  9
$DIMALTD
 70
     2
  9
$DIMALTF
 40
25.4
  9
$DIMLFAC
 40
1.0
  9
$DIMTOFL
 70
     0
  9
$DIMTVP
 40
0.0
  9
$DIMTIX
 70
     0
  9
$DIMSOXD
 70
     0
  9
$DIMSAH
 70
     0
  9
$DIMBLK1
  1

  9
$DIMBLK2
  1

  9
$DIMSTYLE
  2
Standard
  9
$DIMCLRD
 70
     0
  9
$DIMCLRE
 70
     0
  9
$DIMCLRT
 70
     0
  9
$DIMTFAC
 40
1.0
  9
$DIMGAP
 40
0.06
  9
$DIMJUST
 70
     0
  9
$DIMSD1
 70
     0
  9
$DIMSD2
 70
     0
  9
$DIMTOLJ
 70
     1
  9
$DIMTZIN
 70
     0
  9
$DIMALTZ
 70
     0
  9
$DIMALTTZ
 70
     0
  9
$DIMUPT
 70
     0
  9
$DIMDEC
 70
     3
  9
$DIMTDEC
 70
     3
  9
$DIMALTU
 70
     2
  9
$DIMALTTD
 70
     2
  9
$DIMTXSTY
  7
Standard
  9
$DIMAUNIT
 70
     0
  9
$DIMADEC
 70
     0
  9
$DIMALTRND
 40
0.0
  9
$DIMAZIN
 70
     0
  9
$DIMDSEP
 70
    46
  9
$DIMATFIT
 70
     3
  9
$DIMFRAC
 70
     0
  9
$DIMLDRBLK
  1

  9
$DIMLUNIT
 70
     2
  9
$DIMLWD
 70
    -2
  9
$DIMLWE
 70
    -2
  9
$DIMTMOVE
 70
     0
  9
$LUNITS
 70
     2
  9
$LUPREC
 70
     3
  9
$SKETCHINC
 40
0.1
  9
$FILLETRAD
 40
0.5
  9
$AUNITS
 70
     0
  9
$AUPREC
 70
     0
  9
$MENU
  1
.
  9
$ELEVATION
 40
0.0
  9
$PELEVATION
 40
0.0
  9
$THICKNESS
 40
0.0
  9
$LIMCHECK
 70
     0
  9
$CHAMFERA
 40
0.5
  9
$CHAMFERB
 40
0.5
  9
$CHAMFERC
 40
1.0
  9
$CHAMFERD
 40
0.0
  9
$SKPOLY
 70
     0
  9
$TDCREATE
 40
2454874.693448889
  9
$TDUCREATE
 40
2454874.860115555
  9
$TDUPDATE
 40
2454960.450386284
  9
$TDUUPDATE
 40
2454960.617052951
  9
$TDINDWG
 40
0.0024331019
  9
$TDUSRTIMER
 40
0.0024331019
  9
$USRTIMER
 70
     1
  9
$ANGBASE
 50
0.0
  9
$ANGDIR
 70
     0
  9
$PDMODE
 70
     0
  9
$PDSIZE
 40
-1.0
  9
$PLINEWID
 40
0.0
  9
$SPLFRAME
 70
     0
  9
$SPLINETYPE
 70
     6
  9
$SPLINESEGS
 70
     8
  9
$HANDSEED
  5
61E
  9
$SURFTAB1
 70
     6
  9
$SURFTAB2
 70
     6
  9
$SURFTYPE
 70
     6
  9
$SURFU
 70
     6
  9
$SURFV
 70
     6
  9
$UCSBASE
  2

  9
$UCSNAME
  2

  9
$UCSORG
 10
0.0
 20
0.0
 30
0.0
  9
$UCSXDIR
 10
1.0
 20
0.0
 30
0.0
  9
$UCSYDIR
 10
0.0
 20
1.0
 30
0.0
  9
$UCSORTHOREF
  2

  9
$UCSORTHOVIEW
 70
     0
  9
$UCSORGTOP
 10
0.0
 20
0.0
 30
0.0
  9
$UCSORGBOTTOM
 10
0.0
 20
0.0
 30
0.0
  9
$UCSORGLEFT
 10
0.0
 20
0.0
 30
0.0
  9
$UCSORGRIGHT
 10
0.0
 20
0.0
 30
0.0
  9
$UCSORGFRONT
 10
0.0
 20
0.0
 30
0.0
  9
$UCSORGBACK
 10
0.0
 20
0.0
 30
0.0
  9
$PUCSBASE
  2

  9
$PUCSNAME
  2

  9
$PUCSORG
 10
0.0
 20
0.0
 30
0.0
  9
$PUCSXDIR
 10
1.0
 20
0.0
 30
0.0
  9
$PUCSYDIR
 10
0.0
 20
1.0
 30
0.0
  9
$PUCSORTHOREF
  2

  9
$PUCSORTHOVIEW
 70
     0
  9
$PUCSORGTOP
 10
0.0
 20
0.0
 30
0.0
  9
$PUCSORGBOTTOM
 10
0.0
 20
0.0
 30
0.0
  9
$PUCSORGLEFT
 10
0.0
 20
0.0
 30
0.0
  9
$PUCSORGRIGHT
 10
0.0
 20
0.0
 30
0.0
  9
$PUCSORGFRONT
 10
0.0
 20
0.0
 30
0.0
  9
$PUCSORGBACK
 10
0.0
 20
0.0
 30
0.0
  9
$USERI1
 70
     0
  9
$USERI2
 70
     0
  9
$USERI3
 70
     0
  9
$USERI4
 70
     0
  9
$USERI5
 70
     0
  9
$USERR1
 40
0.0
  9
$USERR2
 40
0.0
  9
$USERR3
 40
0.0
  9
$USERR4
 40
0.0
  9
$USERR5
 40
0.0
  9
$WORLDVIEW
 70
     1
  9
$SHADEDGE
 70
     3
  9
$SHADEDIF
 70
    70
  9
$TILEMODE
 70
     1
  9
$MAXACTVP
 70
    64
  9
$PINSBASE
 10
0.0
 20
0.0
 30
0.0
  9
$PLIMCHECK
 70
     0
  9
$PEXTMIN
 10
1.000000000000000E+20
 20
1.000000000000000E+20
 30
1.000000000000000E+20
  9
$PEXTMAX
 10
-1.000000000000000E+20
 20
-1.000000000000000E+20
 30
-1.000000000000000E+20
  9
$PLIMMIN
 10
0.0
 20
0.0
  9
$PLIMMAX
 10
12.0
 20
9.0
  9
$UNITMODE
 70
     0
  9
$VISRETAIN
 70
     1
  9
$PLINEGEN
 70
     0
  9
$PSLTSCALE
 70
     1
  9
$TREEDEPTH
 70
  3020
  9
$CMLSTYLE
  2
Standard
  9
$CMLJUST
 70
     0
  9
$CMLSCALE
 40
1.0
  9
$PROXYGRAPHICS
 70
     1
  9
$MEASUREMENT
 70
     0
  9
$CELWEIGHT
370
    -1
  9
$ENDCAPS
280
     0
  9
$JOINSTYLE
280
     0
  9
$LWDISPLAY
290
     1
  9
$INSUNITS
 70
     1
  9
$HYPERLINKBASE
  1

  9
$STYLESHEET
  1

  9
$XEDIT
290
     1
  9
$CEPSNTYPE
380
     0
  9
$PSTYLEMODE
290
     1
  9
$FINGERPRINTGUID
  2
{6663E86F-165B-4AFE-89A3-A35733607798}
  9
$VERSIONGUID
  2
{B2F1BE4C-3E1A-4359-9862-63BBCA2F7F4F}
  9
$EXTNAMES
290
     1
  9
$PSVPSCALE
 40
0.0
  9
$OLESTARTUP
290
     0
  0
ENDSEC
  0
SECTION
  2
CLASSES
  0
CLASS
  1
ACDBDICTIONARYWDFLT
  2
AcDbDictionaryWithDefault
  3
AutoCAD 2000
 90
        0
280
     0
281
     0
  0
CLASS
  1
VISUALSTYLE
  2
AcDbVisualStyle
  3
ObjectDBX Classes
 90
     4095
280
     0
281
     0
  0
CLASS
  1
SCALE
  2
AcDbScale
  3
ObjectDBX Classes
 90
     1153
280
     0
281
     0
  0
CLASS
  1
DICTIONARYVAR
  2
AcDbDictionaryVar
  3
AutoCAD 2000
 90
        0
280
     0
281
     0
  0
CLASS
  1
ACDBPLACEHOLDER
  2
AcDbPlaceHolder
  3
AutoCAD 2000
 90
        0
280
     0
281
     0
  0
CLASS
  1
LAYOUT
  2
AcDbLayout
  3
AutoCAD 2000
 90
        0
280
     0
281
     0
  0
ENDSEC
  0
SECTION
  2
TABLES
  0
TABLE
  2
VPORT
  5
8
330
0
100
AcDbSymbolTable
 70
     3
  0
VPORT
  5
61D
330
8
100
AcDbSymbolTableRecord
100
AcDbViewportTableRecord
  2
*Active
 70
     0
 10
0.0
 20
0.0
 11
1.0
 21
1.0
 12
15.15876198777824
 22
6.099250476317706
 13
0.0
 23
0.0
 14
0.5
 24
0.5
 15
0.5
 25
0.5
 16
0.0
 26
0.0
 36
1.0
 17
0.0
 27
0.0
 37
0.0
 40
14.24238875903417
 41
1.987577639751552
 42
50.0
 43
0.0
 44
0.0
 50
0.0
 51
0.0
 71
     0
 72
  2000
 73
     1
 74
     3
 75
     0
 76
     0
 77
     0
 78
     0
281
     0
 65
     1
110
0.0
120
0.0
130
0.0
111
1.0
121
0.0
131
0.0
112
0.0
122
1.0
132
0.0
 79
     0
146
0.0
  0
ENDTAB
  0
TABLE
  2
LTYPE
  5
5
330
0
100
AcDbSymbolTable
 70
     6
  0
LTYPE
  5
14
330
5
100
AcDbSymbolTableRecord
100
AcDbLinetypeTableRecord
  2
ByBlock
 70
     0
  3

 72
    65
 73
     0
 40
0.0
  0
LTYPE
  5
15
330
5
100
AcDbSymbolTableRecord
100
AcDbLinetypeTableRecord
  2
ByLayer
 70
     0
  3

 72
    65
 73
     0
 40
0.0
  0
LTYPE
  5
16
330
5
100
AcDbSymbolTableRecord
100
AcDbLinetypeTableRecord
  2
Continuous
 70
     0
  3
Solid line
 72
    65
 73
     0
 40
0.0
  0
LTYPE
  5
5D
330
5
100
AcDbSymbolTableRecord
100
AcDbLinetypeTableRecord
  2
HIDDEN
 70
     0
  3
Hidden __ __ __ __ __ __ __ __ __ __ __ __ __ __
 72
    65
 73
     2
 40
0.075
 49
0.05
 74
     0
 49
-0.025
 74
     0
  0
LTYPE
  5
5E
330
5
100
AcDbSymbolTableRecord
100
AcDbLinetypeTableRecord
  2
PHANTOM
 70
     0
  3
Phantom ______  __  __  ______  __  __  ______
 72
    65
 73
     6
 40
0.5
 49
0.25
 74
     0
 49
-0.05
 74
     0
 49
0.05
 74
     0
 49
-0.05
 74
     0
 49
0.05
 74
     0
 49
-0.05
 74
     0
  0
LTYPE
  5
5F
330
5
100
AcDbSymbolTableRecord
100
AcDbLinetypeTableRecord
  2
CENTER
 70
     0
  3
Center ____ _ ____ _ ____ _ ____ _ ____ _ ____
 72
    65
 73
     4
 40
0.4
 49
0.25
 74
     0
 49
-0.05
 74
     0
 49
0.05
 74
     0
 49
-0.05
 74
     0
  0
LTYPE
  5
60
330
5
100
AcDbSymbolTableRecord
100
AcDbLinetypeTableRecord
  2
CENTERX2
 70
     0
  3
Center (2x) ________  __  ________  __  _____
 72
    65
 73
     4
 40
0.8
 49
0.5
 74
     0
 49
-0.1
 74
     0
 49
0.1
 74
     0
 49
-0.1
 74
     0
  0
LTYPE
  5
61
330
5
100
AcDbSymbolTableRecord
100
AcDbLinetypeTableRecord
  2
DOT2
 70
     0
  3
Dot (.5x) ........................................
 72
    65
 73
     2
 40
0.025
 49
0.0
 74
     0
 49
-0.025
 74
     0
  0
ENDTAB
  0
TABLE
  2
LAYER
  5
2
330
0
100
AcDbSymbolTable
 70
     2
  0
LAYER
  5
10
330
2
100
AcDbSymbolTableRecord
100
AcDbLayerTableRecord
  2
0
 70
     0
 62
     7
  6
Continuous
370
    -3
390
F
  0
LAYER
  5
5EE
330
2
100
AcDbSymbolTableRecord
100
AcDbLayerTableRecord
  2
Defpoints
 70
     0
 62
     7
  6
Continuous
290
     0
370
    -3
390
F
  0
ENDTAB
  0
TABLE
  2
STYLE
  5
3
330
0
100
AcDbSymbolTable
 70
     2
  0
STYLE
  5
11
330
3
100
AcDbSymbolTableRecord
100
AcDbTextStyleTableRecord
  2
Standard
 70
     0
 40
0.0
 41
1.0
 50
0.0
 71
     0
 42
0.2
  3
txt
  4

  0
STYLE
  5
72
330
3
100
AcDbSymbolTableRecord
100
AcDbTextStyleTableRecord
  2
SLDTEXTSTYLE0
 70
     0
 40
0.0
 41
0.75
 50
0.0
 71
     0
 42
0.2
  3
TXT
  4

  0
ENDTAB
  0
TABLE
  2
VIEW
  5
6
330
0
100
AcDbSymbolTable
 70
     0
  0
ENDTAB
  0
TABLE
  2
UCS
  5
7
330
0
100
AcDbSymbolTable
 70
     0
  0
ENDTAB
  0
TABLE
  2
APPID
  5
9
330
0
100
AcDbSymbolTable
 70
     1
  0
APPID
  5
12
330
9
100
AcDbSymbolTableRecord
100
AcDbRegAppTableRecord
  2
ACAD
 70
     0
  0
ENDTAB
  0
TABLE
  2
DIMSTYLE
  5
A
330
0
100
AcDbSymbolTable
 70
     9
100
AcDbDimStyleTable
 71
     1
340
27
  0
DIMSTYLE
105
27
102
{ACAD_REACTORS
330
5ED
102
}
330
A
100
AcDbSymbolTableRecord
100
AcDbDimStyleTableRecord
  2
Standard
 70
     0
340
11
  0
DIMSTYLE
105
EB
102
{ACAD_REACTORS
330
EA
330
111
330
124
330
28E
330
2B1
330
2C3
330
457
330
469
330
4C1
330
4D3
330
506
330
518
330
52A
330
54E
330
573
102
}
330
A
100
AcDbSymbolTableRecord
100
AcDbDimStyleTableRecord
  2
SLDDIMSTYLE0
 70
     0
 41
0.13
 44
0.0
 45
0.000000001
 78
    12
140
0.125
147
0.03125
148
0.000000001
170
     1
173
     1
271
     3
272
     3
284
    12
340
72
  0
DIMSTYLE
105
FE
102
{ACAD_REACTORS
330
FD
102
}
330
A
100
AcDbSymbolTableRecord
100
AcDbDimStyleTableRecord
  2
SLDDIMSTYLE1
 70
     0
 41
0.13
 44
0.0
 45
0.000000001
 78
     4
140
0.125
147
0.03125
148
0.000000001
170
     1
173
     1
271
     3
272
     3
284
    12
340
72
  0
DIMSTYLE
105
27B
102
{ACAD_REACTORS
330
27A
330
4E5
102
}
330
A
100
AcDbSymbolTableRecord
100
AcDbDimStyleTableRecord
  2
SLDDIMSTYLE2
 70
     0
 41
0.13
 44
0.0
 45
0.000000001
 78
    12
140
0.125
147
0.03125
148
0.000000001
170
     1
172
     1
173
     1
271
     3
272
     3
284
    12
340
72
  0
DIMSTYLE
105
2A7
330
A
100
AcDbSymbolTableRecord
100
AcDbDimStyleTableRecord
  2
SLDDIMSTYLE3
 70
     0
 41
0.13
 44
0.0
 45
0.000000001
140
0.13
147
0.0325
173
     1
271
     0
272
     0
340
11
  0
DIMSTYLE
105
2DB
330
A
100
AcDbSymbolTableRecord
100
AcDbDimStyleTableRecord
  2
SLDDIMSTYLE4
 70
     0
 41
0.04
 44
0.0
 45
0.000000001
140
0.04
147
0.01
173
     1
271
     0
272
     0
340
11
341
2DC
343
2DC
344
2DC
  0
DIMSTYLE
105
445
102
{ACAD_REACTORS
330
444
330
4AF
330
53C
102
}
330
A
100
AcDbSymbolTableRecord
100
AcDbDimStyleTableRecord
  2
SLDDIMSTYLE5
 70
     0
 41
0.13
 44
0.0
 45
0.000000001
 78
    12
140
0.125
147
0.03125
148
0.000000001
170
     1
173
     1
271
     3
272
     3
284
    12
340
72
  0
DIMSTYLE
105
4F6
102
{ACAD_REACTORS
330
4F5
102
}
330
A
100
AcDbSymbolTableRecord
100
AcDbDimStyleTableRecord
  2
SLDDIMSTYLE6
 70
     0
 41
0.13
 44
0.0
 45
0.000000001
 78
    12
140
0.125
147
0.03125
148
0.000000001
170
     1
173
     1
271
     3
272
     3
284
    12
340
72
  0
DIMSTYLE
105
561
102
{ACAD_REACTORS
330
560
102
}
330
A
100
AcDbSymbolTableRecord
100
AcDbDimStyleTableRecord
  2
SLDDIMSTYLE7
 70
     0
 41
0.13
 44
0.0
 45
0.000000001
 78
     4
140
0.125
147
0.03125
148
0.000000001
170
     1
173
     1
271
     3
272
     3
284
    12
340
72
  0
ENDTAB
  0
TABLE
  2
BLOCK_RECORD
  5
1
330
0
100
AcDbSymbolTable
 70
    45
  0
BLOCK_RECORD
  5
1F
330
1
100
AcDbSymbolTableRecord
100
AcDbBlockTableRecord
  2
*Model_Space
340
22
  0
BLOCK_RECORD
  5
1B
330
1
100
AcDbSymbolTableRecord
100
AcDbBlockTableRecord
  2
*Paper_Space
340
1E
  0
BLOCK_RECORD
  5
23
330
1
100
AcDbSymbolTableRecord
100
AcDbBlockTableRecord
  2
*Paper_Space0
340
26
  0
BLOCK_RECORD
  5
74
330
1
100
AcDbSymbolTableRecord
100
AcDbBlockTableRecord
  2
SW_NOTE_0
340
0
102
{BLKREFS
331
79
102
}
  0
BLOCK_RECORD
  5
7B
330
1
100
AcDbSymbolTableRecord
100
AcDbBlockTableRecord
  2
SW_NOTE_1
340
0
102
{BLKREFS
331
84
102
}
  0
BLOCK_RECORD
  5
85
330
1
100
AcDbSymbolTableRecord
100
AcDbBlockTableRecord
  2
SW_NOTE_2
340
0
102
{BLKREFS
331
8A
102
}
  0
BLOCK_RECORD
  5
8B
330
1
100
AcDbSymbolTableRecord
100
AcDbBlockTableRecord
  2
SW_NOTE_3
340
0
102
{BLKREFS
331
90
102
}
  0
BLOCK_RECORD
  5
91
330
1
100
AcDbSymbolTableRecord
100
AcDbBlockTableRecord
  2
SW_NOTE_4
340
0
102
{BLKREFS
331
96
102
}
  0
BLOCK_RECORD
  5
EC
330
1
100
AcDbSymbolTableRecord
100
AcDbBlockTableRecord
  2
*D6
340
0
  0
BLOCK_RECORD
  5
FF
330
1
100
AcDbSymbolTableRecord
100
AcDbBlockTableRecord
  2
*D7
340
0
  0
BLOCK_RECORD
  5
112
330
1
100
AcDbSymbolTableRecord
100
AcDbBlockTableRecord
  2
*D8
340
0
  0
BLOCK_RECORD
  5
125
330
1
100
AcDbSymbolTableRecord
100
AcDbBlockTableRecord
  2
*D9
340
0
  0
BLOCK_RECORD
  5
27C
330
1
100
AcDbSymbolTableRecord
100
AcDbBlockTableRecord
  2
*D10
340
0
  0
BLOCK_RECORD
  5
28F
330
1
100
AcDbSymbolTableRecord
100
AcDbBlockTableRecord
  2
*D11
340
0
  0
BLOCK_RECORD
  5
2A0
330
1
100
AcDbSymbolTableRecord
100
AcDbBlockTableRecord
  2
SW_NOTE_5
340
0
102
{BLKREFS
331
2A6
102
}
  0
BLOCK_RECORD
  5
2B2
330
1
100
AcDbSymbolTableRecord
100
AcDbBlockTableRecord
  2
*D13
340
0
  0
BLOCK_RECORD
  5
2C4
330
1
100
AcDbSymbolTableRecord
100
AcDbBlockTableRecord
  2
*D14
340
0
  0
BLOCK_RECORD
  5
2D5
330
1
100
AcDbSymbolTableRecord
100
AcDbBlockTableRecord
  2
SW_NOTE_6
340
0
102
{BLKREFS
331
2DA
102
}
  0
BLOCK_RECORD
  5
2DC
330
1
100
AcDbSymbolTableRecord
100
AcDbBlockTableRecord
  2
_DOT
340
0
  0
BLOCK_RECORD
  5
446
330
1
100
AcDbSymbolTableRecord
100
AcDbBlockTableRecord
  2
*D17
340
0
  0
BLOCK_RECORD
  5
458
330
1
100
AcDbSymbolTableRecord
100
AcDbBlockTableRecord
  2
*D18
340
0
  0
BLOCK_RECORD
  5
46A
330
1
100
AcDbSymbolTableRecord
100
AcDbBlockTableRecord
  2
*D19
340
0
  0
BLOCK_RECORD
  5
47C
330
1
100
AcDbSymbolTableRecord
100
AcDbBlockTableRecord
  2
SW_NOTE_7
340
0
102
{BLKREFS
331
480
102
}
  0
BLOCK_RECORD
  5
482
330
1
100
AcDbSymbolTableRecord
100
AcDbBlockTableRecord
  2
SW_NOTE_8
340
0
102
{BLKREFS
331
486
102
}
  0
BLOCK_RECORD
  5
488
330
1
100
AcDbSymbolTableRecord
100
AcDbBlockTableRecord
  2
SW_NOTE_9
340
0
102
{BLKREFS
331
48D
102
}
  0
BLOCK_RECORD
  5
48F
330
1
100
AcDbSymbolTableRecord
100
AcDbBlockTableRecord
  2
SW_NOTE_10
340
0
102
{BLKREFS
331
495
102
}
  0
BLOCK_RECORD
  5
4B0
330
1
100
AcDbSymbolTableRecord
100
AcDbBlockTableRecord
  2
*D24
340
0
  0
BLOCK_RECORD
  5
4C2
330
1
100
AcDbSymbolTableRecord
100
AcDbBlockTableRecord
  2
*D25
340
0
  0
BLOCK_RECORD
  5
4D4
330
1
100
AcDbSymbolTableRecord
100
AcDbBlockTableRecord
  2
*D26
340
0
  0
BLOCK_RECORD
  5
4E6
330
1
100
AcDbSymbolTableRecord
100
AcDbBlockTableRecord
  2
*D27
340
0
  0
BLOCK_RECORD
  5
4F7
330
1
100
AcDbSymbolTableRecord
100
AcDbBlockTableRecord
  2
*D28
340
0
  0
BLOCK_RECORD
  5
507
330
1
100
AcDbSymbolTableRecord
100
AcDbBlockTableRecord
  2
*D29
340
0
  0
BLOCK_RECORD
  5
519
330
1
100
AcDbSymbolTableRecord
100
AcDbBlockTableRecord
  2
*D30
340
0
  0
BLOCK_RECORD
  5
52B
330
1
100
AcDbSymbolTableRecord
100
AcDbBlockTableRecord
  2
*D31
340
0
  0
BLOCK_RECORD
  5
53D
330
1
100
AcDbSymbolTableRecord
100
AcDbBlockTableRecord
  2
*D32
340
0
  0
BLOCK_RECORD
  5
54F
330
1
100
AcDbSymbolTableRecord
100
AcDbBlockTableRecord
  2
*D33
340
0
  0
BLOCK_RECORD
  5
562
330
1
100
AcDbSymbolTableRecord
100
AcDbBlockTableRecord
  2
*D34
340
0
  0
BLOCK_RECORD
  5
574
330
1
100
AcDbSymbolTableRecord
100
AcDbBlockTableRecord
  2
*D35
340
0
  0
BLOCK_RECORD
  5
585
330
1
100
AcDbSymbolTableRecord
100
AcDbBlockTableRecord
  2
SW_CENTERMARKSYMBOL_0
340
0
102
{BLKREFS
331
590
102
}
  0
BLOCK_RECORD
  5
591
330
1
100
AcDbSymbolTableRecord
100
AcDbBlockTableRecord
  2
SW_CENTERMARKSYMBOL_1
340
0
102
{BLKREFS
331
59C
102
}
  0
BLOCK_RECORD
  5
59D
330
1
100
AcDbSymbolTableRecord
100
AcDbBlockTableRecord
  2
SW_CENTERMARKSYMBOL_2
340
0
102
{BLKREFS
331
5A8
102
}
  0
BLOCK_RECORD
  5
5A9
330
1
100
AcDbSymbolTableRecord
100
AcDbBlockTableRecord
  2
SW_CENTERMARKSYMBOL_3
340
0
102
{BLKREFS
331
5B4
102
}
  0
BLOCK_RECORD
  5
5B5
330
1
100
AcDbSymbolTableRecord
100
AcDbBlockTableRecord
  2
SW_CENTERMARKSYMBOL_4
340
0
102
{BLKREFS
331
5C0
102
}
  0
BLOCK_RECORD
  5
5C1
330
1
100
AcDbSymbolTableRecord
100
AcDbBlockTableRecord
  2
SW_CENTERMARKSYMBOL_5
340
0
102
{BLKREFS
331
5CC
102
}
  0
BLOCK_RECORD
  5
5CD
330
1
100
AcDbSymbolTableRecord
100
AcDbBlockTableRecord
  2
SW_CENTERMARKSYMBOL_6
340
0
102
{BLKREFS
331
5D8
102
}
  0
BLOCK_RECORD
  5
5D9
330
1
100
AcDbSymbolTableRecord
100
AcDbBlockTableRecord
  2
SW_CENTERMARKSYMBOL_7
340
0
102
{BLKREFS
331
5E4
102
}
  0
BLOCK_RECORD
  5
5EF
330
1
100
AcDbSymbolTableRecord
100
AcDbBlockTableRecord
  2
*D44
340
0
  0
ENDTAB
  0
ENDSEC
  0
SECTION
  2
BLOCKS
  0
BLOCK
  5
20
330
1F
100
AcDbEntity
  8
0
100
AcDbBlockBegin
  2
*Model_Space
 70
     0
 10
0.0
 20
0.0
 30
0.0
  3
*Model_Space
  1

  0
ENDBLK
  5
21
330
1F
100
AcDbEntity
  8
0
100
AcDbBlockEnd
  0
BLOCK
  5
1C
330
1B
100
AcDbEntity
 67
     1
  8
0
100
AcDbBlockBegin
  2
*Paper_Space
 70
     0
 10
0.0
 20
0.0
 30
0.0
  3
*Paper_Space
  1

  0
ENDBLK
  5
1D
330
1B
100
AcDbEntity
 67
     1
  8
0
100
AcDbBlockEnd
  0
BLOCK
  5
24
330
23
100
AcDbEntity
  8
0
100
AcDbBlockBegin
  2
*Paper_Space0
 70
     0
 10
0.0
 20
0.0
 30
0.0
  3
*Paper_Space0
  1

  0
ENDBLK
  5
25
330
23
100
AcDbEntity
  8
0
100
AcDbBlockEnd
  0
BLOCK
  5
75
330
74
100
AcDbEntity
  8
0
100
AcDbBlockBegin
  2
SW_NOTE_0
 70
     0
 10
0.0
 20
0.0
 30
0.0
  3
SW_NOTE_0
  1

  0
MTEXT
  5
77
330
74
100
AcDbEntity
  8
0
  6
Continuous
 62
     0
370
     0
100
AcDbMText
 10
0.0
 20
0.161133467471496
 30
0.0
 40
0.125
 41
0.0
 71
     1
 72
     1
  1
MAXIMUM PC BOARD SIZE
  7
SLDTEXTSTYLE0
 73
     1
 44
1.0
  0
MTEXT
  5
78
330
74
100
AcDbEntity
  8
0
  6
Continuous
 62
     0
370
     0
100
AcDbMText
 10
0.0
 20
-0.0032366070447103
 30
0.0
 40
0.125
 41
0.0
 71
     1
 72
     1
  1
CUSTOMER SUPPLIED
  7
SLDTEXTSTYLE0
 73
     1
 44
1.0
  0
ENDBLK
  5
76
330
74
100
AcDbEntity
  8
0
100
AcDbBlockEnd
  0
BLOCK
  5
7C
330
7B
100
AcDbEntity
  8
0
100
AcDbBlockBegin
  2
SW_NOTE_1
 70
     0
 10
0.0
 20
0.0
 30
0.0
  3
SW_NOTE_1
  1

  0
MTEXT
  5
7E
330
7B
100
AcDbEntity
  8
0
  6
Continuous
 62
     0
370
     0
100
AcDbMText
 10
0.0
 20
0.1611334674714955
 30
0.0
 40
0.125
 41
0.0
 71
     1
 72
     1
  1
MATERIAL AND FINISH:
  7
SLDTEXTSTYLE0
 73
     1
 44
1.0
  0
MTEXT
  5
7F
330
7B
100
AcDbEntity
  8
0
  6
Continuous
 62
     0
370
     0
100
AcDbMText
 10
0.0
 20
-0.1676066815609171
 30
0.0
 40
0.125
 41
0.0
 71
     1
 72
     1
  1
BLACK HIGH-IMPACT ABS (UL94-HB) - TOP, BOTTOM, AND END PANEL
  7
SLDTEXTSTYLE0
 73
     1
 44
1.0
  0
MTEXT
  5
80
330
7B
100
AcDbEntity
  8
0
  6
Continuous
 62
     0
370
     0
100
AcDbMText
 10
0.0
 20
-0.4963468305933298
 30
0.0
 40
0.125
 41
0.0
 71
     1
 72
     1
  1
FOUR (4) M3 X .63 [16] LG SCREWS SUPPLIED FOR ASSEMBLY
  7
SLDTEXTSTYLE0
 73
     1
 44
1.0
  0
MTEXT
  5
81
330
7B
100
AcDbEntity
  8
0
  6
Continuous
 62
     0
370
     0
100
AcDbMText
 10
0.0
 20
-0.8250869796257422
 30
0.0
 40
0.125
 41
0.0
 71
     1
 72
     1
  1
OPTIONAL ACCESSORIES:
  7
SLDTEXTSTYLE0
 73
     1
 44
1.0
  0
MTEXT
  5
82
330
7B
100
AcDbEntity
  8
0
  6
Continuous
 62
     0
370
     0
100
AcDbMText
 10
0.0
 20
-0.9894570541419483
 30
0.0
 40
0.125
 41
0.0
 71
     1
 72
     1
  1
INFRARED PANELS P/N HP-3645
  7
SLDTEXTSTYLE0
 73
     1
 44
1.0
  0
MTEXT
  5
83
330
7B
100
AcDbEntity
  8
0
  6
Continuous
 62
     0
370
     0
100
AcDbMText
 10
0.0
 20
-1.153827128658154
 30
0.0
 40
0.125
 41
0.0
 71
     1
 72
     1
  1
BELT CLIP (BLACK) P/N HH-3595-BCB
  7
SLDTEXTSTYLE0
 73
     1
 44
1.0
  0
ENDBLK
  5
7D
330
7B
100
AcDbEntity
  8
0
100
AcDbBlockEnd
  0
BLOCK
  5
86
330
85
100
AcDbEntity
  8
0
100
AcDbBlockBegin
  2
SW_NOTE_2
 70
     0
 10
0.0
 20
0.0
 30
0.0
  3
SW_NOTE_2
  1

  0
MTEXT
  5
88
330
85
100
AcDbEntity
  8
0
  6
Continuous
 62
     0
370
     0
100
AcDbMText
 10
0.0
 20
0.2417002012072429
 30
0.0
 40
0.1875
 41
0.0
 71
     1
 72
     1
  1
PART
  7
SLDTEXTSTYLE0
 73
     1
 44
1.0
  0
MTEXT
  5
89
330
85
100
AcDbEntity
  8
0
  6
Continuous
 62
     0
370
     0
100
AcDbMText
 10
-0.0700303976695369
 20
-0.0082997957714587
 30
0.0
 40
0.1875
 41
0.0
 71
     1
 72
     1
  1
NAME
  7
SLDTEXTSTYLE0
 73
     1
 44
1.0
  0
ENDBLK
  5
87
330
85
100
AcDbEntity
  8
0
100
AcDbBlockEnd
  0
BLOCK
  5
8C
330
8B
100
AcDbEntity
  8
0
100
AcDbBlockBegin
  2
SW_NOTE_3
 70
     0
 10
0.0
 20
0.0
 30
0.0
  3
SW_NOTE_3
  1

  0
MTEXT
  5
8E
330
8B
100
AcDbEntity
  8
0
  6
Continuous
 62
     0
370
     0
100
AcDbMText
 10
0.0
 20
0.2417002012072429
 30
0.0
 40
0.1875
 41
0.0
 71
     1
 72
     1
  1
PART
  7
SLDTEXTSTYLE0
 73
     1
 44
1.0
  0
MTEXT
  5
8F
330
8B
100
AcDbEntity
  8
0
  6
Continuous
 62
     0
370
     0
100
AcDbMText
 10
0.0610242883755466
 20
-0.0082997957714587
 30
0.0
 40
0.1875
 41
0.0
 71
     1
 72
     1
  1
NO.
  7
SLDTEXTSTYLE0
 73
     1
 44
1.0
  0
ENDBLK
  5
8D
330
8B
100
AcDbEntity
  8
0
100
AcDbBlockEnd
  0
BLOCK
  5
92
330
91
100
AcDbEntity
  8
0
100
AcDbBlockBegin
  2
SW_NOTE_4
 70
     0
 10
0.0
 20
0.0
 30
0.0
  3
SW_NOTE_4
  1

  0
MTEXT
  5
94
330
91
100
AcDbEntity
  8
0
  6
Continuous
 62
     0
370
     0
100
AcDbMText
 10
0.0
 20
0.2417002012072429
 30
0.0
 40
0.1875
 41
0.0
 71
     1
 72
     1
  1
REVISION
  7
SLDTEXTSTYLE0
 73
     1
 44
1.0
  0
MTEXT
  5
95
330
91
100
AcDbEntity
  8
0
  6
Continuous
 62
     0
370
     0
100
AcDbMText
 10
0.2345486038078473
 20
-0.0082997957714587
 30
0.0
 40
0.1875
 41
0.0
 71
     1
 72
     1
  1
DATE
  7
SLDTEXTSTYLE0
 73
     1
 44
1.0
  0
ENDBLK
  5
93
330
91
100
AcDbEntity
  8
0
100
AcDbBlockEnd
  0
BLOCK
  5
ED
330
EC
100
AcDbEntity
  8
0
100
AcDbBlockBegin
  2
*D6
 70
     1
 10
0.0
 20
0.0
 30
0.0
  3
*D6
  1

  0
SOLID
  5
EF
330
EC
100
AcDbEntity
  8
0
  6
Continuous
 62
     7
370
     0
100
AcDbTrace
 10
6.462186234742527
 20
10.59218293722487
 30
0.0
 11
6.442182209773859
 21
10.46218355651461
 31
0.0
 12
6.482182209754688
 22
10.46218231805976
 32
0.0
 13
6.482182209754688
 23
10.46218231805976
 33
0.0
  0
SOLID
  5
F0
330
EC
100
AcDbEntity
  8
0
  6
Continuous
 62
     7
370
     0
100
AcDbTrace
 10
6.462073819968767
 20
6.961375598585532
 30
0.0
 11
6.482077844937435
 21
7.091374979295799
 31
0.0
 12
6.442077844956607
 22
7.091376217750647
 32
0.0
 13
6.442077844956607
 23
7.091376217750647
 33
0.0
  0
LINE
  5
F1
330
EC
100
AcDbEntity
  8
0
  6
Continuous
 62
     7
370
     0
100
AcDbLine
 10
6.411440564134582
 20
8.885289800348363
 30
0.0
 11
6.411440564134582
 21
8.716714338620716
 31
0.0
  0
LINE
  5
F2
330
EC
100
AcDbEntity
  8
0
  6
Continuous
 62
     7
370
     0
100
AcDbLine
 10
6.411440564134582
 20
8.716714338620716
 30
0.0
 11
6.43678567073069
 21
8.716714338620716
 31
0.0
  0
LINE
  5
F3
330
EC
100
AcDbEntity
  8
0
  6
Continuous
 62
     7
370
     0
100
AcDbLine
 10
6.411440564134582
 20
8.885289800348363
 30
0.0
 11
6.43678567073069
 21
8.885289800348363
 31
0.0
  0
LINE
  5
F4
330
EC
100
AcDbEntity
  8
0
  6
Continuous
 62
     7
370
     0
100
AcDbLine
 10
6.928325451390025
 20
8.885289800348363
 30
0.0
 11
6.928325451390025
 21
8.716714338620716
 31
0.0
  0
LINE
  5
F5
330
EC
100
AcDbEntity
  8
0
  6
Continuous
 62
     7
370
     0
100
AcDbLine
 10
6.928325451390025
 20
8.716714338620716
 30
0.0
 11
6.902980344793917
 21
8.716714338620716
 31
0.0
  0
LINE
  5
F6
330
EC
100
AcDbEntity
  8
0
  6
Continuous
 62
     7
370
     0
100
AcDbLine
 10
6.928325451390025
 20
8.885289800348363
 30
0.0
 11
6.902980344793917
 21
8.885289800348363
 31
0.0
  0
LINE
  5
F7
330
EC
100
AcDbEntity
  8
0
  6
Continuous
 62
     7
370
     0
100
AcDbLine
 10
7.924004835514891
 20
10.59213767731655
 30
0.0
 11
6.337186234802441
 21
10.59218680739627
 31
0.0
  0
LINE
  5
F8
330
EC
100
AcDbEntity
  8
0
  6
Continuous
 62
     7
370
     0
100
AcDbLine
 10
7.923892420741131
 20
6.961330338677209
 30
0.0
 11
6.33707382002868
 21
6.96137946875693
 31
0.0
  0
LINE
  5
F9
330
EC
100
AcDbEntity
  8
0
  6
Continuous
 62
     7
370
     0
100
AcDbLine
 10
6.462186234742527
 20
10.59218293722487
 30
0.0
 11
6.462133847519414
 21
8.900164105794919
 31
0.0
  0
LINE
  5
FA
330
EC
100
AcDbEntity
  8
0
  6
Continuous
 62
     7
370
     0
100
AcDbLine
 10
6.462073819968767
 20
6.961375598585532
 30
0.0
 11
6.462127707134183
 21
8.70184003317416
 31
0.0
  0
MTEXT
  5
FB
330
EC
100
AcDbEntity
  8
0
  6
Continuous
 62
     7
370
     0
100
AcDbMText
 10
5.945245890071357
 20
8.862973514395498
 30
-0.0000000000000707
 40
0.125
 41
0.0
 71
     1
 72
     1
  1
3.631
  7
SLDTEXTSTYLE0
 73
     1
 44
1.0
  0
MTEXT
  5
FC
330
EC
100
AcDbEntity
  8
0
  6
Continuous
 62
     7
370
     0
100
AcDbMText
 10
6.462130777326801
 20
8.862973514395498
 30
-0.0000000000000707
 40
0.125
 41
0.0
 71
     1
 72
     1
  1
92.22
  7
SLDTEXTSTYLE0
 73
     1
 44
1.0
  0
ENDBLK
  5
EE
330
EC
100
AcDbEntity
  8
0
100
AcDbBlockEnd
  0
BLOCK
  5
100
330
FF
100
AcDbEntity
  8
0
100
AcDbBlockBegin
  2
*D7
 70
     1
 10
0.0
 20
0.0
 30
0.0
  3
*D7
  1

  0
SOLID
  5
102
330
FF
100
AcDbEntity
  8
0
  6
Continuous
 62
     7
370
     0
100
AcDbTrace
 10
11.56544307964208
 20
10.35153069720249
 30
0.0
 11
11.54544307964208
 21
10.22153069720249
 31
0.0
 12
11.58544307964208
 22
10.22153069720249
 32
0.0
 13
11.58544307964208
 23
10.22153069720249
 33
0.0
  0
SOLID
  5
103
330
FF
100
AcDbEntity
  8
0
  6
Continuous
 62
     7
370
     0
100
AcDbTrace
 10
11.56544307964208
 20
7.201924397989894
 30
0.0
 11
11.58544307964208
 21
7.331924397989894
 31
0.0
 12
11.54544307964208
 22
7.331924397989894
 32
0.0
 13
11.54544307964208
 23
7.331924397989894
 33
0.0
  0
LINE
  5
104
330
FF
100
AcDbEntity
  8
0
  6
Continuous
 62
     7
370
     0
100
AcDbLine
 10
11.63022006980456
 20
8.835143260524128
 30
0.0
 11
11.63022006980456
 21
8.666567798796485
 31
0.0
  0
LINE
  5
105
330
FF
100
AcDbEntity
  8
0
  6
Continuous
 62
     7
370
     0
100
AcDbLine
 10
11.63022006980456
 20
8.666567798796485
 30
0.0
 11
11.65556517640067
 21
8.666567798796485
 31
0.0
  0
LINE
  5
106
330
FF
100
AcDbEntity
  8
0
  6
Continuous
 62
     7
370
     0
100
AcDbLine
 10
11.63022006980456
 20
8.835143260524128
 30
0.0
 11
11.65556517640067
 21
8.835143260524128
 31
0.0
  0
LINE
  5
107
330
FF
100
AcDbEntity
  8
0
  6
Continuous
 62
     7
370
     0
100
AcDbLine
 10
11.9161705503506
 20
8.835143260524128
 30
0.0
 11
11.9161705503506
 21
8.666567798796485
 31
0.0
  0
LINE
  5
108
330
FF
100
AcDbEntity
  8
0
  6
Continuous
 62
     7
370
     0
100
AcDbLine
 10
11.9161705503506
 20
8.666567798796485
 30
0.0
 11
11.89082544375449
 21
8.666567798796485
 31
0.0
  0
LINE
  5
109
330
FF
100
AcDbEntity
  8
0
  6
Continuous
 62
     7
370
     0
100
AcDbLine
 10
11.9161705503506
 20
8.835143260524128
 30
0.0
 11
11.89082544375449
 21
8.835143260524128
 31
0.0
  0
LINE
  5
10A
330
FF
100
AcDbEntity
  8
0
  6
Continuous
 62
     7
370
     0
100
AcDbLine
 10
10.29217098390586
 20
10.35153069720249
 30
0.0
 11
11.69044307964208
 21
10.35153069720249
 31
0.0
  0
LINE
  5
10B
330
FF
100
AcDbEntity
  8
0
  6
Continuous
 62
     7
370
     0
100
AcDbLine
 10
10.29217098390586
 20
7.201924397989894
 30
0.0
 11
11.69044307964208
 21
7.201924397989894
 31
0.0
  0
LINE
  5
10C
330
FF
100
AcDbEntity
  8
0
  6
Continuous
 62
     7
370
     0
100
AcDbLine
 10
11.56544307964208
 20
10.35153069720249
 30
0.0
 11
11.56544307964208
 21
8.850017565970686
 31
0.0
  0
LINE
  5
10D
330
FF
100
AcDbEntity
  8
0
  6
Continuous
 62
     7
370
     0
100
AcDbLine
 10
11.56544307964208
 20
7.201924397989894
 30
0.0
 11
11.56544307964208
 21
8.453369420729169
 31
0.0
  0
MTEXT
  5
10E
330
FF
100
AcDbEntity
  8
0
  6
Continuous
 62
     7
370
     0
100
AcDbMText
 10
11.16402539574134
 20
8.812826974571267
 30
-0.0000000000000703
 40
0.125
 41
0.0
 71
     1
 72
     1
  1
3.150
  7
SLDTEXTSTYLE0
 73
     1
 44
1.0
  0
MTEXT
  5
10F
330
FF
100
AcDbEntity
  8
0
  6
Continuous
 62
     7
370
     0
100
AcDbMText
 10
11.68091028299678
 20
8.812826974571267
 30
-0.0000000000000703
 40
0.125
 41
0.0
 71
     1
 72
     1
  1
80
  7
SLDTEXTSTYLE0
 73
     1
 44
1.0
  0
MTEXT
  5
110
330
FF
100
AcDbEntity
  8
0
  6
Continuous
 62
     7
370
     0
100
AcDbMText
 10
11.29045897994052
 20
8.614502901950508
 30
-0.000000000000069
 40
0.125
 41
0.0
 71
     1
 72
     1
  1
RECESS
  7
SLDTEXTSTYLE0
 73
     1
 44
1.0
  0
ENDBLK
  5
101
330
FF
100
AcDbEntity
  8
0
100
AcDbBlockEnd
  0
BLOCK
  5
113
330
112
100
AcDbEntity
  8
0
100
AcDbBlockBegin
  2
*D8
 70
     1
 10
0.0
 20
0.0
 30
0.0
  3
*D8
  1

  0
SOLID
  5
115
330
112
100
AcDbEntity
  8
0
  6
Continuous
 62
     7
370
     0
100
AcDbTrace
 10
10.24217098390586
 20
12.63938120798814
 30
0.0
 11
10.11217098390586
 21
12.65938120798814
 31
0.0
 12
10.11217098390586
 22
12.61938120798815
 32
0.0
 13
10.11217098390586
 23
12.61938120798815
 33
0.0
  0
SOLID
  5
116
330
112
100
AcDbEntity
  8
0
  6
Continuous
 62
     7
370
     0
100
AcDbTrace
 10
8.076816653197198
 20
12.63938120798814
 30
0.0
 11
8.206816653197199
 21
12.61938120798815
 31
0.0
 12
8.206816653197199
 22
12.65938120798814
 32
0.0
 13
8.206816653197199
 23
12.65938120798814
 33
0.0
  0
LINE
  5
117
330
112
100
AcDbEntity
  8
0
  6
Continuous
 62
     7
370
     0
100
AcDbLine
 10
9.194944419428425
 20
12.82283097516235
 30
0.0
 11
9.194944419428425
 21
12.6542555134347
 31
0.0
  0
LINE
  5
118
330
112
100
AcDbEntity
  8
0
  6
Continuous
 62
     7
370
     0
100
AcDbLine
 10
9.194944419428425
 20
12.6542555134347
 30
0.0
 11
9.220289526024533
 21
12.6542555134347
 31
0.0
  0
LINE
  5
119
330
112
100
AcDbEntity
  8
0
  6
Continuous
 62
     7
370
     0
100
AcDbLine
 10
9.194944419428425
 20
12.82283097516235
 30
0.0
 11
9.220289526024533
 21
12.82283097516235
 31
0.0
  0
LINE
  5
11A
330
112
100
AcDbEntity
  8
0
  6
Continuous
 62
     7
370
     0
100
AcDbLine
 10
9.480894899974462
 20
12.82283097516235
 30
0.0
 11
9.480894899974462
 21
12.6542555134347
 31
0.0
  0
LINE
  5
11B
330
112
100
AcDbEntity
  8
0
  6
Continuous
 62
     7
370
     0
100
AcDbLine
 10
9.480894899974462
 20
12.6542555134347
 30
0.0
 11
9.455549793378352
 21
12.6542555134347
 31
0.0
  0
LINE
  5
11C
330
112
100
AcDbEntity
  8
0
  6
Continuous
 62
     7
370
     0
100
AcDbLine
 10
9.480894899974462
 20
12.82283097516235
 30
0.0
 11
9.455549793378352
 21
12.82283097516235
 31
0.0
  0
LINE
  5
11D
330
112
100
AcDbEntity
  8
0
  6
Continuous
 62
     7
370
     0
100
AcDbLine
 10
10.24217098390586
 20
10.40153069720249
 30
0.0
 11
10.24217098390586
 21
12.76438120798814
 31
0.0
  0
LINE
  5
11E
330
112
100
AcDbEntity
  8
0
  6
Continuous
 62
     7
370
     0
100
AcDbLine
 10
8.076816653197198
 20
10.40153069720249
 30
0.0
 11
8.076816653197198
 21
12.76438120798814
 31
0.0
  0
LINE
  5
11F
330
112
100
AcDbEntity
  8
0
  6
Continuous
 62
     7
370
     0
100
AcDbLine
 10
10.24217098390586
 20
12.63938120798814
 30
0.0
 11
9.61943021976279
 21
12.63938120798814
 31
0.0
  0
LINE
  5
120
330
112
100
AcDbEntity
  8
0
  6
Continuous
 62
     7
370
     0
100
AcDbLine
 10
8.076816653197198
 20
12.63938120798814
 30
0.0
 11
8.640904638769091
 21
12.63938120798814
 31
0.0
  0
MTEXT
  5
121
330
112
100
AcDbEntity
  8
0
  6
Continuous
 62
     7
370
     0
100
AcDbMText
 10
8.728749745365197
 20
12.80051468920948
 30
-0.0000000000000982
 40
0.125
 41
0.0
 71
     1
 72
     1
  1
2.165
  7
SLDTEXTSTYLE0
 73
     1
 44
1.0
  0
MTEXT
  5
122
330
112
100
AcDbEntity
  8
0
  6
Continuous
 62
     7
370
     0
100
AcDbMText
 10
9.245634632620641
 20
12.80051468920948
 30
-0.0000000000000982
 40
0.125
 41
0.0
 71
     1
 72
     1
  1
55
  7
SLDTEXTSTYLE0
 73
     1
 44
1.0
  0
MTEXT
  5
123
330
112
100
AcDbEntity
  8
0
  6
Continuous
 62
     7
370
     0
100
AcDbMText
 10
8.855183329564381
 20
12.60219061658873
 30
-0.0000000000000968
 40
0.125
 41
0.0
 71
     1
 72
     1
  1
RECESS
  7
SLDTEXTSTYLE0
 73
     1
 44
1.0
  0
ENDBLK
  5
114
330
112
100
AcDbEntity
  8
0
100
AcDbBlockEnd
  0
BLOCK
  5
126
330
125
100
AcDbEntity
  8
0
100
AcDbBlockBegin
  2
*D9
 70
     1
 10
0.0
 20
0.0
 30
0.0
  3
*D9
  1

  0
SOLID
  5
128
330
125
100
AcDbEntity
  8
0
  6
Continuous
 62
     7
370
     0
100
AcDbTrace
 10
7.85589459927049
 20
13.82048357019287
 30
0.0
 11
7.98589459927049
 21
13.80048357019287
 31
0.0
 12
7.98589459927049
 22
13.84048357019287
 32
0.0
 13
7.98589459927049
 23
13.84048357019287
 33
0.0
  0
SOLID
  5
129
330
125
100
AcDbEntity
  8
0
  6
Continuous
 62
     7
370
     0
100
AcDbTrace
 10
10.4630798906657
 20
13.82048357019287
 30
0.0
 11
10.3330798906657
 21
13.84048357019287
 31
0.0
 12
10.3330798906657
 22
13.80048357019287
 32
0.0
 13
10.3330798906657
 23
13.80048357019287
 33
0.0
  0
LINE
  5
12A
330
125
100
AcDbEntity
  8
0
  6
Continuous
 62
     7
370
     0
100
AcDbLine
 10
9.079477216073724
 20
13.90477130105669
 30
0.0
 11
9.079477216073724
 21
13.73619583932905
 31
0.0
  0
LINE
  5
12B
330
125
100
AcDbEntity
  8
0
  6
Continuous
 62
     7
370
     0
100
AcDbLine
 10
9.079477216073724
 20
13.73619583932905
 30
0.0
 11
9.104822322669832
 21
13.73619583932905
 31
0.0
  0
LINE
  5
12C
330
125
100
AcDbEntity
  8
0
  6
Continuous
 62
     7
370
     0
100
AcDbLine
 10
9.079477216073724
 20
13.90477130105669
 30
0.0
 11
9.104822322669832
 21
13.90477130105669
 31
0.0
  0
LINE
  5
12D
330
125
100
AcDbEntity
  8
0
  6
Continuous
 62
     7
370
     0
100
AcDbLine
 10
9.596362103329168
 20
13.90477130105669
 30
0.0
 11
9.596362103329168
 21
13.73619583932905
 31
0.0
  0
LINE
  5
12E
330
125
100
AcDbEntity
  8
0
  6
Continuous
 62
     7
370
     0
100
AcDbLine
 10
9.596362103329168
 20
13.73619583932905
 30
0.0
 11
9.57101699673306
 21
13.73619583932905
 31
0.0
  0
LINE
  5
12F
330
125
100
AcDbEntity
  8
0
  6
Continuous
 62
     7
370
     0
100
AcDbLine
 10
9.596362103329168
 20
13.90477130105669
 30
0.0
 11
9.57101699673306
 21
13.90477130105669
 31
0.0
  0
LINE
  5
130
330
125
100
AcDbEntity
  8
0
  6
Continuous
 62
     7
370
     0
100
AcDbLine
 10
7.85589459927049
 20
10.52413830780128
 30
0.0
 11
7.85589459927049
 21
13.94548357019287
 31
0.0
  0
LINE
  5
131
330
125
100
AcDbEntity
  8
0
  6
Continuous
 62
     7
370
     0
100
AcDbLine
 10
10.4630798906657
 20
10.52413830780128
 30
0.0
 11
10.4630798906657
 21
13.94548357019287
 31
0.0
  0
LINE
  5
132
330
125
100
AcDbEntity
  8
0
  6
Continuous
 62
     7
370
     0
100
AcDbLine
 10
7.85589459927049
 20
13.82048357019287
 30
0.0
 11
8.52543743541439
 21
13.82048357019287
 31
0.0
  0
LINE
  5
133
330
125
100
AcDbEntity
  8
0
  6
Continuous
 62
     7
370
     0
100
AcDbLine
 10
10.4630798906657
 20
13.82048357019287
 30
0.0
 11
9.734897423117493
 21
13.82048357019287
 31
0.0
  0
MTEXT
  5
134
330
125
100
AcDbEntity
  8
0
  6
Continuous
 62
     7
370
     0
100
AcDbMText
 10
8.6132825420105
 20
13.88245501510383
 30
-0.0000000000001057
 40
0.125
 41
0.0
 71
     1
 72
     1
  1
2.607
  7
SLDTEXTSTYLE0
 73
     1
 44
1.0
  0
MTEXT
  5
135
330
125
100
AcDbEntity
  8
0
  6
Continuous
 62
     7
370
     0
100
AcDbMText
 10
9.130167429265943
 20
13.88245501510383
 30
-0.0000000000001057
 40
0.125
 41
0.0
 71
     1
 72
     1
  1
66.22
  7
SLDTEXTSTYLE0
 73
     1
 44
1.0
  0
ENDBLK
  5
127
330
125
100
AcDbEntity
  8
0
100
AcDbBlockEnd
  0
BLOCK
  5
27D
330
27C
100
AcDbEntity
  8
0
100
AcDbBlockBegin
  2
*D10
 70
     1
 10
0.0
 20
0.0
 30
0.0
  3
*D10
  1

  0
SOLID
  5
27F
330
27C
100
AcDbEntity
  8
0
  6
Continuous
 62
     7
370
     0
100
AcDbTrace
 10
15.41126046861669
 20
7.537737010044514
 30
0.0
 11
15.31224539426126
 21
7.451157479840262
 31
0.0
 12
15.34284803105585
 22
7.425399401083914
 32
0.0
 13
15.34284803105585
 23
7.425399401083914
 33
0.0
  0
LINE
  5
280
330
27C
100
AcDbEntity
  8
0
  6
Continuous
 62
     7
370
     0
100
AcDbLine
 10
12.6918200508865
 20
6.410368322462885
 30
0.0
 11
12.6918200508865
 21
6.241792860735242
 31
0.0
  0
LINE
  5
281
330
27C
100
AcDbEntity
  8
0
  6
Continuous
 62
     7
370
     0
100
AcDbLine
 10
12.6918200508865
 20
6.241792860735242
 30
0.0
 11
12.71716515748261
 21
6.241792860735242
 31
0.0
  0
LINE
  5
282
330
27C
100
AcDbEntity
  8
0
  6
Continuous
 62
     7
370
     0
100
AcDbLine
 10
12.6918200508865
 20
6.410368322462885
 30
0.0
 11
12.71716515748261
 21
6.410368322462885
 31
0.0
  0
LINE
  5
283
330
27C
100
AcDbEntity
  8
0
  6
Continuous
 62
     7
370
     0
100
AcDbLine
 10
13.11641991106114
 20
6.410368322462885
 30
0.0
 11
13.11641991106114
 21
6.241792860735242
 31
0.0
  0
LINE
  5
284
330
27C
100
AcDbEntity
  8
0
  6
Continuous
 62
     7
370
     0
100
AcDbLine
 10
13.11641991106114
 20
6.241792860735242
 30
0.0
 11
13.09107480446503
 21
6.241792860735242
 31
0.0
  0
LINE
  5
285
330
27C
100
AcDbEntity
  8
0
  6
Continuous
 62
     7
370
     0
100
AcDbLine
 10
13.11641991106114
 20
6.410368322462885
 30
0.0
 11
13.09107480446503
 21
6.410368322462885
 31
0.0
  0
LINE
  5
286
330
27C
100
AcDbEntity
  8
0
  6
Continuous
 62
     7
370
     0
100
AcDbLine
 10
15.41126046861669
 20
7.537737010044514
 30
0.0
 11
14.14102312483366
 21
6.028594482667926
 31
0.0
  0
LINE
  5
287
330
27C
100
AcDbEntity
  8
0
  6
Continuous
 62
     7
370
     0
100
AcDbLine
 10
14.14102312483366
 20
6.028594482667926
 30
0.0
 11
13.89102312483366
 21
6.028594482667926
 31
0.0
  0
MTEXT
  5
288
330
27C
100
AcDbEntity
  8
0
  6
Continuous
 62
     7
370
     0
100
AcDbMText
 10
12.12956908661657
 20
6.388052020468539
 30
-0.0000000000000534
 40
0.125
 41
0.0
 71
     1
 72
     1
  1
%%c
  7
SLDTEXTSTYLE0
 73
     1
 44
1.0
  0
MTEXT
  5
289
330
27C
100
AcDbEntity
  8
0
  6
Continuous
 62
     7
370
     0
100
AcDbMText
 10
12.31791040390407
 20
6.38805203651002
 30
-0.0000000000000534
 40
0.125
 41
0.0
 71
     1
 72
     1
  1
.098
  7
SLDTEXTSTYLE0
 73
     1
 44
1.0
  0
MTEXT
  5
28A
330
27C
100
AcDbEntity
  8
0
  6
Continuous
 62
     7
370
     0
100
AcDbMText
 10
12.74251026407871
 20
6.38805203651002
 30
-0.0000000000000534
 40
0.125
 41
0.0
 71
     1
 72
     1
  1
2.50
  7
SLDTEXTSTYLE0
 73
     1
 44
1.0
  0
MTEXT
  5
28B
330
27C
100
AcDbEntity
  8
0
  6
Continuous
 62
     7
370
     0
100
AcDbMText
 10
11.79435569640435
 20
6.189727963889263
 30
-0.000000000000052
 40
0.125
 41
0.0
 71
     1
 72
     1
  1
MOUNTING HOLE TYP.
  7
SLDTEXTSTYLE0
 73
     1
 44
1.0
  0
MTEXT
  5
28C
330
27C
100
AcDbEntity
  8
0
  6
Continuous
 62
     7
370
     0
100
AcDbMText
 10
11.48378108603627
 20
5.991403891268505
 30
-0.0000000000000506
 40
0.125
 41
0.0
 71
     1
 72
     1
  1
FOR M2.5 OR #4 SHEET METAL
  7
SLDTEXTSTYLE0
 73
     1
 44
1.0
  0
MTEXT
  5
28D
330
27C
100
AcDbEntity
  8
0
  6
Continuous
 62
     7
370
     0
100
AcDbMText
 10
12.37945607843707
 20
5.793079818647746
 30
-0.0000000000000493
 40
0.125
 41
0.0
 71
     1
 72
     1
  1
SCREW
  7
SLDTEXTSTYLE0
 73
     1
 44
1.0
  0
ENDBLK
  5
27E
330
27C
100
AcDbEntity
  8
0
100
AcDbBlockEnd
  0
BLOCK
  5
290
330
28F
100
AcDbEntity
  8
0
100
AcDbBlockBegin
  2
*D11
 70
     1
 10
0.0
 20
0.0
 30
0.0
  3
*D11
  1

  0
SOLID
  5
292
330
28F
100
AcDbEntity
  8
0
  6
Continuous
 62
     7
370
     0
100
AcDbTrace
 10
14.8267735050158
 20
11.39035245842739
 30
0.0
 11
14.95677350501581
 21
11.37035245842739
 31
0.0
 12
14.95677350501581
 22
11.41035245842739
 32
0.0
 13
14.95677350501581
 23
11.41035245842739
 33
0.0
  0
SOLID
  5
293
330
28F
100
AcDbEntity
  8
0
  6
Continuous
 62
     7
370
     0
100
AcDbTrace
 10
17.16149073624402
 20
11.39035245842739
 30
0.0
 11
17.03149073624402
 21
11.41035245842739
 31
0.0
 12
17.03149073624402
 22
11.37035245842739
 32
0.0
 13
17.03149073624402
 23
11.37035245842739
 33
0.0
  0
LINE
  5
294
330
28F
100
AcDbEntity
  8
0
  6
Continuous
 62
     7
370
     0
100
AcDbLine
 10
16.21083366263855
 20
11.47464018929122
 30
0.0
 11
16.21083366263855
 21
11.30606472756357
 31
0.0
  0
LINE
  5
295
330
28F
100
AcDbEntity
  8
0
  6
Continuous
 62
     7
370
     0
100
AcDbLine
 10
16.21083366263855
 20
11.30606472756357
 30
0.0
 11
16.23617876923466
 21
11.30606472756357
 31
0.0
  0
LINE
  5
296
330
28F
100
AcDbEntity
  8
0
  6
Continuous
 62
     7
370
     0
100
AcDbLine
 10
16.21083366263855
 20
11.47464018929122
 30
0.0
 11
16.23617876923466
 21
11.47464018929122
 31
0.0
  0
LINE
  5
297
330
28F
100
AcDbEntity
  8
0
  6
Continuous
 62
     7
370
     0
100
AcDbLine
 10
16.72771854989399
 20
11.47464018929122
 30
0.0
 11
16.72771854989399
 21
11.30606472756357
 31
0.0
  0
LINE
  5
298
330
28F
100
AcDbEntity
  8
0
  6
Continuous
 62
     7
370
     0
100
AcDbLine
 10
16.72771854989399
 20
11.30606472756357
 30
0.0
 11
16.70237344329788
 21
11.30606472756357
 31
0.0
  0
LINE
  5
299
330
28F
100
AcDbEntity
  8
0
  6
Continuous
 62
     7
370
     0
100
AcDbLine
 10
16.72771854989399
 20
11.47464018929122
 30
0.0
 11
16.70237344329788
 21
11.47464018929122
 31
0.0
  0
LINE
  5
29A
330
28F
100
AcDbEntity
  8
0
  6
Continuous
 62
     7
370
     0
100
AcDbLine
 10
14.8267735050158
 20
10.28035500471445
 30
0.0
 11
14.8267735050158
 21
11.51535245842739
 31
0.0
  0
LINE
  5
29B
330
28F
100
AcDbEntity
  8
0
  6
Continuous
 62
     7
370
     0
100
AcDbLine
 10
17.16149073624402
 20
10.28035500471445
 30
0.0
 11
17.16149073624402
 21
11.51535245842739
 31
0.0
  0
LINE
  5
29C
330
28F
100
AcDbEntity
  8
0
  6
Continuous
 62
     7
370
     0
100
AcDbLine
 10
14.8267735050158
 20
11.39035245842739
 30
0.0
 11
15.65679388197921
 21
11.39035245842739
 31
0.0
  0
LINE
  5
29D
330
28F
100
AcDbEntity
  8
0
  6
Continuous
 62
     7
370
     0
100
AcDbLine
 10
17.16149073624402
 20
11.39035245842739
 30
0.0
 11
16.86625386968232
 21
11.39035245842739
 31
0.0
  0
MTEXT
  5
29E
330
28F
100
AcDbEntity
  8
0
  6
Continuous
 62
     7
370
     0
100
AcDbMText
 10
15.74463898857532
 20
11.45232390333835
 30
-0.0000000000000888
 40
0.125
 41
0.0
 71
     1
 72
     1
  1
2.335
  7
SLDTEXTSTYLE0
 73
     1
 44
1.0
  0
MTEXT
  5
29F
330
28F
100
AcDbEntity
  8
0
  6
Continuous
 62
     7
370
     0
100
AcDbMText
 10
16.26152387583077
 20
11.45232390333835
 30
-0.0000000000000888
 40
0.125
 41
0.0
 71
     1
 72
     1
  1
59.30
  7
SLDTEXTSTYLE0
 73
     1
 44
1.0
  0
ENDBLK
  5
291
330
28F
100
AcDbEntity
  8
0
100
AcDbBlockEnd
  0
BLOCK
  5
2A1
330
2A0
100
AcDbEntity
  8
0
100
AcDbBlockBegin
  2
SW_NOTE_5
 70
     0
 10
0.0
 20
0.0
 30
0.0
  3
SW_NOTE_5
  1

  0
MTEXT
  5
2A3
330
2A0
100
AcDbEntity
  8
0
  6
Continuous
 62
     0
370
     0
100
AcDbMText
 10
-1.013710855966692
 20
0.3895203597440501
 30
0.0
 40
0.125
 41
0.0
 71
     1
 72
     1
  1
MOUNTING BOSS
  7
SLDTEXTSTYLE0
 73
     1
 44
1.0
  0
MTEXT
  5
2A4
330
2A0
100
AcDbEntity
  8
0
  6
Continuous
 62
     0
370
     0
100
AcDbMText
 10
-1.013710855966692
 20
0.2251502852278438
 30
0.0
 40
0.125
 41
0.0
 71
     1
 72
     1
  1
FOR BELT CLIP
  7
SLDTEXTSTYLE0
 73
     1
 44
1.0
  0
MTEXT
  5
2A5
330
2A0
100
AcDbEntity
  8
0
  6
Continuous
 62
     0
370
     0
100
AcDbMText
 10
-1.013710855966692
 20
0.0607802107116376
 30
0.0
 40
0.125
 41
0.0
 71
     1
 72
     1
  1
ACCESSORY
  7
SLDTEXTSTYLE0
 73
     1
 44
1.0
  0
ENDBLK
  5
2A2
330
2A0
100
AcDbEntity
  8
0
100
AcDbBlockEnd
  0
BLOCK
  5
2B3
330
2B2
100
AcDbEntity
  8
0
100
AcDbBlockBegin
  2
*D13
 70
     1
 10
0.0
 20
0.0
 30
0.0
  3
*D13
  1

  0
LINE
  5
606
330
2B2
100
AcDbEntity
  8
0
  6
Continuous
 62
     0
370
    -2
100
AcDbLine
 10
12.73698444770688
 20
3.928461025480192
 30
0.0
 11
12.73698444770688
 21
4.318716930992004
 31
0.0
  0
LINE
  5
607
330
2B2
100
AcDbEntity
  8
0
  6
Continuous
 62
     0
370
    -2
100
AcDbLine
 10
15.05194507762814
 20
3.928461025480192
 30
0.0
 11
15.05194507762814
 21
4.318716930992004
 31
0.0
  0
LINE
  5
608
330
2B2
100
AcDbEntity
  8
0
  6
Continuous
 62
     0
370
    -2
100
AcDbLine
 10
12.86698444770688
 20
4.318716930992004
 30
0.0
 11
13.64787737010638
 21
4.318716930992004
 31
0.0
  0
LINE
  5
609
330
2B2
100
AcDbEntity
  8
0
  6
Continuous
 62
     0
370
    -2
100
AcDbLine
 10
14.92194507762814
 20
4.318716930992004
 30
0.0
 11
14.46037737010638
 21
4.318716930992004
 31
0.0
  0
SOLID
  5
60A
330
2B2
100
AcDbEntity
  8
0
  6
Continuous
 62
     0
100
AcDbTrace
 10
12.86698444770688
 20
4.340383597658671
 30
0.0
 11
12.86698444770688
 21
4.297050264325338
 31
0.0
 12
12.73698444770688
 22
4.318716930992004
 32
0.0
 13
12.73698444770688
 23
4.318716930992004
 33
0.0
  0
SOLID
  5
60B
330
2B2
100
AcDbEntity
  8
0
  6
Continuous
 62
     0
100
AcDbTrace
 10
14.92194507762814
 20
4.340383597658671
 30
0.0
 11
14.92194507762814
 21
4.297050264325338
 31
0.0
 12
15.05194507762814
 22
4.318716930992004
 32
0.0
 13
15.05194507762814
 23
4.318716930992004
 33
0.0
  0
MTEXT
  5
60C
330
2B2
100
AcDbEntity
  8
0
  6
Continuous
 62
     0
370
     0
100
AcDbMText
 10
14.05412737010638
 20
4.381216930992004
 30
0.0
 40
0.125
 41
0.0
 71
     2
 72
     1
  1
\A1;2.40 [61.0]
  7
SLDTEXTSTYLE0
 73
     1
 44
1.0
  0
POINT
  5
60D
330
2B2
100
AcDbEntity
  8
Defpoints
  6
Continuous
 62
     0
100
AcDbPoint
 10
12.73698444770688
 20
3.865961025480192
 30
0.0
  0
POINT
  5
60E
330
2B2
100
AcDbEntity
  8
Defpoints
  6
Continuous
 62
     0
100
AcDbPoint
 10
15.05194507762814
 20
3.865961025480192
 30
0.0
  0
POINT
  5
60F
330
2B2
100
AcDbEntity
  8
Defpoints
  6
Continuous
 62
     0
100
AcDbPoint
 10
15.05194507762814
 20
4.318716930992004
 30
0.0
  0
ENDBLK
  5
2B4
330
2B2
100
AcDbEntity
  8
0
100
AcDbBlockEnd
  0
BLOCK
  5
2C5
330
2C4
100
AcDbEntity
  8
0
100
AcDbBlockBegin
  2
*D14
 70
     1
 10
0.0
 20
0.0
 30
0.0
  3
*D14
  1

  0
LINE
  5
610
330
2C4
100
AcDbEntity
  8
0
  6
Continuous
 62
     0
370
    -2
100
AcDbLine
 10
15.0553899595179
 20
3.925016143590428
 30
0.0
 11
15.79504874330073
 21
3.925016143590428
 31
0.0
  0
LINE
  5
611
330
2C4
100
AcDbEntity
  8
0
  6
Continuous
 62
     0
370
    -2
100
AcDbLine
 10
15.0553899595179
 20
3.039189371936884
 30
0.0
 11
15.79504874330073
 21
3.039189371936884
 31
0.0
  0
LINE
  5
612
330
2C4
100
AcDbEntity
  8
0
  6
Continuous
 62
     0
370
    -2
100
AcDbLine
 10
15.79504874330073
 20
3.795016143590428
 30
0.0
 11
15.79504874330073
 21
3.609877396382954
 31
0.0
  0
LINE
  5
613
330
2C4
100
AcDbEntity
  8
0
  6
Continuous
 62
     0
370
    -2
100
AcDbLine
 10
15.79504874330073
 20
3.169189371936884
 30
0.0
 11
15.79504874330073
 21
3.422377396382954
 31
0.0
  0
SOLID
  5
614
330
2C4
100
AcDbEntity
  8
0
  6
Continuous
 62
     0
100
AcDbTrace
 10
15.77338207663407
 20
3.795016143590428
 30
0.0
 11
15.8167154099674
 21
3.795016143590428
 31
0.0
 12
15.79504874330073
 22
3.925016143590428
 32
0.0
 13
15.79504874330073
 23
3.925016143590428
 33
0.0
  0
SOLID
  5
615
330
2C4
100
AcDbEntity
  8
0
  6
Continuous
 62
     0
100
AcDbTrace
 10
15.77338207663407
 20
3.169189371936884
 30
0.0
 11
15.8167154099674
 21
3.169189371936884
 31
0.0
 12
15.79504874330073
 22
3.039189371936884
 32
0.0
 13
15.79504874330073
 23
3.039189371936884
 33
0.0
  0
MTEXT
  5
616
330
2C4
100
AcDbEntity
  8
0
  6
Continuous
 62
     0
370
     0
100
AcDbMText
 10
15.79504874330073
 20
3.578627396382957
 30
0.0
 40
0.125
 41
0.0
 71
     2
 72
     1
  1
\A1;.90 [22.9]
  7
SLDTEXTSTYLE0
 73
     1
 44
1.0
  0
POINT
  5
617
330
2C4
100
AcDbEntity
  8
Defpoints
  6
Continuous
 62
     0
100
AcDbPoint
 10
14.9928899595179
 20
3.925016143590429
 30
0.0
  0
POINT
  5
618
330
2C4
100
AcDbEntity
  8
Defpoints
  6
Continuous
 62
     0
100
AcDbPoint
 10
14.9928899595179
 20
3.039189371936885
 30
0.0
  0
POINT
  5
619
330
2C4
100
AcDbEntity
  8
Defpoints
  6
Continuous
 62
     0
100
AcDbPoint
 10
15.79504874330073
 20
3.039189371936884
 30
0.0
  0
ENDBLK
  5
2C6
330
2C4
100
AcDbEntity
  8
0
100
AcDbBlockEnd
  0
BLOCK
  5
2D6
330
2D5
100
AcDbEntity
  8
0
100
AcDbBlockBegin
  2
SW_NOTE_6
 70
     0
 10
0.0
 20
0.0
 30
0.0
  3
SW_NOTE_6
  1

  0
MTEXT
  5
2D8
330
2D5
100
AcDbEntity
  8
0
  6
Continuous
 62
     0
370
     0
100
AcDbMText
 10
-2.017656614952637
 20
0.2252472576401888
 30
0.0
 40
0.125
 41
0.0
 71
     1
 72
     1
  1
VIEWING AREA
  7
SLDTEXTSTYLE0
 73
     1
 44
1.0
  0
MTEXT
  5
2D9
330
2D5
100
AcDbEntity
  8
0
  6
Continuous
 62
     0
370
     0
100
AcDbMText
 10
-2.017656614952637
 20
0.0608771831239828
 30
0.0
 40
0.125
 41
0.0
 71
     1
 72
     1
  1
2.271 [57.69 X .818 [20.8]]
  7
SLDTEXTSTYLE0
 73
     1
 44
1.0
  0
ENDBLK
  5
2D7
330
2D5
100
AcDbEntity
  8
0
100
AcDbBlockEnd
  0
BLOCK
  5
2DD
330
2DC
100
AcDbEntity
  8
0
100
AcDbBlockBegin
  2
_DOT
 70
     0
 10
0.0
 20
0.0
 30
0.0
  3
_DOT
  1

  0
POLYLINE
  5
2DF
330
2DC
100
AcDbEntity
  8
0
  6
ByBlock
 62
     0
100
AcDb2dPolyline
 66
     1
 10
0.0
 20
0.0
 30
0.0
 70
     1
 40
0.5
 41
0.5
  0
VERTEX
  5
2E2
330
2DF
100
AcDbEntity
  8
0
  6
ByBlock
 62
     0
100
AcDbVertex
100
AcDb2dVertex
 10
-0.25
 20
0.0
 30
0.0
 42
1.0
  0
VERTEX
  5
2E3
330
2DF
100
AcDbEntity
  8
0
  6
ByBlock
 62
     0
100
AcDbVertex
100
AcDb2dVertex
 10
0.25
 20
0.0
 30
0.0
 42
1.0
  0
SEQEND
  5
2E1
330
2DF
100
AcDbEntity
  8
0
  6
ByBlock
 62
     0
  0
LINE
  5
2E0
330
2DC
100
AcDbEntity
  8
0
  6
ByBlock
 62
     0
370
    -2
100
AcDbLine
 10
-0.5
 20
0.0
 30
0.0
 11
-1.0
 21
0.0
 31
0.0
  0
ENDBLK
  5
2DE
330
2DC
100
AcDbEntity
  8
0
100
AcDbBlockEnd
  0
BLOCK
  5
447
330
446
100
AcDbEntity
  8
0
100
AcDbBlockBegin
  2
*D17
 70
     1
 10
0.0
 20
0.0
 30
0.0
  3
*D17
  1

  0
SOLID
  5
449
330
446
100
AcDbEntity
  8
0
  6
Continuous
 62
     7
370
     0
100
AcDbTrace
 10
3.318465541164244
 20
11.4582788457834
 30
0.0
 11
3.448465541164244
 21
11.4382788457834
 31
0.0
 12
3.448465541164244
 22
11.4782788457834
 32
0.0
 13
3.448465541164244
 23
11.4782788457834
 33
0.0
  0
SOLID
  5
44A
330
446
100
AcDbEntity
  8
0
  6
Continuous
 62
     7
370
     0
100
AcDbTrace
 10
3.141300186833535
 20
11.4582788457834
 30
0.0
 11
3.011300186833536
 21
11.4782788457834
 31
0.0
 12
3.011300186833536
 22
11.4382788457834
 32
0.0
 13
3.011300186833536
 23
11.4382788457834
 33
0.0
  0
LINE
  5
44B
330
446
100
AcDbEntity
  8
0
  6
Continuous
 62
     7
370
     0
100
AcDbLine
 10
2.168565556783704
 20
11.54256657664722
 30
0.0
 11
2.168565556783704
 21
11.37399111491958
 31
0.0
  0
LINE
  5
44C
330
446
100
AcDbEntity
  8
0
  6
Continuous
 62
     7
370
     0
100
AcDbLine
 10
2.168565556783704
 20
11.37399111491958
 30
0.0
 11
2.193910663379813
 21
11.37399111491958
 31
0.0
  0
LINE
  5
44D
330
446
100
AcDbEntity
  8
0
  6
Continuous
 62
     7
370
     0
100
AcDbLine
 10
2.168565556783704
 20
11.54256657664722
 30
0.0
 11
2.193910663379813
 21
11.54256657664722
 31
0.0
  0
LINE
  5
44E
330
446
100
AcDbEntity
  8
0
  6
Continuous
 62
     7
370
     0
100
AcDbLine
 10
2.593165416958347
 20
11.54256657664722
 30
0.0
 11
2.593165416958347
 21
11.37399111491958
 31
0.0
  0
LINE
  5
44F
330
446
100
AcDbEntity
  8
0
  6
Continuous
 62
     7
370
     0
100
AcDbLine
 10
2.593165416958347
 20
11.37399111491958
 30
0.0
 11
2.567820310362238
 21
11.37399111491958
 31
0.0
  0
LINE
  5
450
330
446
100
AcDbEntity
  8
0
  6
Continuous
 62
     7
370
     0
100
AcDbLine
 10
2.593165416958347
 20
11.54256657664722
 30
0.0
 11
2.567820310362238
 21
11.54256657664722
 31
0.0
  0
LINE
  5
451
330
446
100
AcDbEntity
  8
0
  6
Continuous
 62
     7
370
     0
100
AcDbLine
 10
3.318465541164243
 20
10.45395206841366
 30
0.0
 11
3.318465541164244
 21
11.5832788457834
 31
0.0
  0
LINE
  5
452
330
446
100
AcDbEntity
  8
0
  6
Continuous
 62
     7
370
     0
100
AcDbLine
 10
3.141300186833534
 20
10.43840804621135
 30
0.0
 11
3.141300186833535
 21
11.5832788457834
 31
0.0
  0
LINE
  5
453
330
446
100
AcDbEntity
  8
0
  6
Continuous
 62
     7
370
     0
100
AcDbLine
 10
3.318465541164244
 20
11.4582788457834
 30
0.0
 11
3.568465541164244
 21
11.4582788457834
 31
0.0
  0
LINE
  5
454
330
446
100
AcDbEntity
  8
0
  6
Continuous
 62
     7
370
     0
100
AcDbLine
 10
3.141300186833535
 20
11.4582788457834
 30
0.0
 11
2.731700736746676
 21
11.4582788457834
 31
0.0
  0
MTEXT
  5
455
330
446
100
AcDbEntity
  8
0
  6
Continuous
 62
     7
370
     0
100
AcDbMText
 10
1.794655909801279
 20
11.52025029069436
 30
-0.0000000000000893
 40
0.125
 41
0.0
 71
     1
 72
     1
  1
.177
  7
SLDTEXTSTYLE0
 73
     1
 44
1.0
  0
MTEXT
  5
456
330
446
100
AcDbEntity
  8
0
  6
Continuous
 62
     7
370
     0
100
AcDbMText
 10
2.219255769975922
 20
11.52025029069436
 30
-0.0000000000000893
 40
0.125
 41
0.0
 71
     1
 72
     1
  1
4.50
  7
SLDTEXTSTYLE0
 73
     1
 44
1.0
  0
ENDBLK
  5
448
330
446
100
AcDbEntity
  8
0
100
AcDbBlockEnd
  0
BLOCK
  5
459
330
458
100
AcDbEntity
  8
0
100
AcDbBlockBegin
  2
*D18
 70
     1
 10
0.0
 20
0.0
 30
0.0
  3
*D18
  1

  0
SOLID
  5
45B
330
458
100
AcDbEntity
  8
0
  6
Continuous
 62
     7
370
     0
100
AcDbTrace
 10
3.318465541164245
 20
11.9307197906653
 30
0.0
 11
3.448465541164245
 21
11.9107197906653
 31
0.0
 12
3.448465541164245
 22
11.9507197906653
 32
0.0
 13
3.448465541164245
 23
11.9507197906653
 33
0.0
  0
SOLID
  5
45C
330
458
100
AcDbEntity
  8
0
  6
Continuous
 62
     7
370
     0
100
AcDbTrace
 10
4.003504911242985
 20
11.9307197906653
 30
0.0
 11
3.873504911242985
 21
11.9507197906653
 31
0.0
 12
3.873504911242985
 22
11.9107197906653
 32
0.0
 13
3.873504911242985
 23
11.9107197906653
 33
0.0
  0
LINE
  5
45D
330
458
100
AcDbEntity
  8
0
  6
Continuous
 62
     7
370
     0
100
AcDbLine
 10
4.490477847713369
 20
12.01500752152911
 30
0.0
 11
4.490477847713369
 21
11.84643205980147
 31
0.0
  0
LINE
  5
45E
330
458
100
AcDbEntity
  8
0
  6
Continuous
 62
     7
370
     0
100
AcDbLine
 10
4.490477847713369
 20
11.84643205980147
 30
0.0
 11
4.515822954309479
 21
11.84643205980147
 31
0.0
  0
LINE
  5
45F
330
458
100
AcDbEntity
  8
0
  6
Continuous
 62
     7
370
     0
100
AcDbLine
 10
4.490477847713369
 20
12.01500752152911
 30
0.0
 11
4.515822954309479
 21
12.01500752152911
 31
0.0
  0
LINE
  5
460
330
458
100
AcDbEntity
  8
0
  6
Continuous
 62
     7
370
     0
100
AcDbLine
 10
5.007362734968814
 20
12.01500752152911
 30
0.0
 11
5.007362734968814
 21
11.84643205980147
 31
0.0
  0
LINE
  5
461
330
458
100
AcDbEntity
  8
0
  6
Continuous
 62
     7
370
     0
100
AcDbLine
 10
5.007362734968814
 20
11.84643205980147
 30
0.0
 11
4.982017628372703
 21
11.84643205980147
 31
0.0
  0
LINE
  5
462
330
458
100
AcDbEntity
  8
0
  6
Continuous
 62
     7
370
     0
100
AcDbLine
 10
5.007362734968814
 20
12.01500752152911
 30
0.0
 11
4.982017628372703
 21
12.01500752152911
 31
0.0
  0
LINE
  5
463
330
458
100
AcDbEntity
  8
0
  6
Continuous
 62
     7
370
     0
100
AcDbLine
 10
3.318465541164243
 20
10.45395206841366
 30
0.0
 11
3.318465541164245
 21
12.0557197906653
 31
0.0
  0
LINE
  5
464
330
458
100
AcDbEntity
  8
0
  6
Continuous
 62
     7
370
     0
100
AcDbLine
 10
4.003504911242983
 20
10.43837692599053
 30
0.0
 11
4.003504911242985
 21
12.0557197906653
 31
0.0
  0
LINE
  5
465
330
458
100
AcDbEntity
  8
0
  6
Continuous
 62
     7
370
     0
100
AcDbLine
 10
3.318465541164245
 20
11.9307197906653
 30
0.0
 11
4.003504911242985
 21
11.9307197906653
 31
0.0
  0
LINE
  5
466
330
458
100
AcDbEntity
  8
0
  6
Continuous
 62
     7
370
     0
100
AcDbLine
 10
4.003504911242985
 20
11.9307197906653
 30
0.0
 11
4.028723094134835
 21
11.9307197906653
 31
0.0
  0
MTEXT
  5
467
330
458
100
AcDbEntity
  8
0
  6
Continuous
 62
     7
370
     0
100
AcDbMText
 10
4.116568200730944
 20
11.99269123557625
 30
-0.0000000000000926
 40
0.125
 41
0.0
 71
     1
 72
     1
  1
.685
  7
SLDTEXTSTYLE0
 73
     1
 44
1.0
  0
MTEXT
  5
468
330
458
100
AcDbEntity
  8
0
  6
Continuous
 62
     7
370
     0
100
AcDbMText
 10
4.541168060905587
 20
11.99269123557625
 30
-0.0000000000000926
 40
0.125
 41
0.0
 71
     1
 72
     1
  1
17.40
  7
SLDTEXTSTYLE0
 73
     1
 44
1.0
  0
ENDBLK
  5
45A
330
458
100
AcDbEntity
  8
0
100
AcDbBlockEnd
  0
BLOCK
  5
46B
330
46A
100
AcDbEntity
  8
0
100
AcDbBlockBegin
  2
*D19
 70
     1
 10
0.0
 20
0.0
 30
0.0
  3
*D19
  1

  0
SOLID
  5
46D
330
46A
100
AcDbEntity
  8
0
  6
Continuous
 62
     7
370
     0
100
AcDbTrace
 10
3.318465541164244
 20
11.59341246939589
 30
0.0
 11
3.448465541164244
 21
11.57341246939589
 31
0.0
 12
3.448465541164244
 22
11.61341246939589
 32
0.0
 13
3.448465541164244
 23
11.61341246939589
 33
0.0
  0
SOLID
  5
46E
330
46A
100
AcDbEntity
  8
0
  6
Continuous
 62
     7
370
     0
100
AcDbTrace
 10
3.826339556913008
 20
11.59341246939589
 30
0.0
 11
3.696339556913009
 21
11.61341246939589
 31
0.0
 12
3.696339556913009
 22
11.57341246939589
 32
0.0
 13
3.696339556913009
 23
11.57341246939589
 33
0.0
  0
LINE
  5
46F
330
46A
100
AcDbEntity
  8
0
  6
Continuous
 62
     7
370
     0
100
AcDbLine
 10
4.490477847713369
 20
11.6777002002597
 30
0.0
 11
4.490477847713369
 21
11.50912473853206
 31
0.0
  0
LINE
  5
470
330
46A
100
AcDbEntity
  8
0
  6
Continuous
 62
     7
370
     0
100
AcDbLine
 10
4.490477847713369
 20
11.50912473853206
 30
0.0
 11
4.515822954309479
 21
11.50912473853206
 31
0.0
  0
LINE
  5
471
330
46A
100
AcDbEntity
  8
0
  6
Continuous
 62
     7
370
     0
100
AcDbLine
 10
4.490477847713369
 20
11.6777002002597
 30
0.0
 11
4.515822954309479
 21
11.6777002002597
 31
0.0
  0
LINE
  5
472
330
46A
100
AcDbEntity
  8
0
  6
Continuous
 62
     7
370
     0
100
AcDbLine
 10
5.007362734968814
 20
11.6777002002597
 30
0.0
 11
5.007362734968814
 21
11.50912473853206
 31
0.0
  0
LINE
  5
473
330
46A
100
AcDbEntity
  8
0
  6
Continuous
 62
     7
370
     0
100
AcDbLine
 10
5.007362734968814
 20
11.50912473853206
 30
0.0
 11
4.982017628372703
 21
11.50912473853206
 31
0.0
  0
LINE
  5
474
330
46A
100
AcDbEntity
  8
0
  6
Continuous
 62
     7
370
     0
100
AcDbLine
 10
5.007362734968814
 20
11.6777002002597
 30
0.0
 11
4.982017628372703
 21
11.6777002002597
 31
0.0
  0
LINE
  5
475
330
46A
100
AcDbEntity
  8
0
  6
Continuous
 62
     7
370
     0
100
AcDbLine
 10
3.318465541164243
 20
10.45395206841366
 30
0.0
 11
3.318465541164244
 21
11.71841246939589
 31
0.0
  0
LINE
  5
476
330
46A
100
AcDbEntity
  8
0
  6
Continuous
 62
     7
370
     0
100
AcDbLine
 10
3.826339556913006
 20
9.980136090161161
 30
0.0
 11
3.826339556913008
 21
11.71841246939589
 31
0.0
  0
LINE
  5
477
330
46A
100
AcDbEntity
  8
0
  6
Continuous
 62
     7
370
     0
100
AcDbLine
 10
3.318465541164244
 20
11.59341246939589
 30
0.0
 11
3.826339556913008
 21
11.59341246939589
 31
0.0
  0
LINE
  5
478
330
46A
100
AcDbEntity
  8
0
  6
Continuous
 62
     7
370
     0
100
AcDbLine
 10
3.826339556913008
 20
11.59341246939589
 30
0.0
 11
4.028723094134835
 21
11.59341246939589
 31
0.0
  0
MTEXT
  5
479
330
46A
100
AcDbEntity
  8
0
  6
Continuous
 62
     7
370
     0
100
AcDbMText
 10
4.116568200730944
 20
11.65538391430684
 30
-0.0000000000000902
 40
0.125
 41
0.0
 71
     1
 72
     1
  1
.508
  7
SLDTEXTSTYLE0
 73
     1
 44
1.0
  0
MTEXT
  5
47A
330
46A
100
AcDbEntity
  8
0
  6
Continuous
 62
     7
370
     0
100
AcDbMText
 10
4.541168060905587
 20
11.65538391430684
 30
-0.0000000000000902
 40
0.125
 41
0.0
 71
     1
 72
     1
  1
12.90
  7
SLDTEXTSTYLE0
 73
     1
 44
1.0
  0
ENDBLK
  5
46C
330
46A
100
AcDbEntity
  8
0
100
AcDbBlockEnd
  0
BLOCK
  5
47D
330
47C
100
AcDbEntity
  8
0
100
AcDbBlockBegin
  2
SW_NOTE_7
 70
     0
 10
0.0
 20
0.0
 30
0.0
  3
SW_NOTE_7
  1

  0
MTEXT
  5
47F
330
47C
100
AcDbEntity
  8
0
  6
Continuous
 62
     0
370
     0
100
AcDbMText
 10
-0.6999403153653515
 20
0.0608521086408882
 30
0.0
 40
0.125
 41
0.0
 71
     1
 72
     1
  1
BOTTOM
  7
SLDTEXTSTYLE0
 73
     1
 44
1.0
  0
ENDBLK
  5
47E
330
47C
100
AcDbEntity
  8
0
100
AcDbBlockEnd
  0
BLOCK
  5
483
330
482
100
AcDbEntity
  8
0
100
AcDbBlockBegin
  2
SW_NOTE_8
 70
     0
 10
0.0
 20
0.0
 30
0.0
  3
SW_NOTE_8
  1

  0
MTEXT
  5
485
330
482
100
AcDbEntity
  8
0
  6
Continuous
 62
     0
370
     0
100
AcDbMText
 10
0.0196976660034703
 20
0.0605417959026565
 30
0.0
 40
0.125
 41
0.0
 71
     1
 72
     1
  1
TOP
  7
SLDTEXTSTYLE0
 73
     1
 44
1.0
  0
ENDBLK
  5
484
330
482
100
AcDbEntity
  8
0
100
AcDbBlockEnd
  0
BLOCK
  5
489
330
488
100
AcDbEntity
  8
0
100
AcDbBlockBegin
  2
SW_NOTE_9
 70
     0
 10
0.0
 20
0.0
 30
0.0
  3
SW_NOTE_9
  1

  0
MTEXT
  5
48B
330
488
100
AcDbEntity
  8
0
  6
Continuous
 62
     0
370
     0
100
AcDbMText
 10
-0.9138640018517822
 20
0.2252052648308171
 30
0.0
 40
0.125
 41
0.0
 71
     1
 72
     1
  1
END PANEL
  7
SLDTEXTSTYLE0
 73
     1
 44
1.0
  0
MTEXT
  5
48C
330
488
100
AcDbEntity
  8
0
  6
Continuous
 62
     0
370
     0
100
AcDbMText
 10
-0.9138640018517822
 20
0.0608351903146109
 30
0.0
 40
0.125
 41
0.0
 71
     1
 72
     1
  1
(2X)
  7
SLDTEXTSTYLE0
 73
     1
 44
1.0
  0
ENDBLK
  5
48A
330
488
100
AcDbEntity
  8
0
100
AcDbBlockEnd
  0
BLOCK
  5
490
330
48F
100
AcDbEntity
  8
0
100
AcDbBlockBegin
  2
SW_NOTE_10
 70
     0
 10
0.0
 20
0.0
 30
0.0
  3
SW_NOTE_10
  1

  0
MTEXT
  5
492
330
48F
100
AcDbEntity
  8
0
  6
Continuous
 62
     0
370
     0
100
AcDbMText
 10
-0.9067787711473902
 20
0.389618937878014
 30
0.0
 40
0.125
 41
0.0
 71
     1
 72
     1
  1
PC BOARD
  7
SLDTEXTSTYLE0
 73
     1
 44
1.0
  0
MTEXT
  5
493
330
48F
100
AcDbEntity
  8
0
  6
Continuous
 62
     0
370
     0
100
AcDbMText
 10
-0.9067787711473902
 20
0.2252488633618078
 30
0.0
 40
0.125
 41
0.0
 71
     1
 72
     1
  1
CUSTOMER
  7
SLDTEXTSTYLE0
 73
     1
 44
1.0
  0
MTEXT
  5
494
330
48F
100
AcDbEntity
  8
0
  6
Continuous
 62
     0
370
     0
100
AcDbMText
 10
-0.9067787711473902
 20
0.0608787888456015
 30
0.0
 40
0.125
 41
0.0
 71
     1
 72
     1
  1
SUPPLIED
  7
SLDTEXTSTYLE0
 73
     1
 44
1.0
  0
ENDBLK
  5
491
330
48F
100
AcDbEntity
  8
0
100
AcDbBlockEnd
  0
BLOCK
  5
4B1
330
4B0
100
AcDbEntity
  8
0
100
AcDbBlockBegin
  2
*D24
 70
     1
 10
0.0
 20
0.0
 30
0.0
  3
*D24
  1

  0
SOLID
  5
4B3
330
4B0
100
AcDbEntity
  8
0
  6
Continuous
 62
     7
370
     0
100
AcDbTrace
 10
21.02733886047958
 20
11.47456516960522
 30
0.0
 11
20.89733886047958
 21
11.49456516960521
 31
0.0
 12
20.89733886047958
 22
11.45456516960522
 32
0.0
 13
20.89733886047958
 23
11.45456516960522
 33
0.0
  0
SOLID
  5
4B4
330
4B0
100
AcDbEntity
  8
0
  6
Continuous
 62
     7
370
     0
100
AcDbTrace
 10
22.12970106520399
 20
11.47456516960522
 30
0.0
 11
22.25970106520399
 21
11.45456516960522
 31
0.0
 12
22.25970106520399
 22
11.49456516960521
 32
0.0
 13
22.25970106520399
 23
11.49456516960521
 33
0.0
  0
LINE
  5
4B5
330
4B0
100
AcDbEntity
  8
0
  6
Continuous
 62
     7
370
     0
100
AcDbLine
 10
21.70794223461942
 20
11.55885290046904
 30
0.0
 11
21.70794223461942
 21
11.39027743874139
 31
0.0
  0
LINE
  5
4B6
330
4B0
100
AcDbEntity
  8
0
  6
Continuous
 62
     7
370
     0
100
AcDbLine
 10
21.70794223461942
 20
11.39027743874139
 30
0.0
 11
21.73328734121553
 21
11.39027743874139
 31
0.0
  0
LINE
  5
4B7
330
4B0
100
AcDbEntity
  8
0
  6
Continuous
 62
     7
370
     0
100
AcDbLine
 10
21.70794223461942
 20
11.55885290046904
 30
0.0
 11
21.73328734121553
 21
11.55885290046904
 31
0.0
  0
LINE
  5
4B8
330
4B0
100
AcDbEntity
  8
0
  6
Continuous
 62
     7
370
     0
100
AcDbLine
 10
21.99389271516546
 20
11.55885290046904
 30
0.0
 11
21.99389271516546
 21
11.39027743874139
 31
0.0
  0
LINE
  5
4B9
330
4B0
100
AcDbEntity
  8
0
  6
Continuous
 62
     7
370
     0
100
AcDbLine
 10
21.99389271516546
 20
11.39027743874139
 30
0.0
 11
21.96854760856935
 21
11.39027743874139
 31
0.0
  0
LINE
  5
4BA
330
4B0
100
AcDbEntity
  8
0
  6
Continuous
 62
     7
370
     0
100
AcDbLine
 10
21.99389271516546
 20
11.55885290046904
 30
0.0
 11
21.96854760856935
 21
11.55885290046904
 31
0.0
  0
LINE
  5
4BB
330
4B0
100
AcDbEntity
  8
0
  6
Continuous
 62
     7
370
     0
100
AcDbLine
 10
21.02733886047958
 20
10.34881808972716
 30
0.0
 11
21.02733886047958
 21
11.59956516960521
 31
0.0
  0
LINE
  5
4BC
330
4B0
100
AcDbEntity
  8
0
  6
Continuous
 62
     7
370
     0
100
AcDbLine
 10
22.12970106520399
 20
10.34881808972716
 30
0.0
 11
22.12970106520399
 21
11.59956516960521
 31
0.0
  0
LINE
  5
4BD
330
4B0
100
AcDbEntity
  8
0
  6
Continuous
 62
     7
370
     0
100
AcDbLine
 10
21.02733886047958
 20
11.47456516960522
 30
0.0
 11
20.77733886047958
 21
11.47456516960522
 31
0.0
  0
LINE
  5
4BE
330
4B0
100
AcDbEntity
  8
0
  6
Continuous
 62
     7
370
     0
100
AcDbLine
 10
22.12970106520399
 20
11.47456516960522
 30
0.0
 11
22.37970106520399
 21
11.47456516960522
 31
0.0
  0
MTEXT
  5
4BF
330
4B0
100
AcDbEntity
  8
0
  6
Continuous
 62
     7
370
     0
100
AcDbMText
 10
21.24174756055619
 20
11.53653661451617
 30
-0.0000000000000894
 40
0.125
 41
0.0
 71
     1
 72
     1
  1
1.102
  7
SLDTEXTSTYLE0
 73
     1
 44
1.0
  0
MTEXT
  5
4C0
330
4B0
100
AcDbEntity
  8
0
  6
Continuous
 62
     7
370
     0
100
AcDbMText
 10
21.75863244781164
 20
11.53653661451617
 30
-0.0000000000000894
 40
0.125
 41
0.0
 71
     1
 72
     1
  1
28
  7
SLDTEXTSTYLE0
 73
     1
 44
1.0
  0
ENDBLK
  5
4B2
330
4B0
100
AcDbEntity
  8
0
100
AcDbBlockEnd
  0
BLOCK
  5
4C3
330
4C2
100
AcDbEntity
  8
0
100
AcDbBlockBegin
  2
*D25
 70
     1
 10
0.0
 20
0.0
 30
0.0
  3
*D25
  1

  0
SOLID
  5
4C5
330
4C2
100
AcDbEntity
  8
0
  6
Continuous
 62
     7
370
     0
100
AcDbTrace
 10
18.88934374166865
 20
10.13582596374291
 30
0.0
 11
18.86934374166865
 21
10.00582596374291
 31
0.0
 12
18.90934374166865
 22
10.00582596374291
 32
0.0
 13
18.90934374166865
 23
10.00582596374291
 33
0.0
  0
SOLID
  5
4C6
330
4C2
100
AcDbEntity
  8
0
  6
Continuous
 62
     7
370
     0
100
AcDbTrace
 10
18.88934374166865
 20
8.009841711774406
 30
0.0
 11
18.90934374166865
 21
8.139841711774407
 31
0.0
 12
18.86934374166865
 22
8.139841711774407
 32
0.0
 13
18.86934374166865
 23
8.139841711774407
 33
0.0
  0
LINE
  5
4C7
330
4C2
100
AcDbEntity
  8
0
  6
Continuous
 62
     7
370
     0
100
AcDbLine
 10
18.95412073183114
 20
9.113214867341513
 30
0.0
 11
18.95412073183114
 21
8.944639405613873
 31
0.0
  0
LINE
  5
4C8
330
4C2
100
AcDbEntity
  8
0
  6
Continuous
 62
     7
370
     0
100
AcDbLine
 10
18.95412073183114
 20
8.944639405613873
 30
0.0
 11
18.97946583842724
 21
8.944639405613873
 31
0.0
  0
LINE
  5
4C9
330
4C2
100
AcDbEntity
  8
0
  6
Continuous
 62
     7
370
     0
100
AcDbLine
 10
18.95412073183114
 20
9.113214867341513
 30
0.0
 11
18.97946583842724
 21
9.113214867341513
 31
0.0
  0
LINE
  5
4CA
330
4C2
100
AcDbEntity
  8
0
  6
Continuous
 62
     7
370
     0
100
AcDbLine
 10
19.24007121237717
 20
9.113214867341513
 30
0.0
 11
19.24007121237717
 21
8.944639405613873
 31
0.0
  0
LINE
  5
4CB
330
4C2
100
AcDbEntity
  8
0
  6
Continuous
 62
     7
370
     0
100
AcDbLine
 10
19.24007121237717
 20
8.944639405613873
 30
0.0
 11
19.21472610578106
 21
8.944639405613873
 31
0.0
  0
LINE
  5
4CC
330
4C2
100
AcDbEntity
  8
0
  6
Continuous
 62
     7
370
     0
100
AcDbLine
 10
19.24007121237717
 20
9.113214867341513
 30
0.0
 11
19.21472610578106
 21
9.113214867341513
 31
0.0
  0
LINE
  5
4CD
330
4C2
100
AcDbEntity
  8
0
  6
Continuous
 62
     7
370
     0
100
AcDbLine
 10
20.81434673449533
 20
10.13582596374291
 30
0.0
 11
18.76434374166865
 21
10.13582596374291
 31
0.0
  0
LINE
  5
4CE
330
4C2
100
AcDbEntity
  8
0
  6
Continuous
 62
     7
370
     0
100
AcDbLine
 10
20.81434673449533
 20
8.009841711774406
 30
0.0
 11
18.76434374166865
 21
8.009841711774406
 31
0.0
  0
LINE
  5
4CF
330
4C2
100
AcDbEntity
  8
0
  6
Continuous
 62
     7
370
     0
100
AcDbLine
 10
18.88934374166865
 20
10.13582596374291
 30
0.0
 11
18.88934374166865
 21
9.128089172788072
 31
0.0
  0
LINE
  5
4D0
330
4C2
100
AcDbEntity
  8
0
  6
Continuous
 62
     7
370
     0
100
AcDbLine
 10
18.88934374166865
 20
8.009841711774406
 30
0.0
 11
18.88934374166865
 21
8.929765100167315
 31
0.0
  0
MTEXT
  5
4D1
330
4C2
100
AcDbEntity
  8
0
  6
Continuous
 62
     7
370
     0
100
AcDbMText
 10
18.48792605776791
 20
9.090898581388652
 30
-0.0000000000000723
 40
0.125
 41
0.0
 71
     1
 72
     1
  1
2.126
  7
SLDTEXTSTYLE0
 73
     1
 44
1.0
  0
MTEXT
  5
4D2
330
4C2
100
AcDbEntity
  8
0
  6
Continuous
 62
     7
370
     0
100
AcDbMText
 10
19.00481094502336
 20
9.090898581388652
 30
-0.0000000000000723
 40
0.125
 41
0.0
 71
     1
 72
     1
  1
54
  7
SLDTEXTSTYLE0
 73
     1
 44
1.0
  0
ENDBLK
  5
4C4
330
4C2
100
AcDbEntity
  8
0
100
AcDbBlockEnd
  0
BLOCK
  5
4D5
330
4D4
100
AcDbEntity
  8
0
100
AcDbBlockBegin
  2
*D26
 70
     1
 10
0.0
 20
0.0
 30
0.0
  3
*D26
  1

  0
SOLID
  5
4D7
330
4D4
100
AcDbEntity
  8
0
  6
Continuous
 62
     7
370
     0
100
AcDbTrace
 10
24.03150144622762
 20
10.70003788613363
 30
0.0
 11
24.01150144622762
 21
10.57003788613363
 31
0.0
 12
24.05150144622762
 22
10.57003788613363
 32
0.0
 13
24.05150144622762
 23
10.57003788613363
 33
0.0
  0
SOLID
  5
4D8
330
4D4
100
AcDbEntity
  8
0
  6
Continuous
 62
     7
370
     0
100
AcDbTrace
 10
24.03150144622762
 20
7.445629789383673
 30
0.0
 11
24.05150144622762
 21
7.575629789383673
 31
0.0
 12
24.01150144622762
 22
7.575629789383673
 32
0.0
 13
24.01150144622762
 23
7.575629789383673
 33
0.0
  0
LINE
  5
4D9
330
4D4
100
AcDbEntity
  8
0
  6
Continuous
 62
     7
370
     0
100
AcDbLine
 10
23.9808112330354
 20
9.113214867341516
 30
0.0
 11
23.9808112330354
 21
8.944639405613873
 31
0.0
  0
LINE
  5
4DA
330
4D4
100
AcDbEntity
  8
0
  6
Continuous
 62
     7
370
     0
100
AcDbLine
 10
23.9808112330354
 20
8.944639405613873
 30
0.0
 11
24.00615633963151
 21
8.944639405613873
 31
0.0
  0
LINE
  5
4DB
330
4D4
100
AcDbEntity
  8
0
  6
Continuous
 62
     7
370
     0
100
AcDbLine
 10
23.9808112330354
 20
9.113214867341516
 30
0.0
 11
24.00615633963151
 21
9.113214867341516
 31
0.0
  0
LINE
  5
4DC
330
4D4
100
AcDbEntity
  8
0
  6
Continuous
 62
     7
370
     0
100
AcDbLine
 10
24.49769612029085
 20
9.113214867341516
 30
0.0
 11
24.49769612029085
 21
8.944639405613873
 31
0.0
  0
LINE
  5
4DD
330
4D4
100
AcDbEntity
  8
0
  6
Continuous
 62
     7
370
     0
100
AcDbLine
 10
24.49769612029085
 20
8.944639405613873
 30
0.0
 11
24.47235101369474
 21
8.944639405613873
 31
0.0
  0
LINE
  5
4DE
330
4D4
100
AcDbEntity
  8
0
  6
Continuous
 62
     7
370
     0
100
AcDbLine
 10
24.49769612029085
 20
9.113214867341516
 30
0.0
 11
24.47235101369474
 21
9.113214867341516
 31
0.0
  0
LINE
  5
4DF
330
4D4
100
AcDbEntity
  8
0
  6
Continuous
 62
     7
370
     0
100
AcDbLine
 10
22.74291471088744
 20
10.70003788613363
 30
0.0
 11
24.15650144622762
 21
10.70003788613363
 31
0.0
  0
LINE
  5
4E0
330
4D4
100
AcDbEntity
  8
0
  6
Continuous
 62
     7
370
     0
100
AcDbLine
 10
22.74291471088744
 20
7.445629789383673
 30
0.0
 11
24.15650144622762
 21
7.445629789383673
 31
0.0
  0
LINE
  5
4E1
330
4D4
100
AcDbEntity
  8
0
  6
Continuous
 62
     7
370
     0
100
AcDbLine
 10
24.03150144622762
 20
10.70003788613363
 30
0.0
 11
24.03150144622762
 21
9.128089172788074
 31
0.0
  0
LINE
  5
4E2
330
4D4
100
AcDbEntity
  8
0
  6
Continuous
 62
     7
370
     0
100
AcDbLine
 10
24.03150144622762
 20
7.445629789383673
 30
0.0
 11
24.03150144622762
 21
8.929765100167315
 31
0.0
  0
MTEXT
  5
4E3
330
4D4
100
AcDbEntity
  8
0
  6
Continuous
 62
     7
370
     0
100
AcDbMText
 10
23.51461655897217
 20
9.090898581388653
 30
-0.0000000000000723
 40
0.125
 41
0.0
 71
     1
 72
     1
  1
3.254
  7
SLDTEXTSTYLE0
 73
     1
 44
1.0
  0
MTEXT
  5
4E4
330
4D4
100
AcDbEntity
  8
0
  6
Continuous
 62
     7
370
     0
100
AcDbMText
 10
24.03150144622762
 20
9.090898581388653
 30
-0.0000000000000723
 40
0.125
 41
0.0
 71
     1
 72
     1
  1
82.66
  7
SLDTEXTSTYLE0
 73
     1
 44
1.0
  0
ENDBLK
  5
4D6
330
4D4
100
AcDbEntity
  8
0
100
AcDbBlockEnd
  0
BLOCK
  5
4E7
330
4E6
100
AcDbEntity
  8
0
100
AcDbBlockBegin
  2
*D27
 70
     1
 10
0.0
 20
0.0
 30
0.0
  3
*D27
  1

  0
SOLID
  5
4E9
330
4E6
100
AcDbEntity
  8
0
  6
Continuous
 62
     7
370
     0
100
AcDbTrace
 10
20.97281216910634
 20
10.16736717272264
 30
0.0
 11
20.87029704363587
 21
10.24977256726556
 31
0.0
 12
20.85026837593374
 22
10.21514811824355
 32
0.0
 13
20.85026837593374
 23
10.21514811824355
 33
0.0
  0
LINE
  5
4EA
330
4E6
100
AcDbEntity
  8
0
  6
Continuous
 62
     7
370
     0
100
AcDbLine
 10
18.59487745429172
 20
11.17148119747592
 30
0.0
 11
18.59487745429172
 21
11.00290573574828
 31
0.0
  0
LINE
  5
4EB
330
4E6
100
AcDbEntity
  8
0
  6
Continuous
 62
     7
370
     0
100
AcDbLine
 10
18.59487745429172
 20
11.00290573574828
 30
0.0
 11
18.62022256088782
 21
11.00290573574828
 31
0.0
  0
LINE
  5
4EC
330
4E6
100
AcDbEntity
  8
0
  6
Continuous
 62
     7
370
     0
100
AcDbLine
 10
18.59487745429172
 20
11.17148119747592
 30
0.0
 11
18.62022256088782
 21
11.17148119747592
 31
0.0
  0
LINE
  5
4ED
330
4E6
100
AcDbEntity
  8
0
  6
Continuous
 62
     7
370
     0
100
AcDbLine
 10
19.01947731446636
 20
11.17148119747592
 30
0.0
 11
19.01947731446636
 21
11.00290573574828
 31
0.0
  0
LINE
  5
4EE
330
4E6
100
AcDbEntity
  8
0
  6
Continuous
 62
     7
370
     0
100
AcDbLine
 10
19.01947731446636
 20
11.00290573574828
 30
0.0
 11
18.99413220787026
 21
11.00290573574828
 31
0.0
  0
LINE
  5
4EF
330
4E6
100
AcDbEntity
  8
0
  6
Continuous
 62
     7
370
     0
100
AcDbLine
 10
19.01947731446636
 20
11.17148119747592
 30
0.0
 11
18.99413220787026
 21
11.17148119747592
 31
0.0
  0
LINE
  5
4F0
330
4E6
100
AcDbEntity
  8
0
  6
Continuous
 62
     7
370
     0
100
AcDbLine
 10
20.97281216910634
 20
10.16736717272264
 30
0.0
 11
19.38266752765858
 21
11.0871934666121
 31
0.0
  0
LINE
  5
4F1
330
4E6
100
AcDbEntity
  8
0
  6
Continuous
 62
     7
370
     0
100
AcDbLine
 10
19.38266752765858
 20
11.0871934666121
 30
0.0
 11
19.13266752765858
 21
11.0871934666121
 31
0.0
  0
MTEXT
  5
4F2
330
4E6
100
AcDbEntity
  8
0
  6
Continuous
 62
     7
370
     0
100
AcDbMText
 10
18.03262649002179
 20
11.14916489548158
 30
-0.0000000000000867
 40
0.125
 41
0.0
 71
     1
 72
     1
  1
%%c
  7
SLDTEXTSTYLE0
 73
     1
 44
1.0
  0
MTEXT
  5
4F3
330
4E6
100
AcDbEntity
  8
0
  6
Continuous
 62
     7
370
     0
100
AcDbMText
 10
18.22096780730929
 20
11.14916491152306
 30
-0.0000000000000867
 40
0.125
 41
0.0
 71
     1
 72
     1
  1
.126
  7
SLDTEXTSTYLE0
 73
     1
 44
1.0
  0
MTEXT
  5
4F4
330
4E6
100
AcDbEntity
  8
0
  6
Continuous
 62
     7
370
     0
100
AcDbMText
 10
18.64556766748393
 20
11.14916491152306
 30
-0.0000000000000867
 40
0.125
 41
0.0
 71
     1
 72
     1
  1
3.20
  7
SLDTEXTSTYLE0
 73
     1
 44
1.0
  0
ENDBLK
  5
4E8
330
4E6
100
AcDbEntity
  8
0
100
AcDbBlockEnd
  0
BLOCK
  5
4F8
330
4F7
100
AcDbEntity
  8
0
100
AcDbBlockBegin
  2
*D28
 70
     1
 10
0.0
 20
0.0
 30
0.0
  3
*D28
  1

  0
SOLID
  5
4FA
330
4F7
100
AcDbEntity
  8
0
  6
Continuous
 62
     7
370
     0
100
AcDbTrace
 10
22.49789679042917
 20
9.763908181506906
 30
0.0
 11
22.41594139719793
 21
9.661032948723146
 31
0.0
 12
22.45065327725923
 22
9.641156193892197
 32
0.0
 13
22.45065327725923
 23
9.641156193892197
 33
0.0
  0
LINE
  5
4FB
330
4F7
100
AcDbEntity
  8
0
  6
Continuous
 62
     7
370
     0
100
AcDbLine
 10
21.40267716462518
 20
9.311314623535784
 30
0.0
 11
21.40267716462518
 21
9.142739161808142
 31
0.0
  0
LINE
  5
4FC
330
4F7
100
AcDbEntity
  8
0
  6
Continuous
 62
     7
370
     0
100
AcDbLine
 10
21.40267716462518
 20
9.142739161808142
 30
0.0
 11
21.4280222712213
 21
9.142739161808142
 31
0.0
  0
LINE
  5
4FD
330
4F7
100
AcDbEntity
  8
0
  6
Continuous
 62
     7
370
     0
100
AcDbLine
 10
21.40267716462518
 20
9.311314623535784
 30
0.0
 11
21.4280222712213
 21
9.311314623535784
 31
0.0
  0
LINE
  5
4FE
330
4F7
100
AcDbEntity
  8
0
  6
Continuous
 62
     7
370
     0
100
AcDbLine
 10
21.82727702479983
 20
9.311314623535784
 30
0.0
 11
21.82727702479983
 21
9.142739161808142
 31
0.0
  0
LINE
  5
4FF
330
4F7
100
AcDbEntity
  8
0
  6
Continuous
 62
     7
370
     0
100
AcDbLine
 10
21.82727702479983
 20
9.142739161808142
 30
0.0
 11
21.80193191820372
 21
9.142739161808142
 31
0.0
  0
LINE
  5
500
330
4F7
100
AcDbEntity
  8
0
  6
Continuous
 62
     7
370
     0
100
AcDbLine
 10
21.82727702479983
 20
9.311314623535784
 30
0.0
 11
21.80193191820372
 21
9.311314623535784
 31
0.0
  0
LINE
  5
501
330
4F7
100
AcDbEntity
  8
0
  6
Continuous
 62
     7
370
     0
100
AcDbLine
 10
22.49789679042917
 20
9.763908181506906
 30
0.0
 11
22.19046723799205
 21
9.227026892671963
 31
0.0
  0
LINE
  5
502
330
4F7
100
AcDbEntity
  8
0
  6
Continuous
 62
     7
370
     0
100
AcDbLine
 10
22.19046723799205
 20
9.227026892671963
 30
0.0
 11
21.94046723799205
 21
9.227026892671963
 31
0.0
  0
MTEXT
  5
503
330
4F7
100
AcDbEntity
  8
0
  6
Continuous
 62
     7
370
     0
100
AcDbMText
 10
20.92760893026573
 20
9.288998337582921
 30
-0.0000000000000737
 40
0.125
 41
0.0
 71
     1
 72
     1
  1
R
  7
SLDTEXTSTYLE0
 73
     1
 44
1.0
  0
MTEXT
  5
504
330
4F7
100
AcDbEntity
  8
0
  6
Continuous
 62
     7
370
     0
100
AcDbMText
 10
21.02876751764276
 20
9.288998337582921
 30
-0.0000000000000737
 40
0.125
 41
0.0
 71
     1
 72
     1
  1
.131
  7
SLDTEXTSTYLE0
 73
     1
 44
1.0
  0
MTEXT
  5
505
330
4F7
100
AcDbEntity
  8
0
  6
Continuous
 62
     7
370
     0
100
AcDbMText
 10
21.45336737781741
 20
9.288998337582921
 30
-0.0000000000000737
 40
0.125
 41
0.0
 71
     1
 72
     1
  1
3.32
  7
SLDTEXTSTYLE0
 73
     1
 44
1.0
  0
ENDBLK
  5
4F9
330
4F7
100
AcDbEntity
  8
0
100
AcDbBlockEnd
  0
BLOCK
  5
508
330
507
100
AcDbEntity
  8
0
100
AcDbBlockBegin
  2
*D29
 70
     1
 10
0.0
 20
0.0
 30
0.0
  3
*D29
  1

  0
SOLID
  5
50A
330
507
100
AcDbEntity
  8
0
  6
Continuous
 62
     7
370
     0
100
AcDbTrace
 10
20.59426799433784
 20
11.91669000410736
 30
0.0
 11
20.72426799433784
 21
11.89669000410736
 31
0.0
 12
20.72426799433784
 22
11.93669000410736
 32
0.0
 13
20.72426799433784
 23
11.93669000410736
 33
0.0
  0
SOLID
  5
50B
330
507
100
AcDbEntity
  8
0
  6
Continuous
 62
     7
370
     0
100
AcDbTrace
 10
22.56277193134572
 20
11.91669000410736
 30
0.0
 11
22.43277193134572
 21
11.93669000410736
 31
0.0
 12
22.43277193134572
 22
11.89669000410736
 32
0.0
 13
22.43277193134572
 23
11.89669000410736
 33
0.0
  0
LINE
  5
50C
330
507
100
AcDbEntity
  8
0
  6
Continuous
 62
     7
370
     0
100
AcDbLine
 10
21.6026639902342
 20
12.00097773497118
 30
0.0
 11
21.6026639902342
 21
11.83240227324354
 31
0.0
  0
LINE
  5
50D
330
507
100
AcDbEntity
  8
0
  6
Continuous
 62
     7
370
     0
100
AcDbLine
 10
21.6026639902342
 20
11.83240227324354
 30
0.0
 11
21.6280090968303
 21
11.83240227324354
 31
0.0
  0
LINE
  5
50E
330
507
100
AcDbEntity
  8
0
  6
Continuous
 62
     7
370
     0
100
AcDbLine
 10
21.6026639902342
 20
12.00097773497118
 30
0.0
 11
21.6280090968303
 21
12.00097773497118
 31
0.0
  0
LINE
  5
50F
330
507
100
AcDbEntity
  8
0
  6
Continuous
 62
     7
370
     0
100
AcDbLine
 10
21.88861447078023
 20
12.00097773497118
 30
0.0
 11
21.88861447078023
 21
11.83240227324354
 31
0.0
  0
LINE
  5
510
330
507
100
AcDbEntity
  8
0
  6
Continuous
 62
     7
370
     0
100
AcDbLine
 10
21.88861447078023
 20
11.83240227324354
 30
0.0
 11
21.86326936418412
 21
11.83240227324354
 31
0.0
  0
LINE
  5
511
330
507
100
AcDbEntity
  8
0
  6
Continuous
 62
     7
370
     0
100
AcDbLine
 10
21.88861447078023
 20
12.00097773497118
 30
0.0
 11
21.86326936418412
 21
12.00097773497118
 31
0.0
  0
LINE
  5
512
330
507
100
AcDbEntity
  8
0
  6
Continuous
 62
     7
370
     0
100
AcDbLine
 10
20.59426799433784
 20
10.15775803468159
 30
0.0
 11
20.59426799433784
 21
12.04169000410736
 31
0.0
  0
LINE
  5
513
330
507
100
AcDbEntity
  8
0
  6
Continuous
 62
     7
370
     0
100
AcDbLine
 10
22.56277193134572
 20
10.15775803468159
 30
0.0
 11
22.56277193134572
 21
12.04169000410736
 31
0.0
  0
LINE
  5
514
330
507
100
AcDbEntity
  8
0
  6
Continuous
 62
     7
370
     0
100
AcDbLine
 10
20.59426799433784
 20
11.91669000410736
 30
0.0
 11
21.04862420957486
 21
11.91669000410736
 31
0.0
  0
LINE
  5
515
330
507
100
AcDbEntity
  8
0
  6
Continuous
 62
     7
370
     0
100
AcDbLine
 10
22.56277193134572
 20
11.91669000410736
 30
0.0
 11
22.02714979056856
 21
11.91669000410736
 31
0.0
  0
MTEXT
  5
516
330
507
100
AcDbEntity
  8
0
  6
Continuous
 62
     7
370
     0
100
AcDbMText
 10
21.13646931617097
 20
11.97866144901831
 30
-0.0000000000000925
 40
0.125
 41
0.0
 71
     1
 72
     1
  1
1.969
  7
SLDTEXTSTYLE0
 73
     1
 44
1.0
  0
MTEXT
  5
517
330
507
100
AcDbEntity
  8
0
  6
Continuous
 62
     7
370
     0
100
AcDbMText
 10
21.65335420342641
 20
11.97866144901831
 30
-0.0000000000000925
 40
0.125
 41
0.0
 71
     1
 72
     1
  1
50
  7
SLDTEXTSTYLE0
 73
     1
 44
1.0
  0
ENDBLK
  5
509
330
507
100
AcDbEntity
  8
0
100
AcDbBlockEnd
  0
BLOCK
  5
51A
330
519
100
AcDbEntity
  8
0
100
AcDbBlockBegin
  2
*D30
 70
     1
 10
0.0
 20
0.0
 30
0.0
  3
*D30
  1

  0
SOLID
  5
51C
330
519
100
AcDbEntity
  8
0
  6
Continuous
 62
     7
370
     0
100
AcDbTrace
 10
19.59797942433785
 20
9.877203240464339
 30
0.0
 11
19.57797942433785
 21
9.747203240464338
 31
0.0
 12
19.61797942433785
 22
9.747203240464338
 32
0.0
 13
19.61797942433785
 23
9.747203240464338
 33
0.0
  0
SOLID
  5
51D
330
519
100
AcDbEntity
  8
0
  6
Continuous
 62
     7
370
     0
100
AcDbTrace
 10
19.59797942433785
 20
8.268464435052964
 30
0.0
 11
19.61797942433785
 21
8.398464435052964
 31
0.0
 12
19.57797942433785
 22
8.398464435052964
 32
0.0
 13
19.57797942433785
 23
8.398464435052964
 33
0.0
  0
LINE
  5
51E
330
519
100
AcDbEntity
  8
0
  6
Continuous
 62
     7
370
     0
100
AcDbLine
 10
19.54728921114562
 20
8.706668898775316
 30
0.0
 11
19.54728921114562
 21
8.538093437047674
 31
0.0
  0
LINE
  5
51F
330
519
100
AcDbEntity
  8
0
  6
Continuous
 62
     7
370
     0
100
AcDbLine
 10
19.54728921114562
 20
8.538093437047674
 30
0.0
 11
19.57263431774174
 21
8.538093437047674
 31
0.0
  0
LINE
  5
520
330
519
100
AcDbEntity
  8
0
  6
Continuous
 62
     7
370
     0
100
AcDbLine
 10
19.54728921114562
 20
8.706668898775316
 30
0.0
 11
19.57263431774174
 21
8.706668898775316
 31
0.0
  0
LINE
  5
521
330
519
100
AcDbEntity
  8
0
  6
Continuous
 62
     7
370
     0
100
AcDbLine
 10
20.06417409840107
 20
8.706668898775319
 30
0.0
 11
20.06417409840107
 21
8.538093437047677
 31
0.0
  0
LINE
  5
522
330
519
100
AcDbEntity
  8
0
  6
Continuous
 62
     7
370
     0
100
AcDbLine
 10
20.06417409840107
 20
8.538093437047677
 30
0.0
 11
20.03882899180496
 21
8.538093437047677
 31
0.0
  0
LINE
  5
523
330
519
100
AcDbEntity
  8
0
  6
Continuous
 62
     7
370
     0
100
AcDbLine
 10
20.06417409840107
 20
8.706668898775319
 30
0.0
 11
20.03882899180496
 21
8.706668898775319
 31
0.0
  0
LINE
  5
524
330
519
100
AcDbEntity
  8
0
  6
Continuous
 62
     7
370
     0
100
AcDbLine
 10
20.31371320012059
 20
9.877203240464339
 30
0.0
 11
19.47297942433785
 21
9.877203240464339
 31
0.0
  0
LINE
  5
525
330
519
100
AcDbEntity
  8
0
  6
Continuous
 62
     7
370
     0
100
AcDbLine
 10
20.31371320012058
 20
8.268464435052964
 30
0.0
 11
19.47297942433785
 21
8.268464435052964
 31
0.0
  0
LINE
  5
526
330
519
100
AcDbEntity
  8
0
  6
Continuous
 62
     7
370
     0
100
AcDbLine
 10
19.59797942433785
 20
9.877203240464339
 30
0.0
 11
19.59797942433785
 21
8.721543204221873
 31
0.0
  0
LINE
  5
527
330
519
100
AcDbEntity
  8
0
  6
Continuous
 62
     7
370
     0
100
AcDbLine
 10
19.59797942433785
 20
8.268464435052964
 30
0.0
 11
19.59797942433785
 21
8.523219131601116
 31
0.0
  0
MTEXT
  5
528
330
519
100
AcDbEntity
  8
0
  6
Continuous
 62
     7
370
     0
100
AcDbMText
 10
19.0810945370824
 20
8.684352612822454
 30
-0.0000000000000694
 40
0.125
 41
0.0
 71
     1
 72
     1
  1
1.609
  7
SLDTEXTSTYLE0
 73
     1
 44
1.0
  0
MTEXT
  5
529
330
519
100
AcDbEntity
  8
0
  6
Continuous
 62
     7
370
     0
100
AcDbMText
 10
19.59797942433785
 20
8.684352612822454
 30
-0.0000000000000694
 40
0.125
 41
0.0
 71
     1
 72
     1
  1
40.86
  7
SLDTEXTSTYLE0
 73
     1
 44
1.0
  0
ENDBLK
  5
51B
330
519
100
AcDbEntity
  8
0
100
AcDbBlockEnd
  0
BLOCK
  5
52C
330
52B
100
AcDbEntity
  8
0
100
AcDbBlockBegin
  2
*D31
 70
     1
 10
0.0
 20
0.0
 30
0.0
  3
*D31
  1

  0
SOLID
  5
52E
330
52B
100
AcDbEntity
  8
0
  6
Continuous
 62
     7
370
     0
100
AcDbTrace
 10
22.69291471088744
 20
6.971508568282863
 30
0.0
 11
22.56291471088744
 21
6.991508568282863
 31
0.0
 12
22.56291471088744
 22
6.951508568282863
 32
0.0
 13
22.56291471088744
 23
6.951508568282863
 33
0.0
  0
SOLID
  5
52F
330
52B
100
AcDbEntity
  8
0
  6
Continuous
 62
     7
370
     0
100
AcDbTrace
 10
20.46412521479613
 20
6.971508568282863
 30
0.0
 11
20.59412521479613
 21
6.951508568282863
 31
0.0
 12
20.59412521479613
 22
6.991508568282863
 32
0.0
 13
20.59412521479613
 23
6.991508568282863
 33
0.0
  0
LINE
  5
530
330
52B
100
AcDbEntity
  8
0
  6
Continuous
 62
     7
370
     0
100
AcDbLine
 10
21.23436044279223
 20
7.055796299146685
 30
0.0
 11
21.23436044279223
 21
6.887220837419041
 31
0.0
  0
LINE
  5
531
330
52B
100
AcDbEntity
  8
0
  6
Continuous
 62
     7
370
     0
100
AcDbLine
 10
21.23436044279223
 20
6.887220837419041
 30
0.0
 11
21.25970554938833
 21
6.887220837419041
 31
0.0
  0
LINE
  5
532
330
52B
100
AcDbEntity
  8
0
  6
Continuous
 62
     7
370
     0
100
AcDbLine
 10
21.23436044279223
 20
7.055796299146685
 30
0.0
 11
21.25970554938833
 21
7.055796299146685
 31
0.0
  0
LINE
  5
533
330
52B
100
AcDbEntity
  8
0
  6
Continuous
 62
     7
370
     0
100
AcDbLine
 10
21.75124533004767
 20
7.055796299146685
 30
0.0
 11
21.75124533004767
 21
6.887220837419041
 31
0.0
  0
LINE
  5
534
330
52B
100
AcDbEntity
  8
0
  6
Continuous
 62
     7
370
     0
100
AcDbLine
 10
21.75124533004767
 20
6.887220837419041
 30
0.0
 11
21.72590022345155
 21
6.887220837419041
 31
0.0
  0
LINE
  5
535
330
52B
100
AcDbEntity
  8
0
  6
Continuous
 62
     7
370
     0
100
AcDbLine
 10
21.75124533004767
 20
7.055796299146685
 30
0.0
 11
21.72590022345155
 21
7.055796299146685
 31
0.0
  0
LINE
  5
536
330
52B
100
AcDbEntity
  8
0
  6
Continuous
 62
     7
370
     0
100
AcDbLine
 10
22.69291471088744
 20
7.395629789383673
 30
0.0
 11
22.69291471088744
 21
6.846508568282862
 31
0.0
  0
LINE
  5
537
330
52B
100
AcDbEntity
  8
0
  6
Continuous
 62
     7
370
     0
100
AcDbLine
 10
20.46412521479613
 20
7.395629789383673
 30
0.0
 11
20.46412521479613
 21
6.846508568282862
 31
0.0
  0
LINE
  5
538
330
52B
100
AcDbEntity
  8
0
  6
Continuous
 62
     7
370
     0
100
AcDbLine
 10
22.69291471088744
 20
6.971508568282863
 30
0.0
 11
21.889780649836
 21
6.971508568282863
 31
0.0
  0
LINE
  5
539
330
52B
100
AcDbEntity
  8
0
  6
Continuous
 62
     7
370
     0
100
AcDbLine
 10
20.46412521479613
 20
6.971508568282863
 30
0.0
 11
20.68032066213289
 21
6.971508568282863
 31
0.0
  0
MTEXT
  5
53A
330
52B
100
AcDbEntity
  8
0
  6
Continuous
 62
     7
370
     0
100
AcDbMText
 10
20.768165768729
 20
7.033480013193821
 30
-0.0000000000000579
 40
0.125
 41
0.0
 71
     1
 72
     1
  1
2.229
  7
SLDTEXTSTYLE0
 73
     1
 44
1.0
  0
MTEXT
  5
53B
330
52B
100
AcDbEntity
  8
0
  6
Continuous
 62
     7
370
     0
100
AcDbMText
 10
21.28505065598444
 20
7.033480013193821
 30
-0.0000000000000579
 40
0.125
 41
0.0
 71
     1
 72
     1
  1
56.61
  7
SLDTEXTSTYLE0
 73
     1
 44
1.0
  0
ENDBLK
  5
52D
330
52B
100
AcDbEntity
  8
0
100
AcDbBlockEnd
  0
BLOCK
  5
53E
330
53D
100
AcDbEntity
  8
0
100
AcDbBlockBegin
  2
*D32
 70
     1
 10
0.0
 20
0.0
 30
0.0
  3
*D32
  1

  0
SOLID
  5
540
330
53D
100
AcDbEntity
  8
0
  6
Continuous
 62
     7
370
     0
100
AcDbTrace
 10
19.19543263573379
 20
10.13582596374291
 30
0.0
 11
19.17543263573379
 21
10.00582596374291
 31
0.0
 12
19.21543263573379
 22
10.00582596374291
 32
0.0
 13
19.21543263573379
 23
10.00582596374291
 33
0.0
  0
SOLID
  5
541
330
53D
100
AcDbEntity
  8
0
  6
Continuous
 62
     7
370
     0
100
AcDbTrace
 10
19.19543263573379
 20
10.70003788613363
 30
0.0
 11
19.21543263573379
 21
10.83003788613363
 31
0.0
 12
19.17543263573379
 22
10.83003788613363
 32
0.0
 13
19.17543263573379
 23
10.83003788613363
 33
0.0
  0
LINE
  5
542
330
53D
100
AcDbEntity
  8
0
  6
Continuous
 62
     7
370
     0
100
AcDbLine
 10
19.09859990900117
 20
10.58806875330704
 30
0.0
 11
19.09859990900117
 21
10.4194932915794
 31
0.0
  0
LINE
  5
543
330
53D
100
AcDbEntity
  8
0
  6
Continuous
 62
     7
370
     0
100
AcDbLine
 10
19.09859990900117
 20
10.4194932915794
 30
0.0
 11
19.12394501559728
 21
10.4194932915794
 31
0.0
  0
LINE
  5
544
330
53D
100
AcDbEntity
  8
0
  6
Continuous
 62
     7
370
     0
100
AcDbLine
 10
19.09859990900117
 20
10.58806875330704
 30
0.0
 11
19.12394501559728
 21
10.58806875330704
 31
0.0
  0
LINE
  5
545
330
53D
100
AcDbEntity
  8
0
  6
Continuous
 62
     7
370
     0
100
AcDbLine
 10
19.61548479625662
 20
10.58806875330704
 30
0.0
 11
19.61548479625662
 21
10.4194932915794
 31
0.0
  0
LINE
  5
546
330
53D
100
AcDbEntity
  8
0
  6
Continuous
 62
     7
370
     0
100
AcDbLine
 10
19.61548479625662
 20
10.4194932915794
 30
0.0
 11
19.59013968966051
 21
10.4194932915794
 31
0.0
  0
LINE
  5
547
330
53D
100
AcDbEntity
  8
0
  6
Continuous
 62
     7
370
     0
100
AcDbLine
 10
19.61548479625662
 20
10.58806875330704
 30
0.0
 11
19.59013968966051
 21
10.58806875330704
 31
0.0
  0
LINE
  5
548
330
53D
100
AcDbEntity
  8
0
  6
Continuous
 62
     7
370
     0
100
AcDbLine
 10
20.81434673449533
 20
10.13582596374291
 30
0.0
 11
19.07043263573379
 21
10.13582596374291
 31
0.0
  0
LINE
  5
549
330
53D
100
AcDbEntity
  8
0
  6
Continuous
 62
     7
370
     0
100
AcDbLine
 10
20.41412521479613
 20
10.70003788613363
 30
0.0
 11
19.07043263573379
 21
10.70003788613363
 31
0.0
  0
LINE
  5
54A
330
53D
100
AcDbEntity
  8
0
  6
Continuous
 62
     7
370
     0
100
AcDbLine
 10
19.19543263573379
 20
10.13582596374291
 30
0.0
 11
19.19543263573379
 21
9.88582596374291
 31
0.0
  0
LINE
  5
54B
330
53D
100
AcDbEntity
  8
0
  6
Continuous
 62
     7
370
     0
100
AcDbLine
 10
19.19543263573379
 20
10.70003788613363
 30
0.0
 11
19.19543263573379
 21
10.95003788613363
 31
0.0
  0
MTEXT
  5
54C
330
53D
100
AcDbEntity
  8
0
  6
Continuous
 62
     7
370
     0
100
AcDbMText
 10
18.72469026201875
 20
10.56575246735417
 30
-0.0000000000000826
 40
0.125
 41
0.0
 71
     1
 72
     1
  1
.564
  7
SLDTEXTSTYLE0
 73
     1
 44
1.0
  0
MTEXT
  5
54D
330
53D
100
AcDbEntity
  8
0
  6
Continuous
 62
     7
370
     0
100
AcDbMText
 10
19.14929012219339
 20
10.56575246735417
 30
-0.0000000000000826
 40
0.125
 41
0.0
 71
     1
 72
     1
  1
14.33
  7
SLDTEXTSTYLE0
 73
     1
 44
1.0
  0
ENDBLK
  5
53F
330
53D
100
AcDbEntity
  8
0
100
AcDbBlockEnd
  0
BLOCK
  5
550
330
54F
100
AcDbEntity
  8
0
100
AcDbBlockBegin
  2
*D33
 70
     1
 10
0.0
 20
0.0
 30
0.0
  3
*D33
  1

  0
SOLID
  5
552
330
54F
100
AcDbEntity
  8
0
  6
Continuous
 62
     7
370
     0
100
AcDbTrace
 10
21.02733886047958
 20
11.47456516960522
 30
0.0
 11
20.89733886047958
 21
11.49456516960522
 31
0.0
 12
20.89733886047958
 22
11.45456516960522
 32
0.0
 13
20.89733886047958
 23
11.45456516960522
 33
0.0
  0
SOLID
  5
553
330
54F
100
AcDbEntity
  8
0
  6
Continuous
 62
     7
370
     0
100
AcDbTrace
 10
20.46412521479613
 20
11.47456516960522
 30
0.0
 11
20.59412521479613
 21
11.45456516960522
 31
0.0
 12
20.59412521479613
 22
11.49456516960522
 32
0.0
 13
20.59412521479613
 23
11.49456516960522
 33
0.0
  0
LINE
  5
554
330
54F
100
AcDbEntity
  8
0
  6
Continuous
 62
     7
370
     0
100
AcDbLine
 10
19.26492622516428
 20
11.55885290046904
 30
0.0
 11
19.26492622516428
 21
11.3902774387414
 31
0.0
  0
LINE
  5
555
330
54F
100
AcDbEntity
  8
0
  6
Continuous
 62
     7
370
     0
100
AcDbLine
 10
19.26492622516428
 20
11.3902774387414
 30
0.0
 11
19.29027133176039
 21
11.3902774387414
 31
0.0
  0
LINE
  5
556
330
54F
100
AcDbEntity
  8
0
  6
Continuous
 62
     7
370
     0
100
AcDbLine
 10
19.26492622516428
 20
11.55885290046904
 30
0.0
 11
19.29027133176039
 21
11.55885290046904
 31
0.0
  0
LINE
  5
557
330
54F
100
AcDbEntity
  8
0
  6
Continuous
 62
     7
370
     0
100
AcDbLine
 10
19.78181111241972
 20
11.55885290046904
 30
0.0
 11
19.78181111241972
 21
11.3902774387414
 31
0.0
  0
LINE
  5
558
330
54F
100
AcDbEntity
  8
0
  6
Continuous
 62
     7
370
     0
100
AcDbLine
 10
19.78181111241972
 20
11.3902774387414
 30
0.0
 11
19.75646600582361
 21
11.3902774387414
 31
0.0
  0
LINE
  5
559
330
54F
100
AcDbEntity
  8
0
  6
Continuous
 62
     7
370
     0
100
AcDbLine
 10
19.78181111241972
 20
11.55885290046904
 30
0.0
 11
19.75646600582361
 21
11.55885290046904
 31
0.0
  0
LINE
  5
55A
330
54F
100
AcDbEntity
  8
0
  6
Continuous
 62
     7
370
     0
100
AcDbLine
 10
21.02733886047958
 20
10.34881808972716
 30
0.0
 11
21.02733886047958
 21
11.59956516960522
 31
0.0
  0
LINE
  5
55B
330
54F
100
AcDbEntity
  8
0
  6
Continuous
 62
     7
370
     0
100
AcDbLine
 10
20.46412521479613
 20
10.75003788613363
 30
0.0
 11
20.46412521479613
 21
11.59956516960522
 31
0.0
  0
LINE
  5
55C
330
54F
100
AcDbEntity
  8
0
  6
Continuous
 62
     7
370
     0
100
AcDbLine
 10
21.02733886047958
 20
11.47456516960522
 30
0.0
 11
20.46412521479613
 21
11.47456516960522
 31
0.0
  0
LINE
  5
55D
330
54F
100
AcDbEntity
  8
0
  6
Continuous
 62
     7
370
     0
100
AcDbLine
 10
20.46412521479613
 20
11.47456516960522
 30
0.0
 11
19.92034643220805
 21
11.47456516960522
 31
0.0
  0
MTEXT
  5
55E
330
54F
100
AcDbEntity
  8
0
  6
Continuous
 62
     7
370
     0
100
AcDbMText
 10
18.89101657818185
 20
11.53653661451617
 30
-0.0000000000000894
 40
0.125
 41
0.0
 71
     1
 72
     1
  1
.563
  7
SLDTEXTSTYLE0
 73
     1
 44
1.0
  0
MTEXT
  5
55F
330
54F
100
AcDbEntity
  8
0
  6
Continuous
 62
     7
370
     0
100
AcDbMText
 10
19.3156164383565
 20
11.53653661451617
 30
-0.0000000000000894
 40
0.125
 41
0.0
 71
     1
 72
     1
  1
14.31
  7
SLDTEXTSTYLE0
 73
     1
 44
1.0
  0
ENDBLK
  5
551
330
54F
100
AcDbEntity
  8
0
100
AcDbBlockEnd
  0
BLOCK
  5
563
330
562
100
AcDbEntity
  8
0
100
AcDbBlockBegin
  2
*D34
 70
     1
 10
0.0
 20
0.0
 30
0.0
  3
*D34
  1

  0
SOLID
  5
565
330
562
100
AcDbEntity
  8
0
  6
Continuous
 62
     7
370
     0
100
AcDbTrace
 10
20.46412521479613
 20
11.91669000410735
 30
0.0
 11
20.33412521479613
 21
11.93669000410735
 31
0.0
 12
20.33412521479613
 22
11.89669000410735
 32
0.0
 13
20.33412521479613
 23
11.89669000410735
 33
0.0
  0
SOLID
  5
566
330
562
100
AcDbEntity
  8
0
  6
Continuous
 62
     7
370
     0
100
AcDbTrace
 10
20.59426799433784
 20
11.91669000410735
 30
0.0
 11
20.72426799433784
 21
11.89669000410735
 31
0.0
 12
20.72426799433784
 22
11.93669000410735
 32
0.0
 13
20.72426799433784
 23
11.93669000410735
 33
0.0
  0
LINE
  5
567
330
562
100
AcDbEntity
  8
0
  6
Continuous
 62
     7
370
     0
100
AcDbLine
 10
19.31106873870468
 20
12.00097773497118
 30
0.0
 11
19.31106873870468
 21
11.83240227324353
 31
0.0
  0
LINE
  5
568
330
562
100
AcDbEntity
  8
0
  6
Continuous
 62
     7
370
     0
100
AcDbLine
 10
19.31106873870468
 20
11.83240227324353
 30
0.0
 11
19.33641384530079
 21
11.83240227324353
 31
0.0
  0
LINE
  5
569
330
562
100
AcDbEntity
  8
0
  6
Continuous
 62
     7
370
     0
100
AcDbLine
 10
19.31106873870468
 20
12.00097773497118
 30
0.0
 11
19.33641384530079
 21
12.00097773497118
 31
0.0
  0
LINE
  5
56A
330
562
100
AcDbEntity
  8
0
  6
Continuous
 62
     7
370
     0
100
AcDbLine
 10
19.73566859887932
 20
12.00097773497118
 30
0.0
 11
19.73566859887932
 21
11.83240227324353
 31
0.0
  0
LINE
  5
56B
330
562
100
AcDbEntity
  8
0
  6
Continuous
 62
     7
370
     0
100
AcDbLine
 10
19.73566859887932
 20
11.83240227324353
 30
0.0
 11
19.71032349228321
 21
11.83240227324353
 31
0.0
  0
LINE
  5
56C
330
562
100
AcDbEntity
  8
0
  6
Continuous
 62
     7
370
     0
100
AcDbLine
 10
19.73566859887932
 20
12.00097773497118
 30
0.0
 11
19.71032349228321
 21
12.00097773497118
 31
0.0
  0
LINE
  5
56D
330
562
100
AcDbEntity
  8
0
  6
Continuous
 62
     7
370
     0
100
AcDbLine
 10
20.46412521479613
 20
10.75003788613363
 30
0.0
 11
20.46412521479613
 21
12.04169000410735
 31
0.0
  0
LINE
  5
56E
330
562
100
AcDbEntity
  8
0
  6
Continuous
 62
     7
370
     0
100
AcDbLine
 10
20.59426799433784
 20
10.15775803468159
 30
0.0
 11
20.59426799433784
 21
12.04169000410735
 31
0.0
  0
LINE
  5
56F
330
562
100
AcDbEntity
  8
0
  6
Continuous
 62
     7
370
     0
100
AcDbLine
 10
20.46412521479613
 20
11.91669000410735
 30
0.0
 11
19.87420391866765
 21
11.91669000410735
 31
0.0
  0
LINE
  5
570
330
562
100
AcDbEntity
  8
0
  6
Continuous
 62
     7
370
     0
100
AcDbLine
 10
20.59426799433784
 20
11.91669000410735
 30
0.0
 11
20.84426799433784
 21
11.91669000410735
 31
0.0
  0
MTEXT
  5
571
330
562
100
AcDbEntity
  8
0
  6
Continuous
 62
     7
370
     0
100
AcDbMText
 10
18.93715909172226
 20
11.97866144901831
 30
-0.0000000000000925
 40
0.125
 41
0.0
 71
     1
 72
     1
  1
.130
  7
SLDTEXTSTYLE0
 73
     1
 44
1.0
  0
MTEXT
  5
572
330
562
100
AcDbEntity
  8
0
  6
Continuous
 62
     7
370
     0
100
AcDbMText
 10
19.3617589518969
 20
11.97866144901831
 30
-0.0000000000000925
 40
0.125
 41
0.0
 71
     1
 72
     1
  1
3.31
  7
SLDTEXTSTYLE0
 73
     1
 44
1.0
  0
ENDBLK
  5
564
330
562
100
AcDbEntity
  8
0
100
AcDbBlockEnd
  0
BLOCK
  5
575
330
574
100
AcDbEntity
  8
0
100
AcDbBlockBegin
  2
*D35
 70
     1
 10
0.0
 20
0.0
 30
0.0
  3
*D35
  1

  0
SOLID
  5
577
330
574
100
AcDbEntity
  8
0
  6
Continuous
 62
     7
370
     0
100
AcDbTrace
 10
23.42672321766483
 20
9.877203240464339
 30
0.0
 11
23.44672321766482
 21
10.00720324046434
 31
0.0
 12
23.40672321766482
 22
10.00720324046434
 32
0.0
 13
23.40672321766482
 23
10.00720324046434
 33
0.0
  0
SOLID
  5
578
330
574
100
AcDbEntity
  8
0
  6
Continuous
 62
     7
370
     0
100
AcDbTrace
 10
23.42672321766483
 20
10.70003788613363
 30
0.0
 11
23.40672321766482
 21
10.57003788613363
 31
0.0
 12
23.44672321766482
 22
10.57003788613363
 32
0.0
 13
23.44672321766482
 23
10.57003788613363
 33
0.0
  0
LINE
  5
579
330
574
100
AcDbEntity
  8
0
  6
Continuous
 62
     7
370
     0
100
AcDbLine
 10
23.32989049093221
 20
10.35010513534255
 30
0.0
 11
23.32989049093221
 21
10.18152967361491
 31
0.0
  0
LINE
  5
57A
330
574
100
AcDbEntity
  8
0
  6
Continuous
 62
     7
370
     0
100
AcDbLine
 10
23.32989049093221
 20
10.18152967361491
 30
0.0
 11
23.35523559752832
 21
10.18152967361491
 31
0.0
  0
LINE
  5
57B
330
574
100
AcDbEntity
  8
0
  6
Continuous
 62
     7
370
     0
100
AcDbLine
 10
23.32989049093221
 20
10.35010513534255
 30
0.0
 11
23.35523559752832
 21
10.35010513534255
 31
0.0
  0
LINE
  5
57C
330
574
100
AcDbEntity
  8
0
  6
Continuous
 62
     7
370
     0
100
AcDbLine
 10
23.84677537818765
 20
10.35010513534255
 30
0.0
 11
23.84677537818765
 21
10.18152967361491
 31
0.0
  0
LINE
  5
57D
330
574
100
AcDbEntity
  8
0
  6
Continuous
 62
     7
370
     0
100
AcDbLine
 10
23.84677537818765
 20
10.18152967361491
 30
0.0
 11
23.82143027159154
 21
10.18152967361491
 31
0.0
  0
LINE
  5
57E
330
574
100
AcDbEntity
  8
0
  6
Continuous
 62
     7
370
     0
100
AcDbLine
 10
23.84677537818765
 20
10.35010513534255
 30
0.0
 11
23.82143027159154
 21
10.35010513534255
 31
0.0
  0
LINE
  5
57F
330
574
100
AcDbEntity
  8
0
  6
Continuous
 62
     7
370
     0
100
AcDbLine
 10
22.84332672556297
 20
9.877203240464339
 30
0.0
 11
23.55172321766482
 21
9.877203240464339
 31
0.0
  0
LINE
  5
580
330
574
100
AcDbEntity
  8
0
  6
Continuous
 62
     7
370
     0
100
AcDbLine
 10
22.74291471088744
 20
10.70003788613363
 30
0.0
 11
23.55172321766482
 21
10.70003788613363
 31
0.0
  0
LINE
  5
581
330
574
100
AcDbEntity
  8
0
  6
Continuous
 62
     7
370
     0
100
AcDbLine
 10
23.42672321766483
 20
9.877203240464339
 30
0.0
 11
23.42672321766483
 21
10.16665536816835
 31
0.0
  0
LINE
  5
582
330
574
100
AcDbEntity
  8
0
  6
Continuous
 62
     7
370
     0
100
AcDbLine
 10
23.42672321766483
 20
10.70003788613363
 30
0.0
 11
23.42672321766483
 21
10.36497944078911
 31
0.0
  0
MTEXT
  5
583
330
574
100
AcDbEntity
  8
0
  6
Continuous
 62
     7
370
     0
100
AcDbMText
 10
22.95598084394978
 20
10.32778884938969
 30
-0.0000000000000809
 40
0.125
 41
0.0
 71
     1
 72
     1
  1
.823
  7
SLDTEXTSTYLE0
 73
     1
 44
1.0
  0
MTEXT
  5
584
330
574
100
AcDbEntity
  8
0
  6
Continuous
 62
     7
370
     0
100
AcDbMText
 10
23.38058070412442
 20
10.32778884938969
 30
-0.0000000000000809
 40
0.125
 41
0.0
 71
     1
 72
     1
  1
20.90
  7
SLDTEXTSTYLE0
 73
     1
 44
1.0
  0
ENDBLK
  5
576
330
574
100
AcDbEntity
  8
0
100
AcDbBlockEnd
  0
BLOCK
  5
586
330
585
100
AcDbEntity
  8
0
100
AcDbBlockBegin
  2
SW_CENTERMARKSYMBOL_0
 70
     0
 10
0.0
 20
0.0
 30
0.0
  3
SW_CENTERMARKSYMBOL_0
  1

  0
LINE
  5
588
330
585
100
AcDbEntity
  8
0
  6
Continuous
 62
     0
370
     0
100
AcDbLine
 10
0.0
 20
0.0
 30
0.0
 11
0.0
 21
0.0999999999999995
 31
0.0
  0
LINE
  5
589
330
585
100
AcDbEntity
  8
0
  6
Continuous
 62
     0
370
     0
100
AcDbLine
 10
0.0
 20
0.0
 30
0.0
 11
-0.0999999999999995
 21
0.0
 31
0.0
  0
LINE
  5
58A
330
585
100
AcDbEntity
  8
0
  6
Continuous
 62
     0
370
     0
100
AcDbLine
 10
0.0
 20
0.0
 30
0.0
 11
0.0
 21
-0.1000000000000006
 31
0.0
  0
LINE
  5
58B
330
585
100
AcDbEntity
  8
0
  6
Continuous
 62
     0
370
     0
100
AcDbLine
 10
0.0
 20
0.0
 30
0.0
 11
0.0999999999999995
 21
0.0
 31
0.0
  0
LINE
  5
58C
330
585
100
AcDbEntity
  8
0
  6
Continuous
 62
     0
370
     0
100
AcDbLine
 10
0.0
 20
0.0999999999999995
 30
0.0
 11
0.0
 21
0.1629921259842522
 31
0.0
  0
LINE
  5
58D
330
585
100
AcDbEntity
  8
0
  6
Continuous
 62
     0
370
     0
100
AcDbLine
 10
-0.0999999999999995
 20
0.0
 30
0.0
 11
-0.1629921259842532
 21
0.0
 31
0.0
  0
LINE
  5
58E
330
585
100
AcDbEntity
  8
0
  6
Continuous
 62
     0
370
     0
100
AcDbLine
 10
0.0
 20
-0.1000000000000006
 30
0.0
 11
0.0
 21
-0.1629921259842522
 31
0.0
  0
LINE
  5
58F
330
585
100
AcDbEntity
  8
0
  6
Continuous
 62
     0
370
     0
100
AcDbLine
 10
0.0999999999999995
 20
0.0
 30
0.0
 11
0.1629921259842532
 21
0.0
 31
0.0
  0
ENDBLK
  5
587
330
585
100
AcDbEntity
  8
0
100
AcDbBlockEnd
  0
BLOCK
  5
592
330
591
100
AcDbEntity
  8
0
100
AcDbBlockBegin
  2
SW_CENTERMARKSYMBOL_1
 70
     0
 10
0.0
 20
0.0
 30
0.0
  3
SW_CENTERMARKSYMBOL_1
  1

  0
LINE
  5
594
330
591
100
AcDbEntity
  8
0
  6
Continuous
 62
     0
370
     0
100
AcDbLine
 10
0.0
 20
0.0
 30
0.0
 11
0.0
 21
0.1000000000000017
 31
0.0
  0
LINE
  5
595
330
591
100
AcDbEntity
  8
0
  6
Continuous
 62
     0
370
     0
100
AcDbLine
 10
0.0
 20
0.0
 30
0.0
 11
-0.0999999999999995
 21
0.0
 31
0.0
  0
LINE
  5
596
330
591
100
AcDbEntity
  8
0
  6
Continuous
 62
     0
370
     0
100
AcDbLine
 10
0.0
 20
0.0
 30
0.0
 11
0.0
 21
-0.0999999999999995
 31
0.0
  0
LINE
  5
597
330
591
100
AcDbEntity
  8
0
  6
Continuous
 62
     0
370
     0
100
AcDbLine
 10
0.0
 20
0.0
 30
0.0
 11
0.0999999999999995
 21
0.0
 31
0.0
  0
LINE
  5
598
330
591
100
AcDbEntity
  8
0
  6
Continuous
 62
     0
370
     0
100
AcDbLine
 10
0.0
 20
0.1000000000000017
 30
0.0
 11
0.0
 21
0.1629921259842532
 31
0.0
  0
LINE
  5
599
330
591
100
AcDbEntity
  8
0
  6
Continuous
 62
     0
370
     0
100
AcDbLine
 10
-0.0999999999999995
 20
0.0
 30
0.0
 11
-0.1629921259842532
 21
0.0
 31
0.0
  0
LINE
  5
59A
330
591
100
AcDbEntity
  8
0
  6
Continuous
 62
     0
370
     0
100
AcDbLine
 10
0.0
 20
-0.0999999999999995
 30
0.0
 11
0.0
 21
-0.1629921259842511
 31
0.0
  0
LINE
  5
59B
330
591
100
AcDbEntity
  8
0
  6
Continuous
 62
     0
370
     0
100
AcDbLine
 10
0.0999999999999995
 20
0.0
 30
0.0
 11
0.1629921259842532
 21
0.0
 31
0.0
  0
ENDBLK
  5
593
330
591
100
AcDbEntity
  8
0
100
AcDbBlockEnd
  0
BLOCK
  5
59E
330
59D
100
AcDbEntity
  8
0
100
AcDbBlockBegin
  2
SW_CENTERMARKSYMBOL_2
 70
     0
 10
0.0
 20
0.0
 30
0.0
  3
SW_CENTERMARKSYMBOL_2
  1

  0
LINE
  5
5A0
330
59D
100
AcDbEntity
  8
0
  6
Continuous
 62
     0
370
     0
100
AcDbLine
 10
0.0
 20
0.0
 30
0.0
 11
0.0
 21
0.0999999999999995
 31
0.0
  0
LINE
  5
5A1
330
59D
100
AcDbEntity
  8
0
  6
Continuous
 62
     0
370
     0
100
AcDbLine
 10
0.0
 20
0.0
 30
0.0
 11
-0.0999999999999995
 21
0.0
 31
0.0
  0
LINE
  5
5A2
330
59D
100
AcDbEntity
  8
0
  6
Continuous
 62
     0
370
     0
100
AcDbLine
 10
0.0
 20
0.0
 30
0.0
 11
0.0
 21
-0.1000000000000017
 31
0.0
  0
LINE
  5
5A3
330
59D
100
AcDbEntity
  8
0
  6
Continuous
 62
     0
370
     0
100
AcDbLine
 10
0.0
 20
0.0
 30
0.0
 11
0.0999999999999995
 21
0.0
 31
0.0
  0
LINE
  5
5A4
330
59D
100
AcDbEntity
  8
0
  6
Continuous
 62
     0
370
     0
100
AcDbLine
 10
0.0
 20
0.0999999999999995
 30
0.0
 11
0.0
 21
0.1629921259842511
 31
0.0
  0
LINE
  5
5A5
330
59D
100
AcDbEntity
  8
0
  6
Continuous
 62
     0
370
     0
100
AcDbLine
 10
-0.0999999999999995
 20
0.0
 30
0.0
 11
-0.1629921259842532
 21
0.0
 31
0.0
  0
LINE
  5
5A6
330
59D
100
AcDbEntity
  8
0
  6
Continuous
 62
     0
370
     0
100
AcDbLine
 10
0.0
 20
-0.1000000000000017
 30
0.0
 11
0.0
 21
-0.1629921259842532
 31
0.0
  0
LINE
  5
5A7
330
59D
100
AcDbEntity
  8
0
  6
Continuous
 62
     0
370
     0
100
AcDbLine
 10
0.0999999999999995
 20
0.0
 30
0.0
 11
0.1629921259842532
 21
0.0
 31
0.0
  0
ENDBLK
  5
59F
330
59D
100
AcDbEntity
  8
0
100
AcDbBlockEnd
  0
BLOCK
  5
5AA
330
5A9
100
AcDbEntity
  8
0
100
AcDbBlockBegin
  2
SW_CENTERMARKSYMBOL_3
 70
     0
 10
0.0
 20
0.0
 30
0.0
  3
SW_CENTERMARKSYMBOL_3
  1

  0
LINE
  5
5AC
330
5A9
100
AcDbEntity
  8
0
  6
Continuous
 62
     0
370
     0
100
AcDbLine
 10
0.0
 20
0.0
 30
0.0
 11
0.0
 21
0.1000000000000006
 31
0.0
  0
LINE
  5
5AD
330
5A9
100
AcDbEntity
  8
0
  6
Continuous
 62
     0
370
     0
100
AcDbLine
 10
0.0
 20
0.0
 30
0.0
 11
-0.0999999999999995
 21
0.0
 31
0.0
  0
LINE
  5
5AE
330
5A9
100
AcDbEntity
  8
0
  6
Continuous
 62
     0
370
     0
100
AcDbLine
 10
0.0
 20
0.0
 30
0.0
 11
0.0
 21
-0.0999999999999995
 31
0.0
  0
LINE
  5
5AF
330
5A9
100
AcDbEntity
  8
0
  6
Continuous
 62
     0
370
     0
100
AcDbLine
 10
0.0
 20
0.0
 30
0.0
 11
0.0999999999999995
 21
0.0
 31
0.0
  0
LINE
  5
5B0
330
5A9
100
AcDbEntity
  8
0
  6
Continuous
 62
     0
370
     0
100
AcDbLine
 10
0.0
 20
0.1000000000000006
 30
0.0
 11
0.0
 21
0.1629921259842522
 31
0.0
  0
LINE
  5
5B1
330
5A9
100
AcDbEntity
  8
0
  6
Continuous
 62
     0
370
     0
100
AcDbLine
 10
-0.0999999999999995
 20
0.0
 30
0.0
 11
-0.1629921259842532
 21
0.0
 31
0.0
  0
LINE
  5
5B2
330
5A9
100
AcDbEntity
  8
0
  6
Continuous
 62
     0
370
     0
100
AcDbLine
 10
0.0
 20
-0.0999999999999995
 30
0.0
 11
0.0
 21
-0.1629921259842511
 31
0.0
  0
LINE
  5
5B3
330
5A9
100
AcDbEntity
  8
0
  6
Continuous
 62
     0
370
     0
100
AcDbLine
 10
0.0999999999999995
 20
0.0
 30
0.0
 11
0.1629921259842532
 21
0.0
 31
0.0
  0
ENDBLK
  5
5AB
330
5A9
100
AcDbEntity
  8
0
100
AcDbBlockEnd
  0
BLOCK
  5
5B6
330
5B5
100
AcDbEntity
  8
0
100
AcDbBlockBegin
  2
SW_CENTERMARKSYMBOL_4
 70
     0
 10
0.0
 20
0.0
 30
0.0
  3
SW_CENTERMARKSYMBOL_4
  1

  0
LINE
  5
5B8
330
5B5
100
AcDbEntity
  8
0
  6
Continuous
 62
     0
370
     0
100
AcDbLine
 10
0.0
 20
0.0
 30
0.0
 11
0.0
 21
0.0999999999999995
 31
0.0
  0
LINE
  5
5B9
330
5B5
100
AcDbEntity
  8
0
  6
Continuous
 62
     0
370
     0
100
AcDbLine
 10
0.0
 20
0.0
 30
0.0
 11
-0.1000000000000038
 21
0.0
 31
0.0
  0
LINE
  5
5BA
330
5B5
100
AcDbEntity
  8
0
  6
Continuous
 62
     0
370
     0
100
AcDbLine
 10
0.0
 20
0.0
 30
0.0
 11
0.0
 21
-0.1000000000000006
 31
0.0
  0
LINE
  5
5BB
330
5B5
100
AcDbEntity
  8
0
  6
Continuous
 62
     0
370
     0
100
AcDbLine
 10
0.0
 20
0.0
 30
0.0
 11
0.0999999999999995
 21
0.0
 31
0.0
  0
LINE
  5
5BC
330
5B5
100
AcDbEntity
  8
0
  6
Continuous
 62
     0
370
     0
100
AcDbLine
 10
0.0
 20
0.199999999999999
 30
0.0
 11
0.0
 21
0.2305547942172537
 31
0.0
  0
LINE
  5
5BD
330
5B5
100
AcDbEntity
  8
0
  6
Continuous
 62
     0
370
     0
100
AcDbLine
 10
-0.2000000000000033
 20
0.0
 30
0.0
 11
-0.2305547942172559
 21
0.0
 31
0.0
  0
LINE
  5
5BE
330
5B5
100
AcDbEntity
  8
0
  6
Continuous
 62
     0
370
     0
100
AcDbLine
 10
0.0
 20
-0.2
 30
0.0
 11
0.0
 21
-0.2305547942172537
 31
0.0
  0
LINE
  5
5BF
330
5B5
100
AcDbEntity
  8
0
  6
Continuous
 62
     0
370
     0
100
AcDbLine
 10
0.199999999999999
 20
0.0
 30
0.0
 11
0.2305547942172515
 21
0.0
 31
0.0
  0
ENDBLK
  5
5B7
330
5B5
100
AcDbEntity
  8
0
100
AcDbBlockEnd
  0
BLOCK
  5
5C2
330
5C1
100
AcDbEntity
  8
0
100
AcDbBlockBegin
  2
SW_CENTERMARKSYMBOL_5
 70
     0
 10
0.0
 20
0.0
 30
0.0
  3
SW_CENTERMARKSYMBOL_5
  1

  0
LINE
  5
5C4
330
5C1
100
AcDbEntity
  8
0
  6
Continuous
 62
     0
370
     0
100
AcDbLine
 10
0.0
 20
0.0
 30
0.0
 11
0.0
 21
0.0999999999999995
 31
0.0
  0
LINE
  5
5C5
330
5C1
100
AcDbEntity
  8
0
  6
Continuous
 62
     0
370
     0
100
AcDbLine
 10
0.0
 20
0.0
 30
0.0
 11
-0.0999999999999995
 21
0.0
 31
0.0
  0
LINE
  5
5C6
330
5C1
100
AcDbEntity
  8
0
  6
Continuous
 62
     0
370
     0
100
AcDbLine
 10
0.0
 20
0.0
 30
0.0
 11
0.0
 21
-0.1000000000000006
 31
0.0
  0
LINE
  5
5C7
330
5C1
100
AcDbEntity
  8
0
  6
Continuous
 62
     0
370
     0
100
AcDbLine
 10
0.0
 20
0.0
 30
0.0
 11
0.0999999999999995
 21
0.0
 31
0.0
  0
LINE
  5
5C8
330
5C1
100
AcDbEntity
  8
0
  6
Continuous
 62
     0
370
     0
100
AcDbLine
 10
0.0
 20
0.199999999999999
 30
0.0
 11
0.0
 21
0.2305547942172537
 31
0.0
  0
LINE
  5
5C9
330
5C1
100
AcDbEntity
  8
0
  6
Continuous
 62
     0
370
     0
100
AcDbLine
 10
-0.199999999999999
 20
0.0
 30
0.0
 11
-0.2305547942172515
 21
0.0
 31
0.0
  0
LINE
  5
5CA
330
5C1
100
AcDbEntity
  8
0
  6
Continuous
 62
     0
370
     0
100
AcDbLine
 10
0.0
 20
-0.2
 30
0.0
 11
0.0
 21
-0.2305547942172537
 31
0.0
  0
LINE
  5
5CB
330
5C1
100
AcDbEntity
  8
0
  6
Continuous
 62
     0
370
     0
100
AcDbLine
 10
0.2000000000000033
 20
0.0
 30
0.0
 11
0.2305547942172559
 21
0.0
 31
0.0
  0
ENDBLK
  5
5C3
330
5C1
100
AcDbEntity
  8
0
100
AcDbBlockEnd
  0
BLOCK
  5
5CE
330
5CD
100
AcDbEntity
  8
0
100
AcDbBlockBegin
  2
SW_CENTERMARKSYMBOL_6
 70
     0
 10
0.0
 20
0.0
 30
0.0
  3
SW_CENTERMARKSYMBOL_6
  1

  0
LINE
  5
5D0
330
5CD
100
AcDbEntity
  8
0
  6
Continuous
 62
     0
370
     0
100
AcDbLine
 10
0.0
 20
0.0
 30
0.0
 11
0.0
 21
0.1000000000000006
 31
0.0
  0
LINE
  5
5D1
330
5CD
100
AcDbEntity
  8
0
  6
Continuous
 62
     0
370
     0
100
AcDbLine
 10
0.0
 20
0.0
 30
0.0
 11
-0.0999999999999995
 21
0.0
 31
0.0
  0
LINE
  5
5D2
330
5CD
100
AcDbEntity
  8
0
  6
Continuous
 62
     0
370
     0
100
AcDbLine
 10
0.0
 20
0.0
 30
0.0
 11
0.0
 21
-0.0999999999999995
 31
0.0
  0
LINE
  5
5D3
330
5CD
100
AcDbEntity
  8
0
  6
Continuous
 62
     0
370
     0
100
AcDbLine
 10
0.0
 20
0.0
 30
0.0
 11
0.0999999999999995
 21
0.0
 31
0.0
  0
LINE
  5
5D4
330
5CD
100
AcDbEntity
  8
0
  6
Continuous
 62
     0
370
     0
100
AcDbLine
 10
0.0
 20
0.2
 30
0.0
 11
0.0
 21
0.2305547942172537
 31
0.0
  0
LINE
  5
5D5
330
5CD
100
AcDbEntity
  8
0
  6
Continuous
 62
     0
370
     0
100
AcDbLine
 10
-0.199999999999999
 20
0.0
 30
0.0
 11
-0.2305547942172515
 21
0.0
 31
0.0
  0
LINE
  5
5D6
330
5CD
100
AcDbEntity
  8
0
  6
Continuous
 62
     0
370
     0
100
AcDbLine
 10
0.0
 20
-0.2
 30
0.0
 11
0.0
 21
-0.2305547942172537
 31
0.0
  0
LINE
  5
5D7
330
5CD
100
AcDbEntity
  8
0
  6
Continuous
 62
     0
370
     0
100
AcDbLine
 10
0.199999999999999
 20
0.0
 30
0.0
 11
0.2305547942172559
 21
0.0
 31
0.0
  0
ENDBLK
  5
5CF
330
5CD
100
AcDbEntity
  8
0
100
AcDbBlockEnd
  0
BLOCK
  5
5DA
330
5D9
100
AcDbEntity
  8
0
100
AcDbBlockBegin
  2
SW_CENTERMARKSYMBOL_7
 70
     0
 10
0.0
 20
0.0
 30
0.0
  3
SW_CENTERMARKSYMBOL_7
  1

  0
LINE
  5
5DC
330
5D9
100
AcDbEntity
  8
0
  6
Continuous
 62
     0
370
     0
100
AcDbLine
 10
0.0
 20
0.0
 30
0.0
 11
0.0
 21
0.0999999999999995
 31
0.0
  0
LINE
  5
5DD
330
5D9
100
AcDbEntity
  8
0
  6
Continuous
 62
     0
370
     0
100
AcDbLine
 10
0.0
 20
0.0
 30
0.0
 11
-0.0999999999999995
 21
0.0
 31
0.0
  0
LINE
  5
5DE
330
5D9
100
AcDbEntity
  8
0
  6
Continuous
 62
     0
370
     0
100
AcDbLine
 10
0.0
 20
0.0
 30
0.0
 11
0.0
 21
-0.0999999999999995
 31
0.0
  0
LINE
  5
5DF
330
5D9
100
AcDbEntity
  8
0
  6
Continuous
 62
     0
370
     0
100
AcDbLine
 10
0.0
 20
0.0
 30
0.0
 11
0.1000000000000038
 21
0.0
 31
0.0
  0
LINE
  5
5E0
330
5D9
100
AcDbEntity
  8
0
  6
Continuous
 62
     0
370
     0
100
AcDbLine
 10
0.0
 20
0.2
 30
0.0
 11
0.0
 21
0.2305547942172537
 31
0.0
  0
LINE
  5
5E1
330
5D9
100
AcDbEntity
  8
0
  6
Continuous
 62
     0
370
     0
100
AcDbLine
 10
-0.199999999999999
 20
0.0
 30
0.0
 11
-0.2305547942172515
 21
0.0
 31
0.0
  0
LINE
  5
5E2
330
5D9
100
AcDbEntity
  8
0
  6
Continuous
 62
     0
370
     0
100
AcDbLine
 10
0.0
 20
-0.2
 30
0.0
 11
0.0
 21
-0.2305547942172537
 31
0.0
  0
LINE
  5
5E3
330
5D9
100
AcDbEntity
  8
0
  6
Continuous
 62
     0
370
     0
100
AcDbLine
 10
0.2000000000000033
 20
0.0
 30
0.0
 11
0.2305547942172559
 21
0.0
 31
0.0
  0
ENDBLK
  5
5DB
330
5D9
100
AcDbEntity
  8
0
100
AcDbBlockEnd
  0
BLOCK
  5
5FA
330
5EF
100
AcDbEntity
  8
0
100
AcDbBlockBegin
  2
*D44
 70
     1
 10
0.0
 20
0.0
 30
0.0
  3
*D44
  1

  0
LINE
  5
5FC
330
5EF
100
AcDbEntity
  8
0
 62
     0
370
    -2
100
AcDbLine
 10
7.980714286691908
 20
4.093927025666618
 30
0.0
 11
6.634125554275925
 21
4.093927025666618
 31
0.0
  0
LINE
  5
5FD
330
5EF
100
AcDbEntity
  8
0
 62
     0
370
    -2
100
AcDbLine
 10
7.980714321600643
 20
2.995501861434513
 30
0.0
 11
6.634125554275925
 21
2.995501861434513
 31
0.0
  0
LINE
  5
5FE
330
5EF
100
AcDbEntity
  8
0
 62
     0
370
    -2
100
AcDbLine
 10
6.759125554275925
 20
3.963927025666618
 30
0.0
 11
6.759125554275925
 21
3.667214443550566
 31
0.0
  0
LINE
  5
5FF
330
5EF
100
AcDbEntity
  8
0
 62
     0
370
    -2
100
AcDbLine
 10
6.759125554275925
 20
3.125501861434513
 30
0.0
 11
6.759125554275925
 21
3.422214443550565
 31
0.0
  0
SOLID
  5
600
330
5EF
100
AcDbEntity
  8
0
 62
     0
100
AcDbTrace
 10
6.737458887609259
 20
3.963927025666618
 30
0.0
 11
6.780792220942592
 21
3.963927025666618
 31
0.0
 12
6.759125554275925
 22
4.093927025666618
 32
0.0
 13
6.759125554275925
 23
4.093927025666618
 33
0.0
  0
SOLID
  5
601
330
5EF
100
AcDbEntity
  8
0
 62
     0
100
AcDbTrace
 10
6.737458887609259
 20
3.125501861434513
 30
0.0
 11
6.780792220942592
 21
3.125501861434513
 31
0.0
 12
6.759125554275925
 22
2.995501861434513
 32
0.0
 13
6.759125554275925
 23
2.995501861434513
 33
0.0
  0
MTEXT
  5
602
330
5EF
100
AcDbEntity
  8
0
 62
     0
100
AcDbMText
 10
6.759125554275924
 20
3.544714443550566
 30
0.0
 40
0.125
 41
0.0
 71
     5
 72
     1
  1
\A1;1.098 [27.90]
 73
     1
 44
1.0
  0
POINT
  5
603
330
5EF
100
AcDbEntity
  8
Defpoints
 62
     0
100
AcDbPoint
 10
8.030714286691909
 20
4.093927025666618
 30
0.0
  0
POINT
  5
604
330
5EF
100
AcDbEntity
  8
Defpoints
 62
     0
100
AcDbPoint
 10
8.030714321600642
 20
2.995501861434513
 30
0.0
  0
POINT
  5
605
330
5EF
100
AcDbEntity
  8
Defpoints
 62
     0
100
AcDbPoint
 10
6.759125554275925
 20
2.995501861434513
 30
0.0
  0
ENDBLK
  5
5FB
330
5EF
100
AcDbEntity
  8
0
100
AcDbBlockEnd
  0
ENDSEC
  0
SECTION
  2
ENTITIES
  0
LINE
  5
62
330
1F
100
AcDbEntity
  8
0
  6
Continuous
 62
     7
370
     0
100
AcDbLine
 10
0.3442516046213063
 20
15.9240731707317
 30
0.0
 11
24.9082516046213
 21
15.9240731707317
 31
0.0
  0
LINE
  5
63
330
1F
100
AcDbEntity
  8
0
  6
Continuous
 62
     7
370
     0
100
AcDbLine
 10
24.9082516046213
 20
0.360073170731707
 30
0.0
 11
24.9082516046213
 21
15.9240731707317
 31
0.0
  0
LINE
  5
64
330
1F
100
AcDbEntity
  8
0
  6
Continuous
 62
     7
370
     0
100
AcDbLine
 10
24.9082516046213
 20
0.360073170731707
 30
0.0
 11
0.3442516046213068
 21
0.360073170731707
 31
0.0
  0
LINE
  5
65
330
1F
100
AcDbEntity
  8
0
  6
Continuous
 62
     7
370
     0
100
AcDbLine
 10
0.3442516046213063
 20
15.9240731707317
 30
0.0
 11
0.3442516046213068
 21
0.360073170731707
 31
0.0
  0
LINE
  5
66
330
1F
100
AcDbEntity
  8
0
  6
Continuous
 62
     7
370
     0
100
AcDbLine
 10
0.2512516046213063
 20
16.0170731707317
 30
0.0
 11
25.0012516046213
 21
16.0170731707317
 31
0.0
  0
LINE
  5
67
330
1F
100
AcDbEntity
  8
0
  6
Continuous
 62
     7
370
     0
100
AcDbLine
 10
25.0012516046213
 20
0.267073170731706
 30
0.0
 11
0.2512516046213063
 21
0.267073170731707
 31
0.0
  0
LINE
  5
68
330
1F
100
AcDbEntity
  8
0
  6
Continuous
 62
     7
370
     0
100
AcDbLine
 10
0.2512516046213063
 20
16.0170731707317
 30
0.0
 11
0.2512516046213063
 21
0.267073170731707
 31
0.0
  0
LINE
  5
69
330
1F
100
AcDbEntity
  8
0
  6
Continuous
 62
     7
370
     0
100
AcDbLine
 10
25.0012516046213
 20
0.267073170731706
 30
0.0
 11
25.0012516046213
 21
16.0170731707317
 31
0.0
  0
LINE
  5
6A
330
1F
100
AcDbEntity
  8
0
  6
Continuous
 62
     7
370
     0
100
AcDbLine
 10
0.3442516046213063
 20
15.3150731707317
 30
0.0
 11
24.9082516046213
 21
15.3150731707317
 31
0.0
  0
LINE
  5
6B
330
1F
100
AcDbEntity
  8
0
  6
Continuous
 62
     7
370
     0
100
AcDbLine
 10
1.469251604621304
 20
15.9240731707317
 30
0.0
 11
1.469251604621303
 21
15.3150731707317
 31
0.0
  0
LINE
  5
6C
330
1F
100
AcDbEntity
  8
0
  6
Continuous
 62
     7
370
     0
100
AcDbLine
 10
11.0332516046213
 20
15.3150731707317
 30
0.0
 11
11.0332516046213
 21
15.9240731707317
 31
0.0
  0
LINE
  5
6D
330
1F
100
AcDbEntity
  8
0
  6
Continuous
 62
     7
370
     0
100
AcDbLine
 10
11.1262516046213
 20
15.3150731707317
 30
0.0
 11
11.1262516046213
 21
15.9240731707317
 31
0.0
  0
LINE
  5
6E
330
1F
100
AcDbEntity
  8
0
  6
Continuous
 62
     7
370
     0
100
AcDbLine
 10
12.2512516046213
 20
15.3150731707317
 30
0.0
 11
12.2512516046213
 21
15.9240731707317
 31
0.0
  0
LINE
  5
6F
330
1F
100
AcDbEntity
  8
0
  6
Continuous
 62
     7
370
     0
100
AcDbLine
 10
21.8152516046213
 20
15.3150731707317
 30
0.0
 11
21.8152516046213
 21
15.9240731707317
 31
0.0
  0
LINE
  5
70
330
1F
100
AcDbEntity
  8
0
  6
Continuous
 62
     7
370
     0
100
AcDbLine
 10
21.9082516046213
 20
15.3150731707317
 30
0.0
 11
21.9082516046213
 21
15.9240731707317
 31
0.0
  0
LINE
  5
71
330
1F
100
AcDbEntity
  8
0
  6
Continuous
 62
     7
370
     0
100
AcDbLine
 10
23.0332516046213
 20
15.3150731707317
 30
0.0
 11
23.0332516046213
 21
15.9240731707317
 31
0.0
  0
MTEXT
  5
73
330
1F
100
AcDbEntity
  8
0
  6
Continuous
 62
     7
370
     0
100
AcDbMText
 10
15.07775838118352
 20
6.345344356724344
 30
0.0
 40
0.125
 41
0.0
 71
     1
 72
     1
  1
VIEW OF BOTTOM HALF
  7
SLDTEXTSTYLE0
 73
     1
 44
1.0
  0
INSERT
  5
79
330
1F
100
AcDbEntity
  8
0
  6
Continuous
 62
     7
370
     0
100
AcDbBlockReference
  2
SW_NOTE_0
 10
20.72260962196009
 20
6.291378813483698
 30
0.0
  0
MTEXT
  5
7A
330
1F
100
AcDbEntity
  8
0
  6
Continuous
 62
     7
370
     0
100
AcDbMText
 10
13.9182096148662
 20
2.75528739039358
 30
0.0
 40
0.125
 41
0.0
 71
     1
 72
     1
  1
END PANEL
  7
SLDTEXTSTYLE0
 73
     1
 44
1.0
  0
INSERT
  5
84
330
1F
100
AcDbEntity
  8
0
  6
Continuous
 62
     7
370
     0
100
AcDbBlockReference
  2
SW_NOTE_1
 10
17.66556822559989
 20
3.420492738240478
 30
0.0
  0
INSERT
  5
8A
330
1F
100
AcDbEntity
  8
0
  6
Continuous
 62
     7
370
     0
100
AcDbBlockReference
  2
SW_NOTE_2
 10
0.60333369952084
 20
15.60171867431539
 30
0.0
  0
INSERT
  5
90
330
1F
100
AcDbEntity
  8
0
  6
Continuous
 62
     7
370
     0
100
AcDbBlockReference
  2
SW_NOTE_3
 10
11.38611183856012
 20
15.59763966192094
 30
0.0
  0
INSERT
  5
96
330
1F
100
AcDbEntity
  8
0
  6
Continuous
 62
     7
370
     0
100
AcDbBlockReference
  2
SW_NOTE_4
 10
21.9355375155424
 20
15.57691558996247
 30
0.0
  0
MTEXT
  5
97
330
1F
100
AcDbEntity
  8
0
  6
Continuous
 62
     7
370
     0
100
AcDbMText
 10
15.91849211978601
 20
15.77343774965945
 30
0.0
 40
0.2916666666666666
 41
0.0
 71
     1
 72
     1
  1
HP-3651-B
  7
SLDTEXTSTYLE0
 73
     1
 44
1.0
  0
MTEXT
  5
98
330
1F
100
AcDbEntity
  8
0
  6
Continuous
 62
     7
370
     0
100
AcDbMText
 10
23.19246250011451
 20
15.77337372561754
 30
0.0
 40
0.2916666666666666
 41
0.0
 71
     1
 72
     1
  1
2-6-2009
  7
SLDTEXTSTYLE0
 73
     1
 44
1.0
  0
MTEXT
  5
99
330
1F
100
AcDbEntity
  8
0
  6
Continuous
 62
     7
370
     0
100
AcDbMText
 10
1.765251525200667
 20
15.77544314185062
 30
0.0
 40
0.2083333333333333
 41
0.0
 71
     1
 72
     1
  1
HAND-HELD PLASTIC BOX, STYLE 2
  7
SLDTEXTSTYLE0
 73
     1
 44
1.0
  0
LINE
  5
9A
330
1F
100
AcDbEntity
  8
0
  6
Continuous
 62
     7
370
    15
100
AcDbLine
 10
7.974864338541942
 20
10.59129212637917
 30
0.0
 11
7.974848718722383
 21
10.59129212637917
 31
0.0
  0
LINE
  5
9B
330
1F
100
AcDbEntity
  8
0
  6
Continuous
 62
     7
370
    15
100
AcDbLine
 10
7.974864338541942
 20
10.5912765798921
 30
0.0
 11
7.974864338541942
 21
10.59129212637917
 31
0.0
  0
LINE
  5
9C
330
1F
100
AcDbEntity
  8
0
  6
Continuous
 62
     7
370
    15
100
AcDbLine
 10
7.992858370673347
 20
6.980698309600387
 30
0.0
 11
7.99162352493839
 21
6.978963042979668
 31
0.0
  0
LWPOLYLINE
  5
9D
330
1F
100
AcDbEntity
  8
0
  6
Continuous
 62
     7
370
    15
100
AcDbPolyline
 90
        3
 70
   128
 43
0.0
 10
10.32611614334711
 20
10.57279767336201
 10
10.326732722891
 20
10.57386363438127
 10
10.32735091574959
 20
10.57453301331521
  0
LINE
  5
9E
330
1F
100
AcDbEntity
  8
0
  6
Continuous
 62
     7
370
    15
100
AcDbLine
 10
10.32735091574959
 20
6.978963042979668
 30
0.0
 11
10.32611614334711
 21
6.980698162935414
 31
0.0
  0
LINE
  5
9F
330
1F
100
AcDbEntity
  8
0
  6
Continuous
 62
     7
370
    15
100
AcDbLine
 10
7.974864338541942
 20
10.59129212637917
 30
0.0
 11
7.99162352493839
 21
10.57453301331521
 31
0.0
  0
LINE
  5
A0
330
1F
100
AcDbEntity
  8
0
  6
Continuous
 62
     7
370
    15
100
AcDbLine
 10
7.99162352493839
 20
10.57453301331521
 30
0.0
 11
7.992858370673347
 21
10.57279796669195
 31
0.0
  0
ARC
  5
A1
330
1F
100
AcDbEntity
  8
0
  6
Continuous
 62
     7
370
    15
100
AcDbCircle
 10
10.31073916211376
 20
10.67005997123313
 30
0.0
 40
0.0984697438098509
100
AcDbArc
 50
269.5961110124491
 51
278.9829236705687
  0
LINE
  5
A2
330
1F
100
AcDbEntity
  8
0
  6
Continuous
 62
     7
370
    15
100
AcDbLine
 10
10.28826015399607
 20
10.45500516744442
 30
0.0
 11
10.28826015399607
 21
7.098459795876316
 31
0.0
  0
ARC
  5
A3
330
1F
100
AcDbEntity
  8
0
  6
Continuous
 62
     7
370
    15
100
AcDbCircle
 10
10.32536352484739
 20
14.43372070198516
 30
0.0
 40
3.978888533865245
100
AcDbArc
 50
269.465705724518
 51
271.7315269751136
  0
LINE
  5
A4
330
1F
100
AcDbEntity
  8
0
  6
Continuous
 62
     7
370
    15
100
AcDbLine
 10
10.44559060316796
 20
10.45664898845486
 30
0.0
 11
10.44559060316796
 21
7.09681590153339
 31
0.0
  0
ARC
  5
A5
330
1F
100
AcDbEntity
  8
0
  6
Continuous
 62
     7
370
    15
100
AcDbCircle
 10
10.32225725157845
 20
2.822632879328239
 30
0.0
 40
4.275962069864635
100
AcDbArc
 50
88.34716478103885
 51
90.45554911347961
  0
LINE
  5
A6
330
1F
100
AcDbEntity
  8
0
  6
Continuous
 62
     7
370
    15
100
AcDbLine
 10
8.030714286691909
 20
10.45500516744442
 30
0.0
 11
10.28826015399607
 21
10.45500516744442
 31
0.0
  0
LINE
  5
A7
330
1F
100
AcDbEntity
  8
0
  6
Continuous
 62
     7
370
    15
100
AcDbLine
 10
10.28826015399607
 20
7.098459795876316
 30
0.0
 11
8.030714286691909
 21
7.098459795876316
 31
0.0
  0
LINE
  5
A8
330
1F
100
AcDbEntity
  8
0
  6
Continuous
 62
     7
370
    15
100
AcDbLine
 10
8.030714286691909
 20
7.098459795876316
 30
0.0
 11
8.030714286691909
 21
10.45500516744442
 31
0.0
  0
LINE
  5
A9
330
1F
100
AcDbEntity
  8
0
  6
Continuous
 62
     7
370
    15
100
AcDbLine
 10
8.076816660780014
 20
10.3515306827905
 30
0.0
 11
8.076816660780014
 21
7.201924380644603
 31
0.0
  0
LINE
  5
AA
330
1F
100
AcDbEntity
  8
0
  6
Continuous
 62
     7
370
    15
100
AcDbLine
 10
8.076816660780014
 20
7.201924380644603
 30
0.0
 11
10.24217097975548
 21
7.201924380644603
 31
0.0
  0
LINE
  5
AB
330
1F
100
AcDbEntity
  8
0
  6
Continuous
 62
     7
370
    15
100
AcDbLine
 10
10.24217097975548
 20
7.201924380644603
 30
0.0
 11
10.24217097975548
 21
10.3515306827905
 31
0.0
  0
LINE
  5
AC
330
1F
100
AcDbEntity
  8
0
  6
Continuous
 62
     7
370
    15
100
AcDbLine
 10
10.24217097975548
 20
10.3515306827905
 30
0.0
 11
8.076816660780014
 21
10.3515306827905
 31
0.0
  0
LINE
  5
AD
330
1F
100
AcDbEntity
  8
0
  6
Continuous
 62
     7
370
    15
100
AcDbLine
 10
8.030714286691909
 20
6.980462032329882
 30
0.0
 11
10.28826015399607
 21
6.980462032329882
 31
0.0
  0
LINE
  5
AE
330
1F
100
AcDbEntity
  8
0
  6
Continuous
 62
     7
370
    15
100
AcDbLine
 10
8.030714286691909
 20
6.980462032329882
 30
0.0
 11
8.030714286691909
 21
7.098459795876316
 31
0.0
  0
LINE
  5
AF
330
1F
100
AcDbEntity
  8
0
  6
Continuous
 62
     7
370
    15
100
AcDbLine
 10
10.28826015399607
 20
7.098459795876316
 30
0.0
 11
10.28826015399607
 21
6.980462032329882
 31
0.0
  0
LINE
  5
B0
330
1F
100
AcDbEntity
  8
0
  6
Continuous
 62
     7
370
    15
100
AcDbLine
 10
10.28826015399607
 20
10.57300300432334
 30
0.0
 11
8.030714286691909
 21
10.57300300432334
 31
0.0
  0
LINE
  5
B1
330
1F
100
AcDbEntity
  8
0
  6
Continuous
 62
     7
370
    15
100
AcDbLine
 10
10.28826015399607
 20
10.57300300432334
 30
0.0
 11
10.28826015399607
 21
10.45500516744442
 31
0.0
  0
LINE
  5
B2
330
1F
100
AcDbEntity
  8
0
  6
Continuous
 62
     7
370
    15
100
AcDbLine
 10
8.030714286691909
 20
10.45500516744442
 30
0.0
 11
8.030714286691909
 21
10.57300300432334
 31
0.0
  0
LINE
  5
B3
330
1F
100
AcDbEntity
  8
0
  6
Continuous
 62
     7
370
    15
100
AcDbLine
 10
7.873383837520016
 20
7.09681590153339
 30
0.0
 11
7.873383837520016
 21
10.45664898845486
 31
0.0
  0
ARC
  5
B4
330
1F
100
AcDbEntity
  8
0
  6
Continuous
 62
     7
370
    15
100
AcDbCircle
 10
7.996704264886256
 20
14.7297857794548
 30
0.0
 40
4.274915901208238
100
AcDbArc
 50
268.3469334752965
 51
270.4558338250752
  0
ARC
  5
B5
330
1F
100
AcDbEntity
  8
0
  6
Continuous
 62
     7
370
    15
100
AcDbCircle
 10
7.99362423961543
 20
3.118646510171921
 30
0.0
 40
3.979986113124183
100
AcDbArc
 50
89.46604489065936
 51
91.73124121482224
  0
LINE
  5
B6
330
1F
100
AcDbEntity
  8
0
  6
Continuous
 62
     7
370
    15
100
AcDbLine
 10
10.31324409204615
 20
6.980071536840919
 30
0.0
 11
10.30773124906432
 21
6.98023704826225
 31
0.0
  0
LWPOLYLINE
  5
B7
330
1F
100
AcDbEntity
  8
0
  6
Continuous
 62
     7
370
    15
100
AcDbPolyline
 90
        3
 70
   128
 43
0.0
 10
10.30773124906432
 20
6.98023704826225
 10
10.29833251763926
 20
6.980405126320599
 10
10.28826015399607
 20
6.980462032329882
  0
ARC
  5
B8
330
1F
100
AcDbEntity
  8
0
  6
Continuous
 62
     7
370
    15
100
AcDbCircle
 10
10.32732941838213
 20
7.0970792494403
 30
0.0
 40
0.1182614780013688
100
AcDbArc
 50
270.127587920724
 51
359.872412079278
  0
LINE
  5
B9
330
1F
100
AcDbEntity
  8
0
  6
Continuous
 62
     7
370
    15
100
AcDbLine
 10
10.32759276628904
 20
6.97881806465447
 30
0.0
 11
10.32735091574959
 21
6.978947496492596
 31
0.0
  0
LINE
  5
BA
330
1F
100
AcDbEntity
  8
0
  6
Continuous
 62
     7
370
    15
100
AcDbLine
 10
10.32693116059863
 20
6.979381991473273
 30
0.0
 11
10.32735091574959
 21
6.978947496492596
 31
0.0
  0
ARC
  5
BB
330
1F
100
AcDbEntity
  8
0
  6
Continuous
 62
     7
370
    15
100
AcDbCircle
 10
10.31134886157822
 20
6.806351515333393
 30
0.0
 40
0.1737302780558539
100
AcDbArc
 50
84.85534691266279
 51
89.37518754224312
  0
LINE
  5
BC
330
1F
100
AcDbEntity
  8
0
  6
Continuous
 62
     7
370
    15
100
AcDbLine
 10
10.32759276628904
 20
10.57464682533378
 30
0.0
 11
10.32735076908461
 21
10.57451746682814
 31
0.0
  0
ARC
  5
BD
330
1F
100
AcDbEntity
  8
0
  6
Continuous
 62
     7
370
    15
100
AcDbCircle
 10
10.3273295958844
 20
10.45638581805022
 30
0.0
 40
0.1182613001044057
100
AcDbArc
 50
0.12750211532015
 51
89.87249788467986
  0
LWPOLYLINE
  5
BE
330
1F
100
AcDbEntity
  8
0
  6
Continuous
 62
     7
370
    15
100
AcDbPolyline
 90
        3
 70
   128
 43
0.0
 10
10.28826015399607
 20
10.57300300432334
 10
10.29833251763926
 20
10.57305991033262
 10
10.30773124906432
 20
10.57322798839097
  0
LINE
  5
BF
330
1F
100
AcDbEntity
  8
0
  6
Continuous
 62
     7
370
    15
100
AcDbLine
 10
10.30773124906432
 20
10.57322798839097
 30
0.0
 11
10.31324409204615
 21
10.57339342647982
 31
0.0
  0
ARC
  5
C0
330
1F
100
AcDbEntity
  8
0
  6
Continuous
 62
     7
370
    15
100
AcDbCircle
 10
10.31134875991032
 20
10.74709699237818
 30
0.0
 40
0.1737138978621532
100
AcDbArc
 50
270.6249049111718
 51
275.1451731744663
  0
LINE
  5
C1
330
1F
100
AcDbEntity
  8
0
  6
Continuous
 62
     7
370
    15
100
AcDbLine
 10
10.32735091574959
 20
10.57451746682814
 30
0.0
 11
10.32693116059863
 21
10.57408304517995
 31
0.0
  0
LINE
  5
C2
330
1F
100
AcDbEntity
  8
0
  6
Continuous
 62
     7
370
    15
100
AcDbLine
 10
7.991381674398935
 20
6.97881806465447
 30
0.0
 11
7.99162352493839
 21
6.978947496492596
 31
0.0
  0
ARC
  5
C3
330
1F
100
AcDbEntity
  8
0
  6
Continuous
 62
     7
370
    15
100
AcDbCircle
 10
7.991645022305844
 20
7.097079249440298
 30
0.0
 40
0.118261478001367
100
AcDbArc
 50
180.1275879207226
 51
269.8724120792785
  0
LWPOLYLINE
  5
C4
330
1F
100
AcDbEntity
  8
0
  6
Continuous
 62
     7
370
    15
100
AcDbPolyline
 90
        3
 70
   128
 43
0.0
 10
8.030714286691909
 20
6.980462032329882
 10
8.020641996381199
 20
6.980405126320599
 10
8.011243338288632
 20
6.98023704826225
  0
LINE
  5
C5
330
1F
100
AcDbEntity
  8
0
  6
Continuous
 62
     7
370
    15
100
AcDbLine
 10
8.011243338288632
 20
6.98023704826225
 30
0.0
 11
8.005730421974313
 21
6.980071536840919
 31
0.0
  0
ARC
  5
C6
330
1F
100
AcDbEntity
  8
0
  6
Continuous
 62
     7
370
    15
100
AcDbCircle
 10
8.007628241370955
 20
6.806301795218761
 30
0.0
 40
0.1737800234580107
100
AcDbArc
 50
90.62548722310138
 51
95.14400918849277
  0
LINE
  5
C7
330
1F
100
AcDbEntity
  8
0
  6
Continuous
 62
     7
370
    15
100
AcDbLine
 10
7.99162352493839
 20
6.978947496492596
 30
0.0
 11
7.992043353421829
 21
6.979381991473273
 31
0.0
  0
LINE
  5
C8
330
1F
100
AcDbEntity
  8
0
  6
Continuous
 62
     7
370
    15
100
AcDbLine
 10
8.005730421974313
 20
10.57339342647982
 30
0.0
 11
8.011243338288632
 21
10.57322798839097
 31
0.0
  0
LWPOLYLINE
  5
C9
330
1F
100
AcDbEntity
  8
0
  6
Continuous
 62
     7
370
    15
100
AcDbPolyline
 90
        3
 70
   128
 43
0.0
 10
8.011243338288632
 20
10.57322798839097
 10
8.020641996381199
 20
10.57305991033262
 10
8.030714286691909
 20
10.57300300432334
  0
ARC
  5
CA
330
1F
100
AcDbEntity
  8
0
  6
Continuous
 62
     7
370
    15
100
AcDbCircle
 10
7.991644844803574
 20
10.45638581805022
 30
0.0
 40
0.1182613001044057
100
AcDbArc
 50
90.12750211531885
 51
179.8724978846798
  0
LINE
  5
CB
330
1F
100
AcDbEntity
  8
0
  6
Continuous
 62
     7
370
    15
100
AcDbLine
 10
7.991381674398935
 20
10.57464682533378
 30
0.0
 11
7.99162352493839
 21
10.57451746682814
 31
0.0
  0
LINE
  5
CC
330
1F
100
AcDbEntity
  8
0
  6
Continuous
 62
     7
370
    15
100
AcDbLine
 10
7.992043353421829
 20
10.57408304517995
 30
0.0
 11
7.99162352493839
 21
10.57451746682814
 31
0.0
  0
ARC
  5
CD
330
1F
100
AcDbEntity
  8
0
  6
Continuous
 62
     7
370
    15
100
AcDbCircle
 10
8.007623389060398
 20
10.74704840675517
 30
0.0
 40
0.1736652893443066
100
AcDbArc
 50
264.8541905468375
 51
269.3757004977585
  0
LWPOLYLINE
  5
CE
330
1F
100
AcDbEntity
  8
0
  6
Continuous
 62
     7
370
    15
100
AcDbPolyline
 90
        3
 70
   128
 43
0.0
 10
8.022005687294392
 20
10.57322798839097
 10
8.015700120136841
 20
10.57324998813683
 10
8.005731155299173
 20
10.57339342647982
  0
LINE
  5
CF
330
1F
100
AcDbEntity
  8
0
  6
Continuous
 62
     7
370
    15
100
AcDbLine
 10
8.022005687294392
 20
10.57322798839097
 30
0.0
 11
10.29696882672607
 21
10.57322798839097
 31
0.0
  0
LWPOLYLINE
  5
D0
330
1F
100
AcDbEntity
  8
0
  6
Continuous
 62
     7
370
    15
100
AcDbPolyline
 90
        3
 70
   128
 43
0.0
 10
10.31324335872129
 20
10.57339342647982
 10
10.30301157025311
 20
10.57324822815716
 10
10.29696882672607
 20
10.57322798839097
  0
LWPOLYLINE
  5
D1
330
1F
100
AcDbEntity
  8
0
  6
Continuous
 62
     7
370
    15
100
AcDbPolyline
 90
        3
 70
   128
 43
0.0
 10
10.29696882672607
 20
6.98023704826225
 10
10.30327454054859
 20
6.980214901851422
 10
10.31324335872129
 20
6.980071463508433
  0
LINE
  5
D2
330
1F
100
AcDbEntity
  8
0
  6
Continuous
 62
     7
370
    15
100
AcDbLine
 10
10.29696882672607
 20
6.98023704826225
 30
0.0
 11
8.022005687294392
 21
6.98023704826225
 31
0.0
  0
LWPOLYLINE
  5
D3
330
1F
100
AcDbEntity
  8
0
  6
Continuous
 62
     7
370
    15
100
AcDbPolyline
 90
        3
 70
   128
 43
0.0
 10
8.005731155299173
 20
6.980071463508433
 10
8.015962870434861
 20
6.980216735163576
 10
8.022005687294392
 20
6.98023704826225
  0
LINE
  5
D4
330
1F
100
AcDbEntity
  8
0
  6
Continuous
 62
     7
370
    15
100
AcDbLine
 10
10.34508212425049
 20
10.59213603663025
 30
0.0
 11
10.32759276628904
 21
10.57464682533378
 31
0.0
  0
ELLIPSE
  5
D5
330
1F
100
AcDbEntity
  8
0
  6
Continuous
 62
     7
370
    15
100
AcDbEllipse
 10
10.34485713257554
 20
10.4739133711578
 30
0.0
 11
0.0836756032569568
 21
0.0836756032569568
 31
0.0
210
0.0
220
0.0
230
0.9999999999999998
 40
0.9980991556472522
 41
5.498738469833211
 42
7.067632144525989
  0
LINE
  5
D6
330
1F
100
AcDbEntity
  8
0
  6
Continuous
 62
     7
370
    15
100
AcDbLine
 10
10.4630799611294
 20
10.47413819975133
 30
0.0
 11
10.44559060316796
 21
10.45664898845486
 31
0.0
  0
LINE
  5
D7
330
1F
100
AcDbEntity
  8
0
  6
Continuous
 62
     7
370
    15
100
AcDbLine
 10
10.4630799611294
 20
7.079326616904431
 30
0.0
 11
10.44559060316796
 21
7.09681590153339
 31
0.0
  0
ELLIPSE
  5
D8
330
1F
100
AcDbEntity
  8
0
  6
Continuous
 62
     7
370
    15
100
AcDbEllipse
 10
10.34485713257554
 20
7.079551548698805
 30
0.0
 11
0.0836756032569568
 21
-0.0836756032569568
 31
0.0
210
0.0
220
0.0
230
0.9999999999999998
 40
0.9980991556472202
 41
5.498738469833195
 42
7.067632144526005
  0
LINE
  5
D9
330
1F
100
AcDbEntity
  8
0
  6
Continuous
 62
     7
370
    15
100
AcDbLine
 10
10.32759276628904
 20
6.97881806465447
 30
0.0
 11
10.34508212425049
 21
6.961328780025512
 31
0.0
  0
LINE
  5
DA
330
1F
100
AcDbEntity
  8
0
  6
Continuous
 62
     7
370
    15
100
AcDbLine
 10
7.855894626223544
 20
10.47413819975133
 30
0.0
 11
7.873383837520016
 21
10.45664898845486
 31
0.0
  0
ELLIPSE
  5
DB
330
1F
100
AcDbEntity
  8
0
  6
Continuous
 62
     7
370
    15
100
AcDbEllipse
 10
7.974117357360646
 20
10.4739133711578
 30
0.0
 11
-0.083675603256955
 21
0.0836756032569586
 31
0.0
210
0.0
220
0.0
230
1.0
 40
0.9980991556472257
 41
5.498738469833219
 42
7.067632144526023
  0
LINE
  5
DC
330
1F
100
AcDbEntity
  8
0
  6
Continuous
 62
     7
370
    15
100
AcDbLine
 10
7.991381674398935
 20
10.57464682533378
 30
0.0
 11
7.973892389769977
 21
10.59213603663025
 31
0.0
  0
LINE
  5
DD
330
1F
100
AcDbEntity
  8
0
  6
Continuous
 62
     7
370
    15
100
AcDbLine
 10
7.973892389769977
 20
6.961328780025512
 30
0.0
 11
7.991381674398935
 21
6.97881806465447
 31
0.0
  0
ELLIPSE
  5
DE
330
1F
100
AcDbEntity
  8
0
  6
Continuous
 62
     7
370
    15
100
AcDbEllipse
 10
7.974117357360646
 20
7.079551548698806
 30
0.0
 11
-0.0836756032569568
 21
-0.0836756032569568
 31
0.0
210
0.0
220
0.0
230
0.9999999999999998
 40
0.9980991556472257
 41
5.498738469833197
 42
7.067632144526002
  0
LINE
  5
DF
330
1F
100
AcDbEntity
  8
0
  6
Continuous
 62
     7
370
    15
100
AcDbLine
 10
7.855894626223544
 20
7.079326616904431
 30
0.0
 11
7.873383837520016
 21
7.09681590153339
 31
0.0
  0
LINE
  5
E0
330
1F
100
AcDbEntity
  8
0
  6
Continuous
 62
     7
370
    15
100
AcDbLine
 10
10.34508212425049
 20
10.59213603663025
 30
0.0
 11
10.34496963221667
 21
10.59213603663025
 31
0.0
  0
LINE
  5
E1
330
1F
100
AcDbEntity
  8
0
  6
Continuous
 62
     7
370
    15
100
AcDbLine
 10
10.34496963221667
 20
10.59213603663025
 30
0.0
 11
10.32735091574959
 21
10.57451746682814
 31
0.0
  0
LINE
  5
E2
330
1F
100
AcDbEntity
  8
0
  6
Continuous
 62
     7
370
    15
100
AcDbLine
 10
7.974004808471306
 20
10.59213603663025
 30
0.0
 11
7.973892389769977
 21
10.59213603663025
 31
0.0
  0
LINE
  5
E3
330
1F
100
AcDbEntity
  8
0
  6
Continuous
 62
     7
370
    15
100
AcDbLine
 10
7.99162352493839
 20
10.57451746682814
 30
0.0
 11
7.974004808471306
 21
10.59213603663025
 31
0.0
  0
LINE
  5
E4
330
1F
100
AcDbEntity
  8
0
  6
Continuous
 62
     7
370
    15
100
AcDbLine
 10
7.973892389769977
 20
6.961328780025512
 30
0.0
 11
7.974004808471306
 21
6.961328780025512
 31
0.0
  0
LINE
  5
E5
330
1F
100
AcDbEntity
  8
0
  6
Continuous
 62
     7
370
    15
100
AcDbLine
 10
7.974004808471306
 20
6.961328780025512
 30
0.0
 11
7.99162352493839
 21
6.978947496492596
 31
0.0
  0
LINE
  5
E6
330
1F
100
AcDbEntity
  8
0
  6
Continuous
 62
     7
370
    15
100
AcDbLine
 10
10.34496963221667
 20
6.961328780025512
 30
0.0
 11
10.34508212425049
 21
6.961328780025512
 31
0.0
  0
LINE
  5
E7
330
1F
100
AcDbEntity
  8
0
  6
Continuous
 62
     7
370
    15
100
AcDbLine
 10
10.32735091574959
 20
6.978947496492596
 30
0.0
 11
10.34496963221667
 21
6.961328780025512
 31
0.0
  0
LINE
  5
E8
330
1F
100
AcDbEntity
  8
0
  6
Continuous
 62
     7
370
    15
100
AcDbLine
 10
10.4630799611294
 20
10.47413819975133
 30
0.0
 11
10.4630799611294
 21
7.079326616904431
 31
0.0
  0
LINE
  5
E9
330
1F
100
AcDbEntity
  8
0
  6
Continuous
 62
     7
370
    15
100
AcDbLine
 10
7.855894626223544
 20
7.079326616904431
 30
0.0
 11
7.855894626223544
 21
10.47413819975133
 31
0.0
  0
DIMENSION
  5
EA
330
1F
100
AcDbEntity
  8
0
  6
Continuous
 62
     7
370
     0
100
AcDbDimension
  2
*D6
 10
6.462073819968766
 20
6.961375598585532
 30
0.0
 11
6.462130777326799
 21
8.801002069484541
 31
0.0
 70
   160
 71
     2
 42
-1.0
  3
SLDDIMSTYLE0
100
AcDbAlignedDimension
 13
7.974004835490926
 23
10.59213612924799
 33
0.0
 14
7.973892420717166
 24
6.96132879060865
 34
0.0
 50
89.99822604410296
100
AcDbRotatedDimension
  0
DIMENSION
  5
FD
330
1F
100
AcDbEntity
  8
0
  6
Continuous
 62
     7
370
     0
100
AcDbDimension
  2
*D7
 10
11.56544307964207
 20
7.201924397989894
 30
0.0
 11
11.56544307964207
 21
8.651693493349927
 31
0.0
 70
   160
  1
<>\PRECESS
 71
     2
 42
-1.0
  3
SLDDIMSTYLE1
100
AcDbAlignedDimension
 13
10.24217098390586
 23
10.35153069720249
 33
0.0
 14
10.24217098390586
 24
7.201924397989894
 34
0.0
 50
90.00000000000019
100
AcDbRotatedDimension
  0
DIMENSION
  5
111
330
1F
100
AcDbEntity
  8
0
  6
Continuous
 62
     7
370
     0
100
AcDbDimension
  2
*D8
 10
8.076816653197198
 20
12.63938120798815
 30
0.0
 11
9.13016742926594
 21
12.63938120798815
 31
0.0
 70
   160
  1
<>\PRECESS
 71
     2
 42
-1.0
  3
SLDDIMSTYLE0
100
AcDbAlignedDimension
 13
10.24217098390586
 23
10.35153069720249
 33
0.0
 14
8.076816653197198
 24
10.35153069720249
 34
0.0
100
AcDbRotatedDimension
  0
DIMENSION
  5
124
330
1F
100
AcDbEntity
  8
0
  6
Continuous
 62
     7
370
     0
100
AcDbDimension
  2
*D9
 10
10.4630798906657
 20
13.82048357019288
 30
0.0
 11
9.130167429265942
 21
13.82048357019288
 31
0.0
 70
   160
 71
     2
 42
-1.0
  3
SLDDIMSTYLE0
100
AcDbAlignedDimension
 13
7.85589459927049
 23
10.47413830780128
 33
0.0
 14
10.4630798906657
 24
10.47413830780128
 34
0.0
100
AcDbRotatedDimension
  0
LINE
  5
136
330
1F
100
AcDbEntity
  8
0
  6
CENTER
 62
     7
370
     0
100
AcDbLine
 10
9.165397314777006
 20
11.71598943301672
 30
0.0
 11
9.165397314777024
 21
6.383289836707522
 31
0.0
  0
LINE
  5
137
330
1F
100
AcDbEntity
  8
0
  6
Continuous
 62
     7
370
     0
100
AcDbLine
 10
9.165397314777006
 20
11.71598943301672
 30
0.0
 11
9.665397314777006
 21
11.71598943301672
 31
0.0
  0
SOLID
  5
138
330
1F
100
AcDbEntity
  8
0
  6
Continuous
 62
     7
370
     0
100
AcDbTrace
 10
9.665397314777006
 20
11.71598943301672
 30
0.0
 11
9.415397314777006
 21
11.75598943301672
 31
0.0
 12
9.415397314777006
 22
11.67598943301672
 32
0.0
 13
9.415397314777006
 23
11.67598943301672
 33
0.0
  0
LINE
  5
139
330
1F
100
AcDbEntity
  8
0
  6
Continuous
 62
     7
370
     0
100
AcDbLine
 10
9.165397314777024
 20
6.383289836707522
 30
0.0
 11
9.665397314777024
 21
6.383289836707525
 31
0.0
  0
SOLID
  5
13A
330
1F
100
AcDbEntity
  8
0
  6
Continuous
 62
     7
370
     0
100
AcDbTrace
 10
9.665397314777024
 20
6.383289836707525
 30
0.0
 11
9.415397314777024
 21
6.423289836707524
 31
0.0
 12
9.415397314777024
 22
6.343289836707524
 32
0.0
 13
9.415397314777024
 23
6.343289836707524
 33
0.0
  0
MTEXT
  5
13B
330
1F
100
AcDbEntity
  8
0
  6
Continuous
 62
     7
100
AcDbMText
 10
9.764559351087385
 20
11.77477676997925
 30
0.0
 40
0.125
 41
0.0
 71
     1
 72
     1
  1
F
  7
SLDTEXTSTYLE0
 73
     1
 44
1.0
  0
MTEXT
  5
13C
330
1F
100
AcDbEntity
  8
0
  6
Continuous
 62
     7
100
AcDbMText
 10
9.764559351087402
 20
6.442077173670053
 30
0.0
 40
0.125
 41
0.0
 71
     1
 72
     1
  1
F
  7
SLDTEXTSTYLE0
 73
     1
 44
1.0
  0
LINE
  5
13D
330
1F
100
AcDbEntity
  8
0
  6
Continuous
 62
     7
370
    15
100
AcDbLine
 10
7.991381674398935
 20
3.146112983228648
 30
0.0
 11
7.974751919840612
 21
3.526997938213146
 31
0.0
  0
LINE
  5
13E
330
1F
100
AcDbEntity
  8
0
  6
Continuous
 62
     7
370
    15
100
AcDbLine
 10
7.974751919840612
 20
3.526997938213146
 30
0.0
 11
7.974864338541942
 21
3.526997938213146
 31
0.0
  0
LINE
  5
13F
330
1F
100
AcDbEntity
  8
0
  6
Continuous
 62
     7
370
    15
100
AcDbLine
 10
7.991381674398935
 20
3.146112983228648
 30
0.0
 11
7.99162352493839
 21
3.143149085801177
 31
0.0
  0
LINE
  5
140
330
1F
100
AcDbEntity
  8
0
  6
Continuous
 62
     7
370
    15
100
AcDbLine
 10
7.99162352493839
 20
3.143149085801177
 30
0.0
 11
7.974864338541942
 21
3.526997938213146
 31
0.0
  0
LINE
  5
141
330
1F
100
AcDbEntity
  8
0
  6
Continuous
 62
     7
370
    15
100
AcDbLine
 10
10.34411017547852
 20
3.526997938213146
 30
0.0
 11
10.34422266751234
 21
3.526997938213146
 31
0.0
  0
LINE
  5
142
330
1F
100
AcDbEntity
  8
0
  6
Continuous
 62
     7
370
    15
100
AcDbLine
 10
10.34422266751234
 20
3.526997938213146
 30
0.0
 11
10.32759276628904
 21
3.146112983228648
 31
0.0
  0
LINE
  5
143
330
1F
100
AcDbEntity
  8
0
  6
Continuous
 62
     7
370
    15
100
AcDbLine
 10
10.32735091574959
 20
3.143149085801177
 30
0.0
 11
10.32759276628904
 21
3.146112983228648
 31
0.0
  0
LINE
  5
144
330
1F
100
AcDbEntity
  8
0
  6
Continuous
 62
     7
370
    15
100
AcDbLine
 10
10.34411017547852
 20
3.526997938213146
 30
0.0
 11
10.32735091574959
 21
3.143149085801177
 31
0.0
  0
LINE
  5
145
330
1F
100
AcDbEntity
  8
0
  6
Continuous
 62
     7
370
    15
100
AcDbLine
 10
7.873383837520016
 20
3.146112983228648
 30
0.0
 11
7.856754082961693
 21
3.526997938213146
 31
0.0
  0
ARC
  5
146
330
1F
100
AcDbEntity
  8
0
  6
Continuous
 62
     7
370
    15
100
AcDbCircle
 10
7.932382755959475
 20
3.823898422403371
 30
0.0
 40
0.6803484209831736
100
AcDbArc
 50
265.0251369039823
 51
274.9748630960193
  0
LINE
  5
147
330
1F
100
AcDbEntity
  8
0
  6
Continuous
 62
     7
370
    15
100
AcDbLine
 10
7.974751919840612
 20
3.526997938213146
 30
0.0
 11
7.856754082961693
 21
3.526997938213146
 31
0.0
  0
LINE
  5
148
330
1F
100
AcDbEntity
  8
0
  6
Continuous
 62
     7
370
    15
100
AcDbLine
 10
10.46222035772628
 20
3.526997938213146
 30
0.0
 11
10.44559060316796
 21
3.146112983228648
 31
0.0
  0
ARC
  5
149
330
1F
100
AcDbEntity
  8
0
  6
Continuous
 62
     7
370
    15
100
AcDbCircle
 10
10.3865916847285
 20
3.8238984224032
 30
0.0
 40
0.6803484209830032
100
AcDbArc
 50
265.0251369039811
 51
274.9748630960206
  0
LINE
  5
14A
330
1F
100
AcDbEntity
  8
0
  6
Continuous
 62
     7
370
    15
100
AcDbLine
 10
10.46222035772628
 20
3.526997938213146
 30
0.0
 11
10.34422266751234
 21
3.526997938213146
 31
0.0
  0
LINE
  5
14B
330
1F
100
AcDbEntity
  8
0
  6
Continuous
 62
     7
370
    15
100
AcDbLine
 10
8.004698560561129
 20
3.52699834154182
 30
0.0
 11
8.004573235342231
 21
3.546682980809854
 31
0.0
  0
LINE
  5
14C
330
1F
100
AcDbEntity
  8
0
  6
Continuous
 62
     7
370
    15
100
AcDbLine
 10
8.004573235342231
 20
3.546682980809854
 30
0.0
 11
8.033059972927674
 21
3.546682980809854
 31
0.0
  0
LINE
  5
14D
330
1F
100
AcDbEntity
  8
0
  6
Continuous
 62
     7
370
    15
100
AcDbLine
 10
8.034799199502646
 20
3.162783070654376
 30
0.0
 11
8.033059972927674
 21
3.546682980809854
 31
0.0
  0
LINE
  5
14E
330
1F
100
AcDbEntity
  8
0
  6
Continuous
 62
     7
370
    15
100
AcDbLine
 10
8.034799199502646
 20
3.162783070654376
 30
0.0
 11
7.998174829257163
 21
3.13150632529934
 31
0.0
  0
LINE
  5
14F
330
1F
100
AcDbEntity
  8
0
  6
Continuous
 62
     7
370
    15
100
AcDbLine
 10
7.998174829257163
 20
3.13150632529934
 30
0.0
 11
7.99235090986891
 21
3.126488357434
 31
0.0
  0
LINE
  5
150
330
1F
100
AcDbEntity
  8
0
  6
Continuous
 62
     7
370
    15
100
AcDbLine
 10
7.974864338541942
 20
3.526997938213146
 30
0.0
 11
8.004687854018145
 21
3.526997938213146
 31
0.0
  0
LINE
  5
151
330
1F
100
AcDbEntity
  8
0
  6
Continuous
 62
     7
370
    15
100
AcDbLine
 10
10.31427588012685
 20
3.526997938213146
 30
0.0
 11
10.31440127867823
 21
3.546682980809854
 31
0.0
  0
LINE
  5
152
330
1F
100
AcDbEntity
  8
0
  6
Continuous
 62
     7
370
    15
100
AcDbLine
 10
10.32662360415155
 20
3.126488311601196
 30
0.0
 11
10.3207996847633
 21
3.131506270299976
 31
0.0
  0
LINE
  5
153
330
1F
100
AcDbEntity
  8
0
  6
Continuous
 62
     7
370
    15
100
AcDbLine
 10
10.3207996847633
 20
3.13150632529934
 30
0.0
 11
10.28417524118533
 21
3.162783070654376
 31
0.0
  0
LINE
  5
154
330
1F
100
AcDbEntity
  8
0
  6
Continuous
 62
     7
370
    15
100
AcDbLine
 10
10.28591454109279
 20
3.546682980809854
 30
0.0
 11
10.28417524118533
 21
3.162783070654376
 31
0.0
  0
LINE
  5
155
330
1F
100
AcDbEntity
  8
0
  6
Continuous
 62
     7
370
    15
100
AcDbLine
 10
10.28591454109279
 20
3.546682980809854
 30
0.0
 11
10.31440127867823
 21
3.546682980809854
 31
0.0
  0
LINE
  5
156
330
1F
100
AcDbEntity
  8
0
  6
Continuous
 62
     7
370
    15
100
AcDbLine
 10
10.31427588012685
 20
3.526997938213146
 30
0.0
 11
10.34411017547852
 21
3.526997938213146
 31
0.0
  0
LINE
  5
157
330
1F
100
AcDbEntity
  8
0
  6
Continuous
 62
     7
370
    15
100
AcDbLine
 10
8.026509475266248
 20
3.093927101917735
 30
0.0
 11
8.030714286691909
 21
3.097697977522925
 31
0.0
  0
ARC
  5
158
330
1F
100
AcDbEntity
  8
0
  6
Continuous
 62
     7
370
    15
100
AcDbCircle
 10
8.024390829161609
 20
3.128030027515113
 30
0.0
 40
0.0341682061274574
100
AcDbArc
 50
202.6605111682697
 51
273.5549832691364
  0
ARC
  5
159
330
1F
100
AcDbEntity
  8
0
  6
Continuous
 62
     7
370
    15
100
AcDbCircle
 10
8.046183848921929
 20
3.145150194712394
 30
0.0
 40
0.049910130652327
100
AcDbArc
 50
195.8648251410004
 51
251.9438826492176
  0
ARC
  5
15A
330
1F
100
AcDbEntity
  8
0
  6
Continuous
 62
     7
370
    15
100
AcDbCircle
 10
10.27291673365428
 20
3.14502889105849
 30
0.0
 40
0.0497557714403016
100
AcDbArc
 50
287.9613087287406
 51
344.2298544510876
  0
ARC
  5
15B
330
1F
100
AcDbEntity
  8
0
  6
Continuous
 62
     7
370
    15
100
AcDbCircle
 10
10.29431680398846
 20
3.12845887298557
 30
0.0
 40
0.0345809647969045
100
AcDbArc
 50
266.9304181007991
 51
336.8540874617989
  0
LINE
  5
15C
330
1F
100
AcDbEntity
  8
0
  6
Continuous
 62
     7
370
    15
100
AcDbLine
 10
10.29246503875421
 20
3.093927083584614
 30
0.0
 11
10.28826015399607
 21
3.097697968356365
 31
0.0
  0
ARC
  5
15D
330
1F
100
AcDbEntity
  8
0
  6
Continuous
 62
     7
370
    15
100
AcDbCircle
 10
10.28826016708433
 20
3.15298218414
 30
0.0
 40
0.1574803227054883
100
AcDbArc
 50
269.9999952381206
 51
357.4999979195272
  0
LINE
  5
15E
330
1F
100
AcDbEntity
  8
0
  6
Continuous
 62
     7
370
    15
100
AcDbLine
 10
10.28826015399607
 20
2.995501861434513
 30
0.0
 11
10.28826015399607
 21
3.093927056084932
 31
0.0
  0
LINE
  5
15F
330
1F
100
AcDbEntity
  8
0
  6
Continuous
 62
     7
370
    15
100
AcDbLine
 10
10.29246503875421
 20
3.093927496079849
 30
0.0
 11
10.28826015399607
 21
3.093927505246409
 31
0.0
  0
LINE
  5
160
330
1F
100
AcDbEntity
  8
0
  6
Continuous
 62
     7
370
    15
100
AcDbLine
 10
10.32735091574959
 20
3.143149076634617
 30
0.0
 11
10.32611614334711
 21
3.11486547003592
 31
0.0
  0
LINE
  5
161
330
1F
100
AcDbEntity
  8
0
  6
Continuous
 62
     7
370
    15
100
AcDbLine
 10
8.030714286691909
 20
3.093927056084932
 30
0.0
 11
8.030714286691909
 21
2.995501861434513
 31
0.0
  0
ARC
  5
162
330
1F
100
AcDbEntity
  8
0
  6
Continuous
 62
     7
370
    15
100
AcDbCircle
 10
8.030714321600642
 20
3.152982234278326
 30
0.0
 40
0.1574803728438175
100
AcDbArc
 50
182.5000195431313
 51
269.9999872992237
  0
LWPOLYLINE
  5
163
330
1F
100
AcDbEntity
  8
0
  6
Continuous
 62
     7
370
    15
100
AcDbPolyline
 90
        3
 70
   128
 43
0.0
 10
8.030714286691909
 20
3.093927486913288
 10
8.028611917645321
 20
3.093927486913288
 10
8.026509475266248
 20
3.093927532746092
  0
LINE
  5
164
330
1F
100
AcDbEntity
  8
0
  6
Continuous
 62
     7
370
    15
100
AcDbLine
 10
7.992858370673347
 20
3.114865479202481
 30
0.0
 11
7.99162352493839
 21
3.143149085801177
 31
0.0
  0
LINE
  5
165
330
1F
100
AcDbEntity
  8
0
  6
Continuous
 62
     7
370
    15
100
AcDbLine
 10
8.030714286691909
 20
3.097697968356365
 30
0.0
 11
8.030714286691909
 21
3.093927056084932
 31
0.0
  0
LINE
  5
166
330
1F
100
AcDbEntity
  8
0
  6
Continuous
 62
     7
370
    15
100
AcDbLine
 10
10.28826015399607
 20
3.093927056084932
 30
0.0
 11
10.28826015399607
 21
3.097697968356365
 31
0.0
  0
LINE
  5
167
330
1F
100
AcDbEntity
  8
0
  6
Continuous
 62
     7
370
    15
100
AcDbLine
 10
10.28826015399607
 20
3.093927056084932
 30
0.0
 11
8.030714286691909
 21
3.093927056084932
 31
0.0
  0
LINE
  5
168
330
1F
100
AcDbEntity
  8
0
  6
Continuous
 62
     7
370
    15
100
AcDbLine
 10
8.030714286691909
 20
2.995501861434513
 30
0.0
 11
10.28826015399607
 21
2.995501861434513
 31
0.0
  0
LINE
  5
169
330
1F
100
AcDbEntity
  8
0
  6
Continuous
 62
     7
370
    15
100
AcDbLine
 10
8.069025524117224
 20
3.130295578452658
 30
0.0
 11
8.030714286691909
 21
3.097697968356365
 31
0.0
  0
LINE
  5
16A
330
1F
100
AcDbEntity
  8
0
  6
Continuous
 62
     7
370
    15
100
AcDbLine
 10
10.24994906323572
 20
3.130295578452658
 30
0.0
 11
8.069025524117224
 21
3.130295578452658
 31
0.0
  0
LINE
  5
16B
330
1F
100
AcDbEntity
  8
0
  6
Continuous
 62
     7
370
    15
100
AcDbLine
 10
10.28826015399607
 20
3.097697968356365
 30
0.0
 11
10.24994906323572
 21
3.130295578452658
 31
0.0
  0
ARC
  5
16C
330
1F
100
AcDbEntity
  8
0
  6
Continuous
 62
     7
370
    15
100
AcDbCircle
 10
10.25176971088067
 20
3.162650196238834
 30
0.0
 40
0.0324058027201399
100
AcDbArc
 50
266.7792687100401
 51
0.2349321389948046
  0
ARC
  5
16D
330
1F
100
AcDbEntity
  8
0
  6
Continuous
 62
     7
370
    15
100
AcDbCircle
 10
8.067061890799461
 20
3.162499703819913
 30
0.0
 40
0.0322639356941544
100
AcDbArc
 50
179.4967776851739
 51
273.4892666540643
  0
LINE
  5
16E
330
1F
100
AcDbEntity
  8
0
  6
Continuous
 62
     7
370
    15
100
AcDbLine
 10
7.899201712603053
 20
3.542745942957518
 30
0.0
 11
7.899201712603053
 21
3.526997938213146
 31
0.0
  0
LINE
  5
16F
330
1F
100
AcDbEntity
  8
0
  6
Continuous
 62
     7
370
    15
100
AcDbLine
 10
10.41977287474989
 20
3.542745942957518
 30
0.0
 11
10.41977287474989
 21
3.526997938213146
 31
0.0
  0
LINE
  5
170
330
1F
100
AcDbEntity
  8
0
  6
Continuous
 62
     7
370
    15
100
AcDbLine
 10
10.34479774086904
 20
3.546682980809854
 30
0.0
 11
10.34496963221667
 21
3.546682980809854
 31
0.0
  0
LINE
  5
171
330
1F
100
AcDbEntity
  8
0
  6
Continuous
 62
     7
370
    15
100
AcDbLine
 10
7.974004808471306
 20
3.546682980809854
 30
0.0
 11
7.974176699818936
 21
3.546682980809854
 31
0.0
  0
LINE
  5
172
330
1F
100
AcDbEntity
  8
0
  6
Continuous
 62
     7
370
    15
100
AcDbLine
 10
10.32667508355686
 20
3.945485060480865
 30
0.0
 11
10.32735868899312
 21
3.946103400004421
 31
0.0
  0
LINE
  5
173
330
1F
100
AcDbEntity
  8
0
  6
Continuous
 62
     7
370
    15
100
AcDbLine
 10
10.28591454109279
 20
3.542745942957518
 30
0.0
 11
10.28563367767068
 21
3.908754431462893
 31
0.0
  0
LINE
  5
174
330
1F
100
AcDbEntity
  8
0
  6
Continuous
 62
     7
370
    15
100
AcDbLine
 10
10.28563367767068
 20
3.908754431462893
 30
0.0
 11
10.32667508355686
 21
3.945485060480865
 31
0.0
  0
LINE
  5
175
330
1F
100
AcDbEntity
  8
0
  6
Continuous
 62
     7
370
    15
100
AcDbLine
 10
10.34496963221667
 20
3.542745942957518
 30
0.0
 11
10.28591454109279
 21
3.542745942957518
 31
0.0
  0
LINE
  5
176
330
1F
100
AcDbEntity
  8
0
  6
Continuous
 62
     7
370
    15
100
AcDbLine
 10
10.32735091574959
 20
3.946279837966195
 30
0.0
 11
10.34496963221667
 21
3.542745942957518
 31
0.0
  0
LINE
  5
177
330
1F
100
AcDbEntity
  8
0
  6
Continuous
 62
     7
370
    15
100
AcDbLine
 10
10.32759276628904
 20
3.943315958871846
 30
0.0
 11
10.32735091574959
 21
3.946279837966195
 31
0.0
  0
LINE
  5
178
330
1F
100
AcDbEntity
  8
0
  6
Continuous
 62
     7
370
    15
100
AcDbLine
 10
10.32759276628904
 20
3.943315958871846
 30
0.0
 11
10.34508212425049
 21
3.542745942957518
 31
0.0
  0
LINE
  5
179
330
1F
100
AcDbEntity
  8
0
  6
Continuous
 62
     7
370
    15
100
AcDbLine
 10
10.34496963221667
 20
3.542745942957518
 30
0.0
 11
10.34508212425049
 21
3.542745942957518
 31
0.0
  0
LINE
  5
17A
330
1F
100
AcDbEntity
  8
0
  6
Continuous
 62
     7
370
    15
100
AcDbLine
 10
10.4630799611294
 20
3.542745942957518
 30
0.0
 11
10.44559060316796
 21
3.943315958871846
 31
0.0
  0
ARC
  5
17B
330
1F
100
AcDbEntity
  8
0
  6
Continuous
 62
     7
370
    15
100
AcDbCircle
 10
10.3865916847285
 20
3.265522022904893
 30
0.0
 40
0.6803568857670212
100
AcDbArc
 50
85.02519895565702
 51
94.97480104434222
  0
LINE
  5
17C
330
1F
100
AcDbEntity
  8
0
  6
Continuous
 62
     7
370
    15
100
AcDbLine
 10
10.4630799611294
 20
3.542745942957518
 30
0.0
 11
10.34508212425049
 21
3.542745942957518
 31
0.0
  0
LINE
  5
17D
330
1F
100
AcDbEntity
  8
0
  6
Continuous
 62
     7
370
    15
100
AcDbLine
 10
7.973892389769977
 20
3.542745942957518
 30
0.0
 11
7.991381674398935
 21
3.943315958871846
 31
0.0
  0
LINE
  5
17E
330
1F
100
AcDbEntity
  8
0
  6
Continuous
 62
     7
370
    15
100
AcDbLine
 10
7.973892389769977
 20
3.542745942957518
 30
0.0
 11
7.855894626223544
 21
3.542745942957518
 31
0.0
  0
LINE
  5
17F
330
1F
100
AcDbEntity
  8
0
  6
Continuous
 62
     7
370
    15
100
AcDbLine
 10
7.855894626223544
 20
3.542745942957518
 30
0.0
 11
7.873383837520016
 21
3.943315958871846
 31
0.0
  0
ARC
  5
180
330
1F
100
AcDbEntity
  8
0
  6
Continuous
 62
     7
370
    15
100
AcDbCircle
 10
7.932382755959475
 20
3.265522022904868
 30
0.0
 40
0.6803568857670457
100
AcDbArc
 50
85.02519895565752
 51
94.97480104434234
  0
LINE
  5
181
330
1F
100
AcDbEntity
  8
0
  6
Continuous
 62
     7
370
    15
100
AcDbLine
 10
7.991381674398935
 20
3.943315958871846
 30
0.0
 11
7.99162352493839
 21
3.946279837966195
 31
0.0
  0
LINE
  5
182
330
1F
100
AcDbEntity
  8
0
  6
Continuous
 62
     7
370
    15
100
AcDbLine
 10
7.974004808471306
 20
3.542745942957518
 30
0.0
 11
7.99162352493839
 21
3.946279837966195
 31
0.0
  0
LINE
  5
183
330
1F
100
AcDbEntity
  8
0
  6
Continuous
 62
     7
370
    15
100
AcDbLine
 10
7.973892389769977
 20
3.542745942957518
 30
0.0
 11
7.974004808471306
 21
3.542745942957518
 31
0.0
  0
LINE
  5
184
330
1F
100
AcDbEntity
  8
0
  6
Continuous
 62
     7
370
    15
100
AcDbLine
 10
7.991615825027341
 20
3.946103400004421
 30
0.0
 11
7.992299430463605
 21
3.945485060480865
 31
0.0
  0
LINE
  5
185
330
1F
100
AcDbEntity
  8
0
  6
Continuous
 62
     7
370
    15
100
AcDbLine
 10
7.992299430463605
 20
3.945485060480865
 30
0.0
 11
8.033340763017296
 21
3.908754431462893
 31
0.0
  0
LINE
  5
186
330
1F
100
AcDbEntity
  8
0
  6
Continuous
 62
     7
370
    15
100
AcDbLine
 10
8.033340763017296
 20
3.908754431462893
 30
0.0
 11
8.033059972927674
 21
3.542745942957518
 31
0.0
  0
LINE
  5
187
330
1F
100
AcDbEntity
  8
0
  6
Continuous
 62
     7
370
    15
100
AcDbLine
 10
8.033059972927674
 20
3.542745942957518
 30
0.0
 11
8.004598315052508
 21
3.542745942957518
 31
0.0
  0
LINE
  5
188
330
1F
100
AcDbEntity
  8
0
  6
Continuous
 62
     7
370
    15
100
AcDbLine
 10
8.004578588613723
 20
3.542745942957518
 30
0.0
 11
7.974004808471306
 21
3.542745942957518
 31
0.0
  0
ARC
  5
189
330
1F
100
AcDbEntity
  8
0
  6
Continuous
 62
     7
370
    15
100
AcDbCircle
 10
8.035008867410368
 20
3.933369118327274
 30
0.0
 40
0.0443947300766524
100
AcDbArc
 50
107.0316057833269
 51
164.1622609486786
  0
ARC
  5
18A
330
1F
100
AcDbEntity
  8
0
  6
Continuous
 62
     7
370
    15
100
AcDbCircle
 10
8.018650548732603
 20
3.947194510077623
 30
0.0
 40
0.0279900067591354
100
AcDbArc
 50
117.4885693979484
 51
161.889243033962
  0
LWPOLYLINE
  5
18B
330
1F
100
AcDbEntity
  8
0
  6
Continuous
 62
     7
370
    15
100
AcDbPolyline
 90
        3
 70
   128
 43
0.0
 10
8.005731155299173
 20
3.972024527228014
 10
8.015962870434861
 20
3.975351622126463
 10
8.022005687294392
 20
3.975816843418854
  0
ARC
  5
18C
330
1F
100
AcDbEntity
  8
0
  6
Continuous
 62
     7
370
    15
100
AcDbCircle
 10
10.28388478640961
 20
3.933289925690043
 30
0.0
 40
0.0444941663874702
100
AcDbArc
 50
15.90742821897828
 51
72.89870504900703
  0
LWPOLYLINE
  5
18D
330
1F
100
AcDbEntity
  8
0
  6
Continuous
 62
     7
370
    15
100
AcDbPolyline
 90
        3
 70
   128
 43
0.0
 10
10.29696882672607
 20
3.975816843418854
 10
10.30327454054859
 20
3.975309235949445
 10
10.31324335872129
 20
3.972024527228014
  0
ARC
  5
18E
330
1F
100
AcDbEntity
  8
0
  6
Continuous
 62
     7
370
    15
100
AcDbCircle
 10
10.30032475701664
 20
3.947195060825664
 30
0.0
 40
0.0279891527529659
100
AcDbArc
 50
18.11014254682029
 51
62.51234796666415
  0
LWPOLYLINE
  5
18F
330
1F
100
AcDbEntity
  8
0
  6
Continuous
 62
     7
370
    15
100
AcDbPolyline
 90
        3
 70
   128
 43
0.0
 10
8.030714286691909
 20
3.98096874390366
 10
8.020641996381199
 20
3.979665552291574
 10
8.011243338288632
 20
3.975816843418854
  0
LINE
  5
190
330
1F
100
AcDbEntity
  8
0
  6
Continuous
 62
     7
370
    15
100
AcDbLine
 10
8.030714286691909
 20
3.98096874390366
 30
0.0
 11
10.28826015399607
 21
3.98096874390366
 31
0.0
  0
LWPOLYLINE
  5
191
330
1F
100
AcDbEntity
  8
0
  6
Continuous
 62
     7
370
    15
100
AcDbPolyline
 90
        3
 70
   128
 43
0.0
 10
10.30773124906432
 20
3.975816843418854
 10
10.29833251763926
 20
3.979665552291574
 10
10.28826015399607
 20
3.98096874390366
  0
LINE
  5
192
330
1F
100
AcDbEntity
  8
0
  6
Continuous
 62
     7
370
    15
100
AcDbLine
 10
10.31324409204615
 20
3.972025773880279
 30
0.0
 11
10.30773124906432
 21
3.975816843418854
 31
0.0
  0
LINE
  5
193
330
1F
100
AcDbEntity
  8
0
  6
Continuous
 62
     7
370
    15
100
AcDbLine
 10
10.29696882672607
 20
3.975816843418854
 30
0.0
 11
8.022005687294392
 21
3.975816843418854
 31
0.0
  0
LINE
  5
194
330
1F
100
AcDbEntity
  8
0
  6
Continuous
 62
     7
370
    15
100
AcDbLine
 10
8.011243338288632
 20
3.975816843418854
 30
0.0
 11
8.005730421974313
 21
3.972025773880279
 31
0.0
  0
ARC
  5
195
330
1F
100
AcDbEntity
  8
0
  6
Continuous
 62
     7
370
    15
100
AcDbCircle
 10
8.03071424314149
 20
3.936446732273856
 30
0.0
 40
0.1574802933927674
100
AcDbArc
 50
89.99998415512751
 51
177.4999880994633
  0
LINE
  5
196
330
1F
100
AcDbEntity
  8
0
  6
Continuous
 62
     7
370
    15
100
AcDbLine
 10
8.030714286691909
 20
3.98096874390366
 30
0.0
 11
8.030714286691909
 21
4.093927025666617
 31
0.0
  0
LINE
  5
197
330
1F
100
AcDbEntity
  8
0
  6
Continuous
 62
     7
370
    15
100
AcDbLine
 10
7.99162352493839
 20
3.946279837966195
 30
0.0
 11
7.992043353421829
 21
3.95589622021026
 31
0.0
  0
LINE
  5
198
330
1F
100
AcDbEntity
  8
0
  6
Continuous
 62
     7
370
    15
100
AcDbLine
 10
10.28826015399607
 20
4.093927025666617
 30
0.0
 11
10.28826015399607
 21
3.98096874390366
 31
0.0
  0
ARC
  5
199
330
1F
100
AcDbEntity
  8
0
  6
Continuous
 62
     7
370
    15
100
AcDbCircle
 10
10.28826025904539
 20
3.936446796516485
 30
0.0
 40
0.1574802291501704
100
AcDbArc
 50
2.49998952548076
 51
90.00003821992725
  0
LINE
  5
19A
330
1F
100
AcDbEntity
  8
0
  6
Continuous
 62
     7
370
    15
100
AcDbLine
 10
10.32693116059863
 20
3.95589622021026
 30
0.0
 11
10.32735091574959
 21
3.946279837966195
 31
0.0
  0
LINE
  5
19B
330
1F
100
AcDbEntity
  8
0
  6
Continuous
 62
     7
370
    15
100
AcDbLine
 10
8.064095674400602
 20
3.938420575423733
 30
0.0
 11
8.022005687294392
 21
3.975816843418854
 31
0.0
  0
ARC
  5
19C
330
1F
100
AcDbEntity
  8
0
  6
Continuous
 62
     7
370
    15
100
AcDbCircle
 10
8.062633416931006
 20
3.90916160809387
 30
0.0
 40
0.0292954837153677
100
AcDbArc
 50
87.13894433641524
 51
180.79637714466
  0
ARC
  5
19D
330
1F
100
AcDbEntity
  8
0
  6
Continuous
 62
     7
370
    15
100
AcDbCircle
 10
10.2564364640377
 20
3.909260551097055
 30
0.0
 40
0.029201599973526
100
AcDbArc
 50
359.0069047235404
 51
93.05777379538096
  0
LINE
  5
19E
330
1F
100
AcDbEntity
  8
0
  6
Continuous
 62
     7
370
    15
100
AcDbLine
 10
10.29696882672607
 20
3.975816843418854
 30
0.0
 11
10.25487876628737
 21
3.938420575423733
 31
0.0
  0
LINE
  5
19F
330
1F
100
AcDbEntity
  8
0
  6
Continuous
 62
     7
370
    15
100
AcDbLine
 10
8.064095674400602
 20
3.938420575423733
 30
0.0
 11
10.25487876628737
 21
3.938420575423733
 31
0.0
  0
LINE
  5
1A0
330
1F
100
AcDbEntity
  8
0
  6
Continuous
 62
     7
370
    15
100
AcDbLine
 10
10.28826015399607
 20
4.093927025666617
 30
0.0
 11
8.030714286691909
 21
4.093927025666617
 31
0.0
  0
LINE
  5
1A1
330
1F
100
AcDbEntity
  8
0
  6
Continuous
 62
     7
370
    15
100
AcDbLine
 10
7.973892389769977
 20
3.542745942957518
 30
0.0
 11
7.973892389769977
 21
3.526997938213146
 31
0.0
  0
LINE
  5
1A2
330
1F
100
AcDbEntity
  8
0
  6
Continuous
 62
     7
370
    15
100
AcDbLine
 10
10.34508212425049
 20
3.542745942957518
 30
0.0
 11
10.34508212425049
 21
3.526997938213146
 31
0.0
  0
LINE
  5
1A3
330
1F
100
AcDbEntity
  8
0
  6
Continuous
 62
     7
370
    15
100
AcDbLine
 10
17.22602165177921
 20
10.20757009182972
 30
0.0
 11
17.25131769289051
 21
10.20757009182972
 31
0.0
  0
LINE
  5
1A4
330
1F
100
AcDbEntity
  8
0
  6
Continuous
 62
     7
370
    15
100
AcDbLine
 10
17.25131769289051
 20
10.20757009182972
 30
0.0
 11
17.25131769289051
 21
7.029819954803802
 31
0.0
  0
LINE
  5
1A5
330
1F
100
AcDbEntity
  8
0
  6
Continuous
 62
     7
370
    15
100
AcDbLine
 10
17.25131769289051
 20
7.029819954803802
 30
0.0
 11
17.22602165177921
 21
7.029819954803802
 31
0.0
  0
LINE
  5
1A6
330
1F
100
AcDbEntity
  8
0
  6
Continuous
 62
     7
370
    15
100
AcDbLine
 10
17.22602165177921
 20
7.029819954803802
 30
0.0
 11
17.22602165177921
 21
10.20757009182972
 31
0.0
  0
LINE
  5
1A7
330
1F
100
AcDbEntity
  8
0
  6
Continuous
 62
     7
370
    15
100
AcDbLine
 10
17.22602165177921
 20
10.20757009182972
 30
0.0
 11
17.222921594258
 21
10.21067000268595
 31
0.0
  0
LINE
  5
1A8
330
1F
100
AcDbEntity
  8
0
  6
Continuous
 62
     7
370
    15
100
AcDbLine
 10
17.222921594258
 20
7.026719970615085
 30
0.0
 11
17.22602165177921
 21
7.029819954803802
 31
0.0
  0
LINE
  5
1A9
330
1F
100
AcDbEntity
  8
0
  6
Continuous
 62
     7
370
    15
100
AcDbLine
 10
17.222921594258
 20
7.026719970615085
 30
0.0
 11
17.222921594258
 21
10.21067000268595
 31
0.0
  0
LINE
  5
1AA
330
1F
100
AcDbEntity
  8
0
  6
Continuous
 62
     7
370
    15
100
AcDbLine
 10
17.25441775041172
 20
10.21067000268595
 30
0.0
 11
17.25131769289051
 21
10.20757009182972
 31
0.0
  0
LINE
  5
1AB
330
1F
100
AcDbEntity
  8
0
  6
Continuous
 62
     7
370
    15
100
AcDbLine
 10
17.222921594258
 20
10.21067000268595
 30
0.0
 11
17.25441775041172
 21
10.21067000268595
 31
0.0
  0
LINE
  5
1AC
330
1F
100
AcDbEntity
  8
0
  6
Continuous
 62
     7
370
    15
100
AcDbLine
 10
14.73694657245359
 20
10.20757009182972
 30
0.0
 11
14.73384658826487
 21
10.21067000268595
 31
0.0
  0
LINE
  5
1AD
330
1F
100
AcDbEntity
  8
0
  6
Continuous
 62
     7
370
    15
100
AcDbLine
 10
14.73694657245359
 20
7.029819954803802
 30
0.0
 11
14.73694657245359
 21
10.20757009182972
 31
0.0
  0
LINE
  5
1AE
330
1F
100
AcDbEntity
  8
0
  6
Continuous
 62
     7
370
    15
100
AcDbLine
 10
14.73384658826487
 20
7.026719970615085
 30
0.0
 11
14.73694657245359
 21
7.029819954803802
 31
0.0
  0
LINE
  5
1AF
330
1F
100
AcDbEntity
  8
0
  6
Continuous
 62
     7
370
    15
100
AcDbLine
 10
14.73384658826487
 20
10.21067000268595
 30
0.0
 11
14.73384658826487
 21
7.026719970615085
 31
0.0
  0
LINE
  5
1B0
330
1F
100
AcDbEntity
  8
0
  6
Continuous
 62
     7
370
    15
100
AcDbLine
 10
14.73384658826487
 20
10.21067000268595
 30
0.0
 11
14.76390718766893
 21
10.21067000268595
 31
0.0
  0
LINE
  5
1B1
330
1F
100
AcDbEntity
  8
0
  6
Continuous
 62
     7
370
    15
100
AcDbLine
 10
14.76390718766893
 20
10.20923444593629
 30
0.0
 11
14.76390718766893
 21
10.21067000268595
 31
0.0
  0
LINE
  5
1B2
330
1F
100
AcDbEntity
  8
0
  6
Continuous
 62
     7
370
    15
100
AcDbLine
 10
14.7622426135649
 20
10.20757009182972
 30
0.0
 11
14.76390718766893
 21
10.20923444593629
 31
0.0
  0
LINE
  5
1B3
330
1F
100
AcDbEntity
  8
0
  6
Continuous
 62
     7
370
    15
100
AcDbLine
 10
14.73694657245359
 20
10.20757009182972
 30
0.0
 11
14.7622426135649
 21
10.20757009182972
 31
0.0
  0
LINE
  5
1B4
330
1F
100
AcDbEntity
  8
0
  6
Continuous
 62
     7
370
    15
100
AcDbLine
 10
14.7622426135649
 20
10.20757009182972
 30
0.0
 11
14.7622426135649
 21
7.029819954803802
 31
0.0
  0
LINE
  5
1B5
330
1F
100
AcDbEntity
  8
0
  6
Continuous
 62
     7
370
    15
100
AcDbLine
 10
14.7622426135649
 20
7.029819954803802
 30
0.0
 11
14.73694657245359
 21
7.029819954803802
 31
0.0
  0
LINE
  5
1B6
330
1F
100
AcDbEntity
  8
0
  6
Continuous
 62
     7
370
    15
100
AcDbLine
 10
17.25131769289051
 20
7.029819954803802
 30
0.0
 11
17.25441775041172
 21
7.026719970615085
 31
0.0
  0
LINE
  5
1B7
330
1F
100
AcDbEntity
  8
0
  6
Continuous
 62
     7
370
    15
100
AcDbLine
 10
17.25441775041172
 20
7.026719970615085
 30
0.0
 11
17.25441775041172
 21
10.21067000268595
 31
0.0
  0
LINE
  5
1B8
330
1F
100
AcDbEntity
  8
0
  6
Continuous
 62
     7
370
    15
100
AcDbLine
 10
17.25441775041172
 20
7.026719970615085
 30
0.0
 11
17.222921594258
 21
7.026719970615085
 31
0.0
  0
LINE
  5
1B9
330
1F
100
AcDbEntity
  8
0
  6
Continuous
 62
     7
370
    15
100
AcDbLine
 10
14.76534259775361
 20
7.026719970615085
 30
0.0
 11
14.7622426135649
 21
7.029819954803802
 31
0.0
  0
LINE
  5
1BA
330
1F
100
AcDbEntity
  8
0
  6
Continuous
 62
     7
370
    15
100
AcDbLine
 10
14.76390718766893
 20
10.19000930802672
 30
0.0
 11
14.76390718766893
 21
10.20923444593629
 31
0.0
  0
LINE
  5
1BB
330
1F
100
AcDbEntity
  8
0
  6
Continuous
 62
     7
370
    15
100
AcDbLine
 10
14.76534259775361
 20
10.19000930802672
 30
0.0
 11
14.76390718766893
 21
10.19000930802672
 31
0.0
  0
LINE
  5
1BC
330
1F
100
AcDbEntity
  8
0
  6
Continuous
 62
     7
370
    15
100
AcDbLine
 10
14.76534259775361
 20
10.19000930802672
 30
0.0
 11
14.76534259775361
 21
7.026719970615085
 31
0.0
  0
LINE
  5
1BD
330
1F
100
AcDbEntity
  8
0
  6
Continuous
 62
     7
370
    15
100
AcDbLine
 10
14.76534259775361
 20
7.026719970615085
 30
0.0
 11
14.73384658826487
 21
7.026719970615085
 31
0.0
  0
LINE
  5
1BE
330
1F
100
AcDbEntity
  8
0
  6
Continuous
 62
     7
370
    15
100
AcDbLine
 10
17.1238379655472
 20
6.957822339859728
 30
0.0
 11
17.14024449601756
 21
6.957822339859728
 31
0.0
  0
LINE
  5
1BF
330
1F
100
AcDbEntity
  8
0
  6
Continuous
 62
     7
370
    15
100
AcDbLine
 10
17.1238379655472
 20
7.007034964684619
 30
0.0
 11
17.1238379655472
 21
6.957822339859728
 31
0.0
  0
LINE
  5
1C0
330
1F
100
AcDbEntity
  8
0
  6
Continuous
 62
     7
370
    15
100
AcDbLine
 10
17.1238379655472
 20
7.007034964684619
 30
0.0
 11
17.14024449601756
 21
7.007034964684619
 31
0.0
  0
LINE
  5
1C1
330
1F
100
AcDbEntity
  8
0
  6
Continuous
 62
     7
370
    15
100
AcDbLine
 10
17.14024449601756
 20
6.957822339859728
 30
0.0
 11
17.14024449601756
 21
7.007034964684619
 31
0.0
  0
LINE
  5
1C2
330
1F
100
AcDbEntity
  8
0
  6
Continuous
 62
     7
370
    15
100
AcDbLine
 10
17.25441775041172
 20
6.921289121894579
 30
0.0
 11
17.25441775041172
 21
7.026719970615085
 31
0.0
  0
ARC
  5
1C3
330
1F
100
AcDbEntity
  8
0
  6
Continuous
 62
     7
370
    15
100
AcDbCircle
 10
17.17975853201147
 20
6.921257589795418
 30
0.0
 40
0.0746592250589969
100
AcDbArc
 50
269.9758012991277
 51
0.0241987008758877
  0
LINE
  5
1C4
330
1F
100
AcDbEntity
  8
0
  6
Continuous
 62
     7
370
    15
100
AcDbLine
 10
17.14904615434005
 20
6.846598371395169
 30
0.0
 11
17.17972699991231
 21
6.846598371395169
 31
0.0
  0
LINE
  5
1C5
330
1F
100
AcDbEntity
  8
0
  6
Continuous
 62
     7
370
    15
100
AcDbLine
 10
17.12055941675461
 20
6.886956245177567
 30
0.0
 11
17.14904615434005
 21
6.846598371395169
 31
0.0
  0
LINE
  5
1C6
330
1F
100
AcDbEntity
  8
0
  6
Continuous
 62
     7
370
    15
100
AcDbLine
 10
17.17961450787849
 20
6.886956245177567
 30
0.0
 11
17.12055941675461
 21
6.886956245177567
 31
0.0
  0
LINE
  5
1C7
330
1F
100
AcDbEntity
  8
0
  6
Continuous
 62
     7
370
    15
100
AcDbLine
 10
17.17961450787849
 20
6.957822339859728
 30
0.0
 11
17.17961450787849
 21
6.886956245177567
 31
0.0
  0
LINE
  5
1C8
330
1F
100
AcDbEntity
  8
0
  6
Continuous
 62
     7
370
    15
100
AcDbLine
 10
17.14024449601756
 20
6.957822339859728
 30
0.0
 11
17.17961450787849
 21
6.957822339859728
 31
0.0
  0
LINE
  5
1C9
330
1F
100
AcDbEntity
  8
0
  6
Continuous
 62
     7
370
    15
100
AcDbLine
 10
17.17961450787849
 20
7.007034964684619
 30
0.0
 11
17.14024449601756
 21
7.007034964684619
 31
0.0
  0
LINE
  5
1CA
330
1F
100
AcDbEntity
  8
0
  6
Continuous
 62
     7
370
    15
100
AcDbLine
 10
17.17961450787849
 20
10.2303550819489
 30
0.0
 11
17.17961450787849
 21
7.007034964684619
 31
0.0
  0
LINE
  5
1CB
330
1F
100
AcDbEntity
  8
0
  6
Continuous
 62
     7
370
    15
100
AcDbLine
 10
17.14024449601756
 20
10.2303550819489
 30
0.0
 11
17.17961450787849
 21
10.2303550819489
 31
0.0
  0
LINE
  5
1CC
330
1F
100
AcDbEntity
  8
0
  6
Continuous
 62
     7
370
    15
100
AcDbLine
 10
17.14024449601756
 20
10.2795676334413
 30
0.0
 11
17.14024449601756
 21
10.2303550819489
 31
0.0
  0
LINE
  5
1CD
330
1F
100
AcDbEntity
  8
0
  6
Continuous
 62
     7
370
    15
100
AcDbLine
 10
17.17961450787849
 20
10.2795676334413
 30
0.0
 11
17.14024449601756
 21
10.2795676334413
 31
0.0
  0
LINE
  5
1CE
330
1F
100
AcDbEntity
  8
0
  6
Continuous
 62
     7
370
    15
100
AcDbLine
 10
17.17961450787849
 20
10.35043380145595
 30
0.0
 11
17.17961450787849
 21
10.2795676334413
 31
0.0
  0
LINE
  5
1CF
330
1F
100
AcDbEntity
  8
0
  6
Continuous
 62
     7
370
    15
100
AcDbLine
 10
17.12055941675461
 20
10.35043380145595
 30
0.0
 11
17.17961450787849
 21
10.35043380145595
 31
0.0
  0
LINE
  5
1D0
330
1F
100
AcDbEntity
  8
0
  6
Continuous
 62
     7
370
    15
100
AcDbLine
 10
17.14904615434005
 20
10.39079160190586
 30
0.0
 11
17.12055941675461
 21
10.35043380145595
 31
0.0
  0
LINE
  5
1D1
330
1F
100
AcDbEntity
  8
0
  6
Continuous
 62
     7
370
    15
100
AcDbLine
 10
17.17972699991231
 20
10.39079160190586
 30
0.0
 11
17.14904615434005
 21
10.39079160190586
 31
0.0
  0
ARC
  5
1D2
330
1F
100
AcDbEntity
  8
0
  6
Continuous
 62
     7
370
    15
100
AcDbCircle
 10
17.17975877496068
 20
10.31613262639229
 30
0.0
 40
0.0746589822753416
100
AcDbArc
 50
359.975502265547
 51
90.02438522687191
  0
LINE
  5
1D3
330
1F
100
AcDbEntity
  8
0
  6
Continuous
 62
     7
370
    15
100
AcDbLine
 10
17.25441775041172
 20
10.21067000268595
 30
0.0
 11
17.25441775041172
 21
10.31610070474148
 31
0.0
  0
LINE
  5
1D4
330
1F
100
AcDbEntity
  8
0
  6
Continuous
 62
     7
370
    15
100
AcDbLine
 10
14.73384658826487
 20
10.31610070474148
 30
0.0
 11
14.73384658826487
 21
10.21067000268595
 31
0.0
  0
ARC
  5
1D5
330
1F
100
AcDbEntity
  8
0
  6
Continuous
 62
     7
370
    15
100
AcDbCircle
 10
14.80850536670208
 20
10.31613282337437
 30
0.0
 40
0.074658785346019
100
AcDbArc
 50
89.97551979138544
 51
180.0246489700681
  0
LINE
  5
1D6
330
1F
100
AcDbEntity
  8
0
  6
Continuous
 62
     7
370
    15
100
AcDbLine
 10
14.83921811100405
 20
10.39079160190586
 30
0.0
 11
14.8085372654318
 21
10.39079160190586
 31
0.0
  0
LINE
  5
1D7
330
1F
100
AcDbEntity
  8
0
  6
Continuous
 62
     7
370
    15
100
AcDbLine
 10
14.86770484858949
 20
10.35043380145595
 30
0.0
 11
14.83921811100405
 21
10.39079160190586
 31
0.0
  0
LINE
  5
1D8
330
1F
100
AcDbEntity
  8
0
  6
Continuous
 62
     7
370
    15
100
AcDbLine
 10
14.80864968413312
 20
10.35043380145595
 30
0.0
 11
14.86770484858949
 21
10.35043380145595
 31
0.0
  0
LINE
  5
1D9
330
1F
100
AcDbEntity
  8
0
  6
Continuous
 62
     7
370
    15
100
AcDbLine
 10
14.80864968413312
 20
10.2795676334413
 30
0.0
 11
14.80864968413312
 21
10.35043380145595
 31
0.0
  0
LINE
  5
1DA
330
1F
100
AcDbEntity
  8
0
  6
Continuous
 62
     7
370
    15
100
AcDbLine
 10
14.84801976932654
 20
10.2795676334413
 30
0.0
 11
14.80864968413312
 21
10.2795676334413
 31
0.0
  0
LINE
  5
1DB
330
1F
100
AcDbEntity
  8
0
  6
Continuous
 62
     7
370
    15
100
AcDbLine
 10
14.84801976932654
 20
10.2303550819489
 30
0.0
 11
14.84801976932654
 21
10.2795676334413
 31
0.0
  0
LINE
  5
1DC
330
1F
100
AcDbEntity
  8
0
  6
Continuous
 62
     7
370
    15
100
AcDbLine
 10
14.80864968413312
 20
10.2303550819489
 30
0.0
 11
14.84801976932654
 21
10.2303550819489
 31
0.0
  0
LINE
  5
1DD
330
1F
100
AcDbEntity
  8
0
  6
Continuous
 62
     7
370
    15
100
AcDbLine
 10
14.80864968413312
 20
7.007034964684619
 30
0.0
 11
14.80864968413312
 21
10.2303550819489
 31
0.0
  0
LINE
  5
1DE
330
1F
100
AcDbEntity
  8
0
  6
Continuous
 62
     7
370
    15
100
AcDbLine
 10
14.84801976932654
 20
7.007034964684619
 30
0.0
 11
14.80864968413312
 21
7.007034964684619
 31
0.0
  0
LINE
  5
1DF
330
1F
100
AcDbEntity
  8
0
  6
Continuous
 62
     7
370
    15
100
AcDbLine
 10
14.84801976932654
 20
7.007034964684619
 30
0.0
 11
14.84801976932654
 21
6.957822339859728
 31
0.0
  0
LINE
  5
1E0
330
1F
100
AcDbEntity
  8
0
  6
Continuous
 62
     7
370
    15
100
AcDbLine
 10
14.80864968413312
 20
6.957822339859728
 30
0.0
 11
14.84801976932654
 21
6.957822339859728
 31
0.0
  0
LINE
  5
1E1
330
1F
100
AcDbEntity
  8
0
  6
Continuous
 62
     7
370
    15
100
AcDbLine
 10
14.80864968413312
 20
6.886956245177567
 30
0.0
 11
14.80864968413312
 21
6.957822339859728
 31
0.0
  0
LINE
  5
1E2
330
1F
100
AcDbEntity
  8
0
  6
Continuous
 62
     7
370
    15
100
AcDbLine
 10
14.86770484858949
 20
6.886956245177567
 30
0.0
 11
14.80864968413312
 21
6.886956245177567
 31
0.0
  0
LINE
  5
1E3
330
1F
100
AcDbEntity
  8
0
  6
Continuous
 62
     7
370
    15
100
AcDbLine
 10
14.83921811100405
 20
6.846598371395169
 30
0.0
 11
14.86770484858949
 21
6.886956245177567
 31
0.0
  0
LINE
  5
1E4
330
1F
100
AcDbEntity
  8
0
  6
Continuous
 62
     7
370
    15
100
AcDbLine
 10
14.8085372654318
 20
6.846598371395169
 30
0.0
 11
14.83921811100405
 21
6.846598371395169
 31
0.0
  0
ARC
  5
1E5
330
1F
100
AcDbEntity
  8
0
  6
Continuous
 62
     7
370
    15
100
AcDbCircle
 10
14.8085055725897
 20
6.921257355751149
 30
0.0
 40
0.0746589910828075
100
AcDbArc
 50
179.9756216099563
 51
270.0243221361709
  0
LINE
  5
1E6
330
1F
100
AcDbEntity
  8
0
  6
Continuous
 62
     7
370
    15
100
AcDbLine
 10
14.73384658826487
 20
7.026719970615085
 30
0.0
 11
14.73384658826487
 21
6.921289121894579
 31
0.0
  0
LINE
  5
1E7
330
1F
100
AcDbEntity
  8
0
  6
Continuous
 62
     7
370
    15
100
AcDbLine
 10
14.84801976932654
 20
7.007034964684619
 30
0.0
 11
14.8644262997969
 21
7.007034964684619
 31
0.0
  0
LINE
  5
1E8
330
1F
100
AcDbEntity
  8
0
  6
Continuous
 62
     7
370
    15
100
AcDbLine
 10
14.8644262997969
 20
6.957822339859728
 30
0.0
 11
14.8644262997969
 21
7.007034964684619
 31
0.0
  0
LINE
  5
1E9
330
1F
100
AcDbEntity
  8
0
  6
Continuous
 62
     7
370
    15
100
AcDbLine
 10
14.84801976932654
 20
6.957822339859728
 30
0.0
 11
14.8644262997969
 21
6.957822339859728
 31
0.0
  0
LINE
  5
1EA
330
1F
100
AcDbEntity
  8
0
  6
Continuous
 62
     7
370
    15
100
AcDbLine
 10
14.82677351476509
 20
7.007034964684619
 30
0.0
 11
14.82677351476509
 21
10.2303550819489
 31
0.0
  0
LINE
  5
1EB
330
1F
100
AcDbEntity
  8
0
  6
Continuous
 62
     7
370
    15
100
AcDbLine
 10
17.14892075578867
 20
6.846598371395169
 30
0.0
 11
17.14904615434005
 21
6.846598371395169
 31
0.0
  0
LINE
  5
1EC
330
1F
100
AcDbEntity
  8
0
  6
Continuous
 62
     7
370
    15
100
AcDbLine
 10
17.14892075578867
 20
6.846598371395169
 30
0.0
 11
17.17875505114034
 21
6.804277826952376
 31
0.0
  0
LINE
  5
1ED
330
1F
100
AcDbEntity
  8
0
  6
Continuous
 62
     7
370
    15
100
AcDbLine
 10
17.17875505114034
 20
6.804277826952376
 30
0.0
 11
17.16126847981337
 21
6.824349661747494
 31
0.0
  0
LINE
  5
1EE
330
1F
100
AcDbEntity
  8
0
  6
Continuous
 62
     7
370
    15
100
AcDbLine
 10
17.16126847981337
 20
6.824349661747494
 30
0.0
 11
17.15544456042512
 21
6.83297128881639
 31
0.0
  0
LINE
  5
1EF
330
1F
100
AcDbEntity
  8
0
  6
Continuous
 62
     7
370
    15
100
AcDbLine
 10
17.15544456042512
 20
6.83297128881639
 30
0.0
 11
17.11882011684715
 21
6.886956245177567
 31
0.0
  0
LINE
  5
1F0
330
1F
100
AcDbEntity
  8
0
  6
Continuous
 62
     7
370
    15
100
AcDbLine
 10
17.12055941675461
 20
6.886956245177567
 30
0.0
 11
17.11882011684715
 21
6.886956245177567
 31
0.0
  0
LINE
  5
1F1
330
1F
100
AcDbEntity
  8
0
  6
Continuous
 62
     7
370
    15
100
AcDbLine
 10
14.8644262997969
 20
10.2795676334413
 30
0.0
 11
14.84801976932654
 21
10.2795676334413
 31
0.0
  0
LINE
  5
1F2
330
1F
100
AcDbEntity
  8
0
  6
Continuous
 62
     7
370
    15
100
AcDbLine
 10
14.8644262997969
 20
10.2303550819489
 30
0.0
 11
14.8644262997969
 21
10.2795676334413
 31
0.0
  0
LINE
  5
1F3
330
1F
100
AcDbEntity
  8
0
  6
Continuous
 62
     7
370
    15
100
AcDbLine
 10
14.8644262997969
 20
10.2303550819489
 30
0.0
 11
14.84801976932654
 21
10.2303550819489
 31
0.0
  0
LINE
  5
1F4
330
1F
100
AcDbEntity
  8
0
  6
Continuous
 62
     7
370
    15
100
AcDbLine
 10
17.1238379655472
 20
10.2795676334413
 30
0.0
 11
17.1238379655472
 21
10.2303550819489
 31
0.0
  0
LINE
  5
1F5
330
1F
100
AcDbEntity
  8
0
  6
Continuous
 62
     7
370
    15
100
AcDbLine
 10
17.14024449601756
 20
10.2795676334413
 30
0.0
 11
17.1238379655472
 21
10.2795676334413
 31
0.0
  0
LINE
  5
1F6
330
1F
100
AcDbEntity
  8
0
  6
Continuous
 62
     7
370
    15
100
AcDbLine
 10
17.14024449601756
 20
10.2303550819489
 30
0.0
 11
17.1238379655472
 21
10.2303550819489
 31
0.0
  0
LINE
  5
1F7
330
1F
100
AcDbEntity
  8
0
  6
Continuous
 62
     7
370
    15
100
AcDbLine
 10
17.16149067724653
 20
10.2303550819489
 30
0.0
 11
17.16149067724653
 21
7.007034964684619
 31
0.0
  0
LINE
  5
1F8
330
1F
100
AcDbEntity
  8
0
  6
Continuous
 62
     7
370
    15
100
AcDbLine
 10
14.83934343622295
 20
6.846598371395169
 30
0.0
 11
14.83921811100405
 21
6.846598371395169
 31
0.0
  0
LINE
  5
1F9
330
1F
100
AcDbEntity
  8
0
  6
Continuous
 62
     7
370
    15
100
AcDbLine
 10
14.86944407516446
 20
6.886956245177567
 30
0.0
 11
14.83281970491898
 21
6.83297128881639
 31
0.0
  0
LINE
  5
1FA
330
1F
100
AcDbEntity
  8
0
  6
Continuous
 62
     7
370
    15
100
AcDbLine
 10
14.83281970491898
 20
6.83297128881639
 30
0.0
 11
14.82699578553073
 21
6.824349661747494
 31
0.0
  0
LINE
  5
1FB
330
1F
100
AcDbEntity
  8
0
  6
Continuous
 62
     7
370
    15
100
AcDbLine
 10
14.82699578553073
 20
6.824349661747494
 30
0.0
 11
14.80950921420376
 21
6.804277826952376
 31
0.0
  0
LINE
  5
1FC
330
1F
100
AcDbEntity
  8
0
  6
Continuous
 62
     7
370
    15
100
AcDbLine
 10
14.80950921420376
 20
6.804277826952376
 30
0.0
 11
14.83933272967996
 21
6.846583191570528
 31
0.0
  0
LINE
  5
1FD
330
1F
100
AcDbEntity
  8
0
  6
Continuous
 62
     7
370
    15
100
AcDbLine
 10
14.86944407516446
 20
6.886956245177567
 30
0.0
 11
14.86770484858949
 21
6.886956245177567
 31
0.0
  0
LINE
  5
1FE
330
1F
100
AcDbEntity
  8
0
  6
Continuous
 62
     7
370
    15
100
AcDbLine
 10
14.83921811100405
 20
10.39079160190586
 30
0.0
 11
14.83934343622295
 21
10.39079160190586
 31
0.0
  0
LINE
  5
1FF
330
1F
100
AcDbEntity
  8
0
  6
Continuous
 62
     7
370
    15
100
AcDbLine
 10
14.83934343622295
 20
10.39079160190586
 30
0.0
 11
14.80950921420376
 21
10.43311207301617
 31
0.0
  0
LINE
  5
200
330
1F
100
AcDbEntity
  8
0
  6
Continuous
 62
     7
370
    15
100
AcDbLine
 10
14.80950921420376
 20
10.43311207301617
 30
0.0
 11
14.82699578553073
 21
10.41304038488602
 31
0.0
  0
LINE
  5
201
330
1F
100
AcDbEntity
  8
0
  6
Continuous
 62
     7
370
    15
100
AcDbLine
 10
14.82699578553073
 20
10.41304038488602
 30
0.0
 11
14.83281970491898
 21
10.40441853781967
 31
0.0
  0
LINE
  5
202
330
1F
100
AcDbEntity
  8
0
  6
Continuous
 62
     7
370
    15
100
AcDbLine
 10
14.83281970491898
 20
10.40441853781967
 30
0.0
 11
14.86944407516446
 21
10.35043380145595
 31
0.0
  0
LINE
  5
203
330
1F
100
AcDbEntity
  8
0
  6
Continuous
 62
     7
370
    15
100
AcDbLine
 10
14.86770484858949
 20
10.35043380145595
 30
0.0
 11
14.86944407516446
 21
10.35043380145595
 31
0.0
  0
LINE
  5
204
330
1F
100
AcDbEntity
  8
0
  6
Continuous
 62
     7
370
    15
100
AcDbLine
 10
17.14892075578867
 20
10.39079160190586
 30
0.0
 11
17.14904615434005
 21
10.39079160190586
 31
0.0
  0
LINE
  5
205
330
1F
100
AcDbEntity
  8
0
  6
Continuous
 62
     7
370
    15
100
AcDbLine
 10
17.11882011684715
 20
10.35043380145595
 30
0.0
 11
17.15544456042512
 21
10.40441853781967
 31
0.0
  0
LINE
  5
206
330
1F
100
AcDbEntity
  8
0
  6
Continuous
 62
     7
370
    15
100
AcDbLine
 10
17.15544456042512
 20
10.40441853781967
 30
0.0
 11
17.16126847981337
 21
10.41304038488602
 31
0.0
  0
LINE
  5
207
330
1F
100
AcDbEntity
  8
0
  6
Continuous
 62
     7
370
    15
100
AcDbLine
 10
17.16126847981337
 20
10.41304038488602
 30
0.0
 11
17.17875505114034
 21
10.43311207301617
 31
0.0
  0
LINE
  5
208
330
1F
100
AcDbEntity
  8
0
  6
Continuous
 62
     7
370
    15
100
AcDbLine
 10
17.17875505114034
 20
10.43311207301617
 30
0.0
 11
17.14892075578867
 21
10.39079160190586
 31
0.0
  0
LINE
  5
209
330
1F
100
AcDbEntity
  8
0
  6
Continuous
 62
     7
370
    15
100
AcDbLine
 10
17.11882011684715
 20
10.35043380145595
 30
0.0
 11
17.12055941675461
 21
10.35043380145595
 31
0.0
  0
ELLIPSE
  5
20A
330
1F
100
AcDbEntity
  8
0
  6
Continuous
 62
     7
370
    15
100
AcDbEllipse
 10
14.80962170040255
 20
6.922373534692392
 30
0.0
 11
-0.0836756032569568
 21
-0.0836756032569568
 31
0.0
210
0.0
220
0.0
230
0.9999999999999998
 40
0.9980991556472311
 41
5.498738469833201
 42
7.067632144526014
  0
LINE
  5
20B
330
1F
100
AcDbEntity
  8
0
  6
Continuous
 62
     7
370
    15
100
AcDbLine
 10
14.69139895862351
 20
6.922148578632728
 30
0.0
 11
14.69139895862351
 21
10.31524124800333
 31
0.0
  0
ELLIPSE
  5
20C
330
1F
100
AcDbEntity
  8
0
  6
Continuous
 62
     7
370
    15
100
AcDbEllipse
 10
14.80962170040255
 20
10.3150164223912
 30
0.0
 11
-0.083675603256955
 21
0.0836756032569568
 31
0.0
210
0.0
220
0.0
230
1.0
 40
0.9980991556472417
 41
5.498738469833217
 42
7.067632144526005
  0
LINE
  5
20D
330
1F
100
AcDbEntity
  8
0
  6
Continuous
 62
     7
370
    15
100
AcDbLine
 10
14.80950921420376
 20
10.43323908488225
 30
0.0
 11
14.80939679550243
 21
10.43323908488225
 31
0.0
  0
LINE
  5
20E
330
1F
100
AcDbEntity
  8
0
  6
Continuous
 62
     7
370
    15
100
AcDbLine
 10
14.80950921420376
 20
10.43311207301617
 30
0.0
 11
14.80950921420376
 21
10.43323908488225
 31
0.0
  0
LINE
  5
20F
330
1F
100
AcDbEntity
  8
0
  6
Continuous
 62
     7
370
    15
100
AcDbLine
 10
14.80950921420376
 20
6.804150741753809
 30
0.0
 11
14.80950921420376
 21
6.804277826952376
 31
0.0
  0
LINE
  5
210
330
1F
100
AcDbEntity
  8
0
  6
Continuous
 62
     7
370
    15
100
AcDbLine
 10
14.80939679550243
 20
6.804150741753809
 30
0.0
 11
14.80950921420376
 21
6.804150741753809
 31
0.0
  0
LWPOLYLINE
  5
211
330
1F
100
AcDbEntity
  8
0
  6
Continuous
 62
     7
370
    15
100
AcDbPolyline
 90
        3
 70
   128
 43
0.0
 10
14.82699578553073
 20
6.824349661747494
 10
14.82742258060036
 20
6.823189101821048
 10
14.82750324633516
 20
6.822642774798931
  0
LINE
  5
212
330
1F
100
AcDbEntity
  8
0
  6
Continuous
 62
     7
370
    15
100
AcDbLine
 10
14.82750324633516
 20
6.822645268103462
 30
0.0
 11
14.82626840060021
 21
6.820910001482744
 31
0.0
  0
LINE
  5
213
330
1F
100
AcDbEntity
  8
0
  6
Continuous
 62
     7
370
    15
100
AcDbLine
 10
14.82626840060021
 20
6.820910001482744
 30
0.0
 11
14.80950921420376
 21
6.804150741753809
 31
0.0
  0
LINE
  5
214
330
1F
100
AcDbEntity
  8
0
  6
Continuous
 62
     7
370
    15
100
AcDbLine
 10
17.17875505114034
 20
10.43323908488225
 30
0.0
 11
17.17875505114034
 21
10.43311207301617
 31
0.0
  0
LWPOLYLINE
  5
215
330
1F
100
AcDbEntity
  8
0
  6
Continuous
 62
     7
370
    15
100
AcDbPolyline
 90
        3
 70
   128
 43
0.0
 10
17.16126847981337
 20
10.41304038488602
 10
17.16084168474375
 20
10.41420079814749
 10
17.16076101900894
 20
10.41474727183459
  0
LWPOLYLINE
  5
216
330
1F
100
AcDbEntity
  8
0
  6
Continuous
 62
     7
370
    15
100
AcDbPolyline
 90
        3
 70
   128
 43
0.0
 10
17.16076101900894
 20
10.41474463186508
 10
17.16137759855282
 20
10.41581059288434
 10
17.16199579141141
 20
10.41647997181829
  0
LINE
  5
217
330
1F
100
AcDbEntity
  8
0
  6
Continuous
 62
     7
370
    15
100
AcDbLine
 10
17.16199579141141
 20
10.41647997181829
 30
0.0
 11
17.17875505114034
 21
10.43323908488225
 31
0.0
  0
ELLIPSE
  5
218
330
1F
100
AcDbEntity
  8
0
  6
Continuous
 62
     7
370
    15
100
AcDbEllipse
 10
17.17864254085727
 20
10.3150164223912
 30
0.0
 11
0.0836756032569568
 21
0.0836756032569568
 31
0.0
210
0.0
220
0.0
230
0.9999999999999998
 40
0.9980991556472417
 41
5.498738469833192
 42
7.067632144525994
  0
LINE
  5
219
330
1F
100
AcDbEntity
  8
0
  6
Continuous
 62
     7
370
    15
100
AcDbLine
 10
17.2968652333881
 20
10.31524124800333
 30
0.0
 11
17.2968652333881
 21
6.922148578632728
 31
0.0
  0
ELLIPSE
  5
21A
330
1F
100
AcDbEntity
  8
0
  6
Continuous
 62
     7
370
    15
100
AcDbEllipse
 10
17.17864254085727
 20
6.922373534692392
 30
0.0
 11
0.0836756032569568
 21
-0.0836756032569568
 31
0.0
210
0.0
220
0.0
230
0.9999999999999998
 40
0.9980991556472149
 41
5.498738469833192
 42
7.067632144526007
  0
LINE
  5
21B
330
1F
100
AcDbEntity
  8
0
  6
Continuous
 62
     7
370
    15
100
AcDbLine
 10
17.17875505114034
 20
6.804150741753809
 30
0.0
 11
17.17886754317416
 21
6.804150741753809
 31
0.0
  0
LINE
  5
21C
330
1F
100
AcDbEntity
  8
0
  6
Continuous
 62
     7
370
    15
100
AcDbLine
 10
17.17875505114034
 20
6.804277826952376
 30
0.0
 11
17.17875505114034
 21
6.804150741753809
 31
0.0
  0
LINE
  5
21D
330
1F
100
AcDbEntity
  8
0
  6
Continuous
 62
     7
370
    15
100
AcDbLine
 10
17.17886754317416
 20
10.43323908488225
 30
0.0
 11
17.17875505114034
 21
10.43323908488225
 31
0.0
  0
LINE
  5
21E
330
1F
100
AcDbEntity
  8
0
  6
Continuous
 62
     7
370
    15
100
AcDbLine
 10
17.17875505114034
 20
6.804150741753809
 30
0.0
 11
17.16199579141141
 21
6.820910001482744
 31
0.0
  0
LINE
  5
21F
330
1F
100
AcDbEntity
  8
0
  6
Continuous
 62
     7
370
    15
100
AcDbLine
 10
17.16199579141141
 20
6.820910001482744
 30
0.0
 11
17.16076101900894
 21
6.82264512143849
 31
0.0
  0
LWPOLYLINE
  5
220
330
1F
100
AcDbEntity
  8
0
  6
Continuous
 62
     7
370
    15
100
AcDbPolyline
 90
        3
 70
   128
 43
0.0
 10
17.16076101900894
 20
6.822642774798931
 10
17.1611828274695
 20
6.824374594792799
 10
17.16126847981337
 20
6.824349661747494
  0
LINE
  5
221
330
1F
100
AcDbEntity
  8
0
  6
Continuous
 62
     7
370
    15
100
AcDbLine
 10
14.80950921420376
 20
10.43323908488225
 30
0.0
 11
14.82626840060021
 21
10.41647997181829
 31
0.0
  0
LINE
  5
222
330
1F
100
AcDbEntity
  8
0
  6
Continuous
 62
     7
370
    15
100
AcDbLine
 10
14.82626840060021
 20
10.41647997181829
 30
0.0
 11
14.82750324633516
 21
10.41474492519503
 31
0.0
  0
LWPOLYLINE
  5
223
330
1F
100
AcDbEntity
  8
0
  6
Continuous
 62
     7
370
    15
100
AcDbPolyline
 90
        3
 70
   128
 43
0.0
 10
14.82750324633516
 20
10.41474727183459
 10
14.82708151120708
 20
10.41301545184072
 10
14.82699578553073
 20
10.41304038488602
  0
CIRCLE
  5
224
330
1F
100
AcDbEntity
  8
0
  6
Continuous
 62
     7
370
    15
100
AcDbCircle
 10
15.00988015212597
 20
9.423268390541224
 30
0.0
 40
0.1075197681980704
  0
CIRCLE
  5
225
330
1F
100
AcDbEntity
  8
0
  6
Continuous
 62
     7
370
    15
100
AcDbCircle
 10
15.00988015212597
 20
9.423268390541224
 30
0.0
 40
0.0590551181102352
  0
CIRCLE
  5
226
330
1F
100
AcDbEntity
  8
0
  6
Continuous
 62
     7
370
    15
100
AcDbCircle
 10
15.00988015212597
 20
9.423268390541224
 30
0.0
 40
0.1131889763779341
  0
CIRCLE
  5
227
330
1F
100
AcDbEntity
  8
0
  6
Continuous
 62
     7
370
    15
100
AcDbCircle
 10
16.97838408913385
 20
7.814121566542355
 30
0.0
 40
0.1075197681980811
  0
CIRCLE
  5
228
330
1F
100
AcDbEntity
  8
0
  6
Continuous
 62
     7
370
    15
100
AcDbCircle
 10
16.97838408913385
 20
7.814121566542355
 30
0.0
 40
0.1131889763779448
  0
CIRCLE
  5
229
330
1F
100
AcDbEntity
  8
0
  6
Continuous
 62
     7
370
    15
100
AcDbCircle
 10
16.97838408913385
 20
7.814121566542355
 30
0.0
 40
0.059055118110237
  0
CIRCLE
  5
22A
330
1F
100
AcDbEntity
  8
0
  6
Continuous
 62
     7
370
    15
100
AcDbCircle
 10
15.00988015212598
 20
7.81412156654235
 30
0.0
 40
0.1075197681980722
  0
CIRCLE
  5
22B
330
1F
100
AcDbEntity
  8
0
  6
Continuous
 62
     7
370
    15
100
AcDbCircle
 10
15.00988015212598
 20
7.81412156654235
 30
0.0
 40
0.0590551181102352
  0
CIRCLE
  5
22C
330
1F
100
AcDbEntity
  8
0
  6
Continuous
 62
     7
370
    15
100
AcDbCircle
 10
16.97838408913385
 20
9.423268390541224
 30
0.0
 40
0.1075197681980811
  0
CIRCLE
  5
22D
330
1F
100
AcDbEntity
  8
0
  6
Continuous
 62
     7
370
    15
100
AcDbCircle
 10
16.97838408913385
 20
9.423268390541224
 30
0.0
 40
0.1131889763779448
  0
CIRCLE
  5
22E
330
1F
100
AcDbEntity
  8
0
  6
Continuous
 62
     7
370
    15
100
AcDbCircle
 10
15.00988015212598
 20
7.81412156654235
 30
0.0
 40
0.1131889763779359
  0
CIRCLE
  5
22F
330
1F
100
AcDbEntity
  8
0
  6
Continuous
 62
     7
370
    15
100
AcDbCircle
 10
16.97838408913385
 20
9.423268390541224
 30
0.0
 40
0.059055118110237
  0
CIRCLE
  5
230
330
1F
100
AcDbEntity
  8
0
  6
Continuous
 62
     7
370
    15
100
AcDbCircle
 10
16.54531322299212
 20
7.555702852557536
 30
0.0
 40
0.0953327640910722
  0
CIRCLE
  5
231
330
1F
100
AcDbEntity
  8
0
  6
Continuous
 62
     7
370
    15
100
AcDbCircle
 10
16.54531322299212
 20
7.555702852557536
 30
0.0
 40
0.0492125984251972
  0
CIRCLE
  5
232
330
1F
100
AcDbEntity
  8
0
  6
Continuous
 62
     7
370
    15
100
AcDbCircle
 10
15.4429510182677
 20
7.555702852557534
 30
0.0
 40
0.0953327640910189
  0
CIRCLE
  5
233
330
1F
100
AcDbEntity
  8
0
  6
Continuous
 62
     7
370
    15
100
AcDbCircle
 10
15.4429510182677
 20
7.555702852557534
 30
0.0
 40
0.0984251968504086
  0
CIRCLE
  5
234
330
1F
100
AcDbEntity
  8
0
  6
Continuous
 62
     7
370
    15
100
AcDbCircle
 10
16.54531322299212
 20
9.681687104526039
 30
0.0
 40
0.0953327640910722
  0
CIRCLE
  5
235
330
1F
100
AcDbEntity
  8
0
  6
Continuous
 62
     7
370
    15
100
AcDbCircle
 10
16.54531322299212
 20
9.681687104526039
 30
0.0
 40
0.0984251968504602
  0
CIRCLE
  5
236
330
1F
100
AcDbEntity
  8
0
  6
Continuous
 62
     7
370
    15
100
AcDbCircle
 10
15.4429510182677
 20
7.555702852557534
 30
0.0
 40
0.0492125984251963
  0
CIRCLE
  5
237
330
1F
100
AcDbEntity
  8
0
  6
Continuous
 62
     7
370
    15
100
AcDbCircle
 10
16.54531322299212
 20
7.555702852557536
 30
0.0
 40
0.0984251968504602
  0
CIRCLE
  5
238
330
1F
100
AcDbEntity
  8
0
  6
Continuous
 62
     7
370
    15
100
AcDbCircle
 10
16.54531322299212
 20
9.681687104526041
 30
0.0
 40
0.0492125984251999
  0
CIRCLE
  5
239
330
1F
100
AcDbEntity
  8
0
  6
Continuous
 62
     7
370
    15
100
AcDbCircle
 10
15.4429510182677
 20
9.681687104526039
 30
0.0
 40
0.0953327640910189
  0
CIRCLE
  5
23A
330
1F
100
AcDbEntity
  8
0
  6
Continuous
 62
     7
370
    15
100
AcDbCircle
 10
15.4429510182677
 20
9.681687104526039
 30
0.0
 40
0.0984251968504086
  0
CIRCLE
  5
23B
330
1F
100
AcDbEntity
  8
0
  6
Continuous
 62
     7
370
    15
100
AcDbCircle
 10
15.4429510182677
 20
9.681687104526039
 30
0.0
 40
0.0492125984251963
  0
CIRCLE
  5
23C
330
1F
100
AcDbEntity
  8
0
  6
Continuous
 62
     7
370
    15
100
AcDbCircle
 10
16.54531322299212
 20
7.555702852557536
 30
0.0
 40
0.0442913385826778
  0
CIRCLE
  5
23D
330
1F
100
AcDbEntity
  8
0
  6
Continuous
 62
     7
370
    15
100
AcDbCircle
 10
15.4429510182677
 20
7.555702852557534
 30
0.0
 40
0.044291338582676
  0
CIRCLE
  5
23E
330
1F
100
AcDbEntity
  8
0
  6
Continuous
 62
     7
370
    15
100
AcDbCircle
 10
16.54531322299212
 20
9.681687104526041
 30
0.0
 40
0.0442913385826778
  0
CIRCLE
  5
23F
330
1F
100
AcDbEntity
  8
0
  6
Continuous
 62
     7
370
    15
100
AcDbCircle
 10
15.4429510182677
 20
9.681687104526039
 30
0.0
 40
0.044291338582676
  0
LINE
  5
240
330
1F
100
AcDbEntity
  8
0
  6
Continuous
 62
     7
370
    15
100
AcDbLine
 10
14.90375891208987
 20
7.007034964684619
 30
0.0
 11
14.90375891208987
 21
6.957822339859728
 31
0.0
  0
LINE
  5
241
330
1F
100
AcDbEntity
  8
0
  6
Continuous
 62
     7
370
    15
100
AcDbLine
 10
14.8644262997969
 20
7.007034964684619
 30
0.0
 11
14.90375891208987
 21
7.007034964684619
 31
0.0
  0
LINE
  5
242
330
1F
100
AcDbEntity
  8
0
  6
Continuous
 62
     7
370
    15
100
AcDbLine
 10
14.8644262997969
 20
6.957822339859728
 30
0.0
 11
14.90375891208987
 21
6.957822339859728
 31
0.0
  0
LINE
  5
243
330
1F
100
AcDbEntity
  8
0
  6
Continuous
 62
     7
370
    15
100
AcDbLine
 10
17.08450535325423
 20
6.957822339859728
 30
0.0
 11
17.08450535325423
 21
7.007034964684619
 31
0.0
  0
LINE
  5
244
330
1F
100
AcDbEntity
  8
0
  6
Continuous
 62
     7
370
    15
100
AcDbLine
 10
17.08450535325423
 20
7.007034964684619
 30
0.0
 11
17.1238379655472
 21
7.007034964684619
 31
0.0
  0
LINE
  5
245
330
1F
100
AcDbEntity
  8
0
  6
Continuous
 62
     7
370
    15
100
AcDbLine
 10
17.08450535325423
 20
6.957822339859728
 30
0.0
 11
17.1238379655472
 21
6.957822339859728
 31
0.0
  0
LINE
  5
246
330
1F
100
AcDbEntity
  8
0
  6
Continuous
 62
     7
370
    15
100
AcDbLine
 10
17.08450535325423
 20
10.2303550819489
 30
0.0
 11
17.08450535325423
 21
10.2795676334413
 31
0.0
  0
LINE
  5
247
330
1F
100
AcDbEntity
  8
0
  6
Continuous
 62
     7
370
    15
100
AcDbLine
 10
17.1238379655472
 20
10.2795676334413
 30
0.0
 11
17.08450535325423
 21
10.2795676334413
 31
0.0
  0
LINE
  5
248
330
1F
100
AcDbEntity
  8
0
  6
Continuous
 62
     7
370
    15
100
AcDbLine
 10
17.1238379655472
 20
10.2303550819489
 30
0.0
 11
17.08450535325423
 21
10.2303550819489
 31
0.0
  0
LINE
  5
249
330
1F
100
AcDbEntity
  8
0
  6
Continuous
 62
     7
370
    15
100
AcDbLine
 10
14.90375891208987
 20
10.2795676334413
 30
0.0
 11
14.90375891208987
 21
10.2303550819489
 31
0.0
  0
LINE
  5
24A
330
1F
100
AcDbEntity
  8
0
  6
Continuous
 62
     7
370
    15
100
AcDbLine
 10
14.90375891208987
 20
10.2795676334413
 30
0.0
 11
14.8644262997969
 21
10.2795676334413
 31
0.0
  0
LINE
  5
24B
330
1F
100
AcDbEntity
  8
0
  6
Continuous
 62
     7
370
    15
100
AcDbLine
 10
14.90375891208987
 20
10.2303550819489
 30
0.0
 11
14.8644262997969
 21
10.2303550819489
 31
0.0
  0
LINE
  5
24C
330
1F
100
AcDbEntity
  8
0
  6
Continuous
 62
     7
370
    15
100
AcDbLine
 10
17.12290502965789
 20
6.830495510750123
 30
0.0
 11
17.08459393889754
 21
6.886956245177567
 31
0.0
  0
LWPOLYLINE
  5
24D
330
1F
100
AcDbEntity
  8
0
  6
Continuous
 62
     7
370
    15
100
AcDbPolyline
 90
        5
 70
   128
 43
0.0
 10
17.15544456042512
 20
6.83297128881639
 10
17.14995283719931
 20
6.836435002136611
 10
17.14103003360963
 20
6.836647666346562
 10
17.13233925400626
 20
6.834503571115334
 10
17.12290502965789
 20
6.830495510750123
  0
LINE
  5
24E
330
1F
100
AcDbEntity
  8
0
  6
Continuous
 62
     7
370
    15
100
AcDbLine
 10
17.11882011684715
 20
6.886956245177567
 30
0.0
 11
17.08459393889754
 21
6.886956245177567
 31
0.0
  0
LINE
  5
24F
330
1F
100
AcDbEntity
  8
0
  6
Continuous
 62
     7
370
    15
100
AcDbLine
 10
14.86535916235373
 20
10.40689453588339
 30
0.0
 11
14.90367039977904
 21
10.35043380145595
 31
0.0
  0
LWPOLYLINE
  5
250
330
1F
100
AcDbEntity
  8
0
  6
Continuous
 62
     7
370
    15
100
AcDbPolyline
 90
        5
 70
   128
 43
0.0
 10
14.83281970491898
 20
10.40441853781967
 10
14.83831135481231
 20
10.40095489783193
 10
14.84723415840198
 20
10.40074223362198
 10
14.85592493800536
 20
10.40288647551818
 10
14.86535916235373
 20
10.40689453588339
  0
LINE
  5
251
330
1F
100
AcDbEntity
  8
0
  6
Continuous
 62
     7
370
    15
100
AcDbLine
 10
14.86944407516446
 20
10.35043380145595
 30
0.0
 11
14.90367039977904
 21
10.35043380145595
 31
0.0
  0
LINE
  5
252
330
1F
100
AcDbEntity
  8
0
  6
Continuous
 62
     7
370
    15
100
AcDbLine
 10
14.90367039977904
 20
6.886956245177567
 30
0.0
 11
14.86535916235373
 21
6.830495510750123
 31
0.0
  0
LWPOLYLINE
  5
253
330
1F
100
AcDbEntity
  8
0
  6
Continuous
 62
     7
370
    15
100
AcDbPolyline
 90
        5
 70
   128
 43
0.0
 10
14.86535916235373
 20
6.830495510750123
 10
14.85345055325633
 20
6.835283755435911
 10
14.84305318003434
 20
6.836967102656407
 10
14.83681456543668
 20
6.835957460986541
 10
14.83281970491898
 20
6.83297128881639
  0
LINE
  5
254
330
1F
100
AcDbEntity
  8
0
  6
Continuous
 62
     7
370
    15
100
AcDbLine
 10
14.90367039977904
 20
6.886956245177567
 30
0.0
 11
14.86944407516446
 21
6.886956245177567
 31
0.0
  0
LINE
  5
255
330
1F
100
AcDbEntity
  8
0
  6
Continuous
 62
     7
370
    15
100
AcDbLine
 10
17.08459393889754
 20
10.35043380145595
 30
0.0
 11
17.12290502965789
 21
10.40689453588339
 31
0.0
  0
LWPOLYLINE
  5
256
330
1F
100
AcDbEntity
  8
0
  6
Continuous
 62
     7
370
    15
100
AcDbPolyline
 90
        5
 70
   128
 43
0.0
 10
17.12290502965789
 20
10.40689453588339
 10
17.13481363875529
 20
10.40210621786512
 10
17.14521101197728
 20
10.40042279731214
 10
17.15144969990742
 20
10.401432438982
 10
17.15544456042512
 20
10.40441853781967
  0
LINE
  5
257
330
1F
100
AcDbEntity
  8
0
  6
Continuous
 62
     7
370
    15
100
AcDbLine
 10
17.08459393889754
 20
10.35043380145595
 30
0.0
 11
17.11882011684715
 21
10.35043380145595
 31
0.0
  0
CIRCLE
  5
258
330
1F
100
AcDbEntity
  8
0
  6
Continuous
 62
     7
370
    15
100
AcDbCircle
 10
15.61997362850088
 20
9.444921933848311
 30
0.0
 40
0.1181102362204722
  0
CIRCLE
  5
259
330
1F
100
AcDbEntity
  8
0
  6
Continuous
 62
     7
370
    15
100
AcDbCircle
 10
15.61997362850088
 20
9.444921933848311
 30
0.0
 40
0.0590551181102352
  0
CIRCLE
  5
25A
330
1F
100
AcDbEntity
  8
0
  6
Continuous
 62
     7
370
    15
100
AcDbCircle
 10
16.36800512456388
 20
9.444921933848311
 30
0.0
 40
0.0590551181102335
  0
CIRCLE
  5
25B
330
1F
100
AcDbEntity
  8
0
  6
Continuous
 62
     7
370
    15
100
AcDbCircle
 10
16.36800512456388
 20
9.444921933848311
 30
0.0
 40
0.1181102362204704
  0
LINE
  5
25C
330
1F
100
AcDbEntity
  8
0
  6
Continuous
 62
     7
370
    15
100
AcDbLine
 10
14.90375891208987
 20
7.007034964684619
 30
0.0
 11
17.08450535325423
 21
7.007034964684619
 31
0.0
  0
LINE
  5
25D
330
1F
100
AcDbEntity
  8
0
  6
Continuous
 62
     7
370
    15
100
AcDbLine
 10
14.90375891208987
 20
6.957822339859728
 30
0.0
 11
17.08450535325423
 21
6.957822339859728
 31
0.0
  0
LINE
  5
25E
330
1F
100
AcDbEntity
  8
0
  6
Continuous
 62
     7
370
    15
100
AcDbLine
 10
17.08450535325423
 20
10.2795676334413
 30
0.0
 11
14.90375891208987
 21
10.2795676334413
 31
0.0
  0
LINE
  5
25F
330
1F
100
AcDbEntity
  8
0
  6
Continuous
 62
     7
370
    15
100
AcDbLine
 10
17.08450535325423
 20
10.2303550819489
 30
0.0
 11
14.90375891208987
 21
10.2303550819489
 31
0.0
  0
LINE
  5
260
330
1F
100
AcDbEntity
  8
0
  6
Continuous
 62
     7
370
    15
100
AcDbLine
 10
17.12215806495356
 20
7.007034964684619
 30
0.0
 11
17.12215806495356
 21
10.2303550819489
 31
0.0
  0
LINE
  5
261
330
1F
100
AcDbEntity
  8
0
  6
Continuous
 62
     7
370
    15
100
AcDbLine
 10
14.86610612705806
 20
10.2303550819489
 30
0.0
 11
14.86610612705806
 21
7.007034964684619
 31
0.0
  0
LINE
  5
262
330
1F
100
AcDbEntity
  8
0
  6
Continuous
 62
     7
370
    15
100
AcDbLine
 10
14.86535916235373
 20
10.40689453588339
 30
0.0
 11
14.86115442426055
 21
10.4134052873373
 31
0.0
  0
ARC
  5
263
330
1F
100
AcDbEntity
  8
0
  6
Continuous
 62
     7
370
    15
100
AcDbCircle
 10
14.85284651560713
 20
10.62790589350687
 30
0.0
 40
0.2146620205612856
100
AcDbArc
 50
263.220286753699
 51
272.2180309962685
  0
LINE
  5
264
330
1F
100
AcDbEntity
  8
0
  6
Continuous
 62
     7
370
    15
100
AcDbLine
 10
17.12710991441603
 20
6.823984685963726
 30
0.0
 11
17.12290502965789
 21
6.830495510750123
 31
0.0
  0
ARC
  5
265
330
1F
100
AcDbEntity
  8
0
  6
Continuous
 62
     7
370
    15
100
AcDbCircle
 10
17.13541498249073
 20
6.609460953064292
 30
0.0
 40
0.2146851666150795
100
AcDbArc
 50
83.22027740091282
 51
92.2170330723866
  0
LINE
  5
266
330
1F
100
AcDbEntity
  8
0
  6
Continuous
 62
     7
370
    15
100
AcDbLine
 10
17.12710991441603
 20
10.4134052873373
 30
0.0
 11
17.12290517632286
 21
10.40689453588339
 31
0.0
  0
ARC
  5
267
330
1F
100
AcDbEntity
  8
0
  6
Continuous
 62
     7
370
    15
100
AcDbCircle
 10
17.1363432242696
 20
10.60462848154947
 30
0.0
 40
0.191446860943878
100
AcDbArc
 50
267.2356037119234
 51
277.3270858147759
  0
LINE
  5
268
330
1F
100
AcDbEntity
  8
0
  6
Continuous
 62
     7
370
    15
100
AcDbLine
 10
14.86115435092806
 20
6.823984685963726
 30
0.0
 11
14.86535916235373
 21
6.830495510750123
 31
0.0
  0
ARC
  5
269
330
1F
100
AcDbEntity
  8
0
  6
Continuous
 62
     7
370
    15
100
AcDbCircle
 10
14.85191755317131
 20
6.632838587229662
 30
0.0
 40
0.1913699502887337
100
AcDbArc
 50
87.23344636175532
 51
97.32899382856203
  0
LINE
  5
26A
330
1F
100
AcDbEntity
  8
0
  6
Continuous
 62
     7
370
    15
100
AcDbLine
 10
14.86535916235373
 20
10.41342582043344
 30
0.0
 11
14.86535916235373
 21
10.40689453588339
 31
0.0
  0
LINE
  5
26B
330
1F
100
AcDbEntity
  8
0
  6
Continuous
 62
     7
370
    15
100
AcDbLine
 10
14.86535916235373
 20
10.41342582043344
 30
0.0
 11
17.12290502965789
 21
10.41342582043344
 31
0.0
  0
LINE
  5
26C
330
1F
100
AcDbEntity
  8
0
  6
Continuous
 62
     7
370
    15
100
AcDbLine
 10
17.12290502965789
 20
10.40689453588339
 30
0.0
 11
17.12290502965789
 21
10.41342582043344
 31
0.0
  0
LINE
  5
26D
330
1F
100
AcDbEntity
  8
0
  6
Continuous
 62
     7
370
    15
100
AcDbLine
 10
14.90367039977904
 20
10.35043380145595
 30
0.0
 11
17.08459393889754
 21
10.35043380145595
 31
0.0
  0
LINE
  5
26E
330
1F
100
AcDbEntity
  8
0
  6
Continuous
 62
     7
370
    15
100
AcDbLine
 10
14.86535916235373
 20
6.830495510750123
 30
0.0
 11
14.86535916235373
 21
6.823964079535106
 31
0.0
  0
LINE
  5
26F
330
1F
100
AcDbEntity
  8
0
  6
Continuous
 62
     7
370
    15
100
AcDbLine
 10
17.12290502965789
 20
6.823964079535106
 30
0.0
 11
17.12290502965789
 21
6.830495510750123
 31
0.0
  0
LINE
  5
270
330
1F
100
AcDbEntity
  8
0
  6
Continuous
 62
     7
370
    15
100
AcDbLine
 10
17.12290502965789
 20
6.823964079535106
 30
0.0
 11
14.86535916235373
 21
6.823964079535106
 31
0.0
  0
LINE
  5
271
330
1F
100
AcDbEntity
  8
0
  6
Continuous
 62
     7
370
    15
100
AcDbLine
 10
17.08459393889754
 20
6.886956245177567
 30
0.0
 11
14.90367039977904
 21
6.886956245177567
 31
0.0
  0
LINE
  5
272
330
1F
100
AcDbEntity
  8
0
  6
Continuous
 62
     7
370
    15
100
AcDbLine
 10
17.15992942861554
 20
10.2795676334413
 30
0.0
 11
17.15992942861554
 21
10.35043380145595
 31
0.0
  0
LINE
  5
273
330
1F
100
AcDbEntity
  8
0
  6
Continuous
 62
     7
370
    15
100
AcDbLine
 10
14.82833476339608
 20
10.35043380145595
 30
0.0
 11
14.82833476339608
 21
10.2795676334413
 31
0.0
  0
LINE
  5
274
330
1F
100
AcDbEntity
  8
0
  6
Continuous
 62
     7
370
    15
100
AcDbLine
 10
17.15992942861554
 20
6.886956245177567
 30
0.0
 11
17.15992942861554
 21
6.957822339859728
 31
0.0
  0
LINE
  5
275
330
1F
100
AcDbEntity
  8
0
  6
Continuous
 62
     7
370
    15
100
AcDbLine
 10
14.82833476339608
 20
6.957822339859728
 30
0.0
 11
14.82833476339608
 21
6.886956245177567
 31
0.0
  0
LWPOLYLINE
  5
276
330
1F
100
AcDbEntity
  8
0
  6
Continuous
 62
     7
370
    15
100
AcDbPolyline
 90
        3
 70
   128
 43
0.0
 10
17.12710991441603
 20
6.823985419288588
 10
17.12500747203696
 20
6.823969946134002
 10
17.12290502965789
 20
6.823964886192454
  0
LWPOLYLINE
  5
277
330
1F
100
AcDbEntity
  8
0
  6
Continuous
 62
     7
370
    15
100
AcDbPolyline
 90
        3
 70
   128
 43
0.0
 10
14.86115442426055
 20
10.41340470067741
 10
14.86325671997465
 20
10.41342024716449
 10
14.86535916235373
 20
10.41342523377355
  0
LWPOLYLINE
  5
278
330
1F
100
AcDbEntity
  8
0
  6
Continuous
 62
     7
370
    15
100
AcDbPolyline
 90
        3
 70
   128
 43
0.0
 10
17.12290502965789
 20
10.41342523377355
 10
17.12500747203696
 20
10.41341995383454
 10
17.12710991441603
 20
10.41340440734747
  0
LWPOLYLINE
  5
279
330
1F
100
AcDbEntity
  8
0
  6
Continuous
 62
     7
370
    15
100
AcDbPolyline
 90
        3
 70
   128
 43
0.0
 10
14.86535916235373
 20
6.823964812859968
 10
14.86325679330714
 20
6.823969946134002
 10
14.86115435092806
 20
6.823985492621074
  0
DIMENSION
  5
27A
330
1F
100
AcDbEntity
  8
0
  6
Continuous
 62
     7
370
     0
100
AcDbDimension
  2
*D10
 10
15.47464156791873
 20
7.613038773810736
 30
0.0
 11
12.64833960543497
 21
6.028594482667926
 31
0.0
 70
   163
  1
<>\PMOUNTING HOLE TYP.\PFOR M2.5 OR #4 SHEET METAL\PSCREW
 42
-1.0
  3
SLDDIMSTYLE2
100
AcDbDiametricDimension
 15
15.41126046861669
 25
7.537737010044514
 35
0.0
 40
0.0
  0
DIMENSION
  5
28E
330
1F
100
AcDbEntity
  8
0
  6
Continuous
 62
     7
370
     0
100
AcDbDimension
  2
*D11
 10
17.16149073624402
 20
11.39035245842739
 30
0.0
 11
16.26152387583077
 21
11.39035245842739
 31
0.0
 70
   160
 71
     2
 42
-1.0
  3
SLDDIMSTYLE0
100
AcDbAlignedDimension
 13
14.8267735050158
 23
10.23035500471445
 33
0.0
 14
17.16149073624402
 24
10.23035500471445
 34
0.0
100
AcDbRotatedDimension
  0
INSERT
  5
2A6
330
1F
100
AcDbEntity
  8
0
  6
Continuous
 62
     7
370
     0
100
AcDbBlockReference
  2
SW_NOTE_5
 10
13.08938425658664
 20
11.15853122609705
 30
0.0
  0
LEADER
  5
2A8
330
1F
100
AcDbEntity
  8
0
  6
Continuous
 62
     7
370
     0
100
AcDbLeader
  3
SLDDIMSTYLE3
 76
     2
 10
15.50842375377568
 20
9.483737566637781
 30
0.0
 10
13.08938425658664
 20
11.15853122609705
 30
0.0
  0
LINE
  5
2A9
330
1F
100
AcDbEntity
  8
0
  6
Continuous
 62
     7
370
    15
100
AcDbLine
 10
12.73698443397904
 20
3.098244482127213
 30
0.0
 11
12.73698443397904
 21
3.8659610334001
 31
0.0
  0
ARC
  5
2AA
330
1F
100
AcDbEntity
  8
0
  6
Continuous
 62
     7
370
    15
100
AcDbCircle
 10
12.79603956581711
 20
3.865961025480192
 30
0.0
 40
0.0590551181102357
100
AcDbArc
 50
90.0
 51
180.0
  0
LINE
  5
2AB
330
1F
100
AcDbEntity
  8
0
  6
Continuous
 62
     7
370
    15
100
AcDbLine
 10
12.7960395984354
 20
3.925016161190225
 30
0.0
 11
14.99288992689961
 21
3.925016161190225
 31
0.0
  0
ARC
  5
2AC
330
1F
100
AcDbEntity
  8
0
  6
Continuous
 62
     7
370
    15
100
AcDbCircle
 10
14.9928899595179
 20
3.865961025480192
 30
0.0
 40
0.0590551181102361
100
AcDbArc
 50
0.0
 51
90.0
  0
LINE
  5
2AD
330
1F
100
AcDbEntity
  8
0
  6
Continuous
 62
     7
370
    15
100
AcDbLine
 10
15.05194509135598
 20
3.8659610334001
 30
0.0
 11
15.05194509135598
 21
3.098244482127213
 31
0.0
  0
ARC
  5
2AE
330
1F
100
AcDbEntity
  8
0
  6
Continuous
 62
     7
370
    15
100
AcDbCircle
 10
14.9928899595179
 20
3.098244490047121
 30
0.0
 40
0.0590551181102361
100
AcDbArc
 50
270.0000000000008
 51
0.0
  0
LINE
  5
2AF
330
1F
100
AcDbEntity
  8
0
  6
Continuous
 62
     7
370
    15
100
AcDbLine
 10
14.99288992689961
 20
3.039189354337088
 30
0.0
 11
12.7960395984354
 21
3.039189354337088
 31
0.0
  0
ARC
  5
2B0
330
1F
100
AcDbEntity
  8
0
  6
Continuous
 62
     7
370
    15
100
AcDbCircle
 10
12.79603956581711
 20
3.098244490047121
 30
0.0
 40
0.0590551181102357
100
AcDbArc
 50
180.0
 51
270.0000000000008
  0
DIMENSION
  5
2B1
330
1F
100
AcDbEntity
  8
0
  6
Continuous
 62
     7
370
     0
100
AcDbDimension
  2
*D13
 10
15.05194507762814
 20
4.318716930992004
 30
0.0
 11
14.05412737010638
 21
4.318716930992004
 31
0.0
 70
   160
  1
2.40 [61.0]
 71
     2
 42
2.314960629921257
  3
SLDDIMSTYLE0
100
AcDbAlignedDimension
 13
12.73698444770688
 23
3.865961025480192
 33
0.0
 14
15.05194507762814
 24
3.865961025480192
 34
0.0
 50
-0.000000000000022
100
AcDbRotatedDimension
  0
DIMENSION
  5
2C3
330
1F
100
AcDbEntity
  8
0
  6
Continuous
 62
     7
370
     0
100
AcDbDimension
  2
*D14
 10
15.79504874330073
 20
3.039189371936884
 30
0.0
 11
15.79504874330073
 21
3.516127396382957
 31
0.0
 70
   160
  1
.90 [22.9]
 71
     2
 42
0.885826771653544
  3
SLDDIMSTYLE0
100
AcDbAlignedDimension
 13
14.9928899595179
 23
3.925016143590429
 33
0.0
 14
14.9928899595179
 24
3.039189371936885
 34
0.0
 50
90.00000000000019
100
AcDbRotatedDimension
  0
LEADER
  5
2E4
330
1F
100
AcDbEntity
  8
0
  6
Continuous
 62
     7
370
     0
100
AcDbLeader
  3
SLDDIMSTYLE4
 76
     2
 10
13.44022351745364
 20
3.241245074299639
 30
0.0
 10
12.97793058361126
 20
2.347751368962088
 30
0.0
  0
ARC
  5
2E5
330
1F
100
AcDbEntity
  8
0
  6
Continuous
 62
     7
370
    15
100
AcDbCircle
 10
22.04630530022045
 20
12.82373534147733
 30
0.0
 40
0.0742025908307969
100
AcDbArc
 50
246.0009132008633
 51
291.5224436528185
  0
LINE
  5
2E6
330
1F
100
AcDbEntity
  8
0
  6
Continuous
 62
     7
370
    15
100
AcDbLine
 10
22.07357471500987
 20
12.75472488497173
 30
0.0
 11
23.03380675179278
 21
13.12994670100067
 31
0.0
  0
LINE
  5
2E7
330
1F
100
AcDbEntity
  8
0
  6
Continuous
 62
     7
370
    15
100
AcDbLine
 10
21.19310328011475
 20
13.12682411798909
 30
0.0
 11
22.01642054899358
 21
12.7558125541884
 31
0.0
  0
LINE
  5
2E8
330
1F
100
AcDbEntity
  8
0
  6
Continuous
 62
     7
370
    15
100
AcDbLine
 10
23.08429478785662
 20
13.21691734591234
 30
0.0
 11
23.05907795691326
 21
13.39328256439103
 31
0.0
  0
ARC
  5
2E9
330
1F
100
AcDbEntity
  8
0
  6
Continuous
 62
     7
370
    15
100
AcDbCircle
 10
23.00342790802415
 20
13.20570784501321
 30
0.0
 40
0.0816252894510937
100
AcDbArc
 50
291.7755977940605
 51
8.654952173856417
  0
LINE
  5
2EA
330
1F
100
AcDbEntity
  8
0
  6
Continuous
 62
     7
370
    15
100
AcDbLine
 10
21.10432429082293
 20
13.35018981904388
 30
0.0
 11
21.15192787426669
 21
13.17573589801846
 31
0.0
  0
ARC
  5
2EB
330
1F
100
AcDbEntity
  8
0
  6
Continuous
 62
     7
370
    15
100
AcDbCircle
 10
21.22480781429858
 20
13.19529738954766
 30
0.0
 40
0.0754543207046783
100
AcDbArc
 50
195.1675589175768
 51
245.430426170758
  0
ARC
  5
2EC
330
1F
100
AcDbEntity
  8
0
  6
Continuous
 62
     7
370
    15
100
AcDbCircle
 10
22.93500853298789
 20
13.56527981254931
 30
0.0
 40
0.0754898222985642
100
AcDbArc
 50
15.18220997460758
 51
65.41675834079026
  0
LINE
  5
2ED
330
1F
100
AcDbEntity
  8
0
  6
Continuous
 62
     7
370
    15
100
AcDbLine
 10
23.0579684598939
 20
13.40143667529853
 30
0.0
 11
23.00791528711321
 21
13.58486743898593
 31
0.0
  0
LINE
  5
2EE
330
1F
100
AcDbEntity
  8
0
  6
Continuous
 62
     7
370
    15
100
AcDbLine
 10
22.96673969982671
 20
13.63377930839569
 30
0.0
 11
22.14342271845782
 21
14.00479074263574
 31
0.0
  0
ARC
  5
2EF
330
1F
100
AcDbEntity
  8
0
  6
Continuous
 62
     7
370
    15
100
AcDbCircle
 10
21.15679903821774
 20
13.55467197072559
 30
0.0
 40
0.0819735594549269
100
AcDbArc
 50
111.9672594477694
 51
187.9822933928592
  0
LINE
  5
2F0
330
1F
100
AcDbEntity
  8
0
  6
Continuous
 62
     7
370
    15
100
AcDbLine
 10
21.07554837003384
 20
13.54368600790203
 30
0.0
 11
21.10206241518464
 21
13.35824806590924
 31
0.0
  0
LINE
  5
2F1
330
1F
100
AcDbEntity
  8
0
  6
Continuous
 62
     7
370
    15
100
AcDbLine
 10
22.08626855327471
 20
14.00587850282433
 30
0.0
 11
21.1260344267679
 21
13.6306558702115
 31
0.0
  0
ARC
  5
2F2
330
1F
100
AcDbEntity
  8
0
  6
Continuous
 62
     7
370
    15
100
AcDbCircle
 10
22.1135436881574
 20
13.93683885526157
 30
0.0
 40
0.074230719407055
100
AcDbArc
 50
66.04445766421014
 51
111.5186874038532
  0
LINE
  5
2F3
330
1F
100
AcDbEntity
  8
0
  6
Continuous
 62
     7
370
    15
100
AcDbLine
 10
22.02468672197585
 20
12.98457433716682
 30
0.0
 11
22.02104087111549
 21
12.98314967861723
 31
0.0
  0
LINE
  5
2F4
330
1F
100
AcDbEntity
  8
0
  6
Continuous
 62
     7
370
    15
100
AcDbLine
 10
22.02236773983584
 20
12.97494277099547
 30
0.0
 11
22.02468672197585
 21
12.98457433716682
 31
0.0
  0
LINE
  5
2F5
330
1F
100
AcDbEntity
  8
0
  6
Continuous
 62
     7
370
    15
100
AcDbLine
 10
22.02239886278599
 20
12.97492874605655
 30
0.0
 11
22.02236773983584
 21
12.97494277099547
 31
0.0
  0
LINE
  5
2F6
330
1F
100
AcDbEntity
  8
0
  6
Continuous
 62
     7
370
    15
100
AcDbLine
 10
22.02235101746535
 20
12.97491004994206
 30
0.0
 11
22.02239886278599
 21
12.97492874605655
 31
0.0
  0
ELLIPSE
  5
2F7
330
1F
100
AcDbEntity
  8
0
  6
Continuous
 62
     7
370
    15
100
AcDbEllipse
 10
21.99347747088798
 20
12.98800185396183
 30
0.0
 11
0.0578287205545465
 21
0.0120327567266827
 31
0.0
210
0.0
220
0.0
230
0.9999999999999998
 40
0.3512847318307175
 41
3.591783688292173
 42
5.160677362984785
  0
LINE
  5
2F8
330
1F
100
AcDbEntity
  8
0
  6
Continuous
 62
     7
370
    15
100
AcDbLine
 10
21.94324986573931
 20
12.96832848769246
 30
0.0
 11
21.11180744039531
 21
13.3430014917668
 31
0.0
  0
ELLIPSE
  5
2F9
330
1F
100
AcDbEntity
  8
0
  6
Continuous
 62
     7
370
    15
100
AcDbEllipse
 10
21.16214525991197
 20
13.36262519212175
 30
0.0
 11
0.0579263476910832
 21
0.0119959044847082
 31
0.0
210
0.0
220
0.0
230
1.0
 40
0.3502391859891713
 41
2.988157694665765
 42
3.591395609897318
  0
LINE
  5
2FA
330
1F
100
AcDbEntity
  8
0
  6
Continuous
 62
     7
370
    15
100
AcDbLine
 10
21.98249580006398
 20
12.79830849985641
 30
0.0
 11
21.94324986573931
 21
12.96832848769246
 31
0.0
  0
LINE
  5
2FB
330
1F
100
AcDbEntity
  8
0
  6
Continuous
 62
     7
370
    15
100
AcDbLine
 10
22.06159701416984
 20
12.80489008648165
 30
0.0
 11
22.02235101746535
 21
12.97491004994206
 31
0.0
  0
ARC
  5
2FC
330
1F
100
AcDbEntity
  8
0
  6
Continuous
 62
     7
370
    15
100
AcDbCircle
 10
22.0137726906596
 20
12.90103747642272
 30
0.0
 40
0.1073847592151326
100
AcDbArc
 50
253.0665914149472
 51
296.4460443054305
  0
LINE
  5
2FD
330
1F
100
AcDbEntity
  8
0
  6
Continuous
 62
     7
370
    15
100
AcDbLine
 10
22.02498677864695
 20
13.00276916138212
 30
0.0
 11
22.02497873165038
 21
13.0027660169248
 31
0.0
  0
LINE
  5
2FE
330
1F
100
AcDbEntity
  8
0
  6
Continuous
 62
     7
370
    15
100
AcDbLine
 10
22.02276001003866
 20
12.99357828112935
 30
0.0
 11
22.02498677864695
 21
13.00276916138212
 31
0.0
  0
LINE
  5
2FF
330
1F
100
AcDbEntity
  8
0
  6
Continuous
 62
     7
370
    15
100
AcDbLine
 10
22.01885989903891
 20
12.9920542674785
 30
0.0
 11
22.02276001003866
 21
12.99357828112935
 31
0.0
  0
LINE
  5
300
330
1F
100
AcDbEntity
  8
0
  6
Continuous
 62
     7
370
    15
100
AcDbLine
 10
22.02468672197585
 20
12.98457433716682
 30
0.0
 11
22.02276001003866
 21
12.99357828112935
 31
0.0
  0
LINE
  5
301
330
1F
100
AcDbEntity
  8
0
  6
Continuous
 62
     7
370
    15
100
AcDbLine
 10
22.0622613531877
 20
12.82705585947296
 30
0.0
 11
22.02498677864695
 21
13.00276916138212
 31
0.0
  0
LINE
  5
302
330
1F
100
AcDbEntity
  8
0
  6
Continuous
 62
     7
370
    15
100
AcDbLine
 10
22.0622613531877
 20
12.82705585947296
 30
0.0
 11
22.06288911180731
 21
12.80066867400202
 31
0.0
  0
LINE
  5
303
330
1F
100
AcDbEntity
  8
0
  6
Continuous
 62
     7
370
    15
100
AcDbLine
 10
22.06288911180731
 20
12.80066867400202
 30
0.0
 11
22.06300231414715
 21
12.7964481652593
 31
0.0
  0
LINE
  5
304
330
1F
100
AcDbEntity
  8
0
  6
Continuous
 62
     7
370
    15
100
AcDbLine
 10
22.06195024736433
 20
12.80358574049
 30
0.0
 11
22.02239886278599
 21
12.97492874605655
 31
0.0
  0
LINE
  5
305
330
1F
100
AcDbEntity
  8
0
  6
Continuous
 62
     7
370
    15
100
AcDbLine
 10
22.06159701416984
 20
12.80489008648165
 30
0.0
 11
22.06195024736433
 21
12.80358574049
 31
0.0
  0
LINE
  5
306
330
1F
100
AcDbEntity
  8
0
  6
Continuous
 62
     7
370
    15
100
AcDbLine
 10
21.11180744039531
 20
13.3430014917668
 30
0.0
 11
21.15920329297805
 21
13.16930890524727
 31
0.0
  0
LINE
  5
307
330
1F
100
AcDbEntity
  8
0
  6
Continuous
 62
     7
370
    15
100
AcDbLine
 10
21.98249580006398
 20
12.79830849985641
 30
0.0
 11
21.15920329297805
 21
13.16930890524727
 31
0.0
  0
ARC
  5
308
330
1F
100
AcDbEntity
  8
0
  6
Continuous
 62
     7
370
    15
100
AcDbCircle
 10
22.0748791368806
 20
12.79798133611669
 30
0.0
 40
0.0122987664397577
100
AcDbArc
 50
214.4942803683631
 51
298.3465558175201
  0
LWPOLYLINE
  5
309
330
1F
100
AcDbEntity
  8
0
  6
Continuous
 62
     7
370
    15
100
AcDbPolyline
 90
        3
 70
   128
 43
0.0
 10
22.08251216937318
 20
12.7878538293516
 10
22.08161666262787
 20
12.78750497919604
 10
22.08071863755358
 20
12.78715727530354
  0
LWPOLYLINE
  5
30A
330
1F
100
AcDbEntity
  8
0
  6
Continuous
 62
     7
370
    15
100
AcDbPolyline
 90
        3
 70
   128
 43
0.0
 10
22.06474187641862
 20
12.7910157091023
 10
22.06339690506158
 20
12.79726975755503
 10
22.06195024736433
 20
12.80358574049
  0
LINE
  5
30B
330
1F
100
AcDbEntity
  8
0
  6
Continuous
 62
     7
370
    15
100
AcDbLine
 10
22.08071888895275
 20
12.78715700583087
 30
0.0
 11
22.08055299837388
 21
12.79030355487006
 31
0.0
  0
ARC
  5
30C
330
1F
100
AcDbEntity
  8
0
  6
Continuous
 62
     7
370
    15
100
AcDbCircle
 10
22.07934212840052
 20
12.80847371860201
 30
0.0
 40
0.018210449643663
100
AcDbArc
 50
205.3789051716703
 51
273.8127887126531
  0
LINE
  5
30D
330
1F
100
AcDbEntity
  8
0
  6
Continuous
 62
     7
370
    15
100
AcDbLine
 10
22.07991024962707
 20
12.81785004802786
 30
0.0
 11
22.08055306162606
 21
12.7903035750432
 31
0.0
  0
ARC
  5
30E
330
1F
100
AcDbEntity
  8
0
  6
Continuous
 62
     7
370
    15
100
AcDbCircle
 10
22.07449697174973
 20
12.82899266971875
 30
0.0
 40
0.0123879617178749
100
AcDbArc
 50
188.9948774672974
 51
295.9112813210602
  0
LINE
  5
30F
330
1F
100
AcDbEntity
  8
0
  6
Continuous
 62
     7
370
    15
100
AcDbLine
 10
23.04269595298301
 20
13.16305645540003
 30
0.0
 11
23.04073666048005
 21
13.1655064633891
 31
0.0
  0
LINE
  5
310
330
1F
100
AcDbEntity
  8
0
  6
Continuous
 62
     7
370
    15
100
AcDbLine
 10
23.04269595298301
 20
13.16305645540003
 30
0.0
 11
22.08251235412902
 21
12.78785356705414
 31
0.0
  0
LINE
  5
311
330
1F
100
AcDbEntity
  8
0
  6
Continuous
 62
     7
370
    15
100
AcDbLine
 10
22.08055306162606
 20
12.7903035750432
 30
0.0
 11
22.08251235412902
 21
12.78785356705414
 31
0.0
  0
LINE
  5
312
330
1F
100
AcDbEntity
  8
0
  6
Continuous
 62
     7
370
    15
100
AcDbLine
 10
23.04073666048005
 20
13.1655064633891
 30
0.0
 11
23.00750469762685
 21
13.18031834733908
 31
0.0
  0
LINE
  5
313
330
1F
100
AcDbEntity
  8
0
  6
Continuous
 62
     7
370
    15
100
AcDbLine
 10
23.00750469762685
 20
13.18031834733908
 30
0.0
 11
22.07991024962707
 21
12.81785004802786
 31
0.0
  0
LINE
  5
314
330
1F
100
AcDbEntity
  8
0
  6
Continuous
 62
     7
370
    15
100
AcDbLine
 10
23.00520923168951
 20
13.37732680909626
 30
0.0
 11
23.00700043468917
 21
13.36842482441916
 31
0.0
  0
LINE
  5
315
330
1F
100
AcDbEntity
  8
0
  6
Continuous
 62
     7
370
    15
100
AcDbLine
 10
23.00700043468917
 20
13.36842482441916
 30
0.0
 11
23.0300597771171
 21
13.36871013319822
 31
0.0
  0
LINE
  5
316
330
1F
100
AcDbEntity
  8
0
  6
Continuous
 62
     7
370
    15
100
AcDbLine
 10
23.0300597771171
 20
13.36871013319822
 30
0.0
 11
23.05581951383768
 21
13.18440298926961
 31
0.0
  0
LINE
  5
317
330
1F
100
AcDbEntity
  8
0
  6
Continuous
 62
     7
370
    15
100
AcDbLine
 10
23.05581951383768
 20
13.18440298926961
 30
0.0
 11
23.05075223196047
 21
13.18668762937616
 31
0.0
  0
LINE
  5
318
330
1F
100
AcDbEntity
  8
0
  6
Continuous
 62
     7
370
    15
100
AcDbLine
 10
23.05075222672631
 20
13.18668765459111
 30
0.0
 11
23.01897014664312
 21
13.20090092726918
 31
0.0
  0
LINE
  5
319
330
1F
100
AcDbEntity
  8
0
  6
Continuous
 62
     7
370
    15
100
AcDbLine
 10
22.98317506544289
 20
13.37719235837708
 30
0.0
 11
23.0016695214224
 21
13.37742607045477
 31
0.0
  0
LINE
  5
31A
330
1F
100
AcDbEntity
  8
0
  6
Continuous
 62
     7
370
    15
100
AcDbLine
 10
22.98317506544289
 20
13.37719235837708
 30
0.0
 11
23.01897014664312
 21
13.20090092726918
 31
0.0
  0
ELLIPSE
  5
31B
330
1F
100
AcDbEntity
  8
0
  6
Continuous
 62
     7
370
    15
100
AcDbEllipse
 10
23.00107381224792
 20
13.38173182187237
 30
0.0
 11
0.0579263476910796
 21
0.0119959044847082
 31
0.0
210
0.0
220
0.0
230
1.0
 40
0.3502391859891797
 41
5.164094588794277
 42
6.433325640283689
  0
LINE
  5
31C
330
1F
100
AcDbEntity
  8
0
  6
Continuous
 62
     7
370
    15
100
AcDbLine
 10
23.03009090006724
 20
13.3686961082593
 30
0.0
 11
23.03013871419797
 21
13.36871479218597
 31
0.0
  0
LINE
  5
31D
330
1F
100
AcDbEntity
  8
0
  6
Continuous
 62
     7
370
    15
100
AcDbLine
 10
23.0300597771171
 20
13.36871013319822
 30
0.0
 11
23.03009090006724
 21
13.3686961082593
 31
0.0
  0
LINE
  5
31E
330
1F
100
AcDbEntity
  8
0
  6
Continuous
 62
     7
370
    15
100
AcDbLine
 10
23.02010297243405
 20
13.37354479315473
 30
0.0
 11
23.00700043468917
 21
13.36842482441916
 31
0.0
  0
LINE
  5
31F
330
1F
100
AcDbEntity
  8
0
  6
Continuous
 62
     7
370
    15
100
AcDbLine
 10
23.02539971627995
 20
13.37591815244706
 30
0.0
 11
23.02010297243405
 21
13.37354479315473
 31
0.0
  0
LINE
  5
320
330
1F
100
AcDbEntity
  8
0
  6
Continuous
 62
     7
370
    15
100
AcDbLine
 10
23.03009090006724
 20
13.3686961082593
 30
0.0
 11
23.05538615692089
 21
13.19178235528016
 31
0.0
  0
LINE
  5
321
330
1F
100
AcDbEntity
  8
0
  6
Continuous
 62
     7
370
    15
100
AcDbLine
 10
23.05538615779324
 20
13.19178235107766
 30
0.0
 11
23.05712747615456
 21
13.17880183811615
 31
0.0
  0
LWPOLYLINE
  5
322
330
1F
100
AcDbEntity
  8
0
  6
Continuous
 62
     7
370
    15
100
AcDbPolyline
 90
        3
 70
   128
 43
0.0
 10
23.05712801017355
 20
13.17880177651202
 10
23.05596369177576
 20
13.18349185472265
 10
23.05581951383768
 20
13.18440298926961
  0
LINE
  5
323
330
1F
100
AcDbEntity
  8
0
  6
Continuous
 62
     7
370
    15
100
AcDbLine
 10
23.03013871419797
 20
13.36871479218597
 30
0.0
 11
23.05523865236714
 21
13.19316709212655
 31
0.0
  0
LINE
  5
324
330
1F
100
AcDbEntity
  8
0
  6
Continuous
 62
     7
370
    15
100
AcDbLine
 10
23.05538615692089
 20
13.19178235528016
 30
0.0
 11
23.05523865236714
 21
13.19316709212655
 31
0.0
  0
LINE
  5
325
330
1F
100
AcDbEntity
  8
0
  6
Continuous
 62
     7
370
    15
100
AcDbLine
 10
22.98318311243945
 20
13.37719550283441
 30
0.0
 11
22.98317506544289
 21
13.37719235837708
 31
0.0
  0
ARC
  5
326
330
1F
100
AcDbEntity
  8
0
  6
Continuous
 62
     7
370
    15
100
AcDbCircle
 10
22.98927576294083
 20
13.2027983812443
 30
0.0
 40
0.063552428064244
100
AcDbArc
 50
324.0704664871056
 51
345.3151052458168
  0
ARC
  5
327
330
1F
100
AcDbEntity
  8
0
  6
Continuous
 62
     7
370
    15
100
AcDbCircle
 10
23.00126523387694
 20
13.19727869990716
 30
0.0
 40
0.0180716481572753
100
AcDbArc
 50
290.1978250480329
 51
11.56251611990513
  0
LWPOLYLINE
  5
328
330
1F
100
AcDbEntity
  8
0
  6
Continuous
 62
     7
370
    15
100
AcDbPolyline
 90
        3
 70
   128
 43
0.0
 10
23.04447910817599
 20
13.16375778916741
 10
23.04358876885652
 20
13.16340665528121
 10
23.0426957760784
 20
13.16305667987506
  0
ARC
  5
329
330
1F
100
AcDbEntity
  8
0
  6
Continuous
 62
     7
370
    15
100
AcDbCircle
 10
23.03730480723511
 20
13.1826276326468
 30
0.0
 40
0.0201876507967467
100
AcDbArc
 50
290.8167714935545
 51
349.075516098256
  0
LINE
  5
32A
330
1F
100
AcDbEntity
  8
0
  6
Continuous
 62
     7
370
    15
100
AcDbLine
 10
23.04073666048005
 20
13.1655064633891
 30
0.0
 11
23.0444792850806
 21
13.16375756469238
 31
0.0
  0
LINE
  5
32B
330
1F
100
AcDbEntity
  8
0
  6
Continuous
 62
     7
370
    15
100
AcDbLine
 10
21.98572535398093
 20
13.17037668983824
 30
0.0
 11
21.98551452459059
 21
13.17178997715572
 31
0.0
  0
ARC
  5
32C
330
1F
100
AcDbEntity
  8
0
  6
Continuous
 62
     7
370
    15
100
AcDbCircle
 10
21.9347050647307
 20
13.30493499566763
 30
0.0
 40
0.1439062458090473
100
AcDbArc
 50
258.7474794573477
 51
290.7651562630339
  0
ARC
  5
32D
330
1F
100
AcDbEntity
  8
0
  6
Continuous
 62
     7
370
    15
100
AcDbCircle
 10
21.99396923804315
 20
13.17797291757038
 30
0.0
 40
0.0884882850661237
100
AcDbArc
 50
113.4156428522379
 51
189.2198112159148
  0
ARC
  5
32E
330
1F
100
AcDbEntity
  8
0
  6
Continuous
 62
     7
370
    15
100
AcDbCircle
 10
21.89922333505115
 20
13.17816927998462
 30
0.0
 40
0.1005565121014248
100
AcDbArc
 50
9.264161155339865
 51
53.66463085463056
  0
LWPOLYLINE
  5
32F
330
1F
100
AcDbEntity
  8
0
  6
Continuous
 62
     7
370
    15
100
AcDbPolyline
 90
        3
 70
   128
 43
0.0
 10
21.99846824909445
 20
13.1943575214747
 10
21.994322218472
 20
13.19207975651974
 10
21.9907321905515
 20
13.18873465767839
  0
LINE
  5
330
330
1F
100
AcDbEntity
  8
0
  6
Continuous
 62
     7
370
    15
100
AcDbLine
 10
21.9907321905515
 20
13.18873465767839
 30
0.0
 11
21.98878878362554
 21
13.18606210815433
 31
0.0
  0
ARC
  5
331
330
1F
100
AcDbEntity
  8
0
  6
Continuous
 62
     7
370
    15
100
AcDbCircle
 10
22.00073419003937
 20
13.17527443740585
 30
0.0
 40
0.0160948965628254
100
AcDbArc
 50
137.9156371555245
 51
176.2871987037743
  0
LINE
  5
332
330
1F
100
AcDbEntity
  8
0
  6
Continuous
 62
     7
370
    15
100
AcDbLine
 10
21.9855144552319
 20
13.17178998640002
 30
0.0
 11
21.98467136822206
 21
13.17631643638195
 31
0.0
  0
LINE
  5
333
330
1F
100
AcDbEntity
  8
0
  6
Continuous
 62
     7
370
    15
100
AcDbLine
 10
22.02069356428624
 20
12.98189383687295
 30
0.0
 11
21.98572535398093
 21
13.17037668983824
 31
0.0
  0
ELLIPSE
  5
334
330
1F
100
AcDbEntity
  8
0
  6
Continuous
 62
     7
370
    15
100
AcDbEllipse
 10
21.99182000990617
 20
12.99498565171781
 30
0.0
 11
0.0578287205545465
 21
0.0120327567266845
 31
0.0
210
0.0
220
0.0
230
0.9999999999999998
 40
0.3512847318306981
 41
3.591783688292053
 42
5.160677362984781
  0
LINE
  5
335
330
1F
100
AcDbEntity
  8
0
  6
Continuous
 62
     7
370
    15
100
AcDbLine
 10
21.94159235018039
 20
12.97531225024771
 30
0.0
 11
21.90662413987507
 21
13.163795103213
 31
0.0
  0
LINE
  5
336
330
1F
100
AcDbEntity
  8
0
  6
Continuous
 62
     7
370
    15
100
AcDbLine
 10
21.99846824909445
 20
13.1943575214747
 30
0.0
 11
22.95865184794844
 21
13.56956040982059
 31
0.0
  0
LINE
  5
337
330
1F
100
AcDbEntity
  8
0
  6
Continuous
 62
     7
370
    15
100
AcDbLine
 10
22.91898773040638
 20
13.63437674112909
 30
0.0
 11
21.95880413155239
 21
13.2591738527832
 31
0.0
  0
ARC
  5
338
330
1F
100
AcDbEntity
  8
0
  6
Continuous
 62
     7
370
    15
100
AcDbCircle
 10
22.85940693390512
 20
13.5533721683305
 30
0.0
 40
0.1005565121014435
100
AcDbArc
 50
9.264161155342232
 51
53.66463085462378
  0
LINE
  5
339
330
1F
100
AcDbEntity
  8
0
  6
Continuous
 62
     7
370
    15
100
AcDbLine
 10
22.02069356428624
 20
12.98189383687295
 30
0.0
 11
22.02074140960688
 21
12.98191253298744
 31
0.0
  0
LINE
  5
33A
330
1F
100
AcDbEntity
  8
0
  6
Continuous
 62
     7
370
    15
100
AcDbLine
 10
22.02074140960688
 20
12.98191253298744
 30
0.0
 11
21.9855144552319
 21
13.17178998640002
 31
0.0
  0
LINE
  5
33B
330
1F
100
AcDbEntity
  8
0
  6
Continuous
 62
     7
370
    15
100
AcDbLine
 10
21.9850817248548
 20
13.17190888302602
 30
0.0
 11
21.98517083904438
 21
13.17185639648682
 31
0.0
  0
LINE
  5
33C
330
1F
100
AcDbEntity
  8
0
  6
Continuous
 62
     7
370
    15
100
AcDbLine
 10
21.98517083904438
 20
13.17185639648682
 30
0.0
 11
21.9906411656293
 21
13.16881419276358
 31
0.0
  0
LINE
  5
33D
330
1F
100
AcDbEntity
  8
0
  6
Continuous
 62
     7
370
    15
100
AcDbLine
 10
22.02535209990426
 20
13.00096053456178
 30
0.0
 11
22.02074140960688
 21
12.98191253298744
 31
0.0
  0
ARC
  5
33E
330
1F
100
AcDbEntity
  8
0
  6
Continuous
 62
     7
370
    15
100
AcDbCircle
 10
22.00286601908404
 20
13.17433228220786
 30
0.0
 40
0.0178675517835984
100
AcDbArc
 50
115.0183342099799
 51
187.9650389896814
  0
LWPOLYLINE
  5
33F
330
1F
100
AcDbEntity
  8
0
  6
Continuous
 62
     7
370
    15
100
AcDbPolyline
 90
        3
 70
   128
 43
0.0
 10
21.98878922114434
 20
13.18606162487362
 10
21.99278880661936
 20
13.18930354590136
 10
21.99530968399816
 20
13.19052336638433
  0
LINE
  5
340
330
1F
100
AcDbEntity
  8
0
  6
Continuous
 62
     7
370
    15
100
AcDbLine
 10
22.00089864751411
 20
13.18752635319308
 30
0.0
 11
21.99530968399816
 21
13.19052336638433
 31
0.0
  0
ARC
  5
341
330
1F
100
AcDbEntity
  8
0
  6
Continuous
 62
     7
370
    15
100
AcDbCircle
 10
22.0066190246792
 20
13.17222309050984
 30
0.0
 40
0.0163374589108281
100
AcDbArc
 50
110.495800883099
 51
192.0435623042759
  0
LWPOLYLINE
  5
342
330
1F
100
AcDbEntity
  8
0
  6
Continuous
 62
     7
370
    15
100
AcDbPolyline
 90
        3
 70
   128
 43
0.0
 10
22.96747869162102
 20
13.57040969234929
 10
22.96307377893921
 20
13.57063067533434
 10
22.95865184794844
 20
13.56956040982059
  0
LINE
  5
343
330
1F
100
AcDbEntity
  8
0
  6
Continuous
 62
     7
370
    15
100
AcDbLine
 10
22.97022478110548
 20
13.56956961798954
 30
0.0
 11
22.96747869162102
 21
13.57040969234929
 31
0.0
  0
LWPOLYLINE
  5
344
330
1F
100
AcDbEntity
  8
0
  6
Continuous
 62
     7
370
    15
100
AcDbPolyline
 90
        3
 70
   128
 43
0.0
 10
22.96290122936427
 20
13.56862099583117
 10
22.96563682346074
 20
13.56943383116419
 10
22.97022459482609
 20
13.56956889095245
  0
LINE
  5
345
330
1F
100
AcDbEntity
  8
0
  6
Continuous
 62
     7
370
    15
100
AcDbLine
 10
22.96290122936427
 20
13.56862099583117
 30
0.0
 11
21.99530968399816
 21
13.19052336638433
 31
0.0
  0
LINE
  5
346
330
1F
100
AcDbEntity
  8
0
  6
Continuous
 62
     7
370
    15
100
AcDbLine
 10
21.95880413155239
 20
13.2591738527832
 30
0.0
 11
21.13631724526543
 21
13.62981122117271
 31
0.0
  0
LINE
  5
347
330
1F
100
AcDbEntity
  8
0
  6
Continuous
 62
     7
370
    15
100
AcDbLine
 10
21.90662413987507
 20
13.163795103213
 30
0.0
 11
21.08333163278915
 21
13.53479550860385
 31
0.0
  0
ARC
  5
348
330
1F
100
AcDbEntity
  8
0
  6
Continuous
 62
     7
370
    15
100
AcDbCircle
 10
21.17145857250008
 20
13.54793302525489
 30
0.0
 40
0.089100795992908
100
AcDbArc
 50
113.2285401668154
 51
188.4789218420366
  0
LINE
  5
349
330
1F
100
AcDbEntity
  8
0
  6
Continuous
 62
     7
370
    15
100
AcDbLine
 10
22.96290122936427
 20
13.56862099583117
 30
0.0
 11
22.9326865787991
 21
13.55163330478155
 31
0.0
  0
LINE
  5
34A
330
1F
100
AcDbEntity
  8
0
  6
Continuous
 62
     7
370
    15
100
AcDbLine
 10
21.94159235018039
 20
12.97531225024771
 30
0.0
 11
21.10972872278594
 21
13.3501750606547
 31
0.0
  0
LINE
  5
34B
330
1F
100
AcDbEntity
  8
0
  6
Continuous
 62
     7
370
    15
100
AcDbLine
 10
21.10972872278594
 20
13.3501750606547
 30
0.0
 11
21.08333163278915
 21
13.53479550860385
 31
0.0
  0
LINE
  5
34C
330
1F
100
AcDbEntity
  8
0
  6
Continuous
 62
     7
370
    15
100
AcDbLine
 10
21.13631724526543
 20
13.62981122117271
 30
0.0
 11
22.09650084411942
 21
14.0050141095186
 31
0.0
  0
LINE
  5
34D
330
1F
100
AcDbEntity
  8
0
  6
Continuous
 62
     7
370
    15
100
AcDbLine
 10
22.09650084411942
 20
14.0050141095186
 30
0.0
 11
22.91898773040638
 21
13.63437674112909
 31
0.0
  0
LINE
  5
34E
330
1F
100
AcDbEntity
  8
0
  6
Continuous
 62
     7
370
    15
100
AcDbLine
 10
22.8740240259296
 20
13.63814043953526
 30
0.0
 11
22.10224542808167
 21
13.98592712556625
 31
0.0
  0
LINE
  5
34F
330
1F
100
AcDbEntity
  8
0
  6
Continuous
 62
     7
370
    15
100
AcDbLine
 10
22.10224542808167
 20
13.98592712556625
 30
0.0
 11
21.18127290969351
 21
13.62604642212698
 31
0.0
  0
LINE
  5
350
330
1F
100
AcDbEntity
  8
0
  6
Continuous
 62
     7
370
    15
100
AcDbLine
 10
21.18127290969351
 20
13.62604642212698
 30
0.0
 11
21.95305150754144
 21
13.27825973609598
 31
0.0
  0
LINE
  5
351
330
1F
100
AcDbEntity
  8
0
  6
Continuous
 62
     7
370
    15
100
AcDbLine
 10
21.95305150754144
 20
13.27825973609598
 30
0.0
 11
22.8740240259296
 21
13.63814043953526
 31
0.0
  0
LINE
  5
352
330
1F
100
AcDbEntity
  8
0
  6
Continuous
 62
     7
370
    15
100
AcDbLine
 10
22.85457867685122
 20
13.63054196022702
 30
0.0
 11
22.10599217548789
 21
13.96787758891983
 31
0.0
  0
LINE
  5
353
330
1F
100
AcDbEntity
  8
0
  6
Continuous
 62
     7
370
    15
100
AcDbLine
 10
22.10599217548789
 20
13.96787758891983
 30
0.0
 11
21.20446500595926
 21
13.615595381295
 31
0.0
  0
LINE
  5
354
330
1F
100
AcDbEntity
  8
0
  6
Continuous
 62
     7
370
    15
100
AcDbLine
 10
22.97936699217824
 20
13.55865369548314
 30
0.0
 11
22.97895036478845
 21
13.55998660119017
 31
0.0
  0
LINE
  5
355
330
1F
100
AcDbEntity
  8
0
  6
Continuous
 62
     7
370
    15
100
AcDbLine
 10
22.97775018450875
 20
13.56437351283129
 30
0.0
 11
22.97895036478845
 21
13.55998660119017
 31
0.0
  0
ARC
  5
356
330
1F
100
AcDbEntity
  8
0
  6
Continuous
 62
     7
370
    15
100
AcDbCircle
 10
22.9685250414858
 20
13.55906276064213
 30
0.0
 40
0.0106427090373615
100
AcDbArc
 50
29.92759447898405
 51
80.81099247369452
  0
LINE
  5
357
330
1F
100
AcDbEntity
  8
0
  6
Continuous
 62
     7
370
    15
100
AcDbLine
 10
22.94859056891107
 20
13.5431440432521
 30
0.0
 11
22.97803182500557
 21
13.5598283532076
 31
0.0
  0
ARC
  5
358
330
1F
100
AcDbEntity
  8
0
  6
Continuous
 62
     7
370
    15
100
AcDbCircle
 10
22.96354059291684
 20
13.55230635651933
 30
0.0
 40
0.0163271626937368
100
AcDbArc
 50
27.43257442919043
 51
92.244247995104
  0
ARC
  5
359
330
1F
100
AcDbEntity
  8
0
  6
Continuous
 62
     7
370
    15
100
AcDbCircle
 10
22.93749749283046
 20
13.54150409602578
 30
0.0
 40
0.0112136418631596
100
AcDbArc
 50
8.409423237161897
 51
115.4055944955373
  0
LINE
  5
35A
330
1F
100
AcDbEntity
  8
0
  6
Continuous
 62
     7
370
    15
100
AcDbLine
 10
22.97803182500557
 20
13.5598283532076
 30
0.0
 11
22.97852421548218
 21
13.560108069446
 31
0.0
  0
LWPOLYLINE
  5
35B
330
1F
100
AcDbEntity
  8
0
  6
Continuous
 62
     7
370
    15
100
AcDbPolyline
 90
        3
 70
   128
 43
0.0
 10
22.97852421548218
 20
13.560108069446
 10
23.00419392981857
 20
13.4667879193624
 10
23.02916456954852
 20
13.37596558985759
  0
LINE
  5
35C
330
1F
100
AcDbEntity
  8
0
  6
Continuous
 62
     7
370
    15
100
AcDbLine
 10
23.02916456954852
 20
13.37596558985759
 30
0.0
 11
22.98355910064569
 21
13.3753910442482
 31
0.0
  0
LWPOLYLINE
  5
35D
330
1F
100
AcDbEntity
  8
0
  6
Continuous
 62
     7
370
    15
100
AcDbPolyline
 90
        3
 70
   128
 43
0.0
 10
22.97852421548218
 20
13.560108069446
 10
22.97810570973292
 20
13.56189061373863
 10
22.97775147042148
 20
13.56437250247748
  0
LINE
  5
35E
330
1F
100
AcDbEntity
  8
0
  6
Continuous
 62
     7
370
    15
100
AcDbLine
 10
22.97895036478845
 20
13.55998660119017
 30
0.0
 11
23.02916456954852
 21
13.37596558985759
 31
0.0
  0
ELLIPSE
  5
35F
330
1F
100
AcDbEntity
  8
0
  6
Continuous
 62
     7
370
    15
100
AcDbEllipse
 10
23.00014745178909
 20
13.38900130564528
 30
0.0
 11
0.0579263476910796
 21
0.0119959044847082
 31
0.0
210
0.0
220
0.0
230
1.0
 40
0.3502391859891797
 41
5.164094588794239
 42
6.304989391840902
  0
LINE
  5
360
330
1F
100
AcDbEntity
  8
0
  6
Continuous
 62
     7
370
    15
100
AcDbLine
 10
22.97936699217824
 20
13.55865369548314
 30
0.0
 11
23.02921238367925
 21
13.37598427378426
 31
0.0
  0
LINE
  5
361
330
1F
100
AcDbEntity
  8
0
  6
Continuous
 62
     7
370
    15
100
AcDbLine
 10
23.02916456954852
 20
13.37596558985759
 30
0.0
 11
23.02921238367925
 21
13.37598427378426
 31
0.0
  0
LINE
  5
362
330
1F
100
AcDbEntity
  8
0
  6
Continuous
 62
     7
370
    15
100
AcDbLine
 10
22.10599217548789
 20
13.96787758891983
 30
0.0
 11
22.10224542808167
 21
13.98592712556625
 31
0.0
  0
ELLIPSE
  5
363
330
1F
100
AcDbEntity
  8
0
  6
Continuous
 62
     7
370
    15
100
AcDbEllipse
 10
21.16006659166432
 20
13.36979879856059
 30
0.0
 11
0.0579263476910832
 21
0.0119959044847082
 31
0.0
210
0.0
220
0.0
230
1.0
 40
0.350239185989142
 41
3.119788568928531
 42
3.591395609897351
  0
LWPOLYLINE
  5
364
330
1F
100
AcDbEntity
  8
0
  6
Continuous
 62
     7
370
    15
100
AcDbPolyline
 90
        4
 70
   128
 43
0.0
 10
22.08251235412902
 20
12.78785356705414
 10
22.0828112365883
 20
12.77158392993592
 10
22.07936874673654
 20
12.75996261214081
 10
22.07336939055344
 20
12.75503381943309
  0
ARC
  5
365
330
1F
100
AcDbEntity
  8
0
  6
Continuous
 62
     7
370
    15
100
AcDbCircle
 10
22.04098132987494
 20
12.81034489239598
 30
0.0
 40
0.059711237992813
100
AcDbArc
 50
191.6291735847023
 51
245.4918532153177
  0
LWPOLYLINE
  5
366
330
1F
100
AcDbEntity
  8
0
  6
Continuous
 62
     7
370
    15
100
AcDbPolyline
 90
        4
 70
   128
 43
0.0
 10
23.0336183979799
 20
13.13029040839905
 10
23.03955234559054
 20
13.1351655004867
 10
23.04299483544229
 20
13.14678681828181
 10
23.04269595298301
 20
13.16305645540003
  0
ARC
  5
367
330
1F
100
AcDbEntity
  8
0
  6
Continuous
 62
     7
370
    15
100
AcDbCircle
 10
21.21526173734224
 20
13.17966452419057
 30
0.0
 40
0.0570069121092416
100
AcDbArc
 50
190.4662026824351
 51
247.5893371215422
  0
LWPOLYLINE
  5
368
330
1F
100
AcDbEntity
  8
0
  6
Continuous
 62
     7
370
    15
100
AcDbPolyline
 90
        4
 70
   128
 43
0.0
 10
23.08357249923938
 20
13.21684576827668
 10
23.08240680571109
 20
13.20987095509894
 10
23.07235550200493
 20
13.20094051197
 10
23.05523865236714
 20
13.19316709212655
  0
LINE
  5
369
330
1F
100
AcDbEntity
  8
0
  6
Continuous
 62
     7
370
    15
100
AcDbLine
 10
23.01962540817267
 20
13.37584540557993
 30
0.0
 11
23.02010297243405
 21
13.37354479315473
 31
0.0
  0
LWPOLYLINE
  5
36A
330
1F
100
AcDbEntity
  8
0
  6
Continuous
 62
     7
370
    15
100
AcDbPolyline
 90
        3
 70
   128
 43
0.0
 10
21.15920329297805
 20
13.16930890524727
 10
21.15214848874893
 20
13.17507115095118
 10
21.15228977225085
 20
13.17581411799322
  0
ARC
  5
36B
330
1F
100
AcDbEntity
  8
0
  6
Continuous
 62
     7
370
    15
100
AcDbCircle
 10
22.94198609026442
 20
13.58030524908061
 30
0.0
 40
0.0587592614700809
100
AcDbArc
 50
65.39201763145367
 51
113.0416235934134
  0
LWPOLYLINE
  5
36C
330
1F
100
AcDbEntity
  8
0
  6
Continuous
 62
     7
370
    15
100
AcDbPolyline
 90
        4
 70
   128
 43
0.0
 10
23.00759274887369
 20
13.58499601146249
 10
23.00613029588057
 20
13.57730787633138
 10
22.99618419606383
 20
13.56787062522962
 10
22.97936699217824
 20
13.55865369548314
  0
ARC
  5
36D
330
1F
100
AcDbEntity
  8
0
  6
Continuous
 62
     7
370
    15
100
AcDbCircle
 10
22.11933704538276
 20
13.95166011213801
 30
0.0
 40
0.0580356883704188
100
AcDbArc
 50
65.26409042580469
 51
113.1715513631837
  0
LWPOLYLINE
  5
36E
330
1F
100
AcDbEntity
  8
0
  6
Continuous
 62
     7
370
    15
100
AcDbPolyline
 90
        3
 70
   128
 43
0.0
 10
21.13631724526543
 20
13.62981122117271
 10
21.12634338242479
 20
13.63077170520922
 10
21.12617654707632
 20
13.63060351250425
  0
LWPOLYLINE
  5
36F
330
1F
100
AcDbEntity
  8
0
  6
Continuous
 62
     7
370
    15
100
AcDbPolyline
 90
        3
 70
   128
 43
0.0
 10
21.08333163278915
 20
13.53479550860385
 10
21.07597718280783
 20
13.5420012642108
 10
21.0762025609221
 20
13.54335008890811
  0
LWPOLYLINE
  5
370
330
1F
100
AcDbEntity
  8
0
  6
Continuous
 62
     7
370
    15
100
AcDbPolyline
 90
        3
 70
   128
 43
0.0
 10
22.08630461503731
 20
14.00575039158891
 10
22.08652698127879
 20
14.00597459355511
 10
22.09650084411942
 20
14.0050141095186
  0
LINE
  5
371
330
1F
100
AcDbEntity
  8
0
  6
Continuous
 62
     7
370
    15
100
AcDbLine
 10
4.003504892704524
 20
7.807244271270882
 30
0.0
 11
3.826339546000395
 21
7.804151840328241
 31
0.0
  0
LINE
  5
372
330
1F
100
AcDbEntity
  8
0
  6
Continuous
 62
     7
370
    15
100
AcDbLine
 10
3.826339546000395
 20
7.623328834211038
 30
0.0
 11
4.003504892704524
 21
7.620236403268398
 31
0.0
  0
LINE
  5
373
330
1F
100
AcDbEntity
  8
0
  6
Continuous
 62
     7
370
    15
100
AcDbLine
 10
4.003504892704528
 20
9.933228541719172
 30
0.0
 11
3.826339546000398
 21
9.930136110776532
 31
0.0
  0
LINE
  5
374
330
1F
100
AcDbEntity
  8
0
  6
Continuous
 62
     7
370
    15
100
AcDbLine
 10
3.826339546000397
 20
9.74931301299372
 30
0.0
 11
4.003504892704527
 21
9.74622058205108
 31
0.0
  0
LINE
  5
375
330
1F
100
AcDbEntity
  8
0
  6
Continuous
 62
     7
370
    15
100
AcDbLine
 10
4.003504892704524
 20
8.085363591746091
 30
0.0
 11
3.609804114102847
 21
8.080209766283523
 31
0.0
  0
LINE
  5
376
330
1F
100
AcDbEntity
  8
0
  6
Continuous
 62
     7
370
    15
100
AcDbLine
 10
3.609804114102847
 20
7.86413945713784
 30
0.0
 11
4.003504892704523
 21
7.85898563167527
 31
0.0
  0
LINE
  5
377
330
1F
100
AcDbEntity
  8
0
  6
Continuous
 62
     7
370
    15
100
AcDbLine
 10
4.003504892704526
 20
9.694479233104893
 30
0.0
 11
3.609804114102849
 21
9.689325425975445
 31
0.0
  0
LINE
  5
378
330
1F
100
AcDbEntity
  8
0
  6
Continuous
 62
     7
370
    15
100
AcDbLine
 10
3.609804114102849
 20
9.47325521537029
 30
0.0
 11
4.003504892704526
 21
9.468101408240842
 31
0.0
  0
LINE
  5
379
330
1F
100
AcDbEntity
  8
0
  6
Continuous
 62
     7
370
    15
100
AcDbLine
 10
3.141300184633557
 20
9.484864774589006
 30
0.0
 11
3.180670269826973
 21
9.484864774589006
 31
0.0
  0
LINE
  5
37A
330
1F
100
AcDbEntity
  8
0
  6
Continuous
 62
     7
370
    15
100
AcDbLine
 10
3.180670269826973
 20
9.72108513908453
 30
0.0
 11
3.141300184633557
 21
9.72108513908453
 31
0.0
  0
LINE
  5
37B
330
1F
100
AcDbEntity
  8
0
  6
Continuous
 62
     7
370
    15
100
AcDbLine
 10
3.141300184633554
 20
7.615330698272855
 30
0.0
 11
3.318465549670805
 21
7.618423129215496
 31
0.0
  0
LINE
  5
37C
330
1F
100
AcDbEntity
  8
0
  6
Continuous
 62
     7
370
    15
100
AcDbLine
 10
3.318465549670805
 20
7.809088656631052
 30
0.0
 11
3.141300184633554
 21
7.812181092156974
 31
0.0
  0
LINE
  5
37D
330
1F
100
AcDbEntity
  8
0
  6
Continuous
 62
     7
370
    15
100
AcDbLine
 10
3.141300184633557
 20
9.741314932054903
 30
0.0
 11
3.318465549670808
 21
9.744407362997543
 31
0.0
  0
LINE
  5
37E
330
1F
100
AcDbEntity
  8
0
  6
Continuous
 62
     7
370
    15
100
AcDbLine
 10
3.318465549670809
 20
9.935072853746858
 30
0.0
 11
3.141300184633557
 21
9.938165284689498
 31
0.0
  0
LINE
  5
37F
330
1F
100
AcDbEntity
  8
0
  6
Continuous
 62
     7
370
    15
100
AcDbLine
 10
3.141300184633552
 20
7.858985631675272
 30
0.0
 11
3.318465549670804
 21
7.861304852904263
 31
0.0
  0
LINE
  5
380
330
1F
100
AcDbEntity
  8
0
  6
Continuous
 62
     7
370
    15
100
AcDbLine
 10
3.381457678647021
 20
7.86212946525327
 30
0.0
 11
3.574371066761766
 21
7.864654840142424
 31
0.0
  0
LINE
  5
381
330
1F
100
AcDbEntity
  8
0
  6
Continuous
 62
     7
370
    15
100
AcDbLine
 10
3.574371066761767
 20
8.079694367237458
 30
0.0
 11
3.381457678647022
 21
8.082219754730632
 31
0.0
  0
LINE
  5
382
330
1F
100
AcDbEntity
  8
0
  6
Continuous
 62
     7
370
    15
100
AcDbLine
 10
3.318465549670804
 20
8.08304436020472
 30
0.0
 11
3.141300184633553
 21
8.085363591746093
 31
0.0
  0
LINE
  5
383
330
1F
100
AcDbEntity
  8
0
  6
Continuous
 62
     7
370
    15
100
AcDbLine
 10
3.141300184633555
 20
9.468132501214988
 30
0.0
 11
3.318465549670806
 21
9.470451714423239
 31
0.0
  0
LINE
  5
384
330
1F
100
AcDbEntity
  8
0
  6
Continuous
 62
     7
370
    15
100
AcDbLine
 10
3.381457678647024
 20
9.47127626489796
 30
0.0
 11
3.574371066761769
 21
9.473801689057379
 31
0.0
  0
LINE
  5
385
330
1F
100
AcDbEntity
  8
0
  6
Continuous
 62
     7
370
    15
100
AcDbLine
 10
3.574371066761769
 20
9.688841138236645
 30
0.0
 11
3.381457678647024
 21
9.691366562396064
 31
0.0
  0
LINE
  5
386
330
1F
100
AcDbEntity
  8
0
  6
Continuous
 62
     7
370
    15
100
AcDbLine
 10
3.318465549670806
 20
9.692191259535759
 30
0.0
 11
3.180670269826971
 21
9.693995092031064
 31
0.0
  0
LWPOLYLINE
  5
387
330
1F
100
AcDbEntity
  8
0
  6
Continuous
 62
     7
370
    15
100
AcDbPolyline
 90
        3
 70
   128
 43
0.0
 10
3.146816217578539
 20
10.57138264970846
 10
3.142929284147392
 20
10.57084028264059
 10
3.141888815333643
 20
10.57049708660523
  0
LINE
  5
388
330
1F
100
AcDbEntity
  8
0
  6
Continuous
 62
     7
370
    15
100
AcDbLine
 10
3.381457678647028
 20
10.40395197054862
 30
0.0
 11
3.318465549670811
 21
10.40395197054862
 31
0.0
  0
LINE
  5
389
330
1F
100
AcDbEntity
  8
0
  6
Continuous
 62
     7
370
    15
100
AcDbLine
 10
3.318465549670806
 20
7.149543939081246
 30
0.0
 11
3.381457678647024
 21
7.149543939081246
 31
0.0
  0
LINE
  5
38A
330
1F
100
AcDbEntity
  8
0
  6
Continuous
 62
     7
370
    15
100
AcDbLine
 10
3.318465549670806
 20
7.149543939081246
 30
0.0
 11
3.318465549670811
 21
10.40395197054862
 31
0.0
  0
LINE
  5
38B
330
1F
100
AcDbEntity
  8
0
  6
Continuous
 62
     7
370
    15
100
AcDbLine
 10
3.381457678647024
 20
7.149543939081246
 30
0.0
 11
3.381457678647028
 21
10.40395197054862
 31
0.0
  0
LINE
  5
38C
330
1F
100
AcDbEntity
  8
0
  6
Continuous
 62
     7
370
    15
100
AcDbLine
 10
4.026733251035219
 20
10.44155774945678
 30
0.0
 11
4.02673325103522
 21
10.50848684295285
 31
0.0
  0
LINE
  5
38D
330
1F
100
AcDbEntity
  8
0
  6
Continuous
 62
     7
370
    15
100
AcDbLine
 10
3.140906490014887
 20
10.44155774945678
 30
0.0
 11
4.026733251035219
 21
10.44155774945678
 31
0.0
  0
LINE
  5
38E
330
1F
100
AcDbEntity
  8
0
  6
Continuous
 62
     7
370
    15
100
AcDbLine
 10
3.140906490014887
 20
10.50848684295285
 30
0.0
 11
3.140906490014887
 21
10.44155774945678
 31
0.0
  0
LINE
  5
38F
330
1F
100
AcDbEntity
  8
0
  6
Continuous
 62
     7
370
    15
100
AcDbLine
 10
3.140906490014887
 20
10.50848684295285
 30
0.0
 11
4.02673325103522
 21
10.50848684295285
 31
0.0
  0
LINE
  5
390
330
1F
100
AcDbEntity
  8
0
  6
Continuous
 62
     7
370
    15
100
AcDbLine
 10
4.026733251035214
 20
7.048946287860562
 30
0.0
 11
4.026733251035214
 21
7.115875381356629
 31
0.0
  0
LINE
  5
391
330
1F
100
AcDbEntity
  8
0
  6
Continuous
 62
     7
370
    15
100
AcDbLine
 10
3.140906490014882
 20
7.048946287860563
 30
0.0
 11
4.026733251035214
 21
7.048946287860562
 31
0.0
  0
LINE
  5
392
330
1F
100
AcDbEntity
  8
0
  6
Continuous
 62
     7
370
    15
100
AcDbLine
 10
3.140906490014882
 20
7.11587538135663
 30
0.0
 11
3.140906490014882
 21
7.048946287860563
 31
0.0
  0
LINE
  5
393
330
1F
100
AcDbEntity
  8
0
  6
Continuous
 62
     7
370
    15
100
AcDbLine
 10
3.140906490014882
 20
7.11587538135663
 30
0.0
 11
4.026733251035214
 21
7.115875381356629
 31
0.0
  0
LINE
  5
394
330
1F
100
AcDbEntity
  8
0
  6
Continuous
 62
     7
370
    15
100
AcDbLine
 10
4.003504892704529
 20
9.241291801698107
 30
0.0
 11
3.993662426405539
 21
9.241291801698107
 31
0.0
  0
LINE
  5
395
330
1F
100
AcDbEntity
  8
0
  6
Continuous
 62
     7
370
    15
100
AcDbLine
 10
4.003504892704529
 20
9.256299148331956
 30
0.0
 11
3.993662426405539
 21
9.256299148331956
 31
0.0
  0
LINE
  5
396
330
1F
100
AcDbEntity
  8
0
  6
Continuous
 62
     7
370
    15
100
AcDbLine
 10
3.993662426405539
 20
9.241291801698107
 30
0.0
 11
3.993662426405539
 21
9.256299148331956
 31
0.0
  0
LINE
  5
397
330
1F
100
AcDbEntity
  8
0
  6
Continuous
 62
     7
370
    15
100
AcDbLine
 10
3.993662426405539
 20
9.226096283904691
 30
0.0
 11
4.003504892704529
 21
9.226096283904691
 31
0.0
  0
LINE
  5
398
330
1F
100
AcDbEntity
  8
0
  6
Continuous
 62
     7
370
    15
100
AcDbLine
 10
3.993662426405539
 20
9.226096283904691
 30
0.0
 11
3.993662426405539
 21
9.241291801698107
 31
0.0
  0
LINE
  5
399
330
1F
100
AcDbEntity
  8
0
  6
Continuous
 62
     7
370
    15
100
AcDbLine
 10
3.993662426405539
 20
9.294187110646983
 30
0.0
 11
4.003504892704529
 21
9.294187110646983
 31
0.0
  0
LINE
  5
39A
330
1F
100
AcDbEntity
  8
0
  6
Continuous
 62
     7
370
    15
100
AcDbLine
 10
3.993662426405539
 20
9.267938627205037
 30
0.0
 11
3.993662426405539
 21
9.294187110646983
 31
0.0
  0
LINE
  5
39B
330
1F
100
AcDbEntity
  8
0
  6
Continuous
 62
     7
370
    15
100
AcDbLine
 10
4.003504892704529
 20
9.016711576068036
 30
0.0
 11
3.993662426405539
 21
9.016711576068036
 31
0.0
  0
LINE
  5
39C
330
1F
100
AcDbEntity
  8
0
  6
Continuous
 62
     7
370
    15
100
AcDbLine
 10
3.993662426405539
 20
9.069698550624652
 30
0.0
 11
4.003504892704529
 21
9.069698550624652
 31
0.0
  0
LINE
  5
39D
330
1F
100
AcDbEntity
  8
0
  6
Continuous
 62
     7
370
    15
100
AcDbLine
 10
3.993662426405539
 20
9.069698550624652
 30
0.0
 11
3.993662426405539
 21
9.016711576068036
 31
0.0
  0
LINE
  5
39E
330
1F
100
AcDbEntity
  8
0
  6
Continuous
 62
     7
370
    15
100
AcDbLine
 10
4.141300154215244
 20
10.35153068279047
 30
0.0
 11
4.101930142354314
 21
10.35153068279047
 31
0.0
  0
LINE
  5
39F
330
1F
100
AcDbEntity
  8
0
  6
Continuous
 62
     7
370
    15
100
AcDbLine
 10
4.101930142354314
 20
10.35153068279047
 30
0.0
 11
4.101930142354309
 21
7.20192438064458
 31
0.0
  0
LINE
  5
3A0
330
1F
100
AcDbEntity
  8
0
  6
Continuous
 62
     7
370
    15
100
AcDbLine
 10
4.101930142354309
 20
7.20192438064458
 30
0.0
 11
4.141300154215239
 21
7.20192438064458
 31
0.0
  0
LINE
  5
3A1
330
1F
100
AcDbEntity
  8
0
  6
Continuous
 62
     7
370
    15
100
AcDbLine
 10
4.042874977897942
 20
7.115875381356629
 30
0.0
 11
4.042874977897942
 21
7.045009286674469
 31
0.0
  0
LINE
  5
3A2
330
1F
100
AcDbEntity
  8
0
  6
Continuous
 62
     7
370
    15
100
AcDbLine
 10
4.042874977897942
 20
7.115875381356629
 30
0.0
 11
3.964172280411553
 21
7.115875381356629
 31
0.0
  0
LINE
  5
3A3
330
1F
100
AcDbEntity
  8
0
  6
Continuous
 62
     7
370
    15
100
AcDbLine
 10
3.964172280411553
 20
7.165088006181521
 30
0.0
 11
3.964172280411553
 21
7.115875381356629
 31
0.0
  0
LINE
  5
3A4
330
1F
100
AcDbEntity
  8
0
  6
Continuous
 62
     7
370
    15
100
AcDbLine
 10
4.003504892704526
 20
7.165088006181521
 30
0.0
 11
3.964172280411553
 21
7.165088006181521
 31
0.0
  0
LINE
  5
3A5
330
1F
100
AcDbEntity
  8
0
  6
Continuous
 62
     7
370
    15
100
AcDbLine
 10
4.003504892704529
 20
9.272004326904394
 30
0.0
 11
3.993662426405539
 21
9.272004326904394
 31
0.0
  0
LINE
  5
3A6
330
1F
100
AcDbEntity
  8
0
  6
Continuous
 62
     7
370
    15
100
AcDbLine
 10
3.964172280411557
 20
10.38837703047165
 30
0.0
 11
4.00350489270453
 21
10.38837703047165
 31
0.0
  0
LINE
  5
3A7
330
1F
100
AcDbEntity
  8
0
  6
Continuous
 62
     7
370
    15
100
AcDbLine
 10
3.964172280411557
 20
10.43758958196406
 30
0.0
 11
3.964172280411557
 21
10.38837703047165
 31
0.0
  0
LINE
  5
3A8
330
1F
100
AcDbEntity
  8
0
  6
Continuous
 62
     7
370
    15
100
AcDbLine
 10
3.964172280411557
 20
10.43758958196406
 30
0.0
 11
4.042874977897946
 21
10.43758958196406
 31
0.0
  0
LINE
  5
3A9
330
1F
100
AcDbEntity
  8
0
  6
Continuous
 62
     7
370
    15
100
AcDbLine
 10
4.042874977897947
 20
10.50845574997871
 30
0.0
 11
4.042874977897946
 21
10.43758958196406
 31
0.0
  0
LINE
  5
3AA
330
1F
100
AcDbEntity
  8
0
  6
Continuous
 62
     7
370
    15
100
AcDbLine
 10
4.028341872452288
 20
10.57300300432332
 30
0.0
 11
4.023189971967482
 21
10.57322798839095
 31
0.0
  0
ARC
  5
3AB
330
1F
100
AcDbEntity
  8
0
  6
Continuous
 62
     7
370
    15
100
AcDbCircle
 10
4.023189950613062
 20
10.45500508879582
 30
0.0
 40
0.1181102362204731
100
AcDbArc
 50
0.0000000000002154
 51
87.5
  0
LINE
  5
3AC
330
1F
100
AcDbEntity
  8
0
  6
Continuous
 62
     7
370
    15
100
AcDbLine
 10
4.023189971967482
 20
10.57322798839095
 30
0.0
 11
3.985793703972361
 21
10.50845574997871
 31
0.0
  0
LINE
  5
3AD
330
1F
100
AcDbEntity
  8
0
  6
Continuous
 62
     7
370
    15
100
AcDbLine
 10
4.042874977897947
 20
10.50845574997871
 30
0.0
 11
3.985793703972361
 21
10.50845574997871
 31
0.0
  0
LINE
  5
3AE
330
1F
100
AcDbEntity
  8
0
  6
Continuous
 62
     7
370
    15
100
AcDbLine
 10
4.003504892704529
 20
9.10541968463773
 30
0.0
 11
3.993662426405539
 21
9.10541968463773
 31
0.0
  0
LINE
  5
3AF
330
1F
100
AcDbEntity
  8
0
  6
Continuous
 62
     7
370
    15
100
AcDbLine
 10
3.993662426405539
 20
9.10541968463773
 30
0.0
 11
3.993662426405539
 21
9.069698550624652
 31
0.0
  0
ARC
  5
3B0
330
1F
100
AcDbEntity
  8
0
  6
Continuous
 62
     7
370
    15
100
AcDbCircle
 10
4.023189950613057
 20
7.098459831060736
 30
0.0
 40
0.1181102362204722
100
AcDbArc
 50
272.5000000000008
 51
0.0000000000002154
  0
LINE
  5
3B1
330
1F
100
AcDbEntity
  8
0
  6
Continuous
 62
     7
370
    15
100
AcDbLine
 10
4.023189971967476
 20
6.980237048262227
 30
0.0
 11
4.028341872452283
 21
6.980462032329859
 31
0.0
  0
LINE
  5
3B2
330
1F
100
AcDbEntity
  8
0
  6
Continuous
 62
     7
370
    15
100
AcDbLine
 10
3.985793703972356
 20
7.045009286674469
 30
0.0
 11
4.023189971967476
 21
6.980237048262227
 31
0.0
  0
LINE
  5
3B3
330
1F
100
AcDbEntity
  8
0
  6
Continuous
 62
     7
370
    15
100
AcDbLine
 10
4.141300154215239
 20
7.20192438064458
 30
0.0
 11
4.141300154215239
 21
7.098459795876292
 31
0.0
  0
LINE
  5
3B4
330
1F
100
AcDbEntity
  8
0
  6
Continuous
 62
     7
370
    15
100
AcDbLine
 10
4.141300154215245
 20
10.4550051674444
 30
0.0
 11
4.141300154215244
 21
10.35153068279047
 31
0.0
  0
LINE
  5
3B5
330
1F
100
AcDbEntity
  8
0
  6
Continuous
 62
     7
370
    15
100
AcDbLine
 10
3.985793703972356
 20
7.045009286674469
 30
0.0
 11
4.042874977897942
 21
7.045009286674469
 31
0.0
  0
LINE
  5
3B6
330
1F
100
AcDbEntity
  8
0
  6
Continuous
 62
     7
370
    15
100
AcDbLine
 10
4.003504892704529
 20
9.294187110646983
 30
0.0
 11
4.003504892704529
 21
9.272004326904394
 31
0.0
  0
LINE
  5
3B7
330
1F
100
AcDbEntity
  8
0
  6
Continuous
 62
     7
370
    15
100
AcDbLine
 10
4.003504892704529
 20
9.256299148331956
 30
0.0
 11
4.003504892704529
 21
9.226096283904691
 31
0.0
  0
LINE
  5
3B8
330
1F
100
AcDbEntity
  8
0
  6
Continuous
 62
     7
370
    15
100
AcDbLine
 10
3.993662426405539
 20
9.210730194748398
 30
0.0
 11
4.003504892704529
 21
9.210730194748398
 31
0.0
  0
LINE
  5
3B9
330
1F
100
AcDbEntity
  8
0
  6
Continuous
 62
     7
370
    15
100
AcDbLine
 10
3.993662426405539
 20
9.272004326904394
 30
0.0
 11
3.993662426405539
 21
9.256299148331956
 31
0.0
  0
LINE
  5
3BA
330
1F
100
AcDbEntity
  8
0
  6
Continuous
 62
     7
370
    15
100
AcDbLine
 10
3.993662426405539
 20
9.226096283904691
 30
0.0
 11
3.993662426405539
 21
9.210730194748398
 31
0.0
  0
LINE
  5
3BB
330
1F
100
AcDbEntity
  8
0
  6
Continuous
 62
     7
370
    15
100
AcDbLine
 10
3.99366242640554
 20
9.312505125702378
 30
0.0
 11
3.993662426405539
 21
9.294187110646983
 31
0.0
  0
LINE
  5
3BC
330
1F
100
AcDbEntity
  8
0
  6
Continuous
 62
     7
370
    15
100
AcDbLine
 10
4.003504892704529
 20
9.312505125702378
 30
0.0
 11
3.99366242640554
 21
9.312505125702378
 31
0.0
  0
LINE
  5
3BD
330
1F
100
AcDbEntity
  8
0
  6
Continuous
 62
     7
370
    15
100
AcDbLine
 10
4.003504892704529
 20
9.210730194748398
 30
0.0
 11
4.003504892704529
 21
9.10541968463773
 31
0.0
  0
LINE
  5
3BE
330
1F
100
AcDbEntity
  8
0
  6
Continuous
 62
     7
370
    15
100
AcDbLine
 10
4.003504892704529
 20
9.069698550624652
 30
0.0
 11
4.003504892704526
 21
7.165088006181521
 31
0.0
  0
LINE
  5
3BF
330
1F
100
AcDbEntity
  8
0
  6
Continuous
 62
     7
370
    15
100
AcDbLine
 10
4.00350489270453
 20
10.38837703047165
 30
0.0
 11
4.003504892704529
 21
9.312505125702378
 31
0.0
  0
LINE
  5
3C0
330
1F
100
AcDbEntity
  8
0
  6
Continuous
 62
     7
370
    15
100
AcDbLine
 10
3.993662426405539
 20
9.265057980482515
 30
0.0
 11
3.993662426405539
 21
9.267938627205037
 31
0.0
  0
LINE
  5
3C1
330
1F
100
AcDbEntity
  8
0
  6
Continuous
 62
     7
370
    15
100
AcDbLine
 10
4.003504892704529
 20
9.134821831648286
 30
0.0
 11
3.993662426405539
 21
9.134821831648286
 31
0.0
  0
LINE
  5
3C2
330
1F
100
AcDbEntity
  8
0
  6
Continuous
 62
     7
370
    15
100
AcDbLine
 10
3.993662426405539
 20
9.134821831648286
 30
0.0
 11
3.993662426405539
 21
9.035976460185118
 31
0.0
  0
LINE
  5
3C3
330
1F
100
AcDbEntity
  8
0
  6
Continuous
 62
     7
370
    15
100
AcDbLine
 10
3.993662426405539
 20
9.322672674912647
 30
0.0
 11
3.993662426405539
 21
9.314076640881433
 31
0.0
  0
LINE
  5
3C4
330
1F
100
AcDbEntity
  8
0
  6
Continuous
 62
     7
370
    15
100
AcDbLine
 10
3.993662426405539
 20
9.292615888797872
 30
0.0
 11
3.993662426405539
 21
9.289364179695226
 31
0.0
  0
LINE
  5
3C5
330
1F
100
AcDbEntity
  8
0
  6
Continuous
 62
     7
370
    15
100
AcDbLine
 10
4.003504892704529
 20
9.322672674912647
 30
0.0
 11
3.993662426405539
 21
9.322672674912647
 31
0.0
  0
LINE
  5
3C6
330
1F
100
AcDbEntity
  8
0
  6
Continuous
 62
     7
370
    15
100
AcDbLine
 10
4.003504892704529
 20
9.202131814077624
 30
0.0
 11
3.993662426405539
 21
9.202131814077624
 31
0.0
  0
LINE
  5
3C7
330
1F
100
AcDbEntity
  8
0
  6
Continuous
 62
     7
370
    15
100
AcDbLine
 10
3.993662426405539
 20
9.232739620493633
 30
0.0
 11
3.993662426405539
 21
9.22766735908883
 31
0.0
  0
LINE
  5
3C8
330
1F
100
AcDbEntity
  8
0
  6
Continuous
 62
     7
370
    15
100
AcDbLine
 10
3.993662426405539
 20
9.209158679569341
 30
0.0
 11
3.993662426405539
 21
9.202131814077624
 31
0.0
  0
LINE
  5
3C9
330
1F
100
AcDbEntity
  8
0
  6
Continuous
 62
     7
370
    15
100
AcDbLine
 10
4.003504892704528
 20
9.136802248770338
 30
0.0
 11
3.993662426405538
 21
9.136802248770338
 31
0.0
  0
LINE
  5
3CA
330
1F
100
AcDbEntity
  8
0
  6
Continuous
 62
     7
370
    15
100
AcDbLine
 10
3.993662426405538
 20
9.136802248770338
 30
0.0
 11
3.993662426405538
 21
9.136392906832424
 31
0.0
  0
LINE
  5
3CB
330
1F
100
AcDbEntity
  8
0
  6
Continuous
 62
     7
370
    15
100
AcDbLine
 10
4.003504892704528
 20
9.014641033320456
 30
0.0
 11
3.993662426405538
 21
9.014641033320456
 31
0.0
  0
LINE
  5
3CC
330
1F
100
AcDbEntity
  8
0
  6
Continuous
 62
     7
370
    15
100
AcDbLine
 10
3.993662426405538
 20
9.015140427551411
 30
0.0
 11
3.993662426405538
 21
9.014641033320456
 31
0.0
  0
LINE
  5
3CD
330
1F
100
AcDbEntity
  8
0
  6
Continuous
 62
     7
370
    15
100
AcDbLine
 10
3.826339546000395
 20
7.804151840328241
 30
0.0
 11
3.826339546000395
 21
7.623328834211038
 31
0.0
  0
LINE
  5
3CE
330
1F
100
AcDbEntity
  8
0
  6
Continuous
 62
     7
370
    15
100
AcDbLine
 10
3.826339546000398
 20
9.930136110776532
 30
0.0
 11
3.826339546000397
 21
9.74931301299372
 31
0.0
  0
LINE
  5
3CF
330
1F
100
AcDbEntity
  8
0
  6
Continuous
 62
     7
370
    15
100
AcDbLine
 10
3.609804114102847
 20
8.080209766283523
 30
0.0
 11
3.609804114102847
 21
7.86413945713784
 31
0.0
  0
LINE
  5
3D0
330
1F
100
AcDbEntity
  8
0
  6
Continuous
 62
     7
370
    15
100
AcDbLine
 10
3.609804114102849
 20
9.689325425975445
 30
0.0
 11
3.609804114102849
 21
9.47325521537029
 31
0.0
  0
LINE
  5
3D1
330
1F
100
AcDbEntity
  8
0
  6
Continuous
 62
     7
370
    15
100
AcDbLine
 10
4.141300154215236
 20
7.201924380644578
 30
0.0
 11
4.14130015421524
 21
10.35153068279047
 31
0.0
  0
LINE
  5
3D2
330
1F
100
AcDbEntity
  8
0
  6
Continuous
 62
     7
370
    15
100
AcDbLine
 10
3.926519495379734
 20
7.115875381356628
 30
0.0
 11
3.926519495379734
 21
7.165088006181519
 31
0.0
  0
LINE
  5
3D3
330
1F
100
AcDbEntity
  8
0
  6
Continuous
 62
     7
370
    15
100
AcDbLine
 10
3.926519495379734
 20
7.165088006181519
 30
0.0
 11
3.964172280411549
 21
7.165088006181519
 31
0.0
  0
LINE
  5
3D4
330
1F
100
AcDbEntity
  8
0
  6
Continuous
 62
     7
370
    15
100
AcDbLine
 10
3.926519495379739
 20
10.38837703047165
 30
0.0
 11
3.926519495379739
 21
10.43758958196406
 31
0.0
  0
LINE
  5
3D5
330
1F
100
AcDbEntity
  8
0
  6
Continuous
 62
     7
370
    15
100
AcDbLine
 10
3.964172280411553
 20
10.38837703047165
 30
0.0
 11
3.926519495379739
 21
10.38837703047165
 31
0.0
  0
LINE
  5
3D6
330
1F
100
AcDbEntity
  8
0
  6
Continuous
 62
     7
370
    15
100
AcDbLine
 10
3.926519495379739
 20
10.43758958196406
 30
0.0
 11
3.964172280411554
 21
10.43758958196406
 31
0.0
  0
LINE
  5
3D7
330
1F
100
AcDbEntity
  8
0
  6
Continuous
 62
     7
370
    15
100
AcDbLine
 10
3.992858189029489
 20
10.57163344681123
 30
0.0
 11
3.956127560011517
 21
10.50845574997871
 31
0.0
  0
LWPOLYLINE
  5
3D8
330
1F
100
AcDbEntity
  8
0
  6
Continuous
 62
     7
370
    15
100
AcDbPolyline
 90
        5
 70
   128
 43
0.0
 10
3.992858189029489
 20
10.57163344681123
 10
4.00406302625692
 20
10.56836193793731
 10
4.013785667273475
 20
10.56798588894813
 10
4.019563167197969
 20
10.56976434840321
 10
4.023189971967478
 20
10.57322798839095
  0
LINE
  5
3D9
330
1F
100
AcDbEntity
  8
0
  6
Continuous
 62
     7
370
    15
100
AcDbLine
 10
3.956127560011512
 20
7.045009286674467
 30
0.0
 11
3.992858189029484
 21
6.981831516509459
 31
0.0
  0
LWPOLYLINE
  5
3DA
330
1F
100
AcDbEntity
  8
0
  6
Continuous
 62
     7
370
    15
100
AcDbPolyline
 90
        5
 70
   128
 43
0.0
 10
4.023189971967473
 20
6.980237048262226
 10
4.018185176449964
 20
6.984361780612966
 10
4.009887385640085
 20
6.985685358656212
 10
4.001739193102034
 20
6.984635897446344
 10
3.992858189029484
 20
6.981831516509459
  0
LINE
  5
3DB
330
1F
100
AcDbEntity
  8
0
  6
Continuous
 62
     7
370
    15
100
AcDbLine
 10
3.985793703972352
 20
7.045009286674467
 30
0.0
 11
3.956127560011512
 21
7.045009286674467
 31
0.0
  0
LINE
  5
3DC
330
1F
100
AcDbEntity
  8
0
  6
Continuous
 62
     7
370
    15
100
AcDbLine
 10
3.993476528553045
 20
10.57269647453104
 30
0.0
 11
3.992858189029489
 21
10.57163344681123
 31
0.0
  0
LINE
  5
3DD
330
1F
100
AcDbEntity
  8
0
  6
Continuous
 62
     7
370
    15
100
AcDbLine
 10
3.590119071506142
 20
10.54884464340276
 30
0.0
 11
3.590119071506142
 21
10.59213603663023
 31
0.0
  0
LWPOLYLINE
  5
3DE
330
1F
100
AcDbEntity
  8
0
  6
Continuous
 62
     7
370
    15
100
AcDbPolyline
 90
        3
 70
   128
 43
0.0
 10
3.590119071506142
 20
10.59213603663023
 10
3.794529380140813
 20
10.58231300344008
 10
3.993476528553045
 20
10.57269647453104
  0
LINE
  5
3DF
330
1F
100
AcDbEntity
  8
0
  6
Continuous
 62
     7
370
    15
100
AcDbLine
 10
3.992858189029484
 20
6.981831516509459
 30
0.0
 11
3.99347652855304
 21
6.980768342124673
 31
0.0
  0
LWPOLYLINE
  5
3E0
330
1F
100
AcDbEntity
  8
0
  6
Continuous
 62
     7
370
    15
100
AcDbPolyline
 90
        3
 70
   128
 43
0.0
 10
3.99347652855304
 20
6.980768342124673
 10
3.7890689698866
 20
6.970888842920159
 10
3.590119071506137
 20
6.961328780025488
  0
LINE
  5
3E1
330
1F
100
AcDbEntity
  8
0
  6
Continuous
 62
     7
370
    15
100
AcDbLine
 10
3.590119071506137
 20
6.961328780025488
 30
0.0
 11
3.590119071506137
 21
7.004651412892069
 31
0.0
  0
LINE
  5
3E2
330
1F
100
AcDbEntity
  8
0
  6
Continuous
 62
     7
370
    15
100
AcDbLine
 10
3.59407359915643
 20
7.045009286674468
 30
0.0
 11
3.956127560011512
 21
7.045009286674467
 31
0.0
  0
LINE
  5
3E3
330
1F
100
AcDbEntity
  8
0
  6
Continuous
 62
     7
370
    15
100
AcDbLine
 10
4.003269348758879
 20
6.979381991473248
 30
0.0
 11
3.993652966514813
 21
6.978947496492571
 31
0.0
  0
LWPOLYLINE
  5
3E4
330
1F
100
AcDbEntity
  8
0
  6
Continuous
 62
     7
370
    15
100
AcDbPolyline
 90
        4
 70
   128
 43
0.0
 10
4.003268468769044
 20
6.979381918140762
 10
4.010396313094245
 20
6.979692261222319
 10
4.017265073745736
 20
6.979980751222991
 10
4.019397655776633
 20
6.980071463508408
  0
LWPOLYLINE
  5
3E5
330
1F
100
AcDbEntity
  8
0
  6
Continuous
 62
     7
370
    15
100
AcDbPolyline
 90
        4
 70
   128
 43
0.0
 10
4.003268468769049
 20
10.57408304517992
 10
4.010397413081543
 20
10.57377270209837
 10
4.017265953735575
 20
10.57348406543272
 10
4.019397582444153
 20
10.57339342647979
  0
LINE
  5
3E6
330
1F
100
AcDbEntity
  8
0
  6
Continuous
 62
     7
370
    15
100
AcDbLine
 10
3.993652966514818
 20
10.57451746682811
 30
0.0
 11
4.003269348758883
 21
10.57408304517992
 31
0.0
  0
LINE
  5
3E7
330
1F
100
AcDbEntity
  8
0
  6
Continuous
 62
     7
370
    15
100
AcDbLine
 10
3.592087572099184
 20
7.16508800618152
 30
0.0
 11
3.926519495379734
 21
7.165088006181519
 31
0.0
  0
LINE
  5
3E8
330
1F
100
AcDbEntity
  8
0
  6
Continuous
 62
     7
370
    15
100
AcDbLine
 10
3.590119071506142
 20
10.3884081234458
 30
0.0
 11
3.590119071506142
 21
10.38837703047165
 31
0.0
  0
LINE
  5
3E9
330
1F
100
AcDbEntity
  8
0
  6
Continuous
 62
     7
370
    15
100
AcDbLine
 10
3.926519495379739
 20
10.38837703047165
 30
0.0
 11
3.590119071506142
 21
10.38837703047165
 31
0.0
  0
LINE
  5
3EA
330
1F
100
AcDbEntity
  8
0
  6
Continuous
 62
     7
370
    15
100
AcDbLine
 10
3.926519495379739
 20
10.43758958196406
 30
0.0
 11
3.592087572099188
 21
10.43758958196406
 31
0.0
  0
LWPOLYLINE
  5
3EB
330
1F
100
AcDbEntity
  8
0
  6
Continuous
 62
     7
370
    15
100
AcDbPolyline
 90
        3
 70
   128
 43
0.0
 10
4.003268248771591
 20
10.57408773845904
 10
3.999404066744284
 20
10.57312913619956
 10
3.993476528553045
 20
10.57269647453104
  0
LWPOLYLINE
  5
3EC
330
1F
100
AcDbEntity
  8
0
  6
Continuous
 62
     7
370
    15
100
AcDbPolyline
 90
        3
 70
   128
 43
0.0
 10
4.019397582444153
 20
10.57339342647979
 10
4.022724750675087
 20
10.57324822815714
 10
4.023189971967478
 20
10.57322798839095
  0
LWPOLYLINE
  5
3ED
330
1F
100
AcDbEntity
  8
0
  6
Continuous
 62
     7
370
    15
100
AcDbPolyline
 90
        3
 70
   128
 43
0.0
 10
3.99347652855304
 20
6.980768342124673
 10
3.997461929180018
 20
6.980626517096381
 10
4.003268248771585
 20
6.979377224861646
  0
LWPOLYLINE
  5
3EE
330
1F
100
AcDbEntity
  8
0
  6
Continuous
 62
     7
370
    15
100
AcDbPolyline
 90
        3
 70
   128
 43
0.0
 10
4.023189971967473
 20
6.980237048262226
 10
4.022682364498064
 20
6.980214901851396
 10
4.019397655776633
 20
6.980071463508408
  0
LINE
  5
3EF
330
1F
100
AcDbEntity
  8
0
  6
Continuous
 62
     7
370
    15
100
AcDbLine
 10
3.590119071506142
 20
10.59213603663023
 30
0.0
 11
3.993652966514818
 21
10.57451746682811
 31
0.0
  0
LINE
  5
3F0
330
1F
100
AcDbEntity
  8
0
  6
Continuous
 62
     7
370
    15
100
AcDbLine
 10
3.993652966514813
 20
6.978947496492571
 30
0.0
 11
3.590119071506137
 21
6.961328780025488
 31
0.0
  0
LINE
  5
3F1
330
1F
100
AcDbEntity
  8
0
  6
Continuous
 62
     7
370
    15
100
AcDbLine
 10
3.590119071506137
 20
7.045009286674468
 30
0.0
 11
3.590119071506137
 21
7.048946287860561
 31
0.0
  0
LINE
  5
3F2
330
1F
100
AcDbEntity
  8
0
  6
Continuous
 62
     7
370
    15
100
AcDbLine
 10
3.590119071506142
 20
10.43762067493821
 30
0.0
 11
3.590119071506142
 21
10.44155774945678
 31
0.0
  0
LINE
  5
3F3
330
1F
100
AcDbEntity
  8
0
  6
Continuous
 62
     7
370
    15
100
AcDbLine
 10
3.180632796926528
 20
7.11587538135663
 30
0.0
 11
3.180632796926528
 21
7.165088006181522
 31
0.0
  0
LINE
  5
3F4
330
1F
100
AcDbEntity
  8
0
  6
Continuous
 62
     7
370
    15
100
AcDbLine
 10
3.180632796926528
 20
7.11587538135663
 30
0.0
 11
3.140906490014882
 21
7.11587538135663
 31
0.0
  0
LINE
  5
3F5
330
1F
100
AcDbEntity
  8
0
  6
Continuous
 62
     7
370
    15
100
AcDbLine
 10
3.140906490014882
 20
7.04500928667447
 30
0.0
 11
3.140906490014882
 21
7.11587538135663
 31
0.0
  0
LINE
  5
3F6
330
1F
100
AcDbEntity
  8
0
  6
Continuous
 62
     7
370
    15
100
AcDbLine
 10
3.140906490014882
 20
7.04500928667447
 30
0.0
 11
3.177668707001281
 21
7.04500928667447
 31
0.0
  0
LINE
  5
3F7
330
1F
100
AcDbEntity
  8
0
  6
Continuous
 62
     7
370
    15
100
AcDbLine
 10
3.177668707001286
 20
10.50848684295285
 30
0.0
 11
3.140906490014887
 21
10.50848684295285
 31
0.0
  0
LINE
  5
3F8
330
1F
100
AcDbEntity
  8
0
  6
Continuous
 62
     7
370
    15
100
AcDbLine
 10
3.140906490014887
 20
10.43762067493821
 30
0.0
 11
3.140906490014887
 21
10.50848684295285
 31
0.0
  0
LINE
  5
3F9
330
1F
100
AcDbEntity
  8
0
  6
Continuous
 62
     7
370
    15
100
AcDbLine
 10
3.140906490014887
 20
10.43762067493821
 30
0.0
 11
3.180632796926533
 21
10.43762067493821
 31
0.0
  0
LINE
  5
3FA
330
1F
100
AcDbEntity
  8
0
  6
Continuous
 62
     7
370
    15
100
AcDbLine
 10
3.180632796926532
 20
10.3884081234458
 30
0.0
 11
3.180632796926533
 21
10.43762067493821
 31
0.0
  0
LINE
  5
3FB
330
1F
100
AcDbEntity
  8
0
  6
Continuous
 62
     7
370
    15
100
AcDbLine
 10
3.141300184633559
 20
10.3884081234458
 30
0.0
 11
3.180632796926532
 21
10.3884081234458
 31
0.0
  0
LINE
  5
3FC
330
1F
100
AcDbEntity
  8
0
  6
Continuous
 62
     7
370
    15
100
AcDbLine
 10
3.141300184633555
 20
7.165088006181522
 30
0.0
 11
3.141300184633559
 21
10.3884081234458
 31
0.0
  0
LINE
  5
3FD
330
1F
100
AcDbEntity
  8
0
  6
Continuous
 62
     7
370
    15
100
AcDbLine
 10
3.180632796926528
 20
7.165088006181522
 30
0.0
 11
3.141300184633555
 21
7.165088006181522
 31
0.0
  0
LINE
  5
3FE
330
1F
100
AcDbEntity
  8
0
  6
Continuous
 62
     7
370
    15
100
AcDbLine
 10
3.177668707001286
 20
10.50848684295285
 30
0.0
 11
3.14130018463356
 21
10.57147886193034
 31
0.0
  0
ARC
  5
3FF
330
1F
100
AcDbEntity
  8
0
  6
Continuous
 62
     7
370
    15
100
AcDbCircle
 10
3.160985226203613
 20
10.45502064890624
 30
0.0
 40
0.1181102362204722
100
AcDbArc
 50
99.59406822686025
 51
179.9999999999998
  0
LINE
  5
400
330
1F
100
AcDbEntity
  8
0
  6
Continuous
 62
     7
370
    15
100
AcDbLine
 10
3.141300184633554
 20
6.98201712103201
 30
0.0
 11
3.177668707001281
 21
7.04500928667447
 31
0.0
  0
ARC
  5
401
330
1F
100
AcDbEntity
  8
0
  6
Continuous
 62
     7
370
    15
100
AcDbCircle
 10
3.160985226203608
 20
7.09847539117116
 30
0.0
 40
0.1181102362204727
100
AcDbArc
 50
179.9999999999998
 51
260.4059317731398
  0
LINE
  5
402
330
1F
100
AcDbEntity
  8
0
  6
Continuous
 62
     7
370
    15
100
AcDbLine
 10
3.042874989983136
 20
7.098475415695852
 30
0.0
 11
3.042874989983141
 21
10.45502071393147
 31
0.0
  0
LINE
  5
403
330
1F
100
AcDbEntity
  8
0
  6
Continuous
 62
     7
370
    15
100
AcDbLine
 10
3.180670269826974
 20
9.602974956836769
 30
0.0
 11
3.180670269826973
 21
9.484864774589006
 31
0.0
  0
LINE
  5
404
330
1F
100
AcDbEntity
  8
0
  6
Continuous
 62
     7
370
    15
100
AcDbLine
 10
3.180670269826973
 20
9.72108513908453
 30
0.0
 11
3.180670269826974
 21
9.602974956836769
 31
0.0
  0
LINE
  5
405
330
1F
100
AcDbEntity
  8
0
  6
Continuous
 62
     7
370
    15
100
AcDbLine
 10
3.574371066761767
 20
7.972174605981582
 30
0.0
 11
3.574371066761767
 21
8.079694367237458
 31
0.0
  0
LINE
  5
406
330
1F
100
AcDbEntity
  8
0
  6
Continuous
 62
     7
370
    15
100
AcDbLine
 10
3.574371066761766
 20
7.864654840142424
 30
0.0
 11
3.574371066761767
 21
7.972174605981582
 31
0.0
  0
LINE
  5
407
330
1F
100
AcDbEntity
  8
0
  6
Continuous
 62
     7
370
    15
100
AcDbLine
 10
3.57437106676177
 20
9.581321486979499
 30
0.0
 11
3.574371066761769
 21
9.688841138236645
 31
0.0
  0
LINE
  5
408
330
1F
100
AcDbEntity
  8
0
  6
Continuous
 62
     7
370
    15
100
AcDbLine
 10
3.574371066761769
 20
9.473801689057379
 30
0.0
 11
3.57437106676177
 21
9.581321486979499
 31
0.0
  0
LINE
  5
409
330
1F
100
AcDbEntity
  8
0
  6
Continuous
 62
     7
370
    15
100
AcDbLine
 10
3.178879453847959
 20
6.99102433031329
 30
0.0
 11
3.210156199202995
 21
7.045009286674468
 31
0.0
  0
LWPOLYLINE
  5
40A
330
1F
100
AcDbEntity
  8
0
  6
Continuous
 62
     7
370
    15
100
AcDbPolyline
 90
        5
 70
   128
 43
0.0
 10
3.178879453847959
 20
6.99102433031329
 10
3.166450504928238
 20
6.994488043633512
 10
3.15563557652988
 20
6.994700707843463
 10
3.149174333670709
 20
6.992556612612235
 10
3.145071096904983
 20
6.988548552247023
  0
LINE
  5
40B
330
1F
100
AcDbEntity
  8
0
  6
Continuous
 62
     7
370
    15
100
AcDbLine
 10
3.210156199202995
 20
7.045009286674468
 30
0.0
 11
3.177668707001277
 21
7.045009286674468
 31
0.0
  0
LINE
  5
40C
330
1F
100
AcDbEntity
  8
0
  6
Continuous
 62
     7
370
    15
100
AcDbLine
 10
3.210156199202999
 20
10.50848684295285
 30
0.0
 11
3.178879453847964
 21
10.56247157931657
 31
0.0
  0
LWPOLYLINE
  5
40D
330
1F
100
AcDbEntity
  8
0
  6
Continuous
 62
     7
370
    15
100
AcDbPolyline
 90
        5
 70
   128
 43
0.0
 10
3.145071096904989
 20
10.5649475773803
 10
3.150720044981191
 20
10.56015925936202
 10
3.15997728137414
 20
10.55847583880904
 10
3.169030030129347
 20
10.5594854804789
 10
3.178879453847964
 20
10.56247157931657
  0
LINE
  5
40E
330
1F
100
AcDbEntity
  8
0
  6
Continuous
 62
     7
370
    15
100
AcDbLine
 10
3.218285581958338
 20
7.16508800618152
 30
0.0
 11
3.218285581958338
 21
7.115875381356628
 31
0.0
  0
LINE
  5
40F
330
1F
100
AcDbEntity
  8
0
  6
Continuous
 62
     7
370
    15
100
AcDbLine
 10
3.180632796926524
 20
7.16508800618152
 30
0.0
 11
3.218285581958338
 21
7.16508800618152
 31
0.0
  0
LINE
  5
410
330
1F
100
AcDbEntity
  8
0
  6
Continuous
 62
     7
370
    15
100
AcDbLine
 10
3.218285581958343
 20
10.43762067493821
 30
0.0
 11
3.218285581958343
 21
10.3884081234458
 31
0.0
  0
LINE
  5
411
330
1F
100
AcDbEntity
  8
0
  6
Continuous
 62
     7
370
    15
100
AcDbLine
 10
3.218285581958343
 20
10.43762067493821
 30
0.0
 11
3.180632796926528
 21
10.43762067493821
 31
0.0
  0
LINE
  5
412
330
1F
100
AcDbEntity
  8
0
  6
Continuous
 62
     7
370
    15
100
AcDbLine
 10
3.218285581958343
 20
10.3884081234458
 30
0.0
 11
3.180632796926528
 21
10.3884081234458
 31
0.0
  0
LINE
  5
413
330
1F
100
AcDbEntity
  8
0
  6
Continuous
 62
     7
370
    15
100
AcDbLine
 10
3.574371066761765
 20
7.004651412892069
 30
0.0
 11
3.594056109358473
 21
7.004651412892069
 31
0.0
  0
LINE
  5
414
330
1F
100
AcDbEntity
  8
0
  6
Continuous
 62
     7
370
    15
100
AcDbLine
 10
3.574371066761765
 20
7.004651412892069
 30
0.0
 11
3.574371066761765
 21
6.962330868449277
 31
0.0
  0
LINE
  5
415
330
1F
100
AcDbEntity
  8
0
  6
Continuous
 62
     7
370
    15
100
AcDbLine
 10
3.574371066761765
 20
6.962330868449277
 30
0.0
 11
3.173861440149815
 21
6.982402703244395
 31
0.0
  0
LINE
  5
416
330
1F
100
AcDbEntity
  8
0
  6
Continuous
 62
     7
370
    15
100
AcDbLine
 10
3.173861440149815
 20
6.982402703244395
 30
0.0
 11
3.178879398848594
 21
6.99102433031329
 31
0.0
  0
LINE
  5
417
330
1F
100
AcDbEntity
  8
0
  6
Continuous
 62
     7
370
    15
100
AcDbLine
 10
3.594056109358473
 20
7.045009286674468
 30
0.0
 11
3.594056109358473
 21
7.004651412892069
 31
0.0
  0
LINE
  5
418
330
1F
100
AcDbEntity
  8
0
  6
Continuous
 62
     7
370
    15
100
AcDbLine
 10
3.594056109358473
 20
7.045009286674468
 30
0.0
 11
3.210156199202995
 21
7.045009286674468
 31
0.0
  0
LINE
  5
419
330
1F
100
AcDbEntity
  8
0
  6
Continuous
 62
     7
370
    15
100
AcDbLine
 10
3.57437106676177
 20
10.54884464340276
 30
0.0
 11
3.594056109358478
 21
10.54884464340276
 31
0.0
  0
LINE
  5
41A
330
1F
100
AcDbEntity
  8
0
  6
Continuous
 62
     7
370
    15
100
AcDbLine
 10
3.594056109358478
 20
10.54884464340276
 30
0.0
 11
3.594056109358478
 21
10.50848684295285
 31
0.0
  0
LINE
  5
41B
330
1F
100
AcDbEntity
  8
0
  6
Continuous
 62
     7
370
    15
100
AcDbLine
 10
3.178879453847964
 20
10.56247157931657
 30
0.0
 11
3.173861485982623
 21
10.57109342638292
 31
0.0
  0
LINE
  5
41C
330
1F
100
AcDbEntity
  8
0
  6
Continuous
 62
     7
370
    15
100
AcDbLine
 10
3.17386144014982
 20
10.57109342638292
 30
0.0
 11
3.57437106676177
 21
10.59116511451307
 31
0.0
  0
LINE
  5
41D
330
1F
100
AcDbEntity
  8
0
  6
Continuous
 62
     7
370
    15
100
AcDbLine
 10
3.57437106676177
 20
10.59116511451307
 30
0.0
 11
3.57437106676177
 21
10.54884464340276
 31
0.0
  0
ARC
  5
41E
330
1F
100
AcDbEntity
  8
0
  6
Continuous
 62
     7
370
    15
100
AcDbCircle
 10
3.113002810266156
 20
6.413002132645267
 30
0.0
 40
0.5698269450686367
100
AcDbArc
 50
85.04313553391304
 51
87.01424622300342
  0
LINE
  5
41F
330
1F
100
AcDbEntity
  8
0
  6
Continuous
 62
     7
370
    15
100
AcDbLine
 10
3.190522205183235
 20
6.978963042979644
 30
0.0
 11
3.162238598584539
 21
6.98069816293539
 31
0.0
  0
LINE
  5
420
330
1F
100
AcDbEntity
  8
0
  6
Continuous
 62
     7
370
    15
100
AcDbLine
 10
3.190522214349796
 20
6.978963042979644
 30
0.0
 11
3.193486111777267
 21
6.978833611141519
 31
0.0
  0
LWPOLYLINE
  5
421
330
1F
100
AcDbEntity
  8
0
  6
Continuous
 62
     7
370
    15
100
AcDbPolyline
 90
        3
 70
   128
 43
0.0
 10
3.162239020246335
 20
6.980695816295832
 10
3.17189911781873
 20
6.9824276362897
 10
3.173861440149815
 20
6.982402703244395
  0
ARC
  5
422
330
1F
100
AcDbEntity
  8
0
  6
Continuous
 62
     7
370
    15
100
AcDbCircle
 10
3.12784544445808
 20
10.94582150445676
 30
0.0
 40
0.3746057774532063
100
AcDbArc
 50
272.0584091182139
 51
275.2679241440222
  0
LWPOLYLINE
  5
423
330
1F
100
AcDbEntity
  8
0
  6
Continuous
 62
     7
370
    15
100
AcDbPolyline
 90
        3
 70
   128
 43
0.0
 10
3.173861449316381
 20
10.57109342638292
 10
3.16408743889325
 20
10.5722538396444
 10
3.162239056912583
 20
10.57280031333148
  0
LWPOLYLINE
  5
424
330
1F
100
AcDbEntity
  8
0
  6
Continuous
 62
     7
370
    15
100
AcDbPolyline
 90
        3
 70
   128
 43
0.0
 10
3.162238616917666
 20
10.57279767336198
 10
3.176360336282358
 20
10.57386363438124
 10
3.190522214349801
 20
10.57453301331519
  0
LINE
  5
425
330
1F
100
AcDbEntity
  8
0
  6
Continuous
 62
     7
370
    15
100
AcDbLine
 10
3.218285581958338
 20
7.16508800618152
 30
0.0
 11
3.318465549670803
 21
7.16508800618152
 31
0.0
  0
LINE
  5
426
330
1F
100
AcDbEntity
  8
0
  6
Continuous
 62
     7
370
    15
100
AcDbLine
 10
3.38145767864702
 20
7.16508800618152
 30
0.0
 11
3.592087572099184
 21
7.16508800618152
 31
0.0
  0
LINE
  5
427
330
1F
100
AcDbEntity
  8
0
  6
Continuous
 62
     7
370
    15
100
AcDbLine
 10
3.594056109358478
 20
10.43762067493821
 30
0.0
 11
3.594056109358478
 21
10.43758958196406
 31
0.0
  0
LINE
  5
428
330
1F
100
AcDbEntity
  8
0
  6
Continuous
 62
     7
370
    15
100
AcDbLine
 10
3.594056109358478
 20
10.43762067493821
 30
0.0
 11
3.218285581958343
 21
10.43762067493821
 31
0.0
  0
LINE
  5
429
330
1F
100
AcDbEntity
  8
0
  6
Continuous
 62
     7
370
    15
100
AcDbLine
 10
3.592087572099188
 20
10.3884081234458
 30
0.0
 11
3.381457678647024
 21
10.3884081234458
 31
0.0
  0
LINE
  5
42A
330
1F
100
AcDbEntity
  8
0
  6
Continuous
 62
     7
370
    15
100
AcDbLine
 10
3.318465549670807
 20
10.3884081234458
 30
0.0
 11
3.218285581958343
 21
10.3884081234458
 31
0.0
  0
LINE
  5
42B
330
1F
100
AcDbEntity
  8
0
  6
Continuous
 62
     7
370
    15
100
AcDbLine
 10
3.190522214349801
 20
10.57453301331519
 30
0.0
 11
3.57437106676177
 21
10.59129212637915
 31
0.0
  0
LINE
  5
42C
330
1F
100
AcDbEntity
  8
0
  6
Continuous
 62
     7
370
    15
100
AcDbLine
 10
3.57437106676177
 20
10.59129212637915
 30
0.0
 11
3.57437106676177
 21
10.59116511451307
 31
0.0
  0
LINE
  5
42D
330
1F
100
AcDbEntity
  8
0
  6
Continuous
 62
     7
370
    15
100
AcDbLine
 10
3.574371066761765
 20
6.96220378325071
 30
0.0
 11
3.190522214349796
 21
6.978963042979644
 31
0.0
  0
LINE
  5
42E
330
1F
100
AcDbEntity
  8
0
  6
Continuous
 62
     7
370
    15
100
AcDbLine
 10
3.574371066761765
 20
6.962330868449277
 30
0.0
 11
3.574371066761765
 21
6.96220378325071
 31
0.0
  0
LINE
  5
42F
330
1F
100
AcDbEntity
  8
0
  6
Continuous
 62
     7
370
    15
100
AcDbLine
 10
3.594056109358473
 20
7.048946287860561
 30
0.0
 11
3.594056109358473
 21
7.045009286674468
 31
0.0
  0
LINE
  5
430
330
1F
100
AcDbEntity
  8
0
  6
Continuous
 62
     7
370
    15
100
AcDbLine
 10
3.594056109358478
 20
10.44155774945678
 30
0.0
 11
3.594056109358478
 21
10.43762067493821
 31
0.0
  0
LINE
  5
431
330
1F
100
AcDbEntity
  8
0
  6
Continuous
 62
     7
370
    15
100
AcDbLine
 10
3.965852107672708
 20
7.165088006181519
 30
0.0
 11
3.965852107672708
 21
7.620893627342755
 31
0.0
  0
LINE
  5
432
330
1F
100
AcDbEntity
  8
0
  6
Continuous
 62
     7
370
    15
100
AcDbLine
 10
3.965852107672708
 20
7.806587038029962
 30
0.0
 11
3.965852107672708
 21
7.859478533689557
 31
0.0
  0
LINE
  5
433
330
1F
100
AcDbEntity
  8
0
  6
Continuous
 62
     7
370
    15
100
AcDbLine
 10
3.965852107672709
 20
8.084870687440163
 30
0.0
 11
3.965852107672711
 21
9.46859420254804
 31
0.0
  0
LINE
  5
434
330
1F
100
AcDbEntity
  8
0
  6
Continuous
 62
     7
370
    15
100
AcDbLine
 10
3.965852107672711
 20
9.693986438797693
 30
0.0
 11
3.965852107672711
 21
9.746877934457288
 31
0.0
  0
LINE
  5
435
330
1F
100
AcDbEntity
  8
0
  6
Continuous
 62
     7
370
    15
100
AcDbLine
 10
3.965852107672711
 20
9.932571335977936
 30
0.0
 11
3.965852107672712
 21
10.38837703047165
 31
0.0
  0
LINE
  5
436
330
1F
100
AcDbEntity
  8
0
  6
Continuous
 62
     7
370
    15
100
AcDbLine
 10
4.023189971967473
 20
7.04894628786056
 30
0.0
 11
4.023189971967473
 21
7.045009286674467
 31
0.0
  0
LINE
  5
437
330
1F
100
AcDbEntity
  8
0
  6
Continuous
 62
     7
370
    15
100
AcDbLine
 10
4.023189971967478
 20
10.44155774945678
 30
0.0
 11
4.023189971967478
 21
10.43758958196406
 31
0.0
  0
LINE
  5
438
330
1F
100
AcDbEntity
  8
0
  6
Continuous
 62
     7
370
    15
100
AcDbLine
 10
3.178952969665369
 20
10.3884081234458
 30
0.0
 11
3.178952969665369
 21
9.93750807894826
 31
0.0
  0
LINE
  5
439
330
1F
100
AcDbEntity
  8
0
  6
Continuous
 62
     7
370
    15
100
AcDbLine
 10
3.178952969665369
 20
9.741972137796137
 30
0.0
 11
3.178952969665369
 21
9.721085139084529
 31
0.0
  0
LINE
  5
43A
330
1F
100
AcDbEntity
  8
0
  6
Continuous
 62
     7
370
    15
100
AcDbLine
 10
3.178952969665369
 20
9.468625295522185
 30
0.0
 11
3.178952969665366
 21
8.084870687440165
 31
0.0
  0
LINE
  5
43B
330
1F
100
AcDbEntity
  8
0
  6
Continuous
 62
     7
370
    15
100
AcDbLine
 10
3.178952969665366
 20
7.859478533689558
 30
0.0
 11
3.178952969665366
 21
7.811523858916054
 31
0.0
  0
LINE
  5
43C
330
1F
100
AcDbEntity
  8
0
  6
Continuous
 62
     7
370
    15
100
AcDbLine
 10
3.178952969665366
 20
7.615987922347212
 30
0.0
 11
3.178952969665366
 21
7.16508800618152
 31
0.0
  0
LINE
  5
43D
330
1F
100
AcDbEntity
  8
0
  6
Continuous
 62
     7
370
    15
100
AcDbLine
 10
3.160591523445025
 20
7.045009286674468
 30
0.0
 11
3.160591523445025
 21
7.048946287860561
 31
0.0
  0
LINE
  5
43E
330
1F
100
AcDbEntity
  8
0
  6
Continuous
 62
     7
370
    15
100
AcDbLine
 10
3.16059152344503
 20
10.43762067493821
 30
0.0
 11
3.16059152344503
 21
10.44155774945678
 31
0.0
  0
HATCH
  5
43F
330
1F
100
AcDbEntity
  8
0
  6
Continuous
 62
     7
370
     0
100
AcDbHatch
 10
0.0
 20
0.0
 30
0.0
210
0.0
220
0.0
230
1.0
  2
ANSI31
 70
     0
 71
     0
 91
        1
 92
        0
 93
       38
 72
     1
 10
3.98579371463581
 20
10.50845566614801
 11
4.042874989983141
 21
10.50845566614801
 72
     1
 10
4.042874989983141
 20
10.50845566614801
 11
4.042874989983141
 21
10.43758952441572
 72
     1
 10
4.042874989983141
 20
10.43758952441572
 11
3.964172304094083
 21
10.43758952441573
 72
     1
 10
3.964172304094083
 20
10.43758952441573
 11
3.964172304094083
 21
10.38837692599053
 72
     1
 10
3.964172304094083
 20
10.38837692599053
 11
4.003504911242983
 21
10.38837692599053
 72
     1
 10
4.003504911242983
 20
10.38837692599053
 11
4.003504911242981
 21
9.312505119950731
 72
     1
 10
4.003504911242981
 20
9.312505119950731
 11
3.99366239155794
 21
9.31250511995073
 72
     1
 10
3.99366239155794
 20
9.31250511995073
 11
3.99366239155794
 21
9.294187088196851
 72
     1
 10
3.99366239155794
 20
9.294187088196851
 11
4.003504911242981
 21
9.294187088196851
 72
     1
 10
4.003504911242981
 20
9.294187088196851
 11
4.003504911242981
 21
9.272004326091874
 72
     1
 10
4.003504911242981
 20
9.272004326091874
 11
3.993662391557943
 21
9.272004326091868
 72
     1
 10
3.993662391557943
 20
9.272004326091868
 11
3.993662391557942
 21
9.256299174291417
 72
     1
 10
3.993662391557942
 20
9.256299174291417
 11
4.003504911242981
 21
9.256299174291241
 72
     1
 10
4.003504911242981
 20
9.256299174291241
 11
4.003504911242981
 21
9.226096248903392
 72
     1
 10
4.003504911242981
 20
9.226096248903392
 11
3.993662391557942
 21
9.22609624890339
 72
     1
 10
3.993662391557942
 20
9.22609624890339
 11
3.99366239155794
 21
9.210730147443257
 72
     1
 10
3.99366239155794
 20
9.210730147443257
 11
4.003504911242981
 21
9.210730147442928
 72
     1
 10
4.003504911242981
 20
9.210730147442928
 11
4.003504911242981
 21
9.105419719051095
 72
     1
 10
4.003504911242981
 20
9.105419719051095
 11
3.993662391557943
 21
9.105419719051095
 72
     1
 10
3.993662391557943
 20
9.105419719051095
 11
3.993662391557943
 21
9.069698570876392
 72
     1
 10
3.993662391557943
 20
9.069698570876392
 11
4.003504911242981
 21
9.069698570876392
 72
     1
 10
4.003504911242981
 20
9.069698570876392
 11
4.003504911242978
 21
7.165087993866027
 72
     1
 10
4.003504911242978
 20
7.165087993866027
 11
3.964172304094084
 21
7.165087993866027
 72
     1
 10
3.964172304094084
 20
7.165087993866027
 11
3.964172304094084
 21
7.11587539544083
 72
     1
 10
3.964172304094084
 20
7.11587539544083
 11
4.042874989983135
 21
7.11587539544083
 72
     1
 10
4.042874989983135
 20
7.11587539544083
 11
4.042874989983135
 21
7.045009253708546
 72
     1
 10
4.042874989983135
 20
7.045009253708546
 11
3.985793714635805
 21
7.045009253708546
 72
     1
 10
3.985793714635805
 20
7.045009253708546
 11
4.023189950613057
 21
6.980237072970579
 72
     1
 10
4.023189950613057
 20
6.980237072970579
 11
4.028341846758569
 21
6.980462009614059
 72
     2
 10
4.023189950613057
 20
7.098459831060735
 40
0.1181102362204725
 50
272.5000000000008
 51
360.0000000000008
 73
     1
 72
     1
 10
4.141300186833529
 20
7.098459831060735
 11
4.141300186833529
 21
7.201924397989869
 72
     1
 10
4.141300186833529
 20
7.201924397989869
 11
4.101930108093371
 21
7.20192439798987
 72
     1
 10
4.101930108093371
 20
7.20192439798987
 11
4.101930108093377
 21
10.35153069720247
 72
     1
 10
4.101930108093377
 20
10.35153069720247
 11
4.141300186833534
 21
10.35153069720247
 72
     1
 10
4.141300186833534
 20
10.35153069720247
 11
4.141300186833534
 21
10.45500508879582
 72
     2
 10
4.023189950613062
 20
10.45500508879582
 40
0.1181102362204725
 50
0.0
 51
87.49999999999996
 73
     1
 72
     1
 10
4.028341846758574
 20
10.5730029102425
 11
4.023189950613062
 21
10.57322784688598
 72
     1
 10
4.023189950613062
 20
10.57322784688598
 11
3.98579371463581
 21
10.50845566614801
 97
        0
 75
     0
 76
     1
 52
0.0
 41
1.0
 77
     0
 78
     1
 53
45.0
 43
0.0
 44
0.0
 45
-0.0883883476483184
 46
0.0883883476483185
 79
     0
 98
        1
 10
0.0
 20
0.0
  0
HATCH
  5
440
330
1F
100
AcDbEntity
  8
0
  6
Continuous
 62
     7
370
     0
100
AcDbHatch
 10
0.0
 20
0.0
 30
0.0
210
0.0
220
0.0
230
1.0
  2
ANSI31
 70
     0
 71
     0
 91
        1
 92
        0
 93
       16
 72
     1
 10
3.180632793982598
 20
7.165087993866038
 11
3.14130018683353
 21
7.16508799386605
 72
     1
 10
3.14130018683353
 20
7.16508799386605
 11
3.141300186833534
 21
10.38840804621135
 72
     1
 10
3.141300186833534
 20
10.38840804621135
 11
3.1806327939826
 21
10.38840804621135
 72
     1
 10
3.1806327939826
 20
10.38840804621135
 11
3.1806327939826
 21
10.43762064463655
 72
     1
 10
3.1806327939826
 20
10.43762064463655
 11
3.140906486046132
 21
10.43762064463655
 72
     1
 10
3.140906486046132
 20
10.43762064463655
 11
3.140906486046132
 21
10.50848678636883
 72
     1
 10
3.140906486046132
 20
10.50848678636883
 11
3.17766870772517
 21
10.50848678637264
 72
     1
 10
3.17766870772517
 20
10.50848678637264
 11
3.141300186833535
 21
10.57147891235308
 72
     2
 10
3.160985226203613
 20
10.45502064890624
 40
0.1181102362204725
 50
99.59406822686011
 51
180.0
 73
     1
 72
     1
 10
3.042874989983141
 20
10.45502064890624
 11
3.042874989983136
 21
7.09847539117116
 72
     2
 10
3.160985226203608
 20
7.09847539117116
 40
0.1181102362204725
 50
180.0
 51
260.40593177314
 73
     1
 72
     1
 10
3.141300186833529
 20
6.982017127724317
 11
3.177668707725165
 21
7.04500925370476
 72
     1
 10
3.177668707725165
 20
7.04500925370476
 11
3.140906486046127
 21
7.04500925370857
 72
     1
 10
3.140906486046127
 20
7.04500925370857
 11
3.140906486046128
 21
7.115875395440853
 72
     1
 10
3.140906486046128
 20
7.115875395440853
 11
3.180632793982598
 21
7.115875395440853
 72
     1
 10
3.180632793982598
 20
7.115875395440853
 11
3.180632793982598
 21
7.165087993866038
 97
        0
 75
     0
 76
     1
 52
0.0
 41
1.0
 77
     0
 78
     1
 53
45.0
 43
0.0
 44
0.0
 45
-0.0883883476483184
 46
0.0883883476483185
 79
     0
 98
        1
 10
0.0
 20
0.0
  0
HATCH
  5
441
330
1F
100
AcDbEntity
  8
0
  6
Continuous
 62
     7
370
     0
100
AcDbHatch
 10
0.0
 20
0.0
 30
0.0
210
0.0
220
0.0
230
1.0
  2
ANSI31
 70
     0
 71
     0
 91
        1
 92
        0
 93
        4
 72
     1
 10
3.318465541164238
 20
7.149543971663703
 11
3.38145766714849
 21
7.149543971663703
 72
     1
 10
3.38145766714849
 20
7.149543971663703
 11
3.381457667148495
 21
10.40395206841366
 72
     1
 10
3.381457667148495
 20
10.40395206841366
 11
3.318465541164243
 21
10.40395206841366
 72
     1
 10
3.318465541164243
 20
10.40395206841366
 11
3.318465541164238
 21
7.149543971663703
 97
        0
 75
     0
 76
     1
 52
90.00000000000019
 41
1.0
 77
     0
 78
     1
 53
135.0000000000002
 43
0.0
 44
0.0
 45
-0.0883883476483182
 46
-0.0883883476483188
 79
     0
 98
        1
 10
0.0
 20
0.0
  0
HATCH
  5
442
330
1F
100
AcDbEntity
  8
0
  6
Continuous
 62
     7
370
     0
100
AcDbHatch
 10
0.0
 20
0.0
 30
0.0
210
0.0
220
0.0
230
1.0
  2
ANSI31
 70
     0
 71
     0
 91
        1
 92
        0
 93
        4
 72
     1
 10
4.026733257699676
 20
10.50848678636883
 11
3.140906486046132
 21
10.50848678636883
 72
     1
 10
3.140906486046132
 20
10.50848678636883
 11
3.140906486046132
 21
10.44155765251056
 72
     1
 10
3.140906486046132
 20
10.44155765251056
 11
4.026733257699676
 21
10.44155765251056
 72
     1
 10
4.026733257699676
 20
10.44155765251056
 11
4.026733257699676
 21
10.50848678636883
 97
        0
 75
     0
 76
     1
 52
90.00000000000019
 41
1.0
 77
     0
 78
     1
 53
135.0000000000002
 43
0.0
 44
0.0
 45
-0.0883883476483182
 46
-0.0883883476483188
 79
     0
 98
        1
 10
0.0
 20
0.0
  0
HATCH
  5
443
330
1F
100
AcDbEntity
  8
0
  6
Continuous
 62
     7
370
     0
100
AcDbHatch
 10
0.0
 20
0.0
 30
0.0
210
0.0
220
0.0
230
1.0
  2
ANSI31
 70
     0
 71
     0
 91
        1
 92
        0
 93
        4
 72
     1
 10
4.026733257699671
 20
7.115875395440832
 11
3.140906486046128
 21
7.115875395440833
 72
     1
 10
3.140906486046128
 20
7.115875395440833
 11
3.140906486046128
 21
7.048946261582566
 72
     1
 10
3.140906486046128
 20
7.048946261582566
 11
4.026733257699672
 21
7.048946261582564
 72
     1
 10
4.026733257699672
 20
7.048946261582564
 11
4.026733257699671
 21
7.115875395440832
 97
        0
 75
     0
 76
     1
 52
0.0
 41
1.0
 77
     0
 78
     1
 53
45.0
 43
0.0
 44
0.0
 45
-0.0883883476483184
 46
0.0883883476483185
 79
     0
 98
        1
 10
0.0
 20
0.0
  0
DIMENSION
  5
444
330
1F
100
AcDbEntity
  8
0
  6
Continuous
 62
     7
370
     0
100
AcDbDimension
  2
*D17
 10
3.141300186833535
 20
11.4582788457834
 30
0.0
 11
2.219255769975923
 21
11.4582788457834
 31
0.0
 70
   160
 71
     2
 42
-1.0
  3
SLDDIMSTYLE5
100
AcDbAlignedDimension
 13
3.318465541164243
 23
10.40395206841366
 33
0.0
 14
3.141300186833534
 24
10.38840804621135
 34
0.0
100
AcDbRotatedDimension
  0
DIMENSION
  5
457
330
1F
100
AcDbEntity
  8
0
  6
Continuous
 62
     7
370
     0
100
AcDbDimension
  2
*D18
 10
4.003504911242986
 20
11.9307197906653
 30
0.0
 11
4.587310574445988
 21
11.9307197906653
 31
0.0
 70
   160
 71
     2
 42
-1.0
  3
SLDDIMSTYLE0
100
AcDbAlignedDimension
 13
3.318465541164243
 23
10.40395206841366
 33
0.0
 14
4.003504911242983
 24
10.38837692599053
 34
0.0
 50
-0.0000000000001486
100
AcDbRotatedDimension
  0
DIMENSION
  5
469
330
1F
100
AcDbEntity
  8
0
  6
Continuous
 62
     7
370
     0
100
AcDbDimension
  2
*D19
 10
3.826339556913008
 20
11.59341246939589
 30
0.0
 11
4.587310574445988
 21
11.59341246939589
 31
0.0
 70
   160
 71
     2
 42
-1.0
  3
SLDDIMSTYLE0
100
AcDbAlignedDimension
 13
3.318465541164243
 23
10.40395206841366
 33
0.0
 14
3.826339556913006
 24
9.930136090161161
 34
0.0
100
AcDbRotatedDimension
  0
MTEXT
  5
47B
330
1F
100
AcDbEntity
  8
0
  6
Continuous
 62
     7
370
     0
100
AcDbMText
 10
3.118303701736834
 20
6.630933102042193
 30
0.0
 40
0.125
 41
0.0
 71
     1
 72
     1
  1
SECTION F-F
  7
SLDTEXTSTYLE0
 73
     1
 44
1.0
  0
INSERT
  5
480
330
1F
100
AcDbEntity
  8
0
  6
Continuous
 62
     7
370
     0
100
AcDbBlockReference
  2
SW_NOTE_7
 10
2.482505304236884
 20
8.190103468000446
 30
0.0
  0
LEADER
  5
481
330
1F
100
AcDbEntity
  8
0
  6
Continuous
 62
     7
370
     0
100
AcDbLeader
  3
SLDDIMSTYLE3
 76
     2
 10
3.042874989983138
 20
8.748946730779142
 30
0.0
 10
2.482505304236884
 20
8.190103468000446
 30
0.0
  0
INSERT
  5
486
330
1F
100
AcDbEntity
  8
0
  6
Continuous
 62
     7
370
     0
100
AcDbBlockReference
  2
SW_NOTE_8
 10
5.811538713945936
 20
9.498288094672261
 30
0.0
  0
LEADER
  5
487
330
1F
100
AcDbEntity
  8
0
  6
Continuous
 62
     7
370
     0
100
AcDbLeader
  3
SLDDIMSTYLE3
 76
     2
 10
4.141300186833528
 20
8.671388596552571
 30
0.0
 10
5.811538713945936
 20
9.498288094672261
 30
0.0
  0
INSERT
  5
48D
330
1F
100
AcDbEntity
  8
0
  6
Continuous
 62
     7
370
     0
100
AcDbBlockReference
  2
SW_NOTE_9
 10
2.543954709288282
 20
6.268090307836855
 30
0.0
  0
LEADER
  5
48E
330
1F
100
AcDbEntity
  8
0
  6
Continuous
 62
     7
370
     0
100
AcDbLeader
  3
SLDDIMSTYLE3
 76
     2
 10
3.345930315870337
 20
7.048946261582564
 30
0.0
 10
2.543954709288282
 20
6.268090307836855
 30
0.0
  0
INSERT
  5
495
102
{ACAD_REACTORS
330
496
102
}
330
1F
100
AcDbEntity
  8
0
  6
Continuous
 62
     7
370
     0
100
AcDbBlockReference
  2
SW_NOTE_10
 10
2.363599596267392
 20
9.072357200453192
 30
0.0
  0
LEADER
  5
496
330
1F
100
AcDbEntity
  8
0
  6
Continuous
 62
     7
370
     0
100
AcDbLeader
  3
SLDDIMSTYLE3
 73
     2
 76
     2
 10
3.318465541164242
 20
9.222051349561127
 30
0.0
 10
2.363599596267392
 20
9.072357200453192
 30
0.0
340
495
  0
ARC
  5
497
330
1F
100
AcDbEntity
  8
0
  6
Continuous
 62
     7
370
    15
100
AcDbCircle
 10
22.56277193134572
 20
9.877203240464339
 30
0.0
 40
0.1305547942172538
100
AcDbArc
 50
90.0
 51
270.0000000000008
  0
LINE
  5
498
330
1F
100
AcDbEntity
  8
0
  6
Continuous
 62
     7
370
    15
100
AcDbLine
 10
22.56277196302536
 20
9.746648461367961
 30
0.0
 11
22.69291468627218
 21
9.746648461367961
 31
0.0
  0
LINE
  5
499
330
1F
100
AcDbEntity
  8
0
  6
Continuous
 62
     7
370
    15
100
AcDbLine
 10
22.69291468627218
 20
9.746648461367961
 30
0.0
 11
22.69291468627218
 21
8.399019232629143
 31
0.0
  0
LINE
  5
49A
330
1F
100
AcDbEntity
  8
0
  6
Continuous
 62
     7
370
    15
100
AcDbLine
 10
22.69291468627218
 20
8.399019232629143
 30
0.0
 11
22.56277196302536
 21
8.399019232629143
 31
0.0
  0
ARC
  5
49B
330
1F
100
AcDbEntity
  8
0
  6
Continuous
 62
     7
370
    15
100
AcDbCircle
 10
22.5627719313457
 20
8.268464435052964
 30
0.0
 40
0.1305547942172538
100
AcDbArc
 50
90.0
 51
270.0000000000008
  0
LINE
  5
49C
330
1F
100
AcDbEntity
  8
0
  6
Continuous
 62
     7
370
    15
100
AcDbLine
 10
22.56277196302536
 20
8.13790963898945
 30
0.0
 11
22.69291468627218
 21
8.13790963898945
 31
0.0
  0
LINE
  5
49D
330
1F
100
AcDbEntity
  8
0
  6
Continuous
 62
     7
370
    15
100
AcDbLine
 10
22.69291468627218
 20
8.13790963898945
 30
0.0
 11
22.69291468627218
 21
7.445629776265498
 31
0.0
  0
LINE
  5
49E
330
1F
100
AcDbEntity
  8
0
  6
Continuous
 62
     7
370
    15
100
AcDbLine
 10
22.69291468627218
 20
7.445629776265498
 30
0.0
 11
20.46412520010518
 21
7.445629776265498
 31
0.0
  0
LINE
  5
49F
330
1F
100
AcDbEntity
  8
0
  6
Continuous
 62
     7
370
    15
100
AcDbLine
 10
20.46412520010518
 20
7.445629776265498
 30
0.0
 11
20.46412520010518
 21
8.13790963898945
 31
0.0
  0
LINE
  5
4A0
330
1F
100
AcDbEntity
  8
0
  6
Continuous
 62
     7
370
    15
100
AcDbLine
 10
20.46412520010518
 20
8.13790963898945
 30
0.0
 11
20.59426799668449
 21
8.13790963898945
 31
0.0
  0
ARC
  5
4A1
330
1F
100
AcDbEntity
  8
0
  6
Continuous
 62
     7
370
    15
100
AcDbCircle
 10
20.59426799433783
 20
8.268464435052964
 30
0.0
 40
0.1305547942172538
100
AcDbArc
 50
270.0000000000008
 51
90.0
  0
LINE
  5
4A2
330
1F
100
AcDbEntity
  8
0
  6
Continuous
 62
     7
370
    15
100
AcDbLine
 10
20.59426799668449
 20
8.399019232629143
 30
0.0
 11
20.46412520010518
 21
8.399019232629143
 31
0.0
  0
LINE
  5
4A3
330
1F
100
AcDbEntity
  8
0
  6
Continuous
 62
     7
370
    15
100
AcDbLine
 10
20.46412520010518
 20
8.399019232629143
 30
0.0
 11
20.46412520010518
 21
9.746648461367961
 31
0.0
  0
LINE
  5
4A4
330
1F
100
AcDbEntity
  8
0
  6
Continuous
 62
     7
370
    15
100
AcDbLine
 10
20.46412520010518
 20
9.746648461367961
 30
0.0
 11
20.59426799668449
 21
9.746648461367961
 31
0.0
  0
ARC
  5
4A5
330
1F
100
AcDbEntity
  8
0
  6
Continuous
 62
     7
370
    15
100
AcDbCircle
 10
20.59426799433785
 20
9.877203240464339
 30
0.0
 40
0.1305547942172538
100
AcDbArc
 50
270.0000000000008
 51
90.0
  0
LINE
  5
4A6
330
1F
100
AcDbEntity
  8
0
  6
Continuous
 62
     7
370
    15
100
AcDbLine
 10
20.59426799668449
 20
10.00775801834141
 30
0.0
 11
20.46412520010518
 21
10.00775801834141
 31
0.0
  0
LINE
  5
4A7
330
1F
100
AcDbEntity
  8
0
  6
Continuous
 62
     7
370
    15
100
AcDbLine
 10
20.46412520010518
 20
10.00775801834141
 30
0.0
 11
20.46412520010518
 21
10.70003780773287
 31
0.0
  0
LINE
  5
4A8
330
1F
100
AcDbEntity
  8
0
  6
Continuous
 62
     7
370
    15
100
AcDbLine
 10
20.46412520010518
 20
10.70003780773287
 30
0.0
 11
22.69291468627218
 21
10.70003780773287
 31
0.0
  0
LINE
  5
4A9
330
1F
100
AcDbEntity
  8
0
  6
Continuous
 62
     7
370
    15
100
AcDbLine
 10
22.69291468627218
 20
10.70003780773287
 30
0.0
 11
22.69291468627218
 21
10.00775801834141
 31
0.0
  0
LINE
  5
4AA
330
1F
100
AcDbEntity
  8
0
  6
Continuous
 62
     7
370
    15
100
AcDbLine
 10
22.69291468627218
 20
10.00775801834141
 30
0.0
 11
22.56277196302536
 21
10.00775801834141
 31
0.0
  0
CIRCLE
  5
4AB
330
1F
100
AcDbEntity
  8
0
  6
Continuous
 62
     7
370
    15
100
AcDbCircle
 10
21.02733886047958
 20
8.009841711774406
 30
0.0
 40
0.0629921259842519
  0
CIRCLE
  5
4AC
330
1F
100
AcDbEntity
  8
0
  6
Continuous
 62
     7
370
    15
100
AcDbCircle
 10
21.02733886047958
 20
10.13582596374291
 30
0.0
 40
0.0629921259842554
  0
CIRCLE
  5
4AD
330
1F
100
AcDbEntity
  8
0
  6
Continuous
 62
     7
370
    15
100
AcDbCircle
 10
22.12970106520399
 20
10.13582596374291
 30
0.0
 40
0.0629921259842519
  0
CIRCLE
  5
4AE
330
1F
100
AcDbEntity
  8
0
  6
Continuous
 62
     7
370
    15
100
AcDbCircle
 10
22.12970106520399
 20
8.009841711774408
 30
0.0
 40
0.0629921259842519
  0
DIMENSION
  5
4AF
330
1F
100
AcDbEntity
  8
0
  6
Continuous
 62
     7
370
     0
100
AcDbDimension
  2
*D24
 10
22.12970106520399
 20
11.47456516960522
 30
0.0
 11
21.64316524445694
 21
11.47456516960522
 31
0.0
 70
   160
 71
     2
 42
-1.0
  3
SLDDIMSTYLE5
100
AcDbAlignedDimension
 13
21.02733886047958
 23
10.29881808972716
 33
0.0
 14
22.12970106520399
 24
10.29881808972716
 34
0.0
100
AcDbRotatedDimension
  0
DIMENSION
  5
4C1
330
1F
100
AcDbEntity
  8
0
  6
Continuous
 62
     7
370
     0
100
AcDbDimension
  2
*D25
 10
18.88934374166865
 20
8.009841711774406
 30
0.0
 11
18.88934374166865
 21
9.028927136477694
 31
0.0
 70
   160
 71
     2
 42
-1.0
  3
SLDDIMSTYLE0
100
AcDbAlignedDimension
 13
20.86434673449533
 23
10.13582596374291
 33
0.0
 14
20.86434673449533
 24
8.009841711774406
 34
0.0
 50
90.00000000000019
100
AcDbRotatedDimension
  0
DIMENSION
  5
4D3
330
1F
100
AcDbEntity
  8
0
  6
Continuous
 62
     7
370
     0
100
AcDbDimension
  2
*D26
 10
24.03150144622763
 20
7.445629789383673
 30
0.0
 11
24.03150144622763
 21
9.028927136477696
 31
0.0
 70
   160
 71
     2
 42
-1.0
  3
SLDDIMSTYLE0
100
AcDbAlignedDimension
 13
22.69291471088744
 23
10.70003788613363
 33
0.0
 14
22.69291471088744
 24
7.445629789383673
 34
0.0
 50
90.00000000000019
100
AcDbRotatedDimension
  0
DIMENSION
  5
4E5
330
1F
100
AcDbEntity
  8
0
  6
Continuous
 62
     7
370
     0
100
AcDbDimension
  2
*D27
 10
21.08186555185282
 20
10.10428475476318
 30
0.0
 11
18.55139700884019
 21
11.0871934666121
 31
0.0
 70
   163
  1
<>
 42
-1.0
  3
SLDDIMSTYLE2
100
AcDbDiametricDimension
 15
20.97281216910634
 25
10.16736717272264
 35
0.0
 40
0.0
  0
DIMENSION
  5
4F5
330
1F
100
AcDbEntity
  8
0
  6
Continuous
 62
     7
370
     0
100
AcDbDimension
  2
*D28
 10
22.56277193134572
 20
9.877203240464339
 30
0.0
 11
21.4027880841289
 21
9.227026892671963
 31
0.0
 70
   164
  1
<>
 42
-1.0
  3
SLDDIMSTYLE6
100
AcDbRadialDimension
 15
22.49789679042917
 25
9.763908181506906
 35
0.0
 40
0.0
  0
DIMENSION
  5
506
330
1F
100
AcDbEntity
  8
0
  6
Continuous
 62
     7
370
     0
100
AcDbDimension
  2
*D29
 10
22.56277193134572
 20
11.91669000410736
 30
0.0
 11
21.53788700007171
 21
11.91669000410736
 31
0.0
 70
   160
 71
     2
 42
-1.0
  3
SLDDIMSTYLE0
100
AcDbAlignedDimension
 13
20.59426799433784
 23
10.10775803468159
 33
0.0
 14
22.56277193134572
 24
10.10775803468159
 34
0.0
100
AcDbRotatedDimension
  0
DIMENSION
  5
518
330
1F
100
AcDbEntity
  8
0
  6
Continuous
 62
     7
370
     0
100
AcDbDimension
  2
*D30
 10
19.59797942433784
 20
8.268464435052964
 30
0.0
 11
19.59797942433784
 21
8.622381167911495
 31
0.0
 70
   160
 71
     2
 42
-1.0
  3
SLDDIMSTYLE0
100
AcDbAlignedDimension
 13
20.36371320012059
 23
9.877203240464339
 33
0.0
 14
20.36371320012058
 24
8.268464435052964
 34
0.0
 50
90.00000000000019
100
AcDbRotatedDimension
  0
DIMENSION
  5
52A
330
1F
100
AcDbEntity
  8
0
  6
Continuous
 62
     7
370
     0
100
AcDbDimension
  2
*D31
 10
20.46412521479613
 20
6.971508568282863
 30
0.0
 11
21.28505065598444
 21
6.971508568282863
 31
0.0
 70
   160
 71
     2
 42
-1.0
  3
SLDDIMSTYLE0
100
AcDbAlignedDimension
 13
22.69291471088744
 23
7.445629789383673
 33
0.0
 14
20.46412521479613
 24
7.445629789383673
 34
0.0
100
AcDbRotatedDimension
  0
DIMENSION
  5
53C
330
1F
100
AcDbEntity
  8
0
  6
Continuous
 62
     7
370
     0
100
AcDbDimension
  2
*D32
 10
19.19543263573379
 20
10.70003788613363
 30
0.0
 11
19.19543263573379
 21
10.50378102244322
 31
0.0
 70
   160
 71
     2
 42
-1.0
  3
SLDDIMSTYLE5
100
AcDbAlignedDimension
 13
20.86434673449533
 23
10.13582596374291
 33
0.0
 14
20.46412521479613
 24
10.70003788613363
 34
0.0
 50
90.00000000000019
100
AcDbRotatedDimension
  0
DIMENSION
  5
54E
330
1F
100
AcDbEntity
  8
0
  6
Continuous
 62
     7
370
     0
100
AcDbDimension
  2
*D33
 10
20.46412521479613
 20
11.47456516960522
 30
0.0
 11
19.3617589518969
 21
11.47456516960522
 31
0.0
 70
   160
 71
     2
 42
-1.0
  3
SLDDIMSTYLE0
100
AcDbAlignedDimension
 13
21.02733886047958
 23
10.29881808972716
 33
0.0
 14
20.46412521479613
 24
10.70003788613363
 34
0.0
100
AcDbRotatedDimension
  0
DIMENSION
  5
560
330
1F
100
AcDbEntity
  8
0
  6
Continuous
 62
     7
370
     0
100
AcDbDimension
  2
*D34
 10
20.59426799433784
 20
11.91669000410735
 30
0.0
 11
19.3617589518969
 21
11.91669000410735
 31
0.0
 70
   160
 71
     2
 42
-1.0
  3
SLDDIMSTYLE7
100
AcDbAlignedDimension
 13
20.46412521479613
 23
10.70003788613363
 33
0.0
 14
20.59426799433784
 24
10.10775803468159
 34
0.0
100
AcDbRotatedDimension
  0
DIMENSION
  5
573
330
1F
100
AcDbEntity
  8
0
  6
Continuous
 62
     7
370
     0
100
AcDbDimension
  2
*D35
 10
23.42672321766483
 20
10.70003788613363
 30
0.0
 11
23.42672321766483
 21
10.26581740447873
 31
0.0
 70
   160
 71
     2
 42
-1.0
  3
SLDDIMSTYLE0
100
AcDbAlignedDimension
 13
22.79332672556297
 23
9.877203240464339
 33
0.0
 14
22.69291471088744
 24
10.70003788613363
 34
0.0
 50
90.00000000000019
100
AcDbRotatedDimension
  0
INSERT
  5
590
330
1F
100
AcDbEntity
  8
0
  6
Continuous
 62
     7
370
     0
100
AcDbBlockReference
  2
SW_CENTERMARKSYMBOL_0
 10
21.02733886047958
 20
8.009841711774406
 30
0.0
  0
INSERT
  5
59C
330
1F
100
AcDbEntity
  8
0
  6
Continuous
 62
     7
370
     0
100
AcDbBlockReference
  2
SW_CENTERMARKSYMBOL_1
 10
21.02733886047958
 20
10.13582596374291
 30
0.0
  0
INSERT
  5
5A8
330
1F
100
AcDbEntity
  8
0
  6
Continuous
 62
     7
370
     0
100
AcDbBlockReference
  2
SW_CENTERMARKSYMBOL_2
 10
22.12970106520399
 20
10.13582596374291
 30
0.0
  0
INSERT
  5
5B4
330
1F
100
AcDbEntity
  8
0
  6
Continuous
 62
     7
370
     0
100
AcDbBlockReference
  2
SW_CENTERMARKSYMBOL_3
 10
22.12970106520399
 20
8.009841711774408
 30
0.0
  0
INSERT
  5
5C0
330
1F
100
AcDbEntity
  8
0
  6
Continuous
 62
     7
370
     0
100
AcDbBlockReference
  2
SW_CENTERMARKSYMBOL_4
 10
20.59426799433785
 20
9.877203240464339
 30
0.0
  0
INSERT
  5
5CC
330
1F
100
AcDbEntity
  8
0
  6
Continuous
 62
     7
370
     0
100
AcDbBlockReference
  2
SW_CENTERMARKSYMBOL_5
 10
22.56277193134572
 20
9.877203240464339
 30
0.0
  0
INSERT
  5
5D8
330
1F
100
AcDbEntity
  8
0
  6
Continuous
 62
     7
370
     0
100
AcDbBlockReference
  2
SW_CENTERMARKSYMBOL_6
 10
22.5627719313457
 20
8.268464435052964
 30
0.0
  0
INSERT
  5
5E4
330
1F
100
AcDbEntity
  8
0
  6
Continuous
 62
     7
370
     0
100
AcDbBlockReference
  2
SW_CENTERMARKSYMBOL_7
 10
20.59426799433783
 20
8.268464435052964
 30
0.0
  0
DIMENSION
  5
5ED
330
1F
100
AcDbEntity
  8
0
100
AcDbDimension
  2
*D44
 10
6.759125554275925
 20
2.995501861434513
 30
0.0
 11
6.759125554275924
 21
3.544714443550566
 31
0.0
 70
    32
 71
     5
 42
1.098425164232105
  3
Standard
100
AcDbAlignedDimension
 13
8.030714286691909
 23
4.093927025666618
 33
0.0
 14
8.030714321600642
 24
2.995501861434513
 34
0.0
 50
90.0
100
AcDbRotatedDimension
1001
ACAD
1000
DSTYLE
1002
{
1070
    41
1040
0.13
1070
    42
1040
0.05
1070
    44
1040
0.125
1070
   140
1040
0.125
1070
   147
1040
0.06
1070
   170
1070
     1
1070
   271
1070
     3
1070
   272
1070
     3
1002
}
  0
MTEXT
  5
61A
330
1F
100
AcDbEntity
  8
0
  6
Continuous
 62
     0
370
     0
100
AcDbMText
 10
10.96027396865862
 20
2.572998626602276
 30
0.0
 40
0.125
 41
0.0
 71
     1
 72
     1
  1
VIEWING AREA
  7
SLDTEXTSTYLE0
 73
     1
 44
1.0
  0
MTEXT
  5
61B
330
1F
100
AcDbEntity
  8
0
  6
Continuous
 62
     0
370
     0
100
AcDbMText
 10
10.96027396865862
 20
2.40862855208607
 30
0.0
 40
0.125
 41
0.0
 71
     1
 72
     1
  1
2.28 [57.9] X .82 [20.8]
  7
SLDTEXTSTYLE0
 73
     1
 44
1.0
  0
ENDSEC
  0
SECTION
  2
OBJECTS
  0
DICTIONARY
  5
C
330
0
100
AcDbDictionary
281
     1
  3
ACAD_GROUP
350
D
  3
ACAD_PLOTSTYLENAME
350
E
  3
ACAD_MLINESTYLE
350
17
  3
ACAD_PLOTSETTINGS
350
19
  3
ACAD_LAYOUT
350
1A
  3
ACAD_VISUALSTYLE
350
2A
  3
ACAD_SCALELIST
350
3B
  3
AcDbVariableDictionary
350
5E6
  3
ACAD_TABLESTYLE
350
5E8
  3
ACAD_MLEADERSTYLE
350
5E9
  0
DICTIONARY
  5
D
102
{ACAD_REACTORS
330
C
102
}
330
C
100
AcDbDictionary
281
     1
  0
ACDBDICTIONARYWDFLT
  5
E
102
{ACAD_REACTORS
330
C
102
}
330
C
100
AcDbDictionary
281
     1
  3
Normal
350
F
100
AcDbDictionaryWithDefault
340
F
  0
DICTIONARY
  5
17
102
{ACAD_REACTORS
330
C
102
}
330
C
100
AcDbDictionary
281
     1
  3
Standard
350
18
  0
DICTIONARY
  5
19
102
{ACAD_REACTORS
330
C
102
}
330
C
100
AcDbDictionary
281
     1
  0
DICTIONARY
  5
1A
102
{ACAD_REACTORS
330
C
102
}
330
C
100
AcDbDictionary
281
     1
  3
Layout1
350
1E
  3
Model
350
22
  3
Layout2
350
26
  0
DICTIONARY
  5
2A
102
{ACAD_REACTORS
330
C
102
}
330
C
100
AcDbDictionary
281
     1
  3
Flat
350
2B
  3
FlatWithEdges
350
2C
  3
Gouraud
350
2D
  3
GouraudWithEdges
350
2E
  3
2dWireframe
350
2F
  3
3dWireframe
350
30
  3
3D Hidden
350
31
  3
Basic
350
32
  3
Realistic
350
33
  3
Conceptual
350
34
  3
Dim
350
35
  3
Brighten
350
36
  3
Thicken
350
37
  3
Linepattern
350
38
  3
Facepattern
350
39
  3
ColorChange
350
3A
  0
DICTIONARY
  5
3B
102
{ACAD_REACTORS
330
C
102
}
330
C
100
AcDbDictionary
281
     1
  3
A0
350
3C
  3
A1
350
3D
  3
A2
350
3E
  3
A3
350
3F
  3
A4
350
40
  3
A5
350
41
  3
A6
350
42
  3
A7
350
43
  3
A8
350
44
  3
A9
350
45
  3
B0
350
46
  3
B1
350
47
  3
B2
350
48
  3
B3
350
49
  3
B4
350
4A
  3
B5
350
4B
  3
B6
350
4C
  3
B7
350
4D
  3
B8
350
4E
  3
B9
350
4F
  3
C0
350
50
  3
C1
350
51
  3
C2
350
52
  3
C3
350
53
  3
C4
350
54
  3
C5
350
55
  3
C6
350
56
  3
C7
350
57
  3
C8
350
58
  3
C9
350
59
  3
D0
350
5A
  3
D1
350
5B
  3
D2
350
5C
  0
DICTIONARY
  5
5E6
102
{ACAD_REACTORS
330
C
102
}
330
C
100
AcDbDictionary
281
     1
  3
CANNOSCALE
350
5E7
  0
DICTIONARY
  5
5E8
102
{ACAD_REACTORS
330
C
102
}
330
C
100
AcDbDictionary
281
     1
  0
DICTIONARY
  5
5E9
102
{ACAD_REACTORS
330
C
102
}
330
C
100
AcDbDictionary
281
     1
  0
ACDBPLACEHOLDER
  5
F
102
{ACAD_REACTORS
330
E
102
}
330
E
  0
MLINESTYLE
  5
18
102
{ACAD_REACTORS
330
17
102
}
330
17
100
AcDbMlineStyle
  2
STANDARD
 70
     0
  3

 62
   256
 51
90.0
 52
90.0
 71
     2
 49
0.5
 62
   256
  6
BYLAYER
 49
-0.5
 62
   256
  6
BYLAYER
  0
LAYOUT
  5
1E
102
{ACAD_REACTORS
330
1A
102
}
330
1A
100
AcDbPlotSettings
  1

  2
none_device
  4

  6

 40
0.0
 41
0.0
 42
0.0
 43
0.0
 44
0.0
 45
0.0
 46
0.0
 47
0.0
 48
0.0
 49
0.0
140
0.0
141
0.0
142
1.0
143
1.0
 70
   688
 72
     0
 73
     0
 74
     5
  7

 75
    16
147
1.0
148
0.0
149
0.0
100
AcDbLayout
  1
Layout1
 70
     1
 71
     1
 10
0.0
 20
0.0
 11
12.0
 21
9.0
 12
0.0
 22
0.0
 32
0.0
 14
1.000000000000000E+20
 24
1.000000000000000E+20
 34
1.000000000000000E+20
 15
-1.000000000000000E+20
 25
-1.000000000000000E+20
 35
-1.000000000000000E+20
146
0.0
 13
0.0
 23
0.0
 33
0.0
 16
1.0
 26
0.0
 36
0.0
 17
0.0
 27
1.0
 37
0.0
 76
     0
330
1B
  0
LAYOUT
  5
22
102
{ACAD_REACTORS
330
1A
102
}
330
1A
100
AcDbPlotSettings
  1

  2
none_device
  4
Letter_(8.50_x_11.00_Inches)
  6

 40
6.349999904632568
 41
6.349999904632568
 42
6.350006103515625
 43
6.350006103515625
 44
215.8999938964843
 45
279.3999938964843
 46
0.0
 47
0.0
 48
0.0
 49
0.0
140
0.0
141
0.0
142
1.0
143
1.0
 70
 11952
 72
     0
 73
     1
 74
     0
  7

 75
     0
147
1.0
148
-204.1542172498333
149
25.95737514126421
100
AcDbLayout
  1
Model
 70
     1
 71
     0
 10
0.0
 20
0.0
 11
25.5
 21
16.5
 12
0.0
 22
0.0
 32
0.0
 14
0.0
 24
0.0
 34
0.0
 15
25.5
 25
16.5
 35
0.0
146
0.0
 13
0.0
 23
0.0
 33
0.0
 16
1.0
 26
0.0
 36
0.0
 17
0.0
 27
1.0
 37
0.0
 76
     0
330
1F
  0
LAYOUT
  5
26
102
{ACAD_REACTORS
330
1A
102
}
330
1A
100
AcDbPlotSettings
  1

  2
none_device
  4

  6

 40
0.0
 41
0.0
 42
0.0
 43
0.0
 44
0.0
 45
0.0
 46
0.0
 47
0.0
 48
0.0
 49
0.0
140
0.0
141
0.0
142
1.0
143
1.0
 70
   688
 72
     0
 73
     0
 74
     5
  7

 75
    16
147
1.0
148
0.0
149
0.0
100
AcDbLayout
  1
Layout2
 70
     1
 71
     2
 10
0.0
 20
0.0
 11
0.0
 21
0.0
 12
0.0
 22
0.0
 32
0.0
 14
0.0
 24
0.0
 34
0.0
 15
0.0
 25
0.0
 35
0.0
146
0.0
 13
0.0
 23
0.0
 33
0.0
 16
1.0
 26
0.0
 36
0.0
 17
0.0
 27
1.0
 37
0.0
 76
     0
330
23
  0
ACAD_PROXY_OBJECT
  5
2B
102
{ACAD_REACTORS
330
2A
102
}
330
2A
100
AcDbProxyObject
 90
      499
 91
      501
 95
   393239
 70
     0
 93
      388
310
41119B185D240901404333333333333E3BF0000000000000F9010740A41107004050150841D405064090741402480A1B52
 94
        0
1001
ACAD
1000
AcDbSavedByObjectVersion
1070
     0
  0
ACAD_PROXY_OBJECT
  5
2C
102
{ACAD_REACTORS
330
2A
102
}
330
2A
100
AcDbProxyObject
 90
      499
 91
      501
 95
   393239
 70
     0
 93
      476
310
43519B185D15DA5D1A115919D95CD0140901404333333333333E3BF0000000000000F9010740901411070040501600405405064090741402480A1B58
 94
        0
1001
ACAD
1000
AcDbSavedByObjectVersion
1070
     0
  0
ACAD_PROXY_OBJECT
  5
2D
102
{ACAD_REACTORS
330
2A
102
}
330
2A
100
AcDbProxyObject
 90
      499
 91
      501
 95
   393239
 70
     0
 93
      412
310
41D1DBDD5C985D5910240902404333333333333E3BF0000000000000F9010740A411070040501641D405064090741402480A1B50
 94
        0
1001
ACAD
1000
AcDbSavedByObjectVersion
1070
     0
  0
ACAD_PROXY_OBJECT
  5
2E
102
{ACAD_REACTORS
330
2A
102
}
330
2A
100
AcDbProxyObject
 90
      499
 91
      501
 95
   393239
 70
     0
 93
      500
310
4411DBDD5C985D5915DA5D1A115919D95CD0340902404333333333333E3BF0000000000000F9010740901411070040501600405405064090741402480A1B5A
 94
        0
1001
ACAD
1000
AcDbSavedByObjectVersion
1070
     0
  0
ACAD_PROXY_OBJECT
  5
2F
102
{ACAD_REACTORS
330
2A
102
}
330
2A
100
AcDbProxyObject
 90
      499
 91
      501
 95
   393239
 70
     0
 93
      436
310
42CC9915DA5C99599C985B595049028333333333333E3BF0000000000000FB0107901411070040501600405405064090741402480A0340
 94
        0
1001
ACAD
1000
AcDbSavedByObjectVersion
1070
     0
  0
ACAD_PROXY_OBJECT
  5
30
102
{ACAD_REACTORS
330
2A
102
}
330
2A
100
AcDbProxyObject
 90
      499
 91
      501
 95
   393239
 70
     0
 93
      436
310
42CCD915DA5C99599C985B595059028333333333333E3BF0000000000000FB0107901411070040501600405405064090741402480A0340
 94
        0
1001
ACAD
1000
AcDbSavedByObjectVersion
1070
     0
  0
ACAD_PROXY_OBJECT
  5
31
102
{ACAD_REACTORS
330
2A
102
}
330
2A
100
AcDbProxyObject
 90
      499
 91
      501
 95
   393239
 70
     0
 93
      500
310
424CD108121A5919195B90640502408333333333333E3BF0000000000000FB01079024090700405020000000000001110200405405064090740C02480A034A
 94
        0
1001
ACAD
1000
AcDbSavedByObjectVersion
1070
     0
  0
ACAD_PROXY_OBJECT
  5
32
102
{ACAD_REACTORS
330
2A
102
}
330
2A
100
AcDbProxyObject
 90
      499
 91
      501
 95
   393239
 70
     0
 93
      388
310
4150985CDA58D07406404333333333333E3BF0000000000000FB0107A41107004050150841D405064090741402480A0352
 94
        0
1001
ACAD
1000
AcDbSavedByObjectVersion
1070
     0
  0
ACAD_PROXY_OBJECT
  5
33
102
{ACAD_REACTORS
330
2A
102
}
330
2A
100
AcDbProxyObject
 90
      499
 91
      501
 95
   393239
 70
     0
 93
      420
310
425499585B1A5CDD1A58D08409028333333333333E3BF0000000000000FB01079019070040501508421405064090741402480A1B45
 94
        0
1001
ACAD
1000
AcDbSavedByObjectVersion
1070
     0
  0
ACAD_PROXY_OBJECT
  5
34
102
{ACAD_REACTORS
330
2A
102
}
330
2A
100
AcDbProxyObject
 90
      499
 91
      501
 95
   393239
 70
     0
 93
      500
310
4290DBDB98D95C1D1D585B10940D028333333333333E3BF0000000000000FB0107902409070040501000000000000111010841D405064090740C02480A034A
 94
        0
1001
ACAD
1000
AcDbSavedByObjectVersion
1070
     0
  0
ACAD_PROXY_OBJECT
  5
35
102
{ACAD_REACTORS
330
2A
102
}
330
2A
100
AcDbProxyObject
 90
      499
 91
      501
 95
   393239
 70
     0
 93
      412
310
40D11A5B50B409028333333333333E3BF0000000000000FB010790141107004050150841D405064090741402480A02677FFFFFD4
 94
        0
1001
ACAD
1000
AcDbSavedByObjectVersion
1070
     0
  0
ACAD_PROXY_OBJECT
  5
36
102
{ACAD_REACTORS
330
2A
102
}
330
2A
100
AcDbProxyObject
 90
      499
 91
      501
 95
   393239
 70
     0
 93
      428
310
42109C9A59DA1D195B90C409028333333333333E3BF0000000000000FB010790141107004050150841D405064090741402480A029956
 94
        0
1001
ACAD
1000
AcDbSavedByObjectVersion
1070
     0
  0
ACAD_PROXY_OBJECT
  5
37
102
{ACAD_REACTORS
330
2A
102
}
330
2A
100
AcDbProxyObject
 90
      499
 91
      501
 95
   393239
 70
     0
 93
      412
310
41D51A1A58DAD95B90D409028333333333333E3BF0000000000000FB010790141107004050150C41D405064090741402480A0352
 94
        0
1001
ACAD
1000
AcDbSavedByObjectVersion
1070
     0
  0
ACAD_PROXY_OBJECT
  5
38
102
{ACAD_REACTORS
330
2A
102
}
330
2A
100
AcDbProxyObject
 90
      499
 91
      501
 95
   393239
 70
     0
 93
      444
310
42D31A5B995C185D1D195C9B90E409028333333333333E3BF0000000000000FB010790141107004050750841D405064090741402483A0350
 94
        0
1001
ACAD
1000
AcDbSavedByObjectVersion
1070
     0
  0
ACAD_PROXY_OBJECT
  5
39
102
{ACAD_REACTORS
330
2A
102
}
330
2A
100
AcDbProxyObject
 90
      499
 91
      501
 95
   393239
 70
     0
 93
      444
310
42D19858D95C185D1D195C9B90F409028333333333333E3BF0000000000000FB010790141107004050150841D405064090741402480A0350
 94
        0
1001
ACAD
1000
AcDbSavedByObjectVersion
1070
     0
  0
ACAD_PROXY_OBJECT
  5
3A
102
{ACAD_REACTORS
330
2A
102
}
330
2A
100
AcDbProxyObject
 90
      499
 91
      501
 95
   393239
 70
     0
 93
      452
310
42D0DBDB1BDC90DA185B99D95104090240C333333333333E3BF0000000000000FB0108901411070040501508421405064090741402480A0354
 94
        0
1001
ACAD
1000
AcDbSavedByObjectVersion
1070
     0
  0
ACAD_PROXY_OBJECT
  5
3C
102
{ACAD_REACTORS
330
3B
102
}
330
3B
100
AcDbProxyObject
 90
      499
 91
      502
 95
   393239
 70
     0
 93
       41
310
903313A31581
 94
        0
  0
ACAD_PROXY_OBJECT
  5
3D
102
{ACAD_REACTORS
330
3B
102
}
330
3B
100
AcDbProxyObject
 90
      499
 91
      502
 95
   393239
 70
     0
 93
      105
310
903313A324000000000000004004
 94
        0
  0
ACAD_PROXY_OBJECT
  5
3E
102
{ACAD_REACTORS
330
3B
102
}
330
3B
100
AcDbProxyObject
 90
      499
 91
      502
 95
   393239
 70
     0
 93
      105
310
903313A344000000000000104004
 94
        0
  0
ACAD_PROXY_OBJECT
  5
3F
102
{ACAD_REACTORS
330
3B
102
}
330
3B
100
AcDbProxyObject
 90
      499
 91
      502
 95
   393239
 70
     0
 93
      105
310
903313A354000000000000144004
 94
        0
  0
ACAD_PROXY_OBJECT
  5
40
102
{ACAD_REACTORS
330
3B
102
}
330
3B
100
AcDbProxyObject
 90
      499
 91
      502
 95
   393239
 70
     0
 93
      105
310
903313A384000000000000204004
 94
        0
  0
ACAD_PROXY_OBJECT
  5
41
102
{ACAD_REACTORS
330
3B
102
}
330
3B
100
AcDbProxyObject
 90
      499
 91
      502
 95
   393239
 70
     0
 93
      113
310
904313A31304000000000000244009
 94
        0
  0
ACAD_PROXY_OBJECT
  5
42
102
{ACAD_REACTORS
330
3B
102
}
330
3B
100
AcDbProxyObject
 90
      499
 91
      502
 95
   393239
 70
     0
 93
      113
310
904313A31364000000000000304009
 94
        0
  0
ACAD_PROXY_OBJECT
  5
43
102
{ACAD_REACTORS
330
3B
102
}
330
3B
100
AcDbProxyObject
 90
      499
 91
      502
 95
   393239
 70
     0
 93
      113
310
904313A32304000000000000344009
 94
        0
  0
ACAD_PROXY_OBJECT
  5
44
102
{ACAD_REACTORS
330
3B
102
}
330
3B
100
AcDbProxyObject
 90
      499
 91
      502
 95
   393239
 70
     0
 93
      113
310
904313A333040000000000003E4009
 94
        0
  0
ACAD_PROXY_OBJECT
  5
45
102
{ACAD_REACTORS
330
3B
102
}
330
3B
100
AcDbProxyObject
 90
      499
 91
      502
 95
   393239
 70
     0
 93
      113
310
904313A34304000000000000444009
 94
        0
  0
ACAD_PROXY_OBJECT
  5
46
102
{ACAD_REACTORS
330
3B
102
}
330
3B
100
AcDbProxyObject
 90
      499
 91
      502
 95
   393239
 70
     0
 93
      113
310
904313A35304000000000000494009
 94
        0
  0
ACAD_PROXY_OBJECT
  5
47
102
{ACAD_REACTORS
330
3B
102
}
330
3B
100
AcDbProxyObject
 90
      499
 91
      502
 95
   393239
 70
     0
 93
      121
310
905313A3130304000000000000594002
 94
        0
  0
ACAD_PROXY_OBJECT
  5
48
102
{ACAD_REACTORS
330
3B
102
}
330
3B
100
AcDbProxyObject
 90
      499
 91
      502
 95
   393239
 70
     0
 93
      105
310
903323A310000000000000010159
 94
        0
  0
ACAD_PROXY_OBJECT
  5
49
102
{ACAD_REACTORS
330
3B
102
}
330
3B
100
AcDbProxyObject
 90
      499
 91
      502
 95
   393239
 70
     0
 93
      105
310
903343A310000000000000410159
 94
        0
  0
ACAD_PROXY_OBJECT
  5
4A
102
{ACAD_REACTORS
330
3B
102
}
330
3B
100
AcDbProxyObject
 90
      499
 91
      502
 95
   393239
 70
     0
 93
      105
310
903383A310000000000000810159
 94
        0
  0
ACAD_PROXY_OBJECT
  5
4B
102
{ACAD_REACTORS
330
3B
102
}
330
3B
100
AcDbProxyObject
 90
      499
 91
      502
 95
   393239
 70
     0
 93
      113
310
90431303A310000000000000910140
 94
        0
  0
ACAD_PROXY_OBJECT
  5
4C
102
{ACAD_REACTORS
330
3B
102
}
330
3B
100
AcDbProxyObject
 90
      499
 91
      502
 95
   393239
 70
     0
 93
      121
310
9053130303A310000000000001650102
 94
        0
  0
ACAD_PROXY_OBJECT
  5
4D
102
{ACAD_REACTORS
330
3B
102
}
330
3B
100
AcDbProxyObject
 90
      499
 91
      502
 95
   393239
 70
     0
 93
      257
310
90E312F31323822203D2031272D3022000000000000200FC00000000000028407B
 94
        0
  0
ACAD_PROXY_OBJECT
  5
4E
102
{ACAD_REACTORS
330
3B
102
}
330
3B
100
AcDbProxyObject
 90
      499
 91
      502
 95
   393239
 70
     0
 93
      249
310
90D312F363422203D2031272D3022000000000000240FC000000000000284040
 94
        0
  0
ACAD_PROXY_OBJECT
  5
4F
102
{ACAD_REACTORS
330
3B
102
}
330
3B
100
AcDbProxyObject
 90
      499
 91
      502
 95
   393239
 70
     0
 93
      249
310
90D312F333222203D2031272D3022000000000000280FC000000000000284040
 94
        0
  0
ACAD_PROXY_OBJECT
  5
50
102
{ACAD_REACTORS
330
3B
102
}
330
3B
100
AcDbProxyObject
 90
      499
 91
      502
 95
   393239
 70
     0
 93
      249
310
90D312F313622203D2031272D30220000000000002C0FC000000000000284040
 94
        0
  0
ACAD_PROXY_OBJECT
  5
51
102
{ACAD_REACTORS
330
3B
102
}
330
3B
100
AcDbProxyObject
 90
      499
 91
      502
 95
   393239
 70
     0
 93
      249
310
90D332F333222203D2031272D30220000000000002E0FC000000000000284040
 94
        0
  0
ACAD_PROXY_OBJECT
  5
52
102
{ACAD_REACTORS
330
3B
102
}
330
3B
100
AcDbProxyObject
 90
      499
 91
      502
 95
   393239
 70
     0
 93
      241
310
90C312F3822203D2031272D3022000000000000300FC000000000000284040
 94
        0
  0
ACAD_PROXY_OBJECT
  5
53
102
{ACAD_REACTORS
330
3B
102
}
330
3B
100
AcDbProxyObject
 90
      499
 91
      502
 95
   393239
 70
     0
 93
      249
310
90D332F313622203D2031272D3022000000000000320FC000000000000284040
 94
        0
  0
ACAD_PROXY_OBJECT
  5
54
102
{ACAD_REACTORS
330
3B
102
}
330
3B
100
AcDbProxyObject
 90
      499
 91
      502
 95
   393239
 70
     0
 93
      241
310
90C312F3422203D2031272D3022000000000000340FC000000000000284040
 94
        0
  0
ACAD_PROXY_OBJECT
  5
55
102
{ACAD_REACTORS
330
3B
102
}
330
3B
100
AcDbProxyObject
 90
      499
 91
      502
 95
   393239
 70
     0
 93
      241
310
90C332F3822203D2031272D3022000000000000360FC000000000000284040
 94
        0
  0
ACAD_PROXY_OBJECT
  5
56
102
{ACAD_REACTORS
330
3B
102
}
330
3B
100
AcDbProxyObject
 90
      499
 91
      502
 95
   393239
 70
     0
 93
      241
310
90C312F3222203D2031272D3022000000000000380FC000000000000284040
 94
        0
  0
ACAD_PROXY_OBJECT
  5
57
102
{ACAD_REACTORS
330
3B
102
}
330
3B
100
AcDbProxyObject
 90
      499
 91
      502
 95
   393239
 70
     0
 93
      241
310
90C332F3422203D2031272D30220000000000003A0FC000000000000284040
 94
        0
  0
ACAD_PROXY_OBJECT
  5
58
102
{ACAD_REACTORS
330
3B
102
}
330
3B
100
AcDbProxyObject
 90
      499
 91
      502
 95
   393239
 70
     0
 93
      161
310
90A3122203D2031272D30224000000000000284020
 94
        0
  0
ACAD_PROXY_OBJECT
  5
59
102
{ACAD_REACTORS
330
3B
102
}
330
3B
100
AcDbProxyObject
 90
      499
 91
      502
 95
   393239
 70
     0
 93
      257
310
90E312D312F3222203D2031272D30220000000000003E0FC00000000000028407B
 94
        0
  0
ACAD_PROXY_OBJECT
  5
5A
102
{ACAD_REACTORS
330
3B
102
}
330
3B
100
AcDbProxyObject
 90
      499
 91
      502
 95
   393239
 70
     0
 93
      225
310
90A3322203D2031272D302200000000000002100000000000000284000
 94
        0
  0
ACAD_PROXY_OBJECT
  5
5B
102
{ACAD_REACTORS
330
3B
102
}
330
3B
100
AcDbProxyObject
 90
      499
 91
      502
 95
   393239
 70
     0
 93
      225
310
90A3622203D2031272D302200000000000006100000000000000284000
 94
        0
  0
ACAD_PROXY_OBJECT
  5
5C
102
{ACAD_REACTORS
330
3B
102
}
330
3B
100
AcDbProxyObject
 90
      499
 91
      502
 95
   393239
 70
     0
 93
      249
310
90D31272D3022203D2031272D30220000000000000A100000000000000284040
 94
        0
  0
DICTIONARYVAR
  5
5E7
102
{ACAD_REACTORS
330
5E6
102
}
330
5E6
100
DictionaryVariables
280
     0
  1
1:1
  0
ENDSEC
  0
EOF
