  0
SECTION
  2
HEADER
  9
$ACADVER
  1
AC1015
  9
$ACADMAINTVER
 70
     6
  9
$DWGCODEPAGE
  3
ANSI_1252
  9
$INSBASE
 10
0.0
 20
0.0
 30
0.0
  9
$EXTMIN
 10
0.0
 20
0.0
 30
-0.00000001
  9
$EXTMAX
 10
91.29999999999997
 20
56.80399999999999
 30
0.00000001
  9
$LIMMIN
 10
0.0
 20
0.0
  9
$LIMMAX
 10
11.0
 20
8.5
  9
$ORTHOMODE
 70
     0
  9
$REGENMODE
 70
     1
  9
$FILLMODE
 70
     1
  9
$QTEXTMODE
 70
     0
  9
$MIRRTEXT
 70
     0
  9
$LTSCALE
 40
2.0
  9
$ATTMODE
 70
     1
  9
$TEXTSIZE
 40
0.6875
  9
$TRACEWID
 40
0.05
  9
$TEXTSTYLE
  7
TXT
  9
$CLAYER
  8
OBJECT
  9
$CELTYPE
  6
ByLayer
  9
$CECOLOR
 62
   256
  9
$CELTSCALE
 40
1.0
  9
$DISPSILH
 70
     0
  9
$DIMSCALE
 40
5.5
  9
$DIMASZ
 40
0.18
  9
$DIMEXO
 40
0.063
  9
$DIMDLI
 40
0.281
  9
$DIMRND
 40
0.0
  9
$DIMDLE
 40
0.0
  9
$DIMEXE
 40
0.093
  9
$DIMTP
 40
0.0
  9
$DIMTM
 40
0.0
  9
$DIMTXT
 40
0.125
  9
$DIMCEN
 40
0.09
  9
$DIMTSZ
 40
0.0
  9
$DIMTOL
 70
     0
  9
$DIMLIM
 70
     0
  9
$DIMTIH
 70
     1
  9
$DIMTOH
 70
     1
  9
$DIMSE1
 70
     0
  9
$DIMSE2
 70
     0
  9
$DIMTAD
 70
     0
  9
$DIMZIN
 70
     0
  9
$DIMBLK
  1

  9
$DIMASO
 70
     1
  9
$DIMSHO
 70
     1
  9
$DIMPOST
  1

  9
$DIMAPOST
  1

  9
$DIMALT
 70
     1
  9
$DIMALTD
 70
     1
  9
$DIMALTF
 40
25.4
  9
$DIMLFAC
 40
1.0
  9
$DIMTOFL
 70
     0
  9
$DIMTVP
 40
0.0
  9
$DIMTIX
 70
     0
  9
$DIMSOXD
 70
     0
  9
$DIMSAH
 70
     0
  9
$DIMBLK1
  1

  9
$DIMBLK2
  1

  9
$DIMSTYLE
  2
23NSTD
  9
$DIMCLRD
 70
     0
  9
$DIMCLRE
 70
     0
  9
$DIMCLRT
 70
     0
  9
$DIMTFAC
 40
1.0
  9
$DIMGAP
 40
0.09
  9
$DIMJUST
 70
     0
  9
$DIMSD1
 70
     0
  9
$DIMSD2
 70
     0
  9
$DIMTOLJ
 70
     1
  9
$DIMTZIN
 70
     0
  9
$DIMALTZ
 70
     0
  9
$DIMALTTZ
 70
     0
  9
$DIMUPT
 70
     0
  9
$DIMDEC
 70
     2
  9
$DIMTDEC
 70
     2
  9
$DIMALTU
 70
     2
  9
$DIMALTTD
 70
     1
  9
$DIMTXSTY
  7
TXT
  9
$DIMAUNIT
 70
     0
  9
$DIMADEC
 70
     0
  9
$DIMALTRND
 40
0.0
  9
$DIMAZIN
 70
     0
  9
$DIMDSEP
 70
    46
  9
$DIMATFIT
 70
     0
  9
$DIMFRAC
 70
     0
  9
$DIMLDRBLK
  1

  9
$DIMLUNIT
 70
     2
  9
$DIMLWD
 70
    -2
  9
$DIMLWE
 70
    -2
  9
$DIMTMOVE
 70
     0
  9
$LUNITS
 70
     2
  9
$LUPREC
 70
     3
  9
$SKETCHINC
 40
0.1
  9
$FILLETRAD
 40
0.0
  9
$AUNITS
 70
     0
  9
$AUPREC
 70
     0
  9
$MENU
  1
acad
  9
$ELEVATION
 40
0.0
  9
$PELEVATION
 40
0.0
  9
$THICKNESS
 40
0.0
  9
$LIMCHECK
 70
     0
  9
$CHAMFERA
 40
0.0
  9
$CHAMFERB
 40
0.0
  9
$CHAMFERC
 40
0.0
  9
$CHAMFERD
 40
0.0
  9
$SKPOLY
 70
     0
  9
$TDCREATE
 40
2455310.642698379
  9
$TDUCREATE
 40
2455310.809365046
  9
$TDUPDATE
 40
2455868.448859953
  9
$TDUUPDATE
 40
2455868.615526620
  9
$TDINDWG
 40
0.6362023032
  9
$TDUSRTIMER
 40
0.6362023032
  9
$USRTIMER
 70
     1
  9
$ANGBASE
 50
0.0
  9
$ANGDIR
 70
     0
  9
$PDMODE
 70
     0
  9
$PDSIZE
 40
0.0
  9
$PLINEWID
 40
0.0
  9
$SPLFRAME
 70
     0
  9
$SPLINETYPE
 70
     6
  9
$SPLINESEGS
 70
     8
  9
$HANDSEED
  5
832E
  9
$SURFTAB1
 70
     6
  9
$SURFTAB2
 70
     6
  9
$SURFTYPE
 70
     6
  9
$SURFU
 70
     6
  9
$SURFV
 70
     6
  9
$UCSBASE
  2

  9
$UCSNAME
  2

  9
$UCSORG
 10
0.0
 20
0.0
 30
0.0
  9
$UCSXDIR
 10
1.0
 20
0.0
 30
0.0
  9
$UCSYDIR
 10
0.0
 20
1.0
 30
0.0
  9
$UCSORTHOREF
  2

  9
$UCSORTHOVIEW
 70
     0
  9
$UCSORGTOP
 10
0.0
 20
0.0
 30
0.0
  9
$UCSORGBOTTOM
 10
0.0
 20
0.0
 30
0.0
  9
$UCSORGLEFT
 10
0.0
 20
0.0
 30
0.0
  9
$UCSORGRIGHT
 10
0.0
 20
0.0
 30
0.0
  9
$UCSORGFRONT
 10
0.0
 20
0.0
 30
0.0
  9
$UCSORGBACK
 10
0.0
 20
0.0
 30
0.0
  9
$PUCSBASE
  2

  9
$PUCSNAME
  2

  9
$PUCSORG
 10
0.0
 20
0.0
 30
0.0
  9
$PUCSXDIR
 10
1.0
 20
0.0
 30
0.0
  9
$PUCSYDIR
 10
0.0
 20
1.0
 30
0.0
  9
$PUCSORTHOREF
  2

  9
$PUCSORTHOVIEW
 70
     0
  9
$PUCSORGTOP
 10
0.0
 20
0.0
 30
0.0
  9
$PUCSORGBOTTOM
 10
0.0
 20
0.0
 30
0.0
  9
$PUCSORGLEFT
 10
0.0
 20
0.0
 30
0.0
  9
$PUCSORGRIGHT
 10
0.0
 20
0.0
 30
0.0
  9
$PUCSORGFRONT
 10
0.0
 20
0.0
 30
0.0
  9
$PUCSORGBACK
 10
0.0
 20
0.0
 30
0.0
  9
$USERI1
 70
     0
  9
$USERI2
 70
     0
  9
$USERI3
 70
     0
  9
$USERI4
 70
     0
  9
$USERI5
 70
     0
  9
$USERR1
 40
0.0
  9
$USERR2
 40
0.0
  9
$USERR3
 40
0.0
  9
$USERR4
 40
0.0
  9
$USERR5
 40
0.0
  9
$WORLDVIEW
 70
     1
  9
$SHADEDGE
 70
     3
  9
$SHADEDIF
 70
    70
  9
$TILEMODE
 70
     1
  9
$MAXACTVP
 70
    16
  9
$PINSBASE
 10
0.0
 20
0.0
 30
0.0
  9
$PLIMCHECK
 70
     0
  9
$PEXTMIN
 10
1.000000000000000E+20
 20
1.000000000000000E+20
 30
1.000000000000000E+20
  9
$PEXTMAX
 10
-1.000000000000000E+20
 20
-1.000000000000000E+20
 30
-1.000000000000000E+20
  9
$PLIMMIN
 10
0.0
 20
0.0
  9
$PLIMMAX
 10
12.0
 20
9.0
  9
$UNITMODE
 70
     0
  9
$VISRETAIN
 70
     0
  9
$PLINEGEN
 70
     0
  9
$PSLTSCALE
 70
     1
  9
$TREEDEPTH
 70
  3020
  9
$CMLSTYLE
  2
Standard
  9
$CMLJUST
 70
     0
  9
$CMLSCALE
 40
1.0
  9
$PROXYGRAPHICS
 70
     1
  9
$MEASUREMENT
 70
     0
  9
$CELWEIGHT
370
    -1
  9
$ENDCAPS
280
     0
  9
$JOINSTYLE
280
     0
  9
$LWDISPLAY
290
     0
  9
$INSUNITS
 70
     0
  9
$HYPERLINKBASE
  1

  9
$STYLESHEET
  1
monochrome.ctb
  9
$XEDIT
290
     1
  9
$CEPSNTYPE
380
     0
  9
$PSTYLEMODE
290
     1
  9
$FINGERPRINTGUID
  2
{5F9F434B-8232-11D3-80AD-00C04F604D1B}
  9
$VERSIONGUID
  2
{733458BA-AED1-4483-A691-36F711C7DB0A}
  9
$EXTNAMES
290
     1
  9
$PSVPSCALE
 40
0.0
  9
$OLESTARTUP
290
     0
  0
ENDSEC
  0
SECTION
  2
CLASSES
  0
CLASS
  1
ACDBDICTIONARYWDFLT
  2
AcDbDictionaryWithDefault
  3
AutoCAD 2000
 90
        0
280
     0
281
     0
  0
CLASS
  1
ACDBPLACEHOLDER
  2
AcDbPlaceHolder
  3
AutoCAD 2000
 90
        0
280
     0
281
     0
  0
CLASS
  1
LAYOUT
  2
AcDbLayout
  3
AutoCAD 2000
 90
        0
280
     0
281
     0
  0
ENDSEC
  0
SECTION
  2
TABLES
  0
TABLE
  2
VPORT
  5
8
330
0
100
AcDbSymbolTable
 70
     2
  0
VPORT
  5
832D
330
8
100
AcDbSymbolTableRecord
100
AcDbViewportTableRecord
  2
*Active
 70
     0
 10
0.0
 20
0.0
 11
1.0
 21
1.0
 12
45.65000021257435
 22
28.40200013225711
 13
0.0
 23
0.0
 14
0.125
 24
0.125
 15
0.125
 25
0.125
 16
0.0
 26
0.0
 36
1.0
 17
0.0
 27
0.0
 37
0.0
 40
57.37935429311045
 41
1.836974789915966
 42
50.0
 43
0.0
 44
0.0
 50
0.0
 51
0.0
 71
     0
 72
   100
 73
     1
 74
     0
 75
     0
 76
     0
 77
     0
 78
     0
281
     0
 65
     1
110
0.0
120
0.0
130
0.0
111
1.0
121
0.0
131
0.0
112
0.0
122
1.0
132
0.0
 79
     0
146
0.0
  0
ENDTAB
  0
TABLE
  2
LTYPE
  5
5
330
0
100
AcDbSymbolTable
 70
     8
  0
LTYPE
  5
13
330
5
100
AcDbSymbolTableRecord
100
AcDbLinetypeTableRecord
  2
ByBlock
 70
     0
  3

 72
    65
 73
     0
 40
0.0
  0
LTYPE
  5
14
330
5
100
AcDbSymbolTableRecord
100
AcDbLinetypeTableRecord
  2
ByLayer
 70
     0
  3

 72
    65
 73
     0
 40
0.0
  0
LTYPE
  5
15
330
5
100
AcDbSymbolTableRecord
100
AcDbLinetypeTableRecord
  2
CONTINUOUS
 70
     0
  3
Solid line
 72
    65
 73
     0
 40
0.0
  0
LTYPE
  5
22
330
5
100
AcDbSymbolTableRecord
100
AcDbLinetypeTableRecord
  2
HIDDEN
 70
     0
  3
_ _ _ _ _ _ _ _ _ _ _ _ _ _ _ _ _ _ _ _ _ _ _
 72
    65
 73
     2
 40
0.375
 49
0.25
 74
     0
 49
-0.125
 74
     0
  0
LTYPE
  5
23
330
5
100
AcDbSymbolTableRecord
100
AcDbLinetypeTableRecord
  2
PHANTOM
 70
     0
  3
_____ _ _ _____ _ _ _____ _ _ _____ _ _ ____
 72
    65
 73
     6
 40
2.5
 49
1.25
 74
     0
 49
-0.25
 74
     0
 49
0.25
 74
     0
 49
-0.25
 74
     0
 49
0.25
 74
     0
 49
-0.25
 74
     0
  0
LTYPE
  5
24
330
5
100
AcDbSymbolTableRecord
100
AcDbLinetypeTableRecord
  2
CENTER
 70
     0
  3
____ _ ____ _ ____ _ ____ _ ____ _ ____ _ ____
 72
    65
 73
     4
 40
2.0
 49
1.25
 74
     0
 49
-0.25
 74
     0
 49
0.25
 74
     0
 49
-0.25
 74
     0
  0
LTYPE
  5
25
330
5
100
AcDbSymbolTableRecord
100
AcDbLinetypeTableRecord
  2
HIDDEN2
 70
     0
  3
_ _ _ _ _ _ _ _ _ _ _ _ _ _ _ _ _ _ _ _ _ _ _ _
 72
    65
 73
     2
 40
0.1875
 49
0.125
 74
     0
 49
-0.0625
 74
     0
  0
LTYPE
  5
26
330
5
100
AcDbSymbolTableRecord
100
AcDbLinetypeTableRecord
  2
PHANTOM2
 70
     0
  3
___ _ _ ___ _ _ ___ _ _ ___ _ _ ___ _ _ ___ _ _
 72
    65
 73
     6
 40
1.25
 49
0.625
 74
     0
 49
-0.125
 74
     0
 49
0.125
 74
     0
 49
-0.125
 74
     0
 49
0.125
 74
     0
 49
-0.125
 74
     0
  0
LTYPE
  5
880
330
5
100
AcDbSymbolTableRecord
100
AcDbLinetypeTableRecord
  2
CENTERX2
 70
     0
  3
Center (2x) ________  __  ________  __  _____
 72
    65
 73
     4
 40
0.8
 49
0.5
 74
     0
 49
-0.1
 74
     0
 49
0.1
 74
     0
 49
-0.1
 74
     0
  0
LTYPE
  5
881
330
5
100
AcDbSymbolTableRecord
100
AcDbLinetypeTableRecord
  2
DOT2
 70
     0
  3
Dot (.5x) ........................................
 72
    65
 73
     2
 40
0.025
 49
0.0
 74
     0
 49
-0.025
 74
     0
  0
ENDTAB
  0
TABLE
  2
LAYER
  5
2
330
0
100
AcDbSymbolTable
 70
     9
  0
LAYER
  5
10
330
2
100
AcDbSymbolTableRecord
100
AcDbLayerTableRecord
  2
0
 70
     0
 62
     7
  6
CONTINUOUS
370
    -3
390
F
  0
LAYER
  5
29
330
2
100
AcDbSymbolTableRecord
100
AcDbLayerTableRecord
  2
OBJECT
 70
     0
 62
     7
  6
CONTINUOUS
370
    -3
390
F
  0
LAYER
  5
2A
330
2
100
AcDbSymbolTableRecord
100
AcDbLayerTableRecord
  2
DIM
 70
     0
 62
     7
  6
CONTINUOUS
370
    -3
390
F
  0
LAYER
  5
2B
330
2
100
AcDbSymbolTableRecord
100
AcDbLayerTableRecord
  2
HIDDEN
 70
     0
 62
     7
  6
HIDDEN
370
    -3
390
F
  0
LAYER
  5
2C
330
2
100
AcDbSymbolTableRecord
100
AcDbLayerTableRecord
  2
BEND
 70
     0
 62
     7
  6
PHANTOM
370
    -3
390
F
  0
LAYER
  5
2D
330
2
100
AcDbSymbolTableRecord
100
AcDbLayerTableRecord
  2
TEXT
 70
     0
 62
     7
  6
CONTINUOUS
370
    -3
390
F
  0
LAYER
  5
2E
330
2
100
AcDbSymbolTableRecord
100
AcDbLayerTableRecord
  2
TITLE
 70
     0
 62
     7
  6
CONTINUOUS
370
    -3
390
F
  0
LAYER
  5
882
330
2
100
AcDbSymbolTableRecord
100
AcDbLayerTableRecord
  2
Defpoints
 70
     0
 62
     7
  6
CONTINUOUS
290
     0
370
    -3
390
F
  0
LAYER
  5
6723
330
2
100
AcDbSymbolTableRecord
100
AcDbLayerTableRecord
  2
CENTER
 70
     0
 62
     7
  6
CENTER
370
    -3
390
F
  0
ENDTAB
  0
TABLE
  2
STYLE
  5
3
330
0
100
AcDbSymbolTable
 70
     1
  0
STYLE
  5
11
330
3
100
AcDbSymbolTableRecord
100
AcDbTextStyleTableRecord
  2
TXT
 70
     0
 40
0.0
 41
0.75
 50
0.0
 71
     0
 42
0.6875
  3
TXT.shx
  4

  0
ENDTAB
  0
TABLE
  2
VIEW
  5
6
330
0
100
AcDbSymbolTable
 70
     0
  0
ENDTAB
  0
TABLE
  2
UCS
  5
7
330
0
100
AcDbSymbolTable
 70
     0
  0
ENDTAB
  0
TABLE
  2
APPID
  5
9
330
0
100
AcDbSymbolTable
 70
     1
  0
APPID
  5
12
330
9
100
AcDbSymbolTableRecord
100
AcDbRegAppTableRecord
  2
ACAD
 70
     0
  0
ENDTAB
  0
TABLE
  2
DIMSTYLE
  5
A
330
0
100
AcDbSymbolTable
 70
     2
100
AcDbDimStyleTable
 71
     2
340
38
340
39
  0
DIMSTYLE
105
38
102
{ACAD_REACTORS
330
7969
330
796A
330
796B
330
796C
330
796D
330
796E
330
796F
330
7AAD
330
7AEB
330
7AEC
330
7AF3
330
7AF4
330
7AF5
330
7AF6
330
7AFA
330
7AFB
330
7B81
330
7B82
330
7AEF
330
7AF2
330
7B20
330
7B22
330
7B24
330
7B26
330
7B86
330
7B89
330
7B8B
102
}
330
A
100
AcDbSymbolTableRecord
100
AcDbDimStyleTableRecord
  2
23NSTD
 70
     0
 40
5.5
 42
0.063
 43
0.281
 44
0.093
140
0.125
170
     1
171
     1
271
     2
272
     2
274
     1
289
     0
340
11
  0
DIMSTYLE
105
39
102
{ACAD_REACTORS
330
7AAC
330
7AF7
102
}
330
A
100
AcDbSymbolTableRecord
100
AcDbDimStyleTableRecord
  2
23NSTDI
 70
     0
 40
5.5
 42
0.063
 43
0.281
 44
0.093
140
0.125
170
     1
174
     1
271
     2
272
     2
289
     0
340
11
  0
ENDTAB
  0
TABLE
  2
BLOCK_RECORD
  5
1
330
0
100
AcDbSymbolTable
 70
    21
  0
BLOCK_RECORD
  5
1E
330
1
100
AcDbSymbolTableRecord
100
AcDbBlockTableRecord
  2
*Model_Space
340
21
  0
BLOCK_RECORD
  5
1A
330
1
100
AcDbSymbolTableRecord
100
AcDbBlockTableRecord
  2
*Paper_Space
340
1D
  0
BLOCK_RECORD
  5
6724
330
1
100
AcDbSymbolTableRecord
100
AcDbBlockTableRecord
  2
HBS
340
0
102
{BLKREFS
331
7B67
102
}
  0
BLOCK_RECORD
  5
7B97
330
1
100
AcDbSymbolTableRecord
100
AcDbBlockTableRecord
  2
*D1
340
0
  0
BLOCK_RECORD
  5
7BA4
330
1
100
AcDbSymbolTableRecord
100
AcDbBlockTableRecord
  2
*D2
340
0
  0
BLOCK_RECORD
  5
7BB1
330
1
100
AcDbSymbolTableRecord
100
AcDbBlockTableRecord
  2
*D3
340
0
  0
BLOCK_RECORD
  5
7BBE
330
1
100
AcDbSymbolTableRecord
100
AcDbBlockTableRecord
  2
*D4
340
0
  0
BLOCK_RECORD
  5
7BCB
330
1
100
AcDbSymbolTableRecord
100
AcDbBlockTableRecord
  2
*D5
340
0
  0
BLOCK_RECORD
  5
7BD8
330
1
100
AcDbSymbolTableRecord
100
AcDbBlockTableRecord
  2
*D6
340
0
  0
BLOCK_RECORD
  5
7BE5
330
1
100
AcDbSymbolTableRecord
100
AcDbBlockTableRecord
  2
*D7
340
0
  0
BLOCK_RECORD
  5
7BF2
330
1
100
AcDbSymbolTableRecord
100
AcDbBlockTableRecord
  2
*D8
340
0
  0
BLOCK_RECORD
  5
7BFF
330
1
100
AcDbSymbolTableRecord
100
AcDbBlockTableRecord
  2
*D9
340
0
  0
BLOCK_RECORD
  5
7C0C
330
1
100
AcDbSymbolTableRecord
100
AcDbBlockTableRecord
  2
*D10
340
0
  0
BLOCK_RECORD
  5
7C19
330
1
100
AcDbSymbolTableRecord
100
AcDbBlockTableRecord
  2
*D11
340
0
  0
BLOCK_RECORD
  5
7C26
330
1
100
AcDbSymbolTableRecord
100
AcDbBlockTableRecord
  2
*D12
340
0
  0
BLOCK_RECORD
  5
7C33
330
1
100
AcDbSymbolTableRecord
100
AcDbBlockTableRecord
  2
*D13
340
0
  0
BLOCK_RECORD
  5
7C40
330
1
100
AcDbSymbolTableRecord
100
AcDbBlockTableRecord
  2
*D14
340
0
  0
BLOCK_RECORD
  5
7C4D
330
1
100
AcDbSymbolTableRecord
100
AcDbBlockTableRecord
  2
*D15
340
0
  0
BLOCK_RECORD
  5
7C5A
330
1
100
AcDbSymbolTableRecord
100
AcDbBlockTableRecord
  2
*D16
340
0
  0
BLOCK_RECORD
  5
7C67
330
1
100
AcDbSymbolTableRecord
100
AcDbBlockTableRecord
  2
*D17
340
0
  0
BLOCK_RECORD
  5
7C74
330
1
100
AcDbSymbolTableRecord
100
AcDbBlockTableRecord
  2
*D18
340
0
  0
BLOCK_RECORD
  5
7C81
330
1
100
AcDbSymbolTableRecord
100
AcDbBlockTableRecord
  2
*D19
340
0
  0
BLOCK_RECORD
  5
7C8E
330
1
100
AcDbSymbolTableRecord
100
AcDbBlockTableRecord
  2
*D20
340
0
  0
ENDTAB
  0
ENDSEC
  0
SECTION
  2
BLOCKS
  0
BLOCK
  5
33
330
1E
100
AcDbEntity
  8
0
100
AcDbBlockBegin
  2
*Model_Space
 70
     0
 10
0.0
 20
0.0
 30
0.0
  3
*Model_Space
  1

  0
ENDBLK
  5
34
330
1E
100
AcDbEntity
  8
0
100
AcDbBlockEnd
  0
BLOCK
  5
31
330
1A
100
AcDbEntity
 67
     1
  8
0
100
AcDbBlockBegin
  2
*Paper_Space
 70
     0
 10
0.0
 20
0.0
 30
0.0
  3
*Paper_Space
  1

  0
ENDBLK
  5
32
330
1A
100
AcDbEntity
 67
     1
  8
0
100
AcDbBlockEnd
  0
BLOCK
  5
673B
330
6724
100
AcDbEntity
  8
0
100
AcDbBlockBegin
  2
HBS
 70
     0
 10
0.0
 20
0.0
 30
0.0
  3
HBS
  1

  0
LINE
  5
6725
330
6724
100
AcDbEntity
  8
TITLE
100
AcDbLine
 10
0.0620000000000118
 20
10.266
 30
0.0
 11
16.53800000000001
 21
10.266
 31
0.0
  0
LINE
  5
6726
330
6724
100
AcDbEntity
  8
TITLE
100
AcDbLine
 10
16.53800000000001
 20
0.0620000000000012
 30
0.0
 11
0.0620000000000118
 21
0.0620000000000012
 31
0.0
  0
LINE
  5
6727
330
6724
100
AcDbEntity
  8
TITLE
100
AcDbLine
 10
0.0
 20
10.32799999999999
 30
0.0
 11
16.59999999999999
 21
10.32799999999999
 31
0.0
  0
LINE
  5
6728
330
6724
100
AcDbEntity
  8
TITLE
100
AcDbLine
 10
16.59999999999999
 20
0.0
 30
0.0
 11
0.0
 21
0.0
 31
0.0
  0
LINE
  5
6729
330
6724
100
AcDbEntity
  8
TITLE
100
AcDbLine
 10
0.0620000000000118
 20
9.848000000000002
 30
0.0
 11
16.53800000000001
 21
9.848000000000006
 31
0.0
  0
LINE
  5
672A
330
6724
100
AcDbEntity
  8
TITLE
100
AcDbLine
 10
0.0620000000000118
 20
0.0620000000000012
 30
0.0
 11
0.0620000000000118
 21
10.266
 31
0.0
  0
LINE
  5
672B
330
6724
100
AcDbEntity
  8
TITLE
100
AcDbLine
 10
0.0
 20
0.0
 30
0.0
 11
0.0
 21
10.32799999999999
 31
0.0
  0
TEXT
  5
672C
330
6724
100
AcDbEntity
  8
TEXT
100
AcDbText
 10
0.2078333333333452
 20
9.888079195640081
 30
0.0
 40
0.125
  1
NAME
 72
     1
 11
0.4370000000000119
 21
9.888079195640081
 31
0.0
100
AcDbText
  0
TEXT
  5
672D
330
6724
100
AcDbEntity
  8
TEXT
100
AcDbText
 10
0.2078333333333452
 20
10.09641252897341
 30
0.0
 40
0.125
  1
PART
 72
     1
 11
0.4370000000000119
 21
10.09641252897341
 31
0.0
100
AcDbText
  0
LINE
  5
672E
330
6724
100
AcDbEntity
  8
TITLE
100
AcDbLine
 10
0.8120000000000118
 20
9.848000000000002
 30
0.0
 11
0.8120000000000118
 21
10.266
 31
0.0
  0
LINE
  5
672F
330
6724
100
AcDbEntity
  8
TITLE
100
AcDbLine
 10
7.0
 20
10.266
 30
0.0
 11
7.0
 21
9.848000000000002
 31
0.0
  0
LINE
  5
6730
330
6724
100
AcDbEntity
  8
TITLE
100
AcDbLine
 10
7.062000000000011
 20
10.266
 30
0.0
 11
7.062000000000011
 21
9.848000000000002
 31
0.0
  0
LINE
  5
6731
330
6724
100
AcDbEntity
  8
TITLE
100
AcDbLine
 10
7.812000000000011
 20
10.266
 30
0.0
 11
7.812000000000011
 21
9.848000000000002
 31
0.0
  0
TEXT
  5
6732
330
6724
100
AcDbEntity
  8
TEXT
100
AcDbText
 10
7.312000000000011
 20
9.888079195640081
 30
0.0
 40
0.125
  1
No.
 72
     1
 11
7.437000000000011
 21
9.888079195640081
 31
0.0
100
AcDbText
  0
TEXT
  5
6733
330
6724
100
AcDbEntity
  8
TEXT
100
AcDbText
 10
7.207833333333344
 20
10.09641252897341
 30
0.0
 40
0.125
  1
PART
 72
     1
 11
7.437000000000011
 21
10.09641252897341
 31
0.0
100
AcDbText
  0
LINE
  5
6734
330
6724
100
AcDbEntity
  8
TITLE
100
AcDbLine
 10
16.53800000000001
 20
10.266
 30
0.0
 11
16.53800000000001
 21
0.0620000000000012
 31
0.0
  0
LINE
  5
6735
330
6724
100
AcDbEntity
  8
TITLE
100
AcDbLine
 10
16.59999999999999
 20
10.32799999999999
 30
0.0
 11
16.59999999999999
 21
0.0
 31
0.0
  0
TEXT
  5
6736
330
6724
100
AcDbEntity
  8
TEXT
100
AcDbText
 10
14.22865779971668
 20
10.09641252897341
 30
0.0
 40
0.125
  1
REV.
 72
     1
 11
14.43699113305001
 21
10.09641252897341
 31
0.0
100
AcDbText
  0
TEXT
  5
6737
330
6724
100
AcDbEntity
  8
TEXT
100
AcDbText
 10
14.20782446638335
 20
9.888079195640081
 30
0.0
 40
0.125
  1
DATE
 72
     1
 11
14.43699113305001
 21
9.888079195640081
 31
0.0
100
AcDbText
  0
LINE
  5
6738
330
6724
100
AcDbEntity
  8
TITLE
100
AcDbLine
 10
14.06199113305001
 20
10.266
 30
0.0
 11
14.06199113305001
 21
9.848000000000002
 31
0.0
  0
LINE
  5
6739
330
6724
100
AcDbEntity
  8
TITLE
100
AcDbLine
 10
14.81199113305001
 20
10.266
 30
0.0
 11
14.81199113305001
 21
9.848000000000002
 31
0.0
  0
LINE
  5
673A
330
6724
100
AcDbEntity
  8
TITLE
100
AcDbLine
 10
13.99999113305
 20
10.266
 30
0.0
 11
13.99999113305
 21
9.848000000000002
 31
0.0
  0
ENDBLK
  5
673C
330
6724
100
AcDbEntity
  8
0
100
AcDbBlockEnd
  0
BLOCK
  5
7BA2
330
7B97
100
AcDbEntity
  8
0
100
AcDbBlockBegin
  2
*D1
 70
     1
 10
0.0
 20
0.0
 30
0.0
  3
*D1
  1

  0
LINE
  5
8269
330
7B97
100
AcDbEntity
  8
DIM
 62
     0
370
    -2
100
AcDbLine
 10
38.22665246915481
 20
45.96211299753409
 30
0.0
 11
38.22665246915481
 21
49.07075823148845
 31
0.0
  0
LINE
  5
826A
330
7B97
100
AcDbEntity
  8
DIM
 62
     0
370
    -2
100
AcDbLine
 10
46.09225223659345
 20
45.95545519544034
 30
0.0
 11
46.09225223659345
 21
49.07075823148845
 31
0.0
  0
LINE
  5
826B
330
7B97
100
AcDbEntity
  8
DIM
 62
     0
370
    -2
100
AcDbLine
 10
39.21665246915481
 20
48.55925823148846
 30
0.0
 11
41.02588663446463
 21
48.55925823148846
 31
0.0
  0
LINE
  5
826C
330
7B97
100
AcDbEntity
  8
DIM
 62
     0
370
    -2
100
AcDbLine
 10
45.10225223659345
 20
48.55925823148846
 30
0.0
 11
43.04713663446462
 21
48.55925823148846
 31
0.0
  0
SOLID
  5
826D
330
7B97
100
AcDbEntity
  8
DIM
 62
     0
100
AcDbTrace
 10
39.21665246915481
 20
48.72425823148845
 30
0.0
 11
39.21665246915481
 21
48.39425823148846
 31
0.0
 12
38.22665246915481
 22
48.55925823148846
 32
0.0
 13
38.22665246915481
 23
48.55925823148846
 33
0.0
  0
SOLID
  5
826E
330
7B97
100
AcDbEntity
  8
DIM
 62
     0
100
AcDbTrace
 10
45.10225223659345
 20
48.72425823148845
 30
0.0
 11
45.10225223659345
 21
48.39425823148846
 31
0.0
 12
46.09225223659345
 22
48.55925823148846
 32
0.0
 13
46.09225223659345
 23
48.55925823148846
 33
0.0
  0
MTEXT
  5
826F
330
7B97
100
AcDbEntity
  8
DIM
 62
     0
100
AcDbMText
 10
42.03651163446463
 20
48.55925823148846
 30
0.0
 40
0.6875
 41
0.0
 71
     5
 72
     1
  1
\A1;"C"
 73
     1
 44
1.0
  0
POINT
  5
8270
330
7B97
100
AcDbEntity
  8
Defpoints
 62
     0
100
AcDbPoint
 10
38.22665246915481
 20
45.61561299753409
 30
0.0
  0
POINT
  5
8271
330
7B97
100
AcDbEntity
  8
Defpoints
 62
     0
100
AcDbPoint
 10
46.09225223659345
 20
45.60895519544034
 30
0.0
  0
POINT
  5
8272
330
7B97
100
AcDbEntity
  8
Defpoints
 62
     0
100
AcDbPoint
 10
46.09225223659345
 20
48.55925823148846
 30
0.0
  0
ENDBLK
  5
7BA3
330
7B97
100
AcDbEntity
  8
0
100
AcDbBlockEnd
  0
BLOCK
  5
7BAF
330
7BA4
100
AcDbEntity
  8
0
100
AcDbBlockBegin
  2
*D2
 70
     1
 10
0.0
 20
0.0
 30
0.0
  3
*D2
  1

  0
LINE
  5
8292
330
7BA4
100
AcDbEntity
  8
DIM
 62
     0
370
    -2
100
AcDbLine
 10
7.406747818997185
 20
45.95545507425236
 30
0.0
 11
7.406747818997185
 21
49.9457216350341
 31
0.0
  0
LINE
  5
8293
330
7BA4
100
AcDbEntity
  8
DIM
 62
     0
370
    -2
100
AcDbLine
 10
23.15431224957567
 20
45.96363399310212
 30
0.0
 11
23.15431224957567
 21
49.9457216350341
 31
0.0
  0
LINE
  5
8294
330
7BA4
100
AcDbEntity
  8
DIM
 62
     0
370
    -2
100
AcDbLine
 10
8.396747818997186
 20
49.4342216350341
 30
0.0
 11
14.34301771254309
 21
49.4342216350341
 31
0.0
  0
LINE
  5
8295
330
7BA4
100
AcDbEntity
  8
DIM
 62
     0
370
    -2
100
AcDbLine
 10
22.16431224957566
 20
49.4342216350341
 30
0.0
 11
16.36426771254309
 21
49.4342216350341
 31
0.0
  0
SOLID
  5
8296
330
7BA4
100
AcDbEntity
  8
DIM
 62
     0
100
AcDbTrace
 10
8.396747818997186
 20
49.5992216350341
 30
0.0
 11
8.396747818997186
 21
49.26922163503411
 31
0.0
 12
7.406747818997185
 22
49.4342216350341
 32
0.0
 13
7.406747818997185
 23
49.4342216350341
 33
0.0
  0
SOLID
  5
8297
330
7BA4
100
AcDbEntity
  8
DIM
 62
     0
100
AcDbTrace
 10
22.16431224957566
 20
49.5992216350341
 30
0.0
 11
22.16431224957566
 21
49.26922163503411
 31
0.0
 12
23.15431224957567
 22
49.4342216350341
 32
0.0
 13
23.15431224957567
 23
49.4342216350341
 33
0.0
  0
MTEXT
  5
8298
330
7BA4
100
AcDbEntity
  8
DIM
 62
     0
100
AcDbMText
 10
15.35364271254309
 20
49.4342216350341
 30
0.0
 40
0.6875
 41
0.0
 71
     5
 72
     1
  1
\A1;"B"
 73
     1
 44
1.0
  0
POINT
  5
8299
330
7BA4
100
AcDbEntity
  8
Defpoints
 62
     0
100
AcDbPoint
 10
7.406747818997185
 20
45.60895507425236
 30
0.0
  0
POINT
  5
829A
330
7BA4
100
AcDbEntity
  8
Defpoints
 62
     0
100
AcDbPoint
 10
23.15431224957567
 20
45.61713399310213
 30
0.0
  0
POINT
  5
829B
330
7BA4
100
AcDbEntity
  8
Defpoints
 62
     0
100
AcDbPoint
 10
23.15431224957567
 20
49.4342216350341
 30
0.0
  0
ENDBLK
  5
7BB0
330
7BA4
100
AcDbEntity
  8
0
100
AcDbBlockEnd
  0
BLOCK
  5
7BBC
330
7BB1
100
AcDbEntity
  8
0
100
AcDbBlockBegin
  2
*D3
 70
     1
 10
0.0
 20
0.0
 30
0.0
  3
*D3
  1

  0
LINE
  5
829C
330
7BB1
100
AcDbEntity
  8
DIM
 62
     0
370
    -2
100
AcDbLine
 10
7.137247809486711
 20
45.6859550647419
 30
0.0
 11
4.378500272351592
 21
45.6859550647419
 31
0.0
  0
LINE
  5
829D
330
7BB1
100
AcDbEntity
  8
DIM
 62
     0
370
    -2
100
AcDbLine
 10
7.137247809486711
 20
29.93820540902584
 30
0.0
 11
4.378500272351589
 21
29.93820540902584
 31
0.0
  0
LINE
  5
829E
330
7BB1
100
AcDbEntity
  8
DIM
 62
     0
370
    -2
100
AcDbLine
 10
4.890000272351592
 20
44.6959550647419
 30
0.0
 11
4.890000272351591
 21
38.86779558051821
 31
0.0
  0
LINE
  5
829F
330
7BB1
100
AcDbEntity
  8
DIM
 62
     0
370
    -2
100
AcDbLine
 10
4.890000272351589
 20
30.92820540902584
 30
0.0
 11
4.89000027235159
 21
37.19029558051822
 31
0.0
  0
SOLID
  5
82A0
330
7BB1
100
AcDbEntity
  8
DIM
 62
     0
100
AcDbTrace
 10
4.725000272351592
 20
44.6959550647419
 30
0.0
 11
5.055000272351592
 21
44.6959550647419
 31
0.0
 12
4.890000272351592
 22
45.6859550647419
 32
0.0
 13
4.890000272351592
 23
45.6859550647419
 33
0.0
  0
SOLID
  5
82A1
330
7BB1
100
AcDbEntity
  8
DIM
 62
     0
100
AcDbTrace
 10
4.725000272351589
 20
30.92820540902584
 30
0.0
 11
5.055000272351589
 21
30.92820540902584
 31
0.0
 12
4.890000272351588
 22
29.93820540902584
 32
0.0
 13
4.890000272351588
 23
29.93820540902584
 33
0.0
  0
MTEXT
  5
82A2
330
7BB1
100
AcDbEntity
  8
DIM
 62
     0
100
AcDbMText
 10
4.890000272351585
 20
38.02904558051821
 30
0.0
 40
0.6875
 41
0.0
 71
     5
 72
     1
  1
\A1;"A"
 73
     1
 44
1.0
  0
POINT
  5
82A3
330
7BB1
100
AcDbEntity
  8
Defpoints
 62
     0
100
AcDbPoint
 10
7.483747809486711
 20
45.6859550647419
 30
0.0
  0
POINT
  5
82A4
330
7BB1
100
AcDbEntity
  8
Defpoints
 62
     0
100
AcDbPoint
 10
7.483747809486711
 20
29.93820540902584
 30
0.0
  0
POINT
  5
82A5
330
7BB1
100
AcDbEntity
  8
Defpoints
 62
     0
100
AcDbPoint
 10
4.890000272351588
 20
29.93820540902584
 30
0.0
  0
ENDBLK
  5
7BBD
330
7BB1
100
AcDbEntity
  8
0
100
AcDbBlockEnd
  0
BLOCK
  5
7BC9
330
7BBE
100
AcDbEntity
  8
0
100
AcDbBlockBegin
  2
*D4
 70
     1
 10
0.0
 20
0.0
 30
0.0
  3
*D4
  1

  0
LINE
  5
8314
330
7BBE
100
AcDbEntity
  8
DIM
 62
     0
370
    -2
100
AcDbLine
 10
84.87022958845988
 20
44.1355699031709
 30
0.0
 11
82.65591272279001
 21
44.1355699031709
 31
0.0
  0
LINE
  5
8315
330
7BBE
100
AcDbEntity
  8
DIM
 62
     0
370
    -2
100
AcDbLine
 10
84.87022958845988
 20
31.34016990317089
 30
0.0
 11
82.65591272279001
 21
31.34016990317089
 31
0.0
  0
LINE
  5
8316
330
7BBE
100
AcDbEntity
  8
DIM
 62
     0
370
    -2
100
AcDbLine
 10
83.16741272279001
 20
43.1455699031709
 30
0.0
 11
83.16741272279001
 21
38.5766199031709
 31
0.0
  0
LINE
  5
8317
330
7BBE
100
AcDbEntity
  8
DIM
 62
     0
370
    -2
100
AcDbLine
 10
83.16741272279001
 20
32.33016990317088
 30
0.0
 11
83.16741272279001
 21
36.8991199031709
 31
0.0
  0
SOLID
  5
8318
330
7BBE
100
AcDbEntity
  8
DIM
 62
     0
100
AcDbTrace
 10
83.00241272279
 20
43.1455699031709
 30
0.0
 11
83.33241272279002
 21
43.1455699031709
 31
0.0
 12
83.16741272279001
 22
44.1355699031709
 32
0.0
 13
83.16741272279001
 23
44.1355699031709
 33
0.0
  0
SOLID
  5
8319
330
7BBE
100
AcDbEntity
  8
DIM
 62
     0
100
AcDbTrace
 10
83.00241272279
 20
32.33016990317088
 30
0.0
 11
83.33241272279002
 21
32.33016990317088
 31
0.0
 12
83.16741272279001
 22
31.34016990317089
 32
0.0
 13
83.16741272279001
 23
31.34016990317089
 33
0.0
  0
MTEXT
  5
831A
330
7BBE
100
AcDbEntity
  8
DIM
 62
     0
100
AcDbMText
 10
83.16741272279001
 20
37.73786990317091
 30
0.0
 40
0.6875
 41
0.0
 71
     5
 72
     1
  1
\A1;"J"
 73
     1
 44
1.0
  0
POINT
  5
831B
330
7BBE
100
AcDbEntity
  8
Defpoints
 62
     0
100
AcDbPoint
 10
85.21672958845988
 20
44.1355699031709
 30
0.0
  0
POINT
  5
831C
330
7BBE
100
AcDbEntity
  8
Defpoints
 62
     0
100
AcDbPoint
 10
85.21672958845988
 20
31.34016990317089
 30
0.0
  0
POINT
  5
831D
330
7BBE
100
AcDbEntity
  8
Defpoints
 62
     0
100
AcDbPoint
 10
83.16741272279001
 20
31.34016990317089
 30
0.0
  0
ENDBLK
  5
7BCA
330
7BBE
100
AcDbEntity
  8
0
100
AcDbBlockEnd
  0
BLOCK
  5
7BD6
330
7BCB
100
AcDbEntity
  8
0
100
AcDbBlockBegin
  2
*D5
 70
     1
 10
0.0
 20
0.0
 30
0.0
  3
*D5
  1

  0
LINE
  5
82F6
330
7BCB
100
AcDbEntity
  8
DIM
 62
     0
370
    -2
100
AcDbLine
 10
85.21672958845988
 20
31.68666990317088
 30
0.0
 11
85.21672958845988
 21
33.92786112736338
 31
0.0
  0
LINE
  5
82F7
330
7BCB
100
AcDbEntity
  8
DIM
 62
     0
370
    -2
100
AcDbLine
 10
72.42132958845989
 20
31.68666990317088
 30
0.0
 11
72.42132958845989
 21
33.92786112736338
 31
0.0
  0
LINE
  5
82F8
330
7BCB
100
AcDbEntity
  8
DIM
 62
     0
370
    -2
100
AcDbLine
 10
84.22672958845989
 20
33.41636112736338
 30
0.0
 11
79.87134739091692
 21
33.41636112736338
 31
0.0
  0
LINE
  5
82F9
330
7BCB
100
AcDbEntity
  8
DIM
 62
     0
370
    -2
100
AcDbLine
 10
73.41132958845988
 20
33.41636112736338
 30
0.0
 11
77.85009739091691
 21
33.41636112736338
 31
0.0
  0
SOLID
  5
82FA
330
7BCB
100
AcDbEntity
  8
DIM
 62
     0
100
AcDbTrace
 10
84.22672958845989
 20
33.58136112736338
 30
0.0
 11
84.22672958845989
 21
33.25136112736339
 31
0.0
 12
85.21672958845988
 22
33.41636112736338
 32
0.0
 13
85.21672958845988
 23
33.41636112736338
 33
0.0
  0
SOLID
  5
82FB
330
7BCB
100
AcDbEntity
  8
DIM
 62
     0
100
AcDbTrace
 10
73.41132958845988
 20
33.58136112736338
 30
0.0
 11
73.41132958845988
 21
33.25136112736339
 31
0.0
 12
72.42132958845989
 22
33.41636112736338
 32
0.0
 13
72.42132958845989
 23
33.41636112736338
 33
0.0
  0
MTEXT
  5
82FC
330
7BCB
100
AcDbEntity
  8
DIM
 62
     0
100
AcDbMText
 10
78.86072239091692
 20
33.41636112736338
 30
0.0
 40
0.6875
 41
0.0
 71
     5
 72
     1
  1
\A1;"K"
 73
     1
 44
1.0
  0
POINT
  5
82FD
330
7BCB
100
AcDbEntity
  8
Defpoints
 62
     0
100
AcDbPoint
 10
85.21672958845988
 20
31.34016990317089
 30
0.0
  0
POINT
  5
82FE
330
7BCB
100
AcDbEntity
  8
Defpoints
 62
     0
100
AcDbPoint
 10
72.42132958845989
 20
31.34016990317089
 30
0.0
  0
POINT
  5
82FF
330
7BCB
100
AcDbEntity
  8
Defpoints
 62
     0
100
AcDbPoint
 10
72.42132958845989
 20
33.41636112736338
 30
0.0
  0
ENDBLK
  5
7BD7
330
7BCB
100
AcDbEntity
  8
0
100
AcDbBlockEnd
  0
BLOCK
  5
7BE3
330
7BD8
100
AcDbEntity
  8
0
100
AcDbBlockBegin
  2
*D6
 70
     1
 10
0.0
 20
0.0
 30
0.0
  3
*D6
  1

  0
LINE
  5
82EC
330
7BD8
100
AcDbEntity
  8
DIM
 62
     0
370
    -2
100
AcDbLine
 10
73.10352958845989
 20
20.81024418425387
 30
0.0
 11
77.98537929780962
 21
20.81024418425387
 31
0.0
  0
LINE
  5
82ED
330
7BD8
100
AcDbEntity
  8
DIM
 62
     0
370
    -2
100
AcDbLine
 10
76.77764787068456
 20
22.31024434479407
 30
0.0
 11
77.98537929780962
 21
22.31024434479407
 31
0.0
  0
LINE
  5
82EE
330
7BD8
100
AcDbEntity
  8
DIM
 62
     0
370
    -2
100
AcDbLine
 10
77.47387929780962
 20
19.82024418425387
 30
0.0
 11
77.47387929780962
 21
18.83024418425387
 31
0.0
  0
LINE
  5
82EF
330
7BD8
100
AcDbEntity
  8
DIM
 62
     0
370
    -2
100
AcDbLine
 10
77.47387929780962
 20
23.30024434479406
 30
0.0
 11
77.47387929780962
 21
24.29024434479407
 31
0.0
  0
SOLID
  5
82F0
330
7BD8
100
AcDbEntity
  8
DIM
 62
     0
100
AcDbTrace
 10
77.30887929780961
 20
19.82024418425387
 30
0.0
 11
77.63887929780962
 21
19.82024418425387
 31
0.0
 12
77.47387929780962
 22
20.81024418425387
 32
0.0
 13
77.47387929780962
 23
20.81024418425387
 33
0.0
  0
SOLID
  5
82F1
330
7BD8
100
AcDbEntity
  8
DIM
 62
     0
100
AcDbTrace
 10
77.30887929780961
 20
23.30024434479406
 30
0.0
 11
77.63887929780962
 21
23.30024434479406
 31
0.0
 12
77.47387929780962
 22
22.31024434479407
 32
0.0
 13
77.47387929780962
 23
22.31024434479407
 33
0.0
  0
MTEXT
  5
82F2
330
7BD8
100
AcDbEntity
  8
DIM
 62
     0
100
AcDbMText
 10
77.47387929780962
 20
21.56024426452398
 30
0.0
 40
0.6875
 41
0.0
 71
     5
 72
     1
  1
\A1;1.50 [38.1] INSIDE
 73
     1
 44
1.0
  0
POINT
  5
82F3
330
7BD8
100
AcDbEntity
  8
Defpoints
 62
     0
100
AcDbPoint
 10
72.75702958845989
 20
20.81024418425387
 30
0.0
  0
POINT
  5
82F4
330
7BD8
100
AcDbEntity
  8
Defpoints
 62
     0
100
AcDbPoint
 10
76.43114787068455
 20
22.31024434479407
 30
0.0
  0
POINT
  5
82F5
330
7BD8
100
AcDbEntity
  8
Defpoints
 62
     0
100
AcDbPoint
 10
77.47387929780962
 20
22.31024434479407
 30
0.0
  0
ENDBLK
  5
7BE4
330
7BD8
100
AcDbEntity
  8
0
100
AcDbBlockEnd
  0
BLOCK
  5
7BF0
330
7BE5
100
AcDbEntity
  8
0
100
AcDbBlockBegin
  2
*D7
 70
     1
 10
0.0
 20
0.0
 30
0.0
  3
*D7
  1

  0
LINE
  5
82E2
330
7BE5
100
AcDbEntity
  8
DIM
 62
     0
370
    -2
100
AcDbLine
 10
72.75702958845989
 20
20.46374418425387
 30
0.0
 11
72.75702958845989
 21
19.27503671831946
 31
0.0
  0
LINE
  5
82E3
330
7BE5
100
AcDbEntity
  8
DIM
 62
     0
370
    -2
100
AcDbLine
 10
71.00702955279095
 20
19.58608953630888
 30
0.0
 11
71.00702955279095
 21
19.27503671831946
 31
0.0
  0
LINE
  5
82E4
330
7BE5
100
AcDbEntity
  8
DIM
 62
     0
370
    -2
100
AcDbLine
 10
73.74702958845988
 20
19.78653671831946
 30
0.0
 11
74.73702958845989
 21
19.78653671831946
 31
0.0
  0
LINE
  5
82E5
330
7BE5
100
AcDbEntity
  8
DIM
 62
     0
370
    -2
100
AcDbLine
 10
70.01702955279096
 20
19.78653671831946
 30
0.0
 11
68.76921705279096
 21
19.78653671831946
 31
0.0
  0
SOLID
  5
82E6
330
7BE5
100
AcDbEntity
  8
DIM
 62
     0
100
AcDbTrace
 10
73.74702958845988
 20
19.95153671831946
 30
0.0
 11
73.74702958845988
 21
19.62153671831947
 31
0.0
 12
72.75702958845989
 22
19.78653671831946
 32
0.0
 13
72.75702958845989
 23
19.78653671831946
 33
0.0
  0
SOLID
  5
82E7
330
7BE5
100
AcDbEntity
  8
DIM
 62
     0
100
AcDbTrace
 10
70.01702955279096
 20
19.95153671831946
 30
0.0
 11
70.01702955279096
 21
19.62153671831947
 31
0.0
 12
71.00702955279095
 22
19.78653671831946
 32
0.0
 13
71.00702955279095
 23
19.78653671831946
 33
0.0
  0
MTEXT
  5
82E8
330
7BE5
100
AcDbEntity
  8
DIM
 62
     0
100
AcDbMText
 10
66.12577955279096
 20
19.78653671831946
 30
0.0
 40
0.6875
 41
0.0
 71
     5
 72
     1
  1
\A1;1.75 [44.5]\PINSIDE
 73
     1
 44
1.0
  0
POINT
  5
82E9
330
7BE5
100
AcDbEntity
  8
Defpoints
 62
     0
100
AcDbPoint
 10
72.75702958845989
 20
20.81024418425387
 30
0.0
  0
POINT
  5
82EA
330
7BE5
100
AcDbEntity
  8
Defpoints
 62
     0
100
AcDbPoint
 10
71.00702955279095
 20
19.93258953630888
 30
0.0
  0
POINT
  5
82EB
330
7BE5
100
AcDbEntity
  8
Defpoints
 62
     0
100
AcDbPoint
 10
71.00702955279095
 20
19.78653671831946
 30
0.0
  0
ENDBLK
  5
7BF1
330
7BE5
100
AcDbEntity
  8
0
100
AcDbBlockEnd
  0
BLOCK
  5
7BFD
330
7BF2
100
AcDbEntity
  8
0
100
AcDbBlockBegin
  2
*D8
 70
     1
 10
0.0
 20
0.0
 30
0.0
  3
*D8
  1

  0
LINE
  5
82C4
330
7BF2
100
AcDbEntity
  8
DIM
 62
     0
370
    -2
100
AcDbLine
 10
45.57685852925081
 20
42.57830804348987
 30
0.0
 11
45.57685852925081
 21
43.08447577823499
 31
0.0
  0
LINE
  5
82C5
330
7BF2
100
AcDbEntity
  8
DIM
 62
     0
370
    -2
100
AcDbLine
 10
38.28925244625912
 20
42.57830804348987
 30
0.0
 11
38.28925244625912
 21
43.08447577823499
 31
0.0
  0
LINE
  5
82C6
330
7BF2
100
AcDbEntity
  8
DIM
 62
     0
370
    -2
100
AcDbLine
 10
44.58685852925081
 20
42.57297577823499
 30
0.0
 11
43.22442893697544
 21
42.57297577823499
 31
0.0
  0
LINE
  5
82C7
330
7BF2
100
AcDbEntity
  8
DIM
 62
     0
370
    -2
100
AcDbLine
 10
39.27925244625912
 20
42.57297577823499
 30
0.0
 11
41.20317893697544
 21
42.57297577823499
 31
0.0
  0
SOLID
  5
82C8
330
7BF2
100
AcDbEntity
  8
DIM
 62
     0
100
AcDbTrace
 10
44.58685852925081
 20
42.73797577823499
 30
0.0
 11
44.58685852925081
 21
42.40797577823498
 31
0.0
 12
45.57685852925081
 22
42.57297577823499
 32
0.0
 13
45.57685852925081
 23
42.57297577823499
 33
0.0
  0
SOLID
  5
82C9
330
7BF2
100
AcDbEntity
  8
DIM
 62
     0
100
AcDbTrace
 10
39.27925244625912
 20
42.73797577823499
 30
0.0
 11
39.27925244625912
 21
42.40797577823498
 31
0.0
 12
38.28925244625912
 22
42.57297577823499
 32
0.0
 13
38.28925244625912
 23
42.57297577823499
 33
0.0
  0
MTEXT
  5
82CA
330
7BF2
100
AcDbEntity
  8
DIM
 62
     0
100
AcDbMText
 10
42.21380393697543
 20
42.57297577823499
 30
0.0
 40
0.6875
 41
0.0
 71
     5
 72
     1
  1
\A1;"D"
 73
     1
 44
1.0
  0
POINT
  5
82CB
330
7BF2
100
AcDbEntity
  8
Defpoints
 62
     0
100
AcDbPoint
 10
45.57685852925081
 20
42.23180804348987
 30
0.0
  0
POINT
  5
82CC
330
7BF2
100
AcDbEntity
  8
Defpoints
 62
     0
100
AcDbPoint
 10
38.28925244625912
 20
42.23180804348987
 30
0.0
  0
POINT
  5
82CD
330
7BF2
100
AcDbEntity
  8
Defpoints
 62
     0
100
AcDbPoint
 10
38.28925244625912
 20
42.57297577823499
 30
0.0
  0
ENDBLK
  5
7BFE
330
7BF2
100
AcDbEntity
  8
0
100
AcDbBlockEnd
  0
BLOCK
  5
7C0A
330
7BFF
100
AcDbEntity
  8
0
100
AcDbBlockBegin
  2
*D9
 70
     1
 10
0.0
 20
0.0
 30
0.0
  3
*D9
  1

  0
LINE
  5
825F
330
7BFF
100
AcDbEntity
  8
DIM
 62
     0
370
    -2
100
AcDbLine
 10
45.65485855485452
 20
41.02824286121475
 30
0.0
 11
45.65485855485452
 21
40.76087657303242
 31
0.0
  0
LINE
  5
8260
330
7BFF
100
AcDbEntity
  8
DIM
 62
     0
370
    -2
100
AcDbLine
 10
46.03025223657275
 20
41.02824286121475
 30
0.0
 11
46.03025223657275
 21
40.76087657303242
 31
0.0
  0
LINE
  5
8261
330
7BFF
100
AcDbEntity
  8
DIM
 62
     0
370
    -2
100
AcDbLine
 10
44.66485855485452
 20
41.27237657303242
 30
0.0
 11
43.67485855485453
 21
41.27237657303242
 31
0.0
  0
LINE
  5
8262
330
7BFF
100
AcDbEntity
  8
DIM
 62
     0
370
    -2
100
AcDbLine
 10
47.02025223657275
 20
41.27237657303242
 30
0.0
 11
48.26806473657275
 21
41.27237657303242
 31
0.0
  0
SOLID
  5
8263
330
7BFF
100
AcDbEntity
  8
DIM
 62
     0
100
AcDbTrace
 10
44.66485855485452
 20
41.43737657303241
 30
0.0
 11
44.66485855485452
 21
41.10737657303242
 31
0.0
 12
45.65485855485452
 22
41.27237657303242
 32
0.0
 13
45.65485855485452
 23
41.27237657303242
 33
0.0
  0
SOLID
  5
8264
330
7BFF
100
AcDbEntity
  8
DIM
 62
     0
100
AcDbTrace
 10
47.02025223657275
 20
41.43737657303241
 30
0.0
 11
47.02025223657275
 21
41.10737657303242
 31
0.0
 12
46.03025223657275
 22
41.27237657303242
 32
0.0
 13
46.03025223657275
 23
41.27237657303242
 33
0.0
  0
MTEXT
  5
8265
330
7BFF
100
AcDbEntity
  8
DIM
 62
     0
100
AcDbMText
 10
50.69665848657275
 20
41.27237657303242
 30
0.0
 40
0.6875
 41
0.0
 71
     5
 72
     1
  1
\A1;0.38 [9.5]
 73
     1
 44
1.0
  0
POINT
  5
8266
330
7BFF
100
AcDbEntity
  8
Defpoints
 62
     0
100
AcDbPoint
 10
45.65485855485452
 20
41.37474286121475
 30
0.0
  0
POINT
  5
8267
330
7BFF
100
AcDbEntity
  8
Defpoints
 62
     0
100
AcDbPoint
 10
46.03025223657275
 20
41.37474286121475
 30
0.0
  0
POINT
  5
8268
330
7BFF
100
AcDbEntity
  8
Defpoints
 62
     0
100
AcDbPoint
 10
46.03025223657275
 20
41.27237657303242
 30
0.0
  0
ENDBLK
  5
7C0B
330
7BFF
100
AcDbEntity
  8
0
100
AcDbBlockEnd
  0
BLOCK
  5
7C17
330
7C0C
100
AcDbEntity
  8
0
100
AcDbBlockBegin
  2
*D10
 70
     1
 10
0.0
 20
0.0
 30
0.0
  3
*D10
  1

  0
LINE
  5
82BA
330
7C0C
100
AcDbEntity
  8
DIM
 62
     0
370
    -2
100
AcDbLine
 10
38.91725249821561
 20
29.66920582040113
 30
0.0
 11
38.91725249821561
 21
28.05567860251617
 31
0.0
  0
LINE
  5
82BB
330
7C0C
100
AcDbEntity
  8
DIM
 62
     0
370
    -2
100
AcDbLine
 10
38.22725246915481
 20
29.66920582040113
 30
0.0
 11
38.22725246915481
 21
28.05567860251617
 31
0.0
  0
LINE
  5
82BC
330
7C0C
100
AcDbEntity
  8
DIM
 62
     0
370
    -2
100
AcDbLine
 10
39.90725249821561
 20
28.56717860251618
 30
0.0
 11
40.89725249821561
 21
28.56717860251618
 31
0.0
  0
LINE
  5
82BD
330
7C0C
100
AcDbEntity
  8
DIM
 62
     0
370
    -2
100
AcDbLine
 10
37.23725246915481
 20
28.56717860251618
 30
0.0
 11
35.98943996915481
 21
28.56717860251618
 31
0.0
  0
SOLID
  5
82BE
330
7C0C
100
AcDbEntity
  8
DIM
 62
     0
100
AcDbTrace
 10
39.90725249821561
 20
28.73217860251617
 30
0.0
 11
39.90725249821561
 21
28.40217860251618
 31
0.0
 12
38.91725249821561
 22
28.56717860251618
 32
0.0
 13
38.91725249821561
 23
28.56717860251618
 33
0.0
  0
SOLID
  5
82BF
330
7C0C
100
AcDbEntity
  8
DIM
 62
     0
100
AcDbTrace
 10
37.23725246915481
 20
28.73217860251617
 30
0.0
 11
37.23725246915481
 21
28.40217860251618
 31
0.0
 12
38.22725246915481
 22
28.56717860251618
 32
0.0
 13
38.22725246915481
 23
28.56717860251618
 33
0.0
  0
MTEXT
  5
82C0
330
7C0C
100
AcDbEntity
  8
DIM
 62
     0
100
AcDbMText
 10
33.38897121915481
 20
28.56717860251618
 30
0.0
 40
0.6875
 41
0.0
 71
     5
 72
     1
  1
\A1;0.69 [17.5]
 73
     1
 44
1.0
  0
POINT
  5
82C1
330
7C0C
100
AcDbEntity
  8
Defpoints
 62
     0
100
AcDbPoint
 10
38.91725249821561
 20
30.01570582040113
 30
0.0
  0
POINT
  5
82C2
330
7C0C
100
AcDbEntity
  8
Defpoints
 62
     0
100
AcDbPoint
 10
38.22725246915481
 20
30.01570582040113
 30
0.0
  0
POINT
  5
82C3
330
7C0C
100
AcDbEntity
  8
Defpoints
 62
     0
100
AcDbPoint
 10
38.22725246915481
 20
28.56717860251618
 30
0.0
  0
ENDBLK
  5
7C18
330
7C0C
100
AcDbEntity
  8
0
100
AcDbBlockEnd
  0
BLOCK
  5
7C24
330
7C19
100
AcDbEntity
  8
0
100
AcDbBlockBegin
  2
*D11
 70
     1
 10
0.0
 20
0.0
 30
0.0
  3
*D11
  1

  0
LINE
  5
8255
330
7C19
100
AcDbEntity
  8
DIM
 62
     0
370
    -2
100
AcDbLine
 10
46.09225223659345
 20
45.95570557802518
 30
0.0
 11
46.09225223659345
 21
49.07075823148845
 31
0.0
  0
LINE
  5
8256
330
7C19
100
AcDbEntity
  8
DIM
 62
     0
370
    -2
100
AcDbLine
 10
46.54225223482174
 20
47.31440548220795
 30
0.0
 11
46.54225223482174
 21
49.07075823148845
 31
0.0
  0
LINE
  5
8257
330
7C19
100
AcDbEntity
  8
DIM
 62
     0
370
    -2
100
AcDbLine
 10
45.10225223659345
 20
48.55925823148846
 30
0.0
 11
44.11225223659346
 21
48.55925823148846
 31
0.0
  0
LINE
  5
8258
330
7C19
100
AcDbEntity
  8
DIM
 62
     0
370
    -2
100
AcDbLine
 10
47.53225223482174
 20
48.55925823148846
 30
0.0
 11
48.78006473482175
 21
48.55925823148846
 31
0.0
  0
SOLID
  5
8259
330
7C19
100
AcDbEntity
  8
DIM
 62
     0
100
AcDbTrace
 10
45.10225223659345
 20
48.72425823148845
 30
0.0
 11
45.10225223659345
 21
48.39425823148846
 31
0.0
 12
46.09225223659345
 22
48.55925823148846
 32
0.0
 13
46.09225223659345
 23
48.55925823148846
 33
0.0
  0
SOLID
  5
825A
330
7C19
100
AcDbEntity
  8
DIM
 62
     0
100
AcDbTrace
 10
47.53225223482174
 20
48.72425823148845
 30
0.0
 11
47.53225223482174
 21
48.39425823148846
 31
0.0
 12
46.54225223482174
 22
48.55925823148846
 32
0.0
 13
46.54225223482174
 23
48.55925823148846
 33
0.0
  0
MTEXT
  5
825B
330
7C19
100
AcDbEntity
  8
DIM
 62
     0
100
AcDbMText
 10
51.29459598482174
 20
48.55925823148846
 30
0.0
 40
0.6875
 41
0.0
 71
     5
 72
     1
  1
\A1;0.45 [11.4]
 73
     1
 44
1.0
  0
POINT
  5
825C
330
7C19
100
AcDbEntity
  8
Defpoints
 62
     0
100
AcDbPoint
 10
46.09225223659345
 20
45.60920557802518
 30
0.0
  0
POINT
  5
825D
330
7C19
100
AcDbEntity
  8
Defpoints
 62
     0
100
AcDbPoint
 10
46.54225223482174
 20
46.96790548220795
 30
0.0
  0
POINT
  5
825E
330
7C19
100
AcDbEntity
  8
Defpoints
 62
     0
100
AcDbPoint
 10
46.54225223482174
 20
48.55925823148846
 30
0.0
  0
ENDBLK
  5
7C25
330
7C19
100
AcDbEntity
  8
0
100
AcDbBlockEnd
  0
BLOCK
  5
7C31
330
7C26
100
AcDbEntity
  8
0
100
AcDbBlockBegin
  2
*D12
 70
     1
 10
0.0
 20
0.0
 30
0.0
  3
*D12
  1

  0
LINE
  5
8288
330
7C26
100
AcDbEntity
  8
DIM
 62
     0
370
    -2
100
AcDbLine
 10
22.42644783177041
 20
28.83000519544034
 30
0.0
 11
22.42644783177041
 21
26.65992266920365
 31
0.0
  0
LINE
  5
8289
330
7C26
100
AcDbEntity
  8
DIM
 62
     0
370
    -2
100
AcDbLine
 10
8.135047831770403
 20
28.83000519544034
 30
0.0
 11
8.135047831770403
 21
26.65992266920365
 31
0.0
  0
LINE
  5
828A
330
7C26
100
AcDbEntity
  8
DIM
 62
     0
370
    -2
100
AcDbLine
 10
21.43644783177041
 20
27.17142266920365
 30
0.0
 11
16.29137283177041
 21
27.17142266920365
 31
0.0
  0
LINE
  5
828B
330
7C26
100
AcDbEntity
  8
DIM
 62
     0
370
    -2
100
AcDbLine
 10
9.125047831770404
 20
27.17142266920365
 30
0.0
 11
14.27012283177041
 21
27.17142266920365
 31
0.0
  0
SOLID
  5
828C
330
7C26
100
AcDbEntity
  8
DIM
 62
     0
100
AcDbTrace
 10
21.43644783177041
 20
27.33642266920365
 30
0.0
 11
21.43644783177041
 21
27.00642266920365
 31
0.0
 12
22.42644783177041
 22
27.17142266920365
 32
0.0
 13
22.42644783177041
 23
27.17142266920365
 33
0.0
  0
SOLID
  5
828D
330
7C26
100
AcDbEntity
  8
DIM
 62
     0
100
AcDbTrace
 10
9.125047831770404
 20
27.33642266920365
 30
0.0
 11
9.125047831770404
 21
27.00642266920365
 31
0.0
 12
8.135047831770403
 22
27.17142266920365
 32
0.0
 13
8.135047831770403
 23
27.17142266920365
 33
0.0
  0
MTEXT
  5
828E
330
7C26
100
AcDbEntity
  8
DIM
 62
     0
100
AcDbMText
 10
15.28074783177041
 20
27.17142266920365
 30
0.0
 40
0.6875
 41
0.0
 71
     5
 72
     1
  1
\A1;"F"
 73
     1
 44
1.0
  0
POINT
  5
828F
330
7C26
100
AcDbEntity
  8
Defpoints
 62
     0
100
AcDbPoint
 10
22.42644783177041
 20
29.17650519544034
 30
0.0
  0
POINT
  5
8290
330
7C26
100
AcDbEntity
  8
Defpoints
 62
     0
100
AcDbPoint
 10
8.135047831770403
 20
29.17650519544034
 30
0.0
  0
POINT
  5
8291
330
7C26
100
AcDbEntity
  8
Defpoints
 62
     0
100
AcDbPoint
 10
8.135047831770403
 20
27.17142266920365
 30
0.0
  0
ENDBLK
  5
7C32
330
7C26
100
AcDbEntity
  8
0
100
AcDbBlockEnd
  0
BLOCK
  5
7C3E
330
7C33
100
AcDbEntity
  8
0
100
AcDbBlockBegin
  2
*D13
 70
     1
 10
0.0
 20
0.0
 30
0.0
  3
*D13
  1

  0
LINE
  5
82B0
330
7C33
100
AcDbEntity
  8
DIM
 62
     0
370
    -2
100
AcDbLine
 10
22.991447733798
 20
46.32290519997292
 30
0.0
 11
26.37478639961067
 21
46.32290519997292
 31
0.0
  0
LINE
  5
82B1
330
7C33
100
AcDbEntity
  8
DIM
 62
     0
370
    -2
100
AcDbLine
 10
22.991447733798
 20
29.30150519090775
 30
0.0
 11
26.37478639961067
 21
29.30150519090774
 31
0.0
  0
LINE
  5
82B2
330
7C33
100
AcDbEntity
  8
DIM
 62
     0
370
    -2
100
AcDbLine
 10
25.86328639961067
 20
45.33290519997292
 30
0.0
 11
25.86328639961067
 21
38.65095519544033
 31
0.0
  0
LINE
  5
82B3
330
7C33
100
AcDbEntity
  8
DIM
 62
     0
370
    -2
100
AcDbLine
 10
25.86328639961067
 20
30.29150519090774
 30
0.0
 11
25.86328639961067
 21
36.97345519544033
 31
0.0
  0
SOLID
  5
82B4
330
7C33
100
AcDbEntity
  8
DIM
 62
     0
100
AcDbTrace
 10
25.69828639961067
 20
45.33290519997292
 30
0.0
 11
26.02828639961067
 21
45.33290519997292
 31
0.0
 12
25.86328639961067
 22
46.32290519997292
 32
0.0
 13
25.86328639961067
 23
46.32290519997292
 33
0.0
  0
SOLID
  5
82B5
330
7C33
100
AcDbEntity
  8
DIM
 62
     0
100
AcDbTrace
 10
25.69828639961067
 20
30.29150519090774
 30
0.0
 11
26.02828639961067
 21
30.29150519090774
 31
0.0
 12
25.86328639961067
 22
29.30150519090774
 32
0.0
 13
25.86328639961067
 23
29.30150519090774
 33
0.0
  0
MTEXT
  5
82B6
330
7C33
100
AcDbEntity
  8
DIM
 62
     0
100
AcDbMText
 10
25.86328639961067
 20
37.81220519544034
 30
0.0
 40
0.6875
 41
0.0
 71
     5
 72
     1
  1
\A1;"E"
 73
     1
 44
1.0
  0
POINT
  5
82B7
330
7C33
100
AcDbEntity
  8
Defpoints
 62
     0
100
AcDbPoint
 10
22.644947733798
 20
46.32290519997292
 30
0.0
  0
POINT
  5
82B8
330
7C33
100
AcDbEntity
  8
Defpoints
 62
     0
100
AcDbPoint
 10
22.644947733798
 20
29.30150519090775
 30
0.0
  0
POINT
  5
82B9
330
7C33
100
AcDbEntity
  8
Defpoints
 62
     0
100
AcDbPoint
 10
25.86328639961067
 20
29.30150519090774
 30
0.0
  0
ENDBLK
  5
7C3F
330
7C33
100
AcDbEntity
  8
0
100
AcDbBlockEnd
  0
BLOCK
  5
7C4B
330
7C40
100
AcDbEntity
  8
0
100
AcDbBlockBegin
  2
*D14
 70
     1
 10
0.0
 20
0.0
 30
0.0
  3
*D14
  1

  0
LINE
  5
82D8
330
7C40
100
AcDbEntity
  8
DIM
 62
     0
370
    -2
100
AcDbLine
 10
85.897029516694
 20
45.1623699812633
 30
0.0
 11
85.897029516694
 21
48.05073440275044
 31
0.0
  0
LINE
  5
82D9
330
7C40
100
AcDbEntity
  8
DIM
 62
     0
370
    -2
100
AcDbLine
 10
71.74102966022577
 20
45.1623699812633
 30
0.0
 11
71.74102966022577
 21
48.05073440275044
 31
0.0
  0
LINE
  5
82DA
330
7C40
100
AcDbEntity
  8
DIM
 62
     0
370
    -2
100
AcDbLine
 10
84.90702951669401
 20
47.53923440275044
 30
0.0
 11
82.17329386484962
 21
47.53923440275044
 31
0.0
  0
LINE
  5
82DB
330
7C40
100
AcDbEntity
  8
DIM
 62
     0
370
    -2
100
AcDbLine
 10
72.73102966022576
 20
47.53923440275044
 30
0.0
 11
76.19891886484961
 21
47.53923440275044
 31
0.0
  0
SOLID
  5
82DC
330
7C40
100
AcDbEntity
  8
DIM
 62
     0
100
AcDbTrace
 10
84.90702951669401
 20
47.70423440275044
 30
0.0
 11
84.90702951669401
 21
47.37423440275043
 31
0.0
 12
85.897029516694
 22
47.53923440275044
 32
0.0
 13
85.897029516694
 23
47.53923440275044
 33
0.0
  0
SOLID
  5
82DD
330
7C40
100
AcDbEntity
  8
DIM
 62
     0
100
AcDbTrace
 10
72.73102966022576
 20
47.70423440275044
 30
0.0
 11
72.73102966022576
 21
47.37423440275043
 31
0.0
 12
71.74102966022577
 22
47.53923440275044
 32
0.0
 13
71.74102966022577
 23
47.53923440275044
 33
0.0
  0
MTEXT
  5
82DE
330
7C40
100
AcDbEntity
  8
DIM
 62
     0
100
AcDbMText
 10
79.18610636484962
 20
47.53923440275044
 30
0.0
 40
0.6875
 41
0.0
 71
     5
 72
     1
  1
\A1;"H" OPENING
 73
     1
 44
1.0
  0
POINT
  5
82DF
330
7C40
100
AcDbEntity
  8
Defpoints
 62
     0
100
AcDbPoint
 10
85.897029516694
 20
44.8158699812633
 30
0.0
  0
POINT
  5
82E0
330
7C40
100
AcDbEntity
  8
Defpoints
 62
     0
100
AcDbPoint
 10
71.74102966022577
 20
44.8158699812633
 30
0.0
  0
POINT
  5
82E1
330
7C40
100
AcDbEntity
  8
Defpoints
 62
     0
100
AcDbPoint
 10
71.74102966022577
 20
47.53923440275044
 30
0.0
  0
ENDBLK
  5
7C4C
330
7C40
100
AcDbEntity
  8
0
100
AcDbBlockEnd
  0
BLOCK
  5
7C58
330
7C4D
100
AcDbEntity
  8
0
100
AcDbBlockBegin
  2
*D15
 70
     1
 10
0.0
 20
0.0
 30
0.0
  3
*D15
  1

  0
LINE
  5
8300
330
7C4D
100
AcDbEntity
  8
DIM
 62
     0
370
    -2
100
AcDbLine
 10
71.39452966022576
 20
30.66744083672688
 30
0.0
 11
68.25786900974202
 21
30.66744083672688
 31
0.0
  0
LINE
  5
8301
330
7C4D
100
AcDbEntity
  8
DIM
 62
     0
370
    -2
100
AcDbLine
 10
71.39452966022576
 20
44.80879896961491
 30
0.0
 11
68.25786900974204
 21
44.80879896961491
 31
0.0
  0
LINE
  5
8302
330
7C4D
100
AcDbEntity
  8
DIM
 62
     0
370
    -2
100
AcDbLine
 10
68.76936900974202
 20
31.65744083672688
 30
0.0
 11
68.76936900974204
 21
36.32645323650423
 31
0.0
  0
LINE
  5
8303
330
7C4D
100
AcDbEntity
  8
DIM
 62
     0
370
    -2
100
AcDbLine
 10
68.76936900974204
 20
43.81879896961491
 30
0.0
 11
68.76936900974204
 21
39.14978656983756
 31
0.0
  0
SOLID
  5
8304
330
7C4D
100
AcDbEntity
  8
DIM
 62
     0
100
AcDbTrace
 10
68.60436900974201
 20
31.65744083672688
 30
0.0
 11
68.93436900974203
 21
31.65744083672688
 31
0.0
 12
68.76936900974202
 22
30.66744083672688
 32
0.0
 13
68.76936900974202
 23
30.66744083672688
 33
0.0
  0
SOLID
  5
8305
330
7C4D
100
AcDbEntity
  8
DIM
 62
     0
100
AcDbTrace
 10
68.60436900974203
 20
43.81879896961491
 30
0.0
 11
68.93436900974204
 21
43.81879896961491
 31
0.0
 12
68.76936900974204
 22
44.80879896961491
 32
0.0
 13
68.76936900974204
 23
44.80879896961491
 33
0.0
  0
MTEXT
  5
8306
330
7C4D
100
AcDbEntity
  8
DIM
 62
     0
100
AcDbMText
 10
68.76936900974202
 20
37.7381199031709
 30
0.0
 40
0.6875
 41
0.0
 71
     5
 72
     1
  1
\A1;"G"\POPENING
 73
     1
 44
1.0
  0
POINT
  5
8307
330
7C4D
100
AcDbEntity
  8
Defpoints
 62
     0
100
AcDbPoint
 10
71.74102966022577
 20
30.66744083672688
 30
0.0
  0
POINT
  5
8308
330
7C4D
100
AcDbEntity
  8
Defpoints
 62
     0
100
AcDbPoint
 10
71.74102966022577
 20
44.80879896961491
 30
0.0
  0
POINT
  5
8309
330
7C4D
100
AcDbEntity
  8
Defpoints
 62
     0
100
AcDbPoint
 10
68.76936900974204
 20
44.80879896961491
 30
0.0
  0
ENDBLK
  5
7C59
330
7C4D
100
AcDbEntity
  8
0
100
AcDbBlockEnd
  0
BLOCK
  5
7C65
330
7C5A
100
AcDbEntity
  8
0
100
AcDbBlockBegin
  2
*D16
 70
     1
 10
0.0
 20
0.0
 30
0.0
  3
*D16
  1

  0
LINE
  5
82CE
330
7C5A
100
AcDbEntity
  8
DIM
 62
     0
370
    -2
100
AcDbLine
 10
85.70877945137482
 20
30.97581988484157
 30
0.0
 11
85.70877945137482
 21
27.71686382838258
 31
0.0
  0
LINE
  5
82CF
330
7C5A
100
AcDbEntity
  8
DIM
 62
     0
370
    -2
100
AcDbLine
 10
71.92927972554494
 20
30.97581988484157
 30
0.0
 11
71.92927972554494
 21
27.71686382838258
 31
0.0
  0
LINE
  5
82D0
330
7C5A
100
AcDbEntity
  8
DIM
 62
     0
370
    -2
100
AcDbLine
 10
84.71877945137483
 20
28.22836382838258
 30
0.0
 11
81.40739259712105
 21
28.22836382838258
 31
0.0
  0
LINE
  5
82D1
330
7C5A
100
AcDbEntity
  8
DIM
 62
     0
370
    -2
100
AcDbLine
 10
72.91927972554494
 20
28.22836382838258
 30
0.0
 11
76.29239259712105
 21
28.22836382838258
 31
0.0
  0
SOLID
  5
82D2
330
7C5A
100
AcDbEntity
  8
DIM
 62
     0
100
AcDbTrace
 10
84.71877945137483
 20
28.39336382838258
 30
0.0
 11
84.71877945137483
 21
28.06336382838258
 31
0.0
 12
85.70877945137482
 22
28.22836382838258
 32
0.0
 13
85.70877945137482
 23
28.22836382838258
 33
0.0
  0
SOLID
  5
82D3
330
7C5A
100
AcDbEntity
  8
DIM
 62
     0
100
AcDbTrace
 10
72.91927972554494
 20
28.39336382838258
 30
0.0
 11
72.91927972554494
 21
28.06336382838258
 31
0.0
 12
71.92927972554494
 22
28.22836382838258
 32
0.0
 13
71.92927972554494
 23
28.22836382838258
 33
0.0
  0
MTEXT
  5
82D4
330
7C5A
100
AcDbEntity
  8
DIM
 62
     0
100
AcDbMText
 10
78.84989259712106
 20
28.22836382838258
 30
0.0
 40
0.6875
 41
0.0
 71
     5
 72
     1
  1
\A1;"M" PANEL
 73
     1
 44
1.0
  0
POINT
  5
82D5
330
7C5A
100
AcDbEntity
  8
Defpoints
 62
     0
100
AcDbPoint
 10
85.70877945137482
 20
31.32231988484157
 30
0.0
  0
POINT
  5
82D6
330
7C5A
100
AcDbEntity
  8
Defpoints
 62
     0
100
AcDbPoint
 10
71.92927972554494
 20
31.32231988484157
 30
0.0
  0
POINT
  5
82D7
330
7C5A
100
AcDbEntity
  8
Defpoints
 62
     0
100
AcDbPoint
 10
71.92927972554494
 20
28.22836382838258
 30
0.0
  0
ENDBLK
  5
7C66
330
7C5A
100
AcDbEntity
  8
0
100
AcDbBlockEnd
  0
BLOCK
  5
7C72
330
7C67
100
AcDbEntity
  8
0
100
AcDbBlockBegin
  2
*D17
 70
     1
 10
0.0
 20
0.0
 30
0.0
  3
*D17
  1

  0
LINE
  5
830A
330
7C67
100
AcDbEntity
  8
DIM
 62
     0
370
    -2
100
AcDbLine
 10
84.73094390876964
 20
44.99725566065618
 30
0.0
 11
89.47230563767531
 21
44.99725566065618
 31
0.0
  0
LINE
  5
830B
330
7C67
100
AcDbEntity
  8
DIM
 62
     0
370
    -2
100
AcDbLine
 10
84.73094390876982
 20
30.47898414568561
 30
0.0
 11
89.47230563767529
 21
30.47898414568561
 31
0.0
  0
LINE
  5
830C
330
7C67
100
AcDbEntity
  8
DIM
 62
     0
370
    -2
100
AcDbLine
 10
88.96080563767531
 20
44.00725566065617
 30
0.0
 11
88.96080563767531
 21
39.37970383762506
 31
0.0
  0
LINE
  5
830D
330
7C67
100
AcDbEntity
  8
DIM
 62
     0
370
    -2
100
AcDbLine
 10
88.96080563767529
 20
31.46898414568561
 30
0.0
 11
88.96080563767531
 21
36.55637050429172
 31
0.0
  0
SOLID
  5
830E
330
7C67
100
AcDbEntity
  8
DIM
 62
     0
100
AcDbTrace
 10
88.79580563767531
 20
44.00725566065617
 30
0.0
 11
89.12580563767532
 21
44.00725566065617
 31
0.0
 12
88.96080563767531
 22
44.99725566065618
 32
0.0
 13
88.96080563767531
 23
44.99725566065618
 33
0.0
  0
SOLID
  5
830F
330
7C67
100
AcDbEntity
  8
DIM
 62
     0
100
AcDbTrace
 10
88.79580563767529
 20
31.46898414568561
 30
0.0
 11
89.1258056376753
 21
31.46898414568561
 31
0.0
 12
88.96080563767529
 22
30.47898414568561
 32
0.0
 13
88.96080563767529
 23
30.47898414568561
 33
0.0
  0
MTEXT
  5
8310
330
7C67
100
AcDbEntity
  8
DIM
 62
     0
100
AcDbMText
 10
88.96080563767529
 20
37.96803717095841
 30
0.0
 40
0.6875
 41
0.0
 71
     5
 72
     1
  1
\A1;"L"\PPANEL
 73
     1
 44
1.0
  0
POINT
  5
8311
330
7C67
100
AcDbEntity
  8
Defpoints
 62
     0
100
AcDbPoint
 10
84.38444390876965
 20
44.99725566065618
 30
0.0
  0
POINT
  5
8312
330
7C67
100
AcDbEntity
  8
Defpoints
 62
     0
100
AcDbPoint
 10
84.38444390876981
 20
30.47898414568561
 30
0.0
  0
POINT
  5
8313
330
7C67
100
AcDbEntity
  8
Defpoints
 62
     0
100
AcDbPoint
 10
88.96080563767529
 20
30.47898414568561
 30
0.0
  0
ENDBLK
  5
7C73
330
7C67
100
AcDbEntity
  8
0
100
AcDbBlockEnd
  0
BLOCK
  5
7C7F
330
7C74
100
AcDbEntity
  8
0
100
AcDbBlockBegin
  2
*D18
 70
     1
 10
0.0
 20
0.0
 30
0.0
  3
*D18
  1

  0
LINE
  5
827E
330
7C74
100
AcDbEntity
  8
DIM
 62
     0
370
    -2
100
AcDbLine
 10
21.68674783177047
 20
37.46570519544032
 30
0.0
 11
21.68674783177047
 21
35.33889044524001
 31
0.0
  0
LINE
  5
827F
330
7C74
100
AcDbEntity
  8
DIM
 62
     0
370
    -2
100
AcDbLine
 10
23.15474784454363
 20
36.62059348479093
 30
0.0
 11
23.15474784454363
 21
35.33889044524001
 31
0.0
  0
LINE
  5
8280
330
7C74
100
AcDbEntity
  8
DIM
 62
     0
370
    -2
100
AcDbLine
 10
24.14474784454363
 20
35.85039044524001
 30
0.0
 11
25.13474784454363
 21
35.85039044524001
 31
0.0
  0
LINE
  5
8281
330
7C74
100
AcDbEntity
  8
DIM
 62
     0
370
    -2
100
AcDbLine
 10
20.69674783177047
 20
35.85039044524001
 30
0.0
 11
19.44893533177047
 21
35.85039044524001
 31
0.0
  0
SOLID
  5
8282
330
7C74
100
AcDbEntity
  8
DIM
 62
     0
100
AcDbTrace
 10
24.14474784454363
 20
36.01539044524001
 30
0.0
 11
24.14474784454363
 21
35.68539044524001
 31
0.0
 12
23.15474784454363
 22
35.85039044524001
 32
0.0
 13
23.15474784454363
 23
35.85039044524001
 33
0.0
  0
SOLID
  5
8283
330
7C74
100
AcDbEntity
  8
DIM
 62
     0
100
AcDbTrace
 10
20.69674783177047
 20
36.01539044524001
 30
0.0
 11
20.69674783177047
 21
35.68539044524001
 31
0.0
 12
21.68674783177047
 22
35.85039044524001
 32
0.0
 13
21.68674783177047
 23
35.85039044524001
 33
0.0
  0
MTEXT
  5
8284
330
7C74
100
AcDbEntity
  8
DIM
 62
     0
100
AcDbMText
 10
16.80549783177047
 20
35.85039044524001
 30
0.0
 40
0.6875
 41
0.0
 71
     5
 72
     1
  1
\A1;1.47 [37.3]
 73
     1
 44
1.0
  0
POINT
  5
8285
330
7C74
100
AcDbEntity
  8
Defpoints
 62
     0
100
AcDbPoint
 10
21.68674783177047
 20
37.81220519544032
 30
0.0
  0
POINT
  5
8286
330
7C74
100
AcDbEntity
  8
Defpoints
 62
     0
100
AcDbPoint
 10
23.15474784454363
 20
36.96709348479093
 30
0.0
  0
POINT
  5
8287
330
7C74
100
AcDbEntity
  8
Defpoints
 62
     0
100
AcDbPoint
 10
23.15474784454363
 20
35.85039044524001
 30
0.0
  0
ENDBLK
  5
7C80
330
7C74
100
AcDbEntity
  8
0
100
AcDbBlockEnd
  0
BLOCK
  5
7C8C
330
7C81
100
AcDbEntity
  8
0
100
AcDbBlockBegin
  2
*D19
 70
     1
 10
0.0
 20
0.0
 30
0.0
  3
*D19
  1

  0
LINE
  5
82A6
330
7C81
100
AcDbEntity
  8
DIM
 62
     0
370
    -2
100
AcDbLine
 10
9.218747831770485
 20
43.52745503919543
 30
0.0
 11
9.218747831770485
 21
40.91135336634629
 31
0.0
  0
LINE
  5
82A7
330
7C81
100
AcDbEntity
  8
DIM
 62
     0
370
    -2
100
AcDbLine
 10
7.46874778332824
 20
41.27269045804214
 30
0.0
 11
7.46874778332824
 21
40.91135336634629
 31
0.0
  0
LINE
  5
82A8
330
7C81
100
AcDbEntity
  8
DIM
 62
     0
370
    -2
100
AcDbLine
 10
6.478747783328239
 20
41.42285336634628
 30
0.0
 11
5.488747783328239
 21
41.42285336634628
 31
0.0
  0
LINE
  5
82A9
330
7C81
100
AcDbEntity
  8
DIM
 62
     0
370
    -2
100
AcDbLine
 10
10.20874783177048
 20
41.42285336634628
 30
0.0
 11
11.45656033177048
 21
41.42285336634628
 31
0.0
  0
SOLID
  5
82AA
330
7C81
100
AcDbEntity
  8
DIM
 62
     0
100
AcDbTrace
 10
6.478747783328239
 20
41.58785336634628
 30
0.0
 11
6.478747783328239
 21
41.25785336634629
 31
0.0
 12
7.46874778332824
 22
41.42285336634628
 32
0.0
 13
7.46874778332824
 23
41.42285336634628
 33
0.0
  0
SOLID
  5
82AB
330
7C81
100
AcDbEntity
  8
DIM
 62
     0
100
AcDbTrace
 10
10.20874783177048
 20
41.58785336634628
 30
0.0
 11
10.20874783177048
 21
41.25785336634629
 31
0.0
 12
9.218747831770485
 22
41.42285336634628
 32
0.0
 13
9.218747831770485
 23
41.42285336634628
 33
0.0
  0
MTEXT
  5
82AC
330
7C81
100
AcDbEntity
  8
DIM
 62
     0
100
AcDbMText
 10
14.09999783177048
 20
41.42285336634628
 30
0.0
 40
0.6875
 41
0.0
 71
     5
 72
     1
  1
\A1;1.75 [44.5]\PINSIDE
 73
     1
 44
1.0
  0
POINT
  5
82AD
330
7C81
100
AcDbEntity
  8
Defpoints
 62
     0
100
AcDbPoint
 10
9.218747831770485
 20
43.87395503919544
 30
0.0
  0
POINT
  5
82AE
330
7C81
100
AcDbEntity
  8
Defpoints
 62
     0
100
AcDbPoint
 10
7.46874778332824
 20
41.61919045804213
 30
0.0
  0
POINT
  5
82AF
330
7C81
100
AcDbEntity
  8
Defpoints
 62
     0
100
AcDbPoint
 10
7.46874778332824
 20
41.42285336634628
 30
0.0
  0
ENDBLK
  5
7C8D
330
7C81
100
AcDbEntity
  8
0
100
AcDbBlockEnd
  0
BLOCK
  5
7C9A
330
7C8E
100
AcDbEntity
  8
0
100
AcDbBlockBegin
  2
*D20
 70
     1
 10
0.0
 20
0.0
 30
0.0
  3
*D20
  1

  0
LINE
  5
8273
330
7C8E
100
AcDbEntity
  8
DIM
 62
     0
370
    -2
100
AcDbLine
 10
9.565247831770486
 20
43.87395503919544
 30
0.0
 11
11.97765345631081
 21
43.87395503919544
 31
0.0
  0
LINE
  5
8274
330
7C8E
100
AcDbEntity
  8
DIM
 62
     0
370
    -2
100
AcDbLine
 10
11.2392481570966
 20
45.62395506474189
 30
0.0
 11
11.97765345631081
 21
45.62395506474189
 31
0.0
  0
LINE
  5
8275
330
7C8E
100
AcDbEntity
  8
DIM
 62
     0
370
    -2
100
AcDbLine
 10
11.46615345631081
 20
42.88395503919543
 30
0.0
 11
11.46615345631081
 21
41.89395503919544
 31
0.0
  0
LINE
  5
8276
330
7C8E
100
AcDbEntity
  8
DIM
 62
     0
370
    -2
100
AcDbLine
 10
11.46615345631081
 20
46.61395506474189
 30
0.0
 11
11.46615345631081
 21
47.60395506474189
 31
0.0
  0
LINE
  5
8277
330
7C8E
100
AcDbEntity
  8
DIM
 62
     0
370
    -2
100
AcDbLine
 10
11.46615345631081
 20
47.60395506474189
 30
0.0
 11
12.45615345631081
 21
47.60395506474189
 31
0.0
  0
SOLID
  5
8278
330
7C8E
100
AcDbEntity
  8
DIM
 62
     0
100
AcDbTrace
 10
11.30115345631081
 20
42.88395503919543
 30
0.0
 11
11.63115345631081
 21
42.88395503919543
 31
0.0
 12
11.46615345631081
 22
43.87395503919544
 32
0.0
 13
11.46615345631081
 23
43.87395503919544
 33
0.0
  0
SOLID
  5
8279
330
7C8E
100
AcDbEntity
  8
DIM
 62
     0
100
AcDbTrace
 10
11.30115345631081
 20
46.61395506474189
 30
0.0
 11
11.63115345631081
 21
46.61395506474189
 31
0.0
 12
11.46615345631081
 22
45.62395506474189
 32
0.0
 13
11.46615345631081
 23
45.62395506474189
 33
0.0
  0
MTEXT
  5
827A
330
7C8E
100
AcDbEntity
  8
DIM
 62
     0
100
AcDbMText
 10
15.0995909563108
 20
47.60395506474189
 30
0.0
 40
0.6875
 41
0.0
 71
     5
 72
     1
  1
\A1;1.75 [44.5]\PINSIDE
 73
     1
 44
1.0
  0
POINT
  5
827B
330
7C8E
100
AcDbEntity
  8
Defpoints
 62
     0
100
AcDbPoint
 10
9.218747831770485
 20
43.87395503919544
 30
0.0
  0
POINT
  5
827C
330
7C8E
100
AcDbEntity
  8
Defpoints
 62
     0
100
AcDbPoint
 10
10.8927481570966
 20
45.62395506474189
 30
0.0
  0
POINT
  5
827D
330
7C8E
100
AcDbEntity
  8
Defpoints
 62
     0
100
AcDbPoint
 10
11.46615345631081
 20
45.62395506474189
 30
0.0
  0
ENDBLK
  5
7C9B
330
7C8E
100
AcDbEntity
  8
0
100
AcDbBlockEnd
  0
ENDSEC
  0
SECTION
  2
ENTITIES
  0
HATCH
  5
3785
330
1E
100
AcDbEntity
  8
0
  6
Continuous
 62
     7
 48
8.0
370
     0
100
AcDbHatch
 10
0.0
 20
0.0
 30
0.0
210
0.0
220
0.0
230
1.0
  2
ANSI31
 70
     0
 71
     0
 91
        1
 92
        0
 93
        5
 72
     4
 94
        3
 73
     1
 74
     0
 95
        8
 96
        4
 40
0.7349931430247101
 40
0.7349931430247101
 40
0.7349931430247101
 40
0.7349931430247101
 40
0.736934666557163
 40
0.736934666557163
 40
0.736934666557163
 40
0.736934666557163
 10
89.72480124489448
 20
40.86123285157708
 42
1.0
 10
89.70408871089338
 20
40.85826270497824
 42
1.0
 10
89.68341904418654
 20
40.85508740025923
 42
1.0
 10
89.66280124489447
 20
40.85168950325569
 42
1.0
 72
     4
 94
        3
 73
     1
 74
     0
 95
       20
 96
       16
 40
0.0
 40
0.0
 40
0.0
 40
0.0
 40
0.0000790804161453
 40
0.0000790804161453
 40
0.0000790804161453
 40
0.0002087414410477
 40
0.0002087414410477
 40
0.0002087414410477
 40
0.0003401720995243
 40
0.0003401720995243
 40
0.0003401720995243
 40
0.0004725221214526
 40
0.0004725221214526
 40
0.0004725221214526
 40
0.0006048147960978
 40
0.0006048147960978
 40
0.0006048147960978
 40
0.0006048147960978
 10
89.66280124489449
 20
40.85168950325569
 42
1.0
 10
89.66280124489449
 20
40.85168950325569
 42
1.0
 10
89.66269231824382
 20
40.85167155786142
 42
1.0
 10
89.66247823031318
 20
40.85163625022754
 42
1.0
 10
89.66213040386875
 20
40.85157888628029
 42
1.0
 10
89.66149198723321
 20
40.85147355976281
 42
1.0
 10
89.66061949837806
 20
40.85132907885427
 42
1.0
 10
89.65973524558521
 20
40.85118264988142
 42
1.0
 10
89.65858561341827
 20
40.8509918375149
 42
1.0
 10
89.65727135163026
 20
40.85077259589902
 42
1.0
 10
89.65594781606339
 20
40.85055180725628
 42
1.0
 10
89.65442012239448
 20
40.8502959449576
 42
1.0
 10
89.65281840022463
 20
40.85002613296995
 42
1.0
 10
89.65121706766167
 20
40.84975638661204
 42
1.0
 10
89.64949730205486
 20
40.84946518928456
 42
1.0
 10
89.64780124489449
 20
40.84917634106896
 42
1.0
 72
     4
 94
        3
 73
     1
 74
     0
 95
        9
 96
        5
 40
0.7374057949458102
 40
0.7374057949458102
 40
0.7374057949458102
 40
0.7374057949458102
 40
0.7455177954903443
 40
0.7574304658614601
 40
0.7574304658614601
 40
0.7574304658614601
 40
0.7574304658614601
 10
89.64780124489449
 20
40.84917634106896
 42
1.0
 10
89.56176411974363
 20
40.83452372755149
 42
1.0
 10
89.35170862382173
 20
40.78857888789643
 42
1.0
 10
89.15140309691656
 20
40.71075668677544
 42
1.0
 10
89.03480124489448
 20
40.65901738560945
 42
1.0
 72
     4
 94
        3
 73
     1
 74
     0
 95
        9
 96
        5
 40
0.2425695341155246
 40
0.2425695341155246
 40
0.2425695341155246
 40
0.2425695341155246
 40
0.2544822045096557
 40
0.2625942050541963
 40
0.2625942050541963
 40
0.2625942050541963
 40
0.2625942050541963
 10
89.03480124421866
 20
40.65901738530956
 42
1.0
 10
89.15140309645611
 20
40.71075668659656
 42
1.0
 10
89.35170862358038
 20
40.78857888784365
 42
1.0
 10
89.56176411974377
 20
40.83452372755153
 42
1.0
 10
89.64780124489468
 20
40.849176341069
 42
1.0
 72
     4
 94
        3
 73
     1
 74
     0
 95
       20
 96
       16
 40
0.0000000000000009
 40
0.0000000000000009
 40
0.0000000000000009
 40
0.0000000000000009
 40
0.0006712718123127
 40
0.0006712718123127
 40
0.0006712718123127
 40
0.0013428937090786
 40
0.0013428937090786
 40
0.0013428937090786
 40
0.0020091475444759
 40
0.0020091475444759
 40
0.0020091475444759
 40
0.0026675343558935
 40
0.0026675343558935
 40
0.0026675343558935
 40
0.0030744696745827
 40
0.0030744696745827
 40
0.0030744696745827
 40
0.0030744696745827
 10
89.64780124489449
 20
40.84917634106896
 42
1.0
 10
89.65648554655565
 20
40.85065532721229
 42
1.0
 10
89.66529736883197
 20
40.85211181157462
 42
1.0
 10
89.67350734275697
 20
40.85343325292593
 42
1.0
 10
89.68171979048049
 20
40.854755092449
 42
1.0
 10
89.68955753828458
 20
40.85597905376236
 42
1.0
 10
89.69634962380965
 20
40.85701796443176
 42
1.0
 10
89.70308745241851
 20
40.85804857601702
 42
1.0
 10
89.7089839778275
 20
40.85892670624124
 42
1.0
 10
89.71352504249813
 20
40.85959485693672
 42
1.0
 10
89.71801327282911
 20
40.86025523383832
 42
1.0
 10
89.7213022849869
 20
40.86072962762806
 42
1.0
 10
89.72310498457526
 20
40.8609891375359
 42
1.0
 10
89.72422920000701
 20
40.86115097539561
 42
1.0
 10
89.72480124489448
 20
40.86123285157708
 42
1.0
 10
89.72480124489448
 20
40.86123285157708
 42
1.0
 97
        0
 75
     0
 76
     1
 52
0.0
 41
8.0
 77
     0
 78
     1
 53
45.0
 43
70.0870439685983
 44
6.223750153624379
 45
-0.7071067811865475
 46
0.7071067811865476
 79
     0
 98
        1
 10
70.0870439685983
 20
6.223750153624379
  0
HATCH
  5
3787
330
1E
100
AcDbEntity
  8
0
  6
Continuous
 62
     7
 48
8.0
370
     0
100
AcDbHatch
 10
0.0
 20
0.0
 30
0.0
210
0.0
220
0.0
230
1.0
  2
ANSI31
 70
     0
 71
     0
 91
        1
 92
        0
 93
        2
 72
     4
 94
        3
 73
     1
 74
     0
 95
        9
 96
        5
 40
0.7369346665571629
 40
0.7369346665571629
 40
0.7369346665571629
 40
0.7369346665571629
 40
0.7455177954903443
 40
0.7489577298141489
 40
0.7489577298141489
 40
0.7489577298141489
 40
0.7489577298141489
 10
89.66280124489449
 20
40.85168950325569
 42
1.0
 10
89.5716536349458
 20
40.83666800720094
 42
1.0
 10
89.44539595446519
 20
40.80953245414394
 42
1.0
 10
89.32265309103469
 20
40.77090526522638
 42
1.0
 10
89.28780124489447
 20
40.75905347274095
 42
1.0
 72
     4
 94
        3
 73
     1
 74
     0
 95
        9
 96
        5
 40
0.251042270183736
 40
0.251042270183736
 40
0.251042270183736
 40
0.251042270183736
 40
0.2544822045096557
 40
0.263065333442837
 40
0.263065333442837
 40
0.263065333442837
 40
0.263065333442837
 10
89.28780124483019
 20
40.75905347271908
 42
1.0
 10
89.32265309099149
 20
40.7709052652128
 42
1.0
 10
89.44539595444298
 20
40.80953245413916
 42
1.0
 10
89.5716536349458
 20
40.83666800720094
 42
1.0
 10
89.66280124489449
 20
40.85168950325569
 42
1.0
 97
        0
 75
     0
 76
     1
 52
0.0
 41
8.0
 77
     0
 78
     1
 53
45.0
 43
70.0870439685983
 44
6.223750153624379
 45
-0.7071067811865475
 46
0.7071067811865476
 79
     0
 98
        1
 10
70.0870439685983
 20
6.223750153624379
  0
HATCH
  5
378A
330
1E
100
AcDbEntity
  8
0
  6
Continuous
 62
     7
 48
8.0
370
     0
100
AcDbHatch
 10
0.0
 20
0.0
 30
0.0
210
0.0
220
0.0
230
1.0
  2
ANSI31
 70
     0
 71
     0
 91
        1
 92
        0
 93
        2
 72
     4
 94
        3
 73
     1
 74
     0
 95
        8
 96
        4
 40
0.9232390971773888
 40
0.9232390971773888
 40
0.9232390971773888
 40
0.9232390971773888
 40
0.9259687288161472
 40
0.9259687288161472
 40
0.9259687288161472
 40
0.9259687288161472
 10
84.25480124534706
 20
40.16977736242899
 42
1.0
 10
84.22874139137745
 20
40.16533119677271
 42
1.0
 10
84.20274023518356
 20
40.16156657305155
 42
1.0
 10
84.17680124489487
 20
40.15855885338356
 42
1.0
 72
     4
 94
        3
 73
     1
 74
     0
 95
        8
 96
        4
 40
0.0740312711838542
 40
0.0740312711838542
 40
0.0740312711838542
 40
0.0740312711838542
 40
0.0767609028226086
 40
0.0767609028226086
 40
0.0767609028226086
 40
0.0767609028226086
 10
84.17680124489491
 20
40.15855885338357
 42
1.0
 10
84.20274023518356
 20
40.16156657305155
 42
1.0
 10
84.22874139137741
 20
40.16533119677271
 42
1.0
 10
84.25480124534699
 20
40.16977736242897
 42
1.0
 97
        0
 75
     0
 76
     1
 52
0.0
 41
8.0
 77
     0
 78
     1
 53
45.0
 43
70.0870439685983
 44
6.223750153624379
 45
-0.7071067811865475
 46
0.7071067811865476
 79
     0
 98
        1
 10
70.0870439685983
 20
6.223750153624379
  0
LINE
  5
7876
330
1E
100
AcDbEntity
  8
OBJECT
100
AcDbLine
 10
22.55144793391568
 20
45.81090540797153
 30
0.0
 11
22.55144793391568
 21
45.73290545570031
 31
0.0
  0
LINE
  5
7877
330
1E
100
AcDbEntity
  8
OBJECT
100
AcDbLine
 10
22.42644772459545
 20
45.81090540797153
 30
0.0
 11
22.55144793391568
 21
45.81090540797153
 31
0.0
  0
LINE
  5
7878
330
1E
100
AcDbEntity
  8
OBJECT
100
AcDbLine
 10
22.55144793391568
 20
45.73290545570031
 30
0.0
 11
22.42644772459545
 21
45.73290545570031
 31
0.0
  0
LINE
  5
7879
330
1E
100
AcDbEntity
  8
OBJECT
100
AcDbLine
 10
22.30144780860513
 20
45.73290545570031
 30
0.0
 11
22.30144780860513
 21
45.81090540797153
 31
0.0
  0
LINE
  5
787A
330
1E
100
AcDbEntity
  8
OBJECT
100
AcDbLine
 10
22.30144780860513
 20
45.81090540797153
 30
0.0
 11
22.42644772459545
 21
45.81090540797153
 31
0.0
  0
LINE
  5
787B
330
1E
100
AcDbEntity
  8
OBJECT
100
AcDbLine
 10
22.42644772459545
 20
45.73290545570031
 30
0.0
 11
22.30144780860513
 21
45.73290545570031
 31
0.0
  0
LINE
  5
787C
330
1E
100
AcDbEntity
  8
OBJECT
100
AcDbLine
 10
21.92644776730426
 20
45.71730499591815
 30
0.0
 11
21.92644776730426
 21
45.81090540797153
 31
0.0
  0
LINE
  5
787D
330
1E
100
AcDbEntity
  8
OBJECT
100
AcDbLine
 10
22.17644789261481
 20
45.81090540797153
 30
0.0
 11
22.17644789261481
 21
45.71730499591815
 31
0.0
  0
LINE
  5
787E
330
1E
100
AcDbEntity
  8
OBJECT
100
AcDbLine
 10
22.17644789261481
 20
45.81090540797153
 30
0.0
 11
21.92644776730426
 21
45.81090540797153
 31
0.0
  0
LINE
  5
787F
330
1E
100
AcDbEntity
  8
OBJECT
100
AcDbLine
 10
21.92644776730426
 20
45.68620498185483
 30
0.0
 11
21.92644776730426
 21
45.71730499591815
 31
0.0
  0
LINE
  5
7880
330
1E
100
AcDbEntity
  8
OBJECT
100
AcDbLine
 10
22.67644784990597
 20
45.68620498185483
 30
0.0
 11
22.67644784990597
 21
45.71730499591815
 31
0.0
  0
LINE
  5
7881
330
1E
100
AcDbEntity
  8
OBJECT
100
AcDbLine
 10
22.92644797521654
 20
45.68620498185483
 30
0.0
 11
22.92644797521654
 21
45.71730499591815
 31
0.0
  0
LINE
  5
7882
330
1E
100
AcDbEntity
  8
OBJECT
100
AcDbLine
 10
22.17644789261481
 20
45.71730499591815
 30
0.0
 11
22.17644789261481
 21
45.68620498185483
 31
0.0
  0
LINE
  5
7883
330
1E
100
AcDbEntity
  8
OBJECT
100
AcDbLine
 10
22.92644797521654
 20
45.71730499591815
 30
0.0
 11
22.92644797521654
 21
45.81090540797153
 31
0.0
  0
LINE
  5
7884
330
1E
100
AcDbEntity
  8
OBJECT
100
AcDbLine
 10
22.67644784990597
 20
45.71730499591815
 30
0.0
 11
22.67644784990597
 21
45.81090540797153
 31
0.0
  0
LINE
  5
7885
330
1E
100
AcDbEntity
  8
OBJECT
100
AcDbLine
 10
22.92644797521654
 20
45.81090540797153
 30
0.0
 11
22.67644784990597
 21
45.81090540797153
 31
0.0
  0
LINE
  5
7886
330
1E
100
AcDbEntity
  8
OBJECT
100
AcDbLine
 10
22.30144780860513
 20
45.81090540797153
 30
0.0
 11
22.17644789261481
 21
45.81090540797153
 31
0.0
  0
LINE
  5
7887
330
1E
100
AcDbEntity
  8
OBJECT
100
AcDbLine
 10
22.30144780860513
 20
45.73290545570031
 30
0.0
 11
22.17644789261481
 21
45.73290545570031
 31
0.0
  0
LINE
  5
7888
330
1E
100
AcDbEntity
  8
OBJECT
100
AcDbLine
 10
22.55144793391568
 20
45.81090540797153
 30
0.0
 11
22.67644784990597
 21
45.81090540797153
 31
0.0
  0
LINE
  5
7889
330
1E
100
AcDbEntity
  8
OBJECT
100
AcDbLine
 10
22.55144793391568
 20
45.73290545570031
 30
0.0
 11
22.67644784990597
 21
45.73290545570031
 31
0.0
  0
LINE
  5
788A
330
1E
100
AcDbEntity
  8
OBJECT
100
AcDbLine
 10
22.92644797521654
 20
45.81090540797153
 30
0.0
 11
22.92644797521654
 21
45.8265052810938
 31
0.0
  0
LINE
  5
788B
330
1E
100
AcDbEntity
  8
OBJECT
100
AcDbLine
 10
21.92644776730426
 20
45.81090540797153
 30
0.0
 11
21.92644776730426
 21
45.8265052810938
 31
0.0
  0
LINE
  5
788C
330
1E
100
AcDbEntity
  8
OBJECT
100
AcDbLine
 10
21.92644776730426
 20
45.8265052810938
 30
0.0
 11
21.92644776730426
 21
46.8429052728877
 31
0.0
  0
ARC
  5
788D
330
1E
100
AcDbEntity
  8
OBJECT
100
AcDbCircle
 10
22.05144783177041
 20
46.84290519544034
 30
0.0
 40
0.1250000000000071
100
AcDbArc
 50
90.0
 51
179.9999999999967
  0
LINE
  5
788E
330
1E
100
AcDbEntity
  8
OBJECT
100
AcDbLine
 10
22.80144776589628
 20
46.96790548220795
 30
0.0
 11
22.05144797662453
 21
46.96790548220795
 31
0.0
  0
ARC
  5
788F
330
1E
100
AcDbEntity
  8
OBJECT
100
AcDbCircle
 10
22.80144783177041
 20
46.84290519544034
 30
0.0
 40
0.1250000000000071
100
AcDbArc
 50
0.0
 51
90.0
  0
LINE
  5
7890
330
1E
100
AcDbEntity
  8
OBJECT
100
AcDbLine
 10
22.92644797521654
 20
45.8265052810938
 30
0.0
 11
22.92644797521654
 21
46.8429052728877
 31
0.0
  0
LINE
  5
7891
330
1E
100
AcDbEntity
  8
OBJECT
100
AcDbLine
 10
22.20794771539283
 20
46.44790540929316
 30
0.0
 11
22.20794771539283
 21
46.19790499065267
 31
0.0
  0
ARC
  5
7892
330
1E
100
AcDbEntity
  8
OBJECT
100
AcDbCircle
 10
22.42644783177041
 20
46.19790519544034
 30
0.0
 40
0.2184999999999988
100
AcDbArc
 50
180.0
 51
0.0
  0
LINE
  5
7893
330
1E
100
AcDbEntity
  8
OBJECT
100
AcDbLine
 10
22.644947733798
 20
46.19790499065267
 30
0.0
 11
22.644947733798
 21
46.44790540929316
 31
0.0
  0
ARC
  5
7894
330
1E
100
AcDbEntity
  8
OBJECT
100
AcDbCircle
 10
22.42644783177041
 20
46.44790519544033
 30
0.0
 40
0.2184999999999988
100
AcDbArc
 50
0.0
 51
180.0
  0
LINE
  5
7895
330
1E
100
AcDbEntity
  8
OBJECT
100
AcDbLine
 10
22.55144793391568
 20
29.89150493518036
 30
0.0
 11
22.55144793391568
 21
29.81350498290913
 31
0.0
  0
LINE
  5
7896
330
1E
100
AcDbEntity
  8
OBJECT
100
AcDbLine
 10
22.55144793391568
 20
29.81350498290913
 30
0.0
 11
22.42644772459545
 21
29.81350498290913
 31
0.0
  0
LINE
  5
7897
330
1E
100
AcDbEntity
  8
OBJECT
100
AcDbLine
 10
22.42644772459545
 20
29.89150493518036
 30
0.0
 11
22.55144793391568
 21
29.89150493518036
 31
0.0
  0
LINE
  5
7898
330
1E
100
AcDbEntity
  8
OBJECT
100
AcDbLine
 10
22.42644772459545
 20
29.81350498290913
 30
0.0
 11
22.30144780860513
 21
29.81350498290913
 31
0.0
  0
LINE
  5
7899
330
1E
100
AcDbEntity
  8
OBJECT
100
AcDbLine
 10
22.30144780860513
 20
29.81350498290913
 30
0.0
 11
22.30144780860513
 21
29.89150493518036
 31
0.0
  0
LINE
  5
789A
330
1E
100
AcDbEntity
  8
OBJECT
100
AcDbLine
 10
22.30144780860513
 20
29.89150493518036
 30
0.0
 11
22.42644772459545
 21
29.89150493518036
 31
0.0
  0
LINE
  5
789B
330
1E
100
AcDbEntity
  8
OBJECT
100
AcDbLine
 10
22.92644797521654
 20
29.93820540902584
 30
0.0
 11
22.92644797521654
 21
29.90710539496251
 31
0.0
  0
LINE
  5
789C
330
1E
100
AcDbEntity
  8
OBJECT
100
AcDbLine
 10
22.67644784990597
 20
29.90710539496251
 30
0.0
 11
22.67644784990597
 21
29.93820540902584
 31
0.0
  0
LINE
  5
789D
330
1E
100
AcDbEntity
  8
OBJECT
100
AcDbLine
 10
22.17644789261481
 20
29.93820540902584
 30
0.0
 11
22.17644789261481
 21
29.90710539496251
 31
0.0
  0
LINE
  5
789E
330
1E
100
AcDbEntity
  8
OBJECT
100
AcDbLine
 10
21.92644776730426
 20
29.93820540902584
 30
0.0
 11
21.92644776730426
 21
29.90710539496251
 31
0.0
  0
LINE
  5
789F
330
1E
100
AcDbEntity
  8
OBJECT
100
AcDbLine
 10
22.92644797521654
 20
29.90710539496251
 30
0.0
 11
22.92644797521654
 21
29.81350498290913
 31
0.0
  0
LINE
  5
78A0
330
1E
100
AcDbEntity
  8
OBJECT
100
AcDbLine
 10
22.67644784990597
 20
29.81350498290913
 30
0.0
 11
22.67644784990597
 21
29.90710539496251
 31
0.0
  0
LINE
  5
78A1
330
1E
100
AcDbEntity
  8
OBJECT
100
AcDbLine
 10
22.67644784990597
 20
29.81350498290913
 30
0.0
 11
22.92644797521654
 21
29.81350498290913
 31
0.0
  0
LINE
  5
78A2
330
1E
100
AcDbEntity
  8
OBJECT
100
AcDbLine
 10
21.92644776730426
 20
29.90710539496251
 30
0.0
 11
21.92644776730426
 21
29.81350498290913
 31
0.0
  0
LINE
  5
78A3
330
1E
100
AcDbEntity
  8
OBJECT
100
AcDbLine
 10
22.17644789261481
 20
29.90710539496251
 30
0.0
 11
22.17644789261481
 21
29.81350498290913
 31
0.0
  0
LINE
  5
78A4
330
1E
100
AcDbEntity
  8
OBJECT
100
AcDbLine
 10
21.92644776730426
 20
29.81350498290913
 30
0.0
 11
22.17644789261481
 21
29.81350498290913
 31
0.0
  0
LINE
  5
78A5
330
1E
100
AcDbEntity
  8
OBJECT
100
AcDbLine
 10
22.55144793391568
 20
29.81350498290913
 30
0.0
 11
22.67644784990597
 21
29.81350498290913
 31
0.0
  0
LINE
  5
78A6
330
1E
100
AcDbEntity
  8
OBJECT
100
AcDbLine
 10
22.55144793391568
 20
29.89150493518036
 30
0.0
 11
22.67644784990597
 21
29.89150493518036
 31
0.0
  0
LINE
  5
78A7
330
1E
100
AcDbEntity
  8
OBJECT
100
AcDbLine
 10
22.30144780860513
 20
29.81350498290913
 30
0.0
 11
22.17644789261481
 21
29.81350498290913
 31
0.0
  0
LINE
  5
78A8
330
1E
100
AcDbEntity
  8
OBJECT
100
AcDbLine
 10
22.30144780860513
 20
29.89150493518036
 30
0.0
 11
22.17644789261481
 21
29.89150493518036
 31
0.0
  0
LINE
  5
78A9
330
1E
100
AcDbEntity
  8
OBJECT
100
AcDbLine
 10
21.92644776730426
 20
29.81350498290913
 30
0.0
 11
21.92644776730426
 21
29.79790510978686
 31
0.0
  0
LINE
  5
78AA
330
1E
100
AcDbEntity
  8
OBJECT
100
AcDbLine
 10
22.92644797521654
 20
29.81350498290913
 30
0.0
 11
22.92644797521654
 21
29.79790510978686
 31
0.0
  0
ARC
  5
78AB
330
1E
100
AcDbEntity
  8
OBJECT
100
AcDbCircle
 10
22.80144783177041
 20
28.78150519544033
 30
0.0
 40
0.125
100
AcDbArc
 50
270.0000000000008
 51
359.9999999999992
  0
LINE
  5
78AC
330
1E
100
AcDbEntity
  8
OBJECT
100
AcDbLine
 10
22.05144797662453
 20
28.65650490867271
 30
0.0
 11
22.80144776589628
 21
28.65650490867271
 31
0.0
  0
ARC
  5
78AD
330
1E
100
AcDbEntity
  8
OBJECT
100
AcDbCircle
 10
22.05144783177041
 20
28.78150519544033
 30
0.0
 40
0.125
100
AcDbArc
 50
180.0
 51
270.0000000000008
  0
LINE
  5
78AE
330
1E
100
AcDbEntity
  8
OBJECT
100
AcDbLine
 10
21.92644776730426
 20
29.79790510978686
 30
0.0
 11
21.92644776730426
 21
28.78150511799296
 31
0.0
  0
LINE
  5
78AF
330
1E
100
AcDbEntity
  8
OBJECT
100
AcDbLine
 10
22.644947733798
 20
29.17650498158749
 30
0.0
 11
22.644947733798
 21
29.42650540022799
 31
0.0
  0
ARC
  5
78B0
330
1E
100
AcDbEntity
  8
OBJECT
100
AcDbCircle
 10
22.42644783177041
 20
29.42650519544034
 30
0.0
 40
0.2184999999999988
100
AcDbArc
 50
0.0
 51
180.0
  0
LINE
  5
78B1
330
1E
100
AcDbEntity
  8
OBJECT
100
AcDbLine
 10
22.20794771539283
 20
29.42650540022799
 30
0.0
 11
22.20794771539283
 21
29.17650498158749
 31
0.0
  0
ARC
  5
78B2
330
1E
100
AcDbEntity
  8
OBJECT
100
AcDbCircle
 10
22.42644783177041
 20
29.17650519544034
 30
0.0
 40
0.2184999999999988
100
AcDbArc
 50
180.0
 51
0.0000000000008142
  0
LINE
  5
78B3
330
1E
100
AcDbEntity
  8
OBJECT
100
AcDbLine
 10
22.92644797521654
 20
29.79790510978686
 30
0.0
 11
22.92644797521654
 21
28.78150511799296
 31
0.0
  0
LINE
  5
78B4
330
1E
100
AcDbEntity
  8
OBJECT
100
AcDbLine
 10
8.260047854935692
 20
29.89150493518036
 30
0.0
 11
8.260047854935692
 21
29.81350498290913
 31
0.0
  0
LINE
  5
78B5
330
1E
100
AcDbEntity
  8
OBJECT
100
AcDbLine
 10
8.260047854935692
 20
29.81350498290913
 30
0.0
 11
8.135047938945376
 21
29.81350498290913
 31
0.0
  0
LINE
  5
78B6
330
1E
100
AcDbEntity
  8
OBJECT
100
AcDbLine
 10
8.135047938945376
 20
29.89150493518036
 30
0.0
 11
8.260047854935692
 21
29.89150493518036
 31
0.0
  0
LINE
  5
78B7
330
1E
100
AcDbEntity
  8
OBJECT
100
AcDbLine
 10
8.010047729625142
 20
29.81350498290913
 30
0.0
 11
8.010047729625142
 21
29.89150493518036
 31
0.0
  0
LINE
  5
78B8
330
1E
100
AcDbEntity
  8
OBJECT
100
AcDbLine
 10
8.135047938945376
 20
29.81350498290913
 30
0.0
 11
8.010047729625142
 21
29.81350498290913
 31
0.0
  0
LINE
  5
78B9
330
1E
100
AcDbEntity
  8
OBJECT
100
AcDbLine
 10
8.010047729625142
 20
29.89150493518036
 30
0.0
 11
8.135047938945376
 21
29.89150493518036
 31
0.0
  0
LINE
  5
78BA
330
1E
100
AcDbEntity
  8
OBJECT
100
AcDbLine
 10
8.635047896236528
 20
29.93820540902584
 30
0.0
 11
8.635047896236528
 21
29.90710539496251
 31
0.0
  0
LINE
  5
78BB
330
1E
100
AcDbEntity
  8
OBJECT
100
AcDbLine
 10
8.385047770925979
 20
29.90710539496251
 30
0.0
 11
8.385047770925979
 21
29.93820540902584
 31
0.0
  0
LINE
  5
78BC
330
1E
100
AcDbEntity
  8
OBJECT
100
AcDbLine
 10
7.885047813634827
 20
29.93820540902584
 30
0.0
 11
7.885047813634827
 21
29.90710539496251
 31
0.0
  0
LINE
  5
78BD
330
1E
100
AcDbEntity
  8
OBJECT
100
AcDbLine
 10
7.635047688324277
 20
29.93820540902584
 30
0.0
 11
7.635047688324277
 21
29.90710539496251
 31
0.0
  0
LINE
  5
78BE
330
1E
100
AcDbEntity
  8
OBJECT
100
AcDbLine
 10
8.635047896236528
 20
29.90710539496251
 30
0.0
 11
8.635047896236528
 21
29.81350498290913
 31
0.0
  0
LINE
  5
78BF
330
1E
100
AcDbEntity
  8
OBJECT
100
AcDbLine
 10
8.385047770925979
 20
29.81350498290913
 30
0.0
 11
8.385047770925979
 21
29.90710539496251
 31
0.0
  0
LINE
  5
78C0
330
1E
100
AcDbEntity
  8
OBJECT
100
AcDbLine
 10
8.385047770925979
 20
29.81350498290913
 30
0.0
 11
8.635047896236528
 21
29.81350498290913
 31
0.0
  0
LINE
  5
78C1
330
1E
100
AcDbEntity
  8
OBJECT
100
AcDbLine
 10
7.635047688324277
 20
29.90710539496251
 30
0.0
 11
7.635047688324277
 21
29.81350498290913
 31
0.0
  0
LINE
  5
78C2
330
1E
100
AcDbEntity
  8
OBJECT
100
AcDbLine
 10
7.885047813634827
 20
29.90710539496251
 30
0.0
 11
7.885047813634827
 21
29.81350498290913
 31
0.0
  0
LINE
  5
78C3
330
1E
100
AcDbEntity
  8
OBJECT
100
AcDbLine
 10
7.635047688324277
 20
29.81350498290913
 30
0.0
 11
7.885047813634827
 21
29.81350498290913
 31
0.0
  0
LINE
  5
78C4
330
1E
100
AcDbEntity
  8
OBJECT
100
AcDbLine
 10
8.260047854935692
 20
29.81350498290913
 30
0.0
 11
8.385047770925979
 21
29.81350498290913
 31
0.0
  0
LINE
  5
78C5
330
1E
100
AcDbEntity
  8
OBJECT
100
AcDbLine
 10
8.260047854935692
 20
29.89150493518036
 30
0.0
 11
8.385047770925979
 21
29.89150493518036
 31
0.0
  0
LINE
  5
78C6
330
1E
100
AcDbEntity
  8
OBJECT
100
AcDbLine
 10
8.010047729625142
 20
29.81350498290913
 30
0.0
 11
7.885047813634827
 21
29.81350498290913
 31
0.0
  0
LINE
  5
78C7
330
1E
100
AcDbEntity
  8
OBJECT
100
AcDbLine
 10
8.010047729625142
 20
29.89150493518036
 30
0.0
 11
7.885047813634827
 21
29.89150493518036
 31
0.0
  0
LINE
  5
78C8
330
1E
100
AcDbEntity
  8
OBJECT
100
AcDbLine
 10
7.635047688324277
 20
29.81350498290913
 30
0.0
 11
7.635047688324277
 21
29.79790510978686
 31
0.0
  0
LINE
  5
78C9
330
1E
100
AcDbEntity
  8
OBJECT
100
AcDbLine
 10
8.635047896236528
 20
29.81350498290913
 30
0.0
 11
8.635047896236528
 21
29.79790510978686
 31
0.0
  0
LINE
  5
78CA
330
1E
100
AcDbEntity
  8
OBJECT
100
AcDbLine
 10
8.635047896236528
 20
29.79790510978686
 30
0.0
 11
8.635047896236528
 21
28.78150511799296
 31
0.0
  0
ARC
  5
78CB
330
1E
100
AcDbEntity
  8
OBJECT
100
AcDbCircle
 10
8.510047831770407
 20
28.78150519544033
 30
0.0
 40
0.125
100
AcDbArc
 50
270.0000000000008
 51
359.9999999999992
  0
LINE
  5
78CC
330
1E
100
AcDbEntity
  8
OBJECT
100
AcDbLine
 10
7.760047897644511
 20
28.65650490867271
 30
0.0
 11
8.510047686916294
 21
28.65650490867271
 31
0.0
  0
ARC
  5
78CD
330
1E
100
AcDbEntity
  8
OBJECT
100
AcDbCircle
 10
7.760047831770407
 20
28.78150519544033
 30
0.0
 40
0.125
100
AcDbArc
 50
180.0
 51
270.0000000000008
  0
LINE
  5
78CE
330
1E
100
AcDbEntity
  8
OBJECT
100
AcDbLine
 10
7.635047688324277
 20
29.79790510978686
 30
0.0
 11
7.635047688324277
 21
28.78150511799296
 31
0.0
  0
ARC
  5
78CF
330
1E
100
AcDbEntity
  8
OBJECT
100
AcDbCircle
 10
8.135047831770407
 20
29.42650519544034
 30
0.0
 40
0.2185000000000024
100
AcDbArc
 50
0.0
 51
179.9999999999991
  0
LINE
  5
78D0
330
1E
100
AcDbEntity
  8
OBJECT
100
AcDbLine
 10
7.91654792974279
 20
29.42650540022799
 30
0.0
 11
7.91654792974279
 21
29.17650498158749
 31
0.0
  0
ARC
  5
78D1
330
1E
100
AcDbEntity
  8
OBJECT
100
AcDbCircle
 10
8.135047831770407
 20
29.17650519544034
 30
0.0
 40
0.2185000000000024
100
AcDbArc
 50
179.9999999999991
 51
0.0000000000008142
  0
LINE
  5
78D2
330
1E
100
AcDbEntity
  8
OBJECT
100
AcDbLine
 10
8.353547948147962
 20
29.17650498158749
 30
0.0
 11
8.353547948147962
 21
29.42650540022799
 31
0.0
  0
LINE
  5
78D3
330
1E
100
AcDbEntity
  8
OBJECT
100
AcDbLine
 10
8.010047729625142
 20
45.73290545570031
 30
0.0
 11
8.010047729625142
 21
45.81090540797153
 31
0.0
  0
LINE
  5
78D4
330
1E
100
AcDbEntity
  8
OBJECT
100
AcDbLine
 10
8.010047729625142
 20
45.81090540797153
 30
0.0
 11
8.135047938945376
 21
45.81090540797153
 31
0.0
  0
LINE
  5
78D5
330
1E
100
AcDbEntity
  8
OBJECT
100
AcDbLine
 10
8.135047938945376
 20
45.73290545570031
 30
0.0
 11
8.010047729625142
 21
45.73290545570031
 31
0.0
  0
LINE
  5
78D6
330
1E
100
AcDbEntity
  8
OBJECT
100
AcDbLine
 10
8.260047854935692
 20
45.81090540797153
 30
0.0
 11
8.260047854935692
 21
45.73290545570031
 31
0.0
  0
LINE
  5
78D7
330
1E
100
AcDbEntity
  8
OBJECT
100
AcDbLine
 10
8.135047938945376
 20
45.81090540797153
 30
0.0
 11
8.260047854935692
 21
45.81090540797153
 31
0.0
  0
LINE
  5
78D8
330
1E
100
AcDbEntity
  8
OBJECT
100
AcDbLine
 10
8.260047854935692
 20
45.73290545570031
 30
0.0
 11
8.135047938945376
 21
45.73290545570031
 31
0.0
  0
LINE
  5
78D9
330
1E
100
AcDbEntity
  8
OBJECT
100
AcDbLine
 10
7.635047688324277
 20
45.68620498185483
 30
0.0
 11
7.635047688324277
 21
45.71730499591815
 31
0.0
  0
LINE
  5
78DA
330
1E
100
AcDbEntity
  8
OBJECT
100
AcDbLine
 10
7.885047813634827
 20
45.71730499591815
 30
0.0
 11
7.885047813634827
 21
45.68620498185483
 31
0.0
  0
LINE
  5
78DB
330
1E
100
AcDbEntity
  8
OBJECT
100
AcDbLine
 10
8.385047770925979
 20
45.68620498185483
 30
0.0
 11
8.385047770925979
 21
45.71730499591815
 31
0.0
  0
LINE
  5
78DC
330
1E
100
AcDbEntity
  8
OBJECT
100
AcDbLine
 10
8.635047896236528
 20
45.68620498185483
 30
0.0
 11
8.635047896236528
 21
45.71730499591815
 31
0.0
  0
LINE
  5
78DD
330
1E
100
AcDbEntity
  8
OBJECT
100
AcDbLine
 10
7.635047688324277
 20
45.71730499591815
 30
0.0
 11
7.635047688324277
 21
45.81090540797153
 31
0.0
  0
LINE
  5
78DE
330
1E
100
AcDbEntity
  8
OBJECT
100
AcDbLine
 10
7.885047813634827
 20
45.81090540797153
 30
0.0
 11
7.885047813634827
 21
45.71730499591815
 31
0.0
  0
LINE
  5
78DF
330
1E
100
AcDbEntity
  8
OBJECT
100
AcDbLine
 10
7.885047813634827
 20
45.81090540797153
 30
0.0
 11
7.635047688324277
 21
45.81090540797153
 31
0.0
  0
LINE
  5
78E0
330
1E
100
AcDbEntity
  8
OBJECT
100
AcDbLine
 10
8.635047896236528
 20
45.71730499591815
 30
0.0
 11
8.635047896236528
 21
45.81090540797153
 31
0.0
  0
LINE
  5
78E1
330
1E
100
AcDbEntity
  8
OBJECT
100
AcDbLine
 10
8.385047770925979
 20
45.71730499591815
 30
0.0
 11
8.385047770925979
 21
45.81090540797153
 31
0.0
  0
LINE
  5
78E2
330
1E
100
AcDbEntity
  8
OBJECT
100
AcDbLine
 10
8.635047896236528
 20
45.81090540797153
 30
0.0
 11
8.385047770925979
 21
45.81090540797153
 31
0.0
  0
LINE
  5
78E3
330
1E
100
AcDbEntity
  8
OBJECT
100
AcDbLine
 10
8.010047729625142
 20
45.81090540797153
 30
0.0
 11
7.885047813634827
 21
45.81090540797153
 31
0.0
  0
LINE
  5
78E4
330
1E
100
AcDbEntity
  8
OBJECT
100
AcDbLine
 10
8.010047729625142
 20
45.73290545570031
 30
0.0
 11
7.885047813634827
 21
45.73290545570031
 31
0.0
  0
LINE
  5
78E5
330
1E
100
AcDbEntity
  8
OBJECT
100
AcDbLine
 10
8.260047854935692
 20
45.81090540797153
 30
0.0
 11
8.385047770925979
 21
45.81090540797153
 31
0.0
  0
LINE
  5
78E6
330
1E
100
AcDbEntity
  8
OBJECT
100
AcDbLine
 10
8.260047854935692
 20
45.73290545570031
 30
0.0
 11
8.385047770925979
 21
45.73290545570031
 31
0.0
  0
LINE
  5
78E7
330
1E
100
AcDbEntity
  8
OBJECT
100
AcDbLine
 10
8.635047896236528
 20
45.81090540797153
 30
0.0
 11
8.635047896236528
 21
45.8265052810938
 31
0.0
  0
LINE
  5
78E8
330
1E
100
AcDbEntity
  8
OBJECT
100
AcDbLine
 10
7.635047688324277
 20
45.81090540797153
 30
0.0
 11
7.635047688324277
 21
45.8265052810938
 31
0.0
  0
LINE
  5
78E9
330
1E
100
AcDbEntity
  8
OBJECT
100
AcDbLine
 10
7.635047688324277
 20
45.8265052810938
 30
0.0
 11
7.635047688324277
 21
46.8429052728877
 31
0.0
  0
ARC
  5
78EA
330
1E
100
AcDbEntity
  8
OBJECT
100
AcDbCircle
 10
7.760047831770407
 20
46.84290519544034
 30
0.0
 40
0.125
100
AcDbArc
 50
90.0
 51
179.9999999999967
  0
LINE
  5
78EB
330
1E
100
AcDbEntity
  8
OBJECT
100
AcDbLine
 10
8.510047686916294
 20
46.96790548220795
 30
0.0
 11
7.760047897644511
 21
46.96790548220795
 31
0.0
  0
ARC
  5
78EC
330
1E
100
AcDbEntity
  8
OBJECT
100
AcDbCircle
 10
8.510047831770407
 20
46.84290519544034
 30
0.0
 40
0.1250000000000035
100
AcDbArc
 50
0.0
 51
90.0
  0
LINE
  5
78ED
330
1E
100
AcDbEntity
  8
OBJECT
100
AcDbLine
 10
8.635047896236528
 20
45.8265052810938
 30
0.0
 11
8.635047896236528
 21
46.8429052728877
 31
0.0
  0
LINE
  5
78EE
330
1E
100
AcDbEntity
  8
OBJECT
100
AcDbLine
 10
7.91654792974279
 20
46.44790540929316
 30
0.0
 11
7.91654792974279
 21
46.19790499065267
 31
0.0
  0
ARC
  5
78EF
330
1E
100
AcDbEntity
  8
OBJECT
100
AcDbCircle
 10
8.135047831770407
 20
46.19790519544032
 30
0.0
 40
0.2184999999999988
100
AcDbArc
 50
180.0
 51
0.0
  0
LINE
  5
78F0
330
1E
100
AcDbEntity
  8
OBJECT
100
AcDbLine
 10
8.353547948147962
 20
46.19790499065267
 30
0.0
 11
8.353547948147962
 21
46.44790540929316
 31
0.0
  0
ARC
  5
78F1
330
1E
100
AcDbEntity
  8
OBJECT
100
AcDbCircle
 10
8.135047831770407
 20
46.44790519544033
 30
0.0
 40
0.2184999999999988
100
AcDbArc
 50
0.0
 51
179.9999999999991
  0
LINE
  5
78F2
330
1E
100
AcDbEntity
  8
OBJECT
100
AcDbLine
 10
21.7457477214333
 20
38.17392505348832
 30
0.0
 11
21.7457477214333
 21
37.97908239766064
 31
0.0
  0
LINE
  5
78F3
330
1E
100
AcDbEntity
  8
OBJECT
100
AcDbLine
 10
21.62774783124476
 20
38.17392505348832
 30
0.0
 11
21.7457477214333
 21
38.17392505348832
 31
0.0
  0
LINE
  5
78F4
330
1E
100
AcDbEntity
  8
OBJECT
100
AcDbLine
 10
21.62774783124476
 20
37.97908239766064
 30
0.0
 11
21.62774783124476
 21
38.17392505348832
 31
0.0
  0
ARC
  5
78F5
330
1E
100
AcDbEntity
  8
OBJECT
100
AcDbCircle
 10
21.68674783177047
 20
37.81220519544032
 30
0.0
 40
0.1770000000000018
100
AcDbArc
 50
109.4712206344913
 51
250.5287793655096
  0
LINE
  5
78F6
330
1E
100
AcDbEntity
  8
OBJECT
100
AcDbLine
 10
21.62774783124476
 20
37.45048533739233
 30
0.0
 11
21.62774783124476
 21
37.64532799322001
 31
0.0
  0
LINE
  5
78F7
330
1E
100
AcDbEntity
  8
OBJECT
100
AcDbLine
 10
21.7457477214333
 20
37.45048533739233
 30
0.0
 11
21.62774783124476
 21
37.45048533739233
 31
0.0
  0
LINE
  5
78F8
330
1E
100
AcDbEntity
  8
OBJECT
100
AcDbLine
 10
21.7457477214333
 20
37.64532799322001
 30
0.0
 11
21.7457477214333
 21
37.45048533739233
 31
0.0
  0
ARC
  5
78F9
330
1E
100
AcDbEntity
  8
OBJECT
100
AcDbCircle
 10
21.68674783177047
 20
37.81220519544032
 30
0.0
 40
0.1770000000000018
100
AcDbArc
 50
289.4712206344913
 51
70.5287793655087
  0
CIRCLE
  5
78FA
330
1E
100
AcDbEntity
  8
OBJECT
100
AcDbCircle
 10
21.68674783177047
 20
37.81220519544032
 30
0.0
 40
0.0590000000000011
  0
CIRCLE
  5
78FB
330
1E
100
AcDbEntity
  8
OBJECT
100
AcDbCircle
 10
21.68674783177047
 20
37.81220519544032
 30
0.0
 40
0.5509999999999984
  0
CIRCLE
  5
78FC
330
1E
100
AcDbEntity
  8
OBJECT
100
AcDbCircle
 10
21.68674783177047
 20
37.81220519544032
 30
0.0
 40
0.3955000000000019
  0
LINE
  5
78FD
330
1E
100
AcDbEntity
  8
OBJECT
100
AcDbLine
 10
23.15474784454363
 20
30.0154553166283
 30
0.0
 11
23.15474784454363
 21
45.60895507425236
 31
0.0
  0
LINE
  5
78FE
330
1E
100
AcDbEntity
  8
OBJECT
100
AcDbLine
 10
7.483747809486715
 20
29.93845532613878
 30
0.0
 11
23.07774785405411
 21
29.93845532613878
 31
0.0
  0
ARC
  5
78FF
330
1E
100
AcDbEntity
  8
OBJECT
100
AcDbCircle
 10
23.07774783177046
 20
30.01545519544032
 30
0.0
 40
0.0770000000000017
100
AcDbArc
 50
269.9999999999983
 51
0.0000000000081422
  0
LINE
  5
7900
330
1E
100
AcDbEntity
  8
OBJECT
100
AcDbLine
 10
7.406747818997189
 20
30.0154553166283
 30
0.0
 11
7.406747818997189
 21
45.60895507425236
 31
0.0
  0
ARC
  5
7901
330
1E
100
AcDbEntity
  8
OBJECT
100
AcDbCircle
 10
7.483747831770472
 20
30.01545519544034
 30
0.0
 40
0.0769999999999982
100
AcDbArc
 50
179.9999999999947
 51
270.0000000000057
  0
ARC
  5
7902
330
1E
100
AcDbEntity
  8
OBJECT
100
AcDbCircle
 10
23.07774783177046
 20
45.60895519544033
 30
0.0
 40
0.0769999999999982
100
AcDbArc
 50
0.0000000000052924
 51
90.00000000000486
  0
LINE
  5
7903
330
1E
100
AcDbEntity
  8
OBJECT
100
AcDbLine
 10
23.07774785405411
 20
45.6859550647419
 30
0.0
 11
7.483747809486715
 21
45.6859550647419
 31
0.0
  0
ARC
  5
7904
330
1E
100
AcDbEntity
  8
OBJECT
100
AcDbCircle
 10
7.483747831770472
 20
45.60895519544033
 30
0.0
 40
0.0769999999999982
100
AcDbArc
 50
89.99999999999756
 51
180.0
  0
LINE
  5
7905
330
1E
100
AcDbEntity
  8
OBJECT
100
AcDbLine
 10
7.475818807749902
 20
45.68620498185483
 30
0.0
 11
7.475944939626145
 21
45.68555877598652
 31
0.0
  0
LINE
  5
7906
330
1E
100
AcDbEntity
  8
OBJECT
100
AcDbLine
 10
7.475818807749902
 20
45.68620498185483
 30
0.0
 11
23.08567685579092
 21
45.68620498185483
 31
0.0
  0
LINE
  5
7907
330
1E
100
AcDbEntity
  8
OBJECT
100
AcDbLine
 10
23.08555072391468
 20
45.68555877598652
 30
0.0
 11
23.08567685579092
 21
45.68620498185483
 31
0.0
  0
LINE
  5
7908
330
1E
100
AcDbEntity
  8
OBJECT
100
AcDbLine
 10
23.08567685579092
 20
45.68620498185483
 30
0.0
 11
23.08567685579092
 21
45.68554586946895
 31
0.0
  0
LINE
  5
7909
330
1E
100
AcDbEntity
  8
OBJECT
100
AcDbLine
 10
23.15432104947399
 20
30.00735941015291
 30
0.0
 11
23.15474784454363
 21
30.00727639777855
 31
0.0
  0
LINE
  5
790A
330
1E
100
AcDbEntity
  8
OBJECT
100
AcDbLine
 10
23.15474784454363
 20
30.00727639777855
 30
0.0
 11
23.15431224957567
 21
30.00727639777855
 31
0.0
  0
LINE
  5
790B
330
1E
100
AcDbEntity
  8
OBJECT
100
AcDbLine
 10
23.08567685579092
 20
29.93820540902584
 30
0.0
 11
23.08555072391468
 21
29.93885161489414
 31
0.0
  0
LINE
  5
790C
330
1E
100
AcDbEntity
  8
OBJECT
100
AcDbLine
 10
23.08567685579092
 20
29.93820540902584
 30
0.0
 11
7.475818807749902
 21
29.93820540902584
 31
0.0
  0
LINE
  5
790D
330
1E
100
AcDbEntity
  8
OBJECT
100
AcDbLine
 10
7.406747818997189
 20
30.00727639777855
 30
0.0
 11
7.406747818997189
 21
30.0154553166283
 31
0.0
  0
LINE
  5
790E
330
1E
100
AcDbEntity
  8
OBJECT
100
AcDbLine
 10
7.406747818997189
 20
45.60895507425236
 30
0.0
 11
7.406747818997189
 21
45.61713399310213
 31
0.0
  0
LINE
  5
790F
330
1E
100
AcDbEntity
  8
OBJECT
100
AcDbLine
 10
7.407174614066803
 20
45.61705098072775
 30
0.0
 11
7.406747818997189
 21
45.61713399310213
 31
0.0
  0
LINE
  5
7910
330
1E
100
AcDbEntity
  8
OBJECT
100
AcDbLine
 10
7.475818807749902
 20
45.68620498185483
 30
0.0
 11
7.475818807749902
 21
45.68554586946895
 31
0.0
  0
LINE
  5
7911
330
1E
100
AcDbEntity
  8
OBJECT
100
AcDbLine
 10
7.475818807749902
 20
29.93820540902584
 30
0.0
 11
7.468747796101496
 21
29.93820540902584
 31
0.0
  0
LINE
  5
7912
330
1E
100
AcDbEntity
  8
OBJECT
100
AcDbLine
 10
7.406747818997189
 20
30.00727639777855
 30
0.0
 11
7.406747818997189
 21
30.0002050928002
 31
0.0
  0
LINE
  5
7913
330
1E
100
AcDbEntity
  8
OBJECT
100
AcDbLine
 10
23.15474784454363
 20
45.61713399310213
 30
0.0
 11
23.15432104947399
 21
45.61705098072775
 31
0.0
  0
LINE
  5
7914
330
1E
100
AcDbEntity
  8
OBJECT
100
AcDbLine
 10
23.15474784454363
 20
45.61713399310213
 30
0.0
 11
23.15474784454363
 21
45.60895507425236
 31
0.0
  0
LINE
  5
7915
330
1E
100
AcDbEntity
  8
OBJECT
100
AcDbLine
 10
23.15474784454363
 20
30.0154553166283
 30
0.0
 11
23.15474784454363
 21
30.00727639777855
 31
0.0
  0
ARC
  5
7916
330
1E
100
AcDbEntity
  8
OBJECT
100
AcDbCircle
 10
7.4687478317704
 20
30.00020519544033
 30
0.0
 40
0.0620000000000012
100
AcDbArc
 50
180.0
 51
270.0000000000008
  0
LINE
  5
7917
330
1E
100
AcDbEntity
  8
OBJECT
100
AcDbLine
 10
7.406747818997189
 20
45.61713399310213
 30
0.0
 11
7.407183413965157
 21
45.61713399310213
 31
0.0
  0
LINE
  5
7918
330
1E
100
AcDbEntity
  8
OBJECT
100
AcDbLine
 10
23.08567685579092
 20
29.93820540902584
 30
0.0
 11
23.08567685579092
 21
29.93886452141171
 31
0.0
  0
LINE
  5
7919
330
1E
100
AcDbEntity
  8
OBJECT
100
AcDbLine
 10
23.15474784454363
 20
45.61713399310213
 30
0.0
 11
23.15431224957567
 21
45.61713399310213
 31
0.0
  0
LINE
  5
791A
330
1E
100
AcDbEntity
  8
BEND
100
AcDbLine
 10
70.34944688151293
 20
41.81907622021244
 30
0.0
 11
87.40057293894812
 21
41.81907622021244
 31
0.0
  0
LINE
  5
791B
330
1E
100
AcDbEntity
  8
OBJECT
100
AcDbLine
 10
86.61602961074356
 20
15.38924418427458
 30
0.0
 11
71.0220295661762
 21
15.38924418427458
 31
0.0
  0
LINE
  5
791C
330
1E
100
AcDbEntity
  8
OBJECT
100
AcDbLine
 10
86.61602961074356
 20
15.32724418425388
 30
0.0
 11
71.0220295661762
 21
15.32724418425388
 31
0.0
  0
ARC
  5
791D
330
1E
100
AcDbEntity
  8
OBJECT
100
AcDbCircle
 10
86.61602958845987
 20
15.40424418425388
 30
0.0
 40
0.0769999999999982
100
AcDbArc
 50
270.0000000000008
 51
0.0
  0
LINE
  5
791E
330
1E
100
AcDbEntity
  8
OBJECT
100
AcDbLine
 10
86.63102962412882
 20
22.29524403807889
 30
0.0
 11
86.63102962412882
 21
15.40424418390998
 31
0.0
  0
LINE
  5
791F
330
1E
100
AcDbEntity
  8
OBJECT
100
AcDbLine
 10
85.897029516694
 20
22.38724404195366
 30
0.0
 11
85.897029516694
 21
22.76503071772975
 31
0.0
  0
LINE
  5
7920
330
1E
100
AcDbEntity
  8
OBJECT
100
AcDbLine
 10
86.61602961074356
 20
22.37224432189838
 30
0.0
 11
85.97402950718356
 21
22.37224432189838
 31
0.0
  0
LINE
  5
7921
330
1E
100
AcDbEntity
  8
OBJECT
100
AcDbLine
 10
86.10218888000886
 20
23.00208472592828
 30
0.0
 11
86.14602968022285
 21
22.95824421904423
 31
0.0
  0
ARC
  5
7922
330
1E
100
AcDbEntity
  8
OBJECT
100
AcDbCircle
 10
85.97402958845988
 20
22.76503098081829
 30
0.0
 40
0.0150000000000006
100
AcDbArc
 50
135.0000000000001
 51
180.0
  0
LINE
  5
7923
330
1E
100
AcDbEntity
  8
OBJECT
100
AcDbLine
 10
85.96342298971094
 20
22.7756375285323
 30
0.0
 11
86.14602968022285
 21
22.95824421904423
 31
0.0
  0
ARC
  5
7924
330
1E
100
AcDbEntity
  8
OBJECT
100
AcDbCircle
 10
71.02202958845987
 20
15.40424418425388
 30
0.0
 40
0.0770000000000053
100
AcDbArc
 50
180.0
 51
269.9999999995619
  0
ARC
  5
7925
330
1E
100
AcDbEntity
  8
OBJECT
100
AcDbCircle
 10
71.02202958845987
 20
15.40424418425388
 30
0.0
 40
0.0150000000000006
100
AcDbArc
 50
179.9999999999662
 51
270.0000000000008
  0
ARC
  5
7926
330
1E
100
AcDbEntity
  8
OBJECT
100
AcDbCircle
 10
86.61602958845987
 20
15.40424418425388
 30
0.0
 40
0.0150000000000006
100
AcDbArc
 50
270.0000000000008
 51
0.0000000000337902
  0
LINE
  5
7927
330
1E
100
AcDbEntity
  8
OBJECT
100
AcDbLine
 10
71.6640296697362
 20
22.37224432189838
 30
0.0
 11
71.0220295661762
 21
22.37224432189838
 31
0.0
  0
LINE
  5
7928
330
1E
100
AcDbEntity
  8
OBJECT
100
AcDbLine
 10
71.49202949669689
 20
22.95824421904423
 30
0.0
 11
71.67463618720882
 21
22.7756375285323
 31
0.0
  0
ARC
  5
7929
330
1E
100
AcDbEntity
  8
OBJECT
100
AcDbCircle
 10
71.66402958845989
 20
22.76503098081829
 30
0.0
 40
0.0150000000000006
100
AcDbArc
 50
0.0
 51
44.99999999999984
  0
LINE
  5
792A
330
1E
100
AcDbEntity
  8
OBJECT
100
AcDbLine
 10
71.67902968312145
 20
22.76503071772975
 30
0.0
 11
71.67902968312145
 21
22.38724404195366
 31
0.0
  0
ARC
  5
792B
330
1E
100
AcDbEntity
  8
OBJECT
100
AcDbCircle
 10
71.66402958845989
 20
22.38724418425388
 30
0.0
 40
0.0150000000000006
100
AcDbArc
 50
270.0000000000008
 51
0.0
  0
ARC
  5
792C
330
1E
100
AcDbEntity
  8
OBJECT
100
AcDbCircle
 10
71.02202958845987
 20
22.29524418425389
 30
0.0
 40
0.0769999999999982
100
AcDbArc
 50
90.0
 51
180.0
  0
LINE
  5
792D
330
1E
100
AcDbEntity
  8
OBJECT
100
AcDbLine
 10
70.94502957568664
 20
15.40424418390998
 30
0.0
 11
70.94502957568664
 21
22.29524403807889
 31
0.0
  0
LINE
  5
792E
330
1E
100
AcDbEntity
  8
OBJECT
100
AcDbLine
 10
71.6640296697362
 20
22.31024434479407
 30
0.0
 11
71.0220295661762
 21
22.31024434479407
 31
0.0
  0
LINE
  5
792F
330
1E
100
AcDbEntity
  8
OBJECT
100
AcDbLine
 10
71.53587029691087
 20
23.00208472592828
 30
0.0
 11
71.71847669409285
 21
22.81947803541635
 31
0.0
  0
ARC
  5
7930
330
1E
100
AcDbEntity
  8
OBJECT
100
AcDbCircle
 10
71.66402958845989
 20
22.76503098081829
 30
0.0
 40
0.0769999999999993
100
AcDbArc
 50
0.0
 51
44.99999999999631
  0
LINE
  5
7931
330
1E
100
AcDbEntity
  8
OBJECT
100
AcDbLine
 10
71.74102966022573
 20
22.76503071772975
 30
0.0
 11
71.74102966022573
 21
22.38724404195366
 31
0.0
  0
ARC
  5
7932
330
1E
100
AcDbEntity
  8
OBJECT
100
AcDbCircle
 10
71.66402958845989
 20
22.38724418425388
 30
0.0
 40
0.0769999999999982
100
AcDbArc
 50
270.0000000000008
 51
0.0
  0
ARC
  5
7933
330
1E
100
AcDbEntity
  8
OBJECT
100
AcDbCircle
 10
71.02202958845987
 20
22.29524418425389
 30
0.0
 40
0.0150000000000006
100
AcDbArc
 50
90.0
 51
180.0
  0
LINE
  5
7934
330
1E
100
AcDbEntity
  8
OBJECT
100
AcDbLine
 10
71.00702955279095
 20
15.40424418390998
 30
0.0
 11
71.00702955279095
 21
22.29524403807889
 31
0.0
  0
LINE
  5
7935
330
1E
100
AcDbEntity
  8
OBJECT
100
AcDbLine
 10
85.95902949379832
 20
22.38724404195366
 30
0.0
 11
85.95902949379832
 21
22.76503071772975
 31
0.0
  0
ARC
  5
7936
330
1E
100
AcDbEntity
  8
OBJECT
100
AcDbCircle
 10
85.97402958845988
 20
22.38724418425388
 30
0.0
 40
0.0150000000000006
100
AcDbArc
 50
180.0
 51
270.0000000000008
  0
ARC
  5
7937
330
1E
100
AcDbEntity
  8
OBJECT
100
AcDbCircle
 10
86.61602958845987
 20
22.29524418425389
 30
0.0
 40
0.0769999999999982
100
AcDbArc
 50
0.0
 51
90.0
  0
LINE
  5
7938
330
1E
100
AcDbEntity
  8
OBJECT
100
AcDbLine
 10
86.69302960123308
 20
22.29524403807889
 30
0.0
 11
86.69302960123308
 21
15.40424418390998
 31
0.0
  0
LINE
  5
7939
330
1E
100
AcDbEntity
  8
OBJECT
100
AcDbLine
 10
86.61602961074356
 20
22.31024434479407
 30
0.0
 11
85.97402950718356
 21
22.31024434479407
 31
0.0
  0
LINE
  5
793A
330
1E
100
AcDbEntity
  8
OBJECT
100
AcDbLine
 10
85.91958248282688
 20
22.81947803541635
 30
0.0
 11
86.10218888000886
 21
23.00208472592828
 31
0.0
  0
ARC
  5
793B
330
1E
100
AcDbEntity
  8
OBJECT
100
AcDbCircle
 10
85.97402958845988
 20
22.76503098081829
 30
0.0
 40
0.0770000000000018
100
AcDbArc
 50
135.0000000000017
 51
180.0
  0
LINE
  5
793C
330
1E
100
AcDbEntity
  8
OBJECT
100
AcDbLine
 10
71.49202949669689
 20
22.95824421904423
 30
0.0
 11
71.53587029691087
 21
23.00208472592828
 31
0.0
  0
ARC
  5
793D
330
1E
100
AcDbEntity
  8
OBJECT
100
AcDbCircle
 10
85.97402958845988
 20
22.38724418425388
 30
0.0
 40
0.0769999999999982
100
AcDbArc
 50
180.0
 51
270.0000000000008
  0
ARC
  5
793E
330
1E
100
AcDbEntity
  8
OBJECT
100
AcDbCircle
 10
86.61602958845987
 20
22.29524418425389
 30
0.0
 40
0.0150000000000006
100
AcDbArc
 50
0.0
 51
90.0
  0
LINE
  5
793F
330
1E
100
AcDbEntity
  8
OBJECT
100
AcDbLine
 10
85.88995850504559
 20
22.76503071772975
 30
0.0
 11
85.88995850504559
 21
22.38724404195366
 31
0.0
  0
LINE
  5
7940
330
1E
100
AcDbEntity
  8
OBJECT
100
AcDbLine
 10
71.74810067187414
 20
22.38724404195366
 30
0.0
 11
71.74810067187414
 21
22.76503071772975
 31
0.0
  0
ARC
  5
7941
330
1E
100
AcDbEntity
  8
OBJECT
100
AcDbCircle
 10
85.96695852064582
 20
22.76503098081829
 30
0.0
 40
0.0770000000000124
100
AcDbArc
 50
134.9999999989627
 51
180.0
  0
ARC
  5
7942
330
1E
100
AcDbEntity
  8
OBJECT
100
AcDbCircle
 10
71.67110065626968
 20
22.76503098081829
 30
0.0
 40
0.0769999999999982
100
AcDbArc
 50
0.0
 51
45.00000000103921
  0
ELLIPSE
  5
7943
330
1E
100
AcDbEntity
  8
OBJECT
100
AcDbEllipse
 10
71.67110065626968
 20
22.76503098081829
 30
0.0
 11
0.0769999999999982
 21
0.0000000000000025
 31
0.0
210
0.0
220
0.0
230
1.0
 40
0.1948051948051065
 41
-0.000000000000169
 42
0.4400780455168292
  0
LINE
  5
7944
330
1E
100
AcDbEntity
  8
OBJECT
100
AcDbLine
 10
71.72554799907121
 20
22.81133988942892
 30
0.0
 11
71.72554799907121
 21
22.81947803541635
 31
0.0
  0
ARC
  5
7945
330
1E
100
AcDbEntity
  8
OBJECT
100
AcDbCircle
 10
85.96695852064582
 20
22.38724418425388
 30
0.0
 40
0.0770000000003677
100
AcDbArc
 50
180.0
 51
270.0000000006668
  0
LINE
  5
7946
330
1E
100
AcDbEntity
  8
OBJECT
100
AcDbLine
 10
71.67110068138462
 20
22.31024434479407
 30
0.0
 11
85.96695849553515
 21
22.31024434479407
 31
0.0
  0
ARC
  5
7947
330
1E
100
AcDbEntity
  8
OBJECT
100
AcDbCircle
 10
71.67110065626968
 20
22.38724418425388
 30
0.0
 40
0.0770000000003535
100
AcDbArc
 50
270.0000000000008
 51
0.0
  0
ELLIPSE
  5
7948
330
1E
100
AcDbEntity
  8
OBJECT
100
AcDbEllipse
 10
71.67110065626968
 20
22.38724418425388
 30
0.0
 11
0.0769999999999982
 21
0.0000000000000024
 31
0.0
210
0.0
220
0.0
230
1.0
 40
0.1948051948053064
 41
-0.4400780411869072
 42
-0.0000000000001588
  0
LINE
  5
7949
330
1E
100
AcDbEntity
  8
OBJECT
100
AcDbLine
 10
71.67110068138462
 20
22.31056935437286
 30
0.0
 11
71.67110068138462
 21
22.31024434479407
 31
0.0
  0
ELLIPSE
  5
794A
330
1E
100
AcDbEntity
  8
OBJECT
100
AcDbEllipse
 10
85.96695852064582
 20
22.38724418425388
 30
0.0
 11
-0.0769999999999982
 21
0.0000000000000023
 31
0.0
210
0.0
220
0.0
230
1.0
 40
0.1948051948052398
 41
0.0000000000001525
 42
0.440078047687603
  0
LINE
  5
794B
330
1E
100
AcDbEntity
  8
OBJECT
100
AcDbLine
 10
85.96695849553515
 20
22.31056935437286
 30
0.0
 11
85.96695849553515
 21
22.31024434479407
 31
0.0
  0
ELLIPSE
  5
794C
330
1E
100
AcDbEntity
  8
OBJECT
100
AcDbEllipse
 10
85.96695852064582
 20
22.76503098081829
 30
0.0
 11
0.0769999999999982
 21
0.000000000000006
 31
0.0
210
0.0
220
0.0
230
1.0
 40
0.1948051948053593
 41
2.701514600654356
 42
3.14159265358939
  0
LINE
  5
794D
330
1E
100
AcDbEntity
  8
OBJECT
100
AcDbLine
 10
85.91251117784853
 20
22.81133988942892
 30
0.0
 11
85.91251117784853
 21
22.81947803541635
 31
0.0
  0
LINE
  5
794E
330
1E
100
AcDbEntity
  8
OBJECT
100
AcDbLine
 10
86.09511786836046
 20
23.00208472592828
 30
0.0
 11
85.91251117784853
 21
22.81947803541635
 31
0.0
  0
LINE
  5
794F
330
1E
100
AcDbEntity
  8
OBJECT
100
AcDbLine
 10
71.72554799907121
 20
22.81947803541635
 30
0.0
 11
71.54294130855928
 21
23.00208472592828
 31
0.0
  0
LINE
  5
7950
330
1E
100
AcDbEntity
  8
OBJECT
100
AcDbLine
 10
71.54294130855928
 20
23.00208472592828
 30
0.0
 11
86.09511786836046
 21
23.00208472592828
 31
0.0
  0
LINE
  5
7951
330
1E
100
AcDbEntity
  8
OBJECT
100
AcDbLine
 10
71.54294130855928
 20
22.99501371427987
 30
0.0
 11
71.54294130855928
 21
23.00208472592828
 31
0.0
  0
LINE
  5
7952
330
1E
100
AcDbEntity
  8
OBJECT
100
AcDbLine
 10
86.09511786836046
 20
22.99501371427987
 30
0.0
 11
86.09511786836046
 21
23.00208472592828
 31
0.0
  0
LINE
  5
7953
330
1E
100
AcDbEntity
  8
OBJECT
100
AcDbLine
 10
71.6640296697362
 20
22.31024434479407
 30
0.0
 11
71.67110068138462
 21
22.31024434479407
 31
0.0
  0
LINE
  5
7954
330
1E
100
AcDbEntity
  8
OBJECT
100
AcDbLine
 10
85.96695849553515
 20
22.31024434479407
 30
0.0
 11
85.97402950718356
 21
22.31024434479407
 31
0.0
  0
ARC
  5
7955
330
1E
100
AcDbEntity
  8
OBJECT
100
AcDbCircle
 10
86.60895852064635
 20
22.29524418425389
 30
0.0
 40
0.0150000000000077
100
AcDbArc
 50
0.0
 51
89.99999999861582
  0
ARC
  5
7956
330
1E
100
AcDbEntity
  8
OBJECT
100
AcDbCircle
 10
71.02910065626915
 20
22.29524418425389
 30
0.0
 40
0.0150000000000006
100
AcDbArc
 50
90.00000000138419
 51
180.0
  0
ELLIPSE
  5
7957
330
1E
100
AcDbEntity
  8
OBJECT
100
AcDbEllipse
 10
71.02910065626915
 20
22.29524418425389
 30
0.0
 11
-0.000000000000026
 21
0.0769999999990238
 31
0.0
210
0.0
220
0.0
230
1.0
 40
0.1948051948077641
 41
1.402971571240007
 42
1.57079632679483
  0
ELLIPSE
  5
7958
330
1E
100
AcDbEntity
  8
OBJECT
100
AcDbEllipse
 10
86.60895852064635
 20
22.29524418425389
 30
0.0
 11
-0.0000000000000119
 21
0.0770000000007891
 31
0.0
210
0.0
220
0.0
230
1.0
 40
0.194805194803298
 41
4.712388980384659
 42
4.880213866133783
  0
ARC
  5
7959
330
1E
100
AcDbEntity
  8
OBJECT
100
AcDbCircle
 10
71.19902958845989
 20
22.79324418425389
 30
0.0
 40
0.1559999999999987
100
AcDbArc
 50
6.547541713031648
 51
295.3314025650474
  0
LINE
  5
795A
330
1E
100
AcDbEntity
  8
OBJECT
100
AcDbLine
 10
71.35401218441799
 20
22.81103263155135
 30
0.0
 11
71.29539694154627
 21
22.80430481593832
 31
0.0
  0
ARC
  5
795B
330
1E
100
AcDbEntity
  8
OBJECT
100
AcDbCircle
 10
71.19902958845989
 20
22.79324418425389
 30
0.0
 40
0.0970000000000038
100
AcDbArc
 50
6.547541713030009
 51
295.3314025650482
  0
ARC
  5
795C
330
1E
100
AcDbEntity
  8
OBJECT
100
AcDbCircle
 10
71.55328897984884
 20
22.68750357564286
 30
0.0
 40
0.1257406086110322
100
AcDbArc
 50
0.0
 51
115.3314025650473
  0
ARC
  5
795D
330
1E
100
AcDbEntity
  8
OBJECT
100
AcDbCircle
 10
71.55328897984884
 20
22.68750357564286
 30
0.0
 40
0.0667406086110347
100
AcDbArc
 50
0.0
 51
115.3314025650501
  0
LINE
  5
795E
330
1E
100
AcDbEntity
  8
OBJECT
100
AcDbLine
 10
71.49949034384187
 20
22.80115371376715
 30
0.0
 11
71.24053133535844
 21
22.70557112985162
 31
0.0
  0
LINE
  5
795F
330
1E
100
AcDbEntity
  8
OBJECT
100
AcDbLine
 10
71.5247337322281
 20
22.74782691646953
 30
0.0
 11
71.26577472374467
 21
22.65224374589411
 31
0.0
  0
LINE
  5
7960
330
1E
100
AcDbEntity
  8
OBJECT
100
AcDbLine
 10
71.21802970196589
 20
22.43124412032767
 30
0.0
 11
71.21802970196589
 21
22.37224432189838
 31
0.0
  0
LINE
  5
7961
330
1E
100
AcDbEntity
  8
OBJECT
100
AcDbLine
 10
71.21802970196589
 20
22.43124412032767
 30
0.0
 11
71.60502957797698
 21
22.43124412032767
 31
0.0
  0
LINE
  5
7962
330
1E
100
AcDbEntity
  8
OBJECT
100
AcDbLine
 10
71.6200295913622
 20
22.44624442704284
 30
0.0
 11
71.6200295913622
 21
22.68750361332948
 31
0.0
  0
ARC
  5
7963
330
1E
100
AcDbEntity
  8
OBJECT
100
AcDbCircle
 10
71.60502958845987
 20
22.44624418425388
 30
0.0
 40
0.0740000000000052
100
AcDbArc
 50
270.0000000000008
 51
0.0
  0
ARC
  5
7964
330
1E
100
AcDbEntity
  8
OBJECT
100
AcDbCircle
 10
71.60502958845987
 20
22.44624418425388
 30
0.0
 40
0.0150000000000077
100
AcDbArc
 50
270.0000000000008
 51
0.0
  0
LINE
  5
7965
330
1E
100
AcDbEntity
  8
OBJECT
100
AcDbLine
 10
71.0220295661762
 20
22.37224432189838
 30
0.0
 11
71.0220295661762
 21
22.43124412032767
 31
0.0
  0
LINE
  5
7966
330
1E
100
AcDbEntity
  8
OBJECT
100
AcDbLine
 10
71.0220295661762
 20
22.43124412032767
 30
0.0
 11
71.21802970196589
 21
22.43124412032767
 31
0.0
  0
CIRCLE
  5
7967
330
1E
100
AcDbEntity
  8
OBJECT
100
AcDbCircle
 10
72.75702958845989
 20
20.81024418425387
 30
0.0
 40
0.1180000000000021
  0
CIRCLE
  5
7968
330
1E
100
AcDbEntity
  8
OBJECT
100
AcDbCircle
 10
72.75702958845989
 20
20.81024418425387
 30
0.0
 40
0.1439999999999983
  0
DIMENSION
  5
7969
330
1E
100
AcDbEntity
  8
DIM
100
AcDbDimension
  2
*D1
 10
46.09225223659345
 20
48.55925823148846
 30
0.0
 11
42.03651163446463
 21
48.55925823148846
 31
0.0
 70
   160
  1
"C"
 71
     5
 42
7.865599767438638
  3
23NSTD
100
AcDbAlignedDimension
 13
38.22665246915481
 23
45.61561299753409
 33
0.0
 14
46.09225223659345
 24
45.60895519544034
 34
0.0
 50
180.0
100
AcDbRotatedDimension
  0
DIMENSION
  5
796A
330
1E
100
AcDbEntity
  8
DIM
100
AcDbDimension
  2
*D2
 10
23.15431224957567
 20
49.4342216350341
 30
0.0
 11
15.35364271254309
 21
49.4342216350341
 31
0.0
 70
   160
  1
"B"
 71
     5
 42
15.74756443057848
  3
23NSTD
100
AcDbAlignedDimension
 13
7.406747818997185
 23
45.60895507425236
 33
0.0
 14
23.15431224957567
 24
45.61713399310213
 34
0.0
100
AcDbRotatedDimension
  0
DIMENSION
  5
796B
330
1E
100
AcDbEntity
  8
DIM
100
AcDbDimension
  2
*D3
 10
4.890000272351588
 20
29.93820540902584
 30
0.0
 11
4.890000272351585
 21
38.02904558051821
 31
0.0
 70
   160
  1
"A"
 71
     5
 42
15.74774965571606
  3
23NSTD
100
AcDbAlignedDimension
 13
7.483747809486711
 23
45.6859550647419
 33
0.0
 14
7.483747809486711
 24
29.93820540902584
 34
0.0
 50
90.0
100
AcDbRotatedDimension
  0
DIMENSION
  5
796C
330
1E
100
AcDbEntity
  8
DIM
100
AcDbDimension
  2
*D4
 10
83.16741272279001
 20
31.34016990317089
 30
0.0
 11
83.16741272279001
 21
37.73786990317091
 31
0.0
 70
   160
  1
"J"
 71
     5
 42
12.79540000000001
  3
23NSTD
100
AcDbAlignedDimension
 13
85.21672958845988
 23
44.1355699031709
 33
0.0
 14
85.21672958845988
 24
31.34016990317089
 34
0.0
 50
90.0
100
AcDbRotatedDimension
  0
DIMENSION
  5
796D
330
1E
100
AcDbEntity
  8
DIM
100
AcDbDimension
  2
*D5
 10
72.42132958845989
 20
33.41636112736338
 30
0.0
 11
78.86072239091692
 21
33.41636112736338
 31
0.0
 70
   160
  1
"K"
 71
     5
 42
12.7954
  3
23NSTD
100
AcDbAlignedDimension
 13
85.21672958845988
 23
31.34016990317089
 33
0.0
 14
72.42132958845989
 24
31.34016990317089
 34
0.0
100
AcDbRotatedDimension
  0
DIMENSION
  5
796E
330
1E
100
AcDbEntity
  8
DIM
100
AcDbDimension
  2
*D6
 10
77.47387929780962
 20
22.31024434479407
 30
0.0
 11
77.47387929780962
 21
21.56024426452398
 31
0.0
 70
   160
  1
<> INSIDE
 71
     5
 42
1.500000160540196
  3
23NSTD
100
AcDbAlignedDimension
 13
72.75702958845989
 23
20.81024418425387
 33
0.0
 14
76.43114787068455
 24
22.31024434479407
 34
0.0
 50
90.0
100
AcDbRotatedDimension
  0
DIMENSION
  5
796F
330
1E
100
AcDbEntity
  8
DIM
100
AcDbDimension
  2
*D7
 10
71.00702955279095
 20
19.78653671831946
 30
0.0
 11
66.12577955279096
 21
19.78653671831946
 31
0.0
 70
   160
  1
<>\PINSIDE
 71
     5
 42
1.750000035668932
  3
23NSTD
100
AcDbAlignedDimension
 13
72.75702958845989
 23
20.81024418425387
 33
0.0
 14
71.00702955279095
 24
19.93258953630888
 34
0.0
100
AcDbRotatedDimension
  0
TEXT
  5
7970
330
1E
100
AcDbEntity
  8
TEXT
100
AcDbText
 10
74.92916398172159
 20
26.68037250367639
 30
0.0
 40
0.6881009615569953
  1
%%U(COVER NOT SHOWN)
 41
0.75
 72
     1
 11
79.23839625347227
 21
26.68037250367639
 31
0.0
100
AcDbText
  0
TEXT
  5
7971
330
1E
100
AcDbEntity
  8
TEXT
100
AcDbText
 10
75.97310504878667
 20
13.88750364869046
 30
0.0
 40
0.6881009615569953
  1
%%USECTION "A-A"
 41
0.75
 72
     1
 11
78.99214801761798
 21
13.88750364869046
 31
0.0
100
AcDbText
  0
HATCH
  5
7972
330
1E
100
AcDbEntity
  8
0
  6
Continuous
 62
     7
 48
8.0
370
     0
100
AcDbHatch
 10
0.0
 20
0.0
 30
0.0
210
0.0
220
0.0
230
1.0
  2
ANSI31
 70
     0
 71
     0
 91
        1
 92
        0
 93
        5
 72
     4
 94
        3
 73
     1
 74
     0
 95
        8
 96
        4
 40
0.7349931430247101
 40
0.7349931430247101
 40
0.7349931430247101
 40
0.7349931430247101
 40
0.736934666557163
 40
0.736934666557163
 40
0.736934666557163
 40
0.736934666557163
 10
89.49540952513023
 20
98.90014988854753
 42
1.0
 10
89.47469699112915
 20
98.89717974194869
 42
1.0
 10
89.4540273244223
 20
98.89400443722969
 42
1.0
 10
89.43340952513024
 20
98.89060654022614
 42
1.0
 72
     4
 94
        3
 73
     1
 74
     0
 95
       20
 96
       16
 40
0.0
 40
0.0
 40
0.0
 40
0.0
 40
0.0000790804161453
 40
0.0000790804161453
 40
0.0000790804161453
 40
0.0002087414410477
 40
0.0002087414410477
 40
0.0002087414410477
 40
0.0003401720995243
 40
0.0003401720995243
 40
0.0003401720995243
 40
0.0004725221214526
 40
0.0004725221214526
 40
0.0004725221214526
 40
0.0006048147960978
 40
0.0006048147960978
 40
0.0006048147960978
 40
0.0006048147960978
 10
89.43340952513025
 20
98.89060654022614
 42
1.0
 10
89.43340952513025
 20
98.89060654022614
 42
1.0
 10
89.43330059847957
 20
98.89058859483187
 42
1.0
 10
89.43308651054895
 20
98.89055328719798
 42
1.0
 10
89.43273868410452
 20
98.89049592325074
 42
1.0
 10
89.43210026746898
 20
98.89039059673326
 42
1.0
 10
89.43122777861381
 20
98.89024611582472
 42
1.0
 10
89.43034352582097
 20
98.89009968685186
 42
1.0
 10
89.42919389365403
 20
98.88990887448535
 42
1.0
 10
89.42787963186601
 20
98.88968963286949
 42
1.0
 10
89.42655609629916
 20
98.88946884422674
 42
1.0
 10
89.42502840263022
 20
98.88921298192805
 42
1.0
 10
89.42342668046039
 20
98.8889431699404
 42
1.0
 10
89.42182534789742
 20
98.88867342358251
 42
1.0
 10
89.42010558229062
 20
98.88838222625501
 42
1.0
 10
89.41840952513025
 20
98.88809337803941
 42
1.0
 72
     4
 94
        3
 73
     1
 74
     0
 95
        9
 96
        5
 40
0.7374057949458102
 40
0.7374057949458102
 40
0.7374057949458102
 40
0.7374057949458102
 40
0.7455177954903443
 40
0.7574304658614601
 40
0.7574304658614601
 40
0.7574304658614601
 40
0.7574304658614601
 10
89.41840952513024
 20
98.88809337803941
 42
1.0
 10
89.33237239997939
 20
98.87344076452194
 42
1.0
 10
89.1223169040575
 20
98.82749592486689
 42
1.0
 10
88.92201137715231
 20
98.74967372374591
 42
1.0
 10
88.80540952513024
 20
98.69793442257989
 42
1.0
 72
     4
 94
        3
 73
     1
 74
     0
 95
        9
 96
        5
 40
0.2425695341155246
 40
0.2425695341155246
 40
0.2425695341155246
 40
0.2425695341155246
 40
0.2544822045096557
 40
0.2625942050541963
 40
0.2625942050541963
 40
0.2625942050541963
 40
0.2625942050541963
 10
88.80540952445441
 20
98.69793442228001
 42
1.0
 10
88.92201137669188
 20
98.74967372356701
 42
1.0
 10
89.12231690381615
 20
98.8274959248141
 42
1.0
 10
89.33237239997954
 20
98.87344076452198
 42
1.0
 10
89.41840952513045
 20
98.88809337803944
 42
1.0
 72
     4
 94
        3
 73
     1
 74
     0
 95
       20
 96
       16
 40
0.0000000000000009
 40
0.0000000000000009
 40
0.0000000000000009
 40
0.0000000000000009
 40
0.0006712718123127
 40
0.0006712718123127
 40
0.0006712718123127
 40
0.0013428937090786
 40
0.0013428937090786
 40
0.0013428937090786
 40
0.0020091475444759
 40
0.0020091475444759
 40
0.0020091475444759
 40
0.0026675343558935
 40
0.0026675343558935
 40
0.0026675343558935
 40
0.0030744696745827
 40
0.0030744696745827
 40
0.0030744696745827
 40
0.0030744696745827
 10
89.41840952513025
 20
98.88809337803941
 42
1.0
 10
89.42709382679142
 20
98.88957236418274
 42
1.0
 10
89.43590564906774
 20
98.89102884854507
 42
1.0
 10
89.44411562299274
 20
98.89235028989638
 42
1.0
 10
89.45232807071624
 20
98.89367212941946
 42
1.0
 10
89.46016581852035
 20
98.8948960907328
 42
1.0
 10
89.46695790404541
 20
98.89593500140222
 42
1.0
 10
89.47369573265428
 20
98.89696561298748
 42
1.0
 10
89.47959225806327
 20
98.8978437432117
 42
1.0
 10
89.48413332273387
 20
98.89851189390718
 42
1.0
 10
89.48862155306487
 20
98.89917227080879
 42
1.0
 10
89.49191056522266
 20
98.89964666459851
 42
1.0
 10
89.49371326481102
 20
98.89990617450635
 42
1.0
 10
89.49483748024276
 20
98.90006801236607
 42
1.0
 10
89.49540952513025
 20
98.90014988854753
 42
1.0
 10
89.49540952513025
 20
98.90014988854753
 42
1.0
 97
        0
 75
     0
 76
     1
 52
0.0
 41
8.0
 77
     0
 78
     1
 53
45.0
 43
69.85765224883405
 44
64.26266719059483
 45
-0.7071067811865475
 46
0.7071067811865476
 79
     0
 98
        1
 10
69.85765224883405
 20
64.26266719059483
  0
HATCH
  5
7973
330
1E
100
AcDbEntity
  8
0
  6
Continuous
 62
     7
 48
8.0
370
     0
100
AcDbHatch
 10
0.0
 20
0.0
 30
0.0
210
0.0
220
0.0
230
1.0
  2
ANSI31
 70
     0
 71
     0
 91
        1
 92
        0
 93
        2
 72
     4
 94
        3
 73
     1
 74
     0
 95
        9
 96
        5
 40
0.7369346665571629
 40
0.7369346665571629
 40
0.7369346665571629
 40
0.7369346665571629
 40
0.7455177954903443
 40
0.7489577298141489
 40
0.7489577298141489
 40
0.7489577298141489
 40
0.7489577298141489
 10
89.43340952513024
 20
98.89060654022614
 42
1.0
 10
89.34226191518154
 20
98.87558504417141
 42
1.0
 10
89.21600423470096
 20
98.84844949111439
 42
1.0
 10
89.09326137127044
 20
98.80982230219684
 42
1.0
 10
89.05840952513024
 20
98.79797050971141
 42
1.0
 72
     4
 94
        3
 73
     1
 74
     0
 95
        9
 96
        5
 40
0.251042270183736
 40
0.251042270183736
 40
0.251042270183736
 40
0.251042270183736
 40
0.2544822045096557
 40
0.263065333442837
 40
0.263065333442837
 40
0.263065333442837
 40
0.263065333442837
 10
89.05840952506595
 20
98.79797050968953
 42
1.0
 10
89.09326137122725
 20
98.80982230218325
 42
1.0
 10
89.21600423467875
 20
98.84844949110963
 42
1.0
 10
89.34226191518154
 20
98.87558504417139
 42
1.0
 10
89.43340952513024
 20
98.89060654022614
 42
1.0
 97
        0
 75
     0
 76
     1
 52
0.0
 41
8.0
 77
     0
 78
     1
 53
45.0
 43
69.85765224883405
 44
64.26266719059483
 45
-0.7071067811865475
 46
0.7071067811865476
 79
     0
 98
        1
 10
69.85765224883405
 20
64.26266719059483
  0
HATCH
  5
7974
330
1E
100
AcDbEntity
  8
0
  6
Continuous
 62
     7
 48
8.0
370
     0
100
AcDbHatch
 10
0.0
 20
0.0
 30
0.0
210
0.0
220
0.0
230
1.0
  2
ANSI31
 70
     0
 71
     0
 91
        1
 92
        0
 93
        2
 72
     4
 94
        3
 73
     1
 74
     0
 95
        8
 96
        4
 40
0.9232390971773888
 40
0.9232390971773888
 40
0.9232390971773888
 40
0.9232390971773888
 40
0.9259687288161472
 40
0.9259687288161472
 40
0.9259687288161472
 40
0.9259687288161472
 10
84.02540952558281
 20
98.20869439939944
 42
1.0
 10
83.99934967161319
 20
98.20424823374317
 42
1.0
 10
83.97334851541932
 20
98.200483610022
 42
1.0
 10
83.94740952513064
 20
98.19747589035401
 42
1.0
 72
     4
 94
        3
 73
     1
 74
     0
 95
        8
 96
        4
 40
0.0740312711838542
 40
0.0740312711838542
 40
0.0740312711838542
 40
0.0740312711838542
 40
0.0767609028226086
 40
0.0767609028226086
 40
0.0767609028226086
 40
0.0767609028226086
 10
83.94740952513068
 20
98.19747589035401
 42
1.0
 10
83.97334851541932
 20
98.200483610022
 42
1.0
 10
83.99934967161318
 20
98.20424823374317
 42
1.0
 10
84.02540952558274
 20
98.20869439939942
 42
1.0
 97
        0
 75
     0
 76
     1
 52
0.0
 41
8.0
 77
     0
 78
     1
 53
45.0
 43
69.85765224883405
 44
64.26266719059483
 45
-0.7071067811865475
 46
0.7071067811865476
 79
     0
 98
        1
 10
69.85765224883405
 20
64.26266719059483
  0
LINE
  5
7975
330
1E
100
AcDbEntity
  8
OBJECT
100
AcDbLine
 10
71.04302964358152
 20
32.70011996837743
 30
0.0
 11
71.04302964358152
 21
32.22761998673755
 31
0.0
  0
LINE
  5
7976
330
1E
100
AcDbEntity
  8
OBJECT
100
AcDbLine
 10
71.04302964358152
 20
31.24362004732214
 30
0.0
 11
71.04302964358152
 21
30.7711197723523
 31
0.0
  0
LINE
  5
7977
330
1E
100
AcDbEntity
  8
OBJECT
100
AcDbLine
 10
71.04302964358152
 20
44.70512003398948
 30
0.0
 11
71.04302964358152
 21
44.23261975901964
 31
0.0
  0
LINE
  5
7978
330
1E
100
AcDbEntity
  8
OBJECT
100
AcDbLine
 10
71.04302964358152
 20
43.24861981960424
 30
0.0
 11
71.04302964358152
 21
42.77611983796435
 31
0.0
  0
LINE
  5
7979
330
1E
100
AcDbEntity
  8
OBJECT
100
AcDbLine
 10
84.5837796208022
 20
44.51291998763415
 30
0.0
 11
85.01977953076069
 21
44.51291998763415
 31
0.0
  0
LINE
  5
797A
330
1E
100
AcDbEntity
  8
OBJECT
100
AcDbLine
 10
85.01977953076069
 20
44.51291998763415
 30
0.0
 11
85.01977953076069
 21
44.13592002276991
 31
0.0
  0
ARC
  5
797B
330
1E
100
AcDbEntity
  8
OBJECT
100
AcDbCircle
 10
85.21677958845987
 20
44.13591990317089
 30
0.0
 40
0.1970000000000027
100
AcDbArc
 50
180.0
 51
0.0
  0
LINE
  5
797C
330
1E
100
AcDbEntity
  8
OBJECT
100
AcDbLine
 10
85.41377957923854
 20
44.13592002276991
 30
0.0
 11
85.41377957923854
 21
44.27891983749051
 31
0.0
  0
LINE
  5
797D
330
1E
100
AcDbEntity
  8
OBJECT
100
AcDbLine
 10
85.41377957923854
 20
44.27891983749051
 30
0.0
 11
85.58377953538453
 21
44.27891983749051
 31
0.0
  0
LINE
  5
797E
330
1E
100
AcDbEntity
  8
OBJECT
100
AcDbLine
 10
85.70877945137482
 20
31.32231988484157
 30
0.0
 11
85.70877945137482
 21
44.15391992150022
 31
0.0
  0
LINE
  5
797F
330
1E
100
AcDbEntity
  8
OBJECT
100
AcDbLine
 10
85.58377953538453
 20
31.19731996885127
 30
0.0
 11
85.70877945137482
 21
31.32231988484157
 31
0.0
  0
LINE
  5
7980
330
1E
100
AcDbEntity
  8
OBJECT
100
AcDbLine
 10
85.41377957923854
 20
31.19731996885127
 30
0.0
 11
85.58377953538453
 21
31.19731996885127
 31
0.0
  0
LINE
  5
7981
330
1E
100
AcDbEntity
  8
OBJECT
100
AcDbLine
 10
85.41377957923854
 20
31.34031978357187
 30
0.0
 11
85.41377957923854
 21
31.19731996885127
 31
0.0
  0
ARC
  5
7982
330
1E
100
AcDbEntity
  8
OBJECT
100
AcDbCircle
 10
85.21677958845987
 20
31.34031990317089
 30
0.0
 40
0.1970000000000027
100
AcDbArc
 50
0.0
 51
180.0
  0
LINE
  5
7983
330
1E
100
AcDbEntity
  8
OBJECT
100
AcDbLine
 10
85.01977953076069
 20
30.96331981870764
 30
0.0
 11
85.01977953076069
 21
31.34031978357187
 31
0.0
  0
LINE
  5
7984
330
1E
100
AcDbEntity
  8
OBJECT
100
AcDbLine
 10
84.5837796208022
 20
30.96331981870764
 30
0.0
 11
85.01977953076069
 21
30.96331981870764
 31
0.0
  0
LINE
  5
7985
330
1E
100
AcDbEntity
  8
OBJECT
100
AcDbLine
 10
84.5837796208022
 20
30.67831985771817
 30
0.0
 11
84.5837796208022
 21
30.96331981870764
 31
0.0
  0
LINE
  5
7986
330
1E
100
AcDbEntity
  8
HIDDEN
100
AcDbLine
 10
84.38444390876981
 20
30.47898414568561
 30
0.0
 11
84.5837796208022
 21
30.67831985771817
 31
0.0
  0
LINE
  5
7987
330
1E
100
AcDbEntity
  8
HIDDEN
100
AcDbLine
 10
73.05427955611756
 20
30.67831985771817
 30
0.0
 11
73.25361526814996
 21
30.47898414568561
 31
0.0
  0
LINE
  5
7988
330
1E
100
AcDbEntity
  8
OBJECT
100
AcDbLine
 10
73.05427955611756
 20
30.67831985771817
 30
0.0
 11
73.05427955611756
 21
30.96331981870764
 31
0.0
  0
LINE
  5
7989
330
1E
100
AcDbEntity
  8
OBJECT
100
AcDbLine
 10
73.05427955611756
 20
30.96331981870764
 30
0.0
 11
72.61827964615907
 21
30.96331981870764
 31
0.0
  0
ARC
  5
798A
330
1E
100
AcDbEntity
  8
OBJECT
100
AcDbCircle
 10
72.4212795884599
 20
31.34031990317089
 30
0.0
 40
0.1970000000000027
100
AcDbArc
 50
0.0
 51
180.0
  0
LINE
  5
798B
330
1E
100
AcDbEntity
  8
OBJECT
100
AcDbLine
 10
72.22427959768123
 20
31.34031978357187
 30
0.0
 11
72.22427959768123
 21
31.19731996885127
 31
0.0
  0
LINE
  5
798C
330
1E
100
AcDbEntity
  8
OBJECT
100
AcDbLine
 10
72.22427959768123
 20
31.19731996885127
 30
0.0
 11
72.05427964153523
 21
31.19731996885127
 31
0.0
  0
LINE
  5
798D
330
1E
100
AcDbEntity
  8
OBJECT
100
AcDbLine
 10
71.92927972554494
 20
31.32231988484157
 30
0.0
 11
72.05427964153523
 21
31.19731996885127
 31
0.0
  0
LINE
  5
798E
330
1E
100
AcDbEntity
  8
OBJECT
100
AcDbLine
 10
71.92927972554494
 20
44.15391992150022
 30
0.0
 11
71.92927972554494
 21
31.32231988484157
 31
0.0
  0
LINE
  5
798F
330
1E
100
AcDbEntity
  8
OBJECT
100
AcDbLine
 10
72.05427964153523
 20
44.27891983749051
 30
0.0
 11
71.92927972554494
 21
44.15391992150022
 31
0.0
  0
LINE
  5
7990
330
1E
100
AcDbEntity
  8
OBJECT
100
AcDbLine
 10
72.22427959768123
 20
44.27891983749051
 30
0.0
 11
72.05427964153523
 21
44.27891983749051
 31
0.0
  0
LINE
  5
7991
330
1E
100
AcDbEntity
  8
OBJECT
100
AcDbLine
 10
72.22427959768123
 20
44.13592002276991
 30
0.0
 11
72.22427959768123
 21
44.27891983749051
 31
0.0
  0
ARC
  5
7992
330
1E
100
AcDbEntity
  8
OBJECT
100
AcDbCircle
 10
72.4212795884599
 20
44.13591990317089
 30
0.0
 40
0.1970000000000027
100
AcDbArc
 50
180.0
 51
0.0
  0
LINE
  5
7993
330
1E
100
AcDbEntity
  8
OBJECT
100
AcDbLine
 10
72.61827964615907
 20
44.51291998763415
 30
0.0
 11
72.61827964615907
 21
44.13592002276991
 31
0.0
  0
LINE
  5
7994
330
1E
100
AcDbEntity
  8
OBJECT
100
AcDbLine
 10
73.05427955611756
 20
44.51291998763415
 30
0.0
 11
72.61827964615907
 21
44.51291998763415
 31
0.0
  0
LINE
  5
7995
330
1E
100
AcDbEntity
  8
HIDDEN
100
AcDbLine
 10
73.25361526815012
 20
44.99725566065618
 30
0.0
 11
73.05427955611756
 21
44.79791994862361
 31
0.0
  0
LINE
  5
7996
330
1E
100
AcDbEntity
  8
OBJECT
100
AcDbLine
 10
73.05427955611756
 20
44.79791994862361
 30
0.0
 11
73.05427955611756
 21
44.51291998763415
 31
0.0
  0
LINE
  5
7997
330
1E
100
AcDbEntity
  8
OBJECT
100
AcDbLine
 10
72.61827964615907
 20
30.96331981870764
 30
0.0
 11
72.61827964615907
 21
31.34031978357187
 31
0.0
  0
LINE
  5
7998
330
1E
100
AcDbEntity
  8
HIDDEN
100
AcDbLine
 10
84.5837796208022
 20
44.79791994862361
 30
0.0
 11
84.38444390876965
 21
44.99725566065618
 31
0.0
  0
LINE
  5
7999
330
1E
100
AcDbEntity
  8
OBJECT
100
AcDbLine
 10
84.5837796208022
 20
44.79791994862361
 30
0.0
 11
84.5837796208022
 21
44.51291998763415
 31
0.0
  0
LINE
  5
799A
330
1E
100
AcDbEntity
  8
OBJECT
100
AcDbLine
 10
85.70877945137482
 20
44.15391992150022
 30
0.0
 11
85.58377953538453
 21
44.27891983749051
 31
0.0
  0
CIRCLE
  5
799B
330
1E
100
AcDbEntity
  8
OBJECT
100
AcDbCircle
 10
72.42132958845989
 20
44.1355699031709
 30
0.0
 40
0.1574999999999989
  0
ARC
  5
799C
330
1E
100
AcDbEntity
  8
OBJECT
100
AcDbCircle
 10
72.42132958845989
 20
44.1355699031709
 30
0.0
 40
0.2800000000000011
100
AcDbArc
 50
45.30014877449325
 51
90.0
  0
ARC
  5
799D
330
1E
100
AcDbEntity
  8
OBJECT
100
AcDbCircle
 10
72.42132958845989
 20
44.1355699031709
 30
0.0
 40
0.2800000000000011
100
AcDbArc
 50
90.0
 51
149.2052413753899
  0
CIRCLE
  5
799E
330
1E
100
AcDbEntity
  8
OBJECT
100
AcDbCircle
 10
72.42132958845989
 20
31.34066990317089
 30
0.0
 40
0.1574999999999989
  0
ARC
  5
799F
330
1E
100
AcDbEntity
  8
OBJECT
100
AcDbCircle
 10
72.42132958845989
 20
31.34066990317089
 30
0.0
 40
0.2800000000000002
100
AcDbArc
 50
210.7947586246112
 51
314.6998512255079
  0
CIRCLE
  5
79A0
330
1E
100
AcDbEntity
  8
OBJECT
100
AcDbCircle
 10
85.21672958845988
 20
31.34066990317089
 30
0.0
 40
0.1575000000000024
  0
ARC
  5
79A1
330
1E
100
AcDbEntity
  8
OBJECT
100
AcDbCircle
 10
85.21672958845988
 20
31.34066990317089
 30
0.0
 40
0.2800000000000021
100
AcDbArc
 50
225.3001487744928
 51
270.0000000000008
  0
ARC
  5
79A2
330
1E
100
AcDbEntity
  8
OBJECT
100
AcDbCircle
 10
85.21672958845988
 20
31.34066990317089
 30
0.0
 40
0.2800000000000011
100
AcDbArc
 50
270.0000000000008
 51
329.2052413753891
  0
CIRCLE
  5
79A3
330
1E
100
AcDbEntity
  8
OBJECT
100
AcDbCircle
 10
85.21672958845988
 20
44.1355699031709
 30
0.0
 40
0.1574999999999989
  0
ARC
  5
79A4
330
1E
100
AcDbEntity
  8
OBJECT
100
AcDbCircle
 10
85.21672958845988
 20
44.1355699031709
 30
0.0
 40
0.2800000000000011
100
AcDbArc
 50
30.79475862461094
 51
90.0
  0
ARC
  5
79A5
330
1E
100
AcDbEntity
  8
OBJECT
100
AcDbCircle
 10
85.21672958845988
 20
44.1355699031709
 30
0.0
 40
0.2800000000000021
100
AcDbArc
 50
90.0
 51
134.6998512255078
  0
LINE
  5
79A6
330
1E
100
AcDbEntity
  8
OBJECT
100
AcDbLine
 10
71.04302964358152
 20
32.70011996837743
 30
0.0
 11
71.35401218441799
 21
32.70011996837743
 31
0.0
  0
LINE
  5
79A7
330
1E
100
AcDbEntity
  8
OBJECT
100
AcDbLine
 10
71.35401218441799
 20
32.22761998673755
 30
0.0
 11
71.35401218441799
 21
32.70011996837743
 31
0.0
  0
LINE
  5
79A8
330
1E
100
AcDbEntity
  8
OBJECT
100
AcDbLine
 10
71.35401218441799
 20
32.22761998673755
 30
0.0
 11
71.04302964358152
 21
32.22761998673755
 31
0.0
  0
LINE
  5
79A9
330
1E
100
AcDbEntity
  8
OBJECT
100
AcDbLine
 10
71.35401218441799
 20
30.7711197723523
 30
0.0
 11
71.35401218441799
 21
31.24362004732214
 31
0.0
  0
LINE
  5
79AA
330
1E
100
AcDbEntity
  8
OBJECT
100
AcDbLine
 10
71.04302964358152
 20
31.24362004732214
 30
0.0
 11
71.35401218441799
 21
31.24362004732214
 31
0.0
  0
LINE
  5
79AB
330
1E
100
AcDbEntity
  8
OBJECT
100
AcDbLine
 10
71.04302964358152
 20
30.7711197723523
 30
0.0
 11
71.35401218441799
 21
30.7711197723523
 31
0.0
  0
LINE
  5
79AC
330
1E
100
AcDbEntity
  8
OBJECT
100
AcDbLine
 10
71.44202964763275
 20
32.22761998673755
 30
0.0
 11
71.44202964763275
 21
31.24362004732214
 31
0.0
  0
LINE
  5
79AD
330
1E
100
AcDbEntity
  8
OBJECT
100
AcDbLine
 10
71.35401218441799
 20
32.22761998673755
 30
0.0
 11
71.44202964763275
 21
32.22761998673755
 31
0.0
  0
LINE
  5
79AE
330
1E
100
AcDbEntity
  8
OBJECT
100
AcDbLine
 10
71.44202964763275
 20
31.24362004732214
 30
0.0
 11
71.35401218441799
 21
31.24362004732214
 31
0.0
  0
LINE
  5
79AF
330
1E
100
AcDbEntity
  8
OBJECT
100
AcDbLine
 10
71.49202949669689
 20
32.70011996837743
 30
0.0
 11
71.35401218441799
 21
32.70011996837743
 31
0.0
  0
LINE
  5
79B0
330
1E
100
AcDbEntity
  8
OBJECT
100
AcDbLine
 10
71.49202949669689
 20
30.7711197723523
 30
0.0
 11
71.35401218441799
 21
30.7711197723523
 31
0.0
  0
LINE
  5
79B1
330
1E
100
AcDbEntity
  8
OBJECT
100
AcDbLine
 10
71.04302964358152
 20
32.52511990999304
 30
0.0
 11
71.0220295661762
 21
32.50411983258773
 31
0.0
  0
LINE
  5
79B2
330
1E
100
AcDbEntity
  8
OBJECT
100
AcDbLine
 10
71.0220295661762
 20
30.96711990814201
 30
0.0
 11
71.04302964358152
 21
30.9461198307367
 31
0.0
  0
LINE
  5
79B3
330
1E
100
AcDbEntity
  8
OBJECT
100
AcDbLine
 10
71.0220295661762
 20
30.96711990814201
 30
0.0
 11
71.0220295661762
 21
32.50411983258773
 31
0.0
  0
LINE
  5
79B4
330
1E
100
AcDbEntity
  8
OBJECT
100
AcDbLine
 10
71.04302964358152
 20
44.70512003398948
 30
0.0
 11
71.35401218441799
 21
44.70512003398948
 31
0.0
  0
LINE
  5
79B5
330
1E
100
AcDbEntity
  8
OBJECT
100
AcDbLine
 10
71.35401218441799
 20
44.23261975901964
 30
0.0
 11
71.35401218441799
 21
44.70512003398948
 31
0.0
  0
LINE
  5
79B6
330
1E
100
AcDbEntity
  8
OBJECT
100
AcDbLine
 10
71.35401218441799
 20
44.23261975901964
 30
0.0
 11
71.04302964358152
 21
44.23261975901964
 31
0.0
  0
LINE
  5
79B7
330
1E
100
AcDbEntity
  8
OBJECT
100
AcDbLine
 10
71.35401218441799
 20
42.77611983796435
 30
0.0
 11
71.35401218441799
 21
43.24861981960424
 31
0.0
  0
LINE
  5
79B8
330
1E
100
AcDbEntity
  8
OBJECT
100
AcDbLine
 10
71.04302964358152
 20
43.24861981960424
 30
0.0
 11
71.35401218441799
 21
43.24861981960424
 31
0.0
  0
LINE
  5
79B9
330
1E
100
AcDbEntity
  8
OBJECT
100
AcDbLine
 10
71.04302964358152
 20
42.77611983796435
 30
0.0
 11
71.35401218441799
 21
42.77611983796435
 31
0.0
  0
LINE
  5
79BA
330
1E
100
AcDbEntity
  8
OBJECT
100
AcDbLine
 10
71.44202964763275
 20
44.23261975901964
 30
0.0
 11
71.44202964763275
 21
43.24861981960424
 31
0.0
  0
LINE
  5
79BB
330
1E
100
AcDbEntity
  8
OBJECT
100
AcDbLine
 10
71.35401218441799
 20
44.23261975901964
 30
0.0
 11
71.44202964763275
 21
44.23261975901964
 31
0.0
  0
LINE
  5
79BC
330
1E
100
AcDbEntity
  8
OBJECT
100
AcDbLine
 10
71.44202964763275
 20
43.24861981960424
 30
0.0
 11
71.35401218441799
 21
43.24861981960424
 31
0.0
  0
LINE
  5
79BD
330
1E
100
AcDbEntity
  8
OBJECT
100
AcDbLine
 10
71.49202949669689
 20
44.70512003398948
 30
0.0
 11
71.35401218441799
 21
44.70512003398948
 31
0.0
  0
LINE
  5
79BE
330
1E
100
AcDbEntity
  8
OBJECT
100
AcDbLine
 10
71.49202949669689
 20
42.77611983796435
 30
0.0
 11
71.35401218441799
 21
42.77611983796435
 31
0.0
  0
LINE
  5
79BF
330
1E
100
AcDbEntity
  8
OBJECT
100
AcDbLine
 10
71.04302964358152
 20
44.53011997560508
 30
0.0
 11
71.0220295661762
 21
44.50911989819977
 31
0.0
  0
LINE
  5
79C0
330
1E
100
AcDbEntity
  8
OBJECT
100
AcDbLine
 10
71.0220295661762
 20
42.97211997375406
 30
0.0
 11
71.0220295661762
 21
44.50911989819977
 31
0.0
  0
LINE
  5
79C1
330
1E
100
AcDbEntity
  8
OBJECT
100
AcDbLine
 10
71.0220295661762
 20
42.97211997375406
 30
0.0
 11
71.04302964358152
 21
42.95111989634874
 31
0.0
  0
LINE
  5
79C2
330
1E
100
AcDbEntity
  8
OBJECT
100
AcDbLine
 10
71.5358702969109
 20
45.01395833292976
 30
0.0
 11
71.5358702969109
 21
45.02102934457816
 31
0.0
  0
LINE
  5
79C3
330
1E
100
AcDbEntity
  8
OBJECT
100
AcDbLine
 10
71.5358702969109
 20
45.02102934457816
 30
0.0
 11
71.71847669409288
 21
44.83842265406623
 31
0.0
  0
LINE
  5
79C4
330
1E
100
AcDbEntity
  8
OBJECT
100
AcDbLine
 10
71.49202949669689
 20
45.01395833292976
 30
0.0
 11
71.49202949669689
 21
45.02102934457816
 31
0.0
  0
ELLIPSE
  5
79C5
330
1E
100
AcDbEntity
  8
OBJECT
100
AcDbEllipse
 10
71.53587020889346
 20
45.02102928273735
 30
0.0
 11
0.0
 21
0.0759341820262805
 31
0.0
210
0.0
220
0.0
230
1.0
 40
0.5773502691895792
 41
1.047197551196713
 42
1.570796326794803
  0
LINE
  5
79C6
330
1E
100
AcDbEntity
  8
OBJECT
100
AcDbLine
 10
71.5358702969109
 20
45.02102934457816
 30
0.0
 11
71.49790313551078
 21
45.05899650597828
 31
0.0
  0
LINE
  5
79C7
330
1E
100
AcDbEntity
  8
OBJECT
100
AcDbLine
 10
71.5429413085593
 20
45.02102934457816
 30
0.0
 11
71.5358702969109
 21
45.02102934457816
 31
0.0
  0
ELLIPSE
  5
79C8
330
1E
100
AcDbEntity
  8
OBJECT
100
AcDbEllipse
 10
71.53587020889344
 20
45.02102928273735
 30
0.0
 11
0.0759341820262805
 21
0.0
 31
0.0
210
0.0
220
0.0
230
1.0
 40
0.5773502691895792
 41
1.570796326794896
 42
2.094395102393241
  0
LINE
  5
79C9
330
1E
100
AcDbEntity
  8
OBJECT
100
AcDbLine
 10
71.5429413085593
 20
45.06486985146222
 30
0.0
 11
71.5358702969109
 21
45.06486985146222
 31
0.0
  0
LINE
  5
79CA
330
1E
100
AcDbEntity
  8
OBJECT
100
AcDbLine
 10
71.5429413085593
 20
45.02102934457816
 30
0.0
 11
86.09511786836046
 21
45.02102934457816
 31
0.0
  0
LINE
  5
79CB
330
1E
100
AcDbEntity
  8
OBJECT
100
AcDbLine
 10
86.09511786836046
 20
45.02102934457816
 30
0.0
 11
86.10218888000886
 21
45.02102934457816
 31
0.0
  0
LINE
  5
79CC
330
1E
100
AcDbEntity
  8
OBJECT
100
AcDbLine
 10
86.09511786836046
 20
45.06486985146222
 30
0.0
 11
86.10218888000886
 21
45.06486985146222
 31
0.0
  0
ELLIPSE
  5
79CD
330
1E
100
AcDbEntity
  8
OBJECT
100
AcDbEllipse
 10
86.10218896802633
 20
45.02102928273735
 30
0.0
 11
0.0759341820262781
 21
0.0000000000000104
 31
0.0
210
0.0
220
0.0
230
1.0
 40
0.577350269189597
 41
1.047197551196663
 42
1.570796326794724
  0
LINE
  5
79CE
330
1E
100
AcDbEntity
  8
OBJECT
100
AcDbLine
 10
86.10218888000886
 20
45.02102934457816
 30
0.0
 11
86.14015604140901
 21
45.05899650597828
 31
0.0
  0
LINE
  5
79CF
330
1E
100
AcDbEntity
  8
OBJECT
100
AcDbLine
 10
86.10218888000886
 20
45.02102934457816
 30
0.0
 11
85.91958248282688
 21
44.83842265406623
 31
0.0
  0
LINE
  5
79D0
330
1E
100
AcDbEntity
  8
OBJECT
100
AcDbLine
 10
86.10218888000886
 20
45.01395833292976
 30
0.0
 11
86.10218888000886
 21
45.02102934457816
 31
0.0
  0
ELLIPSE
  5
79D1
330
1E
100
AcDbEntity
  8
OBJECT
100
AcDbEllipse
 10
86.10218896802633
 20
45.02102928273735
 30
0.0
 11
0.0000000000000223
 21
0.0759341820262543
 31
0.0
210
0.0
220
0.0
230
1.0
 40
0.5773502691897777
 41
-1.570796326794727
 42
-1.047197551196067
  0
LINE
  5
79D2
330
1E
100
AcDbEntity
  8
OBJECT
100
AcDbLine
 10
86.14602968022287
 20
45.01395833292976
 30
0.0
 11
86.14602968022287
 21
45.02102934457816
 31
0.0
  0
LINE
  5
79D3
330
1E
100
AcDbEntity
  8
OBJECT
100
AcDbLine
 10
71.5429413085593
 20
45.06486985146222
 30
0.0
 11
86.09511786836046
 21
45.06486985146222
 31
0.0
  0
LINE
  5
79D4
330
1E
100
AcDbEntity
  8
OBJECT
100
AcDbLine
 10
71.5429413085593
 20
30.45521046176363
 30
0.0
 11
71.5358702969109
 21
30.45521046176363
 31
0.0
  0
LINE
  5
79D5
330
1E
100
AcDbEntity
  8
OBJECT
100
AcDbLine
 10
71.5429413085593
 20
30.41136995487956
 30
0.0
 11
71.5358702969109
 21
30.41136995487956
 31
0.0
  0
ELLIPSE
  5
79D6
330
1E
100
AcDbEntity
  8
OBJECT
100
AcDbEllipse
 10
71.53587020889344
 20
30.45521052360445
 30
0.0
 11
0.0759341820262635
 21
0.0000000000000106
 31
0.0
210
0.0
220
0.0
230
1.0
 40
0.5773502691897081
 41
4.188790204786289
 42
4.712388980384702
  0
LINE
  5
79D7
330
1E
100
AcDbEntity
  8
OBJECT
100
AcDbLine
 10
71.5358702969109
 20
30.45521046176363
 30
0.0
 11
71.49790313551078
 21
30.41724330036351
 31
0.0
  0
LINE
  5
79D8
330
1E
100
AcDbEntity
  8
OBJECT
100
AcDbLine
 10
71.5358702969109
 20
30.45521046176363
 30
0.0
 11
71.71847669409288
 21
30.63781715227554
 31
0.0
  0
LINE
  5
79D9
330
1E
100
AcDbEntity
  8
OBJECT
100
AcDbLine
 10
86.10218888000886
 20
30.46228147341202
 30
0.0
 11
86.10218888000886
 21
30.45521046176363
 31
0.0
  0
LINE
  5
79DA
330
1E
100
AcDbEntity
  8
OBJECT
100
AcDbLine
 10
86.14602968022287
 20
30.46228147341202
 30
0.0
 11
86.14602968022287
 21
30.45521046176363
 31
0.0
  0
ELLIPSE
  5
79DB
330
1E
100
AcDbEntity
  8
OBJECT
100
AcDbEllipse
 10
86.10218896802633
 20
30.45521052360446
 30
0.0
 11
-0.0000000000000224
 21
0.0759341820262397
 31
0.0
210
0.0
220
0.0
230
1.0
 40
0.5773502691898889
 41
4.188790204785856
 42
4.712388980384519
  0
LINE
  5
79DC
330
1E
100
AcDbEntity
  8
OBJECT
100
AcDbLine
 10
86.10218888000886
 20
30.45521046176363
 30
0.0
 11
86.14015604140901
 21
30.41724330036351
 31
0.0
  0
LINE
  5
79DD
330
1E
100
AcDbEntity
  8
OBJECT
100
AcDbLine
 10
71.5358702969109
 20
30.46228147341202
 30
0.0
 11
71.5358702969109
 21
30.45521046176363
 31
0.0
  0
ELLIPSE
  5
79DE
330
1E
100
AcDbEntity
  8
OBJECT
100
AcDbEllipse
 10
71.53587020889344
 20
30.45521052360445
 30
0.0
 11
0.0000000000000196
 21
0.0759341820262383
 31
0.0
210
0.0
220
0.0
230
1.0
 40
0.5773502691898997
 41
1.570796326794951
 42
2.094395102393664
  0
LINE
  5
79DF
330
1E
100
AcDbEntity
  8
OBJECT
100
AcDbLine
 10
71.49202949669689
 20
30.46228147341202
 30
0.0
 11
71.49202949669689
 21
30.45521046176363
 31
0.0
  0
LINE
  5
79E0
330
1E
100
AcDbEntity
  8
OBJECT
100
AcDbLine
 10
86.09511786836046
 20
30.45521046176363
 30
0.0
 11
71.5429413085593
 21
30.45521046176363
 31
0.0
  0
LINE
  5
79E1
330
1E
100
AcDbEntity
  8
OBJECT
100
AcDbLine
 10
86.10218888000886
 20
30.45521046176363
 30
0.0
 11
85.91958248282688
 21
30.63781715227554
 31
0.0
  0
LINE
  5
79E2
330
1E
100
AcDbEntity
  8
OBJECT
100
AcDbLine
 10
86.09511786836046
 20
30.45521046176363
 30
0.0
 11
86.10218888000886
 21
30.45521046176363
 31
0.0
  0
ELLIPSE
  5
79E3
330
1E
100
AcDbEntity
  8
OBJECT
100
AcDbEllipse
 10
86.10218896802633
 20
30.45521052360446
 30
0.0
 11
0.0759341820263046
 21
0.0000000000000157
 31
0.0
210
0.0
220
0.0
230
1.0
 40
0.5773502691894423
 41
4.712388980384663
 42
5.235987755982631
  0
LINE
  5
79E4
330
1E
100
AcDbEntity
  8
OBJECT
100
AcDbLine
 10
86.09511786836046
 20
30.41136995487956
 30
0.0
 11
86.10218888000886
 21
30.41136995487956
 31
0.0
  0
LINE
  5
79E5
330
1E
100
AcDbEntity
  8
OBJECT
100
AcDbLine
 10
86.09511786836046
 20
30.41136995487956
 30
0.0
 11
71.5429413085593
 21
30.41136995487956
 31
0.0
  0
LINE
  5
79E6
330
1E
100
AcDbEntity
  8
OBJECT
100
AcDbLine
 10
71.49202949669689
 20
30.46228147341202
 30
0.0
 11
71.49202949669689
 21
45.01395833292976
 31
0.0
  0
LINE
  5
79E7
330
1E
100
AcDbEntity
  8
OBJECT
100
AcDbLine
 10
71.5358702969109
 20
30.46228147341202
 30
0.0
 11
71.5358702969109
 21
45.01395833292976
 31
0.0
  0
LINE
  5
79E8
330
1E
100
AcDbEntity
  8
OBJECT
100
AcDbLine
 10
86.14602968022287
 20
45.01395833292976
 30
0.0
 11
86.14602968022287
 21
30.46228147341202
 31
0.0
  0
LINE
  5
79E9
330
1E
100
AcDbEntity
  8
OBJECT
100
AcDbLine
 10
86.10218888000886
 20
45.01395833292976
 30
0.0
 11
86.10218888000886
 21
30.46228147341202
 31
0.0
  0
LINE
  5
79EA
330
1E
100
AcDbEntity
  8
OBJECT
100
AcDbLine
 10
85.897029516694
 20
30.66744083672688
 30
0.0
 11
85.897029516694
 21
30.66036982507847
 31
0.0
  0
LWPOLYLINE
  5
79EB
330
1E
100
AcDbEntity
  8
OBJECT
100
AcDbPolyline
 90
        5
 70
   128
 43
0.0
 10
85.91958248282688
 20
30.63781715227554
 10
85.91000643345024
 20
30.6473932016522
 10
85.90289083565023
 20
30.65450850612227
 10
85.89850907293538
 20
30.65889026883711
 10
85.897029516694
 20
30.66036982507847
  0
LINE
  5
79EC
330
1E
100
AcDbEntity
  8
OBJECT
100
AcDbLine
 10
85.88995850504563
 20
30.66036982507847
 30
0.0
 11
85.897029516694
 21
30.66036982507847
 31
0.0
  0
LINE
  5
79ED
330
1E
100
AcDbEntity
  8
OBJECT
100
AcDbLine
 10
85.88995850504563
 20
44.8158699812633
 30
0.0
 11
85.897029516694
 21
44.8158699812633
 31
0.0
  0
LWPOLYLINE
  5
79EE
330
1E
100
AcDbEntity
  8
OBJECT
100
AcDbPolyline
 90
        5
 70
   128
 43
0.0
 10
85.91958248282688
 20
44.83842265406623
 10
85.91000643345024
 20
44.82884660468957
 10
85.90289083565023
 20
44.8217313002195
 10
85.89850907293538
 20
44.81734953750467
 10
85.897029516694
 20
44.8158699812633
  0
LINE
  5
79EF
330
1E
100
AcDbEntity
  8
OBJECT
100
AcDbLine
 10
85.897029516694
 20
44.80879896961491
 30
0.0
 11
85.897029516694
 21
44.8158699812633
 31
0.0
  0
LINE
  5
79F0
330
1E
100
AcDbEntity
  8
OBJECT
100
AcDbLine
 10
85.897029516694
 20
44.80879896961491
 30
0.0
 11
85.897029516694
 21
30.66744083672688
 31
0.0
  0
LINE
  5
79F1
330
1E
100
AcDbEntity
  8
OBJECT
100
AcDbLine
 10
71.74810067187417
 20
44.8158699812633
 30
0.0
 11
85.88995850504563
 21
44.8158699812633
 31
0.0
  0
LINE
  5
79F2
330
1E
100
AcDbEntity
  8
OBJECT
100
AcDbLine
 10
71.74102966022577
 20
30.66744083672688
 30
0.0
 11
71.74102966022577
 21
30.66036982507847
 31
0.0
  0
LWPOLYLINE
  5
79F3
330
1E
100
AcDbEntity
  8
OBJECT
100
AcDbPolyline
 90
        5
 70
   128
 43
0.0
 10
71.71847669409288
 20
30.63781715227554
 10
71.72805274346953
 20
30.6473932016522
 10
71.73516834126954
 20
30.65450850612227
 10
71.73955010398438
 20
30.65889026883711
 10
71.74102966022577
 20
30.66036982507847
  0
LINE
  5
79F4
330
1E
100
AcDbEntity
  8
OBJECT
100
AcDbLine
 10
85.88995850504563
 20
30.66036982507847
 30
0.0
 11
71.74810067187417
 21
30.66036982507847
 31
0.0
  0
LINE
  5
79F5
330
1E
100
AcDbEntity
  8
OBJECT
100
AcDbLine
 10
71.74102966022577
 20
44.80879896961491
 30
0.0
 11
71.74102966022577
 21
44.8158699812633
 31
0.0
  0
LWPOLYLINE
  5
79F6
330
1E
100
AcDbEntity
  8
OBJECT
100
AcDbPolyline
 90
        5
 70
   128
 43
0.0
 10
71.71847669409288
 20
44.83842265406623
 10
71.72805274346953
 20
44.82884660468957
 10
71.73516834126954
 20
44.8217313002195
 10
71.73955010398438
 20
44.81734953750467
 10
71.74102966022577
 20
44.8158699812633
  0
LINE
  5
79F7
330
1E
100
AcDbEntity
  8
OBJECT
100
AcDbLine
 10
71.74102966022577
 20
30.66744083672688
 30
0.0
 11
71.74102966022577
 21
44.80879896961491
 31
0.0
  0
LINE
  5
79F8
330
1E
100
AcDbEntity
  8
OBJECT
100
AcDbLine
 10
71.74810067187417
 20
30.66036982507847
 30
0.0
 11
71.74102966022577
 21
30.66036982507847
 31
0.0
  0
LINE
  5
79F9
330
1E
100
AcDbEntity
  8
OBJECT
100
AcDbLine
 10
71.74810067187417
 20
44.8158699812633
 30
0.0
 11
71.74102966022577
 21
44.8158699812633
 31
0.0
  0
LINE
  5
79FA
330
1E
100
AcDbEntity
  8
OBJECT
100
AcDbLine
 10
86.62395861248041
 20
29.86437003386933
 30
0.0
 11
86.63102962412882
 21
29.86437003386933
 31
0.0
  0
LINE
  5
79FB
330
1E
100
AcDbEntity
  8
OBJECT
100
AcDbLine
 10
71.01410056443936
 20
45.61186977247245
 30
0.0
 11
86.62395861248041
 21
45.61186977247245
 31
0.0
  0
LINE
  5
79FC
330
1E
100
AcDbEntity
  8
OBJECT
100
AcDbLine
 10
86.69302960123312
 20
45.54279878371974
 30
0.0
 11
86.69302960123312
 21
45.54986979536815
 31
0.0
  0
ARC
  5
79FD
330
1E
100
AcDbEntity
  8
OBJECT
100
AcDbCircle
 10
71.00702958845989
 20
45.5498699031709
 30
0.0
 40
0.0620000000000047
100
AcDbArc
 50
90.0
 51
180.0
  0
ARC
  5
79FE
330
1E
100
AcDbEntity
  8
OBJECT
100
AcDbCircle
 10
71.00702958845989
 20
29.92636990317089
 30
0.0
 40
0.0619999999999976
100
AcDbArc
 50
180.0
 51
270.0000000000008
  0
LINE
  5
79FF
330
1E
100
AcDbEntity
  8
OBJECT
100
AcDbLine
 10
70.94502957568666
 20
29.93344102262204
 30
0.0
 11
70.94502957568666
 21
45.54279878371974
 31
0.0
  0
LINE
  5
7A00
330
1E
100
AcDbEntity
  8
OBJECT
100
AcDbLine
 10
71.01410056443936
 20
45.61186977247245
 30
0.0
 11
71.00702955279096
 21
45.61186977247245
 31
0.0
  0
LINE
  5
7A01
330
1E
100
AcDbEntity
  8
OBJECT
100
AcDbLine
 10
86.62395861248041
 20
45.61186977247245
 30
0.0
 11
86.63102962412882
 21
45.61186977247245
 31
0.0
  0
LINE
  5
7A02
330
1E
100
AcDbEntity
  8
OBJECT
100
AcDbLine
 10
86.69302960123312
 20
29.93344102262204
 30
0.0
 11
86.69302960123312
 21
29.92637001097364
 31
0.0
  0
LINE
  5
7A03
330
1E
100
AcDbEntity
  8
OBJECT
100
AcDbLine
 10
71.01410056443936
 20
29.86437003386933
 30
0.0
 11
71.00702955279096
 21
29.86437003386933
 31
0.0
  0
ARC
  5
7A04
330
1E
100
AcDbEntity
  8
OBJECT
100
AcDbCircle
 10
86.63102958845987
 20
29.92636990317089
 30
0.0
 40
0.0619999999999976
100
AcDbArc
 50
270.0000000000073
 51
0.0
  0
LINE
  5
7A05
330
1E
100
AcDbEntity
  8
OBJECT
100
AcDbLine
 10
86.62395861248041
 20
29.86437003386933
 30
0.0
 11
71.01410056443936
 21
29.86437003386933
 31
0.0
  0
ARC
  5
7A06
330
1E
100
AcDbEntity
  8
OBJECT
100
AcDbCircle
 10
86.63102958845987
 20
45.5498699031709
 30
0.0
 40
0.0620000000000047
100
AcDbArc
 50
0.0
 51
90.0
  0
LINE
  5
7A07
330
1E
100
AcDbEntity
  8
OBJECT
100
AcDbLine
 10
86.69302960123312
 20
45.54279878371974
 30
0.0
 11
86.69302960123312
 21
29.93344102262204
 31
0.0
  0
LINE
  5
7A08
330
1E
100
AcDbEntity
  8
OBJECT
100
AcDbLine
 10
70.94502957568666
 20
29.93344102262204
 30
0.0
 11
70.94502957568666
 21
29.92637001097364
 31
0.0
  0
LINE
  5
7A09
330
1E
100
AcDbEntity
  8
OBJECT
100
AcDbLine
 10
70.94502957568666
 20
45.54279878371974
 30
0.0
 11
70.94502957568666
 21
45.54986979536815
 31
0.0
  0
ARC
  5
7A0A
330
1E
100
AcDbEntity
  8
OBJECT
100
AcDbCircle
 10
71.67332958845989
 20
30.5926699031709
 30
0.0
 40
0.1968500000000068
100
AcDbArc
 50
20.11568039202371
 51
69.88431960797455
  0
ARC
  5
7A0B
330
1E
100
AcDbEntity
  8
OBJECT
100
AcDbCircle
 10
85.96472958845987
 20
30.5926699031709
 30
0.0
 40
0.1968500000000002
100
AcDbArc
 50
110.1156803920236
 51
159.8843196079754
  0
ARC
  5
7A0C
330
1E
100
AcDbEntity
  8
OBJECT
100
AcDbCircle
 10
85.96472958845987
 20
44.88356990317089
 30
0.0
 40
0.1968499999999989
100
AcDbArc
 50
200.1156803920224
 51
249.8843196079771
  0
ARC
  5
7A0D
330
1E
100
AcDbEntity
  8
OBJECT
100
AcDbCircle
 10
71.67332958845989
 20
44.88356990317089
 30
0.0
 40
0.1968499999999989
100
AcDbArc
 50
290.1156803920246
 51
339.8843196079793
  0
LINE
  5
7A0E
330
1E
100
AcDbEntity
  8
OBJECT
100
AcDbLine
 10
72.70132958845988
 20
15.38924418425386
 30
0.0
 11
72.70132958845988
 21
15.76424418425387
 31
0.0
  0
LINE
  5
7A0F
330
1E
100
AcDbEntity
  8
OBJECT
100
AcDbLine
 10
72.14132958845988
 20
15.76424418425387
 30
0.0
 11
72.14132958845988
 21
15.38924418425386
 31
0.0
  0
LINE
  5
7A10
330
1E
100
AcDbEntity
  8
OBJECT
100
AcDbLine
 10
72.57882958845988
 20
15.84224418425387
 30
0.0
 11
72.57882958845988
 21
16.39324418425388
 31
0.0
  0
LINE
  5
7A11
330
1E
100
AcDbEntity
  8
OBJECT
100
AcDbLine
 10
72.26382958845988
 20
16.39324418425388
 30
0.0
 11
72.26382958845988
 21
15.84224418425387
 31
0.0
  0
LINE
  5
7A12
330
1E
100
AcDbEntity
  8
OBJECT
100
AcDbLine
 10
85.49672958845988
 20
15.38924418425386
 30
0.0
 11
85.49672958845988
 21
15.76424418425387
 31
0.0
  0
LINE
  5
7A13
330
1E
100
AcDbEntity
  8
OBJECT
100
AcDbLine
 10
84.93672958845989
 20
15.76424418425387
 30
0.0
 11
84.93672958845989
 21
15.38924418425386
 31
0.0
  0
LINE
  5
7A14
330
1E
100
AcDbEntity
  8
OBJECT
100
AcDbLine
 10
85.37422958845988
 20
15.84224418425387
 30
0.0
 11
85.37422958845988
 21
16.39324418425388
 31
0.0
  0
LINE
  5
7A15
330
1E
100
AcDbEntity
  8
OBJECT
100
AcDbLine
 10
85.05922958845989
 20
16.39324418425388
 30
0.0
 11
85.05922958845989
 21
15.84224418425387
 31
0.0
  0
LINE
  5
7A16
330
1E
100
AcDbEntity
  8
OBJECT
100
AcDbLine
 10
71.92927958845988
 20
15.76424418425387
 30
0.0
 11
71.92927958845988
 21
15.84224418425387
 31
0.0
  0
LINE
  5
7A17
330
1E
100
AcDbEntity
  8
OBJECT
100
AcDbLine
 10
85.70877958845988
 20
15.84224418425387
 30
0.0
 11
85.70877958845988
 21
15.76424418425387
 31
0.0
  0
LINE
  5
7A18
330
1E
100
AcDbEntity
  8
OBJECT
100
AcDbLine
 10
85.70877958845988
 20
15.76424418425387
 30
0.0
 11
71.92927958845988
 21
15.76424418425387
 31
0.0
  0
LINE
  5
7A19
330
1E
100
AcDbEntity
  8
OBJECT
100
AcDbLine
 10
85.70877958845988
 20
15.84224418425387
 30
0.0
 11
71.92927958845988
 21
15.84224418425387
 31
0.0
  0
LINE
  5
7A1A
330
1E
100
AcDbEntity
  8
OBJECT
100
AcDbLine
 10
72.57882958845988
 20
16.39324418425388
 30
0.0
 11
72.26382958845988
 21
16.39324418425388
 31
0.0
  0
LINE
  5
7A1B
330
1E
100
AcDbEntity
  8
OBJECT
100
AcDbLine
 10
85.37422958845988
 20
16.39324418425388
 30
0.0
 11
85.05922958845989
 21
16.39324418425388
 31
0.0
  0
TEXT
  5
7A1C
330
1E
100
AcDbEntity
  8
TEXT
100
AcDbText
 10
7.275448571571425
 20
54.8453704278171
 30
0.0
 40
1.032902644214618
  1
SNB-SERIES NEMA STAINLESS STEEL BOXES
 41
0.75
 72
     1
 11
21.21963426846877
 21
54.8453704278171
 31
0.0
100
AcDbText
  0
SPLINE
  5
7A1D
330
1E
100
AcDbEntity
  8
OBJECT
100
AcDbSpline
210
0.0
220
0.0
230
1.0
 70
     8
 71
     3
 72
     9
 73
     5
 74
     0
 42
0.0000000001
 43
0.0000000001
 40
0.0
 40
0.0
 40
0.0
 40
0.0
 40
0.9581807484847246
 40
1.0
 40
1.0
 40
1.0
 40
1.0
 10
39.03225237889367
 20
40.11118562291294
 30
0.0
 10
38.97069094794174
 20
40.14201341122006
 30
0.0
 10
38.98644270349593
 20
40.17418666074097
 30
0.0
 10
38.92002983468045
 20
40.20145390455922
 30
0.0
 10
38.91725249821561
 20
40.20259420028658
 30
0.0
  0
SPLINE
  5
7A1E
330
1E
100
AcDbEntity
  8
OBJECT
100
AcDbSpline
210
0.0
220
0.0
230
1.0
 70
     8
 71
     3
 72
    20
 73
    16
 74
     0
 42
0.0000000001
 43
0.0000000001
 40
0.0
 40
0.0
 40
0.0
 40
0.0
 40
0.0164940124850061
 40
0.0346196887425862
 40
0.0554804901143948
 40
0.0798105358858066
 40
0.1295222776288297
 40
0.1901915871503359
 40
0.2464741620118386
 40
0.3088260066865387
 40
0.418424837758434
 40
0.5901189129620552
 40
0.713359551493984
 40
0.8808151701293768
 40
1.0
 40
1.0
 40
1.0
 40
1.0
 10
39.03225223659345
 20
30.67270569921315
 30
0.0
 10
39.03254141582397
 20
30.67270066581292
 30
0.0
 10
39.03314838122799
 20
30.67269010108529
 30
0.0
 10
39.03403016220893
 20
30.67260773971305
 30
0.0
 10
39.03490179689775
 20
30.67247888170339
 30
0.0
 10
39.03601894423065
 20
30.67224394042407
 30
0.0
 10
39.03729674672513
 20
30.67185763868464
 30
0.0
 10
39.03852946452261
 20
30.67134898960763
 30
0.0
 10
39.03962657728873
 20
30.6707849613426
 30
0.0
 10
39.04081622673201
 20
30.67005171010642
 30
0.0
 10
39.04225644409831
 20
30.66895018672487
 30
0.0
 10
39.04358808794604
 20
30.66759039647284
 30
0.0
 10
39.04472733246066
 20
30.6660929100168
 30
0.0
 10
39.04555819708129
 20
30.66470758698196
 30
0.0
 10
39.04597044762708
 20
30.66376245710391
 30
0.0
 10
39.04614186101769
 20
30.66336947298632
 30
0.0
  0
SPLINE
  5
7A1F
330
1E
100
AcDbEntity
  8
OBJECT
100
AcDbSpline
210
0.0
220
0.0
230
1.0
 70
     8
 71
     3
 72
    10
 73
     6
 74
     0
 42
0.0000000001
 43
0.0000000001
 40
0.0
 40
0.0
 40
0.0
 40
0.0
 40
0.5
 40
0.5
 40
1.0
 40
1.0
 40
1.0
 40
1.0
 10
39.04725223659345
 20
40.10379647446872
 30
0.0
 10
39.04725223659345
 20
40.10379647446872
 30
0.0
 10
39.04540252904245
 20
40.10471013817486
 30
0.0
 10
39.03973742045103
 20
40.10750333281741
 30
0.0
 10
39.03600776582401
 20
40.10934004790413
 30
0.0
 10
39.03225223659345
 20
40.11118561484829
 30
0.0
  0
SPLINE
  5
7A20
330
1E
100
AcDbEntity
  8
OBJECT
100
AcDbSpline
210
0.0
220
0.0
230
1.0
 70
     8
 71
     3
 72
    20
 73
    16
 74
     0
 42
0.0000000001
 43
0.0000000001
 40
0.0
 40
0.0
 40
0.0
 40
0.0
 40
0.1250000000000015
 40
0.1250000000000015
 40
0.2500000000000031
 40
0.2500000000000031
 40
0.3750000000000045
 40
0.3750000000000045
 40
0.5000000000000062
 40
0.5000000000000062
 40
0.6250000000000077
 40
0.6250000000000077
 40
0.7500000000000091
 40
0.7500000000000091
 40
1.0
 40
1.0
 40
1.0
 40
1.0
 10
46.01525223659345
 20
39.71563007493664
 30
0.0
 10
46.02030403831551
 20
39.71661892433413
 30
0.0
 10
46.02526708946266
 20
39.71762338341112
 30
0.0
 10
46.03502465753457
 20
39.7196583579436
 30
0.0
 10
46.03986509832738
 20
39.72069915418784
 30
0.0
 10
46.04913422647769
 20
39.72274613542321
 30
0.0
 10
46.05353241077939
 20
39.72374484057896
 30
0.0
 10
46.06186353982692
 20
39.72567833904115
 30
0.0
 10
46.06582708526312
 20
39.7266208735836
 30
0.0
 10
46.07295944687979
 20
39.728346910121
 30
0.0
 10
46.07616444425201
 20
39.72913851744378
 30
0.0
 10
46.0818361639553
 20
39.73055712229088
 30
0.0
 10
46.08428373642566
 20
39.73117946344117
 30
0.0
 10
46.09015295728005
 20
39.73268326964027
 30
0.0
 10
46.09225223659345
 20
39.73323634265487
 30
0.0
 10
46.09225223659345
 20
39.73323634265487
 30
0.0
  0
SPLINE
  5
7A21
330
1E
100
AcDbEntity
  8
OBJECT
100
AcDbSpline
210
0.0
220
0.0
230
1.0
 70
     8
 71
     3
 72
    18
 73
    14
 74
     0
 42
0.0000000001
 43
0.0000000001
 40
0.0
 40
0.0
 40
0.0
 40
0.0
 40
0.2500000000000005
 40
0.2500000000000005
 40
0.5000000000000011
 40
0.5000000000000011
 40
0.6250000000000008
 40
0.6250000000000008
 40
0.7500000000000006
 40
0.7500000000000006
 40
0.8750000000000001
 40
0.8750000000000001
 40
1.0
 40
1.0
 40
1.0
 40
1.0
 10
39.12425223659345
 20
40.06540552804453
 30
0.0
 10
39.11462623555863
 20
40.07024255253985
 30
0.0
 10
39.10524943962154
 20
40.07494344472774
 30
0.0
 10
39.08706306811734
 20
40.08403561227207
 30
0.0
 10
39.07876293239145
 20
40.08817206069034
 30
0.0
 10
39.06770290188566
 20
40.09366983689919
 30
0.0
 10
39.06438287018943
 20
40.09531759586685
 30
0.0
 10
39.05848796478179
 20
40.09824015637559
 30
0.0
 10
39.05589101668337
 20
40.09952586955458
 30
0.0
 10
39.05164872104201
 20
40.10162457072531
 30
0.0
 10
39.05003322520882
 20
40.10242285461218
 30
0.0
 10
39.04783147913092
 20
40.10351053299875
 30
0.0
 10
39.04725223659345
 20
40.10379647446872
 30
0.0
 10
39.04725223659345
 20
40.10379647446872
 30
0.0
  0
SPLINE
  5
7A22
330
1E
100
AcDbEntity
  8
OBJECT
100
AcDbSpline
210
0.0
220
0.0
230
1.0
 70
     8
 71
     3
 72
    11
 73
     7
 74
     0
 42
0.0000000001
 43
0.0000000001
 40
0.0612464999175852
 40
0.0612464999175852
 40
0.0612464999175852
 40
0.0612464999175852
 40
0.0684320770662626
 40
0.1361565680258016
 40
0.1930079276673972
 40
0.2326313084054044
 40
0.2326313084054044
 40
0.2326313084054044
 40
0.2326313084054044
 10
46.01525223659358
 20
39.71563007493667
 30
0.0
 10
45.94872644301611
 20
39.7026081879912
 30
0.0
 10
45.24927975873547
 20
39.62538162378564
 30
0.0
 10
43.92722753568572
 20
40.69700655655622
 30
0.0
 10
40.36573673560698
 20
39.40156770355365
 30
0.0
 10
39.49994354330765
 20
39.87662224756478
 30
0.0
 10
39.12425223659343
 20
40.06540552804453
 30
0.0
  0
SPLINE
  5
7A23
330
1E
100
AcDbEntity
  8
OBJECT
100
AcDbSpline
210
0.0
220
0.0
230
1.0
 70
     8
 71
     3
 72
    12
 73
     8
 74
     0
 42
0.0000000001
 43
0.0000000001
 40
0.0
 40
0.0
 40
0.0
 40
0.0
 40
0.2181034520117595
 40
0.4362715644612284
 40
0.6526949199584797
 40
0.8666028436447918
 40
1.0
 40
1.0
 40
1.0
 40
1.0
 10
38.30425216631441
 20
40.39303045368406
 30
0.0
 10
38.2955246137207
 20
40.39449148580035
 30
0.0
 10
38.27806692110349
 20
40.39741398318049
 30
0.0
 10
38.25480064010164
 20
40.40103114162562
 30
0.0
 10
38.23739944096928
 20
40.40362617893987
 30
0.0
 10
38.22847095434614
 20
40.40491231802876
 30
0.0
 10
38.22759060458934
 20
40.4050385064309
 30
0.0
 10
38.22725246915481
 20
40.4050869744061
 30
0.0
  0
SPLINE
  5
7A24
330
1E
100
AcDbEntity
  8
OBJECT
100
AcDbSpline
210
0.0
220
0.0
230
1.0
 70
     8
 71
     3
 72
    10
 73
     6
 74
     0
 42
0.0000000001
 43
0.0000000001
 40
0.0
 40
0.0
 40
0.0
 40
0.0
 40
0.3331677964775234
 40
0.6661108773218205
 40
1.0
 40
1.0
 40
1.0
 40
1.0
 10
38.91725249821561
 20
40.20287154374935
 30
0.0
 10
38.85147151788731
 20
40.23082902551218
 30
0.0
 10
38.71995392530834
 20
40.28672513222367
 30
0.0
 10
38.51514764815646
 20
40.35230861440012
 30
0.0
 10
38.37461711764044
 20
40.37944367499116
 30
0.0
 10
38.30425216631441
 20
40.39303045368406
 30
0.0
  0
LINE
  5
7A25
330
1E
100
AcDbEntity
  8
OBJECT
100
AcDbLine
 10
46.09225223659345
 20
30.01570582040113
 30
0.0
 11
46.09225223659345
 21
39.73323633234872
 31
0.0
  0
LINE
  5
7A26
330
1E
100
AcDbEntity
  8
OBJECT
100
AcDbLine
 10
39.04725209894896
 20
30.02277683204954
 30
0.0
 11
39.04725209894896
 21
40.10379649493943
 31
0.0
  0
LINE
  5
7A27
330
1E
100
AcDbEntity
  8
OBJECT
100
AcDbLine
 10
38.2272524691548
 20
40.4050869744061
 30
0.0
 11
38.22725246915481
 21
30.01570582040113
 31
0.0
  0
LINE
  5
7A28
330
1E
100
AcDbEntity
  8
OBJECT
100
AcDbLine
 10
38.91725249821561
 20
40.20287154374935
 30
0.0
 11
38.91725249821561
 21
30.01570582040113
 31
0.0
  0
ARC
  5
7A29
330
1E
100
AcDbEntity
  8
OBJECT
100
AcDbCircle
 10
38.72958666383365
 20
37.92539252712333
 30
0.0
 40
0.8327572805799132
100
AcDbArc
 50
217.6507757275026
 51
232.8992595315765
  0
LINE
  5
7A2A
330
1E
100
AcDbEntity
  8
OBJECT
100
AcDbLine
 10
39.12425238276844
 20
29.9387058299116
 30
0.0
 11
46.01525223693736
 21
29.9387058299116
 31
0.0
  0
LINE
  5
7A2B
330
1E
100
AcDbEntity
  8
OBJECT
100
AcDbLine
 10
46.17025223469748
 20
31.01700577329863
 30
0.0
 11
46.17025223469748
 21
29.90760581584828
 31
0.0
  0
LINE
  5
7A2C
330
1E
100
AcDbEntity
  8
OBJECT
100
AcDbLine
 10
45.96725223810411
 20
29.892005942726
 30
0.0
 11
45.84225223961475
 21
29.892005942726
 31
0.0
  0
LINE
  5
7A2D
330
1E
100
AcDbEntity
  8
OBJECT
100
AcDbLine
 10
45.84225223961475
 20
29.81400599045477
 30
0.0
 11
45.96725223810411
 21
29.81400599045477
 31
0.0
  0
LINE
  5
7A2E
330
1E
100
AcDbEntity
  8
OBJECT
100
AcDbLine
 10
45.96725223810411
 20
29.892005942726
 30
0.0
 11
46.09356139191269
 21
29.892005942726
 31
0.0
  0
LINE
  5
7A2F
330
1E
100
AcDbEntity
  8
OBJECT
100
AcDbLine
 10
45.96725223810411
 20
29.81400599045477
 30
0.0
 11
46.1858522361516
 21
29.81400599045477
 31
0.0
  0
LINE
  5
7A30
330
1E
100
AcDbEntity
  8
OBJECT
100
AcDbLine
 10
46.09225223659345
 20
30.01570582040113
 30
0.0
 11
46.09225223659345
 21
29.90760581584828
 31
0.0
  0
LINE
  5
7A31
330
1E
100
AcDbEntity
  8
OBJECT
100
AcDbLine
 10
46.54225223482174
 20
29.79840553067262
 30
0.0
 11
46.54225223482174
 21
28.78200553887873
 31
0.0
  0
LINE
  5
7A32
330
1E
100
AcDbEntity
  8
OBJECT
100
AcDbLine
 10
46.46425224588426
 20
29.79840553067262
 30
0.0
 11
46.46425224588426
 21
28.78200553887873
 31
0.0
  0
ARC
  5
7A33
330
1E
100
AcDbEntity
  8
OBJECT
100
AcDbCircle
 10
46.18585223659346
 20
29.90760569921313
 30
0.0
 40
0.0936000000000004
100
AcDbArc
 50
180.0
 51
269.9999999999992
  0
ARC
  5
7A34
330
1E
100
AcDbEntity
  8
OBJECT
100
AcDbCircle
 10
46.18585223659346
 20
29.90760569921313
 30
0.0
 40
0.0155999999999992
100
AcDbArc
 50
180.0
 51
269.9999999999992
  0
ARC
  5
7A35
330
1E
100
AcDbEntity
  8
OBJECT
100
AcDbCircle
 10
46.44865223659346
 20
29.79840569921313
 30
0.0
 40
0.0156000000000027
100
AcDbArc
 50
0.0
 51
90.0
  0
ARC
  5
7A36
330
1E
100
AcDbEntity
  8
OBJECT
100
AcDbCircle
 10
46.44865223659346
 20
29.79840569921313
 30
0.0
 40
0.0936000000000057
100
AcDbArc
 50
0.0
 51
90.0
  0
LINE
  5
7A37
330
1E
100
AcDbEntity
  8
OBJECT
100
AcDbLine
 10
46.46425224588426
 20
28.78200553887873
 30
0.0
 11
46.46425224588426
 21
28.65700591621836
 31
0.0
  0
LINE
  5
7A38
330
1E
100
AcDbEntity
  8
OBJECT
100
AcDbLine
 10
46.54225223482174
 20
28.65700591621836
 30
0.0
 11
46.54225223482174
 21
28.78200553887873
 31
0.0
  0
LINE
  5
7A39
330
1E
100
AcDbEntity
  8
OBJECT
100
AcDbLine
 10
46.46425224588426
 20
28.65700591621836
 30
0.0
 11
46.54225223482174
 21
28.65700591621836
 31
0.0
  0
LINE
  5
7A3A
330
1E
100
AcDbEntity
  8
OBJECT
100
AcDbLine
 10
46.1858522361516
 20
29.892005942726
 30
0.0
 11
46.44865222609704
 21
29.892005942726
 31
0.0
  0
LINE
  5
7A3B
330
1E
100
AcDbEntity
  8
OBJECT
100
AcDbLine
 10
46.1858522361516
 20
29.81400599045477
 30
0.0
 11
46.44865222609704
 21
29.81400599045477
 31
0.0
  0
ARC
  5
7A3C
330
1E
100
AcDbEntity
  8
OBJECT
100
AcDbCircle
 10
46.01525223659345
 20
30.01570569921315
 30
0.0
 40
0.077
100
AcDbArc
 50
269.9999999999992
 51
0.0
  0
LINE
  5
7A3D
330
1E
100
AcDbEntity
  8
OBJECT
100
AcDbLine
 10
45.84225223961475
 20
29.892005942726
 30
0.0
 11
45.84225223961475
 21
29.81400599045477
 31
0.0
  0
LINE
  5
7A3E
330
1E
100
AcDbEntity
  8
OBJECT
100
AcDbLine
 10
46.17025223469748
 20
31.01700577329863
 30
0.0
 11
46.17025223469748
 21
31.14200568928893
 31
0.0
  0
LINE
  5
7A3F
330
1E
100
AcDbEntity
  8
OBJECT
100
AcDbLine
 10
46.17025223469748
 20
31.14200568928893
 30
0.0
 11
46.09225223659345
 21
31.14200568928893
 31
0.0
  0
LINE
  5
7A40
330
1E
100
AcDbEntity
  8
OBJECT
100
AcDbLine
 10
38.30425216631443
 20
29.9387058299116
 30
0.0
 11
38.84025221439611
 21
29.9387058299116
 31
0.0
  0
LINE
  5
7A41
330
1E
100
AcDbEntity
  8
OBJECT
100
AcDbLine
 10
39.04725209894896
 20
30.02277683204954
 30
0.0
 11
39.04725209894896
 21
30.01570582040113
 31
0.0
  0
ARC
  5
7A42
330
1E
100
AcDbEntity
  8
OBJECT
100
AcDbCircle
 10
39.12425223659345
 20
30.01570569921315
 30
0.0
 40
0.0770000000000017
100
AcDbArc
 50
179.9999999999971
 51
269.9999999999992
  0
ARC
  5
7A43
330
1E
100
AcDbEntity
  8
OBJECT
100
AcDbCircle
 10
38.84025223659347
 20
30.01570569921315
 30
0.0
 40
0.0769999999999982
100
AcDbArc
 50
269.9999999999967
 51
0.0
  0
LINE
  5
7A4B
330
1E
100
AcDbEntity
  8
OBJECT
100
AcDbLine
 10
38.91725249821561
 20
30.67270564401644
 30
0.0
 11
39.03225237889367
 21
30.67270564401644
 31
0.0
  0
ARC
  5
7A4C
330
1E
100
AcDbEntity
  8
OBJECT
100
AcDbCircle
 10
39.03225223659345
 20
30.65770569921315
 30
0.0
 40
0.014999999999997
100
AcDbArc
 50
0.000000000271543
 51
22.18416693954292
  0
ARC
  5
7A52
330
1E
100
AcDbEntity
  8
OBJECT
100
AcDbCircle
 10
38.3042522365935
 20
30.01570569921315
 30
0.0
 40
0.0770000000000017
100
AcDbArc
 50
179.9999999999865
 51
269.9999999999992
  0
LINE
  5
7A53
330
1E
100
AcDbEntity
  8
OBJECT
100
AcDbLine
 10
46.01525223693736
 20
45.62420559141041
 30
0.0
 11
39.12425238276844
 21
45.62420559141041
 31
0.0
  0
LINE
  5
7A54
330
1E
100
AcDbEntity
  8
OBJECT
100
AcDbLine
 10
46.01525223693736
 20
45.68620556851472
 30
0.0
 11
39.12425238276844
 21
45.68620556851472
 31
0.0
  0
LINE
  5
7A55
330
1E
100
AcDbEntity
  8
OBJECT
100
AcDbLine
 10
46.09225223659346
 20
39.73323633234872
 30
0.0
 11
46.09225223659345
 21
45.60920557802518
 31
0.0
  0
LINE
  5
7A56
330
1E
100
AcDbEntity
  8
OBJECT
100
AcDbLine
 10
46.03025223657275
 20
39.71866304070063
 30
0.0
 11
46.03025223657275
 21
45.60920557802518
 31
0.0
  0
LINE
  5
7A57
330
1E
100
AcDbEntity
  8
OBJECT
100
AcDbLine
 10
46.03025223657275
 20
44.42743349662378
 30
0.0
 11
46.03025223657275
 21
43.99237796242243
 31
0.0
  0
LINE
  5
7A58
330
1E
100
AcDbEntity
  8
OBJECT
100
AcDbLine
 10
45.65485855485452
 20
39.7024130017558
 30
0.0
 11
45.65485855485452
 21
44.99725566065618
 31
0.0
  0
LINE
  5
7A59
330
1E
100
AcDbEntity
  8
OBJECT
100
AcDbLine
 10
45.57685852925081
 20
39.71363147882566
 30
0.0
 11
45.57685852925081
 21
44.99725566065618
 31
0.0
  0
LINE
  5
7A5A
330
1E
100
AcDbEntity
  8
OBJECT
100
AcDbLine
 10
46.03025223657275
 20
43.92990572410705
 30
0.0
 11
45.65485855485452
 21
43.92990572410705
 31
0.0
  0
LINE
  5
7A5B
330
1E
100
AcDbEntity
  8
OBJECT
100
AcDbLine
 10
45.02625220445013
 20
44.05240558897816
 30
0.0
 11
45.02625220445013
 21
44.36740557673809
 31
0.0
  0
LINE
  5
7A5C
330
1E
100
AcDbEntity
  8
OBJECT
100
AcDbLine
 10
45.02625220445013
 20
44.36740557673809
 30
0.0
 11
45.57685852925081
 21
44.36740557673809
 31
0.0
  0
LINE
  5
7A5D
330
1E
100
AcDbEntity
  8
OBJECT
100
AcDbLine
 10
45.57685852925081
 20
44.05240558897816
 30
0.0
 11
45.02625220445013
 21
44.05240558897816
 31
0.0
  0
LINE
  5
7A5E
330
1E
100
AcDbEntity
  8
OBJECT
100
AcDbLine
 10
46.54225223482174
 20
45.82650586775369
 30
0.0
 11
46.54225223482174
 21
46.84290585954758
 31
0.0
  0
LINE
  5
7A5F
330
1E
100
AcDbEntity
  8
OBJECT
100
AcDbLine
 10
46.46425224588426
 20
45.82650586775369
 30
0.0
 11
46.46425224588426
 21
46.84290585954758
 31
0.0
  0
LINE
  5
7A60
330
1E
100
AcDbEntity
  8
OBJECT
100
AcDbLine
 10
45.84225223961475
 20
45.73290545570031
 30
0.0
 11
45.96725223810411
 21
45.73290545570031
 31
0.0
  0
LINE
  5
7A61
330
1E
100
AcDbEntity
  8
OBJECT
100
AcDbLine
 10
45.96725223810411
 20
45.81090540797153
 30
0.0
 11
45.84225223961475
 21
45.81090540797153
 31
0.0
  0
LINE
  5
7A62
330
1E
100
AcDbEntity
  8
OBJECT
100
AcDbLine
 10
45.65485855485452
 20
44.48990573493915
 30
0.0
 11
46.03025223657275
 21
44.48990573493915
 31
0.0
  0
LINE
  5
7A63
330
1E
100
AcDbEntity
  8
OBJECT
100
AcDbLine
 10
46.09356139191269
 20
45.73290545570031
 30
0.0
 11
45.96725223810411
 21
45.73290545570031
 31
0.0
  0
LINE
  5
7A64
330
1E
100
AcDbEntity
  8
OBJECT
100
AcDbLine
 10
46.1858522361516
 20
45.81090540797153
 30
0.0
 11
45.96725223810411
 21
45.81090540797153
 31
0.0
  0
ARC
  5
7A65
330
1E
100
AcDbEntity
  8
OBJECT
100
AcDbCircle
 10
46.18585223659346
 20
45.71730569921315
 30
0.0
 40
0.0936000000000004
100
AcDbArc
 50
90.0
 51
180.0
  0
ARC
  5
7A66
330
1E
100
AcDbEntity
  8
OBJECT
100
AcDbCircle
 10
46.18585223659346
 20
45.71730569921315
 30
0.0
 40
0.0155999999999992
100
AcDbArc
 50
90.0
 51
180.0
  0
LINE
  5
7A67
330
1E
100
AcDbEntity
  8
OBJECT
100
AcDbLine
 10
46.1858522361516
 20
45.73290545570031
 30
0.0
 11
46.44865222609704
 21
45.73290545570031
 31
0.0
  0
LINE
  5
7A68
330
1E
100
AcDbEntity
  8
OBJECT
100
AcDbLine
 10
46.1858522361516
 20
45.81090540797153
 30
0.0
 11
46.44865222609704
 21
45.81090540797153
 31
0.0
  0
ARC
  5
7A69
330
1E
100
AcDbEntity
  8
OBJECT
100
AcDbCircle
 10
46.44865223659346
 20
45.82650569921315
 30
0.0
 40
0.0936000000000021
100
AcDbArc
 50
269.9999999999992
 51
0.0
  0
ARC
  5
7A6A
330
1E
100
AcDbEntity
  8
OBJECT
100
AcDbCircle
 10
46.44865223659346
 20
45.82650569921315
 30
0.0
 40
0.015600000000001
100
AcDbArc
 50
269.9999999999992
 51
0.0
  0
LINE
  5
7A6B
330
1E
100
AcDbEntity
  8
OBJECT
100
AcDbLine
 10
46.17025223469748
 20
44.48290570913738
 30
0.0
 11
46.17025223469748
 21
44.60790562512769
 31
0.0
  0
LINE
  5
7A6C
330
1E
100
AcDbEntity
  8
OBJECT
100
AcDbLine
 10
46.09225223659345
 20
44.48290570913738
 30
0.0
 11
46.17025223469748
 21
44.48290570913738
 31
0.0
  0
LINE
  5
7A6D
330
1E
100
AcDbEntity
  8
OBJECT
100
AcDbLine
 10
46.09225223659345
 20
45.60920557802518
 30
0.0
 11
46.09225223659345
 21
45.71730558257804
 31
0.0
  0
LINE
  5
7A6E
330
1E
100
AcDbEntity
  8
OBJECT
100
AcDbLine
 10
46.17025223469748
 20
44.60790562512769
 30
0.0
 11
46.17025223469748
 21
45.71730558257804
 31
0.0
  0
ARC
  5
7A6F
330
1E
100
AcDbEntity
  8
OBJECT
100
AcDbCircle
 10
46.01525223659345
 20
45.60920569921316
 30
0.0
 40
0.0150000000000077
100
AcDbArc
 50
359.9999999991307
 51
90.0
  0
ARC
  5
7A70
330
1E
100
AcDbEntity
  8
OBJECT
100
AcDbCircle
 10
46.01525223659345
 20
45.60920569921316
 30
0.0
 40
0.0770000000000124
100
AcDbArc
 50
0.0
 51
90.0
  0
LINE
  5
7A71
330
1E
100
AcDbEntity
  8
OBJECT
100
AcDbLine
 10
45.84225223961475
 20
45.73290545570031
 30
0.0
 11
45.84225223961475
 21
45.81090540797153
 31
0.0
  0
LINE
  5
7A72
330
1E
100
AcDbEntity
  8
OBJECT
100
AcDbLine
 10
45.65485855485452
 20
44.99725566065618
 30
0.0
 11
45.57685852925081
 21
44.99725566065618
 31
0.0
  0
LINE
  5
7A73
330
1E
100
AcDbEntity
  8
OBJECT
100
AcDbLine
 10
46.46425224588426
 20
46.96790548220795
 30
0.0
 11
46.46425224588426
 21
46.84290585954758
 31
0.0
  0
LINE
  5
7A74
330
1E
100
AcDbEntity
  8
OBJECT
100
AcDbLine
 10
46.54225223482174
 20
46.96790548220795
 30
0.0
 11
46.46425224588426
 21
46.96790548220795
 31
0.0
  0
LINE
  5
7A75
330
1E
100
AcDbEntity
  8
OBJECT
100
AcDbLine
 10
46.54225223482174
 20
46.84290585954758
 30
0.0
 11
46.54225223482174
 21
46.96790548220795
 31
0.0
  0
LINE
  5
7A76
330
1E
100
AcDbEntity
  8
OBJECT
100
AcDbLine
 10
38.28925244625911
 20
44.86920569990025
 30
0.0
 11
38.66425248755999
 21
44.86920569990025
 31
0.0
  0
LINE
  5
7A77
330
1E
100
AcDbEntity
  8
OBJECT
100
AcDbLine
 10
38.84025221439611
 20
45.68620556851472
 30
0.0
 11
38.30425216631441
 21
45.68620556851472
 31
0.0
  0
LINE
  5
7A78
330
1E
100
AcDbEntity
  8
OBJECT
100
AcDbLine
 10
38.84025221439611
 20
45.62420559141041
 30
0.0
 11
38.30425216631441
 21
45.62420559141041
 31
0.0
  0
LINE
  5
7A79
330
1E
100
AcDbEntity
  8
OBJECT
100
AcDbLine
 10
38.66425248755999
 20
45.62420559141041
 30
0.0
 11
38.28925244625911
 21
45.62420559141041
 31
0.0
  0
LINE
  5
7A7A
330
1E
100
AcDbEntity
  8
OBJECT
100
AcDbLine
 10
38.28925244625911
 20
44.87420580213864
 30
0.0
 11
38.66425248755999
 21
44.87420580213864
 31
0.0
  0
LINE
  5
7A7B
330
1E
100
AcDbEntity
  8
OBJECT
100
AcDbLine
 10
38.91825216666734
 20
43.75620570403785
 30
0.0
 11
38.32925209084648
 21
43.75620570403785
 31
0.0
  0
LINE
  5
7A7C
330
1E
100
AcDbEntity
  8
OBJECT
100
AcDbLine
 10
38.32925209084648
 20
43.99220577774485
 30
0.0
 11
38.91825216666734
 21
43.99220577774485
 31
0.0
  0
LINE
  5
7A7D
330
1E
100
AcDbEntity
  8
OBJECT
100
AcDbLine
 10
38.66425248755999
 20
44.86920569990025
 30
0.0
 11
38.66425248755999
 21
43.99220577774485
 31
0.0
  0
LINE
  5
7A7E
330
1E
100
AcDbEntity
  8
OBJECT
100
AcDbLine
 10
39.10925207605327
 20
44.96013475614669
 30
0.0
 11
39.10925207605327
 21
40.07292491157061
 31
0.0
  0
LINE
  5
7A7F
330
1E
100
AcDbEntity
  8
OBJECT
100
AcDbLine
 10
38.66425248755999
 20
43.75620570403785
 30
0.0
 11
38.66425248755999
 21
40.30290761479078
 31
0.0
  0
LINE
  5
7A80
330
1E
100
AcDbEntity
  8
OBJECT
100
AcDbLine
 10
38.91825216666734
 20
43.99220577774485
 30
0.0
 11
38.91825216666734
 21
43.75620570403785
 31
0.0
  0
LINE
  5
7A81
330
1E
100
AcDbEntity
  8
OBJECT
100
AcDbLine
 10
40.60925224125668
 20
44.99520557767223
 30
0.0
 11
40.49125235106815
 21
44.99520557767223
 31
0.0
  0
LINE
  5
7A82
330
1E
100
AcDbEntity
  8
OBJECT
100
AcDbLine
 10
40.60925224125668
 20
45.58420565349311
 30
0.0
 11
40.46525217142445
 21
45.58420565349311
 31
0.0
  0
LINE
  5
7A83
330
1E
100
AcDbEntity
  8
OBJECT
100
AcDbLine
 10
40.72725213144522
 20
44.99520557767223
 30
0.0
 11
40.60925224125668
 21
44.99520557767223
 31
0.0
  0
LINE
  5
7A84
330
1E
100
AcDbEntity
  8
OBJECT
100
AcDbLine
 10
40.75325231108893
 20
45.58420565349311
 30
0.0
 11
40.60925224125668
 21
45.58420565349311
 31
0.0
  0
LINE
  5
7A85
330
1E
100
AcDbEntity
  8
OBJECT
100
AcDbLine
 10
40.72725213144522
 20
45.58420565349311
 30
0.0
 11
40.72725213144522
 21
44.99520557767223
 31
0.0
  0
LINE
  5
7A86
330
1E
100
AcDbEntity
  8
OBJECT
100
AcDbLine
 10
40.75325231108893
 20
45.62420559141041
 30
0.0
 11
40.75325231108893
 21
45.58420565349311
 31
0.0
  0
LINE
  5
7A87
330
1E
100
AcDbEntity
  8
OBJECT
100
AcDbLine
 10
40.49125235106815
 20
44.99520557767223
 30
0.0
 11
40.49125235106815
 21
45.58420565349311
 31
0.0
  0
LINE
  5
7A88
330
1E
100
AcDbEntity
  8
OBJECT
100
AcDbLine
 10
40.46525217142445
 20
45.58420565349311
 30
0.0
 11
40.46525217142445
 21
45.62420559141041
 31
0.0
  0
LINE
  5
7A89
330
1E
100
AcDbEntity
  8
OBJECT
100
AcDbLine
 10
38.41741169491905
 20
44.87420580213864
 30
0.0
 11
38.41741169491905
 21
44.86920569990025
 31
0.0
  0
LINE
  5
7A8A
330
1E
100
AcDbEntity
  8
OBJECT
100
AcDbLine
 10
39.10925207605327
 20
44.96013475614669
 30
0.0
 11
39.10925207605327
 21
44.96720576779511
 31
0.0
  0
ARC
  5
7A8B
330
1E
100
AcDbEntity
  8
OBJECT
100
AcDbCircle
 10
39.12425223659345
 20
45.60920569921316
 30
0.0
 40
0.0150000000000006
100
AcDbArc
 50
90.0
 51
179.9999999999727
  0
LINE
  5
7A8C
330
1E
100
AcDbEntity
  8
OBJECT
100
AcDbLine
 10
39.10925207605327
 20
44.96720576779511
 30
0.0
 11
39.10925207605327
 21
45.60920557802518
 31
0.0
  0
ARC
  5
7A8D
330
1E
100
AcDbEntity
  8
OBJECT
100
AcDbCircle
 10
39.03225223659345
 20
44.96720569921317
 30
0.0
 40
0.0770000000000053
100
AcDbArc
 50
269.9999999999992
 51
0.0
  0
LINE
  5
7A8E
330
1E
100
AcDbEntity
  8
OBJECT
100
AcDbLine
 10
38.65446570311758
 20
44.89020577730556
 30
0.0
 11
39.03225237889367
 21
44.89020577730556
 31
0.0
  0
ARC
  5
7A8F
330
1E
100
AcDbEntity
  8
OBJECT
100
AcDbCircle
 10
38.65446544002904
 20
44.96720569921317
 30
0.0
 40
0.0770000000000018
100
AcDbArc
 50
225.000000000001
 51
269.9999999999992
  0
LINE
  5
7A90
330
1E
100
AcDbEntity
  8
OBJECT
100
AcDbLine
 10
38.41741169491905
 20
45.09536514062043
 30
0.0
 11
38.60001838543098
 21
44.91275845010849
 31
0.0
  0
LINE
  5
7A91
330
1E
100
AcDbEntity
  8
OBJECT
100
AcDbLine
 10
38.4612522018031
 20
45.13920564750448
 30
0.0
 11
38.41741169491905
 21
45.09536514062043
 31
0.0
  0
LINE
  5
7A92
330
1E
100
AcDbEntity
  8
OBJECT
100
AcDbLine
 10
38.4612522018031
 20
45.13920564750448
 30
0.0
 11
38.64385889231503
 21
44.95659895699256
 31
0.0
  0
ARC
  5
7A93
330
1E
100
AcDbEntity
  8
OBJECT
100
AcDbCircle
 10
38.65446544002904
 20
44.96720569921317
 30
0.0
 40
0.0150000000000006
100
AcDbArc
 50
224.9999999999894
 51
269.9999999999992
  0
LINE
  5
7A94
330
1E
100
AcDbEntity
  8
OBJECT
100
AcDbLine
 10
38.65446570311758
 20
44.95220575440987
 30
0.0
 11
39.03225237889367
 21
44.95220575440987
 31
0.0
  0
ARC
  5
7A95
330
1E
100
AcDbEntity
  8
OBJECT
100
AcDbCircle
 10
39.03225223659345
 20
44.96720569921317
 30
0.0
 40
0.0150000000000006
100
AcDbArc
 50
269.9999999999992
 51
0.0
  0
LINE
  5
7A96
330
1E
100
AcDbEntity
  8
OBJECT
100
AcDbLine
 10
39.04725209894896
 20
44.96720576779511
 30
0.0
 11
39.04725209894896
 21
45.60920557802518
 31
0.0
  0
ARC
  5
7A97
330
1E
100
AcDbEntity
  8
OBJECT
100
AcDbCircle
 10
39.12425223659345
 20
45.60920569921316
 30
0.0
 40
0.0770000000000053
100
AcDbArc
 50
90.0
 51
180.0
  0
LINE
  5
7A98
330
1E
100
AcDbEntity
  8
OBJECT
100
AcDbLine
 10
38.84025221439611
 20
45.32720579571074
 30
0.0
 11
38.85525252111131
 21
45.32720579571074
 31
0.0
  0
LINE
  5
7A99
330
1E
100
AcDbEntity
  8
OBJECT
100
AcDbLine
 10
38.91577704859347
 20
45.32720579571074
 30
0.0
 11
38.91577704859347
 21
45.34220580909596
 31
0.0
  0
LINE
  5
7A9A
330
1E
100
AcDbEntity
  8
OBJECT
100
AcDbLine
 10
38.85525252111131
 20
45.32720579571074
 30
0.0
 11
38.85525252111131
 21
44.95220575440987
 31
0.0
  0
LINE
  5
7A9B
330
1E
100
AcDbEntity
  8
OBJECT
100
AcDbLine
 10
38.91725249821561
 20
45.32720579571074
 30
0.0
 11
38.85525252111131
 21
45.32720579571074
 31
0.0
  0
LINE
  5
7A9C
330
1E
100
AcDbEntity
  8
OBJECT
100
AcDbLine
 10
38.91725249821561
 20
45.32720579571074
 30
0.0
 11
38.91725249821561
 21
44.95220575440987
 31
0.0
  0
ARC
  5
7A9D
330
1E
100
AcDbEntity
  8
OBJECT
100
AcDbCircle
 10
38.84025223659349
 20
45.60920569921316
 30
0.0
 40
0.0770000000000017
100
AcDbArc
 50
0.0000000000028498
 51
90.0
  0
LINE
  5
7A9E
330
1E
100
AcDbEntity
  8
OBJECT
100
AcDbLine
 10
38.91725249821561
 20
45.60920557802518
 30
0.0
 11
38.91725249821561
 21
45.34220580909596
 31
0.0
  0
LINE
  5
7A9F
330
1E
100
AcDbEntity
  8
OBJECT
100
AcDbLine
 10
38.91725249821561
 20
45.34220580909596
 30
0.0
 11
38.85525252111131
 21
45.34220580909596
 31
0.0
  0
LINE
  5
7AA0
330
1E
100
AcDbEntity
  8
OBJECT
100
AcDbLine
 10
38.85525252111131
 20
45.60920557802518
 30
0.0
 11
38.85525252111131
 21
45.34220580909596
 31
0.0
  0
ARC
  5
7AA1
330
1E
100
AcDbEntity
  8
OBJECT
100
AcDbCircle
 10
38.84025223659349
 20
45.60920569921316
 30
0.0
 40
0.0150000000000006
100
AcDbArc
 50
0.0000000000134347
 51
90.0
  0
LINE
  5
7AA2
330
1E
100
AcDbEntity
  8
OBJECT
100
AcDbLine
 10
38.66425248755999
 20
44.87420580213864
 30
0.0
 11
38.66425248755999
 21
45.62420559141041
 31
0.0
  0
LINE
  5
7AA3
330
1E
100
AcDbEntity
  8
OBJECT
100
AcDbLine
 10
38.28925244625911
 20
45.60920557802518
 30
0.0
 11
38.28925244625911
 21
40.39554363131829
 31
0.0
  0
LINE
  5
7AA4
330
1E
100
AcDbEntity
  8
OBJECT
100
AcDbLine
 10
38.2272524691548
 20
45.60920557802518
 30
0.0
 11
38.2272524691548
 21
40.4050869744061
 31
0.0
  0
LINE
  5
7AA5
330
1E
100
AcDbEntity
  8
OBJECT
100
AcDbLine
 10
38.07025230950073
 20
38.20770518659069
 30
0.0
 11
38.07025230950073
 21
37.41670520428998
 31
0.0
  0
ARC
  5
7AA6
330
1E
100
AcDbEntity
  8
OBJECT
100
AcDbCircle
 10
38.72958666383365
 20
37.69901786375737
 30
0.0
 40
0.832757280579916
100
AcDbArc
 50
127.1007404684231
 51
142.3492242724967
  0
LINE
  5
7AA7
330
1E
100
AcDbEntity
  8
OBJECT
100
AcDbLine
 10
38.32925209084648
 20
44.01820566405862
 30
0.0
 11
38.32925209084648
 21
43.73020581772408
 31
0.0
  0
LINE
  5
7AA8
330
1E
100
AcDbEntity
  8
OBJECT
100
AcDbLine
 10
38.32925209084648
 20
43.73020581772408
 30
0.0
 11
38.28925244625911
 21
43.73020581772408
 31
0.0
  0
LINE
  5
7AA9
330
1E
100
AcDbEntity
  8
OBJECT
100
AcDbLine
 10
38.28925244625911
 20
44.01820566405862
 30
0.0
 11
38.32925209084648
 21
44.01820566405862
 31
0.0
  0
ARC
  5
7AAA
330
1E
100
AcDbEntity
  8
OBJECT
100
AcDbCircle
 10
38.30425223659348
 20
45.60920569921316
 30
0.0
 40
0.0770000000000053
100
AcDbArc
 50
90.0
 51
179.9999999999947
  0
LINE
  5
7AAB
330
1E
100
AcDbEntity
  8
OBJECT
100
AcDbLine
 10
38.28925244625911
 20
44.87420580213864
 30
0.0
 11
38.28925244625911
 21
45.62420559141041
 31
0.0
  0
DIMENSION
  5
7AAC
330
1E
100
AcDbEntity
  8
DIM
100
AcDbDimension
  2
*D8
 10
38.28925244625912
 20
42.57297577823499
 30
0.0
 11
42.21380393697543
 21
42.57297577823499
 31
0.0
 70
   160
  1
"D"
 71
     5
 42
7.287606082991693
  3
23NSTDI
100
AcDbAlignedDimension
 13
45.57685852925081
 23
42.23180804348987
 33
0.0
 14
38.28925244625912
 24
42.23180804348987
 34
0.0
 50
180.0
100
AcDbRotatedDimension
  0
DIMENSION
  5
7AAD
330
1E
100
AcDbEntity
  8
DIM
100
AcDbDimension
  2
*D9
 10
46.03025223657275
 20
41.27237657303242
 30
0.0
 11
50.69665848657275
 21
41.27237657303242
 31
0.0
 70
   160
 71
     5
 42
0.3753936817182222
  3
23NSTD
100
AcDbAlignedDimension
 13
45.65485855485452
 23
41.37474286121475
 33
0.0
 14
46.03025223657275
 24
41.37474286121475
 34
0.0
 50
180.0
100
AcDbRotatedDimension
  0
LINE
  5
7AAE
330
1E
100
AcDbEntity
  8
OBJECT
100
AcDbLine
 10
71.74810065626968
 20
22.76503098081829
 30
0.0
 11
85.88995850504559
 21
22.76503071772975
 31
0.0
  0
TEXT
  5
7AAF
330
1E
100
AcDbEntity
  8
TEXT
100
AcDbText
 10
10.22572072202998
 20
6.326368433210248
 30
0.0
 40
0.6881009615569953
  1
"A"
 41
0.75
 72
     1
 11
10.74179644319772
 21
6.326368433210248
 31
0.0
100
AcDbText
  0
TEXT
  5
7AB2
330
1E
100
AcDbEntity
  8
TEXT
100
AcDbText
 10
8.634487248429429
 20
5.179533497281894
 30
0.0
 40
0.6881009615569953
  1
9.84 [250]
 41
0.75
 72
     1
 11
10.74179644319772
 21
5.179533497281894
 31
0.0
100
AcDbText
  0
TEXT
  5
7AB4
330
1E
100
AcDbEntity
  8
TEXT
100
AcDbText
 10
8.677493558526743
 20
4.025687343119898
 30
0.0
 40
0.6881009615569953
  1
7.87 [200]
 41
0.75
 72
     1
 11
10.74179644319772
 21
4.025687343119898
 31
0.0
100
AcDbText
  0
TEXT
  5
7AB6
330
1E
100
AcDbEntity
  8
TEXT
100
AcDbText
 10
8.677493558526743
 20
2.878852407191558
 30
0.0
 40
0.6881009615569953
  1
7.87 [200]
 41
0.75
 72
     1
 11
10.74179644319772
 21
2.878852407191558
 31
0.0
100
AcDbText
  0
TEXT
  5
7AB7
330
1E
100
AcDbEntity
  8
TEXT
100
AcDbText
 10
8.634487248429429
 20
1.732017471263262
 30
0.0
 40
0.6881009615569953
  1
9.84 [250]
 41
0.75
 72
     1
 11
10.74179644319772
 21
1.732017471263262
 31
0.0
100
AcDbText
  0
TEXT
  5
7AB9
330
1E
100
AcDbEntity
  8
TEXT
100
AcDbText
 10
8.634487248429429
 20
0.5851825353349085
 30
0.0
 40
0.6881009615569953
  1
9.84 [250]
 41
0.75
 72
     1
 11
10.74179644319772
 21
0.5851825353349085
 31
0.0
100
AcDbText
  0
TEXT
  5
7ABC
330
1E
100
AcDbEntity
  8
TEXT
100
AcDbText
 10
22.68753030088556
 20
5.179533497281894
 30
0.0
 40
0.6881009615569953
  1
5.91 [150]
 41
0.75
 72
     1
 11
24.62281425526461
 21
5.179533497281894
 31
0.0
100
AcDbText
  0
TEXT
  5
7ABF
330
1E
100
AcDbEntity
  8
TEXT
100
AcDbText
 10
22.68753030088556
 20
4.025687343119898
 30
0.0
 40
0.6881009615569953
  1
5.91 [150]
 41
0.75
 72
     1
 11
24.62281425526461
 21
4.025687343119898
 31
0.0
100
AcDbText
  0
TEXT
  5
7AC0
330
1E
100
AcDbEntity
  8
TEXT
100
AcDbText
 10
22.68753030088556
 20
2.878852407191558
 30
0.0
 40
0.6881009615569953
  1
3.98 [101]
 41
0.75
 72
     1
 11
24.62281425526461
 21
2.878852407191558
 31
0.0
100
AcDbText
  0
TEXT
  5
7AC1
330
1E
100
AcDbEntity
  8
TEXT
100
AcDbText
 10
22.68753030088556
 20
1.732017471263262
 30
0.0
 40
0.6881009615569953
  1
5.91 [150]
 41
0.75
 72
     1
 11
24.62281425526461
 21
1.732017471263262
 31
0.0
100
AcDbText
  0
TEXT
  5
7AC4
330
1E
100
AcDbEntity
  8
TEXT
100
AcDbText
 10
22.68753030088556
 20
0.5851825353349085
 30
0.0
 40
0.6881009615569953
  1
3.98 [101]
 41
0.75
 72
     1
 11
24.62281425526461
 21
0.5851825353349085
 31
0.0
100
AcDbText
  0
TEXT
  5
7AC6
330
1E
100
AcDbEntity
  8
TEXT
100
AcDbText
 10
24.10673853409686
 20
6.326368433210248
 30
0.0
 40
0.6881009615569953
  1
"C"
 41
0.75
 72
     1
 11
24.62281425526461
 21
6.326368433210248
 31
0.0
100
AcDbText
  0
TEXT
  5
7AC8
330
1E
100
AcDbEntity
  8
TEXT
100
AcDbText
 10
15.53532006450204
 20
5.179533497281894
 30
0.0
 40
0.6881009615569953
  1
7.87 [200]
 41
0.75
 72
     1
 11
17.59962294917302
 21
5.179533497281894
 31
0.0
100
AcDbText
  0
TEXT
  5
7ACA
330
1E
100
AcDbEntity
  8
TEXT
100
AcDbText
 10
17.08354722800527
 20
6.326368433210248
 30
0.0
 40
0.6881009615569953
  1
"B"
 41
0.75
 72
     1
 11
17.59962294917302
 21
6.326368433210248
 31
0.0
100
AcDbText
  0
TEXT
  5
7ACC
330
1E
100
AcDbEntity
  8
TEXT
100
AcDbText
 10
15.66433899479397
 20
4.025687343119898
 30
0.0
 40
0.6881009615569953
  1
5.91 [150]
 41
0.75
 72
     1
 11
17.59962294917302
 21
4.025687343119898
 31
0.0
100
AcDbText
  0
TEXT
  5
7ACE
330
1E
100
AcDbEntity
  8
TEXT
100
AcDbText
 10
15.49231375440472
 20
1.732017471263262
 30
0.0
 40
0.6881009615569953
  1
9.84 [250]
 41
0.75
 72
     1
 11
17.59962294917302
 21
1.732017471263262
 31
0.0
100
AcDbText
  0
TEXT
  5
7ACF
330
1E
100
AcDbEntity
  8
TEXT
100
AcDbText
 10
15.53532006450204
 20
2.878852407191558
 30
0.0
 40
0.6881009615569953
  1
7.87 [200]
 41
0.75
 72
     1
 11
17.59962294917302
 21
2.878852407191558
 31
0.0
100
AcDbText
  0
TEXT
  5
7AD1
330
1E
100
AcDbEntity
  8
TEXT
100
AcDbText
 10
15.53532006450204
 20
0.5851825353349085
 30
0.0
 40
0.6881009615569953
  1
7.87 [200]
 41
0.75
 72
     1
 11
17.59962294917302
 21
0.5851825353349085
 31
0.0
100
AcDbText
  0
TEXT
  5
7AD3
330
1E
100
AcDbEntity
  8
TEXT
100
AcDbText
 10
64.43766862323608
 20
4.025687343119898
 30
0.0
 40
0.6881009615569953
  1
4.92 [125]
 41
0.75
 72
     1
 11
66.50197150790706
 21
4.025687343119898
 31
0.0
100
AcDbText
  0
TEXT
  5
7AD4
330
1E
100
AcDbEntity
  8
TEXT
100
AcDbText
 10
64.43766862323608
 20
0.5851825353349085
 30
0.0
 40
0.6881009615569953
  1
6.89 [175]
 41
0.75
 72
     1
 11
66.50197150790706
 21
0.5851825353349085
 31
0.0
100
AcDbText
  0
TEXT
  5
7AD5
330
1E
100
AcDbEntity
  8
TEXT
100
AcDbText
 10
64.43766862323608
 20
2.878852407191558
 30
0.0
 40
0.6881009615569953
  1
4.92 [125]
 41
0.75
 72
     1
 11
66.50197150790706
 21
2.878852407191558
 31
0.0
100
AcDbText
  0
TEXT
  5
7AD6
330
1E
100
AcDbEntity
  8
TEXT
100
AcDbText
 10
64.43766862323608
 20
1.732017471263262
 30
0.0
 40
0.6881009615569953
  1
6.89 [175]
 41
0.75
 72
     1
 11
66.50197150790706
 21
1.732017471263262
 31
0.0
100
AcDbText
  0
TEXT
  5
7ADA
330
1E
100
AcDbEntity
  8
TEXT
100
AcDbText
 10
37.99501506054357
 20
6.326368433210248
 30
0.0
 40
0.6881009615569953
  1
"E"
 41
0.75
 72
     1
 11
38.51109078171131
 21
6.326368433210248
 31
0.0
100
AcDbText
  0
TEXT
  5
7ADC
330
1E
100
AcDbEntity
  8
TEXT
100
AcDbText
 10
64.43766862323608
 20
5.179533497281894
 30
0.0
 40
0.6881009615569953
  1
6.89 [175]
 41
0.75
 72
     1
 11
66.50197150790706
 21
5.179533497281894
 31
0.0
100
AcDbText
  0
TEXT
  5
7ADF
330
1E
100
AcDbEntity
  8
TEXT
100
AcDbText
 10
71.65842568484075
 20
4.025687343119898
 30
0.0
 40
0.6881009615569953
  1
2.95 [75]
 41
0.75
 72
     1
 11
73.55070332912248
 21
4.025687343119898
 31
0.0
100
AcDbText
  0
TEXT
  5
7AE0
330
1E
100
AcDbEntity
  8
TEXT
100
AcDbText
 10
71.4864004444515
 20
2.878852407191558
 30
0.0
 40
0.6881009615569953
  1
4.92 [125]
 41
0.75
 72
     1
 11
73.55070332912248
 21
2.878852407191558
 31
0.0
100
AcDbText
  0
TEXT
  5
7AE1
330
1E
100
AcDbEntity
  8
TEXT
100
AcDbText
 10
71.4864004444515
 20
0.5851825353349085
 30
0.0
 40
0.6881009615569953
  1
4.92 [125]
 41
0.75
 72
     1
 11
73.55070332912248
 21
0.5851825353349085
 31
0.0
100
AcDbText
  0
TEXT
  5
7AE2
330
1E
100
AcDbEntity
  8
TEXT
100
AcDbText
 10
71.4864004444515
 20
1.732017471263262
 30
0.0
 40
0.6881009615569953
  1
6.89 [175]
 41
0.75
 72
     1
 11
73.55070332912248
 21
1.732017471263262
 31
0.0
100
AcDbText
  0
TEXT
  5
7AE5
330
1E
100
AcDbEntity
  8
TEXT
100
AcDbText
 10
51.98422050582331
 20
6.326368433210248
 30
0.0
 40
0.6881009615569953
  1
"G"
 41
0.75
 72
     1
 11
52.50029622699106
 21
6.326368433210248
 31
0.0
100
AcDbText
  0
TEXT
  5
7AE8
330
1E
100
AcDbEntity
  8
TEXT
100
AcDbText
 10
71.4864004444515
 20
5.179533497281894
 30
0.0
 40
0.6881009615569953
  1
4.92 [125]
 41
0.75
 72
     1
 11
73.55070332912248
 21
5.179533497281894
 31
0.0
100
AcDbText
  0
DIMENSION
  5
7AEB
330
1E
100
AcDbEntity
  8
DIM
100
AcDbDimension
  2
*D10
 10
38.22725246915481
 20
28.56717860251618
 30
0.0
 11
33.38897121915481
 21
28.56717860251618
 31
0.0
 70
   160
 71
     5
 42
0.6900000290607978
  3
23NSTD
100
AcDbAlignedDimension
 13
38.91725249821561
 23
30.01570582040113
 33
0.0
 14
38.22725246915481
 24
30.01570582040113
 34
0.0
 50
180.0
100
AcDbRotatedDimension
  0
DIMENSION
  5
7AEC
330
1E
100
AcDbEntity
  8
DIM
100
AcDbDimension
  2
*D11
 10
46.54225223482174
 20
48.55925823148846
 30
0.0
 11
51.29459598482174
 21
48.55925823148846
 31
0.0
 70
   160
 71
     5
 42
0.449999998228293
  3
23NSTD
100
AcDbAlignedDimension
 13
46.09225223659345
 23
45.60920557802518
 33
0.0
 14
46.54225223482174
 24
46.96790548220795
 34
0.0
 50
180.0
100
AcDbRotatedDimension
  0
MTEXT
  5
7AEE
102
{ACAD_REACTORS
330
7AEF
102
}
330
1E
100
AcDbEntity
  8
DIM
100
AcDbMText
 10
68.9568171841494
 20
18.18662942926259
 30
0.0
 40
0.6891025364983975
 41
0.0
 71
     3
 72
     1
  1
M6x1.0 PITCH x 16mm LG.\PWELD STUD (FOR GROUNDING)\P(SAME STUD IN COVER)
 73
     1
 44
1.0
  0
LEADER
  5
7AEF
330
1E
100
AcDbEntity
  8
DIM
100
AcDbLeader
  3
23NSTD
 73
     0
 75
     1
 40
2.986110991493055
 41
12.40384565697115
 76
     3
 10
72.64888446280133
 20
20.6767575074124
 30
0.0
 10
70.4418171841494
 20
17.8420781610134
 30
0.0
 10
69.4518171841494
 20
17.8420781610134
 30
0.0
210
0.0
220
0.0
230
-1.0
213
0.0
223
-0.3445512682491987
233
0.0
  0
TEXT
  5
7AF0
330
1E
100
AcDbEntity
  8
TEXT
100
AcDbText
 10
83.59945027938252
 20
54.80718880110351
 30
0.0
 40
1.032902644214618
  1
10-24-11
 41
0.75
 72
     1
 11
86.11715047465565
 21
54.80718880110351
 31
0.0
100
AcDbText
  0
MTEXT
  5
7AF1
330
1E
100
AcDbEntity
  8
BEND
100
AcDbMText
 10
69.08271850796268
 20
42.95266705213615
 30
0.0
 40
0.6881009615625001
 41
0.0
 71
     1
 72
     1
  1
"A"
 73
     1
 44
1.0
  0
LEADER
  5
7AF2
330
1E
100
AcDbEntity
  8
BEND
100
AcDbLeader
  3
23NSTD
 76
     2
 10
70.34944688151293
 20
43.94949839541071
 30
0.0
 10
70.34944688151293
 20
41.81907622021244
 30
0.0
211
-1.0
221
0.0
231
0.0
210
0.0
220
0.0
230
-1.0
1001
ACAD
1000
DSTYLE
1002
{
1070
   147
1040
0.09
1070
    77
1070
     0
1002
}
  0
DIMENSION
  5
7AF3
330
1E
100
AcDbEntity
  8
DIM
100
AcDbDimension
  2
*D12
 10
8.135047831770403
 20
27.17142266920365
 30
0.0
 11
15.28074783177041
 21
27.17142266920365
 31
0.0
 70
    32
  1
"F"
 71
     5
 42
14.29140000000001
  3
23NSTD
100
AcDbAlignedDimension
 13
22.42644783177041
 23
29.17650519544034
 33
0.0
 14
8.135047831770403
 24
29.17650519544034
 34
0.0
100
AcDbRotatedDimension
  0
DIMENSION
  5
7AF4
330
1E
100
AcDbEntity
  8
DIM
100
AcDbDimension
  2
*D13
 10
25.86328639961067
 20
29.30150519090774
 30
0.0
 11
25.86328639961067
 21
37.81220519544034
 31
0.0
 70
    32
  1
"E"
 71
     5
 42
17.02140000906517
  3
23NSTD
100
AcDbAlignedDimension
 13
22.644947733798
 23
46.32290519997292
 33
0.0
 14
22.644947733798
 24
29.30150519090775
 34
0.0
 50
90.0
100
AcDbRotatedDimension
  0
DIMENSION
  5
7AF5
330
1E
100
AcDbEntity
  8
DIM
100
AcDbDimension
  2
*D14
 10
71.74102966022577
 20
47.53923440275044
 30
0.0
 11
79.18610636484962
 21
47.53923440275044
 31
0.0
 70
   160
  1
"H" OPENING
 71
     5
 42
14.15599985646824
  3
23NSTD
100
AcDbAlignedDimension
 13
85.897029516694
 23
44.8158699812633
 33
0.0
 14
71.74102966022577
 24
44.8158699812633
 34
0.0
100
AcDbRotatedDimension
  0
DIMENSION
  5
7AF6
330
1E
100
AcDbEntity
  8
DIM
100
AcDbDimension
  2
*D15
 10
68.76936900974204
 20
44.80879896961491
 30
0.0
 11
68.76936900974202
 21
37.7381199031709
 31
0.0
 70
    32
  1
"G"\POPENING
 71
     5
 42
14.14135813288803
  3
23NSTD
100
AcDbAlignedDimension
 13
71.74102966022577
 23
30.66744083672688
 33
0.0
 14
71.74102966022577
 24
44.80879896961491
 34
0.0
 50
90.0
100
AcDbRotatedDimension
  0
DIMENSION
  5
7AF7
330
1E
100
AcDbEntity
  8
DIM
100
AcDbDimension
  2
*D16
 10
71.92927972554494
 20
28.22836382838258
 30
0.0
 11
78.84989259712106
 21
28.22836382838258
 31
0.0
 70
   160
  1
"M" PANEL
 71
     5
 42
13.77949972582988
  3
23NSTDI
100
AcDbAlignedDimension
 13
85.70877945137482
 23
31.32231988484157
 33
0.0
 14
71.92927972554494
 24
31.32231988484157
 34
0.0
100
AcDbRotatedDimension
  0
LINE
  5
7AF8
330
1E
100
AcDbEntity
  8
HIDDEN
100
AcDbLine
 10
73.25361526815012
 20
44.99725566065618
 30
0.0
 11
84.38444390876965
 21
44.99725566065618
 31
0.0
  0
LINE
  5
7AF9
330
1E
100
AcDbEntity
  8
HIDDEN
100
AcDbLine
 10
73.25361526814996
 20
30.47898414568561
 30
0.0
 11
84.38444390876981
 21
30.47898414568561
 31
0.0
  0
DIMENSION
  5
7AFA
330
1E
100
AcDbEntity
  8
DIM
100
AcDbDimension
  2
*D17
 10
88.96080563767529
 20
30.47898414568561
 30
0.0
 11
88.96080563767529
 21
37.96803717095841
 31
0.0
 70
   160
  1
"L"\PPANEL
 71
     5
 42
14.51827151497056
  3
23NSTD
100
AcDbAlignedDimension
 13
84.38444390876965
 23
44.99725566065618
 33
0.0
 14
84.38444390876981
 24
30.47898414568561
 34
0.0
 50
90.0
100
AcDbRotatedDimension
  0
DIMENSION
  5
7AFB
330
1E
100
AcDbEntity
  8
DIM
100
AcDbDimension
  2
*D18
 10
23.15474784454363
 20
35.85039044524001
 30
0.0
 11
16.80549783177047
 21
35.85039044524001
 31
0.0
 70
   160
 71
     5
 42
1.46800001277316
  3
23NSTD
100
AcDbAlignedDimension
 13
21.68674783177047
 23
37.81220519544032
 33
0.0
 14
23.15474784454363
 24
36.96709348479093
 34
0.0
100
AcDbRotatedDimension
  0
TEXT
  5
7AFC
330
1E
100
AcDbEntity
  8
TEXT
100
AcDbText
 10
31.16042707925572
 20
6.326368433210248
 30
0.0
 40
0.6881009615569953
  1
"D"
 41
0.75
 72
     1
 11
31.67650280042346
 21
6.326368433210248
 31
0.0
100
AcDbText
  0
TEXT
  5
7AFD
330
1E
100
AcDbEntity
  8
TEXT
100
AcDbText
 10
44.98033694227443
 20
6.326368433210248
 30
0.0
 40
0.6881009615569953
  1
"F"
 41
0.75
 72
     1
 11
45.49641266344218
 21
6.326368433210248
 31
0.0
100
AcDbText
  0
TEXT
  5
7AFE
330
1E
100
AcDbEntity
  8
TEXT
100
AcDbText
 10
73.0505247768201
 20
6.326368433210248
 30
0.0
 40
0.6881009615569953
  1
"K"
 41
0.75
 72
     1
 11
73.56660049798785
 21
6.326368433210248
 31
0.0
100
AcDbText
  0
TEXT
  5
7AFF
330
1E
100
AcDbEntity
  8
TEXT
100
AcDbText
 10
65.81433339137196
 20
6.326368433210248
 30
0.0
 40
0.6881009615569953
  1
"J"
 41
0.75
 72
     1
 11
66.33040911253971
 21
6.326368433210248
 31
0.0
100
AcDbText
  0
TEXT
  5
7B00
330
1E
100
AcDbEntity
  8
TEXT
100
AcDbText
 10
59.04273400505129
 20
6.326368433210248
 30
0.0
 40
0.6881009615569953
  1
"H"
 41
0.75
 72
     1
 11
59.55880972621904
 21
6.326368433210248
 31
0.0
100
AcDbText
  0
TEXT
  5
7B01
330
1E
100
AcDbEntity
  8
TEXT
100
AcDbText
 10
79.77613087195409
 20
6.326368433210248
 30
0.0
 40
0.6881009615569953
  1
"L"
 41
0.75
 72
     1
 11
80.29220659312185
 21
6.326368433210248
 31
0.0
100
AcDbText
  0
TEXT
  5
7B02
330
1E
100
AcDbEntity
  8
TEXT
100
AcDbText
 10
87.12036384399114
 20
6.326368433210248
 30
0.0
 40
0.6881009615569953
  1
"M"
 41
0.75
 72
     1
 11
87.6364395651589
 21
6.326368433210248
 31
0.0
100
AcDbText
  0
TEXT
  5
7B03
330
1E
100
AcDbEntity
  8
TEXT
100
AcDbText
 10
29.26682546989034
 20
5.179533497281894
 30
0.0
 40
0.6881009615569953
  1
5.33 [135.4]
 41
0.75
 72
     1
 11
31.67517883533983
 21
5.179533497281894
 31
0.0
100
AcDbText
  0
TEXT
  5
7B0A
330
1E
100
AcDbEntity
  8
TEXT
100
AcDbText
 10
29.26682546989034
 20
4.025687343119898
 30
0.0
 40
0.6881009615569953
  1
5.33 [135.4]
 41
0.75
 72
     1
 11
31.67517883533983
 21
4.025687343119898
 31
0.0
100
AcDbText
  0
TEXT
  5
7B0B
330
1E
100
AcDbEntity
  8
TEXT
100
AcDbText
 10
29.48185702037694
 20
2.878852407191558
 30
0.0
 40
0.6881009615569953
  1
3.40 [86.4]
 41
0.75
 72
     1
 11
31.67517883533986
 21
2.878852407191558
 31
0.0
100
AcDbText
  0
TEXT
  5
7B0C
330
1E
100
AcDbEntity
  8
TEXT
100
AcDbText
 10
29.26682546989038
 20
1.732017471263262
 30
0.0
 40
0.6881009615569953
  1
5.33 [135.4]
 41
0.75
 72
     1
 11
31.67517883533986
 21
1.732017471263262
 31
0.0
100
AcDbText
  0
TEXT
  5
7B0D
330
1E
100
AcDbEntity
  8
TEXT
100
AcDbText
 10
29.48185702037694
 20
0.5851825353349085
 30
0.0
 40
0.6881009615569953
  1
3.40 [86.4]
 41
0.75
 72
     1
 11
31.67517883533986
 21
0.5851825353349085
 31
0.0
100
AcDbText
  0
TEXT
  5
7B0E
330
1E
100
AcDbEntity
  8
TEXT
100
AcDbText
 10
36.14457232668151
 20
5.179533497281894
 30
0.0
 40
0.6881009615569953
  1
11.12 [282.3]
 41
0.75
 72
     1
 11
38.63893831232562
 21
5.179533497281894
 31
0.0
100
AcDbText
  0
TEXT
  5
7B0F
330
1E
100
AcDbEntity
  8
TEXT
100
AcDbText
 10
43.41948970759658
 20
5.179533497281894
 30
0.0
 40
0.6881009615569953
  1
6.42 [163]
 41
0.75
 72
     1
 11
45.48379259226758
 21
5.179533497281894
 31
0.0
100
AcDbText
  0
TEXT
  5
7B10
330
1E
100
AcDbEntity
  8
TEXT
100
AcDbText
 10
85.72149021422747
 20
5.179533497281894
 30
0.0
 40
0.6881009615569953
  1
5.91 [150]
 41
0.75
 72
     1
 11
87.65677416860652
 21
5.179533497281894
 31
0.0
100
AcDbText
  0
TEXT
  5
7B11
330
1E
100
AcDbEntity
  8
TEXT
100
AcDbText
 10
78.33167726194358
 20
5.179533497281923
 30
0.0
 40
0.6881009615569953
  1
8.46 [215]
 41
0.75
 72
     1
 11
80.39598014661455
 21
5.179533497281923
 31
0.0
100
AcDbText
  0
TEXT
  5
7B1E
330
1E
100
AcDbEntity
  8
TEXT
100
AcDbText
 10
57.11369100017198
 20
5.179533497281923
 30
0.0
 40
0.6881009615569953
  1
6.28 [159.6]
 41
0.75
 72
     1
 11
59.52204436562147
 21
5.179533497281923
 31
0.0
100
AcDbText
  0
TEXT
  5
7B1F
330
1E
100
AcDbEntity
  8
TEXT
100
AcDbText
 10
50.06874142839953
 20
5.179533497281894
 30
0.0
 40
0.6881009615569953
  1
8.25 [209.6]
 41
0.75
 72
     1
 11
52.52010110394633
 21
5.179533497281894
 31
0.0
100
AcDbText
  0
LEADER
  5
7B20
330
1E
100
AcDbEntity
  8
BEND
100
AcDbLeader
  3
23NSTD
 76
     2
 10
87.40057293894812
 20
43.90562175292699
 30
0.0
 10
87.40057293894812
 20
41.81907622021244
 30
0.0
1001
ACAD
1000
DSTYLE
1002
{
1070
   147
1040
0.09
1070
    77
1070
     0
1002
}
  0
MTEXT
  5
7B21
330
1E
100
AcDbEntity
  8
BEND
100
AcDbMText
 10
87.63532280496738
 20
42.95266705213615
 30
0.0
 40
0.6881009615625001
 41
0.0
 71
     1
 72
     1
  1
"A"
 73
     1
 44
1.0
  0
LEADER
  5
7B22
330
1E
100
AcDbEntity
  8
DIM
100
AcDbLeader
  3
23NSTD
 73
     0
 74
     0
 75
     1
 40
5.275440705312499
 41
16.68644831789062
 76
     3
 10
22.77198576920312
 20
28.61617343616782
 30
0.0
 10
24.48264550504174
 20
26.66390566381768
 30
0.0
 10
25.47264550504173
 20
26.66390566381768
 30
0.0
213
0.0
223
-0.34405048078125
233
0.0
  0
LEADER
  5
7B24
330
1E
100
AcDbEntity
  8
DIM
100
AcDbLeader
  3
23NSTD
 73
     0
 74
     0
 75
     1
 40
1.8349358975
 41
6.020883413671874
 76
     3
 10
22.0055960971753
 20
38.26157896375389
 30
0.0
 10
26.92591267522088
 20
42.35712737926924
 30
0.0
 10
27.91591267522088
 20
42.35712737926924
 30
0.0
213
0.0
223
-0.34405048078125
233
0.0
  0
MTEXT
  5
7B25
102
{ACAD_REACTORS
330
7B24
102
}
330
1E
100
AcDbEntity
  8
DIM
100
AcDbMText
 10
28.41091267522088
 20
42.70117786005049
 30
0.0
 40
0.6881009615625001
 41
0.0
 71
     1
 72
     1
  1
QUARTER-TURN\PKEYED LATCH
 73
     1
 44
1.0
  0
LEADER
  5
7B26
330
1E
100
AcDbEntity
  8
DIM
100
AcDbLeader
  3
23NSTD
 73
     0
 75
     1
 40
0.6881009615625001
 41
6.881009615624999
 76
     3
 10
71.92927972554494
 20
43.13939817583019
 30
0.0
 10
69.40186399852915
 20
46.87518473051548
 30
0.0
 10
68.41186399852915
 20
46.87518473051548
 30
0.0
210
0.0
220
0.0
230
-1.0
  0
MTEXT
  5
7B27
102
{ACAD_REACTORS
330
7B26
102
}
330
1E
100
AcDbEntity
  8
DIM
100
AcDbMText
 10
67.91686399852915
 20
46.87518473051548
 30
0.0
 40
0.6881009615625001
 41
0.0
 71
     6
 72
     1
  1
\A1;INTERNAL PANEL
 73
     1
 44
1.0
  0
TEXT
  5
7B28
330
1E
100
AcDbEntity
  8
TEXT
100
AcDbText
 10
0.9926267689124586
 20
19.5692928201344
 30
0.0
 40
0.6886014873717948
  1
MATERIAL:
 41
0.75
100
AcDbText
  0
TEXT
  5
7B29
330
1E
100
AcDbEntity
  8
TEXT
100
AcDbText
 10
0.9926267689124586
 20
18.4234594868144
 30
0.0
 40
0.6886014873717948
  1
 BODY & COVER - 16 GA. [1.5mm] TYPE 304 STAINLESS STEEL
 41
0.75
100
AcDbText
  0
TEXT
  5
7B2A
330
1E
100
AcDbEntity
  8
TEXT
100
AcDbText
 10
0.9926267689124586
 20
17.2776261534944
 30
0.0
 40
0.6886014873717948
  1
 INTERNAL PANEL - 14 GA. [2.0mm] C.R.S.
 41
0.75
100
AcDbText
  0
TEXT
  5
7B2B
330
1E
100
AcDbEntity
  8
TEXT
100
AcDbText
 10
0.9926267689124586
 20
16.13179282017441
 30
0.0
 40
0.6886014873717948
  1
 WALL MTG. BRKTS - 14 GA. [2.0mm] TYPE 430 STAINLESS STEEL
 41
0.75
100
AcDbText
  0
TEXT
  5
7B2C
330
1E
100
AcDbEntity
  8
TEXT
100
AcDbText
 10
0.9926267689124586
 20
13.84012615353441
 30
0.0
 40
0.6886014873717948
  1
 HINGE PINS & WALL MTG. HARDWARE - TYPE 201 STAINLESS STEEL
 41
0.75
100
AcDbText
  0
TEXT
  5
7B2D
330
1E
100
AcDbEntity
  8
TEXT
100
AcDbText
 10
0.9926267689124586
 20
11.54845948689441
 30
0.0
 40
0.6886014873717948
  1
 GASKET - 0.38 [9.5] THK. ROGERS CORP. PORON #4701-30-15375-04
 41
0.75
100
AcDbText
  0
TEXT
  5
7B2E
330
1E
100
AcDbEntity
  8
TEXT
100
AcDbText
 10
0.9926267689124586
 20
9.256792820254418
 30
0.0
 40
0.6886014873717948
  1
 SEALING WASHERS - BLACK NEOPRENE
 41
0.75
100
AcDbText
  0
TEXT
  5
7B2F
330
1E
100
AcDbEntity
  8
TEXT
100
AcDbText
 10
32.33299558192928
 20
16.13179282017441
 30
0.0
 40
0.6886014873717948
  1
 WALL MOUNTING BRACKETS & HINGE PINS - NATURAL
 41
0.75
100
AcDbText
  0
TEXT
  5
7B30
330
1E
100
AcDbEntity
  8
TEXT
100
AcDbText
 10
32.33299558192928
 20
17.2776261534944
 30
0.0
 40
0.6886014873717948
  1
 INTERNAL PANEL - ZINC PLATED
 41
0.75
100
AcDbText
  0
TEXT
  5
7B31
330
1E
100
AcDbEntity
  8
TEXT
100
AcDbText
 10
32.33299558192928
 20
18.4234594868144
 30
0.0
 40
0.6886014873717948
  1
 BODY & COVER - NATURAL, OUTSIDE SURFACES POLISHED
 41
0.75
100
AcDbText
  0
TEXT
  5
7B32
330
1E
100
AcDbEntity
  8
TEXT
100
AcDbText
 10
32.33299558192928
 20
19.5692928201344
 30
0.0
 40
0.6886014873717948
  1
FINISH:
 41
0.75
100
AcDbText
  0
TEXT
  5
7B39
330
1E
100
AcDbEntity
  8
TEXT
100
AcDbText
 10
36.23058494687613
 20
4.025687343124488
 30
0.0
 40
0.6881009615569953
  1
9.15 [232.3]
 41
0.75
 72
     1
 11
38.63893831232562
 21
4.025687343124488
 31
0.0
100
AcDbText
  0
TEXT
  5
7B3A
330
1E
100
AcDbEntity
  8
TEXT
100
AcDbText
 10
36.23058494687613
 20
2.878852407196191
 30
0.0
 40
0.6881009615569953
  1
9.15 [232.3]
 41
0.75
 72
     1
 11
38.63893831232562
 21
2.878852407196191
 31
0.0
100
AcDbText
  0
TEXT
  5
7B3B
330
1E
100
AcDbEntity
  8
TEXT
100
AcDbText
 10
36.14457232668151
 20
1.732017471267866
 30
0.0
 40
0.6881009615569953
  1
11.12 [282.3]
 41
0.75
 72
     1
 11
38.63893831232562
 21
1.732017471267866
 31
0.0
100
AcDbText
  0
TEXT
  5
7B3C
330
1E
100
AcDbEntity
  8
TEXT
100
AcDbText
 10
36.14457232668151
 20
0.585182535334937
 30
0.0
 40
0.6881009615569953
  1
11.12 [282.3]
 41
0.75
 72
     1
 11
38.63893831232562
 21
0.585182535334937
 31
0.0
100
AcDbText
  0
TEXT
  5
7B43
330
1E
100
AcDbEntity
  8
TEXT
100
AcDbText
 10
43.50550232779124
 20
4.025687343124459
 30
0.0
 40
0.6881009615569953
  1
4.45 [113]
 41
0.75
 72
     1
 11
45.4837925922676
 21
4.025687343124459
 31
0.0
100
AcDbText
  0
TEXT
  5
7B44
330
1E
100
AcDbEntity
  8
TEXT
100
AcDbText
 10
43.41948970759667
 20
2.878852407196163
 30
0.0
 40
0.6881009615569953
  1
6.42 [163]
 41
0.75
 72
     1
 11
45.48379259226766
 21
2.878852407196163
 31
0.0
100
AcDbText
  0
TEXT
  5
7B45
330
1E
100
AcDbEntity
  8
TEXT
100
AcDbText
 10
43.41948970759667
 20
0.5851825353349085
 30
0.0
 40
0.6881009615569953
  1
6.42 [163]
 41
0.75
 72
     1
 11
45.48379259226766
 21
0.5851825353349085
 31
0.0
100
AcDbText
  0
TEXT
  5
7B46
330
1E
100
AcDbEntity
  8
TEXT
100
AcDbText
 10
43.41948970759667
 20
1.732017471267838
 30
0.0
 40
0.6881009615569953
  1
8.39 [213]
 41
0.75
 72
     1
 11
45.48379259226766
 21
1.732017471267838
 31
0.0
100
AcDbText
  0
TEXT
  5
7B47
330
1E
100
AcDbEntity
  8
TEXT
100
AcDbText
 10
78.37468357204089
 20
4.025687343124417
 30
0.0
 40
0.6881009615569953
  1
6.50 [165]
 41
0.75
 72
     1
 11
80.39598014661455
 21
4.025687343124417
 31
0.0
100
AcDbText
  0
TEXT
  5
7B48
330
1E
100
AcDbEntity
  8
TEXT
100
AcDbText
 10
78.37468357204089
 20
2.878852407196134
 30
0.0
 40
0.6881009615569953
  1
6.50 [165]
 41
0.75
 72
     1
 11
80.39598014661455
 21
2.878852407196134
 31
0.0
100
AcDbText
  0
TEXT
  5
7B49
330
1E
100
AcDbEntity
  8
TEXT
100
AcDbText
 10
78.33167726194358
 20
1.732017471267809
 30
0.0
 40
0.6881009615569953
  1
8.46 [215]
 41
0.75
 72
     1
 11
80.39598014661455
 21
1.732017471267809
 31
0.0
100
AcDbText
  0
TEXT
  5
7B4A
330
1E
100
AcDbEntity
  8
TEXT
100
AcDbText
 10
78.33167726194358
 20
0.5851825353349085
 30
0.0
 40
0.6881009615569953
  1
8.46 [215]
 41
0.75
 72
     1
 11
80.39598014661455
 21
0.5851825353349085
 31
0.0
100
AcDbText
  0
TEXT
  5
7B4B
330
1E
100
AcDbEntity
  8
TEXT
100
AcDbText
 10
85.59842809720903
 20
4.025687343124431
 30
0.0
 40
0.6881009615569953
  1
3.94 [100]
 41
0.75
 72
     1
 11
87.57671836168539
 21
4.025687343124431
 31
0.0
100
AcDbText
  0
TEXT
  5
7B4C
330
1E
100
AcDbEntity
  8
TEXT
100
AcDbText
 10
85.64143440730633
 20
2.878852407196191
 30
0.0
 40
0.6881009615569953
  1
5.91 [150]
 41
0.75
 72
     1
 11
87.57671836168539
 21
2.878852407196191
 31
0.0
100
AcDbText
  0
TEXT
  5
7B4D
330
1E
100
AcDbEntity
  8
TEXT
100
AcDbText
 10
85.5124154770144
 20
1.732017471267838
 30
0.0
 40
0.6881009615569953
  1
7.87 [200]
 41
0.75
 72
     1
 11
87.57671836168539
 21
1.732017471267838
 31
0.0
100
AcDbText
  0
TEXT
  5
7B4E
330
1E
100
AcDbEntity
  8
TEXT
100
AcDbText
 10
85.64143440730633
 20
0.5851825353349085
 30
0.0
 40
0.6881009615569953
  1
5.91 [150]
 41
0.75
 72
     1
 11
87.57671836168539
 21
0.5851825353349085
 31
0.0
100
AcDbText
  0
TEXT
  5
7B55
330
1E
100
AcDbEntity
  8
TEXT
100
AcDbText
 10
50.11174773849685
 20
4.025687343124516
 30
0.0
 40
0.6881009615569953
  1
6.28 [159.6]
 41
0.75
 72
     1
 11
52.52010110394633
 21
4.025687343124516
 31
0.0
100
AcDbText
  0
TEXT
  5
7B56
330
1E
100
AcDbEntity
  8
TEXT
100
AcDbText
 10
50.11174773849685
 20
2.87885240719622
 30
0.0
 40
0.6881009615569953
  1
6.28 [159.6]
 41
0.75
 72
     1
 11
52.52010110394633
 21
2.87885240719622
 31
0.0
100
AcDbText
  0
TEXT
  5
7B57
330
1E
100
AcDbEntity
  8
TEXT
100
AcDbText
 10
50.06874142839953
 20
1.732017471267894
 30
0.0
 40
0.6881009615569953
  1
8.25 [209.6]
 41
0.75
 72
     1
 11
52.52010110394633
 21
1.732017471267894
 31
0.0
100
AcDbText
  0
TEXT
  5
7B58
330
1E
100
AcDbEntity
  8
TEXT
100
AcDbText
 10
50.06874142839953
 20
0.5851825353349654
 30
0.0
 40
0.6881009615569953
  1
8.25 [209.6]
 41
0.75
 72
     1
 11
52.52010110394633
 21
0.5851825353349654
 31
0.0
100
AcDbText
  0
TEXT
  5
7B5B
330
1E
100
AcDbEntity
  8
TEXT
100
AcDbText
 10
57.09126736258096
 20
1.732017471267894
 30
0.0
 40
0.6881009615569953
  1
8.25 [209.6]
 41
0.75
 72
     1
 11
59.54262703812776
 21
1.732017471267894
 31
0.0
100
AcDbText
  0
TEXT
  5
7B5C
330
1E
100
AcDbEntity
  8
TEXT
100
AcDbText
 10
57.11369100017198
 20
0.585182535334937
 30
0.0
 40
0.6881009615569953
  1
6.28 [159.6]
 41
0.75
 72
     1
 11
59.52204436562147
 21
0.585182535334937
 31
0.0
100
AcDbText
  0
TEXT
  5
7B61
330
1E
100
AcDbEntity
  8
TEXT
100
AcDbText
 10
57.11369100017198
 20
2.878852407196191
 30
0.0
 40
0.6881009615569953
  1
6.28 [159.6]
 41
0.75
 72
     1
 11
59.52204436562147
 21
2.878852407196191
 31
0.0
100
AcDbText
  0
TEXT
  5
7B62
330
1E
100
AcDbEntity
  8
TEXT
100
AcDbText
 10
57.16394717990864
 20
4.025687343124445
 30
0.0
 40
0.6881009615569953
  1
4.31 [109.6]
 41
0.75
 72
     1
 11
59.44328161506618
 21
4.025687343124445
 31
0.0
100
AcDbText
  0
TEXT
  5
7B63
330
1E
100
AcDbEntity
  8
TEXT
100
AcDbText
 10
0.9926267689124586
 20
14.98595948685441
 30
0.0
 40
0.6886014873717948
  1
 STRIKER - C.R.S.
 41
0.75
100
AcDbText
  0
TEXT
  5
7B64
330
1E
100
AcDbEntity
  8
TEXT
100
AcDbText
 10
0.9926267689124586
 20
12.69429282021441
 30
0.0
 40
0.6886014873717948
  1
 LATCH - ZINC DIE CAST
 41
0.75
100
AcDbText
  0
TEXT
  5
7B65
330
1E
100
AcDbEntity
  8
TEXT
100
AcDbText
 10
32.33299558192928
 20
13.84012615353441
 30
0.0
 40
0.6886014873717948
  1
 LATCH - CHROME PLATED
 41
0.75
100
AcDbText
  0
TEXT
  5
7B66
330
1E
100
AcDbEntity
  8
TEXT
100
AcDbText
 10
32.33299558192928
 20
14.98595948685441
 30
0.0
 40
0.6886014873717948
  1
 STRIKER - ZINC PLATED
 41
0.75
100
AcDbText
  0
INSERT
  5
7B67
330
1E
100
AcDbEntity
  8
OBJECT
100
AcDbBlockReference
  2
HBS
 10
0.0
 20
0.0
 30
0.0
 41
5.5
 42
5.5
 43
5.5
  0
TEXT
  5
7B69
330
1E
100
AcDbEntity
  8
TEXT
100
AcDbText
 10
1.026627951136627
 20
0.5839685476235985
 30
0.0
 40
0.6874999999945003
  1
SNB-3741-SS
 41
0.75
 72
     1
 11
3.690690451115315
 21
0.5839685476235985
 31
0.0
100
AcDbText
  0
TEXT
  5
7B6A
330
1E
100
AcDbEntity
  8
TEXT
100
AcDbText
 10
0.9406904511373145
 20
4.021468547596114
 30
0.0
 40
0.6874999999945003
  1
SNB-3738-SS
 41
0.75
 72
     1
 11
3.690690451115315
 21
4.021468547596114
 31
0.0
100
AcDbText
  0
TEXT
  5
7B6B
330
1E
100
AcDbEntity
  8
TEXT
100
AcDbText
 10
0.9406904511373145
 20
2.875635214271937
 30
0.0
 40
0.6874999999945003
  1
SNB-3739-SS
 41
0.75
 72
     1
 11
3.690690451115315
 21
2.875635214271937
 31
0.0
100
AcDbText
  0
TEXT
  5
7B6C
330
1E
100
AcDbEntity
  8
TEXT
100
AcDbText
 10
0.983659201136971
 20
1.729801880947775
 30
0.0
 40
0.6874999999945003
  1
SNB-3740-SS
 41
0.75
 72
     1
 11
3.690690451115315
 21
1.729801880947775
 31
0.0
100
AcDbText
  0
TEXT
  5
7B70
330
1E
100
AcDbEntity
  8
TEXT
100
AcDbText
 10
1.886002951129752
 20
6.313135214249015
 30
0.0
 40
0.6874999999945003
  1
PART NO.
 41
0.75
 72
     1
 11
3.690690451115315
 21
6.313135214249015
 31
0.0
100
AcDbText
  0
TEXT
  5
7B72
330
1E
100
AcDbEntity
  8
TEXT
100
AcDbText
 10
0.983659201136971
 20
5.167301880924853
 30
0.0
 40
0.6874999999945003
  1
SNB-3730-SS
 41
0.75
 72
     1
 11
3.690690451115315
 21
5.167301880924853
 31
0.0
100
AcDbText
  0
LINE
  5
7B74
330
1E
100
AcDbEntity
  8
TITLE
100
AcDbLine
 10
90.95900000000005
 20
1.486833333328746
 30
0.0
 11
0.3410000000000615
 21
1.486833333328746
 31
0.0
  0
LINE
  5
7B75
330
1E
100
AcDbEntity
  8
TITLE
100
AcDbLine
 10
90.95900000000005
 20
2.632666666657485
 30
0.0
 11
0.3410000000000615
 21
2.632666666657499
 31
0.0
  0
LINE
  5
7B76
330
1E
100
AcDbEntity
  8
TITLE
100
AcDbLine
 10
90.95900000000005
 20
3.778499999986252
 30
0.0
 11
0.3410000000000615
 21
3.778499999986252
 31
0.0
  0
LINE
  5
7B7D
330
1E
100
AcDbEntity
  8
TITLE
100
AcDbLine
 10
90.95900000000005
 20
4.924333333310428
 30
0.0
 11
0.3410000000000615
 21
4.924333333310428
 31
0.0
  0
LINE
  5
7B7E
330
1E
100
AcDbEntity
  8
TITLE
100
AcDbLine
 10
90.95900000000005
 20
6.070166666634563
 30
0.0
 11
0.3410000000000615
 21
6.070166666634591
 31
0.0
  0
LINE
  5
7B7F
330
1E
100
AcDbEntity
  8
TITLE
100
AcDbLine
 10
90.95900000000005
 20
7.215999999958754
 30
0.0
 11
0.3410000000000615
 21
7.215999999958754
 31
0.0
  0
LINE
  5
7B80
330
1E
100
AcDbEntity
  8
TITLE
100
AcDbLine
 10
7.313800000000063
 20
7.215999999958739
 30
0.0
 11
7.313800000000064
 21
0.3410000000000082
 31
0.0
  0
DIMENSION
  5
7B81
330
1E
100
AcDbEntity
  8
DIM
100
AcDbDimension
  2
*D19
 10
7.46874778332824
 20
41.42285336634628
 30
0.0
 11
14.09999783177048
 21
41.42285336634628
 31
0.0
 70
   160
  1
<>\PINSIDE
 71
     5
 42
1.750000048442245
  3
23NSTD
100
AcDbAlignedDimension
 13
9.218747831770485
 23
43.87395503919544
 33
0.0
 14
7.46874778332824
 24
41.61919045804213
 34
0.0
 50
180.0
100
AcDbRotatedDimension
  0
DIMENSION
  5
7B82
330
1E
100
AcDbEntity
  8
DIM
100
AcDbDimension
  2
*D20
 10
11.46615345631081
 20
45.62395506474189
 30
0.0
 11
15.0995909563108
 21
47.60395506474189
 31
0.0
 70
   160
  1
<>\PINSIDE
 71
     5
 42
1.750000025546455
  3
23NSTD
100
AcDbAlignedDimension
 13
9.218747831770485
 23
43.87395503919544
 33
0.0
 14
10.8927481570966
 24
45.62395506474189
 34
0.0
 50
90.0
100
AcDbRotatedDimension
  0
CIRCLE
  5
7B83
330
1E
100
AcDbEntity
  8
HIDDEN
100
AcDbCircle
 10
9.218747831770485
 20
43.87395503919544
 30
0.0
 40
0.1180000000000021
  0
LINE
  5
7B84
330
1E
100
AcDbEntity
  8
HIDDEN
100
AcDbLine
 10
8.283104330474174
 20
45.62395506474189
 30
0.0
 11
11.71984095631081
 21
45.62395506474189
 31
0.0
  0
LINE
  5
7B85
330
1E
100
AcDbEntity
  8
HIDDEN
100
AcDbLine
 10
7.46874778332824
 20
41.54608372187193
 30
0.0
 11
7.46874778332824
 21
44.97895376537402
 31
0.0
  0
LEADER
  5
7B86
330
1E
100
AcDbEntity
  8
DIM
100
AcDbLeader
  3
23NSTD
 73
     0
 75
     1
 40
2.979166666666666
 41
4.296875
 76
     3
 10
9.193123408717838
 20
44.02309016071606
 30
0.0
 10
6.804956551890644
 20
49.27081031653208
 30
0.0
 10
5.814956551890644
 20
49.27081031653208
 30
0.0
213
0.0
223
-0.34375
233
0.0
  0
MTEXT
  5
7B87
102
{ACAD_REACTORS
330
7B86
102
}
330
1E
100
AcDbEntity
  8
DIM
100
AcDbMText
 10
5.319956551890644
 20
49.61456031653208
 30
0.0
 40
0.6875
 41
0.0
 71
     3
 72
     1
  1
\A1;GROUND\PSTUD (FAR\PSIDE)
 73
     1
 44
1.0
  0
MTEXT
  5
7B88
102
{ACAD_REACTORS
330
7B89
102
}
330
1E
100
AcDbEntity
  8
DIM
100
AcDbMText
 10
6.686507849654219
 20
25.93867540490293
 30
0.0
 40
0.6881009615625001
 41
0.0
 71
     1
 72
     1
  1
0.44 [11.10] x 0.68 [17.45] OBLONG\PEACH BRACKET
 73
     1
 44
1.0
  0
LEADER
  5
7B89
330
1E
100
AcDbEntity
  8
DIM
100
AcDbLeader
  3
23NSTD
 73
     0
 74
     0
 75
     1
 40
1.834935897499999
 41
14.36410757261718
 76
     3
 10
7.920447333008553
 20
29.05194157299729
 30
0.0
 10
5.201507849654219
 20
25.59462492412169
 30
0.0
 10
6.191507849654219
 20
25.59462492412169
 30
0.0
340
7B88
210
0.0
220
0.0
230
-1.0
213
0.0
223
-0.34405048078125
233
0.0
  0
MTEXT
  5
7B8A
102
{ACAD_REACTORS
330
7B8B
102
}
330
1E
100
AcDbEntity
  8
DIM
100
AcDbMText
 10
69.17412935589476
 20
27.37832863858503
 30
0.0
 40
0.6881009615625001
 41
0.0
 71
     3
 72
     1
  1
M8x1.25 PITCH x 16mm LG. WELD STUD/STANDOFF (4x)\P(WITH FLAT WASHER, SPLIT LOCKWASHER & HEX NUT\PFOR MOUNTING INTERNAL PANEL)
 73
     1
 44
1.0
  0
LEADER
  5
7B8B
330
1E
100
AcDbEntity
  8
DIM
100
AcDbLeader
  3
23NSTD
 73
     0
 75
     1
 40
2.981770833437499
 41
23.22340745273437
 76
     3
 10
72.36753488603025
 20
31.18820176265074
 30
0.0
 10
70.65912935589476
 20
27.03427815780378
 30
0.0
 10
69.66912935589476
 20
27.03427815780378
 30
0.0
340
7B8A
210
0.0
220
0.0
230
-1.0
213
0.0
223
-0.34405048078125
233
0.0
  0
LINE
  5
7B8C
330
1E
100
AcDbEntity
  8
TITLE
100
AcDbLine
 10
14.28380000000005
 20
7.215999999958739
 30
0.0
 11
14.28380000000006
 21
0.3410000000000082
 31
0.0
  0
LINE
  5
7B8D
330
1E
100
AcDbEntity
  8
TITLE
100
AcDbLine
 10
21.25380000000006
 20
7.215999999958739
 30
0.0
 11
21.25380000000006
 21
0.3410000000000082
 31
0.0
  0
LINE
  5
7B8E
330
1E
100
AcDbEntity
  8
TITLE
100
AcDbLine
 10
28.22380000000006
 20
7.215999999958739
 30
0.0
 11
28.22380000000006
 21
0.3410000000000082
 31
0.0
  0
LINE
  5
7B8F
330
1E
100
AcDbEntity
  8
TITLE
100
AcDbLine
 10
35.19380000000007
 20
7.215999999958739
 30
0.0
 11
35.19380000000007
 21
0.3410000000000082
 31
0.0
  0
LINE
  5
7B90
330
1E
100
AcDbEntity
  8
TITLE
100
AcDbLine
 10
42.16380000000007
 20
7.215999999958739
 30
0.0
 11
42.16380000000007
 21
0.3410000000000082
 31
0.0
  0
LINE
  5
7B91
330
1E
100
AcDbEntity
  8
TITLE
100
AcDbLine
 10
49.13380000000007
 20
7.215999999958739
 30
0.0
 11
49.13380000000007
 21
0.3410000000000082
 31
0.0
  0
LINE
  5
7B92
330
1E
100
AcDbEntity
  8
TITLE
100
AcDbLine
 10
56.10380000000006
 20
7.215999999958739
 30
0.0
 11
56.10380000000006
 21
0.3410000000000082
 31
0.0
  0
LINE
  5
7B93
330
1E
100
AcDbEntity
  8
TITLE
100
AcDbLine
 10
83.98380000000004
 20
7.215999999958739
 30
0.0
 11
83.98380000000006
 21
0.3410000000000082
 31
0.0
  0
LINE
  5
7B94
330
1E
100
AcDbEntity
  8
TITLE
100
AcDbLine
 10
77.01380000000006
 20
7.215999999958739
 30
0.0
 11
77.01380000000006
 21
0.3410000000000082
 31
0.0
  0
LINE
  5
7B95
330
1E
100
AcDbEntity
  8
TITLE
100
AcDbLine
 10
70.04380000000006
 20
7.215999999958739
 30
0.0
 11
70.04380000000006
 21
0.3410000000000082
 31
0.0
  0
LINE
  5
7B96
330
1E
100
AcDbEntity
  8
TITLE
100
AcDbLine
 10
63.07380000000007
 20
7.215999999958739
 30
0.0
 11
63.07380000000007
 21
0.3410000000000082
 31
0.0
  0
TEXT
  5
7F22
330
1E
100
AcDbEntity
  8
TEXT
100
AcDbText
 10
0.9926267689124586
 20
8.110959486934419
 30
0.0
 40
0.6886014873717948
  1
 HOLE PLUGS - LIGHT GRAY NEOPRENE
 41
0.75
100
AcDbText
  0
TEXT
  5
80AC
330
1E
100
AcDbEntity
  8
TEXT
100
AcDbText
 10
43.57905905979348
 20
54.83899505629018
 30
0.0
 40
1.032902644214618
  1
SNB-3730-SS  AND  SNB-3738-SS THRU SNB-3741-SS
 41
0.6986922763826949
 72
     5
 11
76.17498873264892
 21
54.83899505629018
 31
0.0
100
AcDbText
  0
TEXT
  5
817A
330
1E
100
AcDbEntity
  8
TEXT
100
AcDbText
 10
64.63994139756741
 20
10.78120817707241
 30
0.0
 40
0.6881009615569953
  1
BOXES SUPPLIED WITH GROUNDING KIT THAT CONTAINS
 41
0.75
100
AcDbText
  0
TEXT
  5
817B
330
1E
100
AcDbEntity
  8
TEXT
100
AcDbText
 10
64.63994139756741
 20
9.635374843739086
 30
0.0
 40
0.6881009615569953
  1
THE FOLLOWING: (1) GROUND WIRE, (4) FLAT WASHERS,
 41
0.75
100
AcDbText
  0
TEXT
  5
817C
330
1E
100
AcDbEntity
  8
TEXT
100
AcDbText
 10
64.63994139756741
 20
8.489541510405757
 30
0.0
 40
0.6881009615569953
  1
(2) SPLIT LOCKWASHERS AND (2) HEX NUTS
 41
0.75
100
AcDbText
  0
TEXT
  5
8182
330
1E
100
AcDbEntity
  8
TEXT
100
AcDbText
 10
0.9926267689124586
 20
10.40262615357441
 30
0.0
 40
0.6886014873717948
  1
   (BLACK)
 41
0.75
100
AcDbText
  0
MTEXT
  5
824F
330
1E
100
AcDbEntity
  8
DIM
100
AcDbMText
 10
25.96764550504174
 20
27.00795614459893
 30
0.0
 40
0.6881009615625001
 41
0.0
 71
     1
 72
     1
  1
WALL MOUNTING BRACKET KIT\PSUPPLIED WITH THE FOLLOWING:\P(4) BRACKETS, (4) M10x1.5 x 19.5mm LG. BOLTS,\P(4) SEALING WASHERS, (4) FLAT WASHERS,\P(4) SPLIT LOCKWASHERS & (4) HEX NUTS
 73
     1
 44
1.0
  0
ENDSEC
  0
SECTION
  2
OBJECTS
  0
DICTIONARY
  5
C
330
0
100
AcDbDictionary
281
     1
  3
ACAD_GROUP
350
D
  3
ACAD_LAYOUT
350
19
  3
ACAD_MLINESTYLE
350
16
  3
ACAD_PLOTSETTINGS
350
18
  3
ACAD_PLOTSTYLENAME
350
E
  3
AcadDim
350
2C87
  0
DICTIONARY
  5
D
102
{ACAD_REACTORS
330
C
102
}
330
C
100
AcDbDictionary
281
     1
  0
DICTIONARY
  5
19
102
{ACAD_REACTORS
330
C
102
}
330
C
100
AcDbDictionary
281
     1
  3
Layout1
350
1D
  3
Model
350
21
  0
DICTIONARY
  5
16
102
{ACAD_REACTORS
330
C
102
}
330
C
100
AcDbDictionary
281
     1
  3
Standard
350
17
  0
DICTIONARY
  5
18
102
{ACAD_REACTORS
330
C
102
}
330
C
100
AcDbDictionary
281
     1
  0
ACDBDICTIONARYWDFLT
  5
E
102
{ACAD_REACTORS
330
C
102
}
330
C
100
AcDbDictionary
281
     1
  3
Normal
350
F
100
AcDbDictionaryWithDefault
340
F
  0
XRECORD
  5
2C87
102
{ACAD_REACTORS
330
C
102
}
330
C
100
AcDbXrecord
280
     1
 90
   990106
  3

 60
     0
 61
     0
 62
     1
 63
     1
 64
     0
 65
     0
 66
     0
 67
     3
 68
     1
 69
     0
 70
     0
 71
     0
 72
     0
 40
0.0
170
     2
340
0
  0
LAYOUT
  5
1D
102
{ACAD_REACTORS
330
19
102
}
330
19
100
AcDbPlotSettings
  1

  2
C:\Program Files\ACAD2000\plotters\DWF ePlot.pc3
  4

  6

 40
0.0
 41
0.0
 42
0.0
 43
0.0
 44
0.0
 45
0.0
 46
0.0
 47
0.0
 48
0.0
 49
0.0
140
0.0
141
0.0
142
1.0
143
1.0
 70
   688
 72
     0
 73
     0
 74
     5
  7
monochrome.ctb
 75
    16
147
1.0
148
0.0
149
0.0
100
AcDbLayout
  1
Layout1
 70
     1
 71
     1
 10
0.0
 20
0.0
 11
12.0
 21
9.0
 12
0.0
 22
0.0
 32
0.0
 14
1.000000000000000E+20
 24
1.000000000000000E+20
 34
1.000000000000000E+20
 15
-1.000000000000000E+20
 25
-1.000000000000000E+20
 35
-1.000000000000000E+20
146
0.0
 13
0.0
 23
0.0
 33
0.0
 16
1.0
 26
0.0
 36
0.0
 17
0.0
 27
1.0
 37
0.0
 76
     0
330
1A
  0
LAYOUT
  5
21
102
{ACAD_REACTORS
330
19
102
}
330
19
100
AcDbPlotSettings
  1

  2
RICOH Aficio MP 7001 PCL 5e
  4
Letter
  6

 40
7.143749713897705
 41
5.027085304260253
 42
7.14373779296875
 43
5.027069091796875
 44
215.8999938964843
 45
279.3999938964843
 46
17.018
 47
0.0
 48
0.0
 49
0.0
140
0.0
141
0.0
142
1.0
143
8.610348487467657
 70
 11956
 72
     0
 73
     1
 74
     1
  7
monochrome.ctb
 75
     0
147
0.1161393178749382
148
0.0707654747163986
149
0.044028061619008
100
AcDbLayout
  1
Model
 70
     1
 71
     0
 10
0.0
 20
0.0
 11
12.0
 21
9.0
 12
0.0
 22
0.0
 32
0.0
 14
0.0
 24
0.0
 34
0.0
 15
0.0
 25
0.0
 35
0.0
146
0.0
 13
0.0
 23
0.0
 33
0.0
 16
1.0
 26
0.0
 36
0.0
 17
0.0
 27
1.0
 37
0.0
 76
     0
330
1E
  0
MLINESTYLE
  5
17
102
{ACAD_REACTORS
330
16
102
}
330
16
100
AcDbMlineStyle
  2
STANDARD
 70
     0
  3

 62
   256
 51
90.0
 52
90.0
 71
     2
 49
0.5
 62
   256
  6
BYLAYER
 49
-0.5
 62
   256
  6
BYLAYER
  0
ACDBPLACEHOLDER
  5
F
102
{ACAD_REACTORS
330
E
102
}
330
E
  0
ENDSEC
  0
EOF
