  0
SECTION
  2
HEADER
  9
$ACADVER
  1
AC1015
  9
$ACADMAINTVER
 70
     6
  9
$DWGCODEPAGE
  3
ANSI_1252
  9
$INSBASE
 10
0.0
 20
0.0
 30
0.0
  9
$EXTMIN
 10
-0.0027860423116692
 20
-0.0017333882527169
 30
-0.0000000100021362
  9
$EXTMAX
 10
91.30278646746038
 20
56.80573365276693
 30
0.0000000100021363
  9
$LIMMIN
 10
0.0
 20
0.0
  9
$LIMMAX
 10
11.0
 20
8.5
  9
$ORTHOMODE
 70
     0
  9
$REGENMODE
 70
     1
  9
$FILLMODE
 70
     1
  9
$QTEXTMODE
 70
     0
  9
$MIRRTEXT
 70
     0
  9
$LTSCALE
 40
2.0
  9
$ATTMODE
 70
     1
  9
$TEXTSIZE
 40
0.6875
  9
$TRACEWID
 40
0.05
  9
$TEXTSTYLE
  7
TXT
  9
$CLAYER
  8
OBJECT
  9
$CELTYPE
  6
ByLayer
  9
$CECOLOR
 62
   256
  9
$CELTSCALE
 40
1.0
  9
$DISPSILH
 70
     0
  9
$DIMSCALE
 40
5.5
  9
$DIMASZ
 40
0.18
  9
$DIMEXO
 40
0.063
  9
$DIMDLI
 40
0.281
  9
$DIMRND
 40
0.0
  9
$DIMDLE
 40
0.0
  9
$DIMEXE
 40
0.093
  9
$DIMTP
 40
0.0
  9
$DIMTM
 40
0.0
  9
$DIMTXT
 40
0.125
  9
$DIMCEN
 40
0.09
  9
$DIMTSZ
 40
0.0
  9
$DIMTOL
 70
     0
  9
$DIMLIM
 70
     0
  9
$DIMTIH
 70
     1
  9
$DIMTOH
 70
     1
  9
$DIMSE1
 70
     0
  9
$DIMSE2
 70
     0
  9
$DIMTAD
 70
     0
  9
$DIMZIN
 70
     0
  9
$DIMBLK
  1

  9
$DIMASO
 70
     1
  9
$DIMSHO
 70
     1
  9
$DIMPOST
  1

  9
$DIMAPOST
  1

  9
$DIMALT
 70
     1
  9
$DIMALTD
 70
     1
  9
$DIMALTF
 40
25.4
  9
$DIMLFAC
 40
1.0
  9
$DIMTOFL
 70
     0
  9
$DIMTVP
 40
0.0
  9
$DIMTIX
 70
     0
  9
$DIMSOXD
 70
     0
  9
$DIMSAH
 70
     0
  9
$DIMBLK1
  1

  9
$DIMBLK2
  1

  9
$DIMSTYLE
  2
23NSTD
  9
$DIMCLRD
 70
     0
  9
$DIMCLRE
 70
     0
  9
$DIMCLRT
 70
     0
  9
$DIMTFAC
 40
1.0
  9
$DIMGAP
 40
0.09
  9
$DIMJUST
 70
     0
  9
$DIMSD1
 70
     0
  9
$DIMSD2
 70
     0
  9
$DIMTOLJ
 70
     1
  9
$DIMTZIN
 70
     0
  9
$DIMALTZ
 70
     0
  9
$DIMALTTZ
 70
     0
  9
$DIMUPT
 70
     0
  9
$DIMDEC
 70
     2
  9
$DIMTDEC
 70
     2
  9
$DIMALTU
 70
     2
  9
$DIMALTTD
 70
     1
  9
$DIMTXSTY
  7
TXT
  9
$DIMAUNIT
 70
     0
  9
$DIMADEC
 70
     0
  9
$DIMALTRND
 40
0.0
  9
$DIMAZIN
 70
     0
  9
$DIMDSEP
 70
    46
  9
$DIMATFIT
 70
     0
  9
$DIMFRAC
 70
     0
  9
$DIMLDRBLK
  1

  9
$DIMLUNIT
 70
     2
  9
$DIMLWD
 70
    -2
  9
$DIMLWE
 70
    -2
  9
$DIMTMOVE
 70
     0
  9
$LUNITS
 70
     2
  9
$LUPREC
 70
     3
  9
$SKETCHINC
 40
0.1
  9
$FILLETRAD
 40
0.0
  9
$AUNITS
 70
     0
  9
$AUPREC
 70
     0
  9
$MENU
  1
acad
  9
$ELEVATION
 40
0.0
  9
$PELEVATION
 40
0.0
  9
$THICKNESS
 40
0.0
  9
$LIMCHECK
 70
     0
  9
$CHAMFERA
 40
0.0
  9
$CHAMFERB
 40
0.0
  9
$CHAMFERC
 40
0.0
  9
$CHAMFERD
 40
0.0
  9
$SKPOLY
 70
     0
  9
$TDCREATE
 40
2455310.642698379
  9
$TDUCREATE
 40
2455310.809365046
  9
$TDUPDATE
 40
2455868.483043796
  9
$TDUUPDATE
 40
2455868.649710463
  9
$TDINDWG
 40
0.6361507523
  9
$TDUSRTIMER
 40
0.6361507523
  9
$USRTIMER
 70
     1
  9
$ANGBASE
 50
0.0
  9
$ANGDIR
 70
     0
  9
$PDMODE
 70
     0
  9
$PDSIZE
 40
0.0
  9
$PLINEWID
 40
0.0
  9
$SPLFRAME
 70
     0
  9
$SPLINETYPE
 70
     6
  9
$SPLINESEGS
 70
     8
  9
$HANDSEED
  5
8268
  9
$SURFTAB1
 70
     6
  9
$SURFTAB2
 70
     6
  9
$SURFTYPE
 70
     6
  9
$SURFU
 70
     6
  9
$SURFV
 70
     6
  9
$UCSBASE
  2

  9
$UCSNAME
  2

  9
$UCSORG
 10
0.0
 20
0.0
 30
0.0
  9
$UCSXDIR
 10
1.0
 20
0.0
 30
0.0
  9
$UCSYDIR
 10
0.0
 20
1.0
 30
0.0
  9
$UCSORTHOREF
  2

  9
$UCSORTHOVIEW
 70
     0
  9
$UCSORGTOP
 10
0.0
 20
0.0
 30
0.0
  9
$UCSORGBOTTOM
 10
0.0
 20
0.0
 30
0.0
  9
$UCSORGLEFT
 10
0.0
 20
0.0
 30
0.0
  9
$UCSORGRIGHT
 10
0.0
 20
0.0
 30
0.0
  9
$UCSORGFRONT
 10
0.0
 20
0.0
 30
0.0
  9
$UCSORGBACK
 10
0.0
 20
0.0
 30
0.0
  9
$PUCSBASE
  2

  9
$PUCSNAME
  2

  9
$PUCSORG
 10
0.0
 20
0.0
 30
0.0
  9
$PUCSXDIR
 10
1.0
 20
0.0
 30
0.0
  9
$PUCSYDIR
 10
0.0
 20
1.0
 30
0.0
  9
$PUCSORTHOREF
  2

  9
$PUCSORTHOVIEW
 70
     0
  9
$PUCSORGTOP
 10
0.0
 20
0.0
 30
0.0
  9
$PUCSORGBOTTOM
 10
0.0
 20
0.0
 30
0.0
  9
$PUCSORGLEFT
 10
0.0
 20
0.0
 30
0.0
  9
$PUCSORGRIGHT
 10
0.0
 20
0.0
 30
0.0
  9
$PUCSORGFRONT
 10
0.0
 20
0.0
 30
0.0
  9
$PUCSORGBACK
 10
0.0
 20
0.0
 30
0.0
  9
$USERI1
 70
     0
  9
$USERI2
 70
     0
  9
$USERI3
 70
     0
  9
$USERI4
 70
     0
  9
$USERI5
 70
     0
  9
$USERR1
 40
0.0
  9
$USERR2
 40
0.0
  9
$USERR3
 40
0.0
  9
$USERR4
 40
0.0
  9
$USERR5
 40
0.0
  9
$WORLDVIEW
 70
     1
  9
$SHADEDGE
 70
     3
  9
$SHADEDIF
 70
    70
  9
$TILEMODE
 70
     1
  9
$MAXACTVP
 70
    16
  9
$PINSBASE
 10
0.0
 20
0.0
 30
0.0
  9
$PLIMCHECK
 70
     0
  9
$PEXTMIN
 10
1.000000000000000E+20
 20
1.000000000000000E+20
 30
1.000000000000000E+20
  9
$PEXTMAX
 10
-1.000000000000000E+20
 20
-1.000000000000000E+20
 30
-1.000000000000000E+20
  9
$PLIMMIN
 10
0.0
 20
0.0
  9
$PLIMMAX
 10
12.0
 20
9.0
  9
$UNITMODE
 70
     0
  9
$VISRETAIN
 70
     0
  9
$PLINEGEN
 70
     0
  9
$PSLTSCALE
 70
     1
  9
$TREEDEPTH
 70
  3020
  9
$CMLSTYLE
  2
Standard
  9
$CMLJUST
 70
     0
  9
$CMLSCALE
 40
1.0
  9
$PROXYGRAPHICS
 70
     1
  9
$MEASUREMENT
 70
     0
  9
$CELWEIGHT
370
    -1
  9
$ENDCAPS
280
     0
  9
$JOINSTYLE
280
     0
  9
$LWDISPLAY
290
     0
  9
$INSUNITS
 70
     0
  9
$HYPERLINKBASE
  1

  9
$STYLESHEET
  1
monochrome.ctb
  9
$XEDIT
290
     1
  9
$CEPSNTYPE
380
     0
  9
$PSTYLEMODE
290
     1
  9
$FINGERPRINTGUID
  2
{5F9F434B-8232-11D3-80AD-00C04F604D1B}
  9
$VERSIONGUID
  2
{F2AE0848-43E8-447F-8B3B-153FA0421DC3}
  9
$EXTNAMES
290
     1
  9
$PSVPSCALE
 40
0.0
  9
$OLESTARTUP
290
     0
  0
ENDSEC
  0
SECTION
  2
CLASSES
  0
CLASS
  1
ACDBDICTIONARYWDFLT
  2
AcDbDictionaryWithDefault
  3
AutoCAD 2000
 90
        0
280
     0
281
     0
  0
CLASS
  1
ACDBPLACEHOLDER
  2
AcDbPlaceHolder
  3
AutoCAD 2000
 90
        0
280
     0
281
     0
  0
CLASS
  1
LAYOUT
  2
AcDbLayout
  3
AutoCAD 2000
 90
        0
280
     0
281
     0
  0
ENDSEC
  0
SECTION
  2
TABLES
  0
TABLE
  2
VPORT
  5
8
330
0
100
AcDbSymbolTable
 70
     2
  0
VPORT
  5
8267
330
8
100
AcDbSymbolTableRecord
100
AcDbViewportTableRecord
  2
*Active
 70
     0
 10
0.0
 20
0.0
 11
1.0
 21
1.0
 12
45.65000021257435
 22
28.40200013225711
 13
0.0
 23
0.0
 14
0.125
 24
0.125
 15
0.125
 25
0.125
 16
0.0
 26
0.0
 36
1.0
 17
0.0
 27
0.0
 37
0.0
 40
57.37935429311045
 41
1.836974789915966
 42
50.0
 43
0.0
 44
0.0
 50
0.0
 51
0.0
 71
     0
 72
   100
 73
     1
 74
     0
 75
     0
 76
     0
 77
     0
 78
     0
281
     0
 65
     1
110
0.0
120
0.0
130
0.0
111
1.0
121
0.0
131
0.0
112
0.0
122
1.0
132
0.0
 79
     0
146
0.0
  0
ENDTAB
  0
TABLE
  2
LTYPE
  5
5
330
0
100
AcDbSymbolTable
 70
     8
  0
LTYPE
  5
13
330
5
100
AcDbSymbolTableRecord
100
AcDbLinetypeTableRecord
  2
ByBlock
 70
     0
  3

 72
    65
 73
     0
 40
0.0
  0
LTYPE
  5
14
330
5
100
AcDbSymbolTableRecord
100
AcDbLinetypeTableRecord
  2
ByLayer
 70
     0
  3

 72
    65
 73
     0
 40
0.0
  0
LTYPE
  5
15
330
5
100
AcDbSymbolTableRecord
100
AcDbLinetypeTableRecord
  2
CONTINUOUS
 70
     0
  3
Solid line
 72
    65
 73
     0
 40
0.0
  0
LTYPE
  5
22
330
5
100
AcDbSymbolTableRecord
100
AcDbLinetypeTableRecord
  2
HIDDEN
 70
     0
  3
_ _ _ _ _ _ _ _ _ _ _ _ _ _ _ _ _ _ _ _ _ _ _
 72
    65
 73
     2
 40
0.375
 49
0.25
 74
     0
 49
-0.125
 74
     0
  0
LTYPE
  5
23
330
5
100
AcDbSymbolTableRecord
100
AcDbLinetypeTableRecord
  2
PHANTOM
 70
     0
  3
_____ _ _ _____ _ _ _____ _ _ _____ _ _ ____
 72
    65
 73
     6
 40
2.5
 49
1.25
 74
     0
 49
-0.25
 74
     0
 49
0.25
 74
     0
 49
-0.25
 74
     0
 49
0.25
 74
     0
 49
-0.25
 74
     0
  0
LTYPE
  5
24
330
5
100
AcDbSymbolTableRecord
100
AcDbLinetypeTableRecord
  2
CENTER
 70
     0
  3
____ _ ____ _ ____ _ ____ _ ____ _ ____ _ ____
 72
    65
 73
     4
 40
2.0
 49
1.25
 74
     0
 49
-0.25
 74
     0
 49
0.25
 74
     0
 49
-0.25
 74
     0
  0
LTYPE
  5
25
330
5
100
AcDbSymbolTableRecord
100
AcDbLinetypeTableRecord
  2
HIDDEN2
 70
     0
  3
_ _ _ _ _ _ _ _ _ _ _ _ _ _ _ _ _ _ _ _ _ _ _ _
 72
    65
 73
     2
 40
0.1875
 49
0.125
 74
     0
 49
-0.0625
 74
     0
  0
LTYPE
  5
26
330
5
100
AcDbSymbolTableRecord
100
AcDbLinetypeTableRecord
  2
PHANTOM2
 70
     0
  3
___ _ _ ___ _ _ ___ _ _ ___ _ _ ___ _ _ ___ _ _
 72
    65
 73
     6
 40
1.25
 49
0.625
 74
     0
 49
-0.125
 74
     0
 49
0.125
 74
     0
 49
-0.125
 74
     0
 49
0.125
 74
     0
 49
-0.125
 74
     0
  0
LTYPE
  5
880
330
5
100
AcDbSymbolTableRecord
100
AcDbLinetypeTableRecord
  2
CENTERX2
 70
     0
  3
Center (2x) ________  __  ________  __  _____
 72
    65
 73
     4
 40
0.8
 49
0.5
 74
     0
 49
-0.1
 74
     0
 49
0.1
 74
     0
 49
-0.1
 74
     0
  0
LTYPE
  5
881
330
5
100
AcDbSymbolTableRecord
100
AcDbLinetypeTableRecord
  2
DOT2
 70
     0
  3
Dot (.5x) ........................................
 72
    65
 73
     2
 40
0.025
 49
0.0
 74
     0
 49
-0.025
 74
     0
  0
ENDTAB
  0
TABLE
  2
LAYER
  5
2
330
0
100
AcDbSymbolTable
 70
     9
  0
LAYER
  5
10
330
2
100
AcDbSymbolTableRecord
100
AcDbLayerTableRecord
  2
0
 70
     0
 62
     7
  6
CONTINUOUS
370
    -3
390
F
  0
LAYER
  5
29
330
2
100
AcDbSymbolTableRecord
100
AcDbLayerTableRecord
  2
OBJECT
 70
     0
 62
     7
  6
CONTINUOUS
370
    -3
390
F
  0
LAYER
  5
2A
330
2
100
AcDbSymbolTableRecord
100
AcDbLayerTableRecord
  2
DIM
 70
     0
 62
     7
  6
CONTINUOUS
370
    -3
390
F
  0
LAYER
  5
2B
330
2
100
AcDbSymbolTableRecord
100
AcDbLayerTableRecord
  2
HIDDEN
 70
     0
 62
     7
  6
HIDDEN
370
    -3
390
F
  0
LAYER
  5
2C
330
2
100
AcDbSymbolTableRecord
100
AcDbLayerTableRecord
  2
BEND
 70
     0
 62
     7
  6
PHANTOM
370
    -3
390
F
  0
LAYER
  5
2D
330
2
100
AcDbSymbolTableRecord
100
AcDbLayerTableRecord
  2
TEXT
 70
     0
 62
     7
  6
CONTINUOUS
370
    -3
390
F
  0
LAYER
  5
2E
330
2
100
AcDbSymbolTableRecord
100
AcDbLayerTableRecord
  2
TITLE
 70
     0
 62
     7
  6
CONTINUOUS
370
    -3
390
F
  0
LAYER
  5
882
330
2
100
AcDbSymbolTableRecord
100
AcDbLayerTableRecord
  2
Defpoints
 70
     0
 62
     7
  6
CONTINUOUS
290
     0
370
    -3
390
F
  0
LAYER
  5
6723
330
2
100
AcDbSymbolTableRecord
100
AcDbLayerTableRecord
  2
CENTER
 70
     0
 62
     7
  6
CENTER
370
    -3
390
F
  0
ENDTAB
  0
TABLE
  2
STYLE
  5
3
330
0
100
AcDbSymbolTable
 70
     1
  0
STYLE
  5
11
330
3
100
AcDbSymbolTableRecord
100
AcDbTextStyleTableRecord
  2
TXT
 70
     0
 40
0.0
 41
0.75
 50
0.0
 71
     0
 42
0.6875
  3
TXT.shx
  4

  0
ENDTAB
  0
TABLE
  2
VIEW
  5
6
330
0
100
AcDbSymbolTable
 70
     0
  0
ENDTAB
  0
TABLE
  2
UCS
  5
7
330
0
100
AcDbSymbolTable
 70
     0
  0
ENDTAB
  0
TABLE
  2
APPID
  5
9
330
0
100
AcDbSymbolTable
 70
     1
  0
APPID
  5
12
330
9
100
AcDbSymbolTableRecord
100
AcDbRegAppTableRecord
  2
ACAD
 70
     0
  0
ENDTAB
  0
TABLE
  2
DIMSTYLE
  5
A
330
0
100
AcDbSymbolTable
 70
     2
100
AcDbDimStyleTable
 71
     2
340
38
340
39
  0
DIMSTYLE
105
38
102
{ACAD_REACTORS
330
244A
330
2515
330
2523
330
2715
330
2752
330
4BCD
330
48EF
330
4BB5
330
4CF8
330
4CEA
330
4EE8
330
4D70
330
4DD8
330
4E15
330
2458
330
2466
330
6E14
330
6E13
330
6DE7
330
4C3B
330
4CDC
330
61E4
330
6327
330
6379
330
637B
330
6F7C
330
6FD1
330
7096
102
}
330
A
100
AcDbSymbolTableRecord
100
AcDbDimStyleTableRecord
  2
23NSTD
 70
     0
 40
5.5
 42
0.063
 43
0.281
 44
0.093
140
0.125
170
     1
171
     1
271
     2
272
     2
274
     1
289
     0
340
11
  0
DIMSTYLE
105
39
102
{ACAD_REACTORS
330
48CD
330
4DF0
102
}
330
A
100
AcDbSymbolTableRecord
100
AcDbDimStyleTableRecord
  2
23NSTDI
 70
     0
 40
5.5
 42
0.063
 43
0.281
 44
0.093
140
0.125
170
     1
174
     1
271
     2
272
     2
289
     0
340
11
  0
ENDTAB
  0
TABLE
  2
BLOCK_RECORD
  5
1
330
0
100
AcDbSymbolTable
 70
    22
  0
BLOCK_RECORD
  5
1E
330
1
100
AcDbSymbolTableRecord
100
AcDbBlockTableRecord
  2
*Model_Space
340
21
  0
BLOCK_RECORD
  5
1A
330
1
100
AcDbSymbolTableRecord
100
AcDbBlockTableRecord
  2
*Paper_Space
340
1D
  0
BLOCK_RECORD
  5
244B
330
1
100
AcDbSymbolTableRecord
100
AcDbBlockTableRecord
  2
*D0
340
0
  0
BLOCK_RECORD
  5
2459
330
1
100
AcDbSymbolTableRecord
100
AcDbBlockTableRecord
  2
*D1
340
0
  0
BLOCK_RECORD
  5
2467
330
1
100
AcDbSymbolTableRecord
100
AcDbBlockTableRecord
  2
*D2
340
0
  0
BLOCK_RECORD
  5
2516
330
1
100
AcDbSymbolTableRecord
100
AcDbBlockTableRecord
  2
*D3
340
0
  0
BLOCK_RECORD
  5
2524
330
1
100
AcDbSymbolTableRecord
100
AcDbBlockTableRecord
  2
*D4
340
0
  0
BLOCK_RECORD
  5
2716
330
1
100
AcDbSymbolTableRecord
100
AcDbBlockTableRecord
  2
*D5
340
0
  0
BLOCK_RECORD
  5
2753
330
1
100
AcDbSymbolTableRecord
100
AcDbBlockTableRecord
  2
*D6
340
0
  0
BLOCK_RECORD
  5
48CE
330
1
100
AcDbSymbolTableRecord
100
AcDbBlockTableRecord
  2
*D7
340
0
  0
BLOCK_RECORD
  5
48F0
330
1
100
AcDbSymbolTableRecord
100
AcDbBlockTableRecord
  2
*D8
340
0
  0
BLOCK_RECORD
  5
4BB6
330
1
100
AcDbSymbolTableRecord
100
AcDbBlockTableRecord
  2
*D9
340
0
  0
BLOCK_RECORD
  5
4BCE
330
1
100
AcDbSymbolTableRecord
100
AcDbBlockTableRecord
  2
*D10
340
0
  0
BLOCK_RECORD
  5
4CEB
330
1
100
AcDbSymbolTableRecord
100
AcDbBlockTableRecord
  2
*D11
340
0
  0
BLOCK_RECORD
  5
4CF9
330
1
100
AcDbSymbolTableRecord
100
AcDbBlockTableRecord
  2
*D12
340
0
  0
BLOCK_RECORD
  5
4D71
330
1
100
AcDbSymbolTableRecord
100
AcDbBlockTableRecord
  2
*D13
340
0
  0
BLOCK_RECORD
  5
4DD9
330
1
100
AcDbSymbolTableRecord
100
AcDbBlockTableRecord
  2
*D14
340
0
  0
BLOCK_RECORD
  5
4DF1
330
1
100
AcDbSymbolTableRecord
100
AcDbBlockTableRecord
  2
*D15
340
0
  0
BLOCK_RECORD
  5
4E16
330
1
100
AcDbSymbolTableRecord
100
AcDbBlockTableRecord
  2
*D16
340
0
  0
BLOCK_RECORD
  5
4EE9
330
1
100
AcDbSymbolTableRecord
100
AcDbBlockTableRecord
  2
*D17
340
0
  0
BLOCK_RECORD
  5
6724
330
1
100
AcDbSymbolTableRecord
100
AcDbBlockTableRecord
  2
HBS
340
0
102
{BLKREFS
331
67F3
102
}
  0
BLOCK_RECORD
  5
6DE8
330
1
100
AcDbSymbolTableRecord
100
AcDbBlockTableRecord
  2
*D19
340
0
  0
BLOCK_RECORD
  5
6E17
330
1
100
AcDbSymbolTableRecord
100
AcDbBlockTableRecord
  2
*D20
340
0
  0
BLOCK_RECORD
  5
6E25
330
1
100
AcDbSymbolTableRecord
100
AcDbBlockTableRecord
  2
*D21
340
0
  0
ENDTAB
  0
ENDSEC
  0
SECTION
  2
BLOCKS
  0
BLOCK
  5
33
330
1E
100
AcDbEntity
  8
0
100
AcDbBlockBegin
  2
*Model_Space
 70
     0
 10
0.0
 20
0.0
 30
0.0
  3
*Model_Space
  1

  0
ENDBLK
  5
34
330
1E
100
AcDbEntity
  8
0
100
AcDbBlockEnd
  0
BLOCK
  5
31
330
1A
100
AcDbEntity
 67
     1
  8
0
100
AcDbBlockBegin
  2
*Paper_Space
 70
     0
 10
0.0
 20
0.0
 30
0.0
  3
*Paper_Space
  1

  0
ENDBLK
  5
32
330
1A
100
AcDbEntity
 67
     1
  8
0
100
AcDbBlockEnd
  0
BLOCK
  5
2456
330
244B
100
AcDbEntity
  8
0
100
AcDbBlockBegin
  2
*D0
 70
     1
 10
0.0
 20
0.0
 30
0.0
  3
*D0
  1

  0
LINE
  5
7F23
330
244B
100
AcDbEntity
  8
DIM
 62
     0
370
    -2
100
AcDbLine
 10
38.22665246915481
 20
48.93714097145284
 30
0.0
 11
38.22665246915481
 21
52.04578620540719
 31
0.0
  0
LINE
  5
7F24
330
244B
100
AcDbEntity
  8
DIM
 62
     0
370
    -2
100
AcDbLine
 10
46.09225223659345
 20
48.93048316935908
 30
0.0
 11
46.09225223659345
 21
52.04578620540719
 31
0.0
  0
LINE
  5
7F25
330
244B
100
AcDbEntity
  8
DIM
 62
     0
370
    -2
100
AcDbLine
 10
39.21665246915481
 20
51.5342862054072
 30
0.0
 11
41.02588663446463
 21
51.5342862054072
 31
0.0
  0
LINE
  5
7F26
330
244B
100
AcDbEntity
  8
DIM
 62
     0
370
    -2
100
AcDbLine
 10
45.10225223659345
 20
51.5342862054072
 30
0.0
 11
43.04713663446462
 21
51.5342862054072
 31
0.0
  0
SOLID
  5
7F27
330
244B
100
AcDbEntity
  8
DIM
 62
     0
100
AcDbTrace
 10
39.21665246915481
 20
51.69928620540719
 30
0.0
 11
39.21665246915481
 21
51.3692862054072
 31
0.0
 12
38.22665246915481
 22
51.5342862054072
 32
0.0
 13
38.22665246915481
 23
51.5342862054072
 33
0.0
  0
SOLID
  5
7F28
330
244B
100
AcDbEntity
  8
DIM
 62
     0
100
AcDbTrace
 10
45.10225223659345
 20
51.69928620540719
 30
0.0
 11
45.10225223659345
 21
51.3692862054072
 31
0.0
 12
46.09225223659345
 22
51.5342862054072
 32
0.0
 13
46.09225223659345
 23
51.5342862054072
 33
0.0
  0
MTEXT
  5
7F29
330
244B
100
AcDbEntity
  8
DIM
 62
     0
100
AcDbMText
 10
42.03651163446463
 20
51.5342862054072
 30
0.0
 40
0.6875
 41
0.0
 71
     5
 72
     1
  1
\A1;"C"
 73
     1
 44
1.0
  0
POINT
  5
7F2A
330
244B
100
AcDbEntity
  8
Defpoints
 62
     0
100
AcDbPoint
 10
38.22665246915481
 20
48.59064097145285
 30
0.0
  0
POINT
  5
7F2B
330
244B
100
AcDbEntity
  8
Defpoints
 62
     0
100
AcDbPoint
 10
46.09225223659345
 20
48.58398316935908
 30
0.0
  0
POINT
  5
7F2C
330
244B
100
AcDbEntity
  8
Defpoints
 62
     0
100
AcDbPoint
 10
46.09225223659345
 20
51.5342862054072
 30
0.0
  0
ENDBLK
  5
2457
330
244B
100
AcDbEntity
  8
0
100
AcDbBlockEnd
  0
BLOCK
  5
2464
330
2459
100
AcDbEntity
  8
0
100
AcDbBlockBegin
  2
*D1
 70
     1
 10
0.0
 20
0.0
 30
0.0
  3
*D1
  1

  0
LINE
  5
7FAF
330
2459
100
AcDbEntity
  8
DIM
 62
     0
370
    -2
100
AcDbLine
 10
7.406747818997185
 20
48.9304830481711
 30
0.0
 11
7.406747818997185
 21
52.92074960895284
 31
0.0
  0
LINE
  5
7FB0
330
2459
100
AcDbEntity
  8
DIM
 62
     0
370
    -2
100
AcDbLine
 10
23.15431224957567
 20
48.93866196702087
 30
0.0
 11
23.15431224957567
 21
52.92074960895284
 31
0.0
  0
LINE
  5
7FB1
330
2459
100
AcDbEntity
  8
DIM
 62
     0
370
    -2
100
AcDbLine
 10
8.396747818997186
 20
52.40924960895284
 30
0.0
 11
14.34301771254309
 21
52.40924960895284
 31
0.0
  0
LINE
  5
7FB2
330
2459
100
AcDbEntity
  8
DIM
 62
     0
370
    -2
100
AcDbLine
 10
22.16431224957566
 20
52.40924960895284
 30
0.0
 11
16.36426771254309
 21
52.40924960895284
 31
0.0
  0
SOLID
  5
7FB3
330
2459
100
AcDbEntity
  8
DIM
 62
     0
100
AcDbTrace
 10
8.396747818997186
 20
52.57424960895285
 30
0.0
 11
8.396747818997186
 21
52.24424960895285
 31
0.0
 12
7.406747818997185
 22
52.40924960895284
 32
0.0
 13
7.406747818997185
 23
52.40924960895284
 33
0.0
  0
SOLID
  5
7FB4
330
2459
100
AcDbEntity
  8
DIM
 62
     0
100
AcDbTrace
 10
22.16431224957566
 20
52.57424960895285
 30
0.0
 11
22.16431224957566
 21
52.24424960895285
 31
0.0
 12
23.15431224957567
 22
52.40924960895284
 32
0.0
 13
23.15431224957567
 23
52.40924960895284
 33
0.0
  0
MTEXT
  5
7FB5
330
2459
100
AcDbEntity
  8
DIM
 62
     0
100
AcDbMText
 10
15.35364271254309
 20
52.40924960895284
 30
0.0
 40
0.6875
 41
0.0
 71
     5
 72
     1
  1
\A1;"B"
 73
     1
 44
1.0
  0
POINT
  5
7FB6
330
2459
100
AcDbEntity
  8
Defpoints
 62
     0
100
AcDbPoint
 10
7.406747818997185
 20
48.58398304817111
 30
0.0
  0
POINT
  5
7FB7
330
2459
100
AcDbEntity
  8
Defpoints
 62
     0
100
AcDbPoint
 10
23.15431224957567
 20
48.59216196702087
 30
0.0
  0
POINT
  5
7FB8
330
2459
100
AcDbEntity
  8
Defpoints
 62
     0
100
AcDbPoint
 10
23.15431224957567
 20
52.40924960895284
 30
0.0
  0
ENDBLK
  5
2465
330
2459
100
AcDbEntity
  8
0
100
AcDbBlockEnd
  0
BLOCK
  5
2472
330
2467
100
AcDbEntity
  8
0
100
AcDbBlockBegin
  2
*D2
 70
     1
 10
0.0
 20
0.0
 30
0.0
  3
*D2
  1

  0
LINE
  5
7FB9
330
2467
100
AcDbEntity
  8
DIM
 62
     0
370
    -2
100
AcDbLine
 10
7.137247809486711
 20
48.66098303866064
 30
0.0
 11
4.378500272351593
 21
48.66098303866064
 31
0.0
  0
LINE
  5
7FBA
330
2467
100
AcDbEntity
  8
DIM
 62
     0
370
    -2
100
AcDbLine
 10
7.137247809486711
 20
32.91323338294458
 30
0.0
 11
4.37850027235159
 21
32.91323338294458
 31
0.0
  0
LINE
  5
7FBB
330
2467
100
AcDbEntity
  8
DIM
 62
     0
370
    -2
100
AcDbLine
 10
4.890000272351593
 20
47.67098303866064
 30
0.0
 11
4.890000272351591
 21
41.84282355443695
 31
0.0
  0
LINE
  5
7FBC
330
2467
100
AcDbEntity
  8
DIM
 62
     0
370
    -2
100
AcDbLine
 10
4.890000272351589
 20
33.90323338294458
 30
0.0
 11
4.890000272351591
 21
40.16532355443696
 31
0.0
  0
SOLID
  5
7FBD
330
2467
100
AcDbEntity
  8
DIM
 62
     0
100
AcDbTrace
 10
4.725000272351593
 20
47.67098303866064
 30
0.0
 11
5.055000272351593
 21
47.67098303866064
 31
0.0
 12
4.890000272351593
 22
48.66098303866064
 32
0.0
 13
4.890000272351593
 23
48.66098303866064
 33
0.0
  0
SOLID
  5
7FBE
330
2467
100
AcDbEntity
  8
DIM
 62
     0
100
AcDbTrace
 10
4.725000272351589
 20
33.90323338294458
 30
0.0
 11
5.055000272351589
 21
33.90323338294458
 31
0.0
 12
4.890000272351589
 22
32.91323338294458
 32
0.0
 13
4.890000272351589
 23
32.91323338294458
 33
0.0
  0
MTEXT
  5
7FBF
330
2467
100
AcDbEntity
  8
DIM
 62
     0
100
AcDbMText
 10
4.890000272351585
 20
41.00407355443695
 30
0.0
 40
0.6875
 41
0.0
 71
     5
 72
     1
  1
\A1;"A"
 73
     1
 44
1.0
  0
POINT
  5
7FC0
330
2467
100
AcDbEntity
  8
Defpoints
 62
     0
100
AcDbPoint
 10
7.483747809486711
 20
48.66098303866064
 30
0.0
  0
POINT
  5
7FC1
330
2467
100
AcDbEntity
  8
Defpoints
 62
     0
100
AcDbPoint
 10
7.483747809486711
 20
32.91323338294458
 30
0.0
  0
POINT
  5
7FC2
330
2467
100
AcDbEntity
  8
Defpoints
 62
     0
100
AcDbPoint
 10
4.890000272351589
 20
32.91323338294458
 30
0.0
  0
ENDBLK
  5
2473
330
2467
100
AcDbEntity
  8
0
100
AcDbBlockEnd
  0
BLOCK
  5
2521
330
2516
100
AcDbEntity
  8
0
100
AcDbBlockBegin
  2
*D3
 70
     1
 10
0.0
 20
0.0
 30
0.0
  3
*D3
  1

  0
LINE
  5
7F2D
330
2516
100
AcDbEntity
  8
DIM
 62
     0
370
    -2
100
AcDbLine
 10
84.87022958845988
 20
47.11059787708964
 30
0.0
 11
82.65591272279001
 21
47.11059787708964
 31
0.0
  0
LINE
  5
7F2E
330
2516
100
AcDbEntity
  8
DIM
 62
     0
370
    -2
100
AcDbLine
 10
84.87022958845988
 20
34.31519787708963
 30
0.0
 11
82.65591272279001
 21
34.31519787708963
 31
0.0
  0
LINE
  5
7F2F
330
2516
100
AcDbEntity
  8
DIM
 62
     0
370
    -2
100
AcDbLine
 10
83.16741272279001
 20
46.12059787708964
 30
0.0
 11
83.16741272279001
 21
41.55164787708963
 31
0.0
  0
LINE
  5
7F30
330
2516
100
AcDbEntity
  8
DIM
 62
     0
370
    -2
100
AcDbLine
 10
83.16741272279001
 20
35.30519787708963
 30
0.0
 11
83.16741272279001
 21
39.87414787708964
 31
0.0
  0
SOLID
  5
7F31
330
2516
100
AcDbEntity
  8
DIM
 62
     0
100
AcDbTrace
 10
83.00241272279
 20
46.12059787708964
 30
0.0
 11
83.33241272279002
 21
46.12059787708964
 31
0.0
 12
83.16741272279001
 22
47.11059787708964
 32
0.0
 13
83.16741272279001
 23
47.11059787708964
 33
0.0
  0
SOLID
  5
7F32
330
2516
100
AcDbEntity
  8
DIM
 62
     0
100
AcDbTrace
 10
83.00241272279
 20
35.30519787708963
 30
0.0
 11
83.33241272279002
 21
35.30519787708963
 31
0.0
 12
83.16741272279001
 22
34.31519787708963
 32
0.0
 13
83.16741272279001
 23
34.31519787708963
 33
0.0
  0
MTEXT
  5
7F33
330
2516
100
AcDbEntity
  8
DIM
 62
     0
100
AcDbMText
 10
83.16741272279001
 20
40.71289787708965
 30
0.0
 40
0.6875
 41
0.0
 71
     5
 72
     1
  1
\A1;"J"
 73
     1
 44
1.0
  0
POINT
  5
7F34
330
2516
100
AcDbEntity
  8
Defpoints
 62
     0
100
AcDbPoint
 10
85.21672958845988
 20
47.11059787708964
 30
0.0
  0
POINT
  5
7F35
330
2516
100
AcDbEntity
  8
Defpoints
 62
     0
100
AcDbPoint
 10
85.21672958845988
 20
34.31519787708963
 30
0.0
  0
POINT
  5
7F36
330
2516
100
AcDbEntity
  8
Defpoints
 62
     0
100
AcDbPoint
 10
83.16741272279001
 20
34.31519787708963
 30
0.0
  0
ENDBLK
  5
2522
330
2516
100
AcDbEntity
  8
0
100
AcDbBlockEnd
  0
BLOCK
  5
252F
330
2524
100
AcDbEntity
  8
0
100
AcDbBlockBegin
  2
*D4
 70
     1
 10
0.0
 20
0.0
 30
0.0
  3
*D4
  1

  0
LINE
  5
7F37
330
2524
100
AcDbEntity
  8
DIM
 62
     0
370
    -2
100
AcDbLine
 10
85.21672958845988
 20
34.66169787708963
 30
0.0
 11
85.21672958845988
 21
36.90288910128213
 31
0.0
  0
LINE
  5
7F38
330
2524
100
AcDbEntity
  8
DIM
 62
     0
370
    -2
100
AcDbLine
 10
72.42132958845989
 20
34.66169787708963
 30
0.0
 11
72.42132958845989
 21
36.90288910128213
 31
0.0
  0
LINE
  5
7F39
330
2524
100
AcDbEntity
  8
DIM
 62
     0
370
    -2
100
AcDbLine
 10
84.22672958845989
 20
36.39138910128213
 30
0.0
 11
79.87134739091692
 21
36.39138910128213
 31
0.0
  0
LINE
  5
7F3A
330
2524
100
AcDbEntity
  8
DIM
 62
     0
370
    -2
100
AcDbLine
 10
73.41132958845988
 20
36.39138910128213
 30
0.0
 11
77.85009739091691
 21
36.39138910128213
 31
0.0
  0
SOLID
  5
7F3B
330
2524
100
AcDbEntity
  8
DIM
 62
     0
100
AcDbTrace
 10
84.22672958845989
 20
36.55638910128212
 30
0.0
 11
84.22672958845989
 21
36.22638910128213
 31
0.0
 12
85.21672958845988
 22
36.39138910128213
 32
0.0
 13
85.21672958845988
 23
36.39138910128213
 33
0.0
  0
SOLID
  5
7F3C
330
2524
100
AcDbEntity
  8
DIM
 62
     0
100
AcDbTrace
 10
73.41132958845988
 20
36.55638910128212
 30
0.0
 11
73.41132958845988
 21
36.22638910128213
 31
0.0
 12
72.42132958845989
 22
36.39138910128213
 32
0.0
 13
72.42132958845989
 23
36.39138910128213
 33
0.0
  0
MTEXT
  5
7F3D
330
2524
100
AcDbEntity
  8
DIM
 62
     0
100
AcDbMText
 10
78.86072239091692
 20
36.39138910128213
 30
0.0
 40
0.6875
 41
0.0
 71
     5
 72
     1
  1
\A1;"K"
 73
     1
 44
1.0
  0
POINT
  5
7F3E
330
2524
100
AcDbEntity
  8
Defpoints
 62
     0
100
AcDbPoint
 10
85.21672958845988
 20
34.31519787708963
 30
0.0
  0
POINT
  5
7F3F
330
2524
100
AcDbEntity
  8
Defpoints
 62
     0
100
AcDbPoint
 10
72.42132958845989
 20
34.31519787708963
 30
0.0
  0
POINT
  5
7F40
330
2524
100
AcDbEntity
  8
Defpoints
 62
     0
100
AcDbPoint
 10
72.42132958845989
 20
36.39138910128213
 30
0.0
  0
ENDBLK
  5
2530
330
2524
100
AcDbEntity
  8
0
100
AcDbBlockEnd
  0
BLOCK
  5
2722
330
2716
100
AcDbEntity
  8
0
100
AcDbBlockBegin
  2
*D5
 70
     1
 10
0.0
 20
0.0
 30
0.0
  3
*D5
  1

  0
LINE
  5
7F41
330
2716
100
AcDbEntity
  8
DIM
 62
     0
370
    -2
100
AcDbLine
 10
73.10352958845989
 20
23.78527215817261
 30
0.0
 11
77.98537929780962
 21
23.78527215817261
 31
0.0
  0
LINE
  5
7F42
330
2716
100
AcDbEntity
  8
DIM
 62
     0
370
    -2
100
AcDbLine
 10
76.77764787068456
 20
25.28527231871281
 30
0.0
 11
77.98537929780962
 21
25.28527231871281
 31
0.0
  0
LINE
  5
7F43
330
2716
100
AcDbEntity
  8
DIM
 62
     0
370
    -2
100
AcDbLine
 10
77.47387929780962
 20
22.79527215817262
 30
0.0
 11
77.47387929780962
 21
21.80527215817261
 31
0.0
  0
LINE
  5
7F44
330
2716
100
AcDbEntity
  8
DIM
 62
     0
370
    -2
100
AcDbLine
 10
77.47387929780962
 20
26.27527231871281
 30
0.0
 11
77.47387929780962
 21
27.26527231871281
 31
0.0
  0
SOLID
  5
7F45
330
2716
100
AcDbEntity
  8
DIM
 62
     0
100
AcDbTrace
 10
77.30887929780961
 20
22.79527215817262
 30
0.0
 11
77.63887929780962
 21
22.79527215817262
 31
0.0
 12
77.47387929780962
 22
23.78527215817261
 32
0.0
 13
77.47387929780962
 23
23.78527215817261
 33
0.0
  0
SOLID
  5
7F46
330
2716
100
AcDbEntity
  8
DIM
 62
     0
100
AcDbTrace
 10
77.30887929780961
 20
26.27527231871281
 30
0.0
 11
77.63887929780962
 21
26.27527231871281
 31
0.0
 12
77.47387929780962
 22
25.28527231871281
 32
0.0
 13
77.47387929780962
 23
25.28527231871281
 33
0.0
  0
MTEXT
  5
7F47
330
2716
100
AcDbEntity
  8
DIM
 62
     0
100
AcDbMText
 10
77.47387929780962
 20
24.53527223844273
 30
0.0
 40
0.6875
 41
0.0
 71
     5
 72
     1
  1
\A1;1.50 [38.1] INSIDE
 73
     1
 44
1.0
  0
POINT
  5
7F48
330
2716
100
AcDbEntity
  8
Defpoints
 62
     0
100
AcDbPoint
 10
72.75702958845989
 20
23.78527215817261
 30
0.0
  0
POINT
  5
7F49
330
2716
100
AcDbEntity
  8
Defpoints
 62
     0
100
AcDbPoint
 10
76.43114787068455
 20
25.28527231871281
 30
0.0
  0
POINT
  5
7F4A
330
2716
100
AcDbEntity
  8
Defpoints
 62
     0
100
AcDbPoint
 10
77.47387929780962
 20
25.28527231871281
 30
0.0
  0
ENDBLK
  5
2723
330
2716
100
AcDbEntity
  8
0
100
AcDbBlockEnd
  0
BLOCK
  5
275E
330
2753
100
AcDbEntity
  8
0
100
AcDbBlockBegin
  2
*D6
 70
     1
 10
0.0
 20
0.0
 30
0.0
  3
*D6
  1

  0
LINE
  5
7F4B
330
2753
100
AcDbEntity
  8
DIM
 62
     0
370
    -2
100
AcDbLine
 10
72.75702958845989
 20
23.43877215817261
 30
0.0
 11
72.75702958845989
 21
22.2500646922382
 31
0.0
  0
LINE
  5
7F4C
330
2753
100
AcDbEntity
  8
DIM
 62
     0
370
    -2
100
AcDbLine
 10
71.00702955279095
 20
22.56111751022762
 30
0.0
 11
71.00702955279095
 21
22.2500646922382
 31
0.0
  0
LINE
  5
7F4D
330
2753
100
AcDbEntity
  8
DIM
 62
     0
370
    -2
100
AcDbLine
 10
73.74702958845988
 20
22.7615646922382
 30
0.0
 11
74.73702958845989
 21
22.7615646922382
 31
0.0
  0
LINE
  5
7F4E
330
2753
100
AcDbEntity
  8
DIM
 62
     0
370
    -2
100
AcDbLine
 10
70.01702955279096
 20
22.7615646922382
 30
0.0
 11
68.76921705279096
 21
22.7615646922382
 31
0.0
  0
SOLID
  5
7F4F
330
2753
100
AcDbEntity
  8
DIM
 62
     0
100
AcDbTrace
 10
73.74702958845988
 20
22.92656469223821
 30
0.0
 11
73.74702958845988
 21
22.59656469223821
 31
0.0
 12
72.75702958845989
 22
22.7615646922382
 32
0.0
 13
72.75702958845989
 23
22.7615646922382
 33
0.0
  0
SOLID
  5
7F50
330
2753
100
AcDbEntity
  8
DIM
 62
     0
100
AcDbTrace
 10
70.01702955279096
 20
22.92656469223821
 30
0.0
 11
70.01702955279096
 21
22.59656469223821
 31
0.0
 12
71.00702955279095
 22
22.7615646922382
 32
0.0
 13
71.00702955279095
 23
22.7615646922382
 33
0.0
  0
MTEXT
  5
7F51
330
2753
100
AcDbEntity
  8
DIM
 62
     0
100
AcDbMText
 10
66.12577955279096
 20
22.7615646922382
 30
0.0
 40
0.6875
 41
0.0
 71
     5
 72
     1
  1
\A1;1.75 [44.5]\PINSIDE
 73
     1
 44
1.0
  0
POINT
  5
7F52
330
2753
100
AcDbEntity
  8
Defpoints
 62
     0
100
AcDbPoint
 10
72.75702958845989
 20
23.78527215817261
 30
0.0
  0
POINT
  5
7F53
330
2753
100
AcDbEntity
  8
Defpoints
 62
     0
100
AcDbPoint
 10
71.00702955279095
 20
22.90761751022762
 30
0.0
  0
POINT
  5
7F54
330
2753
100
AcDbEntity
  8
Defpoints
 62
     0
100
AcDbPoint
 10
71.00702955279095
 20
22.7615646922382
 30
0.0
  0
ENDBLK
  5
275F
330
2753
100
AcDbEntity
  8
0
100
AcDbBlockEnd
  0
BLOCK
  5
48D9
330
48CE
100
AcDbEntity
  8
0
100
AcDbBlockBegin
  2
*D7
 70
     1
 10
0.0
 20
0.0
 30
0.0
  3
*D7
  1

  0
LINE
  5
7F16
330
48CE
100
AcDbEntity
  8
DIM
 62
     0
370
    -2
100
AcDbLine
 10
45.57685852925081
 20
45.55333601740861
 30
0.0
 11
45.57685852925081
 21
46.05950375215373
 31
0.0
  0
LINE
  5
7F17
330
48CE
100
AcDbEntity
  8
DIM
 62
     0
370
    -2
100
AcDbLine
 10
38.28925244625912
 20
45.55333601740861
 30
0.0
 11
38.28925244625912
 21
46.05950375215373
 31
0.0
  0
LINE
  5
7F18
330
48CE
100
AcDbEntity
  8
DIM
 62
     0
370
    -2
100
AcDbLine
 10
44.58685852925081
 20
45.54800375215373
 30
0.0
 11
43.22442893697544
 21
45.54800375215373
 31
0.0
  0
LINE
  5
7F19
330
48CE
100
AcDbEntity
  8
DIM
 62
     0
370
    -2
100
AcDbLine
 10
39.27925244625912
 20
45.54800375215373
 30
0.0
 11
41.20317893697544
 21
45.54800375215373
 31
0.0
  0
SOLID
  5
7F1A
330
48CE
100
AcDbEntity
  8
DIM
 62
     0
100
AcDbTrace
 10
44.58685852925081
 20
45.71300375215373
 30
0.0
 11
44.58685852925081
 21
45.38300375215373
 31
0.0
 12
45.57685852925081
 22
45.54800375215373
 32
0.0
 13
45.57685852925081
 23
45.54800375215373
 33
0.0
  0
SOLID
  5
7F1B
330
48CE
100
AcDbEntity
  8
DIM
 62
     0
100
AcDbTrace
 10
39.27925244625912
 20
45.71300375215373
 30
0.0
 11
39.27925244625912
 21
45.38300375215373
 31
0.0
 12
38.28925244625912
 22
45.54800375215373
 32
0.0
 13
38.28925244625912
 23
45.54800375215373
 33
0.0
  0
MTEXT
  5
7F1C
330
48CE
100
AcDbEntity
  8
DIM
 62
     0
100
AcDbMText
 10
42.21380393697543
 20
45.54800375215373
 30
0.0
 40
0.6875
 41
0.0
 71
     5
 72
     1
  1
\A1;"D"
 73
     1
 44
1.0
  0
POINT
  5
7F1D
330
48CE
100
AcDbEntity
  8
Defpoints
 62
     0
100
AcDbPoint
 10
45.57685852925081
 20
45.20683601740862
 30
0.0
  0
POINT
  5
7F1E
330
48CE
100
AcDbEntity
  8
Defpoints
 62
     0
100
AcDbPoint
 10
38.28925244625912
 20
45.20683601740862
 30
0.0
  0
POINT
  5
7F1F
330
48CE
100
AcDbEntity
  8
Defpoints
 62
     0
100
AcDbPoint
 10
38.28925244625912
 20
45.54800375215373
 30
0.0
  0
ENDBLK
  5
48DA
330
48CE
100
AcDbEntity
  8
0
100
AcDbBlockEnd
  0
BLOCK
  5
48FB
330
48F0
100
AcDbEntity
  8
0
100
AcDbBlockBegin
  2
*D8
 70
     1
 10
0.0
 20
0.0
 30
0.0
  3
*D8
  1

  0
LINE
  5
7F5F
330
48F0
100
AcDbEntity
  8
DIM
 62
     0
370
    -2
100
AcDbLine
 10
45.65485855485452
 20
44.00327083513349
 30
0.0
 11
45.65485855485452
 21
43.73590454695116
 31
0.0
  0
LINE
  5
7F60
330
48F0
100
AcDbEntity
  8
DIM
 62
     0
370
    -2
100
AcDbLine
 10
46.03025223657275
 20
44.00327083513349
 30
0.0
 11
46.03025223657275
 21
43.73590454695116
 31
0.0
  0
LINE
  5
7F61
330
48F0
100
AcDbEntity
  8
DIM
 62
     0
370
    -2
100
AcDbLine
 10
44.66485855485452
 20
44.24740454695116
 30
0.0
 11
43.67485855485453
 21
44.24740454695116
 31
0.0
  0
LINE
  5
7F62
330
48F0
100
AcDbEntity
  8
DIM
 62
     0
370
    -2
100
AcDbLine
 10
47.02025223657275
 20
44.24740454695116
 30
0.0
 11
48.26806473657275
 21
44.24740454695116
 31
0.0
  0
SOLID
  5
7F63
330
48F0
100
AcDbEntity
  8
DIM
 62
     0
100
AcDbTrace
 10
44.66485855485452
 20
44.41240454695115
 30
0.0
 11
44.66485855485452
 21
44.08240454695116
 31
0.0
 12
45.65485855485452
 22
44.24740454695116
 32
0.0
 13
45.65485855485452
 23
44.24740454695116
 33
0.0
  0
SOLID
  5
7F64
330
48F0
100
AcDbEntity
  8
DIM
 62
     0
100
AcDbTrace
 10
47.02025223657275
 20
44.41240454695115
 30
0.0
 11
47.02025223657275
 21
44.08240454695116
 31
0.0
 12
46.03025223657275
 22
44.24740454695116
 32
0.0
 13
46.03025223657275
 23
44.24740454695116
 33
0.0
  0
MTEXT
  5
7F65
330
48F0
100
AcDbEntity
  8
DIM
 62
     0
100
AcDbMText
 10
50.69665848657275
 20
44.24740454695116
 30
0.0
 40
0.6875
 41
0.0
 71
     5
 72
     1
  1
\A1;0.38 [9.5]
 73
     1
 44
1.0
  0
POINT
  5
7F66
330
48F0
100
AcDbEntity
  8
Defpoints
 62
     0
100
AcDbPoint
 10
45.65485855485452
 20
44.34977083513349
 30
0.0
  0
POINT
  5
7F67
330
48F0
100
AcDbEntity
  8
Defpoints
 62
     0
100
AcDbPoint
 10
46.03025223657275
 20
44.34977083513349
 30
0.0
  0
POINT
  5
7F68
330
48F0
100
AcDbEntity
  8
Defpoints
 62
     0
100
AcDbPoint
 10
46.03025223657275
 20
44.24740454695116
 30
0.0
  0
ENDBLK
  5
48FC
330
48F0
100
AcDbEntity
  8
0
100
AcDbBlockEnd
  0
BLOCK
  5
4BC1
330
4BB6
100
AcDbEntity
  8
0
100
AcDbBlockBegin
  2
*D9
 70
     1
 10
0.0
 20
0.0
 30
0.0
  3
*D9
  1

  0
LINE
  5
7F69
330
4BB6
100
AcDbEntity
  8
DIM
 62
     0
370
    -2
100
AcDbLine
 10
38.91725249821561
 20
32.64423379431988
 30
0.0
 11
38.91725249821561
 21
31.03070657643492
 31
0.0
  0
LINE
  5
7F6A
330
4BB6
100
AcDbEntity
  8
DIM
 62
     0
370
    -2
100
AcDbLine
 10
38.22725246915481
 20
32.64423379431988
 30
0.0
 11
38.22725246915481
 21
31.03070657643492
 31
0.0
  0
LINE
  5
7F6B
330
4BB6
100
AcDbEntity
  8
DIM
 62
     0
370
    -2
100
AcDbLine
 10
39.90725249821561
 20
31.54220657643492
 30
0.0
 11
40.89725249821561
 21
31.54220657643492
 31
0.0
  0
LINE
  5
7F6C
330
4BB6
100
AcDbEntity
  8
DIM
 62
     0
370
    -2
100
AcDbLine
 10
37.23725246915481
 20
31.54220657643492
 30
0.0
 11
35.98943996915481
 21
31.54220657643492
 31
0.0
  0
SOLID
  5
7F6D
330
4BB6
100
AcDbEntity
  8
DIM
 62
     0
100
AcDbTrace
 10
39.90725249821561
 20
31.70720657643492
 30
0.0
 11
39.90725249821561
 21
31.37720657643492
 31
0.0
 12
38.91725249821561
 22
31.54220657643492
 32
0.0
 13
38.91725249821561
 23
31.54220657643492
 33
0.0
  0
SOLID
  5
7F6E
330
4BB6
100
AcDbEntity
  8
DIM
 62
     0
100
AcDbTrace
 10
37.23725246915481
 20
31.70720657643492
 30
0.0
 11
37.23725246915481
 21
31.37720657643492
 31
0.0
 12
38.22725246915481
 22
31.54220657643492
 32
0.0
 13
38.22725246915481
 23
31.54220657643492
 33
0.0
  0
MTEXT
  5
7F6F
330
4BB6
100
AcDbEntity
  8
DIM
 62
     0
100
AcDbMText
 10
33.38897121915481
 20
31.54220657643492
 30
0.0
 40
0.6875
 41
0.0
 71
     5
 72
     1
  1
\A1;0.69 [17.5]
 73
     1
 44
1.0
  0
POINT
  5
7F70
330
4BB6
100
AcDbEntity
  8
Defpoints
 62
     0
100
AcDbPoint
 10
38.91725249821561
 20
32.99073379431987
 30
0.0
  0
POINT
  5
7F71
330
4BB6
100
AcDbEntity
  8
Defpoints
 62
     0
100
AcDbPoint
 10
38.22725246915481
 20
32.99073379431987
 30
0.0
  0
POINT
  5
7F72
330
4BB6
100
AcDbEntity
  8
Defpoints
 62
     0
100
AcDbPoint
 10
38.22725246915481
 20
31.54220657643492
 30
0.0
  0
ENDBLK
  5
4BC2
330
4BB6
100
AcDbEntity
  8
0
100
AcDbBlockEnd
  0
BLOCK
  5
4BD9
330
4BCE
100
AcDbEntity
  8
0
100
AcDbBlockBegin
  2
*D10
 70
     1
 10
0.0
 20
0.0
 30
0.0
  3
*D10
  1

  0
LINE
  5
7F55
330
4BCE
100
AcDbEntity
  8
DIM
 62
     0
370
    -2
100
AcDbLine
 10
46.09225223659345
 20
48.93073355194392
 30
0.0
 11
46.09225223659345
 21
52.04578620540719
 31
0.0
  0
LINE
  5
7F56
330
4BCE
100
AcDbEntity
  8
DIM
 62
     0
370
    -2
100
AcDbLine
 10
46.54225223482174
 20
50.28943345612669
 30
0.0
 11
46.54225223482174
 21
52.04578620540719
 31
0.0
  0
LINE
  5
7F57
330
4BCE
100
AcDbEntity
  8
DIM
 62
     0
370
    -2
100
AcDbLine
 10
45.10225223659345
 20
51.5342862054072
 30
0.0
 11
44.11225223659346
 21
51.5342862054072
 31
0.0
  0
LINE
  5
7F58
330
4BCE
100
AcDbEntity
  8
DIM
 62
     0
370
    -2
100
AcDbLine
 10
47.53225223482174
 20
51.5342862054072
 30
0.0
 11
48.78006473482175
 21
51.5342862054072
 31
0.0
  0
SOLID
  5
7F59
330
4BCE
100
AcDbEntity
  8
DIM
 62
     0
100
AcDbTrace
 10
45.10225223659345
 20
51.69928620540719
 30
0.0
 11
45.10225223659345
 21
51.3692862054072
 31
0.0
 12
46.09225223659345
 22
51.5342862054072
 32
0.0
 13
46.09225223659345
 23
51.5342862054072
 33
0.0
  0
SOLID
  5
7F5A
330
4BCE
100
AcDbEntity
  8
DIM
 62
     0
100
AcDbTrace
 10
47.53225223482174
 20
51.69928620540719
 30
0.0
 11
47.53225223482174
 21
51.3692862054072
 31
0.0
 12
46.54225223482174
 22
51.5342862054072
 32
0.0
 13
46.54225223482174
 23
51.5342862054072
 33
0.0
  0
MTEXT
  5
7F5B
330
4BCE
100
AcDbEntity
  8
DIM
 62
     0
100
AcDbMText
 10
51.29459598482174
 20
51.5342862054072
 30
0.0
 40
0.6875
 41
0.0
 71
     5
 72
     1
  1
\A1;0.45 [11.4]
 73
     1
 44
1.0
  0
POINT
  5
7F5C
330
4BCE
100
AcDbEntity
  8
Defpoints
 62
     0
100
AcDbPoint
 10
46.09225223659345
 20
48.58423355194393
 30
0.0
  0
POINT
  5
7F5D
330
4BCE
100
AcDbEntity
  8
Defpoints
 62
     0
100
AcDbPoint
 10
46.54225223482174
 20
49.94293345612669
 30
0.0
  0
POINT
  5
7F5E
330
4BCE
100
AcDbEntity
  8
Defpoints
 62
     0
100
AcDbPoint
 10
46.54225223482174
 20
51.5342862054072
 30
0.0
  0
ENDBLK
  5
4BDA
330
4BCE
100
AcDbEntity
  8
0
100
AcDbBlockEnd
  0
BLOCK
  5
4CF6
330
4CEB
100
AcDbEntity
  8
0
100
AcDbBlockBegin
  2
*D11
 70
     1
 10
0.0
 20
0.0
 30
0.0
  3
*D11
  1

  0
LINE
  5
7F7D
330
4CEB
100
AcDbEntity
  8
DIM
 62
     0
370
    -2
100
AcDbLine
 10
22.42644783177041
 20
31.80503316935908
 30
0.0
 11
22.42644783177041
 21
29.63495064312239
 31
0.0
  0
LINE
  5
7F7E
330
4CEB
100
AcDbEntity
  8
DIM
 62
     0
370
    -2
100
AcDbLine
 10
8.135047831770403
 20
31.80503316935908
 30
0.0
 11
8.135047831770403
 21
29.63495064312239
 31
0.0
  0
LINE
  5
7F7F
330
4CEB
100
AcDbEntity
  8
DIM
 62
     0
370
    -2
100
AcDbLine
 10
21.43644783177041
 20
30.14645064312239
 30
0.0
 11
16.29137283177041
 21
30.14645064312239
 31
0.0
  0
LINE
  5
7F80
330
4CEB
100
AcDbEntity
  8
DIM
 62
     0
370
    -2
100
AcDbLine
 10
9.125047831770404
 20
30.14645064312239
 30
0.0
 11
14.27012283177041
 21
30.14645064312239
 31
0.0
  0
SOLID
  5
7F81
330
4CEB
100
AcDbEntity
  8
DIM
 62
     0
100
AcDbTrace
 10
21.43644783177041
 20
30.31145064312239
 30
0.0
 11
21.43644783177041
 21
29.98145064312239
 31
0.0
 12
22.42644783177041
 22
30.14645064312239
 32
0.0
 13
22.42644783177041
 23
30.14645064312239
 33
0.0
  0
SOLID
  5
7F82
330
4CEB
100
AcDbEntity
  8
DIM
 62
     0
100
AcDbTrace
 10
9.125047831770404
 20
30.31145064312239
 30
0.0
 11
9.125047831770404
 21
29.98145064312239
 31
0.0
 12
8.135047831770403
 22
30.14645064312239
 32
0.0
 13
8.135047831770403
 23
30.14645064312239
 33
0.0
  0
MTEXT
  5
7F83
330
4CEB
100
AcDbEntity
  8
DIM
 62
     0
100
AcDbMText
 10
15.28074783177041
 20
30.14645064312239
 30
0.0
 40
0.6875
 41
0.0
 71
     5
 72
     1
  1
\A1;"F"
 73
     1
 44
1.0
  0
POINT
  5
7F84
330
4CEB
100
AcDbEntity
  8
Defpoints
 62
     0
100
AcDbPoint
 10
22.42644783177041
 20
32.15153316935908
 30
0.0
  0
POINT
  5
7F85
330
4CEB
100
AcDbEntity
  8
Defpoints
 62
     0
100
AcDbPoint
 10
8.135047831770403
 20
32.15153316935908
 30
0.0
  0
POINT
  5
7F86
330
4CEB
100
AcDbEntity
  8
Defpoints
 62
     0
100
AcDbPoint
 10
8.135047831770403
 20
30.14645064312239
 30
0.0
  0
ENDBLK
  5
4CF7
330
4CEB
100
AcDbEntity
  8
0
100
AcDbBlockEnd
  0
BLOCK
  5
4D04
330
4CF9
100
AcDbEntity
  8
0
100
AcDbBlockBegin
  2
*D12
 70
     1
 10
0.0
 20
0.0
 30
0.0
  3
*D12
  1

  0
LINE
  5
7F73
330
4CF9
100
AcDbEntity
  8
DIM
 62
     0
370
    -2
100
AcDbLine
 10
22.991447733798
 20
49.29793317389166
 30
0.0
 11
29.16222976165106
 21
49.29793317389166
 31
0.0
  0
LINE
  5
7F74
330
4CF9
100
AcDbEntity
  8
DIM
 62
     0
370
    -2
100
AcDbLine
 10
22.991447733798
 20
32.27653316482649
 30
0.0
 11
29.16222976165106
 21
32.27653316482649
 31
0.0
  0
LINE
  5
7F75
330
4CF9
100
AcDbEntity
  8
DIM
 62
     0
370
    -2
100
AcDbLine
 10
28.65072976165107
 20
48.30793317389166
 30
0.0
 11
28.65072976165107
 21
41.62598316935907
 31
0.0
  0
LINE
  5
7F76
330
4CF9
100
AcDbEntity
  8
DIM
 62
     0
370
    -2
100
AcDbLine
 10
28.65072976165106
 20
33.26653316482649
 30
0.0
 11
28.65072976165106
 21
39.94848316935907
 31
0.0
  0
SOLID
  5
7F77
330
4CF9
100
AcDbEntity
  8
DIM
 62
     0
100
AcDbTrace
 10
28.48572976165106
 20
48.30793317389166
 30
0.0
 11
28.81572976165106
 21
48.30793317389166
 31
0.0
 12
28.65072976165107
 22
49.29793317389166
 32
0.0
 13
28.65072976165107
 23
49.29793317389166
 33
0.0
  0
SOLID
  5
7F78
330
4CF9
100
AcDbEntity
  8
DIM
 62
     0
100
AcDbTrace
 10
28.48572976165106
 20
33.26653316482649
 30
0.0
 11
28.81572976165106
 21
33.26653316482649
 31
0.0
 12
28.65072976165106
 22
32.27653316482649
 32
0.0
 13
28.65072976165106
 23
32.27653316482649
 33
0.0
  0
MTEXT
  5
7F79
330
4CF9
100
AcDbEntity
  8
DIM
 62
     0
100
AcDbMText
 10
28.65072976165106
 20
40.78723316935908
 30
0.0
 40
0.6875
 41
0.0
 71
     5
 72
     1
  1
\A1;"E"
 73
     1
 44
1.0
  0
POINT
  5
7F7A
330
4CF9
100
AcDbEntity
  8
Defpoints
 62
     0
100
AcDbPoint
 10
22.644947733798
 20
49.29793317389166
 30
0.0
  0
POINT
  5
7F7B
330
4CF9
100
AcDbEntity
  8
Defpoints
 62
     0
100
AcDbPoint
 10
22.644947733798
 20
32.27653316482649
 30
0.0
  0
POINT
  5
7F7C
330
4CF9
100
AcDbEntity
  8
Defpoints
 62
     0
100
AcDbPoint
 10
28.65072976165106
 20
32.27653316482649
 30
0.0
  0
ENDBLK
  5
4D05
330
4CF9
100
AcDbEntity
  8
0
100
AcDbBlockEnd
  0
BLOCK
  5
4D7C
330
4D71
100
AcDbEntity
  8
0
100
AcDbBlockBegin
  2
*D13
 70
     1
 10
0.0
 20
0.0
 30
0.0
  3
*D13
  1

  0
LINE
  5
7F91
330
4D71
100
AcDbEntity
  8
DIM
 62
     0
370
    -2
100
AcDbLine
 10
85.897029516694
 20
48.13739795518205
 30
0.0
 11
85.897029516694
 21
51.02576237666918
 31
0.0
  0
LINE
  5
7F92
330
4D71
100
AcDbEntity
  8
DIM
 62
     0
370
    -2
100
AcDbLine
 10
71.74102966022577
 20
48.13739795518205
 30
0.0
 11
71.74102966022577
 21
51.02576237666918
 31
0.0
  0
LINE
  5
7F93
330
4D71
100
AcDbEntity
  8
DIM
 62
     0
370
    -2
100
AcDbLine
 10
84.90702951669401
 20
50.51426237666918
 30
0.0
 11
82.17329386484962
 21
50.51426237666918
 31
0.0
  0
LINE
  5
7F94
330
4D71
100
AcDbEntity
  8
DIM
 62
     0
370
    -2
100
AcDbLine
 10
72.73102966022576
 20
50.51426237666918
 30
0.0
 11
76.19891886484961
 21
50.51426237666918
 31
0.0
  0
SOLID
  5
7F95
330
4D71
100
AcDbEntity
  8
DIM
 62
     0
100
AcDbTrace
 10
84.90702951669401
 20
50.67926237666918
 30
0.0
 11
84.90702951669401
 21
50.34926237666918
 31
0.0
 12
85.897029516694
 22
50.51426237666918
 32
0.0
 13
85.897029516694
 23
50.51426237666918
 33
0.0
  0
SOLID
  5
7F96
330
4D71
100
AcDbEntity
  8
DIM
 62
     0
100
AcDbTrace
 10
72.73102966022576
 20
50.67926237666918
 30
0.0
 11
72.73102966022576
 21
50.34926237666918
 31
0.0
 12
71.74102966022577
 22
50.51426237666918
 32
0.0
 13
71.74102966022577
 23
50.51426237666918
 33
0.0
  0
MTEXT
  5
7F97
330
4D71
100
AcDbEntity
  8
DIM
 62
     0
100
AcDbMText
 10
79.18610636484962
 20
50.51426237666918
 30
0.0
 40
0.6875
 41
0.0
 71
     5
 72
     1
  1
\A1;"H" OPENING
 73
     1
 44
1.0
  0
POINT
  5
7F98
330
4D71
100
AcDbEntity
  8
Defpoints
 62
     0
100
AcDbPoint
 10
85.897029516694
 20
47.79089795518205
 30
0.0
  0
POINT
  5
7F99
330
4D71
100
AcDbEntity
  8
Defpoints
 62
     0
100
AcDbPoint
 10
71.74102966022577
 20
47.79089795518205
 30
0.0
  0
POINT
  5
7F9A
330
4D71
100
AcDbEntity
  8
Defpoints
 62
     0
100
AcDbPoint
 10
71.74102966022577
 20
50.51426237666918
 30
0.0
  0
ENDBLK
  5
4D7D
330
4D71
100
AcDbEntity
  8
0
100
AcDbBlockEnd
  0
BLOCK
  5
4DE4
330
4DD9
100
AcDbEntity
  8
0
100
AcDbBlockBegin
  2
*D14
 70
     1
 10
0.0
 20
0.0
 30
0.0
  3
*D14
  1

  0
LINE
  5
7F9B
330
4DD9
100
AcDbEntity
  8
DIM
 62
     0
370
    -2
100
AcDbLine
 10
71.39452966022576
 20
33.64246881064562
 30
0.0
 11
68.25786900974204
 21
33.64246881064562
 31
0.0
  0
LINE
  5
7F9C
330
4DD9
100
AcDbEntity
  8
DIM
 62
     0
370
    -2
100
AcDbLine
 10
71.39452966022576
 20
47.78382694353365
 30
0.0
 11
68.25786900974204
 21
47.78382694353365
 31
0.0
  0
LINE
  5
7F9D
330
4DD9
100
AcDbEntity
  8
DIM
 62
     0
370
    -2
100
AcDbLine
 10
68.76936900974204
 20
34.63246881064562
 30
0.0
 11
68.76936900974204
 21
39.30148121042297
 31
0.0
  0
LINE
  5
7F9E
330
4DD9
100
AcDbEntity
  8
DIM
 62
     0
370
    -2
100
AcDbLine
 10
68.76936900974204
 20
46.79382694353365
 30
0.0
 11
68.76936900974204
 21
42.1248145437563
 31
0.0
  0
SOLID
  5
7F9F
330
4DD9
100
AcDbEntity
  8
DIM
 62
     0
100
AcDbTrace
 10
68.60436900974203
 20
34.63246881064562
 30
0.0
 11
68.93436900974204
 21
34.63246881064562
 31
0.0
 12
68.76936900974204
 22
33.64246881064562
 32
0.0
 13
68.76936900974204
 23
33.64246881064562
 33
0.0
  0
SOLID
  5
7FA0
330
4DD9
100
AcDbEntity
  8
DIM
 62
     0
100
AcDbTrace
 10
68.60436900974203
 20
46.79382694353365
 30
0.0
 11
68.93436900974204
 21
46.79382694353365
 31
0.0
 12
68.76936900974204
 22
47.78382694353365
 32
0.0
 13
68.76936900974204
 23
47.78382694353365
 33
0.0
  0
MTEXT
  5
7FA1
330
4DD9
100
AcDbEntity
  8
DIM
 62
     0
100
AcDbMText
 10
68.76936900974202
 20
40.71314787708964
 30
0.0
 40
0.6875
 41
0.0
 71
     5
 72
     1
  1
\A1;"G"\POPENING
 73
     1
 44
1.0
  0
POINT
  5
7FA2
330
4DD9
100
AcDbEntity
  8
Defpoints
 62
     0
100
AcDbPoint
 10
71.74102966022577
 20
33.64246881064562
 30
0.0
  0
POINT
  5
7FA3
330
4DD9
100
AcDbEntity
  8
Defpoints
 62
     0
100
AcDbPoint
 10
71.74102966022577
 20
47.78382694353365
 30
0.0
  0
POINT
  5
7FA4
330
4DD9
100
AcDbEntity
  8
Defpoints
 62
     0
100
AcDbPoint
 10
68.76936900974204
 20
47.78382694353365
 30
0.0
  0
ENDBLK
  5
4DE5
330
4DD9
100
AcDbEntity
  8
0
100
AcDbBlockEnd
  0
BLOCK
  5
4DFC
330
4DF1
100
AcDbEntity
  8
0
100
AcDbBlockBegin
  2
*D15
 70
     1
 10
0.0
 20
0.0
 30
0.0
  3
*D15
  1

  0
LINE
  5
7E75
330
4DF1
100
AcDbEntity
  8
DIM
 62
     0
370
    -2
100
AcDbLine
 10
85.70877945137482
 20
33.95084785876032
 30
0.0
 11
85.70877945137482
 21
30.69189180230132
 31
0.0
  0
LINE
  5
7E76
330
4DF1
100
AcDbEntity
  8
DIM
 62
     0
370
    -2
100
AcDbLine
 10
71.92927972554494
 20
33.95084785876032
 30
0.0
 11
71.92927972554494
 21
30.69189180230132
 31
0.0
  0
LINE
  5
7E77
330
4DF1
100
AcDbEntity
  8
DIM
 62
     0
370
    -2
100
AcDbLine
 10
84.71877945137483
 20
31.20339180230132
 30
0.0
 11
81.40739259712105
 21
31.20339180230132
 31
0.0
  0
LINE
  5
7E78
330
4DF1
100
AcDbEntity
  8
DIM
 62
     0
370
    -2
100
AcDbLine
 10
72.91927972554494
 20
31.20339180230132
 30
0.0
 11
76.29239259712105
 21
31.20339180230132
 31
0.0
  0
SOLID
  5
7E79
330
4DF1
100
AcDbEntity
  8
DIM
 62
     0
100
AcDbTrace
 10
84.71877945137483
 20
31.36839180230132
 30
0.0
 11
84.71877945137483
 21
31.03839180230132
 31
0.0
 12
85.70877945137482
 22
31.20339180230132
 32
0.0
 13
85.70877945137482
 23
31.20339180230132
 33
0.0
  0
SOLID
  5
7E7A
330
4DF1
100
AcDbEntity
  8
DIM
 62
     0
100
AcDbTrace
 10
72.91927972554494
 20
31.36839180230132
 30
0.0
 11
72.91927972554494
 21
31.03839180230132
 31
0.0
 12
71.92927972554494
 22
31.20339180230132
 32
0.0
 13
71.92927972554494
 23
31.20339180230132
 33
0.0
  0
MTEXT
  5
7E7B
330
4DF1
100
AcDbEntity
  8
DIM
 62
     0
100
AcDbMText
 10
78.84989259712106
 20
31.20339180230132
 30
0.0
 40
0.6875
 41
0.0
 71
     5
 72
     1
  1
\A1;"M" PANEL
 73
     1
 44
1.0
  0
POINT
  5
7E7C
330
4DF1
100
AcDbEntity
  8
Defpoints
 62
     0
100
AcDbPoint
 10
85.70877945137482
 20
34.29734785876032
 30
0.0
  0
POINT
  5
7E7D
330
4DF1
100
AcDbEntity
  8
Defpoints
 62
     0
100
AcDbPoint
 10
71.92927972554494
 20
34.29734785876032
 30
0.0
  0
POINT
  5
7E7E
330
4DF1
100
AcDbEntity
  8
Defpoints
 62
     0
100
AcDbPoint
 10
71.92927972554494
 20
31.20339180230132
 30
0.0
  0
ENDBLK
  5
4DFD
330
4DF1
100
AcDbEntity
  8
0
100
AcDbBlockEnd
  0
BLOCK
  5
4E21
330
4E16
100
AcDbEntity
  8
0
100
AcDbBlockBegin
  2
*D16
 70
     1
 10
0.0
 20
0.0
 30
0.0
  3
*D16
  1

  0
LINE
  5
7FA5
330
4E16
100
AcDbEntity
  8
DIM
 62
     0
370
    -2
100
AcDbLine
 10
84.73094390876964
 20
47.97228363457492
 30
0.0
 11
89.47230563767531
 21
47.97228363457492
 31
0.0
  0
LINE
  5
7FA6
330
4E16
100
AcDbEntity
  8
DIM
 62
     0
370
    -2
100
AcDbLine
 10
84.73094390876982
 20
33.45401211960435
 30
0.0
 11
89.47230563767531
 21
33.45401211960435
 31
0.0
  0
LINE
  5
7FA7
330
4E16
100
AcDbEntity
  8
DIM
 62
     0
370
    -2
100
AcDbLine
 10
88.96080563767531
 20
46.98228363457491
 30
0.0
 11
88.96080563767531
 21
42.35473181154381
 31
0.0
  0
LINE
  5
7FA8
330
4E16
100
AcDbEntity
  8
DIM
 62
     0
370
    -2
100
AcDbLine
 10
88.96080563767531
 20
34.44401211960435
 30
0.0
 11
88.96080563767531
 21
39.53139847821047
 31
0.0
  0
SOLID
  5
7FA9
330
4E16
100
AcDbEntity
  8
DIM
 62
     0
100
AcDbTrace
 10
88.79580563767531
 20
46.98228363457491
 30
0.0
 11
89.12580563767532
 21
46.98228363457491
 31
0.0
 12
88.96080563767531
 22
47.97228363457492
 32
0.0
 13
88.96080563767531
 23
47.97228363457492
 33
0.0
  0
SOLID
  5
7FAA
330
4E16
100
AcDbEntity
  8
DIM
 62
     0
100
AcDbTrace
 10
88.79580563767531
 20
34.44401211960435
 30
0.0
 11
89.12580563767532
 21
34.44401211960435
 31
0.0
 12
88.96080563767531
 22
33.45401211960435
 32
0.0
 13
88.96080563767531
 23
33.45401211960435
 33
0.0
  0
MTEXT
  5
7FAB
330
4E16
100
AcDbEntity
  8
DIM
 62
     0
100
AcDbMText
 10
88.96080563767529
 20
40.94306514487715
 30
0.0
 40
0.6875
 41
0.0
 71
     5
 72
     1
  1
\A1;"L"\PPANEL
 73
     1
 44
1.0
  0
POINT
  5
7FAC
330
4E16
100
AcDbEntity
  8
Defpoints
 62
     0
100
AcDbPoint
 10
84.38444390876965
 20
47.97228363457492
 30
0.0
  0
POINT
  5
7FAD
330
4E16
100
AcDbEntity
  8
Defpoints
 62
     0
100
AcDbPoint
 10
84.38444390876981
 20
33.45401211960435
 30
0.0
  0
POINT
  5
7FAE
330
4E16
100
AcDbEntity
  8
Defpoints
 62
     0
100
AcDbPoint
 10
88.96080563767531
 20
33.45401211960435
 30
0.0
  0
ENDBLK
  5
4E22
330
4E16
100
AcDbEntity
  8
0
100
AcDbBlockEnd
  0
BLOCK
  5
4EF4
330
4EE9
100
AcDbEntity
  8
0
100
AcDbBlockBegin
  2
*D17
 70
     1
 10
0.0
 20
0.0
 30
0.0
  3
*D17
  1

  0
LINE
  5
7F87
330
4EE9
100
AcDbEntity
  8
DIM
 62
     0
370
    -2
100
AcDbLine
 10
21.68674781899722
 20
35.32473316935908
 30
0.0
 11
21.68674781899722
 21
37.85478135281347
 31
0.0
  0
LINE
  5
7F88
330
4EE9
100
AcDbEntity
  8
DIM
 62
     0
370
    -2
100
AcDbLine
 10
23.15474784454363
 20
38.11983297720616
 30
0.0
 11
23.15474784454363
 21
36.83178135281348
 31
0.0
  0
LINE
  5
7F89
330
4EE9
100
AcDbEntity
  8
DIM
 62
     0
370
    -2
100
AcDbLine
 10
24.14474784454363
 20
37.34328135281347
 30
0.0
 11
25.13474784454363
 21
37.34328135281347
 31
0.0
  0
LINE
  5
7F8A
330
4EE9
100
AcDbEntity
  8
DIM
 62
     0
370
    -2
100
AcDbLine
 10
20.69674781899722
 20
37.34328135281347
 30
0.0
 11
19.44893531899722
 21
37.34328135281347
 31
0.0
  0
SOLID
  5
7F8B
330
4EE9
100
AcDbEntity
  8
DIM
 62
     0
100
AcDbTrace
 10
24.14474784454363
 20
37.50828135281347
 30
0.0
 11
24.14474784454363
 21
37.17828135281347
 31
0.0
 12
23.15474784454363
 22
37.34328135281347
 32
0.0
 13
23.15474784454363
 23
37.34328135281347
 33
0.0
  0
SOLID
  5
7F8C
330
4EE9
100
AcDbEntity
  8
DIM
 62
     0
100
AcDbTrace
 10
20.69674781899722
 20
37.50828135281347
 30
0.0
 11
20.69674781899722
 21
37.17828135281347
 31
0.0
 12
21.68674781899722
 22
37.34328135281347
 32
0.0
 13
21.68674781899722
 23
37.34328135281347
 33
0.0
  0
MTEXT
  5
7F8D
330
4EE9
100
AcDbEntity
  8
DIM
 62
     0
100
AcDbMText
 10
16.80549781899721
 20
37.34328135281347
 30
0.0
 40
0.6875
 41
0.0
 71
     5
 72
     1
  1
\A1;1.47 [37.3]
 73
     1
 44
1.0
  0
POINT
  5
7F8E
330
4EE9
100
AcDbEntity
  8
Defpoints
 62
     0
100
AcDbPoint
 10
21.68674781899722
 20
34.97823316935908
 30
0.0
  0
POINT
  5
7F8F
330
4EE9
100
AcDbEntity
  8
Defpoints
 62
     0
100
AcDbPoint
 10
23.15474784454363
 20
38.46633297720616
 30
0.0
  0
POINT
  5
7F90
330
4EE9
100
AcDbEntity
  8
Defpoints
 62
     0
100
AcDbPoint
 10
23.15474784454363
 20
37.34328135281347
 30
0.0
  0
ENDBLK
  5
4EF5
330
4EE9
100
AcDbEntity
  8
0
100
AcDbBlockEnd
  0
BLOCK
  5
673B
330
6724
100
AcDbEntity
  8
0
100
AcDbBlockBegin
  2
HBS
 70
     0
 10
0.0
 20
0.0
 30
0.0
  3
HBS
  1

  0
LINE
  5
6725
330
6724
100
AcDbEntity
  8
TITLE
100
AcDbLine
 10
0.0620000000000118
 20
10.266
 30
0.0
 11
16.53800000000001
 21
10.266
 31
0.0
  0
LINE
  5
6726
330
6724
100
AcDbEntity
  8
TITLE
100
AcDbLine
 10
16.53800000000001
 20
0.0620000000000012
 30
0.0
 11
0.0620000000000118
 21
0.0620000000000012
 31
0.0
  0
LINE
  5
6727
330
6724
100
AcDbEntity
  8
TITLE
100
AcDbLine
 10
0.0
 20
10.32799999999999
 30
0.0
 11
16.59999999999999
 21
10.32799999999999
 31
0.0
  0
LINE
  5
6728
330
6724
100
AcDbEntity
  8
TITLE
100
AcDbLine
 10
16.59999999999999
 20
0.0
 30
0.0
 11
0.0
 21
0.0
 31
0.0
  0
LINE
  5
6729
330
6724
100
AcDbEntity
  8
TITLE
100
AcDbLine
 10
0.0620000000000118
 20
9.848000000000002
 30
0.0
 11
16.53800000000001
 21
9.848000000000006
 31
0.0
  0
LINE
  5
672A
330
6724
100
AcDbEntity
  8
TITLE
100
AcDbLine
 10
0.0620000000000118
 20
0.0620000000000012
 30
0.0
 11
0.0620000000000118
 21
10.266
 31
0.0
  0
LINE
  5
672B
330
6724
100
AcDbEntity
  8
TITLE
100
AcDbLine
 10
0.0
 20
0.0
 30
0.0
 11
0.0
 21
10.32799999999999
 31
0.0
  0
TEXT
  5
672C
330
6724
100
AcDbEntity
  8
TEXT
100
AcDbText
 10
0.2078333333333452
 20
9.888079195640081
 30
0.0
 40
0.125
  1
NAME
 72
     1
 11
0.4370000000000119
 21
9.888079195640081
 31
0.0
100
AcDbText
  0
TEXT
  5
672D
330
6724
100
AcDbEntity
  8
TEXT
100
AcDbText
 10
0.2078333333333452
 20
10.09641252897341
 30
0.0
 40
0.125
  1
PART
 72
     1
 11
0.4370000000000119
 21
10.09641252897341
 31
0.0
100
AcDbText
  0
LINE
  5
672E
330
6724
100
AcDbEntity
  8
TITLE
100
AcDbLine
 10
0.8120000000000118
 20
9.848000000000002
 30
0.0
 11
0.8120000000000118
 21
10.266
 31
0.0
  0
LINE
  5
672F
330
6724
100
AcDbEntity
  8
TITLE
100
AcDbLine
 10
7.0
 20
10.266
 30
0.0
 11
7.0
 21
9.848000000000002
 31
0.0
  0
LINE
  5
6730
330
6724
100
AcDbEntity
  8
TITLE
100
AcDbLine
 10
7.062000000000011
 20
10.266
 30
0.0
 11
7.062000000000011
 21
9.848000000000002
 31
0.0
  0
LINE
  5
6731
330
6724
100
AcDbEntity
  8
TITLE
100
AcDbLine
 10
7.812000000000011
 20
10.266
 30
0.0
 11
7.812000000000011
 21
9.848000000000002
 31
0.0
  0
TEXT
  5
6732
330
6724
100
AcDbEntity
  8
TEXT
100
AcDbText
 10
7.312000000000011
 20
9.888079195640081
 30
0.0
 40
0.125
  1
No.
 72
     1
 11
7.437000000000011
 21
9.888079195640081
 31
0.0
100
AcDbText
  0
TEXT
  5
6733
330
6724
100
AcDbEntity
  8
TEXT
100
AcDbText
 10
7.207833333333344
 20
10.09641252897341
 30
0.0
 40
0.125
  1
PART
 72
     1
 11
7.437000000000011
 21
10.09641252897341
 31
0.0
100
AcDbText
  0
LINE
  5
6734
330
6724
100
AcDbEntity
  8
TITLE
100
AcDbLine
 10
16.53800000000001
 20
10.266
 30
0.0
 11
16.53800000000001
 21
0.0620000000000012
 31
0.0
  0
LINE
  5
6735
330
6724
100
AcDbEntity
  8
TITLE
100
AcDbLine
 10
16.59999999999999
 20
10.32799999999999
 30
0.0
 11
16.59999999999999
 21
0.0
 31
0.0
  0
TEXT
  5
6736
330
6724
100
AcDbEntity
  8
TEXT
100
AcDbText
 10
14.22865779971668
 20
10.09641252897341
 30
0.0
 40
0.125
  1
REV.
 72
     1
 11
14.43699113305001
 21
10.09641252897341
 31
0.0
100
AcDbText
  0
TEXT
  5
6737
330
6724
100
AcDbEntity
  8
TEXT
100
AcDbText
 10
14.20782446638335
 20
9.888079195640081
 30
0.0
 40
0.125
  1
DATE
 72
     1
 11
14.43699113305001
 21
9.888079195640081
 31
0.0
100
AcDbText
  0
LINE
  5
6738
330
6724
100
AcDbEntity
  8
TITLE
100
AcDbLine
 10
14.06199113305001
 20
10.266
 30
0.0
 11
14.06199113305001
 21
9.848000000000002
 31
0.0
  0
LINE
  5
6739
330
6724
100
AcDbEntity
  8
TITLE
100
AcDbLine
 10
14.81199113305001
 20
10.266
 30
0.0
 11
14.81199113305001
 21
9.848000000000002
 31
0.0
  0
LINE
  5
673A
330
6724
100
AcDbEntity
  8
TITLE
100
AcDbLine
 10
13.99999113305
 20
10.266
 30
0.0
 11
13.99999113305
 21
9.848000000000002
 31
0.0
  0
ENDBLK
  5
673C
330
6724
100
AcDbEntity
  8
0
100
AcDbBlockEnd
  0
BLOCK
  5
6DF3
330
6DE8
100
AcDbEntity
  8
0
100
AcDbBlockBegin
  2
*D19
 70
     1
 10
0.0
 20
0.0
 30
0.0
  3
*D19
  1

  0
LINE
  5
7FD8
330
6DE8
100
AcDbEntity
  8
DIM
 62
     0
370
    -2
100
AcDbLine
 10
22.03324781899724
 20
46.59423316935907
 30
0.0
 11
26.24566658100823
 21
46.59423316935907
 31
0.0
  0
LINE
  5
7FD9
330
6DE8
100
AcDbEntity
  8
DIM
 62
     0
370
    -2
100
AcDbLine
 10
22.03324781899721
 20
34.97823316935908
 30
0.0
 11
26.24566658100823
 21
34.97823316935908
 31
0.0
  0
LINE
  5
7FDA
330
6DE8
100
AcDbEntity
  8
DIM
 62
     0
370
    -2
100
AcDbLine
 10
25.73416658100823
 20
45.60423316935906
 30
0.0
 11
25.73416658100823
 21
41.73062844348961
 31
0.0
  0
LINE
  5
7FDB
330
6DE8
100
AcDbEntity
  8
DIM
 62
     0
370
    -2
100
AcDbLine
 10
25.73416658100823
 20
35.96823316935909
 30
0.0
 11
25.73416658100823
 21
40.05312844348961
 31
0.0
  0
SOLID
  5
7FDC
330
6DE8
100
AcDbEntity
  8
DIM
 62
     0
100
AcDbTrace
 10
25.56916658100823
 20
45.60423316935906
 30
0.0
 11
25.89916658100823
 21
45.60423316935906
 31
0.0
 12
25.73416658100823
 22
46.59423316935907
 32
0.0
 13
25.73416658100823
 23
46.59423316935907
 33
0.0
  0
SOLID
  5
7FDD
330
6DE8
100
AcDbEntity
  8
DIM
 62
     0
100
AcDbTrace
 10
25.56916658100822
 20
35.96823316935909
 30
0.0
 11
25.89916658100822
 21
35.96823316935909
 31
0.0
 12
25.73416658100823
 22
34.97823316935908
 32
0.0
 13
25.73416658100823
 23
34.97823316935908
 33
0.0
  0
MTEXT
  5
7FDE
330
6DE8
100
AcDbEntity
  8
DIM
 62
     0
100
AcDbMText
 10
25.73416658100822
 20
40.89187844348962
 30
0.0
 40
0.6875
 41
0.0
 71
     5
 72
     1
  1
\A1;"N"
 73
     1
 44
1.0
  0
POINT
  5
7FDF
330
6DE8
100
AcDbEntity
  8
Defpoints
 62
     0
100
AcDbPoint
 10
21.68674781899724
 20
46.59423316935907
 30
0.0
  0
POINT
  5
7FE0
330
6DE8
100
AcDbEntity
  8
Defpoints
 62
     0
100
AcDbPoint
 10
21.68674781899722
 20
34.97823316935908
 30
0.0
  0
POINT
  5
7FE1
330
6DE8
100
AcDbEntity
  8
Defpoints
 62
     0
100
AcDbPoint
 10
25.73416658100823
 20
34.97823316935908
 30
0.0
  0
ENDBLK
  5
6DF4
330
6DE8
100
AcDbEntity
  8
0
100
AcDbBlockEnd
  0
BLOCK
  5
6E23
330
6E17
100
AcDbEntity
  8
0
100
AcDbBlockBegin
  2
*D20
 70
     1
 10
0.0
 20
0.0
 30
0.0
  3
*D20
  1

  0
LINE
  5
7FC3
330
6E17
100
AcDbEntity
  8
DIM
 62
     0
370
    -2
100
AcDbLine
 10
9.565247831770486
 20
46.84898301311417
 30
0.0
 11
11.97765345631081
 21
46.84898301311417
 31
0.0
  0
LINE
  5
7FC4
330
6E17
100
AcDbEntity
  8
DIM
 62
     0
370
    -2
100
AcDbLine
 10
11.2392481570966
 20
48.59898303866064
 30
0.0
 11
11.97765345631081
 21
48.59898303866064
 31
0.0
  0
LINE
  5
7FC5
330
6E17
100
AcDbEntity
  8
DIM
 62
     0
370
    -2
100
AcDbLine
 10
11.46615345631081
 20
45.85898301311416
 30
0.0
 11
11.46615345631081
 21
44.86898301311417
 31
0.0
  0
LINE
  5
7FC6
330
6E17
100
AcDbEntity
  8
DIM
 62
     0
370
    -2
100
AcDbLine
 10
11.46615345631081
 20
49.58898303866064
 30
0.0
 11
11.46615345631081
 21
50.57898303866064
 31
0.0
  0
LINE
  5
7FC7
330
6E17
100
AcDbEntity
  8
DIM
 62
     0
370
    -2
100
AcDbLine
 10
11.46615345631081
 20
50.57898303866064
 30
0.0
 11
12.45615345631081
 21
50.57898303866064
 31
0.0
  0
SOLID
  5
7FC8
330
6E17
100
AcDbEntity
  8
DIM
 62
     0
100
AcDbTrace
 10
11.30115345631081
 20
45.85898301311416
 30
0.0
 11
11.63115345631081
 21
45.85898301311416
 31
0.0
 12
11.46615345631081
 22
46.84898301311417
 32
0.0
 13
11.46615345631081
 23
46.84898301311417
 33
0.0
  0
SOLID
  5
7FC9
330
6E17
100
AcDbEntity
  8
DIM
 62
     0
100
AcDbTrace
 10
11.30115345631081
 20
49.58898303866064
 30
0.0
 11
11.63115345631081
 21
49.58898303866064
 31
0.0
 12
11.46615345631081
 22
48.59898303866064
 32
0.0
 13
11.46615345631081
 23
48.59898303866064
 33
0.0
  0
MTEXT
  5
7FCA
330
6E17
100
AcDbEntity
  8
DIM
 62
     0
100
AcDbMText
 10
15.0995909563108
 20
50.57898303866064
 30
0.0
 40
0.6875
 41
0.0
 71
     5
 72
     1
  1
\A1;1.75 [44.5]\PINSIDE
 73
     1
 44
1.0
  0
POINT
  5
7FCB
330
6E17
100
AcDbEntity
  8
Defpoints
 62
     0
100
AcDbPoint
 10
9.218747831770485
 20
46.84898301311417
 30
0.0
  0
POINT
  5
7FCC
330
6E17
100
AcDbEntity
  8
Defpoints
 62
     0
100
AcDbPoint
 10
10.8927481570966
 20
48.59898303866064
 30
0.0
  0
POINT
  5
7FCD
330
6E17
100
AcDbEntity
  8
Defpoints
 62
     0
100
AcDbPoint
 10
11.46615345631081
 20
48.59898303866064
 30
0.0
  0
ENDBLK
  5
6E24
330
6E17
100
AcDbEntity
  8
0
100
AcDbBlockEnd
  0
BLOCK
  5
6E30
330
6E25
100
AcDbEntity
  8
0
100
AcDbBlockBegin
  2
*D21
 70
     1
 10
0.0
 20
0.0
 30
0.0
  3
*D21
  1

  0
LINE
  5
7FCE
330
6E25
100
AcDbEntity
  8
DIM
 62
     0
370
    -2
100
AcDbLine
 10
9.218747831770485
 20
46.50248301311417
 30
0.0
 11
9.218747831770485
 21
43.88638134026503
 31
0.0
  0
LINE
  5
7FCF
330
6E25
100
AcDbEntity
  8
DIM
 62
     0
370
    -2
100
AcDbLine
 10
7.46874778332824
 20
44.24771843196089
 30
0.0
 11
7.46874778332824
 21
43.88638134026503
 31
0.0
  0
LINE
  5
7FD0
330
6E25
100
AcDbEntity
  8
DIM
 62
     0
370
    -2
100
AcDbLine
 10
6.478747783328239
 20
44.39788134026502
 30
0.0
 11
5.488747783328239
 21
44.39788134026502
 31
0.0
  0
LINE
  5
7FD1
330
6E25
100
AcDbEntity
  8
DIM
 62
     0
370
    -2
100
AcDbLine
 10
10.20874783177048
 20
44.39788134026502
 30
0.0
 11
11.45656033177048
 21
44.39788134026502
 31
0.0
  0
SOLID
  5
7FD2
330
6E25
100
AcDbEntity
  8
DIM
 62
     0
100
AcDbTrace
 10
6.478747783328239
 20
44.56288134026503
 30
0.0
 11
6.478747783328239
 21
44.23288134026503
 31
0.0
 12
7.46874778332824
 22
44.39788134026502
 32
0.0
 13
7.46874778332824
 23
44.39788134026502
 33
0.0
  0
SOLID
  5
7FD3
330
6E25
100
AcDbEntity
  8
DIM
 62
     0
100
AcDbTrace
 10
10.20874783177048
 20
44.56288134026503
 30
0.0
 11
10.20874783177048
 21
44.23288134026503
 31
0.0
 12
9.218747831770485
 22
44.39788134026502
 32
0.0
 13
9.218747831770485
 23
44.39788134026502
 33
0.0
  0
MTEXT
  5
7FD4
330
6E25
100
AcDbEntity
  8
DIM
 62
     0
100
AcDbMText
 10
14.09999783177048
 20
44.39788134026502
 30
0.0
 40
0.6875
 41
0.0
 71
     5
 72
     1
  1
\A1;1.75 [44.5]\PINSIDE
 73
     1
 44
1.0
  0
POINT
  5
7FD5
330
6E25
100
AcDbEntity
  8
Defpoints
 62
     0
100
AcDbPoint
 10
9.218747831770485
 20
46.84898301311417
 30
0.0
  0
POINT
  5
7FD6
330
6E25
100
AcDbEntity
  8
Defpoints
 62
     0
100
AcDbPoint
 10
7.46874778332824
 20
44.59421843196088
 30
0.0
  0
POINT
  5
7FD7
330
6E25
100
AcDbEntity
  8
Defpoints
 62
     0
100
AcDbPoint
 10
7.46874778332824
 20
44.39788134026502
 30
0.0
  0
ENDBLK
  5
6E31
330
6E25
100
AcDbEntity
  8
0
100
AcDbBlockEnd
  0
ENDSEC
  0
SECTION
  2
ENTITIES
  0
LINE
  5
2122
330
1E
100
AcDbEntity
  8
OBJECT
100
AcDbLine
 10
22.55144793391568
 20
48.78593338189027
 30
0.0
 11
22.55144793391568
 21
48.70793342961905
 31
0.0
  0
LINE
  5
2123
330
1E
100
AcDbEntity
  8
OBJECT
100
AcDbLine
 10
22.42644772459545
 20
48.78593338189027
 30
0.0
 11
22.55144793391568
 21
48.78593338189027
 31
0.0
  0
LINE
  5
2124
330
1E
100
AcDbEntity
  8
OBJECT
100
AcDbLine
 10
22.55144793391568
 20
48.70793342961905
 30
0.0
 11
22.42644772459545
 21
48.70793342961905
 31
0.0
  0
LINE
  5
2125
330
1E
100
AcDbEntity
  8
OBJECT
100
AcDbLine
 10
22.30144780860513
 20
48.70793342961905
 30
0.0
 11
22.30144780860513
 21
48.78593338189027
 31
0.0
  0
LINE
  5
2126
330
1E
100
AcDbEntity
  8
OBJECT
100
AcDbLine
 10
22.30144780860513
 20
48.78593338189027
 30
0.0
 11
22.42644772459545
 21
48.78593338189027
 31
0.0
  0
LINE
  5
2127
330
1E
100
AcDbEntity
  8
OBJECT
100
AcDbLine
 10
22.42644772459545
 20
48.70793342961905
 30
0.0
 11
22.30144780860513
 21
48.70793342961905
 31
0.0
  0
LINE
  5
2128
330
1E
100
AcDbEntity
  8
OBJECT
100
AcDbLine
 10
21.92644776730426
 20
48.6923329698369
 30
0.0
 11
21.92644776730426
 21
48.78593338189027
 31
0.0
  0
LINE
  5
2129
330
1E
100
AcDbEntity
  8
OBJECT
100
AcDbLine
 10
22.17644789261481
 20
48.78593338189027
 30
0.0
 11
22.17644789261481
 21
48.6923329698369
 31
0.0
  0
LINE
  5
212A
330
1E
100
AcDbEntity
  8
OBJECT
100
AcDbLine
 10
22.17644789261481
 20
48.78593338189027
 30
0.0
 11
21.92644776730426
 21
48.78593338189027
 31
0.0
  0
LINE
  5
212B
330
1E
100
AcDbEntity
  8
OBJECT
100
AcDbLine
 10
21.92644776730426
 20
48.66123295577357
 30
0.0
 11
21.92644776730426
 21
48.6923329698369
 31
0.0
  0
LINE
  5
212C
330
1E
100
AcDbEntity
  8
OBJECT
100
AcDbLine
 10
22.67644784990597
 20
48.66123295577357
 30
0.0
 11
22.67644784990597
 21
48.6923329698369
 31
0.0
  0
LINE
  5
212D
330
1E
100
AcDbEntity
  8
OBJECT
100
AcDbLine
 10
22.92644797521654
 20
48.66123295577357
 30
0.0
 11
22.92644797521654
 21
48.6923329698369
 31
0.0
  0
LINE
  5
212E
330
1E
100
AcDbEntity
  8
OBJECT
100
AcDbLine
 10
22.17644789261481
 20
48.6923329698369
 30
0.0
 11
22.17644789261481
 21
48.66123295577357
 31
0.0
  0
LINE
  5
212F
330
1E
100
AcDbEntity
  8
OBJECT
100
AcDbLine
 10
22.92644797521654
 20
48.6923329698369
 30
0.0
 11
22.92644797521654
 21
48.78593338189027
 31
0.0
  0
LINE
  5
2130
330
1E
100
AcDbEntity
  8
OBJECT
100
AcDbLine
 10
22.67644784990597
 20
48.6923329698369
 30
0.0
 11
22.67644784990597
 21
48.78593338189027
 31
0.0
  0
LINE
  5
2131
330
1E
100
AcDbEntity
  8
OBJECT
100
AcDbLine
 10
22.92644797521654
 20
48.78593338189027
 30
0.0
 11
22.67644784990597
 21
48.78593338189027
 31
0.0
  0
LINE
  5
2132
330
1E
100
AcDbEntity
  8
OBJECT
100
AcDbLine
 10
22.30144780860513
 20
48.78593338189027
 30
0.0
 11
22.17644789261481
 21
48.78593338189027
 31
0.0
  0
LINE
  5
2133
330
1E
100
AcDbEntity
  8
OBJECT
100
AcDbLine
 10
22.30144780860513
 20
48.70793342961905
 30
0.0
 11
22.17644789261481
 21
48.70793342961905
 31
0.0
  0
LINE
  5
2134
330
1E
100
AcDbEntity
  8
OBJECT
100
AcDbLine
 10
22.55144793391568
 20
48.78593338189027
 30
0.0
 11
22.67644784990597
 21
48.78593338189027
 31
0.0
  0
LINE
  5
2135
330
1E
100
AcDbEntity
  8
OBJECT
100
AcDbLine
 10
22.55144793391568
 20
48.70793342961905
 30
0.0
 11
22.67644784990597
 21
48.70793342961905
 31
0.0
  0
LINE
  5
2136
330
1E
100
AcDbEntity
  8
OBJECT
100
AcDbLine
 10
22.92644797521654
 20
48.78593338189027
 30
0.0
 11
22.92644797521654
 21
48.80153325501254
 31
0.0
  0
LINE
  5
2137
330
1E
100
AcDbEntity
  8
OBJECT
100
AcDbLine
 10
21.92644776730426
 20
48.78593338189027
 30
0.0
 11
21.92644776730426
 21
48.80153325501254
 31
0.0
  0
LINE
  5
2138
330
1E
100
AcDbEntity
  8
OBJECT
100
AcDbLine
 10
21.92644776730426
 20
48.80153325501254
 30
0.0
 11
21.92644776730426
 21
49.81793324680644
 31
0.0
  0
ARC
  5
2139
330
1E
100
AcDbEntity
  8
OBJECT
100
AcDbCircle
 10
22.05144783177041
 20
49.81793316935908
 30
0.0
 40
0.1250000000000071
100
AcDbArc
 50
90.0
 51
179.9999999999967
  0
LINE
  5
213A
330
1E
100
AcDbEntity
  8
OBJECT
100
AcDbLine
 10
22.80144776589628
 20
49.94293345612669
 30
0.0
 11
22.05144797662453
 21
49.94293345612669
 31
0.0
  0
ARC
  5
213B
330
1E
100
AcDbEntity
  8
OBJECT
100
AcDbCircle
 10
22.80144783177041
 20
49.81793316935908
 30
0.0
 40
0.1250000000000071
100
AcDbArc
 50
0.0
 51
90.0
  0
LINE
  5
213C
330
1E
100
AcDbEntity
  8
OBJECT
100
AcDbLine
 10
22.92644797521654
 20
48.80153325501254
 30
0.0
 11
22.92644797521654
 21
49.81793324680644
 31
0.0
  0
LINE
  5
213D
330
1E
100
AcDbEntity
  8
OBJECT
100
AcDbLine
 10
22.20794771539283
 20
49.42293338321191
 30
0.0
 11
22.20794771539283
 21
49.17293296457142
 31
0.0
  0
ARC
  5
213E
330
1E
100
AcDbEntity
  8
OBJECT
100
AcDbCircle
 10
22.42644783177041
 20
49.17293316935908
 30
0.0
 40
0.2184999999999988
100
AcDbArc
 50
180.0
 51
0.0
  0
LINE
  5
213F
330
1E
100
AcDbEntity
  8
OBJECT
100
AcDbLine
 10
22.644947733798
 20
49.17293296457142
 30
0.0
 11
22.644947733798
 21
49.42293338321191
 31
0.0
  0
ARC
  5
2140
330
1E
100
AcDbEntity
  8
OBJECT
100
AcDbCircle
 10
22.42644783177041
 20
49.42293316935908
 30
0.0
 40
0.2184999999999988
100
AcDbArc
 50
0.0
 51
180.0
  0
LINE
  5
2141
330
1E
100
AcDbEntity
  8
OBJECT
100
AcDbLine
 10
22.55144793391568
 20
32.8665329090991
 30
0.0
 11
22.55144793391568
 21
32.78853295682788
 31
0.0
  0
LINE
  5
2142
330
1E
100
AcDbEntity
  8
OBJECT
100
AcDbLine
 10
22.55144793391568
 20
32.78853295682788
 30
0.0
 11
22.42644772459545
 21
32.78853295682788
 31
0.0
  0
LINE
  5
2143
330
1E
100
AcDbEntity
  8
OBJECT
100
AcDbLine
 10
22.42644772459545
 20
32.8665329090991
 30
0.0
 11
22.55144793391568
 21
32.8665329090991
 31
0.0
  0
LINE
  5
2144
330
1E
100
AcDbEntity
  8
OBJECT
100
AcDbLine
 10
22.42644772459545
 20
32.78853295682788
 30
0.0
 11
22.30144780860513
 21
32.78853295682788
 31
0.0
  0
LINE
  5
2145
330
1E
100
AcDbEntity
  8
OBJECT
100
AcDbLine
 10
22.30144780860513
 20
32.78853295682788
 30
0.0
 11
22.30144780860513
 21
32.8665329090991
 31
0.0
  0
LINE
  5
2146
330
1E
100
AcDbEntity
  8
OBJECT
100
AcDbLine
 10
22.30144780860513
 20
32.8665329090991
 30
0.0
 11
22.42644772459545
 21
32.8665329090991
 31
0.0
  0
LINE
  5
2147
330
1E
100
AcDbEntity
  8
OBJECT
100
AcDbLine
 10
22.92644797521654
 20
32.91323338294458
 30
0.0
 11
22.92644797521654
 21
32.88213336888125
 31
0.0
  0
LINE
  5
2148
330
1E
100
AcDbEntity
  8
OBJECT
100
AcDbLine
 10
22.67644784990597
 20
32.88213336888125
 30
0.0
 11
22.67644784990597
 21
32.91323338294458
 31
0.0
  0
LINE
  5
2149
330
1E
100
AcDbEntity
  8
OBJECT
100
AcDbLine
 10
22.17644789261481
 20
32.91323338294458
 30
0.0
 11
22.17644789261481
 21
32.88213336888125
 31
0.0
  0
LINE
  5
214A
330
1E
100
AcDbEntity
  8
OBJECT
100
AcDbLine
 10
21.92644776730426
 20
32.91323338294458
 30
0.0
 11
21.92644776730426
 21
32.88213336888125
 31
0.0
  0
LINE
  5
214B
330
1E
100
AcDbEntity
  8
OBJECT
100
AcDbLine
 10
22.92644797521654
 20
32.88213336888125
 30
0.0
 11
22.92644797521654
 21
32.78853295682788
 31
0.0
  0
LINE
  5
214C
330
1E
100
AcDbEntity
  8
OBJECT
100
AcDbLine
 10
22.67644784990597
 20
32.78853295682788
 30
0.0
 11
22.67644784990597
 21
32.88213336888125
 31
0.0
  0
LINE
  5
214D
330
1E
100
AcDbEntity
  8
OBJECT
100
AcDbLine
 10
22.67644784990597
 20
32.78853295682788
 30
0.0
 11
22.92644797521654
 21
32.78853295682788
 31
0.0
  0
LINE
  5
214E
330
1E
100
AcDbEntity
  8
OBJECT
100
AcDbLine
 10
21.92644776730426
 20
32.88213336888125
 30
0.0
 11
21.92644776730426
 21
32.78853295682788
 31
0.0
  0
LINE
  5
214F
330
1E
100
AcDbEntity
  8
OBJECT
100
AcDbLine
 10
22.17644789261481
 20
32.88213336888125
 30
0.0
 11
22.17644789261481
 21
32.78853295682788
 31
0.0
  0
LINE
  5
2150
330
1E
100
AcDbEntity
  8
OBJECT
100
AcDbLine
 10
21.92644776730426
 20
32.78853295682788
 30
0.0
 11
22.17644789261481
 21
32.78853295682788
 31
0.0
  0
LINE
  5
2151
330
1E
100
AcDbEntity
  8
OBJECT
100
AcDbLine
 10
22.55144793391568
 20
32.78853295682788
 30
0.0
 11
22.67644784990597
 21
32.78853295682788
 31
0.0
  0
LINE
  5
2152
330
1E
100
AcDbEntity
  8
OBJECT
100
AcDbLine
 10
22.55144793391568
 20
32.8665329090991
 30
0.0
 11
22.67644784990597
 21
32.8665329090991
 31
0.0
  0
LINE
  5
2153
330
1E
100
AcDbEntity
  8
OBJECT
100
AcDbLine
 10
22.30144780860513
 20
32.78853295682788
 30
0.0
 11
22.17644789261481
 21
32.78853295682788
 31
0.0
  0
LINE
  5
2154
330
1E
100
AcDbEntity
  8
OBJECT
100
AcDbLine
 10
22.30144780860513
 20
32.8665329090991
 30
0.0
 11
22.17644789261481
 21
32.8665329090991
 31
0.0
  0
LINE
  5
2155
330
1E
100
AcDbEntity
  8
OBJECT
100
AcDbLine
 10
21.92644776730426
 20
32.78853295682788
 30
0.0
 11
21.92644776730426
 21
32.77293308370561
 31
0.0
  0
LINE
  5
2156
330
1E
100
AcDbEntity
  8
OBJECT
100
AcDbLine
 10
22.92644797521654
 20
32.78853295682788
 30
0.0
 11
22.92644797521654
 21
32.77293308370561
 31
0.0
  0
ARC
  5
2157
330
1E
100
AcDbEntity
  8
OBJECT
100
AcDbCircle
 10
22.80144783177041
 20
31.75653316935907
 30
0.0
 40
0.125
100
AcDbArc
 50
270.0000000000008
 51
359.9999999999992
  0
LINE
  5
2158
330
1E
100
AcDbEntity
  8
OBJECT
100
AcDbLine
 10
22.05144797662453
 20
31.63153288259145
 30
0.0
 11
22.80144776589628
 21
31.63153288259145
 31
0.0
  0
ARC
  5
2159
330
1E
100
AcDbEntity
  8
OBJECT
100
AcDbCircle
 10
22.05144783177041
 20
31.75653316935907
 30
0.0
 40
0.125
100
AcDbArc
 50
180.0
 51
270.0000000000008
  0
LINE
  5
215A
330
1E
100
AcDbEntity
  8
OBJECT
100
AcDbLine
 10
21.92644776730426
 20
32.77293308370561
 30
0.0
 11
21.92644776730426
 21
31.7565330919117
 31
0.0
  0
LINE
  5
215B
330
1E
100
AcDbEntity
  8
OBJECT
100
AcDbLine
 10
22.644947733798
 20
32.15153295550624
 30
0.0
 11
22.644947733798
 21
32.40153337414673
 31
0.0
  0
ARC
  5
215C
330
1E
100
AcDbEntity
  8
OBJECT
100
AcDbCircle
 10
22.42644783177041
 20
32.40153316935908
 30
0.0
 40
0.2184999999999988
100
AcDbArc
 50
0.0
 51
180.0
  0
LINE
  5
215D
330
1E
100
AcDbEntity
  8
OBJECT
100
AcDbLine
 10
22.20794771539283
 20
32.40153337414673
 30
0.0
 11
22.20794771539283
 21
32.15153295550624
 31
0.0
  0
ARC
  5
215E
330
1E
100
AcDbEntity
  8
OBJECT
100
AcDbCircle
 10
22.42644783177041
 20
32.15153316935908
 30
0.0
 40
0.2184999999999988
100
AcDbArc
 50
180.0
 51
0.000000000000916
  0
LINE
  5
215F
330
1E
100
AcDbEntity
  8
OBJECT
100
AcDbLine
 10
22.92644797521654
 20
32.77293308370561
 30
0.0
 11
22.92644797521654
 21
31.7565330919117
 31
0.0
  0
LINE
  5
2160
330
1E
100
AcDbEntity
  8
OBJECT
100
AcDbLine
 10
8.260047854935692
 20
32.8665329090991
 30
0.0
 11
8.260047854935692
 21
32.78853295682788
 31
0.0
  0
LINE
  5
2161
330
1E
100
AcDbEntity
  8
OBJECT
100
AcDbLine
 10
8.260047854935692
 20
32.78853295682788
 30
0.0
 11
8.135047938945376
 21
32.78853295682788
 31
0.0
  0
LINE
  5
2162
330
1E
100
AcDbEntity
  8
OBJECT
100
AcDbLine
 10
8.135047938945376
 20
32.8665329090991
 30
0.0
 11
8.260047854935692
 21
32.8665329090991
 31
0.0
  0
LINE
  5
2163
330
1E
100
AcDbEntity
  8
OBJECT
100
AcDbLine
 10
8.010047729625142
 20
32.78853295682788
 30
0.0
 11
8.010047729625142
 21
32.8665329090991
 31
0.0
  0
LINE
  5
2164
330
1E
100
AcDbEntity
  8
OBJECT
100
AcDbLine
 10
8.135047938945376
 20
32.78853295682788
 30
0.0
 11
8.010047729625142
 21
32.78853295682788
 31
0.0
  0
LINE
  5
2165
330
1E
100
AcDbEntity
  8
OBJECT
100
AcDbLine
 10
8.010047729625142
 20
32.8665329090991
 30
0.0
 11
8.135047938945376
 21
32.8665329090991
 31
0.0
  0
LINE
  5
2166
330
1E
100
AcDbEntity
  8
OBJECT
100
AcDbLine
 10
8.635047896236528
 20
32.91323338294458
 30
0.0
 11
8.635047896236528
 21
32.88213336888125
 31
0.0
  0
LINE
  5
2167
330
1E
100
AcDbEntity
  8
OBJECT
100
AcDbLine
 10
8.385047770925979
 20
32.88213336888125
 30
0.0
 11
8.385047770925979
 21
32.91323338294458
 31
0.0
  0
LINE
  5
2168
330
1E
100
AcDbEntity
  8
OBJECT
100
AcDbLine
 10
7.885047813634827
 20
32.91323338294458
 30
0.0
 11
7.885047813634827
 21
32.88213336888125
 31
0.0
  0
LINE
  5
2169
330
1E
100
AcDbEntity
  8
OBJECT
100
AcDbLine
 10
7.635047688324277
 20
32.91323338294458
 30
0.0
 11
7.635047688324277
 21
32.88213336888125
 31
0.0
  0
LINE
  5
216A
330
1E
100
AcDbEntity
  8
OBJECT
100
AcDbLine
 10
8.635047896236528
 20
32.88213336888125
 30
0.0
 11
8.635047896236528
 21
32.78853295682788
 31
0.0
  0
LINE
  5
216B
330
1E
100
AcDbEntity
  8
OBJECT
100
AcDbLine
 10
8.385047770925979
 20
32.78853295682788
 30
0.0
 11
8.385047770925979
 21
32.88213336888125
 31
0.0
  0
LINE
  5
216C
330
1E
100
AcDbEntity
  8
OBJECT
100
AcDbLine
 10
8.385047770925979
 20
32.78853295682788
 30
0.0
 11
8.635047896236528
 21
32.78853295682788
 31
0.0
  0
LINE
  5
216D
330
1E
100
AcDbEntity
  8
OBJECT
100
AcDbLine
 10
7.635047688324277
 20
32.88213336888125
 30
0.0
 11
7.635047688324277
 21
32.78853295682788
 31
0.0
  0
LINE
  5
216E
330
1E
100
AcDbEntity
  8
OBJECT
100
AcDbLine
 10
7.885047813634827
 20
32.88213336888125
 30
0.0
 11
7.885047813634827
 21
32.78853295682788
 31
0.0
  0
LINE
  5
216F
330
1E
100
AcDbEntity
  8
OBJECT
100
AcDbLine
 10
7.635047688324277
 20
32.78853295682788
 30
0.0
 11
7.885047813634827
 21
32.78853295682788
 31
0.0
  0
LINE
  5
2170
330
1E
100
AcDbEntity
  8
OBJECT
100
AcDbLine
 10
8.260047854935692
 20
32.78853295682788
 30
0.0
 11
8.385047770925979
 21
32.78853295682788
 31
0.0
  0
LINE
  5
2171
330
1E
100
AcDbEntity
  8
OBJECT
100
AcDbLine
 10
8.260047854935692
 20
32.8665329090991
 30
0.0
 11
8.385047770925979
 21
32.8665329090991
 31
0.0
  0
LINE
  5
2172
330
1E
100
AcDbEntity
  8
OBJECT
100
AcDbLine
 10
8.010047729625142
 20
32.78853295682788
 30
0.0
 11
7.885047813634827
 21
32.78853295682788
 31
0.0
  0
LINE
  5
2173
330
1E
100
AcDbEntity
  8
OBJECT
100
AcDbLine
 10
8.010047729625142
 20
32.8665329090991
 30
0.0
 11
7.885047813634827
 21
32.8665329090991
 31
0.0
  0
LINE
  5
2174
330
1E
100
AcDbEntity
  8
OBJECT
100
AcDbLine
 10
7.635047688324277
 20
32.78853295682788
 30
0.0
 11
7.635047688324277
 21
32.77293308370561
 31
0.0
  0
LINE
  5
2175
330
1E
100
AcDbEntity
  8
OBJECT
100
AcDbLine
 10
8.635047896236528
 20
32.78853295682788
 30
0.0
 11
8.635047896236528
 21
32.77293308370561
 31
0.0
  0
LINE
  5
2176
330
1E
100
AcDbEntity
  8
OBJECT
100
AcDbLine
 10
8.635047896236528
 20
32.77293308370561
 30
0.0
 11
8.635047896236528
 21
31.7565330919117
 31
0.0
  0
ARC
  5
2177
330
1E
100
AcDbEntity
  8
OBJECT
100
AcDbCircle
 10
8.510047831770407
 20
31.75653316935907
 30
0.0
 40
0.125
100
AcDbArc
 50
270.0000000000008
 51
359.9999999999992
  0
LINE
  5
2178
330
1E
100
AcDbEntity
  8
OBJECT
100
AcDbLine
 10
7.760047897644511
 20
31.63153288259145
 30
0.0
 11
8.510047686916294
 21
31.63153288259145
 31
0.0
  0
ARC
  5
2179
330
1E
100
AcDbEntity
  8
OBJECT
100
AcDbCircle
 10
7.760047831770407
 20
31.75653316935907
 30
0.0
 40
0.125
100
AcDbArc
 50
180.0
 51
270.0000000000008
  0
LINE
  5
217A
330
1E
100
AcDbEntity
  8
OBJECT
100
AcDbLine
 10
7.635047688324277
 20
32.77293308370561
 30
0.0
 11
7.635047688324277
 21
31.7565330919117
 31
0.0
  0
ARC
  5
217B
330
1E
100
AcDbEntity
  8
OBJECT
100
AcDbCircle
 10
8.135047831770407
 20
32.40153316935908
 30
0.0
 40
0.2185000000000024
100
AcDbArc
 50
0.0
 51
179.999999999999
  0
LINE
  5
217C
330
1E
100
AcDbEntity
  8
OBJECT
100
AcDbLine
 10
7.91654792974279
 20
32.40153337414673
 30
0.0
 11
7.91654792974279
 21
32.15153295550624
 31
0.0
  0
ARC
  5
217D
330
1E
100
AcDbEntity
  8
OBJECT
100
AcDbCircle
 10
8.135047831770407
 20
32.15153316935908
 30
0.0
 40
0.2185000000000024
100
AcDbArc
 50
179.999999999999
 51
0.000000000000916
  0
LINE
  5
217E
330
1E
100
AcDbEntity
  8
OBJECT
100
AcDbLine
 10
8.353547948147962
 20
32.15153295550624
 30
0.0
 11
8.353547948147962
 21
32.40153337414673
 31
0.0
  0
LINE
  5
217F
330
1E
100
AcDbEntity
  8
OBJECT
100
AcDbLine
 10
8.010047729625142
 20
48.70793342961905
 30
0.0
 11
8.010047729625142
 21
48.78593338189027
 31
0.0
  0
LINE
  5
2180
330
1E
100
AcDbEntity
  8
OBJECT
100
AcDbLine
 10
8.010047729625142
 20
48.78593338189027
 30
0.0
 11
8.135047938945376
 21
48.78593338189027
 31
0.0
  0
LINE
  5
2181
330
1E
100
AcDbEntity
  8
OBJECT
100
AcDbLine
 10
8.135047938945376
 20
48.70793342961905
 30
0.0
 11
8.010047729625142
 21
48.70793342961905
 31
0.0
  0
LINE
  5
2182
330
1E
100
AcDbEntity
  8
OBJECT
100
AcDbLine
 10
8.260047854935692
 20
48.78593338189027
 30
0.0
 11
8.260047854935692
 21
48.70793342961905
 31
0.0
  0
LINE
  5
2183
330
1E
100
AcDbEntity
  8
OBJECT
100
AcDbLine
 10
8.135047938945376
 20
48.78593338189027
 30
0.0
 11
8.260047854935692
 21
48.78593338189027
 31
0.0
  0
LINE
  5
2184
330
1E
100
AcDbEntity
  8
OBJECT
100
AcDbLine
 10
8.260047854935692
 20
48.70793342961905
 30
0.0
 11
8.135047938945376
 21
48.70793342961905
 31
0.0
  0
LINE
  5
2185
330
1E
100
AcDbEntity
  8
OBJECT
100
AcDbLine
 10
7.635047688324277
 20
48.66123295577357
 30
0.0
 11
7.635047688324277
 21
48.6923329698369
 31
0.0
  0
LINE
  5
2186
330
1E
100
AcDbEntity
  8
OBJECT
100
AcDbLine
 10
7.885047813634827
 20
48.6923329698369
 30
0.0
 11
7.885047813634827
 21
48.66123295577357
 31
0.0
  0
LINE
  5
2187
330
1E
100
AcDbEntity
  8
OBJECT
100
AcDbLine
 10
8.385047770925979
 20
48.66123295577357
 30
0.0
 11
8.385047770925979
 21
48.6923329698369
 31
0.0
  0
LINE
  5
2188
330
1E
100
AcDbEntity
  8
OBJECT
100
AcDbLine
 10
8.635047896236528
 20
48.66123295577357
 30
0.0
 11
8.635047896236528
 21
48.6923329698369
 31
0.0
  0
LINE
  5
2189
330
1E
100
AcDbEntity
  8
OBJECT
100
AcDbLine
 10
7.635047688324277
 20
48.6923329698369
 30
0.0
 11
7.635047688324277
 21
48.78593338189027
 31
0.0
  0
LINE
  5
218A
330
1E
100
AcDbEntity
  8
OBJECT
100
AcDbLine
 10
7.885047813634827
 20
48.78593338189027
 30
0.0
 11
7.885047813634827
 21
48.6923329698369
 31
0.0
  0
LINE
  5
218B
330
1E
100
AcDbEntity
  8
OBJECT
100
AcDbLine
 10
7.885047813634827
 20
48.78593338189027
 30
0.0
 11
7.635047688324277
 21
48.78593338189027
 31
0.0
  0
LINE
  5
218C
330
1E
100
AcDbEntity
  8
OBJECT
100
AcDbLine
 10
8.635047896236528
 20
48.6923329698369
 30
0.0
 11
8.635047896236528
 21
48.78593338189027
 31
0.0
  0
LINE
  5
218D
330
1E
100
AcDbEntity
  8
OBJECT
100
AcDbLine
 10
8.385047770925979
 20
48.6923329698369
 30
0.0
 11
8.385047770925979
 21
48.78593338189027
 31
0.0
  0
LINE
  5
218E
330
1E
100
AcDbEntity
  8
OBJECT
100
AcDbLine
 10
8.635047896236528
 20
48.78593338189027
 30
0.0
 11
8.385047770925979
 21
48.78593338189027
 31
0.0
  0
LINE
  5
218F
330
1E
100
AcDbEntity
  8
OBJECT
100
AcDbLine
 10
8.010047729625142
 20
48.78593338189027
 30
0.0
 11
7.885047813634827
 21
48.78593338189027
 31
0.0
  0
LINE
  5
2190
330
1E
100
AcDbEntity
  8
OBJECT
100
AcDbLine
 10
8.010047729625142
 20
48.70793342961905
 30
0.0
 11
7.885047813634827
 21
48.70793342961905
 31
0.0
  0
LINE
  5
2191
330
1E
100
AcDbEntity
  8
OBJECT
100
AcDbLine
 10
8.260047854935692
 20
48.78593338189027
 30
0.0
 11
8.385047770925979
 21
48.78593338189027
 31
0.0
  0
LINE
  5
2192
330
1E
100
AcDbEntity
  8
OBJECT
100
AcDbLine
 10
8.260047854935692
 20
48.70793342961905
 30
0.0
 11
8.385047770925979
 21
48.70793342961905
 31
0.0
  0
LINE
  5
2193
330
1E
100
AcDbEntity
  8
OBJECT
100
AcDbLine
 10
8.635047896236528
 20
48.78593338189027
 30
0.0
 11
8.635047896236528
 21
48.80153325501254
 31
0.0
  0
LINE
  5
2194
330
1E
100
AcDbEntity
  8
OBJECT
100
AcDbLine
 10
7.635047688324277
 20
48.78593338189027
 30
0.0
 11
7.635047688324277
 21
48.80153325501254
 31
0.0
  0
LINE
  5
2195
330
1E
100
AcDbEntity
  8
OBJECT
100
AcDbLine
 10
7.635047688324277
 20
48.80153325501254
 30
0.0
 11
7.635047688324277
 21
49.81793324680644
 31
0.0
  0
ARC
  5
2196
330
1E
100
AcDbEntity
  8
OBJECT
100
AcDbCircle
 10
7.760047831770407
 20
49.81793316935908
 30
0.0
 40
0.125
100
AcDbArc
 50
90.0
 51
179.9999999999967
  0
LINE
  5
2197
330
1E
100
AcDbEntity
  8
OBJECT
100
AcDbLine
 10
8.510047686916294
 20
49.94293345612669
 30
0.0
 11
7.760047897644511
 21
49.94293345612669
 31
0.0
  0
ARC
  5
2198
330
1E
100
AcDbEntity
  8
OBJECT
100
AcDbCircle
 10
8.510047831770407
 20
49.81793316935908
 30
0.0
 40
0.1250000000000035
100
AcDbArc
 50
0.0
 51
90.0
  0
LINE
  5
2199
330
1E
100
AcDbEntity
  8
OBJECT
100
AcDbLine
 10
8.635047896236528
 20
48.80153325501254
 30
0.0
 11
8.635047896236528
 21
49.81793324680644
 31
0.0
  0
LINE
  5
219A
330
1E
100
AcDbEntity
  8
OBJECT
100
AcDbLine
 10
7.91654792974279
 20
49.42293338321191
 30
0.0
 11
7.91654792974279
 21
49.17293296457142
 31
0.0
  0
ARC
  5
219B
330
1E
100
AcDbEntity
  8
OBJECT
100
AcDbCircle
 10
8.135047831770407
 20
49.17293316935907
 30
0.0
 40
0.2184999999999988
100
AcDbArc
 50
180.0
 51
0.0
  0
LINE
  5
219C
330
1E
100
AcDbEntity
  8
OBJECT
100
AcDbLine
 10
8.353547948147962
 20
49.17293296457142
 30
0.0
 11
8.353547948147962
 21
49.42293338321191
 31
0.0
  0
ARC
  5
219D
330
1E
100
AcDbEntity
  8
OBJECT
100
AcDbCircle
 10
8.135047831770407
 20
49.42293316935908
 30
0.0
 40
0.2184999999999988
100
AcDbArc
 50
0.0
 51
179.999999999999
  0
LINE
  5
21A9
330
1E
100
AcDbEntity
  8
OBJECT
100
AcDbLine
 10
23.15474784454363
 20
32.99048329054704
 30
0.0
 11
23.15474784454363
 21
48.58398304817111
 31
0.0
  0
LINE
  5
21AA
330
1E
100
AcDbEntity
  8
OBJECT
100
AcDbLine
 10
7.483747809486715
 20
32.91348330005752
 30
0.0
 11
23.07774785405411
 21
32.91348330005752
 31
0.0
  0
ARC
  5
21AB
330
1E
100
AcDbEntity
  8
OBJECT
100
AcDbCircle
 10
23.07774783177046
 20
32.99048316935906
 30
0.0
 40
0.0770000000000017
100
AcDbArc
 50
269.9999999999983
 51
0.0000000000079387
  0
LINE
  5
21AC
330
1E
100
AcDbEntity
  8
OBJECT
100
AcDbLine
 10
7.406747818997189
 20
32.99048329054704
 30
0.0
 11
7.406747818997189
 21
48.58398304817111
 31
0.0
  0
ARC
  5
21AD
330
1E
100
AcDbEntity
  8
OBJECT
100
AcDbCircle
 10
7.483747831770472
 20
32.99048316935908
 30
0.0
 40
0.0769999999999982
100
AcDbArc
 50
179.9999999999947
 51
270.0000000000057
  0
ARC
  5
21AE
330
1E
100
AcDbEntity
  8
OBJECT
100
AcDbCircle
 10
23.07774783177046
 20
48.58398316935907
 30
0.0
 40
0.0769999999999982
100
AcDbArc
 50
0.0000000000052924
 51
90.00000000000488
  0
LINE
  5
21AF
330
1E
100
AcDbEntity
  8
OBJECT
100
AcDbLine
 10
23.07774785405411
 20
48.66098303866064
 30
0.0
 11
7.483747809486715
 21
48.66098303866064
 31
0.0
  0
ARC
  5
21B0
330
1E
100
AcDbEntity
  8
OBJECT
100
AcDbCircle
 10
7.483747831770472
 20
48.58398316935907
 30
0.0
 40
0.0769999999999982
100
AcDbArc
 50
89.99999999999756
 51
180.0
  0
LINE
  5
21B1
330
1E
100
AcDbEntity
  8
OBJECT
100
AcDbLine
 10
7.475818807749902
 20
48.66123295577357
 30
0.0
 11
7.475944939626145
 21
48.66058674990526
 31
0.0
  0
LINE
  5
21B2
330
1E
100
AcDbEntity
  8
OBJECT
100
AcDbLine
 10
7.475818807749902
 20
48.66123295577357
 30
0.0
 11
23.08567685579092
 21
48.66123295577357
 31
0.0
  0
LINE
  5
21B3
330
1E
100
AcDbEntity
  8
OBJECT
100
AcDbLine
 10
23.08555072391468
 20
48.66058674990526
 30
0.0
 11
23.08567685579092
 21
48.66123295577357
 31
0.0
  0
LINE
  5
21B4
330
1E
100
AcDbEntity
  8
OBJECT
100
AcDbLine
 10
23.08567685579092
 20
48.66123295577357
 30
0.0
 11
23.08567685579092
 21
48.6605738433877
 31
0.0
  0
LINE
  5
21B5
330
1E
100
AcDbEntity
  8
OBJECT
100
AcDbLine
 10
23.15432104947399
 20
32.98238738407166
 30
0.0
 11
23.15474784454363
 21
32.98230437169729
 31
0.0
  0
LINE
  5
21B6
330
1E
100
AcDbEntity
  8
OBJECT
100
AcDbLine
 10
23.15474784454363
 20
32.98230437169729
 30
0.0
 11
23.15431224957567
 21
32.98230437169729
 31
0.0
  0
LINE
  5
21B7
330
1E
100
AcDbEntity
  8
OBJECT
100
AcDbLine
 10
23.08567685579092
 20
32.91323338294458
 30
0.0
 11
23.08555072391468
 21
32.91387958881289
 31
0.0
  0
LINE
  5
21B8
330
1E
100
AcDbEntity
  8
OBJECT
100
AcDbLine
 10
23.08567685579092
 20
32.91323338294458
 30
0.0
 11
7.475818807749902
 21
32.91323338294458
 31
0.0
  0
LINE
  5
21B9
330
1E
100
AcDbEntity
  8
OBJECT
100
AcDbLine
 10
7.406747818997189
 20
32.98230437169729
 30
0.0
 11
7.406747818997189
 21
32.99048329054704
 31
0.0
  0
LINE
  5
21BA
330
1E
100
AcDbEntity
  8
OBJECT
100
AcDbLine
 10
7.406747818997189
 20
48.58398304817111
 30
0.0
 11
7.406747818997189
 21
48.59216196702087
 31
0.0
  0
LINE
  5
21BB
330
1E
100
AcDbEntity
  8
OBJECT
100
AcDbLine
 10
7.407174614066803
 20
48.59207895464649
 30
0.0
 11
7.406747818997189
 21
48.59216196702087
 31
0.0
  0
LINE
  5
21BC
330
1E
100
AcDbEntity
  8
OBJECT
100
AcDbLine
 10
7.475818807749902
 20
48.66123295577357
 30
0.0
 11
7.475818807749902
 21
48.6605738433877
 31
0.0
  0
LINE
  5
21BD
330
1E
100
AcDbEntity
  8
OBJECT
100
AcDbLine
 10
7.475818807749902
 20
32.91323338294458
 30
0.0
 11
7.468747796101496
 21
32.91323338294458
 31
0.0
  0
LINE
  5
21BE
330
1E
100
AcDbEntity
  8
OBJECT
100
AcDbLine
 10
7.406747818997189
 20
32.98230437169729
 30
0.0
 11
7.406747818997189
 21
32.97523306671894
 31
0.0
  0
LINE
  5
21BF
330
1E
100
AcDbEntity
  8
OBJECT
100
AcDbLine
 10
23.15474784454363
 20
48.59216196702087
 30
0.0
 11
23.15432104947399
 21
48.59207895464649
 31
0.0
  0
LINE
  5
21C0
330
1E
100
AcDbEntity
  8
OBJECT
100
AcDbLine
 10
23.15474784454363
 20
48.59216196702087
 30
0.0
 11
23.15474784454363
 21
48.58398304817111
 31
0.0
  0
LINE
  5
21C1
330
1E
100
AcDbEntity
  8
OBJECT
100
AcDbLine
 10
23.15474784454363
 20
32.99048329054704
 30
0.0
 11
23.15474784454363
 21
32.98230437169729
 31
0.0
  0
ARC
  5
21C2
330
1E
100
AcDbEntity
  8
OBJECT
100
AcDbCircle
 10
7.4687478317704
 20
32.97523316935907
 30
0.0
 40
0.0620000000000012
100
AcDbArc
 50
180.0
 51
270.0000000000008
  0
LINE
  5
21C3
330
1E
100
AcDbEntity
  8
OBJECT
100
AcDbLine
 10
7.406747818997189
 20
48.59216196702087
 30
0.0
 11
7.407183413965157
 21
48.59216196702087
 31
0.0
  0
LINE
  5
21C4
330
1E
100
AcDbEntity
  8
OBJECT
100
AcDbLine
 10
23.08567685579092
 20
32.91323338294458
 30
0.0
 11
23.08567685579092
 21
32.91389249533045
 31
0.0
  0
LINE
  5
21C5
330
1E
100
AcDbEntity
  8
OBJECT
100
AcDbLine
 10
23.15474784454363
 20
48.59216196702087
 30
0.0
 11
23.15431224957567
 21
48.59216196702087
 31
0.0
  0
LINE
  5
22AE
330
1E
100
AcDbEntity
  8
BEND
100
AcDbLine
 10
70.34944688151293
 20
44.79410419413119
 30
0.0
 11
87.40057293894812
 21
44.79410419413119
 31
0.0
  0
LINE
  5
2368
330
1E
100
AcDbEntity
  8
OBJECT
100
AcDbLine
 10
86.61602961074356
 20
18.36427215819333
 30
0.0
 11
71.0220295661762
 21
18.36427215819333
 31
0.0
  0
LINE
  5
2369
330
1E
100
AcDbEntity
  8
OBJECT
100
AcDbLine
 10
86.61602961074356
 20
18.30227215817263
 30
0.0
 11
71.0220295661762
 21
18.30227215817263
 31
0.0
  0
ARC
  5
236A
330
1E
100
AcDbEntity
  8
OBJECT
100
AcDbCircle
 10
86.61602958845987
 20
18.37927215817263
 30
0.0
 40
0.0769999999999982
100
AcDbArc
 50
270.0000000000008
 51
0.0
  0
LINE
  5
236B
330
1E
100
AcDbEntity
  8
OBJECT
100
AcDbLine
 10
86.63102962412882
 20
25.27027201199763
 30
0.0
 11
86.63102962412882
 21
18.37927215782872
 31
0.0
  0
LINE
  5
236C
330
1E
100
AcDbEntity
  8
OBJECT
100
AcDbLine
 10
85.897029516694
 20
25.3622720158724
 30
0.0
 11
85.897029516694
 21
25.74005869164849
 31
0.0
  0
LINE
  5
236D
330
1E
100
AcDbEntity
  8
OBJECT
100
AcDbLine
 10
86.61602961074356
 20
25.34727229581712
 30
0.0
 11
85.97402950718356
 21
25.34727229581712
 31
0.0
  0
LINE
  5
236E
330
1E
100
AcDbEntity
  8
OBJECT
100
AcDbLine
 10
86.10218888000886
 20
25.97711269984702
 30
0.0
 11
86.14602968022285
 21
25.93327219296297
 31
0.0
  0
ARC
  5
236F
330
1E
100
AcDbEntity
  8
OBJECT
100
AcDbCircle
 10
85.97402958845988
 20
25.74005895473703
 30
0.0
 40
0.0150000000000006
100
AcDbArc
 50
135.0000000000002
 51
180.0
  0
LINE
  5
2370
330
1E
100
AcDbEntity
  8
OBJECT
100
AcDbLine
 10
85.96342298971094
 20
25.75066550245104
 30
0.0
 11
86.14602968022285
 21
25.93327219296297
 31
0.0
  0
ARC
  5
2371
330
1E
100
AcDbEntity
  8
OBJECT
100
AcDbCircle
 10
71.02202958845987
 20
18.37927215817263
 30
0.0
 40
0.0770000000000053
100
AcDbArc
 50
180.0
 51
269.9999999995619
  0
ARC
  5
2372
330
1E
100
AcDbEntity
  8
OBJECT
100
AcDbCircle
 10
71.02202958845987
 20
18.37927215817263
 30
0.0
 40
0.0150000000000006
100
AcDbArc
 50
179.999999999966
 51
270.0000000000008
  0
ARC
  5
2373
330
1E
100
AcDbEntity
  8
OBJECT
100
AcDbCircle
 10
86.61602958845987
 20
18.37927215817263
 30
0.0
 40
0.0150000000000006
100
AcDbArc
 50
270.0000000000008
 51
0.000000000033892
  0
LINE
  5
2374
330
1E
100
AcDbEntity
  8
OBJECT
100
AcDbLine
 10
71.6640296697362
 20
25.34727229581712
 30
0.0
 11
71.0220295661762
 21
25.34727229581712
 31
0.0
  0
LINE
  5
2375
330
1E
100
AcDbEntity
  8
OBJECT
100
AcDbLine
 10
71.49202949669689
 20
25.93327219296297
 30
0.0
 11
71.67463618720882
 21
25.75066550245104
 31
0.0
  0
ARC
  5
2376
330
1E
100
AcDbEntity
  8
OBJECT
100
AcDbCircle
 10
71.66402958845989
 20
25.74005895473703
 30
0.0
 40
0.0150000000000006
100
AcDbArc
 50
0.0
 51
44.99999999999978
  0
LINE
  5
2377
330
1E
100
AcDbEntity
  8
OBJECT
100
AcDbLine
 10
71.67902968312145
 20
25.74005869164849
 30
0.0
 11
71.67902968312145
 21
25.3622720158724
 31
0.0
  0
ARC
  5
2378
330
1E
100
AcDbEntity
  8
OBJECT
100
AcDbCircle
 10
71.66402958845989
 20
25.36227215817262
 30
0.0
 40
0.0150000000000006
100
AcDbArc
 50
270.0000000000008
 51
0.0
  0
ARC
  5
2379
330
1E
100
AcDbEntity
  8
OBJECT
100
AcDbCircle
 10
71.02202958845987
 20
25.27027215817263
 30
0.0
 40
0.0769999999999982
100
AcDbArc
 50
90.0
 51
180.0
  0
LINE
  5
237A
330
1E
100
AcDbEntity
  8
OBJECT
100
AcDbLine
 10
70.94502957568664
 20
18.37927215782872
 30
0.0
 11
70.94502957568664
 21
25.27027201199763
 31
0.0
  0
LINE
  5
237B
330
1E
100
AcDbEntity
  8
OBJECT
100
AcDbLine
 10
71.6640296697362
 20
25.28527231871281
 30
0.0
 11
71.0220295661762
 21
25.28527231871281
 31
0.0
  0
LINE
  5
237C
330
1E
100
AcDbEntity
  8
OBJECT
100
AcDbLine
 10
71.53587029691087
 20
25.97711269984702
 30
0.0
 11
71.71847669409285
 21
25.79450600933509
 31
0.0
  0
ARC
  5
237D
330
1E
100
AcDbEntity
  8
OBJECT
100
AcDbCircle
 10
71.66402958845989
 20
25.74005895473703
 30
0.0
 40
0.0769999999999993
100
AcDbArc
 50
0.0
 51
44.99999999999618
  0
LINE
  5
237E
330
1E
100
AcDbEntity
  8
OBJECT
100
AcDbLine
 10
71.74102966022573
 20
25.74005869164849
 30
0.0
 11
71.74102966022573
 21
25.3622720158724
 31
0.0
  0
ARC
  5
237F
330
1E
100
AcDbEntity
  8
OBJECT
100
AcDbCircle
 10
71.66402958845989
 20
25.36227215817262
 30
0.0
 40
0.0769999999999982
100
AcDbArc
 50
270.0000000000008
 51
0.0
  0
ARC
  5
2380
330
1E
100
AcDbEntity
  8
OBJECT
100
AcDbCircle
 10
71.02202958845987
 20
25.27027215817263
 30
0.0
 40
0.0150000000000006
100
AcDbArc
 50
90.0
 51
180.0
  0
LINE
  5
2381
330
1E
100
AcDbEntity
  8
OBJECT
100
AcDbLine
 10
71.00702955279095
 20
18.37927215782872
 30
0.0
 11
71.00702955279095
 21
25.27027201199763
 31
0.0
  0
LINE
  5
2382
330
1E
100
AcDbEntity
  8
OBJECT
100
AcDbLine
 10
85.95902949379832
 20
25.3622720158724
 30
0.0
 11
85.95902949379832
 21
25.74005869164849
 31
0.0
  0
ARC
  5
2383
330
1E
100
AcDbEntity
  8
OBJECT
100
AcDbCircle
 10
85.97402958845988
 20
25.36227215817262
 30
0.0
 40
0.0150000000000006
100
AcDbArc
 50
180.0
 51
270.0000000000008
  0
ARC
  5
2384
330
1E
100
AcDbEntity
  8
OBJECT
100
AcDbCircle
 10
86.61602958845987
 20
25.27027215817263
 30
0.0
 40
0.0769999999999982
100
AcDbArc
 50
0.0
 51
90.0
  0
LINE
  5
2385
330
1E
100
AcDbEntity
  8
OBJECT
100
AcDbLine
 10
86.69302960123308
 20
25.27027201199763
 30
0.0
 11
86.69302960123308
 21
18.37927215782872
 31
0.0
  0
LINE
  5
2386
330
1E
100
AcDbEntity
  8
OBJECT
100
AcDbLine
 10
86.61602961074356
 20
25.28527231871281
 30
0.0
 11
85.97402950718356
 21
25.28527231871281
 31
0.0
  0
LINE
  5
2387
330
1E
100
AcDbEntity
  8
OBJECT
100
AcDbLine
 10
85.91958248282688
 20
25.79450600933509
 30
0.0
 11
86.10218888000886
 21
25.97711269984702
 31
0.0
  0
ARC
  5
2388
330
1E
100
AcDbEntity
  8
OBJECT
100
AcDbCircle
 10
85.97402958845988
 20
25.74005895473703
 30
0.0
 40
0.0770000000000018
100
AcDbArc
 50
135.0000000000017
 51
180.0
  0
LINE
  5
2389
330
1E
100
AcDbEntity
  8
OBJECT
100
AcDbLine
 10
71.49202949669689
 20
25.93327219296297
 30
0.0
 11
71.53587029691087
 21
25.97711269984702
 31
0.0
  0
ARC
  5
238A
330
1E
100
AcDbEntity
  8
OBJECT
100
AcDbCircle
 10
85.97402958845988
 20
25.36227215817262
 30
0.0
 40
0.0769999999999982
100
AcDbArc
 50
180.0
 51
270.0000000000008
  0
ARC
  5
238B
330
1E
100
AcDbEntity
  8
OBJECT
100
AcDbCircle
 10
86.61602958845987
 20
25.27027215817263
 30
0.0
 40
0.0150000000000006
100
AcDbArc
 50
0.0
 51
90.0
  0
LINE
  5
238C
330
1E
100
AcDbEntity
  8
OBJECT
100
AcDbLine
 10
85.88995850504559
 20
25.74005869164849
 30
0.0
 11
85.88995850504559
 21
25.3622720158724
 31
0.0
  0
LINE
  5
238D
330
1E
100
AcDbEntity
  8
OBJECT
100
AcDbLine
 10
71.74810067187414
 20
25.3622720158724
 30
0.0
 11
71.74810067187414
 21
25.74005869164849
 31
0.0
  0
ARC
  5
238E
330
1E
100
AcDbEntity
  8
OBJECT
100
AcDbCircle
 10
85.96695852064582
 20
25.74005895473703
 30
0.0
 40
0.0770000000000124
100
AcDbArc
 50
134.9999999989627
 51
180.0
  0
ARC
  5
238F
330
1E
100
AcDbEntity
  8
OBJECT
100
AcDbCircle
 10
71.67110065626968
 20
25.74005895473703
 30
0.0
 40
0.0769999999999982
100
AcDbArc
 50
0.0
 51
45.00000000103931
  0
ELLIPSE
  5
2390
330
1E
100
AcDbEntity
  8
OBJECT
100
AcDbEllipse
 10
71.67110065626968
 20
25.74005895473703
 30
0.0
 11
0.0769999999999982
 21
0.0000000000000025
 31
0.0
210
0.0
220
0.0
230
1.0
 40
0.1948051948051065
 41
-0.000000000000169
 42
0.4400780455168292
  0
LINE
  5
2391
330
1E
100
AcDbEntity
  8
OBJECT
100
AcDbLine
 10
71.72554799907121
 20
25.78636786334766
 30
0.0
 11
71.72554799907121
 21
25.79450600933509
 31
0.0
  0
ARC
  5
2392
330
1E
100
AcDbEntity
  8
OBJECT
100
AcDbCircle
 10
85.96695852064582
 20
25.36227215817262
 30
0.0
 40
0.0770000000003677
100
AcDbArc
 50
180.0
 51
270.0000000006668
  0
LINE
  5
2393
330
1E
100
AcDbEntity
  8
OBJECT
100
AcDbLine
 10
71.67110068138462
 20
25.28527231871281
 30
0.0
 11
85.96695849553515
 21
25.28527231871281
 31
0.0
  0
ARC
  5
2394
330
1E
100
AcDbEntity
  8
OBJECT
100
AcDbCircle
 10
71.67110065626968
 20
25.36227215817262
 30
0.0
 40
0.0770000000003535
100
AcDbArc
 50
270.0000000000008
 51
0.0
  0
ELLIPSE
  5
2395
330
1E
100
AcDbEntity
  8
OBJECT
100
AcDbEllipse
 10
71.67110065626968
 20
25.36227215817262
 30
0.0
 11
0.0769999999999982
 21
0.0000000000000024
 31
0.0
210
0.0
220
0.0
230
1.0
 40
0.1948051948053064
 41
-0.4400780411869072
 42
-0.0000000000001588
  0
LINE
  5
2396
330
1E
100
AcDbEntity
  8
OBJECT
100
AcDbLine
 10
71.67110068138462
 20
25.2855973282916
 30
0.0
 11
71.67110068138462
 21
25.28527231871281
 31
0.0
  0
ELLIPSE
  5
2397
330
1E
100
AcDbEntity
  8
OBJECT
100
AcDbEllipse
 10
85.96695852064582
 20
25.36227215817262
 30
0.0
 11
-0.0769999999999982
 21
0.0000000000000023
 31
0.0
210
0.0
220
0.0
230
1.0
 40
0.1948051948052398
 41
0.0000000000001525
 42
0.440078047687603
  0
LINE
  5
2398
330
1E
100
AcDbEntity
  8
OBJECT
100
AcDbLine
 10
85.96695849553515
 20
25.2855973282916
 30
0.0
 11
85.96695849553515
 21
25.28527231871281
 31
0.0
  0
ELLIPSE
  5
2399
330
1E
100
AcDbEntity
  8
OBJECT
100
AcDbEllipse
 10
85.96695852064582
 20
25.74005895473703
 30
0.0
 11
0.0769999999999982
 21
0.000000000000006
 31
0.0
210
0.0
220
0.0
230
1.0
 40
0.1948051948053593
 41
2.701514600654356
 42
3.14159265358939
  0
LINE
  5
239A
330
1E
100
AcDbEntity
  8
OBJECT
100
AcDbLine
 10
85.91251117784853
 20
25.78636786334766
 30
0.0
 11
85.91251117784853
 21
25.79450600933509
 31
0.0
  0
LINE
  5
239B
330
1E
100
AcDbEntity
  8
OBJECT
100
AcDbLine
 10
86.09511786836046
 20
25.97711269984702
 30
0.0
 11
85.91251117784853
 21
25.79450600933509
 31
0.0
  0
LINE
  5
239C
330
1E
100
AcDbEntity
  8
OBJECT
100
AcDbLine
 10
71.72554799907121
 20
25.79450600933509
 30
0.0
 11
71.54294130855928
 21
25.97711269984702
 31
0.0
  0
LINE
  5
239D
330
1E
100
AcDbEntity
  8
OBJECT
100
AcDbLine
 10
71.54294130855928
 20
25.97711269984702
 30
0.0
 11
86.09511786836046
 21
25.97711269984702
 31
0.0
  0
LINE
  5
239E
330
1E
100
AcDbEntity
  8
OBJECT
100
AcDbLine
 10
71.54294130855928
 20
25.97004168819862
 30
0.0
 11
71.54294130855928
 21
25.97711269984702
 31
0.0
  0
LINE
  5
239F
330
1E
100
AcDbEntity
  8
OBJECT
100
AcDbLine
 10
86.09511786836046
 20
25.97004168819862
 30
0.0
 11
86.09511786836046
 21
25.97711269984702
 31
0.0
  0
LINE
  5
23A0
330
1E
100
AcDbEntity
  8
OBJECT
100
AcDbLine
 10
71.6640296697362
 20
25.28527231871281
 30
0.0
 11
71.67110068138462
 21
25.28527231871281
 31
0.0
  0
LINE
  5
23A1
330
1E
100
AcDbEntity
  8
OBJECT
100
AcDbLine
 10
85.96695849553515
 20
25.28527231871281
 30
0.0
 11
85.97402950718356
 21
25.28527231871281
 31
0.0
  0
ARC
  5
23A6
330
1E
100
AcDbEntity
  8
OBJECT
100
AcDbCircle
 10
86.60895852064635
 20
25.27027215817263
 30
0.0
 40
0.0150000000000077
100
AcDbArc
 50
0.0
 51
89.99999999861582
  0
ARC
  5
23A7
330
1E
100
AcDbEntity
  8
OBJECT
100
AcDbCircle
 10
71.02910065626915
 20
25.27027215817263
 30
0.0
 40
0.0150000000000006
100
AcDbArc
 50
90.00000000138419
 51
180.0
  0
ELLIPSE
  5
23A8
330
1E
100
AcDbEntity
  8
OBJECT
100
AcDbEllipse
 10
71.02910065626915
 20
25.27027215817263
 30
0.0
 11
-0.000000000000026
 21
0.0769999999990238
 31
0.0
210
0.0
220
0.0
230
1.0
 40
0.1948051948077641
 41
1.402971571240007
 42
1.57079632679483
  0
ELLIPSE
  5
23A9
330
1E
100
AcDbEntity
  8
OBJECT
100
AcDbEllipse
 10
86.60895852064635
 20
25.27027215817263
 30
0.0
 11
-0.0000000000000119
 21
0.0770000000007891
 31
0.0
210
0.0
220
0.0
230
1.0
 40
0.194805194803298
 41
4.712388980384659
 42
4.880213866133783
  0
ARC
  5
23AC
330
1E
100
AcDbEntity
  8
OBJECT
100
AcDbCircle
 10
71.19902958845989
 20
25.76827215817263
 30
0.0
 40
0.1559999999999987
100
AcDbArc
 50
6.547541713031574
 51
295.3314025650474
  0
LINE
  5
23AD
330
1E
100
AcDbEntity
  8
OBJECT
100
AcDbLine
 10
71.35401218441799
 20
25.78606060547009
 30
0.0
 11
71.29539694154627
 21
25.77933278985706
 31
0.0
  0
ARC
  5
23AE
330
1E
100
AcDbEntity
  8
OBJECT
100
AcDbCircle
 10
71.19902958845989
 20
25.76827215817263
 30
0.0
 40
0.0970000000000038
100
AcDbArc
 50
6.547541713029956
 51
295.3314025650483
  0
ARC
  5
23AF
330
1E
100
AcDbEntity
  8
OBJECT
100
AcDbCircle
 10
71.55328897984884
 20
25.6625315495616
 30
0.0
 40
0.1257406086110322
100
AcDbArc
 50
0.0
 51
115.3314025650473
  0
ARC
  5
23B0
330
1E
100
AcDbEntity
  8
OBJECT
100
AcDbCircle
 10
71.55328897984884
 20
25.6625315495616
 30
0.0
 40
0.0667406086110347
100
AcDbArc
 50
0.0
 51
115.3314025650501
  0
LINE
  5
23B1
330
1E
100
AcDbEntity
  8
OBJECT
100
AcDbLine
 10
71.49949034384187
 20
25.77618168768589
 30
0.0
 11
71.24053133535844
 21
25.68059910377036
 31
0.0
  0
LINE
  5
23B2
330
1E
100
AcDbEntity
  8
OBJECT
100
AcDbLine
 10
71.5247337322281
 20
25.72285489038828
 30
0.0
 11
71.26577472374467
 21
25.62727171981285
 31
0.0
  0
LINE
  5
23B3
330
1E
100
AcDbEntity
  8
OBJECT
100
AcDbLine
 10
71.21802970196589
 20
25.40627209424641
 30
0.0
 11
71.21802970196589
 21
25.34727229581712
 31
0.0
  0
LINE
  5
23B4
330
1E
100
AcDbEntity
  8
OBJECT
100
AcDbLine
 10
71.21802970196589
 20
25.40627209424641
 30
0.0
 11
71.60502957797698
 21
25.40627209424641
 31
0.0
  0
LINE
  5
23B5
330
1E
100
AcDbEntity
  8
OBJECT
100
AcDbLine
 10
71.6200295913622
 20
25.42127240096158
 30
0.0
 11
71.6200295913622
 21
25.66253158724822
 31
0.0
  0
ARC
  5
23B6
330
1E
100
AcDbEntity
  8
OBJECT
100
AcDbCircle
 10
71.60502958845987
 20
25.42127215817262
 30
0.0
 40
0.0740000000000052
100
AcDbArc
 50
270.0000000000008
 51
0.0
  0
ARC
  5
23B7
330
1E
100
AcDbEntity
  8
OBJECT
100
AcDbCircle
 10
71.60502958845987
 20
25.42127215817262
 30
0.0
 40
0.0150000000000077
100
AcDbArc
 50
270.0000000000008
 51
0.0
  0
LINE
  5
23B8
330
1E
100
AcDbEntity
  8
OBJECT
100
AcDbLine
 10
71.0220295661762
 20
25.34727229581712
 30
0.0
 11
71.0220295661762
 21
25.40627209424641
 31
0.0
  0
LINE
  5
23B9
330
1E
100
AcDbEntity
  8
OBJECT
100
AcDbLine
 10
71.0220295661762
 20
25.40627209424641
 30
0.0
 11
71.21802970196589
 21
25.40627209424641
 31
0.0
  0
CIRCLE
  5
23BA
330
1E
100
AcDbEntity
  8
OBJECT
100
AcDbCircle
 10
72.75702958845989
 20
23.78527215817261
 30
0.0
 40
0.1180000000000021
  0
CIRCLE
  5
23BB
330
1E
100
AcDbEntity
  8
OBJECT
100
AcDbCircle
 10
72.75702958845989
 20
23.78527215817261
 30
0.0
 40
0.1439999999999983
  0
DIMENSION
  5
244A
330
1E
100
AcDbEntity
  8
DIM
100
AcDbDimension
  2
*D0
 10
46.09225223659345
 20
51.5342862054072
 30
0.0
 11
42.03651163446463
 21
51.5342862054072
 31
0.0
 70
   160
  1
"C"
 71
     5
 42
7.865599767438638
  3
23NSTD
100
AcDbAlignedDimension
 13
38.22665246915481
 23
48.59064097145285
 33
0.0
 14
46.09225223659345
 24
48.58398316935908
 34
0.0
 50
180.0
100
AcDbRotatedDimension
  0
DIMENSION
  5
2458
330
1E
100
AcDbEntity
  8
DIM
100
AcDbDimension
  2
*D1
 10
23.15431224957567
 20
52.40924960895284
 30
0.0
 11
15.35364271254309
 21
52.40924960895284
 31
0.0
 70
   160
  1
"B"
 71
     5
 42
15.74756443057848
  3
23NSTD
100
AcDbAlignedDimension
 13
7.406747818997185
 23
48.58398304817111
 33
0.0
 14
23.15431224957567
 24
48.59216196702087
 34
0.0
100
AcDbRotatedDimension
  0
DIMENSION
  5
2466
330
1E
100
AcDbEntity
  8
DIM
100
AcDbDimension
  2
*D2
 10
4.890000272351589
 20
32.91323338294458
 30
0.0
 11
4.890000272351585
 21
41.00407355443695
 31
0.0
 70
   160
  1
"A"
 71
     5
 42
15.74774965571606
  3
23NSTD
100
AcDbAlignedDimension
 13
7.483747809486711
 23
48.66098303866064
 33
0.0
 14
7.483747809486711
 24
32.91323338294458
 34
0.0
 50
90.0
100
AcDbRotatedDimension
  0
DIMENSION
  5
2515
330
1E
100
AcDbEntity
  8
DIM
100
AcDbDimension
  2
*D3
 10
83.16741272279001
 20
34.31519787708963
 30
0.0
 11
83.16741272279001
 21
40.71289787708965
 31
0.0
 70
   160
  1
"J"
 71
     5
 42
12.79540000000001
  3
23NSTD
100
AcDbAlignedDimension
 13
85.21672958845988
 23
47.11059787708964
 33
0.0
 14
85.21672958845988
 24
34.31519787708963
 34
0.0
 50
90.0
100
AcDbRotatedDimension
  0
DIMENSION
  5
2523
330
1E
100
AcDbEntity
  8
DIM
100
AcDbDimension
  2
*D4
 10
72.42132958845989
 20
36.39138910128213
 30
0.0
 11
78.86072239091692
 21
36.39138910128213
 31
0.0
 70
   160
  1
"K"
 71
     5
 42
12.7954
  3
23NSTD
100
AcDbAlignedDimension
 13
85.21672958845988
 23
34.31519787708963
 33
0.0
 14
72.42132958845989
 24
34.31519787708963
 34
0.0
100
AcDbRotatedDimension
  0
DIMENSION
  5
2715
330
1E
100
AcDbEntity
  8
DIM
100
AcDbDimension
  2
*D5
 10
77.47387929780962
 20
25.28527231871281
 30
0.0
 11
77.47387929780962
 21
24.53527223844273
 31
0.0
 70
   160
  1
<> INSIDE
 71
     5
 42
1.500000160540196
  3
23NSTD
100
AcDbAlignedDimension
 13
72.75702958845989
 23
23.78527215817261
 33
0.0
 14
76.43114787068455
 24
25.28527231871281
 34
0.0
 50
90.0
100
AcDbRotatedDimension
  0
DIMENSION
  5
2752
330
1E
100
AcDbEntity
  8
DIM
100
AcDbDimension
  2
*D6
 10
71.00702955279095
 20
22.7615646922382
 30
0.0
 11
66.12577955279096
 21
22.7615646922382
 31
0.0
 70
   160
  1
<>\PINSIDE
 71
     5
 42
1.750000035668932
  3
23NSTD
100
AcDbAlignedDimension
 13
72.75702958845989
 23
23.78527215817261
 33
0.0
 14
71.00702955279095
 24
22.90761751022762
 34
0.0
100
AcDbRotatedDimension
  0
TEXT
  5
2C3A
330
1E
100
AcDbEntity
  8
TEXT
100
AcDbText
 10
74.92916398172159
 20
29.65540047759514
 30
0.0
 40
0.6881009615569953
  1
%%U(COVER NOT SHOWN)
 41
0.75
 72
     1
 11
79.23839625347227
 21
29.65540047759514
 31
0.0
100
AcDbText
  0
TEXT
  5
2C64
330
1E
100
AcDbEntity
  8
TEXT
100
AcDbText
 10
75.97310504878667
 20
16.86253162260921
 30
0.0
 40
0.6881009615569953
  1
%%USECTION "A-A"
 41
0.75
 72
     1
 11
78.99214801761798
 21
16.86253162260921
 31
0.0
100
AcDbText
  0
HATCH
  5
3785
330
1E
100
AcDbEntity
  8
0
  6
Continuous
 62
     7
 48
8.0
370
     0
100
AcDbHatch
 10
0.0
 20
0.0
 30
0.0
210
0.0
220
0.0
230
1.0
  2
ANSI31
 70
     0
 71
     0
 91
        1
 92
        0
 93
        5
 72
     4
 94
        3
 73
     1
 74
     0
 95
        8
 96
        4
 40
0.7349931430247101
 40
0.7349931430247101
 40
0.7349931430247101
 40
0.7349931430247101
 40
0.736934666557163
 40
0.736934666557163
 40
0.736934666557163
 40
0.736934666557163
 10
89.72480124489448
 20
40.86123285157708
 42
1.0
 10
89.70408871089338
 20
40.85826270497824
 42
1.0
 10
89.68341904418654
 20
40.85508740025923
 42
1.0
 10
89.66280124489447
 20
40.85168950325569
 42
1.0
 72
     4
 94
        3
 73
     1
 74
     0
 95
       20
 96
       16
 40
0.0
 40
0.0
 40
0.0
 40
0.0
 40
0.0000790804161453
 40
0.0000790804161453
 40
0.0000790804161453
 40
0.0002087414410477
 40
0.0002087414410477
 40
0.0002087414410477
 40
0.0003401720995243
 40
0.0003401720995243
 40
0.0003401720995243
 40
0.0004725221214526
 40
0.0004725221214526
 40
0.0004725221214526
 40
0.0006048147960978
 40
0.0006048147960978
 40
0.0006048147960978
 40
0.0006048147960978
 10
89.66280124489449
 20
40.85168950325569
 42
1.0
 10
89.66280124489449
 20
40.85168950325569
 42
1.0
 10
89.66269231824382
 20
40.85167155786142
 42
1.0
 10
89.66247823031318
 20
40.85163625022754
 42
1.0
 10
89.66213040386875
 20
40.85157888628029
 42
1.0
 10
89.66149198723321
 20
40.85147355976281
 42
1.0
 10
89.66061949837806
 20
40.85132907885427
 42
1.0
 10
89.65973524558521
 20
40.85118264988142
 42
1.0
 10
89.65858561341827
 20
40.8509918375149
 42
1.0
 10
89.65727135163026
 20
40.85077259589902
 42
1.0
 10
89.65594781606339
 20
40.85055180725628
 42
1.0
 10
89.65442012239448
 20
40.8502959449576
 42
1.0
 10
89.65281840022463
 20
40.85002613296995
 42
1.0
 10
89.65121706766167
 20
40.84975638661204
 42
1.0
 10
89.64949730205486
 20
40.84946518928456
 42
1.0
 10
89.64780124489449
 20
40.84917634106896
 42
1.0
 72
     4
 94
        3
 73
     1
 74
     0
 95
        9
 96
        5
 40
0.7374057949458102
 40
0.7374057949458102
 40
0.7374057949458102
 40
0.7374057949458102
 40
0.7455177954903443
 40
0.7574304658614601
 40
0.7574304658614601
 40
0.7574304658614601
 40
0.7574304658614601
 10
89.64780124489449
 20
40.84917634106896
 42
1.0
 10
89.56176411974363
 20
40.83452372755149
 42
1.0
 10
89.35170862382173
 20
40.78857888789643
 42
1.0
 10
89.15140309691656
 20
40.71075668677544
 42
1.0
 10
89.03480124489448
 20
40.65901738560945
 42
1.0
 72
     4
 94
        3
 73
     1
 74
     0
 95
        9
 96
        5
 40
0.2425695341155246
 40
0.2425695341155246
 40
0.2425695341155246
 40
0.2425695341155246
 40
0.2544822045096557
 40
0.2625942050541963
 40
0.2625942050541963
 40
0.2625942050541963
 40
0.2625942050541963
 10
89.03480124421866
 20
40.65901738530956
 42
1.0
 10
89.15140309645611
 20
40.71075668659656
 42
1.0
 10
89.35170862358038
 20
40.78857888784365
 42
1.0
 10
89.56176411974377
 20
40.83452372755153
 42
1.0
 10
89.64780124489468
 20
40.849176341069
 42
1.0
 72
     4
 94
        3
 73
     1
 74
     0
 95
       20
 96
       16
 40
0.0000000000000009
 40
0.0000000000000009
 40
0.0000000000000009
 40
0.0000000000000009
 40
0.0006712718123127
 40
0.0006712718123127
 40
0.0006712718123127
 40
0.0013428937090786
 40
0.0013428937090786
 40
0.0013428937090786
 40
0.0020091475444759
 40
0.0020091475444759
 40
0.0020091475444759
 40
0.0026675343558935
 40
0.0026675343558935
 40
0.0026675343558935
 40
0.0030744696745827
 40
0.0030744696745827
 40
0.0030744696745827
 40
0.0030744696745827
 10
89.64780124489449
 20
40.84917634106896
 42
1.0
 10
89.65648554655565
 20
40.85065532721229
 42
1.0
 10
89.66529736883197
 20
40.85211181157462
 42
1.0
 10
89.67350734275697
 20
40.85343325292593
 42
1.0
 10
89.68171979048049
 20
40.854755092449
 42
1.0
 10
89.68955753828458
 20
40.85597905376236
 42
1.0
 10
89.69634962380965
 20
40.85701796443176
 42
1.0
 10
89.70308745241851
 20
40.85804857601702
 42
1.0
 10
89.7089839778275
 20
40.85892670624124
 42
1.0
 10
89.71352504249813
 20
40.85959485693672
 42
1.0
 10
89.71801327282911
 20
40.86025523383832
 42
1.0
 10
89.7213022849869
 20
40.86072962762806
 42
1.0
 10
89.72310498457526
 20
40.8609891375359
 42
1.0
 10
89.72422920000701
 20
40.86115097539561
 42
1.0
 10
89.72480124489448
 20
40.86123285157708
 42
1.0
 10
89.72480124489448
 20
40.86123285157708
 42
1.0
 97
        0
 75
     0
 76
     1
 52
0.0
 41
8.0
 77
     0
 78
     1
 53
45.0
 43
70.0870439685983
 44
6.223750153624379
 45
-0.7071067811865475
 46
0.7071067811865476
 79
     0
 98
        1
 10
70.0870439685983
 20
6.223750153624379
  0
HATCH
  5
3787
330
1E
100
AcDbEntity
  8
0
  6
Continuous
 62
     7
 48
8.0
370
     0
100
AcDbHatch
 10
0.0
 20
0.0
 30
0.0
210
0.0
220
0.0
230
1.0
  2
ANSI31
 70
     0
 71
     0
 91
        1
 92
        0
 93
        2
 72
     4
 94
        3
 73
     1
 74
     0
 95
        9
 96
        5
 40
0.7369346665571629
 40
0.7369346665571629
 40
0.7369346665571629
 40
0.7369346665571629
 40
0.7455177954903443
 40
0.7489577298141489
 40
0.7489577298141489
 40
0.7489577298141489
 40
0.7489577298141489
 10
89.66280124489449
 20
40.85168950325569
 42
1.0
 10
89.5716536349458
 20
40.83666800720094
 42
1.0
 10
89.44539595446519
 20
40.80953245414394
 42
1.0
 10
89.32265309103469
 20
40.77090526522638
 42
1.0
 10
89.28780124489447
 20
40.75905347274095
 42
1.0
 72
     4
 94
        3
 73
     1
 74
     0
 95
        9
 96
        5
 40
0.251042270183736
 40
0.251042270183736
 40
0.251042270183736
 40
0.251042270183736
 40
0.2544822045096557
 40
0.263065333442837
 40
0.263065333442837
 40
0.263065333442837
 40
0.263065333442837
 10
89.28780124483019
 20
40.75905347271908
 42
1.0
 10
89.32265309099149
 20
40.7709052652128
 42
1.0
 10
89.44539595444298
 20
40.80953245413916
 42
1.0
 10
89.5716536349458
 20
40.83666800720094
 42
1.0
 10
89.66280124489449
 20
40.85168950325569
 42
1.0
 97
        0
 75
     0
 76
     1
 52
0.0
 41
8.0
 77
     0
 78
     1
 53
45.0
 43
70.0870439685983
 44
6.223750153624379
 45
-0.7071067811865475
 46
0.7071067811865476
 79
     0
 98
        1
 10
70.0870439685983
 20
6.223750153624379
  0
HATCH
  5
378A
330
1E
100
AcDbEntity
  8
0
  6
Continuous
 62
     7
 48
8.0
370
     0
100
AcDbHatch
 10
0.0
 20
0.0
 30
0.0
210
0.0
220
0.0
230
1.0
  2
ANSI31
 70
     0
 71
     0
 91
        1
 92
        0
 93
        2
 72
     4
 94
        3
 73
     1
 74
     0
 95
        8
 96
        4
 40
0.9232390971773888
 40
0.9232390971773888
 40
0.9232390971773888
 40
0.9232390971773888
 40
0.9259687288161472
 40
0.9259687288161472
 40
0.9259687288161472
 40
0.9259687288161472
 10
84.25480124534706
 20
40.16977736242899
 42
1.0
 10
84.22874139137745
 20
40.16533119677271
 42
1.0
 10
84.20274023518356
 20
40.16156657305155
 42
1.0
 10
84.17680124489487
 20
40.15855885338356
 42
1.0
 72
     4
 94
        3
 73
     1
 74
     0
 95
        8
 96
        4
 40
0.0740312711838542
 40
0.0740312711838542
 40
0.0740312711838542
 40
0.0740312711838542
 40
0.0767609028226086
 40
0.0767609028226086
 40
0.0767609028226086
 40
0.0767609028226086
 10
84.17680124489491
 20
40.15855885338357
 42
1.0
 10
84.20274023518356
 20
40.16156657305155
 42
1.0
 10
84.22874139137741
 20
40.16533119677271
 42
1.0
 10
84.25480124534699
 20
40.16977736242897
 42
1.0
 97
        0
 75
     0
 76
     1
 52
0.0
 41
8.0
 77
     0
 78
     1
 53
45.0
 43
70.0870439685983
 44
6.223750153624379
 45
-0.7071067811865475
 46
0.7071067811865476
 79
     0
 98
        1
 10
70.0870439685983
 20
6.223750153624379
  0
LINE
  5
378C
330
1E
100
AcDbEntity
  8
OBJECT
100
AcDbLine
 10
71.04302964358152
 20
35.67514794229618
 30
0.0
 11
71.04302964358152
 21
35.20264796065629
 31
0.0
  0
LINE
  5
378D
330
1E
100
AcDbEntity
  8
OBJECT
100
AcDbLine
 10
71.04302964358152
 20
34.21864802124088
 30
0.0
 11
71.04302964358152
 21
33.74614774627104
 31
0.0
  0
LINE
  5
378E
330
1E
100
AcDbEntity
  8
OBJECT
100
AcDbLine
 10
71.04302964358152
 20
47.68014800790822
 30
0.0
 11
71.04302964358152
 21
47.20764773293838
 31
0.0
  0
LINE
  5
378F
330
1E
100
AcDbEntity
  8
OBJECT
100
AcDbLine
 10
71.04302964358152
 20
46.22364779352298
 30
0.0
 11
71.04302964358152
 21
45.7511478118831
 31
0.0
  0
LINE
  5
3798
330
1E
100
AcDbEntity
  8
OBJECT
100
AcDbLine
 10
84.5837796208022
 20
47.48794796155289
 30
0.0
 11
85.01977953076069
 21
47.48794796155289
 31
0.0
  0
LINE
  5
3799
330
1E
100
AcDbEntity
  8
OBJECT
100
AcDbLine
 10
85.01977953076069
 20
47.48794796155289
 30
0.0
 11
85.01977953076069
 21
47.11094799668865
 31
0.0
  0
ARC
  5
379A
330
1E
100
AcDbEntity
  8
OBJECT
100
AcDbCircle
 10
85.21677958845987
 20
47.11094787708964
 30
0.0
 40
0.1970000000000027
100
AcDbArc
 50
180.0
 51
0.0
  0
LINE
  5
379B
330
1E
100
AcDbEntity
  8
OBJECT
100
AcDbLine
 10
85.41377957923854
 20
47.11094799668865
 30
0.0
 11
85.41377957923854
 21
47.25394781140926
 31
0.0
  0
LINE
  5
379C
330
1E
100
AcDbEntity
  8
OBJECT
100
AcDbLine
 10
85.41377957923854
 20
47.25394781140926
 30
0.0
 11
85.58377953538453
 21
47.25394781140926
 31
0.0
  0
LINE
  5
379D
330
1E
100
AcDbEntity
  8
OBJECT
100
AcDbLine
 10
85.70877945137482
 20
34.29734785876032
 30
0.0
 11
85.70877945137482
 21
47.12894789541896
 31
0.0
  0
LINE
  5
379E
330
1E
100
AcDbEntity
  8
OBJECT
100
AcDbLine
 10
85.58377953538453
 20
34.17234794277002
 30
0.0
 11
85.70877945137482
 21
34.29734785876032
 31
0.0
  0
LINE
  5
379F
330
1E
100
AcDbEntity
  8
OBJECT
100
AcDbLine
 10
85.41377957923854
 20
34.17234794277002
 30
0.0
 11
85.58377953538453
 21
34.17234794277002
 31
0.0
  0
LINE
  5
37A0
330
1E
100
AcDbEntity
  8
OBJECT
100
AcDbLine
 10
85.41377957923854
 20
34.31534775749061
 30
0.0
 11
85.41377957923854
 21
34.17234794277002
 31
0.0
  0
ARC
  5
37A1
330
1E
100
AcDbEntity
  8
OBJECT
100
AcDbCircle
 10
85.21677958845987
 20
34.31534787708963
 30
0.0
 40
0.1970000000000027
100
AcDbArc
 50
0.0
 51
180.0
  0
LINE
  5
37A2
330
1E
100
AcDbEntity
  8
OBJECT
100
AcDbLine
 10
85.01977953076069
 20
33.93834779262638
 30
0.0
 11
85.01977953076069
 21
34.31534775749061
 31
0.0
  0
LINE
  5
37A3
330
1E
100
AcDbEntity
  8
OBJECT
100
AcDbLine
 10
84.5837796208022
 20
33.93834779262638
 30
0.0
 11
85.01977953076069
 21
33.93834779262638
 31
0.0
  0
LINE
  5
37A4
330
1E
100
AcDbEntity
  8
OBJECT
100
AcDbLine
 10
84.5837796208022
 20
33.65334783163692
 30
0.0
 11
84.5837796208022
 21
33.93834779262638
 31
0.0
  0
LINE
  5
37A5
330
1E
100
AcDbEntity
  8
HIDDEN
100
AcDbLine
 10
84.38444390876981
 20
33.45401211960435
 30
0.0
 11
84.5837796208022
 21
33.65334783163692
 31
0.0
  0
LINE
  5
37A6
330
1E
100
AcDbEntity
  8
HIDDEN
100
AcDbLine
 10
73.05427955611756
 20
33.65334783163692
 30
0.0
 11
73.25361526814996
 21
33.45401211960435
 31
0.0
  0
LINE
  5
37A7
330
1E
100
AcDbEntity
  8
OBJECT
100
AcDbLine
 10
73.05427955611756
 20
33.65334783163692
 30
0.0
 11
73.05427955611756
 21
33.93834779262638
 31
0.0
  0
LINE
  5
37A8
330
1E
100
AcDbEntity
  8
OBJECT
100
AcDbLine
 10
73.05427955611756
 20
33.93834779262638
 30
0.0
 11
72.61827964615907
 21
33.93834779262638
 31
0.0
  0
ARC
  5
37A9
330
1E
100
AcDbEntity
  8
OBJECT
100
AcDbCircle
 10
72.4212795884599
 20
34.31534787708963
 30
0.0
 40
0.1970000000000027
100
AcDbArc
 50
0.0
 51
180.0
  0
LINE
  5
37AA
330
1E
100
AcDbEntity
  8
OBJECT
100
AcDbLine
 10
72.22427959768123
 20
34.31534775749061
 30
0.0
 11
72.22427959768123
 21
34.17234794277002
 31
0.0
  0
LINE
  5
37AB
330
1E
100
AcDbEntity
  8
OBJECT
100
AcDbLine
 10
72.22427959768123
 20
34.17234794277002
 30
0.0
 11
72.05427964153523
 21
34.17234794277002
 31
0.0
  0
LINE
  5
37AC
330
1E
100
AcDbEntity
  8
OBJECT
100
AcDbLine
 10
71.92927972554494
 20
34.29734785876032
 30
0.0
 11
72.05427964153523
 21
34.17234794277002
 31
0.0
  0
LINE
  5
37AD
330
1E
100
AcDbEntity
  8
OBJECT
100
AcDbLine
 10
71.92927972554494
 20
47.12894789541896
 30
0.0
 11
71.92927972554494
 21
34.29734785876032
 31
0.0
  0
LINE
  5
37AE
330
1E
100
AcDbEntity
  8
OBJECT
100
AcDbLine
 10
72.05427964153523
 20
47.25394781140926
 30
0.0
 11
71.92927972554494
 21
47.12894789541896
 31
0.0
  0
LINE
  5
37AF
330
1E
100
AcDbEntity
  8
OBJECT
100
AcDbLine
 10
72.22427959768123
 20
47.25394781140926
 30
0.0
 11
72.05427964153523
 21
47.25394781140926
 31
0.0
  0
LINE
  5
37B0
330
1E
100
AcDbEntity
  8
OBJECT
100
AcDbLine
 10
72.22427959768123
 20
47.11094799668865
 30
0.0
 11
72.22427959768123
 21
47.25394781140926
 31
0.0
  0
ARC
  5
37B1
330
1E
100
AcDbEntity
  8
OBJECT
100
AcDbCircle
 10
72.4212795884599
 20
47.11094787708964
 30
0.0
 40
0.1970000000000027
100
AcDbArc
 50
180.0
 51
0.0
  0
LINE
  5
37B2
330
1E
100
AcDbEntity
  8
OBJECT
100
AcDbLine
 10
72.61827964615907
 20
47.48794796155289
 30
0.0
 11
72.61827964615907
 21
47.11094799668865
 31
0.0
  0
LINE
  5
37B3
330
1E
100
AcDbEntity
  8
OBJECT
100
AcDbLine
 10
73.05427955611756
 20
47.48794796155289
 30
0.0
 11
72.61827964615907
 21
47.48794796155289
 31
0.0
  0
LINE
  5
37B4
330
1E
100
AcDbEntity
  8
HIDDEN
100
AcDbLine
 10
73.25361526815012
 20
47.97228363457492
 30
0.0
 11
73.05427955611756
 21
47.77294792254235
 31
0.0
  0
LINE
  5
37BA
330
1E
100
AcDbEntity
  8
OBJECT
100
AcDbLine
 10
73.05427955611756
 20
47.77294792254235
 30
0.0
 11
73.05427955611756
 21
47.48794796155289
 31
0.0
  0
LINE
  5
37BC
330
1E
100
AcDbEntity
  8
OBJECT
100
AcDbLine
 10
72.61827964615907
 20
33.93834779262638
 30
0.0
 11
72.61827964615907
 21
34.31534775749061
 31
0.0
  0
LINE
  5
37BD
330
1E
100
AcDbEntity
  8
HIDDEN
100
AcDbLine
 10
84.5837796208022
 20
47.77294792254235
 30
0.0
 11
84.38444390876965
 21
47.97228363457492
 31
0.0
  0
LINE
  5
37BF
330
1E
100
AcDbEntity
  8
OBJECT
100
AcDbLine
 10
84.5837796208022
 20
47.77294792254235
 30
0.0
 11
84.5837796208022
 21
47.48794796155289
 31
0.0
  0
LINE
  5
37C0
330
1E
100
AcDbEntity
  8
OBJECT
100
AcDbLine
 10
85.70877945137482
 20
47.12894789541896
 30
0.0
 11
85.58377953538453
 21
47.25394781140926
 31
0.0
  0
CIRCLE
  5
37C2
330
1E
100
AcDbEntity
  8
OBJECT
100
AcDbCircle
 10
72.42132958845989
 20
47.11059787708964
 30
0.0
 40
0.1574999999999989
  0
ARC
  5
37C3
330
1E
100
AcDbEntity
  8
OBJECT
100
AcDbCircle
 10
72.42132958845989
 20
47.11059787708964
 30
0.0
 40
0.2800000000000011
100
AcDbArc
 50
45.30014877449314
 51
90.0
  0
ARC
  5
37C4
330
1E
100
AcDbEntity
  8
OBJECT
100
AcDbCircle
 10
72.42132958845989
 20
47.11059787708964
 30
0.0
 40
0.2800000000000011
100
AcDbArc
 50
90.0
 51
149.2052413753899
  0
CIRCLE
  5
37C5
330
1E
100
AcDbEntity
  8
OBJECT
100
AcDbCircle
 10
72.42132958845989
 20
34.31569787708963
 30
0.0
 40
0.1574999999999989
  0
ARC
  5
37C6
330
1E
100
AcDbEntity
  8
OBJECT
100
AcDbCircle
 10
72.42132958845989
 20
34.31569787708963
 30
0.0
 40
0.2800000000000002
100
AcDbArc
 50
210.7947586246111
 51
314.699851225508
  0
CIRCLE
  5
37C7
330
1E
100
AcDbEntity
  8
OBJECT
100
AcDbCircle
 10
85.21672958845988
 20
34.31569787708963
 30
0.0
 40
0.1575000000000024
  0
ARC
  5
37C8
330
1E
100
AcDbEntity
  8
OBJECT
100
AcDbCircle
 10
85.21672958845988
 20
34.31569787708963
 30
0.0
 40
0.2800000000000021
100
AcDbArc
 50
225.300148774493
 51
270.0000000000008
  0
ARC
  5
37C9
330
1E
100
AcDbEntity
  8
OBJECT
100
AcDbCircle
 10
85.21672958845988
 20
34.31569787708963
 30
0.0
 40
0.2800000000000011
100
AcDbArc
 50
270.0000000000008
 51
329.205241375389
  0
CIRCLE
  5
37CA
330
1E
100
AcDbEntity
  8
OBJECT
100
AcDbCircle
 10
85.21672958845988
 20
47.11059787708964
 30
0.0
 40
0.1574999999999989
  0
ARC
  5
37CB
330
1E
100
AcDbEntity
  8
OBJECT
100
AcDbCircle
 10
85.21672958845988
 20
47.11059787708964
 30
0.0
 40
0.2800000000000011
100
AcDbArc
 50
30.79475862461109
 51
90.0
  0
ARC
  5
37CC
330
1E
100
AcDbEntity
  8
OBJECT
100
AcDbCircle
 10
85.21672958845988
 20
47.11059787708964
 30
0.0
 40
0.2800000000000021
100
AcDbArc
 50
90.0
 51
134.6998512255079
  0
LINE
  5
37CD
330
1E
100
AcDbEntity
  8
OBJECT
100
AcDbLine
 10
71.04302964358152
 20
35.67514794229618
 30
0.0
 11
71.35401218441799
 21
35.67514794229618
 31
0.0
  0
LINE
  5
37CE
330
1E
100
AcDbEntity
  8
OBJECT
100
AcDbLine
 10
71.35401218441799
 20
35.20264796065629
 30
0.0
 11
71.35401218441799
 21
35.67514794229618
 31
0.0
  0
LINE
  5
37CF
330
1E
100
AcDbEntity
  8
OBJECT
100
AcDbLine
 10
71.35401218441799
 20
35.20264796065629
 30
0.0
 11
71.04302964358152
 21
35.20264796065629
 31
0.0
  0
LINE
  5
37D0
330
1E
100
AcDbEntity
  8
OBJECT
100
AcDbLine
 10
71.35401218441799
 20
33.74614774627104
 30
0.0
 11
71.35401218441799
 21
34.21864802124088
 31
0.0
  0
LINE
  5
37D1
330
1E
100
AcDbEntity
  8
OBJECT
100
AcDbLine
 10
71.04302964358152
 20
34.21864802124088
 30
0.0
 11
71.35401218441799
 21
34.21864802124088
 31
0.0
  0
LINE
  5
37D2
330
1E
100
AcDbEntity
  8
OBJECT
100
AcDbLine
 10
71.04302964358152
 20
33.74614774627104
 30
0.0
 11
71.35401218441799
 21
33.74614774627104
 31
0.0
  0
LINE
  5
37D3
330
1E
100
AcDbEntity
  8
OBJECT
100
AcDbLine
 10
71.44202964763275
 20
35.20264796065629
 30
0.0
 11
71.44202964763275
 21
34.21864802124088
 31
0.0
  0
LINE
  5
37D4
330
1E
100
AcDbEntity
  8
OBJECT
100
AcDbLine
 10
71.35401218441799
 20
35.20264796065629
 30
0.0
 11
71.44202964763275
 21
35.20264796065629
 31
0.0
  0
LINE
  5
37D5
330
1E
100
AcDbEntity
  8
OBJECT
100
AcDbLine
 10
71.44202964763275
 20
34.21864802124088
 30
0.0
 11
71.35401218441799
 21
34.21864802124088
 31
0.0
  0
LINE
  5
37D6
330
1E
100
AcDbEntity
  8
OBJECT
100
AcDbLine
 10
71.49202949669689
 20
35.67514794229618
 30
0.0
 11
71.35401218441799
 21
35.67514794229618
 31
0.0
  0
LINE
  5
37D7
330
1E
100
AcDbEntity
  8
OBJECT
100
AcDbLine
 10
71.49202949669689
 20
33.74614774627104
 30
0.0
 11
71.35401218441799
 21
33.74614774627104
 31
0.0
  0
LINE
  5
37D8
330
1E
100
AcDbEntity
  8
OBJECT
100
AcDbLine
 10
71.04302964358152
 20
35.50014788391178
 30
0.0
 11
71.0220295661762
 21
35.47914780650647
 31
0.0
  0
LINE
  5
37D9
330
1E
100
AcDbEntity
  8
OBJECT
100
AcDbLine
 10
71.0220295661762
 20
33.94214788206075
 30
0.0
 11
71.04302964358152
 21
33.92114780465544
 31
0.0
  0
LINE
  5
37DA
330
1E
100
AcDbEntity
  8
OBJECT
100
AcDbLine
 10
71.0220295661762
 20
33.94214788206075
 30
0.0
 11
71.0220295661762
 21
35.47914780650647
 31
0.0
  0
LINE
  5
37DB
330
1E
100
AcDbEntity
  8
OBJECT
100
AcDbLine
 10
71.04302964358152
 20
47.68014800790822
 30
0.0
 11
71.35401218441799
 21
47.68014800790822
 31
0.0
  0
LINE
  5
37DC
330
1E
100
AcDbEntity
  8
OBJECT
100
AcDbLine
 10
71.35401218441799
 20
47.20764773293838
 30
0.0
 11
71.35401218441799
 21
47.68014800790822
 31
0.0
  0
LINE
  5
37DD
330
1E
100
AcDbEntity
  8
OBJECT
100
AcDbLine
 10
71.35401218441799
 20
47.20764773293838
 30
0.0
 11
71.04302964358152
 21
47.20764773293838
 31
0.0
  0
LINE
  5
37DE
330
1E
100
AcDbEntity
  8
OBJECT
100
AcDbLine
 10
71.35401218441799
 20
45.7511478118831
 30
0.0
 11
71.35401218441799
 21
46.22364779352298
 31
0.0
  0
LINE
  5
37DF
330
1E
100
AcDbEntity
  8
OBJECT
100
AcDbLine
 10
71.04302964358152
 20
46.22364779352298
 30
0.0
 11
71.35401218441799
 21
46.22364779352298
 31
0.0
  0
LINE
  5
37E0
330
1E
100
AcDbEntity
  8
OBJECT
100
AcDbLine
 10
71.04302964358152
 20
45.7511478118831
 30
0.0
 11
71.35401218441799
 21
45.7511478118831
 31
0.0
  0
LINE
  5
37E1
330
1E
100
AcDbEntity
  8
OBJECT
100
AcDbLine
 10
71.44202964763275
 20
47.20764773293838
 30
0.0
 11
71.44202964763275
 21
46.22364779352298
 31
0.0
  0
LINE
  5
37E2
330
1E
100
AcDbEntity
  8
OBJECT
100
AcDbLine
 10
71.35401218441799
 20
47.20764773293838
 30
0.0
 11
71.44202964763275
 21
47.20764773293838
 31
0.0
  0
LINE
  5
37E3
330
1E
100
AcDbEntity
  8
OBJECT
100
AcDbLine
 10
71.44202964763275
 20
46.22364779352298
 30
0.0
 11
71.35401218441799
 21
46.22364779352298
 31
0.0
  0
LINE
  5
37E4
330
1E
100
AcDbEntity
  8
OBJECT
100
AcDbLine
 10
71.49202949669689
 20
47.68014800790822
 30
0.0
 11
71.35401218441799
 21
47.68014800790822
 31
0.0
  0
LINE
  5
37E5
330
1E
100
AcDbEntity
  8
OBJECT
100
AcDbLine
 10
71.49202949669689
 20
45.7511478118831
 30
0.0
 11
71.35401218441799
 21
45.7511478118831
 31
0.0
  0
LINE
  5
37E6
330
1E
100
AcDbEntity
  8
OBJECT
100
AcDbLine
 10
71.04302964358152
 20
47.50514794952382
 30
0.0
 11
71.0220295661762
 21
47.48414787211851
 31
0.0
  0
LINE
  5
37E7
330
1E
100
AcDbEntity
  8
OBJECT
100
AcDbLine
 10
71.0220295661762
 20
45.9471479476728
 30
0.0
 11
71.0220295661762
 21
47.48414787211851
 31
0.0
  0
LINE
  5
37E8
330
1E
100
AcDbEntity
  8
OBJECT
100
AcDbLine
 10
71.0220295661762
 20
45.9471479476728
 30
0.0
 11
71.04302964358152
 21
45.92614787026748
 31
0.0
  0
LINE
  5
37E9
330
1E
100
AcDbEntity
  8
OBJECT
100
AcDbLine
 10
71.5358702969109
 20
47.9889863068485
 30
0.0
 11
71.5358702969109
 21
47.9960573184969
 31
0.0
  0
LINE
  5
37EA
330
1E
100
AcDbEntity
  8
OBJECT
100
AcDbLine
 10
71.5358702969109
 20
47.9960573184969
 30
0.0
 11
71.71847669409288
 21
47.81345062798497
 31
0.0
  0
LINE
  5
37EB
330
1E
100
AcDbEntity
  8
OBJECT
100
AcDbLine
 10
71.49202949669689
 20
47.9889863068485
 30
0.0
 11
71.49202949669689
 21
47.9960573184969
 31
0.0
  0
ELLIPSE
  5
37EC
330
1E
100
AcDbEntity
  8
OBJECT
100
AcDbEllipse
 10
71.53587020889346
 20
47.99605725665609
 30
0.0
 11
0.0
 21
0.0759341820262805
 31
0.0
210
0.0
220
0.0
230
1.0
 40
0.5773502691895792
 41
1.047197551196713
 42
1.570796326794803
  0
LINE
  5
37ED
330
1E
100
AcDbEntity
  8
OBJECT
100
AcDbLine
 10
71.5358702969109
 20
47.9960573184969
 30
0.0
 11
71.49790313551078
 21
48.03402447989703
 31
0.0
  0
LINE
  5
37EE
330
1E
100
AcDbEntity
  8
OBJECT
100
AcDbLine
 10
71.5429413085593
 20
47.9960573184969
 30
0.0
 11
71.5358702969109
 21
47.9960573184969
 31
0.0
  0
ELLIPSE
  5
37EF
330
1E
100
AcDbEntity
  8
OBJECT
100
AcDbEllipse
 10
71.53587020889344
 20
47.99605725665609
 30
0.0
 11
0.0759341820262805
 21
0.0
 31
0.0
210
0.0
220
0.0
230
1.0
 40
0.5773502691895792
 41
1.570796326794896
 42
2.094395102393241
  0
LINE
  5
37F0
330
1E
100
AcDbEntity
  8
OBJECT
100
AcDbLine
 10
71.5429413085593
 20
48.03989782538096
 30
0.0
 11
71.5358702969109
 21
48.03989782538096
 31
0.0
  0
LINE
  5
37F1
330
1E
100
AcDbEntity
  8
OBJECT
100
AcDbLine
 10
71.5429413085593
 20
47.9960573184969
 30
0.0
 11
86.09511786836046
 21
47.9960573184969
 31
0.0
  0
LINE
  5
37F2
330
1E
100
AcDbEntity
  8
OBJECT
100
AcDbLine
 10
86.09511786836046
 20
47.9960573184969
 30
0.0
 11
86.10218888000886
 21
47.9960573184969
 31
0.0
  0
LINE
  5
37F3
330
1E
100
AcDbEntity
  8
OBJECT
100
AcDbLine
 10
86.09511786836046
 20
48.03989782538096
 30
0.0
 11
86.10218888000886
 21
48.03989782538096
 31
0.0
  0
ELLIPSE
  5
37F4
330
1E
100
AcDbEntity
  8
OBJECT
100
AcDbEllipse
 10
86.10218896802633
 20
47.99605725665609
 30
0.0
 11
0.0759341820262781
 21
0.0000000000000104
 31
0.0
210
0.0
220
0.0
230
1.0
 40
0.577350269189597
 41
1.047197551196663
 42
1.570796326794724
  0
LINE
  5
37F5
330
1E
100
AcDbEntity
  8
OBJECT
100
AcDbLine
 10
86.10218888000886
 20
47.9960573184969
 30
0.0
 11
86.14015604140901
 21
48.03402447989703
 31
0.0
  0
LINE
  5
37F6
330
1E
100
AcDbEntity
  8
OBJECT
100
AcDbLine
 10
86.10218888000886
 20
47.9960573184969
 30
0.0
 11
85.91958248282688
 21
47.81345062798497
 31
0.0
  0
LINE
  5
37F7
330
1E
100
AcDbEntity
  8
OBJECT
100
AcDbLine
 10
86.10218888000886
 20
47.9889863068485
 30
0.0
 11
86.10218888000886
 21
47.9960573184969
 31
0.0
  0
ELLIPSE
  5
37F8
330
1E
100
AcDbEntity
  8
OBJECT
100
AcDbEllipse
 10
86.10218896802633
 20
47.99605725665609
 30
0.0
 11
0.0000000000000223
 21
0.0759341820262543
 31
0.0
210
0.0
220
0.0
230
1.0
 40
0.5773502691897777
 41
-1.570796326794727
 42
-1.047197551196067
  0
LINE
  5
37F9
330
1E
100
AcDbEntity
  8
OBJECT
100
AcDbLine
 10
86.14602968022287
 20
47.9889863068485
 30
0.0
 11
86.14602968022287
 21
47.9960573184969
 31
0.0
  0
LINE
  5
37FA
330
1E
100
AcDbEntity
  8
OBJECT
100
AcDbLine
 10
71.5429413085593
 20
48.03989782538096
 30
0.0
 11
86.09511786836046
 21
48.03989782538096
 31
0.0
  0
LINE
  5
37FB
330
1E
100
AcDbEntity
  8
OBJECT
100
AcDbLine
 10
71.5429413085593
 20
33.43023843568237
 30
0.0
 11
71.5358702969109
 21
33.43023843568237
 31
0.0
  0
LINE
  5
37FC
330
1E
100
AcDbEntity
  8
OBJECT
100
AcDbLine
 10
71.5429413085593
 20
33.3863979287983
 30
0.0
 11
71.5358702969109
 21
33.3863979287983
 31
0.0
  0
ELLIPSE
  5
37FD
330
1E
100
AcDbEntity
  8
OBJECT
100
AcDbEllipse
 10
71.53587020889344
 20
33.43023849752319
 30
0.0
 11
0.0759341820262635
 21
0.0000000000000106
 31
0.0
210
0.0
220
0.0
230
1.0
 40
0.5773502691897081
 41
4.188790204786289
 42
4.712388980384702
  0
LINE
  5
37FE
330
1E
100
AcDbEntity
  8
OBJECT
100
AcDbLine
 10
71.5358702969109
 20
33.43023843568237
 30
0.0
 11
71.49790313551078
 21
33.39227127428225
 31
0.0
  0
LINE
  5
37FF
330
1E
100
AcDbEntity
  8
OBJECT
100
AcDbLine
 10
71.5358702969109
 20
33.43023843568237
 30
0.0
 11
71.71847669409288
 21
33.61284512619429
 31
0.0
  0
LINE
  5
3800
330
1E
100
AcDbEntity
  8
OBJECT
100
AcDbLine
 10
86.10218888000886
 20
33.43730944733076
 30
0.0
 11
86.10218888000886
 21
33.43023843568237
 31
0.0
  0
LINE
  5
3801
330
1E
100
AcDbEntity
  8
OBJECT
100
AcDbLine
 10
86.14602968022287
 20
33.43730944733076
 30
0.0
 11
86.14602968022287
 21
33.43023843568237
 31
0.0
  0
ELLIPSE
  5
3802
330
1E
100
AcDbEntity
  8
OBJECT
100
AcDbEllipse
 10
86.10218896802633
 20
33.4302384975232
 30
0.0
 11
-0.0000000000000224
 21
0.0759341820262397
 31
0.0
210
0.0
220
0.0
230
1.0
 40
0.5773502691898889
 41
4.188790204785856
 42
4.712388980384519
  0
LINE
  5
3803
330
1E
100
AcDbEntity
  8
OBJECT
100
AcDbLine
 10
86.10218888000886
 20
33.43023843568237
 30
0.0
 11
86.14015604140901
 21
33.39227127428225
 31
0.0
  0
LINE
  5
3804
330
1E
100
AcDbEntity
  8
OBJECT
100
AcDbLine
 10
71.5358702969109
 20
33.43730944733076
 30
0.0
 11
71.5358702969109
 21
33.43023843568237
 31
0.0
  0
ELLIPSE
  5
3805
330
1E
100
AcDbEntity
  8
OBJECT
100
AcDbEllipse
 10
71.53587020889344
 20
33.43023849752319
 30
0.0
 11
0.0000000000000196
 21
0.0759341820262383
 31
0.0
210
0.0
220
0.0
230
1.0
 40
0.5773502691898997
 41
1.570796326794951
 42
2.094395102393664
  0
LINE
  5
3806
330
1E
100
AcDbEntity
  8
OBJECT
100
AcDbLine
 10
71.49202949669689
 20
33.43730944733076
 30
0.0
 11
71.49202949669689
 21
33.43023843568237
 31
0.0
  0
LINE
  5
3807
330
1E
100
AcDbEntity
  8
OBJECT
100
AcDbLine
 10
86.09511786836046
 20
33.43023843568237
 30
0.0
 11
71.5429413085593
 21
33.43023843568237
 31
0.0
  0
LINE
  5
3808
330
1E
100
AcDbEntity
  8
OBJECT
100
AcDbLine
 10
86.10218888000886
 20
33.43023843568237
 30
0.0
 11
85.91958248282688
 21
33.61284512619429
 31
0.0
  0
LINE
  5
3809
330
1E
100
AcDbEntity
  8
OBJECT
100
AcDbLine
 10
86.09511786836046
 20
33.43023843568237
 30
0.0
 11
86.10218888000886
 21
33.43023843568237
 31
0.0
  0
ELLIPSE
  5
380A
330
1E
100
AcDbEntity
  8
OBJECT
100
AcDbEllipse
 10
86.10218896802633
 20
33.4302384975232
 30
0.0
 11
0.0759341820263046
 21
0.0000000000000157
 31
0.0
210
0.0
220
0.0
230
1.0
 40
0.5773502691894423
 41
4.712388980384663
 42
5.235987755982631
  0
LINE
  5
380B
330
1E
100
AcDbEntity
  8
OBJECT
100
AcDbLine
 10
86.09511786836046
 20
33.3863979287983
 30
0.0
 11
86.10218888000886
 21
33.3863979287983
 31
0.0
  0
LINE
  5
380C
330
1E
100
AcDbEntity
  8
OBJECT
100
AcDbLine
 10
86.09511786836046
 20
33.3863979287983
 30
0.0
 11
71.5429413085593
 21
33.3863979287983
 31
0.0
  0
LINE
  5
380D
330
1E
100
AcDbEntity
  8
OBJECT
100
AcDbLine
 10
71.49202949669689
 20
33.43730944733076
 30
0.0
 11
71.49202949669689
 21
47.9889863068485
 31
0.0
  0
LINE
  5
380E
330
1E
100
AcDbEntity
  8
OBJECT
100
AcDbLine
 10
71.5358702969109
 20
33.43730944733076
 30
0.0
 11
71.5358702969109
 21
47.9889863068485
 31
0.0
  0
LINE
  5
380F
330
1E
100
AcDbEntity
  8
OBJECT
100
AcDbLine
 10
86.14602968022287
 20
47.9889863068485
 30
0.0
 11
86.14602968022287
 21
33.43730944733076
 31
0.0
  0
LINE
  5
3810
330
1E
100
AcDbEntity
  8
OBJECT
100
AcDbLine
 10
86.10218888000886
 20
47.9889863068485
 30
0.0
 11
86.10218888000886
 21
33.43730944733076
 31
0.0
  0
LINE
  5
3811
330
1E
100
AcDbEntity
  8
OBJECT
100
AcDbLine
 10
85.897029516694
 20
33.64246881064562
 30
0.0
 11
85.897029516694
 21
33.63539779899721
 31
0.0
  0
LWPOLYLINE
  5
3812
330
1E
100
AcDbEntity
  8
OBJECT
100
AcDbPolyline
 90
        5
 70
   128
 43
0.0
 10
85.91958248282688
 20
33.61284512619429
 10
85.91000643345024
 20
33.62242117557094
 10
85.90289083565023
 20
33.62953648004101
 10
85.89850907293538
 20
33.63391824275585
 10
85.897029516694
 20
33.63539779899721
  0
LINE
  5
3813
330
1E
100
AcDbEntity
  8
OBJECT
100
AcDbLine
 10
85.88995850504563
 20
33.63539779899721
 30
0.0
 11
85.897029516694
 21
33.63539779899721
 31
0.0
  0
LINE
  5
3814
330
1E
100
AcDbEntity
  8
OBJECT
100
AcDbLine
 10
85.88995850504563
 20
47.79089795518205
 30
0.0
 11
85.897029516694
 21
47.79089795518205
 31
0.0
  0
LWPOLYLINE
  5
3815
330
1E
100
AcDbEntity
  8
OBJECT
100
AcDbPolyline
 90
        5
 70
   128
 43
0.0
 10
85.91958248282688
 20
47.81345062798497
 10
85.91000643345024
 20
47.80387457860832
 10
85.90289083565023
 20
47.79675927413825
 10
85.89850907293538
 20
47.79237751142341
 10
85.897029516694
 20
47.79089795518205
  0
LINE
  5
3816
330
1E
100
AcDbEntity
  8
OBJECT
100
AcDbLine
 10
85.897029516694
 20
47.78382694353365
 30
0.0
 11
85.897029516694
 21
47.79089795518205
 31
0.0
  0
LINE
  5
3817
330
1E
100
AcDbEntity
  8
OBJECT
100
AcDbLine
 10
85.897029516694
 20
47.78382694353365
 30
0.0
 11
85.897029516694
 21
33.64246881064562
 31
0.0
  0
LINE
  5
3818
330
1E
100
AcDbEntity
  8
OBJECT
100
AcDbLine
 10
71.74810067187417
 20
47.79089795518205
 30
0.0
 11
85.88995850504563
 21
47.79089795518205
 31
0.0
  0
LINE
  5
3819
330
1E
100
AcDbEntity
  8
OBJECT
100
AcDbLine
 10
71.74102966022577
 20
33.64246881064562
 30
0.0
 11
71.74102966022577
 21
33.63539779899721
 31
0.0
  0
LWPOLYLINE
  5
381A
330
1E
100
AcDbEntity
  8
OBJECT
100
AcDbPolyline
 90
        5
 70
   128
 43
0.0
 10
71.71847669409288
 20
33.61284512619429
 10
71.72805274346953
 20
33.62242117557094
 10
71.73516834126954
 20
33.62953648004101
 10
71.73955010398438
 20
33.63391824275585
 10
71.74102966022577
 20
33.63539779899721
  0
LINE
  5
381B
330
1E
100
AcDbEntity
  8
OBJECT
100
AcDbLine
 10
85.88995850504563
 20
33.63539779899721
 30
0.0
 11
71.74810067187417
 21
33.63539779899721
 31
0.0
  0
LINE
  5
381C
330
1E
100
AcDbEntity
  8
OBJECT
100
AcDbLine
 10
71.74102966022577
 20
47.78382694353365
 30
0.0
 11
71.74102966022577
 21
47.79089795518205
 31
0.0
  0
LWPOLYLINE
  5
381D
330
1E
100
AcDbEntity
  8
OBJECT
100
AcDbPolyline
 90
        5
 70
   128
 43
0.0
 10
71.71847669409288
 20
47.81345062798497
 10
71.72805274346953
 20
47.80387457860832
 10
71.73516834126954
 20
47.79675927413825
 10
71.73955010398438
 20
47.79237751142341
 10
71.74102966022577
 20
47.79089795518205
  0
LINE
  5
381E
330
1E
100
AcDbEntity
  8
OBJECT
100
AcDbLine
 10
71.74102966022577
 20
33.64246881064562
 30
0.0
 11
71.74102966022577
 21
47.78382694353365
 31
0.0
  0
LINE
  5
381F
330
1E
100
AcDbEntity
  8
OBJECT
100
AcDbLine
 10
71.74810067187417
 20
33.63539779899721
 30
0.0
 11
71.74102966022577
 21
33.63539779899721
 31
0.0
  0
LINE
  5
3820
330
1E
100
AcDbEntity
  8
OBJECT
100
AcDbLine
 10
71.74810067187417
 20
47.79089795518205
 30
0.0
 11
71.74102966022577
 21
47.79089795518205
 31
0.0
  0
LINE
  5
3821
330
1E
100
AcDbEntity
  8
OBJECT
100
AcDbLine
 10
86.62395861248041
 20
32.83939800778807
 30
0.0
 11
86.63102962412882
 21
32.83939800778807
 31
0.0
  0
LINE
  5
3822
330
1E
100
AcDbEntity
  8
OBJECT
100
AcDbLine
 10
71.01410056443936
 20
48.5868977463912
 30
0.0
 11
86.62395861248041
 21
48.5868977463912
 31
0.0
  0
LINE
  5
3823
330
1E
100
AcDbEntity
  8
OBJECT
100
AcDbLine
 10
86.69302960123312
 20
48.51782675763849
 30
0.0
 11
86.69302960123312
 21
48.52489776928689
 31
0.0
  0
ARC
  5
3824
330
1E
100
AcDbEntity
  8
OBJECT
100
AcDbCircle
 10
71.00702958845989
 20
48.52489787708964
 30
0.0
 40
0.0620000000000047
100
AcDbArc
 50
90.0
 51
180.0
  0
ARC
  5
3825
330
1E
100
AcDbEntity
  8
OBJECT
100
AcDbCircle
 10
71.00702958845989
 20
32.90139787708963
 30
0.0
 40
0.0619999999999976
100
AcDbArc
 50
180.0
 51
270.0000000000008
  0
LINE
  5
3826
330
1E
100
AcDbEntity
  8
OBJECT
100
AcDbLine
 10
70.94502957568666
 20
32.90846899654079
 30
0.0
 11
70.94502957568666
 21
48.51782675763849
 31
0.0
  0
LINE
  5
3827
330
1E
100
AcDbEntity
  8
OBJECT
100
AcDbLine
 10
71.01410056443936
 20
48.5868977463912
 30
0.0
 11
71.00702955279096
 21
48.5868977463912
 31
0.0
  0
LINE
  5
3828
330
1E
100
AcDbEntity
  8
OBJECT
100
AcDbLine
 10
86.62395861248041
 20
48.5868977463912
 30
0.0
 11
86.63102962412882
 21
48.5868977463912
 31
0.0
  0
LINE
  5
3829
330
1E
100
AcDbEntity
  8
OBJECT
100
AcDbLine
 10
86.69302960123312
 20
32.90846899654079
 30
0.0
 11
86.69302960123312
 21
32.90139798489238
 31
0.0
  0
LINE
  5
382A
330
1E
100
AcDbEntity
  8
OBJECT
100
AcDbLine
 10
71.01410056443936
 20
32.83939800778807
 30
0.0
 11
71.00702955279096
 21
32.83939800778807
 31
0.0
  0
ARC
  5
382B
330
1E
100
AcDbEntity
  8
OBJECT
100
AcDbCircle
 10
86.63102958845987
 20
32.90139787708963
 30
0.0
 40
0.0619999999999976
100
AcDbArc
 50
270.0000000000073
 51
0.0
  0
LINE
  5
382C
330
1E
100
AcDbEntity
  8
OBJECT
100
AcDbLine
 10
86.62395861248041
 20
32.83939800778807
 30
0.0
 11
71.01410056443936
 21
32.83939800778807
 31
0.0
  0
ARC
  5
382D
330
1E
100
AcDbEntity
  8
OBJECT
100
AcDbCircle
 10
86.63102958845987
 20
48.52489787708964
 30
0.0
 40
0.0620000000000047
100
AcDbArc
 50
0.0
 51
90.0
  0
LINE
  5
382E
330
1E
100
AcDbEntity
  8
OBJECT
100
AcDbLine
 10
86.69302960123312
 20
48.51782675763849
 30
0.0
 11
86.69302960123312
 21
32.90846899654079
 31
0.0
  0
LINE
  5
382F
330
1E
100
AcDbEntity
  8
OBJECT
100
AcDbLine
 10
70.94502957568666
 20
32.90846899654079
 30
0.0
 11
70.94502957568666
 21
32.90139798489238
 31
0.0
  0
LINE
  5
3830
330
1E
100
AcDbEntity
  8
OBJECT
100
AcDbLine
 10
70.94502957568666
 20
48.51782675763849
 30
0.0
 11
70.94502957568666
 21
48.52489776928689
 31
0.0
  0
ARC
  5
3831
330
1E
100
AcDbEntity
  8
OBJECT
100
AcDbCircle
 10
71.67332958845989
 20
33.56769787708964
 30
0.0
 40
0.1968500000000068
100
AcDbArc
 50
20.1156803920236
 51
69.8843196079745
  0
ARC
  5
3832
330
1E
100
AcDbEntity
  8
OBJECT
100
AcDbCircle
 10
85.96472958845987
 20
33.56769787708964
 30
0.0
 40
0.1968500000000002
100
AcDbArc
 50
110.1156803920236
 51
159.8843196079755
  0
ARC
  5
3833
330
1E
100
AcDbEntity
  8
OBJECT
100
AcDbCircle
 10
85.96472958845987
 20
47.85859787708964
 30
0.0
 40
0.1968499999999989
100
AcDbArc
 50
200.1156803920223
 51
249.8843196079771
  0
ARC
  5
3834
330
1E
100
AcDbEntity
  8
OBJECT
100
AcDbCircle
 10
71.67332958845989
 20
47.85859787708964
 30
0.0
 40
0.1968499999999989
100
AcDbArc
 50
290.1156803920245
 51
339.8843196079793
  0
LINE
  5
38EB
330
1E
100
AcDbEntity
  8
OBJECT
100
AcDbLine
 10
72.70132958845988
 20
18.36427215817261
 30
0.0
 11
72.70132958845988
 21
18.73927215817261
 31
0.0
  0
LINE
  5
38EC
330
1E
100
AcDbEntity
  8
OBJECT
100
AcDbLine
 10
72.14132958845988
 20
18.73927215817261
 30
0.0
 11
72.14132958845988
 21
18.36427215817261
 31
0.0
  0
LINE
  5
38ED
330
1E
100
AcDbEntity
  8
OBJECT
100
AcDbLine
 10
72.57882958845988
 20
18.81727215817262
 30
0.0
 11
72.57882958845988
 21
19.36827215817262
 31
0.0
  0
LINE
  5
38EE
330
1E
100
AcDbEntity
  8
OBJECT
100
AcDbLine
 10
72.26382958845988
 20
19.36827215817262
 30
0.0
 11
72.26382958845988
 21
18.81727215817262
 31
0.0
  0
LINE
  5
38EF
330
1E
100
AcDbEntity
  8
OBJECT
100
AcDbLine
 10
85.49672958845988
 20
18.36427215817261
 30
0.0
 11
85.49672958845988
 21
18.73927215817261
 31
0.0
  0
LINE
  5
38F0
330
1E
100
AcDbEntity
  8
OBJECT
100
AcDbLine
 10
84.93672958845989
 20
18.73927215817261
 30
0.0
 11
84.93672958845989
 21
18.36427215817261
 31
0.0
  0
LINE
  5
38F1
330
1E
100
AcDbEntity
  8
OBJECT
100
AcDbLine
 10
85.37422958845988
 20
18.81727215817262
 30
0.0
 11
85.37422958845988
 21
19.36827215817262
 31
0.0
  0
LINE
  5
38F2
330
1E
100
AcDbEntity
  8
OBJECT
100
AcDbLine
 10
85.05922958845989
 20
19.36827215817262
 30
0.0
 11
85.05922958845989
 21
18.81727215817262
 31
0.0
  0
LINE
  5
38F3
330
1E
100
AcDbEntity
  8
OBJECT
100
AcDbLine
 10
71.92927958845988
 20
18.73927215817261
 30
0.0
 11
71.92927958845988
 21
18.81727215817262
 31
0.0
  0
LINE
  5
38F4
330
1E
100
AcDbEntity
  8
OBJECT
100
AcDbLine
 10
85.70877958845988
 20
18.81727215817262
 30
0.0
 11
85.70877958845988
 21
18.73927215817261
 31
0.0
  0
LINE
  5
38F5
330
1E
100
AcDbEntity
  8
OBJECT
100
AcDbLine
 10
85.70877958845988
 20
18.73927215817261
 30
0.0
 11
71.92927958845988
 21
18.73927215817261
 31
0.0
  0
LINE
  5
38F6
330
1E
100
AcDbEntity
  8
OBJECT
100
AcDbLine
 10
85.70877958845988
 20
18.81727215817262
 30
0.0
 11
71.92927958845988
 21
18.81727215817262
 31
0.0
  0
LINE
  5
3923
330
1E
100
AcDbEntity
  8
OBJECT
100
AcDbLine
 10
72.57882958845988
 20
19.36827215817262
 30
0.0
 11
72.26382958845988
 21
19.36827215817262
 31
0.0
  0
LINE
  5
3924
330
1E
100
AcDbEntity
  8
OBJECT
100
AcDbLine
 10
85.37422958845988
 20
19.36827215817262
 30
0.0
 11
85.05922958845989
 21
19.36827215817262
 31
0.0
  0
TEXT
  5
42E6
330
1E
100
AcDbEntity
  8
TEXT
100
AcDbText
 10
8.695689707366533
 20
54.8453704278171
 30
0.0
 40
1.032902644214618
  1
SNB-SERIES NEMA SHEET METAL BOXES
 41
0.75
 72
     1
 11
21.21963426846877
 21
54.8453704278171
 31
0.0
100
AcDbText
  0
TEXT
  5
42F5
330
1E
100
AcDbEntity
  8
TEXT
100
AcDbText
 10
7.833176654665349
 20
1.735022279081222
 30
0.0
 40
0.6881009615597477
  1
15.75 [400]
 41
0.75
 72
     1
 11
10.06950477973453
 21
1.735022279081222
 31
0.0
100
AcDbText
  0
TEXT
  5
42F6
330
1E
100
AcDbEntity
  8
TEXT
100
AcDbText
 10
7.833176654665349
 20
0.584180932727108
 30
0.0
 40
0.6881009615597477
  1
15.75 [400]
 41
0.75
 72
     1
 11
10.06950477973453
 21
0.584180932727108
 31
0.0
100
AcDbText
  0
TEXT
  5
42F7
330
1E
100
AcDbEntity
  8
TEXT
100
AcDbText
 10
14.19414563501592
 20
0.584180932727108
 30
0.0
 40
0.6881009615597477
  1
13.98 [355]
 41
0.75
 72
     1
 11
16.51648638028007
 21
0.584180932727108
 31
0.0
100
AcDbText
  0
TEXT
  5
42F8
330
1E
100
AcDbEntity
  8
TEXT
100
AcDbText
 10
14.28015825521089
 20
1.735022279081222
 30
0.0
 40
0.6881009615597477
  1
15.75 [400]
 41
0.75
 72
     1
 11
16.51648638028007
 21
1.735022279081222
 31
0.0
100
AcDbText
  0
TEXT
  5
42FD
330
1E
100
AcDbEntity
  8
TEXT
100
AcDbText
 10
20.87778196656195
 20
0.584180932727108
 30
0.0
 40
0.6881009615597477
  1
7.87 [200]
 41
0.75
 72
     1
 11
22.94208485124119
 21
0.584180932727108
 31
0.0
100
AcDbText
  0
TEXT
  5
42FE
330
1E
100
AcDbEntity
  8
TEXT
100
AcDbText
 10
20.87778196656195
 20
1.735022279081222
 30
0.0
 40
0.6881009615597477
  1
7.87 [200]
 41
0.75
 72
     1
 11
22.94208485124119
 21
1.735022279081222
 31
0.0
100
AcDbText
  0
TEXT
  5
4302
330
1E
100
AcDbEntity
  8
TEXT
100
AcDbText
 10
85.55127725893342
 20
0.584180932727108
 30
0.0
 40
0.6881009615597477
  1
11.62 [295]
 41
0.75
 72
     1
 11
87.78760538400261
 21
0.584180932727108
 31
0.0
100
AcDbText
  0
TEXT
  5
4303
330
1E
100
AcDbEntity
  8
TEXT
100
AcDbText
 10
85.55127725893342
 20
1.735022279081222
 30
0.0
 40
0.6881009615597477
  1
11.62 [295]
 41
0.75
 72
     1
 11
87.78760538400261
 21
1.735022279081222
 31
0.0
100
AcDbText
  0
TEXT
  5
4305
330
1E
100
AcDbEntity
  8
TEXT
100
AcDbText
 10
59.51659469229681
 20
0.584180932727108
 30
0.0
 40
0.6881009615597477
  1
12.80 [325]
 41
0.75
 72
     1
 11
61.79592912746347
 21
0.584180932727108
 31
0.0
100
AcDbText
  0
TEXT
  5
4306
330
1E
100
AcDbEntity
  8
TEXT
100
AcDbText
 10
59.51659469229681
 20
1.735022279081222
 30
0.0
 40
0.6881009615597477
  1
12.80 [325]
 41
0.75
 72
     1
 11
61.79592912746347
 21
1.735022279081222
 31
0.0
100
AcDbText
  0
TEXT
  5
430A
330
1E
100
AcDbEntity
  8
TEXT
100
AcDbText
 10
66.28350053837434
 20
0.584180932727108
 30
0.0
 40
0.6881009615597477
  1
11.02 [280]
 41
0.75
 72
     1
 11
68.43381604324855
 21
0.584180932727108
 31
0.0
100
AcDbText
  0
TEXT
  5
430C
330
1E
100
AcDbEntity
  8
TEXT
100
AcDbText
 10
66.15448160808189
 20
1.735022279081222
 30
0.0
 40
0.6881009615597477
  1
12.80 [325]
 41
0.75
 72
     1
 11
68.43381604324855
 21
1.735022279081222
 31
0.0
100
AcDbText
  0
SPLINE
  5
4821
330
1E
100
AcDbEntity
  8
OBJECT
100
AcDbSpline
210
0.0
220
0.0
230
1.0
 70
     8
 71
     3
 72
     9
 73
     5
 74
     0
 42
0.0000000001
 43
0.0000000001
 40
0.0
 40
0.0
 40
0.0
 40
0.0
 40
0.9581807484847246
 40
1.0
 40
1.0
 40
1.0
 40
1.0
 10
39.03225237889367
 20
43.08621359683168
 30
0.0
 10
38.97069094794174
 20
43.11704138513881
 30
0.0
 10
38.98644270349593
 20
43.14921463465971
 30
0.0
 10
38.92002983468045
 20
43.17648187847796
 30
0.0
 10
38.91725249821561
 20
43.17762217420532
 30
0.0
  0
SPLINE
  5
4822
330
1E
100
AcDbEntity
  8
OBJECT
100
AcDbSpline
210
0.0
220
0.0
230
1.0
 70
     8
 71
     3
 72
    20
 73
    16
 74
     0
 42
0.0000000001
 43
0.0000000001
 40
0.0
 40
0.0
 40
0.0
 40
0.0
 40
0.0164940124850061
 40
0.0346196887425862
 40
0.0554804901143948
 40
0.0798105358858066
 40
0.1295222776288297
 40
0.1901915871503359
 40
0.2464741620118386
 40
0.3088260066865387
 40
0.418424837758434
 40
0.5901189129620552
 40
0.713359551493984
 40
0.8808151701293768
 40
1.0
 40
1.0
 40
1.0
 40
1.0
 10
39.03225223659345
 20
33.64773367313189
 30
0.0
 10
39.03254141582397
 20
33.64772863973167
 30
0.0
 10
39.03314838122799
 20
33.64771807500403
 30
0.0
 10
39.03403016220893
 20
33.6476357136318
 30
0.0
 10
39.03490179689775
 20
33.64750685562214
 30
0.0
 10
39.03601894423065
 20
33.64727191434281
 30
0.0
 10
39.03729674672513
 20
33.64688561260338
 30
0.0
 10
39.03852946452261
 20
33.64637696352637
 30
0.0
 10
39.03962657728873
 20
33.64581293526134
 30
0.0
 10
39.04081622673201
 20
33.64507968402516
 30
0.0
 10
39.04225644409831
 20
33.64397816064361
 30
0.0
 10
39.04358808794604
 20
33.64261837039158
 30
0.0
 10
39.04472733246066
 20
33.64112088393554
 30
0.0
 10
39.04555819708129
 20
33.6397355609007
 30
0.0
 10
39.04597044762708
 20
33.63879043102265
 30
0.0
 10
39.04614186101769
 20
33.63839744690506
 30
0.0
  0
SPLINE
  5
4823
330
1E
100
AcDbEntity
  8
OBJECT
100
AcDbSpline
210
0.0
220
0.0
230
1.0
 70
     8
 71
     3
 72
    10
 73
     6
 74
     0
 42
0.0000000001
 43
0.0000000001
 40
0.0
 40
0.0
 40
0.0
 40
0.0
 40
0.5
 40
0.5
 40
1.0
 40
1.0
 40
1.0
 40
1.0
 10
39.04725223659345
 20
43.07882444838746
 30
0.0
 10
39.04725223659345
 20
43.07882444838746
 30
0.0
 10
39.04540252904245
 20
43.0797381120936
 30
0.0
 10
39.03973742045103
 20
43.08253130673615
 30
0.0
 10
39.03600776582401
 20
43.08436802182287
 30
0.0
 10
39.03225223659345
 20
43.08621358876703
 30
0.0
  0
SPLINE
  5
4824
330
1E
100
AcDbEntity
  8
OBJECT
100
AcDbSpline
210
0.0
220
0.0
230
1.0
 70
     8
 71
     3
 72
    20
 73
    16
 74
     0
 42
0.0000000001
 43
0.0000000001
 40
0.0
 40
0.0
 40
0.0
 40
0.0
 40
0.1250000000000015
 40
0.1250000000000015
 40
0.2500000000000031
 40
0.2500000000000031
 40
0.3750000000000045
 40
0.3750000000000045
 40
0.5000000000000062
 40
0.5000000000000062
 40
0.6250000000000077
 40
0.6250000000000077
 40
0.7500000000000091
 40
0.7500000000000091
 40
1.0
 40
1.0
 40
1.0
 40
1.0
 10
46.01525223659345
 20
42.69065804885538
 30
0.0
 10
46.02030403831551
 20
42.69164689825287
 30
0.0
 10
46.02526708946266
 20
42.69265135732986
 30
0.0
 10
46.03502465753457
 20
42.69468633186234
 30
0.0
 10
46.03986509832738
 20
42.69572712810658
 30
0.0
 10
46.04913422647769
 20
42.69777410934195
 30
0.0
 10
46.05353241077939
 20
42.6987728144977
 30
0.0
 10
46.06186353982692
 20
42.70070631295989
 30
0.0
 10
46.06582708526312
 20
42.70164884750234
 30
0.0
 10
46.07295944687979
 20
42.70337488403974
 30
0.0
 10
46.07616444425201
 20
42.70416649136253
 30
0.0
 10
46.0818361639553
 20
42.70558509620963
 30
0.0
 10
46.08428373642566
 20
42.70620743735991
 30
0.0
 10
46.09015295728005
 20
42.70771124355902
 30
0.0
 10
46.09225223659345
 20
42.70826431657361
 30
0.0
 10
46.09225223659345
 20
42.70826431657361
 30
0.0
  0
SPLINE
  5
4825
330
1E
100
AcDbEntity
  8
OBJECT
100
AcDbSpline
210
0.0
220
0.0
230
1.0
 70
     8
 71
     3
 72
    18
 73
    14
 74
     0
 42
0.0000000001
 43
0.0000000001
 40
0.0
 40
0.0
 40
0.0
 40
0.0
 40
0.2500000000000005
 40
0.2500000000000005
 40
0.5000000000000011
 40
0.5000000000000011
 40
0.6250000000000008
 40
0.6250000000000008
 40
0.7500000000000006
 40
0.7500000000000006
 40
0.8750000000000001
 40
0.8750000000000001
 40
1.0
 40
1.0
 40
1.0
 40
1.0
 10
39.12425223659345
 20
43.04043350196327
 30
0.0
 10
39.11462623555863
 20
43.04527052645859
 30
0.0
 10
39.10524943962154
 20
43.04997141864648
 30
0.0
 10
39.08706306811734
 20
43.05906358619082
 30
0.0
 10
39.07876293239145
 20
43.06320003460908
 30
0.0
 10
39.06770290188566
 20
43.06869781081793
 30
0.0
 10
39.06438287018943
 20
43.07034556978559
 30
0.0
 10
39.05848796478179
 20
43.07326813029433
 30
0.0
 10
39.05589101668337
 20
43.07455384347332
 30
0.0
 10
39.05164872104201
 20
43.07665254464405
 30
0.0
 10
39.05003322520882
 20
43.07745082853092
 30
0.0
 10
39.04783147913092
 20
43.07853850691749
 30
0.0
 10
39.04725223659345
 20
43.07882444838746
 30
0.0
 10
39.04725223659345
 20
43.07882444838746
 30
0.0
  0
SPLINE
  5
4826
330
1E
100
AcDbEntity
  8
OBJECT
100
AcDbSpline
210
0.0
220
0.0
230
1.0
 70
     8
 71
     3
 72
    11
 73
     7
 74
     0
 42
0.0000000001
 43
0.0000000001
 40
0.0612464999175852
 40
0.0612464999175852
 40
0.0612464999175852
 40
0.0612464999175852
 40
0.0684320770662626
 40
0.1361565680258016
 40
0.1930079276673972
 40
0.2326313084054044
 40
0.2326313084054044
 40
0.2326313084054044
 40
0.2326313084054044
 10
46.01525223659358
 20
42.69065804885541
 30
0.0
 10
45.94872644301611
 20
42.67763616190994
 30
0.0
 10
45.24927975873547
 20
42.60040959770438
 30
0.0
 10
43.92722753568572
 20
43.67203453047496
 30
0.0
 10
40.36573673560698
 20
42.37659567747239
 30
0.0
 10
39.49994354330765
 20
42.85165022148352
 30
0.0
 10
39.12425223659343
 20
43.04043350196327
 30
0.0
  0
SPLINE
  5
4827
330
1E
100
AcDbEntity
  8
OBJECT
100
AcDbSpline
210
0.0
220
0.0
230
1.0
 70
     8
 71
     3
 72
    12
 73
     8
 74
     0
 42
0.0000000001
 43
0.0000000001
 40
0.0
 40
0.0
 40
0.0
 40
0.0
 40
0.2181034520117595
 40
0.4362715644612284
 40
0.6526949199584797
 40
0.8666028436447918
 40
1.0
 40
1.0
 40
1.0
 40
1.0
 10
38.30425216631441
 20
43.3680584276028
 30
0.0
 10
38.2955246137207
 20
43.3695194597191
 30
0.0
 10
38.27806692110349
 20
43.37244195709923
 30
0.0
 10
38.25480064010164
 20
43.37605911554436
 30
0.0
 10
38.23739944096928
 20
43.37865415285861
 30
0.0
 10
38.22847095434614
 20
43.3799402919475
 30
0.0
 10
38.22759060458934
 20
43.38006648034964
 30
0.0
 10
38.22725246915481
 20
43.38011494832485
 30
0.0
  0
SPLINE
  5
4828
330
1E
100
AcDbEntity
  8
OBJECT
100
AcDbSpline
210
0.0
220
0.0
230
1.0
 70
     8
 71
     3
 72
    10
 73
     6
 74
     0
 42
0.0000000001
 43
0.0000000001
 40
0.0
 40
0.0
 40
0.0
 40
0.0
 40
0.3331677964775234
 40
0.6661108773218205
 40
1.0
 40
1.0
 40
1.0
 40
1.0
 10
38.91725249821561
 20
43.17789951766809
 30
0.0
 10
38.85147151788731
 20
43.20585699943092
 30
0.0
 10
38.71995392530834
 20
43.26175310614241
 30
0.0
 10
38.51514764815646
 20
43.32733658831886
 30
0.0
 10
38.37461711764044
 20
43.3544716489099
 30
0.0
 10
38.30425216631441
 20
43.3680584276028
 30
0.0
  0
LINE
  5
4829
330
1E
100
AcDbEntity
  8
OBJECT
100
AcDbLine
 10
46.09225223659345
 20
32.99073379431987
 30
0.0
 11
46.09225223659345
 21
42.70826430626747
 31
0.0
  0
LINE
  5
482A
330
1E
100
AcDbEntity
  8
OBJECT
100
AcDbLine
 10
39.04725209894896
 20
32.99780480596828
 30
0.0
 11
39.04725209894896
 21
43.07882446885817
 31
0.0
  0
LINE
  5
482B
330
1E
100
AcDbEntity
  8
OBJECT
100
AcDbLine
 10
38.2272524691548
 20
43.38011494832485
 30
0.0
 11
38.22725246915481
 21
32.99073379431987
 31
0.0
  0
LINE
  5
482C
330
1E
100
AcDbEntity
  8
OBJECT
100
AcDbLine
 10
38.91725249821561
 20
43.17789951766809
 30
0.0
 11
38.91725249821561
 21
32.99073379431987
 31
0.0
  0
ARC
  5
482D
330
1E
100
AcDbEntity
  8
OBJECT
100
AcDbCircle
 10
38.72958666383365
 20
35.09142050104208
 30
0.0
 40
0.8327572805799132
100
AcDbArc
 50
217.6507757275025
 51
232.8992595315765
  0
LINE
  5
482E
330
1E
100
AcDbEntity
  8
OBJECT
100
AcDbLine
 10
39.12425238276844
 20
32.91373380383034
 30
0.0
 11
46.01525223693736
 21
32.91373380383034
 31
0.0
  0
LINE
  5
482F
330
1E
100
AcDbEntity
  8
OBJECT
100
AcDbLine
 10
46.17025223469748
 20
33.99203374721738
 30
0.0
 11
46.17025223469748
 21
32.88263378976703
 31
0.0
  0
LINE
  5
4830
330
1E
100
AcDbEntity
  8
OBJECT
100
AcDbLine
 10
45.96725223810411
 20
32.86703391664474
 30
0.0
 11
45.84225223961475
 21
32.86703391664474
 31
0.0
  0
LINE
  5
4831
330
1E
100
AcDbEntity
  8
OBJECT
100
AcDbLine
 10
45.84225223961475
 20
32.78903396437351
 30
0.0
 11
45.96725223810411
 21
32.78903396437351
 31
0.0
  0
LINE
  5
4832
330
1E
100
AcDbEntity
  8
OBJECT
100
AcDbLine
 10
45.96725223810411
 20
32.86703391664474
 30
0.0
 11
46.09356139191269
 21
32.86703391664474
 31
0.0
  0
LINE
  5
4833
330
1E
100
AcDbEntity
  8
OBJECT
100
AcDbLine
 10
45.96725223810411
 20
32.78903396437351
 30
0.0
 11
46.1858522361516
 21
32.78903396437351
 31
0.0
  0
LINE
  5
4834
330
1E
100
AcDbEntity
  8
OBJECT
100
AcDbLine
 10
46.09225223659345
 20
32.99073379431987
 30
0.0
 11
46.09225223659345
 21
32.88263378976703
 31
0.0
  0
LINE
  5
4835
330
1E
100
AcDbEntity
  8
OBJECT
100
AcDbLine
 10
46.54225223482174
 20
32.77343350459136
 30
0.0
 11
46.54225223482174
 21
31.75703351279747
 31
0.0
  0
LINE
  5
4836
330
1E
100
AcDbEntity
  8
OBJECT
100
AcDbLine
 10
46.46425224588426
 20
32.77343350459136
 30
0.0
 11
46.46425224588426
 21
31.75703351279747
 31
0.0
  0
ARC
  5
4837
330
1E
100
AcDbEntity
  8
OBJECT
100
AcDbCircle
 10
46.18585223659346
 20
32.88263367313188
 30
0.0
 40
0.0936000000000004
100
AcDbArc
 50
180.0
 51
269.9999999999992
  0
ARC
  5
4838
330
1E
100
AcDbEntity
  8
OBJECT
100
AcDbCircle
 10
46.18585223659346
 20
32.88263367313188
 30
0.0
 40
0.0155999999999992
100
AcDbArc
 50
180.0
 51
269.9999999999992
  0
ARC
  5
4839
330
1E
100
AcDbEntity
  8
OBJECT
100
AcDbCircle
 10
46.44865223659346
 20
32.77343367313187
 30
0.0
 40
0.0156000000000027
100
AcDbArc
 50
0.000000000000007
 51
90.0
  0
ARC
  5
483A
330
1E
100
AcDbEntity
  8
OBJECT
100
AcDbCircle
 10
46.44865223659346
 20
32.77343367313187
 30
0.0
 40
0.0936000000000057
100
AcDbArc
 50
0.000000000000007
 51
90.0
  0
LINE
  5
483B
330
1E
100
AcDbEntity
  8
OBJECT
100
AcDbLine
 10
46.46425224588426
 20
31.75703351279747
 30
0.0
 11
46.46425224588426
 21
31.63203389013711
 31
0.0
  0
LINE
  5
483C
330
1E
100
AcDbEntity
  8
OBJECT
100
AcDbLine
 10
46.54225223482174
 20
31.63203389013711
 30
0.0
 11
46.54225223482174
 21
31.75703351279747
 31
0.0
  0
LINE
  5
483D
330
1E
100
AcDbEntity
  8
OBJECT
100
AcDbLine
 10
46.46425224588426
 20
31.63203389013711
 30
0.0
 11
46.54225223482174
 21
31.63203389013711
 31
0.0
  0
LINE
  5
483E
330
1E
100
AcDbEntity
  8
OBJECT
100
AcDbLine
 10
46.1858522361516
 20
32.86703391664474
 30
0.0
 11
46.44865222609704
 21
32.86703391664474
 31
0.0
  0
LINE
  5
483F
330
1E
100
AcDbEntity
  8
OBJECT
100
AcDbLine
 10
46.1858522361516
 20
32.78903396437351
 30
0.0
 11
46.44865222609704
 21
32.78903396437351
 31
0.0
  0
ARC
  5
4840
330
1E
100
AcDbEntity
  8
OBJECT
100
AcDbCircle
 10
46.01525223659345
 20
32.9907336731319
 30
0.0
 40
0.077
100
AcDbArc
 50
269.9999999999992
 51
0.000000000000007
  0
LINE
  5
4841
330
1E
100
AcDbEntity
  8
OBJECT
100
AcDbLine
 10
45.84225223961475
 20
32.86703391664474
 30
0.0
 11
45.84225223961475
 21
32.78903396437351
 31
0.0
  0
LINE
  5
4842
330
1E
100
AcDbEntity
  8
OBJECT
100
AcDbLine
 10
46.17025223469748
 20
33.99203374721738
 30
0.0
 11
46.17025223469748
 21
34.11703366320768
 31
0.0
  0
LINE
  5
4843
330
1E
100
AcDbEntity
  8
OBJECT
100
AcDbLine
 10
46.17025223469748
 20
34.11703366320768
 30
0.0
 11
46.09225223659345
 21
34.11703366320768
 31
0.0
  0
LINE
  5
4844
330
1E
100
AcDbEntity
  8
OBJECT
100
AcDbLine
 10
38.30425216631443
 20
32.91373380383034
 30
0.0
 11
38.84025221439611
 21
32.91373380383034
 31
0.0
  0
LINE
  5
4845
330
1E
100
AcDbEntity
  8
OBJECT
100
AcDbLine
 10
39.04725209894896
 20
32.99780480596828
 30
0.0
 11
39.04725209894896
 21
32.99073379431987
 31
0.0
  0
ARC
  5
4846
330
1E
100
AcDbEntity
  8
OBJECT
100
AcDbCircle
 10
39.12425223659345
 20
32.9907336731319
 30
0.0
 40
0.0770000000000017
100
AcDbArc
 50
179.9999999999973
 51
269.9999999999992
  0
ARC
  5
4847
330
1E
100
AcDbEntity
  8
OBJECT
100
AcDbCircle
 10
38.84025223659347
 20
32.9907336731319
 30
0.0
 40
0.0769999999999982
100
AcDbArc
 50
269.9999999999967
 51
0.000000000000007
  0
LINE
  5
4850
330
1E
100
AcDbEntity
  8
OBJECT
100
AcDbLine
 10
38.91725249821561
 20
33.64773361793519
 30
0.0
 11
39.03225237889367
 21
33.64773361793519
 31
0.0
  0
ARC
  5
4851
330
1E
100
AcDbEntity
  8
OBJECT
100
AcDbCircle
 10
39.03225223659345
 20
33.63273367313189
 30
0.0
 40
0.014999999999997
100
AcDbArc
 50
0.0000000002713974
 51
22.18416693954309
  0
ARC
  5
4857
330
1E
100
AcDbEntity
  8
OBJECT
100
AcDbCircle
 10
38.3042522365935
 20
32.9907336731319
 30
0.0
 40
0.0770000000000017
100
AcDbArc
 50
179.9999999999867
 51
269.9999999999992
  0
LINE
  5
485A
330
1E
100
AcDbEntity
  8
OBJECT
100
AcDbLine
 10
46.01525223693736
 20
48.59923356532916
 30
0.0
 11
39.12425238276844
 21
48.59923356532916
 31
0.0
  0
LINE
  5
485B
330
1E
100
AcDbEntity
  8
OBJECT
100
AcDbLine
 10
46.01525223693736
 20
48.66123354243346
 30
0.0
 11
39.12425238276844
 21
48.66123354243346
 31
0.0
  0
LINE
  5
485C
330
1E
100
AcDbEntity
  8
OBJECT
100
AcDbLine
 10
46.09225223659346
 20
42.70826430626747
 30
0.0
 11
46.09225223659345
 21
48.58423355194393
 31
0.0
  0
LINE
  5
485D
330
1E
100
AcDbEntity
  8
OBJECT
100
AcDbLine
 10
46.03025223657275
 20
42.69369101461937
 30
0.0
 11
46.03025223657275
 21
48.58423355194393
 31
0.0
  0
LINE
  5
485E
330
1E
100
AcDbEntity
  8
OBJECT
100
AcDbLine
 10
46.03025223657275
 20
47.40246147054252
 30
0.0
 11
46.03025223657275
 21
46.96740593634117
 31
0.0
  0
LINE
  5
4862
330
1E
100
AcDbEntity
  8
OBJECT
100
AcDbLine
 10
45.65485855485452
 20
42.67744097567454
 30
0.0
 11
45.65485855485452
 21
47.97228363457491
 31
0.0
  0
LINE
  5
4863
330
1E
100
AcDbEntity
  8
OBJECT
100
AcDbLine
 10
45.57685852925081
 20
42.6886594527444
 30
0.0
 11
45.57685852925081
 21
47.97228363457492
 31
0.0
  0
LINE
  5
4865
330
1E
100
AcDbEntity
  8
OBJECT
100
AcDbLine
 10
46.03025223657275
 20
46.9049336980258
 30
0.0
 11
45.65485855485452
 21
46.9049336980258
 31
0.0
  0
LINE
  5
4868
330
1E
100
AcDbEntity
  8
OBJECT
100
AcDbLine
 10
45.02625220445013
 20
47.0274335628969
 30
0.0
 11
45.02625220445013
 21
47.34243355065683
 31
0.0
  0
LINE
  5
4870
330
1E
100
AcDbEntity
  8
OBJECT
100
AcDbLine
 10
45.02625220445013
 20
47.34243355065683
 30
0.0
 11
45.57685852925081
 21
47.34243355065682
 31
0.0
  0
LINE
  5
4871
330
1E
100
AcDbEntity
  8
OBJECT
100
AcDbLine
 10
45.57685852925081
 20
47.0274335628969
 30
0.0
 11
45.02625220445013
 21
47.0274335628969
 31
0.0
  0
LINE
  5
4872
330
1E
100
AcDbEntity
  8
OBJECT
100
AcDbLine
 10
46.54225223482174
 20
48.80153384167243
 30
0.0
 11
46.54225223482174
 21
49.81793383346633
 31
0.0
  0
LINE
  5
4873
330
1E
100
AcDbEntity
  8
OBJECT
100
AcDbLine
 10
46.46425224588426
 20
48.80153384167243
 30
0.0
 11
46.46425224588426
 21
49.81793383346633
 31
0.0
  0
LINE
  5
4874
330
1E
100
AcDbEntity
  8
OBJECT
100
AcDbLine
 10
45.84225223961475
 20
48.70793342961905
 30
0.0
 11
45.96725223810411
 21
48.70793342961905
 31
0.0
  0
LINE
  5
4875
330
1E
100
AcDbEntity
  8
OBJECT
100
AcDbLine
 10
45.96725223810411
 20
48.78593338189027
 30
0.0
 11
45.84225223961475
 21
48.78593338189027
 31
0.0
  0
LINE
  5
4877
330
1E
100
AcDbEntity
  8
OBJECT
100
AcDbLine
 10
45.65485855485452
 20
47.46493370885789
 30
0.0
 11
46.03025223657275
 21
47.46493370885789
 31
0.0
  0
LINE
  5
4878
330
1E
100
AcDbEntity
  8
OBJECT
100
AcDbLine
 10
46.09356139191269
 20
48.70793342961905
 30
0.0
 11
45.96725223810411
 21
48.70793342961905
 31
0.0
  0
LINE
  5
4879
330
1E
100
AcDbEntity
  8
OBJECT
100
AcDbLine
 10
46.1858522361516
 20
48.78593338189027
 30
0.0
 11
45.96725223810411
 21
48.78593338189027
 31
0.0
  0
ARC
  5
487A
330
1E
100
AcDbEntity
  8
OBJECT
100
AcDbCircle
 10
46.18585223659346
 20
48.6923336731319
 30
0.0
 40
0.0936000000000004
100
AcDbArc
 50
90.0
 51
180.0
  0
ARC
  5
487B
330
1E
100
AcDbEntity
  8
OBJECT
100
AcDbCircle
 10
46.18585223659346
 20
48.6923336731319
 30
0.0
 40
0.0155999999999992
100
AcDbArc
 50
90.0
 51
180.0
  0
LINE
  5
487C
330
1E
100
AcDbEntity
  8
OBJECT
100
AcDbLine
 10
46.1858522361516
 20
48.70793342961905
 30
0.0
 11
46.44865222609704
 21
48.70793342961905
 31
0.0
  0
LINE
  5
487D
330
1E
100
AcDbEntity
  8
OBJECT
100
AcDbLine
 10
46.1858522361516
 20
48.78593338189027
 30
0.0
 11
46.44865222609704
 21
48.78593338189027
 31
0.0
  0
ARC
  5
487E
330
1E
100
AcDbEntity
  8
OBJECT
100
AcDbCircle
 10
46.44865223659346
 20
48.8015336731319
 30
0.0
 40
0.0936000000000021
100
AcDbArc
 50
269.9999999999992
 51
0.000000000000007
  0
ARC
  5
487F
330
1E
100
AcDbEntity
  8
OBJECT
100
AcDbCircle
 10
46.44865223659346
 20
48.8015336731319
 30
0.0
 40
0.015600000000001
100
AcDbArc
 50
269.9999999999992
 51
0.000000000000007
  0
LINE
  5
4880
330
1E
100
AcDbEntity
  8
OBJECT
100
AcDbLine
 10
46.17025223469748
 20
47.45793368305612
 30
0.0
 11
46.17025223469748
 21
47.58293359904643
 31
0.0
  0
LINE
  5
4881
330
1E
100
AcDbEntity
  8
OBJECT
100
AcDbLine
 10
46.09225223659345
 20
47.45793368305612
 30
0.0
 11
46.17025223469748
 21
47.45793368305612
 31
0.0
  0
LINE
  5
4882
330
1E
100
AcDbEntity
  8
OBJECT
100
AcDbLine
 10
46.09225223659345
 20
48.58423355194393
 30
0.0
 11
46.09225223659345
 21
48.69233355649678
 31
0.0
  0
LINE
  5
4883
330
1E
100
AcDbEntity
  8
OBJECT
100
AcDbLine
 10
46.17025223469748
 20
47.58293359904643
 30
0.0
 11
46.17025223469748
 21
48.69233355649678
 31
0.0
  0
ARC
  5
4884
330
1E
100
AcDbEntity
  8
OBJECT
100
AcDbCircle
 10
46.01525223659345
 20
48.5842336731319
 30
0.0
 40
0.0150000000000077
100
AcDbArc
 50
359.9999999991307
 51
90.0
  0
ARC
  5
4885
330
1E
100
AcDbEntity
  8
OBJECT
100
AcDbCircle
 10
46.01525223659345
 20
48.5842336731319
 30
0.0
 40
0.0770000000000124
100
AcDbArc
 50
0.000000000000007
 51
90.0
  0
LINE
  5
4886
330
1E
100
AcDbEntity
  8
OBJECT
100
AcDbLine
 10
45.84225223961475
 20
48.70793342961905
 30
0.0
 11
45.84225223961475
 21
48.78593338189027
 31
0.0
  0
LINE
  5
488D
330
1E
100
AcDbEntity
  8
OBJECT
100
AcDbLine
 10
45.65485855485452
 20
47.97228363457492
 30
0.0
 11
45.57685852925081
 21
47.97228363457492
 31
0.0
  0
LINE
  5
4890
330
1E
100
AcDbEntity
  8
OBJECT
100
AcDbLine
 10
46.46425224588426
 20
49.94293345612669
 30
0.0
 11
46.46425224588426
 21
49.81793383346633
 31
0.0
  0
LINE
  5
4891
330
1E
100
AcDbEntity
  8
OBJECT
100
AcDbLine
 10
46.54225223482174
 20
49.94293345612669
 30
0.0
 11
46.46425224588426
 21
49.94293345612669
 31
0.0
  0
LINE
  5
4892
330
1E
100
AcDbEntity
  8
OBJECT
100
AcDbLine
 10
46.54225223482174
 20
49.81793383346633
 30
0.0
 11
46.54225223482174
 21
49.94293345612669
 31
0.0
  0
LINE
  5
4894
330
1E
100
AcDbEntity
  8
OBJECT
100
AcDbLine
 10
38.28925244625911
 20
47.84423367381899
 30
0.0
 11
38.66425248755999
 21
47.84423367381899
 31
0.0
  0
LINE
  5
4895
330
1E
100
AcDbEntity
  8
OBJECT
100
AcDbLine
 10
38.84025221439611
 20
48.66123354243346
 30
0.0
 11
38.30425216631441
 21
48.66123354243346
 31
0.0
  0
LINE
  5
4896
330
1E
100
AcDbEntity
  8
OBJECT
100
AcDbLine
 10
38.84025221439611
 20
48.59923356532916
 30
0.0
 11
38.30425216631441
 21
48.59923356532916
 31
0.0
  0
LINE
  5
4897
330
1E
100
AcDbEntity
  8
OBJECT
100
AcDbLine
 10
38.66425248755999
 20
48.59923356532916
 30
0.0
 11
38.28925244625911
 21
48.59923356532916
 31
0.0
  0
LINE
  5
4898
330
1E
100
AcDbEntity
  8
OBJECT
100
AcDbLine
 10
38.28925244625911
 20
47.84923377605738
 30
0.0
 11
38.66425248755999
 21
47.84923377605738
 31
0.0
  0
LINE
  5
4899
330
1E
100
AcDbEntity
  8
OBJECT
100
AcDbLine
 10
38.91825216666734
 20
46.7312336779566
 30
0.0
 11
38.32925209084648
 21
46.7312336779566
 31
0.0
  0
LINE
  5
489A
330
1E
100
AcDbEntity
  8
OBJECT
100
AcDbLine
 10
38.32925209084648
 20
46.96723375166359
 30
0.0
 11
38.91825216666734
 21
46.96723375166359
 31
0.0
  0
LINE
  5
489B
330
1E
100
AcDbEntity
  8
OBJECT
100
AcDbLine
 10
38.66425248755999
 20
47.84423367381899
 30
0.0
 11
38.66425248755999
 21
46.96723375166359
 31
0.0
  0
LINE
  5
489C
330
1E
100
AcDbEntity
  8
OBJECT
100
AcDbLine
 10
39.10925207605327
 20
47.93516273006544
 30
0.0
 11
39.10925207605327
 21
43.04795288548935
 31
0.0
  0
LINE
  5
489D
330
1E
100
AcDbEntity
  8
OBJECT
100
AcDbLine
 10
38.66425248755999
 20
46.7312336779566
 30
0.0
 11
38.66425248755999
 21
43.27793558870952
 31
0.0
  0
LINE
  5
489E
330
1E
100
AcDbEntity
  8
OBJECT
100
AcDbLine
 10
38.91825216666734
 20
46.96723375166359
 30
0.0
 11
38.91825216666734
 21
46.7312336779566
 31
0.0
  0
LINE
  5
489F
330
1E
100
AcDbEntity
  8
OBJECT
100
AcDbLine
 10
40.60925224125668
 20
47.97023355159097
 30
0.0
 11
40.49125235106815
 21
47.97023355159097
 31
0.0
  0
LINE
  5
48A0
330
1E
100
AcDbEntity
  8
OBJECT
100
AcDbLine
 10
40.60925224125668
 20
48.55923362741186
 30
0.0
 11
40.46525217142445
 21
48.55923362741186
 31
0.0
  0
LINE
  5
48A1
330
1E
100
AcDbEntity
  8
OBJECT
100
AcDbLine
 10
40.72725213144522
 20
47.97023355159097
 30
0.0
 11
40.60925224125668
 21
47.97023355159097
 31
0.0
  0
LINE
  5
48A2
330
1E
100
AcDbEntity
  8
OBJECT
100
AcDbLine
 10
40.75325231108893
 20
48.55923362741186
 30
0.0
 11
40.60925224125668
 21
48.55923362741186
 31
0.0
  0
LINE
  5
48A3
330
1E
100
AcDbEntity
  8
OBJECT
100
AcDbLine
 10
40.72725213144522
 20
48.55923362741186
 30
0.0
 11
40.72725213144522
 21
47.97023355159097
 31
0.0
  0
LINE
  5
48A4
330
1E
100
AcDbEntity
  8
OBJECT
100
AcDbLine
 10
40.75325231108893
 20
48.59923356532916
 30
0.0
 11
40.75325231108893
 21
48.55923362741186
 31
0.0
  0
LINE
  5
48A5
330
1E
100
AcDbEntity
  8
OBJECT
100
AcDbLine
 10
40.49125235106815
 20
47.97023355159097
 30
0.0
 11
40.49125235106815
 21
48.55923362741186
 31
0.0
  0
LINE
  5
48A6
330
1E
100
AcDbEntity
  8
OBJECT
100
AcDbLine
 10
40.46525217142445
 20
48.55923362741186
 30
0.0
 11
40.46525217142445
 21
48.59923356532916
 31
0.0
  0
LINE
  5
48A7
330
1E
100
AcDbEntity
  8
OBJECT
100
AcDbLine
 10
38.41741169491905
 20
47.84923377605738
 30
0.0
 11
38.41741169491905
 21
47.84423367381899
 31
0.0
  0
LINE
  5
48A8
330
1E
100
AcDbEntity
  8
OBJECT
100
AcDbLine
 10
39.10925207605327
 20
47.93516273006544
 30
0.0
 11
39.10925207605327
 21
47.94223374171385
 31
0.0
  0
ARC
  5
48A9
330
1E
100
AcDbEntity
  8
OBJECT
100
AcDbCircle
 10
39.12425223659345
 20
48.5842336731319
 30
0.0
 40
0.0150000000000006
100
AcDbArc
 50
90.0
 51
179.9999999999728
  0
LINE
  5
48AA
330
1E
100
AcDbEntity
  8
OBJECT
100
AcDbLine
 10
39.10925207605327
 20
47.94223374171385
 30
0.0
 11
39.10925207605327
 21
48.58423355194393
 31
0.0
  0
ARC
  5
48AB
330
1E
100
AcDbEntity
  8
OBJECT
100
AcDbCircle
 10
39.03225223659345
 20
47.94223367313191
 30
0.0
 40
0.0770000000000053
100
AcDbArc
 50
269.9999999999992
 51
0.000000000000007
  0
LINE
  5
48AC
330
1E
100
AcDbEntity
  8
OBJECT
100
AcDbLine
 10
38.65446570311758
 20
47.8652337512243
 30
0.0
 11
39.03225237889367
 21
47.8652337512243
 31
0.0
  0
ARC
  5
48AD
330
1E
100
AcDbEntity
  8
OBJECT
100
AcDbCircle
 10
38.65446544002904
 20
47.94223367313191
 30
0.0
 40
0.0770000000000018
100
AcDbArc
 50
225.0000000000009
 51
269.9999999999992
  0
LINE
  5
48AE
330
1E
100
AcDbEntity
  8
OBJECT
100
AcDbLine
 10
38.41741169491905
 20
48.07039311453917
 30
0.0
 11
38.60001838543098
 21
47.88778642402724
 31
0.0
  0
LINE
  5
48AF
330
1E
100
AcDbEntity
  8
OBJECT
100
AcDbLine
 10
38.4612522018031
 20
48.11423362142322
 30
0.0
 11
38.41741169491905
 21
48.07039311453917
 31
0.0
  0
LINE
  5
48B0
330
1E
100
AcDbEntity
  8
OBJECT
100
AcDbLine
 10
38.4612522018031
 20
48.11423362142322
 30
0.0
 11
38.64385889231503
 21
47.9316269309113
 31
0.0
  0
ARC
  5
48B1
330
1E
100
AcDbEntity
  8
OBJECT
100
AcDbCircle
 10
38.65446544002904
 20
47.94223367313191
 30
0.0
 40
0.0150000000000006
100
AcDbArc
 50
224.9999999999894
 51
269.9999999999992
  0
LINE
  5
48B2
330
1E
100
AcDbEntity
  8
OBJECT
100
AcDbLine
 10
38.65446570311758
 20
47.92723372832861
 30
0.0
 11
39.03225237889367
 21
47.92723372832861
 31
0.0
  0
ARC
  5
48B3
330
1E
100
AcDbEntity
  8
OBJECT
100
AcDbCircle
 10
39.03225223659345
 20
47.94223367313191
 30
0.0
 40
0.0150000000000006
100
AcDbArc
 50
269.9999999999992
 51
0.000000000000007
  0
LINE
  5
48B4
330
1E
100
AcDbEntity
  8
OBJECT
100
AcDbLine
 10
39.04725209894896
 20
47.94223374171385
 30
0.0
 11
39.04725209894896
 21
48.58423355194393
 31
0.0
  0
ARC
  5
48B5
330
1E
100
AcDbEntity
  8
OBJECT
100
AcDbCircle
 10
39.12425223659345
 20
48.5842336731319
 30
0.0
 40
0.0770000000000053
100
AcDbArc
 50
90.0
 51
180.0
  0
LINE
  5
48B6
330
1E
100
AcDbEntity
  8
OBJECT
100
AcDbLine
 10
38.84025221439611
 20
48.30223376962948
 30
0.0
 11
38.85525252111131
 21
48.30223376962948
 31
0.0
  0
LINE
  5
48B7
330
1E
100
AcDbEntity
  8
OBJECT
100
AcDbLine
 10
38.91577704859347
 20
48.30223376962948
 30
0.0
 11
38.91577704859347
 21
48.3172337830147
 31
0.0
  0
LINE
  5
48B8
330
1E
100
AcDbEntity
  8
OBJECT
100
AcDbLine
 10
38.85525252111131
 20
48.30223376962948
 30
0.0
 11
38.85525252111131
 21
47.92723372832861
 31
0.0
  0
LINE
  5
48B9
330
1E
100
AcDbEntity
  8
OBJECT
100
AcDbLine
 10
38.91725249821561
 20
48.30223376962948
 30
0.0
 11
38.85525252111131
 21
48.30223376962948
 31
0.0
  0
LINE
  5
48BA
330
1E
100
AcDbEntity
  8
OBJECT
100
AcDbLine
 10
38.91725249821561
 20
48.30223376962948
 30
0.0
 11
38.91725249821561
 21
47.92723372832861
 31
0.0
  0
ARC
  5
48BB
330
1E
100
AcDbEntity
  8
OBJECT
100
AcDbCircle
 10
38.84025223659349
 20
48.5842336731319
 30
0.0
 40
0.0770000000000017
100
AcDbArc
 50
0.0000000000026532
 51
90.0
  0
LINE
  5
48BC
330
1E
100
AcDbEntity
  8
OBJECT
100
AcDbLine
 10
38.91725249821561
 20
48.58423355194393
 30
0.0
 11
38.91725249821561
 21
48.3172337830147
 31
0.0
  0
LINE
  5
48BD
330
1E
100
AcDbEntity
  8
OBJECT
100
AcDbLine
 10
38.91725249821561
 20
48.3172337830147
 30
0.0
 11
38.85525252111131
 21
48.3172337830147
 31
0.0
  0
LINE
  5
48BE
330
1E
100
AcDbEntity
  8
OBJECT
100
AcDbLine
 10
38.85525252111131
 20
48.58423355194393
 30
0.0
 11
38.85525252111131
 21
48.3172337830147
 31
0.0
  0
ARC
  5
48BF
330
1E
100
AcDbEntity
  8
OBJECT
100
AcDbCircle
 10
38.84025223659349
 20
48.5842336731319
 30
0.0
 40
0.0150000000000006
100
AcDbArc
 50
0.0000000000135943
 51
90.0
  0
LINE
  5
48C0
330
1E
100
AcDbEntity
  8
OBJECT
100
AcDbLine
 10
38.66425248755999
 20
47.84923377605738
 30
0.0
 11
38.66425248755999
 21
48.59923356532916
 31
0.0
  0
LINE
  5
48C2
330
1E
100
AcDbEntity
  8
OBJECT
100
AcDbLine
 10
38.28925244625911
 20
48.58423355194393
 30
0.0
 11
38.28925244625911
 21
43.37057160523703
 31
0.0
  0
LINE
  5
48C3
330
1E
100
AcDbEntity
  8
OBJECT
100
AcDbLine
 10
38.2272524691548
 20
48.58423355194393
 30
0.0
 11
38.2272524691548
 21
43.38011494832485
 31
0.0
  0
LINE
  5
48C4
330
1E
100
AcDbEntity
  8
OBJECT
100
AcDbLine
 10
38.07025230950073
 20
35.37373316050944
 30
0.0
 11
38.07025230950073
 21
34.58273317820873
 31
0.0
  0
ARC
  5
48C5
330
1E
100
AcDbEntity
  8
OBJECT
100
AcDbCircle
 10
38.72958666383365
 20
34.86504583767612
 30
0.0
 40
0.832757280579916
100
AcDbArc
 50
127.1007404684231
 51
142.3492242724967
  0
LINE
  5
48C6
330
1E
100
AcDbEntity
  8
OBJECT
100
AcDbLine
 10
38.32925209084648
 20
46.99323363797737
 30
0.0
 11
38.32925209084648
 21
46.70523379164282
 31
0.0
  0
LINE
  5
48C7
330
1E
100
AcDbEntity
  8
OBJECT
100
AcDbLine
 10
38.32925209084648
 20
46.70523379164282
 30
0.0
 11
38.28925244625911
 21
46.70523379164282
 31
0.0
  0
LINE
  5
48C8
330
1E
100
AcDbEntity
  8
OBJECT
100
AcDbLine
 10
38.28925244625911
 20
46.99323363797737
 30
0.0
 11
38.32925209084648
 21
46.99323363797737
 31
0.0
  0
ARC
  5
48C9
330
1E
100
AcDbEntity
  8
OBJECT
100
AcDbCircle
 10
38.30425223659348
 20
48.5842336731319
 30
0.0
 40
0.0770000000000053
100
AcDbArc
 50
90.0
 51
179.9999999999947
  0
LINE
  5
48CB
330
1E
100
AcDbEntity
  8
OBJECT
100
AcDbLine
 10
38.28925244625911
 20
47.84923377605738
 30
0.0
 11
38.28925244625911
 21
48.59923356532916
 31
0.0
  0
DIMENSION
  5
48CD
330
1E
100
AcDbEntity
  8
DIM
100
AcDbDimension
  2
*D7
 10
38.28925244625912
 20
45.54800375215373
 30
0.0
 11
42.21380393697543
 21
45.54800375215373
 31
0.0
 70
   160
  1
"D"
 71
     5
 42
7.287606082991693
  3
23NSTDI
100
AcDbAlignedDimension
 13
45.57685852925081
 23
45.20683601740862
 33
0.0
 14
38.28925244625912
 24
45.20683601740862
 34
0.0
 50
180.0
100
AcDbRotatedDimension
  0
DIMENSION
  5
48EF
330
1E
100
AcDbEntity
  8
DIM
100
AcDbDimension
  2
*D8
 10
46.03025223657275
 20
44.24740454695116
 30
0.0
 11
50.69665848657275
 21
44.24740454695116
 31
0.0
 70
   160
 71
     5
 42
0.3753936817182222
  3
23NSTD
100
AcDbAlignedDimension
 13
45.65485855485452
 23
44.34977083513349
 33
0.0
 14
46.03025223657275
 24
44.34977083513349
 34
0.0
 50
180.0
100
AcDbRotatedDimension
  0
LINE
  5
4901
330
1E
100
AcDbEntity
  8
OBJECT
100
AcDbLine
 10
71.74810065626968
 20
25.74005895473703
 30
0.0
 11
85.88995850504559
 21
25.74005869164849
 31
0.0
  0
TEXT
  5
4AF1
330
1E
100
AcDbEntity
  8
TEXT
100
AcDbText
 10
9.354907113301285
 20
9.78886843323772
 30
0.0
 40
0.6881009615569953
  1
"A"
 41
0.75
 72
     1
 11
9.870982834469032
 21
9.78886843323772
 31
0.0
100
AcDbText
  0
TEXT
  5
4B21
330
1E
100
AcDbEntity
  8
TEXT
100
AcDbText
 10
22.42600913000375
 20
9.78886843323772
 30
0.0
 40
0.6881009615569953
  1
"C"
 41
0.75
 72
     1
 11
22.9420848511715
 21
9.78886843323772
 31
0.0
100
AcDbText
  0
TEXT
  5
4B25
330
1E
100
AcDbEntity
  8
TEXT
100
AcDbText
 10
16.00041065907036
 20
9.78886843323772
 30
0.0
 40
0.6881009615569953
  1
"B"
 41
0.75
 72
     1
 11
16.5164863802381
 21
9.78886843323772
 31
0.0
100
AcDbText
  0
TEXT
  5
4B38
330
1E
100
AcDbEntity
  8
TEXT
100
AcDbText
 10
35.30584816123512
 20
9.78886843323772
 30
0.0
 40
0.6881009615569953
  1
"E"
 41
0.75
 72
     1
 11
35.82192388240287
 21
9.78886843323772
 31
0.0
100
AcDbText
  0
TEXT
  5
4B45
330
1E
100
AcDbEntity
  8
TEXT
100
AcDbText
 10
48.3986644764781
 20
9.78886843323772
 30
0.0
 40
0.6881009615569953
  1
"G"
 41
0.75
 72
     1
 11
48.91474019764584
 21
9.78886843323772
 31
0.0
100
AcDbText
  0
DIMENSION
  5
4BB5
330
1E
100
AcDbEntity
  8
DIM
100
AcDbDimension
  2
*D9
 10
38.22725246915481
 20
31.54220657643492
 30
0.0
 11
33.38897121915481
 21
31.54220657643492
 31
0.0
 70
   160
 71
     5
 42
0.6900000290607978
  3
23NSTD
100
AcDbAlignedDimension
 13
38.91725249821561
 23
32.99073379431987
 33
0.0
 14
38.22725246915481
 24
32.99073379431987
 34
0.0
 50
180.0
100
AcDbRotatedDimension
  0
DIMENSION
  5
4BCD
330
1E
100
AcDbEntity
  8
DIM
100
AcDbDimension
  2
*D10
 10
46.54225223482174
 20
51.5342862054072
 30
0.0
 11
51.29459598482174
 21
51.5342862054072
 31
0.0
 70
   160
 71
     5
 42
0.449999998228293
  3
23NSTD
100
AcDbAlignedDimension
 13
46.09225223659345
 23
48.58423355194393
 33
0.0
 14
46.54225223482174
 24
49.94293345612669
 34
0.0
 50
180.0
100
AcDbRotatedDimension
  0
TEXT
  5
4C39
330
1E
100
AcDbEntity
  8
TEXT
100
AcDbText
 10
45.91140417942512
 20
54.83899505629018
 30
0.0
 40
1.032902644214618
  1
SNB-3731 THRU SNB-3737  AND  SNB-3743
 41
0.75
 72
     1
 11
59.9847027068493
 21
54.83899505629018
 31
0.0
100
AcDbText
  0
MTEXT
  5
4C3A
102
{ACAD_REACTORS
330
4C3B
102
}
330
1E
100
AcDbEntity
  8
DIM
100
AcDbMText
 10
68.9568171841494
 20
21.16165740318133
 30
0.0
 40
0.6891025364983975
 41
0.0
 71
     3
 72
     1
  1
M6x1.0 PITCH x 16mm LG.\PWELD STUD (FOR GROUNDING)\P(SAME STUD IN COVER)
 73
     1
 44
1.0
  0
LEADER
  5
4C3B
330
1E
100
AcDbEntity
  8
DIM
100
AcDbLeader
  3
23NSTD
 73
     0
 75
     1
 40
2.986110991493055
 41
12.40384565697115
 76
     3
 10
72.64888446280133
 20
23.65178548133114
 30
0.0
 10
70.4418171841494
 20
20.81710613493214
 30
0.0
 10
69.4518171841494
 20
20.81710613493214
 30
0.0
340
4C3A
210
0.0
220
0.0
230
-1.0
213
0.0
223
-0.3445512682491987
233
0.0
  0
TEXT
  5
4CC9
330
1E
100
AcDbEntity
  8
TEXT
100
AcDbText
 10
83.59945027938252
 20
54.80718880110351
 30
0.0
 40
1.032902644214618
  1
10-24-11
 41
0.75
 72
     1
 11
86.11715047465565
 21
54.80718880110351
 31
0.0
100
AcDbText
  0
MTEXT
  5
4CDB
330
1E
100
AcDbEntity
  8
BEND
100
AcDbMText
 10
69.08271850796268
 20
45.92769502605489
 30
0.0
 40
0.6881009615625001
 41
0.0
 71
     1
 72
     1
  1
"A"
 73
     1
 44
1.0
  0
LEADER
  5
4CDC
330
1E
100
AcDbEntity
  8
BEND
100
AcDbLeader
  3
23NSTD
 76
     2
 10
70.34944688151293
 20
46.92452636932945
 30
0.0
 10
70.34944688151293
 20
44.79410419413119
 30
0.0
211
-1.0
221
0.0
231
0.0
210
0.0
220
0.0
230
-1.0
1001
ACAD
1000
DSTYLE
1002
{
1070
   147
1040
0.09
1070
    77
1070
     0
1002
}
  0
DIMENSION
  5
4CEA
330
1E
100
AcDbEntity
  8
DIM
100
AcDbDimension
  2
*D11
 10
8.135047831770403
 20
30.14645064312239
 30
0.0
 11
15.28074783177041
 21
30.14645064312239
 31
0.0
 70
    32
  1
"F"
 71
     5
 42
14.29140000000001
  3
23NSTD
100
AcDbAlignedDimension
 13
22.42644783177041
 23
32.15153316935908
 33
0.0
 14
8.135047831770403
 24
32.15153316935908
 34
0.0
100
AcDbRotatedDimension
  0
DIMENSION
  5
4CF8
330
1E
100
AcDbEntity
  8
DIM
100
AcDbDimension
  2
*D12
 10
28.65072976165106
 20
32.27653316482649
 30
0.0
 11
28.65072976165106
 21
40.78723316935908
 31
0.0
 70
    32
  1
"E"
 71
     5
 42
17.02140000906517
  3
23NSTD
100
AcDbAlignedDimension
 13
22.644947733798
 23
49.29793317389166
 33
0.0
 14
22.644947733798
 24
32.27653316482649
 34
0.0
 50
90.0
100
AcDbRotatedDimension
  0
DIMENSION
  5
4D70
330
1E
100
AcDbEntity
  8
DIM
100
AcDbDimension
  2
*D13
 10
71.74102966022577
 20
50.51426237666918
 30
0.0
 11
79.18610636484962
 21
50.51426237666918
 31
0.0
 70
   160
  1
"H" OPENING
 71
     5
 42
14.15599985646824
  3
23NSTD
100
AcDbAlignedDimension
 13
85.897029516694
 23
47.79089795518205
 33
0.0
 14
71.74102966022577
 24
47.79089795518205
 34
0.0
100
AcDbRotatedDimension
  0
DIMENSION
  5
4DD8
330
1E
100
AcDbEntity
  8
DIM
100
AcDbDimension
  2
*D14
 10
68.76936900974204
 20
47.78382694353365
 30
0.0
 11
68.76936900974202
 21
40.71314787708964
 31
0.0
 70
    32
  1
"G"\POPENING
 71
     5
 42
14.14135813288803
  3
23NSTD
100
AcDbAlignedDimension
 13
71.74102966022577
 23
33.64246881064562
 33
0.0
 14
71.74102966022577
 24
47.78382694353365
 34
0.0
 50
90.0
100
AcDbRotatedDimension
  0
DIMENSION
  5
4DF0
330
1E
100
AcDbEntity
  8
DIM
100
AcDbDimension
  2
*D15
 10
71.92927972554494
 20
31.20339180230132
 30
0.0
 11
78.84989259712106
 21
31.20339180230132
 31
0.0
 70
   160
  1
"M" PANEL
 71
     5
 42
13.77949972582988
  3
23NSTDI
100
AcDbAlignedDimension
 13
85.70877945137482
 23
34.29734785876032
 33
0.0
 14
71.92927972554494
 24
34.29734785876032
 34
0.0
100
AcDbRotatedDimension
  0
LINE
  5
4E12
330
1E
100
AcDbEntity
  8
HIDDEN
100
AcDbLine
 10
73.25361526815012
 20
47.97228363457492
 30
0.0
 11
84.38444390876965
 21
47.97228363457492
 31
0.0
  0
LINE
  5
4E13
330
1E
100
AcDbEntity
  8
HIDDEN
100
AcDbLine
 10
73.25361526814996
 20
33.45401211960435
 30
0.0
 11
84.38444390876981
 21
33.45401211960435
 31
0.0
  0
DIMENSION
  5
4E15
330
1E
100
AcDbEntity
  8
DIM
100
AcDbDimension
  2
*D16
 10
88.96080563767531
 20
33.45401211960435
 30
0.0
 11
88.96080563767529
 21
40.94306514487715
 31
0.0
 70
   160
  1
"L"\PPANEL
 71
     5
 42
14.51827151497057
  3
23NSTD
100
AcDbAlignedDimension
 13
84.38444390876965
 23
47.97228363457492
 33
0.0
 14
84.38444390876981
 24
33.45401211960435
 34
0.0
 50
90.0
100
AcDbRotatedDimension
  0
DIMENSION
  5
4EE8
330
1E
100
AcDbEntity
  8
DIM
100
AcDbDimension
  2
*D17
 10
23.15474784454363
 20
37.34328135281347
 30
0.0
 11
16.80549781899721
 21
37.34328135281347
 31
0.0
 70
   160
 71
     5
 42
1.468000025546416
  3
23NSTD
100
AcDbAlignedDimension
 13
21.68674781899722
 23
34.97823316935908
 33
0.0
 14
23.15474784454363
 24
38.46633297720616
 34
0.0
100
AcDbRotatedDimension
  0
TEXT
  5
507F
330
1E
100
AcDbEntity
  8
TEXT
100
AcDbText
 10
28.88210508540538
 20
9.78886843323772
 30
0.0
 40
0.6881009615569953
  1
"D"
 41
0.75
 72
     1
 11
29.39818080657312
 21
9.78886843323772
 31
0.0
100
AcDbText
  0
TEXT
  5
5089
330
1E
100
AcDbEntity
  8
TEXT
100
AcDbText
 10
41.8056260637883
 20
9.78886843323772
 30
0.0
 40
0.6881009615569953
  1
"F"
 41
0.75
 72
     1
 11
42.32170178495604
 21
9.78886843323772
 31
0.0
100
AcDbText
  0
TEXT
  5
508A
330
1E
100
AcDbEntity
  8
TEXT
100
AcDbText
 10
67.93363749082103
 20
9.788868433237734
 30
0.0
 40
0.6881009615569953
  1
"K"
 41
0.75
 72
     1
 11
68.44971321198878
 21
9.788868433237734
 31
0.0
100
AcDbText
  0
TEXT
  5
508B
330
1E
100
AcDbEntity
  8
TEXT
100
AcDbText
 10
61.10829101083098
 20
9.78886843323772
 30
0.0
 40
0.6881009615569953
  1
"J"
 41
0.75
 72
     1
 11
61.62436673199872
 21
9.78886843323772
 31
0.0
100
AcDbText
  0
TEXT
  5
508C
330
1E
100
AcDbEntity
  8
TEXT
100
AcDbText
 10
54.97163399652833
 20
9.788868433237734
 30
0.0
 40
0.6881009615569953
  1
"H"
 41
0.75
 72
     1
 11
55.48770971769608
 21
9.788868433237734
 31
0.0
100
AcDbText
  0
TEXT
  5
508D
330
1E
100
AcDbEntity
  8
TEXT
100
AcDbText
 10
74.02430145933793
 20
9.788868433237734
 30
0.0
 40
0.6881009615569953
  1
"L"
 41
0.75
 72
     1
 11
74.54037718050568
 21
9.788868433237734
 31
0.0
100
AcDbText
  0
TEXT
  5
508E
330
1E
100
AcDbEntity
  8
TEXT
100
AcDbText
 10
80.733592059357
 20
9.78886843323772
 30
0.0
 40
0.6881009615569953
  1
"M"
 41
0.75
 72
     1
 11
81.24966778052476
 21
9.78886843323772
 31
0.0
100
AcDbText
  0
TEXT
  5
508F
330
1E
100
AcDbEntity
  8
TEXT
100
AcDbText
 10
87.27731998336468
 20
9.78886843323772
 30
0.0
 40
0.6881009615569953
  1
"N"
 41
0.75
 72
     1
 11
87.79339570453243
 21
9.78886843323772
 31
0.0
100
AcDbText
  0
TEXT
  5
5143
330
1E
100
AcDbEntity
  8
TEXT
100
AcDbText
 10
27.07451609629503
 20
1.735022279081222
 30
0.0
 40
0.6881009615597477
  1
7.29 [185.1]
 41
0.75
 72
     1
 11
29.39685684155918
 21
1.735022279081222
 31
0.0
100
AcDbText
  0
TEXT
  5
5148
330
1E
100
AcDbEntity
  8
TEXT
100
AcDbText
 10
27.07451609629503
 20
0.584180932727108
 30
0.0
 40
0.6881009615597477
  1
7.29 [185.1]
 41
0.75
 72
     1
 11
29.39685684155918
 21
0.584180932727108
 31
0.0
100
AcDbText
  0
TEXT
  5
5279
330
1E
100
AcDbEntity
  8
TEXT
100
AcDbText
 10
78.91061214189367
 20
1.735022279075687
 30
0.0
 40
0.6881009615569953
  1
13.78 [350]
 41
0.75
 72
     1
 11
81.18994657705121
 21
1.735022279075687
 31
0.0
100
AcDbText
  0
TEXT
  5
527C
330
1E
100
AcDbEntity
  8
TEXT
100
AcDbText
 10
72.32180998874351
 20
1.735022279075652
 30
0.0
 40
0.6881009615569953
  1
14.37 [365]
 41
0.75
 72
     1
 11
74.64415073399838
 21
1.735022279075652
 31
0.0
100
AcDbText
  0
LEADER
  5
61E4
330
1E
100
AcDbEntity
  8
BEND
100
AcDbLeader
  3
23NSTD
 76
     2
 10
87.40057293894812
 20
46.88064972684573
 30
0.0
 10
87.40057293894812
 20
44.79410419413119
 30
0.0
1001
ACAD
1000
DSTYLE
1002
{
1070
   147
1040
0.09
1070
    77
1070
     0
1002
}
  0
MTEXT
  5
61E5
330
1E
100
AcDbEntity
  8
BEND
100
AcDbMText
 10
87.63532280496738
 20
45.92769502605489
 30
0.0
 40
0.6881009615625001
 41
0.0
 71
     1
 72
     1
  1
"A"
 73
     1
 44
1.0
  0
LEADER
  5
6327
330
1E
100
AcDbEntity
  8
DIM
100
AcDbLeader
  3
23NSTD
 73
     0
 74
     0
 75
     1
 40
5.275440705312499
 41
20.21296574589843
 76
     3
 10
22.77198576920312
 20
31.59120141008656
 30
0.0
 10
24.55979682960673
 20
29.21451434281376
 30
0.0
 10
25.54979682960673
 20
29.21451434281376
 30
0.0
340
6328
213
0.0
223
-0.34405048078125
233
0.0
  0
MTEXT
  5
6328
102
{ACAD_REACTORS
330
6327
102
}
330
1E
100
AcDbEntity
  8
DIM
100
AcDbMText
 10
26.04479682960673
 20
29.558564823595
 30
0.0
 40
0.6881009615625001
 41
0.0
 71
     1
 72
     1
  1
WALL MOUNTING BRACKET KIT\PSUPPLIED WITH THE FOLLOWING:\P(4) BRACKETS, (4) M10x1.5 x 19.5mm LG. BOLTS,\P(4) SEALING WASHERS, (4) FLAT WASHERS,\P(4) SPLIT LOCKWASHERS & (4) HEX NUTS
 73
     1
 44
1.0
  0
LEADER
  5
6379
330
1E
100
AcDbEntity
  8
DIM
100
AcDbLeader
  3
23NSTD
 73
     0
 74
     0
 75
     1
 40
1.8349358975
 41
6.536959134843749
 76
     3
 10
22.00559608440205
 20
47.04360693767262
 30
0.0
 10
26.42860309832091
 20
52.27734858809906
 30
0.0
 10
27.41860309832091
 20
52.27734858809906
 30
0.0
340
637A
213
0.0
223
-0.34405048078125
233
0.0
  0
MTEXT
  5
637A
102
{ACAD_REACTORS
330
6379
102
}
330
1E
100
AcDbEntity
  8
DIM
100
AcDbMText
 10
27.91360309832091
 20
52.62139906888031
 30
0.0
 40
0.6881009615625001
 41
0.0
 71
     1
 72
     1
  1
QUARTER-TURN\PKEYED LATCHES
 73
     1
 44
1.0
  0
LEADER
  5
637B
330
1E
100
AcDbEntity
  8
DIM
100
AcDbLeader
  3
23NSTD
 73
     0
 75
     1
 40
0.6881009615625001
 41
6.881009615624999
 76
     3
 10
71.92927972554494
 20
46.11442614974893
 30
0.0
 10
69.40186399852915
 20
49.85021270443422
 30
0.0
 10
68.41186399852915
 20
49.85021270443422
 30
0.0
340
637C
210
0.0
220
0.0
230
-1.0
  0
MTEXT
  5
637C
102
{ACAD_REACTORS
330
637B
102
}
330
1E
100
AcDbEntity
  8
DIM
100
AcDbMText
 10
67.91686399852915
 20
49.85021270443422
 30
0.0
 40
0.6881009615625001
 41
0.0
 71
     6
 72
     1
  1
\A1;INTERNAL PANEL
 73
     1
 44
1.0
  0
TEXT
  5
63D4
330
1E
100
AcDbEntity
  8
TEXT
100
AcDbText
 10
0.9926267689124586
 20
23.53173290895664
 30
0.0
 40
0.6886014873717948
  1
MATERIAL:
 41
0.75
100
AcDbText
  0
TEXT
  5
63D5
330
1E
100
AcDbEntity
  8
TEXT
100
AcDbText
 10
0.9926267689124586
 20
22.38589957563664
 30
0.0
 40
0.6886014873717948
  1
 BODY & COVER - 16 GA. [1.5mm] C.R.S.
 41
0.75
100
AcDbText
  0
TEXT
  5
63D6
330
1E
100
AcDbEntity
  8
TEXT
100
AcDbText
 10
0.9926267689124586
 20
21.24006624231664
 30
0.0
 40
0.6886014873717948
  1
 INTERNAL PANEL - 14 GA. [2.0mm] C.R.S.
 41
0.75
100
AcDbText
  0
TEXT
  5
63D7
330
1E
100
AcDbEntity
  8
TEXT
100
AcDbText
 10
0.9926267689124586
 20
20.09423290899664
 30
0.0
 40
0.6886014873717948
  1
 WALL MOUNTING BRACKETS - 14 GA. [2.0mm] TYPE 430
 41
0.75
100
AcDbText
  0
TEXT
  5
63D8
330
1E
100
AcDbEntity
  8
TEXT
100
AcDbText
 10
0.9926267689124586
 20
16.65673290903664
 30
0.0
 40
0.6886014873717948
  1
 HINGE PINS & WALL MTG. HARDWARE - TYPE 201 STAINLESS STEEL
 41
0.75
100
AcDbText
  0
TEXT
  5
63D9
330
1E
100
AcDbEntity
  8
TEXT
100
AcDbText
 10
0.9926267689124586
 20
14.36506624239665
 30
0.0
 40
0.6886014873717948
  1
 GASKET - 0.38 [9.5] THK. ROGERS CORP. PORON #4701-30-15375-04 (BLACK)
 41
0.75
100
AcDbText
  0
TEXT
  5
63DA
330
1E
100
AcDbEntity
  8
TEXT
100
AcDbText
 10
0.9926267689124586
 20
13.21923290907665
 30
0.0
 40
0.6886014873717948
  1
 SEALING WASHERS - BLACK NEOPRENE OR EQUIVALENT
 41
0.75
100
AcDbText
  0
TEXT
  5
63DC
330
1E
100
AcDbEntity
  8
TEXT
100
AcDbText
 10
32.33299558192928
 20
19.03511429722269
 30
0.0
 40
0.6886014873717948
  1
 WALL MOUNTING BRACKETS & HINGE PINS - NATURAL
 41
0.75
100
AcDbText
  0
TEXT
  5
63DD
330
1E
100
AcDbEntity
  8
TEXT
100
AcDbText
 10
32.33299558192928
 20
20.18094763054269
 30
0.0
 40
0.6886014873717948
  1
 INTERNAL PANEL - ZINC PLATED
 41
0.75
100
AcDbText
  0
TEXT
  5
63DE
330
1E
100
AcDbEntity
  8
TEXT
100
AcDbText
 10
32.33299558192928
 20
21.32678096386269
 30
0.0
 40
0.6886014873717948
  1
 BODY & COVER - LIGHT GRAY SMOOTH POWDER COAT
 41
0.75
100
AcDbText
  0
TEXT
  5
63DF
330
1E
100
AcDbEntity
  8
TEXT
100
AcDbText
 10
32.33299558192928
 20
22.47261429718268
 30
0.0
 40
0.6886014873717948
  1
FINISH:
 41
0.75
100
AcDbText
  0
TEXT
  5
63F2
330
1E
100
AcDbEntity
  8
TEXT
100
AcDbText
 10
33.3263864970811
 20
1.735022279075701
 30
0.0
 40
0.6881009615569953
  1
17.02 [432.3]
 41
0.75
 72
     1
 11
35.94977141301714
 21
1.735022279075701
 31
0.0
100
AcDbText
  0
TEXT
  5
63F9
330
1E
100
AcDbEntity
  8
TEXT
100
AcDbText
 10
33.3263864970811
 20
0.58418093272617
 30
0.0
 40
0.6881009615569953
  1
17.02 [432.3]
 41
0.75
 72
     1
 11
35.94977141301714
 21
0.58418093272617
 31
0.0
100
AcDbText
  0
TEXT
  5
6401
330
1E
100
AcDbEntity
  8
TEXT
100
AcDbText
 10
39.98674096852657
 20
1.735022279075687
 30
0.0
 40
0.6881009615569953
  1
14.29 [363]
 41
0.75
 72
     1
 11
42.30908171378144
 21
1.735022279075687
 31
0.0
100
AcDbText
  0
TEXT
  5
6407
330
1E
100
AcDbEntity
  8
TEXT
100
AcDbText
 10
40.07275358872126
 20
0.5841809327261416
 30
0.0
 40
0.6881009615569953
  1
12.52 [318]
 41
0.75
 72
     1
 11
42.30908171378149
 21
0.5841809327261416
 31
0.0
100
AcDbText
  0
TEXT
  5
640C
330
1E
100
AcDbEntity
  8
TEXT
100
AcDbText
 10
72.32180998874351
 20
0.5841809327261132
 30
0.0
 40
0.6881009615569953
  1
14.37 [365]
 41
0.75
 72
     1
 11
74.64415073399838
 21
0.5841809327261132
 31
0.0
100
AcDbText
  0
TEXT
  5
6412
330
1E
100
AcDbEntity
  8
TEXT
100
AcDbText
 10
79.0396310721856
 20
0.5841809327261416
 30
0.0
 40
0.6881009615569953
  1
12.01 [305]
 41
0.75
 72
     1
 11
81.18994657705121
 21
0.5841809327261416
 31
0.0
100
AcDbText
  0
TEXT
  5
641A
330
1E
100
AcDbEntity
  8
TEXT
100
AcDbText
 10
46.35416646876236
 20
1.735022279075701
 30
0.0
 40
0.6881009615569953
  1
14.16 [359.6]
 41
0.75
 72
     1
 11
48.93454507460109
 21
1.735022279075701
 31
0.0
100
AcDbText
  0
TEXT
  5
641F
330
1E
100
AcDbEntity
  8
TEXT
100
AcDbText
 10
46.35416646876236
 20
0.58418093272617
 30
0.0
 40
0.6881009615569953
  1
14.16 [359.6]
 41
0.75
 72
     1
 11
48.93454507460109
 21
0.58418093272617
 31
0.0
100
AcDbText
  0
TEXT
  5
6425
330
1E
100
AcDbEntity
  8
TEXT
100
AcDbText
 10
52.87056575125975
 20
0.5841809327261416
 30
0.0
 40
0.6881009615569953
  1
12.38 [314.6]
 41
0.75
 72
     1
 11
55.45094435709848
 21
0.5841809327261416
 31
0.0
100
AcDbText
  0
TEXT
  5
642B
330
1E
100
AcDbEntity
  8
TEXT
100
AcDbText
 10
52.79180300070446
 20
1.735022279075687
 30
0.0
 40
0.6881009615569953
  1
14.16 [359.6]
 41
0.75
 72
     1
 11
55.37218160654319
 21
1.735022279075687
 31
0.0
100
AcDbText
  0
TEXT
  5
6430
330
1E
100
AcDbEntity
  8
TEXT
100
AcDbText
 10
0.9926267689124586
 20
17.80256624235664
 30
0.0
 40
0.6886014873717948
  1
 STRIKERS - C.R.S.
 41
0.75
100
AcDbText
  0
TEXT
  5
6431
330
1E
100
AcDbEntity
  8
TEXT
100
AcDbText
 10
0.9926267689124586
 20
15.51089957571664
 30
0.0
 40
0.6886014873717948
  1
 LATCHES - ZINC DIE CAST
 41
0.75
100
AcDbText
  0
TEXT
  5
6432
330
1E
100
AcDbEntity
  8
TEXT
100
AcDbText
 10
32.33299558192928
 20
16.74344763058269
 30
0.0
 40
0.6886014873717948
  1
 LATCHES - CHROME PLATED
 41
0.75
100
AcDbText
  0
TEXT
  5
6433
330
1E
100
AcDbEntity
  8
TEXT
100
AcDbText
 10
32.33299558192928
 20
17.88928096390269
 30
0.0
 40
0.6886014873717948
  1
 STRIKERS - ZINC PLATED
 41
0.75
100
AcDbText
  0
INSERT
  5
67F3
330
1E
100
AcDbEntity
  8
OBJECT
100
AcDbBlockReference
  2
HBS
 10
0.0
 20
0.0
 30
0.0
 41
5.5
 42
5.5
 43
5.5
  0
TEXT
  5
6988
330
1E
100
AcDbEntity
  8
TEXT
100
AcDbText
 10
1.565474595611552
 20
0.5839685476199606
 30
0.0
 40
0.6874999999972501
  1
SNB-3743
 41
0.75
 72
     1
 11
3.542037095603646
 21
0.5839685476199606
 31
0.0
100
AcDbText
  0
TEXT
  5
6989
330
1E
100
AcDbEntity
  8
TEXT
100
AcDbText
 10
1.565474595611552
 20
1.729801880953269
 30
0.0
 40
0.6874999999972501
  1
SNB-3737
 41
0.75
 72
     1
 11
3.542037095603646
 21
1.729801880953269
 31
0.0
100
AcDbText
  0
TEXT
  5
6990
330
1E
100
AcDbEntity
  8
TEXT
100
AcDbText
 10
1.737349595634994
 20
9.775635214276501
 30
0.0
 40
0.6874999999945003
  1
PART NO.
 41
0.75
 72
     1
 11
3.542037095620557
 21
9.775635214276501
 31
0.0
100
AcDbText
  0
LINE
  5
6994
330
1E
100
AcDbEntity
  8
TITLE
100
AcDbLine
 10
90.95900000000005
 20
1.486833333328746
 30
0.0
 11
0.3410000000000615
 21
1.486833333328746
 31
0.0
  0
LINE
  5
6995
330
1E
100
AcDbEntity
  8
TITLE
100
AcDbLine
 10
90.95900000000005
 20
2.632666666657485
 30
0.0
 11
0.3410000000000615
 21
2.632666666657499
 31
0.0
  0
LINE
  5
6996
330
1E
100
AcDbEntity
  8
TITLE
100
AcDbLine
 10
90.95900000000005
 20
3.778499999986252
 30
0.0
 11
0.3410000000000615
 21
3.778499999986252
 31
0.0
  0
LINE
  5
6A3A
330
1E
100
AcDbEntity
  8
OBJECT
100
AcDbLine
 10
71.35401218441799
 20
39.74864777907708
 30
0.0
 11
71.35401218441799
 21
40.22114776071696
 31
0.0
  0
LINE
  5
6A3B
330
1E
100
AcDbEntity
  8
OBJECT
100
AcDbLine
 10
71.04302964358152
 20
40.22114776071696
 30
0.0
 11
71.04302964358152
 21
39.74864777907708
 31
0.0
  0
LINE
  5
6A3C
330
1E
100
AcDbEntity
  8
OBJECT
100
AcDbLine
 10
71.0220295661762
 20
39.94464791486678
 30
0.0
 11
71.0220295661762
 21
41.48164783931249
 31
0.0
  0
LINE
  5
6A3D
330
1E
100
AcDbEntity
  8
OBJECT
100
AcDbLine
 10
71.04302964358152
 20
39.74864777907708
 30
0.0
 11
71.35401218441799
 21
39.74864777907708
 31
0.0
  0
LINE
  5
6A3E
330
1E
100
AcDbEntity
  8
OBJECT
100
AcDbLine
 10
71.0220295661762
 20
39.94464791486678
 30
0.0
 11
71.04302964358152
 21
39.92364783746146
 31
0.0
  0
LINE
  5
6A3F
330
1E
100
AcDbEntity
  8
OBJECT
100
AcDbLine
 10
71.49202949669689
 20
39.74864777907708
 30
0.0
 11
71.35401218441799
 21
39.74864777907708
 31
0.0
  0
LINE
  5
6A40
330
1E
100
AcDbEntity
  8
OBJECT
100
AcDbLine
 10
71.44202964763275
 20
41.20514770013236
 30
0.0
 11
71.44202964763275
 21
40.22114776071696
 31
0.0
  0
LINE
  5
6A41
330
1E
100
AcDbEntity
  8
OBJECT
100
AcDbLine
 10
71.04302964358152
 20
40.22114776071696
 30
0.0
 11
71.35401218441799
 21
40.22114776071696
 31
0.0
  0
LINE
  5
6A42
330
1E
100
AcDbEntity
  8
OBJECT
100
AcDbLine
 10
71.44202964763275
 20
40.22114776071696
 30
0.0
 11
71.35401218441799
 21
40.22114776071696
 31
0.0
  0
LINE
  5
6A43
330
1E
100
AcDbEntity
  8
OBJECT
100
AcDbLine
 10
71.04302964358152
 20
41.67764797510221
 30
0.0
 11
71.35401218441799
 21
41.67764797510221
 31
0.0
  0
LINE
  5
6A44
330
1E
100
AcDbEntity
  8
OBJECT
100
AcDbLine
 10
71.35401218441799
 20
41.20514770013236
 30
0.0
 11
71.04302964358152
 21
41.20514770013236
 31
0.0
  0
LINE
  5
6A45
330
1E
100
AcDbEntity
  8
OBJECT
100
AcDbLine
 10
71.04302964358152
 20
41.50264791671781
 30
0.0
 11
71.0220295661762
 21
41.48164783931249
 31
0.0
  0
LINE
  5
6A46
330
1E
100
AcDbEntity
  8
OBJECT
100
AcDbLine
 10
71.04302964358152
 20
41.67764797510221
 30
0.0
 11
71.04302964358152
 21
41.20514770013236
 31
0.0
  0
LINE
  5
6A47
330
1E
100
AcDbEntity
  8
OBJECT
100
AcDbLine
 10
71.49202949669689
 20
41.67764797510221
 30
0.0
 11
71.35401218441799
 21
41.67764797510221
 31
0.0
  0
LINE
  5
6A48
330
1E
100
AcDbEntity
  8
OBJECT
100
AcDbLine
 10
71.35401218441799
 20
41.20514770013236
 30
0.0
 11
71.44202964763275
 21
41.20514770013236
 31
0.0
  0
LINE
  5
6A49
330
1E
100
AcDbEntity
  8
OBJECT
100
AcDbLine
 10
71.35401218441799
 20
41.20514770013236
 30
0.0
 11
71.35401218441799
 21
41.67764797510221
 31
0.0
  0
LINE
  5
6D40
330
1E
100
AcDbEntity
  8
TITLE
100
AcDbLine
 10
6.813800000000068
 20
10.67849999998625
 30
0.0
 11
6.813800000000064
 21
0.3410000000000082
 31
0.0
  0
LINE
  5
6D41
330
1E
100
AcDbEntity
  8
TITLE
100
AcDbLine
 10
13.28660000000006
 20
10.67849999998625
 30
0.0
 11
13.28660000000006
 21
0.3410000000000082
 31
0.0
  0
LINE
  5
6D42
330
1E
100
AcDbEntity
  8
TITLE
100
AcDbLine
 10
19.75940000000006
 20
10.67849999998625
 30
0.0
 11
19.75940000000006
 21
0.3410000000000082
 31
0.0
  0
LINE
  5
6D43
330
1E
100
AcDbEntity
  8
TITLE
100
AcDbLine
 10
26.23220000000006
 20
10.67849999998625
 30
0.0
 11
26.23220000000006
 21
0.3410000000000082
 31
0.0
  0
LINE
  5
6D44
330
1E
100
AcDbEntity
  8
TITLE
100
AcDbLine
 10
32.70500000000006
 20
10.67849999998625
 30
0.0
 11
32.70500000000006
 21
0.3410000000000082
 31
0.0
  0
LINE
  5
6D45
330
1E
100
AcDbEntity
  8
TITLE
100
AcDbLine
 10
39.17780000000005
 20
10.67849999998625
 30
0.0
 11
39.17780000000006
 21
0.3410000000000082
 31
0.0
  0
LINE
  5
6D46
330
1E
100
AcDbEntity
  8
TITLE
100
AcDbLine
 10
45.65060000000007
 20
10.67849999998625
 30
0.0
 11
45.65060000000006
 21
0.3410000000000082
 31
0.0
  0
LINE
  5
6D47
330
1E
100
AcDbEntity
  8
TITLE
100
AcDbLine
 10
52.12340000000006
 20
10.67849999998625
 30
0.0
 11
52.12340000000006
 21
0.3410000000000082
 31
0.0
  0
LINE
  5
6D48
330
1E
100
AcDbEntity
  8
TITLE
100
AcDbLine
 10
58.59620000000006
 20
10.67849999998625
 30
0.0
 11
58.59620000000006
 21
0.3410000000000082
 31
0.0
  0
LINE
  5
6D49
330
1E
100
AcDbEntity
  8
TITLE
100
AcDbLine
 10
65.06900000000007
 20
10.67849999998625
 30
0.0
 11
65.06900000000006
 21
0.3410000000000082
 31
0.0
  0
LINE
  5
6D4A
330
1E
100
AcDbEntity
  8
TITLE
100
AcDbLine
 10
71.54180000000005
 20
10.67849999998625
 30
0.0
 11
71.54180000000005
 21
0.3410000000000082
 31
0.0
  0
LINE
  5
6D4B
330
1E
100
AcDbEntity
  8
TITLE
100
AcDbLine
 10
78.01460000000005
 20
10.67849999998625
 30
0.0
 11
78.01460000000005
 21
0.3410000000000082
 31
0.0
  0
LINE
  5
6D4C
330
1E
100
AcDbEntity
  8
TITLE
100
AcDbLine
 10
84.48740000000009
 20
10.67849999998625
 30
0.0
 11
84.48740000000006
 21
0.3410000000000082
 31
0.0
  0
CIRCLE
  5
6DD1
330
1E
100
AcDbEntity
  8
OBJECT
100
AcDbCircle
 10
21.68674781899724
 20
46.59423316935907
 30
0.0
 40
0.3954999999999984
  0
CIRCLE
  5
6DD2
330
1E
100
AcDbEntity
  8
OBJECT
100
AcDbCircle
 10
21.68674781899724
 20
46.59423316935907
 30
0.0
 40
0.5509999999999949
  0
CIRCLE
  5
6DD3
330
1E
100
AcDbEntity
  8
OBJECT
100
AcDbCircle
 10
21.68674781899722
 20
46.59423316935907
 30
0.0
 40
0.0589999999999904
  0
ARC
  5
6DD4
330
1E
100
AcDbEntity
  8
OBJECT
100
AcDbCircle
 10
21.68674781899722
 20
46.59423316935907
 30
0.0
 40
0.1769999999999915
100
AcDbArc
 50
109.4712206344882
 51
250.5287793655124
  0
LINE
  5
6DD5
330
1E
100
AcDbEntity
  8
OBJECT
100
AcDbLine
 10
21.62774783124476
 20
46.76111045195226
 30
0.0
 11
21.62774783124476
 21
46.95595310777996
 31
0.0
  0
ARC
  5
6DD6
330
1E
100
AcDbEntity
  8
OBJECT
100
AcDbCircle
 10
21.68674781899722
 20
46.59423316935907
 30
0.0
 40
0.1769999999999963
100
AcDbArc
 50
289.4712206344935
 51
70.5287793655073
  0
LINE
  5
6DD7
330
1E
100
AcDbEntity
  8
OBJECT
100
AcDbLine
 10
21.74574801476322
 20
46.42735612084412
 30
0.0
 11
21.74574801476322
 21
46.23251346501644
 31
0.0
  0
LINE
  5
6DD8
330
1E
100
AcDbEntity
  8
OBJECT
100
AcDbLine
 10
21.74574801476322
 20
46.23251346501644
 30
0.0
 11
21.62774783124476
 21
46.23251346501644
 31
0.0
  0
LINE
  5
6DD9
330
1E
100
AcDbEntity
  8
OBJECT
100
AcDbLine
 10
21.62774783124476
 20
46.23251346501644
 30
0.0
 11
21.62774783124476
 21
46.42735612084412
 31
0.0
  0
LINE
  5
6DDA
330
1E
100
AcDbEntity
  8
OBJECT
100
AcDbLine
 10
21.62774783124476
 20
46.95595310777996
 30
0.0
 11
21.74574801476322
 21
46.95595310777996
 31
0.0
  0
LINE
  5
6DDB
330
1E
100
AcDbEntity
  8
OBJECT
100
AcDbLine
 10
21.74574801476322
 20
46.95595310777996
 30
0.0
 11
21.74574801476322
 21
46.76111045195226
 31
0.0
  0
CIRCLE
  5
6DDC
330
1E
100
AcDbEntity
  8
OBJECT
100
AcDbCircle
 10
21.68674781899722
 20
34.97823316935908
 30
0.0
 40
0.3955000000000055
  0
CIRCLE
  5
6DDD
330
1E
100
AcDbEntity
  8
OBJECT
100
AcDbCircle
 10
21.68674781899722
 20
34.97823316935908
 30
0.0
 40
0.5509999999999949
  0
CIRCLE
  5
6DDE
330
1E
100
AcDbEntity
  8
OBJECT
100
AcDbCircle
 10
21.68674781899722
 20
34.97823316935908
 30
0.0
 40
0.0589999999999975
  0
LINE
  5
6DDF
330
1E
100
AcDbEntity
  8
OBJECT
100
AcDbLine
 10
21.62774783124476
 20
35.14511029431065
 30
0.0
 11
21.62774783124476
 21
35.33995295013834
 31
0.0
  0
LINE
  5
6DE0
330
1E
100
AcDbEntity
  8
OBJECT
100
AcDbLine
 10
21.74574801476322
 20
35.33995295013834
 30
0.0
 11
21.74574801476322
 21
35.14511029431065
 31
0.0
  0
ARC
  5
6DE1
330
1E
100
AcDbEntity
  8
OBJECT
100
AcDbCircle
 10
21.68674781899722
 20
34.97823316935908
 30
0.0
 40
0.1769999999999996
100
AcDbArc
 50
289.471220634493
 51
70.52877936550697
  0
LINE
  5
6DE2
330
1E
100
AcDbEntity
  8
OBJECT
100
AcDbLine
 10
21.74574801476322
 20
34.8113559632025
 30
0.0
 11
21.74574801476322
 21
34.61651330737483
 31
0.0
  0
LINE
  5
6DE3
330
1E
100
AcDbEntity
  8
OBJECT
100
AcDbLine
 10
21.74574801476322
 20
34.61651330737483
 30
0.0
 11
21.62774783124476
 21
34.61651330737483
 31
0.0
  0
LINE
  5
6DE4
330
1E
100
AcDbEntity
  8
OBJECT
100
AcDbLine
 10
21.62774783124476
 20
34.61651330737483
 30
0.0
 11
21.62774783124476
 21
34.8113559632025
 31
0.0
  0
ARC
  5
6DE5
330
1E
100
AcDbEntity
  8
OBJECT
100
AcDbCircle
 10
21.68674781899722
 20
34.97823316935908
 30
0.0
 40
0.1769999999999972
100
AcDbArc
 50
109.4712206344909
 51
250.5287793655107
  0
LINE
  5
6DE6
330
1E
100
AcDbEntity
  8
OBJECT
100
AcDbLine
 10
21.62774783124476
 20
35.33995295013834
 30
0.0
 11
21.74574801476322
 21
35.33995295013834
 31
0.0
  0
DIMENSION
  5
6DE7
330
1E
100
AcDbEntity
  8
DIM
100
AcDbDimension
  2
*D19
 10
25.73416658100823
 20
34.97823316935908
 30
0.0
 11
25.73416658100822
 21
40.89187844348962
 31
0.0
 70
   160
  1
"N"
 71
     5
 42
11.61599999999998
  3
23NSTD
100
AcDbAlignedDimension
 13
21.68674781899724
 23
46.59423316935907
 33
0.0
 14
21.68674781899722
 24
34.97823316935908
 34
0.0
 50
90.0
100
AcDbRotatedDimension
  0
DIMENSION
  5
6E13
330
1E
100
AcDbEntity
  8
DIM
100
AcDbDimension
  2
*D21
 10
7.46874778332824
 20
44.39788134026502
 30
0.0
 11
14.09999783177048
 21
44.39788134026502
 31
0.0
 70
   160
  1
<>\PINSIDE
 71
     5
 42
1.750000048442245
  3
23NSTD
100
AcDbAlignedDimension
 13
9.218747831770485
 23
46.84898301311417
 33
0.0
 14
7.46874778332824
 24
44.59421843196088
 34
0.0
 50
180.0
100
AcDbRotatedDimension
  0
DIMENSION
  5
6E14
330
1E
100
AcDbEntity
  8
DIM
100
AcDbDimension
  2
*D20
 10
11.46615345631081
 20
48.59898303866064
 30
0.0
 11
15.0995909563108
 21
50.57898303866064
 31
0.0
 70
   160
  1
<>\PINSIDE
 71
     5
 42
1.750000025546469
  3
23NSTD
100
AcDbAlignedDimension
 13
9.218747831770485
 23
46.84898301311417
 33
0.0
 14
10.8927481570966
 24
48.59898303866064
 34
0.0
 50
90.0
100
AcDbRotatedDimension
  0
CIRCLE
  5
6E15
330
1E
100
AcDbEntity
  8
HIDDEN
100
AcDbCircle
 10
9.218747831770485
 20
46.84898301311417
 30
0.0
 40
0.1180000000000021
  0
LINE
  5
6F7A
330
1E
100
AcDbEntity
  8
HIDDEN
100
AcDbLine
 10
8.283104330474174
 20
48.59898303866064
 30
0.0
 11
11.71984095631081
 21
48.59898303866064
 31
0.0
  0
LINE
  5
6F7B
330
1E
100
AcDbEntity
  8
HIDDEN
100
AcDbLine
 10
7.46874778332824
 20
44.52111169579068
 30
0.0
 11
7.46874778332824
 21
47.95398173929277
 31
0.0
  0
LEADER
  5
6F7C
330
1E
100
AcDbEntity
  8
DIM
100
AcDbLeader
  3
23NSTD
 73
     0
 75
     1
 40
2.979166666666666
 41
4.296875
 76
     3
 10
9.193123408717838
 20
46.9981181346348
 30
0.0
 10
6.804956551890644
 20
52.24583829045082
 30
0.0
 10
5.814956551890644
 20
52.24583829045082
 30
0.0
340
6F7D
213
0.0
223
-0.34375
233
0.0
  0
MTEXT
  5
6F7D
102
{ACAD_REACTORS
330
6F7C
102
}
330
1E
100
AcDbEntity
  8
DIM
100
AcDbMText
 10
5.319956551890644
 20
52.58958829045082
 30
0.0
 40
0.6875
 41
0.0
 71
     3
 72
     1
  1
\A1;GROUND\PSTUD (FAR\PSIDE)
 73
     1
 44
1.0
  0
MTEXT
  5
6FD0
102
{ACAD_REACTORS
330
6FD1
102
}
330
1E
100
AcDbEntity
  8
DIM
100
AcDbMText
 10
6.686507849654219
 20
28.91370337882167
 30
0.0
 40
0.6881009615625001
 41
0.0
 71
     1
 72
     1
  1
0.44 [11.10] x 0.68 [17.45] OBLONG\PEACH BRACKET
 73
     1
 44
1.0
  0
LEADER
  5
6FD1
330
1E
100
AcDbEntity
  8
DIM
100
AcDbLeader
  3
23NSTD
 73
     0
 74
     0
 75
     1
 40
1.834935897499999
 41
14.36410757261718
 76
     3
 10
7.920447333008553
 20
32.02696954691604
 30
0.0
 10
5.201507849654219
 20
28.56965289804042
 30
0.0
 10
6.191507849654219
 20
28.56965289804042
 30
0.0
340
6FD0
210
0.0
220
0.0
230
-1.0
213
0.0
223
-0.34405048078125
233
0.0
  0
MTEXT
  5
7095
102
{ACAD_REACTORS
330
7096
102
}
330
1E
100
AcDbEntity
  8
DIM
100
AcDbMText
 10
69.17412935589476
 20
30.35335661250377
 30
0.0
 40
0.6881009615625001
 41
0.0
 71
     3
 72
     1
  1
M8x1.25 PITCH x 16mm LG. WELD STUD/STANDOFF (4x)\P(WITH FLAT WASHER, SPLIT LOCKWASHER & HEX NUT\PFOR MOUNTING INTERNAL PANEL)
 73
     1
 44
1.0
  0
LEADER
  5
7096
330
1E
100
AcDbEntity
  8
DIM
100
AcDbLeader
  3
23NSTD
 73
     0
 75
     1
 40
2.981770833437499
 41
23.22340745273437
 76
     3
 10
72.36753488603025
 20
34.16322973656949
 30
0.0
 10
70.65912935589476
 20
30.00930613172252
 30
0.0
 10
69.66912935589476
 20
30.00930613172252
 30
0.0
340
7095
210
0.0
220
0.0
230
-1.0
213
0.0
223
-0.34405048078125
233
0.0
  0
TEXT
  5
743E
330
1E
100
AcDbEntity
  8
TEXT
100
AcDbText
 10
0.9926267689124586
 20
18.94839957567664
 30
0.0
 40
0.6886014873717948
  1
   STAINLESS STEEL
 41
0.75
100
AcDbText
  0
HATCH
  5
7972
330
1E
100
AcDbEntity
  8
0
  6
Continuous
 62
     7
 48
8.0
370
     0
100
AcDbHatch
 10
0.0
 20
0.0
 30
0.0
210
0.0
220
0.0
230
1.0
  2
ANSI31
 70
     0
 71
     0
 91
        1
 92
        0
 93
        5
 72
     4
 94
        3
 73
     1
 74
     0
 95
        8
 96
        4
 40
0.7349931430247101
 40
0.7349931430247101
 40
0.7349931430247101
 40
0.7349931430247101
 40
0.736934666557163
 40
0.736934666557163
 40
0.736934666557163
 40
0.736934666557163
 10
89.49540952513023
 20
98.90014988854753
 42
1.0
 10
89.47469699112915
 20
98.89717974194869
 42
1.0
 10
89.4540273244223
 20
98.89400443722969
 42
1.0
 10
89.43340952513024
 20
98.89060654022614
 42
1.0
 72
     4
 94
        3
 73
     1
 74
     0
 95
       20
 96
       16
 40
0.0
 40
0.0
 40
0.0
 40
0.0
 40
0.0000790804161453
 40
0.0000790804161453
 40
0.0000790804161453
 40
0.0002087414410477
 40
0.0002087414410477
 40
0.0002087414410477
 40
0.0003401720995243
 40
0.0003401720995243
 40
0.0003401720995243
 40
0.0004725221214526
 40
0.0004725221214526
 40
0.0004725221214526
 40
0.0006048147960978
 40
0.0006048147960978
 40
0.0006048147960978
 40
0.0006048147960978
 10
89.43340952513025
 20
98.89060654022614
 42
1.0
 10
89.43340952513025
 20
98.89060654022614
 42
1.0
 10
89.43330059847957
 20
98.89058859483187
 42
1.0
 10
89.43308651054895
 20
98.89055328719798
 42
1.0
 10
89.43273868410452
 20
98.89049592325074
 42
1.0
 10
89.43210026746898
 20
98.89039059673326
 42
1.0
 10
89.43122777861381
 20
98.89024611582472
 42
1.0
 10
89.43034352582097
 20
98.89009968685186
 42
1.0
 10
89.42919389365403
 20
98.88990887448535
 42
1.0
 10
89.42787963186601
 20
98.88968963286949
 42
1.0
 10
89.42655609629916
 20
98.88946884422674
 42
1.0
 10
89.42502840263022
 20
98.88921298192805
 42
1.0
 10
89.42342668046039
 20
98.8889431699404
 42
1.0
 10
89.42182534789742
 20
98.88867342358251
 42
1.0
 10
89.42010558229062
 20
98.88838222625501
 42
1.0
 10
89.41840952513025
 20
98.88809337803941
 42
1.0
 72
     4
 94
        3
 73
     1
 74
     0
 95
        9
 96
        5
 40
0.7374057949458102
 40
0.7374057949458102
 40
0.7374057949458102
 40
0.7374057949458102
 40
0.7455177954903443
 40
0.7574304658614601
 40
0.7574304658614601
 40
0.7574304658614601
 40
0.7574304658614601
 10
89.41840952513024
 20
98.88809337803941
 42
1.0
 10
89.33237239997939
 20
98.87344076452194
 42
1.0
 10
89.1223169040575
 20
98.82749592486689
 42
1.0
 10
88.92201137715231
 20
98.74967372374591
 42
1.0
 10
88.80540952513024
 20
98.69793442257989
 42
1.0
 72
     4
 94
        3
 73
     1
 74
     0
 95
        9
 96
        5
 40
0.2425695341155246
 40
0.2425695341155246
 40
0.2425695341155246
 40
0.2425695341155246
 40
0.2544822045096557
 40
0.2625942050541963
 40
0.2625942050541963
 40
0.2625942050541963
 40
0.2625942050541963
 10
88.80540952445441
 20
98.69793442228001
 42
1.0
 10
88.92201137669188
 20
98.74967372356701
 42
1.0
 10
89.12231690381615
 20
98.8274959248141
 42
1.0
 10
89.33237239997954
 20
98.87344076452198
 42
1.0
 10
89.41840952513045
 20
98.88809337803944
 42
1.0
 72
     4
 94
        3
 73
     1
 74
     0
 95
       20
 96
       16
 40
0.0000000000000009
 40
0.0000000000000009
 40
0.0000000000000009
 40
0.0000000000000009
 40
0.0006712718123127
 40
0.0006712718123127
 40
0.0006712718123127
 40
0.0013428937090786
 40
0.0013428937090786
 40
0.0013428937090786
 40
0.0020091475444759
 40
0.0020091475444759
 40
0.0020091475444759
 40
0.0026675343558935
 40
0.0026675343558935
 40
0.0026675343558935
 40
0.0030744696745827
 40
0.0030744696745827
 40
0.0030744696745827
 40
0.0030744696745827
 10
89.41840952513025
 20
98.88809337803941
 42
1.0
 10
89.42709382679142
 20
98.88957236418274
 42
1.0
 10
89.43590564906774
 20
98.89102884854507
 42
1.0
 10
89.44411562299274
 20
98.89235028989638
 42
1.0
 10
89.45232807071624
 20
98.89367212941946
 42
1.0
 10
89.46016581852035
 20
98.8948960907328
 42
1.0
 10
89.46695790404541
 20
98.89593500140222
 42
1.0
 10
89.47369573265428
 20
98.89696561298748
 42
1.0
 10
89.47959225806327
 20
98.8978437432117
 42
1.0
 10
89.48413332273387
 20
98.89851189390718
 42
1.0
 10
89.48862155306487
 20
98.89917227080879
 42
1.0
 10
89.49191056522266
 20
98.89964666459851
 42
1.0
 10
89.49371326481102
 20
98.89990617450635
 42
1.0
 10
89.49483748024276
 20
98.90006801236607
 42
1.0
 10
89.49540952513025
 20
98.90014988854753
 42
1.0
 10
89.49540952513025
 20
98.90014988854753
 42
1.0
 97
        0
 75
     0
 76
     1
 52
0.0
 41
8.0
 77
     0
 78
     1
 53
45.0
 43
69.85765224883405
 44
64.26266719059483
 45
-0.7071067811865475
 46
0.7071067811865476
 79
     0
 98
        1
 10
69.85765224883405
 20
64.26266719059483
  0
HATCH
  5
7973
330
1E
100
AcDbEntity
  8
0
  6
Continuous
 62
     7
 48
8.0
370
     0
100
AcDbHatch
 10
0.0
 20
0.0
 30
0.0
210
0.0
220
0.0
230
1.0
  2
ANSI31
 70
     0
 71
     0
 91
        1
 92
        0
 93
        2
 72
     4
 94
        3
 73
     1
 74
     0
 95
        9
 96
        5
 40
0.7369346665571629
 40
0.7369346665571629
 40
0.7369346665571629
 40
0.7369346665571629
 40
0.7455177954903443
 40
0.7489577298141489
 40
0.7489577298141489
 40
0.7489577298141489
 40
0.7489577298141489
 10
89.43340952513024
 20
98.89060654022614
 42
1.0
 10
89.34226191518154
 20
98.87558504417141
 42
1.0
 10
89.21600423470096
 20
98.84844949111439
 42
1.0
 10
89.09326137127044
 20
98.80982230219684
 42
1.0
 10
89.05840952513024
 20
98.79797050971141
 42
1.0
 72
     4
 94
        3
 73
     1
 74
     0
 95
        9
 96
        5
 40
0.251042270183736
 40
0.251042270183736
 40
0.251042270183736
 40
0.251042270183736
 40
0.2544822045096557
 40
0.263065333442837
 40
0.263065333442837
 40
0.263065333442837
 40
0.263065333442837
 10
89.05840952506595
 20
98.79797050968953
 42
1.0
 10
89.09326137122725
 20
98.80982230218325
 42
1.0
 10
89.21600423467875
 20
98.84844949110963
 42
1.0
 10
89.34226191518154
 20
98.87558504417139
 42
1.0
 10
89.43340952513024
 20
98.89060654022614
 42
1.0
 97
        0
 75
     0
 76
     1
 52
0.0
 41
8.0
 77
     0
 78
     1
 53
45.0
 43
69.85765224883405
 44
64.26266719059483
 45
-0.7071067811865475
 46
0.7071067811865476
 79
     0
 98
        1
 10
69.85765224883405
 20
64.26266719059483
  0
HATCH
  5
7974
330
1E
100
AcDbEntity
  8
0
  6
Continuous
 62
     7
 48
8.0
370
     0
100
AcDbHatch
 10
0.0
 20
0.0
 30
0.0
210
0.0
220
0.0
230
1.0
  2
ANSI31
 70
     0
 71
     0
 91
        1
 92
        0
 93
        2
 72
     4
 94
        3
 73
     1
 74
     0
 95
        8
 96
        4
 40
0.9232390971773888
 40
0.9232390971773888
 40
0.9232390971773888
 40
0.9232390971773888
 40
0.9259687288161472
 40
0.9259687288161472
 40
0.9259687288161472
 40
0.9259687288161472
 10
84.02540952558281
 20
98.20869439939944
 42
1.0
 10
83.99934967161319
 20
98.20424823374317
 42
1.0
 10
83.97334851541932
 20
98.200483610022
 42
1.0
 10
83.94740952513064
 20
98.19747589035401
 42
1.0
 72
     4
 94
        3
 73
     1
 74
     0
 95
        8
 96
        4
 40
0.0740312711838542
 40
0.0740312711838542
 40
0.0740312711838542
 40
0.0740312711838542
 40
0.0767609028226086
 40
0.0767609028226086
 40
0.0767609028226086
 40
0.0767609028226086
 10
83.94740952513068
 20
98.19747589035401
 42
1.0
 10
83.97334851541932
 20
98.200483610022
 42
1.0
 10
83.99934967161318
 20
98.20424823374317
 42
1.0
 10
84.02540952558274
 20
98.20869439939942
 42
1.0
 97
        0
 75
     0
 76
     1
 52
0.0
 41
8.0
 77
     0
 78
     1
 53
45.0
 43
69.85765224883405
 44
64.26266719059483
 45
-0.7071067811865475
 46
0.7071067811865476
 79
     0
 98
        1
 10
69.85765224883405
 20
64.26266719059483
  0
TEXT
  5
7AB0
330
1E
100
AcDbEntity
  8
TEXT
100
AcDbText
 10
8.002518993756149
 20
7.490030292101081
 30
0.0
 40
0.6881009615569953
  1
11.81 [300]
 41
0.75
 72
     1
 11
10.06682187842713
 21
7.490030292101081
 31
0.0
100
AcDbText
  0
TEXT
  5
7AB1
330
1E
100
AcDbEntity
  8
TEXT
100
AcDbText
 10
8.002518993756149
 20
8.636865228029392
 30
0.0
 40
0.6881009615569953
  1
11.81 [300]
 41
0.75
 72
     1
 11
10.06682187842713
 21
8.636865228029392
 31
0.0
100
AcDbText
  0
TEXT
  5
7AB3
330
1E
100
AcDbEntity
  8
TEXT
100
AcDbText
 10
7.8304937533669
 20
4.049525484316092
 30
0.0
 40
0.6881009615569953
  1
15.75 [400]
 41
0.75
 72
     1
 11
10.06682187842713
 21
4.049525484316092
 31
0.0
100
AcDbText
  0
TEXT
  5
7AB5
330
1E
100
AcDbEntity
  8
TEXT
100
AcDbText
 10
7.8304937533669
 20
2.902690548387781
 30
0.0
 40
0.6881009615569953
  1
15.75 [400]
 41
0.75
 72
     1
 11
10.06682187842713
 21
2.902690548387781
 31
0.0
100
AcDbText
  0
TEXT
  5
7AB8
330
1E
100
AcDbEntity
  8
TEXT
100
AcDbText
 10
8.002518993756149
 20
5.196360420244417
 30
0.0
 40
0.6881009615569953
  1
11.81 [300]
 41
0.75
 72
     1
 11
10.06682187842713
 21
5.196360420244417
 31
0.0
100
AcDbText
  0
TEXT
  5
7ABA
330
1E
100
AcDbEntity
  8
TEXT
100
AcDbText
 10
8.002518993756149
 20
6.343195356172742
 30
0.0
 40
0.6881009615569953
  1
11.81 [300]
 41
0.75
 72
     1
 11
10.06682187842713
 21
6.343195356172742
 31
0.0
100
AcDbText
  0
TEXT
  5
7ABB
330
1E
100
AcDbEntity
  8
TEXT
100
AcDbText
 10
20.98024152263373
 20
8.636865228029392
 30
0.0
 40
0.6881009615569953
  1
5.91 [150]
 41
0.75
 72
     1
 11
22.91552547701277
 21
8.636865228029392
 31
0.0
100
AcDbText
  0
TEXT
  5
7ABD
330
1E
100
AcDbEntity
  8
TEXT
100
AcDbText
 10
20.85122259234179
 20
7.490030292101081
 30
0.0
 40
0.6881009615569953
  1
7.87 [200]
 41
0.75
 72
     1
 11
22.91552547701277
 21
7.490030292101081
 31
0.0
100
AcDbText
  0
TEXT
  5
7ABE
330
1E
100
AcDbEntity
  8
TEXT
100
AcDbText
 10
20.98024152263373
 20
4.049525484316092
 30
0.0
 40
0.6881009615569953
  1
5.91 [150]
 41
0.75
 72
     1
 11
22.91552547701277
 21
4.049525484316092
 31
0.0
100
AcDbText
  0
TEXT
  5
7AC2
330
1E
100
AcDbEntity
  8
TEXT
100
AcDbText
 10
20.85122259234179
 20
2.902690548387781
 30
0.0
 40
0.6881009615569953
  1
7.87 [200]
 41
0.75
 72
     1
 11
22.91552547701277
 21
2.902690548387781
 31
0.0
100
AcDbText
  0
TEXT
  5
7AC3
330
1E
100
AcDbEntity
  8
TEXT
100
AcDbText
 10
20.85122259234179
 20
5.196360420244417
 30
0.0
 40
0.6881009615569953
  1
7.87 [200]
 41
0.75
 72
     1
 11
22.91552547701277
 21
5.196360420244417
 31
0.0
100
AcDbText
  0
TEXT
  5
7AC5
330
1E
100
AcDbEntity
  8
TEXT
100
AcDbText
 10
20.98024152263373
 20
6.343195356172742
 30
0.0
 40
0.6881009615569953
  1
5.91 [150]
 41
0.75
 72
     1
 11
22.91552547701277
 21
6.343195356172742
 31
0.0
100
AcDbText
  0
TEXT
  5
7AC7
330
1E
100
AcDbEntity
  8
TEXT
100
AcDbText
 10
14.45999978635224
 20
7.490030292101081
 30
0.0
 40
0.6881009615569953
  1
9.84 [250]
 41
0.75
 72
     1
 11
16.56730898112054
 21
7.490030292101081
 31
0.0
100
AcDbText
  0
TEXT
  5
7AC9
330
1E
100
AcDbEntity
  8
TEXT
100
AcDbText
 10
14.45999978635224
 20
8.636865228029392
 30
0.0
 40
0.6881009615569953
  1
9.84 [250]
 41
0.75
 72
     1
 11
16.56730898112054
 21
8.636865228029392
 31
0.0
100
AcDbText
  0
TEXT
  5
7ACB
330
1E
100
AcDbEntity
  8
TEXT
100
AcDbText
 10
14.35530821765278
 20
4.049525484316092
 30
0.0
 40
0.6881009615569953
  1
11.81 [300]
 41
0.75
 72
     1
 11
16.41961110232377
 21
4.049525484316092
 31
0.0
100
AcDbText
  0
TEXT
  5
7ACD
330
1E
100
AcDbEntity
  8
TEXT
100
AcDbText
 10
14.35530821765278
 20
2.902690548387781
 30
0.0
 40
0.6881009615569953
  1
11.81 [300]
 41
0.75
 72
     1
 11
16.41961110232377
 21
2.902690548387781
 31
0.0
100
AcDbText
  0
TEXT
  5
7AD0
330
1E
100
AcDbEntity
  8
TEXT
100
AcDbText
 10
14.35530821765278
 20
5.196360420244417
 30
0.0
 40
0.6881009615569953
  1
11.81 [300]
 41
0.75
 72
     1
 11
16.41961110232377
 21
5.196360420244417
 31
0.0
100
AcDbText
  0
TEXT
  5
7AD2
330
1E
100
AcDbEntity
  8
TEXT
100
AcDbText
 10
14.35530821765278
 20
6.343195356172742
 30
0.0
 40
0.6881009615569953
  1
11.81 [300]
 41
0.75
 72
     1
 11
16.41961110232377
 21
6.343195356172742
 31
0.0
100
AcDbText
  0
TEXT
  5
7AD7
330
1E
100
AcDbEntity
  8
TEXT
100
AcDbText
 10
59.49781462849771
 20
2.902690548387781
 30
0.0
 40
0.6881009615569953
  1
12.80 [325]
 41
0.75
 72
     1
 11
61.77714906365526
 21
2.902690548387781
 31
0.0
100
AcDbText
  0
TEXT
  5
7AD8
330
1E
100
AcDbEntity
  8
TEXT
100
AcDbText
 10
59.49781462849771
 20
4.049525484316092
 30
0.0
 40
0.6881009615569953
  1
12.80 [325]
 41
0.75
 72
     1
 11
61.77714906365526
 21
4.049525484316092
 31
0.0
100
AcDbText
  0
TEXT
  5
7AD9
330
1E
100
AcDbEntity
  8
TEXT
100
AcDbText
 10
59.62683355878965
 20
7.490030292101081
 30
0.0
 40
0.6881009615569953
  1
8.86 [225]
 41
0.75
 72
     1
 11
61.77714906365526
 21
7.490030292101081
 31
0.0
100
AcDbText
  0
TEXT
  5
7ADB
330
1E
100
AcDbEntity
  8
TEXT
100
AcDbText
 10
59.62683355878965
 20
8.636865228029392
 30
0.0
 40
0.6881009615569953
  1
8.86 [225]
 41
0.75
 72
     1
 11
61.77714906365526
 21
8.636865228029392
 31
0.0
100
AcDbText
  0
TEXT
  5
7ADD
330
1E
100
AcDbEntity
  8
TEXT
100
AcDbText
 10
59.62683355878965
 20
5.196360420244417
 30
0.0
 40
0.6881009615569953
  1
8.86 [225]
 41
0.75
 72
     1
 11
61.77714906365526
 21
5.196360420244417
 31
0.0
100
AcDbText
  0
TEXT
  5
7ADE
330
1E
100
AcDbEntity
  8
TEXT
100
AcDbText
 10
59.62683355878965
 20
6.343195356172742
 30
0.0
 40
0.6881009615569953
  1
8.86 [225]
 41
0.75
 72
     1
 11
61.77714906365526
 21
6.343195356172742
 31
0.0
100
AcDbText
  0
TEXT
  5
7AE3
330
1E
100
AcDbEntity
  8
TEXT
100
AcDbText
 10
66.2785217349301
 20
4.049525484316092
 30
0.0
 40
0.6881009615569953
  1
8.86 [225]
 41
0.75
 72
     1
 11
68.42883723979571
 21
4.049525484316092
 31
0.0
100
AcDbText
  0
TEXT
  5
7AE4
330
1E
100
AcDbEntity
  8
TEXT
100
AcDbText
 10
66.2785217349301
 20
2.902690548387781
 30
0.0
 40
0.6881009615569953
  1
8.86 [225]
 41
0.75
 72
     1
 11
68.42883723979571
 21
2.902690548387781
 31
0.0
100
AcDbText
  0
TEXT
  5
7AE6
330
1E
100
AcDbEntity
  8
TEXT
100
AcDbText
 10
66.36453435512473
 20
7.490030292101081
 30
0.0
 40
0.6881009615569953
  1
6.89 [175]
 41
0.75
 72
     1
 11
68.42883723979571
 21
7.490030292101081
 31
0.0
100
AcDbText
  0
TEXT
  5
7AE7
330
1E
100
AcDbEntity
  8
TEXT
100
AcDbText
 10
66.36453435512473
 20
8.636865228029392
 30
0.0
 40
0.6881009615569953
  1
6.89 [175]
 41
0.75
 72
     1
 11
68.42883723979571
 21
8.636865228029392
 31
0.0
100
AcDbText
  0
TEXT
  5
7AE9
330
1E
100
AcDbEntity
  8
TEXT
100
AcDbText
 10
66.2785217349301
 20
5.196360420244417
 30
0.0
 40
0.6881009615569953
  1
8.86 [225]
 41
0.75
 72
     1
 11
68.42883723979571
 21
5.196360420244417
 31
0.0
100
AcDbText
  0
TEXT
  5
7AEA
330
1E
100
AcDbEntity
  8
TEXT
100
AcDbText
 10
66.2785217349301
 20
6.343195356172742
 30
0.0
 40
0.6881009615569953
  1
8.86 [225]
 41
0.75
 72
     1
 11
68.42883723979571
 21
6.343195356172742
 31
0.0
100
AcDbText
  0
TEXT
  5
7B04
330
1E
100
AcDbEntity
  8
TEXT
100
AcDbText
 10
26.96397085588289
 20
8.636865228029392
 30
0.0
 40
0.6881009615569953
  1
5.33 [135.4]
 41
0.75
 72
     1
 11
29.37232422133238
 21
8.636865228029392
 31
0.0
100
AcDbText
  0
TEXT
  5
7B05
330
1E
100
AcDbEntity
  8
TEXT
100
AcDbText
 10
27.04998347607752
 20
7.490030292101081
 30
0.0
 40
0.6881009615569953
  1
7.29 [185.1]
 41
0.75
 72
     1
 11
29.37232422133238
 21
7.490030292101081
 31
0.0
100
AcDbText
  0
TEXT
  5
7B06
330
1E
100
AcDbEntity
  8
TEXT
100
AcDbText
 10
26.96397085588289
 20
6.343195356172742
 30
0.0
 40
0.6881009615569953
  1
5.33 [135.4]
 41
0.75
 72
     1
 11
29.37232422133238
 21
6.343195356172742
 31
0.0
100
AcDbText
  0
TEXT
  5
7B07
330
1E
100
AcDbEntity
  8
TEXT
100
AcDbText
 10
27.04998347607752
 20
5.196360420244417
 30
0.0
 40
0.6881009615569953
  1
7.29 [185.1]
 41
0.75
 72
     1
 11
29.37232422133238
 21
5.196360420244417
 31
0.0
100
AcDbText
  0
TEXT
  5
7B08
330
1E
100
AcDbEntity
  8
TEXT
100
AcDbText
 10
26.96397085588289
 20
4.049525484316092
 30
0.0
 40
0.6881009615569953
  1
5.33 [135.4]
 41
0.75
 72
     1
 11
29.37232422133238
 21
4.049525484316092
 31
0.0
100
AcDbText
  0
TEXT
  5
7B09
330
1E
100
AcDbEntity
  8
TEXT
100
AcDbText
 10
27.04998347607752
 20
2.902690548387781
 30
0.0
 40
0.6881009615569953
  1
7.29 [185.1]
 41
0.75
 72
     1
 11
29.37232422133238
 21
2.902690548387781
 31
0.0
100
AcDbText
  0
TEXT
  5
7B12
330
1E
100
AcDbEntity
  8
TEXT
100
AcDbText
 10
79.16036030686064
 20
8.636865228029392
 30
0.0
 40
0.6881009615569953
  1
7.87 [200]
 41
0.75
 72
     1
 11
81.22466319153161
 21
8.636865228029392
 31
0.0
100
AcDbText
  0
TEXT
  5
7B13
330
1E
100
AcDbEntity
  8
TEXT
100
AcDbText
 10
72.35950929915276
 20
8.636865228029392
 30
0.0
 40
0.6881009615569953
  1
10.43 [265]
 41
0.75
 72
     1
 11
74.63884373431032
 21
8.636865228029392
 31
0.0
100
AcDbText
  0
TEXT
  5
7B14
330
1E
100
AcDbEntity
  8
TEXT
100
AcDbText
 10
72.35950929915276
 20
7.490030292101067
 30
0.0
 40
0.6881009615569953
  1
10.43 [265]
 41
0.75
 72
     1
 11
74.63884373431032
 21
7.490030292101067
 31
0.0
100
AcDbText
  0
TEXT
  5
7B15
330
1E
100
AcDbEntity
  8
TEXT
100
AcDbText
 10
72.35950929915276
 20
5.196360420244388
 30
0.0
 40
0.6881009615569953
  1
10.43 [265]
 41
0.75
 72
     1
 11
74.63884373431032
 21
5.196360420244388
 31
0.0
100
AcDbText
  0
TEXT
  5
7B16
330
1E
100
AcDbEntity
  8
TEXT
100
AcDbText
 10
72.35950929915276
 20
6.343195356172728
 30
0.0
 40
0.6881009615569953
  1
10.43 [265]
 41
0.75
 72
     1
 11
74.63884373431032
 21
6.343195356172728
 31
0.0
100
AcDbText
  0
TEXT
  5
7B17
330
1E
100
AcDbEntity
  8
TEXT
100
AcDbText
 10
79.16036030686064
 20
7.490030292101067
 30
0.0
 40
0.6881009615569953
  1
7.87 [200]
 41
0.75
 72
     1
 11
81.22466319153161
 21
7.490030292101067
 31
0.0
100
AcDbText
  0
TEXT
  5
7B18
330
1E
100
AcDbEntity
  8
TEXT
100
AcDbText
 10
79.03729818984219
 20
6.343195356172742
 30
0.0
 40
0.6881009615569953
  1
9.84 [250]
 41
0.75
 72
     1
 11
81.14460738461048
 21
6.343195356172742
 31
0.0
100
AcDbText
  0
TEXT
  5
7B19
330
1E
100
AcDbEntity
  8
TEXT
100
AcDbText
 10
79.03729818984219
 20
5.196360420244417
 30
0.0
 40
0.6881009615569953
  1
9.84 [250]
 41
0.75
 72
     1
 11
81.14460738461048
 21
5.196360420244417
 31
0.0
100
AcDbText
  0
TEXT
  5
7B1A
330
1E
100
AcDbEntity
  8
TEXT
100
AcDbText
 10
79.03729818984219
 20
4.049525484316092
 30
0.0
 40
0.6881009615569953
  1
9.84 [250]
 41
0.75
 72
     1
 11
81.14460738461048
 21
4.049525484316092
 31
0.0
100
AcDbText
  0
TEXT
  5
7B1B
330
1E
100
AcDbEntity
  8
TEXT
100
AcDbText
 10
79.03729818984219
 20
2.902690548387781
 30
0.0
 40
0.6881009615569953
  1
9.84 [250]
 41
0.75
 72
     1
 11
81.14460738461048
 21
2.902690548387781
 31
0.0
100
AcDbText
  0
TEXT
  5
7B1C
330
1E
100
AcDbEntity
  8
TEXT
100
AcDbText
 10
72.31650298905545
 20
4.049525484316063
 30
0.0
 40
0.6881009615569953
  1
14.37 [365]
 41
0.75
 72
     1
 11
74.63884373431032
 21
4.049525484316063
 31
0.0
100
AcDbText
  0
TEXT
  5
7B1D
330
1E
100
AcDbEntity
  8
TEXT
100
AcDbText
 10
72.31650298905545
 20
2.902690548387745
 30
0.0
 40
0.6881009615569953
  1
14.37 [365]
 41
0.75
 72
     1
 11
74.63884373431032
 21
2.902690548387745
 31
0.0
100
AcDbText
  0
TEXT
  5
7B33
330
1E
100
AcDbEntity
  8
TEXT
100
AcDbText
 10
33.35535913367147
 20
8.636865228029392
 30
0.0
 40
0.6881009615569953
  1
13.08 [332.3]
 41
0.75
 72
     1
 11
35.97874404960751
 21
8.636865228029392
 31
0.0
100
AcDbText
  0
TEXT
  5
7B34
330
1E
100
AcDbEntity
  8
TEXT
100
AcDbText
 10
33.35535913367147
 20
7.490030292101081
 30
0.0
 40
0.6881009615569953
  1
13.08 [332.3]
 41
0.75
 72
     1
 11
35.97874404960751
 21
7.490030292101081
 31
0.0
100
AcDbText
  0
TEXT
  5
7B35
330
1E
100
AcDbEntity
  8
TEXT
100
AcDbText
 10
33.35535913367147
 20
5.196360420244445
 30
0.0
 40
0.6881009615569953
  1
13.08 [332.3]
 41
0.75
 72
     1
 11
35.97874404960751
 21
5.196360420244445
 31
0.0
100
AcDbText
  0
TEXT
  5
7B36
330
1E
100
AcDbEntity
  8
TEXT
100
AcDbText
 10
33.35535913367147
 20
6.343195356172742
 30
0.0
 40
0.6881009615569953
  1
13.08 [332.3]
 41
0.75
 72
     1
 11
35.97874404960751
 21
6.343195356172742
 31
0.0
100
AcDbText
  0
TEXT
  5
7B37
330
1E
100
AcDbEntity
  8
TEXT
100
AcDbText
 10
33.35535913367147
 20
4.04952548431612
 30
0.0
 40
0.6881009615569953
  1
17.02 [432.3]
 41
0.75
 72
     1
 11
35.97874404960751
 21
4.04952548431612
 31
0.0
100
AcDbText
  0
TEXT
  5
7B38
330
1E
100
AcDbEntity
  8
TEXT
100
AcDbText
 10
33.35535913367147
 20
2.902690548387795
 30
0.0
 40
0.6881009615569953
  1
17.02 [432.3]
 41
0.75
 72
     1
 11
35.97874404960751
 21
2.902690548387795
 31
0.0
100
AcDbText
  0
TEXT
  5
7B3D
330
1E
100
AcDbEntity
  8
TEXT
100
AcDbText
 10
40.20343409634471
 20
8.636865228029392
 30
0.0
 40
0.6881009615569953
  1
8.39 [213]
 41
0.75
 72
     1
 11
42.26773698101569
 21
8.636865228029392
 31
0.0
100
AcDbText
  0
TEXT
  5
7B3E
330
1E
100
AcDbEntity
  8
TEXT
100
AcDbText
 10
40.20343409634471
 20
7.490030292101081
 30
0.0
 40
0.6881009615569953
  1
8.39 [213]
 41
0.75
 72
     1
 11
42.26773698101569
 21
7.490030292101081
 31
0.0
100
AcDbText
  0
TEXT
  5
7B3F
330
1E
100
AcDbEntity
  8
TEXT
100
AcDbText
 10
39.98840254585815
 20
6.343195356172742
 30
0.0
 40
0.6881009615569953
  1
10.35 [263]
 41
0.75
 72
     1
 11
42.26773698101569
 21
6.343195356172742
 31
0.0
100
AcDbText
  0
TEXT
  5
7B40
330
1E
100
AcDbEntity
  8
TEXT
100
AcDbText
 10
39.98840254585815
 20
5.196360420244417
 30
0.0
 40
0.6881009615569953
  1
10.35 [263]
 41
0.75
 72
     1
 11
42.26773698101569
 21
5.196360420244417
 31
0.0
100
AcDbText
  0
TEXT
  5
7B41
330
1E
100
AcDbEntity
  8
TEXT
100
AcDbText
 10
39.98840254585815
 20
4.049525484316092
 30
0.0
 40
0.6881009615569953
  1
10.35 [263]
 41
0.75
 72
     1
 11
42.26773698101569
 21
4.049525484316092
 31
0.0
100
AcDbText
  0
TEXT
  5
7B42
330
1E
100
AcDbEntity
  8
TEXT
100
AcDbText
 10
39.98840254585815
 20
2.902690548387781
 30
0.0
 40
0.6881009615569953
  1
10.35 [263]
 41
0.75
 72
     1
 11
42.26773698101569
 21
2.902690548387781
 31
0.0
100
AcDbText
  0
TEXT
  5
7B4F
330
1E
100
AcDbEntity
  8
TEXT
100
AcDbText
 10
46.28361693168355
 20
8.636865228029392
 30
0.0
 40
0.6881009615569953
  1
10.22 [259.6]
 41
0.75
 72
     1
 11
48.9070018476196
 21
8.636865228029392
 31
0.0
100
AcDbText
  0
TEXT
  5
7B50
330
1E
100
AcDbEntity
  8
TEXT
100
AcDbText
 10
46.28361693168355
 20
7.490030292101081
 30
0.0
 40
0.6881009615569953
  1
10.22 [259.6]
 41
0.75
 72
     1
 11
48.9070018476196
 21
7.490030292101081
 31
0.0
100
AcDbText
  0
TEXT
  5
7B51
330
1E
100
AcDbEntity
  8
TEXT
100
AcDbText
 10
46.28361693168355
 20
6.343195356172742
 30
0.0
 40
0.6881009615569953
  1
10.22 [259.6]
 41
0.75
 72
     1
 11
48.9070018476196
 21
6.343195356172742
 31
0.0
100
AcDbText
  0
TEXT
  5
7B52
330
1E
100
AcDbEntity
  8
TEXT
100
AcDbText
 10
46.28361693168355
 20
5.196360420244445
 30
0.0
 40
0.6881009615569953
  1
10.22 [259.6]
 41
0.75
 72
     1
 11
48.9070018476196
 21
5.196360420244445
 31
0.0
100
AcDbText
  0
TEXT
  5
7B53
330
1E
100
AcDbEntity
  8
TEXT
100
AcDbText
 10
46.32662324178086
 20
4.04952548431612
 30
0.0
 40
0.6881009615569953
  1
14.16 [359.6]
 41
0.75
 72
     1
 11
48.9070018476196
 21
4.04952548431612
 31
0.0
100
AcDbText
  0
TEXT
  5
7B54
330
1E
100
AcDbEntity
  8
TEXT
100
AcDbText
 10
46.32662324178086
 20
2.902690548387795
 30
0.0
 40
0.6881009615569953
  1
14.16 [359.6]
 41
0.75
 72
     1
 11
48.9070018476196
 21
2.902690548387795
 31
0.0
100
AcDbText
  0
TEXT
  5
7B59
330
1E
100
AcDbEntity
  8
TEXT
100
AcDbText
 10
53.04141972852855
 20
8.636865228029449
 30
0.0
 40
0.6881009615569953
  1
8.25 [209.6]
 41
0.75
 72
     1
 11
55.49277940407534
 21
8.636865228029449
 31
0.0
100
AcDbText
  0
TEXT
  5
7B5A
330
1E
100
AcDbEntity
  8
TEXT
100
AcDbText
 10
53.04141972852855
 20
7.490030292101124
 30
0.0
 40
0.6881009615569953
  1
8.25 [209.6]
 41
0.75
 72
     1
 11
55.49277940407534
 21
7.490030292101124
 31
0.0
100
AcDbText
  0
TEXT
  5
7B5D
330
1E
100
AcDbEntity
  8
TEXT
100
AcDbText
 10
52.77004906507773
 20
6.343195356172742
 30
0.0
 40
0.6881009615569953
  1
10.22 [259.6]
 41
0.75
 72
     1
 11
55.39343398101377
 21
6.343195356172742
 31
0.0
100
AcDbText
  0
TEXT
  5
7B5E
330
1E
100
AcDbEntity
  8
TEXT
100
AcDbText
 10
52.77004906507773
 20
5.196360420244417
 30
0.0
 40
0.6881009615569953
  1
10.22 [259.6]
 41
0.75
 72
     1
 11
55.39343398101377
 21
5.196360420244417
 31
0.0
100
AcDbText
  0
TEXT
  5
7B5F
330
1E
100
AcDbEntity
  8
TEXT
100
AcDbText
 10
52.77004906507773
 20
4.049525484316092
 30
0.0
 40
0.6881009615569953
  1
10.22 [259.6]
 41
0.75
 72
     1
 11
55.39343398101377
 21
4.049525484316092
 31
0.0
100
AcDbText
  0
TEXT
  5
7B60
330
1E
100
AcDbEntity
  8
TEXT
100
AcDbText
 10
52.77004906507773
 20
2.902690548387781
 30
0.0
 40
0.6881009615569953
  1
10.22 [259.6]
 41
0.75
 72
     1
 11
55.39343398101377
 21
2.902690548387781
 31
0.0
100
AcDbText
  0
TEXT
  5
7B68
330
1E
100
AcDbEntity
  8
TEXT
100
AcDbText
 10
1.553213794977712
 20
6.33396854762816
 30
0.0
 40
0.6874999999972501
  1
SNB-3733
 41
0.75
 72
     1
 11
3.529776294969806
 21
6.33396854762816
 31
0.0
100
AcDbText
  0
TEXT
  5
7B6D
330
1E
100
AcDbEntity
  8
TEXT
100
AcDbText
 10
1.553213794977712
 20
5.188135214303997
 30
0.0
 40
0.6874999999972501
  1
SNB-3734
 41
0.75
 72
     1
 11
3.529776294969806
 21
5.188135214303997
 31
0.0
100
AcDbText
  0
TEXT
  5
7B6E
330
1E
100
AcDbEntity
  8
TEXT
100
AcDbText
 10
1.553213794977712
 20
2.896468547655658
 30
0.0
 40
0.6874999999972501
  1
SNB-3736
 41
0.75
 72
     1
 11
3.529776294969806
 21
2.896468547655658
 31
0.0
100
AcDbText
  0
TEXT
  5
7B6F
330
1E
100
AcDbEntity
  8
TEXT
100
AcDbText
 10
1.553213794977712
 20
4.042301880979835
 30
0.0
 40
0.6874999999972501
  1
SNB-3735
 41
0.75
 72
     1
 11
3.529776294969806
 21
4.042301880979835
 31
0.0
100
AcDbText
  0
TEXT
  5
7B71
330
1E
100
AcDbEntity
  8
TEXT
100
AcDbText
 10
1.639151294977368
 20
8.625635214276485
 30
0.0
 40
0.6874999999972501
  1
SNB-3731
 41
0.75
 72
     1
 11
3.529776294969806
 21
8.625635214276485
 31
0.0
100
AcDbText
  0
TEXT
  5
7B73
330
1E
100
AcDbEntity
  8
TEXT
100
AcDbText
 10
1.553213794977712
 20
7.479801880952337
 30
0.0
 40
0.6874999999972501
  1
SNB-3732
 41
0.75
 72
     1
 11
3.529776294969806
 21
7.479801880952337
 31
0.0
100
AcDbText
  0
LINE
  5
7E47
330
1E
100
AcDbEntity
  8
TITLE
100
AcDbLine
 10
90.95900000000005
 20
4.928499999986252
 30
0.0
 11
0.3410000000000615
 21
4.928499999986252
 31
0.0
  0
LINE
  5
7E48
330
1E
100
AcDbEntity
  8
TITLE
100
AcDbLine
 10
90.95900000000005
 20
6.078499999986252
 30
0.0
 11
0.3410000000000615
 21
6.078499999986252
 31
0.0
  0
LINE
  5
7E49
330
1E
100
AcDbEntity
  8
TITLE
100
AcDbLine
 10
90.95900000000005
 20
7.228499999986253
 30
0.0
 11
0.3410000000000615
 21
7.228499999986253
 31
0.0
  0
LINE
  5
7E4A
330
1E
100
AcDbEntity
  8
TITLE
100
AcDbLine
 10
90.95900000000005
 20
8.378499999986253
 30
0.0
 11
0.3410000000000615
 21
8.378499999986253
 31
0.0
  0
LINE
  5
7E4B
330
1E
100
AcDbEntity
  8
TITLE
100
AcDbLine
 10
90.95900000000005
 20
9.528499999986253
 30
0.0
 11
0.3410000000000615
 21
9.528499999986253
 31
0.0
  0
LINE
  5
7E4C
330
1E
100
AcDbEntity
  8
TITLE
100
AcDbLine
 10
90.95900000000005
 20
10.67849999998625
 30
0.0
 11
0.3410000000000615
 21
10.67849999998625
 31
0.0
  0
TEXT
  5
8099
330
1E
100
AcDbEntity
  8
TEXT
100
AcDbText
 10
0.9926267689124586
 20
12.07339957575665
 30
0.0
 40
0.6886014873717948
  1
 HOLE PLUGS - LIGHT GRAY NEOPRENE
 41
0.75
100
AcDbText
  0
TEXT
  5
809F
330
1E
100
AcDbEntity
  8
TEXT
100
AcDbText
 10
85.83048225211246
 20
8.636865228029392
 30
0.0
 40
0.6881009615569953
  1
7.68 [195]
 41
0.75
 72
     1
 11
87.89478513678345
 21
8.636865228029392
 31
0.0
100
AcDbText
  0
TEXT
  5
80A5
330
1E
100
AcDbEntity
  8
TEXT
100
AcDbText
 10
85.83048225211246
 20
7.486865228029392
 30
0.0
 40
0.6881009615569953
  1
7.68 [195]
 41
0.75
 72
     1
 11
87.89478513678345
 21
7.486865228029392
 31
0.0
100
AcDbText
  0
TEXT
  5
80A6
330
1E
100
AcDbEntity
  8
TEXT
100
AcDbText
 10
85.83048225211246
 20
6.336865228029392
 30
0.0
 40
0.6881009615569953
  1
7.68 [195]
 41
0.75
 72
     1
 11
87.89478513678345
 21
6.336865228029392
 31
0.0
100
AcDbText
  0
TEXT
  5
80A7
330
1E
100
AcDbEntity
  8
TEXT
100
AcDbText
 10
85.83048225211246
 20
5.186865228029391
 30
0.0
 40
0.6881009615569953
  1
7.68 [195]
 41
0.75
 72
     1
 11
87.89478513678345
 21
5.186865228029391
 31
0.0
100
AcDbText
  0
TEXT
  5
80A8
330
1E
100
AcDbEntity
  8
TEXT
100
AcDbText
 10
85.55127725893342
 20
4.026688945738701
 30
0.0
 40
0.6881009615597477
  1
11.62 [295]
 41
0.75
 72
     1
 11
87.78760538400261
 21
4.026688945738701
 31
0.0
100
AcDbText
  0
TEXT
  5
80A9
330
1E
100
AcDbEntity
  8
TEXT
100
AcDbText
 10
85.55127725893342
 20
2.875847599384586
 30
0.0
 40
0.6881009615597477
  1
11.62 [295]
 41
0.75
 72
     1
 11
87.78760538400261
 21
2.875847599384586
 31
0.0
100
AcDbText
  0
TEXT
  5
817E
330
1E
100
AcDbEntity
  8
TEXT
100
AcDbText
 10
64.63994139756741
 20
14.19586354971097
 30
0.0
 40
0.6881009615569953
  1
BOXES SUPPLIED WITH GROUNDING KIT THAT CONTAINS
 41
0.75
100
AcDbText
  0
TEXT
  5
817F
330
1E
100
AcDbEntity
  8
TEXT
100
AcDbText
 10
64.63994139756741
 20
13.05003021637765
 30
0.0
 40
0.6881009615569953
  1
THE FOLLOWING: (1) GROUND WIRE, (4) FLAT WASHERS,
 41
0.75
100
AcDbText
  0
TEXT
  5
8180
330
1E
100
AcDbEntity
  8
TEXT
100
AcDbText
 10
64.63994139756741
 20
11.90419688304432
 30
0.0
 40
0.6881009615569953
  1
(2) SPLIT LOCKWASHERS AND (2) HEX NUTS
 41
0.75
100
AcDbText
  0
LEADER
  5
825F
330
1E
100
AcDbEntity
  8
DIM
100
AcDbLeader
  3
23NSTD
 73
     0
 75
     1
 40
2.981770833437499
 41
23.22340745273437
 76
     3
 10
70.96679906731757
 20
39.76188977312523
 30
0.0
 10
67.62420191230915
 20
36.94931183543886
 30
0.0
 10
66.63420191230915
 20
36.94931183543886
 30
0.0
340
8260
210
0.0
220
0.0
230
-1.0
213
0.0
223
-0.34405048078125
233
0.0
  0
MTEXT
  5
8260
102
{ACAD_REACTORS
330
825F
102
}
330
1E
100
AcDbEntity
  8
DIM
100
AcDbMText
 10
66.13920191230914
 20
37.29336231622011
 30
0.0
 40
0.6881009615625001
 41
0.0
 71
     3
 72
     1
  1
HINGE AT CENTER\PSNB-3735, SNB-3736,\PSNB-3737 AND SNB-3743 ONLY 
 73
     1
 44
1.0
  0
ENDSEC
  0
SECTION
  2
OBJECTS
  0
DICTIONARY
  5
C
330
0
100
AcDbDictionary
281
     1
  3
ACAD_GROUP
350
D
  3
ACAD_LAYOUT
350
19
  3
ACAD_MLINESTYLE
350
16
  3
ACAD_PLOTSETTINGS
350
18
  3
ACAD_PLOTSTYLENAME
350
E
  3
AcadDim
350
2C87
  0
DICTIONARY
  5
D
102
{ACAD_REACTORS
330
C
102
}
330
C
100
AcDbDictionary
281
     1
  0
DICTIONARY
  5
19
102
{ACAD_REACTORS
330
C
102
}
330
C
100
AcDbDictionary
281
     1
  3
Layout1
350
1D
  3
Model
350
21
  0
DICTIONARY
  5
16
102
{ACAD_REACTORS
330
C
102
}
330
C
100
AcDbDictionary
281
     1
  3
Standard
350
17
  0
DICTIONARY
  5
18
102
{ACAD_REACTORS
330
C
102
}
330
C
100
AcDbDictionary
281
     1
  0
ACDBDICTIONARYWDFLT
  5
E
102
{ACAD_REACTORS
330
C
102
}
330
C
100
AcDbDictionary
281
     1
  3
Normal
350
F
100
AcDbDictionaryWithDefault
340
F
  0
XRECORD
  5
2C87
102
{ACAD_REACTORS
330
C
102
}
330
C
100
AcDbXrecord
280
     1
 90
   990106
  3

 60
     0
 61
     0
 62
     1
 63
     1
 64
     0
 65
     0
 66
     0
 67
     3
 68
     1
 69
     0
 70
     0
 71
     0
 72
     0
 40
0.0
170
     2
340
0
  0
LAYOUT
  5
1D
102
{ACAD_REACTORS
330
19
102
}
330
19
100
AcDbPlotSettings
  1

  2
C:\Program Files\ACAD2000\plotters\DWF ePlot.pc3
  4

  6

 40
0.0
 41
0.0
 42
0.0
 43
0.0
 44
0.0
 45
0.0
 46
0.0
 47
0.0
 48
0.0
 49
0.0
140
0.0
141
0.0
142
1.0
143
1.0
 70
   688
 72
     0
 73
     0
 74
     5
  7
monochrome.ctb
 75
    16
147
1.0
148
0.0
149
0.0
100
AcDbLayout
  1
Layout1
 70
     1
 71
     1
 10
0.0
 20
0.0
 11
12.0
 21
9.0
 12
0.0
 22
0.0
 32
0.0
 14
1.000000000000000E+20
 24
1.000000000000000E+20
 34
1.000000000000000E+20
 15
-1.000000000000000E+20
 25
-1.000000000000000E+20
 35
-1.000000000000000E+20
146
0.0
 13
0.0
 23
0.0
 33
0.0
 16
1.0
 26
0.0
 36
0.0
 17
0.0
 27
1.0
 37
0.0
 76
     0
330
1A
  0
LAYOUT
  5
21
102
{ACAD_REACTORS
330
19
102
}
330
19
100
AcDbPlotSettings
  1

  2
RICOH Aficio MP 7001 PCL 5e
  4
Letter
  6

 40
7.143749713897705
 41
5.027085304260253
 42
7.14373779296875
 43
5.027069091796875
 44
215.8999938964843
 45
279.3999938964843
 46
17.018
 47
0.0
 48
0.0
 49
0.0
140
0.0
141
0.0
142
1.0
143
8.610819445364608
 70
 11956
 72
     0
 73
     1
 74
     1
  7
monochrome.ctb
 75
     0
147
0.1161329657815926
148
0.1266572380663092
149
0.1330435365931464
100
AcDbLayout
  1
Model
 70
     1
 71
     0
 10
0.0
 20
0.0
 11
12.0
 21
9.0
 12
0.0
 22
0.0
 32
0.0
 14
0.0
 24
0.0
 34
0.0
 15
0.0
 25
0.0
 35
0.0
146
0.0
 13
0.0
 23
0.0
 33
0.0
 16
1.0
 26
0.0
 36
0.0
 17
0.0
 27
1.0
 37
0.0
 76
     0
330
1E
  0
MLINESTYLE
  5
17
102
{ACAD_REACTORS
330
16
102
}
330
16
100
AcDbMlineStyle
  2
STANDARD
 70
     0
  3

 62
   256
 51
90.0
 52
90.0
 71
     2
 49
0.5
 62
   256
  6
BYLAYER
 49
-0.5
 62
   256
  6
BYLAYER
  0
ACDBPLACEHOLDER
  5
F
102
{ACAD_REACTORS
330
E
102
}
330
E
  0
ENDSEC
  0
EOF
