  0
SECTION
  2
HEADER
  9
$ACADVER
  1
AC1009
  9
$INSBASE
 10
0.0
 20
0.0
 30
0.0
  9
$EXTMIN
 10
-0.0007628812463523
 20
-0.0007094795591058
 30
-0.0000566820766039
  9
$EXTMAX
 10
15.181732224512061
 20
23.250709587825369
 30
1.8575566907262611
  9
$LIMMIN
 10
0.0
 20
0.0
  9
$LIMMAX
 10
25.0
 20
20.0
  9
$ORTHOMODE
 70
     1
  9
$REGENMODE
 70
     1
  9
$FILLMODE
 70
     1
  9
$QTEXTMODE
 70
     0
  9
$MIRRTEXT
 70
     0
  9
$DRAGMODE
 70
     2
  9
$LTSCALE
 40
0.5
  9
$OSMODE
 70
    37
  9
$ATTMODE
 70
     1
  9
$TEXTSIZE
 40
0.188
  9
$TRACEWID
 40
0.05
  9
$TEXTSTYLE
  7
STANDARD
  9
$CLAYER
  8
OBJECT
  9
$CELTYPE
  6
BYLAYER
  9
$CECOLOR
 62
   256
  9
$DIMSCALE
 40
1.5
  9
$DIMASZ
 40
0.18
  9
$DIMEXO
 40
0.063
  9
$DIMDLI
 40
0.25
  9
$DIMRND
 40
0.0
  9
$DIMDLE
 40
0.0
  9
$DIMEXE
 40
0.093
  9
$DIMTP
 40
0.0
  9
$DIMTM
 40
0.0
  9
$DIMTXT
 40
0.125
  9
$DIMCEN
 40
0.09
  9
$DIMTSZ
 40
0.0
  9
$DIMTOL
 70
     0
  9
$DIMLIM
 70
     0
  9
$DIMTIH
 70
     1
  9
$DIMTOH
 70
     1
  9
$DIMSE1
 70
     0
  9
$DIMSE2
 70
     0
  9
$DIMTAD
 70
     0
  9
$DIMZIN
 70
     0
  9
$DIMBLK
  1

  9
$DIMASO
 70
     1
  9
$DIMSHO
 70
     1
  9
$DIMPOST
  1

  9
$DIMAPOST
  1

  9
$DIMALT
 70
     0
  9
$DIMALTD
 70
     2
  9
$DIMALTF
 40
25.399999999999999
  9
$DIMLFAC
 40
1.0
  9
$DIMTOFL
 70
     0
  9
$DIMTVP
 40
0.0
  9
$DIMTIX
 70
     0
  9
$DIMSOXD
 70
     0
  9
$DIMSAH
 70
     0
  9
$DIMBLK1
  1

  9
$DIMBLK2
  1

  9
$DIMSTYLE
  2
23NSTD
  9
$DIMCLRD
 70
     0
  9
$DIMCLRE
 70
     0
  9
$DIMCLRT
 70
     0
  9
$DIMTFAC
 40
1.0
  9
$DIMGAP
 40
0.09
  9
$LUNITS
 70
     2
  9
$LUPREC
 70
     3
  9
$SKETCHINC
 40
0.1
  9
$FILLETRAD
 40
0.0
  9
$AUNITS
 70
     1
  9
$AUPREC
 70
     1
  9
$MENU
  1
acad
  9
$ELEVATION
 40
0.0
  9
$PELEVATION
 40
0.0
  9
$THICKNESS
 40
0.0
  9
$LIMCHECK
 70
     0
  9
$BLIPMODE
 70
     0
  9
$CHAMFERA
 40
0.0
  9
$CHAMFERB
 40
0.0
  9
$SKPOLY
 70
     0
  9
$TDCREATE
 40
2448163.3299114578
  9
$TDUPDATE
 40
2451802.4156839349
  9
$TDINDWG
 40
0.6441456019
  9
$TDUSRTIMER
 40
0.6441456019
  9
$USRTIMER
 70
     1
  9
$ANGBASE
 50
0.0
  9
$ANGDIR
 70
     0
  9
$PDMODE
 70
     0
  9
$PDSIZE
 40
0.0
  9
$PLINEWID
 40
0.0
  9
$COORDS
 70
     0
  9
$SPLFRAME
 70
     0
  9
$SPLINETYPE
 70
     6
  9
$SPLINESEGS
 70
     8
  9
$ATTDIA
 70
     0
  9
$ATTREQ
 70
     1
  9
$HANDLING
 70
  4097
  9
$HANDSEED
  5
8F6
  9
$SURFTAB1
 70
     6
  9
$SURFTAB2
 70
     6
  9
$SURFTYPE
 70
     6
  9
$SURFU
 70
     6
  9
$SURFV
 70
     6
  9
$UCSNAME
  2

  9
$UCSORG
 10
0.0
 20
0.0
 30
0.0
  9
$UCSXDIR
 10
1.0
 20
0.0
 30
0.0
  9
$UCSYDIR
 10
0.0
 20
1.0
 30
0.0
  9
$PUCSNAME
  2

  9
$PUCSORG
 10
0.0
 20
0.0
 30
0.0
  9
$PUCSXDIR
 10
1.0
 20
0.0
 30
0.0
  9
$PUCSYDIR
 10
0.0
 20
1.0
 30
0.0
  9
$USERI1
 70
     0
  9
$USERI2
 70
     0
  9
$USERI3
 70
     0
  9
$USERI4
 70
     0
  9
$USERI5
 70
     0
  9
$USERR1
 40
0.0
  9
$USERR2
 40
0.0
  9
$USERR3
 40
0.0
  9
$USERR4
 40
0.0
  9
$USERR5
 40
0.0
  9
$WORLDVIEW
 70
     1
  9
$SHADEDGE
 70
     3
  9
$SHADEDIF
 70
    70
  9
$TILEMODE
 70
     1
  9
$MAXACTVP
 70
    16
  9
$PLIMCHECK
 70
     0
  9
$PEXTMIN
 10
1.0000000000000000E+020
 20
1.0000000000000000E+020
 30
1.0000000000000000E+020
  9
$PEXTMAX
 10
-1.0000000000000000E+020
 20
-1.0000000000000000E+020
 30
-1.0000000000000000E+020
  9
$PLIMMIN
 10
0.0
 20
0.0
  9
$PLIMMAX
 10
12.0
 20
9.0
  9
$UNITMODE
 70
     0
  9
$VISRETAIN
 70
     0
  9
$PLINEGEN
 70
     0
  9
$PSLTSCALE
 70
     0
  0
ENDSEC
  0
SECTION
  2
TABLES
  0
TABLE
  2
VPORT
 70
     2
  0
VPORT
  2
*ACTIVE
 70
     0
 10
0.0
 20
0.0
 11
1.0
 21
1.0
 12
7.5904846716328498
 22
11.62500005413313
 13
0.0
 23
0.0
 14
1.0
 24
1.0
 15
0.5
 25
0.5
 16
0.0
 26
0.0
 36
1.0
 17
0.0
 27
0.0
 37
0.0
 40
23.513161120675861
 41
1.813909774436089
 42
50.0
 43
0.0
 44
0.0
 50
0.0
 51
0.0
 71
     0
 72
   100
 73
     1
 74
     0
 75
     0
 76
     0
 77
     0
 78
     0
  0
ENDTAB
  0
TABLE
  2
LTYPE
 70
     4
  0
LTYPE
  2
CONTINUOUS
 70
     0
  3
Solid line
 72
    65
 73
     0
 40
0.0
  0
LTYPE
  2
HIDDEN
 70
     0
  3
_ _ _ _ _ _ _ _ _ _ _ _ _ _ _ _ _ _ _ _ _ _ _
 72
    65
 73
     2
 40
0.375
 49
0.25
 49
-0.125
  0
LTYPE
  2
PHANTOM
 70
     0
  3
_____ _ _ _____ _ _ _____ _ _ _____ _ _ ____
 72
    65
 73
     6
 40
2.5
 49
1.25
 49
-0.25
 49
0.25
 49
-0.25
 49
0.25
 49
-0.25
  0
LTYPE
  2
CENTER
 70
     0
  3
____ _ ____ _ ____ _ ____ _ ____ _ ____ _ ____
 72
    65
 73
     4
 40
2.0
 49
1.25
 49
-0.25
 49
0.25
 49
-0.25
  0
ENDTAB
  0
TABLE
  2
LAYER
 70
     9
  0
LAYER
  2
0
 70
     0
 62
     7
  6
CONTINUOUS
  0
LAYER
  2
OBJECT
 70
     0
 62
     7
  6
CONTINUOUS
  0
LAYER
  2
DIM
 70
     0
 62
     7
  6
CONTINUOUS
  0
LAYER
  2
HIDDEN
 70
     0
 62
     7
  6
HIDDEN
  0
LAYER
  2
BEND
 70
     0
 62
     7
  6
PHANTOM
  0
LAYER
  2
TEXT
 70
     0
 62
     7
  6
CONTINUOUS
  0
LAYER
  2
TITLE
 70
     0
 62
     7
  6
CONTINUOUS
  0
LAYER
  2
CENTER
 70
     0
 62
     7
  6
CENTER
  0
LAYER
  2
DEFPOINTS
 70
     0
 62
     7
  6
CONTINUOUS
  0
ENDTAB
  0
TABLE
  2
STYLE
 70
     4
  0
STYLE
  2
STANDARD
 70
     0
 40
0.0
 41
0.75
 50
0.0
 71
     0
 42
0.188
  3
TXT.shx
  4

  0
STYLE
  2
TXT
 70
     0
 40
0.0
 41
0.75
 50
0.0
 71
     0
 42
0.156
  3
TXT.shx
  4

  0
STYLE
  2
ROMANS
 70
     0
 40
0.125
 41
1.0
 50
0.0
 71
     0
 42
0.125
  3
romans
  4

  0
STYLE
  2
CITYBLUEPRINT
 70
     0
 40
0.1875
 41
1.0
 50
0.0
 71
     0
 42
0.1875
  3
cibt____.pfb
  4

  0
ENDTAB
  0
TABLE
  2
VIEW
 70
     0
  0
ENDTAB
  0
TABLE
  2
UCS
 70
     0
  0
ENDTAB
  0
TABLE
  2
APPID
 70
     1
  0
APPID
  2
ACAD
 70
     0
  0
ENDTAB
  0
TABLE
  2
DIMSTYLE
 70
     2
  0
DIMSTYLE
  2
23NSTD
 70
     0
  3

  4

  5

  6

  7

 40
1.5
 41
0.18
 42
0.063
 43
0.25
 44
0.093
 45
0.0
 46
0.0
 47
0.0
 48
0.0
140
0.125
141
0.09
142
0.0
143
25.399999999999999
144
1.0
145
0.0
146
1.0
147
0.09
 71
     0
 72
     0
 73
     1
 74
     1
 75
     0
 76
     0
 77
     0
 78
     0
170
     0
171
     2
172
     0
173
     0
174
     0
175
     0
176
     0
177
     0
178
     0
  0
DIMSTYLE
  2
23NSTDI
 70
     0
  3

  4

  5

  6

  7

 40
1.5
 41
0.18
 42
0.063
 43
0.25
 44
0.093
 45
0.0
 46
0.0
 47
0.0
 48
0.0
140
0.125
141
0.09
142
0.0
143
25.399999999999999
144
1.0
145
0.0
146
1.0
147
0.09
 71
     0
 72
     0
 73
     1
 74
     1
 75
     0
 76
     0
 77
     0
 78
     0
170
     0
171
     2
172
     0
173
     0
174
     1
175
     0
176
     0
177
     0
178
     0
  0
ENDTAB
  0
ENDSEC
  0
SECTION
  2
BLOCKS
  0
BLOCK
  8
0
  2
$MODEL_SPACE
 70
     0
 10
0.0
 20
0.0
 30
0.0
  3
$MODEL_SPACE
  1

  0
ENDBLK
  5
20
  8
0
  0
BLOCK
 67
     1
  8
0
  2
$PAPER_SPACE
 70
     0
 10
0.0
 20
0.0
 30
0.0
  3
$PAPER_SPACE
  1

  0
ENDBLK
  5
1C
 67
     1
  8
0
  0
BLOCK
  8
0
  2
*X0
 70
     1
 10
0.0
 20
0.0
 30
0.0
  3
*X0
  1

  0
LINE
  5
38
  8
0
 62
     0
 10
19.529675000000001
 20
12.820460000000001
 30
0.0
 11
19.449175
 21
12.90096
 31
0.0
  0
LINE
  5
39
  8
0
 62
     0
 10
19.352899000000001
 20
12.820460000000001
 30
0.0
 11
19.272399
 21
12.90096
 31
0.0
  0
LINE
  5
3A
  8
0
 62
     0
 10
19.176121999999989
 20
12.820460000000001
 30
0.0
 11
19.095621999999992
 21
12.90096
 31
0.0
  0
LINE
  5
3B
  8
0
 62
     0
 10
18.999345000000002
 20
12.820460000000001
 30
0.0
 11
18.918845000000001
 21
12.90096
 31
0.0
  0
LINE
  5
3C
  8
0
 62
     0
 10
18.822568
 20
12.820460000000001
 30
0.0
 11
18.742067999999989
 21
12.90096
 31
0.0
  0
LINE
  5
3D
  8
0
 62
     0
 10
18.645792
 20
12.820460000000001
 30
0.0
 11
18.599537999999988
 21
12.866714
 31
0.0
  0
LINE
  5
3E
  8
0
 62
     0
 10
19.706451999999992
 20
12.820460000000001
 30
0.0
 11
19.625951999999991
 21
12.90096
 31
0.0
  0
LINE
  5
3F
  8
0
 62
     0
 10
19.883229
 20
12.820460000000001
 30
0.0
 11
19.802728999999999
 21
12.90096
 31
0.0
  0
LINE
  5
40
  8
0
 62
     0
 10
20.060005
 20
12.820460000000001
 30
0.0
 11
19.979504999999989
 21
12.90096
 31
0.0
  0
LINE
  5
41
  8
0
 62
     0
 10
20.236782000000002
 20
12.820460000000001
 30
0.0
 11
20.156282000000001
 21
12.90096
 31
0.0
  0
LINE
  5
42
  8
0
 62
     0
 10
20.410012999999999
 20
12.824005
 30
0.0
 11
20.333058999999992
 21
12.90096
 31
0.0
  0
ENDBLK
  5
43
  8
0
  0
BLOCK
  8
0
  2
*X1
 70
     1
 10
0.0
 20
0.0
 30
0.0
  3
*X1
  1

  0
LINE
  5
46
  8
0
 62
     0
 10
19.598635000000002
 20
11.820460000000001
 30
0.0
 11
19.678634999999989
 21
11.900460000000001
 31
0.0
  0
LINE
  5
47
  8
0
 62
     0
 10
19.421858
 20
11.820460000000001
 30
0.0
 11
19.501857999999991
 21
11.900460000000001
 31
0.0
  0
LINE
  5
48
  8
0
 62
     0
 10
19.245080999999988
 20
11.820460000000001
 30
0.0
 11
19.325081000000001
 21
11.900460000000001
 31
0.0
  0
LINE
  5
49
  8
0
 62
     0
 10
19.068304999999992
 20
11.820460000000001
 30
0.0
 11
19.148305000000001
 21
11.900460000000001
 31
0.0
  0
LINE
  5
4A
  8
0
 62
     0
 10
18.891528000000001
 20
11.820460000000001
 30
0.0
 11
18.971527999999989
 21
11.900460000000001
 31
0.0
  0
LINE
  5
4B
  8
0
 62
     0
 10
18.714750999999989
 20
11.820460000000001
 30
0.0
 11
18.794751000000002
 21
11.900460000000001
 31
0.0
  0
LINE
  5
4C
  8
0
 62
     0
 10
18.537973999999991
 20
11.820460000000001
 30
0.0
 11
18.664923000000002
 21
11.947409
 31
0.0
  0
LINE
  5
4D
  8
0
 62
     0
 10
18.361198000000002
 20
11.820460000000001
 30
0.0
 11
18.486198000000002
 21
11.945460000000001
 31
0.0
  0
LINE
  5
4E
  8
0
 62
     0
 10
18.549482999999999
 20
12.008744999999999
 30
0.0
 11
18.664923000000002
 21
12.124186
 31
0.0
  0
LINE
  5
4F
  8
0
 62
     0
 10
18.184421
 20
11.820460000000001
 30
0.0
 11
18.309421
 21
11.945460000000001
 31
0.0
  0
LINE
  5
50
  8
0
 62
     0
 10
18.557553999999989
 20
12.193593
 30
0.0
 11
18.664923000000002
 21
12.300962
 31
0.0
  0
LINE
  5
51
  8
0
 62
     0
 10
18.054349999999999
 20
11.867165999999999
 30
0.0
 11
18.132643999999988
 21
11.945460000000001
 31
0.0
  0
LINE
  5
52
  8
0
 62
     0
 10
18.565623999999989
 20
12.378439999999991
 30
0.0
 11
18.664923000000002
 21
12.477739
 31
0.0
  0
LINE
  5
53
  8
0
 62
     0
 10
18.573695000000001
 20
12.563287000000001
 30
0.0
 11
18.664923000000002
 21
12.654515999999999
 31
0.0
  0
LINE
  5
54
  8
0
 62
     0
 10
19.775410999999991
 20
11.820460000000001
 30
0.0
 11
19.855411
 21
11.900460000000001
 31
0.0
  0
LINE
  5
55
  8
0
 62
     0
 10
19.952187999999989
 20
11.820460000000001
 30
0.0
 11
20.032188000000001
 21
11.900460000000001
 31
0.0
  0
LINE
  5
56
  8
0
 62
     0
 10
20.128965000000001
 20
11.820460000000001
 30
0.0
 11
20.208964999999999
 21
11.900460000000001
 31
0.0
  0
LINE
  5
57
  8
0
 62
     0
 10
20.305741000000001
 20
11.820460000000001
 30
0.0
 11
20.385740999999989
 21
11.900460000000001
 31
0.0
  0
ENDBLK
  5
58
  8
0
  0
BLOCK
  8
0
  2
*X2
 70
     1
 10
0.0
 20
0.0
 30
0.0
  3
*X2
  1

  0
LINE
  5
5B
  8
0
 62
     0
 10
14.76392699999999
 20
14.587149999999991
 30
0.0
 11
14.84392699999999
 21
14.667149999999991
 31
0.0
  0
LINE
  5
5C
  8
0
 62
     0
 10
14.76392699999999
 20
14.76392699999999
 30
0.0
 11
14.84392699999999
 21
14.84392699999999
 31
0.0
  0
LINE
  5
5D
  8
0
 62
     0
 10
14.76392699999999
 20
14.940704
 30
0.0
 11
14.84392699999999
 21
15.020704
 31
0.0
  0
LINE
  5
5E
  8
0
 62
     0
 10
14.76392699999999
 20
15.11747999999999
 30
0.0
 11
14.84392699999999
 21
15.19747999999999
 31
0.0
  0
LINE
  5
5F
  8
0
 62
     0
 10
14.76392699999999
 20
15.294256999999989
 30
0.0
 11
14.84392699999999
 21
15.374257
 31
0.0
  0
LINE
  5
60
  8
0
 62
     0
 10
14.76392699999999
 20
15.471034
 30
0.0
 11
14.84392699999999
 21
15.551034
 31
0.0
  0
LINE
  5
61
  8
0
 62
     0
 10
14.76392699999999
 20
14.41037399999999
 30
0.0
 11
14.84392699999999
 21
14.49037399999999
 31
0.0
  0
LINE
  5
62
  8
0
 62
     0
 10
14.780533999999999
 20
14.250204
 30
0.0
 11
14.84392699999999
 21
14.313596999999991
 31
0.0
  0
LINE
  5
63
  8
0
 62
     0
 10
14.894826
 20
14.187719
 30
0.0
 11
15.012771000000001
 21
14.305664999999999
 31
0.0
  0
LINE
  5
64
  8
0
 62
     0
 10
15.079673
 20
14.19578999999999
 30
0.0
 11
15.189548
 21
14.305664999999999
 31
0.0
  0
LINE
  5
65
  8
0
 62
     0
 10
15.264519999999999
 20
14.203860000000001
 30
0.0
 11
15.366325
 21
14.305664999999999
 31
0.0
  0
LINE
  5
66
  8
0
 62
     0
 10
15.449368
 20
14.211930999999989
 30
0.0
 11
15.54310199999999
 21
14.305664999999999
 31
0.0
  0
LINE
  5
67
  8
0
 62
     0
 10
15.634214999999999
 20
14.220001
 30
0.0
 11
15.719878
 21
14.305664999999999
 31
0.0
  0
ENDBLK
  5
68
  8
0
  0
BLOCK
  8
0
  2
*X3
 70
     1
 10
0.0
 20
0.0
 30
0.0
  3
*X3
  1

  0
LINE
  5
6B
  8
0
 62
     0
 10
15.844427
 20
14.737940999999999
 30
0.0
 11
15.76392699999999
 21
14.818440999999989
 31
0.0
  0
LINE
  5
6C
  8
0
 62
     0
 10
15.844427
 20
14.561164
 30
0.0
 11
15.76392699999999
 21
14.641664
 31
0.0
  0
LINE
  5
6D
  8
0
 62
     0
 10
15.844427
 20
14.384388
 30
0.0
 11
15.76392699999999
 21
14.464888
 31
0.0
  0
LINE
  5
6E
  8
0
 62
     0
 10
15.811101999999989
 20
14.240935999999991
 30
0.0
 11
15.76392699999999
 21
14.28811099999999
 31
0.0
  0
LINE
  5
6F
  8
0
 62
     0
 10
15.844427
 20
14.914718000000001
 30
0.0
 11
15.76392699999999
 21
14.995217999999999
 31
0.0
  0
LINE
  5
70
  8
0
 62
     0
 10
15.844427
 20
15.091495
 30
0.0
 11
15.76392699999999
 21
15.171995000000001
 31
0.0
  0
LINE
  5
71
  8
0
 62
     0
 10
15.844427
 20
15.268271
 30
0.0
 11
15.76392699999999
 21
15.348770999999999
 31
0.0
  0
LINE
  5
72
  8
0
 62
     0
 10
15.844427
 20
15.445048
 30
0.0
 11
15.76392699999999
 21
15.525548000000001
 31
0.0
  0
ENDBLK
  5
73
  8
0
  0
BLOCK
  8
0
  2
*X4
 70
     1
 10
0.0
 20
0.0
 30
0.0
  3
*X4
  1

  0
LINE
  5
76
  8
0
 62
     0
 10
8.3508779999999998
 20
2.9628309999999991
 30
0.0
 11
8.2608779999999982
 21
3.0528309999999999
 31
0.0
  0
LINE
  5
77
  8
0
 62
     0
 10
8.1741010000000003
 20
2.9628309999999991
 30
0.0
 11
8.0841009999999986
 21
3.0528309999999999
 31
0.0
  0
LINE
  5
78
  8
0
 62
     0
 10
7.997325
 20
2.9628309999999991
 30
0.0
 11
7.9073250000000002
 21
3.0528309999999999
 31
0.0
  0
LINE
  5
79
  8
0
 62
     0
 10
7.8205479999999987
 20
2.9628309999999991
 30
0.0
 11
7.7305479999999989
 21
3.0528309999999999
 31
0.0
  0
LINE
  5
7A
  8
0
 62
     0
 10
7.6437710000000001
 20
2.9628309999999991
 30
0.0
 11
7.5537710000000002
 21
3.0528309999999999
 31
0.0
  0
LINE
  5
7B
  8
0
 62
     0
 10
7.4669939999999997
 20
2.9628309999999991
 30
0.0
 11
7.3769939999999989
 21
3.0528309999999999
 31
0.0
  0
LINE
  5
7C
  8
0
 62
     0
 10
7.2902179999999994
 20
2.9628309999999991
 30
0.0
 11
7.2002179999999987
 21
3.0528309999999999
 31
0.0
  0
LINE
  5
7D
  8
0
 62
     0
 10
7.1134409999999999
 20
2.9628309999999991
 30
0.0
 11
7.023441
 21
3.0528309999999999
 31
0.0
  0
LINE
  5
7E
  8
0
 62
     0
 10
6.9366640000000004
 20
2.9628309999999991
 30
0.0
 11
6.8466639999999988
 21
3.0528309999999999
 31
0.0
  0
LINE
  5
7F
  8
0
 62
     0
 10
6.7598880000000001
 20
2.9628309999999991
 30
0.0
 11
6.712072
 21
3.010645999999999
 31
0.0
  0
LINE
  5
80
  8
0
 62
     0
 10
8.5276550000000011
 20
2.9628309999999991
 30
0.0
 11
8.4376549999999995
 21
3.0528309999999999
 31
0.0
  0
LINE
  5
81
  8
0
 62
     0
 10
8.7044309999999996
 20
2.9628309999999991
 30
0.0
 11
8.6144309999999997
 21
3.0528309999999999
 31
0.0
  0
LINE
  5
82
  8
0
 62
     0
 10
8.8812080000000009
 20
2.9628309999999991
 30
0.0
 11
8.791208000000001
 21
3.0528309999999999
 31
0.0
  0
LINE
  5
83
  8
0
 62
     0
 10
9.0579850000000004
 20
2.9628309999999991
 30
0.0
 11
8.9679850000000005
 21
3.0528309999999999
 31
0.0
  0
LINE
  5
84
  8
0
 62
     0
 10
9.2347610000000007
 20
2.9628309999999991
 30
0.0
 11
9.1447610000000008
 21
3.0528309999999999
 31
0.0
  0
LINE
  5
85
  8
0
 62
     0
 10
9.4115380000000002
 20
2.9628309999999991
 30
0.0
 11
9.3215380000000003
 21
3.0528309999999999
 31
0.0
  0
LINE
  5
86
  8
0
 62
     0
 10
9.5883149999999997
 20
2.9628309999999991
 30
0.0
 11
9.4983149999999998
 21
3.0528309999999999
 31
0.0
  0
LINE
  5
87
  8
0
 62
     0
 10
9.7650909999999982
 20
2.9628309999999991
 30
0.0
 11
9.6750910000000001
 21
3.0528309999999999
 31
0.0
  0
LINE
  5
88
  8
0
 62
     0
 10
9.9418679999999995
 20
2.9628309999999991
 30
0.0
 11
9.8518679999999996
 21
3.0528309999999999
 31
0.0
  0
ENDBLK
  5
89
  8
0
  0
BLOCK
  8
0
  2
*X5
 70
     1
 10
0.0
 20
0.0
 30
0.0
  3
*X5
  1

  0
LINE
  5
8C
  8
0
 62
     0
 10
3.2645459999999988
 20
5.9278420000000001
 30
0.0
 11
3.174545999999999
 21
6.017841999999999
 31
0.0
  0
LINE
  5
8D
  8
0
 62
     0
 10
3.2645459999999988
 20
5.7510649999999996
 30
0.0
 11
3.174545999999999
 21
5.8410650000000004
 31
0.0
  0
LINE
  5
8E
  8
0
 62
     0
 10
3.2645459999999988
 20
5.5742880000000001
 30
0.0
 11
3.174545999999999
 21
5.6642879999999991
 31
0.0
  0
LINE
  5
8F
  8
0
 62
     0
 10
3.2645459999999988
 20
5.397511999999999
 30
0.0
 11
3.174545999999999
 21
5.4875119999999997
 31
0.0
  0
LINE
  5
90
  8
0
 62
     0
 10
3.2645459999999988
 20
5.2207349999999986
 30
0.0
 11
3.174545999999999
 21
5.3107350000000002
 31
0.0
  0
LINE
  5
91
  8
0
 62
     0
 10
3.2645459999999988
 20
5.0439579999999991
 30
0.0
 11
3.174545999999999
 21
5.1339579999999989
 31
0.0
  0
LINE
  5
92
  8
0
 62
     0
 10
3.2645459999999988
 20
4.8671819999999988
 30
0.0
 11
3.174545999999999
 21
4.9571819999999986
 31
0.0
  0
LINE
  5
93
  8
0
 62
     0
 10
3.227001
 20
4.727949999999999
 30
0.0
 11
3.174545999999999
 21
4.780405
 31
0.0
  0
LINE
  5
94
  8
0
 62
     0
 10
3.2645459999999988
 20
6.1046180000000003
 30
0.0
 11
3.174545999999999
 21
6.1946180000000002
 31
0.0
  0
LINE
  5
95
  8
0
 62
     0
 10
3.2645459999999988
 20
6.281394999999999
 30
0.0
 11
3.174545999999999
 21
6.3713949999999988
 31
0.0
  0
LINE
  5
96
  8
0
 62
     0
 10
3.2645459999999988
 20
6.4581720000000002
 30
0.0
 11
3.174545999999999
 21
6.5481720000000001
 31
0.0
  0
LINE
  5
97
  8
0
 62
     0
 10
3.2645459999999988
 20
6.6349489999999998
 30
0.0
 11
3.174545999999999
 21
6.7249489999999996
 31
0.0
  0
LINE
  5
98
  8
0
 62
     0
 10
3.2645459999999988
 20
6.811725
 30
0.0
 11
3.174545999999999
 21
6.901724999999999
 31
0.0
  0
LINE
  5
99
  8
0
 62
     0
 10
3.2645459999999988
 20
6.9885020000000004
 30
0.0
 11
3.174545999999999
 21
7.0785020000000003
 31
0.0
  0
LINE
  5
9A
  8
0
 62
     0
 10
3.2645459999999988
 20
7.1652789999999991
 30
0.0
 11
3.174545999999999
 21
7.255278999999998
 31
0.0
  0
ENDBLK
  5
9B
  8
0
  0
BLOCK
  8
0
  2
*X6
 70
     1
 10
0.0
 20
0.0
 30
0.0
  3
*X6
  1

  0
LINE
  5
9E
  8
0
 62
     0
 10
1.424545999999999
 20
4.9600799999999996
 30
0.0
 11
1.5145459999999991
 21
5.0500800000000003
 31
0.0
  0
LINE
  5
9F
  8
0
 62
     0
 10
1.424545999999999
 20
5.136857
 30
0.0
 11
1.5145459999999991
 21
5.226856999999999
 31
0.0
  0
LINE
  5
A0
  8
0
 62
     0
 10
1.424545999999999
 20
5.3136339999999986
 30
0.0
 11
1.5145459999999991
 21
5.4036339999999994
 31
0.0
  0
LINE
  5
A1
  8
0
 62
     0
 10
1.424545999999999
 20
5.4904099999999989
 30
0.0
 11
1.5145459999999991
 21
5.5804099999999988
 31
0.0
  0
LINE
  5
A2
  8
0
 62
     0
 10
1.424545999999999
 20
5.6671870000000002
 30
0.0
 11
1.5145459999999991
 21
5.7571870000000001
 31
0.0
  0
LINE
  5
A3
  8
0
 62
     0
 10
1.424545999999999
 20
5.8439639999999988
 30
0.0
 11
1.5145459999999991
 21
5.9339639999999987
 31
0.0
  0
LINE
  5
A4
  8
0
 62
     0
 10
1.424545999999999
 20
6.0207399999999991
 30
0.0
 11
1.5145459999999991
 21
6.110739999999999
 31
0.0
  0
LINE
  5
A5
  8
0
 62
     0
 10
1.424545999999999
 20
6.1975169999999986
 30
0.0
 11
1.5145459999999991
 21
6.2875170000000002
 31
0.0
  0
LINE
  5
A6
  8
0
 62
     0
 10
1.424545999999999
 20
6.374293999999999
 30
0.0
 11
1.5145459999999991
 21
6.4642939999999998
 31
0.0
  0
LINE
  5
A7
  8
0
 62
     0
 10
1.424545999999999
 20
6.5510710000000003
 30
0.0
 11
1.5145459999999991
 21
6.6410710000000011
 31
0.0
  0
LINE
  5
A8
  8
0
 62
     0
 10
1.424545999999999
 20
6.7278469999999988
 30
0.0
 11
1.5145459999999991
 21
6.8178470000000004
 31
0.0
  0
LINE
  5
A9
  8
0
 62
     0
 10
1.424545999999999
 20
6.9046240000000001
 30
0.0
 11
1.5145459999999991
 21
6.994624
 31
0.0
  0
LINE
  5
AA
  8
0
 62
     0
 10
1.424545999999999
 20
7.0814009999999987
 30
0.0
 11
1.5145459999999991
 21
7.1714009999999986
 31
0.0
  0
LINE
  5
AB
  8
0
 62
     0
 10
1.424545999999999
 20
7.2581769999999999
 30
0.0
 11
1.486432999999999
 21
7.3200640000000003
 31
0.0
  0
LINE
  5
AC
  8
0
 62
     0
 10
1.4246199999999991
 20
4.7833769999999989
 30
0.0
 11
1.5145459999999991
 21
4.8733040000000001
 31
0.0
  0
LINE
  5
AD
  8
0
 62
     0
 10
1.493795999999999
 20
4.6757770000000001
 30
0.0
 11
1.6113170000000001
 21
4.7932980000000001
 31
0.0
  0
LINE
  5
AE
  8
0
 62
     0
 10
1.6606659999999991
 20
4.6658699999999991
 30
0.0
 11
1.786565
 21
4.7917680000000002
 31
0.0
  0
LINE
  5
AF
  8
0
 62
     0
 10
1.842708
 20
4.6711349999999987
 30
0.0
 11
1.961811999999999
 21
4.7902389999999988
 31
0.0
  0
LINE
  5
B0
  8
0
 62
     0
 10
2.02475
 20
4.6764000000000001
 30
0.0
 11
2.1370589999999989
 21
4.78871
 31
0.0
  0
LINE
  5
B1
  8
0
 62
     0
 10
2.2067919999999992
 20
4.6816649999999989
 30
0.0
 11
2.3123070000000001
 21
4.7871800000000002
 31
0.0
  0
LINE
  5
B2
  8
0
 62
     0
 10
2.3888329999999991
 20
4.6869300000000003
 30
0.0
 11
2.4875539999999998
 21
4.7856509999999997
 31
0.0
  0
LINE
  5
B3
  8
0
 62
     0
 10
2.570875
 20
4.692196
 30
0.0
 11
2.6628009999999991
 21
4.7841219999999991
 31
0.0
  0
LINE
  5
B4
  8
0
 62
     0
 10
2.7529169999999992
 20
4.6974609999999988
 30
0.0
 11
2.8380489999999998
 21
4.7825920000000002
 31
0.0
  0
LINE
  5
B5
  8
0
 62
     0
 10
2.9349590000000001
 20
4.7027260000000002
 30
0.0
 11
3.0132959999999991
 21
4.7810629999999987
 31
0.0
  0
LINE
  5
B6
  8
0
 62
     0
 10
3.1170009999999988
 20
4.7079909999999998
 30
0.0
 11
3.174545999999999
 21
4.7655370000000001
 31
0.0
  0
ENDBLK
  5
B7
  8
0
  0
BLOCK
  8
0
  2
*X7
 70
     1
 10
0.0
 20
0.0
 30
0.0
  3
*X7
  1

  0
LINE
  5
BA
  8
0
 62
     0
 10
7.0464619999999991
 20
1.2128309999999991
 30
0.0
 11
7.136461999999999
 21
1.302830999999999
 31
0.0
  0
LINE
  5
BB
  8
0
 62
     0
 10
6.8696849999999996
 20
1.2128309999999991
 30
0.0
 11
6.9596850000000003
 21
1.302830999999999
 31
0.0
  0
LINE
  5
BC
  8
0
 62
     0
 10
6.6929080000000001
 20
1.2128309999999991
 30
0.0
 11
6.7896359999999989
 21
1.3095579999999989
 31
0.0
  0
LINE
  5
BD
  8
0
 62
     0
 10
6.5161309999999988
 20
1.2128309999999991
 30
0.0
 11
6.6411309999999988
 21
1.3378309999999991
 31
0.0
  0
LINE
  5
BE
  8
0
 62
     0
 10
6.6468669999999994
 20
1.343566
 30
0.0
 11
6.7766989999999998
 21
1.473398999999999
 31
0.0
  0
LINE
  5
BF
  8
0
 62
     0
 10
6.3393550000000003
 20
1.2128309999999991
 30
0.0
 11
6.4643550000000003
 21
1.3378309999999991
 31
0.0
  0
LINE
  5
C0
  8
0
 62
     0
 10
6.6521330000000001
 20
1.5256080000000001
 30
0.0
 11
6.7751700000000001
 21
1.6486459999999989
 31
0.0
  0
LINE
  5
C1
  8
0
 62
     0
 10
6.1759669999999991
 20
1.2262189999999991
 30
0.0
 11
6.287577999999999
 21
1.3378309999999991
 31
0.0
  0
LINE
  5
C2
  8
0
 62
     0
 10
6.6573979999999988
 20
1.707649999999999
 30
0.0
 11
6.7736409999999996
 21
1.8238929999999991
 31
0.0
  0
LINE
  5
C3
  8
0
 62
     0
 10
6.6626630000000002
 20
1.889691999999999
 30
0.0
 11
6.7721109999999989
 21
1.9991410000000001
 31
0.0
  0
LINE
  5
C4
  8
0
 62
     0
 10
6.667927999999999
 20
2.0717340000000002
 30
0.0
 11
6.7705820000000001
 21
2.1743879999999991
 31
0.0
  0
LINE
  5
C5
  8
0
 62
     0
 10
6.6731929999999986
 20
2.2537759999999989
 30
0.0
 11
6.7690529999999987
 21
2.3496349999999988
 31
0.0
  0
LINE
  5
C6
  8
0
 62
     0
 10
6.6784589999999993
 20
2.4358179999999989
 30
0.0
 11
6.7675229999999988
 21
2.5248829999999991
 31
0.0
  0
LINE
  5
C7
  8
0
 62
     0
 10
6.6837239999999998
 20
2.617859999999999
 30
0.0
 11
6.7659940000000001
 21
2.7001300000000001
 31
0.0
  0
LINE
  5
C8
  8
0
 62
     0
 10
6.6889890000000003
 20
2.799901999999999
 30
0.0
 11
6.7644649999999986
 21
2.875376999999999
 31
0.0
  0
LINE
  5
C9
  8
0
 62
     0
 10
7.2232380000000003
 20
1.2128309999999991
 30
0.0
 11
7.3132380000000001
 21
1.302830999999999
 31
0.0
  0
LINE
  5
CA
  8
0
 62
     0
 10
7.4000149999999989
 20
1.2128309999999991
 30
0.0
 11
7.4900149999999988
 21
1.302830999999999
 31
0.0
  0
LINE
  5
CB
  8
0
 62
     0
 10
7.5767920000000002
 20
1.2128309999999991
 30
0.0
 11
7.6667920000000001
 21
1.302830999999999
 31
0.0
  0
LINE
  5
CC
  8
0
 62
     0
 10
7.7535679999999987
 20
1.2128309999999991
 30
0.0
 11
7.8435679999999994
 21
1.302830999999999
 31
0.0
  0
LINE
  5
CD
  8
0
 62
     0
 10
7.9303449999999991
 20
1.2128309999999991
 30
0.0
 11
8.0203449999999972
 21
1.302830999999999
 31
0.0
  0
LINE
  5
CE
  8
0
 62
     0
 10
8.1071220000000004
 20
1.2128309999999991
 30
0.0
 11
8.1971220000000002
 21
1.302830999999999
 31
0.0
  0
LINE
  5
CF
  8
0
 62
     0
 10
8.2838979999999989
 20
1.2128309999999991
 30
0.0
 11
8.3738979999999987
 21
1.302830999999999
 31
0.0
  0
LINE
  5
D0
  8
0
 62
     0
 10
8.4606750000000002
 20
1.2128309999999991
 30
0.0
 11
8.550675
 21
1.302830999999999
 31
0.0
  0
LINE
  5
D1
  8
0
 62
     0
 10
8.6374519999999997
 20
1.2128309999999991
 30
0.0
 11
8.7274519999999995
 21
1.302830999999999
 31
0.0
  0
LINE
  5
D2
  8
0
 62
     0
 10
8.8142279999999982
 20
1.2128309999999991
 30
0.0
 11
8.9042279999999998
 21
1.302830999999999
 31
0.0
  0
LINE
  5
D3
  8
0
 62
     0
 10
8.9910049999999995
 20
1.2128309999999991
 30
0.0
 11
9.0810050000000011
 21
1.302830999999999
 31
0.0
  0
LINE
  5
D4
  8
0
 62
     0
 10
9.1677820000000008
 20
1.2128309999999991
 30
0.0
 11
9.2577820000000006
 21
1.302830999999999
 31
0.0
  0
LINE
  5
D5
  8
0
 62
     0
 10
9.3445590000000003
 20
1.2128309999999991
 30
0.0
 11
9.4345590000000001
 21
1.302830999999999
 31
0.0
  0
LINE
  5
D6
  8
0
 62
     0
 10
9.5213350000000005
 20
1.2128309999999991
 30
0.0
 11
9.6113350000000004
 21
1.302830999999999
 31
0.0
  0
LINE
  5
D7
  8
0
 62
     0
 10
9.6981120000000001
 20
1.2128309999999991
 30
0.0
 11
9.7881119999999981
 21
1.302830999999999
 31
0.0
  0
LINE
  5
D8
  8
0
 62
     0
 10
9.8748889999999996
 20
1.2128309999999991
 30
0.0
 11
9.9635269999999991
 21
1.3014689999999991
 31
0.0
  0
ENDBLK
  5
D9
  8
0
  0
BLOCK
  8
0
  2
*D8
 70
     1
 10
0.0
 20
0.0
 30
0.0
  3
*D8
  1

  0
LINE
  5
DC
  8
0
  6
BYBLOCK
 62
     0
 10
7.8949999999999987
 20
16.345604000000002
 30
0.0
 11
7.4266550000000002
 21
16.345604000000002
 31
0.0
  0
LINE
  5
DD
  8
0
  6
BYBLOCK
 62
     0
 10
7.9749999999999988
 20
16.220604000000002
 30
0.0
 11
7.4266550000000002
 21
16.220604000000002
 31
0.0
  0
LINE
  5
DE
  8
0
  6
BYBLOCK
 62
     0
 10
7.5661550000000002
 20
16.615604000000001
 30
0.0
 11
7.5661550000000002
 21
16.885604000000001
 31
0.0
  0
LINE
  5
DF
  8
0
  6
BYBLOCK
 62
     0
 10
7.5661550000000002
 20
15.950604
 30
0.0
 11
7.5661550000000002
 21
15.680604000000001
 31
0.0
  0
LINE
  5
E0
  8
0
  6
BYBLOCK
 62
     0
 10
7.5661550000000002
 20
15.680604000000001
 30
0.0
 11
7.2961549999999997
 21
15.680604000000001
 31
0.0
  0
SOLID
  5
E1
  8
0
  6
BYBLOCK
 62
     0
 10
7.5211550000000003
 20
16.615604000000001
 30
0.0
 11
7.6111550000000001
 21
16.615604000000001
 31
0.0
 12
7.5661550000000002
 22
16.345604000000002
 32
0.0
 13
7.5661550000000002
 23
16.345604000000002
 33
0.0
  0
SOLID
  5
E2
  8
0
  6
BYBLOCK
 62
     0
 10
7.5211550000000003
 20
15.950604
 30
0.0
 11
7.6111550000000001
 21
15.950604
 31
0.0
 12
7.5661550000000002
 22
16.220604000000002
 32
0.0
 13
7.5661550000000002
 23
16.220604000000002
 33
0.0
  0
TEXT
  5
E3
  8
0
  6
BYBLOCK
 62
     0
 10
6.6689672499999988
 20
15.586854000000001
 30
0.0
 40
0.1875
  1
0.125
 41
0.75
 72
     1
 11
6.9150609999999988
 21
15.680604000000001
 31
0.0
 73
     2
  0
POINT
  5
E4
  8
DEFPOINTS
  6
BYBLOCK
 62
     0
 10
7.9894999999999987
 20
16.345604000000002
 30
0.0
  0
POINT
  5
E5
  8
DEFPOINTS
  6
BYBLOCK
 62
     0
 10
8.0694999999999997
 20
16.220604000000002
 30
0.0
  0
POINT
  5
E6
  8
DEFPOINTS
  6
BYBLOCK
 62
     0
 10
7.5661550000000002
 20
16.220604000000002
 30
0.0
  0
ENDBLK
  5
E7
  8
0
  0
BLOCK
  8
0
  2
*D9
 70
     1
 10
0.0
 20
0.0
 30
0.0
  3
*D9
  1

  0
LINE
  5
EA
  8
0
  6
BYBLOCK
 62
     0
 10
11.872237
 20
15.345604
 30
0.0
 11
12.395744000000001
 21
15.345604
 31
0.0
  0
LINE
  5
EB
  8
0
  6
BYBLOCK
 62
     0
 10
11.872237
 20
15.470604
 30
0.0
 11
12.395744000000001
 21
15.470604
 31
0.0
  0
LINE
  5
EC
  8
0
  6
BYBLOCK
 62
     0
 10
12.256244000000001
 20
15.075604
 30
0.0
 11
12.256244000000001
 21
14.805604000000001
 31
0.0
  0
LINE
  5
ED
  8
0
  6
BYBLOCK
 62
     0
 10
12.256244000000001
 20
15.740603999999999
 30
0.0
 11
12.256244000000001
 21
16.010604000000001
 31
0.0
  0
LINE
  5
EE
  8
0
  6
BYBLOCK
 62
     0
 10
12.256244000000001
 20
16.010604000000001
 30
0.0
 11
12.526244
 21
16.010604000000001
 31
0.0
  0
SOLID
  5
EF
  8
0
  6
BYBLOCK
 62
     0
 10
12.211244000000001
 20
15.075604
 30
0.0
 11
12.301244000000001
 21
15.075604
 31
0.0
 12
12.256244000000001
 22
15.345604
 32
0.0
 13
12.256244000000001
 23
15.345604
 33
0.0
  0
SOLID
  5
F0
  8
0
  6
BYBLOCK
 62
     0
 10
12.211244000000001
 20
15.740603999999999
 30
0.0
 11
12.301244000000001
 21
15.740603999999999
 31
0.0
 12
12.256244000000001
 22
15.470604
 32
0.0
 13
12.256244000000001
 23
15.470604
 33
0.0
  0
TEXT
  5
F1
  8
0
  6
BYBLOCK
 62
     0
 10
12.661244249999999
 20
15.916854000000001
 30
0.0
 40
0.1875
  1
0.125
 41
0.75
 72
     1
 11
12.907337999999999
 21
16.010604000000001
 31
0.0
 73
     2
  0
POINT
  5
F2
  8
DEFPOINTS
  6
BYBLOCK
 62
     0
 10
11.777737
 20
15.345604
 30
0.0
  0
POINT
  5
F3
  8
DEFPOINTS
  6
BYBLOCK
 62
     0
 10
11.777737
 20
15.470604
 30
0.0
  0
POINT
  5
F4
  8
DEFPOINTS
  6
BYBLOCK
 62
     0
 10
12.256244000000001
 20
15.470604
 30
0.0
  0
ENDBLK
  5
F5
  8
0
  0
BLOCK
  8
0
  2
*D10
 70
     1
 10
0.0
 20
0.0
 30
0.0
  3
*D10
  1

  0
LINE
  5
F8
  8
0
  6
BYBLOCK
 62
     0
 10
7.9515000000000002
 20
20.194927
 30
0.0
 11
7.9515000000000002
 21
20.80284
 31
0.0
  0
LINE
  5
F9
  8
0
  6
BYBLOCK
 62
     0
 10
7.4512619999999989
 20
19.732146
 30
0.0
 11
7.4512619999999989
 21
20.80284
 31
0.0
  0
LINE
  5
FA
  8
0
  6
BYBLOCK
 62
     0
 10
8.2215000000000007
 20
20.663339999999991
 30
0.0
 11
8.4915000000000003
 21
20.663339999999991
 31
0.0
  0
LINE
  5
FB
  8
0
  6
BYBLOCK
 62
     0
 10
7.1812619999999994
 20
20.663339999999991
 30
0.0
 11
6.9112619999999989
 21
20.663339999999991
 31
0.0
  0
SOLID
  5
FC
  8
0
  6
BYBLOCK
 62
     0
 10
8.2215000000000007
 20
20.70834
 30
0.0
 11
8.2215000000000007
 21
20.61834
 31
0.0
 12
7.9515000000000002
 22
20.663339999999991
 32
0.0
 13
7.9515000000000002
 23
20.663339999999991
 33
0.0
  0
SOLID
  5
FD
  8
0
  6
BYBLOCK
 62
     0
 10
7.1812619999999994
 20
20.70834
 30
0.0
 11
7.1812619999999994
 21
20.61834
 31
0.0
 12
7.4512619999999989
 22
20.663339999999991
 32
0.0
 13
7.4512619999999989
 23
20.663339999999991
 33
0.0
  0
TEXT
  5
FE
  8
0
  6
BYBLOCK
 62
     0
 10
6.2840742499999989
 20
20.569589999999991
 30
0.0
 40
0.1875
  1
0.500
 41
0.75
 72
     1
 11
6.5301679999999989
 21
20.663339999999991
 31
0.0
 73
     2
  0
POINT
  5
FF
  8
DEFPOINTS
  6
BYBLOCK
 62
     0
 10
7.9515000000000002
 20
20.100427
 30
0.0
  0
POINT
  5
100
  8
DEFPOINTS
  6
BYBLOCK
 62
     0
 10
7.4512619999999989
 20
19.637646
 30
0.0
  0
POINT
  5
101
  8
DEFPOINTS
  6
BYBLOCK
 62
     0
 10
7.4512619999999989
 20
20.663339999999991
 30
0.0
  0
ENDBLK
  5
102
  8
0
  0
BLOCK
  8
0
  2
*D11
 70
     1
 10
0.0
 20
0.0
 30
0.0
  3
*D11
  1

  0
LINE
  5
105
  8
0
  6
BYBLOCK
 62
     0
 10
4.1102769999999991
 20
18.873820999999989
 30
0.0
 11
4.1102769999999991
 21
18.918820999999991
 31
0.0
  0
LINE
  5
106
  8
0
  6
BYBLOCK
 62
     0
 10
4.030276999999999
 20
18.873820999999989
 30
0.0
 11
4.030276999999999
 21
18.918820999999991
 31
0.0
  0
LINE
  5
107
  8
0
  6
BYBLOCK
 62
     0
 10
4.3802769999999986
 20
18.779320999999989
 30
0.0
 11
4.6502769999999991
 21
18.779320999999989
 31
0.0
  0
LINE
  5
108
  8
0
  6
BYBLOCK
 62
     0
 10
3.760276999999999
 20
18.779320999999989
 30
0.0
 11
3.490276999999999
 21
18.779320999999989
 31
0.0
  0
SOLID
  5
109
  8
0
  6
BYBLOCK
 62
     0
 10
4.3802769999999986
 20
18.824320999999991
 30
0.0
 11
4.3802769999999986
 21
18.734320999999991
 31
0.0
 12
4.1102769999999991
 22
18.779320999999989
 32
0.0
 13
4.1102769999999991
 23
18.779320999999989
 33
0.0
  0
SOLID
  5
10A
  8
0
  6
BYBLOCK
 62
     0
 10
3.760276999999999
 20
18.824320999999991
 30
0.0
 11
3.760276999999999
 21
18.734320999999991
 31
0.0
 12
4.030276999999999
 22
18.779320999999989
 32
0.0
 13
4.030276999999999
 23
18.779320999999989
 33
0.0
  0
TEXT
  5
10B
  8
0
  6
BYBLOCK
 62
     0
 10
2.7224645000000001
 20
18.685570999999999
 30
0.0
 40
0.1875
  1
 TYP.
 41
0.75
 72
     1
 11
3.0740270000000001
 21
18.779320999999989
 31
0.0
 73
     2
  0
TEXT
  5
10C
  8
0
  6
BYBLOCK
 62
     0
 10
2.2537142499999998
 20
18.685570999999999
 30
0.0
 40
0.1875
  1
0.080
 41
0.75
 72
     1
 11
2.4998079999999998
 21
18.779320999999989
 31
0.0
 73
     2
  0
POINT
  5
10D
  8
DEFPOINTS
  6
BYBLOCK
 62
     0
 10
4.1102769999999991
 20
18.779320999999989
 30
0.0
  0
POINT
  5
10E
  8
DEFPOINTS
  6
BYBLOCK
 62
     0
 10
4.030276999999999
 20
18.779320999999989
 30
0.0
  0
POINT
  5
10F
  8
DEFPOINTS
  6
BYBLOCK
 62
     0
 10
4.030276999999999
 20
18.779320999999989
 30
0.0
  0
ENDBLK
  5
110
  8
0
  0
BLOCK
  8
0
  2
*D12
 70
     1
 10
0.0
 20
0.0
 30
0.0
  3
*D12
  1

  0
LINE
  5
113
  8
0
  6
BYBLOCK
 62
     0
 10
5.1752769999999986
 20
17.943427
 30
0.0
 11
5.5667359999999988
 21
17.943427
 31
0.0
  0
LINE
  5
114
  8
0
  6
BYBLOCK
 62
     0
 10
5.1752769999999986
 20
20.318426999999989
 30
0.0
 11
5.5667359999999988
 21
20.318426999999989
 31
0.0
  0
LINE
  5
115
  8
0
  6
BYBLOCK
 62
     0
 10
5.4272359999999988
 20
18.213426999999989
 30
0.0
 11
5.4272359999999988
 21
18.902176999999998
 31
0.0
  0
LINE
  5
116
  8
0
  6
BYBLOCK
 62
     0
 10
5.4272359999999988
 20
20.048427
 30
0.0
 11
5.4272359999999988
 21
19.359676999999991
 31
0.0
  0
SOLID
  5
117
  8
0
  6
BYBLOCK
 62
     0
 10
5.3822359999999989
 20
18.213426999999989
 30
0.0
 11
5.4722359999999988
 21
18.213426999999989
 31
0.0
 12
5.4272359999999988
 22
17.943427
 32
0.0
 13
5.4272359999999988
 23
17.943427
 33
0.0
  0
SOLID
  5
118
  8
0
  6
BYBLOCK
 62
     0
 10
5.3822359999999989
 20
20.048427
 30
0.0
 11
5.4722359999999988
 21
20.048427
 31
0.0
 12
5.4272359999999988
 22
20.318426999999989
 32
0.0
 13
5.4272359999999988
 23
20.318426999999989
 33
0.0
  0
TEXT
  5
119
  8
0
  6
BYBLOCK
 62
     0
 10
5.3803609999999988
 20
19.037176999999989
 30
0.0
 40
0.1875
  1
B
 41
0.75
 72
     1
 11
5.4272359999999988
 21
19.130926999999989
 31
0.0
 73
     2
  0
POINT
  5
11A
  8
DEFPOINTS
  6
BYBLOCK
 62
     0
 10
5.0807769999999994
 20
17.943427
 30
0.0
  0
POINT
  5
11B
  8
DEFPOINTS
  6
BYBLOCK
 62
     0
 10
5.0807769999999994
 20
20.318426999999989
 30
0.0
  0
POINT
  5
11C
  8
DEFPOINTS
  6
BYBLOCK
 62
     0
 10
5.4272359999999988
 20
20.318426999999989
 30
0.0
  0
ENDBLK
  5
11D
  8
0
  0
BLOCK
  8
0
  2
*D13
 70
     1
 10
0.0
 20
0.0
 30
0.0
  3
*D13
  1

  0
LINE
  5
120
  8
0
  6
BYBLOCK
 62
     0
 10
11.2775
 20
20.194927
 30
0.0
 11
11.2775
 21
20.80284
 31
0.0
  0
LINE
  5
121
  8
0
  6
BYBLOCK
 62
     0
 10
11.777737
 20
19.732146
 30
0.0
 11
11.777737
 21
20.80284
 31
0.0
  0
LINE
  5
122
  8
0
  6
BYBLOCK
 62
     0
 10
11.0075
 20
20.663339999999991
 30
0.0
 11
10.737500000000001
 21
20.663339999999991
 31
0.0
  0
LINE
  5
123
  8
0
  6
BYBLOCK
 62
     0
 10
12.047737
 20
20.663339999999991
 30
0.0
 11
12.31773699999999
 21
20.663339999999991
 31
0.0
  0
SOLID
  5
124
  8
0
  6
BYBLOCK
 62
     0
 10
11.0075
 20
20.70834
 30
0.0
 11
11.0075
 21
20.61834
 31
0.0
 12
11.2775
 22
20.663339999999991
 32
0.0
 13
11.2775
 23
20.663339999999991
 33
0.0
  0
SOLID
  5
125
  8
0
  6
BYBLOCK
 62
     0
 10
12.047737
 20
20.70834
 30
0.0
 11
12.047737
 21
20.61834
 31
0.0
 12
11.777737
 22
20.663339999999991
 32
0.0
 13
11.777737
 23
20.663339999999991
 33
0.0
  0
TEXT
  5
126
  8
0
  6
BYBLOCK
 62
     0
 10
12.45273725
 20
20.569589999999991
 30
0.0
 40
0.1875
  1
0.500
 41
0.75
 72
     1
 11
12.698831
 21
20.663339999999991
 31
0.0
 73
     2
  0
POINT
  5
127
  8
DEFPOINTS
  6
BYBLOCK
 62
     0
 10
11.2775
 20
20.100427
 30
0.0
  0
POINT
  5
128
  8
DEFPOINTS
  6
BYBLOCK
 62
     0
 10
11.777737
 20
19.637646
 30
0.0
  0
POINT
  5
129
  8
DEFPOINTS
  6
BYBLOCK
 62
     0
 10
11.777737
 20
20.663339999999991
 30
0.0
  0
ENDBLK
  5
12A
  8
0
  0
BLOCK
  8
0
  2
*D14
 70
     1
 10
0.0
 20
0.0
 30
0.0
  3
*D14
  1

  0
LINE
  5
12D
  8
0
  6
BYBLOCK
 62
     0
 10
8.5267379999999982
 20
20.325248999999989
 30
0.0
 11
9.0712270000000004
 21
20.869738000000002
 31
0.0
  0
LINE
  5
12E
  8
0
  6
BYBLOCK
 62
     0
 10
8.2985100000000003
 20
20.553476
 30
0.0
 11
8.8429990000000007
 21
21.097964999999991
 31
0.0
  0
LINE
  5
12F
  8
0
  6
BYBLOCK
 62
     0
 10
9.1635039999999996
 20
20.580176999999999
 30
0.0
 11
9.3544229999999988
 21
20.389258999999999
 31
0.0
  0
LINE
  5
130
  8
0
  6
BYBLOCK
 62
     0
 10
8.5534389999999991
 20
21.190242999999992
 30
0.0
 11
8.3625199999999982
 21
21.381162
 31
0.0
  0
LINE
  5
131
  8
0
  6
BYBLOCK
 62
     0
 10
8.3625199999999982
 20
21.381162
 30
0.0
 11
8.0925200000000004
 21
21.381162
 31
0.0
  0
SOLID
  5
132
  8
0
  6
BYBLOCK
 62
     0
 10
9.1953240000000012
 20
20.611996999999992
 30
0.0
 11
9.1316839999999981
 21
20.548358
 31
0.0
 12
8.9725850000000005
 22
20.771096
 32
0.0
 13
8.9725850000000005
 23
20.771096
 33
0.0
  0
SOLID
  5
133
  8
0
  6
BYBLOCK
 62
     0
 10
8.5852589999999989
 20
21.222062000000001
 30
0.0
 11
8.5216189999999994
 21
21.158422999999999
 31
0.0
 12
8.7443580000000001
 22
20.999323999999991
 32
0.0
 13
8.7443580000000001
 23
20.999323999999991
 33
0.0
  0
TEXT
  5
134
  8
0
  6
BYBLOCK
 62
     0
 10
7.4184577499999991
 20
21.287411999999989
 30
0.0
 40
0.1875
  1
0.323
 41
0.75
 72
     1
 11
7.6879889999999991
 21
21.381162
 31
0.0
 73
     2
  0
POINT
  5
135
  8
DEFPOINTS
  6
BYBLOCK
 62
     0
 10
8.4599159999999998
 20
20.25842699999999
 30
0.0
  0
POINT
  5
136
  8
DEFPOINTS
  6
BYBLOCK
 62
     0
 10
8.2316889999999994
 20
20.486654999999988
 30
0.0
  0
POINT
  5
137
  8
DEFPOINTS
  6
BYBLOCK
 62
     0
 10
8.7443580000000001
 20
20.999323999999991
 30
0.0
  0
ENDBLK
  5
138
  8
0
  0
BLOCK
  8
0
  2
*D15
 70
     1
 10
0.0
 20
0.0
 30
0.0
  3
*D15
  1

  0
LINE
  5
13B
  8
0
  6
BYBLOCK
 62
     0
 10
7.9515339999999988
 20
15.381557000000001
 30
0.0
 11
7.9515339999999988
 21
14.924794
 31
0.0
  0
LINE
  5
13C
  8
0
  6
BYBLOCK
 62
     0
 10
11.277464999999991
 20
15.381557000000001
 30
0.0
 11
11.277464999999991
 21
14.924794
 31
0.0
  0
LINE
  5
13D
  8
0
  6
BYBLOCK
 62
     0
 10
8.2215340000000001
 20
15.064294
 30
0.0
 11
9.4326249999999998
 21
15.064294
 31
0.0
  0
LINE
  5
13E
  8
0
  6
BYBLOCK
 62
     0
 10
11.007465
 20
15.064294
 30
0.0
 11
9.7963749999999994
 21
15.064294
 31
0.0
  0
SOLID
  5
13F
  8
0
  6
BYBLOCK
 62
     0
 10
8.2215340000000001
 20
15.109294
 30
0.0
 11
8.2215340000000001
 21
15.019294
 31
0.0
 12
7.9515339999999988
 22
15.064294
 32
0.0
 13
7.9515339999999988
 23
15.064294
 33
0.0
  0
SOLID
  5
140
  8
0
  6
BYBLOCK
 62
     0
 10
11.007465
 20
15.109294
 30
0.0
 11
11.007465
 21
15.019294
 31
0.0
 12
11.277464999999991
 22
15.064294
 32
0.0
 13
11.277464999999991
 23
15.064294
 33
0.0
  0
TEXT
  5
141
  8
0
  6
BYBLOCK
 62
     0
 10
9.5676249999999996
 20
14.970544
 30
0.0
 40
0.1875
  1
G
 41
0.75
 72
     1
 11
9.6144999999999996
 21
15.064294
 31
0.0
 73
     2
  0
POINT
  5
142
  8
DEFPOINTS
  6
BYBLOCK
 62
     0
 10
7.9515339999999988
 20
15.476057000000001
 30
0.0
  0
POINT
  5
143
  8
DEFPOINTS
  6
BYBLOCK
 62
     0
 10
11.277464999999991
 20
15.476057000000001
 30
0.0
  0
POINT
  5
144
  8
DEFPOINTS
  6
BYBLOCK
 62
     0
 10
11.277464999999991
 20
15.064294
 30
0.0
  0
ENDBLK
  5
145
  8
0
  0
BLOCK
  8
0
  2
*D16
 70
     1
 10
0.0
 20
0.0
 30
0.0
  3
*D16
  1

  0
LINE
  5
148
  8
0
  6
BYBLOCK
 62
     0
 10
6.0469619999999997
 20
1.3378309999999991
 30
0.0
 11
5.7189860000000001
 21
1.3378309999999991
 31
0.0
  0
LINE
  5
149
  8
0
  6
BYBLOCK
 62
     0
 10
6.0469619999999997
 20
1.2128309999999991
 30
0.0
 11
5.7189860000000001
 21
1.2128309999999991
 31
0.0
  0
LINE
  5
14A
  8
0
  6
BYBLOCK
 62
     0
 10
5.8584860000000001
 20
1.607831
 30
0.0
 11
5.8584860000000001
 21
1.877831
 31
0.0
  0
LINE
  5
14B
  8
0
  6
BYBLOCK
 62
     0
 10
5.8584860000000001
 20
0.9428309999999999
 30
0.0
 11
5.8584860000000001
 21
0.6728310000000001
 31
0.0
  0
LINE
  5
14C
  8
0
  6
BYBLOCK
 62
     0
 10
5.8584860000000001
 20
0.6728310000000001
 30
0.0
 11
5.5884859999999987
 21
0.6728310000000001
 31
0.0
  0
SOLID
  5
14D
  8
0
  6
BYBLOCK
 62
     0
 10
5.8134860000000002
 20
1.607831
 30
0.0
 11
5.903486
 21
1.607831
 31
0.0
 12
5.8584860000000001
 22
1.3378309999999991
 32
0.0
 13
5.8584860000000001
 23
1.3378309999999991
 33
0.0
  0
SOLID
  5
14E
  8
0
  6
BYBLOCK
 62
     0
 10
5.8134860000000002
 20
0.9428309999999999
 30
0.0
 11
5.903486
 21
0.9428309999999999
 31
0.0
 12
5.8584860000000001
 22
1.2128309999999991
 32
0.0
 13
5.8584860000000001
 23
1.2128309999999991
 33
0.0
  0
TEXT
  5
14F
  8
0
  6
BYBLOCK
 62
     0
 10
4.9612982499999987
 20
0.5790810000000001
 30
0.0
 40
0.1875
  1
0.125
 41
0.75
 72
     1
 11
5.2073919999999987
 21
0.6728310000000001
 31
0.0
 73
     2
  0
POINT
  5
150
  8
DEFPOINTS
  6
BYBLOCK
 62
     0
 10
6.1414619999999998
 20
1.3378309999999991
 30
0.0
  0
POINT
  5
151
  8
DEFPOINTS
  6
BYBLOCK
 62
     0
 10
6.1414619999999998
 20
1.2128309999999991
 30
0.0
  0
POINT
  5
152
  8
DEFPOINTS
  6
BYBLOCK
 62
     0
 10
5.8584860000000001
 20
1.2128309999999991
 30
0.0
  0
ENDBLK
  5
153
  8
0
  0
BLOCK
  8
0
  2
*D17
 70
     1
 10
0.0
 20
0.0
 30
0.0
  3
*D17
  1

  0
LINE
  5
156
  8
0
  6
BYBLOCK
 62
     0
 10
6.6467009999999993
 20
1.2433309999999991
 30
0.0
 11
6.6467009999999993
 21
0.7004770000000001
 31
0.0
  0
LINE
  5
157
  8
0
  6
BYBLOCK
 62
     0
 10
12.240701
 20
1.2433309999999991
 30
0.0
 11
12.240701
 21
0.7004770000000001
 31
0.0
  0
LINE
  5
158
  8
0
  6
BYBLOCK
 62
     0
 10
6.9167009999999989
 20
0.839977
 30
0.0
 11
9.0274509999999992
 21
0.839977
 31
0.0
  0
LINE
  5
159
  8
0
  6
BYBLOCK
 62
     0
 10
11.970701
 20
0.839977
 30
0.0
 11
9.8599509999999988
 21
0.839977
 31
0.0
  0
SOLID
  5
15A
  8
0
  6
BYBLOCK
 62
     0
 10
6.9167009999999989
 20
0.8849769999999999
 30
0.0
 11
6.9167009999999989
 21
0.794977
 31
0.0
 12
6.6467009999999993
 22
0.839977
 32
0.0
 13
6.6467009999999993
 23
0.839977
 33
0.0
  0
SOLID
  5
15B
  8
0
  6
BYBLOCK
 62
     0
 10
11.970701
 20
0.8849769999999999
 30
0.0
 11
11.970701
 21
0.794977
 31
0.0
 12
12.240701
 22
0.839977
 32
0.0
 13
12.240701
 23
0.839977
 33
0.0
  0
TEXT
  5
15C
  8
0
  6
BYBLOCK
 62
     0
 10
9.162450999999999
 20
0.7462270000000001
 30
0.0
 40
0.1875
  1
5.594
 41
0.75
 72
     1
 11
9.443700999999999
 21
0.839977
 31
0.0
 73
     2
  0
POINT
  5
15D
  8
DEFPOINTS
  6
BYBLOCK
 62
     0
 10
6.6467009999999993
 20
1.3378309999999991
 30
0.1875
  0
POINT
  5
15E
  8
DEFPOINTS
  6
BYBLOCK
 62
     0
 10
12.240701
 20
1.3378309999999991
 30
0.1875
  0
POINT
  5
15F
  8
DEFPOINTS
  6
BYBLOCK
 62
     0
 10
12.240701
 20
0.839977
 30
0.0
  0
ENDBLK
  5
160
  8
0
  0
BLOCK
  8
0
  2
*D18
 70
     1
 10
0.0
 20
0.0
 30
0.0
  3
*D18
  1

  0
LINE
  5
163
  8
0
  6
BYBLOCK
 62
     0
 10
12.03391199999999
 20
4.6626560000000001
 30
0.0
 11
13.36893299999999
 21
4.6626560000000001
 31
0.0
  0
LINE
  5
164
  8
0
  6
BYBLOCK
 62
     0
 10
12.584294
 20
6.834655999999999
 30
0.0
 11
13.36893299999999
 21
6.834655999999999
 31
0.0
  0
LINE
  5
165
  8
0
  6
BYBLOCK
 62
     0
 10
13.22943299999999
 20
4.9326559999999988
 30
0.0
 11
13.22943299999999
 21
5.5199059999999989
 31
0.0
  0
LINE
  5
166
  8
0
  6
BYBLOCK
 62
     0
 10
13.22943299999999
 20
6.5646559999999994
 30
0.0
 11
13.22943299999999
 21
5.9774059999999993
 31
0.0
  0
SOLID
  5
167
  8
0
  6
BYBLOCK
 62
     0
 10
13.18443299999999
 20
4.9326559999999988
 30
0.0
 11
13.274432999999989
 21
4.9326559999999988
 31
0.0
 12
13.22943299999999
 22
4.6626560000000001
 32
0.0
 13
13.22943299999999
 23
4.6626560000000001
 33
0.0
  0
SOLID
  5
168
  8
0
  6
BYBLOCK
 62
     0
 10
13.18443299999999
 20
6.5646559999999994
 30
0.0
 11
13.274432999999989
 21
6.5646559999999994
 31
0.0
 12
13.22943299999999
 22
6.834655999999999
 32
0.0
 13
13.22943299999999
 23
6.834655999999999
 33
0.0
  0
TEXT
  5
169
  8
0
  6
BYBLOCK
 62
     0
 10
12.97162049999999
 20
5.6549059999999987
 30
0.0
 40
0.1875
  1
2.172
 41
0.75
 72
     1
 11
13.22943299999999
 21
5.7486559999999987
 31
0.0
 73
     2
  0
POINT
  5
16A
  8
DEFPOINTS
  6
BYBLOCK
 62
     0
 10
11.939412000000001
 20
4.6626560000000001
 30
0.1875
  0
POINT
  5
16B
  8
DEFPOINTS
  6
BYBLOCK
 62
     0
 10
12.489794
 20
6.834655999999999
 30
0.1875
  0
POINT
  5
16C
  8
DEFPOINTS
  6
BYBLOCK
 62
     0
 10
13.22943299999999
 20
6.834655999999999
 30
0.0
  0
ENDBLK
  5
16D
  8
0
  0
BLOCK
  8
0
  2
*D19
 70
     1
 10
0.0
 20
0.0
 30
0.0
  3
*D19
  1

  0
LINE
  5
170
  8
0
  6
BYBLOCK
 62
     0
 10
6.693700999999999
 20
3.057331
 30
0.0
 11
6.693700999999999
 21
3.7385769999999989
 31
0.0
  0
LINE
  5
171
  8
0
  6
BYBLOCK
 62
     0
 10
12.19370099999999
 20
3.057331
 30
0.0
 11
12.19370099999999
 21
3.7385769999999989
 31
0.0
  0
LINE
  5
172
  8
0
  6
BYBLOCK
 62
     0
 10
6.9637009999999986
 20
3.599076999999999
 30
0.0
 11
9.0508889999999997
 21
3.599076999999999
 31
0.0
  0
LINE
  5
173
  8
0
  6
BYBLOCK
 62
     0
 10
11.923700999999991
 20
3.599076999999999
 30
0.0
 11
9.8365139999999993
 21
3.599076999999999
 31
0.0
  0
SOLID
  5
174
  8
0
  6
BYBLOCK
 62
     0
 10
6.9637009999999986
 20
3.6440769999999989
 30
0.0
 11
6.9637009999999986
 21
3.554076999999999
 31
0.0
 12
6.693700999999999
 22
3.599076999999999
 32
0.0
 13
6.693700999999999
 23
3.599076999999999
 33
0.0
  0
SOLID
  5
175
  8
0
  6
BYBLOCK
 62
     0
 10
11.923700999999991
 20
3.6440769999999989
 30
0.0
 11
11.923700999999991
 21
3.554076999999999
 31
0.0
 12
12.19370099999999
 22
3.599076999999999
 32
0.0
 13
12.19370099999999
 23
3.599076999999999
 33
0.0
  0
TEXT
  5
176
  8
0
  6
BYBLOCK
 62
     0
 10
9.185888499999999
 20
3.505326999999999
 30
0.0
 40
0.1875
  1
5.500
 41
0.75
 72
     1
 11
9.443700999999999
 21
3.599076999999999
 31
0.0
 73
     2
  0
POINT
  5
177
  8
DEFPOINTS
  6
BYBLOCK
 62
     0
 10
6.693700999999999
 20
2.9628309999999991
 30
0.1875
  0
POINT
  5
178
  8
DEFPOINTS
  6
BYBLOCK
 62
     0
 10
12.19370099999999
 20
2.9628309999999991
 30
0.1875
  0
POINT
  5
179
  8
DEFPOINTS
  6
BYBLOCK
 62
     0
 10
12.19370099999999
 20
3.599076999999999
 30
0.0
  0
ENDBLK
  5
17A
  8
0
  0
BLOCK
  8
0
  2
*D20
 70
     1
 10
0.0
 20
0.0
 30
0.0
  3
*D20
  1

  0
LINE
  5
17D
  8
0
  6
BYBLOCK
 62
     0
 10
3.269045999999999
 20
4.709655999999999
 30
0.0
 11
3.7724129999999989
 21
4.709655999999999
 31
0.0
  0
LINE
  5
17E
  8
0
  6
BYBLOCK
 62
     0
 10
3.269045999999999
 20
8.9596559999999972
 30
0.0
 11
3.7724129999999989
 21
8.9596559999999972
 31
0.0
  0
LINE
  5
17F
  8
0
  6
BYBLOCK
 62
     0
 10
3.6329129999999989
 20
4.9796559999999994
 30
0.0
 11
3.6329129999999989
 21
6.6059060000000001
 31
0.0
  0
LINE
  5
180
  8
0
  6
BYBLOCK
 62
     0
 10
3.6329129999999989
 20
8.6896559999999994
 30
0.0
 11
3.6329129999999989
 21
7.0634059999999987
 31
0.0
  0
SOLID
  5
181
  8
0
  6
BYBLOCK
 62
     0
 10
3.587912999999999
 20
4.9796559999999994
 30
0.0
 11
3.6779129999999989
 21
4.9796559999999994
 31
0.0
 12
3.6329129999999989
 22
4.709655999999999
 32
0.0
 13
3.6329129999999989
 23
4.709655999999999
 33
0.0
  0
SOLID
  5
182
  8
0
  6
BYBLOCK
 62
     0
 10
3.587912999999999
 20
8.6896559999999994
 30
0.0
 11
3.6779129999999989
 21
8.6896559999999994
 31
0.0
 12
3.6329129999999989
 22
8.9596559999999972
 32
0.0
 13
3.6329129999999989
 23
8.9596559999999972
 33
0.0
  0
TEXT
  5
183
  8
0
  6
BYBLOCK
 62
     0
 10
3.3633817499999989
 20
6.740905999999999
 30
0.0
 40
0.1875
  1
4.250
 41
0.75
 72
     1
 11
3.6329129999999989
 21
6.834655999999999
 31
0.0
 73
     2
  0
POINT
  5
184
  8
DEFPOINTS
  6
BYBLOCK
 62
     0
 10
3.174545999999999
 20
4.709655999999999
 30
0.1875
  0
POINT
  5
185
  8
DEFPOINTS
  6
BYBLOCK
 62
     0
 10
3.174545999999999
 20
8.9596559999999972
 30
0.1875
  0
POINT
  5
186
  8
DEFPOINTS
  6
BYBLOCK
 62
     0
 10
3.6329129999999989
 20
8.9596559999999972
 30
0.0
  0
ENDBLK
  5
187
  8
0
  0
BLOCK
  8
0
  2
*D21
 70
     1
 10
0.0
 20
0.0
 30
0.0
  3
*D21
  1

  0
LINE
  5
18A
  8
0
  6
BYBLOCK
 62
     0
 10
6.6384119999999989
 20
8.8041559999999972
 30
0.0
 11
6.6384119999999989
 21
9.5115100000000012
 31
0.0
  0
LINE
  5
18B
  8
0
  6
BYBLOCK
 62
     0
 10
6.1384119999999998
 20
8.3009020000000007
 30
0.0
 11
6.1384119999999998
 21
9.5115100000000012
 31
0.0
  0
LINE
  5
18C
  8
0
  6
BYBLOCK
 62
     0
 10
6.9084119999999993
 20
9.3720100000000013
 30
0.0
 11
7.1784119999999989
 21
9.3720100000000013
 31
0.0
  0
LINE
  5
18D
  8
0
  6
BYBLOCK
 62
     0
 10
5.8684120000000002
 20
9.3720100000000013
 30
0.0
 11
5.5984119999999997
 21
9.3720100000000013
 31
0.0
  0
SOLID
  5
18E
  8
0
  6
BYBLOCK
 62
     0
 10
6.9084119999999993
 20
9.4170100000000012
 30
0.0
 11
6.9084119999999993
 21
9.3270100000000014
 31
0.0
 12
6.6384119999999989
 22
9.3720100000000013
 32
0.0
 13
6.6384119999999989
 23
9.3720100000000013
 33
0.0
  0
SOLID
  5
18F
  8
0
  6
BYBLOCK
 62
     0
 10
5.8684120000000002
 20
9.4170100000000012
 30
0.0
 11
5.8684120000000002
 21
9.3270100000000014
 31
0.0
 12
6.1384119999999998
 22
9.3720100000000013
 32
0.0
 13
6.1384119999999998
 23
9.3720100000000013
 33
0.0
  0
TEXT
  5
190
  8
0
  6
BYBLOCK
 62
     0
 10
4.9712242499999988
 20
9.2782600000000013
 30
0.0
 40
0.1875
  1
0.500
 41
0.75
 72
     1
 11
5.2173179999999988
 21
9.3720100000000013
 31
0.0
 73
     2
  0
POINT
  5
191
  8
DEFPOINTS
  6
BYBLOCK
 62
     0
 10
6.6384119999999989
 20
8.7096559999999972
 30
0.1875
  0
POINT
  5
192
  8
DEFPOINTS
  6
BYBLOCK
 62
     0
 10
6.1384119999999998
 20
8.2064020000000006
 30
0.1875
  0
POINT
  5
193
  8
DEFPOINTS
  6
BYBLOCK
 62
     0
 10
6.1384119999999998
 20
9.3720100000000013
 30
0.0
  0
ENDBLK
  5
194
  8
0
  0
BLOCK
  8
0
  2
*D22
 70
     1
 10
0.0
 20
0.0
 30
0.0
  3
*D22
  1

  0
LINE
  5
197
  8
0
  6
BYBLOCK
 62
     0
 10
1.5145459999999991
 20
6.5280610000000001
 30
0.0
 11
1.5145459999999991
 21
6.6192500000000001
 31
0.0
  0
LINE
  5
198
  8
0
  6
BYBLOCK
 62
     0
 10
1.424545999999999
 20
6.5280610000000001
 30
0.0
 11
1.424545999999999
 21
6.6192500000000001
 31
0.0
  0
LINE
  5
199
  8
0
  6
BYBLOCK
 62
     0
 10
1.7845459999999991
 20
6.4797500000000001
 30
0.0
 11
2.0545459999999989
 21
6.4797500000000001
 31
0.0
  0
LINE
  5
19A
  8
0
  6
BYBLOCK
 62
     0
 10
1.154545999999999
 20
6.4797500000000001
 30
0.0
 11
0.8845459999999999
 21
6.4797500000000001
 31
0.0
  0
SOLID
  5
19B
  8
0
  6
BYBLOCK
 62
     0
 10
1.7845459999999991
 20
6.52475
 30
0.0
 11
1.7845459999999991
 21
6.4347500000000002
 31
0.0
 12
1.5145459999999991
 22
6.4797500000000001
 32
0.0
 13
1.5145459999999991
 23
6.4797500000000001
 33
0.0
  0
SOLID
  5
19C
  8
0
  6
BYBLOCK
 62
     0
 10
1.154545999999999
 20
6.52475
 30
0.0
 11
1.154545999999999
 21
6.4347500000000002
 31
0.0
 12
1.424545999999999
 22
6.4797500000000001
 32
0.0
 13
1.424545999999999
 23
6.4797500000000001
 33
0.0
  0
TEXT
  5
19D
  8
0
  6
BYBLOCK
 62
     0
 10
0.2573592499999999
 20
6.3860000000000001
 30
0.0
 40
0.1875
  1
0.090
 41
0.75
 72
     1
 11
0.503453
 21
6.4797500000000001
 31
0.0
 73
     2
  0
POINT
  5
19E
  8
DEFPOINTS
  6
BYBLOCK
 62
     0
 10
1.5145459999999991
 20
6.4335610000000001
 30
0.1875
  0
POINT
  5
19F
  8
DEFPOINTS
  6
BYBLOCK
 62
     0
 10
1.424545999999999
 20
6.4335610000000001
 30
0.1875
  0
POINT
  5
1A0
  8
DEFPOINTS
  6
BYBLOCK
 62
     0
 10
1.424545999999999
 20
6.4797500000000001
 30
0.0
  0
ENDBLK
  5
1A1
  8
0
  0
BLOCK
  8
0
  2
*D23
 70
     1
 10
0.0
 20
0.0
 30
0.0
  3
*D23
  1

  0
LINE
  5
1A4
  8
0
  6
BYBLOCK
 62
     0
 10
6.8409119999999994
 20
9.0066559999999996
 30
0.0
 11
4.6826660000000002
 21
9.0066559999999996
 31
0.0
  0
LINE
  5
1A5
  8
0
  6
BYBLOCK
 62
     0
 10
6.8409119999999994
 20
4.6626560000000001
 30
0.0
 11
4.6826660000000002
 21
4.6626560000000001
 31
0.0
  0
LINE
  5
1A6
  8
0
  6
BYBLOCK
 62
     0
 10
4.8221660000000002
 20
8.7366559999999982
 30
0.0
 11
4.8221660000000002
 21
7.0634059999999987
 31
0.0
  0
LINE
  5
1A7
  8
0
  6
BYBLOCK
 62
     0
 10
4.8221660000000002
 20
4.9326559999999988
 30
0.0
 11
4.8221660000000002
 21
6.6059060000000001
 31
0.0
  0
SOLID
  5
1A8
  8
0
  6
BYBLOCK
 62
     0
 10
4.7771660000000002
 20
8.7366559999999982
 30
0.0
 11
4.8671660000000001
 21
8.7366559999999982
 31
0.0
 12
4.8221660000000002
 22
9.0066559999999996
 32
0.0
 13
4.8221660000000002
 23
9.0066559999999996
 33
0.0
  0
SOLID
  5
1A9
  8
0
  6
BYBLOCK
 62
     0
 10
4.7771660000000002
 20
4.9326559999999988
 30
0.0
 11
4.8671660000000001
 21
4.9326559999999988
 31
0.0
 12
4.8221660000000002
 22
4.6626560000000001
 32
0.0
 13
4.8221660000000002
 23
4.6626560000000001
 33
0.0
  0
TEXT
  5
1AA
  8
0
  6
BYBLOCK
 62
     0
 10
4.5409160000000002
 20
6.740905999999999
 30
0.0
 40
0.1875
  1
4.344
 41
0.75
 72
     1
 11
4.8221660000000002
 21
6.834655999999999
 31
0.0
 73
     2
  0
POINT
  5
1AB
  8
DEFPOINTS
  6
BYBLOCK
 62
     0
 10
6.9354119999999986
 20
9.0066559999999996
 30
0.1875
  0
POINT
  5
1AC
  8
DEFPOINTS
  6
BYBLOCK
 62
     0
 10
6.9354119999999986
 20
4.6626560000000001
 30
0.1875
  0
POINT
  5
1AD
  8
DEFPOINTS
  6
BYBLOCK
 62
     0
 10
4.8221660000000002
 20
4.6626560000000001
 30
0.0
  0
ENDBLK
  5
1AE
  8
0
  0
BLOCK
  8
0
  2
*D24
 70
     1
 10
0.0
 20
0.0
 30
0.0
  3
*D24
  1

  0
LINE
  5
1B1
  8
0
  6
BYBLOCK
 62
     0
 10
1.424545999999999
 20
4.6931560000000001
 30
0.0
 11
1.424545999999999
 21
4.1380600000000003
 31
0.0
  0
LINE
  5
1B2
  8
0
  6
BYBLOCK
 62
     0
 10
3.174545999999999
 20
4.6151559999999989
 30
0.0
 11
3.174545999999999
 21
4.1380600000000003
 31
0.0
  0
LINE
  5
1B3
  8
0
  6
BYBLOCK
 62
     0
 10
1.694545999999999
 20
4.2775600000000003
 30
0.0
 11
1.9184529999999991
 21
4.2775600000000003
 31
0.0
  0
LINE
  5
1B4
  8
0
  6
BYBLOCK
 62
     0
 10
2.904545999999999
 20
4.2775600000000003
 30
0.0
 11
2.6806399999999999
 21
4.2775600000000003
 31
0.0
  0
SOLID
  5
1B5
  8
0
  6
BYBLOCK
 62
     0
 10
1.694545999999999
 20
4.3225600000000002
 30
0.0
 11
1.694545999999999
 21
4.2325599999999994
 31
0.0
 12
1.424545999999999
 22
4.2775600000000003
 32
0.0
 13
1.424545999999999
 23
4.2775600000000003
 33
0.0
  0
SOLID
  5
1B6
  8
0
  6
BYBLOCK
 62
     0
 10
2.904545999999999
 20
4.3225600000000002
 30
0.0
 11
2.904545999999999
 21
4.2325599999999994
 31
0.0
 12
3.174545999999999
 22
4.2775600000000003
 32
0.0
 13
3.174545999999999
 23
4.2775600000000003
 33
0.0
  0
TEXT
  5
1B7
  8
0
  6
BYBLOCK
 62
     0
 10
2.053452249999999
 20
4.1838100000000003
 30
0.0
 40
0.1875
  1
1.750
 41
0.75
 72
     1
 11
2.299545999999999
 21
4.2775600000000003
 31
0.0
 73
     2
  0
POINT
  5
1B8
  8
DEFPOINTS
  6
BYBLOCK
 62
     0
 10
1.424545999999999
 20
4.7876560000000001
 30
0.1875
  0
POINT
  5
1B9
  8
DEFPOINTS
  6
BYBLOCK
 62
     0
 10
3.174545999999999
 20
4.709655999999999
 30
0.1875
  0
POINT
  5
1BA
  8
DEFPOINTS
  6
BYBLOCK
 62
     0
 10
3.174545999999999
 20
4.2775600000000003
 30
0.0
  0
ENDBLK
  5
1BB
  8
0
  0
BLOCK
  8
0
  2
*D25
 70
     1
 10
0.0
 20
0.0
 30
0.0
  3
*D25
  1

  0
LINE
  5
1BE
  8
0
  6
BYBLOCK
 62
     0
 10
6.599200999999999
 20
2.9628309999999991
 30
0.0
 11
6.0379250000000004
 21
2.9628309999999991
 31
0.0
  0
LINE
  5
1BF
  8
0
  6
BYBLOCK
 62
     0
 10
6.849200999999999
 20
2.9008310000000002
 30
0.0
 11
6.0379250000000004
 21
2.9008310000000002
 31
0.0
  0
LINE
  5
1C0
  8
0
  6
BYBLOCK
 62
     0
 10
6.1774250000000004
 20
3.232831
 30
0.0
 11
6.1774250000000004
 21
3.5028309999999991
 31
0.0
  0
LINE
  5
1C1
  8
0
  6
BYBLOCK
 62
     0
 10
6.1774250000000004
 20
2.6308310000000001
 30
0.0
 11
6.1774250000000004
 21
2.3608310000000001
 31
0.0
  0
LINE
  5
1C2
  8
0
  6
BYBLOCK
 62
     0
 10
6.1774250000000004
 20
2.3608310000000001
 30
0.0
 11
5.907424999999999
 21
2.3608310000000001
 31
0.0
  0
SOLID
  5
1C3
  8
0
  6
BYBLOCK
 62
     0
 10
6.1324249999999987
 20
3.232831
 30
0.0
 11
6.2224250000000003
 21
3.232831
 31
0.0
 12
6.1774250000000004
 22
2.9628309999999991
 32
0.0
 13
6.1774250000000004
 23
2.9628309999999991
 33
0.0
  0
SOLID
  5
1C4
  8
0
  6
BYBLOCK
 62
     0
 10
6.1324249999999987
 20
2.6308310000000001
 30
0.0
 11
6.2224250000000003
 21
2.6308310000000001
 31
0.0
 12
6.1774250000000004
 22
2.9008310000000002
 32
0.0
 13
6.1774250000000004
 23
2.9008310000000002
 33
0.0
  0
TEXT
  5
1C5
  8
0
  6
BYBLOCK
 62
     0
 10
5.2568004999999989
 20
2.2670810000000001
 30
0.0
 40
0.1875
  1
0.062
 41
0.75
 72
     1
 11
5.5146129999999989
 21
2.3608310000000001
 31
0.0
 73
     2
  0
POINT
  5
1C6
  8
DEFPOINTS
  6
BYBLOCK
 62
     0
 10
6.693700999999999
 20
2.9628309999999991
 30
0.1875
  0
POINT
  5
1C7
  8
DEFPOINTS
  6
BYBLOCK
 62
     0
 10
6.943700999999999
 20
2.9008310000000002
 30
0.1875
  0
POINT
  5
1C8
  8
DEFPOINTS
  6
BYBLOCK
 62
     0
 10
6.1774250000000004
 20
2.9008310000000002
 30
0.0
  0
ENDBLK
  5
1C9
  8
0
  0
BLOCK
  8
0
  2
*D26
 70
     1
 10
0.0
 20
0.0
 30
0.0
  3
*D26
  1

  0
LINE
  5
1CC
  8
0
  6
BYBLOCK
 62
     0
 10
12.236412
 20
8.8041559999999972
 30
0.0
 11
12.236412
 21
9.5115100000000012
 31
0.0
  0
LINE
  5
1CD
  8
0
  6
BYBLOCK
 62
     0
 10
12.736412
 20
8.3009020000000007
 30
0.0
 11
12.736412
 21
9.5115100000000012
 31
0.0
  0
LINE
  5
1CE
  8
0
  6
BYBLOCK
 62
     0
 10
11.966411999999989
 20
9.3720100000000013
 30
0.0
 11
11.69641199999999
 21
9.3720100000000013
 31
0.0
  0
LINE
  5
1CF
  8
0
  6
BYBLOCK
 62
     0
 10
13.006411999999999
 20
9.3720100000000013
 30
0.0
 11
13.27641199999999
 21
9.3720100000000013
 31
0.0
  0
SOLID
  5
1D0
  8
0
  6
BYBLOCK
 62
     0
 10
11.966411999999989
 20
9.4170100000000012
 30
0.0
 11
11.966411999999989
 21
9.3270100000000014
 31
0.0
 12
12.236412
 22
9.3720100000000013
 32
0.0
 13
12.236412
 23
9.3720100000000013
 33
0.0
  0
SOLID
  5
1D1
  8
0
  6
BYBLOCK
 62
     0
 10
13.006411999999999
 20
9.4170100000000012
 30
0.0
 11
13.006411999999999
 21
9.3270100000000014
 31
0.0
 12
12.736412
 22
9.3720100000000013
 32
0.0
 13
12.736412
 23
9.3720100000000013
 33
0.0
  0
TEXT
  5
1D2
  8
0
  6
BYBLOCK
 62
     0
 10
13.41141225
 20
9.2782600000000013
 30
0.0
 40
0.1875
  1
0.500
 41
0.75
 72
     1
 11
13.657506
 21
9.3720100000000013
 31
0.0
 73
     2
  0
POINT
  5
1D3
  8
DEFPOINTS
  6
BYBLOCK
 62
     0
 10
12.236412
 20
8.7096559999999972
 30
0.1875
  0
POINT
  5
1D4
  8
DEFPOINTS
  6
BYBLOCK
 62
     0
 10
12.736412
 20
8.2064020000000006
 30
0.1875
  0
POINT
  5
1D5
  8
DEFPOINTS
  6
BYBLOCK
 62
     0
 10
12.736412
 20
9.3720100000000013
 30
0.0
  0
ENDBLK
  5
1D6
  8
0
  0
BLOCK
  8
0
  2
*D27
 70
     1
 10
0.0
 20
0.0
 30
0.0
  3
*D27
  1

  0
LINE
  5
1D9
  8
0
  6
BYBLOCK
 62
     0
 10
12.192416
 20
3.0528309999999999
 30
0.0
 11
13.320916
 21
3.0528309999999999
 31
0.0
  0
LINE
  5
1DA
  8
0
  6
BYBLOCK
 62
     0
 10
12.767927999999991
 20
1.2128309999999991
 30
0.0
 11
13.320916
 21
1.2128309999999991
 31
0.0
  0
LINE
  5
1DB
  8
0
  6
BYBLOCK
 62
     0
 10
13.181416
 20
2.7828309999999998
 30
0.0
 11
13.181416
 21
2.3615810000000002
 31
0.0
  0
LINE
  5
1DC
  8
0
  6
BYBLOCK
 62
     0
 10
13.181416
 20
1.482831
 30
0.0
 11
13.181416
 21
1.9040809999999999
 31
0.0
  0
SOLID
  5
1DD
  8
0
  6
BYBLOCK
 62
     0
 10
13.136416000000001
 20
2.7828309999999998
 30
0.0
 11
13.226416
 21
2.7828309999999998
 31
0.0
 12
13.181416
 22
3.0528309999999999
 32
0.0
 13
13.181416
 23
3.0528309999999999
 33
0.0
  0
SOLID
  5
1DE
  8
0
  6
BYBLOCK
 62
     0
 10
13.136416000000001
 20
1.482831
 30
0.0
 11
13.226416
 21
1.482831
 31
0.0
 12
13.181416
 22
1.2128309999999991
 32
0.0
 13
13.181416
 23
1.2128309999999991
 33
0.0
  0
TEXT
  5
1DF
  8
0
  6
BYBLOCK
 62
     0
 10
12.93532225
 20
2.039080999999999
 30
0.0
 40
0.1875
  1
1.840
 41
0.75
 72
     1
 11
13.181416
 21
2.132830999999999
 31
0.0
 73
     2
  0
POINT
  5
1E0
  8
DEFPOINTS
  6
BYBLOCK
 62
     0
 10
12.097915999999991
 20
3.0528309999999999
 30
0.1875
  0
POINT
  5
1E1
  8
DEFPOINTS
  6
BYBLOCK
 62
     0
 10
12.673427999999991
 20
1.2128309999999991
 30
0.1875
  0
POINT
  5
1E2
  8
DEFPOINTS
  6
BYBLOCK
 62
     0
 10
13.181416
 20
1.2128309999999991
 30
0.0
  0
ENDBLK
  5
1E3
  8
0
  0
BLOCK
  8
0
  2
*D28
 70
     1
 10
0.0
 20
0.0
 30
0.0
  3
*D28
  1

  0
LINE
  5
1E6
  8
0
  6
BYBLOCK
 62
     0
 10
12.231667
 20
1.9038489999999999
 30
0.0
 11
12.231667
 21
3.4896059999999989
 31
0.0
  0
LINE
  5
1E7
  8
0
  6
BYBLOCK
 62
     0
 10
12.191246
 20
3.0572989999999991
 30
0.0
 11
12.180028
 21
3.4889349999999988
 31
0.0
  0
ARC
  5
1E8
  8
0
  6
BYBLOCK
 62
     0
 10
12.231667
 20
1.502071999999999
 30
0.0
 40
1.8480339999999991
 50
73.243106000000012
 51
81.621553000000006
  0
ARC
  5
1E9
  8
0
  6
BYBLOCK
 62
     0
 10
12.231667
 20
1.502071999999999
 30
0.0
 40
1.8480339999999991
 50
99.867236000000005
 51
108.245683
  0
SOLID
  5
1EA
  8
0
  6
BYBLOCK
 62
     0
 10
12.497657999999999
 20
3.285502999999999
 30
0.0
 11
12.504232999999999
 21
3.3752620000000002
 31
0.0
 12
12.231667
 22
3.3501059999999989
 32
0.0
 13
12.231667
 23
3.3501059999999989
 33
0.0
  0
SOLID
  5
1EB
  8
0
  6
BYBLOCK
 62
     0
 10
11.910525
 20
3.3675480000000002
 30
0.0
 11
11.91942899999999
 21
3.2779899999999991
 31
0.0
 12
12.183652
 22
3.3494820000000001
 32
0.0
 13
12.183652
 23
3.3494820000000001
 33
0.0
  0
TEXT
  5
1EC
  8
0
  6
BYBLOCK
 62
     0
 10
12.898386500000001
 20
3.1832169999999991
 30
0.0
 40
0.1875
  1
1%%d30' REF.
 41
0.75
 72
     1
 11
13.43744899999999
 21
3.2769669999999991
 31
0.0
 73
     2
  0
POINT
  5
1ED
  8
DEFPOINTS
  6
BYBLOCK
 62
     0
 10
12.184825
 20
3.3495119999999998
 30
-0.1875
  0
POINT
  5
1EE
  8
DEFPOINTS
  6
BYBLOCK
 62
     0
 10
12.231667
 20
1.502071999999999
 30
0.0
  0
POINT
  5
1EF
  8
DEFPOINTS
  6
BYBLOCK
 62
     0
 10
12.231667
 20
1.502071999999999
 30
0.0
  0
POINT
  5
1F0
  8
DEFPOINTS
  6
BYBLOCK
 62
     0
 10
12.231667
 20
1.8093490000000001
 30
0.0
  0
POINT
  5
1F1
  8
DEFPOINTS
  6
BYBLOCK
 62
     0
 10
12.19370099999999
 20
2.9628309999999991
 30
0.0
  0
ENDBLK
  5
1F2
  8
0
  0
BLOCK
  8
0
  2
*D29
 70
     1
 10
0.0
 20
0.0
 30
0.0
  3
*D29
  1

  0
LINE
  5
1F5
  8
0
  6
BYBLOCK
 62
     0
 10
5.1107769999999988
 20
20.332426999999999
 30
0.0
 11
5.1107769999999988
 21
20.803163999999999
 31
0.0
  0
LINE
  5
1F6
  8
0
  6
BYBLOCK
 62
     0
 10
5.030276999999999
 20
20.412927
 30
0.0
 11
5.030276999999999
 21
20.803163999999999
 31
0.0
  0
LINE
  5
1F7
  8
0
  6
BYBLOCK
 62
     0
 10
5.3807769999999993
 20
20.663664000000001
 30
0.0
 11
5.6507769999999988
 21
20.663664000000001
 31
0.0
  0
LINE
  5
1F8
  8
0
  6
BYBLOCK
 62
     0
 10
4.7602769999999994
 20
20.663664000000001
 30
0.0
 11
4.490276999999999
 21
20.663664000000001
 31
0.0
  0
SOLID
  5
1F9
  8
0
  6
BYBLOCK
 62
     0
 10
5.3807769999999993
 20
20.708663999999999
 30
0.0
 11
5.3807769999999993
 21
20.618663999999999
 31
0.0
 12
5.1107769999999988
 22
20.663664000000001
 32
0.0
 13
5.1107769999999988
 23
20.663664000000001
 33
0.0
  0
SOLID
  5
1FA
  8
0
  6
BYBLOCK
 62
     0
 10
4.7602769999999994
 20
20.708663999999999
 30
0.0
 11
4.7602769999999994
 21
20.618663999999999
 31
0.0
 12
5.030276999999999
 22
20.663664000000001
 32
0.0
 13
5.030276999999999
 23
20.663664000000001
 33
0.0
  0
TEXT
  5
1FB
  8
0
  6
BYBLOCK
 62
     0
 10
3.8630892499999989
 20
20.569914000000001
 30
0.0
 40
0.1875
  1
0.080
 41
0.75
 72
     1
 11
4.1091829999999989
 21
20.663664000000001
 31
0.0
 73
     2
  0
POINT
  5
1FC
  8
DEFPOINTS
  6
BYBLOCK
 62
     0
 10
5.1107769999999988
 20
20.237926999999988
 30
0.0
  0
POINT
  5
1FD
  8
DEFPOINTS
  6
BYBLOCK
 62
     0
 10
5.030276999999999
 20
20.318426999999989
 30
0.0
  0
POINT
  5
1FE
  8
DEFPOINTS
  6
BYBLOCK
 62
     0
 10
5.030276999999999
 20
20.663664000000001
 30
0.0
  0
ENDBLK
  5
1FF
  8
0
  0
BLOCK
  8
0
  2
*D30
 70
     1
 10
0.0
 20
0.0
 30
0.0
  3
*D30
  1

  0
LINE
  5
202
  8
0
  6
BYBLOCK
 62
     0
 10
7.2804119999999992
 20
8.2721559999999972
 30
0.0
 11
5.4999209999999987
 21
8.2721559999999972
 31
0.0
  0
LINE
  5
203
  8
0
  6
BYBLOCK
 62
     0
 10
7.2804119999999992
 20
5.397155999999999
 30
0.0
 11
5.4999209999999987
 21
5.397155999999999
 31
0.0
  0
LINE
  5
204
  8
0
  6
BYBLOCK
 62
     0
 10
5.6394209999999987
 20
8.0021559999999994
 30
0.0
 11
5.6394209999999987
 21
7.0634059999999987
 31
0.0
  0
LINE
  5
205
  8
0
  6
BYBLOCK
 62
     0
 10
5.6394209999999987
 20
5.6671559999999994
 30
0.0
 11
5.6394209999999987
 21
6.6059060000000001
 31
0.0
  0
SOLID
  5
206
  8
0
  6
BYBLOCK
 62
     0
 10
5.5944209999999988
 20
8.0021559999999994
 30
0.0
 11
5.6844209999999986
 21
8.0021559999999994
 31
0.0
 12
5.6394209999999987
 22
8.2721559999999972
 32
0.0
 13
5.6394209999999987
 23
8.2721559999999972
 33
0.0
  0
SOLID
  5
207
  8
0
  6
BYBLOCK
 62
     0
 10
5.5944209999999988
 20
5.6671559999999994
 30
0.0
 11
5.6844209999999986
 21
5.6671559999999994
 31
0.0
 12
5.6394209999999987
 22
5.397155999999999
 32
0.0
 13
5.6394209999999987
 23
5.397155999999999
 33
0.0
  0
TEXT
  5
208
  8
0
  6
BYBLOCK
 62
     0
 10
5.3581709999999987
 20
6.740905999999999
 30
0.0
 40
0.1875
  1
2.875
 41
0.75
 72
     1
 11
5.6394209999999987
 21
6.834655999999999
 31
0.0
 73
     2
  0
POINT
  5
209
  8
DEFPOINTS
  6
BYBLOCK
 62
     0
 10
7.3749119999999992
 20
8.2721559999999972
 30
0.1875
  0
POINT
  5
20A
  8
DEFPOINTS
  6
BYBLOCK
 62
     0
 10
7.3749119999999992
 20
5.397155999999999
 30
0.1875
  0
POINT
  5
20B
  8
DEFPOINTS
  6
BYBLOCK
 62
     0
 10
5.6394209999999987
 20
5.397155999999999
 30
0.0
  0
ENDBLK
  5
20C
  8
0
  0
BLOCK
  8
0
  2
*D31
 70
     1
 10
0.0
 20
0.0
 30
0.0
  3
*D31
  1

  0
LINE
  5
20F
  8
0
  6
BYBLOCK
 62
     0
 10
7.3749119999999992
 20
5.3026559999999989
 30
0.0
 11
7.3749119999999992
 21
4.2478739999999986
 31
0.0
  0
LINE
  5
210
  8
0
  6
BYBLOCK
 62
     0
 10
11.499912
 20
5.3026559999999989
 30
0.0
 11
11.499912
 21
4.2478739999999986
 31
0.0
  0
LINE
  5
211
  8
0
  6
BYBLOCK
 62
     0
 10
7.6449119999999988
 20
4.3873739999999994
 30
0.0
 11
9.0446000000000009
 21
4.3873739999999994
 31
0.0
  0
LINE
  5
212
  8
0
  6
BYBLOCK
 62
     0
 10
11.22991199999999
 20
4.3873739999999994
 30
0.0
 11
9.8302250000000004
 21
4.3873739999999994
 31
0.0
  0
SOLID
  5
213
  8
0
  6
BYBLOCK
 62
     0
 10
7.6449119999999988
 20
4.4323739999999994
 30
0.0
 11
7.6449119999999988
 21
4.3423739999999986
 31
0.0
 12
7.3749119999999992
 22
4.3873739999999994
 32
0.0
 13
7.3749119999999992
 23
4.3873739999999994
 33
0.0
  0
SOLID
  5
214
  8
0
  6
BYBLOCK
 62
     0
 10
11.22991199999999
 20
4.4323739999999994
 30
0.0
 11
11.22991199999999
 21
4.3423739999999986
 31
0.0
 12
11.499912
 22
4.3873739999999994
 32
0.0
 13
11.499912
 23
4.3873739999999994
 33
0.0
  0
TEXT
  5
215
  8
0
  6
BYBLOCK
 62
     0
 10
9.1795995000000001
 20
4.2936239999999994
 30
0.0
 40
0.1875
  1
4.125
 41
0.75
 72
     1
 11
9.4374120000000001
 21
4.3873739999999994
 31
0.0
 73
     2
  0
POINT
  5
216
  8
DEFPOINTS
  6
BYBLOCK
 62
     0
 10
7.3749119999999992
 20
5.397155999999999
 30
0.1875
  0
POINT
  5
217
  8
DEFPOINTS
  6
BYBLOCK
 62
     0
 10
11.499912
 20
5.397155999999999
 30
0.1875
  0
POINT
  5
218
  8
DEFPOINTS
  6
BYBLOCK
 62
     0
 10
11.499912
 20
4.3873739999999994
 30
0.0
  0
ENDBLK
  5
219
  8
0
  0
BLOCK
  8
0
  2
*D32
 70
     1
 10
0.0
 20
0.0
 30
0.0
  3
*D32
  1

  0
LINE
  5
21C
  8
0
  6
BYBLOCK
 62
     0
 10
1.744545999999999
 20
5.616655999999999
 30
0.0
 11
1.744545999999999
 21
5.946496999999999
 31
0.0
  0
LINE
  5
21D
  8
0
  6
BYBLOCK
 62
     0
 10
1.5145459999999991
 20
5.723190999999999
 30
0.0
 11
1.5145459999999991
 21
5.667497
 31
0.0
  0
LINE
  5
21E
  8
0
  6
BYBLOCK
 62
     0
 10
2.0145459999999988
 20
5.8069969999999991
 30
0.0
 11
2.2845459999999989
 21
5.8069969999999991
 31
0.0
  0
LINE
  5
21F
  8
0
  6
BYBLOCK
 62
     0
 10
1.244545999999999
 20
5.8069969999999991
 30
0.0
 11
0.9745459999999999
 21
5.8069969999999991
 31
0.0
  0
SOLID
  5
220
  8
0
  6
BYBLOCK
 62
     0
 10
2.0145459999999988
 20
5.851996999999999
 30
0.0
 11
2.0145459999999988
 21
5.761997
 31
0.0
 12
1.744545999999999
 22
5.8069969999999991
 32
0.0
 13
1.744545999999999
 23
5.8069969999999991
 33
0.0
  0
SOLID
  5
221
  8
0
  6
BYBLOCK
 62
     0
 10
1.244545999999999
 20
5.851996999999999
 30
0.0
 11
1.244545999999999
 21
5.761997
 31
0.0
 12
1.5145459999999991
 22
5.8069969999999991
 32
0.0
 13
1.5145459999999991
 23
5.8069969999999991
 33
0.0
  0
TEXT
  5
222
  8
0
  6
BYBLOCK
 62
     0
 10
0.3239215
 20
5.7132469999999991
 30
0.0
 40
0.1875
  1
0.230
 41
0.75
 72
     1
 11
0.581734
 21
5.8069969999999991
 31
0.0
 73
     2
  0
POINT
  5
223
  8
DEFPOINTS
  6
BYBLOCK
 62
     0
 10
1.744545999999999
 20
5.522155999999999
 30
0.1875
  0
POINT
  5
224
  8
DEFPOINTS
  6
BYBLOCK
 62
     0
 10
1.5145459999999991
 20
5.8176909999999991
 30
0.1875
  0
POINT
  5
225
  8
DEFPOINTS
  6
BYBLOCK
 62
     0
 10
1.5145459999999991
 20
5.8069969999999991
 30
0.0
  0
ENDBLK
  5
226
  8
0
  0
BLOCK
  8
0
  2
*D33
 70
     1
 10
0.0
 20
0.0
 30
0.0
  3
*D33
  1

  0
LINE
  5
229
  8
0
  6
BYBLOCK
 62
     0
 10
7.9550000000000001
 20
19.848011
 30
0.0
 11
6.7848959999999998
 21
19.848011
 31
0.0
  0
LINE
  5
22A
  8
0
  6
BYBLOCK
 62
     0
 10
7.9550000000000001
 20
18.413842999999989
 30
0.0
 11
6.7848959999999998
 21
18.413842999999989
 31
0.0
  0
LINE
  5
22B
  8
0
  6
BYBLOCK
 62
     0
 10
6.9243959999999998
 20
19.578011
 30
0.0
 11
6.9243959999999998
 21
19.359676999999991
 31
0.0
  0
LINE
  5
22C
  8
0
  6
BYBLOCK
 62
     0
 10
6.9243959999999998
 20
18.683842999999989
 30
0.0
 11
6.9243959999999998
 21
18.902176999999998
 31
0.0
  0
SOLID
  5
22D
  8
0
  6
BYBLOCK
 62
     0
 10
6.8793959999999998
 20
19.578011
 30
0.0
 11
6.9693959999999997
 21
19.578011
 31
0.0
 12
6.9243959999999998
 22
19.848011
 32
0.0
 13
6.9243959999999998
 23
19.848011
 33
0.0
  0
SOLID
  5
22E
  8
0
  6
BYBLOCK
 62
     0
 10
6.8793959999999998
 20
18.683842999999989
 30
0.0
 11
6.9693959999999997
 21
18.683842999999989
 31
0.0
 12
6.9243959999999998
 22
18.413842999999989
 32
0.0
 13
6.9243959999999998
 23
18.413842999999989
 33
0.0
  0
TEXT
  5
22F
  8
0
  6
BYBLOCK
 62
     0
 10
6.8775209999999998
 20
19.037176999999989
 30
0.0
 40
0.1875
  1
K
 41
0.75
 72
     1
 11
6.9243959999999998
 21
19.130926999999989
 31
0.0
 73
     2
  0
POINT
  5
230
  8
DEFPOINTS
  6
BYBLOCK
 62
     0
 10
8.0495000000000001
 20
19.848011
 30
0.0
  0
POINT
  5
231
  8
DEFPOINTS
  6
BYBLOCK
 62
     0
 10
8.0495000000000001
 20
18.413842999999989
 30
0.0
  0
POINT
  5
232
  8
DEFPOINTS
  6
BYBLOCK
 62
     0
 10
6.9243959999999998
 20
18.413842999999989
 30
0.0
  0
ENDBLK
  5
233
  8
0
  0
BLOCK
  8
0
  2
*D34
 70
     1
 10
0.0
 20
0.0
 30
0.0
  3
*D34
  1

  0
LINE
  5
236
  8
0
  6
BYBLOCK
 62
     0
 10
5.030276999999999
 20
17.848927
 30
0.0
 11
5.030276999999999
 21
17.40502
 31
0.0
  0
LINE
  5
237
  8
0
  6
BYBLOCK
 62
     0
 10
4.030276999999999
 20
17.895399999999992
 30
0.0
 11
4.030276999999999
 21
17.40502
 31
0.0
  0
LINE
  5
238
  8
0
  6
BYBLOCK
 62
     0
 10
5.3002769999999986
 20
17.544519999999999
 30
0.0
 11
5.570276999999999
 21
17.544519999999999
 31
0.0
  0
LINE
  5
239
  8
0
  6
BYBLOCK
 62
     0
 10
3.760276999999999
 20
17.544519999999999
 30
0.0
 11
3.490276999999999
 21
17.544519999999999
 31
0.0
  0
SOLID
  5
23A
  8
0
  6
BYBLOCK
 62
     0
 10
5.3002769999999986
 20
17.58952
 30
0.0
 11
5.3002769999999986
 21
17.49952
 31
0.0
 12
5.030276999999999
 22
17.544519999999999
 32
0.0
 13
5.030276999999999
 23
17.544519999999999
 33
0.0
  0
SOLID
  5
23B
  8
0
  6
BYBLOCK
 62
     0
 10
3.760276999999999
 20
17.58952
 30
0.0
 11
3.760276999999999
 21
17.49952
 31
0.0
 12
4.030276999999999
 22
17.544519999999999
 32
0.0
 13
4.030276999999999
 23
17.544519999999999
 33
0.0
  0
TEXT
  5
23C
  8
0
  6
BYBLOCK
 62
     0
 10
4.483401999999999
 20
17.450769999999999
 30
0.0
 40
0.1875
  1
C
 41
0.75
 72
     1
 11
4.530276999999999
 21
17.544519999999999
 31
0.0
 73
     2
  0
POINT
  5
23D
  8
DEFPOINTS
  6
BYBLOCK
 62
     0
 10
5.030276999999999
 20
17.943427
 30
0.0
  0
POINT
  5
23E
  8
DEFPOINTS
  6
BYBLOCK
 62
     0
 10
4.030276999999999
 20
17.989899999999992
 30
0.0
  0
POINT
  5
23F
  8
DEFPOINTS
  6
BYBLOCK
 62
     0
 10
4.030276999999999
 20
17.544519999999999
 30
0.0
  0
ENDBLK
  5
240
  8
0
  0
BLOCK
  8
0
  2
*D35
 70
     1
 10
0.0
 20
0.0
 30
0.0
  3
*D35
  1

  0
LINE
  5
243
  8
0
  6
BYBLOCK
 62
     0
 10
11.609
 20
19.130926999999989
 30
0.0
 11
12.381304999999999
 21
19.130926999999989
 31
0.0
  0
LINE
  5
244
  8
0
  6
BYBLOCK
 62
     0
 10
11.115999999999991
 20
17.905427
 30
0.0
 11
12.381304999999999
 21
17.905427
 31
0.0
  0
LINE
  5
245
  8
0
  6
BYBLOCK
 62
     0
 10
12.241804999999999
 20
18.860927
 30
0.0
 11
12.241804999999999
 21
18.754715999999998
 31
0.0
  0
LINE
  5
246
  8
0
  6
BYBLOCK
 62
     0
 10
12.241804999999999
 20
18.175426999999988
 30
0.0
 11
12.241804999999999
 21
18.297215999999999
 31
0.0
  0
SOLID
  5
247
  8
0
  6
BYBLOCK
 62
     0
 10
12.196804999999991
 20
18.860927
 30
0.0
 11
12.286804999999999
 21
18.860927
 31
0.0
 12
12.241804999999999
 22
19.130926999999989
 32
0.0
 13
12.241804999999999
 23
19.130926999999989
 33
0.0
  0
SOLID
  5
248
  8
0
  6
BYBLOCK
 62
     0
 10
12.196804999999991
 20
18.175426999999988
 30
0.0
 11
12.286804999999999
 21
18.175426999999988
 31
0.0
 12
12.241804999999999
 22
17.905427
 32
0.0
 13
12.241804999999999
 23
17.905427
 33
0.0
  0
TEXT
  5
249
  8
0
  6
BYBLOCK
 62
     0
 10
12.194929999999999
 20
18.432216
 30
0.0
 40
0.1875
  1
D
 41
0.75
 72
     1
 11
12.241804999999999
 21
18.525966
 31
0.0
 73
     2
  0
POINT
  5
24A
  8
DEFPOINTS
  6
BYBLOCK
 62
     0
 10
11.5145
 20
19.130926999999989
 30
0.0
  0
POINT
  5
24B
  8
DEFPOINTS
  6
BYBLOCK
 62
     0
 10
11.021499999999991
 20
17.905427
 30
0.0
  0
POINT
  5
24C
  8
DEFPOINTS
  6
BYBLOCK
 62
     0
 10
12.241804999999999
 20
17.905427
 30
0.0
  0
ENDBLK
  5
24D
  8
0
  0
BLOCK
  8
0
  2
*D36
 70
     1
 10
0.0
 20
0.0
 30
0.0
  3
*D36
  1

  0
LINE
  5
250
  8
0
  6
BYBLOCK
 62
     0
 10
11.777737
 20
15.251104
 30
0.0
 11
11.777737
 21
14.549794
 31
0.0
  0
LINE
  5
251
  8
0
  6
BYBLOCK
 62
     0
 10
7.4512619999999989
 20
15.251104
 30
0.0
 11
7.4512619999999989
 21
14.549794
 31
0.0
  0
LINE
  5
252
  8
0
  6
BYBLOCK
 62
     0
 10
11.507737000000001
 20
14.689294
 30
0.0
 11
9.7963749999999994
 21
14.689294
 31
0.0
  0
LINE
  5
253
  8
0
  6
BYBLOCK
 62
     0
 10
7.7212619999999994
 20
14.689294
 30
0.0
 11
9.4326249999999998
 21
14.689294
 31
0.0
  0
SOLID
  5
254
  8
0
  6
BYBLOCK
 62
     0
 10
11.507737000000001
 20
14.734294
 30
0.0
 11
11.507737000000001
 21
14.644294
 31
0.0
 12
11.777737
 22
14.689294
 32
0.0
 13
11.777737
 23
14.689294
 33
0.0
  0
SOLID
  5
255
  8
0
  6
BYBLOCK
 62
     0
 10
7.7212619999999994
 20
14.734294
 30
0.0
 11
7.7212619999999994
 21
14.644294
 31
0.0
 12
7.4512619999999989
 22
14.689294
 32
0.0
 13
7.4512619999999989
 23
14.689294
 33
0.0
  0
TEXT
  5
256
  8
0
  6
BYBLOCK
 62
     0
 10
9.5676249999999996
 20
14.595544
 30
0.0
 40
0.1875
  1
E
 41
0.75
 72
     1
 11
9.6144999999999996
 21
14.689294
 31
0.0
 73
     2
  0
POINT
  5
257
  8
DEFPOINTS
  6
BYBLOCK
 62
     0
 10
11.777737
 20
15.345604
 30
0.0
  0
POINT
  5
258
  8
DEFPOINTS
  6
BYBLOCK
 62
     0
 10
7.4512619999999989
 20
15.345604
 30
0.0
  0
POINT
  5
259
  8
DEFPOINTS
  6
BYBLOCK
 62
     0
 10
7.4512619999999989
 20
14.689294
 30
0.0
  0
ENDBLK
  5
25A
  8
0
  0
BLOCK
  8
0
  2
*D37
 70
     1
 10
0.0
 20
0.0
 30
0.0
  3
*D37
  1

  0
LINE
  5
25D
  8
0
  6
BYBLOCK
 62
     0
 10
8.1129999999999995
 20
20.356426999999989
 30
0.0
 11
6.4098959999999989
 21
20.356426999999989
 31
0.0
  0
LINE
  5
25E
  8
0
  6
BYBLOCK
 62
     0
 10
8.1129999999999995
 20
17.905427
 30
0.0
 11
6.4098959999999989
 21
17.905427
 31
0.0
  0
LINE
  5
25F
  8
0
  6
BYBLOCK
 62
     0
 10
6.5493959999999989
 20
20.086427
 30
0.0
 11
6.5493959999999989
 21
19.359676999999991
 31
0.0
  0
LINE
  5
260
  8
0
  6
BYBLOCK
 62
     0
 10
6.5493959999999989
 20
18.175426999999988
 30
0.0
 11
6.5493959999999989
 21
18.902176999999998
 31
0.0
  0
SOLID
  5
261
  8
0
  6
BYBLOCK
 62
     0
 10
6.504395999999999
 20
20.086427
 30
0.0
 11
6.5943959999999997
 21
20.086427
 31
0.0
 12
6.5493959999999989
 22
20.356426999999989
 32
0.0
 13
6.5493959999999989
 23
20.356426999999989
 33
0.0
  0
SOLID
  5
262
  8
0
  6
BYBLOCK
 62
     0
 10
6.504395999999999
 20
18.175426999999988
 30
0.0
 11
6.5943959999999997
 21
18.175426999999988
 31
0.0
 12
6.5493959999999989
 22
17.905427
 32
0.0
 13
6.5493959999999989
 23
17.905427
 33
0.0
  0
TEXT
  5
263
  8
0
  6
BYBLOCK
 62
     0
 10
6.5025209999999989
 20
19.037176999999989
 30
0.0
 40
0.1875
  1
F
 41
0.75
 72
     1
 11
6.5493959999999989
 21
19.130926999999989
 31
0.0
 73
     2
  0
POINT
  5
264
  8
DEFPOINTS
  6
BYBLOCK
 62
     0
 10
8.2074999999999996
 20
20.356426999999989
 30
0.0
  0
POINT
  5
265
  8
DEFPOINTS
  6
BYBLOCK
 62
     0
 10
8.2074999999999996
 20
17.905427
 30
0.0
  0
POINT
  5
266
  8
DEFPOINTS
  6
BYBLOCK
 62
     0
 10
6.5493959999999989
 20
17.905427
 30
0.0
  0
ENDBLK
  5
267
  8
0
  0
BLOCK
  8
0
  2
*D38
 70
     1
 10
0.0
 20
0.0
 30
0.0
  3
*D38
  1

  0
LINE
  5
26A
  8
0
  6
BYBLOCK
 62
     0
 10
12.489794
 20
6.7401559999999989
 30
0.0
 11
12.489794
 21
3.872873999999999
 31
0.0
  0
LINE
  5
26B
  8
0
  6
BYBLOCK
 62
     0
 10
6.3897940000000002
 20
6.7401559999999989
 30
0.0
 11
6.3897940000000002
 21
3.872873999999999
 31
0.0
  0
LINE
  5
26C
  8
0
  6
BYBLOCK
 62
     0
 10
12.219794
 20
4.0123739999999994
 30
0.0
 11
9.8091690000000007
 21
4.0123739999999994
 31
0.0
  0
LINE
  5
26D
  8
0
  6
BYBLOCK
 62
     0
 10
6.6597939999999998
 20
4.0123739999999994
 30
0.0
 11
9.0704190000000011
 21
4.0123739999999994
 31
0.0
  0
SOLID
  5
26E
  8
0
  6
BYBLOCK
 62
     0
 10
12.219794
 20
4.0573739999999994
 30
0.0
 11
12.219794
 21
3.9673739999999991
 31
0.0
 12
12.489794
 22
4.0123739999999994
 32
0.0
 13
12.489794
 23
4.0123739999999994
 33
0.0
  0
SOLID
  5
26F
  8
0
  6
BYBLOCK
 62
     0
 10
6.6597939999999998
 20
4.0573739999999994
 30
0.0
 11
6.6597939999999998
 21
3.9673739999999991
 31
0.0
 12
6.3897940000000002
 22
4.0123739999999994
 32
0.0
 13
6.3897940000000002
 23
4.0123739999999994
 33
0.0
  0
TEXT
  5
270
  8
0
  6
BYBLOCK
 62
     0
 10
9.2054189999999991
 20
3.918623999999999
 30
0.0
 40
0.1875
  1
6.100
 41
0.75
 72
     1
 11
9.4397939999999991
 21
4.0123739999999994
 31
0.0
 73
     2
  0
POINT
  5
271
  8
DEFPOINTS
  6
BYBLOCK
 62
     0
 10
12.489794
 20
6.834655999999999
 30
0.1875
  0
POINT
  5
272
  8
DEFPOINTS
  6
BYBLOCK
 62
     0
 10
6.3897940000000002
 20
6.834655999999999
 30
0.1875
  0
POINT
  5
273
  8
DEFPOINTS
  6
BYBLOCK
 62
     0
 10
6.3897940000000002
 20
4.0123739999999994
 30
0.0
  0
ENDBLK
  5
274
  8
0
  0
BLOCK
  8
0
  2
*D39
 70
     1
 10
0.0
 20
0.0
 30
0.0
  3
*D39
  1

  0
LINE
  5
277
  8
0
  6
BYBLOCK
 62
     0
 10
12.741175999999999
 20
1.1183309999999991
 30
0.0
 11
12.741175999999999
 21
0.325477
 31
0.0
  0
LINE
  5
278
  8
0
  6
BYBLOCK
 62
     0
 10
6.1467010000000002
 20
1.1183309999999991
 30
0.0
 11
6.1467010000000002
 21
0.325477
 31
0.0
  0
LINE
  5
279
  8
0
  6
BYBLOCK
 62
     0
 10
12.471176
 20
0.4649770000000001
 30
0.0
 11
9.8601890000000001
 21
0.4649770000000001
 31
0.0
  0
LINE
  5
27A
  8
0
  6
BYBLOCK
 62
     0
 10
6.4167009999999989
 20
0.4649770000000001
 30
0.0
 11
9.0276890000000005
 21
0.4649770000000001
 31
0.0
  0
SOLID
  5
27B
  8
0
  6
BYBLOCK
 62
     0
 10
12.471176
 20
0.5099770000000001
 30
0.0
 11
12.471176
 21
0.4199770000000001
 31
0.0
 12
12.741175999999999
 22
0.4649770000000001
 32
0.0
 13
12.741175999999999
 23
0.4649770000000001
 33
0.0
  0
SOLID
  5
27C
  8
0
  6
BYBLOCK
 62
     0
 10
6.4167009999999989
 20
0.5099770000000001
 30
0.0
 11
6.4167009999999989
 21
0.4199770000000001
 31
0.0
 12
6.1467010000000002
 22
0.4649770000000001
 32
0.0
 13
6.1467010000000002
 23
0.4649770000000001
 33
0.0
  0
TEXT
  5
27D
  8
0
  6
BYBLOCK
 62
     0
 10
9.1626890000000003
 20
0.371227
 30
0.0
 40
0.1875
  1
6.594
 41
0.75
 72
     1
 11
9.4439390000000003
 21
0.4649770000000001
 31
0.0
 73
     2
  0
POINT
  5
27E
  8
DEFPOINTS
  6
BYBLOCK
 62
     0
 10
12.741175999999999
 20
1.2128309999999991
 30
0.0
  0
POINT
  5
27F
  8
DEFPOINTS
  6
BYBLOCK
 62
     0
 10
6.1467010000000002
 20
1.2128309999999991
 30
0.0
  0
POINT
  5
280
  8
DEFPOINTS
  6
BYBLOCK
 62
     0
 10
6.1467010000000002
 20
0.4649770000000001
 30
-0.1875
  0
ENDBLK
  5
281
  8
0
  0
BLOCK
  8
0
  2
*D40
 70
     1
 10
0.0
 20
0.0
 30
0.0
  3
*D40
  1

  0
LINE
  5
284
  8
0
  6
BYBLOCK
 62
     0
 10
11.5145
 20
19.036426999999989
 30
0.0
 11
11.5145
 21
17.042687000000001
 31
0.0
  0
LINE
  5
285
  8
0
  6
BYBLOCK
 62
     0
 10
7.7145000000000001
 20
19.036426999999989
 30
0.0
 11
7.7145000000000001
 21
17.042687000000001
 31
0.0
  0
LINE
  5
286
  8
0
  6
BYBLOCK
 62
     0
 10
11.2445
 20
17.182186999999988
 30
0.0
 11
9.7963749999999994
 21
17.182186999999988
 31
0.0
  0
LINE
  5
287
  8
0
  6
BYBLOCK
 62
     0
 10
7.9844999999999988
 20
17.182186999999988
 30
0.0
 11
9.4326249999999998
 21
17.182186999999988
 31
0.0
  0
SOLID
  5
288
  8
0
  6
BYBLOCK
 62
     0
 10
11.2445
 20
17.227187000000001
 30
0.0
 11
11.2445
 21
17.137187000000001
 31
0.0
 12
11.5145
 22
17.182186999999988
 32
0.0
 13
11.5145
 23
17.182186999999988
 33
0.0
  0
SOLID
  5
289
  8
0
  6
BYBLOCK
 62
     0
 10
7.9844999999999988
 20
17.227187000000001
 30
0.0
 11
7.9844999999999988
 21
17.137187000000001
 31
0.0
 12
7.7145000000000001
 22
17.182186999999988
 32
0.0
 13
7.7145000000000001
 23
17.182186999999988
 33
0.0
  0
TEXT
  5
28A
  8
0
  6
BYBLOCK
 62
     0
 10
9.5676249999999996
 20
17.088436999999999
 30
0.0
 40
0.1875
  1
H
 41
0.75
 72
     1
 11
9.6144999999999996
 21
17.182186999999988
 31
0.0
 73
     2
  0
POINT
  5
28B
  8
DEFPOINTS
  6
BYBLOCK
 62
     0
 10
11.5145
 20
19.130926999999989
 30
0.0
  0
POINT
  5
28C
  8
DEFPOINTS
  6
BYBLOCK
 62
     0
 10
7.7145000000000001
 20
19.130926999999989
 30
0.0
  0
POINT
  5
28D
  8
DEFPOINTS
  6
BYBLOCK
 62
     0
 10
7.7145000000000001
 20
17.182186999999988
 30
0.0
  0
ENDBLK
  5
28E
  8
0
  0
BLOCK
  8
0
  2
*D41
 70
     1
 10
0.0
 20
0.0
 30
0.0
  3
*D41
  1

  0
LINE
  5
291
  8
0
  6
BYBLOCK
 62
     0
 10
8.4599159999999998
 20
17.908926999999991
 30
0.0
 11
8.4599159999999998
 21
17.417687000000001
 31
0.0
  0
LINE
  5
292
  8
0
  6
BYBLOCK
 62
     0
 10
10.769083
 20
17.908926999999991
 30
0.0
 11
10.769083
 21
17.417687000000001
 31
0.0
  0
LINE
  5
293
  8
0
  6
BYBLOCK
 62
     0
 10
8.7299160000000011
 20
17.557186999999999
 30
0.0
 11
9.4326249999999998
 21
17.557186999999999
 31
0.0
  0
LINE
  5
294
  8
0
  6
BYBLOCK
 62
     0
 10
10.499083000000001
 20
17.557186999999999
 30
0.0
 11
9.7963749999999994
 21
17.557186999999999
 31
0.0
  0
SOLID
  5
295
  8
0
  6
BYBLOCK
 62
     0
 10
8.7299160000000011
 20
17.602187000000001
 30
0.0
 11
8.7299160000000011
 21
17.512187000000001
 31
0.0
 12
8.4599159999999998
 22
17.557186999999999
 32
0.0
 13
8.4599159999999998
 23
17.557186999999999
 33
0.0
  0
SOLID
  5
296
  8
0
  6
BYBLOCK
 62
     0
 10
10.499083000000001
 20
17.602187000000001
 30
0.0
 11
10.499083000000001
 21
17.512187000000001
 31
0.0
 12
10.769083
 22
17.557186999999999
 32
0.0
 13
10.769083
 23
17.557186999999999
 33
0.0
  0
TEXT
  5
297
  8
0
  6
BYBLOCK
 62
     0
 10
9.5676249999999996
 20
17.463436999999988
 30
0.0
 40
0.1875
  1
J
 41
0.75
 72
     1
 11
9.6144999999999996
 21
17.557186999999999
 31
0.0
 73
     2
  0
POINT
  5
298
  8
DEFPOINTS
  6
BYBLOCK
 62
     0
 10
8.4599159999999998
 20
18.003426999999991
 30
0.0
  0
POINT
  5
299
  8
DEFPOINTS
  6
BYBLOCK
 62
     0
 10
10.769083
 20
18.003426999999991
 30
0.0
  0
POINT
  5
29A
  8
DEFPOINTS
  6
BYBLOCK
 62
     0
 10
10.769083
 20
17.557186999999999
 30
0.0
  0
ENDBLK
  5
29B
  8
0
  0
BLOCK
  8
0
  2
*D42
 70
     1
 10
0.0
 20
0.0
 30
0.0
  3
*D42
  1

  0
LINE
  5
29E
  8
0
  6
BYBLOCK
 62
     0
 10
11.277464999999991
 20
15.550872
 30
0.0
 11
11.277464999999991
 21
16.591632999999991
 31
0.0
  0
LINE
  5
29F
  8
0
  6
BYBLOCK
 62
     0
 10
11.235378000000001
 20
16.113053000000001
 30
0.0
 11
11.214542
 21
16.590260000000001
 31
0.0
  0
ARC
  5
2A0
  8
0
  6
BYBLOCK
 62
     0
 10
11.277464999999991
 20
15.149095000000001
 30
0.0
 40
1.303037999999999
 50
66.213014000000001
 51
78.106506999999993
  0
ARC
  5
2A1
  8
0
  6
BYBLOCK
 62
     0
 10
11.277464999999991
 20
15.149095000000001
 30
0.0
 40
1.303037999999999
 50
104.39349300000001
 51
116.286986
  0
SOLID
  5
2A2
  8
0
  6
BYBLOCK
 62
     0
 10
11.541349999999991
 20
16.379401999999999
 30
0.0
 11
11.550674000000001
 21
16.468917000000001
 31
0.0
 12
11.277464999999991
 22
16.452132999999989
 32
0.0
 13
11.277464999999991
 23
16.452132999999989
 33
0.0
  0
SOLID
  5
2A3
  8
0
  6
BYBLOCK
 62
     0
 10
10.946946000000001
 20
16.455743999999999
 30
0.0
 11
10.960165999999999
 21
16.366720000000001
 31
0.0
 12
11.220627
 22
16.450892
 32
0.0
 13
11.220627
 23
16.450892
 33
0.0
  0
TEXT
  5
2A4
  8
0
  6
BYBLOCK
 62
     0
 10
11.968471499999991
 20
16.285284000000001
 30
0.0
 40
0.1875
  1
1%%d30' REF.
 41
0.75
 72
     1
 11
12.507534
 21
16.379034000000001
 31
0.0
 73
     2
  0
POINT
  5
2A5
  8
DEFPOINTS
  6
BYBLOCK
 62
     0
 10
11.2395
 20
16.451578999999999
 30
0.0
  0
POINT
  5
2A6
  8
DEFPOINTS
  6
BYBLOCK
 62
     0
 10
11.277464999999991
 20
15.149095000000001
 30
0.0
  0
POINT
  5
2A7
  8
DEFPOINTS
  6
BYBLOCK
 62
     0
 10
11.277464999999991
 20
15.149095000000001
 30
0.0
  0
POINT
  5
2A8
  8
DEFPOINTS
  6
BYBLOCK
 62
     0
 10
11.277464999999991
 20
15.456371999999989
 30
0.0
  0
POINT
  5
2A9
  8
DEFPOINTS
  6
BYBLOCK
 62
     0
 10
11.2395
 20
16.018643000000001
 30
0.0
  0
ENDBLK
  5
2AA
  8
0
  0
BLOCK
  8
0
  2
*D43
 70
     1
 10
0.0
 20
0.0
 30
0.0
  3
*D43
  1

  0
LINE
  5
2AD
  8
0
  6
BYBLOCK
 62
     0
 10
7.9894999999999987
 20
16.113143000000001
 30
0.0
 11
7.9894999999999987
 21
16.904772000000001
 31
0.0
  0
LINE
  5
2AE
  8
0
  6
BYBLOCK
 62
     0
 10
11.2395
 20
16.113143000000001
 30
0.0
 11
11.2395
 21
16.904772000000001
 31
0.0
  0
LINE
  5
2AF
  8
0
  6
BYBLOCK
 62
     0
 10
8.2594999999999992
 20
16.765271999999989
 30
0.0
 11
9.4326249999999998
 21
16.765271999999989
 31
0.0
  0
LINE
  5
2B0
  8
0
  6
BYBLOCK
 62
     0
 10
10.9695
 20
16.765271999999989
 30
0.0
 11
9.7963749999999994
 21
16.765271999999989
 31
0.0
  0
SOLID
  5
2B1
  8
0
  6
BYBLOCK
 62
     0
 10
8.2594999999999992
 20
16.810272000000001
 30
0.0
 11
8.2594999999999992
 21
16.720272000000001
 31
0.0
 12
7.9894999999999987
 22
16.765271999999989
 32
0.0
 13
7.9894999999999987
 23
16.765271999999989
 33
0.0
  0
SOLID
  5
2B2
  8
0
  6
BYBLOCK
 62
     0
 10
10.9695
 20
16.810272000000001
 30
0.0
 11
10.9695
 21
16.720272000000001
 31
0.0
 12
11.2395
 22
16.765271999999989
 32
0.0
 13
11.2395
 23
16.765271999999989
 33
0.0
  0
TEXT
  5
2B3
  8
0
  6
BYBLOCK
 62
     0
 10
9.5676249999999996
 20
16.671522
 30
0.0
 40
0.1875
  1
A
 41
0.75
 72
     1
 11
9.6144999999999996
 21
16.765271999999989
 31
0.0
 73
     2
  0
POINT
  5
2B4
  8
DEFPOINTS
  6
BYBLOCK
 62
     0
 10
7.9894999999999987
 20
16.018643000000001
 30
0.0
  0
POINT
  5
2B5
  8
DEFPOINTS
  6
BYBLOCK
 62
     0
 10
11.2395
 20
16.018643000000001
 30
0.0
  0
POINT
  5
2B6
  8
DEFPOINTS
  6
BYBLOCK
 62
     0
 10
11.2395
 20
16.765271999999989
 30
0.0
  0
ENDBLK
  5
2B7
  8
0
  0
BLOCK
  8
0
  2
*D44
 70
     1
 10
0.0
 20
0.0
 30
0.0
  3
*D44
  1

  0
LINE
  5
2BA
  8
0
  6
BYBLOCK
 62
     0
 10
12.795108000000001
 20
6.7401559999999989
 30
0.0
 11
12.795108000000001
 21
3.872873999999999
 31
0.0
  0
LINE
  5
2BB
  8
0
  6
BYBLOCK
 62
     0
 10
13.04648999999999
 20
5.368409999999999
 30
0.0
 11
13.04648999999999
 21
3.872873999999999
 31
0.0
  0
LINE
  5
2BC
  8
0
  6
BYBLOCK
 62
     0
 10
12.525107999999999
 20
4.0123739999999994
 30
0.0
 11
12.255108
 21
4.0123739999999994
 31
0.0
  0
LINE
  5
2BD
  8
0
  6
BYBLOCK
 62
     0
 10
13.31649
 20
4.0123739999999994
 30
0.0
 11
13.586489999999991
 21
4.0123739999999994
 31
0.0
  0
SOLID
  5
2BE
  8
0
  6
BYBLOCK
 62
     0
 10
12.525107999999999
 20
4.0573739999999994
 30
0.0
 11
12.525107999999999
 21
3.9673739999999991
 31
0.0
 12
12.795108000000001
 22
4.0123739999999994
 32
0.0
 13
12.795108000000001
 23
4.0123739999999994
 33
0.0
  0
SOLID
  5
2BF
  8
0
  6
BYBLOCK
 62
     0
 10
13.31649
 20
4.0573739999999994
 30
0.0
 11
13.31649
 21
3.9673739999999991
 31
0.0
 12
13.04648999999999
 22
4.0123739999999994
 32
0.0
 13
13.04648999999999
 23
4.0123739999999994
 33
0.0
  0
TEXT
  5
2C0
  8
0
  6
BYBLOCK
 62
     0
 10
13.72149025
 20
3.918623999999999
 30
0.0
 40
0.1875
  1
0.251
 41
0.75
 72
     1
 11
13.967584
 21
4.0123739999999994
 31
0.0
 73
     2
  0
POINT
  5
2C1
  8
DEFPOINTS
  6
BYBLOCK
 62
     0
 10
12.795108000000001
 20
6.834655999999999
 30
0.1875
  0
POINT
  5
2C2
  8
DEFPOINTS
  6
BYBLOCK
 62
     0
 10
13.04648999999999
 20
5.462909999999999
 30
0.1875
  0
POINT
  5
2C3
  8
DEFPOINTS
  6
BYBLOCK
 62
     0
 10
13.04648999999999
 20
4.0123739999999994
 30
0.0
  0
ENDBLK
  5
2C4
  8
0
  0
BLOCK
  8
0
  2
*D45
 70
     1
 10
0.0
 20
0.0
 30
0.0
  3
*D45
  1

  0
LINE
  5
335
  8
DIM
 62
     0
 10
5.030276999999999
 20
17.848927
 30
0.0
 11
5.030276999999999
 21
17.40502
 31
0.0
  0
LINE
  5
336
  8
DIM
 62
     0
 10
4.030276999999999
 20
17.895399999999992
 30
0.0
 11
4.030276999999999
 21
17.40502
 31
0.0
  0
LINE
  5
337
  8
DIM
 62
     0
 10
5.3002769999999986
 20
17.544519999999999
 30
0.0
 11
5.570276999999999
 21
17.544519999999999
 31
0.0
  0
LINE
  5
338
  8
DIM
 62
     0
 10
3.760276999999999
 20
17.544519999999999
 30
0.0
 11
3.490276999999999
 21
17.544519999999999
 31
0.0
  0
SOLID
  5
339
  8
DIM
 62
     0
 10
5.3002769999999986
 20
17.58952
 30
0.0
 11
5.3002769999999986
 21
17.49952
 31
0.0
 12
5.030276999999999
 22
17.544519999999999
 32
0.0
 13
5.030276999999999
 23
17.544519999999999
 33
0.0
  0
SOLID
  5
33A
  8
DIM
 62
     0
 10
3.760276999999999
 20
17.58952
 30
0.0
 11
3.760276999999999
 21
17.49952
 31
0.0
 12
4.030276999999999
 22
17.544519999999999
 32
0.0
 13
4.030276999999999
 23
17.544519999999999
 33
0.0
  0
TEXT
  5
33B
  8
OBJECT
 62
     0
 10
4.483401999999999
 20
17.450769999999999
 30
0.0
 40
0.1875
  1
C
 41
0.75
  0
POINT
  5
33C
  8
DEFPOINTS
 62
     0
 10
5.030276999999999
 20
17.943427
 30
0.0
  0
POINT
  5
33D
  8
DEFPOINTS
 62
     0
 10
4.030276999999999
 20
17.989899999999992
 30
0.0
  0
POINT
  5
33E
  8
DEFPOINTS
 62
     0
 10
4.030276999999999
 20
17.544519999999999
 30
0.0
  0
ENDBLK
  5
340
  8
0
  0
BLOCK
  8
0
  2
*D46
 70
     1
 10
0.0
 20
0.0
 30
0.0
  3
*D46
  1

  0
LINE
  5
343
  8
DIM
 62
     0
 10
7.8949999999999987
 20
16.018643000000001
 30
0.0
 11
7.4266550000000002
 21
16.018643000000001
 31
0.0
  0
LINE
  5
344
  8
DIM
 62
     0
 10
7.9749999999999988
 20
15.89364299999999
 30
0.0
 11
7.4266550000000002
 21
15.89364299999999
 31
0.0
  0
LINE
  5
345
  8
DIM
 62
     0
 10
7.5661550000000002
 20
16.288643
 30
0.0
 11
7.5661550000000002
 21
16.558643
 31
0.0
  0
LINE
  5
346
  8
DIM
 62
     0
 10
7.5661550000000002
 20
15.623643
 30
0.0
 11
7.5661550000000002
 21
15.353643
 31
0.0
  0
TEXT
  5
347
  8
OBJECT
 62
     0
 10
6.9255612499999968
 20
15.862393000000001
 30
0.0
 40
0.1875
  1
0.125
 41
0.75
  0
SOLID
  5
348
  8
DIM
 62
     0
 10
7.5211550000000003
 20
16.288643
 30
0.0
 11
7.6111550000000001
 21
16.288643
 31
0.0
 12
7.5661550000000002
 22
16.018643000000001
 32
0.0
 13
7.5661550000000002
 23
16.018643000000001
 33
0.0
  0
SOLID
  5
349
  8
DIM
 62
     0
 10
7.5211550000000003
 20
15.623643
 30
0.0
 11
7.6111550000000001
 21
15.623643
 31
0.0
 12
7.5661550000000002
 22
15.89364299999999
 32
0.0
 13
7.5661550000000002
 23
15.89364299999999
 33
0.0
  0
POINT
  5
34A
  8
DEFPOINTS
 62
     0
 10
7.9894999999999987
 20
16.018643000000001
 30
0.0
  0
POINT
  5
34B
  8
DEFPOINTS
 62
     0
 10
8.0694999999999997
 20
15.89364299999999
 30
0.0
  0
POINT
  5
34C
  8
DEFPOINTS
 62
     0
 10
7.5661550000000002
 20
15.89364299999999
 30
0.0
  0
ENDBLK
  5
34E
  8
0
  0
BLOCK
  8
0
  2
*D47
 70
     1
 10
0.0
 20
0.0
 30
0.0
  3
*D47
  1

  0
LINE
  5
359
  8
DIM
 62
     0
 10
11.872237
 20
15.018643000000001
 30
0.0
 11
12.395744000000001
 21
15.01864299999999
 31
0.0
  0
LINE
  5
35A
  8
DIM
 62
     0
 10
11.872237
 20
15.14364299999999
 30
0.0
 11
12.395744000000001
 21
15.14364299999999
 31
0.0
  0
LINE
  5
35B
  8
DIM
 62
     0
 10
12.256244000000001
 20
14.748642999999991
 30
0.0
 11
12.256244000000001
 21
14.478642999999989
 31
0.0
  0
LINE
  5
35C
  8
DIM
 62
     0
 10
12.256244000000001
 20
15.41364299999999
 30
0.0
 11
12.256244000000001
 21
15.683642999999989
 31
0.0
  0
TEXT
  5
35D
  8
OBJECT
 62
     0
 10
12.59215025
 20
14.987393000000001
 30
0.0
 40
0.1875
  1
0.125
 41
0.75
  0
SOLID
  5
35E
  8
DIM
 62
     0
 10
12.211244000000001
 20
14.748642999999991
 30
0.0
 11
12.301244000000001
 21
14.748642999999991
 31
0.0
 12
12.256244000000001
 22
15.01864299999999
 32
0.0
 13
12.256244000000001
 23
15.01864299999999
 33
0.0
  0
SOLID
  5
35F
  8
DIM
 62
     0
 10
12.211244000000001
 20
15.41364299999999
 30
0.0
 11
12.301244000000001
 21
15.41364299999999
 31
0.0
 12
12.256244000000001
 22
15.14364299999999
 32
0.0
 13
12.256244000000001
 23
15.14364299999999
 33
0.0
  0
POINT
  5
360
  8
DEFPOINTS
 62
     0
 10
11.777737
 20
15.018643000000001
 30
0.0
  0
POINT
  5
361
  8
DEFPOINTS
 62
     0
 10
11.777737
 20
15.14364299999999
 30
0.0
  0
POINT
  5
362
  8
DEFPOINTS
 62
     0
 10
12.256244000000001
 20
15.14364299999999
 30
0.0
  0
ENDBLK
  5
364
  8
0
  0
BLOCK
  8
0
  2
*D48
 70
     1
 10
0.0
 20
0.0
 30
0.0
  3
*D48
  1

  0
LINE
  5
367
  8
DIM
 62
     0
 10
11.609
 20
19.130926999999989
 30
0.0
 11
12.381304999999999
 21
19.130926999999989
 31
0.0
  0
LINE
  5
368
  8
DIM
 62
     0
 10
11.115999999999991
 20
17.905427
 30
0.0
 11
12.381304999999999
 21
17.905427
 31
0.0
  0
LINE
  5
369
  8
DIM
 62
     0
 10
12.241804999999999
 20
18.860927
 30
0.0
 11
12.241804999999999
 21
18.754715999999998
 31
0.0
  0
LINE
  5
36A
  8
DIM
 62
     0
 10
12.241804999999999
 20
18.175426999999988
 30
0.0
 11
12.241804999999999
 21
18.297215999999992
 31
0.0
  0
TEXT
  5
36B
  8
OBJECT
 62
     0
 10
12.194929999999999
 20
18.432216
 30
0.0
 40
0.1875
  1
D
 41
0.75
  0
SOLID
  5
36C
  8
DIM
 62
     0
 10
12.196804999999999
 20
18.860927
 30
0.0
 11
12.286804999999999
 21
18.860927
 31
0.0
 12
12.241804999999999
 22
19.130926999999989
 32
0.0
 13
12.241804999999999
 23
19.130926999999989
 33
0.0
  0
SOLID
  5
36D
  8
DIM
 62
     0
 10
12.196804999999999
 20
18.175426999999988
 30
0.0
 11
12.286804999999999
 21
18.175426999999988
 31
0.0
 12
12.241804999999999
 22
17.905427
 32
0.0
 13
12.241804999999999
 23
17.905427
 33
0.0
  0
POINT
  5
36E
  8
DEFPOINTS
 62
     0
 10
11.5145
 20
19.130926999999989
 30
0.0
  0
POINT
  5
36F
  8
DEFPOINTS
 62
     0
 10
11.021499999999991
 20
17.905427
 30
0.0
  0
POINT
  5
370
  8
DEFPOINTS
 62
     0
 10
12.241804999999999
 20
17.905427
 30
0.0
  0
ENDBLK
  5
372
  8
0
  0
BLOCK
  8
0
  2
*D49
 70
     1
 10
0.0
 20
0.0
 30
0.0
  3
*D49
  1

  0
LINE
  5
375
  8
DIM
 62
     0
 10
7.9515000000000002
 20
20.194927
 30
0.0
 11
7.9515000000000002
 21
20.802839999999989
 31
0.0
  0
LINE
  5
376
  8
DIM
 62
     0
 10
7.4512619999999989
 20
19.732146
 30
0.0
 11
7.4512619999999989
 21
20.802839999999989
 31
0.0
  0
LINE
  5
377
  8
DIM
 62
     0
 10
8.2215000000000007
 20
20.663339999999991
 30
0.0
 11
8.4915000000000003
 21
20.663339999999991
 31
0.0
  0
LINE
  5
378
  8
DIM
 62
     0
 10
7.1812620000000003
 20
20.663339999999991
 30
0.0
 11
6.9112619999999989
 21
20.663339999999991
 31
0.0
  0
TEXT
  5
379
  8
OBJECT
 62
     0
 10
7.4552872499999987
 20
20.964089999999992
 30
0.0
 40
0.1875
  1
0.500
 41
0.75
  0
SOLID
  5
37A
  8
DIM
 62
     0
 10
8.2215000000000007
 20
20.70834
 30
0.0
 11
8.2215000000000007
 21
20.618339999999989
 31
0.0
 12
7.9515000000000002
 22
20.663339999999991
 32
0.0
 13
7.9515000000000002
 23
20.663339999999991
 33
0.0
  0
SOLID
  5
37B
  8
DIM
 62
     0
 10
7.1812620000000003
 20
20.70834
 30
0.0
 11
7.1812620000000003
 21
20.618339999999989
 31
0.0
 12
7.4512619999999989
 22
20.663339999999991
 32
0.0
 13
7.4512619999999989
 23
20.663339999999991
 33
0.0
  0
POINT
  5
37C
  8
DEFPOINTS
 62
     0
 10
7.9515000000000002
 20
20.100427
 30
0.0
  0
POINT
  5
37D
  8
DEFPOINTS
 62
     0
 10
7.4512619999999989
 20
19.637646
 30
0.0
  0
POINT
  5
37E
  8
DEFPOINTS
 62
     0
 10
7.4512619999999989
 20
20.663339999999991
 30
0.0
  0
ENDBLK
  5
380
  8
0
  0
BLOCK
  8
0
  2
*D50
 70
     1
 10
0.0
 20
0.0
 30
0.0
  3
*D50
  1

  0
LINE
  5
383
  8
DIM
 62
     0
 10
4.1102769999999991
 20
18.873820999999989
 30
0.0
 11
4.1102769999999991
 21
18.918821000000001
 31
0.0
  0
LINE
  5
384
  8
DIM
 62
     0
 10
4.030276999999999
 20
18.873820999999989
 30
0.0
 11
4.030276999999999
 21
18.918821000000001
 31
0.0
  0
LINE
  5
385
  8
DIM
 62
     0
 10
4.3802769999999986
 20
18.779320999999989
 30
0.0
 11
4.6502769999999991
 21
18.779320999999989
 31
0.0
  0
LINE
  5
386
  8
DIM
 62
     0
 10
3.760276999999999
 20
18.779320999999989
 30
0.0
 11
3.490276999999999
 21
18.779320999999989
 31
0.0
  0
TEXT
  5
387
  8
OBJECT
 62
     0
 10
3.519495749999999
 20
19.267571
 30
0.0
 40
0.1875
  1
0.080 TYP.
 41
0.75
  0
SOLID
  5
388
  8
DIM
 62
     0
 10
4.3802769999999986
 20
18.824321000000001
 30
0.0
 11
4.3802769999999986
 21
18.734320999999991
 31
0.0
 12
4.1102769999999991
 22
18.779320999999989
 32
0.0
 13
4.1102769999999991
 23
18.779320999999989
 33
0.0
  0
SOLID
  5
389
  8
DIM
 62
     0
 10
3.760276999999999
 20
18.824321000000001
 30
0.0
 11
3.760276999999999
 21
18.734320999999991
 31
0.0
 12
4.030276999999999
 22
18.779320999999989
 32
0.0
 13
4.030276999999999
 23
18.779320999999989
 33
0.0
  0
POINT
  5
38A
  8
DEFPOINTS
 62
     0
 10
4.1102769999999991
 20
18.779320999999989
 30
0.0
  0
POINT
  5
38B
  8
DEFPOINTS
 62
     0
 10
4.030276999999999
 20
18.779320999999989
 30
0.0
  0
POINT
  5
38C
  8
DEFPOINTS
 62
     0
 10
4.030276999999999
 20
18.779320999999989
 30
0.0
  0
ENDBLK
  5
38E
  8
0
  0
BLOCK
  8
0
  2
*D51
 70
     1
 10
0.0
 20
0.0
 30
0.0
  3
*D51
  1

  0
LINE
  5
391
  8
DIM
 62
     0
 10
5.1752769999999986
 20
17.943427
 30
0.0
 11
5.5667359999999979
 21
17.943427
 31
0.0
  0
LINE
  5
392
  8
DIM
 62
     0
 10
5.1752769999999986
 20
20.318426999999989
 30
0.0
 11
5.5667359999999988
 21
20.318426999999989
 31
0.0
  0
LINE
  5
393
  8
DIM
 62
     0
 10
5.4272359999999988
 20
18.213426999999989
 30
0.0
 11
5.4272359999999988
 21
18.902176999999998
 31
0.0
  0
LINE
  5
394
  8
DIM
 62
     0
 10
5.4272359999999988
 20
20.048427
 30
0.0
 11
5.4272359999999988
 21
19.359677000000001
 31
0.0
  0
SOLID
  5
395
  8
DIM
 62
     0
 10
5.3822359999999989
 20
18.213426999999989
 30
0.0
 11
5.4722359999999988
 21
18.213426999999989
 31
0.0
 12
5.427235999999998
 22
17.943427
 32
0.0
 13
5.427235999999998
 23
17.943427
 33
0.0
  0
SOLID
  5
396
  8
DIM
 62
     0
 10
5.3822359999999989
 20
20.048427
 30
0.0
 11
5.4722359999999988
 21
20.048427
 31
0.0
 12
5.4272359999999988
 22
20.318426999999989
 32
0.0
 13
5.4272359999999988
 23
20.318426999999989
 33
0.0
  0
TEXT
  5
397
  8
OBJECT
 62
     0
 10
5.3803609999999962
 20
19.037176999999989
 30
0.0
 40
0.1875
  1
B
 41
0.75
  0
POINT
  5
398
  8
DEFPOINTS
 62
     0
 10
5.0807769999999994
 20
17.943427
 30
0.0
  0
POINT
  5
399
  8
DEFPOINTS
 62
     0
 10
5.0807769999999994
 20
20.318426999999989
 30
0.0
  0
POINT
  5
39A
  8
DEFPOINTS
 62
     0
 10
5.4272359999999988
 20
20.318426999999989
 30
0.0
  0
ENDBLK
  5
39C
  8
0
  0
BLOCK
  8
0
  2
*D52
 70
     1
 10
0.0
 20
0.0
 30
0.0
  3
*D52
  1

  0
LINE
  5
39F
  8
DIM
 62
     0
 10
11.2775
 20
20.194927
 30
0.0
 11
11.2775
 21
20.802839999999989
 31
0.0
  0
LINE
  5
3A0
  8
DIM
 62
     0
 10
11.777737
 20
19.732146
 30
0.0
 11
11.777737
 21
20.802839999999989
 31
0.0
  0
LINE
  5
3A1
  8
DIM
 62
     0
 10
11.0075
 20
20.663339999999991
 30
0.0
 11
10.737500000000001
 21
20.663339999999991
 31
0.0
  0
LINE
  5
3A2
  8
DIM
 62
     0
 10
12.047737
 20
20.663339999999991
 30
0.0
 11
12.317736999999999
 21
20.663339999999991
 31
0.0
  0
TEXT
  5
3A3
  8
OBJECT
 62
     0
 10
11.281524750000001
 20
20.964089999999992
 30
0.0
 40
0.1875
  1
0.500
 41
0.75
  0
SOLID
  5
3A4
  8
DIM
 62
     0
 10
11.0075
 20
20.70834
 30
0.0
 11
11.0075
 21
20.618339999999989
 31
0.0
 12
11.2775
 22
20.663339999999991
 32
0.0
 13
11.2775
 23
20.663339999999991
 33
0.0
  0
SOLID
  5
3A5
  8
DIM
 62
     0
 10
12.047737
 20
20.70834
 30
0.0
 11
12.047737
 21
20.618339999999989
 31
0.0
 12
11.777737
 22
20.663339999999991
 32
0.0
 13
11.777737
 23
20.663339999999991
 33
0.0
  0
POINT
  5
3A6
  8
DEFPOINTS
 62
     0
 10
11.2775
 20
20.100427
 30
0.0
  0
POINT
  5
3A7
  8
DEFPOINTS
 62
     0
 10
11.777737
 20
19.637646
 30
0.0
  0
POINT
  5
3A8
  8
DEFPOINTS
 62
     0
 10
11.777737
 20
20.663339999999991
 30
0.0
  0
ENDBLK
  5
3AA
  8
0
  0
BLOCK
  8
0
  2
*D53
 70
     1
 10
0.0
 20
0.0
 30
0.0
  3
*D53
  1

  0
LINE
  5
3AD
  8
DIM
 62
     0
 10
8.1129999999999995
 20
20.356426999999989
 30
0.0
 11
6.4098959999999998
 21
20.356427
 31
0.0
  0
LINE
  5
3AE
  8
DIM
 62
     0
 10
8.1129999999999995
 20
17.905427
 30
0.0
 11
6.4098959999999989
 21
17.905427
 31
0.0
  0
LINE
  5
3AF
  8
DIM
 62
     0
 10
6.5493959999999998
 20
20.086427
 30
0.0
 11
6.5493959999999998
 21
19.359677000000001
 31
0.0
  0
LINE
  5
3B0
  8
DIM
 62
     0
 10
6.5493959999999998
 20
18.175426999999999
 30
0.0
 11
6.5493959999999998
 21
18.902176999999998
 31
0.0
  0
SOLID
  5
3B1
  8
DIM
 62
     0
 10
6.5043959999999998
 20
20.086427
 30
0.0
 11
6.5943959999999997
 21
20.086427
 31
0.0
 12
6.5493959999999998
 22
20.356427
 32
0.0
 13
6.5493959999999998
 23
20.356427
 33
0.0
  0
SOLID
  5
3B2
  8
DIM
 62
     0
 10
6.5043959999999998
 20
18.175426999999999
 30
0.0
 11
6.5943959999999997
 21
18.175426999999999
 31
0.0
 12
6.5493959999999989
 22
17.905427
 32
0.0
 13
6.5493959999999989
 23
17.905427
 33
0.0
  0
TEXT
  5
3B3
  8
OBJECT
 62
     0
 10
6.5025209999999971
 20
19.037177
 30
0.0
 40
0.1875
  1
F
 41
0.75
  0
POINT
  5
3B4
  8
DEFPOINTS
 62
     0
 10
8.2074999999999996
 20
20.356426999999989
 30
0.0
  0
POINT
  5
3B5
  8
DEFPOINTS
 62
     0
 10
8.2074999999999996
 20
17.905427
 30
0.0
  0
POINT
  5
3B6
  8
DEFPOINTS
 62
     0
 10
6.5493959999999989
 20
17.905427
 30
0.0
  0
ENDBLK
  5
3B8
  8
0
  0
BLOCK
  8
0
  2
*D54
 70
     1
 10
0.0
 20
0.0
 30
0.0
  3
*D54
  1

  0
LINE
  5
3BB
  8
DIM
 62
     0
 10
11.777737
 20
14.924143000000001
 30
0.0
 11
11.777737
 21
14.222832
 31
0.0
  0
LINE
  5
3BC
  8
DIM
 62
     0
 10
7.4512619999999989
 20
14.924143000000001
 30
0.0
 11
7.4512619999999989
 21
14.222832
 31
0.0
  0
LINE
  5
3BD
  8
DIM
 62
     0
 10
11.507737000000001
 20
14.362332
 30
0.0
 11
9.7963745000000007
 21
14.362332
 31
0.0
  0
LINE
  5
3BE
  8
DIM
 62
     0
 10
7.7212619999999994
 20
14.362332
 30
0.0
 11
9.4326245000000011
 21
14.362332
 31
0.0
  0
SOLID
  5
3BF
  8
DIM
 62
     0
 10
11.507737000000001
 20
14.407332
 30
0.0
 11
11.507737000000001
 21
14.317332
 31
0.0
 12
11.777737
 22
14.362332
 32
0.0
 13
11.777737
 23
14.362332
 33
0.0
  0
SOLID
  5
3C0
  8
DIM
 62
     0
 10
7.7212619999999994
 20
14.407332
 30
0.0
 11
7.7212619999999994
 21
14.317332
 31
0.0
 12
7.4512619999999989
 22
14.362332
 32
0.0
 13
7.4512619999999989
 23
14.362332
 33
0.0
  0
TEXT
  5
3C1
  8
OBJECT
 62
     0
 10
9.5676245000000009
 20
14.268582
 30
0.0
 40
0.1875
  1
E
 41
0.75
  0
POINT
  5
3C2
  8
DEFPOINTS
 62
     0
 10
11.777737
 20
15.018643000000001
 30
0.0
  0
POINT
  5
3C3
  8
DEFPOINTS
 62
     0
 10
7.4512619999999989
 20
15.018643000000001
 30
0.0
  0
POINT
  5
3C4
  8
DEFPOINTS
 62
     0
 10
7.4512619999999989
 20
14.362332
 30
0.0
  0
ENDBLK
  5
3C6
  8
0
  0
BLOCK
  8
0
  2
*D55
 70
     1
 10
0.0
 20
0.0
 30
0.0
  3
*D55
  1

  0
LINE
  5
3CD
  8
DIM
 62
     0
 10
7.9894999999999987
 20
16.113143000000001
 30
0.0
 11
7.9894999999999987
 21
16.904772000000001
 31
0.0
  0
LINE
  5
3CE
  8
DIM
 62
     0
 10
11.2395
 20
16.113143000000001
 30
0.0
 11
11.2395
 21
16.904772000000001
 31
0.0
  0
LINE
  5
3CF
  8
DIM
 62
     0
 10
8.2594999999999992
 20
16.765271999999989
 30
0.0
 11
9.4326249999999998
 21
16.765271999999989
 31
0.0
  0
LINE
  5
3D0
  8
DIM
 62
     0
 10
10.9695
 20
16.765271999999989
 30
0.0
 11
9.7963749999999994
 21
16.765271999999989
 31
0.0
  0
SOLID
  5
3D1
  8
DIM
 62
     0
 10
8.2594999999999992
 20
16.810272000000001
 30
0.0
 11
8.2594999999999992
 21
16.720271999999991
 31
0.0
 12
7.9894999999999987
 22
16.765271999999989
 32
0.0
 13
7.9894999999999987
 23
16.765271999999989
 33
0.0
  0
SOLID
  5
3D2
  8
DIM
 62
     0
 10
10.9695
 20
16.810272000000001
 30
0.0
 11
10.9695
 21
16.720271999999991
 31
0.0
 12
11.2395
 22
16.765271999999989
 32
0.0
 13
11.2395
 23
16.765271999999989
 33
0.0
  0
TEXT
  5
3D3
  8
OBJECT
 62
     0
 10
9.5676249999999996
 20
16.671522
 30
0.0
 40
0.1875
  1
A
 41
0.75
  0
POINT
  5
3D4
  8
DEFPOINTS
 62
     0
 10
7.9894999999999987
 20
16.018643000000001
 30
0.0
  0
POINT
  5
3D5
  8
DEFPOINTS
 62
     0
 10
11.2395
 20
16.018643000000001
 30
0.0
  0
POINT
  5
3D6
  8
DEFPOINTS
 62
     0
 10
11.2395
 20
16.765271999999989
 30
0.0
  0
ENDBLK
  5
3D8
  8
0
  0
BLOCK
  8
0
  2
*D56
 70
     1
 10
0.0
 20
0.0
 30
0.0
  3
*D56
  1

  0
LINE
  5
441
  8
DIM
 62
     0
 10
8.5267377372144715
 20
20.325248444429459
 30
0.0
 11
9.0712277352294777
 21
20.86973605671616
 31
0.0
  0
LINE
  5
442
  8
DIM
 62
     0
 10
8.2985107372144711
 20
20.55347644442946
 30
0.0
 11
8.8430007352294773
 21
21.097964056716162
 31
0.0
  0
LINE
  5
443
  8
DIM
 62
     0
 10
9.1635045358065792
 20
20.580175627659891
 30
0.0
 11
9.3544229484621901
 21
20.389256378475679
 31
0.0
  0
LINE
  5
444
  8
DIM
 62
     0
 10
8.5534407104953623
 20
21.190242126028309
 30
0.0
 11
8.3625222978397495
 21
21.381161375212521
 31
0.0
  0
TEXT
  5
445
  8
OBJECT
 62
     0
 10
8.8678956094590102
 20
21.070411890890909
 30
0.0
 40
0.1875
  1
0.323
 41
0.75
  0
SOLID
  5
446
  8
DIM
 62
     0
 10
9.1953244106706151
 20
20.611995363102491
 30
0.0
 11
9.1316846609425433
 21
20.548355892217291
 31
0.0
 12
8.9725861231509718
 22
20.771094876844099
 32
0.0
 13
8.9725861231509718
 23
20.771094876844099
 33
0.0
  0
SOLID
  5
447
  8
DIM
 62
     0
 10
8.5852605853593964
 20
21.222061861470909
 30
0.0
 11
8.5216208356313246
 21
21.158422390585699
 31
0.0
 12
8.7443591231509714
 22
20.999322876844101
 32
0.0
 13
8.7443591231509714
 23
20.999322876844101
 33
0.0
  0
POINT
  5
448
  8
DEFPOINTS
 62
     0
 10
8.4599159999999998
 20
20.25842699999999
 30
0.0
  0
POINT
  5
449
  8
DEFPOINTS
 62
     0
 10
8.2316889999999994
 20
20.486654999999988
 30
0.0
  0
POINT
  5
44A
  8
DEFPOINTS
 62
     0
 10
8.7443591231509714
 20
20.999322876844101
 30
0.0
  0
ENDBLK
  5
44C
  8
0
  0
BLOCK
  8
0
  2
*D57
 70
     1
 10
0.0
 20
0.0
 30
0.0
  3
*D57
  1

  0
LINE
  5
44F
  8
DIM
 62
     0
 10
7.9515339999999988
 20
15.054595000000001
 30
0.0
 11
7.9515339999999988
 21
14.597832
 31
0.0
  0
LINE
  5
450
  8
DIM
 62
     0
 10
11.277464999999991
 20
15.054595000000001
 30
0.0
 11
11.277464999999991
 21
14.597832
 31
0.0
  0
LINE
  5
451
  8
DIM
 62
     0
 10
8.2215340000000001
 20
14.737332
 30
0.0
 11
9.4326245000000011
 21
14.737332
 31
0.0
  0
LINE
  5
452
  8
DIM
 62
     0
 10
11.007465
 20
14.737332
 30
0.0
 11
9.7963745000000007
 21
14.737332
 31
0.0
  0
SOLID
  5
453
  8
DIM
 62
     0
 10
8.2215340000000001
 20
14.782332
 30
0.0
 11
8.2215340000000001
 21
14.692332
 31
0.0
 12
7.9515339999999988
 22
14.737332
 32
0.0
 13
7.9515339999999988
 23
14.737332
 33
0.0
  0
SOLID
  5
454
  8
DIM
 62
     0
 10
11.007465
 20
14.782332
 30
0.0
 11
11.007465
 21
14.692332
 31
0.0
 12
11.277464999999991
 22
14.737332
 32
0.0
 13
11.277464999999991
 23
14.737332
 33
0.0
  0
TEXT
  5
455
  8
OBJECT
 62
     0
 10
9.5676245000000009
 20
14.643582
 30
0.0
 40
0.1875
  1
G
 41
0.75
  0
POINT
  5
456
  8
DEFPOINTS
 62
     0
 10
7.9515339999999988
 20
15.149095000000001
 30
0.0
  0
POINT
  5
457
  8
DEFPOINTS
 62
     0
 10
11.277464999999991
 20
15.149095000000001
 30
0.0
  0
POINT
  5
458
  8
DEFPOINTS
 62
     0
 10
11.277464999999991
 20
14.737332
 30
0.0
  0
ENDBLK
  5
45A
  8
0
  0
BLOCK
  8
0
  2
*D58
 70
     1
 10
0.0
 20
0.0
 30
0.0
  3
*D58
  1

  0
LINE
  5
45D
  8
DIM
 62
     0
 10
11.5145
 20
19.036426999999989
 30
0.0
 11
11.5145
 21
17.042687000000001
 31
0.0
  0
LINE
  5
45E
  8
DIM
 62
     0
 10
7.7145000000000001
 20
19.036426999999989
 30
0.0
 11
7.7145000000000001
 21
17.042687000000001
 31
0.0
  0
LINE
  5
45F
  8
DIM
 62
     0
 10
11.2445
 20
17.182186999999988
 30
0.0
 11
9.7963749999999994
 21
17.182186999999988
 31
0.0
  0
LINE
  5
460
  8
DIM
 62
     0
 10
7.9844999999999997
 20
17.182186999999988
 30
0.0
 11
9.4326249999999998
 21
17.182186999999988
 31
0.0
  0
SOLID
  5
461
  8
DIM
 62
     0
 10
11.2445
 20
17.227187000000001
 30
0.0
 11
11.2445
 21
17.13718699999999
 31
0.0
 12
11.5145
 22
17.182186999999988
 32
0.0
 13
11.5145
 23
17.182186999999988
 33
0.0
  0
SOLID
  5
462
  8
DIM
 62
     0
 10
7.9844999999999997
 20
17.227187000000001
 30
0.0
 11
7.9844999999999997
 21
17.13718699999999
 31
0.0
 12
7.7145000000000001
 22
17.182186999999988
 32
0.0
 13
7.7145000000000001
 23
17.182186999999988
 33
0.0
  0
TEXT
  5
463
  8
OBJECT
 62
     0
 10
9.5676249999999996
 20
17.088436999999999
 30
0.0
 40
0.1875
  1
H
 41
0.75
  0
POINT
  5
464
  8
DEFPOINTS
 62
     0
 10
11.5145
 20
19.130926999999989
 30
0.0
  0
POINT
  5
465
  8
DEFPOINTS
 62
     0
 10
7.7145000000000001
 20
19.130926999999989
 30
0.0
  0
POINT
  5
466
  8
DEFPOINTS
 62
     0
 10
7.7145000000000001
 20
17.182186999999988
 30
0.0
  0
ENDBLK
  5
468
  8
0
  0
BLOCK
  8
0
  2
*D59
 70
     1
 10
0.0
 20
0.0
 30
0.0
  3
*D59
  1

  0
LINE
  5
4CE
  8
DIM
 62
     0
 10
13.04648999999999
 20
1.1183309999999991
 30
0.0
 11
13.04648999999999
 21
0.325477
 31
0.0
  0
LINE
  5
4CF
  8
DIM
 62
     0
 10
6.4520150000000003
 20
1.1183309999999991
 30
0.0
 11
6.4520150000000003
 21
0.325477
 31
0.0
  0
LINE
  5
4D0
  8
DIM
 62
     0
 10
12.776490000000001
 20
0.4649770000000001
 30
0.0
 11
10.165502500000001
 21
0.4649770000000001
 31
0.0
  0
LINE
  5
4D1
  8
DIM
 62
     0
 10
6.7220149999999999
 20
0.4649770000000001
 30
0.0
 11
9.3330024999999992
 21
0.4649770000000001
 31
0.0
  0
SOLID
  5
4D2
  8
DIM
 62
     0
 10
12.776490000000001
 20
0.5099770000000001
 30
0.0
 11
12.776490000000001
 21
0.4199770000000001
 31
0.0
 12
13.04648999999999
 22
0.4649770000000001
 32
0.0
 13
13.04648999999999
 23
0.4649770000000001
 33
0.0
  0
SOLID
  5
4D3
  8
DIM
 62
     0
 10
6.7220149999999999
 20
0.5099770000000001
 30
0.0
 11
6.7220149999999999
 21
0.4199770000000001
 31
0.0
 12
6.4520150000000003
 22
0.4649770000000001
 32
0.0
 13
6.4520150000000003
 23
0.4649770000000001
 33
0.0
  0
TEXT
  5
4D4
  8
OBJECT
 62
     0
 10
9.4680025000000008
 20
0.371227
 30
0.0
 40
0.1875
  1
6.594
 41
0.75
  0
POINT
  5
4D5
  8
DEFPOINTS
 62
     0
 10
13.04648999999999
 20
1.2128309999999991
 30
0.0
  0
POINT
  5
4D6
  8
DEFPOINTS
 62
     0
 10
6.4520150000000003
 20
1.2128309999999991
 30
0.0
  0
POINT
  5
4D7
  8
DEFPOINTS
 62
     0
 10
6.4520150000000003
 20
0.4649770000000001
 30
0.0
  0
ENDBLK
  5
4D9
  8
0
  0
BLOCK
  8
0
  2
*D60
 70
     1
 10
0.0
 20
0.0
 30
0.0
  3
*D60
  1

  0
LINE
  5
4E0
  8
DIM
 62
     0
 10
6.3522759999999989
 20
1.3378309999999991
 30
0.0
 11
6.0242990000000001
 21
1.3378309999999991
 31
0.0
  0
LINE
  5
4E1
  8
DIM
 62
     0
 10
6.3522759999999989
 20
1.2128309999999991
 30
0.0
 11
6.0242990000000001
 21
1.2128309999999991
 31
0.0
  0
LINE
  5
4E2
  8
DIM
 62
     0
 10
6.163799
 20
1.607831
 30
0.0
 11
6.163799
 21
1.877831
 31
0.0
  0
LINE
  5
4E3
  8
DIM
 62
     0
 10
6.163799
 20
0.9428309999999999
 30
0.0
 11
6.163799
 21
0.672831
 31
0.0
  0
TEXT
  5
4E4
  8
OBJECT
 62
     0
 10
5.5232052500000002
 20
1.181581
 30
0.0
 40
0.1875
  1
0.125
 41
0.75
  0
SOLID
  5
4E5
  8
DIM
 62
     0
 10
6.1187990000000001
 20
1.607831
 30
0.0
 11
6.2087989999999991
 21
1.607831
 31
0.0
 12
6.163799
 22
1.3378309999999991
 32
0.0
 13
6.163799
 23
1.3378309999999991
 33
0.0
  0
SOLID
  5
4E6
  8
DIM
 62
     0
 10
6.1187990000000001
 20
0.9428309999999999
 30
0.0
 11
6.2087989999999991
 21
0.9428309999999999
 31
0.0
 12
6.163799
 22
1.2128309999999991
 32
0.0
 13
6.163799
 23
1.2128309999999991
 33
0.0
  0
POINT
  5
4E7
  8
DEFPOINTS
 62
     0
 10
6.446775999999999
 20
1.3378309999999991
 30
0.0
  0
POINT
  5
4E8
  8
DEFPOINTS
 62
     0
 10
6.446775999999999
 20
1.2128309999999991
 30
0.0
  0
POINT
  5
4E9
  8
DEFPOINTS
 62
     0
 10
6.163799
 20
1.2128309999999991
 30
0.0
  0
ENDBLK
  5
4EB
  8
0
  0
BLOCK
  8
0
  2
*D61
 70
     1
 10
0.0
 20
0.0
 30
0.0
  3
*D61
  1

  0
LINE
  5
51B
  8
DIM
 62
     0
 10
6.9520149999999994
 20
1.2433309999999991
 30
0.0
 11
6.9520149999999994
 21
0.7004770000000001
 31
0.0
  0
LINE
  5
51C
  8
DIM
 62
     0
 10
12.54601499999999
 20
1.2433309999999991
 30
0.0
 11
12.54601499999999
 21
0.7004770000000001
 31
0.0
  0
LINE
  5
51D
  8
DIM
 62
     0
 10
7.2220149999999981
 20
0.839977
 30
0.0
 11
9.3327650000000002
 21
0.839977
 31
0.0
  0
LINE
  5
51E
  8
DIM
 62
     0
 10
12.276014999999999
 20
0.839977
 30
0.0
 11
10.165265
 21
0.839977
 31
0.0
  0
SOLID
  5
51F
  8
DIM
 62
     0
 10
7.2220149999999981
 20
0.8849770000000001
 30
0.0
 11
7.2220149999999981
 21
0.794977
 31
0.0
 12
6.9520149999999994
 22
0.839977
 32
0.0
 13
6.9520149999999994
 23
0.839977
 33
0.0
  0
SOLID
  5
520
  8
DIM
 62
     0
 10
12.276014999999999
 20
0.8849770000000001
 30
0.0
 11
12.276014999999999
 21
0.794977
 31
0.0
 12
12.54601499999999
 22
0.839977
 32
0.0
 13
12.54601499999999
 23
0.839977
 33
0.0
  0
TEXT
  5
521
  8
OBJECT
 62
     0
 10
9.4677649999999982
 20
0.7462270000000001
 30
0.0
 40
0.1875
  1
5.594
 41
0.75
  0
POINT
  5
522
  8
DEFPOINTS
 62
     0
 10
6.9520149999999994
 20
1.3378309999999991
 30
0.1875
  0
POINT
  5
523
  8
DEFPOINTS
 62
     0
 10
12.54601499999999
 20
1.3378309999999991
 30
0.1875
  0
POINT
  5
524
  8
DEFPOINTS
 62
     0
 10
12.54601499999999
 20
0.839977
 30
0.0
  0
ENDBLK
  5
526
  8
0
  0
BLOCK
  8
0
  2
*D62
 70
     1
 10
0.0
 20
0.0
 30
0.0
  3
*D62
  1

  0
LINE
  5
529
  8
DIM
 62
     0
 10
12.339226
 20
4.6626560000000001
 30
0.0
 11
13.674245999999989
 21
4.6626560000000001
 31
0.0
  0
LINE
  5
52A
  8
DIM
 62
     0
 10
12.889608000000001
 20
6.834655999999999
 30
0.0
 11
13.674245999999989
 21
6.834655999999999
 31
0.0
  0
LINE
  5
52B
  8
DIM
 62
     0
 10
13.53474599999999
 20
4.9326559999999997
 30
0.0
 11
13.53474599999999
 21
5.5199059999999998
 31
0.0
  0
LINE
  5
52C
  8
DIM
 62
     0
 10
13.53474599999999
 20
6.5646560000000003
 30
0.0
 11
13.53474599999999
 21
5.9774060000000002
 31
0.0
  0
SOLID
  5
52D
  8
DIM
 62
     0
 10
13.489746
 20
4.9326559999999997
 30
0.0
 11
13.579745999999989
 21
4.9326559999999997
 31
0.0
 12
13.53474599999999
 22
4.6626560000000001
 32
0.0
 13
13.53474599999999
 23
4.6626560000000001
 33
0.0
  0
SOLID
  5
52E
  8
DIM
 62
     0
 10
13.489746
 20
6.5646560000000003
 30
0.0
 11
13.579745999999989
 21
6.5646560000000003
 31
0.0
 12
13.53474599999999
 22
6.834655999999999
 32
0.0
 13
13.53474599999999
 23
6.834655999999999
 33
0.0
  0
TEXT
  5
52F
  8
OBJECT
 62
     0
 10
13.27693349999999
 20
5.6549060000000022
 30
0.0
 40
0.1875
  1
2.172
 41
0.75
  0
POINT
  5
530
  8
DEFPOINTS
 62
     0
 10
12.244726
 20
4.6626560000000001
 30
0.1875
  0
POINT
  5
531
  8
DEFPOINTS
 62
     0
 10
12.795108000000001
 20
6.834655999999999
 30
0.1875
  0
POINT
  5
532
  8
DEFPOINTS
 62
     0
 10
13.53474599999999
 20
6.834655999999999
 30
0.0
  0
ENDBLK
  5
534
  8
0
  0
BLOCK
  8
0
  2
*D63
 70
     1
 10
0.0
 20
0.0
 30
0.0
  3
*D63
  1

  0
LINE
  5
537
  8
DIM
 62
     0
 10
6.9990149999999991
 20
3.057331
 30
0.0
 11
6.9990149999999991
 21
3.7385769999999989
 31
0.0
  0
LINE
  5
538
  8
DIM
 62
     0
 10
12.499014999999989
 20
3.057331
 30
0.0
 11
12.499014999999989
 21
3.7385769999999989
 31
0.0
  0
LINE
  5
539
  8
DIM
 62
     0
 10
7.2690149999999987
 20
3.599076999999999
 30
0.0
 11
9.3562025000000002
 21
3.599076999999999
 31
0.0
  0
LINE
  5
53A
  8
DIM
 62
     0
 10
12.229015
 20
3.599076999999999
 30
0.0
 11
10.1418275
 21
3.599076999999999
 31
0.0
  0
SOLID
  5
53B
  8
DIM
 62
     0
 10
7.2690149999999987
 20
3.6440769999999989
 30
0.0
 11
7.2690149999999987
 21
3.554076999999999
 31
0.0
 12
6.9990149999999991
 22
3.599076999999999
 32
0.0
 13
6.9990149999999991
 23
3.599076999999999
 33
0.0
  0
SOLID
  5
53C
  8
DIM
 62
     0
 10
12.229015
 20
3.6440769999999989
 30
0.0
 11
12.229015
 21
3.554076999999999
 31
0.0
 12
12.499014999999989
 22
3.599076999999999
 32
0.0
 13
12.499014999999989
 23
3.599076999999999
 33
0.0
  0
TEXT
  5
53D
  8
OBJECT
 62
     0
 10
9.4912024999999982
 20
3.505326999999999
 30
0.0
 40
0.1875
  1
5.500
 41
0.75
  0
POINT
  5
53E
  8
DEFPOINTS
 62
     0
 10
6.9990149999999991
 20
2.9628309999999991
 30
0.1875
  0
POINT
  5
53F
  8
DEFPOINTS
 62
     0
 10
12.499014999999989
 20
2.9628309999999991
 30
0.1875
  0
POINT
  5
540
  8
DEFPOINTS
 62
     0
 10
12.499014999999989
 20
3.599076999999999
 30
0.0
  0
ENDBLK
  5
542
  8
0
  0
BLOCK
  8
0
  2
*D64
 70
     1
 10
0.0
 20
0.0
 30
0.0
  3
*D64
  1

  0
LINE
  5
545
  8
DIM
 62
     0
 10
3.269045999999999
 20
4.709655999999999
 30
0.0
 11
3.772412999999998
 21
4.709655999999999
 31
0.0
  0
LINE
  5
546
  8
DIM
 62
     0
 10
3.269045999999999
 20
8.9596559999999972
 30
0.0
 11
3.7724129999999989
 21
8.9596559999999972
 31
0.0
  0
LINE
  5
547
  8
DIM
 62
     0
 10
3.6329129999999981
 20
4.9796559999999994
 30
0.0
 11
3.6329129999999989
 21
6.6059059999999992
 31
0.0
  0
LINE
  5
548
  8
DIM
 62
     0
 10
3.6329129999999989
 20
8.6896559999999994
 30
0.0
 11
3.6329129999999989
 21
7.0634059999999979
 31
0.0
  0
SOLID
  5
549
  8
DIM
 62
     0
 10
3.587912999999999
 20
4.9796559999999994
 30
0.0
 11
3.677912999999998
 21
4.9796559999999994
 31
0.0
 12
3.6329129999999981
 22
4.709655999999999
 32
0.0
 13
3.6329129999999981
 23
4.709655999999999
 33
0.0
  0
SOLID
  5
54A
  8
DIM
 62
     0
 10
3.587912999999999
 20
8.6896559999999994
 30
0.0
 11
3.6779129999999989
 21
8.6896559999999994
 31
0.0
 12
3.6329129999999989
 22
8.9596559999999972
 32
0.0
 13
3.6329129999999989
 23
8.9596559999999972
 33
0.0
  0
TEXT
  5
54B
  8
OBJECT
 62
     0
 10
3.3633817499999981
 20
6.740905999999999
 30
0.0
 40
0.1875
  1
4.250
 41
0.75
  0
POINT
  5
54C
  8
DEFPOINTS
 62
     0
 10
3.174545999999999
 20
4.709655999999999
 30
0.1875
  0
POINT
  5
54D
  8
DEFPOINTS
 62
     0
 10
3.174545999999999
 20
8.9596559999999972
 30
0.1875
  0
POINT
  5
54E
  8
DEFPOINTS
 62
     0
 10
3.6329129999999989
 20
8.9596559999999972
 30
0.0
  0
ENDBLK
  5
550
  8
0
  0
BLOCK
  8
0
  2
*D65
 70
     1
 10
0.0
 20
0.0
 30
0.0
  3
*D65
  1

  0
LINE
  5
553
  8
DIM
 62
     0
 10
6.943725999999999
 20
8.8041559999999972
 30
0.0
 11
6.943725999999999
 21
9.5115100000000012
 31
0.0
  0
LINE
  5
554
  8
DIM
 62
     0
 10
6.443725999999999
 20
8.3009020000000007
 30
0.0
 11
6.443725999999999
 21
9.5115100000000012
 31
0.0
  0
LINE
  5
555
  8
DIM
 62
     0
 10
7.2137259999999994
 20
9.3720100000000013
 30
0.0
 11
7.483725999999999
 21
9.3720100000000013
 31
0.0
  0
LINE
  5
556
  8
DIM
 62
     0
 10
6.1737260000000003
 20
9.3720100000000013
 30
0.0
 11
5.9037259999999989
 21
9.3720100000000013
 31
0.0
  0
TEXT
  5
557
  8
OBJECT
 62
     0
 10
6.447632249999999
 20
9.672760000000002
 30
0.0
 40
0.1875
  1
0.500
 41
0.75
  0
SOLID
  5
558
  8
DIM
 62
     0
 10
7.2137259999999994
 20
9.4170100000000012
 30
0.0
 11
7.2137259999999994
 21
9.3270100000000014
 31
0.0
 12
6.943725999999999
 22
9.3720100000000013
 32
0.0
 13
6.943725999999999
 23
9.3720100000000013
 33
0.0
  0
SOLID
  5
559
  8
DIM
 62
     0
 10
6.1737260000000003
 20
9.4170100000000012
 30
0.0
 11
6.1737260000000003
 21
9.3270100000000014
 31
0.0
 12
6.443725999999999
 22
9.3720100000000013
 32
0.0
 13
6.443725999999999
 23
9.3720100000000013
 33
0.0
  0
POINT
  5
55A
  8
DEFPOINTS
 62
     0
 10
6.943725999999999
 20
8.7096559999999972
 30
0.1875
  0
POINT
  5
55B
  8
DEFPOINTS
 62
     0
 10
6.443725999999999
 20
8.2064020000000006
 30
0.1875
  0
POINT
  5
55C
  8
DEFPOINTS
 62
     0
 10
6.443725999999999
 20
9.3720100000000013
 30
0.0
  0
ENDBLK
  5
55E
  8
0
  0
BLOCK
  8
0
  2
*D66
 70
     1
 10
0.0
 20
0.0
 30
0.0
  3
*D66
  1

  0
LINE
  5
561
  8
DIM
 62
     0
 10
1.5145459999999991
 20
6.5280610000000001
 30
0.0
 11
1.5145459999999991
 21
6.6192500000000001
 31
0.0
  0
LINE
  5
562
  8
DIM
 62
     0
 10
1.424545999999999
 20
6.5280610000000001
 30
0.0
 11
1.424545999999999
 21
6.6192500000000001
 31
0.0
  0
LINE
  5
563
  8
DIM
 62
     0
 10
1.7845459999999991
 20
6.4797500000000001
 30
0.0
 11
2.0545460000000002
 21
6.4797500000000001
 31
0.0
  0
LINE
  5
564
  8
DIM
 62
     0
 10
1.154545999999999
 20
6.4797500000000001
 30
0.0
 11
0.8845459999999999
 21
6.4797500000000001
 31
0.0
  0
TEXT
  5
565
  8
OBJECT
 62
     0
 10
1.2234522499999989
 20
6.7804999999999991
 30
0.0
 40
0.1875
  1
0.090
 41
0.75
  0
SOLID
  5
566
  8
DIM
 62
     0
 10
1.7845459999999991
 20
6.52475
 30
0.0
 11
1.7845459999999991
 21
6.4347500000000002
 31
0.0
 12
1.5145459999999991
 22
6.4797500000000001
 32
0.0
 13
1.5145459999999991
 23
6.4797500000000001
 33
0.0
  0
SOLID
  5
567
  8
DIM
 62
     0
 10
1.154545999999999
 20
6.52475
 30
0.0
 11
1.154545999999999
 21
6.4347500000000002
 31
0.0
 12
1.424545999999999
 22
6.4797500000000001
 32
0.0
 13
1.424545999999999
 23
6.4797500000000001
 33
0.0
  0
POINT
  5
568
  8
DEFPOINTS
 62
     0
 10
1.5145459999999991
 20
6.4335610000000001
 30
0.1875
  0
POINT
  5
569
  8
DEFPOINTS
 62
     0
 10
1.424545999999999
 20
6.4335610000000001
 30
0.1875
  0
POINT
  5
56A
  8
DEFPOINTS
 62
     0
 10
1.424545999999999
 20
6.4797500000000001
 30
0.0
  0
ENDBLK
  5
56C
  8
0
  0
BLOCK
  8
0
  2
*D67
 70
     1
 10
0.0
 20
0.0
 30
0.0
  3
*D67
  1

  0
LINE
  5
56F
  8
DIM
 62
     0
 10
12.795108000000001
 20
6.7401559999999989
 30
0.0
 11
12.795108000000001
 21
3.872873999999999
 31
0.0
  0
LINE
  5
570
  8
DIM
 62
     0
 10
6.6951080000000003
 20
6.7401559999999989
 30
0.0
 11
6.6951080000000003
 21
3.872873999999999
 31
0.0
  0
LINE
  5
571
  8
DIM
 62
     0
 10
12.525107999999999
 20
4.0123739999999994
 30
0.0
 11
10.114483
 21
4.0123739999999994
 31
0.0
  0
LINE
  5
572
  8
DIM
 62
     0
 10
6.9651079999999999
 20
4.0123739999999994
 30
0.0
 11
9.3757330000000021
 21
4.0123739999999994
 31
0.0
  0
SOLID
  5
573
  8
DIM
 62
     0
 10
12.525107999999999
 20
4.0573739999999994
 30
0.0
 11
12.525107999999999
 21
3.9673739999999991
 31
0.0
 12
12.795108000000001
 22
4.0123739999999994
 32
0.0
 13
12.795108000000001
 23
4.0123739999999994
 33
0.0
  0
SOLID
  5
574
  8
DIM
 62
     0
 10
6.9651079999999999
 20
4.0573739999999994
 30
0.0
 11
6.9651079999999999
 21
3.9673739999999991
 31
0.0
 12
6.6951080000000003
 22
4.0123739999999994
 32
0.0
 13
6.6951080000000003
 23
4.0123739999999994
 33
0.0
  0
TEXT
  5
575
  8
OBJECT
 62
     0
 10
9.5107330000000019
 20
3.918623999999999
 30
0.0
 40
0.1875
  1
6.100
 41
0.75
  0
POINT
  5
576
  8
DEFPOINTS
 62
     0
 10
12.795108000000001
 20
6.834655999999999
 30
0.1875
  0
POINT
  5
577
  8
DEFPOINTS
 62
     0
 10
6.6951080000000003
 20
6.834655999999999
 30
0.1875
  0
POINT
  5
578
  8
DEFPOINTS
 62
     0
 10
6.6951080000000003
 20
4.0123739999999994
 30
0.0
  0
ENDBLK
  5
57A
  8
0
  0
BLOCK
  8
0
  2
*D68
 70
     1
 10
0.0
 20
0.0
 30
0.0
  3
*D68
  1

  0
LINE
  5
57D
  8
DIM
 62
     0
 10
7.1462259999999986
 20
9.0066559999999996
 30
0.0
 11
4.9879800000000012
 21
9.0066559999999996
 31
0.0
  0
LINE
  5
57E
  8
DIM
 62
     0
 10
7.1462259999999986
 20
4.6626560000000001
 30
0.0
 11
4.9879800000000003
 21
4.662656000000001
 31
0.0
  0
LINE
  5
57F
  8
DIM
 62
     0
 10
5.1274800000000011
 20
8.7366559999999982
 30
0.0
 11
5.1274800000000011
 21
7.0634059999999996
 31
0.0
  0
LINE
  5
580
  8
DIM
 62
     0
 10
5.1274800000000003
 20
4.9326559999999997
 30
0.0
 11
5.1274800000000011
 21
6.6059060000000001
 31
0.0
  0
SOLID
  5
581
  8
DIM
 62
     0
 10
5.0824800000000012
 20
8.7366559999999982
 30
0.0
 11
5.1724800000000011
 21
8.7366559999999982
 31
0.0
 12
5.1274800000000011
 22
9.0066559999999996
 32
0.0
 13
5.1274800000000011
 23
9.0066559999999996
 33
0.0
  0
SOLID
  5
582
  8
DIM
 62
     0
 10
5.0824800000000003
 20
4.9326559999999997
 30
0.0
 11
5.1724800000000002
 21
4.9326559999999997
 31
0.0
 12
5.1274800000000003
 22
4.662656000000001
 32
0.0
 13
5.1274800000000003
 23
4.662656000000001
 33
0.0
  0
TEXT
  5
583
  8
OBJECT
 62
     0
 10
4.8462299999999994
 20
6.7409060000000007
 30
0.0
 40
0.1875
  1
4.344
 41
0.75
  0
POINT
  5
584
  8
DEFPOINTS
 62
     0
 10
7.2407259999999987
 20
9.0066559999999996
 30
0.1875
  0
POINT
  5
585
  8
DEFPOINTS
 62
     0
 10
7.2407259999999987
 20
4.6626560000000001
 30
0.1875
  0
POINT
  5
586
  8
DEFPOINTS
 62
     0
 10
5.1274800000000003
 20
4.662656000000001
 30
0.0
  0
ENDBLK
  5
588
  8
0
  0
BLOCK
  8
0
  2
*D69
 70
     1
 10
0.0
 20
0.0
 30
0.0
  3
*D69
  1

  0
LINE
  5
58B
  8
DIM
 62
     0
 10
1.424545999999999
 20
4.6931560000000001
 30
0.0
 11
1.424545999999999
 21
4.1380600000000003
 31
0.0
  0
LINE
  5
58C
  8
DIM
 62
     0
 10
3.174545999999999
 20
4.6151559999999989
 30
0.0
 11
3.174545999999999
 21
4.1380600000000003
 31
0.0
  0
LINE
  5
58D
  8
DIM
 62
     0
 10
1.694545999999999
 20
4.2775600000000003
 30
0.0
 11
1.918452249999999
 21
4.2775600000000003
 31
0.0
  0
LINE
  5
58E
  8
DIM
 62
     0
 10
2.904545999999999
 20
4.2775600000000003
 30
0.0
 11
2.6806397500000001
 21
4.2775600000000003
 31
0.0
  0
SOLID
  5
58F
  8
DIM
 62
     0
 10
1.694545999999999
 20
4.3225600000000002
 30
0.0
 11
1.694545999999999
 21
4.2325600000000003
 31
0.0
 12
1.424545999999999
 22
4.2775600000000003
 32
0.0
 13
1.424545999999999
 23
4.2775600000000003
 33
0.0
  0
SOLID
  5
590
  8
DIM
 62
     0
 10
2.904545999999999
 20
4.3225600000000002
 30
0.0
 11
2.904545999999999
 21
4.2325600000000003
 31
0.0
 12
3.174545999999999
 22
4.2775600000000003
 32
0.0
 13
3.174545999999999
 23
4.2775600000000003
 33
0.0
  0
TEXT
  5
591
  8
OBJECT
 62
     0
 10
2.053452249999999
 20
4.1838100000000003
 30
0.0
 40
0.1875
  1
1.750
 41
0.75
  0
POINT
  5
592
  8
DEFPOINTS
 62
     0
 10
1.424545999999999
 20
4.7876560000000001
 30
0.1875
  0
POINT
  5
593
  8
DEFPOINTS
 62
     0
 10
3.174545999999999
 20
4.709655999999999
 30
0.1875
  0
POINT
  5
594
  8
DEFPOINTS
 62
     0
 10
3.174545999999999
 20
4.2775600000000003
 30
0.0
  0
ENDBLK
  5
596
  8
0
  0
BLOCK
  8
0
  2
*D70
 70
     1
 10
0.0
 20
0.0
 30
0.0
  3
*D70
  1

  0
LINE
  5
599
  8
DIM
 62
     0
 10
6.9045149999999991
 20
2.9628309999999991
 30
0.0
 11
6.3432379999999986
 21
2.9628309999999991
 31
0.0
  0
LINE
  5
59A
  8
DIM
 62
     0
 10
7.1545149999999991
 20
2.9008310000000002
 30
0.0
 11
6.3432379999999986
 21
2.9008310000000002
 31
0.0
  0
LINE
  5
59B
  8
DIM
 62
     0
 10
6.4827379999999986
 20
3.232831
 30
0.0
 11
6.4827379999999986
 21
3.502831
 31
0.0
  0
LINE
  5
59C
  8
DIM
 62
     0
 10
6.4827379999999986
 20
2.6308310000000001
 30
0.0
 11
6.4827379999999986
 21
2.3608310000000001
 31
0.0
  0
TEXT
  5
59D
  8
OBJECT
 62
     0
 10
5.8304254999999978
 20
2.8380810000000012
 30
0.0
 40
0.1875
  1
0.062
 41
0.75
  0
SOLID
  5
59E
  8
DIM
 62
     0
 10
6.4377379999999986
 20
3.232831
 30
0.0
 11
6.5277379999999994
 21
3.232831
 31
0.0
 12
6.4827379999999986
 22
2.9628309999999991
 32
0.0
 13
6.4827379999999986
 23
2.9628309999999991
 33
0.0
  0
SOLID
  5
59F
  8
DIM
 62
     0
 10
6.4377379999999986
 20
2.6308310000000001
 30
0.0
 11
6.5277379999999994
 21
2.6308310000000001
 31
0.0
 12
6.4827379999999986
 22
2.9008310000000002
 32
0.0
 13
6.4827379999999986
 23
2.9008310000000002
 33
0.0
  0
POINT
  5
5A0
  8
DEFPOINTS
 62
     0
 10
6.9990149999999991
 20
2.9628309999999991
 30
0.1875
  0
POINT
  5
5A1
  8
DEFPOINTS
 62
     0
 10
7.2490149999999991
 20
2.9008310000000002
 30
0.1875
  0
POINT
  5
5A2
  8
DEFPOINTS
 62
     0
 10
6.4827379999999986
 20
2.9008310000000002
 30
0.0
  0
ENDBLK
  5
5A4
  8
0
  0
BLOCK
  8
0
  2
*D71
 70
     1
 10
0.0
 20
0.0
 30
0.0
  3
*D71
  1

  0
LINE
  5
5A7
  8
DIM
 62
     0
 10
12.54172599999999
 20
8.8041559999999972
 30
0.0
 11
12.54172599999999
 21
9.5115100000000012
 31
0.0
  0
LINE
  5
5A8
  8
DIM
 62
     0
 10
13.041726000000001
 20
8.3009020000000007
 30
0.0
 11
13.041726000000001
 21
9.5115100000000012
 31
0.0
  0
LINE
  5
5A9
  8
DIM
 62
     0
 10
12.271725999999999
 20
9.3720100000000013
 30
0.0
 11
12.001725999999991
 21
9.3720100000000013
 31
0.0
  0
LINE
  5
5AA
  8
DIM
 62
     0
 10
13.31172599999999
 20
9.3720100000000013
 30
0.0
 11
13.581726
 21
9.3720100000000013
 31
0.0
  0
TEXT
  5
5AB
  8
OBJECT
 62
     0
 10
12.545632250000001
 20
9.672760000000002
 30
0.0
 40
0.1875
  1
0.500
 41
0.75
  0
SOLID
  5
5AC
  8
DIM
 62
     0
 10
12.271725999999999
 20
9.4170100000000012
 30
0.0
 11
12.271725999999999
 21
9.3270100000000014
 31
0.0
 12
12.54172599999999
 22
9.3720100000000013
 32
0.0
 13
12.54172599999999
 23
9.3720100000000013
 33
0.0
  0
SOLID
  5
5AD
  8
DIM
 62
     0
 10
13.31172599999999
 20
9.4170100000000012
 30
0.0
 11
13.31172599999999
 21
9.3270100000000014
 31
0.0
 12
13.041726000000001
 22
9.3720100000000013
 32
0.0
 13
13.041726000000001
 23
9.3720100000000013
 33
0.0
  0
POINT
  5
5AE
  8
DEFPOINTS
 62
     0
 10
12.54172599999999
 20
8.7096559999999972
 30
0.1875
  0
POINT
  5
5AF
  8
DEFPOINTS
 62
     0
 10
13.041726000000001
 20
8.2064020000000006
 30
0.1875
  0
POINT
  5
5B0
  8
DEFPOINTS
 62
     0
 10
13.041726000000001
 20
9.3720100000000013
 30
0.0
  0
ENDBLK
  5
5B2
  8
0
  0
BLOCK
  8
0
  2
*D72
 70
     1
 10
0.0
 20
0.0
 30
0.0
  3
*D72
  1

  0
LINE
  5
60B
  8
DIM
 62
     0
 10
12.497728999999991
 20
3.0528309999999999
 30
0.0
 11
13.626229
 21
3.052830999999999
 31
0.0
  0
LINE
  5
60C
  8
DIM
 62
     0
 10
13.073240999999999
 20
1.2128309999999991
 30
0.0
 11
13.626229
 21
1.2128309999999991
 31
0.0
  0
LINE
  5
60D
  8
DIM
 62
     0
 10
13.486729
 20
2.7828309999999989
 30
0.0
 11
13.486729
 21
2.3615809999999988
 31
0.0
  0
LINE
  5
60E
  8
DIM
 62
     0
 10
13.486729
 20
1.482831
 30
0.0
 11
13.486729
 21
1.9040809999999999
 31
0.0
  0
SOLID
  5
60F
  8
DIM
 62
     0
 10
13.441729
 20
2.7828309999999989
 30
0.0
 11
13.531729
 21
2.7828309999999989
 31
0.0
 12
13.486729
 22
3.052830999999999
 32
0.0
 13
13.486729
 23
3.052830999999999
 33
0.0
  0
SOLID
  5
610
  8
DIM
 62
     0
 10
13.441729
 20
1.482831
 30
0.0
 11
13.531729
 21
1.4828309999999989
 31
0.0
 12
13.486729
 22
1.2128309999999991
 32
0.0
 13
13.486729
 23
1.2128309999999991
 33
0.0
  0
TEXT
  5
611
  8
OBJECT
 62
     0
 10
13.24063525
 20
2.0390810000000021
 30
0.0
 40
0.1875
  1
1.840
 41
0.75
  0
POINT
  5
612
  8
DEFPOINTS
 62
     0
 10
12.403229
 20
3.0528309999999999
 30
0.1875
  0
POINT
  5
613
  8
DEFPOINTS
 62
     0
 10
12.978740999999999
 20
1.2128309999999991
 30
0.1875
  0
POINT
  5
614
  8
DEFPOINTS
 62
     0
 10
13.486729
 20
1.2128309999999991
 30
0.0
  0
ENDBLK
  5
616
  8
0
  0
BLOCK
  8
0
  2
*D73
 70
     1
 10
0.0
 20
0.0
 30
0.0
  3
*D73
  1

  0
LINE
  5
841
  8
DIM
 62
     0
 10
11.277464999999991
 20
15.550872
 30
0.0
 11
11.277464999999999
 21
16.591632187297819
 31
0.0
  0
LINE
  5
842
  8
DIM
 62
     0
 10
11.235377998841919
 20
16.113053058290689
 30
0.0
 11
11.21454288405698
 21
16.590259232161738
 31
0.0
  0
ARC
  5
843
  8
DIM
 62
     0
 10
11.277464999999991
 20
15.149095000000001
 30
0.0
 40
1.3030371872978179
 50
66.213004129213104
 51
78.106502064606488
  0
ARC
  5
844
  8
DIM
 62
     0
 10
11.277464999999991
 20
15.149095000000001
 30
0.0
 40
1.3030371872978179
 50
104.3934791536382
 51
116.28697708903159
  0
ARC
  5
845
  8
DIM
 62
     0
 10
11.277464999999991
 20
15.149095000000001
 30
0.0
 40
1.3030371872978179
 50
89.999999999999915
 51
92.499981218244798
  0
SOLID
  5
846
  8
DIM
 62
     0
 10
11.54134984142984
 20
16.37940124159006
 30
0.0
 11
11.550674210771289
 21
16.468916916956911
 31
0.0
 12
11.277464999999991
 22
16.452132187297821
 32
0.0
 13
11.277464999999991
 23
16.452132187297821
 33
0.0
  0
SOLID
  5
847
  8
DIM
 62
     0
 10
10.946946428734091
 20
16.455743628889358
 30
0.0
 11
10.96016651307883
 21
16.366719871555048
 31
0.0
 12
11.220627742909381
 22
16.450892003256431
 32
0.0
 13
11.220627742909381
 23
16.450892003256431
 33
0.0
  0
TEXT
  8
0
  40
0.1875
  5
8F4
  62
0
  72
0
  71
0
 10
12.1325
 20
16.0472
 30
0.000000
  1
1%%d30' REF.
  0
POINT
  5
849
  8
DEFPOINTS
 62
     0
 10
11.23956681453523
 20
16.451580945804981
 30
0.0
  0
POINT
  5
84A
  8
DEFPOINTS
 62
     0
 10
11.277464999999991
 20
15.14909499999999
 30
0.0
  0
POINT
  5
84B
  8
DEFPOINTS
 62
     0
 10
11.277464999999991
 20
15.14909499999999
 30
0.0
  0
POINT
  5
84C
  8
DEFPOINTS
 62
     0
 10
11.277464999999991
 20
15.456371999999989
 30
0.0
  0
POINT
  5
84D
  8
DEFPOINTS
 62
     0
 10
11.2395
 20
16.01864299999999
 30
0.0
  0
ENDBLK
  5
628
  8
0
  0
BLOCK
  8
0
  2
*D74
 70
     1
 10
0.0
 20
0.0
 30
0.0
  3
*D74
  1

  0
LINE
  5
84E
  8
DIM
 62
     0
 10
12.53698
 20
1.903849000000001
 30
0.0
 11
12.53698
 21
3.4896057207099309
 31
0.0
  0
LINE
  5
84F
  8
DIM
 62
     0
 10
12.49655978225762
 20
3.0572990999376901
 30
0.0
 11
12.48534160788723
 21
3.4889347953180558
 31
0.0
  0
ARC
  5
850
  8
DIM
 62
     0
 10
12.536979999999989
 20
1.502071999999999
 30
0.0
 40
1.848033720709932
 50
73.24310610266437
 51
81.621553051332057
  0
ARC
  5
851
  8
DIM
 62
     0
 10
12.536979999999989
 20
1.502071999999999
 30
0.0
 40
1.848033720709932
 50
99.867224149463354
 51
108.245671098131
  0
ARC
  5
852
  8
DIM
 62
     0
 10
12.536979999999989
 20
1.502071999999999
 30
0.0
 40
1.848033720709932
 50
89.999999999999758
 51
91.488777200795639
  0
SOLID
  5
853
  8
DIM
 62
     0
 10
12.802971345677291
 20
3.2855022840769812
 30
0.0
 11
12.80954590103515
 21
3.375261825195718
 31
0.0
 12
12.53698
 22
3.350105720709931
 32
0.0
 13
12.53698
 23
3.350105720709931
 33
0.0
  0
SOLID
  5
854
  8
DIM
 62
     0
 10
12.21583850082272
 20
3.367547925636686
 30
0.0
 11
12.22474289204489
 21
3.2779894988027878
 31
0.0
 12
12.4889659769355
 22
3.349481885886227
 32
0.0
 13
12.4889659769355
 23
3.349481885886227
 33
0.0
  0
TEXT
  8
0
  40
0.1875
  5
8F5
  62
0
  72
0
  71
0
 10
13.3678
 20
2.94509
 30
0.000000
  1
1%%d30' REF.
  0
POINT
  5
856
  8
DEFPOINTS
 62
     0
 10
12.504968650069889
 20
3.3498284521215029
 30
0.0
  0
POINT
  5
857
  8
DEFPOINTS
 62
     0
 10
12.536979999999989
 20
1.5020720000000001
 30
0.0
  0
POINT
  5
858
  8
DEFPOINTS
 62
     0
 10
12.536979999999989
 20
1.5020720000000001
 30
0.0
  0
POINT
  5
859
  8
DEFPOINTS
 62
     0
 10
12.536979999999989
 20
1.8093490000000001
 30
0.0
  0
POINT
  5
85A
  8
DEFPOINTS
 62
     0
 10
12.499014999999989
 20
2.9628310000000009
 30
0.0
  0
ENDBLK
  5
639
  8
0
  0
BLOCK
  8
0
  2
*D75
 70
     1
 10
0.0
 20
0.0
 30
0.0
  3
*D75
  1

  0
LINE
  5
63E
  8
DIM
 62
     0
 10
12.795108000000001
 20
6.7401559999999989
 30
0.0
 11
12.795108000000001
 21
3.872873999999999
 31
0.0
  0
LINE
  5
63F
  8
DIM
 62
     0
 10
13.04648999999999
 20
5.368409999999999
 30
0.0
 11
13.04648999999999
 21
3.872873999999999
 31
0.0
  0
LINE
  5
640
  8
DIM
 62
     0
 10
12.525107999999999
 20
4.0123739999999994
 30
0.0
 11
12.255108
 21
4.0123739999999994
 31
0.0
  0
LINE
  5
641
  8
DIM
 62
     0
 10
13.316489999999989
 20
4.0123739999999994
 30
0.0
 11
13.586489999999991
 21
4.0123739999999994
 31
0.0
  0
TEXT
  5
642
  8
OBJECT
 62
     0
 10
12.674705250000001
 20
3.3366239999999991
 30
0.0
 40
0.1875
  1
0.251
 41
0.75
  0
SOLID
  5
643
  8
DIM
 62
     0
 10
12.525107999999999
 20
4.0573739999999994
 30
0.0
 11
12.525107999999999
 21
3.9673739999999991
 31
0.0
 12
12.795108000000001
 22
4.0123739999999994
 32
0.0
 13
12.795108000000001
 23
4.0123739999999994
 33
0.0
  0
SOLID
  5
644
  8
DIM
 62
     0
 10
13.316489999999989
 20
4.0573739999999994
 30
0.0
 11
13.316489999999989
 21
3.9673739999999991
 31
0.0
 12
13.04648999999999
 22
4.0123739999999994
 32
0.0
 13
13.04648999999999
 23
4.0123739999999994
 33
0.0
  0
POINT
  5
645
  8
DEFPOINTS
 62
     0
 10
12.795108000000001
 20
6.834655999999999
 30
0.1875
  0
POINT
  5
646
  8
DEFPOINTS
 62
     0
 10
13.04648999999999
 20
5.462909999999999
 30
0.1875
  0
POINT
  5
647
  8
DEFPOINTS
 62
     0
 10
13.04648999999999
 20
4.0123739999999994
 30
0.0
  0
ENDBLK
  5
649
  8
0
  0
BLOCK
  8
0
  2
*D76
 70
     1
 10
0.0
 20
0.0
 30
0.0
  3
*D76
  1

  0
LINE
  5
68F
  8
DIM
 62
     0
 10
5.1107769999999988
 20
20.332426999999999
 30
0.0
 11
5.1107769999999988
 21
20.803163999999999
 31
0.0
  0
LINE
  5
690
  8
DIM
 62
     0
 10
5.030276999999999
 20
20.412927
 30
0.0
 11
5.030276999999999
 21
20.803163999999999
 31
0.0
  0
LINE
  5
691
  8
DIM
 62
     0
 10
5.3807770000000001
 20
20.663664000000001
 30
0.0
 11
5.6507769999999988
 21
20.663664000000001
 31
0.0
  0
LINE
  5
692
  8
DIM
 62
     0
 10
4.7602770000000003
 20
20.663664000000001
 30
0.0
 11
4.490276999999999
 21
20.663664000000001
 31
0.0
  0
TEXT
  5
693
  8
OBJECT
 62
     0
 10
4.8361520000000002
 20
20.964414000000001
 30
0.0
 40
0.1875
  1
0.081
 41
0.75
  0
SOLID
  5
694
  8
DIM
 62
     0
 10
5.3807770000000001
 20
20.708663999999999
 30
0.0
 11
5.3807770000000001
 21
20.618663999999988
 31
0.0
 12
5.1107769999999988
 22
20.663664000000001
 32
0.0
 13
5.1107769999999988
 23
20.663664000000001
 33
0.0
  0
SOLID
  5
695
  8
DIM
 62
     0
 10
4.7602770000000003
 20
20.708663999999999
 30
0.0
 11
4.7602770000000003
 21
20.618663999999988
 31
0.0
 12
5.030276999999999
 22
20.663664000000001
 32
0.0
 13
5.030276999999999
 23
20.663664000000001
 33
0.0
  0
POINT
  5
696
  8
DEFPOINTS
 62
     0
 10
5.1107769999999988
 20
20.237926999999988
 30
0.0
  0
POINT
  5
697
  8
DEFPOINTS
 62
     0
 10
5.030276999999999
 20
20.318426999999989
 30
0.0
  0
POINT
  5
698
  8
DEFPOINTS
 62
     0
 10
5.030276999999999
 20
20.663664000000001
 30
0.0
  0
ENDBLK
  5
69A
  8
0
  0
BLOCK
  8
0
  2
*D77
 70
     1
 10
0.0
 20
0.0
 30
0.0
  3
*D77
  1

  0
LINE
  5
6C1
  8
DIM
 62
     0
 10
7.5857259999999993
 20
8.2721559999999972
 30
0.0
 11
5.8052339999999996
 21
8.2721559999999972
 31
0.0
  0
LINE
  5
6C2
  8
DIM
 62
     0
 10
7.5857259999999993
 20
5.397155999999999
 30
0.0
 11
5.8052339999999987
 21
5.3971559999999998
 31
0.0
  0
LINE
  5
6C3
  8
DIM
 62
     0
 10
5.9447340000000004
 20
8.0021559999999994
 30
0.0
 11
5.9447340000000004
 21
7.0634059999999996
 31
0.0
  0
LINE
  5
6C4
  8
DIM
 62
     0
 10
5.9447339999999986
 20
5.6671560000000012
 30
0.0
 11
5.9447340000000004
 21
6.6059060000000001
 31
0.0
  0
SOLID
  5
6C5
  8
DIM
 62
     0
 10
5.8997339999999996
 20
8.0021559999999994
 30
0.0
 11
5.9897340000000003
 21
8.0021559999999994
 31
0.0
 12
5.9447340000000004
 22
8.2721559999999972
 32
0.0
 13
5.9447340000000004
 23
8.2721559999999972
 33
0.0
  0
SOLID
  5
6C6
  8
DIM
 62
     0
 10
5.8997339999999987
 20
5.6671560000000012
 30
0.0
 11
5.9897339999999986
 21
5.6671560000000012
 31
0.0
 12
5.9447339999999986
 22
5.3971559999999998
 32
0.0
 13
5.9447339999999986
 23
5.3971559999999998
 33
0.0
  0
TEXT
  5
6C7
  8
OBJECT
 62
     0
 10
5.6634839999999977
 20
6.7409060000000007
 30
0.0
 40
0.1875
  1
2.875
 41
0.75
  0
POINT
  5
6C8
  8
DEFPOINTS
 62
     0
 10
7.6802259999999993
 20
8.2721559999999972
 30
0.1875
  0
POINT
  5
6C9
  8
DEFPOINTS
 62
     0
 10
7.6802259999999993
 20
5.397155999999999
 30
0.1875
  0
POINT
  5
6CA
  8
DEFPOINTS
 62
     0
 10
5.9447339999999986
 20
5.3971559999999998
 30
0.0
  0
ENDBLK
  5
6CC
  8
0
  0
BLOCK
  8
0
  2
*D78
 70
     1
 10
0.0
 20
0.0
 30
0.0
  3
*D78
  1

  0
LINE
  5
6CF
  8
DIM
 62
     0
 10
7.6802259999999993
 20
5.3026559999999989
 30
0.0
 11
7.6802259999999993
 21
4.2478739999999986
 31
0.0
  0
LINE
  5
6D0
  8
DIM
 62
     0
 10
11.80522599999999
 20
5.3026559999999989
 30
0.0
 11
11.80522599999999
 21
4.2478739999999986
 31
0.0
  0
LINE
  5
6D1
  8
DIM
 62
     0
 10
7.950225999999998
 20
4.3873739999999994
 30
0.0
 11
9.3499134999999995
 21
4.3873739999999994
 31
0.0
  0
LINE
  5
6D2
  8
DIM
 62
     0
 10
11.535226
 20
4.3873739999999994
 30
0.0
 11
10.13553849999999
 21
4.3873739999999994
 31
0.0
  0
SOLID
  5
6D3
  8
DIM
 62
     0
 10
7.950225999999998
 20
4.4323739999999994
 30
0.0
 11
7.950225999999998
 21
4.3423739999999986
 31
0.0
 12
7.6802259999999993
 22
4.3873739999999994
 32
0.0
 13
7.6802259999999993
 23
4.3873739999999994
 33
0.0
  0
SOLID
  5
6D4
  8
DIM
 62
     0
 10
11.535226
 20
4.4323739999999994
 30
0.0
 11
11.535226
 21
4.3423739999999986
 31
0.0
 12
11.80522599999999
 22
4.3873739999999994
 32
0.0
 13
11.80522599999999
 23
4.3873739999999994
 33
0.0
  0
TEXT
  5
6D5
  8
OBJECT
 62
     0
 10
9.4849134999999993
 20
4.2936239999999994
 30
0.0
 40
0.1875
  1
4.125
 41
0.75
  0
POINT
  5
6D6
  8
DEFPOINTS
 62
     0
 10
7.6802259999999993
 20
5.397155999999999
 30
0.1875
  0
POINT
  5
6D7
  8
DEFPOINTS
 62
     0
 10
11.80522599999999
 20
5.397155999999999
 30
0.1875
  0
POINT
  5
6D8
  8
DEFPOINTS
 62
     0
 10
11.80522599999999
 20
4.3873739999999994
 30
0.0
  0
ENDBLK
  5
6DA
  8
0
  0
BLOCK
  8
0
  2
*D79
 70
     1
 10
0.0
 20
0.0
 30
0.0
  3
*D79
  1

  0
LINE
  5
758
  8
DIM
 62
     0
 10
1.744545999999999
 20
5.616655999999999
 30
0.0
 11
1.744545999999999
 21
5.946496999999999
 31
0.0
  0
LINE
  5
759
  8
DIM
 62
     0
 10
1.5145459999999991
 20
5.723190999999999
 30
0.0
 11
1.5145459999999991
 21
5.667497
 31
0.0
  0
LINE
  5
75A
  8
DIM
 62
     0
 10
2.0145460000000002
 20
5.8069969999999991
 30
0.0
 11
2.2845459999999989
 21
5.8069969999999991
 31
0.0
  0
LINE
  5
75B
  8
DIM
 62
     0
 10
1.244545999999999
 20
5.8069969999999991
 30
0.0
 11
0.9745459999999999
 21
5.8069969999999991
 31
0.0
  0
TEXT
  5
75C
  8
OBJECT
 62
     0
 10
1.3717334999999991
 20
5.3187470000000001
 30
0.0
 40
0.1875
  1
0.230
 41
0.75
  0
SOLID
  5
75D
  8
DIM
 62
     0
 10
2.0145460000000002
 20
5.851996999999999
 30
0.0
 11
2.0145460000000002
 21
5.761997
 31
0.0
 12
1.744545999999999
 22
5.8069969999999991
 32
0.0
 13
1.744545999999999
 23
5.8069969999999991
 33
0.0
  0
SOLID
  5
75E
  8
DIM
 62
     0
 10
1.244545999999999
 20
5.851996999999999
 30
0.0
 11
1.244545999999999
 21
5.761997
 31
0.0
 12
1.5145459999999991
 22
5.8069969999999991
 32
0.0
 13
1.5145459999999991
 23
5.8069969999999991
 33
0.0
  0
POINT
  5
75F
  8
DEFPOINTS
 62
     0
 10
1.744545999999999
 20
5.522155999999999
 30
0.1875
  0
POINT
  5
760
  8
DEFPOINTS
 62
     0
 10
1.5145459999999991
 20
5.8176909999999991
 30
0.1875
  0
POINT
  5
761
  8
DEFPOINTS
 62
     0
 10
1.5145459999999991
 20
5.8069969999999991
 30
0.0
  0
ENDBLK
  5
763
  8
0
  0
BLOCK
  8
0
  2
*D80
 70
     1
 10
0.0
 20
0.0
 30
0.0
  3
*D80
  1

  0
LINE
  5
7DD
  8
DIM
 62
     0
 10
7.9550000000000001
 20
19.848011
 30
0.0
 11
6.7848959999999998
 21
19.848011
 31
0.0
  0
LINE
  5
7DE
  8
DIM
 62
     0
 10
7.9550000000000001
 20
18.413843
 30
0.0
 11
6.7848959999999998
 21
18.413843
 31
0.0
  0
LINE
  5
7DF
  8
DIM
 62
     0
 10
6.9243959999999998
 20
19.578011
 30
0.0
 11
6.9243959999999998
 21
19.359677000000001
 31
0.0
  0
LINE
  5
7E0
  8
DIM
 62
     0
 10
6.9243959999999998
 20
18.683843
 30
0.0
 11
6.9243959999999998
 21
18.902176999999998
 31
0.0
  0
SOLID
  5
7E1
  8
DIM
 62
     0
 10
6.8793959999999998
 20
19.578011
 30
0.0
 11
6.9693959999999997
 21
19.578011
 31
0.0
 12
6.9243959999999998
 22
19.848011
 32
0.0
 13
6.9243959999999998
 23
19.848011
 33
0.0
  0
SOLID
  5
7E2
  8
DIM
 62
     0
 10
6.8793959999999998
 20
18.683843
 30
0.0
 11
6.9693959999999997
 21
18.683843
 31
0.0
 12
6.9243959999999998
 22
18.413843
 32
0.0
 13
6.9243959999999998
 23
18.413843
 33
0.0
  0
TEXT
  5
7E3
  8
OBJECT
 62
     0
 10
6.8775209999999971
 20
19.037177
 30
0.0
 40
0.1875
  1
K
 41
0.75
  0
POINT
  5
7E4
  8
DEFPOINTS
 62
     0
 10
8.0495000000000001
 20
19.848011
 30
0.0
  0
POINT
  5
7E5
  8
DEFPOINTS
 62
     0
 10
8.0495000000000001
 20
18.413842999999989
 30
0.0
  0
POINT
  5
7E6
  8
DEFPOINTS
 62
     0
 10
6.9243959999999998
 20
18.413843
 30
0.0
  0
ENDBLK
  5
7E8
  8
0
  0
BLOCK
  8
0
  2
*D81
 70
     1
 10
0.0
 20
0.0
 30
0.0
  3
*D81
  1

  0
LINE
  5
7EB
  8
DIM
 62
     0
 10
8.4599159999999998
 20
17.908926999999991
 30
0.0
 11
8.4599159999999998
 21
17.417687000000001
 31
0.0
  0
LINE
  5
7EC
  8
DIM
 62
     0
 10
10.769083
 20
17.908926999999991
 30
0.0
 11
10.769083
 21
17.417687000000001
 31
0.0
  0
LINE
  5
7ED
  8
DIM
 62
     0
 10
8.7299159999999993
 20
17.557186999999999
 30
0.0
 11
9.4326245000000011
 21
17.557186999999999
 31
0.0
  0
LINE
  5
7EE
  8
DIM
 62
     0
 10
10.499083000000001
 20
17.557186999999999
 30
0.0
 11
9.7963745000000007
 21
17.557186999999999
 31
0.0
  0
SOLID
  5
7EF
  8
DIM
 62
     0
 10
8.7299159999999993
 20
17.602187000000001
 30
0.0
 11
8.7299159999999993
 21
17.51218699999999
 31
0.0
 12
8.4599159999999998
 22
17.557186999999999
 32
0.0
 13
8.4599159999999998
 23
17.557186999999999
 33
0.0
  0
SOLID
  5
7F0
  8
DIM
 62
     0
 10
10.499083000000001
 20
17.602187000000001
 30
0.0
 11
10.499083000000001
 21
17.51218699999999
 31
0.0
 12
10.769083
 22
17.557186999999999
 32
0.0
 13
10.769083
 23
17.557186999999999
 33
0.0
  0
TEXT
  5
7F1
  8
OBJECT
 62
     0
 10
9.5676245000000009
 20
17.463436999999988
 30
0.0
 40
0.1875
  1
J
 41
0.75
  0
POINT
  5
7F2
  8
DEFPOINTS
 62
     0
 10
8.4599159999999998
 20
18.003426999999991
 30
0.0
  0
POINT
  5
7F3
  8
DEFPOINTS
 62
     0
 10
10.769083
 20
18.003426999999991
 30
0.0
  0
POINT
  5
7F4
  8
DEFPOINTS
 62
     0
 10
10.769083
 20
17.557186999999999
 30
0.0
  0
ENDBLK
  5
7F6
  8
0
  0
ENDSEC
  0
SECTION
  2
ENTITIES
  0
TEXT
  5
2C5
  8
TEXT
 10
9.6522950000000005
 20
22.072911999999992
 30
0.0
 40
0.1875
  1
FOUR (4) #4 x 0.500" LG. SELF THREADING
 41
0.75
  0
TEXT
  5
2C6
  8
TEXT
 10
9.6522950000000005
 20
21.760411999999992
 30
0.0
 40
0.1875
  1
SCREWS WITH HI/LOW THREADS
 41
0.75
  0
TEXT
  5
2C7
  8
DIM
 10
5.8934660000000001
 20
2.961106
 30
0.0
 40
0.01
  1
%%@
  0
TEXT
  5
2C8
  8
DIM
 10
6.0958829999999997
 20
2.5871270000000002
 30
0.0
 40
0.01
  1
%%!
  0
TEXT
  5
2C9
  8
TEXT
 10
9.6688729999999996
 20
21.446767000000001
 30
0.0
 40
0.1875
  1
ARE SUPPLIED FOR MOUNTING COVER.
 41
0.75
  0
TEXT
  5
2CA
  8
TEXT
 10
0.31175
 20
22.590119000000001
 30
0.0
 40
0.1875
  1
NAME
 72
     1
 11
0.6555
 21
22.590119000000001
 31
0.0
  0
TEXT
  5
2CB
  8
TEXT
 10
0.31175
 20
22.902619000000001
 30
0.0
 40
0.1875
  1
PART
 72
     1
 11
0.6555
 21
22.902619000000001
 31
0.0
  0
TEXT
  5
2CC
  8
TEXT
 10
8.0579999999999998
 20
22.590119000000001
 30
0.0
 40
0.1875
  1
No.
 72
     1
 11
8.2454999999999998
 21
22.590119000000001
 31
0.0
  0
TEXT
  5
2CD
  8
TEXT
 10
7.9017499999999989
 20
22.902619000000001
 30
0.0
 40
0.1875
  1
PART
 72
     1
 11
8.2454999999999998
 21
22.902619000000001
 31
0.0
  0
LINE
  5
2CE
  8
TITLE
 10
8.8079999999999998
 20
23.156999999999989
 30
0.0
 11
8.8079999999999998
 21
22.530000000000001
 31
0.0
  0
LINE
  5
2CF
  8
TITLE
 10
7.6829999999999989
 20
23.156999999999989
 30
0.0
 11
7.6829999999999989
 21
22.530000000000001
 31
0.0
  0
LINE
  5
2D0
  8
TITLE
 10
7.589999999999999
 20
23.156999999999989
 30
0.0
 11
7.589999999999999
 21
22.530000000000001
 31
0.0
  0
LINE
  5
2D1
  8
TITLE
 10
1.2179999999999991
 20
22.530000000000001
 30
0.0
 11
1.2179999999999991
 21
23.156999999999989
 31
0.0
  0
LINE
  5
2D2
  8
TITLE
 10
0.093
 20
22.530000000000001
 30
0.0
 11
15.087
 21
22.530000000000001
 31
0.0
  0
LINE
  5
2D3
  8
TITLE
 10
15.087
 20
0.093
 30
0.0
 11
0.093
 21
0.093
 31
0.0
  0
LINE
  5
2D4
  8
TITLE
 10
15.087
 20
23.156999999999989
 30
0.0
 11
15.087
 21
12.195477
 31
0.0
  0
LINE
  5
2D5
  8
TITLE
 10
0.093
 20
23.156999999999989
 30
0.0
 11
15.087
 21
23.156999999999989
 31
0.0
  0
LINE
  5
2D6
  8
TITLE
 10
0.093
 20
0.093
 30
0.0
 11
0.093
 21
12.102477
 31
0.0
  0
LINE
  5
2D7
  8
TITLE
 10
0.0
 20
0.0
 30
0.0
 11
0.0
 21
23.25
 31
0.0
  0
LINE
  5
2D8
  8
TITLE
 10
15.179999999999991
 20
0.0
 30
0.0
 11
0.0
 21
0.0
 31
0.0
  0
LINE
  5
2D9
  8
TITLE
 10
15.179999999999991
 20
23.25
 30
0.0
 11
15.179999999999991
 21
0.0
 31
0.0
  0
LINE
  5
2DA
  8
TITLE
 10
0.0
 20
23.25
 30
0.0
 11
15.179999999999991
 21
23.25
 31
0.0
  0
LINE
  5
2DB
  8
TITLE
 10
0.093
 20
12.102477
 30
0.0
 11
15.087
 21
12.102477
 31
0.0
  0
LINE
  5
2DC
  8
TITLE
 10
0.093
 20
11.475477
 30
0.0
 11
15.087
 21
11.475477
 31
0.0
  0
LINE
  5
2DD
  8
TITLE
 10
1.2179999999999991
 20
11.475477
 30
0.0
 11
1.2179999999999991
 21
12.102477
 31
0.0
  0
LINE
  5
2DE
  8
TITLE
 10
7.589999999999999
 20
12.102477
 30
0.0
 11
7.589999999999999
 21
11.475477
 31
0.0
  0
LINE
  5
2DF
  8
TITLE
 10
7.6829999999999989
 20
12.102477
 30
0.0
 11
7.6829999999999989
 21
11.475477
 31
0.0
  0
LINE
  5
2E0
  8
TITLE
 10
8.8079999999999998
 20
12.102477
 30
0.0
 11
8.8079999999999998
 21
11.475477
 31
0.0
  0
TEXT
  5
2E1
  8
TEXT
 10
7.9017499999999989
 20
11.848096
 30
0.0
 40
0.1875
  1
PART
 72
     1
 11
8.2454999999999998
 21
11.848096
 31
0.0
  0
TEXT
  5
2E2
  8
TEXT
 10
8.0579999999999998
 20
11.535596
 30
0.0
 40
0.1875
  1
No.
 72
     1
 11
8.2454999999999998
 21
11.535596
 31
0.0
  0
TEXT
  5
2E3
  8
TEXT
 10
0.31175
 20
11.848096
 30
0.0
 40
0.1875
  1
PART
 72
     1
 11
0.6555
 21
11.848096
 31
0.0
  0
TEXT
  5
2E4
  8
TEXT
 10
0.31175
 20
11.535596
 30
0.0
 40
0.1875
  1
NAME
 72
     1
 11
0.6555
 21
11.535596
 31
0.0
  0
TEXT
  5
2E5
  8
DIM
 10
6.1830759999999989
 20
5.0158420000000001
 30
0.0
 40
0.125
  1

  0
LINE
  5
2E6
  8
TITLE
 10
0.093
 20
12.195477
 30
0.0
 11
0.093
 21
23.156999999999989
 31
0.0
  0
LINE
  5
2E7
  8
TITLE
 10
15.087
 20
12.102477
 30
0.0
 11
15.087
 21
0.093
 31
0.0
  0
TEXT
  5
2E8
  8
TEXT
 10
0.3028125
 20
13.817876999999999
 30
0.0
 40
0.1875
  1
PART No.
 41
0.75
 72
     1
 11
0.7950000000000002
 21
13.817876999999999
 31
0.0
  0
TEXT
  5
2E9
  8
TEXT
 10
0.3965625
 20
13.505876999999989
 30
0.0
 40
0.1875
  1
CU-382
 41
0.75
 72
     1
 11
0.7950000000000002
 21
13.505876999999989
 31
0.0
  0
TEXT
  5
2EA
  8
TEXT
 10
0.3965625
 20
13.193877000000001
 30
0.0
 40
0.1875
  1
CU-383
 41
0.75
 72
     1
 11
0.7950000000000002
 21
13.193877000000001
 31
0.0
  0
TEXT
  5
2EB
  8
TEXT
 10
0.3965625
 20
12.881876999999999
 30
0.0
 40
0.1875
  1
CU-384
 41
0.75
 72
     1
 11
0.7950000000000002
 21
12.881876999999999
 31
0.0
  0
TEXT
  5
2EC
  8
TEXT
 10
0.3965625
 20
12.569877
 30
0.0
 40
0.1875
  1
CU-385
 41
0.75
 72
     1
 11
0.7950000000000002
 21
12.569877
 31
0.0
  0
TEXT
  5
2ED
  8
TEXT
 10
0.3965625
 20
12.257877000000001
 30
0.0
 40
0.1875
  1
CU-386
 41
0.75
 72
     1
 11
0.7950000000000002
 21
12.257877000000001
 31
0.0
  0
TEXT
  5
2EE
  8
TEXT
 10
2.129624999999999
 20
13.817876999999999
 30
0.0
 40
0.1875
  1
A
 41
0.75
 72
     1
 11
2.176499999999999
 21
13.817876999999999
 31
0.0
  0
TEXT
  5
2EF
  8
TEXT
 10
1.906968749999999
 20
13.505876999999989
 30
0.0
 40
0.1875
  1
3.250
 41
0.75
 72
     1
 11
2.176499999999999
 21
13.505876999999989
 31
0.0
  0
TEXT
  5
2F0
  8
TEXT
 10
1.918687499999999
 20
13.193877000000001
 30
0.0
 40
0.1875
  1
4.125
 41
0.75
 72
     1
 11
2.176499999999999
 21
13.193877000000001
 31
0.0
  0
TEXT
  5
2F1
  8
TEXT
 10
1.906968749999999
 20
12.881876999999999
 30
0.0
 40
0.1875
  1
3.250
 41
0.75
 72
     1
 11
2.176499999999999
 21
12.881876999999999
 31
0.0
  0
TEXT
  5
2F2
  8
TEXT
 10
1.918687499999999
 20
12.569877
 30
0.0
 40
0.1875
  1
4.500
 41
0.75
 72
     1
 11
2.176499999999999
 21
12.569877
 31
0.0
  0
TEXT
  5
2F3
  8
TEXT
 10
1.918687499999999
 20
12.257877000000001
 30
0.0
 40
0.1875
  1
5.500
 41
0.75
 72
     1
 11
2.176499999999999
 21
12.257877000000001
 31
0.0
  0
TEXT
  5
2F4
  8
TEXT
 10
3.488624999999999
 20
13.817876999999999
 30
0.0
 40
0.1875
  1
B
 41
0.75
 72
     1
 11
3.535499999999999
 21
13.817876999999999
 31
0.0
  0
TEXT
  5
2F5
  8
TEXT
 10
3.254249999999999
 20
13.505876999999989
 30
0.0
 40
0.1875
  1
2.375
 41
0.75
 72
     1
 11
3.535499999999999
 21
13.505876999999989
 31
0.0
  0
TEXT
  5
2F6
  8
TEXT
 10
3.265968749999999
 20
13.193877000000001
 30
0.0
 40
0.1875
  1
2.750
 41
0.75
 72
     1
 11
3.535499999999999
 21
13.193877000000001
 31
0.0
  0
TEXT
  5
2F7
  8
TEXT
 10
3.265968749999999
 20
12.881876999999999
 30
0.0
 40
0.1875
  1
3.250
 41
0.75
 72
     1
 11
3.535499999999999
 21
12.881876999999999
 31
0.0
  0
TEXT
  5
2F8
  8
TEXT
 10
3.265968749999999
 20
12.569877
 30
0.0
 40
0.1875
  1
3.250
 41
0.75
 72
     1
 11
3.535499999999999
 21
12.569877
 31
0.0
  0
TEXT
  5
2F9
  8
TEXT
 10
3.265968749999999
 20
12.257877000000001
 30
0.0
 40
0.1875
  1
3.750
 41
0.75
 72
     1
 11
3.535499999999999
 21
12.257877000000001
 31
0.0
  0
TEXT
  5
2FA
  8
TEXT
 10
4.847624999999999
 20
13.817876999999999
 30
0.0
 40
0.1875
  1
C
 41
0.75
 72
     1
 11
4.894499999999999
 21
13.817876999999999
 31
0.0
  0
TEXT
  5
2FB
  8
TEXT
 10
4.671843749999999
 20
13.505876999999989
 30
0.0
 40
0.1875
  1
1.000
 41
0.75
 72
     1
 11
4.894499999999999
 21
13.505876999999989
 31
0.0
  0
TEXT
  5
2FC
  8
TEXT
 10
4.671843749999999
 20
13.193877000000001
 30
0.0
 40
0.1875
  1
1.000
 41
0.75
 72
     1
 11
4.894499999999999
 21
13.193877000000001
 31
0.0
  0
TEXT
  5
2FD
  8
TEXT
 10
4.648406249999999
 20
12.881876999999999
 30
0.0
 40
0.1875
  1
1.250
 41
0.75
 72
     1
 11
4.894499999999999
 21
12.881876999999999
 31
0.0
  0
TEXT
  5
2FE
  8
TEXT
 10
4.648406249999999
 20
12.569877
 30
0.0
 40
0.1875
  1
1.250
 41
0.75
 72
     1
 11
4.894499999999999
 21
12.569877
 31
0.0
  0
TEXT
  5
2FF
  8
TEXT
 10
4.648406249999999
 20
12.257877000000001
 30
0.0
 40
0.1875
  1
1.250
 41
0.75
 72
     1
 11
4.894499999999999
 21
12.257877000000001
 31
0.0
  0
TEXT
  5
300
  8
TEXT
 10
2.5807500000000001
 20
22.70399999999999
 30
0.0
 40
0.2805
  1
UTILIBOX  (STYLE C)
 41
0.75
 72
     1
 11
4.403999999999999
 21
22.70399999999999
 31
0.0
  0
TEXT
  5
301
  8
TEXT
 10
10.0891875
 20
22.70399999999999
 30
0.0
 40
0.2805
  1
CU-382  TO  CU-386
 41
0.75
 72
     1
 11
11.947499999999989
 21
22.70399999999999
 31
0.0
  0
TEXT
  5
302
  8
DIM
 10
6.2462220000000004
 20
13.164517
 30
0.0
 40
0.125
  1

  0
TEXT
  5
303
  8
TEXT
 10
0.286956
 20
22.11927399999999
 30
0.0
 40
0.1875
  1
%%UMATERIAL:%%U ABS THERMOPLASTIC (FLAMMABILITY RATING OF 94V-O AT
 41
0.75
  0
TEXT
  5
304
  8
TEXT
 10
4.1583920000000001
 20
21.80677399999999
 30
0.0
 40
0.1875
  1
0.080" THICKNESS AND CONTINUOUS USE
 41
0.75
  0
TEXT
  5
305
  8
TEXT
 10
4.1583920000000001
 20
21.49427399999999
 30
0.0
 40
0.1875
  1
TEMPERATURE OF 70%%D C.)
 41
0.75
  0
TEXT
  5
306
  8
TEXT
 10
0.286956
 20
21.039635999999991
 30
0.0
 40
0.1875
  1
%%UFINISH:%%U BLACK TEXTURED
 41
0.75
  0
TEXT
  5
307
  8
DIM
 10
2.4912320000000001
 20
16.779776999999999
 30
0.0
 40
0.1875
  1
OPTIONAL MOUNTING BRACKETS
 41
0.75
  0
TEXT
  5
308
  8
DIM
 10
2.8662320000000001
 20
16.467276999999999
 30
0.0
 40
0.1875
  1
ARE AVAILABLE BY ADDING
 41
0.75
  0
TEXT
  5
309
  8
DIM
 10
3.1474820000000001
 20
16.154776999999999
 30
0.0
 40
0.1875
  1
SUFFIX -MB TO CATALOG
 41
0.75
  0
TEXT
  5
30A
  8
DIM
 10
4.4599820000000001
 20
15.842276999999999
 30
0.0
 40
0.1875
  1
PART NUMBER.
 41
0.75
  0
POLYLINE
  5
30B
  8
DIM
 66
     1
 10
0.0
 20
0.0
 30
0.0
 41
0.10125
  0
VERTEX
  5
809
  8
DIM
 10
7.5731989999999998
 20
18.468271999999988
 30
0.0
  0
VERTEX
  5
80A
  8
DIM
 10
7.4185990000000004
 20
18.246915999999992
 30
0.0
 41
0.0
  0
VERTEX
  5
80B
  8
DIM
 10
6.455023999999999
 20
16.867267999999989
 30
0.0
 41
0.0
  0
VERTEX
  5
80C
  8
DIM
 10
6.1850239999999994
 20
16.867267999999989
 30
0.0
 41
0.0
  0
SEQEND
  5
80D
  8
DIM
  0
LINE
  5
311
  8
TITLE
 10
0.093
 20
12.195477
 30
0.0
 11
15.087
 21
12.195477
 31
0.0
  0
LINE
  5
312
  8
TITLE
 10
0.093
 20
12.507477
 30
0.0
 11
15.087
 21
12.507477
 31
0.0
  0
LINE
  5
313
  8
TITLE
 10
0.093
 20
12.819476999999999
 30
0.0
 11
15.087
 21
12.819476999999999
 31
0.0
  0
LINE
  5
314
  8
TITLE
 10
0.093
 20
13.131477
 30
0.0
 11
15.087
 21
13.131477
 31
0.0
  0
LINE
  5
315
  8
TITLE
 10
0.093
 20
13.443477
 30
0.0
 11
15.087
 21
13.443477
 31
0.0
  0
LINE
  5
316
  8
TITLE
 10
0.093
 20
13.755477000000001
 30
0.0
 11
15.087
 21
13.755477000000001
 31
0.0
  0
LINE
  5
317
  8
TITLE
 10
0.093
 20
14.06747699999999
 30
0.0
 11
15.087
 21
14.06747699999999
 31
0.0
  0
TEXT
  5
318
  8
TEXT
 10
7.3312499999999989
 20
12.881876999999999
 30
0.0
 40
0.1875
  1
4.344
 41
0.75
 72
     1
 11
7.6124999999999989
 21
12.881876999999999
 31
0.0
  0
TEXT
  5
319
  8
TEXT
 10
7.3312499999999989
 20
12.257877000000001
 30
0.0
 40
0.1875
  1
6.594
 41
0.75
 72
     1
 11
7.6124999999999989
 21
12.257877000000001
 31
0.0
  0
TEXT
  5
31A
  8
TEXT
 10
7.3312499999999989
 20
12.569877
 30
0.0
 40
0.1875
  1
5.594
 41
0.75
 72
     1
 11
7.6124999999999989
 21
12.569877
 31
0.0
  0
TEXT
  5
31B
  8
TEXT
 10
7.3664062499999989
 20
13.193877000000001
 30
0.0
 40
0.1875
  1
5.190
 41
0.75
 72
     1
 11
7.6124999999999989
 21
13.193877000000001
 31
0.0
  0
TEXT
  5
31C
  8
TEXT
 10
7.3312499999999989
 20
13.505876999999989
 30
0.0
 40
0.1875
  1
4.326
 41
0.75
 72
     1
 11
7.6124999999999989
 21
13.505876999999989
 31
0.0
  0
TEXT
  5
31D
  8
TEXT
 10
7.5656249999999989
 20
13.817876999999999
 30
0.0
 40
0.1875
  1
E
 41
0.75
 72
     1
 11
7.6124999999999989
 21
13.817876999999999
 31
0.0
  0
TEXT
  5
31E
  8
TEXT
 10
5.9956874999999989
 20
12.881876999999999
 30
0.0
 40
0.1875
  1
1.672
 41
0.75
 72
     1
 11
6.2534999999999989
 21
12.881876999999999
 31
0.0
  0
TEXT
  5
31F
  8
TEXT
 10
5.9956874999999989
 20
12.569877
 30
0.0
 40
0.1875
  1
1.672
 41
0.75
 72
     1
 11
6.2534999999999989
 21
12.569877
 31
0.0
  0
TEXT
  5
320
  8
TEXT
 10
5.9956874999999989
 20
12.257877000000001
 30
0.0
 40
0.1875
  1
1.922
 41
0.75
 72
     1
 11
6.2534999999999989
 21
12.257877000000001
 31
0.0
  0
TEXT
  5
321
  8
TEXT
 10
6.0191249999999989
 20
13.505876999999989
 30
0.0
 40
0.1875
  1
1.221
 41
0.75
 72
     1
 11
6.2534999999999989
 21
13.505876999999989
 31
0.0
  0
TEXT
  5
322
  8
TEXT
 10
6.0074062499999989
 20
13.193877000000001
 30
0.0
 40
0.1875
  1
1.408
 41
0.75
 72
     1
 11
6.2534999999999989
 21
13.193877000000001
 31
0.0
  0
TEXT
  5
323
  8
TEXT
 10
6.2066249999999989
 20
13.817876999999999
 30
0.0
 40
0.1875
  1
D
 41
0.75
 72
     1
 11
6.2534999999999989
 21
13.817876999999999
 31
0.0
  0
LINE
  5
324
  8
TITLE
 10
1.496999999999999
 20
14.06747699999999
 30
0.0
 11
1.496999999999999
 21
12.195477
 31
0.0
  0
TEXT
  5
325
  8
TEXT
 10
8.6902500000000007
 20
12.881876999999999
 30
0.0
 40
0.1875
  1
3.344
 41
0.75
 72
     1
 11
8.9715000000000007
 21
12.881876999999999
 31
0.0
  0
TEXT
  5
326
  8
TEXT
 10
8.6902500000000007
 20
12.257877000000001
 30
0.0
 40
0.1875
  1
3.844
 41
0.75
 72
     1
 11
8.9715000000000007
 21
12.257877000000001
 31
0.0
  0
TEXT
  5
327
  8
TEXT
 10
8.6902500000000007
 20
12.569877
 30
0.0
 40
0.1875
  1
3.344
 41
0.75
 72
     1
 11
8.9715000000000007
 21
12.569877
 31
0.0
  0
TEXT
  5
328
  8
TEXT
 10
8.7136875000000007
 20
13.193877000000001
 30
0.0
 40
0.1875
  1
2.816
 41
0.75
 72
     1
 11
8.9715000000000007
 21
13.193877000000001
 31
0.0
  0
TEXT
  5
329
  8
TEXT
 10
8.6902500000000007
 20
13.505876999999989
 30
0.0
 40
0.1875
  1
2.442
 41
0.75
 72
     1
 11
8.9715000000000007
 21
13.505876999999989
 31
0.0
  0
TEXT
  5
32A
  8
TEXT
 10
8.9246250000000007
 20
13.817876999999999
 30
0.0
 40
0.1875
  1
F
 41
0.75
 72
     1
 11
8.9715000000000007
 21
13.817876999999999
 31
0.0
  0
LINE
  5
32B
  8
OBJECT
 10
7.9894999999999987
 20
16.018643000000001
 30
0.0
 11
11.2395
 21
16.018643000000001
 31
0.0
  0
LINE
  5
32C
  8
OBJECT
 10
8.0700000000000003
 20
16.099142999999991
 30
0.0
 11
11.159000000000001
 21
16.099142999999991
 31
0.0
  0
LINE
  5
32D
  8
OBJECT
 10
5.1107769999999988
 20
18.023927
 30
0.0
 11
5.1107769999999988
 21
20.237926999999988
 31
0.0
  0
LINE
  5
32E
  8
OBJECT
 10
5.030276999999999
 20
17.943427
 30
0.0
 11
5.030276999999999
 21
20.318426999999989
 31
0.0
  0
TEXT
  5
331
  8
DIM
 10
19.731193999999991
 20
21.395741999999998
 30
0.0
 40
0.125
  1

  0
TEXT
  5
332
  8
DIM
 10
19.794339000000001
 20
29.544416999999999
 30
0.0
 40
0.125
  1

  0
DIMENSION
  5
333
  8
DIM
  2
*D45
 10
4.030276999999999
 20
17.544519999999999
 30
0.0
 11
4.530276999999999
 21
17.544519999999999
 31
0.0
 70
     0
  1
C
 13
5.030276999999999
 23
17.943427
 33
0.0
 14
4.030276999999999
 24
17.989899999999992
 34
0.0
  0
DIMENSION
  5
341
  8
DIM
  2
*D46
 10
7.5661550000000002
 20
15.89364299999999
 30
0.0
 11
7.1716549999999968
 21
15.956143000000001
 31
0.0
 70
     0
 13
7.9894999999999987
 23
16.018643000000001
 33
0.0
 14
8.0694999999999997
 24
15.89364299999999
 34
0.0
 50
90.0
  0
POLYLINE
  5
34F
  8
DIM
 66
     1
 10
0.0
 20
0.0
 30
0.0
 41
0.10125
  0
VERTEX
  5
80E
  8
DIM
 10
11.581562999999999
 20
19.196079000000001
 30
0.0
  0
VERTEX
  5
80F
  8
DIM
 10
11.827524
 20
19.394750999999999
 30
0.0
 41
0.0
  0
VERTEX
  5
810
  8
DIM
 10
12.199824
 20
19.695474000000001
 30
0.0
 41
0.0
  0
VERTEX
  5
811
  8
DIM
 10
12.469823999999999
 20
19.695474000000001
 30
0.0
 41
0.0
  0
SEQEND
  5
812
  8
DIM
  0
TEXT
  5
355
  8
DIM
 10
12.622794499999999
 20
19.601724000000001
 30
0.0
 40
0.1875
  1
0.187 DIA.
 41
0.75
  7
TXT
 72
     2
 11
13.677481999999999
 21
19.695474000000001
 31
0.0
 73
     2
  0
TEXT
  5
356
  8
DIM
 10
12.552481999999999
 20
19.289224000000001
 30
0.0
 40
0.1875
  1
(2) HOLES
 41
0.75
  7
TXT
 72
     2
 11
13.677481999999999
 21
19.382974000000001
 31
0.0
 73
     2
  0
DIMENSION
  5
357
  8
DIM
  2
*D47
 10
12.256244000000001
 20
15.14364299999999
 30
0.0
 11
12.838244
 21
15.081143000000001
 31
0.0
 70
     0
 13
11.777737
 23
15.018643000000001
 33
0.0
 14
11.777737
 24
15.14364299999999
 34
0.0
 50
90.0
  0
DIMENSION
  5
365
  8
DIM
  2
*D48
 10
12.241804999999999
 20
17.905427
 30
0.0
 11
12.241804999999999
 21
18.525966
 31
0.0
 70
   128
  1
D
 13
11.5145
 23
19.130926999999989
 33
0.0
 14
11.021499999999991
 24
17.905427
 34
0.0
 50
90.0
  0
DIMENSION
  5
373
  8
DIM
  2
*D49
 10
7.4512619999999989
 20
20.663339999999991
 30
0.0
 11
7.7013809999999987
 21
21.057839999999992
 31
0.0
 70
     0
  1
0.500
 13
7.9515000000000002
 23
20.100427
 33
0.0
 14
7.4512619999999989
 24
19.637646
 34
0.0
  0
DIMENSION
  5
381
  8
DIM
  2
*D50
 10
4.030276999999999
 20
18.779320999999989
 30
0.0
 11
4.070276999999999
 21
19.361321
 31
0.0
 70
     0
  1
<> TYP.
 13
4.1102769999999991
 23
18.779320999999989
 33
0.0
 14
4.030276999999999
 24
18.779320999999989
 34
0.0
  0
DIMENSION
  5
38F
  8
DIM
  2
*D51
 10
5.4272359999999988
 20
20.318426999999989
 30
0.0
 11
5.4272359999999962
 21
19.130926999999989
 31
0.0
 70
     0
  1
B
 13
5.0807769999999994
 23
17.943427
 33
0.0
 14
5.0807769999999994
 24
20.318426999999989
 34
0.0
 50
90.0
  0
DIMENSION
  5
39D
  8
DIM
  2
*D52
 10
11.777737
 20
20.663339999999991
 30
0.0
 11
11.52761849999999
 21
21.057839999999992
 31
0.0
 70
     0
  1
0.500
 13
11.2775
 23
20.100427
 33
0.0
 14
11.777737
 24
19.637646
 34
0.0
  0
DIMENSION
  5
3AB
  8
DIM
  2
*D53
 10
6.5493959999999989
 20
17.905427
 30
0.0
 11
6.5493959999999971
 21
19.130927
 31
0.0
 70
     0
  1
F
 13
8.2074999999999996
 23
20.356426999999989
 33
0.0
 14
8.2074999999999996
 24
17.905427
 34
0.0
 50
90.0
  0
DIMENSION
  5
3B9
  8
DIM
  2
*D54
 10
7.4512619999999989
 20
14.362332
 30
0.0
 11
9.6144995000000009
 21
14.362332
 31
0.0
 70
     0
  1
E
 13
11.777737
 23
15.018643000000001
 33
0.0
 14
7.4512619999999989
 24
15.018643000000001
 34
0.0
  0
ARC
  5
3C7
  8
OBJECT
 10
5.030276999999999
 20
18.023927
 30
0.0
 40
0.0805
 50
270.0
 51
0.0
  0
ARC
  5
3C8
  8
OBJECT
 10
5.030276999999999
 20
20.237926999999988
 30
0.0
 40
0.0805
 50
0.0
 51
90.0
  0
ARC
  5
3C9
  8
OBJECT
 10
8.0700000000000003
 20
16.018643000000001
 30
0.0
 40
0.0805
 50
90.0
 51
180.0
  0
ARC
  5
3CA
  8
OBJECT
 10
11.159000000000001
 20
16.018643000000001
 30
0.0
 40
0.0805
 50
0.0
 51
90.0
  0
DIMENSION
  5
3CB
  8
DIM
  2
*D55
 10
11.2395
 20
16.765271999999989
 30
0.0
 11
9.6144999999999996
 21
16.765271999999989
 31
0.0
 70
     0
  1
A
 13
7.9894999999999987
 23
16.018643000000001
 33
0.0
 14
11.2395
 24
16.018643000000001
 34
0.0
  0
TEXT
  5
3D9
  8
0
  6
CONTINUOUS
 62
     1
 10
38.296515999999997
 20
18.43083
 30
0.0
 40
0.0625
  1

  7
ROMANS
  0
TEXT
  5
3DA
  8
0
  6
CONTINUOUS
 62
     1
 10
38.296515999999997
 20
18.127257999999991
 30
0.0
 40
0.0625
  1

  7
ROMANS
  0
CIRCLE
  5
3DB
  8
OBJECT
 10
11.051999999999991
 20
18.130927
 30
0.0
 40
0.105
  0
CIRCLE
  5
3DC
  8
OBJECT
 10
11.051999999999991
 20
18.130927
 30
0.0
 40
0.06
  0
CIRCLE
  5
3DD
  8
OBJECT
 10
11.051999999999991
 20
20.130927
 30
0.0
 40
0.06
  0
CIRCLE
  5
3DE
  8
OBJECT
 10
11.051999999999991
 20
20.130927
 30
0.0
 40
0.105
  0
CIRCLE
  5
3DF
  8
OBJECT
 10
8.1769999999999996
 20
20.130927
 30
0.0
 40
0.047
  0
CIRCLE
  5
3E0
  8
OBJECT
 10
8.1769999999999996
 20
18.130927
 30
0.0
 40
0.047
  0
CIRCLE
  5
3E1
  8
OBJECT
 10
11.051999999999991
 20
18.130927
 30
0.0
 40
0.047
  0
CIRCLE
  5
3E2
  8
OBJECT
 10
11.051999999999991
 20
20.130927
 30
0.0
 40
0.047
  0
LINE
  5
3E3
  8
HIDDEN
 10
4.6271500000000003
 20
18.083926999999989
 30
0.0
 11
4.6271500000000003
 21
18.177927
 31
0.0
  0
LINE
  5
3E4
  8
OBJECT
 10
4.905276999999999
 20
18.413844000000001
 30
0.0
 11
4.905276999999999
 21
18.023426999999991
 31
0.0
  0
LINE
  5
3E5
  8
OBJECT
 10
4.030276999999999
 20
18.030224
 30
0.0
 11
4.030276999999999
 21
20.231629999999988
 31
0.0
  0
LINE
  5
3E6
  8
OBJECT
 10
4.1102769999999991
 20
18.023426999999991
 30
0.0
 11
4.1102769999999991
 21
19.364495999999988
 31
0.0
  0
LINE
  5
3E7
  8
OBJECT
 10
4.155276999999999
 20
19.369799
 30
0.0
 11
4.155276999999999
 21
20.356629999999999
 31
0.0
  0
LINE
  5
3E8
  8
OBJECT
 10
5.030276999999999
 20
17.943427
 30
0.0
 11
4.155276999999999
 21
17.905224
 31
0.0
  0
LINE
  5
3E9
  8
OBJECT
 10
4.1102769999999991
 20
18.023426999999991
 30
0.0
 11
5.030276999999999
 21
18.023426999999991
 31
0.0
  0
ARC
  5
3EA
  8
OBJECT
 10
4.155276999999999
 20
18.030224
 30
0.0
 40
0.125
 50
180.0
 51
270.0
  0
LINE
  5
3EB
  8
HIDDEN
 10
4.905276999999999
 20
18.083926999999989
 30
0.0
 11
4.6271500000000003
 21
18.083926999999989
 31
0.0
  0
LINE
  5
3EC
  8
OBJECT
 10
4.905276999999999
 20
18.413844000000001
 30
0.0
 11
4.1102769999999991
 21
18.413844000000001
 31
0.0
  0
LINE
  5
3ED
  8
OBJECT
 10
5.030276999999999
 20
18.568426999999989
 30
0.0
 11
4.1102769999999991
 21
18.568426999999989
 31
0.0
  0
ARC
  5
3EE
  8
OBJECT
 10
4.0165269999999991
 20
19.130926999999989
 30
0.0
 40
0.15625
 50
306.86989799999992
 51
53.130102000000001
  0
LINE
  5
3EF
  8
HIDDEN
 10
4.905276999999999
 20
18.177927
 30
0.0
 11
4.6271500000000003
 21
18.177927
 31
0.0
  0
LINE
  5
3F0
  8
OBJECT
 10
5.030276999999999
 20
20.318426999999989
 30
0.0
 11
4.155276999999999
 21
20.356629999999999
 31
0.0
  0
LINE
  5
3F1
  8
HIDDEN
 10
4.905276999999999
 20
19.848011
 30
0.0
 11
4.1102769999999991
 21
19.848011
 31
0.0
  0
LINE
  5
3F2
  8
HIDDEN
 10
5.030276999999999
 20
19.693427
 30
0.0
 11
4.1102769999999991
 21
19.693427
 31
0.0
  0
LINE
  5
3F3
  8
HIDDEN
 10
4.1102769999999991
 20
20.238426999999991
 30
0.0
 11
5.030276999999999
 21
20.238426999999991
 31
0.0
  0
ARC
  5
3F4
  8
OBJECT
 10
4.155276999999999
 20
20.231629999999988
 30
0.0
 40
0.125
 50
90.0
 51
180.0
  0
LINE
  5
3F5
  8
HIDDEN
 10
4.905276999999999
 20
19.848011
 30
0.0
 11
4.905276999999999
 21
20.238426999999991
 31
0.0
  0
LINE
  5
3F6
  8
HIDDEN
 10
4.905276999999999
 20
20.177927
 30
0.0
 11
4.6271500000000003
 21
20.177927
 31
0.0
  0
LINE
  5
3F7
  8
HIDDEN
 10
4.905276999999999
 20
20.083926999999989
 30
0.0
 11
4.6271500000000003
 21
20.083926999999989
 31
0.0
  0
LINE
  5
3F8
  8
HIDDEN
 10
4.6271500000000003
 20
20.177927
 30
0.0
 11
4.6271500000000003
 21
20.083926999999989
 31
0.0
  0
LINE
  5
3F9
  8
OBJECT
 10
11.709989
 20
15.018643000000001
 30
0.0
 11
7.519010999999999
 21
15.018643000000001
 31
0.0
  0
LINE
  5
3FA
  8
HIDDEN
 10
11.159499999999991
 20
15.098642999999999
 30
0.0
 11
9.8053830000000008
 21
15.098642999999999
 31
0.0
  0
LINE
  5
3FB
  8
OBJECT
 10
11.777737
 20
15.14364299999999
 30
0.0
 11
9.8003830000000001
 21
15.14364299999999
 31
0.0
  0
LINE
  5
3FC
  8
OBJECT
 10
7.9515339999999988
 20
15.149095000000001
 30
0.0
 11
7.9894999999999987
 21
16.018643000000001
 31
0.0
  0
LINE
  5
3FD
  8
OBJECT
 10
8.4599159999999998
 20
15.89364299999999
 30
0.0
 11
8.4599159999999998
 21
15.098642999999999
 31
0.0
  0
LINE
  5
3FE
  8
OBJECT
 10
8.6144999999999996
 20
16.018643000000001
 30
0.0
 11
8.6144999999999996
 21
15.098642999999999
 31
0.0
  0
LINE
  5
3FF
  8
OBJECT
 10
8.0694999999999997
 20
15.098642999999999
 30
0.0
 11
8.0694999999999997
 21
16.018643000000001
 31
0.0
  0
ARC
  5
400
  8
OBJECT
 10
7.519010999999999
 20
15.080643
 30
0.0
 40
0.062
 50
185.0
 51
270.0
  0
LINE
  5
401
  8
OBJECT
 10
7.4572469999999988
 20
15.075239
 30
0.0
 11
7.4512619999999989
 21
15.14364299999999
 31
0.0
  0
LINE
  5
402
  8
HIDDEN
 10
7.6210000000000004
 20
15.14364299999999
 30
0.0
 11
7.6210000000000004
 21
15.018643000000001
 31
0.0
  0
ARC
  5
403
  8
HIDDEN
 10
8.076414999999999
 20
15.14364299999999
 30
0.0
 40
0.125
 50
177.5
 51
270.0
  0
LINE
  5
404
  8
HIDDEN
 10
7.8079999999999989
 20
15.14364299999999
 30
0.0
 11
7.8079999999999989
 21
15.018643000000001
 31
0.0
  0
LINE
  5
405
  8
OBJECT
 10
8.4599159999999998
 20
15.89364299999999
 30
0.0
 11
8.0694999999999997
 21
15.89364299999999
 31
0.0
  0
LINE
  5
406
  8
HIDDEN
 10
8.1300000000000008
 20
15.615515
 30
0.0
 11
8.2240000000000002
 21
15.615515
 31
0.0
  0
LINE
  5
407
  8
HIDDEN
 10
8.1300000000000008
 20
15.89364299999999
 30
0.0
 11
8.1300000000000008
 21
15.615515
 31
0.0
  0
LINE
  5
408
  8
HIDDEN
 10
8.2240000000000002
 20
15.89364299999999
 30
0.0
 11
8.2240000000000002
 21
15.615515
 31
0.0
  0
ARC
  5
409
  8
HIDDEN
 10
11.15258399999999
 20
15.14364299999999
 30
0.0
 40
0.125
 50
270.0
 51
2.5
  0
LINE
  5
40A
  8
HIDDEN
 10
10.769083
 20
15.89364299999999
 30
0.0
 11
10.769083
 21
15.098642999999999
 31
0.0
  0
LINE
  5
40B
  8
HIDDEN
 10
11.159499999999991
 20
15.098642999999999
 30
0.0
 11
11.159499999999991
 21
16.018643000000001
 31
0.0
  0
LINE
  5
40C
  8
HIDDEN
 10
10.6145
 20
16.018643000000001
 30
0.0
 11
10.6145
 21
15.098642999999999
 31
0.0
  0
ARC
  5
40D
  8
OBJECT
 10
9.6144999999999996
 20
15.00489299999999
 30
0.0
 40
0.15625
 50
36.869897999999999
 51
143.13010199999999
  0
LINE
  5
40E
  8
HIDDEN
 10
11.099500000000001
 20
15.89364299999999
 30
0.0
 11
11.099500000000001
 21
15.615515
 31
0.0
  0
LINE
  5
40F
  8
HIDDEN
 10
11.005499999999991
 20
15.89364299999999
 30
0.0
 11
11.005499999999991
 21
15.615515
 31
0.0
  0
LINE
  5
410
  8
HIDDEN
 10
11.099500000000001
 20
15.615515
 30
0.0
 11
11.005499999999991
 21
15.615515
 31
0.0
  0
LINE
  5
411
  8
HIDDEN
 10
10.769083
 20
15.89364299999999
 30
0.0
 11
11.159499999999991
 21
15.89364299999999
 31
0.0
  0
LINE
  5
412
  8
OBJECT
 10
11.277464999999991
 20
15.149095000000001
 30
0.0
 11
11.2395
 21
16.018643000000001
 31
0.0
  0
ARC
  5
413
  8
OBJECT
 10
11.709989
 20
15.080643
 30
0.0
 40
0.062
 50
270.0
 51
355.0
  0
LINE
  5
414
  8
HIDDEN
 10
11.42099999999999
 20
15.14364299999999
 30
0.0
 11
11.42099999999999
 21
15.018643000000001
 31
0.0
  0
LINE
  5
415
  8
HIDDEN
 10
11.60799999999999
 20
15.14364299999999
 30
0.0
 11
11.60799999999999
 21
15.018643000000001
 31
0.0
  0
LINE
  5
416
  8
OBJECT
 10
11.771753
 20
15.075239
 30
0.0
 11
11.777737
 21
15.14364299999999
 31
0.0
  0
LINE
  5
417
  8
OBJECT
 10
8.2074999999999996
 20
20.318426999999989
 30
0.0
 11
11.021499999999991
 21
20.318426999999989
 31
0.0
  0
LINE
  5
418
  8
OBJECT
 10
11.021499999999991
 20
17.943427
 30
0.0
 11
8.2074999999999996
 21
17.943427
 31
0.0
  0
LINE
  5
419
  8
OBJECT
 10
11.021499999999991
 20
17.905427
 30
0.0
 11
8.2074999999999996
 21
17.905427
 31
0.0
  0
LINE
  5
41A
  8
OBJECT
 10
8.2074999999999996
 20
20.356426999999989
 30
0.0
 11
11.021499999999991
 21
20.356426999999989
 31
0.0
  0
POLYLINE
  5
41B
  8
BEND
 66
     1
 10
0.0
 20
0.0
 30
0.0
  0
VERTEX
  5
813
  8
BEND
 10
8.0196719999999981
 20
17.987133
 30
0.0
  0
VERTEX
  5
814
  8
BEND
 10
7.4679479999999989
 20
18.581694999999989
 30
0.0
 42
-0.189222
  0
VERTEX
  5
815
  8
BEND
 10
7.4512619999999989
 20
18.624207999999989
 30
0.0
  0
VERTEX
  5
816
  8
BEND
 10
7.4512619999999989
 20
19.637646
 30
0.0
 42
-0.189222
  0
VERTEX
  5
817
  8
BEND
 10
7.4679479999999989
 20
19.680159
 30
0.0
  0
VERTEX
  5
818
  8
BEND
 10
8.0196719999999981
 20
20.274721
 30
0.0
  0
SEQEND
  5
819
  8
BEND
  0
LINE
  5
423
  8
OBJECT
 10
8.0495000000000001
 20
19.848011
 30
0.0
 11
8.4599159999999998
 21
20.25842699999999
 31
0.0
  0
LINE
  5
424
  8
OBJECT
 10
7.9894999999999987
 20
18.161427
 30
0.0
 11
7.9894999999999987
 21
20.100427
 31
0.0
  0
LINE
  5
425
  8
OBJECT
 10
7.9515000000000002
 20
18.161427
 30
0.0
 11
7.9515000000000002
 21
20.100427
 31
0.0
  0
LINE
  5
426
  8
OBJECT
 10
8.0495000000000001
 20
18.413842999999989
 30
0.0
 11
8.4599159999999998
 21
18.003426999999991
 31
0.0
  0
ARC
  5
427
  8
OBJECT
 10
8.2074999999999996
 20
18.161427
 30
0.0
 40
0.218
 50
180.0
 51
270.0
  0
ARC
  5
428
  8
OBJECT
 10
8.2074999999999996
 20
18.161427
 30
0.0
 40
0.256
 50
180.0
 51
270.0
  0
CIRCLE
  5
429
  8
OBJECT
 10
7.7145000000000001
 20
19.130926999999989
 30
0.0
 40
0.0935
  0
ARC
  5
42A
  8
OBJECT
 10
8.2074999999999996
 20
20.100427
 30
0.0
 40
0.218
 50
90.0
 51
180.0
  0
ARC
  5
42B
  8
OBJECT
 10
8.2074999999999996
 20
20.100427
 30
0.0
 40
0.256
 50
90.0
 51
180.0
  0
POLYLINE
  5
42C
  8
BEND
 66
     1
 10
0.0
 20
0.0
 30
0.0
  0
VERTEX
  5
81A
  8
BEND
 10
11.209327
 20
17.987133
 30
0.0
  0
VERTEX
  5
81B
  8
BEND
 10
11.761051
 20
18.581694999999989
 30
0.0
 42
0.189222
  0
VERTEX
  5
81C
  8
BEND
 10
11.777737
 20
18.624207999999989
 30
0.0
  0
VERTEX
  5
81D
  8
BEND
 10
11.777737
 20
19.637646
 30
0.0
 42
0.189222
  0
VERTEX
  5
81E
  8
BEND
 10
11.761051
 20
19.680159
 30
0.0
  0
VERTEX
  5
81F
  8
BEND
 10
11.209327
 20
20.274721
 30
0.0
  0
SEQEND
  5
820
  8
BEND
  0
LINE
  5
434
  8
OBJECT
 10
11.2395
 20
20.100427
 30
0.0
 11
11.2395
 21
18.161427
 31
0.0
  0
LINE
  5
435
  8
OBJECT
 10
11.2775
 20
20.100427
 30
0.0
 11
11.2775
 21
18.161427
 31
0.0
  0
LINE
  5
436
  8
HIDDEN
 10
11.179500000000001
 20
19.848011
 30
0.0
 11
10.769083
 21
20.25842699999999
 31
0.0
  0
ARC
  5
437
  8
OBJECT
 10
11.021499999999991
 20
18.161427
 30
0.0
 40
0.218
 50
270.0
 51
0.0
  0
ARC
  5
438
  8
OBJECT
 10
11.021499999999991
 20
18.161427
 30
0.0
 40
0.256
 50
270.0
 51
0.0
  0
LINE
  5
439
  8
HIDDEN
 10
11.179500000000001
 20
18.413842999999989
 30
0.0
 11
10.769083
 21
18.003426999999991
 31
0.0
  0
CIRCLE
  5
43A
  8
OBJECT
 10
9.6144999999999996
 20
19.130926999999989
 30
0.0
 40
0.125
  0
CIRCLE
  5
43B
  8
OBJECT
 10
11.5145
 20
19.130926999999989
 30
0.0
 40
0.0935
  0
ARC
  5
43C
  8
OBJECT
 10
11.021499999999991
 20
20.100427
 30
0.0
 40
0.218
 50
0.0
 51
90.0
  0
ARC
  5
43D
  8
OBJECT
 10
11.021499999999991
 20
20.100427
 30
0.0
 40
0.256
 50
0.0
 51
90.0
  0
LINE
  5
43E
  8
DIM
 10
8.0264800000000012
 20
20.281445999999999
 30
0.0
 11
8.2316889999999994
 21
20.486654999999988
 31
0.0
  0
DIMENSION
  5
43F
  8
DIM
  2
*D56
 10
8.7443591231509714
 20
20.999322876844101
 30
0.0
 11
9.1374268594590102
 21
21.164161890890909
 31
0.0
 70
     1
 13
8.4599159999999998
 23
20.25842699999999
 33
0.0
 14
8.2316889999999994
 24
20.486654999999988
 34
0.0
  0
DIMENSION
  5
44D
  8
DIM
  2
*D57
 10
11.277464999999991
 20
14.737332
 30
0.0
 11
9.6144995000000009
 21
14.737332
 31
0.0
 70
     0
  1
G
 13
7.9515339999999988
 23
15.149095000000001
 33
0.0
 14
11.277464999999991
 24
15.149095000000001
 34
0.0
  0
DIMENSION
  5
45B
  8
DIM
  2
*D58
 10
7.7145000000000001
 20
17.182186999999988
 30
0.0
 11
9.6144999999999996
 21
17.182186999999988
 31
0.0
 70
     0
  1
H
 13
11.5145
 23
19.130926999999989
 33
0.0
 14
7.7145000000000001
 24
19.130926999999989
 34
0.0
  0
TEXT
  5
46B
  8
DIM
 10
19.673846999999999
 20
6.1479609999999996
 30
0.0
 40
0.125
  1

  0
TEXT
  5
46C
  8
DIM
 10
19.736992999999991
 20
14.296635999999999
 30
0.0
 40
0.125
  1

  0
TEXT
  5
46D
  8
0
  6
CONTINUOUS
 62
     1
 10
38.239168999999997
 20
3.183049
 30
0.0
 40
0.0625
  1

  7
ROMANS
  0
TEXT
  5
46E
  8
0
  6
CONTINUOUS
 62
     1
 10
38.239168999999997
 20
2.8794769999999992
 30
0.0
 40
0.0625
  1

  7
ROMANS
  0
TEXT
  5
471
  8
DIM
 10
19.673846999999999
 20
16.267960999999989
 30
0.0
 40
0.125
  1

  0
TEXT
  5
472
  8
DIM
 10
19.736992999999991
 20
24.416636
 30
0.0
 40
0.125
  1

  0
TEXT
  5
473
  8
0
  6
CONTINUOUS
 62
     1
 10
38.239168999999997
 20
13.303049
 30
0.0
 40
0.0625
  1

  7
ROMANS
  0
TEXT
  5
474
  8
0
  6
CONTINUOUS
 62
     1
 10
38.239168999999997
 20
12.999477000000001
 30
0.0
 40
0.0625
  1

  7
ROMANS
  0
TEXT
  5
475
  8
0
  6
CONTINUOUS
 62
     1
 10
21.644064999999991
 20
23.504124999999998
 30
0.0
 40
0.0625
  1

  7
ROMANS
  0
TEXT
  5
476
  8
0
  6
CONTINUOUS
 62
     1
 10
21.644064999999991
 20
23.200552999999989
 30
0.0
 40
0.0625
  1

  7
ROMANS
  0
TEXT
  5
477
  8
0
  6
CONTINUOUS
 62
     1
 10
28.117889999999999
 20
11.547940999999989
 30
0.0
 40
0.125
  1

  7
CITYBLUEPRINT
  0
TEXT
  5
478
  8
0
  6
CONTINUOUS
 62
     1
 10
28.086393999999999
 20
11.312002
 30
0.0
 40
0.125
  1

  7
CITYBLUEPRINT
  0
TEXT
  5
479
  8
0
  6
CONTINUOUS
 62
     1
 10
21.251726999999988
 20
11.46929499999999
 30
0.0
 40
0.1875
  1

  7
CITYBLUEPRINT
  0
CIRCLE
  5
47A
  8
OBJECT
 10
6.6951080000000003
 20
6.834655999999999
 30
0.1875
 40
0.093
  0
CIRCLE
  5
47B
  8
OBJECT
 39
1.669999999999999
 10
7.3677259999999993
 20
8.5846559999999972
 30
0.1875
 40
0.125
  0
LINE
  5
47C
  8
OBJECT
 10
7.0952429999999991
 20
8.8129439999999981
 30
0.1875
 11
7.2400830000000003
 21
8.6681039999999996
 31
0.1875
  0
LINE
  5
47D
  8
OBJECT
 10
7.1397820000000003
 20
8.8567940000000007
 30
0.1875
 11
7.2842770000000003
 21
8.7122979999999988
 31
0.1875
  0
CIRCLE
  5
47E
  8
HIDDEN
 39
1.669999999999999
 10
12.11772599999999
 20
8.5846559999999972
 30
0.1875
 40
0.125
  0
LINE
  5
47F
  8
HIDDEN
 10
12.34567
 20
8.8567940000000007
 30
0.1875
 11
12.201174
 21
8.7122979999999988
 31
0.1875
  0
LINE
  5
480
  8
HIDDEN
 10
12.390207999999999
 20
8.8129439999999981
 30
0.1875
 11
12.245367999999999
 21
8.6681039999999996
 31
0.1875
  0
CIRCLE
  5
481
  8
HIDDEN
 39
1.669999999999999
 10
12.11772599999999
 20
5.084655999999999
 30
0.1875
 40
0.125
  0
LINE
  5
482
  8
HIDDEN
 10
12.390207999999999
 20
4.8563669999999988
 30
0.1875
 11
12.245367999999999
 21
5.0012069999999991
 31
0.1875
  0
LINE
  5
483
  8
HIDDEN
 10
12.34567
 20
4.812517999999999
 30
0.1875
 11
12.201174
 21
4.957012999999999
 31
0.1875
  0
CIRCLE
  5
484
  8
OBJECT
 39
1.669999999999999
 10
7.3677259999999993
 20
5.084655999999999
 30
0.1875
 40
0.125
  0
LINE
  5
485
  8
OBJECT
 10
7.0952429999999991
 20
4.8563669999999988
 30
0.1875
 11
7.2400830000000003
 21
5.0012069999999991
 31
0.1875
  0
LINE
  5
486
  8
OBJECT
 10
7.1397820000000003
 20
4.812517999999999
 30
0.1875
 11
7.2842770000000003
 21
4.957012999999999
 31
0.1875
  0
CIRCLE
  5
487
  8
OBJECT
 39
1.669999999999999
 10
7.3677259999999993
 20
8.5846559999999972
 30
0.1875
 40
0.045
  0
CIRCLE
  5
488
  8
OBJECT
 39
1.669999999999999
 10
12.11772599999999
 20
8.5846559999999972
 30
0.1875
 40
0.045
  0
CIRCLE
  5
489
  8
OBJECT
 39
1.669999999999999
 10
12.11772599999999
 20
5.084655999999999
 30
0.1875
 40
0.045
  0
CIRCLE
  5
48A
  8
OBJECT
 39
1.669999999999999
 10
7.3677259999999993
 20
5.084655999999999
 30
0.1875
 40
0.045
  0
CIRCLE
  5
48B
  8
OBJECT
 39
0.32
 10
7.6802259999999993
 20
8.2721559999999972
 30
0.1875
 40
0.125
  0
CIRCLE
  5
48C
  8
HIDDEN
 39
0.32
 10
11.80522599999999
 20
8.2721559999999972
 30
0.1875
 40
0.125
  0
CIRCLE
  5
48D
  8
HIDDEN
 39
0.32
 10
11.80522599999999
 20
5.397155999999999
 30
0.1875
 40
0.125
  0
CIRCLE
  5
48E
  8
OBJECT
 39
0.32
 10
7.6802259999999993
 20
5.397155999999999
 30
0.1875
 40
0.125
  0
CIRCLE
  5
48F
  8
OBJECT
 39
0.32
 10
7.6802259999999993
 20
8.2721559999999972
 30
0.1875
 40
0.045
  0
CIRCLE
  5
490
  8
HIDDEN
 39
0.32
 10
11.80522599999999
 20
8.2721559999999972
 30
0.1875
 40
0.045
  0
CIRCLE
  5
491
  8
HIDDEN
 39
0.32
 10
11.80522599999999
 20
5.397155999999999
 30
0.1875
 40
0.045
  0
CIRCLE
  5
492
  8
OBJECT
 39
0.32
 10
7.6802259999999993
 20
5.397155999999999
 30
0.1875
 40
0.045
  0
CIRCLE
  5
493
  8
OBJECT
 10
9.7427259999999993
 20
6.834655999999999
 30
0.1875
 40
0.156
  0
LINE
  5
494
  8
OBJECT
 10
1.424545999999999
 20
8.8816559999999996
 30
0.1875
 11
1.424545999999999
 21
4.7876560000000001
 31
0.1875
  0
LINE
  5
495
  8
OBJECT
 10
3.174545999999999
 20
8.9596559999999972
 30
0.1875
 11
3.174545999999999
 21
4.709655999999999
 31
0.1875
  0
LINE
  5
496
  8
HIDDEN
 10
1.5145459999999991
 20
8.8444380000000002
 30
0.1875
 11
1.5145459999999991
 21
7.3266460000000002
 31
0.1875
  0
LINE
  5
497
  8
OBJECT
 10
1.549545999999999
 20
9.0066559999999996
 30
0.1875
 11
1.549545999999999
 21
7.3348389999999988
 31
0.1875
  0
LINE
  5
498
  8
OBJECT
 10
3.112546
 20
5.209655999999999
 30
0.1875
 11
1.5145459999999991
 21
5.2371559999999988
 31
0.1875
  0
LINE
  5
499
  8
OBJECT
 10
3.112546
 20
4.959655999999999
 30
0.1875
 11
1.5145459999999991
 21
4.9321559999999991
 31
0.1875
  0
LINE
  5
49A
  8
OBJECT
 10
3.112546
 20
5.209655999999999
 30
0.1875
 11
3.112546
 21
4.959655999999999
 31
0.1875
  0
ARC
  5
49B
  8
OBJECT
 10
1.345054
 20
6.834655999999999
 30
0.1875
 40
0.230356
 50
317.37369499999988
 51
42.626305000000002
  0
LINE
  5
49C
  8
OBJECT
 10
3.174545999999999
 20
4.709655999999999
 30
0.1875
 11
1.549545999999999
 21
4.6626560000000001
 31
0.1875
  0
LINE
  5
49D
  8
OBJECT
 10
3.174545999999999
 20
4.7796560000000001
 30
0.1875
 11
1.5452760000000001
 21
4.7938739999999989
 31
0.1875
  0
ARC
  5
49E
  8
OBJECT
 10
1.545545999999999
 20
4.8248730000000002
 30
0.1875
 40
0.031
 50
180.0
 51
269.5
  0
LINE
  5
49F
  8
OBJECT
 10
3.049545999999999
 20
4.9585800000000004
 30
0.1875
 11
3.049545999999999
 21
4.780746999999999
 31
0.1875
  0
LINE
  5
4A0
  8
HIDDEN
 10
3.112546
 20
5.1296559999999989
 30
0.1875
 11
2.612546
 21
5.1296559999999989
 31
0.1875
  0
LINE
  5
4A1
  8
HIDDEN
 10
3.112546
 20
5.039655999999999
 30
0.1875
 11
2.612546
 21
5.039655999999999
 31
0.1875
  0
LINE
  5
4A2
  8
HIDDEN
 10
2.612546
 20
5.1296559999999989
 30
0.1875
 11
2.612546
 21
5.039655999999999
 31
0.1875
  0
LINE
  5
4A3
  8
OBJECT
 10
3.174545999999999
 20
8.9596559999999972
 30
0.1875
 11
1.549545999999999
 21
9.0066559999999996
 31
0.1875
  0
LINE
  5
4A4
  8
HIDDEN
 10
3.174545999999999
 20
8.8896560000000004
 30
0.1875
 11
1.5452760000000001
 21
8.8754369999999998
 31
0.1875
  0
LINE
  5
4A5
  8
HIDDEN
 10
3.112546
 20
8.4596559999999972
 30
0.1875
 11
1.5145459999999991
 21
8.4321559999999991
 31
0.1875
  0
LINE
  5
4A6
  8
HIDDEN
 10
3.112546
 20
8.7096559999999972
 30
0.1875
 11
1.5145459999999991
 21
8.7371560000000006
 31
0.1875
  0
ARC
  5
4A7
  8
HIDDEN
 10
1.545545999999999
 20
8.8444380000000002
 30
0.1875
 40
0.031
 50
90.5
 51
180.0
  0
LINE
  5
4A8
  8
HIDDEN
 10
3.112546
 20
8.4596559999999972
 30
0.1875
 11
3.112546
 21
8.7096559999999972
 31
0.1875
  0
LINE
  5
4A9
  8
HIDDEN
 10
2.612546
 20
8.539655999999999
 30
0.1875
 11
2.612546
 21
8.6296559999999989
 31
0.1875
  0
LINE
  5
4AA
  8
HIDDEN
 10
3.112546
 20
8.6296559999999989
 30
0.1875
 11
2.612546
 21
8.6296559999999989
 31
0.1875
  0
LINE
  5
4AB
  8
HIDDEN
 10
3.049545999999999
 20
8.7107320000000001
 30
0.1875
 11
3.049545999999999
 21
8.8885649999999998
 31
0.1875
  0
LINE
  5
4AC
  8
HIDDEN
 10
3.112546
 20
8.539655999999999
 30
0.1875
 11
2.612546
 21
8.539655999999999
 31
0.1875
  0
ARC
  5
4AD
  8
OBJECT
 10
1.549545999999999
 20
8.8816559999999996
 30
0.1875
 40
0.125
 50
90.0
 51
180.0
  0
ARC
  5
4AE
  8
OBJECT
 10
1.549545999999999
 20
4.7876560000000001
 30
0.1875
 40
0.125
 50
180.0
 51
270.0
  0
LINE
  5
4AF
  8
OBJECT
 10
12.499014999999989
 20
2.9628309999999991
 30
0.1875
 11
12.54601499999999
 21
1.3378309999999991
 31
0.1875
  0
LINE
  5
4B0
  8
OBJECT
 10
6.9990149999999991
 20
2.9628309999999991
 30
0.1875
 11
6.9520149999999994
 21
1.3378309999999991
 31
0.1875
  0
LINE
  5
4B1
  8
OBJECT
 10
7.0690149999999994
 20
2.9628309999999991
 30
0.1875
 11
7.083232999999999
 21
1.3335600000000001
 31
0.1875
  0
LINE
  5
4B2
  8
HIDDEN
 10
12.429015
 20
2.9628309999999991
 30
0.1875
 11
12.414796000000001
 21
1.3335600000000001
 31
0.1875
  0
LINE
  5
4B3
  8
OBJECT
 10
7.8091330000000001
 20
1.5328310000000001
 30
0.1875
 11
7.5591330000000001
 21
1.5328310000000001
 31
0.1875
  0
LINE
  5
4B4
  8
OBJECT
 10
7.1142320000000003
 20
1.302830999999999
 30
0.1875
 11
10.268522000000001
 21
1.302830999999999
 31
0.1875
  0
ARC
  5
4B5
  8
HIDDEN
 10
12.42101499999999
 20
1.3378309999999991
 30
0.1875
 40
0.125
 50
270.0
 51
0.0
  0
LINE
  5
4B6
  8
HIDDEN
 10
11.999014999999989
 20
2.9008310000000002
 30
0.1875
 11
11.971515
 21
1.302830999999999
 31
0.1875
  0
LINE
  5
4B7
  8
HIDDEN
 10
12.249015
 20
2.9008310000000002
 30
0.1875
 11
12.276515
 21
1.302830999999999
 31
0.1875
  0
ARC
  5
4B8
  8
HIDDEN
 10
12.38379799999999
 20
1.3338309999999991
 30
0.1875
 40
0.031
 50
270.0
 51
359.5
  0
LINE
  5
4B9
  8
HIDDEN
 10
11.999014999999989
 20
2.9008310000000002
 30
0.1875
 11
12.249015
 21
2.9008310000000002
 31
0.1875
  0
LINE
  5
4BA
  8
HIDDEN
 10
12.079015
 20
2.4008310000000002
 30
0.1875
 11
12.169015
 21
2.4008310000000002
 31
0.1875
  0
LINE
  5
4BB
  8
HIDDEN
 10
12.169015
 20
2.9008310000000002
 30
0.1875
 11
12.169015
 21
2.4008310000000002
 31
0.1875
  0
LINE
  5
4BC
  8
HIDDEN
 10
12.250090999999999
 20
2.8378309999999991
 30
0.1875
 11
12.427924000000001
 21
2.8378309999999991
 31
0.1875
  0
LINE
  5
4BD
  8
HIDDEN
 10
12.079015
 20
2.9008310000000002
 30
0.1875
 11
12.079015
 21
2.4008310000000002
 31
0.1875
  0
ARC
  5
4BE
  8
OBJECT
 10
9.7490149999999982
 20
1.1333379999999991
 30
0.1875
 40
0.230356
 50
47.373694999999991
 51
132.626305
  0
LINE
  5
4BF
  8
OBJECT
 10
7.8091330000000001
 20
1.5328310000000001
 30
0.1875
 11
7.8091330000000001
 21
1.302830999999999
 31
0.1875
  0
ARC
  5
4C0
  8
HIDDEN
 10
7.0770149999999994
 20
1.3378309999999991
 30
0.1875
 40
0.125
 50
180.0
 51
270.0
  0
LINE
  5
4C1
  8
OBJECT
 10
7.2490149999999991
 20
2.9008310000000002
 30
0.1875
 11
7.2215149999999992
 21
1.302830999999999
 31
0.1875
  0
LINE
  5
4C2
  8
OBJECT
 10
7.4990149999999991
 20
2.9008310000000002
 30
0.1875
 11
7.526514999999999
 21
1.302830999999999
 31
0.1875
  0
ARC
  5
4C3
  8
OBJECT
 10
7.1142320000000003
 20
1.3338309999999991
 30
0.1875
 40
0.031
 50
180.49999999999989
 51
270.0
  0
LINE
  5
4C4
  8
HIDDEN
 10
7.419014999999999
 20
2.9008310000000002
 30
0.1875
 11
7.419014999999999
 21
2.4008310000000002
 31
0.1875
  0
LINE
  5
4C5
  8
HIDDEN
 10
7.3290149999999992
 20
2.9008310000000002
 30
0.1875
 11
7.3290149999999992
 21
2.4008310000000002
 31
0.1875
  0
LINE
  5
4C6
  8
HIDDEN
 10
7.419014999999999
 20
2.4008310000000002
 30
0.1875
 11
7.3290149999999992
 21
2.4008310000000002
 31
0.1875
  0
LINE
  5
4C7
  8
OBJECT
 10
7.2479389999999988
 20
2.8378309999999991
 30
0.1875
 11
7.070106
 21
2.8378309999999991
 31
0.1875
  0
LINE
  5
4C8
  8
OBJECT
 10
7.4990149999999991
 20
2.9008310000000002
 30
0.1875
 11
7.2490149999999991
 21
2.9008310000000002
 31
0.1875
  0
LINE
  5
4C9
  8
OBJECT
 10
6.9990149999999991
 20
2.9628309999999991
 30
0.1875
 11
12.499014999999989
 21
2.9628309999999991
 31
0.1875
  0
LINE
  5
4CA
  8
OBJECT
 10
13.04648999999999
 20
1.3378309999999991
 30
0.1875
 11
10.260327999999999
 21
1.3378309999999991
 31
0.1875
  0
LINE
  5
4CB
  8
OBJECT
 10
12.978740999999999
 20
1.2128309999999991
 30
0.1875
 11
6.5197629999999993
 21
1.2128309999999991
 31
0.1875
  0
DIMENSION
  5
4CC
  8
DIM
  2
*D59
 10
6.4520150000000003
 20
0.4649770000000001
 30
0.1875
 11
9.7492525000000008
 21
0.4649770000000001
 31
0.1875
 70
     0
  1
<>
 13
13.04648999999999
 23
1.2128309999999991
 33
0.1875
 14
6.4520150000000003
 24
1.2128309999999991
 34
0.1875
  0
LINE
  5
4DA
  8
OBJECT
 10
6.457999
 20
1.2694270000000001
 30
0.1875
 11
6.4520150000000003
 21
1.3378309999999991
 31
0.1875
  0
ARC
  5
4DB
  8
OBJECT
 10
6.5197629999999993
 20
1.274831
 30
0.1875
 40
0.062
 50
185.0
 51
270.0
  0
LINE
  5
4DC
  8
HIDDEN
 10
6.7930149999999987
 20
1.3378309999999991
 30
0.1875
 11
6.7930149999999987
 21
1.2128309999999991
 31
0.1875
  0
LINE
  5
4DD
  8
HIDDEN
 10
6.6060149999999993
 20
1.3378309999999991
 30
0.1875
 11
6.6060149999999993
 21
1.2128309999999991
 31
0.1875
  0
DIMENSION
  5
4DE
  8
DIM
  2
*D60
 10
6.163799
 20
1.2128309999999991
 30
0.1875
 11
5.7692990000000002
 21
1.275331
 31
0.1875
 70
     0
 13
6.446775999999999
 23
1.3378309999999991
 33
0.1875
 14
6.446775999999999
 24
1.2128309999999991
 34
0.1875
 50
270.0
  0
LINE
  5
4EC
  8
OBJECT
 10
13.040505
 20
1.2694270000000001
 30
0.1875
 11
13.04648999999999
 21
1.3378309999999991
 31
0.1875
  0
ARC
  5
4ED
  8
OBJECT
 10
12.978740999999999
 20
1.274831
 30
0.1875
 40
0.062
 50
270.0
 51
355.0
  0
LINE
  5
4EE
  8
OBJECT
 10
7.5591330000000001
 20
1.5328310000000001
 30
0.1875
 11
7.5591330000000001
 21
1.302830999999999
 31
0.1875
  0
LINE
  5
4EF
  8
HIDDEN
 10
7.729133
 20
1.267830999999999
 30
0.1875
 11
7.6391330000000002
 21
1.267830999999999
 31
0.1875
  0
LINE
  5
4F0
  8
HIDDEN
 10
7.6391330000000002
 20
1.5328310000000001
 30
0.1875
 11
7.6391330000000002
 21
1.267830999999999
 31
0.1875
  0
LINE
  5
4F1
  8
HIDDEN
 10
7.729133
 20
1.5328310000000001
 30
0.1875
 11
7.729133
 21
1.267830999999999
 31
0.1875
  0
POLYLINE
  5
4F2
  8
OBJECT
 66
     1
 10
0.0
 20
0.0
 30
0.1875
 39
0.125
 70
     1
  0
VERTEX
  5
821
  8
OBJECT
 10
12.494726
 20
4.959655999999999
 30
0.1875
  0
VERTEX
  5
822
  8
OBJECT
 10
12.494726
 20
8.7096559999999972
 30
0.1875
 42
0.4142140000000001
  0
VERTEX
  5
823
  8
OBJECT
 10
12.244726
 20
8.9596559999999972
 30
0.1875
  0
VERTEX
  5
824
  8
OBJECT
 10
7.2407259999999987
 20
8.9596559999999972
 30
0.1875
 42
0.4142140000000001
  0
VERTEX
  5
825
  8
OBJECT
 10
6.9907259999999987
 20
8.7096559999999972
 30
0.1875
  0
VERTEX
  5
826
  8
OBJECT
 10
6.9907259999999987
 20
4.959655999999999
 30
0.1875
 42
0.4142140000000001
  0
VERTEX
  5
827
  8
OBJECT
 10
7.2407259999999987
 20
4.709655999999999
 30
0.1875
  0
VERTEX
  5
828
  8
OBJECT
 10
12.244726
 20
4.709655999999999
 30
0.1875
 42
0.4142140000000001
  0
SEQEND
  5
829
  8
OBJECT
  0
POLYLINE
  5
4FC
  8
OBJECT
 66
     1
 10
0.0
 20
0.0
 30
0.1875
 39
0.125
 70
     1
  0
VERTEX
  5
82A
  8
OBJECT
 10
12.54172599999999
 20
4.959655999999999
 30
0.1875
  0
VERTEX
  5
82B
  8
OBJECT
 10
12.54172599999999
 20
8.7096559999999972
 30
0.1875
 42
0.4142140000000001
  0
VERTEX
  5
82C
  8
OBJECT
 10
12.244726
 20
9.0066559999999996
 30
0.1875
  0
VERTEX
  5
82D
  8
OBJECT
 10
7.2407259999999987
 20
9.0066559999999996
 30
0.1875
 42
0.4142140000000001
  0
VERTEX
  5
82E
  8
OBJECT
 10
6.943725999999999
 20
8.7096559999999972
 30
0.1875
  0
VERTEX
  5
82F
  8
OBJECT
 10
6.943725999999999
 20
4.959655999999999
 30
0.1875
 42
0.4142140000000001
  0
VERTEX
  5
830
  8
OBJECT
 10
7.2407259999999987
 20
4.6626560000000001
 30
0.1875
  0
VERTEX
  5
831
  8
OBJECT
 10
12.244726
 20
4.6626560000000001
 30
0.1875
 42
0.4142140000000001
  0
SEQEND
  5
832
  8
OBJECT
  0
POLYLINE
  5
506
  8
BEND
 66
     1
 10
0.0
 20
0.0
 30
0.1875
 39
0.125
  0
VERTEX
  5
833
  8
BEND
 10
7.0317169999999987
 20
4.7486470000000001
 30
0.1875
  0
VERTEX
  5
834
  8
BEND
 10
6.4745809999999988
 20
5.3806789999999989
 30
0.1875
 42
-0.18144
  0
VERTEX
  5
835
  8
BEND
 10
6.443725999999999
 20
5.462909999999999
 30
0.1875
  0
VERTEX
  5
836
  8
BEND
 10
6.443725999999999
 20
8.2064020000000006
 30
0.1875
 42
-0.18144
  0
VERTEX
  5
837
  8
BEND
 10
6.4745809999999988
 20
8.2886320000000016
 30
0.1875
  0
VERTEX
  5
838
  8
BEND
 10
7.0317169999999987
 20
8.9206640000000004
 30
0.1875
  0
SEQEND
  5
839
  8
BEND
  0
POLYLINE
  5
50E
  8
BEND
 66
     1
 10
0.0
 20
0.0
 30
0.1875
 39
0.125
  0
VERTEX
  5
83A
  8
BEND
 10
12.458498000000001
 20
4.7486470000000001
 30
0.1875
  0
VERTEX
  5
83B
  8
BEND
 10
13.015634
 20
5.3806789999999989
 30
0.1875
 42
0.18144
  0
VERTEX
  5
83C
  8
BEND
 10
13.04648999999999
 20
5.462909999999999
 30
0.1875
  0
VERTEX
  5
83D
  8
BEND
 10
13.04648999999999
 20
8.2064020000000006
 30
0.1875
 42
0.18144
  0
VERTEX
  5
83E
  8
BEND
 10
13.015634
 20
8.2886320000000016
 30
0.1875
  0
VERTEX
  5
83F
  8
BEND
 10
12.458498000000001
 20
8.9206640000000004
 30
0.1875
  0
SEQEND
  5
840
  8
BEND
  0
CIRCLE
  5
516
  8
OBJECT
 10
12.795108000000001
 20
6.834655999999999
 30
0.1875
 40
0.093
  0
LINE
  5
517
  8
HIDDEN
 10
12.89201499999999
 20
1.3378309999999991
 30
0.1875
 11
12.89201499999999
 21
1.2128309999999991
 31
0.1875
  0
LINE
  5
518
  8
HIDDEN
 10
12.705014999999991
 20
1.3378309999999991
 30
0.1875
 11
12.705014999999991
 21
1.2128309999999991
 31
0.1875
  0
DIMENSION
  5
519
  8
DIM
  2
*D61
 10
12.54601499999999
 20
0.839977
 30
0.0
 11
9.7490149999999982
 21
0.839977
 31
0.0
 70
     0
 13
6.9520149999999994
 23
1.3378309999999991
 33
0.1875
 14
12.54601499999999
 24
1.3378309999999991
 34
0.1875
  0
DIMENSION
  5
527
  8
DIM
  2
*D62
 10
13.53474599999999
 20
6.834655999999999
 30
0.0
 11
13.53474599999999
 21
5.7486560000000022
 31
0.0
 70
     0
 13
12.244726
 23
4.6626560000000001
 33
0.1875
 14
12.795108000000001
 24
6.834655999999999
 34
0.1875
 50
90.0
  0
DIMENSION
  5
535
  8
DIM
  2
*D63
 10
12.499014999999989
 20
3.599076999999999
 30
0.0
 11
9.7490149999999982
 21
3.599076999999999
 31
0.0
 70
     0
 13
6.9990149999999991
 23
2.9628309999999991
 33
0.1875
 14
12.499014999999989
 24
2.9628309999999991
 34
0.1875
  0
DIMENSION
  5
543
  8
DIM
  2
*D64
 10
3.6329129999999989
 20
8.9596559999999972
 30
0.0
 11
3.6329129999999981
 21
6.834655999999999
 31
0.0
 70
     0
 13
3.174545999999999
 23
4.709655999999999
 33
0.1875
 14
3.174545999999999
 24
8.9596559999999972
 34
0.1875
 50
90.0
  0
DIMENSION
  5
551
  8
DIM
  2
*D65
 10
6.443725999999999
 20
9.3720100000000013
 30
0.0
 11
6.693725999999999
 21
9.766510000000002
 31
0.0
 70
     0
 13
6.943725999999999
 23
8.7096559999999972
 33
0.1875
 14
6.443725999999999
 24
8.2064020000000006
 34
0.1875
  0
DIMENSION
  5
55F
  8
DIM
  2
*D66
 10
1.424545999999999
 20
6.4797500000000001
 30
0.0
 11
1.4695459999999989
 21
6.8742499999999991
 31
0.0
 70
     0
 13
1.5145459999999991
 23
6.4335610000000001
 33
0.1875
 14
1.424545999999999
 24
6.4335610000000001
 34
0.1875
  0
DIMENSION
  5
56D
  8
DIM
  2
*D67
 10
6.6951080000000003
 20
4.0123739999999994
 30
0.0
 11
9.7451080000000019
 21
4.0123739999999994
 31
0.0
 70
     0
 13
12.795108000000001
 23
6.834655999999999
 33
0.1875
 14
6.6951080000000003
 24
6.834655999999999
 34
0.1875
  0
DIMENSION
  5
57B
  8
DIM
  2
*D68
 10
5.1274800000000003
 20
4.662656000000001
 30
0.0
 11
5.1274799999999994
 21
6.8346560000000007
 31
0.0
 70
     0
 13
7.2407259999999987
 23
9.0066559999999996
 33
0.1875
 14
7.2407259999999987
 24
4.6626560000000001
 34
0.1875
 50
90.0
  0
DIMENSION
  5
589
  8
DIM
  2
*D69
 10
3.174545999999999
 20
4.2775600000000003
 30
0.0
 11
2.299545999999999
 21
4.2775600000000003
 31
0.0
 70
     0
 13
1.424545999999999
 23
4.7876560000000001
 33
0.1875
 14
3.174545999999999
 24
4.709655999999999
 34
0.1875
  0
DIMENSION
  5
597
  8
DIM
  2
*D70
 10
6.4827379999999986
 20
2.9008310000000002
 30
0.0
 11
6.0882379999999978
 21
2.9318310000000012
 31
0.0
 70
     0
 13
6.9990149999999991
 23
2.9628309999999991
 33
0.1875
 14
7.2490149999999991
 24
2.9008310000000002
 34
0.1875
 50
90.0
  0
DIMENSION
  5
5A5
  8
DIM
  2
*D71
 10
13.041726000000001
 20
9.3720100000000013
 30
0.0
 11
12.79172599999999
 21
9.766510000000002
 31
0.0
 70
     0
 13
12.54172599999999
 23
8.7096559999999972
 33
0.1875
 14
13.041726000000001
 24
8.2064020000000006
 34
0.1875
  0
LINE
  5
5B3
  8
HIDDEN
 10
1.744545999999999
 20
8.3171559999999989
 30
0.1875
 11
1.4795459999999989
 21
8.3171559999999989
 31
0.1875
  0
LINE
  5
5B4
  8
HIDDEN
 10
1.744545999999999
 20
8.3971559999999972
 30
0.1875
 11
1.5145459999999991
 21
8.3971559999999972
 31
0.1875
  0
LINE
  5
5B5
  8
HIDDEN
 10
1.744545999999999
 20
8.227155999999999
 30
0.1875
 11
1.4795459999999989
 21
8.227155999999999
 31
0.1875
  0
LINE
  5
5B6
  8
HIDDEN
 10
1.744545999999999
 20
8.1471559999999972
 30
0.1875
 11
1.5145459999999991
 21
8.1471559999999972
 31
0.1875
  0
LINE
  5
5B7
  8
HIDDEN
 10
1.4795459999999989
 20
8.227155999999999
 30
0.1875
 11
1.4795459999999989
 21
8.3171559999999989
 31
0.1875
  0
LINE
  5
5B8
  8
HIDDEN
 10
1.744545999999999
 20
8.1471559999999972
 30
0.1875
 11
1.744545999999999
 21
8.3971559999999972
 31
0.1875
  0
LINE
  5
5B9
  8
OBJECT
 10
1.744545999999999
 20
5.522155999999999
 30
0.1875
 11
1.744545999999999
 21
5.272155999999999
 31
0.1875
  0
LINE
  5
5BA
  8
OBJECT
 10
1.744545999999999
 20
5.522155999999999
 30
0.1875
 11
1.5145459999999991
 21
5.522155999999999
 31
0.1875
  0
LINE
  5
5BB
  8
HIDDEN
 10
1.744545999999999
 20
5.4421559999999989
 30
0.1875
 11
1.4795459999999989
 21
5.4421559999999989
 31
0.1875
  0
LINE
  5
5BC
  8
HIDDEN
 10
1.744545999999999
 20
5.352155999999999
 30
0.1875
 11
1.4795459999999989
 21
5.352155999999999
 31
0.1875
  0
LINE
  5
5BD
  8
OBJECT
 10
1.744545999999999
 20
5.272155999999999
 30
0.1875
 11
1.5145459999999991
 21
5.272155999999999
 31
0.1875
  0
LINE
  5
5BE
  8
HIDDEN
 10
1.4795459999999989
 20
5.4421559999999989
 30
0.1875
 11
1.4795459999999989
 21
5.352155999999999
 31
0.1875
  0
LINE
  5
5BF
  8
HIDDEN
 10
11.858897000000001
 20
1.5328310000000001
 30
0.1875
 11
11.858897000000001
 21
1.267830999999999
 31
0.1875
  0
LINE
  5
5C0
  8
HIDDEN
 10
11.938897000000001
 20
1.5328310000000001
 30
0.1875
 11
11.938897000000001
 21
1.302830999999999
 31
0.1875
  0
LINE
  5
5C1
  8
HIDDEN
 10
11.768897000000001
 20
1.5328310000000001
 30
0.1875
 11
11.768897000000001
 21
1.267830999999999
 31
0.1875
  0
LINE
  5
5C2
  8
HIDDEN
 10
11.688897000000001
 20
1.5328310000000001
 30
0.1875
 11
11.688897000000001
 21
1.302830999999999
 31
0.1875
  0
LINE
  5
5C3
  8
HIDDEN
 10
11.768897000000001
 20
1.267830999999999
 30
0.1875
 11
11.858897000000001
 21
1.267830999999999
 31
0.1875
  0
LINE
  5
5C4
  8
HIDDEN
 10
11.688897000000001
 20
1.5328310000000001
 30
0.1875
 11
11.938897000000001
 21
1.5328310000000001
 31
0.1875
  0
TEXT
  5
5C7
  8
DIM
 10
19.673846999999999
 20
21.327960999999991
 30
0.0
 40
0.125
  1

  0
TEXT
  5
5C8
  8
DIM
 10
19.736992999999991
 20
29.476635999999999
 30
0.0
 40
0.125
  1

  0
TEXT
  5
5C9
  8
0
  6
CONTINUOUS
 62
     1
 10
38.239168999999997
 20
18.363049
 30
0.0
 40
0.0625
  1

  7
ROMANS
  0
TEXT
  5
5CA
  8
0
  6
CONTINUOUS
 62
     1
 10
38.239168999999997
 20
18.05947699999999
 30
0.0
 40
0.0625
  1

  7
ROMANS
  0
TEXT
  5
5CB
  8
0
  6
CONTINUOUS
 62
     1
 10
21.644064999999991
 20
28.564125000000001
 30
0.0
 40
0.0625
  1

  7
ROMANS
  0
TEXT
  5
5CC
  8
0
  6
CONTINUOUS
 62
     1
 10
21.644064999999991
 20
28.260553000000002
 30
0.0
 40
0.0625
  1

  7
ROMANS
  0
LINE
  5
5CD
  8
OBJECT
 10
12.402754
 20
3.0528309999999999
 30
0.1875
 11
7.0952749999999991
 21
3.0528309999999999
 31
0.1875
  0
ARC
  5
5CE
  8
OBJECT
 10
12.402754
 20
2.9598309999999999
 30
0.1875
 40
0.093
 50
0.0
 51
90.0
  0
ARC
  5
5CF
  8
OBJECT
 10
7.0952749999999991
 20
2.9598309999999999
 30
0.1875
 40
0.093
 50
90.0
 51
178.15142800000001
  0
LINE
  5
5D0
  8
OBJECT
 10
3.2645459999999988
 20
4.8026070000000001
 30
0.1875
 11
3.2645459999999988
 21
8.8667039999999986
 31
0.1875
  0
ARC
  5
5D1
  8
OBJECT
 10
3.1715459999999989
 20
8.8667039999999986
 30
0.1875
 40
0.093
 50
0.0
 51
88.151428000000024
  0
ARC
  5
5D2
  8
OBJECT
 10
3.1715459999999989
 20
4.8026070000000001
 30
0.1875
 40
0.093
 50
270.0
 51
0.0
  0
CIRCLE
  5
5D3
  8
OBJECT
 10
12.11772599999999
 20
5.084655999999999
 30
0.1875
 40
0.105
  0
CIRCLE
  5
5D4
  8
OBJECT
 10
12.11772599999999
 20
5.084655999999999
 30
0.1875
 40
0.06
  0
CIRCLE
  5
5D5
  8
OBJECT
 10
12.11772599999999
 20
8.5846559999999972
 30
0.1875
 40
0.105
  0
CIRCLE
  5
5D6
  8
OBJECT
 10
12.11772599999999
 20
8.5846559999999972
 30
0.1875
 40
0.06
  0
TEXT
  5
5D9
  8
DIM
 10
19.673846999999999
 20
21.327960999999991
 30
0.0
 40
0.125
  1

  0
TEXT
  5
5DA
  8
DIM
 10
19.736992999999991
 20
29.476635999999999
 30
0.0
 40
0.125
  1

  0
TEXT
  5
5DB
  8
0
  6
CONTINUOUS
 62
     1
 10
38.239168999999997
 20
18.363049
 30
0.0
 40
0.0625
  1

  7
ROMANS
  0
TEXT
  5
5DC
  8
0
  6
CONTINUOUS
 62
     1
 10
38.239168999999997
 20
18.05947699999999
 30
0.0
 40
0.0625
  1

  7
ROMANS
  0
TEXT
  5
5DF
  8
DIM
 10
19.673846999999999
 20
31.447960999999999
 30
0.0
 40
0.125
  1

  0
TEXT
  5
5E0
  8
DIM
 10
19.736992999999991
 20
39.59663599999999
 30
0.0
 40
0.125
  1

  0
TEXT
  5
5E1
  8
0
  6
CONTINUOUS
 62
     1
 10
38.239168999999997
 20
28.483049000000001
 30
0.0
 40
0.0625
  1

  7
ROMANS
  0
TEXT
  5
5E2
  8
0
  6
CONTINUOUS
 62
     1
 10
38.239168999999997
 20
28.179476999999999
 30
0.0
 40
0.0625
  1

  7
ROMANS
  0
TEXT
  5
5E3
  8
0
  6
CONTINUOUS
 62
     1
 10
21.644064999999991
 20
38.684125000000002
 30
0.0
 40
0.0625
  1

  7
ROMANS
  0
TEXT
  5
5E4
  8
0
  6
CONTINUOUS
 62
     1
 10
21.644064999999991
 20
38.380552999999999
 30
0.0
 40
0.0625
  1

  7
ROMANS
  0
TEXT
  5
5E7
  8
DIM
 10
19.673846999999999
 20
31.447960999999999
 30
0.0
 40
0.125
  1

  0
TEXT
  5
5E8
  8
DIM
 10
19.736992999999991
 20
39.59663599999999
 30
0.0
 40
0.125
  1

  0
TEXT
  5
5E9
  8
0
  6
CONTINUOUS
 62
     1
 10
38.239168999999997
 20
28.483049000000001
 30
0.0
 40
0.0625
  1

  7
ROMANS
  0
TEXT
  5
5EA
  8
0
  6
CONTINUOUS
 62
     1
 10
38.239168999999997
 20
28.179476999999999
 30
0.0
 40
0.0625
  1

  7
ROMANS
  0
TEXT
  5
5EB
  8
0
  6
CONTINUOUS
 62
     1
 10
21.644064999999991
 20
38.684125000000002
 30
0.0
 40
0.0625
  1

  7
ROMANS
  0
TEXT
  5
5EC
  8
0
  6
CONTINUOUS
 62
     1
 10
21.644064999999991
 20
38.380552999999999
 30
0.0
 40
0.0625
  1

  7
ROMANS
  0
TEXT
  5
5EF
  8
DIM
 10
19.673846999999999
 20
31.447960999999999
 30
0.0
 40
0.125
  1

  0
TEXT
  5
5F0
  8
DIM
 10
19.736992999999991
 20
39.59663599999999
 30
0.0
 40
0.125
  1

  0
TEXT
  5
5F1
  8
0
  6
CONTINUOUS
 62
     1
 10
38.239168999999997
 20
28.483049000000001
 30
0.0
 40
0.0625
  1

  7
ROMANS
  0
TEXT
  5
5F2
  8
0
  6
CONTINUOUS
 62
     1
 10
38.239168999999997
 20
28.179476999999999
 30
0.0
 40
0.0625
  1

  7
ROMANS
  0
TEXT
  5
5F5
  8
DIM
 10
19.673846999999999
 20
41.567960999999997
 30
0.0
 40
0.125
  1

  0
TEXT
  5
5F6
  8
DIM
 10
19.736992999999991
 20
49.716636000000001
 30
0.0
 40
0.125
  1

  0
TEXT
  5
5F7
  8
0
  6
CONTINUOUS
 62
     1
 10
38.239168999999997
 20
38.603048999999999
 30
0.0
 40
0.0625
  1

  7
ROMANS
  0
TEXT
  5
5F8
  8
0
  6
CONTINUOUS
 62
     1
 10
38.239168999999997
 20
38.299477000000003
 30
0.0
 40
0.0625
  1

  7
ROMANS
  0
TEXT
  5
5F9
  8
0
  6
CONTINUOUS
 62
     1
 10
21.644064999999991
 20
48.804124999999999
 30
0.0
 40
0.0625
  1

  7
ROMANS
  0
TEXT
  5
5FA
  8
0
  6
CONTINUOUS
 62
     1
 10
21.644064999999991
 20
48.500553000000011
 30
0.0
 40
0.0625
  1

  7
ROMANS
  0
TEXT
  5
5FD
  8
DIM
 10
19.673846999999999
 20
41.567960999999997
 30
0.0
 40
0.125
  1

  0
TEXT
  5
5FE
  8
DIM
 10
19.736992999999991
 20
49.716636000000001
 30
0.0
 40
0.125
  1

  0
TEXT
  5
5FF
  8
0
  6
CONTINUOUS
 62
     1
 10
38.239168999999997
 20
38.603048999999999
 30
0.0
 40
0.0625
  1

  7
ROMANS
  0
TEXT
  5
600
  8
0
  6
CONTINUOUS
 62
     1
 10
38.239168999999997
 20
38.299477000000003
 30
0.0
 40
0.0625
  1

  7
ROMANS
  0
TEXT
  5
601
  8
0
  6
CONTINUOUS
 62
     1
 10
21.644064999999991
 20
48.804124999999999
 30
0.0
 40
0.0625
  1

  7
ROMANS
  0
TEXT
  5
602
  8
0
  6
CONTINUOUS
 62
     1
 10
21.644064999999991
 20
48.500553000000011
 30
0.0
 40
0.0625
  1

  7
ROMANS
  0
TEXT
  5
605
  8
DIM
 10
19.673846999999999
 20
41.567960999999997
 30
0.0
 40
0.125
  1

  0
TEXT
  5
606
  8
DIM
 10
19.736992999999991
 20
49.716636000000001
 30
0.0
 40
0.125
  1

  0
TEXT
  5
607
  8
0
  6
CONTINUOUS
 62
     1
 10
38.239168999999997
 20
38.603048999999999
 30
0.0
 40
0.0625
  1

  7
ROMANS
  0
TEXT
  5
608
  8
0
  6
CONTINUOUS
 62
     1
 10
38.239168999999997
 20
38.299477000000003
 30
0.0
 40
0.0625
  1

  7
ROMANS
  0
DIMENSION
  5
609
  8
DIM
  2
*D72
 10
13.486729
 20
1.2128309999999991
 30
0.0
 11
13.486729
 21
2.1328310000000021
 31
0.0
 70
     0
 13
12.403229
 23
3.0528309999999999
 33
0.1875
 14
12.978740999999999
 24
1.2128309999999991
 34
0.1875
 50
270.0
  0
LINE
  5
617
  8
DIM
 10
11.277464999999991
 20
15.149095000000001
 30
0.0
 11
11.277464999999991
 21
15.456371999999989
 31
0.0
  0
DIMENSION
  5
618
  8
DIM
  2
*D73
 10
11.2395
 20
16.018643000000001
 30
0.0
 11
12.507534
 21
16.379034000000001
 31
0.0
 70
   130
  1
1%%d30' REF.
 13
11.277464999999991
 23
15.149095000000001
 33
0.0
 14
11.277464999999991
 24
15.456371999999989
 34
0.0
 15
11.277464999999991
 25
15.149095000000001
 35
0.0
 16
11.23956681453523
 26
16.451580945804981
 36
0.0
1001
ACAD
1000
DSTYLE
1002
{
1070
   271
1070
     0
1002
}
  0
DIMENSION
  5
629
  8
DIM
  2
*D74
 10
12.499014999999989
 20
2.9628309999999991
 30
0.1875
 11
13.74276199999999
 21
3.2769669999999991
 31
0.1875
 70
   130
  1
1%%d30' REF.
 13
12.536979999999989
 23
1.502071999999999
 33
0.1875
 14
12.536979999999989
 24
1.8093490000000001
 34
0.1875
 15
12.536979999999989
 25
1.502071999999999
 35
0.1875
 16
12.504968650069889
 26
3.3498284521215029
 36
0.1875
1001
ACAD
1000
DSTYLE
1002
{
1070
   271
1070
     0
1002
}
  0
TEXT
  5
63A
  8
TEXT
 10
11.351437499999991
 20
11.649476999999999
 30
0.0
 40
0.2805
  1
CU-387
 41
0.75
 72
     1
 11
11.947499999999989
 21
11.649476999999999
 31
0.0
  0
TEXT
  5
63B
  8
TEXT
 10
2.5807500000000001
 20
11.649476999999999
 30
0.0
 40
0.2805
  1
UTILIBOX  (STYLE G)
 41
0.75
 72
     1
 11
4.403999999999999
 21
11.649476999999999
 31
0.0
  0
DIMENSION
  5
63C
  8
DIM
  2
*D75
 10
13.04648999999999
 20
4.0123739999999994
 30
0.0
 11
12.920799000000001
 21
3.4303739999999991
 31
0.0
 70
     0
 13
12.795108000000001
 23
6.834655999999999
 33
0.1875
 14
13.04648999999999
 24
5.462909999999999
 34
0.1875
  0
POLYLINE
  5
64A
  8
OBJECT
 66
     1
 10
0.0
 20
0.0
 30
0.0
  0
VERTEX
  5
85B
  8
OBJECT
 10
10.33160099999999
 20
20.318426999999989
 30
0.0
 42
0.264541
  0
VERTEX
  5
85C
  8
OBJECT
 10
10.541112
 20
19.545767000000001
 30
0.0
 42
-0.333016
  0
VERTEX
  5
85D
  8
OBJECT
 10
10.63180599999999
 20
18.598042
 30
0.0
 42
0.166194
  0
VERTEX
  5
85E
  8
OBJECT
 10
10.48669499999999
 20
17.943427
 30
0.0
 42
-32.387203
  0
SEQEND
  5
85F
  8
OBJECT
  0
POLYLINE
  5
650
  8
OBJECT
 66
     1
 10
0.0
 20
0.0
 30
0.0
  0
VERTEX
  5
860
  8
OBJECT
 10
9.8034090000000003
 20
15.019643
 30
0.0
 42
0.156421
  0
VERTEX
  5
861
  8
OBJECT
 10
9.7480049999999991
 20
15.294233999999991
 30
0.0
 42
-0.260367
  0
VERTEX
  5
862
  8
OBJECT
 10
9.7480049999999991
 20
15.848276
 30
0.0
 42
0.102258
  0
VERTEX
  5
863
  8
OBJECT
 10
9.8271540000000002
 20
16.099142999999991
 30
0.0
 42
-19.627794000000002
  0
SEQEND
  5
864
  8
OBJECT
  0
POLYLINE
  5
656
  8
OBJECT
 66
     1
 10
0.0
 20
0.0
 30
0.0
  0
VERTEX
  5
865
  8
OBJECT
 10
4.030276999999999
 20
19.361395000000002
 30
0.0
 42
0.140795
  0
VERTEX
  5
866
  8
OBJECT
 10
4.4553089999999989
 20
19.478259000000001
 30
0.0
 42
-0.387437
  0
VERTEX
  5
867
  8
OBJECT
 10
4.9460300000000004
 20
19.383279999999999
 30
0.0
 42
0.246083
  0
VERTEX
  5
868
  8
OBJECT
 10
5.1107769999999988
 20
19.304131999999999
 30
0.0
 42
-0.7169080000000001
  0
SEQEND
  5
869
  8
OBJECT
  0
LINE
  5
65C
  8
OBJECT
 10
8.0495000000000001
 20
19.693427
 30
0.0
 11
8.0495000000000001
 21
20.102426999999999
 31
0.0
  0
ARC
  5
65D
  8
OBJECT
 10
8.2055000000000007
 20
20.102426999999999
 30
0.0
 40
0.156
 50
90.0
 51
180.0
  0
LINE
  5
65E
  8
OBJECT
 10
8.2055000000000007
 20
20.25842699999999
 30
0.0
 11
8.6144999999999996
 21
20.25842699999999
 31
0.0
  0
LINE
  5
65F
  8
OBJECT
 10
8.6144999999999996
 20
20.25842699999999
 30
0.0
 11
8.6144999999999996
 21
20.238426999999991
 31
0.0
  0
LINE
  5
660
  8
OBJECT
 10
8.6144999999999996
 20
20.238426999999991
 30
0.0
 11
10.315219000000001
 21
20.238426999999991
 31
0.0
  0
LINE
  5
661
  8
HIDDEN
 10
10.6145
 20
20.238426999999991
 30
0.0
 11
10.6145
 21
20.25842699999999
 31
0.0
  0
LINE
  5
662
  8
HIDDEN
 10
10.6145
 20
20.25842699999999
 30
0.0
 11
11.0235
 21
20.25842699999999
 31
0.0
  0
ARC
  5
663
  8
HIDDEN
 10
11.0235
 20
20.102426999999999
 30
0.0
 40
0.156
 50
0.0
 51
90.0
  0
LINE
  5
664
  8
HIDDEN
 10
11.179500000000001
 20
20.102426999999999
 30
0.0
 11
11.179500000000001
 21
19.693427
 31
0.0
  0
LINE
  5
665
  8
HIDDEN
 10
11.179500000000001
 20
19.693427
 30
0.0
 11
11.159499999999991
 21
19.693427
 31
0.0
  0
LINE
  5
666
  8
HIDDEN
 10
11.159499999999991
 20
19.693427
 30
0.0
 11
11.159499999999991
 21
18.568426999999989
 31
0.0
  0
LINE
  5
667
  8
HIDDEN
 10
11.159499999999991
 20
18.568426999999989
 30
0.0
 11
11.179500000000001
 21
18.568426999999989
 31
0.0
  0
LINE
  5
668
  8
HIDDEN
 10
11.179500000000001
 20
18.568426999999989
 30
0.0
 11
11.179500000000001
 21
18.15942699999999
 31
0.0
  0
ARC
  5
669
  8
HIDDEN
 10
11.0235
 20
18.15942699999999
 30
0.0
 40
0.156
 50
270.0
 51
0.0
  0
LINE
  5
66A
  8
HIDDEN
 10
11.0235
 20
18.003426999999991
 30
0.0
 11
10.6145
 21
18.003426999999991
 31
0.0
  0
LINE
  5
66B
  8
HIDDEN
 10
10.6145
 20
18.003426999999991
 30
0.0
 11
10.6145
 21
18.023426999999991
 31
0.0
  0
LINE
  5
66C
  8
HIDDEN
 10
10.6145
 20
18.023426999999991
 30
0.0
 11
10.480883
 21
18.023426999999991
 31
0.0
  0
LINE
  5
66D
  8
OBJECT
 10
8.6144999999999996
 20
18.023426999999991
 30
0.0
 11
8.6144999999999996
 21
18.003426999999991
 31
0.0
  0
LINE
  5
66E
  8
OBJECT
 10
8.6144999999999996
 20
18.003426999999991
 30
0.0
 11
8.2055000000000007
 21
18.003426999999991
 31
0.0
  0
ARC
  5
66F
  8
OBJECT
 10
8.2055000000000007
 20
18.15942699999999
 30
0.0
 40
0.156
 50
180.0
 51
270.0
  0
LINE
  5
670
  8
OBJECT
 10
8.0495000000000001
 20
18.15942699999999
 30
0.0
 11
8.0495000000000001
 21
18.568426999999989
 31
0.0
  0
LINE
  5
671
  8
OBJECT
 10
8.0495000000000001
 20
18.568426999999989
 30
0.0
 11
8.0694999999999997
 21
18.568426999999989
 31
0.0
  0
LINE
  5
672
  8
OBJECT
 10
8.0694999999999997
 20
18.568426999999989
 30
0.0
 11
8.0694999999999997
 21
19.693427
 31
0.0
  0
LINE
  5
673
  8
OBJECT
 10
8.0694999999999997
 20
19.693427
 30
0.0
 11
8.0495000000000001
 21
19.693427
 31
0.0
  0
LINE
  5
674
  8
OBJECT
 10
10.480883
 20
18.023426999999991
 30
0.0
 11
8.6144999999999996
 21
18.023426999999991
 31
0.0
  0
LINE
  5
675
  8
HIDDEN
 10
10.315219000000001
 20
20.238426999999991
 30
0.0
 11
10.6145
 21
20.238426999999991
 31
0.0
  0
LINE
  5
676
  8
HIDDEN
 10
4.1102769999999991
 20
19.364495999999988
 30
0.0
 11
4.1102769999999991
 21
20.238426999999991
 31
0.0
  0
LINE
  5
677
  8
OBJECT
 10
9.8053830000000008
 20
15.098642999999999
 30
0.0
 11
8.0694999999999997
 21
15.098642999999999
 31
0.0
  0
LINE
  5
678
  8
OBJECT
 10
7.951414999999999
 20
15.14364299999999
 30
0.0
 11
7.4512619999999989
 21
15.14364299999999
 31
0.0
  0
TEXT
  5
67B
  8
DIM
 10
19.862662
 20
23.970693000000001
 30
0.0
 40
0.125
  1

  0
TEXT
  5
67C
  8
DIM
 10
19.925807999999989
 20
32.119368000000001
 30
0.0
 40
0.125
  1

  0
TEXT
  5
67D
  8
0
  6
CONTINUOUS
 62
     1
 10
38.427984000000002
 20
21.005780999999988
 30
0.0
 40
0.0625
  1

  7
ROMANS
  0
TEXT
  5
67E
  8
0
  6
CONTINUOUS
 62
     1
 10
38.427984000000002
 20
20.702209
 30
0.0
 40
0.0625
  1

  7
ROMANS
  0
TEXT
  5
67F
  8
0
  6
CONTINUOUS
 62
     1
 10
21.832878999999998
 20
31.206856999999999
 30
0.0
 40
0.0625
  1

  7
ROMANS
  0
TEXT
  5
680
  8
0
  6
CONTINUOUS
 62
     1
 10
21.832878999999998
 20
30.903285
 30
0.0
 40
0.0625
  1

  7
ROMANS
  0
INSERT
  5
681
  8
OBJECT
  2
*X0
 10
-10.595424
 20
3.1981830000000002
 30
0.0
1001
ACAD
1000
HATCH
1002
{
1070
    16
1000
ANSI31
1040
1.0
1040
1.570795999999999
1002
}
  0
INSERT
  5
682
  8
OBJECT
  2
*X1
 10
-10.595424
 20
3.1981830000000002
 30
0.0
1001
ACAD
1000
HATCH
1002
{
1070
    16
1000
ANSI31
1040
1.0
1040
0.0
1002
}
  0
INSERT
  5
683
  8
OBJECT
  2
*X2
 10
-10.733650000000001
 20
3.717762
 30
0.0
1001
ACAD
1000
HATCH
1002
{
1070
    16
1000
ANSI31
1040
1.0
1040
0.0
1002
}
  0
INSERT
  5
684
  8
OBJECT
  2
*X3
 10
-10.733650000000001
 20
3.717762
 30
0.0
1001
ACAD
1000
HATCH
1002
{
1070
    16
1000
ANSI31
1040
1.0
1040
1.570795999999999
1002
}
  0
POLYLINE
  5
685
  8
DIM
 66
     1
 10
0.0
 20
0.0
 30
0.1875
 41
0.10125
  0
VERTEX
  5
86A
  8
DIM
 10
12.840427
 20
6.9158669999999987
 30
0.1875
  0
VERTEX
  5
86B
  8
DIM
 10
13.086387
 20
7.1145389999999988
 30
0.1875
 41
0.0
  0
VERTEX
  5
86C
  8
DIM
 10
13.458686999999999
 20
7.4152610000000001
 30
0.1875
 41
0.0
  0
VERTEX
  5
86D
  8
DIM
 10
13.72868699999999
 20
7.4152610000000001
 30
0.1875
 41
0.0
  0
SEQEND
  5
86E
  8
DIM
  0
TEXT
  5
68B
  8
DIM
 10
13.811344999999999
 20
7.0090110000000001
 30
0.1875
 40
0.1875
  1
(2) HOLES
 41
0.75
  7
TXT
 72
     2
 11
14.936344999999999
 21
7.1027610000000001
 31
0.1875
 73
     2
  0
TEXT
  5
68C
  8
DIM
 10
13.881657499999999
 20
7.3215110000000001
 30
0.1875
 40
0.1875
  1
0.187 DIA.
 41
0.75
  7
TXT
 72
     2
 11
14.936344999999999
 21
7.4152610000000001
 31
0.1875
 73
     2
  0
DIMENSION
  5
68D
  8
DIM
  2
*D76
 10
5.030276999999999
 20
20.663664000000001
 30
0.0
 11
5.0705270000000002
 21
21.058164000000001
 31
0.0
 70
     0
 13
5.1107769999999988
 23
20.237926999999988
 33
0.0
 14
5.030276999999999
 24
20.318426999999989
 34
0.0
  0
LINE
  5
69B
  8
TITLE
 10
2.8559999999999999
 20
14.06747699999999
 30
0.0
 11
2.8559999999999999
 21
12.195477
 31
0.0
  0
LINE
  5
69C
  8
TITLE
 10
4.214999999999999
 20
14.06747699999999
 30
0.0
 11
4.214999999999999
 21
12.195477
 31
0.0
  0
LINE
  5
69D
  8
TITLE
 10
5.573999999999999
 20
14.06747699999999
 30
0.0
 11
5.573999999999999
 21
12.195477
 31
0.0
  0
LINE
  5
69E
  8
TITLE
 10
6.9329999999999989
 20
14.06747699999999
 30
0.0
 11
6.9329999999999989
 21
12.195477
 31
0.0
  0
LINE
  5
69F
  8
TITLE
 10
8.2919999999999998
 20
14.06747699999999
 30
0.0
 11
8.2919999999999998
 21
12.195477
 31
0.0
  0
LINE
  5
6A0
  8
TITLE
 10
9.6509999999999998
 20
14.06747699999999
 30
0.0
 11
9.6509999999999998
 21
12.195477
 31
0.0
  0
LINE
  5
6A1
  8
TITLE
 10
11.009999999999989
 20
14.06747699999999
 30
0.0
 11
11.009999999999989
 21
12.195477
 31
0.0
  0
TEXT
  5
6A2
  8
TEXT
 10
10.049250000000001
 20
12.257877000000001
 30
0.0
 40
0.1875
  1
5.594
 41
0.75
 72
     1
 11
10.330500000000001
 21
12.257877000000001
 31
0.0
  0
TEXT
  5
6A3
  8
TEXT
 10
10.049250000000001
 20
12.569877
 30
0.0
 40
0.1875
  1
4.594
 41
0.75
 72
     1
 11
10.330500000000001
 21
12.569877
 31
0.0
  0
TEXT
  5
6A4
  8
TEXT
 10
10.084406250000001
 20
13.193877000000001
 30
0.0
 40
0.1875
  1
4.190
 41
0.75
 72
     1
 11
10.330500000000001
 21
13.193877000000001
 31
0.0
  0
TEXT
  5
6A5
  8
TEXT
 10
10.049250000000001
 20
12.881876999999999
 30
0.0
 40
0.1875
  1
3.344
 41
0.75
 72
     1
 11
10.330500000000001
 21
12.881876999999999
 31
0.0
  0
TEXT
  5
6A6
  8
TEXT
 10
10.049250000000001
 20
13.505876999999989
 30
0.0
 40
0.1875
  1
3.326
 41
0.75
 72
     1
 11
10.330500000000001
 21
13.505876999999989
 31
0.0
  0
TEXT
  5
6A7
  8
TEXT
 10
10.283625000000001
 20
13.817876999999999
 30
0.0
 40
0.1875
  1
G
 41
0.75
 72
     1
 11
10.330500000000001
 21
13.817876999999999
 31
0.0
  0
TEXT
  5
6A8
  8
TEXT
 10
11.419968750000001
 20
12.257877000000001
 30
0.0
 40
0.1875
  1
6.076
 41
0.75
 72
     1
 11
11.689500000000001
 21
12.257877000000001
 31
0.0
  0
TEXT
  5
6A9
  8
TEXT
 10
11.419968750000001
 20
12.569877
 30
0.0
 40
0.1875
  1
5.076
 41
0.75
 72
     1
 11
11.689500000000001
 21
12.569877
 31
0.0
  0
TEXT
  5
6AA
  8
TEXT
 10
11.408250000000001
 20
13.193877000000001
 30
0.0
 40
0.1875
  1
4.672
 41
0.75
 72
     1
 11
11.689500000000001
 21
13.193877000000001
 31
0.0
  0
TEXT
  5
6AB
  8
TEXT
 10
11.408250000000001
 20
12.881876999999999
 30
0.0
 40
0.1875
  1
3.826
 41
0.75
 72
     1
 11
11.689500000000001
 21
12.881876999999999
 31
0.0
  0
TEXT
  5
6AC
  8
TEXT
 10
11.431687500000001
 20
13.505876999999989
 30
0.0
 40
0.1875
  1
3.800
 41
0.75
 72
     1
 11
11.689500000000001
 21
13.505876999999989
 31
0.0
  0
TEXT
  5
6AD
  8
TEXT
 10
11.642625000000001
 20
13.817876999999999
 30
0.0
 40
0.1875
  1
H
 41
0.75
 72
     1
 11
11.689500000000001
 21
13.817876999999999
 31
0.0
  0
TEXT
  5
6AE
  8
DIM
 10
1.530667
 20
3.6184789999999998
 30
0.1875
 40
0.1875
  1
OPTIONAL MOUNTING BRACKETS
 41
0.75
  0
TEXT
  5
6AF
  8
DIM
 10
2.1869169999999989
 20
2.9934789999999998
 30
0.1875
 40
0.1875
  1
SUFFIX -MB TO CATALOG
 41
0.75
  0
TEXT
  5
6B0
  8
DIM
 10
1.9056669999999989
 20
3.3059789999999998
 30
0.1875
 40
0.1875
  1
ARE AVAILABLE BY ADDING
 41
0.75
  0
TEXT
  5
6B1
  8
DIM
 10
3.4994169999999989
 20
2.6809789999999998
 30
0.1875
 40
0.1875
  1
PART NUMBER.
 41
0.75
  0
POLYLINE
  5
6B2
  8
DIM
 66
     1
 10
0.0
 20
0.0
 30
0.1875
 41
0.10125
  0
VERTEX
  5
86F
  8
DIM
 10
6.5656619999999988
 20
5.3069739999999994
 30
0.1875
  0
VERTEX
  5
870
  8
DIM
 10
6.4110620000000003
 20
5.0856170000000001
 30
0.1875
 41
0.0
  0
VERTEX
  5
871
  8
DIM
 10
5.447487999999999
 20
3.7059699999999989
 30
0.1875
 41
0.0
  0
VERTEX
  5
872
  8
DIM
 10
5.1774879999999994
 20
3.7059699999999989
 30
0.1875
 41
0.0
  0
SEQEND
  5
873
  8
DIM
  0
TEXT
  5
6B8
  8
TEXT
 10
9.6522950000000005
 20
10.70589
 30
0.0
 40
0.1875
  1
SCREWS WITH HI/LOW THREADS
 41
0.75
  0
TEXT
  5
6B9
  8
TEXT
 10
9.6688729999999996
 20
10.392243999999989
 30
0.0
 40
0.1875
  1
ARE SUPPLIED FOR MOUNTING COVER.
 41
0.75
  0
TEXT
  5
6BA
  8
TEXT
 10
9.6522950000000005
 20
11.01839
 30
0.0
 40
0.1875
  1
FOUR (4) #4 x 0.500" LG. SELF THREADING
 41
0.75
  0
TEXT
  5
6BB
  8
TEXT
 10
0.286956
 20
11.06475099999999
 30
0.0
 40
0.1875
  1
%%UMATERIAL:%%U ABS THERMOPLASTIC (FLAMMABILITY RATING OF 94V-O AT
 41
0.75
  0
TEXT
  5
6BC
  8
TEXT
 10
4.1583920000000001
 20
10.75225099999999
 30
0.0
 40
0.1875
  1
0.080" THICKNESS AND CONTINUOUS USE
 41
0.75
  0
TEXT
  5
6BD
  8
TEXT
 10
4.1583920000000001
 20
10.43975099999999
 30
0.0
 40
0.1875
  1
TEMPERATURE OF 70%%D C.)
 41
0.75
  0
TEXT
  5
6BE
  8
TEXT
 10
0.286956
 20
10.14945599999999
 30
0.0
 40
0.1875
  1
%%UFINISH:%%U BLACK TEXTURED
 41
0.75
  0
DIMENSION
  5
6BF
  8
DIM
  2
*D77
 10
5.9447339999999986
 20
5.3971559999999998
 30
0.0
 11
5.9447339999999977
 21
6.8346560000000007
 31
0.0
 70
     0
 13
7.6802259999999993
 23
8.2721559999999972
 33
0.1875
 14
7.6802259999999993
 24
5.397155999999999
 34
0.1875
 50
90.0
  0
DIMENSION
  5
6CD
  8
DIM
  2
*D78
 10
11.80522599999999
 20
4.3873739999999994
 30
0.0
 11
9.7427259999999993
 21
4.3873739999999994
 31
0.0
 70
     0
 13
7.6802259999999993
 23
5.397155999999999
 33
0.1875
 14
11.80522599999999
 24
5.397155999999999
 34
0.1875
 50
180.0
  0
POLYLINE
  5
6DB
  8
OBJECT
 66
     1
 10
0.0
 20
0.0
 30
0.0
  0
VERTEX
  5
874
  8
OBJECT
 10
10.32837599999999
 20
3.0528309999999999
 30
0.0
  0
VERTEX
  5
875
  8
OBJECT
 10
10.299042
 20
2.9878589999999989
 30
0.0
  0
VERTEX
  5
876
  8
OBJECT
 10
10.266802
 20
2.893135
 30
0.0
  0
VERTEX
  5
877
  8
OBJECT
 10
10.25168
 20
2.800468
 30
0.0
  0
VERTEX
  5
878
  8
OBJECT
 10
10.257586
 20
2.7102680000000001
 30
0.0
  0
VERTEX
  5
879
  8
OBJECT
 10
10.28018099999999
 20
2.621837999999999
 30
0.0
  0
VERTEX
  5
87A
  8
OBJECT
 10
10.313064000000001
 20
2.534208
 30
0.0
  0
VERTEX
  5
87B
  8
OBJECT
 10
10.349833999999991
 20
2.4464069999999989
 30
0.0
  0
VERTEX
  5
87C
  8
OBJECT
 10
10.384088999999999
 20
2.3574630000000001
 30
0.0
  0
VERTEX
  5
87D
  8
OBJECT
 10
10.409428
 20
2.266405999999999
 30
0.0
  0
VERTEX
  5
87E
  8
OBJECT
 10
10.419449
 20
2.1722630000000001
 30
0.0
  0
VERTEX
  5
87F
  8
OBJECT
 10
10.407752
 20
2.074063999999999
 30
0.0
  0
VERTEX
  5
880
  8
OBJECT
 10
10.371444
 20
1.9703900000000001
 30
0.0
  0
VERTEX
  5
881
  8
OBJECT
 10
10.321675999999989
 20
1.858031999999999
 30
0.0
  0
VERTEX
  5
882
  8
OBJECT
 10
10.273108000000001
 20
1.733333
 30
0.0
  0
VERTEX
  5
883
  8
OBJECT
 10
10.240401
 20
1.5926379999999991
 30
0.0
  0
VERTEX
  5
884
  8
OBJECT
 10
10.238215
 20
1.4322900000000001
 30
0.0
  0
VERTEX
  5
885
  8
OBJECT
 10
10.28121
 20
1.2486319999999991
 30
0.0
  0
VERTEX
  5
886
  8
OBJECT
 10
10.29868999999999
 20
1.2128309999999991
 30
0.0
  0
SEQEND
  5
887
  8
OBJECT
  0
POLYLINE
  5
6F0
  8
OBJECT
 66
     1
 10
0.0
 20
0.0
 30
0.0
  0
VERTEX
  5
888
  8
OBJECT
 10
10.721221999999999
 20
9.0066559999999996
 30
0.0
  0
VERTEX
  5
889
  8
OBJECT
 10
10.757039999999989
 20
8.9284400000000002
 30
0.0
  0
VERTEX
  5
88A
  8
OBJECT
 10
10.80935899999999
 20
8.6942979999999999
 30
0.0
  0
VERTEX
  5
88B
  8
OBJECT
 10
10.808650999999999
 20
8.4886059999999972
 30
0.0
  0
VERTEX
  5
88C
  8
OBJECT
 10
10.77176499999999
 20
8.3071380000000001
 30
0.0
  0
VERTEX
  5
88D
  8
OBJECT
 10
10.715545000000001
 20
8.1456660000000003
 30
0.0
  0
VERTEX
  5
88E
  8
OBJECT
 10
10.65683999999999
 20
7.9999630000000002
 30
0.0
  0
VERTEX
  5
88F
  8
OBJECT
 10
10.61249499999999
 20
7.8658000000000001
 30
0.0
  0
VERTEX
  5
890
  8
OBJECT
 10
10.59540299999999
 20
7.7394350000000003
 30
0.0
  0
VERTEX
  5
891
  8
OBJECT
 10
10.60264499999999
 20
7.6190689999999996
 30
0.0
  0
VERTEX
  5
892
  8
OBJECT
 10
10.627348
 20
7.5033880000000002
 30
0.0
  0
VERTEX
  5
893
  8
OBJECT
 10
10.662639
 20
7.3910770000000001
 30
0.0
  0
VERTEX
  5
894
  8
OBJECT
 10
10.70164499999999
 20
7.2808229999999989
 30
0.0
  0
VERTEX
  5
895
  8
OBJECT
 10
10.737493000000001
 20
7.1713119999999986
 30
0.0
  0
VERTEX
  5
896
  8
OBJECT
 10
10.763310000000001
 20
7.0612300000000001
 30
0.0
  0
VERTEX
  5
897
  8
OBJECT
 10
10.772224
 20
6.9492619999999992
 30
0.0
  0
VERTEX
  5
898
  8
OBJECT
 10
10.75949299999999
 20
6.8344809999999994
 30
0.0
  0
VERTEX
  5
899
  8
OBJECT
 10
10.72890099999999
 20
6.7175000000000002
 30
0.0
  0
VERTEX
  5
89A
  8
OBJECT
 10
10.686363
 20
6.5993190000000004
 30
0.0
  0
VERTEX
  5
89B
  8
OBJECT
 10
10.637795000000001
 20
6.4809390000000002
 30
0.0
  0
VERTEX
  5
89C
  8
OBJECT
 10
10.589112999999999
 20
6.363357999999999
 30
0.0
  0
VERTEX
  5
89D
  8
OBJECT
 10
10.546233000000001
 20
6.2475769999999988
 30
0.0
  0
VERTEX
  5
89E
  8
OBJECT
 10
10.515069
 20
6.134595
 30
0.0
  0
VERTEX
  5
89F
  8
OBJECT
 10
10.50153699999999
 20
6.0254120000000002
 30
0.0
  0
VERTEX
  5
8A0
  8
OBJECT
 10
10.509558
 20
5.9206529999999988
 30
0.0
  0
VERTEX
  5
8A1
  8
OBJECT
 10
10.53506799999999
 20
5.8194349999999986
 30
0.0
  0
VERTEX
  5
8A2
  8
OBJECT
 10
10.572010000000001
 20
5.720502999999999
 30
0.0
  0
VERTEX
  5
8A3
  8
OBJECT
 10
10.614323999999989
 20
5.6225990000000001
 30
0.0
  0
VERTEX
  5
8A4
  8
OBJECT
 10
10.655951999999999
 20
5.5244669999999987
 30
0.0
  0
VERTEX
  5
8A5
  8
OBJECT
 10
10.690835
 20
5.424849
 30
0.0
  0
VERTEX
  5
8A6
  8
OBJECT
 10
10.712916
 20
5.322489
 30
0.0
  0
VERTEX
  5
8A7
  8
OBJECT
 10
10.716136000000001
 20
5.2161289999999996
 30
0.0
  0
VERTEX
  5
8A8
  8
OBJECT
 10
10.696508
 20
5.1049610000000003
 30
0.0
  0
VERTEX
  5
8A9
  8
OBJECT
 10
10.658333000000001
 20
4.9899659999999999
 30
0.0
  0
VERTEX
  5
8AA
  8
OBJECT
 10
10.607984
 20
4.8725709999999989
 30
0.0
  0
VERTEX
  5
8AB
  8
OBJECT
 10
10.551833999999991
 20
4.7542039999999988
 30
0.0
  0
VERTEX
  5
8AC
  8
OBJECT
 10
10.50868099999999
 20
4.6626560000000001
 30
0.0
  0
SEQEND
  5
8AD
  8
OBJECT
  0
LINE
  5
717
  8
HIDDEN
 10
10.268522000000001
 20
1.302830999999999
 30
0.1875
 11
12.38379799999999
 21
1.302830999999999
 31
0.1875
  0
LINE
  5
718
  8
OBJECT
 10
6.9520149999999994
 20
1.3378309999999991
 30
0.1875
 11
6.4520150000000003
 21
1.3378309999999991
 31
0.1875
  0
POLYLINE
  5
719
  8
HIDDEN
 66
     1
 10
0.0
 20
0.0
 30
0.1875
 39
0.125
  0
VERTEX
  5
8AE
  8
HIDDEN
 10
10.563907
 20
4.7796560000000001
 30
0.1875
  0
VERTEX
  5
8AF
  8
HIDDEN
 10
12.244726
 20
4.7796560000000001
 30
0.1875
 42
0.4142140000000001
  0
VERTEX
  5
8B0
  8
HIDDEN
 10
12.424726
 20
4.959655999999999
 30
0.1875
  0
SEQEND
  5
8B1
  8
HIDDEN
  0
POLYLINE
  5
71E
  8
HIDDEN
 66
     1
 10
0.0
 20
0.0
 30
0.1875
  0
VERTEX
  5
8B2
  8
HIDDEN
 10
10.78179499999999
 20
8.8176559999999995
 30
0.1875
  0
VERTEX
  5
8B3
  8
HIDDEN
 10
12.24272599999999
 20
8.8176559999999995
 30
0.1875
 42
-0.4142140000000001
  0
VERTEX
  5
8B4
  8
HIDDEN
 10
12.350726
 20
8.7096559999999972
 30
0.1875
  0
VERTEX
  5
8B5
  8
HIDDEN
 10
12.350726
 20
4.959655999999999
 30
0.1875
 42
-0.4142140000000001
  0
VERTEX
  5
8B6
  8
HIDDEN
 10
12.24272599999999
 20
4.8516560000000002
 30
0.1875
  0
VERTEX
  5
8B7
  8
HIDDEN
 10
10.598062999999989
 20
4.8516560000000002
 30
0.1875
 42
-0.4142140000000001
  0
SEQEND
  5
8B8
  8
HIDDEN
  0
POLYLINE
  5
726
  8
HIDDEN
 66
     1
 10
0.0
 20
0.0
 30
0.1875
 39
0.125
  0
VERTEX
  5
8B9
  8
HIDDEN
 10
12.424726
 20
4.959655999999999
 30
0.1875
  0
VERTEX
  5
8BA
  8
HIDDEN
 10
12.424726
 20
8.7096559999999972
 30
0.1875
 42
0.4142140000000001
  0
VERTEX
  5
8BB
  8
HIDDEN
 10
12.244726
 20
8.8896560000000004
 30
0.1875
  0
VERTEX
  5
8BC
  8
HIDDEN
 10
10.765705999999989
 20
8.8896560000000004
 30
0.1875
 42
0.419791
  0
SEQEND
  5
8BD
  8
HIDDEN
  0
POLYLINE
  5
72C
  8
OBJECT
 66
     1
 10
0.0
 20
0.0
 30
0.1875
 39
0.125
  0
VERTEX
  5
8BE
  8
OBJECT
 10
10.765705999999989
 20
8.8896560000000004
 30
0.1875
  0
VERTEX
  5
8BF
  8
OBJECT
 10
7.2407259999999987
 20
8.8896560000000004
 30
0.1875
 42
0.4142140000000001
  0
VERTEX
  5
8C0
  8
OBJECT
 10
7.0607259999999989
 20
8.7096559999999972
 30
0.1875
  0
VERTEX
  5
8C1
  8
OBJECT
 10
7.0607259999999989
 20
4.959655999999999
 30
0.1875
 42
0.4142140000000001
  0
VERTEX
  5
8C2
  8
OBJECT
 10
7.2407259999999987
 20
4.7796560000000001
 30
0.1875
  0
VERTEX
  5
8C3
  8
OBJECT
 10
10.563907
 20
4.7796560000000001
 30
0.1875
 42
0.4142140000000001
  0
SEQEND
  5
8C4
  8
OBJECT
  0
POLYLINE
  5
734
  8
HIDDEN
 66
     1
 10
0.0
 20
0.0
 30
0.1875
  0
VERTEX
  5
8C5
  8
HIDDEN
 10
10.767941
 20
8.8796559999999989
 30
0.1875
  0
VERTEX
  5
8C6
  8
HIDDEN
 10
12.24272599999999
 20
8.8796559999999989
 30
0.1875
 42
-0.4142140000000001
  0
VERTEX
  5
8C7
  8
HIDDEN
 10
12.412725999999999
 20
8.7096559999999972
 30
0.1875
  0
VERTEX
  5
8C8
  8
HIDDEN
 10
12.412725999999999
 20
4.959655999999999
 30
0.1875
 42
-0.4142140000000001
  0
VERTEX
  5
8C9
  8
HIDDEN
 10
12.24272599999999
 20
4.789655999999999
 30
0.1875
  0
VERTEX
  5
8CA
  8
HIDDEN
 10
10.568650999999999
 20
4.789655999999999
 30
0.1875
 42
-0.4142140000000001
  0
SEQEND
  5
8CB
  8
HIDDEN
  0
POLYLINE
  5
73C
  8
OBJECT
 66
     1
 10
0.0
 20
0.0
 30
0.1875
  0
VERTEX
  5
8CC
  8
OBJECT
 10
3.2645459999999988
 20
7.2667909999999996
 30
0.1875
  0
VERTEX
  5
8CD
  8
OBJECT
 10
3.1995749999999989
 20
7.2961249999999991
 30
0.1875
  0
VERTEX
  5
8CE
  8
OBJECT
 10
3.104851
 20
7.3283649999999989
 30
0.1875
  0
VERTEX
  5
8CF
  8
OBJECT
 10
3.0121839999999991
 20
7.3434879999999998
 30
0.1875
  0
VERTEX
  5
8D0
  8
OBJECT
 10
2.9219840000000001
 20
7.3375820000000003
 30
0.1875
  0
VERTEX
  5
8D1
  8
OBJECT
 10
2.833553999999999
 20
7.3149860000000002
 30
0.1875
  0
VERTEX
  5
8D2
  8
OBJECT
 10
2.745924
 20
7.2821030000000002
 30
0.1875
  0
VERTEX
  5
8D3
  8
OBJECT
 10
2.6581229999999989
 20
7.2453329999999996
 30
0.1875
  0
VERTEX
  5
8D4
  8
OBJECT
 10
2.5691790000000001
 20
7.2110779999999988
 30
0.1875
  0
VERTEX
  5
8D5
  8
OBJECT
 10
2.478121999999999
 20
7.185738999999999
 30
0.1875
  0
VERTEX
  5
8D6
  8
OBJECT
 10
2.3839790000000001
 20
7.175717999999998
 30
0.1875
  0
VERTEX
  5
8D7
  8
OBJECT
 10
2.285779999999999
 20
7.1874159999999998
 30
0.1875
  0
VERTEX
  5
8D8
  8
OBJECT
 10
2.1821060000000001
 20
7.2237239999999998
 30
0.1875
  0
VERTEX
  5
8D9
  8
OBJECT
 10
2.0697480000000001
 20
7.2734920000000001
 30
0.1875
  0
VERTEX
  5
8DA
  8
OBJECT
 10
1.945049
 20
7.3220589999999994
 30
0.1875
  0
VERTEX
  5
8DB
  8
OBJECT
 10
1.804354
 20
7.3547659999999997
 30
0.1875
  0
VERTEX
  5
8DC
  8
OBJECT
 10
1.6440060000000001
 20
7.356952999999999
 30
0.1875
  0
VERTEX
  5
8DD
  8
OBJECT
 10
1.4603479999999991
 20
7.3139580000000004
 30
0.1875
  0
VERTEX
  5
8DE
  8
OBJECT
 10
1.424545999999999
 20
7.2964779999999987
 30
0.1875
  0
SEQEND
  5
8DF
  8
OBJECT
  0
LINE
  5
751
  8
OBJECT
 10
1.5145459999999991
 20
7.3266460000000002
 30
0.1875
 11
1.5145459999999991
 21
4.8248730000000002
 31
0.1875
  0
INSERT
  5
752
  8
OBJECT
  2
*X4
 10
0.305313
 20
0.0
 30
0.0
1001
ACAD
1000
HATCH
1002
{
1070
    16
1000
ANSI31
1040
1.0
1040
1.570795999999999
1002
}
  0
INSERT
  5
753
  8
OBJECT
  2
*X5
 10
0.0
 20
0.0
 30
0.0
1001
ACAD
1000
HATCH
1002
{
1070
    16
1000
ANSI31
1040
1.0
1040
1.570795999999999
1002
}
  0
INSERT
  5
754
  8
OBJECT
  2
*X6
 10
0.0
 20
0.0
 30
0.0
1001
ACAD
1000
HATCH
1002
{
1070
    16
1000
ANSI31
1040
1.0
1040
0.0
1002
}
  0
INSERT
  5
755
  8
OBJECT
  2
*X7
 10
0.305313
 20
0.0
 30
0.0
1001
ACAD
1000
HATCH
1002
{
1070
    16
1000
ANSI31
1040
1.0
1040
0.0
1002
}
  0
DIMENSION
  5
756
  8
DIM
  2
*D79
 10
1.5145459999999991
 20
5.8069969999999991
 30
0.0
 11
1.6295459999999991
 21
5.4124970000000001
 31
0.0
 70
     0
 13
1.744545999999999
 23
5.522155999999999
 33
0.1875
 14
1.5145459999999991
 24
5.8176909999999991
 34
0.1875
  0
CIRCLE
  5
764
  8
OBJECT
 10
7.3677259999999993
 20
8.5846559999999972
 30
0.1875
 40
0.1525
  0
CIRCLE
  5
765
  8
OBJECT
 10
7.3677259999999993
 20
5.084655999999999
 30
0.1875
 40
0.1525
  0
POLYLINE
  5
766
  8
DIM
 66
     1
 10
0.0
 20
0.0
 30
0.1875
 41
0.10125
  0
VERTEX
  5
8E0
  8
DIM
 10
7.691349999999999
 20
8.2285520000000005
 30
0.1875
  0
VERTEX
  5
8E1
  8
DIM
 10
7.9055999999999989
 20
8.0642449999999997
 30
0.1875
 41
0.0
  0
VERTEX
  5
8E2
  8
DIM
 10
8.2267270000000003
 20
7.8179729999999994
 30
0.1875
 41
0.0
  0
VERTEX
  5
8E3
  8
DIM
 10
8.4967269999999981
 20
7.8179729999999994
 30
0.1875
 41
0.0
  0
SEQEND
  5
8E4
  8
DIM
  0
TEXT
  5
76C
  8
DIM
 10
8.6317269999999997
 20
7.7242229999999994
 30
0.0
 40
0.1875
  1
0.094 DIA. HOLE
 41
0.75
 11
8.6317269999999997
 21
7.8179729999999994
 31
0.0
 73
     2
  0
TEXT
  5
76D
  8
DIM
 10
8.6317269999999997
 20
7.4117229999999994
 30
0.0
 40
0.1875
  1
x 0.265 DEEP
 41
0.75
 11
8.6317269999999997
 21
7.5054729999999994
 31
0.0
 73
     2
  0
TEXT
  5
76E
  8
DIM
 10
8.6317269999999997
 20
7.0992229999999994
 30
0.0
 40
0.1875
  1
(4) PLACES
 41
0.75
 11
8.6317269999999997
 21
7.1929729999999994
 31
0.0
 73
     2
  0
POLYLINE
  5
76F
  8
DIM
 66
     1
 10
0.0
 20
0.0
 30
0.1875
 41
0.10125
  0
VERTEX
  5
8E5
  8
DIM
 10
7.7384829999999996
 20
5.5077499999999988
 30
0.1875
  0
VERTEX
  5
8E6
  8
DIM
 10
7.8695679999999992
 20
5.7437940000000003
 30
0.1875
 41
0.0
  0
VERTEX
  5
8E7
  8
DIM
 10
7.989380999999999
 20
5.9595390000000004
 30
0.1875
 41
0.0
  0
VERTEX
  5
8E8
  8
DIM
 10
8.2593809999999994
 20
5.9595390000000004
 30
0.1875
 41
0.0
  0
SEQEND
  5
8E9
  8
DIM
  0
TEXT
  5
775
  8
DIM
 10
8.3943809999999992
 20
5.8657890000000004
 30
0.0
 40
0.1875
  1
0.250 DIA. BOSS
 41
0.75
 11
8.3943809999999992
 21
5.9595390000000004
 31
0.0
 73
     2
  0
TEXT
  5
776
  8
DIM
 10
8.3943809999999992
 20
5.5532890000000004
 30
0.0
 40
0.1875
  1
(8) PLACES
 41
0.75
 11
8.3943809999999992
 21
5.6470390000000004
 31
0.0
 73
     2
  0
TEXT
  5
777
  8
DIM
 10
8.6576089999999972
 20
9.2242730000000002
 30
0.0
 40
0.1875
  1
(4) PLACES
 41
0.75
 11
8.6576089999999972
 21
9.3180230000000002
 31
0.0
 73
     2
  0
TEXT
  5
778
  8
DIM
 10
8.6576089999999972
 20
9.5367730000000002
 30
0.0
 40
0.1875
  1
x 0.500 DEEP
 41
0.75
 11
8.6576089999999972
 21
9.6305230000000002
 31
0.0
 73
     2
  0
TEXT
  5
779
  8
DIM
 10
8.6576089999999972
 20
9.8492730000000002
 30
0.0
 40
0.1875
  1
0.094 DIA. HOLE
 41
0.75
 11
8.6576089999999972
 21
9.9430230000000002
 31
0.0
 73
     2
  0
POLYLINE
  5
77A
  8
DIM
 66
     1
 10
0.0
 20
0.0
 30
0.1875
 41
0.10125
  0
VERTEX
  5
8EA
  8
DIM
 10
7.4013210000000003
 20
8.6145949999999996
 30
0.1875
  0
VERTEX
  5
8EB
  8
DIM
 10
7.5469979999999994
 20
8.8419229999999995
 30
0.1875
 41
0.0
  0
VERTEX
  5
8EC
  8
DIM
 10
8.2526089999999996
 20
9.9430230000000002
 30
0.1875
 41
0.0
  0
VERTEX
  5
8ED
  8
DIM
 10
8.5226089999999992
 20
9.9430230000000002
 30
0.1875
 41
0.0
  0
SEQEND
  5
8EE
  8
DIM
  0
POLYLINE
  5
780
  8
DIM
 66
     1
 10
0.0
 20
0.0
 30
0.0
 41
0.10125
  0
VERTEX
  5
8EF
  8
DIM
 10
8.2121089999999999
 20
18.162174
 30
0.0
  0
VERTEX
  5
8F0
  8
DIM
 10
8.2932810000000003
 20
18.419682999999988
 30
0.0
 41
0.0
  0
VERTEX
  5
8F1
  8
DIM
 10
8.4349790000000002
 20
18.86920499999999
 30
0.0
 41
0.0
  0
VERTEX
  5
8F2
  8
DIM
 10
8.7049789999999998
 20
18.86920499999999
 30
0.0
 41
0.0
  0
SEQEND
  5
8F3
  8
DIM
  0
TEXT
  5
786
  8
DIM
 10
8.8399789999999996
 20
18.77545499999999
 30
0.0
 40
0.1875
  1
0.094 DIA. HOLE
 41
0.75
 11
8.8399789999999996
 21
18.86920499999999
 31
0.0
 73
     2
  0
TEXT
  5
787
  8
DIM
 10
8.8399789999999996
 20
18.46295499999999
 30
0.0
 40
0.1875
  1
x 0.278 DEEP
 41
0.75
 11
8.8399789999999996
 21
18.55670499999999
 31
0.0
 73
     2
  0
TEXT
  5
788
  8
DIM
 10
8.8399789999999996
 20
18.15045499999999
 30
0.0
 40
0.1875
  1
(4) PLACES
 41
0.75
 11
8.8399789999999996
 21
18.24420499999999
 31
0.0
 73
     2
  0
TEXT
  5
78B
  8
DIM
 10
21.821475
 20
5.0330389999999987
 30
0.0
 40
0.125
  1

  0
TEXT
  5
78C
  8
DIM
 10
21.884620000000002
 20
13.181713
 30
0.0
 40
0.125
  1

  0
TEXT
  5
78D
  8
0
  6
CONTINUOUS
 62
     1
 10
40.386796999999987
 20
2.068125999999999
 30
0.0
 40
0.0625
  1

  7
ROMANS
  0
TEXT
  5
78E
  8
0
  6
CONTINUOUS
 62
     1
 10
40.386796999999987
 20
1.764554999999999
 30
0.0
 40
0.0625
  1

  7
ROMANS
  0
TEXT
  5
791
  8
DIM
 10
21.821475
 20
15.153039
 30
0.0
 40
0.125
  1

  0
TEXT
  5
792
  8
DIM
 10
21.884620000000002
 20
23.301712999999989
 30
0.0
 40
0.125
  1

  0
TEXT
  5
793
  8
0
  6
CONTINUOUS
 62
     1
 10
40.386796999999987
 20
12.18812599999999
 30
0.0
 40
0.0625
  1

  7
ROMANS
  0
TEXT
  5
794
  8
0
  6
CONTINUOUS
 62
     1
 10
40.386796999999987
 20
11.884555000000001
 30
0.0
 40
0.0625
  1

  7
ROMANS
  0
TEXT
  5
795
  8
0
  6
CONTINUOUS
 62
     1
 10
23.791692000000001
 20
22.38920199999999
 30
0.0
 40
0.0625
  1

  7
ROMANS
  0
TEXT
  5
796
  8
0
  6
CONTINUOUS
 62
     1
 10
23.791692000000001
 20
22.085630999999999
 30
0.0
 40
0.0625
  1

  7
ROMANS
  0
TEXT
  5
799
  8
DIM
 10
21.821475
 20
15.153039
 30
0.0
 40
0.125
  1

  0
TEXT
  5
79A
  8
DIM
 10
21.884620000000002
 20
23.301712999999989
 30
0.0
 40
0.125
  1

  0
TEXT
  5
79B
  8
0
  6
CONTINUOUS
 62
     1
 10
40.386796999999987
 20
12.18812599999999
 30
0.0
 40
0.0625
  1

  7
ROMANS
  0
TEXT
  5
79C
  8
0
  6
CONTINUOUS
 62
     1
 10
40.386796999999987
 20
11.884555000000001
 30
0.0
 40
0.0625
  1

  7
ROMANS
  0
TEXT
  5
79F
  8
DIM
 10
21.821475
 20
25.273039000000001
 30
0.0
 40
0.125
  1

  0
TEXT
  5
7A0
  8
DIM
 10
21.884620000000002
 20
33.421712999999997
 30
0.0
 40
0.125
  1

  0
TEXT
  5
7A1
  8
0
  6
CONTINUOUS
 62
     1
 10
40.386796999999987
 20
22.308126000000001
 30
0.0
 40
0.0625
  1

  7
ROMANS
  0
TEXT
  5
7A2
  8
0
  6
CONTINUOUS
 62
     1
 10
40.386796999999987
 20
22.004554999999989
 30
0.0
 40
0.0625
  1

  7
ROMANS
  0
TEXT
  5
7A3
  8
0
  6
CONTINUOUS
 62
     1
 10
23.791692000000001
 20
32.509202000000002
 30
0.0
 40
0.0625
  1

  7
ROMANS
  0
TEXT
  5
7A4
  8
0
  6
CONTINUOUS
 62
     1
 10
23.791692000000001
 20
32.20563099999999
 30
0.0
 40
0.0625
  1

  7
ROMANS
  0
TEXT
  5
7A7
  8
DIM
 10
21.821475
 20
25.273039000000001
 30
0.0
 40
0.125
  1

  0
TEXT
  5
7A8
  8
DIM
 10
21.884620000000002
 20
33.421712999999997
 30
0.0
 40
0.125
  1

  0
TEXT
  5
7A9
  8
0
  6
CONTINUOUS
 62
     1
 10
40.386796999999987
 20
22.308126000000001
 30
0.0
 40
0.0625
  1

  7
ROMANS
  0
TEXT
  5
7AA
  8
0
  6
CONTINUOUS
 62
     1
 10
40.386796999999987
 20
22.004554999999989
 30
0.0
 40
0.0625
  1

  7
ROMANS
  0
TEXT
  5
7AD
  8
DIM
 10
21.821475
 20
35.393039000000002
 30
0.0
 40
0.125
  1

  0
TEXT
  5
7AE
  8
DIM
 10
21.884620000000002
 20
43.541712999999987
 30
0.0
 40
0.125
  1

  0
TEXT
  5
7AF
  8
0
  6
CONTINUOUS
 62
     1
 10
40.386796999999987
 20
32.428125999999999
 30
0.0
 40
0.0625
  1

  7
ROMANS
  0
TEXT
  5
7B0
  8
0
  6
CONTINUOUS
 62
     1
 10
40.386796999999987
 20
32.124555000000001
 30
0.0
 40
0.0625
  1

  7
ROMANS
  0
TEXT
  5
7B1
  8
0
  6
CONTINUOUS
 62
     1
 10
23.791692000000001
 20
42.629201999999992
 30
0.0
 40
0.0625
  1

  7
ROMANS
  0
TEXT
  5
7B2
  8
0
  6
CONTINUOUS
 62
     1
 10
23.791692000000001
 20
42.325631000000001
 30
0.0
 40
0.0625
  1

  7
ROMANS
  0
TEXT
  5
7B5
  8
DIM
 10
37.321474999999992
 20
5.0330389999999987
 30
0.0
 40
0.125
  1

  0
TEXT
  5
7B6
  8
DIM
 10
37.384619999999998
 20
13.181713
 30
0.0
 40
0.125
  1

  0
TEXT
  5
7B7
  8
0
  6
CONTINUOUS
 62
     1
 10
55.886797000000001
 20
2.068125999999999
 30
0.0
 40
0.0625
  1

  7
ROMANS
  0
TEXT
  5
7B8
  8
0
  6
CONTINUOUS
 62
     1
 10
55.886797000000001
 20
1.764554999999999
 30
0.0
 40
0.0625
  1

  7
ROMANS
  0
TEXT
  5
7BB
  8
DIM
 10
37.321474999999992
 20
15.153039
 30
0.0
 40
0.125
  1

  0
TEXT
  5
7BC
  8
DIM
 10
37.384619999999998
 20
23.301712999999989
 30
0.0
 40
0.125
  1

  0
TEXT
  5
7BD
  8
0
  6
CONTINUOUS
 62
     1
 10
55.886797000000001
 20
12.18812599999999
 30
0.0
 40
0.0625
  1

  7
ROMANS
  0
TEXT
  5
7BE
  8
0
  6
CONTINUOUS
 62
     1
 10
55.886797000000001
 20
11.884555000000001
 30
0.0
 40
0.0625
  1

  7
ROMANS
  0
TEXT
  5
7BF
  8
0
  6
CONTINUOUS
 62
     1
 10
39.291691999999998
 20
22.38920199999999
 30
0.0
 40
0.0625
  1

  7
ROMANS
  0
TEXT
  5
7C0
  8
0
  6
CONTINUOUS
 62
     1
 10
39.291691999999998
 20
22.085630999999999
 30
0.0
 40
0.0625
  1

  7
ROMANS
  0
TEXT
  5
7C3
  8
DIM
 10
37.321474999999992
 20
15.153039
 30
0.0
 40
0.125
  1

  0
TEXT
  5
7C4
  8
DIM
 10
37.384619999999998
 20
23.301712999999989
 30
0.0
 40
0.125
  1

  0
TEXT
  5
7C5
  8
0
  6
CONTINUOUS
 62
     1
 10
55.886797000000001
 20
12.18812599999999
 30
0.0
 40
0.0625
  1

  7
ROMANS
  0
TEXT
  5
7C6
  8
0
  6
CONTINUOUS
 62
     1
 10
55.886797000000001
 20
11.884555000000001
 30
0.0
 40
0.0625
  1

  7
ROMANS
  0
TEXT
  5
7C9
  8
DIM
 10
37.321474999999992
 20
25.273039000000001
 30
0.0
 40
0.125
  1

  0
TEXT
  5
7CA
  8
DIM
 10
37.384619999999998
 20
33.421712999999997
 30
0.0
 40
0.125
  1

  0
TEXT
  5
7CB
  8
0
  6
CONTINUOUS
 62
     1
 10
55.886797000000001
 20
22.308126000000001
 30
0.0
 40
0.0625
  1

  7
ROMANS
  0
TEXT
  5
7CC
  8
0
  6
CONTINUOUS
 62
     1
 10
55.886797000000001
 20
22.004554999999989
 30
0.0
 40
0.0625
  1

  7
ROMANS
  0
TEXT
  5
7CD
  8
0
  6
CONTINUOUS
 62
     1
 10
39.291691999999998
 20
32.509202000000002
 30
0.0
 40
0.0625
  1

  7
ROMANS
  0
TEXT
  5
7CE
  8
0
  6
CONTINUOUS
 62
     1
 10
39.291691999999998
 20
32.20563099999999
 30
0.0
 40
0.0625
  1

  7
ROMANS
  0
TEXT
  5
7CF
  8
0
  6
CONTINUOUS
 62
     1
 10
45.765517999999993
 20
20.553018999999988
 30
0.0
 40
0.125
  1

  7
CITYBLUEPRINT
  0
TEXT
  5
7D0
  8
0
  6
CONTINUOUS
 62
     1
 10
45.734021999999989
 20
20.317079
 30
0.0
 40
0.125
  1

  7
CITYBLUEPRINT
  0
TEXT
  5
7D1
  8
0
  6
CONTINUOUS
 62
     1
 10
38.899353999999988
 20
20.474372999999989
 30
0.0
 40
0.1875
  1

  7
CITYBLUEPRINT
  0
LINE
  5
7D2
  8
TITLE
 10
12.369
 20
14.06747699999999
 30
0.0
 11
12.369
 21
12.195477
 31
0.0
  0
LINE
  5
7D3
  8
TITLE
 10
13.728
 20
14.06747699999999
 30
0.0
 11
13.728
 21
12.195477
 31
0.0
  0
TEXT
  5
7D4
  8
TEXT
 10
14.128754999999989
 20
12.569877
 30
0.0
 40
0.1875
  1
2.328
 41
0.75
 72
     1
 11
14.410004999999989
 21
12.569877
 31
0.0
  0
TEXT
  5
7D5
  8
TEXT
 10
12.772282000000001
 20
12.257877000000001
 30
0.0
 40
0.1875
  1
4.578
 41
0.75
 72
     1
 11
13.053532000000001
 21
12.257877000000001
 31
0.0
  0
TEXT
  5
7D6
  8
TEXT
 10
14.360625000000001
 20
13.817876999999999
 30
0.0
 40
0.1875
  1
K
 41
0.75
 72
     1
 11
14.407500000000001
 21
13.817876999999999
 31
0.0
  0
TEXT
  5
7D7
  8
TEXT
 10
14.152192499999989
 20
13.505876999999989
 30
0.0
 40
0.1875
  1
1.437
 41
0.75
 72
     1
 11
14.410004999999989
 21
13.505876999999989
 31
0.0
  0
TEXT
  5
7D8
  8
TEXT
 10
12.772282000000001
 20
12.881876999999999
 30
0.0
 40
0.1875
  1
2.328
 41
0.75
 72
     1
 11
13.053532000000001
 21
12.881876999999999
 31
0.0
  0
TEXT
  5
7D9
  8
TEXT
 10
14.152192499999989
 20
13.193877000000001
 30
0.0
 40
0.1875
  1
1.844
 41
0.75
 72
     1
 11
14.410004999999989
 21
13.193877000000001
 31
0.0
  0
TEXT
  5
7DA
  8
TEXT
 10
13.001625000000001
 20
13.817876999999999
 30
0.0
 40
0.1875
  1
J
 41
0.75
 72
     1
 11
13.048500000000001
 21
13.817876999999999
 31
0.0
  0
DIMENSION
  5
7DB
  8
DIM
  2
*D80
 10
6.9243959999999998
 20
18.413843
 30
0.0
 11
6.9243959999999971
 21
19.130927
 31
0.0
 70
     0
  1
K
 13
8.0495000000000001
 23
19.848011
 33
0.0
 14
8.0495000000000001
 24
18.413842999999989
 34
0.0
 50
90.0
  0
DIMENSION
  5
7E9
  8
DIM
  2
*D81
 10
10.769083
 20
17.557186999999999
 30
0.0
 11
9.6144995000000009
 21
17.557186999999999
 31
0.0
 70
     0
  1
J
 13
8.4599159999999998
 23
18.003426999999991
 33
0.0
 14
10.769083
 24
18.003426999999991
 34
0.0
  0
TEXT
  5
7F7
  8
TEXT
 10
12.76497599999999
 20
13.505876999999989
 30
0.0
 40
0.1875
  1
2.297
 41
0.75
 72
     1
 11
13.046226000000001
 21
13.505876999999989
 31
0.0
  0
TEXT
  5
7F8
  8
TEXT
 10
12.78841349999999
 20
13.193877000000001
 30
0.0
 40
0.1875
  1
2.218
 41
0.75
 72
     1
 11
13.046226000000001
 21
13.193877000000001
 31
0.0
  0
TEXT
  5
7F9
  8
TEXT
 10
14.130492
 20
12.881876999999999
 30
0.0
 40
0.1875
  1
2.328
 41
0.75
 72
     1
 11
14.411742
 21
12.881876999999999
 31
0.0
  0
TEXT
  5
7FA
  8
TEXT
 10
12.76497599999999
 20
12.569877
 30
0.0
 40
0.1875
  1
3.578
 41
0.75
 72
     1
 11
13.046226000000001
 21
12.569877
 31
0.0
  0
TEXT
  5
7FB
  8
TEXT
 10
14.130492
 20
12.257877000000001
 30
0.0
 40
0.1875
  1
2.828
 41
0.75
 72
     1
 11
14.411742
 21
12.257877000000001
 31
0.0
  0
TEXT
  5
7FC
  8
TEXT
 10
0.322769
 20
9.6092250000000003
 30
0.0
 40
0.1872
  1
%%UNOTE:%%U ALL DIMENSIONS HAVE %%P0.010 TOLERANCE
 41
0.75
  0
TEXT
  5
7FD
  8
TEXT
 10
0.322769
 20
1.6805769999999991
 30
0.0
 40
0.1872
  1
MOUNTING BOSSES USE EITHER M2.5 METRIC OR
 41
0.75
  0
TEXT
  5
7FE
  8
TEXT
 10
0.322769
 20
9.2972249999999992
 30
0.0
 40
0.1872
  1
UNLESS OTHERWISE SPECIFIED.
 41
0.75
  0
TEXT
  5
7FF
  8
TEXT
 10
0.322769
 20
1.0565770000000001
 30
0.0
 40
0.1872
  1
(NOT SUPPLIED)
 41
0.75
  0
TEXT
  5
800
  8
TEXT
 10
0.322769
 20
1.3685769999999999
 30
0.0
 40
0.1872
  1
#4 STD. SHEET METAL SCREWS x 0.250" LG.
 41
0.75
  0
TEXT
  5
801
  8
TEXT
 10
0.322769
 20
14.899243999999999
 30
0.0
 40
0.1872
  1
UNLESS OTHERWISE SPECIFIED.
 41
0.75
  0
TEXT
  5
802
  8
TEXT
 10
0.322769
 20
15.211244000000001
 30
0.0
 40
0.1872
  1
%%UNOTE:%%U ALL DIMENSIONS HAVE %%P0.010 TOLERANCE
 41
0.75
  0
ENDSEC
  0
EOF
