  0
SECTION
  2
HEADER
  9
$ACADVER
  1
AC1009
  9
$INSBASE
 10
0.0
 20
0.0
 30
0.0
  9
$EXTMIN
 10
-0.0007628812463523
 20
-0.0007094795591058
 30
-0.0015258207003583
  9
$EXTMAX
 10
15.181732224512061
 20
23.250709587825369
 30
0.0000000349246037
  9
$LIMMIN
 10
0.0
 20
0.0
  9
$LIMMAX
 10
25.0
 20
20.0
  9
$ORTHOMODE
 70
     0
  9
$REGENMODE
 70
     1
  9
$FILLMODE
 70
     1
  9
$QTEXTMODE
 70
     0
  9
$MIRRTEXT
 70
     0
  9
$DRAGMODE
 70
     2
  9
$LTSCALE
 40
0.75
  9
$OSMODE
 70
    37
  9
$ATTMODE
 70
     1
  9
$TEXTSIZE
 40
0.156
  9
$TRACEWID
 40
0.05
  9
$TEXTSTYLE
  7
STANDARD
  9
$CLAYER
  8
OBJECT
  9
$CELTYPE
  6
BYLAYER
  9
$CECOLOR
 62
   256
  9
$DIMSCALE
 40
1.5
  9
$DIMASZ
 40
0.18
  9
$DIMEXO
 40
0.063
  9
$DIMDLI
 40
0.281
  9
$DIMRND
 40
0.0
  9
$DIMDLE
 40
0.0
  9
$DIMEXE
 40
0.093
  9
$DIMTP
 40
0.0
  9
$DIMTM
 40
0.0
  9
$DIMTXT
 40
0.125
  9
$DIMCEN
 40
0.09
  9
$DIMTSZ
 40
0.0
  9
$DIMTOL
 70
     0
  9
$DIMLIM
 70
     0
  9
$DIMTIH
 70
     1
  9
$DIMTOH
 70
     1
  9
$DIMSE1
 70
     0
  9
$DIMSE2
 70
     0
  9
$DIMTAD
 70
     0
  9
$DIMZIN
 70
     0
  9
$DIMBLK
  1

  9
$DIMASO
 70
     1
  9
$DIMSHO
 70
     1
  9
$DIMPOST
  1

  9
$DIMAPOST
  1

  9
$DIMALT
 70
     0
  9
$DIMALTD
 70
     2
  9
$DIMALTF
 40
25.399999999999999
  9
$DIMLFAC
 40
1.0
  9
$DIMTOFL
 70
     0
  9
$DIMTVP
 40
0.0
  9
$DIMTIX
 70
     1
  9
$DIMSOXD
 70
     0
  9
$DIMSAH
 70
     0
  9
$DIMBLK1
  1

  9
$DIMBLK2
  1

  9
$DIMSTYLE
  2
23NSTDI
  9
$DIMCLRD
 70
     0
  9
$DIMCLRE
 70
     0
  9
$DIMCLRT
 70
     0
  9
$DIMTFAC
 40
1.0
  9
$DIMGAP
 40
0.09
  9
$LUNITS
 70
     2
  9
$LUPREC
 70
     3
  9
$SKETCHINC
 40
0.1
  9
$FILLETRAD
 40
0.0
  9
$AUNITS
 70
     0
  9
$AUPREC
 70
     1
  9
$MENU
  1
acad
  9
$ELEVATION
 40
0.0
  9
$PELEVATION
 40
0.0
  9
$THICKNESS
 40
0.0
  9
$LIMCHECK
 70
     0
  9
$BLIPMODE
 70
     0
  9
$CHAMFERA
 40
0.0
  9
$CHAMFERB
 40
0.0
  9
$SKPOLY
 70
     0
  9
$TDCREATE
 40
2450477.3627008102
  9
$TDUPDATE
 40
2451802.416003854
  9
$TDINDWG
 40
0.1158278588
  9
$TDUSRTIMER
 40
0.1158278588
  9
$USRTIMER
 70
     1
  9
$ANGBASE
 50
0.0
  9
$ANGDIR
 70
     0
  9
$PDMODE
 70
     0
  9
$PDSIZE
 40
0.0
  9
$PLINEWID
 40
0.0
  9
$COORDS
 70
     0
  9
$SPLFRAME
 70
     0
  9
$SPLINETYPE
 70
     6
  9
$SPLINESEGS
 70
     8
  9
$ATTDIA
 70
     0
  9
$ATTREQ
 70
     1
  9
$HANDLING
 70
  4097
  9
$HANDSEED
  5
D19
  9
$SURFTAB1
 70
     6
  9
$SURFTAB2
 70
     6
  9
$SURFTYPE
 70
     6
  9
$SURFU
 70
     6
  9
$SURFV
 70
     6
  9
$UCSNAME
  2

  9
$UCSORG
 10
0.0
 20
0.0
 30
0.0
  9
$UCSXDIR
 10
1.0
 20
0.0
 30
0.0
  9
$UCSYDIR
 10
0.0
 20
1.0
 30
0.0
  9
$PUCSNAME
  2

  9
$PUCSORG
 10
0.0
 20
0.0
 30
0.0
  9
$PUCSXDIR
 10
1.0
 20
0.0
 30
0.0
  9
$PUCSYDIR
 10
0.0
 20
1.0
 30
0.0
  9
$USERI1
 70
     0
  9
$USERI2
 70
     0
  9
$USERI3
 70
     0
  9
$USERI4
 70
     0
  9
$USERI5
 70
     0
  9
$USERR1
 40
0.0
  9
$USERR2
 40
0.0
  9
$USERR3
 40
0.0
  9
$USERR4
 40
0.0
  9
$USERR5
 40
0.0
  9
$WORLDVIEW
 70
     1
  9
$SHADEDGE
 70
     3
  9
$SHADEDIF
 70
    70
  9
$TILEMODE
 70
     1
  9
$MAXACTVP
 70
    16
  9
$PLIMCHECK
 70
     0
  9
$PEXTMIN
 10
1.0000000000000000E+020
 20
1.0000000000000000E+020
 30
1.0000000000000000E+020
  9
$PEXTMAX
 10
-1.0000000000000000E+020
 20
-1.0000000000000000E+020
 30
-1.0000000000000000E+020
  9
$PLIMMIN
 10
0.0
 20
0.0
  9
$PLIMMAX
 10
12.0
 20
9.0
  9
$UNITMODE
 70
     0
  9
$VISRETAIN
 70
     0
  9
$PLINEGEN
 70
     0
  9
$PSLTSCALE
 70
     0
  0
ENDSEC
  0
SECTION
  2
TABLES
  0
TABLE
  2
VPORT
 70
     2
  0
VPORT
  2
*ACTIVE
 70
     0
 10
0.0
 20
0.0
 11
1.0
 21
1.0
 12
7.5904846716328498
 22
11.62500005413313
 13
0.0
 23
0.0
 14
1.0
 24
1.0
 15
0.5
 25
0.5
 16
0.0
 26
0.0
 36
1.0
 17
0.0
 27
0.0
 37
0.0
 40
23.513161120675861
 41
1.813909774436089
 42
50.0
 43
0.0
 44
0.0
 50
0.0
 51
0.0
 71
     0
 72
   100
 73
     1
 74
     0
 75
     0
 76
     0
 77
     0
 78
     0
  0
ENDTAB
  0
TABLE
  2
LTYPE
 70
     4
  0
LTYPE
  2
CONTINUOUS
 70
     0
  3
Solid line
 72
    65
 73
     0
 40
0.0
  0
LTYPE
  2
HIDDEN
 70
     0
  3
_ _ _ _ _ _ _ _ _ _ _ _ _ _ _ _ _ _ _ _ _ _ _
 72
    65
 73
     2
 40
0.375
 49
0.25
 49
-0.125
  0
LTYPE
  2
CENTER
 70
     0
  3
____ _ ____ _ ____ _ ____ _ ____ _ ____ _ ____
 72
    65
 73
     4
 40
2.0
 49
1.25
 49
-0.25
 49
0.25
 49
-0.25
  0
LTYPE
  2
PHANTOM2
 70
     0
  3
___ _ _ ___ _ _ ___ _ _ ___ _ _ ___ _ _ ___ _ _
 72
    65
 73
     6
 40
1.25
 49
0.625
 49
-0.125
 49
0.125
 49
-0.125
 49
0.125
 49
-0.125
  0
ENDTAB
  0
TABLE
  2
LAYER
 70
     9
  0
LAYER
  2
0
 70
     0
 62
     7
  6
CONTINUOUS
  0
LAYER
  2
OBJECT
 70
     0
 62
     7
  6
CONTINUOUS
  0
LAYER
  2
DIM
 70
     0
 62
     7
  6
CONTINUOUS
  0
LAYER
  2
HIDDEN
 70
     0
 62
     7
  6
HIDDEN
  0
LAYER
  2
BEND
 70
     0
 62
     7
  6
PHANTOM2
  0
LAYER
  2
TEXT
 70
     0
 62
     7
  6
CONTINUOUS
  0
LAYER
  2
TITLE
 70
     0
 62
     7
  6
CONTINUOUS
  0
LAYER
  2
CENTER
 70
     0
 62
     7
  6
CENTER
  0
LAYER
  2
DEFPOINTS
 70
     0
 62
     7
  6
CONTINUOUS
  0
ENDTAB
  0
TABLE
  2
STYLE
 70
     4
  0
STYLE
  2
STANDARD
 70
     0
 40
0.0
 41
0.75
 50
0.0
 71
     0
 42
0.156
  3
TXT.shx
  4

  0
STYLE
  2
TXT
 70
     0
 40
0.0
 41
0.75
 50
0.0
 71
     0
 42
0.156
  3
TXT.shx
  4

  0
STYLE
  2
ROMANS
 70
     0
 40
0.125
 41
1.0
 50
0.0
 71
     0
 42
0.125
  3
romans
  4

  0
STYLE
  2
CITYBLUEPRINT
 70
     0
 40
0.1875
 41
1.0
 50
0.0
 71
     0
 42
0.1875
  3
cibt____.pfb
  4

  0
ENDTAB
  0
TABLE
  2
VIEW
 70
     0
  0
ENDTAB
  0
TABLE
  2
UCS
 70
     0
  0
ENDTAB
  0
TABLE
  2
APPID
 70
     1
  0
APPID
  2
ACAD
 70
     0
  0
ENDTAB
  0
TABLE
  2
DIMSTYLE
 70
     2
  0
DIMSTYLE
  2
23NSTD
 70
     0
  3

  4

  5

  6

  7

 40
1.5
 41
0.18
 42
0.063
 43
0.281
 44
0.093
 45
0.0
 46
0.0
 47
0.0
 48
0.0
140
0.125
141
0.09
142
0.0
143
25.399999999999999
144
1.0
145
0.0
146
1.0
147
0.09
 71
     0
 72
     0
 73
     1
 74
     1
 75
     0
 76
     0
 77
     0
 78
     0
170
     0
171
     2
172
     0
173
     0
174
     0
175
     0
176
     0
177
     0
178
     0
  0
DIMSTYLE
  2
23NSTDI
 70
     0
  3

  4

  5

  6

  7

 40
1.5
 41
0.18
 42
0.063
 43
0.281
 44
0.093
 45
0.0
 46
0.0
 47
0.0
 48
0.0
140
0.125
141
0.09
142
0.0
143
25.399999999999999
144
1.0
145
0.0
146
1.0
147
0.09
 71
     0
 72
     0
 73
     1
 74
     1
 75
     0
 76
     0
 77
     0
 78
     0
170
     0
171
     2
172
     0
173
     0
174
     1
175
     0
176
     0
177
     0
178
     0
  0
ENDTAB
  0
ENDSEC
  0
SECTION
  2
BLOCKS
  0
BLOCK
  8
0
  2
$MODEL_SPACE
 70
     0
 10
0.0
 20
0.0
 30
0.0
  3
$MODEL_SPACE
  1

  0
ENDBLK
  5
20
  8
0
  0
BLOCK
 67
     1
  8
0
  2
$PAPER_SPACE
 70
     0
 10
0.0
 20
0.0
 30
0.0
  3
$PAPER_SPACE
  1

  0
ENDBLK
  5
1C
 67
     1
  8
0
  0
BLOCK
  8
0
  2
CTRLN
 70
     0
 10
0.0
 20
0.0
 30
0.0
  3
CTRLN
  1

  0
TEXT
  5
38
  8
DIM
 10
-0.333616
 20
-0.112907
 30
0.0
 40
0.5
  1
C
 51
12.5
  7
ROMANS
  0
TEXT
  5
39
  8
DIM
 10
-0.159428
 20
-0.38628
 30
0.0
 40
0.5
  1
L
 51
12.5
  7
ROMANS
  0
ENDBLK
  5
3A
  8
0
  0
BLOCK
  8
0
  2
*D1
 70
     1
 10
0.0
 20
0.0
 30
0.0
  3
*D1
  1

  0
LINE
  5
3D
  8
0
  6
BYBLOCK
 62
     0
 10
8.7017830000000007
 20
13.215418
 30
0.0
 11
8.6567830000000008
 21
13.215418
 31
0.0
  0
LINE
  5
3E
  8
0
  6
BYBLOCK
 62
     0
 10
8.7729059999999972
 20
13.465418
 30
0.0
 11
8.9357830000000007
 21
13.465418
 31
0.0
  0
LINE
  5
3F
  8
0
  6
BYBLOCK
 62
     0
 10
8.7962830000000007
 20
12.945418
 30
0.0
 11
8.7962830000000007
 21
12.675418000000001
 31
0.0
  0
LINE
  5
40
  8
0
  6
BYBLOCK
 62
     0
 10
8.7962830000000007
 20
13.73541799999999
 30
0.0
 11
8.7962830000000007
 21
14.005418000000001
 31
0.0
  0
LINE
  5
41
  8
0
  6
BYBLOCK
 62
     0
 10
8.7962830000000007
 20
14.005418000000001
 30
0.0
 11
9.0662830000000003
 21
14.005418000000001
 31
0.0
  0
SOLID
  5
42
  8
0
  6
BYBLOCK
 62
     0
 10
8.7512830000000008
 20
12.945418
 30
0.0
 11
8.8412830000000007
 21
12.945418
 31
0.0
 12
8.7962830000000007
 22
13.215418
 32
0.0
 13
8.7962830000000007
 23
13.215418
 33
0.0
  0
SOLID
  5
43
  8
0
  6
BYBLOCK
 62
     0
 10
8.7512830000000008
 20
13.73541799999999
 30
0.0
 11
8.8412830000000007
 21
13.73541799999999
 31
0.0
 12
8.7962830000000007
 22
13.465418
 32
0.0
 13
8.7962830000000007
 23
13.465418
 33
0.0
  0
TEXT
  5
44
  8
0
  6
BYBLOCK
 62
     0
 10
9.2012824999999996
 20
13.91166799999999
 30
0.0
 40
0.1875
  1
0.250
 41
0.75
 72
     1
 11
9.4590949999999996
 21
14.005418000000001
 31
0.0
 73
     2
  0
POINT
  5
45
  8
DEFPOINTS
  6
BYBLOCK
 62
     0
 10
8.7962830000000007
 20
13.215418
 30
0.0
  0
POINT
  5
46
  8
DEFPOINTS
  6
BYBLOCK
 62
     0
 10
8.6784059999999972
 20
13.465418
 30
0.0
  0
POINT
  5
47
  8
DEFPOINTS
  6
BYBLOCK
 62
     0
 10
8.7962830000000007
 20
13.465418
 30
0.0
  0
ENDBLK
  5
48
  8
0
  0
BLOCK
  8
0
  2
*D2
 70
     1
 10
0.0
 20
0.0
 30
0.0
  3
*D2
  1

  0
LINE
  5
4B
  8
0
  6
BYBLOCK
 62
     0
 10
12.217905999999999
 20
17.759488999999999
 30
0.0
 11
12.217905999999999
 21
17.804489
 31
0.0
  0
LINE
  5
4C
  8
0
  6
BYBLOCK
 62
     0
 10
8.1119059999999994
 20
17.759488999999999
 30
0.0
 11
8.1119059999999994
 21
17.804489
 31
0.0
  0
LINE
  5
4D
  8
0
  6
BYBLOCK
 62
     0
 10
11.947905999999991
 20
17.664988999999998
 30
0.0
 11
10.194741
 21
17.664988999999998
 31
0.0
  0
LINE
  5
4E
  8
0
  6
BYBLOCK
 62
     0
 10
8.3819059999999972
 20
17.664988999999998
 30
0.0
 11
9.4325539999999997
 21
17.664988999999998
 31
0.0
  0
SOLID
  5
4F
  8
0
  6
BYBLOCK
 62
     0
 10
11.947905999999991
 20
17.709989
 30
0.0
 11
11.947905999999991
 21
17.619989
 31
0.0
 12
12.217905999999999
 22
17.664988999999998
 32
0.0
 13
12.217905999999999
 23
17.664988999999998
 33
0.0
  0
SOLID
  5
50
  8
0
  6
BYBLOCK
 62
     0
 10
8.3819059999999972
 20
17.709989
 30
0.0
 11
8.3819059999999972
 21
17.619989
 31
0.0
 12
8.1119059999999994
 22
17.664988999999998
 32
0.0
 13
8.1119059999999994
 23
17.664988999999998
 33
0.0
  0
TEXT
  5
51
  8
0
  6
BYBLOCK
 62
     0
 10
9.5675532499999996
 20
17.571238999999998
 30
0.0
 40
0.1875
  1
4.106
 41
0.75
 72
     1
 11
9.8136469999999996
 21
17.664988999999998
 31
0.0
 73
     2
  0
POINT
  5
52
  8
DEFPOINTS
  6
BYBLOCK
 62
     0
 10
12.217905999999999
 20
17.664988999999998
 30
0.0
  0
POINT
  5
53
  8
DEFPOINTS
  6
BYBLOCK
 62
     0
 10
8.1119059999999994
 20
17.664988999999998
 30
0.0
  0
POINT
  5
54
  8
DEFPOINTS
  6
BYBLOCK
 62
     0
 10
8.1119059999999994
 20
17.664988999999998
 30
0.0
  0
ENDBLK
  5
55
  8
0
  0
BLOCK
  8
0
  2
*D3
 70
     1
 10
0.0
 20
0.0
 30
0.0
  3
*D3
  1

  0
LINE
  5
58
  8
0
  6
BYBLOCK
 62
     0
 10
8.3374059999999997
 20
19.490470999999989
 30
0.0
 11
9.1593640000000001
 21
19.490470999999989
 31
0.0
  0
LINE
  5
59
  8
0
  6
BYBLOCK
 62
     0
 10
8.3374059999999997
 20
16.634232999999991
 30
0.0
 11
9.1593640000000001
 21
16.634232999999991
 31
0.0
  0
LINE
  5
5A
  8
0
  6
BYBLOCK
 62
     0
 10
9.0198640000000001
 20
19.220471
 30
0.0
 11
9.0198640000000001
 21
18.732744
 31
0.0
  0
LINE
  5
5B
  8
0
  6
BYBLOCK
 62
     0
 10
9.0198640000000001
 20
16.904232999999991
 30
0.0
 11
9.0198640000000001
 21
18.275244000000001
 31
0.0
  0
SOLID
  5
5C
  8
0
  6
BYBLOCK
 62
     0
 10
8.9748640000000002
 20
19.220471
 30
0.0
 11
9.064864
 21
19.220471
 31
0.0
 12
9.0198640000000001
 22
19.490470999999989
 32
0.0
 13
9.0198640000000001
 23
19.490470999999989
 33
0.0
  0
SOLID
  5
5D
  8
0
  6
BYBLOCK
 62
     0
 10
8.9748640000000002
 20
16.904232999999991
 30
0.0
 11
9.064864
 21
16.904232999999991
 31
0.0
 12
9.0198640000000001
 22
16.634232999999991
 32
0.0
 13
9.0198640000000001
 23
16.634232999999991
 33
0.0
  0
TEXT
  5
5E
  8
0
  6
BYBLOCK
 62
     0
 10
8.7386140000000001
 20
18.410243999999999
 30
0.0
 40
0.1875
  1
2.856
 41
0.75
 72
     1
 11
9.0198640000000001
 21
18.503993999999992
 31
0.0
 73
     2
  0
POINT
  5
5F
  8
DEFPOINTS
  6
BYBLOCK
 62
     0
 10
8.2429059999999996
 20
19.490470999999989
 30
0.0
  0
POINT
  5
60
  8
DEFPOINTS
  6
BYBLOCK
 62
     0
 10
8.2429059999999996
 20
16.634232999999991
 30
0.0
  0
POINT
  5
61
  8
DEFPOINTS
  6
BYBLOCK
 62
     0
 10
9.0198640000000001
 20
16.634232999999991
 30
0.0
  0
ENDBLK
  5
62
  8
0
  0
BLOCK
  8
0
  2
*X4
 70
     1
 10
0.0
 20
0.0
 30
0.0
  3
*X4
  1

  0
LINE
  5
65
  8
0
 62
     0
 10
8.5472239999999982
 20
13.143418
 30
0.0
 11
8.6192240000000009
 21
13.215418
 31
0.0
  0
LINE
  5
66
  8
0
 62
     0
 10
9.9222239999999982
 20
14.51841799999999
 30
0.0
 11
9.9942240000000009
 21
14.590418
 31
0.0
  0
LINE
  5
67
  8
0
 62
     0
 10
8.3704470000000004
 20
13.143418
 30
0.0
 11
8.4424469999999996
 21
13.215418
 31
0.0
  0
LINE
  5
68
  8
0
 62
     0
 10
9.7454470000000004
 20
14.51841799999999
 30
0.0
 11
9.8174469999999996
 21
14.590418
 31
0.0
  0
LINE
  5
69
  8
0
 62
     0
 10
8.1936699999999991
 20
13.143418
 30
0.0
 11
8.2656700000000001
 21
13.215418
 31
0.0
  0
LINE
  5
6A
  8
0
 62
     0
 10
9.5686699999999991
 20
14.51841799999999
 30
0.0
 11
9.6406700000000001
 21
14.590418
 31
0.0
  0
LINE
  5
6B
  8
0
 62
     0
 10
8.0168940000000006
 20
13.143418
 30
0.0
 11
8.0487990000000007
 21
13.175324
 31
0.0
  0
LINE
  5
6C
  8
0
 62
     0
 10
9.3918940000000006
 20
14.51841799999999
 30
0.0
 11
9.4638939999999998
 21
14.590418
 31
0.0
  0
LINE
  5
6D
  8
0
 62
     0
 10
8.0487990000000007
 20
13.175324
 30
0.0
 11
8.1219889999999992
 21
13.248513000000001
 31
0.0
  0
LINE
  5
6E
  8
0
 62
     0
 10
7.8401170000000002
 20
13.143418
 30
0.0
 11
7.9601169999999994
 21
13.263418
 31
0.0
  0
LINE
  5
6F
  8
0
 62
     0
 10
9.2151169999999993
 20
14.51841799999999
 30
0.0
 11
9.2871170000000003
 21
14.590418
 31
0.0
  0
LINE
  5
70
  8
0
 62
     0
 10
8.008305
 20
13.311605999999999
 30
0.0
 11
8.1204590000000003
 21
13.42376
 31
0.0
  0
LINE
  5
71
  8
0
 62
     0
 10
7.6633399999999989
 20
13.143418
 30
0.0
 11
7.783339999999999
 21
13.263418
 31
0.0
  0
LINE
  5
72
  8
0
 62
     0
 10
9.0383399999999998
 20
14.51841799999999
 30
0.0
 11
9.1103399999999972
 21
14.590418
 31
0.0
  0
LINE
  5
73
  8
0
 62
     0
 10
8.0130579999999991
 20
13.493135999999989
 30
0.0
 11
8.1189300000000006
 21
13.599007
 31
0.0
  0
LINE
  5
74
  8
0
 62
     0
 10
7.5404960000000001
 20
13.19735
 30
0.0
 11
7.6065639999999988
 21
13.263418
 31
0.0
  0
LINE
  5
75
  8
0
 62
     0
 10
8.8615639999999996
 20
14.51841799999999
 30
0.0
 11
8.9335640000000005
 21
14.590418
 31
0.0
  0
LINE
  5
76
  8
0
 62
     0
 10
8.0178119999999993
 20
13.674666
 30
0.0
 11
8.1173999999999982
 21
13.774254999999989
 31
0.0
  0
LINE
  5
77
  8
0
 62
     0
 10
8.0225650000000002
 20
13.856196000000001
 30
0.0
 11
8.1158710000000003
 21
13.949502000000001
 31
0.0
  0
LINE
  5
78
  8
0
 62
     0
 10
8.684787
 20
14.51841799999999
 30
0.0
 11
8.7567869999999992
 21
14.590418
 31
0.0
  0
LINE
  5
79
  8
0
 62
     0
 10
8.0273190000000003
 20
14.037727
 30
0.0
 11
8.1143420000000006
 21
14.124749
 31
0.0
  0
LINE
  5
7A
  8
0
 62
     0
 10
8.5080100000000005
 20
14.51841799999999
 30
0.0
 11
8.5800100000000015
 21
14.590418
 31
0.0
  0
LINE
  5
7B
  8
0
 62
     0
 10
8.0320719999999994
 20
14.219257000000001
 30
0.0
 11
8.1128119999999981
 21
14.299996999999991
 31
0.0
  0
LINE
  5
7C
  8
0
 62
     0
 10
8.0368259999999996
 20
14.40078699999999
 30
0.0
 11
8.1112830000000002
 21
14.475243999999989
 31
0.0
  0
LINE
  5
7D
  8
0
 62
     0
 10
8.1544570000000007
 20
14.51841799999999
 30
0.0
 11
8.2189060000000005
 21
14.582867
 31
0.0
  0
LINE
  5
7E
  8
0
 62
     0
 10
8.7240000000000002
 20
13.143418
 30
0.0
 11
8.7959999999999994
 21
13.215418
 31
0.0
  0
LINE
  5
7F
  8
0
 62
     0
 10
10.099
 20
14.51841799999999
 30
0.0
 11
10.17099999999999
 21
14.590418
 31
0.0
  0
LINE
  5
80
  8
0
 62
     0
 10
8.9007769999999997
 20
13.143418
 30
0.0
 11
8.9727770000000007
 21
13.215418
 31
0.0
  0
LINE
  5
81
  8
0
 62
     0
 10
10.275776999999991
 20
14.51841799999999
 30
0.0
 11
10.347777000000001
 21
14.590418
 31
0.0
  0
LINE
  5
82
  8
0
 62
     0
 10
9.0775539999999992
 20
13.143418
 30
0.0
 11
9.1495540000000002
 21
13.215418
 31
0.0
  0
LINE
  5
83
  8
0
 62
     0
 10
10.452553999999999
 20
14.51841799999999
 30
0.0
 11
10.524554
 21
14.590418
 31
0.0
  0
LINE
  5
84
  8
0
 62
     0
 10
9.2543310000000005
 20
13.143418
 30
0.0
 11
9.3263309999999997
 21
13.215418
 31
0.0
  0
LINE
  5
85
  8
0
 62
     0
 10
10.629331000000001
 20
14.51841799999999
 30
0.0
 11
10.701331
 21
14.590418
 31
0.0
  0
LINE
  5
86
  8
0
 62
     0
 10
9.4311070000000008
 20
13.143418
 30
0.0
 11
9.5031069999999982
 21
13.215418
 31
0.0
  0
LINE
  5
87
  8
0
 62
     0
 10
10.806107000000001
 20
14.51841799999999
 30
0.0
 11
10.878107
 21
14.590418
 31
0.0
  0
LINE
  5
88
  8
0
 62
     0
 10
9.6078840000000003
 20
13.143418
 30
0.0
 11
9.6798839999999995
 21
13.215418
 31
0.0
  0
LINE
  5
89
  8
0
 62
     0
 10
9.7846609999999998
 20
13.143418
 30
0.0
 11
9.8566610000000008
 21
13.215418
 31
0.0
  0
LINE
  5
8A
  8
0
 62
     0
 10
9.9614370000000001
 20
13.143418
 30
0.0
 11
10.033436999999999
 21
13.215418
 31
0.0
  0
LINE
  5
8B
  8
0
 62
     0
 10
10.138214
 20
13.143418
 30
0.0
 11
10.210214000000001
 21
13.215418
 31
0.0
  0
LINE
  5
8C
  8
0
 62
     0
 10
10.314990999999999
 20
13.143418
 30
0.0
 11
10.386991
 21
13.215418
 31
0.0
  0
LINE
  5
8D
  8
0
 62
     0
 10
10.491766999999999
 20
13.143418
 30
0.0
 11
10.563767
 21
13.215418
 31
0.0
  0
LINE
  5
8E
  8
0
 62
     0
 10
10.668544000000001
 20
13.143418
 30
0.0
 11
10.740544
 21
13.215418
 31
0.0
  0
LINE
  5
8F
  8
0
 62
     0
 10
10.845321
 20
13.143418
 30
0.0
 11
10.899449000000001
 21
13.19754599999999
 31
0.0
  0
ENDBLK
  5
90
  8
0
  0
BLOCK
  8
0
  2
*X5
 70
     1
 10
0.0
 20
0.0
 30
0.0
  3
*X5
  1

  0
LINE
  5
93
  8
0
 62
     0
 10
1.3361179999999999
 20
16.892466999999989
 30
0.0
 11
1.4081179999999991
 21
16.964466999999999
 31
0.0
  0
LINE
  5
94
  8
0
 62
     0
 10
2.711117999999999
 20
18.267467
 30
0.0
 11
2.7831179999999991
 21
18.339466999999999
 31
0.0
  0
LINE
  5
95
  8
0
 62
     0
 10
1.3361179999999999
 20
17.069243
 30
0.0
 11
1.4081179999999991
 21
17.141242999999989
 31
0.0
  0
LINE
  5
96
  8
0
 62
     0
 10
2.711117999999999
 20
18.444243
 30
0.0
 11
2.7831179999999991
 21
18.516242999999999
 31
0.0
  0
LINE
  5
97
  8
0
 62
     0
 10
1.3361179999999999
 20
17.246020000000001
 30
0.0
 11
1.4081179999999991
 21
17.318020000000001
 31
0.0
  0
LINE
  5
98
  8
0
 62
     0
 10
2.711117999999999
 20
18.621020000000001
 30
0.0
 11
2.7831179999999991
 21
18.693020000000001
 31
0.0
  0
LINE
  5
99
  8
0
 62
     0
 10
1.3361179999999999
 20
17.422796999999999
 30
0.0
 11
1.4081179999999991
 21
17.494796999999998
 31
0.0
  0
LINE
  5
9A
  8
0
 62
     0
 10
1.3361179999999999
 20
17.599572999999989
 30
0.0
 11
1.4081179999999991
 21
17.671572999999999
 31
0.0
  0
LINE
  5
9B
  8
0
 62
     0
 10
1.3361179999999999
 20
17.776350000000001
 30
0.0
 11
1.4081179999999991
 21
17.84835
 31
0.0
  0
LINE
  5
9C
  8
0
 62
     0
 10
1.3361179999999999
 20
17.953126999999999
 30
0.0
 11
1.4081179999999991
 21
18.025126999999991
 31
0.0
  0
LINE
  5
9D
  8
0
 62
     0
 10
1.3361179999999999
 20
18.129904
 30
0.0
 11
1.4081179999999991
 21
18.201903999999999
 31
0.0
  0
LINE
  5
9E
  8
0
 62
     0
 10
1.3361179999999999
 20
18.30668
 30
0.0
 11
1.4081179999999991
 21
18.378679999999999
 31
0.0
  0
LINE
  5
9F
  8
0
 62
     0
 10
1.3361179999999999
 20
18.483457000000001
 30
0.0
 11
1.401975
 21
18.549313999999999
 31
0.0
  0
LINE
  5
A0
  8
0
 62
     0
 10
1.3361179999999999
 20
16.715689999999991
 30
0.0
 11
1.4081179999999991
 21
16.787689999999991
 31
0.0
  0
LINE
  5
A1
  8
0
 62
     0
 10
2.711117999999999
 20
18.090689999999999
 30
0.0
 11
2.7831179999999991
 21
18.162689999999991
 31
0.0
  0
LINE
  5
A2
  8
0
 62
     0
 10
1.35006
 20
16.552855999999998
 30
0.0
 11
1.4416349999999989
 21
16.644431000000001
 31
0.0
  0
LINE
  5
A3
  8
0
 62
     0
 10
2.711117999999999
 20
17.913913000000001
 30
0.0
 11
2.7831179999999991
 21
17.985913
 31
0.0
  0
LINE
  5
A4
  8
0
 62
     0
 10
1.5047429999999991
 20
16.530761999999999
 30
0.0
 11
1.616881999999999
 21
16.642900999999998
 31
0.0
  0
LINE
  5
A5
  8
0
 62
     0
 10
2.711117999999999
 20
17.737137000000001
 30
0.0
 11
2.7831179999999991
 21
17.809137
 31
0.0
  0
LINE
  5
A6
  8
0
 62
     0
 10
1.686272999999999
 20
16.535515
 30
0.0
 11
1.7921290000000001
 21
16.641372
 31
0.0
  0
LINE
  5
A7
  8
0
 62
     0
 10
2.711117999999999
 20
17.560359999999989
 30
0.0
 11
2.7831179999999991
 21
17.632359999999998
 31
0.0
  0
LINE
  5
A8
  8
0
 62
     0
 10
1.867802999999999
 20
16.540268999999991
 30
0.0
 11
1.9673769999999999
 21
16.639842000000002
 31
0.0
  0
LINE
  5
A9
  8
0
 62
     0
 10
2.711117999999999
 20
17.383582999999991
 30
0.0
 11
2.7831179999999991
 21
17.45558299999999
 31
0.0
  0
LINE
  5
AA
  8
0
 62
     0
 10
2.0493329999999998
 20
16.545021999999999
 30
0.0
 11
2.1426240000000001
 21
16.638313
 31
0.0
  0
LINE
  5
AB
  8
0
 62
     0
 10
2.711117999999999
 20
17.206807000000001
 30
0.0
 11
2.7831179999999991
 21
17.278807
 31
0.0
  0
LINE
  5
AC
  8
0
 62
     0
 10
2.2308639999999991
 20
16.549776000000001
 30
0.0
 11
2.3178709999999989
 21
16.636783999999999
 31
0.0
  0
LINE
  5
AD
  8
0
 62
     0
 10
2.711117999999999
 20
17.03003
 30
0.0
 11
2.7831179999999991
 21
17.102029999999989
 31
0.0
  0
LINE
  5
AE
  8
0
 62
     0
 10
2.412393999999999
 20
16.55453
 30
0.0
 11
2.4931190000000001
 21
16.635254
 31
0.0
  0
LINE
  5
AF
  8
0
 62
     0
 10
2.5939239999999999
 20
16.55928299999999
 30
0.0
 11
2.6683659999999989
 21
16.633724999999991
 31
0.0
  0
LINE
  5
B0
  8
0
 62
     0
 10
2.711117999999999
 20
16.676476000000001
 30
0.0
 11
2.7784930000000001
 21
16.743852
 31
0.0
  0
ENDBLK
  5
B1
  8
0
  0
BLOCK
  8
0
  2
*D6
 70
     1
 10
0.0
 20
0.0
 30
0.0
  3
*D6
  1

  0
LINE
  5
B4
  8
0
  6
BYBLOCK
 62
     0
 10
1.3041180000000001
 20
19.594998999999991
 30
0.0
 11
0.6566180000000002
 21
19.594998999999991
 31
0.0
  0
LINE
  5
B5
  8
0
  6
BYBLOCK
 62
     0
 10
1.3041180000000001
 20
16.529705
 30
0.0
 11
0.6566180000000002
 21
16.529705
 31
0.0
  0
LINE
  5
B6
  8
0
  6
BYBLOCK
 62
     0
 10
0.796118
 20
19.324998999999991
 30
0.0
 11
0.796118
 21
18.291101999999992
 31
0.0
  0
LINE
  5
B7
  8
0
  6
BYBLOCK
 62
     0
 10
0.796118
 20
16.799704999999999
 30
0.0
 11
0.796118
 21
17.833601999999988
 31
0.0
  0
SOLID
  5
B8
  8
0
  6
BYBLOCK
 62
     0
 10
0.7511180000000001
 20
19.324998999999991
 30
0.0
 11
0.8411179999999999
 21
19.324998999999991
 31
0.0
 12
0.796118
 22
19.594998999999991
 32
0.0
 13
0.796118
 23
19.594998999999991
 33
0.0
  0
SOLID
  5
B9
  8
0
  6
BYBLOCK
 62
     0
 10
0.7511180000000001
 20
16.799704999999999
 30
0.0
 11
0.8411179999999999
 21
16.799704999999999
 31
0.0
 12
0.796118
 22
16.529705
 32
0.0
 13
0.796118
 23
16.529705
 33
0.0
  0
TEXT
  5
BA
  8
0
  6
BYBLOCK
 62
     0
 10
0.52658675
 20
17.968602000000001
 30
0.0
 40
0.1875
  1
3.065
 41
0.75
 72
     1
 11
0.796118
 21
18.062352000000001
 31
0.0
 73
     2
  0
POINT
  5
BB
  8
DEFPOINTS
  6
BYBLOCK
 62
     0
 10
1.3986179999999999
 20
19.594998999999991
 30
0.0
  0
POINT
  5
BC
  8
DEFPOINTS
  6
BYBLOCK
 62
     0
 10
1.3986179999999999
 20
16.529705
 30
0.0
  0
POINT
  5
BD
  8
DEFPOINTS
  6
BYBLOCK
 62
     0
 10
0.796118
 20
16.529705
 30
0.0
  0
ENDBLK
  5
BE
  8
0
  0
BLOCK
  8
0
  2
*D7
 70
     1
 10
0.0
 20
0.0
 30
0.0
  3
*D7
  1

  0
LINE
  5
C1
  8
0
  6
BYBLOCK
 62
     0
 10
2.815118
 20
19.562352000000001
 30
0.0
 11
3.4626179999999991
 21
19.562352000000001
 31
0.0
  0
LINE
  5
C2
  8
0
  6
BYBLOCK
 62
     0
 10
2.815118
 20
16.562352000000001
 30
0.0
 11
3.4626179999999991
 21
16.562352000000001
 31
0.0
  0
LINE
  5
C3
  8
0
  6
BYBLOCK
 62
     0
 10
3.323118
 20
19.29235199999999
 30
0.0
 11
3.323118
 21
18.291101999999992
 31
0.0
  0
LINE
  5
C4
  8
0
  6
BYBLOCK
 62
     0
 10
3.323118
 20
16.832352
 30
0.0
 11
3.323118
 21
17.833601999999988
 31
0.0
  0
SOLID
  5
C5
  8
0
  6
BYBLOCK
 62
     0
 10
3.2781180000000001
 20
19.29235199999999
 30
0.0
 11
3.3681179999999991
 21
19.29235199999999
 31
0.0
 12
3.323118
 22
19.562352000000001
 32
0.0
 13
3.323118
 23
19.562352000000001
 33
0.0
  0
SOLID
  5
C6
  8
0
  6
BYBLOCK
 62
     0
 10
3.2781180000000001
 20
16.832352
 30
0.0
 11
3.3681179999999991
 21
16.832352
 31
0.0
 12
3.323118
 22
16.562352000000001
 32
0.0
 13
3.323118
 23
16.562352000000001
 33
0.0
  0
TEXT
  5
C7
  8
0
  6
BYBLOCK
 62
     0
 10
3.07702425
 20
17.968602000000001
 30
0.0
 40
0.1875
  1
3.000
 41
0.75
 72
     1
 11
3.323118
 21
18.062352000000001
 31
0.0
 73
     2
  0
POINT
  5
C8
  8
DEFPOINTS
  6
BYBLOCK
 62
     0
 10
2.7206179999999991
 20
19.562352000000001
 30
0.0
  0
POINT
  5
C9
  8
DEFPOINTS
  6
BYBLOCK
 62
     0
 10
2.7206179999999991
 20
16.562352000000001
 30
0.0
  0
POINT
  5
CA
  8
DEFPOINTS
  6
BYBLOCK
 62
     0
 10
3.323118
 20
16.562352000000001
 30
0.0
  0
ENDBLK
  5
CB
  8
0
  0
BLOCK
  8
0
  2
*D8
 70
     1
 10
0.0
 20
0.0
 30
0.0
  3
*D8
  1

  0
LINE
  5
CE
  8
0
  6
BYBLOCK
 62
     0
 10
1.4081179999999991
 20
16.565093000000001
 30
0.0
 11
1.4081179999999991
 21
15.85020499999999
 31
0.0
  0
LINE
  5
CF
  8
0
  6
BYBLOCK
 62
     0
 10
2.711117999999999
 20
16.467852000000001
 30
0.0
 11
2.711117999999999
 21
15.85020499999999
 31
0.0
  0
LINE
  5
D0
  8
0
  6
BYBLOCK
 62
     0
 10
1.1381179999999991
 20
15.989705000000001
 30
0.0
 11
0.8681180000000001
 21
15.989705000000001
 31
0.0
  0
LINE
  5
D1
  8
0
  6
BYBLOCK
 62
     0
 10
2.9811179999999999
 20
15.989705000000001
 30
0.0
 11
3.2511179999999991
 21
15.989705000000001
 31
0.0
  0
SOLID
  5
D2
  8
0
  6
BYBLOCK
 62
     0
 10
1.1381179999999991
 20
16.034704999999999
 30
0.0
 11
1.1381179999999991
 21
15.94470499999999
 31
0.0
 12
1.4081179999999991
 22
15.989705000000001
 32
0.0
 13
1.4081179999999991
 23
15.989705000000001
 33
0.0
  0
SOLID
  5
D3
  8
0
  6
BYBLOCK
 62
     0
 10
2.9811179999999999
 20
16.034704999999999
 30
0.0
 11
2.9811179999999999
 21
15.94470499999999
 31
0.0
 12
2.711117999999999
 22
15.989705000000001
 32
0.0
 13
2.711117999999999
 23
15.989705000000001
 33
0.0
  0
TEXT
  5
D4
  8
0
  6
BYBLOCK
 62
     0
 10
1.8135242499999999
 20
15.89595499999999
 30
0.0
 40
0.1875
  1
1.303
 41
0.75
 72
     1
 11
2.0596179999999991
 21
15.989705000000001
 31
0.0
 73
     2
  0
POINT
  5
D5
  8
DEFPOINTS
  6
BYBLOCK
 62
     0
 10
1.4081179999999991
 20
16.659593000000001
 30
0.0
  0
POINT
  5
D6
  8
DEFPOINTS
  6
BYBLOCK
 62
     0
 10
2.711117999999999
 20
16.562352000000001
 30
0.0
  0
POINT
  5
D7
  8
DEFPOINTS
  6
BYBLOCK
 62
     0
 10
2.711117999999999
 20
15.989705000000001
 30
0.0
  0
ENDBLK
  5
D8
  8
0
  0
BLOCK
  8
0
  2
*D9
 70
     1
 10
0.0
 20
0.0
 30
0.0
  3
*D9
  1

  0
LINE
  5
DB
  8
0
  6
BYBLOCK
 62
     0
 10
1.3361179999999999
 20
16.560161999999991
 30
0.0
 11
1.3361179999999999
 21
15.428705000000001
 31
0.0
  0
LINE
  5
DC
  8
0
  6
BYBLOCK
 62
     0
 10
2.711117999999999
 20
16.467852000000001
 30
0.0
 11
2.711117999999999
 21
15.428705000000001
 31
0.0
  0
LINE
  5
DD
  8
0
  6
BYBLOCK
 62
     0
 10
1.0661179999999999
 20
15.56820499999999
 30
0.0
 11
0.796118
 21
15.56820499999999
 31
0.0
  0
LINE
  5
DE
  8
0
  6
BYBLOCK
 62
     0
 10
2.9811179999999999
 20
15.56820499999999
 30
0.0
 11
3.2511179999999991
 21
15.56820499999999
 31
0.0
  0
SOLID
  5
DF
  8
0
  6
BYBLOCK
 62
     0
 10
1.0661179999999999
 20
15.61320499999999
 30
0.0
 11
1.0661179999999999
 21
15.52320499999999
 31
0.0
 12
1.3361179999999999
 22
15.56820499999999
 32
0.0
 13
1.3361179999999999
 23
15.56820499999999
 33
0.0
  0
SOLID
  5
E0
  8
0
  6
BYBLOCK
 62
     0
 10
2.9811179999999999
 20
15.61320499999999
 30
0.0
 11
2.9811179999999999
 21
15.52320499999999
 31
0.0
 12
2.711117999999999
 22
15.56820499999999
 32
0.0
 13
2.711117999999999
 23
15.56820499999999
 33
0.0
  0
TEXT
  5
E1
  8
0
  6
BYBLOCK
 62
     0
 10
1.765805499999999
 20
15.474455000000001
 30
0.0
 40
0.1875
  1
1.375
 41
0.75
 72
     1
 11
2.023617999999999
 21
15.56820499999999
 31
0.0
 73
     2
  0
POINT
  5
E2
  8
DEFPOINTS
  6
BYBLOCK
 62
     0
 10
1.3361179999999999
 20
16.654661999999998
 30
0.0
  0
POINT
  5
E3
  8
DEFPOINTS
  6
BYBLOCK
 62
     0
 10
2.711117999999999
 20
16.562352000000001
 30
0.0
  0
POINT
  5
E4
  8
DEFPOINTS
  6
BYBLOCK
 62
     0
 10
2.711117999999999
 20
15.56820499999999
 30
0.0
  0
ENDBLK
  5
E5
  8
0
  0
BLOCK
  8
0
  2
*D10
 70
     1
 10
0.0
 20
0.0
 30
0.0
  3
*D10
  1

  0
LINE
  5
E8
  8
0
  6
BYBLOCK
 62
     0
 10
7.7899059999999993
 20
17.87785199999999
 30
0.0
 11
7.7899059999999993
 21
15.85020499999999
 31
0.0
  0
LINE
  5
E9
  8
0
  6
BYBLOCK
 62
     0
 10
10.164906
 20
16.185161999999998
 30
0.0
 11
10.164906
 21
15.85020499999999
 31
0.0
  0
LINE
  5
EA
  8
0
  6
BYBLOCK
 62
     0
 10
8.0599059999999998
 20
15.989705000000001
 30
0.0
 11
8.5611560000000004
 21
15.989705000000001
 31
0.0
  0
LINE
  5
EB
  8
0
  6
BYBLOCK
 62
     0
 10
9.8949060000000006
 20
15.989705000000001
 30
0.0
 11
9.393656
 21
15.989705000000001
 31
0.0
  0
SOLID
  5
EC
  8
0
  6
BYBLOCK
 62
     0
 10
8.0599059999999998
 20
16.034704999999999
 30
0.0
 11
8.0599059999999998
 21
15.94470499999999
 31
0.0
 12
7.7899059999999993
 22
15.989705000000001
 32
0.0
 13
7.7899059999999993
 23
15.989705000000001
 33
0.0
  0
SOLID
  5
ED
  8
0
  6
BYBLOCK
 62
     0
 10
9.8949060000000006
 20
16.034704999999999
 30
0.0
 11
9.8949060000000006
 21
15.94470499999999
 31
0.0
 12
10.164906
 22
15.989705000000001
 32
0.0
 13
10.164906
 23
15.989705000000001
 33
0.0
  0
TEXT
  5
EE
  8
0
  6
BYBLOCK
 62
     0
 10
8.6961560000000002
 20
15.89595499999999
 30
0.0
 40
0.1875
  1
2.375
 41
0.75
 72
     1
 11
8.9774060000000002
 21
15.989705000000001
 31
0.0
 73
     2
  0
POINT
  5
EF
  8
DEFPOINTS
  6
BYBLOCK
 62
     0
 10
7.7899059999999993
 20
17.97235199999999
 30
0.0
  0
POINT
  5
F0
  8
DEFPOINTS
  6
BYBLOCK
 62
     0
 10
10.164906
 20
16.279661999999991
 30
0.0
  0
POINT
  5
F1
  8
DEFPOINTS
  6
BYBLOCK
 62
     0
 10
10.164906
 20
15.989705000000001
 30
0.0
  0
ENDBLK
  5
F2
  8
0
  0
BLOCK
  8
0
  2
*D11
 70
     1
 10
0.0
 20
0.0
 30
0.0
  3
*D11
  1

  0
LINE
  5
F5
  8
0
  6
BYBLOCK
 62
     0
 10
7.7899059999999993
 20
17.87785199999999
 30
0.0
 11
7.7899059999999993
 21
15.428705000000001
 31
0.0
  0
LINE
  5
F6
  8
0
  6
BYBLOCK
 62
     0
 10
12.539906
 20
17.87785199999999
 30
0.0
 11
12.539906
 21
15.428705000000001
 31
0.0
  0
LINE
  5
F7
  8
0
  6
BYBLOCK
 62
     0
 10
8.0599059999999998
 20
15.56820499999999
 30
0.0
 11
9.7603749999999998
 21
15.56820499999999
 31
0.0
  0
LINE
  5
F8
  8
0
  6
BYBLOCK
 62
     0
 10
12.269906000000001
 20
15.56820499999999
 30
0.0
 11
10.56943699999999
 21
15.56820499999999
 31
0.0
  0
SOLID
  5
F9
  8
0
  6
BYBLOCK
 62
     0
 10
8.0599059999999998
 20
15.61320499999999
 30
0.0
 11
8.0599059999999998
 21
15.52320499999999
 31
0.0
 12
7.7899059999999993
 22
15.56820499999999
 32
0.0
 13
7.7899059999999993
 23
15.56820499999999
 33
0.0
  0
SOLID
  5
FA
  8
0
  6
BYBLOCK
 62
     0
 10
12.269906000000001
 20
15.61320499999999
 30
0.0
 11
12.269906000000001
 21
15.52320499999999
 31
0.0
 12
12.539906
 22
15.56820499999999
 32
0.0
 13
12.539906
 23
15.56820499999999
 33
0.0
  0
TEXT
  5
FB
  8
0
  6
BYBLOCK
 62
     0
 10
9.8953747500000002
 20
15.474455000000001
 30
0.0
 40
0.1875
  1
4.750
 41
0.75
 72
     1
 11
10.164906
 21
15.56820499999999
 31
0.0
 73
     2
  0
POINT
  5
FC
  8
DEFPOINTS
  6
BYBLOCK
 62
     0
 10
7.7899059999999993
 20
17.97235199999999
 30
0.0
  0
POINT
  5
FD
  8
DEFPOINTS
  6
BYBLOCK
 62
     0
 10
12.539906
 20
17.97235199999999
 30
0.0
  0
POINT
  5
FE
  8
DEFPOINTS
  6
BYBLOCK
 62
     0
 10
12.539906
 20
15.56820499999999
 30
0.0
  0
ENDBLK
  5
FF
  8
0
  0
BLOCK
  8
0
  2
*D12
 70
     1
 10
0.0
 20
0.0
 30
0.0
  3
*D12
  1

  0
LINE
  5
102
  8
0
  6
BYBLOCK
 62
     0
 10
8.0399060000000002
 20
14.622418
 30
0.0
 11
8.0399060000000002
 21
15.197918
 31
0.0
  0
LINE
  5
103
  8
0
  6
BYBLOCK
 62
     0
 10
12.289906
 20
14.622418
 30
0.0
 11
12.289906
 21
15.197918
 31
0.0
  0
LINE
  5
104
  8
0
  6
BYBLOCK
 62
     0
 10
8.3099059999999998
 20
15.058417999999991
 30
0.0
 11
9.7603749999999998
 21
15.058417999999991
 31
0.0
  0
LINE
  5
105
  8
0
  6
BYBLOCK
 62
     0
 10
12.019906000000001
 20
15.058417999999991
 30
0.0
 11
10.56943699999999
 21
15.058417999999991
 31
0.0
  0
SOLID
  5
106
  8
0
  6
BYBLOCK
 62
     0
 10
8.3099059999999998
 20
15.103417999999991
 30
0.0
 11
8.3099059999999998
 21
15.013418
 31
0.0
 12
8.0399060000000002
 22
15.058417999999991
 32
0.0
 13
8.0399060000000002
 23
15.058417999999991
 33
0.0
  0
SOLID
  5
107
  8
0
  6
BYBLOCK
 62
     0
 10
12.019906000000001
 20
15.103417999999991
 30
0.0
 11
12.019906000000001
 21
15.013418
 31
0.0
 12
12.289906
 22
15.058417999999991
 32
0.0
 13
12.289906
 23
15.058417999999991
 33
0.0
  0
TEXT
  5
108
  8
0
  6
BYBLOCK
 62
     0
 10
9.8953747500000002
 20
14.964668
 30
0.0
 40
0.1875
  1
4.250
 41
0.75
 72
     1
 11
10.164906
 21
15.058417999999991
 31
0.0
 73
     2
  0
POINT
  5
109
  8
DEFPOINTS
  6
BYBLOCK
 62
     0
 10
8.0399060000000002
 20
14.527917999999991
 30
0.0
  0
POINT
  5
10A
  8
DEFPOINTS
  6
BYBLOCK
 62
     0
 10
12.289906
 20
14.527917999999991
 30
0.0
  0
POINT
  5
10B
  8
DEFPOINTS
  6
BYBLOCK
 62
     0
 10
12.289906
 20
15.058417999999991
 30
0.0
  0
ENDBLK
  5
10C
  8
0
  0
BLOCK
  8
0
  2
*D13
 70
     1
 10
0.0
 20
0.0
 30
0.0
  3
*D13
  1

  0
LINE
  5
10F
  8
0
  6
BYBLOCK
 62
     0
 10
8.0070429999999995
 20
13.628648
 30
0.0
 11
8.0070429999999995
 21
12.923648
 31
0.0
  0
LINE
  5
110
  8
0
  6
BYBLOCK
 62
     0
 10
7.5399059999999993
 20
13.571148000000001
 30
0.0
 11
7.5399059999999993
 21
12.923648
 31
0.0
  0
LINE
  5
111
  8
0
  6
BYBLOCK
 62
     0
 10
8.277042999999999
 20
13.063147999999989
 30
0.0
 11
8.5470429999999986
 21
13.063147999999989
 31
0.0
  0
LINE
  5
112
  8
0
  6
BYBLOCK
 62
     0
 10
7.2699059999999989
 20
13.063147999999989
 30
0.0
 11
6.9999060000000002
 21
13.063147999999989
 31
0.0
  0
SOLID
  5
113
  8
0
  6
BYBLOCK
 62
     0
 10
8.277042999999999
 20
13.108148
 30
0.0
 11
8.277042999999999
 21
13.018148
 31
0.0
 12
8.0070429999999995
 22
13.063147999999989
 32
0.0
 13
8.0070429999999995
 23
13.063147999999989
 33
0.0
  0
SOLID
  5
114
  8
0
  6
BYBLOCK
 62
     0
 10
7.2699059999999989
 20
13.108148
 30
0.0
 11
7.2699059999999989
 21
13.018148
 31
0.0
 12
7.5399059999999993
 22
13.063147999999989
 32
0.0
 13
7.5399059999999993
 23
13.063147999999989
 33
0.0
  0
TEXT
  5
115
  8
0
  6
BYBLOCK
 62
     0
 10
6.3258437499999989
 20
12.969398
 30
0.0
 40
0.1875
  1
0.467
 41
0.75
 72
     1
 11
6.5953749999999989
 21
13.063147999999989
 31
0.0
 73
     2
  0
POINT
  5
116
  8
DEFPOINTS
  6
BYBLOCK
 62
     0
 10
8.0070429999999995
 20
13.723148
 30
0.0
  0
POINT
  5
117
  8
DEFPOINTS
  6
BYBLOCK
 62
     0
 10
7.5399059999999993
 20
13.665647999999999
 30
0.0
  0
POINT
  5
118
  8
DEFPOINTS
  6
BYBLOCK
 62
     0
 10
7.5399059999999993
 20
13.063147999999989
 30
0.0
  0
ENDBLK
  5
119
  8
0
  0
BLOCK
  8
0
  2
*D14
 70
     1
 10
0.0
 20
0.0
 30
0.0
  3
*D14
  1

  0
LINE
  5
11C
  8
0
  6
BYBLOCK
 62
     0
 10
12.32277
 20
13.628648
 30
0.0
 11
12.32277
 21
12.923648
 31
0.0
  0
LINE
  5
11D
  8
0
  6
BYBLOCK
 62
     0
 10
8.0070429999999995
 20
13.628648
 30
0.0
 11
8.0070429999999995
 21
12.923648
 31
0.0
  0
LINE
  5
11E
  8
0
  6
BYBLOCK
 62
     0
 10
12.05276999999999
 20
13.063147999999989
 30
0.0
 11
10.557719000000001
 21
13.063147999999989
 31
0.0
  0
LINE
  5
11F
  8
0
  6
BYBLOCK
 62
     0
 10
8.277042999999999
 20
13.063147999999989
 30
0.0
 11
9.7720939999999992
 21
13.063147999999989
 31
0.0
  0
SOLID
  5
120
  8
0
  6
BYBLOCK
 62
     0
 10
12.05276999999999
 20
13.108148
 30
0.0
 11
12.05276999999999
 21
13.018148
 31
0.0
 12
12.32277
 22
13.063147999999989
 32
0.0
 13
12.32277
 23
13.063147999999989
 33
0.0
  0
SOLID
  5
121
  8
0
  6
BYBLOCK
 62
     0
 10
8.277042999999999
 20
13.108148
 30
0.0
 11
8.277042999999999
 21
13.018148
 31
0.0
 12
8.0070429999999995
 22
13.063147999999989
 32
0.0
 13
8.0070429999999995
 23
13.063147999999989
 33
0.0
  0
TEXT
  5
122
  8
0
  6
BYBLOCK
 62
     0
 10
9.9070935000000002
 20
12.969398
 30
0.0
 40
0.1875
  1
4.316
 41
0.75
 72
     1
 11
10.164906
 21
13.063147999999989
 31
0.0
 73
     2
  0
POINT
  5
123
  8
DEFPOINTS
  6
BYBLOCK
 62
     0
 10
12.32277
 20
13.723148
 30
0.0
  0
POINT
  5
124
  8
DEFPOINTS
  6
BYBLOCK
 62
     0
 10
8.0070429999999995
 20
13.723148
 30
0.0
  0
POINT
  5
125
  8
DEFPOINTS
  6
BYBLOCK
 62
     0
 10
8.0070429999999995
 20
13.063147999999989
 30
0.0
  0
ENDBLK
  5
126
  8
0
  0
BLOCK
  8
0
  2
*D15
 70
     1
 10
0.0
 20
0.0
 30
0.0
  3
*D15
  1

  0
LINE
  5
129
  8
0
  6
BYBLOCK
 62
     0
 10
12.789906
 20
13.571148000000001
 30
0.0
 11
12.789906
 21
12.502148
 31
0.0
  0
LINE
  5
12A
  8
0
  6
BYBLOCK
 62
     0
 10
7.5399059999999993
 20
13.571148000000001
 30
0.0
 11
7.5399059999999993
 21
12.502148
 31
0.0
  0
LINE
  5
12B
  8
0
  6
BYBLOCK
 62
     0
 10
12.519906000000001
 20
12.641648
 30
0.0
 11
10.56943699999999
 21
12.641648
 31
0.0
  0
LINE
  5
12C
  8
0
  6
BYBLOCK
 62
     0
 10
7.8099059999999989
 20
12.641648
 30
0.0
 11
9.7603749999999998
 21
12.641648
 31
0.0
  0
SOLID
  5
12D
  8
0
  6
BYBLOCK
 62
     0
 10
12.519906000000001
 20
12.686648
 30
0.0
 11
12.519906000000001
 21
12.596648
 31
0.0
 12
12.789906
 22
12.641648
 32
0.0
 13
12.789906
 23
12.641648
 33
0.0
  0
SOLID
  5
12E
  8
0
  6
BYBLOCK
 62
     0
 10
7.8099059999999989
 20
12.686648
 30
0.0
 11
7.8099059999999989
 21
12.596648
 31
0.0
 12
7.5399059999999993
 22
12.641648
 32
0.0
 13
7.5399059999999993
 23
12.641648
 33
0.0
  0
TEXT
  5
12F
  8
0
  6
BYBLOCK
 62
     0
 10
9.8953747500000002
 20
12.547898
 30
0.0
 40
0.1875
  1
5.250
 41
0.75
 72
     1
 11
10.164906
 21
12.641648
 31
0.0
 73
     2
  0
POINT
  5
130
  8
DEFPOINTS
  6
BYBLOCK
 62
     0
 10
12.789906
 20
13.665647999999999
 30
0.0
  0
POINT
  5
131
  8
DEFPOINTS
  6
BYBLOCK
 62
     0
 10
7.5399059999999993
 20
13.665647999999999
 30
0.0
  0
POINT
  5
132
  8
DEFPOINTS
  6
BYBLOCK
 62
     0
 10
7.5399059999999993
 20
12.641648
 30
0.0
  0
ENDBLK
  5
133
  8
0
  0
BLOCK
  8
0
  2
*D16
 70
     1
 10
0.0
 20
0.0
 30
0.0
  3
*D16
  1

  0
LINE
  5
136
  8
0
  6
BYBLOCK
 62
     0
 10
10.164906
 20
20.399270999999992
 30
0.0
 11
10.164906
 21
20.734228999999999
 31
0.0
  0
LINE
  5
137
  8
0
  6
BYBLOCK
 62
     0
 10
8.5859059999999996
 20
19.662582
 30
0.0
 11
8.5859059999999996
 21
20.734228999999999
 31
0.0
  0
LINE
  5
138
  8
0
  6
BYBLOCK
 62
     0
 10
10.434905999999989
 20
20.594729000000001
 30
0.0
 11
10.704905999999999
 21
20.594729000000001
 31
0.0
  0
LINE
  5
139
  8
0
  6
BYBLOCK
 62
     0
 10
8.315906
 20
20.594729000000001
 30
0.0
 11
8.0459060000000004
 21
20.594729000000001
 31
0.0
  0
SOLID
  5
13A
  8
0
  6
BYBLOCK
 62
     0
 10
10.434905999999989
 20
20.639728999999988
 30
0.0
 11
10.434905999999989
 21
20.549728999999999
 31
0.0
 12
10.164906
 22
20.594729000000001
 32
0.0
 13
10.164906
 23
20.594729000000001
 33
0.0
  0
SOLID
  5
13B
  8
0
  6
BYBLOCK
 62
     0
 10
8.315906
 20
20.639728999999988
 30
0.0
 11
8.315906
 21
20.549728999999999
 31
0.0
 12
8.5859059999999996
 22
20.594729000000001
 32
0.0
 13
8.5859059999999996
 23
20.594729000000001
 33
0.0
  0
TEXT
  5
13C
  8
0
  6
BYBLOCK
 62
     0
 10
9.1175934999999981
 20
20.500979000000001
 30
0.0
 40
0.1875
  1
1.579
 41
0.75
 72
     1
 11
9.3754059999999981
 21
20.594729000000001
 31
0.0
 73
     2
  0
POINT
  5
13D
  8
DEFPOINTS
  6
BYBLOCK
 62
     0
 10
10.164906
 20
20.304770999999999
 30
0.0
  0
POINT
  5
13E
  8
DEFPOINTS
  6
BYBLOCK
 62
     0
 10
8.5859059999999996
 20
19.568082
 30
0.0
  0
POINT
  5
13F
  8
DEFPOINTS
  6
BYBLOCK
 62
     0
 10
8.5859059999999996
 20
20.594729000000001
 30
0.0
  0
ENDBLK
  5
140
  8
0
  0
BLOCK
  8
0
  2
*D17
 70
     1
 10
0.0
 20
0.0
 30
0.0
  3
*D17
  1

  0
LINE
  5
143
  8
0
  6
BYBLOCK
 62
     0
 10
11.74390599999999
 20
19.662582
 30
0.0
 11
11.74390599999999
 21
21.155729000000001
 31
0.0
  0
LINE
  5
144
  8
0
  6
BYBLOCK
 62
     0
 10
8.5859059999999996
 20
19.662582
 30
0.0
 11
8.5859059999999996
 21
21.155729000000001
 31
0.0
  0
LINE
  5
145
  8
0
  6
BYBLOCK
 62
     0
 10
11.473905999999999
 20
21.016228999999999
 30
0.0
 11
10.557719000000001
 21
21.016228999999999
 31
0.0
  0
LINE
  5
146
  8
0
  6
BYBLOCK
 62
     0
 10
8.8559059999999992
 20
21.016228999999999
 30
0.0
 11
9.7720939999999992
 21
21.016228999999999
 31
0.0
  0
SOLID
  5
147
  8
0
  6
BYBLOCK
 62
     0
 10
11.473905999999999
 20
21.061229000000001
 30
0.0
 11
11.473905999999999
 21
20.971229000000001
 31
0.0
 12
11.74390599999999
 22
21.016228999999999
 32
0.0
 13
11.74390599999999
 23
21.016228999999999
 33
0.0
  0
SOLID
  5
148
  8
0
  6
BYBLOCK
 62
     0
 10
8.8559059999999992
 20
21.061229000000001
 30
0.0
 11
8.8559059999999992
 21
20.971229000000001
 31
0.0
 12
8.5859059999999996
 22
21.016228999999999
 32
0.0
 13
8.5859059999999996
 23
21.016228999999999
 33
0.0
  0
TEXT
  5
149
  8
0
  6
BYBLOCK
 62
     0
 10
9.9070935000000002
 20
20.922478999999989
 30
0.0
 40
0.1875
  1
3.158
 41
0.75
 72
     1
 11
10.164906
 21
21.016228999999999
 31
0.0
 73
     2
  0
POINT
  5
14A
  8
DEFPOINTS
  6
BYBLOCK
 62
     0
 10
11.74390599999999
 20
19.568082
 30
0.0
  0
POINT
  5
14B
  8
DEFPOINTS
  6
BYBLOCK
 62
     0
 10
8.5859059999999996
 20
19.568082
 30
0.0
  0
POINT
  5
14C
  8
DEFPOINTS
  6
BYBLOCK
 62
     0
 10
8.5859059999999996
 20
21.016228999999999
 30
0.0
  0
ENDBLK
  5
14D
  8
0
  0
BLOCK
  8
0
  2
*D18
 70
     1
 10
0.0
 20
0.0
 30
0.0
  3
*D18
  1

  0
LINE
  5
150
  8
0
  6
BYBLOCK
 62
     0
 10
12.724406
 20
18.522082000000001
 30
0.0
 11
13.46940599999999
 21
18.522082000000001
 31
0.0
  0
LINE
  5
151
  8
0
  6
BYBLOCK
 62
     0
 10
11.928406000000001
 20
17.566082000000002
 30
0.0
 11
13.46940599999999
 21
17.566082000000002
 31
0.0
  0
LINE
  5
152
  8
0
  6
BYBLOCK
 62
     0
 10
13.329905999999999
 20
18.792082000000001
 30
0.0
 11
13.329905999999999
 21
19.062082
 31
0.0
  0
LINE
  5
153
  8
0
  6
BYBLOCK
 62
     0
 10
13.329905999999999
 20
17.296081999999998
 30
0.0
 11
13.329905999999999
 21
17.026081999999999
 31
0.0
  0
SOLID
  5
154
  8
0
  6
BYBLOCK
 62
     0
 10
13.284905999999999
 20
18.792082000000001
 30
0.0
 11
13.37490599999999
 21
18.792082000000001
 31
0.0
 12
13.329905999999999
 22
18.522082000000001
 32
0.0
 13
13.329905999999999
 23
18.522082000000001
 33
0.0
  0
SOLID
  5
155
  8
0
  6
BYBLOCK
 62
     0
 10
13.284905999999999
 20
17.296081999999998
 30
0.0
 11
13.37490599999999
 21
17.296081999999998
 31
0.0
 12
13.329905999999999
 22
17.566082000000002
 32
0.0
 13
13.329905999999999
 23
17.566082000000002
 33
0.0
  0
TEXT
  5
156
  8
0
  6
BYBLOCK
 62
     0
 10
13.060374749999999
 20
17.950331999999989
 30
0.0
 40
0.1875
  1
0.956
 41
0.75
 72
     1
 11
13.329905999999999
 21
18.044082
 31
0.0
 73
     2
  0
POINT
  5
157
  8
DEFPOINTS
  6
BYBLOCK
 62
     0
 10
12.629906
 20
18.522082000000001
 30
0.0
  0
POINT
  5
158
  8
DEFPOINTS
  6
BYBLOCK
 62
     0
 10
11.83390599999999
 20
17.566082000000002
 30
0.0
  0
POINT
  5
159
  8
DEFPOINTS
  6
BYBLOCK
 62
     0
 10
13.329905999999999
 20
17.566082000000002
 30
0.0
  0
ENDBLK
  5
15A
  8
0
  0
BLOCK
  8
0
  2
*D19
 70
     1
 10
0.0
 20
0.0
 30
0.0
  3
*D19
  1

  0
LINE
  5
15D
  8
0
  6
BYBLOCK
 62
     0
 10
11.928406000000001
 20
17.566082000000002
 30
0.0
 11
14.31240599999999
 21
17.566082000000002
 31
0.0
  0
LINE
  5
15E
  8
0
  6
BYBLOCK
 62
     0
 10
11.928406000000001
 20
19.478082000000001
 30
0.0
 11
14.31240599999999
 21
19.478082000000001
 31
0.0
  0
LINE
  5
15F
  8
0
  6
BYBLOCK
 62
     0
 10
14.172905999999999
 20
17.836082000000001
 30
0.0
 11
14.172905999999999
 21
18.293331999999989
 31
0.0
  0
LINE
  5
160
  8
0
  6
BYBLOCK
 62
     0
 10
14.172905999999999
 20
19.208082000000001
 30
0.0
 11
14.172905999999999
 21
18.750831999999988
 31
0.0
  0
SOLID
  5
161
  8
0
  6
BYBLOCK
 62
     0
 10
14.127905999999999
 20
17.836082000000001
 30
0.0
 11
14.217905999999999
 21
17.836082000000001
 31
0.0
 12
14.172905999999999
 22
17.566082000000002
 32
0.0
 13
14.172905999999999
 23
17.566082000000002
 33
0.0
  0
SOLID
  5
162
  8
0
  6
BYBLOCK
 62
     0
 10
14.127905999999999
 20
19.208082000000001
 30
0.0
 11
14.217905999999999
 21
19.208082000000001
 31
0.0
 12
14.172905999999999
 22
19.478082000000001
 32
0.0
 13
14.172905999999999
 23
19.478082000000001
 33
0.0
  0
TEXT
  5
163
  8
0
  6
BYBLOCK
 62
     0
 10
13.938530999999999
 20
18.428332000000001
 30
0.0
 40
0.1875
  1
1.912
 41
0.75
 72
     1
 11
14.172905999999999
 21
18.522082000000001
 31
0.0
 73
     2
  0
POINT
  5
164
  8
DEFPOINTS
  6
BYBLOCK
 62
     0
 10
11.83390599999999
 20
17.566082000000002
 30
0.0
  0
POINT
  5
165
  8
DEFPOINTS
  6
BYBLOCK
 62
     0
 10
11.83390599999999
 20
19.478082000000001
 30
0.0
  0
POINT
  5
166
  8
DEFPOINTS
  6
BYBLOCK
 62
     0
 10
14.172905999999999
 20
19.478082000000001
 30
0.0
  0
ENDBLK
  5
167
  8
0
  0
BLOCK
  8
0
  2
*D20
 70
     1
 10
0.0
 20
0.0
 30
0.0
  3
*D20
  1

  0
LINE
  5
16A
  8
0
  6
BYBLOCK
 62
     0
 10
12.322552999999999
 20
14.02668999999999
 30
0.0
 11
12.322552999999999
 21
15.405044999999999
 31
0.0
  0
LINE
  5
16B
  8
0
  6
BYBLOCK
 62
     0
 10
12.287432000000001
 20
15.072615000000001
 30
0.0
 11
12.27874299999999
 21
15.404472
 31
0.0
  0
ARC
  5
16C
  8
0
  6
BYBLOCK
 62
     0
 10
12.322552999999999
 20
13.73142
 30
0.0
 40
1.5341249999999991
 50
69.806217000000004
 51
79.903107999999989
  0
ARC
  5
16D
  8
0
  6
BYBLOCK
 62
     0
 10
12.322552999999999
 20
13.73142
 30
0.0
 40
1.5341249999999991
 50
101.596892
 51
111.693783
  0
SOLID
  5
16E
  8
0
  6
BYBLOCK
 62
     0
 10
12.587546
 20
15.196960000000001
 30
0.0
 11
12.59546499999999
 21
15.28661099999999
 31
0.0
 12
12.322552999999999
 22
15.265544999999999
 32
0.0
 13
12.322552999999999
 23
15.265544999999999
 33
0.0
  0
SOLID
  5
16F
  8
0
  6
BYBLOCK
 62
     0
 10
12.009024
 20
15.278933999999991
 30
0.0
 11
12.019288
 21
15.18952099999999
 31
0.0
 12
12.282394
 22
15.265019000000001
 32
0.0
 13
12.282394
 23
15.265019000000001
 33
0.0
  0
TEXT
  5
170
  8
0
  6
BYBLOCK
 62
     0
 10
13.204225499999991
 20
15.078779999999989
 30
0.0
 40
0.1875
  1
 REF.
 41
0.75
 72
     1
 11
13.555787999999991
 21
15.17253
 31
0.0
 73
     2
  0
TEXT
  5
171
  8
0
  6
BYBLOCK
 62
     0
 10
12.899537499999999
 20
15.078779999999989
 30
0.0
 40
0.1875
  1
1.5%%d
 41
0.75
 72
     1
 11
13.06359999999999
 21
15.17253
 31
0.0
 73
     2
  0
POINT
  5
172
  8
DEFPOINTS
  6
BYBLOCK
 62
     0
 10
12.308945
 20
15.265485
 30
0.0
  0
POINT
  5
173
  8
DEFPOINTS
  6
BYBLOCK
 62
     0
 10
12.289906
 20
14.978147999999999
 30
0.0
  0
POINT
  5
174
  8
DEFPOINTS
  6
BYBLOCK
 62
     0
 10
12.322552999999999
 20
13.73142
 30
0.0
  0
POINT
  5
175
  8
DEFPOINTS
  6
BYBLOCK
 62
     0
 10
12.322552999999999
 20
13.93219
 30
0.0
  0
POINT
  5
176
  8
DEFPOINTS
  6
BYBLOCK
 62
     0
 10
12.32277
 20
13.723148
 30
0.0
  0
ENDBLK
  5
177
  8
0
  0
BLOCK
  8
0
  2
*D21
 70
     1
 10
0.0
 20
0.0
 30
0.0
  3
*D21
  1

  0
LINE
  5
17A
  8
0
  6
BYBLOCK
 62
     0
 10
24.083361
 20
9.1975269999999991
 30
0.0
 11
23.942109999999989
 21
9.1975269999999991
 31
0.0
  0
LINE
  5
17B
  8
0
  6
BYBLOCK
 62
     0
 10
24.083361
 20
9.2696459999999998
 30
0.0
 11
23.942109999999989
 21
9.2696459999999998
 31
0.0
  0
LINE
  5
17C
  8
0
  6
BYBLOCK
 62
     0
 10
24.081610000000001
 20
8.9275269999999995
 30
0.0
 11
24.081610000000001
 21
8.6575269999999982
 31
0.0
  0
LINE
  5
17D
  8
0
  6
BYBLOCK
 62
     0
 10
24.081610000000001
 20
9.5396460000000012
 30
0.0
 11
24.081610000000001
 21
9.8096460000000008
 31
0.0
  0
LINE
  5
17E
  8
0
  6
BYBLOCK
 62
     0
 10
24.081610000000001
 20
9.8096460000000008
 30
0.0
 11
24.351610000000001
 21
9.8096460000000008
 31
0.0
  0
SOLID
  5
17F
  8
0
  6
BYBLOCK
 62
     0
 10
24.03661
 20
8.9275269999999995
 30
0.0
 11
24.126609999999989
 21
8.9275269999999995
 31
0.0
 12
24.081610000000001
 22
9.1975269999999991
 32
0.0
 13
24.081610000000001
 23
9.1975269999999991
 33
0.0
  0
SOLID
  5
180
  8
0
  6
BYBLOCK
 62
     0
 10
24.03661
 20
9.5396460000000012
 30
0.0
 11
24.126609999999989
 21
9.5396460000000012
 31
0.0
 12
24.081610000000001
 22
9.2696459999999998
 32
0.0
 13
24.081610000000001
 23
9.2696459999999998
 33
0.0
  0
TEXT
  5
181
  8
0
  6
BYBLOCK
 62
     0
 10
24.978797499999999
 20
9.7158960000000008
 30
0.0
 40
0.1875
  1
 TYP.
 41
0.75
 72
     1
 11
25.330359999999999
 21
9.8096460000000008
 31
0.0
 73
     2
  0
TEXT
  5
182
  8
0
  6
BYBLOCK
 62
     0
 10
24.486610500000001
 20
9.7158960000000008
 30
0.0
 40
0.1875
  1
0.072
 41
0.75
 72
     1
 11
24.744423000000001
 21
9.8096460000000008
 31
0.0
 73
     2
  0
POINT
  5
183
  8
DEFPOINTS
  6
BYBLOCK
 62
     0
 10
24.177861
 20
9.1975269999999991
 30
0.0
  0
POINT
  5
184
  8
DEFPOINTS
  6
BYBLOCK
 62
     0
 10
24.177861
 20
9.2696459999999998
 30
0.0
  0
POINT
  5
185
  8
DEFPOINTS
  6
BYBLOCK
 62
     0
 10
24.081610000000001
 20
9.2696459999999998
 30
0.0
  0
ENDBLK
  5
186
  8
0
  0
BLOCK
  8
0
  2
*D22
 70
     1
 10
0.0
 20
0.0
 30
0.0
  3
*D22
  1

  0
LINE
  5
189
  8
0
  6
BYBLOCK
 62
     0
 10
21.930243000000001
 20
2.892930999999999
 30
0.0
 11
21.885242999999999
 21
2.892930999999999
 31
0.0
  0
LINE
  5
18A
  8
0
  6
BYBLOCK
 62
     0
 10
22.001366999999998
 20
3.142930999999999
 30
0.0
 11
22.164242999999988
 21
3.142930999999999
 31
0.0
  0
LINE
  5
18B
  8
0
  6
BYBLOCK
 62
     0
 10
22.02474299999999
 20
2.6229309999999999
 30
0.0
 11
22.02474299999999
 21
2.3529309999999999
 31
0.0
  0
LINE
  5
18C
  8
0
  6
BYBLOCK
 62
     0
 10
22.02474299999999
 20
3.412930999999999
 30
0.0
 11
22.02474299999999
 21
3.6829309999999991
 31
0.0
  0
LINE
  5
18D
  8
0
  6
BYBLOCK
 62
     0
 10
22.02474299999999
 20
3.6829309999999991
 30
0.0
 11
22.294743
 21
3.6829309999999991
 31
0.0
  0
SOLID
  5
18E
  8
0
  6
BYBLOCK
 62
     0
 10
21.979742999999988
 20
2.6229309999999999
 30
0.0
 11
22.069742999999999
 21
2.6229309999999999
 31
0.0
 12
22.02474299999999
 22
2.892930999999999
 32
0.0
 13
22.02474299999999
 23
2.892930999999999
 33
0.0
  0
SOLID
  5
18F
  8
0
  6
BYBLOCK
 62
     0
 10
21.979742999999988
 20
3.412930999999999
 30
0.0
 11
22.069742999999999
 21
3.412930999999999
 31
0.0
 12
22.02474299999999
 22
3.142930999999999
 32
0.0
 13
22.02474299999999
 23
3.142930999999999
 33
0.0
  0
TEXT
  5
190
  8
0
  6
BYBLOCK
 62
     0
 10
22.4297425
 20
3.5891809999999991
 30
0.0
 40
0.1875
  1
0.250
 41
0.75
 72
     1
 11
22.687555
 21
3.6829309999999991
 31
0.0
 73
     2
  0
POINT
  5
191
  8
DEFPOINTS
  6
BYBLOCK
 62
     0
 10
22.02474299999999
 20
2.892930999999999
 30
0.0
  0
POINT
  5
192
  8
DEFPOINTS
  6
BYBLOCK
 62
     0
 10
21.906866999999998
 20
3.142930999999999
 30
0.0
  0
POINT
  5
193
  8
DEFPOINTS
  6
BYBLOCK
 62
     0
 10
22.02474299999999
 20
3.142930999999999
 30
0.0
  0
ENDBLK
  5
194
  8
0
  0
BLOCK
  8
0
  2
*D23
 70
     1
 10
0.0
 20
0.0
 30
0.0
  3
*D23
  1

  0
LINE
  5
197
  8
0
  6
BYBLOCK
 62
     0
 10
1.7688820000000001
 20
8.1795650000000002
 30
0.0
 11
1.121381999999999
 21
8.1795650000000002
 31
0.0
  0
LINE
  5
198
  8
0
  6
BYBLOCK
 62
     0
 10
1.7688820000000001
 20
4.6072920000000002
 30
0.0
 11
1.121381999999999
 21
4.6072920000000002
 31
0.0
  0
LINE
  5
199
  8
0
  6
BYBLOCK
 62
     0
 10
1.2608820000000001
 20
7.9095649999999988
 30
0.0
 11
1.2608820000000001
 21
6.6221789999999991
 31
0.0
  0
LINE
  5
19A
  8
0
  6
BYBLOCK
 62
     0
 10
1.2608820000000001
 20
4.8772919999999989
 30
0.0
 11
1.2608820000000001
 21
6.1646789999999996
 31
0.0
  0
SOLID
  5
19B
  8
0
  6
BYBLOCK
 62
     0
 10
1.215881999999999
 20
7.9095649999999988
 30
0.0
 11
1.3058819999999991
 21
7.9095649999999988
 31
0.0
 12
1.2608820000000001
 22
8.1795650000000002
 32
0.0
 13
1.2608820000000001
 23
8.1795650000000002
 33
0.0
  0
SOLID
  5
19C
  8
0
  6
BYBLOCK
 62
     0
 10
1.215881999999999
 20
4.8772919999999989
 30
0.0
 11
1.3058819999999991
 21
4.8772919999999989
 31
0.0
 12
1.2608820000000001
 22
4.6072920000000002
 32
0.0
 13
1.2608820000000001
 23
4.6072920000000002
 33
0.0
  0
TEXT
  5
19D
  8
0
  6
BYBLOCK
 62
     0
 10
0.9796320000000001
 20
6.2996790000000003
 30
0.0
 40
0.1875
  1
3.572
 41
0.75
 72
     1
 11
1.2608820000000001
 21
6.3934290000000003
 31
0.0
 73
     2
  0
POINT
  5
19E
  8
DEFPOINTS
  6
BYBLOCK
 62
     0
 10
1.863381999999999
 20
8.1795650000000002
 30
0.0
  0
POINT
  5
19F
  8
DEFPOINTS
  6
BYBLOCK
 62
     0
 10
1.863381999999999
 20
4.6072920000000002
 30
0.0
  0
POINT
  5
1A0
  8
DEFPOINTS
  6
BYBLOCK
 62
     0
 10
1.2608820000000001
 20
4.6072920000000002
 30
0.0
  0
ENDBLK
  5
1A1
  8
0
  0
BLOCK
  8
0
  2
*D24
 70
     1
 10
0.0
 20
0.0
 30
0.0
  3
*D24
  1

  0
LINE
  5
1A4
  8
0
  6
BYBLOCK
 62
     0
 10
3.4048820000000002
 20
8.1434289999999994
 30
0.0
 11
4.0523819999999988
 21
8.1434289999999994
 31
0.0
  0
LINE
  5
1A5
  8
0
  6
BYBLOCK
 62
     0
 10
3.4048820000000002
 20
4.6434290000000003
 30
0.0
 11
4.0523819999999988
 21
4.6434290000000003
 31
0.0
  0
LINE
  5
1A6
  8
0
  6
BYBLOCK
 62
     0
 10
3.9128819999999989
 20
7.8734289999999989
 30
0.0
 11
3.9128819999999989
 21
6.6221789999999991
 31
0.0
  0
LINE
  5
1A7
  8
0
  6
BYBLOCK
 62
     0
 10
3.9128819999999989
 20
4.9134289999999989
 30
0.0
 11
3.9128819999999989
 21
6.1646789999999996
 31
0.0
  0
SOLID
  5
1A8
  8
0
  6
BYBLOCK
 62
     0
 10
3.8678819999999989
 20
7.8734289999999989
 30
0.0
 11
3.9578820000000001
 21
7.8734289999999989
 31
0.0
 12
3.9128819999999989
 22
8.1434289999999994
 32
0.0
 13
3.9128819999999989
 23
8.1434289999999994
 33
0.0
  0
SOLID
  5
1A9
  8
0
  6
BYBLOCK
 62
     0
 10
3.8678819999999989
 20
4.9134289999999989
 30
0.0
 11
3.9578820000000001
 21
4.9134289999999989
 31
0.0
 12
3.9128819999999989
 22
4.6434290000000003
 32
0.0
 13
3.9128819999999989
 23
4.6434290000000003
 33
0.0
  0
TEXT
  5
1AA
  8
0
  6
BYBLOCK
 62
     0
 10
3.6550694999999989
 20
6.2996790000000003
 30
0.0
 40
0.1875
  1
3.500
 41
0.75
 72
     1
 11
3.9128819999999989
 21
6.3934290000000003
 31
0.0
 73
     2
  0
POINT
  5
1AB
  8
DEFPOINTS
  6
BYBLOCK
 62
     0
 10
3.3103820000000002
 20
8.1434289999999994
 30
0.0
  0
POINT
  5
1AC
  8
DEFPOINTS
  6
BYBLOCK
 62
     0
 10
3.3103820000000002
 20
4.6434290000000003
 30
0.0
  0
POINT
  5
1AD
  8
DEFPOINTS
  6
BYBLOCK
 62
     0
 10
3.9128819999999989
 20
4.6434290000000003
 30
0.0
  0
ENDBLK
  5
1AE
  8
0
  0
BLOCK
  8
0
  2
*D25
 70
     1
 10
0.0
 20
0.0
 30
0.0
  3
*D25
  1

  0
LINE
  5
1B1
  8
0
  6
BYBLOCK
 62
     0
 10
1.872881999999999
 20
4.6461690000000004
 30
0.0
 11
1.872881999999999
 21
3.9277919999999988
 31
0.0
  0
LINE
  5
1B2
  8
0
  6
BYBLOCK
 62
     0
 10
3.3008820000000001
 20
4.5489290000000002
 30
0.0
 11
3.3008820000000001
 21
3.9277919999999988
 31
0.0
  0
LINE
  5
1B3
  8
0
  6
BYBLOCK
 62
     0
 10
1.602881999999999
 20
4.0672920000000001
 30
0.0
 11
1.332881999999999
 21
4.0672920000000001
 31
0.0
  0
LINE
  5
1B4
  8
0
  6
BYBLOCK
 62
     0
 10
3.5708820000000001
 20
4.0672920000000001
 30
0.0
 11
3.8408820000000001
 21
4.0672920000000001
 31
0.0
  0
SOLID
  5
1B5
  8
0
  6
BYBLOCK
 62
     0
 10
1.602881999999999
 20
4.1122920000000001
 30
0.0
 11
1.602881999999999
 21
4.0222920000000002
 31
0.0
 12
1.872881999999999
 22
4.0672920000000001
 32
0.0
 13
1.872881999999999
 23
4.0672920000000001
 33
0.0
  0
SOLID
  5
1B6
  8
0
  6
BYBLOCK
 62
     0
 10
3.5708820000000001
 20
4.1122920000000001
 30
0.0
 11
3.5708820000000001
 21
4.0222920000000002
 31
0.0
 12
3.3008820000000001
 22
4.0672920000000001
 32
0.0
 13
3.3008820000000001
 23
4.0672920000000001
 33
0.0
  0
TEXT
  5
1B7
  8
0
  6
BYBLOCK
 62
     0
 10
2.3290695000000001
 20
3.9735420000000001
 30
0.0
 40
0.1875
  1
1.428
 41
0.75
 72
     1
 11
2.5868820000000001
 21
4.0672920000000001
 31
0.0
 73
     2
  0
POINT
  5
1B8
  8
DEFPOINTS
  6
BYBLOCK
 62
     0
 10
1.872881999999999
 20
4.7406689999999996
 30
0.0
  0
POINT
  5
1B9
  8
DEFPOINTS
  6
BYBLOCK
 62
     0
 10
3.3008820000000001
 20
4.6434290000000003
 30
0.0
  0
POINT
  5
1BA
  8
DEFPOINTS
  6
BYBLOCK
 62
     0
 10
3.3008820000000001
 20
4.0672920000000001
 30
0.0
  0
ENDBLK
  5
1BB
  8
0
  0
BLOCK
  8
0
  2
*D26
 70
     1
 10
0.0
 20
0.0
 30
0.0
  3
*D26
  1

  0
LINE
  5
1BE
  8
0
  6
BYBLOCK
 62
     0
 10
1.800881999999999
 20
4.5752920000000001
 30
0.0
 11
1.800881999999999
 21
3.5062919999999989
 31
0.0
  0
LINE
  5
1BF
  8
0
  6
BYBLOCK
 62
     0
 10
3.3008820000000001
 20
4.5489290000000002
 30
0.0
 11
3.3008820000000001
 21
3.5062919999999989
 31
0.0
  0
LINE
  5
1C0
  8
0
  6
BYBLOCK
 62
     0
 10
1.5308820000000001
 20
3.6457919999999988
 30
0.0
 11
1.2608820000000001
 21
3.6457919999999988
 31
0.0
  0
LINE
  5
1C1
  8
0
  6
BYBLOCK
 62
     0
 10
3.5708820000000001
 20
3.6457919999999988
 30
0.0
 11
3.8408820000000001
 21
3.6457919999999988
 31
0.0
  0
SOLID
  5
1C2
  8
0
  6
BYBLOCK
 62
     0
 10
1.5308820000000001
 20
3.6907919999999992
 30
0.0
 11
1.5308820000000001
 21
3.6007919999999989
 31
0.0
 12
1.800881999999999
 22
3.6457919999999988
 32
0.0
 13
1.800881999999999
 23
3.6457919999999988
 33
0.0
  0
SOLID
  5
1C3
  8
0
  6
BYBLOCK
 62
     0
 10
3.5708820000000001
 20
3.6907919999999992
 30
0.0
 11
3.5708820000000001
 21
3.6007919999999989
 31
0.0
 12
3.3008820000000001
 22
3.6457919999999988
 32
0.0
 13
3.3008820000000001
 23
3.6457919999999988
 33
0.0
  0
TEXT
  5
1C4
  8
0
  6
BYBLOCK
 62
     0
 10
2.3165070000000001
 20
3.5520419999999988
 30
0.0
 40
0.1875
  1
1.500
 41
0.75
 72
     1
 11
2.5508820000000001
 21
3.6457919999999988
 31
0.0
 73
     2
  0
POINT
  5
1C5
  8
DEFPOINTS
  6
BYBLOCK
 62
     0
 10
1.800881999999999
 20
4.6697920000000002
 30
0.0
  0
POINT
  5
1C6
  8
DEFPOINTS
  6
BYBLOCK
 62
     0
 10
3.3008820000000001
 20
4.6434290000000003
 30
0.0
  0
POINT
  5
1C7
  8
DEFPOINTS
  6
BYBLOCK
 62
     0
 10
3.3008820000000001
 20
3.6457919999999988
 30
0.0
  0
ENDBLK
  5
1C8
  8
0
  0
BLOCK
  8
0
  2
*D27
 70
     1
 10
0.0
 20
0.0
 30
0.0
  3
*D27
  1

  0
LINE
  5
1CB
  8
0
  6
BYBLOCK
 62
     0
 10
6.6733690000000001
 20
6.2089290000000004
 30
0.0
 11
6.6733690000000001
 21
3.5062919999999989
 31
0.0
  0
LINE
  5
1CC
  8
0
  6
BYBLOCK
 62
     0
 10
12.173368999999999
 20
6.2089290000000004
 30
0.0
 11
12.173368999999999
 21
3.5062919999999989
 31
0.0
  0
LINE
  5
1CD
  8
0
  6
BYBLOCK
 62
     0
 10
6.9433689999999997
 20
3.6457919999999988
 30
0.0
 11
9.0305569999999982
 21
3.6457919999999988
 31
0.0
  0
LINE
  5
1CE
  8
0
  6
BYBLOCK
 62
     0
 10
11.903368999999991
 20
3.6457919999999988
 30
0.0
 11
9.8161820000000013
 21
3.6457919999999988
 31
0.0
  0
SOLID
  5
1CF
  8
0
  6
BYBLOCK
 62
     0
 10
6.9433689999999997
 20
3.6907919999999992
 30
0.0
 11
6.9433689999999997
 21
3.6007919999999989
 31
0.0
 12
6.6733690000000001
 22
3.6457919999999988
 32
0.0
 13
6.6733690000000001
 23
3.6457919999999988
 33
0.0
  0
SOLID
  5
1D0
  8
0
  6
BYBLOCK
 62
     0
 10
11.903368999999991
 20
3.6907919999999992
 30
0.0
 11
11.903368999999991
 21
3.6007919999999989
 31
0.0
 12
12.173368999999999
 22
3.6457919999999988
 32
0.0
 13
12.173368999999999
 23
3.6457919999999988
 33
0.0
  0
TEXT
  5
1D1
  8
0
  6
BYBLOCK
 62
     0
 10
9.1655564999999992
 20
3.5520419999999988
 30
0.0
 40
0.1875
  1
5.500
 41
0.75
 72
     1
 11
9.4233689999999992
 21
3.6457919999999988
 31
0.0
 73
     2
  0
POINT
  5
1D2
  8
DEFPOINTS
  6
BYBLOCK
 62
     0
 10
6.6733690000000001
 20
6.3034290000000004
 30
0.0
  0
POINT
  5
1D3
  8
DEFPOINTS
  6
BYBLOCK
 62
     0
 10
12.173368999999999
 20
6.3034290000000004
 30
0.0
  0
POINT
  5
1D4
  8
DEFPOINTS
  6
BYBLOCK
 62
     0
 10
12.173368999999999
 20
3.6457919999999988
 30
0.0
  0
ENDBLK
  5
1D5
  8
0
  0
BLOCK
  8
0
  2
*D28
 70
     1
 10
0.0
 20
0.0
 30
0.0
  3
*D28
  1

  0
LINE
  5
1D8
  8
0
  6
BYBLOCK
 62
     0
 10
6.6733690000000001
 20
6.2089290000000004
 30
0.0
 11
6.6733690000000001
 21
3.9277919999999988
 31
0.0
  0
LINE
  5
1D9
  8
0
  6
BYBLOCK
 62
     0
 10
9.4233689999999992
 20
4.2628099999999991
 30
0.0
 11
9.4233689999999992
 21
3.9277919999999988
 31
0.0
  0
LINE
  5
1DA
  8
0
  6
BYBLOCK
 62
     0
 10
6.9433689999999997
 20
4.0672920000000001
 30
0.0
 11
7.6438379999999997
 21
4.0672920000000001
 31
0.0
  0
LINE
  5
1DB
  8
0
  6
BYBLOCK
 62
     0
 10
9.1533689999999996
 20
4.0672920000000001
 30
0.0
 11
8.4529009999999989
 21
4.0672920000000001
 31
0.0
  0
SOLID
  5
1DC
  8
0
  6
BYBLOCK
 62
     0
 10
6.9433689999999997
 20
4.1122920000000001
 30
0.0
 11
6.9433689999999997
 21
4.0222920000000002
 31
0.0
 12
6.6733690000000001
 22
4.0672920000000001
 32
0.0
 13
6.6733690000000001
 23
4.0672920000000001
 33
0.0
  0
SOLID
  5
1DD
  8
0
  6
BYBLOCK
 62
     0
 10
9.1533689999999996
 20
4.1122920000000001
 30
0.0
 11
9.1533689999999996
 21
4.0222920000000002
 31
0.0
 12
9.4233689999999992
 22
4.0672920000000001
 32
0.0
 13
9.4233689999999992
 23
4.0672920000000001
 33
0.0
  0
TEXT
  5
1DE
  8
0
  6
BYBLOCK
 62
     0
 10
7.7788377500000001
 20
3.9735420000000001
 30
0.0
 40
0.1875
  1
2.750
 41
0.75
 72
     1
 11
8.0483689999999992
 21
4.0672920000000001
 31
0.0
 73
     2
  0
POINT
  5
1DF
  8
DEFPOINTS
  6
BYBLOCK
 62
     0
 10
6.6733690000000001
 20
6.3034290000000004
 30
0.0
  0
POINT
  5
1E0
  8
DEFPOINTS
  6
BYBLOCK
 62
     0
 10
9.4233689999999992
 20
4.35731
 30
0.0
  0
POINT
  5
1E1
  8
DEFPOINTS
  6
BYBLOCK
 62
     0
 10
9.4233689999999992
 20
4.0672920000000001
 30
0.0
  0
ENDBLK
  5
1E2
  8
0
  0
BLOCK
  8
0
  2
*D29
 70
     1
 10
0.0
 20
0.0
 30
0.0
  3
*D29
  1

  0
LINE
  5
1E5
  8
0
  6
BYBLOCK
 62
     0
 10
9.4233689999999992
 20
8.5240479999999987
 30
0.0
 11
9.4233689999999992
 21
8.8590649999999993
 31
0.0
  0
LINE
  5
1E6
  8
0
  6
BYBLOCK
 62
     0
 10
7.4673689999999997
 20
7.7839289999999988
 30
0.0
 11
7.4673689999999997
 21
8.8590649999999993
 31
0.0
  0
LINE
  5
1E7
  8
0
  6
BYBLOCK
 62
     0
 10
9.1533689999999996
 20
8.7195649999999993
 30
0.0
 11
8.8381820000000015
 21
8.7195649999999993
 31
0.0
  0
LINE
  5
1E8
  8
0
  6
BYBLOCK
 62
     0
 10
7.7373690000000002
 20
8.7195649999999993
 30
0.0
 11
8.0525570000000002
 21
8.7195649999999993
 31
0.0
  0
SOLID
  5
1E9
  8
0
  6
BYBLOCK
 62
     0
 10
9.1533689999999996
 20
8.7645649999999993
 30
0.0
 11
9.1533689999999996
 21
8.6745649999999994
 31
0.0
 12
9.4233689999999992
 22
8.7195649999999993
 32
0.0
 13
9.4233689999999992
 23
8.7195649999999993
 33
0.0
  0
SOLID
  5
1EA
  8
0
  6
BYBLOCK
 62
     0
 10
7.7373690000000002
 20
8.7645649999999993
 30
0.0
 11
7.7373690000000002
 21
8.6745649999999994
 31
0.0
 12
7.4673689999999997
 22
8.7195649999999993
 32
0.0
 13
7.4673689999999997
 23
8.7195649999999993
 33
0.0
  0
TEXT
  5
1EB
  8
0
  6
BYBLOCK
 62
     0
 10
8.1875564999999995
 20
8.6258149999999993
 30
0.0
 40
0.1875
  1
1.956
 41
0.75
 72
     1
 11
8.4453689999999995
 21
8.7195649999999993
 31
0.0
 73
     2
  0
POINT
  5
1EC
  8
DEFPOINTS
  6
BYBLOCK
 62
     0
 10
9.4233689999999992
 20
8.4295479999999987
 30
0.0
  0
POINT
  5
1ED
  8
DEFPOINTS
  6
BYBLOCK
 62
     0
 10
7.4673689999999997
 20
7.6894289999999987
 30
0.0
  0
POINT
  5
1EE
  8
DEFPOINTS
  6
BYBLOCK
 62
     0
 10
7.4673689999999997
 20
8.7195649999999993
 30
0.0
  0
ENDBLK
  5
1EF
  8
0
  0
BLOCK
  8
0
  2
*D30
 70
     1
 10
0.0
 20
0.0
 30
0.0
  3
*D30
  1

  0
LINE
  5
1F2
  8
0
  6
BYBLOCK
 62
     0
 10
11.379369000000001
 20
7.7839289999999988
 30
0.0
 11
11.379369000000001
 21
9.2805649999999993
 31
0.0
  0
LINE
  5
1F3
  8
0
  6
BYBLOCK
 62
     0
 10
7.4673689999999997
 20
7.7839289999999988
 30
0.0
 11
7.4673689999999997
 21
9.2805649999999993
 31
0.0
  0
LINE
  5
1F4
  8
0
  6
BYBLOCK
 62
     0
 10
11.109368999999999
 20
9.1410649999999993
 30
0.0
 11
9.8161820000000013
 21
9.1410649999999993
 31
0.0
  0
LINE
  5
1F5
  8
0
  6
BYBLOCK
 62
     0
 10
7.7373690000000002
 20
9.1410649999999993
 30
0.0
 11
9.0305569999999982
 21
9.1410649999999993
 31
0.0
  0
SOLID
  5
1F6
  8
0
  6
BYBLOCK
 62
     0
 10
11.109368999999999
 20
9.1860649999999993
 30
0.0
 11
11.109368999999999
 21
9.0960649999999994
 31
0.0
 12
11.379369000000001
 22
9.1410649999999993
 32
0.0
 13
11.379369000000001
 23
9.1410649999999993
 33
0.0
  0
SOLID
  5
1F7
  8
0
  6
BYBLOCK
 62
     0
 10
7.7373690000000002
 20
9.1860649999999993
 30
0.0
 11
7.7373690000000002
 21
9.0960649999999994
 31
0.0
 12
7.4673689999999997
 22
9.1410649999999993
 32
0.0
 13
7.4673689999999997
 23
9.1410649999999993
 33
0.0
  0
TEXT
  5
1F8
  8
0
  6
BYBLOCK
 62
     0
 10
9.1655564999999992
 20
9.0473149999999993
 30
0.0
 40
0.1875
  1
3.912
 41
0.75
 72
     1
 11
9.4233689999999992
 21
9.1410649999999993
 31
0.0
 73
     2
  0
POINT
  5
1F9
  8
DEFPOINTS
  6
BYBLOCK
 62
     0
 10
11.379369000000001
 20
7.6894289999999987
 30
0.0
  0
POINT
  5
1FA
  8
DEFPOINTS
  6
BYBLOCK
 62
     0
 10
7.4673689999999997
 20
7.6894289999999987
 30
0.0
  0
POINT
  5
1FB
  8
DEFPOINTS
  6
BYBLOCK
 62
     0
 10
7.4673689999999997
 20
9.1410649999999993
 30
0.0
  0
ENDBLK
  5
1FC
  8
0
  0
BLOCK
  8
0
  2
*X31
 70
     1
 10
0.0
 20
0.0
 30
0.0
  3
*X31
  1

  0
LINE
  5
1FF
  8
0
 62
     0
 10
1.15195
 20
5.0410370000000002
 30
0.0
 11
1.2239500000000001
 21
5.1130370000000003
 31
0.0
  0
LINE
  5
200
  8
0
 62
     0
 10
2.6519499999999989
 20
6.5410370000000002
 30
0.0
 11
2.723949999999999
 21
6.6130369999999994
 31
0.0
  0
LINE
  5
201
  8
0
 62
     0
 10
1.15195
 20
5.2178139999999988
 30
0.0
 11
1.2239500000000001
 21
5.2898139999999989
 31
0.0
  0
LINE
  5
202
  8
0
 62
     0
 10
2.6519499999999989
 20
6.7178139999999988
 30
0.0
 11
2.723949999999999
 21
6.7898139999999989
 31
0.0
  0
LINE
  5
203
  8
0
 62
     0
 10
1.15195
 20
5.3945910000000001
 30
0.0
 11
1.2239500000000001
 21
5.4665910000000002
 31
0.0
  0
LINE
  5
204
  8
0
 62
     0
 10
2.6519499999999989
 20
6.8945910000000001
 30
0.0
 11
2.723949999999999
 21
6.9665910000000002
 31
0.0
  0
LINE
  5
205
  8
0
 62
     0
 10
1.15195
 20
5.5713669999999986
 30
0.0
 11
1.2239500000000001
 21
5.6433669999999987
 31
0.0
  0
LINE
  5
206
  8
0
 62
     0
 10
2.6519499999999989
 20
7.0713669999999986
 30
0.0
 11
2.723949999999999
 21
7.1433669999999987
 31
0.0
  0
LINE
  5
207
  8
0
 62
     0
 10
1.15195
 20
5.748143999999999
 30
0.0
 11
1.2239500000000001
 21
5.8201439999999991
 31
0.0
  0
LINE
  5
208
  8
0
 62
     0
 10
1.15195
 20
5.9249210000000003
 30
0.0
 11
1.2239500000000001
 21
5.9969209999999986
 31
0.0
  0
LINE
  5
209
  8
0
 62
     0
 10
1.15195
 20
6.1016969999999988
 30
0.0
 11
1.2239500000000001
 21
6.1736969999999989
 31
0.0
  0
LINE
  5
20A
  8
0
 62
     0
 10
1.15195
 20
6.2784740000000001
 30
0.0
 11
1.2239500000000001
 21
6.3504740000000002
 31
0.0
  0
LINE
  5
20B
  8
0
 62
     0
 10
1.15195
 20
6.4552509999999996
 30
0.0
 11
1.2239500000000001
 21
6.5272509999999997
 31
0.0
  0
LINE
  5
20C
  8
0
 62
     0
 10
1.15195
 20
6.6320269999999999
 30
0.0
 11
1.2239500000000001
 21
6.704027
 31
0.0
  0
LINE
  5
20D
  8
0
 62
     0
 10
1.15195
 20
6.8088039999999994
 30
0.0
 11
1.2239500000000001
 21
6.8808039999999986
 31
0.0
  0
LINE
  5
20E
  8
0
 62
     0
 10
1.15195
 20
6.9855809999999989
 30
0.0
 11
1.1816869999999999
 21
7.0153179999999988
 31
0.0
  0
LINE
  5
20F
  8
0
 62
     0
 10
1.15195
 20
4.8642609999999991
 30
0.0
 11
1.2239500000000001
 21
4.936261
 31
0.0
  0
LINE
  5
210
  8
0
 62
     0
 10
2.6519499999999989
 20
6.3642609999999991
 30
0.0
 11
2.723949999999999
 21
6.436261
 31
0.0
  0
LINE
  5
211
  8
0
 62
     0
 10
1.15195
 20
4.6874839999999987
 30
0.0
 11
1.1581259999999991
 21
4.6936599999999986
 31
0.0
  0
LINE
  5
212
  8
0
 62
     0
 10
2.6519499999999989
 20
6.1874839999999987
 30
0.0
 11
2.723949999999999
 21
6.2594839999999987
 31
0.0
  0
LINE
  5
213
  8
0
 62
     0
 10
1.1581259999999991
 20
4.6936599999999986
 30
0.0
 11
1.2239500000000001
 21
4.7594839999999987
 31
0.0
  0
LINE
  5
214
  8
0
 62
     0
 10
1.2485349999999991
 20
4.6072920000000002
 30
0.0
 11
1.2513570000000001
 21
4.6101140000000003
 31
0.0
  0
LINE
  5
215
  8
0
 62
     0
 10
2.6519499999999989
 20
6.010707
 30
0.0
 11
2.723949999999999
 21
6.0827070000000001
 31
0.0
  0
LINE
  5
216
  8
0
 62
     0
 10
1.2513570000000001
 20
4.6101140000000003
 30
0.0
 11
1.366886
 21
4.7256429999999989
 31
0.0
  0
LINE
  5
217
  8
0
 62
     0
 10
1.4294349999999989
 20
4.6114160000000002
 30
0.0
 11
1.5421329999999991
 21
4.7241140000000001
 31
0.0
  0
LINE
  5
218
  8
0
 62
     0
 10
2.6519499999999989
 20
5.8339299999999996
 30
0.0
 11
2.723949999999999
 21
5.9059299999999997
 31
0.0
  0
LINE
  5
219
  8
0
 62
     0
 10
1.610965999999999
 20
4.6161690000000002
 30
0.0
 11
1.717381
 21
4.7225839999999986
 31
0.0
  0
LINE
  5
21A
  8
0
 62
     0
 10
2.6519499999999989
 20
5.6571540000000002
 30
0.0
 11
2.723949999999999
 21
5.7291540000000003
 31
0.0
  0
LINE
  5
21B
  8
0
 62
     0
 10
1.792495999999999
 20
4.6209230000000003
 30
0.0
 11
1.892628
 21
4.7210549999999998
 31
0.0
  0
LINE
  5
21C
  8
0
 62
     0
 10
2.6519499999999989
 20
5.4803769999999989
 30
0.0
 11
2.723949999999999
 21
5.552376999999999
 31
0.0
  0
LINE
  5
21D
  8
0
 62
     0
 10
1.9740259999999989
 20
4.6256769999999987
 30
0.0
 11
2.067874999999999
 21
4.7195260000000001
 31
0.0
  0
LINE
  5
21E
  8
0
 62
     0
 10
2.6519499999999989
 20
5.3036000000000003
 30
0.0
 11
2.723949999999999
 21
5.3756000000000004
 31
0.0
  0
LINE
  5
21F
  8
0
 62
     0
 10
2.1555559999999998
 20
4.6304299999999996
 30
0.0
 11
2.2431229999999989
 21
4.7179960000000003
 31
0.0
  0
LINE
  5
220
  8
0
 62
     0
 10
2.6519499999999989
 20
5.126824
 30
0.0
 11
2.723949999999999
 21
5.1988240000000001
 31
0.0
  0
LINE
  5
221
  8
0
 62
     0
 10
2.337086999999999
 20
4.6351839999999989
 30
0.0
 11
2.418369999999999
 21
4.7164669999999989
 31
0.0
  0
LINE
  5
222
  8
0
 62
     0
 10
2.518616999999999
 20
4.6399369999999998
 30
0.0
 11
2.5936169999999992
 21
4.7149380000000001
 31
0.0
  0
LINE
  5
223
  8
0
 62
     0
 10
2.6519499999999989
 20
4.7732700000000001
 30
0.0
 11
2.703608
 21
4.824929
 31
0.0
  0
ENDBLK
  5
224
  8
0
  0
BLOCK
  8
0
  2
*X32
 70
     1
 10
0.0
 20
0.0
 30
0.0
  3
*X32
  1

  0
LINE
  5
227
  8
0
 62
     0
 10
7.6614300000000002
 20
1.2974689999999991
 30
0.0
 11
7.7334300000000002
 21
1.369469
 31
0.0
  0
LINE
  5
228
  8
0
 62
     0
 10
9.1614300000000011
 20
2.7974689999999991
 30
0.0
 11
9.2334300000000002
 21
2.869469
 31
0.0
  0
LINE
  5
229
  8
0
 62
     0
 10
7.4846529999999989
 20
1.2974689999999991
 30
0.0
 11
7.556652999999999
 21
1.369469
 31
0.0
  0
LINE
  5
22A
  8
0
 62
     0
 10
8.9846529999999998
 20
2.7974689999999991
 30
0.0
 11
9.0566530000000007
 21
2.869469
 31
0.0
  0
LINE
  5
22B
  8
0
 62
     0
 10
7.3078759999999994
 20
1.2974689999999991
 30
0.0
 11
7.3798759999999994
 21
1.369469
 31
0.0
  0
LINE
  5
22C
  8
0
 62
     0
 10
8.8078760000000003
 20
2.7974689999999991
 30
0.0
 11
8.8798759999999994
 21
2.869469
 31
0.0
  0
LINE
  5
22D
  8
0
 62
     0
 10
7.1310999999999991
 20
1.2974689999999991
 30
0.0
 11
7.2031000000000001
 21
1.369469
 31
0.0
  0
LINE
  5
22E
  8
0
 62
     0
 10
8.6310999999999982
 20
2.7974689999999991
 30
0.0
 11
8.7030999999999992
 21
2.869469
 31
0.0
  0
LINE
  5
22F
  8
0
 62
     0
 10
6.9543229999999987
 20
1.2974689999999991
 30
0.0
 11
6.9640539999999991
 21
1.307199999999999
 31
0.0
  0
LINE
  5
230
  8
0
 62
     0
 10
8.4543230000000005
 20
2.7974689999999991
 30
0.0
 11
8.5263229999999997
 21
2.869469
 31
0.0
  0
LINE
  5
231
  8
0
 62
     0
 10
6.9640539999999991
 20
1.307199999999999
 30
0.0
 11
7.0263229999999988
 21
1.369469
 31
0.0
  0
LINE
  5
232
  8
0
 62
     0
 10
6.7775460000000001
 20
1.2974689999999991
 30
0.0
 11
6.888228999999999
 21
1.4081520000000001
 31
0.0
  0
LINE
  5
233
  8
0
 62
     0
 10
8.2775459999999992
 20
2.7974689999999991
 30
0.0
 11
8.3495460000000001
 21
2.869469
 31
0.0
  0
LINE
  5
234
  8
0
 62
     0
 10
6.888228999999999
 20
1.4081520000000001
 30
0.0
 11
7.005471
 21
1.525393
 31
0.0
  0
LINE
  5
235
  8
0
 62
     0
 10
6.6007699999999989
 20
1.2974689999999991
 30
0.0
 11
6.720769999999999
 21
1.4174690000000001
 31
0.0
  0
LINE
  5
236
  8
0
 62
     0
 10
8.1007699999999971
 20
2.7974689999999991
 30
0.0
 11
8.1727699999999999
 21
2.869469
 31
0.0
  0
LINE
  5
237
  8
0
 62
     0
 10
6.8917089999999988
 20
1.588408
 30
0.0
 11
7.0039410000000002
 21
1.7006399999999999
 31
0.0
  0
LINE
  5
238
  8
0
 62
     0
 10
6.4419879999999994
 20
1.3154639999999991
 30
0.0
 11
6.5439930000000004
 21
1.4174690000000001
 31
0.0
  0
LINE
  5
239
  8
0
 62
     0
 10
7.9239929999999994
 20
2.7974689999999991
 30
0.0
 11
7.9959929999999986
 21
2.869469
 31
0.0
  0
LINE
  5
23A
  8
0
 62
     0
 10
6.8964629999999998
 20
1.7699379999999989
 30
0.0
 11
7.0024119999999987
 21
1.8758879999999989
 31
0.0
  0
LINE
  5
23B
  8
0
 62
     0
 10
6.9012159999999998
 20
1.951468999999999
 30
0.0
 11
7.0008829999999991
 21
2.051134999999999
 31
0.0
  0
LINE
  5
23C
  8
0
 62
     0
 10
7.7472159999999999
 20
2.7974689999999991
 30
0.0
 11
7.8192159999999991
 21
2.869469
 31
0.0
  0
LINE
  5
23D
  8
0
 62
     0
 10
6.9059699999999991
 20
2.1329989999999999
 30
0.0
 11
6.9993530000000002
 21
2.2263820000000001
 31
0.0
  0
LINE
  5
23E
  8
0
 62
     0
 10
7.5704399999999987
 20
2.7974689999999991
 30
0.0
 11
7.6424399999999988
 21
2.869469
 31
0.0
  0
LINE
  5
23F
  8
0
 62
     0
 10
6.9107229999999991
 20
2.3145289999999998
 30
0.0
 11
6.9978239999999996
 21
2.401629999999999
 31
0.0
  0
LINE
  5
240
  8
0
 62
     0
 10
7.3936630000000001
 20
2.7974689999999991
 30
0.0
 11
7.4656630000000002
 21
2.869469
 31
0.0
  0
LINE
  5
241
  8
0
 62
     0
 10
6.9154770000000001
 20
2.4960589999999989
 30
0.0
 11
6.996294999999999
 21
2.5768770000000001
 31
0.0
  0
LINE
  5
242
  8
0
 62
     0
 10
6.9202300000000001
 20
2.6775899999999999
 30
0.0
 11
6.9947649999999992
 21
2.7521239999999998
 31
0.0
  0
LINE
  5
243
  8
0
 62
     0
 10
7.0401100000000003
 20
2.7974689999999991
 30
0.0
 11
7.1023690000000004
 21
2.8597290000000002
 31
0.0
  0
LINE
  5
244
  8
0
 62
     0
 10
7.8382069999999997
 20
1.2974689999999991
 30
0.0
 11
7.9102069999999998
 21
1.369469
 31
0.0
  0
LINE
  5
245
  8
0
 62
     0
 10
9.3382070000000006
 20
2.7974689999999991
 30
0.0
 11
9.4102070000000015
 21
2.869469
 31
0.0
  0
LINE
  5
246
  8
0
 62
     0
 10
8.0149830000000009
 20
1.2974689999999991
 30
0.0
 11
8.086983
 21
1.369469
 31
0.0
  0
LINE
  5
247
  8
0
 62
     0
 10
9.5149830000000009
 20
2.7974689999999991
 30
0.0
 11
9.586983
 21
2.869469
 31
0.0
  0
LINE
  5
248
  8
0
 62
     0
 10
8.1917600000000004
 20
1.2974689999999991
 30
0.0
 11
8.2637600000000013
 21
1.369469
 31
0.0
  0
LINE
  5
249
  8
0
 62
     0
 10
9.6917600000000004
 20
2.7974689999999991
 30
0.0
 11
9.7637600000000013
 21
2.869469
 31
0.0
  0
LINE
  5
24A
  8
0
 62
     0
 10
8.3685369999999981
 20
1.2974689999999991
 30
0.0
 11
8.4405369999999991
 21
1.369469
 31
0.0
  0
LINE
  5
24B
  8
0
 62
     0
 10
9.8685369999999981
 20
2.7974689999999991
 30
0.0
 11
9.9405369999999991
 21
2.869469
 31
0.0
  0
LINE
  5
24C
  8
0
 62
     0
 10
8.5453130000000002
 20
1.2974689999999991
 30
0.0
 11
8.6173130000000011
 21
1.369469
 31
0.0
  0
LINE
  5
24D
  8
0
 62
     0
 10
10.045313
 20
2.7974689999999991
 30
0.0
 11
10.117312999999999
 21
2.869469
 31
0.0
  0
LINE
  5
24E
  8
0
 62
     0
 10
8.7220899999999997
 20
1.2974689999999991
 30
0.0
 11
8.7940899999999989
 21
1.369469
 31
0.0
  0
LINE
  5
24F
  8
0
 62
     0
 10
10.222089999999991
 20
2.7974689999999991
 30
0.0
 11
10.294090000000001
 21
2.869469
 31
0.0
  0
LINE
  5
250
  8
0
 62
     0
 10
8.8988669999999992
 20
1.2974689999999991
 30
0.0
 11
8.9708670000000001
 21
1.369469
 31
0.0
  0
LINE
  5
251
  8
0
 62
     0
 10
10.398866999999999
 20
2.7974689999999991
 30
0.0
 11
10.470867
 21
2.869469
 31
0.0
  0
LINE
  5
252
  8
0
 62
     0
 10
9.0756429999999995
 20
1.2974689999999991
 30
0.0
 11
9.1476429999999986
 21
1.369469
 31
0.0
  0
LINE
  5
253
  8
0
 62
     0
 10
9.2524199999999972
 20
1.2974689999999991
 30
0.0
 11
9.3244199999999982
 21
1.369469
 31
0.0
  0
LINE
  5
254
  8
0
 62
     0
 10
9.4291970000000003
 20
1.2974689999999991
 30
0.0
 11
9.5011969999999994
 21
1.369469
 31
0.0
  0
LINE
  5
255
  8
0
 62
     0
 10
9.6059739999999998
 20
1.2974689999999991
 30
0.0
 11
9.6779740000000007
 21
1.369469
 31
0.0
  0
LINE
  5
256
  8
0
 62
     0
 10
9.7827500000000001
 20
1.2974689999999991
 30
0.0
 11
9.8547499999999992
 21
1.369469
 31
0.0
  0
LINE
  5
257
  8
0
 62
     0
 10
9.9595269999999996
 20
1.2974689999999991
 30
0.0
 11
10.031527000000001
 21
1.369469
 31
0.0
  0
LINE
  5
258
  8
0
 62
     0
 10
10.136304000000001
 20
1.2974689999999991
 30
0.0
 11
10.208304
 21
1.369469
 31
0.0
  0
LINE
  5
259
  8
0
 62
     0
 10
10.313079999999999
 20
1.2974689999999991
 30
0.0
 11
10.38507999999999
 21
1.369469
 31
0.0
  0
LINE
  5
25A
  8
0
 62
     0
 10
10.489857000000001
 20
1.2974689999999991
 30
0.0
 11
10.561857
 21
1.369469
 31
0.0
  0
LINE
  5
25B
  8
0
 62
     0
 10
10.666634
 20
1.2974689999999991
 30
0.0
 11
10.71247
 21
1.3433049999999991
 31
0.0
  0
ENDBLK
  5
25C
  8
0
  0
BLOCK
  8
0
  2
*D33
 70
     1
 10
0.0
 20
0.0
 30
0.0
  3
*D33
  1

  0
LINE
  5
25F
  8
0
  6
BYBLOCK
 62
     0
 10
12.357869000000001
 20
6.3934290000000003
 30
0.0
 11
13.102869
 21
6.3934290000000003
 31
0.0
  0
LINE
  5
260
  8
0
  6
BYBLOCK
 62
     0
 10
11.56386899999999
 20
5.187428999999999
 30
0.0
 11
13.102869
 21
5.187428999999999
 31
0.0
  0
LINE
  5
261
  8
0
  6
BYBLOCK
 62
     0
 10
12.963369
 20
6.663428999999998
 30
0.0
 11
12.963369
 21
6.9334289999999994
 31
0.0
  0
LINE
  5
262
  8
0
  6
BYBLOCK
 62
     0
 10
12.963369
 20
4.9174290000000003
 30
0.0
 11
12.963369
 21
4.6474289999999989
 31
0.0
  0
SOLID
  5
263
  8
0
  6
BYBLOCK
 62
     0
 10
12.918369
 20
6.663428999999998
 30
0.0
 11
13.008369
 21
6.663428999999998
 31
0.0
 12
12.963369
 22
6.3934290000000003
 32
0.0
 13
12.963369
 23
6.3934290000000003
 33
0.0
  0
SOLID
  5
264
  8
0
  6
BYBLOCK
 62
     0
 10
12.918369
 20
4.9174290000000003
 30
0.0
 11
13.008369
 21
4.9174290000000003
 31
0.0
 12
12.963369
 22
5.187428999999999
 32
0.0
 13
12.963369
 23
5.187428999999999
 33
0.0
  0
TEXT
  5
265
  8
0
  6
BYBLOCK
 62
     0
 10
12.71727525
 20
5.6966789999999996
 30
0.0
 40
0.1875
  1
1.206
 41
0.75
 72
     1
 11
12.963369
 21
5.7904289999999996
 31
0.0
 73
     2
  0
POINT
  5
266
  8
DEFPOINTS
  6
BYBLOCK
 62
     0
 10
12.263369000000001
 20
6.3934290000000003
 30
0.0
  0
POINT
  5
267
  8
DEFPOINTS
  6
BYBLOCK
 62
     0
 10
11.469369
 20
5.187428999999999
 30
0.0
  0
POINT
  5
268
  8
DEFPOINTS
  6
BYBLOCK
 62
     0
 10
12.963369
 20
5.187428999999999
 30
0.0
  0
ENDBLK
  5
269
  8
0
  0
BLOCK
  8
0
  2
*D34
 70
     1
 10
0.0
 20
0.0
 30
0.0
  3
*D34
  1

  0
LINE
  5
26C
  8
0
  6
BYBLOCK
 62
     0
 10
11.56386899999999
 20
5.187428999999999
 30
0.0
 11
13.945869
 21
5.187428999999999
 31
0.0
  0
LINE
  5
26D
  8
0
  6
BYBLOCK
 62
     0
 10
11.56386899999999
 20
7.5994289999999989
 30
0.0
 11
13.945869
 21
7.5994289999999989
 31
0.0
  0
LINE
  5
26E
  8
0
  6
BYBLOCK
 62
     0
 10
13.806369
 20
5.4574290000000003
 30
0.0
 11
13.806369
 21
6.1646789999999996
 31
0.0
  0
LINE
  5
26F
  8
0
  6
BYBLOCK
 62
     0
 10
13.806369
 20
7.3294289999999993
 30
0.0
 11
13.806369
 21
6.6221789999999991
 31
0.0
  0
SOLID
  5
270
  8
0
  6
BYBLOCK
 62
     0
 10
13.761369
 20
5.4574290000000003
 30
0.0
 11
13.851369
 21
5.4574290000000003
 31
0.0
 12
13.806369
 22
5.187428999999999
 32
0.0
 13
13.806369
 23
5.187428999999999
 33
0.0
  0
SOLID
  5
271
  8
0
  6
BYBLOCK
 62
     0
 10
13.761369
 20
7.3294289999999993
 30
0.0
 11
13.851369
 21
7.3294289999999993
 31
0.0
 12
13.806369
 22
7.5994289999999989
 32
0.0
 13
13.806369
 23
7.5994289999999989
 33
0.0
  0
TEXT
  5
272
  8
0
  6
BYBLOCK
 62
     0
 10
13.5485565
 20
6.2996790000000003
 30
0.0
 40
0.1875
  1
2.412
 41
0.75
 72
     1
 11
13.806369
 21
6.3934290000000003
 31
0.0
 73
     2
  0
POINT
  5
273
  8
DEFPOINTS
  6
BYBLOCK
 62
     0
 10
11.469369
 20
5.187428999999999
 30
0.0
  0
POINT
  5
274
  8
DEFPOINTS
  6
BYBLOCK
 62
     0
 10
11.469369
 20
7.5994289999999989
 30
0.0
  0
POINT
  5
275
  8
DEFPOINTS
  6
BYBLOCK
 62
     0
 10
13.806369
 20
7.5994289999999989
 30
0.0
  0
ENDBLK
  5
276
  8
0
  0
BLOCK
  8
0
  2
*D35
 70
     1
 10
0.0
 20
0.0
 30
0.0
  3
*D35
  1

  0
LINE
  5
279
  8
0
  6
BYBLOCK
 62
     0
 10
7.3275800000000002
 20
1.3229690000000001
 30
0.0
 11
7.3275800000000002
 21
0.617969
 31
0.0
  0
LINE
  5
27A
  8
0
  6
BYBLOCK
 62
     0
 10
6.8637160000000002
 20
1.2654689999999991
 30
0.0
 11
6.8637160000000002
 21
0.617969
 31
0.0
  0
LINE
  5
27B
  8
0
  6
BYBLOCK
 62
     0
 10
7.5975799999999998
 20
0.757469
 30
0.0
 11
7.8675800000000002
 21
0.757469
 31
0.0
  0
LINE
  5
27C
  8
0
  6
BYBLOCK
 62
     0
 10
6.5937159999999997
 20
0.757469
 30
0.0
 11
6.3237160000000001
 21
0.757469
 31
0.0
  0
SOLID
  5
27D
  8
0
  6
BYBLOCK
 62
     0
 10
7.5975799999999998
 20
0.8024689999999999
 30
0.0
 11
7.5975799999999998
 21
0.712469
 31
0.0
 12
7.3275800000000002
 22
0.757469
 32
0.0
 13
7.3275800000000002
 23
0.757469
 33
0.0
  0
SOLID
  5
27E
  8
0
  6
BYBLOCK
 62
     0
 10
6.5937159999999997
 20
0.8024689999999999
 30
0.0
 11
6.5937159999999997
 21
0.712469
 31
0.0
 12
6.8637160000000002
 22
0.757469
 32
0.0
 13
6.8637160000000002
 23
0.757469
 33
0.0
  0
TEXT
  5
27F
  8
0
  6
BYBLOCK
 62
     0
 10
5.6496537499999988
 20
0.663719
 30
0.0
 40
0.1875
  1
0.464
 41
0.75
 72
     1
 11
5.9191849999999988
 21
0.757469
 31
0.0
 73
     2
  0
POINT
  5
280
  8
DEFPOINTS
  6
BYBLOCK
 62
     0
 10
7.3275800000000002
 20
1.4174690000000001
 30
0.0
  0
POINT
  5
281
  8
DEFPOINTS
  6
BYBLOCK
 62
     0
 10
6.8637160000000002
 20
1.3599689999999991
 30
0.0
  0
POINT
  5
282
  8
DEFPOINTS
  6
BYBLOCK
 62
     0
 10
6.8637160000000002
 20
0.757469
 30
0.0
  0
ENDBLK
  5
283
  8
0
  0
BLOCK
  8
0
  2
*D36
 70
     1
 10
0.0
 20
0.0
 30
0.0
  3
*D36
  1

  0
LINE
  5
286
  8
0
  6
BYBLOCK
 62
     0
 10
12.399853
 20
1.3229690000000001
 30
0.0
 11
12.399853
 21
0.617969
 31
0.0
  0
LINE
  5
287
  8
0
  6
BYBLOCK
 62
     0
 10
7.3275800000000002
 20
1.3229690000000001
 30
0.0
 11
7.3275800000000002
 21
0.617969
 31
0.0
  0
LINE
  5
288
  8
0
  6
BYBLOCK
 62
     0
 10
12.129853000000001
 20
0.757469
 30
0.0
 11
10.268247000000001
 21
0.757469
 31
0.0
  0
LINE
  5
289
  8
0
  6
BYBLOCK
 62
     0
 10
7.5975799999999998
 20
0.757469
 30
0.0
 11
9.4591849999999997
 21
0.757469
 31
0.0
  0
SOLID
  5
28A
  8
0
  6
BYBLOCK
 62
     0
 10
12.129853000000001
 20
0.8024689999999999
 30
0.0
 11
12.129853000000001
 21
0.712469
 31
0.0
 12
12.399853
 22
0.757469
 32
0.0
 13
12.399853
 23
0.757469
 33
0.0
  0
SOLID
  5
28B
  8
0
  6
BYBLOCK
 62
     0
 10
7.5975799999999998
 20
0.8024689999999999
 30
0.0
 11
7.5975799999999998
 21
0.712469
 31
0.0
 12
7.3275800000000002
 22
0.757469
 32
0.0
 13
7.3275800000000002
 23
0.757469
 33
0.0
  0
TEXT
  5
28C
  8
0
  6
BYBLOCK
 62
     0
 10
9.5941847500000002
 20
0.663719
 30
0.0
 40
0.1875
  1
5.072
 41
0.75
 72
     1
 11
9.8637160000000002
 21
0.757469
 31
0.0
 73
     2
  0
POINT
  5
28D
  8
DEFPOINTS
  6
BYBLOCK
 62
     0
 10
12.399853
 20
1.4174690000000001
 30
0.0
  0
POINT
  5
28E
  8
DEFPOINTS
  6
BYBLOCK
 62
     0
 10
7.3275800000000002
 20
1.4174690000000001
 30
0.0
  0
POINT
  5
28F
  8
DEFPOINTS
  6
BYBLOCK
 62
     0
 10
7.3275800000000002
 20
0.757469
 30
0.0
  0
ENDBLK
  5
290
  8
0
  0
BLOCK
  8
0
  2
*D37
 70
     1
 10
0.0
 20
0.0
 30
0.0
  3
*D37
  1

  0
LINE
  5
293
  8
0
  6
BYBLOCK
 62
     0
 10
12.863716
 20
1.2654689999999991
 30
0.0
 11
12.863716
 21
0.196469
 31
0.0
  0
LINE
  5
294
  8
0
  6
BYBLOCK
 62
     0
 10
6.8637160000000002
 20
1.2654689999999991
 30
0.0
 11
6.8637160000000002
 21
0.196469
 31
0.0
  0
LINE
  5
295
  8
0
  6
BYBLOCK
 62
     0
 10
12.593716000000001
 20
0.335969
 30
0.0
 11
10.244809999999999
 21
0.335969
 31
0.0
  0
LINE
  5
296
  8
0
  6
BYBLOCK
 62
     0
 10
7.1337159999999997
 20
0.335969
 30
0.0
 11
9.4826219999999992
 21
0.335969
 31
0.0
  0
SOLID
  5
297
  8
0
  6
BYBLOCK
 62
     0
 10
12.593716000000001
 20
0.380969
 30
0.0
 11
12.593716000000001
 21
0.290969
 31
0.0
 12
12.863716
 22
0.335969
 32
0.0
 13
12.863716
 23
0.335969
 33
0.0
  0
SOLID
  5
298
  8
0
  6
BYBLOCK
 62
     0
 10
7.1337159999999997
 20
0.380969
 30
0.0
 11
7.1337159999999997
 21
0.290969
 31
0.0
 12
6.8637160000000002
 22
0.335969
 32
0.0
 13
6.8637160000000002
 23
0.335969
 33
0.0
  0
TEXT
  5
299
  8
0
  6
BYBLOCK
 62
     0
 10
9.6176222500000002
 20
0.242219
 30
0.0
 40
0.1875
  1
6.000
 41
0.75
 72
     1
 11
9.8637160000000002
 21
0.335969
 31
0.0
 73
     2
  0
POINT
  5
29A
  8
DEFPOINTS
  6
BYBLOCK
 62
     0
 10
12.863716
 20
1.3599689999999991
 30
0.0
  0
POINT
  5
29B
  8
DEFPOINTS
  6
BYBLOCK
 62
     0
 10
6.8637160000000002
 20
1.3599689999999991
 30
0.0
  0
POINT
  5
29C
  8
DEFPOINTS
  6
BYBLOCK
 62
     0
 10
6.8637160000000002
 20
0.335969
 30
0.0
  0
ENDBLK
  5
29D
  8
0
  0
BLOCK
  8
0
  2
*D38
 70
     1
 10
0.0
 20
0.0
 30
0.0
  3
*D38
  1

  0
LINE
  5
2A0
  8
0
  6
BYBLOCK
 62
     0
 10
7.3637160000000002
 20
2.8919689999999991
 30
0.0
 11
7.3637160000000002
 21
3.476969
 31
0.0
  0
LINE
  5
2A1
  8
0
  6
BYBLOCK
 62
     0
 10
12.363716
 20
2.8919689999999991
 30
0.0
 11
12.363716
 21
3.476969
 31
0.0
  0
LINE
  5
2A2
  8
0
  6
BYBLOCK
 62
     0
 10
7.6337159999999997
 20
3.337469
 30
0.0
 11
9.4826219999999992
 21
3.337469
 31
0.0
  0
LINE
  5
2A3
  8
0
  6
BYBLOCK
 62
     0
 10
12.093716000000001
 20
3.337469
 30
0.0
 11
10.244809999999999
 21
3.337469
 31
0.0
  0
SOLID
  5
2A4
  8
0
  6
BYBLOCK
 62
     0
 10
7.6337159999999997
 20
3.3824689999999999
 30
0.0
 11
7.6337159999999997
 21
3.2924690000000001
 31
0.0
 12
7.3637160000000002
 22
3.337469
 32
0.0
 13
7.3637160000000002
 23
3.337469
 33
0.0
  0
SOLID
  5
2A5
  8
0
  6
BYBLOCK
 62
     0
 10
12.093716000000001
 20
3.3824689999999999
 30
0.0
 11
12.093716000000001
 21
3.2924690000000001
 31
0.0
 12
12.363716
 22
3.337469
 32
0.0
 13
12.363716
 23
3.337469
 33
0.0
  0
TEXT
  5
2A6
  8
0
  6
BYBLOCK
 62
     0
 10
9.6176222500000002
 20
3.243719
 30
0.0
 40
0.1875
  1
5.000
 41
0.75
 72
     1
 11
9.8637160000000002
 21
3.337469
 31
0.0
 73
     2
  0
POINT
  5
2A7
  8
DEFPOINTS
  6
BYBLOCK
 62
     0
 10
7.3637160000000002
 20
2.7974689999999991
 30
0.0
  0
POINT
  5
2A8
  8
DEFPOINTS
  6
BYBLOCK
 62
     0
 10
12.363716
 20
2.7974689999999991
 30
0.0
  0
POINT
  5
2A9
  8
DEFPOINTS
  6
BYBLOCK
 62
     0
 10
12.363716
 20
3.337469
 30
0.0
  0
ENDBLK
  5
2AA
  8
0
  0
BLOCK
  8
0
  2
*D39
 70
     1
 10
0.0
 20
0.0
 30
0.0
  3
*D39
  1

  0
LINE
  5
2AD
  8
0
  6
BYBLOCK
 62
     0
 10
12.895716
 20
1.2974689999999991
 30
0.0
 11
13.543215999999999
 21
1.2974689999999991
 31
0.0
  0
LINE
  5
2AE
  8
0
  6
BYBLOCK
 62
     0
 10
12.958216
 20
1.4174690000000001
 30
0.0
 11
13.543215999999999
 21
1.4174690000000001
 31
0.0
  0
LINE
  5
2AF
  8
0
  6
BYBLOCK
 62
     0
 10
13.403715999999999
 20
1.0274689999999991
 30
0.0
 11
13.403715999999999
 21
0.757469
 31
0.0
  0
LINE
  5
2B0
  8
0
  6
BYBLOCK
 62
     0
 10
13.403715999999999
 20
1.687468999999999
 30
0.0
 11
13.403715999999999
 21
1.957468999999999
 31
0.0
  0
LINE
  5
2B1
  8
0
  6
BYBLOCK
 62
     0
 10
13.403715999999999
 20
1.957468999999999
 30
0.0
 11
13.673716000000001
 21
1.957468999999999
 31
0.0
  0
SOLID
  5
2B2
  8
0
  6
BYBLOCK
 62
     0
 10
13.358715999999999
 20
1.0274689999999991
 30
0.0
 11
13.448715999999999
 21
1.0274689999999991
 31
0.0
 12
13.403715999999999
 22
1.2974689999999991
 32
0.0
 13
13.403715999999999
 23
1.2974689999999991
 33
0.0
  0
SOLID
  5
2B3
  8
0
  6
BYBLOCK
 62
     0
 10
13.358715999999999
 20
1.687468999999999
 30
0.0
 11
13.448715999999999
 21
1.687468999999999
 31
0.0
 12
13.403715999999999
 22
1.4174690000000001
 32
0.0
 13
13.403715999999999
 23
1.4174690000000001
 33
0.0
  0
TEXT
  5
2B4
  8
0
  6
BYBLOCK
 62
     0
 10
13.808716
 20
1.863718999999999
 30
0.0
 40
0.1875
  1
0.120
 41
0.75
 72
     1
 11
14.043091
 21
1.957468999999999
 31
0.0
 73
     2
  0
POINT
  5
2B5
  8
DEFPOINTS
  6
BYBLOCK
 62
     0
 10
12.801216
 20
1.2974689999999991
 30
0.0
  0
POINT
  5
2B6
  8
DEFPOINTS
  6
BYBLOCK
 62
     0
 10
12.863716
 20
1.4174690000000001
 30
0.0
  0
POINT
  5
2B7
  8
DEFPOINTS
  6
BYBLOCK
 62
     0
 10
13.403715999999999
 20
1.4174690000000001
 30
0.0
  0
ENDBLK
  5
2B8
  8
0
  0
BLOCK
  8
0
  2
*D40
 70
     1
 10
0.0
 20
0.0
 30
0.0
  3
*D40
  1

  0
LINE
  5
2BB
  8
0
  6
BYBLOCK
 62
     0
 10
7.2692160000000001
 20
2.7974689999999991
 30
0.0
 11
6.7242160000000002
 21
2.7974689999999991
 31
0.0
  0
LINE
  5
2BC
  8
0
  6
BYBLOCK
 62
     0
 10
7.4357340000000001
 20
2.737468999999999
 30
0.0
 11
6.7242160000000002
 21
2.737468999999999
 31
0.0
  0
LINE
  5
2BD
  8
0
  6
BYBLOCK
 62
     0
 10
6.8637160000000002
 20
3.067469
 30
0.0
 11
6.8637160000000002
 21
3.337469
 31
0.0
  0
LINE
  5
2BE
  8
0
  6
BYBLOCK
 62
     0
 10
6.8637160000000002
 20
2.467468999999999
 30
0.0
 11
6.8637160000000002
 21
2.197468999999999
 31
0.0
  0
LINE
  5
2BF
  8
0
  6
BYBLOCK
 62
     0
 10
6.8637160000000002
 20
2.197468999999999
 30
0.0
 11
6.5937159999999997
 21
2.197468999999999
 31
0.0
  0
SOLID
  5
2C0
  8
0
  6
BYBLOCK
 62
     0
 10
6.8187160000000002
 20
3.067469
 30
0.0
 11
6.9087160000000001
 21
3.067469
 31
0.0
 12
6.8637160000000002
 22
2.7974689999999991
 32
0.0
 13
6.8637160000000002
 23
2.7974689999999991
 33
0.0
  0
SOLID
  5
2C1
  8
0
  6
BYBLOCK
 62
     0
 10
6.8187160000000002
 20
2.467468999999999
 30
0.0
 11
6.9087160000000001
 21
2.467468999999999
 31
0.0
 12
6.8637160000000002
 22
2.737468999999999
 32
0.0
 13
6.8637160000000002
 23
2.737468999999999
 33
0.0
  0
TEXT
  5
2C2
  8
0
  6
BYBLOCK
 62
     0
 10
5.9665282499999996
 20
2.103718999999999
 30
0.0
 40
0.1875
  1
0.060
 41
0.75
 72
     1
 11
6.2126219999999996
 21
2.197468999999999
 31
0.0
 73
     2
  0
POINT
  5
2C3
  8
DEFPOINTS
  6
BYBLOCK
 62
     0
 10
7.3637160000000002
 20
2.7974689999999991
 30
0.0
  0
POINT
  5
2C4
  8
DEFPOINTS
  6
BYBLOCK
 62
     0
 10
7.5302340000000001
 20
2.737468999999999
 30
0.0
  0
POINT
  5
2C5
  8
DEFPOINTS
  6
BYBLOCK
 62
     0
 10
6.8637160000000002
 20
2.737468999999999
 30
0.0
  0
ENDBLK
  5
2C6
  8
0
  0
BLOCK
  8
0
  2
*D41
 70
     1
 10
0.0
 20
0.0
 30
0.0
  3
*D41
  1

  0
LINE
  5
2C9
  8
0
  6
BYBLOCK
 62
     0
 10
12.821906
 20
13.603147999999999
 30
0.0
 11
13.46940599999999
 21
13.603147999999999
 31
0.0
  0
LINE
  5
2CA
  8
0
  6
BYBLOCK
 62
     0
 10
12.884406
 20
13.723148
 30
0.0
 11
13.46940599999999
 21
13.723148
 31
0.0
  0
LINE
  5
2CB
  8
0
  6
BYBLOCK
 62
     0
 10
13.329905999999999
 20
13.333148
 30
0.0
 11
13.329905999999999
 21
13.063147999999989
 31
0.0
  0
LINE
  5
2CC
  8
0
  6
BYBLOCK
 62
     0
 10
13.329905999999999
 20
13.993148
 30
0.0
 11
13.329905999999999
 21
14.263147999999999
 31
0.0
  0
LINE
  5
2CD
  8
0
  6
BYBLOCK
 62
     0
 10
13.329905999999999
 20
14.263147999999999
 30
0.0
 11
13.59990599999999
 21
14.263147999999999
 31
0.0
  0
SOLID
  5
2CE
  8
0
  6
BYBLOCK
 62
     0
 10
13.284905999999999
 20
13.333148
 30
0.0
 11
13.37490599999999
 21
13.333148
 31
0.0
 12
13.329905999999999
 22
13.603147999999999
 32
0.0
 13
13.329905999999999
 23
13.603147999999999
 33
0.0
  0
SOLID
  5
2CF
  8
0
  6
BYBLOCK
 62
     0
 10
13.284905999999999
 20
13.993148
 30
0.0
 11
13.37490599999999
 21
13.993148
 31
0.0
 12
13.329905999999999
 22
13.723148
 32
0.0
 13
13.329905999999999
 23
13.723148
 33
0.0
  0
TEXT
  5
2D0
  8
0
  6
BYBLOCK
 62
     0
 10
13.734906000000001
 20
14.169397999999999
 30
0.0
 40
0.1875
  1
0.120
 41
0.75
 72
     1
 11
13.969281000000001
 21
14.263147999999999
 31
0.0
 73
     2
  0
POINT
  5
2D1
  8
DEFPOINTS
  6
BYBLOCK
 62
     0
 10
12.727406
 20
13.603147999999999
 30
0.0
  0
POINT
  5
2D2
  8
DEFPOINTS
  6
BYBLOCK
 62
     0
 10
12.789906
 20
13.723148
 30
0.0
  0
POINT
  5
2D3
  8
DEFPOINTS
  6
BYBLOCK
 62
     0
 10
13.329905999999999
 20
13.723148
 30
0.0
  0
ENDBLK
  5
2D4
  8
0
  0
BLOCK
  8
0
  2
*D42
 70
     1
 10
0.0
 20
0.0
 30
0.0
  3
*D42
  1

  0
LINE
  5
2D7
  8
0
  6
BYBLOCK
 62
     0
 10
7.9454060000000002
 20
14.978147999999999
 30
0.0
 11
7.4004059999999994
 21
14.978147999999999
 31
0.0
  0
LINE
  5
2D8
  8
0
  6
BYBLOCK
 62
     0
 10
8.1119240000000001
 20
14.918148
 30
0.0
 11
7.4004059999999994
 21
14.918148
 31
0.0
  0
LINE
  5
2D9
  8
0
  6
BYBLOCK
 62
     0
 10
7.5399059999999993
 20
15.248148
 30
0.0
 11
7.5399059999999993
 21
15.518148
 31
0.0
  0
LINE
  5
2DA
  8
0
  6
BYBLOCK
 62
     0
 10
7.5399059999999993
 20
14.648148000000001
 30
0.0
 11
7.5399059999999993
 21
14.378147999999999
 31
0.0
  0
LINE
  5
2DB
  8
0
  6
BYBLOCK
 62
     0
 10
7.5399059999999993
 20
14.378147999999999
 30
0.0
 11
7.2699059999999989
 21
14.378147999999999
 31
0.0
  0
SOLID
  5
2DC
  8
0
  6
BYBLOCK
 62
     0
 10
7.4949059999999994
 20
15.248148
 30
0.0
 11
7.5849060000000001
 21
15.248148
 31
0.0
 12
7.5399059999999993
 22
14.978147999999999
 32
0.0
 13
7.5399059999999993
 23
14.978147999999999
 33
0.0
  0
SOLID
  5
2DD
  8
0
  6
BYBLOCK
 62
     0
 10
7.4949059999999994
 20
14.648148000000001
 30
0.0
 11
7.5849060000000001
 21
14.648148000000001
 31
0.0
 12
7.5399059999999993
 22
14.918148
 32
0.0
 13
7.5399059999999993
 23
14.918148
 33
0.0
  0
TEXT
  5
2DE
  8
0
  6
BYBLOCK
 62
     0
 10
6.6427182499999988
 20
14.284397999999999
 30
0.0
 40
0.1875
  1
0.060
 41
0.75
 72
     1
 11
6.8888119999999988
 21
14.378147999999999
 31
0.0
 73
     2
  0
POINT
  5
2DF
  8
DEFPOINTS
  6
BYBLOCK
 62
     0
 10
8.0399060000000002
 20
14.978147999999999
 30
0.0
  0
POINT
  5
2E0
  8
DEFPOINTS
  6
BYBLOCK
 62
     0
 10
8.2064240000000002
 20
14.918148
 30
0.0
  0
POINT
  5
2E1
  8
DEFPOINTS
  6
BYBLOCK
 62
     0
 10
7.5399059999999993
 20
14.918148
 30
0.0
  0
ENDBLK
  5
2E2
  8
0
  0
BLOCK
  8
0
  2
*D43
 70
     1
 10
0.0
 20
0.0
 30
0.0
  3
*D43
  1

  0
LINE
  5
2E5
  8
0
  6
BYBLOCK
 62
     0
 10
7.6612159999999996
 20
8.6214700000000004
 30
0.0
 11
8.278671000000001
 21
8.6214700000000004
 31
0.0
  0
LINE
  5
2E6
  8
0
  6
BYBLOCK
 62
     0
 10
7.6612159999999996
 20
5.2652320000000001
 30
0.0
 11
8.278671000000001
 21
5.2652320000000001
 31
0.0
  0
LINE
  5
2E7
  8
0
  6
BYBLOCK
 62
     0
 10
8.139171000000001
 20
8.3514699999999991
 30
0.0
 11
8.139171000000001
 21
7.7130130000000001
 31
0.0
  0
LINE
  5
2E8
  8
0
  6
BYBLOCK
 62
     0
 10
8.139171000000001
 20
5.5352319999999988
 30
0.0
 11
8.139171000000001
 21
7.2555129999999997
 31
0.0
  0
SOLID
  5
2E9
  8
0
  6
BYBLOCK
 62
     0
 10
8.0941710000000011
 20
8.3514699999999991
 30
0.0
 11
8.1841709999999992
 21
8.3514699999999991
 31
0.0
 12
8.139171000000001
 22
8.6214700000000004
 32
0.0
 13
8.139171000000001
 23
8.6214700000000004
 33
0.0
  0
SOLID
  5
2EA
  8
0
  6
BYBLOCK
 62
     0
 10
8.0941710000000011
 20
5.5352319999999988
 30
0.0
 11
8.1841709999999992
 21
5.5352319999999988
 31
0.0
 12
8.139171000000001
 22
5.2652320000000001
 32
0.0
 13
8.139171000000001
 23
5.2652320000000001
 33
0.0
  0
TEXT
  5
2EB
  8
0
  6
BYBLOCK
 62
     0
 10
7.857921000000001
 20
7.3905130000000003
 30
0.0
 40
0.1875
  1
3.356
 41
0.75
 72
     1
 11
8.139171000000001
 21
7.4842630000000003
 31
0.0
 73
     2
  0
POINT
  5
2EC
  8
DEFPOINTS
  6
BYBLOCK
 62
     0
 10
7.5667160000000004
 20
8.6214700000000004
 30
0.0
  0
POINT
  5
2ED
  8
DEFPOINTS
  6
BYBLOCK
 62
     0
 10
7.5667160000000004
 20
5.2652320000000001
 30
0.0
  0
POINT
  5
2EE
  8
DEFPOINTS
  6
BYBLOCK
 62
     0
 10
8.139171000000001
 20
5.2652320000000001
 30
0.0
  0
ENDBLK
  5
2EF
  8
0
  0
BLOCK
  8
0
  2
*D44
 70
     1
 10
0.0
 20
0.0
 30
0.0
  3
*D44
  1

  0
LINE
  5
2F2
  8
0
  6
BYBLOCK
 62
     0
 10
12.291715999999999
 20
6.0186459999999986
 30
0.0
 11
12.291715999999999
 21
5.9736459999999987
 31
0.0
  0
LINE
  5
2F3
  8
0
  6
BYBLOCK
 62
     0
 10
7.4357160000000002
 20
6.0186459999999986
 30
0.0
 11
7.4357160000000002
 21
5.9736459999999987
 31
0.0
  0
LINE
  5
2F4
  8
0
  6
BYBLOCK
 62
     0
 10
12.021716
 20
6.1131459999999986
 30
0.0
 11
9.5008149999999993
 21
6.1131459999999986
 31
0.0
  0
LINE
  5
2F5
  8
0
  6
BYBLOCK
 62
     0
 10
7.7057159999999998
 20
6.1131459999999986
 30
0.0
 11
8.6683149999999998
 21
6.1131459999999986
 31
0.0
  0
SOLID
  5
2F6
  8
0
  6
BYBLOCK
 62
     0
 10
12.021716
 20
6.1581460000000003
 30
0.0
 11
12.021716
 21
6.0681459999999987
 31
0.0
 12
12.291715999999999
 22
6.1131459999999986
 32
0.0
 13
12.291715999999999
 23
6.1131459999999986
 33
0.0
  0
SOLID
  5
2F7
  8
0
  6
BYBLOCK
 62
     0
 10
7.7057159999999998
 20
6.1581460000000003
 30
0.0
 11
7.7057159999999998
 21
6.0681459999999987
 31
0.0
 12
7.4357160000000002
 22
6.1131459999999986
 32
0.0
 13
7.4357160000000002
 23
6.1131459999999986
 33
0.0
  0
TEXT
  5
2F8
  8
0
  6
BYBLOCK
 62
     0
 10
8.8033149999999996
 20
6.0193959999999986
 30
0.0
 40
0.1875
  1
4.856
 41
0.75
 72
     1
 11
9.0845649999999996
 21
6.1131459999999986
 31
0.0
 73
     2
  0
POINT
  5
2F9
  8
DEFPOINTS
  6
BYBLOCK
 62
     0
 10
12.291715999999999
 20
6.1131459999999986
 30
0.0
  0
POINT
  5
2FA
  8
DEFPOINTS
  6
BYBLOCK
 62
     0
 10
7.4357160000000002
 20
6.1131459999999986
 30
0.0
  0
POINT
  5
2FB
  8
DEFPOINTS
  6
BYBLOCK
 62
     0
 10
7.4357160000000002
 20
6.1131459999999986
 30
0.0
  0
ENDBLK
  5
2FC
  8
0
  0
BLOCK
  8
0
  2
*D45
 70
     1
 10
0.0
 20
0.0
 30
0.0
  3
*D45
  1

  0
LINE
  5
3F0
  8
DIM
 62
     0
 10
7.9454060000000002
 20
14.978147999999999
 30
0.0
 11
7.4004059999999994
 21
14.978147999999999
 31
0.0
  0
LINE
  5
3F1
  8
DIM
 62
     0
 10
8.1119240000000001
 20
14.918148
 30
0.0
 11
7.4004059999999994
 21
14.918148
 31
0.0
  0
LINE
  5
3F2
  8
DIM
 62
     0
 10
7.5399059999999993
 20
15.248148
 30
0.0
 11
7.5399059999999993
 21
15.518148
 31
0.0
  0
LINE
  5
3F3
  8
DIM
 62
     0
 10
7.5399059999999993
 20
14.648148000000001
 30
0.0
 11
7.5399059999999993
 21
14.378147999999999
 31
0.0
  0
TEXT
  5
3F4
  8
OBJECT
 62
     0
 10
6.8993122499999959
 20
14.854398
 30
0.0
 40
0.1875
  1
0.060
 41
0.75
  0
SOLID
  5
3F5
  8
DIM
 62
     0
 10
7.4949059999999994
 20
15.248148
 30
0.0
 11
7.5849059999999993
 21
15.248148
 31
0.0
 12
7.5399059999999993
 22
14.978147999999999
 32
0.0
 13
7.5399059999999993
 23
14.978147999999999
 33
0.0
  0
SOLID
  5
3F6
  8
DIM
 62
     0
 10
7.4949059999999994
 20
14.648148000000001
 30
0.0
 11
7.5849059999999993
 21
14.648148000000001
 31
0.0
 12
7.5399059999999993
 22
14.918148
 32
0.0
 13
7.5399059999999993
 23
14.918148
 33
0.0
  0
POINT
  5
3F7
  8
DEFPOINTS
 62
     0
 10
8.0399060000000002
 20
14.978147999999999
 30
0.0
  0
POINT
  5
3F8
  8
DEFPOINTS
 62
     0
 10
8.2064240000000002
 20
14.918148
 30
0.0
  0
POINT
  5
3F9
  8
DEFPOINTS
 62
     0
 10
7.5399059999999993
 20
14.918148
 30
0.0
  0
ENDBLK
  5
3FB
  8
0
  0
BLOCK
  8
0
  2
*D46
 70
     1
 10
0.0
 20
0.0
 30
0.0
  3
*D46
  1

  0
LINE
  5
3FE
  8
DIM
 62
     0
 10
8.0399060000000002
 20
15.082148
 30
0.0
 11
8.0399060000000002
 21
15.657648
 31
0.0
  0
LINE
  5
3FF
  8
DIM
 62
     0
 10
12.289906
 20
15.082148
 30
0.0
 11
12.289906
 21
15.657648
 31
0.0
  0
LINE
  5
400
  8
DIM
 62
     0
 10
8.3099059999999998
 20
15.518148
 30
0.0
 11
9.7603747500000004
 21
15.518148
 31
0.0
  0
LINE
  5
401
  8
DIM
 62
     0
 10
12.019906000000001
 20
15.518148
 30
0.0
 11
10.56943725
 21
15.518148
 31
0.0
  0
SOLID
  5
402
  8
DIM
 62
     0
 10
8.3099059999999998
 20
15.563148
 30
0.0
 11
8.3099059999999998
 21
15.473148
 31
0.0
 12
8.0399060000000002
 22
15.518148
 32
0.0
 13
8.0399060000000002
 23
15.518148
 33
0.0
  0
SOLID
  5
403
  8
DIM
 62
     0
 10
12.019906000000001
 20
15.563148
 30
0.0
 11
12.019906000000001
 21
15.473148
 31
0.0
 12
12.289906
 22
15.518148
 32
0.0
 13
12.289906
 23
15.518148
 33
0.0
  0
TEXT
  5
404
  8
OBJECT
 62
     0
 10
9.8953747500000002
 20
15.424398
 30
0.0
 40
0.1875
  1
4.250
 41
0.75
  0
POINT
  5
405
  8
DEFPOINTS
 62
     0
 10
8.0399060000000002
 20
14.987648
 30
0.0
  0
POINT
  5
406
  8
DEFPOINTS
 62
     0
 10
12.289906
 20
14.987648
 30
0.0
  0
POINT
  5
407
  8
DEFPOINTS
 62
     0
 10
12.289906
 20
15.518148
 30
0.0
  0
ENDBLK
  5
409
  8
0
  0
BLOCK
  8
0
  2
*D47
 70
     1
 10
0.0
 20
0.0
 30
0.0
  3
*D47
  1

  0
LINE
  5
44A
  8
DIM
 62
     0
 10
2.5763560000000001
 20
20.022082000000001
 30
0.0
 11
3.2238560000000001
 21
20.022082000000001
 31
0.0
  0
LINE
  5
44B
  8
DIM
 62
     0
 10
2.5763560000000001
 20
17.022082000000001
 30
0.0
 11
3.2238560000000001
 21
17.022082000000001
 31
0.0
  0
LINE
  5
44C
  8
DIM
 62
     0
 10
3.0843560000000001
 20
19.752082000000001
 30
0.0
 11
3.0843560000000001
 21
18.750831999999999
 31
0.0
  0
LINE
  5
44D
  8
DIM
 62
     0
 10
3.0843560000000001
 20
17.292082000000001
 30
0.0
 11
3.0843560000000001
 21
18.293331999999989
 31
0.0
  0
SOLID
  5
44E
  8
DIM
 62
     0
 10
3.0393560000000002
 20
19.752082000000001
 30
0.0
 11
3.129356
 21
19.752082000000001
 31
0.0
 12
3.0843560000000001
 22
20.022082000000001
 32
0.0
 13
3.0843560000000001
 23
20.022082000000001
 33
0.0
  0
SOLID
  5
44F
  8
DIM
 62
     0
 10
3.0393560000000002
 20
17.292082000000001
 30
0.0
 11
3.129356
 21
17.292082000000001
 31
0.0
 12
3.0843560000000001
 22
17.022082000000001
 32
0.0
 13
3.0843560000000001
 23
17.022082000000001
 33
0.0
  0
TEXT
  5
450
  8
OBJECT
 62
     0
 10
2.838262249999997
 20
18.428332000000001
 30
0.0
 40
0.1875
  1
3.000
 41
0.75
  0
POINT
  5
451
  8
DEFPOINTS
 62
     0
 10
2.4818560000000001
 20
20.022082000000001
 30
0.0
  0
POINT
  5
452
  8
DEFPOINTS
 62
     0
 10
2.4818560000000001
 20
17.022082000000001
 30
0.0
  0
POINT
  5
453
  8
DEFPOINTS
 62
     0
 10
3.0843560000000001
 20
17.022082000000001
 30
0.0
  0
ENDBLK
  5
455
  8
0
  0
BLOCK
  8
0
  2
*D48
 70
     1
 10
0.0
 20
0.0
 30
0.0
  3
*D48
  1

  0
LINE
  5
463
  8
DIM
 62
     0
 10
1.169355999999999
 20
17.024823000000001
 30
0.0
 11
1.169355999999999
 21
16.309934999999999
 31
0.0
  0
LINE
  5
464
  8
DIM
 62
     0
 10
2.4723559999999991
 20
16.927582000000001
 30
0.0
 11
2.4723559999999991
 21
16.309934999999999
 31
0.0
  0
LINE
  5
465
  8
DIM
 62
     0
 10
0.8993559999999998
 20
16.449435000000001
 30
0.0
 11
0.6293559999999998
 21
16.449435000000001
 31
0.0
  0
LINE
  5
466
  8
DIM
 62
     0
 10
2.742356
 20
16.449435000000001
 30
0.0
 11
3.012356
 21
16.449435000000001
 31
0.0
  0
SOLID
  5
467
  8
DIM
 62
     0
 10
0.8993559999999998
 20
16.494434999999999
 30
0.0
 11
0.8993559999999998
 21
16.404434999999989
 31
0.0
 12
1.169355999999999
 22
16.449435000000001
 32
0.0
 13
1.169355999999999
 23
16.449435000000001
 33
0.0
  0
SOLID
  5
468
  8
DIM
 62
     0
 10
2.742356
 20
16.494434999999999
 30
0.0
 11
2.742356
 21
16.404434999999989
 31
0.0
 12
2.4723559999999991
 22
16.449435000000001
 32
0.0
 13
2.4723559999999991
 23
16.449435000000001
 33
0.0
  0
TEXT
  5
469
  8
OBJECT
 62
     0
 10
1.57476225
 20
16.355685000000001
 30
0.0
 40
0.1875
  1
1.303
 41
0.75
  0
POINT
  5
46A
  8
DEFPOINTS
 62
     0
 10
1.169355999999999
 20
17.119323000000001
 30
0.0
  0
POINT
  5
46B
  8
DEFPOINTS
 62
     0
 10
2.4723559999999991
 20
17.022082000000001
 30
0.0
  0
POINT
  5
46C
  8
DEFPOINTS
 62
     0
 10
2.4723559999999991
 20
16.449435000000001
 30
0.0
  0
ENDBLK
  5
46E
  8
0
  0
BLOCK
  8
0
  2
*D49
 70
     1
 10
0.0
 20
0.0
 30
0.0
  3
*D49
  1

  0
LINE
  5
471
  8
DIM
 62
     0
 10
1.0973559999999991
 20
17.019891999999999
 30
0.0
 11
1.0973559999999991
 21
15.888434999999999
 31
0.0
  0
LINE
  5
472
  8
DIM
 62
     0
 10
2.4723559999999991
 20
16.927582000000001
 30
0.0
 11
2.4723559999999991
 21
15.888434999999999
 31
0.0
  0
LINE
  5
473
  8
DIM
 62
     0
 10
0.8273559999999999
 20
16.027934999999989
 30
0.0
 11
0.557356
 21
16.027934999999989
 31
0.0
  0
LINE
  5
474
  8
DIM
 62
     0
 10
2.742356
 20
16.027934999999989
 30
0.0
 11
3.012356
 21
16.027934999999989
 31
0.0
  0
SOLID
  5
475
  8
DIM
 62
     0
 10
0.8273559999999999
 20
16.072935000000001
 30
0.0
 11
0.8273559999999999
 21
15.982934999999999
 31
0.0
 12
1.0973559999999991
 22
16.027934999999989
 32
0.0
 13
1.0973559999999991
 23
16.027934999999989
 33
0.0
  0
SOLID
  5
476
  8
DIM
 62
     0
 10
2.742356
 20
16.072935000000001
 30
0.0
 11
2.742356
 21
15.982934999999999
 31
0.0
 12
2.4723559999999991
 22
16.027934999999989
 32
0.0
 13
2.4723559999999991
 23
16.027934999999989
 33
0.0
  0
TEXT
  5
477
  8
OBJECT
 62
     0
 10
1.5270434999999991
 20
15.934184999999999
 30
0.0
 40
0.1875
  1
1.375
 41
0.75
  0
POINT
  5
478
  8
DEFPOINTS
 62
     0
 10
1.0973559999999991
 20
17.114391999999999
 30
0.0
  0
POINT
  5
479
  8
DEFPOINTS
 62
     0
 10
2.4723559999999991
 20
17.022082000000001
 30
0.0
  0
POINT
  5
47A
  8
DEFPOINTS
 62
     0
 10
2.4723559999999991
 20
16.027934999999989
 30
0.0
  0
ENDBLK
  5
47C
  8
0
  0
BLOCK
  8
0
  2
*D50
 70
     1
 10
0.0
 20
0.0
 30
0.0
  3
*D50
  1

  0
LINE
  5
47F
  8
DIM
 62
     0
 10
1.0653559999999991
 20
20.054728999999998
 30
0.0
 11
0.4178560000000007
 21
20.054728999999998
 31
0.0
  0
LINE
  5
480
  8
DIM
 62
     0
 10
1.0653559999999991
 20
16.989435
 30
0.0
 11
0.417856
 21
16.989435
 31
0.0
  0
LINE
  5
481
  8
DIM
 62
     0
 10
0.5573560000000009
 20
19.784728999999999
 30
0.0
 11
0.5573560000000005
 21
18.750831999999999
 31
0.0
  0
LINE
  5
482
  8
DIM
 62
     0
 10
0.5573560000000003
 20
17.259435
 30
0.0
 11
0.5573560000000004
 21
18.293331999999989
 31
0.0
  0
SOLID
  5
483
  8
DIM
 62
     0
 10
0.5123560000000007
 20
19.784728999999999
 30
0.0
 11
0.6023560000000008
 21
19.784728999999999
 31
0.0
 12
0.5573560000000009
 22
20.054728999999998
 32
0.0
 13
0.5573560000000009
 23
20.054728999999998
 33
0.0
  0
SOLID
  5
484
  8
DIM
 62
     0
 10
0.5123560000000001
 20
17.259435
 30
0.0
 11
0.6023560000000003
 21
17.259435
 31
0.0
 12
0.5573560000000001
 22
16.989435
 32
0.0
 13
0.5573560000000001
 23
16.989435
 33
0.0
  0
TEXT
  5
485
  8
OBJECT
 62
     0
 10
0.2878247499999974
 20
18.428332000000001
 30
0.0
 40
0.1875
  1
3.065
 41
0.75
  0
POINT
  5
486
  8
DEFPOINTS
 62
     0
 10
1.1598559999999991
 20
20.054728999999998
 30
0.0
  0
POINT
  5
487
  8
DEFPOINTS
 62
     0
 10
1.1598559999999991
 20
16.989435
 30
0.0
  0
POINT
  5
488
  8
DEFPOINTS
 62
     0
 10
0.5573560000000001
 20
16.989435
 30
0.0
  0
ENDBLK
  5
48A
  8
0
  0
BLOCK
  8
0
  2
*D51
 70
     1
 10
0.0
 20
0.0
 30
0.0
  3
*D51
  1

  0
LINE
  5
497
  8
DIM
 62
     0
 10
10.164906
 20
20.399270999999992
 30
0.0
 11
10.164906
 21
20.734228999999999
 31
0.0
  0
LINE
  5
498
  8
DIM
 62
     0
 10
8.5859059999999996
 20
19.662582
 30
0.0
 11
8.5859059999999996
 21
20.734228999999999
 31
0.0
  0
LINE
  5
499
  8
DIM
 62
     0
 10
10.434905999999989
 20
20.594729000000001
 30
0.0
 11
10.704905999999999
 21
20.594729000000001
 31
0.0
  0
LINE
  5
49A
  8
DIM
 62
     0
 10
8.315906
 20
20.594729000000001
 30
0.0
 11
8.0459059999999987
 21
20.594729000000001
 31
0.0
  0
SOLID
  5
49B
  8
DIM
 62
     0
 10
10.434905999999989
 20
20.639728999999999
 30
0.0
 11
10.434905999999989
 21
20.549728999999999
 31
0.0
 12
10.164906
 22
20.594729000000001
 32
0.0
 13
10.164906
 23
20.594729000000001
 33
0.0
  0
SOLID
  5
49C
  8
DIM
 62
     0
 10
8.315906
 20
20.639728999999999
 30
0.0
 11
8.315906
 21
20.549728999999999
 31
0.0
 12
8.5859059999999996
 22
20.594729000000001
 32
0.0
 13
8.5859059999999996
 23
20.594729000000001
 33
0.0
  0
TEXT
  5
49D
  8
OBJECT
 62
     0
 10
9.1175934999999981
 20
20.500979000000001
 30
0.0
 40
0.1875
  1
1.579
 41
0.75
  0
POINT
  5
49E
  8
DEFPOINTS
 62
     0
 10
10.164906
 20
20.304770999999999
 30
0.0
  0
POINT
  5
49F
  8
DEFPOINTS
 62
     0
 10
8.5859059999999996
 20
19.568082
 30
0.0
  0
POINT
  5
4A0
  8
DEFPOINTS
 62
     0
 10
8.5859059999999996
 20
20.594729000000001
 30
0.0
  0
ENDBLK
  5
4A2
  8
0
  0
BLOCK
  8
0
  2
*D52
 70
     1
 10
0.0
 20
0.0
 30
0.0
  3
*D52
  1

  0
LINE
  5
4A5
  8
DIM
 62
     0
 10
11.74390599999999
 20
19.662582
 30
0.0
 11
11.74390599999999
 21
21.155729000000001
 31
0.0
  0
LINE
  5
4A6
  8
DIM
 62
     0
 10
8.5859059999999996
 20
19.662582
 30
0.0
 11
8.5859059999999996
 21
21.155729000000001
 31
0.0
  0
LINE
  5
4A7
  8
DIM
 62
     0
 10
11.473905999999999
 20
21.016228999999999
 30
0.0
 11
10.557718499999989
 21
21.016228999999999
 31
0.0
  0
LINE
  5
4A8
  8
DIM
 62
     0
 10
8.8559059999999992
 20
21.016228999999999
 30
0.0
 11
9.7720934999999987
 21
21.016228999999999
 31
0.0
  0
SOLID
  5
4A9
  8
DIM
 62
     0
 10
11.473905999999999
 20
21.061229000000001
 30
0.0
 11
11.473905999999999
 21
20.971229000000001
 31
0.0
 12
11.74390599999999
 22
21.016228999999999
 32
0.0
 13
11.74390599999999
 23
21.016228999999999
 33
0.0
  0
SOLID
  5
4AA
  8
DIM
 62
     0
 10
8.8559059999999992
 20
21.061229000000001
 30
0.0
 11
8.8559059999999992
 21
20.971229000000001
 31
0.0
 12
8.5859059999999996
 22
21.016228999999999
 32
0.0
 13
8.5859059999999996
 23
21.016228999999999
 33
0.0
  0
TEXT
  5
4AB
  8
OBJECT
 62
     0
 10
9.9070934999999984
 20
20.922478999999989
 30
0.0
 40
0.1875
  1
3.158
 41
0.75
  0
POINT
  5
4AC
  8
DEFPOINTS
 62
     0
 10
11.74390599999999
 20
19.568082
 30
0.0
  0
POINT
  5
4AD
  8
DEFPOINTS
 62
     0
 10
8.5859059999999996
 20
19.568082
 30
0.0
  0
POINT
  5
4AE
  8
DEFPOINTS
 62
     0
 10
8.5859059999999996
 20
21.016228999999999
 30
0.0
  0
ENDBLK
  5
4B0
  8
0
  0
BLOCK
  8
0
  2
*D53
 70
     1
 10
0.0
 20
0.0
 30
0.0
  3
*D53
  1

  0
LINE
  5
54F
  8
DIM
 62
     0
 10
12.32277
 20
13.628648
 30
0.0
 11
12.32277
 21
12.923648
 31
0.0
  0
LINE
  5
550
  8
DIM
 62
     0
 10
8.0070429999999995
 20
13.628648
 30
0.0
 11
8.0070429999999995
 21
12.923648
 31
0.0
  0
LINE
  5
551
  8
DIM
 62
     0
 10
12.052770000000001
 20
13.063147999999989
 30
0.0
 11
10.557719000000001
 21
13.063147999999989
 31
0.0
  0
LINE
  5
552
  8
DIM
 62
     0
 10
8.277042999999999
 20
13.063147999999989
 30
0.0
 11
9.7720939999999992
 21
13.063147999999989
 31
0.0
  0
SOLID
  5
553
  8
DIM
 62
     0
 10
12.052770000000001
 20
13.108148
 30
0.0
 11
12.052770000000001
 21
13.018148
 31
0.0
 12
12.32277
 22
13.063147999999989
 32
0.0
 13
12.32277
 23
13.063147999999989
 33
0.0
  0
SOLID
  5
554
  8
DIM
 62
     0
 10
8.277042999999999
 20
13.108148
 30
0.0
 11
8.277042999999999
 21
13.018148
 31
0.0
 12
8.0070429999999995
 22
13.063147999999989
 32
0.0
 13
8.0070429999999995
 23
13.063147999999989
 33
0.0
  0
TEXT
  5
555
  8
OBJECT
 62
     0
 10
9.9070940000000007
 20
12.969398
 30
0.0
 40
0.1875
  1
4.316
 41
0.75
  0
POINT
  5
556
  8
DEFPOINTS
 62
     0
 10
12.32277
 20
13.723148
 30
0.0
  0
POINT
  5
557
  8
DEFPOINTS
 62
     0
 10
8.0070429999999995
 20
13.723148
 30
0.0
  0
POINT
  5
558
  8
DEFPOINTS
 62
     0
 10
8.0070429999999995
 20
13.063147999999989
 30
0.0
  0
ENDBLK
  5
55A
  8
0
  0
BLOCK
  8
0
  2
*D54
 70
     1
 10
0.0
 20
0.0
 30
0.0
  3
*D54
  1

  0
LINE
  5
560
  8
DIM
 62
     0
 10
12.724406
 20
18.522082000000001
 30
0.0
 11
13.46940599999999
 21
18.522082000000001
 31
0.0
  0
LINE
  5
561
  8
DIM
 62
     0
 10
11.928406000000001
 20
17.566082000000002
 30
0.0
 11
13.46940599999999
 21
17.566082000000002
 31
0.0
  0
LINE
  5
562
  8
DIM
 62
     0
 10
13.329905999999999
 20
18.792082000000001
 30
0.0
 11
13.329905999999999
 21
19.062082
 31
0.0
  0
LINE
  5
563
  8
DIM
 62
     0
 10
13.329905999999999
 20
17.296081999999998
 30
0.0
 11
13.329905999999999
 21
17.026081999999999
 31
0.0
  0
SOLID
  5
564
  8
DIM
 62
     0
 10
13.284905999999999
 20
18.792082000000001
 30
0.0
 11
13.37490599999999
 21
18.792082000000001
 31
0.0
 12
13.329905999999999
 22
18.522082000000001
 32
0.0
 13
13.329905999999999
 23
18.522082000000001
 33
0.0
  0
SOLID
  5
565
  8
DIM
 62
     0
 10
13.284905999999999
 20
17.296081999999998
 30
0.0
 11
13.37490599999999
 21
17.296081999999998
 31
0.0
 12
13.329905999999999
 22
17.566082000000002
 32
0.0
 13
13.329905999999999
 23
17.566082000000002
 33
0.0
  0
TEXT
  5
566
  8
OBJECT
 62
     0
 10
13.06037474999999
 20
17.950332
 30
0.0
 40
0.1875
  1
0.956
 41
0.75
  0
POINT
  5
567
  8
DEFPOINTS
 62
     0
 10
12.629906
 20
18.522082000000001
 30
0.0
  0
POINT
  5
568
  8
DEFPOINTS
 62
     0
 10
11.83390599999999
 20
17.566082000000002
 30
0.0
  0
POINT
  5
569
  8
DEFPOINTS
 62
     0
 10
13.329905999999999
 20
17.566082000000002
 30
0.0
  0
ENDBLK
  5
56B
  8
0
  0
BLOCK
  8
0
  2
*D55
 70
     1
 10
0.0
 20
0.0
 30
0.0
  3
*D55
  1

  0
LINE
  5
56E
  8
DIM
 62
     0
 10
11.928406000000001
 20
17.566082000000002
 30
0.0
 11
14.31240599999999
 21
17.566082000000002
 31
0.0
  0
LINE
  5
56F
  8
DIM
 62
     0
 10
11.928406000000001
 20
19.478082000000001
 30
0.0
 11
14.31240599999999
 21
19.478082000000001
 31
0.0
  0
LINE
  5
570
  8
DIM
 62
     0
 10
14.172905999999999
 20
17.836082000000001
 30
0.0
 11
14.172905999999999
 21
18.293331999999989
 31
0.0
  0
LINE
  5
571
  8
DIM
 62
     0
 10
14.172905999999999
 20
19.208082000000001
 30
0.0
 11
14.172905999999999
 21
18.750831999999999
 31
0.0
  0
SOLID
  5
572
  8
DIM
 62
     0
 10
14.127905999999999
 20
17.836082000000001
 30
0.0
 11
14.217905999999999
 21
17.836082000000001
 31
0.0
 12
14.172905999999999
 22
17.566082000000002
 32
0.0
 13
14.172905999999999
 23
17.566082000000002
 33
0.0
  0
SOLID
  5
573
  8
DIM
 62
     0
 10
14.127905999999999
 20
19.208082000000001
 30
0.0
 11
14.217905999999999
 21
19.208082000000001
 31
0.0
 12
14.172905999999999
 22
19.478082000000001
 32
0.0
 13
14.172905999999999
 23
19.478082000000001
 33
0.0
  0
TEXT
  5
574
  8
OBJECT
 62
     0
 10
13.93853099999999
 20
18.428332000000001
 30
0.0
 40
0.1875
  1
1.912
 41
0.75
  0
POINT
  5
575
  8
DEFPOINTS
 62
     0
 10
11.83390599999999
 20
17.566082000000002
 30
0.0
  0
POINT
  5
576
  8
DEFPOINTS
 62
     0
 10
11.83390599999999
 20
19.478082000000001
 30
0.0
  0
POINT
  5
577
  8
DEFPOINTS
 62
     0
 10
14.172905999999999
 20
19.478082000000001
 30
0.0
  0
ENDBLK
  5
579
  8
0
  0
BLOCK
  8
0
  2
*D56
 70
     1
 10
0.0
 20
0.0
 30
0.0
  3
*D56
  1

  0
LINE
  5
57D
  8
DIM
 62
     0
 10
8.7017830000000007
 20
13.675148
 30
0.0
 11
8.6567830000000008
 21
13.675148
 31
0.0
  0
LINE
  5
57E
  8
DIM
 62
     0
 10
8.7729059999999972
 20
13.925148
 30
0.0
 11
8.9357830000000007
 21
13.925148
 31
0.0
  0
LINE
  5
57F
  8
DIM
 62
     0
 10
8.7962830000000007
 20
13.405148000000001
 30
0.0
 11
8.7962830000000007
 21
13.135147999999999
 31
0.0
  0
LINE
  5
580
  8
DIM
 62
     0
 10
8.7962830000000007
 20
14.195148
 30
0.0
 11
8.7962830000000007
 21
14.465147999999999
 31
0.0
  0
TEXT
  5
581
  8
OBJECT
 62
     0
 10
9.1204704999999962
 20
13.706398
 30
0.0
 40
0.1875
  1
0.250
 41
0.75
  0
SOLID
  5
582
  8
DIM
 62
     0
 10
8.7512830000000008
 20
13.405148000000001
 30
0.0
 11
8.8412830000000007
 21
13.405148000000001
 31
0.0
 12
8.7962830000000007
 22
13.675148
 32
0.0
 13
8.7962830000000007
 23
13.675148
 33
0.0
  0
SOLID
  5
583
  8
DIM
 62
     0
 10
8.7512830000000008
 20
14.195148
 30
0.0
 11
8.8412830000000007
 21
14.195148
 31
0.0
 12
8.7962830000000007
 22
13.925148
 32
0.0
 13
8.7962830000000007
 23
13.925148
 33
0.0
  0
POINT
  5
584
  8
DEFPOINTS
 62
     0
 10
8.7962830000000007
 20
13.675148
 30
0.0
  0
POINT
  5
585
  8
DEFPOINTS
 62
     0
 10
8.6784059999999972
 20
13.925148
 30
0.0
  0
POINT
  5
586
  8
DEFPOINTS
 62
     0
 10
8.7962830000000007
 20
13.925148
 30
0.0
  0
ENDBLK
  5
588
  8
0
  0
BLOCK
  8
0
  2
*D57
 70
     1
 10
0.0
 20
0.0
 30
0.0
  3
*D57
  1

  0
LINE
  5
590
  8
DIM
 62
     0
 10
12.821906
 20
13.603147999999999
 30
0.0
 11
13.46940599999999
 21
13.603147999999999
 31
0.0
  0
LINE
  5
591
  8
DIM
 62
     0
 10
12.884406
 20
13.723148
 30
0.0
 11
13.46940599999999
 21
13.723148
 31
0.0
  0
LINE
  5
592
  8
DIM
 62
     0
 10
13.329905999999999
 20
13.333148
 30
0.0
 11
13.329905999999999
 21
13.063148
 31
0.0
  0
LINE
  5
593
  8
DIM
 62
     0
 10
13.329905999999999
 20
13.993148
 30
0.0
 11
13.329905999999999
 21
14.263147999999999
 31
0.0
  0
TEXT
  5
594
  8
OBJECT
 62
     0
 10
13.677530999999989
 20
13.569398
 30
0.0
 40
0.1875
  1
0.120
 41
0.75
  0
SOLID
  5
595
  8
DIM
 62
     0
 10
13.284905999999999
 20
13.333148
 30
0.0
 11
13.37490599999999
 21
13.333148
 31
0.0
 12
13.329905999999999
 22
13.603147999999999
 32
0.0
 13
13.329905999999999
 23
13.603147999999999
 33
0.0
  0
SOLID
  5
596
  8
DIM
 62
     0
 10
13.284905999999999
 20
13.993148
 30
0.0
 11
13.37490599999999
 21
13.993148
 31
0.0
 12
13.329905999999999
 22
13.723148
 32
0.0
 13
13.329905999999999
 23
13.723148
 33
0.0
  0
POINT
  5
597
  8
DEFPOINTS
 62
     0
 10
12.727406
 20
13.603147999999999
 30
0.0
  0
POINT
  5
598
  8
DEFPOINTS
 62
     0
 10
12.789906
 20
13.723148
 30
0.0
  0
POINT
  5
599
  8
DEFPOINTS
 62
     0
 10
13.329905999999999
 20
13.723148
 30
0.0
  0
ENDBLK
  5
59B
  8
0
  0
BLOCK
  8
0
  2
*D58
 70
     1
 10
0.0
 20
0.0
 30
0.0
  3
*D58
  1

  0
LINE
  5
5A3
  8
DIM
 62
     0
 10
12.789906
 20
13.571148000000001
 30
0.0
 11
12.789906
 21
12.502148
 31
0.0
  0
LINE
  5
5A4
  8
DIM
 62
     0
 10
7.5399059999999993
 20
13.571148000000001
 30
0.0
 11
7.5399059999999993
 21
12.502148
 31
0.0
  0
LINE
  5
5A5
  8
DIM
 62
     0
 10
12.519906000000001
 20
12.641648
 30
0.0
 11
10.56943725
 21
12.641648
 31
0.0
  0
LINE
  5
5A6
  8
DIM
 62
     0
 10
7.8099059999999989
 20
12.641648
 30
0.0
 11
9.7603747500000004
 21
12.641648
 31
0.0
  0
SOLID
  5
5A7
  8
DIM
 62
     0
 10
12.519906000000001
 20
12.686648
 30
0.0
 11
12.519906000000001
 21
12.596648
 31
0.0
 12
12.789906
 22
12.641648
 32
0.0
 13
12.789906
 23
12.641648
 33
0.0
  0
SOLID
  5
5A8
  8
DIM
 62
     0
 10
7.8099059999999989
 20
12.686648
 30
0.0
 11
7.8099059999999989
 21
12.596648
 31
0.0
 12
7.5399059999999993
 22
12.641648
 32
0.0
 13
7.5399059999999993
 23
12.641648
 33
0.0
  0
TEXT
  5
5A9
  8
OBJECT
 62
     0
 10
9.8953747500000002
 20
12.547898
 30
0.0
 40
0.1875
  1
5.250
 41
0.75
  0
POINT
  5
5AA
  8
DEFPOINTS
 62
     0
 10
12.789906
 20
13.665647999999999
 30
0.0
  0
POINT
  5
5AB
  8
DEFPOINTS
 62
     0
 10
7.5399059999999993
 20
13.665647999999999
 30
0.0
  0
POINT
  5
5AC
  8
DEFPOINTS
 62
     0
 10
7.5399059999999993
 20
12.641648
 30
0.0
  0
ENDBLK
  5
5AE
  8
0
  0
BLOCK
  8
0
  2
*D59
 70
     1
 10
0.0
 20
0.0
 30
0.0
  3
*D59
  1

  0
LINE
  5
5B1
  8
DIM
 62
     0
 10
8.0070429999999995
 20
13.628648
 30
0.0
 11
8.0070429999999995
 21
12.923648
 31
0.0
  0
LINE
  5
5B2
  8
DIM
 62
     0
 10
7.5399059999999993
 20
13.571148000000001
 30
0.0
 11
7.5399059999999993
 21
12.923648
 31
0.0
  0
LINE
  5
5B3
  8
DIM
 62
     0
 10
8.277042999999999
 20
13.063147999999989
 30
0.0
 11
8.5470429999999986
 21
13.063147999999989
 31
0.0
  0
LINE
  5
5B4
  8
DIM
 62
     0
 10
7.269905999999998
 20
13.063147999999989
 30
0.0
 11
6.9999059999999993
 21
13.063147999999989
 31
0.0
  0
TEXT
  5
5B5
  8
OBJECT
 62
     0
 10
7.5039432499999981
 20
12.387397999999999
 30
0.0
 40
0.1875
  1
0.467
 41
0.75
  0
SOLID
  5
5B6
  8
DIM
 62
     0
 10
8.277042999999999
 20
13.108148
 30
0.0
 11
8.277042999999999
 21
13.018148
 31
0.0
 12
8.0070429999999995
 22
13.063147999999989
 32
0.0
 13
8.0070429999999995
 23
13.063147999999989
 33
0.0
  0
SOLID
  5
5B7
  8
DIM
 62
     0
 10
7.269905999999998
 20
13.108148
 30
0.0
 11
7.269905999999998
 21
13.018148
 31
0.0
 12
7.5399059999999993
 22
13.063147999999989
 32
0.0
 13
7.5399059999999993
 23
13.063147999999989
 33
0.0
  0
POINT
  5
5B8
  8
DEFPOINTS
 62
     0
 10
8.0070429999999995
 20
13.723148
 30
0.0
  0
POINT
  5
5B9
  8
DEFPOINTS
 62
     0
 10
7.5399059999999993
 20
13.665647999999999
 30
0.0
  0
POINT
  5
5BA
  8
DEFPOINTS
 62
     0
 10
7.5399059999999993
 20
13.063147999999989
 30
0.0
  0
ENDBLK
  5
5BC
  8
0
  0
BLOCK
  8
0
  2
*D60
 70
     1
 10
0.0
 20
0.0
 30
0.0
  3
*D60
  1

  0
LINE
  5
5DD
  8
DIM
 62
     0
 10
7.7899059999999993
 20
18.337582000000001
 30
0.0
 11
7.7899059999999993
 21
15.888434999999999
 31
0.0
  0
LINE
  5
5DE
  8
DIM
 62
     0
 10
12.539906
 20
18.337582000000001
 30
0.0
 11
12.539906
 21
15.888434999999999
 31
0.0
  0
LINE
  5
5DF
  8
DIM
 62
     0
 10
8.0599059999999998
 20
16.027934999999989
 30
0.0
 11
9.7603747500000004
 21
16.027934999999989
 31
0.0
  0
LINE
  5
5E0
  8
DIM
 62
     0
 10
12.269906000000001
 20
16.027934999999989
 30
0.0
 11
10.56943725
 21
16.027934999999989
 31
0.0
  0
SOLID
  5
5E1
  8
DIM
 62
     0
 10
8.0599059999999998
 20
16.072935000000001
 30
0.0
 11
8.0599059999999998
 21
15.982934999999999
 31
0.0
 12
7.7899059999999993
 22
16.027934999999989
 32
0.0
 13
7.7899059999999993
 23
16.027934999999989
 33
0.0
  0
SOLID
  5
5E2
  8
DIM
 62
     0
 10
12.269906000000001
 20
16.072935000000001
 30
0.0
 11
12.269906000000001
 21
15.982934999999999
 31
0.0
 12
12.539906
 22
16.027934999999989
 32
0.0
 13
12.539906
 23
16.027934999999989
 33
0.0
  0
TEXT
  5
5E3
  8
OBJECT
 62
     0
 10
9.8953747500000002
 20
15.934184999999999
 30
0.0
 40
0.1875
  1
4.750
 41
0.75
  0
POINT
  5
5E4
  8
DEFPOINTS
 62
     0
 10
7.7899059999999993
 20
18.432082000000001
 30
0.0
  0
POINT
  5
5E5
  8
DEFPOINTS
 62
     0
 10
12.539906
 20
18.432082000000001
 30
0.0
  0
POINT
  5
5E6
  8
DEFPOINTS
 62
     0
 10
12.539906
 20
16.027934999999989
 30
0.0
  0
ENDBLK
  5
5E8
  8
0
  0
BLOCK
  8
0
  2
*D61
 70
     1
 10
0.0
 20
0.0
 30
0.0
  3
*D61
  1

  0
LINE
  5
5EB
  8
DIM
 62
     0
 10
7.7899059999999993
 20
18.337582000000001
 30
0.0
 11
7.7899059999999993
 21
16.309934999999999
 31
0.0
  0
LINE
  5
5EC
  8
DIM
 62
     0
 10
10.164906
 20
16.644891999999999
 30
0.0
 11
10.164906
 21
16.309934999999989
 31
0.0
  0
LINE
  5
5ED
  8
DIM
 62
     0
 10
8.0599059999999998
 20
16.449435000000001
 30
0.0
 11
8.5611560000000004
 21
16.449435000000001
 31
0.0
  0
LINE
  5
5EE
  8
DIM
 62
     0
 10
9.8949060000000006
 20
16.449435000000001
 30
0.0
 11
9.393656
 21
16.449435000000001
 31
0.0
  0
SOLID
  5
5EF
  8
DIM
 62
     0
 10
8.0599059999999998
 20
16.494434999999999
 30
0.0
 11
8.0599059999999998
 21
16.404434999999989
 31
0.0
 12
7.7899059999999993
 22
16.449435000000001
 32
0.0
 13
7.7899059999999993
 23
16.449435000000001
 33
0.0
  0
SOLID
  5
5F0
  8
DIM
 62
     0
 10
9.8949060000000006
 20
16.494434999999999
 30
0.0
 11
9.8949060000000006
 21
16.404434999999989
 31
0.0
 12
10.164906
 22
16.449435000000001
 32
0.0
 13
10.164906
 23
16.449435000000001
 33
0.0
  0
TEXT
  5
5F1
  8
OBJECT
 62
     0
 10
8.6961560000000002
 20
16.355685000000001
 30
0.0
 40
0.1875
  1
2.375
 41
0.75
  0
POINT
  5
5F2
  8
DEFPOINTS
 62
     0
 10
7.7899059999999993
 20
18.432082000000001
 30
0.0
  0
POINT
  5
5F3
  8
DEFPOINTS
 62
     0
 10
10.164906
 20
16.739391999999999
 30
0.0
  0
POINT
  5
5F4
  8
DEFPOINTS
 62
     0
 10
10.164906
 20
16.449435000000001
 30
0.0
  0
ENDBLK
  5
5F6
  8
0
  0
BLOCK
  8
0
  2
*D62
 70
     1
 10
0.0
 20
0.0
 30
0.0
  3
*D62
  1

  0
LINE
  5
6B9
  8
DIM
 62
     0
 10
12.217905999999999
 20
18.219218999999988
 30
0.0
 11
12.217905999999999
 21
18.264219000000001
 31
0.0
  0
LINE
  5
6BA
  8
DIM
 62
     0
 10
8.1119059999999994
 20
18.219218999999988
 30
0.0
 11
8.1119059999999994
 21
18.264219000000001
 31
0.0
  0
LINE
  5
6BB
  8
DIM
 62
     0
 10
11.947905999999991
 20
18.124718999999999
 30
0.0
 11
10.19474074999999
 21
18.124718999999999
 31
0.0
  0
LINE
  5
6BC
  8
DIM
 62
     0
 10
8.3819059999999972
 20
18.124718999999999
 30
0.0
 11
9.4325532499999998
 21
18.124718999999999
 31
0.0
  0
TEXT
  5
6BD
  8
OBJECT
 62
     0
 10
9.5675532499999996
 20
18.030968999999988
 30
0.0
 40
0.1875
  1
4.106
 41
0.75
  0
SOLID
  5
6BE
  8
DIM
 62
     0
 10
11.947905999999991
 20
18.169719000000001
 30
0.0
 11
11.947905999999991
 21
18.07971899999999
 31
0.0
 12
12.217905999999999
 22
18.124718999999999
 32
0.0
 13
12.217905999999999
 23
18.124718999999999
 33
0.0
  0
SOLID
  5
6BF
  8
DIM
 62
     0
 10
8.3819059999999972
 20
18.169719000000001
 30
0.0
 11
8.3819059999999972
 21
18.07971899999999
 31
0.0
 12
8.1119059999999994
 22
18.124718999999999
 32
0.0
 13
8.1119059999999994
 23
18.124718999999999
 33
0.0
  0
POINT
  5
6C0
  8
DEFPOINTS
 62
     0
 10
12.217905999999999
 20
18.124718999999999
 30
0.0
  0
POINT
  5
6C1
  8
DEFPOINTS
 62
     0
 10
8.1119059999999994
 20
18.124718999999999
 30
0.0
  0
POINT
  5
6C2
  8
DEFPOINTS
 62
     0
 10
8.1119059999999994
 20
18.124718999999999
 30
0.0
  0
ENDBLK
  5
6C4
  8
0
  0
BLOCK
  8
0
  2
*D63
 70
     1
 10
0.0
 20
0.0
 30
0.0
  3
*D63
  1

  0
LINE
  5
6C7
  8
DIM
 62
     0
 10
8.3374059999999997
 20
19.950200999999989
 30
0.0
 11
9.1593640000000001
 21
19.950200999999989
 31
0.0
  0
LINE
  5
6C8
  8
DIM
 62
     0
 10
8.3374059999999997
 20
17.093962999999999
 30
0.0
 11
9.1593640000000001
 21
17.093962999999999
 31
0.0
  0
LINE
  5
6C9
  8
DIM
 62
     0
 10
9.0198640000000001
 20
19.680201
 30
0.0
 11
9.0198640000000001
 21
19.19247399999999
 31
0.0
  0
LINE
  5
6CA
  8
DIM
 62
     0
 10
9.0198640000000001
 20
17.363962999999998
 30
0.0
 11
9.0198640000000001
 21
18.73497399999999
 31
0.0
  0
TEXT
  5
6CB
  8
OBJECT
 62
     0
 10
8.7386140000000001
 20
18.869973999999999
 30
0.0
 40
0.1875
  1
2.856
 41
0.75
  0
SOLID
  5
6CC
  8
DIM
 62
     0
 10
8.9748640000000002
 20
19.680201
 30
0.0
 11
9.064864
 21
19.680201
 31
0.0
 12
9.0198640000000001
 22
19.950200999999989
 32
0.0
 13
9.0198640000000001
 23
19.950200999999989
 33
0.0
  0
SOLID
  5
6CD
  8
DIM
 62
     0
 10
8.9748640000000002
 20
17.363962999999998
 30
0.0
 11
9.064864
 21
17.363962999999998
 31
0.0
 12
9.0198640000000001
 22
17.093962999999999
 32
0.0
 13
9.0198640000000001
 23
17.093962999999999
 33
0.0
  0
POINT
  5
6CE
  8
DEFPOINTS
 62
     0
 10
8.2429059999999996
 20
19.950200999999989
 30
0.0
  0
POINT
  5
6CF
  8
DEFPOINTS
 62
     0
 10
8.2429059999999996
 20
17.093962999999999
 30
0.0
  0
POINT
  5
6D0
  8
DEFPOINTS
 62
     0
 10
9.0198640000000001
 20
17.093962999999999
 30
0.0
  0
ENDBLK
  5
6D2
  8
0
  0
BLOCK
  8
0
  2
*D64
 70
     1
 10
0.0
 20
0.0
 30
0.0
  3
*D64
  1

  0
LINE
  5
C0B
  8
DIM
 62
     0
 10
12.322552999999999
 20
14.02669
 30
0.0
 11
12.322552999999999
 21
15.405045354613071
 31
0.0
  0
LINE
  5
C0C
  8
DIM
 62
     0
 10
12.287432228104599
 20
15.07261561589354
 30
0.0
 11
12.27874209064403
 21
15.40447182673231
 31
0.0
  0
ARC
  5
C0D
  8
DIM
 62
     0
 10
12.322552999999999
 20
13.73143472711787
 30
0.0
 40
1.534110627495197
 50
100.0969877978435
 51
81.403042697783974
  0
SOLID
  5
C0E
  8
DIM
 62
     0
 10
12.049640495766679
 20
15.2866110858632
 30
0.0
 11
12.057560393968441
 21
15.196960234152391
 31
0.0
 12
12.322552999999999
 22
15.265545354613071
 32
0.0
 13
12.322552999999999
 23
15.265545354613071
 33
0.0
  0
SOLID
  5
C0F
  8
DIM
 62
     0
 10
12.54909103079286
 20
15.203394853488369
 30
0.0
 11
12.554661381521729
 21
15.29322230582204
 31
0.0
 12
12.282393849156289
 22
15.26501963184184
 32
0.0
 13
12.282393849156289
 23
15.26501963184184
 33
0.0
  0
TEXT
  8
0
  40
0.1875
  5
D18
  62
0
  72
0
  71
0
 10
12.9933
 20
14.8407
 30
0.000000
  1
2%%d REF.
  0
POINT
  5
C11
  8
DEFPOINTS
 62
     0
 10
12.29577853353943
 20
15.26531169263351
 30
0.0
  0
POINT
  5
C12
  8
DEFPOINTS
 62
     0
 10
12.289906
 20
14.978147999999999
 30
0.0
  0
POINT
  5
C13
  8
DEFPOINTS
 62
     0
 10
12.322552999999999
 20
13.73142
 30
0.0
  0
POINT
  5
C14
  8
DEFPOINTS
 62
     0
 10
12.322552999999999
 20
13.93219
 30
0.0
  0
POINT
  5
C15
  8
DEFPOINTS
 62
     0
 10
12.32277
 20
13.723148
 30
0.0
  0
ENDBLK
  5
756
  8
0
  0
BLOCK
  8
0
  2
*D65
 70
     1
 10
0.0
 20
0.0
 30
0.0
  3
*D65
  1

  0
LINE
  5
790
  8
DIM
 62
     0
 10
7.2692160000000001
 20
2.8918430000000002
 30
0.0
 11
6.7242160000000002
 21
2.8918430000000002
 31
0.0
  0
LINE
  5
791
  8
DIM
 62
     0
 10
7.4357340000000001
 20
2.8318430000000001
 30
0.0
 11
6.7242160000000002
 21
2.8318430000000001
 31
0.0
  0
LINE
  5
792
  8
DIM
 62
     0
 10
6.8637160000000002
 20
3.1618430000000002
 30
0.0
 11
6.8637160000000002
 21
3.4318430000000002
 31
0.0
  0
LINE
  5
793
  8
DIM
 62
     0
 10
6.8637160000000002
 20
2.5618430000000001
 30
0.0
 11
6.8637160000000002
 21
2.2918430000000001
 31
0.0
  0
TEXT
  5
794
  8
OBJECT
 62
     0
 10
6.2231222499999994
 20
2.7680930000000008
 30
0.0
 40
0.1875
  1
0.060
 41
0.75
  0
SOLID
  5
795
  8
DIM
 62
     0
 10
6.8187160000000002
 20
3.1618430000000002
 30
0.0
 11
6.9087160000000001
 21
3.1618430000000002
 31
0.0
 12
6.8637160000000002
 22
2.8918430000000002
 32
0.0
 13
6.8637160000000002
 23
2.8918430000000002
 33
0.0
  0
SOLID
  5
796
  8
DIM
 62
     0
 10
6.8187160000000002
 20
2.5618430000000001
 30
0.0
 11
6.9087160000000001
 21
2.5618430000000001
 31
0.0
 12
6.8637160000000002
 22
2.8318430000000001
 32
0.0
 13
6.8637160000000002
 23
2.8318430000000001
 33
0.0
  0
POINT
  5
797
  8
DEFPOINTS
 62
     0
 10
7.3637160000000002
 20
2.8918430000000002
 30
0.0
  0
POINT
  5
798
  8
DEFPOINTS
 62
     0
 10
7.5302340000000001
 20
2.8318430000000001
 30
0.0
  0
POINT
  5
799
  8
DEFPOINTS
 62
     0
 10
6.8637160000000002
 20
2.8318430000000001
 30
0.0
  0
ENDBLK
  5
79B
  8
0
  0
BLOCK
  8
0
  2
*D66
 70
     1
 10
0.0
 20
0.0
 30
0.0
  3
*D66
  1

  0
LINE
  5
79E
  8
DIM
 62
     0
 10
7.3637160000000002
 20
2.9863430000000002
 30
0.0
 11
7.3637160000000002
 21
3.5713430000000002
 31
0.0
  0
LINE
  5
79F
  8
DIM
 62
     0
 10
12.363716
 20
2.9863430000000002
 30
0.0
 11
12.363716
 21
3.5713430000000002
 31
0.0
  0
LINE
  5
7A0
  8
DIM
 62
     0
 10
7.6337159999999988
 20
3.4318430000000002
 30
0.0
 11
9.4826222500000004
 21
3.4318430000000002
 31
0.0
  0
LINE
  5
7A1
  8
DIM
 62
     0
 10
12.093716000000001
 20
3.4318430000000002
 30
0.0
 11
10.24480975
 21
3.4318430000000002
 31
0.0
  0
SOLID
  5
7A2
  8
DIM
 62
     0
 10
7.6337159999999988
 20
3.4768430000000001
 30
0.0
 11
7.6337159999999988
 21
3.3868429999999998
 31
0.0
 12
7.3637160000000002
 22
3.4318430000000002
 32
0.0
 13
7.3637160000000002
 23
3.4318430000000002
 33
0.0
  0
SOLID
  5
7A3
  8
DIM
 62
     0
 10
12.093716000000001
 20
3.4768430000000001
 30
0.0
 11
12.093716000000001
 21
3.3868429999999998
 31
0.0
 12
12.363716
 22
3.4318430000000002
 32
0.0
 13
12.363716
 23
3.4318430000000002
 33
0.0
  0
TEXT
  5
7A4
  8
OBJECT
 62
     0
 10
9.6176222500000002
 20
3.3380930000000002
 30
0.0
 40
0.1875
  1
5.000
 41
0.75
  0
POINT
  5
7A5
  8
DEFPOINTS
 62
     0
 10
7.3637160000000002
 20
2.8918430000000002
 30
0.0
  0
POINT
  5
7A6
  8
DEFPOINTS
 62
     0
 10
12.363716
 20
2.8918430000000002
 30
0.0
  0
POINT
  5
7A7
  8
DEFPOINTS
 62
     0
 10
12.363716
 20
3.4318430000000002
 30
0.0
  0
ENDBLK
  5
7A9
  8
0
  0
BLOCK
  8
0
  2
*D67
 70
     1
 10
0.0
 20
0.0
 30
0.0
  3
*D67
  1

  0
LINE
  5
7B7
  8
DIM
 62
     0
 10
10.176709999999989
 20
8.6213509999999989
 30
0.0
 11
10.03546
 21
8.6213509999999989
 31
0.0
  0
LINE
  5
7B8
  8
DIM
 62
     0
 10
10.176709999999989
 20
8.6934699999999996
 30
0.0
 11
10.03546
 21
8.6934699999999996
 31
0.0
  0
LINE
  5
7B9
  8
DIM
 62
     0
 10
10.17496
 20
8.3513509999999993
 30
0.0
 11
10.17496
 21
8.0813509999999997
 31
0.0
  0
LINE
  5
7BA
  8
DIM
 62
     0
 10
10.17496
 20
8.9634699999999992
 30
0.0
 11
10.17496
 21
9.2334699999999987
 31
0.0
  0
TEXT
  5
7BB
  8
OBJECT
 62
     0
 10
9.2179599999999962
 20
8.563660500000001
 30
0.0
 40
0.1875
  1
0.072 TYP.
 41
0.75
  0
SOLID
  5
7BC
  8
DIM
 62
     0
 10
10.129960000000001
 20
8.3513509999999993
 30
0.0
 11
10.21996
 21
8.3513509999999993
 31
0.0
 12
10.17496
 22
8.6213509999999989
 32
0.0
 13
10.17496
 23
8.6213509999999989
 33
0.0
  0
SOLID
  5
7BD
  8
DIM
 62
     0
 10
10.129960000000001
 20
8.9634699999999992
 30
0.0
 11
10.21996
 21
8.9634699999999992
 31
0.0
 12
10.17496
 22
8.6934699999999996
 32
0.0
 13
10.17496
 23
8.6934699999999996
 33
0.0
  0
POINT
  5
7BE
  8
DEFPOINTS
 62
     0
 10
10.271209999999989
 20
8.6213509999999989
 30
0.0
  0
POINT
  5
7BF
  8
DEFPOINTS
 62
     0
 10
10.271209999999989
 20
8.6934699999999996
 30
0.0
  0
POINT
  5
7C0
  8
DEFPOINTS
 62
     0
 10
10.17496
 20
8.6934699999999996
 30
0.0
  0
ENDBLK
  5
7C2
  8
0
  0
BLOCK
  8
0
  2
*D68
 70
     1
 10
0.0
 20
0.0
 30
0.0
  3
*D68
  1

  0
LINE
  5
813
  8
DIM
 62
     0
 10
2.755949999999999
 20
8.6933509999999998
 30
0.0
 11
3.4034499999999999
 21
8.6933509999999998
 31
0.0
  0
LINE
  5
814
  8
DIM
 62
     0
 10
2.755949999999999
 20
5.1933509999999989
 30
0.0
 11
3.403449999999999
 21
5.1933509999999989
 31
0.0
  0
LINE
  5
815
  8
DIM
 62
     0
 10
3.2639499999999999
 20
8.4233510000000003
 30
0.0
 11
3.2639499999999999
 21
7.1721009999999987
 31
0.0
  0
LINE
  5
816
  8
DIM
 62
     0
 10
3.263949999999999
 20
5.4633510000000003
 30
0.0
 11
3.263949999999999
 21
6.714601
 31
0.0
  0
SOLID
  5
817
  8
DIM
 62
     0
 10
3.21895
 20
8.4233510000000003
 30
0.0
 11
3.3089499999999998
 21
8.4233510000000003
 31
0.0
 12
3.2639499999999999
 22
8.6933509999999998
 32
0.0
 13
3.2639499999999999
 23
8.6933509999999998
 33
0.0
  0
SOLID
  5
818
  8
DIM
 62
     0
 10
3.2189499999999991
 20
5.4633510000000003
 30
0.0
 11
3.3089499999999989
 21
5.4633510000000003
 31
0.0
 12
3.263949999999999
 22
5.1933509999999989
 32
0.0
 13
3.263949999999999
 23
5.1933509999999989
 33
0.0
  0
TEXT
  5
819
  8
OBJECT
 62
     0
 10
3.006137499999999
 20
6.8496009999999998
 30
0.0
 40
0.1875
  1
3.500
 41
0.75
  0
POINT
  5
81A
  8
DEFPOINTS
 62
     0
 10
2.661449999999999
 20
8.6933509999999998
 30
0.0
  0
POINT
  5
81B
  8
DEFPOINTS
 62
     0
 10
2.661449999999999
 20
5.1933509999999989
 30
0.0
  0
POINT
  5
81C
  8
DEFPOINTS
 62
     0
 10
3.263949999999999
 20
5.1933509999999989
 30
0.0
  0
ENDBLK
  5
81E
  8
0
  0
BLOCK
  8
0
  2
*D69
 70
     1
 10
0.0
 20
0.0
 30
0.0
  3
*D69
  1

  0
LINE
  5
82C
  8
DIM
 62
     0
 10
1.2239500000000001
 20
5.1960920000000002
 30
0.0
 11
1.2239500000000001
 21
4.4777139999999989
 31
0.0
  0
LINE
  5
82D
  8
DIM
 62
     0
 10
2.6519499999999989
 20
5.0988509999999989
 30
0.0
 11
2.6519499999999989
 21
4.4777139999999989
 31
0.0
  0
LINE
  5
82E
  8
DIM
 62
     0
 10
0.95395
 20
4.6172139999999988
 30
0.0
 11
0.6839500000000001
 21
4.6172139999999988
 31
0.0
  0
LINE
  5
82F
  8
DIM
 62
     0
 10
2.9219499999999989
 20
4.6172139999999988
 30
0.0
 11
3.191949999999999
 21
4.6172139999999988
 31
0.0
  0
SOLID
  5
830
  8
DIM
 62
     0
 10
0.95395
 20
4.6622139999999987
 30
0.0
 11
0.95395
 21
4.5722139999999989
 31
0.0
 12
1.2239500000000001
 22
4.6172139999999988
 32
0.0
 13
1.2239500000000001
 23
4.6172139999999988
 33
0.0
  0
SOLID
  5
831
  8
DIM
 62
     0
 10
2.9219499999999989
 20
4.6622139999999987
 30
0.0
 11
2.9219499999999989
 21
4.5722139999999989
 31
0.0
 12
2.6519499999999989
 22
4.6172139999999988
 32
0.0
 13
2.6519499999999989
 23
4.6172139999999988
 33
0.0
  0
TEXT
  5
832
  8
OBJECT
 62
     0
 10
1.680137499999999
 20
4.5234639999999988
 30
0.0
 40
0.1875
  1
1.428
 41
0.75
  0
POINT
  5
833
  8
DEFPOINTS
 62
     0
 10
1.2239500000000001
 20
5.2905920000000002
 30
0.0
  0
POINT
  5
834
  8
DEFPOINTS
 62
     0
 10
2.6519499999999989
 20
5.1933509999999989
 30
0.0
  0
POINT
  5
835
  8
DEFPOINTS
 62
     0
 10
2.6519499999999989
 20
4.6172139999999988
 30
0.0
  0
ENDBLK
  5
837
  8
0
  0
BLOCK
  8
0
  2
*D70
 70
     1
 10
0.0
 20
0.0
 30
0.0
  3
*D70
  1

  0
LINE
  5
83A
  8
DIM
 62
     0
 10
1.15195
 20
5.1252139999999988
 30
0.0
 11
1.15195
 21
4.0562139999999989
 31
0.0
  0
LINE
  5
83B
  8
DIM
 62
     0
 10
2.6519499999999989
 20
5.0988509999999989
 30
0.0
 11
2.6519499999999989
 21
4.0562139999999989
 31
0.0
  0
LINE
  5
83C
  8
DIM
 62
     0
 10
0.8819499999999999
 20
4.1957139999999988
 30
0.0
 11
0.6119500000000001
 21
4.1957139999999988
 31
0.0
  0
LINE
  5
83D
  8
DIM
 62
     0
 10
2.9219499999999989
 20
4.1957139999999988
 30
0.0
 11
3.191949999999999
 21
4.1957139999999988
 31
0.0
  0
SOLID
  5
83E
  8
DIM
 62
     0
 10
0.8819499999999999
 20
4.2407139999999988
 30
0.0
 11
0.8819499999999999
 21
4.1507139999999989
 31
0.0
 12
1.15195
 22
4.1957139999999988
 32
0.0
 13
1.15195
 23
4.1957139999999988
 33
0.0
  0
SOLID
  5
83F
  8
DIM
 62
     0
 10
2.9219499999999989
 20
4.2407139999999988
 30
0.0
 11
2.9219499999999989
 21
4.1507139999999989
 31
0.0
 12
2.6519499999999989
 22
4.1957139999999988
 32
0.0
 13
2.6519499999999989
 23
4.1957139999999988
 33
0.0
  0
TEXT
  5
840
  8
OBJECT
 62
     0
 10
1.6675749999999989
 20
4.1019639999999988
 30
0.0
 40
0.1875
  1
1.500
 41
0.75
  0
POINT
  5
841
  8
DEFPOINTS
 62
     0
 10
1.15195
 20
5.2197139999999989
 30
0.0
  0
POINT
  5
842
  8
DEFPOINTS
 62
     0
 10
2.6519499999999989
 20
5.1933509999999989
 30
0.0
  0
POINT
  5
843
  8
DEFPOINTS
 62
     0
 10
2.6519499999999989
 20
4.1957139999999988
 30
0.0
  0
ENDBLK
  5
845
  8
0
  0
BLOCK
  8
0
  2
*D71
 70
     1
 10
0.0
 20
0.0
 30
0.0
  3
*D71
  1

  0
LINE
  5
849
  8
DIM
 62
     0
 10
12.399853
 20
1.4173429999999989
 30
0.0
 11
12.399853
 21
0.712343
 31
0.0
  0
LINE
  5
84A
  8
DIM
 62
     0
 10
7.3275800000000002
 20
1.4173429999999989
 30
0.0
 11
7.3275800000000002
 21
0.712343
 31
0.0
  0
LINE
  5
84B
  8
DIM
 62
     0
 10
12.129853000000001
 20
0.851843
 30
0.0
 11
10.26824775
 21
0.851843
 31
0.0
  0
LINE
  5
84C
  8
DIM
 62
     0
 10
7.5975799999999998
 20
0.851843
 30
0.0
 11
9.4591852500000009
 21
0.851843
 31
0.0
  0
SOLID
  5
84D
  8
DIM
 62
     0
 10
12.129853000000001
 20
0.8968430000000001
 30
0.0
 11
12.129853000000001
 21
0.8068429999999999
 31
0.0
 12
12.399853
 22
0.851843
 32
0.0
 13
12.399853
 23
0.851843
 33
0.0
  0
SOLID
  5
84E
  8
DIM
 62
     0
 10
7.5975799999999998
 20
0.8968430000000001
 30
0.0
 11
7.5975799999999998
 21
0.8068429999999999
 31
0.0
 12
7.3275800000000002
 22
0.851843
 32
0.0
 13
7.3275800000000002
 23
0.851843
 33
0.0
  0
TEXT
  5
84F
  8
OBJECT
 62
     0
 10
9.5941852500000007
 20
0.7580930000000001
 30
0.0
 40
0.1875
  1
5.072
 41
0.75
  0
POINT
  5
850
  8
DEFPOINTS
 62
     0
 10
12.399853
 20
1.511843
 30
0.0
  0
POINT
  5
851
  8
DEFPOINTS
 62
     0
 10
7.3275800000000002
 20
1.511843
 30
0.0
  0
POINT
  5
852
  8
DEFPOINTS
 62
     0
 10
7.3275800000000002
 20
0.851843
 30
0.0
  0
ENDBLK
  5
854
  8
0
  0
BLOCK
  8
0
  2
*D72
 70
     1
 10
0.0
 20
0.0
 30
0.0
  3
*D72
  1

  0
LINE
  5
85A
  8
DIM
 62
     0
 10
1.11995
 20
8.7294869999999989
 30
0.0
 11
0.4724500000000009
 21
8.7294869999999989
 31
0.0
  0
LINE
  5
85B
  8
DIM
 62
     0
 10
1.11995
 20
5.1572139999999989
 30
0.0
 11
0.4724500000000001
 21
5.1572139999999989
 31
0.0
  0
LINE
  5
85C
  8
DIM
 62
     0
 10
0.6119500000000008
 20
8.4594869999999993
 30
0.0
 11
0.6119500000000004
 21
7.1721004999999991
 31
0.0
  0
LINE
  5
85D
  8
DIM
 62
     0
 10
0.6119500000000002
 20
5.4272139999999993
 30
0.0
 11
0.6119500000000003
 21
6.7146004999999986
 31
0.0
  0
SOLID
  5
85E
  8
DIM
 62
     0
 10
0.5669500000000008
 20
8.4594869999999993
 30
0.0
 11
0.6569500000000009
 21
8.4594869999999993
 31
0.0
 12
0.6119500000000008
 22
8.7294869999999989
 32
0.0
 13
0.6119500000000008
 23
8.7294869999999989
 33
0.0
  0
SOLID
  5
85F
  8
DIM
 62
     0
 10
0.5669500000000001
 20
5.4272139999999993
 30
0.0
 11
0.6569500000000001
 21
5.4272139999999993
 31
0.0
 12
0.6119500000000001
 22
5.1572139999999989
 32
0.0
 13
0.6119500000000001
 23
5.1572139999999989
 33
0.0
  0
TEXT
  5
860
  8
OBJECT
 62
     0
 10
0.3306999999999993
 20
6.8496004999999993
 30
0.0
 40
0.1875
  1
3.572
 41
0.75
  0
POINT
  5
861
  8
DEFPOINTS
 62
     0
 10
1.21445
 20
8.7294869999999989
 30
0.0
  0
POINT
  5
862
  8
DEFPOINTS
 62
     0
 10
1.21445
 20
5.1572139999999989
 30
0.0
  0
POINT
  5
863
  8
DEFPOINTS
 62
     0
 10
0.6119500000000001
 20
5.1572139999999989
 30
0.0
  0
ENDBLK
  5
865
  8
0
  0
BLOCK
  8
0
  2
*D73
 70
     1
 10
0.0
 20
0.0
 30
0.0
  3
*D73
  1

  0
LINE
  5
868
  8
DIM
 62
     0
 10
12.798216
 20
6.9433509999999989
 30
0.0
 11
13.543215999999999
 21
6.9433509999999989
 31
0.0
  0
LINE
  5
869
  8
DIM
 62
     0
 10
12.004216
 20
5.7373510000000003
 30
0.0
 11
13.543215999999999
 21
5.7373510000000003
 31
0.0
  0
LINE
  5
86A
  8
DIM
 62
     0
 10
13.403715999999999
 20
7.2133510000000003
 30
0.0
 11
13.403715999999999
 21
7.483350999999999
 31
0.0
  0
LINE
  5
86B
  8
DIM
 62
     0
 10
13.403715999999999
 20
5.467350999999999
 30
0.0
 11
13.403715999999999
 21
5.1973510000000003
 31
0.0
  0
SOLID
  5
86C
  8
DIM
 62
     0
 10
13.358715999999999
 20
7.2133510000000003
 30
0.0
 11
13.448715999999999
 21
7.2133510000000003
 31
0.0
 12
13.403715999999999
 22
6.9433509999999989
 32
0.0
 13
13.403715999999999
 23
6.9433509999999989
 33
0.0
  0
SOLID
  5
86D
  8
DIM
 62
     0
 10
13.358715999999999
 20
5.467350999999999
 30
0.0
 11
13.448715999999999
 21
5.467350999999999
 31
0.0
 12
13.403715999999999
 22
5.7373510000000003
 32
0.0
 13
13.403715999999999
 23
5.7373510000000003
 33
0.0
  0
TEXT
  5
86E
  8
OBJECT
 62
     0
 10
13.157622249999999
 20
6.246601000000001
 30
0.0
 40
0.1875
  1
1.206
 41
0.75
  0
POINT
  5
86F
  8
DEFPOINTS
 62
     0
 10
12.703716
 20
6.9433509999999989
 30
0.0
  0
POINT
  5
870
  8
DEFPOINTS
 62
     0
 10
11.909715999999991
 20
5.7373510000000003
 30
0.0
  0
POINT
  5
871
  8
DEFPOINTS
 62
     0
 10
13.403715999999999
 20
5.7373510000000003
 30
0.0
  0
ENDBLK
  5
873
  8
0
  0
BLOCK
  8
0
  2
*D74
 70
     1
 10
0.0
 20
0.0
 30
0.0
  3
*D74
  1

  0
LINE
  5
876
  8
DIM
 62
     0
 10
12.004216
 20
5.7373510000000003
 30
0.0
 11
14.386215999999999
 21
5.7373509999999994
 31
0.0
  0
LINE
  5
877
  8
DIM
 62
     0
 10
12.004216
 20
8.1493509999999976
 30
0.0
 11
14.386215999999999
 21
8.1493509999999976
 31
0.0
  0
LINE
  5
878
  8
DIM
 62
     0
 10
14.246715999999999
 20
6.007350999999999
 30
0.0
 11
14.246715999999999
 21
6.7146009999999992
 31
0.0
  0
LINE
  5
879
  8
DIM
 62
     0
 10
14.246715999999999
 20
7.8793509999999971
 30
0.0
 11
14.246715999999999
 21
7.1721009999999978
 31
0.0
  0
SOLID
  5
87A
  8
DIM
 62
     0
 10
14.201715999999999
 20
6.007350999999999
 30
0.0
 11
14.291715999999999
 21
6.007350999999999
 31
0.0
 12
14.246715999999999
 22
5.7373509999999994
 32
0.0
 13
14.246715999999999
 23
5.7373509999999994
 33
0.0
  0
SOLID
  5
87B
  8
DIM
 62
     0
 10
14.201715999999999
 20
7.8793509999999971
 30
0.0
 11
14.291715999999999
 21
7.8793509999999971
 31
0.0
 12
14.246715999999999
 22
8.1493509999999976
 32
0.0
 13
14.246715999999999
 23
8.1493509999999976
 33
0.0
  0
TEXT
  5
87C
  8
OBJECT
 62
     0
 10
13.988903499999999
 20
6.8496010000000007
 30
0.0
 40
0.1875
  1
2.412
 41
0.75
  0
POINT
  5
87D
  8
DEFPOINTS
 62
     0
 10
11.909715999999991
 20
5.7373510000000003
 30
0.0
  0
POINT
  5
87E
  8
DEFPOINTS
 62
     0
 10
11.909715999999991
 20
8.1493509999999993
 30
0.0
  0
POINT
  5
87F
  8
DEFPOINTS
 62
     0
 10
14.246715999999999
 20
8.1493509999999976
 30
0.0
  0
ENDBLK
  5
881
  8
0
  0
BLOCK
  8
0
  2
*D75
 70
     1
 10
0.0
 20
0.0
 30
0.0
  3
*D75
  1

  0
LINE
  5
884
  8
DIM
 62
     0
 10
9.8637160000000002
 20
9.0739699999999992
 30
0.0
 11
9.8637160000000002
 21
9.4089869999999998
 31
0.0
  0
LINE
  5
885
  8
DIM
 62
     0
 10
7.9077159999999997
 20
8.3338509999999992
 30
0.0
 11
7.9077159999999997
 21
9.4089869999999998
 31
0.0
  0
LINE
  5
886
  8
DIM
 62
     0
 10
9.5937160000000006
 20
9.2694869999999998
 30
0.0
 11
9.2785285000000002
 21
9.2694869999999998
 31
0.0
  0
LINE
  5
887
  8
DIM
 62
     0
 10
8.1777160000000002
 20
9.2694869999999998
 30
0.0
 11
8.4929035000000006
 21
9.2694869999999998
 31
0.0
  0
SOLID
  5
888
  8
DIM
 62
     0
 10
9.5937160000000006
 20
9.3144869999999997
 30
0.0
 11
9.5937160000000006
 21
9.2244869999999999
 31
0.0
 12
9.8637160000000002
 22
9.2694869999999998
 32
0.0
 13
9.8637160000000002
 23
9.2694869999999998
 33
0.0
  0
SOLID
  5
889
  8
DIM
 62
     0
 10
8.1777160000000002
 20
9.3144869999999997
 30
0.0
 11
8.1777160000000002
 21
9.2244869999999999
 31
0.0
 12
7.9077159999999997
 22
9.2694869999999998
 32
0.0
 13
7.9077159999999997
 23
9.2694869999999998
 33
0.0
  0
TEXT
  5
88A
  8
OBJECT
 62
     0
 10
8.6279035000000004
 20
9.1757369999999998
 30
0.0
 40
0.1875
  1
1.956
 41
0.75
  0
POINT
  5
88B
  8
DEFPOINTS
 62
     0
 10
9.8637160000000002
 20
8.9794699999999992
 30
0.0
  0
POINT
  5
88C
  8
DEFPOINTS
 62
     0
 10
7.9077159999999997
 20
8.2393509999999992
 30
0.0
  0
POINT
  5
88D
  8
DEFPOINTS
 62
     0
 10
7.9077159999999997
 20
9.2694869999999998
 30
0.0
  0
ENDBLK
  5
88F
  8
0
  0
BLOCK
  8
0
  2
*D76
 70
     1
 10
0.0
 20
0.0
 30
0.0
  3
*D76
  1

  0
LINE
  5
892
  8
DIM
 62
     0
 10
11.819716
 20
8.3338509999999992
 30
0.0
 11
11.819716
 21
9.8304869999999998
 31
0.0
  0
LINE
  5
893
  8
DIM
 62
     0
 10
7.9077159999999997
 20
8.3338509999999992
 30
0.0
 11
7.9077159999999997
 21
9.8304869999999998
 31
0.0
  0
LINE
  5
894
  8
DIM
 62
     0
 10
11.549716
 20
9.6909869999999998
 30
0.0
 11
10.256528499999989
 21
9.6909869999999998
 31
0.0
  0
LINE
  5
895
  8
DIM
 62
     0
 10
8.1777160000000002
 20
9.6909869999999998
 30
0.0
 11
9.4709035000000004
 21
9.6909869999999998
 31
0.0
  0
SOLID
  5
896
  8
DIM
 62
     0
 10
11.549716
 20
9.7359869999999997
 30
0.0
 11
11.549716
 21
9.6459869999999999
 31
0.0
 12
11.819716
 22
9.6909869999999998
 32
0.0
 13
11.819716
 23
9.6909869999999998
 33
0.0
  0
SOLID
  5
897
  8
DIM
 62
     0
 10
8.1777160000000002
 20
9.7359869999999997
 30
0.0
 11
8.1777160000000002
 21
9.6459869999999999
 31
0.0
 12
7.9077159999999997
 22
9.6909869999999998
 32
0.0
 13
7.9077159999999997
 23
9.6909869999999998
 33
0.0
  0
TEXT
  5
898
  8
OBJECT
 62
     0
 10
9.6059035000000002
 20
9.5972369999999998
 30
0.0
 40
0.1875
  1
3.912
 41
0.75
  0
POINT
  5
899
  8
DEFPOINTS
 62
     0
 10
11.819716
 20
8.2393509999999992
 30
0.0
  0
POINT
  5
89A
  8
DEFPOINTS
 62
     0
 10
7.9077159999999997
 20
8.2393509999999992
 30
0.0
  0
POINT
  5
89B
  8
DEFPOINTS
 62
     0
 10
7.9077159999999997
 20
9.6909869999999998
 30
0.0
  0
ENDBLK
  5
89D
  8
0
  0
BLOCK
  8
0
  2
*D77
 70
     1
 10
0.0
 20
0.0
 30
0.0
  3
*D77
  1

  0
LINE
  5
8B9
  8
DIM
 62
     0
 10
8.0235929999999982
 20
1.4638429999999989
 30
0.0
 11
7.978593
 21
1.4638429999999989
 31
0.0
  0
LINE
  5
8BA
  8
DIM
 62
     0
 10
8.094716
 20
1.7138429999999989
 30
0.0
 11
8.2575929999999982
 21
1.7138429999999989
 31
0.0
  0
LINE
  5
8BB
  8
DIM
 62
     0
 10
8.118093
 20
1.1938429999999991
 30
0.0
 11
8.118093
 21
0.9238429999999999
 31
0.0
  0
LINE
  5
8BC
  8
DIM
 62
     0
 10
8.118093
 20
1.983843
 30
0.0
 11
8.118093
 21
2.2538429999999989
 31
0.0
  0
TEXT
  5
8BD
  8
OBJECT
 62
     0
 10
8.4422805000000007
 20
1.4950930000000009
 30
0.0
 40
0.1875
  1
0.250
 41
0.75
  0
SOLID
  5
8BE
  8
DIM
 62
     0
 10
8.0730930000000001
 20
1.1938429999999991
 30
0.0
 11
8.1630929999999982
 21
1.1938429999999991
 31
0.0
 12
8.118093
 22
1.4638429999999989
 32
0.0
 13
8.118093
 23
1.4638429999999989
 33
0.0
  0
SOLID
  5
8BF
  8
DIM
 62
     0
 10
8.0730930000000001
 20
1.983843
 30
0.0
 11
8.1630929999999982
 21
1.983843
 31
0.0
 12
8.118093
 22
1.7138429999999989
 32
0.0
 13
8.118093
 23
1.7138429999999989
 33
0.0
  0
POINT
  5
8C0
  8
DEFPOINTS
 62
     0
 10
8.118093
 20
1.4638429999999989
 30
0.0
  0
POINT
  5
8C1
  8
DEFPOINTS
 62
     0
 10
8.0002159999999982
 20
1.7138429999999989
 30
0.0
  0
POINT
  5
8C2
  8
DEFPOINTS
 62
     0
 10
8.118093
 20
1.7138429999999989
 30
0.0
  0
ENDBLK
  5
8C4
  8
0
  0
BLOCK
  8
0
  2
*D78
 70
     1
 10
0.0
 20
0.0
 30
0.0
  3
*D78
  1

  0
LINE
  5
8D4
  8
DIM
 62
     0
 10
12.895716
 20
1.3918429999999991
 30
0.0
 11
13.543215999999999
 21
1.3918429999999991
 31
0.0
  0
LINE
  5
8D5
  8
DIM
 62
     0
 10
12.958216
 20
1.511843
 30
0.0
 11
13.543215999999999
 21
1.5118429999999989
 31
0.0
  0
LINE
  5
8D6
  8
DIM
 62
     0
 10
13.403715999999999
 20
1.121842999999999
 30
0.0
 11
13.403715999999999
 21
0.8518429999999998
 31
0.0
  0
LINE
  5
8D7
  8
DIM
 62
     0
 10
13.403715999999999
 20
1.7818430000000001
 30
0.0
 11
13.403715999999999
 21
2.051842999999999
 31
0.0
  0
TEXT
  5
8D8
  8
OBJECT
 62
     0
 10
13.751341
 20
1.3580930000000011
 30
0.0
 40
0.1875
  1
0.120
 41
0.75
  0
SOLID
  5
8D9
  8
DIM
 62
     0
 10
13.358715999999999
 20
1.121842999999999
 30
0.0
 11
13.448715999999999
 21
1.121842999999999
 31
0.0
 12
13.403715999999999
 22
1.3918429999999991
 32
0.0
 13
13.403715999999999
 23
1.3918429999999991
 33
0.0
  0
SOLID
  5
8DA
  8
DIM
 62
     0
 10
13.358715999999999
 20
1.7818430000000001
 30
0.0
 11
13.448715999999999
 21
1.7818430000000001
 31
0.0
 12
13.403715999999999
 22
1.511843
 32
0.0
 13
13.403715999999999
 23
1.511843
 33
0.0
  0
POINT
  5
8DB
  8
DEFPOINTS
 62
     0
 10
12.801216
 20
1.3918429999999991
 30
0.0
  0
POINT
  5
8DC
  8
DEFPOINTS
 62
     0
 10
12.863716
 20
1.511843
 30
0.0
  0
POINT
  5
8DD
  8
DEFPOINTS
 62
     0
 10
13.403715999999999
 20
1.511843
 30
0.0
  0
ENDBLK
  5
8DF
  8
0
  0
BLOCK
  8
0
  2
*D79
 70
     1
 10
0.0
 20
0.0
 30
0.0
  3
*D79
  1

  0
LINE
  5
8E7
  8
DIM
 62
     0
 10
12.863716
 20
1.359842999999999
 30
0.0
 11
12.863716
 21
0.290843
 31
0.0
  0
LINE
  5
8E8
  8
DIM
 62
     0
 10
6.8637160000000002
 20
1.359842999999999
 30
0.0
 11
6.8637160000000002
 21
0.290843
 31
0.0
  0
LINE
  5
8E9
  8
DIM
 62
     0
 10
12.593716000000001
 20
0.4303430000000001
 30
0.0
 11
10.24480975
 21
0.4303430000000001
 31
0.0
  0
LINE
  5
8EA
  8
DIM
 62
     0
 10
7.1337159999999988
 20
0.4303430000000001
 30
0.0
 11
9.4826222500000004
 21
0.4303430000000001
 31
0.0
  0
SOLID
  5
8EB
  8
DIM
 62
     0
 10
12.593716000000001
 20
0.475343
 30
0.0
 11
12.593716000000001
 21
0.385343
 31
0.0
 12
12.863716
 22
0.4303430000000001
 32
0.0
 13
12.863716
 23
0.4303430000000001
 33
0.0
  0
SOLID
  5
8EC
  8
DIM
 62
     0
 10
7.1337159999999988
 20
0.475343
 30
0.0
 11
7.1337159999999988
 21
0.385343
 31
0.0
 12
6.8637160000000002
 22
0.4303430000000001
 32
0.0
 13
6.8637160000000002
 23
0.4303430000000001
 33
0.0
  0
TEXT
  5
8ED
  8
OBJECT
 62
     0
 10
9.6176222500000002
 20
0.336593
 30
0.0
 40
0.1875
  1
6.000
 41
0.75
  0
POINT
  5
8EE
  8
DEFPOINTS
 62
     0
 10
12.863716
 20
1.4543429999999991
 30
0.0
  0
POINT
  5
8EF
  8
DEFPOINTS
 62
     0
 10
6.8637160000000002
 20
1.4543429999999991
 30
0.0
  0
POINT
  5
8F0
  8
DEFPOINTS
 62
     0
 10
6.8637160000000002
 20
0.4303430000000001
 30
0.0
  0
ENDBLK
  5
8F2
  8
0
  0
BLOCK
  8
0
  2
*D80
 70
     1
 10
0.0
 20
0.0
 30
0.0
  3
*D80
  1

  0
LINE
  5
8F5
  8
DIM
 62
     0
 10
7.3275800000000002
 20
1.4173429999999989
 30
0.0
 11
7.3275800000000002
 21
0.712343
 31
0.0
  0
LINE
  5
8F6
  8
DIM
 62
     0
 10
6.8637160000000002
 20
1.359842999999999
 30
0.0
 11
6.8637160000000002
 21
0.712343
 31
0.0
  0
LINE
  5
8F7
  8
DIM
 62
     0
 10
7.5975799999999998
 20
0.851843
 30
0.0
 11
7.8675800000000002
 21
0.851843
 31
0.0
  0
LINE
  5
8F8
  8
DIM
 62
     0
 10
6.5937159999999997
 20
0.851843
 30
0.0
 11
6.3237160000000001
 21
0.851843
 31
0.0
  0
TEXT
  5
8F9
  8
OBJECT
 62
     0
 10
6.8261167499999997
 20
0.1760929999999999
 30
0.0
 40
0.1875
  1
0.464
 41
0.75
  0
SOLID
  5
8FA
  8
DIM
 62
     0
 10
7.5975799999999998
 20
0.8968430000000001
 30
0.0
 11
7.5975799999999998
 21
0.8068429999999999
 31
0.0
 12
7.3275800000000002
 22
0.851843
 32
0.0
 13
7.3275800000000002
 23
0.851843
 33
0.0
  0
SOLID
  5
8FB
  8
DIM
 62
     0
 10
6.5937159999999997
 20
0.8968430000000001
 30
0.0
 11
6.5937159999999997
 21
0.8068429999999999
 31
0.0
 12
6.8637160000000002
 22
0.851843
 32
0.0
 13
6.8637160000000002
 23
0.851843
 33
0.0
  0
POINT
  5
8FC
  8
DEFPOINTS
 62
     0
 10
7.3275800000000002
 20
1.511843
 30
0.0
  0
POINT
  5
8FD
  8
DEFPOINTS
 62
     0
 10
6.8637160000000002
 20
1.4543429999999991
 30
0.0
  0
POINT
  5
8FE
  8
DEFPOINTS
 62
     0
 10
6.8637160000000002
 20
0.851843
 30
0.0
  0
ENDBLK
  5
900
  8
0
  0
BLOCK
  8
0
  2
*D81
 70
     1
 10
0.0
 20
0.0
 30
0.0
  3
*D81
  1

  0
LINE
  5
922
  8
DIM
 62
     0
 10
7.1137160000000002
 20
6.7588509999999991
 30
0.0
 11
7.1137160000000002
 21
4.0562139999999989
 31
0.0
  0
LINE
  5
923
  8
DIM
 62
     0
 10
12.613716
 20
6.7588509999999991
 30
0.0
 11
12.613716
 21
4.0562139999999989
 31
0.0
  0
LINE
  5
924
  8
DIM
 62
     0
 10
7.3837159999999988
 20
4.1957139999999988
 30
0.0
 11
9.4709035000000004
 21
4.1957139999999988
 31
0.0
  0
LINE
  5
925
  8
DIM
 62
     0
 10
12.343716000000001
 20
4.1957139999999988
 30
0.0
 11
10.256528499999989
 21
4.1957139999999988
 31
0.0
  0
SOLID
  5
926
  8
DIM
 62
     0
 10
7.3837159999999988
 20
4.2407139999999988
 30
0.0
 11
7.3837159999999988
 21
4.1507139999999989
 31
0.0
 12
7.1137160000000002
 22
4.1957139999999988
 32
0.0
 13
7.1137160000000002
 23
4.1957139999999988
 33
0.0
  0
SOLID
  5
927
  8
DIM
 62
     0
 10
12.343716000000001
 20
4.2407139999999988
 30
0.0
 11
12.343716000000001
 21
4.1507139999999989
 31
0.0
 12
12.613716
 22
4.1957139999999988
 32
0.0
 13
12.613716
 23
4.1957139999999988
 33
0.0
  0
TEXT
  5
928
  8
OBJECT
 62
     0
 10
9.6059035000000002
 20
4.1019639999999988
 30
0.0
 40
0.1875
  1
5.500
 41
0.75
  0
POINT
  5
929
  8
DEFPOINTS
 62
     0
 10
7.1137160000000002
 20
6.8533509999999991
 30
0.0
  0
POINT
  5
92A
  8
DEFPOINTS
 62
     0
 10
12.613716
 20
6.8533509999999991
 30
0.0
  0
POINT
  5
92B
  8
DEFPOINTS
 62
     0
 10
12.613716
 20
4.1957139999999988
 30
0.0
  0
ENDBLK
  5
92D
  8
0
  0
BLOCK
  8
0
  2
*D82
 70
     1
 10
0.0
 20
0.0
 30
0.0
  3
*D82
  1

  0
LINE
  5
930
  8
DIM
 62
     0
 10
7.1137160000000002
 20
6.7588509999999991
 30
0.0
 11
7.1137160000000002
 21
4.4777139999999989
 31
0.0
  0
LINE
  5
931
  8
DIM
 62
     0
 10
9.8637160000000002
 20
4.8127319999999987
 30
0.0
 11
9.8637160000000002
 21
4.4777139999999989
 31
0.0
  0
LINE
  5
932
  8
DIM
 62
     0
 10
7.3837159999999988
 20
4.6172139999999988
 30
0.0
 11
8.0841847500000004
 21
4.6172139999999988
 31
0.0
  0
LINE
  5
933
  8
DIM
 62
     0
 10
9.5937160000000006
 20
4.6172139999999988
 30
0.0
 11
8.8932472499999982
 21
4.6172139999999988
 31
0.0
  0
SOLID
  5
934
  8
DIM
 62
     0
 10
7.3837159999999988
 20
4.6622139999999987
 30
0.0
 11
7.3837159999999988
 21
4.5722139999999989
 31
0.0
 12
7.1137160000000002
 22
4.6172139999999988
 32
0.0
 13
7.1137160000000002
 23
4.6172139999999988
 33
0.0
  0
SOLID
  5
935
  8
DIM
 62
     0
 10
9.5937160000000006
 20
4.6622139999999987
 30
0.0
 11
9.5937160000000006
 21
4.5722139999999989
 31
0.0
 12
9.8637160000000002
 22
4.6172139999999988
 32
0.0
 13
9.8637160000000002
 23
4.6172139999999988
 33
0.0
  0
TEXT
  5
936
  8
OBJECT
 62
     0
 10
8.2191847500000002
 20
4.5234639999999988
 30
0.0
 40
0.1875
  1
2.750
 41
0.75
  0
POINT
  5
937
  8
DEFPOINTS
 62
     0
 10
7.1137160000000002
 20
6.8533509999999991
 30
0.0
  0
POINT
  5
938
  8
DEFPOINTS
 62
     0
 10
9.8637160000000002
 20
4.9072319999999987
 30
0.0
  0
POINT
  5
939
  8
DEFPOINTS
 62
     0
 10
9.8637160000000002
 20
4.6172139999999988
 30
0.0
  0
ENDBLK
  5
93B
  8
0
  0
BLOCK
  8
0
  2
*D83
 70
     1
 10
0.0
 20
0.0
 30
0.0
  3
*D83
  1

  0
LINE
  5
AC7
  8
DIM
 62
     0
 10
7.6612159999999996
 20
8.6214700000000004
 30
0.0
 11
8.278671000000001
 21
8.6214700000000004
 31
0.0
  0
LINE
  5
AC8
  8
DIM
 62
     0
 10
7.6612159999999996
 20
5.2652320000000001
 30
0.0
 11
8.278671000000001
 21
5.2652320000000001
 31
0.0
  0
LINE
  5
AC9
  8
DIM
 62
     0
 10
8.139171000000001
 20
8.3514700000000008
 30
0.0
 11
8.139171000000001
 21
7.7130129999999992
 31
0.0
  0
LINE
  5
ACA
  8
DIM
 62
     0
 10
8.139171000000001
 20
5.5352319999999997
 30
0.0
 11
8.139171000000001
 21
7.2555129999999988
 31
0.0
  0
TEXT
  5
ACB
  8
OBJECT
 62
     0
 10
7.857921000000001
 20
7.3905130000000003
 30
0.0
 40
0.1875
  1
3.356
 41
0.75
  0
SOLID
  5
ACC
  8
DIM
 62
     0
 10
8.0941710000000011
 20
8.3514700000000008
 30
0.0
 11
8.1841709999999992
 21
8.3514700000000008
 31
0.0
 12
8.139171000000001
 22
8.6214700000000004
 32
0.0
 13
8.139171000000001
 23
8.6214700000000004
 33
0.0
  0
SOLID
  5
ACD
  8
DIM
 62
     0
 10
8.0941710000000011
 20
5.5352319999999997
 30
0.0
 11
8.1841709999999992
 21
5.5352319999999997
 31
0.0
 12
8.139171000000001
 22
5.2652320000000001
 32
0.0
 13
8.139171000000001
 23
5.2652320000000001
 33
0.0
  0
POINT
  5
ACE
  8
DEFPOINTS
 62
     0
 10
7.5667160000000004
 20
8.6214700000000004
 30
0.0
  0
POINT
  5
ACF
  8
DEFPOINTS
 62
     0
 10
7.5667160000000004
 20
5.2652320000000001
 30
0.0
  0
POINT
  5
AD0
  8
DEFPOINTS
 62
     0
 10
8.139171000000001
 20
5.2652320000000001
 30
0.0
  0
ENDBLK
  5
AD2
  8
0
  0
BLOCK
  8
0
  2
*D84
 70
     1
 10
0.0
 20
0.0
 30
0.0
  3
*D84
  1

  0
LINE
  5
AD5
  8
DIM
 62
     0
 10
12.291715999999999
 20
6.2076459999999987
 30
0.0
 11
12.291715999999999
 21
6.2526459999999986
 31
0.0
  0
LINE
  5
AD6
  8
DIM
 62
     0
 10
7.4357160000000002
 20
6.2076459999999987
 30
0.0
 11
7.4357160000000002
 21
6.2526459999999986
 31
0.0
  0
LINE
  5
AD7
  8
DIM
 62
     0
 10
12.021716
 20
6.1131459999999986
 30
0.0
 11
9.5008149999999993
 21
6.1131459999999986
 31
0.0
  0
LINE
  5
AD8
  8
DIM
 62
     0
 10
7.7057159999999998
 20
6.1131459999999986
 30
0.0
 11
8.6683149999999998
 21
6.1131459999999986
 31
0.0
  0
TEXT
  5
AD9
  8
OBJECT
 62
     0
 10
8.8033149999999996
 20
6.0193959999999986
 30
0.0
 40
0.1875
  1
4.856
 41
0.75
  0
SOLID
  5
ADA
  8
DIM
 62
     0
 10
12.021716
 20
6.1581459999999986
 30
0.0
 11
12.021716
 21
6.0681459999999987
 31
0.0
 12
12.291715999999999
 22
6.1131459999999986
 32
0.0
 13
12.291715999999999
 23
6.1131459999999986
 33
0.0
  0
SOLID
  5
ADB
  8
DIM
 62
     0
 10
7.7057159999999998
 20
6.1581459999999986
 30
0.0
 11
7.7057159999999998
 21
6.0681459999999987
 31
0.0
 12
7.4357160000000002
 22
6.1131459999999986
 32
0.0
 13
7.4357160000000002
 23
6.1131459999999986
 33
0.0
  0
POINT
  5
ADC
  8
DEFPOINTS
 62
     0
 10
12.291715999999999
 20
6.1131459999999986
 30
0.0
  0
POINT
  5
ADD
  8
DEFPOINTS
 62
     0
 10
7.4357160000000002
 20
6.1131459999999986
 30
0.0
  0
POINT
  5
ADE
  8
DEFPOINTS
 62
     0
 10
7.4357160000000002
 20
6.1131459999999986
 30
0.0
  0
ENDBLK
  5
AE0
  8
0
  0
ENDSEC
  0
SECTION
  2
ENTITIES
  0
TEXT
  5
2FD
  8
TEXT
 10
9.6522950000000005
 20
22.120212999999989
 30
0.0
 40
0.1875
  1
FOUR (4) #4 x 0.500" LG. SELF THREADING
 41
0.75
  0
TEXT
  5
2FE
  8
TEXT
 10
9.6522950000000005
 20
21.807712999999989
 30
0.0
 40
0.1875
  1
SCREWS WITH HI/LOW THREADS
 41
0.75
  0
TEXT
  5
2FF
  8
DIM
 10
5.8934660000000001
 20
2.961106
 30
0.0
 40
0.01
  1
%%@
  0
TEXT
  5
300
  8
DIM
 10
6.0958829999999997
 20
2.5871270000000002
 30
0.0
 40
0.01
  1
%%!
  0
TEXT
  5
301
  8
TEXT
 10
9.6688729999999996
 20
21.494067999999992
 30
0.0
 40
0.1875
  1
ARE SUPPLIED FOR MOUNTING COVER.
 41
0.75
  0
TEXT
  5
302
  8
TEXT
 10
0.31175
 20
22.590119000000001
 30
0.0
 40
0.1875
  1
NAME
 72
     1
 11
0.6555
 21
22.590119000000001
 31
0.0
  0
TEXT
  5
303
  8
TEXT
 10
0.31175
 20
22.902619000000001
 30
0.0
 40
0.1875
  1
PART
 72
     1
 11
0.6555
 21
22.902619000000001
 31
0.0
  0
TEXT
  5
304
  8
TEXT
 10
8.0579999999999998
 20
22.590119000000001
 30
0.0
 40
0.1875
  1
No.
 72
     1
 11
8.2454999999999998
 21
22.590119000000001
 31
0.0
  0
TEXT
  5
305
  8
TEXT
 10
7.9017499999999989
 20
22.902619000000001
 30
0.0
 40
0.1875
  1
PART
 72
     1
 11
8.2454999999999998
 21
22.902619000000001
 31
0.0
  0
LINE
  5
306
  8
TITLE
 10
8.8079999999999998
 20
23.156999999999989
 30
0.0
 11
8.8079999999999998
 21
22.530000000000001
 31
0.0
  0
LINE
  5
307
  8
TITLE
 10
7.6829999999999989
 20
23.156999999999989
 30
0.0
 11
7.6829999999999989
 21
22.530000000000001
 31
0.0
  0
LINE
  5
308
  8
TITLE
 10
7.589999999999999
 20
23.156999999999989
 30
0.0
 11
7.589999999999999
 21
22.530000000000001
 31
0.0
  0
LINE
  5
309
  8
TITLE
 10
1.2179999999999991
 20
22.530000000000001
 30
0.0
 11
1.2179999999999991
 21
23.156999999999989
 31
0.0
  0
LINE
  5
30A
  8
TITLE
 10
0.093
 20
22.530000000000001
 30
0.0
 11
15.087
 21
22.530000000000001
 31
0.0
  0
LINE
  5
30B
  8
TITLE
 10
15.087
 20
0.093
 30
0.0
 11
0.093
 21
0.093
 31
0.0
  0
LINE
  5
30C
  8
TITLE
 10
15.087
 20
23.156999999999989
 30
0.0
 11
15.087
 21
12.195477
 31
0.0
  0
LINE
  5
30D
  8
TITLE
 10
0.093
 20
23.156999999999989
 30
0.0
 11
15.087
 21
23.156999999999989
 31
0.0
  0
LINE
  5
30E
  8
TITLE
 10
0.093
 20
0.093
 30
0.0
 11
0.093
 21
12.102477
 31
0.0
  0
LINE
  5
30F
  8
TITLE
 10
0.0
 20
0.0
 30
0.0
 11
0.0
 21
23.25
 31
0.0
  0
LINE
  5
310
  8
TITLE
 10
15.179999999999991
 20
0.0
 30
0.0
 11
0.0
 21
0.0
 31
0.0
  0
LINE
  5
311
  8
TITLE
 10
15.179999999999991
 20
23.25
 30
0.0
 11
15.179999999999991
 21
0.0
 31
0.0
  0
LINE
  5
312
  8
TITLE
 10
0.0
 20
23.25
 30
0.0
 11
15.179999999999991
 21
23.25
 31
0.0
  0
LINE
  5
313
  8
TITLE
 10
0.093
 20
12.102477
 30
0.0
 11
15.087
 21
12.102477
 31
0.0
  0
LINE
  5
314
  8
TITLE
 10
0.093
 20
11.475477
 30
0.0
 11
15.087
 21
11.475477
 31
0.0
  0
LINE
  5
315
  8
TITLE
 10
1.2179999999999991
 20
11.475477
 30
0.0
 11
1.2179999999999991
 21
12.102477
 31
0.0
  0
LINE
  5
316
  8
TITLE
 10
7.589999999999999
 20
12.102477
 30
0.0
 11
7.589999999999999
 21
11.475477
 31
0.0
  0
LINE
  5
317
  8
TITLE
 10
7.6829999999999989
 20
12.102477
 30
0.0
 11
7.6829999999999989
 21
11.475477
 31
0.0
  0
LINE
  5
318
  8
TITLE
 10
8.8079999999999998
 20
12.102477
 30
0.0
 11
8.8079999999999998
 21
11.475477
 31
0.0
  0
TEXT
  5
319
  8
TEXT
 10
7.9017499999999989
 20
11.848096
 30
0.0
 40
0.1875
  1
PART
 72
     1
 11
8.2454999999999998
 21
11.848096
 31
0.0
  0
TEXT
  5
31A
  8
TEXT
 10
8.0579999999999998
 20
11.535596
 30
0.0
 40
0.1875
  1
No.
 72
     1
 11
8.2454999999999998
 21
11.535596
 31
0.0
  0
TEXT
  5
31B
  8
TEXT
 10
0.31175
 20
11.848096
 30
0.0
 40
0.1875
  1
PART
 72
     1
 11
0.6555
 21
11.848096
 31
0.0
  0
TEXT
  5
31C
  8
TEXT
 10
0.31175
 20
11.535596
 30
0.0
 40
0.1875
  1
NAME
 72
     1
 11
0.6555
 21
11.535596
 31
0.0
  0
TEXT
  5
31D
  8
DIM
 10
6.1830759999999989
 20
5.0158420000000001
 30
0.0
 40
0.125
  1

  0
LINE
  5
31E
  8
TITLE
 10
0.093
 20
12.195477
 30
0.0
 11
0.093
 21
23.156999999999989
 31
0.0
  0
LINE
  5
31F
  8
TITLE
 10
15.087
 20
12.102477
 30
0.0
 11
15.087
 21
0.093
 31
0.0
  0
TEXT
  5
320
  8
TEXT
 10
2.5807500000000001
 20
22.70399999999999
 30
0.0
 40
0.2805
  1
UTILIBOX  (STYLE G)
 41
0.75
 72
     1
 11
4.403999999999999
 21
22.70399999999999
 31
0.0
  0
TEXT
  5
321
  8
TEXT
 10
11.351437499999991
 20
22.70399999999999
 30
0.0
 40
0.2805
  1
CU-388
 41
0.75
 72
     1
 11
11.947499999999989
 21
22.70399999999999
 31
0.0
  0
TEXT
  5
322
  8
DIM
 10
6.2462220000000004
 20
13.164517
 30
0.0
 40
0.125
  1

  0
TEXT
  5
323
  8
TEXT
 10
0.286956
 20
22.11927399999999
 30
0.0
 40
0.1875
  1
%%UMATERIAL:%%U ABS THERMOPLASTIC (FLAMMABILITY RATING OF 94V-O AT
 41
0.75
  0
TEXT
  5
324
  8
TEXT
 10
4.1583920000000001
 20
21.80677399999999
 30
0.0
 40
0.1875
  1
0.080" THICKNESS AND CONTINUOUS USE
 41
0.75
  0
TEXT
  5
325
  8
TEXT
 10
4.1583920000000001
 20
21.49427399999999
 30
0.0
 40
0.1875
  1
TEMPERATURE OF 70%%D C.)
 41
0.75
  0
TEXT
  5
326
  8
TEXT
 10
0.286956
 20
21.039635999999991
 30
0.0
 40
0.1875
  1
%%UFINISH:%%U BLACK TEXTURED
 41
0.75
  0
LINE
  5
327
  8
TITLE
 10
0.093
 20
12.195477
 30
0.0
 11
15.087
 21
12.195477
 31
0.0
  0
TEXT
  5
32A
  8
DIM
 10
19.731193999999991
 20
21.395741999999998
 30
0.0
 40
0.125
  1

  0
TEXT
  5
32B
  8
DIM
 10
19.794339000000001
 20
29.544416999999999
 30
0.0
 40
0.125
  1

  0
TEXT
  5
32C
  8
0
  6
CONTINUOUS
 62
     1
 10
38.296515999999997
 20
18.43083
 30
0.0
 40
0.0625
  1

  7
ROMANS
  0
TEXT
  5
32D
  8
0
  6
CONTINUOUS
 62
     1
 10
38.296515999999997
 20
18.127257999999991
 30
0.0
 40
0.0625
  1

  7
ROMANS
  0
TEXT
  5
330
  8
DIM
 10
19.673846999999999
 20
6.1479609999999996
 30
0.0
 40
0.125
  1

  0
TEXT
  5
331
  8
DIM
 10
19.736992999999991
 20
14.296635999999999
 30
0.0
 40
0.125
  1

  0
TEXT
  5
332
  8
0
  6
CONTINUOUS
 62
     1
 10
38.239168999999997
 20
3.183049
 30
0.0
 40
0.0625
  1

  7
ROMANS
  0
TEXT
  5
333
  8
0
  6
CONTINUOUS
 62
     1
 10
38.239168999999997
 20
2.8794769999999992
 30
0.0
 40
0.0625
  1

  7
ROMANS
  0
TEXT
  5
336
  8
DIM
 10
19.673846999999999
 20
16.267960999999989
 30
0.0
 40
0.125
  1

  0
TEXT
  5
337
  8
DIM
 10
19.736992999999991
 20
24.416636
 30
0.0
 40
0.125
  1

  0
TEXT
  5
338
  8
0
  6
CONTINUOUS
 62
     1
 10
38.239168999999997
 20
13.303049
 30
0.0
 40
0.0625
  1

  7
ROMANS
  0
TEXT
  5
339
  8
0
  6
CONTINUOUS
 62
     1
 10
38.239168999999997
 20
12.999477000000001
 30
0.0
 40
0.0625
  1

  7
ROMANS
  0
TEXT
  5
33A
  8
0
  6
CONTINUOUS
 62
     1
 10
21.644064999999991
 20
23.504124999999998
 30
0.0
 40
0.0625
  1

  7
ROMANS
  0
TEXT
  5
33B
  8
0
  6
CONTINUOUS
 62
     1
 10
21.644064999999991
 20
23.200552999999989
 30
0.0
 40
0.0625
  1

  7
ROMANS
  0
TEXT
  5
33C
  8
0
  6
CONTINUOUS
 62
     1
 10
28.117889999999999
 20
11.547940999999989
 30
0.0
 40
0.125
  1

  7
CITYBLUEPRINT
  0
TEXT
  5
33D
  8
0
  6
CONTINUOUS
 62
     1
 10
28.086393999999999
 20
11.312002
 30
0.0
 40
0.125
  1

  7
CITYBLUEPRINT
  0
TEXT
  5
33E
  8
0
  6
CONTINUOUS
 62
     1
 10
21.251726999999988
 20
11.46929499999999
 30
0.0
 40
0.1875
  1

  7
CITYBLUEPRINT
  0
TEXT
  5
341
  8
DIM
 10
19.673846999999999
 20
21.327960999999991
 30
0.0
 40
0.125
  1

  0
TEXT
  5
342
  8
DIM
 10
19.736992999999991
 20
29.476635999999999
 30
0.0
 40
0.125
  1

  0
TEXT
  5
343
  8
0
  6
CONTINUOUS
 62
     1
 10
38.239168999999997
 20
18.363049
 30
0.0
 40
0.0625
  1

  7
ROMANS
  0
TEXT
  5
344
  8
0
  6
CONTINUOUS
 62
     1
 10
38.239168999999997
 20
18.05947699999999
 30
0.0
 40
0.0625
  1

  7
ROMANS
  0
TEXT
  5
345
  8
0
  6
CONTINUOUS
 62
     1
 10
21.644064999999991
 20
28.564125000000001
 30
0.0
 40
0.0625
  1

  7
ROMANS
  0
TEXT
  5
346
  8
0
  6
CONTINUOUS
 62
     1
 10
21.644064999999991
 20
28.260553000000002
 30
0.0
 40
0.0625
  1

  7
ROMANS
  0
TEXT
  5
349
  8
DIM
 10
19.673846999999999
 20
21.327960999999991
 30
0.0
 40
0.125
  1

  0
TEXT
  5
34A
  8
DIM
 10
19.736992999999991
 20
29.476635999999999
 30
0.0
 40
0.125
  1

  0
TEXT
  5
34B
  8
0
  6
CONTINUOUS
 62
     1
 10
38.239168999999997
 20
18.363049
 30
0.0
 40
0.0625
  1

  7
ROMANS
  0
TEXT
  5
34C
  8
0
  6
CONTINUOUS
 62
     1
 10
38.239168999999997
 20
18.05947699999999
 30
0.0
 40
0.0625
  1

  7
ROMANS
  0
TEXT
  5
34F
  8
DIM
 10
19.673846999999999
 20
31.447960999999999
 30
0.0
 40
0.125
  1

  0
TEXT
  5
350
  8
DIM
 10
19.736992999999991
 20
39.59663599999999
 30
0.0
 40
0.125
  1

  0
TEXT
  5
351
  8
0
  6
CONTINUOUS
 62
     1
 10
38.239168999999997
 20
28.483049000000001
 30
0.0
 40
0.0625
  1

  7
ROMANS
  0
TEXT
  5
352
  8
0
  6
CONTINUOUS
 62
     1
 10
38.239168999999997
 20
28.179476999999999
 30
0.0
 40
0.0625
  1

  7
ROMANS
  0
TEXT
  5
353
  8
0
  6
CONTINUOUS
 62
     1
 10
21.644064999999991
 20
38.684125000000002
 30
0.0
 40
0.0625
  1

  7
ROMANS
  0
TEXT
  5
354
  8
0
  6
CONTINUOUS
 62
     1
 10
21.644064999999991
 20
38.380552999999999
 30
0.0
 40
0.0625
  1

  7
ROMANS
  0
TEXT
  5
357
  8
DIM
 10
19.673846999999999
 20
31.447960999999999
 30
0.0
 40
0.125
  1

  0
TEXT
  5
358
  8
DIM
 10
19.736992999999991
 20
39.59663599999999
 30
0.0
 40
0.125
  1

  0
TEXT
  5
359
  8
0
  6
CONTINUOUS
 62
     1
 10
38.239168999999997
 20
28.483049000000001
 30
0.0
 40
0.0625
  1

  7
ROMANS
  0
TEXT
  5
35A
  8
0
  6
CONTINUOUS
 62
     1
 10
38.239168999999997
 20
28.179476999999999
 30
0.0
 40
0.0625
  1

  7
ROMANS
  0
TEXT
  5
35B
  8
0
  6
CONTINUOUS
 62
     1
 10
21.644064999999991
 20
38.684125000000002
 30
0.0
 40
0.0625
  1

  7
ROMANS
  0
TEXT
  5
35C
  8
0
  6
CONTINUOUS
 62
     1
 10
21.644064999999991
 20
38.380552999999999
 30
0.0
 40
0.0625
  1

  7
ROMANS
  0
TEXT
  5
35F
  8
DIM
 10
19.673846999999999
 20
31.447960999999999
 30
0.0
 40
0.125
  1

  0
TEXT
  5
360
  8
DIM
 10
19.736992999999991
 20
39.59663599999999
 30
0.0
 40
0.125
  1

  0
TEXT
  5
361
  8
0
  6
CONTINUOUS
 62
     1
 10
38.239168999999997
 20
28.483049000000001
 30
0.0
 40
0.0625
  1

  7
ROMANS
  0
TEXT
  5
362
  8
0
  6
CONTINUOUS
 62
     1
 10
38.239168999999997
 20
28.179476999999999
 30
0.0
 40
0.0625
  1

  7
ROMANS
  0
TEXT
  5
365
  8
DIM
 10
19.673846999999999
 20
41.567960999999997
 30
0.0
 40
0.125
  1

  0
TEXT
  5
366
  8
DIM
 10
19.736992999999991
 20
49.716636000000001
 30
0.0
 40
0.125
  1

  0
TEXT
  5
367
  8
0
  6
CONTINUOUS
 62
     1
 10
38.239168999999997
 20
38.603048999999999
 30
0.0
 40
0.0625
  1

  7
ROMANS
  0
TEXT
  5
368
  8
0
  6
CONTINUOUS
 62
     1
 10
38.239168999999997
 20
38.299477000000003
 30
0.0
 40
0.0625
  1

  7
ROMANS
  0
TEXT
  5
369
  8
0
  6
CONTINUOUS
 62
     1
 10
21.644064999999991
 20
48.804124999999999
 30
0.0
 40
0.0625
  1

  7
ROMANS
  0
TEXT
  5
36A
  8
0
  6
CONTINUOUS
 62
     1
 10
21.644064999999991
 20
48.500553000000011
 30
0.0
 40
0.0625
  1

  7
ROMANS
  0
TEXT
  5
36D
  8
DIM
 10
19.673846999999999
 20
41.567960999999997
 30
0.0
 40
0.125
  1

  0
TEXT
  5
36E
  8
DIM
 10
19.736992999999991
 20
49.716636000000001
 30
0.0
 40
0.125
  1

  0
TEXT
  5
36F
  8
0
  6
CONTINUOUS
 62
     1
 10
38.239168999999997
 20
38.603048999999999
 30
0.0
 40
0.0625
  1

  7
ROMANS
  0
TEXT
  5
370
  8
0
  6
CONTINUOUS
 62
     1
 10
38.239168999999997
 20
38.299477000000003
 30
0.0
 40
0.0625
  1

  7
ROMANS
  0
TEXT
  5
371
  8
0
  6
CONTINUOUS
 62
     1
 10
21.644064999999991
 20
48.804124999999999
 30
0.0
 40
0.0625
  1

  7
ROMANS
  0
TEXT
  5
372
  8
0
  6
CONTINUOUS
 62
     1
 10
21.644064999999991
 20
48.500553000000011
 30
0.0
 40
0.0625
  1

  7
ROMANS
  0
TEXT
  5
375
  8
DIM
 10
19.673846999999999
 20
41.567960999999997
 30
0.0
 40
0.125
  1

  0
TEXT
  5
376
  8
DIM
 10
19.736992999999991
 20
49.716636000000001
 30
0.0
 40
0.125
  1

  0
TEXT
  5
377
  8
0
  6
CONTINUOUS
 62
     1
 10
38.239168999999997
 20
38.603048999999999
 30
0.0
 40
0.0625
  1

  7
ROMANS
  0
TEXT
  5
378
  8
0
  6
CONTINUOUS
 62
     1
 10
38.239168999999997
 20
38.299477000000003
 30
0.0
 40
0.0625
  1

  7
ROMANS
  0
TEXT
  5
379
  8
TEXT
 10
11.351437499999991
 20
11.649476999999999
 30
0.0
 40
0.2805
  1
CU-389
 41
0.75
 72
     1
 11
11.947499999999989
 21
11.649476999999999
 31
0.0
  0
TEXT
  5
37A
  8
TEXT
 10
2.5807500000000001
 20
11.649476999999999
 30
0.0
 40
0.2805
  1
UTILIBOX  (STYLE G)
 41
0.75
 72
     1
 11
4.403999999999999
 21
11.649476999999999
 31
0.0
  0
TEXT
  5
37D
  8
DIM
 10
19.862662
 20
23.970693000000001
 30
0.0
 40
0.125
  1

  0
TEXT
  5
37E
  8
DIM
 10
19.925807999999989
 20
32.119368000000001
 30
0.0
 40
0.125
  1

  0
TEXT
  5
37F
  8
0
  6
CONTINUOUS
 62
     1
 10
38.427984000000002
 20
21.005780999999988
 30
0.0
 40
0.0625
  1

  7
ROMANS
  0
TEXT
  5
380
  8
0
  6
CONTINUOUS
 62
     1
 10
38.427984000000002
 20
20.702209
 30
0.0
 40
0.0625
  1

  7
ROMANS
  0
TEXT
  5
381
  8
0
  6
CONTINUOUS
 62
     1
 10
21.832878999999998
 20
31.206856999999999
 30
0.0
 40
0.0625
  1

  7
ROMANS
  0
TEXT
  5
382
  8
0
  6
CONTINUOUS
 62
     1
 10
21.832878999999998
 20
30.903285
 30
0.0
 40
0.0625
  1

  7
ROMANS
  0
TEXT
  5
383
  8
TEXT
 10
9.6846880000000013
 20
10.757835999999999
 30
0.0
 40
0.1875
  1
SCREWS WITH HI/LOW THREADS
 41
0.75
  0
TEXT
  5
384
  8
TEXT
 10
9.7012660000000004
 20
10.44418999999999
 30
0.0
 40
0.1875
  1
ARE SUPPLIED FOR MOUNTING COVER.
 41
0.75
  0
TEXT
  5
385
  8
TEXT
 10
9.6846880000000013
 20
11.070335999999999
 30
0.0
 40
0.1875
  1
FOUR (4) #4 x 0.500" LG. SELF THREADING
 41
0.75
  0
TEXT
  5
386
  8
TEXT
 10
0.286956
 20
11.06475099999999
 30
0.0
 40
0.1875
  1
%%UMATERIAL:%%U ABS THERMOPLASTIC (FLAMMABILITY RATING OF 94V-O AT
 41
0.75
  0
TEXT
  5
387
  8
TEXT
 10
4.1583920000000001
 20
10.75225099999999
 30
0.0
 40
0.1875
  1
0.080" THICKNESS AND CONTINUOUS USE
 41
0.75
  0
TEXT
  5
388
  8
TEXT
 10
4.1583920000000001
 20
10.43975099999999
 30
0.0
 40
0.1875
  1
TEMPERATURE OF 70%%D C.)
 41
0.75
  0
TEXT
  5
389
  8
TEXT
 10
0.286956
 20
9.9851130000000001
 30
0.0
 40
0.1875
  1
%%UFINISH:%%U BLACK TEXTURED
 41
0.75
  0
TEXT
  5
38C
  8
DIM
 10
21.821475
 20
5.0330389999999987
 30
0.0
 40
0.125
  1

  0
TEXT
  5
38D
  8
DIM
 10
21.884620000000002
 20
13.181713
 30
0.0
 40
0.125
  1

  0
TEXT
  5
38E
  8
0
  6
CONTINUOUS
 62
     1
 10
40.386796999999987
 20
2.068125999999999
 30
0.0
 40
0.0625
  1

  7
ROMANS
  0
TEXT
  5
38F
  8
0
  6
CONTINUOUS
 62
     1
 10
40.386796999999987
 20
1.764554999999999
 30
0.0
 40
0.0625
  1

  7
ROMANS
  0
TEXT
  5
392
  8
DIM
 10
21.821475
 20
15.153039
 30
0.0
 40
0.125
  1

  0
TEXT
  5
393
  8
DIM
 10
21.884620000000002
 20
23.301712999999989
 30
0.0
 40
0.125
  1

  0
TEXT
  5
394
  8
0
  6
CONTINUOUS
 62
     1
 10
40.386796999999987
 20
12.18812599999999
 30
0.0
 40
0.0625
  1

  7
ROMANS
  0
TEXT
  5
395
  8
0
  6
CONTINUOUS
 62
     1
 10
40.386796999999987
 20
11.884555000000001
 30
0.0
 40
0.0625
  1

  7
ROMANS
  0
TEXT
  5
396
  8
0
  6
CONTINUOUS
 62
     1
 10
23.791692000000001
 20
22.38920199999999
 30
0.0
 40
0.0625
  1

  7
ROMANS
  0
TEXT
  5
397
  8
0
  6
CONTINUOUS
 62
     1
 10
23.791692000000001
 20
22.085630999999999
 30
0.0
 40
0.0625
  1

  7
ROMANS
  0
TEXT
  5
39A
  8
DIM
 10
21.821475
 20
15.153039
 30
0.0
 40
0.125
  1

  0
TEXT
  5
39B
  8
DIM
 10
21.884620000000002
 20
23.301712999999989
 30
0.0
 40
0.125
  1

  0
TEXT
  5
39C
  8
0
  6
CONTINUOUS
 62
     1
 10
40.386796999999987
 20
12.18812599999999
 30
0.0
 40
0.0625
  1

  7
ROMANS
  0
TEXT
  5
39D
  8
0
  6
CONTINUOUS
 62
     1
 10
40.386796999999987
 20
11.884555000000001
 30
0.0
 40
0.0625
  1

  7
ROMANS
  0
TEXT
  5
3A0
  8
DIM
 10
21.821475
 20
25.273039000000001
 30
0.0
 40
0.125
  1

  0
TEXT
  5
3A1
  8
DIM
 10
21.884620000000002
 20
33.421712999999997
 30
0.0
 40
0.125
  1

  0
TEXT
  5
3A2
  8
0
  6
CONTINUOUS
 62
     1
 10
40.386796999999987
 20
22.308126000000001
 30
0.0
 40
0.0625
  1

  7
ROMANS
  0
TEXT
  5
3A3
  8
0
  6
CONTINUOUS
 62
     1
 10
40.386796999999987
 20
22.004554999999989
 30
0.0
 40
0.0625
  1

  7
ROMANS
  0
TEXT
  5
3A4
  8
0
  6
CONTINUOUS
 62
     1
 10
23.791692000000001
 20
32.509202000000002
 30
0.0
 40
0.0625
  1

  7
ROMANS
  0
TEXT
  5
3A5
  8
0
  6
CONTINUOUS
 62
     1
 10
23.791692000000001
 20
32.20563099999999
 30
0.0
 40
0.0625
  1

  7
ROMANS
  0
TEXT
  5
3A8
  8
DIM
 10
21.821475
 20
25.273039000000001
 30
0.0
 40
0.125
  1

  0
TEXT
  5
3A9
  8
DIM
 10
21.884620000000002
 20
33.421712999999997
 30
0.0
 40
0.125
  1

  0
TEXT
  5
3AA
  8
0
  6
CONTINUOUS
 62
     1
 10
40.386796999999987
 20
22.308126000000001
 30
0.0
 40
0.0625
  1

  7
ROMANS
  0
TEXT
  5
3AB
  8
0
  6
CONTINUOUS
 62
     1
 10
40.386796999999987
 20
22.004554999999989
 30
0.0
 40
0.0625
  1

  7
ROMANS
  0
TEXT
  5
3AE
  8
DIM
 10
21.821475
 20
35.393039000000002
 30
0.0
 40
0.125
  1

  0
TEXT
  5
3AF
  8
DIM
 10
21.884620000000002
 20
43.541712999999987
 30
0.0
 40
0.125
  1

  0
TEXT
  5
3B0
  8
0
  6
CONTINUOUS
 62
     1
 10
40.386796999999987
 20
32.428125999999999
 30
0.0
 40
0.0625
  1

  7
ROMANS
  0
TEXT
  5
3B1
  8
0
  6
CONTINUOUS
 62
     1
 10
40.386796999999987
 20
32.124555000000001
 30
0.0
 40
0.0625
  1

  7
ROMANS
  0
TEXT
  5
3B2
  8
0
  6
CONTINUOUS
 62
     1
 10
23.791692000000001
 20
42.629201999999992
 30
0.0
 40
0.0625
  1

  7
ROMANS
  0
TEXT
  5
3B3
  8
0
  6
CONTINUOUS
 62
     1
 10
23.791692000000001
 20
42.325631000000001
 30
0.0
 40
0.0625
  1

  7
ROMANS
  0
TEXT
  5
3B6
  8
DIM
 10
37.321474999999992
 20
5.0330389999999987
 30
0.0
 40
0.125
  1

  0
TEXT
  5
3B7
  8
DIM
 10
37.384619999999998
 20
13.181713
 30
0.0
 40
0.125
  1

  0
TEXT
  5
3B8
  8
0
  6
CONTINUOUS
 62
     1
 10
55.886797000000001
 20
2.068125999999999
 30
0.0
 40
0.0625
  1

  7
ROMANS
  0
TEXT
  5
3B9
  8
0
  6
CONTINUOUS
 62
     1
 10
55.886797000000001
 20
1.764554999999999
 30
0.0
 40
0.0625
  1

  7
ROMANS
  0
TEXT
  5
3BC
  8
DIM
 10
37.321474999999992
 20
15.153039
 30
0.0
 40
0.125
  1

  0
TEXT
  5
3BD
  8
DIM
 10
37.384619999999998
 20
23.301712999999989
 30
0.0
 40
0.125
  1

  0
TEXT
  5
3BE
  8
0
  6
CONTINUOUS
 62
     1
 10
55.886797000000001
 20
12.18812599999999
 30
0.0
 40
0.0625
  1

  7
ROMANS
  0
TEXT
  5
3BF
  8
0
  6
CONTINUOUS
 62
     1
 10
55.886797000000001
 20
11.884555000000001
 30
0.0
 40
0.0625
  1

  7
ROMANS
  0
TEXT
  5
3C0
  8
0
  6
CONTINUOUS
 62
     1
 10
39.291691999999998
 20
22.38920199999999
 30
0.0
 40
0.0625
  1

  7
ROMANS
  0
TEXT
  5
3C1
  8
0
  6
CONTINUOUS
 62
     1
 10
39.291691999999998
 20
22.085630999999999
 30
0.0
 40
0.0625
  1

  7
ROMANS
  0
TEXT
  5
3C4
  8
DIM
 10
37.321474999999992
 20
15.153039
 30
0.0
 40
0.125
  1

  0
TEXT
  5
3C5
  8
DIM
 10
37.384619999999998
 20
23.301712999999989
 30
0.0
 40
0.125
  1

  0
TEXT
  5
3C6
  8
0
  6
CONTINUOUS
 62
     1
 10
55.886797000000001
 20
12.18812599999999
 30
0.0
 40
0.0625
  1

  7
ROMANS
  0
TEXT
  5
3C7
  8
0
  6
CONTINUOUS
 62
     1
 10
55.886797000000001
 20
11.884555000000001
 30
0.0
 40
0.0625
  1

  7
ROMANS
  0
TEXT
  5
3CA
  8
DIM
 10
37.321474999999992
 20
25.273039000000001
 30
0.0
 40
0.125
  1

  0
TEXT
  5
3CB
  8
DIM
 10
37.384619999999998
 20
33.421712999999997
 30
0.0
 40
0.125
  1

  0
TEXT
  5
3CC
  8
0
  6
CONTINUOUS
 62
     1
 10
55.886797000000001
 20
22.308126000000001
 30
0.0
 40
0.0625
  1

  7
ROMANS
  0
TEXT
  5
3CD
  8
0
  6
CONTINUOUS
 62
     1
 10
55.886797000000001
 20
22.004554999999989
 30
0.0
 40
0.0625
  1

  7
ROMANS
  0
TEXT
  5
3CE
  8
0
  6
CONTINUOUS
 62
     1
 10
39.291691999999998
 20
32.509202000000002
 30
0.0
 40
0.0625
  1

  7
ROMANS
  0
TEXT
  5
3CF
  8
0
  6
CONTINUOUS
 62
     1
 10
39.291691999999998
 20
32.20563099999999
 30
0.0
 40
0.0625
  1

  7
ROMANS
  0
TEXT
  5
3D0
  8
0
  6
CONTINUOUS
 62
     1
 10
45.765517999999993
 20
20.553018999999988
 30
0.0
 40
0.125
  1

  7
CITYBLUEPRINT
  0
TEXT
  5
3D1
  8
0
  6
CONTINUOUS
 62
     1
 10
45.734021999999989
 20
20.317079
 30
0.0
 40
0.125
  1

  7
CITYBLUEPRINT
  0
TEXT
  5
3D2
  8
0
  6
CONTINUOUS
 62
     1
 10
38.899353999999988
 20
20.474372999999989
 30
0.0
 40
0.1875
  1

  7
CITYBLUEPRINT
  0
TEXT
  5
3D5
  8
DIM
 10
21.270076
 20
17.211319
 30
0.0
 40
0.125
  1

  0
TEXT
  5
3D6
  8
DIM
 10
21.333221999999989
 20
25.359994
 30
0.0
 40
0.125
  1

  0
TEXT
  5
3D7
  8
0
  6
CONTINUOUS
 62
     1
 10
39.835397999999991
 20
14.246407
 30
0.0
 40
0.0625
  1

  7
ROMANS
  0
TEXT
  5
3D8
  8
0
  6
CONTINUOUS
 62
     1
 10
39.835397999999991
 20
13.942835000000001
 30
0.0
 40
0.0625
  1

  7
ROMANS
  0
TEXT
  5
3DB
  8
DIM
 10
21.270076
 20
27.331319000000001
 30
0.0
 40
0.125
  1

  0
TEXT
  5
3DC
  8
DIM
 10
21.333221999999989
 20
35.479993999999998
 30
0.0
 40
0.125
  1

  0
TEXT
  5
3DD
  8
0
  6
CONTINUOUS
 62
     1
 10
39.835397999999991
 20
24.366406999999999
 30
0.0
 40
0.0625
  1

  7
ROMANS
  0
TEXT
  5
3DE
  8
0
  6
CONTINUOUS
 62
     1
 10
39.835397999999991
 20
24.062835
 30
0.0
 40
0.0625
  1

  7
ROMANS
  0
TEXT
  5
3DF
  8
0
  6
CONTINUOUS
 62
     1
 10
23.240292999999991
 20
34.567483000000003
 30
0.0
 40
0.0625
  1

  7
ROMANS
  0
TEXT
  5
3E0
  8
0
  6
CONTINUOUS
 62
     1
 10
23.240292999999991
 20
34.263911
 30
0.0
 40
0.0625
  1

  7
ROMANS
  0
TEXT
  5
3E3
  8
DIM
 10
21.270076
 20
27.331319000000001
 30
0.0
 40
0.125
  1

  0
TEXT
  5
3E4
  8
DIM
 10
21.333221999999989
 20
35.479993999999998
 30
0.0
 40
0.125
  1

  0
TEXT
  5
3E5
  8
0
  6
CONTINUOUS
 62
     1
 10
39.835397999999991
 20
24.366406999999999
 30
0.0
 40
0.0625
  1

  7
ROMANS
  0
TEXT
  5
3E6
  8
0
  6
CONTINUOUS
 62
     1
 10
39.835397999999991
 20
24.062835
 30
0.0
 40
0.0625
  1

  7
ROMANS
  0
TEXT
  5
3E7
  8
0
  6
CONTINUOUS
 62
     1
 10
23.240292999999991
 20
34.567483000000003
 30
0.0
 40
0.0625
  1

  7
ROMANS
  0
TEXT
  5
3E8
  8
0
  6
CONTINUOUS
 62
     1
 10
23.240292999999991
 20
34.263911
 30
0.0
 40
0.0625
  1

  7
ROMANS
  0
LINE
  5
3E9
  8
OBJECT
 10
8.0399060000000002
 20
14.978147999999999
 30
0.0
 11
12.289906
 21
14.978147999999999
 31
0.0
  0
TEXT
  5
3EC
  8
DIM
 10
22.066257
 20
7.1387299999999998
 30
0.0
 40
0.125
  1

  0
TEXT
  5
3ED
  8
DIM
 10
22.129403
 20
15.287405
 30
0.0
 40
0.125
  1

  0
DIMENSION
  5
3EE
  8
DIM
  2
*D45
 10
7.5399059999999993
 20
14.918148
 30
0.0
 11
7.1454059999999959
 21
14.948148
 31
0.0
 70
     0
  1
<>
 13
8.0399060000000002
 23
14.978147999999999
 33
0.0
 14
8.2064240000000002
 24
14.918148
 34
0.0
 50
90.0
  0
DIMENSION
  5
3FC
  8
DIM
  2
*D46
 10
12.289906
 20
15.518148
 30
0.0
 11
10.164906
 21
15.518148
 31
0.0
 70
     0
  1
<>
 13
8.0399060000000002
 23
14.987648
 33
0.0
 14
12.289906
 24
14.987648
 34
0.0
  0
TEXT
  5
40A
  8
0
  6
CONTINUOUS
 62
     1
 10
40.631578999999988
 20
4.1738179999999989
 30
0.0
 40
0.0625
  1

  7
ROMANS
  0
TEXT
  5
40B
  8
0
  6
CONTINUOUS
 62
     1
 10
40.631578999999988
 20
3.8702469999999991
 30
0.0
 40
0.0625
  1

  7
ROMANS
  0
LINE
  5
40C
  8
HIDDEN
 10
8.2844240000000013
 20
14.418021
 30
0.0
 11
8.3784240000000008
 21
14.418021
 31
0.0
  0
LINE
  5
40D
  8
HIDDEN
 10
8.2844240000000013
 20
14.918148
 30
0.0
 11
8.2844240000000013
 21
14.418021
 31
0.0
  0
LINE
  5
40E
  8
HIDDEN
 10
8.3784240000000008
 20
14.918148
 30
0.0
 11
8.3784240000000008
 21
14.418021
 31
0.0
  0
CIRCLE
  5
40F
  8
OBJECT
 10
10.164906
 20
18.522082000000001
 30
0.0
 40
0.125
  0
LINE
  5
410
  8
CENTER
 10
10.164906
 20
16.739391999999999
 30
0.0
 11
10.164906
 21
20.304770999999999
 31
0.0
  0
TEXT
  5
413
  8
DIM
 10
22.066257
 20
17.258729999999989
 30
0.0
 40
0.125
  1

  0
TEXT
  5
414
  8
DIM
 10
22.129403
 20
25.407405000000001
 30
0.0
 40
0.125
  1

  0
TEXT
  5
415
  8
0
  6
CONTINUOUS
 62
     1
 10
40.631578999999988
 20
14.293817999999989
 30
0.0
 40
0.0625
  1

  7
ROMANS
  0
TEXT
  5
416
  8
0
  6
CONTINUOUS
 62
     1
 10
40.631578999999988
 20
13.990247
 30
0.0
 40
0.0625
  1

  7
ROMANS
  0
TEXT
  5
417
  8
0
  6
CONTINUOUS
 62
     1
 10
24.036473999999998
 20
24.494893999999999
 30
0.0
 40
0.0625
  1

  7
ROMANS
  0
TEXT
  5
418
  8
0
  6
CONTINUOUS
 62
     1
 10
24.036473999999998
 20
24.191323000000001
 30
0.0
 40
0.0625
  1

  7
ROMANS
  0
LINE
  5
419
  8
HIDDEN
 10
8.4564240000000002
 20
14.918148
 30
0.0
 11
8.2064240000000002
 21
14.918148
 31
0.0
  0
LINE
  5
41A
  8
OBJECT
 10
8.205900999999999
 20
14.858148
 30
0.0
 11
8.1119529999999997
 21
14.858148
 31
0.0
  0
CIRCLE
  5
41B
  8
HIDDEN
 10
11.99838799999999
 20
19.728082000000001
 30
0.0
 40
0.125
  0
CIRCLE
  5
41C
  8
HIDDEN
 10
11.99838799999999
 20
17.316082000000002
 30
0.0
 40
0.125
  0
CIRCLE
  5
41D
  8
OBJECT
 10
8.3314240000000002
 20
17.316082000000002
 30
0.0
 40
0.125
  0
CIRCLE
  5
41E
  8
OBJECT
 10
8.5859059999999996
 20
17.566082000000002
 30
0.0
 40
0.047
  0
CIRCLE
  5
41F
  8
OBJECT
 10
8.5859059999999996
 20
17.566082000000002
 30
0.0
 40
0.094
  0
CIRCLE
  5
420
  8
OBJECT
 10
8.5859059999999996
 20
19.478082000000001
 30
0.0
 40
0.094
  0
CIRCLE
  5
421
  8
OBJECT
 10
8.5859059999999996
 20
19.478082000000001
 30
0.0
 40
0.047
  0
CIRCLE
  5
422
  8
HIDDEN
 10
11.74390599999999
 20
19.478082000000001
 30
0.0
 40
0.0935
  0
CIRCLE
  5
423
  8
HIDDEN
 10
11.74390599999999
 20
19.478082000000001
 30
0.0
 40
0.047
  0
CIRCLE
  5
424
  8
HIDDEN
 10
11.74390599999999
 20
17.566082000000002
 30
0.0
 40
0.094
  0
CIRCLE
  5
425
  8
HIDDEN
 10
11.74390599999999
 20
17.566082000000002
 30
0.0
 40
0.047
  0
CIRCLE
  5
426
  8
OBJECT
 10
8.3314240000000002
 20
17.316082000000002
 30
0.0
 40
0.047
  0
CIRCLE
  5
427
  8
OBJECT
 10
11.99838799999999
 20
19.728082000000001
 30
0.0
 40
0.047
  0
CIRCLE
  5
428
  8
OBJECT
 10
11.99838799999999
 20
17.316082000000002
 30
0.0
 40
0.047
  0
LINE
  5
429
  8
OBJECT
 10
8.1405210000000015
 20
17.141776
 30
0.0
 11
8.2338470000000008
 21
17.237957000000002
 31
0.0
  0
LINE
  5
42A
  8
OBJECT
 10
8.1629480000000001
 20
17.120014000000001
 30
0.0
 11
8.2562740000000012
 21
17.216194999999999
 31
0.0
  0
LINE
  5
42B
  8
HIDDEN
 10
12.189291000000001
 20
17.141776
 30
0.0
 11
12.095966000000001
 21
17.237957000000002
 31
0.0
  0
LINE
  5
42C
  8
HIDDEN
 10
12.166864
 20
17.120014000000001
 30
0.0
 11
12.073537999999999
 21
17.216194999999999
 31
0.0
  0
LINE
  5
42D
  8
HIDDEN
 10
12.166864
 20
19.924150000000001
 30
0.0
 11
12.073537999999999
 21
19.827969
 31
0.0
  0
LINE
  5
42E
  8
HIDDEN
 10
12.189291000000001
 20
19.902387999999998
 30
0.0
 11
12.095966000000001
 21
19.806207000000001
 31
0.0
  0
LINE
  5
42F
  8
HIDDEN
 10
11.873388
 20
14.918148
 30
0.0
 11
12.123388
 21
14.918148
 31
0.0
  0
LINE
  5
430
  8
HIDDEN
 10
12.045388000000001
 20
14.418021
 30
0.0
 11
11.951388
 21
14.418021
 31
0.0
  0
LINE
  5
431
  8
HIDDEN
 10
12.045388000000001
 20
14.918148
 30
0.0
 11
12.045388000000001
 21
14.418021
 31
0.0
  0
LINE
  5
432
  8
HIDDEN
 10
12.12391199999999
 20
14.858148
 30
0.0
 11
12.21785899999999
 21
14.858148
 31
0.0
  0
LINE
  5
433
  8
HIDDEN
 10
11.951388
 20
14.918148
 30
0.0
 11
11.951388
 21
14.418021
 31
0.0
  0
LINE
  5
434
  8
OBJECT
 10
2.4723559999999991
 20
17.093081999999988
 30
0.0
 11
1.1842250000000001
 21
17.104323000000001
 31
0.0
  0
LINE
  5
435
  8
OBJECT
 10
2.4123559999999991
 20
17.438600000000001
 30
0.0
 11
1.169355999999999
 21
17.449448
 31
0.0
  0
LINE
  5
436
  8
OBJECT
 10
2.4123559999999991
 20
17.188600000000001
 30
0.0
 11
1.169355999999999
 21
17.177752999999999
 31
0.0
  0
LINE
  5
437
  8
HIDDEN
 10
2.4723559999999991
 20
19.951081999999989
 30
0.0
 11
1.1842250000000001
 21
19.939841000000001
 31
0.0
  0
LINE
  5
438
  8
HIDDEN
 10
2.4123559999999991
 20
19.855564000000001
 30
0.0
 11
1.169355999999999
 21
19.866410999999989
 31
0.0
  0
LINE
  5
439
  8
HIDDEN
 10
2.4123559999999991
 20
19.605564000000001
 30
0.0
 11
1.169355999999999
 21
19.594715999999998
 31
0.0
  0
LINE
  5
43A
  8
HIDDEN
 10
1.169355999999999
 20
19.007380999999992
 30
0.0
 11
1.169355999999999
 21
19.924841000000001
 31
0.0
  0
ARC
  5
43B
  8
HIDDEN
 10
1.1843559999999991
 20
19.924841000000001
 30
0.0
 40
0.015
 50
90.5
 51
180.0
  0
LINE
  5
43C
  8
HIDDEN
 10
1.419355999999999
 20
19.568581999999999
 30
0.0
 11
1.169355999999999
 21
19.570764
 31
0.0
  0
LINE
  5
43D
  8
HIDDEN
 10
1.419355999999999
 20
19.383582000000001
 30
0.0
 11
1.169355999999999
 21
19.381399999999989
 31
0.0
  0
LINE
  5
43E
  8
HIDDEN
 10
1.419355999999999
 20
19.523081999999999
 30
0.0
 11
1.169355999999999
 21
19.523081999999999
 31
0.0
  0
LINE
  5
43F
  8
HIDDEN
 10
1.419355999999999
 20
19.429082000000001
 30
0.0
 11
1.169355999999999
 21
19.429082000000001
 31
0.0
  0
LINE
  5
440
  8
HIDDEN
 10
1.419355999999999
 20
19.568581999999999
 30
0.0
 11
1.419355999999999
 21
19.383582000000001
 31
0.0
  0
ARC
  5
441
  8
OBJECT
 10
1.075605999999999
 20
18.522082000000001
 30
0.0
 40
0.15625
 50
306.86989799999992
 51
53.130102000000001
  0
LINE
  5
442
  8
HIDDEN
 10
1.419355999999999
 20
17.615082000000001
 30
0.0
 11
1.169355999999999
 21
17.615082000000001
 31
0.0
  0
LINE
  5
443
  8
HIDDEN
 10
1.419355999999999
 20
17.521082
 30
0.0
 11
1.169355999999999
 21
17.521082
 31
0.0
  0
LINE
  5
444
  8
OBJECT
 10
1.419355999999999
 20
17.660582000000002
 30
0.0
 11
1.169355999999999
 21
17.662763999999999
 31
0.0
  0
LINE
  5
445
  8
OBJECT
 10
1.419355999999999
 20
17.475581999999999
 30
0.0
 11
1.169355999999999
 21
17.473400000000002
 31
0.0
  0
LINE
  5
446
  8
OBJECT
 10
1.419355999999999
 20
17.475581999999999
 30
0.0
 11
1.419355999999999
 21
17.660582000000002
 31
0.0
  0
ARC
  5
447
  8
OBJECT
 10
1.1843559999999991
 20
17.119323000000001
 30
0.0
 40
0.015
 50
180.0
 51
269.5
  0
DIMENSION
  5
448
  8
DIM
  2
*D47
 10
3.0843560000000001
 20
17.022082000000001
 30
0.0
 11
3.084355999999997
 21
18.522082000000001
 31
0.0
 70
     0
  1
<>
 13
2.4818560000000001
 23
20.022082000000001
 33
0.0
 14
2.4818560000000001
 24
17.022082000000001
 34
0.0
 50
270.0
  0
LINE
  5
456
  8
OBJECT
 10
2.4723559999999991
 20
20.022082000000001
 30
0.0
 11
2.4723559999999991
 21
17.022082000000001
 31
0.0
  0
LINE
  5
457
  8
HIDDEN
 10
2.4123559999999991
 20
19.605564000000001
 30
0.0
 11
2.4123559999999991
 21
19.855564000000001
 31
0.0
  0
LINE
  5
458
  8
HIDDEN
 10
1.912229
 20
19.777564000000002
 30
0.0
 11
1.912229
 21
19.683564000000001
 31
0.0
  0
LINE
  5
459
  8
HIDDEN
 10
2.4123559999999991
 20
19.777564000000002
 30
0.0
 11
1.912229
 21
19.777564000000002
 31
0.0
  0
LINE
  5
45A
  8
HIDDEN
 10
2.3523559999999999
 20
19.856086999999999
 30
0.0
 11
2.3523559999999999
 21
19.950035
 31
0.0
  0
LINE
  5
45B
  8
HIDDEN
 10
2.4123559999999991
 20
19.683564000000001
 30
0.0
 11
1.912229
 21
19.683564000000001
 31
0.0
  0
LINE
  5
45C
  8
HIDDEN
 10
2.4123559999999991
 20
17.360600000000002
 30
0.0
 11
1.912229
 21
17.360600000000002
 31
0.0
  0
LINE
  5
45D
  8
HIDDEN
 10
2.4123559999999991
 20
17.2666
 30
0.0
 11
1.912229
 21
17.2666
 31
0.0
  0
LINE
  5
45E
  8
HIDDEN
 10
1.912229
 20
17.2666
 30
0.0
 11
1.912229
 21
17.360600000000002
 31
0.0
  0
LINE
  5
45F
  8
OBJECT
 10
2.4123559999999991
 20
17.438600000000001
 30
0.0
 11
2.4123559999999991
 21
17.188600000000001
 31
0.0
  0
LINE
  5
460
  8
OBJECT
 10
2.3523559999999999
 20
17.188075999999999
 30
0.0
 11
2.3523559999999999
 21
17.094128999999999
 31
0.0
  0
DIMENSION
  5
461
  8
DIM
  2
*D48
 10
2.4723559999999991
 20
16.449435000000001
 30
0.0
 11
1.820856
 21
16.449435000000001
 31
0.0
 70
     0
 13
1.169355999999999
 23
17.119323000000001
 33
0.0
 14
2.4723559999999991
 24
17.022082000000001
 34
0.0
  0
DIMENSION
  5
46F
  8
DIM
  2
*D49
 10
2.4723559999999991
 20
16.027934999999989
 30
0.0
 11
1.7848559999999991
 21
16.027934999999989
 31
0.0
 70
     0
 13
1.0973559999999991
 23
17.114391999999999
 33
0.0
 14
2.4723559999999991
 24
17.022082000000001
 34
0.0
  0
DIMENSION
  5
47D
  8
DIM
  2
*D50
 10
0.5573560000000001
 20
16.989435
 30
0.0
 11
0.5573559999999974
 21
18.522082000000001
 31
0.0
 70
     0
 13
1.1598559999999991
 23
20.054728999999998
 33
0.0
 14
1.1598559999999991
 24
16.989435
 34
0.0
 50
90.0
  0
POLYLINE
  5
48B
  8
OBJECT
 66
     1
 10
0.0
 20
0.0
 30
0.0
 70
     1
  0
VERTEX
  5
AF1
  8
OBJECT
 10
8.2572170000000007
 20
20.054770999999992
 30
0.0
 42
0.4142140000000001
  0
VERTEX
  5
AF2
  8
OBJECT
 10
8.0072170000000007
 20
19.804770999999992
 30
0.0
  0
VERTEX
  5
AF3
  8
OBJECT
 10
8.0072170000000007
 20
17.239391999999999
 30
0.0
 42
0.4142140000000001
  0
VERTEX
  5
AF4
  8
OBJECT
 10
8.2572170000000007
 20
16.989391999999999
 30
0.0
  0
VERTEX
  5
AF5
  8
OBJECT
 10
12.072596000000001
 20
16.989391999999999
 30
0.0
 42
0.4142140000000001
  0
VERTEX
  5
AF6
  8
OBJECT
 10
12.322596000000001
 20
17.239391999999999
 30
0.0
  0
VERTEX
  5
AF7
  8
OBJECT
 10
12.322596000000001
 20
19.804770999999992
 30
0.0
 42
0.4142140000000001
  0
VERTEX
  5
AF8
  8
OBJECT
 10
12.072596000000001
 20
20.054770999999992
 30
0.0
  0
SEQEND
  5
AF9
  8
OBJECT
  0
DIMENSION
  5
495
  8
DIM
  2
*D51
 10
8.5859059999999996
 20
20.594729000000001
 30
0.0
 11
9.3754059999999981
 21
20.594729000000001
 31
0.0
 70
     0
 13
10.164906
 23
20.304770999999999
 33
0.0
 14
8.5859059999999996
 24
19.568082
 34
0.0
  0
DIMENSION
  5
4A3
  8
DIM
  2
*D52
 10
8.5859059999999996
 20
21.016228999999999
 30
0.0
 11
10.16490599999999
 21
21.016228999999999
 31
0.0
 70
     0
 13
11.74390599999999
 23
19.568082
 33
0.0
 14
8.5859059999999996
 24
19.568082
 34
0.0
  0
LINE
  5
4B1
  8
CENTER
 10
8.2414240000000003
 20
17.316082000000002
 30
0.0
 11
8.421424
 21
17.316082000000002
 31
0.0
  0
LINE
  5
4B2
  8
CENTER
 10
8.3314240000000002
 20
17.226082000000002
 30
0.0
 11
8.3314240000000002
 21
17.406082000000001
 31
0.0
  0
LINE
  5
4B3
  8
CENTER
 10
8.4959059999999997
 20
17.566082000000002
 30
0.0
 11
8.6759059999999995
 21
17.566082000000002
 31
0.0
  0
LINE
  5
4B4
  8
CENTER
 10
8.5859059999999996
 20
17.476082000000002
 30
0.0
 11
8.5859059999999996
 21
17.656082000000001
 31
0.0
  0
LINE
  5
4B5
  8
CENTER
 10
8.4959059999999997
 20
19.478082000000001
 30
0.0
 11
8.6759059999999995
 21
19.478082000000001
 31
0.0
  0
LINE
  5
4B6
  8
CENTER
 10
8.5859059999999996
 20
19.388082000000001
 30
0.0
 11
8.5859059999999996
 21
19.568082
 31
0.0
  0
LINE
  5
4B7
  8
CENTER
 10
11.908388
 20
19.728082000000001
 30
0.0
 11
12.088388
 21
19.728082000000001
 31
0.0
  0
LINE
  5
4B8
  8
CENTER
 10
11.99838799999999
 20
19.638082000000001
 30
0.0
 11
11.99838799999999
 21
19.818082
 31
0.0
  0
LINE
  5
4B9
  8
CENTER
 10
11.653905999999999
 20
19.478082000000001
 30
0.0
 11
11.83390599999999
 21
19.478082000000001
 31
0.0
  0
LINE
  5
4BA
  8
CENTER
 10
11.74390599999999
 20
19.388082000000001
 30
0.0
 11
11.74390599999999
 21
19.568082
 31
0.0
  0
LINE
  5
4BB
  8
CENTER
 10
11.653905999999999
 20
17.566082000000002
 30
0.0
 11
11.83390599999999
 21
17.566082000000002
 31
0.0
  0
LINE
  5
4BC
  8
CENTER
 10
11.74390599999999
 20
17.476082000000002
 30
0.0
 11
11.74390599999999
 21
17.656082000000001
 31
0.0
  0
LINE
  5
4BD
  8
CENTER
 10
11.908388
 20
17.316082000000002
 30
0.0
 11
12.088388
 21
17.316082000000002
 31
0.0
  0
LINE
  5
4BE
  8
CENTER
 10
11.99838799999999
 20
17.226082000000002
 30
0.0
 11
11.99838799999999
 21
17.406082000000001
 31
0.0
  0
INSERT
  5
4BF
  8
CENTER
  2
CTRLN
 10
10.164906
 20
17.700457
 30
0.0
 41
0.375
 42
0.375
 43
0.375
  0
POLYLINE
  5
4C0
  8
DIM
 66
     1
 10
0.0
 20
0.0
 30
0.0
 41
0.10125
  0
VERTEX
  5
AFA
  8
DIM
 10
11.768307
 20
19.518250999999989
 30
0.0
  0
VERTEX
  5
AFB
  8
DIM
 10
11.908483999999991
 20
19.749012
 30
0.0
 41
0.0
  0
VERTEX
  5
AFC
  8
DIM
 10
12.355653
 20
20.485149
 30
0.0
 41
0.0
  0
VERTEX
  5
AFD
  8
DIM
 10
12.625653
 20
20.485149
 30
0.0
 41
0.0
  0
SEQEND
  5
AFE
  8
DIM
  0
TEXT
  5
4C6
  8
DIM
 10
12.760652999999991
 20
20.391398999999989
 30
0.0
 40
0.1875
  1
0.094 DIA. HOLE
 41
0.75
  7
TXT
 11
12.760652999999991
 21
20.485149
 31
0.0
 73
     2
  0
TEXT
  5
4C7
  8
DIM
 10
12.760652999999991
 20
20.078898999999989
 30
0.0
 40
0.1875
  1
x 0.250 DEEP
 41
0.75
  7
TXT
 11
12.760652999999991
 21
20.172649
 31
0.0
 73
     2
  0
TEXT
  5
4C8
  8
DIM
 10
12.760652999999991
 20
19.766399
 30
0.0
 40
0.1875
  1
(4) PLACES
 41
0.75
  7
TXT
 11
12.760652999999991
 21
19.860148999999989
 31
0.0
 73
     2
  0
TEXT
  5
4C9
  8
DIM
 10
6.2799119999999986
 20
20.117787
 30
0.0
 40
0.1875
  1
(4) PLACES
 41
0.75
  7
TXT
 72
     2
 11
7.5455369999999986
 21
20.211537
 31
0.0
 73
     2
  0
TEXT
  5
4CA
  8
DIM
 10
5.7877244999999986
 20
20.430287
 30
0.0
 40
0.1875
  1
0.187 DIA. BOSS
 41
0.75
  7
TXT
 72
     2
 11
7.5455369999999986
 21
20.524037
 31
0.0
 73
     2
  0
POLYLINE
  5
4CB
  8
DIM
 66
     1
 10
0.0
 20
0.0
 30
0.0
 41
0.10125
  0
VERTEX
  5
AFF
  8
DIM
 10
8.5378830000000008
 20
19.557138999999999
 30
0.0
  0
VERTEX
  5
B00
  8
DIM
 10
8.3977059999999994
 20
19.7879
 30
0.0
 41
0.0
  0
VERTEX
  5
B01
  8
DIM
 10
7.9505369999999989
 20
20.524037
 30
0.0
 41
0.0
  0
VERTEX
  5
B02
  8
DIM
 10
7.6805369999999993
 20
20.524037
 30
0.0
 41
0.0
  0
SEQEND
  5
B03
  8
DIM
  0
TEXT
  5
4D3
  8
DIM
 10
22.066257
 20
17.258729999999989
 30
0.0
 40
0.125
  1

  0
TEXT
  5
4D4
  8
DIM
 10
22.129403
 20
25.407405000000001
 30
0.0
 40
0.125
  1

  0
TEXT
  5
4D5
  8
0
  6
CONTINUOUS
 62
     1
 10
40.631578999999988
 20
14.293817999999989
 30
0.0
 40
0.0625
  1

  7
ROMANS
  0
TEXT
  5
4D6
  8
0
  6
CONTINUOUS
 62
     1
 10
40.631578999999988
 20
13.990247
 30
0.0
 40
0.0625
  1

  7
ROMANS
  0
TEXT
  5
4D7
  8
0
  6
CONTINUOUS
 62
     1
 10
24.036473999999998
 20
24.494893999999999
 30
0.0
 40
0.0625
  1

  7
ROMANS
  0
TEXT
  5
4D8
  8
0
  6
CONTINUOUS
 62
     1
 10
24.036473999999998
 20
24.191323000000001
 30
0.0
 40
0.0625
  1

  7
ROMANS
  0
CIRCLE
  5
4D9
  8
OBJECT
 10
11.99840599999999
 20
19.728082000000001
 30
0.0
 40
0.0625
  0
CIRCLE
  5
4DA
  8
HIDDEN
 10
11.99840599999999
 20
19.728082000000001
 30
0.0
 40
0.123
  0
CIRCLE
  5
4DB
  8
OBJECT
 10
11.99840599999999
 20
19.728082000000001
 30
0.0
 40
0.1125
  0
CIRCLE
  5
4DC
  8
HIDDEN
 10
11.99840599999999
 20
17.316082000000002
 30
0.0
 40
0.123
  0
CIRCLE
  5
4DD
  8
OBJECT
 10
11.99840599999999
 20
17.316082000000002
 30
0.0
 40
0.1125
  0
CIRCLE
  5
4DE
  8
OBJECT
 10
11.99840599999999
 20
17.316082000000002
 30
0.0
 40
0.0625
  0
LINE
  5
4DF
  8
OBJECT
 10
8.1024060000000002
 20
15.050148
 30
0.0
 11
12.227406
 21
15.050148
 31
0.0
  0
LINE
  5
4E0
  8
HIDDEN
 10
8.4544060000000005
 20
14.915148
 30
0.0
 11
8.4544060000000005
 21
14.978147999999999
 31
0.0
  0
LINE
  5
4E1
  8
HIDDEN
 10
8.2084060000000001
 20
14.915148
 30
0.0
 11
8.2084060000000001
 21
14.978147999999999
 31
0.0
  0
LINE
  5
4E2
  8
HIDDEN
 10
8.3939059999999994
 20
14.915148
 30
0.0
 11
8.3939059999999994
 21
14.961629
 31
0.0
  0
LINE
  5
4E3
  8
HIDDEN
 10
8.2689059999999994
 20
14.915148
 30
0.0
 11
8.2689059999999994
 21
14.961629
 31
0.0
  0
LINE
  5
4E4
  8
HIDDEN
 10
8.4439060000000001
 20
15.019147999999999
 30
0.0
 11
8.4439060000000001
 21
15.050148
 31
0.0
  0
LINE
  5
4E5
  8
HIDDEN
 10
8.2189060000000005
 20
15.019147999999999
 30
0.0
 11
8.2189060000000005
 21
15.050148
 31
0.0
  0
LINE
  5
4E6
  8
HIDDEN
 10
8.2189060000000005
 20
15.019147999999999
 30
0.0
 11
8.4439060000000001
 21
15.019147999999999
 31
0.0
  0
LINE
  5
4E7
  8
HIDDEN
 10
8.4439060000000001
 20
15.019147999999999
 30
0.0
 11
8.3939059999999994
 21
14.961629
 31
0.0
  0
LINE
  5
4E8
  8
HIDDEN
 10
8.2189060000000005
 20
15.019147999999999
 30
0.0
 11
8.2689059999999994
 21
14.961629
 31
0.0
  0
LINE
  5
4E9
  8
HIDDEN
 10
8.3939059999999994
 20
14.961629
 30
0.0
 11
8.2689059999999994
 21
14.961629
 31
0.0
  0
LINE
  5
4EA
  8
HIDDEN
 10
10.825341999999999
 20
14.915148
 30
0.0
 11
12.207905999999991
 21
14.915148
 31
0.0
  0
POLYLINE
  5
4EB
  8
OBJECT
 66
     1
 10
0.0
 20
0.0
 30
0.0
 70
     1
  0
VERTEX
  5
B04
  8
OBJECT
 10
12.086781
 20
20.022082000000001
 30
0.0
  0
VERTEX
  5
B05
  8
OBJECT
 10
8.2430310000000002
 20
20.022082000000001
 30
0.0
 42
0.4142140000000001
  0
VERTEX
  5
B06
  8
OBJECT
 10
8.0399060000000002
 20
19.818957000000001
 30
0.0
  0
VERTEX
  5
B07
  8
OBJECT
 10
8.0399060000000002
 20
17.225207000000001
 30
0.0
 42
0.4142140000000001
  0
VERTEX
  5
B08
  8
OBJECT
 10
8.2430310000000002
 20
17.022082000000001
 30
0.0
  0
VERTEX
  5
B09
  8
OBJECT
 10
12.086781
 20
17.022082000000001
 30
0.0
 42
0.4142140000000001
  0
VERTEX
  5
B0A
  8
OBJECT
 10
12.289906
 20
17.225207000000001
 30
0.0
  0
VERTEX
  5
B0B
  8
OBJECT
 10
12.289906
 20
19.818957000000001
 30
0.0
 42
0.4142140000000001
  0
SEQEND
  5
B0C
  8
OBJECT
  0
LINE
  5
4F5
  8
OBJECT
 10
8.1219059999999992
 20
14.978147999999999
 30
0.0
 11
8.1219059999999992
 21
14.915148
 31
0.0
  0
LINE
  5
4F6
  8
HIDDEN
 10
8.1849059999999998
 20
14.978147999999999
 30
0.0
 11
8.1849059999999998
 21
14.915148
 31
0.0
  0
LINE
  5
4F7
  8
HIDDEN
 10
12.207905999999991
 20
14.978147999999999
 30
0.0
 11
12.207905999999991
 21
14.915148
 31
0.0
  0
LINE
  5
4F8
  8
HIDDEN
 10
11.935905999999999
 20
14.915148
 30
0.0
 11
11.935905999999999
 21
14.961629
 31
0.0
  0
LINE
  5
4F9
  8
HIDDEN
 10
12.060905999999999
 20
14.915148
 30
0.0
 11
12.060905999999999
 21
14.961629
 31
0.0
  0
LINE
  5
4FA
  8
HIDDEN
 10
12.144906000000001
 20
14.978147999999999
 30
0.0
 11
12.144906000000001
 21
14.915148
 31
0.0
  0
LINE
  5
4FB
  8
HIDDEN
 10
12.121406
 20
14.915148
 30
0.0
 11
12.121406
 21
14.978147999999999
 31
0.0
  0
LINE
  5
4FC
  8
HIDDEN
 10
11.875405999999989
 20
14.915148
 30
0.0
 11
11.875405999999989
 21
14.978147999999999
 31
0.0
  0
LINE
  5
4FD
  8
HIDDEN
 10
12.110906
 20
15.019147999999999
 30
0.0
 11
11.885906
 21
15.019147999999999
 31
0.0
  0
LINE
  5
4FE
  8
HIDDEN
 10
11.935905999999999
 20
14.961629
 30
0.0
 11
12.060905999999999
 21
14.961629
 31
0.0
  0
LINE
  5
4FF
  8
HIDDEN
 10
12.110906
 20
15.019147999999999
 30
0.0
 11
12.110906
 21
15.050148
 31
0.0
  0
LINE
  5
500
  8
HIDDEN
 10
12.110906
 20
15.019147999999999
 30
0.0
 11
12.060905999999999
 21
14.961629
 31
0.0
  0
LINE
  5
501
  8
HIDDEN
 10
11.885906
 20
15.019147999999999
 30
0.0
 11
11.885906
 21
15.050148
 31
0.0
  0
LINE
  5
502
  8
HIDDEN
 10
11.885906
 20
15.019147999999999
 30
0.0
 11
11.935905999999999
 21
14.961629
 31
0.0
  0
LINE
  5
503
  8
OBJECT
 10
2.5443560000000001
 20
19.959582000000001
 30
0.0
 11
2.5443560000000001
 21
17.084582000000001
 31
0.0
  0
LINE
  5
504
  8
HIDDEN
 10
2.4093559999999998
 20
19.940082
 30
0.0
 11
2.4093559999999998
 21
19.125465999999989
 31
0.0
  0
LINE
  5
505
  8
HIDDEN
 10
2.4723559999999991
 20
19.940082
 30
0.0
 11
2.4093559999999998
 21
19.940082
 31
0.0
  0
LINE
  5
506
  8
HIDDEN
 10
2.513355999999999
 20
19.840582000000001
 30
0.0
 11
2.513355999999999
 21
19.615581999999989
 31
0.0
  0
LINE
  5
507
  8
HIDDEN
 10
2.4558379999999991
 20
19.665582000000001
 30
0.0
 11
2.4558379999999991
 21
19.790582000000001
 31
0.0
  0
LINE
  5
508
  8
HIDDEN
 10
2.513355999999999
 20
19.840582000000001
 30
0.0
 11
2.4558379999999991
 21
19.790582000000001
 31
0.0
  0
LINE
  5
509
  8
HIDDEN
 10
2.4723559999999991
 20
19.877082000000001
 30
0.0
 11
2.4093559999999998
 21
19.877082000000001
 31
0.0
  0
LINE
  5
50A
  8
HIDDEN
 10
2.4093559999999998
 20
19.851082000000002
 30
0.0
 11
2.4723559999999991
 21
19.851082000000002
 31
0.0
  0
LINE
  5
50B
  8
HIDDEN
 10
2.513355999999999
 20
19.840582000000001
 30
0.0
 11
2.5443560000000001
 21
19.840582000000001
 31
0.0
  0
LINE
  5
50C
  8
HIDDEN
 10
2.4093559999999998
 20
19.790582000000001
 30
0.0
 11
2.4558379999999991
 21
19.790582000000001
 31
0.0
  0
LINE
  5
50D
  8
HIDDEN
 10
2.513355999999999
 20
19.615581999999989
 30
0.0
 11
2.4558379999999991
 21
19.665582000000001
 31
0.0
  0
LINE
  5
50E
  8
HIDDEN
 10
2.4093559999999998
 20
19.605081999999989
 30
0.0
 11
2.4723559999999991
 21
19.605081999999989
 31
0.0
  0
LINE
  5
50F
  8
HIDDEN
 10
2.513355999999999
 20
19.615581999999989
 30
0.0
 11
2.5443560000000001
 21
19.615581999999989
 31
0.0
  0
LINE
  5
510
  8
HIDDEN
 10
2.4093559999999998
 20
19.665582000000001
 30
0.0
 11
2.4558379999999991
 21
19.665582000000001
 31
0.0
  0
LINE
  5
511
  8
HIDDEN
 10
2.4558379999999991
 20
17.378582000000002
 30
0.0
 11
2.4558379999999991
 21
17.253582000000002
 31
0.0
  0
LINE
  5
512
  8
HIDDEN
 10
2.513355999999999
 20
17.203582000000001
 30
0.0
 11
2.513355999999999
 21
17.428581999999999
 31
0.0
  0
LINE
  5
513
  8
HIDDEN
 10
2.513355999999999
 20
17.428581999999999
 30
0.0
 11
2.4558379999999991
 21
17.378582000000002
 31
0.0
  0
LINE
  5
514
  8
HIDDEN
 10
2.4093559999999998
 20
17.439081999999988
 30
0.0
 11
2.4723559999999991
 21
17.439081999999988
 31
0.0
  0
LINE
  5
515
  8
HIDDEN
 10
2.513355999999999
 20
17.428581999999999
 30
0.0
 11
2.5443560000000001
 21
17.428581999999999
 31
0.0
  0
LINE
  5
516
  8
HIDDEN
 10
2.4093559999999998
 20
17.378582000000002
 30
0.0
 11
2.4558379999999991
 21
17.378582000000002
 31
0.0
  0
LINE
  5
517
  8
HIDDEN
 10
2.513355999999999
 20
17.203582000000001
 30
0.0
 11
2.4558379999999991
 21
17.253582000000002
 31
0.0
  0
LINE
  5
518
  8
HIDDEN
 10
2.4093559999999998
 20
17.193082
 30
0.0
 11
2.4723559999999991
 21
17.193082
 31
0.0
  0
LINE
  5
519
  8
HIDDEN
 10
2.4723559999999991
 20
17.167082000000001
 30
0.0
 11
2.4093559999999998
 21
17.167082000000001
 31
0.0
  0
LINE
  5
51A
  8
HIDDEN
 10
2.513355999999999
 20
17.203582000000001
 30
0.0
 11
2.5443560000000001
 21
17.203582000000001
 31
0.0
  0
LINE
  5
51B
  8
HIDDEN
 10
2.4093559999999998
 20
17.253582000000002
 30
0.0
 11
2.4558379999999991
 21
17.253582000000002
 31
0.0
  0
LINE
  5
51C
  8
OBJECT
 10
2.4723559999999991
 20
17.104081999999998
 30
0.0
 11
2.4093559999999998
 21
17.104081999999998
 31
0.0
  0
LINE
  5
51D
  8
OBJECT
 10
2.4723559999999991
 20
17.022082000000001
 30
0.0
 11
2.4818560000000001
 21
17.022082000000001
 31
0.0
  0
ARC
  5
51E
  8
OBJECT
 10
2.4818560000000001
 20
17.084582000000001
 30
0.0
 40
0.0625
 50
270.0
 51
0.0
  0
LINE
  5
51F
  8
OBJECT
 10
2.4723559999999991
 20
20.022082000000001
 30
0.0
 11
2.4818560000000001
 21
20.022082000000001
 31
0.0
  0
ARC
  5
520
  8
OBJECT
 10
2.4818560000000001
 20
19.959582000000001
 30
0.0
 40
0.0625
 50
0.0
 51
90.0
  0
LINE
  5
521
  8
OBJECT
 10
8.0399060000000002
 20
14.978147999999999
 30
0.0
 11
8.0399060000000002
 21
14.987648
 31
0.0
  0
ARC
  5
522
  8
OBJECT
 10
8.1024060000000002
 20
14.987648
 30
0.0
 40
0.0625
 50
90.0
 51
180.0
  0
LINE
  5
523
  8
OBJECT
 10
12.289906
 20
14.978147999999999
 30
0.0
 11
12.289906
 21
14.987648
 31
0.0
  0
ARC
  5
524
  8
OBJECT
 10
12.227406
 20
14.987648
 30
0.0
 40
0.0625
 50
0.0
 51
90.0
  0
TEXT
  5
527
  8
DIM
 10
22.066257
 20
17.258729999999989
 30
0.0
 40
0.125
  1

  0
TEXT
  5
528
  8
DIM
 10
22.129403
 20
25.407405000000001
 30
0.0
 40
0.125
  1

  0
TEXT
  5
529
  8
0
  6
CONTINUOUS
 62
     1
 10
40.631578999999988
 20
14.293817999999989
 30
0.0
 40
0.0625
  1

  7
ROMANS
  0
TEXT
  5
52A
  8
0
  6
CONTINUOUS
 62
     1
 10
40.631578999999988
 20
13.990247
 30
0.0
 40
0.0625
  1

  7
ROMANS
  0
LINE
  5
52B
  8
OBJECT
 10
12.197596000000001
 20
13.603147999999999
 30
0.0
 11
8.1322170000000007
 21
13.603147999999999
 31
0.0
  0
LINE
  5
52C
  8
HIDDEN
 10
12.192665
 20
13.675148
 30
0.0
 11
10.867786000000001
 21
13.675148
 31
0.0
  0
ARC
  5
52D
  8
OBJECT
 10
10.164906
 20
13.581398
 30
0.0
 40
0.15625
 50
36.869897999999999
 51
143.13010199999999
  0
LINE
  5
52E
  8
CENTER
 10
7.9429059999999989
 20
18.522082000000001
 30
0.0
 11
12.386905999999991
 21
18.522082000000001
 31
0.0
  0
TEXT
  5
531
  8
DIM
 10
22.066257
 20
27.378730000000001
 30
0.0
 40
0.125
  1

  0
TEXT
  5
532
  8
DIM
 10
22.129403
 20
35.527405000000002
 30
0.0
 40
0.125
  1

  0
TEXT
  5
533
  8
0
  6
CONTINUOUS
 62
     1
 10
40.631578999999988
 20
24.413817999999999
 30
0.0
 40
0.0625
  1

  7
ROMANS
  0
TEXT
  5
534
  8
0
  6
CONTINUOUS
 62
     1
 10
40.631578999999988
 20
24.110247000000001
 30
0.0
 40
0.0625
  1

  7
ROMANS
  0
TEXT
  5
535
  8
0
  6
CONTINUOUS
 62
     1
 10
24.036473999999998
 20
34.614894
 30
0.0
 40
0.0625
  1

  7
ROMANS
  0
TEXT
  5
536
  8
0
  6
CONTINUOUS
 62
     1
 10
24.036473999999998
 20
34.311323000000002
 30
0.0
 40
0.0625
  1

  7
ROMANS
  0
LINE
  5
537
  8
OBJECT
 10
8.4934060000000002
 20
13.925148
 30
0.0
 11
8.6784059999999972
 21
13.925148
 31
0.0
  0
LINE
  5
538
  8
HIDDEN
 10
8.6329060000000002
 20
13.925148
 30
0.0
 11
8.6329060000000002
 21
13.675148
 31
0.0
  0
LINE
  5
539
  8
HIDDEN
 10
8.5389059999999972
 20
13.925148
 30
0.0
 11
8.5389059999999972
 21
13.675148
 31
0.0
  0
LINE
  5
53A
  8
OBJECT
 10
8.1109059999999982
 20
14.978147999999999
 30
0.0
 11
8.1221479999999993
 21
13.690016999999999
 31
0.0
  0
LINE
  5
53B
  8
OBJECT
 10
8.2064240000000002
 20
14.918148
 30
0.0
 11
8.1955770000000001
 21
13.675148
 31
0.0
  0
LINE
  5
53C
  8
OBJECT
 10
8.4934060000000002
 20
13.925148
 30
0.0
 11
8.4912960000000002
 21
13.675148
 31
0.0
  0
LINE
  5
53D
  8
OBJECT
 10
8.4564240000000002
 20
14.918148
 30
0.0
 11
8.4672719999999995
 21
13.675148
 31
0.0
  0
LINE
  5
53E
  8
OBJECT
 10
8.6784059999999972
 20
13.925148
 30
0.0
 11
8.6805160000000008
 21
13.675148
 31
0.0
  0
ARC
  5
53F
  8
OBJECT
 10
8.1371470000000006
 20
13.690148000000001
 30
0.0
 40
0.015
 50
180.49999999999989
 51
270.0
  0
LINE
  5
540
  8
HIDDEN
 10
12.218906
 20
14.978147999999999
 30
0.0
 11
12.20766499999999
 21
13.690016999999999
 31
0.0
  0
LINE
  5
541
  8
HIDDEN
 10
12.123388
 20
14.918148
 30
0.0
 11
12.134236
 21
13.675148
 31
0.0
  0
LINE
  5
542
  8
HIDDEN
 10
11.873388
 20
14.918148
 30
0.0
 11
11.86254099999999
 21
13.675148
 31
0.0
  0
LINE
  5
543
  8
HIDDEN
 10
11.836406
 20
13.925148
 30
0.0
 11
11.838516
 21
13.675148
 31
0.0
  0
LINE
  5
544
  8
HIDDEN
 10
11.651405999999991
 20
13.925148
 30
0.0
 11
11.649296
 21
13.675148
 31
0.0
  0
LINE
  5
545
  8
HIDDEN
 10
11.790906
 20
13.925148
 30
0.0
 11
11.790906
 21
13.675148
 31
0.0
  0
LINE
  5
546
  8
HIDDEN
 10
11.696906
 20
13.925148
 30
0.0
 11
11.696906
 21
13.675148
 31
0.0
  0
LINE
  5
547
  8
HIDDEN
 10
11.836406
 20
13.925148
 30
0.0
 11
11.651405999999991
 21
13.925148
 31
0.0
  0
ARC
  5
548
  8
HIDDEN
 10
12.192665
 20
13.690148000000001
 30
0.0
 40
0.015
 50
270.0
 51
359.5
  0
LINE
  5
549
  8
OBJECT
 10
1.0973559999999991
 20
17.114391999999999
 30
0.0
 11
1.0973559999999991
 21
19.929770999999999
 31
0.0
  0
ARC
  5
54A
  8
HIDDEN
 10
1.1843559999999991
 20
19.924841000000001
 30
0.0
 40
0.015
 50
90.5
 51
180.0
  0
ARC
  5
54B
  8
OBJECT
 10
1.1843559999999991
 20
17.119323000000001
 30
0.0
 40
0.015
 50
180.0
 51
269.5
  0
LINE
  5
54C
  8
OBJECT
 10
12.289906
 20
14.978147999999999
 30
0.0
 11
12.32277
 21
13.723148
 31
0.0
  0
DIMENSION
  5
54D
  8
DIM
  2
*D53
 10
8.0070429999999995
 20
13.063147999999989
 30
0.0
 11
10.164906500000001
 21
13.063147999999989
 31
0.0
 70
     0
 13
12.32277
 23
13.723148
 33
0.0
 14
8.0070429999999995
 24
13.723148
 34
0.0
  0
LINE
  5
55B
  8
OBJECT
 10
8.0399060000000002
 20
14.978147999999999
 30
0.0
 11
8.0070429999999995
 21
13.723148
 31
0.0
  0
LINE
  5
55C
  8
OBJECT
 10
2.4723559999999991
 20
17.022082000000001
 30
0.0
 11
1.2256279999999999
 21
16.989435
 31
0.0
  0
LINE
  5
55D
  8
OBJECT
 10
2.4723559999999991
 20
20.022082000000001
 30
0.0
 11
1.2256279999999999
 21
20.054728999999998
 31
0.0
  0
DIMENSION
  5
55E
  8
DIM
  2
*D54
 10
13.329905999999999
 20
17.566082000000002
 30
0.0
 11
13.32990599999999
 21
18.044082
 31
0.0
 70
     0
 13
12.629906
 23
18.522082000000001
 33
0.0
 14
11.83390599999999
 24
17.566082000000002
 34
0.0
 50
90.0
  0
DIMENSION
  5
56C
  8
DIM
  2
*D55
 10
14.172905999999999
 20
19.478082000000001
 30
0.0
 11
14.17290599999999
 21
18.522082000000001
 31
0.0
 70
     0
 13
11.83390599999999
 23
17.566082000000002
 33
0.0
 14
11.83390599999999
 24
19.478082000000001
 34
0.0
 50
90.0
  0
INSERT
  5
57A
  8
CENTER
  2
CTRLN
 10
9.3466470000000008
 20
18.522082000000001
 30
0.0
 41
0.375
 42
0.375
 43
0.375
  0
DIMENSION
  5
57B
  8
DIM
  2
*D56
 10
8.7962830000000007
 20
13.925148
 30
0.0
 11
9.3782829999999962
 21
13.800148
 31
0.0
 70
     0
 13
8.7962830000000007
 23
13.675148
 33
0.0
 14
8.6784059999999972
 24
13.925148
 34
0.0
 50
90.0
  0
LINE
  5
589
  8
BEND
 10
12.789906
 20
13.723148
 30
0.0
 11
12.789906
 21
13.665647999999999
 31
0.0
  0
LINE
  5
58A
  8
BEND
 10
7.5399059999999993
 20
13.723148
 30
0.0
 11
7.5399059999999993
 21
13.665647999999999
 31
0.0
  0
LINE
  5
58B
  8
BEND
 10
12.789906
 20
13.723148
 30
0.0
 11
10.814569000000001
 21
13.723148
 31
0.0
  0
ARC
  5
58C
  8
BEND
 10
12.727406
 20
13.665647999999999
 30
0.0
 40
0.0625
 50
270.0
 51
0.0
  0
ARC
  5
58D
  8
BEND
 10
7.6024059999999993
 20
13.665647999999999
 30
0.0
 40
0.0625
 50
180.0
 51
270.0
  0
DIMENSION
  5
58E
  8
DIM
  2
*D57
 10
13.329905999999999
 20
13.723148
 30
0.0
 11
13.911905999999989
 21
13.663148
 31
0.0
 70
     0
 13
12.727406
 23
13.603147999999999
 33
0.0
 14
12.789906
 24
13.723148
 34
0.0
 50
90.0
  0
LINE
  5
59C
  8
BEND
 10
1.217355999999999
 20
18.996853999999999
 30
0.0
 11
1.217355999999999
 21
20.054728999999998
 31
0.0
  0
LINE
  5
59D
  8
BEND
 10
1.2256279999999999
 20
20.054728999999998
 30
0.0
 11
1.1598559999999991
 21
20.054728999999998
 31
0.0
  0
LINE
  5
59E
  8
BEND
 10
1.2256279999999999
 20
16.989435
 30
0.0
 11
1.1598559999999991
 21
16.989435
 31
0.0
  0
ARC
  5
59F
  8
BEND
 10
1.1598559999999991
 20
17.051935
 30
0.0
 40
0.0625
 50
180.0
 51
270.0
  0
ARC
  5
5A0
  8
BEND
 10
1.1598559999999991
 20
19.992228999999998
 30
0.0
 40
0.0625
 50
90.0
 51
180.0
  0
DIMENSION
  5
5A1
  8
DIM
  2
*D58
 10
7.5399059999999993
 20
12.641648
 30
0.0
 11
10.164906
 21
12.641648
 31
0.0
 70
     0
 13
12.789906
 23
13.665647999999999
 33
0.0
 14
7.5399059999999993
 24
13.665647999999999
 34
0.0
  0
DIMENSION
  5
5AF
  8
DIM
  2
*D59
 10
7.5399059999999993
 20
13.063147999999989
 30
0.0
 11
7.7734744999999981
 21
12.48114799999999
 31
0.0
 70
     0
 13
8.0070429999999995
 23
13.723148
 33
0.0
 14
7.5399059999999993
 24
13.665647999999999
 34
0.0
  0
TEXT
  5
5BF
  8
DIM
 10
22.066257
 20
27.378730000000001
 30
0.0
 40
0.125
  1

  0
TEXT
  5
5C0
  8
DIM
 10
22.129403
 20
35.527405000000002
 30
0.0
 40
0.125
  1

  0
TEXT
  5
5C1
  8
0
  6
CONTINUOUS
 62
     1
 10
40.631578999999988
 20
24.413817999999999
 30
0.0
 40
0.0625
  1

  7
ROMANS
  0
TEXT
  5
5C2
  8
0
  6
CONTINUOUS
 62
     1
 10
40.631578999999988
 20
24.110247000000001
 30
0.0
 40
0.0625
  1

  7
ROMANS
  0
TEXT
  5
5C5
  8
DIM
 10
22.066257
 20
37.498730000000002
 30
0.0
 40
0.125
  1

  0
TEXT
  5
5C6
  8
DIM
 10
22.129403
 20
45.647404999999999
 30
0.0
 40
0.125
  1

  0
TEXT
  5
5C7
  8
0
  6
CONTINUOUS
 62
     1
 10
40.631578999999988
 20
34.533817999999989
 30
0.0
 40
0.0625
  1

  7
ROMANS
  0
TEXT
  5
5C8
  8
0
  6
CONTINUOUS
 62
     1
 10
40.631578999999988
 20
34.230246999999999
 30
0.0
 40
0.0625
  1

  7
ROMANS
  0
TEXT
  5
5C9
  8
0
  6
CONTINUOUS
 62
     1
 10
24.036473999999998
 20
44.734893999999997
 30
0.0
 40
0.0625
  1

  7
ROMANS
  0
TEXT
  5
5CA
  8
0
  6
CONTINUOUS
 62
     1
 10
24.036473999999998
 20
44.431322999999999
 30
0.0
 40
0.0625
  1

  7
ROMANS
  0
CIRCLE
  5
5CB
  8
BEND
 10
12.539906
 20
18.522082000000001
 30
0.0
 40
0.1015
  0
CIRCLE
  5
5CC
  8
BEND
 10
7.7899059999999993
 20
18.522082000000001
 30
0.0
 40
0.1015
  0
LINE
  5
5CD
  8
CENTER
 10
7.6999059999999986
 20
18.522082000000001
 30
0.0
 11
7.8799060000000001
 21
18.522082000000001
 31
0.0
  0
LINE
  5
5CE
  8
CENTER
 10
7.7899059999999993
 20
18.432082000000001
 30
0.0
 11
7.7899059999999993
 21
18.612082000000001
 31
0.0
  0
LINE
  5
5CF
  8
CENTER
 10
12.449906
 20
18.522082000000001
 30
0.0
 11
12.629906
 21
18.522082000000001
 31
0.0
  0
LINE
  5
5D0
  8
CENTER
 10
12.539906
 20
18.432082000000001
 30
0.0
 11
12.539906
 21
18.612082000000001
 31
0.0
  0
POLYLINE
  5
5D1
  8
DIM
 66
     1
 10
0.0
 20
0.0
 30
0.0
 41
0.10125
  0
VERTEX
  5
B0D
  8
DIM
 10
7.7192229999999986
 20
18.594924999999989
 30
0.0
  0
VERTEX
  5
B0E
  8
DIM
 10
7.5311979999999989
 20
18.788694
 30
0.0
 41
0.0
  0
VERTEX
  5
B0F
  8
DIM
 10
7.0742349999999998
 20
19.259617999999989
 30
0.0
 41
0.0
  0
VERTEX
  5
B10
  8
DIM
 10
6.8042350000000003
 20
19.259617999999989
 30
0.0
 41
0.0
  0
SEQEND
  5
B11
  8
DIM
  0
TEXT
  5
5D7
  8
DIM
 10
5.5911099999999996
 20
19.165868
 30
0.0
 40
0.1875
  1
0.203 DIA.
 41
0.75
  7
TXT
 72
     2
 11
6.6692349999999996
 21
19.259617999999989
 31
0.0
 73
     2
  0
TEXT
  5
5D8
  8
DIM
 10
5.5442349999999996
 20
18.853368
 30
0.0
 40
0.1875
  1
(2) HOLES
 41
0.75
  7
TXT
 72
     2
 11
6.6692349999999996
 21
18.947117999999989
 31
0.0
 73
     2
  0
LINE
  5
5D9
  8
HIDDEN
 10
12.641406
 20
13.723148
 30
0.0
 11
12.641406
 21
13.603147999999999
 31
0.0
  0
LINE
  5
5DA
  8
HIDDEN
 10
12.438406000000001
 20
13.723148
 30
0.0
 11
12.438406000000001
 21
13.603147999999999
 31
0.0
  0
DIMENSION
  5
5DB
  8
DIM
  2
*D60
 10
12.539906
 20
16.027934999999989
 30
0.0
 11
10.164906
 21
16.027934999999989
 31
0.0
 70
     0
 13
7.7899059999999993
 23
18.432082000000001
 33
0.0
 14
12.539906
 24
18.432082000000001
 34
0.0
  0
DIMENSION
  5
5E9
  8
DIM
  2
*D61
 10
10.164906
 20
16.449435000000001
 30
0.0
 11
8.9774060000000002
 21
16.449435000000001
 31
0.0
 70
     0
 13
7.7899059999999993
 23
18.432082000000001
 33
0.0
 14
10.164906
 24
16.739391999999999
 34
0.0
  0
POLYLINE
  5
5F7
  8
BEND
 66
     1
 10
0.0
 20
0.0
 30
0.0
  0
VERTEX
  5
B12
  8
BEND
 10
8.0743779999999994
 20
19.975270999999999
 30
0.0
  0
VERTEX
  5
B13
  8
BEND
 10
7.5566969999999989
 20
19.420124999999992
 30
0.0
 42
0.189856
  0
VERTEX
  5
B14
  8
BEND
 10
7.5399059999999993
 20
19.377500999999999
 30
0.0
  0
VERTEX
  5
B15
  8
BEND
 10
7.5399059999999993
 20
17.666662999999989
 30
0.0
 42
0.189856
  0
VERTEX
  5
B16
  8
BEND
 10
7.5566969999999989
 20
17.624037999999992
 30
0.0
  0
VERTEX
  5
B17
  8
BEND
 10
8.0743779999999994
 20
17.068892999999999
 30
0.0
  0
SEQEND
  5
B18
  8
BEND
  0
POLYLINE
  5
5FF
  8
BEND
 66
     1
 10
0.0
 20
0.0
 30
0.0
  0
VERTEX
  5
B19
  8
BEND
 10
12.255433999999999
 20
17.068892999999999
 30
0.0
  0
VERTEX
  5
B1A
  8
BEND
 10
12.773115999999989
 20
17.624037999999992
 30
0.0
 42
0.189856
  0
VERTEX
  5
B1B
  8
BEND
 10
12.789906
 20
17.666662999999989
 30
0.0
  0
VERTEX
  5
B1C
  8
BEND
 10
12.789906
 20
19.377500999999999
 30
0.0
 42
0.189856
  0
VERTEX
  5
B1D
  8
BEND
 10
12.773115999999989
 20
19.420124999999992
 30
0.0
  0
VERTEX
  5
B1E
  8
BEND
 10
12.255433999999999
 20
19.975270999999999
 30
0.0
  0
SEQEND
  5
B1F
  8
BEND
  0
TEXT
  5
607
  8
DIM
 10
4.4352640000000001
 20
18.162526
 30
0.0
 40
0.1875
  1
OPTIONAL MOUNTING
 41
0.75
 72
     2
 11
6.6852640000000001
 21
18.256275999999989
 31
0.0
 73
     2
  0
TEXT
  5
608
  8
DIM
 10
3.6383890000000001
 20
17.850026
 30
0.0
 40
0.1875
  1
BRACKETS ARE AVAILABLE
 41
0.75
 72
     2
 11
6.6852640000000001
 21
17.943775999999989
 31
0.0
 73
     2
  0
TEXT
  5
609
  8
DIM
 10
3.8258890000000001
 20
17.546462999999999
 30
0.0
 40
0.1875
  1
BY ADDING SUFFIX "-MB"
 41
0.75
 72
     2
 11
6.6852640000000001
 21
17.640212999999999
 31
0.0
 73
     2
  0
TEXT
  5
60A
  8
DIM
 10
3.6383890000000001
 20
17.233962999999999
 30
0.0
 40
0.1875
  1
TO CATALOG PART NUMBER
 41
0.75
 72
     2
 11
6.6852640000000001
 21
17.327712999999999
 31
0.0
 73
     2
  0
POLYLINE
  5
60B
  8
OBJECT
 66
     1
 10
0.0
 20
0.0
 30
0.0
  0
VERTEX
  5
B20
  8
OBJECT
 10
10.66630299999999
 20
20.022082000000001
 30
0.0
  0
VERTEX
  5
B21
  8
OBJECT
 10
10.657959999999999
 20
20.013874000000001
 30
0.0
  0
VERTEX
  5
B22
  8
OBJECT
 10
10.587253999999991
 20
19.899419999999999
 30
0.0
  0
VERTEX
  5
B23
  8
OBJECT
 10
10.572471
 20
19.805765000000001
 30
0.0
  0
VERTEX
  5
B24
  8
OBJECT
 10
10.59956399999999
 20
19.729772000000001
 30
0.0
  0
VERTEX
  5
B25
  8
OBJECT
 10
10.654488000000001
 20
19.668303000000002
 30
0.0
  0
VERTEX
  5
B26
  8
OBJECT
 10
10.723198
 20
19.618220000000001
 30
0.0
  0
VERTEX
  5
B27
  8
OBJECT
 10
10.79164699999999
 20
19.576387
 30
0.0
  0
VERTEX
  5
B28
  8
OBJECT
 10
10.84578999999999
 20
19.539663999999998
 30
0.0
  0
VERTEX
  5
B29
  8
OBJECT
 10
10.87488699999999
 20
19.505385999999991
 30
0.0
  0
VERTEX
  5
B2A
  8
OBJECT
 10
10.88142
 20
19.472771999999999
 30
0.0
  0
VERTEX
  5
B2B
  8
OBJECT
 10
10.87117299999999
 20
19.441510000000001
 30
0.0
  0
VERTEX
  5
B2C
  8
OBJECT
 10
10.849935
 20
19.411290000000001
 30
0.0
  0
VERTEX
  5
B2D
  8
OBJECT
 10
10.823491000000001
 20
19.381802
 30
0.0
  0
VERTEX
  5
B2E
  8
OBJECT
 10
10.797627
 20
19.352734999999999
 30
0.0
  0
VERTEX
  5
B2F
  8
OBJECT
 10
10.778131999999999
 20
19.323778999999998
 30
0.0
  0
VERTEX
  5
B30
  8
OBJECT
 10
10.77079
 20
19.294623999999999
 30
0.0
  0
VERTEX
  5
B31
  8
OBJECT
 10
10.779691
 20
19.265028000000001
 30
0.0
  0
VERTEX
  5
B32
  8
OBJECT
 10
10.80213399999999
 20
19.235027999999989
 30
0.0
  0
VERTEX
  5
B33
  8
OBJECT
 10
10.833721000000001
 20
19.20473299999999
 30
0.0
  0
VERTEX
  5
B34
  8
OBJECT
 10
10.870053
 20
19.174247000000001
 30
0.0
  0
VERTEX
  5
B35
  8
OBJECT
 10
10.906732
 20
19.143678000000001
 30
0.0
  0
VERTEX
  5
B36
  8
OBJECT
 10
10.939360000000001
 20
19.113132999999991
 30
0.0
  0
VERTEX
  5
B37
  8
OBJECT
 10
10.963537999999989
 20
19.082717999999989
 30
0.0
  0
VERTEX
  5
B38
  8
OBJECT
 10
10.974869
 20
19.05254
 30
0.0
  0
VERTEX
  5
B39
  8
OBJECT
 10
10.970411
 20
19.022704999999998
 30
0.0
  0
VERTEX
  5
B3A
  8
OBJECT
 10
10.953060000000001
 20
18.993320000000001
 30
0.0
  0
VERTEX
  5
B3B
  8
OBJECT
 10
10.92717
 20
18.964487999999989
 30
0.0
  0
VERTEX
  5
B3C
  8
OBJECT
 10
10.897092000000001
 20
18.936316999999999
 30
0.0
  0
VERTEX
  5
B3D
  8
OBJECT
 10
10.867179999999999
 20
18.908909999999999
 30
0.0
  0
VERTEX
  5
B3E
  8
OBJECT
 10
10.841787
 20
18.882373999999992
 30
0.0
  0
VERTEX
  5
B3F
  8
OBJECT
 10
10.825265999999999
 20
18.856814
 30
0.0
  0
VERTEX
  5
B40
  8
OBJECT
 10
10.82197
 20
18.832333999999989
 30
0.0
  0
VERTEX
  5
B41
  8
OBJECT
 10
10.834780999999991
 20
18.808917000000001
 30
0.0
  0
VERTEX
  5
B42
  8
OBJECT
 10
10.860689999999989
 20
18.786048999999998
 30
0.0
  0
VERTEX
  5
B43
  8
OBJECT
 10
10.895219000000001
 20
18.763092
 30
0.0
  0
VERTEX
  5
B44
  8
OBJECT
 10
10.933888
 20
18.739408999999998
 30
0.0
  0
VERTEX
  5
B45
  8
OBJECT
 10
10.972217000000001
 20
18.714362000000001
 30
0.0
  0
VERTEX
  5
B46
  8
OBJECT
 10
11.005727
 20
18.687314000000001
 30
0.0
  0
VERTEX
  5
B47
  8
OBJECT
 10
11.029939000000001
 20
18.657627999999988
 30
0.0
  0
VERTEX
  5
B48
  8
OBJECT
 10
11.04037299999999
 20
18.624665
 30
0.0
  0
VERTEX
  5
B49
  8
OBJECT
 10
11.034079
 20
18.588017999999991
 30
0.0
  0
VERTEX
  5
B4A
  8
OBJECT
 10
11.01422
 20
18.548201999999989
 30
0.0
  0
VERTEX
  5
B4B
  8
OBJECT
 10
10.985488
 20
18.505960999999989
 30
0.0
  0
VERTEX
  5
B4C
  8
OBJECT
 10
10.95257799999999
 20
18.462039000000001
 30
0.0
  0
VERTEX
  5
B4D
  8
OBJECT
 10
10.92018
 20
18.417179000000001
 30
0.0
  0
VERTEX
  5
B4E
  8
OBJECT
 10
10.892988000000001
 20
18.372126999999999
 30
0.0
  0
VERTEX
  5
B4F
  8
OBJECT
 10
10.875692999999989
 20
18.327626999999989
 30
0.0
  0
VERTEX
  5
B50
  8
OBJECT
 10
10.87299
 20
18.284423
 30
0.0
  0
VERTEX
  5
B51
  8
OBJECT
 10
10.887967
 20
18.243120000000001
 30
0.0
  0
VERTEX
  5
B52
  8
OBJECT
 10
10.91729799999999
 20
18.203773000000002
 30
0.0
  0
VERTEX
  5
B53
  8
OBJECT
 10
10.956056
 20
18.166297
 30
0.0
  0
VERTEX
  5
B54
  8
OBJECT
 10
10.999312
 20
18.130607000000001
 30
0.0
  0
VERTEX
  5
B55
  8
OBJECT
 10
11.042138
 20
18.096619
 30
0.0
  0
VERTEX
  5
B56
  8
OBJECT
 10
11.079605999999989
 20
18.064249
 30
0.0
  0
VERTEX
  5
B57
  8
OBJECT
 10
11.106788
 20
18.03341099999999
 30
0.0
  0
VERTEX
  5
B58
  8
OBJECT
 10
11.11875399999999
 20
18.004020999999991
 30
0.0
  0
VERTEX
  5
B59
  8
OBJECT
 10
11.112208999999989
 20
17.975967000000001
 30
0.0
  0
VERTEX
  5
B5A
  8
OBJECT
 10
11.090386999999989
 20
17.949021999999999
 30
0.0
  0
VERTEX
  5
B5B
  8
OBJECT
 10
11.058154
 20
17.92292999999999
 30
0.0
  0
VERTEX
  5
B5C
  8
OBJECT
 10
11.02037599999999
 20
17.897437
 30
0.0
  0
VERTEX
  5
B5D
  8
OBJECT
 10
10.981918999999991
 20
17.872288000000001
 30
0.0
  0
VERTEX
  5
B5E
  8
OBJECT
 10
10.947649
 20
17.847227
 30
0.0
  0
VERTEX
  5
B5F
  8
OBJECT
 10
10.922432000000001
 20
17.821999999999999
 30
0.0
  0
VERTEX
  5
B60
  8
OBJECT
 10
10.911134000000001
 20
17.796351999999992
 30
0.0
  0
VERTEX
  5
B61
  8
OBJECT
 10
10.917082000000001
 20
17.770098000000001
 30
0.0
  0
VERTEX
  5
B62
  8
OBJECT
 10
10.937438999999991
 20
17.743337
 30
0.0
  0
VERTEX
  5
B63
  8
OBJECT
 10
10.967829999999999
 20
17.716238000000001
 30
0.0
  0
VERTEX
  5
B64
  8
OBJECT
 10
11.003879
 20
17.688969
 30
0.0
  0
VERTEX
  5
B65
  8
OBJECT
 10
11.041211000000001
 20
17.661701000000001
 30
0.0
  0
VERTEX
  5
B66
  8
OBJECT
 10
11.075449000000001
 20
17.63460199999999
 30
0.0
  0
VERTEX
  5
B67
  8
OBJECT
 10
11.102218999999989
 20
17.607839999999999
 30
0.0
  0
VERTEX
  5
B68
  8
OBJECT
 10
11.117144
 20
17.581585999999991
 30
0.0
  0
VERTEX
  5
B69
  8
OBJECT
 10
11.117338
 20
17.555973999999999
 30
0.0
  0
VERTEX
  5
B6A
  8
OBJECT
 10
11.105867
 20
17.530995999999991
 30
0.0
  0
VERTEX
  5
B6B
  8
OBJECT
 10
11.087287
 20
17.506610999999999
 30
0.0
  0
VERTEX
  5
B6C
  8
OBJECT
 10
11.06615499999999
 20
17.482778
 30
0.0
  0
VERTEX
  5
B6D
  8
OBJECT
 10
11.047024999999991
 20
17.459454999999991
 30
0.0
  0
VERTEX
  5
B6E
  8
OBJECT
 10
11.034454999999999
 20
17.436599999999999
 30
0.0
  0
VERTEX
  5
B6F
  8
OBJECT
 10
11.032999
 20
17.414172000000001
 30
0.0
  0
VERTEX
  5
B70
  8
OBJECT
 10
11.047214
 20
17.392129000000001
 30
0.0
  0
VERTEX
  5
B71
  8
OBJECT
 10
11.078521
 20
17.369747
 30
0.0
  0
VERTEX
  5
B72
  8
OBJECT
 10
11.115807999999999
 20
17.343565999999988
 30
0.0
  0
VERTEX
  5
B73
  8
OBJECT
 10
11.14482799999999
 20
17.309443999999999
 30
0.0
  0
VERTEX
  5
B74
  8
OBJECT
 10
11.151335
 20
17.263238000000001
 30
0.0
  0
VERTEX
  5
B75
  8
OBJECT
 10
11.121083
 20
17.200806
 30
0.0
  0
VERTEX
  5
B76
  8
OBJECT
 10
11.039823999999999
 20
17.118005
 30
0.0
  0
VERTEX
  5
B77
  8
OBJECT
 10
10.908860000000001
 20
17.022082000000001
 30
0.0
  0
SEQEND
  5
B78
  8
OBJECT
  0
POLYLINE
  5
665
  8
HIDDEN
 66
     1
 10
0.0
 20
0.0
 30
0.0
  0
VERTEX
  5
B79
  8
HIDDEN
 10
12.082905999999991
 20
19.877082000000001
 30
0.0
  0
VERTEX
  5
B7A
  8
HIDDEN
 10
10.583728000000001
 20
19.877082000000001
 30
0.0
 42
0.4142140000000001
  0
SEQEND
  5
B7B
  8
HIDDEN
  0
POLYLINE
  5
669
  8
HIDDEN
 66
     1
 10
0.0
 20
0.0
 30
0.0
  0
VERTEX
  5
B7C
  8
HIDDEN
 10
11.087987
 20
17.167082000000001
 30
0.0
  0
VERTEX
  5
B7D
  8
HIDDEN
 10
12.082905999999991
 20
17.167082000000001
 30
0.0
 42
0.4142140000000001
  0
VERTEX
  5
B7E
  8
HIDDEN
 10
12.144906000000001
 20
17.229081999999998
 30
0.0
  0
VERTEX
  5
B7F
  8
HIDDEN
 10
12.144906000000001
 20
19.815082
 30
0.0
 42
0.4142140000000001
  0
VERTEX
  5
B80
  8
HIDDEN
 10
12.082905999999991
 20
19.877082000000001
 30
0.0
  0
SEQEND
  5
B81
  8
HIDDEN
  0
POLYLINE
  5
670
  8
HIDDEN
 66
     1
 10
0.0
 20
0.0
 30
0.0
  0
VERTEX
  5
B82
  8
HIDDEN
 10
12.082905999999991
 20
19.940082
 30
0.0
  0
VERTEX
  5
B83
  8
HIDDEN
 10
10.612374000000001
 20
19.940082
 30
0.0
 42
0.4142140000000001
  0
SEQEND
  5
B84
  8
HIDDEN
  0
POLYLINE
  5
674
  8
HIDDEN
 66
     1
 10
0.0
 20
0.0
 30
0.0
  0
VERTEX
  5
B85
  8
HIDDEN
 10
11.020814
 20
17.104081999999998
 30
0.0
  0
VERTEX
  5
B86
  8
HIDDEN
 10
12.082905999999991
 20
17.104081999999998
 30
0.0
 42
0.4142140000000001
  0
VERTEX
  5
B87
  8
HIDDEN
 10
12.207905999999991
 20
17.229081999999998
 30
0.0
  0
VERTEX
  5
B88
  8
HIDDEN
 10
12.207905999999991
 20
19.815082
 30
0.0
 42
0.4142140000000001
  0
VERTEX
  5
B89
  8
HIDDEN
 10
12.082905999999991
 20
19.940082
 30
0.0
  0
SEQEND
  5
B8A
  8
HIDDEN
  0
POLYLINE
  5
67B
  8
HIDDEN
 66
     1
 10
0.0
 20
0.0
 30
0.0
  0
VERTEX
  5
B8B
  8
HIDDEN
 10
11.006999
 20
17.093962999999999
 30
0.0
  0
VERTEX
  5
B8C
  8
HIDDEN
 10
12.08690599999999
 20
17.093962999999999
 30
0.0
 42
0.4142140000000001
  0
VERTEX
  5
B8D
  8
HIDDEN
 10
12.217905999999999
 20
17.224962999999988
 30
0.0
  0
VERTEX
  5
B8E
  8
HIDDEN
 10
12.217905999999999
 20
19.819200999999989
 30
0.0
 42
0.4142140000000001
  0
VERTEX
  5
B8F
  8
HIDDEN
 10
12.08690599999999
 20
19.950200999999989
 30
0.0
  0
VERTEX
  5
B90
  8
HIDDEN
 10
10.618624999999991
 20
19.950200999999989
 30
0.0
 42
0.4142140000000001
  0
SEQEND
  5
B91
  8
HIDDEN
  0
POLYLINE
  5
683
  8
OBJECT
 66
     1
 10
0.0
 20
0.0
 30
0.0
  0
VERTEX
  5
B92
  8
OBJECT
 10
8.1119059999999994
 20
19.819200999999989
 30
0.0
  0
VERTEX
  5
B93
  8
OBJECT
 10
8.1119059999999994
 20
17.224962999999988
 30
0.0
 42
0.4142140000000001
  0
VERTEX
  5
B94
  8
OBJECT
 10
8.2429059999999996
 20
17.093962999999999
 30
0.0
  0
VERTEX
  5
B95
  8
OBJECT
 10
11.006999
 20
17.093962999999999
 30
0.0
 42
0.4142140000000001
  0
SEQEND
  5
B96
  8
OBJECT
  0
POLYLINE
  5
689
  8
OBJECT
 66
     1
 10
0.0
 20
0.0
 30
0.0
  0
VERTEX
  5
B97
  8
OBJECT
 10
10.618624999999991
 20
19.950200999999989
 30
0.0
  0
VERTEX
  5
B98
  8
OBJECT
 10
8.2429059999999996
 20
19.950200999999989
 30
0.0
 42
0.4142140000000001
  0
VERTEX
  5
B99
  8
OBJECT
 10
8.1119059999999994
 20
19.819200999999989
 30
0.0
  0
SEQEND
  5
B9A
  8
OBJECT
  0
CIRCLE
  5
68E
  8
OBJECT
 10
8.3314240000000002
 20
19.728082000000001
 30
0.0
 40
0.125
  0
CIRCLE
  5
68F
  8
OBJECT
 10
8.3314240000000002
 20
19.728082000000001
 30
0.0
 40
0.047
  0
LINE
  5
690
  8
CENTER
 10
8.2414240000000003
 20
19.728082000000001
 30
0.0
 11
8.421424
 21
19.728082000000001
 31
0.0
  0
LINE
  5
691
  8
OBJECT
 10
8.1405210000000015
 20
19.902387999999998
 30
0.0
 11
8.2338470000000008
 21
19.806207000000001
 31
0.0
  0
LINE
  5
692
  8
OBJECT
 10
8.1629480000000001
 20
19.924150000000001
 30
0.0
 11
8.2562740000000012
 21
19.827969
 31
0.0
  0
LINE
  5
693
  8
CENTER
 10
8.3314240000000002
 20
19.818082
 30
0.0
 11
8.3314240000000002
 21
19.638082000000001
 31
0.0
  0
TEXT
  5
696
  8
DIM
 10
21.270076
 20
17.118318999999989
 30
0.0
 40
0.125
  1

  0
TEXT
  5
697
  8
DIM
 10
21.333221999999989
 20
25.266994
 30
0.0
 40
0.125
  1

  0
TEXT
  5
698
  8
0
  6
CONTINUOUS
 62
     1
 10
39.835397999999991
 20
14.153407
 30
0.0
 40
0.0625
  1

  7
ROMANS
  0
TEXT
  5
699
  8
0
  6
CONTINUOUS
 62
     1
 10
39.835397999999991
 20
13.849835000000001
 30
0.0
 40
0.0625
  1

  7
ROMANS
  0
POLYLINE
  5
69A
  8
DIM
 66
     1
 10
0.0
 20
0.0
 30
0.0
 41
0.10125
  0
VERTEX
  5
B9B
  8
DIM
 10
12.035174
 20
17.286828
 30
0.0
  0
VERTEX
  5
B9C
  8
DIM
 10
12.245810999999989
 20
17.117913999999999
 30
0.0
 41
0.0
  0
VERTEX
  5
B9D
  8
DIM
 10
12.639499000000001
 20
16.80543299999999
 30
0.0
 41
0.0
  0
VERTEX
  5
B9E
  8
DIM
 10
12.909499
 20
16.80543299999999
 30
0.0
 41
0.0
  0
SEQEND
  5
B9F
  8
DIM
  0
TEXT
  5
6A0
  8
DIM
 10
13.044499
 20
16.71168299999999
 30
0.0
 40
0.1875
  1
0.094 DIA. HOLE
 41
0.75
 11
13.044499
 21
16.80543299999999
 31
0.0
 73
     2
  0
TEXT
  5
6A1
  8
DIM
 10
13.044499
 20
16.39918299999999
 30
0.0
 40
0.1875
  1
x 0.500 DEEP
 41
0.75
 11
13.044499
 21
16.49293299999999
 31
0.0
 73
     2
  0
TEXT
  5
6A2
  8
DIM
 10
13.044499
 20
16.08668299999999
 30
0.0
 40
0.1875
  1
(4) PLACES
 41
0.75
 11
13.044499
 21
16.18043299999999
 31
0.0
 73
     2
  0
TEXT
  5
6A5
  8
DIM
 10
21.270076
 20
27.238319000000001
 30
0.0
 40
0.125
  1

  0
TEXT
  5
6A6
  8
DIM
 10
21.333221999999989
 20
35.386994000000001
 30
0.0
 40
0.125
  1

  0
TEXT
  5
6A7
  8
0
  6
CONTINUOUS
 62
     1
 10
39.835397999999991
 20
24.273406999999999
 30
0.0
 40
0.0625
  1

  7
ROMANS
  0
TEXT
  5
6A8
  8
0
  6
CONTINUOUS
 62
     1
 10
39.835397999999991
 20
23.969835
 30
0.0
 40
0.0625
  1

  7
ROMANS
  0
TEXT
  5
6A9
  8
0
  6
CONTINUOUS
 62
     1
 10
23.240292999999991
 20
34.474482999999999
 30
0.0
 40
0.0625
  1

  7
ROMANS
  0
TEXT
  5
6AA
  8
0
  6
CONTINUOUS
 62
     1
 10
23.240292999999991
 20
34.17091099999999
 30
0.0
 40
0.0625
  1

  7
ROMANS
  0
ARC
  5
6AB
  8
OBJECT
 10
12.197596000000001
 20
13.728147999999999
 30
0.0
 40
0.125
 50
270.0
 51
1.5
  0
ARC
  5
6AC
  8
OBJECT
 10
8.1322170000000007
 20
13.728147999999999
 30
0.0
 40
0.125
 50
178.5
 51
270.0
  0
ARC
  5
6AD
  8
OBJECT
 10
1.2223559999999991
 20
17.114391999999999
 30
0.0
 40
0.125
 50
180.0
 51
271.49999999999989
  0
ARC
  5
6AE
  8
OBJECT
 10
1.2223559999999991
 20
19.929770999999999
 30
0.0
 40
0.125
 50
88.499999999999986
 51
180.0
  0
TEXT
  5
6AF
  8
DIM
 10
5.4430240000000003
 20
16.663121
 30
0.0
 40
0.1875
  1
0.250 DIA. BOSS
 41
0.75
 72
     2
 11
7.2242740000000003
 21
16.756871
 31
0.0
 73
     2
  0
POLYLINE
  5
6B0
  8
DIM
 66
     1
 10
0.0
 20
0.0
 30
0.0
 41
0.10125
  0
VERTEX
  5
BA0
  8
DIM
 10
8.2335989999999981
 20
17.238267
 30
0.0
  0
VERTEX
  5
BA1
  8
DIM
 10
8.0229619999999997
 20
17.069353
 30
0.0
 41
0.0
  0
VERTEX
  5
BA2
  8
DIM
 10
7.6292739999999997
 20
16.756871
 30
0.0
 41
0.0
  0
VERTEX
  5
BA3
  8
DIM
 10
7.3592740000000001
 20
16.756871
 30
0.0
 41
0.0
  0
SEQEND
  5
BA4
  8
DIM
  0
TEXT
  5
6B6
  8
DIM
 10
5.9586490000000003
 20
16.350621
 30
0.0
 40
0.1875
  1
(4) PLACES
 41
0.75
 72
     2
 11
7.2242740000000003
 21
16.444371
 31
0.0
 73
     2
  0
DIMENSION
  5
6B7
  8
DIM
  2
*D62
 10
8.1119059999999994
 20
18.124718999999999
 30
0.0
 11
9.8136469999999996
 21
18.124718999999999
 31
0.0
 70
   128
 13
12.217905999999999
 23
18.124718999999999
 33
0.0
 14
8.1119059999999994
 24
18.124718999999999
 34
0.0
  0
DIMENSION
  5
6C5
  8
DIM
  2
*D63
 10
9.0198640000000001
 20
17.093962999999999
 30
0.0
 11
9.0198640000000001
 21
18.963723999999988
 31
0.0
 70
   128
 13
8.2429059999999996
 23
19.950200999999989
 33
0.0
 14
8.2429059999999996
 24
17.093962999999999
 34
0.0
 50
90.0
  0
LINE
  5
6D3
  8
BEND
 10
8.1322170000000007
 20
13.603147999999999
 30
0.0
 11
7.6024059999999993
 21
13.603147999999999
 31
0.0
  0
LINE
  5
6D4
  8
BEND
 10
12.727406
 20
13.603147999999999
 30
0.0
 11
12.197596000000001
 21
13.603147999999999
 31
0.0
  0
POLYLINE
  5
6D5
  8
OBJECT
 66
     1
 10
0.0
 20
0.0
 30
0.0
  0
VERTEX
  5
BA5
  8
OBJECT
 10
10.882089000000001
 20
15.050148
 30
0.0
  0
VERTEX
  5
BA6
  8
OBJECT
 10
10.855000999999991
 20
15.026444
 30
0.0
  0
VERTEX
  5
BA7
  8
OBJECT
 10
10.822214999999989
 20
14.965251999999991
 30
0.0
  0
VERTEX
  5
BA8
  8
OBJECT
 10
10.825521
 20
14.912276
 30
0.0
  0
VERTEX
  5
BA9
  8
OBJECT
 10
10.852942000000001
 20
14.866174000000001
 30
0.0
  0
VERTEX
  5
BAA
  8
OBJECT
 10
10.892502999999991
 20
14.825604
 30
0.0
  0
VERTEX
  5
BAB
  8
OBJECT
 10
10.932228999999991
 20
14.789225
 30
0.0
  0
VERTEX
  5
BAC
  8
OBJECT
 10
10.960141999999991
 20
14.755696
 30
0.0
  0
VERTEX
  5
BAD
  8
OBJECT
 10
10.967184
 20
14.723853
 30
0.0
  0
VERTEX
  5
BAE
  8
OBJECT
 10
10.955956
 20
14.693250000000001
 30
0.0
  0
VERTEX
  5
BAF
  8
OBJECT
 10
10.931976999999989
 20
14.663615999999999
 30
0.0
  0
VERTEX
  5
BB0
  8
OBJECT
 10
10.900763
 20
14.634684
 30
0.0
  0
VERTEX
  5
BB1
  8
OBJECT
 10
10.867832999999999
 20
14.60618399999999
 30
0.0
  0
VERTEX
  5
BB2
  8
OBJECT
 10
10.838704999999999
 20
14.577847
 30
0.0
  0
VERTEX
  5
BB3
  8
OBJECT
 10
10.818896000000001
 20
14.549405999999999
 30
0.0
  0
VERTEX
  5
BB4
  8
OBJECT
 10
10.81392299999999
 20
14.52059
 30
0.0
  0
VERTEX
  5
BB5
  8
OBJECT
 10
10.827505999999991
 20
14.491209
 30
0.0
  0
VERTEX
  5
BB6
  8
OBJECT
 10
10.856166
 20
14.46138399999999
 30
0.0
  0
VERTEX
  5
BB7
  8
OBJECT
 10
10.894627
 20
14.431316000000001
 30
0.0
  0
VERTEX
  5
BB8
  8
OBJECT
 10
10.937609999999999
 20
14.401203000000001
 30
0.0
  0
VERTEX
  5
BB9
  8
OBJECT
 10
10.979838000000001
 20
14.37124599999999
 30
0.0
  0
VERTEX
  5
BBA
  8
OBJECT
 10
11.016035
 20
14.341642999999991
 30
0.0
  0
VERTEX
  5
BBB
  8
OBJECT
 10
11.040922999999999
 20
14.312595
 30
0.0
  0
VERTEX
  5
BBC
  8
OBJECT
 10
11.049225
 20
14.2843
 30
0.0
  0
VERTEX
  5
BBD
  8
OBJECT
 10
11.037463000000001
 20
14.2569
 30
0.0
  0
VERTEX
  5
BBE
  8
OBJECT
 10
11.009359
 20
14.230295
 30
0.0
  0
VERTEX
  5
BBF
  8
OBJECT
 10
10.970432000000001
 20
14.204328
 30
0.0
  0
VERTEX
  5
BC0
  8
OBJECT
 10
10.92620299999999
 20
14.17883999999999
 30
0.0
  0
VERTEX
  5
BC1
  8
OBJECT
 10
10.882192999999999
 20
14.153673
 30
0.0
  0
VERTEX
  5
BC2
  8
OBJECT
 10
10.843921999999999
 20
14.12867
 30
0.0
  0
VERTEX
  5
BC3
  8
OBJECT
 10
10.816910999999999
 20
14.103673000000001
 30
0.0
  0
VERTEX
  5
BC4
  8
OBJECT
 10
10.806680999999999
 20
14.078523000000001
 30
0.0
  0
VERTEX
  5
BC5
  8
OBJECT
 10
10.816751999999999
 20
14.053124999999991
 30
0.0
  0
VERTEX
  5
BC6
  8
OBJECT
 10
10.842651999999999
 20
14.027628
 30
0.0
  0
VERTEX
  5
BC7
  8
OBJECT
 10
10.877905999999991
 20
14.002243999999999
 30
0.0
  0
VERTEX
  5
BC8
  8
OBJECT
 10
10.91604299999999
 20
13.97718699999999
 30
0.0
  0
VERTEX
  5
BC9
  8
OBJECT
 10
10.950588
 20
13.952667
 30
0.0
  0
VERTEX
  5
BCA
  8
OBJECT
 10
10.975070000000001
 20
13.928896999999999
 30
0.0
  0
VERTEX
  5
BCB
  8
OBJECT
 10
10.983014000000001
 20
13.906088
 30
0.0
  0
VERTEX
  5
BCC
  8
OBJECT
 10
10.967948
 20
13.884454
 30
0.0
  0
VERTEX
  5
BCD
  8
OBJECT
 10
10.927236000000001
 20
13.863685999999991
 30
0.0
  0
VERTEX
  5
BCE
  8
OBJECT
 10
10.873594000000001
 20
13.841404000000001
 30
0.0
  0
VERTEX
  5
BCF
  8
OBJECT
 10
10.823572
 20
13.814707
 30
0.0
  0
VERTEX
  5
BD0
  8
OBJECT
 10
10.793723999999999
 20
13.780692999999991
 30
0.0
  0
VERTEX
  5
BD1
  8
OBJECT
 10
10.800601999999991
 20
13.736462
 30
0.0
  0
VERTEX
  5
BD2
  8
OBJECT
 10
10.860758000000001
 20
13.679114
 30
0.0
  0
VERTEX
  5
BD3
  8
OBJECT
 10
10.990743999999991
 20
13.605748
 30
0.0
  0
VERTEX
  5
BD4
  8
OBJECT
 10
10.996840999999989
 20
13.603147999999999
 30
0.0
  0
SEQEND
  5
BD5
  8
OBJECT
  0
LINE
  5
707
  8
OBJECT
 10
10.825341999999999
 20
14.915148
 30
0.0
 11
8.1219059999999992
 21
14.915148
 31
0.0
  0
LINE
  5
708
  8
OBJECT
 10
10.867786000000001
 20
13.675148
 30
0.0
 11
8.1371470000000006
 21
13.675148
 31
0.0
  0
LINE
  5
709
  8
BEND
 10
8.0070429999999995
 20
13.723148
 30
0.0
 11
7.5399059999999993
 21
13.723148
 31
0.0
  0
INSERT
  5
70A
  8
BEND
  2
*X4
 10
0.0
 20
0.4597300000000001
 30
0.0
1001
ACAD
1000
HATCH
1002
{
1070
    16
1000
ANSI31
1040
1.0
1040
0.0
1002
}
  0
POLYLINE
  5
70B
  8
OBJECT
 66
     1
 10
0.0
 20
0.0
 30
0.0
  0
VERTEX
  5
BD6
  8
OBJECT
 10
2.5443560000000001
 20
19.259269
 30
0.0
  0
VERTEX
  5
BD7
  8
OBJECT
 10
2.503391999999999
 20
19.19573299999999
 30
0.0
  0
VERTEX
  5
BD8
  8
OBJECT
 10
2.4451860000000001
 20
19.14034599999999
 30
0.0
  0
VERTEX
  5
BD9
  8
OBJECT
 10
2.3915489999999999
 20
19.118071
 30
0.0
  0
VERTEX
  5
BDA
  8
OBJECT
 10
2.3419849999999989
 20
19.119274999999998
 30
0.0
  0
VERTEX
  5
BDB
  8
OBJECT
 10
2.2959959999999988
 20
19.134325
 30
0.0
  0
VERTEX
  5
BDC
  8
OBJECT
 10
2.2530879999999991
 20
19.153586999999991
 30
0.0
  0
VERTEX
  5
BDD
  8
OBJECT
 10
2.2127629999999998
 20
19.167428999999998
 30
0.0
  0
VERTEX
  5
BDE
  8
OBJECT
 10
2.1745669999999988
 20
19.168392999999991
 30
0.0
  0
VERTEX
  5
BDF
  8
OBJECT
 10
2.1382110000000001
 20
19.157724999999999
 30
0.0
  0
VERTEX
  5
BE0
  8
OBJECT
 10
2.1034470000000001
 20
19.138847999999989
 30
0.0
  0
VERTEX
  5
BE1
  8
OBJECT
 10
2.0700270000000001
 20
19.115185
 30
0.0
  0
VERTEX
  5
BE2
  8
OBJECT
 10
2.037704999999999
 20
19.090157999999992
 30
0.0
  0
VERTEX
  5
BE3
  8
OBJECT
 10
2.0062310000000001
 20
19.06719
 30
0.0
  0
VERTEX
  5
BE4
  8
OBJECT
 10
1.9753590000000001
 20
19.049703999999998
 30
0.0
  0
VERTEX
  5
BE5
  8
OBJECT
 10
1.944841
 20
19.041121
 30
0.0
  0
VERTEX
  5
BE6
  8
OBJECT
 10
1.91448
 20
19.043783999999992
 30
0.0
  0
VERTEX
  5
BE7
  8
OBJECT
 10
1.884277999999999
 20
19.055704999999989
 30
0.0
  0
VERTEX
  5
BE8
  8
OBJECT
 10
1.8542879999999999
 20
19.073817999999989
 30
0.0
  0
VERTEX
  5
BE9
  8
OBJECT
 10
1.824563999999999
 20
19.095054000000001
 30
0.0
  0
VERTEX
  5
BEA
  8
OBJECT
 10
1.7951589999999991
 20
19.116344999999999
 30
0.0
  0
VERTEX
  5
BEB
  8
OBJECT
 10
1.766125999999999
 20
19.134624999999989
 30
0.0
  0
VERTEX
  5
BEC
  8
OBJECT
 10
1.7375179999999999
 20
19.146824999999989
 30
0.0
  0
VERTEX
  5
BED
  8
OBJECT
 10
1.7093879999999999
 20
19.149878000000001
 30
0.0
  0
VERTEX
  5
BEE
  8
OBJECT
 10
1.681811999999999
 20
19.141749000000001
 30
0.0
  0
VERTEX
  5
BEF
  8
OBJECT
 10
1.654957
 20
19.124538999999999
 30
0.0
  0
VERTEX
  5
BF0
  8
OBJECT
 10
1.6290139999999991
 20
19.101379999999988
 30
0.0
  0
VERTEX
  5
BF1
  8
OBJECT
 10
1.604171
 20
19.075404999999989
 30
0.0
  0
VERTEX
  5
BF2
  8
OBJECT
 10
1.5806180000000001
 20
19.049748999999998
 30
0.0
  0
VERTEX
  5
BF3
  8
OBJECT
 10
1.5585450000000001
 20
19.027543999999999
 30
0.0
  0
VERTEX
  5
BF4
  8
OBJECT
 10
1.5381429999999989
 20
19.011922999999989
 30
0.0
  0
VERTEX
  5
BF5
  8
OBJECT
 10
1.5196000000000001
 20
19.006018999999998
 30
0.0
  0
VERTEX
  5
BF6
  8
OBJECT
 10
1.502929
 20
19.011811999999988
 30
0.0
  0
VERTEX
  5
BF7
  8
OBJECT
 10
1.487431999999999
 20
19.026658999999992
 30
0.0
  0
VERTEX
  5
BF8
  8
OBJECT
 10
1.472232999999999
 20
19.046765000000001
 30
0.0
  0
VERTEX
  5
BF9
  8
OBJECT
 10
1.456456
 20
19.068332999999988
 30
0.0
  0
VERTEX
  5
BFA
  8
OBJECT
 10
1.4392249999999991
 20
19.087565999999999
 30
0.0
  0
VERTEX
  5
BFB
  8
OBJECT
 10
1.4196649999999991
 20
19.100669
 30
0.0
  0
VERTEX
  5
BFC
  8
OBJECT
 10
1.396898999999999
 20
19.103845
 30
0.0
  0
VERTEX
  5
BFD
  8
OBJECT
 10
1.3700529999999991
 20
19.093298999999991
 30
0.0
  0
VERTEX
  5
BFE
  8
OBJECT
 10
1.338381
 20
19.067695999999991
 30
0.0
  0
VERTEX
  5
BFF
  8
OBJECT
 10
1.30166
 20
19.035560999999991
 30
0.0
  0
VERTEX
  5
C00
  8
OBJECT
 10
1.2597979999999991
 20
19.007881999999999
 30
0.0
  0
VERTEX
  5
C01
  8
OBJECT
 10
1.2127030000000001
 20
18.995645
 30
0.0
  0
VERTEX
  5
C02
  8
OBJECT
 10
1.1602829999999991
 20
19.009837999999998
 30
0.0
  0
VERTEX
  5
C03
  8
OBJECT
 10
1.1024469999999991
 20
19.061447000000001
 30
0.0
  0
VERTEX
  5
C04
  8
OBJECT
 10
1.0973559999999991
 20
19.069485
 30
0.0
  0
SEQEND
  5
C05
  8
OBJECT
  0
LINE
  5
73C
  8
OBJECT
 10
1.169355999999999
 20
19.007380999999992
 30
0.0
 11
1.169355999999999
 21
17.119323000000001
 31
0.0
  0
LINE
  5
73D
  8
OBJECT
 10
2.4093559999999998
 20
19.125465999999989
 30
0.0
 11
2.4093559999999998
 21
17.104081999999998
 31
0.0
  0
INSERT
  5
73E
  8
BEND
  2
*X5
 10
-0.238761
 20
0.4597300000000001
 30
0.0
1001
ACAD
1000
HATCH
1002
{
1070
    16
1000
ANSI31
1040
1.0
1040
0.0
1002
}
  0
LINE
  5
73F
  8
BEND
 10
1.0973559999999991
 20
19.992228999999998
 30
0.0
 11
1.0973559999999991
 21
19.929770999999999
 31
0.0
  0
LINE
  5
740
  8
BEND
 10
1.0973559999999991
 20
17.051935
 30
0.0
 11
1.0973559999999991
 21
17.114391999999999
 31
0.0
  0
POLYLINE
  5
741
  8
DIM
 66
     1
 10
0.0
 20
0.0
 30
0.0
 41
0.10125
  0
VERTEX
  5
C06
  8
DIM
 10
7.5399059999999993
 20
17.905744999999989
 30
0.0
  0
VERTEX
  5
C07
  8
DIM
 10
7.3269669999999989
 20
18.071747999999999
 30
0.0
 41
0.0
  0
VERTEX
  5
C08
  8
DIM
 10
7.0902640000000003
 20
18.256275999999989
 30
0.0
 41
0.0
  0
VERTEX
  5
C09
  8
DIM
 10
6.820263999999999
 20
18.256275999999989
 30
0.0
 41
0.0
  0
SEQEND
  5
C0A
  8
DIM
  0
LINE
  5
747
  8
DIM
 10
12.322552999999999
 20
13.73142
 30
0.0
 11
12.322552999999999
 21
13.93219
 31
0.0
  0
DIMENSION
  5
748
  8
DIM
  2
*D64
 10
12.32277
 20
13.723148
 30
0.0
 11
13.368288
 21
15.172529999999989
 31
0.0
 70
   130
  1
<> REF.
 13
12.322552999999999
 23
13.73142
 33
0.0
 14
12.322552999999999
 24
13.93219
 34
0.0
 15
12.289906
 25
14.978147999999999
 35
0.0
 16
12.29577853353943
 26
15.26531169263351
 36
0.0
1001
ACAD
1000
DSTYLE
1002
{
1070
   271
1070
     0
1002
}
  0
TEXT
  5
759
  8
DIM
 10
21.363075999999989
 20
5.0158420000000001
 30
0.0
 40
0.125
  1

  0
TEXT
  5
75A
  8
DIM
 10
21.426221999999989
 20
13.164517
 30
0.0
 40
0.125
  1

  0
TEXT
  5
75B
  8
0
  6
CONTINUOUS
 62
     1
 10
39.928398000000001
 20
2.0509300000000001
 30
0.0
 40
0.0625
  1

  7
ROMANS
  0
TEXT
  5
75C
  8
0
  6
CONTINUOUS
 62
     1
 10
39.928398000000001
 20
1.747358
 30
0.0
 40
0.0625
  1

  7
ROMANS
  0
TEXT
  5
75F
  8
DIM
 10
21.363075999999989
 20
15.135842
 30
0.0
 40
0.125
  1

  0
TEXT
  5
760
  8
DIM
 10
21.426221999999989
 20
23.284517000000001
 30
0.0
 40
0.125
  1

  0
TEXT
  5
761
  8
0
  6
CONTINUOUS
 62
     1
 10
39.928398000000001
 20
12.17093
 30
0.0
 40
0.0625
  1

  7
ROMANS
  0
TEXT
  5
762
  8
0
  6
CONTINUOUS
 62
     1
 10
39.928398000000001
 20
11.867357999999991
 30
0.0
 40
0.0625
  1

  7
ROMANS
  0
TEXT
  5
763
  8
0
  6
CONTINUOUS
 62
     1
 10
23.333292999999991
 20
22.372005999999988
 30
0.0
 40
0.0625
  1

  7
ROMANS
  0
TEXT
  5
764
  8
0
  6
CONTINUOUS
 62
     1
 10
23.333292999999991
 20
22.068433999999989
 30
0.0
 40
0.0625
  1

  7
ROMANS
  0
TEXT
  5
767
  8
DIM
 10
21.363075999999989
 20
15.135842
 30
0.0
 40
0.125
  1

  0
TEXT
  5
768
  8
DIM
 10
21.426221999999989
 20
23.284517000000001
 30
0.0
 40
0.125
  1

  0
TEXT
  5
769
  8
0
  6
CONTINUOUS
 62
     1
 10
39.928398000000001
 20
12.17093
 30
0.0
 40
0.0625
  1

  7
ROMANS
  0
TEXT
  5
76A
  8
0
  6
CONTINUOUS
 62
     1
 10
39.928398000000001
 20
11.867357999999991
 30
0.0
 40
0.0625
  1

  7
ROMANS
  0
TEXT
  5
76B
  8
0
  6
CONTINUOUS
 62
     1
 10
23.333292999999991
 20
22.372005999999988
 30
0.0
 40
0.0625
  1

  7
ROMANS
  0
TEXT
  5
76C
  8
0
  6
CONTINUOUS
 62
     1
 10
23.333292999999991
 20
22.068433999999989
 30
0.0
 40
0.0625
  1

  7
ROMANS
  0
TEXT
  5
76F
  8
DIM
 10
21.363075999999989
 20
15.135842
 30
0.0
 40
0.125
  1

  0
TEXT
  5
770
  8
DIM
 10
21.426221999999989
 20
23.284517000000001
 30
0.0
 40
0.125
  1

  0
TEXT
  5
771
  8
0
  6
CONTINUOUS
 62
     1
 10
39.928398000000001
 20
12.17093
 30
0.0
 40
0.0625
  1

  7
ROMANS
  0
TEXT
  5
772
  8
0
  6
CONTINUOUS
 62
     1
 10
39.928398000000001
 20
11.867357999999991
 30
0.0
 40
0.0625
  1

  7
ROMANS
  0
TEXT
  5
775
  8
DIM
 10
21.363075999999989
 20
25.255842000000001
 30
0.0
 40
0.125
  1

  0
TEXT
  5
776
  8
DIM
 10
21.426221999999989
 20
33.404516999999998
 30
0.0
 40
0.125
  1

  0
TEXT
  5
777
  8
0
  6
CONTINUOUS
 62
     1
 10
39.928398000000001
 20
22.290929999999999
 30
0.0
 40
0.0625
  1

  7
ROMANS
  0
TEXT
  5
778
  8
0
  6
CONTINUOUS
 62
     1
 10
39.928398000000001
 20
21.987358
 30
0.0
 40
0.0625
  1

  7
ROMANS
  0
TEXT
  5
779
  8
0
  6
CONTINUOUS
 62
     1
 10
23.333292999999991
 20
32.492005999999989
 30
0.0
 40
0.0625
  1

  7
ROMANS
  0
TEXT
  5
77A
  8
0
  6
CONTINUOUS
 62
     1
 10
23.333292999999991
 20
32.188434000000001
 30
0.0
 40
0.0625
  1

  7
ROMANS
  0
TEXT
  5
77D
  8
DIM
 10
21.363075999999989
 20
25.255842000000001
 30
0.0
 40
0.125
  1

  0
TEXT
  5
77E
  8
DIM
 10
21.426221999999989
 20
33.404516999999998
 30
0.0
 40
0.125
  1

  0
TEXT
  5
77F
  8
0
  6
CONTINUOUS
 62
     1
 10
39.928398000000001
 20
22.290929999999999
 30
0.0
 40
0.0625
  1

  7
ROMANS
  0
TEXT
  5
780
  8
0
  6
CONTINUOUS
 62
     1
 10
39.928398000000001
 20
21.987358
 30
0.0
 40
0.0625
  1

  7
ROMANS
  0
TEXT
  5
783
  8
DIM
 10
21.363075999999989
 20
35.375841999999992
 30
0.0
 40
0.125
  1

  0
TEXT
  5
784
  8
DIM
 10
21.426221999999989
 20
43.524516999999989
 30
0.0
 40
0.125
  1

  0
TEXT
  5
785
  8
0
  6
CONTINUOUS
 62
     1
 10
39.928398000000001
 20
32.41093
 30
0.0
 40
0.0625
  1

  7
ROMANS
  0
TEXT
  5
786
  8
0
  6
CONTINUOUS
 62
     1
 10
39.928398000000001
 20
32.107357999999998
 30
0.0
 40
0.0625
  1

  7
ROMANS
  0
TEXT
  5
787
  8
0
  6
CONTINUOUS
 62
     1
 10
23.333292999999991
 20
42.612006000000001
 30
0.0
 40
0.0625
  1

  7
ROMANS
  0
TEXT
  5
788
  8
0
  6
CONTINUOUS
 62
     1
 10
23.333292999999991
 20
42.308433999999998
 30
0.0
 40
0.0625
  1

  7
ROMANS
  0
LINE
  5
789
  8
OBJECT
 10
7.3637160000000002
 20
2.8918430000000002
 30
0.0
 11
12.363716
 21
2.8918430000000002
 31
0.0
  0
TEXT
  5
78C
  8
DIM
 10
21.363075999999989
 20
15.135842
 30
0.0
 40
0.125
  1

  0
TEXT
  5
78D
  8
DIM
 10
21.426221999999989
 20
23.284517000000001
 30
0.0
 40
0.125
  1

  0
DIMENSION
  5
78E
  8
DIM
  2
*D65
 10
6.8637160000000002
 20
2.8318430000000001
 30
0.0
 11
6.4692159999999994
 21
2.8618430000000008
 31
0.0
 70
     0
  1
<>
 13
7.3637160000000002
 23
2.8918430000000002
 33
0.0
 14
7.5302340000000001
 24
2.8318430000000001
 34
0.0
 50
90.0
  0
DIMENSION
  5
79C
  8
DIM
  2
*D66
 10
12.363716
 20
3.4318430000000002
 30
0.0
 11
9.8637160000000002
 21
3.4318430000000002
 31
0.0
 70
     0
  1
<>
 13
7.3637160000000002
 23
2.8918430000000002
 33
0.0
 14
12.363716
 24
2.8918430000000002
 34
0.0
  0
TEXT
  5
7AA
  8
0
  6
CONTINUOUS
 62
     1
 10
39.928398000000001
 20
12.17093
 30
0.0
 40
0.0625
  1

  7
ROMANS
  0
TEXT
  5
7AB
  8
0
  6
CONTINUOUS
 62
     1
 10
39.928398000000001
 20
11.867357999999991
 30
0.0
 40
0.0625
  1

  7
ROMANS
  0
LINE
  5
7AC
  8
BEND
 10
12.801216
 20
1.3918429999999991
 30
0.0
 11
12.27467899999999
 21
1.3918429999999991
 31
0.0
  0
LINE
  5
7AD
  8
OBJECT
 10
11.118715
 20
1.4638429999999989
 30
0.0
 11
7.4620479999999993
 21
1.4638429999999989
 31
0.0
  0
LINE
  5
7AE
  8
HIDDEN
 10
7.6082339999999986
 20
2.3317149999999991
 30
0.0
 11
7.7022339999999989
 21
2.3317149999999991
 31
0.0
  0
LINE
  5
7AF
  8
HIDDEN
 10
7.6082339999999986
 20
2.8318430000000001
 30
0.0
 11
7.6082339999999986
 21
2.3317149999999991
 31
0.0
  0
LINE
  5
7B0
  8
HIDDEN
 10
7.7022339999999989
 20
2.8318430000000001
 30
0.0
 11
7.7022339999999989
 21
2.3317149999999991
 31
0.0
  0
ARC
  5
7B1
  8
OBJECT
 10
9.8637160000000002
 20
1.370093
 30
0.0
 40
0.15625
 50
36.869897999999999
 51
143.13010199999999
  0
CIRCLE
  5
7B2
  8
OBJECT
 10
9.8637160000000002
 20
6.9433509999999989
 30
0.0
 40
0.125
  0
LINE
  5
7B3
  8
CENTER
 10
7.2667159999999997
 20
6.9433509999999989
 30
0.0
 11
12.460716
 21
6.9433509999999989
 31
0.0
  0
LINE
  5
7B4
  8
CENTER
 10
9.8637160000000002
 20
4.9072319999999987
 30
0.0
 11
9.8637160000000002
 21
8.9794699999999992
 31
0.0
  0
DIMENSION
  5
7B5
  8
DIM
  2
*D67
 10
10.17496
 20
8.6934699999999996
 30
0.0
 11
9.7804599999999962
 21
8.657410500000001
 31
0.0
 70
     0
  1
<> TYP.
 13
10.271209999999989
 23
8.6213509999999989
 33
0.0
 14
10.271209999999989
 24
8.6934699999999996
 34
0.0
 50
90.0
  0
TEXT
  5
7C5
  8
DIM
 10
21.363075999999989
 20
25.255842000000001
 30
0.0
 40
0.125
  1

  0
TEXT
  5
7C6
  8
DIM
 10
21.426221999999989
 20
33.404516999999998
 30
0.0
 40
0.125
  1

  0
TEXT
  5
7C7
  8
0
  6
CONTINUOUS
 62
     1
 10
39.928398000000001
 20
22.290929999999999
 30
0.0
 40
0.0625
  1

  7
ROMANS
  0
TEXT
  5
7C8
  8
0
  6
CONTINUOUS
 62
     1
 10
39.928398000000001
 20
21.987358
 30
0.0
 40
0.0625
  1

  7
ROMANS
  0
TEXT
  5
7C9
  8
0
  6
CONTINUOUS
 62
     1
 10
23.333292999999991
 20
32.492005999999989
 30
0.0
 40
0.0625
  1

  7
ROMANS
  0
TEXT
  5
7CA
  8
0
  6
CONTINUOUS
 62
     1
 10
23.333292999999991
 20
32.188434000000001
 30
0.0
 40
0.0625
  1

  7
ROMANS
  0
LINE
  5
7CB
  8
OBJECT
 10
7.7802340000000001
 20
2.8318430000000001
 30
0.0
 11
7.5302340000000001
 21
2.8318430000000001
 31
0.0
  0
LINE
  5
7CC
  8
OBJECT
 10
7.8152160000000004
 20
1.7138429999999989
 30
0.0
 11
8.0002159999999982
 21
1.7138429999999989
 31
0.0
  0
LINE
  5
7CD
  8
HIDDEN
 10
7.9547160000000003
 20
1.7138429999999989
 30
0.0
 11
7.9547160000000003
 21
1.4638429999999989
 31
0.0
  0
LINE
  5
7CE
  8
HIDDEN
 10
7.860716
 20
1.7138429999999989
 30
0.0
 11
7.860716
 21
1.4638429999999989
 31
0.0
  0
LINE
  5
7CF
  8
OBJECT
 10
7.5297109999999989
 20
2.7718430000000001
 30
0.0
 11
7.4357629999999997
 21
2.7718430000000001
 31
0.0
  0
POLYLINE
  5
7D0
  8
OBJECT
 66
     1
 10
0.0
 20
0.0
 30
0.0
 70
     1
  0
VERTEX
  5
C16
  8
OBJECT
 10
7.3637160000000002
 20
8.4904700000000002
 30
0.0
  0
VERTEX
  5
C17
  8
OBJECT
 10
7.3637160000000002
 20
5.3962320000000004
 30
0.0
 42
0.4142140000000001
  0
VERTEX
  5
C18
  8
OBJECT
 10
7.5667160000000004
 20
5.1932320000000001
 30
0.0
  0
VERTEX
  5
C19
  8
OBJECT
 10
12.160716000000001
 20
5.1932320000000001
 30
0.0
 42
0.4142140000000001
  0
VERTEX
  5
C1A
  8
OBJECT
 10
12.363716
 20
5.3962320000000004
 30
0.0
  0
VERTEX
  5
C1B
  8
OBJECT
 10
12.363716
 20
8.4904700000000002
 30
0.0
 42
0.4142140000000001
  0
VERTEX
  5
C1C
  8
OBJECT
 10
12.160716000000001
 20
8.6934699999999996
 30
0.0
  0
VERTEX
  5
C1D
  8
OBJECT
 10
7.5667160000000004
 20
8.6934699999999996
 30
0.0
 42
0.4142140000000001
  0
SEQEND
  5
C1E
  8
OBJECT
  0
CIRCLE
  5
7DA
  8
HIDDEN
 10
12.072198
 20
8.3993509999999993
 30
0.0
 40
0.125
  0
CIRCLE
  5
7DB
  8
HIDDEN
 10
12.072198
 20
5.4873510000000003
 30
0.0
 40
0.125
  0
CIRCLE
  5
7DC
  8
OBJECT
 10
7.9077159999999997
 20
5.7373510000000003
 30
0.0
 40
0.047
  0
CIRCLE
  5
7DD
  8
OBJECT
 10
7.9077159999999997
 20
5.7373510000000003
 30
0.0
 40
0.094
  0
CIRCLE
  5
7DE
  8
OBJECT
 10
7.9077159999999997
 20
8.1493509999999993
 30
0.0
 40
0.094
  0
CIRCLE
  5
7DF
  8
OBJECT
 10
7.9077159999999997
 20
8.1493509999999993
 30
0.0
 40
0.047
  0
CIRCLE
  5
7E0
  8
HIDDEN
 10
11.819716
 20
8.1493509999999993
 30
0.0
 40
0.0935
  0
CIRCLE
  5
7E1
  8
HIDDEN
 10
11.819716
 20
8.1493509999999993
 30
0.0
 40
0.047
  0
CIRCLE
  5
7E2
  8
HIDDEN
 10
11.819716
 20
5.7373510000000003
 30
0.0
 40
0.094
  0
CIRCLE
  5
7E3
  8
HIDDEN
 10
11.819716
 20
5.7373510000000003
 30
0.0
 40
0.047
  0
CIRCLE
  5
7E4
  8
HIDDEN
 10
12.072198
 20
8.3993509999999993
 30
0.0
 40
0.047
  0
CIRCLE
  5
7E5
  8
HIDDEN
 10
12.072198
 20
5.4873510000000003
 30
0.0
 40
0.047
  0
LINE
  5
7E6
  8
OBJECT
 10
7.4643309999999987
 20
5.3130449999999989
 30
0.0
 11
7.5576559999999988
 21
5.4092250000000002
 31
0.0
  0
LINE
  5
7E7
  8
OBJECT
 10
7.486758
 20
5.2912829999999991
 30
0.0
 11
7.5800839999999994
 21
5.3874639999999987
 31
0.0
  0
LINE
  5
7E8
  8
HIDDEN
 10
12.263101000000001
 20
5.3130449999999989
 30
0.0
 11
12.16977599999999
 21
5.4092250000000002
 31
0.0
  0
LINE
  5
7E9
  8
HIDDEN
 10
12.240674
 20
5.2912829999999991
 30
0.0
 11
12.147347999999999
 21
5.3874639999999987
 31
0.0
  0
LINE
  5
7EA
  8
HIDDEN
 10
12.240674
 20
8.5954189999999997
 30
0.0
 11
12.147347999999999
 21
8.4992380000000001
 31
0.0
  0
LINE
  5
7EB
  8
HIDDEN
 10
12.263101000000001
 20
8.5736570000000007
 30
0.0
 11
12.16977599999999
 21
8.4774759999999993
 31
0.0
  0
LINE
  5
7EC
  8
OBJECT
 10
7.4347159999999999
 20
2.8918430000000002
 30
0.0
 11
7.4470479999999988
 21
1.4787119999999989
 31
0.0
  0
LINE
  5
7ED
  8
OBJECT
 10
7.5302340000000001
 20
2.8318430000000001
 30
0.0
 11
7.5182960000000003
 21
1.4638429999999989
 31
0.0
  0
LINE
  5
7EE
  8
OBJECT
 10
7.8152160000000004
 20
1.7138429999999989
 30
0.0
 11
7.8131059999999994
 21
1.4638429999999989
 31
0.0
  0
LINE
  5
7EF
  8
OBJECT
 10
7.7802340000000001
 20
2.8318430000000001
 30
0.0
 11
7.792173
 21
1.4638429999999989
 31
0.0
  0
LINE
  5
7F0
  8
OBJECT
 10
8.0002159999999982
 20
1.7138429999999989
 30
0.0
 11
8.0023260000000001
 21
1.4638429999999989
 31
0.0
  0
LINE
  5
7F1
  8
HIDDEN
 10
12.292716
 20
2.8918430000000002
 30
0.0
 11
12.280383999999991
 21
1.4787119999999989
 31
0.0
  0
LINE
  5
7F2
  8
HIDDEN
 10
12.197198
 20
2.8318430000000001
 30
0.0
 11
12.209136000000001
 21
1.4638429999999989
 31
0.0
  0
LINE
  5
7F3
  8
HIDDEN
 10
11.947198
 20
2.8318430000000001
 30
0.0
 11
11.93526
 21
1.4638429999999989
 31
0.0
  0
LINE
  5
7F4
  8
HIDDEN
 10
11.910216
 20
1.7138429999999989
 30
0.0
 11
11.91232599999999
 21
1.4638429999999989
 31
0.0
  0
LINE
  5
7F5
  8
HIDDEN
 10
11.727216
 20
1.7138429999999989
 30
0.0
 11
11.725106
 21
1.4638429999999989
 31
0.0
  0
LINE
  5
7F6
  8
HIDDEN
 10
11.866716
 20
1.7138429999999989
 30
0.0
 11
11.866716
 21
1.4638429999999989
 31
0.0
  0
LINE
  5
7F7
  8
HIDDEN
 10
11.772716000000001
 20
1.7138429999999989
 30
0.0
 11
11.772716000000001
 21
1.4638429999999989
 31
0.0
  0
LINE
  5
7F8
  8
HIDDEN
 10
11.910216
 20
1.7138429999999989
 30
0.0
 11
11.727216
 21
1.7138429999999989
 31
0.0
  0
LINE
  5
7F9
  8
HIDDEN
 10
11.947198
 20
2.8318430000000001
 30
0.0
 11
12.197198
 21
2.8318430000000001
 31
0.0
  0
LINE
  5
7FA
  8
HIDDEN
 10
12.11919799999999
 20
2.3317149999999991
 30
0.0
 11
12.025198
 21
2.3317149999999991
 31
0.0
  0
LINE
  5
7FB
  8
HIDDEN
 10
12.11919799999999
 20
2.8318430000000001
 30
0.0
 11
12.11919799999999
 21
2.3317149999999991
 31
0.0
  0
LINE
  5
7FC
  8
HIDDEN
 10
12.197722000000001
 20
2.7718430000000001
 30
0.0
 11
12.291669000000001
 21
2.7718430000000001
 31
0.0
  0
LINE
  5
7FD
  8
HIDDEN
 10
12.025198
 20
2.8318430000000001
 30
0.0
 11
12.025198
 21
2.3317149999999991
 31
0.0
  0
LINE
  5
7FE
  8
OBJECT
 10
2.6519499999999989
 20
5.2643509999999996
 30
0.0
 11
1.2388189999999999
 21
5.2766830000000002
 31
0.0
  0
LINE
  5
7FF
  8
OBJECT
 10
2.5919500000000002
 20
5.6098689999999998
 30
0.0
 11
1.2239500000000001
 21
5.6218069999999987
 31
0.0
  0
LINE
  5
800
  8
OBJECT
 10
2.5919500000000002
 20
5.3598689999999998
 30
0.0
 11
1.2239500000000001
 21
5.3479309999999991
 31
0.0
  0
LINE
  5
801
  8
HIDDEN
 10
2.6519499999999989
 20
8.6223510000000001
 30
0.0
 11
1.2388189999999999
 21
8.6100189999999994
 31
0.0
  0
LINE
  5
802
  8
HIDDEN
 10
2.5919500000000002
 20
8.5268329999999999
 30
0.0
 11
1.2239500000000001
 21
8.5387710000000006
 31
0.0
  0
LINE
  5
803
  8
HIDDEN
 10
2.5919500000000002
 20
8.2768329999999999
 30
0.0
 11
1.2239500000000001
 21
8.2648939999999982
 31
0.0
  0
LINE
  5
804
  8
HIDDEN
 10
1.2239500000000001
 20
7.5449979999999988
 30
0.0
 11
1.2239500000000001
 21
8.5950190000000006
 31
0.0
  0
LINE
  5
805
  8
OBJECT
 10
1.15195
 20
5.2197139999999989
 30
0.0
 11
1.15195
 21
8.6669869999999989
 31
0.0
  0
LINE
  5
806
  8
HIDDEN
 10
1.4739500000000001
 20
8.2398509999999998
 30
0.0
 11
1.2239500000000001
 21
8.2420330000000011
 31
0.0
  0
LINE
  5
807
  8
HIDDEN
 10
1.4739500000000001
 20
8.0548509999999993
 30
0.0
 11
1.2239500000000001
 21
8.0526689999999999
 31
0.0
  0
LINE
  5
808
  8
HIDDEN
 10
1.4739500000000001
 20
8.1943509999999993
 30
0.0
 11
1.2239500000000001
 21
8.1943509999999993
 31
0.0
  0
LINE
  5
809
  8
HIDDEN
 10
1.4739500000000001
 20
8.1003509999999999
 30
0.0
 11
1.2239500000000001
 21
8.1003509999999999
 31
0.0
  0
LINE
  5
80A
  8
HIDDEN
 10
1.4739500000000001
 20
8.2398509999999998
 30
0.0
 11
1.4739500000000001
 21
8.0548509999999993
 31
0.0
  0
ARC
  5
80B
  8
OBJECT
 10
1.1302000000000001
 20
6.9433509999999989
 30
0.0
 40
0.15625
 50
306.86989799999992
 51
53.130102000000001
  0
LINE
  5
80C
  8
HIDDEN
 10
1.4739500000000001
 20
5.7863509999999989
 30
0.0
 11
1.2239500000000001
 21
5.7863509999999989
 31
0.0
  0
LINE
  5
80D
  8
HIDDEN
 10
1.4739500000000001
 20
5.6923510000000004
 30
0.0
 11
1.2239500000000001
 21
5.6923510000000004
 31
0.0
  0
LINE
  5
80E
  8
OBJECT
 10
1.4739500000000001
 20
5.8318510000000003
 30
0.0
 11
1.2239500000000001
 21
5.8340329999999989
 31
0.0
  0
LINE
  5
80F
  8
OBJECT
 10
1.4739500000000001
 20
5.646850999999999
 30
0.0
 11
1.2239500000000001
 21
5.6446690000000004
 31
0.0
  0
LINE
  5
810
  8
OBJECT
 10
1.4739500000000001
 20
5.646850999999999
 30
0.0
 11
1.4739500000000001
 21
5.8318510000000003
 31
0.0
  0
DIMENSION
  5
811
  8
DIM
  2
*D68
 10
3.263949999999999
 20
5.1933509999999989
 30
0.0
 11
3.263949999999999
 21
6.9433509999999998
 31
0.0
 70
     0
  1
<>
 13
2.661449999999999
 23
8.6933509999999998
 33
0.0
 14
2.661449999999999
 24
5.1933509999999989
 34
0.0
 50
270.0
  0
LINE
  5
81F
  8
OBJECT
 10
2.6519499999999989
 20
8.6933509999999998
 30
0.0
 11
2.6519499999999989
 21
5.1933509999999989
 31
0.0
  0
LINE
  5
820
  8
HIDDEN
 10
2.5919500000000002
 20
8.2768329999999999
 30
0.0
 11
2.5919500000000002
 21
8.5268329999999999
 31
0.0
  0
LINE
  5
821
  8
HIDDEN
 10
2.0918229999999989
 20
8.4488330000000005
 30
0.0
 11
2.0918229999999989
 21
8.3548329999999993
 31
0.0
  0
LINE
  5
822
  8
HIDDEN
 10
2.5919500000000002
 20
8.4488330000000005
 30
0.0
 11
2.0918229999999989
 21
8.4488330000000005
 31
0.0
  0
LINE
  5
823
  8
HIDDEN
 10
2.5319500000000001
 20
8.5273559999999993
 30
0.0
 11
2.5319500000000001
 21
8.6213039999999985
 31
0.0
  0
LINE
  5
824
  8
HIDDEN
 10
2.5919500000000002
 20
8.3548329999999993
 30
0.0
 11
2.0918229999999989
 21
8.3548329999999993
 31
0.0
  0
LINE
  5
825
  8
HIDDEN
 10
2.5919500000000002
 20
5.5318690000000004
 30
0.0
 11
2.0918229999999989
 21
5.5318690000000004
 31
0.0
  0
LINE
  5
826
  8
HIDDEN
 10
2.5919500000000002
 20
5.4378690000000001
 30
0.0
 11
2.0918229999999989
 21
5.4378690000000001
 31
0.0
  0
LINE
  5
827
  8
HIDDEN
 10
2.0918229999999989
 20
5.4378690000000001
 30
0.0
 11
2.0918229999999989
 21
5.5318690000000004
 31
0.0
  0
LINE
  5
828
  8
HIDDEN
 10
2.5919500000000002
 20
5.6098689999999998
 30
0.0
 11
2.5919500000000002
 21
5.3598689999999998
 31
0.0
  0
LINE
  5
829
  8
OBJECT
 10
2.5319500000000001
 20
5.3593449999999994
 30
0.0
 11
2.5319500000000001
 21
5.2653980000000002
 31
0.0
  0
DIMENSION
  5
82A
  8
DIM
  2
*D69
 10
2.6519499999999989
 20
4.6172139999999988
 30
0.0
 11
1.937949999999999
 21
4.6172139999999988
 31
0.0
 70
     0
 13
1.2239500000000001
 23
5.2905920000000002
 33
0.0
 14
2.6519499999999989
 24
5.1933509999999989
 34
0.0
  0
DIMENSION
  5
838
  8
DIM
  2
*D70
 10
2.6519499999999989
 20
4.1957139999999988
 30
0.0
 11
1.9019499999999989
 21
4.1957139999999988
 31
0.0
 70
     0
 13
1.15195
 23
5.2197139999999989
 33
0.0
 14
2.6519499999999989
 24
5.1933509999999989
 34
0.0
  0
LINE
  5
846
  8
OBJECT
 10
12.363716
 20
2.8918430000000002
 30
0.0
 11
12.399853
 21
1.511843
 31
0.0
  0
DIMENSION
  5
847
  8
DIM
  2
*D71
 10
7.3275800000000002
 20
0.851843
 30
0.0
 11
9.8637165000000007
 21
0.851843
 31
0.0
 70
     0
 13
12.399853
 23
1.511843
 33
0.0
 14
7.3275800000000002
 24
1.511843
 34
0.0
  0
LINE
  5
855
  8
OBJECT
 10
7.3637160000000002
 20
2.8918430000000002
 30
0.0
 11
7.3275800000000002
 21
1.511843
 31
0.0
  0
LINE
  5
856
  8
OBJECT
 10
2.6519499999999989
 20
5.1933509999999989
 30
0.0
 11
1.271949999999999
 21
5.1572139999999989
 31
0.0
  0
LINE
  5
857
  8
OBJECT
 10
2.6519499999999989
 20
8.6933509999999998
 30
0.0
 11
1.271949999999999
 21
8.7294869999999989
 31
0.0
  0
DIMENSION
  5
858
  8
DIM
  2
*D72
 10
0.6119500000000001
 20
5.1572139999999989
 30
0.0
 11
0.6119499999999994
 21
6.9433504999999993
 31
0.0
 70
     0
 13
1.21445
 23
8.7294869999999989
 33
0.0
 14
1.21445
 24
5.1572139999999989
 34
0.0
 50
90.0
  0
DIMENSION
  5
866
  8
DIM
  2
*D73
 10
13.403715999999999
 20
5.7373510000000003
 30
0.0
 11
13.403715999999999
 21
6.340351000000001
 31
0.0
 70
     0
 13
12.703716
 23
6.9433509999999989
 33
0.0
 14
11.909715999999991
 24
5.7373510000000003
 34
0.0
 50
90.0
  0
DIMENSION
  5
874
  8
DIM
  2
*D74
 10
14.246715999999999
 20
8.1493509999999976
 30
0.0
 11
14.24671599999999
 21
6.9433510000000007
 31
0.0
 70
     0
 13
11.909715999999991
 23
5.7373510000000003
 33
0.0
 14
11.909715999999991
 24
8.1493509999999993
 34
0.0
 50
90.0
  0
DIMENSION
  5
882
  8
DIM
  2
*D75
 10
7.9077159999999997
 20
9.2694869999999998
 30
0.0
 11
8.8857160000000004
 21
9.2694869999999998
 31
0.0
 70
     0
 13
9.8637160000000002
 23
8.9794699999999992
 33
0.0
 14
7.9077159999999997
 24
8.2393509999999992
 34
0.0
  0
DIMENSION
  5
890
  8
DIM
  2
*D76
 10
7.9077159999999997
 20
9.6909869999999998
 30
0.0
 11
9.8637160000000002
 21
9.6909869999999998
 31
0.0
 70
     0
 13
11.819716
 23
8.2393509999999992
 33
0.0
 14
7.9077159999999997
 24
8.2393509999999992
 34
0.0
  0
LINE
  5
89E
  8
CENTER
 10
7.5652339999999993
 20
5.4873510000000003
 30
0.0
 11
7.7452339999999991
 21
5.4873510000000003
 31
0.0
  0
LINE
  5
89F
  8
CENTER
 10
7.6552340000000001
 20
5.3973509999999996
 30
0.0
 11
7.6552340000000001
 21
5.5773510000000002
 31
0.0
  0
LINE
  5
8A0
  8
CENTER
 10
7.8177159999999999
 20
5.7373510000000003
 30
0.0
 11
7.9977159999999996
 21
5.7373510000000003
 31
0.0
  0
LINE
  5
8A1
  8
CENTER
 10
7.9077159999999997
 20
5.6473509999999996
 30
0.0
 11
7.9077159999999997
 21
5.8273510000000002
 31
0.0
  0
LINE
  5
8A2
  8
CENTER
 10
7.8177159999999999
 20
8.1493509999999993
 30
0.0
 11
7.9977159999999996
 21
8.1493509999999993
 31
0.0
  0
LINE
  5
8A3
  8
CENTER
 10
7.9077159999999997
 20
8.0593509999999995
 30
0.0
 11
7.9077159999999997
 21
8.2393509999999992
 31
0.0
  0
LINE
  5
8A4
  8
CENTER
 10
11.982198
 20
8.3993509999999993
 30
0.0
 11
12.162198
 21
8.3993509999999993
 31
0.0
  0
LINE
  5
8A5
  8
CENTER
 10
12.072198
 20
8.3093509999999995
 30
0.0
 11
12.072198
 21
8.4893509999999992
 31
0.0
  0
LINE
  5
8A6
  8
CENTER
 10
11.729716
 20
8.1493509999999993
 30
0.0
 11
11.909715999999991
 21
8.1493509999999993
 31
0.0
  0
LINE
  5
8A7
  8
CENTER
 10
11.819716
 20
8.0593509999999995
 30
0.0
 11
11.819716
 21
8.2393509999999992
 31
0.0
  0
LINE
  5
8A8
  8
CENTER
 10
11.729716
 20
5.7373510000000003
 30
0.0
 11
11.909715999999991
 21
5.7373510000000003
 31
0.0
  0
LINE
  5
8A9
  8
CENTER
 10
11.819716
 20
5.6473509999999996
 30
0.0
 11
11.819716
 21
5.8273510000000002
 31
0.0
  0
LINE
  5
8AA
  8
CENTER
 10
11.982198
 20
5.4873510000000003
 30
0.0
 11
12.162198
 21
5.4873510000000003
 31
0.0
  0
LINE
  5
8AB
  8
CENTER
 10
12.072198
 20
5.3973509999999996
 30
0.0
 11
12.072198
 21
5.5773510000000002
 31
0.0
  0
INSERT
  5
8AC
  8
CENTER
  2
CTRLN
 10
8.5733110000000003
 20
6.9433509999999989
 30
0.0
 41
0.375
 42
0.375
 43
0.375
  0
INSERT
  5
8AD
  8
CENTER
  2
CTRLN
 10
9.8637160000000002
 20
6.3842239999999988
 30
0.0
 41
0.375
 42
0.375
 43
0.375
  0
POLYLINE
  5
8AE
  8
DIM
 66
     1
 10
0.0
 20
0.0
 30
0.0
 41
0.10125
  0
VERTEX
  5
C1F
  8
DIM
 10
11.853778999999991
 20
8.1661330000000003
 30
0.0
  0
VERTEX
  5
C20
  8
DIM
 10
11.993494
 20
8.3953659999999992
 30
0.0
 41
0.0
  0
VERTEX
  5
C21
  8
DIM
 10
12.442164
 20
9.1315030000000004
 30
0.0
 41
0.0
  0
VERTEX
  5
C22
  8
DIM
 10
12.712164
 20
9.1315030000000004
 30
0.0
 41
0.0
  0
SEQEND
  5
C23
  8
DIM
  0
TEXT
  5
8B4
  8
DIM
 10
12.84716399999999
 20
9.0377530000000004
 30
0.0
 40
0.1875
  1
0.094 DIA. HOLE
 41
0.75
  7
TXT
 11
12.84716399999999
 21
9.1315030000000004
 31
0.0
 73
     2
  0
TEXT
  5
8B5
  8
DIM
 10
12.84716399999999
 20
8.7252530000000004
 30
0.0
 40
0.1875
  1
x 0.250 DEEP
 41
0.75
  7
TXT
 11
12.84716399999999
 21
8.8190030000000004
 31
0.0
 73
     2
  0
TEXT
  5
8B6
  8
DIM
 10
12.84716399999999
 20
8.4127530000000004
 30
0.0
 40
0.1875
  1
(4) PLACES
 41
0.75
  7
TXT
 11
12.84716399999999
 21
8.5065030000000004
 31
0.0
 73
     2
  0
DIMENSION
  5
8B7
  8
DIM
  2
*D77
 10
8.118093
 20
1.7138429999999989
 30
0.0
 11
8.7000930000000007
 21
1.5888430000000009
 31
0.0
 70
     0
 13
8.118093
 23
1.4638429999999989
 33
0.0
 14
8.0002159999999982
 24
1.7138429999999989
 34
0.0
 50
90.0
  0
TEXT
  5
8C5
  8
DIM
 10
5.1537059999999988
 20
9.5246829999999996
 30
0.0
 40
0.1875
  1
(4) PLACES
 41
0.75
  7
TXT
 72
     2
 11
6.4193309999999988
 21
9.6184329999999996
 31
0.0
 73
     2
  0
TEXT
  5
8C6
  8
DIM
 10
4.6615184999999988
 20
9.8371829999999996
 30
0.0
 40
0.1875
  1
0.187 DIA. BOSS
 41
0.75
  7
TXT
 72
     2
 11
6.4193309999999988
 21
9.9309329999999996
 31
0.0
 73
     2
  0
POLYLINE
  5
8C7
  8
DIM
 66
     1
 10
0.0
 20
0.0
 30
0.0
 41
0.10125
  0
VERTEX
  5
C24
  8
DIM
 10
7.8613850000000003
 20
8.2294270000000012
 30
0.0
  0
VERTEX
  5
C25
  8
DIM
 10
7.7216699999999987
 20
8.458658999999999
 30
0.0
 41
0.0
  0
VERTEX
  5
C26
  8
DIM
 10
6.824330999999999
 20
9.9309329999999996
 30
0.0
 41
0.0
  0
VERTEX
  5
C27
  8
DIM
 10
6.5543309999999986
 20
9.9309329999999996
 30
0.0
 41
0.0
  0
SEQEND
  5
C28
  8
DIM
  0
LINE
  5
8CD
  8
BEND
 10
12.863716
 20
1.511843
 30
0.0
 11
12.863716
 21
1.4543429999999991
 31
0.0
  0
LINE
  5
8CE
  8
BEND
 10
6.8637160000000002
 20
1.511843
 30
0.0
 11
6.8637160000000002
 21
1.4543429999999991
 31
0.0
  0
LINE
  5
8CF
  8
BEND
 10
12.863716
 20
1.511843
 30
0.0
 11
11.072227
 21
1.511843
 31
0.0
  0
ARC
  5
8D0
  8
BEND
 10
12.801216
 20
1.4543429999999991
 30
0.0
 40
0.0625
 50
270.0
 51
0.0
  0
ARC
  5
8D1
  8
BEND
 10
6.9262160000000002
 20
1.4543429999999991
 30
0.0
 40
0.0625
 50
180.0
 51
270.0
  0
DIMENSION
  5
8D2
  8
DIM
  2
*D78
 10
13.403715999999999
 20
1.511843
 30
0.0
 11
13.985716
 21
1.4518430000000011
 31
0.0
 70
     0
 13
12.801216
 23
1.3918429999999991
 33
0.0
 14
12.863716
 24
1.511843
 34
0.0
 50
90.0
  0
LINE
  5
8E0
  8
BEND
 10
1.271949999999999
 20
7.529774999999999
 30
0.0
 11
1.271949999999999
 21
8.7294869999999989
 31
0.0
  0
LINE
  5
8E1
  8
BEND
 10
1.271949999999999
 20
8.7294869999999989
 30
0.0
 11
1.21445
 21
8.7294869999999989
 31
0.0
  0
LINE
  5
8E2
  8
BEND
 10
1.271949999999999
 20
5.1572139999999989
 30
0.0
 11
1.21445
 21
5.1572139999999989
 31
0.0
  0
ARC
  5
8E3
  8
BEND
 10
1.21445
 20
5.2197139999999989
 30
0.0
 40
0.0625
 50
180.0
 51
270.0
  0
ARC
  5
8E4
  8
BEND
 10
1.21445
 20
8.6669869999999989
 30
0.0
 40
0.0625
 50
90.0
 51
180.0
  0
DIMENSION
  5
8E5
  8
DIM
  2
*D79
 10
6.8637160000000002
 20
0.4303430000000001
 30
0.0
 11
9.8637160000000002
 21
0.4303430000000001
 31
0.0
 70
     0
 13
12.863716
 23
1.4543429999999991
 33
0.0
 14
6.8637160000000002
 24
1.4543429999999991
 34
0.0
  0
DIMENSION
  5
8F3
  8
DIM
  2
*D80
 10
6.8637160000000002
 20
0.851843
 30
0.0
 11
7.0956479999999997
 21
0.2698429999999999
 31
0.0
 70
     0
 13
7.3275800000000002
 23
1.511843
 33
0.0
 14
6.8637160000000002
 24
1.4543429999999991
 34
0.0
  0
TEXT
  5
903
  8
DIM
 10
21.363075999999989
 20
25.255842000000001
 30
0.0
 40
0.125
  1

  0
TEXT
  5
904
  8
DIM
 10
21.426221999999989
 20
33.404516999999998
 30
0.0
 40
0.125
  1

  0
TEXT
  5
905
  8
0
  6
CONTINUOUS
 62
     1
 10
39.928398000000001
 20
22.290929999999999
 30
0.0
 40
0.0625
  1

  7
ROMANS
  0
TEXT
  5
906
  8
0
  6
CONTINUOUS
 62
     1
 10
39.928398000000001
 20
21.987358
 30
0.0
 40
0.0625
  1

  7
ROMANS
  0
TEXT
  5
909
  8
DIM
 10
21.363075999999989
 20
35.375841999999992
 30
0.0
 40
0.125
  1

  0
TEXT
  5
90A
  8
DIM
 10
21.426221999999989
 20
43.524516999999989
 30
0.0
 40
0.125
  1

  0
TEXT
  5
90B
  8
0
  6
CONTINUOUS
 62
     1
 10
39.928398000000001
 20
32.41093
 30
0.0
 40
0.0625
  1

  7
ROMANS
  0
TEXT
  5
90C
  8
0
  6
CONTINUOUS
 62
     1
 10
39.928398000000001
 20
32.107357999999998
 30
0.0
 40
0.0625
  1

  7
ROMANS
  0
TEXT
  5
90D
  8
0
  6
CONTINUOUS
 62
     1
 10
23.333292999999991
 20
42.612006000000001
 30
0.0
 40
0.0625
  1

  7
ROMANS
  0
TEXT
  5
90E
  8
0
  6
CONTINUOUS
 62
     1
 10
23.333292999999991
 20
42.308433999999998
 30
0.0
 40
0.0625
  1

  7
ROMANS
  0
CIRCLE
  5
90F
  8
BEND
 10
12.613716
 20
6.9433509999999989
 30
0.0
 40
0.1015
  0
CIRCLE
  5
910
  8
BEND
 10
7.1137160000000002
 20
6.9433509999999989
 30
0.0
 40
0.1015
  0
LINE
  5
911
  8
BEND
 10
6.8637160000000002
 20
5.8264300000000002
 30
0.0
 11
6.8637160000000002
 21
8.0602710000000002
 31
0.0
  0
LINE
  5
912
  8
CENTER
 10
7.0237160000000003
 20
6.9433509999999989
 30
0.0
 11
7.203716
 21
6.9433509999999989
 31
0.0
  0
LINE
  5
913
  8
CENTER
 10
7.1137160000000002
 20
6.8533509999999991
 30
0.0
 11
7.1137160000000002
 21
7.0333509999999988
 31
0.0
  0
LINE
  5
914
  8
CENTER
 10
12.523716
 20
6.9433509999999989
 30
0.0
 11
12.703716
 21
6.9433509999999989
 31
0.0
  0
LINE
  5
915
  8
CENTER
 10
12.613716
 20
6.8533509999999991
 30
0.0
 11
12.613716
 21
7.0333509999999988
 31
0.0
  0
POLYLINE
  5
916
  8
DIM
 66
     1
 10
0.0
 20
0.0
 30
0.0
 41
0.10125
  0
VERTEX
  5
C29
  8
DIM
 10
7.0430330000000003
 20
7.0161939999999996
 30
0.0
  0
VERTEX
  5
C2A
  8
DIM
 10
6.8550079999999989
 20
7.2099630000000001
 30
0.0
 41
0.0
  0
VERTEX
  5
C2B
  8
DIM
 10
6.3980449999999989
 20
7.7746369999999994
 30
0.0
 41
0.0
  0
VERTEX
  5
C2C
  8
DIM
 10
6.1280449999999993
 20
7.7746369999999994
 30
0.0
 41
0.0
  0
SEQEND
  5
C2D
  8
DIM
  0
TEXT
  5
91C
  8
DIM
 10
4.9149199999999986
 20
7.6808869999999994
 30
0.0
 40
0.1875
  1
0.203 DIA.
 41
0.75
  7
TXT
 72
     2
 11
5.9930449999999986
 21
7.7746369999999994
 31
0.0
 73
     2
  0
TEXT
  5
91D
  8
DIM
 10
4.8680449999999986
 20
7.3683869999999994
 30
0.0
 40
0.1875
  1
(2) HOLES
 41
0.75
  7
TXT
 72
     2
 11
5.9930449999999986
 21
7.4621369999999994
 31
0.0
 73
     2
  0
LINE
  5
91E
  8
HIDDEN
 10
12.715216
 20
1.511843
 30
0.0
 11
12.715216
 21
1.3918429999999991
 31
0.0
  0
LINE
  5
91F
  8
HIDDEN
 10
12.512216
 20
1.511843
 30
0.0
 11
12.512216
 21
1.3918429999999991
 31
0.0
  0
DIMENSION
  5
920
  8
DIM
  2
*D81
 10
12.613716
 20
4.1957139999999988
 30
0.0
 11
9.8637160000000002
 21
4.1957139999999988
 31
0.0
 70
     0
 13
7.1137160000000002
 23
6.8533509999999991
 33
0.0
 14
12.613716
 24
6.8533509999999991
 34
0.0
  0
DIMENSION
  5
92E
  8
DIM
  2
*D82
 10
9.8637160000000002
 20
4.6172139999999988
 30
0.0
 11
8.4887160000000002
 21
4.6172139999999988
 31
0.0
 70
     0
 13
7.1137160000000002
 23
6.8533509999999991
 33
0.0
 14
9.8637160000000002
 24
4.9072319999999987
 34
0.0
  0
ARC
  5
93C
  8
OBJECT
 10
7.4620479999999993
 20
1.4788429999999999
 30
0.0
 40
0.015
 50
180.49999999999989
 51
270.0
  0
ARC
  5
93D
  8
HIDDEN
 10
12.265385
 20
1.4788429999999999
 30
0.0
 40
0.015
 50
270.0
 51
359.5
  0
ARC
  5
93E
  8
OBJECT
 10
1.2389499999999991
 20
5.2916819999999989
 30
0.0
 40
0.015
 50
180.0
 51
269.5
  0
ARC
  5
93F
  8
HIDDEN
 10
1.2389499999999991
 20
8.5950190000000006
 30
0.0
 40
0.015
 50
90.5
 51
180.0
  0
POLYLINE
  5
940
  8
OBJECT
 66
     1
 10
0.0
 20
0.0
 30
0.0
 70
     1
  0
VERTEX
  5
C2E
  8
OBJECT
 10
7.3277159999999997
 20
8.4904700000000002
 30
0.0
  0
VERTEX
  5
C2F
  8
OBJECT
 10
7.3277159999999997
 20
5.3962320000000004
 30
0.0
 42
0.4142140000000001
  0
VERTEX
  5
C30
  8
OBJECT
 10
7.5667160000000004
 20
5.1572319999999987
 30
0.0
  0
VERTEX
  5
C31
  8
OBJECT
 10
12.160716000000001
 20
5.1572319999999987
 30
0.0
 42
0.4142140000000001
  0
VERTEX
  5
C32
  8
OBJECT
 10
12.399716
 20
5.3962320000000004
 30
0.0
  0
VERTEX
  5
C33
  8
OBJECT
 10
12.399716
 20
8.4904700000000002
 30
0.0
 42
0.4142140000000001
  0
VERTEX
  5
C34
  8
OBJECT
 10
12.160716000000001
 20
8.7294699999999992
 30
0.0
  0
VERTEX
  5
C35
  8
OBJECT
 10
7.5667160000000004
 20
8.7294699999999992
 30
0.0
 42
0.4142140000000001
  0
SEQEND
  5
C36
  8
OBJECT
  0
LINE
  5
94A
  8
BEND
 10
7.3919229999999994
 20
5.2332339999999986
 30
0.0
 11
6.8805069999999997
 21
5.7838050000000001
 31
0.0
  0
ARC
  5
94B
  8
BEND
 10
6.9262160000000002
 20
5.8264300000000002
 30
0.0
 40
0.0625
 50
180.0
 51
223.0
  0
ARC
  5
94C
  8
BEND
 10
6.9262160000000002
 20
8.0602710000000002
 30
0.0
 40
0.0625
 50
137.0
 51
180.0
  0
LINE
  5
94D
  8
BEND
 10
7.3919229999999994
 20
8.6534680000000002
 30
0.0
 11
6.8805069999999997
 21
8.1028960000000012
 31
0.0
  0
LINE
  5
94E
  8
BEND
 10
12.335509999999999
 20
8.6534680000000002
 30
0.0
 11
12.846926
 21
8.1028960000000012
 31
0.0
  0
LINE
  5
94F
  8
BEND
 10
12.863716
 20
5.8264300000000002
 30
0.0
 11
12.863716
 21
8.0602710000000002
 31
0.0
  0
ARC
  5
950
  8
BEND
 10
12.801216
 20
5.8264300000000002
 30
0.0
 40
0.0625
 50
317.0
 51
0.0
  0
ARC
  5
951
  8
BEND
 10
12.801216
 20
8.0602710000000002
 30
0.0
 40
0.0625
 50
0.0
 51
43.0
  0
LINE
  5
952
  8
BEND
 10
12.335509999999999
 20
5.2332339999999986
 30
0.0
 11
12.846926
 21
5.7838050000000001
 31
0.0
  0
TEXT
  5
955
  8
DIM
 10
36.863076
 20
5.0158420000000001
 30
0.0
 40
0.125
  1

  0
TEXT
  5
956
  8
DIM
 10
36.926221999999989
 20
13.164517
 30
0.0
 40
0.125
  1

  0
TEXT
  5
957
  8
0
  6
CONTINUOUS
 62
     1
 10
55.428398000000001
 20
2.0509300000000001
 30
0.0
 40
0.0625
  1

  7
ROMANS
  0
TEXT
  5
958
  8
0
  6
CONTINUOUS
 62
     1
 10
55.428398000000001
 20
1.747358
 30
0.0
 40
0.0625
  1

  7
ROMANS
  0
TEXT
  5
959
  8
0
  6
CONTINUOUS
 62
     1
 10
38.833292999999991
 20
12.252005999999991
 30
0.0
 40
0.0625
  1

  7
ROMANS
  0
TEXT
  5
95A
  8
0
  6
CONTINUOUS
 62
     1
 10
38.833292999999991
 20
11.94843399999999
 30
0.0
 40
0.0625
  1

  7
ROMANS
  0
CIRCLE
  5
95B
  8
OBJECT
 10
12.072215999999999
 20
8.3993509999999993
 30
0.0
 40
0.0625
  0
CIRCLE
  5
95C
  8
HIDDEN
 10
12.072215999999999
 20
8.3993509999999993
 30
0.0
 40
0.123
  0
CIRCLE
  5
95D
  8
OBJECT
 10
12.072215999999999
 20
8.3993509999999993
 30
0.0
 40
0.1125
  0
CIRCLE
  5
95E
  8
HIDDEN
 10
12.072215999999999
 20
5.4873510000000003
 30
0.0
 40
0.123
  0
CIRCLE
  5
95F
  8
OBJECT
 10
12.072215999999999
 20
5.4873510000000003
 30
0.0
 40
0.1125
  0
CIRCLE
  5
960
  8
OBJECT
 10
12.072215999999999
 20
5.4873510000000003
 30
0.0
 40
0.0625
  0
LINE
  5
961
  8
OBJECT
 10
7.4262160000000002
 20
2.9638429999999998
 30
0.0
 11
12.301216
 21
2.9638429999999998
 31
0.0
  0
LINE
  5
962
  8
HIDDEN
 10
7.7782159999999996
 20
2.8288429999999991
 30
0.0
 11
7.7782159999999996
 21
2.8918430000000002
 31
0.0
  0
LINE
  5
963
  8
HIDDEN
 10
7.532216
 20
2.8288429999999991
 30
0.0
 11
7.532216
 21
2.8918430000000002
 31
0.0
  0
LINE
  5
964
  8
HIDDEN
 10
7.7177160000000002
 20
2.8288429999999991
 30
0.0
 11
7.7177160000000002
 21
2.8753239999999991
 31
0.0
  0
LINE
  5
965
  8
HIDDEN
 10
7.5927160000000002
 20
2.8288429999999991
 30
0.0
 11
7.5927160000000002
 21
2.8753239999999991
 31
0.0
  0
LINE
  5
966
  8
HIDDEN
 10
7.7677160000000001
 20
2.9328430000000001
 30
0.0
 11
7.7677160000000001
 21
2.9638429999999998
 31
0.0
  0
LINE
  5
967
  8
HIDDEN
 10
7.5427160000000004
 20
2.9328430000000001
 30
0.0
 11
7.5427160000000004
 21
2.9638429999999998
 31
0.0
  0
LINE
  5
968
  8
HIDDEN
 10
7.5427160000000004
 20
2.9328430000000001
 30
0.0
 11
7.7677160000000001
 21
2.9328430000000001
 31
0.0
  0
LINE
  5
969
  8
HIDDEN
 10
7.7677160000000001
 20
2.9328430000000001
 30
0.0
 11
7.7177160000000002
 21
2.8753239999999991
 31
0.0
  0
LINE
  5
96A
  8
HIDDEN
 10
7.5427160000000004
 20
2.9328430000000001
 30
0.0
 11
7.5927160000000002
 21
2.8753239999999991
 31
0.0
  0
LINE
  5
96B
  8
HIDDEN
 10
7.7177160000000002
 20
2.8753239999999991
 30
0.0
 11
7.5927160000000002
 21
2.8753239999999991
 31
0.0
  0
LINE
  5
96C
  8
HIDDEN
 10
10.92510399999999
 20
2.8288429999999991
 30
0.0
 11
12.281715999999999
 21
2.8288429999999991
 31
0.0
  0
LINE
  5
96D
  8
OBJECT
 10
7.445716
 20
2.8918430000000002
 30
0.0
 11
7.445716
 21
2.8288429999999991
 31
0.0
  0
LINE
  5
96E
  8
HIDDEN
 10
7.5087159999999997
 20
2.8918430000000002
 30
0.0
 11
7.5087159999999997
 21
2.8288429999999991
 31
0.0
  0
LINE
  5
96F
  8
HIDDEN
 10
12.281715999999999
 20
2.8918430000000002
 30
0.0
 11
12.281715999999999
 21
2.8288429999999991
 31
0.0
  0
LINE
  5
970
  8
HIDDEN
 10
12.009715999999999
 20
2.8288429999999991
 30
0.0
 11
12.009715999999999
 21
2.8753239999999991
 31
0.0
  0
LINE
  5
971
  8
HIDDEN
 10
12.134715999999999
 20
2.8288429999999991
 30
0.0
 11
12.134715999999999
 21
2.8753239999999991
 31
0.0
  0
LINE
  5
972
  8
HIDDEN
 10
12.218716000000001
 20
2.8918430000000002
 30
0.0
 11
12.218716000000001
 21
2.8288429999999991
 31
0.0
  0
LINE
  5
973
  8
HIDDEN
 10
12.195216
 20
2.8288429999999991
 30
0.0
 11
12.195216
 21
2.8918430000000002
 31
0.0
  0
LINE
  5
974
  8
HIDDEN
 10
11.949216
 20
2.8288429999999991
 30
0.0
 11
11.949216
 21
2.8918430000000002
 31
0.0
  0
LINE
  5
975
  8
HIDDEN
 10
12.184715999999989
 20
2.9328430000000001
 30
0.0
 11
11.959716
 21
2.9328430000000001
 31
0.0
  0
LINE
  5
976
  8
HIDDEN
 10
12.009715999999999
 20
2.8753239999999991
 30
0.0
 11
12.134715999999999
 21
2.8753239999999991
 31
0.0
  0
LINE
  5
977
  8
HIDDEN
 10
12.184715999999989
 20
2.9328430000000001
 30
0.0
 11
12.184715999999989
 21
2.9638429999999998
 31
0.0
  0
LINE
  5
978
  8
HIDDEN
 10
12.184715999999989
 20
2.9328430000000001
 30
0.0
 11
12.134715999999999
 21
2.8753239999999991
 31
0.0
  0
LINE
  5
979
  8
HIDDEN
 10
11.959716
 20
2.9328430000000001
 30
0.0
 11
11.959716
 21
2.9638429999999998
 31
0.0
  0
LINE
  5
97A
  8
HIDDEN
 10
11.959716
 20
2.9328430000000001
 30
0.0
 11
12.009715999999999
 21
2.8753239999999991
 31
0.0
  0
LINE
  5
97B
  8
OBJECT
 10
2.723949999999999
 20
8.6308509999999998
 30
0.0
 11
2.723949999999999
 21
5.2558509999999989
 31
0.0
  0
LINE
  5
97C
  8
HIDDEN
 10
2.5889500000000001
 20
8.6113509999999991
 30
0.0
 11
2.5889500000000001
 21
7.673146
 31
0.0
  0
LINE
  5
97D
  8
HIDDEN
 10
2.6519499999999989
 20
8.6113509999999991
 30
0.0
 11
2.5889500000000001
 21
8.6113509999999991
 31
0.0
  0
LINE
  5
97E
  8
HIDDEN
 10
2.6929500000000002
 20
8.5118510000000001
 30
0.0
 11
2.6929500000000002
 21
8.2868509999999986
 31
0.0
  0
LINE
  5
97F
  8
HIDDEN
 10
2.6354310000000001
 20
8.3368509999999993
 30
0.0
 11
2.6354310000000001
 21
8.4618509999999993
 31
0.0
  0
LINE
  5
980
  8
HIDDEN
 10
2.6929500000000002
 20
8.5118510000000001
 30
0.0
 11
2.6354310000000001
 21
8.4618509999999993
 31
0.0
  0
LINE
  5
981
  8
HIDDEN
 10
2.6519499999999989
 20
8.5483510000000003
 30
0.0
 11
2.5889500000000001
 21
8.5483510000000003
 31
0.0
  0
LINE
  5
982
  8
HIDDEN
 10
2.5889500000000001
 20
8.5223509999999987
 30
0.0
 11
2.6519499999999989
 21
8.5223509999999987
 31
0.0
  0
LINE
  5
983
  8
HIDDEN
 10
2.6929500000000002
 20
8.5118510000000001
 30
0.0
 11
2.723949999999999
 21
8.5118510000000001
 31
0.0
  0
LINE
  5
984
  8
HIDDEN
 10
2.5889500000000001
 20
8.4618509999999993
 30
0.0
 11
2.6354310000000001
 21
8.4618509999999993
 31
0.0
  0
LINE
  5
985
  8
HIDDEN
 10
2.6929500000000002
 20
8.2868509999999986
 30
0.0
 11
2.6354310000000001
 21
8.3368509999999993
 31
0.0
  0
LINE
  5
986
  8
HIDDEN
 10
2.5889500000000001
 20
8.276351
 30
0.0
 11
2.6519499999999989
 21
8.276351
 31
0.0
  0
LINE
  5
987
  8
HIDDEN
 10
2.6929500000000002
 20
8.2868509999999986
 30
0.0
 11
2.723949999999999
 21
8.2868509999999986
 31
0.0
  0
LINE
  5
988
  8
HIDDEN
 10
2.5889500000000001
 20
8.3368509999999993
 30
0.0
 11
2.6354310000000001
 21
8.3368509999999993
 31
0.0
  0
LINE
  5
989
  8
HIDDEN
 10
2.6354310000000001
 20
5.5498510000000003
 30
0.0
 11
2.6354310000000001
 21
5.4248510000000003
 31
0.0
  0
LINE
  5
98A
  8
HIDDEN
 10
2.6929500000000002
 20
5.3748509999999996
 30
0.0
 11
2.6929500000000002
 21
5.5998510000000001
 31
0.0
  0
LINE
  5
98B
  8
HIDDEN
 10
2.6929500000000002
 20
5.5998510000000001
 30
0.0
 11
2.6354310000000001
 21
5.5498510000000003
 31
0.0
  0
LINE
  5
98C
  8
HIDDEN
 10
2.5889500000000001
 20
5.6103509999999996
 30
0.0
 11
2.6519499999999989
 21
5.6103509999999996
 31
0.0
  0
LINE
  5
98D
  8
HIDDEN
 10
2.6929500000000002
 20
5.5998510000000001
 30
0.0
 11
2.723949999999999
 21
5.5998510000000001
 31
0.0
  0
LINE
  5
98E
  8
HIDDEN
 10
2.5889500000000001
 20
5.5498510000000003
 30
0.0
 11
2.6354310000000001
 21
5.5498510000000003
 31
0.0
  0
LINE
  5
98F
  8
HIDDEN
 10
2.6929500000000002
 20
5.3748509999999996
 30
0.0
 11
2.6354310000000001
 21
5.4248510000000003
 31
0.0
  0
LINE
  5
990
  8
HIDDEN
 10
2.5889500000000001
 20
5.3643510000000001
 30
0.0
 11
2.6519499999999989
 21
5.3643510000000001
 31
0.0
  0
LINE
  5
991
  8
HIDDEN
 10
2.6519499999999989
 20
5.3383510000000003
 30
0.0
 11
2.5889500000000001
 21
5.3383510000000003
 31
0.0
  0
LINE
  5
992
  8
HIDDEN
 10
2.6929500000000002
 20
5.3748509999999996
 30
0.0
 11
2.723949999999999
 21
5.3748509999999996
 31
0.0
  0
LINE
  5
993
  8
HIDDEN
 10
2.5889500000000001
 20
5.4248510000000003
 30
0.0
 11
2.6354310000000001
 21
5.4248510000000003
 31
0.0
  0
LINE
  5
994
  8
OBJECT
 10
2.6519499999999989
 20
5.2753509999999997
 30
0.0
 11
2.5889500000000001
 21
5.2753509999999997
 31
0.0
  0
LINE
  5
995
  8
OBJECT
 10
2.6519499999999989
 20
5.1933509999999989
 30
0.0
 11
2.661449999999999
 21
5.1933509999999989
 31
0.0
  0
ARC
  5
996
  8
OBJECT
 10
2.661449999999999
 20
5.2558509999999989
 30
0.0
 40
0.0625
 50
270.0
 51
0.0
  0
LINE
  5
997
  8
OBJECT
 10
2.6519499999999989
 20
8.6933509999999998
 30
0.0
 11
2.661449999999999
 21
8.6933509999999998
 31
0.0
  0
ARC
  5
998
  8
OBJECT
 10
2.661449999999999
 20
8.6308509999999998
 30
0.0
 40
0.0625
 50
0.0
 51
90.0
  0
LINE
  5
999
  8
OBJECT
 10
7.3637160000000002
 20
2.8918430000000002
 30
0.0
 11
7.3637160000000002
 21
2.9013429999999998
 31
0.0
  0
ARC
  5
99A
  8
OBJECT
 10
7.4262160000000002
 20
2.9013429999999998
 30
0.0
 40
0.0625
 50
90.0
 51
180.0
  0
LINE
  5
99B
  8
OBJECT
 10
12.363716
 20
2.8918430000000002
 30
0.0
 11
12.363716
 21
2.9013429999999998
 31
0.0
  0
ARC
  5
99C
  8
OBJECT
 10
12.301216
 20
2.9013429999999998
 30
0.0
 40
0.0625
 50
0.0
 51
90.0
  0
TEXT
  5
99F
  8
DIM
 10
21.009530000000002
 20
9.6830850000000002
 30
0.0
 40
0.125
  1

  0
TEXT
  5
9A0
  8
DIM
 10
21.072675
 20
17.831758999999991
 30
0.0
 40
0.125
  1

  0
TEXT
  5
9A1
  8
0
  6
CONTINUOUS
 62
     1
 10
39.574851000000002
 20
6.718172
 30
0.0
 40
0.0625
  1

  7
ROMANS
  0
TEXT
  5
9A2
  8
0
  6
CONTINUOUS
 62
     1
 10
39.574851000000002
 20
6.4146010000000002
 30
0.0
 40
0.0625
  1

  7
ROMANS
  0
POLYLINE
  5
9A3
  8
DIM
 66
     1
 10
0.0
 20
0.0
 30
0.0
 41
0.10125
  0
VERTEX
  5
C37
  8
DIM
 10
12.108984
 20
5.4580970000000004
 30
0.0
  0
VERTEX
  5
C38
  8
DIM
 10
12.319621
 20
5.2891830000000004
 30
0.0
 41
0.0
  0
VERTEX
  5
C39
  8
DIM
 10
12.71330899999999
 20
4.9767010000000003
 30
0.0
 41
0.0
  0
VERTEX
  5
C3A
  8
DIM
 10
12.983309
 20
4.9767010000000003
 30
0.0
 41
0.0
  0
SEQEND
  5
C3B
  8
DIM
  0
TEXT
  5
9A9
  8
DIM
 10
13.118309
 20
4.8829510000000003
 30
0.0
 40
0.1875
  1
0.094 DIA. HOLE
 41
0.75
 11
13.118309
 21
4.9767010000000003
 31
0.0
 73
     2
  0
TEXT
  5
9AA
  8
DIM
 10
13.118309
 20
4.5704510000000003
 30
0.0
 40
0.1875
  1
x 0.500 DEEP
 41
0.75
 11
13.118309
 21
4.6642010000000003
 31
0.0
 73
     2
  0
TEXT
  5
9AB
  8
DIM
 10
13.118309
 20
4.2622089999999986
 30
0.0
 40
0.1875
  1
(4) PLACES
 41
0.75
 11
13.118309
 21
4.3559589999999986
 31
0.0
 73
     2
  0
TEXT
  5
9AE
  8
DIM
 10
21.009530000000002
 20
19.803084999999989
 30
0.0
 40
0.125
  1

  0
TEXT
  5
9AF
  8
DIM
 10
21.072675
 20
27.951758999999999
 30
0.0
 40
0.125
  1

  0
TEXT
  5
9B0
  8
0
  6
CONTINUOUS
 62
     1
 10
39.574851000000002
 20
16.838172
 30
0.0
 40
0.0625
  1

  7
ROMANS
  0
TEXT
  5
9B1
  8
0
  6
CONTINUOUS
 62
     1
 10
39.574851000000002
 20
16.534600999999999
 30
0.0
 40
0.0625
  1

  7
ROMANS
  0
TEXT
  5
9B2
  8
0
  6
CONTINUOUS
 62
     1
 10
22.979747
 20
27.03924799999999
 30
0.0
 40
0.0625
  1

  7
ROMANS
  0
TEXT
  5
9B3
  8
0
  6
CONTINUOUS
 62
     1
 10
22.979747
 20
26.735676999999999
 30
0.0
 40
0.0625
  1

  7
ROMANS
  0
TEXT
  5
9B4
  8
DIM
 10
4.7668339999999993
 20
8.8648119999999988
 30
0.0
 40
0.1875
  1
0.250 DIA. BOSS
 41
0.75
 72
     2
 11
6.5480839999999993
 21
8.9585619999999988
 31
0.0
 73
     2
  0
TEXT
  5
9B5
  8
DIM
 10
5.2824589999999993
 20
8.5523119999999988
 30
0.0
 40
0.1875
  1
(4) PLACES
 41
0.75
 72
     2
 11
6.5480839999999993
 21
8.6460619999999988
 31
0.0
 73
     2
  0
TEXT
  5
9B8
  8
DIM
 10
21.270076
 20
5.1088420000000001
 30
0.0
 40
0.125
  1

  0
TEXT
  5
9B9
  8
DIM
 10
21.333221999999989
 20
13.257517
 30
0.0
 40
0.125
  1

  0
TEXT
  5
9BA
  8
0
  6
CONTINUOUS
 62
     1
 10
39.835397999999991
 20
2.1439300000000001
 30
0.0
 40
0.0625
  1

  7
ROMANS
  0
TEXT
  5
9BB
  8
0
  6
CONTINUOUS
 62
     1
 10
39.835397999999991
 20
1.8403579999999999
 30
0.0
 40
0.0625
  1

  7
ROMANS
  0
TEXT
  5
9BE
  8
DIM
 10
21.270076
 20
15.228842
 30
0.0
 40
0.125
  1

  0
TEXT
  5
9BF
  8
DIM
 10
21.333221999999989
 20
23.377517000000001
 30
0.0
 40
0.125
  1

  0
TEXT
  5
9C0
  8
0
  6
CONTINUOUS
 62
     1
 10
39.835397999999991
 20
12.26393
 30
0.0
 40
0.0625
  1

  7
ROMANS
  0
TEXT
  5
9C1
  8
0
  6
CONTINUOUS
 62
     1
 10
39.835397999999991
 20
11.96035799999999
 30
0.0
 40
0.0625
  1

  7
ROMANS
  0
TEXT
  5
9C2
  8
0
  6
CONTINUOUS
 62
     1
 10
23.240292999999991
 20
22.465005999999999
 30
0.0
 40
0.0625
  1

  7
ROMANS
  0
TEXT
  5
9C3
  8
0
  6
CONTINUOUS
 62
     1
 10
23.240292999999991
 20
22.161433999999989
 30
0.0
 40
0.0625
  1

  7
ROMANS
  0
ARC
  5
9C4
  8
OBJECT
 10
7.4527529999999986
 20
1.5168429999999991
 30
0.0
 40
0.125
 50
178.5
 51
270.0
  0
ARC
  5
9C5
  8
OBJECT
 10
12.27467899999999
 20
1.5168429999999991
 30
0.0
 40
0.125
 50
270.0
 51
1.5
  0
ARC
  5
9C6
  8
OBJECT
 10
1.27695
 20
5.2823880000000001
 30
0.0
 40
0.125
 50
180.0
 51
271.49999999999989
  0
ARC
  5
9C7
  8
OBJECT
 10
1.27695
 20
8.6043140000000005
 30
0.0
 40
0.125
 50
88.499999999999986
 51
180.0
  0
TEXT
  5
9C8
  8
DIM
 10
3.2023630000000001
 20
3.4127010000000002
 30
0.0
 40
0.1875
  1
BY ADDING SUFFIX "-MB"
 41
0.75
 72
     2
 11
6.0617380000000001
 21
3.5064510000000002
 31
0.0
 73
     2
  0
TEXT
  5
9C9
  8
DIM
 10
3.8117380000000001
 20
4.0287629999999988
 30
0.0
 40
0.1875
  1
OPTIONAL MOUNTING
 41
0.75
 72
     2
 11
6.0617380000000001
 21
4.1225129999999988
 31
0.0
 73
     2
  0
TEXT
  5
9CA
  8
DIM
 10
3.0148630000000001
 20
3.7162629999999992
 30
0.0
 40
0.1875
  1
BRACKETS ARE AVAILABLE
 41
0.75
 72
     2
 11
6.0617380000000001
 21
3.8100129999999992
 31
0.0
 73
     2
  0
TEXT
  5
9CB
  8
DIM
 10
3.0148630000000001
 20
3.1002009999999989
 30
0.0
 40
0.1875
  1
TO CATALOG PART NUMBER
 41
0.75
 72
     2
 11
6.0617380000000001
 21
3.1939509999999989
 31
0.0
 73
     2
  0
POLYLINE
  5
9CC
  8
DIM
 66
     1
 10
0.0
 20
0.0
 30
0.0
 41
0.10125
  0
VERTEX
  5
C3C
  8
DIM
 10
7.5574089999999989
 20
8.4771660000000004
 30
0.0
  0
VERTEX
  5
C3D
  8
DIM
 10
7.3467719999999996
 20
8.6460799999999995
 30
0.0
 41
0.0
  0
VERTEX
  5
C3E
  8
DIM
 10
6.9530839999999987
 20
8.9585619999999988
 30
0.0
 41
0.0
  0
VERTEX
  5
C3F
  8
DIM
 10
6.683084
 20
8.9585619999999988
 30
0.0
 41
0.0
  0
SEQEND
  5
C40
  8
DIM
  0
POLYLINE
  5
9D2
  8
DIM
 66
     1
 10
0.0
 20
0.0
 30
0.0
 41
0.10125
  0
VERTEX
  5
C41
  8
DIM
 10
7.0828509999999989
 20
5.5393999999999988
 30
0.0
  0
VERTEX
  5
C42
  8
DIM
 10
6.9751839999999987
 20
5.2917959999999988
 30
0.0
 41
0.0
  0
VERTEX
  5
C43
  8
DIM
 10
6.4667379999999994
 20
4.1225129999999988
 30
0.0
 41
0.0
  0
VERTEX
  5
C44
  8
DIM
 10
6.196737999999999
 20
4.1225129999999988
 30
0.0
 41
0.0
  0
SEQEND
  5
C45
  8
DIM
  0
POLYLINE
  5
9D8
  8
OBJECT
 66
     1
 10
0.0
 20
0.0
 30
0.0
  0
VERTEX
  5
C46
  8
OBJECT
 10
10.789987
 20
8.6934699999999996
 30
0.0
  0
VERTEX
  5
C47
  8
OBJECT
 10
10.77131
 20
8.6700140000000001
 30
0.0
  0
VERTEX
  5
C48
  8
OBJECT
 10
10.751405
 20
8.6005399999999987
 30
0.0
  0
VERTEX
  5
C49
  8
OBJECT
 10
10.763769
 20
8.5393380000000008
 30
0.0
  0
VERTEX
  5
C4A
  8
OBJECT
 10
10.797098
 20
8.4844309999999972
 30
0.0
  0
VERTEX
  5
C4B
  8
OBJECT
 10
10.840089000000001
 20
8.433841000000001
 30
0.0
  0
VERTEX
  5
C4C
  8
OBJECT
 10
10.881439999999991
 20
8.385591999999999
 30
0.0
  0
VERTEX
  5
C4D
  8
OBJECT
 10
10.909846999999999
 20
8.3377069999999982
 30
0.0
  0
VERTEX
  5
C4E
  8
OBJECT
 10
10.916862
 20
8.2886059999999997
 30
0.0
  0
VERTEX
  5
C4F
  8
OBJECT
 10
10.905468000000001
 20
8.238294999999999
 30
0.0
  0
VERTEX
  5
C50
  8
OBJECT
 10
10.881501999999999
 20
8.1871789999999987
 30
0.0
  0
VERTEX
  5
C51
  8
OBJECT
 10
10.8508
 20
8.1356619999999982
 30
0.0
  0
VERTEX
  5
C52
  8
OBJECT
 10
10.8192
 20
8.084147999999999
 30
0.0
  0
VERTEX
  5
C53
  8
OBJECT
 10
10.79253999999999
 20
8.0330410000000008
 30
0.0
  0
VERTEX
  5
C54
  8
OBJECT
 10
10.776657
 20
7.9827440000000003
 30
0.0
  0
VERTEX
  5
C55
  8
OBJECT
 10
10.777388999999991
 20
7.9336619999999991
 30
0.0
  0
VERTEX
  5
C56
  8
OBJECT
 10
10.79864299999999
 20
7.886105999999999
 30
0.0
  0
VERTEX
  5
C57
  8
OBJECT
 10
10.836611
 20
7.8400109999999987
 30
0.0
  0
VERTEX
  5
C58
  8
OBJECT
 10
10.885557
 20
7.795221999999999
 30
0.0
  0
VERTEX
  5
C59
  8
OBJECT
 10
10.93974199999999
 20
7.751582
 30
0.0
  0
VERTEX
  5
C5A
  8
OBJECT
 10
10.99342899999999
 20
7.7089339999999993
 30
0.0
  0
VERTEX
  5
C5B
  8
OBJECT
 10
11.040881000000001
 20
7.6671219999999991
 30
0.0
  0
VERTEX
  5
C5C
  8
OBJECT
 10
11.076359999999999
 20
7.6259889999999988
 30
0.0
  0
VERTEX
  5
C5D
  8
OBJECT
 10
11.09412899999999
 20
7.5853779999999986
 30
0.0
  0
VERTEX
  5
C5E
  8
OBJECT
 10
11.090367999999989
 20
7.5451750000000004
 30
0.0
  0
VERTEX
  5
C5F
  8
OBJECT
 10
11.06892599999999
 20
7.5054339999999993
 30
0.0
  0
VERTEX
  5
C60
  8
OBJECT
 10
11.035572
 20
7.4662499999999987
 30
0.0
  0
VERTEX
  5
C61
  8
OBJECT
 10
10.99607299999999
 20
7.4277189999999997
 30
0.0
  0
VERTEX
  5
C62
  8
OBJECT
 10
10.956197
 20
7.3899359999999987
 30
0.0
  0
VERTEX
  5
C63
  8
OBJECT
 10
10.921711
 20
7.3529970000000002
 30
0.0
  0
VERTEX
  5
C64
  8
OBJECT
 10
10.898384
 20
7.316997999999999
 30
0.0
  0
VERTEX
  5
C65
  8
OBJECT
 10
10.891982
 20
7.2820339999999986
 30
0.0
  0
VERTEX
  5
C66
  8
OBJECT
 10
10.906314
 20
7.2481299999999997
 30
0.0
  0
VERTEX
  5
C67
  8
OBJECT
 10
10.937355999999999
 20
7.2150289999999986
 30
0.0
  0
VERTEX
  5
C68
  8
OBJECT
 10
10.979120999999999
 20
7.1824009999999987
 30
0.0
  0
VERTEX
  5
C69
  8
OBJECT
 10
11.025627
 20
7.1499199999999989
 30
0.0
  0
VERTEX
  5
C6A
  8
OBJECT
 10
11.070887000000001
 20
7.1172550000000001
 30
0.0
  0
VERTEX
  5
C6B
  8
OBJECT
 10
11.10891799999999
 20
7.0840789999999991
 30
0.0
  0
VERTEX
  5
C6C
  8
OBJECT
 10
11.133736000000001
 20
7.0500629999999997
 30
0.0
  0
VERTEX
  5
C6D
  8
OBJECT
 10
11.139354999999989
 20
7.0148779999999986
 30
0.0
  0
VERTEX
  5
C6E
  8
OBJECT
 10
11.121861000000001
 20
6.9782989999999998
 30
0.0
  0
VERTEX
  5
C6F
  8
OBJECT
 10
11.085618999999991
 20
6.9405020000000004
 30
0.0
  0
VERTEX
  5
C70
  8
OBJECT
 10
11.037065
 20
6.9017689999999989
 30
0.0
  0
VERTEX
  5
C71
  8
OBJECT
 10
10.982633999999999
 20
6.8623779999999988
 30
0.0
  0
VERTEX
  5
C72
  8
OBJECT
 10
10.928761
 20
6.8226110000000002
 30
0.0
  0
VERTEX
  5
C73
  8
OBJECT
 10
10.881881999999999
 20
6.7827469999999996
 30
0.0
  0
VERTEX
  5
C74
  8
OBJECT
 10
10.848432000000001
 20
6.7430649999999988
 30
0.0
  0
VERTEX
  5
C75
  8
OBJECT
 10
10.834846000000001
 20
6.7038469999999997
 30
0.0
  0
VERTEX
  5
C76
  8
OBJECT
 10
10.845373
 20
6.6653269999999996
 30
0.0
  0
VERTEX
  5
C77
  8
OBJECT
 10
10.875515
 20
6.6275669999999991
 30
0.0
  0
VERTEX
  5
C78
  8
OBJECT
 10
10.918588
 20
6.5905839999999989
 30
0.0
  0
VERTEX
  5
C79
  8
OBJECT
 10
10.967907999999991
 20
6.5543919999999991
 30
0.0
  0
VERTEX
  5
C7A
  8
OBJECT
 10
11.01679
 20
6.5190099999999989
 30
0.0
  0
VERTEX
  5
C7B
  8
OBJECT
 10
11.05855
 20
6.4844549999999996
 30
0.0
  0
VERTEX
  5
C7C
  8
OBJECT
 10
11.086503999999991
 20
6.4507409999999998
 30
0.0
  0
VERTEX
  5
C7D
  8
OBJECT
 10
11.09396799999999
 20
6.4178870000000003
 30
0.0
  0
VERTEX
  5
C7E
  8
OBJECT
 10
11.076529999999989
 20
6.3858680000000003
 30
0.0
  0
VERTEX
  5
C7F
  8
OBJECT
 10
11.038867
 20
6.3544890000000001
 30
0.0
  0
VERTEX
  5
C80
  8
OBJECT
 10
10.98793
 20
6.3235190000000001
 30
0.0
  0
VERTEX
  5
C81
  8
OBJECT
 10
10.930668999999989
 20
6.2927210000000002
 30
0.0
  0
VERTEX
  5
C82
  8
OBJECT
 10
10.874034
 20
6.2618629999999991
 30
0.0
  0
VERTEX
  5
C83
  8
OBJECT
 10
10.824975999999991
 20
6.2307090000000001
 30
0.0
  0
VERTEX
  5
C84
  8
OBJECT
 10
10.790444000000001
 20
6.199025999999999
 30
0.0
  0
VERTEX
  5
C85
  8
OBJECT
 10
10.777388999999991
 20
6.1665789999999996
 30
0.0
  0
VERTEX
  5
C86
  8
OBJECT
 10
10.79033999999999
 20
6.1331150000000001
 30
0.0
  0
VERTEX
  5
C87
  8
OBJECT
 10
10.824144
 20
6.0983019999999986
 30
0.0
  0
VERTEX
  5
C88
  8
OBJECT
 10
10.871228999999991
 20
6.0617910000000004
 30
0.0
  0
VERTEX
  5
C89
  8
OBJECT
 10
10.924020000000001
 20
6.023229999999999
 30
0.0
  0
VERTEX
  5
C8A
  8
OBJECT
 10
10.974944000000001
 20
5.9822680000000004
 30
0.0
  0
VERTEX
  5
C8B
  8
OBJECT
 10
11.01642599999999
 20
5.938555
 30
0.0
  0
VERTEX
  5
C8C
  8
OBJECT
 10
11.04089499999999
 20
5.8917409999999997
 30
0.0
  0
VERTEX
  5
C8D
  8
OBJECT
 10
11.04077599999999
 20
5.8414739999999989
 30
0.0
  0
VERTEX
  5
C8E
  8
OBJECT
 10
11.012764999999989
 20
5.7870669999999986
 30
0.0
  0
VERTEX
  5
C8F
  8
OBJECT
 10
10.97064
 20
5.7264799999999996
 30
0.0
  0
VERTEX
  5
C90
  8
OBJECT
 10
10.932447
 20
5.6573370000000001
 30
0.0
  0
VERTEX
  5
C91
  8
OBJECT
 10
10.916233999999999
 20
5.577259999999999
 30
0.0
  0
VERTEX
  5
C92
  8
OBJECT
 10
10.940046999999989
 20
5.4838740000000001
 30
0.0
  0
VERTEX
  5
C93
  8
OBJECT
 10
11.021933999999989
 20
5.3747999999999987
 30
0.0
  0
VERTEX
  5
C94
  8
OBJECT
 10
11.179940999999991
 20
5.2476629999999993
 30
0.0
  0
VERTEX
  5
C95
  8
OBJECT
 10
11.272949000000001
 20
5.1932320000000001
 30
0.0
  0
SEQEND
  5
C96
  8
OBJECT
  0
POLYLINE
  5
A2A
  8
HIDDEN
 66
     1
 10
0.0
 20
0.0
 30
0.0
  0
VERTEX
  5
C97
  8
HIDDEN
 10
12.156715999999999
 20
8.5483510000000003
 30
0.0
  0
VERTEX
  5
C98
  8
HIDDEN
 10
10.761948
 20
8.5483510000000003
 30
0.0
 42
0.4142140000000001
  0
SEQEND
  5
C99
  8
HIDDEN
  0
POLYLINE
  5
A2E
  8
HIDDEN
 66
     1
 10
0.0
 20
0.0
 30
0.0
  0
VERTEX
  5
C9A
  8
HIDDEN
 10
11.067233
 20
5.3383510000000003
 30
0.0
  0
VERTEX
  5
C9B
  8
HIDDEN
 10
12.156715999999999
 20
5.3383510000000003
 30
0.0
 42
0.4142140000000001
  0
VERTEX
  5
C9C
  8
HIDDEN
 10
12.218716000000001
 20
5.4003509999999997
 30
0.0
  0
VERTEX
  5
C9D
  8
HIDDEN
 10
12.218716000000001
 20
8.4863509999999991
 30
0.0
 42
0.4142140000000001
  0
VERTEX
  5
C9E
  8
HIDDEN
 10
12.156715999999999
 20
8.5483510000000003
 30
0.0
  0
SEQEND
  5
C9F
  8
HIDDEN
  0
POLYLINE
  5
A35
  8
HIDDEN
 66
     1
 10
0.0
 20
0.0
 30
0.0
  0
VERTEX
  5
CA0
  8
HIDDEN
 10
12.156715999999999
 20
8.6113509999999991
 30
0.0
  0
VERTEX
  5
CA1
  8
HIDDEN
 10
10.754502
 20
8.6113509999999991
 30
0.0
 42
0.4142140000000001
  0
SEQEND
  5
CA2
  8
HIDDEN
  0
POLYLINE
  5
A39
  8
HIDDEN
 66
     1
 10
0.0
 20
0.0
 30
0.0
  0
VERTEX
  5
CA3
  8
HIDDEN
 10
11.145530000000001
 20
5.2753509999999997
 30
0.0
  0
VERTEX
  5
CA4
  8
HIDDEN
 10
12.156715999999999
 20
5.2753509999999997
 30
0.0
 42
0.4142140000000001
  0
VERTEX
  5
CA5
  8
HIDDEN
 10
12.281715999999999
 20
5.4003509999999997
 30
0.0
  0
VERTEX
  5
CA6
  8
HIDDEN
 10
12.281715999999999
 20
8.4863509999999991
 30
0.0
 42
0.4142140000000001
  0
VERTEX
  5
CA7
  8
HIDDEN
 10
12.156715999999999
 20
8.6113509999999991
 30
0.0
  0
SEQEND
  5
CA8
  8
HIDDEN
  0
POLYLINE
  5
A40
  8
HIDDEN
 66
     1
 10
0.0
 20
0.0
 30
0.0
  0
VERTEX
  5
CA9
  8
HIDDEN
 10
11.158106
 20
5.2652320000000001
 30
0.0
  0
VERTEX
  5
CAA
  8
HIDDEN
 10
12.160716000000001
 20
5.2652320000000001
 30
0.0
 42
0.4142140000000001
  0
VERTEX
  5
CAB
  8
HIDDEN
 10
12.291715999999999
 20
5.3962320000000004
 30
0.0
  0
VERTEX
  5
CAC
  8
HIDDEN
 10
12.291715999999999
 20
8.4904700000000002
 30
0.0
 42
0.4142140000000001
  0
VERTEX
  5
CAD
  8
HIDDEN
 10
12.160716000000001
 20
8.6214700000000004
 30
0.0
  0
VERTEX
  5
CAE
  8
HIDDEN
 10
10.757402000000001
 20
8.6214700000000004
 30
0.0
 42
0.4142140000000001
  0
SEQEND
  5
CAF
  8
HIDDEN
  0
POLYLINE
  5
A48
  8
OBJECT
 66
     1
 10
0.0
 20
0.0
 30
0.0
  0
VERTEX
  5
CB0
  8
OBJECT
 10
7.4357160000000002
 20
8.4904700000000002
 30
0.0
  0
VERTEX
  5
CB1
  8
OBJECT
 10
7.4357160000000002
 20
5.3962320000000004
 30
0.0
 42
0.4142140000000001
  0
VERTEX
  5
CB2
  8
OBJECT
 10
7.5667160000000004
 20
5.2652320000000001
 30
0.0
  0
VERTEX
  5
CB3
  8
OBJECT
 10
11.158106
 20
5.2652320000000001
 30
0.0
 42
0.4142140000000001
  0
SEQEND
  5
CB4
  8
OBJECT
  0
POLYLINE
  5
A4E
  8
OBJECT
 66
     1
 10
0.0
 20
0.0
 30
0.0
  0
VERTEX
  5
CB5
  8
OBJECT
 10
10.757402000000001
 20
8.6214700000000004
 30
0.0
  0
VERTEX
  5
CB6
  8
OBJECT
 10
7.5667160000000004
 20
8.6214700000000004
 30
0.0
 42
0.4142140000000001
  0
VERTEX
  5
CB7
  8
OBJECT
 10
7.4357160000000002
 20
8.4904700000000002
 30
0.0
  0
SEQEND
  5
CB8
  8
OBJECT
  0
CIRCLE
  5
A53
  8
OBJECT
 10
7.6552340000000001
 20
5.4873510000000003
 30
0.0
 40
0.047
  0
CIRCLE
  5
A54
  8
OBJECT
 10
7.6552340000000001
 20
5.4873510000000003
 30
0.0
 40
0.125
  0
CIRCLE
  5
A55
  8
OBJECT
 10
7.6552340000000001
 20
8.3993509999999993
 30
0.0
 40
0.125
  0
LINE
  5
A56
  8
OBJECT
 10
7.486758
 20
8.5954189999999997
 30
0.0
 11
7.5800839999999994
 21
8.4992380000000001
 31
0.0
  0
LINE
  5
A57
  8
CENTER
 10
7.5652339999999993
 20
8.3993509999999993
 30
0.0
 11
7.7452339999999991
 21
8.3993509999999993
 31
0.0
  0
LINE
  5
A58
  8
OBJECT
 10
7.4643309999999987
 20
8.5736570000000007
 30
0.0
 11
7.5576559999999988
 21
8.4774759999999993
 31
0.0
  0
CIRCLE
  5
A59
  8
OBJECT
 10
7.6552340000000001
 20
8.3993509999999993
 30
0.0
 40
0.047
  0
LINE
  5
A5A
  8
CENTER
 10
7.6552340000000001
 20
8.4893509999999992
 30
0.0
 11
7.6552340000000001
 21
8.3093509999999995
 31
0.0
  0
POLYLINE
  5
A5B
  8
OBJECT
 66
     1
 10
0.0
 20
0.0
 30
0.0
  0
VERTEX
  5
CB9
  8
OBJECT
 10
2.723949999999999
 20
7.780632999999999
 30
0.0
  0
VERTEX
  5
CBA
  8
OBJECT
 10
2.6238290000000002
 20
7.6935409999999997
 30
0.0
  0
VERTEX
  5
CBB
  8
OBJECT
 10
2.5232709999999989
 20
7.6347420000000001
 30
0.0
  0
VERTEX
  5
CBC
  8
OBJECT
 10
2.4454950000000002
 20
7.6162149999999986
 30
0.0
  0
VERTEX
  5
CBD
  8
OBJECT
 10
2.3860709999999989
 20
7.6258829999999991
 30
0.0
  0
VERTEX
  5
CBE
  8
OBJECT
 10
2.3405680000000002
 20
7.651667999999999
 30
0.0
  0
VERTEX
  5
CBF
  8
OBJECT
 10
2.304552999999999
 20
7.6814949999999991
 30
0.0
  0
VERTEX
  5
CC0
  8
OBJECT
 10
2.2735959999999991
 20
7.7032860000000003
 30
0.0
  0
VERTEX
  5
CC1
  8
OBJECT
 10
2.2439900000000002
 20
7.7077039999999988
 30
0.0
  0
VERTEX
  5
CC2
  8
OBJECT
 10
2.214929999999999
 20
7.6963619999999988
 30
0.0
  0
VERTEX
  5
CC3
  8
OBJECT
 10
2.1863359999999998
 20
7.673614999999999
 30
0.0
  0
VERTEX
  5
CC4
  8
OBJECT
 10
2.158126999999999
 20
7.6438149999999991
 30
0.0
  0
VERTEX
  5
CC5
  8
OBJECT
 10
2.1302240000000001
 20
7.6113149999999994
 30
0.0
  0
VERTEX
  5
CC6
  8
OBJECT
 10
2.1025469999999991
 20
7.580467999999998
 30
0.0
  0
VERTEX
  5
CC7
  8
OBJECT
 10
2.0750150000000001
 20
7.5556279999999987
 30
0.0
  0
VERTEX
  5
CC8
  8
OBJECT
 10
2.047547999999999
 20
7.5411479999999989
 30
0.0
  0
VERTEX
  5
CC9
  8
OBJECT
 10
2.020068999999999
 20
7.5400359999999989
 30
0.0
  0
VERTEX
  5
CCA
  8
OBJECT
 10
1.992516999999999
 20
7.5499289999999988
 30
0.0
  0
VERTEX
  5
CCB
  8
OBJECT
 10
1.9648330000000001
 20
7.5671169999999988
 30
0.0
  0
VERTEX
  5
CCC
  8
OBJECT
 10
1.936958
 20
7.5878909999999991
 30
0.0
  0
VERTEX
  5
CCD
  8
OBJECT
 10
1.908833999999999
 20
7.6085440000000002
 30
0.0
  0
VERTEX
  5
CCE
  8
OBJECT
 10
1.8804029999999989
 20
7.6253659999999996
 30
0.0
  0
VERTEX
  5
CCF
  8
OBJECT
 10
1.8516060000000001
 20
7.6346479999999994
 30
0.0
  0
VERTEX
  5
CD0
  8
OBJECT
 10
1.822384999999999
 20
7.6326830000000001
 30
0.0
  0
VERTEX
  5
CD1
  8
OBJECT
 10
1.7927519999999999
 20
7.617043999999999
 30
0.0
  0
VERTEX
  5
CD2
  8
OBJECT
 10
1.7630009999999989
 20
7.5904319999999998
 30
0.0
  0
VERTEX
  5
CD3
  8
OBJECT
 10
1.7335
 20
7.5568330000000001
 30
0.0
  0
VERTEX
  5
CD4
  8
OBJECT
 10
1.7046129999999999
 20
7.5202299999999997
 30
0.0
  0
VERTEX
  5
CD5
  8
OBJECT
 10
1.6767069999999991
 20
7.484608999999999
 30
0.0
  0
VERTEX
  5
CD6
  8
OBJECT
 10
1.6501479999999991
 20
7.4539530000000003
 30
0.0
  0
VERTEX
  5
CD7
  8
OBJECT
 10
1.625302
 20
7.4322470000000003
 30
0.0
  0
VERTEX
  5
CD8
  8
OBJECT
 10
1.6025339999999999
 20
7.4234759999999991
 30
0.0
  0
VERTEX
  5
CD9
  8
OBJECT
 10
1.58206
 20
7.4302270000000004
 30
0.0
  0
VERTEX
  5
CDA
  8
OBJECT
 10
1.563496999999999
 20
7.4494990000000003
 30
0.0
  0
VERTEX
  5
CDB
  8
OBJECT
 10
1.546311
 20
7.4768929999999987
 30
0.0
  0
VERTEX
  5
CDC
  8
OBJECT
 10
1.5299670000000001
 20
7.508011999999999
 30
0.0
  0
VERTEX
  5
CDD
  8
OBJECT
 10
1.5139329999999991
 20
7.5384570000000011
 30
0.0
  0
VERTEX
  5
CDE
  8
OBJECT
 10
1.4976750000000001
 20
7.5638309999999986
 30
0.0
  0
VERTEX
  5
CDF
  8
OBJECT
 10
1.4806589999999991
 20
7.5797350000000003
 30
0.0
  0
VERTEX
  5
CE0
  8
OBJECT
 10
1.4623499999999989
 20
7.5817709999999998
 30
0.0
  0
VERTEX
  5
CE1
  8
OBJECT
 10
1.4415
 20
7.5679869999999987
 30
0.0
  0
VERTEX
  5
CE2
  8
OBJECT
 10
1.4139939999999991
 20
7.5462160000000003
 30
0.0
  0
VERTEX
  5
CE3
  8
OBJECT
 10
1.375000999999999
 20
7.5267350000000004
 30
0.0
  0
VERTEX
  5
CE4
  8
OBJECT
 10
1.3196920000000001
 20
7.5198239999999998
 30
0.0
  0
VERTEX
  5
CE5
  8
OBJECT
 10
1.243236
 20
7.5357599999999998
 30
0.0
  0
VERTEX
  5
CE6
  8
OBJECT
 10
1.15195
 20
7.579483999999999
 30
0.0
  0
SEQEND
  5
CE7
  8
OBJECT
  0
LINE
  5
A8B
  8
OBJECT
 10
2.5889500000000001
 20
7.673146
 30
0.0
 11
2.5889500000000001
 21
5.2753509999999997
 31
0.0
  0
LINE
  5
A8C
  8
OBJECT
 10
1.2239500000000001
 20
7.5449979999999988
 30
0.0
 11
1.2239500000000001
 21
5.2916819999999989
 31
0.0
  0
INSERT
  5
A8D
  8
BEND
  2
*X31
 10
0.0
 20
0.5499220000000001
 30
0.0
1001
ACAD
1000
HATCH
1002
{
1070
    16
1000
ANSI31
1040
1.0
1040
0.0
1002
}
  0
POLYLINE
  5
A8E
  8
OBJECT
 66
     1
 10
0.0
 20
0.0
 30
0.0
  0
VERTEX
  5
CE8
  8
OBJECT
 10
11.018033000000001
 20
2.9638429999999998
 30
0.0
  0
VERTEX
  5
CE9
  8
OBJECT
 10
10.942035999999989
 20
2.8705379999999998
 30
0.0
  0
VERTEX
  5
CEA
  8
OBJECT
 10
10.904548
 20
2.7782230000000001
 30
0.0
  0
VERTEX
  5
CEB
  8
OBJECT
 10
10.909926999999991
 20
2.7057060000000002
 30
0.0
  0
VERTEX
  5
CEC
  8
OBJECT
 10
10.944005000000001
 20
2.6490549999999988
 30
0.0
  0
VERTEX
  5
CED
  8
OBJECT
 10
10.992613
 20
2.6043359999999991
 30
0.0
  0
VERTEX
  5
CEE
  8
OBJECT
 10
11.041582999999999
 20
2.5676169999999989
 30
0.0
  0
VERTEX
  5
CEF
  8
OBJECT
 10
11.076746999999999
 20
2.5349639999999991
 30
0.0
  0
VERTEX
  5
CF0
  8
OBJECT
 10
11.08736199999999
 20
2.503096999999999
 30
0.0
  0
VERTEX
  5
CF1
  8
OBJECT
 10
11.076382000000001
 20
2.471347999999999
 30
0.0
  0
VERTEX
  5
CF2
  8
OBJECT
 10
11.05018999999999
 20
2.439700999999999
 30
0.0
  0
VERTEX
  5
CF3
  8
OBJECT
 10
11.015165
 20
2.4081419999999989
 30
0.0
  0
VERTEX
  5
CF4
  8
OBJECT
 10
10.977688999999989
 20
2.3766539999999998
 30
0.0
  0
VERTEX
  5
CF5
  8
OBJECT
 10
10.944141
 20
2.3452239999999991
 30
0.0
  0
VERTEX
  5
CF6
  8
OBJECT
 10
10.920902
 20
2.3138349999999992
 30
0.0
  0
VERTEX
  5
CF7
  8
OBJECT
 10
10.914353
 20
2.2824729999999991
 30
0.0
  0
VERTEX
  5
CF8
  8
OBJECT
 10
10.928855
 20
2.2511639999999988
 30
0.0
  0
VERTEX
  5
CF9
  8
OBJECT
 10
10.960689999999991
 20
2.220108999999999
 30
0.0
  0
VERTEX
  5
CFA
  8
OBJECT
 10
11.004121
 20
2.1895509999999989
 30
0.0
  0
VERTEX
  5
CFB
  8
OBJECT
 10
11.05341
 20
2.1597309999999998
 30
0.0
  0
VERTEX
  5
CFC
  8
OBJECT
 10
11.102819999999991
 20
2.1308919999999989
 30
0.0
  0
VERTEX
  5
CFD
  8
OBJECT
 10
11.146611999999999
 20
2.103276999999999
 30
0.0
  0
VERTEX
  5
CFE
  8
OBJECT
 10
11.179050999999991
 20
2.0771280000000001
 30
0.0
  0
VERTEX
  5
CFF
  8
OBJECT
 10
11.194398
 20
2.0526879999999998
 30
0.0
  0
VERTEX
  5
D00
  8
OBJECT
 10
11.188772999999999
 20
2.0300880000000001
 30
0.0
  0
VERTEX
  5
D01
  8
OBJECT
 10
11.16572
 20
2.0090099999999991
 30
0.0
  0
VERTEX
  5
D02
  8
OBJECT
 10
11.130641000000001
 20
1.9890279999999989
 30
0.0
  0
VERTEX
  5
D03
  8
OBJECT
 10
11.088938999999989
 20
1.969711999999999
 30
0.0
  0
VERTEX
  5
D04
  8
OBJECT
 10
11.046013999999991
 20
1.9506339999999991
 30
0.0
  0
VERTEX
  5
D05
  8
OBJECT
 10
11.007269000000001
 20
1.9313669999999989
 30
0.0
  0
VERTEX
  5
D06
  8
OBJECT
 10
10.978104999999999
 20
1.911481
 30
0.0
  0
VERTEX
  5
D07
  8
OBJECT
 10
10.963924
 20
1.8905499999999991
 30
0.0
  0
VERTEX
  5
D08
  8
OBJECT
 10
10.968327
 20
1.8682859999999999
 30
0.0
  0
VERTEX
  5
D09
  8
OBJECT
 10
10.987710999999999
 20
1.8449770000000001
 30
0.0
  0
VERTEX
  5
D0A
  8
OBJECT
 10
11.01667299999999
 20
1.8210509999999991
 30
0.0
  0
VERTEX
  5
D0B
  8
OBJECT
 10
11.049808999999989
 20
1.7969369999999989
 30
0.0
  0
VERTEX
  5
D0C
  8
OBJECT
 10
11.08171499999999
 20
1.7730649999999999
 30
0.0
  0
VERTEX
  5
D0D
  8
OBJECT
 10
11.106987
 20
1.7498619999999989
 30
0.0
  0
VERTEX
  5
D0E
  8
OBJECT
 10
11.120222999999999
 20
1.727759
 30
0.0
  0
VERTEX
  5
D0F
  8
OBJECT
 10
11.11601799999999
 20
1.7071829999999999
 30
0.0
  0
VERTEX
  5
D10
  8
OBJECT
 10
11.09215599999999
 20
1.6877789999999999
 30
0.0
  0
VERTEX
  5
D11
  8
OBJECT
 10
11.059169000000001
 20
1.6660509999999991
 30
0.0
  0
VERTEX
  5
D12
  8
OBJECT
 10
11.030775999999991
 20
1.6377159999999991
 30
0.0
  0
VERTEX
  5
D13
  8
OBJECT
 10
11.020697999999991
 20
1.598492
 30
0.0
  0
VERTEX
  5
D14
  8
OBJECT
 10
11.042652
 20
1.544098999999999
 30
0.0
  0
VERTEX
  5
D15
  8
OBJECT
 10
11.11035899999999
 20
1.4702539999999999
 30
0.0
  0
VERTEX
  5
D16
  8
OBJECT
 10
11.212557
 20
1.3918429999999991
 30
0.0
  0
SEQEND
  5
D17
  8
OBJECT
  0
LINE
  5
ABF
  8
BEND
 10
7.3275800000000002
 20
1.511843
 30
0.0
 11
6.8637160000000002
 21
1.511843
 31
0.0
  0
LINE
  5
AC0
  8
BEND
 10
7.4527529999999986
 20
1.3918429999999991
 30
0.0
 11
6.9262160000000002
 21
1.3918429999999991
 31
0.0
  0
LINE
  5
AC1
  8
OBJECT
 10
12.27467899999999
 20
1.3918429999999991
 30
0.0
 11
7.4527529999999986
 21
1.3918429999999991
 31
0.0
  0
LINE
  5
AC2
  8
OBJECT
 10
10.92510399999999
 20
2.8288429999999991
 30
0.0
 11
7.445716
 21
2.8288429999999991
 31
0.0
  0
LINE
  5
AC3
  8
HIDDEN
 10
11.118715
 20
1.4638429999999989
 30
0.0
 11
12.265385
 21
1.4638429999999989
 31
0.0
  0
INSERT
  5
AC4
  8
BEND
  2
*X32
 10
0.4403470000000001
 20
0.094374
 30
0.0
1001
ACAD
1000
HATCH
1002
{
1070
    16
1000
ANSI31
1040
1.0
1040
0.0
1002
}
  0
DIMENSION
  5
AC5
  8
DIM
  2
*D83
 10
8.139171000000001
 20
5.2652320000000001
 30
0.0
 11
8.139171000000001
 21
7.4842630000000003
 31
0.0
 70
   128
 13
7.5667160000000004
 23
8.6214700000000004
 33
0.0
 14
7.5667160000000004
 24
5.2652320000000001
 34
0.0
 50
90.0
  0
DIMENSION
  5
AD3
  8
DIM
  2
*D84
 10
7.4357160000000002
 20
6.1131459999999986
 30
0.0
 11
9.0845649999999996
 21
6.1131459999999986
 31
0.0
 70
   128
 13
12.291715999999999
 23
6.1131459999999986
 33
0.0
 14
7.4357160000000002
 24
6.1131459999999986
 34
0.0
  0
TEXT
  5
AE1
  8
TEXT
 10
0.286956
 20
14.822366000000001
 30
0.0
 40
0.1875
  1
%%UNOTE:%%U ALL DIMENSIONS HAVE %%P0.015 TOLERANCE
 41
0.75
  0
TEXT
  5
AE2
  8
TEXT
 10
1.031990999999999
 20
14.518803
 30
0.0
 40
0.1875
  1
UNLESS OTHERWISE SPECIFIED.
 41
0.75
  0
TEXT
  5
AE3
  8
TEXT
 10
0.286956
 20
13.624245999999991
 30
0.0
 40
0.1875
  1
MOUNTING BOSSES USE EITHER M2.5 METRIC OR
 41
0.75
  0
TEXT
  5
AE4
  8
TEXT
 10
0.286956
 20
13.32068299999999
 30
0.0
 40
0.1875
  1
#4 STD. SHEET METAL SCREWS x 0.250" LG.
 41
0.75
  0
TEXT
  5
AE5
  8
TEXT
 10
0.286956
 20
13.008183000000001
 30
0.0
 40
0.1875
  1
(NOT SUPPLIED)
 41
0.75
  0
TEXT
  5
AE6
  8
TEXT
 10
0.286956
 20
1.1701520000000001
 30
0.0
 40
0.1875
  1
#4 STD. SHEET METAL SCREWS x 0.250" LG.
 41
0.75
  0
TEXT
  5
AE7
  8
TEXT
 10
0.286956
 20
1.473714
 30
0.0
 40
0.1875
  1
MOUNTING BOSSES USE EITHER M2.5 METRIC OR
 41
0.75
  0
TEXT
  5
AE8
  8
TEXT
 10
0.286956
 20
2.5283439999999988
 30
0.0
 40
0.1875
  1
%%UNOTE:%%U ALL DIMENSIONS HAVE %%P0.015 TOLERANCE
 41
0.75
  0
TEXT
  5
AE9
  8
TEXT
 10
0.286956
 20
0.857652
 30
0.0
 40
0.1875
  1
(NOT SUPPLIED)
 41
0.75
  0
TEXT
  5
AEA
  8
TEXT
 10
1.031990999999999
 20
2.2247819999999989
 30
0.0
 40
0.1875
  1
UNLESS OTHERWISE SPECIFIED.
 41
0.75
  0
ENDSEC
  0
EOF
