  0
SECTION
  2
HEADER
  9
$ACADVER
  1
AC1015
  9
$ACADMAINTVER
 70
     6
  9
$DWGCODEPAGE
  3
ANSI_1252
  9
$INSBASE
 10
0.0
 20
0.0
 30
0.0
  9
$EXTMIN
 10
0.0
 20
0.0
 30
0.0
  9
$EXTMAX
 10
34.0
 20
22.0
 30
0.0
  9
$LIMMIN
 10
0.0
 20
0.0
  9
$LIMMAX
 10
34.0
 20
22.0
  9
$ORTHOMODE
 70
     0
  9
$REGENMODE
 70
     1
  9
$FILLMODE
 70
     1
  9
$QTEXTMODE
 70
     0
  9
$MIRRTEXT
 70
     1
  9
$LTSCALE
 40
2.0
  9
$ATTMODE
 70
     1
  9
$TEXTSIZE
 40
0.25
  9
$TRACEWID
 40
0.05
  9
$TEXTSTYLE
  7
Standard
  9
$CLAYER
  8
0
  9
$CELTYPE
  6
ByLayer
  9
$CECOLOR
 62
   256
  9
$CELTSCALE
 40
1.0
  9
$DISPSILH
 70
     0
  9
$DIMSCALE
 40
1.0
  9
$DIMASZ
 40
0.26
  9
$DIMEXO
 40
0.1
  9
$DIMDLI
 40
0.38
  9
$DIMRND
 40
0.0
  9
$DIMDLE
 40
0.0
  9
$DIMEXE
 40
0.25
  9
$DIMTP
 40
0.0
  9
$DIMTM
 40
0.0
  9
$DIMTXT
 40
0.25
  9
$DIMCEN
 40
0.09
  9
$DIMTSZ
 40
0.0
  9
$DIMTOL
 70
     0
  9
$DIMLIM
 70
     0
  9
$DIMTIH
 70
     1
  9
$DIMTOH
 70
     1
  9
$DIMSE1
 70
     0
  9
$DIMSE2
 70
     0
  9
$DIMTAD
 70
     1
  9
$DIMZIN
 70
     0
  9
$DIMBLK
  1

  9
$DIMASO
 70
     1
  9
$DIMSHO
 70
     1
  9
$DIMPOST
  1

  9
$DIMAPOST
  1

  9
$DIMALT
 70
     0
  9
$DIMALTD
 70
     2
  9
$DIMALTF
 40
25.4
  9
$DIMLFAC
 40
1.0
  9
$DIMTOFL
 70
     0
  9
$DIMTVP
 40
0.0
  9
$DIMTIX
 70
     0
  9
$DIMSOXD
 70
     0
  9
$DIMSAH
 70
     0
  9
$DIMBLK1
  1

  9
$DIMBLK2
  1

  9
$DIMSTYLE
  2
Standard
  9
$DIMCLRD
 70
     0
  9
$DIMCLRE
 70
     0
  9
$DIMCLRT
 70
     0
  9
$DIMTFAC
 40
1.0
  9
$DIMGAP
 40
0.12
  9
$DIMJUST
 70
     0
  9
$DIMSD1
 70
     0
  9
$DIMSD2
 70
     0
  9
$DIMTOLJ
 70
     1
  9
$DIMTZIN
 70
     0
  9
$DIMALTZ
 70
     0
  9
$DIMALTTZ
 70
     0
  9
$DIMUPT
 70
     0
  9
$DIMDEC
 70
     2
  9
$DIMTDEC
 70
     2
  9
$DIMALTU
 70
     2
  9
$DIMALTTD
 70
     2
  9
$DIMTXSTY
  7
Standard
  9
$DIMAUNIT
 70
     0
  9
$DIMADEC
 70
     2
  9
$DIMALTRND
 40
0.0
  9
$DIMAZIN
 70
     0
  9
$DIMDSEP
 70
    46
  9
$DIMATFIT
 70
     3
  9
$DIMFRAC
 70
     0
  9
$DIMLDRBLK
  1

  9
$DIMLUNIT
 70
     2
  9
$DIMLWD
 70
    -2
  9
$DIMLWE
 70
    -2
  9
$DIMTMOVE
 70
     0
  9
$LUNITS
 70
     2
  9
$LUPREC
 70
     2
  9
$SKETCHINC
 40
0.1
  9
$FILLETRAD
 40
0.5
  9
$AUNITS
 70
     0
  9
$AUPREC
 70
     2
  9
$MENU
  1
.
  9
$ELEVATION
 40
0.0
  9
$PELEVATION
 40
0.0
  9
$THICKNESS
 40
0.0
  9
$LIMCHECK
 70
     0
  9
$CHAMFERA
 40
0.5
  9
$CHAMFERB
 40
0.5
  9
$CHAMFERC
 40
1.0
  9
$CHAMFERD
 40
0.0
  9
$SKPOLY
 70
     0
  9
$TDCREATE
 40
2455761.378840822
  9
$TDUCREATE
 40
2455761.545507488
  9
$TDUPDATE
 40
2455761.378840833
  9
$TDUUPDATE
 40
2455761.5455075
  9
$TDINDWG
 40
0.0000000116
  9
$TDUSRTIMER
 40
0.0000000116
  9
$USRTIMER
 70
     1
  9
$ANGBASE
 50
0.0
  9
$ANGDIR
 70
     0
  9
$PDMODE
 70
     0
  9
$PDSIZE
 40
-1.0
  9
$PLINEWID
 40
0.0
  9
$SPLFRAME
 70
     0
  9
$SPLINETYPE
 70
     6
  9
$SPLINESEGS
 70
     8
  9
$HANDSEED
  5
59E
  9
$SURFTAB1
 70
     6
  9
$SURFTAB2
 70
     6
  9
$SURFTYPE
 70
     6
  9
$SURFU
 70
     6
  9
$SURFV
 70
     6
  9
$UCSBASE
  2

  9
$UCSNAME
  2

  9
$UCSORG
 10
0.0
 20
0.0
 30
0.0
  9
$UCSXDIR
 10
1.0
 20
0.0
 30
0.0
  9
$UCSYDIR
 10
0.0
 20
1.0
 30
0.0
  9
$UCSORTHOREF
  2

  9
$UCSORTHOVIEW
 70
     0
  9
$UCSORGTOP
 10
0.0
 20
0.0
 30
0.0
  9
$UCSORGBOTTOM
 10
0.0
 20
0.0
 30
0.0
  9
$UCSORGLEFT
 10
0.0
 20
0.0
 30
0.0
  9
$UCSORGRIGHT
 10
0.0
 20
0.0
 30
0.0
  9
$UCSORGFRONT
 10
0.0
 20
0.0
 30
0.0
  9
$UCSORGBACK
 10
0.0
 20
0.0
 30
0.0
  9
$PUCSBASE
  2

  9
$PUCSNAME
  2

  9
$PUCSORG
 10
0.0
 20
0.0
 30
0.0
  9
$PUCSXDIR
 10
1.0
 20
0.0
 30
0.0
  9
$PUCSYDIR
 10
0.0
 20
1.0
 30
0.0
  9
$PUCSORTHOREF
  2

  9
$PUCSORTHOVIEW
 70
     0
  9
$PUCSORGTOP
 10
0.0
 20
0.0
 30
0.0
  9
$PUCSORGBOTTOM
 10
0.0
 20
0.0
 30
0.0
  9
$PUCSORGLEFT
 10
0.0
 20
0.0
 30
0.0
  9
$PUCSORGRIGHT
 10
0.0
 20
0.0
 30
0.0
  9
$PUCSORGFRONT
 10
0.0
 20
0.0
 30
0.0
  9
$PUCSORGBACK
 10
0.0
 20
0.0
 30
0.0
  9
$USERI1
 70
     0
  9
$USERI2
 70
     0
  9
$USERI3
 70
     0
  9
$USERI4
 70
     0
  9
$USERI5
 70
     0
  9
$USERR1
 40
0.0
  9
$USERR2
 40
0.0
  9
$USERR3
 40
0.0
  9
$USERR4
 40
0.0
  9
$USERR5
 40
0.0
  9
$WORLDVIEW
 70
     1
  9
$SHADEDGE
 70
     3
  9
$SHADEDIF
 70
    70
  9
$TILEMODE
 70
     1
  9
$MAXACTVP
 70
    64
  9
$PINSBASE
 10
0.0
 20
0.0
 30
0.0
  9
$PLIMCHECK
 70
     0
  9
$PEXTMIN
 10
1.0000000000E+20
 20
1.0000000000E+20
 30
1.0000000000E+20
  9
$PEXTMAX
 10
-1.0000000000E+20
 20
-1.0000000000E+20
 30
-1.0000000000E+20
  9
$PLIMMIN
 10
0.0
 20
0.0
  9
$PLIMMAX
 10
12.0
 20
9.0
  9
$UNITMODE
 70
     0
  9
$VISRETAIN
 70
     1
  9
$PLINEGEN
 70
     0
  9
$PSLTSCALE
 70
     1
  9
$TREEDEPTH
 70
  3020
  9
$CMLSTYLE
  2
Standard
  9
$CMLJUST
 70
     0
  9
$CMLSCALE
 40
1.0
  9
$PROXYGRAPHICS
 70
     1
  9
$MEASUREMENT
 70
     0
  9
$CELWEIGHT
370
    -1
  9
$ENDCAPS
280
     0
  9
$JOINSTYLE
280
     0
  9
$LWDISPLAY
290
     1
  9
$INSUNITS
 70
     1
  9
$HYPERLINKBASE
  1

  9
$STYLESHEET
  1

  9
$XEDIT
290
     1
  9
$CEPSNTYPE
380
     0
  9
$PSTYLEMODE
290
     1
  9
$FINGERPRINTGUID
  2
{D2F8FA49-FE0B-460E-ABD6-41D5B694CF97}
  9
$VERSIONGUID
  2
{FAEB1C32-E019-11D5-929B-00C0DF256EC4}
  9
$EXTNAMES
290
     1
  9
$PSVPSCALE
 40
0.0
  9
$OLESTARTUP
290
     0
  0
ENDSEC
  0
SECTION
  2
CLASSES
  0
CLASS
  1
ACDBDICTIONARYWDFLT
  2
AcDbDictionaryWithDefault
  3
ObjectDBX Classes
 90
        0
280
     0
281
     0
  0
CLASS
  1
VISUALSTYLE
  2
AcDbVisualStyle
  3
ObjectDBX Classes
 90
     4095
280
     0
281
     0
  0
CLASS
  1
MATERIAL
  2
AcDbMaterial
  3
ObjectDBX Classes
 90
     1153
280
     0
281
     0
  0
CLASS
  1
SCALE
  2
AcDbScale
  3
ObjectDBX Classes
 90
     1153
280
     0
281
     0
  0
CLASS
  1
DICTIONARYVAR
  2
AcDbDictionaryVar
  3
ObjectDBX Classes
 90
        0
280
     0
281
     0
  0
CLASS
  1
ACDBPLACEHOLDER
  2
AcDbPlaceHolder
  3
ObjectDBX Classes
 90
        0
280
     0
281
     0
  0
CLASS
  1
LAYOUT
  2
AcDbLayout
  3
ObjectDBX Classes
 90
        0
280
     0
281
     0
  0
ENDSEC
  0
SECTION
  2
TABLES
  0
TABLE
  2
VPORT
  5
8
330
0
100
AcDbSymbolTable
 70
     1
  0
VPORT
  5
29
330
8
100
AcDbSymbolTableRecord
100
AcDbViewportTableRecord
  2
*Active
 70
     0
 10
0.0
 20
0.0
 11
1.0
 21
1.0
 12
17.0
 22
11.0
 13
0.0
 23
0.0
 14
0.5
 24
0.5
 15
0.5
 25
0.5
 16
0.0
 26
0.0
 36
1.0
 17
0.0
 27
0.0
 37
0.0
 40
22.0
 41
1.5454545455
 42
50.0
 43
0.0
 44
0.0
 50
0.0
 51
0.0
 71
     0
 72
  2000
 73
     1
 74
     3
 75
     0
 76
     0
 77
     0
 78
     0
281
     0
 65
     1
110
0.0
120
0.0
130
0.0
111
1.0
121
0.0
131
0.0
112
0.0
122
1.0
132
0.0
 79
     0
146
0.0
  0
ENDTAB
  0
TABLE
  2
LTYPE
  5
5
330
0
100
AcDbSymbolTable
 70
     6
  0
LTYPE
  5
14
330
5
100
AcDbSymbolTableRecord
100
AcDbLinetypeTableRecord
  2
ByBlock
 70
     0
  3

 72
    65
 73
     0
 40
0.0
  0
LTYPE
  5
15
330
5
100
AcDbSymbolTableRecord
100
AcDbLinetypeTableRecord
  2
ByLayer
 70
     0
  3

 72
    65
 73
     0
 40
0.0
  0
LTYPE
  5
16
330
5
100
AcDbSymbolTableRecord
100
AcDbLinetypeTableRecord
  2
Continuous
 70
     0
  3
Solid line
 72
    65
 73
     0
 40
0.0
  0
LTYPE
  5
3F
330
5
100
AcDbSymbolTableRecord
100
AcDbLinetypeTableRecord
  2
HIDDEN
 70
     0
  3
Hidden __ __ __ __ __ __ __ __ __ __ __ __ __ __
 72
    65
 73
     2
 40
0.075
 49
0.05
 74
     0
 49
-0.025
 74
     0
  0
LTYPE
  5
40
330
5
100
AcDbSymbolTableRecord
100
AcDbLinetypeTableRecord
  2
PHANTOM
 70
     0
  3
Phantom ______  __  __  ______  __  __  ______
 72
    65
 73
     6
 40
0.5
 49
0.25
 74
     0
 49
-0.05
 74
     0
 49
0.05
 74
     0
 49
-0.05
 74
     0
 49
0.05
 74
     0
 49
-0.05
 74
     0
  0
LTYPE
  5
41
330
5
100
AcDbSymbolTableRecord
100
AcDbLinetypeTableRecord
  2
CENTER
 70
     0
  3
Center ____ _ ____ _ ____ _ ____ _ ____ _ ____
 72
    65
 73
     4
 40
0.4
 49
0.25
 74
     0
 49
-0.05
 74
     0
 49
0.05
 74
     0
 49
-0.05
 74
     0
  0
LTYPE
  5
42
330
5
100
AcDbSymbolTableRecord
100
AcDbLinetypeTableRecord
  2
CENTERX2
 70
     0
  3
Center (2x) ________  __  ________  __  _____
 72
    65
 73
     4
 40
0.8
 49
0.5
 74
     0
 49
-0.1
 74
     0
 49
0.1
 74
     0
 49
-0.1
 74
     0
  0
LTYPE
  5
43
330
5
100
AcDbSymbolTableRecord
100
AcDbLinetypeTableRecord
  2
DOT2
 70
     0
  3
Dot (.5x) ........................................
 72
    65
 73
     2
 40
0.025
 49
0.0
 74
     0
 49
-0.025
 74
     0
  0
ENDTAB
  0
TABLE
  2
LAYER
  5
2
330
0
100
AcDbSymbolTable
 70
     1
  0
LAYER
  5
10
330
2
100
AcDbSymbolTableRecord
100
AcDbLayerTableRecord
  2
0
 70
     0
 62
     7
  6
Continuous
370
    -3
390
F
  0
ENDTAB
  0
TABLE
  2
STYLE
  5
3
330
0
100
AcDbSymbolTable
 70
     2
  0
STYLE
  5
11
330
3
100
AcDbSymbolTableRecord
100
AcDbTextStyleTableRecord
  2
Standard
 70
     0
 40
0.0
 41
1.0
 50
0.0
 71
     0
 42
0.2
  3
txt
  4

  0
STYLE
  5
57
330
3
100
AcDbSymbolTableRecord
100
AcDbTextStyleTableRecord
  2
SLDTEXTSTYLE0
 70
     0
 40
0.0
 41
0.75
 50
0.0
 71
     0
 42
0.2
  3
TXT
  4

  0
ENDTAB
  0
TABLE
  2
VIEW
  5
6
330
0
100
AcDbSymbolTable
 70
     0
  0
ENDTAB
  0
TABLE
  2
UCS
  5
7
330
0
100
AcDbSymbolTable
 70
     0
  0
ENDTAB
  0
TABLE
  2
APPID
  5
9
330
0
100
AcDbSymbolTable
 70
     1
  0
APPID
  5
12
330
9
100
AcDbSymbolTableRecord
100
AcDbRegAppTableRecord
  2
ACAD
 70
     0
  0
ENDTAB
  0
TABLE
  2
DIMSTYLE
  5
A
330
0
100
AcDbSymbolTable
 70
     7
100
AcDbDimStyleTable
  0
DIMSTYLE
105
27
330
A
100
AcDbSymbolTableRecord
100
AcDbDimStyleTableRecord
  2
Standard
 70
     0
340
11
  0
DIMSTYLE
105
B7
102
{ACAD_REACTORS
330
B6
330
C9
330
161
330
365
330
377
102
}
330
A
100
AcDbSymbolTableRecord
100
AcDbDimStyleTableRecord
  2
SLDDIMSTYLE0
 70
     0
 41
0.26
 44
0.0
 45
0.000000001
 78
     4
140
0.25
147
0.0625
148
0.000000001
170
     1
173
     1
271
     2
272
     2
284
    12
340
57
  0
DIMSTYLE
105
E4
330
A
100
AcDbSymbolTableRecord
100
AcDbDimStyleTableRecord
  2
SLDDIMSTYLE1
 70
     0
 41
0.26
 44
0.0
 45
0.000000001
140
0.0
146
0.26
147
0.0
173
     1
271
     0
272
     0
340
11
  0
DIMSTYLE
105
13D
102
{ACAD_REACTORS
330
13C
330
14F
330
173
330
257
330
269
330
2A1
330
2B3
330
32E
330
340
102
}
330
A
100
AcDbSymbolTableRecord
100
AcDbDimStyleTableRecord
  2
SLDDIMSTYLE2
 70
     0
 41
0.26
 44
0.0
 45
0.000000001
 78
    12
140
0.25
147
0.0625
148
0.000000001
170
     1
173
     1
271
     2
272
     2
284
    12
340
57
  0
DIMSTYLE
105
2C6
102
{ACAD_REACTORS
330
2C5
102
}
330
A
100
AcDbSymbolTableRecord
100
AcDbDimStyleTableRecord
  2
SLDDIMSTYLE3
 70
     0
 41
0.26
 44
0.0
 45
0.000000001
 78
    12
140
0.25
147
0.0625
148
0.000000001
170
     1
173
     1
271
     2
272
     2
284
    12
340
57
  0
DIMSTYLE
105
38A
102
{ACAD_REACTORS
330
389
102
}
330
A
100
AcDbSymbolTableRecord
100
AcDbDimStyleTableRecord
  2
SLDDIMSTYLE4
 70
     0
 41
0.26
 44
0.0
 45
0.000000001
 78
    12
140
0.25
147
0.0625
148
0.000000001
170
     1
172
     1
173
     1
271
     3
272
     3
284
    12
340
57
  0
DIMSTYLE
105
55A
102
{ACAD_REACTORS
330
559
102
}
330
A
100
AcDbSymbolTableRecord
100
AcDbDimStyleTableRecord
  2
SLDDIMSTYLE5
 70
     0
 41
0.26
 44
0.0
 45
0.000000001
 78
     4
140
0.25
147
0.0625
148
0.000000001
170
     1
173
     1
271
     2
272
     2
284
    12
340
57
  0
ENDTAB
  0
TABLE
  2
BLOCK_RECORD
  5
1
330
0
100
AcDbSymbolTable
 70
    26
  0
BLOCK_RECORD
  5
1F
330
1
100
AcDbSymbolTableRecord
100
AcDbBlockTableRecord
  2
*Model_Space
340
22
  0
BLOCK_RECORD
  5
1B
330
1
100
AcDbSymbolTableRecord
100
AcDbBlockTableRecord
  2
*Paper_Space
340
1E
  0
BLOCK_RECORD
  5
23
330
1
100
AcDbSymbolTableRecord
100
AcDbBlockTableRecord
  2
*Paper_Space0
340
26
  0
BLOCK_RECORD
  5
54
330
1
100
AcDbSymbolTableRecord
100
AcDbBlockTableRecord
  2
SW_NOTE_0
340
0
102
{BLKREFS
331
7C
102
}
  0
BLOCK_RECORD
  5
80
330
1
100
AcDbSymbolTableRecord
100
AcDbBlockTableRecord
  2
SW_NOTE_1
340
0
102
{BLKREFS
331
85
102
}
  0
BLOCK_RECORD
  5
86
330
1
100
AcDbSymbolTableRecord
100
AcDbBlockTableRecord
  2
SW_NOTE_2
340
0
102
{BLKREFS
331
8B
102
}
  0
BLOCK_RECORD
  5
8C
330
1
100
AcDbSymbolTableRecord
100
AcDbBlockTableRecord
  2
SW_NOTE_3
340
0
102
{BLKREFS
331
91
102
}
  0
BLOCK_RECORD
  5
B8
330
1
100
AcDbSymbolTableRecord
100
AcDbBlockTableRecord
  2
*D5
340
0
  0
BLOCK_RECORD
  5
CA
330
1
100
AcDbSymbolTableRecord
100
AcDbBlockTableRecord
  2
*D6
340
0
  0
BLOCK_RECORD
  5
DB
330
1
100
AcDbSymbolTableRecord
100
AcDbBlockTableRecord
  2
SW_NOTE_4
340
0
102
{BLKREFS
331
E3
102
}
  0
BLOCK_RECORD
  5
13E
330
1
100
AcDbSymbolTableRecord
100
AcDbBlockTableRecord
  2
*D8
340
0
  0
BLOCK_RECORD
  5
150
330
1
100
AcDbSymbolTableRecord
100
AcDbBlockTableRecord
  2
*D9
340
0
  0
BLOCK_RECORD
  5
162
330
1
100
AcDbSymbolTableRecord
100
AcDbBlockTableRecord
  2
*D10
340
0
  0
BLOCK_RECORD
  5
174
330
1
100
AcDbSymbolTableRecord
100
AcDbBlockTableRecord
  2
*D11
340
0
  0
BLOCK_RECORD
  5
185
330
1
100
AcDbSymbolTableRecord
100
AcDbBlockTableRecord
  2
SW_NOTE_5
340
0
102
{BLKREFS
331
18B
102
}
  0
BLOCK_RECORD
  5
18D
330
1
100
AcDbSymbolTableRecord
100
AcDbBlockTableRecord
  2
SW_NOTE_6
340
0
102
{BLKREFS
331
193
102
}
  0
BLOCK_RECORD
  5
258
330
1
100
AcDbSymbolTableRecord
100
AcDbBlockTableRecord
  2
*D14
340
0
  0
BLOCK_RECORD
  5
26A
330
1
100
AcDbSymbolTableRecord
100
AcDbBlockTableRecord
  2
*D15
340
0
  0
BLOCK_RECORD
  5
2A2
330
1
100
AcDbSymbolTableRecord
100
AcDbBlockTableRecord
  2
*D16
340
0
  0
BLOCK_RECORD
  5
2B4
330
1
100
AcDbSymbolTableRecord
100
AcDbBlockTableRecord
  2
*D17
340
0
  0
BLOCK_RECORD
  5
2C7
330
1
100
AcDbSymbolTableRecord
100
AcDbBlockTableRecord
  2
*D18
340
0
  0
BLOCK_RECORD
  5
32F
330
1
100
AcDbSymbolTableRecord
100
AcDbBlockTableRecord
  2
*D19
340
0
  0
BLOCK_RECORD
  5
341
330
1
100
AcDbSymbolTableRecord
100
AcDbBlockTableRecord
  2
*D20
340
0
  0
BLOCK_RECORD
  5
366
330
1
100
AcDbSymbolTableRecord
100
AcDbBlockTableRecord
  2
*D21
340
0
  0
BLOCK_RECORD
  5
378
330
1
100
AcDbSymbolTableRecord
100
AcDbBlockTableRecord
  2
*D22
340
0
  0
BLOCK_RECORD
  5
38B
330
1
100
AcDbSymbolTableRecord
100
AcDbBlockTableRecord
  2
*D23
340
0
  0
BLOCK_RECORD
  5
55B
330
1
100
AcDbSymbolTableRecord
100
AcDbBlockTableRecord
  2
*D24
340
0
  0
BLOCK_RECORD
  5
56A
330
1
100
AcDbSymbolTableRecord
100
AcDbBlockTableRecord
  2
SW_NOTE_7
340
0
102
{BLKREFS
331
56F
102
}
  0
ENDTAB
  0
ENDSEC
  0
SECTION
  2
BLOCKS
  0
BLOCK
  5
20
330
1F
100
AcDbEntity
  8
0
100
AcDbBlockBegin
  2
*Model_Space
 70
     0
 10
0.0
 20
0.0
 30
0.0
  3
*Model_Space
  1

  0
ENDBLK
  5
21
330
1F
100
AcDbEntity
  8
0
100
AcDbBlockEnd
  0
BLOCK
  5
1C
330
1B
100
AcDbEntity
 67
     1
  8
0
100
AcDbBlockBegin
  2
*Paper_Space
 70
     0
 10
0.0
 20
0.0
 30
0.0
  3
*Paper_Space
  1

  0
ENDBLK
  5
1D
330
1B
100
AcDbEntity
 67
     1
  8
0
100
AcDbBlockEnd
  0
BLOCK
  5
24
330
23
100
AcDbEntity
  8
0
100
AcDbBlockBegin
  2
*Paper_Space0
 70
     0
 10
0.0
 20
0.0
 30
0.0
  3
*Paper_Space0
  1

  0
ENDBLK
  5
25
330
23
100
AcDbEntity
  8
0
100
AcDbBlockEnd
  0
BLOCK
  5
55
330
54
100
AcDbEntity
  8
0
100
AcDbBlockBegin
  2
SW_NOTE_0
 70
     0
 10
0.0
 20
0.0
 30
0.0
  3
SW_NOTE_0
  1

  0
MTEXT
  5
7A
330
54
100
AcDbEntity
  8
0
  6
Continuous
 62
     0
 48
2.0
370
     0
100
AcDbMText
 10
0.0
 20
0.3222669349
 30
0.0
 40
0.25
 41
0.0
 71
     1
 72
     1
  1
MATERIAL - 16 GA. [1.5mm] STEEL
  7
SLDTEXTSTYLE0
 73
     1
 44
1.0
  0
MTEXT
  5
7B
330
54
100
AcDbEntity
  8
0
  6
Continuous
 62
     0
 48
2.0
370
     0
100
AcDbMText
 10
0.0
 20
-0.3352133631
 30
0.0
 40
0.25
 41
0.0
 71
     1
 72
     1
  1
FINISH - SMOOTH GRAY POWDERCOAT
  7
SLDTEXTSTYLE0
 73
     1
 44
1.0
  0
ENDBLK
  5
56
330
54
100
AcDbEntity
  8
0
100
AcDbBlockEnd
  0
BLOCK
  5
81
330
80
100
AcDbEntity
  8
0
100
AcDbBlockBegin
  2
SW_NOTE_1
 70
     0
 10
0.0
 20
0.0
 30
0.0
  3
SW_NOTE_1
  1

  0
MTEXT
  5
83
330
80
100
AcDbEntity
  8
0
  6
Continuous
 62
     0
 48
2.0
370
     0
100
AcDbMText
 10
0.0
 20
0.3222669349
 30
0.0
 40
0.25
 41
0.0
 71
     1
 72
     1
  1
PART
  7
SLDTEXTSTYLE0
 73
     1
 44
1.0
  0
MTEXT
  5
84
330
80
100
AcDbEntity
  8
0
  6
Continuous
 62
     0
 48
2.0
370
     0
100
AcDbMText
 10
-0.0932074599
 20
-0.0064732141
 30
0.0
 40
0.25
 41
0.0
 71
     1
 72
     1
  1
NAME
  7
SLDTEXTSTYLE0
 73
     1
 44
1.0
  0
ENDBLK
  5
82
330
80
100
AcDbEntity
  8
0
100
AcDbBlockEnd
  0
BLOCK
  5
87
330
86
100
AcDbEntity
  8
0
100
AcDbBlockBegin
  2
SW_NOTE_2
 70
     0
 10
0.0
 20
0.0
 30
0.0
  3
SW_NOTE_2
  1

  0
MTEXT
  5
89
330
86
100
AcDbEntity
  8
0
  6
Continuous
 62
     0
 48
2.0
370
     0
100
AcDbMText
 10
0.0
 20
0.3222669349
 30
0.0
 40
0.25
 41
0.0
 71
     1
 72
     1
  1
PART
  7
SLDTEXTSTYLE0
 73
     1
 44
1.0
  0
MTEXT
  5
8A
330
86
100
AcDbEntity
  8
0
  6
Continuous
 62
     0
 48
2.0
370
     0
100
AcDbMText
 10
0.1167534763
 20
-0.0064732141
 30
0.0
 40
0.25
 41
0.0
 71
     1
 72
     1
  1
No.
  7
SLDTEXTSTYLE0
 73
     1
 44
1.0
  0
ENDBLK
  5
88
330
86
100
AcDbEntity
  8
0
100
AcDbBlockEnd
  0
BLOCK
  5
8D
330
8C
100
AcDbEntity
  8
0
100
AcDbBlockBegin
  2
SW_NOTE_3
 70
     0
 10
0.0
 20
0.0
 30
0.0
  3
SW_NOTE_3
  1

  0
MTEXT
  5
8F
330
8C
100
AcDbEntity
  8
0
  6
Continuous
 62
     0
 48
2.0
370
     0
100
AcDbMText
 10
0.0
 20
0.3222669349
 30
0.0
 40
0.25
 41
0.0
 71
     1
 72
     1
  1
REVISION
  7
SLDTEXTSTYLE0
 73
     1
 44
1.0
  0
MTEXT
  5
90
330
8C
100
AcDbEntity
  8
0
  6
Continuous
 62
     0
 48
2.0
370
     0
100
AcDbMText
 10
0.3124565971
 20
-0.0064732141
 30
0.0
 40
0.25
 41
0.0
 71
     1
 72
     1
  1
DATE
  7
SLDTEXTSTYLE0
 73
     1
 44
1.0
  0
ENDBLK
  5
8E
330
8C
100
AcDbEntity
  8
0
100
AcDbBlockEnd
  0
BLOCK
  5
B9
330
B8
100
AcDbEntity
  8
0
100
AcDbBlockBegin
  2
*D5
 70
     1
 10
0.0
 20
0.0
 30
0.0
  3
*D5
  1

  0
SOLID
  5
BB
330
B8
100
AcDbEntity
  8
0
  6
Continuous
 62
     7
 48
2.0
370
     0
100
AcDbTrace
 10
7.6351614449
 20
13.2153064269
 30
0.0
 11
7.8951614449
 21
13.1753064269
 31
0.0
 12
7.8951614449
 22
13.2553064269
 32
0.0
 13
7.8951614449
 23
13.2553064269
 33
0.0
  0
SOLID
  5
BC
330
B8
100
AcDbEntity
  8
0
  6
Continuous
 62
     7
 48
2.0
370
     0
100
AcDbTrace
 10
11.6351614449
 20
13.2153064269
 30
0.0
 11
11.3751614449
 21
13.2553064269
 31
0.0
 12
11.3751614449
 22
13.1753064269
 32
0.0
 13
11.3751614449
 23
13.1753064269
 33
0.0
  0
LINE
  5
BD
330
B8
100
AcDbEntity
  8
0
  6
Continuous
 62
     7
 48
2.0
370
     0
100
AcDbLine
 10
9.11816514
 20
13.1855521082
 30
0.0
 11
9.11816514
 21
12.8483364961
 31
0.0
  0
LINE
  5
BE
330
B8
100
AcDbEntity
  8
0
  6
Continuous
 62
     7
 48
2.0
370
     0
100
AcDbLine
 10
9.11816514
 20
12.8483364961
 30
0.0
 11
9.1688903133
 21
12.8483364961
 31
0.0
  0
LINE
  5
BF
330
B8
100
AcDbEntity
  8
0
  6
Continuous
 62
     7
 48
2.0
370
     0
100
AcDbLine
 10
9.11816514
 20
13.1855521082
 30
0.0
 11
9.1688903133
 21
13.1855521082
 31
0.0
  0
LINE
  5
C0
330
B8
100
AcDbEntity
  8
0
  6
Continuous
 62
     7
 48
2.0
370
     0
100
AcDbLine
 10
10.1521577497
 20
13.1855521082
 30
0.0
 11
10.1521577497
 21
12.8483364961
 31
0.0
  0
LINE
  5
C1
330
B8
100
AcDbEntity
  8
0
  6
Continuous
 62
     7
 48
2.0
370
     0
100
AcDbLine
 10
10.1521577497
 20
12.8483364961
 30
0.0
 11
10.1014325765
 21
12.8483364961
 31
0.0
  0
LINE
  5
C2
330
B8
100
AcDbEntity
  8
0
  6
Continuous
 62
     7
 48
2.0
370
     0
100
AcDbLine
 10
10.1521577497
 20
13.1855521082
 30
0.0
 11
10.1014325765
 21
13.1855521082
 31
0.0
  0
LINE
  5
C3
330
B8
100
AcDbEntity
  8
0
  6
Continuous
 62
     7
 48
2.0
370
     0
100
AcDbLine
 10
7.6351614449
 20
12.6142230856
 30
0.0
 11
7.6351614449
 21
13.4653064269
 31
0.0
  0
LINE
  5
C4
330
B8
100
AcDbEntity
  8
0
  6
Continuous
 62
     7
 48
2.0
370
     0
100
AcDbLine
 10
11.6351614449
 20
12.6142230856
 30
0.0
 11
11.6351614449
 21
13.4653064269
 31
0.0
  0
LINE
  5
C5
330
B8
100
AcDbEntity
  8
0
  6
Continuous
 62
     7
 48
2.0
370
     0
100
AcDbLine
 10
7.6351614449
 20
13.2153064269
 30
0.0
 11
8.8409896204
 21
13.2153064269
 31
0.0
  0
LINE
  5
C6
330
B8
100
AcDbEntity
  8
0
  6
Continuous
 62
     7
 48
2.0
370
     0
100
AcDbLine
 10
11.6351614449
 20
13.2153064269
 30
0.0
 11
10.4293332694
 21
13.2153064269
 31
0.0
  0
MTEXT
  5
C7
330
B8
100
AcDbEntity
  8
0
  6
Continuous
 62
     7
 48
2.0
370
     0
100
AcDbMText
 10
9.3119886966
 20
13.5375733481
 30
0.0
 40
0.25
 41
0.0
 71
     1
 72
     1
  1
4.00
  7
SLDTEXTSTYLE0
 73
     1
 44
1.0
  0
MTEXT
  5
C8
330
B8
100
AcDbEntity
  8
0
  6
Continuous
 62
     7
 48
2.0
370
     0
100
AcDbMText
 10
9.2196154865
 20
13.1408490986
 30
0.0
 40
0.25
 41
0.0
 71
     1
 72
     1
  1
101.6
  7
SLDTEXTSTYLE0
 73
     1
 44
1.0
  0
ENDBLK
  5
BA
330
B8
100
AcDbEntity
  8
0
100
AcDbBlockEnd
  0
BLOCK
  5
CB
330
CA
100
AcDbEntity
  8
0
100
AcDbBlockBegin
  2
*D6
 70
     1
 10
0.0
 20
0.0
 30
0.0
  3
*D6
  1

  0
SOLID
  5
CD
330
CA
100
AcDbEntity
  8
0
  6
Continuous
 62
     7
 48
2.0
370
     0
100
AcDbTrace
 10
12.4363063981
 20
12.5142230856
 30
0.0
 11
12.3963063981
 21
12.2542230856
 31
0.0
 12
12.4763063981
 22
12.2542230856
 32
0.0
 13
12.4763063981
 23
12.2542230856
 33
0.0
  0
SOLID
  5
CE
330
CA
100
AcDbEntity
  8
0
  6
Continuous
 62
     7
 48
2.0
370
     0
100
AcDbTrace
 10
12.4363063981
 20
8.5142230856
 30
0.0
 11
12.4763063981
 21
8.7742230856
 31
0.0
 12
12.3963063981
 22
8.7742230856
 32
0.0
 13
12.3963063981
 23
8.7742230856
 33
0.0
  0
LINE
  5
CF
330
CA
100
AcDbEntity
  8
0
  6
Continuous
 62
     7
 48
2.0
370
     0
100
AcDbLine
 10
11.9193100933
 20
10.4844687669
 30
0.0
 11
11.9193100933
 21
10.1472531549
 31
0.0
  0
LINE
  5
D0
330
CA
100
AcDbEntity
  8
0
  6
Continuous
 62
     7
 48
2.0
370
     0
100
AcDbLine
 10
11.9193100933
 20
10.1472531549
 30
0.0
 11
11.9700352665
 21
10.1472531549
 31
0.0
  0
LINE
  5
D1
330
CA
100
AcDbEntity
  8
0
  6
Continuous
 62
     7
 48
2.0
370
     0
100
AcDbLine
 10
11.9193100933
 20
10.4844687669
 30
0.0
 11
11.9700352665
 21
10.4844687669
 31
0.0
  0
LINE
  5
D2
330
CA
100
AcDbEntity
  8
0
  6
Continuous
 62
     7
 48
2.0
370
     0
100
AcDbLine
 10
12.953302703
 20
10.4844687669
 30
0.0
 11
12.953302703
 21
10.1472531549
 31
0.0
  0
LINE
  5
D3
330
CA
100
AcDbEntity
  8
0
  6
Continuous
 62
     7
 48
2.0
370
     0
100
AcDbLine
 10
12.953302703
 20
10.1472531549
 30
0.0
 11
12.9025775298
 21
10.1472531549
 31
0.0
  0
LINE
  5
D4
330
CA
100
AcDbEntity
  8
0
  6
Continuous
 62
     7
 48
2.0
370
     0
100
AcDbLine
 10
12.953302703
 20
10.4844687669
 30
0.0
 11
12.9025775298
 21
10.4844687669
 31
0.0
  0
LINE
  5
D5
330
CA
100
AcDbEntity
  8
0
  6
Continuous
 62
     7
 48
2.0
370
     0
100
AcDbLine
 10
11.7351614449
 20
12.5142230856
 30
0.0
 11
12.6863063981
 21
12.5142230856
 31
0.0
  0
LINE
  5
D6
330
CA
100
AcDbEntity
  8
0
  6
Continuous
 62
     7
 48
2.0
370
     0
100
AcDbLine
 10
11.7351614449
 20
8.5142230856
 30
0.0
 11
12.6863063981
 21
8.5142230856
 31
0.0
  0
LINE
  5
D7
330
CA
100
AcDbEntity
  8
0
  6
Continuous
 62
     7
 48
2.0
370
     0
100
AcDbLine
 10
12.4363063981
 20
12.5142230856
 30
0.0
 11
12.4363063981
 21
10.9109473351
 31
0.0
  0
LINE
  5
D8
330
CA
100
AcDbEntity
  8
0
  6
Continuous
 62
     7
 48
2.0
370
     0
100
AcDbLine
 10
12.4363063981
 20
8.5142230856
 30
0.0
 11
12.4363063981
 21
10.1174988362
 31
0.0
  0
MTEXT
  5
D9
330
CA
100
AcDbEntity
  8
0
  6
Continuous
 62
     7
 48
2.0
370
     0
100
AcDbMText
 10
12.1131336498
 20
10.8364900068
 30
0.0
 40
0.25
 41
0.0
 71
     1
 72
     1
  1
4.00
  7
SLDTEXTSTYLE0
 73
     1
 44
1.0
  0
MTEXT
  5
DA
330
CA
100
AcDbEntity
  8
0
  6
Continuous
 62
     7
 48
2.0
370
     0
100
AcDbMText
 10
12.0207604397
 20
10.4397657574
 30
0.0
 40
0.25
 41
0.0
 71
     1
 72
     1
  1
101.6
  7
SLDTEXTSTYLE0
 73
     1
 44
1.0
  0
ENDBLK
  5
CC
330
CA
100
AcDbEntity
  8
0
100
AcDbBlockEnd
  0
BLOCK
  5
DC
330
DB
100
AcDbEntity
  8
0
100
AcDbBlockBegin
  2
SW_NOTE_4
 70
     0
 10
0.0
 20
0.0
 30
0.0
  3
SW_NOTE_4
  1

  0
MTEXT
  5
DE
330
DB
100
AcDbEntity
  8
0
  6
Continuous
 62
     0
 48
2.0
370
     0
100
AcDbMText
 10
0.0396001895
 20
0.1212526904
 30
0.0
 40
0.25
 41
0.0
 71
     1
 72
     1
  1
SCREWS: #10-32 x .31"[8mm] LG.
  7
SLDTEXTSTYLE0
 73
     1
 44
1.0
  0
MTEXT
  5
DF
330
DB
100
AcDbEntity
  8
0
  6
Continuous
 62
     0
 48
2.0
370
     0
100
AcDbMText
 10
0.0396001895
 20
-0.2074874587
 30
0.0
 40
0.25
 41
0.0
 71
     1
 72
     1
  1
MACHINE, PAN HEAD, SLOTTED/SQUARE
  7
SLDTEXTSTYLE0
 73
     1
 44
1.0
  0
MTEXT
  5
E0
330
DB
100
AcDbEntity
  8
0
  6
Continuous
 62
     0
 48
2.0
370
     0
100
AcDbMText
 10
0.0396001895
 20
-0.5362276077
 30
0.0
 40
0.25
 41
0.0
 71
     1
 72
     1
  1
COMBINATION STYLE DRIVE, STEEL, ZINC PLATED.
  7
SLDTEXTSTYLE0
 73
     1
 44
1.0
  0
MTEXT
  5
E1
330
DB
100
AcDbEntity
  8
0
  6
Continuous
 62
     0
 48
2.0
370
     0
100
AcDbMText
 10
0.0396001895
 20
-0.8649677567
 30
0.0
 40
0.25
 41
0.0
 71
     1
 72
     1
  1
(SUPPLIED FOR COVER MOUNTING AND
  7
SLDTEXTSTYLE0
 73
     1
 44
1.0
  0
MTEXT
  5
E2
330
DB
100
AcDbEntity
  8
0
  6
Continuous
 62
     0
 48
2.0
370
     0
100
AcDbMText
 10
0.0396001895
 20
-1.1937079058
 30
0.0
 40
0.25
 41
0.0
 71
     1
 72
     1
  1
FOR GROUND POINT).
  7
SLDTEXTSTYLE0
 73
     1
 44
1.0
  0
ENDBLK
  5
DD
330
DB
100
AcDbEntity
  8
0
100
AcDbBlockEnd
  0
BLOCK
  5
13F
330
13E
100
AcDbEntity
  8
0
100
AcDbBlockBegin
  2
*D8
 70
     1
 10
0.0
 20
0.0
 30
0.0
  3
*D8
  1

  0
SOLID
  5
141
330
13E
100
AcDbEntity
  8
0
  6
Continuous
 62
     7
 48
2.0
370
     0
100
AcDbTrace
 10
8.8251614449
 20
18.4159558064
 30
0.0
 11
8.5651614449
 21
18.4559558064
 31
0.0
 12
8.5651614449
 22
18.3759558064
 32
0.0
 13
8.5651614449
 23
18.3759558064
 33
0.0
  0
SOLID
  5
142
330
13E
100
AcDbEntity
  8
0
  6
Continuous
 62
     7
 48
2.0
370
     0
100
AcDbTrace
 10
10.4451614449
 20
18.4159558064
 30
0.0
 11
10.7051614449
 21
18.3759558064
 31
0.0
 12
10.7051614449
 22
18.4559558064
 32
0.0
 13
10.7051614449
 23
18.4559558064
 33
0.0
  0
LINE
  5
143
330
13E
100
AcDbEntity
  8
0
  6
Continuous
 62
     7
 48
2.0
370
     0
100
AcDbLine
 10
9.2105383502
 20
18.3862014877
 30
0.0
 11
9.2105383502
 21
18.0489858757
 31
0.0
  0
LINE
  5
144
330
13E
100
AcDbEntity
  8
0
  6
Continuous
 62
     7
 48
2.0
370
     0
100
AcDbLine
 10
9.2105383502
 20
18.0489858757
 30
0.0
 11
9.2612635234
 21
18.0489858757
 31
0.0
  0
LINE
  5
145
330
13E
100
AcDbEntity
  8
0
  6
Continuous
 62
     7
 48
2.0
370
     0
100
AcDbLine
 10
9.2105383502
 20
18.3862014877
 30
0.0
 11
9.2612635234
 21
18.3862014877
 31
0.0
  0
LINE
  5
146
330
13E
100
AcDbEntity
  8
0
  6
Continuous
 62
     7
 48
2.0
370
     0
100
AcDbLine
 10
10.0597845396
 20
18.3862014877
 30
0.0
 11
10.0597845396
 21
18.0489858757
 31
0.0
  0
LINE
  5
147
330
13E
100
AcDbEntity
  8
0
  6
Continuous
 62
     7
 48
2.0
370
     0
100
AcDbLine
 10
10.0597845396
 20
18.0489858757
 30
0.0
 11
10.0090593664
 21
18.0489858757
 31
0.0
  0
LINE
  5
148
330
13E
100
AcDbEntity
  8
0
  6
Continuous
 62
     7
 48
2.0
370
     0
100
AcDbLine
 10
10.0597845396
 20
18.3862014877
 30
0.0
 11
10.0090593664
 21
18.3862014877
 31
0.0
  0
LINE
  5
149
330
13E
100
AcDbEntity
  8
0
  6
Continuous
 62
     7
 48
2.0
370
     0
100
AcDbLine
 10
8.8251614449
 20
16.6803289332
 30
0.0
 11
8.8251614449
 21
18.6659558064
 31
0.0
  0
LINE
  5
14A
330
13E
100
AcDbEntity
  8
0
  6
Continuous
 62
     7
 48
2.0
370
     0
100
AcDbLine
 10
10.4451614449
 20
16.5553289332
 30
0.0
 11
10.4451614449
 21
18.6659558064
 31
0.0
  0
LINE
  5
14B
330
13E
100
AcDbEntity
  8
0
  6
Continuous
 62
     7
 48
2.0
370
     0
100
AcDbLine
 10
8.8251614449
 20
18.4159558064
 30
0.0
 11
8.3251614449
 21
18.4159558064
 31
0.0
  0
LINE
  5
14C
330
13E
100
AcDbEntity
  8
0
  6
Continuous
 62
     7
 48
2.0
370
     0
100
AcDbLine
 10
10.4451614449
 20
18.4159558064
 30
0.0
 11
10.9451614449
 21
18.4159558064
 31
0.0
  0
MTEXT
  5
14D
330
13E
100
AcDbEntity
  8
0
  6
Continuous
 62
     7
 48
2.0
370
     0
100
AcDbMText
 10
9.3119886966
 20
18.7382227276
 30
0.0
 40
0.25
 41
0.0
 71
     1
 72
     1
  1
1.62
  7
SLDTEXTSTYLE0
 73
     1
 44
1.0
  0
MTEXT
  5
14E
330
13E
100
AcDbEntity
  8
0
  6
Continuous
 62
     7
 48
2.0
370
     0
100
AcDbMText
 10
9.3119886966
 20
18.3414984782
 30
0.0
 40
0.25
 41
0.0
 71
     1
 72
     1
  1
41.1
  7
SLDTEXTSTYLE0
 73
     1
 44
1.0
  0
ENDBLK
  5
140
330
13E
100
AcDbEntity
  8
0
100
AcDbBlockEnd
  0
BLOCK
  5
151
330
150
100
AcDbEntity
  8
0
100
AcDbBlockBegin
  2
*D9
 70
     1
 10
0.0
 20
0.0
 30
0.0
  3
*D9
  1

  0
SOLID
  5
153
330
150
100
AcDbEntity
  8
0
  6
Continuous
 62
     7
 48
2.0
370
     0
100
AcDbTrace
 10
12.3585815218
 20
16.4553289332
 30
0.0
 11
12.3185815218
 21
16.1953289332
 31
0.0
 12
12.3985815218
 22
16.1953289332
 32
0.0
 13
12.3985815218
 23
16.1953289332
 33
0.0
  0
SOLID
  5
154
330
150
100
AcDbEntity
  8
0
  6
Continuous
 62
     7
 48
2.0
370
     0
100
AcDbTrace
 10
12.3585815218
 20
17.8303289332
 30
0.0
 11
12.3985815218
 21
18.0903289332
 31
0.0
 12
12.3185815218
 22
18.0903289332
 32
0.0
 13
12.3185815218
 23
18.0903289332
 33
0.0
  0
LINE
  5
155
330
150
100
AcDbEntity
  8
0
  6
Continuous
 62
     7
 48
2.0
370
     0
100
AcDbLine
 10
11.9339584271
 20
17.1130746145
 30
0.0
 11
11.9339584271
 21
16.7758590025
 31
0.0
  0
LINE
  5
156
330
150
100
AcDbEntity
  8
0
  6
Continuous
 62
     7
 48
2.0
370
     0
100
AcDbLine
 10
11.9339584271
 20
16.7758590025
 30
0.0
 11
11.9846836003
 21
16.7758590025
 31
0.0
  0
LINE
  5
157
330
150
100
AcDbEntity
  8
0
  6
Continuous
 62
     7
 48
2.0
370
     0
100
AcDbLine
 10
11.9339584271
 20
17.1130746145
 30
0.0
 11
11.9846836003
 21
17.1130746145
 31
0.0
  0
LINE
  5
158
330
150
100
AcDbEntity
  8
0
  6
Continuous
 62
     7
 48
2.0
370
     0
100
AcDbLine
 10
12.7832046165
 20
17.1130746145
 30
0.0
 11
12.7832046165
 21
16.7758590025
 31
0.0
  0
LINE
  5
159
330
150
100
AcDbEntity
  8
0
  6
Continuous
 62
     7
 48
2.0
370
     0
100
AcDbLine
 10
12.7832046165
 20
16.7758590025
 30
0.0
 11
12.7324794433
 21
16.7758590025
 31
0.0
  0
LINE
  5
15A
330
150
100
AcDbEntity
  8
0
  6
Continuous
 62
     7
 48
2.0
370
     0
100
AcDbLine
 10
12.7832046165
 20
17.1130746145
 30
0.0
 11
12.7324794433
 21
17.1130746145
 31
0.0
  0
LINE
  5
15B
330
150
100
AcDbEntity
  8
0
  6
Continuous
 62
     7
 48
2.0
370
     0
100
AcDbLine
 10
10.5451614449
 20
16.4553289332
 30
0.0
 11
12.6085815218
 21
16.4553289332
 31
0.0
  0
LINE
  5
15C
330
150
100
AcDbEntity
  8
0
  6
Continuous
 62
     7
 48
2.0
370
     0
100
AcDbLine
 10
11.6581614449
 20
17.8303289332
 30
0.0
 11
12.6085815218
 21
17.8303289332
 31
0.0
  0
LINE
  5
15D
330
150
100
AcDbEntity
  8
0
  6
Continuous
 62
     7
 48
2.0
370
     0
100
AcDbLine
 10
12.3585815218
 20
16.4553289332
 30
0.0
 11
12.3585815218
 21
15.9553289332
 31
0.0
  0
LINE
  5
15E
330
150
100
AcDbEntity
  8
0
  6
Continuous
 62
     7
 48
2.0
370
     0
100
AcDbLine
 10
12.3585815218
 20
17.8303289332
 30
0.0
 11
12.3585815218
 21
18.3303289332
 31
0.0
  0
MTEXT
  5
15F
330
150
100
AcDbEntity
  8
0
  6
Continuous
 62
     7
 48
2.0
370
     0
100
AcDbMText
 10
12.0354087735
 20
17.4650958544
 30
0.0
 40
0.25
 41
0.0
 71
     1
 72
     1
  1
1.38
  7
SLDTEXTSTYLE0
 73
     1
 44
1.0
  0
MTEXT
  5
160
330
150
100
AcDbEntity
  8
0
  6
Continuous
 62
     7
 48
2.0
370
     0
100
AcDbMText
 10
12.0354087735
 20
17.068371605
 30
0.0
 40
0.25
 41
0.0
 71
     1
 72
     1
  1
34.9
  7
SLDTEXTSTYLE0
 73
     1
 44
1.0
  0
ENDBLK
  5
152
330
150
100
AcDbEntity
  8
0
100
AcDbBlockEnd
  0
BLOCK
  5
163
330
162
100
AcDbEntity
  8
0
100
AcDbBlockBegin
  2
*D10
 70
     1
 10
0.0
 20
0.0
 30
0.0
  3
*D10
  1

  0
SOLID
  5
165
330
162
100
AcDbEntity
  8
0
  6
Continuous
 62
     7
 48
2.0
370
     0
100
AcDbTrace
 10
13.3811882879
 20
17.8303289332
 30
0.0
 11
13.3411882879
 21
17.5703289332
 31
0.0
 12
13.4211882879
 22
17.5703289332
 32
0.0
 13
13.4211882879
 23
17.5703289332
 33
0.0
  0
SOLID
  5
166
330
162
100
AcDbEntity
  8
0
  6
Continuous
 62
     7
 48
2.0
370
     0
100
AcDbTrace
 10
13.3811882879
 20
14.8303289332
 30
0.0
 11
13.4211882879
 21
15.0903289332
 31
0.0
 12
13.3411882879
 22
15.0903289332
 32
0.0
 13
13.3411882879
 23
15.0903289332
 33
0.0
  0
LINE
  5
167
330
162
100
AcDbEntity
  8
0
  6
Continuous
 62
     7
 48
2.0
370
     0
100
AcDbLine
 10
12.9565651932
 20
16.3005746145
 30
0.0
 11
12.9565651932
 21
15.9633590025
 31
0.0
  0
LINE
  5
168
330
162
100
AcDbEntity
  8
0
  6
Continuous
 62
     7
 48
2.0
370
     0
100
AcDbLine
 10
12.9565651932
 20
15.9633590025
 30
0.0
 11
13.0072903664
 21
15.9633590025
 31
0.0
  0
LINE
  5
169
330
162
100
AcDbEntity
  8
0
  6
Continuous
 62
     7
 48
2.0
370
     0
100
AcDbLine
 10
12.9565651932
 20
16.3005746145
 30
0.0
 11
13.0072903664
 21
16.3005746145
 31
0.0
  0
LINE
  5
16A
330
162
100
AcDbEntity
  8
0
  6
Continuous
 62
     7
 48
2.0
370
     0
100
AcDbLine
 10
13.8058113826
 20
16.3005746145
 30
0.0
 11
13.8058113826
 21
15.9633590025
 31
0.0
  0
LINE
  5
16B
330
162
100
AcDbEntity
  8
0
  6
Continuous
 62
     7
 48
2.0
370
     0
100
AcDbLine
 10
13.8058113826
 20
15.9633590025
 30
0.0
 11
13.7550862094
 21
15.9633590025
 31
0.0
  0
LINE
  5
16C
330
162
100
AcDbEntity
  8
0
  6
Continuous
 62
     7
 48
2.0
370
     0
100
AcDbLine
 10
13.8058113826
 20
16.3005746145
 30
0.0
 11
13.7550862094
 21
16.3005746145
 31
0.0
  0
LINE
  5
16D
330
162
100
AcDbEntity
  8
0
  6
Continuous
 62
     7
 48
2.0
370
     0
100
AcDbLine
 10
11.6581614449
 20
17.8303289332
 30
0.0
 11
13.6311882879
 21
17.8303289332
 31
0.0
  0
LINE
  5
16E
330
162
100
AcDbEntity
  8
0
  6
Continuous
 62
     7
 48
2.0
370
     0
100
AcDbLine
 10
11.7351614449
 20
14.8303289332
 30
0.0
 11
13.6311882879
 21
14.8303289332
 31
0.0
  0
LINE
  5
16F
330
162
100
AcDbEntity
  8
0
  6
Continuous
 62
     7
 48
2.0
370
     0
100
AcDbLine
 10
13.3811882879
 20
17.8303289332
 30
0.0
 11
13.3811882879
 21
16.7270531827
 31
0.0
  0
LINE
  5
170
330
162
100
AcDbEntity
  8
0
  6
Continuous
 62
     7
 48
2.0
370
     0
100
AcDbLine
 10
13.3811882879
 20
14.8303289332
 30
0.0
 11
13.3811882879
 21
15.9336046838
 31
0.0
  0
MTEXT
  5
171
330
162
100
AcDbEntity
  8
0
  6
Continuous
 62
     7
 48
2.0
370
     0
100
AcDbMText
 10
13.0580155396
 20
16.6525958544
 30
0.0
 40
0.25
 41
0.0
 71
     1
 72
     1
  1
3.00
  7
SLDTEXTSTYLE0
 73
     1
 44
1.0
  0
MTEXT
  5
172
330
162
100
AcDbEntity
  8
0
  6
Continuous
 62
     7
 48
2.0
370
     0
100
AcDbMText
 10
13.0580155396
 20
16.255871605
 30
0.0
 40
0.25
 41
0.0
 71
     1
 72
     1
  1
76.2
  7
SLDTEXTSTYLE0
 73
     1
 44
1.0
  0
ENDBLK
  5
164
330
162
100
AcDbEntity
  8
0
100
AcDbBlockEnd
  0
BLOCK
  5
175
330
174
100
AcDbEntity
  8
0
100
AcDbBlockBegin
  2
*D11
 70
     1
 10
0.0
 20
0.0
 30
0.0
  3
*D11
  1

  0
SOLID
  5
177
330
174
100
AcDbEntity
  8
0
  6
Continuous
 62
     7
 48
2.0
370
     0
100
AcDbTrace
 10
6.8768249066
 20
16.5803289332
 30
0.0
 11
6.8368249066
 21
16.3203289332
 31
0.0
 12
6.9168249066
 22
16.3203289332
 32
0.0
 13
6.9168249066
 23
16.3203289332
 33
0.0
  0
SOLID
  5
178
330
174
100
AcDbEntity
  8
0
  6
Continuous
 62
     7
 48
2.0
370
     0
100
AcDbTrace
 10
6.8768249066
 20
17.8303289332
 30
0.0
 11
6.9168249066
 21
18.0903289332
 31
0.0
 12
6.8368249066
 22
18.0903289332
 32
0.0
 13
6.8368249066
 23
18.0903289332
 33
0.0
  0
LINE
  5
179
330
174
100
AcDbEntity
  8
0
  6
Continuous
 62
     7
 48
2.0
370
     0
100
AcDbLine
 10
6.4522018119
 20
17.1755746145
 30
0.0
 11
6.4522018119
 21
16.8383590025
 31
0.0
  0
LINE
  5
17A
330
174
100
AcDbEntity
  8
0
  6
Continuous
 62
     7
 48
2.0
370
     0
100
AcDbLine
 10
6.4522018119
 20
16.8383590025
 30
0.0
 11
6.5029269852
 21
16.8383590025
 31
0.0
  0
LINE
  5
17B
330
174
100
AcDbEntity
  8
0
  6
Continuous
 62
     7
 48
2.0
370
     0
100
AcDbLine
 10
6.4522018119
 20
17.1755746145
 30
0.0
 11
6.5029269852
 21
17.1755746145
 31
0.0
  0
LINE
  5
17C
330
174
100
AcDbEntity
  8
0
  6
Continuous
 62
     7
 48
2.0
370
     0
100
AcDbLine
 10
7.3014480013
 20
17.1755746145
 30
0.0
 11
7.3014480013
 21
16.8383590025
 31
0.0
  0
LINE
  5
17D
330
174
100
AcDbEntity
  8
0
  6
Continuous
 62
     7
 48
2.0
370
     0
100
AcDbLine
 10
7.3014480013
 20
16.8383590025
 30
0.0
 11
7.2507228281
 21
16.8383590025
 31
0.0
  0
LINE
  5
17E
330
174
100
AcDbEntity
  8
0
  6
Continuous
 62
     7
 48
2.0
370
     0
100
AcDbLine
 10
7.3014480013
 20
17.1755746145
 30
0.0
 11
7.2507228281
 21
17.1755746145
 31
0.0
  0
LINE
  5
17F
330
174
100
AcDbEntity
  8
0
  6
Continuous
 62
     7
 48
2.0
370
     0
100
AcDbLine
 10
8.7251614449
 20
16.5803289332
 30
0.0
 11
6.6268249066
 21
16.5803289332
 31
0.0
  0
LINE
  5
180
330
174
100
AcDbEntity
  8
0
  6
Continuous
 62
     7
 48
2.0
370
     0
100
AcDbLine
 10
7.6121614449
 20
17.8303289332
 30
0.0
 11
6.6268249066
 21
17.8303289332
 31
0.0
  0
LINE
  5
181
330
174
100
AcDbEntity
  8
0
  6
Continuous
 62
     7
 48
2.0
370
     0
100
AcDbLine
 10
6.8768249066
 20
16.5803289332
 30
0.0
 11
6.8768249066
 21
16.0803289332
 31
0.0
  0
LINE
  5
182
330
174
100
AcDbEntity
  8
0
  6
Continuous
 62
     7
 48
2.0
370
     0
100
AcDbLine
 10
6.8768249066
 20
17.8303289332
 30
0.0
 11
6.8768249066
 21
18.3303289332
 31
0.0
  0
MTEXT
  5
183
330
174
100
AcDbEntity
  8
0
  6
Continuous
 62
     7
 48
2.0
370
     0
100
AcDbMText
 10
6.5536521584
 20
17.5275958544
 30
0.0
 40
0.25
 41
0.0
 71
     1
 72
     1
  1
1.25
  7
SLDTEXTSTYLE0
 73
     1
 44
1.0
  0
MTEXT
  5
184
330
174
100
AcDbEntity
  8
0
  6
Continuous
 62
     7
 48
2.0
370
     0
100
AcDbMText
 10
6.5536521584
 20
17.130871605
 30
0.0
 40
0.25
 41
0.0
 71
     1
 72
     1
  1
31.8
  7
SLDTEXTSTYLE0
 73
     1
 44
1.0
  0
ENDBLK
  5
176
330
174
100
AcDbEntity
  8
0
100
AcDbBlockEnd
  0
BLOCK
  5
186
330
185
100
AcDbEntity
  8
0
100
AcDbBlockBegin
  2
SW_NOTE_5
 70
     0
 10
0.0
 20
0.0
 30
0.0
  3
SW_NOTE_5
  1

  0
MTEXT
  5
188
330
185
100
AcDbEntity
  8
0
  6
Continuous
 62
     0
 48
2.0
370
     0
100
AcDbMText
 10
0.0394023947
 20
0.1213620378
 30
0.0
 40
0.25
 41
0.0
 71
     1
 72
     1
  1
DOUBLE KNOCKOUT
  7
SLDTEXTSTYLE0
 73
     1
 44
1.0
  0
MTEXT
  5
189
330
185
100
AcDbEntity
  8
0
  6
Continuous
 62
     0
 48
2.0
370
     0
100
AcDbMText
 10
0.0394023947
 20
-0.2073781112
 30
0.0
 40
0.25
 41
0.0
 71
     1
 72
     1
  1
FOR 3/4" & 1" CONDUITS
  7
SLDTEXTSTYLE0
 73
     1
 44
1.0
  0
MTEXT
  5
18A
330
185
100
AcDbEntity
  8
0
  6
Continuous
 62
     0
 48
2.0
370
     0
100
AcDbMText
 10
0.0394023947
 20
-0.5361182602
 30
0.0
 40
0.25
 41
0.0
 71
     1
 72
     1
  1
(4) PLACES
  7
SLDTEXTSTYLE0
 73
     1
 44
1.0
  0
ENDBLK
  5
187
330
185
100
AcDbEntity
  8
0
100
AcDbBlockEnd
  0
BLOCK
  5
18E
330
18D
100
AcDbEntity
  8
0
100
AcDbBlockBegin
  2
SW_NOTE_6
 70
     0
 10
0.0
 20
0.0
 30
0.0
  3
SW_NOTE_6
  1

  0
MTEXT
  5
190
330
18D
100
AcDbEntity
  8
0
  6
Continuous
 62
     0
 48
2.0
370
     0
100
AcDbMText
 10
-3.2620776592
 20
0.1945197491
 30
0.0
 40
0.25
 41
0.0
 71
     1
 72
     1
  1
DOUBLE KNOCKOUT
  7
SLDTEXTSTYLE0
 73
     1
 44
1.0
  0
MTEXT
  5
191
330
18D
100
AcDbEntity
  8
0
  6
Continuous
 62
     0
 48
2.0
370
     0
100
AcDbMText
 10
-4.2079103862
 20
-0.1342203999
 30
0.0
 40
0.25
 41
0.0
 71
     1
 72
     1
  1
FOR 1/2" & 3/4" CONDUITS
  7
SLDTEXTSTYLE0
 73
     1
 44
1.0
  0
MTEXT
  5
192
330
18D
100
AcDbEntity
  8
0
  6
Continuous
 62
     0
 48
2.0
370
     0
100
AcDbMText
 10
-1.7752717683
 20
-0.4629605489
 30
0.0
 40
0.25
 41
0.0
 71
     1
 72
     1
  1
(4) PLACES
  7
SLDTEXTSTYLE0
 73
     1
 44
1.0
  0
ENDBLK
  5
18F
330
18D
100
AcDbEntity
  8
0
100
AcDbBlockEnd
  0
BLOCK
  5
259
330
258
100
AcDbEntity
  8
0
100
AcDbBlockBegin
  2
*D14
 70
     1
 10
0.0
 20
0.0
 30
0.0
  3
*D14
  1

  0
SOLID
  5
25B
330
258
100
AcDbEntity
  8
0
  6
Continuous
 62
     7
 48
2.0
370
     0
100
AcDbTrace
 10
22.4093340679
 20
13.213396453
 30
0.0
 11
22.1493340679
 21
13.253396453
 31
0.0
 12
22.1493340679
 22
13.173396453
 32
0.0
 13
22.1493340679
 23
13.173396453
 33
0.0
  0
SOLID
  5
25C
330
258
100
AcDbEntity
  8
0
  6
Continuous
 62
     7
 48
2.0
370
     0
100
AcDbTrace
 10
23.6593340679
 20
13.213396453
 30
0.0
 11
23.9193340679
 21
13.173396453
 31
0.0
 12
23.9193340679
 22
13.253396453
 32
0.0
 13
23.9193340679
 23
13.253396453
 33
0.0
  0
LINE
  5
25D
330
258
100
AcDbEntity
  8
0
  6
Continuous
 62
     7
 48
2.0
370
     0
100
AcDbLine
 10
22.6097109732
 20
13.1836421343
 30
0.0
 11
22.6097109732
 21
12.8464265223
 31
0.0
  0
LINE
  5
25E
330
258
100
AcDbEntity
  8
0
  6
Continuous
 62
     7
 48
2.0
370
     0
100
AcDbLine
 10
22.6097109732
 20
12.8464265223
 30
0.0
 11
22.6604361464
 21
12.8464265223
 31
0.0
  0
LINE
  5
25F
330
258
100
AcDbEntity
  8
0
  6
Continuous
 62
     7
 48
2.0
370
     0
100
AcDbLine
 10
22.6097109732
 20
13.1836421343
 30
0.0
 11
22.6604361464
 21
13.1836421343
 31
0.0
  0
LINE
  5
260
330
258
100
AcDbEntity
  8
0
  6
Continuous
 62
     7
 48
2.0
370
     0
100
AcDbLine
 10
23.4589571626
 20
13.1836421343
 30
0.0
 11
23.4589571626
 21
12.8464265223
 31
0.0
  0
LINE
  5
261
330
258
100
AcDbEntity
  8
0
  6
Continuous
 62
     7
 48
2.0
370
     0
100
AcDbLine
 10
23.4589571626
 20
12.8464265223
 30
0.0
 11
23.4082319894
 21
12.8464265223
 31
0.0
  0
LINE
  5
262
330
258
100
AcDbEntity
  8
0
  6
Continuous
 62
     7
 48
2.0
370
     0
100
AcDbLine
 10
23.4589571626
 20
13.1836421343
 30
0.0
 11
23.4082319894
 21
13.1836421343
 31
0.0
  0
LINE
  5
263
330
258
100
AcDbEntity
  8
0
  6
Continuous
 62
     7
 48
2.0
370
     0
100
AcDbLine
 10
22.4093340679
 20
11.4242230856
 30
0.0
 11
22.4093340679
 21
13.463396453
 31
0.0
  0
LINE
  5
264
330
258
100
AcDbEntity
  8
0
  6
Continuous
 62
     7
 48
2.0
370
     0
100
AcDbLine
 10
23.6593340679
 20
12.6142230856
 30
0.0
 11
23.6593340679
 21
13.463396453
 31
0.0
  0
LINE
  5
265
330
258
100
AcDbEntity
  8
0
  6
Continuous
 62
     7
 48
2.0
370
     0
100
AcDbLine
 10
22.4093340679
 20
13.213396453
 30
0.0
 11
21.9093340679
 21
13.213396453
 31
0.0
  0
LINE
  5
266
330
258
100
AcDbEntity
  8
0
  6
Continuous
 62
     7
 48
2.0
370
     0
100
AcDbLine
 10
23.6593340679
 20
13.213396453
 30
0.0
 11
24.1593340679
 21
13.213396453
 31
0.0
  0
MTEXT
  5
267
330
258
100
AcDbEntity
  8
0
  6
Continuous
 62
     7
 48
2.0
370
     0
100
AcDbMText
 10
22.7111613196
 20
13.5356633742
 30
0.0
 40
0.25
 41
0.0
 71
     1
 72
     1
  1
1.25
  7
SLDTEXTSTYLE0
 73
     1
 44
1.0
  0
MTEXT
  5
268
330
258
100
AcDbEntity
  8
0
  6
Continuous
 62
     7
 48
2.0
370
     0
100
AcDbMText
 10
22.7111613196
 20
13.1389391247
 30
0.0
 40
0.25
 41
0.0
 71
     1
 72
     1
  1
31.8
  7
SLDTEXTSTYLE0
 73
     1
 44
1.0
  0
ENDBLK
  5
25A
330
258
100
AcDbEntity
  8
0
100
AcDbBlockEnd
  0
BLOCK
  5
26B
330
26A
100
AcDbEntity
  8
0
100
AcDbBlockBegin
  2
*D15
 70
     1
 10
0.0
 20
0.0
 30
0.0
  3
*D15
  1

  0
SOLID
  5
26D
330
26A
100
AcDbEntity
  8
0
  6
Continuous
 62
     7
 48
2.0
370
     0
100
AcDbTrace
 10
22.2843340679
 20
7.7268195423
 30
0.0
 11
22.0243340679
 21
7.7668195423
 31
0.0
 12
22.0243340679
 22
7.6868195423
 32
0.0
 13
22.0243340679
 23
7.6868195423
 33
0.0
  0
SOLID
  5
26E
330
26A
100
AcDbEntity
  8
0
  6
Continuous
 62
     7
 48
2.0
370
     0
100
AcDbTrace
 10
23.6593340679
 20
7.7268195423
 30
0.0
 11
23.9193340679
 21
7.6868195423
 31
0.0
 12
23.9193340679
 22
7.7668195423
 32
0.0
 13
23.9193340679
 23
7.7668195423
 33
0.0
  0
LINE
  5
26F
330
26A
100
AcDbEntity
  8
0
  6
Continuous
 62
     7
 48
2.0
370
     0
100
AcDbLine
 10
22.5472109732
 20
7.6970652236
 30
0.0
 11
22.5472109732
 21
7.3598496116
 31
0.0
  0
LINE
  5
270
330
26A
100
AcDbEntity
  8
0
  6
Continuous
 62
     7
 48
2.0
370
     0
100
AcDbLine
 10
22.5472109732
 20
7.3598496116
 30
0.0
 11
22.5979361464
 21
7.3598496116
 31
0.0
  0
LINE
  5
271
330
26A
100
AcDbEntity
  8
0
  6
Continuous
 62
     7
 48
2.0
370
     0
100
AcDbLine
 10
22.5472109732
 20
7.6970652236
 30
0.0
 11
22.5979361464
 21
7.6970652236
 31
0.0
  0
LINE
  5
272
330
26A
100
AcDbEntity
  8
0
  6
Continuous
 62
     7
 48
2.0
370
     0
100
AcDbLine
 10
23.3964571626
 20
7.6970652236
 30
0.0
 11
23.3964571626
 21
7.3598496116
 31
0.0
  0
LINE
  5
273
330
26A
100
AcDbEntity
  8
0
  6
Continuous
 62
     7
 48
2.0
370
     0
100
AcDbLine
 10
23.3964571626
 20
7.3598496116
 30
0.0
 11
23.3457319894
 21
7.3598496116
 31
0.0
  0
LINE
  5
274
330
26A
100
AcDbEntity
  8
0
  6
Continuous
 62
     7
 48
2.0
370
     0
100
AcDbLine
 10
23.3964571626
 20
7.6970652236
 30
0.0
 11
23.3457319894
 21
7.6970652236
 31
0.0
  0
LINE
  5
275
330
26A
100
AcDbEntity
  8
0
  6
Continuous
 62
     7
 48
2.0
370
     0
100
AcDbLine
 10
22.2843340679
 20
9.6042230856
 30
0.0
 11
22.2843340679
 21
7.4768195423
 31
0.0
  0
LINE
  5
276
330
26A
100
AcDbEntity
  8
0
  6
Continuous
 62
     7
 48
2.0
370
     0
100
AcDbLine
 10
23.6593340679
 20
8.4142230856
 30
0.0
 11
23.6593340679
 21
7.4768195423
 31
0.0
  0
LINE
  5
277
330
26A
100
AcDbEntity
  8
0
  6
Continuous
 62
     7
 48
2.0
370
     0
100
AcDbLine
 10
22.2843340679
 20
7.7268195423
 30
0.0
 11
21.7843340679
 21
7.7268195423
 31
0.0
  0
LINE
  5
278
330
26A
100
AcDbEntity
  8
0
  6
Continuous
 62
     7
 48
2.0
370
     0
100
AcDbLine
 10
23.6593340679
 20
7.7268195423
 30
0.0
 11
24.1593340679
 21
7.7268195423
 31
0.0
  0
MTEXT
  5
279
330
26A
100
AcDbEntity
  8
0
  6
Continuous
 62
     7
 48
2.0
370
     0
100
AcDbMText
 10
22.6486613196
 20
8.0490864635
 30
0.0
 40
0.25
 41
0.0
 71
     1
 72
     1
  1
1.38
  7
SLDTEXTSTYLE0
 73
     1
 44
1.0
  0
MTEXT
  5
27A
330
26A
100
AcDbEntity
  8
0
  6
Continuous
 62
     7
 48
2.0
370
     0
100
AcDbMText
 10
22.6486613196
 20
7.6523622141
 30
0.0
 40
0.25
 41
0.0
 71
     1
 72
     1
  1
34.9
  7
SLDTEXTSTYLE0
 73
     1
 44
1.0
  0
ENDBLK
  5
26C
330
26A
100
AcDbEntity
  8
0
100
AcDbBlockEnd
  0
BLOCK
  5
2A3
330
2A2
100
AcDbEntity
  8
0
100
AcDbBlockBegin
  2
*D16
 70
     1
 10
0.0
 20
0.0
 30
0.0
  3
*D16
  1

  0
SOLID
  5
2A5
330
2A2
100
AcDbEntity
  8
0
  6
Continuous
 62
     7
 48
2.0
370
     0
100
AcDbTrace
 10
3.6860680712
 20
13.27704198
 30
0.0
 11
3.9460680712
 21
13.23704198
 31
0.0
 12
3.9460680712
 22
13.31704198
 32
0.0
 13
3.9460680712
 23
13.31704198
 33
0.0
  0
SOLID
  5
2A6
330
2A2
100
AcDbEntity
  8
0
  6
Continuous
 62
     7
 48
2.0
370
     0
100
AcDbTrace
 10
2.4360680712
 20
13.27704198
 30
0.0
 11
2.1760680712
 21
13.31704198
 31
0.0
 12
2.1760680712
 22
13.23704198
 32
0.0
 13
2.1760680712
 23
13.23704198
 33
0.0
  0
LINE
  5
2A7
330
2A2
100
AcDbEntity
  8
0
  6
Continuous
 62
     7
 48
2.0
370
     0
100
AcDbLine
 10
2.6364449765
 20
13.2472876613
 30
0.0
 11
2.6364449765
 21
12.9100720493
 31
0.0
  0
LINE
  5
2A8
330
2A2
100
AcDbEntity
  8
0
  6
Continuous
 62
     7
 48
2.0
370
     0
100
AcDbLine
 10
2.6364449765
 20
12.9100720493
 30
0.0
 11
2.6871701497
 21
12.9100720493
 31
0.0
  0
LINE
  5
2A9
330
2A2
100
AcDbEntity
  8
0
  6
Continuous
 62
     7
 48
2.0
370
     0
100
AcDbLine
 10
2.6364449765
 20
13.2472876613
 30
0.0
 11
2.6871701497
 21
13.2472876613
 31
0.0
  0
LINE
  5
2AA
330
2A2
100
AcDbEntity
  8
0
  6
Continuous
 62
     7
 48
2.0
370
     0
100
AcDbLine
 10
3.4856911659
 20
13.2472876613
 30
0.0
 11
3.4856911659
 21
12.9100720493
 31
0.0
  0
LINE
  5
2AB
330
2A2
100
AcDbEntity
  8
0
  6
Continuous
 62
     7
 48
2.0
370
     0
100
AcDbLine
 10
3.4856911659
 20
12.9100720493
 30
0.0
 11
3.4349659927
 21
12.9100720493
 31
0.0
  0
LINE
  5
2AC
330
2A2
100
AcDbEntity
  8
0
  6
Continuous
 62
     7
 48
2.0
370
     0
100
AcDbLine
 10
3.4856911659
 20
13.2472876613
 30
0.0
 11
3.4349659927
 21
13.2472876613
 31
0.0
  0
LINE
  5
2AD
330
2A2
100
AcDbEntity
  8
0
  6
Continuous
 62
     7
 48
2.0
370
     0
100
AcDbLine
 10
3.6860680712
 20
11.4242230856
 30
0.0
 11
3.6860680712
 21
13.52704198
 31
0.0
  0
LINE
  5
2AE
330
2A2
100
AcDbEntity
  8
0
  6
Continuous
 62
     7
 48
2.0
370
     0
100
AcDbLine
 10
2.4360680712
 20
12.6142230856
 30
0.0
 11
2.4360680712
 21
13.52704198
 31
0.0
  0
LINE
  5
2AF
330
2A2
100
AcDbEntity
  8
0
  6
Continuous
 62
     7
 48
2.0
370
     0
100
AcDbLine
 10
3.6860680712
 20
13.27704198
 30
0.0
 11
4.1860680712
 21
13.27704198
 31
0.0
  0
LINE
  5
2B0
330
2A2
100
AcDbEntity
  8
0
  6
Continuous
 62
     7
 48
2.0
370
     0
100
AcDbLine
 10
2.4360680712
 20
13.27704198
 30
0.0
 11
1.9360680712
 21
13.27704198
 31
0.0
  0
MTEXT
  5
2B1
330
2A2
100
AcDbEntity
  8
0
  6
Continuous
 62
     7
 48
2.0
370
     0
100
AcDbMText
 10
2.7378953229
 20
13.5993089012
 30
0.0
 40
0.25
 41
0.0
 71
     1
 72
     1
  1
1.25
  7
SLDTEXTSTYLE0
 73
     1
 44
1.0
  0
MTEXT
  5
2B2
330
2A2
100
AcDbEntity
  8
0
  6
Continuous
 62
     7
 48
2.0
370
     0
100
AcDbMText
 10
2.7378953229
 20
13.2025846518
 30
0.0
 40
0.25
 41
0.0
 71
     1
 72
     1
  1
31.8
  7
SLDTEXTSTYLE0
 73
     1
 44
1.0
  0
ENDBLK
  5
2A4
330
2A2
100
AcDbEntity
  8
0
100
AcDbBlockEnd
  0
BLOCK
  5
2B5
330
2B4
100
AcDbEntity
  8
0
100
AcDbBlockBegin
  2
*D17
 70
     1
 10
0.0
 20
0.0
 30
0.0
  3
*D17
  1

  0
SOLID
  5
2B7
330
2B4
100
AcDbEntity
  8
0
  6
Continuous
 62
     7
 48
2.0
370
     0
100
AcDbTrace
 10
2.4360680712
 20
7.7268195423
 30
0.0
 11
2.1760680712
 21
7.7668195423
 31
0.0
 12
2.1760680712
 22
7.6868195423
 32
0.0
 13
2.1760680712
 23
7.6868195423
 33
0.0
  0
SOLID
  5
2B8
330
2B4
100
AcDbEntity
  8
0
  6
Continuous
 62
     7
 48
2.0
370
     0
100
AcDbTrace
 10
3.8110680712
 20
7.7268195423
 30
0.0
 11
4.0710680712
 21
7.6868195423
 31
0.0
 12
4.0710680712
 22
7.7668195423
 32
0.0
 13
4.0710680712
 23
7.7668195423
 33
0.0
  0
LINE
  5
2B9
330
2B4
100
AcDbEntity
  8
0
  6
Continuous
 62
     7
 48
2.0
370
     0
100
AcDbLine
 10
2.6989449765
 20
7.6970652236
 30
0.0
 11
2.6989449765
 21
7.3598496116
 31
0.0
  0
LINE
  5
2BA
330
2B4
100
AcDbEntity
  8
0
  6
Continuous
 62
     7
 48
2.0
370
     0
100
AcDbLine
 10
2.6989449765
 20
7.3598496116
 30
0.0
 11
2.7496701497
 21
7.3598496116
 31
0.0
  0
LINE
  5
2BB
330
2B4
100
AcDbEntity
  8
0
  6
Continuous
 62
     7
 48
2.0
370
     0
100
AcDbLine
 10
2.6989449765
 20
7.6970652236
 30
0.0
 11
2.7496701497
 21
7.6970652236
 31
0.0
  0
LINE
  5
2BC
330
2B4
100
AcDbEntity
  8
0
  6
Continuous
 62
     7
 48
2.0
370
     0
100
AcDbLine
 10
3.5481911659
 20
7.6970652236
 30
0.0
 11
3.5481911659
 21
7.3598496116
 31
0.0
  0
LINE
  5
2BD
330
2B4
100
AcDbEntity
  8
0
  6
Continuous
 62
     7
 48
2.0
370
     0
100
AcDbLine
 10
3.5481911659
 20
7.3598496116
 30
0.0
 11
3.4974659927
 21
7.3598496116
 31
0.0
  0
LINE
  5
2BE
330
2B4
100
AcDbEntity
  8
0
  6
Continuous
 62
     7
 48
2.0
370
     0
100
AcDbLine
 10
3.5481911659
 20
7.6970652236
 30
0.0
 11
3.4974659927
 21
7.6970652236
 31
0.0
  0
LINE
  5
2BF
330
2B4
100
AcDbEntity
  8
0
  6
Continuous
 62
     7
 48
2.0
370
     0
100
AcDbLine
 10
2.4360680712
 20
8.4142230856
 30
0.0
 11
2.4360680712
 21
7.4768195423
 31
0.0
  0
LINE
  5
2C0
330
2B4
100
AcDbEntity
  8
0
  6
Continuous
 62
     7
 48
2.0
370
     0
100
AcDbLine
 10
3.8110680712
 20
9.6042230856
 30
0.0
 11
3.8110680712
 21
7.4768195423
 31
0.0
  0
LINE
  5
2C1
330
2B4
100
AcDbEntity
  8
0
  6
Continuous
 62
     7
 48
2.0
370
     0
100
AcDbLine
 10
2.4360680712
 20
7.7268195423
 30
0.0
 11
1.9360680712
 21
7.7268195423
 31
0.0
  0
LINE
  5
2C2
330
2B4
100
AcDbEntity
  8
0
  6
Continuous
 62
     7
 48
2.0
370
     0
100
AcDbLine
 10
3.8110680712
 20
7.7268195423
 30
0.0
 11
4.3110680712
 21
7.7268195423
 31
0.0
  0
MTEXT
  5
2C3
330
2B4
100
AcDbEntity
  8
0
  6
Continuous
 62
     7
 48
2.0
370
     0
100
AcDbMText
 10
2.8003953229
 20
8.0490864635
 30
0.0
 40
0.25
 41
0.0
 71
     1
 72
     1
  1
1.38
  7
SLDTEXTSTYLE0
 73
     1
 44
1.0
  0
MTEXT
  5
2C4
330
2B4
100
AcDbEntity
  8
0
  6
Continuous
 62
     7
 48
2.0
370
     0
100
AcDbMText
 10
2.8003953229
 20
7.6523622141
 30
0.0
 40
0.25
 41
0.0
 71
     1
 72
     1
  1
34.9
  7
SLDTEXTSTYLE0
 73
     1
 44
1.0
  0
ENDBLK
  5
2B6
330
2B4
100
AcDbEntity
  8
0
100
AcDbBlockEnd
  0
BLOCK
  5
2C8
330
2C7
100
AcDbEntity
  8
0
100
AcDbBlockBegin
  2
*D18
 70
     1
 10
0.0
 20
0.0
 30
0.0
  3
*D18
  1

  0
SOLID
  5
2CA
330
2C7
100
AcDbEntity
  8
0
  6
Continuous
 62
     7
 48
2.0
370
     0
100
AcDbTrace
 10
1.8441721733
 20
11.3242230856
 30
0.0
 11
1.8041721733
 21
11.0642230856
 31
0.0
 12
1.8841721733
 22
11.0642230856
 32
0.0
 13
1.8841721733
 23
11.0642230856
 33
0.0
  0
SOLID
  5
2CB
330
2C7
100
AcDbEntity
  8
0
  6
Continuous
 62
     7
 48
2.0
370
     0
100
AcDbTrace
 10
1.8441721733
 20
9.7042230856
 30
0.0
 11
1.8841721733
 21
9.9642230856
 31
0.0
 12
1.8041721733
 22
9.9642230856
 32
0.0
 13
1.8041721733
 23
9.9642230856
 33
0.0
  0
LINE
  5
2CC
330
2C7
100
AcDbEntity
  8
0
  6
Continuous
 62
     7
 48
2.0
370
     0
100
AcDbLine
 10
1.4195490786
 20
10.4844687669
 30
0.0
 11
1.4195490786
 21
10.1472531549
 31
0.0
  0
LINE
  5
2CD
330
2C7
100
AcDbEntity
  8
0
  6
Continuous
 62
     7
 48
2.0
370
     0
100
AcDbLine
 10
1.4195490786
 20
10.1472531549
 30
0.0
 11
1.4702742518
 21
10.1472531549
 31
0.0
  0
LINE
  5
2CE
330
2C7
100
AcDbEntity
  8
0
  6
Continuous
 62
     7
 48
2.0
370
     0
100
AcDbLine
 10
1.4195490786
 20
10.4844687669
 30
0.0
 11
1.4702742518
 21
10.4844687669
 31
0.0
  0
LINE
  5
2CF
330
2C7
100
AcDbEntity
  8
0
  6
Continuous
 62
     7
 48
2.0
370
     0
100
AcDbLine
 10
2.268795268
 20
10.4844687669
 30
0.0
 11
2.268795268
 21
10.1472531549
 31
0.0
  0
LINE
  5
2D0
330
2C7
100
AcDbEntity
  8
0
  6
Continuous
 62
     7
 48
2.0
370
     0
100
AcDbLine
 10
2.268795268
 20
10.1472531549
 30
0.0
 11
2.2180700948
 21
10.1472531549
 31
0.0
  0
LINE
  5
2D1
330
2C7
100
AcDbEntity
  8
0
  6
Continuous
 62
     7
 48
2.0
370
     0
100
AcDbLine
 10
2.268795268
 20
10.4844687669
 30
0.0
 11
2.2180700948
 21
10.4844687669
 31
0.0
  0
LINE
  5
2D2
330
2C7
100
AcDbEntity
  8
0
  6
Continuous
 62
     7
 48
2.0
370
     0
100
AcDbLine
 10
3.5860680712
 20
11.3242230856
 30
0.0
 11
1.5941721733
 21
11.3242230856
 31
0.0
  0
LINE
  5
2D3
330
2C7
100
AcDbEntity
  8
0
  6
Continuous
 62
     7
 48
2.0
370
     0
100
AcDbLine
 10
3.7110680712
 20
9.7042230856
 30
0.0
 11
1.5941721733
 21
9.7042230856
 31
0.0
  0
LINE
  5
2D4
330
2C7
100
AcDbEntity
  8
0
  6
Continuous
 62
     7
 48
2.0
370
     0
100
AcDbLine
 10
1.8441721733
 20
11.3242230856
 30
0.0
 11
1.8441721733
 21
10.9109473351
 31
0.0
  0
LINE
  5
2D5
330
2C7
100
AcDbEntity
  8
0
  6
Continuous
 62
     7
 48
2.0
370
     0
100
AcDbLine
 10
1.8441721733
 20
9.7042230856
 30
0.0
 11
1.8441721733
 21
10.1174988362
 31
0.0
  0
MTEXT
  5
2D6
330
2C7
100
AcDbEntity
  8
0
  6
Continuous
 62
     7
 48
2.0
370
     0
100
AcDbMText
 10
1.520999425
 20
10.8364900068
 30
0.0
 40
0.25
 41
0.0
 71
     1
 72
     1
  1
1.62
  7
SLDTEXTSTYLE0
 73
     1
 44
1.0
  0
MTEXT
  5
2D7
330
2C7
100
AcDbEntity
  8
0
  6
Continuous
 62
     7
 48
2.0
370
     0
100
AcDbMText
 10
1.520999425
 20
10.4397657574
 30
0.0
 40
0.25
 41
0.0
 71
     1
 72
     1
  1
41.1
  7
SLDTEXTSTYLE0
 73
     1
 44
1.0
  0
ENDBLK
  5
2C9
330
2C7
100
AcDbEntity
  8
0
100
AcDbBlockEnd
  0
BLOCK
  5
330
330
32F
100
AcDbEntity
  8
0
100
AcDbBlockBegin
  2
*D19
 70
     1
 10
0.0
 20
0.0
 30
0.0
  3
*D19
  1

  0
SOLID
  5
332
330
32F
100
AcDbEntity
  8
0
  6
Continuous
 62
     7
 48
2.0
370
     0
100
AcDbTrace
 10
12.537824369
 20
4.6822509452
 30
0.0
 11
12.577824369
 21
4.9422509452
 31
0.0
 12
12.497824369
 22
4.9422509452
 32
0.0
 13
12.497824369
 23
4.9422509452
 33
0.0
  0
SOLID
  5
333
330
32F
100
AcDbEntity
  8
0
  6
Continuous
 62
     7
 48
2.0
370
     0
100
AcDbTrace
 10
12.537824369
 20
3.4322509452
 30
0.0
 11
12.497824369
 21
3.1722509452
 31
0.0
 12
12.577824369
 22
3.1722509452
 32
0.0
 13
12.577824369
 23
3.1722509452
 33
0.0
  0
LINE
  5
334
330
32F
100
AcDbEntity
  8
0
  6
Continuous
 62
     7
 48
2.0
370
     0
100
AcDbLine
 10
12.1132012744
 20
4.0274966265
 30
0.0
 11
12.1132012744
 21
3.6902810145
 31
0.0
  0
LINE
  5
335
330
32F
100
AcDbEntity
  8
0
  6
Continuous
 62
     7
 48
2.0
370
     0
100
AcDbLine
 10
12.1132012744
 20
3.6902810145
 30
0.0
 11
12.1639264476
 21
3.6902810145
 31
0.0
  0
LINE
  5
336
330
32F
100
AcDbEntity
  8
0
  6
Continuous
 62
     7
 48
2.0
370
     0
100
AcDbLine
 10
12.1132012744
 20
4.0274966265
 30
0.0
 11
12.1639264476
 21
4.0274966265
 31
0.0
  0
LINE
  5
337
330
32F
100
AcDbEntity
  8
0
  6
Continuous
 62
     7
 48
2.0
370
     0
100
AcDbLine
 10
12.9624474637
 20
4.0274966265
 30
0.0
 11
12.9624474637
 21
3.6902810145
 31
0.0
  0
LINE
  5
338
330
32F
100
AcDbEntity
  8
0
  6
Continuous
 62
     7
 48
2.0
370
     0
100
AcDbLine
 10
12.9624474637
 20
3.6902810145
 30
0.0
 11
12.9117222905
 21
3.6902810145
 31
0.0
  0
LINE
  5
339
330
32F
100
AcDbEntity
  8
0
  6
Continuous
 62
     7
 48
2.0
370
     0
100
AcDbLine
 10
12.9624474637
 20
4.0274966265
 30
0.0
 11
12.9117222905
 21
4.0274966265
 31
0.0
  0
LINE
  5
33A
330
32F
100
AcDbEntity
  8
0
  6
Continuous
 62
     7
 48
2.0
370
     0
100
AcDbLine
 10
10.5451614449
 20
4.6822509452
 30
0.0
 11
12.787824369
 21
4.6822509452
 31
0.0
  0
LINE
  5
33B
330
32F
100
AcDbEntity
  8
0
  6
Continuous
 62
     7
 48
2.0
370
     0
100
AcDbLine
 10
11.6581614449
 20
3.4322509452
 30
0.0
 11
12.787824369
 21
3.4322509452
 31
0.0
  0
LINE
  5
33C
330
32F
100
AcDbEntity
  8
0
  6
Continuous
 62
     7
 48
2.0
370
     0
100
AcDbLine
 10
12.537824369
 20
4.6822509452
 30
0.0
 11
12.537824369
 21
5.1822509452
 31
0.0
  0
LINE
  5
33D
330
32F
100
AcDbEntity
  8
0
  6
Continuous
 62
     7
 48
2.0
370
     0
100
AcDbLine
 10
12.537824369
 20
3.4322509452
 30
0.0
 11
12.537824369
 21
2.9322509452
 31
0.0
  0
MTEXT
  5
33E
330
32F
100
AcDbEntity
  8
0
  6
Continuous
 62
     7
 48
2.0
370
     0
100
AcDbMText
 10
12.2146516208
 20
4.3795178664
 30
0.0
 40
0.25
 41
0.0
 71
     1
 72
     1
  1
1.25
  7
SLDTEXTSTYLE0
 73
     1
 44
1.0
  0
MTEXT
  5
33F
330
32F
100
AcDbEntity
  8
0
  6
Continuous
 62
     7
 48
2.0
370
     0
100
AcDbMText
 10
12.2146516208
 20
3.982793617
 30
0.0
 40
0.25
 41
0.0
 71
     1
 72
     1
  1
31.8
  7
SLDTEXTSTYLE0
 73
     1
 44
1.0
  0
ENDBLK
  5
331
330
32F
100
AcDbEntity
  8
0
100
AcDbBlockEnd
  0
BLOCK
  5
342
330
341
100
AcDbEntity
  8
0
100
AcDbBlockBegin
  2
*D20
 70
     1
 10
0.0
 20
0.0
 30
0.0
  3
*D20
  1

  0
SOLID
  5
344
330
341
100
AcDbEntity
  8
0
  6
Continuous
 62
     7
 48
2.0
370
     0
100
AcDbTrace
 10
6.8340164917
 20
4.8072509452
 30
0.0
 11
6.8740164917
 21
5.0672509452
 31
0.0
 12
6.7940164917
 22
5.0672509452
 32
0.0
 13
6.7940164917
 23
5.0672509452
 33
0.0
  0
SOLID
  5
345
330
341
100
AcDbEntity
  8
0
  6
Continuous
 62
     7
 48
2.0
370
     0
100
AcDbTrace
 10
6.8340164917
 20
3.4322509452
 30
0.0
 11
6.7940164917
 21
3.1722509452
 31
0.0
 12
6.8740164917
 22
3.1722509452
 32
0.0
 13
6.8740164917
 23
3.1722509452
 33
0.0
  0
LINE
  5
346
330
341
100
AcDbEntity
  8
0
  6
Continuous
 62
     7
 48
2.0
370
     0
100
AcDbLine
 10
6.409393397
 20
4.0899966265
 30
0.0
 11
6.409393397
 21
3.7527810145
 31
0.0
  0
LINE
  5
347
330
341
100
AcDbEntity
  8
0
  6
Continuous
 62
     7
 48
2.0
370
     0
100
AcDbLine
 10
6.409393397
 20
3.7527810145
 30
0.0
 11
6.4601185702
 21
3.7527810145
 31
0.0
  0
LINE
  5
348
330
341
100
AcDbEntity
  8
0
  6
Continuous
 62
     7
 48
2.0
370
     0
100
AcDbLine
 10
6.409393397
 20
4.0899966265
 30
0.0
 11
6.4601185702
 21
4.0899966265
 31
0.0
  0
LINE
  5
349
330
341
100
AcDbEntity
  8
0
  6
Continuous
 62
     7
 48
2.0
370
     0
100
AcDbLine
 10
7.2586395864
 20
4.0899966265
 30
0.0
 11
7.2586395864
 21
3.7527810145
 31
0.0
  0
LINE
  5
34A
330
341
100
AcDbEntity
  8
0
  6
Continuous
 62
     7
 48
2.0
370
     0
100
AcDbLine
 10
7.2586395864
 20
3.7527810145
 30
0.0
 11
7.2079144132
 21
3.7527810145
 31
0.0
  0
LINE
  5
34B
330
341
100
AcDbEntity
  8
0
  6
Continuous
 62
     7
 48
2.0
370
     0
100
AcDbLine
 10
7.2586395864
 20
4.0899966265
 30
0.0
 11
7.2079144132
 21
4.0899966265
 31
0.0
  0
LINE
  5
34C
330
341
100
AcDbEntity
  8
0
  6
Continuous
 62
     7
 48
2.0
370
     0
100
AcDbLine
 10
8.7251614449
 20
4.8072509452
 30
0.0
 11
6.5840164917
 21
4.8072509452
 31
0.0
  0
LINE
  5
34D
330
341
100
AcDbEntity
  8
0
  6
Continuous
 62
     7
 48
2.0
370
     0
100
AcDbLine
 10
7.6121614449
 20
3.4322509452
 30
0.0
 11
6.5840164917
 21
3.4322509452
 31
0.0
  0
LINE
  5
34E
330
341
100
AcDbEntity
  8
0
  6
Continuous
 62
     7
 48
2.0
370
     0
100
AcDbLine
 10
6.8340164917
 20
4.8072509452
 30
0.0
 11
6.8340164917
 21
5.3072509452
 31
0.0
  0
LINE
  5
34F
330
341
100
AcDbEntity
  8
0
  6
Continuous
 62
     7
 48
2.0
370
     0
100
AcDbLine
 10
6.8340164917
 20
3.4322509452
 30
0.0
 11
6.8340164917
 21
2.9322509452
 31
0.0
  0
MTEXT
  5
350
330
341
100
AcDbEntity
  8
0
  6
Continuous
 62
     7
 48
2.0
370
     0
100
AcDbMText
 10
6.5108437434
 20
4.4420178664
 30
0.0
 40
0.25
 41
0.0
 71
     1
 72
     1
  1
1.38
  7
SLDTEXTSTYLE0
 73
     1
 44
1.0
  0
MTEXT
  5
351
330
341
100
AcDbEntity
  8
0
  6
Continuous
 62
     7
 48
2.0
370
     0
100
AcDbMText
 10
6.5108437434
 20
4.045293617
 30
0.0
 40
0.25
 41
0.0
 71
     1
 72
     1
  1
34.9
  7
SLDTEXTSTYLE0
 73
     1
 44
1.0
  0
ENDBLK
  5
343
330
341
100
AcDbEntity
  8
0
100
AcDbBlockEnd
  0
BLOCK
  5
367
330
366
100
AcDbEntity
  8
0
100
AcDbBlockBegin
  2
*D21
 70
     1
 10
0.0
 20
0.0
 30
0.0
  3
*D21
  1

  0
SOLID
  5
369
330
366
100
AcDbEntity
  8
0
  6
Continuous
 62
     7
 48
2.0
370
     0
100
AcDbTrace
 10
25.7897082851
 20
11.5142230856
 30
0.0
 11
25.7497082851
 21
11.2542230856
 31
0.0
 12
25.8297082851
 22
11.2542230856
 32
0.0
 13
25.8297082851
 23
11.2542230856
 33
0.0
  0
SOLID
  5
36A
330
366
100
AcDbEntity
  8
0
  6
Continuous
 62
     7
 48
2.0
370
     0
100
AcDbTrace
 10
25.7897082851
 20
9.5142230856
 30
0.0
 11
25.8297082851
 21
9.7742230856
 31
0.0
 12
25.7497082851
 22
9.7742230856
 32
0.0
 13
25.7497082851
 23
9.7742230856
 33
0.0
  0
LINE
  5
36B
330
366
100
AcDbEntity
  8
0
  6
Continuous
 62
     7
 48
2.0
370
     0
100
AcDbLine
 10
25.3650851904
 20
10.4844687669
 30
0.0
 11
25.3650851904
 21
10.1472531549
 31
0.0
  0
LINE
  5
36C
330
366
100
AcDbEntity
  8
0
  6
Continuous
 62
     7
 48
2.0
370
     0
100
AcDbLine
 10
25.3650851904
 20
10.1472531549
 30
0.0
 11
25.4158103636
 21
10.1472531549
 31
0.0
  0
LINE
  5
36D
330
366
100
AcDbEntity
  8
0
  6
Continuous
 62
     7
 48
2.0
370
     0
100
AcDbLine
 10
25.3650851904
 20
10.4844687669
 30
0.0
 11
25.4158103636
 21
10.4844687669
 31
0.0
  0
LINE
  5
36E
330
366
100
AcDbEntity
  8
0
  6
Continuous
 62
     7
 48
2.0
370
     0
100
AcDbLine
 10
26.2143313798
 20
10.4844687669
 30
0.0
 11
26.2143313798
 21
10.1472531549
 31
0.0
  0
LINE
  5
36F
330
366
100
AcDbEntity
  8
0
  6
Continuous
 62
     7
 48
2.0
370
     0
100
AcDbLine
 10
26.2143313798
 20
10.1472531549
 30
0.0
 11
26.1636062065
 21
10.1472531549
 31
0.0
  0
LINE
  5
370
330
366
100
AcDbEntity
  8
0
  6
Continuous
 62
     7
 48
2.0
370
     0
100
AcDbLine
 10
26.2143313798
 20
10.4844687669
 30
0.0
 11
26.1636062065
 21
10.4844687669
 31
0.0
  0
LINE
  5
371
330
366
100
AcDbEntity
  8
0
  6
Continuous
 62
     7
 48
2.0
370
     0
100
AcDbLine
 10
26.8669400659
 20
11.5142230856
 30
0.0
 11
25.5397082851
 21
11.5142230856
 31
0.0
  0
LINE
  5
372
330
366
100
AcDbEntity
  8
0
  6
Continuous
 62
     7
 48
2.0
370
     0
100
AcDbLine
 10
26.8669400659
 20
9.5142230856
 30
0.0
 11
25.5397082851
 21
9.5142230856
 31
0.0
  0
LINE
  5
373
330
366
100
AcDbEntity
  8
0
  6
Continuous
 62
     7
 48
2.0
370
     0
100
AcDbLine
 10
25.7897082851
 20
11.5142230856
 30
0.0
 11
25.7897082851
 21
10.9109473351
 31
0.0
  0
LINE
  5
374
330
366
100
AcDbEntity
  8
0
  6
Continuous
 62
     7
 48
2.0
370
     0
100
AcDbLine
 10
25.7897082851
 20
9.5142230856
 30
0.0
 11
25.7897082851
 21
10.1174988362
 31
0.0
  0
MTEXT
  5
375
330
366
100
AcDbEntity
  8
0
  6
Continuous
 62
     7
 48
2.0
370
     0
100
AcDbMText
 10
25.4665355368
 20
10.8364900068
 30
0.0
 40
0.25
 41
0.0
 71
     1
 72
     1
  1
2.00
  7
SLDTEXTSTYLE0
 73
     1
 44
1.0
  0
MTEXT
  5
376
330
366
100
AcDbEntity
  8
0
  6
Continuous
 62
     7
 48
2.0
370
     0
100
AcDbMText
 10
25.4665355368
 20
10.4397657574
 30
0.0
 40
0.25
 41
0.0
 71
     1
 72
     1
  1
50.8
  7
SLDTEXTSTYLE0
 73
     1
 44
1.0
  0
ENDBLK
  5
368
330
366
100
AcDbEntity
  8
0
100
AcDbBlockEnd
  0
BLOCK
  5
379
330
378
100
AcDbEntity
  8
0
100
AcDbBlockBegin
  2
*D22
 70
     1
 10
0.0
 20
0.0
 30
0.0
  3
*D22
  1

  0
SOLID
  5
37B
330
378
100
AcDbEntity
  8
0
  6
Continuous
 62
     7
 48
2.0
370
     0
100
AcDbTrace
 10
26.9669400659
 20
7.886695715
 30
0.0
 11
27.2269400659
 21
7.846695715
 31
0.0
 12
27.2269400659
 22
7.926695715
 32
0.0
 13
27.2269400659
 23
7.926695715
 33
0.0
  0
SOLID
  5
37C
330
378
100
AcDbEntity
  8
0
  6
Continuous
 62
     7
 48
2.0
370
     0
100
AcDbTrace
 10
29.9669400659
 20
7.886695715
 30
0.0
 11
29.7069400659
 21
7.926695715
 31
0.0
 12
29.7069400659
 22
7.846695715
 32
0.0
 13
29.7069400659
 23
7.846695715
 33
0.0
  0
LINE
  5
37D
330
378
100
AcDbEntity
  8
0
  6
Continuous
 62
     7
 48
2.0
370
     0
100
AcDbLine
 10
28.0423169712
 20
7.8569413963
 30
0.0
 11
28.0423169712
 21
7.5197257843
 31
0.0
  0
LINE
  5
37E
330
378
100
AcDbEntity
  8
0
  6
Continuous
 62
     7
 48
2.0
370
     0
100
AcDbLine
 10
28.0423169712
 20
7.5197257843
 30
0.0
 11
28.0930421444
 21
7.5197257843
 31
0.0
  0
LINE
  5
37F
330
378
100
AcDbEntity
  8
0
  6
Continuous
 62
     7
 48
2.0
370
     0
100
AcDbLine
 10
28.0423169712
 20
7.8569413963
 30
0.0
 11
28.0930421444
 21
7.8569413963
 31
0.0
  0
LINE
  5
380
330
378
100
AcDbEntity
  8
0
  6
Continuous
 62
     7
 48
2.0
370
     0
100
AcDbLine
 10
28.8915631606
 20
7.8569413963
 30
0.0
 11
28.8915631606
 21
7.5197257843
 31
0.0
  0
LINE
  5
381
330
378
100
AcDbEntity
  8
0
  6
Continuous
 62
     7
 48
2.0
370
     0
100
AcDbLine
 10
28.8915631606
 20
7.5197257843
 30
0.0
 11
28.8408379874
 21
7.5197257843
 31
0.0
  0
LINE
  5
382
330
378
100
AcDbEntity
  8
0
  6
Continuous
 62
     7
 48
2.0
370
     0
100
AcDbLine
 10
28.8915631606
 20
7.8569413963
 30
0.0
 11
28.8408379874
 21
7.8569413963
 31
0.0
  0
LINE
  5
383
330
378
100
AcDbEntity
  8
0
  6
Continuous
 62
     7
 48
2.0
370
     0
100
AcDbLine
 10
26.9669400659
 20
9.4142230856
 30
0.0
 11
26.9669400659
 21
7.636695715
 31
0.0
  0
LINE
  5
384
330
378
100
AcDbEntity
  8
0
  6
Continuous
 62
     7
 48
2.0
370
     0
100
AcDbLine
 10
29.9669400659
 20
9.4142230856
 30
0.0
 11
29.9669400659
 21
7.636695715
 31
0.0
  0
LINE
  5
385
330
378
100
AcDbEntity
  8
0
  6
Continuous
 62
     7
 48
2.0
370
     0
100
AcDbLine
 10
26.9669400659
 20
7.886695715
 30
0.0
 11
27.7651414516
 21
7.886695715
 31
0.0
  0
LINE
  5
386
330
378
100
AcDbEntity
  8
0
  6
Continuous
 62
     7
 48
2.0
370
     0
100
AcDbLine
 10
29.9669400659
 20
7.886695715
 30
0.0
 11
29.1687386802
 21
7.886695715
 31
0.0
  0
MTEXT
  5
387
330
378
100
AcDbEntity
  8
0
  6
Continuous
 62
     7
 48
2.0
370
     0
100
AcDbMText
 10
28.1437673177
 20
8.2089626362
 30
0.0
 40
0.25
 41
0.0
 71
     1
 72
     1
  1
3.00
  7
SLDTEXTSTYLE0
 73
     1
 44
1.0
  0
MTEXT
  5
388
330
378
100
AcDbEntity
  8
0
  6
Continuous
 62
     7
 48
2.0
370
     0
100
AcDbMText
 10
28.1437673177
 20
7.8122383868
 30
0.0
 40
0.25
 41
0.0
 71
     1
 72
     1
  1
76.2
  7
SLDTEXTSTYLE0
 73
     1
 44
1.0
  0
ENDBLK
  5
37A
330
378
100
AcDbEntity
  8
0
100
AcDbBlockEnd
  0
BLOCK
  5
38C
330
38B
100
AcDbEntity
  8
0
100
AcDbBlockBegin
  2
*D23
 70
     1
 10
0.0
 20
0.0
 30
0.0
  3
*D23
  1

  0
SOLID
  5
38E
330
38B
100
AcDbEntity
  8
0
  6
Continuous
 62
     7
 48
2.0
370
     0
100
AcDbTrace
 10
30.0371010893
 20
9.3924951891
 30
0.0
 11
30.1322808061
 21
9.1472589326
 31
0.0
 12
30.201592064
 22
9.1872082697
 32
0.0
 13
30.201592064
 23
9.1872082697
 33
0.0
  0
LINE
  5
38F
330
38B
100
AcDbEntity
  8
0
  6
Continuous
 62
     7
 48
2.0
370
     0
100
AcDbLine
 10
31.4014810259
 20
7.8569413963
 30
0.0
 11
31.4014810259
 21
7.5197257843
 31
0.0
  0
LINE
  5
390
330
38B
100
AcDbEntity
  8
0
  6
Continuous
 62
     7
 48
2.0
370
     0
100
AcDbLine
 10
31.4014810259
 20
7.5197257843
 30
0.0
 11
31.4522061991
 21
7.5197257843
 31
0.0
  0
LINE
  5
391
330
38B
100
AcDbEntity
  8
0
  6
Continuous
 62
     7
 48
2.0
370
     0
100
AcDbLine
 10
31.4014810259
 20
7.8569413963
 30
0.0
 11
31.4522061991
 21
7.8569413963
 31
0.0
  0
LINE
  5
392
330
38B
100
AcDbEntity
  8
0
  6
Continuous
 62
     7
 48
2.0
370
     0
100
AcDbLine
 10
32.2507272152
 20
7.8569413963
 30
0.0
 11
32.2507272152
 21
7.5197257843
 31
0.0
  0
LINE
  5
393
330
38B
100
AcDbEntity
  8
0
  6
Continuous
 62
     7
 48
2.0
370
     0
100
AcDbLine
 10
32.2507272152
 20
7.5197257843
 30
0.0
 11
32.200002042
 21
7.5197257843
 31
0.0
  0
LINE
  5
394
330
38B
100
AcDbEntity
  8
0
  6
Continuous
 62
     7
 48
2.0
370
     0
100
AcDbLine
 10
32.2507272152
 20
7.8569413963
 30
0.0
 11
32.200002042
 21
7.8569413963
 31
0.0
  0
LINE
  5
395
330
38B
100
AcDbEntity
  8
0
  6
Continuous
 62
     7
 48
2.0
370
     0
100
AcDbLine
 10
30.0371010893
 20
9.3924951891
 30
0.0
 11
30.9050075848
 21
7.886695715
 31
0.0
  0
LINE
  5
396
330
38B
100
AcDbEntity
  8
0
  6
Continuous
 62
     7
 48
2.0
370
     0
100
AcDbLine
 10
30.9050075848
 20
7.886695715
 30
0.0
 11
31.1550075848
 21
7.886695715
 31
0.0
  0
MTEXT
  5
397
330
38B
100
AcDbEntity
  8
0
  6
Continuous
 62
     7
 48
2.0
370
     0
100
AcDbMText
 10
31.3244054601
 20
8.2089626408
 30
0.0
 40
0.25
 41
0.0
 71
     1
 72
     1
  1
%%c
  7
SLDTEXTSTYLE0
 73
     1
 44
1.0
  0
MTEXT
  5
398
330
38B
100
AcDbEntity
  8
0
  6
Continuous
 62
     7
 48
2.0
370
     0
100
AcDbMText
 10
31.6814572845
 20
8.2089626362
 30
0.0
 40
0.25
 41
0.0
 71
     1
 72
     1
  1
.281
  7
SLDTEXTSTYLE0
 73
     1
 44
1.0
  0
MTEXT
  5
399
330
38B
100
AcDbEntity
  8
0
  6
Continuous
 62
     7
 48
2.0
370
     0
100
AcDbMText
 10
31.5029313723
 20
7.8122383868
 30
0.0
 40
0.25
 41
0.0
 71
     1
 72
     1
  1
7.14
  7
SLDTEXTSTYLE0
 73
     1
 44
1.0
  0
ENDBLK
  5
38D
330
38B
100
AcDbEntity
  8
0
100
AcDbBlockEnd
  0
BLOCK
  5
55C
330
55B
100
AcDbEntity
  8
0
100
AcDbBlockBegin
  2
*D24
 70
     1
 10
0.0
 20
0.0
 30
0.0
  3
*D24
  1

  0
SOLID
  5
55E
330
55B
100
AcDbEntity
  8
0
  6
Continuous
 62
     7
 48
2.0
370
     0
100
AcDbTrace
 10
17.8691271443
 20
11.1980542714
 30
0.0
 11
17.6091271443
 21
11.2380542714
 31
0.0
 12
17.6091271443
 22
11.1580542714
 32
0.0
 13
17.6091271443
 23
11.1580542714
 33
0.0
  0
SOLID
  5
55F
330
55B
100
AcDbEntity
  8
0
  6
Continuous
 62
     7
 48
2.0
370
     0
100
AcDbTrace
 10
18.3691271443
 20
11.1980542714
 30
0.0
 11
18.6291271443
 21
11.1580542714
 31
0.0
 12
18.6291271443
 22
11.2380542714
 32
0.0
 13
18.6291271443
 23
11.2380542714
 33
0.0
  0
LINE
  5
560
330
55B
100
AcDbEntity
  8
0
  6
Continuous
 62
     7
 48
2.0
370
     0
100
AcDbLine
 10
19.0243863318
 20
11.1682999527
 30
0.0
 11
19.0243863318
 21
10.8310843407
 31
0.0
  0
LINE
  5
561
330
55B
100
AcDbEntity
  8
0
  6
Continuous
 62
     7
 48
2.0
370
     0
100
AcDbLine
 10
19.0243863318
 20
10.8310843407
 30
0.0
 11
19.075111505
 21
10.8310843407
 31
0.0
  0
LINE
  5
562
330
55B
100
AcDbEntity
  8
0
  6
Continuous
 62
     7
 48
2.0
370
     0
100
AcDbLine
 10
19.0243863318
 20
11.1682999527
 30
0.0
 11
19.075111505
 21
11.1682999527
 31
0.0
  0
LINE
  5
563
330
55B
100
AcDbEntity
  8
0
  6
Continuous
 62
     7
 48
2.0
370
     0
100
AcDbLine
 10
19.8736325212
 20
11.1682999527
 30
0.0
 11
19.8736325212
 21
10.8310843407
 31
0.0
  0
LINE
  5
564
330
55B
100
AcDbEntity
  8
0
  6
Continuous
 62
     7
 48
2.0
370
     0
100
AcDbLine
 10
19.8736325212
 20
10.8310843407
 30
0.0
 11
19.822907348
 21
10.8310843407
 31
0.0
  0
LINE
  5
565
330
55B
100
AcDbEntity
  8
0
  6
Continuous
 62
     7
 48
2.0
370
     0
100
AcDbLine
 10
19.8736325212
 20
11.1682999527
 30
0.0
 11
19.822907348
 21
11.1682999527
 31
0.0
  0
LINE
  5
566
330
55B
100
AcDbEntity
  8
0
  6
Continuous
 62
     7
 48
2.0
370
     0
100
AcDbLine
 10
17.8691271443
 20
11.1980542714
 30
0.0
 11
17.3691271443
 21
11.1980542714
 31
0.0
  0
LINE
  5
567
330
55B
100
AcDbEntity
  8
0
  6
Continuous
 62
     7
 48
2.0
370
     0
100
AcDbLine
 10
18.3691271443
 20
11.1980542714
 30
0.0
 11
18.7472108122
 21
11.1980542714
 31
0.0
  0
MTEXT
  5
568
330
55B
100
AcDbEntity
  8
0
  6
Continuous
 62
     7
 48
2.0
370
     0
100
AcDbMText
 10
19.2182098884
 20
11.5203211926
 30
0.0
 40
0.25
 41
0.0
 71
     1
 72
     1
  1
.50
  7
SLDTEXTSTYLE0
 73
     1
 44
1.0
  0
MTEXT
  5
569
330
55B
100
AcDbEntity
  8
0
  6
Continuous
 62
     7
 48
2.0
370
     0
100
AcDbMText
 10
19.1258366782
 20
11.1235969432
 30
0.0
 40
0.25
 41
0.0
 71
     1
 72
     1
  1
12.7
  7
SLDTEXTSTYLE0
 73
     1
 44
1.0
  0
ENDBLK
  5
55D
330
55B
100
AcDbEntity
  8
0
100
AcDbBlockEnd
  0
BLOCK
  5
56B
330
56A
100
AcDbEntity
  8
0
100
AcDbBlockBegin
  2
SW_NOTE_7
 70
     0
 10
0.0
 20
0.0
 30
0.0
  3
SW_NOTE_7
  1

  0
MTEXT
  5
56D
330
56A
100
AcDbEntity
  8
0
  6
Continuous
 62
     0
 48
2.0
370
     0
100
AcDbMText
 10
0.0395499115
 20
0.121321234
 30
0.0
 40
0.25
 41
0.0
 71
     1
 72
     1
  1
GROUNDING
  7
SLDTEXTSTYLE0
 73
     1
 44
1.0
  0
MTEXT
  5
56E
330
56A
100
AcDbEntity
  8
0
  6
Continuous
 62
     0
 48
2.0
370
     0
100
AcDbMText
 10
0.0395499115
 20
-0.207418915
 30
0.0
 40
0.25
 41
0.0
 71
     1
 72
     1
  1
EMBOSS
  7
SLDTEXTSTYLE0
 73
     1
 44
1.0
  0
ENDBLK
  5
56C
330
56A
100
AcDbEntity
  8
0
100
AcDbBlockEnd
  0
ENDSEC
  0
SECTION
  2
ENTITIES
  0
LINE
  5
44
330
1F
100
AcDbEntity
  8
0
  6
Continuous
 62
     7
 48
2.0
370
     0
100
AcDbLine
 10
0.6265032092
 20
21.4101463415
 30
0.0
 11
33.3785032092
 21
21.4101463415
 31
0.0
  0
LINE
  5
45
330
1F
100
AcDbEntity
  8
0
  6
Continuous
 62
     7
 48
2.0
370
     0
100
AcDbLine
 10
33.3785032092
 20
0.6581463415
 30
0.0
 11
33.3785032092
 21
21.4101463415
 31
0.0
  0
LINE
  5
46
330
1F
100
AcDbEntity
  8
0
  6
Continuous
 62
     7
 48
2.0
370
     0
100
AcDbLine
 10
33.3785032092
 20
0.6581463415
 30
0.0
 11
0.6265032092
 21
0.6581463415
 31
0.0
  0
LINE
  5
47
330
1F
100
AcDbEntity
  8
0
  6
Continuous
 62
     7
 48
2.0
370
     0
100
AcDbLine
 10
0.6265032092
 20
21.4101463415
 30
0.0
 11
0.6265032092
 21
0.6581463415
 31
0.0
  0
LINE
  5
48
330
1F
100
AcDbEntity
  8
0
  6
Continuous
 62
     7
 48
2.0
370
     0
100
AcDbLine
 10
0.5025032092
 20
21.5341463415
 30
0.0
 11
33.5025032092
 21
21.5341463415
 31
0.0
  0
LINE
  5
49
330
1F
100
AcDbEntity
  8
0
  6
Continuous
 62
     7
 48
2.0
370
     0
100
AcDbLine
 10
33.5025032092
 20
0.5341463415
 30
0.0
 11
0.5025032092
 21
0.5341463415
 31
0.0
  0
LINE
  5
4A
330
1F
100
AcDbEntity
  8
0
  6
Continuous
 62
     7
 48
2.0
370
     0
100
AcDbLine
 10
0.5025032092
 20
21.5341463415
 30
0.0
 11
0.5025032092
 21
0.5341463415
 31
0.0
  0
LINE
  5
4B
330
1F
100
AcDbEntity
  8
0
  6
Continuous
 62
     7
 48
2.0
370
     0
100
AcDbLine
 10
33.5025032092
 20
0.5341463415
 30
0.0
 11
33.5025032092
 21
21.5341463415
 31
0.0
  0
LINE
  5
4C
330
1F
100
AcDbEntity
  8
0
  6
Continuous
 62
     7
 48
2.0
370
     0
100
AcDbLine
 10
0.6265032092
 20
20.5981463415
 30
0.0
 11
33.3785032092
 21
20.5981463415
 31
0.0
  0
LINE
  5
4D
330
1F
100
AcDbEntity
  8
0
  6
Continuous
 62
     7
 48
2.0
370
     0
100
AcDbLine
 10
2.1265032092
 20
21.4101463415
 30
0.0
 11
2.1265032092
 21
20.5981463415
 31
0.0
  0
LINE
  5
4E
330
1F
100
AcDbEntity
  8
0
  6
Continuous
 62
     7
 48
2.0
370
     0
100
AcDbLine
 10
14.8785032092
 20
20.5981463415
 30
0.0
 11
14.8785032092
 21
21.4101463415
 31
0.0
  0
LINE
  5
4F
330
1F
100
AcDbEntity
  8
0
  6
Continuous
 62
     7
 48
2.0
370
     0
100
AcDbLine
 10
15.0025032092
 20
20.5981463415
 30
0.0
 11
15.0025032092
 21
21.4101463415
 31
0.0
  0
LINE
  5
50
330
1F
100
AcDbEntity
  8
0
  6
Continuous
 62
     7
 48
2.0
370
     0
100
AcDbLine
 10
30.8785032092
 20
20.5981463415
 30
0.0
 11
30.8785032092
 21
21.4101463415
 31
0.0
  0
LINE
  5
51
330
1F
100
AcDbEntity
  8
0
  6
Continuous
 62
     7
 48
2.0
370
     0
100
AcDbLine
 10
16.5025032092
 20
20.5981463415
 30
0.0
 11
16.5025032092
 21
21.4101463415
 31
0.0
  0
LINE
  5
52
330
1F
100
AcDbEntity
  8
0
  6
Continuous
 62
     7
 48
2.0
370
     0
100
AcDbLine
 10
29.3785032092
 20
20.5981463415
 30
0.0
 11
29.3785032092
 21
21.4101463415
 31
0.0
  0
LINE
  5
53
330
1F
100
AcDbEntity
  8
0
  6
Continuous
 62
     7
 48
2.0
370
     0
100
AcDbLine
 10
29.2545032092
 20
20.5981463415
 30
0.0
 11
29.2545032092
 21
21.4101463415
 31
0.0
  0
INSERT
  5
7C
330
1F
100
AcDbEntity
  8
0
  6
Continuous
 62
     7
 48
2.0
370
     0
100
AcDbBlockReference
  2
SW_NOTE_0
 10
17.707482679
 20
17.5725531443
 30
0.0
  0
MTEXT
  5
7D
330
1F
100
AcDbEntity
  8
0
  6
Continuous
 62
     7
 48
2.0
370
     0
100
AcDbMText
 10
31.3179688312
 20
21.2186326882
 30
0.0
 40
0.375
 41
0.0
 71
     1
 72
     1
  1
7-18-11
  7
SLDTEXTSTYLE0
 73
     1
 44
1.0
  0
MTEXT
  5
7E
330
1F
100
AcDbEntity
  8
0
  6
Continuous
 62
     7
 48
2.0
370
     0
100
AcDbMText
 10
4.6065503528
 20
21.2147952644
 30
0.0
 40
0.375
 41
0.0
 71
     1
 72
     1
  1
JUNCTION BOX w/ KNOCKOUTS
  7
SLDTEXTSTYLE0
 73
     1
 44
1.0
  0
MTEXT
  5
7F
330
1F
100
AcDbEntity
  8
0
  6
Continuous
 62
     7
 48
2.0
370
     0
100
AcDbMText
 10
21.5800779761
 20
21.2229734833
 30
0.0
 40
0.375
 41
0.0
 71
     1
 72
     1
  1
JB-3950-KO
  7
SLDTEXTSTYLE0
 73
     1
 44
1.0
  0
INSERT
  5
85
330
1F
100
AcDbEntity
  8
0
  6
Continuous
 62
     7
 48
2.0
370
     0
100
AcDbBlockReference
  2
SW_NOTE_1
 10
0.9752783738
 20
21.009520053
 30
0.0
  0
INSERT
  5
8B
330
1F
100
AcDbEntity
  8
0
  6
Continuous
 62
     7
 48
2.0
370
     0
100
AcDbBlockReference
  2
SW_NOTE_2
 10
15.3702297796
 20
21.0003964794
 30
0.0
  0
INSERT
  5
91
330
1F
100
AcDbEntity
  8
0
  6
Continuous
 62
     7
 48
2.0
370
     0
100
AcDbBlockReference
  2
SW_NOTE_3
 10
29.4172772548
 20
21.0067670545
 30
0.0
  0
LWPOLYLINE
  5
92
330
1F
100
AcDbEntity
  8
0
  6
Continuous
 62
     7
 48
2.0
370
    15
100
AcDbPolyline
 90
        9
 70
   128
 43
0.0
 10
7.8441825211
 20
10.4956130824
 10
7.8332771004
 20
10.4848702547
 10
7.8225613175
 20
10.4743143642
 10
7.8120848919
 20
10.4639942605
 10
7.8018962229
 20
10.4539576968
 10
7.7920426834
 20
10.4442511248
 10
7.7825695929
 20
10.4349194651
 10
7.7735210974
 20
10.4260058922
 10
7.7649387032
 20
10.4175516649
  0
ARC
  5
93
330
1F
100
AcDbEntity
  8
0
  6
Continuous
 62
     7
 48
4.0
370
    15
100
AcDbCircle
 10
7.8851614449
 20
10.5142230856
 30
0.0
 40
0.154268796474629
100
AcDbArc
 50
218.802861523
 51
230.3357915391
  0
LWPOLYLINE
  5
94
330
1F
100
AcDbEntity
  8
0
  6
Continuous
 62
     7
 48
2.0
370
    15
100
AcDbPolyline
 90
        9
 70
   128
 43
0.0
 10
7.7866936652
 20
10.3954672109
 10
7.7952759127
 20
10.4039214382
 10
7.8043245549
 20
10.4128350019
 10
7.8137974988
 20
10.4221666708
 10
7.823651185
 20
10.4318732428
 10
7.8338397073
 20
10.4419098018
 10
7.8443161329
 20
10.4522299055
 10
7.8550319158
 20
10.4627858007
 10
7.8659374831
 20
10.4735286249
  0
LWPOLYLINE
  5
95
330
1F
100
AcDbEntity
  8
0
  6
Continuous
 62
     7
 48
2.0
370
    15
100
AcDbPolyline
 90
        9
 70
   128
 43
0.0
 10
7.9261402277
 20
10.5328330889
 10
7.937045795
 20
10.5435759166
 10
7.9477615779
 20
10.5541318071
 10
7.9582380035
 20
10.5644519108
 10
7.9684266725
 20
10.5744884744
 10
7.978280212
 20
10.5841950465
 10
7.9877533026
 20
10.5935267062
 10
7.996801798
 20
10.602440279
 10
8.0053841922
 20
10.6108945064
  0
ARC
  5
96
330
1F
100
AcDbEntity
  8
0
  6
Continuous
 62
     7
 48
4.0
370
    15
100
AcDbCircle
 10
7.8851614449
 20
10.5142230856
 30
0.0
 40
0.154268796474629
100
AcDbArc
 50
38.802861523
 51
50.3357915391
  0
LWPOLYLINE
  5
97
330
1F
100
AcDbEntity
  8
0
  6
Continuous
 62
     7
 48
2.0
370
    15
100
AcDbPolyline
 90
        9
 70
   128
 43
0.0
 10
7.9836292302
 20
10.6329789604
 10
7.9750469827
 20
10.6245247331
 10
7.9659983405
 20
10.6156111694
 10
7.9565253966
 20
10.6062795005
 10
7.9466717105
 20
10.5965729285
 10
7.9364831882
 20
10.5865363694
 10
7.9260067625
 20
10.5762162657
 10
7.9152909797
 20
10.5656603706
 10
7.9043854123
 20
10.5549175464
  0
LINE
  5
98
330
1F
100
AcDbEntity
  8
0
  6
Continuous
 62
     7
 48
2.0
370
    15
100
AcDbLine
 10
7.8659374831
 20
10.4735286249
 30
0.0
 11
7.9256911395
 21
10.473079468
 31
0.0
  0
LWPOLYLINE
  5
99
330
1F
100
AcDbEntity
  8
0
  6
Continuous
 62
     7
 48
2.0
370
    15
100
AcDbPolyline
 90
        9
 70
   128
 43
0.0
 10
7.8446317559
 20
10.5553667033
 10
7.8445761699
 20
10.5479679871
 10
7.8445202905
 20
10.5405328957
 10
7.8444641179
 20
10.5330695197
 10
7.8444079452
 20
10.5255859761
 10
7.8443514792
 20
10.5180904052
 10
7.8442951598
 20
10.5105909617
 10
7.8442388405
 20
10.5030958032
 10
7.8441825211
 20
10.4956130824
  0
LWPOLYLINE
  5
9A
330
1F
100
AcDbEntity
  8
0
  6
Continuous
 62
     7
 48
2.0
370
    15
100
AcDbPolyline
 90
        9
 70
   128
 43
0.0
 10
7.9256911395
 20
10.473079468
 10
7.9257467255
 20
10.4804781842
 10
7.9258026049
 20
10.4879132756
 10
7.9258587776
 20
10.4953766516
 10
7.9259149503
 20
10.5028601951
 10
7.9259712696
 20
10.5103557661
 10
7.9260277356
 20
10.5178552096
 10
7.926084055
 20
10.525350368
 10
7.9261402277
 20
10.5328330889
  0
LINE
  5
9B
330
1F
100
AcDbEntity
  8
0
  6
Continuous
 62
     7
 48
2.0
370
    15
100
AcDbLine
 10
7.9043854123
 20
10.5549175464
 30
0.0
 11
7.8446317559
 21
10.5553667033
 31
0.0
  0
LINE
  5
9C
330
1F
100
AcDbEntity
  8
0
  6
Continuous
 62
     7
 48
2.0
370
    15
100
AcDbLine
 10
7.8440178163
 20
10.4736933938
 30
0.0
 11
7.8659374831
 21
10.4735286249
 31
0.0
  0
LINE
  5
9D
330
1F
100
AcDbEntity
  8
0
  6
Continuous
 62
     7
 48
2.0
370
    15
100
AcDbLine
 10
7.8441825211
 20
10.4956130824
 30
0.0
 11
7.8440178163
 21
10.4736933938
 31
0.0
  0
LINE
  5
9E
330
1F
100
AcDbEntity
  8
0
  6
Continuous
 62
     7
 48
2.0
370
    15
100
AcDbLine
 10
7.9261402277
 20
10.5328330889
 30
0.0
 11
7.9263050791
 21
10.5547527774
 31
0.0
  0
LINE
  5
9F
330
1F
100
AcDbEntity
  8
0
  6
Continuous
 62
     7
 48
2.0
370
    15
100
AcDbLine
 10
7.9263050791
 20
10.5547527774
 30
0.0
 11
7.9043854123
 21
10.5549175464
 31
0.0
  0
CIRCLE
  5
A0
330
1F
100
AcDbEntity
  8
0
  6
Continuous
 62
     7
 48
4.0
370
    15
100
AcDbCircle
 10
7.8851614449
 20
10.5142230856
 30
0.0
 40
0.1864999999999998
  0
LWPOLYLINE
  5
A1
330
1F
100
AcDbEntity
  8
0
  6
Continuous
 62
     7
 48
2.0
370
    15
100
AcDbPolyline
 90
        9
 70
   128
 43
0.0
 10
11.3659374775
 20
10.5549175464
 10
11.3550319101
 20
10.5656603706
 10
11.3443161273
 20
10.5762162657
 10
11.3338397016
 20
10.5865363694
 10
11.3236511793
 20
10.5965729285
 10
11.3137974932
 20
10.6062795005
 10
11.3043245492
 20
10.6156111694
 10
11.2952759071
 20
10.6245247331
 10
11.2866936596
 20
10.6329789604
  0
ARC
  5
A2
330
1F
100
AcDbEntity
  8
0
  6
Continuous
 62
     7
 48
4.0
370
    15
100
AcDbCircle
 10
11.3851614449
 20
10.5142230856
 30
0.0
 40
0.1542687964746294
100
AcDbArc
 50
129.6642084609
 51
141.197138477
  0
LWPOLYLINE
  5
A3
330
1F
100
AcDbEntity
  8
0
  6
Continuous
 62
     7
 48
2.0
370
    15
100
AcDbPolyline
 90
        9
 70
   128
 43
0.0
 10
11.2649386976
 20
10.6108945064
 10
11.2735210918
 20
10.602440279
 10
11.2825695872
 20
10.5935267062
 10
11.2920426778
 20
10.5841950465
 10
11.3018962173
 20
10.5744884744
 10
11.3120848863
 20
10.5644519108
 10
11.3225613119
 20
10.5541318071
 10
11.3332770948
 20
10.5435759166
 10
11.3441826621
 20
10.5328330889
  0
LWPOLYLINE
  5
A4
330
1F
100
AcDbEntity
  8
0
  6
Continuous
 62
     7
 48
2.0
370
    15
100
AcDbPolyline
 90
        9
 70
   128
 43
0.0
 10
11.3441826621
 20
10.5328330889
 10
11.3442388348
 20
10.525350368
 10
11.3442951542
 20
10.5178552096
 10
11.3443516202
 20
10.5103557661
 10
11.3444079395
 20
10.5028601951
 10
11.3444641122
 20
10.4953766516
 10
11.3445202849
 20
10.4879132756
 10
11.3445761643
 20
10.4804781842
 10
11.3446317503
 20
10.473079468
  0
LINE
  5
A5
330
1F
100
AcDbEntity
  8
0
  6
Continuous
 62
     7
 48
2.0
370
    15
100
AcDbLine
 10
11.3446317503
 20
10.473079468
 30
0.0
 11
11.4043854067
 21
10.4735286249
 31
0.0
  0
LWPOLYLINE
  5
A6
330
1F
100
AcDbEntity
  8
0
  6
Continuous
 62
     7
 48
2.0
370
    15
100
AcDbPolyline
 90
        9
 70
   128
 43
0.0
 10
11.4043854067
 20
10.4735286249
 10
11.415290974
 20
10.4627858007
 10
11.4260067569
 20
10.4522299055
 10
11.4364831825
 20
10.4419098018
 10
11.4466717048
 20
10.4318732428
 10
11.456525391
 20
10.4221666708
 10
11.4659983349
 20
10.4128350019
 10
11.475046977
 20
10.4039214382
 10
11.4836292246
 20
10.3954672109
  0
ARC
  5
A7
330
1F
100
AcDbEntity
  8
0
  6
Continuous
 62
     7
 48
4.0
370
    15
100
AcDbCircle
 10
11.3851614449
 20
10.5142230856
 30
0.0
 40
0.1542687964746291
100
AcDbArc
 50
309.6642084609
 51
321.197138477
  0
LWPOLYLINE
  5
A8
330
1F
100
AcDbEntity
  8
0
  6
Continuous
 62
     7
 48
2.0
370
    15
100
AcDbPolyline
 90
        9
 70
   128
 43
0.0
 10
11.5053841866
 20
10.4175516649
 10
11.4968017924
 20
10.4260058922
 10
11.4877532969
 20
10.4349194651
 10
11.4782802064
 20
10.4442511248
 10
11.4684266669
 20
10.4539576968
 10
11.4582379979
 20
10.4639942605
 10
11.4477615723
 20
10.4743143642
 10
11.4370457894
 20
10.4848702547
 10
11.4261403687
 20
10.4956130824
  0
LWPOLYLINE
  5
A9
330
1F
100
AcDbEntity
  8
0
  6
Continuous
 62
     7
 48
2.0
370
    15
100
AcDbPolyline
 90
        9
 70
   128
 43
0.0
 10
11.4261403687
 20
10.4956130824
 10
11.4260840493
 20
10.5030958032
 10
11.42602773
 20
10.5105909617
 10
11.4259714106
 20
10.5180904052
 10
11.4259149446
 20
10.5255859761
 10
11.4258587719
 20
10.5330695197
 10
11.4258025993
 20
10.5405328957
 10
11.4257467199
 20
10.5479679871
 10
11.4256911339
 20
10.5553667033
  0
LINE
  5
AA
330
1F
100
AcDbEntity
  8
0
  6
Continuous
 62
     7
 48
2.0
370
    15
100
AcDbLine
 10
11.4256911339
 20
10.5553667033
 30
0.0
 11
11.3659374775
 21
10.5549175464
 31
0.0
  0
LINE
  5
AB
330
1F
100
AcDbEntity
  8
0
  6
Continuous
 62
     7
 48
2.0
370
    15
100
AcDbLine
 10
11.4043854067
 20
10.4735286249
 30
0.0
 11
11.4263050735
 21
10.4736933938
 31
0.0
  0
LINE
  5
AC
330
1F
100
AcDbEntity
  8
0
  6
Continuous
 62
     7
 48
2.0
370
    15
100
AcDbLine
 10
11.4263050735
 20
10.4736933938
 30
0.0
 11
11.4261403687
 21
10.4956130824
 31
0.0
  0
LINE
  5
AD
330
1F
100
AcDbEntity
  8
0
  6
Continuous
 62
     7
 48
2.0
370
    15
100
AcDbLine
 10
11.3440178107
 20
10.5547527774
 30
0.0
 11
11.3441826621
 21
10.5328330889
 31
0.0
  0
LINE
  5
AE
330
1F
100
AcDbEntity
  8
0
  6
Continuous
 62
     7
 48
2.0
370
    15
100
AcDbLine
 10
11.3659374775
 20
10.5549175464
 30
0.0
 11
11.3440178107
 21
10.5547527774
 31
0.0
  0
CIRCLE
  5
AF
330
1F
100
AcDbEntity
  8
0
  6
Continuous
 62
     7
 48
4.0
370
    15
100
AcDbCircle
 10
11.3851614449
 20
10.5142230856
 30
0.0
 40
0.1864999999999991
  0
ARC
  5
B0
330
1F
100
AcDbEntity
  8
0
  6
Continuous
 62
     7
 48
4.0
370
    15
100
AcDbCircle
 10
11.3851614449
 20
10.2422230856
 30
0.0
 40
0.2030000000000016
100
AcDbArc
 50
133.2687098488
 51
46.7312901512
  0
LINE
  5
B1
330
1F
100
AcDbEntity
  8
0
  6
Continuous
 62
     7
 48
2.0
370
    15
100
AcDbLine
 10
11.6351614207
 20
12.5142230615
 30
0.0
 11
7.6351614691
 21
12.5142230615
 31
0.0
  0
LINE
  5
B2
330
1F
100
AcDbEntity
  8
0
  6
Continuous
 62
     7
 48
2.0
370
    15
100
AcDbLine
 10
11.6351614207
 20
8.5142231098
 30
0.0
 11
11.6351614207
 21
12.5142230615
 31
0.0
  0
LINE
  5
B3
330
1F
100
AcDbEntity
  8
0
  6
Continuous
 62
     7
 48
2.0
370
    15
100
AcDbLine
 10
7.6351614691
 20
8.5142231098
 30
0.0
 11
11.6351614207
 21
8.5142231098
 31
0.0
  0
LINE
  5
B4
330
1F
100
AcDbEntity
  8
0
  6
Continuous
 62
     7
 48
2.0
370
    15
100
AcDbLine
 10
7.6351614691
 20
12.5142230615
 30
0.0
 11
7.6351614691
 21
8.5142231098
 31
0.0
  0
ARC
  5
B5
330
1F
100
AcDbEntity
  8
0
  6
Continuous
 62
     7
 48
4.0
370
    15
100
AcDbCircle
 10
7.8851614449
 20
10.2422230856
 30
0.0
 40
0.2030000000000014
100
AcDbArc
 50
133.2687098488
 51
46.7312901512
  0
DIMENSION
  5
B6
330
1F
100
AcDbEntity
  8
0
  6
Continuous
 62
     7
 48
2.0
370
     0
100
AcDbDimension
  2
*D5
 10
11.6351614449
 20
13.2153064269
 30
0.0
 11
9.6351614449
 21
13.2153064269
 31
0.0
 70
   160
 71
     2
 42
-1.0
  3
SLDDIMSTYLE0
100
AcDbAlignedDimension
 13
7.6351614449
 23
12.5142230856
 33
0.0
 14
11.6351614449
 24
12.5142230856
 34
0.0
100
AcDbRotatedDimension
  0
DIMENSION
  5
C9
330
1F
100
AcDbEntity
  8
0
  6
Continuous
 62
     7
 48
2.0
370
     0
100
AcDbDimension
  2
*D6
 10
12.4363063981
 20
8.5142230856
 30
0.0
 11
12.4363063981
 21
10.5142230856
 31
0.0
 70
   160
 71
     2
 42
-1.0
  3
SLDDIMSTYLE0
100
AcDbAlignedDimension
 13
11.6351614449
 23
12.5142230856
 33
0.0
 14
11.6351614449
 24
8.5142230856
 34
0.0
 50
90.0
100
AcDbRotatedDimension
  0
INSERT
  5
E3
102
{ACAD_REACTORS
330
E5
102
}
330
1F
100
AcDbEntity
  8
0
  6
Continuous
 62
     7
 48
2.0
370
     0
100
AcDbBlockReference
  2
SW_NOTE_4
 10
12.9461329236
 20
7.092913164
 30
0.0
  0
LEADER
  5
E5
330
1F
100
AcDbEntity
  8
0
  6
Continuous
 62
     7
 48
2.0
370
     0
100
AcDbLeader
  3
SLDDIMSTYLE1
 73
     2
 76
     3
 10
11.440131635
 20
10.3360082484
 30
0.0
 10
12.4461329236
 20
7.092913164
 30
0.0
 10
12.9461329236
 20
7.092913164
 30
0.0
340
E3
  0
LINE
  5
E6
330
1F
100
AcDbEntity
  8
0
  6
Continuous
 62
     7
 48
2.0
370
    15
100
AcDbLine
 10
8.0716615066
 20
14.7349975441
 30
0.0
 11
8.0716615066
 21
14.768328919
 31
0.0
  0
LINE
  5
E7
330
1F
100
AcDbEntity
  8
0
  6
Continuous
 62
     7
 48
2.0
370
    15
100
AcDbLine
 10
7.6986613888
 20
14.768328919
 30
0.0
 11
7.6986613888
 21
14.7349975441
 31
0.0
  0
ARC
  5
E8
330
1F
100
AcDbEntity
  8
0
  6
Continuous
 62
     7
 48
4.0
370
    15
100
AcDbCircle
 10
8.0566614449
 20
14.7349976213
 30
0.0
 40
0.0150000000000006
100
AcDbArc
 50
322.550643686
 51
0.0
  0
ARC
  5
E9
330
1F
100
AcDbEntity
  8
0
  6
Continuous
 62
     7
 48
4.0
370
    15
100
AcDbCircle
 10
7.7136614449
 20
14.7349976213
 30
0.0
 40
0.0150000000000002
100
AcDbArc
 50
180.0
 51
217.449356314
  0
ARC
  5
EA
330
1F
100
AcDbEntity
  8
0
  6
Continuous
 62
     7
 48
4.0
370
    15
100
AcDbCircle
 10
7.8851614449
 20
14.8663535202
 30
0.0
 40
0.2310245869783038
100
AcDbArc
 50
280.1818657166
 51
322.550643686
  0
ARC
  5
EB
330
1F
100
AcDbEntity
  8
0
  6
Continuous
 62
     7
 48
4.0
370
    15
100
AcDbCircle
 10
7.8851614449
 20
14.8663535202
 30
0.0
 40
0.2310245869783038
100
AcDbArc
 50
217.449356314
 51
259.8181342834
  0
LINE
  5
EC
330
1F
100
AcDbEntity
  8
0
  6
Continuous
 62
     7
 48
2.0
370
    15
100
AcDbLine
 10
7.9541614506
 20
14.8923288733
 30
0.0
 11
7.9541614506
 21
14.9693288637
 31
0.0
  0
LINE
  5
ED
330
1F
100
AcDbEntity
  8
0
  6
Continuous
 62
     7
 48
2.0
370
    15
100
AcDbLine
 10
7.8161614448
 20
14.9693288637
 30
0.0
 11
7.8161614448
 21
14.8923288733
 31
0.0
  0
LINE
  5
EE
330
1F
100
AcDbEntity
  8
0
  6
Continuous
 62
     7
 48
2.0
370
    15
100
AcDbLine
 10
11.571661501
 20
14.7349975441
 30
0.0
 11
11.571661501
 21
14.768328919
 31
0.0
  0
LINE
  5
EF
330
1F
100
AcDbEntity
  8
0
  6
Continuous
 62
     7
 48
2.0
370
    15
100
AcDbLine
 10
11.1986613832
 20
14.768328919
 30
0.0
 11
11.1986613832
 21
14.7349975441
 31
0.0
  0
ARC
  5
F0
330
1F
100
AcDbEntity
  8
0
  6
Continuous
 62
     7
 48
4.0
370
    15
100
AcDbCircle
 10
11.5566614449
 20
14.7349976213
 30
0.0
 40
0.0150000000000016
100
AcDbArc
 50
322.550643686
 51
0.0
  0
ARC
  5
F1
330
1F
100
AcDbEntity
  8
0
  6
Continuous
 62
     7
 48
4.0
370
    15
100
AcDbCircle
 10
11.2136614449
 20
14.7349976213
 30
0.0
 40
0.0150000000000016
100
AcDbArc
 50
180.0
 51
217.449356314
  0
ARC
  5
F2
330
1F
100
AcDbEntity
  8
0
  6
Continuous
 62
     7
 48
4.0
370
    15
100
AcDbCircle
 10
11.3851614449
 20
14.8663535202
 30
0.0
 40
0.2310245869783038
100
AcDbArc
 50
280.1818657166
 51
322.550643686
  0
ARC
  5
F3
330
1F
100
AcDbEntity
  8
0
  6
Continuous
 62
     7
 48
4.0
370
    15
100
AcDbCircle
 10
11.3851614449
 20
14.8663535202
 30
0.0
 40
0.2310245869783052
100
AcDbArc
 50
217.449356314
 51
259.8181342834
  0
LINE
  5
F4
330
1F
100
AcDbEntity
  8
0
  6
Continuous
 62
     7
 48
2.0
370
    15
100
AcDbLine
 10
11.454161445
 20
14.8923288733
 30
0.0
 11
11.454161445
 21
14.9693288637
 31
0.0
  0
LINE
  5
F5
330
1F
100
AcDbEntity
  8
0
  6
Continuous
 62
     7
 48
2.0
370
    15
100
AcDbLine
 10
11.3161614392
 20
14.9693288637
 30
0.0
 11
11.3161614392
 21
14.8923288733
 31
0.0
  0
LINE
  5
F6
330
1F
100
AcDbEntity
  8
0
  6
Continuous
 62
     7
 48
2.0
370
    15
100
AcDbLine
 10
11.1041614749
 20
14.9693288637
 30
0.0
 11
11.4961614531
 21
14.9693288637
 31
0.0
  0
LINE
  5
F7
330
1F
100
AcDbEntity
  8
0
  6
Continuous
 62
     7
 48
2.0
370
    15
100
AcDbLine
 10
11.1041614749
 20
14.9073288866
 30
0.0
 11
11.1041614749
 21
14.9693288637
 31
0.0
  0
LINE
  5
F8
330
1F
100
AcDbEntity
  8
0
  6
Continuous
 62
     7
 48
2.0
370
    15
100
AcDbLine
 10
8.1661614149
 20
14.9073288866
 30
0.0
 11
8.1661614149
 21
14.9693288637
 31
0.0
  0
LINE
  5
F9
330
1F
100
AcDbEntity
  8
0
  6
Continuous
 62
     7
 48
2.0
370
    15
100
AcDbLine
 10
8.1661614149
 20
14.9693288637
 30
0.0
 11
7.7741614367
 21
14.9693288637
 31
0.0
  0
ARC
  5
FA
330
1F
100
AcDbEntity
  8
0
  6
Continuous
 62
     7
 48
4.0
370
    15
100
AcDbCircle
 10
8.8251614449
 20
16.5803289332
 30
0.0
 40
0.5544999999999992
100
AcDbArc
 50
276.4614689651
 51
83.5385310349
  0
ARC
  5
FB
330
1F
100
AcDbEntity
  8
0
  6
Continuous
 62
     7
 48
4.0
370
    15
100
AcDbCircle
 10
8.8251614449
 20
17.1348289332
 30
0.0
 40
0.0625000000000019
100
AcDbArc
 50
183.2307344826
 51
356.7692655174
  0
ARC
  5
FC
330
1F
100
AcDbEntity
  8
0
  6
Continuous
 62
     7
 48
4.0
370
    15
100
AcDbCircle
 10
8.8251614449
 20
16.5803289332
 30
0.0
 40
0.5544999999999991
100
AcDbArc
 50
96.4614689651
 51
263.5385310349
  0
ARC
  5
FD
330
1F
100
AcDbEntity
  8
0
  6
Continuous
 62
     7
 48
4.0
370
    15
100
AcDbCircle
 10
8.8251614449
 20
16.0258289332
 30
0.0
 40
0.0625000000000019
100
AcDbArc
 50
3.2307344826
 51
176.7692655174
  0
ARC
  5
FE
330
1F
100
AcDbEntity
  8
0
  6
Continuous
 62
     7
 48
4.0
370
    15
100
AcDbCircle
 10
10.4451614449
 20
16.4553289332
 30
0.0
 40
0.6874999999999991
100
AcDbArc
 50
275.2105025301
 51
84.7894974699
  0
ARC
  5
FF
330
1F
100
AcDbEntity
  8
0
  6
Continuous
 62
     7
 48
4.0
370
    15
100
AcDbCircle
 10
10.4451614449
 20
17.1428289332
 30
0.0
 40
0.0625000000000009
100
AcDbArc
 50
182.6052512651
 51
357.3947487349
  0
ARC
  5
100
330
1F
100
AcDbEntity
  8
0
  6
Continuous
 62
     7
 48
4.0
370
    15
100
AcDbCircle
 10
10.4451614449
 20
16.4553289332
 30
0.0
 40
0.687499999999999
100
AcDbArc
 50
95.2105025301
 51
264.7894974699
  0
ARC
  5
101
330
1F
100
AcDbEntity
  8
0
  6
Continuous
 62
     7
 48
4.0
370
    15
100
AcDbCircle
 10
10.4451614449
 20
15.7678289332
 30
0.0
 40
0.0625000000000009
100
AcDbArc
 50
2.6052512651
 51
177.3947487349
  0
LINE
  5
102
330
1F
100
AcDbEntity
  8
0
  6
Continuous
 62
     7
 48
2.0
370
    15
100
AcDbLine
 10
11.4961614531
 20
17.691328929
 30
0.0
 11
11.5731614436
 21
17.691328929
 31
0.0
  0
LINE
  5
103
330
1F
100
AcDbEntity
  8
0
  6
Continuous
 62
     7
 48
2.0
370
    15
100
AcDbLine
 10
11.5731614436
 20
14.9693288637
 30
0.0
 11
11.4961614531
 21
14.9693288637
 31
0.0
  0
LINE
  5
104
330
1F
100
AcDbEntity
  8
0
  6
Continuous
 62
     7
 48
2.0
370
    15
100
AcDbLine
 10
11.4961614531
 20
17.7683289332
 30
0.0
 11
11.4961614531
 21
17.691328929
 31
0.0
  0
LINE
  5
105
330
1F
100
AcDbEntity
  8
0
  6
Continuous
 62
     7
 48
2.0
370
    15
100
AcDbLine
 10
7.7741614367
 20
17.7683289332
 30
0.0
 11
7.7741614367
 21
17.691328929
 31
0.0
  0
LINE
  5
106
330
1F
100
AcDbEntity
  8
0
  6
Continuous
 62
     7
 48
2.0
370
    15
100
AcDbLine
 10
7.6971614462
 20
14.9693288637
 30
0.0
 11
7.7741614367
 21
14.9693288637
 31
0.0
  0
LINE
  5
107
330
1F
100
AcDbEntity
  8
0
  6
Continuous
 62
     7
 48
2.0
370
    15
100
AcDbLine
 10
7.7741614367
 20
17.691328929
 30
0.0
 11
7.6971614462
 21
17.691328929
 31
0.0
  0
ARC
  5
108
330
1F
100
AcDbEntity
  8
0
  6
Continuous
 62
     7
 48
4.0
370
    15
100
AcDbCircle
 10
8.8251614449
 20
16.5803289332
 30
0.0
 40
0.4374999999999992
100
AcDbArc
 50
188.1920875163
 51
171.8079124837
  0
ARC
  5
109
330
1F
100
AcDbEntity
  8
0
  6
Continuous
 62
     7
 48
4.0
370
    15
100
AcDbCircle
 10
8.3876614449
 20
16.5803289332
 30
0.0
 40
0.0624999999999998
100
AcDbArc
 50
274.0960437582
 51
85.9039562418
  0
ARC
  5
10A
330
1F
100
AcDbEntity
  8
0
  6
Continuous
 62
     7
 48
4.0
370
    15
100
AcDbCircle
 10
9.8906614449
 20
16.4553289332
 30
0.0
 40
0.0625000000000018
100
AcDbArc
 50
273.2307344826
 51
86.7692655174
  0
ARC
  5
10B
330
1F
100
AcDbEntity
  8
0
  6
Continuous
 62
     7
 48
4.0
370
    15
100
AcDbCircle
 10
10.4451614449
 20
16.4553289332
 30
0.0
 40
0.5544999999999992
100
AcDbArc
 50
186.4614689651
 51
173.5385310349
  0
LINE
  5
10C
330
1F
100
AcDbEntity
  8
0
  6
Continuous
 62
     7
 48
2.0
370
    15
100
AcDbLine
 10
11.1041614749
 20
14.9073288866
 30
0.0
 11
11.1041614749
 21
14.8303288962
 31
0.0
  0
LINE
  5
10D
330
1F
100
AcDbEntity
  8
0
  6
Continuous
 62
     7
 48
2.0
370
    15
100
AcDbLine
 10
8.1661614149
 20
14.9073288866
 30
0.0
 11
8.1661614149
 21
14.8303288962
 31
0.0
  0
ARC
  5
10E
330
1F
100
AcDbEntity
  8
0
  6
Continuous
 62
     7
 48
4.0
370
    15
100
AcDbCircle
 10
7.8848581883
 20
14.8663957794
 30
0.0
 40
0.2274288258656178
100
AcDbArc
 50
265.2278213547
 51
270.0820529012
  0
ARC
  5
10F
330
1F
100
AcDbEntity
  8
0
  6
Continuous
 62
     7
 48
4.0
370
    15
100
AcDbCircle
 10
7.8848675527
 20
14.866239092
 30
0.0
 40
0.2272713027571557
100
AcDbArc
 50
275.0013641167
 51
280.3479125236
  0
LWPOLYLINE
  5
110
330
1F
100
AcDbEntity
  8
0
  6
Continuous
 62
     7
 48
2.0
370
    15
100
AcDbPolyline
 90
        9
 70
   128
 43
0.0
 10
7.9256911395
 20
14.6426643174
 10
7.9257467255
 20
14.6414390782
 10
7.9258026049
 20
14.6404587695
 10
7.9258587776
 20
14.639723978
 10
7.9259149503
 20
14.639235877
 10
7.9259712696
 20
14.6389947598
 10
7.9260277356
 20
14.6390012131
 10
7.926084055
 20
14.6392546501
 10
7.9261402277
 20
14.6397553643
  0
ARC
  5
111
330
1F
100
AcDbEntity
  8
0
  6
Continuous
 62
     7
 48
4.0
370
    15
100
AcDbCircle
 10
7.8835494045
 20
14.786327142
 30
0.0
 40
0.1526344136162043
100
AcDbArc
 50
286.2028063915
 51
322.9598026953
  0
LINE
  5
112
330
1F
100
AcDbEntity
  8
0
  6
Continuous
 62
     7
 48
2.0
370
    15
100
AcDbLine
 10
7.9836292302
 20
14.6943839599
 30
0.0
 11
8.0053841922
 21
14.6943839599
 31
0.0
  0
ARC
  5
113
330
1F
100
AcDbEntity
  8
0
  6
Continuous
 62
     7
 48
4.0
370
    15
100
AcDbCircle
 10
7.8617943974
 20
14.7863270931
 30
0.0
 40
0.1526344202281821
100
AcDbArc
 50
286.202880652
 51
322.9598275424
  0
ARC
  5
114
330
1F
100
AcDbEntity
  8
0
  6
Continuous
 62
     7
 48
4.0
370
    15
100
AcDbCircle
 10
7.8854680539
 20
14.866331518
 30
0.0
 40
0.2273645087812263
100
AcDbArc
 50
259.6531200751
 51
274.7726854221
  0
ARC
  5
115
330
1F
100
AcDbEntity
  8
0
  6
Continuous
 62
     7
 48
4.0
370
    15
100
AcDbCircle
 10
7.8282044454
 20
14.6421771859
 30
0.0
 40
0.0164345315573276
100
AcDbArc
 50
348.7365594538
 51
1.6985374425
  0
LINE
  5
116
330
1F
100
AcDbEntity
  8
0
  6
Continuous
 62
     7
 48
2.0
370
    15
100
AcDbLine
 10
7.9261402277
 20
14.6476444732
 30
0.0
 11
7.9261402277
 21
14.6397553643
 31
0.0
  0
LINE
  5
117
330
1F
100
AcDbEntity
  8
0
  6
Continuous
 62
     7
 48
2.0
370
    15
100
AcDbLine
 10
7.9256911395
 20
14.6474356223
 30
0.0
 11
7.9256911395
 21
14.6426643174
 31
0.0
  0
LINE
  5
118
330
1F
100
AcDbEntity
  8
0
  6
Continuous
 62
     7
 48
2.0
370
    15
100
AcDbLine
 10
7.8659374831
 20
14.6397553643
 30
0.0
 11
7.8659374831
 21
14.6398072837
 31
0.0
  0
ARC
  5
119
330
1F
100
AcDbEntity
  8
0
  6
Continuous
 62
     7
 48
4.0
370
    15
100
AcDbCircle
 10
11.4085284924
 20
14.7863270931
 30
0.0
 40
0.1526344202281821
100
AcDbArc
 50
217.0401724576
 51
253.797119348
  0
LINE
  5
11A
330
1F
100
AcDbEntity
  8
0
  6
Continuous
 62
     7
 48
2.0
370
    15
100
AcDbLine
 10
11.2649386976
 20
14.6943839599
 30
0.0
 11
11.2866936596
 21
14.6943839599
 31
0.0
  0
ARC
  5
11B
330
1F
100
AcDbEntity
  8
0
  6
Continuous
 62
     7
 48
4.0
370
    15
100
AcDbCircle
 10
11.3867734853
 20
14.786327142
 30
0.0
 40
0.1526344136162051
100
AcDbArc
 50
217.0401973047
 51
253.7971936085
  0
LWPOLYLINE
  5
11C
330
1F
100
AcDbEntity
  8
0
  6
Continuous
 62
     7
 48
2.0
370
    15
100
AcDbPolyline
 90
        9
 70
   128
 43
0.0
 10
11.3441826621
 20
14.6397553643
 10
11.3442388348
 20
14.6392546501
 10
11.3442951542
 20
14.6390012131
 10
11.3443516202
 20
14.6389947598
 10
11.3444079395
 20
14.639235877
 10
11.3444641122
 20
14.639723978
 10
11.3445202849
 20
14.6404587695
 10
11.3445761643
 20
14.6414390782
 10
11.3446317503
 20
14.6426643174
  0
ARC
  5
11D
330
1F
100
AcDbEntity
  8
0
  6
Continuous
 62
     7
 48
4.0
370
    15
100
AcDbCircle
 10
11.3854553371
 20
14.866239092
 30
0.0
 40
0.2272713027571555
100
AcDbArc
 50
259.6520874764
 51
264.9986358833
  0
ARC
  5
11E
330
1F
100
AcDbEntity
  8
0
  6
Continuous
 62
     7
 48
4.0
370
    15
100
AcDbCircle
 10
11.3854688239
 20
14.8663206058
 30
0.0
 40
0.2273535699235928
100
AcDbArc
 50
269.9339941416
 51
274.7727194325
  0
ARC
  5
11F
330
1F
100
AcDbEntity
  8
0
  6
Continuous
 62
     7
 48
4.0
370
    15
100
AcDbCircle
 10
11.4421184444
 20
14.6421771859
 30
0.0
 40
0.016434531557245
100
AcDbArc
 50
178.3014625574
 51
191.2634405463
  0
ARC
  5
120
330
1F
100
AcDbEntity
  8
0
  6
Continuous
 62
     7
 48
4.0
370
    15
100
AcDbCircle
 10
11.3848548359
 20
14.866331518
 30
0.0
 40
0.2273645087812297
100
AcDbArc
 50
265.2273145779
 51
280.3468799249
  0
LINE
  5
121
330
1F
100
AcDbEntity
  8
0
  6
Continuous
 62
     7
 48
2.0
370
    15
100
AcDbLine
 10
11.3441826621
 20
14.6397553643
 30
0.0
 11
11.3441826621
 21
14.6476444732
 31
0.0
  0
LINE
  5
122
330
1F
100
AcDbEntity
  8
0
  6
Continuous
 62
     7
 48
2.0
370
    15
100
AcDbLine
 10
11.3446317503
 20
14.6474356223
 30
0.0
 11
11.3446317503
 21
14.6426643174
 31
0.0
  0
LINE
  5
123
330
1F
100
AcDbEntity
  8
0
  6
Continuous
 62
     7
 48
2.0
370
    15
100
AcDbLine
 10
11.4043854067
 20
14.6398072837
 30
0.0
 11
11.4043854067
 21
14.6397553643
 31
0.0
  0
LINE
  5
124
330
1F
100
AcDbEntity
  8
0
  6
Continuous
 62
     7
 48
2.0
370
    15
100
AcDbLine
 10
11.6351614207
 20
14.8303288962
 30
0.0
 11
7.6351614691
 21
14.8303288962
 31
0.0
  0
LINE
  5
125
330
1F
100
AcDbEntity
  8
0
  6
Continuous
 62
     7
 48
2.0
370
    15
100
AcDbLine
 10
11.6351614207
 20
14.8303288962
 30
0.0
 11
11.6351614207
 21
14.768328919
 31
0.0
  0
LINE
  5
126
330
1F
100
AcDbEntity
  8
0
  6
Continuous
 62
     7
 48
2.0
370
    15
100
AcDbLine
 10
11.6351614207
 20
14.768328919
 30
0.0
 11
7.6351614691
 21
14.768328919
 31
0.0
  0
LINE
  5
127
330
1F
100
AcDbEntity
  8
0
  6
Continuous
 62
     7
 48
2.0
370
    15
100
AcDbLine
 10
7.6351614691
 20
14.8303288962
 30
0.0
 11
7.6351614691
 21
14.768328919
 31
0.0
  0
ARC
  5
128
330
1F
100
AcDbEntity
  8
0
  6
Continuous
 62
     7
 48
4.0
370
    15
100
AcDbCircle
 10
11.5581614449
 20
17.7533289332
 30
0.0
 40
0.0150000000000006
100
AcDbArc
 50
0.0
 51
90.0
  0
ARC
  5
129
330
1F
100
AcDbEntity
  8
0
  6
Continuous
 62
     7
 48
4.0
370
    15
100
AcDbCircle
 10
11.5581614449
 20
17.7533289332
 30
0.0
 40
0.0770000000000017
100
AcDbArc
 50
0.0
 51
90.0
  0
ARC
  5
12A
330
1F
100
AcDbEntity
  8
0
  6
Continuous
 62
     7
 48
4.0
370
    15
100
AcDbCircle
 10
7.7121614449
 20
17.7533289332
 30
0.0
 40
0.0150000000000006
100
AcDbArc
 50
90.0
 51
180.0
  0
ARC
  5
12B
330
1F
100
AcDbEntity
  8
0
  6
Continuous
 62
     7
 48
4.0
370
    15
100
AcDbCircle
 10
7.7121614449
 20
17.7533289332
 30
0.0
 40
0.0770000000000017
100
AcDbArc
 50
90.0
 51
180.0
  0
LINE
  5
12C
330
1F
100
AcDbEntity
  8
0
  6
Continuous
 62
     7
 48
2.0
370
    15
100
AcDbLine
 10
11.5581614302
 20
17.7683289332
 30
0.0
 11
7.7121614596
 21
17.7683289332
 31
0.0
  0
LINE
  5
12D
330
1F
100
AcDbEntity
  8
0
  6
Continuous
 62
     7
 48
2.0
370
    15
100
AcDbLine
 10
11.5581614302
 20
17.8303289332
 30
0.0
 11
7.7121614596
 21
17.8303289332
 31
0.0
  0
LINE
  5
12E
330
1F
100
AcDbEntity
  8
0
  6
Continuous
 62
     7
 48
2.0
370
    15
100
AcDbLine
 10
7.6351614691
 20
17.7533289336
 30
0.0
 11
7.6351614691
 21
14.9073288866
 31
0.0
  0
LINE
  5
12F
330
1F
100
AcDbEntity
  8
0
  6
Continuous
 62
     7
 48
2.0
370
    15
100
AcDbLine
 10
7.6971614462
 20
17.7533289336
 30
0.0
 11
7.6971614462
 21
14.9073288866
 31
0.0
  0
LINE
  5
130
330
1F
100
AcDbEntity
  8
0
  6
Continuous
 62
     7
 48
2.0
370
    15
100
AcDbLine
 10
11.6351614207
 20
14.9073288866
 30
0.0
 11
11.6351614207
 21
17.7533289336
 31
0.0
  0
LINE
  5
131
330
1F
100
AcDbEntity
  8
0
  6
Continuous
 62
     7
 48
2.0
370
    15
100
AcDbLine
 10
11.5731614436
 20
14.9073288866
 30
0.0
 11
11.5731614436
 21
17.7533289336
 31
0.0
  0
ARC
  5
132
330
1F
100
AcDbEntity
  8
0
  6
Continuous
 62
     7
 48
4.0
370
    15
100
AcDbCircle
 10
11.5581614449
 20
14.9073289332
 30
0.0
 40
0.0150000000000006
100
AcDbArc
 50
270.0
 51
0.0
  0
ARC
  5
133
330
1F
100
AcDbEntity
  8
0
  6
Continuous
 62
     7
 48
4.0
370
    15
100
AcDbCircle
 10
11.5581614449
 20
14.9073289332
 30
0.0
 40
0.077
100
AcDbArc
 50
270.0
 51
0.0
  0
ARC
  5
134
330
1F
100
AcDbEntity
  8
0
  6
Continuous
 62
     7
 48
4.0
370
    15
100
AcDbCircle
 10
7.7121614449
 20
14.9073289332
 30
0.0
 40
0.0150000000000006
100
AcDbArc
 50
180.0
 51
270.0
  0
ARC
  5
135
330
1F
100
AcDbEntity
  8
0
  6
Continuous
 62
     7
 48
4.0
370
    15
100
AcDbCircle
 10
7.7121614449
 20
14.9073289332
 30
0.0
 40
0.0770000000000008
100
AcDbArc
 50
180.0
 51
270.0
  0
LINE
  5
136
330
1F
100
AcDbEntity
  8
0
  6
Continuous
 62
     7
 48
2.0
370
    15
100
AcDbLine
 10
11.1351614634
 20
14.8303288962
 30
0.0
 11
11.1351614634
 21
14.8923288733
 31
0.0
  0
LINE
  5
137
330
1F
100
AcDbEntity
  8
0
  6
Continuous
 62
     7
 48
2.0
370
    15
100
AcDbLine
 10
11.1351614634
 20
14.8923288733
 30
0.0
 11
11.5581614302
 21
14.8923288733
 31
0.0
  0
LINE
  5
138
330
1F
100
AcDbEntity
  8
0
  6
Continuous
 62
     7
 48
2.0
370
    15
100
AcDbLine
 10
11.1351614634
 20
14.8303288962
 30
0.0
 11
11.5581614302
 21
14.8303288962
 31
0.0
  0
LINE
  5
139
330
1F
100
AcDbEntity
  8
0
  6
Continuous
 62
     7
 48
2.0
370
    15
100
AcDbLine
 10
7.7121614596
 20
14.8303288962
 30
0.0
 11
8.1351614264
 21
14.8303288962
 31
0.0
  0
LINE
  5
13A
330
1F
100
AcDbEntity
  8
0
  6
Continuous
 62
     7
 48
2.0
370
    15
100
AcDbLine
 10
8.1351614264
 20
14.8923288733
 30
0.0
 11
8.1351614264
 21
14.8303288962
 31
0.0
  0
LINE
  5
13B
330
1F
100
AcDbEntity
  8
0
  6
Continuous
 62
     7
 48
2.0
370
    15
100
AcDbLine
 10
7.7121614596
 20
14.8923288733
 30
0.0
 11
8.1351614264
 21
14.8923288733
 31
0.0
  0
DIMENSION
  5
13C
330
1F
100
AcDbEntity
  8
0
  6
Continuous
 62
     7
 48
2.0
370
     0
100
AcDbDimension
  2
*D8
 10
10.4451614449
 20
18.4159558064
 30
0.0
 11
9.6351614449
 21
18.4159558064
 31
0.0
 70
   160
 71
     2
 42
-1.0
  3
SLDDIMSTYLE2
100
AcDbAlignedDimension
 13
8.8251614449
 23
16.5803289332
 33
0.0
 14
10.4451614449
 24
16.4553289332
 34
0.0
100
AcDbRotatedDimension
  0
DIMENSION
  5
14F
330
1F
100
AcDbEntity
  8
0
  6
Continuous
 62
     7
 48
2.0
370
     0
100
AcDbDimension
  2
*D9
 10
12.3585815218
 20
17.8303289332
 30
0.0
 11
12.3585815218
 21
17.1428289332
 31
0.0
 70
   160
 71
     2
 42
-1.0
  3
SLDDIMSTYLE2
100
AcDbAlignedDimension
 13
10.4451614449
 23
16.4553289332
 33
0.0
 14
11.5581614449
 24
17.8303289332
 34
0.0
 50
90.0
100
AcDbRotatedDimension
  0
DIMENSION
  5
161
330
1F
100
AcDbEntity
  8
0
  6
Continuous
 62
     7
 48
2.0
370
     0
100
AcDbDimension
  2
*D10
 10
13.3811882879
 20
14.8303289332
 30
0.0
 11
13.3811882879
 21
16.3303289332
 31
0.0
 70
   160
 71
     2
 42
-1.0
  3
SLDDIMSTYLE0
100
AcDbAlignedDimension
 13
11.5581614449
 23
17.8303289332
 33
0.0
 14
11.6351614449
 24
14.8303289332
 34
0.0
 50
90.0
100
AcDbRotatedDimension
  0
DIMENSION
  5
173
330
1F
100
AcDbEntity
  8
0
  6
Continuous
 62
     7
 48
2.0
370
     0
100
AcDbDimension
  2
*D11
 10
6.8768249066
 20
17.8303289332
 30
0.0
 11
6.8768249066
 21
17.2053289332
 31
0.0
 70
   160
 71
     2
 42
-1.0
  3
SLDDIMSTYLE2
100
AcDbAlignedDimension
 13
8.8251614449
 23
16.5803289332
 33
0.0
 14
7.7121614449
 24
17.8303289332
 34
0.0
 50
90.0
100
AcDbRotatedDimension
  0
INSERT
  5
18B
102
{ACAD_REACTORS
330
18C
102
}
330
1F
100
AcDbEntity
  8
0
  6
Continuous
 62
     7
 48
2.0
370
     0
100
AcDbBlockReference
  2
SW_NOTE_5
 10
12.4815971268
 20
19.2383884527
 30
0.0
  0
LEADER
  5
18C
330
1F
100
AcDbEntity
  8
0
  6
Continuous
 62
     7
 48
2.0
370
     0
100
AcDbLeader
  3
SLDDIMSTYLE1
 73
     2
 76
     3
 10
10.7967295106
 20
17.0461386701
 30
0.0
 10
11.9815971268
 20
19.2383884527
 30
0.0
 10
12.4815971268
 20
19.2383884527
 30
0.0
340
18B
  0
INSERT
  5
193
102
{ACAD_REACTORS
330
194
102
}
330
1F
100
AcDbEntity
  8
0
  6
Continuous
 62
     7
 48
2.0
370
     0
100
AcDbBlockReference
  2
SW_NOTE_6
 10
6.325412573
 20
15.5461297921
 30
0.0
  0
LEADER
  5
194
330
1F
100
AcDbEntity
  8
0
  6
Continuous
 62
     7
 48
2.0
370
     0
100
AcDbLeader
  3
SLDDIMSTYLE1
 73
     2
 76
     3
 10
8.3980038063
 20
16.2267662064
 30
0.0
 10
6.825412573
 20
15.5461297921
 30
0.0
 10
6.325412573
 20
15.5461297921
 30
0.0
340
193
  0
LINE
  5
195
330
1F
100
AcDbEntity
  8
0
  6
Continuous
 62
     7
 48
2.0
370
    15
100
AcDbLine
 10
20.5640026787
 20
10.3277230818
 30
0.0
 11
20.5973340537
 21
10.3277230818
 31
0.0
  0
LINE
  5
196
330
1F
100
AcDbEntity
  8
0
  6
Continuous
 62
     7
 48
2.0
370
    15
100
AcDbLine
 10
20.5973340537
 20
10.7007230895
 30
0.0
 11
20.5640026787
 21
10.7007230895
 31
0.0
  0
ARC
  5
197
330
1F
100
AcDbEntity
  8
0
  6
Continuous
 62
     7
 48
4.0
370
    15
100
AcDbCircle
 10
20.5640027559
 20
10.3427230856
 30
0.0
 40
0.0150000000000005
100
AcDbArc
 50
232.550643686
 51
270.0
  0
ARC
  5
198
330
1F
100
AcDbEntity
  8
0
  6
Continuous
 62
     7
 48
4.0
370
    15
100
AcDbCircle
 10
20.5640027559
 20
10.6857230856
 30
0.0
 40
0.0150000000000006
100
AcDbArc
 50
90.0
 51
127.449356314
  0
ARC
  5
199
330
1F
100
AcDbEntity
  8
0
  6
Continuous
 62
     7
 48
4.0
370
    15
100
AcDbCircle
 10
20.6953586549
 20
10.5142230856
 30
0.0
 40
0.2310245869783057
100
AcDbArc
 50
190.1818657166
 51
232.550643686
  0
ARC
  5
19A
330
1F
100
AcDbEntity
  8
0
  6
Continuous
 62
     7
 48
4.0
370
    15
100
AcDbCircle
 10
20.6953586549
 20
10.5142230856
 30
0.0
 40
0.2310245869783054
100
AcDbArc
 50
127.449356314
 51
169.8181342834
  0
ARC
  5
19B
330
1F
100
AcDbEntity
  8
0
  6
Continuous
 62
     7
 48
4.0
370
    15
100
AcDbCircle
 10
20.69527943
 20
10.5139106227
 30
0.0
 40
0.2273072929465594
100
AcDbArc
 50
179.927020472
 51
190.3481951847
  0
ARC
  5
19C
330
1F
100
AcDbEntity
  8
0
  6
Continuous
 62
     7
 48
4.0
370
    15
100
AcDbCircle
 10
20.4686105835
 20
10.472124542
 30
0.0
 40
0.0014120635210422
100
AcDbArc
 50
83.9055569893
 51
116.8725024734
  0
ARC
  5
19D
330
1F
100
AcDbEntity
  8
0
  6
Continuous
 62
     7
 48
4.0
370
    15
100
AcDbCircle
 10
20.6128892893
 20
10.5162465225
 30
0.0
 40
0.1503260688271845
100
AcDbArc
 50
196.5091379652
 51
233.4607198069
  0
LINE
  5
19E
330
1F
100
AcDbEntity
  8
0
  6
Continuous
 62
     7
 48
2.0
370
    15
100
AcDbLine
 10
20.5233890946
 20
10.4175516649
 30
0.0
 11
20.5233890946
 21
10.3954672109
 31
0.0
  0
ARC
  5
19F
330
1F
100
AcDbEntity
  8
0
  6
Continuous
 62
     7
 48
4.0
370
    15
100
AcDbCircle
 10
20.61288934
 20
10.5383310101
 30
0.0
 40
0.1503261259982993
100
AcDbArc
 50
196.5091434949
 51
233.4607119068
  0
ARC
  5
1A0
330
1F
100
AcDbEntity
  8
0
  6
Continuous
 62
     7
 48
4.0
370
    15
100
AcDbCircle
 10
20.6953362209
 20
10.5145304375
 30
0.0
 40
0.2273640782958187
100
AcDbArc
 50
169.6531085332
 51
184.7726936555
  0
LWPOLYLINE
  5
1A1
330
1F
100
AcDbEntity
  8
0
  6
Continuous
 62
     7
 48
2.0
370
    15
100
AcDbPolyline
 90
        9
 70
   128
 43
0.0
 10
20.471669452
 20
10.5553667033
 10
20.4704442129
 20
10.5553110897
 10
20.4694639042
 20
10.5552552012
 10
20.4687291127
 20
10.5551990973
 10
20.4682410117
 20
10.5551428467
 10
20.4679998944
 20
10.5550865044
 10
20.4680063477
 20
10.5550301301
 10
20.4682597848
 20
10.5549737924
 10
20.468760499
 20
10.5549175464
  0
LINE
  5
1A2
330
1F
100
AcDbEntity
  8
0
  6
Continuous
 62
     7
 48
2.0
370
    15
100
AcDbLine
 10
20.4769620042
 20
10.4735286249
 30
0.0
 11
20.468760499
 21
10.4735286249
 31
0.0
  0
LINE
  5
1A3
330
1F
100
AcDbEntity
  8
0
  6
Continuous
 62
     7
 48
2.0
370
    15
100
AcDbLine
 10
20.4715879063
 20
10.5549175464
 30
0.0
 11
20.468760499
 21
10.5549175464
 31
0.0
  0
LINE
  5
1A4
330
1F
100
AcDbEntity
  8
0
  6
Continuous
 62
     7
 48
2.0
370
    15
100
AcDbLine
 10
20.6593340308
 20
12.5142230615
 30
0.0
 11
20.5973340537
 21
12.5142230615
 31
0.0
  0
LINE
  5
1A5
330
1F
100
AcDbEntity
  8
0
  6
Continuous
 62
     7
 48
2.0
370
    15
100
AcDbLine
 10
20.6593340308
 20
8.5142231098
 30
0.0
 11
20.5973340537
 21
8.5142231098
 31
0.0
  0
LINE
  5
1A6
330
1F
100
AcDbEntity
  8
0
  6
Continuous
 62
     7
 48
2.0
370
    15
100
AcDbLine
 10
20.5973340537
 20
8.5142231098
 30
0.0
 11
20.5973340537
 21
12.5142230615
 31
0.0
  0
LINE
  5
1A7
330
1F
100
AcDbEntity
  8
0
  6
Continuous
 62
     7
 48
2.0
370
    15
100
AcDbLine
 10
20.6593340308
 20
8.5142231098
 30
0.0
 11
20.6593340308
 21
12.5142230615
 31
0.0
  0
LINE
  5
1A8
330
1F
100
AcDbEntity
  8
0
  6
Continuous
 62
     7
 48
2.0
370
    15
100
AcDbLine
 10
20.7363340213
 20
12.5142230615
 30
0.0
 11
23.5823340682
 21
12.5142230615
 31
0.0
  0
LINE
  5
1A9
330
1F
100
AcDbEntity
  8
0
  6
Continuous
 62
     7
 48
2.0
370
    15
100
AcDbLine
 10
20.7363340213
 20
8.5142231098
 30
0.0
 11
23.5823340682
 21
8.5142231098
 31
0.0
  0
ARC
  5
1AA
330
1F
100
AcDbEntity
  8
0
  6
Continuous
 62
     7
 48
4.0
370
    15
100
AcDbCircle
 10
22.4093340679
 20
11.3242230856
 30
0.0
 40
0.5545000000000028
100
AcDbArc
 50
186.4614689651
 51
353.5385310349
  0
ARC
  5
1AB
330
1F
100
AcDbEntity
  8
0
  6
Continuous
 62
     7
 48
4.0
370
    15
100
AcDbCircle
 10
22.9638340679
 20
11.3242230856
 30
0.0
 40
0.0625000000000019
100
AcDbArc
 50
93.2307344826
 51
266.7692655174
  0
ARC
  5
1AC
330
1F
100
AcDbEntity
  8
0
  6
Continuous
 62
     7
 48
4.0
370
    15
100
AcDbCircle
 10
22.4093340679
 20
11.3242230856
 30
0.0
 40
0.5545000000000027
100
AcDbArc
 50
6.4614689651
 51
173.5385310349
  0
ARC
  5
1AD
330
1F
100
AcDbEntity
  8
0
  6
Continuous
 62
     7
 48
4.0
370
    15
100
AcDbCircle
 10
21.8548340679
 20
11.3242230856
 30
0.0
 40
0.0625000000000019
100
AcDbArc
 50
273.2307344826
 51
86.7692655174
  0
ARC
  5
1AE
330
1F
100
AcDbEntity
  8
0
  6
Continuous
 62
     7
 48
4.0
370
    15
100
AcDbCircle
 10
22.2843340679
 20
9.7042230856
 30
0.0
 40
0.6875000000000027
100
AcDbArc
 50
185.2105025301
 51
354.7894974699
  0
ARC
  5
1AF
330
1F
100
AcDbEntity
  8
0
  6
Continuous
 62
     7
 48
4.0
370
    15
100
AcDbCircle
 10
22.9718340679
 20
9.7042230856
 30
0.0
 40
0.0625000000000009
100
AcDbArc
 50
92.6052512651
 51
267.3947487349
  0
ARC
  5
1B0
330
1F
100
AcDbEntity
  8
0
  6
Continuous
 62
     7
 48
4.0
370
    15
100
AcDbCircle
 10
22.2843340679
 20
9.7042230856
 30
0.0
 40
0.6875000000000026
100
AcDbArc
 50
5.2105025301
 51
174.7894974699
  0
ARC
  5
1B1
330
1F
100
AcDbEntity
  8
0
  6
Continuous
 62
     7
 48
4.0
370
    15
100
AcDbCircle
 10
21.5968340679
 20
9.7042230856
 30
0.0
 40
0.0625000000000007
100
AcDbArc
 50
272.6052512651
 51
87.3947487349
  0
LINE
  5
1B2
330
1F
100
AcDbEntity
  8
0
  6
Continuous
 62
     7
 48
2.0
370
    15
100
AcDbLine
 10
23.6593340679
 20
12.5142230615
 30
0.0
 11
23.6593340679
 21
8.5142231098
 31
0.0
  0
LINE
  5
1B3
330
1F
100
AcDbEntity
  8
0
  6
Continuous
 62
     7
 48
2.0
370
    15
100
AcDbLine
 10
23.5823340682
 20
12.5142230615
 30
0.0
 11
23.6593340679
 21
12.5142230615
 31
0.0
  0
LINE
  5
1B4
330
1F
100
AcDbEntity
  8
0
  6
Continuous
 62
     7
 48
2.0
370
    15
100
AcDbLine
 10
23.5823340682
 20
8.5142231098
 30
0.0
 11
23.6593340679
 21
8.5142231098
 31
0.0
  0
ARC
  5
1B5
330
1F
100
AcDbEntity
  8
0
  6
Continuous
 62
     7
 48
4.0
370
    15
100
AcDbCircle
 10
22.4093340679
 20
11.3242230856
 30
0.0
 40
0.4374999999999992
100
AcDbArc
 50
98.1920875163
 51
81.8079124837
  0
ARC
  5
1B6
330
1F
100
AcDbEntity
  8
0
  6
Continuous
 62
     7
 48
4.0
370
    15
100
AcDbCircle
 10
22.4093340679
 20
11.7617230856
 30
0.0
 40
0.0624999999999997
100
AcDbArc
 50
184.0960437582
 51
355.9039562418
  0
ARC
  5
1B7
330
1F
100
AcDbEntity
  8
0
  6
Continuous
 62
     7
 48
4.0
370
    15
100
AcDbCircle
 10
22.2843340679
 20
9.7042230856
 30
0.0
 40
0.5544999999999992
100
AcDbArc
 50
96.4614689651
 51
83.5385310349
  0
ARC
  5
1B8
330
1F
100
AcDbEntity
  8
0
  6
Continuous
 62
     7
 48
4.0
370
    15
100
AcDbCircle
 10
22.2843340679
 20
10.2587230856
 30
0.0
 40
0.0625000000000018
100
AcDbArc
 50
183.2307344826
 51
356.7692655174
  0
LINE
  5
1B9
330
1F
100
AcDbEntity
  8
0
  6
Continuous
 62
     7
 48
2.0
370
    15
100
AcDbLine
 10
20.6593340308
 20
12.5142230615
 30
0.0
 11
20.7363340213
 21
12.5142230615
 31
0.0
  0
LINE
  5
1BA
330
1F
100
AcDbEntity
  8
0
  6
Continuous
 62
     7
 48
2.0
370
    15
100
AcDbLine
 10
20.6593340308
 20
8.5142231098
 30
0.0
 11
20.7363340213
 21
8.5142231098
 31
0.0
  0
LINE
  5
1BB
330
1F
100
AcDbEntity
  8
0
  6
HIDDEN
 62
     7
 48
2.0
370
     0
100
AcDbLine
 10
23.5203340636
 20
12.0762230813
 30
0.0
 11
20.7983339984
 21
12.0762230813
 31
0.0
  0
LINE
  5
1BC
330
1F
100
AcDbEntity
  8
0
  6
HIDDEN
 62
     7
 48
2.0
370
     0
100
AcDbLine
 10
20.7983339984
 20
12.0762230813
 30
0.0
 11
20.7983339984
 21
12.437223071
 31
0.0
  0
LINE
  5
1BD
330
1F
100
AcDbEntity
  8
0
  6
HIDDEN
 62
     7
 48
2.0
370
     0
100
AcDbLine
 10
23.5203340636
 20
12.437223071
 30
0.0
 11
23.5203340636
 21
12.0762230813
 31
0.0
  0
LINE
  5
1BE
330
1F
100
AcDbEntity
  8
0
  6
HIDDEN
 62
     7
 48
2.0
370
     0
100
AcDbLine
 10
23.5203340636
 20
12.5142230615
 30
0.0
 11
23.5203340636
 21
12.437223071
 31
0.0
  0
LINE
  5
1BF
330
1F
100
AcDbEntity
  8
0
  6
HIDDEN
 62
     7
 48
2.0
370
     0
100
AcDbLine
 10
20.7983339984
 20
12.437223071
 30
0.0
 11
20.7983339984
 21
12.5142230615
 31
0.0
  0
LINE
  5
1C0
330
1F
100
AcDbEntity
  8
0
  6
HIDDEN
 62
     7
 48
2.0
370
     0
100
AcDbLine
 10
20.7983339984
 20
12.4522230844
 30
0.0
 11
23.5203340636
 21
12.4522230844
 31
0.0
  0
LINE
  5
1C1
330
1F
100
AcDbEntity
  8
0
  6
HIDDEN
 62
     7
 48
2.0
370
     0
100
AcDbLine
 10
23.5353340678
 20
12.0762230813
 30
0.0
 11
23.5353340678
 21
12.437223071
 31
0.0
  0
LINE
  5
1C2
330
1F
100
AcDbEntity
  8
0
  6
HIDDEN
 62
     7
 48
2.0
370
     0
100
AcDbLine
 10
23.5973340679
 20
12.0762230813
 30
0.0
 11
23.5353340678
 21
12.0762230813
 31
0.0
  0
ARC
  5
1C3
330
1F
100
AcDbEntity
  8
0
  6
HIDDEN
 62
     7
 48
4.0
370
     0
100
AcDbCircle
 10
23.5203340679
 20
12.4372230856
 30
0.0
 40
0.0770000000000017
100
AcDbArc
 50
0.0
 51
90.0
  0
ARC
  5
1C4
330
1F
100
AcDbEntity
  8
0
  6
HIDDEN
 62
     7
 48
4.0
370
     0
100
AcDbCircle
 10
23.5203340679
 20
12.4372230856
 30
0.0
 40
0.0150000000000041
100
AcDbArc
 50
0.0
 51
90.0
  0
LINE
  5
1C5
330
1F
100
AcDbEntity
  8
0
  6
HIDDEN
 62
     7
 48
2.0
370
     0
100
AcDbLine
 10
21.5996750346
 20
12.4832230729
 30
0.0
 11
22.9689931894
 21
12.4832230729
 31
0.0
  0
LINE
  5
1C6
330
1F
100
AcDbEntity
  8
0
  6
HIDDEN
 62
     7
 48
2.0
370
     0
100
AcDbLine
 10
22.9689931894
 20
12.4212230958
 30
0.0
 11
22.9689931894
 21
12.4522230844
 31
0.0
  0
LINE
  5
1C7
330
1F
100
AcDbEntity
  8
0
  6
HIDDEN
 62
     7
 48
2.0
370
     0
100
AcDbLine
 10
22.9689931894
 20
12.4212230958
 30
0.0
 11
21.5996750346
 21
12.4212230958
 31
0.0
  0
LINE
  5
1C8
330
1F
100
AcDbEntity
  8
0
  6
HIDDEN
 62
     7
 48
2.0
370
     0
100
AcDbLine
 10
21.5996750346
 20
12.4212230958
 30
0.0
 11
21.5996750346
 21
12.4522230844
 31
0.0
  0
LINE
  5
1C9
330
1F
100
AcDbEntity
  8
0
  6
HIDDEN
 62
     7
 48
2.0
370
     0
100
AcDbLine
 10
20.7363340213
 20
12.4522230844
 30
0.0
 11
20.7983339984
 21
12.4522230844
 31
0.0
  0
ARC
  5
1CA
330
1F
100
AcDbEntity
  8
0
  6
HIDDEN
 62
     7
 48
4.0
370
     0
100
AcDbCircle
 10
20.7363340679
 20
12.4372230856
 30
0.0
 40
0.0150000000000006
100
AcDbArc
 50
90.0
 51
180.0
  0
ARC
  5
1CB
330
1F
100
AcDbEntity
  8
0
  6
HIDDEN
 62
     7
 48
4.0
370
     0
100
AcDbCircle
 10
20.7363340679
 20
12.4372230856
 30
0.0
 40
0.0770000000000017
100
AcDbArc
 50
90.0
 51
180.0
  0
LINE
  5
1CC
330
1F
100
AcDbEntity
  8
0
  6
HIDDEN
 62
     7
 48
2.0
370
     0
100
AcDbLine
 10
20.6593340308
 20
12.0142231042
 30
0.0
 11
20.7213340079
 21
12.0142231042
 31
0.0
  0
LINE
  5
1CD
330
1F
100
AcDbEntity
  8
0
  6
HIDDEN
 62
     7
 48
2.0
370
     0
100
AcDbLine
 10
22.2219334462
 20
12.5142230615
 30
0.0
 11
22.2219334462
 21
12.4832230729
 31
0.0
  0
LINE
  5
1CE
330
1F
100
AcDbEntity
  8
0
  6
HIDDEN
 62
     7
 48
2.0
370
     0
100
AcDbLine
 10
22.3467347778
 20
12.5142230615
 30
0.0
 11
22.3467347778
 21
12.4832230729
 31
0.0
  0
LINE
  5
1CF
330
1F
100
AcDbEntity
  8
0
  6
HIDDEN
 62
     7
 48
2.0
370
     0
100
AcDbLine
 10
22.3467347778
 20
12.4522230844
 30
0.0
 11
22.3467347778
 21
12.4212230958
 31
0.0
  0
LINE
  5
1D0
330
1F
100
AcDbEntity
  8
0
  6
HIDDEN
 62
     7
 48
2.0
370
     0
100
AcDbLine
 10
22.2219334462
 20
12.4522230844
 30
0.0
 11
22.2219334462
 21
12.4212230958
 31
0.0
  0
LINE
  5
1D1
330
1F
100
AcDbEntity
  8
0
  6
HIDDEN
 62
     7
 48
2.0
370
     0
100
AcDbLine
 10
22.9689931894
 20
12.4832230729
 30
0.0
 11
22.9689931894
 21
12.5142230615
 31
0.0
  0
LINE
  5
1D2
330
1F
100
AcDbEntity
  8
0
  6
HIDDEN
 62
     7
 48
2.0
370
     0
100
AcDbLine
 10
21.5996750346
 20
12.4832230729
 30
0.0
 11
21.5996750346
 21
12.5142230615
 31
0.0
  0
LINE
  5
1D3
330
1F
100
AcDbEntity
  8
0
  6
HIDDEN
 62
     7
 48
2.0
370
     0
100
AcDbLine
 10
22.960311723
 20
12.4212230958
 30
0.0
 11
22.960311723
 21
12.4522230844
 31
0.0
  0
LINE
  5
1D4
330
1F
100
AcDbEntity
  8
0
  6
HIDDEN
 62
     7
 48
2.0
370
     0
100
AcDbLine
 10
21.8583564063
 20
12.4212230958
 30
0.0
 11
21.8583564063
 21
12.4522230844
 31
0.0
  0
LINE
  5
1D5
330
1F
100
AcDbEntity
  8
0
  6
HIDDEN
 62
     7
 48
2.0
370
     0
100
AcDbLine
 10
22.3469936415
 20
12.5142230615
 30
0.0
 11
22.3469936415
 21
12.4832230729
 31
0.0
  0
LINE
  5
1D6
330
1F
100
AcDbEntity
  8
0
  6
HIDDEN
 62
     7
 48
2.0
370
     0
100
AcDbLine
 10
22.4716744145
 20
12.5142230615
 30
0.0
 11
22.4716744145
 21
12.4832230729
 31
0.0
  0
LINE
  5
1D7
330
1F
100
AcDbEntity
  8
0
  6
HIDDEN
 62
     7
 48
2.0
370
     0
100
AcDbLine
 10
22.4716744145
 20
12.4522230844
 30
0.0
 11
22.4716744145
 21
12.4212230958
 31
0.0
  0
LINE
  5
1D8
330
1F
100
AcDbEntity
  8
0
  6
HIDDEN
 62
     7
 48
2.0
370
     0
100
AcDbLine
 10
22.3469936415
 20
12.4522230844
 30
0.0
 11
22.3469936415
 21
12.4212230958
 31
0.0
  0
LINE
  5
1D9
330
1F
100
AcDbEntity
  8
0
  6
HIDDEN
 62
     7
 48
2.0
370
     0
100
AcDbLine
 10
22.960311723
 20
12.4832230729
 30
0.0
 11
22.960311723
 21
12.5142230615
 31
0.0
  0
LINE
  5
1DA
330
1F
100
AcDbEntity
  8
0
  6
HIDDEN
 62
     7
 48
2.0
370
     0
100
AcDbLine
 10
21.8583564063
 20
12.4832230729
 30
0.0
 11
21.8583564063
 21
12.5142230615
 31
0.0
  0
LINE
  5
1DB
330
1F
100
AcDbEntity
  8
0
  6
HIDDEN
 62
     7
 48
2.0
370
     0
100
AcDbLine
 10
20.7983339984
 20
8.95222309
 30
0.0
 11
20.7983339984
 21
8.5912231003
 31
0.0
  0
LINE
  5
1DC
330
1F
100
AcDbEntity
  8
0
  6
HIDDEN
 62
     7
 48
2.0
370
     0
100
AcDbLine
 10
23.5203340636
 20
8.5912231003
 30
0.0
 11
23.5203340636
 21
8.95222309
 31
0.0
  0
LINE
  5
1DD
330
1F
100
AcDbEntity
  8
0
  6
HIDDEN
 62
     7
 48
2.0
370
     0
100
AcDbLine
 10
23.5203340636
 20
8.95222309
 30
0.0
 11
20.7983339984
 21
8.95222309
 31
0.0
  0
LINE
  5
1DE
330
1F
100
AcDbEntity
  8
0
  6
HIDDEN
 62
     7
 48
2.0
370
     0
100
AcDbLine
 10
20.7983339984
 20
8.5912231003
 30
0.0
 11
20.7983339984
 21
8.5142231098
 31
0.0
  0
LINE
  5
1DF
330
1F
100
AcDbEntity
  8
0
  6
HIDDEN
 62
     7
 48
2.0
370
     0
100
AcDbLine
 10
23.5203340636
 20
8.5142231098
 30
0.0
 11
23.5203340636
 21
8.5912231003
 31
0.0
  0
LINE
  5
1E0
330
1F
100
AcDbEntity
  8
0
  6
HIDDEN
 62
     7
 48
2.0
370
     0
100
AcDbLine
 10
20.7983339984
 20
8.5762230869
 30
0.0
 11
23.5203340636
 21
8.5762230869
 31
0.0
  0
ARC
  5
1E1
330
1F
100
AcDbEntity
  8
0
  6
HIDDEN
 62
     7
 48
4.0
370
     0
100
AcDbCircle
 10
23.5203340679
 20
8.5912230856
 30
0.0
 40
0.077
100
AcDbArc
 50
270.0
 51
0.0
  0
ARC
  5
1E2
330
1F
100
AcDbEntity
  8
0
  6
HIDDEN
 62
     7
 48
4.0
370
     0
100
AcDbCircle
 10
23.5203340679
 20
8.5912230856
 30
0.0
 40
0.0150000000000006
100
AcDbArc
 50
270.0
 51
0.0
  0
LINE
  5
1E3
330
1F
100
AcDbEntity
  8
0
  6
HIDDEN
 62
     7
 48
2.0
370
     0
100
AcDbLine
 10
23.5353340678
 20
8.95222309
 30
0.0
 11
23.5353340678
 21
8.5912231003
 31
0.0
  0
LINE
  5
1E4
330
1F
100
AcDbEntity
  8
0
  6
HIDDEN
 62
     7
 48
2.0
370
     0
100
AcDbLine
 10
23.5973340679
 20
8.95222309
 30
0.0
 11
23.5353340678
 21
8.95222309
 31
0.0
  0
LINE
  5
1E5
330
1F
100
AcDbEntity
  8
0
  6
HIDDEN
 62
     7
 48
2.0
370
     0
100
AcDbLine
 10
20.7363340213
 20
8.5762230869
 30
0.0
 11
20.7983339984
 21
8.5762230869
 31
0.0
  0
ARC
  5
1E6
330
1F
100
AcDbEntity
  8
0
  6
HIDDEN
 62
     7
 48
4.0
370
     0
100
AcDbCircle
 10
20.7363340679
 20
8.5912230856
 30
0.0
 40
0.0150000000000006
100
AcDbArc
 50
180.0
 51
270.0
  0
ARC
  5
1E7
330
1F
100
AcDbEntity
  8
0
  6
HIDDEN
 62
     7
 48
4.0
370
     0
100
AcDbCircle
 10
20.7363340679
 20
8.5912230856
 30
0.0
 40
0.077
100
AcDbArc
 50
180.0
 51
270.0
  0
LINE
  5
1E8
330
1F
100
AcDbEntity
  8
0
  6
HIDDEN
 62
     7
 48
2.0
370
     0
100
AcDbLine
 10
20.6593340308
 20
9.0142230671
 30
0.0
 11
20.7213340079
 21
9.0142230671
 31
0.0
  0
LINE
  5
1E9
330
1F
100
AcDbEntity
  8
0
  6
HIDDEN
 62
     7
 48
2.0
370
     0
100
AcDbLine
 10
21.8583564063
 20
8.6072230755
 30
0.0
 11
21.8583564063
 21
8.5762230869
 31
0.0
  0
LINE
  5
1EA
330
1F
100
AcDbEntity
  8
0
  6
HIDDEN
 62
     7
 48
2.0
370
     0
100
AcDbLine
 10
22.960311723
 20
8.6072230755
 30
0.0
 11
22.960311723
 21
8.5762230869
 31
0.0
  0
LINE
  5
1EB
330
1F
100
AcDbEntity
  8
0
  6
HIDDEN
 62
     7
 48
2.0
370
     0
100
AcDbLine
 10
21.8583564063
 20
8.6072230755
 30
0.0
 11
22.960311723
 21
8.6072230755
 31
0.0
  0
LINE
  5
1EC
330
1F
100
AcDbEntity
  8
0
  6
HIDDEN
 62
     7
 48
2.0
370
     0
100
AcDbLine
 10
22.960311723
 20
8.5452230984
 30
0.0
 11
21.8583564063
 21
8.5452230984
 31
0.0
  0
LINE
  5
1ED
330
1F
100
AcDbEntity
  8
0
  6
HIDDEN
 62
     7
 48
2.0
370
     0
100
AcDbLine
 10
22.3469936415
 20
8.5142231098
 30
0.0
 11
22.3469936415
 21
8.5452230984
 31
0.0
  0
LINE
  5
1EE
330
1F
100
AcDbEntity
  8
0
  6
HIDDEN
 62
     7
 48
2.0
370
     0
100
AcDbLine
 10
22.4716744145
 20
8.5142231098
 30
0.0
 11
22.4716744145
 21
8.5452230984
 31
0.0
  0
LINE
  5
1EF
330
1F
100
AcDbEntity
  8
0
  6
HIDDEN
 62
     7
 48
2.0
370
     0
100
AcDbLine
 10
22.4716744145
 20
8.5762230869
 30
0.0
 11
22.4716744145
 21
8.6072230755
 31
0.0
  0
LINE
  5
1F0
330
1F
100
AcDbEntity
  8
0
  6
HIDDEN
 62
     7
 48
2.0
370
     0
100
AcDbLine
 10
22.3469936415
 20
8.5762230869
 30
0.0
 11
22.3469936415
 21
8.6072230755
 31
0.0
  0
LINE
  5
1F1
330
1F
100
AcDbEntity
  8
0
  6
HIDDEN
 62
     7
 48
2.0
370
     0
100
AcDbLine
 10
22.960311723
 20
8.5452230984
 30
0.0
 11
22.960311723
 21
8.5142231098
 31
0.0
  0
LINE
  5
1F2
330
1F
100
AcDbEntity
  8
0
  6
HIDDEN
 62
     7
 48
2.0
370
     0
100
AcDbLine
 10
21.8583564063
 20
8.5452230984
 30
0.0
 11
21.8583564063
 21
8.5142231098
 31
0.0
  0
LINE
  5
1F3
330
1F
100
AcDbEntity
  8
0
  6
HIDDEN
 62
     7
 48
2.0
370
     0
100
AcDbLine
 10
22.9689931894
 20
8.5452230984
 30
0.0
 11
22.960311723
 21
8.5452230984
 31
0.0
  0
LINE
  5
1F4
330
1F
100
AcDbEntity
  8
0
  6
HIDDEN
 62
     7
 48
2.0
370
     0
100
AcDbLine
 10
21.8583564063
 20
8.5452230984
 30
0.0
 11
21.5996750346
 21
8.5452230984
 31
0.0
  0
LINE
  5
1F5
330
1F
100
AcDbEntity
  8
0
  6
HIDDEN
 62
     7
 48
2.0
370
     0
100
AcDbLine
 10
21.5996750346
 20
8.6072230755
 30
0.0
 11
21.5996750346
 21
8.5762230869
 31
0.0
  0
LINE
  5
1F6
330
1F
100
AcDbEntity
  8
0
  6
HIDDEN
 62
     7
 48
2.0
370
     0
100
AcDbLine
 10
22.9689931894
 20
8.6072230755
 30
0.0
 11
22.9689931894
 21
8.5762230869
 31
0.0
  0
LINE
  5
1F7
330
1F
100
AcDbEntity
  8
0
  6
HIDDEN
 62
     7
 48
2.0
370
     0
100
AcDbLine
 10
21.5996750346
 20
8.6072230755
 30
0.0
 11
21.8583564063
 21
8.6072230755
 31
0.0
  0
LINE
  5
1F8
330
1F
100
AcDbEntity
  8
0
  6
HIDDEN
 62
     7
 48
2.0
370
     0
100
AcDbLine
 10
22.960311723
 20
8.6072230755
 30
0.0
 11
22.9689931894
 21
8.6072230755
 31
0.0
  0
LINE
  5
1F9
330
1F
100
AcDbEntity
  8
0
  6
HIDDEN
 62
     7
 48
2.0
370
     0
100
AcDbLine
 10
22.2219334462
 20
8.5142231098
 30
0.0
 11
22.2219334462
 21
8.5452230984
 31
0.0
  0
LINE
  5
1FA
330
1F
100
AcDbEntity
  8
0
  6
HIDDEN
 62
     7
 48
2.0
370
     0
100
AcDbLine
 10
22.3467347778
 20
8.5142231098
 30
0.0
 11
22.3467347778
 21
8.5452230984
 31
0.0
  0
LINE
  5
1FB
330
1F
100
AcDbEntity
  8
0
  6
HIDDEN
 62
     7
 48
2.0
370
     0
100
AcDbLine
 10
22.3467347778
 20
8.5762230869
 30
0.0
 11
22.3467347778
 21
8.6072230755
 31
0.0
  0
LINE
  5
1FC
330
1F
100
AcDbEntity
  8
0
  6
HIDDEN
 62
     7
 48
2.0
370
     0
100
AcDbLine
 10
22.2219334462
 20
8.5762230869
 30
0.0
 11
22.2219334462
 21
8.6072230755
 31
0.0
  0
LINE
  5
1FD
330
1F
100
AcDbEntity
  8
0
  6
HIDDEN
 62
     7
 48
2.0
370
     0
100
AcDbLine
 10
22.9689931894
 20
8.5452230984
 30
0.0
 11
22.9689931894
 21
8.5142231098
 31
0.0
  0
LINE
  5
1FE
330
1F
100
AcDbEntity
  8
0
  6
HIDDEN
 62
     7
 48
2.0
370
     0
100
AcDbLine
 10
21.5996750346
 20
8.5452230984
 30
0.0
 11
21.5996750346
 21
8.5142231098
 31
0.0
  0
ARC
  5
1FF
330
1F
100
AcDbEntity
  8
0
  6
HIDDEN
 62
     7
 48
4.0
370
     0
100
AcDbCircle
 10
20.6128892893
 20
10.5121996488
 30
0.0
 40
0.1503260688271859
100
AcDbArc
 50
126.5392801931
 51
163.4908620348
  0
ARC
  5
200
330
1F
100
AcDbEntity
  8
0
  6
HIDDEN
 62
     7
 48
4.0
370
     0
100
AcDbCircle
 10
20.61288934
 20
10.4901151612
 30
0.0
 40
0.1503261259983042
100
AcDbArc
 50
126.5392880932
 51
163.4908565051
  0
ARC
  5
201
330
1F
100
AcDbEntity
  8
0
  6
HIDDEN
 62
     7
 48
4.0
370
     0
100
AcDbCircle
 10
20.6953575059
 20
10.5139148443
 30
0.0
 40
0.227385363489976
100
AcDbArc
 50
175.2275292565
 51
179.9281092723
  0
ARC
  5
202
330
1F
100
AcDbEntity
  8
0
  6
HIDDEN
 62
     7
 48
4.0
370
     0
100
AcDbCircle
 10
20.4712225735
 20
10.490241906
 30
0.0
 40
0.0171682549957604
100
AcDbArc
 50
259.0870397207
 51
271.4915404103
  0
LINE
  5
203
330
1F
100
AcDbEntity
  8
0
  6
HIDDEN
 62
     7
 48
2.0
370
     0
100
AcDbLine
 10
20.5233890946
 20
10.4956130824
 30
0.0
 11
20.5233890946
 21
10.4175516649
 31
0.0
  0
LINE
  5
204
330
1F
100
AcDbEntity
  8
0
  6
HIDDEN
 62
     7
 48
2.0
370
     0
100
AcDbLine
 10
20.5233890946
 20
10.4735286249
 30
0.0
 11
20.4769620042
 21
10.4735286249
 31
0.0
  0
LINE
  5
205
330
1F
100
AcDbEntity
  8
0
  6
HIDDEN
 62
     7
 48
2.0
370
     0
100
AcDbLine
 10
20.9093341561
 20
10.4607230862
 30
0.0
 11
20.9093341561
 21
10.5677230851
 31
0.0
  0
LINE
  5
206
330
1F
100
AcDbEntity
  8
0
  6
HIDDEN
 62
     7
 48
2.0
370
     0
100
AcDbLine
 10
20.8719137617
 20
10.4452230873
 30
0.0
 11
20.8719137617
 21
10.583223084
 31
0.0
  0
LINE
  5
207
330
1F
100
AcDbEntity
  8
0
  6
HIDDEN
 62
     7
 48
2.0
370
     0
100
AcDbLine
 10
20.5243342037
 20
10.5553667033
 30
0.0
 11
20.5243342037
 21
10.4736933938
 31
0.0
  0
LINE
  5
208
330
1F
100
AcDbEntity
  8
0
  6
HIDDEN
 62
     7
 48
2.0
370
     0
100
AcDbLine
 10
20.468760499
 20
10.4956130824
 30
0.0
 11
20.5233890946
 21
10.4956130824
 31
0.0
  0
LINE
  5
209
330
1F
100
AcDbEntity
  8
0
  6
HIDDEN
 62
     7
 48
2.0
370
     0
100
AcDbLine
 10
20.5243342037
 20
10.4736933938
 30
0.0
 11
20.5233890946
 21
10.4736933938
 31
0.0
  0
LINE
  5
20A
330
1F
100
AcDbEntity
  8
0
  6
HIDDEN
 62
     7
 48
2.0
370
     0
100
AcDbLine
 10
20.5243342037
 20
10.4736933938
 30
0.0
 11
20.5243342037
 21
10.473079468
 31
0.0
  0
LINE
  5
20B
330
1F
100
AcDbEntity
  8
0
  6
HIDDEN
 62
     7
 48
2.0
370
     0
100
AcDbLine
 10
20.5243342037
 20
10.5547527774
 30
0.0
 11
20.5233890946
 21
10.5547527774
 31
0.0
  0
LINE
  5
20C
330
1F
100
AcDbEntity
  8
0
  6
HIDDEN
 62
     7
 48
2.0
370
     0
100
AcDbLine
 10
20.5233890946
 20
10.5549175464
 30
0.0
 11
20.5233890946
 21
10.5547527774
 31
0.0
  0
LINE
  5
20D
330
1F
100
AcDbEntity
  8
0
  6
HIDDEN
 62
     7
 48
2.0
370
     0
100
AcDbLine
 10
20.5233890946
 20
10.5549175464
 30
0.0
 11
20.4715879063
 21
10.5549175464
 31
0.0
  0
LINE
  5
20E
330
1F
100
AcDbEntity
  8
0
  6
HIDDEN
 62
     7
 48
2.0
370
     0
100
AcDbLine
 10
20.5243342037
 20
10.5553667033
 30
0.0
 11
20.471669452
 21
10.5553667033
 31
0.0
  0
LINE
  5
20F
330
1F
100
AcDbEntity
  8
0
  6
HIDDEN
 62
     7
 48
2.0
370
     0
100
AcDbLine
 10
20.468760499
 20
10.5328330889
 30
0.0
 11
20.5233890946
 21
10.5328330889
 31
0.0
  0
LINE
  5
210
330
1F
100
AcDbEntity
  8
0
  6
HIDDEN
 62
     7
 48
2.0
370
     0
100
AcDbLine
 10
20.5233890946
 20
10.5547527774
 30
0.0
 11
20.5233890946
 21
10.5328330889
 31
0.0
  0
LINE
  5
211
330
1F
100
AcDbEntity
  8
0
  6
HIDDEN
 62
     7
 48
2.0
370
     0
100
AcDbLine
 10
20.5243342037
 20
10.473079468
 30
0.0
 11
20.471669452
 21
10.473079468
 31
0.0
  0
LINE
  5
212
330
1F
100
AcDbEntity
  8
0
  6
HIDDEN
 62
     7
 48
2.0
370
     0
100
AcDbLine
 10
20.5233890946
 20
10.6329789604
 30
0.0
 11
20.5233890946
 21
10.5549175464
 31
0.0
  0
LINE
  5
213
330
1F
100
AcDbEntity
  8
0
  6
HIDDEN
 62
     7
 48
2.0
370
     0
100
AcDbLine
 10
20.6593340308
 20
10.4021730817
 30
0.0
 11
20.5973340537
 21
10.4021730817
 31
0.0
  0
LINE
  5
214
330
1F
100
AcDbEntity
  8
0
  6
HIDDEN
 62
     7
 48
2.0
370
     0
100
AcDbLine
 10
23.5973340679
 20
12.5142230615
 30
0.0
 11
23.5973340679
 21
8.5142231098
 31
0.0
  0
LINE
  5
215
330
1F
100
AcDbEntity
  8
0
  6
HIDDEN
 62
     7
 48
2.0
370
     0
100
AcDbLine
 10
20.7213340079
 20
12.5142230615
 30
0.0
 11
20.7213340079
 21
8.5142231098
 31
0.0
  0
LINE
  5
216
330
1F
100
AcDbEntity
  8
0
  6
HIDDEN
 62
     7
 48
2.0
370
     0
100
AcDbLine
 10
23.4273340613
 20
10.5142230856
 30
0.0
 11
23.4273340613
 21
10.8112807957
 31
0.0
  0
LINE
  5
217
330
1F
100
AcDbEntity
  8
0
  6
HIDDEN
 62
     7
 48
2.0
370
     0
100
AcDbLine
 10
23.4273340613
 20
10.2171653756
 30
0.0
 11
23.4273340613
 21
10.5142230856
 31
0.0
  0
LINE
  5
218
330
1F
100
AcDbEntity
  8
0
  6
HIDDEN
 62
     7
 48
2.0
370
     0
100
AcDbLine
 10
23.4893340751
 20
10.2171653756
 30
0.0
 11
23.4893340751
 21
10.8112807957
 31
0.0
  0
LINE
  5
219
330
1F
100
AcDbEntity
  8
0
  6
HIDDEN
 62
     7
 48
2.0
370
     0
100
AcDbLine
 10
23.5552868198
 20
10.5142230856
 30
0.0
 11
23.5552868198
 21
10.6612230867
 31
0.0
  0
LINE
  5
21A
330
1F
100
AcDbEntity
  8
0
  6
HIDDEN
 62
     7
 48
2.0
370
     0
100
AcDbLine
 10
23.5552868198
 20
10.3672230846
 30
0.0
 11
23.5552868198
 21
10.5142230856
 31
0.0
  0
LINE
  5
21B
330
1F
100
AcDbEntity
  8
0
  6
HIDDEN
 62
     7
 48
2.0
370
     0
100
AcDbLine
 10
22.8388340397
 20
12.4832230729
 30
0.0
 11
22.8388340397
 21
12.5142230615
 31
0.0
  0
LINE
  5
21C
330
1F
100
AcDbEntity
  8
0
  6
HIDDEN
 62
     7
 48
2.0
370
     0
100
AcDbLine
 10
21.7298340376
 20
12.5142230615
 30
0.0
 11
21.7298340376
 21
12.4832230729
 31
0.0
  0
LINE
  5
21D
330
1F
100
AcDbEntity
  8
0
  6
HIDDEN
 62
     7
 48
2.0
370
     0
100
AcDbLine
 10
22.8388340397
 20
12.4212230958
 30
0.0
 11
22.8388340397
 21
12.4522230844
 31
0.0
  0
LINE
  5
21E
330
1F
100
AcDbEntity
  8
0
  6
HIDDEN
 62
     7
 48
2.0
370
     0
100
AcDbLine
 10
21.7298340376
 20
12.4522230844
 30
0.0
 11
21.7298340376
 21
12.4212230958
 31
0.0
  0
LINE
  5
21F
330
1F
100
AcDbEntity
  8
0
  6
HIDDEN
 62
     7
 48
2.0
370
     0
100
AcDbLine
 10
22.9093340586
 20
12.4522230844
 30
0.0
 11
22.9093340586
 21
12.4212230958
 31
0.0
  0
LINE
  5
220
330
1F
100
AcDbEntity
  8
0
  6
HIDDEN
 62
     7
 48
2.0
370
     0
100
AcDbLine
 10
22.9093340586
 20
12.5142230615
 30
0.0
 11
22.9093340586
 21
12.4832230729
 31
0.0
  0
LINE
  5
221
330
1F
100
AcDbEntity
  8
0
  6
HIDDEN
 62
     7
 48
2.0
370
     0
100
AcDbLine
 10
21.659334092
 20
12.4212230958
 30
0.0
 11
21.659334092
 21
12.4522230844
 31
0.0
  0
LINE
  5
222
330
1F
100
AcDbEntity
  8
0
  6
HIDDEN
 62
     7
 48
2.0
370
     0
100
AcDbLine
 10
21.659334092
 20
12.4832230729
 30
0.0
 11
21.659334092
 21
12.5142230615
 31
0.0
  0
LINE
  5
223
330
1F
100
AcDbEntity
  8
0
  6
HIDDEN
 62
     7
 48
2.0
370
     0
100
AcDbLine
 10
22.8468341006
 20
12.4832230729
 30
0.0
 11
22.8468341006
 21
12.5142230615
 31
0.0
  0
LINE
  5
224
330
1F
100
AcDbEntity
  8
0
  6
HIDDEN
 62
     7
 48
2.0
370
     0
100
AcDbLine
 10
21.9718340287
 20
12.5142230615
 30
0.0
 11
21.9718340287
 21
12.4832230729
 31
0.0
  0
LINE
  5
225
330
1F
100
AcDbEntity
  8
0
  6
HIDDEN
 62
     7
 48
2.0
370
     0
100
AcDbLine
 10
22.8468341006
 20
12.4212230958
 30
0.0
 11
22.8468341006
 21
12.4522230844
 31
0.0
  0
LINE
  5
226
330
1F
100
AcDbEntity
  8
0
  6
HIDDEN
 62
     7
 48
2.0
370
     0
100
AcDbLine
 10
21.9718340287
 20
12.4522230844
 30
0.0
 11
21.9718340287
 21
12.4212230958
 31
0.0
  0
LINE
  5
227
330
1F
100
AcDbEntity
  8
0
  6
HIDDEN
 62
     7
 48
2.0
370
     0
100
AcDbLine
 10
22.901334071
 20
12.4522230844
 30
0.0
 11
22.901334071
 21
12.4212230958
 31
0.0
  0
LINE
  5
228
330
1F
100
AcDbEntity
  8
0
  6
HIDDEN
 62
     7
 48
2.0
370
     0
100
AcDbLine
 10
22.901334071
 20
12.5142230615
 30
0.0
 11
22.901334071
 21
12.4832230729
 31
0.0
  0
LINE
  5
229
330
1F
100
AcDbEntity
  8
0
  6
HIDDEN
 62
     7
 48
2.0
370
     0
100
AcDbLine
 10
21.9173340583
 20
12.4212230958
 30
0.0
 11
21.9173340583
 21
12.4522230844
 31
0.0
  0
LINE
  5
22A
330
1F
100
AcDbEntity
  8
0
  6
HIDDEN
 62
     7
 48
2.0
370
     0
100
AcDbLine
 10
21.9173340583
 20
12.4832230729
 30
0.0
 11
21.9173340583
 21
12.5142230615
 31
0.0
  0
LINE
  5
22B
330
1F
100
AcDbEntity
  8
0
  6
HIDDEN
 62
     7
 48
2.0
370
     0
100
AcDbLine
 10
21.9718340287
 20
8.5452230984
 30
0.0
 11
21.9718340287
 21
8.5142231098
 31
0.0
  0
LINE
  5
22C
330
1F
100
AcDbEntity
  8
0
  6
HIDDEN
 62
     7
 48
2.0
370
     0
100
AcDbLine
 10
22.8468341006
 20
8.5142231098
 30
0.0
 11
22.8468341006
 21
8.5452230984
 31
0.0
  0
LINE
  5
22D
330
1F
100
AcDbEntity
  8
0
  6
HIDDEN
 62
     7
 48
2.0
370
     0
100
AcDbLine
 10
21.9718340287
 20
8.6072230755
 30
0.0
 11
21.9718340287
 21
8.5762230869
 31
0.0
  0
LINE
  5
22E
330
1F
100
AcDbEntity
  8
0
  6
HIDDEN
 62
     7
 48
2.0
370
     0
100
AcDbLine
 10
22.8468341006
 20
8.5762230869
 30
0.0
 11
22.8468341006
 21
8.6072230755
 31
0.0
  0
LINE
  5
22F
330
1F
100
AcDbEntity
  8
0
  6
HIDDEN
 62
     7
 48
2.0
370
     0
100
AcDbLine
 10
22.901334071
 20
8.5452230984
 30
0.0
 11
22.901334071
 21
8.5142231098
 31
0.0
  0
LINE
  5
230
330
1F
100
AcDbEntity
  8
0
  6
HIDDEN
 62
     7
 48
2.0
370
     0
100
AcDbLine
 10
22.901334071
 20
8.6072230755
 30
0.0
 11
22.901334071
 21
8.5762230869
 31
0.0
  0
LINE
  5
231
330
1F
100
AcDbEntity
  8
0
  6
HIDDEN
 62
     7
 48
2.0
370
     0
100
AcDbLine
 10
21.9173340583
 20
8.5762230869
 30
0.0
 11
21.9173340583
 21
8.6072230755
 31
0.0
  0
LINE
  5
232
330
1F
100
AcDbEntity
  8
0
  6
HIDDEN
 62
     7
 48
2.0
370
     0
100
AcDbLine
 10
21.9173340583
 20
8.5142231098
 30
0.0
 11
21.9173340583
 21
8.5452230984
 31
0.0
  0
LINE
  5
233
330
1F
100
AcDbEntity
  8
0
  6
HIDDEN
 62
     7
 48
2.0
370
     0
100
AcDbLine
 10
21.7298340376
 20
8.5452230984
 30
0.0
 11
21.7298340376
 21
8.5142231098
 31
0.0
  0
LINE
  5
234
330
1F
100
AcDbEntity
  8
0
  6
HIDDEN
 62
     7
 48
2.0
370
     0
100
AcDbLine
 10
22.8388340397
 20
8.5142231098
 30
0.0
 11
22.8388340397
 21
8.5452230984
 31
0.0
  0
LINE
  5
235
330
1F
100
AcDbEntity
  8
0
  6
HIDDEN
 62
     7
 48
2.0
370
     0
100
AcDbLine
 10
21.7298340376
 20
8.6072230755
 30
0.0
 11
21.7298340376
 21
8.5762230869
 31
0.0
  0
LINE
  5
236
330
1F
100
AcDbEntity
  8
0
  6
HIDDEN
 62
     7
 48
2.0
370
     0
100
AcDbLine
 10
22.8388340397
 20
8.5762230869
 30
0.0
 11
22.8388340397
 21
8.6072230755
 31
0.0
  0
LINE
  5
237
330
1F
100
AcDbEntity
  8
0
  6
HIDDEN
 62
     7
 48
2.0
370
     0
100
AcDbLine
 10
22.9093340586
 20
8.6072230755
 30
0.0
 11
22.9093340586
 21
8.5762230869
 31
0.0
  0
LINE
  5
238
330
1F
100
AcDbEntity
  8
0
  6
HIDDEN
 62
     7
 48
2.0
370
     0
100
AcDbLine
 10
22.9093340586
 20
8.5452230984
 30
0.0
 11
22.9093340586
 21
8.5142231098
 31
0.0
  0
LINE
  5
239
330
1F
100
AcDbEntity
  8
0
  6
HIDDEN
 62
     7
 48
2.0
370
     0
100
AcDbLine
 10
21.659334092
 20
8.5762230869
 30
0.0
 11
21.659334092
 21
8.6072230755
 31
0.0
  0
LINE
  5
23A
330
1F
100
AcDbEntity
  8
0
  6
HIDDEN
 62
     7
 48
2.0
370
     0
100
AcDbLine
 10
21.659334092
 20
8.5142231098
 30
0.0
 11
21.659334092
 21
8.5452230984
 31
0.0
  0
LINE
  5
23B
330
1F
100
AcDbEntity
  8
0
  6
HIDDEN
 62
     7
 48
2.0
370
     0
100
AcDbLine
 10
20.8719137617
 20
10.4452230873
 30
0.0
 11
20.9093341561
 21
10.4607230862
 31
0.0
  0
LINE
  5
23C
330
1F
100
AcDbEntity
  8
0
  6
HIDDEN
 62
     7
 48
2.0
370
     0
100
AcDbLine
 10
20.9093341561
 20
10.5677230851
 30
0.0
 11
20.8719137617
 21
10.583223084
 31
0.0
  0
LINE
  5
23D
330
1F
100
AcDbEntity
  8
0
  6
HIDDEN
 62
     7
 48
2.0
370
     0
100
AcDbLine
 10
20.5973340537
 20
10.4452230873
 30
0.0
 11
20.8719137617
 21
10.4452230873
 31
0.0
  0
LINE
  5
23E
330
1F
100
AcDbEntity
  8
0
  6
HIDDEN
 62
     7
 48
2.0
370
     0
100
AcDbLine
 10
20.8719137617
 20
10.583223084
 30
0.0
 11
20.5973340537
 21
10.583223084
 31
0.0
  0
LINE
  5
23F
330
1F
100
AcDbEntity
  8
0
  6
HIDDEN
 62
     7
 48
2.0
370
     0
100
AcDbLine
 10
20.5973340537
 20
10.0392230895
 30
0.0
 11
20.6593340308
 21
10.0392230895
 31
0.0
  0
LINE
  5
240
330
1F
100
AcDbEntity
  8
0
  6
HIDDEN
 62
     7
 48
2.0
370
     0
100
AcDbLine
 10
20.6593340308
 20
10.6392230841
 30
0.0
 11
20.5973340537
 21
10.6392230841
 31
0.0
  0
LINE
  5
241
330
1F
100
AcDbEntity
  8
0
  6
HIDDEN
 62
     7
 48
2.0
370
     0
100
AcDbLine
 10
20.6593340308
 20
10.4292230892
 30
0.0
 11
20.7213340079
 21
10.4292230892
 31
0.0
  0
LINE
  5
242
330
1F
100
AcDbEntity
  8
0
  6
HIDDEN
 62
     7
 48
2.0
370
     0
100
AcDbLine
 10
20.7213340079
 20
10.599223082
 30
0.0
 11
20.6593340308
 21
10.599223082
 31
0.0
  0
LINE
  5
243
330
1F
100
AcDbEntity
  8
0
  6
HIDDEN
 62
     7
 48
2.0
370
     0
100
AcDbLine
 10
23.6593340679
 20
11.6547230572
 30
0.0
 11
23.5973340679
 21
11.6547230572
 31
0.0
  0
LINE
  5
244
330
1F
100
AcDbEntity
  8
0
  6
HIDDEN
 62
     7
 48
2.0
370
     0
100
AcDbLine
 10
23.5973340679
 20
11.37372309
 30
0.0
 11
23.6593340679
 21
11.37372309
 31
0.0
  0
LINE
  5
245
330
1F
100
AcDbEntity
  8
0
  6
HIDDEN
 62
     7
 48
2.0
370
     0
100
AcDbLine
 10
23.6593340679
 20
9.6547230813
 30
0.0
 11
23.5973340679
 21
9.6547230813
 31
0.0
  0
LINE
  5
246
330
1F
100
AcDbEntity
  8
0
  6
HIDDEN
 62
     7
 48
2.0
370
     0
100
AcDbLine
 10
23.5973340679
 20
9.3737231141
 30
0.0
 11
23.6593340679
 21
9.3737231141
 31
0.0
  0
LINE
  5
247
330
1F
100
AcDbEntity
  8
0
  6
HIDDEN
 62
     7
 48
2.0
370
     0
100
AcDbLine
 10
23.5973340679
 20
11.1558359203
 30
0.0
 11
23.4523873169
 21
10.9047807972
 31
0.0
  0
LINE
  5
248
330
1F
100
AcDbEntity
  8
0
  6
HIDDEN
 62
     7
 48
2.0
370
     0
100
AcDbLine
 10
23.4523873169
 20
10.1236653741
 30
0.0
 11
23.5973340679
 21
9.8726102509
 31
0.0
  0
LINE
  5
249
330
1F
100
AcDbEntity
  8
0
  6
HIDDEN
 62
     7
 48
2.0
370
     0
100
AcDbLine
 10
23.6593340679
 20
11.1392231056
 30
0.0
 11
23.5060808958
 21
10.8737808087
 31
0.0
  0
LINE
  5
24A
330
1F
100
AcDbEntity
  8
0
  6
HIDDEN
 62
     7
 48
2.0
370
     0
100
AcDbLine
 10
23.5060808958
 20
10.1546653626
 30
0.0
 11
23.6593340679
 21
9.8892230657
 31
0.0
  0
ARC
  5
24B
330
1F
100
AcDbEntity
  8
0
  6
HIDDEN
 62
     7
 48
4.0
370
     0
100
AcDbCircle
 10
23.6143340679
 20
10.217165372
 30
0.0
 40
0.1869999999999958
100
AcDbArc
 50
180.0
 51
210.0
  0
ARC
  5
24C
330
1F
100
AcDbEntity
  8
0
  6
HIDDEN
 62
     7
 48
4.0
370
     0
100
AcDbCircle
 10
23.6143340679
 20
10.8112807993
 30
0.0
 40
0.1869999999999958
100
AcDbArc
 50
150.0
 51
180.0
  0
ARC
  5
24D
330
1F
100
AcDbEntity
  8
0
  6
HIDDEN
 62
     7
 48
4.0
370
     0
100
AcDbCircle
 10
23.6143340679
 20
10.217165372
 30
0.0
 40
0.1249999999999964
100
AcDbArc
 50
180.0
 51
210.0
  0
ARC
  5
24E
330
1F
100
AcDbEntity
  8
0
  6
HIDDEN
 62
     7
 48
4.0
370
     0
100
AcDbCircle
 10
23.6143340679
 20
10.8112807993
 30
0.0
 40
0.1249999999999964
100
AcDbArc
 50
150.0
 51
180.0
  0
ARC
  5
24F
330
1F
100
AcDbEntity
  8
0
  6
HIDDEN
 62
     7
 48
4.0
370
     0
100
AcDbCircle
 10
23.5060742254
 20
10.6779632431
 30
0.0
 40
0.0787401574803148
100
AcDbArc
 50
180.0
 51
270.0
  0
ARC
  5
250
330
1F
100
AcDbEntity
  8
0
  6
HIDDEN
 62
     7
 48
4.0
370
     0
100
AcDbCircle
 10
23.5060742254
 20
10.3504829282
 30
0.0
 40
0.0787401574803148
100
AcDbArc
 50
90.0
 51
180.0
  0
ARC
  5
251
330
1F
100
AcDbEntity
  8
0
  6
HIDDEN
 62
     7
 48
4.0
370
     0
100
AcDbCircle
 10
23.5060742254
 20
10.6779632431
 30
0.0
 40
0.0167401574803172
100
AcDbArc
 50
180.0
 51
270.0
  0
ARC
  5
252
330
1F
100
AcDbEntity
  8
0
  6
HIDDEN
 62
     7
 48
4.0
370
     0
100
AcDbCircle
 10
23.5060742254
 20
10.3504829282
 30
0.0
 40
0.0167401574803172
100
AcDbArc
 50
90.0
 51
180.0
  0
LINE
  5
253
330
1F
100
AcDbEntity
  8
0
  6
HIDDEN
 62
     7
 48
2.0
370
     0
100
AcDbLine
 10
23.5060742225
 20
10.3672230846
 30
0.0
 11
23.5552868198
 21
10.3672230846
 31
0.0
  0
LINE
  5
254
330
1F
100
AcDbEntity
  8
0
  6
HIDDEN
 62
     7
 48
2.0
370
     0
100
AcDbLine
 10
23.5552868198
 20
10.6612230867
 30
0.0
 11
23.5060742225
 21
10.6612230867
 31
0.0
  0
LINE
  5
255
330
1F
100
AcDbEntity
  8
0
  6
HIDDEN
 62
     7
 48
2.0
370
     0
100
AcDbLine
 10
23.5060742225
 20
10.4292230892
 30
0.0
 11
23.5552868198
 21
10.4292230892
 31
0.0
  0
LINE
  5
256
330
1F
100
AcDbEntity
  8
0
  6
HIDDEN
 62
     7
 48
2.0
370
     0
100
AcDbLine
 10
23.5552868198
 20
10.599223082
 30
0.0
 11
23.5060742225
 21
10.599223082
 31
0.0
  0
DIMENSION
  5
257
330
1F
100
AcDbEntity
  8
0
  6
Continuous
 62
     7
 48
2.0
370
     0
100
AcDbDimension
  2
*D14
 10
23.6593340679
 20
13.213396453
 30
0.0
 11
23.0343340679
 21
13.213396453
 31
0.0
 70
   160
 71
     2
 42
-1.0
  3
SLDDIMSTYLE2
100
AcDbAlignedDimension
 13
22.4093340679
 23
11.3242230856
 33
0.0
 14
23.6593340679
 24
12.5142230856
 34
0.0
100
AcDbRotatedDimension
  0
DIMENSION
  5
269
330
1F
100
AcDbEntity
  8
0
  6
Continuous
 62
     7
 48
2.0
370
     0
100
AcDbDimension
  2
*D15
 10
23.6593340679
 20
7.7268195423
 30
0.0
 11
22.9718340679
 21
7.7268195423
 31
0.0
 70
   160
 71
     2
 42
-1.0
  3
SLDDIMSTYLE2
100
AcDbAlignedDimension
 13
22.2843340679
 23
9.7042230856
 33
0.0
 14
23.6593340679
 24
8.5142230856
 34
0.0
100
AcDbRotatedDimension
  0
LINE
  5
27B
330
1F
100
AcDbEntity
  8
0
  6
Continuous
 62
     7
 48
2.0
370
    15
100
AcDbLine
 10
5.5313994603
 20
10.7007230895
 30
0.0
 11
5.4980680854
 21
10.7007230895
 31
0.0
  0
LINE
  5
27C
330
1F
100
AcDbEntity
  8
0
  6
Continuous
 62
     7
 48
2.0
370
    15
100
AcDbLine
 10
5.4980680854
 20
10.3277230818
 30
0.0
 11
5.5313994603
 21
10.3277230818
 31
0.0
  0
ARC
  5
27D
330
1F
100
AcDbEntity
  8
0
  6
Continuous
 62
     7
 48
4.0
370
    15
100
AcDbCircle
 10
5.5313993831
 20
10.6857230856
 30
0.0
 40
0.0150000000000006
100
AcDbArc
 50
52.550643686
 51
90.0
  0
ARC
  5
27E
330
1F
100
AcDbEntity
  8
0
  6
Continuous
 62
     7
 48
4.0
370
    15
100
AcDbCircle
 10
5.5313993831
 20
10.3427230856
 30
0.0
 40
0.0150000000000005
100
AcDbArc
 50
270.0
 51
307.449356314
  0
ARC
  5
27F
330
1F
100
AcDbEntity
  8
0
  6
Continuous
 62
     7
 48
4.0
370
    15
100
AcDbCircle
 10
5.4000434842
 20
10.5142230856
 30
0.0
 40
0.2310245869783036
100
AcDbArc
 50
10.1818657166
 51
52.550643686
  0
ARC
  5
280
330
1F
100
AcDbEntity
  8
0
  6
Continuous
 62
     7
 48
4.0
370
    15
100
AcDbCircle
 10
5.4000434842
 20
10.5142230856
 30
0.0
 40
0.2310245869783039
100
AcDbArc
 50
307.449356314
 51
349.8181342834
  0
ARC
  5
281
330
1F
100
AcDbEntity
  8
0
  6
Continuous
 62
     7
 48
4.0
370
    15
100
AcDbCircle
 10
5.4825127991
 20
10.5383310101
 30
0.0
 40
0.1503261259982799
100
AcDbArc
 50
306.5392880932
 51
343.4908565051
  0
LINE
  5
282
330
1F
100
AcDbEntity
  8
0
  6
Continuous
 62
     7
 48
2.0
370
    15
100
AcDbLine
 10
5.5720130445
 20
10.3954672109
 30
0.0
 11
5.5720130445
 21
10.4175516649
 31
0.0
  0
ARC
  5
283
330
1F
100
AcDbEntity
  8
0
  6
Continuous
 62
     7
 48
4.0
370
    15
100
AcDbCircle
 10
5.4825128498
 20
10.5162465225
 30
0.0
 40
0.1503260688271739
100
AcDbArc
 50
306.5392801931
 51
343.4908620348
  0
ARC
  5
284
330
1F
100
AcDbEntity
  8
0
  6
Continuous
 62
     7
 48
4.0
370
    15
100
AcDbCircle
 10
5.6267915555
 20
10.472124542
 30
0.0
 40
0.0014120635210069
100
AcDbArc
 50
63.1274975259
 51
96.0944430109
  0
ARC
  5
285
330
1F
100
AcDbEntity
  8
0
  6
Continuous
 62
     7
 48
4.0
370
    15
100
AcDbCircle
 10
5.4001140656
 20
10.5139115674
 30
0.0
 40
0.2273159655586733
100
AcDbArc
 50
349.6519619187
 51
0.0785267625
  0
LWPOLYLINE
  5
286
330
1F
100
AcDbEntity
  8
0
  6
Continuous
 62
     7
 48
2.0
370
    15
100
AcDbPolyline
 90
        9
 70
   128
 43
0.0
 10
5.6266416401
 20
10.5549175464
 10
5.6271423543
 20
10.5549737924
 10
5.6273957914
 20
10.5550301301
 10
5.6274022446
 20
10.5550865044
 10
5.6271611274
 20
10.5551428467
 10
5.6266730264
 20
10.5551990973
 10
5.6259382349
 20
10.5552552012
 10
5.6249579262
 20
10.5553110897
 10
5.623732687
 20
10.5553667033
  0
ARC
  5
287
330
1F
100
AcDbEntity
  8
0
  6
Continuous
 62
     7
 48
4.0
370
    15
100
AcDbCircle
 10
5.4000659181
 20
10.5145304375
 30
0.0
 40
0.2273640782956103
100
AcDbArc
 50
355.2273063444
 51
10.3468914668
  0
LINE
  5
288
330
1F
100
AcDbEntity
  8
0
  6
Continuous
 62
     7
 48
2.0
370
    15
100
AcDbLine
 10
5.6266416401
 20
10.4735286249
 30
0.0
 11
5.6184401348
 21
10.4735286249
 31
0.0
  0
LINE
  5
289
330
1F
100
AcDbEntity
  8
0
  6
Continuous
 62
     7
 48
2.0
370
    15
100
AcDbLine
 10
5.6266416401
 20
10.5549175464
 30
0.0
 11
5.6238142327
 21
10.5549175464
 31
0.0
  0
LINE
  5
28A
330
1F
100
AcDbEntity
  8
0
  6
Continuous
 62
     7
 48
2.0
370
    15
100
AcDbLine
 10
5.4980680854
 20
12.5142230615
 30
0.0
 11
5.4980680854
 21
8.5142231098
 31
0.0
  0
LINE
  5
28B
330
1F
100
AcDbEntity
  8
0
  6
Continuous
 62
     7
 48
2.0
370
    15
100
AcDbLine
 10
5.4360681083
 20
12.5142230615
 30
0.0
 11
5.4980680854
 21
12.5142230615
 31
0.0
  0
LINE
  5
28C
330
1F
100
AcDbEntity
  8
0
  6
Continuous
 62
     7
 48
2.0
370
    15
100
AcDbLine
 10
5.4360681083
 20
8.5142231098
 30
0.0
 11
5.4980680854
 21
8.5142231098
 31
0.0
  0
LINE
  5
28D
330
1F
100
AcDbEntity
  8
0
  6
Continuous
 62
     7
 48
2.0
370
    15
100
AcDbLine
 10
5.4360681083
 20
12.5142230615
 30
0.0
 11
5.4360681083
 21
8.5142231098
 31
0.0
  0
LINE
  5
28E
330
1F
100
AcDbEntity
  8
0
  6
Continuous
 62
     7
 48
2.0
370
    15
100
AcDbLine
 10
2.4360680712
 20
12.5142230615
 30
0.0
 11
2.4360680712
 21
8.5142231098
 31
0.0
  0
LINE
  5
28F
330
1F
100
AcDbEntity
  8
0
  6
Continuous
 62
     7
 48
2.0
370
    15
100
AcDbLine
 10
2.4360680712
 20
8.5142231098
 30
0.0
 11
2.5130680708
 21
8.5142231098
 31
0.0
  0
LINE
  5
290
330
1F
100
AcDbEntity
  8
0
  6
Continuous
 62
     7
 48
2.0
370
    15
100
AcDbLine
 10
2.4360680712
 20
12.5142230615
 30
0.0
 11
2.5130680708
 21
12.5142230615
 31
0.0
  0
ARC
  5
291
330
1F
100
AcDbEntity
  8
0
  6
Continuous
 62
     7
 48
4.0
370
    15
100
AcDbCircle
 10
3.1235680712
 20
9.7042230856
 30
0.0
 40
0.0625000000000008
100
AcDbArc
 50
272.6052512651
 51
87.3947487349
  0
ARC
  5
292
330
1F
100
AcDbEntity
  8
0
  6
Continuous
 62
     7
 48
4.0
370
    15
100
AcDbCircle
 10
3.8110680712
 20
9.7042230856
 30
0.0
 40
0.6875000000000009
100
AcDbArc
 50
185.2105025301
 51
354.7894974699
  0
ARC
  5
293
330
1F
100
AcDbEntity
  8
0
  6
Continuous
 62
     7
 48
4.0
370
    15
100
AcDbCircle
 10
4.4985680712
 20
9.7042230856
 30
0.0
 40
0.0625000000000008
100
AcDbArc
 50
92.6052512651
 51
267.3947487349
  0
ARC
  5
294
330
1F
100
AcDbEntity
  8
0
  6
Continuous
 62
     7
 48
4.0
370
    15
100
AcDbCircle
 10
3.8110680712
 20
9.7042230856
 30
0.0
 40
0.6875000000000008
100
AcDbArc
 50
5.2105025301
 51
174.7894974699
  0
LINE
  5
295
330
1F
100
AcDbEntity
  8
0
  6
Continuous
 62
     7
 48
2.0
370
    15
100
AcDbLine
 10
2.5130680708
 20
12.5142230615
 30
0.0
 11
5.3590681178
 21
12.5142230615
 31
0.0
  0
LINE
  5
296
330
1F
100
AcDbEntity
  8
0
  6
Continuous
 62
     7
 48
2.0
370
    15
100
AcDbLine
 10
2.5130680708
 20
8.5142231098
 30
0.0
 11
5.3590681178
 21
8.5142231098
 31
0.0
  0
ARC
  5
297
330
1F
100
AcDbEntity
  8
0
  6
Continuous
 62
     7
 48
4.0
370
    15
100
AcDbCircle
 10
3.1315680712
 20
11.3242230856
 30
0.0
 40
0.0625000000000018
100
AcDbArc
 50
273.2307344826
 51
86.7692655174
  0
ARC
  5
298
330
1F
100
AcDbEntity
  8
0
  6
Continuous
 62
     7
 48
4.0
370
    15
100
AcDbCircle
 10
3.6860680712
 20
11.3242230856
 30
0.0
 40
0.5545000000000001
100
AcDbArc
 50
186.4614689651
 51
353.5385310349
  0
ARC
  5
299
330
1F
100
AcDbEntity
  8
0
  6
Continuous
 62
     7
 48
4.0
370
    15
100
AcDbCircle
 10
4.2405680712
 20
11.3242230856
 30
0.0
 40
0.0625000000000018
100
AcDbArc
 50
93.2307344826
 51
266.7692655174
  0
ARC
  5
29A
330
1F
100
AcDbEntity
  8
0
  6
Continuous
 62
     7
 48
4.0
370
    15
100
AcDbCircle
 10
3.6860680712
 20
11.3242230856
 30
0.0
 40
0.5545
100
AcDbArc
 50
6.4614689651
 51
173.5385310349
  0
ARC
  5
29B
330
1F
100
AcDbEntity
  8
0
  6
Continuous
 62
     7
 48
4.0
370
    15
100
AcDbCircle
 10
3.6860680712
 20
11.3242230856
 30
0.0
 40
0.4374999999999993
100
AcDbArc
 50
98.1920875163
 51
81.8079124837
  0
ARC
  5
29C
330
1F
100
AcDbEntity
  8
0
  6
Continuous
 62
     7
 48
4.0
370
    15
100
AcDbCircle
 10
3.6860680712
 20
11.7617230856
 30
0.0
 40
0.0625000000000001
100
AcDbArc
 50
184.0960437582
 51
355.9039562418
  0
ARC
  5
29D
330
1F
100
AcDbEntity
  8
0
  6
Continuous
 62
     7
 48
4.0
370
    15
100
AcDbCircle
 10
3.8110680712
 20
9.7042230856
 30
0.0
 40
0.5544999999999991
100
AcDbArc
 50
96.4614689651
 51
83.5385310349
  0
ARC
  5
29E
330
1F
100
AcDbEntity
  8
0
  6
Continuous
 62
     7
 48
4.0
370
    15
100
AcDbCircle
 10
3.8110680712
 20
10.2587230856
 30
0.0
 40
0.0625000000000004
100
AcDbArc
 50
183.2307344826
 51
356.7692655174
  0
LINE
  5
29F
330
1F
100
AcDbEntity
  8
0
  6
Continuous
 62
     7
 48
2.0
370
    15
100
AcDbLine
 10
5.3590681178
 20
12.5142230615
 30
0.0
 11
5.4360681083
 21
12.5142230615
 31
0.0
  0
LINE
  5
2A0
330
1F
100
AcDbEntity
  8
0
  6
Continuous
 62
     7
 48
2.0
370
    15
100
AcDbLine
 10
5.3590681178
 20
8.5142231098
 30
0.0
 11
5.4360681083
 21
8.5142231098
 31
0.0
  0
DIMENSION
  5
2A1
330
1F
100
AcDbEntity
  8
0
  6
Continuous
 62
     7
 48
2.0
370
     0
100
AcDbDimension
  2
*D16
 10
2.4360680712
 20
13.27704198
 30
0.0
 11
3.0610680712
 21
13.27704198
 31
0.0
 70
   160
 71
     2
 42
-1.0
  3
SLDDIMSTYLE2
100
AcDbAlignedDimension
 13
3.6860680712
 23
11.3242230856
 33
0.0
 14
2.4360680712
 24
12.5142230856
 34
0.0
100
AcDbRotatedDimension
  0
DIMENSION
  5
2B3
330
1F
100
AcDbEntity
  8
0
  6
Continuous
 62
     7
 48
2.0
370
     0
100
AcDbDimension
  2
*D17
 10
3.8110680712
 20
7.7268195423
 30
0.0
 11
3.1235680712
 21
7.7268195423
 31
0.0
 70
   160
 71
     2
 42
-1.0
  3
SLDDIMSTYLE2
100
AcDbAlignedDimension
 13
2.4360680712
 23
8.5142230856
 33
0.0
 14
3.8110680712
 24
9.7042230856
 34
0.0
100
AcDbRotatedDimension
  0
DIMENSION
  5
2C5
330
1F
100
AcDbEntity
  8
0
  6
Continuous
 62
     7
 48
2.0
370
     0
100
AcDbDimension
  2
*D18
 10
1.8441721733
 20
9.7042230856
 30
0.0
 11
1.8441721733
 21
10.5142230856
 31
0.0
 70
   160
 71
     2
 42
-1.0
  3
SLDDIMSTYLE3
100
AcDbAlignedDimension
 13
3.6860680712
 23
11.3242230856
 33
0.0
 14
3.8110680712
 24
9.7042230856
 34
0.0
 50
90.0
100
AcDbRotatedDimension
  0
LINE
  5
2D8
330
1F
100
AcDbEntity
  8
0
  6
Continuous
 62
     7
 48
2.0
370
    15
100
AcDbLine
 10
7.6986613888
 20
6.5275823344
 30
0.0
 11
7.6986613888
 21
6.4942509594
 31
0.0
  0
LINE
  5
2D9
330
1F
100
AcDbEntity
  8
0
  6
Continuous
 62
     7
 48
2.0
370
    15
100
AcDbLine
 10
8.0716615066
 20
6.4942509594
 30
0.0
 11
8.0716615066
 21
6.5275823344
 31
0.0
  0
ARC
  5
2DA
330
1F
100
AcDbEntity
  8
0
  6
Continuous
 62
     7
 48
4.0
370
    15
100
AcDbCircle
 10
7.7136614449
 20
6.5275822572
 30
0.0
 40
0.0149999999999997
100
AcDbArc
 50
142.550643686
 51
180.0
  0
ARC
  5
2DB
330
1F
100
AcDbEntity
  8
0
  6
Continuous
 62
     7
 48
4.0
370
    15
100
AcDbCircle
 10
8.0566614449
 20
6.5275822572
 30
0.0
 40
0.0150000000000006
100
AcDbArc
 50
0.0
 51
37.449356314
  0
ARC
  5
2DC
330
1F
100
AcDbEntity
  8
0
  6
Continuous
 62
     7
 48
4.0
370
    15
100
AcDbCircle
 10
7.8851614449
 20
6.3962263583
 30
0.0
 40
0.2310245869783032
100
AcDbArc
 50
100.1818657166
 51
142.550643686
  0
ARC
  5
2DD
330
1F
100
AcDbEntity
  8
0
  6
Continuous
 62
     7
 48
4.0
370
    15
100
AcDbCircle
 10
7.8851614449
 20
6.3962263583
 30
0.0
 40
0.2310245869783032
100
AcDbArc
 50
37.449356314
 51
79.8181342834
  0
LINE
  5
2DE
330
1F
100
AcDbEntity
  8
0
  6
Continuous
 62
     7
 48
2.0
370
    15
100
AcDbLine
 10
7.8161614448
 20
6.3702510052
 30
0.0
 11
7.8161614448
 21
6.2932510147
 31
0.0
  0
LINE
  5
2DF
330
1F
100
AcDbEntity
  8
0
  6
Continuous
 62
     7
 48
2.0
370
    15
100
AcDbLine
 10
7.9541614506
 20
6.2932510147
 30
0.0
 11
7.9541614506
 21
6.3702510052
 31
0.0
  0
LINE
  5
2E0
330
1F
100
AcDbEntity
  8
0
  6
Continuous
 62
     7
 48
2.0
370
    15
100
AcDbLine
 10
11.1986613832
 20
6.5275823344
 30
0.0
 11
11.1986613832
 21
6.4942509594
 31
0.0
  0
LINE
  5
2E1
330
1F
100
AcDbEntity
  8
0
  6
Continuous
 62
     7
 48
2.0
370
    15
100
AcDbLine
 10
11.571661501
 20
6.4942509594
 30
0.0
 11
11.571661501
 21
6.5275823344
 31
0.0
  0
ARC
  5
2E2
330
1F
100
AcDbEntity
  8
0
  6
Continuous
 62
     7
 48
4.0
370
    15
100
AcDbCircle
 10
11.2136614449
 20
6.5275822572
 30
0.0
 40
0.0150000000000011
100
AcDbArc
 50
142.550643686
 51
180.0
  0
ARC
  5
2E3
330
1F
100
AcDbEntity
  8
0
  6
Continuous
 62
     7
 48
4.0
370
    15
100
AcDbCircle
 10
11.5566614449
 20
6.5275822572
 30
0.0
 40
0.0150000000000011
100
AcDbArc
 50
0.0
 51
37.449356314
  0
ARC
  5
2E4
330
1F
100
AcDbEntity
  8
0
  6
Continuous
 62
     7
 48
4.0
370
    15
100
AcDbCircle
 10
11.3851614449
 20
6.3962263583
 30
0.0
 40
0.2310245869783046
100
AcDbArc
 50
100.1818657166
 51
142.550643686
  0
ARC
  5
2E5
330
1F
100
AcDbEntity
  8
0
  6
Continuous
 62
     7
 48
4.0
370
    15
100
AcDbCircle
 10
11.3851614449
 20
6.3962263583
 30
0.0
 40
0.2310245869783032
100
AcDbArc
 50
37.449356314
 51
79.8181342834
  0
LINE
  5
2E6
330
1F
100
AcDbEntity
  8
0
  6
Continuous
 62
     7
 48
2.0
370
    15
100
AcDbLine
 10
11.3161614392
 20
6.3702510052
 30
0.0
 11
11.3161614392
 21
6.2932510147
 31
0.0
  0
LINE
  5
2E7
330
1F
100
AcDbEntity
  8
0
  6
Continuous
 62
     7
 48
2.0
370
    15
100
AcDbLine
 10
11.454161445
 20
6.2932510147
 30
0.0
 11
11.454161445
 21
6.3702510052
 31
0.0
  0
LINE
  5
2E8
330
1F
100
AcDbEntity
  8
0
  6
Continuous
 62
     7
 48
2.0
370
    15
100
AcDbLine
 10
8.1661614149
 20
6.2932510147
 30
0.0
 11
7.7741614367
 21
6.2932510147
 31
0.0
  0
LINE
  5
2E9
330
1F
100
AcDbEntity
  8
0
  6
Continuous
 62
     7
 48
2.0
370
    15
100
AcDbLine
 10
8.1661614149
 20
6.3552509918
 30
0.0
 11
8.1661614149
 21
6.2932510147
 31
0.0
  0
LINE
  5
2EA
330
1F
100
AcDbEntity
  8
0
  6
Continuous
 62
     7
 48
2.0
370
    15
100
AcDbLine
 10
11.1041614749
 20
6.3552509918
 30
0.0
 11
11.1041614749
 21
6.2932510147
 31
0.0
  0
LINE
  5
2EB
330
1F
100
AcDbEntity
  8
0
  6
Continuous
 62
     7
 48
2.0
370
    15
100
AcDbLine
 10
11.1041614749
 20
6.2932510147
 30
0.0
 11
11.4961614531
 21
6.2932510147
 31
0.0
  0
ARC
  5
2EC
330
1F
100
AcDbEntity
  8
0
  6
Continuous
 62
     7
 48
4.0
370
    15
100
AcDbCircle
 10
10.4451614449
 20
4.6822509452
 30
0.0
 40
0.5545
100
AcDbArc
 50
96.4614689651
 51
263.5385310349
  0
ARC
  5
2ED
330
1F
100
AcDbEntity
  8
0
  6
Continuous
 62
     7
 48
4.0
370
    15
100
AcDbCircle
 10
10.4451614449
 20
4.1277509452
 30
0.0
 40
0.0625
100
AcDbArc
 50
3.2307344826
 51
176.7692655174
  0
ARC
  5
2EE
330
1F
100
AcDbEntity
  8
0
  6
Continuous
 62
     7
 48
4.0
370
    15
100
AcDbCircle
 10
10.4451614449
 20
4.6822509452
 30
0.0
 40
0.5545
100
AcDbArc
 50
276.4614689651
 51
83.5385310349
  0
ARC
  5
2EF
330
1F
100
AcDbEntity
  8
0
  6
Continuous
 62
     7
 48
4.0
370
    15
100
AcDbCircle
 10
10.4451614449
 20
5.2367509452
 30
0.0
 40
0.0625
100
AcDbArc
 50
183.2307344826
 51
356.7692655174
  0
ARC
  5
2F0
330
1F
100
AcDbEntity
  8
0
  6
Continuous
 62
     7
 48
4.0
370
    15
100
AcDbCircle
 10
8.8251614449
 20
4.8072509452
 30
0.0
 40
0.6875000000000008
100
AcDbArc
 50
95.2105025301
 51
264.7894974699
  0
ARC
  5
2F1
330
1F
100
AcDbEntity
  8
0
  6
Continuous
 62
     7
 48
4.0
370
    15
100
AcDbCircle
 10
8.8251614449
 20
4.1197509452
 30
0.0
 40
0.0625000000000008
100
AcDbArc
 50
2.6052512651
 51
177.3947487349
  0
ARC
  5
2F2
330
1F
100
AcDbEntity
  8
0
  6
Continuous
 62
     7
 48
4.0
370
    15
100
AcDbCircle
 10
8.8251614449
 20
4.8072509452
 30
0.0
 40
0.6875000000000009
100
AcDbArc
 50
275.2105025301
 51
84.7894974699
  0
ARC
  5
2F3
330
1F
100
AcDbEntity
  8
0
  6
Continuous
 62
     7
 48
4.0
370
    15
100
AcDbCircle
 10
8.8251614449
 20
5.4947509452
 30
0.0
 40
0.0625000000000008
100
AcDbArc
 50
182.6052512651
 51
357.3947487349
  0
LINE
  5
2F4
330
1F
100
AcDbEntity
  8
0
  6
Continuous
 62
     7
 48
2.0
370
    15
100
AcDbLine
 10
8.1661614149
 20
6.3552509918
 30
0.0
 11
8.1661614149
 21
6.4322509823
 31
0.0
  0
LINE
  5
2F5
330
1F
100
AcDbEntity
  8
0
  6
Continuous
 62
     7
 48
2.0
370
    15
100
AcDbLine
 10
11.1041614749
 20
6.3552509918
 30
0.0
 11
11.1041614749
 21
6.4322509823
 31
0.0
  0
LINE
  5
2F6
330
1F
100
AcDbEntity
  8
0
  6
Continuous
 62
     7
 48
2.0
370
    15
100
AcDbLine
 10
7.7741614367
 20
3.5712509495
 30
0.0
 11
7.6971614462
 21
3.5712509495
 31
0.0
  0
LINE
  5
2F7
330
1F
100
AcDbEntity
  8
0
  6
Continuous
 62
     7
 48
2.0
370
    15
100
AcDbLine
 10
7.6971614462
 20
6.2932510147
 30
0.0
 11
7.7741614367
 21
6.2932510147
 31
0.0
  0
ARC
  5
2F8
330
1F
100
AcDbEntity
  8
0
  6
Continuous
 62
     7
 48
4.0
370
    15
100
AcDbCircle
 10
10.4451614449
 20
4.6822509452
 30
0.0
 40
0.4375000000000028
100
AcDbArc
 50
8.1920875163
 51
351.8079124837
  0
ARC
  5
2F9
330
1F
100
AcDbEntity
  8
0
  6
Continuous
 62
     7
 48
4.0
370
    15
100
AcDbCircle
 10
10.8826614449
 20
4.6822509452
 30
0.0
 40
0.0625000000000005
100
AcDbArc
 50
94.0960437582
 51
265.9039562418
  0
LINE
  5
2FA
330
1F
100
AcDbEntity
  8
0
  6
Continuous
 62
     7
 48
2.0
370
    15
100
AcDbLine
 10
11.4961614531
 20
3.5712509495
 30
0.0
 11
11.5731614436
 21
3.5712509495
 31
0.0
  0
LINE
  5
2FB
330
1F
100
AcDbEntity
  8
0
  6
Continuous
 62
     7
 48
2.0
370
    15
100
AcDbLine
 10
11.5731614436
 20
6.2932510147
 30
0.0
 11
11.4961614531
 21
6.2932510147
 31
0.0
  0
ARC
  5
2FC
330
1F
100
AcDbEntity
  8
0
  6
Continuous
 62
     7
 48
4.0
370
    15
100
AcDbCircle
 10
9.3796614449
 20
4.8072509452
 30
0.0
 40
0.0625000000000009
100
AcDbArc
 50
93.2307344826
 51
266.7692655174
  0
ARC
  5
2FD
330
1F
100
AcDbEntity
  8
0
  6
Continuous
 62
     7
 48
4.0
370
    15
100
AcDbCircle
 10
8.8251614449
 20
4.8072509452
 30
0.0
 40
0.554500000000001
100
AcDbArc
 50
6.4614689651
 51
353.5385310349
  0
LINE
  5
2FE
330
1F
100
AcDbEntity
  8
0
  6
Continuous
 62
     7
 48
2.0
370
    15
100
AcDbLine
 10
7.7741614367
 20
3.4942509453
 30
0.0
 11
7.7741614367
 21
3.5712509495
 31
0.0
  0
LINE
  5
2FF
330
1F
100
AcDbEntity
  8
0
  6
Continuous
 62
     7
 48
2.0
370
    15
100
AcDbLine
 10
11.4961614531
 20
3.4942509453
 30
0.0
 11
11.4961614531
 21
3.5712509495
 31
0.0
  0
ARC
  5
300
330
1F
100
AcDbEntity
  8
0
  6
Continuous
 62
     7
 48
4.0
370
    15
100
AcDbCircle
 10
7.8867738241
 20
6.4762523674
 30
0.0
 40
0.1526349019396963
100
AcDbArc
 50
106.2029407286
 51
142.9597674657
  0
LINE
  5
301
330
1F
100
AcDbEntity
  8
0
  6
Continuous
 62
     7
 48
2.0
370
    15
100
AcDbLine
 10
7.7866936652
 20
6.5681959185
 30
0.0
 11
7.7649387032
 21
6.5681959185
 31
0.0
  0
ARC
  5
302
330
1F
100
AcDbEntity
  8
0
  6
Continuous
 62
     7
 48
4.0
370
    15
100
AcDbCircle
 10
7.9085284981
 20
6.4762527853
 30
0.0
 40
0.1526344202281766
100
AcDbArc
 50
106.202880652
 51
142.9598275424
  0
ARC
  5
303
330
1F
100
AcDbEntity
  8
0
  6
Continuous
 62
     7
 48
4.0
370
    15
100
AcDbCircle
 10
7.8848548415
 20
6.3962483605
 30
0.0
 40
0.2273645087812297
100
AcDbArc
 50
79.6531200751
 51
94.7726854221
  0
ARC
  5
304
330
1F
100
AcDbEntity
  8
0
  6
Continuous
 62
     7
 48
4.0
370
    15
100
AcDbCircle
 10
7.9421149595
 20
6.6204029846
 30
0.0
 40
0.0164310512363999
100
AcDbArc
 50
168.735180805
 51
181.6999160913
  0
ARC
  5
305
330
1F
100
AcDbEntity
  8
0
  6
Continuous
 62
     7
 48
4.0
370
    15
100
AcDbCircle
 10
7.8854675161
 20
6.3962353141
 30
0.0
 40
0.2273775546859676
100
AcDbArc
 50
85.2274530469
 51
90.0715071858
  0
ARC
  5
306
330
1F
100
AcDbEntity
  8
0
  6
Continuous
 62
     7
 48
4.0
370
    15
100
AcDbCircle
 10
7.8854553428
 20
6.3963407865
 30
0.0
 40
0.2272713027576311
100
AcDbArc
 50
95.0013641167
 51
100.3479125235
  0
LWPOLYLINE
  5
307
330
1F
100
AcDbEntity
  8
0
  6
Continuous
 62
     7
 48
2.0
370
    15
100
AcDbPolyline
 90
        9
 70
   128
 43
0.0
 10
7.8446317559
 20
6.6199155611
 10
7.8445761699
 20
6.6211408002
 10
7.8445202905
 20
6.6221211089
 10
7.8444641179
 20
6.6228559004
 10
7.8444079452
 20
6.6233440015
 10
7.8443514792
 20
6.6235851187
 10
7.8442951598
 20
6.6235786654
 10
7.8442388405
 20
6.6233252283
 10
7.8441825211
 20
6.6228245141
  0
LINE
  5
308
330
1F
100
AcDbEntity
  8
0
  6
Continuous
 62
     7
 48
2.0
370
    15
100
AcDbLine
 10
7.8441825211
 20
6.6149354053
 30
0.0
 11
7.8441825211
 21
6.6228245141
 31
0.0
  0
LINE
  5
309
330
1F
100
AcDbEntity
  8
0
  6
Continuous
 62
     7
 48
2.0
370
    15
100
AcDbLine
 10
7.8446317559
 20
6.6151442562
 30
0.0
 11
7.8446317559
 21
6.6199155611
 31
0.0
  0
LINE
  5
30A
330
1F
100
AcDbEntity
  8
0
  6
Continuous
 62
     7
 48
2.0
370
    15
100
AcDbLine
 10
7.9043854123
 20
6.6228245141
 30
0.0
 11
7.9043854123
 21
6.6227725947
 31
0.0
  0
ARC
  5
30B
330
1F
100
AcDbEntity
  8
0
  6
Continuous
 62
     7
 48
4.0
370
    15
100
AcDbCircle
 10
11.3282079303
 20
6.6204029846
 30
0.0
 40
0.0164310512366798
100
AcDbArc
 50
358.3000839089
 51
11.2648191949
  0
ARC
  5
30C
330
1F
100
AcDbEntity
  8
0
  6
Continuous
 62
     7
 48
4.0
370
    15
100
AcDbCircle
 10
11.3854680483
 20
6.3962483605
 30
0.0
 40
0.2273645087812288
100
AcDbArc
 50
85.2273145779
 51
100.3468799249
  0
ARC
  5
30D
330
1F
100
AcDbEntity
  8
0
  6
Continuous
 62
     7
 48
4.0
370
    15
100
AcDbCircle
 10
11.3617943917
 20
6.4762527853
 30
0.0
 40
0.1526344202281835
100
AcDbArc
 50
37.0401724576
 51
73.797119348
  0
LINE
  5
30E
330
1F
100
AcDbEntity
  8
0
  6
Continuous
 62
     7
 48
2.0
370
    15
100
AcDbLine
 10
11.5053841866
 20
6.5681959185
 30
0.0
 11
11.4836292246
 21
6.5681959185
 31
0.0
  0
ARC
  5
30F
330
1F
100
AcDbEntity
  8
0
  6
Continuous
 62
     7
 48
4.0
370
    15
100
AcDbCircle
 10
11.3835490656
 20
6.4762523674
 30
0.0
 40
0.1526349019396901
100
AcDbArc
 50
37.0402325343
 51
73.7970592714
  0
LWPOLYLINE
  5
310
330
1F
100
AcDbEntity
  8
0
  6
Continuous
 62
     7
 48
2.0
370
    15
100
AcDbPolyline
 90
        9
 70
   128
 43
0.0
 10
11.4261403687
 20
6.6228245141
 10
11.4260840493
 20
6.6233252283
 10
11.42602773
 20
6.6235786654
 10
11.4259714106
 20
6.6235851187
 10
11.4259149446
 20
6.6233440015
 10
11.4258587719
 20
6.6228559004
 10
11.4258025993
 20
6.6221211089
 10
11.4257467199
 20
6.6211408002
 10
11.4256911339
 20
6.6199155611
  0
ARC
  5
311
330
1F
100
AcDbEntity
  8
0
  6
Continuous
 62
     7
 48
4.0
370
    15
100
AcDbCircle
 10
11.384867547
 20
6.3963407865
 30
0.0
 40
0.2272713027571555
100
AcDbArc
 50
79.6520874764
 51
84.9986358833
  0
ARC
  5
312
330
1F
100
AcDbEntity
  8
0
  6
Continuous
 62
     7
 48
4.0
370
    15
100
AcDbCircle
 10
11.384859766
 20
6.3961552399
 30
0.0
 40
0.2274577166775177
100
AcDbArc
 50
89.9125560962
 51
94.7719713319
  0
LINE
  5
313
330
1F
100
AcDbEntity
  8
0
  6
Continuous
 62
     7
 48
2.0
370
    15
100
AcDbLine
 10
11.4261403687
 20
6.6228245141
 30
0.0
 11
11.4261403687
 21
6.6149354053
 31
0.0
  0
LINE
  5
314
330
1F
100
AcDbEntity
  8
0
  6
Continuous
 62
     7
 48
2.0
370
    15
100
AcDbLine
 10
11.4256911339
 20
6.6151442562
 30
0.0
 11
11.4256911339
 21
6.6199155611
 31
0.0
  0
LINE
  5
315
330
1F
100
AcDbEntity
  8
0
  6
Continuous
 62
     7
 48
2.0
370
    15
100
AcDbLine
 10
11.3659374775
 20
6.6227725947
 30
0.0
 11
11.3659374775
 21
6.6228245141
 31
0.0
  0
LINE
  5
316
330
1F
100
AcDbEntity
  8
0
  6
Continuous
 62
     7
 48
2.0
370
    15
100
AcDbLine
 10
7.6351614691
 20
6.4942509594
 30
0.0
 11
11.6351614207
 21
6.4942509594
 31
0.0
  0
LINE
  5
317
330
1F
100
AcDbEntity
  8
0
  6
Continuous
 62
     7
 48
2.0
370
    15
100
AcDbLine
 10
11.6351614207
 20
6.4322509823
 30
0.0
 11
11.6351614207
 21
6.4942509594
 31
0.0
  0
LINE
  5
318
330
1F
100
AcDbEntity
  8
0
  6
Continuous
 62
     7
 48
2.0
370
    15
100
AcDbLine
 10
7.6351614691
 20
6.4322509823
 30
0.0
 11
11.6351614207
 21
6.4322509823
 31
0.0
  0
LINE
  5
319
330
1F
100
AcDbEntity
  8
0
  6
Continuous
 62
     7
 48
2.0
370
    15
100
AcDbLine
 10
7.6351614691
 20
6.4322509823
 30
0.0
 11
7.6351614691
 21
6.4942509594
 31
0.0
  0
LINE
  5
31A
330
1F
100
AcDbEntity
  8
0
  6
Continuous
 62
     7
 48
2.0
370
    15
100
AcDbLine
 10
11.5581614302
 20
3.4942509453
 30
0.0
 11
7.7121614596
 21
3.4942509453
 31
0.0
  0
LINE
  5
31B
330
1F
100
AcDbEntity
  8
0
  6
Continuous
 62
     7
 48
2.0
370
    15
100
AcDbLine
 10
11.5581614302
 20
3.4322509452
 30
0.0
 11
7.7121614596
 21
3.4322509452
 31
0.0
  0
ARC
  5
31C
330
1F
100
AcDbEntity
  8
0
  6
Continuous
 62
     7
 48
4.0
370
    15
100
AcDbCircle
 10
11.5581614449
 20
3.5092509452
 30
0.0
 40
0.0150000000000006
100
AcDbArc
 50
270.0
 51
0.0
  0
ARC
  5
31D
330
1F
100
AcDbEntity
  8
0
  6
Continuous
 62
     7
 48
4.0
370
    15
100
AcDbCircle
 10
11.5581614449
 20
3.5092509452
 30
0.0
 40
0.0770000000000017
100
AcDbArc
 50
270.0
 51
0.0
  0
ARC
  5
31E
330
1F
100
AcDbEntity
  8
0
  6
Continuous
 62
     7
 48
4.0
370
    15
100
AcDbCircle
 10
7.7121614449
 20
3.5092509452
 30
0.0
 40
0.0149999999999997
100
AcDbArc
 50
180.0
 51
270.0
  0
ARC
  5
31F
330
1F
100
AcDbEntity
  8
0
  6
Continuous
 62
     7
 48
4.0
370
    15
100
AcDbCircle
 10
7.7121614449
 20
3.5092509452
 30
0.0
 40
0.0770000000000008
100
AcDbArc
 50
180.0
 51
270.0
  0
LINE
  5
320
330
1F
100
AcDbEntity
  8
0
  6
Continuous
 62
     7
 48
2.0
370
    15
100
AcDbLine
 10
11.6351614207
 20
6.3552509918
 30
0.0
 11
11.6351614207
 21
3.5092509449
 31
0.0
  0
LINE
  5
321
330
1F
100
AcDbEntity
  8
0
  6
Continuous
 62
     7
 48
2.0
370
    15
100
AcDbLine
 10
11.5731614436
 20
6.3552509918
 30
0.0
 11
11.5731614436
 21
3.5092509449
 31
0.0
  0
LINE
  5
322
330
1F
100
AcDbEntity
  8
0
  6
Continuous
 62
     7
 48
2.0
370
    15
100
AcDbLine
 10
7.6971614462
 20
3.5092509449
 30
0.0
 11
7.6971614462
 21
6.3552509918
 31
0.0
  0
LINE
  5
323
330
1F
100
AcDbEntity
  8
0
  6
Continuous
 62
     7
 48
2.0
370
    15
100
AcDbLine
 10
7.6351614691
 20
3.5092509449
 30
0.0
 11
7.6351614691
 21
6.3552509918
 31
0.0
  0
ARC
  5
324
330
1F
100
AcDbEntity
  8
0
  6
Continuous
 62
     7
 48
4.0
370
    15
100
AcDbCircle
 10
7.7121614449
 20
6.3552509452
 30
0.0
 40
0.0149999999999997
100
AcDbArc
 50
90.0
 51
180.0
  0
ARC
  5
325
330
1F
100
AcDbEntity
  8
0
  6
Continuous
 62
     7
 48
4.0
370
    15
100
AcDbCircle
 10
7.7121614449
 20
6.3552509452
 30
0.0
 40
0.0770000000000008
100
AcDbArc
 50
90.0
 51
180.0
  0
ARC
  5
326
330
1F
100
AcDbEntity
  8
0
  6
Continuous
 62
     7
 48
4.0
370
    15
100
AcDbCircle
 10
11.5581614449
 20
6.3552509452
 30
0.0
 40
0.0150000000000015
100
AcDbArc
 50
0.0
 51
90.0
  0
ARC
  5
327
330
1F
100
AcDbEntity
  8
0
  6
Continuous
 62
     7
 48
4.0
370
    15
100
AcDbCircle
 10
11.5581614449
 20
6.3552509452
 30
0.0
 40
0.0770000000000008
100
AcDbArc
 50
0.0
 51
90.0
  0
LINE
  5
328
330
1F
100
AcDbEntity
  8
0
  6
Continuous
 62
     7
 48
2.0
370
    15
100
AcDbLine
 10
11.1351614634
 20
6.4322509823
 30
0.0
 11
11.1351614634
 21
6.3702510052
 31
0.0
  0
LINE
  5
329
330
1F
100
AcDbEntity
  8
0
  6
Continuous
 62
     7
 48
2.0
370
    15
100
AcDbLine
 10
11.1351614634
 20
6.3702510052
 30
0.0
 11
11.5581614302
 21
6.3702510052
 31
0.0
  0
LINE
  5
32A
330
1F
100
AcDbEntity
  8
0
  6
Continuous
 62
     7
 48
2.0
370
    15
100
AcDbLine
 10
11.1351614634
 20
6.4322509823
 30
0.0
 11
11.5581614302
 21
6.4322509823
 31
0.0
  0
LINE
  5
32B
330
1F
100
AcDbEntity
  8
0
  6
Continuous
 62
     7
 48
2.0
370
    15
100
AcDbLine
 10
7.7121614596
 20
6.3702510052
 30
0.0
 11
8.1351614264
 21
6.3702510052
 31
0.0
  0
LINE
  5
32C
330
1F
100
AcDbEntity
  8
0
  6
Continuous
 62
     7
 48
2.0
370
    15
100
AcDbLine
 10
7.7121614596
 20
6.4322509823
 30
0.0
 11
8.1351614264
 21
6.4322509823
 31
0.0
  0
LINE
  5
32D
330
1F
100
AcDbEntity
  8
0
  6
Continuous
 62
     7
 48
2.0
370
    15
100
AcDbLine
 10
8.1351614264
 20
6.3702510052
 30
0.0
 11
8.1351614264
 21
6.4322509823
 31
0.0
  0
DIMENSION
  5
32E
330
1F
100
AcDbEntity
  8
0
  6
Continuous
 62
     7
 48
2.0
370
     0
100
AcDbDimension
  2
*D19
 10
12.537824369
 20
3.4322509452
 30
0.0
 11
12.537824369
 21
4.0572509452
 31
0.0
 70
   160
 71
     2
 42
-1.0
  3
SLDDIMSTYLE2
100
AcDbAlignedDimension
 13
10.4451614449
 23
4.6822509452
 33
0.0
 14
11.5581614449
 24
3.4322509452
 34
0.0
 50
90.0
100
AcDbRotatedDimension
  0
DIMENSION
  5
340
330
1F
100
AcDbEntity
  8
0
  6
Continuous
 62
     7
 48
2.0
370
     0
100
AcDbDimension
  2
*D20
 10
6.8340164917
 20
3.4322509452
 30
0.0
 11
6.8340164917
 21
4.1197509452
 31
0.0
 70
   160
 71
     2
 42
-1.0
  3
SLDDIMSTYLE2
100
AcDbAlignedDimension
 13
8.8251614449
 23
4.8072509452
 33
0.0
 14
7.7121614449
 24
3.4322509452
 34
0.0
 50
90.0
100
AcDbRotatedDimension
  0
LINE
  5
352
330
1F
100
AcDbEntity
  8
0
  6
Continuous
 62
     7
 48
2.0
370
    15
100
AcDbLine
 10
30.3899400513
 20
12.5142230615
 30
0.0
 11
30.4669400418
 21
12.5142230615
 31
0.0
  0
LINE
  5
353
330
1F
100
AcDbEntity
  8
0
  6
Continuous
 62
     7
 48
2.0
370
    15
100
AcDbLine
 10
30.4669400418
 20
12.5142230615
 30
0.0
 11
30.4669400418
 21
8.5142231098
 31
0.0
  0
LINE
  5
354
330
1F
100
AcDbEntity
  8
0
  6
Continuous
 62
     7
 48
2.0
370
    15
100
AcDbLine
 10
30.3899400513
 20
8.5142231098
 30
0.0
 11
30.4669400418
 21
8.5142231098
 31
0.0
  0
LINE
  5
355
330
1F
100
AcDbEntity
  8
0
  6
Continuous
 62
     7
 48
2.0
370
    15
100
AcDbLine
 10
26.5439400806
 20
12.5142230615
 30
0.0
 11
30.3899400513
 21
12.5142230615
 31
0.0
  0
CIRCLE
  5
356
330
1F
100
AcDbEntity
  8
0
  6
Continuous
 62
     7
 48
4.0
370
    15
100
AcDbCircle
 10
26.9669400659
 20
11.5142230856
 30
0.0
 40
0.1404999999999994
  0
CIRCLE
  5
357
330
1F
100
AcDbEntity
  8
0
  6
Continuous
 62
     7
 48
4.0
370
    15
100
AcDbCircle
 10
29.9669400659
 20
11.5142230856
 30
0.0
 40
0.1404999999999994
  0
CIRCLE
  5
358
330
1F
100
AcDbEntity
  8
0
  6
Continuous
 62
     7
 48
4.0
370
    15
100
AcDbCircle
 10
29.9669400659
 20
9.5142230856
 30
0.0
 40
0.1404999999999994
  0
CIRCLE
  5
359
330
1F
100
AcDbEntity
  8
0
  6
Continuous
 62
     7
 48
4.0
370
    15
100
AcDbCircle
 10
26.9669400659
 20
9.5142230856
 30
0.0
 40
0.140500000000003
  0
CIRCLE
  5
35A
330
1F
100
AcDbEntity
  8
0
  6
Continuous
 62
     7
 48
4.0
370
    15
100
AcDbCircle
 10
28.4669400659
 20
10.5142230856
 30
0.0
 40
0.625
  0
LINE
  5
35B
330
1F
100
AcDbEntity
  8
0
  6
Continuous
 62
     7
 48
2.0
370
    15
100
AcDbLine
 10
26.5439400806
 20
8.5142231098
 30
0.0
 11
30.3899400513
 21
8.5142231098
 31
0.0
  0
LINE
  5
35C
330
1F
100
AcDbEntity
  8
0
  6
Continuous
 62
     7
 48
2.0
370
    15
100
AcDbLine
 10
26.4669400901
 20
12.5142230615
 30
0.0
 11
26.4669400901
 21
8.5142231098
 31
0.0
  0
LINE
  5
35D
330
1F
100
AcDbEntity
  8
0
  6
Continuous
 62
     7
 48
2.0
370
    15
100
AcDbLine
 10
26.4669400901
 20
12.5142230615
 30
0.0
 11
26.5439400806
 21
12.5142230615
 31
0.0
  0
LINE
  5
35E
330
1F
100
AcDbEntity
  8
0
  6
Continuous
 62
     7
 48
2.0
370
    15
100
AcDbLine
 10
26.4669400901
 20
8.5142231098
 30
0.0
 11
26.5439400806
 21
8.5142231098
 31
0.0
  0
CIRCLE
  5
35F
330
1F
100
AcDbEntity
  8
0
  6
Continuous
 62
     7
 48
4.0
370
    15
100
AcDbCircle
 10
28.4669400659
 20
10.5142230856
 30
0.0
 40
0.0850000000000009
  0
CIRCLE
  5
360
330
1F
100
AcDbEntity
  8
0
  6
Continuous
 62
     7
 48
4.0
370
    15
100
AcDbCircle
 10
28.4669400659
 20
10.5142230856
 30
0.0
 40
0.1469999999999949
  0
LINE
  5
361
330
1F
100
AcDbEntity
  8
0
  6
Continuous
 62
     7
 48
2.0
370
    15
100
AcDbLine
 10
29.9669400845
 20
11.6547230572
 30
0.0
 11
29.9669400845
 21
11.37372309
 31
0.0
  0
LINE
  5
362
330
1F
100
AcDbEntity
  8
0
  6
Continuous
 62
     7
 48
2.0
370
    15
100
AcDbLine
 10
29.9669400845
 20
9.6547230813
 30
0.0
 11
29.9669400845
 21
9.3737231141
 31
0.0
  0
LINE
  5
363
330
1F
100
AcDbEntity
  8
0
  6
Continuous
 62
     7
 48
2.0
370
    15
100
AcDbLine
 10
26.9669400474
 20
11.6547230572
 30
0.0
 11
26.9669400474
 21
11.37372309
 31
0.0
  0
LINE
  5
364
330
1F
100
AcDbEntity
  8
0
  6
Continuous
 62
     7
 48
2.0
370
    15
100
AcDbLine
 10
26.9669400474
 20
9.6547230813
 30
0.0
 11
26.9669400474
 21
9.3737231141
 31
0.0
  0
DIMENSION
  5
365
330
1F
100
AcDbEntity
  8
0
  6
Continuous
 62
     7
 48
2.0
370
     0
100
AcDbDimension
  2
*D21
 10
25.7897082851
 20
9.5142230856
 30
0.0
 11
25.7897082851
 21
10.5142230856
 31
0.0
 70
   160
 71
     2
 42
-1.0
  3
SLDDIMSTYLE0
100
AcDbAlignedDimension
 13
26.9669400659
 23
11.5142230856
 33
0.0
 14
26.9669400659
 24
9.5142230856
 34
0.0
 50
90.0
100
AcDbRotatedDimension
  0
DIMENSION
  5
377
330
1F
100
AcDbEntity
  8
0
  6
Continuous
 62
     7
 48
2.0
370
     0
100
AcDbDimension
  2
*D22
 10
29.9669400659
 20
7.886695715
 30
0.0
 11
28.4669400659
 21
7.886695715
 31
0.0
 70
   160
 71
     2
 42
-1.0
  3
SLDDIMSTYLE0
100
AcDbAlignedDimension
 13
26.9669400659
 23
9.5142230856
 33
0.0
 14
29.9669400659
 24
9.5142230856
 34
0.0
100
AcDbRotatedDimension
  0
DIMENSION
  5
389
330
1F
100
AcDbEntity
  8
0
  6
Continuous
 62
     7
 48
2.0
370
     0
100
AcDbDimension
  2
*D23
 10
29.8967790425
 20
9.6359509822
 30
0.0
 11
31.8060810259
 21
7.886695715
 31
0.0
 70
   163
  1
<>
 71
     1
 42
-1.0
  3
SLDDIMSTYLE4
100
AcDbDiametricDimension
 15
30.0371010893
 25
9.3924951891
 35
0.0
 40
0.0
  0
LINE
  5
39A
330
1F
100
AcDbEntity
  8
0
  6
Continuous
 62
     7
 48
2.0
370
    15
100
AcDbLine
 10
30.6480628285
 20
18.3036518589
 30
0.0
 11
30.6480628285
 21
18.3289646147
 31
0.0
  0
LINE
  5
39B
330
1F
100
AcDbEntity
  8
0
  6
Continuous
 62
     7
 48
2.0
370
    15
100
AcDbLine
 10
29.5390628322
 20
18.3289645848
 30
0.0
 11
29.5390628322
 21
18.303651829
 31
0.0
  0
LINE
  5
39C
330
1F
100
AcDbEntity
  8
0
  6
Continuous
 62
     7
 48
2.0
370
    15
100
AcDbLine
 10
29.6699269301
 20
18.0230115496
 30
0.0
 11
29.6699269301
 21
18.0483243054
 31
0.0
  0
LINE
  5
39D
330
1F
100
AcDbEntity
  8
0
  6
Continuous
 62
     7
 48
2.0
370
    15
100
AcDbLine
 10
31.749212916
 20
18.4082945239
 30
0.0
 11
29.1173614648
 21
19.9276300267
 31
0.0
  0
LINE
  5
39E
330
1F
100
AcDbEntity
  8
0
  6
Continuous
 62
     7
 48
2.0
370
    15
100
AcDbLine
 10
30.5171987307
 20
18.6096048942
 30
0.0
 11
30.5171987307
 21
18.5842921384
 31
0.0
  0
LINE
  5
39F
330
1F
100
AcDbEntity
  8
0
  6
Continuous
 62
     7
 48
2.0
370
    15
100
AcDbLine
 10
29.4739381991
 20
19.0159679086
 30
0.0
 11
29.4739381991
 21
19.0412806644
 31
0.0
  0
LINE
  5
3A0
330
1F
100
AcDbEntity
  8
0
  6
Continuous
 62
     7
 48
2.0
370
    15
100
AcDbLine
 10
28.5989382265
 20
19.0412807093
 30
0.0
 11
28.5989382265
 21
19.0159679535
 31
0.0
  0
LINE
  5
3A1
330
1F
100
AcDbEntity
  8
0
  6
Continuous
 62
     7
 48
2.0
370
    15
100
AcDbLine
 10
28.7068474851
 20
18.7896187442
 30
0.0
 11
28.7068474851
 21
18.8149315
 31
0.0
  0
LINE
  5
3A2
330
1F
100
AcDbEntity
  8
0
  6
Continuous
 62
     7
 48
2.0
370
    15
100
AcDbLine
 10
29.0403677401
 20
19.9276300155
 30
0.0
 11
27.1156230356
 21
18.8164985486
 31
0.0
  0
LINE
  5
3A3
330
1F
100
AcDbEntity
  8
0
  6
Continuous
 62
     7
 48
2.0
370
    15
100
AcDbLine
 10
29.3660289145
 20
19.2676298288
 30
0.0
 11
29.3660289145
 21
19.242317073
 31
0.0
  0
ARC
  5
3A4
330
1F
100
AcDbEntity
  8
0
  6
Continuous
 62
     7
 48
4.0
370
    15
100
AcDbCircle
 10
27.159794183
 20
17.0922591632
 30
0.0
 40
0.231024586978307
100
AcDbArc
 50
168.1339525011
 51
205.9042604596
  0
ARC
  5
3A5
330
1F
100
AcDbEntity
  8
0
  6
Continuous
 62
     7
 48
4.0
370
    15
100
AcDbCircle
 10
27.159794183
 20
17.0922591632
 30
0.0
 40
0.2310245869783054
100
AcDbArc
 50
213.5984078164
 51
251.8606709662
  0
SPLINE
  5
3A6
330
1F
100
AcDbEntity
  8
0
  6
Continuous
 62
     7
 48
2.0
370
    15
100
AcDbSpline
210
0.0
220
0.0
230
1.0
 70
     8
 71
     3
 72
    12
 73
     8
 74
     0
 42
0.00000001
 43
0.00000001
 40
0.0
 40
0.0
 40
0.0
 40
0.0
 40
0.1089522794158387
 40
0.382850550689904
 40
0.6570502471256221
 40
0.9382309818771961
 40
1.0
 40
1.0
 40
1.0
 40
1.0
 10
26.97594730106464
 20
17.20052313194415
 30
0.0
 10
26.97334981753463
 20
17.19935408788533
 30
0.0
 10
26.96422244539336
 20
17.19524615031759
 30
0.0
 10
26.95196556752093
 20
17.18244785550801
 30
0.0
 10
26.94041171114662
 20
17.16303815152046
 30
0.0
 10
26.93419861265313
 20
17.14630949306932
 30
0.0
 10
26.93318111959438
 20
17.13555443903469
 30
0.0
 10
26.93299785791637
 20
17.13361733564852
 30
0.0
  0
SPLINE
  5
3A7
330
1F
100
AcDbEntity
  8
0
  6
Continuous
 62
     7
 48
2.0
370
    15
100
AcDbSpline
210
0.0
220
0.0
230
1.0
 70
     8
 71
     3
 72
    11
 73
     7
 74
     0
 42
0.00000001
 43
0.00000001
 40
0.0
 40
0.0
 40
0.0
 40
0.0
 40
0.1293166671810918
 40
0.4457024118537315
 40
0.7559606703947848
 40
1.0
 40
1.0
 40
1.0
 40
1.0
 10
27.08423701175596
 20
16.87466839217503
 30
0.0
 10
27.08772190980898
 20
16.87323924788596
 30
0.0
 10
27.09973294830197
 20
16.86831356374631
 30
0.0
 10
27.11968888559618
 20
16.86634764122083
 30
0.0
 10
27.14191605946891
 20
16.86821478791213
 30
0.0
 10
27.15402861629522
 20
16.87448801223922
 30
0.0
 10
27.1593613839473
 20
16.87724991034591
 30
0.0
  0
LINE
  5
3A8
330
1F
100
AcDbEntity
  8
0
  6
Continuous
 62
     7
 48
2.0
370
    15
100
AcDbLine
 10
27.1601539189
 20
16.8771210002
 30
0.0
 11
27.1837227602
 21
16.8907270026
 31
0.0
  0
LINE
  5
3A9
330
1F
100
AcDbEntity
  8
0
  6
Continuous
 62
     7
 48
2.0
370
    15
100
AcDbLine
 10
26.9972378894
 20
17.2137632419
 30
0.0
 11
26.9736690482
 21
17.2001572395
 31
0.0
  0
ARC
  5
3AA
330
1F
100
AcDbEntity
  8
0
  6
Continuous
 62
     7
 48
4.0
370
    15
100
AcDbCircle
 10
29.6346679172
 20
15.6635449675
 30
0.0
 40
0.2310245869783074
100
AcDbArc
 50
168.1339525011
 51
251.8606709662
  0
SPLINE
  5
3AB
330
1F
100
AcDbEntity
  8
0
  6
Continuous
 62
     7
 48
2.0
370
    15
100
AcDbSpline
210
0.0
220
0.0
230
1.0
 70
     8
 71
     3
 72
    10
 73
     6
 74
     0
 42
0.00000001
 43
0.00000001
 40
0.0
 40
0.0
 40
0.0
 40
0.0
 40
0.0576218231529268
 40
0.8267747365359199
 40
1.0
 40
1.0
 40
1.0
 40
1.0
 10
29.60717764629466
 20
15.43931171027209
 30
0.0
 10
29.60776276841507
 20
15.43931467348125
 30
0.0
 10
29.61615827137686
 20
15.43935719047117
 30
0.0
 10
29.62579427177857
 20
15.44254086181724
 30
0.0
 10
29.633214696737
 20
15.44783976110561
 30
0.0
 10
29.63457869804775
 20
15.4488137896303
 30
0.0
  0
SPLINE
  5
3AC
330
1F
100
AcDbEntity
  8
0
  6
Continuous
 62
     7
 48
2.0
370
    15
100
AcDbSpline
210
0.0
220
0.0
230
1.0
 70
     8
 71
     3
 72
     9
 73
     5
 74
     0
 42
0.00000001
 43
0.00000001
 40
0.0
 40
0.0
 40
0.0
 40
0.0
 40
0.4696762832978658
 40
1.0
 40
1.0
 40
1.0
 40
1.0
 10
29.44772348676833
 20
15.770962851101
 30
0.0
 10
29.44417212123751
 20
15.76868647518485
 30
0.0
 10
29.43661081644715
 20
15.76383978396986
 30
0.0
 10
29.43095205318533
 20
15.75656935025135
 30
0.0
 10
29.42795107682038
 20
15.7527136668197
 30
0.0
  0
LINE
  5
3AD
330
1F
100
AcDbEntity
  8
0
  6
Continuous
 62
     7
 48
2.0
370
    15
100
AcDbLine
 10
29.6350276491
 20
15.4484068068
 30
0.0
 11
29.6585964904
 21
15.4620128092
 31
0.0
  0
LINE
  5
3AE
330
1F
100
AcDbEntity
  8
0
  6
Continuous
 62
     7
 48
2.0
370
    15
100
AcDbLine
 10
29.4721116196
 20
15.7850490486
 30
0.0
 11
29.4485427784
 21
15.7714430461
 31
0.0
  0
LINE
  5
3AF
330
1F
100
AcDbEntity
  8
0
  6
Continuous
 62
     7
 48
2.0
370
    15
100
AcDbLine
 10
30.7827557146
 20
16.5563016941
 30
0.0
 11
30.8046760167
 21
16.5436473731
 31
0.0
  0
LINE
  5
3B0
330
1F
100
AcDbEntity
  8
0
  6
Continuous
 62
     7
 48
2.0
370
    15
100
AcDbLine
 10
31.2421404442
 20
17.3014400798
 30
0.0
 11
31.2202201421
 21
17.3140944009
 31
0.0
  0
LINE
  5
3B1
330
1F
100
AcDbEntity
  8
0
  6
Continuous
 62
     7
 48
2.0
370
    15
100
AcDbLine
 10
30.6625650157
 20
16.750322666
 30
0.0
 11
30.6406447136
 21
16.7629769871
 31
0.0
  0
LINE
  5
3B2
330
1F
100
AcDbEntity
  8
0
  6
Continuous
 62
     7
 48
2.0
370
    15
100
AcDbLine
 10
31.8753972352
 20
15.1383191614
 30
0.0
 11
31.8753972352
 21
18.4044823695
 31
0.0
  0
LINE
  5
3B3
330
1F
100
AcDbEntity
  8
0
  6
Continuous
 62
     7
 48
2.0
370
    15
100
AcDbLine
 10
30.6358720808
 20
15.0811523152
 30
0.0
 11
30.6577923829
 21
15.0684979941
 31
0.0
  0
LINE
  5
3B4
330
1F
100
AcDbEntity
  8
0
  6
Continuous
 62
     7
 48
2.0
370
    15
100
AcDbLine
 10
31.2122473459
 20
16.0289461975
 30
0.0
 11
31.1903270438
 21
16.0416005186
 31
0.0
  0
LINE
  5
3B5
330
1F
100
AcDbEntity
  8
0
  6
Continuous
 62
     7
 48
2.0
370
    15
100
AcDbLine
 10
31.3623311949
 20
17.1074191379
 30
0.0
 11
31.384251497
 21
17.0947648168
 31
0.0
  0
LINE
  5
3B6
330
1F
100
AcDbEntity
  8
0
  6
Continuous
 62
     7
 48
2.0
370
    15
100
AcDbLine
 10
30.4801313863
 20
15.3222098754
 30
0.0
 11
30.4582110842
 21
15.3348641965
 31
0.0
  0
LINE
  5
3B7
330
1F
100
AcDbEntity
  8
0
  6
Continuous
 62
     7
 48
2.0
370
    15
100
AcDbLine
 10
26.9894386483
 20
18.8126863138
 30
0.0
 11
26.9894386483
 21
18.7942740103
 31
0.0
  0
LINE
  5
3B8
330
1F
100
AcDbEntity
  8
0
  6
Continuous
 62
     7
 48
2.0
370
    15
100
AcDbLine
 10
31.3679880404
 20
15.7878886672
 30
0.0
 11
31.3899083425
 21
15.7752343461
 31
0.0
  0
ARC
  5
3B9
330
1F
100
AcDbEntity
  8
0
  6
Continuous
 62
     7
 48
4.0
370
    15
100
AcDbCircle
 10
29.7271817328
 20
17.1991018236
 30
0.0
 40
0.1110815050232225
100
AcDbArc
 50
28.8568429652
 51
58.0453758102
  0
ARC
  5
3BA
330
1F
100
AcDbEntity
  8
0
  6
Continuous
 62
     7
 48
4.0
370
    15
100
AcDbCircle
 10
29.7745935039
 20
17.2244589595
 30
0.0
 40
0.0215201417460741
100
AcDbArc
 50
29.8362572799
 51
58.0819104992
  0
ARC
  5
3BB
330
1F
100
AcDbEntity
  8
0
  6
Continuous
 62
     7
 48
4.0
370
    15
100
AcDbCircle
 10
31.6497072362
 20
18.3081307839
 30
0.0
 40
0.1140425208018307
100
AcDbArc
 50
29.2394705926
 51
57.6584320687
  0
LINE
  5
3BC
330
1F
100
AcDbEntity
  8
0
  6
Continuous
 62
     7
 48
2.0
370
    15
100
AcDbLine
 10
29.5087854966
 20
17.4533668519
 30
0.0
 11
29.7859713394
 21
17.2933508709
 31
0.0
  0
LINE
  5
3BD
330
1F
100
AcDbEntity
  8
0
  6
Continuous
 62
     7
 48
2.0
370
    15
100
AcDbLine
 10
29.4649448923
 20
17.4280582098
 30
0.0
 11
29.5087854966
 21
17.4533668519
 31
0.0
  0
LINE
  5
3BE
330
1F
100
AcDbEntity
  8
0
  6
Continuous
 62
     7
 48
2.0
370
    15
100
AcDbLine
 10
27.3874651268
 20
18.6273617505
 30
0.0
 11
27.431305731
 21
18.6526703927
 31
0.0
  0
LINE
  5
3BF
330
1F
100
AcDbEntity
  8
0
  6
Continuous
 62
     7
 48
2.0
370
    15
100
AcDbLine
 10
27.431305731
 20
18.6526703927
 30
0.0
 11
27.1541198882
 21
18.8126863737
 31
0.0
  0
LWPOLYLINE
  5
3C0
330
1F
100
AcDbEntity
  8
0
  6
Continuous
 62
     7
 48
2.0
370
    15
100
AcDbPolyline
 90
       26
 70
   128
 43
0.0
 10
28.6909620952
 20
18.7908971447
 10
28.7437852984
 20
18.7693882533
 10
28.8005855401
 20
18.7515743416
 10
28.8605911563
 20
18.7376975655
 10
28.9229863817
 20
18.7279463936
 10
28.9869234568
 20
18.7224534061
 10
29.0515334141
 20
18.72129326
 10
29.1159382892
 20
18.7244817459
 10
29.1792627105
 20
18.7319754435
 10
29.2406461496
 20
18.7436725528
 10
29.299254446
 20
18.7594141433
 10
29.3542910846
 20
18.7789862648
 10
29.405008164
 20
18.8021229558
 10
29.4507163901
 20
18.8285097531
 10
29.4907946569
 20
18.8577880997
 10
29.5246982394
 20
18.889560075
 10
29.5519664285
 20
18.9233939243
 10
29.5722286633
 20
18.9588298594
 10
29.5852095349
 20
18.9953862697
 10
29.590732701
 20
19.0325663827
 10
29.5887230513
 20
19.0698649171
 10
29.5792078869
 20
19.1067750049
 10
29.5623165833
 20
19.1427950318
 10
29.5382785939
 20
19.1774354768
 10
29.507420702
 20
19.2102255883
 10
29.4701621723
 20
19.2407197744
  0
LWPOLYLINE
  5
3C1
330
1F
100
AcDbEntity
  8
0
  6
Continuous
 62
     7
 48
2.0
370
    15
100
AcDbPolyline
 90
        9
 70
   128
 43
0.0
 10
29.4701621723
 20
19.2407197744
 10
29.4499840056
 20
19.2337418652
 10
29.4267670449
 20
19.2315637026
 10
29.4037996052
 20
19.2344937629
 10
29.3843347407
 20
19.2421170625
 10
29.3711293158
 20
19.2533539195
 10
29.3660537526
 20
19.2666127403
 10
29.3698268496
 20
19.2800156064
 10
29.3819143044
 20
19.2916641841
  0
LWPOLYLINE
  5
3C2
330
1F
100
AcDbEntity
  8
0
  6
Continuous
 62
     7
 48
2.0
370
    15
100
AcDbPolyline
 90
       26
 70
   128
 43
0.0
 10
29.3819143044
 20
19.2916641841
 10
29.3290911012
 20
19.3131730755
 10
29.2722908078
 20
19.3309869573
 10
29.2122852693
 20
19.3448638082
 10
29.149889992
 20
19.3546149502
 10
29.0859529428
 20
19.3601079227
 10
29.0213429856
 20
19.3612680688
 10
28.9569381624
 20
19.3580796129
 10
28.893613767
 20
19.3505859003
 10
28.8322302111
 20
19.3388887985
 10
28.7736219278
 20
19.3231472005
 10
28.718585341
 20
19.303575049
 10
28.6678681838
 20
19.2804384029
 10
28.6221599577
 20
19.2540516057
 10
28.5820817687
 20
19.2247732141
 10
28.5481781344
 20
19.1930012688
 10
28.5209099323
 20
19.159167427
 10
28.5006478141
 20
19.1237314844
 10
28.4876669166
 20
19.0871750891
 10
28.4821436987
 20
19.0499949461
 10
28.4841533484
 20
19.0126964117
 10
28.4936684868
 20
18.9757863389
 10
28.5105598423
 20
18.9397663419
 10
28.534597754
 20
18.905125822
 10
28.5654556977
 20
18.8723357405
 10
28.6027142274
 20
18.8418415544
  0
LWPOLYLINE
  5
3C3
330
1F
100
AcDbEntity
  8
0
  6
Continuous
 62
     7
 48
2.0
370
    15
100
AcDbPolyline
 90
        9
 70
   128
 43
0.0
 10
28.6027142274
 20
18.8418415544
 10
28.6228923422
 20
18.8488194935
 10
28.6461093548
 20
18.850997686
 10
28.6690767945
 20
18.8480676257
 10
28.688541659
 20
18.8404442663
 10
28.7017470838
 20
18.8292074691
 10
28.7068226471
 20
18.8159486484
 10
28.7030494982
 20
18.8025457523
 10
28.6909620952
 20
18.7908971447
  0
LWPOLYLINE
  5
3C4
330
1F
100
AcDbEntity
  8
0
  6
Continuous
 62
     7
 48
2.0
370
    15
100
AcDbPolyline
 90
       30
 70
   128
 43
0.0
 10
29.6535842925
 20
18.0239976085
 10
29.7096954477
 20
17.9997070727
 10
29.7698015309
 20
17.9788431527
 10
29.8332770286
 20
17.9616229043
 10
29.8994612702
 20
17.948225606
 10
29.9676655841
 20
17.9387906633
 10
30.0371800386
 20
17.9334162319
 10
30.1072812199
 20
17.9321583194
 10
30.1772398031
 20
17.9350300072
 10
30.2463274481
 20
17.9420013008
 10
30.3138253564
 20
17.9529996987
 10
30.3790309075
 20
17.9679107906
 10
30.4412656451
 20
17.9865793955
 10
30.4998818102
 20
18.0088112977
 10
30.5542693936
 20
18.0343749229
 10
30.603862462
 20
18.0630043919
 10
30.6481447577
 20
18.0944016755
 10
30.6866556109
 20
18.1282400075
 10
30.7189940871
 20
18.1641673567
 10
30.7448237065
 20
18.2018097501
 10
30.7638755546
 20
18.2407754631
 10
30.7759515497
 20
18.2806589416
 10
30.7809258942
 20
18.3210451121
 10
30.7787469415
 20
18.3615136927
 10
30.7694371964
 20
18.401643563
 10
30.7530935736
 20
18.4410170454
 10
30.7298863096
 20
18.4792244247
 10
30.7000567323
 20
18.5158680495
 10
30.6639153949
 20
18.5505665229
 10
30.6218384454
 20
18.5829588332
  0
LWPOLYLINE
  5
3C5
330
1F
100
AcDbEntity
  8
0
  6
Continuous
 62
     7
 48
2.0
370
    15
100
AcDbPolyline
 90
       10
 70
   128
 43
0.0
 10
30.6218384454
 20
18.5829588332
 10
30.6040930044
 20
18.5763861489
 10
30.5835716167
 20
18.573593728
 10
30.5626094191
 20
18.5748993264
 10
30.5435920019
 20
18.5801544085
 10
30.5286834876
 20
18.5887609106
 10
30.5195804839
 20
18.5997394019
 10
30.5173188761
 20
18.611840621
 10
30.5221559633
 20
18.6236873959
 10
30.5335414201
 20
18.633931621
  0
LWPOLYLINE
  5
3C6
330
1F
100
AcDbEntity
  8
0
  6
Continuous
 62
     7
 48
2.0
370
    15
100
AcDbPolyline
 90
       30
 70
   128
 43
0.0
 10
30.5335414201
 20
18.633931621
 10
30.477430213
 20
18.6582221268
 10
30.4173241817
 20
18.6790860768
 10
30.35384871
 20
18.6963063103
 10
30.2876644165
 20
18.7097035786
 10
30.2194601545
 20
18.7191385512
 10
30.1499456481
 20
18.7245129527
 10
30.0798443631
 20
18.7257708652
 10
30.0098858707
 20
18.7228992448
 10
29.9407981737
 20
18.7159279212
 10
29.8733003433
 20
18.7049294785
 10
29.8080947403
 20
18.6900183566
 10
29.7458600157
 20
18.6713497441
 10
29.6872438765
 20
18.6491179467
 10
29.6328562995
 20
18.6235543178
 10
29.5832632312
 20
18.5949248489
 10
29.538980929
 20
18.563527569
 10
29.5004700499
 20
18.5296891322
 10
29.4681315607
 20
18.4937617904
 10
29.4423019932
 20
18.456119427
 10
29.4232500672
 20
18.4171537589
 10
29.411174124
 20
18.3772703103
 10
29.4061996888
 20
18.3368840725
 10
29.4083787451
 20
18.2964154919
 10
29.4176885422
 20
18.2562856515
 10
29.4340321131
 20
18.2169121392
 10
29.457239429
 20
18.1787047898
 10
29.4870689803
 20
18.14206118
 10
29.5232102659
 20
18.1073626767
 10
29.5652872672
 20
18.0749703963
  0
LWPOLYLINE
  5
3C7
330
1F
100
AcDbEntity
  8
0
  6
Continuous
 62
     7
 48
2.0
370
    15
100
AcDbPolyline
 90
       10
 70
   128
 43
0.0
 10
29.5652872672
 20
18.0749703963
 10
29.5830326045
 20
18.0815430207
 10
29.6035540959
 20
18.0843354416
 10
29.6245162935
 20
18.0830298433
 10
29.643533607
 20
18.0777747612
 10
29.6584421213
 20
18.0691682591
 10
29.6675452287
 20
18.0581897677
 10
29.6698068365
 20
18.0460885486
 10
29.6649696456
 20
18.0342417737
 10
29.6535842925
 20
18.0239976085
  0
LINE
  5
3C8
330
1F
100
AcDbEntity
  8
0
  6
Continuous
 62
     7
 48
2.0
370
    15
100
AcDbLine
 10
29.5087854966
 20
17.4027413403
 30
0.0
 11
29.5087854966
 21
17.4533668519
 31
0.0
  0
LINE
  5
3C9
330
1F
100
AcDbEntity
  8
0
  6
Continuous
 62
     7
 48
2.0
370
    15
100
AcDbLine
 10
29.5087854966
 20
17.4027413403
 30
0.0
 11
29.7859713394
 21
17.2427253592
 31
0.0
  0
ARC
  5
3CA
330
1F
100
AcDbEntity
  8
0
  6
Continuous
 62
     7
 48
4.0
370
    15
100
AcDbCircle
 10
29.5237339989
 20
17.3338098056
 30
0.0
 40
0.1110806947584699
100
AcDbArc
 50
121.9545808767
 51
151.1432701803
  0
ARC
  5
3CB
330
1F
100
AcDbEntity
  8
0
  6
Continuous
 62
     7
 48
4.0
370
    15
100
AcDbCircle
 10
27.4462542334
 20
18.5331133463
 30
0.0
 40
0.1110806947585338
100
AcDbArc
 50
121.9545808767
 51
151.1432701803
  0
LINE
  5
3CC
330
1F
100
AcDbEntity
  8
0
  6
Continuous
 62
     7
 48
2.0
370
    15
100
AcDbLine
 10
29.4981861449
 20
17.3966224648
 30
0.0
 11
29.5087854966
 21
17.4027413403
 31
0.0
  0
ARC
  5
3CD
330
1F
100
AcDbEntity
  8
0
  6
Continuous
 62
     7
 48
4.0
370
    15
100
AcDbCircle
 10
30.450534895
 20
18.2719123539
 30
0.0
 40
0.3331496167537867
100
AcDbArc
 50
7.658080979
 51
59.0564006713
  0
LINE
  5
3CE
330
1F
100
AcDbEntity
  8
0
  6
Continuous
 62
     7
 48
2.0
370
    15
100
AcDbLine
 10
30.6218384454
 20
18.5576460774
 30
0.0
 11
30.6218384454
 21
18.5829588332
 31
0.0
  0
LWPOLYLINE
  5
3CF
330
1F
100
AcDbEntity
  8
0
  6
Continuous
 62
     7
 48
2.0
370
    15
100
AcDbPolyline
 90
       30
 70
   128
 43
0.0
 10
29.5390628322
 20
18.303651829
 10
29.5391107711
 20
18.2994438449
 10
29.5435596541
 20
18.2629675396
 10
29.5551856092
 20
18.2270221098
 10
29.573836912
 20
18.192076631
 10
29.5992701861
 20
18.1585871121
 10
29.6311535925
 20
18.1269905837
 10
29.6690710297
 20
18.0976993202
 10
29.7125276039
 20
18.0710955269
 10
29.7609565004
 20
18.0475264154
 10
29.8137255681
 20
18.0272995639
 10
29.8701463947
 20
18.010678876
 10
29.9294824994
 20
17.9978811681
 10
29.9909597034
 20
17.9890735353
 10
30.053775775
 20
17.9843708966
 10
30.1171111116
 20
17.9838346179
 10
30.1801391619
 20
17.9874716441
 10
30.2420373677
 20
17.9952345287
 10
30.3019982081
 20
18.0070220031
 10
30.3592391042
 20
18.022680323
 10
30.4130131523
 20
18.0420049751
 10
30.4626186655
 20
18.0647439098
 10
30.5074082998
 20
18.0906004153
 10
30.546797558
 20
18.1192370686
 10
30.580272568
 20
18.1502802256
 10
30.6073964607
 20
18.1833246616
 10
30.6278151776
 20
18.217939318
 10
30.6412623972
 20
18.2536724215
 10
30.6475625421
 20
18.2900577106
 10
30.6480628285
 20
18.3036518589
  0
LINE
  5
3D0
330
1F
100
AcDbEntity
  8
0
  6
Continuous
 62
     7
 48
2.0
370
    15
100
AcDbLine
 10
29.7480867388
 20
18.5540353862
 30
0.0
 11
29.7600006775
 21
18.542657365
 31
0.0
  0
LWPOLYLINE
  5
3D1
330
1F
100
AcDbEntity
  8
0
  6
Continuous
 62
     7
 48
2.0
370
    15
100
AcDbPolyline
 90
        8
 70
   128
 43
0.0
 10
30.6218384454
 20
18.5576460774
 10
30.6040930044
 20
18.5510733931
 10
30.5835716167
 20
18.5482809722
 10
30.5626094191
 20
18.5495865705
 10
30.5435920019
 20
18.5548416527
 10
30.5286834876
 20
18.5634481548
 10
30.5195804839
 20
18.5744266461
 10
30.5171987307
 20
18.5842921384
  0
LWPOLYLINE
  5
3D2
330
1F
100
AcDbEntity
  8
0
  6
Continuous
 62
     7
 48
2.0
370
    15
100
AcDbPolyline
 90
        3
 70
   128
 43
0.0
 10
29.6699269301
 20
18.0230115496
 10
29.6698068365
 20
18.0207757928
 10
29.6689946489
 20
18.0168029601
  0
LWPOLYLINE
  5
3D3
330
1F
100
AcDbEntity
  8
0
  6
Continuous
 62
     7
 48
2.0
370
    15
100
AcDbPolyline
 90
       23
 70
   128
 43
0.0
 10
30.5181310119
 20
18.615813501
 10
30.477430213
 20
18.632909371
 10
30.4173241817
 20
18.653773321
 10
30.35384871
 20
18.6709935544
 10
30.2876644165
 20
18.6843908228
 10
30.2194601545
 20
18.6938257954
 10
30.1499456481
 20
18.6992001969
 10
30.0798443631
 20
18.7004581094
 10
30.0098858707
 20
18.697586489
 10
29.9407981737
 20
18.6906151654
 10
29.8733003433
 20
18.6796167226
 10
29.8080947403
 20
18.6647056008
 10
29.7458600157
 20
18.6460369883
 10
29.6872438765
 20
18.6238051909
 10
29.6328562995
 20
18.598241562
 10
29.5832632312
 20
18.569612093
 10
29.538980929
 20
18.5382148132
 10
29.5004700499
 20
18.5043763764
 10
29.4681315607
 20
18.4684490346
 10
29.4423019932
 20
18.4308066712
 10
29.4232500672
 20
18.3918410031
 10
29.411174124
 20
18.3519575545
 10
29.4064124453
 20
18.3163082006
  0
LWPOLYLINE
  5
3D4
330
1F
100
AcDbEntity
  8
0
  6
Continuous
 62
     7
 48
2.0
370
    15
100
AcDbPolyline
 90
        9
 70
   128
 43
0.0
 10
29.7480867388
 20
18.579348142
 10
29.7601741158
 20
18.5676994894
 10
29.7639472906
 20
18.5542966382
 10
29.7588717144
 20
18.541037825
 10
29.7456663155
 20
18.5298010129
 10
29.7262013732
 20
18.5221776385
 10
29.7032339464
 20
18.5192475707
 10
29.6800170116
 20
18.5214257781
 10
29.6598388709
 20
18.5284037322
  0
LWPOLYLINE
  5
3D5
330
1F
100
AcDbEntity
  8
0
  6
Continuous
 62
     7
 48
2.0
370
    15
100
AcDbPolyline
 90
       54
 70
   128
 43
0.0
 10
29.6598388709
 20
18.5284037322
 10
29.6232684554
 20
18.498547146
 10
29.5928349099
 20
18.4664776356
 10
29.5689355519
 20
18.4326137395
 10
29.5518819974
 20
18.3973972476
 10
29.5418970107
 20
18.361287836
 10
29.5391107711
 20
18.3247566007
 10
29.5435596541
 20
18.2882802954
 10
29.5551856092
 20
18.2523348656
 10
29.573836912
 20
18.2173893868
 10
29.5992701861
 20
18.183899868
 10
29.6311535925
 20
18.1523033395
 10
29.6690710297
 20
18.1230120761
 10
29.7125276039
 20
18.0964082827
 10
29.7609565004
 20
18.0728391712
 10
29.8137255681
 20
18.0526123197
 10
29.8701463947
 20
18.0359916318
 10
29.9294824994
 20
18.0231939239
 10
29.9909597034
 20
18.0143862911
 10
30.053775775
 20
18.0096836524
 10
30.1171111116
 20
18.0091473737
 10
30.1801391619
 20
18.0127843999
 10
30.2420373677
 20
18.0205472846
 10
30.3019982081
 20
18.032334759
 10
30.3592391042
 20
18.0479930788
 10
30.4130131523
 20
18.0673177309
 10
30.4626186655
 20
18.0900566656
 10
30.5074082998
 20
18.1159131711
 10
30.546797558
 20
18.1445498244
 10
30.580272568
 20
18.1755929815
 10
30.6073964607
 20
18.2086374174
 10
30.6278151776
 20
18.2432520738
 10
30.6412623972
 20
18.2789851774
 10
30.6475625421
 20
18.3153704664
 10
30.6466335795
 20
18.351933178
 10
30.6384874877
 20
18.3881961242
 10
30.6232305671
 20
18.4236861587
 10
30.6010619366
 20
18.4579401927
 10
30.5722708374
 20
18.4905111828
 10
30.5372331065
 20
18.5209741171
 10
30.4964057841
 20
18.5489315239
 10
30.4503217728
 20
18.5740185302
 10
30.3995822667
 20
18.5959077708
 10
30.3448495437
 20
18.6143136695
 10
30.2868377098
 20
18.6289959861
 10
30.226303806
 20
18.639763154
 10
30.1640378006
 20
18.646474705
 10
30.1008520884
 20
18.6490429605
 10
30.0375712762
 20
18.6474344986
 10
29.9750211114
 20
18.6416702586
 10
29.914017852
 20
18.631825511
 10
29.8553574555
 20
18.6180286754
 10
29.7998054669
 20
18.6004597935
 10
29.7480867388
 20
18.579348142
  0
LINE
  5
3D6
330
1F
100
AcDbEntity
  8
0
  6
Continuous
 62
     7
 48
2.0
370
    15
100
AcDbLine
 10
29.7480867388
 20
18.579348142
 30
0.0
 11
29.7480867388
 21
18.5540353862
 31
0.0
  0
ARC
  5
3D7
330
1F
100
AcDbEntity
  8
0
  6
Continuous
 62
     7
 48
4.0
370
    15
100
AcDbCircle
 10
29.1014195242
 20
19.8923337143
 30
0.0
 40
0.0387295124514649
100
AcDbArc
 50
65.6931984643
 51
125.6174550974
  0
ARC
  5
3D8
330
1F
100
AcDbEntity
  8
0
  6
Continuous
 62
     7
 48
4.0
370
    15
100
AcDbCircle
 10
31.7319705209
 20
18.3784247675
 30
0.0
 40
0.0336266227756357
100
AcDbArc
 50
350.7860424365
 51
129.2032235288
  0
ARC
  5
3D9
330
1F
100
AcDbEntity
  8
0
  6
Continuous
 62
     7
 48
4.0
370
    15
100
AcDbCircle
 10
29.3335053915
 20
18.9952011599
 30
0.0
 40
0.2591634540584053
100
AcDbArc
 50
7.4098112216
 51
58.1768206691
  0
LINE
  5
3DA
330
1F
100
AcDbEntity
  8
0
  6
Continuous
 62
     7
 48
2.0
370
    15
100
AcDbLine
 10
29.4701621723
 20
19.2154070186
 30
0.0
 11
29.4701621723
 21
19.2407197744
 31
0.0
  0
LINE
  5
3DB
330
1F
100
AcDbEntity
  8
0
  6
Continuous
 62
     7
 48
2.0
370
    15
100
AcDbLine
 10
28.7743170293
 20
19.2181824067
 30
0.0
 11
28.7856075415
 21
19.2072135543
 31
0.0
  0
LWPOLYLINE
  5
3DC
330
1F
100
AcDbEntity
  8
0
  6
Continuous
 62
     7
 48
2.0
370
    15
100
AcDbPolyline
 90
       26
 70
   128
 43
0.0
 10
28.5989382265
 20
19.0159679535
 10
28.6022534018
 20
18.9849347048
 10
28.6126241296
 20
18.95329073
 10
28.6298859293
 20
18.9226657894
 10
28.6537582196
 20
18.8935579653
 10
28.6838528221
 20
18.8664405239
 10
28.7196804434
 20
18.8417543422
 10
28.7606585051
 20
18.8199008735
 10
28.8061206844
 20
18.8012354416
 10
28.8553277523
 20
18.7860614638
 10
28.907479629
 20
18.7746257661
 10
28.9617284514
 20
18.7671142723
 10
29.0171919773
 20
18.7636490559
 10
29.0729683896
 20
18.7642864986
 10
29.1281509193
 20
18.7690162731
 10
29.1818421049
 20
18.7777613725
 10
29.2331691935
 20
18.790379757
 10
29.2812973373
 20
18.8066660753
 10
29.3254442166
 20
18.8263556752
 10
29.3648918623
 20
18.8491283163
 10
29.3989988935
 20
18.8746137373
 10
29.4272107328
 20
18.9023975533
 10
29.4490686806
 20
18.932027991
 10
29.4642173821
 20
18.9630233125
 10
29.4724104277
 20
18.9948794789
 10
29.4739381991
 20
19.0159679086
  0
LWPOLYLINE
  5
3DD
330
1F
100
AcDbEntity
  8
0
  6
Continuous
 62
     7
 48
2.0
370
    15
100
AcDbPolyline
 90
        8
 70
   128
 43
0.0
 10
29.4701621723
 20
19.2154070186
 10
29.4499840056
 20
19.2084291094
 10
29.4267670449
 20
19.2062509468
 10
29.4037996052
 20
19.2091810071
 10
29.3843347407
 20
19.2168043067
 10
29.3711293158
 20
19.2280411637
 10
29.3660537526
 20
19.2412999844
 10
29.3660289145
 20
19.242317073
  0
LINE
  5
3DE
330
1F
100
AcDbEntity
  8
0
  6
Continuous
 62
     7
 48
2.0
370
    15
100
AcDbLine
 10
28.7068474851
 20
18.7896187442
 30
0.0
 11
28.7061296716
 21
18.7841661834
 31
0.0
  0
LWPOLYLINE
  5
3DF
330
1F
100
AcDbEntity
  8
0
  6
Continuous
 62
     7
 48
2.0
370
    15
100
AcDbPolyline
 90
       20
 70
   128
 43
0.0
 10
29.3667466762
 20
19.2730823769
 10
29.3290911012
 20
19.2878603197
 10
29.2722908078
 20
19.3056742015
 10
29.2122852693
 20
19.3195510523
 10
29.149889992
 20
19.3293021944
 10
29.0859529428
 20
19.3347951669
 10
29.0213429856
 20
19.335955313
 10
28.9569381624
 20
19.332766857
 10
28.893613767
 20
19.3252731444
 10
28.8322302111
 20
19.3135760427
 10
28.7736219278
 20
19.2978344447
 10
28.718585341
 20
19.2782622932
 10
28.6678681838
 20
19.2551256471
 10
28.6221599577
 20
19.2287388499
 10
28.5820817687
 20
19.1994604583
 10
28.5481781344
 20
19.167688513
 10
28.5209099323
 20
19.1338546712
 10
28.5006478141
 20
19.0984187286
 10
28.4876669166
 20
19.0618623333
 10
28.4823717521
 20
19.0286242802
  0
LINE
  5
3E0
330
1F
100
AcDbEntity
  8
0
  6
Continuous
 62
     7
 48
2.0
370
    15
100
AcDbLine
 10
27.387457971
 20
18.6273576541
 30
0.0
 11
27.1541198882
 21
18.7620608621
 31
0.0
  0
LWPOLYLINE
  5
3E1
330
1F
100
AcDbEntity
  8
0
  6
Continuous
 62
     7
 48
2.0
370
    15
100
AcDbPolyline
 90
       48
 70
   128
 43
0.0
 10
28.6861544092
 20
19.1925999653
 10
28.6556459608
 20
19.1656370763
 10
28.6313293344
 20
19.1366521338
 10
28.6135996051
 20
19.1061164583
 10
28.6027451841
 20
19.0745265454
 10
28.5989424267
 20
19.0423960432
 10
28.6022534018
 20
19.0102474606
 10
28.6126241296
 20
18.9786034858
 10
28.6298859293
 20
18.9479785453
 10
28.6537582196
 20
18.9188707211
 10
28.6838528221
 20
18.8917532797
 10
28.7196804434
 20
18.867067098
 10
28.7606585051
 20
18.8452136293
 10
28.8061206844
 20
18.8265481974
 10
28.8553277523
 20
18.8113742196
 10
28.907479629
 20
18.7999385219
 10
28.9617284514
 20
18.7924270282
 10
29.0171919773
 20
18.7889618117
 10
29.0729683896
 20
18.7895992544
 10
29.1281509193
 20
18.7943290289
 10
29.1818421049
 20
18.8030741283
 10
29.2331691935
 20
18.8156925128
 10
29.2812973373
 20
18.8319788311
 10
29.3254442166
 20
18.851668431
 10
29.3648918623
 20
18.8744410722
 10
29.3989988935
 20
18.8999264932
 10
29.4272107328
 20
18.9277103091
 10
29.4490686806
 20
18.9573407468
 10
29.4642173821
 20
18.9883360684
 10
29.4724104277
 20
19.0201922347
 10
29.4735146824
 20
19.0523913021
 10
29.4675121011
 20
19.0844097141
 10
29.4545002987
 20
19.1157268328
 10
29.4346909947
 20
19.1458335003
 10
29.4084060462
 20
19.1742401359
 10
29.3760730665
 20
19.2004848934
 10
29.3382175947
 20
19.2241409949
 10
29.2954552405
 20
19.2448238405
 10
29.2484813644
 20
19.2621970847
 10
29.1980597227
 20
19.2759782945
 10
29.1450100735
 20
19.2859433493
 10
29.0901951102
 20
19.2919302131
 10
29.0345060458
 20
19.2938415684
 10
28.9788484567
 20
19.2916463431
 10
28.9241271934
 20
19.2853802193
 10
28.8712320689
 20
19.2751450345
 10
28.8210231837
 20
19.2611073149
 10
28.7743170293
 20
19.2434951625
  0
LINE
  5
3E2
330
1F
100
AcDbEntity
  8
0
  6
Continuous
 62
     7
 48
2.0
370
    15
100
AcDbLine
 10
28.7743170293
 20
19.2434951625
 30
0.0
 11
28.7743170293
 21
19.2181824067
 31
0.0
  0
LWPOLYLINE
  5
3E3
330
1F
100
AcDbEntity
  8
0
  6
Continuous
 62
     7
 48
2.0
370
    15
100
AcDbPolyline
 90
        9
 70
   128
 43
0.0
 10
28.7743170293
 20
19.2434951625
 10
28.7860202467
 20
19.2318710713
 10
28.7895390523
 20
19.2185805199
 10
28.7843847748
 20
19.2054690373
 10
28.7712731018
 20
19.1943571873
 10
28.7520247792
 20
19.1867880095
 10
28.7293125643
 20
19.1838125084
 10
28.7062901076
 20
19.1858438417
 10
28.6861544092
 20
19.1925999653
  0
ARC
  5
3E4
330
1F
100
AcDbEntity
  8
0
  6
Continuous
 62
     7
 48
4.0
370
    15
100
AcDbCircle
 10
27.1328654385
 20
18.7866287656
 30
0.0
 40
0.0336266349127
100
AcDbArc
 50
50.7968532674
 51
189.2138984874
  0
ARC
  5
3E5
330
1F
100
AcDbEntity
  8
0
  6
Continuous
 62
     7
 48
4.0
370
    15
100
AcDbCircle
 10
29.0563096964
 20
19.8923338843
 30
0.0
 40
0.0387293538142755
100
AcDbArc
 50
54.3824407861
 51
114.3069330659
  0
ARC
  5
3E6
330
1F
100
AcDbEntity
  8
0
  6
Continuous
 62
     7
 48
4.0
370
    15
100
AcDbCircle
 10
27.1499793708
 20
18.7569847617
 30
0.0
 40
0.0065506243185038
100
AcDbArc
 50
50.7962658231
 51
189.2144859316
  0
ARC
  5
3E7
330
1F
100
AcDbEntity
  8
0
  6
Continuous
 62
     7
 48
4.0
370
    15
100
AcDbCircle
 10
26.8619080371
 20
17.1819450414
 30
0.0
 40
0.2108238503728603
100
AcDbArc
 50
295.2929078819
 51
301.0311617596
  0
ARC
  5
3E8
330
1F
100
AcDbEntity
  8
0
  6
Continuous
 62
     7
 48
4.0
370
    15
100
AcDbCircle
 10
27.191995505
 20
17.1108468843
 30
0.0
 40
0.2666618554108839
100
AcDbArc
 50
206.4191681774
 51
213.083561378
  0
LWPOLYLINE
  5
3E9
330
1F
100
AcDbEntity
  8
0
  6
Continuous
 62
     7
 48
2.0
370
    15
100
AcDbPolyline
 90
        9
 70
   128
 43
0.0
 10
26.9685661061
 20
16.9652864198
 10
26.9675371173
 20
16.9645890024
 10
26.9674336169
 20
16.9644201566
 10
26.9682557086
 20
16.9647806403
 10
26.9699999701
 20
16.9656687639
 10
26.9726580009
 20
16.9670804802
 10
26.9762175636
 20
16.969009119
 10
26.980662376
 20
16.9714459217
 10
26.9859716967
 20
16.9743794881
  0
ARC
  5
3EA
330
1F
100
AcDbEntity
  8
0
  6
Continuous
 62
     7
 48
4.0
370
    15
100
AcDbCircle
 10
27.1156228227
 20
17.1646678388
 30
0.0
 40
0.2302587042298696
100
AcDbArc
 50
235.7318177635
 51
248.2452058974
  0
ARC
  5
3EB
330
1F
100
AcDbEntity
  8
0
  6
Continuous
 62
     7
 48
4.0
370
    15
100
AcDbCircle
 10
27.225484929
 20
16.9817107453
 30
0.0
 40
0.197634967745309
100
AcDbArc
 50
175.205648167
 51
188.9956941237
  0
ARC
  5
3EC
330
1F
100
AcDbEntity
  8
0
  6
Continuous
 62
     7
 48
4.0
370
    15
100
AcDbCircle
 10
14.7212621766
 20
38.8068920793
 30
0.0
 40
25.04170339371836
100
AcDbArc
 50
299.4373338236
 51
299.6863367297
  0
ARC
  5
3ED
330
1F
100
AcDbEntity
  8
0
  6
Continuous
 62
     7
 48
4.0
370
    15
100
AcDbCircle
 10
26.8843911806
 20
16.9332740958
 30
0.0
 40
0.2666618554113463
100
AcDbArc
 50
26.4191681774
 51
33.083561378
  0
ARC
  5
3EE
330
1F
100
AcDbEntity
  8
0
  6
Continuous
 62
     7
 48
4.0
370
    15
100
AcDbCircle
 10
14.7004483892
 20
38.8433330469
 30
0.0
 40
25.05267009807281
100
AcDbArc
 50
299.4374414632
 51
299.6863352272
  0
ARC
  5
3EF
330
1F
100
AcDbEntity
  8
0
  6
Continuous
 62
     7
 48
4.0
370
    15
100
AcDbCircle
 10
27.100506605
 20
17.2045697893
 30
0.0
 40
0.1995593409329426
100
AcDbArc
 50
230.2733855662
 51
244.0424588623
  0
ARC
  5
3F0
330
1F
100
AcDbEntity
  8
0
  6
Continuous
 62
     7
 48
4.0
370
    15
100
AcDbCircle
 10
27.1991893981
 20
17.0153457816
 30
0.0
 40
0.2290323202551755
100
AcDbArc
 50
171.0218273606
 51
183.517765042
  0
LINE
  5
3F1
330
1F
100
AcDbEntity
  8
0
  6
Continuous
 62
     7
 48
2.0
370
    15
100
AcDbLine
 10
27.067169716
 20
17.020528613
 30
0.0
 11
27.0285414656
 21
16.9982289987
 31
0.0
  0
LINE
  5
3F2
330
1F
100
AcDbEntity
  8
0
  6
Continuous
 62
     7
 48
2.0
370
    15
100
AcDbLine
 10
27.1232036607
 20
17.0519212385
 30
0.0
 11
27.067169716
 21
17.020528613
 31
0.0
  0
LWPOLYLINE
  5
3F3
330
1F
100
AcDbEntity
  8
0
  6
Continuous
 62
     7
 48
2.0
370
    15
100
AcDbPolyline
 90
       18
 70
   128
 43
0.0
 10
27.1837227602
 20
16.8907270026
 10
27.1995768822
 20
16.903710722
 10
27.2119344958
 20
16.9227983437
 10
27.21962474
 20
16.9468605042
 10
27.2223520477
 20
16.9749725329
 10
27.2200115701
 20
17.0060541186
 10
27.212693222
 20
17.0389108329
 10
27.2006783627
 20
17.0722799399
 10
27.1844285954
 20
17.1048791599
 10
27.1645685524
 20
17.1354556215
 10
27.1418612118
 20
17.1628344213
 10
27.1171793785
 20
17.1859633056
 10
27.0914715639
 20
17.2039534454
 10
27.0657256886
 20
17.2161135108
 10
27.0409310212
 20
17.2219762693
 10
27.0180405326
 20
17.221316321
 10
26.9979338725
 20
17.2141590698
 10
26.9972378894
 20
17.2137632419
  0
LINE
  5
3F4
330
1F
100
AcDbEntity
  8
0
  6
Continuous
 62
     7
 48
2.0
370
    15
100
AcDbLine
 10
27.067169716
 20
17.020528613
 30
0.0
 11
27.0672862835
 21
17.0383596403
 31
0.0
  0
LINE
  5
3F5
330
1F
100
AcDbEntity
  8
0
  6
Continuous
 62
     7
 48
2.0
370
    15
100
AcDbLine
 10
27.0672862835
 20
17.0383596403
 30
0.0
 11
27.0521824875
 21
17.0472099812
 31
0.0
  0
LINE
  5
3F6
330
1F
100
AcDbEntity
  8
0
  6
Continuous
 62
     7
 48
2.0
370
    15
100
AcDbLine
 10
27.0283351908
 20
16.9952677669
 30
0.0
 11
27.0097686951
 21
17.0061471372
 31
0.0
  0
LINE
  5
3F7
330
1F
100
AcDbEntity
  8
0
  6
Continuous
 62
     7
 48
2.0
370
    15
100
AcDbLine
 10
27.0097686951
 20
17.0061471372
 30
0.0
 11
27.0099036189
 21
17.0267887483
 31
0.0
  0
LINE
  5
3F8
330
1F
100
AcDbEntity
  8
0
  6
Continuous
 62
     7
 48
2.0
370
    15
100
AcDbLine
 10
27.0097686951
 20
17.0061471372
 30
0.0
 11
27.009100402
 21
17.0057613398
 31
0.0
  0
LINE
  5
3F9
330
1F
100
AcDbEntity
  8
0
  6
Continuous
 62
     7
 48
2.0
370
    15
100
AcDbLine
 10
27.0092168659
 20
17.0235924269
 30
0.0
 11
27.009100402
 21
17.0057613398
 31
0.0
  0
LINE
  5
3FA
330
1F
100
AcDbEntity
  8
0
  6
Continuous
 62
     7
 48
2.0
370
    15
100
AcDbLine
 10
27.0092168659
 20
17.0235924269
 30
0.0
 11
26.9705886155
 21
17.0012928127
 31
0.0
  0
LINE
  5
3FB
330
1F
100
AcDbEntity
  8
0
  6
Continuous
 62
     7
 48
2.0
370
    15
100
AcDbLine
 10
26.9859716967
 20
16.9743794881
 30
0.0
 11
27.0245999471
 21
16.9966791024
 31
0.0
  0
LINE
  5
3FC
330
1F
100
AcDbEntity
  8
0
  6
Continuous
 62
     7
 48
2.0
370
    15
100
AcDbLine
 10
27.009100402
 20
17.0057613398
 30
0.0
 11
27.0245999471
 21
16.9966791024
 31
0.0
  0
LINE
  5
3FD
330
1F
100
AcDbEntity
  8
0
  6
Continuous
 62
     7
 48
2.0
370
    15
100
AcDbLine
 10
27.0245999471
 20
16.9966791024
 30
0.0
 11
26.9685661061
 21
16.9652864198
 31
0.0
  0
ARC
  5
3FE
330
1F
100
AcDbEntity
  8
0
  6
Continuous
 62
     7
 48
4.0
370
    15
100
AcDbCircle
 10
29.6951706329
 20
15.7070469503
 30
0.0
 40
0.2528219156945162
100
AcDbArc
 50
174.6749627646
 51
202.0526885751
  0
ARC
  5
3FF
330
1F
100
AcDbEntity
  8
0
  6
Continuous
 62
     7
 48
4.0
370
    15
100
AcDbCircle
 10
29.4618063672
 20
15.6821364088
 30
0.0
 40
0.0517432048698225
100
AcDbArc
 50
110.7907120844
 51
130.7116137054
  0
ARC
  5
400
330
1F
100
AcDbEntity
  8
0
  6
Continuous
 62
     7
 48
4.0
370
    15
100
AcDbCircle
 10
29.6797873154
 20
15.6978946763
 30
0.0
 40
0.2528216692234247
100
AcDbArc
 50
174.6749849325
 51
202.0527559351
  0
ARC
  5
401
330
1F
100
AcDbEntity
  8
0
  6
Continuous
 62
     7
 48
4.0
370
    15
100
AcDbCircle
 10
29.6445443154
 20
15.588909821
 30
0.0
 40
0.1995777643642878
100
AcDbArc
 50
175.9601257965
 51
189.7291310517
  0
ARC
  5
402
330
1F
100
AcDbEntity
  8
0
  6
Continuous
 62
     7
 48
4.0
370
    15
100
AcDbCircle
 10
29.5721797079
 20
15.7087715126
 30
0.0
 40
0.1976120763817638
100
AcDbArc
 50
231.0069182705
 51
244.797321199
  0
ARC
  5
403
330
1F
100
AcDbEntity
  8
0
  6
Continuous
 62
     7
 48
4.0
370
    15
100
AcDbCircle
 10
29.6877840205
 20
15.6886150333
 30
0.0
 40
0.2550858852000087
100
AcDbArc
 50
218.4568592022
 51
245.6708649203
  0
ARC
  5
404
330
1F
100
AcDbEntity
  8
0
  6
Continuous
 62
     7
 48
4.0
370
    15
100
AcDbCircle
 10
29.5643277788
 20
15.5045561845
 30
0.0
 40
0.051743204869612
100
AcDbArc
 50
290.7907120843
 51
310.7116137055
  0
ARC
  5
405
330
1F
100
AcDbEntity
  8
0
  6
Continuous
 62
     7
 48
4.0
370
    15
100
AcDbCircle
 10
29.7031668726
 20
15.6977671277
 30
0.0
 40
0.25508551759682
100
AcDbArc
 50
218.4568379599
 51
245.6708840491
  0
ARC
  5
406
330
1F
100
AcDbEntity
  8
0
  6
Continuous
 62
     7
 48
4.0
370
    15
100
AcDbCircle
 10
29.7330395897
 20
15.5562724695
 30
0.0
 40
0.2302637962518419
100
AcDbArc
 50
171.7571501125
 51
184.2711779513
  0
ARC
  5
407
330
1F
100
AcDbEntity
  8
0
  6
Continuous
 62
     7
 48
4.0
370
    15
100
AcDbCircle
 10
29.5872959112
 20
15.8030582552
 30
0.0
 40
0.2290111840139578
100
AcDbArc
 50
236.4847747745
 51
248.9809556511
  0
LWPOLYLINE
  5
408
330
1F
100
AcDbEntity
  8
0
  6
Continuous
 62
     7
 48
2.0
370
    15
100
AcDbPolyline
 90
        3
 70
   128
 43
0.0
 10
29.4256283333
 20
15.7494019681
 10
29.4151488679
 20
15.7318534458
 10
29.4085801198
 20
15.7110492368
  0
LWPOLYLINE
  5
409
330
1F
100
AcDbEntity
  8
0
  6
Continuous
 62
     7
 48
2.0
370
    15
100
AcDbPolyline
 90
        3
 70
   128
 43
0.0
 10
29.5627433149
 20
15.444001792
 10
29.5858649682
 20
15.4391060416
 10
29.6031448649
 20
15.4393976868
  0
LWPOLYLINE
  5
40A
330
1F
100
AcDbEntity
  8
0
  6
Continuous
 62
     7
 48
2.0
370
    15
100
AcDbPolyline
 90
       19
 70
   128
 43
0.0
 10
29.6585964904
 20
15.4620128092
 10
29.6593023256
 20
15.4624265269
 10
29.6755520928
 20
15.476264165
 10
29.6875669522
 20
15.4957612106
 10
29.6948853003
 20
15.5201683401
 10
29.6972257778
 20
15.548547668
 10
29.6944984702
 20
15.579808579
 10
29.686808226
 20
15.6127497065
 10
29.6744506123
 20
15.6461051252
 10
29.6579005073
 20
15.6785930169
 10
29.6377938472
 20
15.7089649238
 10
29.6149033586
 20
15.7360536676
 10
29.5901086912
 20
15.7588182228
 10
29.5643628159
 20
15.7763837123
 10
29.5386550013
 20
15.7880751835
 10
29.513973168
 20
15.7934433373
 10
29.4912658274
 20
15.7922818749
 10
29.4714057844
 20
15.7846353309
 10
29.4714057844
 20
15.7846353309
  0
LINE
  5
40B
330
1F
100
AcDbEntity
  8
0
  6
Continuous
 62
     7
 48
2.0
370
    15
100
AcDbLine
 10
29.5030123947
 20
15.566482576
 30
0.0
 11
29.4850765461
 21
15.5766810357
 31
0.0
  0
LINE
  5
40C
330
1F
100
AcDbEntity
  8
0
  6
Continuous
 62
     7
 48
2.0
370
    15
100
AcDbLine
 10
29.4850765461
 20
15.5766810357
 30
0.0
 11
29.4849369554
 21
15.5982094304
 31
0.0
  0
LINE
  5
40D
330
1F
100
AcDbEntity
  8
0
  6
Continuous
 62
     7
 48
2.0
370
    15
100
AcDbLine
 10
29.4850765461
 20
15.5766810357
 30
0.0
 11
29.4478369431
 21
15.5551830705
 31
0.0
  0
LINE
  5
40E
330
1F
100
AcDbEntity
  8
0
  6
Continuous
 62
     7
 48
2.0
370
    15
100
AcDbLine
 10
29.5035649498
 20
15.5389375491
 30
0.0
 11
29.4880322183
 21
15.5299706941
 31
0.0
  0
LINE
  5
40F
330
1F
100
AcDbEntity
  8
0
  6
Continuous
 62
     7
 48
2.0
370
    15
100
AcDbLine
 10
29.4454624494
 20
15.6029702137
 30
0.0
 11
29.4610632132
 21
15.611976343
 31
0.0
  0
LINE
  5
410
330
1F
100
AcDbEntity
  8
0
  6
Continuous
 62
     7
 48
2.0
370
    15
100
AcDbLine
 10
29.5826943097
 20
15.4561823301
 30
0.0
 11
29.5680492132
 21
15.4812960213
 31
0.0
  0
LINE
  5
411
330
1F
100
AcDbEntity
  8
0
  6
Continuous
 62
     7
 48
2.0
370
    15
100
AcDbLine
 10
29.4424645681
 20
15.6966510967
 30
0.0
 11
29.4280567551
 21
15.721357869
 31
0.0
  0
LWPOLYLINE
  5
412
330
1F
100
AcDbEntity
  8
0
  6
Continuous
 62
     7
 48
2.0
370
    15
100
AcDbPolyline
 90
       25
 70
   128
 43
0.0
 10
29.6637412267
 20
15.4653301901
 10
29.6735717925
 20
15.4478588638
 10
29.689480361
 20
15.413023574
 10
29.7008917447
 20
15.3777682528
 10
29.7073923568
 20
15.3433703419
 10
29.7087466769
 20
15.3110760949
 10
29.704905755
 20
15.2820555275
 10
29.6960086631
 20
15.2573601273
 10
29.6823778289
 20
15.2378846211
 10
29.6645071088
 20
15.2243346093
 10
29.6430438469
 20
15.21720113
 10
29.6187658518
 20
15.2167425143
 10
29.5925526691
 20
15.2229754312
 10
29.565354055
 20
15.2356740464
 10
29.5381554409
 20
15.2543782826
 10
29.5119422582
 20
15.2784104622
 10
29.487664263
 20
15.3068998545
 10
29.4662010012
 20
15.3388142884
 10
29.4483302811
 20
15.3729973945
 10
29.4346994468
 20
15.4082107269
 10
29.425802355
 20
15.4431784907
 10
29.421961433
 20
15.4766336922
 10
29.4233157531
 20
15.5073642744
 10
29.4298163652
 20
15.5342567384
 10
29.4353439908
 20
15.5467445069
  0
LWPOLYLINE
  5
413
330
1F
100
AcDbEntity
  8
0
  6
Continuous
 62
     7
 48
2.0
370
    15
100
AcDbPolyline
 90
       25
 70
   128
 43
0.0
 10
26.9613309316
 20
16.9770474299
 10
26.9549426351
 20
16.9629709318
 10
26.948442023
 20
16.9360784678
 10
26.9470877029
 20
16.9053478856
 10
26.9509286248
 20
16.8718926841
 10
26.9598257167
 20
16.8369249203
 10
26.9734565509
 20
16.8017115879
 10
26.991327271
 20
16.7675284818
 10
27.0127905329
 20
16.7356140479
 10
27.037068528
 20
16.7071246556
 10
27.0632817107
 20
16.683092476
 10
27.0904803248
 20
16.6643882398
 10
27.1176789389
 20
16.6516896246
 10
27.1438921216
 20
16.6454567077
 10
27.1681701168
 20
16.6459153234
 10
27.1896333786
 20
16.6530488027
 10
27.2075040987
 20
16.6665988145
 10
27.221134933
 20
16.6860743207
 10
27.2300320248
 20
16.7107697209
 10
27.2338729468
 20
16.7397902883
 10
27.2325186267
 20
16.7720845352
 10
27.2260180146
 20
16.8064824462
 10
27.2146066309
 20
16.8417377674
 10
27.1986980623
 20
16.8765730572
 10
27.1888674966
 20
16.8940443835
  0
LINE
  5
414
330
1F
100
AcDbEntity
  8
0
  6
Continuous
 62
     7
 48
2.0
370
    15
100
AcDbLine
 10
29.7421307352
 20
17.1545615277
 30
0.0
 11
26.9137036446
 21
18.7873777316
 31
0.0
  0
LINE
  5
415
330
1F
100
AcDbEntity
  8
0
  6
Continuous
 62
     7
 48
2.0
370
    15
100
AcDbLine
 10
29.7421307352
 20
13.8883983196
 30
0.0
 11
29.7421307352
 21
17.1545615277
 31
0.0
  0
LINE
  5
416
330
1F
100
AcDbEntity
  8
0
  6
Continuous
 62
     7
 48
2.0
370
    15
100
AcDbLine
 10
26.9137036446
 20
15.5212145235
 30
0.0
 11
29.7421307352
 21
13.8883983196
 31
0.0
  0
LINE
  5
417
330
1F
100
AcDbEntity
  8
0
  6
Continuous
 62
     7
 48
2.0
370
    15
100
AcDbLine
 10
26.9137036446
 20
18.7873777316
 30
0.0
 11
26.9137036446
 21
15.5212145235
 31
0.0
  0
LINE
  5
418
330
1F
100
AcDbEntity
  8
0
  6
Continuous
 62
     7
 48
2.0
370
    15
100
AcDbLine
 10
26.9575442489
 20
18.8126863737
 30
0.0
 11
26.9137036446
 21
18.7873777316
 31
0.0
  0
LINE
  5
419
330
1F
100
AcDbEntity
  8
0
  6
Continuous
 62
     7
 48
2.0
370
    15
100
AcDbLine
 10
29.7859713394
 20
17.1798701698
 30
0.0
 11
26.9575442489
 21
18.8126863737
 31
0.0
  0
LINE
  5
41A
330
1F
100
AcDbEntity
  8
0
  6
Continuous
 62
     7
 48
2.0
370
    15
100
AcDbLine
 10
29.7859713394
 20
17.1798701698
 30
0.0
 11
29.7421307352
 21
17.1545615277
 31
0.0
  0
LINE
  5
41B
330
1F
100
AcDbEntity
  8
0
  6
Continuous
 62
     7
 48
2.0
370
    15
100
AcDbLine
 10
29.7859713394
 20
13.9137069617
 30
0.0
 11
29.7859713394
 21
17.1798701698
 31
0.0
  0
LINE
  5
41C
330
1F
100
AcDbEntity
  8
0
  6
Continuous
 62
     7
 48
2.0
370
    15
100
AcDbLine
 10
29.7859713394
 20
13.9137069617
 30
0.0
 11
29.7421307352
 21
13.8883983196
 31
0.0
  0
LWPOLYLINE
  5
41D
330
1F
100
AcDbEntity
  8
0
  6
Continuous
 62
     7
 48
2.0
370
    15
100
AcDbPolyline
 90
       13
 70
   128
 43
0.0
 10
29.6863714087
 20
15.2424263724
 10
29.662606456
 20
15.2420511564
 10
29.6363932734
 20
15.2482840733
 10
29.6091946592
 20
15.2609826886
 10
29.5819960451
 20
15.2796869248
 10
29.5557828624
 20
15.3037191043
 10
29.5315048673
 20
15.3322084966
 10
29.5100416054
 20
15.3641229306
 10
29.4921708853
 20
15.3983060367
 10
29.4785400511
 20
15.433519369
 10
29.4696429592
 20
15.4684871328
 10
29.4658020373
 20
15.5019423344
 10
29.465685366
 20
15.5060099616
  0
LWPOLYLINE
  5
41E
330
1F
100
AcDbEntity
  8
0
  6
Continuous
 62
     7
 48
2.0
370
    15
100
AcDbPolyline
 90
       13
 70
   128
 43
0.0
 10
26.9908116358
 20
16.934724155
 10
26.9909283071
 20
16.9306565277
 10
26.9947692291
 20
16.8972013262
 10
27.0036663209
 20
16.8622335624
 10
27.0172971552
 20
16.82702023
 10
27.0351678752
 20
16.7928371239
 10
27.0566311371
 20
16.76092269
 10
27.0809091323
 20
16.7324332977
 10
27.1071223149
 20
16.7084011182
 10
27.1343209291
 20
16.6896968819
 10
27.1615195432
 20
16.6769982667
 10
27.1877327258
 20
16.6707653498
 10
27.2114976785
 20
16.6711405658
  0
ARC
  5
41F
330
1F
100
AcDbEntity
  8
0
  6
Continuous
 62
     7
 48
4.0
370
    15
100
AcDbCircle
 10
29.7859713394
 20
17.3163849041
 30
0.0
 40
0.1183509255994907
100
AcDbArc
 50
242.6097357762
 51
297.3902642238
  0
ARC
  5
420
330
1F
100
AcDbEntity
  8
0
  6
Continuous
 62
     7
 48
4.0
370
    15
100
AcDbCircle
 10
29.7881895657
 20
14.0432010782
 30
0.0
 40
0.1111040196923099
100
AcDbArc
 50
268.8559424715
 51
298.0401975452
  0
ARC
  5
421
330
1F
100
AcDbEntity
  8
0
  6
Continuous
 62
     7
 48
4.0
370
    15
100
AcDbCircle
 10
29.7859713394
 20
17.2570815154
 30
0.0
 40
0.0230556248805013
100
AcDbArc
 50
242.6100272199
 51
297.3899727802
  0
LINE
  5
422
330
1F
100
AcDbEntity
  8
0
  6
Continuous
 62
     7
 48
2.0
370
    15
100
AcDbLine
 10
29.432417979
 20
17.3839721803
 30
0.0
 11
29.731524124
 21
17.2113018782
 31
0.0
  0
LINE
  5
423
330
1F
100
AcDbEntity
  8
0
  6
Continuous
 62
     7
 48
2.0
370
    15
100
AcDbLine
 10
29.8404185549
 20
17.2113018782
 30
0.0
 11
31.8528444873
 21
18.3730506405
 31
0.0
  0
LINE
  5
424
330
1F
100
AcDbEntity
  8
0
  6
Continuous
 62
     7
 48
2.0
370
    15
100
AcDbLine
 10
29.8404185549
 20
13.9451386701
 30
0.0
 11
31.8528444873
 21
15.1068874324
 31
0.0
  0
LWPOLYLINE
  5
425
330
1F
100
AcDbEntity
  8
0
  6
Continuous
 62
     7
 48
2.0
370
    15
100
AcDbPolyline
 90
       26
 70
   128
 43
0.0
 10
30.6338081919
 20
16.6466797213
 10
30.6415905287
 20
16.5991608385
 10
30.6545616776
 20
16.5560367049
 10
30.6725455429
 20
16.5178934023
 10
30.6952974778
 20
16.4852492062
 10
30.7225084332
 20
16.4585477888
 10
30.753808587
 20
16.4381520514
 10
30.7887726335
 20
16.4243391837
 10
30.8269252799
 20
16.4172968011
 10
30.867748091
 20
16.4171206538
 10
30.9106863337
 20
16.4238131742
 10
30.9551564443
 20
16.4372833859
 10
31.0005541174
 20
16.4573482508
 10
31.0462623435
 20
16.4837350481
 10
31.0916600166
 20
16.5160852209
 10
31.1361301272
 20
16.5539591059
 10
31.1790683699
 20
16.5968420253
 10
31.2198912328
 20
16.6441512169
 10
31.2580438792
 20
16.6952437074
 10
31.2930078739
 20
16.7494251741
 10
31.3243080277
 20
16.8059592998
 10
31.351518983
 20
16.8640778176
 10
31.3742709698
 20
16.9229908686
 10
31.3922547314
 20
16.9818978402
 10
31.4052259322
 20
17.0399981735
 10
31.413008269
 20
17.096502351
  0
LWPOLYLINE
  5
426
330
1F
100
AcDbEntity
  8
0
  6
Continuous
 62
     7
 48
2.0
370
    15
100
AcDbPolyline
 90
        9
 70
   128
 43
0.0
 10
31.413008269
 20
17.096502351
 10
31.3968754841
 20
17.0918605502
 10
31.3833804553
 20
17.0952965639
 10
31.374434517
 20
17.1063236961
 10
31.3713047713
 20
17.1233801246
 10
31.374434517
 20
17.1440501404
 10
31.3833804553
 20
17.165406033
 10
31.3968754841
 20
17.1844230754
 10
31.413008269
 20
17.1984077316
  0
LWPOLYLINE
  5
427
330
1F
100
AcDbEntity
  8
0
  6
Continuous
 62
     7
 48
2.0
370
    15
100
AcDbPolyline
 90
       26
 70
   128
 43
0.0
 10
31.413008269
 20
17.1984077316
 10
31.4052259322
 20
17.2459266144
 10
31.3922547314
 20
17.289050718
 10
31.3742709698
 20
17.3271941104
 10
31.351518983
 20
17.3598382766
 10
31.3243080277
 20
17.3865396641
 10
31.2930078739
 20
17.4069354015
 10
31.2580438792
 20
17.4207482992
 10
31.2198912328
 20
17.4277906518
 10
31.1790683699
 20
17.427966844
 10
31.1361301272
 20
17.4212743086
 10
31.0916600166
 20
17.407804037
 10
31.0462623435
 20
17.387739262
 10
31.0005541174
 20
17.3613524647
 10
30.9551564443
 20
17.3290022021
 10
30.9106863337
 20
17.2911283769
 10
30.867748091
 20
17.2482454725
 10
30.8269252799
 20
17.200936236
 10
30.7887726335
 20
17.1498437754
 10
30.753808587
 20
17.0956622788
 10
30.7225084332
 20
17.0391281531
 10
30.6952974778
 20
16.9810096653
 10
30.6725455429
 20
16.9220966442
 10
30.6545616776
 20
16.8631895828
 10
30.6415905287
 20
16.8050892794
 10
30.6338081919
 20
16.7485851019
  0
LWPOLYLINE
  5
428
330
1F
100
AcDbEntity
  8
0
  6
Continuous
 62
     7
 48
2.0
370
    15
100
AcDbPolyline
 90
        9
 70
   128
 43
0.0
 10
30.6338081919
 20
16.7485851019
 10
30.6499409767
 20
16.7532269625
 10
30.6634360575
 20
16.7497909788
 10
30.6723819957
 20
16.7387638466
 10
30.6755116896
 20
16.7217073283
 10
30.6723819957
 20
16.7010374023
 10
30.6634360575
 20
16.6796815097
 10
30.6499409767
 20
16.6606644374
 10
30.6338081919
 20
16.6466797213
  0
LWPOLYLINE
  5
429
330
1F
100
AcDbEntity
  8
0
  6
Continuous
 62
     7
 48
2.0
370
    15
100
AcDbPolyline
 90
       30
 70
   128
 43
0.0
 10
30.4508928398
 20
15.2182604554
 10
30.4579099167
 20
15.1656192982
 10
30.4698923156
 20
15.1169651353
 10
30.4867152758
 20
15.0728041952
 10
30.5082037386
 20
15.0335961852
 10
30.5341341101
 20
14.9997490816
 10
30.5642364388
 20
14.971615118
 10
30.5981975273
 20
14.9494871916
 10
30.6356640429
 20
14.9335955104
 10
30.6762458371
 20
14.924105377
 10
30.7195207153
 20
14.9211155715
 10
30.7650382746
 20
14.9246573329
 10
30.8123248815
 20
14.9346937604
 10
30.8608884425
 20
14.9511205312
 10
30.9102233821
 20
14.973766379
 10
30.9598164504
 20
15.0023958479
 10
31.00915139
 20
15.036710909
 10
31.0577148473
 20
15.0763543723
 10
31.1050014542
 20
15.120913899
 10
31.1505190654
 20
15.1699256229
 10
31.1937939436
 20
15.2228795394
 10
31.2343757896
 20
15.2792244449
 10
31.2718422016
 20
15.3383739844
 10
31.3058033418
 20
15.3997125787
 10
31.3359057224
 20
15.4626019813
 10
31.3618360421
 20
15.5263876246
 10
31.3833245568
 20
15.5904057157
 10
31.400147517
 20
15.6539900322
 10
31.4121298639
 20
15.7164787484
 10
31.4191469927
 20
15.7772216801
  0
LWPOLYLINE
  5
42A
330
1F
100
AcDbEntity
  8
0
  6
Continuous
 62
     7
 48
2.0
370
    15
100
AcDbPolyline
 90
       10
 70
   128
 43
0.0
 10
31.4191469927
 20
15.7772216801
 10
31.4045815438
 20
15.772485363
 10
31.3919022805
 20
15.7742215758
 10
31.3825519855
 20
15.782232762
 10
31.3775948047
 20
15.7956072845
 10
31.3775948047
 20
15.8128230865
 10
31.3825519855
 20
15.8319209882
 10
31.3919022805
 20
15.8507277952
 10
31.4045815438
 20
15.8671032337
 10
31.4191469927
 20
15.879183826
  0
LWPOLYLINE
  5
42B
330
1F
100
AcDbEntity
  8
0
  6
Continuous
 62
     7
 48
2.0
370
    15
100
AcDbPolyline
 90
       30
 70
   128
 43
0.0
 10
31.4191469927
 20
15.879183826
 10
31.4121298639
 20
15.9318249533
 10
31.400147517
 20
15.9804791461
 10
31.3833245568
 20
16.0246400563
 10
31.3618360421
 20
16.0638480364
 10
31.3359057224
 20
16.0976951699
 10
31.3058033418
 20
16.1258291036
 10
31.2718422016
 20
16.1479570599
 10
31.2343757896
 20
16.1638488159
 10
31.1937939436
 20
16.1733389194
 10
31.1505190654
 20
16.1763286351
 10
31.1050014542
 20
16.1727868438
 10
31.0577148473
 20
16.1627504013
 10
31.00915139
 20
16.1463237801
 10
30.9598164504
 20
16.1236779249
 10
30.9102233821
 20
16.0950484559
 10
30.8608884425
 20
16.0607334024
 10
30.8123248815
 20
16.0210897893
 10
30.7650382746
 20
15.9765302776
 10
30.7195207153
 20
15.9275185837
 10
30.6762458371
 20
15.8745647571
 10
30.6356640429
 20
15.8182198815
 10
30.5981975273
 20
15.7590702671
 10
30.5642364388
 20
15.6977316428
 10
30.5341341101
 20
15.6348422702
 10
30.5082037386
 20
15.571056597
 10
30.4867152758
 20
15.5070385358
 10
30.4698923156
 20
15.4434542492
 10
30.4579099167
 20
15.3809655031
 10
30.4508928398
 20
15.3202226013
  0
LWPOLYLINE
  5
42C
330
1F
100
AcDbEntity
  8
0
  6
Continuous
 62
     7
 48
2.0
370
    15
100
AcDbPolyline
 90
       10
 70
   128
 43
0.0
 10
30.4508928398
 20
15.3202226013
 10
30.465458185
 20
15.3249588586
 10
30.4781375002
 20
15.3232226159
 10
30.4874877951
 20
15.3152114296
 10
30.4924449241
 20
15.3018369371
 10
30.4924449241
 20
15.2846211351
 10
30.4874877951
 20
15.2655232034
 10
30.4781375002
 20
15.2467163964
 10
30.465458185
 20
15.2303409878
 10
30.4508928398
 20
15.2182604554
  0
LINE
  5
42D
330
1F
100
AcDbEntity
  8
0
  6
Continuous
 62
     7
 48
2.0
370
    15
100
AcDbLine
 10
29.432417979
 20
17.3839721803
 30
0.0
 11
29.4762585833
 21
17.4092808224
 31
0.0
  0
LINE
  5
42E
330
1F
100
AcDbEntity
  8
0
  6
Continuous
 62
     7
 48
2.0
370
    15
100
AcDbLine
 10
29.4762585833
 20
17.4092808224
 30
0.0
 11
29.7753647282
 21
17.2366105203
 31
0.0
  0
LINE
  5
42F
330
1F
100
AcDbEntity
  8
0
  6
Continuous
 62
     7
 48
2.0
370
    15
100
AcDbLine
 10
29.7965779506
 20
17.2366105203
 30
0.0
 11
31.8090038831
 21
18.3983592826
 31
0.0
  0
LINE
  5
430
330
1F
100
AcDbEntity
  8
0
  6
Continuous
 62
     7
 48
2.0
370
    15
100
AcDbLine
 10
31.3910879668
 20
17.2110620527
 30
0.0
 11
31.413008269
 21
17.1984077316
 31
0.0
  0
ARC
  5
431
330
1F
100
AcDbEntity
  8
0
  6
Continuous
 62
     7
 48
4.0
370
    15
100
AcDbCircle
 10
31.1319889878
 20
17.2027978159
 30
0.0
 40
0.2592307438215773
100
AcDbArc
 50
1.8268903129
 51
52.5945993104
  0
LWPOLYLINE
  5
432
330
1F
100
AcDbEntity
  8
0
  6
Continuous
 62
     7
 48
2.0
370
    15
100
AcDbPolyline
 90
        8
 70
   128
 43
0.0
 10
31.3623311949
 20
17.1074191379
 10
31.3614601531
 20
17.107950885
 10
31.3525142149
 20
17.1189780172
 10
31.3493844692
 20
17.1360344456
 10
31.3525142149
 20
17.1567044615
 10
31.3614601531
 20
17.1780603541
 10
31.374955182
 20
17.1970773965
 10
31.3910879668
 20
17.2110620527
  0
LWPOLYLINE
  5
433
330
1F
100
AcDbEntity
  8
0
  6
Continuous
 62
     7
 48
2.0
370
    15
100
AcDbPolyline
 90
       20
 70
   128
 43
0.0
 10
30.7354372694
 20
16.4490221252
 10
30.7668523314
 20
16.4369935047
 10
30.8050049778
 20
16.4299511221
 10
30.8458277889
 20
16.4297749749
 10
30.8887660316
 20
16.4364674953
 10
30.9332361422
 20
16.449937707
 10
30.9786338153
 20
16.4700025718
 10
31.0243420414
 20
16.4963893691
 10
31.0697397145
 20
16.5287395419
 10
31.114209825
 20
16.566613427
 10
31.1571480677
 20
16.6094963464
 10
31.1979709307
 20
16.656805538
 10
31.2361235771
 20
16.7078980285
 10
31.2710875718
 20
16.7620794952
 10
31.3023877256
 20
16.8186136209
 10
31.3295986809
 20
16.8767321386
 10
31.3523506677
 20
16.9356451896
 10
31.3703344293
 20
16.9945521612
 10
31.3833056301
 20
17.0526524946
 10
31.3893345791
 20
17.092659642
  0
LINE
  5
434
330
1F
100
AcDbEntity
  8
0
  6
Continuous
 62
     7
 48
2.0
370
    15
100
AcDbLine
 10
30.6355615796
 20
16.7650821499
 30
0.0
 11
30.6406447136
 21
16.7629769871
 31
0.0
  0
ARC
  5
435
330
1F
100
AcDbEntity
  8
0
  6
Continuous
 62
     7
 48
4.0
370
    15
100
AcDbCircle
 10
31.1327539527
 20
17.1417187591
 30
0.0
 40
0.1932969119309814
100
AcDbArc
 50
63.0960256409
 51
116.8104624661
  0
LWPOLYLINE
  5
436
330
1F
100
AcDbEntity
  8
0
  6
Continuous
 62
     7
 48
2.0
370
    15
100
AcDbPolyline
 90
       19
 70
   128
 43
0.0
 10
30.7827557146
 20
16.5563016941
 10
30.7733266017
 20
16.562235866
 10
30.7485961294
 20
16.5834486643
 10
30.7279775676
 20
16.6103808055
 10
30.7118063071
 20
16.6425944232
 10
30.7003452474
 20
16.6795657913
 10
30.6937806476
 20
16.7206936176
 10
30.6922193267
 20
16.7653092836
 10
30.6956866932
 20
16.8126873533
 10
30.70412633
 20
16.8620573691
 10
30.7174010316
 20
16.9126166665
 10
30.7352949823
 20
16.9635431872
 10
30.7575170741
 20
17.0140087129
 10
30.7837060928
 20
17.0631928156
 10
30.813436318
 20
17.110295792
 10
30.8462241601
 20
17.1545517156
 10
30.8815365611
 20
17.195240951
 10
30.9187992909
 20
17.2317019496
 10
30.9574065923
 20
17.2633417267
  0
ARC
  5
437
330
1F
100
AcDbEntity
  8
0
  6
Continuous
 62
     7
 48
4.0
370
    15
100
AcDbCircle
 10
30.9647521574
 20
17.3141041169
 30
0.0
 40
0.0808171641265833
100
AcDbArc
 50
283.1842048289
 51
0.0941543506
  0
LWPOLYLINE
  5
438
330
1F
100
AcDbEntity
  8
0
  6
Continuous
 62
     7
 48
2.0
370
    15
100
AcDbPolyline
 90
       48
 70
   128
 43
0.0
 10
31.0674895146
 20
17.3015826029
 10
31.106096816
 20
17.3145178672
 10
31.1433595977
 20
17.3210795306
 10
31.1786720505
 20
17.3211611555
 10
31.2114598926
 20
17.3147612686
 10
31.2411900141
 20
17.3019840197
 10
31.2673790847
 20
17.2830371443
 10
31.2896012283
 20
17.2582287297
 10
31.3074951271
 20
17.2279620946
 10
31.3207697769
 20
17.1927294116
 10
31.3292094137
 20
17.153103593
 10
31.3326767802
 20
17.1097288595
 10
31.3311155111
 20
17.0633105607
 10
31.3245509113
 20
17.0146034087
 10
31.3130898516
 20
16.9643993828
 10
31.2969185393
 20
16.9135147953
 10
31.2763000812
 20
16.8627770291
 10
31.2515696089
 20
16.8130110354
 10
31.2231292495
 20
16.7650260405
 10
31.1914414878
 20
16.7196022541
 10
31.1570214924
 20
16.6774782349
 10
31.120429026
 20
16.6393389755
 10
31.0822590085
 20
16.6058045568
 10
31.0431320792
 20
16.5774202683
 10
31.0036844335
 20
16.5546476271
 10
30.9645574523
 20
16.5378568947
 10
30.9263874867
 20
16.5273211792
 10
30.8897949166
 20
16.5232116163
 10
30.8553750249
 20
16.5255952147
 10
30.8236872114
 20
16.5344330603
 10
30.7952469038
 20
16.549581545
 10
30.7705164315
 20
16.5707943432
 10
30.7498978697
 20
16.5977264844
 10
30.7337266093
 20
16.6299401021
 10
30.7222655495
 20
16.6669114702
 10
30.7157009497
 20
16.7080392966
 10
30.7141396289
 20
16.7526549626
 10
30.7176069953
 20
16.8000330322
 10
30.7260466321
 20
16.849403048
 10
30.7393213338
 20
16.8999623454
 10
30.7572152844
 20
16.9508888662
 10
30.7794373762
 20
17.0013543918
 10
30.8056263949
 20
17.0505384946
 10
30.8353566201
 20
17.0976414709
 10
30.8681444622
 20
17.1418973945
 10
30.9034568632
 20
17.18258663
 10
30.9407195931
 20
17.2190476285
 10
30.9793268945
 20
17.2506874057
  0
LWPOLYLINE
  5
439
330
1F
100
AcDbEntity
  8
0
  6
Continuous
 62
     7
 48
2.0
370
    15
100
AcDbPolyline
 90
        9
 70
   128
 43
0.0
 10
30.9793268945
 20
17.2506874057
 10
30.9835431349
 20
17.2347381871
 10
30.9932949865
 20
17.2250434061
 10
31.0072282326
 20
17.2229492689
 10
31.0234082045
 20
17.2287465497
 10
31.0395882282
 20
17.2416302967
 10
31.0535214744
 20
17.2598114175
 10
31.0632732741
 20
17.2807654167
 10
31.0674895146
 20
17.3015826029
  0
LINE
  5
43A
330
1F
100
AcDbEntity
  8
0
  6
Continuous
 62
     7
 48
2.0
370
    15
100
AcDbLine
 10
30.9793268945
 20
17.2506874057
 30
0.0
 11
30.9574065923
 21
17.2633417267
 31
0.0
  0
LINE
  5
43B
330
1F
100
AcDbEntity
  8
0
  6
Continuous
 62
     7
 48
2.0
370
    15
100
AcDbLine
 10
31.0674895146
 20
17.3015826029
 30
0.0
 11
31.0455692124
 21
17.314236924
 31
0.0
  0
ARC
  5
43C
330
1F
100
AcDbEntity
  8
0
  6
Continuous
 62
     7
 48
4.0
370
    15
100
AcDbCircle
 10
31.8409150667
 20
18.404482352
 30
0.0
 40
0.0336193926862638
100
AcDbArc
 50
290.783484229
 51
69.2165039557
  0
ARC
  5
43D
330
1F
100
AcDbEntity
  8
0
  6
Continuous
 62
     7
 48
4.0
370
    15
100
AcDbCircle
 10
31.8368621882
 20
15.1421618131
 30
0.0
 40
0.0387261645414036
100
AcDbArc
 50
294.374575651
 51
354.3053842676
  0
ARC
  5
43E
330
1F
100
AcDbEntity
  8
0
  6
Continuous
 62
     7
 48
4.0
370
    15
100
AcDbCircle
 10
31.8066800199
 20
18.4044823443
 30
0.0
 40
0.0065492155066063
100
AcDbArc
 50
290.7830723857
 51
69.2170185924
  0
LINE
  5
43F
330
1F
100
AcDbEntity
  8
0
  6
Continuous
 62
     7
 48
2.0
370
    15
100
AcDbLine
 10
31.8090038733
 20
18.4106054096
 30
0.0
 11
29.0894712136
 21
19.9805581967
 31
0.0
  0
LINE
  5
440
330
1F
100
AcDbEntity
  8
0
  6
Continuous
 62
     7
 48
2.0
370
    15
100
AcDbLine
 10
31.8528444938
 20
18.4359140611
 30
0.0
 11
29.1333118341
 21
20.0058668481
 31
0.0
  0
LINE
  5
441
330
1F
100
AcDbEntity
  8
0
  6
Continuous
 62
     7
 48
2.0
370
    15
100
AcDbLine
 10
31.3972266906
 20
15.891838147
 30
0.0
 11
31.4191469927
 21
15.879183826
 31
0.0
  0
ARC
  5
442
330
1F
100
AcDbEntity
  8
0
  6
Continuous
 62
     7
 48
4.0
370
    15
100
AcDbCircle
 10
31.0789043357
 20
15.8937879079
 30
0.0
 40
0.3183283260866946
100
AcDbArc
 50
359.6490611807
 51
53.6445523337
  0
ARC
  5
443
330
1F
100
AcDbEntity
  8
0
  6
Continuous
 62
     7
 48
4.0
370
    15
100
AcDbCircle
 10
30.8764113973
 20
16.0358290863
 30
0.0
 40
0.0808173345048069
100
AcDbArc
 50
283.149571512
 51
0.6489478204
  0
LWPOLYLINE
  5
444
330
1F
100
AcDbEntity
  8
0
  6
Continuous
 62
     7
 48
2.0
370
    15
100
AcDbPolyline
 90
       21
 70
   128
 43
0.0
 10
30.8689756802
 20
15.9858000164
 10
30.8248311084
 20
15.9515695414
 10
30.7818383154
 20
15.9122473748
 10
30.7405584641
 20
15.8683466717
 10
30.7015300053
 20
15.8204402136
 10
30.6652624555
 20
15.7691532689
 10
30.6322289296
 20
15.7151549705
 10
30.6028605409
 20
15.6591500235
 10
30.5775404898
 20
15.6018691848
 10
30.5565991893
 20
15.5440599525
 10
30.5403099094
 20
15.486476686
 10
30.5288852511
 20
15.4298708165
 10
30.5224742426
 20
15.374980967
 10
30.5211604722
 20
15.322523402
 10
30.5249612592
 20
15.2731826561
 10
30.5338269276
 20
15.2276026725
 10
30.5476418432
 20
15.18637812
 10
30.5662255544
 20
15.1500469082
 10
30.5893356961
 20
15.1190832416
 10
30.6166706859
 20
15.0938911518
 10
30.6358720808
 20
15.0811523152
  0
ARC
  5
445
330
1F
100
AcDbEntity
  8
0
  6
Continuous
 62
     7
 48
4.0
370
    15
100
AcDbCircle
 10
31.0785135423
 20
15.8117258582
 30
0.0
 40
0.2556259349207399
100
AcDbArc
 50
64.061214432
 51
118.3256512072
  0
LWPOLYLINE
  5
446
330
1F
100
AcDbEntity
  8
0
  6
Continuous
 62
     7
 48
2.0
370
    15
100
AcDbPolyline
 90
        8
 70
   128
 43
0.0
 10
31.3679880404
 20
15.7878886672
 10
31.3606316834
 20
15.7948870831
 10
31.3556745026
 20
15.8082616055
 10
31.3556745026
 20
15.8254774076
 10
31.3606316834
 20
15.8445753093
 10
31.3699819783
 20
15.8633821163
 10
31.3826612417
 20
15.8797575548
 10
31.3972266906
 20
15.891838147
  0
LWPOLYLINE
  5
447
330
1F
100
AcDbEntity
  8
0
  6
Continuous
 62
     7
 48
2.0
370
    15
100
AcDbPolyline
 90
       23
 70
   128
 43
0.0
 10
30.5805124441
 20
14.9599433176
 10
30.6137437408
 20
14.9462498315
 10
30.654325535
 20
14.9367596981
 10
30.6976004132
 20
14.9337698925
 10
30.7431179725
 20
14.9373116539
 10
30.7904045794
 20
14.9473480815
 10
30.8389681404
 20
14.9637748523
 10
30.88830308
 20
14.9864207001
 10
30.9378961483
 20
15.015050169
 10
30.9872310879
 20
15.04936523
 10
31.0357945452
 20
15.0890086934
 10
31.0830811521
 20
15.1335682201
 10
31.1285987633
 20
15.182579944
 10
31.1718736415
 20
15.2355338604
 10
31.2124554875
 20
15.2918787659
 10
31.2499218994
 20
15.3510283054
 10
31.2838830397
 20
15.4123668998
 10
31.3139854203
 20
15.4752563024
 10
31.3399157399
 20
15.5390419457
 10
31.3614042546
 20
15.6030600367
 10
31.3782272149
 20
15.6666443533
 10
31.3902095618
 20
15.7291330694
 10
31.3957534176
 20
15.7729369183
  0
LWPOLYLINE
  5
448
330
1F
100
AcDbEntity
  8
0
  6
Continuous
 62
     7
 48
2.0
370
    15
100
AcDbPolyline
 90
        3
 70
   128
 43
0.0
 10
30.4523660091
 20
15.3371615824
 10
30.4562171981
 20
15.3358769369
 10
30.4582110842
 20
15.3348641965
  0
LINE
  5
449
330
1F
100
AcDbEntity
  8
0
  6
Continuous
 62
     7
 48
2.0
370
    15
100
AcDbLine
 10
30.8908959823
 20
15.9731456953
 30
0.0
 11
30.8689756802
 21
15.9858000164
 31
0.0
  0
LWPOLYLINE
  5
44A
330
1F
100
AcDbEntity
  8
0
  6
Continuous
 62
     7
 48
2.0
370
    15
100
AcDbPolyline
 90
       54
 70
   128
 43
0.0
 10
30.8908959823
 20
15.9731456953
 10
30.8467514105
 20
15.9389152203
 10
30.8037586175
 20
15.8995930537
 10
30.7624787662
 20
15.8556923506
 10
30.7234503074
 20
15.8077858926
 10
30.6871827576
 20
15.7564989478
 10
30.6541492317
 20
15.7025006495
 10
30.624780843
 20
15.6464957025
 10
30.5994607919
 20
15.5892148638
 10
30.5785194914
 20
15.5314056314
 10
30.5622302115
 20
15.4738223649
 10
30.5508055532
 20
15.4172164954
 10
30.5443945447
 20
15.362326646
 10
30.5430807743
 20
15.3098690809
 10
30.5468815613
 20
15.2605283351
 10
30.5557472297
 20
15.2149483514
 10
30.5695621453
 20
15.1737237989
 10
30.5881458565
 20
15.1373925872
 10
30.6112559982
 20
15.1064289205
 10
30.6385909881
 20
15.0812368307
 10
30.6697941751
 20
15.0621450268
 10
30.7044582986
 20
15.0494025836
 10
30.7421309854
 20
15.0431758276
 10
30.7823207641
 20
15.0435460006
 10
30.8245031844
 20
15.0505084215
 10
30.8681276615
 20
15.0639719462
 10
30.9126250473
 20
15.0837610631
 10
30.9574146816
 20
15.1096175686
 10
31.0019120673
 20
15.1412040397
 10
31.0455366482
 20
15.1781083241
 10
31.0877190166
 20
15.2198486591
 10
31.1279087953
 20
15.2658806168
 10
31.1655815339
 20
15.3156033611
 10
31.2002456056
 20
15.3683681195
 10
31.2314487926
 20
15.4234863563
 10
31.2587837825
 20
15.4802387537
 10
31.2818939242
 20
15.5378848219
 10
31.3004776872
 20
15.5956723598
 10
31.3142924991
 20
15.6528472145
 10
31.3231581675
 20
15.708663281
 10
31.3269589545
 20
15.7623923222
 10
31.3256452879
 20
15.8133331001
 10
31.3192342274
 20
15.8608209266
 10
31.3078095692
 20
15.9042361664
 10
31.2915202893
 20
15.9430122307
 10
31.2705789887
 20
15.9766431521
 10
31.2452589895
 20
16.004690112
 10
31.215890549
 20
16.0267870093
 10
31.1828570231
 20
16.0426456105
 10
31.1465894214
 20
16.0520589036
 10
31.1075610663
 20
16.0549041222
 10
31.0662811632
 20
16.0511440935
 10
31.023288422
 20
16.0408278678
 10
30.9791438502
 20
16.0240901051
  0
LINE
  5
44B
330
1F
100
AcDbEntity
  8
0
  6
Continuous
 62
     7
 48
2.0
370
    15
100
AcDbLine
 10
30.9791438502
 20
16.0240901051
 30
0.0
 11
30.9572235481
 21
16.0367444261
 31
0.0
  0
LWPOLYLINE
  5
44C
330
1F
100
AcDbEntity
  8
0
  6
Continuous
 62
     7
 48
2.0
370
    15
100
AcDbPolyline
 90
        9
 70
   128
 43
0.0
 10
30.9791438502
 20
16.0240901051
 10
30.9750984165
 20
16.0031251515
 10
30.9653765365
 20
15.9819292385
 10
30.951355035
 20
15.9635043736
 10
30.9350199163
 20
15.9504602254
 10
30.9186846938
 20
15.9446441871
 10
30.9046631923
 20
15.9468801709
 10
30.8949413123
 20
15.9568514402
 10
30.8908959823
 20
15.9731456953
  0
LINE
  5
44D
330
1F
100
AcDbEntity
  8
0
  6
Continuous
 62
     7
 48
2.0
370
    15
100
AcDbLine
 10
27.0119914643
 20
18.7812546653
 30
0.0
 11
27.3110976093
 21
18.6085843632
 31
0.0
  0
LINE
  5
44E
330
1F
100
AcDbEntity
  8
0
  6
Continuous
 62
     7
 48
2.0
370
    15
100
AcDbLine
 10
27.0558320685
 20
18.8065633074
 30
0.0
 11
27.3549382135
 21
18.6338930053
 31
0.0
  0
LINE
  5
44F
330
1F
100
AcDbEntity
  8
0
  6
Continuous
 62
     7
 48
2.0
370
    15
100
AcDbLine
 10
27.3549382135
 20
18.6338930053
 30
0.0
 11
27.3110976093
 21
18.6085843632
 31
0.0
  0
LINE
  5
450
330
1F
100
AcDbEntity
  8
0
  6
Continuous
 62
     7
 48
2.0
370
    15
100
AcDbLine
 10
27.3549382135
 20
18.6338930053
 30
0.0
 11
27.3549382135
 21
18.5961317713
 31
0.0
  0
ARC
  5
451
330
1F
100
AcDbEntity
  8
0
  6
Continuous
 62
     7
 48
4.0
370
    15
100
AcDbCircle
 10
27.0581560529
 20
18.8126863737
 30
0.0
 40
0.0065492628955437
100
AcDbArc
 50
110.784050042
 51
249.215949958
  0
ARC
  5
452
330
1F
100
AcDbEntity
  8
0
  6
Continuous
 62
     7
 48
4.0
370
    15
100
AcDbCircle
 10
27.0239209202
 20
18.8126863737
 30
0.0
 40
0.0336194023383219
100
AcDbArc
 50
110.7835424636
 51
249.2164575364
  0
LINE
  5
453
330
1F
100
AcDbEntity
  8
0
  6
Continuous
 62
     7
 48
2.0
370
    15
100
AcDbLine
 10
29.068258001
 20
19.9805582023
 30
0.0
 11
27.0558320685
 21
18.81880944
 31
0.0
  0
LINE
  5
454
330
1F
100
AcDbEntity
  8
0
  6
Continuous
 62
     7
 48
2.0
370
    15
100
AcDbLine
 10
29.0244173967
 20
20.0058668444
 30
0.0
 11
27.0119914643
 21
18.8441180821
 31
0.0
  0
ARC
  5
455
330
1F
100
AcDbEntity
  8
0
  6
Continuous
 62
     7
 48
4.0
370
    15
100
AcDbCircle
 10
29.0788646019
 20
19.9600876992
 30
0.0
 40
0.0230551833455801
100
AcDbArc
 50
62.6094571307
 51
117.3905125499
  0
ARC
  5
456
330
1F
100
AcDbEntity
  8
0
  6
Continuous
 62
     7
 48
4.0
370
    15
100
AcDbCircle
 10
29.078864619
 20
19.9007839291
 30
0.0
 40
0.1183508306011363
100
AcDbArc
 50
62.6097121486
 51
117.390291789
  0
LINE
  5
457
330
1F
100
AcDbEntity
  8
0
  6
Continuous
 62
     7
 48
2.0
370
    15
100
AcDbLine
 10
17.8666271117
 20
12.4212230958
 30
0.0
 11
17.8666271117
 21
12.4522230844
 31
0.0
  0
LINE
  5
458
330
1F
100
AcDbEntity
  8
0
  6
Continuous
 62
     7
 48
2.0
370
    15
100
AcDbLine
 10
14.8716271769
 20
8.6072230755
 30
0.0
 11
14.8716271769
 21
8.5762230869
 31
0.0
  0
LINE
  5
459
330
1F
100
AcDbEntity
  8
0
  6
Continuous
 62
     7
 48
2.0
370
    15
100
AcDbLine
 10
14.9001271143
 20
12.437223071
 30
0.0
 11
14.9001271143
 21
12.0142231042
 31
0.0
  0
LINE
  5
45A
330
1F
100
AcDbEntity
  8
0
  6
Continuous
 62
     7
 48
2.0
370
    15
100
AcDbLine
 10
17.8381271743
 20
12.0142231042
 30
0.0
 11
14.9001271143
 21
12.0142231042
 31
0.0
  0
LINE
  5
45B
330
1F
100
AcDbEntity
  8
0
  6
Continuous
 62
     7
 48
2.0
370
    15
100
AcDbLine
 10
17.8381271743
 20
12.437223071
 30
0.0
 11
17.8381271743
 21
12.0142231042
 31
0.0
  0
LINE
  5
45C
330
1F
100
AcDbEntity
  8
0
  6
Continuous
 62
     7
 48
2.0
370
    15
100
AcDbLine
 10
17.8381271743
 20
12.5142230615
 30
0.0
 11
17.8381271743
 21
12.437223071
 31
0.0
  0
LINE
  5
45D
330
1F
100
AcDbEntity
  8
0
  6
Continuous
 62
     7
 48
2.0
370
    15
100
AcDbLine
 10
14.9001271143
 20
12.5142230615
 30
0.0
 11
14.9001271143
 21
12.437223071
 31
0.0
  0
LINE
  5
45E
330
1F
100
AcDbEntity
  8
0
  6
Continuous
 62
     7
 48
2.0
370
    15
100
AcDbLine
 10
14.9001271143
 20
12.5142230615
 30
0.0
 11
17.8381271743
 21
12.5142230615
 31
0.0
  0
LINE
  5
45F
330
1F
100
AcDbEntity
  8
0
  6
Continuous
 62
     7
 48
2.0
370
    15
100
AcDbLine
 10
14.9001271143
 20
12.4522230844
 30
0.0
 11
14.8691271258
 21
12.4522230844
 31
0.0
  0
LINE
  5
460
330
1F
100
AcDbEntity
  8
0
  6
Continuous
 62
     7
 48
2.0
370
    15
100
AcDbLine
 10
14.9001271143
 20
12.5142230615
 30
0.0
 11
14.8691271258
 21
12.5142230615
 31
0.0
  0
LINE
  5
461
330
1F
100
AcDbEntity
  8
0
  6
Continuous
 62
     7
 48
2.0
370
    15
100
AcDbLine
 10
17.8381271743
 20
12.4522230844
 30
0.0
 11
17.8691271628
 21
12.4522230844
 31
0.0
  0
LINE
  5
462
330
1F
100
AcDbEntity
  8
0
  6
Continuous
 62
     7
 48
2.0
370
    15
100
AcDbLine
 10
17.8381271743
 20
12.5142230615
 30
0.0
 11
17.8691271628
 21
12.5142230615
 31
0.0
  0
LINE
  5
463
330
1F
100
AcDbEntity
  8
0
  6
Continuous
 62
     7
 48
2.0
370
    15
100
AcDbLine
 10
17.8666271117
 20
12.4212230958
 30
0.0
 11
17.8381271743
 21
12.4212230958
 31
0.0
  0
LINE
  5
464
330
1F
100
AcDbEntity
  8
0
  6
Continuous
 62
     7
 48
2.0
370
    15
100
AcDbLine
 10
14.8691271258
 20
12.0762230813
 30
0.0
 11
14.9001271143
 21
12.0762230813
 31
0.0
  0
LINE
  5
465
330
1F
100
AcDbEntity
  8
0
  6
Continuous
 62
     7
 48
2.0
370
    15
100
AcDbLine
 10
17.8381271743
 20
12.0762230813
 30
0.0
 11
17.8691271628
 21
12.0762230813
 31
0.0
  0
LINE
  5
466
330
1F
100
AcDbEntity
  8
0
  6
Continuous
 62
     7
 48
2.0
370
    15
100
AcDbLine
 10
17.8381271743
 20
8.5912231003
 30
0.0
 11
17.8381271743
 21
9.0142230671
 31
0.0
  0
LINE
  5
467
330
1F
100
AcDbEntity
  8
0
  6
Continuous
 62
     7
 48
2.0
370
    15
100
AcDbLine
 10
14.9001271143
 20
8.5912231003
 30
0.0
 11
14.9001271143
 21
9.0142230671
 31
0.0
  0
LINE
  5
468
330
1F
100
AcDbEntity
  8
0
  6
Continuous
 62
     7
 48
2.0
370
    15
100
AcDbLine
 10
14.9001271143
 20
9.0142230671
 30
0.0
 11
17.8381271743
 21
9.0142230671
 31
0.0
  0
LINE
  5
469
330
1F
100
AcDbEntity
  8
0
  6
Continuous
 62
     7
 48
2.0
370
    15
100
AcDbLine
 10
14.9001271143
 20
8.5142231098
 30
0.0
 11
14.9001271143
 21
8.5912231003
 31
0.0
  0
LINE
  5
46A
330
1F
100
AcDbEntity
  8
0
  6
Continuous
 62
     7
 48
2.0
370
    15
100
AcDbLine
 10
17.8381271743
 20
8.5142231098
 30
0.0
 11
17.8381271743
 21
8.5912231003
 31
0.0
  0
LINE
  5
46B
330
1F
100
AcDbEntity
  8
0
  6
Continuous
 62
     7
 48
2.0
370
    15
100
AcDbLine
 10
17.8381271743
 20
8.5142231098
 30
0.0
 11
14.9001271143
 21
8.5142231098
 31
0.0
  0
LINE
  5
46C
330
1F
100
AcDbEntity
  8
0
  6
Continuous
 62
     7
 48
2.0
370
    15
100
AcDbLine
 10
14.9001271143
 20
8.5762230869
 30
0.0
 11
14.8691271258
 21
8.5762230869
 31
0.0
  0
LINE
  5
46D
330
1F
100
AcDbEntity
  8
0
  6
Continuous
 62
     7
 48
2.0
370
    15
100
AcDbLine
 10
14.9001271143
 20
8.5142231098
 30
0.0
 11
14.8691271258
 21
8.5142231098
 31
0.0
  0
LINE
  5
46E
330
1F
100
AcDbEntity
  8
0
  6
Continuous
 62
     7
 48
2.0
370
    15
100
AcDbLine
 10
17.8381271743
 20
8.5762230869
 30
0.0
 11
17.8691271628
 21
8.5762230869
 31
0.0
  0
LINE
  5
46F
330
1F
100
AcDbEntity
  8
0
  6
Continuous
 62
     7
 48
2.0
370
    15
100
AcDbLine
 10
17.8381271743
 20
8.5142231098
 30
0.0
 11
17.8691271628
 21
8.5142231098
 31
0.0
  0
LINE
  5
470
330
1F
100
AcDbEntity
  8
0
  6
Continuous
 62
     7
 48
2.0
370
    15
100
AcDbLine
 10
14.8716271769
 20
8.6072230755
 30
0.0
 11
14.9001271143
 21
8.6072230755
 31
0.0
  0
LINE
  5
471
330
1F
100
AcDbEntity
  8
0
  6
Continuous
 62
     7
 48
2.0
370
    15
100
AcDbLine
 10
17.8691271628
 20
8.95222309
 30
0.0
 11
17.8381271743
 21
8.95222309
 31
0.0
  0
LINE
  5
472
330
1F
100
AcDbEntity
  8
0
  6
Continuous
 62
     7
 48
2.0
370
    15
100
AcDbLine
 10
14.9001271143
 20
8.95222309
 30
0.0
 11
14.8691271258
 21
8.95222309
 31
0.0
  0
LINE
  5
473
330
1F
100
AcDbEntity
  8
0
  6
Continuous
 62
     7
 48
2.0
370
    15
100
AcDbLine
 10
14.446127159
 20
12.5142230615
 30
0.0
 11
14.8691271258
 21
12.5142230615
 31
0.0
  0
LINE
  5
474
330
1F
100
AcDbEntity
  8
0
  6
Continuous
 62
     7
 48
2.0
370
    15
100
AcDbLine
 10
14.8691271258
 20
12.5142230615
 30
0.0
 11
14.8691271258
 21
8.5142231098
 31
0.0
  0
LINE
  5
475
330
1F
100
AcDbEntity
  8
0
  6
Continuous
 62
     7
 48
2.0
370
    15
100
AcDbLine
 10
14.446127159
 20
8.5142231098
 30
0.0
 11
14.8691271258
 21
8.5142231098
 31
0.0
  0
CIRCLE
  5
476
330
1F
100
AcDbEntity
  8
0
  6
Continuous
 62
     7
 48
4.0
370
    15
100
AcDbCircle
 10
14.6191271443
 20
10.5142230856
 30
0.0
 40
0.0850000000000009
  0
LINE
  5
477
330
1F
100
AcDbEntity
  8
0
  6
Continuous
 62
     7
 48
2.0
370
    15
100
AcDbLine
 10
17.8691271628
 20
12.5142230615
 30
0.0
 11
17.8691271628
 21
8.5142231098
 31
0.0
  0
LINE
  5
478
330
1F
100
AcDbEntity
  8
0
  6
Continuous
 62
     7
 48
2.0
370
    15
100
AcDbLine
 10
17.8691271628
 20
12.5142230615
 30
0.0
 11
18.2921271296
 21
12.5142230615
 31
0.0
  0
LINE
  5
479
330
1F
100
AcDbEntity
  8
0
  6
Continuous
 62
     7
 48
2.0
370
    15
100
AcDbLine
 10
17.8691271628
 20
8.5142231098
 30
0.0
 11
18.2921271296
 21
8.5142231098
 31
0.0
  0
CIRCLE
  5
47A
330
1F
100
AcDbEntity
  8
0
  6
Continuous
 62
     7
 48
4.0
370
    15
100
AcDbCircle
 10
18.1191271443
 20
10.5142230856
 30
0.0
 40
0.0849999999999973
  0
LINE
  5
47B
330
1F
100
AcDbEntity
  8
0
  6
Continuous
 62
     7
 48
2.0
370
    15
100
AcDbLine
 10
14.3691271685
 20
12.5142230615
 30
0.0
 11
14.3691271685
 21
8.5142231098
 31
0.0
  0
LINE
  5
47C
330
1F
100
AcDbEntity
  8
0
  6
Continuous
 62
     7
 48
2.0
370
    15
100
AcDbLine
 10
14.3691271685
 20
12.5142230615
 30
0.0
 11
14.446127159
 21
12.5142230615
 31
0.0
  0
LINE
  5
47D
330
1F
100
AcDbEntity
  8
0
  6
Continuous
 62
     7
 48
2.0
370
    15
100
AcDbLine
 10
14.3691271685
 20
8.5142231098
 30
0.0
 11
14.446127159
 21
8.5142231098
 31
0.0
  0
LINE
  5
47E
330
1F
100
AcDbEntity
  8
0
  6
Continuous
 62
     7
 48
2.0
370
    15
100
AcDbLine
 10
18.3691271201
 20
12.5142230615
 30
0.0
 11
18.3691271201
 21
8.5142231098
 31
0.0
  0
LINE
  5
47F
330
1F
100
AcDbEntity
  8
0
  6
Continuous
 62
     7
 48
2.0
370
    15
100
AcDbLine
 10
18.2921271296
 20
8.5142231098
 30
0.0
 11
18.3691271201
 21
8.5142231098
 31
0.0
  0
LINE
  5
480
330
1F
100
AcDbEntity
  8
0
  6
Continuous
 62
     7
 48
2.0
370
    15
100
AcDbLine
 10
18.2921271296
 20
12.5142230615
 30
0.0
 11
18.3691271201
 21
12.5142230615
 31
0.0
  0
CIRCLE
  5
481
330
1F
100
AcDbEntity
  8
0
  6
Continuous
 62
     7
 48
4.0
370
    15
100
AcDbCircle
 10
16.3691271443
 20
10.5142230856
 30
0.0
 40
0.0849999999999991
  0
CIRCLE
  5
482
330
1F
100
AcDbEntity
  8
0
  6
Continuous
 62
     7
 48
4.0
370
    15
100
AcDbCircle
 10
16.3691271443
 20
10.5142230856
 30
0.0
 40
0.641612849930727
  0
ARC
  5
483
330
1F
100
AcDbEntity
  8
0
  6
Continuous
 62
     7
 48
4.0
370
    15
100
AcDbCircle
 10
17.8691271443
 20
11.5142230856
 30
0.0
 40
0.140500000000003
100
AcDbArc
 50
90.0
 51
180.0
  0
ARC
  5
484
330
1F
100
AcDbEntity
  8
0
  6
Continuous
 62
     7
 48
4.0
370
    15
100
AcDbCircle
 10
17.8691271443
 20
11.5142230856
 30
0.0
 40
0.140500000000003
100
AcDbArc
 50
180.0
 51
270.0
  0
ARC
  5
485
330
1F
100
AcDbEntity
  8
0
  6
Continuous
 62
     7
 48
4.0
370
    15
100
AcDbCircle
 10
14.8691271443
 20
11.5142230856
 30
0.0
 40
0.1405000000000012
100
AcDbArc
 50
270.0
 51
0.0
  0
ARC
  5
486
330
1F
100
AcDbEntity
  8
0
  6
Continuous
 62
     7
 48
4.0
370
    15
100
AcDbCircle
 10
14.8691271443
 20
11.5142230856
 30
0.0
 40
0.1405000000000012
100
AcDbArc
 50
0.0
 51
90.0
  0
ARC
  5
487
330
1F
100
AcDbEntity
  8
0
  6
Continuous
 62
     7
 48
4.0
370
    15
100
AcDbCircle
 10
17.8691271443
 20
9.5142230856
 30
0.0
 40
0.1405000000000012
100
AcDbArc
 50
90.0
 51
270.0
  0
ARC
  5
488
330
1F
100
AcDbEntity
  8
0
  6
Continuous
 62
     7
 48
4.0
370
    15
100
AcDbCircle
 10
14.8691271443
 20
9.5142230856
 30
0.0
 40
0.1405000000000012
100
AcDbArc
 50
270.0
 51
90.0
  0
LINE
  5
489
330
1F
100
AcDbEntity
  8
0
  6
HIDDEN
 62
     7
 48
2.0
370
     0
100
AcDbLine
 10
14.9001271143
 20
12.4522230844
 30
0.0
 11
17.8381271743
 21
12.4522230844
 31
0.0
  0
LINE
  5
48A
330
1F
100
AcDbEntity
  8
0
  6
HIDDEN
 62
     7
 48
2.0
370
     0
100
AcDbLine
 10
14.8691271258
 20
12.4522230844
 30
0.0
 11
14.5081271361
 21
12.4522230844
 31
0.0
  0
LINE
  5
48B
330
1F
100
AcDbEntity
  8
0
  6
HIDDEN
 62
     7
 48
2.0
370
     0
100
AcDbLine
 10
17.8691271628
 20
12.4522230844
 30
0.0
 11
18.2301271525
 21
12.4522230844
 31
0.0
  0
ARC
  5
48C
330
1F
100
AcDbEntity
  8
0
  6
HIDDEN
 62
     7
 48
4.0
370
     0
100
AcDbCircle
 10
14.5081271443
 20
12.4372230856
 30
0.0
 40
0.0150000000000006
100
AcDbArc
 50
90.0
 51
180.0
  0
ARC
  5
48D
330
1F
100
AcDbEntity
  8
0
  6
HIDDEN
 62
     7
 48
4.0
370
     0
100
AcDbCircle
 10
14.5081271443
 20
12.4372230856
 30
0.0
 40
0.077
100
AcDbArc
 50
90.0
 51
180.0
  0
LINE
  5
48E
330
1F
100
AcDbEntity
  8
0
  6
HIDDEN
 62
     7
 48
2.0
370
     0
100
AcDbLine
 10
14.4931271227
 20
12.0762230813
 30
0.0
 11
14.4931271227
 21
12.437223071
 31
0.0
  0
LINE
  5
48F
330
1F
100
AcDbEntity
  8
0
  6
HIDDEN
 62
     7
 48
2.0
370
     0
100
AcDbLine
 10
14.4311271456
 20
12.0762230813
 30
0.0
 11
14.4931271227
 21
12.0762230813
 31
0.0
  0
ARC
  5
490
330
1F
100
AcDbEntity
  8
0
  6
HIDDEN
 62
     7
 48
4.0
370
     0
100
AcDbCircle
 10
18.2301271443
 20
12.4372230856
 30
0.0
 40
0.0150000000000006
100
AcDbArc
 50
0.0
 51
90.0
  0
ARC
  5
491
330
1F
100
AcDbEntity
  8
0
  6
HIDDEN
 62
     7
 48
4.0
370
     0
100
AcDbCircle
 10
18.2301271443
 20
12.4372230856
 30
0.0
 40
0.077
100
AcDbArc
 50
0.0
 51
90.0
  0
LINE
  5
492
330
1F
100
AcDbEntity
  8
0
  6
HIDDEN
 62
     7
 48
2.0
370
     0
100
AcDbLine
 10
18.307127143
 20
12.0762230813
 30
0.0
 11
18.2451271659
 21
12.0762230813
 31
0.0
  0
LINE
  5
493
330
1F
100
AcDbEntity
  8
0
  6
HIDDEN
 62
     7
 48
2.0
370
     0
100
AcDbLine
 10
18.2451271659
 20
12.0762230813
 30
0.0
 11
18.2451271659
 21
12.437223071
 31
0.0
  0
LINE
  5
494
330
1F
100
AcDbEntity
  8
0
  6
HIDDEN
 62
     7
 48
2.0
370
     0
100
AcDbLine
 10
17.1166917084
 20
12.4212230958
 30
0.0
 11
17.1166917084
 21
12.4522230844
 31
0.0
  0
LINE
  5
495
330
1F
100
AcDbEntity
  8
0
  6
HIDDEN
 62
     7
 48
2.0
370
     0
100
AcDbLine
 10
17.1166917084
 20
12.4212230958
 30
0.0
 11
16.4916271467
 21
12.4212230958
 31
0.0
  0
LINE
  5
496
330
1F
100
AcDbEntity
  8
0
  6
HIDDEN
 62
     7
 48
2.0
370
     0
100
AcDbLine
 10
17.2415625592
 20
12.4212230958
 30
0.0
 11
17.2415625592
 21
12.4522230844
 31
0.0
  0
LINE
  5
497
330
1F
100
AcDbEntity
  8
0
  6
HIDDEN
 62
     7
 48
2.0
370
     0
100
AcDbLine
 10
17.2415625592
 20
12.4212230958
 30
0.0
 11
17.1166917084
 21
12.4212230958
 31
0.0
  0
LINE
  5
498
330
1F
100
AcDbEntity
  8
0
  6
HIDDEN
 62
     7
 48
2.0
370
     0
100
AcDbLine
 10
17.8381271743
 20
12.4212230958
 30
0.0
 11
17.2415625592
 21
12.4212230958
 31
0.0
  0
LINE
  5
499
330
1F
100
AcDbEntity
  8
0
  6
HIDDEN
 62
     7
 48
2.0
370
     0
100
AcDbLine
 10
17.2415625592
 20
12.4832230729
 30
0.0
 11
17.2415625592
 21
12.5142230615
 31
0.0
  0
LINE
  5
49A
330
1F
100
AcDbEntity
  8
0
  6
HIDDEN
 62
     7
 48
2.0
370
     0
100
AcDbLine
 10
17.2415625592
 20
12.4832230729
 30
0.0
 11
17.8666271117
 21
12.4832230729
 31
0.0
  0
LINE
  5
49B
330
1F
100
AcDbEntity
  8
0
  6
HIDDEN
 62
     7
 48
2.0
370
     0
100
AcDbLine
 10
17.1166917084
 20
12.4832230729
 30
0.0
 11
17.2415625592
 21
12.4832230729
 31
0.0
  0
LINE
  5
49C
330
1F
100
AcDbEntity
  8
0
  6
HIDDEN
 62
     7
 48
2.0
370
     0
100
AcDbLine
 10
16.4916271467
 20
12.4832230729
 30
0.0
 11
17.1166917084
 21
12.4832230729
 31
0.0
  0
LINE
  5
49D
330
1F
100
AcDbEntity
  8
0
  6
HIDDEN
 62
     7
 48
2.0
370
     0
100
AcDbLine
 10
17.1166917084
 20
12.4832230729
 30
0.0
 11
17.1166917084
 21
12.5142230615
 31
0.0
  0
LINE
  5
49E
330
1F
100
AcDbEntity
  8
0
  6
HIDDEN
 62
     7
 48
2.0
370
     0
100
AcDbLine
 10
16.6281494571
 20
12.4522230844
 30
0.0
 11
16.6281494571
 21
12.4212230958
 31
0.0
  0
LINE
  5
49F
330
1F
100
AcDbEntity
  8
0
  6
HIDDEN
 62
     7
 48
2.0
370
     0
100
AcDbLine
 10
16.6281494571
 20
12.5142230615
 30
0.0
 11
16.6281494571
 21
12.4832230729
 31
0.0
  0
LINE
  5
4A0
330
1F
100
AcDbEntity
  8
0
  6
HIDDEN
 62
     7
 48
2.0
370
     0
100
AcDbLine
 10
15.6215278206
 20
12.4832230729
 30
0.0
 11
15.6215278206
 21
12.5142230615
 31
0.0
  0
LINE
  5
4A1
330
1F
100
AcDbEntity
  8
0
  6
HIDDEN
 62
     7
 48
2.0
370
     0
100
AcDbLine
 10
15.6215278206
 20
12.4832230729
 30
0.0
 11
16.1136271375
 21
12.4832230729
 31
0.0
  0
LINE
  5
4A2
330
1F
100
AcDbEntity
  8
0
  6
HIDDEN
 62
     7
 48
2.0
370
     0
100
AcDbLine
 10
15.496726489
 20
12.4212230958
 30
0.0
 11
15.496726489
 21
12.4522230844
 31
0.0
  0
LINE
  5
4A3
330
1F
100
AcDbEntity
  8
0
  6
HIDDEN
 62
     7
 48
2.0
370
     0
100
AcDbLine
 10
15.496726489
 20
12.4212230958
 30
0.0
 11
15.0046270805
 21
12.4212230958
 31
0.0
  0
LINE
  5
4A4
330
1F
100
AcDbEntity
  8
0
  6
HIDDEN
 62
     7
 48
2.0
370
     0
100
AcDbLine
 10
15.496726489
 20
12.4832230729
 30
0.0
 11
15.6215278206
 21
12.4832230729
 31
0.0
  0
LINE
  5
4A5
330
1F
100
AcDbEntity
  8
0
  6
HIDDEN
 62
     7
 48
2.0
370
     0
100
AcDbLine
 10
15.6215278206
 20
12.4212230958
 30
0.0
 11
15.6215278206
 21
12.4522230844
 31
0.0
  0
LINE
  5
4A6
330
1F
100
AcDbEntity
  8
0
  6
HIDDEN
 62
     7
 48
2.0
370
     0
100
AcDbLine
 10
15.6215278206
 20
12.4212230958
 30
0.0
 11
15.496726489
 21
12.4212230958
 31
0.0
  0
LINE
  5
4A7
330
1F
100
AcDbEntity
  8
0
  6
HIDDEN
 62
     7
 48
2.0
370
     0
100
AcDbLine
 10
15.496726489
 20
12.4832230729
 30
0.0
 11
15.496726489
 21
12.5142230615
 31
0.0
  0
LINE
  5
4A8
330
1F
100
AcDbEntity
  8
0
  6
HIDDEN
 62
     7
 48
2.0
370
     0
100
AcDbLine
 10
15.0046270805
 20
12.4832230729
 30
0.0
 11
15.496726489
 21
12.4832230729
 31
0.0
  0
LINE
  5
4A9
330
1F
100
AcDbEntity
  8
0
  6
HIDDEN
 62
     7
 48
2.0
370
     0
100
AcDbLine
 10
16.1136271375
 20
12.4212230958
 30
0.0
 11
15.6215278206
 21
12.4212230958
 31
0.0
  0
LINE
  5
4AA
330
1F
100
AcDbEntity
  8
0
  6
HIDDEN
 62
     7
 48
2.0
370
     0
100
AcDbLine
 10
15.1260914906
 20
12.5142230615
 30
0.0
 11
15.1260914906
 21
12.4832230729
 31
0.0
  0
LINE
  5
4AB
330
1F
100
AcDbEntity
  8
0
  6
HIDDEN
 62
     7
 48
2.0
370
     0
100
AcDbLine
 10
15.1260914906
 20
12.4522230844
 30
0.0
 11
15.1260914906
 21
12.4212230958
 31
0.0
  0
LINE
  5
4AC
330
1F
100
AcDbEntity
  8
0
  6
HIDDEN
 62
     7
 48
2.0
370
     0
100
AcDbLine
 10
14.5081271361
 20
12.4522230844
 30
0.0
 11
14.5081271361
 21
12.5142230615
 31
0.0
  0
LINE
  5
4AD
330
1F
100
AcDbEntity
  8
0
  6
HIDDEN
 62
     7
 48
2.0
370
     0
100
AcDbLine
 10
18.2301271525
 20
12.4522230844
 30
0.0
 11
18.2301271525
 21
12.5142230615
 31
0.0
  0
LINE
  5
4AE
330
1F
100
AcDbEntity
  8
0
  6
HIDDEN
 62
     7
 48
2.0
370
     0
100
AcDbLine
 10
14.5081271361
 20
12.437223071
 30
0.0
 11
14.5081271361
 21
12.4522230844
 31
0.0
  0
LINE
  5
4AF
330
1F
100
AcDbEntity
  8
0
  6
HIDDEN
 62
     7
 48
2.0
370
     0
100
AcDbLine
 10
18.2301271525
 20
12.437223071
 30
0.0
 11
18.2301271525
 21
12.4522230844
 31
0.0
  0
LINE
  5
4B0
330
1F
100
AcDbEntity
  8
0
  6
HIDDEN
 62
     7
 48
2.0
370
     0
100
AcDbLine
 10
14.5081271361
 20
12.0762230813
 30
0.0
 11
14.8691271258
 21
12.0762230813
 31
0.0
  0
LINE
  5
4B1
330
1F
100
AcDbEntity
  8
0
  6
HIDDEN
 62
     7
 48
2.0
370
     0
100
AcDbLine
 10
14.9001271143
 20
12.0762230813
 30
0.0
 11
17.8381271743
 21
12.0762230813
 31
0.0
  0
LINE
  5
4B2
330
1F
100
AcDbEntity
  8
0
  6
HIDDEN
 62
     7
 48
2.0
370
     0
100
AcDbLine
 10
17.8691271628
 20
12.0762230813
 30
0.0
 11
18.2301271525
 21
12.0762230813
 31
0.0
  0
LINE
  5
4B3
330
1F
100
AcDbEntity
  8
0
  6
HIDDEN
 62
     7
 48
2.0
370
     0
100
AcDbLine
 10
18.2301271525
 20
12.0762230813
 30
0.0
 11
18.2301271525
 21
12.437223071
 31
0.0
  0
LINE
  5
4B4
330
1F
100
AcDbEntity
  8
0
  6
HIDDEN
 62
     7
 48
2.0
370
     0
100
AcDbLine
 10
14.5081271361
 20
12.0762230813
 30
0.0
 11
14.5081271361
 21
12.437223071
 31
0.0
  0
LINE
  5
4B5
330
1F
100
AcDbEntity
  8
0
  6
HIDDEN
 62
     7
 48
2.0
370
     0
100
AcDbLine
 10
17.8381271743
 20
8.5762230869
 30
0.0
 11
14.9001271143
 21
8.5762230869
 31
0.0
  0
LINE
  5
4B6
330
1F
100
AcDbEntity
  8
0
  6
HIDDEN
 62
     7
 48
2.0
370
     0
100
AcDbLine
 10
14.8691271258
 20
8.5762230869
 30
0.0
 11
14.5081271361
 21
8.5762230869
 31
0.0
  0
LINE
  5
4B7
330
1F
100
AcDbEntity
  8
0
  6
HIDDEN
 62
     7
 48
2.0
370
     0
100
AcDbLine
 10
17.8691271628
 20
8.5762230869
 30
0.0
 11
18.2301271525
 21
8.5762230869
 31
0.0
  0
LINE
  5
4B8
330
1F
100
AcDbEntity
  8
0
  6
HIDDEN
 62
     7
 48
2.0
370
     0
100
AcDbLine
 10
18.2451271659
 20
8.95222309
 30
0.0
 11
18.2451271659
 21
8.5912231003
 31
0.0
  0
LINE
  5
4B9
330
1F
100
AcDbEntity
  8
0
  6
HIDDEN
 62
     7
 48
2.0
370
     0
100
AcDbLine
 10
18.307127143
 20
8.95222309
 30
0.0
 11
18.2451271659
 21
8.95222309
 31
0.0
  0
LINE
  5
4BA
330
1F
100
AcDbEntity
  8
0
  6
HIDDEN
 62
     7
 48
2.0
370
     0
100
AcDbLine
 10
14.4311271456
 20
8.95222309
 30
0.0
 11
14.4931271227
 21
8.95222309
 31
0.0
  0
LINE
  5
4BB
330
1F
100
AcDbEntity
  8
0
  6
HIDDEN
 62
     7
 48
2.0
370
     0
100
AcDbLine
 10
14.4931271227
 20
8.95222309
 30
0.0
 11
14.4931271227
 21
8.5912231003
 31
0.0
  0
ARC
  5
4BC
330
1F
100
AcDbEntity
  8
0
  6
HIDDEN
 62
     7
 48
4.0
370
     0
100
AcDbCircle
 10
14.5081271443
 20
8.5912230856
 30
0.0
 40
0.0150000000000023
100
AcDbArc
 50
180.0
 51
270.0
  0
ARC
  5
4BD
330
1F
100
AcDbEntity
  8
0
  6
HIDDEN
 62
     7
 48
4.0
370
     0
100
AcDbCircle
 10
14.5081271443
 20
8.5912230856
 30
0.0
 40
0.0770000000000017
100
AcDbArc
 50
180.0
 51
270.0
  0
ARC
  5
4BE
330
1F
100
AcDbEntity
  8
0
  6
HIDDEN
 62
     7
 48
4.0
370
     0
100
AcDbCircle
 10
18.2301271443
 20
8.5912230856
 30
0.0
 40
0.0150000000000006
100
AcDbArc
 50
270.0
 51
0.0
  0
ARC
  5
4BF
330
1F
100
AcDbEntity
  8
0
  6
HIDDEN
 62
     7
 48
4.0
370
     0
100
AcDbCircle
 10
18.2301271443
 20
8.5912230856
 30
0.0
 40
0.077
100
AcDbArc
 50
270.0
 51
0.0
  0
LINE
  5
4C0
330
1F
100
AcDbEntity
  8
0
  6
HIDDEN
 62
     7
 48
2.0
370
     0
100
AcDbLine
 10
14.9001271143
 20
8.6072230755
 30
0.0
 11
15.4966917294
 21
8.6072230755
 31
0.0
  0
LINE
  5
4C1
330
1F
100
AcDbEntity
  8
0
  6
HIDDEN
 62
     7
 48
2.0
370
     0
100
AcDbLine
 10
15.4966917294
 20
8.6072230755
 30
0.0
 11
15.4966917294
 21
8.5762230869
 31
0.0
  0
LINE
  5
4C2
330
1F
100
AcDbEntity
  8
0
  6
HIDDEN
 62
     7
 48
2.0
370
     0
100
AcDbLine
 10
15.6215625802
 20
8.6072230755
 30
0.0
 11
15.6215625802
 21
8.5762230869
 31
0.0
  0
LINE
  5
4C3
330
1F
100
AcDbEntity
  8
0
  6
HIDDEN
 62
     7
 48
2.0
370
     0
100
AcDbLine
 10
15.4966917294
 20
8.6072230755
 30
0.0
 11
15.6215625802
 21
8.6072230755
 31
0.0
  0
LINE
  5
4C4
330
1F
100
AcDbEntity
  8
0
  6
HIDDEN
 62
     7
 48
2.0
370
     0
100
AcDbLine
 10
15.6215625802
 20
8.6072230755
 30
0.0
 11
16.2466271419
 21
8.6072230755
 31
0.0
  0
LINE
  5
4C5
330
1F
100
AcDbEntity
  8
0
  6
HIDDEN
 62
     7
 48
2.0
370
     0
100
AcDbLine
 10
15.4966917294
 20
8.5452230984
 30
0.0
 11
14.8716271769
 21
8.5452230984
 31
0.0
  0
LINE
  5
4C6
330
1F
100
AcDbEntity
  8
0
  6
HIDDEN
 62
     7
 48
2.0
370
     0
100
AcDbLine
 10
15.4966917294
 20
8.5452230984
 30
0.0
 11
15.4966917294
 21
8.5142231098
 31
0.0
  0
LINE
  5
4C7
330
1F
100
AcDbEntity
  8
0
  6
HIDDEN
 62
     7
 48
2.0
370
     0
100
AcDbLine
 10
15.6215625802
 20
8.5452230984
 30
0.0
 11
15.4966917294
 21
8.5452230984
 31
0.0
  0
LINE
  5
4C8
330
1F
100
AcDbEntity
  8
0
  6
HIDDEN
 62
     7
 48
2.0
370
     0
100
AcDbLine
 10
16.2466271419
 20
8.5452230984
 30
0.0
 11
15.6215625802
 21
8.5452230984
 31
0.0
  0
LINE
  5
4C9
330
1F
100
AcDbEntity
  8
0
  6
HIDDEN
 62
     7
 48
2.0
370
     0
100
AcDbLine
 10
15.6215625802
 20
8.5452230984
 30
0.0
 11
15.6215625802
 21
8.5142231098
 31
0.0
  0
LINE
  5
4CA
330
1F
100
AcDbEntity
  8
0
  6
HIDDEN
 62
     7
 48
2.0
370
     0
100
AcDbLine
 10
16.1101048316
 20
8.5762230869
 30
0.0
 11
16.1101048316
 21
8.6072230755
 31
0.0
  0
LINE
  5
4CB
330
1F
100
AcDbEntity
  8
0
  6
HIDDEN
 62
     7
 48
2.0
370
     0
100
AcDbLine
 10
16.1101048316
 20
8.5142231098
 30
0.0
 11
16.1101048316
 21
8.5452230984
 31
0.0
  0
LINE
  5
4CC
330
1F
100
AcDbEntity
  8
0
  6
HIDDEN
 62
     7
 48
2.0
370
     0
100
AcDbLine
 10
16.6246271511
 20
8.6072230755
 30
0.0
 11
17.116726468
 21
8.6072230755
 31
0.0
  0
LINE
  5
4CD
330
1F
100
AcDbEntity
  8
0
  6
HIDDEN
 62
     7
 48
2.0
370
     0
100
AcDbLine
 10
17.116726468
 20
8.6072230755
 30
0.0
 11
17.116726468
 21
8.5762230869
 31
0.0
  0
LINE
  5
4CE
330
1F
100
AcDbEntity
  8
0
  6
HIDDEN
 62
     7
 48
2.0
370
     0
100
AcDbLine
 10
17.2415277996
 20
8.6072230755
 30
0.0
 11
17.2415277996
 21
8.5762230869
 31
0.0
  0
LINE
  5
4CF
330
1F
100
AcDbEntity
  8
0
  6
HIDDEN
 62
     7
 48
2.0
370
     0
100
AcDbLine
 10
17.2415277996
 20
8.6072230755
 30
0.0
 11
17.7336272082
 21
8.6072230755
 31
0.0
  0
LINE
  5
4D0
330
1F
100
AcDbEntity
  8
0
  6
HIDDEN
 62
     7
 48
2.0
370
     0
100
AcDbLine
 10
17.116726468
 20
8.6072230755
 30
0.0
 11
17.2415277996
 21
8.6072230755
 31
0.0
  0
LINE
  5
4D1
330
1F
100
AcDbEntity
  8
0
  6
HIDDEN
 62
     7
 48
2.0
370
     0
100
AcDbLine
 10
17.2415277996
 20
8.5452230984
 30
0.0
 11
17.116726468
 21
8.5452230984
 31
0.0
  0
LINE
  5
4D2
330
1F
100
AcDbEntity
  8
0
  6
HIDDEN
 62
     7
 48
2.0
370
     0
100
AcDbLine
 10
17.116726468
 20
8.5452230984
 30
0.0
 11
16.6246271511
 21
8.5452230984
 31
0.0
  0
LINE
  5
4D3
330
1F
100
AcDbEntity
  8
0
  6
HIDDEN
 62
     7
 48
2.0
370
     0
100
AcDbLine
 10
17.116726468
 20
8.5452230984
 30
0.0
 11
17.116726468
 21
8.5142231098
 31
0.0
  0
LINE
  5
4D4
330
1F
100
AcDbEntity
  8
0
  6
HIDDEN
 62
     7
 48
2.0
370
     0
100
AcDbLine
 10
17.7336272082
 20
8.5452230984
 30
0.0
 11
17.2415277996
 21
8.5452230984
 31
0.0
  0
LINE
  5
4D5
330
1F
100
AcDbEntity
  8
0
  6
HIDDEN
 62
     7
 48
2.0
370
     0
100
AcDbLine
 10
17.2415277996
 20
8.5452230984
 30
0.0
 11
17.2415277996
 21
8.5142231098
 31
0.0
  0
LINE
  5
4D6
330
1F
100
AcDbEntity
  8
0
  6
HIDDEN
 62
     7
 48
2.0
370
     0
100
AcDbLine
 10
17.612162798
 20
8.5762230869
 30
0.0
 11
17.612162798
 21
8.6072230755
 31
0.0
  0
LINE
  5
4D7
330
1F
100
AcDbEntity
  8
0
  6
HIDDEN
 62
     7
 48
2.0
370
     0
100
AcDbLine
 10
17.612162798
 20
8.5142231098
 30
0.0
 11
17.612162798
 21
8.5452230984
 31
0.0
  0
LINE
  5
4D8
330
1F
100
AcDbEntity
  8
0
  6
HIDDEN
 62
     7
 48
2.0
370
     0
100
AcDbLine
 10
14.5081271361
 20
8.5762230869
 30
0.0
 11
14.5081271361
 21
8.5142231098
 31
0.0
  0
LINE
  5
4D9
330
1F
100
AcDbEntity
  8
0
  6
HIDDEN
 62
     7
 48
2.0
370
     0
100
AcDbLine
 10
18.2301271525
 20
8.5912231003
 30
0.0
 11
18.2301271525
 21
8.5762230869
 31
0.0
  0
LINE
  5
4DA
330
1F
100
AcDbEntity
  8
0
  6
HIDDEN
 62
     7
 48
2.0
370
     0
100
AcDbLine
 10
14.5081271361
 20
8.5912231003
 30
0.0
 11
14.5081271361
 21
8.5762230869
 31
0.0
  0
LINE
  5
4DB
330
1F
100
AcDbEntity
  8
0
  6
HIDDEN
 62
     7
 48
2.0
370
     0
100
AcDbLine
 10
18.2301271525
 20
8.5762230869
 30
0.0
 11
18.2301271525
 21
8.5142231098
 31
0.0
  0
LINE
  5
4DC
330
1F
100
AcDbEntity
  8
0
  6
HIDDEN
 62
     7
 48
2.0
370
     0
100
AcDbLine
 10
18.2301271525
 20
8.95222309
 30
0.0
 11
17.8691271628
 21
8.95222309
 31
0.0
  0
LINE
  5
4DD
330
1F
100
AcDbEntity
  8
0
  6
HIDDEN
 62
     7
 48
2.0
370
     0
100
AcDbLine
 10
17.8381271743
 20
8.95222309
 30
0.0
 11
14.9001271143
 21
8.95222309
 31
0.0
  0
LINE
  5
4DE
330
1F
100
AcDbEntity
  8
0
  6
HIDDEN
 62
     7
 48
2.0
370
     0
100
AcDbLine
 10
14.8691271258
 20
8.95222309
 30
0.0
 11
14.5081271361
 21
8.95222309
 31
0.0
  0
LINE
  5
4DF
330
1F
100
AcDbEntity
  8
0
  6
HIDDEN
 62
     7
 48
2.0
370
     0
100
AcDbLine
 10
18.2301271525
 20
8.95222309
 30
0.0
 11
18.2301271525
 21
8.5912231003
 31
0.0
  0
LINE
  5
4E0
330
1F
100
AcDbEntity
  8
0
  6
HIDDEN
 62
     7
 48
2.0
370
     0
100
AcDbLine
 10
14.5081271361
 20
8.95222309
 30
0.0
 11
14.5081271361
 21
8.5912231003
 31
0.0
  0
LINE
  5
4E1
330
1F
100
AcDbEntity
  8
0
  6
HIDDEN
 62
     7
 48
2.0
370
     0
100
AcDbLine
 10
14.4311271456
 20
12.5142230615
 30
0.0
 11
14.4311271456
 21
8.5142231098
 31
0.0
  0
LINE
  5
4E2
330
1F
100
AcDbEntity
  8
0
  6
HIDDEN
 62
     7
 48
2.0
370
     0
100
AcDbLine
 10
18.307127143
 20
12.5142230615
 30
0.0
 11
18.307127143
 21
8.5142231098
 31
0.0
  0
LINE
  5
4E3
330
1F
100
AcDbEntity
  8
0
  6
HIDDEN
 62
     7
 48
2.0
370
     0
100
AcDbLine
 10
14.400127157
 20
9.6417876708
 30
0.0
 11
14.400127157
 21
9.0167231182
 31
0.0
  0
LINE
  5
4E4
330
1F
100
AcDbEntity
  8
0
  6
HIDDEN
 62
     7
 48
2.0
370
     0
100
AcDbLine
 10
14.400127157
 20
9.6417876708
 30
0.0
 11
14.3691271685
 21
9.6417876708
 31
0.0
  0
LINE
  5
4E5
330
1F
100
AcDbEntity
  8
0
  6
HIDDEN
 62
     7
 48
2.0
370
     0
100
AcDbLine
 10
14.400127157
 20
9.7666585216
 30
0.0
 11
14.3691271685
 21
9.7666585216
 31
0.0
  0
LINE
  5
4E6
330
1F
100
AcDbEntity
  8
0
  6
HIDDEN
 62
     7
 48
2.0
370
     0
100
AcDbLine
 10
14.400127157
 20
10.3917230833
 30
0.0
 11
14.400127157
 21
9.7666585216
 31
0.0
  0
LINE
  5
4E7
330
1F
100
AcDbEntity
  8
0
  6
HIDDEN
 62
     7
 48
2.0
370
     0
100
AcDbLine
 10
18.2761271545
 20
9.7666585216
 30
0.0
 11
18.307127143
 21
9.7666585216
 31
0.0
  0
LINE
  5
4E8
330
1F
100
AcDbEntity
  8
0
  6
HIDDEN
 62
     7
 48
2.0
370
     0
100
AcDbLine
 10
18.2761271545
 20
9.7666585216
 30
0.0
 11
18.2761271545
 21
10.3917230833
 31
0.0
  0
LINE
  5
4E9
330
1F
100
AcDbEntity
  8
0
  6
HIDDEN
 62
     7
 48
2.0
370
     0
100
AcDbLine
 10
14.4621271341
 20
9.6417876708
 30
0.0
 11
14.4311271456
 21
9.6417876708
 31
0.0
  0
LINE
  5
4EA
330
1F
100
AcDbEntity
  8
0
  6
HIDDEN
 62
     7
 48
2.0
370
     0
100
AcDbLine
 10
14.4621271341
 20
9.0167231182
 30
0.0
 11
14.4621271341
 21
9.6417876708
 31
0.0
  0
LINE
  5
4EB
330
1F
100
AcDbEntity
  8
0
  6
HIDDEN
 62
     7
 48
2.0
370
     0
100
AcDbLine
 10
18.2761271545
 20
9.6417876708
 30
0.0
 11
18.307127143
 21
9.6417876708
 31
0.0
  0
LINE
  5
4EC
330
1F
100
AcDbEntity
  8
0
  6
HIDDEN
 62
     7
 48
2.0
370
     0
100
AcDbLine
 10
18.2761271545
 20
9.6417876708
 30
0.0
 11
18.2761271545
 21
9.7666585216
 31
0.0
  0
LINE
  5
4ED
330
1F
100
AcDbEntity
  8
0
  6
HIDDEN
 62
     7
 48
2.0
370
     0
100
AcDbLine
 10
18.3381271316
 20
10.3917230833
 30
0.0
 11
18.3381271316
 21
9.7666585216
 31
0.0
  0
LINE
  5
4EE
330
1F
100
AcDbEntity
  8
0
  6
HIDDEN
 62
     7
 48
2.0
370
     0
100
AcDbLine
 10
18.3381271316
 20
9.7666585216
 30
0.0
 11
18.3691271201
 21
9.7666585216
 31
0.0
  0
LINE
  5
4EF
330
1F
100
AcDbEntity
  8
0
  6
HIDDEN
 62
     7
 48
2.0
370
     0
100
AcDbLine
 10
18.2761271545
 20
9.0167231182
 30
0.0
 11
18.2761271545
 21
9.6417876708
 31
0.0
  0
LINE
  5
4F0
330
1F
100
AcDbEntity
  8
0
  6
HIDDEN
 62
     7
 48
2.0
370
     0
100
AcDbLine
 10
14.400127157
 20
9.7666585216
 30
0.0
 11
14.400127157
 21
9.6417876708
 31
0.0
  0
LINE
  5
4F1
330
1F
100
AcDbEntity
  8
0
  6
HIDDEN
 62
     7
 48
2.0
370
     0
100
AcDbLine
 10
14.4621271341
 20
9.7666585216
 30
0.0
 11
14.4311271456
 21
9.7666585216
 31
0.0
  0
LINE
  5
4F2
330
1F
100
AcDbEntity
  8
0
  6
HIDDEN
 62
     7
 48
2.0
370
     0
100
AcDbLine
 10
14.4621271341
 20
9.6417876708
 30
0.0
 11
14.4621271341
 21
9.7666585216
 31
0.0
  0
LINE
  5
4F3
330
1F
100
AcDbEntity
  8
0
  6
HIDDEN
 62
     7
 48
2.0
370
     0
100
AcDbLine
 10
18.3381271316
 20
9.7666585216
 30
0.0
 11
18.3381271316
 21
9.6417876708
 31
0.0
  0
LINE
  5
4F4
330
1F
100
AcDbEntity
  8
0
  6
HIDDEN
 62
     7
 48
2.0
370
     0
100
AcDbLine
 10
14.4621271341
 20
9.7666585216
 30
0.0
 11
14.4621271341
 21
10.3917230833
 31
0.0
  0
LINE
  5
4F5
330
1F
100
AcDbEntity
  8
0
  6
HIDDEN
 62
     7
 48
2.0
370
     0
100
AcDbLine
 10
18.3381271316
 20
9.6417876708
 30
0.0
 11
18.3691271201
 21
9.6417876708
 31
0.0
  0
LINE
  5
4F6
330
1F
100
AcDbEntity
  8
0
  6
HIDDEN
 62
     7
 48
2.0
370
     0
100
AcDbLine
 10
18.3381271316
 20
9.6417876708
 30
0.0
 11
18.3381271316
 21
9.0167231182
 31
0.0
  0
LINE
  5
4F7
330
1F
100
AcDbEntity
  8
0
  6
HIDDEN
 62
     7
 48
2.0
370
     0
100
AcDbLine
 10
18.3691271201
 20
10.2552007729
 30
0.0
 11
18.3381271316
 21
10.2552007729
 31
0.0
  0
LINE
  5
4F8
330
1F
100
AcDbEntity
  8
0
  6
HIDDEN
 62
     7
 48
2.0
370
     0
100
AcDbLine
 10
14.4311271456
 20
10.2552007729
 30
0.0
 11
14.4621271341
 21
10.2552007729
 31
0.0
  0
LINE
  5
4F9
330
1F
100
AcDbEntity
  8
0
  6
HIDDEN
 62
     7
 48
2.0
370
     0
100
AcDbLine
 10
18.307127143
 20
10.2552007729
 30
0.0
 11
18.2761271545
 21
10.2552007729
 31
0.0
  0
LINE
  5
4FA
330
1F
100
AcDbEntity
  8
0
  6
HIDDEN
 62
     7
 48
2.0
370
     0
100
AcDbLine
 10
14.3691271685
 20
10.2552007729
 30
0.0
 11
14.400127157
 21
10.2552007729
 31
0.0
  0
LINE
  5
4FB
330
1F
100
AcDbEntity
  8
0
  6
HIDDEN
 62
     7
 48
2.0
370
     0
100
AcDbLine
 10
18.2761271545
 20
10.7697230924
 30
0.0
 11
18.2761271545
 21
11.2618224093
 31
0.0
  0
LINE
  5
4FC
330
1F
100
AcDbEntity
  8
0
  6
HIDDEN
 62
     7
 48
2.0
370
     0
100
AcDbLine
 10
18.2761271545
 20
11.2618224093
 30
0.0
 11
18.307127143
 21
11.2618224093
 31
0.0
  0
LINE
  5
4FD
330
1F
100
AcDbEntity
  8
0
  6
HIDDEN
 62
     7
 48
2.0
370
     0
100
AcDbLine
 10
18.2761271545
 20
11.3866237409
 30
0.0
 11
18.307127143
 21
11.3866237409
 31
0.0
  0
LINE
  5
4FE
330
1F
100
AcDbEntity
  8
0
  6
HIDDEN
 62
     7
 48
2.0
370
     0
100
AcDbLine
 10
18.2761271545
 20
11.3866237409
 30
0.0
 11
18.2761271545
 21
11.8787231495
 31
0.0
  0
LINE
  5
4FF
330
1F
100
AcDbEntity
  8
0
  6
HIDDEN
 62
     7
 48
2.0
370
     0
100
AcDbLine
 10
14.4621271341
 20
11.3866237409
 30
0.0
 11
14.4311271456
 21
11.3866237409
 31
0.0
  0
LINE
  5
500
330
1F
100
AcDbEntity
  8
0
  6
HIDDEN
 62
     7
 48
2.0
370
     0
100
AcDbLine
 10
14.4621271341
 20
11.2618224093
 30
0.0
 11
14.4311271456
 21
11.2618224093
 31
0.0
  0
LINE
  5
501
330
1F
100
AcDbEntity
  8
0
  6
HIDDEN
 62
     7
 48
2.0
370
     0
100
AcDbLine
 10
14.4621271341
 20
11.2618224093
 30
0.0
 11
14.4621271341
 21
11.3866237409
 31
0.0
  0
LINE
  5
502
330
1F
100
AcDbEntity
  8
0
  6
HIDDEN
 62
     7
 48
2.0
370
     0
100
AcDbLine
 10
18.2761271545
 20
11.2618224093
 30
0.0
 11
18.2761271545
 21
11.3866237409
 31
0.0
  0
LINE
  5
503
330
1F
100
AcDbEntity
  8
0
  6
HIDDEN
 62
     7
 48
2.0
370
     0
100
AcDbLine
 10
14.4621271341
 20
11.3866237409
 30
0.0
 11
14.4621271341
 21
11.8787231495
 31
0.0
  0
LINE
  5
504
330
1F
100
AcDbEntity
  8
0
  6
HIDDEN
 62
     7
 48
2.0
370
     0
100
AcDbLine
 10
14.4621271341
 20
10.7697230924
 30
0.0
 11
14.4621271341
 21
11.2618224093
 31
0.0
  0
LINE
  5
505
330
1F
100
AcDbEntity
  8
0
  6
HIDDEN
 62
     7
 48
2.0
370
     0
100
AcDbLine
 10
14.400127157
 20
11.2618224093
 30
0.0
 11
14.400127157
 21
10.7697230924
 31
0.0
  0
LINE
  5
506
330
1F
100
AcDbEntity
  8
0
  6
HIDDEN
 62
     7
 48
2.0
370
     0
100
AcDbLine
 10
14.400127157
 20
11.2618224093
 30
0.0
 11
14.3691271685
 21
11.2618224093
 31
0.0
  0
LINE
  5
507
330
1F
100
AcDbEntity
  8
0
  6
HIDDEN
 62
     7
 48
2.0
370
     0
100
AcDbLine
 10
18.3381271316
 20
11.2618224093
 30
0.0
 11
18.3691271201
 21
11.2618224093
 31
0.0
  0
LINE
  5
508
330
1F
100
AcDbEntity
  8
0
  6
HIDDEN
 62
     7
 48
2.0
370
     0
100
AcDbLine
 10
18.3381271316
 20
11.2618224093
 30
0.0
 11
18.3381271316
 21
10.7697230924
 31
0.0
  0
LINE
  5
509
330
1F
100
AcDbEntity
  8
0
  6
HIDDEN
 62
     7
 48
2.0
370
     0
100
AcDbLine
 10
14.400127157
 20
11.8787231495
 30
0.0
 11
14.400127157
 21
11.3866237409
 31
0.0
  0
LINE
  5
50A
330
1F
100
AcDbEntity
  8
0
  6
HIDDEN
 62
     7
 48
2.0
370
     0
100
AcDbLine
 10
14.400127157
 20
11.3866237409
 30
0.0
 11
14.3691271685
 21
11.3866237409
 31
0.0
  0
LINE
  5
50B
330
1F
100
AcDbEntity
  8
0
  6
HIDDEN
 62
     7
 48
2.0
370
     0
100
AcDbLine
 10
14.400127157
 20
11.3866237409
 30
0.0
 11
14.400127157
 21
11.2618224093
 31
0.0
  0
LINE
  5
50C
330
1F
100
AcDbEntity
  8
0
  6
HIDDEN
 62
     7
 48
2.0
370
     0
100
AcDbLine
 10
18.3381271316
 20
11.3866237409
 30
0.0
 11
18.3691271201
 21
11.3866237409
 31
0.0
  0
LINE
  5
50D
330
1F
100
AcDbEntity
  8
0
  6
HIDDEN
 62
     7
 48
2.0
370
     0
100
AcDbLine
 10
18.3381271316
 20
11.8787231495
 30
0.0
 11
18.3381271316
 21
11.3866237409
 31
0.0
  0
LINE
  5
50E
330
1F
100
AcDbEntity
  8
0
  6
HIDDEN
 62
     7
 48
2.0
370
     0
100
AcDbLine
 10
18.3381271316
 20
11.3866237409
 30
0.0
 11
18.3381271316
 21
11.2618224093
 31
0.0
  0
LINE
  5
50F
330
1F
100
AcDbEntity
  8
0
  6
HIDDEN
 62
     7
 48
2.0
370
     0
100
AcDbLine
 10
14.4311271456
 20
11.7572587393
 30
0.0
 11
14.4621271341
 21
11.7572587393
 31
0.0
  0
LINE
  5
510
330
1F
100
AcDbEntity
  8
0
  6
HIDDEN
 62
     7
 48
2.0
370
     0
100
AcDbLine
 10
18.3691271201
 20
11.7572587393
 30
0.0
 11
18.3381271316
 21
11.7572587393
 31
0.0
  0
LINE
  5
511
330
1F
100
AcDbEntity
  8
0
  6
HIDDEN
 62
     7
 48
2.0
370
     0
100
AcDbLine
 10
18.307127143
 20
11.7572587393
 30
0.0
 11
18.2761271545
 21
11.7572587393
 31
0.0
  0
LINE
  5
512
330
1F
100
AcDbEntity
  8
0
  6
HIDDEN
 62
     7
 48
2.0
370
     0
100
AcDbLine
 10
14.3691271685
 20
11.7572587393
 30
0.0
 11
14.400127157
 21
11.7572587393
 31
0.0
  0
CIRCLE
  5
513
330
1F
100
AcDbEntity
  8
0
  6
HIDDEN
 62
     7
 48
4.0
370
     0
100
AcDbCircle
 10
16.3691271443
 20
10.5142230856
 30
0.0
 40
0.1469999999999985
  0
ARC
  5
514
330
1F
100
AcDbEntity
  8
0
  6
HIDDEN
 62
     7
 48
4.0
370
     0
100
AcDbCircle
 10
17.8691271443
 20
11.5142230856
 30
0.0
 40
0.1405000000000012
100
AcDbArc
 50
270.0
 51
90.0
  0
ARC
  5
515
330
1F
100
AcDbEntity
  8
0
  6
HIDDEN
 62
     7
 48
4.0
370
     0
100
AcDbCircle
 10
14.8691271443
 20
11.5142230856
 30
0.0
 40
0.1405000000000012
100
AcDbArc
 50
90.0
 51
270.0
  0
ARC
  5
516
330
1F
100
AcDbEntity
  8
0
  6
HIDDEN
 62
     7
 48
4.0
370
     0
100
AcDbCircle
 10
17.8691271443
 20
9.5142230856
 30
0.0
 40
0.1404999999999994
100
AcDbArc
 50
270.0
 51
0.0
  0
ARC
  5
517
330
1F
100
AcDbEntity
  8
0
  6
HIDDEN
 62
     7
 48
4.0
370
     0
100
AcDbCircle
 10
17.8691271443
 20
9.5142230856
 30
0.0
 40
0.1405000000000012
100
AcDbArc
 50
0.0
 51
90.0
  0
ARC
  5
518
330
1F
100
AcDbEntity
  8
0
  6
HIDDEN
 62
     7
 48
4.0
370
     0
100
AcDbCircle
 10
14.8691271443
 20
9.5142230856
 30
0.0
 40
0.1405000000000012
100
AcDbArc
 50
90.0
 51
180.0
  0
ARC
  5
519
330
1F
100
AcDbEntity
  8
0
  6
HIDDEN
 62
     7
 48
4.0
370
     0
100
AcDbCircle
 10
14.8691271443
 20
9.5142230856
 30
0.0
 40
0.1404999999999994
100
AcDbArc
 50
180.0
 51
270.0
  0
CIRCLE
  5
51A
330
1F
100
AcDbEntity
  8
0
  6
HIDDEN
 62
     7
 48
4.0
370
     0
100
AcDbCircle
 10
16.3691271443
 20
10.5142230856
 30
0.0
 40
0.625
  0
LINE
  5
51B
330
1F
100
AcDbEntity
  8
0
  6
HIDDEN
 62
     7
 48
2.0
370
     0
100
AcDbLine
 10
16.4916271467
 20
12.4522230844
 30
0.0
 11
16.4916271467
 21
12.4212230958
 31
0.0
  0
LINE
  5
51C
330
1F
100
AcDbEntity
  8
0
  6
HIDDEN
 62
     7
 48
2.0
370
     0
100
AcDbLine
 10
17.8666271117
 20
12.4832230729
 30
0.0
 11
17.8666271117
 21
12.5142230615
 31
0.0
  0
LINE
  5
51D
330
1F
100
AcDbEntity
  8
0
  6
HIDDEN
 62
     7
 48
2.0
370
     0
100
AcDbLine
 10
16.4916271467
 20
12.5142230615
 30
0.0
 11
16.4916271467
 21
12.4832230729
 31
0.0
  0
LINE
  5
51E
330
1F
100
AcDbEntity
  8
0
  6
HIDDEN
 62
     7
 48
2.0
370
     0
100
AcDbLine
 10
17.7336272082
 20
12.4212230958
 30
0.0
 11
17.7336272082
 21
12.4522230844
 31
0.0
  0
LINE
  5
51F
330
1F
100
AcDbEntity
  8
0
  6
HIDDEN
 62
     7
 48
2.0
370
     0
100
AcDbLine
 10
17.7336272082
 20
12.4832230729
 30
0.0
 11
17.7336272082
 21
12.5142230615
 31
0.0
  0
LINE
  5
520
330
1F
100
AcDbEntity
  8
0
  6
HIDDEN
 62
     7
 48
2.0
370
     0
100
AcDbLine
 10
16.1136271375
 20
12.4832230729
 30
0.0
 11
16.1136271375
 21
12.5142230615
 31
0.0
  0
LINE
  5
521
330
1F
100
AcDbEntity
  8
0
  6
HIDDEN
 62
     7
 48
2.0
370
     0
100
AcDbLine
 10
15.0046270805
 20
12.4522230844
 30
0.0
 11
15.0046270805
 21
12.4212230958
 31
0.0
  0
LINE
  5
522
330
1F
100
AcDbEntity
  8
0
  6
HIDDEN
 62
     7
 48
2.0
370
     0
100
AcDbLine
 10
15.0046270805
 20
12.5142230615
 30
0.0
 11
15.0046270805
 21
12.4832230729
 31
0.0
  0
LINE
  5
523
330
1F
100
AcDbEntity
  8
0
  6
HIDDEN
 62
     7
 48
2.0
370
     0
100
AcDbLine
 10
16.1136271375
 20
12.4212230958
 30
0.0
 11
16.1136271375
 21
12.4522230844
 31
0.0
  0
LINE
  5
524
330
1F
100
AcDbEntity
  8
0
  6
HIDDEN
 62
     7
 48
2.0
370
     0
100
AcDbLine
 10
15.9966271541
 20
12.4832230729
 30
0.0
 11
15.9966271541
 21
12.5142230615
 31
0.0
  0
LINE
  5
525
330
1F
100
AcDbEntity
  8
0
  6
HIDDEN
 62
     7
 48
2.0
370
     0
100
AcDbLine
 10
15.9966271541
 20
12.4212230958
 30
0.0
 11
15.9966271541
 21
12.4522230844
 31
0.0
  0
LINE
  5
526
330
1F
100
AcDbEntity
  8
0
  6
HIDDEN
 62
     7
 48
2.0
370
     0
100
AcDbLine
 10
16.6871271274
 20
12.4832230729
 30
0.0
 11
16.6871271274
 21
12.5142230615
 31
0.0
  0
LINE
  5
527
330
1F
100
AcDbEntity
  8
0
  6
HIDDEN
 62
     7
 48
2.0
370
     0
100
AcDbLine
 10
16.6871271274
 20
12.4212230958
 30
0.0
 11
16.6871271274
 21
12.4522230844
 31
0.0
  0
LINE
  5
528
330
1F
100
AcDbEntity
  8
0
  6
HIDDEN
 62
     7
 48
2.0
370
     0
100
AcDbLine
 10
15.1841271135
 20
12.4212230958
 30
0.0
 11
15.1841271135
 21
12.4522230844
 31
0.0
  0
LINE
  5
529
330
1F
100
AcDbEntity
  8
0
  6
HIDDEN
 62
     7
 48
2.0
370
     0
100
AcDbLine
 10
15.1841271135
 20
12.4832230729
 30
0.0
 11
15.1841271135
 21
12.5142230615
 31
0.0
  0
LINE
  5
52A
330
1F
100
AcDbEntity
  8
0
  6
HIDDEN
 62
     7
 48
2.0
370
     0
100
AcDbLine
 10
16.2466271419
 20
8.5762230869
 30
0.0
 11
16.2466271419
 21
8.6072230755
 31
0.0
  0
LINE
  5
52B
330
1F
100
AcDbEntity
  8
0
  6
HIDDEN
 62
     7
 48
2.0
370
     0
100
AcDbLine
 10
14.8716271769
 20
8.5452230984
 30
0.0
 11
14.8716271769
 21
8.5142231098
 31
0.0
  0
LINE
  5
52C
330
1F
100
AcDbEntity
  8
0
  6
HIDDEN
 62
     7
 48
2.0
370
     0
100
AcDbLine
 10
16.2466271419
 20
8.5142231098
 30
0.0
 11
16.2466271419
 21
8.5452230984
 31
0.0
  0
LINE
  5
52D
330
1F
100
AcDbEntity
  8
0
  6
HIDDEN
 62
     7
 48
2.0
370
     0
100
AcDbLine
 10
15.0046270805
 20
8.6072230755
 30
0.0
 11
15.0046270805
 21
8.5762230869
 31
0.0
  0
LINE
  5
52E
330
1F
100
AcDbEntity
  8
0
  6
HIDDEN
 62
     7
 48
2.0
370
     0
100
AcDbLine
 10
15.0046270805
 20
8.5452230984
 30
0.0
 11
15.0046270805
 21
8.5142231098
 31
0.0
  0
LINE
  5
52F
330
1F
100
AcDbEntity
  8
0
  6
HIDDEN
 62
     7
 48
2.0
370
     0
100
AcDbLine
 10
16.6246271511
 20
8.6072230755
 30
0.0
 11
16.6246271511
 21
8.5762230869
 31
0.0
  0
LINE
  5
530
330
1F
100
AcDbEntity
  8
0
  6
HIDDEN
 62
     7
 48
2.0
370
     0
100
AcDbLine
 10
17.7336272082
 20
8.5762230869
 30
0.0
 11
17.7336272082
 21
8.6072230755
 31
0.0
  0
LINE
  5
531
330
1F
100
AcDbEntity
  8
0
  6
HIDDEN
 62
     7
 48
2.0
370
     0
100
AcDbLine
 10
16.6246271511
 20
8.5452230984
 30
0.0
 11
16.6246271511
 21
8.5142231098
 31
0.0
  0
LINE
  5
532
330
1F
100
AcDbEntity
  8
0
  6
HIDDEN
 62
     7
 48
2.0
370
     0
100
AcDbLine
 10
17.7336272082
 20
8.5142231098
 30
0.0
 11
17.7336272082
 21
8.5452230984
 31
0.0
  0
LINE
  5
533
330
1F
100
AcDbEntity
  8
0
  6
HIDDEN
 62
     7
 48
2.0
370
     0
100
AcDbLine
 10
16.7416271345
 20
8.6072230755
 30
0.0
 11
16.7416271345
 21
8.5762230869
 31
0.0
  0
LINE
  5
534
330
1F
100
AcDbEntity
  8
0
  6
HIDDEN
 62
     7
 48
2.0
370
     0
100
AcDbLine
 10
16.7416271345
 20
8.5452230984
 30
0.0
 11
16.7416271345
 21
8.5142231098
 31
0.0
  0
LINE
  5
535
330
1F
100
AcDbEntity
  8
0
  6
HIDDEN
 62
     7
 48
2.0
370
     0
100
AcDbLine
 10
16.0511271612
 20
8.5452230984
 30
0.0
 11
16.0511271612
 21
8.5142231098
 31
0.0
  0
LINE
  5
536
330
1F
100
AcDbEntity
  8
0
  6
HIDDEN
 62
     7
 48
2.0
370
     0
100
AcDbLine
 10
16.0511271612
 20
8.6072230755
 30
0.0
 11
16.0511271612
 21
8.5762230869
 31
0.0
  0
LINE
  5
537
330
1F
100
AcDbEntity
  8
0
  6
HIDDEN
 62
     7
 48
2.0
370
     0
100
AcDbLine
 10
17.5541271751
 20
8.6072230755
 30
0.0
 11
17.5541271751
 21
8.5762230869
 31
0.0
  0
LINE
  5
538
330
1F
100
AcDbEntity
  8
0
  6
HIDDEN
 62
     7
 48
2.0
370
     0
100
AcDbLine
 10
17.5541271751
 20
8.5452230984
 30
0.0
 11
17.5541271751
 21
8.5142231098
 31
0.0
  0
LINE
  5
539
330
1F
100
AcDbEntity
  8
0
  6
HIDDEN
 62
     7
 48
2.0
370
     0
100
AcDbLine
 10
14.3691271685
 20
9.0167231182
 30
0.0
 11
14.400127157
 21
9.0167231182
 31
0.0
  0
LINE
  5
53A
330
1F
100
AcDbEntity
  8
0
  6
HIDDEN
 62
     7
 48
2.0
370
     0
100
AcDbLine
 10
14.400127157
 20
10.3917230833
 30
0.0
 11
14.3691271685
 21
10.3917230833
 31
0.0
  0
LINE
  5
53B
330
1F
100
AcDbEntity
  8
0
  6
HIDDEN
 62
     7
 48
2.0
370
     0
100
AcDbLine
 10
18.307127143
 20
10.3917230833
 30
0.0
 11
18.2761271545
 21
10.3917230833
 31
0.0
  0
LINE
  5
53C
330
1F
100
AcDbEntity
  8
0
  6
HIDDEN
 62
     7
 48
2.0
370
     0
100
AcDbLine
 10
14.4311271456
 20
9.0167231182
 30
0.0
 11
14.4621271341
 21
9.0167231182
 31
0.0
  0
LINE
  5
53D
330
1F
100
AcDbEntity
  8
0
  6
HIDDEN
 62
     7
 48
2.0
370
     0
100
AcDbLine
 10
18.3691271201
 20
10.3917230833
 30
0.0
 11
18.3381271316
 21
10.3917230833
 31
0.0
  0
LINE
  5
53E
330
1F
100
AcDbEntity
  8
0
  6
HIDDEN
 62
     7
 48
2.0
370
     0
100
AcDbLine
 10
18.2761271545
 20
9.0167231182
 30
0.0
 11
18.307127143
 21
9.0167231182
 31
0.0
  0
LINE
  5
53F
330
1F
100
AcDbEntity
  8
0
  6
HIDDEN
 62
     7
 48
2.0
370
     0
100
AcDbLine
 10
14.4621271341
 20
10.3917230833
 30
0.0
 11
14.4311271456
 21
10.3917230833
 31
0.0
  0
LINE
  5
540
330
1F
100
AcDbEntity
  8
0
  6
HIDDEN
 62
     7
 48
2.0
370
     0
100
AcDbLine
 10
18.3381271316
 20
9.0167231182
 30
0.0
 11
18.3691271201
 21
9.0167231182
 31
0.0
  0
LINE
  5
541
330
1F
100
AcDbEntity
  8
0
  6
HIDDEN
 62
     7
 48
2.0
370
     0
100
AcDbLine
 10
18.3381271316
 20
9.1497230218
 30
0.0
 11
18.3691271201
 21
9.1497230218
 31
0.0
  0
LINE
  5
542
330
1F
100
AcDbEntity
  8
0
  6
HIDDEN
 62
     7
 48
2.0
370
     0
100
AcDbLine
 10
14.4311271456
 20
9.1497230218
 30
0.0
 11
14.4621271341
 21
9.1497230218
 31
0.0
  0
LINE
  5
543
330
1F
100
AcDbEntity
  8
0
  6
HIDDEN
 62
     7
 48
2.0
370
     0
100
AcDbLine
 10
18.2761271545
 20
9.1497230218
 30
0.0
 11
18.307127143
 21
9.1497230218
 31
0.0
  0
LINE
  5
544
330
1F
100
AcDbEntity
  8
0
  6
HIDDEN
 62
     7
 48
2.0
370
     0
100
AcDbLine
 10
14.3691271685
 20
9.1497230218
 30
0.0
 11
14.400127157
 21
9.1497230218
 31
0.0
  0
LINE
  5
545
330
1F
100
AcDbEntity
  8
0
  6
HIDDEN
 62
     7
 48
2.0
370
     0
100
AcDbLine
 10
18.2761271545
 20
10.7697230924
 30
0.0
 11
18.307127143
 21
10.7697230924
 31
0.0
  0
LINE
  5
546
330
1F
100
AcDbEntity
  8
0
  6
HIDDEN
 62
     7
 48
2.0
370
     0
100
AcDbLine
 10
18.307127143
 20
11.8787231495
 30
0.0
 11
18.2761271545
 21
11.8787231495
 31
0.0
  0
LINE
  5
547
330
1F
100
AcDbEntity
  8
0
  6
HIDDEN
 62
     7
 48
2.0
370
     0
100
AcDbLine
 10
14.4621271341
 20
11.8787231495
 30
0.0
 11
14.4311271456
 21
11.8787231495
 31
0.0
  0
LINE
  5
548
330
1F
100
AcDbEntity
  8
0
  6
HIDDEN
 62
     7
 48
2.0
370
     0
100
AcDbLine
 10
14.4311271456
 20
10.7697230924
 30
0.0
 11
14.4621271341
 21
10.7697230924
 31
0.0
  0
LINE
  5
549
330
1F
100
AcDbEntity
  8
0
  6
HIDDEN
 62
     7
 48
2.0
370
     0
100
AcDbLine
 10
14.3691271685
 20
10.7697230924
 30
0.0
 11
14.400127157
 21
10.7697230924
 31
0.0
  0
LINE
  5
54A
330
1F
100
AcDbEntity
  8
0
  6
HIDDEN
 62
     7
 48
2.0
370
     0
100
AcDbLine
 10
18.3381271316
 20
10.7697230924
 30
0.0
 11
18.3691271201
 21
10.7697230924
 31
0.0
  0
LINE
  5
54B
330
1F
100
AcDbEntity
  8
0
  6
HIDDEN
 62
     7
 48
2.0
370
     0
100
AcDbLine
 10
14.400127157
 20
11.8787231495
 30
0.0
 11
14.3691271685
 21
11.8787231495
 31
0.0
  0
LINE
  5
54C
330
1F
100
AcDbEntity
  8
0
  6
HIDDEN
 62
     7
 48
2.0
370
     0
100
AcDbLine
 10
18.3691271201
 20
11.8787231495
 30
0.0
 11
18.3381271316
 21
11.8787231495
 31
0.0
  0
LINE
  5
54D
330
1F
100
AcDbEntity
  8
0
  6
HIDDEN
 62
     7
 48
2.0
370
     0
100
AcDbLine
 10
14.4311271456
 20
10.8867230758
 30
0.0
 11
14.4621271341
 21
10.8867230758
 31
0.0
  0
LINE
  5
54E
330
1F
100
AcDbEntity
  8
0
  6
HIDDEN
 62
     7
 48
2.0
370
     0
100
AcDbLine
 10
18.3381271316
 20
10.8867230758
 30
0.0
 11
18.3691271201
 21
10.8867230758
 31
0.0
  0
LINE
  5
54F
330
1F
100
AcDbEntity
  8
0
  6
HIDDEN
 62
     7
 48
2.0
370
     0
100
AcDbLine
 10
18.2761271545
 20
10.8867230758
 30
0.0
 11
18.307127143
 21
10.8867230758
 31
0.0
  0
LINE
  5
550
330
1F
100
AcDbEntity
  8
0
  6
HIDDEN
 62
     7
 48
2.0
370
     0
100
AcDbLine
 10
14.3691271685
 20
10.8867230758
 30
0.0
 11
14.400127157
 21
10.8867230758
 31
0.0
  0
LINE
  5
551
330
1F
100
AcDbEntity
  8
0
  6
HIDDEN
 62
     7
 48
2.0
370
     0
100
AcDbLine
 10
14.4311271456
 20
10.1962231025
 30
0.0
 11
14.4621271341
 21
10.1962231025
 31
0.0
  0
LINE
  5
552
330
1F
100
AcDbEntity
  8
0
  6
HIDDEN
 62
     7
 48
2.0
370
     0
100
AcDbLine
 10
18.2761271545
 20
10.1962231025
 30
0.0
 11
18.307127143
 21
10.1962231025
 31
0.0
  0
LINE
  5
553
330
1F
100
AcDbEntity
  8
0
  6
HIDDEN
 62
     7
 48
2.0
370
     0
100
AcDbLine
 10
14.3691271685
 20
10.1962231025
 30
0.0
 11
14.400127157
 21
10.1962231025
 31
0.0
  0
LINE
  5
554
330
1F
100
AcDbEntity
  8
0
  6
HIDDEN
 62
     7
 48
2.0
370
     0
100
AcDbLine
 10
18.3381271316
 20
10.1962231025
 30
0.0
 11
18.3691271201
 21
10.1962231025
 31
0.0
  0
LINE
  5
555
330
1F
100
AcDbEntity
  8
0
  6
HIDDEN
 62
     7
 48
2.0
370
     0
100
AcDbLine
 10
14.4311271456
 20
11.6992231164
 30
0.0
 11
14.4621271341
 21
11.6992231164
 31
0.0
  0
LINE
  5
556
330
1F
100
AcDbEntity
  8
0
  6
HIDDEN
 62
     7
 48
2.0
370
     0
100
AcDbLine
 10
14.3691271685
 20
11.6992231164
 30
0.0
 11
14.400127157
 21
11.6992231164
 31
0.0
  0
LINE
  5
557
330
1F
100
AcDbEntity
  8
0
  6
HIDDEN
 62
     7
 48
2.0
370
     0
100
AcDbLine
 10
18.3381271316
 20
11.6992231164
 30
0.0
 11
18.3691271201
 21
11.6992231164
 31
0.0
  0
LINE
  5
558
330
1F
100
AcDbEntity
  8
0
  6
HIDDEN
 62
     7
 48
2.0
370
     0
100
AcDbLine
 10
18.2761271545
 20
11.6992231164
 30
0.0
 11
18.307127143
 21
11.6992231164
 31
0.0
  0
DIMENSION
  5
559
330
1F
100
AcDbEntity
  8
0
  6
Continuous
 62
     7
 48
2.0
370
     0
100
AcDbDimension
  2
*D24
 10
18.3691271443
 20
11.1980542714
 30
0.0
 11
19.4490094265
 21
11.1980542714
 31
0.0
 70
   160
 71
     2
 42
-1.0
  3
SLDDIMSTYLE5
100
AcDbAlignedDimension
 13
17.8691271443
 23
12.5142230856
 33
0.0
 14
18.3691271443
 24
12.5142230856
 34
0.0
100
AcDbRotatedDimension
  0
INSERT
  5
56F
102
{ACAD_REACTORS
330
570
102
}
330
1F
100
AcDbEntity
  8
0
  6
Continuous
 62
     7
 48
2.0
370
     0
100
AcDbBlockReference
  2
SW_NOTE_7
 10
18.0352026695
 20
13.5819976905
 30
0.0
  0
LEADER
  5
570
330
1F
100
AcDbEntity
  8
0
  6
Continuous
 62
     7
 48
2.0
370
     0
100
AcDbLeader
  3
SLDDIMSTYLE1
 73
     2
 76
     3
 10
16.5773606045
 20
11.121105179
 30
0.0
 10
17.5352026695
 20
13.5819976905
 30
0.0
 10
18.0352026695
 20
13.5819976905
 30
0.0
340
56F
  0
MTEXT
  5
571
330
1F
100
AcDbEntity
  8
0
  6
Continuous
 62
     7
 48
2.0
370
     0
100
AcDbMText
 10
15.055046208
 20
8.0344143402
 30
0.0
 40
0.25
 41
0.0
 71
     1
 72
     1
  1
\LCOVER REMOVED
  7
SLDTEXTSTYLE0
 73
     1
 44
1.0
  0
ENDSEC
  0
SECTION
  2
OBJECTS
  0
DICTIONARY
  5
C
330
0
100
AcDbDictionary
281
     1
  3
ACAD_GROUP
350
D
  3
ACAD_LAYOUT
350
1A
  3
ACAD_MATERIAL
350
3B
  3
ACAD_MLEADERSTYLE
350
574
  3
ACAD_MLINESTYLE
350
17
  3
ACAD_PLOTSETTINGS
350
19
  3
ACAD_PLOTSTYLENAME
350
E
  3
ACAD_SCALELIST
350
58
  3
ACAD_VISUALSTYLE
350
2A
  3
AcDbVariableDictionary
350
572
  0
DICTIONARY
  5
D
102
{ACAD_REACTORS
330
C
102
}
330
C
100
AcDbDictionary
281
     1
  0
DICTIONARY
  5
1A
102
{ACAD_REACTORS
330
C
102
}
330
C
100
AcDbDictionary
281
     1
  3
Layout1
350
1E
  3
Layout2
350
26
  3
Model
350
22
  0
DICTIONARY
  5
3B
102
{ACAD_REACTORS
330
C
102
}
330
C
100
AcDbDictionary
281
     1
  3
ByBlock
350
3D
  3
ByLayer
350
3C
  3
Global
350
3E
  0
DICTIONARY
  5
574
102
{ACAD_REACTORS
330
C
102
}
330
C
100
AcDbDictionary
281
     1
  0
DICTIONARY
  5
17
102
{ACAD_REACTORS
330
C
102
}
330
C
100
AcDbDictionary
281
     1
  3
Standard
350
18
  0
DICTIONARY
  5
19
102
{ACAD_REACTORS
330
C
102
}
330
C
100
AcDbDictionary
281
     1
  0
ACDBDICTIONARYWDFLT
  5
E
102
{ACAD_REACTORS
330
C
102
}
330
C
100
AcDbDictionary
281
     1
  3
Normal
350
F
100
AcDbDictionaryWithDefault
340
F
  0
DICTIONARY
  5
58
102
{ACAD_REACTORS
330
C
102
}
330
C
100
AcDbDictionary
281
     1
  3
A0
350
59
  3
A1
350
5A
  3
A2
350
5B
  3
A3
350
5C
  3
A4
350
5D
  3
A5
350
5E
  3
A6
350
5F
  3
A7
350
60
  3
A8
350
61
  3
A9
350
62
  3
B0
350
63
  3
B1
350
64
  3
B2
350
65
  3
B3
350
66
  3
B4
350
67
  3
B5
350
68
  3
B6
350
69
  3
B7
350
6A
  3
B8
350
6B
  3
B9
350
6C
  3
C0
350
6D
  3
C1
350
6E
  3
C2
350
6F
  3
C3
350
70
  3
C4
350
71
  3
C5
350
72
  3
C6
350
73
  3
C7
350
74
  3
C8
350
75
  3
C9
350
76
  3
D0
350
77
  3
D1
350
78
  3
D2
350
79
  0
DICTIONARY
  5
2A
102
{ACAD_REACTORS
330
C
102
}
330
C
100
AcDbDictionary
281
     1
  3
2dWireframe
350
2F
  3
3D Hidden
350
31
  3
3dWireframe
350
30
  3
Basic
350
32
  3
Brighten
350
36
  3
ColorChange
350
3A
  3
Conceptual
350
34
  3
Dim
350
35
  3
Facepattern
350
39
  3
Flat
350
2B
  3
FlatWithEdges
350
2C
  3
Gouraud
350
2D
  3
GouraudWithEdges
350
2E
  3
Linepattern
350
38
  3
Realistic
350
33
  3
Thicken
350
37
  0
DICTIONARY
  5
572
102
{ACAD_REACTORS
330
C
102
}
330
C
100
AcDbDictionary
281
     1
  3
CANNOSCALE
350
575
  3
DIMASSOC
350
576
  3
HIDETEXT
350
577
  0
LAYOUT
  5
1E
102
{ACAD_REACTORS
330
1A
102
}
330
1A
100
AcDbPlotSettings
  1

  2
none_device
  4

  6

 40
0.0
 41
0.0
 42
0.0
 43
0.0
 44
0.0
 45
0.0
 46
0.0
 47
0.0
 48
0.0
 49
0.0
140
0.0
141
0.0
142
1.0
143
1.0
 70
   688
 72
     0
 73
     0
 74
     5
  7

 75
    16
147
1.0
148
0.0
149
0.0
100
AcDbLayout
  1
Layout1
 70
     1
 71
     1
 10
0.0
 20
0.0
 11
12.0
 21
9.0
 12
0.0
 22
0.0
 32
0.0
 14
1.0000000000E+20
 24
1.0000000000E+20
 34
1.0000000000E+20
 15
-1.0000000000E+20
 25
-1.0000000000E+20
 35
-1.0000000000E+20
146
0.0
 13
0.0
 23
0.0
 33
0.0
 16
1.0
 26
0.0
 36
0.0
 17
0.0
 27
1.0
 37
0.0
 76
     0
330
1B
  0
LAYOUT
  5
26
102
{ACAD_REACTORS
330
1A
102
}
330
1A
100
AcDbPlotSettings
  1

  2
none_device
  4

  6

 40
0.0
 41
0.0
 42
0.0
 43
0.0
 44
0.0
 45
0.0
 46
0.0
 47
0.0
 48
0.0
 49
0.0
140
0.0
141
0.0
142
1.0
143
1.0
 70
   688
 72
     0
 73
     0
 74
     5
  7

 75
    16
147
1.0
148
0.0
149
0.0
100
AcDbLayout
  1
Layout2
 70
     1
 71
     2
 10
0.0
 20
0.0
 11
0.0
 21
0.0
 12
0.0
 22
0.0
 32
0.0
 14
0.0
 24
0.0
 34
0.0
 15
0.0
 25
0.0
 35
0.0
146
0.0
 13
0.0
 23
0.0
 33
0.0
 16
1.0
 26
0.0
 36
0.0
 17
0.0
 27
1.0
 37
0.0
 76
     0
330
23
  0
LAYOUT
  5
22
102
{ACAD_REACTORS
330
1A
102
}
330
1A
100
AcDbPlotSettings
  1

  2
none_device
  4

  6

 40
0.0
 41
0.0
 42
0.0
 43
0.0
 44
0.0
 45
0.0
 46
0.0
 47
0.0
 48
0.0
 49
0.0
140
0.0
141
0.0
142
1.0
143
1.0
 70
  1712
 72
     0
 73
     0
 74
     0
  7

 75
     0
147
1.0
148
0.0
149
0.0
100
AcDbLayout
  1
Model
 70
     1
 71
     0
 10
0.0
 20
0.0
 11
34.0
 21
22.0
 12
0.0
 22
0.0
 32
0.0
 14
0.0
 24
0.0
 34
0.0
 15
34.0
 25
22.0
 35
0.0
146
0.0
 13
0.0
 23
0.0
 33
0.0
 16
1.0
 26
0.0
 36
0.0
 17
0.0
 27
1.0
 37
0.0
 76
     0
330
1F
331
29
  0
MATERIAL
  5
3D
102
{ACAD_REACTORS
330
3B
102
}
102
{ACAD_XDICTIONARY
360
59A
102
}
330
3B
100
AcDbMaterial
  1
ByBlock
  0
MATERIAL
  5
3C
102
{ACAD_REACTORS
330
3B
102
}
102
{ACAD_XDICTIONARY
360
598
102
}
330
3B
100
AcDbMaterial
  1
ByLayer
  0
MATERIAL
  5
3E
102
{ACAD_REACTORS
330
3B
102
}
102
{ACAD_XDICTIONARY
360
59C
102
}
330
3B
100
AcDbMaterial
  1
Global
  0
MLINESTYLE
  5
18
102
{ACAD_REACTORS
330
17
102
}
330
17
100
AcDbMlineStyle
  2
Standard
 70
     0
  3

 62
   256
 51
90.0
 52
90.0
 71
     2
 49
0.5
 62
   256
  6
BYLAYER
 49
-0.5
 62
   256
  6
BYLAYER
  0
ACDBPLACEHOLDER
  5
F
102
{ACAD_REACTORS
330
E
102
}
330
E
  0
SCALE
  5
59
102
{ACAD_REACTORS
330
58
102
}
330
58
100
AcDbScale
 70
     0
300
1:1
140
1.0
141
1.0
290
     1
  0
SCALE
  5
5A
102
{ACAD_REACTORS
330
58
102
}
330
58
100
AcDbScale
 70
     0
300
1:2
140
1.0
141
2.0
290
     0
  0
SCALE
  5
5B
102
{ACAD_REACTORS
330
58
102
}
330
58
100
AcDbScale
 70
     0
300
1:4
140
1.0
141
4.0
290
     0
  0
SCALE
  5
5C
102
{ACAD_REACTORS
330
58
102
}
330
58
100
AcDbScale
 70
     0
300
1:5
140
1.0
141
5.0
290
     0
  0
SCALE
  5
5D
102
{ACAD_REACTORS
330
58
102
}
330
58
100
AcDbScale
 70
     0
300
1:8
140
1.0
141
8.0
290
     0
  0
SCALE
  5
5E
102
{ACAD_REACTORS
330
58
102
}
330
58
100
AcDbScale
 70
     0
300
1:10
140
1.0
141
10.0
290
     0
  0
SCALE
  5
5F
102
{ACAD_REACTORS
330
58
102
}
330
58
100
AcDbScale
 70
     0
300
1:16
140
1.0
141
16.0
290
     0
  0
SCALE
  5
60
102
{ACAD_REACTORS
330
58
102
}
330
58
100
AcDbScale
 70
     0
300
1:20
140
1.0
141
20.0
290
     0
  0
SCALE
  5
61
102
{ACAD_REACTORS
330
58
102
}
330
58
100
AcDbScale
 70
     0
300
1:30
140
1.0
141
30.0
290
     0
  0
SCALE
  5
62
102
{ACAD_REACTORS
330
58
102
}
330
58
100
AcDbScale
 70
     0
300
1:40
140
1.0
141
40.0
290
     0
  0
SCALE
  5
63
102
{ACAD_REACTORS
330
58
102
}
330
58
100
AcDbScale
 70
     0
300
1:50
140
1.0
141
50.0
290
     0
  0
SCALE
  5
64
102
{ACAD_REACTORS
330
58
102
}
330
58
100
AcDbScale
 70
     0
300
1:100
140
1.0
141
100.0
290
     0
  0
SCALE
  5
65
102
{ACAD_REACTORS
330
58
102
}
330
58
100
AcDbScale
 70
     0
300
2:1
140
2.0
141
1.0
290
     0
  0
SCALE
  5
66
102
{ACAD_REACTORS
330
58
102
}
330
58
100
AcDbScale
 70
     0
300
4:1
140
4.0
141
1.0
290
     0
  0
SCALE
  5
67
102
{ACAD_REACTORS
330
58
102
}
330
58
100
AcDbScale
 70
     0
300
8:1
140
8.0
141
1.0
290
     0
  0
SCALE
  5
68
102
{ACAD_REACTORS
330
58
102
}
330
58
100
AcDbScale
 70
     0
300
10:1
140
10.0
141
1.0
290
     0
  0
SCALE
  5
69
102
{ACAD_REACTORS
330
58
102
}
330
58
100
AcDbScale
 70
     0
300
100:1
140
100.0
141
1.0
290
     0
  0
SCALE
  5
6A
102
{ACAD_REACTORS
330
58
102
}
330
58
100
AcDbScale
 70
     0
300
1/128" = 1'-0"
140
0.0078125
141
12.0
290
     0
  0
SCALE
  5
6B
102
{ACAD_REACTORS
330
58
102
}
330
58
100
AcDbScale
 70
     0
300
1/64" = 1'-0"
140
0.015625
141
12.0
290
     0
  0
SCALE
  5
6C
102
{ACAD_REACTORS
330
58
102
}
330
58
100
AcDbScale
 70
     0
300
1/32" = 1'-0"
140
0.03125
141
12.0
290
     0
  0
SCALE
  5
6D
102
{ACAD_REACTORS
330
58
102
}
330
58
100
AcDbScale
 70
     0
300
1/16" = 1'-0"
140
0.0625
141
12.0
290
     0
  0
SCALE
  5
6E
102
{ACAD_REACTORS
330
58
102
}
330
58
100
AcDbScale
 70
     0
300
3/32" = 1'-0"
140
0.09375
141
12.0
290
     0
  0
SCALE
  5
6F
102
{ACAD_REACTORS
330
58
102
}
330
58
100
AcDbScale
 70
     0
300
1/8" = 1'-0"
140
0.125
141
12.0
290
     0
  0
SCALE
  5
70
102
{ACAD_REACTORS
330
58
102
}
330
58
100
AcDbScale
 70
     0
300
3/16" = 1'-0"
140
0.1875
141
12.0
290
     0
  0
SCALE
  5
71
102
{ACAD_REACTORS
330
58
102
}
330
58
100
AcDbScale
 70
     0
300
1/4" = 1'-0"
140
0.25
141
12.0
290
     0
  0
SCALE
  5
72
102
{ACAD_REACTORS
330
58
102
}
330
58
100
AcDbScale
 70
     0
300
3/8" = 1'-0"
140
0.375
141
12.0
290
     0
  0
SCALE
  5
73
102
{ACAD_REACTORS
330
58
102
}
330
58
100
AcDbScale
 70
     0
300
1/2" = 1'-0"
140
0.5
141
12.0
290
     0
  0
SCALE
  5
74
102
{ACAD_REACTORS
330
58
102
}
330
58
100
AcDbScale
 70
     0
300
3/4" = 1'-0"
140
0.75
141
12.0
290
     0
  0
SCALE
  5
75
102
{ACAD_REACTORS
330
58
102
}
330
58
100
AcDbScale
 70
     0
300
1" = 1'-0"
140
1.0
141
12.0
290
     0
  0
SCALE
  5
76
102
{ACAD_REACTORS
330
58
102
}
330
58
100
AcDbScale
 70
     0
300
1-1/2" = 1'-0"
140
1.5
141
12.0
290
     0
  0
SCALE
  5
77
102
{ACAD_REACTORS
330
58
102
}
330
58
100
AcDbScale
 70
     0
300
3" = 1'-0"
140
3.0
141
12.0
290
     0
  0
SCALE
  5
78
102
{ACAD_REACTORS
330
58
102
}
330
58
100
AcDbScale
 70
     0
300
6" = 1'-0"
140
6.0
141
12.0
290
     0
  0
SCALE
  5
79
102
{ACAD_REACTORS
330
58
102
}
330
58
100
AcDbScale
 70
     0
300
1'-0" = 1'-0"
140
12.0
141
12.0
290
     0
  0
VISUALSTYLE
  5
2F
102
{ACAD_REACTORS
330
2A
102
}
102
{ACAD_XDICTIONARY
360
580
102
}
330
2A
100
AcDbVisualStyle
  2
2dWireframe
 70
     4
 71
     0
 72
     2
 73
     0
 90
        0
 40
-0.6
 41
-30.0
 62
     5
 63
     7
 74
     1
 91
        4
 64
     7
 65
   257
 75
     1
175
     1
 42
1.0
 92
        0
 66
   257
 43
1.0
 76
     1
 77
     6
 78
     2
 67
     7
 79
     5
170
     0
171
     0
290
     0
174
     0
 93
        1
 44
0.0
173
     0
291
     0
 45
0.0
1001
ACAD
1000
AcDbSavedByObjectVersion
1070
     0
  0
VISUALSTYLE
  5
31
102
{ACAD_REACTORS
330
2A
102
}
102
{ACAD_XDICTIONARY
360
584
102
}
330
2A
100
AcDbVisualStyle
  2
3D Hidden
 70
     6
 71
     1
 72
     2
 73
     2
 90
        0
 40
-0.6
 41
-30.0
 62
     5
 63
     7
 74
     2
 91
        2
 64
     7
 65
   257
 75
     2
175
     1
 42
40.0
 92
        0
 66
   257
 43
1.0
 76
     1
 77
     6
 78
     2
 67
     7
 79
     3
170
     0
171
     0
290
     0
174
     0
 93
        1
 44
0.0
173
     0
291
     0
 45
0.0
1001
ACAD
1000
AcDbSavedByObjectVersion
1070
     0
  0
VISUALSTYLE
  5
30
102
{ACAD_REACTORS
330
2A
102
}
102
{ACAD_XDICTIONARY
360
582
102
}
330
2A
100
AcDbVisualStyle
  2
3dWireframe
 70
     5
 71
     0
 72
     2
 73
     0
 90
        0
 40
-0.6
 41
-30.0
 62
     5
 63
     7
 74
     1
 91
        4
 64
     7
 65
   257
 75
     1
175
     1
 42
1.0
 92
        0
 66
   257
 43
1.0
 76
     1
 77
     6
 78
     2
 67
     7
 79
     5
170
     0
171
     0
290
     0
174
     0
 93
        1
 44
0.0
173
     0
291
     0
 45
0.0
1001
ACAD
1000
AcDbSavedByObjectVersion
1070
     0
  0
VISUALSTYLE
  5
32
102
{ACAD_REACTORS
330
2A
102
}
102
{ACAD_XDICTIONARY
360
586
102
}
330
2A
100
AcDbVisualStyle
  2
Basic
 70
     7
 71
     1
 72
     0
 73
     1
 90
        0
 40
-0.6
 41
-30.0
 62
     5
 63
     7
 74
     0
 91
        4
 64
     7
 65
   257
 75
     1
175
     1
 42
1.0
 92
        8
 66
     7
 43
1.0
 76
     1
 77
     6
 78
     2
 67
     7
 79
     5
170
     0
171
     0
290
     0
174
     0
 93
        1
 44
0.0
173
     0
291
     1
 45
0.0
1001
ACAD
1000
AcDbSavedByObjectVersion
1070
     0
  0
VISUALSTYLE
  5
36
102
{ACAD_REACTORS
330
2A
102
}
102
{ACAD_XDICTIONARY
360
58E
102
}
330
2A
100
AcDbVisualStyle
  2
Brighten
 70
    12
 71
     2
 72
     2
 73
     0
 90
        0
 40
-0.6
 41
-30.0
 62
     5
 63
     7
 74
     1
 91
        4
 64
     7
 65
   257
 75
     1
175
     1
 42
1.0
 92
        8
 66
     7
 43
1.0
 76
     1
 77
     6
 78
     2
 67
     7
 79
     5
170
     0
171
     0
290
     0
174
     0
 93
        1
 44
50.0
173
     0
291
     1
 45
0.0
1001
ACAD
1000
AcDbSavedByObjectVersion
1070
     0
  0
VISUALSTYLE
  5
3A
102
{ACAD_REACTORS
330
2A
102
}
102
{ACAD_XDICTIONARY
360
596
102
}
330
2A
100
AcDbVisualStyle
  2
ColorChange
 70
    16
 71
     2
 72
     2
 73
     3
 90
        0
 40
-0.6
 41
-30.0
 62
     5
 63
     8
 74
     1
 91
        4
 64
     7
 65
   257
 75
     1
175
     1
 42
1.0
 92
        8
 66
     8
 43
1.0
 76
     1
 77
     6
 78
     2
 67
     7
 79
     5
170
     0
171
     0
290
     0
174
     0
 93
        1
 44
0.0
173
     0
291
     1
 45
0.0
1001
ACAD
1000
AcDbSavedByObjectVersion
1070
     0
  0
VISUALSTYLE
  5
34
102
{ACAD_REACTORS
330
2A
102
}
102
{ACAD_XDICTIONARY
360
58A
102
}
330
2A
100
AcDbVisualStyle
  2
Conceptual
 70
     9
 71
     3
 72
     2
 73
     0
 90
        0
 40
-0.6
 41
-30.0
 62
     5
 63
     7
 74
     2
 91
        2
 64
     7
 65
   257
 75
     1
175
     1
 42
40.0
 92
        8
 66
     7
 43
1.0
 76
     1
 77
     6
 78
     2
 67
     7
 79
     3
170
     0
171
     0
290
     0
174
     0
 93
        1
 44
0.0
173
     0
291
     0
 45
0.0
1001
ACAD
1000
AcDbSavedByObjectVersion
1070
     0
  0
VISUALSTYLE
  5
35
102
{ACAD_REACTORS
330
2A
102
}
102
{ACAD_XDICTIONARY
360
58C
102
}
330
2A
100
AcDbVisualStyle
  2
Dim
 70
    11
 71
     2
 72
     2
 73
     0
 90
        0
 40
-0.6
 41
-30.0
 62
     5
 63
     7
 74
     1
 91
        4
 64
     7
 65
   257
 75
     1
175
     1
 42
1.0
 92
        8
 66
     7
 43
1.0
 76
     1
 77
     6
 78
     2
 67
     7
 79
     5
170
     0
171
     0
290
     0
174
     0
 93
        1
 44
-50.0
173
     0
291
     1
 45
0.0
1001
ACAD
1000
AcDbSavedByObjectVersion
1070
     0
  0
VISUALSTYLE
  5
39
102
{ACAD_REACTORS
330
2A
102
}
102
{ACAD_XDICTIONARY
360
594
102
}
330
2A
100
AcDbVisualStyle
  2
Facepattern
 70
    15
 71
     2
 72
     2
 73
     0
 90
        0
 40
-0.6
 41
-30.0
 62
     5
 63
     7
 74
     1
 91
        4
 64
     7
 65
   257
 75
     1
175
     1
 42
1.0
 92
        8
 66
     7
 43
1.0
 76
     1
 77
     6
 78
     2
 67
     7
 79
     5
170
     0
171
     0
290
     0
174
     0
 93
        1
 44
0.0
173
     0
291
     1
 45
0.0
1001
ACAD
1000
AcDbSavedByObjectVersion
1070
     0
  0
VISUALSTYLE
  5
2B
102
{ACAD_REACTORS
330
2A
102
}
102
{ACAD_XDICTIONARY
360
578
102
}
330
2A
100
AcDbVisualStyle
  2
Flat
 70
     0
 71
     2
 72
     1
 73
     1
 90
        2
 40
-0.6
 41
30.0
 62
     5
 63
     7
 74
     0
 91
        4
 64
     7
 65
   257
 75
     1
175
     1
 42
1.0
 92
        8
 66
     7
 43
1.0
 76
     1
 77
     6
 78
     2
 67
     7
 79
     5
170
     0
171
     0
290
     0
174
     0
 93
       13
 44
0.0
173
     0
291
     1
 45
0.0
1001
ACAD
1000
AcDbSavedByObjectVersion
1070
     0
  0
VISUALSTYLE
  5
2C
102
{ACAD_REACTORS
330
2A
102
}
102
{ACAD_XDICTIONARY
360
57A
102
}
330
2A
100
AcDbVisualStyle
  2
FlatWithEdges
 70
     1
 71
     2
 72
     1
 73
     1
 90
        2
 40
-0.6
 41
30.0
 62
     5
 63
     7
 74
     1
 91
        4
 64
     7
 65
   257
 75
     1
175
     1
 42
1.0
 92
        0
 66
   257
 43
1.0
 76
     1
 77
     6
 78
     2
 67
     7
 79
     5
170
     0
171
     0
290
     0
174
     0
 93
       13
 44
0.0
173
     0
291
     1
 45
0.0
1001
ACAD
1000
AcDbSavedByObjectVersion
1070
     0
  0
VISUALSTYLE
  5
2D
102
{ACAD_REACTORS
330
2A
102
}
102
{ACAD_XDICTIONARY
360
57C
102
}
330
2A
100
AcDbVisualStyle
  2
Gouraud
 70
     2
 71
     2
 72
     2
 73
     1
 90
        2
 40
-0.6
 41
30.0
 62
     5
 63
     7
 74
     0
 91
        4
 64
     7
 65
   257
 75
     1
175
     1
 42
1.0
 92
        0
 66
     7
 43
1.0
 76
     1
 77
     6
 78
     2
 67
     7
 79
     5
170
     0
171
     0
290
     0
174
     0
 93
       13
 44
0.0
173
     0
291
     1
 45
0.0
1001
ACAD
1000
AcDbSavedByObjectVersion
1070
     0
  0
VISUALSTYLE
  5
2E
102
{ACAD_REACTORS
330
2A
102
}
102
{ACAD_XDICTIONARY
360
57E
102
}
330
2A
100
AcDbVisualStyle
  2
GouraudWithEdges
 70
     3
 71
     2
 72
     2
 73
     1
 90
        2
 40
-0.6
 41
30.0
 62
     5
 63
     7
 74
     1
 91
        4
 64
     7
 65
   257
 75
     1
175
     1
 42
1.0
 92
        0
 66
   257
 43
1.0
 76
     1
 77
     6
 78
     2
 67
     7
 79
     5
170
     0
171
     0
290
     0
174
     0
 93
       13
 44
0.0
173
     0
291
     1
 45
0.0
1001
ACAD
1000
AcDbSavedByObjectVersion
1070
     0
  0
VISUALSTYLE
  5
38
102
{ACAD_REACTORS
330
2A
102
}
102
{ACAD_XDICTIONARY
360
592
102
}
330
2A
100
AcDbVisualStyle
  2
Linepattern
 70
    14
 71
     2
 72
     2
 73
     0
 90
        0
 40
-0.6
 41
-30.0
 62
     5
 63
     7
 74
     1
 91
        4
 64
     7
 65
   257
 75
     7
175
     7
 42
1.0
 92
        8
 66
     7
 43
1.0
 76
     1
 77
     6
 78
     2
 67
     7
 79
     5
170
     0
171
     0
290
     0
174
     0
 93
        1
 44
0.0
173
     0
291
     1
 45
0.0
1001
ACAD
1000
AcDbSavedByObjectVersion
1070
     0
  0
VISUALSTYLE
  5
33
102
{ACAD_REACTORS
330
2A
102
}
102
{ACAD_XDICTIONARY
360
588
102
}
330
2A
100
AcDbVisualStyle
  2
Realistic
 70
     8
 71
     2
 72
     2
 73
     0
 90
        0
 40
-0.6
 41
-30.0
 62
     5
 63
     7
 74
     1
 91
        0
 64
     7
 65
   257
 75
     1
175
     1
 42
1.0
 92
        8
 66
     8
 43
1.0
 76
     1
 77
     6
 78
     2
 67
     7
 79
     5
170
     0
171
     0
290
     0
174
     0
 93
       13
 44
0.0
173
     0
291
     0
 45
0.0
1001
ACAD
1000
AcDbSavedByObjectVersion
1070
     0
  0
VISUALSTYLE
  5
37
102
{ACAD_REACTORS
330
2A
102
}
102
{ACAD_XDICTIONARY
360
590
102
}
330
2A
100
AcDbVisualStyle
  2
Thicken
 70
    13
 71
     2
 72
     2
 73
     0
 90
        0
 40
-0.6
 41
-30.0
 62
     5
 63
     7
 74
     1
 91
        4
 64
     7
 65
   257
 75
     1
175
     1
 42
1.0
 92
       12
 66
     7
 43
1.0
 76
     1
 77
     6
 78
     2
 67
     7
 79
     5
170
     0
171
     0
290
     0
174
     0
 93
        1
 44
0.0
173
     0
291
     1
 45
0.0
1001
ACAD
1000
AcDbSavedByObjectVersion
1070
     0
  0
DICTIONARYVAR
  5
575
102
{ACAD_REACTORS
330
572
102
}
330
572
100
DictionaryVariables
280
     0
  1
1:1
  0
DICTIONARYVAR
  5
576
102
{ACAD_REACTORS
330
572
102
}
330
572
100
DictionaryVariables
280
     0
  1
2
  0
DICTIONARYVAR
  5
577
102
{ACAD_REACTORS
330
572
102
}
330
572
100
DictionaryVariables
280
     0
  1
1
  0
DICTIONARY
  5
59A
330
3D
100
AcDbDictionary
280
     1
281
     1
  3
ACAD_XREC_ROUNDTRIP
360
59B
  0
DICTIONARY
  5
598
330
3C
100
AcDbDictionary
280
     1
281
     1
  3
ACAD_XREC_ROUNDTRIP
360
599
  0
DICTIONARY
  5
59C
330
3E
100
AcDbDictionary
280
     1
281
     1
  3
ACAD_XREC_ROUNDTRIP
360
59D
  0
DICTIONARY
  5
580
330
2F
100
AcDbDictionary
280
     1
281
     1
  3
ACAD_XREC_ROUNDTRIP
360
581
  0
DICTIONARY
  5
584
330
31
100
AcDbDictionary
280
     1
281
     1
  3
ACAD_XREC_ROUNDTRIP
360
585
  0
DICTIONARY
  5
582
330
30
100
AcDbDictionary
280
     1
281
     1
  3
ACAD_XREC_ROUNDTRIP
360
583
  0
DICTIONARY
  5
586
330
32
100
AcDbDictionary
280
     1
281
     1
  3
ACAD_XREC_ROUNDTRIP
360
587
  0
DICTIONARY
  5
58E
330
36
100
AcDbDictionary
280
     1
281
     1
  3
ACAD_XREC_ROUNDTRIP
360
58F
  0
DICTIONARY
  5
596
330
3A
100
AcDbDictionary
280
     1
281
     1
  3
ACAD_XREC_ROUNDTRIP
360
597
  0
DICTIONARY
  5
58A
330
34
100
AcDbDictionary
280
     1
281
     1
  3
ACAD_XREC_ROUNDTRIP
360
58B
  0
DICTIONARY
  5
58C
330
35
100
AcDbDictionary
280
     1
281
     1
  3
ACAD_XREC_ROUNDTRIP
360
58D
  0
DICTIONARY
  5
594
330
39
100
AcDbDictionary
280
     1
281
     1
  3
ACAD_XREC_ROUNDTRIP
360
595
  0
DICTIONARY
  5
578
330
2B
100
AcDbDictionary
280
     1
281
     1
  3
ACAD_XREC_ROUNDTRIP
360
579
  0
DICTIONARY
  5
57A
330
2C
100
AcDbDictionary
280
     1
281
     1
  3
ACAD_XREC_ROUNDTRIP
360
57B
  0
DICTIONARY
  5
57C
330
2D
100
AcDbDictionary
280
     1
281
     1
  3
ACAD_XREC_ROUNDTRIP
360
57D
  0
DICTIONARY
  5
57E
330
2E
100
AcDbDictionary
280
     1
281
     1
  3
ACAD_XREC_ROUNDTRIP
360
57F
  0
DICTIONARY
  5
592
330
38
100
AcDbDictionary
280
     1
281
     1
  3
ACAD_XREC_ROUNDTRIP
360
593
  0
DICTIONARY
  5
588
330
33
100
AcDbDictionary
280
     1
281
     1
  3
ACAD_XREC_ROUNDTRIP
360
589
  0
DICTIONARY
  5
590
330
37
100
AcDbDictionary
280
     1
281
     1
  3
ACAD_XREC_ROUNDTRIP
360
591
  0
XRECORD
  5
59B
102
{ACAD_REACTORS
330
59A
102
}
330
59A
100
AcDbXrecord
280
     1
102
MATERIAL
148
0.0
149
0.0
149
0.0
 93
        0
 94
      127
282
     0
 72
     1
 77
     1
171
     1
175
     1
179
     1
273
     0
  0
XRECORD
  5
599
102
{ACAD_REACTORS
330
598
102
}
330
598
100
AcDbXrecord
280
     1
102
MATERIAL
148
0.0
149
0.0
149
0.0
 93
        0
 94
      127
282
     0
 72
     1
 77
     1
171
     1
175
     1
179
     1
273
     0
  0
XRECORD
  5
59D
102
{ACAD_REACTORS
330
59C
102
}
330
59C
100
AcDbXrecord
280
     1
102
MATERIAL
148
0.0
149
0.0
149
0.0
 93
        0
 94
      127
282
     0
 72
     1
 77
     1
171
     1
175
     1
179
     1
273
     0
  0
XRECORD
  5
581
102
{ACAD_REACTORS
330
580
102
}
330
580
100
AcDbXrecord
280
     1
102
RTVSPropertyOp0
 70
     1
102
RTVSPropertyOp1
 70
     1
102
RTVSPropertyOp2
 70
     1
102
RTVSPropertyOp3
 70
     1
102
RTVSPropertyOp4
 70
     1
102
RTVSPropertyOp5
 70
     1
102
RTVSPropertyOp6
 70
     1
102
RTVSPropertyOp7
 70
     1
102
RTVSPropertyOp8
 70
     1
102
RTVSPropertyOp9
 70
     1
102
RTVSPropertyOp10
 70
     1
102
RTVSPropertyOp11
 70
     1
102
RTVSPropertyOp12
 70
     1
102
RTVSPropertyOp13
 70
     1
102
RTVSPropertyOp14
 70
     1
102
RTVSPropertyOp15
 70
     1
102
RTVSPropertyOp16
 70
     1
102
RTVSPropertyOp17
 70
     1
102
RTVSPropertyOp18
 70
     1
102
RTVSPropertyOp19
 70
     1
102
RTVSPropertyOp20
 70
     1
102
RTVSPropertyOp21
 70
     1
102
RTVSPropertyOp22
 70
     1
102
RTVSPropertyOp23
 70
     1
102
RTVSPropertyOp24
 70
     1
102
RTVSPropertyOp25
 70
     1
102
RTVSPropertyOp26
 70
     1
102
RTVSPropertyOp27
 70
     1
  0
XRECORD
  5
585
102
{ACAD_REACTORS
330
584
102
}
330
584
100
AcDbXrecord
280
     1
102
RTVSPropertyOp0
 70
     1
102
RTVSPropertyOp1
 70
     1
102
RTVSPropertyOp2
 70
     1
102
RTVSPropertyOp3
 70
     1
102
RTVSPropertyOp4
 70
     1
102
RTVSPropertyOp5
 70
     1
102
RTVSPropertyOp6
 70
     1
102
RTVSPropertyOp7
 70
     1
102
RTVSPropertyOp8
 70
     1
102
RTVSPropertyOp9
 70
     1
102
RTVSPropertyOp10
 70
     1
102
RTVSPropertyOp11
 70
     1
102
RTVSPropertyOp12
 70
     1
102
RTVSPropertyOp13
 70
     1
102
RTVSPropertyOp14
 70
     1
102
RTVSPropertyOp15
 70
     1
102
RTVSPropertyOp16
 70
     1
102
RTVSPropertyOp17
 70
     1
102
RTVSPropertyOp18
 70
     1
102
RTVSPropertyOp19
 70
     1
102
RTVSPropertyOp20
 70
     1
102
RTVSPropertyOp21
 70
     1
102
RTVSPropertyOp22
 70
     1
102
RTVSPropertyOp23
 70
     1
102
RTVSPropertyOp24
 70
     1
102
RTVSPropertyOp25
 70
     1
102
RTVSPropertyOp26
 70
     1
102
RTVSPropertyOp27
 70
     1
  0
XRECORD
  5
583
102
{ACAD_REACTORS
330
582
102
}
330
582
100
AcDbXrecord
280
     1
102
RTVSPropertyOp0
 70
     1
102
RTVSPropertyOp1
 70
     1
102
RTVSPropertyOp2
 70
     1
102
RTVSPropertyOp3
 70
     1
102
RTVSPropertyOp4
 70
     1
102
RTVSPropertyOp5
 70
     1
102
RTVSPropertyOp6
 70
     1
102
RTVSPropertyOp7
 70
     1
102
RTVSPropertyOp8
 70
     1
102
RTVSPropertyOp9
 70
     1
102
RTVSPropertyOp10
 70
     1
102
RTVSPropertyOp11
 70
     1
102
RTVSPropertyOp12
 70
     1
102
RTVSPropertyOp13
 70
     1
102
RTVSPropertyOp14
 70
     1
102
RTVSPropertyOp15
 70
     1
102
RTVSPropertyOp16
 70
     1
102
RTVSPropertyOp17
 70
     1
102
RTVSPropertyOp18
 70
     1
102
RTVSPropertyOp19
 70
     1
102
RTVSPropertyOp20
 70
     1
102
RTVSPropertyOp21
 70
     1
102
RTVSPropertyOp22
 70
     1
102
RTVSPropertyOp23
 70
     1
102
RTVSPropertyOp24
 70
     1
102
RTVSPropertyOp25
 70
     1
102
RTVSPropertyOp26
 70
     1
102
RTVSPropertyOp27
 70
     1
  0
XRECORD
  5
587
102
{ACAD_REACTORS
330
586
102
}
330
586
100
AcDbXrecord
280
     1
102
RTVSPropertyOp0
 70
     1
102
RTVSPropertyOp1
 70
     1
102
RTVSPropertyOp2
 70
     1
102
RTVSPropertyOp3
 70
     1
102
RTVSPropertyOp4
 70
     1
102
RTVSPropertyOp5
 70
     1
102
RTVSPropertyOp6
 70
     1
102
RTVSPropertyOp7
 70
     1
102
RTVSPropertyOp8
 70
     1
102
RTVSPropertyOp9
 70
     1
102
RTVSPropertyOp10
 70
     1
102
RTVSPropertyOp11
 70
     1
102
RTVSPropertyOp12
 70
     1
102
RTVSPropertyOp13
 70
     1
102
RTVSPropertyOp14
 70
     1
102
RTVSPropertyOp15
 70
     1
102
RTVSPropertyOp16
 70
     1
102
RTVSPropertyOp17
 70
     1
102
RTVSPropertyOp18
 70
     1
102
RTVSPropertyOp19
 70
     1
102
RTVSPropertyOp20
 70
     1
102
RTVSPropertyOp21
 70
     1
102
RTVSPropertyOp22
 70
     1
102
RTVSPropertyOp23
 70
     1
102
RTVSPropertyOp24
 70
     1
102
RTVSPropertyOp25
 70
     1
102
RTVSPropertyOp26
 70
     1
102
RTVSPropertyOp27
 70
     1
  0
XRECORD
  5
58F
102
{ACAD_REACTORS
330
58E
102
}
330
58E
100
AcDbXrecord
280
     1
102
RTVSPropertyOp0
 70
     1
102
RTVSPropertyOp1
 70
     1
102
RTVSPropertyOp2
 70
     1
102
RTVSPropertyOp3
 70
     1
102
RTVSPropertyOp4
 70
     1
102
RTVSPropertyOp5
 70
     1
102
RTVSPropertyOp6
 70
     1
102
RTVSPropertyOp7
 70
     1
102
RTVSPropertyOp8
 70
     1
102
RTVSPropertyOp9
 70
     1
102
RTVSPropertyOp10
 70
     1
102
RTVSPropertyOp11
 70
     1
102
RTVSPropertyOp12
 70
     1
102
RTVSPropertyOp13
 70
     1
102
RTVSPropertyOp14
 70
     1
102
RTVSPropertyOp15
 70
     1
102
RTVSPropertyOp16
 70
     1
102
RTVSPropertyOp17
 70
     1
102
RTVSPropertyOp18
 70
     1
102
RTVSPropertyOp19
 70
     1
102
RTVSPropertyOp20
 70
     1
102
RTVSPropertyOp21
 70
     1
102
RTVSPropertyOp22
 70
     1
102
RTVSPropertyOp23
 70
     1
102
RTVSPropertyOp24
 70
     1
102
RTVSPropertyOp25
 70
     1
102
RTVSPropertyOp26
 70
     1
102
RTVSPropertyOp27
 70
     1
  0
XRECORD
  5
597
102
{ACAD_REACTORS
330
596
102
}
330
596
100
AcDbXrecord
280
     1
102
RTVSPropertyOp0
 70
     1
102
RTVSPropertyOp1
 70
     1
102
RTVSPropertyOp2
 70
     1
102
RTVSPropertyOp3
 70
     1
102
RTVSPropertyOp4
 70
     1
102
RTVSPropertyOp5
 70
     1
102
RTVSPropertyOp6
 70
     1
102
RTVSPropertyOp7
 70
     1
102
RTVSPropertyOp8
 70
     1
102
RTVSPropertyOp9
 70
     1
102
RTVSPropertyOp10
 70
     1
102
RTVSPropertyOp11
 70
     1
102
RTVSPropertyOp12
 70
     1
102
RTVSPropertyOp13
 70
     1
102
RTVSPropertyOp14
 70
     1
102
RTVSPropertyOp15
 70
     1
102
RTVSPropertyOp16
 70
     1
102
RTVSPropertyOp17
 70
     1
102
RTVSPropertyOp18
 70
     1
102
RTVSPropertyOp19
 70
     1
102
RTVSPropertyOp20
 70
     1
102
RTVSPropertyOp21
 70
     1
102
RTVSPropertyOp22
 70
     1
102
RTVSPropertyOp23
 70
     1
102
RTVSPropertyOp24
 70
     1
102
RTVSPropertyOp25
 70
     1
102
RTVSPropertyOp26
 70
     1
102
RTVSPropertyOp27
 70
     1
  0
XRECORD
  5
58B
102
{ACAD_REACTORS
330
58A
102
}
330
58A
100
AcDbXrecord
280
     1
102
RTVSPropertyOp0
 70
     1
102
RTVSPropertyOp1
 70
     1
102
RTVSPropertyOp2
 70
     1
102
RTVSPropertyOp3
 70
     1
102
RTVSPropertyOp4
 70
     1
102
RTVSPropertyOp5
 70
     1
102
RTVSPropertyOp6
 70
     1
102
RTVSPropertyOp7
 70
     1
102
RTVSPropertyOp8
 70
     1
102
RTVSPropertyOp9
 70
     1
102
RTVSPropertyOp10
 70
     1
102
RTVSPropertyOp11
 70
     1
102
RTVSPropertyOp12
 70
     1
102
RTVSPropertyOp13
 70
     1
102
RTVSPropertyOp14
 70
     1
102
RTVSPropertyOp15
 70
     1
102
RTVSPropertyOp16
 70
     1
102
RTVSPropertyOp17
 70
     1
102
RTVSPropertyOp18
 70
     1
102
RTVSPropertyOp19
 70
     1
102
RTVSPropertyOp20
 70
     1
102
RTVSPropertyOp21
 70
     1
102
RTVSPropertyOp22
 70
     1
102
RTVSPropertyOp23
 70
     1
102
RTVSPropertyOp24
 70
     1
102
RTVSPropertyOp25
 70
     1
102
RTVSPropertyOp26
 70
     1
102
RTVSPropertyOp27
 70
     1
  0
XRECORD
  5
58D
102
{ACAD_REACTORS
330
58C
102
}
330
58C
100
AcDbXrecord
280
     1
102
RTVSPropertyOp0
 70
     1
102
RTVSPropertyOp1
 70
     1
102
RTVSPropertyOp2
 70
     1
102
RTVSPropertyOp3
 70
     1
102
RTVSPropertyOp4
 70
     1
102
RTVSPropertyOp5
 70
     1
102
RTVSPropertyOp6
 70
     1
102
RTVSPropertyOp7
 70
     1
102
RTVSPropertyOp8
 70
     1
102
RTVSPropertyOp9
 70
     1
102
RTVSPropertyOp10
 70
     1
102
RTVSPropertyOp11
 70
     1
102
RTVSPropertyOp12
 70
     1
102
RTVSPropertyOp13
 70
     1
102
RTVSPropertyOp14
 70
     1
102
RTVSPropertyOp15
 70
     1
102
RTVSPropertyOp16
 70
     1
102
RTVSPropertyOp17
 70
     1
102
RTVSPropertyOp18
 70
     1
102
RTVSPropertyOp19
 70
     1
102
RTVSPropertyOp20
 70
     1
102
RTVSPropertyOp21
 70
     1
102
RTVSPropertyOp22
 70
     1
102
RTVSPropertyOp23
 70
     1
102
RTVSPropertyOp24
 70
     1
102
RTVSPropertyOp25
 70
     1
102
RTVSPropertyOp26
 70
     1
102
RTVSPropertyOp27
 70
     1
  0
XRECORD
  5
595
102
{ACAD_REACTORS
330
594
102
}
330
594
100
AcDbXrecord
280
     1
102
RTVSPropertyOp0
 70
     1
102
RTVSPropertyOp1
 70
     1
102
RTVSPropertyOp2
 70
     1
102
RTVSPropertyOp3
 70
     1
102
RTVSPropertyOp4
 70
     1
102
RTVSPropertyOp5
 70
     1
102
RTVSPropertyOp6
 70
     1
102
RTVSPropertyOp7
 70
     1
102
RTVSPropertyOp8
 70
     1
102
RTVSPropertyOp9
 70
     1
102
RTVSPropertyOp10
 70
     1
102
RTVSPropertyOp11
 70
     1
102
RTVSPropertyOp12
 70
     1
102
RTVSPropertyOp13
 70
     1
102
RTVSPropertyOp14
 70
     1
102
RTVSPropertyOp15
 70
     1
102
RTVSPropertyOp16
 70
     1
102
RTVSPropertyOp17
 70
     1
102
RTVSPropertyOp18
 70
     1
102
RTVSPropertyOp19
 70
     1
102
RTVSPropertyOp20
 70
     1
102
RTVSPropertyOp21
 70
     1
102
RTVSPropertyOp22
 70
     1
102
RTVSPropertyOp23
 70
     1
102
RTVSPropertyOp24
 70
     1
102
RTVSPropertyOp25
 70
     1
102
RTVSPropertyOp26
 70
     1
102
RTVSPropertyOp27
 70
     1
  0
XRECORD
  5
579
102
{ACAD_REACTORS
330
578
102
}
330
578
100
AcDbXrecord
280
     1
102
RTVSPropertyOp0
 70
     1
102
RTVSPropertyOp1
 70
     1
102
RTVSPropertyOp2
 70
     1
102
RTVSPropertyOp3
 70
     1
102
RTVSPropertyOp4
 70
     1
102
RTVSPropertyOp5
 70
     1
102
RTVSPropertyOp6
 70
     1
102
RTVSPropertyOp7
 70
     1
102
RTVSPropertyOp8
 70
     1
102
RTVSPropertyOp9
 70
     1
102
RTVSPropertyOp10
 70
     1
102
RTVSPropertyOp11
 70
     1
102
RTVSPropertyOp12
 70
     1
102
RTVSPropertyOp13
 70
     1
102
RTVSPropertyOp14
 70
     1
102
RTVSPropertyOp15
 70
     1
102
RTVSPropertyOp16
 70
     1
102
RTVSPropertyOp17
 70
     1
102
RTVSPropertyOp18
 70
     1
102
RTVSPropertyOp19
 70
     1
102
RTVSPropertyOp20
 70
     1
102
RTVSPropertyOp21
 70
     1
102
RTVSPropertyOp22
 70
     1
102
RTVSPropertyOp23
 70
     1
102
RTVSPropertyOp24
 70
     1
102
RTVSPropertyOp25
 70
     1
102
RTVSPropertyOp26
 70
     1
102
RTVSPropertyOp27
 70
     1
  0
XRECORD
  5
57B
102
{ACAD_REACTORS
330
57A
102
}
330
57A
100
AcDbXrecord
280
     1
102
RTVSPropertyOp0
 70
     1
102
RTVSPropertyOp1
 70
     1
102
RTVSPropertyOp2
 70
     1
102
RTVSPropertyOp3
 70
     1
102
RTVSPropertyOp4
 70
     1
102
RTVSPropertyOp5
 70
     1
102
RTVSPropertyOp6
 70
     1
102
RTVSPropertyOp7
 70
     1
102
RTVSPropertyOp8
 70
     1
102
RTVSPropertyOp9
 70
     1
102
RTVSPropertyOp10
 70
     1
102
RTVSPropertyOp11
 70
     1
102
RTVSPropertyOp12
 70
     1
102
RTVSPropertyOp13
 70
     1
102
RTVSPropertyOp14
 70
     1
102
RTVSPropertyOp15
 70
     1
102
RTVSPropertyOp16
 70
     1
102
RTVSPropertyOp17
 70
     1
102
RTVSPropertyOp18
 70
     1
102
RTVSPropertyOp19
 70
     1
102
RTVSPropertyOp20
 70
     1
102
RTVSPropertyOp21
 70
     1
102
RTVSPropertyOp22
 70
     1
102
RTVSPropertyOp23
 70
     1
102
RTVSPropertyOp24
 70
     1
102
RTVSPropertyOp25
 70
     1
102
RTVSPropertyOp26
 70
     1
102
RTVSPropertyOp27
 70
     1
  0
XRECORD
  5
57D
102
{ACAD_REACTORS
330
57C
102
}
330
57C
100
AcDbXrecord
280
     1
102
RTVSPropertyOp0
 70
     1
102
RTVSPropertyOp1
 70
     1
102
RTVSPropertyOp2
 70
     1
102
RTVSPropertyOp3
 70
     1
102
RTVSPropertyOp4
 70
     1
102
RTVSPropertyOp5
 70
     1
102
RTVSPropertyOp6
 70
     1
102
RTVSPropertyOp7
 70
     1
102
RTVSPropertyOp8
 70
     1
102
RTVSPropertyOp9
 70
     1
102
RTVSPropertyOp10
 70
     1
102
RTVSPropertyOp11
 70
     1
102
RTVSPropertyOp12
 70
     1
102
RTVSPropertyOp13
 70
     1
102
RTVSPropertyOp14
 70
     1
102
RTVSPropertyOp15
 70
     1
102
RTVSPropertyOp16
 70
     1
102
RTVSPropertyOp17
 70
     1
102
RTVSPropertyOp18
 70
     1
102
RTVSPropertyOp19
 70
     1
102
RTVSPropertyOp20
 70
     1
102
RTVSPropertyOp21
 70
     1
102
RTVSPropertyOp22
 70
     1
102
RTVSPropertyOp23
 70
     1
102
RTVSPropertyOp24
 70
     1
102
RTVSPropertyOp25
 70
     1
102
RTVSPropertyOp26
 70
     1
102
RTVSPropertyOp27
 70
     1
  0
XRECORD
  5
57F
102
{ACAD_REACTORS
330
57E
102
}
330
57E
100
AcDbXrecord
280
     1
102
RTVSPropertyOp0
 70
     1
102
RTVSPropertyOp1
 70
     1
102
RTVSPropertyOp2
 70
     1
102
RTVSPropertyOp3
 70
     1
102
RTVSPropertyOp4
 70
     1
102
RTVSPropertyOp5
 70
     1
102
RTVSPropertyOp6
 70
     1
102
RTVSPropertyOp7
 70
     1
102
RTVSPropertyOp8
 70
     1
102
RTVSPropertyOp9
 70
     1
102
RTVSPropertyOp10
 70
     1
102
RTVSPropertyOp11
 70
     1
102
RTVSPropertyOp12
 70
     1
102
RTVSPropertyOp13
 70
     1
102
RTVSPropertyOp14
 70
     1
102
RTVSPropertyOp15
 70
     1
102
RTVSPropertyOp16
 70
     1
102
RTVSPropertyOp17
 70
     1
102
RTVSPropertyOp18
 70
     1
102
RTVSPropertyOp19
 70
     1
102
RTVSPropertyOp20
 70
     1
102
RTVSPropertyOp21
 70
     1
102
RTVSPropertyOp22
 70
     1
102
RTVSPropertyOp23
 70
     1
102
RTVSPropertyOp24
 70
     1
102
RTVSPropertyOp25
 70
     1
102
RTVSPropertyOp26
 70
     1
102
RTVSPropertyOp27
 70
     1
  0
XRECORD
  5
593
102
{ACAD_REACTORS
330
592
102
}
330
592
100
AcDbXrecord
280
     1
102
RTVSPropertyOp0
 70
     1
102
RTVSPropertyOp1
 70
     1
102
RTVSPropertyOp2
 70
     1
102
RTVSPropertyOp3
 70
     1
102
RTVSPropertyOp4
 70
     1
102
RTVSPropertyOp5
 70
     1
102
RTVSPropertyOp6
 70
     1
102
RTVSPropertyOp7
 70
     1
102
RTVSPropertyOp8
 70
     1
102
RTVSPropertyOp9
 70
     1
102
RTVSPropertyOp10
 70
     1
102
RTVSPropertyOp11
 70
     1
102
RTVSPropertyOp12
 70
     1
102
RTVSPropertyOp13
 70
     1
102
RTVSPropertyOp14
 70
     1
102
RTVSPropertyOp15
 70
     1
102
RTVSPropertyOp16
 70
     1
102
RTVSPropertyOp17
 70
     1
102
RTVSPropertyOp18
 70
     1
102
RTVSPropertyOp19
 70
     1
102
RTVSPropertyOp20
 70
     1
102
RTVSPropertyOp21
 70
     1
102
RTVSPropertyOp22
 70
     1
102
RTVSPropertyOp23
 70
     1
102
RTVSPropertyOp24
 70
     1
102
RTVSPropertyOp25
 70
     1
102
RTVSPropertyOp26
 70
     1
102
RTVSPropertyOp27
 70
     1
  0
XRECORD
  5
589
102
{ACAD_REACTORS
330
588
102
}
330
588
100
AcDbXrecord
280
     1
102
RTVSPropertyOp0
 70
     1
102
RTVSPropertyOp1
 70
     1
102
RTVSPropertyOp2
 70
     1
102
RTVSPropertyOp3
 70
     1
102
RTVSPropertyOp4
 70
     1
102
RTVSPropertyOp5
 70
     1
102
RTVSPropertyOp6
 70
     1
102
RTVSPropertyOp7
 70
     1
102
RTVSPropertyOp8
 70
     1
102
RTVSPropertyOp9
 70
     1
102
RTVSPropertyOp10
 70
     1
102
RTVSPropertyOp11
 70
     1
102
RTVSPropertyOp12
 70
     1
102
RTVSPropertyOp13
 70
     1
102
RTVSPropertyOp14
 70
     1
102
RTVSPropertyOp15
 70
     1
102
RTVSPropertyOp16
 70
     1
102
RTVSPropertyOp17
 70
     1
102
RTVSPropertyOp18
 70
     1
102
RTVSPropertyOp19
 70
     1
102
RTVSPropertyOp20
 70
     1
102
RTVSPropertyOp21
 70
     1
102
RTVSPropertyOp22
 70
     1
102
RTVSPropertyOp23
 70
     1
102
RTVSPropertyOp24
 70
     1
102
RTVSPropertyOp25
 70
     1
102
RTVSPropertyOp26
 70
     1
102
RTVSPropertyOp27
 70
     1
  0
XRECORD
  5
591
102
{ACAD_REACTORS
330
590
102
}
330
590
100
AcDbXrecord
280
     1
102
RTVSPropertyOp0
 70
     1
102
RTVSPropertyOp1
 70
     1
102
RTVSPropertyOp2
 70
     1
102
RTVSPropertyOp3
 70
     1
102
RTVSPropertyOp4
 70
     1
102
RTVSPropertyOp5
 70
     1
102
RTVSPropertyOp6
 70
     1
102
RTVSPropertyOp7
 70
     1
102
RTVSPropertyOp8
 70
     1
102
RTVSPropertyOp9
 70
     1
102
RTVSPropertyOp10
 70
     1
102
RTVSPropertyOp11
 70
     1
102
RTVSPropertyOp12
 70
     1
102
RTVSPropertyOp13
 70
     1
102
RTVSPropertyOp14
 70
     1
102
RTVSPropertyOp15
 70
     1
102
RTVSPropertyOp16
 70
     1
102
RTVSPropertyOp17
 70
     1
102
RTVSPropertyOp18
 70
     1
102
RTVSPropertyOp19
 70
     1
102
RTVSPropertyOp20
 70
     1
102
RTVSPropertyOp21
 70
     1
102
RTVSPropertyOp22
 70
     1
102
RTVSPropertyOp23
 70
     1
102
RTVSPropertyOp24
 70
     1
102
RTVSPropertyOp25
 70
     1
102
RTVSPropertyOp26
 70
     1
102
RTVSPropertyOp27
 70
     1
  0
ENDSEC
  0
EOF
