  0
SECTION
  2
HEADER
  9
$ACADVER
  1
AC1015
  9
$ACADMAINTVER
 70
     6
  9
$DWGCODEPAGE
  3
ANSI_1252
  9
$INSBASE
 10
0.0
 20
0.0
 30
0.0
  9
$EXTMIN
 10
0.0
 20
0.0
 30
0.0
  9
$EXTMAX
 10
34.0
 20
22.0
 30
0.0
  9
$LIMMIN
 10
0.0
 20
0.0
  9
$LIMMAX
 10
34.0
 20
22.0
  9
$ORTHOMODE
 70
     0
  9
$REGENMODE
 70
     1
  9
$FILLMODE
 70
     1
  9
$QTEXTMODE
 70
     0
  9
$MIRRTEXT
 70
     1
  9
$LTSCALE
 40
2.0
  9
$ATTMODE
 70
     1
  9
$TEXTSIZE
 40
0.25
  9
$TRACEWID
 40
0.05
  9
$TEXTSTYLE
  7
Standard
  9
$CLAYER
  8
0
  9
$CELTYPE
  6
ByLayer
  9
$CECOLOR
 62
   256
  9
$CELTSCALE
 40
1.0
  9
$DISPSILH
 70
     0
  9
$DIMSCALE
 40
1.0
  9
$DIMASZ
 40
0.26
  9
$DIMEXO
 40
0.1
  9
$DIMDLI
 40
0.38
  9
$DIMRND
 40
0.0
  9
$DIMDLE
 40
0.0
  9
$DIMEXE
 40
0.25
  9
$DIMTP
 40
0.0
  9
$DIMTM
 40
0.0
  9
$DIMTXT
 40
0.25
  9
$DIMCEN
 40
0.09
  9
$DIMTSZ
 40
0.0
  9
$DIMTOL
 70
     0
  9
$DIMLIM
 70
     0
  9
$DIMTIH
 70
     1
  9
$DIMTOH
 70
     1
  9
$DIMSE1
 70
     0
  9
$DIMSE2
 70
     0
  9
$DIMTAD
 70
     1
  9
$DIMZIN
 70
     0
  9
$DIMBLK
  1

  9
$DIMASO
 70
     1
  9
$DIMSHO
 70
     1
  9
$DIMPOST
  1

  9
$DIMAPOST
  1

  9
$DIMALT
 70
     0
  9
$DIMALTD
 70
     2
  9
$DIMALTF
 40
25.4
  9
$DIMLFAC
 40
1.0
  9
$DIMTOFL
 70
     0
  9
$DIMTVP
 40
0.0
  9
$DIMTIX
 70
     0
  9
$DIMSOXD
 70
     0
  9
$DIMSAH
 70
     0
  9
$DIMBLK1
  1

  9
$DIMBLK2
  1

  9
$DIMSTYLE
  2
Standard
  9
$DIMCLRD
 70
     0
  9
$DIMCLRE
 70
     0
  9
$DIMCLRT
 70
     0
  9
$DIMTFAC
 40
1.0
  9
$DIMGAP
 40
0.12
  9
$DIMJUST
 70
     0
  9
$DIMSD1
 70
     0
  9
$DIMSD2
 70
     0
  9
$DIMTOLJ
 70
     1
  9
$DIMTZIN
 70
     0
  9
$DIMALTZ
 70
     0
  9
$DIMALTTZ
 70
     0
  9
$DIMUPT
 70
     0
  9
$DIMDEC
 70
     2
  9
$DIMTDEC
 70
     2
  9
$DIMALTU
 70
     2
  9
$DIMALTTD
 70
     2
  9
$DIMTXSTY
  7
Standard
  9
$DIMAUNIT
 70
     0
  9
$DIMADEC
 70
     2
  9
$DIMALTRND
 40
0.0
  9
$DIMAZIN
 70
     0
  9
$DIMDSEP
 70
    46
  9
$DIMATFIT
 70
     3
  9
$DIMFRAC
 70
     0
  9
$DIMLDRBLK
  1

  9
$DIMLUNIT
 70
     2
  9
$DIMLWD
 70
    -2
  9
$DIMLWE
 70
    -2
  9
$DIMTMOVE
 70
     0
  9
$LUNITS
 70
     2
  9
$LUPREC
 70
     2
  9
$SKETCHINC
 40
0.1
  9
$FILLETRAD
 40
0.5
  9
$AUNITS
 70
     0
  9
$AUPREC
 70
     2
  9
$MENU
  1
.
  9
$ELEVATION
 40
0.0
  9
$PELEVATION
 40
0.0
  9
$THICKNESS
 40
0.0
  9
$LIMCHECK
 70
     0
  9
$CHAMFERA
 40
0.5
  9
$CHAMFERB
 40
0.5
  9
$CHAMFERC
 40
1.0
  9
$CHAMFERD
 40
0.0
  9
$SKPOLY
 70
     0
  9
$TDCREATE
 40
2455761.383467373
  9
$TDUCREATE
 40
2455761.550134039
  9
$TDUPDATE
 40
2455761.383467384
  9
$TDUUPDATE
 40
2455761.550134051
  9
$TDINDWG
 40
0.0000000116
  9
$TDUSRTIMER
 40
0.0000000116
  9
$USRTIMER
 70
     1
  9
$ANGBASE
 50
0.0
  9
$ANGDIR
 70
     0
  9
$PDMODE
 70
     0
  9
$PDSIZE
 40
-1.0
  9
$PLINEWID
 40
0.0
  9
$SPLFRAME
 70
     0
  9
$SPLINETYPE
 70
     6
  9
$SPLINESEGS
 70
     8
  9
$HANDSEED
  5
385
  9
$SURFTAB1
 70
     6
  9
$SURFTAB2
 70
     6
  9
$SURFTYPE
 70
     6
  9
$SURFU
 70
     6
  9
$SURFV
 70
     6
  9
$UCSBASE
  2

  9
$UCSNAME
  2

  9
$UCSORG
 10
0.0
 20
0.0
 30
0.0
  9
$UCSXDIR
 10
1.0
 20
0.0
 30
0.0
  9
$UCSYDIR
 10
0.0
 20
1.0
 30
0.0
  9
$UCSORTHOREF
  2

  9
$UCSORTHOVIEW
 70
     0
  9
$UCSORGTOP
 10
0.0
 20
0.0
 30
0.0
  9
$UCSORGBOTTOM
 10
0.0
 20
0.0
 30
0.0
  9
$UCSORGLEFT
 10
0.0
 20
0.0
 30
0.0
  9
$UCSORGRIGHT
 10
0.0
 20
0.0
 30
0.0
  9
$UCSORGFRONT
 10
0.0
 20
0.0
 30
0.0
  9
$UCSORGBACK
 10
0.0
 20
0.0
 30
0.0
  9
$PUCSBASE
  2

  9
$PUCSNAME
  2

  9
$PUCSORG
 10
0.0
 20
0.0
 30
0.0
  9
$PUCSXDIR
 10
1.0
 20
0.0
 30
0.0
  9
$PUCSYDIR
 10
0.0
 20
1.0
 30
0.0
  9
$PUCSORTHOREF
  2

  9
$PUCSORTHOVIEW
 70
     0
  9
$PUCSORGTOP
 10
0.0
 20
0.0
 30
0.0
  9
$PUCSORGBOTTOM
 10
0.0
 20
0.0
 30
0.0
  9
$PUCSORGLEFT
 10
0.0
 20
0.0
 30
0.0
  9
$PUCSORGRIGHT
 10
0.0
 20
0.0
 30
0.0
  9
$PUCSORGFRONT
 10
0.0
 20
0.0
 30
0.0
  9
$PUCSORGBACK
 10
0.0
 20
0.0
 30
0.0
  9
$USERI1
 70
     0
  9
$USERI2
 70
     0
  9
$USERI3
 70
     0
  9
$USERI4
 70
     0
  9
$USERI5
 70
     0
  9
$USERR1
 40
0.0
  9
$USERR2
 40
0.0
  9
$USERR3
 40
0.0
  9
$USERR4
 40
0.0
  9
$USERR5
 40
0.0
  9
$WORLDVIEW
 70
     1
  9
$SHADEDGE
 70
     3
  9
$SHADEDIF
 70
    70
  9
$TILEMODE
 70
     1
  9
$MAXACTVP
 70
    64
  9
$PINSBASE
 10
0.0
 20
0.0
 30
0.0
  9
$PLIMCHECK
 70
     0
  9
$PEXTMIN
 10
1.0000000000E+20
 20
1.0000000000E+20
 30
1.0000000000E+20
  9
$PEXTMAX
 10
-1.0000000000E+20
 20
-1.0000000000E+20
 30
-1.0000000000E+20
  9
$PLIMMIN
 10
0.0
 20
0.0
  9
$PLIMMAX
 10
12.0
 20
9.0
  9
$UNITMODE
 70
     0
  9
$VISRETAIN
 70
     1
  9
$PLINEGEN
 70
     0
  9
$PSLTSCALE
 70
     1
  9
$TREEDEPTH
 70
  3020
  9
$CMLSTYLE
  2
Standard
  9
$CMLJUST
 70
     0
  9
$CMLSCALE
 40
1.0
  9
$PROXYGRAPHICS
 70
     1
  9
$MEASUREMENT
 70
     0
  9
$CELWEIGHT
370
    -1
  9
$ENDCAPS
280
     0
  9
$JOINSTYLE
280
     0
  9
$LWDISPLAY
290
     1
  9
$INSUNITS
 70
     1
  9
$HYPERLINKBASE
  1

  9
$STYLESHEET
  1

  9
$XEDIT
290
     1
  9
$CEPSNTYPE
380
     0
  9
$PSTYLEMODE
290
     1
  9
$FINGERPRINTGUID
  2
{BB39E3C1-AD31-4C8F-ADA2-664F0287E305}
  9
$VERSIONGUID
  2
{FAEB1C32-E019-11D5-929B-00C0DF256EC4}
  9
$EXTNAMES
290
     1
  9
$PSVPSCALE
 40
0.0
  9
$OLESTARTUP
290
     0
  0
ENDSEC
  0
SECTION
  2
CLASSES
  0
CLASS
  1
ACDBDICTIONARYWDFLT
  2
AcDbDictionaryWithDefault
  3
ObjectDBX Classes
 90
        0
280
     0
281
     0
  0
CLASS
  1
VISUALSTYLE
  2
AcDbVisualStyle
  3
ObjectDBX Classes
 90
     4095
280
     0
281
     0
  0
CLASS
  1
MATERIAL
  2
AcDbMaterial
  3
ObjectDBX Classes
 90
     1153
280
     0
281
     0
  0
CLASS
  1
SCALE
  2
AcDbScale
  3
ObjectDBX Classes
 90
     1153
280
     0
281
     0
  0
CLASS
  1
DICTIONARYVAR
  2
AcDbDictionaryVar
  3
ObjectDBX Classes
 90
        0
280
     0
281
     0
  0
CLASS
  1
ACDBPLACEHOLDER
  2
AcDbPlaceHolder
  3
ObjectDBX Classes
 90
        0
280
     0
281
     0
  0
CLASS
  1
LAYOUT
  2
AcDbLayout
  3
ObjectDBX Classes
 90
        0
280
     0
281
     0
  0
ENDSEC
  0
SECTION
  2
TABLES
  0
TABLE
  2
VPORT
  5
8
330
0
100
AcDbSymbolTable
 70
     1
  0
VPORT
  5
29
330
8
100
AcDbSymbolTableRecord
100
AcDbViewportTableRecord
  2
*Active
 70
     0
 10
0.0
 20
0.0
 11
1.0
 21
1.0
 12
17.0
 22
11.0
 13
0.0
 23
0.0
 14
0.5
 24
0.5
 15
0.5
 25
0.5
 16
0.0
 26
0.0
 36
1.0
 17
0.0
 27
0.0
 37
0.0
 40
22.0
 41
1.5454545455
 42
50.0
 43
0.0
 44
0.0
 50
0.0
 51
0.0
 71
     0
 72
  2000
 73
     1
 74
     3
 75
     0
 76
     0
 77
     0
 78
     0
281
     0
 65
     1
110
0.0
120
0.0
130
0.0
111
1.0
121
0.0
131
0.0
112
0.0
122
1.0
132
0.0
 79
     0
146
0.0
  0
ENDTAB
  0
TABLE
  2
LTYPE
  5
5
330
0
100
AcDbSymbolTable
 70
     6
  0
LTYPE
  5
14
330
5
100
AcDbSymbolTableRecord
100
AcDbLinetypeTableRecord
  2
ByBlock
 70
     0
  3

 72
    65
 73
     0
 40
0.0
  0
LTYPE
  5
15
330
5
100
AcDbSymbolTableRecord
100
AcDbLinetypeTableRecord
  2
ByLayer
 70
     0
  3

 72
    65
 73
     0
 40
0.0
  0
LTYPE
  5
16
330
5
100
AcDbSymbolTableRecord
100
AcDbLinetypeTableRecord
  2
Continuous
 70
     0
  3
Solid line
 72
    65
 73
     0
 40
0.0
  0
LTYPE
  5
3F
330
5
100
AcDbSymbolTableRecord
100
AcDbLinetypeTableRecord
  2
HIDDEN
 70
     0
  3
Hidden __ __ __ __ __ __ __ __ __ __ __ __ __ __
 72
    65
 73
     2
 40
0.075
 49
0.05
 74
     0
 49
-0.025
 74
     0
  0
LTYPE
  5
40
330
5
100
AcDbSymbolTableRecord
100
AcDbLinetypeTableRecord
  2
PHANTOM
 70
     0
  3
Phantom ______  __  __  ______  __  __  ______
 72
    65
 73
     6
 40
0.5
 49
0.25
 74
     0
 49
-0.05
 74
     0
 49
0.05
 74
     0
 49
-0.05
 74
     0
 49
0.05
 74
     0
 49
-0.05
 74
     0
  0
LTYPE
  5
41
330
5
100
AcDbSymbolTableRecord
100
AcDbLinetypeTableRecord
  2
CENTER
 70
     0
  3
Center ____ _ ____ _ ____ _ ____ _ ____ _ ____
 72
    65
 73
     4
 40
0.4
 49
0.25
 74
     0
 49
-0.05
 74
     0
 49
0.05
 74
     0
 49
-0.05
 74
     0
  0
LTYPE
  5
42
330
5
100
AcDbSymbolTableRecord
100
AcDbLinetypeTableRecord
  2
CENTERX2
 70
     0
  3
Center (2x) ________  __  ________  __  _____
 72
    65
 73
     4
 40
0.8
 49
0.5
 74
     0
 49
-0.1
 74
     0
 49
0.1
 74
     0
 49
-0.1
 74
     0
  0
LTYPE
  5
43
330
5
100
AcDbSymbolTableRecord
100
AcDbLinetypeTableRecord
  2
DOT2
 70
     0
  3
Dot (.5x) ........................................
 72
    65
 73
     2
 40
0.025
 49
0.0
 74
     0
 49
-0.025
 74
     0
  0
ENDTAB
  0
TABLE
  2
LAYER
  5
2
330
0
100
AcDbSymbolTable
 70
     1
  0
LAYER
  5
10
330
2
100
AcDbSymbolTableRecord
100
AcDbLayerTableRecord
  2
0
 70
     0
 62
     7
  6
Continuous
370
    -3
390
F
  0
ENDTAB
  0
TABLE
  2
STYLE
  5
3
330
0
100
AcDbSymbolTable
 70
     2
  0
STYLE
  5
11
330
3
100
AcDbSymbolTableRecord
100
AcDbTextStyleTableRecord
  2
Standard
 70
     0
 40
0.0
 41
1.0
 50
0.0
 71
     0
 42
0.2
  3
txt
  4

  0
STYLE
  5
57
330
3
100
AcDbSymbolTableRecord
100
AcDbTextStyleTableRecord
  2
SLDTEXTSTYLE0
 70
     0
 40
0.0
 41
0.75
 50
0.0
 71
     0
 42
0.2
  3
TXT
  4

  0
ENDTAB
  0
TABLE
  2
VIEW
  5
6
330
0
100
AcDbSymbolTable
 70
     0
  0
ENDTAB
  0
TABLE
  2
UCS
  5
7
330
0
100
AcDbSymbolTable
 70
     0
  0
ENDTAB
  0
TABLE
  2
APPID
  5
9
330
0
100
AcDbSymbolTable
 70
     1
  0
APPID
  5
12
330
9
100
AcDbSymbolTableRecord
100
AcDbRegAppTableRecord
  2
ACAD
 70
     0
  0
ENDTAB
  0
TABLE
  2
DIMSTYLE
  5
A
330
0
100
AcDbSymbolTable
 70
     5
100
AcDbDimStyleTable
  0
DIMSTYLE
105
27
330
A
100
AcDbSymbolTableRecord
100
AcDbDimStyleTableRecord
  2
Standard
 70
     0
340
11
  0
DIMSTYLE
105
B7
102
{ACAD_REACTORS
330
B6
330
C9
330
130
330
227
330
239
330
25C
102
}
330
A
100
AcDbSymbolTableRecord
100
AcDbDimStyleTableRecord
  2
SLDDIMSTYLE0
 70
     0
 41
0.26
 44
0.0
 45
0.000000001
 78
     4
140
0.25
147
0.0625
148
0.000000001
170
     1
173
     1
271
     2
272
     2
284
    12
340
57
  0
DIMSTYLE
105
E4
330
A
100
AcDbSymbolTableRecord
100
AcDbDimStyleTableRecord
  2
SLDDIMSTYLE1
 70
     0
 41
0.26
 44
0.0
 45
0.000000001
140
0.0
146
0.26
147
0.0
173
     1
271
     0
272
     0
340
11
  0
DIMSTYLE
105
24C
102
{ACAD_REACTORS
330
24B
102
}
330
A
100
AcDbSymbolTableRecord
100
AcDbDimStyleTableRecord
  2
SLDDIMSTYLE2
 70
     0
 41
0.26
 44
0.0
 45
0.000000001
 78
    12
140
0.25
147
0.0625
148
0.000000001
170
     1
172
     1
173
     1
271
     3
272
     3
284
    12
340
57
  0
DIMSTYLE
105
341
102
{ACAD_REACTORS
330
340
102
}
330
A
100
AcDbSymbolTableRecord
100
AcDbDimStyleTableRecord
  2
SLDDIMSTYLE3
 70
     0
 41
0.26
 44
0.0
 45
0.000000001
 78
     4
140
0.25
147
0.0625
148
0.000000001
170
     1
173
     1
271
     2
272
     2
284
    12
340
57
  0
ENDTAB
  0
TABLE
  2
BLOCK_RECORD
  5
1
330
0
100
AcDbSymbolTable
 70
    15
  0
BLOCK_RECORD
  5
1F
330
1
100
AcDbSymbolTableRecord
100
AcDbBlockTableRecord
  2
*Model_Space
340
22
  0
BLOCK_RECORD
  5
1B
330
1
100
AcDbSymbolTableRecord
100
AcDbBlockTableRecord
  2
*Paper_Space
340
1E
  0
BLOCK_RECORD
  5
23
330
1
100
AcDbSymbolTableRecord
100
AcDbBlockTableRecord
  2
*Paper_Space0
340
26
  0
BLOCK_RECORD
  5
54
330
1
100
AcDbSymbolTableRecord
100
AcDbBlockTableRecord
  2
SW_NOTE_0
340
0
102
{BLKREFS
331
7C
102
}
  0
BLOCK_RECORD
  5
80
330
1
100
AcDbSymbolTableRecord
100
AcDbBlockTableRecord
  2
SW_NOTE_1
340
0
102
{BLKREFS
331
85
102
}
  0
BLOCK_RECORD
  5
86
330
1
100
AcDbSymbolTableRecord
100
AcDbBlockTableRecord
  2
SW_NOTE_2
340
0
102
{BLKREFS
331
8B
102
}
  0
BLOCK_RECORD
  5
8C
330
1
100
AcDbSymbolTableRecord
100
AcDbBlockTableRecord
  2
SW_NOTE_3
340
0
102
{BLKREFS
331
91
102
}
  0
BLOCK_RECORD
  5
B8
330
1
100
AcDbSymbolTableRecord
100
AcDbBlockTableRecord
  2
*D5
340
0
  0
BLOCK_RECORD
  5
CA
330
1
100
AcDbSymbolTableRecord
100
AcDbBlockTableRecord
  2
*D6
340
0
  0
BLOCK_RECORD
  5
DB
330
1
100
AcDbSymbolTableRecord
100
AcDbBlockTableRecord
  2
SW_NOTE_4
340
0
102
{BLKREFS
331
E3
102
}
  0
BLOCK_RECORD
  5
131
330
1
100
AcDbSymbolTableRecord
100
AcDbBlockTableRecord
  2
*D8
340
0
  0
BLOCK_RECORD
  5
228
330
1
100
AcDbSymbolTableRecord
100
AcDbBlockTableRecord
  2
*D9
340
0
  0
BLOCK_RECORD
  5
23A
330
1
100
AcDbSymbolTableRecord
100
AcDbBlockTableRecord
  2
*D10
340
0
  0
BLOCK_RECORD
  5
24D
330
1
100
AcDbSymbolTableRecord
100
AcDbBlockTableRecord
  2
*D11
340
0
  0
BLOCK_RECORD
  5
25D
330
1
100
AcDbSymbolTableRecord
100
AcDbBlockTableRecord
  2
*D12
340
0
  0
BLOCK_RECORD
  5
342
330
1
100
AcDbSymbolTableRecord
100
AcDbBlockTableRecord
  2
*D13
340
0
  0
BLOCK_RECORD
  5
351
330
1
100
AcDbSymbolTableRecord
100
AcDbBlockTableRecord
  2
SW_NOTE_5
340
0
102
{BLKREFS
331
356
102
}
  0
ENDTAB
  0
ENDSEC
  0
SECTION
  2
BLOCKS
  0
BLOCK
  5
20
330
1F
100
AcDbEntity
  8
0
100
AcDbBlockBegin
  2
*Model_Space
 70
     0
 10
0.0
 20
0.0
 30
0.0
  3
*Model_Space
  1

  0
ENDBLK
  5
21
330
1F
100
AcDbEntity
  8
0
100
AcDbBlockEnd
  0
BLOCK
  5
1C
330
1B
100
AcDbEntity
 67
     1
  8
0
100
AcDbBlockBegin
  2
*Paper_Space
 70
     0
 10
0.0
 20
0.0
 30
0.0
  3
*Paper_Space
  1

  0
ENDBLK
  5
1D
330
1B
100
AcDbEntity
 67
     1
  8
0
100
AcDbBlockEnd
  0
BLOCK
  5
24
330
23
100
AcDbEntity
  8
0
100
AcDbBlockBegin
  2
*Paper_Space0
 70
     0
 10
0.0
 20
0.0
 30
0.0
  3
*Paper_Space0
  1

  0
ENDBLK
  5
25
330
23
100
AcDbEntity
  8
0
100
AcDbBlockEnd
  0
BLOCK
  5
55
330
54
100
AcDbEntity
  8
0
100
AcDbBlockBegin
  2
SW_NOTE_0
 70
     0
 10
0.0
 20
0.0
 30
0.0
  3
SW_NOTE_0
  1

  0
MTEXT
  5
7A
330
54
100
AcDbEntity
  8
0
  6
Continuous
 62
     0
 48
2.0
370
     0
100
AcDbMText
 10
0.0
 20
0.3222669349
 30
0.0
 40
0.25
 41
0.0
 71
     1
 72
     1
  1
MATERIAL - 16 GA. [1.5mm] STEEL
  7
SLDTEXTSTYLE0
 73
     1
 44
1.0
  0
MTEXT
  5
7B
330
54
100
AcDbEntity
  8
0
  6
Continuous
 62
     0
 48
2.0
370
     0
100
AcDbMText
 10
0.0
 20
-0.3352133631
 30
0.0
 40
0.25
 41
0.0
 71
     1
 72
     1
  1
FINISH - SMOOTH GRAY POWDERCOAT
  7
SLDTEXTSTYLE0
 73
     1
 44
1.0
  0
ENDBLK
  5
56
330
54
100
AcDbEntity
  8
0
100
AcDbBlockEnd
  0
BLOCK
  5
81
330
80
100
AcDbEntity
  8
0
100
AcDbBlockBegin
  2
SW_NOTE_1
 70
     0
 10
0.0
 20
0.0
 30
0.0
  3
SW_NOTE_1
  1

  0
MTEXT
  5
83
330
80
100
AcDbEntity
  8
0
  6
Continuous
 62
     0
 48
2.0
370
     0
100
AcDbMText
 10
0.0
 20
0.3222669349
 30
0.0
 40
0.25
 41
0.0
 71
     1
 72
     1
  1
PART
  7
SLDTEXTSTYLE0
 73
     1
 44
1.0
  0
MTEXT
  5
84
330
80
100
AcDbEntity
  8
0
  6
Continuous
 62
     0
 48
2.0
370
     0
100
AcDbMText
 10
-0.0932074599
 20
-0.0064732141
 30
0.0
 40
0.25
 41
0.0
 71
     1
 72
     1
  1
NAME
  7
SLDTEXTSTYLE0
 73
     1
 44
1.0
  0
ENDBLK
  5
82
330
80
100
AcDbEntity
  8
0
100
AcDbBlockEnd
  0
BLOCK
  5
87
330
86
100
AcDbEntity
  8
0
100
AcDbBlockBegin
  2
SW_NOTE_2
 70
     0
 10
0.0
 20
0.0
 30
0.0
  3
SW_NOTE_2
  1

  0
MTEXT
  5
89
330
86
100
AcDbEntity
  8
0
  6
Continuous
 62
     0
 48
2.0
370
     0
100
AcDbMText
 10
0.0
 20
0.3222669349
 30
0.0
 40
0.25
 41
0.0
 71
     1
 72
     1
  1
PART
  7
SLDTEXTSTYLE0
 73
     1
 44
1.0
  0
MTEXT
  5
8A
330
86
100
AcDbEntity
  8
0
  6
Continuous
 62
     0
 48
2.0
370
     0
100
AcDbMText
 10
0.1167534763
 20
-0.0064732141
 30
0.0
 40
0.25
 41
0.0
 71
     1
 72
     1
  1
No.
  7
SLDTEXTSTYLE0
 73
     1
 44
1.0
  0
ENDBLK
  5
88
330
86
100
AcDbEntity
  8
0
100
AcDbBlockEnd
  0
BLOCK
  5
8D
330
8C
100
AcDbEntity
  8
0
100
AcDbBlockBegin
  2
SW_NOTE_3
 70
     0
 10
0.0
 20
0.0
 30
0.0
  3
SW_NOTE_3
  1

  0
MTEXT
  5
8F
330
8C
100
AcDbEntity
  8
0
  6
Continuous
 62
     0
 48
2.0
370
     0
100
AcDbMText
 10
0.0
 20
0.3222669349
 30
0.0
 40
0.25
 41
0.0
 71
     1
 72
     1
  1
REVISION
  7
SLDTEXTSTYLE0
 73
     1
 44
1.0
  0
MTEXT
  5
90
330
8C
100
AcDbEntity
  8
0
  6
Continuous
 62
     0
 48
2.0
370
     0
100
AcDbMText
 10
0.3124565971
 20
-0.0064732141
 30
0.0
 40
0.25
 41
0.0
 71
     1
 72
     1
  1
DATE
  7
SLDTEXTSTYLE0
 73
     1
 44
1.0
  0
ENDBLK
  5
8E
330
8C
100
AcDbEntity
  8
0
100
AcDbBlockEnd
  0
BLOCK
  5
B9
330
B8
100
AcDbEntity
  8
0
100
AcDbBlockBegin
  2
*D5
 70
     1
 10
0.0
 20
0.0
 30
0.0
  3
*D5
  1

  0
SOLID
  5
BB
330
B8
100
AcDbEntity
  8
0
  6
Continuous
 62
     7
 48
2.0
370
     0
100
AcDbTrace
 10
7.9567454008
 20
13.3969958935
 30
0.0
 11
8.2167454008
 21
13.3569958935
 31
0.0
 12
8.2167454008
 22
13.4369958935
 32
0.0
 13
8.2167454008
 23
13.4369958935
 33
0.0
  0
SOLID
  5
BC
330
B8
100
AcDbEntity
  8
0
  6
Continuous
 62
     7
 48
2.0
370
     0
100
AcDbTrace
 10
11.9567454008
 20
13.3969958935
 30
0.0
 11
11.6967454008
 21
13.4369958935
 31
0.0
 12
11.6967454008
 22
13.3569958935
 32
0.0
 13
11.6967454008
 23
13.3569958935
 33
0.0
  0
LINE
  5
BD
330
B8
100
AcDbEntity
  8
0
  6
Continuous
 62
     7
 48
2.0
370
     0
100
AcDbLine
 10
9.4397005183
 20
13.3672391914
 30
0.0
 11
9.4397005183
 21
13.0299965682
 31
0.0
  0
LINE
  5
BE
330
B8
100
AcDbEntity
  8
0
  6
Continuous
 62
     7
 48
2.0
370
     0
100
AcDbLine
 10
9.4397005183
 20
13.0299965682
 30
0.0
 11
9.490445325
 21
13.0299965682
 31
0.0
  0
LINE
  5
BF
330
B8
100
AcDbEntity
  8
0
  6
Continuous
 62
     7
 48
2.0
370
     0
100
AcDbLine
 10
9.4397005183
 20
13.3672391914
 30
0.0
 11
9.490445325
 21
13.3672391914
 31
0.0
  0
LINE
  5
C0
330
B8
100
AcDbEntity
  8
0
  6
Continuous
 62
     7
 48
2.0
370
     0
100
AcDbLine
 10
10.4737902833
 20
13.3672391914
 30
0.0
 11
10.4737902833
 21
13.0299965682
 31
0.0
  0
LINE
  5
C1
330
B8
100
AcDbEntity
  8
0
  6
Continuous
 62
     7
 48
2.0
370
     0
100
AcDbLine
 10
10.4737902833
 20
13.0299965682
 30
0.0
 11
10.4230454766
 21
13.0299965682
 31
0.0
  0
LINE
  5
C2
330
B8
100
AcDbEntity
  8
0
  6
Continuous
 62
     7
 48
2.0
370
     0
100
AcDbLine
 10
10.4737902833
 20
13.3672391914
 30
0.0
 11
10.4230454766
 21
13.3672391914
 31
0.0
  0
LINE
  5
C3
330
B8
100
AcDbEntity
  8
0
  6
Continuous
 62
     7
 48
2.0
370
     0
100
AcDbLine
 10
7.9567454008
 20
12.7959125523
 30
0.0
 11
7.9567454008
 21
13.6469958935
 31
0.0
  0
LINE
  5
C4
330
B8
100
AcDbEntity
  8
0
  6
Continuous
 62
     7
 48
2.0
370
     0
100
AcDbLine
 10
11.9567454008
 20
12.7959125523
 30
0.0
 11
11.9567454008
 21
13.6469958935
 31
0.0
  0
LINE
  5
C5
330
B8
100
AcDbEntity
  8
0
  6
Continuous
 62
     7
 48
2.0
370
     0
100
AcDbLine
 10
7.9567454008
 20
13.3969958935
 30
0.0
 11
9.1625318299
 21
13.3969958935
 31
0.0
  0
LINE
  5
C6
330
B8
100
AcDbEntity
  8
0
  6
Continuous
 62
     7
 48
2.0
370
     0
100
AcDbLine
 10
11.9567454008
 20
13.3969958935
 30
0.0
 11
10.7509589717
 21
13.3969958935
 31
0.0
  0
MTEXT
  5
C7
330
B8
100
AcDbEntity
  8
0
  6
Continuous
 62
     7
 48
2.0
370
     0
100
AcDbMText
 10
9.6336087822
 20
13.7192628147
 30
0.0
 40
0.25
 41
0.0
 71
     1
 72
     1
  1
4.00
  7
SLDTEXTSTYLE0
 73
     1
 44
1.0
  0
MTEXT
  5
C8
330
B8
100
AcDbEntity
  8
0
  6
Continuous
 62
     7
 48
2.0
370
     0
100
AcDbMText
 10
9.5411901317
 20
13.3225067874
 30
0.0
 40
0.25
 41
0.0
 71
     1
 72
     1
  1
101.6
  7
SLDTEXTSTYLE0
 73
     1
 44
1.0
  0
ENDBLK
  5
BA
330
B8
100
AcDbEntity
  8
0
100
AcDbBlockEnd
  0
BLOCK
  5
CB
330
CA
100
AcDbEntity
  8
0
100
AcDbBlockBegin
  2
*D6
 70
     1
 10
0.0
 20
0.0
 30
0.0
  3
*D6
  1

  0
SOLID
  5
CD
330
CA
100
AcDbEntity
  8
0
  6
Continuous
 62
     7
 48
2.0
370
     0
100
AcDbTrace
 10
12.757890354
 20
12.6959125523
 30
0.0
 11
12.717890354
 21
12.4359125523
 31
0.0
 12
12.797890354
 22
12.4359125523
 32
0.0
 13
12.797890354
 23
12.4359125523
 33
0.0
  0
SOLID
  5
CE
330
CA
100
AcDbEntity
  8
0
  6
Continuous
 62
     7
 48
2.0
370
     0
100
AcDbTrace
 10
12.757890354
 20
6.6959125523
 30
0.0
 11
12.797890354
 21
6.9559125523
 31
0.0
 12
12.717890354
 22
6.9559125523
 32
0.0
 13
12.717890354
 23
6.9559125523
 33
0.0
  0
LINE
  5
CF
330
CA
100
AcDbEntity
  8
0
  6
Continuous
 62
     7
 48
2.0
370
     0
100
AcDbLine
 10
12.2408454716
 20
9.6661558502
 30
0.0
 11
12.2408454716
 21
9.328913227
 31
0.0
  0
LINE
  5
D0
330
CA
100
AcDbEntity
  8
0
  6
Continuous
 62
     7
 48
2.0
370
     0
100
AcDbLine
 10
12.2408454716
 20
9.328913227
 30
0.0
 11
12.2915902782
 21
9.328913227
 31
0.0
  0
LINE
  5
D1
330
CA
100
AcDbEntity
  8
0
  6
Continuous
 62
     7
 48
2.0
370
     0
100
AcDbLine
 10
12.2408454716
 20
9.6661558502
 30
0.0
 11
12.2915902782
 21
9.6661558502
 31
0.0
  0
LINE
  5
D2
330
CA
100
AcDbEntity
  8
0
  6
Continuous
 62
     7
 48
2.0
370
     0
100
AcDbLine
 10
13.2749352365
 20
9.6661558502
 30
0.0
 11
13.2749352365
 21
9.328913227
 31
0.0
  0
LINE
  5
D3
330
CA
100
AcDbEntity
  8
0
  6
Continuous
 62
     7
 48
2.0
370
     0
100
AcDbLine
 10
13.2749352365
 20
9.328913227
 30
0.0
 11
13.2241904299
 21
9.328913227
 31
0.0
  0
LINE
  5
D4
330
CA
100
AcDbEntity
  8
0
  6
Continuous
 62
     7
 48
2.0
370
     0
100
AcDbLine
 10
13.2749352365
 20
9.6661558502
 30
0.0
 11
13.2241904299
 21
9.6661558502
 31
0.0
  0
LINE
  5
D5
330
CA
100
AcDbEntity
  8
0
  6
Continuous
 62
     7
 48
2.0
370
     0
100
AcDbLine
 10
12.0567454008
 20
12.6959125523
 30
0.0
 11
13.007890354
 21
12.6959125523
 31
0.0
  0
LINE
  5
D6
330
CA
100
AcDbEntity
  8
0
  6
Continuous
 62
     7
 48
2.0
370
     0
100
AcDbLine
 10
12.0567454008
 20
6.6959125523
 30
0.0
 11
13.007890354
 21
6.6959125523
 31
0.0
  0
LINE
  5
D7
330
CA
100
AcDbEntity
  8
0
  6
Continuous
 62
     7
 48
2.0
370
     0
100
AcDbLine
 10
12.757890354
 20
12.6959125523
 30
0.0
 11
12.757890354
 21
10.0926685795
 31
0.0
  0
LINE
  5
D8
330
CA
100
AcDbEntity
  8
0
  6
Continuous
 62
     7
 48
2.0
370
     0
100
AcDbLine
 10
12.757890354
 20
6.6959125523
 30
0.0
 11
12.757890354
 21
9.299156525
 31
0.0
  0
MTEXT
  5
D9
330
CA
100
AcDbEntity
  8
0
  6
Continuous
 62
     7
 48
2.0
370
     0
100
AcDbMText
 10
12.4347537354
 20
10.0181794734
 30
0.0
 40
0.25
 41
0.0
 71
     1
 72
     1
  1
6.00
  7
SLDTEXTSTYLE0
 73
     1
 44
1.0
  0
MTEXT
  5
DA
330
CA
100
AcDbEntity
  8
0
  6
Continuous
 62
     7
 48
2.0
370
     0
100
AcDbMText
 10
12.3423350849
 20
9.6214234462
 30
0.0
 40
0.25
 41
0.0
 71
     1
 72
     1
  1
152.4
  7
SLDTEXTSTYLE0
 73
     1
 44
1.0
  0
ENDBLK
  5
CC
330
CA
100
AcDbEntity
  8
0
100
AcDbBlockEnd
  0
BLOCK
  5
DC
330
DB
100
AcDbEntity
  8
0
100
AcDbBlockBegin
  2
SW_NOTE_4
 70
     0
 10
0.0
 20
0.0
 30
0.0
  3
SW_NOTE_4
  1

  0
MTEXT
  5
DE
330
DB
100
AcDbEntity
  8
0
  6
Continuous
 62
     0
 48
2.0
370
     0
100
AcDbMText
 10
0.0395068183
 20
0.1211328833
 30
0.0
 40
0.25
 41
0.0
 71
     1
 72
     1
  1
SCREWS: #10-32 x .31"[8mm] LG.
  7
SLDTEXTSTYLE0
 73
     1
 44
1.0
  0
MTEXT
  5
DF
330
DB
100
AcDbEntity
  8
0
  6
Continuous
 62
     0
 48
2.0
370
     0
100
AcDbMText
 10
0.0395068183
 20
-0.2076072658
 30
0.0
 40
0.25
 41
0.0
 71
     1
 72
     1
  1
MACHINE, PAN HEAD, SLOTTED/SQUARE
  7
SLDTEXTSTYLE0
 73
     1
 44
1.0
  0
MTEXT
  5
E0
330
DB
100
AcDbEntity
  8
0
  6
Continuous
 62
     0
 48
2.0
370
     0
100
AcDbMText
 10
0.0395068183
 20
-0.5363474148
 30
0.0
 40
0.25
 41
0.0
 71
     1
 72
     1
  1
COMBINATION STYLE DRIVE, STEEL, ZINC PLATED.
  7
SLDTEXTSTYLE0
 73
     1
 44
1.0
  0
MTEXT
  5
E1
330
DB
100
AcDbEntity
  8
0
  6
Continuous
 62
     0
 48
2.0
370
     0
100
AcDbMText
 10
0.0395068183
 20
-0.8650875638
 30
0.0
 40
0.25
 41
0.0
 71
     1
 72
     1
  1
(SUPPLIED FOR COVER MOUNTING AND
  7
SLDTEXTSTYLE0
 73
     1
 44
1.0
  0
MTEXT
  5
E2
330
DB
100
AcDbEntity
  8
0
  6
Continuous
 62
     0
 48
2.0
370
     0
100
AcDbMText
 10
0.0395068183
 20
-1.1938277129
 30
0.0
 40
0.25
 41
0.0
 71
     1
 72
     1
  1
FOR GROUND POINT).
  7
SLDTEXTSTYLE0
 73
     1
 44
1.0
  0
ENDBLK
  5
DD
330
DB
100
AcDbEntity
  8
0
100
AcDbBlockEnd
  0
BLOCK
  5
132
330
131
100
AcDbEntity
  8
0
100
AcDbBlockBegin
  2
*D8
 70
     1
 10
0.0
 20
0.0
 30
0.0
  3
*D8
  1

  0
SOLID
  5
134
330
131
100
AcDbEntity
  8
0
  6
Continuous
 62
     7
 48
2.0
370
     0
100
AcDbTrace
 10
12.6801654777
 20
18.5228436279
 30
0.0
 11
12.6401654777
 21
18.2628436279
 31
0.0
 12
12.7201654777
 22
18.2628436279
 32
0.0
 13
12.7201654777
 23
18.2628436279
 33
0.0
  0
SOLID
  5
135
330
131
100
AcDbEntity
  8
0
  6
Continuous
 62
     7
 48
2.0
370
     0
100
AcDbTrace
 10
12.6801654777
 20
14.5228436279
 30
0.0
 11
12.7201654777
 21
14.7828436279
 31
0.0
 12
12.6401654777
 22
14.7828436279
 32
0.0
 13
12.6401654777
 23
14.7828436279
 33
0.0
  0
LINE
  5
136
330
131
100
AcDbEntity
  8
0
  6
Continuous
 62
     7
 48
2.0
370
     0
100
AcDbLine
 10
12.1631205952
 20
16.4930869258
 30
0.0
 11
12.1631205952
 21
16.1558443026
 31
0.0
  0
LINE
  5
137
330
131
100
AcDbEntity
  8
0
  6
Continuous
 62
     7
 48
2.0
370
     0
100
AcDbLine
 10
12.1631205952
 20
16.1558443026
 30
0.0
 11
12.2138654019
 21
16.1558443026
 31
0.0
  0
LINE
  5
138
330
131
100
AcDbEntity
  8
0
  6
Continuous
 62
     7
 48
2.0
370
     0
100
AcDbLine
 10
12.1631205952
 20
16.4930869258
 30
0.0
 11
12.2138654019
 21
16.4930869258
 31
0.0
  0
LINE
  5
139
330
131
100
AcDbEntity
  8
0
  6
Continuous
 62
     7
 48
2.0
370
     0
100
AcDbLine
 10
13.1972103602
 20
16.4930869258
 30
0.0
 11
13.1972103602
 21
16.1558443026
 31
0.0
  0
LINE
  5
13A
330
131
100
AcDbEntity
  8
0
  6
Continuous
 62
     7
 48
2.0
370
     0
100
AcDbLine
 10
13.1972103602
 20
16.1558443026
 30
0.0
 11
13.1464655535
 21
16.1558443026
 31
0.0
  0
LINE
  5
13B
330
131
100
AcDbEntity
  8
0
  6
Continuous
 62
     7
 48
2.0
370
     0
100
AcDbLine
 10
13.1972103602
 20
16.4930869258
 30
0.0
 11
13.1464655535
 21
16.4930869258
 31
0.0
  0
LINE
  5
13C
330
131
100
AcDbEntity
  8
0
  6
Continuous
 62
     7
 48
2.0
370
     0
100
AcDbLine
 10
11.9797454008
 20
18.5228436279
 30
0.0
 11
12.9301654777
 21
18.5228436279
 31
0.0
  0
LINE
  5
13D
330
131
100
AcDbEntity
  8
0
  6
Continuous
 62
     7
 48
2.0
370
     0
100
AcDbLine
 10
12.0567454008
 20
14.5228436279
 30
0.0
 11
12.9301654777
 21
14.5228436279
 31
0.0
  0
LINE
  5
13E
330
131
100
AcDbEntity
  8
0
  6
Continuous
 62
     7
 48
2.0
370
     0
100
AcDbLine
 10
12.6801654777
 20
18.5228436279
 30
0.0
 11
12.6801654777
 21
16.9195996552
 31
0.0
  0
LINE
  5
13F
330
131
100
AcDbEntity
  8
0
  6
Continuous
 62
     7
 48
2.0
370
     0
100
AcDbLine
 10
12.6801654777
 20
14.5228436279
 30
0.0
 11
12.6801654777
 21
16.1260876006
 31
0.0
  0
MTEXT
  5
140
330
131
100
AcDbEntity
  8
0
  6
Continuous
 62
     7
 48
2.0
370
     0
100
AcDbMText
 10
12.3570288591
 20
16.8451105491
 30
0.0
 40
0.25
 41
0.0
 71
     1
 72
     1
  1
4.00
  7
SLDTEXTSTYLE0
 73
     1
 44
1.0
  0
MTEXT
  5
141
330
131
100
AcDbEntity
  8
0
  6
Continuous
 62
     7
 48
2.0
370
     0
100
AcDbMText
 10
12.2646102086
 20
16.4483545218
 30
0.0
 40
0.25
 41
0.0
 71
     1
 72
     1
  1
101.6
  7
SLDTEXTSTYLE0
 73
     1
 44
1.0
  0
ENDBLK
  5
133
330
131
100
AcDbEntity
  8
0
100
AcDbBlockEnd
  0
BLOCK
  5
229
330
228
100
AcDbEntity
  8
0
100
AcDbBlockBegin
  2
*D9
 70
     1
 10
0.0
 20
0.0
 30
0.0
  3
*D9
  1

  0
SOLID
  5
22B
330
228
100
AcDbEntity
  8
0
  6
Continuous
 62
     7
 48
2.0
370
     0
100
AcDbTrace
 10
26.3770523959
 20
11.1959125523
 30
0.0
 11
26.3370523959
 21
10.9359125523
 31
0.0
 12
26.4170523959
 22
10.9359125523
 32
0.0
 13
26.4170523959
 23
10.9359125523
 33
0.0
  0
SOLID
  5
22C
330
228
100
AcDbEntity
  8
0
  6
Continuous
 62
     7
 48
2.0
370
     0
100
AcDbTrace
 10
26.3770523959
 20
8.1959125523
 30
0.0
 11
26.4170523959
 21
8.4559125523
 31
0.0
 12
26.3370523959
 22
8.4559125523
 32
0.0
 13
26.3370523959
 23
8.4559125523
 33
0.0
  0
LINE
  5
22D
330
228
100
AcDbEntity
  8
0
  6
Continuous
 62
     7
 48
2.0
370
     0
100
AcDbLine
 10
25.9524261639
 20
9.6661558502
 30
0.0
 11
25.9524261639
 21
9.328913227
 31
0.0
  0
LINE
  5
22E
330
228
100
AcDbEntity
  8
0
  6
Continuous
 62
     7
 48
2.0
370
     0
100
AcDbLine
 10
25.9524261639
 20
9.328913227
 30
0.0
 11
26.0031709706
 21
9.328913227
 31
0.0
  0
LINE
  5
22F
330
228
100
AcDbEntity
  8
0
  6
Continuous
 62
     7
 48
2.0
370
     0
100
AcDbLine
 10
25.9524261639
 20
9.6661558502
 30
0.0
 11
26.0031709706
 21
9.6661558502
 31
0.0
  0
LINE
  5
230
330
228
100
AcDbEntity
  8
0
  6
Continuous
 62
     7
 48
2.0
370
     0
100
AcDbLine
 10
26.8016786279
 20
9.6661558502
 30
0.0
 11
26.8016786279
 21
9.328913227
 31
0.0
  0
LINE
  5
231
330
228
100
AcDbEntity
  8
0
  6
Continuous
 62
     7
 48
2.0
370
     0
100
AcDbLine
 10
26.8016786279
 20
9.328913227
 30
0.0
 11
26.7509338212
 21
9.328913227
 31
0.0
  0
LINE
  5
232
330
228
100
AcDbEntity
  8
0
  6
Continuous
 62
     7
 48
2.0
370
     0
100
AcDbLine
 10
26.8016786279
 20
9.6661558502
 30
0.0
 11
26.7509338212
 21
9.6661558502
 31
0.0
  0
LINE
  5
233
330
228
100
AcDbEntity
  8
0
  6
Continuous
 62
     7
 48
2.0
370
     0
100
AcDbLine
 10
27.4542841768
 20
11.1959125523
 30
0.0
 11
26.1270523959
 21
11.1959125523
 31
0.0
  0
LINE
  5
234
330
228
100
AcDbEntity
  8
0
  6
Continuous
 62
     7
 48
2.0
370
     0
100
AcDbLine
 10
27.4542841768
 20
8.1959125523
 30
0.0
 11
26.1270523959
 21
8.1959125523
 31
0.0
  0
LINE
  5
235
330
228
100
AcDbEntity
  8
0
  6
Continuous
 62
     7
 48
2.0
370
     0
100
AcDbLine
 10
26.3770523959
 20
11.1959125523
 30
0.0
 11
26.3770523959
 21
10.0926685795
 31
0.0
  0
LINE
  5
236
330
228
100
AcDbEntity
  8
0
  6
Continuous
 62
     7
 48
2.0
370
     0
100
AcDbLine
 10
26.3770523959
 20
8.1959125523
 30
0.0
 11
26.3770523959
 21
9.299156525
 31
0.0
  0
MTEXT
  5
237
330
228
100
AcDbEntity
  8
0
  6
Continuous
 62
     7
 48
2.0
370
     0
100
AcDbMText
 10
26.0539157773
 20
10.0181794734
 30
0.0
 40
0.25
 41
0.0
 71
     1
 72
     1
  1
3.00
  7
SLDTEXTSTYLE0
 73
     1
 44
1.0
  0
MTEXT
  5
238
330
228
100
AcDbEntity
  8
0
  6
Continuous
 62
     7
 48
2.0
370
     0
100
AcDbMText
 10
26.0539157773
 20
9.6214234462
 30
0.0
 40
0.25
 41
0.0
 71
     1
 72
     1
  1
76.2
  7
SLDTEXTSTYLE0
 73
     1
 44
1.0
  0
ENDBLK
  5
22A
330
228
100
AcDbEntity
  8
0
100
AcDbBlockEnd
  0
BLOCK
  5
23B
330
23A
100
AcDbEntity
  8
0
100
AcDbBlockBegin
  2
*D10
 70
     1
 10
0.0
 20
0.0
 30
0.0
  3
*D10
  1

  0
SOLID
  5
23D
330
23A
100
AcDbEntity
  8
0
  6
Continuous
 62
     7
 48
2.0
370
     0
100
AcDbTrace
 10
27.5542841768
 20
5.9085090089
 30
0.0
 11
27.8142841768
 21
5.8685090089
 31
0.0
 12
27.8142841768
 22
5.9485090089
 32
0.0
 13
27.8142841768
 23
5.9485090089
 33
0.0
  0
SOLID
  5
23E
330
23A
100
AcDbEntity
  8
0
  6
Continuous
 62
     7
 48
2.0
370
     0
100
AcDbTrace
 10
30.5542841768
 20
5.9085090089
 30
0.0
 11
30.2942841768
 21
5.9485090089
 31
0.0
 12
30.2942841768
 22
5.8685090089
 32
0.0
 13
30.2942841768
 23
5.8685090089
 33
0.0
  0
LINE
  5
23F
330
23A
100
AcDbEntity
  8
0
  6
Continuous
 62
     7
 48
2.0
370
     0
100
AcDbLine
 10
28.6296579448
 20
5.8787523069
 30
0.0
 11
28.6296579448
 21
5.5415096837
 31
0.0
  0
LINE
  5
240
330
23A
100
AcDbEntity
  8
0
  6
Continuous
 62
     7
 48
2.0
370
     0
100
AcDbLine
 10
28.6296579448
 20
5.5415096837
 30
0.0
 11
28.6804027515
 21
5.5415096837
 31
0.0
  0
LINE
  5
241
330
23A
100
AcDbEntity
  8
0
  6
Continuous
 62
     7
 48
2.0
370
     0
100
AcDbLine
 10
28.6296579448
 20
5.8787523069
 30
0.0
 11
28.6804027515
 21
5.8787523069
 31
0.0
  0
LINE
  5
242
330
23A
100
AcDbEntity
  8
0
  6
Continuous
 62
     7
 48
2.0
370
     0
100
AcDbLine
 10
29.4789104088
 20
5.8787523069
 30
0.0
 11
29.4789104088
 21
5.5415096837
 31
0.0
  0
LINE
  5
243
330
23A
100
AcDbEntity
  8
0
  6
Continuous
 62
     7
 48
2.0
370
     0
100
AcDbLine
 10
29.4789104088
 20
5.5415096837
 30
0.0
 11
29.4281656021
 21
5.5415096837
 31
0.0
  0
LINE
  5
244
330
23A
100
AcDbEntity
  8
0
  6
Continuous
 62
     7
 48
2.0
370
     0
100
AcDbLine
 10
29.4789104088
 20
5.8787523069
 30
0.0
 11
29.4281656021
 21
5.8787523069
 31
0.0
  0
LINE
  5
245
330
23A
100
AcDbEntity
  8
0
  6
Continuous
 62
     7
 48
2.0
370
     0
100
AcDbLine
 10
27.5542841768
 20
8.0959125523
 30
0.0
 11
27.5542841768
 21
5.6585090089
 31
0.0
  0
LINE
  5
246
330
23A
100
AcDbEntity
  8
0
  6
Continuous
 62
     7
 48
2.0
370
     0
100
AcDbLine
 10
30.5542841768
 20
8.0959125523
 30
0.0
 11
30.5542841768
 21
5.6585090089
 31
0.0
  0
LINE
  5
247
330
23A
100
AcDbEntity
  8
0
  6
Continuous
 62
     7
 48
2.0
370
     0
100
AcDbLine
 10
27.5542841768
 20
5.9085090089
 30
0.0
 11
28.3524892564
 21
5.9085090089
 31
0.0
  0
LINE
  5
248
330
23A
100
AcDbEntity
  8
0
  6
Continuous
 62
     7
 48
2.0
370
     0
100
AcDbLine
 10
30.5542841768
 20
5.9085090089
 30
0.0
 11
29.7560790972
 21
5.9085090089
 31
0.0
  0
MTEXT
  5
249
330
23A
100
AcDbEntity
  8
0
  6
Continuous
 62
     7
 48
2.0
370
     0
100
AcDbMText
 10
28.7311475581
 20
6.2307759301
 30
0.0
 40
0.25
 41
0.0
 71
     1
 72
     1
  1
3.00
  7
SLDTEXTSTYLE0
 73
     1
 44
1.0
  0
MTEXT
  5
24A
330
23A
100
AcDbEntity
  8
0
  6
Continuous
 62
     7
 48
2.0
370
     0
100
AcDbMText
 10
28.7311475581
 20
5.8340199028
 30
0.0
 40
0.25
 41
0.0
 71
     1
 72
     1
  1
76.2
  7
SLDTEXTSTYLE0
 73
     1
 44
1.0
  0
ENDBLK
  5
23C
330
23A
100
AcDbEntity
  8
0
100
AcDbBlockEnd
  0
BLOCK
  5
24E
330
24D
100
AcDbEntity
  8
0
100
AcDbBlockBegin
  2
*D11
 70
     1
 10
0.0
 20
0.0
 30
0.0
  3
*D11
  1

  0
SOLID
  5
250
330
24D
100
AcDbEntity
  8
0
  6
Continuous
 62
     7
 48
2.0
370
     0
100
AcDbTrace
 10
30.6244428194
 20
8.0741832836
 30
0.0
 11
30.71961774
 21
7.8289451656
 31
0.0
 12
30.7889297792
 22
7.8688931472
 32
0.0
 13
30.7889297792
 23
7.8688931472
 33
0.0
  0
LINE
  5
251
330
24D
100
AcDbEntity
  8
0
  6
Continuous
 62
     7
 48
2.0
370
     0
100
AcDbLine
 10
31.9885183892
 20
6.5386284796
 30
0.0
 11
31.9885183892
 21
6.2013858564
 31
0.0
  0
LINE
  5
252
330
24D
100
AcDbEntity
  8
0
  6
Continuous
 62
     7
 48
2.0
370
     0
100
AcDbLine
 10
31.9885183892
 20
6.2013858564
 30
0.0
 11
32.0392631959
 21
6.2013858564
 31
0.0
  0
LINE
  5
253
330
24D
100
AcDbEntity
  8
0
  6
Continuous
 62
     7
 48
2.0
370
     0
100
AcDbLine
 10
31.9885183892
 20
6.5386284796
 30
0.0
 11
32.0392631959
 21
6.5386284796
 31
0.0
  0
LINE
  5
254
330
24D
100
AcDbEntity
  8
0
  6
Continuous
 62
     7
 48
2.0
370
     0
100
AcDbLine
 10
32.8377708532
 20
6.5386284796
 30
0.0
 11
32.8377708532
 21
6.2013858564
 31
0.0
  0
LINE
  5
255
330
24D
100
AcDbEntity
  8
0
  6
Continuous
 62
     7
 48
2.0
370
     0
100
AcDbLine
 10
32.8377708532
 20
6.2013858564
 30
0.0
 11
32.7870260465
 21
6.2013858564
 31
0.0
  0
LINE
  5
256
330
24D
100
AcDbEntity
  8
0
  6
Continuous
 62
     7
 48
2.0
370
     0
100
AcDbLine
 10
32.8377708532
 20
6.5386284796
 30
0.0
 11
32.7870260465
 21
6.5386284796
 31
0.0
  0
LINE
  5
257
330
24D
100
AcDbEntity
  8
0
  6
Continuous
 62
     7
 48
2.0
370
     0
100
AcDbLine
 10
30.6244428194
 20
8.0741832836
 30
0.0
 11
31.4923092914
 21
6.5683851816
 31
0.0
  0
LINE
  5
258
330
24D
100
AcDbEntity
  8
0
  6
Continuous
 62
     7
 48
2.0
370
     0
100
AcDbLine
 10
31.4923092914
 20
6.5683851816
 30
0.0
 11
31.7423092914
 21
6.5683851816
 31
0.0
  0
MTEXT
  5
259
330
24D
100
AcDbEntity
  8
0
  6
Continuous
 62
     7
 48
2.0
370
     0
100
AcDbMText
 10
31.9114677903
 20
6.8906521074
 30
0.0
 40
0.25
 41
0.0
 71
     1
 72
     1
  1
%%c
  7
SLDTEXTSTYLE0
 73
     1
 44
1.0
  0
MTEXT
  5
25A
330
24D
100
AcDbEntity
  8
0
  6
Continuous
 62
     7
 48
2.0
370
     0
100
AcDbMText
 10
32.2685482148
 20
6.8906521028
 30
0.0
 40
0.25
 41
0.0
 71
     1
 72
     1
  1
.281
  7
SLDTEXTSTYLE0
 73
     1
 44
1.0
  0
MTEXT
  5
25B
330
24D
100
AcDbEntity
  8
0
  6
Continuous
 62
     7
 48
2.0
370
     0
100
AcDbMText
 10
32.0900080025
 20
6.4938960755
 30
0.0
 40
0.25
 41
0.0
 71
     1
 72
     1
  1
7.14
  7
SLDTEXTSTYLE0
 73
     1
 44
1.0
  0
ENDBLK
  5
24F
330
24D
100
AcDbEntity
  8
0
100
AcDbBlockEnd
  0
BLOCK
  5
25E
330
25D
100
AcDbEntity
  8
0
100
AcDbBlockBegin
  2
*D12
 70
     1
 10
0.0
 20
0.0
 30
0.0
  3
*D12
  1

  0
SOLID
  5
260
330
25D
100
AcDbEntity
  8
0
  6
Continuous
 62
     7
 48
2.0
370
     0
100
AcDbTrace
 10
31.9379918334
 20
10.6959125523
 30
0.0
 11
31.9779918334
 21
10.9559125523
 31
0.0
 12
31.8979918334
 22
10.9559125523
 32
0.0
 13
31.8979918334
 23
10.9559125523
 33
0.0
  0
SOLID
  5
261
330
25D
100
AcDbEntity
  8
0
  6
Continuous
 62
     7
 48
2.0
370
     0
100
AcDbTrace
 10
31.9379918334
 20
12.6959125523
 30
0.0
 11
31.8979918334
 21
12.4359125523
 31
0.0
 12
31.9779918334
 22
12.4359125523
 32
0.0
 13
31.9779918334
 23
12.4359125523
 33
0.0
  0
LINE
  5
262
330
25D
100
AcDbEntity
  8
0
  6
Continuous
 62
     7
 48
2.0
370
     0
100
AcDbLine
 10
31.5133656014
 20
11.6661558502
 30
0.0
 11
31.5133656014
 21
11.328913227
 31
0.0
  0
LINE
  5
263
330
25D
100
AcDbEntity
  8
0
  6
Continuous
 62
     7
 48
2.0
370
     0
100
AcDbLine
 10
31.5133656014
 20
11.328913227
 30
0.0
 11
31.5641104081
 21
11.328913227
 31
0.0
  0
LINE
  5
264
330
25D
100
AcDbEntity
  8
0
  6
Continuous
 62
     7
 48
2.0
370
     0
100
AcDbLine
 10
31.5133656014
 20
11.6661558502
 30
0.0
 11
31.5641104081
 21
11.6661558502
 31
0.0
  0
LINE
  5
265
330
25D
100
AcDbEntity
  8
0
  6
Continuous
 62
     7
 48
2.0
370
     0
100
AcDbLine
 10
32.3626180654
 20
11.6661558502
 30
0.0
 11
32.3626180654
 21
11.328913227
 31
0.0
  0
LINE
  5
266
330
25D
100
AcDbEntity
  8
0
  6
Continuous
 62
     7
 48
2.0
370
     0
100
AcDbLine
 10
32.3626180654
 20
11.328913227
 30
0.0
 11
32.3118732587
 21
11.328913227
 31
0.0
  0
LINE
  5
267
330
25D
100
AcDbEntity
  8
0
  6
Continuous
 62
     7
 48
2.0
370
     0
100
AcDbLine
 10
32.3626180654
 20
11.6661558502
 30
0.0
 11
32.3118732587
 21
11.6661558502
 31
0.0
  0
LINE
  5
268
330
25D
100
AcDbEntity
  8
0
  6
Continuous
 62
     7
 48
2.0
370
     0
100
AcDbLine
 10
29.1542841768
 20
10.6959125523
 30
0.0
 11
32.1879918334
 21
10.6959125523
 31
0.0
  0
LINE
  5
269
330
25D
100
AcDbEntity
  8
0
  6
Continuous
 62
     7
 48
2.0
370
     0
100
AcDbLine
 10
31.1542841768
 20
12.6959125523
 30
0.0
 11
32.1879918334
 21
12.6959125523
 31
0.0
  0
LINE
  5
26A
330
25D
100
AcDbEntity
  8
0
  6
Continuous
 62
     7
 48
2.0
370
     0
100
AcDbLine
 10
31.9379918334
 20
10.6959125523
 30
0.0
 11
31.9379918334
 21
11.299156525
 31
0.0
  0
LINE
  5
26B
330
25D
100
AcDbEntity
  8
0
  6
Continuous
 62
     7
 48
2.0
370
     0
100
AcDbLine
 10
31.9379918334
 20
12.6959125523
 30
0.0
 11
31.9379918334
 21
12.0926685795
 31
0.0
  0
MTEXT
  5
26C
330
25D
100
AcDbEntity
  8
0
  6
Continuous
 62
     7
 48
2.0
370
     0
100
AcDbMText
 10
31.6148552147
 20
12.0181794734
 30
0.0
 40
0.25
 41
0.0
 71
     1
 72
     1
  1
2.00
  7
SLDTEXTSTYLE0
 73
     1
 44
1.0
  0
MTEXT
  5
26D
330
25D
100
AcDbEntity
  8
0
  6
Continuous
 62
     7
 48
2.0
370
     0
100
AcDbMText
 10
31.6148552147
 20
11.6214234462
 30
0.0
 40
0.25
 41
0.0
 71
     1
 72
     1
  1
50.8
  7
SLDTEXTSTYLE0
 73
     1
 44
1.0
  0
ENDBLK
  5
25F
330
25D
100
AcDbEntity
  8
0
100
AcDbBlockEnd
  0
BLOCK
  5
343
330
342
100
AcDbEntity
  8
0
100
AcDbBlockBegin
  2
*D13
 70
     1
 10
0.0
 20
0.0
 30
0.0
  3
*D13
  1

  0
SOLID
  5
345
330
342
100
AcDbEntity
  8
0
  6
Continuous
 62
     7
 48
2.0
370
     0
100
AcDbTrace
 10
18.0099010878
 20
11.6734157935
 30
0.0
 11
17.7499010878
 21
11.7134157935
 31
0.0
 12
17.7499010878
 22
11.6334157935
 32
0.0
 13
17.7499010878
 23
11.6334157935
 33
0.0
  0
SOLID
  5
346
330
342
100
AcDbEntity
  8
0
  6
Continuous
 62
     7
 48
2.0
370
     0
100
AcDbTrace
 10
18.5099010878
 20
11.6734157935
 30
0.0
 11
18.7699010878
 21
11.6334157935
 31
0.0
 12
18.7699010878
 22
11.7134157935
 32
0.0
 13
18.7699010878
 23
11.7134157935
 33
0.0
  0
LINE
  5
347
330
342
100
AcDbEntity
  8
0
  6
Continuous
 62
     7
 48
2.0
370
     0
100
AcDbLine
 10
19.3588607539
 20
11.6436590914
 30
0.0
 11
19.3588607539
 21
11.3064164682
 31
0.0
  0
LINE
  5
348
330
342
100
AcDbEntity
  8
0
  6
Continuous
 62
     7
 48
2.0
370
     0
100
AcDbLine
 10
19.3588607539
 20
11.3064164682
 30
0.0
 11
19.4096055605
 21
11.3064164682
 31
0.0
  0
LINE
  5
349
330
342
100
AcDbEntity
  8
0
  6
Continuous
 62
     7
 48
2.0
370
     0
100
AcDbLine
 10
19.3588607539
 20
11.6436590914
 30
0.0
 11
19.4096055605
 21
11.6436590914
 31
0.0
  0
LINE
  5
34A
330
342
100
AcDbEntity
  8
0
  6
Continuous
 62
     7
 48
2.0
370
     0
100
AcDbLine
 10
20.2081132178
 20
11.6436590914
 30
0.0
 11
20.2081132178
 21
11.3064164682
 31
0.0
  0
LINE
  5
34B
330
342
100
AcDbEntity
  8
0
  6
Continuous
 62
     7
 48
2.0
370
     0
100
AcDbLine
 10
20.2081132178
 20
11.3064164682
 30
0.0
 11
20.1573684112
 21
11.3064164682
 31
0.0
  0
LINE
  5
34C
330
342
100
AcDbEntity
  8
0
  6
Continuous
 62
     7
 48
2.0
370
     0
100
AcDbLine
 10
20.2081132178
 20
11.6436590914
 30
0.0
 11
20.1573684112
 21
11.6436590914
 31
0.0
  0
LINE
  5
34D
330
342
100
AcDbEntity
  8
0
  6
Continuous
 62
     7
 48
2.0
370
     0
100
AcDbLine
 10
18.0099010878
 20
11.6734157935
 30
0.0
 11
17.5099010878
 21
11.6734157935
 31
0.0
  0
LINE
  5
34E
330
342
100
AcDbEntity
  8
0
  6
Continuous
 62
     7
 48
2.0
370
     0
100
AcDbLine
 10
18.5099010878
 20
11.6734157935
 30
0.0
 11
19.0816920655
 21
11.6734157935
 31
0.0
  0
MTEXT
  5
34F
330
342
100
AcDbEntity
  8
0
  6
Continuous
 62
     7
 48
2.0
370
     0
100
AcDbMText
 10
19.5526375545
 20
11.9956827147
 30
0.0
 40
0.25
 41
0.0
 71
     1
 72
     1
  1
.50
  7
SLDTEXTSTYLE0
 73
     1
 44
1.0
  0
MTEXT
  5
350
330
342
100
AcDbEntity
  8
0
  6
Continuous
 62
     7
 48
2.0
370
     0
100
AcDbMText
 10
19.4603503672
 20
11.5989266874
 30
0.0
 40
0.25
 41
0.0
 71
     1
 72
     1
  1
12.7
  7
SLDTEXTSTYLE0
 73
     1
 44
1.0
  0
ENDBLK
  5
344
330
342
100
AcDbEntity
  8
0
100
AcDbBlockEnd
  0
BLOCK
  5
352
330
351
100
AcDbEntity
  8
0
100
AcDbBlockBegin
  2
SW_NOTE_5
 70
     0
 10
0.0
 20
0.0
 30
0.0
  3
SW_NOTE_5
  1

  0
MTEXT
  5
354
330
351
100
AcDbEntity
  8
0
  6
Continuous
 62
     0
 48
2.0
370
     0
100
AcDbMText
 10
0.0393875812
 20
0.1213033116
 30
0.0
 40
0.25
 41
0.0
 71
     1
 72
     1
  1
GROUNDING
  7
SLDTEXTSTYLE0
 73
     1
 44
1.0
  0
MTEXT
  5
355
330
351
100
AcDbEntity
  8
0
  6
Continuous
 62
     0
 48
2.0
370
     0
100
AcDbMText
 10
0.0393875812
 20
-0.2074368375
 30
0.0
 40
0.25
 41
0.0
 71
     1
 72
     1
  1
EMBOSS
  7
SLDTEXTSTYLE0
 73
     1
 44
1.0
  0
ENDBLK
  5
353
330
351
100
AcDbEntity
  8
0
100
AcDbBlockEnd
  0
ENDSEC
  0
SECTION
  2
ENTITIES
  0
LINE
  5
44
330
1F
100
AcDbEntity
  8
0
  6
Continuous
 62
     7
 48
2.0
370
     0
100
AcDbLine
 10
0.6265032092
 20
21.4101463415
 30
0.0
 11
33.3785032092
 21
21.4101463415
 31
0.0
  0
LINE
  5
45
330
1F
100
AcDbEntity
  8
0
  6
Continuous
 62
     7
 48
2.0
370
     0
100
AcDbLine
 10
33.3785032092
 20
0.6581463415
 30
0.0
 11
33.3785032092
 21
21.4101463415
 31
0.0
  0
LINE
  5
46
330
1F
100
AcDbEntity
  8
0
  6
Continuous
 62
     7
 48
2.0
370
     0
100
AcDbLine
 10
33.3785032092
 20
0.6581463415
 30
0.0
 11
0.6265032092
 21
0.6581463415
 31
0.0
  0
LINE
  5
47
330
1F
100
AcDbEntity
  8
0
  6
Continuous
 62
     7
 48
2.0
370
     0
100
AcDbLine
 10
0.6265032092
 20
21.4101463415
 30
0.0
 11
0.6265032092
 21
0.6581463415
 31
0.0
  0
LINE
  5
48
330
1F
100
AcDbEntity
  8
0
  6
Continuous
 62
     7
 48
2.0
370
     0
100
AcDbLine
 10
0.5025032092
 20
21.5341463415
 30
0.0
 11
33.5025032092
 21
21.5341463415
 31
0.0
  0
LINE
  5
49
330
1F
100
AcDbEntity
  8
0
  6
Continuous
 62
     7
 48
2.0
370
     0
100
AcDbLine
 10
33.5025032092
 20
0.5341463415
 30
0.0
 11
0.5025032092
 21
0.5341463415
 31
0.0
  0
LINE
  5
4A
330
1F
100
AcDbEntity
  8
0
  6
Continuous
 62
     7
 48
2.0
370
     0
100
AcDbLine
 10
0.5025032092
 20
21.5341463415
 30
0.0
 11
0.5025032092
 21
0.5341463415
 31
0.0
  0
LINE
  5
4B
330
1F
100
AcDbEntity
  8
0
  6
Continuous
 62
     7
 48
2.0
370
     0
100
AcDbLine
 10
33.5025032092
 20
0.5341463415
 30
0.0
 11
33.5025032092
 21
21.5341463415
 31
0.0
  0
LINE
  5
4C
330
1F
100
AcDbEntity
  8
0
  6
Continuous
 62
     7
 48
2.0
370
     0
100
AcDbLine
 10
0.6265032092
 20
20.5981463415
 30
0.0
 11
33.3785032092
 21
20.5981463415
 31
0.0
  0
LINE
  5
4D
330
1F
100
AcDbEntity
  8
0
  6
Continuous
 62
     7
 48
2.0
370
     0
100
AcDbLine
 10
2.1265032092
 20
21.4101463415
 30
0.0
 11
2.1265032092
 21
20.5981463415
 31
0.0
  0
LINE
  5
4E
330
1F
100
AcDbEntity
  8
0
  6
Continuous
 62
     7
 48
2.0
370
     0
100
AcDbLine
 10
14.8785032092
 20
20.5981463415
 30
0.0
 11
14.8785032092
 21
21.4101463415
 31
0.0
  0
LINE
  5
4F
330
1F
100
AcDbEntity
  8
0
  6
Continuous
 62
     7
 48
2.0
370
     0
100
AcDbLine
 10
15.0025032092
 20
20.5981463415
 30
0.0
 11
15.0025032092
 21
21.4101463415
 31
0.0
  0
LINE
  5
50
330
1F
100
AcDbEntity
  8
0
  6
Continuous
 62
     7
 48
2.0
370
     0
100
AcDbLine
 10
30.8785032092
 20
20.5981463415
 30
0.0
 11
30.8785032092
 21
21.4101463415
 31
0.0
  0
LINE
  5
51
330
1F
100
AcDbEntity
  8
0
  6
Continuous
 62
     7
 48
2.0
370
     0
100
AcDbLine
 10
16.5025032092
 20
20.5981463415
 30
0.0
 11
16.5025032092
 21
21.4101463415
 31
0.0
  0
LINE
  5
52
330
1F
100
AcDbEntity
  8
0
  6
Continuous
 62
     7
 48
2.0
370
     0
100
AcDbLine
 10
29.3785032092
 20
20.5981463415
 30
0.0
 11
29.3785032092
 21
21.4101463415
 31
0.0
  0
LINE
  5
53
330
1F
100
AcDbEntity
  8
0
  6
Continuous
 62
     7
 48
2.0
370
     0
100
AcDbLine
 10
29.2545032092
 20
20.5981463415
 30
0.0
 11
29.2545032092
 21
21.4101463415
 31
0.0
  0
INSERT
  5
7C
330
1F
100
AcDbEntity
  8
0
  6
Continuous
 62
     7
 48
2.0
370
     0
100
AcDbBlockReference
  2
SW_NOTE_0
 10
17.2334054247
 20
18.1744503056
 30
0.0
  0
MTEXT
  5
7D
330
1F
100
AcDbEntity
  8
0
  6
Continuous
 62
     7
 48
2.0
370
     0
100
AcDbMText
 10
31.3179688312
 20
21.2186326882
 30
0.0
 40
0.375
 41
0.0
 71
     1
 72
     1
  1
7-18-11
  7
SLDTEXTSTYLE0
 73
     1
 44
1.0
  0
MTEXT
  5
7E
330
1F
100
AcDbEntity
  8
0
  6
Continuous
 62
     7
 48
2.0
370
     0
100
AcDbMText
 10
6.5800243211
 20
21.2423027703
 30
0.0
 40
0.375
 41
0.0
 71
     1
 72
     1
  1
JUNCTION BOX
  7
SLDTEXTSTYLE0
 73
     1
 44
1.0
  0
MTEXT
  5
7F
330
1F
100
AcDbEntity
  8
0
  6
Continuous
 62
     7
 48
2.0
370
     0
100
AcDbMText
 10
22.0194442871
 20
21.2229734649
 30
0.0
 40
0.375
 41
0.0
 71
     1
 72
     1
  1
JB-3953
  7
SLDTEXTSTYLE0
 73
     1
 44
1.0
  0
INSERT
  5
85
330
1F
100
AcDbEntity
  8
0
  6
Continuous
 62
     7
 48
2.0
370
     0
100
AcDbBlockReference
  2
SW_NOTE_1
 10
0.9752783738
 20
21.009520053
 30
0.0
  0
INSERT
  5
8B
330
1F
100
AcDbEntity
  8
0
  6
Continuous
 62
     7
 48
2.0
370
     0
100
AcDbBlockReference
  2
SW_NOTE_2
 10
15.3702297796
 20
21.0003964794
 30
0.0
  0
INSERT
  5
91
330
1F
100
AcDbEntity
  8
0
  6
Continuous
 62
     7
 48
2.0
370
     0
100
AcDbBlockReference
  2
SW_NOTE_3
 10
29.4172772548
 20
21.0067670545
 30
0.0
  0
ARC
  5
92
330
1F
100
AcDbEntity
  8
0
  6
Continuous
 62
     7
 48
4.0
370
    15
100
AcDbCircle
 10
11.7067454008
 20
9.4239125523
 30
0.0
 40
0.2029999999999989
100
AcDbArc
 50
133.2687098488
 51
46.7312901512
  0
LINE
  5
93
330
1F
100
AcDbEntity
  8
0
  6
Continuous
 62
     7
 48
2.0
370
    15
100
AcDbLine
 10
7.9567454008
 20
12.6959125523
 30
0.0
 11
7.9567454008
 21
6.6959125523
 31
0.0
  0
ARC
  5
94
330
1F
100
AcDbEntity
  8
0
  6
Continuous
 62
     7
 48
4.0
370
    15
100
AcDbCircle
 10
8.2067454008
 20
9.4239125523
 30
0.0
 40
0.2029999999999998
100
AcDbArc
 50
133.2687098488
 51
46.7312901512
  0
LINE
  5
95
330
1F
100
AcDbEntity
  8
0
  6
Continuous
 62
     7
 48
2.0
370
    15
100
AcDbLine
 10
7.9567454008
 20
6.6959125523
 30
0.0
 11
11.9567454008
 21
6.6959125523
 31
0.0
  0
LINE
  5
96
330
1F
100
AcDbEntity
  8
0
  6
Continuous
 62
     7
 48
2.0
370
    15
100
AcDbLine
 10
11.9567454008
 20
6.6959125523
 30
0.0
 11
11.9567454008
 21
12.6959125523
 31
0.0
  0
LINE
  5
97
330
1F
100
AcDbEntity
  8
0
  6
Continuous
 62
     7
 48
2.0
370
    15
100
AcDbLine
 10
11.9567454008
 20
12.6959125523
 30
0.0
 11
7.9567454008
 21
12.6959125523
 31
0.0
  0
LINE
  5
98
330
1F
100
AcDbEntity
  8
0
  6
Continuous
 62
     7
 48
2.0
370
    15
100
AcDbLine
 10
11.6875214751
 20
9.7366070122
 30
0.0
 11
11.6082776236
 21
9.8146684297
 31
0.0
  0
ARC
  5
99
330
1F
100
AcDbEntity
  8
0
  6
Continuous
 62
     7
 48
4.0
370
    15
100
AcDbCircle
 10
11.7067454008
 20
9.6959125523
 30
0.0
 40
0.154268796474629
100
AcDbArc
 50
129.6642084609
 51
141.197138477
  0
LINE
  5
9A
330
1F
100
AcDbEntity
  8
0
  6
Continuous
 62
     7
 48
2.0
370
    15
100
AcDbLine
 10
11.5865226988
 20
9.7925839725
 30
0.0
 11
11.6657665503
 21
9.7145225551
 31
0.0
  0
LINE
  5
9B
330
1F
100
AcDbEntity
  8
0
  6
Continuous
 62
     7
 48
2.0
370
    15
100
AcDbLine
 10
11.6657665503
 20
9.7145225551
 30
0.0
 11
11.666215707
 21
9.6547689356
 31
0.0
  0
LINE
  5
9C
330
1F
100
AcDbEntity
  8
0
  6
Continuous
 62
     7
 48
2.0
370
    15
100
AcDbLine
 10
11.666215707
 20
9.6547689356
 30
0.0
 11
11.7259693265
 21
9.6552180923
 31
0.0
  0
LINE
  5
9D
330
1F
100
AcDbEntity
  8
0
  6
Continuous
 62
     7
 48
2.0
370
    15
100
AcDbLine
 10
11.7259693265
 20
9.6552180923
 30
0.0
 11
11.805213178
 21
9.5771566749
 31
0.0
  0
ARC
  5
9E
330
1F
100
AcDbEntity
  8
0
  6
Continuous
 62
     7
 48
4.0
370
    15
100
AcDbCircle
 10
11.7067454008
 20
9.6959125523
 30
0.0
 40
0.154268796474629
100
AcDbArc
 50
309.6642084609
 51
321.197138477
  0
LINE
  5
9F
330
1F
100
AcDbEntity
  8
0
  6
Continuous
 62
     7
 48
2.0
370
    15
100
AcDbLine
 10
11.8269681028
 20
9.599241132
 30
0.0
 11
11.7477242513
 21
9.6773025494
 31
0.0
  0
LINE
  5
A0
330
1F
100
AcDbEntity
  8
0
  6
Continuous
 62
     7
 48
2.0
370
    15
100
AcDbLine
 10
11.7477242513
 20
9.6773025494
 30
0.0
 11
11.7472750946
 21
9.7370561689
 31
0.0
  0
LINE
  5
A1
330
1F
100
AcDbEntity
  8
0
  6
Continuous
 62
     7
 48
2.0
370
    15
100
AcDbLine
 10
11.7472750946
 20
9.7370561689
 30
0.0
 11
11.6875214751
 21
9.7366070122
 31
0.0
  0
LINE
  5
A2
330
1F
100
AcDbEntity
  8
0
  6
Continuous
 62
     7
 48
2.0
370
    15
100
AcDbLine
 10
11.7259693265
 20
9.6552180923
 30
0.0
 11
11.7478890175
 21
9.6553828585
 31
0.0
  0
LINE
  5
A3
330
1F
100
AcDbEntity
  8
0
  6
Continuous
 62
     7
 48
2.0
370
    15
100
AcDbLine
 10
11.7478890175
 20
9.6553828585
 30
0.0
 11
11.7477242513
 21
9.6773025494
 31
0.0
  0
LINE
  5
A4
330
1F
100
AcDbEntity
  8
0
  6
Continuous
 62
     7
 48
2.0
370
    15
100
AcDbLine
 10
11.6875214751
 20
9.7366070122
 30
0.0
 11
11.6656017842
 21
9.736442246
 31
0.0
  0
LINE
  5
A5
330
1F
100
AcDbEntity
  8
0
  6
Continuous
 62
     7
 48
2.0
370
    15
100
AcDbLine
 10
11.6656017842
 20
9.736442246
 30
0.0
 11
11.6657665503
 21
9.7145225551
 31
0.0
  0
CIRCLE
  5
A6
330
1F
100
AcDbEntity
  8
0
  6
Continuous
 62
     7
 48
4.0
370
    15
100
AcDbCircle
 10
11.7067454008
 20
9.6959125523
 30
0.0
 40
0.1865000000000004
  0
LINE
  5
A7
330
1F
100
AcDbEntity
  8
0
  6
Continuous
 62
     7
 48
2.0
370
    15
100
AcDbLine
 10
8.1657665503
 20
9.6773025494
 30
0.0
 11
8.0865226988
 21
9.599241132
 31
0.0
  0
ARC
  5
A8
330
1F
100
AcDbEntity
  8
0
  6
Continuous
 62
     7
 48
4.0
370
    15
100
AcDbCircle
 10
8.2067454008
 20
9.6959125523
 30
0.0
 40
0.1542687964746291
100
AcDbArc
 50
218.802861523
 51
230.3357915391
  0
LINE
  5
A9
330
1F
100
AcDbEntity
  8
0
  6
Continuous
 62
     7
 48
2.0
370
    15
100
AcDbLine
 10
8.1082776236
 20
9.5771566749
 30
0.0
 11
8.1875214751
 21
9.6552180923
 31
0.0
  0
LINE
  5
AA
330
1F
100
AcDbEntity
  8
0
  6
Continuous
 62
     7
 48
2.0
370
    15
100
AcDbLine
 10
8.2472750946
 20
9.6547689356
 30
0.0
 11
8.2477242513
 21
9.7145225551
 31
0.0
  0
LINE
  5
AB
330
1F
100
AcDbEntity
  8
0
  6
Continuous
 62
     7
 48
2.0
370
    15
100
AcDbLine
 10
8.2477242513
 20
9.7145225551
 30
0.0
 11
8.3269681028
 21
9.7925839725
 31
0.0
  0
ARC
  5
AC
330
1F
100
AcDbEntity
  8
0
  6
Continuous
 62
     7
 48
4.0
370
    15
100
AcDbCircle
 10
8.2067454008
 20
9.6959125523
 30
0.0
 40
0.1542687964746291
100
AcDbArc
 50
38.802861523
 51
50.3357915391
  0
LINE
  5
AD
330
1F
100
AcDbEntity
  8
0
  6
Continuous
 62
     7
 48
2.0
370
    15
100
AcDbLine
 10
8.305213178
 20
9.8146684297
 30
0.0
 11
8.2259693265
 21
9.7366070122
 31
0.0
  0
LINE
  5
AE
330
1F
100
AcDbEntity
  8
0
  6
Continuous
 62
     7
 48
2.0
370
    15
100
AcDbLine
 10
8.2259693265
 20
9.7366070122
 30
0.0
 11
8.166215707
 21
9.7370561689
 31
0.0
  0
LINE
  5
AF
330
1F
100
AcDbEntity
  8
0
  6
Continuous
 62
     7
 48
2.0
370
    15
100
AcDbLine
 10
8.166215707
 20
9.7370561689
 30
0.0
 11
8.1657665503
 21
9.6773025494
 31
0.0
  0
LINE
  5
B0
330
1F
100
AcDbEntity
  8
0
  6
Continuous
 62
     7
 48
2.0
370
    15
100
AcDbLine
 10
8.1875214751
 20
9.6552180923
 30
0.0
 11
8.2472750946
 21
9.6547689356
 31
0.0
  0
LINE
  5
B1
330
1F
100
AcDbEntity
  8
0
  6
Continuous
 62
     7
 48
2.0
370
    15
100
AcDbLine
 10
8.2478890175
 20
9.736442246
 30
0.0
 11
8.2259693265
 21
9.7366070122
 31
0.0
  0
LINE
  5
B2
330
1F
100
AcDbEntity
  8
0
  6
Continuous
 62
     7
 48
2.0
370
    15
100
AcDbLine
 10
8.2477242513
 20
9.7145225551
 30
0.0
 11
8.2478890175
 21
9.736442246
 31
0.0
  0
LINE
  5
B3
330
1F
100
AcDbEntity
  8
0
  6
Continuous
 62
     7
 48
2.0
370
    15
100
AcDbLine
 10
8.1657665503
 20
9.6773025494
 30
0.0
 11
8.1656017842
 21
9.6553828585
 31
0.0
  0
LINE
  5
B4
330
1F
100
AcDbEntity
  8
0
  6
Continuous
 62
     7
 48
2.0
370
    15
100
AcDbLine
 10
8.1656017842
 20
9.6553828585
 30
0.0
 11
8.1875214751
 21
9.6552180923
 31
0.0
  0
CIRCLE
  5
B5
330
1F
100
AcDbEntity
  8
0
  6
Continuous
 62
     7
 48
4.0
370
    15
100
AcDbCircle
 10
8.2067454008
 20
9.6959125523
 30
0.0
 40
0.1864999999999991
  0
DIMENSION
  5
B6
330
1F
100
AcDbEntity
  8
0
  6
Continuous
 62
     7
 48
2.0
370
     0
100
AcDbDimension
  2
*D5
 10
11.9567454008
 20
13.3969958935
 30
0.0
 11
9.9567454008
 21
13.3969958935
 31
0.0
 70
   160
 71
     2
 42
-1.0
  3
SLDDIMSTYLE0
100
AcDbAlignedDimension
 13
7.9567454008
 23
12.6959125523
 33
0.0
 14
11.9567454008
 24
12.6959125523
 34
0.0
100
AcDbRotatedDimension
  0
DIMENSION
  5
C9
330
1F
100
AcDbEntity
  8
0
  6
Continuous
 62
     7
 48
2.0
370
     0
100
AcDbDimension
  2
*D6
 10
12.757890354
 20
6.6959125523
 30
0.0
 11
12.757890354
 21
9.6959125523
 31
0.0
 70
   160
 71
     2
 42
-1.0
  3
SLDDIMSTYLE0
100
AcDbAlignedDimension
 13
11.9567454008
 23
12.6959125523
 33
0.0
 14
11.9567454008
 24
6.6959125523
 34
0.0
 50
90.0
100
AcDbRotatedDimension
  0
INSERT
  5
E3
102
{ACAD_REACTORS
330
E5
102
}
330
1F
100
AcDbEntity
  8
0
  6
Continuous
 62
     7
 48
2.0
370
     0
100
AcDbBlockReference
  2
SW_NOTE_4
 10
13.1852688902
 20
4.9440999242
 30
0.0
  0
LEADER
  5
E5
330
1F
100
AcDbEntity
  8
0
  6
Continuous
 62
     7
 48
2.0
370
     0
100
AcDbLeader
  3
SLDDIMSTYLE1
 73
     2
 76
     3
 10
11.7617155909
 20
9.5176977151
 30
0.0
 10
12.6852688902
 20
4.9440999242
 30
0.0
 10
13.1852688902
 20
4.9440999242
 30
0.0
340
E3
  0
LINE
  5
E6
330
1F
100
AcDbEntity
  8
0
  6
Continuous
 62
     7
 48
2.0
370
    15
100
AcDbLine
 10
11.8932454008
 20
14.4275123159
 30
0.0
 11
11.8932454008
 21
14.4608436279
 31
0.0
  0
LINE
  5
E7
330
1F
100
AcDbEntity
  8
0
  6
Continuous
 62
     7
 48
2.0
370
    15
100
AcDbLine
 10
11.5202454008
 20
14.4608436279
 30
0.0
 11
11.5202454008
 21
14.4275123159
 31
0.0
  0
ARC
  5
E8
330
1F
100
AcDbEntity
  8
0
  6
Continuous
 62
     7
 48
4.0
370
    15
100
AcDbCircle
 10
11.8782454008
 20
14.4275123159
 30
0.0
 40
0.0149999999999991
100
AcDbArc
 50
322.550643686
 51
0.0
  0
ARC
  5
E9
330
1F
100
AcDbEntity
  8
0
  6
Continuous
 62
     7
 48
4.0
370
    15
100
AcDbCircle
 10
11.5352454008
 20
14.4275123159
 30
0.0
 40
0.0150000000000006
100
AcDbArc
 50
180.0
 51
217.449356314
  0
ARC
  5
EA
330
1F
100
AcDbEntity
  8
0
  6
Continuous
 62
     7
 48
4.0
370
    15
100
AcDbCircle
 10
11.7067454008
 20
14.5588682148
 30
0.0
 40
0.2310245869783039
100
AcDbArc
 50
280.1818657166
 51
322.550643686
  0
ARC
  5
EB
330
1F
100
AcDbEntity
  8
0
  6
Continuous
 62
     7
 48
4.0
370
    15
100
AcDbCircle
 10
11.7067454008
 20
14.5588682148
 30
0.0
 40
0.2310245869783036
100
AcDbArc
 50
217.449356314
 51
259.8181342834
  0
LINE
  5
EC
330
1F
100
AcDbEntity
  8
0
  6
Continuous
 62
     7
 48
2.0
370
    15
100
AcDbLine
 10
11.7757454008
 20
14.5848436279
 30
0.0
 11
11.7757454008
 21
14.6618436279
 31
0.0
  0
LINE
  5
ED
330
1F
100
AcDbEntity
  8
0
  6
Continuous
 62
     7
 48
2.0
370
    15
100
AcDbLine
 10
11.6377454008
 20
14.6618436279
 30
0.0
 11
11.6377454008
 21
14.5848436279
 31
0.0
  0
LINE
  5
EE
330
1F
100
AcDbEntity
  8
0
  6
Continuous
 62
     7
 48
2.0
370
    15
100
AcDbLine
 10
8.3932454008
 20
14.4275123159
 30
0.0
 11
8.3932454008
 21
14.4608436279
 31
0.0
  0
LINE
  5
EF
330
1F
100
AcDbEntity
  8
0
  6
Continuous
 62
     7
 48
2.0
370
    15
100
AcDbLine
 10
8.0202454008
 20
14.4608436279
 30
0.0
 11
8.0202454008
 21
14.4275123159
 31
0.0
  0
ARC
  5
F0
330
1F
100
AcDbEntity
  8
0
  6
Continuous
 62
     7
 48
4.0
370
    15
100
AcDbCircle
 10
8.3782454008
 20
14.4275123159
 30
0.0
 40
0.0150000000000006
100
AcDbArc
 50
322.550643686
 51
0.0
  0
ARC
  5
F1
330
1F
100
AcDbEntity
  8
0
  6
Continuous
 62
     7
 48
4.0
370
    15
100
AcDbCircle
 10
8.0352454008
 20
14.4275123159
 30
0.0
 40
0.0149999999999991
100
AcDbArc
 50
180.0
 51
217.449356314
  0
ARC
  5
F2
330
1F
100
AcDbEntity
  8
0
  6
Continuous
 62
     7
 48
4.0
370
    15
100
AcDbCircle
 10
8.2067454008
 20
14.5588682148
 30
0.0
 40
0.2310245869783036
100
AcDbArc
 50
280.1818657166
 51
322.550643686
  0
ARC
  5
F3
330
1F
100
AcDbEntity
  8
0
  6
Continuous
 62
     7
 48
4.0
370
    15
100
AcDbCircle
 10
8.2067454008
 20
14.5588682148
 30
0.0
 40
0.2310245869783036
100
AcDbArc
 50
217.449356314
 51
259.8181342834
  0
LINE
  5
F4
330
1F
100
AcDbEntity
  8
0
  6
Continuous
 62
     7
 48
2.0
370
    15
100
AcDbLine
 10
8.2757454008
 20
14.5848436279
 30
0.0
 11
8.2757454008
 21
14.6618436279
 31
0.0
  0
LINE
  5
F5
330
1F
100
AcDbEntity
  8
0
  6
Continuous
 62
     7
 48
2.0
370
    15
100
AcDbLine
 10
8.1377454008
 20
14.6618436279
 30
0.0
 11
8.1377454008
 21
14.5848436279
 31
0.0
  0
LINE
  5
F6
330
1F
100
AcDbEntity
  8
0
  6
Continuous
 62
     7
 48
2.0
370
    15
100
AcDbLine
 10
7.9567454008
 20
14.5228436279
 30
0.0
 11
7.9567454008
 21
14.4608436279
 31
0.0
  0
LINE
  5
F7
330
1F
100
AcDbEntity
  8
0
  6
Continuous
 62
     7
 48
2.0
370
    15
100
AcDbLine
 10
11.9567454008
 20
14.5228436279
 30
0.0
 11
7.9567454008
 21
14.5228436279
 31
0.0
  0
LINE
  5
F8
330
1F
100
AcDbEntity
  8
0
  6
Continuous
 62
     7
 48
2.0
370
    15
100
AcDbLine
 10
11.9567454008
 20
14.5228436279
 30
0.0
 11
11.9567454008
 21
14.4608436279
 31
0.0
  0
LINE
  5
F9
330
1F
100
AcDbEntity
  8
0
  6
Continuous
 62
     7
 48
2.0
370
    15
100
AcDbLine
 10
11.9567454008
 20
14.4608436279
 30
0.0
 11
7.9567454008
 21
14.4608436279
 31
0.0
  0
LINE
  5
FA
330
1F
100
AcDbEntity
  8
0
  6
Continuous
 62
     7
 48
2.0
370
    15
100
AcDbLine
 10
11.4257454008
 20
14.6618436279
 30
0.0
 11
11.8177454008
 21
14.6618436279
 31
0.0
  0
LINE
  5
FB
330
1F
100
AcDbEntity
  8
0
  6
Continuous
 62
     7
 48
2.0
370
    15
100
AcDbLine
 10
11.4257454008
 20
14.5998436279
 30
0.0
 11
11.4257454008
 21
14.6618436279
 31
0.0
  0
LINE
  5
FC
330
1F
100
AcDbEntity
  8
0
  6
Continuous
 62
     7
 48
2.0
370
    15
100
AcDbLine
 10
8.4877454008
 20
14.5998436279
 30
0.0
 11
8.4877454008
 21
14.6618436279
 31
0.0
  0
LINE
  5
FD
330
1F
100
AcDbEntity
  8
0
  6
Continuous
 62
     7
 48
2.0
370
    15
100
AcDbLine
 10
8.4877454008
 20
14.6618436279
 30
0.0
 11
8.0957454008
 21
14.6618436279
 31
0.0
  0
LINE
  5
FE
330
1F
100
AcDbEntity
  8
0
  6
Continuous
 62
     7
 48
2.0
370
    15
100
AcDbLine
 10
11.8177454008
 20
18.3838436279
 30
0.0
 11
11.8947454008
 21
18.3838436279
 31
0.0
  0
LINE
  5
FF
330
1F
100
AcDbEntity
  8
0
  6
Continuous
 62
     7
 48
2.0
370
    15
100
AcDbLine
 10
11.8947454008
 20
14.6618436279
 30
0.0
 11
11.8177454008
 21
14.6618436279
 31
0.0
  0
LINE
  5
100
330
1F
100
AcDbEntity
  8
0
  6
Continuous
 62
     7
 48
2.0
370
    15
100
AcDbLine
 10
8.0187454008
 20
14.6618436279
 30
0.0
 11
8.0957454008
 21
14.6618436279
 31
0.0
  0
LINE
  5
101
330
1F
100
AcDbEntity
  8
0
  6
Continuous
 62
     7
 48
2.0
370
    15
100
AcDbLine
 10
8.0957454008
 20
18.3838436279
 30
0.0
 11
8.0187454008
 21
18.3838436279
 31
0.0
  0
LINE
  5
102
330
1F
100
AcDbEntity
  8
0
  6
Continuous
 62
     7
 48
2.0
370
    15
100
AcDbLine
 10
8.0957454008
 20
18.4608436279
 30
0.0
 11
8.0957454008
 21
18.3838436279
 31
0.0
  0
LINE
  5
103
330
1F
100
AcDbEntity
  8
0
  6
Continuous
 62
     7
 48
2.0
370
    15
100
AcDbLine
 10
11.8177454008
 20
18.4608436279
 30
0.0
 11
11.8177454008
 21
18.3838436279
 31
0.0
  0
LINE
  5
104
330
1F
100
AcDbEntity
  8
0
  6
Continuous
 62
     7
 48
2.0
370
    15
100
AcDbLine
 10
11.4257454008
 20
14.5998436279
 30
0.0
 11
11.4257454008
 21
14.5228436279
 31
0.0
  0
LINE
  5
105
330
1F
100
AcDbEntity
  8
0
  6
Continuous
 62
     7
 48
2.0
370
    15
100
AcDbLine
 10
8.4877454008
 20
14.5998436279
 30
0.0
 11
8.4877454008
 21
14.5228436279
 31
0.0
  0
LINE
  5
106
330
1F
100
AcDbEntity
  8
0
  6
Continuous
 62
     7
 48
2.0
370
    15
100
AcDbLine
 10
11.8947454008
 20
14.5998436279
 30
0.0
 11
11.8947454008
 21
18.4458436279
 31
0.0
  0
LINE
  5
107
330
1F
100
AcDbEntity
  8
0
  6
Continuous
 62
     7
 48
2.0
370
    15
100
AcDbLine
 10
11.9567454008
 20
14.5998436279
 30
0.0
 11
11.9567454008
 21
18.4458436279
 31
0.0
  0
ARC
  5
108
330
1F
100
AcDbEntity
  8
0
  6
Continuous
 62
     7
 48
4.0
370
    15
100
AcDbCircle
 10
11.8797454008
 20
18.4458436279
 30
0.0
 40
0.0150000000000006
100
AcDbArc
 50
0.0
 51
90.0
  0
ARC
  5
109
330
1F
100
AcDbEntity
  8
0
  6
Continuous
 62
     7
 48
4.0
370
    15
100
AcDbCircle
 10
11.8797454008
 20
18.4458436279
 30
0.0
 40
0.0770000000000017
100
AcDbArc
 50
0.0
 51
90.0
  0
LINE
  5
10A
330
1F
100
AcDbEntity
  8
0
  6
Continuous
 62
     7
 48
2.0
370
    15
100
AcDbLine
 10
8.0187454008
 20
18.4458436279
 30
0.0
 11
8.0187454008
 21
14.5998436279
 31
0.0
  0
LINE
  5
10B
330
1F
100
AcDbEntity
  8
0
  6
Continuous
 62
     7
 48
2.0
370
    15
100
AcDbLine
 10
7.9567454008
 20
18.4458436279
 30
0.0
 11
7.9567454008
 21
14.5998436279
 31
0.0
  0
LINE
  5
10C
330
1F
100
AcDbEntity
  8
0
  6
Continuous
 62
     7
 48
2.0
370
    15
100
AcDbLine
 10
11.8797454008
 20
18.4608436279
 30
0.0
 11
8.0337454008
 21
18.4608436279
 31
0.0
  0
LINE
  5
10D
330
1F
100
AcDbEntity
  8
0
  6
Continuous
 62
     7
 48
2.0
370
    15
100
AcDbLine
 10
11.8797454008
 20
18.5228436279
 30
0.0
 11
8.0337454008
 21
18.5228436279
 31
0.0
  0
ARC
  5
10E
330
1F
100
AcDbEntity
  8
0
  6
Continuous
 62
     7
 48
4.0
370
    15
100
AcDbCircle
 10
8.0337454008
 20
18.4458436279
 30
0.0
 40
0.0770000000000017
100
AcDbArc
 50
90.0
 51
180.0
  0
ARC
  5
10F
330
1F
100
AcDbEntity
  8
0
  6
Continuous
 62
     7
 48
4.0
370
    15
100
AcDbCircle
 10
8.0337454008
 20
18.4458436279
 30
0.0
 40
0.0150000000000006
100
AcDbArc
 50
90.0
 51
180.0
  0
LINE
  5
110
330
1F
100
AcDbEntity
  8
0
  6
Continuous
 62
     7
 48
2.0
370
    15
100
AcDbLine
 10
11.4567454008
 20
14.5228436279
 30
0.0
 11
11.8797454008
 21
14.5228436279
 31
0.0
  0
LINE
  5
111
330
1F
100
AcDbEntity
  8
0
  6
Continuous
 62
     7
 48
2.0
370
    15
100
AcDbLine
 10
11.4567454008
 20
14.5848436279
 30
0.0
 11
11.8797454008
 21
14.5848436279
 31
0.0
  0
LINE
  5
112
330
1F
100
AcDbEntity
  8
0
  6
Continuous
 62
     7
 48
2.0
370
    15
100
AcDbLine
 10
11.4567454008
 20
14.5228436279
 30
0.0
 11
11.4567454008
 21
14.5848436279
 31
0.0
  0
LINE
  5
113
330
1F
100
AcDbEntity
  8
0
  6
Continuous
 62
     7
 48
2.0
370
    15
100
AcDbLine
 10
8.0337454008
 20
14.5228436279
 30
0.0
 11
8.4567454008
 21
14.5228436279
 31
0.0
  0
LINE
  5
114
330
1F
100
AcDbEntity
  8
0
  6
Continuous
 62
     7
 48
2.0
370
    15
100
AcDbLine
 10
8.0337454008
 20
14.5848436279
 30
0.0
 11
8.4567454008
 21
14.5848436279
 31
0.0
  0
LINE
  5
115
330
1F
100
AcDbEntity
  8
0
  6
Continuous
 62
     7
 48
2.0
370
    15
100
AcDbLine
 10
8.4567454008
 20
14.5848436279
 30
0.0
 11
8.4567454008
 21
14.5228436279
 31
0.0
  0
ARC
  5
116
330
1F
100
AcDbEntity
  8
0
  6
Continuous
 62
     7
 48
4.0
370
    15
100
AcDbCircle
 10
11.8797454008
 20
14.5998436279
 30
0.0
 40
0.0149999999999988
100
AcDbArc
 50
270.0
 51
0.0
  0
ARC
  5
117
330
1F
100
AcDbEntity
  8
0
  6
Continuous
 62
     7
 48
4.0
370
    15
100
AcDbCircle
 10
11.8797454008
 20
14.5998436279
 30
0.0
 40
0.0769999999999982
100
AcDbArc
 50
270.0
 51
0.0
  0
ARC
  5
118
330
1F
100
AcDbEntity
  8
0
  6
Continuous
 62
     7
 48
4.0
370
    15
100
AcDbCircle
 10
8.0337454008
 20
14.5998436279
 30
0.0
 40
0.0770000000000008
100
AcDbArc
 50
180.0
 51
270.0
  0
ARC
  5
119
330
1F
100
AcDbEntity
  8
0
  6
Continuous
 62
     7
 48
4.0
370
    15
100
AcDbCircle
 10
8.0337454008
 20
14.5998436279
 30
0.0
 40
0.0150000000000006
100
AcDbArc
 50
180.0
 51
270.0
  0
ARC
  5
11A
330
1F
100
AcDbEntity
  8
0
  6
Continuous
 62
     7
 48
4.0
370
    15
100
AcDbCircle
 10
11.7301123505
 20
14.4788412864
 30
0.0
 40
0.1526339785896345
100
AcDbArc
 50
217.0400188158
 51
253.7971257354
  0
LINE
  5
11B
330
1F
100
AcDbEntity
  8
0
  6
Continuous
 62
     7
 48
2.0
370
    15
100
AcDbLine
 10
11.5865226988
 20
14.386898746
 30
0.0
 11
11.6082776236
 21
14.386898746
 31
0.0
  0
ARC
  5
11C
330
1F
100
AcDbEntity
  8
0
  6
Continuous
 62
     7
 48
4.0
370
    15
100
AcDbCircle
 10
11.7083574257
 20
14.4788412864
 30
0.0
 40
0.152633978589637
100
AcDbArc
 50
217.0400188158
 51
253.7971257354
  0
LWPOLYLINE
  5
11D
330
1F
100
AcDbEntity
  8
0
  6
Continuous
 62
     7
 48
2.0
370
    15
100
AcDbPolyline
 90
        9
 70
   128
 43
0.0
 10
11.6657665503
 20
14.332269977
 10
11.6658227965
 20
14.3317693733
 10
11.6658791362
 20
14.3315158102
 10
11.6659355081
 20
14.3315095636
 10
11.6659918509
 20
14.3317506403
 10
11.6660481033
 20
14.3322387779
 10
11.6661042041
 20
14.3329734455
 10
11.6661600923
 20
14.333953844
 10
11.666215707
 20
14.3351789068
  0
ARC
  5
11E
330
1F
100
AcDbEntity
  8
0
  6
Continuous
 62
     7
 48
4.0
370
    15
100
AcDbCircle
 10
11.7070523914
 20
14.5588557128
 30
0.0
 40
0.2273740273473292
100
AcDbArc
 50
259.6534590255
 51
264.997570927
  0
ARC
  5
11F
330
1F
100
AcDbEntity
  8
0
  6
Continuous
 62
     7
 48
4.0
370
    15
100
AcDbCircle
 10
11.7070523617
 20
14.558855403
 30
0.0
 40
0.2273737162486435
100
AcDbArc
 50
269.9226210792
 51
274.7723921741
  0
ARC
  5
120
330
1F
100
AcDbEntity
  8
0
  6
Continuous
 62
     7
 48
4.0
370
    15
100
AcDbCircle
 10
11.7637166872
 20
14.3346928647
 30
0.0
 40
0.0164487751106169
100
AcDbArc
 50
178.3067302081
 51
191.2570106393
  0
ARC
  5
121
330
1F
100
AcDbEntity
  8
0
  6
Continuous
 62
     7
 48
4.0
370
    15
100
AcDbCircle
 10
11.7064384402
 20
14.5588554782
 30
0.0
 40
0.2273737912212821
100
AcDbArc
 50
265.2276093396
 51
280.3465441733
  0
LINE
  5
122
330
1F
100
AcDbEntity
  8
0
  6
Continuous
 62
     7
 48
2.0
370
    15
100
AcDbLine
 10
11.6657665503
 20
14.332269977
 30
0.0
 11
11.6657665503
 21
14.3401592607
 31
0.0
  0
LINE
  5
123
330
1F
100
AcDbEntity
  8
0
  6
Continuous
 62
     7
 48
2.0
370
    15
100
AcDbLine
 10
11.666215707
 20
14.3399504318
 30
0.0
 11
11.666215707
 21
14.3351789068
 31
0.0
  0
LINE
  5
124
330
1F
100
AcDbEntity
  8
0
  6
Continuous
 62
     7
 48
2.0
370
    15
100
AcDbLine
 10
11.7259693265
 20
14.3323220693
 30
0.0
 11
11.7259693265
 21
14.332269977
 31
0.0
  0
ARC
  5
125
330
1F
100
AcDbEntity
  8
0
  6
Continuous
 62
     7
 48
4.0
370
    15
100
AcDbCircle
 10
8.2064384399
 20
14.558855403
 30
0.0
 40
0.2273737162512115
100
AcDbArc
 50
265.2276078259
 51
270.0773125905
  0
ARC
  5
126
330
1F
100
AcDbEntity
  8
0
  6
Continuous
 62
     7
 48
4.0
370
    15
100
AcDbCircle
 10
8.2064384103
 20
14.5588557128
 30
0.0
 40
0.2273740273471181
100
AcDbArc
 50
275.0024290729
 51
280.3465409745
  0
LWPOLYLINE
  5
127
330
1F
100
AcDbEntity
  8
0
  6
Continuous
 62
     7
 48
2.0
370
    15
100
AcDbPolyline
 90
        9
 70
   128
 43
0.0
 10
8.2472750946
 20
14.3351789068
 10
8.2473307094
 20
14.333953844
 10
8.2473865975
 20
14.3329734455
 10
8.2474426983
 20
14.3322387779
 10
8.2474989507
 20
14.3317506403
 10
8.2475552935
 20
14.3315095636
 10
8.2476116654
 20
14.3315158102
 10
8.2476680051
 20
14.3317693733
 10
8.2477242513
 20
14.332269977
  0
ARC
  5
128
330
1F
100
AcDbEntity
  8
0
  6
Continuous
 62
     7
 48
4.0
370
    15
100
AcDbCircle
 10
8.2051333759
 20
14.4788412864
 30
0.0
 40
0.1526339785896235
100
AcDbArc
 50
286.2028742646
 51
322.9599811842
  0
LINE
  5
129
330
1F
100
AcDbEntity
  8
0
  6
Continuous
 62
     7
 48
2.0
370
    15
100
AcDbLine
 10
8.305213178
 20
14.386898746
 30
0.0
 11
8.3269681028
 21
14.386898746
 31
0.0
  0
ARC
  5
12A
330
1F
100
AcDbEntity
  8
0
  6
Continuous
 62
     7
 48
4.0
370
    15
100
AcDbCircle
 10
8.1833784512
 20
14.4788412864
 30
0.0
 40
0.1526339785896612
100
AcDbArc
 50
286.2028742646
 51
322.9599811842
  0
ARC
  5
12B
330
1F
100
AcDbEntity
  8
0
  6
Continuous
 62
     7
 48
4.0
370
    15
100
AcDbCircle
 10
8.2070523615
 20
14.5588554782
 30
0.0
 40
0.2273737912212765
100
AcDbArc
 50
259.6534558267
 51
274.7723906604
  0
ARC
  5
12C
330
1F
100
AcDbEntity
  8
0
  6
Continuous
 62
     7
 48
4.0
370
    15
100
AcDbCircle
 10
8.1497741145
 20
14.3346928647
 30
0.0
 40
0.0164487751109234
100
AcDbArc
 50
348.7429893609
 51
1.6932697919
  0
LINE
  5
12D
330
1F
100
AcDbEntity
  8
0
  6
Continuous
 62
     7
 48
2.0
370
    15
100
AcDbLine
 10
8.2477242513
 20
14.3401592607
 30
0.0
 11
8.2477242513
 21
14.332269977
 31
0.0
  0
LINE
  5
12E
330
1F
100
AcDbEntity
  8
0
  6
Continuous
 62
     7
 48
2.0
370
    15
100
AcDbLine
 10
8.2472750946
 20
14.3399504318
 30
0.0
 11
8.2472750946
 21
14.3351789068
 31
0.0
  0
LINE
  5
12F
330
1F
100
AcDbEntity
  8
0
  6
Continuous
 62
     7
 48
2.0
370
    15
100
AcDbLine
 10
8.1875214751
 20
14.332269977
 30
0.0
 11
8.1875214751
 21
14.3323220693
 31
0.0
  0
DIMENSION
  5
130
330
1F
100
AcDbEntity
  8
0
  6
Continuous
 62
     7
 48
2.0
370
     0
100
AcDbDimension
  2
*D8
 10
12.6801654777
 20
14.5228436279
 30
0.0
 11
12.6801654777
 21
16.5228436279
 31
0.0
 70
   160
 71
     2
 42
-1.0
  3
SLDDIMSTYLE0
100
AcDbAlignedDimension
 13
11.8797454008
 23
18.5228436279
 33
0.0
 14
11.9567454008
 24
14.5228436279
 34
0.0
 50
90.0
100
AcDbRotatedDimension
  0
LINE
  5
142
330
1F
100
AcDbEntity
  8
0
  6
Continuous
 62
     7
 48
2.0
370
    15
100
AcDbLine
 10
20.5785062201
 20
9.5094125523
 30
0.0
 11
20.6118375321
 21
9.5094125523
 31
0.0
  0
LINE
  5
143
330
1F
100
AcDbEntity
  8
0
  6
Continuous
 62
     7
 48
2.0
370
    15
100
AcDbLine
 10
20.6118375321
 20
9.8824125523
 30
0.0
 11
20.5785062201
 21
9.8824125523
 31
0.0
  0
ARC
  5
144
330
1F
100
AcDbEntity
  8
0
  6
Continuous
 62
     7
 48
4.0
370
    15
100
AcDbCircle
 10
20.5785062201
 20
9.5244125523
 30
0.0
 40
0.0150000000000013
100
AcDbArc
 50
232.550643686
 51
270.0
  0
ARC
  5
145
330
1F
100
AcDbEntity
  8
0
  6
Continuous
 62
     7
 48
4.0
370
    15
100
AcDbCircle
 10
20.5785062201
 20
9.8674125523
 30
0.0
 40
0.0150000000000027
100
AcDbArc
 50
90.0
 51
127.449356314
  0
ARC
  5
146
330
1F
100
AcDbEntity
  8
0
  6
Continuous
 62
     7
 48
4.0
370
    15
100
AcDbCircle
 10
20.7098621191
 20
9.6959125523
 30
0.0
 40
0.2310245869783059
100
AcDbArc
 50
190.1818657166
 51
232.550643686
  0
ARC
  5
147
330
1F
100
AcDbEntity
  8
0
  6
Continuous
 62
     7
 48
4.0
370
    15
100
AcDbCircle
 10
20.7098621191
 20
9.6959125523
 30
0.0
 40
0.2310245869783059
100
AcDbArc
 50
127.449356314
 51
169.8181342834
  0
LINE
  5
148
330
1F
100
AcDbEntity
  8
0
  6
Continuous
 62
     7
 48
2.0
370
    15
100
AcDbLine
 10
20.6738375321
 20
12.6959125523
 30
0.0
 11
20.6118375321
 21
12.6959125523
 31
0.0
  0
LINE
  5
149
330
1F
100
AcDbEntity
  8
0
  6
Continuous
 62
     7
 48
2.0
370
    15
100
AcDbLine
 10
20.6738375321
 20
6.6959125523
 30
0.0
 11
20.6738375321
 21
12.6959125523
 31
0.0
  0
LINE
  5
14A
330
1F
100
AcDbEntity
  8
0
  6
Continuous
 62
     7
 48
2.0
370
    15
100
AcDbLine
 10
20.6118375321
 20
6.6959125523
 30
0.0
 11
20.6118375321
 21
12.6959125523
 31
0.0
  0
LINE
  5
14B
330
1F
100
AcDbEntity
  8
0
  6
Continuous
 62
     7
 48
2.0
370
    15
100
AcDbLine
 10
20.6738375321
 20
6.6959125523
 30
0.0
 11
20.6118375321
 21
6.6959125523
 31
0.0
  0
LINE
  5
14C
330
1F
100
AcDbEntity
  8
0
  6
Continuous
 62
     7
 48
2.0
370
    15
100
AcDbLine
 10
20.7508375321
 20
12.6959125523
 30
0.0
 11
24.5968375321
 21
12.6959125523
 31
0.0
  0
LINE
  5
14D
330
1F
100
AcDbEntity
  8
0
  6
Continuous
 62
     7
 48
2.0
370
    15
100
AcDbLine
 10
20.7508375321
 20
6.6959125523
 30
0.0
 11
24.5968375321
 21
6.6959125523
 31
0.0
  0
LINE
  5
14E
330
1F
100
AcDbEntity
  8
0
  6
Continuous
 62
     7
 48
2.0
370
    15
100
AcDbLine
 10
24.5968375321
 20
12.6959125523
 30
0.0
 11
24.6738375321
 21
12.6959125523
 31
0.0
  0
LINE
  5
14F
330
1F
100
AcDbEntity
  8
0
  6
Continuous
 62
     7
 48
2.0
370
    15
100
AcDbLine
 10
24.6738375321
 20
12.6959125523
 30
0.0
 11
24.6738375321
 21
6.6959125523
 31
0.0
  0
LINE
  5
150
330
1F
100
AcDbEntity
  8
0
  6
Continuous
 62
     7
 48
2.0
370
    15
100
AcDbLine
 10
24.5968375321
 20
6.6959125523
 30
0.0
 11
24.6738375321
 21
6.6959125523
 31
0.0
  0
LINE
  5
151
330
1F
100
AcDbEntity
  8
0
  6
Continuous
 62
     7
 48
2.0
370
    15
100
AcDbLine
 10
20.6738375321
 20
12.6959125523
 30
0.0
 11
20.7508375321
 21
12.6959125523
 31
0.0
  0
LINE
  5
152
330
1F
100
AcDbEntity
  8
0
  6
Continuous
 62
     7
 48
2.0
370
    15
100
AcDbLine
 10
20.6738375321
 20
6.6959125523
 30
0.0
 11
20.7508375321
 21
6.6959125523
 31
0.0
  0
ARC
  5
153
330
1F
100
AcDbEntity
  8
0
  6
Continuous
 62
     7
 48
4.0
370
    15
100
AcDbCircle
 10
20.7098494526
 20
9.6956055977
 30
0.0
 40
0.2273738616151139
100
AcDbArc
 50
179.9227764519
 51
190.3465428917
  0
ARC
  5
154
330
1F
100
AcDbEntity
  8
0
  6
Continuous
 62
     7
 48
4.0
370
    15
100
AcDbCircle
 10
20.483113877
 20
9.6538149196
 30
0.0
 40
0.0014111679303415
100
AcDbArc
 50
83.8980488669
 51
116.8825843001
  0
ARC
  5
155
330
1F
100
AcDbEntity
  8
0
  6
Continuous
 62
     7
 48
4.0
370
    15
100
AcDbCircle
 10
20.6273924155
 20
9.6979360043
 30
0.0
 40
0.1503258275123067
100
AcDbArc
 50
196.5091709682
 51
233.4608553336
  0
LINE
  5
156
330
1F
100
AcDbEntity
  8
0
  6
Continuous
 62
     7
 48
2.0
370
    15
100
AcDbLine
 10
20.5378926502
 20
9.599241132
 30
0.0
 11
20.5378926502
 21
9.5771566749
 31
0.0
  0
ARC
  5
157
330
1F
100
AcDbEntity
  8
0
  6
Continuous
 62
     7
 48
4.0
370
    15
100
AcDbCircle
 10
20.6273924155
 20
9.7200204614
 30
0.0
 40
0.1503258275123082
100
AcDbArc
 50
196.5091709682
 51
233.4608553336
  0
ARC
  5
158
330
1F
100
AcDbEntity
  8
0
  6
Continuous
 62
     7
 48
4.0
370
    15
100
AcDbCircle
 10
20.7098493824
 20
9.6962195145
 30
0.0
 40
0.2273737912212606
100
AcDbArc
 50
169.6534558267
 51
184.7723906604
  0
LWPOLYLINE
  5
159
330
1F
100
AcDbEntity
  8
0
  6
Continuous
 62
     7
 48
2.0
370
    15
100
AcDbPolyline
 90
        9
 70
   128
 43
0.0
 10
20.486172811
 20
9.7370561689
 10
20.4849477482
 20
9.7370005542
 10
20.4839673498
 20
9.736944666
 10
20.4832326821
 20
9.7368885652
 10
20.4827445445
 20
9.7368323128
 10
20.4825034678
 20
9.73677597
 10
20.4825097144
 20
9.7367195981
 10
20.4827632775
 20
9.7366632584
 10
20.4832638812
 20
9.7366070122
  0
LINE
  5
15A
330
1F
100
AcDbEntity
  8
0
  6
Continuous
 62
     7
 48
2.0
370
    15
100
AcDbLine
 10
20.4914656089
 20
9.6552180923
 30
0.0
 11
20.4832638812
 21
9.6552180923
 31
0.0
  0
LINE
  5
15B
330
1F
100
AcDbEntity
  8
0
  6
Continuous
 62
     7
 48
2.0
370
    15
100
AcDbLine
 10
20.4860912743
 20
9.7366070122
 30
0.0
 11
20.4832638812
 21
9.7366070122
 31
0.0
  0
LINE
  5
15C
330
1F
100
AcDbEntity
  8
0
  6
HIDDEN
 62
     7
 48
2.0
370
     0
100
AcDbLine
 10
20.6738375321
 20
9.5838625444
 30
0.0
 11
20.6118375321
 21
9.5838625444
 31
0.0
  0
LINE
  5
15D
330
1F
100
AcDbEntity
  8
0
  6
HIDDEN
 62
     7
 48
2.0
370
     0
100
AcDbLine
 10
24.5348375321
 20
12.2579125523
 30
0.0
 11
20.8128375321
 21
12.2579125523
 31
0.0
  0
LINE
  5
15E
330
1F
100
AcDbEntity
  8
0
  6
HIDDEN
 62
     7
 48
2.0
370
     0
100
AcDbLine
 10
20.8128375321
 20
12.2579125523
 30
0.0
 11
20.8128375321
 21
12.6189125523
 31
0.0
  0
LINE
  5
15F
330
1F
100
AcDbEntity
  8
0
  6
HIDDEN
 62
     7
 48
2.0
370
     0
100
AcDbLine
 10
24.5348375321
 20
12.6189125523
 30
0.0
 11
24.5348375321
 21
12.2579125523
 31
0.0
  0
LINE
  5
160
330
1F
100
AcDbEntity
  8
0
  6
HIDDEN
 62
     7
 48
2.0
370
     0
100
AcDbLine
 10
20.8128375321
 20
12.6189125523
 30
0.0
 11
20.8128375321
 21
12.6959125523
 31
0.0
  0
LINE
  5
161
330
1F
100
AcDbEntity
  8
0
  6
HIDDEN
 62
     7
 48
2.0
370
     0
100
AcDbLine
 10
24.5348375321
 20
12.6959125523
 30
0.0
 11
24.5348375321
 21
12.6189125523
 31
0.0
  0
LINE
  5
162
330
1F
100
AcDbEntity
  8
0
  6
HIDDEN
 62
     7
 48
2.0
370
     0
100
AcDbLine
 10
20.8128375321
 20
12.6339125523
 30
0.0
 11
24.5348375321
 21
12.6339125523
 31
0.0
  0
ARC
  5
163
330
1F
100
AcDbEntity
  8
0
  6
HIDDEN
 62
     7
 48
4.0
370
     0
100
AcDbCircle
 10
24.5348375321
 20
12.6189125523
 30
0.0
 40
0.0770000000000017
100
AcDbArc
 50
0.0
 51
90.0
  0
ARC
  5
164
330
1F
100
AcDbEntity
  8
0
  6
HIDDEN
 62
     7
 48
4.0
370
     0
100
AcDbCircle
 10
24.5348375321
 20
12.6189125523
 30
0.0
 40
0.0150000000000041
100
AcDbArc
 50
0.0
 51
90.0
  0
LINE
  5
165
330
1F
100
AcDbEntity
  8
0
  6
HIDDEN
 62
     7
 48
2.0
370
     0
100
AcDbLine
 10
24.6118375321
 20
12.2579125523
 30
0.0
 11
24.5498375321
 21
12.2579125523
 31
0.0
  0
LINE
  5
166
330
1F
100
AcDbEntity
  8
0
  6
HIDDEN
 62
     7
 48
2.0
370
     0
100
AcDbLine
 10
24.5498375321
 20
12.2579125523
 30
0.0
 11
24.5498375321
 21
12.6189125523
 31
0.0
  0
LINE
  5
167
330
1F
100
AcDbEntity
  8
0
  6
HIDDEN
 62
     7
 48
2.0
370
     0
100
AcDbLine
 10
20.7508375321
 20
12.6339125523
 30
0.0
 11
20.8128375321
 21
12.6339125523
 31
0.0
  0
ARC
  5
168
330
1F
100
AcDbEntity
  8
0
  6
HIDDEN
 62
     7
 48
4.0
370
     0
100
AcDbCircle
 10
20.7508375321
 20
12.6189125523
 30
0.0
 40
0.0770000000000053
100
AcDbArc
 50
90.0
 51
180.0
  0
ARC
  5
169
330
1F
100
AcDbEntity
  8
0
  6
HIDDEN
 62
     7
 48
4.0
370
     0
100
AcDbCircle
 10
20.7508375321
 20
12.6189125523
 30
0.0
 40
0.0150000000000006
100
AcDbArc
 50
90.0
 51
180.0
  0
LINE
  5
16A
330
1F
100
AcDbEntity
  8
0
  6
HIDDEN
 62
     7
 48
2.0
370
     0
100
AcDbLine
 10
20.6738375321
 20
12.1959125523
 30
0.0
 11
20.7358375321
 21
12.1959125523
 31
0.0
  0
LINE
  5
16B
330
1F
100
AcDbEntity
  8
0
  6
HIDDEN
 62
     7
 48
2.0
370
     0
100
AcDbLine
 10
20.8128375321
 20
7.1339125523
 30
0.0
 11
20.8128375321
 21
6.7729125523
 31
0.0
  0
LINE
  5
16C
330
1F
100
AcDbEntity
  8
0
  6
HIDDEN
 62
     7
 48
2.0
370
     0
100
AcDbLine
 10
24.5348375321
 20
7.1339125523
 30
0.0
 11
20.8128375321
 21
7.1339125523
 31
0.0
  0
LINE
  5
16D
330
1F
100
AcDbEntity
  8
0
  6
HIDDEN
 62
     7
 48
2.0
370
     0
100
AcDbLine
 10
24.5348375321
 20
6.7729125523
 30
0.0
 11
24.5348375321
 21
7.1339125523
 31
0.0
  0
LINE
  5
16E
330
1F
100
AcDbEntity
  8
0
  6
HIDDEN
 62
     7
 48
2.0
370
     0
100
AcDbLine
 10
20.8128375321
 20
6.7729125523
 30
0.0
 11
20.8128375321
 21
6.6959125523
 31
0.0
  0
LINE
  5
16F
330
1F
100
AcDbEntity
  8
0
  6
HIDDEN
 62
     7
 48
2.0
370
     0
100
AcDbLine
 10
24.5348375321
 20
6.6959125523
 30
0.0
 11
24.5348375321
 21
6.7729125523
 31
0.0
  0
LINE
  5
170
330
1F
100
AcDbEntity
  8
0
  6
HIDDEN
 62
     7
 48
2.0
370
     0
100
AcDbLine
 10
20.8128375321
 20
6.7579125523
 30
0.0
 11
24.5348375321
 21
6.7579125523
 31
0.0
  0
LINE
  5
171
330
1F
100
AcDbEntity
  8
0
  6
HIDDEN
 62
     7
 48
2.0
370
     0
100
AcDbLine
 10
24.5498375321
 20
7.1339125523
 30
0.0
 11
24.5498375321
 21
6.7729125523
 31
0.0
  0
LINE
  5
172
330
1F
100
AcDbEntity
  8
0
  6
HIDDEN
 62
     7
 48
2.0
370
     0
100
AcDbLine
 10
24.6118375321
 20
7.1339125523
 30
0.0
 11
24.5498375321
 21
7.1339125523
 31
0.0
  0
ARC
  5
173
330
1F
100
AcDbEntity
  8
0
  6
HIDDEN
 62
     7
 48
4.0
370
     0
100
AcDbCircle
 10
24.5348375321
 20
6.7729125523
 30
0.0
 40
0.0150000000000041
100
AcDbArc
 50
270.0
 51
0.0
  0
ARC
  5
174
330
1F
100
AcDbEntity
  8
0
  6
HIDDEN
 62
     7
 48
4.0
370
     0
100
AcDbCircle
 10
24.5348375321
 20
6.7729125523
 30
0.0
 40
0.0770000000000017
100
AcDbArc
 50
270.0
 51
360.0
  0
LINE
  5
175
330
1F
100
AcDbEntity
  8
0
  6
HIDDEN
 62
     7
 48
2.0
370
     0
100
AcDbLine
 10
20.7508375321
 20
6.7579125523
 30
0.0
 11
20.8128375321
 21
6.7579125523
 31
0.0
  0
LINE
  5
176
330
1F
100
AcDbEntity
  8
0
  6
HIDDEN
 62
     7
 48
2.0
370
     0
100
AcDbLine
 10
20.6738375321
 20
7.1959125523
 30
0.0
 11
20.7358375321
 21
7.1959125523
 31
0.0
  0
ARC
  5
177
330
1F
100
AcDbEntity
  8
0
  6
HIDDEN
 62
     7
 48
4.0
370
     0
100
AcDbCircle
 10
20.7508375321
 20
6.7729125523
 30
0.0
 40
0.0150000000000041
100
AcDbArc
 50
180.0
 51
270.0
  0
ARC
  5
178
330
1F
100
AcDbEntity
  8
0
  6
HIDDEN
 62
     7
 48
4.0
370
     0
100
AcDbCircle
 10
20.7508375321
 20
6.7729125523
 30
0.0
 40
0.0770000000000053
100
AcDbArc
 50
180.0
 51
270.0
  0
LINE
  5
179
330
1F
100
AcDbEntity
  8
0
  6
HIDDEN
 62
     7
 48
2.0
370
     0
100
AcDbLine
 10
24.6118375321
 20
12.6959125523
 30
0.0
 11
24.6118375321
 21
6.6959125523
 31
0.0
  0
LINE
  5
17A
330
1F
100
AcDbEntity
  8
0
  6
HIDDEN
 62
     7
 48
2.0
370
     0
100
AcDbLine
 10
20.7358375321
 20
12.6959125523
 30
0.0
 11
20.7358375321
 21
6.6959125523
 31
0.0
  0
LINE
  5
17B
330
1F
100
AcDbEntity
  8
0
  6
HIDDEN
 62
     7
 48
2.0
370
     0
100
AcDbLine
 10
24.4418375321
 20
10.6959125523
 30
0.0
 11
24.4418375321
 21
10.9929702659
 31
0.0
  0
LINE
  5
17C
330
1F
100
AcDbEntity
  8
0
  6
HIDDEN
 62
     7
 48
2.0
370
     0
100
AcDbLine
 10
24.4418375321
 20
10.3988548386
 30
0.0
 11
24.4418375321
 21
10.6959125523
 31
0.0
  0
LINE
  5
17D
330
1F
100
AcDbEntity
  8
0
  6
HIDDEN
 62
     7
 48
2.0
370
     0
100
AcDbLine
 10
24.5038375321
 20
10.3988548386
 30
0.0
 11
24.5038375321
 21
10.9929702632
 31
0.0
  0
LINE
  5
17E
330
1F
100
AcDbEntity
  8
0
  6
HIDDEN
 62
     7
 48
2.0
370
     0
100
AcDbLine
 10
24.569790288
 20
10.6959125523
 30
0.0
 11
24.569790288
 21
10.8429125523
 31
0.0
  0
LINE
  5
17F
330
1F
100
AcDbEntity
  8
0
  6
HIDDEN
 62
     7
 48
2.0
370
     0
100
AcDbLine
 10
24.569790288
 20
10.5489125523
 30
0.0
 11
24.569790288
 21
10.6959125523
 31
0.0
  0
ARC
  5
180
330
1F
100
AcDbEntity
  8
0
  6
HIDDEN
 62
     7
 48
4.0
370
     0
100
AcDbCircle
 10
20.6273924155
 20
9.6938891002
 30
0.0
 40
0.1503258275123081
100
AcDbArc
 50
126.5391446664
 51
163.4908290318
  0
ARC
  5
181
330
1F
100
AcDbEntity
  8
0
  6
HIDDEN
 62
     7
 48
4.0
370
     0
100
AcDbCircle
 10
20.6273924155
 20
9.6718046431
 30
0.0
 40
0.1503258275123062
100
AcDbArc
 50
126.5391446664
 51
163.4908290318
  0
ARC
  5
182
330
1F
100
AcDbEntity
  8
0
  6
HIDDEN
 62
     7
 48
4.0
370
     0
100
AcDbCircle
 10
20.7098493082
 20
9.6956055902
 30
0.0
 40
0.2273737172580001
100
AcDbArc
 50
175.2276078319
 51
179.9227745258
  0
ARC
  5
183
330
1F
100
AcDbEntity
  8
0
  6
HIDDEN
 62
     7
 48
4.0
370
     0
100
AcDbCircle
 10
20.4857264936
 20
9.6719369899
 30
0.0
 40
0.0171738548205552
100
AcDbArc
 50
259.0891355382
 51
271.4891815131
  0
LINE
  5
184
330
1F
100
AcDbEntity
  8
0
  6
HIDDEN
 62
     7
 48
2.0
370
     0
100
AcDbLine
 10
20.5378926502
 20
9.6773025494
 30
0.0
 11
20.5378926502
 21
9.599241132
 31
0.0
  0
LINE
  5
185
330
1F
100
AcDbEntity
  8
0
  6
HIDDEN
 62
     7
 48
2.0
370
     0
100
AcDbLine
 10
20.5378926502
 20
9.6552180923
 30
0.0
 11
20.4914656089
 21
9.6552180923
 31
0.0
  0
LINE
  5
186
330
1F
100
AcDbEntity
  8
0
  6
HIDDEN
 62
     7
 48
2.0
370
     0
100
AcDbLine
 10
20.8864172219
 20
9.6269125523
 30
0.0
 11
20.8864172219
 21
9.7649125523
 31
0.0
  0
LINE
  5
187
330
1F
100
AcDbEntity
  8
0
  6
HIDDEN
 62
     7
 48
2.0
370
     0
100
AcDbLine
 10
20.9238375321
 20
9.6424125523
 30
0.0
 11
20.9238375321
 21
9.7494125523
 31
0.0
  0
LINE
  5
188
330
1F
100
AcDbEntity
  8
0
  6
HIDDEN
 62
     7
 48
2.0
370
     0
100
AcDbLine
 10
20.4832638812
 20
9.6773025494
 30
0.0
 11
20.5378926502
 21
9.6773025494
 31
0.0
  0
LINE
  5
189
330
1F
100
AcDbEntity
  8
0
  6
HIDDEN
 62
     7
 48
2.0
370
     0
100
AcDbLine
 10
20.5388375321
 20
9.7370561689
 30
0.0
 11
20.5388375321
 21
9.6553828585
 31
0.0
  0
LINE
  5
18A
330
1F
100
AcDbEntity
  8
0
  6
HIDDEN
 62
     7
 48
2.0
370
     0
100
AcDbLine
 10
20.5388375321
 20
9.6553828585
 30
0.0
 11
20.5388375321
 21
9.6547689356
 31
0.0
  0
LINE
  5
18B
330
1F
100
AcDbEntity
  8
0
  6
HIDDEN
 62
     7
 48
2.0
370
     0
100
AcDbLine
 10
20.5388375321
 20
9.6553828585
 30
0.0
 11
20.5378926502
 21
9.6553828585
 31
0.0
  0
LINE
  5
18C
330
1F
100
AcDbEntity
  8
0
  6
HIDDEN
 62
     7
 48
2.0
370
     0
100
AcDbLine
 10
20.5388375321
 20
9.736442246
 30
0.0
 11
20.5378926502
 21
9.736442246
 31
0.0
  0
LINE
  5
18D
330
1F
100
AcDbEntity
  8
0
  6
HIDDEN
 62
     7
 48
2.0
370
     0
100
AcDbLine
 10
20.5378926502
 20
9.7366070122
 30
0.0
 11
20.5378926502
 21
9.736442246
 31
0.0
  0
LINE
  5
18E
330
1F
100
AcDbEntity
  8
0
  6
HIDDEN
 62
     7
 48
2.0
370
     0
100
AcDbLine
 10
20.5378926502
 20
9.7366070122
 30
0.0
 11
20.4860912743
 21
9.7366070122
 31
0.0
  0
LINE
  5
18F
330
1F
100
AcDbEntity
  8
0
  6
HIDDEN
 62
     7
 48
2.0
370
     0
100
AcDbLine
 10
20.5388375321
 20
9.7370561689
 30
0.0
 11
20.486172811
 21
9.7370561689
 31
0.0
  0
LINE
  5
190
330
1F
100
AcDbEntity
  8
0
  6
HIDDEN
 62
     7
 48
2.0
370
     0
100
AcDbLine
 10
20.4832638812
 20
9.7145225551
 30
0.0
 11
20.5378926502
 21
9.7145225551
 31
0.0
  0
LINE
  5
191
330
1F
100
AcDbEntity
  8
0
  6
HIDDEN
 62
     7
 48
2.0
370
     0
100
AcDbLine
 10
20.5378926502
 20
9.736442246
 30
0.0
 11
20.5378926502
 21
9.7145225551
 31
0.0
  0
LINE
  5
192
330
1F
100
AcDbEntity
  8
0
  6
HIDDEN
 62
     7
 48
2.0
370
     0
100
AcDbLine
 10
20.5388375321
 20
9.6547689356
 30
0.0
 11
20.486172811
 21
9.6547689356
 31
0.0
  0
LINE
  5
193
330
1F
100
AcDbEntity
  8
0
  6
HIDDEN
 62
     7
 48
2.0
370
     0
100
AcDbLine
 10
20.5378926502
 20
9.8146684297
 30
0.0
 11
20.5378926502
 21
9.7366070122
 31
0.0
  0
LINE
  5
194
330
1F
100
AcDbEntity
  8
0
  6
HIDDEN
 62
     7
 48
2.0
370
     0
100
AcDbLine
 10
20.6118375321
 20
9.2209125523
 30
0.0
 11
20.6738375321
 21
9.2209125523
 31
0.0
  0
LINE
  5
195
330
1F
100
AcDbEntity
  8
0
  6
HIDDEN
 62
     7
 48
2.0
370
     0
100
AcDbLine
 10
20.6738375321
 20
9.8209125523
 30
0.0
 11
20.6118375321
 21
9.8209125523
 31
0.0
  0
LINE
  5
196
330
1F
100
AcDbEntity
  8
0
  6
HIDDEN
 62
     7
 48
2.0
370
     0
100
AcDbLine
 10
20.6738375321
 20
9.6109125523
 30
0.0
 11
20.7358375321
 21
9.6109125523
 31
0.0
  0
LINE
  5
197
330
1F
100
AcDbEntity
  8
0
  6
HIDDEN
 62
     7
 48
2.0
370
     0
100
AcDbLine
 10
20.7358375321
 20
9.7809125523
 30
0.0
 11
20.6738375321
 21
9.7809125523
 31
0.0
  0
LINE
  5
198
330
1F
100
AcDbEntity
  8
0
  6
HIDDEN
 62
     7
 48
2.0
370
     0
100
AcDbLine
 10
24.6738375321
 20
8.3364125523
 30
0.0
 11
24.6118375321
 21
8.3364125523
 31
0.0
  0
LINE
  5
199
330
1F
100
AcDbEntity
  8
0
  6
HIDDEN
 62
     7
 48
2.0
370
     0
100
AcDbLine
 10
24.6118375321
 20
8.0554125523
 30
0.0
 11
24.6738375321
 21
8.0554125523
 31
0.0
  0
LINE
  5
19A
330
1F
100
AcDbEntity
  8
0
  6
HIDDEN
 62
     7
 48
2.0
370
     0
100
AcDbLine
 10
24.6738375321
 20
11.3364125523
 30
0.0
 11
24.6118375321
 21
11.3364125523
 31
0.0
  0
LINE
  5
19B
330
1F
100
AcDbEntity
  8
0
  6
HIDDEN
 62
     7
 48
2.0
370
     0
100
AcDbLine
 10
24.6118375321
 20
11.0554125523
 30
0.0
 11
24.6738375321
 21
11.0554125523
 31
0.0
  0
LINE
  5
19C
330
1F
100
AcDbEntity
  8
0
  6
HIDDEN
 62
     7
 48
2.0
370
     0
100
AcDbLine
 10
24.6118375321
 20
11.3375254022
 30
0.0
 11
24.4668907816
 21
11.0864702659
 31
0.0
  0
LINE
  5
19D
330
1F
100
AcDbEntity
  8
0
  6
HIDDEN
 62
     7
 48
2.0
370
     0
100
AcDbLine
 10
24.4668907816
 20
10.3053548386
 30
0.0
 11
24.6118375321
 21
10.0542997023
 31
0.0
  0
LINE
  5
19E
330
1F
100
AcDbEntity
  8
0
  6
HIDDEN
 62
     7
 48
2.0
370
     0
100
AcDbLine
 10
24.6738375321
 20
11.3209125523
 30
0.0
 11
24.5205843566
 21
11.0554702659
 31
0.0
  0
LINE
  5
19F
330
1F
100
AcDbEntity
  8
0
  6
HIDDEN
 62
     7
 48
2.0
370
     0
100
AcDbLine
 10
24.5205843566
 20
10.3363548386
 30
0.0
 11
24.6738375321
 21
10.0709125523
 31
0.0
  0
ARC
  5
1A0
330
1F
100
AcDbEntity
  8
0
  6
HIDDEN
 62
     7
 48
4.0
370
     0
100
AcDbCircle
 10
24.6288375321
 20
10.3988548386
 30
0.0
 40
0.1869999999999989
100
AcDbArc
 50
180.0
 51
210.0
  0
ARC
  5
1A1
330
1F
100
AcDbEntity
  8
0
  6
HIDDEN
 62
     7
 48
4.0
370
     0
100
AcDbCircle
 10
24.6288375321
 20
10.9929702659
 30
0.0
 40
0.1869999999999989
100
AcDbArc
 50
150.0
 51
180.0
  0
ARC
  5
1A2
330
1F
100
AcDbEntity
  8
0
  6
HIDDEN
 62
     7
 48
4.0
370
     0
100
AcDbCircle
 10
24.6288375321
 20
10.3988548386
 30
0.0
 40
0.125
100
AcDbArc
 50
180.0
 51
210.0
  0
ARC
  5
1A3
330
1F
100
AcDbEntity
  8
0
  6
HIDDEN
 62
     7
 48
4.0
370
     0
100
AcDbCircle
 10
24.6288375321
 20
10.9929702659
 30
0.0
 40
0.125
100
AcDbArc
 50
150.0
 51
180.0
  0
ARC
  5
1A4
330
1F
100
AcDbEntity
  8
0
  6
HIDDEN
 62
     7
 48
4.0
370
     0
100
AcDbCircle
 10
24.5205776896
 20
10.8596527097
 30
0.0
 40
0.0787401574803148
100
AcDbArc
 50
180.0
 51
270.0
  0
ARC
  5
1A5
330
1F
100
AcDbEntity
  8
0
  6
HIDDEN
 62
     7
 48
4.0
370
     0
100
AcDbCircle
 10
24.5205776896
 20
10.5321723948
 30
0.0
 40
0.0787401574803166
100
AcDbArc
 50
90.0
 51
180.0
  0
ARC
  5
1A6
330
1F
100
AcDbEntity
  8
0
  6
HIDDEN
 62
     7
 48
4.0
370
     0
100
AcDbCircle
 10
24.5205776896
 20
10.8596527097
 30
0.0
 40
0.0167401574803172
100
AcDbArc
 50
180.0
 51
270.0
  0
ARC
  5
1A7
330
1F
100
AcDbEntity
  8
0
  6
HIDDEN
 62
     7
 48
4.0
370
     0
100
AcDbCircle
 10
24.5205776896
 20
10.5321723948
 30
0.0
 40
0.0167401574803172
100
AcDbArc
 50
90.0
 51
180.0
  0
LINE
  5
1A8
330
1F
100
AcDbEntity
  8
0
  6
HIDDEN
 62
     7
 48
2.0
370
     0
100
AcDbLine
 10
24.5205776896
 20
10.5489125523
 30
0.0
 11
24.569790288
 21
10.5489125523
 31
0.0
  0
LINE
  5
1A9
330
1F
100
AcDbEntity
  8
0
  6
HIDDEN
 62
     7
 48
2.0
370
     0
100
AcDbLine
 10
24.569790288
 20
10.8429125523
 30
0.0
 11
24.5205776896
 21
10.8429125523
 31
0.0
  0
LINE
  5
1AA
330
1F
100
AcDbEntity
  8
0
  6
HIDDEN
 62
     7
 48
2.0
370
     0
100
AcDbLine
 10
24.5205776896
 20
10.6109125523
 30
0.0
 11
24.569790288
 21
10.6109125523
 31
0.0
  0
LINE
  5
1AB
330
1F
100
AcDbEntity
  8
0
  6
HIDDEN
 62
     7
 48
2.0
370
     0
100
AcDbLine
 10
24.569790288
 20
10.7809125523
 30
0.0
 11
24.5205776896
 21
10.7809125523
 31
0.0
  0
LINE
  5
1AC
330
1F
100
AcDbEntity
  8
0
  6
HIDDEN
 62
     7
 48
2.0
370
     0
100
AcDbLine
 10
20.6118375321
 20
9.6269125523
 30
0.0
 11
20.8864172219
 21
9.6269125523
 31
0.0
  0
LINE
  5
1AD
330
1F
100
AcDbEntity
  8
0
  6
HIDDEN
 62
     7
 48
2.0
370
     0
100
AcDbLine
 10
20.8864172219
 20
9.7649125523
 30
0.0
 11
20.6118375321
 21
9.7649125523
 31
0.0
  0
LINE
  5
1AE
330
1F
100
AcDbEntity
  8
0
  6
HIDDEN
 62
     7
 48
2.0
370
     0
100
AcDbLine
 10
20.8864172219
 20
9.6269125523
 30
0.0
 11
20.9238375321
 21
9.6424125523
 31
0.0
  0
LINE
  5
1AF
330
1F
100
AcDbEntity
  8
0
  6
HIDDEN
 62
     7
 48
2.0
370
     0
100
AcDbLine
 10
20.9238375321
 20
9.7494125523
 30
0.0
 11
20.8864172219
 21
9.7649125523
 31
0.0
  0
LINE
  5
1B0
330
1F
100
AcDbEntity
  8
0
  6
Continuous
 62
     7
 48
2.0
370
    15
100
AcDbLine
 10
6.5354475195
 20
9.8824125523
 30
0.0
 11
6.5021162076
 21
9.8824125523
 31
0.0
  0
LINE
  5
1B1
330
1F
100
AcDbEntity
  8
0
  6
Continuous
 62
     7
 48
2.0
370
    15
100
AcDbLine
 10
6.5021162076
 20
9.5094125523
 30
0.0
 11
6.5354475195
 21
9.5094125523
 31
0.0
  0
ARC
  5
1B2
330
1F
100
AcDbEntity
  8
0
  6
Continuous
 62
     7
 48
4.0
370
    15
100
AcDbCircle
 10
6.5354475195
 20
9.8674125523
 30
0.0
 40
0.0149999999999988
100
AcDbArc
 50
52.550643686
 51
90.0
  0
ARC
  5
1B3
330
1F
100
AcDbEntity
  8
0
  6
Continuous
 62
     7
 48
4.0
370
    15
100
AcDbCircle
 10
6.5354475195
 20
9.5244125523
 30
0.0
 40
0.0150000000000006
100
AcDbArc
 50
270.0
 51
307.449356314
  0
ARC
  5
1B4
330
1F
100
AcDbEntity
  8
0
  6
Continuous
 62
     7
 48
4.0
370
    15
100
AcDbCircle
 10
6.4040916206
 20
9.6959125523
 30
0.0
 40
0.2310245869783039
100
AcDbArc
 50
10.1818657166
 51
52.550643686
  0
ARC
  5
1B5
330
1F
100
AcDbEntity
  8
0
  6
Continuous
 62
     7
 48
4.0
370
    15
100
AcDbCircle
 10
6.4040916206
 20
9.6959125523
 30
0.0
 40
0.2310245869783036
100
AcDbArc
 50
307.449356314
 51
349.8181342834
  0
LINE
  5
1B6
330
1F
100
AcDbEntity
  8
0
  6
Continuous
 62
     7
 48
2.0
370
    15
100
AcDbLine
 10
6.4401162076
 20
12.6959125523
 30
0.0
 11
6.4401162076
 21
6.6959125523
 31
0.0
  0
LINE
  5
1B7
330
1F
100
AcDbEntity
  8
0
  6
Continuous
 62
     7
 48
2.0
370
    15
100
AcDbLine
 10
6.4401162076
 20
12.6959125523
 30
0.0
 11
6.5021162076
 21
12.6959125523
 31
0.0
  0
LINE
  5
1B8
330
1F
100
AcDbEntity
  8
0
  6
Continuous
 62
     7
 48
2.0
370
    15
100
AcDbLine
 10
6.5021162076
 20
12.6959125523
 30
0.0
 11
6.5021162076
 21
6.6959125523
 31
0.0
  0
LINE
  5
1B9
330
1F
100
AcDbEntity
  8
0
  6
Continuous
 62
     7
 48
2.0
370
    15
100
AcDbLine
 10
6.4401162076
 20
6.6959125523
 30
0.0
 11
6.5021162076
 21
6.6959125523
 31
0.0
  0
LINE
  5
1BA
330
1F
100
AcDbEntity
  8
0
  6
Continuous
 62
     7
 48
2.0
370
    15
100
AcDbLine
 10
2.4401162076
 20
12.6959125523
 30
0.0
 11
2.4401162076
 21
6.6959125523
 31
0.0
  0
LINE
  5
1BB
330
1F
100
AcDbEntity
  8
0
  6
Continuous
 62
     7
 48
2.0
370
    15
100
AcDbLine
 10
2.4401162076
 20
12.6959125523
 30
0.0
 11
2.5171162076
 21
12.6959125523
 31
0.0
  0
LINE
  5
1BC
330
1F
100
AcDbEntity
  8
0
  6
Continuous
 62
     7
 48
2.0
370
    15
100
AcDbLine
 10
2.4401162076
 20
6.6959125523
 30
0.0
 11
2.5171162076
 21
6.6959125523
 31
0.0
  0
LINE
  5
1BD
330
1F
100
AcDbEntity
  8
0
  6
Continuous
 62
     7
 48
2.0
370
    15
100
AcDbLine
 10
2.5171162076
 20
6.6959125523
 30
0.0
 11
6.3631162076
 21
6.6959125523
 31
0.0
  0
LINE
  5
1BE
330
1F
100
AcDbEntity
  8
0
  6
Continuous
 62
     7
 48
2.0
370
    15
100
AcDbLine
 10
2.5171162076
 20
12.6959125523
 30
0.0
 11
6.3631162076
 21
12.6959125523
 31
0.0
  0
LINE
  5
1BF
330
1F
100
AcDbEntity
  8
0
  6
Continuous
 62
     7
 48
2.0
370
    15
100
AcDbLine
 10
6.3631162076
 20
6.6959125523
 30
0.0
 11
6.4401162076
 21
6.6959125523
 31
0.0
  0
LINE
  5
1C0
330
1F
100
AcDbEntity
  8
0
  6
Continuous
 62
     7
 48
2.0
370
    15
100
AcDbLine
 10
6.3631162076
 20
12.6959125523
 30
0.0
 11
6.4401162076
 21
12.6959125523
 31
0.0
  0
ARC
  5
1C1
330
1F
100
AcDbEntity
  8
0
  6
Continuous
 62
     7
 48
4.0
370
    15
100
AcDbCircle
 10
6.4865613241
 20
9.7200204614
 30
0.0
 40
0.150325827512352
100
AcDbArc
 50
306.5391446664
 51
343.4908290318
  0
LINE
  5
1C2
330
1F
100
AcDbEntity
  8
0
  6
Continuous
 62
     7
 48
2.0
370
    15
100
AcDbLine
 10
6.5760610895
 20
9.5771566749
 30
0.0
 11
6.5760610895
 21
9.599241132
 31
0.0
  0
ARC
  5
1C3
330
1F
100
AcDbEntity
  8
0
  6
Continuous
 62
     7
 48
4.0
370
    15
100
AcDbCircle
 10
6.4865613241
 20
9.6979360043
 30
0.0
 40
0.1503258275123389
100
AcDbArc
 50
306.5391446664
 51
343.4908290318
  0
ARC
  5
1C4
330
1F
100
AcDbEntity
  8
0
  6
Continuous
 62
     7
 48
4.0
370
    15
100
AcDbCircle
 10
6.6308398627
 20
9.6538149196
 30
0.0
 40
0.0014111679302724
100
AcDbArc
 50
63.117415699
 51
96.1019511338
  0
ARC
  5
1C5
330
1F
100
AcDbEntity
  8
0
  6
Continuous
 62
     7
 48
4.0
370
    15
100
AcDbCircle
 10
6.4041042871
 20
9.6956055977
 30
0.0
 40
0.2273738616136976
100
AcDbArc
 50
349.6534571083
 51
0.077369708
  0
LWPOLYLINE
  5
1C6
330
1F
100
AcDbEntity
  8
0
  6
Continuous
 62
     7
 48
2.0
370
    15
100
AcDbPolyline
 90
        9
 70
   128
 43
0.0
 10
6.6306898585
 20
9.7366070122
 10
6.6311904622
 20
9.7366632584
 10
6.6314440252
 20
9.7367195981
 10
6.6314502718
 20
9.73677597
 10
6.6312091952
 20
9.7368323128
 10
6.6307210576
 20
9.7368885652
 10
6.6299863899
 20
9.736944666
 10
6.6290059914
 20
9.7370005542
 10
6.6277809286
 20
9.7370561689
  0
ARC
  5
1C7
330
1F
100
AcDbEntity
  8
0
  6
Continuous
 62
     7
 48
4.0
370
    15
100
AcDbCircle
 10
6.4041043572
 20
9.6962195145
 30
0.0
 40
0.2273737912212715
100
AcDbArc
 50
355.2276093396
 51
10.3465441733
  0
LINE
  5
1C8
330
1F
100
AcDbEntity
  8
0
  6
Continuous
 62
     7
 48
2.0
370
    15
100
AcDbLine
 10
6.6306898585
 20
9.6552180923
 30
0.0
 11
6.6224881308
 21
9.6552180923
 31
0.0
  0
LINE
  5
1C9
330
1F
100
AcDbEntity
  8
0
  6
Continuous
 62
     7
 48
2.0
370
    15
100
AcDbLine
 10
6.6306898585
 20
9.7366070122
 30
0.0
 11
6.6278624653
 21
9.7366070122
 31
0.0
  0
LINE
  5
1CA
330
1F
100
AcDbEntity
  8
0
  6
Continuous
 62
     7
 48
2.0
370
    15
100
AcDbLine
 10
11.5202454008
 20
5.4532766824
 30
0.0
 11
11.5202454008
 21
5.4199453705
 31
0.0
  0
LINE
  5
1CB
330
1F
100
AcDbEntity
  8
0
  6
Continuous
 62
     7
 48
2.0
370
    15
100
AcDbLine
 10
11.8932454008
 20
5.4199453705
 30
0.0
 11
11.8932454008
 21
5.4532766824
 31
0.0
  0
ARC
  5
1CC
330
1F
100
AcDbEntity
  8
0
  6
Continuous
 62
     7
 48
4.0
370
    15
100
AcDbCircle
 10
11.5352454008
 20
5.4532766824
 30
0.0
 40
0.0149999999999988
100
AcDbArc
 50
142.550643686
 51
180.0
  0
ARC
  5
1CD
330
1F
100
AcDbEntity
  8
0
  6
Continuous
 62
     7
 48
4.0
370
    15
100
AcDbCircle
 10
11.8782454008
 20
5.4532766824
 30
0.0
 40
0.0149999999999991
100
AcDbArc
 50
0.0
 51
37.449356314
  0
ARC
  5
1CE
330
1F
100
AcDbEntity
  8
0
  6
Continuous
 62
     7
 48
4.0
370
    15
100
AcDbCircle
 10
11.7067454008
 20
5.3219207835
 30
0.0
 40
0.2310245869783036
100
AcDbArc
 50
100.1818657166
 51
142.550643686
  0
ARC
  5
1CF
330
1F
100
AcDbEntity
  8
0
  6
Continuous
 62
     7
 48
4.0
370
    15
100
AcDbCircle
 10
11.7067454008
 20
5.3219207835
 30
0.0
 40
0.2310245869783039
100
AcDbArc
 50
37.449356314
 51
79.8181342834
  0
LINE
  5
1D0
330
1F
100
AcDbEntity
  8
0
  6
Continuous
 62
     7
 48
2.0
370
    15
100
AcDbLine
 10
11.6377454008
 20
5.2959453705
 30
0.0
 11
11.6377454008
 21
5.2189453705
 31
0.0
  0
LINE
  5
1D1
330
1F
100
AcDbEntity
  8
0
  6
Continuous
 62
     7
 48
2.0
370
    15
100
AcDbLine
 10
11.7757454008
 20
5.2189453705
 30
0.0
 11
11.7757454008
 21
5.2959453705
 31
0.0
  0
LINE
  5
1D2
330
1F
100
AcDbEntity
  8
0
  6
Continuous
 62
     7
 48
2.0
370
    15
100
AcDbLine
 10
8.0202454008
 20
5.4532766824
 30
0.0
 11
8.0202454008
 21
5.4199453705
 31
0.0
  0
LINE
  5
1D3
330
1F
100
AcDbEntity
  8
0
  6
Continuous
 62
     7
 48
2.0
370
    15
100
AcDbLine
 10
8.3932454008
 20
5.4199453705
 30
0.0
 11
8.3932454008
 21
5.4532766824
 31
0.0
  0
ARC
  5
1D4
330
1F
100
AcDbEntity
  8
0
  6
Continuous
 62
     7
 48
4.0
370
    15
100
AcDbCircle
 10
8.0352454008
 20
5.4532766824
 30
0.0
 40
0.0150000000000006
100
AcDbArc
 50
142.550643686
 51
180.0
  0
ARC
  5
1D5
330
1F
100
AcDbEntity
  8
0
  6
Continuous
 62
     7
 48
4.0
370
    15
100
AcDbCircle
 10
8.3782454008
 20
5.4532766824
 30
0.0
 40
0.0150000000000006
100
AcDbArc
 50
0.0
 51
37.449356314
  0
ARC
  5
1D6
330
1F
100
AcDbEntity
  8
0
  6
Continuous
 62
     7
 48
4.0
370
    15
100
AcDbCircle
 10
8.2067454008
 20
5.3219207835
 30
0.0
 40
0.2310245869783036
100
AcDbArc
 50
100.1818657166
 51
142.550643686
  0
ARC
  5
1D7
330
1F
100
AcDbEntity
  8
0
  6
Continuous
 62
     7
 48
4.0
370
    15
100
AcDbCircle
 10
8.2067454008
 20
5.3219207835
 30
0.0
 40
0.2310245869783039
100
AcDbArc
 50
37.449356314
 51
79.8181342834
  0
LINE
  5
1D8
330
1F
100
AcDbEntity
  8
0
  6
Continuous
 62
     7
 48
2.0
370
    15
100
AcDbLine
 10
8.1377454008
 20
5.2959453705
 30
0.0
 11
8.1377454008
 21
5.2189453705
 31
0.0
  0
LINE
  5
1D9
330
1F
100
AcDbEntity
  8
0
  6
Continuous
 62
     7
 48
2.0
370
    15
100
AcDbLine
 10
8.2757454008
 20
5.2189453705
 30
0.0
 11
8.2757454008
 21
5.2959453705
 31
0.0
  0
LINE
  5
1DA
330
1F
100
AcDbEntity
  8
0
  6
Continuous
 62
     7
 48
2.0
370
    15
100
AcDbLine
 10
7.9567454008
 20
5.3579453705
 30
0.0
 11
7.9567454008
 21
5.4199453705
 31
0.0
  0
LINE
  5
1DB
330
1F
100
AcDbEntity
  8
0
  6
Continuous
 62
     7
 48
2.0
370
    15
100
AcDbLine
 10
7.9567454008
 20
5.4199453705
 30
0.0
 11
11.9567454008
 21
5.4199453705
 31
0.0
  0
LINE
  5
1DC
330
1F
100
AcDbEntity
  8
0
  6
Continuous
 62
     7
 48
2.0
370
    15
100
AcDbLine
 10
11.9567454008
 20
5.3579453705
 30
0.0
 11
11.9567454008
 21
5.4199453705
 31
0.0
  0
LINE
  5
1DD
330
1F
100
AcDbEntity
  8
0
  6
Continuous
 62
     7
 48
2.0
370
    15
100
AcDbLine
 10
7.9567454008
 20
5.3579453705
 30
0.0
 11
11.9567454008
 21
5.3579453705
 31
0.0
  0
LINE
  5
1DE
330
1F
100
AcDbEntity
  8
0
  6
Continuous
 62
     7
 48
2.0
370
    15
100
AcDbLine
 10
8.4877454008
 20
5.2189453705
 30
0.0
 11
8.0957454008
 21
5.2189453705
 31
0.0
  0
LINE
  5
1DF
330
1F
100
AcDbEntity
  8
0
  6
Continuous
 62
     7
 48
2.0
370
    15
100
AcDbLine
 10
8.4877454008
 20
5.2809453705
 30
0.0
 11
8.4877454008
 21
5.2189453705
 31
0.0
  0
LINE
  5
1E0
330
1F
100
AcDbEntity
  8
0
  6
Continuous
 62
     7
 48
2.0
370
    15
100
AcDbLine
 10
11.4257454008
 20
5.2809453705
 30
0.0
 11
11.4257454008
 21
5.2189453705
 31
0.0
  0
LINE
  5
1E1
330
1F
100
AcDbEntity
  8
0
  6
Continuous
 62
     7
 48
2.0
370
    15
100
AcDbLine
 10
11.4257454008
 20
5.2189453705
 30
0.0
 11
11.8177454008
 21
5.2189453705
 31
0.0
  0
LINE
  5
1E2
330
1F
100
AcDbEntity
  8
0
  6
Continuous
 62
     7
 48
2.0
370
    15
100
AcDbLine
 10
8.0957454008
 20
1.4969453705
 30
0.0
 11
8.0187454008
 21
1.4969453705
 31
0.0
  0
LINE
  5
1E3
330
1F
100
AcDbEntity
  8
0
  6
Continuous
 62
     7
 48
2.0
370
    15
100
AcDbLine
 10
8.0187454008
 20
5.2189453705
 30
0.0
 11
8.0957454008
 21
5.2189453705
 31
0.0
  0
LINE
  5
1E4
330
1F
100
AcDbEntity
  8
0
  6
Continuous
 62
     7
 48
2.0
370
    15
100
AcDbLine
 10
11.4257454008
 20
5.2809453705
 30
0.0
 11
11.4257454008
 21
5.3579453705
 31
0.0
  0
LINE
  5
1E5
330
1F
100
AcDbEntity
  8
0
  6
Continuous
 62
     7
 48
2.0
370
    15
100
AcDbLine
 10
8.4877454008
 20
5.2809453705
 30
0.0
 11
8.4877454008
 21
5.3579453705
 31
0.0
  0
LINE
  5
1E6
330
1F
100
AcDbEntity
  8
0
  6
Continuous
 62
     7
 48
2.0
370
    15
100
AcDbLine
 10
11.8177454008
 20
1.4969453705
 30
0.0
 11
11.8947454008
 21
1.4969453705
 31
0.0
  0
LINE
  5
1E7
330
1F
100
AcDbEntity
  8
0
  6
Continuous
 62
     7
 48
2.0
370
    15
100
AcDbLine
 10
11.8947454008
 20
5.2189453705
 30
0.0
 11
11.8177454008
 21
5.2189453705
 31
0.0
  0
LINE
  5
1E8
330
1F
100
AcDbEntity
  8
0
  6
Continuous
 62
     7
 48
2.0
370
    15
100
AcDbLine
 10
11.8177454008
 20
1.4199453705
 30
0.0
 11
11.8177454008
 21
1.4969453705
 31
0.0
  0
LINE
  5
1E9
330
1F
100
AcDbEntity
  8
0
  6
Continuous
 62
     7
 48
2.0
370
    15
100
AcDbLine
 10
8.0957454008
 20
1.4199453705
 30
0.0
 11
8.0957454008
 21
1.4969453705
 31
0.0
  0
LINE
  5
1EA
330
1F
100
AcDbEntity
  8
0
  6
Continuous
 62
     7
 48
2.0
370
    15
100
AcDbLine
 10
11.8947454008
 20
5.2809453705
 30
0.0
 11
11.8947454008
 21
1.4349453705
 31
0.0
  0
LINE
  5
1EB
330
1F
100
AcDbEntity
  8
0
  6
Continuous
 62
     7
 48
2.0
370
    15
100
AcDbLine
 10
11.9567454008
 20
5.2809453705
 30
0.0
 11
11.9567454008
 21
1.4349453705
 31
0.0
  0
ARC
  5
1EC
330
1F
100
AcDbEntity
  8
0
  6
Continuous
 62
     7
 48
4.0
370
    15
100
AcDbCircle
 10
11.8797454008
 20
1.4349453705
 30
0.0
 40
0.0150000000000006
100
AcDbArc
 50
270.0
 51
0.0
  0
ARC
  5
1ED
330
1F
100
AcDbEntity
  8
0
  6
Continuous
 62
     7
 48
4.0
370
    15
100
AcDbCircle
 10
11.8797454008
 20
1.4349453705
 30
0.0
 40
0.0770000000000002
100
AcDbArc
 50
270.0
 51
0.0
  0
LINE
  5
1EE
330
1F
100
AcDbEntity
  8
0
  6
Continuous
 62
     7
 48
2.0
370
    15
100
AcDbLine
 10
8.0187454008
 20
1.4349453705
 30
0.0
 11
8.0187454008
 21
5.2809453705
 31
0.0
  0
LINE
  5
1EF
330
1F
100
AcDbEntity
  8
0
  6
Continuous
 62
     7
 48
2.0
370
    15
100
AcDbLine
 10
7.9567454008
 20
1.4349453705
 30
0.0
 11
7.9567454008
 21
5.2809453705
 31
0.0
  0
LINE
  5
1F0
330
1F
100
AcDbEntity
  8
0
  6
Continuous
 62
     7
 48
2.0
370
    15
100
AcDbLine
 10
11.8797454008
 20
1.3579453705
 30
0.0
 11
8.0337454008
 21
1.3579453705
 31
0.0
  0
LINE
  5
1F1
330
1F
100
AcDbEntity
  8
0
  6
Continuous
 62
     7
 48
2.0
370
    15
100
AcDbLine
 10
11.8797454008
 20
1.4199453705
 30
0.0
 11
8.0337454008
 21
1.4199453705
 31
0.0
  0
ARC
  5
1F2
330
1F
100
AcDbEntity
  8
0
  6
Continuous
 62
     7
 48
4.0
370
    15
100
AcDbCircle
 10
8.0337454008
 20
1.4349453705
 30
0.0
 40
0.0770000000000008
100
AcDbArc
 50
180.0
 51
270.0
  0
ARC
  5
1F3
330
1F
100
AcDbEntity
  8
0
  6
Continuous
 62
     7
 48
4.0
370
    15
100
AcDbCircle
 10
8.0337454008
 20
1.4349453705
 30
0.0
 40
0.0150000000000006
100
AcDbArc
 50
180.0
 51
270.0
  0
ARC
  5
1F4
330
1F
100
AcDbEntity
  8
0
  6
Continuous
 62
     7
 48
4.0
370
    15
100
AcDbCircle
 10
11.8797454008
 20
5.2809453705
 30
0.0
 40
0.0150000000000006
100
AcDbArc
 50
0.0
 51
90.0
  0
ARC
  5
1F5
330
1F
100
AcDbEntity
  8
0
  6
Continuous
 62
     7
 48
4.0
370
    15
100
AcDbCircle
 10
11.8797454008
 20
5.2809453705
 30
0.0
 40
0.0769999999999991
100
AcDbArc
 50
0.0
 51
90.0
  0
ARC
  5
1F6
330
1F
100
AcDbEntity
  8
0
  6
Continuous
 62
     7
 48
4.0
370
    15
100
AcDbCircle
 10
8.0337454008
 20
5.2809453705
 30
0.0
 40
0.0150000000000006
100
AcDbArc
 50
90.0
 51
180.0
  0
ARC
  5
1F7
330
1F
100
AcDbEntity
  8
0
  6
Continuous
 62
     7
 48
4.0
370
    15
100
AcDbCircle
 10
8.0337454008
 20
5.2809453705
 30
0.0
 40
0.0770000000000008
100
AcDbArc
 50
90.0
 51
180.0
  0
LINE
  5
1F8
330
1F
100
AcDbEntity
  8
0
  6
Continuous
 62
     7
 48
2.0
370
    15
100
AcDbLine
 10
8.4567454008
 20
5.2959453705
 30
0.0
 11
8.4567454008
 21
5.3579453705
 31
0.0
  0
LINE
  5
1F9
330
1F
100
AcDbEntity
  8
0
  6
Continuous
 62
     7
 48
2.0
370
    15
100
AcDbLine
 10
8.0337454008
 20
5.3579453705
 30
0.0
 11
8.4567454008
 21
5.3579453705
 31
0.0
  0
LINE
  5
1FA
330
1F
100
AcDbEntity
  8
0
  6
Continuous
 62
     7
 48
2.0
370
    15
100
AcDbLine
 10
8.0337454008
 20
5.2959453705
 30
0.0
 11
8.4567454008
 21
5.2959453705
 31
0.0
  0
LINE
  5
1FB
330
1F
100
AcDbEntity
  8
0
  6
Continuous
 62
     7
 48
2.0
370
    15
100
AcDbLine
 10
11.4567454008
 20
5.3579453705
 30
0.0
 11
11.8797454008
 21
5.3579453705
 31
0.0
  0
LINE
  5
1FC
330
1F
100
AcDbEntity
  8
0
  6
Continuous
 62
     7
 48
2.0
370
    15
100
AcDbLine
 10
11.4567454008
 20
5.3579453705
 30
0.0
 11
11.4567454008
 21
5.2959453705
 31
0.0
  0
LINE
  5
1FD
330
1F
100
AcDbEntity
  8
0
  6
Continuous
 62
     7
 48
2.0
370
    15
100
AcDbLine
 10
11.4567454008
 20
5.2959453705
 30
0.0
 11
11.8797454008
 21
5.2959453705
 31
0.0
  0
ARC
  5
1FE
330
1F
100
AcDbEntity
  8
0
  6
Continuous
 62
     7
 48
4.0
370
    15
100
AcDbCircle
 10
11.6497741145
 20
5.5460961336
 30
0.0
 40
0.0164487751110866
100
AcDbArc
 50
358.3067302082
 51
11.257010639
  0
ARC
  5
1FF
330
1F
100
AcDbEntity
  8
0
  6
Continuous
 62
     7
 48
4.0
370
    15
100
AcDbCircle
 10
11.7070523615
 20
5.3219335201
 30
0.0
 40
0.2273737912212671
100
AcDbArc
 50
85.2276093396
 51
100.3465441733
  0
ARC
  5
200
330
1F
100
AcDbEntity
  8
0
  6
Continuous
 62
     7
 48
4.0
370
    15
100
AcDbCircle
 10
11.6833784512
 20
5.4019477119
 30
0.0
 40
0.1526339785896126
100
AcDbArc
 50
37.0400188158
 51
73.7971257354
  0
LINE
  5
201
330
1F
100
AcDbEntity
  8
0
  6
Continuous
 62
     7
 48
2.0
370
    15
100
AcDbLine
 10
11.8269681028
 20
5.4938902524
 30
0.0
 11
11.805213178
 21
5.4938902524
 31
0.0
  0
ARC
  5
202
330
1F
100
AcDbEntity
  8
0
  6
Continuous
 62
     7
 48
4.0
370
    15
100
AcDbCircle
 10
11.7051333759
 20
5.4019477119
 30
0.0
 40
0.1526339785896073
100
AcDbArc
 50
37.0400188158
 51
73.7971257354
  0
LWPOLYLINE
  5
203
330
1F
100
AcDbEntity
  8
0
  6
Continuous
 62
     7
 48
2.0
370
    15
100
AcDbPolyline
 90
        9
 70
   128
 43
0.0
 10
11.7477242513
 20
5.5485190213
 10
11.7476680051
 20
5.549019625
 10
11.7476116654
 20
5.5492731881
 10
11.7475552935
 20
5.5492794347
 10
11.7474989507
 20
5.5490383581
 10
11.7474426983
 20
5.5485502204
 10
11.7473865975
 20
5.5478155528
 10
11.7473307094
 20
5.5468351543
 10
11.7472750946
 20
5.5456100915
  0
ARC
  5
204
330
1F
100
AcDbEntity
  8
0
  6
Continuous
 62
     7
 48
4.0
370
    15
100
AcDbCircle
 10
11.7064384103
 20
5.3219332856
 30
0.0
 40
0.2273740273469893
100
AcDbArc
 50
79.6534590255
 51
84.9975709186
  0
ARC
  5
205
330
1F
100
AcDbEntity
  8
0
  6
Continuous
 62
     7
 48
4.0
370
    15
100
AcDbCircle
 10
11.7064384399
 20
5.3219335953
 30
0.0
 40
0.227373716248552
100
AcDbArc
 50
89.9226619856
 51
94.7723921741
  0
LINE
  5
206
330
1F
100
AcDbEntity
  8
0
  6
Continuous
 62
     7
 48
2.0
370
    15
100
AcDbLine
 10
11.7477242513
 20
5.5485190213
 30
0.0
 11
11.7477242513
 21
5.5406297376
 31
0.0
  0
LINE
  5
207
330
1F
100
AcDbEntity
  8
0
  6
Continuous
 62
     7
 48
2.0
370
    15
100
AcDbLine
 10
11.7472750946
 20
5.5408385666
 30
0.0
 11
11.7472750946
 21
5.5456100915
 31
0.0
  0
LINE
  5
208
330
1F
100
AcDbEntity
  8
0
  6
Continuous
 62
     7
 48
2.0
370
    15
100
AcDbLine
 10
11.6875214751
 20
5.548466929
 30
0.0
 11
11.6875214751
 21
5.5485190213
 31
0.0
  0
ARC
  5
209
330
1F
100
AcDbEntity
  8
0
  6
Continuous
 62
     7
 48
4.0
370
    15
100
AcDbCircle
 10
8.2083574257
 20
5.4019477119
 30
0.0
 40
0.1526339785896178
100
AcDbArc
 50
106.2028742646
 51
142.9599811842
  0
LINE
  5
20A
330
1F
100
AcDbEntity
  8
0
  6
Continuous
 62
     7
 48
2.0
370
    15
100
AcDbLine
 10
8.1082776236
 20
5.4938902524
 30
0.0
 11
8.0865226988
 21
5.4938902524
 31
0.0
  0
ARC
  5
20B
330
1F
100
AcDbEntity
  8
0
  6
Continuous
 62
     7
 48
4.0
370
    15
100
AcDbCircle
 10
8.2301123505
 20
5.4019477119
 30
0.0
 40
0.1526339785896226
100
AcDbArc
 50
106.2028742646
 51
142.9599811842
  0
ARC
  5
20C
330
1F
100
AcDbEntity
  8
0
  6
Continuous
 62
     7
 48
4.0
370
    15
100
AcDbCircle
 10
8.2064384402
 20
5.3219335201
 30
0.0
 40
0.2273737912212174
100
AcDbArc
 50
79.6534558267
 51
94.7723906604
  0
ARC
  5
20D
330
1F
100
AcDbEntity
  8
0
  6
Continuous
 62
     7
 48
4.0
370
    15
100
AcDbCircle
 10
8.2637166872
 20
5.5460961336
 30
0.0
 40
0.0164487751111392
100
AcDbArc
 50
168.7429893609
 51
181.6932697917
  0
ARC
  5
20E
330
1F
100
AcDbEntity
  8
0
  6
Continuous
 62
     7
 48
4.0
370
    15
100
AcDbCircle
 10
8.2070523617
 20
5.3219335953
 30
0.0
 40
0.2273737162480058
100
AcDbArc
 50
85.2276078259
 51
90.0772288606
  0
ARC
  5
20F
330
1F
100
AcDbEntity
  8
0
  6
Continuous
 62
     7
 48
4.0
370
    15
100
AcDbCircle
 10
8.2070523914
 20
5.3219332856
 30
0.0
 40
0.2273740273479875
100
AcDbArc
 50
95.0024290856
 51
100.3465409745
  0
LWPOLYLINE
  5
210
330
1F
100
AcDbEntity
  8
0
  6
Continuous
 62
     7
 48
2.0
370
    15
100
AcDbPolyline
 90
        9
 70
   128
 43
0.0
 10
8.166215707
 20
5.5456100915
 10
8.1661600923
 20
5.5468351543
 10
8.1661042041
 20
5.5478155528
 10
8.1660481033
 20
5.5485502204
 10
8.1659918509
 20
5.5490383581
 10
8.1659355081
 20
5.5492794347
 10
8.1658791362
 20
5.5492731881
 10
8.1658227965
 20
5.549019625
 10
8.1657665503
 20
5.5485190213
  0
LINE
  5
211
330
1F
100
AcDbEntity
  8
0
  6
Continuous
 62
     7
 48
2.0
370
    15
100
AcDbLine
 10
8.1657665503
 20
5.5406297376
 30
0.0
 11
8.1657665503
 21
5.5485190213
 31
0.0
  0
LINE
  5
212
330
1F
100
AcDbEntity
  8
0
  6
Continuous
 62
     7
 48
2.0
370
    15
100
AcDbLine
 10
8.166215707
 20
5.5408385666
 30
0.0
 11
8.166215707
 21
5.5456100915
 31
0.0
  0
LINE
  5
213
330
1F
100
AcDbEntity
  8
0
  6
Continuous
 62
     7
 48
2.0
370
    15
100
AcDbLine
 10
8.2259693265
 20
5.5485190213
 30
0.0
 11
8.2259693265
 21
5.548466929
 31
0.0
  0
LINE
  5
214
330
1F
100
AcDbEntity
  8
0
  6
Continuous
 62
     7
 48
2.0
370
    15
100
AcDbLine
 10
30.9772841768
 20
12.6959125523
 30
0.0
 11
31.0542841768
 21
12.6959125523
 31
0.0
  0
LINE
  5
215
330
1F
100
AcDbEntity
  8
0
  6
Continuous
 62
     7
 48
2.0
370
    15
100
AcDbLine
 10
31.0542841768
 20
12.6959125523
 30
0.0
 11
31.0542841768
 21
6.6959125523
 31
0.0
  0
LINE
  5
216
330
1F
100
AcDbEntity
  8
0
  6
Continuous
 62
     7
 48
2.0
370
    15
100
AcDbLine
 10
30.9772841768
 20
6.6959125523
 30
0.0
 11
31.0542841768
 21
6.6959125523
 31
0.0
  0
CIRCLE
  5
217
330
1F
100
AcDbEntity
  8
0
  6
Continuous
 62
     7
 48
4.0
370
    15
100
AcDbCircle
 10
27.5542841768
 20
11.1959125523
 30
0.0
 40
0.140500000000003
  0
CIRCLE
  5
218
330
1F
100
AcDbEntity
  8
0
  6
Continuous
 62
     7
 48
4.0
370
    15
100
AcDbCircle
 10
30.5542841768
 20
11.1959125523
 30
0.0
 40
0.1404999999999994
  0
CIRCLE
  5
219
330
1F
100
AcDbEntity
  8
0
  6
Continuous
 62
     7
 48
4.0
370
    15
100
AcDbCircle
 10
30.5542841768
 20
8.1959125523
 30
0.0
 40
0.140500000000003
  0
CIRCLE
  5
21A
330
1F
100
AcDbEntity
  8
0
  6
Continuous
 62
     7
 48
4.0
370
    15
100
AcDbCircle
 10
27.5542841768
 20
8.1959125523
 30
0.0
 40
0.1404999999999994
  0
CIRCLE
  5
21B
330
1F
100
AcDbEntity
  8
0
  6
Continuous
 62
     7
 48
4.0
370
    15
100
AcDbCircle
 10
29.0542841768
 20
10.6959125523
 30
0.0
 40
0.625
  0
LINE
  5
21C
330
1F
100
AcDbEntity
  8
0
  6
Continuous
 62
     7
 48
2.0
370
    15
100
AcDbLine
 10
27.1312841768
 20
12.6959125523
 30
0.0
 11
30.9772841768
 21
12.6959125523
 31
0.0
  0
LINE
  5
21D
330
1F
100
AcDbEntity
  8
0
  6
Continuous
 62
     7
 48
2.0
370
    15
100
AcDbLine
 10
27.1312841768
 20
6.6959125523
 30
0.0
 11
30.9772841768
 21
6.6959125523
 31
0.0
  0
LINE
  5
21E
330
1F
100
AcDbEntity
  8
0
  6
Continuous
 62
     7
 48
2.0
370
    15
100
AcDbLine
 10
27.0542841768
 20
12.6959125523
 30
0.0
 11
27.0542841768
 21
6.6959125523
 31
0.0
  0
LINE
  5
21F
330
1F
100
AcDbEntity
  8
0
  6
Continuous
 62
     7
 48
2.0
370
    15
100
AcDbLine
 10
27.0542841768
 20
6.6959125523
 30
0.0
 11
27.1312841768
 21
6.6959125523
 31
0.0
  0
LINE
  5
220
330
1F
100
AcDbEntity
  8
0
  6
Continuous
 62
     7
 48
2.0
370
    15
100
AcDbLine
 10
27.0542841768
 20
12.6959125523
 30
0.0
 11
27.1312841768
 21
12.6959125523
 31
0.0
  0
CIRCLE
  5
221
330
1F
100
AcDbEntity
  8
0
  6
Continuous
 62
     7
 48
4.0
370
    15
100
AcDbCircle
 10
29.0542841768
 20
10.6959125523
 30
0.0
 40
0.0849999999999973
  0
CIRCLE
  5
222
330
1F
100
AcDbEntity
  8
0
  6
Continuous
 62
     7
 48
4.0
370
    15
100
AcDbCircle
 10
29.0542841768
 20
10.6959125523
 30
0.0
 40
0.1469999999999949
  0
LINE
  5
223
330
1F
100
AcDbEntity
  8
0
  6
Continuous
 62
     7
 48
2.0
370
    15
100
AcDbLine
 10
30.5542841768
 20
11.3364125523
 30
0.0
 11
30.5542841768
 21
11.0554125523
 31
0.0
  0
LINE
  5
224
330
1F
100
AcDbEntity
  8
0
  6
Continuous
 62
     7
 48
2.0
370
    15
100
AcDbLine
 10
30.5542841768
 20
8.3364125523
 30
0.0
 11
30.5542841768
 21
8.0554125523
 31
0.0
  0
LINE
  5
225
330
1F
100
AcDbEntity
  8
0
  6
Continuous
 62
     7
 48
2.0
370
    15
100
AcDbLine
 10
27.5542841768
 20
11.3364125523
 30
0.0
 11
27.5542841768
 21
11.0554125523
 31
0.0
  0
LINE
  5
226
330
1F
100
AcDbEntity
  8
0
  6
Continuous
 62
     7
 48
2.0
370
    15
100
AcDbLine
 10
27.5542841768
 20
8.3364125523
 30
0.0
 11
27.5542841768
 21
8.0554125523
 31
0.0
  0
DIMENSION
  5
227
330
1F
100
AcDbEntity
  8
0
  6
Continuous
 62
     7
 48
2.0
370
     0
100
AcDbDimension
  2
*D9
 10
26.3770523959
 20
8.1959125523
 30
0.0
 11
26.3770523959
 21
9.6959125523
 31
0.0
 70
   160
 71
     2
 42
-1.0
  3
SLDDIMSTYLE0
100
AcDbAlignedDimension
 13
27.5542841768
 23
11.1959125523
 33
0.0
 14
27.5542841768
 24
8.1959125523
 34
0.0
 50
90.0
100
AcDbRotatedDimension
  0
DIMENSION
  5
239
330
1F
100
AcDbEntity
  8
0
  6
Continuous
 62
     7
 48
2.0
370
     0
100
AcDbDimension
  2
*D10
 10
30.5542841768
 20
5.9085090089
 30
0.0
 11
29.0542841768
 21
5.9085090089
 31
0.0
 70
   160
 71
     2
 42
-1.0
  3
SLDDIMSTYLE0
100
AcDbAlignedDimension
 13
27.5542841768
 23
8.1959125523
 33
0.0
 14
30.5542841768
 24
8.1959125523
 34
0.0
100
AcDbRotatedDimension
  0
DIMENSION
  5
24B
330
1F
100
AcDbEntity
  8
0
  6
Continuous
 62
     7
 48
2.0
370
     0
100
AcDbDimension
  2
*D11
 10
30.4841255341
 20
8.317641821
 30
0.0
 11
32.3934251367
 21
6.5683851816
 31
0.0
 70
   163
  1
<>
 71
     1
 42
-1.0
  3
SLDDIMSTYLE2
100
AcDbDiametricDimension
 15
30.6244428194
 25
8.0741832836
 35
0.0
 40
0.0
  0
DIMENSION
  5
25C
330
1F
100
AcDbEntity
  8
0
  6
Continuous
 62
     7
 48
2.0
370
     0
100
AcDbDimension
  2
*D12
 10
31.9379918334
 20
12.6959125523
 30
0.0
 11
31.9379918334
 21
11.6959125523
 31
0.0
 70
   160
 71
     2
 42
-1.0
  3
SLDDIMSTYLE0
100
AcDbAlignedDimension
 13
29.0542841768
 23
10.6959125523
 33
0.0
 14
31.0542841768
 24
12.6959125523
 34
0.0
 50
90.0
100
AcDbRotatedDimension
  0
LINE
  5
26E
330
1F
100
AcDbEntity
  8
0
  6
Continuous
 62
     7
 48
2.0
370
    15
100
AcDbLine
 10
27.4929505206
 20
19.9019117481
 30
0.0
 11
25.7383828943
 21
18.8890214174
 31
0.0
  0
LINE
  5
26F
330
1F
100
AcDbEntity
  8
0
  6
Continuous
 62
     7
 48
2.0
370
    15
100
AcDbLine
 10
29.2988473086
 20
18.8890214174
 30
0.0
 11
27.5442796823
 21
19.9019117481
 31
0.0
  0
LINE
  5
270
330
1F
100
AcDbEntity
  8
0
  6
Continuous
 62
     7
 48
2.0
370
    15
100
AcDbLine
 10
29.3829702217
 20
15.6203167566
 30
0.0
 11
29.3829702217
 21
18.8864800041
 31
0.0
  0
LINE
  5
271
330
1F
100
AcDbEntity
  8
0
  6
Continuous
 62
     7
 48
2.0
370
    15
100
AcDbLine
 10
25.6542599812
 20
18.8864800041
 30
0.0
 11
25.6542599812
 21
18.8742051569
 31
0.0
  0
ARC
  5
272
330
1F
100
AcDbEntity
  8
0
  6
Continuous
 62
     7
 48
4.0
370
    15
100
AcDbCircle
 10
27.4177461244
 20
16.2426918289
 30
0.0
 40
0.1540163913188684
100
AcDbArc
 50
168.1339525011
 51
251.8606709662
  0
SPLINE
  5
273
330
1F
100
AcDbEntity
  8
0
  6
Continuous
 62
     7
 48
2.0
370
    15
100
AcDbSpline
210
0.0
220
0.0
230
1.0
 70
     8
 71
     3
 72
     9
 73
     5
 74
     0
 42
0.00000001
 43
0.00000001
 40
0.0
 40
0.0
 40
0.0
 40
0.0
 40
0.4003579523909349
 40
1.0
 40
1.0
 40
1.0
 40
1.0
 10
27.40598998481173
 20
16.09502215362921
 30
0.0
 10
27.40803206318182
 20
16.0953310485213
 30
0.0
 10
27.41313269464897
 20
16.09610259530898
 30
0.0
 10
27.41716634247713
 20
16.09918846505839
 30
0.0
 10
27.41958508732014
 20
16.10103888231358
 30
0.0
  0
SPLINE
  5
274
330
1F
100
AcDbEntity
  8
0
  6
Continuous
 62
     7
 48
2.0
370
    15
100
AcDbSpline
210
0.0
220
0.0
230
1.0
 70
     8
 71
     3
 72
     9
 73
     5
 74
     0
 42
0.00000001
 43
0.00000001
 40
0.0
 40
0.0
 40
0.0
 40
0.0
 40
0.7429573050590217
 40
0.9999999999999999
 40
0.9999999999999999
 40
0.9999999999999999
 40
0.9999999999999999
 10
27.29311649013292
 20
16.31430374038325
 30
0.0
 10
27.29039943583033
 20
16.31267575248909
 30
0.0
 10
27.28674235582844
 20
16.31048452577516
 30
0.0
 10
27.28410535406114
 20
16.30703140849322
 30
0.0
 10
27.2834275320203
 20
16.30614380992111
 30
0.0
  0
LINE
  5
275
330
1F
100
AcDbEntity
  8
0
  6
Continuous
 62
     7
 48
2.0
370
    15
100
AcDbLine
 10
27.4179859744
 20
16.0992664132
 30
0.0
 11
27.4336985055
 21
16.1083370644
 31
0.0
  0
LINE
  5
276
330
1F
100
AcDbEntity
  8
0
  6
Continuous
 62
     7
 48
2.0
370
    15
100
AcDbLine
 10
27.3093752764
 20
16.3236945481
 30
0.0
 11
27.2936627453
 21
16.314623897
 31
0.0
  0
ARC
  5
277
330
1F
100
AcDbEntity
  8
0
  6
Continuous
 62
     7
 48
4.0
370
    15
100
AcDbCircle
 10
25.7678303016
 20
17.1951679594
 30
0.0
 40
0.1540163913188659
100
AcDbArc
 50
168.1339525011
 51
205.9042604596
  0
ARC
  5
278
330
1F
100
AcDbEntity
  8
0
  6
Continuous
 62
     7
 48
4.0
370
    15
100
AcDbCircle
 10
25.7678303016
 20
17.1951679594
 30
0.0
 40
0.1540163913188684
100
AcDbArc
 50
213.5984078164
 51
251.8606709662
  0
SPLINE
  5
279
330
1F
100
AcDbEntity
  8
0
  6
Continuous
 62
     7
 48
2.0
370
    15
100
AcDbSpline
210
0.0
220
0.0
230
1.0
 70
     8
 71
     3
 72
    11
 73
     7
 74
     0
 42
0.00000001
 43
0.00000001
 40
0.0
 40
0.0
 40
0.0
 40
0.0
 40
0.0031161648772914
 40
0.3838805028619973
 40
0.7625987126770489
 40
1.0
 40
1.0
 40
1.0
 40
1.0
 10
25.64314570946489
 20
17.26672103222593
 30
0.0
 10
25.64310466933215
 20
17.26670522085856
 30
0.0
 10
25.6380489333829
 20
17.264757417743
 30
0.0
 10
25.63046748943328
 20
17.25638421164306
 30
0.0
 10
25.62209489002008
 20
17.24454183521329
 30
0.0
 10
25.6196433546347
 20
17.23497038828497
 30
0.0
 10
25.61869873648982
 20
17.23128234751871
 30
0.0
  0
SPLINE
  5
27A
330
1F
100
AcDbEntity
  8
0
  6
Continuous
 62
     7
 48
2.0
370
    15
100
AcDbSpline
210
0.0
220
0.0
230
1.0
 70
     8
 71
     3
 72
    11
 73
     7
 74
     0
 42
0.00000001
 43
0.00000001
 40
0.0
 40
0.0
 40
0.0
 40
0.0
 40
0.1802397878771252
 40
0.4606230791407465
 40
0.737400673484986
 40
1.0
 40
1.0
 40
1.0
 40
1.0
 10
25.70447941394755
 20
17.05596934992364
 30
0.0
 10
25.70858566452776
 20
17.05376292744983
 30
0.0
 10
25.71907965039102
 20
17.04812416629869
 30
0.0
 10
25.735819340886
 20
17.04465554419433
 30
0.0
 10
25.75384456574569
 20
17.04501563256482
 30
0.0
 10
25.7639906061978
 20
17.04991756653576
 30
0.0
 10
25.76893027507587
 20
17.05230410646659
 30
0.0
  0
LINE
  5
27B
330
1F
100
AcDbEntity
  8
0
  6
Continuous
 62
     7
 48
2.0
370
    15
100
AcDbLine
 10
25.7680701516
 20
17.0517425437
 30
0.0
 11
25.7837826827
 21
17.0608131948
 31
0.0
  0
LINE
  5
27C
330
1F
100
AcDbEntity
  8
0
  6
Continuous
 62
     7
 48
2.0
370
    15
100
AcDbLine
 10
25.6594594537
 20
17.2761706786
 30
0.0
 11
25.6437469225
 21
17.2671000275
 31
0.0
  0
LINE
  5
27D
330
1F
100
AcDbEntity
  8
0
  6
Continuous
 62
     7
 48
2.0
370
    15
100
AcDbLine
 10
27.5186151015
 20
17.797935855
 30
0.0
 11
27.4893880212
 21
17.7810634207
 31
0.0
  0
LINE
  5
27E
330
1F
100
AcDbEntity
  8
0
  6
Continuous
 62
     7
 48
2.0
370
    15
100
AcDbLine
 10
27.5186151015
 20
14.5317726075
 30
0.0
 11
27.5186151015
 21
17.797935855
 31
0.0
  0
LINE
  5
27F
330
1F
100
AcDbEntity
  8
0
  6
Continuous
 62
     7
 48
2.0
370
    15
100
AcDbLine
 10
27.5186151015
 20
14.5317726075
 30
0.0
 11
27.4893880212
 21
14.5149001732
 31
0.0
  0
LINE
  5
280
330
1F
100
AcDbEntity
  8
0
  6
Continuous
 62
     7
 48
2.0
370
    15
100
AcDbLine
 10
27.4893880212
 20
14.5149001732
 30
0.0
 11
27.4893880212
 21
17.7810634207
 31
0.0
  0
LWPOLYLINE
  5
281
330
1F
100
AcDbEntity
  8
0
  6
Continuous
 62
     7
 48
2.0
370
    15
100
AcDbPolyline
 90
       22
 70
   128
 43
0.0
 10
27.4371283153
 20
16.1105486587
 10
27.4452228922
 20
16.0959178166
 10
27.4565745877
 20
16.0695386213
 10
27.463992409
 20
16.0430859238
 10
27.4671332049
 20
16.0177834352
 10
27.4658516813
 20
15.9948016577
 10
27.4602071218
 20
15.9752037366
 10
27.4504606457
 20
15.9598962787
 10
27.4370631286
 20
15.9495874124
 10
27.4206343444
 20
15.9447540296
 10
27.4019342944
 20
15.9456197243
 10
27.3818280497
 20
15.9521444492
 10
27.3612457323
 20
15.9640263681
 10
27.3411394875
 20
15.9807158193
 10
27.3224394376
 20
16.0014407427
 10
27.3060106533
 20
16.025242396
 10
27.2926131362
 20
16.0510197063
 10
27.2828666601
 20
16.077580206
 10
27.2772221006
 20
16.1036951968
 10
27.275940577
 20
16.1281565899
 10
27.279081373
 20
16.1498327927
 10
27.2848635403
 20
16.1648248421
  0
LWPOLYLINE
  5
282
330
1F
100
AcDbEntity
  8
0
  6
Continuous
 62
     7
 48
2.0
370
    15
100
AcDbPolyline
 90
       22
 70
   128
 43
0.0
 10
25.6355214604
 20
17.1183601485
 10
25.6291655502
 20
17.1023089231
 10
25.6260247542
 20
17.0806327204
 10
25.6273062779
 20
17.0561713272
 10
25.6329508374
 20
17.0300563364
 10
25.6426973134
 20
17.0034958368
 10
25.6560948305
 20
16.9777185265
 10
25.6725236148
 20
16.9539168732
 10
25.6912236648
 20
16.9331919497
 10
25.7113299095
 20
16.9165024986
 10
25.7319122269
 20
16.9046205796
 10
25.7520184716
 20
16.8980958548
 10
25.7707185216
 20
16.8972301601
 10
25.7871473059
 20
16.9020635429
 10
25.800544823
 20
16.9123724091
 10
25.810291299
 20
16.9276798671
 10
25.8159358585
 20
16.9472777882
 10
25.8172173822
 20
16.9702595656
 10
25.8140765862
 20
16.9955620542
 10
25.8066587649
 20
17.0220147518
 10
25.7953070695
 20
17.0483939471
 10
25.7872124926
 20
17.0630247892
  0
LINE
  5
283
330
1F
100
AcDbEntity
  8
0
  6
Continuous
 62
     7
 48
2.0
370
    15
100
AcDbLine
 10
27.4893880212
 20
17.7810634207
 30
0.0
 11
25.603769938
 21
18.8696075698
 31
0.0
  0
LINE
  5
284
330
1F
100
AcDbEntity
  8
0
  6
Continuous
 62
     7
 48
2.0
370
    15
100
AcDbLine
 10
25.603769938
 20
15.6034443223
 30
0.0
 11
27.4893880212
 21
14.5149001732
 31
0.0
  0
LINE
  5
285
330
1F
100
AcDbEntity
  8
0
  6
Continuous
 62
     7
 48
2.0
370
    15
100
AcDbLine
 10
25.603769938
 20
18.8696075698
 30
0.0
 11
25.603769938
 21
15.6034443223
 31
0.0
  0
LINE
  5
286
330
1F
100
AcDbEntity
  8
0
  6
Continuous
 62
     7
 48
2.0
370
    15
100
AcDbLine
 10
25.6329970183
 20
18.8864800041
 30
0.0
 11
25.603769938
 21
18.8696075698
 31
0.0
  0
LINE
  5
287
330
1F
100
AcDbEntity
  8
0
  6
Continuous
 62
     7
 48
2.0
370
    15
100
AcDbLine
 10
27.5186151015
 20
17.797935855
 30
0.0
 11
25.6329970183
 21
18.8864800041
 31
0.0
  0
LWPOLYLINE
  5
288
330
1F
100
AcDbEntity
  8
0
  6
Continuous
 62
     7
 48
2.0
370
    15
100
AcDbPolyline
 90
       12
 70
   128
 43
0.0
 10
27.4522151528
 20
15.9619461019
 10
27.4498614247
 20
15.9616264639
 10
27.4311613747
 20
15.9624921586
 10
27.41105513
 20
15.9690168835
 10
27.3904728126
 20
15.9808988024
 10
27.3703665678
 20
15.9975882536
 10
27.3516665179
 20
16.018313177
 10
27.3352377336
 20
16.0421148303
 10
27.3218402165
 20
16.0678921406
 10
27.3120937404
 20
16.0944526403
 10
27.3064491809
 20
16.1205676311
 10
27.3050911336
 20
16.1376684894
  0
LWPOLYLINE
  5
289
330
1F
100
AcDbEntity
  8
0
  6
Continuous
 62
     7
 48
2.0
370
    15
100
AcDbPolyline
 90
       12
 70
   128
 43
0.0
 10
25.6551753109
 20
17.0901446199
 10
25.6565333582
 20
17.0730437615
 10
25.6621779177
 20
17.0469287707
 10
25.6719243937
 20
17.0203682711
 10
25.6853219108
 20
16.9945909608
 10
25.7017506951
 20
16.9707893075
 10
25.7204507451
 20
16.950064384
 10
25.7405569898
 20
16.9333749329
 10
25.7611393072
 20
16.921493014
 10
25.7812455519
 20
16.9149682891
 10
25.7999456019
 20
16.9141025944
 10
25.80229933
 20
16.9144222323
  0
ARC
  5
28A
330
1F
100
AcDbEntity
  8
0
  6
Continuous
 62
     7
 48
4.0
370
    15
100
AcDbCircle
 10
29.2325116909
 20
18.8222469857
 30
0.0
 40
0.0760264026775507
100
AcDbArc
 50
29.2391144081
 51
57.6588435423
  0
ARC
  5
28B
330
1F
100
AcDbEntity
  8
0
  6
Continuous
 62
     7
 48
4.0
370
    15
100
AcDbCircle
 10
27.479422075
 20
17.8107570574
 30
0.0
 40
0.0740542433043265
100
AcDbArc
 50
28.8567998288
 51
58.0453714773
  0
ARC
  5
28C
330
1F
100
AcDbEntity
  8
0
  6
Continuous
 62
     7
 48
4.0
370
    15
100
AcDbCircle
 10
27.5110297489
 20
17.8276615957
 30
0.0
 40
0.0143469347918607
100
AcDbArc
 50
29.8362285536
 51
58.0817362105
  0
LINE
  5
28D
330
1F
100
AcDbEntity
  8
0
  6
Continuous
 62
     7
 48
2.0
370
    15
100
AcDbLine
 10
27.3338245293
 20
17.980267
 30
0.0
 11
27.5186151015
 21
17.8735896734
 31
0.0
  0
LINE
  5
28E
330
1F
100
AcDbEntity
  8
0
  6
Continuous
 62
     7
 48
2.0
370
    15
100
AcDbLine
 10
27.304597449
 20
17.9633945657
 30
0.0
 11
27.3338245293
 21
17.980267
 31
0.0
  0
LINE
  5
28F
330
1F
100
AcDbEntity
  8
0
  6
Continuous
 62
     7
 48
2.0
370
    15
100
AcDbLine
 10
25.9196109669
 20
18.7629302432
 30
0.0
 11
25.9488380472
 21
18.7798026775
 31
0.0
  0
LINE
  5
290
330
1F
100
AcDbEntity
  8
0
  6
Continuous
 62
     7
 48
2.0
370
    15
100
AcDbLine
 10
25.9488380472
 20
18.7798026775
 30
0.0
 11
25.7640474751
 21
18.8864800041
 31
0.0
  0
LINE
  5
291
330
1F
100
AcDbEntity
  8
0
  6
Continuous
 62
     7
 48
2.0
370
    15
100
AcDbLine
 10
27.3338245293
 20
17.9465166464
 30
0.0
 11
27.3338245293
 21
17.980267
 31
0.0
  0
LINE
  5
292
330
1F
100
AcDbEntity
  8
0
  6
Continuous
 62
     7
 48
2.0
370
    15
100
AcDbLine
 10
27.3338245293
 20
17.9465166464
 30
0.0
 11
27.5186151015
 21
17.8398393198
 31
0.0
  0
ARC
  5
293
330
1F
100
AcDbEntity
  8
0
  6
Continuous
 62
     7
 48
4.0
370
    15
100
AcDbCircle
 10
27.3437904754
 20
17.9005619497
 30
0.0
 40
0.0740542433043521
100
AcDbArc
 50
121.9546285227
 51
151.1432001712
  0
ARC
  5
294
330
1F
100
AcDbEntity
  8
0
  6
Continuous
 62
     7
 48
4.0
370
    15
100
AcDbCircle
 10
25.9588039934
 20
18.7000976272
 30
0.0
 40
0.0740542433042207
100
AcDbArc
 50
121.9546285227
 51
151.1432001713
  0
LINE
  5
295
330
1F
100
AcDbEntity
  8
0
  6
Continuous
 62
     7
 48
2.0
370
    15
100
AcDbLine
 10
27.3267582121
 20
17.9424373483
 30
0.0
 11
27.3338245293
 21
17.9465166464
 31
0.0
  0
LINE
  5
296
330
1F
100
AcDbEntity
  8
0
  6
Continuous
 62
     7
 48
2.0
370
    15
100
AcDbLine
 10
25.9196062166
 20
18.7629275005
 30
0.0
 11
25.7640474751
 21
18.8527296506
 31
0.0
  0
ARC
  5
297
330
1F
100
AcDbEntity
  8
0
  6
Continuous
 62
     7
 48
4.0
370
    15
100
AcDbCircle
 10
25.7498778112
 20
18.8691083134
 30
0.0
 40
0.0224177388013305
100
AcDbArc
 50
50.7967147643
 51
189.2140369905
  0
ARC
  5
298
330
1F
100
AcDbEntity
  8
0
  6
Continuous
 62
     7
 48
4.0
370
    15
100
AcDbCircle
 10
27.5035785386
 20
19.8783810933
 30
0.0
 40
0.025819498109644
100
AcDbArc
 50
54.3824225248
 51
114.3071190461
  0
ARC
  5
299
330
1F
100
AcDbEntity
  8
0
  6
Continuous
 62
     7
 48
4.0
370
    15
100
AcDbCircle
 10
25.7612871509
 20
18.849345555
 30
0.0
 40
0.0043670919742871
100
AcDbArc
 50
50.7967147643
 51
189.2140369904
  0
ARC
  5
29A
330
1F
100
AcDbEntity
  8
0
  6
Continuous
 62
     7
 48
4.0
370
    15
100
AcDbCircle
 10
29.2873523917
 20
18.8691083134
 30
0.0
 40
0.022417738801334
100
AcDbArc
 50
350.7859630095
 51
129.2032852357
  0
ARC
  5
29B
330
1F
100
AcDbEntity
  8
0
  6
Continuous
 62
     7
 48
4.0
370
    15
100
AcDbCircle
 10
27.5336516643
 20
19.8783810933
 30
0.0
 40
0.0258194981096293
100
AcDbArc
 50
65.6928809539
 51
125.6175774752
  0
ARC
  5
29C
330
1F
100
AcDbEntity
  8
0
  6
Continuous
 62
     7
 48
4.0
370
    15
100
AcDbCircle
 10
27.5186151015
 20
17.8889454989
 30
0.0
 40
0.0789004579394717
100
AcDbArc
 50
242.6096722366
 51
297.3903277634
  0
ARC
  5
29D
330
1F
100
AcDbEntity
  8
0
  6
Continuous
 62
     7
 48
4.0
370
    15
100
AcDbCircle
 10
27.5200940321
 20
14.6181017026
 30
0.0
 40
0.0740690143065739
100
AcDbArc
 50
268.8559032542
 51
298.0402391154
  0
ARC
  5
29E
330
1F
100
AcDbEntity
  8
0
  6
Continuous
 62
     7
 48
4.0
370
    15
100
AcDbCircle
 10
27.5186151015
 20
17.8494098751
 30
0.0
 40
0.0153702190791423
100
AcDbArc
 50
242.6096722366
 51
297.3903277634
  0
LINE
  5
29F
330
1F
100
AcDbEntity
  8
0
  6
Continuous
 62
     7
 48
2.0
370
    15
100
AcDbLine
 10
27.2829128411
 20
17.9340038737
 30
0.0
 11
27.4823169534
 21
17.8188903299
 31
0.0
  0
LINE
  5
2A0
330
1F
100
AcDbEntity
  8
0
  6
Continuous
 62
     7
 48
2.0
370
    15
100
AcDbLine
 10
27.5549132496
 20
17.8188903299
 30
0.0
 11
29.3679350365
 21
18.8655255292
 31
0.0
  0
LINE
  5
2A1
330
1F
100
AcDbEntity
  8
0
  6
Continuous
 62
     7
 48
2.0
370
    15
100
AcDbLine
 10
27.5549132496
 20
14.5527270823
 30
0.0
 11
29.3679350365
 21
15.5993622817
 31
0.0
  0
LINE
  5
2A2
330
1F
100
AcDbEntity
  8
0
  6
Continuous
 62
     7
 48
2.0
370
    15
100
AcDbLine
 10
27.5256861693
 20
17.8357627642
 30
0.0
 11
29.3387079562
 21
18.8823979636
 31
0.0
  0
LINE
  5
2A3
330
1F
100
AcDbEntity
  8
0
  6
Continuous
 62
     7
 48
2.0
370
    15
100
AcDbLine
 10
27.2829128411
 20
17.9340038737
 30
0.0
 11
27.3121399213
 21
17.950876308
 31
0.0
  0
LINE
  5
2A4
330
1F
100
AcDbEntity
  8
0
  6
Continuous
 62
     7
 48
2.0
370
    15
100
AcDbLine
 10
27.3121399213
 20
17.950876308
 30
0.0
 11
27.5115440336
 21
17.8357627642
 31
0.0
  0
LINE
  5
2A5
330
1F
100
AcDbEntity
  8
0
  6
Continuous
 62
     7
 48
2.0
370
    15
100
AcDbLine
 10
25.6692951664
 20
18.8655255292
 30
0.0
 11
25.8686992787
 21
18.7504119855
 31
0.0
  0
LINE
  5
2A6
330
1F
100
AcDbEntity
  8
0
  6
Continuous
 62
     7
 48
2.0
370
    15
100
AcDbLine
 10
25.6985222467
 20
18.8823979636
 30
0.0
 11
25.897926359
 21
18.7672844198
 31
0.0
  0
LINE
  5
2A7
330
1F
100
AcDbEntity
  8
0
  6
Continuous
 62
     7
 48
2.0
370
    15
100
AcDbLine
 10
25.897926359
 20
18.7672844198
 30
0.0
 11
25.8686992787
 21
18.7504119855
 31
0.0
  0
LINE
  5
2A8
330
1F
100
AcDbEntity
  8
0
  6
Continuous
 62
     7
 48
2.0
370
    15
100
AcDbLine
 10
25.897926359
 20
18.7672844198
 30
0.0
 11
25.897926359
 21
18.7421102117
 31
0.0
  0
ARC
  5
2A9
330
1F
100
AcDbEntity
  8
0
  6
Continuous
 62
     7
 48
4.0
370
    15
100
AcDbCircle
 10
29.3599821158
 20
18.8864800041
 30
0.0
 40
0.0224129195974918
100
AcDbArc
 50
290.7834207995
 51
69.2165792005
  0
ARC
  5
2AA
330
1F
100
AcDbEntity
  8
0
  6
Continuous
 62
     7
 48
4.0
370
    15
100
AcDbCircle
 10
29.3572800925
 20
15.6228786173
 30
0.0
 40
0.0258175496293503
100
AcDbArc
 50
294.3746582936
 51
354.3052007488
  0
ARC
  5
2AB
330
1F
100
AcDbEntity
  8
0
  6
Continuous
 62
     7
 48
4.0
370
    15
100
AcDbCircle
 10
29.337158686
 20
18.8864800041
 30
0.0
 40
0.0043661531683481
100
AcDbArc
 50
290.7834207996
 51
69.2165792004
  0
ARC
  5
2AC
330
1F
100
AcDbEntity
  8
0
  6
Continuous
 62
     7
 48
4.0
370
    15
100
AcDbCircle
 10
25.6772480871
 20
18.8864800041
 30
0.0
 40
0.0224129195974943
100
AcDbArc
 50
110.7834207995
 51
249.2165792005
  0
ARC
  5
2AD
330
1F
100
AcDbEntity
  8
0
  6
Continuous
 62
     7
 48
4.0
370
    15
100
AcDbCircle
 10
25.7000715169
 20
18.8864800041
 30
0.0
 40
0.0043661531683431
100
AcDbArc
 50
110.7834207994
 51
249.2165792006
  0
LINE
  5
2AE
330
1F
100
AcDbEntity
  8
0
  6
Continuous
 62
     7
 48
2.0
370
    15
100
AcDbLine
 10
29.3387079562
 20
18.8905620447
 30
0.0
 11
27.5256861693
 21
19.937197244
 31
0.0
  0
LINE
  5
2AF
330
1F
100
AcDbEntity
  8
0
  6
Continuous
 62
     7
 48
2.0
370
    15
100
AcDbLine
 10
29.3679350365
 20
18.907434479
 30
0.0
 11
27.5549132496
 21
19.9540696783
 31
0.0
  0
LINE
  5
2B0
330
1F
100
AcDbEntity
  8
0
  6
Continuous
 62
     7
 48
2.0
370
    15
100
AcDbLine
 10
27.5115440336
 20
19.937197244
 30
0.0
 11
25.6985222467
 21
18.8905620447
 31
0.0
  0
LINE
  5
2B1
330
1F
100
AcDbEntity
  8
0
  6
Continuous
 62
     7
 48
2.0
370
    15
100
AcDbLine
 10
27.4823169534
 20
19.9540696783
 30
0.0
 11
25.6692951664
 21
18.907434479
 31
0.0
  0
ARC
  5
2B2
330
1F
100
AcDbEntity
  8
0
  6
Continuous
 62
     7
 48
4.0
370
    15
100
AcDbCircle
 10
27.5186151015
 20
19.9235501332
 30
0.0
 40
0.0153702190791013
100
AcDbArc
 50
62.6096722366
 51
117.3903277634
  0
ARC
  5
2B3
330
1F
100
AcDbEntity
  8
0
  6
Continuous
 62
     7
 48
4.0
370
    15
100
AcDbCircle
 10
27.5186151015
 20
19.8840145093
 30
0.0
 40
0.0789004579394749
100
AcDbArc
 50
62.6096722366
 51
117.3903277634
  0
ARC
  5
2B4
330
1F
100
AcDbEntity
  8
0
  6
Continuous
 62
     7
 48
4.0
370
    15
100
AcDbCircle
 10
27.4580804567
 20
16.2716928716
 30
0.0
 40
0.1685471171535659
100
AcDbArc
 50
174.6748330274
 51
202.0527125078
  0
ARC
  5
2B5
330
1F
100
AcDbEntity
  8
0
  6
Continuous
 62
     7
 48
4.0
370
    15
100
AcDbCircle
 10
27.3025041795
 20
16.2550878735
 30
0.0
 40
0.0344935158142934
100
AcDbArc
 50
110.7902415756
 51
130.7122680043
  0
ARC
  5
2B6
330
1F
100
AcDbEntity
  8
0
  6
Continuous
 62
     7
 48
4.0
370
    15
100
AcDbCircle
 10
27.4478250868
 20
16.2655912635
 30
0.0
 40
0.1685471171535624
100
AcDbArc
 50
174.6748330274
 51
202.0527125078
  0
ARC
  5
2B7
330
1F
100
AcDbEntity
  8
0
  6
Continuous
 62
     7
 48
4.0
370
    15
100
AcDbCircle
 10
27.4243377854
 20
16.1929355023
 30
0.0
 40
0.1330592592904979
100
AcDbArc
 50
175.9605420815
 51
189.7287871265
  0
ARC
  5
2B8
330
1F
100
AcDbEntity
  8
0
  6
Continuous
 62
     7
 48
4.0
370
    15
100
AcDbCircle
 10
27.376090135
 20
16.2728474935
 30
0.0
 40
0.1317468116887239
100
AcDbArc
 50
231.0072255293
 51
244.7970514134
  0
ARC
  5
2B9
330
1F
100
AcDbEntity
  8
0
  6
Continuous
 62
     7
 48
4.0
370
    15
100
AcDbCircle
 10
27.4531563905
 20
16.2594049162
 30
0.0
 40
0.1700567599717006
100
AcDbArc
 50
218.4568726056
 51
245.6709783216
  0
ARC
  5
2BA
330
1F
100
AcDbEntity
  8
0
  6
Continuous
 62
     7
 48
4.0
370
    15
100
AcDbCircle
 10
27.3708536992
 20
16.1366976047
 30
0.0
 40
0.0344935158142493
100
AcDbArc
 50
290.7902415756
 51
310.7122680043
  0
ARC
  5
2BB
330
1F
100
AcDbEntity
  8
0
  6
Continuous
 62
     7
 48
4.0
370
    15
100
AcDbCircle
 10
27.4634117604
 20
16.2655065242
 30
0.0
 40
0.1700567599716941
100
AcDbArc
 50
218.4568726056
 51
245.6709783216
  0
ARC
  5
2BC
330
1F
100
AcDbEntity
  8
0
  6
Continuous
 62
     7
 48
4.0
370
    15
100
AcDbCircle
 10
27.4833391836
 20
16.1711762752
 30
0.0
 40
0.1535211403133322
100
AcDbArc
 50
171.7575979929
 51
184.2706381518
  0
ARC
  5
2BD
330
1F
100
AcDbEntity
  8
0
  6
Continuous
 62
     7
 48
4.0
370
    15
100
AcDbCircle
 10
27.3861676644
 20
16.3357062046
 30
0.0
 40
0.1526803502796931
100
AcDbArc
 50
236.4850188642
 51
248.980677874
  0
ARC
  5
2BE
330
1F
100
AcDbEntity
  8
0
  6
Continuous
 62
     7
 48
4.0
370
    15
100
AcDbCircle
 10
27.3234724976
 20
16.2644084871
 30
0.0
 40
0.0573222578414015
100
AcDbArc
 50
137.0763918386
 51
170.0010666186
  0
ARC
  5
2BF
330
1F
100
AcDbEntity
  8
0
  6
Continuous
 62
     7
 48
4.0
370
    15
100
AcDbCircle
 10
27.3893529927
 20
16.1495980789
 30
0.0
 40
0.0567448724737786
100
AcDbArc
 50
249.8401189153
 51
283.5147437918
  0
LWPOLYLINE
  5
2C0
330
1F
100
AcDbEntity
  8
0
  6
Continuous
 62
     7
 48
2.0
370
    15
100
AcDbPolyline
 90
        3
 70
   128
 43
0.0
 10
27.4179859744
 20
16.0992664132
 10
27.4184565522
 20
16.0995422159
 10
27.4196432143
 20
16.1002755372
  0
LWPOLYLINE
  5
2C1
330
1F
100
AcDbEntity
  8
0
  6
Continuous
 62
     7
 48
2.0
370
    15
100
AcDbPolyline
 90
       16
 70
   128
 43
0.0
 10
27.4336985055
 20
16.1083370644
 10
27.4341690833
 20
16.108612867
 10
27.4463277774
 20
16.119473995
 10
27.4547361442
 20
16.1351761325
 10
27.458972553
 20
16.1549319089
 10
27.4588245726
 20
16.1777506869
 10
27.4542996233
 20
16.2024882377
 10
27.4456246051
 20
16.2279041174
 10
27.4332345195
 20
16.2527238675
 10
27.4177506572
 20
16.2757029221
 10
27.3999494437
 20
16.2956890155
 10
27.3807235061
 20
16.3116799615
 10
27.3610369133
 20
16.3228739073
 10
27.3418768333
 20
16.3287095417
 10
27.3242040323
 20
16.3288942416
 10
27.3089046986
 20
16.3234187455
  0
LINE
  5
2C2
330
1F
100
AcDbEntity
  8
0
  6
Continuous
 62
     7
 48
2.0
370
    15
100
AcDbLine
 10
27.3299757301
 20
16.1779835214
 30
0.0
 11
27.3180184801
 21
16.1847825044
 31
0.0
  0
LINE
  5
2C3
330
1F
100
AcDbEntity
  8
0
  6
Continuous
 62
     7
 48
2.0
370
    15
100
AcDbLine
 10
27.3180184801
 20
16.1847825044
 30
0.0
 11
27.3179254052
 21
16.1991347752
 31
0.0
  0
LINE
  5
2C4
330
1F
100
AcDbEntity
  8
0
  6
Continuous
 62
     7
 48
2.0
370
    15
100
AcDbLine
 10
27.3180184801
 20
16.1847825044
 30
0.0
 11
27.2931920925
 21
16.1704505359
 31
0.0
  0
LINE
  5
2C5
330
1F
100
AcDbEntity
  8
0
  6
Continuous
 62
     7
 48
2.0
370
    15
100
AcDbLine
 10
27.3303441717
 20
16.1596202514
 30
0.0
 11
27.3199889362
 21
16.1536423012
 31
0.0
  0
LINE
  5
2C6
330
1F
100
AcDbEntity
  8
0
  6
Continuous
 62
     7
 48
2.0
370
    15
100
AcDbLine
 10
27.2916090753
 20
16.2023086556
 30
0.0
 11
27.3020095782
 21
16.2083127381
 31
0.0
  0
LINE
  5
2C7
330
1F
100
AcDbEntity
  8
0
  6
Continuous
 62
     7
 48
2.0
370
    15
100
AcDbLine
 10
27.3830970947
 20
16.1044500947
 30
0.0
 11
27.3733337044
 21
16.1211925522
 31
0.0
  0
LINE
  5
2C8
330
1F
100
AcDbEntity
  8
0
  6
Continuous
 62
     7
 48
2.0
370
    15
100
AcDbLine
 10
27.2896106016
 20
16.2647626075
 30
0.0
 11
27.2800054141
 21
16.2812337755
 31
0.0
  0
ARC
  5
2C9
330
1F
100
AcDbEntity
  8
0
  6
Continuous
 62
     7
 48
4.0
370
    15
100
AcDbCircle
 10
25.5692225655
 20
17.2549910653
 30
0.0
 40
0.1405858830621541
100
AcDbArc
 50
295.2935149074
 51
301.0302462769
  0
ARC
  5
2CA
330
1F
100
AcDbEntity
  8
0
  6
Continuous
 62
     7
 48
4.0
370
    15
100
AcDbCircle
 10
25.7892890445
 20
17.2075546195
 30
0.0
 40
0.1777643298496731
100
AcDbArc
 50
206.4189479532
 51
213.0837203228
  0
LWPOLYLINE
  5
2CB
330
1F
100
AcDbEntity
  8
0
  6
Continuous
 62
     7
 48
2.0
370
    15
100
AcDbPolyline
 90
        9
 70
   128
 43
0.0
 10
25.6403449613
 20
17.1105194866
 10
25.6396590092
 20
17.1100545432
 10
25.6395899243
 20
17.1099419633
 10
25.6401380263
 20
17.1101822678
 10
25.6413007786
 20
17.1107743448
 10
25.6430728005
 20
17.1117154541
 10
25.6454458915
 20
17.1130012408
 10
25.6484090697
 20
17.1146257546
 10
25.6519486224
 20
17.1165814776
  0
ARC
  5
2CC
330
1F
100
AcDbEntity
  8
0
  6
Continuous
 62
     7
 48
4.0
370
    15
100
AcDbCircle
 10
25.7383856601
 20
17.2434458624
 30
0.0
 40
0.1535119982886647
100
AcDbArc
 50
235.7320593107
 51
248.2449303394
  0
ARC
  5
2CD
330
1F
100
AcDbEntity
  8
0
  6
Continuous
 62
     7
 48
4.0
370
    15
100
AcDbCircle
 10
25.8116282319
 20
17.1214689542
 30
0.0
 40
0.1317607387530267
100
AcDbArc
 50
175.2057892005
 51
188.9953982189
  0
ARC
  5
2CE
330
1F
100
AcDbEntity
  8
0
  6
Continuous
 62
     7
 48
4.0
370
    15
100
AcDbCircle
 10
17.4740521587
 20
31.6740744989
 30
0.0
 40
16.69733237587852
100
AcDbArc
 50
299.4373975092
 51
299.6863579301
  0
ARC
  5
2CF
330
1F
100
AcDbEntity
  8
0
  6
Continuous
 62
     7
 48
4.0
370
    15
100
AcDbCircle
 10
25.5842371887
 20
17.0891831196
 30
0.0
 40
0.1777643298491519
100
AcDbArc
 50
26.4189479532
 51
33.0837203228
  0
ARC
  5
2D0
330
1F
100
AcDbEntity
  8
0
  6
Continuous
 62
     7
 48
4.0
370
    15
100
AcDbCircle
 10
17.4637967891
 20
31.6920167044
 30
0.0
 40
16.69733237523589
100
AcDbArc
 50
299.4373975092
 51
299.6863579302
  0
ARC
  5
2D1
330
1F
100
AcDbEntity
  8
0
  6
Continuous
 62
     7
 48
4.0
370
    15
100
AcDbCircle
 10
25.7283081939
 20
17.270046416
 30
0.0
 40
0.1330451162969968
100
AcDbArc
 50
230.2736961246
 51
244.0421854464
  0
ARC
  5
2D2
330
1F
100
AcDbEntity
  8
0
  6
Continuous
 62
     7
 48
4.0
370
    15
100
AcDbCircle
 10
25.7940947392
 20
17.1438925108
 30
0.0
 40
0.1526891877680654
100
AcDbArc
 50
171.0219485637
 51
183.5178106841
  0
LINE
  5
2D3
330
1F
100
AcDbEntity
  8
0
  6
Continuous
 62
     7
 48
2.0
370
    15
100
AcDbLine
 10
25.706080732
 20
17.1473475988
 30
0.0
 11
25.6803284833
 21
17.1324811421
 31
0.0
  0
LINE
  5
2D4
330
1F
100
AcDbEntity
  8
0
  6
Continuous
 62
     7
 48
2.0
370
    15
100
AcDbLine
 10
25.7434366418
 20
17.1682760465
 30
0.0
 11
25.706080732
 21
17.1473475988
 31
0.0
  0
LWPOLYLINE
  5
2D5
330
1F
100
AcDbEntity
  8
0
  6
Continuous
 62
     7
 48
2.0
370
    15
100
AcDbPolyline
 90
       16
 70
   128
 43
0.0
 10
25.7837826827
 20
17.0608131948
 10
25.7957087823
 20
17.0710637716
 10
25.8043838005
 20
17.0864636884
 10
25.8089087498
 20
17.1059768441
 10
25.8090567302
 20
17.1286247676
 10
25.8048203214
 20
17.1532717974
 10
25.7964119547
 20
17.1786820285
 10
25.7842532606
 20
17.2035812859
 10
25.7689539268
 20
17.2267210168
 10
25.7512811259
 20
17.2469408985
 10
25.7321210458
 20
17.2632270216
 10
25.712434453
 20
17.274762732
 10
25.6932085155
 20
17.280969581
 10
25.675407302
 20
17.2815363313
 10
25.6599234397
 20
17.2764345636
 10
25.6594594537
 20
17.2761706786
  0
LINE
  5
2D6
330
1F
100
AcDbEntity
  8
0
  6
Continuous
 62
     7
 48
2.0
370
    15
100
AcDbLine
 10
25.706080732
 20
17.1473475988
 30
0.0
 11
25.7061584035
 21
17.1592349748
 31
0.0
  0
LINE
  5
2D7
330
1F
100
AcDbEntity
  8
0
  6
Continuous
 62
     7
 48
2.0
370
    15
100
AcDbLine
 10
25.7061584035
 20
17.1592349748
 30
0.0
 11
25.6960892349
 21
17.1651351839
 31
0.0
  0
LINE
  5
2D8
330
1F
100
AcDbEntity
  8
0
  6
Continuous
 62
     7
 48
2.0
370
    15
100
AcDbLine
 10
25.6801909016
 20
17.1305069956
 30
0.0
 11
25.6678132513
 21
17.1377599008
 31
0.0
  0
LINE
  5
2D9
330
1F
100
AcDbEntity
  8
0
  6
Continuous
 62
     7
 48
2.0
370
    15
100
AcDbLine
 10
25.6678132513
 20
17.1377599008
 30
0.0
 11
25.6679031656
 21
17.1515209964
 31
0.0
  0
LINE
  5
2DA
330
1F
100
AcDbEntity
  8
0
  6
Continuous
 62
     7
 48
2.0
370
    15
100
AcDbLine
 10
25.6678132513
 20
17.1377599008
 30
0.0
 11
25.6673678297
 21
17.1375027643
 31
0.0
  0
LINE
  5
2DB
330
1F
100
AcDbEntity
  8
0
  6
Continuous
 62
     7
 48
2.0
370
    15
100
AcDbLine
 10
25.6674455012
 20
17.1493901404
 30
0.0
 11
25.6673678297
 21
17.1375027643
 31
0.0
  0
LINE
  5
2DC
330
1F
100
AcDbEntity
  8
0
  6
Continuous
 62
     7
 48
2.0
370
    15
100
AcDbLine
 10
25.6674455012
 20
17.1493901404
 30
0.0
 11
25.6416932525
 21
17.1345236836
 31
0.0
  0
LINE
  5
2DD
330
1F
100
AcDbEntity
  8
0
  6
Continuous
 62
     7
 48
2.0
370
    15
100
AcDbLine
 10
25.6519486224
 20
17.1165814776
 30
0.0
 11
25.6777008711
 21
17.1314479343
 31
0.0
  0
LINE
  5
2DE
330
1F
100
AcDbEntity
  8
0
  6
Continuous
 62
     7
 48
2.0
370
    15
100
AcDbLine
 10
25.6673678297
 20
17.1375027643
 30
0.0
 11
25.6777008711
 21
17.1314479343
 31
0.0
  0
LINE
  5
2DF
330
1F
100
AcDbEntity
  8
0
  6
Continuous
 62
     7
 48
2.0
370
    15
100
AcDbLine
 10
25.6777008711
 20
17.1314479343
 30
0.0
 11
25.6403449613
 21
17.1105194866
 31
0.0
  0
LINE
  5
2E0
330
1F
100
AcDbEntity
  8
0
  6
Continuous
 62
     7
 48
2.0
370
    15
100
AcDbLine
 10
17.9789010878
 20
12.1959125523
 30
0.0
 11
15.0409010878
 21
12.1959125523
 31
0.0
  0
LINE
  5
2E1
330
1F
100
AcDbEntity
  8
0
  6
Continuous
 62
     7
 48
2.0
370
    15
100
AcDbLine
 10
15.0409010878
 20
12.6189125523
 30
0.0
 11
15.0409010878
 21
12.1959125523
 31
0.0
  0
LINE
  5
2E2
330
1F
100
AcDbEntity
  8
0
  6
Continuous
 62
     7
 48
2.0
370
    15
100
AcDbLine
 10
17.9789010878
 20
12.6189125523
 30
0.0
 11
17.9789010878
 21
12.1959125523
 31
0.0
  0
LINE
  5
2E3
330
1F
100
AcDbEntity
  8
0
  6
Continuous
 62
     7
 48
2.0
370
    15
100
AcDbLine
 10
17.9789010878
 20
12.6959125523
 30
0.0
 11
17.9789010878
 21
12.6189125523
 31
0.0
  0
LINE
  5
2E4
330
1F
100
AcDbEntity
  8
0
  6
Continuous
 62
     7
 48
2.0
370
    15
100
AcDbLine
 10
15.0409010878
 20
12.6959125523
 30
0.0
 11
15.0409010878
 21
12.6189125523
 31
0.0
  0
LINE
  5
2E5
330
1F
100
AcDbEntity
  8
0
  6
Continuous
 62
     7
 48
2.0
370
    15
100
AcDbLine
 10
15.0409010878
 20
12.6959125523
 30
0.0
 11
17.9789010878
 21
12.6959125523
 31
0.0
  0
LINE
  5
2E6
330
1F
100
AcDbEntity
  8
0
  6
Continuous
 62
     7
 48
2.0
370
    15
100
AcDbLine
 10
15.0409010878
 20
12.6339125523
 30
0.0
 11
15.0099010878
 21
12.6339125523
 31
0.0
  0
LINE
  5
2E7
330
1F
100
AcDbEntity
  8
0
  6
Continuous
 62
     7
 48
2.0
370
    15
100
AcDbLine
 10
15.0409010878
 20
12.6959125523
 30
0.0
 11
15.0099010878
 21
12.6959125523
 31
0.0
  0
LINE
  5
2E8
330
1F
100
AcDbEntity
  8
0
  6
Continuous
 62
     7
 48
2.0
370
    15
100
AcDbLine
 10
17.9789010878
 20
12.6339125523
 30
0.0
 11
18.0099010878
 21
12.6339125523
 31
0.0
  0
LINE
  5
2E9
330
1F
100
AcDbEntity
  8
0
  6
Continuous
 62
     7
 48
2.0
370
    15
100
AcDbLine
 10
17.9789010878
 20
12.6959125523
 30
0.0
 11
18.0099010878
 21
12.6959125523
 31
0.0
  0
LINE
  5
2EA
330
1F
100
AcDbEntity
  8
0
  6
Continuous
 62
     7
 48
2.0
370
    15
100
AcDbLine
 10
15.0099010878
 20
12.2579125523
 30
0.0
 11
15.0409010878
 21
12.2579125523
 31
0.0
  0
LINE
  5
2EB
330
1F
100
AcDbEntity
  8
0
  6
Continuous
 62
     7
 48
2.0
370
    15
100
AcDbLine
 10
17.9789010878
 20
12.2579125523
 30
0.0
 11
18.0099010878
 21
12.2579125523
 31
0.0
  0
LINE
  5
2EC
330
1F
100
AcDbEntity
  8
0
  6
Continuous
 62
     7
 48
2.0
370
    15
100
AcDbLine
 10
17.9789010878
 20
6.7729125523
 30
0.0
 11
17.9789010878
 21
7.1959125523
 31
0.0
  0
LINE
  5
2ED
330
1F
100
AcDbEntity
  8
0
  6
Continuous
 62
     7
 48
2.0
370
    15
100
AcDbLine
 10
15.0409010878
 20
7.1959125523
 30
0.0
 11
17.9789010878
 21
7.1959125523
 31
0.0
  0
LINE
  5
2EE
330
1F
100
AcDbEntity
  8
0
  6
Continuous
 62
     7
 48
2.0
370
    15
100
AcDbLine
 10
15.0409010878
 20
6.7729125523
 30
0.0
 11
15.0409010878
 21
7.1959125523
 31
0.0
  0
LINE
  5
2EF
330
1F
100
AcDbEntity
  8
0
  6
Continuous
 62
     7
 48
2.0
370
    15
100
AcDbLine
 10
15.0409010878
 20
6.6959125523
 30
0.0
 11
15.0409010878
 21
6.7729125523
 31
0.0
  0
LINE
  5
2F0
330
1F
100
AcDbEntity
  8
0
  6
Continuous
 62
     7
 48
2.0
370
    15
100
AcDbLine
 10
17.9789010878
 20
6.6959125523
 30
0.0
 11
17.9789010878
 21
6.7729125523
 31
0.0
  0
LINE
  5
2F1
330
1F
100
AcDbEntity
  8
0
  6
Continuous
 62
     7
 48
2.0
370
    15
100
AcDbLine
 10
17.9789010878
 20
6.6959125523
 30
0.0
 11
15.0409010878
 21
6.6959125523
 31
0.0
  0
LINE
  5
2F2
330
1F
100
AcDbEntity
  8
0
  6
Continuous
 62
     7
 48
2.0
370
    15
100
AcDbLine
 10
17.9789010878
 20
6.6959125523
 30
0.0
 11
18.0099010878
 21
6.6959125523
 31
0.0
  0
LINE
  5
2F3
330
1F
100
AcDbEntity
  8
0
  6
Continuous
 62
     7
 48
2.0
370
    15
100
AcDbLine
 10
17.9789010878
 20
6.7579125523
 30
0.0
 11
18.0099010878
 21
6.7579125523
 31
0.0
  0
LINE
  5
2F4
330
1F
100
AcDbEntity
  8
0
  6
Continuous
 62
     7
 48
2.0
370
    15
100
AcDbLine
 10
15.0409010878
 20
6.6959125523
 30
0.0
 11
15.0099010878
 21
6.6959125523
 31
0.0
  0
LINE
  5
2F5
330
1F
100
AcDbEntity
  8
0
  6
Continuous
 62
     7
 48
2.0
370
    15
100
AcDbLine
 10
15.0409010878
 20
6.7579125523
 30
0.0
 11
15.0099010878
 21
6.7579125523
 31
0.0
  0
LINE
  5
2F6
330
1F
100
AcDbEntity
  8
0
  6
Continuous
 62
     7
 48
2.0
370
    15
100
AcDbLine
 10
18.0099010878
 20
7.1339125523
 30
0.0
 11
17.9789010878
 21
7.1339125523
 31
0.0
  0
LINE
  5
2F7
330
1F
100
AcDbEntity
  8
0
  6
Continuous
 62
     7
 48
2.0
370
    15
100
AcDbLine
 10
15.0409010878
 20
7.1339125523
 30
0.0
 11
15.0099010878
 21
7.1339125523
 31
0.0
  0
LINE
  5
2F8
330
1F
100
AcDbEntity
  8
0
  6
Continuous
 62
     7
 48
2.0
370
    15
100
AcDbLine
 10
14.5869010878
 20
12.6959125523
 30
0.0
 11
15.0099010878
 21
12.6959125523
 31
0.0
  0
LINE
  5
2F9
330
1F
100
AcDbEntity
  8
0
  6
Continuous
 62
     7
 48
2.0
370
    15
100
AcDbLine
 10
15.0099010878
 20
12.6959125523
 30
0.0
 11
15.0099010878
 21
6.6959125523
 31
0.0
  0
LINE
  5
2FA
330
1F
100
AcDbEntity
  8
0
  6
Continuous
 62
     7
 48
2.0
370
    15
100
AcDbLine
 10
14.5869010878
 20
6.6959125523
 30
0.0
 11
15.0099010878
 21
6.6959125523
 31
0.0
  0
CIRCLE
  5
2FB
330
1F
100
AcDbEntity
  8
0
  6
Continuous
 62
     7
 48
4.0
370
    15
100
AcDbCircle
 10
14.7599010878
 20
9.6959125523
 30
0.0
 40
0.0850000000000009
  0
LINE
  5
2FC
330
1F
100
AcDbEntity
  8
0
  6
Continuous
 62
     7
 48
2.0
370
    15
100
AcDbLine
 10
18.0099010878
 20
12.6959125523
 30
0.0
 11
18.0099010878
 21
6.6959125523
 31
0.0
  0
LINE
  5
2FD
330
1F
100
AcDbEntity
  8
0
  6
Continuous
 62
     7
 48
2.0
370
    15
100
AcDbLine
 10
18.0099010878
 20
12.6959125523
 30
0.0
 11
18.4329010878
 21
12.6959125523
 31
0.0
  0
LINE
  5
2FE
330
1F
100
AcDbEntity
  8
0
  6
Continuous
 62
     7
 48
2.0
370
    15
100
AcDbLine
 10
18.0099010878
 20
6.6959125523
 30
0.0
 11
18.4329010878
 21
6.6959125523
 31
0.0
  0
CIRCLE
  5
2FF
330
1F
100
AcDbEntity
  8
0
  6
Continuous
 62
     7
 48
4.0
370
    15
100
AcDbCircle
 10
18.2599010878
 20
9.6959125523
 30
0.0
 40
0.0850000000000009
  0
LINE
  5
300
330
1F
100
AcDbEntity
  8
0
  6
Continuous
 62
     7
 48
2.0
370
    15
100
AcDbLine
 10
14.5099010878
 20
12.6959125523
 30
0.0
 11
14.5099010878
 21
6.6959125523
 31
0.0
  0
LINE
  5
301
330
1F
100
AcDbEntity
  8
0
  6
Continuous
 62
     7
 48
2.0
370
    15
100
AcDbLine
 10
14.5099010878
 20
12.6959125523
 30
0.0
 11
14.5869010878
 21
12.6959125523
 31
0.0
  0
LINE
  5
302
330
1F
100
AcDbEntity
  8
0
  6
Continuous
 62
     7
 48
2.0
370
    15
100
AcDbLine
 10
14.5099010878
 20
6.6959125523
 30
0.0
 11
14.5869010878
 21
6.6959125523
 31
0.0
  0
LINE
  5
303
330
1F
100
AcDbEntity
  8
0
  6
Continuous
 62
     7
 48
2.0
370
    15
100
AcDbLine
 10
18.4329010878
 20
12.6959125523
 30
0.0
 11
18.5099010878
 21
12.6959125523
 31
0.0
  0
LINE
  5
304
330
1F
100
AcDbEntity
  8
0
  6
Continuous
 62
     7
 48
2.0
370
    15
100
AcDbLine
 10
18.5099010878
 20
12.6959125523
 30
0.0
 11
18.5099010878
 21
6.6959125523
 31
0.0
  0
LINE
  5
305
330
1F
100
AcDbEntity
  8
0
  6
Continuous
 62
     7
 48
2.0
370
    15
100
AcDbLine
 10
18.4329010878
 20
6.6959125523
 30
0.0
 11
18.5099010878
 21
6.6959125523
 31
0.0
  0
CIRCLE
  5
306
330
1F
100
AcDbEntity
  8
0
  6
Continuous
 62
     7
 48
4.0
370
    15
100
AcDbCircle
 10
16.5099010878
 20
10.6959125523
 30
0.0
 40
0.0850000000000009
  0
CIRCLE
  5
307
330
1F
100
AcDbEntity
  8
0
  6
Continuous
 62
     7
 48
4.0
370
    15
100
AcDbCircle
 10
16.5099010878
 20
10.6959125523
 30
0.0
 40
0.6416128499307305
  0
ARC
  5
308
330
1F
100
AcDbEntity
  8
0
  6
Continuous
 62
     7
 48
4.0
370
    15
100
AcDbCircle
 10
18.0099010878
 20
11.1959125523
 30
0.0
 40
0.1405000000000012
100
AcDbArc
 50
90.0
 51
180.0
  0
ARC
  5
309
330
1F
100
AcDbEntity
  8
0
  6
Continuous
 62
     7
 48
4.0
370
    15
100
AcDbCircle
 10
18.0099010878
 20
11.1959125523
 30
0.0
 40
0.1404999999999994
100
AcDbArc
 50
180.0
 51
270.0
  0
ARC
  5
30A
330
1F
100
AcDbEntity
  8
0
  6
Continuous
 62
     7
 48
4.0
370
    15
100
AcDbCircle
 10
15.0099010878
 20
8.1959125523
 30
0.0
 40
0.1405000000000012
100
AcDbArc
 50
270.0
 51
90.0
  0
ARC
  5
30B
330
1F
100
AcDbEntity
  8
0
  6
Continuous
 62
     7
 48
4.0
370
    15
100
AcDbCircle
 10
18.0099010878
 20
8.1959125523
 30
0.0
 40
0.1405000000000012
100
AcDbArc
 50
90.0
 51
270.0
  0
ARC
  5
30C
330
1F
100
AcDbEntity
  8
0
  6
Continuous
 62
     7
 48
4.0
370
    15
100
AcDbCircle
 10
15.0099010878
 20
11.1959125523
 30
0.0
 40
0.1404999999999994
100
AcDbArc
 50
270.0
 51
0.0
  0
ARC
  5
30D
330
1F
100
AcDbEntity
  8
0
  6
Continuous
 62
     7
 48
4.0
370
    15
100
AcDbCircle
 10
15.0099010878
 20
11.1959125523
 30
0.0
 40
0.1405000000000012
100
AcDbArc
 50
0.0
 51
90.0
  0
LINE
  5
30E
330
1F
100
AcDbEntity
  8
0
  6
HIDDEN
 62
     7
 48
2.0
370
     0
100
AcDbLine
 10
15.0409010878
 20
12.6339125523
 30
0.0
 11
17.9789010878
 21
12.6339125523
 31
0.0
  0
LINE
  5
30F
330
1F
100
AcDbEntity
  8
0
  6
HIDDEN
 62
     7
 48
2.0
370
     0
100
AcDbLine
 10
15.0099010878
 20
12.6339125523
 30
0.0
 11
14.6489010878
 21
12.6339125523
 31
0.0
  0
LINE
  5
310
330
1F
100
AcDbEntity
  8
0
  6
HIDDEN
 62
     7
 48
2.0
370
     0
100
AcDbLine
 10
18.0099010878
 20
12.6339125523
 30
0.0
 11
18.3709010878
 21
12.6339125523
 31
0.0
  0
LINE
  5
311
330
1F
100
AcDbEntity
  8
0
  6
HIDDEN
 62
     7
 48
2.0
370
     0
100
AcDbLine
 10
18.4479010878
 20
12.2579125523
 30
0.0
 11
18.3859010878
 21
12.2579125523
 31
0.0
  0
LINE
  5
312
330
1F
100
AcDbEntity
  8
0
  6
HIDDEN
 62
     7
 48
2.0
370
     0
100
AcDbLine
 10
18.3859010878
 20
12.2579125523
 30
0.0
 11
18.3859010878
 21
12.6189125523
 31
0.0
  0
ARC
  5
313
330
1F
100
AcDbEntity
  8
0
  6
HIDDEN
 62
     7
 48
4.0
370
     0
100
AcDbCircle
 10
18.3709010878
 20
12.6189125523
 30
0.0
 40
0.0770000000000017
100
AcDbArc
 50
0.0
 51
90.0
  0
ARC
  5
314
330
1F
100
AcDbEntity
  8
0
  6
HIDDEN
 62
     7
 48
4.0
370
     0
100
AcDbCircle
 10
18.3709010878
 20
12.6189125523
 30
0.0
 40
0.0150000000000006
100
AcDbArc
 50
0.0
 51
90.0
  0
LINE
  5
315
330
1F
100
AcDbEntity
  8
0
  6
HIDDEN
 62
     7
 48
2.0
370
     0
100
AcDbLine
 10
14.6339010878
 20
12.2579125523
 30
0.0
 11
14.6339010878
 21
12.6189125523
 31
0.0
  0
LINE
  5
316
330
1F
100
AcDbEntity
  8
0
  6
HIDDEN
 62
     7
 48
2.0
370
     0
100
AcDbLine
 10
14.5719010878
 20
12.2579125523
 30
0.0
 11
14.6339010878
 21
12.2579125523
 31
0.0
  0
ARC
  5
317
330
1F
100
AcDbEntity
  8
0
  6
HIDDEN
 62
     7
 48
4.0
370
     0
100
AcDbCircle
 10
14.6489010878
 20
12.6189125523
 30
0.0
 40
0.0149999999999988
100
AcDbArc
 50
90.0
 51
180.0
  0
ARC
  5
318
330
1F
100
AcDbEntity
  8
0
  6
HIDDEN
 62
     7
 48
4.0
370
     0
100
AcDbCircle
 10
14.6489010878
 20
12.6189125523
 30
0.0
 40
0.0769999999999982
100
AcDbArc
 50
90.0
 51
180.0
  0
LINE
  5
319
330
1F
100
AcDbEntity
  8
0
  6
HIDDEN
 62
     7
 48
2.0
370
     0
100
AcDbLine
 10
18.3709010878
 20
12.6189125523
 30
0.0
 11
18.3709010878
 21
12.6339125523
 31
0.0
  0
LINE
  5
31A
330
1F
100
AcDbEntity
  8
0
  6
HIDDEN
 62
     7
 48
2.0
370
     0
100
AcDbLine
 10
14.6489010878
 20
12.6189125523
 30
0.0
 11
14.6489010878
 21
12.6339125523
 31
0.0
  0
LINE
  5
31B
330
1F
100
AcDbEntity
  8
0
  6
HIDDEN
 62
     7
 48
2.0
370
     0
100
AcDbLine
 10
14.6489010878
 20
12.6339125523
 30
0.0
 11
14.6489010878
 21
12.6959125523
 31
0.0
  0
LINE
  5
31C
330
1F
100
AcDbEntity
  8
0
  6
HIDDEN
 62
     7
 48
2.0
370
     0
100
AcDbLine
 10
18.3709010878
 20
12.6339125523
 30
0.0
 11
18.3709010878
 21
12.6959125523
 31
0.0
  0
LINE
  5
31D
330
1F
100
AcDbEntity
  8
0
  6
HIDDEN
 62
     7
 48
2.0
370
     0
100
AcDbLine
 10
18.3709010878
 20
12.2579125523
 30
0.0
 11
18.3709010878
 21
12.6189125523
 31
0.0
  0
LINE
  5
31E
330
1F
100
AcDbEntity
  8
0
  6
HIDDEN
 62
     7
 48
2.0
370
     0
100
AcDbLine
 10
14.6489010878
 20
12.2579125523
 30
0.0
 11
15.0099010878
 21
12.2579125523
 31
0.0
  0
LINE
  5
31F
330
1F
100
AcDbEntity
  8
0
  6
HIDDEN
 62
     7
 48
2.0
370
     0
100
AcDbLine
 10
15.0409010878
 20
12.2579125523
 30
0.0
 11
17.9789010878
 21
12.2579125523
 31
0.0
  0
LINE
  5
320
330
1F
100
AcDbEntity
  8
0
  6
HIDDEN
 62
     7
 48
2.0
370
     0
100
AcDbLine
 10
18.0099010878
 20
12.2579125523
 30
0.0
 11
18.3709010878
 21
12.2579125523
 31
0.0
  0
LINE
  5
321
330
1F
100
AcDbEntity
  8
0
  6
HIDDEN
 62
     7
 48
2.0
370
     0
100
AcDbLine
 10
14.6489010878
 20
12.2579125523
 30
0.0
 11
14.6489010878
 21
12.6189125523
 31
0.0
  0
LINE
  5
322
330
1F
100
AcDbEntity
  8
0
  6
HIDDEN
 62
     7
 48
2.0
370
     0
100
AcDbLine
 10
17.9789010878
 20
6.7579125523
 30
0.0
 11
15.0409010878
 21
6.7579125523
 31
0.0
  0
LINE
  5
323
330
1F
100
AcDbEntity
  8
0
  6
HIDDEN
 62
     7
 48
2.0
370
     0
100
AcDbLine
 10
18.0099010878
 20
6.7579125523
 30
0.0
 11
18.3709010878
 21
6.7579125523
 31
0.0
  0
LINE
  5
324
330
1F
100
AcDbEntity
  8
0
  6
HIDDEN
 62
     7
 48
2.0
370
     0
100
AcDbLine
 10
15.0099010878
 20
6.7579125523
 30
0.0
 11
14.6489010878
 21
6.7579125523
 31
0.0
  0
LINE
  5
325
330
1F
100
AcDbEntity
  8
0
  6
HIDDEN
 62
     7
 48
2.0
370
     0
100
AcDbLine
 10
14.6339010878
 20
7.1339125523
 30
0.0
 11
14.6339010878
 21
6.7729125523
 31
0.0
  0
LINE
  5
326
330
1F
100
AcDbEntity
  8
0
  6
HIDDEN
 62
     7
 48
2.0
370
     0
100
AcDbLine
 10
14.5719010878
 20
7.1339125523
 30
0.0
 11
14.6339010878
 21
7.1339125523
 31
0.0
  0
LINE
  5
327
330
1F
100
AcDbEntity
  8
0
  6
HIDDEN
 62
     7
 48
2.0
370
     0
100
AcDbLine
 10
18.4479010878
 20
7.1339125523
 30
0.0
 11
18.3859010878
 21
7.1339125523
 31
0.0
  0
LINE
  5
328
330
1F
100
AcDbEntity
  8
0
  6
HIDDEN
 62
     7
 48
2.0
370
     0
100
AcDbLine
 10
18.3859010878
 20
7.1339125523
 30
0.0
 11
18.3859010878
 21
6.7729125523
 31
0.0
  0
ARC
  5
329
330
1F
100
AcDbEntity
  8
0
  6
HIDDEN
 62
     7
 48
4.0
370
     0
100
AcDbCircle
 10
14.6489010878
 20
6.7729125523
 30
0.0
 40
0.077
100
AcDbArc
 50
180.0
 51
270.0
  0
ARC
  5
32A
330
1F
100
AcDbEntity
  8
0
  6
HIDDEN
 62
     7
 48
4.0
370
     0
100
AcDbCircle
 10
14.6489010878
 20
6.7729125523
 30
0.0
 40
0.0150000000000006
100
AcDbArc
 50
180.0
 51
270.0
  0
ARC
  5
32B
330
1F
100
AcDbEntity
  8
0
  6
HIDDEN
 62
     7
 48
4.0
370
     0
100
AcDbCircle
 10
18.3709010878
 20
6.7729125523
 30
0.0
 40
0.0150000000000006
100
AcDbArc
 50
270.0
 51
0.0
  0
ARC
  5
32C
330
1F
100
AcDbEntity
  8
0
  6
HIDDEN
 62
     7
 48
4.0
370
     0
100
AcDbCircle
 10
18.3709010878
 20
6.7729125523
 30
0.0
 40
0.0770000000000017
100
AcDbArc
 50
270.0
 51
0.0
  0
LINE
  5
32D
330
1F
100
AcDbEntity
  8
0
  6
HIDDEN
 62
     7
 48
2.0
370
     0
100
AcDbLine
 10
14.6489010878
 20
6.7729125523
 30
0.0
 11
14.6489010878
 21
6.7579125523
 31
0.0
  0
LINE
  5
32E
330
1F
100
AcDbEntity
  8
0
  6
HIDDEN
 62
     7
 48
2.0
370
     0
100
AcDbLine
 10
18.3709010878
 20
6.7729125523
 30
0.0
 11
18.3709010878
 21
6.7579125523
 31
0.0
  0
LINE
  5
32F
330
1F
100
AcDbEntity
  8
0
  6
HIDDEN
 62
     7
 48
2.0
370
     0
100
AcDbLine
 10
18.3709010878
 20
6.7579125523
 30
0.0
 11
18.3709010878
 21
6.6959125523
 31
0.0
  0
LINE
  5
330
330
1F
100
AcDbEntity
  8
0
  6
HIDDEN
 62
     7
 48
2.0
370
     0
100
AcDbLine
 10
14.6489010878
 20
6.7579125523
 30
0.0
 11
14.6489010878
 21
6.6959125523
 31
0.0
  0
LINE
  5
331
330
1F
100
AcDbEntity
  8
0
  6
HIDDEN
 62
     7
 48
2.0
370
     0
100
AcDbLine
 10
14.6489010878
 20
7.1339125523
 30
0.0
 11
14.6489010878
 21
6.7729125523
 31
0.0
  0
LINE
  5
332
330
1F
100
AcDbEntity
  8
0
  6
HIDDEN
 62
     7
 48
2.0
370
     0
100
AcDbLine
 10
18.3709010878
 20
7.1339125523
 30
0.0
 11
18.3709010878
 21
6.7729125523
 31
0.0
  0
LINE
  5
333
330
1F
100
AcDbEntity
  8
0
  6
HIDDEN
 62
     7
 48
2.0
370
     0
100
AcDbLine
 10
18.3709010878
 20
7.1339125523
 30
0.0
 11
18.0099010878
 21
7.1339125523
 31
0.0
  0
LINE
  5
334
330
1F
100
AcDbEntity
  8
0
  6
HIDDEN
 62
     7
 48
2.0
370
     0
100
AcDbLine
 10
17.9789010878
 20
7.1339125523
 30
0.0
 11
15.0409010878
 21
7.1339125523
 31
0.0
  0
LINE
  5
335
330
1F
100
AcDbEntity
  8
0
  6
HIDDEN
 62
     7
 48
2.0
370
     0
100
AcDbLine
 10
15.0099010878
 20
7.1339125523
 30
0.0
 11
14.6489010878
 21
7.1339125523
 31
0.0
  0
LINE
  5
336
330
1F
100
AcDbEntity
  8
0
  6
HIDDEN
 62
     7
 48
2.0
370
     0
100
AcDbLine
 10
18.4479010878
 20
12.6959125523
 30
0.0
 11
18.4479010878
 21
6.6959125523
 31
0.0
  0
LINE
  5
337
330
1F
100
AcDbEntity
  8
0
  6
HIDDEN
 62
     7
 48
2.0
370
     0
100
AcDbLine
 10
14.5719010878
 20
12.6959125523
 30
0.0
 11
14.5719010878
 21
6.6959125523
 31
0.0
  0
CIRCLE
  5
338
330
1F
100
AcDbEntity
  8
0
  6
HIDDEN
 62
     7
 48
4.0
370
     0
100
AcDbCircle
 10
16.5099010878
 20
10.6959125523
 30
0.0
 40
0.147000000000002
  0
ARC
  5
339
330
1F
100
AcDbEntity
  8
0
  6
HIDDEN
 62
     7
 48
4.0
370
     0
100
AcDbCircle
 10
18.0099010878
 20
11.1959125523
 30
0.0
 40
0.1405000000000012
100
AcDbArc
 50
270.0
 51
90.0
  0
ARC
  5
33A
330
1F
100
AcDbEntity
  8
0
  6
HIDDEN
 62
     7
 48
4.0
370
     0
100
AcDbCircle
 10
15.0099010878
 20
8.1959125523
 30
0.0
 40
0.1405000000000012
100
AcDbArc
 50
90.0
 51
180.0
  0
ARC
  5
33B
330
1F
100
AcDbEntity
  8
0
  6
HIDDEN
 62
     7
 48
4.0
370
     0
100
AcDbCircle
 10
15.0099010878
 20
8.1959125523
 30
0.0
 40
0.1404999999999994
100
AcDbArc
 50
180.0
 51
270.0
  0
ARC
  5
33C
330
1F
100
AcDbEntity
  8
0
  6
HIDDEN
 62
     7
 48
4.0
370
     0
100
AcDbCircle
 10
18.0099010878
 20
8.1959125523
 30
0.0
 40
0.1404999999999994
100
AcDbArc
 50
270.0
 51
0.0
  0
ARC
  5
33D
330
1F
100
AcDbEntity
  8
0
  6
HIDDEN
 62
     7
 48
4.0
370
     0
100
AcDbCircle
 10
18.0099010878
 20
8.1959125523
 30
0.0
 40
0.1405000000000012
100
AcDbArc
 50
0.0
 51
90.0
  0
ARC
  5
33E
330
1F
100
AcDbEntity
  8
0
  6
HIDDEN
 62
     7
 48
4.0
370
     0
100
AcDbCircle
 10
15.0099010878
 20
11.1959125523
 30
0.0
 40
0.1405000000000012
100
AcDbArc
 50
90.0
 51
270.0
  0
CIRCLE
  5
33F
330
1F
100
AcDbEntity
  8
0
  6
HIDDEN
 62
     7
 48
4.0
370
     0
100
AcDbCircle
 10
16.5099010878
 20
10.6959125523
 30
0.0
 40
0.625
  0
DIMENSION
  5
340
330
1F
100
AcDbEntity
  8
0
  6
Continuous
 62
     7
 48
2.0
370
     0
100
AcDbDimension
  2
*D13
 10
18.5099010878
 20
11.6734157935
 30
0.0
 11
19.7834869859
 21
11.6734157935
 31
0.0
 70
   160
 71
     2
 42
-1.0
  3
SLDDIMSTYLE3
100
AcDbAlignedDimension
 13
18.0099010878
 23
12.6959125523
 33
0.0
 14
18.5099010878
 24
12.6959125523
 34
0.0
100
AcDbRotatedDimension
  0
INSERT
  5
356
102
{ACAD_REACTORS
330
357
102
}
330
1F
100
AcDbEntity
  8
0
  6
Continuous
 62
     7
 48
2.0
370
     0
100
AcDbBlockReference
  2
SW_NOTE_5
 10
18.1761389432
 20
13.7637050796
 30
0.0
  0
LEADER
  5
357
330
1F
100
AcDbEntity
  8
0
  6
Continuous
 62
     7
 48
2.0
370
     0
100
AcDbLeader
  3
SLDDIMSTYLE1
 73
     2
 76
     3
 10
16.7181345479
 20
11.3027946456
 30
0.0
 10
17.6761389432
 20
13.7637050796
 30
0.0
 10
18.1761389432
 20
13.7637050796
 30
0.0
340
356
  0
MTEXT
  5
358
330
1F
100
AcDbEntity
  8
0
  6
Continuous
 62
     7
 48
2.0
370
     0
100
AcDbMText
 10
15.2110336089
 20
6.1401315805
 30
0.0
 40
0.25
 41
0.0
 71
     1
 72
     1
  1
\LCOVER REMOVED
  7
SLDTEXTSTYLE0
 73
     1
 44
1.0
  0
ENDSEC
  0
SECTION
  2
OBJECTS
  0
DICTIONARY
  5
C
330
0
100
AcDbDictionary
281
     1
  3
ACAD_GROUP
350
D
  3
ACAD_LAYOUT
350
1A
  3
ACAD_MATERIAL
350
3B
  3
ACAD_MLEADERSTYLE
350
35B
  3
ACAD_MLINESTYLE
350
17
  3
ACAD_PLOTSETTINGS
350
19
  3
ACAD_PLOTSTYLENAME
350
E
  3
ACAD_SCALELIST
350
58
  3
ACAD_VISUALSTYLE
350
2A
  3
AcDbVariableDictionary
350
359
  0
DICTIONARY
  5
D
102
{ACAD_REACTORS
330
C
102
}
330
C
100
AcDbDictionary
281
     1
  0
DICTIONARY
  5
1A
102
{ACAD_REACTORS
330
C
102
}
330
C
100
AcDbDictionary
281
     1
  3
Layout1
350
1E
  3
Layout2
350
26
  3
Model
350
22
  0
DICTIONARY
  5
3B
102
{ACAD_REACTORS
330
C
102
}
330
C
100
AcDbDictionary
281
     1
  3
ByBlock
350
3D
  3
ByLayer
350
3C
  3
Global
350
3E
  0
DICTIONARY
  5
35B
102
{ACAD_REACTORS
330
C
102
}
330
C
100
AcDbDictionary
281
     1
  0
DICTIONARY
  5
17
102
{ACAD_REACTORS
330
C
102
}
330
C
100
AcDbDictionary
281
     1
  3
Standard
350
18
  0
DICTIONARY
  5
19
102
{ACAD_REACTORS
330
C
102
}
330
C
100
AcDbDictionary
281
     1
  0
ACDBDICTIONARYWDFLT
  5
E
102
{ACAD_REACTORS
330
C
102
}
330
C
100
AcDbDictionary
281
     1
  3
Normal
350
F
100
AcDbDictionaryWithDefault
340
F
  0
DICTIONARY
  5
58
102
{ACAD_REACTORS
330
C
102
}
330
C
100
AcDbDictionary
281
     1
  3
A0
350
59
  3
A1
350
5A
  3
A2
350
5B
  3
A3
350
5C
  3
A4
350
5D
  3
A5
350
5E
  3
A6
350
5F
  3
A7
350
60
  3
A8
350
61
  3
A9
350
62
  3
B0
350
63
  3
B1
350
64
  3
B2
350
65
  3
B3
350
66
  3
B4
350
67
  3
B5
350
68
  3
B6
350
69
  3
B7
350
6A
  3
B8
350
6B
  3
B9
350
6C
  3
C0
350
6D
  3
C1
350
6E
  3
C2
350
6F
  3
C3
350
70
  3
C4
350
71
  3
C5
350
72
  3
C6
350
73
  3
C7
350
74
  3
C8
350
75
  3
C9
350
76
  3
D0
350
77
  3
D1
350
78
  3
D2
350
79
  0
DICTIONARY
  5
2A
102
{ACAD_REACTORS
330
C
102
}
330
C
100
AcDbDictionary
281
     1
  3
2dWireframe
350
2F
  3
3D Hidden
350
31
  3
3dWireframe
350
30
  3
Basic
350
32
  3
Brighten
350
36
  3
ColorChange
350
3A
  3
Conceptual
350
34
  3
Dim
350
35
  3
Facepattern
350
39
  3
Flat
350
2B
  3
FlatWithEdges
350
2C
  3
Gouraud
350
2D
  3
GouraudWithEdges
350
2E
  3
Linepattern
350
38
  3
Realistic
350
33
  3
Thicken
350
37
  0
DICTIONARY
  5
359
102
{ACAD_REACTORS
330
C
102
}
330
C
100
AcDbDictionary
281
     1
  3
CANNOSCALE
350
35C
  3
DIMASSOC
350
35D
  3
HIDETEXT
350
35E
  0
LAYOUT
  5
1E
102
{ACAD_REACTORS
330
1A
102
}
330
1A
100
AcDbPlotSettings
  1

  2
none_device
  4

  6

 40
0.0
 41
0.0
 42
0.0
 43
0.0
 44
0.0
 45
0.0
 46
0.0
 47
0.0
 48
0.0
 49
0.0
140
0.0
141
0.0
142
1.0
143
1.0
 70
   688
 72
     0
 73
     0
 74
     5
  7

 75
    16
147
1.0
148
0.0
149
0.0
100
AcDbLayout
  1
Layout1
 70
     1
 71
     1
 10
0.0
 20
0.0
 11
12.0
 21
9.0
 12
0.0
 22
0.0
 32
0.0
 14
1.0000000000E+20
 24
1.0000000000E+20
 34
1.0000000000E+20
 15
-1.0000000000E+20
 25
-1.0000000000E+20
 35
-1.0000000000E+20
146
0.0
 13
0.0
 23
0.0
 33
0.0
 16
1.0
 26
0.0
 36
0.0
 17
0.0
 27
1.0
 37
0.0
 76
     0
330
1B
  0
LAYOUT
  5
26
102
{ACAD_REACTORS
330
1A
102
}
330
1A
100
AcDbPlotSettings
  1

  2
none_device
  4

  6

 40
0.0
 41
0.0
 42
0.0
 43
0.0
 44
0.0
 45
0.0
 46
0.0
 47
0.0
 48
0.0
 49
0.0
140
0.0
141
0.0
142
1.0
143
1.0
 70
   688
 72
     0
 73
     0
 74
     5
  7

 75
    16
147
1.0
148
0.0
149
0.0
100
AcDbLayout
  1
Layout2
 70
     1
 71
     2
 10
0.0
 20
0.0
 11
0.0
 21
0.0
 12
0.0
 22
0.0
 32
0.0
 14
0.0
 24
0.0
 34
0.0
 15
0.0
 25
0.0
 35
0.0
146
0.0
 13
0.0
 23
0.0
 33
0.0
 16
1.0
 26
0.0
 36
0.0
 17
0.0
 27
1.0
 37
0.0
 76
     0
330
23
  0
LAYOUT
  5
22
102
{ACAD_REACTORS
330
1A
102
}
330
1A
100
AcDbPlotSettings
  1

  2
none_device
  4

  6

 40
0.0
 41
0.0
 42
0.0
 43
0.0
 44
0.0
 45
0.0
 46
0.0
 47
0.0
 48
0.0
 49
0.0
140
0.0
141
0.0
142
1.0
143
1.0
 70
  1712
 72
     0
 73
     0
 74
     0
  7

 75
     0
147
1.0
148
0.0
149
0.0
100
AcDbLayout
  1
Model
 70
     1
 71
     0
 10
0.0
 20
0.0
 11
34.0
 21
22.0
 12
0.0
 22
0.0
 32
0.0
 14
0.0
 24
0.0
 34
0.0
 15
34.0
 25
22.0
 35
0.0
146
0.0
 13
0.0
 23
0.0
 33
0.0
 16
1.0
 26
0.0
 36
0.0
 17
0.0
 27
1.0
 37
0.0
 76
     0
330
1F
331
29
  0
MATERIAL
  5
3D
102
{ACAD_REACTORS
330
3B
102
}
102
{ACAD_XDICTIONARY
360
381
102
}
330
3B
100
AcDbMaterial
  1
ByBlock
  0
MATERIAL
  5
3C
102
{ACAD_REACTORS
330
3B
102
}
102
{ACAD_XDICTIONARY
360
37F
102
}
330
3B
100
AcDbMaterial
  1
ByLayer
  0
MATERIAL
  5
3E
102
{ACAD_REACTORS
330
3B
102
}
102
{ACAD_XDICTIONARY
360
383
102
}
330
3B
100
AcDbMaterial
  1
Global
  0
MLINESTYLE
  5
18
102
{ACAD_REACTORS
330
17
102
}
330
17
100
AcDbMlineStyle
  2
Standard
 70
     0
  3

 62
   256
 51
90.0
 52
90.0
 71
     2
 49
0.5
 62
   256
  6
BYLAYER
 49
-0.5
 62
   256
  6
BYLAYER
  0
ACDBPLACEHOLDER
  5
F
102
{ACAD_REACTORS
330
E
102
}
330
E
  0
SCALE
  5
59
102
{ACAD_REACTORS
330
58
102
}
330
58
100
AcDbScale
 70
     0
300
1:1
140
1.0
141
1.0
290
     1
  0
SCALE
  5
5A
102
{ACAD_REACTORS
330
58
102
}
330
58
100
AcDbScale
 70
     0
300
1:2
140
1.0
141
2.0
290
     0
  0
SCALE
  5
5B
102
{ACAD_REACTORS
330
58
102
}
330
58
100
AcDbScale
 70
     0
300
1:4
140
1.0
141
4.0
290
     0
  0
SCALE
  5
5C
102
{ACAD_REACTORS
330
58
102
}
330
58
100
AcDbScale
 70
     0
300
1:5
140
1.0
141
5.0
290
     0
  0
SCALE
  5
5D
102
{ACAD_REACTORS
330
58
102
}
330
58
100
AcDbScale
 70
     0
300
1:8
140
1.0
141
8.0
290
     0
  0
SCALE
  5
5E
102
{ACAD_REACTORS
330
58
102
}
330
58
100
AcDbScale
 70
     0
300
1:10
140
1.0
141
10.0
290
     0
  0
SCALE
  5
5F
102
{ACAD_REACTORS
330
58
102
}
330
58
100
AcDbScale
 70
     0
300
1:16
140
1.0
141
16.0
290
     0
  0
SCALE
  5
60
102
{ACAD_REACTORS
330
58
102
}
330
58
100
AcDbScale
 70
     0
300
1:20
140
1.0
141
20.0
290
     0
  0
SCALE
  5
61
102
{ACAD_REACTORS
330
58
102
}
330
58
100
AcDbScale
 70
     0
300
1:30
140
1.0
141
30.0
290
     0
  0
SCALE
  5
62
102
{ACAD_REACTORS
330
58
102
}
330
58
100
AcDbScale
 70
     0
300
1:40
140
1.0
141
40.0
290
     0
  0
SCALE
  5
63
102
{ACAD_REACTORS
330
58
102
}
330
58
100
AcDbScale
 70
     0
300
1:50
140
1.0
141
50.0
290
     0
  0
SCALE
  5
64
102
{ACAD_REACTORS
330
58
102
}
330
58
100
AcDbScale
 70
     0
300
1:100
140
1.0
141
100.0
290
     0
  0
SCALE
  5
65
102
{ACAD_REACTORS
330
58
102
}
330
58
100
AcDbScale
 70
     0
300
2:1
140
2.0
141
1.0
290
     0
  0
SCALE
  5
66
102
{ACAD_REACTORS
330
58
102
}
330
58
100
AcDbScale
 70
     0
300
4:1
140
4.0
141
1.0
290
     0
  0
SCALE
  5
67
102
{ACAD_REACTORS
330
58
102
}
330
58
100
AcDbScale
 70
     0
300
8:1
140
8.0
141
1.0
290
     0
  0
SCALE
  5
68
102
{ACAD_REACTORS
330
58
102
}
330
58
100
AcDbScale
 70
     0
300
10:1
140
10.0
141
1.0
290
     0
  0
SCALE
  5
69
102
{ACAD_REACTORS
330
58
102
}
330
58
100
AcDbScale
 70
     0
300
100:1
140
100.0
141
1.0
290
     0
  0
SCALE
  5
6A
102
{ACAD_REACTORS
330
58
102
}
330
58
100
AcDbScale
 70
     0
300
1/128" = 1'-0"
140
0.0078125
141
12.0
290
     0
  0
SCALE
  5
6B
102
{ACAD_REACTORS
330
58
102
}
330
58
100
AcDbScale
 70
     0
300
1/64" = 1'-0"
140
0.015625
141
12.0
290
     0
  0
SCALE
  5
6C
102
{ACAD_REACTORS
330
58
102
}
330
58
100
AcDbScale
 70
     0
300
1/32" = 1'-0"
140
0.03125
141
12.0
290
     0
  0
SCALE
  5
6D
102
{ACAD_REACTORS
330
58
102
}
330
58
100
AcDbScale
 70
     0
300
1/16" = 1'-0"
140
0.0625
141
12.0
290
     0
  0
SCALE
  5
6E
102
{ACAD_REACTORS
330
58
102
}
330
58
100
AcDbScale
 70
     0
300
3/32" = 1'-0"
140
0.09375
141
12.0
290
     0
  0
SCALE
  5
6F
102
{ACAD_REACTORS
330
58
102
}
330
58
100
AcDbScale
 70
     0
300
1/8" = 1'-0"
140
0.125
141
12.0
290
     0
  0
SCALE
  5
70
102
{ACAD_REACTORS
330
58
102
}
330
58
100
AcDbScale
 70
     0
300
3/16" = 1'-0"
140
0.1875
141
12.0
290
     0
  0
SCALE
  5
71
102
{ACAD_REACTORS
330
58
102
}
330
58
100
AcDbScale
 70
     0
300
1/4" = 1'-0"
140
0.25
141
12.0
290
     0
  0
SCALE
  5
72
102
{ACAD_REACTORS
330
58
102
}
330
58
100
AcDbScale
 70
     0
300
3/8" = 1'-0"
140
0.375
141
12.0
290
     0
  0
SCALE
  5
73
102
{ACAD_REACTORS
330
58
102
}
330
58
100
AcDbScale
 70
     0
300
1/2" = 1'-0"
140
0.5
141
12.0
290
     0
  0
SCALE
  5
74
102
{ACAD_REACTORS
330
58
102
}
330
58
100
AcDbScale
 70
     0
300
3/4" = 1'-0"
140
0.75
141
12.0
290
     0
  0
SCALE
  5
75
102
{ACAD_REACTORS
330
58
102
}
330
58
100
AcDbScale
 70
     0
300
1" = 1'-0"
140
1.0
141
12.0
290
     0
  0
SCALE
  5
76
102
{ACAD_REACTORS
330
58
102
}
330
58
100
AcDbScale
 70
     0
300
1-1/2" = 1'-0"
140
1.5
141
12.0
290
     0
  0
SCALE
  5
77
102
{ACAD_REACTORS
330
58
102
}
330
58
100
AcDbScale
 70
     0
300
3" = 1'-0"
140
3.0
141
12.0
290
     0
  0
SCALE
  5
78
102
{ACAD_REACTORS
330
58
102
}
330
58
100
AcDbScale
 70
     0
300
6" = 1'-0"
140
6.0
141
12.0
290
     0
  0
SCALE
  5
79
102
{ACAD_REACTORS
330
58
102
}
330
58
100
AcDbScale
 70
     0
300
1'-0" = 1'-0"
140
12.0
141
12.0
290
     0
  0
VISUALSTYLE
  5
2F
102
{ACAD_REACTORS
330
2A
102
}
102
{ACAD_XDICTIONARY
360
367
102
}
330
2A
100
AcDbVisualStyle
  2
2dWireframe
 70
     4
 71
     0
 72
     2
 73
     0
 90
        0
 40
-0.6
 41
-30.0
 62
     5
 63
     7
 74
     1
 91
        4
 64
     7
 65
   257
 75
     1
175
     1
 42
1.0
 92
        0
 66
   257
 43
1.0
 76
     1
 77
     6
 78
     2
 67
     7
 79
     5
170
     0
171
     0
290
     0
174
     0
 93
        1
 44
0.0
173
     0
291
     0
 45
0.0
1001
ACAD
1000
AcDbSavedByObjectVersion
1070
     0
  0
VISUALSTYLE
  5
31
102
{ACAD_REACTORS
330
2A
102
}
102
{ACAD_XDICTIONARY
360
36B
102
}
330
2A
100
AcDbVisualStyle
  2
3D Hidden
 70
     6
 71
     1
 72
     2
 73
     2
 90
        0
 40
-0.6
 41
-30.0
 62
     5
 63
     7
 74
     2
 91
        2
 64
     7
 65
   257
 75
     2
175
     1
 42
40.0
 92
        0
 66
   257
 43
1.0
 76
     1
 77
     6
 78
     2
 67
     7
 79
     3
170
     0
171
     0
290
     0
174
     0
 93
        1
 44
0.0
173
     0
291
     0
 45
0.0
1001
ACAD
1000
AcDbSavedByObjectVersion
1070
     0
  0
VISUALSTYLE
  5
30
102
{ACAD_REACTORS
330
2A
102
}
102
{ACAD_XDICTIONARY
360
369
102
}
330
2A
100
AcDbVisualStyle
  2
3dWireframe
 70
     5
 71
     0
 72
     2
 73
     0
 90
        0
 40
-0.6
 41
-30.0
 62
     5
 63
     7
 74
     1
 91
        4
 64
     7
 65
   257
 75
     1
175
     1
 42
1.0
 92
        0
 66
   257
 43
1.0
 76
     1
 77
     6
 78
     2
 67
     7
 79
     5
170
     0
171
     0
290
     0
174
     0
 93
        1
 44
0.0
173
     0
291
     0
 45
0.0
1001
ACAD
1000
AcDbSavedByObjectVersion
1070
     0
  0
VISUALSTYLE
  5
32
102
{ACAD_REACTORS
330
2A
102
}
102
{ACAD_XDICTIONARY
360
36D
102
}
330
2A
100
AcDbVisualStyle
  2
Basic
 70
     7
 71
     1
 72
     0
 73
     1
 90
        0
 40
-0.6
 41
-30.0
 62
     5
 63
     7
 74
     0
 91
        4
 64
     7
 65
   257
 75
     1
175
     1
 42
1.0
 92
        8
 66
     7
 43
1.0
 76
     1
 77
     6
 78
     2
 67
     7
 79
     5
170
     0
171
     0
290
     0
174
     0
 93
        1
 44
0.0
173
     0
291
     1
 45
0.0
1001
ACAD
1000
AcDbSavedByObjectVersion
1070
     0
  0
VISUALSTYLE
  5
36
102
{ACAD_REACTORS
330
2A
102
}
102
{ACAD_XDICTIONARY
360
375
102
}
330
2A
100
AcDbVisualStyle
  2
Brighten
 70
    12
 71
     2
 72
     2
 73
     0
 90
        0
 40
-0.6
 41
-30.0
 62
     5
 63
     7
 74
     1
 91
        4
 64
     7
 65
   257
 75
     1
175
     1
 42
1.0
 92
        8
 66
     7
 43
1.0
 76
     1
 77
     6
 78
     2
 67
     7
 79
     5
170
     0
171
     0
290
     0
174
     0
 93
        1
 44
50.0
173
     0
291
     1
 45
0.0
1001
ACAD
1000
AcDbSavedByObjectVersion
1070
     0
  0
VISUALSTYLE
  5
3A
102
{ACAD_REACTORS
330
2A
102
}
102
{ACAD_XDICTIONARY
360
37D
102
}
330
2A
100
AcDbVisualStyle
  2
ColorChange
 70
    16
 71
     2
 72
     2
 73
     3
 90
        0
 40
-0.6
 41
-30.0
 62
     5
 63
     8
 74
     1
 91
        4
 64
     7
 65
   257
 75
     1
175
     1
 42
1.0
 92
        8
 66
     8
 43
1.0
 76
     1
 77
     6
 78
     2
 67
     7
 79
     5
170
     0
171
     0
290
     0
174
     0
 93
        1
 44
0.0
173
     0
291
     1
 45
0.0
1001
ACAD
1000
AcDbSavedByObjectVersion
1070
     0
  0
VISUALSTYLE
  5
34
102
{ACAD_REACTORS
330
2A
102
}
102
{ACAD_XDICTIONARY
360
371
102
}
330
2A
100
AcDbVisualStyle
  2
Conceptual
 70
     9
 71
     3
 72
     2
 73
     0
 90
        0
 40
-0.6
 41
-30.0
 62
     5
 63
     7
 74
     2
 91
        2
 64
     7
 65
   257
 75
     1
175
     1
 42
40.0
 92
        8
 66
     7
 43
1.0
 76
     1
 77
     6
 78
     2
 67
     7
 79
     3
170
     0
171
     0
290
     0
174
     0
 93
        1
 44
0.0
173
     0
291
     0
 45
0.0
1001
ACAD
1000
AcDbSavedByObjectVersion
1070
     0
  0
VISUALSTYLE
  5
35
102
{ACAD_REACTORS
330
2A
102
}
102
{ACAD_XDICTIONARY
360
373
102
}
330
2A
100
AcDbVisualStyle
  2
Dim
 70
    11
 71
     2
 72
     2
 73
     0
 90
        0
 40
-0.6
 41
-30.0
 62
     5
 63
     7
 74
     1
 91
        4
 64
     7
 65
   257
 75
     1
175
     1
 42
1.0
 92
        8
 66
     7
 43
1.0
 76
     1
 77
     6
 78
     2
 67
     7
 79
     5
170
     0
171
     0
290
     0
174
     0
 93
        1
 44
-50.0
173
     0
291
     1
 45
0.0
1001
ACAD
1000
AcDbSavedByObjectVersion
1070
     0
  0
VISUALSTYLE
  5
39
102
{ACAD_REACTORS
330
2A
102
}
102
{ACAD_XDICTIONARY
360
37B
102
}
330
2A
100
AcDbVisualStyle
  2
Facepattern
 70
    15
 71
     2
 72
     2
 73
     0
 90
        0
 40
-0.6
 41
-30.0
 62
     5
 63
     7
 74
     1
 91
        4
 64
     7
 65
   257
 75
     1
175
     1
 42
1.0
 92
        8
 66
     7
 43
1.0
 76
     1
 77
     6
 78
     2
 67
     7
 79
     5
170
     0
171
     0
290
     0
174
     0
 93
        1
 44
0.0
173
     0
291
     1
 45
0.0
1001
ACAD
1000
AcDbSavedByObjectVersion
1070
     0
  0
VISUALSTYLE
  5
2B
102
{ACAD_REACTORS
330
2A
102
}
102
{ACAD_XDICTIONARY
360
35F
102
}
330
2A
100
AcDbVisualStyle
  2
Flat
 70
     0
 71
     2
 72
     1
 73
     1
 90
        2
 40
-0.6
 41
30.0
 62
     5
 63
     7
 74
     0
 91
        4
 64
     7
 65
   257
 75
     1
175
     1
 42
1.0
 92
        8
 66
     7
 43
1.0
 76
     1
 77
     6
 78
     2
 67
     7
 79
     5
170
     0
171
     0
290
     0
174
     0
 93
       13
 44
0.0
173
     0
291
     1
 45
0.0
1001
ACAD
1000
AcDbSavedByObjectVersion
1070
     0
  0
VISUALSTYLE
  5
2C
102
{ACAD_REACTORS
330
2A
102
}
102
{ACAD_XDICTIONARY
360
361
102
}
330
2A
100
AcDbVisualStyle
  2
FlatWithEdges
 70
     1
 71
     2
 72
     1
 73
     1
 90
        2
 40
-0.6
 41
30.0
 62
     5
 63
     7
 74
     1
 91
        4
 64
     7
 65
   257
 75
     1
175
     1
 42
1.0
 92
        0
 66
   257
 43
1.0
 76
     1
 77
     6
 78
     2
 67
     7
 79
     5
170
     0
171
     0
290
     0
174
     0
 93
       13
 44
0.0
173
     0
291
     1
 45
0.0
1001
ACAD
1000
AcDbSavedByObjectVersion
1070
     0
  0
VISUALSTYLE
  5
2D
102
{ACAD_REACTORS
330
2A
102
}
102
{ACAD_XDICTIONARY
360
363
102
}
330
2A
100
AcDbVisualStyle
  2
Gouraud
 70
     2
 71
     2
 72
     2
 73
     1
 90
        2
 40
-0.6
 41
30.0
 62
     5
 63
     7
 74
     0
 91
        4
 64
     7
 65
   257
 75
     1
175
     1
 42
1.0
 92
        0
 66
     7
 43
1.0
 76
     1
 77
     6
 78
     2
 67
     7
 79
     5
170
     0
171
     0
290
     0
174
     0
 93
       13
 44
0.0
173
     0
291
     1
 45
0.0
1001
ACAD
1000
AcDbSavedByObjectVersion
1070
     0
  0
VISUALSTYLE
  5
2E
102
{ACAD_REACTORS
330
2A
102
}
102
{ACAD_XDICTIONARY
360
365
102
}
330
2A
100
AcDbVisualStyle
  2
GouraudWithEdges
 70
     3
 71
     2
 72
     2
 73
     1
 90
        2
 40
-0.6
 41
30.0
 62
     5
 63
     7
 74
     1
 91
        4
 64
     7
 65
   257
 75
     1
175
     1
 42
1.0
 92
        0
 66
   257
 43
1.0
 76
     1
 77
     6
 78
     2
 67
     7
 79
     5
170
     0
171
     0
290
     0
174
     0
 93
       13
 44
0.0
173
     0
291
     1
 45
0.0
1001
ACAD
1000
AcDbSavedByObjectVersion
1070
     0
  0
VISUALSTYLE
  5
38
102
{ACAD_REACTORS
330
2A
102
}
102
{ACAD_XDICTIONARY
360
379
102
}
330
2A
100
AcDbVisualStyle
  2
Linepattern
 70
    14
 71
     2
 72
     2
 73
     0
 90
        0
 40
-0.6
 41
-30.0
 62
     5
 63
     7
 74
     1
 91
        4
 64
     7
 65
   257
 75
     7
175
     7
 42
1.0
 92
        8
 66
     7
 43
1.0
 76
     1
 77
     6
 78
     2
 67
     7
 79
     5
170
     0
171
     0
290
     0
174
     0
 93
        1
 44
0.0
173
     0
291
     1
 45
0.0
1001
ACAD
1000
AcDbSavedByObjectVersion
1070
     0
  0
VISUALSTYLE
  5
33
102
{ACAD_REACTORS
330
2A
102
}
102
{ACAD_XDICTIONARY
360
36F
102
}
330
2A
100
AcDbVisualStyle
  2
Realistic
 70
     8
 71
     2
 72
     2
 73
     0
 90
        0
 40
-0.6
 41
-30.0
 62
     5
 63
     7
 74
     1
 91
        0
 64
     7
 65
   257
 75
     1
175
     1
 42
1.0
 92
        8
 66
     8
 43
1.0
 76
     1
 77
     6
 78
     2
 67
     7
 79
     5
170
     0
171
     0
290
     0
174
     0
 93
       13
 44
0.0
173
     0
291
     0
 45
0.0
1001
ACAD
1000
AcDbSavedByObjectVersion
1070
     0
  0
VISUALSTYLE
  5
37
102
{ACAD_REACTORS
330
2A
102
}
102
{ACAD_XDICTIONARY
360
377
102
}
330
2A
100
AcDbVisualStyle
  2
Thicken
 70
    13
 71
     2
 72
     2
 73
     0
 90
        0
 40
-0.6
 41
-30.0
 62
     5
 63
     7
 74
     1
 91
        4
 64
     7
 65
   257
 75
     1
175
     1
 42
1.0
 92
       12
 66
     7
 43
1.0
 76
     1
 77
     6
 78
     2
 67
     7
 79
     5
170
     0
171
     0
290
     0
174
     0
 93
        1
 44
0.0
173
     0
291
     1
 45
0.0
1001
ACAD
1000
AcDbSavedByObjectVersion
1070
     0
  0
DICTIONARYVAR
  5
35C
102
{ACAD_REACTORS
330
359
102
}
330
359
100
DictionaryVariables
280
     0
  1
1:1
  0
DICTIONARYVAR
  5
35D
102
{ACAD_REACTORS
330
359
102
}
330
359
100
DictionaryVariables
280
     0
  1
2
  0
DICTIONARYVAR
  5
35E
102
{ACAD_REACTORS
330
359
102
}
330
359
100
DictionaryVariables
280
     0
  1
1
  0
DICTIONARY
  5
381
330
3D
100
AcDbDictionary
280
     1
281
     1
  3
ACAD_XREC_ROUNDTRIP
360
382
  0
DICTIONARY
  5
37F
330
3C
100
AcDbDictionary
280
     1
281
     1
  3
ACAD_XREC_ROUNDTRIP
360
380
  0
DICTIONARY
  5
383
330
3E
100
AcDbDictionary
280
     1
281
     1
  3
ACAD_XREC_ROUNDTRIP
360
384
  0
DICTIONARY
  5
367
330
2F
100
AcDbDictionary
280
     1
281
     1
  3
ACAD_XREC_ROUNDTRIP
360
368
  0
DICTIONARY
  5
36B
330
31
100
AcDbDictionary
280
     1
281
     1
  3
ACAD_XREC_ROUNDTRIP
360
36C
  0
DICTIONARY
  5
369
330
30
100
AcDbDictionary
280
     1
281
     1
  3
ACAD_XREC_ROUNDTRIP
360
36A
  0
DICTIONARY
  5
36D
330
32
100
AcDbDictionary
280
     1
281
     1
  3
ACAD_XREC_ROUNDTRIP
360
36E
  0
DICTIONARY
  5
375
330
36
100
AcDbDictionary
280
     1
281
     1
  3
ACAD_XREC_ROUNDTRIP
360
376
  0
DICTIONARY
  5
37D
330
3A
100
AcDbDictionary
280
     1
281
     1
  3
ACAD_XREC_ROUNDTRIP
360
37E
  0
DICTIONARY
  5
371
330
34
100
AcDbDictionary
280
     1
281
     1
  3
ACAD_XREC_ROUNDTRIP
360
372
  0
DICTIONARY
  5
373
330
35
100
AcDbDictionary
280
     1
281
     1
  3
ACAD_XREC_ROUNDTRIP
360
374
  0
DICTIONARY
  5
37B
330
39
100
AcDbDictionary
280
     1
281
     1
  3
ACAD_XREC_ROUNDTRIP
360
37C
  0
DICTIONARY
  5
35F
330
2B
100
AcDbDictionary
280
     1
281
     1
  3
ACAD_XREC_ROUNDTRIP
360
360
  0
DICTIONARY
  5
361
330
2C
100
AcDbDictionary
280
     1
281
     1
  3
ACAD_XREC_ROUNDTRIP
360
362
  0
DICTIONARY
  5
363
330
2D
100
AcDbDictionary
280
     1
281
     1
  3
ACAD_XREC_ROUNDTRIP
360
364
  0
DICTIONARY
  5
365
330
2E
100
AcDbDictionary
280
     1
281
     1
  3
ACAD_XREC_ROUNDTRIP
360
366
  0
DICTIONARY
  5
379
330
38
100
AcDbDictionary
280
     1
281
     1
  3
ACAD_XREC_ROUNDTRIP
360
37A
  0
DICTIONARY
  5
36F
330
33
100
AcDbDictionary
280
     1
281
     1
  3
ACAD_XREC_ROUNDTRIP
360
370
  0
DICTIONARY
  5
377
330
37
100
AcDbDictionary
280
     1
281
     1
  3
ACAD_XREC_ROUNDTRIP
360
378
  0
XRECORD
  5
382
102
{ACAD_REACTORS
330
381
102
}
330
381
100
AcDbXrecord
280
     1
102
MATERIAL
148
0.0
149
0.0
149
0.0
 93
        0
 94
      127
282
     0
 72
     1
 77
     1
171
     1
175
     1
179
     1
273
     0
  0
XRECORD
  5
380
102
{ACAD_REACTORS
330
37F
102
}
330
37F
100
AcDbXrecord
280
     1
102
MATERIAL
148
0.0
149
0.0
149
0.0
 93
        0
 94
      127
282
     0
 72
     1
 77
     1
171
     1
175
     1
179
     1
273
     0
  0
XRECORD
  5
384
102
{ACAD_REACTORS
330
383
102
}
330
383
100
AcDbXrecord
280
     1
102
MATERIAL
148
0.0
149
0.0
149
0.0
 93
        0
 94
      127
282
     0
 72
     1
 77
     1
171
     1
175
     1
179
     1
273
     0
  0
XRECORD
  5
368
102
{ACAD_REACTORS
330
367
102
}
330
367
100
AcDbXrecord
280
     1
102
RTVSPropertyOp0
 70
     1
102
RTVSPropertyOp1
 70
     1
102
RTVSPropertyOp2
 70
     1
102
RTVSPropertyOp3
 70
     1
102
RTVSPropertyOp4
 70
     1
102
RTVSPropertyOp5
 70
     1
102
RTVSPropertyOp6
 70
     1
102
RTVSPropertyOp7
 70
     1
102
RTVSPropertyOp8
 70
     1
102
RTVSPropertyOp9
 70
     1
102
RTVSPropertyOp10
 70
     1
102
RTVSPropertyOp11
 70
     1
102
RTVSPropertyOp12
 70
     1
102
RTVSPropertyOp13
 70
     1
102
RTVSPropertyOp14
 70
     1
102
RTVSPropertyOp15
 70
     1
102
RTVSPropertyOp16
 70
     1
102
RTVSPropertyOp17
 70
     1
102
RTVSPropertyOp18
 70
     1
102
RTVSPropertyOp19
 70
     1
102
RTVSPropertyOp20
 70
     1
102
RTVSPropertyOp21
 70
     1
102
RTVSPropertyOp22
 70
     1
102
RTVSPropertyOp23
 70
     1
102
RTVSPropertyOp24
 70
     1
102
RTVSPropertyOp25
 70
     1
102
RTVSPropertyOp26
 70
     1
102
RTVSPropertyOp27
 70
     1
  0
XRECORD
  5
36C
102
{ACAD_REACTORS
330
36B
102
}
330
36B
100
AcDbXrecord
280
     1
102
RTVSPropertyOp0
 70
     1
102
RTVSPropertyOp1
 70
     1
102
RTVSPropertyOp2
 70
     1
102
RTVSPropertyOp3
 70
     1
102
RTVSPropertyOp4
 70
     1
102
RTVSPropertyOp5
 70
     1
102
RTVSPropertyOp6
 70
     1
102
RTVSPropertyOp7
 70
     1
102
RTVSPropertyOp8
 70
     1
102
RTVSPropertyOp9
 70
     1
102
RTVSPropertyOp10
 70
     1
102
RTVSPropertyOp11
 70
     1
102
RTVSPropertyOp12
 70
     1
102
RTVSPropertyOp13
 70
     1
102
RTVSPropertyOp14
 70
     1
102
RTVSPropertyOp15
 70
     1
102
RTVSPropertyOp16
 70
     1
102
RTVSPropertyOp17
 70
     1
102
RTVSPropertyOp18
 70
     1
102
RTVSPropertyOp19
 70
     1
102
RTVSPropertyOp20
 70
     1
102
RTVSPropertyOp21
 70
     1
102
RTVSPropertyOp22
 70
     1
102
RTVSPropertyOp23
 70
     1
102
RTVSPropertyOp24
 70
     1
102
RTVSPropertyOp25
 70
     1
102
RTVSPropertyOp26
 70
     1
102
RTVSPropertyOp27
 70
     1
  0
XRECORD
  5
36A
102
{ACAD_REACTORS
330
369
102
}
330
369
100
AcDbXrecord
280
     1
102
RTVSPropertyOp0
 70
     1
102
RTVSPropertyOp1
 70
     1
102
RTVSPropertyOp2
 70
     1
102
RTVSPropertyOp3
 70
     1
102
RTVSPropertyOp4
 70
     1
102
RTVSPropertyOp5
 70
     1
102
RTVSPropertyOp6
 70
     1
102
RTVSPropertyOp7
 70
     1
102
RTVSPropertyOp8
 70
     1
102
RTVSPropertyOp9
 70
     1
102
RTVSPropertyOp10
 70
     1
102
RTVSPropertyOp11
 70
     1
102
RTVSPropertyOp12
 70
     1
102
RTVSPropertyOp13
 70
     1
102
RTVSPropertyOp14
 70
     1
102
RTVSPropertyOp15
 70
     1
102
RTVSPropertyOp16
 70
     1
102
RTVSPropertyOp17
 70
     1
102
RTVSPropertyOp18
 70
     1
102
RTVSPropertyOp19
 70
     1
102
RTVSPropertyOp20
 70
     1
102
RTVSPropertyOp21
 70
     1
102
RTVSPropertyOp22
 70
     1
102
RTVSPropertyOp23
 70
     1
102
RTVSPropertyOp24
 70
     1
102
RTVSPropertyOp25
 70
     1
102
RTVSPropertyOp26
 70
     1
102
RTVSPropertyOp27
 70
     1
  0
XRECORD
  5
36E
102
{ACAD_REACTORS
330
36D
102
}
330
36D
100
AcDbXrecord
280
     1
102
RTVSPropertyOp0
 70
     1
102
RTVSPropertyOp1
 70
     1
102
RTVSPropertyOp2
 70
     1
102
RTVSPropertyOp3
 70
     1
102
RTVSPropertyOp4
 70
     1
102
RTVSPropertyOp5
 70
     1
102
RTVSPropertyOp6
 70
     1
102
RTVSPropertyOp7
 70
     1
102
RTVSPropertyOp8
 70
     1
102
RTVSPropertyOp9
 70
     1
102
RTVSPropertyOp10
 70
     1
102
RTVSPropertyOp11
 70
     1
102
RTVSPropertyOp12
 70
     1
102
RTVSPropertyOp13
 70
     1
102
RTVSPropertyOp14
 70
     1
102
RTVSPropertyOp15
 70
     1
102
RTVSPropertyOp16
 70
     1
102
RTVSPropertyOp17
 70
     1
102
RTVSPropertyOp18
 70
     1
102
RTVSPropertyOp19
 70
     1
102
RTVSPropertyOp20
 70
     1
102
RTVSPropertyOp21
 70
     1
102
RTVSPropertyOp22
 70
     1
102
RTVSPropertyOp23
 70
     1
102
RTVSPropertyOp24
 70
     1
102
RTVSPropertyOp25
 70
     1
102
RTVSPropertyOp26
 70
     1
102
RTVSPropertyOp27
 70
     1
  0
XRECORD
  5
376
102
{ACAD_REACTORS
330
375
102
}
330
375
100
AcDbXrecord
280
     1
102
RTVSPropertyOp0
 70
     1
102
RTVSPropertyOp1
 70
     1
102
RTVSPropertyOp2
 70
     1
102
RTVSPropertyOp3
 70
     1
102
RTVSPropertyOp4
 70
     1
102
RTVSPropertyOp5
 70
     1
102
RTVSPropertyOp6
 70
     1
102
RTVSPropertyOp7
 70
     1
102
RTVSPropertyOp8
 70
     1
102
RTVSPropertyOp9
 70
     1
102
RTVSPropertyOp10
 70
     1
102
RTVSPropertyOp11
 70
     1
102
RTVSPropertyOp12
 70
     1
102
RTVSPropertyOp13
 70
     1
102
RTVSPropertyOp14
 70
     1
102
RTVSPropertyOp15
 70
     1
102
RTVSPropertyOp16
 70
     1
102
RTVSPropertyOp17
 70
     1
102
RTVSPropertyOp18
 70
     1
102
RTVSPropertyOp19
 70
     1
102
RTVSPropertyOp20
 70
     1
102
RTVSPropertyOp21
 70
     1
102
RTVSPropertyOp22
 70
     1
102
RTVSPropertyOp23
 70
     1
102
RTVSPropertyOp24
 70
     1
102
RTVSPropertyOp25
 70
     1
102
RTVSPropertyOp26
 70
     1
102
RTVSPropertyOp27
 70
     1
  0
XRECORD
  5
37E
102
{ACAD_REACTORS
330
37D
102
}
330
37D
100
AcDbXrecord
280
     1
102
RTVSPropertyOp0
 70
     1
102
RTVSPropertyOp1
 70
     1
102
RTVSPropertyOp2
 70
     1
102
RTVSPropertyOp3
 70
     1
102
RTVSPropertyOp4
 70
     1
102
RTVSPropertyOp5
 70
     1
102
RTVSPropertyOp6
 70
     1
102
RTVSPropertyOp7
 70
     1
102
RTVSPropertyOp8
 70
     1
102
RTVSPropertyOp9
 70
     1
102
RTVSPropertyOp10
 70
     1
102
RTVSPropertyOp11
 70
     1
102
RTVSPropertyOp12
 70
     1
102
RTVSPropertyOp13
 70
     1
102
RTVSPropertyOp14
 70
     1
102
RTVSPropertyOp15
 70
     1
102
RTVSPropertyOp16
 70
     1
102
RTVSPropertyOp17
 70
     1
102
RTVSPropertyOp18
 70
     1
102
RTVSPropertyOp19
 70
     1
102
RTVSPropertyOp20
 70
     1
102
RTVSPropertyOp21
 70
     1
102
RTVSPropertyOp22
 70
     1
102
RTVSPropertyOp23
 70
     1
102
RTVSPropertyOp24
 70
     1
102
RTVSPropertyOp25
 70
     1
102
RTVSPropertyOp26
 70
     1
102
RTVSPropertyOp27
 70
     1
  0
XRECORD
  5
372
102
{ACAD_REACTORS
330
371
102
}
330
371
100
AcDbXrecord
280
     1
102
RTVSPropertyOp0
 70
     1
102
RTVSPropertyOp1
 70
     1
102
RTVSPropertyOp2
 70
     1
102
RTVSPropertyOp3
 70
     1
102
RTVSPropertyOp4
 70
     1
102
RTVSPropertyOp5
 70
     1
102
RTVSPropertyOp6
 70
     1
102
RTVSPropertyOp7
 70
     1
102
RTVSPropertyOp8
 70
     1
102
RTVSPropertyOp9
 70
     1
102
RTVSPropertyOp10
 70
     1
102
RTVSPropertyOp11
 70
     1
102
RTVSPropertyOp12
 70
     1
102
RTVSPropertyOp13
 70
     1
102
RTVSPropertyOp14
 70
     1
102
RTVSPropertyOp15
 70
     1
102
RTVSPropertyOp16
 70
     1
102
RTVSPropertyOp17
 70
     1
102
RTVSPropertyOp18
 70
     1
102
RTVSPropertyOp19
 70
     1
102
RTVSPropertyOp20
 70
     1
102
RTVSPropertyOp21
 70
     1
102
RTVSPropertyOp22
 70
     1
102
RTVSPropertyOp23
 70
     1
102
RTVSPropertyOp24
 70
     1
102
RTVSPropertyOp25
 70
     1
102
RTVSPropertyOp26
 70
     1
102
RTVSPropertyOp27
 70
     1
  0
XRECORD
  5
374
102
{ACAD_REACTORS
330
373
102
}
330
373
100
AcDbXrecord
280
     1
102
RTVSPropertyOp0
 70
     1
102
RTVSPropertyOp1
 70
     1
102
RTVSPropertyOp2
 70
     1
102
RTVSPropertyOp3
 70
     1
102
RTVSPropertyOp4
 70
     1
102
RTVSPropertyOp5
 70
     1
102
RTVSPropertyOp6
 70
     1
102
RTVSPropertyOp7
 70
     1
102
RTVSPropertyOp8
 70
     1
102
RTVSPropertyOp9
 70
     1
102
RTVSPropertyOp10
 70
     1
102
RTVSPropertyOp11
 70
     1
102
RTVSPropertyOp12
 70
     1
102
RTVSPropertyOp13
 70
     1
102
RTVSPropertyOp14
 70
     1
102
RTVSPropertyOp15
 70
     1
102
RTVSPropertyOp16
 70
     1
102
RTVSPropertyOp17
 70
     1
102
RTVSPropertyOp18
 70
     1
102
RTVSPropertyOp19
 70
     1
102
RTVSPropertyOp20
 70
     1
102
RTVSPropertyOp21
 70
     1
102
RTVSPropertyOp22
 70
     1
102
RTVSPropertyOp23
 70
     1
102
RTVSPropertyOp24
 70
     1
102
RTVSPropertyOp25
 70
     1
102
RTVSPropertyOp26
 70
     1
102
RTVSPropertyOp27
 70
     1
  0
XRECORD
  5
37C
102
{ACAD_REACTORS
330
37B
102
}
330
37B
100
AcDbXrecord
280
     1
102
RTVSPropertyOp0
 70
     1
102
RTVSPropertyOp1
 70
     1
102
RTVSPropertyOp2
 70
     1
102
RTVSPropertyOp3
 70
     1
102
RTVSPropertyOp4
 70
     1
102
RTVSPropertyOp5
 70
     1
102
RTVSPropertyOp6
 70
     1
102
RTVSPropertyOp7
 70
     1
102
RTVSPropertyOp8
 70
     1
102
RTVSPropertyOp9
 70
     1
102
RTVSPropertyOp10
 70
     1
102
RTVSPropertyOp11
 70
     1
102
RTVSPropertyOp12
 70
     1
102
RTVSPropertyOp13
 70
     1
102
RTVSPropertyOp14
 70
     1
102
RTVSPropertyOp15
 70
     1
102
RTVSPropertyOp16
 70
     1
102
RTVSPropertyOp17
 70
     1
102
RTVSPropertyOp18
 70
     1
102
RTVSPropertyOp19
 70
     1
102
RTVSPropertyOp20
 70
     1
102
RTVSPropertyOp21
 70
     1
102
RTVSPropertyOp22
 70
     1
102
RTVSPropertyOp23
 70
     1
102
RTVSPropertyOp24
 70
     1
102
RTVSPropertyOp25
 70
     1
102
RTVSPropertyOp26
 70
     1
102
RTVSPropertyOp27
 70
     1
  0
XRECORD
  5
360
102
{ACAD_REACTORS
330
35F
102
}
330
35F
100
AcDbXrecord
280
     1
102
RTVSPropertyOp0
 70
     1
102
RTVSPropertyOp1
 70
     1
102
RTVSPropertyOp2
 70
     1
102
RTVSPropertyOp3
 70
     1
102
RTVSPropertyOp4
 70
     1
102
RTVSPropertyOp5
 70
     1
102
RTVSPropertyOp6
 70
     1
102
RTVSPropertyOp7
 70
     1
102
RTVSPropertyOp8
 70
     1
102
RTVSPropertyOp9
 70
     1
102
RTVSPropertyOp10
 70
     1
102
RTVSPropertyOp11
 70
     1
102
RTVSPropertyOp12
 70
     1
102
RTVSPropertyOp13
 70
     1
102
RTVSPropertyOp14
 70
     1
102
RTVSPropertyOp15
 70
     1
102
RTVSPropertyOp16
 70
     1
102
RTVSPropertyOp17
 70
     1
102
RTVSPropertyOp18
 70
     1
102
RTVSPropertyOp19
 70
     1
102
RTVSPropertyOp20
 70
     1
102
RTVSPropertyOp21
 70
     1
102
RTVSPropertyOp22
 70
     1
102
RTVSPropertyOp23
 70
     1
102
RTVSPropertyOp24
 70
     1
102
RTVSPropertyOp25
 70
     1
102
RTVSPropertyOp26
 70
     1
102
RTVSPropertyOp27
 70
     1
  0
XRECORD
  5
362
102
{ACAD_REACTORS
330
361
102
}
330
361
100
AcDbXrecord
280
     1
102
RTVSPropertyOp0
 70
     1
102
RTVSPropertyOp1
 70
     1
102
RTVSPropertyOp2
 70
     1
102
RTVSPropertyOp3
 70
     1
102
RTVSPropertyOp4
 70
     1
102
RTVSPropertyOp5
 70
     1
102
RTVSPropertyOp6
 70
     1
102
RTVSPropertyOp7
 70
     1
102
RTVSPropertyOp8
 70
     1
102
RTVSPropertyOp9
 70
     1
102
RTVSPropertyOp10
 70
     1
102
RTVSPropertyOp11
 70
     1
102
RTVSPropertyOp12
 70
     1
102
RTVSPropertyOp13
 70
     1
102
RTVSPropertyOp14
 70
     1
102
RTVSPropertyOp15
 70
     1
102
RTVSPropertyOp16
 70
     1
102
RTVSPropertyOp17
 70
     1
102
RTVSPropertyOp18
 70
     1
102
RTVSPropertyOp19
 70
     1
102
RTVSPropertyOp20
 70
     1
102
RTVSPropertyOp21
 70
     1
102
RTVSPropertyOp22
 70
     1
102
RTVSPropertyOp23
 70
     1
102
RTVSPropertyOp24
 70
     1
102
RTVSPropertyOp25
 70
     1
102
RTVSPropertyOp26
 70
     1
102
RTVSPropertyOp27
 70
     1
  0
XRECORD
  5
364
102
{ACAD_REACTORS
330
363
102
}
330
363
100
AcDbXrecord
280
     1
102
RTVSPropertyOp0
 70
     1
102
RTVSPropertyOp1
 70
     1
102
RTVSPropertyOp2
 70
     1
102
RTVSPropertyOp3
 70
     1
102
RTVSPropertyOp4
 70
     1
102
RTVSPropertyOp5
 70
     1
102
RTVSPropertyOp6
 70
     1
102
RTVSPropertyOp7
 70
     1
102
RTVSPropertyOp8
 70
     1
102
RTVSPropertyOp9
 70
     1
102
RTVSPropertyOp10
 70
     1
102
RTVSPropertyOp11
 70
     1
102
RTVSPropertyOp12
 70
     1
102
RTVSPropertyOp13
 70
     1
102
RTVSPropertyOp14
 70
     1
102
RTVSPropertyOp15
 70
     1
102
RTVSPropertyOp16
 70
     1
102
RTVSPropertyOp17
 70
     1
102
RTVSPropertyOp18
 70
     1
102
RTVSPropertyOp19
 70
     1
102
RTVSPropertyOp20
 70
     1
102
RTVSPropertyOp21
 70
     1
102
RTVSPropertyOp22
 70
     1
102
RTVSPropertyOp23
 70
     1
102
RTVSPropertyOp24
 70
     1
102
RTVSPropertyOp25
 70
     1
102
RTVSPropertyOp26
 70
     1
102
RTVSPropertyOp27
 70
     1
  0
XRECORD
  5
366
102
{ACAD_REACTORS
330
365
102
}
330
365
100
AcDbXrecord
280
     1
102
RTVSPropertyOp0
 70
     1
102
RTVSPropertyOp1
 70
     1
102
RTVSPropertyOp2
 70
     1
102
RTVSPropertyOp3
 70
     1
102
RTVSPropertyOp4
 70
     1
102
RTVSPropertyOp5
 70
     1
102
RTVSPropertyOp6
 70
     1
102
RTVSPropertyOp7
 70
     1
102
RTVSPropertyOp8
 70
     1
102
RTVSPropertyOp9
 70
     1
102
RTVSPropertyOp10
 70
     1
102
RTVSPropertyOp11
 70
     1
102
RTVSPropertyOp12
 70
     1
102
RTVSPropertyOp13
 70
     1
102
RTVSPropertyOp14
 70
     1
102
RTVSPropertyOp15
 70
     1
102
RTVSPropertyOp16
 70
     1
102
RTVSPropertyOp17
 70
     1
102
RTVSPropertyOp18
 70
     1
102
RTVSPropertyOp19
 70
     1
102
RTVSPropertyOp20
 70
     1
102
RTVSPropertyOp21
 70
     1
102
RTVSPropertyOp22
 70
     1
102
RTVSPropertyOp23
 70
     1
102
RTVSPropertyOp24
 70
     1
102
RTVSPropertyOp25
 70
     1
102
RTVSPropertyOp26
 70
     1
102
RTVSPropertyOp27
 70
     1
  0
XRECORD
  5
37A
102
{ACAD_REACTORS
330
379
102
}
330
379
100
AcDbXrecord
280
     1
102
RTVSPropertyOp0
 70
     1
102
RTVSPropertyOp1
 70
     1
102
RTVSPropertyOp2
 70
     1
102
RTVSPropertyOp3
 70
     1
102
RTVSPropertyOp4
 70
     1
102
RTVSPropertyOp5
 70
     1
102
RTVSPropertyOp6
 70
     1
102
RTVSPropertyOp7
 70
     1
102
RTVSPropertyOp8
 70
     1
102
RTVSPropertyOp9
 70
     1
102
RTVSPropertyOp10
 70
     1
102
RTVSPropertyOp11
 70
     1
102
RTVSPropertyOp12
 70
     1
102
RTVSPropertyOp13
 70
     1
102
RTVSPropertyOp14
 70
     1
102
RTVSPropertyOp15
 70
     1
102
RTVSPropertyOp16
 70
     1
102
RTVSPropertyOp17
 70
     1
102
RTVSPropertyOp18
 70
     1
102
RTVSPropertyOp19
 70
     1
102
RTVSPropertyOp20
 70
     1
102
RTVSPropertyOp21
 70
     1
102
RTVSPropertyOp22
 70
     1
102
RTVSPropertyOp23
 70
     1
102
RTVSPropertyOp24
 70
     1
102
RTVSPropertyOp25
 70
     1
102
RTVSPropertyOp26
 70
     1
102
RTVSPropertyOp27
 70
     1
  0
XRECORD
  5
370
102
{ACAD_REACTORS
330
36F
102
}
330
36F
100
AcDbXrecord
280
     1
102
RTVSPropertyOp0
 70
     1
102
RTVSPropertyOp1
 70
     1
102
RTVSPropertyOp2
 70
     1
102
RTVSPropertyOp3
 70
     1
102
RTVSPropertyOp4
 70
     1
102
RTVSPropertyOp5
 70
     1
102
RTVSPropertyOp6
 70
     1
102
RTVSPropertyOp7
 70
     1
102
RTVSPropertyOp8
 70
     1
102
RTVSPropertyOp9
 70
     1
102
RTVSPropertyOp10
 70
     1
102
RTVSPropertyOp11
 70
     1
102
RTVSPropertyOp12
 70
     1
102
RTVSPropertyOp13
 70
     1
102
RTVSPropertyOp14
 70
     1
102
RTVSPropertyOp15
 70
     1
102
RTVSPropertyOp16
 70
     1
102
RTVSPropertyOp17
 70
     1
102
RTVSPropertyOp18
 70
     1
102
RTVSPropertyOp19
 70
     1
102
RTVSPropertyOp20
 70
     1
102
RTVSPropertyOp21
 70
     1
102
RTVSPropertyOp22
 70
     1
102
RTVSPropertyOp23
 70
     1
102
RTVSPropertyOp24
 70
     1
102
RTVSPropertyOp25
 70
     1
102
RTVSPropertyOp26
 70
     1
102
RTVSPropertyOp27
 70
     1
  0
XRECORD
  5
378
102
{ACAD_REACTORS
330
377
102
}
330
377
100
AcDbXrecord
280
     1
102
RTVSPropertyOp0
 70
     1
102
RTVSPropertyOp1
 70
     1
102
RTVSPropertyOp2
 70
     1
102
RTVSPropertyOp3
 70
     1
102
RTVSPropertyOp4
 70
     1
102
RTVSPropertyOp5
 70
     1
102
RTVSPropertyOp6
 70
     1
102
RTVSPropertyOp7
 70
     1
102
RTVSPropertyOp8
 70
     1
102
RTVSPropertyOp9
 70
     1
102
RTVSPropertyOp10
 70
     1
102
RTVSPropertyOp11
 70
     1
102
RTVSPropertyOp12
 70
     1
102
RTVSPropertyOp13
 70
     1
102
RTVSPropertyOp14
 70
     1
102
RTVSPropertyOp15
 70
     1
102
RTVSPropertyOp16
 70
     1
102
RTVSPropertyOp17
 70
     1
102
RTVSPropertyOp18
 70
     1
102
RTVSPropertyOp19
 70
     1
102
RTVSPropertyOp20
 70
     1
102
RTVSPropertyOp21
 70
     1
102
RTVSPropertyOp22
 70
     1
102
RTVSPropertyOp23
 70
     1
102
RTVSPropertyOp24
 70
     1
102
RTVSPropertyOp25
 70
     1
102
RTVSPropertyOp26
 70
     1
102
RTVSPropertyOp27
 70
     1
  0
ENDSEC
  0
EOF
