  0
SECTION
  2
HEADER
  9
$ACADVER
  1
AC1015
  9
$ACADMAINTVER
 70
     6
  9
$DWGCODEPAGE
  3
ANSI_1252
  9
$INSBASE
 10
0.0
 20
0.0
 30
0.0
  9
$EXTMIN
 10
0.0
 20
0.0
 30
0.0
  9
$EXTMAX
 10
34.0
 20
22.0
 30
0.0
  9
$LIMMIN
 10
0.0
 20
0.0
  9
$LIMMAX
 10
34.0
 20
22.0
  9
$ORTHOMODE
 70
     0
  9
$REGENMODE
 70
     1
  9
$FILLMODE
 70
     1
  9
$QTEXTMODE
 70
     0
  9
$MIRRTEXT
 70
     1
  9
$LTSCALE
 40
2.0
  9
$ATTMODE
 70
     1
  9
$TEXTSIZE
 40
0.25
  9
$TRACEWID
 40
0.05
  9
$TEXTSTYLE
  7
Standard
  9
$CLAYER
  8
0
  9
$CELTYPE
  6
ByLayer
  9
$CECOLOR
 62
   256
  9
$CELTSCALE
 40
1.0
  9
$DISPSILH
 70
     0
  9
$DIMSCALE
 40
1.0
  9
$DIMASZ
 40
0.26
  9
$DIMEXO
 40
0.1
  9
$DIMDLI
 40
0.38
  9
$DIMRND
 40
0.0
  9
$DIMDLE
 40
0.0
  9
$DIMEXE
 40
0.25
  9
$DIMTP
 40
0.0
  9
$DIMTM
 40
0.0
  9
$DIMTXT
 40
0.25
  9
$DIMCEN
 40
0.09
  9
$DIMTSZ
 40
0.0
  9
$DIMTOL
 70
     0
  9
$DIMLIM
 70
     0
  9
$DIMTIH
 70
     1
  9
$DIMTOH
 70
     1
  9
$DIMSE1
 70
     0
  9
$DIMSE2
 70
     0
  9
$DIMTAD
 70
     1
  9
$DIMZIN
 70
     0
  9
$DIMBLK
  1

  9
$DIMASO
 70
     1
  9
$DIMSHO
 70
     1
  9
$DIMPOST
  1

  9
$DIMAPOST
  1

  9
$DIMALT
 70
     0
  9
$DIMALTD
 70
     2
  9
$DIMALTF
 40
25.4
  9
$DIMLFAC
 40
1.0
  9
$DIMTOFL
 70
     0
  9
$DIMTVP
 40
0.0
  9
$DIMTIX
 70
     0
  9
$DIMSOXD
 70
     0
  9
$DIMSAH
 70
     0
  9
$DIMBLK1
  1

  9
$DIMBLK2
  1

  9
$DIMSTYLE
  2
Standard
  9
$DIMCLRD
 70
     0
  9
$DIMCLRE
 70
     0
  9
$DIMCLRT
 70
     0
  9
$DIMTFAC
 40
1.0
  9
$DIMGAP
 40
0.12
  9
$DIMJUST
 70
     0
  9
$DIMSD1
 70
     0
  9
$DIMSD2
 70
     0
  9
$DIMTOLJ
 70
     1
  9
$DIMTZIN
 70
     0
  9
$DIMALTZ
 70
     0
  9
$DIMALTTZ
 70
     0
  9
$DIMUPT
 70
     0
  9
$DIMDEC
 70
     2
  9
$DIMTDEC
 70
     2
  9
$DIMALTU
 70
     2
  9
$DIMALTTD
 70
     2
  9
$DIMTXSTY
  7
Standard
  9
$DIMAUNIT
 70
     0
  9
$DIMADEC
 70
     2
  9
$DIMALTRND
 40
0.0
  9
$DIMAZIN
 70
     0
  9
$DIMDSEP
 70
    46
  9
$DIMATFIT
 70
     3
  9
$DIMFRAC
 70
     0
  9
$DIMLDRBLK
  1

  9
$DIMLUNIT
 70
     2
  9
$DIMLWD
 70
    -2
  9
$DIMLWE
 70
    -2
  9
$DIMTMOVE
 70
     0
  9
$LUNITS
 70
     2
  9
$LUPREC
 70
     2
  9
$SKETCHINC
 40
0.1
  9
$FILLETRAD
 40
0.5
  9
$AUNITS
 70
     0
  9
$AUPREC
 70
     2
  9
$MENU
  1
.
  9
$ELEVATION
 40
0.0
  9
$PELEVATION
 40
0.0
  9
$THICKNESS
 40
0.0
  9
$LIMCHECK
 70
     0
  9
$CHAMFERA
 40
0.5
  9
$CHAMFERB
 40
0.5
  9
$CHAMFERC
 40
1.0
  9
$CHAMFERD
 40
0.0
  9
$SKPOLY
 70
     0
  9
$TDCREATE
 40
2455761.386355116
  9
$TDUCREATE
 40
2455761.553021783
  9
$TDUPDATE
 40
2455761.386355127
  9
$TDUUPDATE
 40
2455761.553021794
  9
$TDINDWG
 40
0.0000000116
  9
$TDUSRTIMER
 40
0.0000000116
  9
$USRTIMER
 70
     1
  9
$ANGBASE
 50
0.0
  9
$ANGDIR
 70
     0
  9
$PDMODE
 70
     0
  9
$PDSIZE
 40
-1.0
  9
$PLINEWID
 40
0.0
  9
$SPLFRAME
 70
     0
  9
$SPLINETYPE
 70
     6
  9
$SPLINESEGS
 70
     8
  9
$HANDSEED
  5
398
  9
$SURFTAB1
 70
     6
  9
$SURFTAB2
 70
     6
  9
$SURFTYPE
 70
     6
  9
$SURFU
 70
     6
  9
$SURFV
 70
     6
  9
$UCSBASE
  2

  9
$UCSNAME
  2

  9
$UCSORG
 10
0.0
 20
0.0
 30
0.0
  9
$UCSXDIR
 10
1.0
 20
0.0
 30
0.0
  9
$UCSYDIR
 10
0.0
 20
1.0
 30
0.0
  9
$UCSORTHOREF
  2

  9
$UCSORTHOVIEW
 70
     0
  9
$UCSORGTOP
 10
0.0
 20
0.0
 30
0.0
  9
$UCSORGBOTTOM
 10
0.0
 20
0.0
 30
0.0
  9
$UCSORGLEFT
 10
0.0
 20
0.0
 30
0.0
  9
$UCSORGRIGHT
 10
0.0
 20
0.0
 30
0.0
  9
$UCSORGFRONT
 10
0.0
 20
0.0
 30
0.0
  9
$UCSORGBACK
 10
0.0
 20
0.0
 30
0.0
  9
$PUCSBASE
  2

  9
$PUCSNAME
  2

  9
$PUCSORG
 10
0.0
 20
0.0
 30
0.0
  9
$PUCSXDIR
 10
1.0
 20
0.0
 30
0.0
  9
$PUCSYDIR
 10
0.0
 20
1.0
 30
0.0
  9
$PUCSORTHOREF
  2

  9
$PUCSORTHOVIEW
 70
     0
  9
$PUCSORGTOP
 10
0.0
 20
0.0
 30
0.0
  9
$PUCSORGBOTTOM
 10
0.0
 20
0.0
 30
0.0
  9
$PUCSORGLEFT
 10
0.0
 20
0.0
 30
0.0
  9
$PUCSORGRIGHT
 10
0.0
 20
0.0
 30
0.0
  9
$PUCSORGFRONT
 10
0.0
 20
0.0
 30
0.0
  9
$PUCSORGBACK
 10
0.0
 20
0.0
 30
0.0
  9
$USERI1
 70
     0
  9
$USERI2
 70
     0
  9
$USERI3
 70
     0
  9
$USERI4
 70
     0
  9
$USERI5
 70
     0
  9
$USERR1
 40
0.0
  9
$USERR2
 40
0.0
  9
$USERR3
 40
0.0
  9
$USERR4
 40
0.0
  9
$USERR5
 40
0.0
  9
$WORLDVIEW
 70
     1
  9
$SHADEDGE
 70
     3
  9
$SHADEDIF
 70
    70
  9
$TILEMODE
 70
     1
  9
$MAXACTVP
 70
    64
  9
$PINSBASE
 10
0.0
 20
0.0
 30
0.0
  9
$PLIMCHECK
 70
     0
  9
$PEXTMIN
 10
1.0000000000E+20
 20
1.0000000000E+20
 30
1.0000000000E+20
  9
$PEXTMAX
 10
-1.0000000000E+20
 20
-1.0000000000E+20
 30
-1.0000000000E+20
  9
$PLIMMIN
 10
0.0
 20
0.0
  9
$PLIMMAX
 10
12.0
 20
9.0
  9
$UNITMODE
 70
     0
  9
$VISRETAIN
 70
     1
  9
$PLINEGEN
 70
     0
  9
$PSLTSCALE
 70
     1
  9
$TREEDEPTH
 70
  3020
  9
$CMLSTYLE
  2
Standard
  9
$CMLJUST
 70
     0
  9
$CMLSCALE
 40
1.0
  9
$PROXYGRAPHICS
 70
     1
  9
$MEASUREMENT
 70
     0
  9
$CELWEIGHT
370
    -1
  9
$ENDCAPS
280
     0
  9
$JOINSTYLE
280
     0
  9
$LWDISPLAY
290
     1
  9
$INSUNITS
 70
     1
  9
$HYPERLINKBASE
  1

  9
$STYLESHEET
  1

  9
$XEDIT
290
     1
  9
$CEPSNTYPE
380
     0
  9
$PSTYLEMODE
290
     1
  9
$FINGERPRINTGUID
  2
{C698A50A-5B9C-47E5-8046-9646F8B29196}
  9
$VERSIONGUID
  2
{FAEB1C32-E019-11D5-929B-00C0DF256EC4}
  9
$EXTNAMES
290
     1
  9
$PSVPSCALE
 40
0.0
  9
$OLESTARTUP
290
     0
  0
ENDSEC
  0
SECTION
  2
CLASSES
  0
CLASS
  1
ACDBDICTIONARYWDFLT
  2
AcDbDictionaryWithDefault
  3
ObjectDBX Classes
 90
        0
280
     0
281
     0
  0
CLASS
  1
VISUALSTYLE
  2
AcDbVisualStyle
  3
ObjectDBX Classes
 90
     4095
280
     0
281
     0
  0
CLASS
  1
MATERIAL
  2
AcDbMaterial
  3
ObjectDBX Classes
 90
     1153
280
     0
281
     0
  0
CLASS
  1
SCALE
  2
AcDbScale
  3
ObjectDBX Classes
 90
     1153
280
     0
281
     0
  0
CLASS
  1
DICTIONARYVAR
  2
AcDbDictionaryVar
  3
ObjectDBX Classes
 90
        0
280
     0
281
     0
  0
CLASS
  1
ACDBPLACEHOLDER
  2
AcDbPlaceHolder
  3
ObjectDBX Classes
 90
        0
280
     0
281
     0
  0
CLASS
  1
LAYOUT
  2
AcDbLayout
  3
ObjectDBX Classes
 90
        0
280
     0
281
     0
  0
ENDSEC
  0
SECTION
  2
TABLES
  0
TABLE
  2
VPORT
  5
8
330
0
100
AcDbSymbolTable
 70
     1
  0
VPORT
  5
29
330
8
100
AcDbSymbolTableRecord
100
AcDbViewportTableRecord
  2
*Active
 70
     0
 10
0.0
 20
0.0
 11
1.0
 21
1.0
 12
17.0
 22
11.0
 13
0.0
 23
0.0
 14
0.5
 24
0.5
 15
0.5
 25
0.5
 16
0.0
 26
0.0
 36
1.0
 17
0.0
 27
0.0
 37
0.0
 40
22.0
 41
1.5454545455
 42
50.0
 43
0.0
 44
0.0
 50
0.0
 51
0.0
 71
     0
 72
  2000
 73
     1
 74
     3
 75
     0
 76
     0
 77
     0
 78
     0
281
     0
 65
     1
110
0.0
120
0.0
130
0.0
111
1.0
121
0.0
131
0.0
112
0.0
122
1.0
132
0.0
 79
     0
146
0.0
  0
ENDTAB
  0
TABLE
  2
LTYPE
  5
5
330
0
100
AcDbSymbolTable
 70
     6
  0
LTYPE
  5
14
330
5
100
AcDbSymbolTableRecord
100
AcDbLinetypeTableRecord
  2
ByBlock
 70
     0
  3

 72
    65
 73
     0
 40
0.0
  0
LTYPE
  5
15
330
5
100
AcDbSymbolTableRecord
100
AcDbLinetypeTableRecord
  2
ByLayer
 70
     0
  3

 72
    65
 73
     0
 40
0.0
  0
LTYPE
  5
16
330
5
100
AcDbSymbolTableRecord
100
AcDbLinetypeTableRecord
  2
Continuous
 70
     0
  3
Solid line
 72
    65
 73
     0
 40
0.0
  0
LTYPE
  5
3F
330
5
100
AcDbSymbolTableRecord
100
AcDbLinetypeTableRecord
  2
HIDDEN
 70
     0
  3
Hidden __ __ __ __ __ __ __ __ __ __ __ __ __ __
 72
    65
 73
     2
 40
0.075
 49
0.05
 74
     0
 49
-0.025
 74
     0
  0
LTYPE
  5
40
330
5
100
AcDbSymbolTableRecord
100
AcDbLinetypeTableRecord
  2
PHANTOM
 70
     0
  3
Phantom ______  __  __  ______  __  __  ______
 72
    65
 73
     6
 40
0.5
 49
0.25
 74
     0
 49
-0.05
 74
     0
 49
0.05
 74
     0
 49
-0.05
 74
     0
 49
0.05
 74
     0
 49
-0.05
 74
     0
  0
LTYPE
  5
41
330
5
100
AcDbSymbolTableRecord
100
AcDbLinetypeTableRecord
  2
CENTER
 70
     0
  3
Center ____ _ ____ _ ____ _ ____ _ ____ _ ____
 72
    65
 73
     4
 40
0.4
 49
0.25
 74
     0
 49
-0.05
 74
     0
 49
0.05
 74
     0
 49
-0.05
 74
     0
  0
LTYPE
  5
42
330
5
100
AcDbSymbolTableRecord
100
AcDbLinetypeTableRecord
  2
CENTERX2
 70
     0
  3
Center (2x) ________  __  ________  __  _____
 72
    65
 73
     4
 40
0.8
 49
0.5
 74
     0
 49
-0.1
 74
     0
 49
0.1
 74
     0
 49
-0.1
 74
     0
  0
LTYPE
  5
43
330
5
100
AcDbSymbolTableRecord
100
AcDbLinetypeTableRecord
  2
DOT2
 70
     0
  3
Dot (.5x) ........................................
 72
    65
 73
     2
 40
0.025
 49
0.0
 74
     0
 49
-0.025
 74
     0
  0
ENDTAB
  0
TABLE
  2
LAYER
  5
2
330
0
100
AcDbSymbolTable
 70
     1
  0
LAYER
  5
10
330
2
100
AcDbSymbolTableRecord
100
AcDbLayerTableRecord
  2
0
 70
     0
 62
     7
  6
Continuous
370
    -3
390
F
  0
ENDTAB
  0
TABLE
  2
STYLE
  5
3
330
0
100
AcDbSymbolTable
 70
     2
  0
STYLE
  5
11
330
3
100
AcDbSymbolTableRecord
100
AcDbTextStyleTableRecord
  2
Standard
 70
     0
 40
0.0
 41
1.0
 50
0.0
 71
     0
 42
0.2
  3
txt
  4

  0
STYLE
  5
57
330
3
100
AcDbSymbolTableRecord
100
AcDbTextStyleTableRecord
  2
SLDTEXTSTYLE0
 70
     0
 40
0.0
 41
0.75
 50
0.0
 71
     0
 42
0.2
  3
TXT
  4

  0
ENDTAB
  0
TABLE
  2
VIEW
  5
6
330
0
100
AcDbSymbolTable
 70
     0
  0
ENDTAB
  0
TABLE
  2
UCS
  5
7
330
0
100
AcDbSymbolTable
 70
     0
  0
ENDTAB
  0
TABLE
  2
APPID
  5
9
330
0
100
AcDbSymbolTable
 70
     1
  0
APPID
  5
12
330
9
100
AcDbSymbolTableRecord
100
AcDbRegAppTableRecord
  2
ACAD
 70
     0
  0
ENDTAB
  0
TABLE
  2
DIMSTYLE
  5
A
330
0
100
AcDbSymbolTable
 70
     5
100
AcDbDimStyleTable
  0
DIMSTYLE
105
27
330
A
100
AcDbSymbolTableRecord
100
AcDbDimStyleTableRecord
  2
Standard
 70
     0
340
11
  0
DIMSTYLE
105
B7
102
{ACAD_REACTORS
330
B6
330
C9
330
130
330
227
330
239
330
25C
330
26E
102
}
330
A
100
AcDbSymbolTableRecord
100
AcDbDimStyleTableRecord
  2
SLDDIMSTYLE0
 70
     0
 41
0.26
 44
0.0
 45
0.000000001
 78
     4
140
0.25
147
0.0625
148
0.000000001
170
     1
173
     1
271
     2
272
     2
284
    12
340
57
  0
DIMSTYLE
105
E4
330
A
100
AcDbSymbolTableRecord
100
AcDbDimStyleTableRecord
  2
SLDDIMSTYLE1
 70
     0
 41
0.26
 44
0.0
 45
0.000000001
140
0.0
146
0.26
147
0.0
173
     1
271
     0
272
     0
340
11
  0
DIMSTYLE
105
24C
102
{ACAD_REACTORS
330
24B
102
}
330
A
100
AcDbSymbolTableRecord
100
AcDbDimStyleTableRecord
  2
SLDDIMSTYLE2
 70
     0
 41
0.26
 44
0.0
 45
0.000000001
 78
    12
140
0.25
147
0.0625
148
0.000000001
170
     1
172
     1
173
     1
271
     3
272
     3
284
    12
340
57
  0
DIMSTYLE
105
354
102
{ACAD_REACTORS
330
353
102
}
330
A
100
AcDbSymbolTableRecord
100
AcDbDimStyleTableRecord
  2
SLDDIMSTYLE3
 70
     0
 41
0.26
 44
0.0
 45
0.000000001
 78
     4
140
0.25
147
0.0625
148
0.000000001
170
     1
173
     1
271
     2
272
     2
284
    12
340
57
  0
ENDTAB
  0
TABLE
  2
BLOCK_RECORD
  5
1
330
0
100
AcDbSymbolTable
 70
    16
  0
BLOCK_RECORD
  5
1F
330
1
100
AcDbSymbolTableRecord
100
AcDbBlockTableRecord
  2
*Model_Space
340
22
  0
BLOCK_RECORD
  5
1B
330
1
100
AcDbSymbolTableRecord
100
AcDbBlockTableRecord
  2
*Paper_Space
340
1E
  0
BLOCK_RECORD
  5
23
330
1
100
AcDbSymbolTableRecord
100
AcDbBlockTableRecord
  2
*Paper_Space0
340
26
  0
BLOCK_RECORD
  5
54
330
1
100
AcDbSymbolTableRecord
100
AcDbBlockTableRecord
  2
SW_NOTE_0
340
0
102
{BLKREFS
331
7C
102
}
  0
BLOCK_RECORD
  5
80
330
1
100
AcDbSymbolTableRecord
100
AcDbBlockTableRecord
  2
SW_NOTE_1
340
0
102
{BLKREFS
331
85
102
}
  0
BLOCK_RECORD
  5
86
330
1
100
AcDbSymbolTableRecord
100
AcDbBlockTableRecord
  2
SW_NOTE_2
340
0
102
{BLKREFS
331
8B
102
}
  0
BLOCK_RECORD
  5
8C
330
1
100
AcDbSymbolTableRecord
100
AcDbBlockTableRecord
  2
SW_NOTE_3
340
0
102
{BLKREFS
331
91
102
}
  0
BLOCK_RECORD
  5
B8
330
1
100
AcDbSymbolTableRecord
100
AcDbBlockTableRecord
  2
*D5
340
0
  0
BLOCK_RECORD
  5
CA
330
1
100
AcDbSymbolTableRecord
100
AcDbBlockTableRecord
  2
*D6
340
0
  0
BLOCK_RECORD
  5
DB
330
1
100
AcDbSymbolTableRecord
100
AcDbBlockTableRecord
  2
SW_NOTE_4
340
0
102
{BLKREFS
331
E3
102
}
  0
BLOCK_RECORD
  5
131
330
1
100
AcDbSymbolTableRecord
100
AcDbBlockTableRecord
  2
*D8
340
0
  0
BLOCK_RECORD
  5
228
330
1
100
AcDbSymbolTableRecord
100
AcDbBlockTableRecord
  2
*D9
340
0
  0
BLOCK_RECORD
  5
23A
330
1
100
AcDbSymbolTableRecord
100
AcDbBlockTableRecord
  2
*D10
340
0
  0
BLOCK_RECORD
  5
24D
330
1
100
AcDbSymbolTableRecord
100
AcDbBlockTableRecord
  2
*D11
340
0
  0
BLOCK_RECORD
  5
25D
330
1
100
AcDbSymbolTableRecord
100
AcDbBlockTableRecord
  2
*D12
340
0
  0
BLOCK_RECORD
  5
26F
330
1
100
AcDbSymbolTableRecord
100
AcDbBlockTableRecord
  2
*D13
340
0
  0
BLOCK_RECORD
  5
355
330
1
100
AcDbSymbolTableRecord
100
AcDbBlockTableRecord
  2
*D14
340
0
  0
BLOCK_RECORD
  5
364
330
1
100
AcDbSymbolTableRecord
100
AcDbBlockTableRecord
  2
SW_NOTE_5
340
0
102
{BLKREFS
331
369
102
}
  0
ENDTAB
  0
ENDSEC
  0
SECTION
  2
BLOCKS
  0
BLOCK
  5
20
330
1F
100
AcDbEntity
  8
0
100
AcDbBlockBegin
  2
*Model_Space
 70
     0
 10
0.0
 20
0.0
 30
0.0
  3
*Model_Space
  1

  0
ENDBLK
  5
21
330
1F
100
AcDbEntity
  8
0
100
AcDbBlockEnd
  0
BLOCK
  5
1C
330
1B
100
AcDbEntity
 67
     1
  8
0
100
AcDbBlockBegin
  2
*Paper_Space
 70
     0
 10
0.0
 20
0.0
 30
0.0
  3
*Paper_Space
  1

  0
ENDBLK
  5
1D
330
1B
100
AcDbEntity
 67
     1
  8
0
100
AcDbBlockEnd
  0
BLOCK
  5
24
330
23
100
AcDbEntity
  8
0
100
AcDbBlockBegin
  2
*Paper_Space0
 70
     0
 10
0.0
 20
0.0
 30
0.0
  3
*Paper_Space0
  1

  0
ENDBLK
  5
25
330
23
100
AcDbEntity
  8
0
100
AcDbBlockEnd
  0
BLOCK
  5
55
330
54
100
AcDbEntity
  8
0
100
AcDbBlockBegin
  2
SW_NOTE_0
 70
     0
 10
0.0
 20
0.0
 30
0.0
  3
SW_NOTE_0
  1

  0
MTEXT
  5
7A
330
54
100
AcDbEntity
  8
0
  6
Continuous
 62
     0
 48
2.0
370
     0
100
AcDbMText
 10
0.0
 20
0.3222669349
 30
0.0
 40
0.25
 41
0.0
 71
     1
 72
     1
  1
MATERIAL - 16 GA. [1.5mm] STEEL
  7
SLDTEXTSTYLE0
 73
     1
 44
1.0
  0
MTEXT
  5
7B
330
54
100
AcDbEntity
  8
0
  6
Continuous
 62
     0
 48
2.0
370
     0
100
AcDbMText
 10
0.0
 20
-0.3352133631
 30
0.0
 40
0.25
 41
0.0
 71
     1
 72
     1
  1
FINISH - SMOOTH GRAY POWDERCOAT
  7
SLDTEXTSTYLE0
 73
     1
 44
1.0
  0
ENDBLK
  5
56
330
54
100
AcDbEntity
  8
0
100
AcDbBlockEnd
  0
BLOCK
  5
81
330
80
100
AcDbEntity
  8
0
100
AcDbBlockBegin
  2
SW_NOTE_1
 70
     0
 10
0.0
 20
0.0
 30
0.0
  3
SW_NOTE_1
  1

  0
MTEXT
  5
83
330
80
100
AcDbEntity
  8
0
  6
Continuous
 62
     0
 48
2.0
370
     0
100
AcDbMText
 10
0.0
 20
0.3222669349
 30
0.0
 40
0.25
 41
0.0
 71
     1
 72
     1
  1
PART
  7
SLDTEXTSTYLE0
 73
     1
 44
1.0
  0
MTEXT
  5
84
330
80
100
AcDbEntity
  8
0
  6
Continuous
 62
     0
 48
2.0
370
     0
100
AcDbMText
 10
-0.0932074599
 20
-0.0064732141
 30
0.0
 40
0.25
 41
0.0
 71
     1
 72
     1
  1
NAME
  7
SLDTEXTSTYLE0
 73
     1
 44
1.0
  0
ENDBLK
  5
82
330
80
100
AcDbEntity
  8
0
100
AcDbBlockEnd
  0
BLOCK
  5
87
330
86
100
AcDbEntity
  8
0
100
AcDbBlockBegin
  2
SW_NOTE_2
 70
     0
 10
0.0
 20
0.0
 30
0.0
  3
SW_NOTE_2
  1

  0
MTEXT
  5
89
330
86
100
AcDbEntity
  8
0
  6
Continuous
 62
     0
 48
2.0
370
     0
100
AcDbMText
 10
0.0
 20
0.3222669349
 30
0.0
 40
0.25
 41
0.0
 71
     1
 72
     1
  1
PART
  7
SLDTEXTSTYLE0
 73
     1
 44
1.0
  0
MTEXT
  5
8A
330
86
100
AcDbEntity
  8
0
  6
Continuous
 62
     0
 48
2.0
370
     0
100
AcDbMText
 10
0.1167534763
 20
-0.0064732141
 30
0.0
 40
0.25
 41
0.0
 71
     1
 72
     1
  1
No.
  7
SLDTEXTSTYLE0
 73
     1
 44
1.0
  0
ENDBLK
  5
88
330
86
100
AcDbEntity
  8
0
100
AcDbBlockEnd
  0
BLOCK
  5
8D
330
8C
100
AcDbEntity
  8
0
100
AcDbBlockBegin
  2
SW_NOTE_3
 70
     0
 10
0.0
 20
0.0
 30
0.0
  3
SW_NOTE_3
  1

  0
MTEXT
  5
8F
330
8C
100
AcDbEntity
  8
0
  6
Continuous
 62
     0
 48
2.0
370
     0
100
AcDbMText
 10
0.0
 20
0.3222669349
 30
0.0
 40
0.25
 41
0.0
 71
     1
 72
     1
  1
REVISION
  7
SLDTEXTSTYLE0
 73
     1
 44
1.0
  0
MTEXT
  5
90
330
8C
100
AcDbEntity
  8
0
  6
Continuous
 62
     0
 48
2.0
370
     0
100
AcDbMText
 10
0.3124565971
 20
-0.0064732141
 30
0.0
 40
0.25
 41
0.0
 71
     1
 72
     1
  1
DATE
  7
SLDTEXTSTYLE0
 73
     1
 44
1.0
  0
ENDBLK
  5
8E
330
8C
100
AcDbEntity
  8
0
100
AcDbBlockEnd
  0
BLOCK
  5
B9
330
B8
100
AcDbEntity
  8
0
100
AcDbBlockBegin
  2
*D5
 70
     1
 10
0.0
 20
0.0
 30
0.0
  3
*D5
  1

  0
SOLID
  5
BB
330
B8
100
AcDbEntity
  8
0
  6
Continuous
 62
     7
 48
2.0
370
     0
100
AcDbTrace
 10
5.825362635
 20
13.4875583162
 30
0.0
 11
6.085362635
 21
13.4475583162
 31
0.0
 12
6.085362635
 22
13.5275583162
 32
0.0
 13
6.085362635
 23
13.5275583162
 33
0.0
  0
SOLID
  5
BC
330
B8
100
AcDbEntity
  8
0
  6
Continuous
 62
     7
 48
2.0
370
     0
100
AcDbTrace
 10
11.825362635
 20
13.4875583162
 30
0.0
 11
11.565362635
 21
13.5275583162
 31
0.0
 12
11.565362635
 22
13.4475583162
 32
0.0
 13
11.565362635
 23
13.4475583162
 33
0.0
  0
LINE
  5
BD
330
B8
100
AcDbEntity
  8
0
  6
Continuous
 62
     7
 48
2.0
370
     0
100
AcDbLine
 10
8.3083177526
 20
13.4578016141
 30
0.0
 11
8.3083177526
 21
13.1205589909
 31
0.0
  0
LINE
  5
BE
330
B8
100
AcDbEntity
  8
0
  6
Continuous
 62
     7
 48
2.0
370
     0
100
AcDbLine
 10
8.3083177526
 20
13.1205589909
 30
0.0
 11
8.3590625592
 21
13.1205589909
 31
0.0
  0
LINE
  5
BF
330
B8
100
AcDbEntity
  8
0
  6
Continuous
 62
     7
 48
2.0
370
     0
100
AcDbLine
 10
8.3083177526
 20
13.4578016141
 30
0.0
 11
8.3590625592
 21
13.4578016141
 31
0.0
  0
LINE
  5
C0
330
B8
100
AcDbEntity
  8
0
  6
Continuous
 62
     7
 48
2.0
370
     0
100
AcDbLine
 10
9.3424075175
 20
13.4578016141
 30
0.0
 11
9.3424075175
 21
13.1205589909
 31
0.0
  0
LINE
  5
C1
330
B8
100
AcDbEntity
  8
0
  6
Continuous
 62
     7
 48
2.0
370
     0
100
AcDbLine
 10
9.3424075175
 20
13.1205589909
 30
0.0
 11
9.2916627109
 21
13.1205589909
 31
0.0
  0
LINE
  5
C2
330
B8
100
AcDbEntity
  8
0
  6
Continuous
 62
     7
 48
2.0
370
     0
100
AcDbLine
 10
9.3424075175
 20
13.4578016141
 30
0.0
 11
9.2916627109
 21
13.4578016141
 31
0.0
  0
LINE
  5
C3
330
B8
100
AcDbEntity
  8
0
  6
Continuous
 62
     7
 48
2.0
370
     0
100
AcDbLine
 10
5.825362635
 20
12.886474975
 30
0.0
 11
5.825362635
 21
13.7375583162
 31
0.0
  0
LINE
  5
C4
330
B8
100
AcDbEntity
  8
0
  6
Continuous
 62
     7
 48
2.0
370
     0
100
AcDbLine
 10
11.825362635
 20
12.886474975
 30
0.0
 11
11.825362635
 21
13.7375583162
 31
0.0
  0
LINE
  5
C5
330
B8
100
AcDbEntity
  8
0
  6
Continuous
 62
     7
 48
2.0
370
     0
100
AcDbLine
 10
5.825362635
 20
13.4875583162
 30
0.0
 11
8.0311490642
 21
13.4875583162
 31
0.0
  0
LINE
  5
C6
330
B8
100
AcDbEntity
  8
0
  6
Continuous
 62
     7
 48
2.0
370
     0
100
AcDbLine
 10
11.825362635
 20
13.4875583162
 30
0.0
 11
9.6195762059
 21
13.4875583162
 31
0.0
  0
MTEXT
  5
C7
330
B8
100
AcDbEntity
  8
0
  6
Continuous
 62
     7
 48
2.0
370
     0
100
AcDbMText
 10
8.5022260164
 20
13.8098252374
 30
0.0
 40
0.25
 41
0.0
 71
     1
 72
     1
  1
6.00
  7
SLDTEXTSTYLE0
 73
     1
 44
1.0
  0
MTEXT
  5
C8
330
B8
100
AcDbEntity
  8
0
  6
Continuous
 62
     7
 48
2.0
370
     0
100
AcDbMText
 10
8.4098073659
 20
13.4130692101
 30
0.0
 40
0.25
 41
0.0
 71
     1
 72
     1
  1
152.4
  7
SLDTEXTSTYLE0
 73
     1
 44
1.0
  0
ENDBLK
  5
BA
330
B8
100
AcDbEntity
  8
0
100
AcDbBlockEnd
  0
BLOCK
  5
CB
330
CA
100
AcDbEntity
  8
0
100
AcDbBlockBegin
  2
*D6
 70
     1
 10
0.0
 20
0.0
 30
0.0
  3
*D6
  1

  0
SOLID
  5
CD
330
CA
100
AcDbEntity
  8
0
  6
Continuous
 62
     7
 48
2.0
370
     0
100
AcDbTrace
 10
12.6265075883
 20
12.786474975
 30
0.0
 11
12.5865075883
 21
12.526474975
 31
0.0
 12
12.6665075883
 22
12.526474975
 32
0.0
 13
12.6665075883
 23
12.526474975
 33
0.0
  0
SOLID
  5
CE
330
CA
100
AcDbEntity
  8
0
  6
Continuous
 62
     7
 48
2.0
370
     0
100
AcDbTrace
 10
12.6265075883
 20
6.786474975
 30
0.0
 11
12.6665075883
 21
7.046474975
 31
0.0
 12
12.5865075883
 22
7.046474975
 32
0.0
 13
12.5865075883
 23
7.046474975
 33
0.0
  0
LINE
  5
CF
330
CA
100
AcDbEntity
  8
0
  6
Continuous
 62
     7
 48
2.0
370
     0
100
AcDbLine
 10
12.1094627058
 20
9.7567182729
 30
0.0
 11
12.1094627058
 21
9.4194756497
 31
0.0
  0
LINE
  5
D0
330
CA
100
AcDbEntity
  8
0
  6
Continuous
 62
     7
 48
2.0
370
     0
100
AcDbLine
 10
12.1094627058
 20
9.4194756497
 30
0.0
 11
12.1602075124
 21
9.4194756497
 31
0.0
  0
LINE
  5
D1
330
CA
100
AcDbEntity
  8
0
  6
Continuous
 62
     7
 48
2.0
370
     0
100
AcDbLine
 10
12.1094627058
 20
9.7567182729
 30
0.0
 11
12.1602075124
 21
9.7567182729
 31
0.0
  0
LINE
  5
D2
330
CA
100
AcDbEntity
  8
0
  6
Continuous
 62
     7
 48
2.0
370
     0
100
AcDbLine
 10
13.1435524707
 20
9.7567182729
 30
0.0
 11
13.1435524707
 21
9.4194756497
 31
0.0
  0
LINE
  5
D3
330
CA
100
AcDbEntity
  8
0
  6
Continuous
 62
     7
 48
2.0
370
     0
100
AcDbLine
 10
13.1435524707
 20
9.4194756497
 30
0.0
 11
13.0928076641
 21
9.4194756497
 31
0.0
  0
LINE
  5
D4
330
CA
100
AcDbEntity
  8
0
  6
Continuous
 62
     7
 48
2.0
370
     0
100
AcDbLine
 10
13.1435524707
 20
9.7567182729
 30
0.0
 11
13.0928076641
 21
9.7567182729
 31
0.0
  0
LINE
  5
D5
330
CA
100
AcDbEntity
  8
0
  6
Continuous
 62
     7
 48
2.0
370
     0
100
AcDbLine
 10
11.925362635
 20
12.786474975
 30
0.0
 11
12.8765075883
 21
12.786474975
 31
0.0
  0
LINE
  5
D6
330
CA
100
AcDbEntity
  8
0
  6
Continuous
 62
     7
 48
2.0
370
     0
100
AcDbLine
 10
11.925362635
 20
6.786474975
 30
0.0
 11
12.8765075883
 21
6.786474975
 31
0.0
  0
LINE
  5
D7
330
CA
100
AcDbEntity
  8
0
  6
Continuous
 62
     7
 48
2.0
370
     0
100
AcDbLine
 10
12.6265075883
 20
12.786474975
 30
0.0
 11
12.6265075883
 21
10.1832310023
 31
0.0
  0
LINE
  5
D8
330
CA
100
AcDbEntity
  8
0
  6
Continuous
 62
     7
 48
2.0
370
     0
100
AcDbLine
 10
12.6265075883
 20
6.786474975
 30
0.0
 11
12.6265075883
 21
9.3897189477
 31
0.0
  0
MTEXT
  5
D9
330
CA
100
AcDbEntity
  8
0
  6
Continuous
 62
     7
 48
2.0
370
     0
100
AcDbMText
 10
12.3033709696
 20
10.1087418962
 30
0.0
 40
0.25
 41
0.0
 71
     1
 72
     1
  1
6.00
  7
SLDTEXTSTYLE0
 73
     1
 44
1.0
  0
MTEXT
  5
DA
330
CA
100
AcDbEntity
  8
0
  6
Continuous
 62
     7
 48
2.0
370
     0
100
AcDbMText
 10
12.2109523191
 20
9.7119858689
 30
0.0
 40
0.25
 41
0.0
 71
     1
 72
     1
  1
152.4
  7
SLDTEXTSTYLE0
 73
     1
 44
1.0
  0
ENDBLK
  5
CC
330
CA
100
AcDbEntity
  8
0
100
AcDbBlockEnd
  0
BLOCK
  5
DC
330
DB
100
AcDbEntity
  8
0
100
AcDbBlockBegin
  2
SW_NOTE_4
 70
     0
 10
0.0
 20
0.0
 30
0.0
  3
SW_NOTE_4
  1

  0
MTEXT
  5
DE
330
DB
100
AcDbEntity
  8
0
  6
Continuous
 62
     0
 48
2.0
370
     0
100
AcDbMText
 10
0.0396262713
 20
0.1212393144
 30
0.0
 40
0.25
 41
0.0
 71
     1
 72
     1
  1
SCREWS: #10-32 x .31"[8mm] LG.
  7
SLDTEXTSTYLE0
 73
     1
 44
1.0
  0
MTEXT
  5
DF
330
DB
100
AcDbEntity
  8
0
  6
Continuous
 62
     0
 48
2.0
370
     0
100
AcDbMText
 10
0.0396262713
 20
-0.2075008346
 30
0.0
 40
0.25
 41
0.0
 71
     1
 72
     1
  1
MACHINE, PAN HEAD, SLOTTED/SQUARE
  7
SLDTEXTSTYLE0
 73
     1
 44
1.0
  0
MTEXT
  5
E0
330
DB
100
AcDbEntity
  8
0
  6
Continuous
 62
     0
 48
2.0
370
     0
100
AcDbMText
 10
0.0396262713
 20
-0.5362409837
 30
0.0
 40
0.25
 41
0.0
 71
     1
 72
     1
  1
COMBINATION STYLE DRIVE, STEEL, ZINC PLATED.
  7
SLDTEXTSTYLE0
 73
     1
 44
1.0
  0
MTEXT
  5
E1
330
DB
100
AcDbEntity
  8
0
  6
Continuous
 62
     0
 48
2.0
370
     0
100
AcDbMText
 10
0.0396262713
 20
-0.8649811327
 30
0.0
 40
0.25
 41
0.0
 71
     1
 72
     1
  1
(SUPPLIED FOR COVER MOUNTING AND
  7
SLDTEXTSTYLE0
 73
     1
 44
1.0
  0
MTEXT
  5
E2
330
DB
100
AcDbEntity
  8
0
  6
Continuous
 62
     0
 48
2.0
370
     0
100
AcDbMText
 10
0.0396262713
 20
-1.1937212817
 30
0.0
 40
0.25
 41
0.0
 71
     1
 72
     1
  1
FOR GROUND POINT).
  7
SLDTEXTSTYLE0
 73
     1
 44
1.0
  0
ENDBLK
  5
DD
330
DB
100
AcDbEntity
  8
0
100
AcDbBlockEnd
  0
BLOCK
  5
132
330
131
100
AcDbEntity
  8
0
100
AcDbBlockBegin
  2
*D8
 70
     1
 10
0.0
 20
0.0
 30
0.0
  3
*D8
  1

  0
SOLID
  5
134
330
131
100
AcDbEntity
  8
0
  6
Continuous
 62
     7
 48
2.0
370
     0
100
AcDbTrace
 10
12.6265075883
 20
18.2599171684
 30
0.0
 11
12.5865075883
 21
17.9999171684
 31
0.0
 12
12.6665075883
 22
17.9999171684
 32
0.0
 13
12.6665075883
 23
17.9999171684
 33
0.0
  0
SOLID
  5
135
330
131
100
AcDbEntity
  8
0
  6
Continuous
 62
     7
 48
2.0
370
     0
100
AcDbTrace
 10
12.6265075883
 20
15.2599171684
 30
0.0
 11
12.6665075883
 21
15.5199171684
 31
0.0
 12
12.5865075883
 22
15.5199171684
 32
0.0
 13
12.5865075883
 23
15.5199171684
 33
0.0
  0
LINE
  5
136
330
131
100
AcDbEntity
  8
0
  6
Continuous
 62
     7
 48
2.0
370
     0
100
AcDbLine
 10
12.2018813563
 20
16.7301604664
 30
0.0
 11
12.2018813563
 21
16.3929178432
 31
0.0
  0
LINE
  5
137
330
131
100
AcDbEntity
  8
0
  6
Continuous
 62
     7
 48
2.0
370
     0
100
AcDbLine
 10
12.2018813563
 20
16.3929178432
 30
0.0
 11
12.2526261629
 21
16.3929178432
 31
0.0
  0
LINE
  5
138
330
131
100
AcDbEntity
  8
0
  6
Continuous
 62
     7
 48
2.0
370
     0
100
AcDbLine
 10
12.2018813563
 20
16.7301604664
 30
0.0
 11
12.2526261629
 21
16.7301604664
 31
0.0
  0
LINE
  5
139
330
131
100
AcDbEntity
  8
0
  6
Continuous
 62
     7
 48
2.0
370
     0
100
AcDbLine
 10
13.0511338203
 20
16.7301604664
 30
0.0
 11
13.0511338203
 21
16.3929178432
 31
0.0
  0
LINE
  5
13A
330
131
100
AcDbEntity
  8
0
  6
Continuous
 62
     7
 48
2.0
370
     0
100
AcDbLine
 10
13.0511338203
 20
16.3929178432
 30
0.0
 11
13.0003890136
 21
16.3929178432
 31
0.0
  0
LINE
  5
13B
330
131
100
AcDbEntity
  8
0
  6
Continuous
 62
     7
 48
2.0
370
     0
100
AcDbLine
 10
13.0511338203
 20
16.7301604664
 30
0.0
 11
13.0003890136
 21
16.7301604664
 31
0.0
  0
LINE
  5
13C
330
131
100
AcDbEntity
  8
0
  6
Continuous
 62
     7
 48
2.0
370
     0
100
AcDbLine
 10
11.848362635
 20
18.2599171684
 30
0.0
 11
12.8765075883
 21
18.2599171684
 31
0.0
  0
LINE
  5
13D
330
131
100
AcDbEntity
  8
0
  6
Continuous
 62
     7
 48
2.0
370
     0
100
AcDbLine
 10
11.925362635
 20
15.2599171684
 30
0.0
 11
12.8765075883
 21
15.2599171684
 31
0.0
  0
LINE
  5
13E
330
131
100
AcDbEntity
  8
0
  6
Continuous
 62
     7
 48
2.0
370
     0
100
AcDbLine
 10
12.6265075883
 20
18.2599171684
 30
0.0
 11
12.6265075883
 21
17.1566731957
 31
0.0
  0
LINE
  5
13F
330
131
100
AcDbEntity
  8
0
  6
Continuous
 62
     7
 48
2.0
370
     0
100
AcDbLine
 10
12.6265075883
 20
15.2599171684
 30
0.0
 11
12.6265075883
 21
16.3631611411
 31
0.0
  0
MTEXT
  5
140
330
131
100
AcDbEntity
  8
0
  6
Continuous
 62
     7
 48
2.0
370
     0
100
AcDbMText
 10
12.3033709696
 20
17.0821840896
 30
0.0
 40
0.25
 41
0.0
 71
     1
 72
     1
  1
3.00
  7
SLDTEXTSTYLE0
 73
     1
 44
1.0
  0
MTEXT
  5
141
330
131
100
AcDbEntity
  8
0
  6
Continuous
 62
     7
 48
2.0
370
     0
100
AcDbMText
 10
12.3033709696
 20
16.6854280623
 30
0.0
 40
0.25
 41
0.0
 71
     1
 72
     1
  1
76.2
  7
SLDTEXTSTYLE0
 73
     1
 44
1.0
  0
ENDBLK
  5
133
330
131
100
AcDbEntity
  8
0
100
AcDbBlockEnd
  0
BLOCK
  5
229
330
228
100
AcDbEntity
  8
0
100
AcDbBlockBegin
  2
*D9
 70
     1
 10
0.0
 20
0.0
 30
0.0
  3
*D9
  1

  0
SOLID
  5
22B
330
228
100
AcDbEntity
  8
0
  6
Continuous
 62
     7
 48
2.0
370
     0
100
AcDbTrace
 10
25.3770523959
 20
11.286474975
 30
0.0
 11
25.3370523959
 21
11.026474975
 31
0.0
 12
25.4170523959
 22
11.026474975
 32
0.0
 13
25.4170523959
 23
11.026474975
 33
0.0
  0
SOLID
  5
22C
330
228
100
AcDbEntity
  8
0
  6
Continuous
 62
     7
 48
2.0
370
     0
100
AcDbTrace
 10
25.3770523959
 20
8.286474975
 30
0.0
 11
25.4170523959
 21
8.546474975
 31
0.0
 12
25.3370523959
 22
8.546474975
 32
0.0
 13
25.3370523959
 23
8.546474975
 33
0.0
  0
LINE
  5
22D
330
228
100
AcDbEntity
  8
0
  6
Continuous
 62
     7
 48
2.0
370
     0
100
AcDbLine
 10
24.9524261639
 20
9.7567182729
 30
0.0
 11
24.9524261639
 21
9.4194756497
 31
0.0
  0
LINE
  5
22E
330
228
100
AcDbEntity
  8
0
  6
Continuous
 62
     7
 48
2.0
370
     0
100
AcDbLine
 10
24.9524261639
 20
9.4194756497
 30
0.0
 11
25.0031709706
 21
9.4194756497
 31
0.0
  0
LINE
  5
22F
330
228
100
AcDbEntity
  8
0
  6
Continuous
 62
     7
 48
2.0
370
     0
100
AcDbLine
 10
24.9524261639
 20
9.7567182729
 30
0.0
 11
25.0031709706
 21
9.7567182729
 31
0.0
  0
LINE
  5
230
330
228
100
AcDbEntity
  8
0
  6
Continuous
 62
     7
 48
2.0
370
     0
100
AcDbLine
 10
25.8016786279
 20
9.7567182729
 30
0.0
 11
25.8016786279
 21
9.4194756497
 31
0.0
  0
LINE
  5
231
330
228
100
AcDbEntity
  8
0
  6
Continuous
 62
     7
 48
2.0
370
     0
100
AcDbLine
 10
25.8016786279
 20
9.4194756497
 30
0.0
 11
25.7509338212
 21
9.4194756497
 31
0.0
  0
LINE
  5
232
330
228
100
AcDbEntity
  8
0
  6
Continuous
 62
     7
 48
2.0
370
     0
100
AcDbLine
 10
25.8016786279
 20
9.7567182729
 30
0.0
 11
25.7509338212
 21
9.7567182729
 31
0.0
  0
LINE
  5
233
330
228
100
AcDbEntity
  8
0
  6
Continuous
 62
     7
 48
2.0
370
     0
100
AcDbLine
 10
26.4542841768
 20
11.286474975
 30
0.0
 11
25.1270523959
 21
11.286474975
 31
0.0
  0
LINE
  5
234
330
228
100
AcDbEntity
  8
0
  6
Continuous
 62
     7
 48
2.0
370
     0
100
AcDbLine
 10
26.4542841768
 20
8.286474975
 30
0.0
 11
25.1270523959
 21
8.286474975
 31
0.0
  0
LINE
  5
235
330
228
100
AcDbEntity
  8
0
  6
Continuous
 62
     7
 48
2.0
370
     0
100
AcDbLine
 10
25.3770523959
 20
11.286474975
 30
0.0
 11
25.3770523959
 21
10.1832310023
 31
0.0
  0
LINE
  5
236
330
228
100
AcDbEntity
  8
0
  6
Continuous
 62
     7
 48
2.0
370
     0
100
AcDbLine
 10
25.3770523959
 20
8.286474975
 30
0.0
 11
25.3770523959
 21
9.3897189477
 31
0.0
  0
MTEXT
  5
237
330
228
100
AcDbEntity
  8
0
  6
Continuous
 62
     7
 48
2.0
370
     0
100
AcDbMText
 10
25.0539157773
 20
10.1087418962
 30
0.0
 40
0.25
 41
0.0
 71
     1
 72
     1
  1
3.00
  7
SLDTEXTSTYLE0
 73
     1
 44
1.0
  0
MTEXT
  5
238
330
228
100
AcDbEntity
  8
0
  6
Continuous
 62
     7
 48
2.0
370
     0
100
AcDbMText
 10
25.0539157773
 20
9.7119858689
 30
0.0
 40
0.25
 41
0.0
 71
     1
 72
     1
  1
76.2
  7
SLDTEXTSTYLE0
 73
     1
 44
1.0
  0
ENDBLK
  5
22A
330
228
100
AcDbEntity
  8
0
100
AcDbBlockEnd
  0
BLOCK
  5
23B
330
23A
100
AcDbEntity
  8
0
100
AcDbBlockBegin
  2
*D10
 70
     1
 10
0.0
 20
0.0
 30
0.0
  3
*D10
  1

  0
SOLID
  5
23D
330
23A
100
AcDbEntity
  8
0
  6
Continuous
 62
     7
 48
2.0
370
     0
100
AcDbTrace
 10
26.5542841768
 20
5.9990714317
 30
0.0
 11
26.8142841768
 21
5.9590714317
 31
0.0
 12
26.8142841768
 22
6.0390714317
 32
0.0
 13
26.8142841768
 23
6.0390714317
 33
0.0
  0
SOLID
  5
23E
330
23A
100
AcDbEntity
  8
0
  6
Continuous
 62
     7
 48
2.0
370
     0
100
AcDbTrace
 10
31.5542841768
 20
5.9990714317
 30
0.0
 11
31.2942841768
 21
6.0390714317
 31
0.0
 12
31.2942841768
 22
5.9590714317
 32
0.0
 13
31.2942841768
 23
5.9590714317
 33
0.0
  0
LINE
  5
23F
330
23A
100
AcDbEntity
  8
0
  6
Continuous
 62
     7
 48
2.0
370
     0
100
AcDbLine
 10
28.6758015384
 20
5.9693147296
 30
0.0
 11
28.6758015384
 21
5.6320721064
 31
0.0
  0
LINE
  5
240
330
23A
100
AcDbEntity
  8
0
  6
Continuous
 62
     7
 48
2.0
370
     0
100
AcDbLine
 10
28.6758015384
 20
5.6320721064
 30
0.0
 11
28.7265463451
 21
5.6320721064
 31
0.0
  0
LINE
  5
241
330
23A
100
AcDbEntity
  8
0
  6
Continuous
 62
     7
 48
2.0
370
     0
100
AcDbLine
 10
28.6758015384
 20
5.9693147296
 30
0.0
 11
28.7265463451
 21
5.9693147296
 31
0.0
  0
LINE
  5
242
330
23A
100
AcDbEntity
  8
0
  6
Continuous
 62
     7
 48
2.0
370
     0
100
AcDbLine
 10
29.4327668151
 20
5.9693147296
 30
0.0
 11
29.4327668151
 21
5.6320721064
 31
0.0
  0
LINE
  5
243
330
23A
100
AcDbEntity
  8
0
  6
Continuous
 62
     7
 48
2.0
370
     0
100
AcDbLine
 10
29.4327668151
 20
5.6320721064
 30
0.0
 11
29.3820220085
 21
5.6320721064
 31
0.0
  0
LINE
  5
244
330
23A
100
AcDbEntity
  8
0
  6
Continuous
 62
     7
 48
2.0
370
     0
100
AcDbLine
 10
29.4327668151
 20
5.9693147296
 30
0.0
 11
29.3820220085
 21
5.9693147296
 31
0.0
  0
LINE
  5
245
330
23A
100
AcDbEntity
  8
0
  6
Continuous
 62
     7
 48
2.0
370
     0
100
AcDbLine
 10
26.5542841768
 20
8.186474975
 30
0.0
 11
26.5542841768
 21
5.7490714317
 31
0.0
  0
LINE
  5
246
330
23A
100
AcDbEntity
  8
0
  6
Continuous
 62
     7
 48
2.0
370
     0
100
AcDbLine
 10
31.5542841768
 20
8.186474975
 30
0.0
 11
31.5542841768
 21
5.7490714317
 31
0.0
  0
LINE
  5
247
330
23A
100
AcDbEntity
  8
0
  6
Continuous
 62
     7
 48
2.0
370
     0
100
AcDbLine
 10
26.5542841768
 20
5.9990714317
 30
0.0
 11
28.39863285
 21
5.9990714317
 31
0.0
  0
LINE
  5
248
330
23A
100
AcDbEntity
  8
0
  6
Continuous
 62
     7
 48
2.0
370
     0
100
AcDbLine
 10
31.5542841768
 20
5.9990714317
 30
0.0
 11
29.7099355035
 21
5.9990714317
 31
0.0
  0
MTEXT
  5
249
330
23A
100
AcDbEntity
  8
0
  6
Continuous
 62
     7
 48
2.0
370
     0
100
AcDbMText
 10
28.7311475581
 20
6.3213383528
 30
0.0
 40
0.25
 41
0.0
 71
     1
 72
     1
  1
5.00
  7
SLDTEXTSTYLE0
 73
     1
 44
1.0
  0
MTEXT
  5
24A
330
23A
100
AcDbEntity
  8
0
  6
Continuous
 62
     7
 48
2.0
370
     0
100
AcDbMText
 10
28.7772911518
 20
5.9245823256
 30
0.0
 40
0.25
 41
0.0
 71
     1
 72
     1
  1
127
  7
SLDTEXTSTYLE0
 73
     1
 44
1.0
  0
ENDBLK
  5
23C
330
23A
100
AcDbEntity
  8
0
100
AcDbBlockEnd
  0
BLOCK
  5
24E
330
24D
100
AcDbEntity
  8
0
100
AcDbBlockBegin
  2
*D11
 70
     1
 10
0.0
 20
0.0
 30
0.0
  3
*D11
  1

  0
SOLID
  5
250
330
24D
100
AcDbEntity
  8
0
  6
Continuous
 62
     7
 48
2.0
370
     0
100
AcDbTrace
 10
31.5178566264
 20
8.1507794202
 30
0.0
 11
31.4118140266
 21
7.9100410414
 31
0.0
 12
31.4890783994
 22
7.8892993758
 32
0.0
 13
31.4890783994
 23
7.8892993758
 33
0.0
  0
LINE
  5
251
330
24D
100
AcDbEntity
  8
0
  6
Continuous
 62
     7
 48
2.0
370
     0
100
AcDbLine
 10
31.1787022738
 20
5.0092266799
 30
0.0
 11
31.1787022738
 21
4.6719840567
 31
0.0
  0
LINE
  5
252
330
24D
100
AcDbEntity
  8
0
  6
Continuous
 62
     7
 48
2.0
370
     0
100
AcDbLine
 10
31.1787022738
 20
4.6719840567
 30
0.0
 11
31.2294470805
 21
4.6719840567
 31
0.0
  0
LINE
  5
253
330
24D
100
AcDbEntity
  8
0
  6
Continuous
 62
     7
 48
2.0
370
     0
100
AcDbLine
 10
31.1787022738
 20
5.0092266799
 30
0.0
 11
31.2294470805
 21
5.0092266799
 31
0.0
  0
LINE
  5
254
330
24D
100
AcDbEntity
  8
0
  6
Continuous
 62
     7
 48
2.0
370
     0
100
AcDbLine
 10
32.0279547378
 20
5.0092266799
 30
0.0
 11
32.0279547378
 21
4.6719840567
 31
0.0
  0
LINE
  5
255
330
24D
100
AcDbEntity
  8
0
  6
Continuous
 62
     7
 48
2.0
370
     0
100
AcDbLine
 10
32.0279547378
 20
4.6719840567
 30
0.0
 11
31.9772099312
 21
4.6719840567
 31
0.0
  0
LINE
  5
256
330
24D
100
AcDbEntity
  8
0
  6
Continuous
 62
     7
 48
2.0
370
     0
100
AcDbLine
 10
32.0279547378
 20
5.0092266799
 30
0.0
 11
31.9772099312
 21
5.0092266799
 31
0.0
  0
LINE
  5
257
330
24D
100
AcDbEntity
  8
0
  6
Continuous
 62
     7
 48
2.0
370
     0
100
AcDbLine
 10
31.5178566264
 20
8.1507794202
 30
0.0
 11
30.682493176
 21
5.0389833819
 31
0.0
  0
LINE
  5
258
330
24D
100
AcDbEntity
  8
0
  6
Continuous
 62
     7
 48
2.0
370
     0
100
AcDbLine
 10
30.682493176
 20
5.0389833819
 30
0.0
 11
30.932493176
 21
5.0389833819
 31
0.0
  0
MTEXT
  5
259
330
24D
100
AcDbEntity
  8
0
  6
Continuous
 62
     7
 48
2.0
370
     0
100
AcDbMText
 10
31.1016516749
 20
5.3612503077
 30
0.0
 40
0.25
 41
0.0
 71
     1
 72
     1
  1
%%c
  7
SLDTEXTSTYLE0
 73
     1
 44
1.0
  0
MTEXT
  5
25A
330
24D
100
AcDbEntity
  8
0
  6
Continuous
 62
     7
 48
2.0
370
     0
100
AcDbMText
 10
31.4587320995
 20
5.3612503031
 30
0.0
 40
0.25
 41
0.0
 71
     1
 72
     1
  1
.281
  7
SLDTEXTSTYLE0
 73
     1
 44
1.0
  0
MTEXT
  5
25B
330
24D
100
AcDbEntity
  8
0
  6
Continuous
 62
     7
 48
2.0
370
     0
100
AcDbMText
 10
31.2801918872
 20
4.9644942758
 30
0.0
 40
0.25
 41
0.0
 71
     1
 72
     1
  1
7.14
  7
SLDTEXTSTYLE0
 73
     1
 44
1.0
  0
ENDBLK
  5
24F
330
24D
100
AcDbEntity
  8
0
100
AcDbBlockEnd
  0
BLOCK
  5
25E
330
25D
100
AcDbEntity
  8
0
100
AcDbBlockBegin
  2
*D12
 70
     1
 10
0.0
 20
0.0
 30
0.0
  3
*D12
  1

  0
SOLID
  5
260
330
25D
100
AcDbEntity
  8
0
  6
Continuous
 62
     7
 48
2.0
370
     0
100
AcDbTrace
 10
32.7121627761
 20
10.786474975
 30
0.0
 11
32.7521627761
 21
11.046474975
 31
0.0
 12
32.6721627761
 22
11.046474975
 32
0.0
 13
32.6721627761
 23
11.046474975
 33
0.0
  0
SOLID
  5
261
330
25D
100
AcDbEntity
  8
0
  6
Continuous
 62
     7
 48
2.0
370
     0
100
AcDbTrace
 10
32.7121627761
 20
12.786474975
 30
0.0
 11
32.6721627761
 21
12.526474975
 31
0.0
 12
32.7521627761
 22
12.526474975
 32
0.0
 13
32.7521627761
 23
12.526474975
 33
0.0
  0
LINE
  5
262
330
25D
100
AcDbEntity
  8
0
  6
Continuous
 62
     7
 48
2.0
370
     0
100
AcDbLine
 10
32.2875365441
 20
11.7567182729
 30
0.0
 11
32.2875365441
 21
11.4194756497
 31
0.0
  0
LINE
  5
263
330
25D
100
AcDbEntity
  8
0
  6
Continuous
 62
     7
 48
2.0
370
     0
100
AcDbLine
 10
32.2875365441
 20
11.4194756497
 30
0.0
 11
32.3382813508
 21
11.4194756497
 31
0.0
  0
LINE
  5
264
330
25D
100
AcDbEntity
  8
0
  6
Continuous
 62
     7
 48
2.0
370
     0
100
AcDbLine
 10
32.2875365441
 20
11.7567182729
 30
0.0
 11
32.3382813508
 21
11.7567182729
 31
0.0
  0
LINE
  5
265
330
25D
100
AcDbEntity
  8
0
  6
Continuous
 62
     7
 48
2.0
370
     0
100
AcDbLine
 10
33.1367890081
 20
11.7567182729
 30
0.0
 11
33.1367890081
 21
11.4194756497
 31
0.0
  0
LINE
  5
266
330
25D
100
AcDbEntity
  8
0
  6
Continuous
 62
     7
 48
2.0
370
     0
100
AcDbLine
 10
33.1367890081
 20
11.4194756497
 30
0.0
 11
33.0860442014
 21
11.4194756497
 31
0.0
  0
LINE
  5
267
330
25D
100
AcDbEntity
  8
0
  6
Continuous
 62
     7
 48
2.0
370
     0
100
AcDbLine
 10
33.1367890081
 20
11.7567182729
 30
0.0
 11
33.0860442014
 21
11.7567182729
 31
0.0
  0
LINE
  5
268
330
25D
100
AcDbEntity
  8
0
  6
Continuous
 62
     7
 48
2.0
370
     0
100
AcDbLine
 10
30.1542841768
 20
10.786474975
 30
0.0
 11
32.9621627761
 21
10.786474975
 31
0.0
  0
LINE
  5
269
330
25D
100
AcDbEntity
  8
0
  6
Continuous
 62
     7
 48
2.0
370
     0
100
AcDbLine
 10
32.1542841768
 20
12.786474975
 30
0.0
 11
32.9621627761
 21
12.786474975
 31
0.0
  0
LINE
  5
26A
330
25D
100
AcDbEntity
  8
0
  6
Continuous
 62
     7
 48
2.0
370
     0
100
AcDbLine
 10
32.7121627761
 20
10.786474975
 30
0.0
 11
32.7121627761
 21
11.3897189477
 31
0.0
  0
LINE
  5
26B
330
25D
100
AcDbEntity
  8
0
  6
Continuous
 62
     7
 48
2.0
370
     0
100
AcDbLine
 10
32.7121627761
 20
12.786474975
 30
0.0
 11
32.7121627761
 21
12.1832310023
 31
0.0
  0
MTEXT
  5
26C
330
25D
100
AcDbEntity
  8
0
  6
Continuous
 62
     7
 48
2.0
370
     0
100
AcDbMText
 10
32.3890261574
 20
12.1087418962
 30
0.0
 40
0.25
 41
0.0
 71
     1
 72
     1
  1
2.00
  7
SLDTEXTSTYLE0
 73
     1
 44
1.0
  0
MTEXT
  5
26D
330
25D
100
AcDbEntity
  8
0
  6
Continuous
 62
     7
 48
2.0
370
     0
100
AcDbMText
 10
32.3890261574
 20
11.7119858689
 30
0.0
 40
0.25
 41
0.0
 71
     1
 72
     1
  1
50.8
  7
SLDTEXTSTYLE0
 73
     1
 44
1.0
  0
ENDBLK
  5
25F
330
25D
100
AcDbEntity
  8
0
100
AcDbBlockEnd
  0
BLOCK
  5
270
330
26F
100
AcDbEntity
  8
0
100
AcDbBlockBegin
  2
*D13
 70
     1
 10
0.0
 20
0.0
 30
0.0
  3
*D13
  1

  0
SOLID
  5
272
330
26F
100
AcDbEntity
  8
0
  6
Continuous
 62
     7
 48
2.0
370
     0
100
AcDbTrace
 10
30.0542841768
 20
13.4463069188
 30
0.0
 11
30.3142841768
 21
13.4063069188
 31
0.0
 12
30.3142841768
 22
13.4863069188
 32
0.0
 13
30.3142841768
 23
13.4863069188
 33
0.0
  0
SOLID
  5
273
330
26F
100
AcDbEntity
  8
0
  6
Continuous
 62
     7
 48
2.0
370
     0
100
AcDbTrace
 10
32.0542841768
 20
13.4463069188
 30
0.0
 11
31.7942841768
 21
13.4863069188
 31
0.0
 12
31.7942841768
 22
13.4063069188
 32
0.0
 13
31.7942841768
 23
13.4063069188
 33
0.0
  0
LINE
  5
274
330
26F
100
AcDbEntity
  8
0
  6
Continuous
 62
     7
 48
2.0
370
     0
100
AcDbLine
 10
30.6296579448
 20
13.4165502167
 30
0.0
 11
30.6296579448
 21
13.0793075935
 31
0.0
  0
LINE
  5
275
330
26F
100
AcDbEntity
  8
0
  6
Continuous
 62
     7
 48
2.0
370
     0
100
AcDbLine
 10
30.6296579448
 20
13.0793075935
 30
0.0
 11
30.6804027515
 21
13.0793075935
 31
0.0
  0
LINE
  5
276
330
26F
100
AcDbEntity
  8
0
  6
Continuous
 62
     7
 48
2.0
370
     0
100
AcDbLine
 10
30.6296579448
 20
13.4165502167
 30
0.0
 11
30.6804027515
 21
13.4165502167
 31
0.0
  0
LINE
  5
277
330
26F
100
AcDbEntity
  8
0
  6
Continuous
 62
     7
 48
2.0
370
     0
100
AcDbLine
 10
31.4789104088
 20
13.4165502167
 30
0.0
 11
31.4789104088
 21
13.0793075935
 31
0.0
  0
LINE
  5
278
330
26F
100
AcDbEntity
  8
0
  6
Continuous
 62
     7
 48
2.0
370
     0
100
AcDbLine
 10
31.4789104088
 20
13.0793075935
 30
0.0
 11
31.4281656021
 21
13.0793075935
 31
0.0
  0
LINE
  5
279
330
26F
100
AcDbEntity
  8
0
  6
Continuous
 62
     7
 48
2.0
370
     0
100
AcDbLine
 10
31.4789104088
 20
13.4165502167
 30
0.0
 11
31.4281656021
 21
13.4165502167
 31
0.0
  0
LINE
  5
27A
330
26F
100
AcDbEntity
  8
0
  6
Continuous
 62
     7
 48
2.0
370
     0
100
AcDbLine
 10
30.0542841768
 20
10.886474975
 30
0.0
 11
30.0542841768
 21
13.6963069188
 31
0.0
  0
LINE
  5
27B
330
26F
100
AcDbEntity
  8
0
  6
Continuous
 62
     7
 48
2.0
370
     0
100
AcDbLine
 10
32.0542841768
 20
12.886474975
 30
0.0
 11
32.0542841768
 21
13.6963069188
 31
0.0
  0
LINE
  5
27C
330
26F
100
AcDbEntity
  8
0
  6
Continuous
 62
     7
 48
2.0
370
     0
100
AcDbLine
 10
30.0542841768
 20
13.4463069188
 30
0.0
 11
30.3524892564
 21
13.4463069188
 31
0.0
  0
LINE
  5
27D
330
26F
100
AcDbEntity
  8
0
  6
Continuous
 62
     7
 48
2.0
370
     0
100
AcDbLine
 10
32.0542841768
 20
13.4463069188
 30
0.0
 11
31.7560790972
 21
13.4463069188
 31
0.0
  0
MTEXT
  5
27E
330
26F
100
AcDbEntity
  8
0
  6
Continuous
 62
     7
 48
2.0
370
     0
100
AcDbMText
 10
30.7311475581
 20
13.76857384
 30
0.0
 40
0.25
 41
0.0
 71
     1
 72
     1
  1
2.00
  7
SLDTEXTSTYLE0
 73
     1
 44
1.0
  0
MTEXT
  5
27F
330
26F
100
AcDbEntity
  8
0
  6
Continuous
 62
     7
 48
2.0
370
     0
100
AcDbMText
 10
30.7311475581
 20
13.3718178127
 30
0.0
 40
0.25
 41
0.0
 71
     1
 72
     1
  1
50.8
  7
SLDTEXTSTYLE0
 73
     1
 44
1.0
  0
ENDBLK
  5
271
330
26F
100
AcDbEntity
  8
0
100
AcDbBlockEnd
  0
BLOCK
  5
356
330
355
100
AcDbEntity
  8
0
100
AcDbBlockBegin
  2
*D14
 70
     1
 10
0.0
 20
0.0
 30
0.0
  3
*D14
  1

  0
SOLID
  5
358
330
355
100
AcDbEntity
  8
0
  6
Continuous
 62
     7
 48
2.0
370
     0
100
AcDbTrace
 10
18.9866761144
 20
11.7639782162
 30
0.0
 11
18.7266761144
 21
11.8039782162
 31
0.0
 12
18.7266761144
 22
11.7239782162
 32
0.0
 13
18.7266761144
 23
11.7239782162
 33
0.0
  0
SOLID
  5
359
330
355
100
AcDbEntity
  8
0
  6
Continuous
 62
     7
 48
2.0
370
     0
100
AcDbTrace
 10
19.4866761144
 20
11.7639782162
 30
0.0
 11
19.7466761144
 21
11.7239782162
 31
0.0
 12
19.7466761144
 22
11.8039782162
 32
0.0
 13
19.7466761144
 23
11.8039782162
 33
0.0
  0
LINE
  5
35A
330
355
100
AcDbEntity
  8
0
  6
Continuous
 62
     7
 48
2.0
370
     0
100
AcDbLine
 10
20.3356357805
 20
11.7342215141
 30
0.0
 11
20.3356357805
 21
11.3969788909
 31
0.0
  0
LINE
  5
35B
330
355
100
AcDbEntity
  8
0
  6
Continuous
 62
     7
 48
2.0
370
     0
100
AcDbLine
 10
20.3356357805
 20
11.3969788909
 30
0.0
 11
20.3863805872
 21
11.3969788909
 31
0.0
  0
LINE
  5
35C
330
355
100
AcDbEntity
  8
0
  6
Continuous
 62
     7
 48
2.0
370
     0
100
AcDbLine
 10
20.3356357805
 20
11.7342215141
 30
0.0
 11
20.3863805872
 21
11.7342215141
 31
0.0
  0
LINE
  5
35D
330
355
100
AcDbEntity
  8
0
  6
Continuous
 62
     7
 48
2.0
370
     0
100
AcDbLine
 10
21.1848882445
 20
11.7342215141
 30
0.0
 11
21.1848882445
 21
11.3969788909
 31
0.0
  0
LINE
  5
35E
330
355
100
AcDbEntity
  8
0
  6
Continuous
 62
     7
 48
2.0
370
     0
100
AcDbLine
 10
21.1848882445
 20
11.3969788909
 30
0.0
 11
21.1341434378
 21
11.3969788909
 31
0.0
  0
LINE
  5
35F
330
355
100
AcDbEntity
  8
0
  6
Continuous
 62
     7
 48
2.0
370
     0
100
AcDbLine
 10
21.1848882445
 20
11.7342215141
 30
0.0
 11
21.1341434378
 21
11.7342215141
 31
0.0
  0
LINE
  5
360
330
355
100
AcDbEntity
  8
0
  6
Continuous
 62
     7
 48
2.0
370
     0
100
AcDbLine
 10
18.9866761144
 20
11.7639782162
 30
0.0
 11
18.4866761144
 21
11.7639782162
 31
0.0
  0
LINE
  5
361
330
355
100
AcDbEntity
  8
0
  6
Continuous
 62
     7
 48
2.0
370
     0
100
AcDbLine
 10
19.4866761144
 20
11.7639782162
 30
0.0
 11
20.0584670921
 21
11.7639782162
 31
0.0
  0
MTEXT
  5
362
330
355
100
AcDbEntity
  8
0
  6
Continuous
 62
     7
 48
2.0
370
     0
100
AcDbMText
 10
20.5294125811
 20
12.0862451374
 30
0.0
 40
0.25
 41
0.0
 71
     1
 72
     1
  1
.50
  7
SLDTEXTSTYLE0
 73
     1
 44
1.0
  0
MTEXT
  5
363
330
355
100
AcDbEntity
  8
0
  6
Continuous
 62
     7
 48
2.0
370
     0
100
AcDbMText
 10
20.4371253938
 20
11.6894891101
 30
0.0
 40
0.25
 41
0.0
 71
     1
 72
     1
  1
12.7
  7
SLDTEXTSTYLE0
 73
     1
 44
1.0
  0
ENDBLK
  5
357
330
355
100
AcDbEntity
  8
0
100
AcDbBlockEnd
  0
BLOCK
  5
365
330
364
100
AcDbEntity
  8
0
100
AcDbBlockBegin
  2
SW_NOTE_5
 70
     0
 10
0.0
 20
0.0
 30
0.0
  3
SW_NOTE_5
  1

  0
MTEXT
  5
367
330
364
100
AcDbEntity
  8
0
  6
Continuous
 62
     0
 48
2.0
370
     0
100
AcDbMText
 10
0.039472388
 20
0.1211561058
 30
0.0
 40
0.25
 41
0.0
 71
     1
 72
     1
  1
GROUNDING
  7
SLDTEXTSTYLE0
 73
     1
 44
1.0
  0
MTEXT
  5
368
330
364
100
AcDbEntity
  8
0
  6
Continuous
 62
     0
 48
2.0
370
     0
100
AcDbMText
 10
0.039472388
 20
-0.2075840433
 30
0.0
 40
0.25
 41
0.0
 71
     1
 72
     1
  1
EMBOSS
  7
SLDTEXTSTYLE0
 73
     1
 44
1.0
  0
ENDBLK
  5
366
330
364
100
AcDbEntity
  8
0
100
AcDbBlockEnd
  0
ENDSEC
  0
SECTION
  2
ENTITIES
  0
LINE
  5
44
330
1F
100
AcDbEntity
  8
0
  6
Continuous
 62
     7
 48
2.0
370
     0
100
AcDbLine
 10
0.6265032092
 20
21.4101463415
 30
0.0
 11
33.3785032092
 21
21.4101463415
 31
0.0
  0
LINE
  5
45
330
1F
100
AcDbEntity
  8
0
  6
Continuous
 62
     7
 48
2.0
370
     0
100
AcDbLine
 10
33.3785032092
 20
0.6581463415
 30
0.0
 11
33.3785032092
 21
21.4101463415
 31
0.0
  0
LINE
  5
46
330
1F
100
AcDbEntity
  8
0
  6
Continuous
 62
     7
 48
2.0
370
     0
100
AcDbLine
 10
33.3785032092
 20
0.6581463415
 30
0.0
 11
0.6265032092
 21
0.6581463415
 31
0.0
  0
LINE
  5
47
330
1F
100
AcDbEntity
  8
0
  6
Continuous
 62
     7
 48
2.0
370
     0
100
AcDbLine
 10
0.6265032092
 20
21.4101463415
 30
0.0
 11
0.6265032092
 21
0.6581463415
 31
0.0
  0
LINE
  5
48
330
1F
100
AcDbEntity
  8
0
  6
Continuous
 62
     7
 48
2.0
370
     0
100
AcDbLine
 10
0.5025032092
 20
21.5341463415
 30
0.0
 11
33.5025032092
 21
21.5341463415
 31
0.0
  0
LINE
  5
49
330
1F
100
AcDbEntity
  8
0
  6
Continuous
 62
     7
 48
2.0
370
     0
100
AcDbLine
 10
33.5025032092
 20
0.5341463415
 30
0.0
 11
0.5025032092
 21
0.5341463415
 31
0.0
  0
LINE
  5
4A
330
1F
100
AcDbEntity
  8
0
  6
Continuous
 62
     7
 48
2.0
370
     0
100
AcDbLine
 10
0.5025032092
 20
21.5341463415
 30
0.0
 11
0.5025032092
 21
0.5341463415
 31
0.0
  0
LINE
  5
4B
330
1F
100
AcDbEntity
  8
0
  6
Continuous
 62
     7
 48
2.0
370
     0
100
AcDbLine
 10
33.5025032092
 20
0.5341463415
 30
0.0
 11
33.5025032092
 21
21.5341463415
 31
0.0
  0
LINE
  5
4C
330
1F
100
AcDbEntity
  8
0
  6
Continuous
 62
     7
 48
2.0
370
     0
100
AcDbLine
 10
0.6265032092
 20
20.5981463415
 30
0.0
 11
33.3785032092
 21
20.5981463415
 31
0.0
  0
LINE
  5
4D
330
1F
100
AcDbEntity
  8
0
  6
Continuous
 62
     7
 48
2.0
370
     0
100
AcDbLine
 10
2.1265032092
 20
21.4101463415
 30
0.0
 11
2.1265032092
 21
20.5981463415
 31
0.0
  0
LINE
  5
4E
330
1F
100
AcDbEntity
  8
0
  6
Continuous
 62
     7
 48
2.0
370
     0
100
AcDbLine
 10
14.8785032092
 20
20.5981463415
 30
0.0
 11
14.8785032092
 21
21.4101463415
 31
0.0
  0
LINE
  5
4F
330
1F
100
AcDbEntity
  8
0
  6
Continuous
 62
     7
 48
2.0
370
     0
100
AcDbLine
 10
15.0025032092
 20
20.5981463415
 30
0.0
 11
15.0025032092
 21
21.4101463415
 31
0.0
  0
LINE
  5
50
330
1F
100
AcDbEntity
  8
0
  6
Continuous
 62
     7
 48
2.0
370
     0
100
AcDbLine
 10
30.8785032092
 20
20.5981463415
 30
0.0
 11
30.8785032092
 21
21.4101463415
 31
0.0
  0
LINE
  5
51
330
1F
100
AcDbEntity
  8
0
  6
Continuous
 62
     7
 48
2.0
370
     0
100
AcDbLine
 10
16.5025032092
 20
20.5981463415
 30
0.0
 11
16.5025032092
 21
21.4101463415
 31
0.0
  0
LINE
  5
52
330
1F
100
AcDbEntity
  8
0
  6
Continuous
 62
     7
 48
2.0
370
     0
100
AcDbLine
 10
29.3785032092
 20
20.5981463415
 30
0.0
 11
29.3785032092
 21
21.4101463415
 31
0.0
  0
LINE
  5
53
330
1F
100
AcDbEntity
  8
0
  6
Continuous
 62
     7
 48
2.0
370
     0
100
AcDbLine
 10
29.2545032092
 20
20.5981463415
 30
0.0
 11
29.2545032092
 21
21.4101463415
 31
0.0
  0
INSERT
  5
7C
330
1F
100
AcDbEntity
  8
0
  6
Continuous
 62
     7
 48
2.0
370
     0
100
AcDbBlockReference
  2
SW_NOTE_0
 10
17.4700392382
 20
18.1481576596
 30
0.0
  0
MTEXT
  5
7D
330
1F
100
AcDbEntity
  8
0
  6
Continuous
 62
     7
 48
2.0
370
     0
100
AcDbMText
 10
31.3179688312
 20
21.2186326882
 30
0.0
 40
0.375
 41
0.0
 71
     1
 72
     1
  1
7-18-11
  7
SLDTEXTSTYLE0
 73
     1
 44
1.0
  0
MTEXT
  5
7E
330
1F
100
AcDbEntity
  8
0
  6
Continuous
 62
     7
 48
2.0
370
     0
100
AcDbMText
 10
5.9663631344
 20
21.221212839
 30
0.0
 40
0.375
 41
0.0
 71
     1
 72
     1
  1
JUNCTION BOX
  7
SLDTEXTSTYLE0
 73
     1
 44
1.0
  0
MTEXT
  5
7F
330
1F
100
AcDbEntity
  8
0
  6
Continuous
 62
     7
 48
2.0
370
     0
100
AcDbMText
 10
22.0187498285
 20
21.2229734649
 30
0.0
 40
0.375
 41
0.0
 71
     1
 72
     1
  1
JB-3954
  7
SLDTEXTSTYLE0
 73
     1
 44
1.0
  0
INSERT
  5
85
330
1F
100
AcDbEntity
  8
0
  6
Continuous
 62
     7
 48
2.0
370
     0
100
AcDbBlockReference
  2
SW_NOTE_1
 10
0.9752783738
 20
21.009520053
 30
0.0
  0
INSERT
  5
8B
330
1F
100
AcDbEntity
  8
0
  6
Continuous
 62
     7
 48
2.0
370
     0
100
AcDbBlockReference
  2
SW_NOTE_2
 10
15.3702297796
 20
21.0003964794
 30
0.0
  0
INSERT
  5
91
330
1F
100
AcDbEntity
  8
0
  6
Continuous
 62
     7
 48
2.0
370
     0
100
AcDbBlockReference
  2
SW_NOTE_3
 10
29.4172772548
 20
21.0067670545
 30
0.0
  0
ARC
  5
92
330
1F
100
AcDbEntity
  8
0
  6
Continuous
 62
     7
 48
4.0
370
    15
100
AcDbCircle
 10
11.575362635
 20
9.514474975
 30
0.0
 40
0.2030000000000013
100
AcDbArc
 50
133.268709849
 51
46.731290151
  0
LINE
  5
93
330
1F
100
AcDbEntity
  8
0
  6
Continuous
 62
     7
 48
2.0
370
    15
100
AcDbLine
 10
5.825362635
 20
12.786474975
 30
0.0
 11
5.825362635
 21
6.786474975
 31
0.0
  0
ARC
  5
94
330
1F
100
AcDbEntity
  8
0
  6
Continuous
 62
     7
 48
4.0
370
    15
100
AcDbCircle
 10
6.075362635
 20
9.514474975
 30
0.0
 40
0.2030000000000022
100
AcDbArc
 50
133.2687098489
 51
46.7312901511
  0
LINE
  5
95
330
1F
100
AcDbEntity
  8
0
  6
Continuous
 62
     7
 48
2.0
370
    15
100
AcDbLine
 10
5.825362635
 20
6.786474975
 30
0.0
 11
11.825362635
 21
6.786474975
 31
0.0
  0
LINE
  5
96
330
1F
100
AcDbEntity
  8
0
  6
Continuous
 62
     7
 48
2.0
370
    15
100
AcDbLine
 10
11.825362635
 20
6.786474975
 30
0.0
 11
11.825362635
 21
12.786474975
 31
0.0
  0
LINE
  5
97
330
1F
100
AcDbEntity
  8
0
  6
Continuous
 62
     7
 48
2.0
370
    15
100
AcDbLine
 10
11.825362635
 20
12.786474975
 30
0.0
 11
5.825362635
 21
12.786474975
 31
0.0
  0
LINE
  5
98
330
1F
100
AcDbEntity
  8
0
  6
Continuous
 62
     7
 48
2.0
370
    15
100
AcDbLine
 10
11.5561387093
 20
9.8271694349
 30
0.0
 11
11.4768948578
 21
9.9052308524
 31
0.0
  0
ARC
  5
99
330
1F
100
AcDbEntity
  8
0
  6
Continuous
 62
     7
 48
4.0
370
    15
100
AcDbCircle
 10
11.575362635
 20
9.786474975
 30
0.0
 40
0.1542687964746305
100
AcDbArc
 50
129.6642084609
 51
141.197138477
  0
LINE
  5
9A
330
1F
100
AcDbEntity
  8
0
  6
Continuous
 62
     7
 48
2.0
370
    15
100
AcDbLine
 10
11.4551399331
 20
9.8831463952
 30
0.0
 11
11.5343837846
 21
9.8050849778
 31
0.0
  0
LINE
  5
9B
330
1F
100
AcDbEntity
  8
0
  6
Continuous
 62
     7
 48
2.0
370
    15
100
AcDbLine
 10
11.5343837846
 20
9.8050849778
 30
0.0
 11
11.5348329413
 21
9.7453313583
 31
0.0
  0
LINE
  5
9C
330
1F
100
AcDbEntity
  8
0
  6
Continuous
 62
     7
 48
2.0
370
    15
100
AcDbLine
 10
11.5348329413
 20
9.7453313583
 30
0.0
 11
11.5945865607
 21
9.745780515
 31
0.0
  0
LINE
  5
9D
330
1F
100
AcDbEntity
  8
0
  6
Continuous
 62
     7
 48
2.0
370
    15
100
AcDbLine
 10
11.5945865607
 20
9.745780515
 30
0.0
 11
11.6738304122
 21
9.6677190976
 31
0.0
  0
ARC
  5
9E
330
1F
100
AcDbEntity
  8
0
  6
Continuous
 62
     7
 48
4.0
370
    15
100
AcDbCircle
 10
11.575362635
 20
9.786474975
 30
0.0
 40
0.1542687964746277
100
AcDbArc
 50
309.6642084609
 51
321.197138477
  0
LINE
  5
9F
330
1F
100
AcDbEntity
  8
0
  6
Continuous
 62
     7
 48
2.0
370
    15
100
AcDbLine
 10
11.695585337
 20
9.6898035547
 30
0.0
 11
11.6163414855
 21
9.7678649721
 31
0.0
  0
LINE
  5
A0
330
1F
100
AcDbEntity
  8
0
  6
Continuous
 62
     7
 48
2.0
370
    15
100
AcDbLine
 10
11.6163414855
 20
9.7678649721
 30
0.0
 11
11.6158923288
 21
9.8276185916
 31
0.0
  0
LINE
  5
A1
330
1F
100
AcDbEntity
  8
0
  6
Continuous
 62
     7
 48
2.0
370
    15
100
AcDbLine
 10
11.6158923288
 20
9.8276185916
 30
0.0
 11
11.5561387093
 21
9.8271694349
 31
0.0
  0
LINE
  5
A2
330
1F
100
AcDbEntity
  8
0
  6
Continuous
 62
     7
 48
2.0
370
    15
100
AcDbLine
 10
11.5945865607
 20
9.745780515
 30
0.0
 11
11.6165062517
 21
9.7459452812
 31
0.0
  0
LINE
  5
A3
330
1F
100
AcDbEntity
  8
0
  6
Continuous
 62
     7
 48
2.0
370
    15
100
AcDbLine
 10
11.6165062517
 20
9.7459452812
 30
0.0
 11
11.6163414855
 21
9.7678649721
 31
0.0
  0
LINE
  5
A4
330
1F
100
AcDbEntity
  8
0
  6
Continuous
 62
     7
 48
2.0
370
    15
100
AcDbLine
 10
11.5561387093
 20
9.8271694349
 30
0.0
 11
11.5342190184
 21
9.8270046687
 31
0.0
  0
LINE
  5
A5
330
1F
100
AcDbEntity
  8
0
  6
Continuous
 62
     7
 48
2.0
370
    15
100
AcDbLine
 10
11.5342190184
 20
9.8270046687
 30
0.0
 11
11.5343837846
 21
9.8050849778
 31
0.0
  0
CIRCLE
  5
A6
330
1F
100
AcDbEntity
  8
0
  6
Continuous
 62
     7
 48
4.0
370
    15
100
AcDbCircle
 10
11.575362635
 20
9.786474975
 30
0.0
 40
0.1865000000000004
  0
LINE
  5
A7
330
1F
100
AcDbEntity
  8
0
  6
Continuous
 62
     7
 48
2.0
370
    15
100
AcDbLine
 10
6.0343837846
 20
9.7678649721
 30
0.0
 11
5.9551399331
 21
9.6898035547
 31
0.0
  0
ARC
  5
A8
330
1F
100
AcDbEntity
  8
0
  6
Continuous
 62
     7
 48
4.0
370
    15
100
AcDbCircle
 10
6.075362635
 20
9.786474975
 30
0.0
 40
0.1542687964746285
100
AcDbArc
 50
218.802861523
 51
230.3357915391
  0
LINE
  5
A9
330
1F
100
AcDbEntity
  8
0
  6
Continuous
 62
     7
 48
2.0
370
    15
100
AcDbLine
 10
5.9768948578
 20
9.6677190976
 30
0.0
 11
6.0561387093
 21
9.745780515
 31
0.0
  0
LINE
  5
AA
330
1F
100
AcDbEntity
  8
0
  6
Continuous
 62
     7
 48
2.0
370
    15
100
AcDbLine
 10
6.1158923288
 20
9.7453313583
 30
0.0
 11
6.1163414855
 21
9.8050849778
 31
0.0
  0
LINE
  5
AB
330
1F
100
AcDbEntity
  8
0
  6
Continuous
 62
     7
 48
2.0
370
    15
100
AcDbLine
 10
6.1163414855
 20
9.8050849778
 30
0.0
 11
6.195585337
 21
9.8831463952
 31
0.0
  0
ARC
  5
AC
330
1F
100
AcDbEntity
  8
0
  6
Continuous
 62
     7
 48
4.0
370
    15
100
AcDbCircle
 10
6.075362635
 20
9.786474975
 30
0.0
 40
0.1542687964746298
100
AcDbArc
 50
38.802861523
 51
50.3357915391
  0
LINE
  5
AD
330
1F
100
AcDbEntity
  8
0
  6
Continuous
 62
     7
 48
2.0
370
    15
100
AcDbLine
 10
6.1738304122
 20
9.9052308524
 30
0.0
 11
6.0945865607
 21
9.8271694349
 31
0.0
  0
LINE
  5
AE
330
1F
100
AcDbEntity
  8
0
  6
Continuous
 62
     7
 48
2.0
370
    15
100
AcDbLine
 10
6.0945865607
 20
9.8271694349
 30
0.0
 11
6.0348329413
 21
9.8276185916
 31
0.0
  0
LINE
  5
AF
330
1F
100
AcDbEntity
  8
0
  6
Continuous
 62
     7
 48
2.0
370
    15
100
AcDbLine
 10
6.0348329413
 20
9.8276185916
 30
0.0
 11
6.0343837846
 21
9.7678649721
 31
0.0
  0
LINE
  5
B0
330
1F
100
AcDbEntity
  8
0
  6
Continuous
 62
     7
 48
2.0
370
    15
100
AcDbLine
 10
6.0561387093
 20
9.745780515
 30
0.0
 11
6.1158923288
 21
9.7453313583
 31
0.0
  0
LINE
  5
B1
330
1F
100
AcDbEntity
  8
0
  6
Continuous
 62
     7
 48
2.0
370
    15
100
AcDbLine
 10
6.1165062517
 20
9.8270046687
 30
0.0
 11
6.0945865607
 21
9.8271694349
 31
0.0
  0
LINE
  5
B2
330
1F
100
AcDbEntity
  8
0
  6
Continuous
 62
     7
 48
2.0
370
    15
100
AcDbLine
 10
6.1163414855
 20
9.8050849778
 30
0.0
 11
6.1165062517
 21
9.8270046687
 31
0.0
  0
LINE
  5
B3
330
1F
100
AcDbEntity
  8
0
  6
Continuous
 62
     7
 48
2.0
370
    15
100
AcDbLine
 10
6.0343837846
 20
9.7678649721
 30
0.0
 11
6.0342190184
 21
9.7459452812
 31
0.0
  0
LINE
  5
B4
330
1F
100
AcDbEntity
  8
0
  6
Continuous
 62
     7
 48
2.0
370
    15
100
AcDbLine
 10
6.0342190184
 20
9.7459452812
 30
0.0
 11
6.0561387093
 21
9.745780515
 31
0.0
  0
CIRCLE
  5
B5
330
1F
100
AcDbEntity
  8
0
  6
Continuous
 62
     7
 48
4.0
370
    15
100
AcDbCircle
 10
6.075362635
 20
9.786474975
 30
0.0
 40
0.1864999999999998
  0
DIMENSION
  5
B6
330
1F
100
AcDbEntity
  8
0
  6
Continuous
 62
     7
 48
2.0
370
     0
100
AcDbDimension
  2
*D5
 10
11.825362635
 20
13.4875583162
 30
0.0
 11
8.825362635
 21
13.4875583162
 31
0.0
 70
   160
 71
     2
 42
-1.0
  3
SLDDIMSTYLE0
100
AcDbAlignedDimension
 13
5.825362635
 23
12.786474975
 33
0.0
 14
11.825362635
 24
12.786474975
 34
0.0
100
AcDbRotatedDimension
  0
DIMENSION
  5
C9
330
1F
100
AcDbEntity
  8
0
  6
Continuous
 62
     7
 48
2.0
370
     0
100
AcDbDimension
  2
*D6
 10
12.6265075883
 20
6.786474975
 30
0.0
 11
12.6265075883
 21
9.786474975
 31
0.0
 70
   160
 71
     2
 42
-1.0
  3
SLDDIMSTYLE0
100
AcDbAlignedDimension
 13
11.825362635
 23
12.786474975
 33
0.0
 14
11.825362635
 24
6.786474975
 34
0.0
 50
90.0
100
AcDbRotatedDimension
  0
INSERT
  5
E3
102
{ACAD_REACTORS
330
E5
102
}
330
1F
100
AcDbEntity
  8
0
  6
Continuous
 62
     7
 48
2.0
370
     0
100
AcDbBlockReference
  2
SW_NOTE_4
 10
12.9828155164
 20
5.4289363154
 30
0.0
  0
LEADER
  5
E5
330
1F
100
AcDbEntity
  8
0
  6
Continuous
 62
     7
 48
2.0
370
     0
100
AcDbLeader
  3
SLDDIMSTYLE1
 73
     2
 76
     3
 10
11.6303328252
 20
9.6082601378
 30
0.0
 10
12.4828155164
 20
5.4289363154
 30
0.0
 10
12.9828155164
 20
5.4289363154
 30
0.0
340
E3
  0
LINE
  5
E6
330
1F
100
AcDbEntity
  8
0
  6
Continuous
 62
     7
 48
2.0
370
    15
100
AcDbLine
 10
11.761862635
 20
15.1645858565
 30
0.0
 11
11.761862635
 21
15.1979171684
 31
0.0
  0
LINE
  5
E7
330
1F
100
AcDbEntity
  8
0
  6
Continuous
 62
     7
 48
2.0
370
    15
100
AcDbLine
 10
11.388862635
 20
15.1979171684
 30
0.0
 11
11.388862635
 21
15.1645858565
 31
0.0
  0
ARC
  5
E8
330
1F
100
AcDbEntity
  8
0
  6
Continuous
 62
     7
 48
4.0
370
    15
100
AcDbCircle
 10
11.746862635
 20
15.1645858565
 30
0.0
 40
0.0150000000000006
100
AcDbArc
 50
322.550643686
 51
0.0
  0
ARC
  5
E9
330
1F
100
AcDbEntity
  8
0
  6
Continuous
 62
     7
 48
4.0
370
    15
100
AcDbCircle
 10
11.403862635
 20
15.1645858565
 30
0.0
 40
0.0149999999999988
100
AcDbArc
 50
180.0
 51
217.449356314
  0
ARC
  5
EA
330
1F
100
AcDbEntity
  8
0
  6
Continuous
 62
     7
 48
4.0
370
    15
100
AcDbCircle
 10
11.575362635
 20
15.2959417554
 30
0.0
 40
0.2310245869783027
100
AcDbArc
 50
280.1818657166
 51
322.550643686
  0
ARC
  5
EB
330
1F
100
AcDbEntity
  8
0
  6
Continuous
 62
     7
 48
4.0
370
    15
100
AcDbCircle
 10
11.575362635
 20
15.2959417554
 30
0.0
 40
0.2310245869783027
100
AcDbArc
 50
217.449356314
 51
259.8181342834
  0
LINE
  5
EC
330
1F
100
AcDbEntity
  8
0
  6
Continuous
 62
     7
 48
2.0
370
    15
100
AcDbLine
 10
11.644362635
 20
15.3219171684
 30
0.0
 11
11.644362635
 21
15.3989171684
 31
0.0
  0
LINE
  5
ED
330
1F
100
AcDbEntity
  8
0
  6
Continuous
 62
     7
 48
2.0
370
    15
100
AcDbLine
 10
11.506362635
 20
15.3989171684
 30
0.0
 11
11.506362635
 21
15.3219171684
 31
0.0
  0
LINE
  5
EE
330
1F
100
AcDbEntity
  8
0
  6
Continuous
 62
     7
 48
2.0
370
    15
100
AcDbLine
 10
6.261862635
 20
15.1645858565
 30
0.0
 11
6.261862635
 21
15.1979171684
 31
0.0
  0
LINE
  5
EF
330
1F
100
AcDbEntity
  8
0
  6
Continuous
 62
     7
 48
2.0
370
    15
100
AcDbLine
 10
5.888862635
 20
15.1979171684
 30
0.0
 11
5.888862635
 21
15.1645858565
 31
0.0
  0
ARC
  5
F0
330
1F
100
AcDbEntity
  8
0
  6
Continuous
 62
     7
 48
4.0
370
    15
100
AcDbCircle
 10
6.246862635
 20
15.1645858565
 30
0.0
 40
0.0149999999999988
100
AcDbArc
 50
322.550643686
 51
0.0
  0
ARC
  5
F1
330
1F
100
AcDbEntity
  8
0
  6
Continuous
 62
     7
 48
4.0
370
    15
100
AcDbCircle
 10
5.903862635
 20
15.1645858565
 30
0.0
 40
0.0150000000000015
100
AcDbArc
 50
180.0
 51
217.449356314
  0
ARC
  5
F2
330
1F
100
AcDbEntity
  8
0
  6
Continuous
 62
     7
 48
4.0
370
    15
100
AcDbCircle
 10
6.075362635
 20
15.2959417554
 30
0.0
 40
0.2310245869783027
100
AcDbArc
 50
280.1818657166
 51
322.550643686
  0
ARC
  5
F3
330
1F
100
AcDbEntity
  8
0
  6
Continuous
 62
     7
 48
4.0
370
    15
100
AcDbCircle
 10
6.075362635
 20
15.2959417554
 30
0.0
 40
0.2310245869783034
100
AcDbArc
 50
217.449356314
 51
259.8181342834
  0
LINE
  5
F4
330
1F
100
AcDbEntity
  8
0
  6
Continuous
 62
     7
 48
2.0
370
    15
100
AcDbLine
 10
6.144362635
 20
15.3219171684
 30
0.0
 11
6.144362635
 21
15.3989171684
 31
0.0
  0
LINE
  5
F5
330
1F
100
AcDbEntity
  8
0
  6
Continuous
 62
     7
 48
2.0
370
    15
100
AcDbLine
 10
6.006362635
 20
15.3989171684
 30
0.0
 11
6.006362635
 21
15.3219171684
 31
0.0
  0
LINE
  5
F6
330
1F
100
AcDbEntity
  8
0
  6
Continuous
 62
     7
 48
2.0
370
    15
100
AcDbLine
 10
5.825362635
 20
15.2599171684
 30
0.0
 11
5.825362635
 21
15.1979171684
 31
0.0
  0
LINE
  5
F7
330
1F
100
AcDbEntity
  8
0
  6
Continuous
 62
     7
 48
2.0
370
    15
100
AcDbLine
 10
11.825362635
 20
15.2599171684
 30
0.0
 11
5.825362635
 21
15.2599171684
 31
0.0
  0
LINE
  5
F8
330
1F
100
AcDbEntity
  8
0
  6
Continuous
 62
     7
 48
2.0
370
    15
100
AcDbLine
 10
11.825362635
 20
15.2599171684
 30
0.0
 11
11.825362635
 21
15.1979171684
 31
0.0
  0
LINE
  5
F9
330
1F
100
AcDbEntity
  8
0
  6
Continuous
 62
     7
 48
2.0
370
    15
100
AcDbLine
 10
11.825362635
 20
15.1979171684
 30
0.0
 11
5.825362635
 21
15.1979171684
 31
0.0
  0
LINE
  5
FA
330
1F
100
AcDbEntity
  8
0
  6
Continuous
 62
     7
 48
2.0
370
    15
100
AcDbLine
 10
11.294362635
 20
15.3989171684
 30
0.0
 11
11.686362635
 21
15.3989171684
 31
0.0
  0
LINE
  5
FB
330
1F
100
AcDbEntity
  8
0
  6
Continuous
 62
     7
 48
2.0
370
    15
100
AcDbLine
 10
11.294362635
 20
15.3369171684
 30
0.0
 11
11.294362635
 21
15.3989171684
 31
0.0
  0
LINE
  5
FC
330
1F
100
AcDbEntity
  8
0
  6
Continuous
 62
     7
 48
2.0
370
    15
100
AcDbLine
 10
6.356362635
 20
15.3369171684
 30
0.0
 11
6.356362635
 21
15.3989171684
 31
0.0
  0
LINE
  5
FD
330
1F
100
AcDbEntity
  8
0
  6
Continuous
 62
     7
 48
2.0
370
    15
100
AcDbLine
 10
6.356362635
 20
15.3989171684
 30
0.0
 11
5.964362635
 21
15.3989171684
 31
0.0
  0
LINE
  5
FE
330
1F
100
AcDbEntity
  8
0
  6
Continuous
 62
     7
 48
2.0
370
    15
100
AcDbLine
 10
11.686362635
 20
18.1979171684
 30
0.0
 11
11.686362635
 21
18.1209171684
 31
0.0
  0
LINE
  5
FF
330
1F
100
AcDbEntity
  8
0
  6
Continuous
 62
     7
 48
2.0
370
    15
100
AcDbLine
 10
5.964362635
 20
18.1979171684
 30
0.0
 11
5.964362635
 21
18.1209171684
 31
0.0
  0
LINE
  5
100
330
1F
100
AcDbEntity
  8
0
  6
Continuous
 62
     7
 48
2.0
370
    15
100
AcDbLine
 10
11.686362635
 20
18.1209171684
 30
0.0
 11
11.763362635
 21
18.1209171684
 31
0.0
  0
LINE
  5
101
330
1F
100
AcDbEntity
  8
0
  6
Continuous
 62
     7
 48
2.0
370
    15
100
AcDbLine
 10
11.763362635
 20
15.3989171684
 30
0.0
 11
11.686362635
 21
15.3989171684
 31
0.0
  0
LINE
  5
102
330
1F
100
AcDbEntity
  8
0
  6
Continuous
 62
     7
 48
2.0
370
    15
100
AcDbLine
 10
5.887362635
 20
15.3989171684
 30
0.0
 11
5.964362635
 21
15.3989171684
 31
0.0
  0
LINE
  5
103
330
1F
100
AcDbEntity
  8
0
  6
Continuous
 62
     7
 48
2.0
370
    15
100
AcDbLine
 10
5.964362635
 20
18.1209171684
 30
0.0
 11
5.887362635
 21
18.1209171684
 31
0.0
  0
LINE
  5
104
330
1F
100
AcDbEntity
  8
0
  6
Continuous
 62
     7
 48
2.0
370
    15
100
AcDbLine
 10
11.294362635
 20
15.3369171684
 30
0.0
 11
11.294362635
 21
15.2599171684
 31
0.0
  0
LINE
  5
105
330
1F
100
AcDbEntity
  8
0
  6
Continuous
 62
     7
 48
2.0
370
    15
100
AcDbLine
 10
6.356362635
 20
15.3369171684
 30
0.0
 11
6.356362635
 21
15.2599171684
 31
0.0
  0
ARC
  5
106
330
1F
100
AcDbEntity
  8
0
  6
Continuous
 62
     7
 48
4.0
370
    15
100
AcDbCircle
 10
11.748362635
 20
18.1829171684
 30
0.0
 40
0.0150000000000006
100
AcDbArc
 50
0.0
 51
90.0
  0
ARC
  5
107
330
1F
100
AcDbEntity
  8
0
  6
Continuous
 62
     7
 48
4.0
370
    15
100
AcDbCircle
 10
11.748362635
 20
18.1829171684
 30
0.0
 40
0.0770000000000017
100
AcDbArc
 50
0.0
 51
90.0
  0
LINE
  5
108
330
1F
100
AcDbEntity
  8
0
  6
Continuous
 62
     7
 48
2.0
370
    15
100
AcDbLine
 10
5.887362635
 20
18.1829171684
 30
0.0
 11
5.887362635
 21
15.3369171684
 31
0.0
  0
LINE
  5
109
330
1F
100
AcDbEntity
  8
0
  6
Continuous
 62
     7
 48
2.0
370
    15
100
AcDbLine
 10
5.825362635
 20
18.1829171684
 30
0.0
 11
5.825362635
 21
15.3369171684
 31
0.0
  0
LINE
  5
10A
330
1F
100
AcDbEntity
  8
0
  6
Continuous
 62
     7
 48
2.0
370
    15
100
AcDbLine
 10
11.763362635
 20
15.3369171684
 30
0.0
 11
11.763362635
 21
18.1829171684
 31
0.0
  0
LINE
  5
10B
330
1F
100
AcDbEntity
  8
0
  6
Continuous
 62
     7
 48
2.0
370
    15
100
AcDbLine
 10
11.825362635
 20
15.3369171684
 30
0.0
 11
11.825362635
 21
18.1829171684
 31
0.0
  0
LINE
  5
10C
330
1F
100
AcDbEntity
  8
0
  6
Continuous
 62
     7
 48
2.0
370
    15
100
AcDbLine
 10
11.748362635
 20
18.2599171684
 30
0.0
 11
5.902362635
 21
18.2599171684
 31
0.0
  0
LINE
  5
10D
330
1F
100
AcDbEntity
  8
0
  6
Continuous
 62
     7
 48
2.0
370
    15
100
AcDbLine
 10
11.748362635
 20
18.1979171684
 30
0.0
 11
5.902362635
 21
18.1979171684
 31
0.0
  0
ARC
  5
10E
330
1F
100
AcDbEntity
  8
0
  6
Continuous
 62
     7
 48
4.0
370
    15
100
AcDbCircle
 10
5.902362635
 20
18.1829171684
 30
0.0
 40
0.0770000000000017
100
AcDbArc
 50
90.0
 51
180.0
  0
ARC
  5
10F
330
1F
100
AcDbEntity
  8
0
  6
Continuous
 62
     7
 48
4.0
370
    15
100
AcDbCircle
 10
5.902362635
 20
18.1829171684
 30
0.0
 40
0.0150000000000006
100
AcDbArc
 50
90.0
 51
180.0
  0
LINE
  5
110
330
1F
100
AcDbEntity
  8
0
  6
Continuous
 62
     7
 48
2.0
370
    15
100
AcDbLine
 10
11.325362635
 20
15.2599171684
 30
0.0
 11
11.325362635
 21
15.3219171684
 31
0.0
  0
LINE
  5
111
330
1F
100
AcDbEntity
  8
0
  6
Continuous
 62
     7
 48
2.0
370
    15
100
AcDbLine
 10
11.325362635
 20
15.3219171684
 30
0.0
 11
11.748362635
 21
15.3219171684
 31
0.0
  0
LINE
  5
112
330
1F
100
AcDbEntity
  8
0
  6
Continuous
 62
     7
 48
2.0
370
    15
100
AcDbLine
 10
11.325362635
 20
15.2599171684
 30
0.0
 11
11.748362635
 21
15.2599171684
 31
0.0
  0
LINE
  5
113
330
1F
100
AcDbEntity
  8
0
  6
Continuous
 62
     7
 48
2.0
370
    15
100
AcDbLine
 10
5.902362635
 20
15.2599171684
 30
0.0
 11
6.325362635
 21
15.2599171684
 31
0.0
  0
LINE
  5
114
330
1F
100
AcDbEntity
  8
0
  6
Continuous
 62
     7
 48
2.0
370
    15
100
AcDbLine
 10
5.902362635
 20
15.3219171684
 30
0.0
 11
6.325362635
 21
15.3219171684
 31
0.0
  0
LINE
  5
115
330
1F
100
AcDbEntity
  8
0
  6
Continuous
 62
     7
 48
2.0
370
    15
100
AcDbLine
 10
6.325362635
 20
15.3219171684
 30
0.0
 11
6.325362635
 21
15.2599171684
 31
0.0
  0
ARC
  5
116
330
1F
100
AcDbEntity
  8
0
  6
Continuous
 62
     7
 48
4.0
370
    15
100
AcDbCircle
 10
11.748362635
 20
15.3369171684
 30
0.0
 40
0.0150000000000006
100
AcDbArc
 50
270.0
 51
0.0
  0
ARC
  5
117
330
1F
100
AcDbEntity
  8
0
  6
Continuous
 62
     7
 48
4.0
370
    15
100
AcDbCircle
 10
11.748362635
 20
15.3369171684
 30
0.0
 40
0.077
100
AcDbArc
 50
270.0
 51
0.0
  0
ARC
  5
118
330
1F
100
AcDbEntity
  8
0
  6
Continuous
 62
     7
 48
4.0
370
    15
100
AcDbCircle
 10
5.902362635
 20
15.3369171684
 30
0.0
 40
0.077
100
AcDbArc
 50
180.0
 51
270.0
  0
ARC
  5
119
330
1F
100
AcDbEntity
  8
0
  6
Continuous
 62
     7
 48
4.0
370
    15
100
AcDbCircle
 10
5.902362635
 20
15.3369171684
 30
0.0
 40
0.0150000000000006
100
AcDbArc
 50
180.0
 51
270.0
  0
ARC
  5
11A
330
1F
100
AcDbEntity
  8
0
  6
Continuous
 62
     7
 48
4.0
370
    15
100
AcDbCircle
 10
11.5987295847
 20
15.215914827
 30
0.0
 40
0.1526339785896036
100
AcDbArc
 50
217.0400188158
 51
253.7971257354
  0
LINE
  5
11B
330
1F
100
AcDbEntity
  8
0
  6
Continuous
 62
     7
 48
2.0
370
    15
100
AcDbLine
 10
11.4551399331
 20
15.1239722865
 30
0.0
 11
11.4768948578
 21
15.1239722865
 31
0.0
  0
ARC
  5
11C
330
1F
100
AcDbEntity
  8
0
  6
Continuous
 62
     7
 48
4.0
370
    15
100
AcDbCircle
 10
11.5769746599
 20
15.215914827
 30
0.0
 40
0.1526339785896275
100
AcDbArc
 50
217.0400188158
 51
253.7971257354
  0
LWPOLYLINE
  5
11D
330
1F
100
AcDbEntity
  8
0
  6
Continuous
 62
     7
 48
2.0
370
    15
100
AcDbPolyline
 90
        9
 70
   128
 43
0.0
 10
11.5343837846
 20
15.0693435175
 10
11.5344400308
 20
15.0688429139
 10
11.5344963705
 20
15.0685893508
 10
11.5345527424
 20
15.0685831042
 10
11.5346090852
 20
15.0688241808
 10
11.5346653375
 20
15.0693123185
 10
11.5347214383
 20
15.0700469861
 10
11.5347773265
 20
15.0710273846
 10
11.5348329413
 20
15.0722524474
  0
ARC
  5
11E
330
1F
100
AcDbEntity
  8
0
  6
Continuous
 62
     7
 48
4.0
370
    15
100
AcDbCircle
 10
11.5756696256
 20
15.2959292533
 30
0.0
 40
0.2273740273487483
100
AcDbArc
 50
259.6534590255
 51
264.9975709241
  0
ARC
  5
11F
330
1F
100
AcDbEntity
  8
0
  6
Continuous
 62
     7
 48
4.0
370
    15
100
AcDbCircle
 10
11.575669596
 20
15.2959289436
 30
0.0
 40
0.2273737162501122
100
AcDbArc
 50
269.9226290268
 51
274.7723921741
  0
ARC
  5
120
330
1F
100
AcDbEntity
  8
0
  6
Continuous
 62
     7
 48
4.0
370
    15
100
AcDbCircle
 10
11.6323339214
 20
15.0717664053
 30
0.0
 40
0.0164487751106999
100
AcDbArc
 50
178.3067302081
 51
191.2570106392
  0
ARC
  5
121
330
1F
100
AcDbEntity
  8
0
  6
Continuous
 62
     7
 48
4.0
370
    15
100
AcDbCircle
 10
11.5750556744
 20
15.2959290188
 30
0.0
 40
0.2273737912214781
100
AcDbArc
 50
265.2276093396
 51
280.3465441733
  0
LINE
  5
122
330
1F
100
AcDbEntity
  8
0
  6
Continuous
 62
     7
 48
2.0
370
    15
100
AcDbLine
 10
11.5343837846
 20
15.0693435175
 30
0.0
 11
11.5343837846
 21
15.0772328013
 31
0.0
  0
LINE
  5
123
330
1F
100
AcDbEntity
  8
0
  6
Continuous
 62
     7
 48
2.0
370
    15
100
AcDbLine
 10
11.5348329413
 20
15.0770239723
 30
0.0
 11
11.5348329413
 21
15.0722524474
 31
0.0
  0
LINE
  5
124
330
1F
100
AcDbEntity
  8
0
  6
Continuous
 62
     7
 48
2.0
370
    15
100
AcDbLine
 10
11.5945865607
 20
15.0693956099
 30
0.0
 11
11.5945865607
 21
15.0693435175
 31
0.0
  0
ARC
  5
125
330
1F
100
AcDbEntity
  8
0
  6
Continuous
 62
     7
 48
4.0
370
    15
100
AcDbCircle
 10
6.0750556741
 20
15.2959289435
 30
0.0
 40
0.2273737162120043
100
AcDbArc
 50
265.2276078257
 51
270.0830362395
  0
ARC
  5
126
330
1F
100
AcDbEntity
  8
0
  6
Continuous
 62
     7
 48
4.0
370
    15
100
AcDbCircle
 10
6.0750556445
 20
15.2959292533
 30
0.0
 40
0.227374027347965
100
AcDbArc
 50
275.0024290828
 51
280.3465409745
  0
LWPOLYLINE
  5
127
330
1F
100
AcDbEntity
  8
0
  6
Continuous
 62
     7
 48
2.0
370
    15
100
AcDbPolyline
 90
        9
 70
   128
 43
0.0
 10
6.1158923288
 20
15.0722524474
 10
6.1159479436
 20
15.0710273846
 10
6.1160038318
 20
15.0700469861
 10
6.1160599325
 20
15.0693123185
 10
6.1161161849
 20
15.0688241808
 10
6.1161725277
 20
15.0685831042
 10
6.1162288996
 20
15.0685893508
 10
6.1162852393
 20
15.0688429139
 10
6.1163414855
 20
15.0693435175
  0
ARC
  5
128
330
1F
100
AcDbEntity
  8
0
  6
Continuous
 62
     7
 48
4.0
370
    15
100
AcDbCircle
 10
6.0737506102
 20
15.215914827
 30
0.0
 40
0.1526339785896209
100
AcDbArc
 50
286.2028742646
 51
322.9599811842
  0
LINE
  5
129
330
1F
100
AcDbEntity
  8
0
  6
Continuous
 62
     7
 48
2.0
370
    15
100
AcDbLine
 10
6.1738304122
 20
15.1239722865
 30
0.0
 11
6.195585337
 21
15.1239722865
 31
0.0
  0
ARC
  5
12A
330
1F
100
AcDbEntity
  8
0
  6
Continuous
 62
     7
 48
4.0
370
    15
100
AcDbCircle
 10
6.0519956854
 20
15.215914827
 30
0.0
 40
0.152633978589631
100
AcDbArc
 50
286.2028742646
 51
322.9599811842
  0
ARC
  5
12B
330
1F
100
AcDbEntity
  8
0
  6
Continuous
 62
     7
 48
4.0
370
    15
100
AcDbCircle
 10
6.0756695957
 20
15.2959290188
 30
0.0
 40
0.2273737912213899
100
AcDbArc
 50
259.6534558267
 51
274.7723906604
  0
ARC
  5
12C
330
1F
100
AcDbEntity
  8
0
  6
Continuous
 62
     7
 48
4.0
370
    15
100
AcDbCircle
 10
6.0183913487
 20
15.0717664053
 30
0.0
 40
0.0164487751107266
100
AcDbArc
 50
348.7429893608
 51
1.6932697919
  0
LINE
  5
12D
330
1F
100
AcDbEntity
  8
0
  6
Continuous
 62
     7
 48
2.0
370
    15
100
AcDbLine
 10
6.1163414855
 20
15.0772328013
 30
0.0
 11
6.1163414855
 21
15.0693435175
 31
0.0
  0
LINE
  5
12E
330
1F
100
AcDbEntity
  8
0
  6
Continuous
 62
     7
 48
2.0
370
    15
100
AcDbLine
 10
6.1158923288
 20
15.0770239723
 30
0.0
 11
6.1158923288
 21
15.0722524474
 31
0.0
  0
LINE
  5
12F
330
1F
100
AcDbEntity
  8
0
  6
Continuous
 62
     7
 48
2.0
370
    15
100
AcDbLine
 10
6.0561387093
 20
15.0693435175
 30
0.0
 11
6.0561387093
 21
15.0693956099
 31
0.0
  0
DIMENSION
  5
130
330
1F
100
AcDbEntity
  8
0
  6
Continuous
 62
     7
 48
2.0
370
     0
100
AcDbDimension
  2
*D8
 10
12.6265075883
 20
15.2599171684
 30
0.0
 11
12.6265075883
 21
16.7599171684
 31
0.0
 70
   160
 71
     2
 42
-1.0
  3
SLDDIMSTYLE0
100
AcDbAlignedDimension
 13
11.748362635
 23
18.2599171684
 33
0.0
 14
11.825362635
 24
15.2599171684
 34
0.0
 50
90.0
100
AcDbRotatedDimension
  0
LINE
  5
142
330
1F
100
AcDbEntity
  8
0
  6
Continuous
 62
     7
 48
2.0
370
    15
100
AcDbLine
 10
21.439067353
 20
9.599974975
 30
0.0
 11
21.4723986649
 21
9.599974975
 31
0.0
  0
LINE
  5
143
330
1F
100
AcDbEntity
  8
0
  6
Continuous
 62
     7
 48
2.0
370
    15
100
AcDbLine
 10
21.4723986649
 20
9.972974975
 30
0.0
 11
21.439067353
 21
9.972974975
 31
0.0
  0
ARC
  5
144
330
1F
100
AcDbEntity
  8
0
  6
Continuous
 62
     7
 48
4.0
370
    15
100
AcDbCircle
 10
21.439067353
 20
9.614974975
 30
0.0
 40
0.0150000000000006
100
AcDbArc
 50
232.550643686
 51
270.0
  0
ARC
  5
145
330
1F
100
AcDbEntity
  8
0
  6
Continuous
 62
     7
 48
4.0
370
    15
100
AcDbCircle
 10
21.439067353
 20
9.957974975
 30
0.0
 40
0.0149999999999991
100
AcDbArc
 50
90.0
 51
127.449356314
  0
ARC
  5
146
330
1F
100
AcDbEntity
  8
0
  6
Continuous
 62
     7
 48
4.0
370
    15
100
AcDbCircle
 10
21.5704232519
 20
9.786474975
 30
0.0
 40
0.2310245869783054
100
AcDbArc
 50
190.1818657166
 51
232.550643686
  0
ARC
  5
147
330
1F
100
AcDbEntity
  8
0
  6
Continuous
 62
     7
 48
4.0
370
    15
100
AcDbCircle
 10
21.5704232519
 20
9.786474975
 30
0.0
 40
0.2310245869783057
100
AcDbArc
 50
127.449356314
 51
169.8181342834
  0
LINE
  5
148
330
1F
100
AcDbEntity
  8
0
  6
Continuous
 62
     7
 48
2.0
370
    15
100
AcDbLine
 10
21.5343986649
 20
12.786474975
 30
0.0
 11
21.4723986649
 21
12.786474975
 31
0.0
  0
LINE
  5
149
330
1F
100
AcDbEntity
  8
0
  6
Continuous
 62
     7
 48
2.0
370
    15
100
AcDbLine
 10
21.5343986649
 20
6.786474975
 30
0.0
 11
21.5343986649
 21
12.786474975
 31
0.0
  0
LINE
  5
14A
330
1F
100
AcDbEntity
  8
0
  6
Continuous
 62
     7
 48
2.0
370
    15
100
AcDbLine
 10
21.4723986649
 20
6.786474975
 30
0.0
 11
21.4723986649
 21
12.786474975
 31
0.0
  0
LINE
  5
14B
330
1F
100
AcDbEntity
  8
0
  6
Continuous
 62
     7
 48
2.0
370
    15
100
AcDbLine
 10
21.5343986649
 20
6.786474975
 30
0.0
 11
21.4723986649
 21
6.786474975
 31
0.0
  0
LINE
  5
14C
330
1F
100
AcDbEntity
  8
0
  6
Continuous
 62
     7
 48
2.0
370
    15
100
AcDbLine
 10
24.4573986649
 20
12.786474975
 30
0.0
 11
24.5343986649
 21
12.786474975
 31
0.0
  0
LINE
  5
14D
330
1F
100
AcDbEntity
  8
0
  6
Continuous
 62
     7
 48
2.0
370
    15
100
AcDbLine
 10
24.5343986649
 20
12.786474975
 30
0.0
 11
24.5343986649
 21
6.786474975
 31
0.0
  0
LINE
  5
14E
330
1F
100
AcDbEntity
  8
0
  6
Continuous
 62
     7
 48
2.0
370
    15
100
AcDbLine
 10
24.4573986649
 20
6.786474975
 30
0.0
 11
24.5343986649
 21
6.786474975
 31
0.0
  0
LINE
  5
14F
330
1F
100
AcDbEntity
  8
0
  6
Continuous
 62
     7
 48
2.0
370
    15
100
AcDbLine
 10
21.6113986649
 20
12.786474975
 30
0.0
 11
24.4573986649
 21
12.786474975
 31
0.0
  0
LINE
  5
150
330
1F
100
AcDbEntity
  8
0
  6
Continuous
 62
     7
 48
2.0
370
    15
100
AcDbLine
 10
21.6113986649
 20
6.786474975
 30
0.0
 11
24.4573986649
 21
6.786474975
 31
0.0
  0
LINE
  5
151
330
1F
100
AcDbEntity
  8
0
  6
Continuous
 62
     7
 48
2.0
370
    15
100
AcDbLine
 10
21.5343986649
 20
12.786474975
 30
0.0
 11
21.6113986649
 21
12.786474975
 31
0.0
  0
LINE
  5
152
330
1F
100
AcDbEntity
  8
0
  6
Continuous
 62
     7
 48
2.0
370
    15
100
AcDbLine
 10
21.5343986649
 20
6.786474975
 30
0.0
 11
21.6113986649
 21
6.786474975
 31
0.0
  0
ARC
  5
153
330
1F
100
AcDbEntity
  8
0
  6
Continuous
 62
     7
 48
4.0
370
    15
100
AcDbCircle
 10
21.5704105856
 20
9.7861680204
 30
0.0
 40
0.2273738616986006
100
AcDbArc
 50
179.9284320259
 51
190.3465428907
  0
ARC
  5
154
330
1F
100
AcDbEntity
  8
0
  6
Continuous
 62
     7
 48
4.0
370
    15
100
AcDbCircle
 10
21.3436750098
 20
9.7443773423
 30
0.0
 40
0.0014111679303415
100
AcDbArc
 50
83.8980488669
 51
116.8825843001
  0
ARC
  5
155
330
1F
100
AcDbEntity
  8
0
  6
Continuous
 62
     7
 48
4.0
370
    15
100
AcDbCircle
 10
21.4879535484
 20
9.788498427
 30
0.0
 40
0.1503258275122996
100
AcDbArc
 50
196.5091709682
 51
233.4608553336
  0
LINE
  5
156
330
1F
100
AcDbEntity
  8
0
  6
Continuous
 62
     7
 48
2.0
370
    15
100
AcDbLine
 10
21.3984537831
 20
9.6898035547
 30
0.0
 11
21.3984537831
 21
9.6677190976
 31
0.0
  0
ARC
  5
157
330
1F
100
AcDbEntity
  8
0
  6
Continuous
 62
     7
 48
4.0
370
    15
100
AcDbCircle
 10
21.4879535484
 20
9.8105828841
 30
0.0
 40
0.150325827512301
100
AcDbArc
 50
196.5091709682
 51
233.4608553336
  0
ARC
  5
158
330
1F
100
AcDbEntity
  8
0
  6
Continuous
 62
     7
 48
4.0
370
    15
100
AcDbCircle
 10
21.5704105153
 20
9.7867819372
 30
0.0
 40
0.2273737912213947
100
AcDbArc
 50
169.6534558267
 51
184.7723906604
  0
LWPOLYLINE
  5
159
330
1F
100
AcDbEntity
  8
0
  6
Continuous
 62
     7
 48
2.0
370
    15
100
AcDbPolyline
 90
        9
 70
   128
 43
0.0
 10
21.3467339439
 20
9.8276185916
 10
21.3455088811
 20
9.8275629769
 10
21.3445284826
 20
9.8275070887
 10
21.343793815
 20
9.8274509879
 10
21.3433056773
 20
9.8273947355
 10
21.3430646007
 20
9.8273383927
 10
21.3430708473
 20
9.8272820208
 10
21.3433244104
 20
9.8272256811
 10
21.3438250141
 20
9.8271694349
  0
LINE
  5
15A
330
1F
100
AcDbEntity
  8
0
  6
Continuous
 62
     7
 48
2.0
370
    15
100
AcDbLine
 10
21.3520267417
 20
9.745780515
 30
0.0
 11
21.3438250141
 21
9.745780515
 31
0.0
  0
LINE
  5
15B
330
1F
100
AcDbEntity
  8
0
  6
Continuous
 62
     7
 48
2.0
370
    15
100
AcDbLine
 10
21.3466524072
 20
9.8271694349
 30
0.0
 11
21.3438250141
 21
9.8271694349
 31
0.0
  0
LINE
  5
15C
330
1F
100
AcDbEntity
  8
0
  6
HIDDEN
 62
     7
 48
2.0
370
     0
100
AcDbLine
 10
21.5343986649
 20
9.6744249671
 30
0.0
 11
21.4723986649
 21
9.6744249671
 31
0.0
  0
LINE
  5
15D
330
1F
100
AcDbEntity
  8
0
  6
HIDDEN
 62
     7
 48
2.0
370
     0
100
AcDbLine
 10
21.6733986649
 20
12.348474975
 30
0.0
 11
21.6733986649
 21
12.709474975
 31
0.0
  0
LINE
  5
15E
330
1F
100
AcDbEntity
  8
0
  6
HIDDEN
 62
     7
 48
2.0
370
     0
100
AcDbLine
 10
24.3953986649
 20
12.709474975
 30
0.0
 11
24.3953986649
 21
12.348474975
 31
0.0
  0
LINE
  5
15F
330
1F
100
AcDbEntity
  8
0
  6
HIDDEN
 62
     7
 48
2.0
370
     0
100
AcDbLine
 10
24.3953986649
 20
12.348474975
 30
0.0
 11
21.6733986649
 21
12.348474975
 31
0.0
  0
LINE
  5
160
330
1F
100
AcDbEntity
  8
0
  6
HIDDEN
 62
     7
 48
2.0
370
     0
100
AcDbLine
 10
24.3953986649
 20
12.786474975
 30
0.0
 11
24.3953986649
 21
12.709474975
 31
0.0
  0
LINE
  5
161
330
1F
100
AcDbEntity
  8
0
  6
HIDDEN
 62
     7
 48
2.0
370
     0
100
AcDbLine
 10
21.6733986649
 20
12.709474975
 30
0.0
 11
21.6733986649
 21
12.786474975
 31
0.0
  0
LINE
  5
162
330
1F
100
AcDbEntity
  8
0
  6
HIDDEN
 62
     7
 48
2.0
370
     0
100
AcDbLine
 10
21.6733986649
 20
12.724474975
 30
0.0
 11
24.3953986649
 21
12.724474975
 31
0.0
  0
ARC
  5
163
330
1F
100
AcDbEntity
  8
0
  6
HIDDEN
 62
     7
 48
4.0
370
     0
100
AcDbCircle
 10
24.3953986649
 20
12.709474975
 30
0.0
 40
0.0150000000000041
100
AcDbArc
 50
0.0
 51
90.0
  0
ARC
  5
164
330
1F
100
AcDbEntity
  8
0
  6
HIDDEN
 62
     7
 48
4.0
370
     0
100
AcDbCircle
 10
24.3953986649
 20
12.709474975
 30
0.0
 40
0.0770000000000017
100
AcDbArc
 50
0.0
 51
90.0
  0
LINE
  5
165
330
1F
100
AcDbEntity
  8
0
  6
HIDDEN
 62
     7
 48
2.0
370
     0
100
AcDbLine
 10
24.4103986649
 20
12.348474975
 30
0.0
 11
24.4103986649
 21
12.709474975
 31
0.0
  0
LINE
  5
166
330
1F
100
AcDbEntity
  8
0
  6
HIDDEN
 62
     7
 48
2.0
370
     0
100
AcDbLine
 10
24.4723986649
 20
12.348474975
 30
0.0
 11
24.4103986649
 21
12.348474975
 31
0.0
  0
LINE
  5
167
330
1F
100
AcDbEntity
  8
0
  6
HIDDEN
 62
     7
 48
2.0
370
     0
100
AcDbLine
 10
21.6113986649
 20
12.724474975
 30
0.0
 11
21.6733986649
 21
12.724474975
 31
0.0
  0
ARC
  5
168
330
1F
100
AcDbEntity
  8
0
  6
HIDDEN
 62
     7
 48
4.0
370
     0
100
AcDbCircle
 10
21.6113986649
 20
12.709474975
 30
0.0
 40
0.0770000000000017
100
AcDbArc
 50
90.0
 51
180.0
  0
ARC
  5
169
330
1F
100
AcDbEntity
  8
0
  6
HIDDEN
 62
     7
 48
4.0
370
     0
100
AcDbCircle
 10
21.6113986649
 20
12.709474975
 30
0.0
 40
0.0150000000000023
100
AcDbArc
 50
90.0
 51
180.0
  0
LINE
  5
16A
330
1F
100
AcDbEntity
  8
0
  6
HIDDEN
 62
     7
 48
2.0
370
     0
100
AcDbLine
 10
21.5343986649
 20
12.286474975
 30
0.0
 11
21.5963986649
 21
12.286474975
 31
0.0
  0
LINE
  5
16B
330
1F
100
AcDbEntity
  8
0
  6
HIDDEN
 62
     7
 48
2.0
370
     0
100
AcDbLine
 10
21.6733986649
 20
7.224474975
 30
0.0
 11
21.6733986649
 21
6.863474975
 31
0.0
  0
LINE
  5
16C
330
1F
100
AcDbEntity
  8
0
  6
HIDDEN
 62
     7
 48
2.0
370
     0
100
AcDbLine
 10
24.3953986649
 20
7.224474975
 30
0.0
 11
21.6733986649
 21
7.224474975
 31
0.0
  0
LINE
  5
16D
330
1F
100
AcDbEntity
  8
0
  6
HIDDEN
 62
     7
 48
2.0
370
     0
100
AcDbLine
 10
24.3953986649
 20
6.863474975
 30
0.0
 11
24.3953986649
 21
7.224474975
 31
0.0
  0
LINE
  5
16E
330
1F
100
AcDbEntity
  8
0
  6
HIDDEN
 62
     7
 48
2.0
370
     0
100
AcDbLine
 10
21.6733986649
 20
6.863474975
 30
0.0
 11
21.6733986649
 21
6.786474975
 31
0.0
  0
LINE
  5
16F
330
1F
100
AcDbEntity
  8
0
  6
HIDDEN
 62
     7
 48
2.0
370
     0
100
AcDbLine
 10
24.3953986649
 20
6.786474975
 30
0.0
 11
24.3953986649
 21
6.863474975
 31
0.0
  0
LINE
  5
170
330
1F
100
AcDbEntity
  8
0
  6
HIDDEN
 62
     7
 48
2.0
370
     0
100
AcDbLine
 10
21.6733986649
 20
6.848474975
 30
0.0
 11
24.3953986649
 21
6.848474975
 31
0.0
  0
LINE
  5
171
330
1F
100
AcDbEntity
  8
0
  6
HIDDEN
 62
     7
 48
2.0
370
     0
100
AcDbLine
 10
24.4103986649
 20
7.224474975
 30
0.0
 11
24.4103986649
 21
6.863474975
 31
0.0
  0
LINE
  5
172
330
1F
100
AcDbEntity
  8
0
  6
HIDDEN
 62
     7
 48
2.0
370
     0
100
AcDbLine
 10
24.4723986649
 20
7.224474975
 30
0.0
 11
24.4103986649
 21
7.224474975
 31
0.0
  0
ARC
  5
173
330
1F
100
AcDbEntity
  8
0
  6
HIDDEN
 62
     7
 48
4.0
370
     0
100
AcDbCircle
 10
24.3953986649
 20
6.863474975
 30
0.0
 40
0.0149999999999997
100
AcDbArc
 50
270.0
 51
0.0
  0
ARC
  5
174
330
1F
100
AcDbEntity
  8
0
  6
HIDDEN
 62
     7
 48
4.0
370
     0
100
AcDbCircle
 10
24.3953986649
 20
6.863474975
 30
0.0
 40
0.0770000000000017
100
AcDbArc
 50
270.0
 51
0.0
  0
LINE
  5
175
330
1F
100
AcDbEntity
  8
0
  6
HIDDEN
 62
     7
 48
2.0
370
     0
100
AcDbLine
 10
21.6113986649
 20
6.848474975
 30
0.0
 11
21.6733986649
 21
6.848474975
 31
0.0
  0
ARC
  5
176
330
1F
100
AcDbEntity
  8
0
  6
HIDDEN
 62
     7
 48
4.0
370
     0
100
AcDbCircle
 10
21.6113986649
 20
6.863474975
 30
0.0
 40
0.0150000000000006
100
AcDbArc
 50
180.0
 51
270.0
  0
ARC
  5
177
330
1F
100
AcDbEntity
  8
0
  6
HIDDEN
 62
     7
 48
4.0
370
     0
100
AcDbCircle
 10
21.6113986649
 20
6.863474975
 30
0.0
 40
0.0769999999999991
100
AcDbArc
 50
180.0
 51
270.0
  0
LINE
  5
178
330
1F
100
AcDbEntity
  8
0
  6
HIDDEN
 62
     7
 48
2.0
370
     0
100
AcDbLine
 10
21.5343986649
 20
7.286474975
 30
0.0
 11
21.5963986649
 21
7.286474975
 31
0.0
  0
LINE
  5
179
330
1F
100
AcDbEntity
  8
0
  6
HIDDEN
 62
     7
 48
2.0
370
     0
100
AcDbLine
 10
24.4723986649
 20
12.786474975
 30
0.0
 11
24.4723986649
 21
6.786474975
 31
0.0
  0
LINE
  5
17A
330
1F
100
AcDbEntity
  8
0
  6
HIDDEN
 62
     7
 48
2.0
370
     0
100
AcDbLine
 10
21.5963986649
 20
12.786474975
 30
0.0
 11
21.5963986649
 21
6.786474975
 31
0.0
  0
LINE
  5
17B
330
1F
100
AcDbEntity
  8
0
  6
HIDDEN
 62
     7
 48
2.0
370
     0
100
AcDbLine
 10
24.3023986649
 20
10.786474975
 30
0.0
 11
24.3023986649
 21
11.0835326886
 31
0.0
  0
LINE
  5
17C
330
1F
100
AcDbEntity
  8
0
  6
HIDDEN
 62
     7
 48
2.0
370
     0
100
AcDbLine
 10
24.3023986649
 20
10.4894172613
 30
0.0
 11
24.3023986649
 21
10.786474975
 31
0.0
  0
LINE
  5
17D
330
1F
100
AcDbEntity
  8
0
  6
HIDDEN
 62
     7
 48
2.0
370
     0
100
AcDbLine
 10
24.3643986649
 20
10.4894172613
 30
0.0
 11
24.3643986649
 21
11.0835326842
 31
0.0
  0
LINE
  5
17E
330
1F
100
AcDbEntity
  8
0
  6
HIDDEN
 62
     7
 48
2.0
370
     0
100
AcDbLine
 10
24.4303514209
 20
10.786474975
 30
0.0
 11
24.4303514209
 21
10.933474975
 31
0.0
  0
LINE
  5
17F
330
1F
100
AcDbEntity
  8
0
  6
HIDDEN
 62
     7
 48
2.0
370
     0
100
AcDbLine
 10
24.4303514209
 20
10.639474975
 30
0.0
 11
24.4303514209
 21
10.786474975
 31
0.0
  0
ARC
  5
180
330
1F
100
AcDbEntity
  8
0
  6
HIDDEN
 62
     7
 48
4.0
370
     0
100
AcDbCircle
 10
21.4879535484
 20
9.7844515229
 30
0.0
 40
0.1503258275122904
100
AcDbArc
 50
126.5391446664
 51
163.4908290318
  0
ARC
  5
181
330
1F
100
AcDbEntity
  8
0
  6
HIDDEN
 62
     7
 48
4.0
370
     0
100
AcDbCircle
 10
21.4879535484
 20
9.7623670658
 30
0.0
 40
0.150325827512301
100
AcDbArc
 50
126.5391446664
 51
163.4908290318
  0
ARC
  5
182
330
1F
100
AcDbEntity
  8
0
  6
HIDDEN
 62
     7
 48
4.0
370
     0
100
AcDbCircle
 10
21.5704104411
 20
9.7861680129
 30
0.0
 40
0.2273737172289839
100
AcDbArc
 50
175.2276078317
 51
179.928430101
  0
ARC
  5
183
330
1F
100
AcDbEntity
  8
0
  6
HIDDEN
 62
     7
 48
4.0
370
     0
100
AcDbCircle
 10
21.3462876264
 20
9.7624994126
 30
0.0
 40
0.0171738548215133
100
AcDbArc
 50
259.0891355385
 51
271.4891815128
  0
LINE
  5
184
330
1F
100
AcDbEntity
  8
0
  6
HIDDEN
 62
     7
 48
2.0
370
     0
100
AcDbLine
 10
21.3984537831
 20
9.7678649721
 30
0.0
 11
21.3984537831
 21
9.6898035547
 31
0.0
  0
LINE
  5
185
330
1F
100
AcDbEntity
  8
0
  6
HIDDEN
 62
     7
 48
2.0
370
     0
100
AcDbLine
 10
21.3984537831
 20
9.745780515
 30
0.0
 11
21.3520267417
 21
9.745780515
 31
0.0
  0
LINE
  5
186
330
1F
100
AcDbEntity
  8
0
  6
HIDDEN
 62
     7
 48
2.0
370
     0
100
AcDbLine
 10
21.7469783547
 20
9.717474975
 30
0.0
 11
21.7469783547
 21
9.855474975
 31
0.0
  0
LINE
  5
187
330
1F
100
AcDbEntity
  8
0
  6
HIDDEN
 62
     7
 48
2.0
370
     0
100
AcDbLine
 10
21.7843986649
 20
9.732974975
 30
0.0
 11
21.7843986649
 21
9.839974975
 31
0.0
  0
LINE
  5
188
330
1F
100
AcDbEntity
  8
0
  6
HIDDEN
 62
     7
 48
2.0
370
     0
100
AcDbLine
 10
21.3438250141
 20
9.7678649721
 30
0.0
 11
21.3984537831
 21
9.7678649721
 31
0.0
  0
LINE
  5
189
330
1F
100
AcDbEntity
  8
0
  6
HIDDEN
 62
     7
 48
2.0
370
     0
100
AcDbLine
 10
21.3993986649
 20
9.8276185916
 30
0.0
 11
21.3993986649
 21
9.7459452812
 31
0.0
  0
LINE
  5
18A
330
1F
100
AcDbEntity
  8
0
  6
HIDDEN
 62
     7
 48
2.0
370
     0
100
AcDbLine
 10
21.3993986649
 20
9.7459452812
 30
0.0
 11
21.3993986649
 21
9.7453313583
 31
0.0
  0
LINE
  5
18B
330
1F
100
AcDbEntity
  8
0
  6
HIDDEN
 62
     7
 48
2.0
370
     0
100
AcDbLine
 10
21.3993986649
 20
9.7459452812
 30
0.0
 11
21.3984537831
 21
9.7459452812
 31
0.0
  0
LINE
  5
18C
330
1F
100
AcDbEntity
  8
0
  6
HIDDEN
 62
     7
 48
2.0
370
     0
100
AcDbLine
 10
21.3993986649
 20
9.8270046687
 30
0.0
 11
21.3984537831
 21
9.8270046687
 31
0.0
  0
LINE
  5
18D
330
1F
100
AcDbEntity
  8
0
  6
HIDDEN
 62
     7
 48
2.0
370
     0
100
AcDbLine
 10
21.3984537831
 20
9.8271694349
 30
0.0
 11
21.3984537831
 21
9.8270046687
 31
0.0
  0
LINE
  5
18E
330
1F
100
AcDbEntity
  8
0
  6
HIDDEN
 62
     7
 48
2.0
370
     0
100
AcDbLine
 10
21.3984537831
 20
9.8271694349
 30
0.0
 11
21.3466524072
 21
9.8271694349
 31
0.0
  0
LINE
  5
18F
330
1F
100
AcDbEntity
  8
0
  6
HIDDEN
 62
     7
 48
2.0
370
     0
100
AcDbLine
 10
21.3993986649
 20
9.8276185916
 30
0.0
 11
21.3467339439
 21
9.8276185916
 31
0.0
  0
LINE
  5
190
330
1F
100
AcDbEntity
  8
0
  6
HIDDEN
 62
     7
 48
2.0
370
     0
100
AcDbLine
 10
21.3438250141
 20
9.8050849778
 30
0.0
 11
21.3984537831
 21
9.8050849778
 31
0.0
  0
LINE
  5
191
330
1F
100
AcDbEntity
  8
0
  6
HIDDEN
 62
     7
 48
2.0
370
     0
100
AcDbLine
 10
21.3984537831
 20
9.8270046687
 30
0.0
 11
21.3984537831
 21
9.8050849778
 31
0.0
  0
LINE
  5
192
330
1F
100
AcDbEntity
  8
0
  6
HIDDEN
 62
     7
 48
2.0
370
     0
100
AcDbLine
 10
21.3993986649
 20
9.7453313583
 30
0.0
 11
21.3467339439
 21
9.7453313583
 31
0.0
  0
LINE
  5
193
330
1F
100
AcDbEntity
  8
0
  6
HIDDEN
 62
     7
 48
2.0
370
     0
100
AcDbLine
 10
21.3984537831
 20
9.9052308524
 30
0.0
 11
21.3984537831
 21
9.8271694349
 31
0.0
  0
LINE
  5
194
330
1F
100
AcDbEntity
  8
0
  6
HIDDEN
 62
     7
 48
2.0
370
     0
100
AcDbLine
 10
21.4723986649
 20
9.311474975
 30
0.0
 11
21.5343986649
 21
9.311474975
 31
0.0
  0
LINE
  5
195
330
1F
100
AcDbEntity
  8
0
  6
HIDDEN
 62
     7
 48
2.0
370
     0
100
AcDbLine
 10
21.5343986649
 20
9.911474975
 30
0.0
 11
21.4723986649
 21
9.911474975
 31
0.0
  0
LINE
  5
196
330
1F
100
AcDbEntity
  8
0
  6
HIDDEN
 62
     7
 48
2.0
370
     0
100
AcDbLine
 10
21.5343986649
 20
9.701474975
 30
0.0
 11
21.5963986649
 21
9.701474975
 31
0.0
  0
LINE
  5
197
330
1F
100
AcDbEntity
  8
0
  6
HIDDEN
 62
     7
 48
2.0
370
     0
100
AcDbLine
 10
21.5963986649
 20
9.871474975
 30
0.0
 11
21.5343986649
 21
9.871474975
 31
0.0
  0
LINE
  5
198
330
1F
100
AcDbEntity
  8
0
  6
HIDDEN
 62
     7
 48
2.0
370
     0
100
AcDbLine
 10
24.5343986649
 20
8.426974975
 30
0.0
 11
24.4723986649
 21
8.426974975
 31
0.0
  0
LINE
  5
199
330
1F
100
AcDbEntity
  8
0
  6
HIDDEN
 62
     7
 48
2.0
370
     0
100
AcDbLine
 10
24.4723986649
 20
8.145974975
 30
0.0
 11
24.5343986649
 21
8.145974975
 31
0.0
  0
LINE
  5
19A
330
1F
100
AcDbEntity
  8
0
  6
HIDDEN
 62
     7
 48
2.0
370
     0
100
AcDbLine
 10
24.5343986649
 20
11.426974975
 30
0.0
 11
24.4723986649
 21
11.426974975
 31
0.0
  0
LINE
  5
19B
330
1F
100
AcDbEntity
  8
0
  6
HIDDEN
 62
     7
 48
2.0
370
     0
100
AcDbLine
 10
24.4723986649
 20
11.145974975
 30
0.0
 11
24.5343986649
 21
11.145974975
 31
0.0
  0
LINE
  5
19C
330
1F
100
AcDbEntity
  8
0
  6
HIDDEN
 62
     7
 48
2.0
370
     0
100
AcDbLine
 10
24.4723986649
 20
11.4280878249
 30
0.0
 11
24.3274519144
 21
11.1770326886
 31
0.0
  0
LINE
  5
19D
330
1F
100
AcDbEntity
  8
0
  6
HIDDEN
 62
     7
 48
2.0
370
     0
100
AcDbLine
 10
24.3274519144
 20
10.3959172613
 30
0.0
 11
24.4723986649
 21
10.144862125
 31
0.0
  0
LINE
  5
19E
330
1F
100
AcDbEntity
  8
0
  6
HIDDEN
 62
     7
 48
2.0
370
     0
100
AcDbLine
 10
24.5343986649
 20
11.411474975
 30
0.0
 11
24.3811454895
 21
11.1460326886
 31
0.0
  0
LINE
  5
19F
330
1F
100
AcDbEntity
  8
0
  6
HIDDEN
 62
     7
 48
2.0
370
     0
100
AcDbLine
 10
24.3811454895
 20
10.4269172613
 30
0.0
 11
24.5343986649
 21
10.161474975
 31
0.0
  0
ARC
  5
1A0
330
1F
100
AcDbEntity
  8
0
  6
HIDDEN
 62
     7
 48
4.0
370
     0
100
AcDbCircle
 10
24.4893986649
 20
10.4894172613
 30
0.0
 40
0.1869999999999976
100
AcDbArc
 50
180.0
 51
210.0
  0
ARC
  5
1A1
330
1F
100
AcDbEntity
  8
0
  6
HIDDEN
 62
     7
 48
4.0
370
     0
100
AcDbCircle
 10
24.4893986649
 20
11.0835326886
 30
0.0
 40
0.1869999999999976
100
AcDbArc
 50
150.0
 51
180.0
  0
ARC
  5
1A2
330
1F
100
AcDbEntity
  8
0
  6
HIDDEN
 62
     7
 48
4.0
370
     0
100
AcDbCircle
 10
24.4893986649
 20
10.4894172613
 30
0.0
 40
0.1249999999999988
100
AcDbArc
 50
180.0
 51
210.0
  0
ARC
  5
1A3
330
1F
100
AcDbEntity
  8
0
  6
HIDDEN
 62
     7
 48
4.0
370
     0
100
AcDbCircle
 10
24.4893986649
 20
11.0835326886
 30
0.0
 40
0.1249999999999988
100
AcDbArc
 50
150.0
 51
180.0
  0
ARC
  5
1A4
330
1F
100
AcDbEntity
  8
0
  6
HIDDEN
 62
     7
 48
4.0
370
     0
100
AcDbCircle
 10
24.3811388224
 20
10.9502151324
 30
0.0
 40
0.0787401574803148
100
AcDbArc
 50
180.0
 51
270.0
  0
ARC
  5
1A5
330
1F
100
AcDbEntity
  8
0
  6
HIDDEN
 62
     7
 48
4.0
370
     0
100
AcDbCircle
 10
24.3811388224
 20
10.6227348175
 30
0.0
 40
0.0787401574803166
100
AcDbArc
 50
90.0
 51
180.0
  0
ARC
  5
1A6
330
1F
100
AcDbEntity
  8
0
  6
HIDDEN
 62
     7
 48
4.0
370
     0
100
AcDbCircle
 10
24.3811388224
 20
10.9502151324
 30
0.0
 40
0.0167401574803154
100
AcDbArc
 50
180.0
 51
270.0
  0
ARC
  5
1A7
330
1F
100
AcDbEntity
  8
0
  6
HIDDEN
 62
     7
 48
4.0
370
     0
100
AcDbCircle
 10
24.3811388224
 20
10.6227348175
 30
0.0
 40
0.0167401574803154
100
AcDbArc
 50
90.0
 51
180.0
  0
LINE
  5
1A8
330
1F
100
AcDbEntity
  8
0
  6
HIDDEN
 62
     7
 48
2.0
370
     0
100
AcDbLine
 10
24.3811388224
 20
10.639474975
 30
0.0
 11
24.4303514209
 21
10.639474975
 31
0.0
  0
LINE
  5
1A9
330
1F
100
AcDbEntity
  8
0
  6
HIDDEN
 62
     7
 48
2.0
370
     0
100
AcDbLine
 10
24.4303514209
 20
10.933474975
 30
0.0
 11
24.3811388224
 21
10.933474975
 31
0.0
  0
LINE
  5
1AA
330
1F
100
AcDbEntity
  8
0
  6
HIDDEN
 62
     7
 48
2.0
370
     0
100
AcDbLine
 10
24.3811388224
 20
10.701474975
 30
0.0
 11
24.4303514209
 21
10.701474975
 31
0.0
  0
LINE
  5
1AB
330
1F
100
AcDbEntity
  8
0
  6
HIDDEN
 62
     7
 48
2.0
370
     0
100
AcDbLine
 10
24.4303514209
 20
10.871474975
 30
0.0
 11
24.3811388224
 21
10.871474975
 31
0.0
  0
LINE
  5
1AC
330
1F
100
AcDbEntity
  8
0
  6
HIDDEN
 62
     7
 48
2.0
370
     0
100
AcDbLine
 10
21.4723986649
 20
9.717474975
 30
0.0
 11
21.7469783547
 21
9.717474975
 31
0.0
  0
LINE
  5
1AD
330
1F
100
AcDbEntity
  8
0
  6
HIDDEN
 62
     7
 48
2.0
370
     0
100
AcDbLine
 10
21.7469783547
 20
9.855474975
 30
0.0
 11
21.4723986649
 21
9.855474975
 31
0.0
  0
LINE
  5
1AE
330
1F
100
AcDbEntity
  8
0
  6
HIDDEN
 62
     7
 48
2.0
370
     0
100
AcDbLine
 10
21.7469783547
 20
9.717474975
 30
0.0
 11
21.7843986649
 21
9.732974975
 31
0.0
  0
LINE
  5
1AF
330
1F
100
AcDbEntity
  8
0
  6
HIDDEN
 62
     7
 48
2.0
370
     0
100
AcDbLine
 10
21.7843986649
 20
9.839974975
 30
0.0
 11
21.7469783547
 21
9.855474975
 31
0.0
  0
LINE
  5
1B0
330
1F
100
AcDbEntity
  8
0
  6
Continuous
 62
     7
 48
2.0
370
    15
100
AcDbLine
 10
5.0067015587
 20
9.972974975
 30
0.0
 11
4.9733702468
 21
9.972974975
 31
0.0
  0
LINE
  5
1B1
330
1F
100
AcDbEntity
  8
0
  6
Continuous
 62
     7
 48
2.0
370
    15
100
AcDbLine
 10
4.9733702468
 20
9.599974975
 30
0.0
 11
5.0067015587
 21
9.599974975
 31
0.0
  0
ARC
  5
1B2
330
1F
100
AcDbEntity
  8
0
  6
Continuous
 62
     7
 48
4.0
370
    15
100
AcDbCircle
 10
5.0067015587
 20
9.957974975
 30
0.0
 40
0.0149999999999997
100
AcDbArc
 50
52.550643686
 51
90.0
  0
ARC
  5
1B3
330
1F
100
AcDbEntity
  8
0
  6
Continuous
 62
     7
 48
4.0
370
    15
100
AcDbCircle
 10
5.0067015587
 20
9.614974975
 30
0.0
 40
0.0150000000000006
100
AcDbArc
 50
270.0
 51
307.449356314
  0
ARC
  5
1B4
330
1F
100
AcDbEntity
  8
0
  6
Continuous
 62
     7
 48
4.0
370
    15
100
AcDbCircle
 10
4.8753456598
 20
9.786474975
 30
0.0
 40
0.2310245869783039
100
AcDbArc
 50
10.1818657166
 51
52.550643686
  0
ARC
  5
1B5
330
1F
100
AcDbEntity
  8
0
  6
Continuous
 62
     7
 48
4.0
370
    15
100
AcDbCircle
 10
4.8753456598
 20
9.786474975
 30
0.0
 40
0.2310245869783039
100
AcDbArc
 50
307.449356314
 51
349.8181342834
  0
LINE
  5
1B6
330
1F
100
AcDbEntity
  8
0
  6
Continuous
 62
     7
 48
2.0
370
    15
100
AcDbLine
 10
4.9113702468
 20
12.786474975
 30
0.0
 11
4.9733702468
 21
12.786474975
 31
0.0
  0
LINE
  5
1B7
330
1F
100
AcDbEntity
  8
0
  6
Continuous
 62
     7
 48
2.0
370
    15
100
AcDbLine
 10
4.9733702468
 20
12.786474975
 30
0.0
 11
4.9733702468
 21
6.786474975
 31
0.0
  0
LINE
  5
1B8
330
1F
100
AcDbEntity
  8
0
  6
Continuous
 62
     7
 48
2.0
370
    15
100
AcDbLine
 10
4.9113702468
 20
12.786474975
 30
0.0
 11
4.9113702468
 21
6.786474975
 31
0.0
  0
LINE
  5
1B9
330
1F
100
AcDbEntity
  8
0
  6
Continuous
 62
     7
 48
2.0
370
    15
100
AcDbLine
 10
4.9113702468
 20
6.786474975
 30
0.0
 11
4.9733702468
 21
6.786474975
 31
0.0
  0
LINE
  5
1BA
330
1F
100
AcDbEntity
  8
0
  6
Continuous
 62
     7
 48
2.0
370
    15
100
AcDbLine
 10
1.9113702468
 20
12.786474975
 30
0.0
 11
1.9113702468
 21
6.786474975
 31
0.0
  0
LINE
  5
1BB
330
1F
100
AcDbEntity
  8
0
  6
Continuous
 62
     7
 48
2.0
370
    15
100
AcDbLine
 10
1.9113702468
 20
12.786474975
 30
0.0
 11
1.9883702468
 21
12.786474975
 31
0.0
  0
LINE
  5
1BC
330
1F
100
AcDbEntity
  8
0
  6
Continuous
 62
     7
 48
2.0
370
    15
100
AcDbLine
 10
1.9113702468
 20
6.786474975
 30
0.0
 11
1.9883702468
 21
6.786474975
 31
0.0
  0
LINE
  5
1BD
330
1F
100
AcDbEntity
  8
0
  6
Continuous
 62
     7
 48
2.0
370
    15
100
AcDbLine
 10
1.9883702468
 20
6.786474975
 30
0.0
 11
4.8343702468
 21
6.786474975
 31
0.0
  0
LINE
  5
1BE
330
1F
100
AcDbEntity
  8
0
  6
Continuous
 62
     7
 48
2.0
370
    15
100
AcDbLine
 10
1.9883702468
 20
12.786474975
 30
0.0
 11
4.8343702468
 21
12.786474975
 31
0.0
  0
LINE
  5
1BF
330
1F
100
AcDbEntity
  8
0
  6
Continuous
 62
     7
 48
2.0
370
    15
100
AcDbLine
 10
4.8343702468
 20
12.786474975
 30
0.0
 11
4.9113702468
 21
12.786474975
 31
0.0
  0
LINE
  5
1C0
330
1F
100
AcDbEntity
  8
0
  6
Continuous
 62
     7
 48
2.0
370
    15
100
AcDbLine
 10
4.8343702468
 20
6.786474975
 30
0.0
 11
4.9113702468
 21
6.786474975
 31
0.0
  0
ARC
  5
1C1
330
1F
100
AcDbEntity
  8
0
  6
Continuous
 62
     7
 48
4.0
370
    15
100
AcDbCircle
 10
4.9578153633
 20
9.8105828841
 30
0.0
 40
0.1503258275123451
100
AcDbArc
 50
306.5391446664
 51
343.4908290318
  0
LINE
  5
1C2
330
1F
100
AcDbEntity
  8
0
  6
Continuous
 62
     7
 48
2.0
370
    15
100
AcDbLine
 10
5.0473151287
 20
9.6677190976
 30
0.0
 11
5.0473151287
 21
9.6898035547
 31
0.0
  0
ARC
  5
1C3
330
1F
100
AcDbEntity
  8
0
  6
Continuous
 62
     7
 48
4.0
370
    15
100
AcDbCircle
 10
4.9578153633
 20
9.788498427
 30
0.0
 40
0.1503258275123472
100
AcDbArc
 50
306.5391446664
 51
343.4908290318
  0
ARC
  5
1C4
330
1F
100
AcDbEntity
  8
0
  6
Continuous
 62
     7
 48
4.0
370
    15
100
AcDbCircle
 10
5.1020939019
 20
9.7443773423
 30
0.0
 40
0.0014111679302097
100
AcDbArc
 50
63.1174156982
 51
96.1019511344
  0
ARC
  5
1C5
330
1F
100
AcDbEntity
  8
0
  6
Continuous
 62
     7
 48
4.0
370
    15
100
AcDbCircle
 10
4.8753583262
 20
9.7861680204
 30
0.0
 40
0.2273738616139751
100
AcDbArc
 50
349.6534571083
 51
0.0773567869
  0
LWPOLYLINE
  5
1C6
330
1F
100
AcDbEntity
  8
0
  6
Continuous
 62
     7
 48
2.0
370
    15
100
AcDbPolyline
 90
        9
 70
   128
 43
0.0
 10
5.1019438976
 20
9.8271694349
 10
5.1024445013
 20
9.8272256811
 10
5.1026980644
 20
9.8272820208
 10
5.102704311
 20
9.8273383927
 10
5.1024632344
 20
9.8273947355
 10
5.1019750967
 20
9.8274509879
 10
5.1012404291
 20
9.8275070887
 10
5.1002600306
 20
9.8275629769
 10
5.0990349678
 20
9.8276185916
  0
ARC
  5
1C7
330
1F
100
AcDbEntity
  8
0
  6
Continuous
 62
     7
 48
4.0
370
    15
100
AcDbCircle
 10
4.8753583964
 20
9.7867819372
 30
0.0
 40
0.2273737912213606
100
AcDbArc
 50
355.2276093396
 51
10.3465441733
  0
LINE
  5
1C8
330
1F
100
AcDbEntity
  8
0
  6
Continuous
 62
     7
 48
2.0
370
    15
100
AcDbLine
 10
5.1019438976
 20
9.745780515
 30
0.0
 11
5.09374217
 21
9.745780515
 31
0.0
  0
LINE
  5
1C9
330
1F
100
AcDbEntity
  8
0
  6
Continuous
 62
     7
 48
2.0
370
    15
100
AcDbLine
 10
5.1019438976
 20
9.8271694349
 30
0.0
 11
5.0991165045
 21
9.8271694349
 31
0.0
  0
LINE
  5
1CA
330
1F
100
AcDbEntity
  8
0
  6
Continuous
 62
     7
 48
2.0
370
    15
100
AcDbLine
 10
11.388862635
 20
5.110592831
 30
0.0
 11
11.388862635
 21
5.0772615191
 31
0.0
  0
LINE
  5
1CB
330
1F
100
AcDbEntity
  8
0
  6
Continuous
 62
     7
 48
2.0
370
    15
100
AcDbLine
 10
11.761862635
 20
5.0772615191
 30
0.0
 11
11.761862635
 21
5.110592831
 31
0.0
  0
ARC
  5
1CC
330
1F
100
AcDbEntity
  8
0
  6
Continuous
 62
     7
 48
4.0
370
    15
100
AcDbCircle
 10
11.403862635
 20
5.110592831
 30
0.0
 40
0.0150000000000011
100
AcDbArc
 50
142.550643686
 51
180.0
  0
ARC
  5
1CD
330
1F
100
AcDbEntity
  8
0
  6
Continuous
 62
     7
 48
4.0
370
    15
100
AcDbCircle
 10
11.746862635
 20
5.110592831
 30
0.0
 40
0.0150000000000011
100
AcDbArc
 50
0.0
 51
37.449356314
  0
ARC
  5
1CE
330
1F
100
AcDbEntity
  8
0
  6
Continuous
 62
     7
 48
4.0
370
    15
100
AcDbCircle
 10
11.575362635
 20
4.9792369321
 30
0.0
 40
0.2310245869783061
100
AcDbArc
 50
100.1818657166
 51
142.550643686
  0
ARC
  5
1CF
330
1F
100
AcDbEntity
  8
0
  6
Continuous
 62
     7
 48
4.0
370
    15
100
AcDbCircle
 10
11.575362635
 20
4.9792369321
 30
0.0
 40
0.2310245869783036
100
AcDbArc
 50
37.449356314
 51
79.8181342834
  0
LINE
  5
1D0
330
1F
100
AcDbEntity
  8
0
  6
Continuous
 62
     7
 48
2.0
370
    15
100
AcDbLine
 10
11.506362635
 20
4.9532615191
 30
0.0
 11
11.506362635
 21
4.8762615191
 31
0.0
  0
LINE
  5
1D1
330
1F
100
AcDbEntity
  8
0
  6
Continuous
 62
     7
 48
2.0
370
    15
100
AcDbLine
 10
11.644362635
 20
4.8762615191
 30
0.0
 11
11.644362635
 21
4.9532615191
 31
0.0
  0
LINE
  5
1D2
330
1F
100
AcDbEntity
  8
0
  6
Continuous
 62
     7
 48
2.0
370
    15
100
AcDbLine
 10
5.888862635
 20
5.110592831
 30
0.0
 11
5.888862635
 21
5.0772615191
 31
0.0
  0
LINE
  5
1D3
330
1F
100
AcDbEntity
  8
0
  6
Continuous
 62
     7
 48
2.0
370
    15
100
AcDbLine
 10
6.261862635
 20
5.0772615191
 30
0.0
 11
6.261862635
 21
5.110592831
 31
0.0
  0
ARC
  5
1D4
330
1F
100
AcDbEntity
  8
0
  6
Continuous
 62
     7
 48
4.0
370
    15
100
AcDbCircle
 10
5.903862635
 20
5.110592831
 30
0.0
 40
0.0150000000000015
100
AcDbArc
 50
142.550643686
 51
180.0
  0
ARC
  5
1D5
330
1F
100
AcDbEntity
  8
0
  6
Continuous
 62
     7
 48
4.0
370
    15
100
AcDbCircle
 10
6.246862635
 20
5.110592831
 30
0.0
 40
0.0149999999999997
100
AcDbArc
 50
0.0
 51
37.449356314
  0
ARC
  5
1D6
330
1F
100
AcDbEntity
  8
0
  6
Continuous
 62
     7
 48
4.0
370
    15
100
AcDbCircle
 10
6.075362635
 20
4.9792369321
 30
0.0
 40
0.2310245869783046
100
AcDbArc
 50
100.1818657166
 51
142.550643686
  0
ARC
  5
1D7
330
1F
100
AcDbEntity
  8
0
  6
Continuous
 62
     7
 48
4.0
370
    15
100
AcDbCircle
 10
6.075362635
 20
4.9792369321
 30
0.0
 40
0.2310245869783039
100
AcDbArc
 50
37.449356314
 51
79.8181342834
  0
LINE
  5
1D8
330
1F
100
AcDbEntity
  8
0
  6
Continuous
 62
     7
 48
2.0
370
    15
100
AcDbLine
 10
6.006362635
 20
4.9532615191
 30
0.0
 11
6.006362635
 21
4.8762615191
 31
0.0
  0
LINE
  5
1D9
330
1F
100
AcDbEntity
  8
0
  6
Continuous
 62
     7
 48
2.0
370
    15
100
AcDbLine
 10
6.144362635
 20
4.8762615191
 30
0.0
 11
6.144362635
 21
4.9532615191
 31
0.0
  0
LINE
  5
1DA
330
1F
100
AcDbEntity
  8
0
  6
Continuous
 62
     7
 48
2.0
370
    15
100
AcDbLine
 10
11.825362635
 20
5.0152615191
 30
0.0
 11
11.825362635
 21
5.0772615191
 31
0.0
  0
LINE
  5
1DB
330
1F
100
AcDbEntity
  8
0
  6
Continuous
 62
     7
 48
2.0
370
    15
100
AcDbLine
 10
5.825362635
 20
5.0152615191
 30
0.0
 11
5.825362635
 21
5.0772615191
 31
0.0
  0
LINE
  5
1DC
330
1F
100
AcDbEntity
  8
0
  6
Continuous
 62
     7
 48
2.0
370
    15
100
AcDbLine
 10
5.825362635
 20
5.0772615191
 30
0.0
 11
11.825362635
 21
5.0772615191
 31
0.0
  0
LINE
  5
1DD
330
1F
100
AcDbEntity
  8
0
  6
Continuous
 62
     7
 48
2.0
370
    15
100
AcDbLine
 10
5.825362635
 20
5.0152615191
 30
0.0
 11
11.825362635
 21
5.0152615191
 31
0.0
  0
LINE
  5
1DE
330
1F
100
AcDbEntity
  8
0
  6
Continuous
 62
     7
 48
2.0
370
    15
100
AcDbLine
 10
6.356362635
 20
4.8762615191
 30
0.0
 11
5.964362635
 21
4.8762615191
 31
0.0
  0
LINE
  5
1DF
330
1F
100
AcDbEntity
  8
0
  6
Continuous
 62
     7
 48
2.0
370
    15
100
AcDbLine
 10
6.356362635
 20
4.9382615191
 30
0.0
 11
6.356362635
 21
4.8762615191
 31
0.0
  0
LINE
  5
1E0
330
1F
100
AcDbEntity
  8
0
  6
Continuous
 62
     7
 48
2.0
370
    15
100
AcDbLine
 10
11.294362635
 20
4.9382615191
 30
0.0
 11
11.294362635
 21
4.8762615191
 31
0.0
  0
LINE
  5
1E1
330
1F
100
AcDbEntity
  8
0
  6
Continuous
 62
     7
 48
2.0
370
    15
100
AcDbLine
 10
11.294362635
 20
4.8762615191
 30
0.0
 11
11.686362635
 21
4.8762615191
 31
0.0
  0
LINE
  5
1E2
330
1F
100
AcDbEntity
  8
0
  6
Continuous
 62
     7
 48
2.0
370
    15
100
AcDbLine
 10
6.356362635
 20
4.9382615191
 30
0.0
 11
6.356362635
 21
5.0152615191
 31
0.0
  0
LINE
  5
1E3
330
1F
100
AcDbEntity
  8
0
  6
Continuous
 62
     7
 48
2.0
370
    15
100
AcDbLine
 10
11.294362635
 20
4.9382615191
 30
0.0
 11
11.294362635
 21
5.0152615191
 31
0.0
  0
LINE
  5
1E4
330
1F
100
AcDbEntity
  8
0
  6
Continuous
 62
     7
 48
2.0
370
    15
100
AcDbLine
 10
5.964362635
 20
2.1542615191
 30
0.0
 11
5.887362635
 21
2.1542615191
 31
0.0
  0
LINE
  5
1E5
330
1F
100
AcDbEntity
  8
0
  6
Continuous
 62
     7
 48
2.0
370
    15
100
AcDbLine
 10
5.887362635
 20
4.8762615191
 30
0.0
 11
5.964362635
 21
4.8762615191
 31
0.0
  0
LINE
  5
1E6
330
1F
100
AcDbEntity
  8
0
  6
Continuous
 62
     7
 48
2.0
370
    15
100
AcDbLine
 10
11.686362635
 20
2.1542615191
 30
0.0
 11
11.763362635
 21
2.1542615191
 31
0.0
  0
LINE
  5
1E7
330
1F
100
AcDbEntity
  8
0
  6
Continuous
 62
     7
 48
2.0
370
    15
100
AcDbLine
 10
11.763362635
 20
4.8762615191
 30
0.0
 11
11.686362635
 21
4.8762615191
 31
0.0
  0
LINE
  5
1E8
330
1F
100
AcDbEntity
  8
0
  6
Continuous
 62
     7
 48
2.0
370
    15
100
AcDbLine
 10
11.686362635
 20
2.0772615191
 30
0.0
 11
11.686362635
 21
2.1542615191
 31
0.0
  0
LINE
  5
1E9
330
1F
100
AcDbEntity
  8
0
  6
Continuous
 62
     7
 48
2.0
370
    15
100
AcDbLine
 10
5.964362635
 20
2.0772615191
 30
0.0
 11
5.964362635
 21
2.1542615191
 31
0.0
  0
LINE
  5
1EA
330
1F
100
AcDbEntity
  8
0
  6
Continuous
 62
     7
 48
2.0
370
    15
100
AcDbLine
 10
5.887362635
 20
2.0922615191
 30
0.0
 11
5.887362635
 21
4.9382615191
 31
0.0
  0
LINE
  5
1EB
330
1F
100
AcDbEntity
  8
0
  6
Continuous
 62
     7
 48
2.0
370
    15
100
AcDbLine
 10
5.825362635
 20
2.0922615191
 30
0.0
 11
5.825362635
 21
4.9382615191
 31
0.0
  0
LINE
  5
1EC
330
1F
100
AcDbEntity
  8
0
  6
Continuous
 62
     7
 48
2.0
370
    15
100
AcDbLine
 10
11.825362635
 20
4.9382615191
 30
0.0
 11
11.825362635
 21
2.0922615191
 31
0.0
  0
LINE
  5
1ED
330
1F
100
AcDbEntity
  8
0
  6
Continuous
 62
     7
 48
2.0
370
    15
100
AcDbLine
 10
11.763362635
 20
4.9382615191
 30
0.0
 11
11.763362635
 21
2.0922615191
 31
0.0
  0
ARC
  5
1EE
330
1F
100
AcDbEntity
  8
0
  6
Continuous
 62
     7
 48
4.0
370
    15
100
AcDbCircle
 10
5.902362635
 20
2.0922615191
 30
0.0
 40
0.077
100
AcDbArc
 50
180.0
 51
270.0
  0
ARC
  5
1EF
330
1F
100
AcDbEntity
  8
0
  6
Continuous
 62
     7
 48
4.0
370
    15
100
AcDbCircle
 10
5.902362635
 20
2.0922615191
 30
0.0
 40
0.0149999999999997
100
AcDbArc
 50
180.0
 51
270.0
  0
LINE
  5
1F0
330
1F
100
AcDbEntity
  8
0
  6
Continuous
 62
     7
 48
2.0
370
    15
100
AcDbLine
 10
11.748362635
 20
2.0152615191
 30
0.0
 11
5.902362635
 21
2.0152615191
 31
0.0
  0
LINE
  5
1F1
330
1F
100
AcDbEntity
  8
0
  6
Continuous
 62
     7
 48
2.0
370
    15
100
AcDbLine
 10
11.748362635
 20
2.0772615191
 30
0.0
 11
5.902362635
 21
2.0772615191
 31
0.0
  0
ARC
  5
1F2
330
1F
100
AcDbEntity
  8
0
  6
Continuous
 62
     7
 48
4.0
370
    15
100
AcDbCircle
 10
11.748362635
 20
2.0922615191
 30
0.0
 40
0.077
100
AcDbArc
 50
270.0
 51
0.0
  0
ARC
  5
1F3
330
1F
100
AcDbEntity
  8
0
  6
Continuous
 62
     7
 48
4.0
370
    15
100
AcDbCircle
 10
11.748362635
 20
2.0922615191
 30
0.0
 40
0.0150000000000006
100
AcDbArc
 50
270.0
 51
0.0
  0
ARC
  5
1F4
330
1F
100
AcDbEntity
  8
0
  6
Continuous
 62
     7
 48
4.0
370
    15
100
AcDbCircle
 10
11.748362635
 20
4.9382615191
 30
0.0
 40
0.0150000000000006
100
AcDbArc
 50
360.0
 51
90.0
  0
ARC
  5
1F5
330
1F
100
AcDbEntity
  8
0
  6
Continuous
 62
     7
 48
4.0
370
    15
100
AcDbCircle
 10
11.748362635
 20
4.9382615191
 30
0.0
 40
0.077
100
AcDbArc
 50
360.0
 51
90.0
  0
ARC
  5
1F6
330
1F
100
AcDbEntity
  8
0
  6
Continuous
 62
     7
 48
4.0
370
    15
100
AcDbCircle
 10
5.902362635
 20
4.9382615191
 30
0.0
 40
0.077
100
AcDbArc
 50
90.0
 51
180.0
  0
ARC
  5
1F7
330
1F
100
AcDbEntity
  8
0
  6
Continuous
 62
     7
 48
4.0
370
    15
100
AcDbCircle
 10
5.902362635
 20
4.9382615191
 30
0.0
 40
0.0150000000000006
100
AcDbArc
 50
90.0
 51
180.0
  0
LINE
  5
1F8
330
1F
100
AcDbEntity
  8
0
  6
Continuous
 62
     7
 48
2.0
370
    15
100
AcDbLine
 10
11.325362635
 20
5.0152615191
 30
0.0
 11
11.748362635
 21
5.0152615191
 31
0.0
  0
LINE
  5
1F9
330
1F
100
AcDbEntity
  8
0
  6
Continuous
 62
     7
 48
2.0
370
    15
100
AcDbLine
 10
11.325362635
 20
5.0152615191
 30
0.0
 11
11.325362635
 21
4.9532615191
 31
0.0
  0
LINE
  5
1FA
330
1F
100
AcDbEntity
  8
0
  6
Continuous
 62
     7
 48
2.0
370
    15
100
AcDbLine
 10
11.325362635
 20
4.9532615191
 30
0.0
 11
11.748362635
 21
4.9532615191
 31
0.0
  0
LINE
  5
1FB
330
1F
100
AcDbEntity
  8
0
  6
Continuous
 62
     7
 48
2.0
370
    15
100
AcDbLine
 10
5.902362635
 20
5.0152615191
 30
0.0
 11
6.325362635
 21
5.0152615191
 31
0.0
  0
LINE
  5
1FC
330
1F
100
AcDbEntity
  8
0
  6
Continuous
 62
     7
 48
2.0
370
    15
100
AcDbLine
 10
6.325362635
 20
4.9532615191
 30
0.0
 11
6.325362635
 21
5.0152615191
 31
0.0
  0
LINE
  5
1FD
330
1F
100
AcDbEntity
  8
0
  6
Continuous
 62
     7
 48
2.0
370
    15
100
AcDbLine
 10
5.902362635
 20
4.9532615191
 30
0.0
 11
6.325362635
 21
4.9532615191
 31
0.0
  0
ARC
  5
1FE
330
1F
100
AcDbEntity
  8
0
  6
Continuous
 62
     7
 48
4.0
370
    15
100
AcDbCircle
 10
11.5183913487
 20
5.2034122822
 30
0.0
 40
0.0164487751109193
100
AcDbArc
 50
358.3067302082
 51
11.2570106392
  0
ARC
  5
1FF
330
1F
100
AcDbEntity
  8
0
  6
Continuous
 62
     7
 48
4.0
370
    15
100
AcDbCircle
 10
11.5756695957
 20
4.9792496687
 30
0.0
 40
0.2273737912213189
100
AcDbArc
 50
85.2276093396
 51
100.3465441733
  0
ARC
  5
200
330
1F
100
AcDbEntity
  8
0
  6
Continuous
 62
     7
 48
4.0
370
    15
100
AcDbCircle
 10
11.5519956854
 20
5.0592638605
 30
0.0
 40
0.1526339785896174
100
AcDbArc
 50
37.0400188158
 51
73.7971257354
  0
LINE
  5
201
330
1F
100
AcDbEntity
  8
0
  6
Continuous
 62
     7
 48
2.0
370
    15
100
AcDbLine
 10
11.695585337
 20
5.151206401
 30
0.0
 11
11.6738304122
 21
5.151206401
 31
0.0
  0
ARC
  5
202
330
1F
100
AcDbEntity
  8
0
  6
Continuous
 62
     7
 48
4.0
370
    15
100
AcDbCircle
 10
11.5737506102
 20
5.0592638605
 30
0.0
 40
0.1526339785896455
100
AcDbArc
 50
37.0400188158
 51
73.7971257354
  0
LWPOLYLINE
  5
203
330
1F
100
AcDbEntity
  8
0
  6
Continuous
 62
     7
 48
2.0
370
    15
100
AcDbPolyline
 90
        9
 70
   128
 43
0.0
 10
11.6163414855
 20
5.2058351699
 10
11.6162852393
 20
5.2063357736
 10
11.6162288996
 20
5.2065893367
 10
11.6161725277
 20
5.2065955833
 10
11.6161161849
 20
5.2063545067
 10
11.6160599325
 20
5.205866369
 10
11.6160038318
 20
5.2051317014
 10
11.6159479436
 20
5.2041513029
 10
11.6158923288
 20
5.2029262401
  0
ARC
  5
204
330
1F
100
AcDbEntity
  8
0
  6
Continuous
 62
     7
 48
4.0
370
    15
100
AcDbCircle
 10
11.5750556445
 20
4.9792494341
 30
0.0
 40
0.2273740273484895
100
AcDbArc
 50
79.6534590255
 51
84.9975709173
  0
ARC
  5
205
330
1F
100
AcDbEntity
  8
0
  6
Continuous
 62
     7
 48
4.0
370
    15
100
AcDbCircle
 10
11.5750556741
 20
4.9792497439
 30
0.0
 40
0.2273737162479779
100
AcDbArc
 50
89.9226035983
 51
94.7723921741
  0
LINE
  5
206
330
1F
100
AcDbEntity
  8
0
  6
Continuous
 62
     7
 48
2.0
370
    15
100
AcDbLine
 10
11.6163414855
 20
5.2058351699
 30
0.0
 11
11.6163414855
 21
5.1979458862
 31
0.0
  0
LINE
  5
207
330
1F
100
AcDbEntity
  8
0
  6
Continuous
 62
     7
 48
2.0
370
    15
100
AcDbLine
 10
11.6158923288
 20
5.1981547152
 30
0.0
 11
11.6158923288
 21
5.2029262401
 31
0.0
  0
LINE
  5
208
330
1F
100
AcDbEntity
  8
0
  6
Continuous
 62
     7
 48
2.0
370
    15
100
AcDbLine
 10
11.5561387093
 20
5.2057830776
 30
0.0
 11
11.5561387093
 21
5.2058351699
 31
0.0
  0
ARC
  5
209
330
1F
100
AcDbEntity
  8
0
  6
Continuous
 62
     7
 48
4.0
370
    15
100
AcDbCircle
 10
6.0769746599
 20
5.0592638605
 30
0.0
 40
0.1526339785896192
100
AcDbArc
 50
106.2028742646
 51
142.9599811842
  0
LINE
  5
20A
330
1F
100
AcDbEntity
  8
0
  6
Continuous
 62
     7
 48
2.0
370
    15
100
AcDbLine
 10
5.9768948578
 20
5.151206401
 30
0.0
 11
5.9551399331
 21
5.151206401
 31
0.0
  0
ARC
  5
20B
330
1F
100
AcDbEntity
  8
0
  6
Continuous
 62
     7
 48
4.0
370
    15
100
AcDbCircle
 10
6.0987295847
 20
5.0592638605
 30
0.0
 40
0.1526339785896292
100
AcDbArc
 50
106.2028742646
 51
142.9599811842
  0
ARC
  5
20C
330
1F
100
AcDbEntity
  8
0
  6
Continuous
 62
     7
 48
4.0
370
    15
100
AcDbCircle
 10
6.0750556744
 20
4.9792496687
 30
0.0
 40
0.2273737912213647
100
AcDbArc
 50
79.6534558267
 51
94.7723906604
  0
ARC
  5
20D
330
1F
100
AcDbEntity
  8
0
  6
Continuous
 62
     7
 48
4.0
370
    15
100
AcDbCircle
 10
6.1323339214
 20
5.2034122822
 30
0.0
 40
0.0164487751106448
100
AcDbArc
 50
168.7429893607
 51
181.6932697919
  0
ARC
  5
20E
330
1F
100
AcDbEntity
  8
0
  6
Continuous
 62
     7
 48
4.0
370
    15
100
AcDbCircle
 10
6.0756695959
 20
4.9792497439
 30
0.0
 40
0.2273737162848854
100
AcDbArc
 50
85.2276078261
 51
90.0716634497
  0
ARC
  5
20F
330
1F
100
AcDbEntity
  8
0
  6
Continuous
 62
     7
 48
4.0
370
    15
100
AcDbCircle
 10
6.0756696256
 20
4.9792494341
 30
0.0
 40
0.2273740273477149
100
AcDbArc
 50
95.0024290842
 51
100.3465409745
  0
LWPOLYLINE
  5
210
330
1F
100
AcDbEntity
  8
0
  6
Continuous
 62
     7
 48
2.0
370
    15
100
AcDbPolyline
 90
        9
 70
   128
 43
0.0
 10
6.0348329413
 20
5.2029262401
 10
6.0347773265
 20
5.2041513029
 10
6.0347214383
 20
5.2051317014
 10
6.0346653375
 20
5.205866369
 10
6.0346090852
 20
5.2063545067
 10
6.0345527424
 20
5.2065955833
 10
6.0344963705
 20
5.2065893367
 10
6.0344400308
 20
5.2063357736
 10
6.0343837846
 20
5.2058351699
  0
LINE
  5
211
330
1F
100
AcDbEntity
  8
0
  6
Continuous
 62
     7
 48
2.0
370
    15
100
AcDbLine
 10
6.0343837846
 20
5.1979458862
 30
0.0
 11
6.0343837846
 21
5.2058351699
 31
0.0
  0
LINE
  5
212
330
1F
100
AcDbEntity
  8
0
  6
Continuous
 62
     7
 48
2.0
370
    15
100
AcDbLine
 10
6.0348329413
 20
5.1981547152
 30
0.0
 11
6.0348329413
 21
5.2029262401
 31
0.0
  0
LINE
  5
213
330
1F
100
AcDbEntity
  8
0
  6
Continuous
 62
     7
 48
2.0
370
    15
100
AcDbLine
 10
6.0945865607
 20
5.2058351699
 30
0.0
 11
6.0945865607
 21
5.2057830776
 31
0.0
  0
LINE
  5
214
330
1F
100
AcDbEntity
  8
0
  6
Continuous
 62
     7
 48
2.0
370
    15
100
AcDbLine
 10
26.1312841768
 20
12.786474975
 30
0.0
 11
31.9772841768
 21
12.786474975
 31
0.0
  0
LINE
  5
215
330
1F
100
AcDbEntity
  8
0
  6
Continuous
 62
     7
 48
2.0
370
    15
100
AcDbLine
 10
26.1312841768
 20
6.786474975
 30
0.0
 11
31.9772841768
 21
6.786474975
 31
0.0
  0
CIRCLE
  5
216
330
1F
100
AcDbEntity
  8
0
  6
Continuous
 62
     7
 48
4.0
370
    15
100
AcDbCircle
 10
26.5542841768
 20
11.286474975
 30
0.0
 40
0.1404999999999994
  0
CIRCLE
  5
217
330
1F
100
AcDbEntity
  8
0
  6
Continuous
 62
     7
 48
4.0
370
    15
100
AcDbCircle
 10
31.5542841768
 20
11.286474975
 30
0.0
 40
0.140500000000003
  0
CIRCLE
  5
218
330
1F
100
AcDbEntity
  8
0
  6
Continuous
 62
     7
 48
4.0
370
    15
100
AcDbCircle
 10
31.5542841768
 20
8.286474975
 30
0.0
 40
0.1404999999999994
  0
CIRCLE
  5
219
330
1F
100
AcDbEntity
  8
0
  6
Continuous
 62
     7
 48
4.0
370
    15
100
AcDbCircle
 10
26.5542841768
 20
8.286474975
 30
0.0
 40
0.140500000000003
  0
CIRCLE
  5
21A
330
1F
100
AcDbEntity
  8
0
  6
Continuous
 62
     7
 48
4.0
370
    15
100
AcDbCircle
 10
30.0542841768
 20
10.786474975
 30
0.0
 40
0.6249999999999982
  0
LINE
  5
21B
330
1F
100
AcDbEntity
  8
0
  6
Continuous
 62
     7
 48
2.0
370
    15
100
AcDbLine
 10
31.9772841768
 20
12.786474975
 30
0.0
 11
32.0542841768
 21
12.786474975
 31
0.0
  0
LINE
  5
21C
330
1F
100
AcDbEntity
  8
0
  6
Continuous
 62
     7
 48
2.0
370
    15
100
AcDbLine
 10
32.0542841768
 20
12.786474975
 30
0.0
 11
32.0542841768
 21
6.786474975
 31
0.0
  0
LINE
  5
21D
330
1F
100
AcDbEntity
  8
0
  6
Continuous
 62
     7
 48
2.0
370
    15
100
AcDbLine
 10
31.9772841768
 20
6.786474975
 30
0.0
 11
32.0542841768
 21
6.786474975
 31
0.0
  0
LINE
  5
21E
330
1F
100
AcDbEntity
  8
0
  6
Continuous
 62
     7
 48
2.0
370
    15
100
AcDbLine
 10
26.0542841768
 20
12.786474975
 30
0.0
 11
26.0542841768
 21
6.786474975
 31
0.0
  0
LINE
  5
21F
330
1F
100
AcDbEntity
  8
0
  6
Continuous
 62
     7
 48
2.0
370
    15
100
AcDbLine
 10
26.0542841768
 20
6.786474975
 30
0.0
 11
26.1312841768
 21
6.786474975
 31
0.0
  0
LINE
  5
220
330
1F
100
AcDbEntity
  8
0
  6
Continuous
 62
     7
 48
2.0
370
    15
100
AcDbLine
 10
26.0542841768
 20
12.786474975
 30
0.0
 11
26.1312841768
 21
12.786474975
 31
0.0
  0
CIRCLE
  5
221
330
1F
100
AcDbEntity
  8
0
  6
Continuous
 62
     7
 48
4.0
370
    15
100
AcDbCircle
 10
30.0542841768
 20
10.786474975
 30
0.0
 40
0.0849999999999973
  0
CIRCLE
  5
222
330
1F
100
AcDbEntity
  8
0
  6
Continuous
 62
     7
 48
4.0
370
    15
100
AcDbCircle
 10
30.0542841768
 20
10.786474975
 30
0.0
 40
0.147000000000002
  0
LINE
  5
223
330
1F
100
AcDbEntity
  8
0
  6
Continuous
 62
     7
 48
2.0
370
    15
100
AcDbLine
 10
31.5542841768
 20
11.426974975
 30
0.0
 11
31.5542841768
 21
11.145974975
 31
0.0
  0
LINE
  5
224
330
1F
100
AcDbEntity
  8
0
  6
Continuous
 62
     7
 48
2.0
370
    15
100
AcDbLine
 10
31.5542841768
 20
8.426974975
 30
0.0
 11
31.5542841768
 21
8.145974975
 31
0.0
  0
LINE
  5
225
330
1F
100
AcDbEntity
  8
0
  6
Continuous
 62
     7
 48
2.0
370
    15
100
AcDbLine
 10
26.5542841768
 20
11.426974975
 30
0.0
 11
26.5542841768
 21
11.145974975
 31
0.0
  0
LINE
  5
226
330
1F
100
AcDbEntity
  8
0
  6
Continuous
 62
     7
 48
2.0
370
    15
100
AcDbLine
 10
26.5542841768
 20
8.426974975
 30
0.0
 11
26.5542841768
 21
8.145974975
 31
0.0
  0
DIMENSION
  5
227
330
1F
100
AcDbEntity
  8
0
  6
Continuous
 62
     7
 48
2.0
370
     0
100
AcDbDimension
  2
*D9
 10
25.3770523959
 20
8.286474975
 30
0.0
 11
25.3770523959
 21
9.786474975
 31
0.0
 70
   160
 71
     2
 42
-1.0
  3
SLDDIMSTYLE0
100
AcDbAlignedDimension
 13
26.5542841768
 23
11.286474975
 33
0.0
 14
26.5542841768
 24
8.286474975
 34
0.0
 50
90.0
100
AcDbRotatedDimension
  0
DIMENSION
  5
239
330
1F
100
AcDbEntity
  8
0
  6
Continuous
 62
     7
 48
2.0
370
     0
100
AcDbDimension
  2
*D10
 10
31.5542841768
 20
5.9990714317
 30
0.0
 11
29.0542841768
 21
5.9990714317
 31
0.0
 70
   160
 71
     2
 42
-1.0
  3
SLDDIMSTYLE0
100
AcDbAlignedDimension
 13
26.5542841768
 23
8.286474975
 33
0.0
 14
31.5542841768
 24
8.286474975
 34
0.0
100
AcDbRotatedDimension
  0
DIMENSION
  5
24B
330
1F
100
AcDbEntity
  8
0
  6
Continuous
 62
     7
 48
2.0
370
     0
100
AcDbDimension
  2
*D11
 10
31.5907117271
 20
8.4221705297
 30
0.0
 11
31.5836090214
 21
5.0389833819
 31
0.0
 70
   163
  1
<>
 71
     1
 42
-1.0
  3
SLDDIMSTYLE2
100
AcDbDiametricDimension
 15
31.5178566264
 25
8.1507794202
 35
0.0
 40
0.0
  0
DIMENSION
  5
25C
330
1F
100
AcDbEntity
  8
0
  6
Continuous
 62
     7
 48
2.0
370
     0
100
AcDbDimension
  2
*D12
 10
32.7121627761
 20
12.786474975
 30
0.0
 11
32.7121627761
 21
11.786474975
 31
0.0
 70
   160
 71
     2
 42
-1.0
  3
SLDDIMSTYLE0
100
AcDbAlignedDimension
 13
30.0542841768
 23
10.786474975
 33
0.0
 14
32.0542841768
 24
12.786474975
 34
0.0
 50
90.0
100
AcDbRotatedDimension
  0
DIMENSION
  5
26E
330
1F
100
AcDbEntity
  8
0
  6
Continuous
 62
     7
 48
2.0
370
     0
100
AcDbDimension
  2
*D13
 10
32.0542841768
 20
13.4463069188
 30
0.0
 11
31.0542841768
 21
13.4463069188
 31
0.0
 70
   160
 71
     2
 42
-1.0
  3
SLDDIMSTYLE0
100
AcDbAlignedDimension
 13
30.0542841768
 23
10.786474975
 33
0.0
 14
32.0542841768
 24
12.786474975
 34
0.0
100
AcDbRotatedDimension
  0
LINE
  5
280
330
1F
100
AcDbEntity
  8
0
  6
Continuous
 62
     7
 48
2.0
370
    15
100
AcDbLine
 10
30.1120562267
 20
18.5905927342
 30
0.0
 11
27.4146795587
 21
20.1477551394
 31
0.0
  0
LINE
  5
281
330
1F
100
AcDbEntity
  8
0
  6
Continuous
 62
     7
 48
2.0
370
    15
100
AcDbLine
 10
27.3633503971
 20
20.1477551394
 30
0.0
 11
26.0801872915
 21
19.407000846
 31
0.0
  0
LINE
  5
282
330
1F
100
AcDbEntity
  8
0
  6
Continuous
 62
     7
 48
2.0
370
    15
100
AcDbLine
 10
30.1961791398
 20
15.3218880734
 30
0.0
 11
30.1961791398
 21
18.5880513209
 31
0.0
  0
LINE
  5
283
330
1F
100
AcDbEntity
  8
0
  6
Continuous
 62
     7
 48
2.0
370
    15
100
AcDbLine
 10
25.9960643784
 20
19.4044594327
 30
0.0
 11
25.9960643784
 21
19.3921845855
 31
0.0
  0
ARC
  5
284
330
1F
100
AcDbEntity
  8
0
  6
Continuous
 62
     7
 48
4.0
370
    15
100
AcDbCircle
 10
28.7023595633
 20
16.216399183
 30
0.0
 40
0.1540163913188727
100
AcDbArc
 50
168.1339525011
 51
251.8606709662
  0
SPLINE
  5
285
330
1F
100
AcDbEntity
  8
0
  6
Continuous
 62
     7
 48
2.0
370
    15
100
AcDbSpline
210
0.0
220
0.0
230
1.0
 70
     8
 71
     3
 72
     9
 73
     5
 74
     0
 42
0.00000001
 43
0.00000001
 40
0.0
 40
0.0
 40
0.0
 40
0.0
 40
0.8764514714508163
 40
1.0
 40
1.0
 40
1.0
 40
1.0
 10
28.69136762861188
 20
16.06874517504488
 30
0.0
 10
28.69603640726628
 20
16.06988651581774
 30
0.0
 10
28.70136331788994
 20
16.07118874510256
 30
0.0
 10
28.70525090079166
 20
16.07485196737963
 30
0.0
 10
28.70573120593878
 20
16.07530455310172
 30
0.0
  0
LINE
  5
286
330
1F
100
AcDbEntity
  8
0
  6
Continuous
 62
     7
 48
2.0
370
    15
100
AcDbLine
 10
28.577729929
 20
16.2880110944
 30
0.0
 11
28.5698915242
 21
16.2822048609
 31
0.0
  0
LINE
  5
287
330
1F
100
AcDbEntity
  8
0
  6
Continuous
 62
     7
 48
2.0
370
    15
100
AcDbLine
 10
28.7025994132
 20
16.0729737673
 30
0.0
 11
28.7183119444
 21
16.0820444184
 31
0.0
  0
LINE
  5
288
330
1F
100
AcDbEntity
  8
0
  6
Continuous
 62
     7
 48
2.0
370
    15
100
AcDbLine
 10
28.5939887153
 20
16.2974019022
 30
0.0
 11
28.5782761841
 21
16.2883312511
 31
0.0
  0
ARC
  5
289
330
1F
100
AcDbEntity
  8
0
  6
Continuous
 62
     7
 48
4.0
370
    15
100
AcDbCircle
 10
26.1096346989
 20
17.713147388
 30
0.0
 40
0.1540163913188738
100
AcDbArc
 50
168.1339525011
 51
205.9042604596
  0
ARC
  5
28A
330
1F
100
AcDbEntity
  8
0
  6
Continuous
 62
     7
 48
4.0
370
    15
100
AcDbCircle
 10
26.1096346989
 20
17.713147388
 30
0.0
 40
0.1540163913188729
100
AcDbArc
 50
213.5984078164
 51
251.8606709662
  0
SPLINE
  5
28B
330
1F
100
AcDbEntity
  8
0
  6
Continuous
 62
     7
 48
2.0
370
    15
100
AcDbSpline
210
0.0
220
0.0
230
1.0
 70
     8
 71
     3
 72
    11
 73
     7
 74
     0
 42
0.00000001
 43
0.00000001
 40
0.0
 40
0.0
 40
0.0
 40
0.0
 40
0.1939952814539321
 40
0.4984234014403114
 40
0.8091594185904283
 40
1.0
 40
1.0
 40
1.0
 40
1.0
 10
25.98297308766102
 20
17.78266454816604
 30
0.0
 10
25.98002439160177
 20
17.78072191501759
 30
0.0
 10
25.97244843867832
 20
17.77573079454112
 30
0.0
 10
25.96428040102814
 20
17.76250398282974
 30
0.0
 10
25.95859556533008
 20
17.74746511562486
 30
0.0
 10
25.95792772485819
 20
17.73630876092146
 30
0.0
 10
25.95767362396053
 20
17.73206397513176
 30
0.0
  0
SPLINE
  5
28C
330
1F
100
AcDbEntity
  8
0
  6
Continuous
 62
     7
 48
2.0
370
    15
100
AcDbSpline
210
0.0
220
0.0
230
1.0
 70
     8
 71
     3
 72
    11
 73
     7
 74
     0
 42
0.00000001
 43
0.00000001
 40
0.0
 40
0.0
 40
0.0
 40
0.0
 40
0.2402874846630917
 40
0.5335478387584646
 40
0.8216689980960002
 40
0.9999999999999999
 40
0.9999999999999999
 40
0.9999999999999999
 40
0.9999999999999999
 10
26.04545783856039
 20
17.5742235432863
 30
0.0
 10
26.05089287968721
 20
17.57145339674938
 30
0.0
 10
26.06296115053722
 20
17.56530240765444
 30
0.0
 10
26.08130177407379
 20
17.56233827490023
 30
0.0
 10
26.09775372635516
 20
17.56350293815036
 30
0.0
 10
26.10608551825971
 20
17.56832923946501
 30
0.0
 10
26.10927087556203
 20
17.57017440006335
 30
0.0
  0
LINE
  5
28D
330
1F
100
AcDbEntity
  8
0
  6
Continuous
 62
     7
 48
2.0
370
    15
100
AcDbLine
 10
26.1098745489
 20
17.5697219723
 30
0.0
 11
26.12558708
 21
17.5787926234
 31
0.0
  0
LINE
  5
28E
330
1F
100
AcDbEntity
  8
0
  6
Continuous
 62
     7
 48
2.0
370
    15
100
AcDbLine
 10
26.0012638509
 20
17.7941501072
 30
0.0
 11
25.9855513198
 21
17.7850794561
 31
0.0
  0
LINE
  5
28F
330
1F
100
AcDbEntity
  8
0
  6
Continuous
 62
     7
 48
2.0
370
    15
100
AcDbLine
 10
28.8032285403
 20
17.7716432091
 30
0.0
 11
28.77400146
 21
17.7547707748
 31
0.0
  0
LINE
  5
290
330
1F
100
AcDbEntity
  8
0
  6
Continuous
 62
     7
 48
2.0
370
    15
100
AcDbLine
 10
28.8032285403
 20
14.5054799615
 30
0.0
 11
28.8032285403
 21
17.7716432091
 31
0.0
  0
LINE
  5
291
330
1F
100
AcDbEntity
  8
0
  6
Continuous
 62
     7
 48
2.0
370
    15
100
AcDbLine
 10
28.8032285403
 20
14.5054799615
 30
0.0
 11
28.77400146
 21
14.4886075272
 31
0.0
  0
LINE
  5
292
330
1F
100
AcDbEntity
  8
0
  6
Continuous
 62
     7
 48
2.0
370
    15
100
AcDbLine
 10
28.77400146
 20
14.4886075272
 30
0.0
 11
28.77400146
 21
17.7547707748
 31
0.0
  0
LWPOLYLINE
  5
293
330
1F
100
AcDbEntity
  8
0
  6
Continuous
 62
     7
 48
2.0
370
    15
100
AcDbPolyline
 90
       21
 70
   128
 43
0.0
 10
28.7217417542
 20
16.0842560128
 10
28.7304308624
 20
16.068445096
 10
28.7420314526
 20
16.0408256873
 10
28.7492913344
 20
16.0132483005
 10
28.75184357
 20
15.9871067856
 10
28.7495591612
 20
15.9637224188
 10
28.7425535693
 20
15.9442771214
 10
28.7311808796
 20
15.9297537212
 10
28.7160159044
 20
15.9208862776
 10
28.6978251303
 20
15.9181229798
 10
28.6775279776
 20
15.9216034938
 10
28.6561503298
 20
15.9311519032
 10
28.634772682
 20
15.9462856006
 10
28.6144755293
 20
15.9662396803
 10
28.5962847553
 20
15.9900055987
 10
28.58111978
 20
16.01638215
 10
28.5697470903
 20
16.0440361783
 10
28.5627414985
 20
16.0715699599
 10
28.5604570896
 20
16.097591849
 10
28.5630093252
 20
16.1207866154
 10
28.5694769792
 20
16.1385321962
  0
LWPOLYLINE
  5
294
330
1F
100
AcDbEntity
  8
0
  6
Continuous
 62
     7
 48
2.0
370
    15
100
AcDbPolyline
 90
       21
 70
   128
 43
0.0
 10
25.9773258577
 20
17.6363395771
 10
25.9702844609
 20
17.6175348204
 10
25.9677322253
 20
17.594340054
 10
25.9700166341
 20
17.5683181649
 10
25.977022226
 20
17.5407843833
 10
25.9883949157
 20
17.513130355
 10
26.0035598909
 20
17.4867538038
 10
26.021750665
 20
17.4629878853
 10
26.0420478177
 20
17.4430338056
 10
26.0634254655
 20
17.4279001082
 10
26.0848031133
 20
17.4183516988
 10
26.1051002659
 20
17.4148711849
 10
26.12329104
 20
17.4176344826
 10
26.1384560153
 20
17.4265019262
 10
26.149828705
 20
17.4410253264
 10
26.1568342968
 20
17.4604706238
 10
26.1591187056
 20
17.4838549906
 10
26.15656647
 20
17.5099965055
 10
26.1493065882
 20
17.5375738923
 10
26.137705998
 20
17.565193301
 10
26.1290168898
 20
17.5810042178
  0
LINE
  5
295
330
1F
100
AcDbEntity
  8
0
  6
Continuous
 62
     7
 48
2.0
370
    15
100
AcDbLine
 10
28.77400146
 20
17.7547707748
 30
0.0
 11
25.9455743353
 21
19.3875869984
 31
0.0
  0
LINE
  5
296
330
1F
100
AcDbEntity
  8
0
  6
Continuous
 62
     7
 48
2.0
370
    15
100
AcDbLine
 10
25.9455743353
 20
16.1214237509
 30
0.0
 11
28.77400146
 21
14.4886075272
 31
0.0
  0
LINE
  5
297
330
1F
100
AcDbEntity
  8
0
  6
Continuous
 62
     7
 48
2.0
370
    15
100
AcDbLine
 10
25.9455743353
 20
19.3875869984
 30
0.0
 11
25.9455743353
 21
16.1214237509
 31
0.0
  0
LINE
  5
298
330
1F
100
AcDbEntity
  8
0
  6
Continuous
 62
     7
 48
2.0
370
    15
100
AcDbLine
 10
25.9748014156
 20
19.4044594327
 30
0.0
 11
25.9455743353
 21
19.3875869984
 31
0.0
  0
LINE
  5
299
330
1F
100
AcDbEntity
  8
0
  6
Continuous
 62
     7
 48
2.0
370
    15
100
AcDbLine
 10
28.8032285403
 20
17.7716432091
 30
0.0
 11
25.9748014156
 21
19.4044594327
 31
0.0
  0
LWPOLYLINE
  5
29A
330
1F
100
AcDbEntity
  8
0
  6
Continuous
 62
     7
 48
2.0
370
    15
100
AcDbPolyline
 90
       11
 70
   128
 43
0.0
 10
28.7368285916
 20
15.9356534559
 10
28.7270522106
 20
15.9349954142
 10
28.7067550579
 20
15.9384759282
 10
28.6853774101
 20
15.9480243375
 10
28.6639997623
 20
15.9631580349
 10
28.6437026096
 20
15.9831121146
 10
28.6255118355
 20
16.0068780331
 10
28.6103468603
 20
16.0332545843
 10
28.5989741706
 20
16.0609086126
 10
28.5919685787
 20
16.0884423942
 10
28.5897045725
 20
16.1113758434
  0
LWPOLYLINE
  5
29B
330
1F
100
AcDbEntity
  8
0
  6
Continuous
 62
     7
 48
2.0
370
    15
100
AcDbPolyline
 90
       11
 70
   128
 43
0.0
 10
25.9969797081
 20
17.6081240485
 10
25.9992437144
 20
17.5851905992
 10
26.0062493062
 20
17.5576568176
 10
26.017621996
 20
17.5300027893
 10
26.0327869712
 20
17.5036262381
 10
26.0509777453
 20
17.4798603196
 10
26.071274898
 20
17.4599062399
 10
26.0926525458
 20
17.4447725425
 10
26.1140301936
 20
17.4352241332
 10
26.1343273462
 20
17.4317436192
 10
26.1441037273
 20
17.432401661
  0
ARC
  5
29C
330
1F
100
AcDbEntity
  8
0
  6
Continuous
 62
     7
 48
4.0
370
    15
100
AcDbCircle
 10
30.045720609
 20
18.5238183025
 30
0.0
 40
0.0760264026299751
100
AcDbArc
 50
29.2391143991
 51
57.6588435514
  0
ARC
  5
29D
330
1F
100
AcDbEntity
  8
0
  6
Continuous
 62
     7
 48
4.0
370
    15
100
AcDbCircle
 10
28.7640355139
 20
17.7844644115
 30
0.0
 40
0.0740542433044846
100
AcDbArc
 50
28.8567998288
 51
58.0453714773
  0
ARC
  5
29E
330
1F
100
AcDbEntity
  8
0
  6
Continuous
 62
     7
 48
4.0
370
    15
100
AcDbCircle
 10
28.7956431878
 20
17.8013689498
 30
0.0
 40
0.0143469347918965
100
AcDbArc
 50
29.8362285536
 51
58.0817362104
  0
LINE
  5
29F
330
1F
100
AcDbEntity
  8
0
  6
Continuous
 62
     7
 48
2.0
370
    15
100
AcDbLine
 10
28.6184379682
 20
17.9539743541
 30
0.0
 11
28.8032285403
 21
17.8472970274
 31
0.0
  0
LINE
  5
2A0
330
1F
100
AcDbEntity
  8
0
  6
Continuous
 62
     7
 48
2.0
370
    15
100
AcDbLine
 10
28.5892108879
 20
17.9371019197
 30
0.0
 11
28.6184379682
 21
17.9539743541
 31
0.0
  0
LINE
  5
2A1
330
1F
100
AcDbEntity
  8
0
  6
Continuous
 62
     7
 48
2.0
370
    15
100
AcDbLine
 10
26.2614153642
 20
19.2809096718
 30
0.0
 11
26.2906424445
 21
19.2977821061
 31
0.0
  0
LINE
  5
2A2
330
1F
100
AcDbEntity
  8
0
  6
Continuous
 62
     7
 48
2.0
370
    15
100
AcDbLine
 10
26.2906424445
 20
19.2977821061
 30
0.0
 11
26.1058518723
 21
19.4044594327
 31
0.0
  0
LINE
  5
2A3
330
1F
100
AcDbEntity
  8
0
  6
Continuous
 62
     7
 48
2.0
370
    15
100
AcDbLine
 10
28.6184379682
 20
17.9202240005
 30
0.0
 11
28.6184379682
 21
17.9539743541
 31
0.0
  0
LINE
  5
2A4
330
1F
100
AcDbEntity
  8
0
  6
Continuous
 62
     7
 48
2.0
370
    15
100
AcDbLine
 10
28.6184379682
 20
17.9202240005
 30
0.0
 11
28.8032285403
 21
17.8135466739
 31
0.0
  0
ARC
  5
2A5
330
1F
100
AcDbEntity
  8
0
  6
Continuous
 62
     7
 48
4.0
370
    15
100
AcDbCircle
 10
28.6284039143
 20
17.8742693038
 30
0.0
 40
0.0740542433042922
100
AcDbArc
 50
121.9546285227
 51
151.1432001712
  0
ARC
  5
2A6
330
1F
100
AcDbEntity
  8
0
  6
Continuous
 62
     7
 48
4.0
370
    15
100
AcDbCircle
 10
26.3006083906
 20
19.2180770558
 30
0.0
 40
0.0740542433043634
100
AcDbArc
 50
121.9546285227
 51
151.1432001712
  0
LINE
  5
2A7
330
1F
100
AcDbEntity
  8
0
  6
Continuous
 62
     7
 48
2.0
370
    15
100
AcDbLine
 10
28.611371651
 20
17.9161447024
 30
0.0
 11
28.6184379682
 21
17.9202240005
 31
0.0
  0
ARC
  5
2A8
330
1F
100
AcDbEntity
  8
0
  6
Continuous
 62
     7
 48
4.0
370
    15
100
AcDbCircle
 10
30.1005613098
 20
18.5706796302
 30
0.0
 40
0.0224177388013327
100
AcDbArc
 50
350.7859630095
 51
129.2032852357
  0
ARC
  5
2A9
330
1F
100
AcDbEntity
  8
0
  6
Continuous
 62
     7
 48
4.0
370
    15
100
AcDbCircle
 10
27.4040515407
 20
20.1242244846
 30
0.0
 40
0.0258194981096164
100
AcDbArc
 50
65.6928809539
 51
125.6175774752
  0
LINE
  5
2AA
330
1F
100
AcDbEntity
  8
0
  6
Continuous
 62
     7
 48
2.0
370
    15
100
AcDbLine
 10
26.2614106139
 20
19.2809069292
 30
0.0
 11
26.1058518723
 21
19.3707090792
 31
0.0
  0
ARC
  5
2AB
330
1F
100
AcDbEntity
  8
0
  6
Continuous
 62
     7
 48
4.0
370
    15
100
AcDbCircle
 10
26.0916822084
 20
19.387087742
 30
0.0
 40
0.0224177388013249
100
AcDbArc
 50
50.7967147643
 51
189.2140369905
  0
ARC
  5
2AC
330
1F
100
AcDbEntity
  8
0
  6
Continuous
 62
     7
 48
4.0
370
    15
100
AcDbCircle
 10
26.1030915482
 20
19.3673249836
 30
0.0
 40
0.0043670919742793
100
AcDbArc
 50
50.7967147642
 51
189.2140369905
  0
ARC
  5
2AD
330
1F
100
AcDbEntity
  8
0
  6
Continuous
 62
     7
 48
4.0
370
    15
100
AcDbCircle
 10
27.3739784151
 20
20.1242244846
 30
0.0
 40
0.0258194981096002
100
AcDbArc
 50
54.3824225248
 51
114.3071190461
  0
ARC
  5
2AE
330
1F
100
AcDbEntity
  8
0
  6
Continuous
 62
     7
 48
4.0
370
    15
100
AcDbCircle
 10
28.8032285403
 20
17.862652853
 30
0.0
 40
0.0789004579394717
100
AcDbArc
 50
242.6096722366
 51
297.3903277634
  0
ARC
  5
2AF
330
1F
100
AcDbEntity
  8
0
  6
Continuous
 62
     7
 48
4.0
370
    15
100
AcDbCircle
 10
28.804707471
 20
14.5918090567
 30
0.0
 40
0.0740690143065549
100
AcDbArc
 50
268.8559032542
 51
298.0402391154
  0
ARC
  5
2B0
330
1F
100
AcDbEntity
  8
0
  6
Continuous
 62
     7
 48
4.0
370
    15
100
AcDbCircle
 10
28.8032285403
 20
17.8231172291
 30
0.0
 40
0.015370219079136
100
AcDbArc
 50
242.6096722366
 51
297.3903277634
  0
LINE
  5
2B1
330
1F
100
AcDbEntity
  8
0
  6
Continuous
 62
     7
 48
2.0
370
    15
100
AcDbLine
 10
28.5675262799
 20
17.9077112277
 30
0.0
 11
28.7669303922
 21
17.7925976839
 31
0.0
  0
LINE
  5
2B2
330
1F
100
AcDbEntity
  8
0
  6
Continuous
 62
     7
 48
2.0
370
    15
100
AcDbLine
 10
28.5675262799
 20
17.9077112277
 30
0.0
 11
28.5967533602
 21
17.924583662
 31
0.0
  0
LINE
  5
2B3
330
1F
100
AcDbEntity
  8
0
  6
Continuous
 62
     7
 48
2.0
370
    15
100
AcDbLine
 10
28.5967533602
 20
17.924583662
 30
0.0
 11
28.7961574725
 21
17.8094701183
 31
0.0
  0
LINE
  5
2B4
330
1F
100
AcDbEntity
  8
0
  6
Continuous
 62
     7
 48
2.0
370
    15
100
AcDbLine
 10
28.8102996081
 20
17.8094701183
 30
0.0
 11
30.1519168743
 21
18.5839692803
 31
0.0
  0
LINE
  5
2B5
330
1F
100
AcDbEntity
  8
0
  6
Continuous
 62
     7
 48
2.0
370
    15
100
AcDbLine
 10
28.8395266884
 20
17.7925976839
 30
0.0
 11
30.1811439546
 21
18.567096846
 31
0.0
  0
LINE
  5
2B6
330
1F
100
AcDbEntity
  8
0
  6
Continuous
 62
     7
 48
2.0
370
    15
100
AcDbLine
 10
28.8395266884
 20
14.5264344364
 30
0.0
 11
30.1811439546
 21
15.3009335985
 31
0.0
  0
ARC
  5
2B7
330
1F
100
AcDbEntity
  8
0
  6
Continuous
 62
     7
 48
4.0
370
    15
100
AcDbCircle
 10
30.1731910339
 20
18.5880513209
 30
0.0
 40
0.0224129195974943
100
AcDbArc
 50
290.7834207995
 51
69.2165792005
  0
ARC
  5
2B8
330
1F
100
AcDbEntity
  8
0
  6
Continuous
 62
     7
 48
4.0
370
    15
100
AcDbCircle
 10
30.1704890106
 20
15.324449934
 30
0.0
 40
0.0258175496293571
100
AcDbArc
 50
294.3746582936
 51
354.3052007488
  0
ARC
  5
2B9
330
1F
100
AcDbEntity
  8
0
  6
Continuous
 62
     7
 48
4.0
370
    15
100
AcDbCircle
 10
30.150367604
 20
18.5880513209
 30
0.0
 40
0.0043661531683468
100
AcDbArc
 50
290.7834207996
 51
69.2165792005
  0
LINE
  5
2BA
330
1F
100
AcDbEntity
  8
0
  6
Continuous
 62
     7
 48
2.0
370
    15
100
AcDbLine
 10
30.1519168743
 20
18.5921333615
 30
0.0
 11
27.3960860457
 21
20.1830406354
 31
0.0
  0
LINE
  5
2BB
330
1F
100
AcDbEntity
  8
0
  6
Continuous
 62
     7
 48
2.0
370
    15
100
AcDbLine
 10
30.1811439546
 20
18.6090057958
 30
0.0
 11
27.425313126
 21
20.1999130697
 31
0.0
  0
LINE
  5
2BC
330
1F
100
AcDbEntity
  8
0
  6
Continuous
 62
     7
 48
2.0
370
    15
100
AcDbLine
 10
26.0110995637
 20
19.3835049579
 30
0.0
 11
26.210503676
 21
19.2683914141
 31
0.0
  0
LINE
  5
2BD
330
1F
100
AcDbEntity
  8
0
  6
Continuous
 62
     7
 48
2.0
370
    15
100
AcDbLine
 10
26.0403266439
 20
19.4003773922
 30
0.0
 11
26.2397307562
 21
19.2852638484
 31
0.0
  0
LINE
  5
2BE
330
1F
100
AcDbEntity
  8
0
  6
Continuous
 62
     7
 48
2.0
370
    15
100
AcDbLine
 10
26.2397307562
 20
19.2852638484
 30
0.0
 11
26.210503676
 21
19.2683914141
 31
0.0
  0
LINE
  5
2BF
330
1F
100
AcDbEntity
  8
0
  6
Continuous
 62
     7
 48
2.0
370
    15
100
AcDbLine
 10
26.2397307562
 20
19.2852638484
 30
0.0
 11
26.2397307562
 21
19.2600896403
 31
0.0
  0
ARC
  5
2C0
330
1F
100
AcDbEntity
  8
0
  6
Continuous
 62
     7
 48
4.0
370
    15
100
AcDbCircle
 10
26.0190524844
 20
19.4044594327
 30
0.0
 40
0.022412919597493
100
AcDbArc
 50
110.7834207995
 51
249.2165792005
  0
ARC
  5
2C1
330
1F
100
AcDbEntity
  8
0
  6
Continuous
 62
     7
 48
4.0
370
    15
100
AcDbCircle
 10
26.0418759142
 20
19.4044594327
 30
0.0
 40
0.0043661531683456
100
AcDbArc
 50
110.7834207995
 51
249.2165792005
  0
LINE
  5
2C2
330
1F
100
AcDbEntity
  8
0
  6
Continuous
 62
     7
 48
2.0
370
    15
100
AcDbLine
 10
27.3819439101
 20
20.1830406354
 30
0.0
 11
26.0403266439
 21
19.4085414733
 31
0.0
  0
LINE
  5
2C3
330
1F
100
AcDbEntity
  8
0
  6
Continuous
 62
     7
 48
2.0
370
    15
100
AcDbLine
 10
27.3527168298
 20
20.1999130697
 30
0.0
 11
26.0110995637
 21
19.4254139076
 31
0.0
  0
ARC
  5
2C4
330
1F
100
AcDbEntity
  8
0
  6
Continuous
 62
     7
 48
4.0
370
    15
100
AcDbCircle
 10
27.3890149779
 20
20.1693935245
 30
0.0
 40
0.0153702190790997
100
AcDbArc
 50
62.6096722366
 51
117.3903277634
  0
ARC
  5
2C5
330
1F
100
AcDbEntity
  8
0
  6
Continuous
 62
     7
 48
4.0
370
    15
100
AcDbCircle
 10
27.3890149779
 20
20.1298579006
 30
0.0
 40
0.0789004579394717
100
AcDbArc
 50
62.6096722366
 51
117.3903277634
  0
ARC
  5
2C6
330
1F
100
AcDbEntity
  8
0
  6
Continuous
 62
     7
 48
4.0
370
    15
100
AcDbCircle
 10
28.7426938955
 20
16.2454002256
 30
0.0
 40
0.1685471171535309
100
AcDbArc
 50
174.6748330274
 51
202.0527125078
  0
ARC
  5
2C7
330
1F
100
AcDbEntity
  8
0
  6
Continuous
 62
     7
 48
4.0
370
    15
100
AcDbCircle
 10
28.5871176184
 20
16.2287952276
 30
0.0
 40
0.0344935158140547
100
AcDbArc
 50
110.7902415755
 51
130.7122680043
  0
ARC
  5
2C8
330
1F
100
AcDbEntity
  8
0
  6
Continuous
 62
     7
 48
4.0
370
    15
100
AcDbCircle
 10
28.7324385256
 20
16.2392986176
 30
0.0
 40
0.1685471171536106
100
AcDbArc
 50
174.6748330274
 51
202.0527125078
  0
ARC
  5
2C9
330
1F
100
AcDbEntity
  8
0
  6
Continuous
 62
     7
 48
4.0
370
    15
100
AcDbCircle
 10
28.7089512242
 20
16.1666428564
 30
0.0
 40
0.1330592592906567
100
AcDbArc
 50
175.9605420815
 51
189.7287871265
  0
ARC
  5
2CA
330
1F
100
AcDbEntity
  8
0
  6
Continuous
 62
     7
 48
4.0
370
    15
100
AcDbCircle
 10
28.6607035738
 20
16.2465548476
 30
0.0
 40
0.1317468116884006
100
AcDbArc
 50
231.0072255293
 51
244.7970514134
  0
ARC
  5
2CB
330
1F
100
AcDbEntity
  8
0
  6
Continuous
 62
     7
 48
4.0
370
    15
100
AcDbCircle
 10
28.7377698293
 20
16.2331122702
 30
0.0
 40
0.1700567599717006
100
AcDbArc
 50
218.4568726056
 51
245.6709783216
  0
ARC
  5
2CC
330
1F
100
AcDbEntity
  8
0
  6
Continuous
 62
     7
 48
4.0
370
    15
100
AcDbCircle
 10
28.655467138
 20
16.1104049588
 30
0.0
 40
0.0344935158141129
100
AcDbArc
 50
290.7902415756
 51
310.7122680043
  0
ARC
  5
2CD
330
1F
100
AcDbEntity
  8
0
  6
Continuous
 62
     7
 48
4.0
370
    15
100
AcDbCircle
 10
28.7480251992
 20
16.2392138782
 30
0.0
 40
0.1700567599716348
100
AcDbArc
 50
218.4568726056
 51
245.6709783217
  0
ARC
  5
2CE
330
1F
100
AcDbEntity
  8
0
  6
Continuous
 62
     7
 48
4.0
370
    15
100
AcDbCircle
 10
28.7679526225
 20
16.1448836293
 30
0.0
 40
0.1535211403139024
100
AcDbArc
 50
171.7575979929
 51
184.2706381517
  0
ARC
  5
2CF
330
1F
100
AcDbEntity
  8
0
  6
Continuous
 62
     7
 48
4.0
370
    15
100
AcDbCircle
 10
28.6707811033
 20
16.3094135587
 30
0.0
 40
0.1526803502796866
100
AcDbArc
 50
236.4850188642
 51
248.980677874
  0
ARC
  5
2D0
330
1F
100
AcDbEntity
  8
0
  6
Continuous
 62
     7
 48
4.0
370
    15
100
AcDbCircle
 10
28.6074999327
 20
16.2382589871
 30
0.0
 40
0.0567203140558303
100
AcDbArc
 50
134.1721174935
 51
170.0406885349
  0
LWPOLYLINE
  5
2D1
330
1F
100
AcDbEntity
  8
0
  6
Continuous
 62
     7
 48
2.0
370
    15
100
AcDbPolyline
 90
        3
 70
   128
 43
0.0
 10
28.6544098234
 20
16.0700370593
 10
28.6732655038
 20
16.0665709205
 10
28.6878459559
 20
16.0683028176
  0
LINE
  5
2D2
330
1F
100
AcDbEntity
  8
0
  6
Continuous
 62
     7
 48
2.0
370
    15
100
AcDbLine
 10
28.7025994132
 20
16.0729737673
 30
0.0
 11
28.7054306989
 21
16.0747643796
 31
0.0
  0
LWPOLYLINE
  5
2D3
330
1F
100
AcDbEntity
  8
0
  6
Continuous
 62
     7
 48
2.0
370
    15
100
AcDbPolyline
 90
       16
 70
   128
 43
0.0
 10
28.7183119444
 20
16.0820444184
 10
28.7255216832
 20
16.0873079871
 10
28.7361071706
 20
16.1013523072
 10
28.742382164
 20
16.1201607229
 10
28.7440083768
 20
16.1427192675
 10
28.7408981397
 20
16.1678118042
 10
28.7332191261
 20
16.1940855878
 10
28.7213853138
 20
16.2201241918
 10
28.7060346667
 20
16.2445238683
 10
28.687994742
 20
16.2659692244
 10
28.6682380768
 20
16.2833041355
 10
28.6478297581
 20
16.295594072
 10
28.6278700035
 20
16.3021764803
 10
28.6094348486
 20
16.3026965009
 10
28.5935181374
 20
16.2971260996
 10
28.5935181374
 20
16.2971260996
  0
LINE
  5
2D4
330
1F
100
AcDbEntity
  8
0
  6
Continuous
 62
     7
 48
2.0
370
    15
100
AcDbLine
 10
28.6145891689
 20
16.1516908755
 30
0.0
 11
28.6026319189
 21
16.1584898584
 31
0.0
  0
LINE
  5
2D5
330
1F
100
AcDbEntity
  8
0
  6
Continuous
 62
     7
 48
2.0
370
    15
100
AcDbLine
 10
28.6026319189
 20
16.1584898584
 30
0.0
 11
28.602538844
 21
16.1728421292
 31
0.0
  0
LINE
  5
2D6
330
1F
100
AcDbEntity
  8
0
  6
Continuous
 62
     7
 48
2.0
370
    15
100
AcDbLine
 10
28.6026319189
 20
16.1584898584
 30
0.0
 11
28.5778055313
 21
16.1441578899
 31
0.0
  0
LINE
  5
2D7
330
1F
100
AcDbEntity
  8
0
  6
Continuous
 62
     7
 48
2.0
370
    15
100
AcDbLine
 10
28.6149576106
 20
16.1333276055
 30
0.0
 11
28.604602375
 21
16.1273496553
 31
0.0
  0
LINE
  5
2D8
330
1F
100
AcDbEntity
  8
0
  6
Continuous
 62
     7
 48
2.0
370
    15
100
AcDbLine
 10
28.5762225142
 20
16.1760160097
 30
0.0
 11
28.5866230171
 21
16.1820200922
 31
0.0
  0
LINE
  5
2D9
330
1F
100
AcDbEntity
  8
0
  6
Continuous
 62
     7
 48
2.0
370
    15
100
AcDbLine
 10
28.6677105335
 20
16.0781574488
 30
0.0
 11
28.6579471432
 21
16.0948999062
 31
0.0
  0
LINE
  5
2DA
330
1F
100
AcDbEntity
  8
0
  6
Continuous
 62
     7
 48
2.0
370
    15
100
AcDbLine
 10
28.5742240404
 20
16.2384699616
 30
0.0
 11
28.564618853
 21
16.2549411295
 31
0.0
  0
ARC
  5
2DB
330
1F
100
AcDbEntity
  8
0
  6
Continuous
 62
     7
 48
4.0
370
    15
100
AcDbCircle
 10
25.9110269628
 20
17.7729704939
 30
0.0
 40
0.140585883063736
100
AcDbArc
 50
295.2935149075
 51
301.0302462769
  0
ARC
  5
2DC
330
1F
100
AcDbEntity
  8
0
  6
Continuous
 62
     7
 48
4.0
370
    15
100
AcDbCircle
 10
26.1310934418
 20
17.7255340481
 30
0.0
 40
0.1777643298480381
100
AcDbArc
 50
206.4189479532
 51
213.0837203228
  0
LWPOLYLINE
  5
2DD
330
1F
100
AcDbEntity
  8
0
  6
Continuous
 62
     7
 48
2.0
370
    15
100
AcDbPolyline
 90
        9
 70
   128
 43
0.0
 10
25.9821493585
 20
17.6284989152
 10
25.9814634065
 20
17.6280339718
 10
25.9813943216
 20
17.6279213919
 10
25.9819424236
 20
17.6281616964
 10
25.9831051759
 20
17.6287537734
 10
25.9848771978
 20
17.6296948828
 10
25.9872502888
 20
17.6309806694
 10
25.990213467
 20
17.6326051832
 10
25.9937530197
 20
17.6345609062
  0
ARC
  5
2DE
330
1F
100
AcDbEntity
  8
0
  6
Continuous
 62
     7
 48
4.0
370
    15
100
AcDbCircle
 10
26.0801900573
 20
17.761425291
 30
0.0
 40
0.1535119982887446
100
AcDbArc
 50
235.7320593107
 51
248.2449303394
  0
ARC
  5
2DF
330
1F
100
AcDbEntity
  8
0
  6
Continuous
 62
     7
 48
4.0
370
    15
100
AcDbCircle
 10
26.1534326292
 20
17.6394483828
 30
0.0
 40
0.1317607387526385
100
AcDbArc
 50
175.2057892004
 51
188.9953982189
  0
ARC
  5
2E0
330
1F
100
AcDbEntity
  8
0
  6
Continuous
 62
     7
 48
4.0
370
    15
100
AcDbCircle
 10
17.8158565561
 20
32.1920539272
 30
0.0
 40
16.69733237548616
100
AcDbArc
 50
299.4373975092
 51
299.6863579302
  0
ARC
  5
2E1
330
1F
100
AcDbEntity
  8
0
  6
Continuous
 62
     7
 48
4.0
370
    15
100
AcDbCircle
 10
25.9260415859
 20
17.6071625482
 30
0.0
 40
0.1777643298498761
100
AcDbArc
 50
26.4189479532
 51
33.0837203228
  0
ARC
  5
2E2
330
1F
100
AcDbEntity
  8
0
  6
Continuous
 62
     7
 48
4.0
370
    15
100
AcDbCircle
 10
17.805601186
 20
32.2099961336
 30
0.0
 40
16.69733237590536
100
AcDbArc
 50
299.4373975092
 51
299.6863579301
  0
ARC
  5
2E3
330
1F
100
AcDbEntity
  8
0
  6
Continuous
 62
     7
 48
4.0
370
    15
100
AcDbCircle
 10
26.0701125912
 20
17.7880258446
 30
0.0
 40
0.133045116296733
100
AcDbArc
 50
230.2736961246
 51
244.0421854465
  0
ARC
  5
2E4
330
1F
100
AcDbEntity
  8
0
  6
Continuous
 62
     7
 48
4.0
370
    15
100
AcDbCircle
 10
26.1358991365
 20
17.6618719394
 30
0.0
 40
0.1526891877686097
100
AcDbArc
 50
171.0219485637
 51
183.5178106841
  0
LINE
  5
2E5
330
1F
100
AcDbEntity
  8
0
  6
Continuous
 62
     7
 48
2.0
370
    15
100
AcDbLine
 10
26.0478851292
 20
17.6653270274
 30
0.0
 11
26.0221328806
 21
17.6504605707
 31
0.0
  0
LINE
  5
2E6
330
1F
100
AcDbEntity
  8
0
  6
Continuous
 62
     7
 48
2.0
370
    15
100
AcDbLine
 10
26.0852410391
 20
17.6862554751
 30
0.0
 11
26.0478851292
 21
17.6653270274
 31
0.0
  0
LINE
  5
2E7
330
1F
100
AcDbEntity
  8
0
  6
Continuous
 62
     7
 48
2.0
370
    15
100
AcDbLine
 10
25.9855513198
 20
17.7850794561
 30
0.0
 11
25.9830372834
 21
17.7835057054
 31
0.0
  0
LWPOLYLINE
  5
2E8
330
1F
100
AcDbEntity
  8
0
  6
Continuous
 62
     7
 48
2.0
370
    15
100
AcDbPolyline
 90
       16
 70
   128
 43
0.0
 10
26.12558708
 20
17.5787926234
 10
26.1286604495
 20
17.5807516245
 10
26.1404942618
 20
17.5931271996
 10
26.1481732753
 20
17.6105349829
 10
26.1512835125
 20
17.6320365162
 10
26.1496572996
 20
17.6564726463
 10
26.1433823062
 20
17.6825260151
 10
26.1327968189
 20
17.7087920787
 10
26.1184715039
 20
17.733854827
 10
26.1011786427
 20
17.7563631205
 10
26.081850498
 20
17.7751035314
 10
26.061529055
 20
17.7890657593
 10
26.041309848
 20
17.7974970969
 10
26.0222828996
 20
17.7999430085
 10
26.0054739577
 20
17.7962716345
 10
26.0012638509
 20
17.7941501072
  0
LINE
  5
2E9
330
1F
100
AcDbEntity
  8
0
  6
Continuous
 62
     7
 48
2.0
370
    15
100
AcDbLine
 10
26.0478851292
 20
17.6653270274
 30
0.0
 11
26.0479628008
 21
17.6772144034
 31
0.0
  0
LINE
  5
2EA
330
1F
100
AcDbEntity
  8
0
  6
Continuous
 62
     7
 48
2.0
370
    15
100
AcDbLine
 10
26.0479628008
 20
17.6772144034
 30
0.0
 11
26.0378936321
 21
17.6831146125
 31
0.0
  0
LINE
  5
2EB
330
1F
100
AcDbEntity
  8
0
  6
Continuous
 62
     7
 48
2.0
370
    15
100
AcDbLine
 10
26.0219952988
 20
17.6484864242
 30
0.0
 11
26.0096176485
 21
17.6557393294
 31
0.0
  0
LINE
  5
2EC
330
1F
100
AcDbEntity
  8
0
  6
Continuous
 62
     7
 48
2.0
370
    15
100
AcDbLine
 10
26.0096176485
 20
17.6557393294
 30
0.0
 11
26.0097075629
 21
17.669500425
 31
0.0
  0
LINE
  5
2ED
330
1F
100
AcDbEntity
  8
0
  6
Continuous
 62
     7
 48
2.0
370
    15
100
AcDbLine
 10
26.0096176485
 20
17.6557393294
 30
0.0
 11
26.009172227
 21
17.6554821929
 31
0.0
  0
LINE
  5
2EE
330
1F
100
AcDbEntity
  8
0
  6
Continuous
 62
     7
 48
2.0
370
    15
100
AcDbLine
 10
26.0092498985
 20
17.667369569
 30
0.0
 11
26.009172227
 21
17.6554821929
 31
0.0
  0
LINE
  5
2EF
330
1F
100
AcDbEntity
  8
0
  6
Continuous
 62
     7
 48
2.0
370
    15
100
AcDbLine
 10
26.0092498985
 20
17.667369569
 30
0.0
 11
25.9834976498
 21
17.6525031123
 31
0.0
  0
LINE
  5
2F0
330
1F
100
AcDbEntity
  8
0
  6
Continuous
 62
     7
 48
2.0
370
    15
100
AcDbLine
 10
25.9937530197
 20
17.6345609062
 30
0.0
 11
26.0195052684
 21
17.6494273629
 31
0.0
  0
LINE
  5
2F1
330
1F
100
AcDbEntity
  8
0
  6
Continuous
 62
     7
 48
2.0
370
    15
100
AcDbLine
 10
26.009172227
 20
17.6554821929
 30
0.0
 11
26.0195052684
 21
17.6494273629
 31
0.0
  0
LINE
  5
2F2
330
1F
100
AcDbEntity
  8
0
  6
Continuous
 62
     7
 48
2.0
370
    15
100
AcDbLine
 10
26.0195052684
 20
17.6494273629
 30
0.0
 11
25.9821493585
 21
17.6284989152
 31
0.0
  0
LINE
  5
2F3
330
1F
100
AcDbEntity
  8
0
  6
Continuous
 62
     7
 48
2.0
370
    15
100
AcDbLine
 10
14.0176761144
 20
12.709474975
 30
0.0
 11
14.0176761144
 21
12.286474975
 31
0.0
  0
LINE
  5
2F4
330
1F
100
AcDbEntity
  8
0
  6
Continuous
 62
     7
 48
2.0
370
    15
100
AcDbLine
 10
18.9556761144
 20
12.286474975
 30
0.0
 11
14.0176761144
 21
12.286474975
 31
0.0
  0
LINE
  5
2F5
330
1F
100
AcDbEntity
  8
0
  6
Continuous
 62
     7
 48
2.0
370
    15
100
AcDbLine
 10
18.9556761144
 20
12.709474975
 30
0.0
 11
18.9556761144
 21
12.286474975
 31
0.0
  0
LINE
  5
2F6
330
1F
100
AcDbEntity
  8
0
  6
Continuous
 62
     7
 48
2.0
370
    15
100
AcDbLine
 10
18.9556761144
 20
12.786474975
 30
0.0
 11
18.9556761144
 21
12.709474975
 31
0.0
  0
LINE
  5
2F7
330
1F
100
AcDbEntity
  8
0
  6
Continuous
 62
     7
 48
2.0
370
    15
100
AcDbLine
 10
14.0176761144
 20
12.786474975
 30
0.0
 11
14.0176761144
 21
12.709474975
 31
0.0
  0
LINE
  5
2F8
330
1F
100
AcDbEntity
  8
0
  6
Continuous
 62
     7
 48
2.0
370
    15
100
AcDbLine
 10
14.0176761144
 20
12.786474975
 30
0.0
 11
18.9556761144
 21
12.786474975
 31
0.0
  0
LINE
  5
2F9
330
1F
100
AcDbEntity
  8
0
  6
Continuous
 62
     7
 48
2.0
370
    15
100
AcDbLine
 10
14.0176761144
 20
12.724474975
 30
0.0
 11
13.9866761144
 21
12.724474975
 31
0.0
  0
LINE
  5
2FA
330
1F
100
AcDbEntity
  8
0
  6
Continuous
 62
     7
 48
2.0
370
    15
100
AcDbLine
 10
14.0176761144
 20
12.786474975
 30
0.0
 11
13.9866761144
 21
12.786474975
 31
0.0
  0
LINE
  5
2FB
330
1F
100
AcDbEntity
  8
0
  6
Continuous
 62
     7
 48
2.0
370
    15
100
AcDbLine
 10
18.9556761144
 20
12.724474975
 30
0.0
 11
18.9866761144
 21
12.724474975
 31
0.0
  0
LINE
  5
2FC
330
1F
100
AcDbEntity
  8
0
  6
Continuous
 62
     7
 48
2.0
370
    15
100
AcDbLine
 10
18.9556761144
 20
12.786474975
 30
0.0
 11
18.9866761144
 21
12.786474975
 31
0.0
  0
LINE
  5
2FD
330
1F
100
AcDbEntity
  8
0
  6
Continuous
 62
     7
 48
2.0
370
    15
100
AcDbLine
 10
13.9866761144
 20
12.348474975
 30
0.0
 11
14.0176761144
 21
12.348474975
 31
0.0
  0
LINE
  5
2FE
330
1F
100
AcDbEntity
  8
0
  6
Continuous
 62
     7
 48
2.0
370
    15
100
AcDbLine
 10
18.9556761144
 20
12.348474975
 30
0.0
 11
18.9866761144
 21
12.348474975
 31
0.0
  0
LINE
  5
2FF
330
1F
100
AcDbEntity
  8
0
  6
Continuous
 62
     7
 48
2.0
370
    15
100
AcDbLine
 10
18.9556761144
 20
6.863474975
 30
0.0
 11
18.9556761144
 21
7.286474975
 31
0.0
  0
LINE
  5
300
330
1F
100
AcDbEntity
  8
0
  6
Continuous
 62
     7
 48
2.0
370
    15
100
AcDbLine
 10
14.0176761144
 20
7.286474975
 30
0.0
 11
18.9556761144
 21
7.286474975
 31
0.0
  0
LINE
  5
301
330
1F
100
AcDbEntity
  8
0
  6
Continuous
 62
     7
 48
2.0
370
    15
100
AcDbLine
 10
14.0176761144
 20
6.863474975
 30
0.0
 11
14.0176761144
 21
7.286474975
 31
0.0
  0
LINE
  5
302
330
1F
100
AcDbEntity
  8
0
  6
Continuous
 62
     7
 48
2.0
370
    15
100
AcDbLine
 10
14.0176761144
 20
6.786474975
 30
0.0
 11
14.0176761144
 21
6.863474975
 31
0.0
  0
LINE
  5
303
330
1F
100
AcDbEntity
  8
0
  6
Continuous
 62
     7
 48
2.0
370
    15
100
AcDbLine
 10
18.9556761144
 20
6.786474975
 30
0.0
 11
18.9556761144
 21
6.863474975
 31
0.0
  0
LINE
  5
304
330
1F
100
AcDbEntity
  8
0
  6
Continuous
 62
     7
 48
2.0
370
    15
100
AcDbLine
 10
18.9556761144
 20
6.786474975
 30
0.0
 11
14.0176761144
 21
6.786474975
 31
0.0
  0
LINE
  5
305
330
1F
100
AcDbEntity
  8
0
  6
Continuous
 62
     7
 48
2.0
370
    15
100
AcDbLine
 10
18.9556761144
 20
6.848474975
 30
0.0
 11
18.9866761144
 21
6.848474975
 31
0.0
  0
LINE
  5
306
330
1F
100
AcDbEntity
  8
0
  6
Continuous
 62
     7
 48
2.0
370
    15
100
AcDbLine
 10
18.9556761144
 20
6.786474975
 30
0.0
 11
18.9866761144
 21
6.786474975
 31
0.0
  0
LINE
  5
307
330
1F
100
AcDbEntity
  8
0
  6
Continuous
 62
     7
 48
2.0
370
    15
100
AcDbLine
 10
14.0176761144
 20
6.848474975
 30
0.0
 11
13.9866761144
 21
6.848474975
 31
0.0
  0
LINE
  5
308
330
1F
100
AcDbEntity
  8
0
  6
Continuous
 62
     7
 48
2.0
370
    15
100
AcDbLine
 10
14.0176761144
 20
6.786474975
 30
0.0
 11
13.9866761144
 21
6.786474975
 31
0.0
  0
LINE
  5
309
330
1F
100
AcDbEntity
  8
0
  6
Continuous
 62
     7
 48
2.0
370
    15
100
AcDbLine
 10
18.9866761144
 20
7.224474975
 30
0.0
 11
18.9556761144
 21
7.224474975
 31
0.0
  0
LINE
  5
30A
330
1F
100
AcDbEntity
  8
0
  6
Continuous
 62
     7
 48
2.0
370
    15
100
AcDbLine
 10
14.0176761144
 20
7.224474975
 30
0.0
 11
13.9866761144
 21
7.224474975
 31
0.0
  0
LINE
  5
30B
330
1F
100
AcDbEntity
  8
0
  6
Continuous
 62
     7
 48
2.0
370
    15
100
AcDbLine
 10
13.5636761144
 20
12.786474975
 30
0.0
 11
13.9866761144
 21
12.786474975
 31
0.0
  0
LINE
  5
30C
330
1F
100
AcDbEntity
  8
0
  6
Continuous
 62
     7
 48
2.0
370
    15
100
AcDbLine
 10
13.9866761144
 20
12.786474975
 30
0.0
 11
13.9866761144
 21
6.786474975
 31
0.0
  0
LINE
  5
30D
330
1F
100
AcDbEntity
  8
0
  6
Continuous
 62
     7
 48
2.0
370
    15
100
AcDbLine
 10
13.5636761144
 20
6.786474975
 30
0.0
 11
13.9866761144
 21
6.786474975
 31
0.0
  0
CIRCLE
  5
30E
330
1F
100
AcDbEntity
  8
0
  6
Continuous
 62
     7
 48
4.0
370
    15
100
AcDbCircle
 10
13.7366761144
 20
9.786474975
 30
0.0
 40
0.0849999999999991
  0
LINE
  5
30F
330
1F
100
AcDbEntity
  8
0
  6
Continuous
 62
     7
 48
2.0
370
    15
100
AcDbLine
 10
18.9866761144
 20
12.786474975
 30
0.0
 11
18.9866761144
 21
6.786474975
 31
0.0
  0
LINE
  5
310
330
1F
100
AcDbEntity
  8
0
  6
Continuous
 62
     7
 48
2.0
370
    15
100
AcDbLine
 10
18.9866761144
 20
12.786474975
 30
0.0
 11
19.4096761144
 21
12.786474975
 31
0.0
  0
LINE
  5
311
330
1F
100
AcDbEntity
  8
0
  6
Continuous
 62
     7
 48
2.0
370
    15
100
AcDbLine
 10
18.9866761144
 20
6.786474975
 30
0.0
 11
19.4096761144
 21
6.786474975
 31
0.0
  0
CIRCLE
  5
312
330
1F
100
AcDbEntity
  8
0
  6
Continuous
 62
     7
 48
4.0
370
    15
100
AcDbCircle
 10
19.2366761144
 20
9.786474975
 30
0.0
 40
0.0849999999999973
  0
LINE
  5
313
330
1F
100
AcDbEntity
  8
0
  6
Continuous
 62
     7
 48
2.0
370
    15
100
AcDbLine
 10
13.4866761144
 20
12.786474975
 30
0.0
 11
13.4866761144
 21
6.786474975
 31
0.0
  0
LINE
  5
314
330
1F
100
AcDbEntity
  8
0
  6
Continuous
 62
     7
 48
2.0
370
    15
100
AcDbLine
 10
13.4866761144
 20
12.786474975
 30
0.0
 11
13.5636761144
 21
12.786474975
 31
0.0
  0
LINE
  5
315
330
1F
100
AcDbEntity
  8
0
  6
Continuous
 62
     7
 48
2.0
370
    15
100
AcDbLine
 10
13.4866761144
 20
6.786474975
 30
0.0
 11
13.5636761144
 21
6.786474975
 31
0.0
  0
LINE
  5
316
330
1F
100
AcDbEntity
  8
0
  6
Continuous
 62
     7
 48
2.0
370
    15
100
AcDbLine
 10
19.4096761144
 20
12.786474975
 30
0.0
 11
19.4866761144
 21
12.786474975
 31
0.0
  0
LINE
  5
317
330
1F
100
AcDbEntity
  8
0
  6
Continuous
 62
     7
 48
2.0
370
    15
100
AcDbLine
 10
19.4866761144
 20
12.786474975
 30
0.0
 11
19.4866761144
 21
6.786474975
 31
0.0
  0
LINE
  5
318
330
1F
100
AcDbEntity
  8
0
  6
Continuous
 62
     7
 48
2.0
370
    15
100
AcDbLine
 10
19.4096761144
 20
6.786474975
 30
0.0
 11
19.4866761144
 21
6.786474975
 31
0.0
  0
CIRCLE
  5
319
330
1F
100
AcDbEntity
  8
0
  6
Continuous
 62
     7
 48
4.0
370
    15
100
AcDbCircle
 10
15.4866761144
 20
10.786474975
 30
0.0
 40
0.0850000000000009
  0
CIRCLE
  5
31A
330
1F
100
AcDbEntity
  8
0
  6
Continuous
 62
     7
 48
4.0
370
    15
100
AcDbCircle
 10
15.4866761144
 20
10.786474975
 30
0.0
 40
0.6416128499307305
  0
ARC
  5
31B
330
1F
100
AcDbEntity
  8
0
  6
Continuous
 62
     7
 48
4.0
370
    15
100
AcDbCircle
 10
18.9866761144
 20
11.286474975
 30
0.0
 40
0.140500000000003
100
AcDbArc
 50
90.0
 51
180.0
  0
ARC
  5
31C
330
1F
100
AcDbEntity
  8
0
  6
Continuous
 62
     7
 48
4.0
370
    15
100
AcDbCircle
 10
18.9866761144
 20
11.286474975
 30
0.0
 40
0.140500000000003
100
AcDbArc
 50
180.0
 51
270.0
  0
ARC
  5
31D
330
1F
100
AcDbEntity
  8
0
  6
Continuous
 62
     7
 48
4.0
370
    15
100
AcDbCircle
 10
13.9866761144
 20
8.286474975
 30
0.0
 40
0.1405000000000012
100
AcDbArc
 50
270.0
 51
90.0
  0
ARC
  5
31E
330
1F
100
AcDbEntity
  8
0
  6
Continuous
 62
     7
 48
4.0
370
    15
100
AcDbCircle
 10
18.9866761144
 20
8.286474975
 30
0.0
 40
0.1405000000000012
100
AcDbArc
 50
90.0
 51
270.0
  0
ARC
  5
31F
330
1F
100
AcDbEntity
  8
0
  6
Continuous
 62
     7
 48
4.0
370
    15
100
AcDbCircle
 10
13.9866761144
 20
11.286474975
 30
0.0
 40
0.1405000000000012
100
AcDbArc
 50
270.0
 51
0.0
  0
ARC
  5
320
330
1F
100
AcDbEntity
  8
0
  6
Continuous
 62
     7
 48
4.0
370
    15
100
AcDbCircle
 10
13.9866761144
 20
11.286474975
 30
0.0
 40
0.1405000000000012
100
AcDbArc
 50
0.0
 51
90.0
  0
LINE
  5
321
330
1F
100
AcDbEntity
  8
0
  6
HIDDEN
 62
     7
 48
2.0
370
     0
100
AcDbLine
 10
14.0176761144
 20
12.724474975
 30
0.0
 11
18.9556761144
 21
12.724474975
 31
0.0
  0
LINE
  5
322
330
1F
100
AcDbEntity
  8
0
  6
HIDDEN
 62
     7
 48
2.0
370
     0
100
AcDbLine
 10
13.9866761144
 20
12.724474975
 30
0.0
 11
13.6256761144
 21
12.724474975
 31
0.0
  0
LINE
  5
323
330
1F
100
AcDbEntity
  8
0
  6
HIDDEN
 62
     7
 48
2.0
370
     0
100
AcDbLine
 10
18.9866761144
 20
12.724474975
 30
0.0
 11
19.3476761144
 21
12.724474975
 31
0.0
  0
LINE
  5
324
330
1F
100
AcDbEntity
  8
0
  6
HIDDEN
 62
     7
 48
2.0
370
     0
100
AcDbLine
 10
19.4246761144
 20
12.348474975
 30
0.0
 11
19.3626761144
 21
12.348474975
 31
0.0
  0
LINE
  5
325
330
1F
100
AcDbEntity
  8
0
  6
HIDDEN
 62
     7
 48
2.0
370
     0
100
AcDbLine
 10
19.3626761144
 20
12.348474975
 30
0.0
 11
19.3626761144
 21
12.709474975
 31
0.0
  0
ARC
  5
326
330
1F
100
AcDbEntity
  8
0
  6
HIDDEN
 62
     7
 48
4.0
370
     0
100
AcDbCircle
 10
19.3476761144
 20
12.709474975
 30
0.0
 40
0.0770000000000035
100
AcDbArc
 50
0.0
 51
90.0
  0
ARC
  5
327
330
1F
100
AcDbEntity
  8
0
  6
HIDDEN
 62
     7
 48
4.0
370
     0
100
AcDbCircle
 10
19.3476761144
 20
12.709474975
 30
0.0
 40
0.0150000000000023
100
AcDbArc
 50
0.0
 51
90.0
  0
ARC
  5
328
330
1F
100
AcDbEntity
  8
0
  6
HIDDEN
 62
     7
 48
4.0
370
     0
100
AcDbCircle
 10
13.6256761144
 20
12.709474975
 30
0.0
 40
0.0770000000000035
100
AcDbArc
 50
90.0
 51
180.0
  0
ARC
  5
329
330
1F
100
AcDbEntity
  8
0
  6
HIDDEN
 62
     7
 48
4.0
370
     0
100
AcDbCircle
 10
13.6256761144
 20
12.709474975
 30
0.0
 40
0.0150000000000023
100
AcDbArc
 50
90.0
 51
180.0
  0
LINE
  5
32A
330
1F
100
AcDbEntity
  8
0
  6
HIDDEN
 62
     7
 48
2.0
370
     0
100
AcDbLine
 10
13.6106761144
 20
12.348474975
 30
0.0
 11
13.6106761144
 21
12.709474975
 31
0.0
  0
LINE
  5
32B
330
1F
100
AcDbEntity
  8
0
  6
HIDDEN
 62
     7
 48
2.0
370
     0
100
AcDbLine
 10
13.5486761144
 20
12.348474975
 30
0.0
 11
13.6106761144
 21
12.348474975
 31
0.0
  0
LINE
  5
32C
330
1F
100
AcDbEntity
  8
0
  6
HIDDEN
 62
     7
 48
2.0
370
     0
100
AcDbLine
 10
19.3476761144
 20
12.724474975
 30
0.0
 11
19.3476761144
 21
12.786474975
 31
0.0
  0
LINE
  5
32D
330
1F
100
AcDbEntity
  8
0
  6
HIDDEN
 62
     7
 48
2.0
370
     0
100
AcDbLine
 10
13.6256761144
 20
12.709474975
 30
0.0
 11
13.6256761144
 21
12.724474975
 31
0.0
  0
LINE
  5
32E
330
1F
100
AcDbEntity
  8
0
  6
HIDDEN
 62
     7
 48
2.0
370
     0
100
AcDbLine
 10
19.3476761144
 20
12.709474975
 30
0.0
 11
19.3476761144
 21
12.724474975
 31
0.0
  0
LINE
  5
32F
330
1F
100
AcDbEntity
  8
0
  6
HIDDEN
 62
     7
 48
2.0
370
     0
100
AcDbLine
 10
13.6256761144
 20
12.724474975
 30
0.0
 11
13.6256761144
 21
12.786474975
 31
0.0
  0
LINE
  5
330
330
1F
100
AcDbEntity
  8
0
  6
HIDDEN
 62
     7
 48
2.0
370
     0
100
AcDbLine
 10
13.6256761144
 20
12.348474975
 30
0.0
 11
13.9866761144
 21
12.348474975
 31
0.0
  0
LINE
  5
331
330
1F
100
AcDbEntity
  8
0
  6
HIDDEN
 62
     7
 48
2.0
370
     0
100
AcDbLine
 10
14.0176761144
 20
12.348474975
 30
0.0
 11
18.9556761144
 21
12.348474975
 31
0.0
  0
LINE
  5
332
330
1F
100
AcDbEntity
  8
0
  6
HIDDEN
 62
     7
 48
2.0
370
     0
100
AcDbLine
 10
18.9866761144
 20
12.348474975
 30
0.0
 11
19.3476761144
 21
12.348474975
 31
0.0
  0
LINE
  5
333
330
1F
100
AcDbEntity
  8
0
  6
HIDDEN
 62
     7
 48
2.0
370
     0
100
AcDbLine
 10
13.6256761144
 20
12.348474975
 30
0.0
 11
13.6256761144
 21
12.709474975
 31
0.0
  0
LINE
  5
334
330
1F
100
AcDbEntity
  8
0
  6
HIDDEN
 62
     7
 48
2.0
370
     0
100
AcDbLine
 10
19.3476761144
 20
12.348474975
 30
0.0
 11
19.3476761144
 21
12.709474975
 31
0.0
  0
LINE
  5
335
330
1F
100
AcDbEntity
  8
0
  6
HIDDEN
 62
     7
 48
2.0
370
     0
100
AcDbLine
 10
18.9556761144
 20
6.848474975
 30
0.0
 11
14.0176761144
 21
6.848474975
 31
0.0
  0
LINE
  5
336
330
1F
100
AcDbEntity
  8
0
  6
HIDDEN
 62
     7
 48
2.0
370
     0
100
AcDbLine
 10
18.9866761144
 20
6.848474975
 30
0.0
 11
19.3476761144
 21
6.848474975
 31
0.0
  0
LINE
  5
337
330
1F
100
AcDbEntity
  8
0
  6
HIDDEN
 62
     7
 48
2.0
370
     0
100
AcDbLine
 10
13.9866761144
 20
6.848474975
 30
0.0
 11
13.6256761144
 21
6.848474975
 31
0.0
  0
LINE
  5
338
330
1F
100
AcDbEntity
  8
0
  6
HIDDEN
 62
     7
 48
2.0
370
     0
100
AcDbLine
 10
13.5486761144
 20
7.224474975
 30
0.0
 11
13.6106761144
 21
7.224474975
 31
0.0
  0
LINE
  5
339
330
1F
100
AcDbEntity
  8
0
  6
HIDDEN
 62
     7
 48
2.0
370
     0
100
AcDbLine
 10
13.6106761144
 20
7.224474975
 30
0.0
 11
13.6106761144
 21
6.863474975
 31
0.0
  0
ARC
  5
33A
330
1F
100
AcDbEntity
  8
0
  6
HIDDEN
 62
     7
 48
4.0
370
     0
100
AcDbCircle
 10
13.6256761144
 20
6.863474975
 30
0.0
 40
0.077
100
AcDbArc
 50
180.0
 51
270.0
  0
ARC
  5
33B
330
1F
100
AcDbEntity
  8
0
  6
HIDDEN
 62
     7
 48
4.0
370
     0
100
AcDbCircle
 10
13.6256761144
 20
6.863474975
 30
0.0
 40
0.0150000000000006
100
AcDbArc
 50
180.0
 51
270.0
  0
ARC
  5
33C
330
1F
100
AcDbEntity
  8
0
  6
HIDDEN
 62
     7
 48
4.0
370
     0
100
AcDbCircle
 10
19.3476761144
 20
6.863474975
 30
0.0
 40
0.077
100
AcDbArc
 50
270.0
 51
0.0
  0
ARC
  5
33D
330
1F
100
AcDbEntity
  8
0
  6
HIDDEN
 62
     7
 48
4.0
370
     0
100
AcDbCircle
 10
19.3476761144
 20
6.863474975
 30
0.0
 40
0.0149999999999997
100
AcDbArc
 50
270.0
 51
0.0
  0
LINE
  5
33E
330
1F
100
AcDbEntity
  8
0
  6
HIDDEN
 62
     7
 48
2.0
370
     0
100
AcDbLine
 10
19.4246761144
 20
7.224474975
 30
0.0
 11
19.3626761144
 21
7.224474975
 31
0.0
  0
LINE
  5
33F
330
1F
100
AcDbEntity
  8
0
  6
HIDDEN
 62
     7
 48
2.0
370
     0
100
AcDbLine
 10
19.3626761144
 20
7.224474975
 30
0.0
 11
19.3626761144
 21
6.863474975
 31
0.0
  0
LINE
  5
340
330
1F
100
AcDbEntity
  8
0
  6
HIDDEN
 62
     7
 48
2.0
370
     0
100
AcDbLine
 10
13.6256761144
 20
6.848474975
 30
0.0
 11
13.6256761144
 21
6.786474975
 31
0.0
  0
LINE
  5
341
330
1F
100
AcDbEntity
  8
0
  6
HIDDEN
 62
     7
 48
2.0
370
     0
100
AcDbLine
 10
19.3476761144
 20
6.863474975
 30
0.0
 11
19.3476761144
 21
6.848474975
 31
0.0
  0
LINE
  5
342
330
1F
100
AcDbEntity
  8
0
  6
HIDDEN
 62
     7
 48
2.0
370
     0
100
AcDbLine
 10
13.6256761144
 20
6.863474975
 30
0.0
 11
13.6256761144
 21
6.848474975
 31
0.0
  0
LINE
  5
343
330
1F
100
AcDbEntity
  8
0
  6
HIDDEN
 62
     7
 48
2.0
370
     0
100
AcDbLine
 10
19.3476761144
 20
6.848474975
 30
0.0
 11
19.3476761144
 21
6.786474975
 31
0.0
  0
LINE
  5
344
330
1F
100
AcDbEntity
  8
0
  6
HIDDEN
 62
     7
 48
2.0
370
     0
100
AcDbLine
 10
19.3476761144
 20
7.224474975
 30
0.0
 11
18.9866761144
 21
7.224474975
 31
0.0
  0
LINE
  5
345
330
1F
100
AcDbEntity
  8
0
  6
HIDDEN
 62
     7
 48
2.0
370
     0
100
AcDbLine
 10
18.9556761144
 20
7.224474975
 30
0.0
 11
14.0176761144
 21
7.224474975
 31
0.0
  0
LINE
  5
346
330
1F
100
AcDbEntity
  8
0
  6
HIDDEN
 62
     7
 48
2.0
370
     0
100
AcDbLine
 10
13.9866761144
 20
7.224474975
 30
0.0
 11
13.6256761144
 21
7.224474975
 31
0.0
  0
LINE
  5
347
330
1F
100
AcDbEntity
  8
0
  6
HIDDEN
 62
     7
 48
2.0
370
     0
100
AcDbLine
 10
19.3476761144
 20
7.224474975
 30
0.0
 11
19.3476761144
 21
6.863474975
 31
0.0
  0
LINE
  5
348
330
1F
100
AcDbEntity
  8
0
  6
HIDDEN
 62
     7
 48
2.0
370
     0
100
AcDbLine
 10
13.6256761144
 20
7.224474975
 30
0.0
 11
13.6256761144
 21
6.863474975
 31
0.0
  0
LINE
  5
349
330
1F
100
AcDbEntity
  8
0
  6
HIDDEN
 62
     7
 48
2.0
370
     0
100
AcDbLine
 10
19.4246761144
 20
12.786474975
 30
0.0
 11
19.4246761144
 21
6.786474975
 31
0.0
  0
LINE
  5
34A
330
1F
100
AcDbEntity
  8
0
  6
HIDDEN
 62
     7
 48
2.0
370
     0
100
AcDbLine
 10
13.5486761144
 20
12.786474975
 30
0.0
 11
13.5486761144
 21
6.786474975
 31
0.0
  0
CIRCLE
  5
34B
330
1F
100
AcDbEntity
  8
0
  6
HIDDEN
 62
     7
 48
4.0
370
     0
100
AcDbCircle
 10
15.4866761144
 20
10.786474975
 30
0.0
 40
0.1470000000000002
  0
ARC
  5
34C
330
1F
100
AcDbEntity
  8
0
  6
HIDDEN
 62
     7
 48
4.0
370
     0
100
AcDbCircle
 10
18.9866761144
 20
11.286474975
 30
0.0
 40
0.1405000000000012
100
AcDbArc
 50
270.0
 51
90.0
  0
ARC
  5
34D
330
1F
100
AcDbEntity
  8
0
  6
HIDDEN
 62
     7
 48
4.0
370
     0
100
AcDbCircle
 10
13.9866761144
 20
8.286474975
 30
0.0
 40
0.140500000000003
100
AcDbArc
 50
90.0
 51
180.0
  0
ARC
  5
34E
330
1F
100
AcDbEntity
  8
0
  6
HIDDEN
 62
     7
 48
4.0
370
     0
100
AcDbCircle
 10
13.9866761144
 20
8.286474975
 30
0.0
 40
0.140500000000003
100
AcDbArc
 50
180.0
 51
270.0
  0
ARC
  5
34F
330
1F
100
AcDbEntity
  8
0
  6
HIDDEN
 62
     7
 48
4.0
370
     0
100
AcDbCircle
 10
18.9866761144
 20
8.286474975
 30
0.0
 40
0.1405000000000012
100
AcDbArc
 50
270.0
 51
0.0
  0
ARC
  5
350
330
1F
100
AcDbEntity
  8
0
  6
HIDDEN
 62
     7
 48
4.0
370
     0
100
AcDbCircle
 10
18.9866761144
 20
8.286474975
 30
0.0
 40
0.1404999999999994
100
AcDbArc
 50
0.0
 51
90.0
  0
ARC
  5
351
330
1F
100
AcDbEntity
  8
0
  6
HIDDEN
 62
     7
 48
4.0
370
     0
100
AcDbCircle
 10
13.9866761144
 20
11.286474975
 30
0.0
 40
0.1405000000000012
100
AcDbArc
 50
90.0
 51
270.0
  0
CIRCLE
  5
352
330
1F
100
AcDbEntity
  8
0
  6
HIDDEN
 62
     7
 48
4.0
370
     0
100
AcDbCircle
 10
15.4866761144
 20
10.786474975
 30
0.0
 40
0.6249999999999982
  0
DIMENSION
  5
353
330
1F
100
AcDbEntity
  8
0
  6
Continuous
 62
     7
 48
2.0
370
     0
100
AcDbDimension
  2
*D14
 10
19.4866761144
 20
11.7639782162
 30
0.0
 11
20.7602620125
 21
11.7639782162
 31
0.0
 70
   160
 71
     2
 42
-1.0
  3
SLDDIMSTYLE3
100
AcDbAlignedDimension
 13
18.9866761144
 23
12.786474975
 33
0.0
 14
19.4866761144
 24
12.786474975
 34
0.0
100
AcDbRotatedDimension
  0
INSERT
  5
369
102
{ACAD_REACTORS
330
36A
102
}
330
1F
100
AcDbEntity
  8
0
  6
Continuous
 62
     7
 48
2.0
370
     0
100
AcDbBlockReference
  2
SW_NOTE_5
 10
17.1528291631
 20
13.8544147081
 30
0.0
  0
LEADER
  5
36A
330
1F
100
AcDbEntity
  8
0
  6
Continuous
 62
     7
 48
2.0
370
     0
100
AcDbLeader
  3
SLDDIMSTYLE1
 73
     2
 76
     3
 10
15.6949095746
 20
11.3933570683
 30
0.0
 10
16.6528291631
 20
13.8544147081
 30
0.0
 10
17.1528291631
 20
13.8544147081
 30
0.0
340
369
  0
MTEXT
  5
36B
330
1F
100
AcDbEntity
  8
0
  6
Continuous
 62
     7
 48
2.0
370
     0
100
AcDbMText
 10
15.0767803083
 20
6.3166266538
 30
0.0
 40
0.25
 41
0.0
 71
     1
 72
     1
  1
\LCOVER REMOVED
  7
SLDTEXTSTYLE0
 73
     1
 44
1.0
  0
ENDSEC
  0
SECTION
  2
OBJECTS
  0
DICTIONARY
  5
C
330
0
100
AcDbDictionary
281
     1
  3
ACAD_GROUP
350
D
  3
ACAD_LAYOUT
350
1A
  3
ACAD_MATERIAL
350
3B
  3
ACAD_MLEADERSTYLE
350
36E
  3
ACAD_MLINESTYLE
350
17
  3
ACAD_PLOTSETTINGS
350
19
  3
ACAD_PLOTSTYLENAME
350
E
  3
ACAD_SCALELIST
350
58
  3
ACAD_VISUALSTYLE
350
2A
  3
AcDbVariableDictionary
350
36C
  0
DICTIONARY
  5
D
102
{ACAD_REACTORS
330
C
102
}
330
C
100
AcDbDictionary
281
     1
  0
DICTIONARY
  5
1A
102
{ACAD_REACTORS
330
C
102
}
330
C
100
AcDbDictionary
281
     1
  3
Layout1
350
1E
  3
Layout2
350
26
  3
Model
350
22
  0
DICTIONARY
  5
3B
102
{ACAD_REACTORS
330
C
102
}
330
C
100
AcDbDictionary
281
     1
  3
ByBlock
350
3D
  3
ByLayer
350
3C
  3
Global
350
3E
  0
DICTIONARY
  5
36E
102
{ACAD_REACTORS
330
C
102
}
330
C
100
AcDbDictionary
281
     1
  0
DICTIONARY
  5
17
102
{ACAD_REACTORS
330
C
102
}
330
C
100
AcDbDictionary
281
     1
  3
Standard
350
18
  0
DICTIONARY
  5
19
102
{ACAD_REACTORS
330
C
102
}
330
C
100
AcDbDictionary
281
     1
  0
ACDBDICTIONARYWDFLT
  5
E
102
{ACAD_REACTORS
330
C
102
}
330
C
100
AcDbDictionary
281
     1
  3
Normal
350
F
100
AcDbDictionaryWithDefault
340
F
  0
DICTIONARY
  5
58
102
{ACAD_REACTORS
330
C
102
}
330
C
100
AcDbDictionary
281
     1
  3
A0
350
59
  3
A1
350
5A
  3
A2
350
5B
  3
A3
350
5C
  3
A4
350
5D
  3
A5
350
5E
  3
A6
350
5F
  3
A7
350
60
  3
A8
350
61
  3
A9
350
62
  3
B0
350
63
  3
B1
350
64
  3
B2
350
65
  3
B3
350
66
  3
B4
350
67
  3
B5
350
68
  3
B6
350
69
  3
B7
350
6A
  3
B8
350
6B
  3
B9
350
6C
  3
C0
350
6D
  3
C1
350
6E
  3
C2
350
6F
  3
C3
350
70
  3
C4
350
71
  3
C5
350
72
  3
C6
350
73
  3
C7
350
74
  3
C8
350
75
  3
C9
350
76
  3
D0
350
77
  3
D1
350
78
  3
D2
350
79
  0
DICTIONARY
  5
2A
102
{ACAD_REACTORS
330
C
102
}
330
C
100
AcDbDictionary
281
     1
  3
2dWireframe
350
2F
  3
3D Hidden
350
31
  3
3dWireframe
350
30
  3
Basic
350
32
  3
Brighten
350
36
  3
ColorChange
350
3A
  3
Conceptual
350
34
  3
Dim
350
35
  3
Facepattern
350
39
  3
Flat
350
2B
  3
FlatWithEdges
350
2C
  3
Gouraud
350
2D
  3
GouraudWithEdges
350
2E
  3
Linepattern
350
38
  3
Realistic
350
33
  3
Thicken
350
37
  0
DICTIONARY
  5
36C
102
{ACAD_REACTORS
330
C
102
}
330
C
100
AcDbDictionary
281
     1
  3
CANNOSCALE
350
36F
  3
DIMASSOC
350
370
  3
HIDETEXT
350
371
  0
LAYOUT
  5
1E
102
{ACAD_REACTORS
330
1A
102
}
330
1A
100
AcDbPlotSettings
  1

  2
none_device
  4

  6

 40
0.0
 41
0.0
 42
0.0
 43
0.0
 44
0.0
 45
0.0
 46
0.0
 47
0.0
 48
0.0
 49
0.0
140
0.0
141
0.0
142
1.0
143
1.0
 70
   688
 72
     0
 73
     0
 74
     5
  7

 75
    16
147
1.0
148
0.0
149
0.0
100
AcDbLayout
  1
Layout1
 70
     1
 71
     1
 10
0.0
 20
0.0
 11
12.0
 21
9.0
 12
0.0
 22
0.0
 32
0.0
 14
1.0000000000E+20
 24
1.0000000000E+20
 34
1.0000000000E+20
 15
-1.0000000000E+20
 25
-1.0000000000E+20
 35
-1.0000000000E+20
146
0.0
 13
0.0
 23
0.0
 33
0.0
 16
1.0
 26
0.0
 36
0.0
 17
0.0
 27
1.0
 37
0.0
 76
     0
330
1B
  0
LAYOUT
  5
26
102
{ACAD_REACTORS
330
1A
102
}
330
1A
100
AcDbPlotSettings
  1

  2
none_device
  4

  6

 40
0.0
 41
0.0
 42
0.0
 43
0.0
 44
0.0
 45
0.0
 46
0.0
 47
0.0
 48
0.0
 49
0.0
140
0.0
141
0.0
142
1.0
143
1.0
 70
   688
 72
     0
 73
     0
 74
     5
  7

 75
    16
147
1.0
148
0.0
149
0.0
100
AcDbLayout
  1
Layout2
 70
     1
 71
     2
 10
0.0
 20
0.0
 11
0.0
 21
0.0
 12
0.0
 22
0.0
 32
0.0
 14
0.0
 24
0.0
 34
0.0
 15
0.0
 25
0.0
 35
0.0
146
0.0
 13
0.0
 23
0.0
 33
0.0
 16
1.0
 26
0.0
 36
0.0
 17
0.0
 27
1.0
 37
0.0
 76
     0
330
23
  0
LAYOUT
  5
22
102
{ACAD_REACTORS
330
1A
102
}
330
1A
100
AcDbPlotSettings
  1

  2
none_device
  4

  6

 40
0.0
 41
0.0
 42
0.0
 43
0.0
 44
0.0
 45
0.0
 46
0.0
 47
0.0
 48
0.0
 49
0.0
140
0.0
141
0.0
142
1.0
143
1.0
 70
  1712
 72
     0
 73
     0
 74
     0
  7

 75
     0
147
1.0
148
0.0
149
0.0
100
AcDbLayout
  1
Model
 70
     1
 71
     0
 10
0.0
 20
0.0
 11
34.0
 21
22.0
 12
0.0
 22
0.0
 32
0.0
 14
0.0
 24
0.0
 34
0.0
 15
34.0
 25
22.0
 35
0.0
146
0.0
 13
0.0
 23
0.0
 33
0.0
 16
1.0
 26
0.0
 36
0.0
 17
0.0
 27
1.0
 37
0.0
 76
     0
330
1F
331
29
  0
MATERIAL
  5
3D
102
{ACAD_REACTORS
330
3B
102
}
102
{ACAD_XDICTIONARY
360
394
102
}
330
3B
100
AcDbMaterial
  1
ByBlock
  0
MATERIAL
  5
3C
102
{ACAD_REACTORS
330
3B
102
}
102
{ACAD_XDICTIONARY
360
392
102
}
330
3B
100
AcDbMaterial
  1
ByLayer
  0
MATERIAL
  5
3E
102
{ACAD_REACTORS
330
3B
102
}
102
{ACAD_XDICTIONARY
360
396
102
}
330
3B
100
AcDbMaterial
  1
Global
  0
MLINESTYLE
  5
18
102
{ACAD_REACTORS
330
17
102
}
330
17
100
AcDbMlineStyle
  2
Standard
 70
     0
  3

 62
   256
 51
90.0
 52
90.0
 71
     2
 49
0.5
 62
   256
  6
BYLAYER
 49
-0.5
 62
   256
  6
BYLAYER
  0
ACDBPLACEHOLDER
  5
F
102
{ACAD_REACTORS
330
E
102
}
330
E
  0
SCALE
  5
59
102
{ACAD_REACTORS
330
58
102
}
330
58
100
AcDbScale
 70
     0
300
1:1
140
1.0
141
1.0
290
     1
  0
SCALE
  5
5A
102
{ACAD_REACTORS
330
58
102
}
330
58
100
AcDbScale
 70
     0
300
1:2
140
1.0
141
2.0
290
     0
  0
SCALE
  5
5B
102
{ACAD_REACTORS
330
58
102
}
330
58
100
AcDbScale
 70
     0
300
1:4
140
1.0
141
4.0
290
     0
  0
SCALE
  5
5C
102
{ACAD_REACTORS
330
58
102
}
330
58
100
AcDbScale
 70
     0
300
1:5
140
1.0
141
5.0
290
     0
  0
SCALE
  5
5D
102
{ACAD_REACTORS
330
58
102
}
330
58
100
AcDbScale
 70
     0
300
1:8
140
1.0
141
8.0
290
     0
  0
SCALE
  5
5E
102
{ACAD_REACTORS
330
58
102
}
330
58
100
AcDbScale
 70
     0
300
1:10
140
1.0
141
10.0
290
     0
  0
SCALE
  5
5F
102
{ACAD_REACTORS
330
58
102
}
330
58
100
AcDbScale
 70
     0
300
1:16
140
1.0
141
16.0
290
     0
  0
SCALE
  5
60
102
{ACAD_REACTORS
330
58
102
}
330
58
100
AcDbScale
 70
     0
300
1:20
140
1.0
141
20.0
290
     0
  0
SCALE
  5
61
102
{ACAD_REACTORS
330
58
102
}
330
58
100
AcDbScale
 70
     0
300
1:30
140
1.0
141
30.0
290
     0
  0
SCALE
  5
62
102
{ACAD_REACTORS
330
58
102
}
330
58
100
AcDbScale
 70
     0
300
1:40
140
1.0
141
40.0
290
     0
  0
SCALE
  5
63
102
{ACAD_REACTORS
330
58
102
}
330
58
100
AcDbScale
 70
     0
300
1:50
140
1.0
141
50.0
290
     0
  0
SCALE
  5
64
102
{ACAD_REACTORS
330
58
102
}
330
58
100
AcDbScale
 70
     0
300
1:100
140
1.0
141
100.0
290
     0
  0
SCALE
  5
65
102
{ACAD_REACTORS
330
58
102
}
330
58
100
AcDbScale
 70
     0
300
2:1
140
2.0
141
1.0
290
     0
  0
SCALE
  5
66
102
{ACAD_REACTORS
330
58
102
}
330
58
100
AcDbScale
 70
     0
300
4:1
140
4.0
141
1.0
290
     0
  0
SCALE
  5
67
102
{ACAD_REACTORS
330
58
102
}
330
58
100
AcDbScale
 70
     0
300
8:1
140
8.0
141
1.0
290
     0
  0
SCALE
  5
68
102
{ACAD_REACTORS
330
58
102
}
330
58
100
AcDbScale
 70
     0
300
10:1
140
10.0
141
1.0
290
     0
  0
SCALE
  5
69
102
{ACAD_REACTORS
330
58
102
}
330
58
100
AcDbScale
 70
     0
300
100:1
140
100.0
141
1.0
290
     0
  0
SCALE
  5
6A
102
{ACAD_REACTORS
330
58
102
}
330
58
100
AcDbScale
 70
     0
300
1/128" = 1'-0"
140
0.0078125
141
12.0
290
     0
  0
SCALE
  5
6B
102
{ACAD_REACTORS
330
58
102
}
330
58
100
AcDbScale
 70
     0
300
1/64" = 1'-0"
140
0.015625
141
12.0
290
     0
  0
SCALE
  5
6C
102
{ACAD_REACTORS
330
58
102
}
330
58
100
AcDbScale
 70
     0
300
1/32" = 1'-0"
140
0.03125
141
12.0
290
     0
  0
SCALE
  5
6D
102
{ACAD_REACTORS
330
58
102
}
330
58
100
AcDbScale
 70
     0
300
1/16" = 1'-0"
140
0.0625
141
12.0
290
     0
  0
SCALE
  5
6E
102
{ACAD_REACTORS
330
58
102
}
330
58
100
AcDbScale
 70
     0
300
3/32" = 1'-0"
140
0.09375
141
12.0
290
     0
  0
SCALE
  5
6F
102
{ACAD_REACTORS
330
58
102
}
330
58
100
AcDbScale
 70
     0
300
1/8" = 1'-0"
140
0.125
141
12.0
290
     0
  0
SCALE
  5
70
102
{ACAD_REACTORS
330
58
102
}
330
58
100
AcDbScale
 70
     0
300
3/16" = 1'-0"
140
0.1875
141
12.0
290
     0
  0
SCALE
  5
71
102
{ACAD_REACTORS
330
58
102
}
330
58
100
AcDbScale
 70
     0
300
1/4" = 1'-0"
140
0.25
141
12.0
290
     0
  0
SCALE
  5
72
102
{ACAD_REACTORS
330
58
102
}
330
58
100
AcDbScale
 70
     0
300
3/8" = 1'-0"
140
0.375
141
12.0
290
     0
  0
SCALE
  5
73
102
{ACAD_REACTORS
330
58
102
}
330
58
100
AcDbScale
 70
     0
300
1/2" = 1'-0"
140
0.5
141
12.0
290
     0
  0
SCALE
  5
74
102
{ACAD_REACTORS
330
58
102
}
330
58
100
AcDbScale
 70
     0
300
3/4" = 1'-0"
140
0.75
141
12.0
290
     0
  0
SCALE
  5
75
102
{ACAD_REACTORS
330
58
102
}
330
58
100
AcDbScale
 70
     0
300
1" = 1'-0"
140
1.0
141
12.0
290
     0
  0
SCALE
  5
76
102
{ACAD_REACTORS
330
58
102
}
330
58
100
AcDbScale
 70
     0
300
1-1/2" = 1'-0"
140
1.5
141
12.0
290
     0
  0
SCALE
  5
77
102
{ACAD_REACTORS
330
58
102
}
330
58
100
AcDbScale
 70
     0
300
3" = 1'-0"
140
3.0
141
12.0
290
     0
  0
SCALE
  5
78
102
{ACAD_REACTORS
330
58
102
}
330
58
100
AcDbScale
 70
     0
300
6" = 1'-0"
140
6.0
141
12.0
290
     0
  0
SCALE
  5
79
102
{ACAD_REACTORS
330
58
102
}
330
58
100
AcDbScale
 70
     0
300
1'-0" = 1'-0"
140
12.0
141
12.0
290
     0
  0
VISUALSTYLE
  5
2F
102
{ACAD_REACTORS
330
2A
102
}
102
{ACAD_XDICTIONARY
360
37A
102
}
330
2A
100
AcDbVisualStyle
  2
2dWireframe
 70
     4
 71
     0
 72
     2
 73
     0
 90
        0
 40
-0.6
 41
-30.0
 62
     5
 63
     7
 74
     1
 91
        4
 64
     7
 65
   257
 75
     1
175
     1
 42
1.0
 92
        0
 66
   257
 43
1.0
 76
     1
 77
     6
 78
     2
 67
     7
 79
     5
170
     0
171
     0
290
     0
174
     0
 93
        1
 44
0.0
173
     0
291
     0
 45
0.0
1001
ACAD
1000
AcDbSavedByObjectVersion
1070
     0
  0
VISUALSTYLE
  5
31
102
{ACAD_REACTORS
330
2A
102
}
102
{ACAD_XDICTIONARY
360
37E
102
}
330
2A
100
AcDbVisualStyle
  2
3D Hidden
 70
     6
 71
     1
 72
     2
 73
     2
 90
        0
 40
-0.6
 41
-30.0
 62
     5
 63
     7
 74
     2
 91
        2
 64
     7
 65
   257
 75
     2
175
     1
 42
40.0
 92
        0
 66
   257
 43
1.0
 76
     1
 77
     6
 78
     2
 67
     7
 79
     3
170
     0
171
     0
290
     0
174
     0
 93
        1
 44
0.0
173
     0
291
     0
 45
0.0
1001
ACAD
1000
AcDbSavedByObjectVersion
1070
     0
  0
VISUALSTYLE
  5
30
102
{ACAD_REACTORS
330
2A
102
}
102
{ACAD_XDICTIONARY
360
37C
102
}
330
2A
100
AcDbVisualStyle
  2
3dWireframe
 70
     5
 71
     0
 72
     2
 73
     0
 90
        0
 40
-0.6
 41
-30.0
 62
     5
 63
     7
 74
     1
 91
        4
 64
     7
 65
   257
 75
     1
175
     1
 42
1.0
 92
        0
 66
   257
 43
1.0
 76
     1
 77
     6
 78
     2
 67
     7
 79
     5
170
     0
171
     0
290
     0
174
     0
 93
        1
 44
0.0
173
     0
291
     0
 45
0.0
1001
ACAD
1000
AcDbSavedByObjectVersion
1070
     0
  0
VISUALSTYLE
  5
32
102
{ACAD_REACTORS
330
2A
102
}
102
{ACAD_XDICTIONARY
360
380
102
}
330
2A
100
AcDbVisualStyle
  2
Basic
 70
     7
 71
     1
 72
     0
 73
     1
 90
        0
 40
-0.6
 41
-30.0
 62
     5
 63
     7
 74
     0
 91
        4
 64
     7
 65
   257
 75
     1
175
     1
 42
1.0
 92
        8
 66
     7
 43
1.0
 76
     1
 77
     6
 78
     2
 67
     7
 79
     5
170
     0
171
     0
290
     0
174
     0
 93
        1
 44
0.0
173
     0
291
     1
 45
0.0
1001
ACAD
1000
AcDbSavedByObjectVersion
1070
     0
  0
VISUALSTYLE
  5
36
102
{ACAD_REACTORS
330
2A
102
}
102
{ACAD_XDICTIONARY
360
388
102
}
330
2A
100
AcDbVisualStyle
  2
Brighten
 70
    12
 71
     2
 72
     2
 73
     0
 90
        0
 40
-0.6
 41
-30.0
 62
     5
 63
     7
 74
     1
 91
        4
 64
     7
 65
   257
 75
     1
175
     1
 42
1.0
 92
        8
 66
     7
 43
1.0
 76
     1
 77
     6
 78
     2
 67
     7
 79
     5
170
     0
171
     0
290
     0
174
     0
 93
        1
 44
50.0
173
     0
291
     1
 45
0.0
1001
ACAD
1000
AcDbSavedByObjectVersion
1070
     0
  0
VISUALSTYLE
  5
3A
102
{ACAD_REACTORS
330
2A
102
}
102
{ACAD_XDICTIONARY
360
390
102
}
330
2A
100
AcDbVisualStyle
  2
ColorChange
 70
    16
 71
     2
 72
     2
 73
     3
 90
        0
 40
-0.6
 41
-30.0
 62
     5
 63
     8
 74
     1
 91
        4
 64
     7
 65
   257
 75
     1
175
     1
 42
1.0
 92
        8
 66
     8
 43
1.0
 76
     1
 77
     6
 78
     2
 67
     7
 79
     5
170
     0
171
     0
290
     0
174
     0
 93
        1
 44
0.0
173
     0
291
     1
 45
0.0
1001
ACAD
1000
AcDbSavedByObjectVersion
1070
     0
  0
VISUALSTYLE
  5
34
102
{ACAD_REACTORS
330
2A
102
}
102
{ACAD_XDICTIONARY
360
384
102
}
330
2A
100
AcDbVisualStyle
  2
Conceptual
 70
     9
 71
     3
 72
     2
 73
     0
 90
        0
 40
-0.6
 41
-30.0
 62
     5
 63
     7
 74
     2
 91
        2
 64
     7
 65
   257
 75
     1
175
     1
 42
40.0
 92
        8
 66
     7
 43
1.0
 76
     1
 77
     6
 78
     2
 67
     7
 79
     3
170
     0
171
     0
290
     0
174
     0
 93
        1
 44
0.0
173
     0
291
     0
 45
0.0
1001
ACAD
1000
AcDbSavedByObjectVersion
1070
     0
  0
VISUALSTYLE
  5
35
102
{ACAD_REACTORS
330
2A
102
}
102
{ACAD_XDICTIONARY
360
386
102
}
330
2A
100
AcDbVisualStyle
  2
Dim
 70
    11
 71
     2
 72
     2
 73
     0
 90
        0
 40
-0.6
 41
-30.0
 62
     5
 63
     7
 74
     1
 91
        4
 64
     7
 65
   257
 75
     1
175
     1
 42
1.0
 92
        8
 66
     7
 43
1.0
 76
     1
 77
     6
 78
     2
 67
     7
 79
     5
170
     0
171
     0
290
     0
174
     0
 93
        1
 44
-50.0
173
     0
291
     1
 45
0.0
1001
ACAD
1000
AcDbSavedByObjectVersion
1070
     0
  0
VISUALSTYLE
  5
39
102
{ACAD_REACTORS
330
2A
102
}
102
{ACAD_XDICTIONARY
360
38E
102
}
330
2A
100
AcDbVisualStyle
  2
Facepattern
 70
    15
 71
     2
 72
     2
 73
     0
 90
        0
 40
-0.6
 41
-30.0
 62
     5
 63
     7
 74
     1
 91
        4
 64
     7
 65
   257
 75
     1
175
     1
 42
1.0
 92
        8
 66
     7
 43
1.0
 76
     1
 77
     6
 78
     2
 67
     7
 79
     5
170
     0
171
     0
290
     0
174
     0
 93
        1
 44
0.0
173
     0
291
     1
 45
0.0
1001
ACAD
1000
AcDbSavedByObjectVersion
1070
     0
  0
VISUALSTYLE
  5
2B
102
{ACAD_REACTORS
330
2A
102
}
102
{ACAD_XDICTIONARY
360
372
102
}
330
2A
100
AcDbVisualStyle
  2
Flat
 70
     0
 71
     2
 72
     1
 73
     1
 90
        2
 40
-0.6
 41
30.0
 62
     5
 63
     7
 74
     0
 91
        4
 64
     7
 65
   257
 75
     1
175
     1
 42
1.0
 92
        8
 66
     7
 43
1.0
 76
     1
 77
     6
 78
     2
 67
     7
 79
     5
170
     0
171
     0
290
     0
174
     0
 93
       13
 44
0.0
173
     0
291
     1
 45
0.0
1001
ACAD
1000
AcDbSavedByObjectVersion
1070
     0
  0
VISUALSTYLE
  5
2C
102
{ACAD_REACTORS
330
2A
102
}
102
{ACAD_XDICTIONARY
360
374
102
}
330
2A
100
AcDbVisualStyle
  2
FlatWithEdges
 70
     1
 71
     2
 72
     1
 73
     1
 90
        2
 40
-0.6
 41
30.0
 62
     5
 63
     7
 74
     1
 91
        4
 64
     7
 65
   257
 75
     1
175
     1
 42
1.0
 92
        0
 66
   257
 43
1.0
 76
     1
 77
     6
 78
     2
 67
     7
 79
     5
170
     0
171
     0
290
     0
174
     0
 93
       13
 44
0.0
173
     0
291
     1
 45
0.0
1001
ACAD
1000
AcDbSavedByObjectVersion
1070
     0
  0
VISUALSTYLE
  5
2D
102
{ACAD_REACTORS
330
2A
102
}
102
{ACAD_XDICTIONARY
360
376
102
}
330
2A
100
AcDbVisualStyle
  2
Gouraud
 70
     2
 71
     2
 72
     2
 73
     1
 90
        2
 40
-0.6
 41
30.0
 62
     5
 63
     7
 74
     0
 91
        4
 64
     7
 65
   257
 75
     1
175
     1
 42
1.0
 92
        0
 66
     7
 43
1.0
 76
     1
 77
     6
 78
     2
 67
     7
 79
     5
170
     0
171
     0
290
     0
174
     0
 93
       13
 44
0.0
173
     0
291
     1
 45
0.0
1001
ACAD
1000
AcDbSavedByObjectVersion
1070
     0
  0
VISUALSTYLE
  5
2E
102
{ACAD_REACTORS
330
2A
102
}
102
{ACAD_XDICTIONARY
360
378
102
}
330
2A
100
AcDbVisualStyle
  2
GouraudWithEdges
 70
     3
 71
     2
 72
     2
 73
     1
 90
        2
 40
-0.6
 41
30.0
 62
     5
 63
     7
 74
     1
 91
        4
 64
     7
 65
   257
 75
     1
175
     1
 42
1.0
 92
        0
 66
   257
 43
1.0
 76
     1
 77
     6
 78
     2
 67
     7
 79
     5
170
     0
171
     0
290
     0
174
     0
 93
       13
 44
0.0
173
     0
291
     1
 45
0.0
1001
ACAD
1000
AcDbSavedByObjectVersion
1070
     0
  0
VISUALSTYLE
  5
38
102
{ACAD_REACTORS
330
2A
102
}
102
{ACAD_XDICTIONARY
360
38C
102
}
330
2A
100
AcDbVisualStyle
  2
Linepattern
 70
    14
 71
     2
 72
     2
 73
     0
 90
        0
 40
-0.6
 41
-30.0
 62
     5
 63
     7
 74
     1
 91
        4
 64
     7
 65
   257
 75
     7
175
     7
 42
1.0
 92
        8
 66
     7
 43
1.0
 76
     1
 77
     6
 78
     2
 67
     7
 79
     5
170
     0
171
     0
290
     0
174
     0
 93
        1
 44
0.0
173
     0
291
     1
 45
0.0
1001
ACAD
1000
AcDbSavedByObjectVersion
1070
     0
  0
VISUALSTYLE
  5
33
102
{ACAD_REACTORS
330
2A
102
}
102
{ACAD_XDICTIONARY
360
382
102
}
330
2A
100
AcDbVisualStyle
  2
Realistic
 70
     8
 71
     2
 72
     2
 73
     0
 90
        0
 40
-0.6
 41
-30.0
 62
     5
 63
     7
 74
     1
 91
        0
 64
     7
 65
   257
 75
     1
175
     1
 42
1.0
 92
        8
 66
     8
 43
1.0
 76
     1
 77
     6
 78
     2
 67
     7
 79
     5
170
     0
171
     0
290
     0
174
     0
 93
       13
 44
0.0
173
     0
291
     0
 45
0.0
1001
ACAD
1000
AcDbSavedByObjectVersion
1070
     0
  0
VISUALSTYLE
  5
37
102
{ACAD_REACTORS
330
2A
102
}
102
{ACAD_XDICTIONARY
360
38A
102
}
330
2A
100
AcDbVisualStyle
  2
Thicken
 70
    13
 71
     2
 72
     2
 73
     0
 90
        0
 40
-0.6
 41
-30.0
 62
     5
 63
     7
 74
     1
 91
        4
 64
     7
 65
   257
 75
     1
175
     1
 42
1.0
 92
       12
 66
     7
 43
1.0
 76
     1
 77
     6
 78
     2
 67
     7
 79
     5
170
     0
171
     0
290
     0
174
     0
 93
        1
 44
0.0
173
     0
291
     1
 45
0.0
1001
ACAD
1000
AcDbSavedByObjectVersion
1070
     0
  0
DICTIONARYVAR
  5
36F
102
{ACAD_REACTORS
330
36C
102
}
330
36C
100
DictionaryVariables
280
     0
  1
1:1
  0
DICTIONARYVAR
  5
370
102
{ACAD_REACTORS
330
36C
102
}
330
36C
100
DictionaryVariables
280
     0
  1
2
  0
DICTIONARYVAR
  5
371
102
{ACAD_REACTORS
330
36C
102
}
330
36C
100
DictionaryVariables
280
     0
  1
1
  0
DICTIONARY
  5
394
330
3D
100
AcDbDictionary
280
     1
281
     1
  3
ACAD_XREC_ROUNDTRIP
360
395
  0
DICTIONARY
  5
392
330
3C
100
AcDbDictionary
280
     1
281
     1
  3
ACAD_XREC_ROUNDTRIP
360
393
  0
DICTIONARY
  5
396
330
3E
100
AcDbDictionary
280
     1
281
     1
  3
ACAD_XREC_ROUNDTRIP
360
397
  0
DICTIONARY
  5
37A
330
2F
100
AcDbDictionary
280
     1
281
     1
  3
ACAD_XREC_ROUNDTRIP
360
37B
  0
DICTIONARY
  5
37E
330
31
100
AcDbDictionary
280
     1
281
     1
  3
ACAD_XREC_ROUNDTRIP
360
37F
  0
DICTIONARY
  5
37C
330
30
100
AcDbDictionary
280
     1
281
     1
  3
ACAD_XREC_ROUNDTRIP
360
37D
  0
DICTIONARY
  5
380
330
32
100
AcDbDictionary
280
     1
281
     1
  3
ACAD_XREC_ROUNDTRIP
360
381
  0
DICTIONARY
  5
388
330
36
100
AcDbDictionary
280
     1
281
     1
  3
ACAD_XREC_ROUNDTRIP
360
389
  0
DICTIONARY
  5
390
330
3A
100
AcDbDictionary
280
     1
281
     1
  3
ACAD_XREC_ROUNDTRIP
360
391
  0
DICTIONARY
  5
384
330
34
100
AcDbDictionary
280
     1
281
     1
  3
ACAD_XREC_ROUNDTRIP
360
385
  0
DICTIONARY
  5
386
330
35
100
AcDbDictionary
280
     1
281
     1
  3
ACAD_XREC_ROUNDTRIP
360
387
  0
DICTIONARY
  5
38E
330
39
100
AcDbDictionary
280
     1
281
     1
  3
ACAD_XREC_ROUNDTRIP
360
38F
  0
DICTIONARY
  5
372
330
2B
100
AcDbDictionary
280
     1
281
     1
  3
ACAD_XREC_ROUNDTRIP
360
373
  0
DICTIONARY
  5
374
330
2C
100
AcDbDictionary
280
     1
281
     1
  3
ACAD_XREC_ROUNDTRIP
360
375
  0
DICTIONARY
  5
376
330
2D
100
AcDbDictionary
280
     1
281
     1
  3
ACAD_XREC_ROUNDTRIP
360
377
  0
DICTIONARY
  5
378
330
2E
100
AcDbDictionary
280
     1
281
     1
  3
ACAD_XREC_ROUNDTRIP
360
379
  0
DICTIONARY
  5
38C
330
38
100
AcDbDictionary
280
     1
281
     1
  3
ACAD_XREC_ROUNDTRIP
360
38D
  0
DICTIONARY
  5
382
330
33
100
AcDbDictionary
280
     1
281
     1
  3
ACAD_XREC_ROUNDTRIP
360
383
  0
DICTIONARY
  5
38A
330
37
100
AcDbDictionary
280
     1
281
     1
  3
ACAD_XREC_ROUNDTRIP
360
38B
  0
XRECORD
  5
395
102
{ACAD_REACTORS
330
394
102
}
330
394
100
AcDbXrecord
280
     1
102
MATERIAL
148
0.0
149
0.0
149
0.0
 93
        0
 94
      127
282
     0
 72
     1
 77
     1
171
     1
175
     1
179
     1
273
     0
  0
XRECORD
  5
393
102
{ACAD_REACTORS
330
392
102
}
330
392
100
AcDbXrecord
280
     1
102
MATERIAL
148
0.0
149
0.0
149
0.0
 93
        0
 94
      127
282
     0
 72
     1
 77
     1
171
     1
175
     1
179
     1
273
     0
  0
XRECORD
  5
397
102
{ACAD_REACTORS
330
396
102
}
330
396
100
AcDbXrecord
280
     1
102
MATERIAL
148
0.0
149
0.0
149
0.0
 93
        0
 94
      127
282
     0
 72
     1
 77
     1
171
     1
175
     1
179
     1
273
     0
  0
XRECORD
  5
37B
102
{ACAD_REACTORS
330
37A
102
}
330
37A
100
AcDbXrecord
280
     1
102
RTVSPropertyOp0
 70
     1
102
RTVSPropertyOp1
 70
     1
102
RTVSPropertyOp2
 70
     1
102
RTVSPropertyOp3
 70
     1
102
RTVSPropertyOp4
 70
     1
102
RTVSPropertyOp5
 70
     1
102
RTVSPropertyOp6
 70
     1
102
RTVSPropertyOp7
 70
     1
102
RTVSPropertyOp8
 70
     1
102
RTVSPropertyOp9
 70
     1
102
RTVSPropertyOp10
 70
     1
102
RTVSPropertyOp11
 70
     1
102
RTVSPropertyOp12
 70
     1
102
RTVSPropertyOp13
 70
     1
102
RTVSPropertyOp14
 70
     1
102
RTVSPropertyOp15
 70
     1
102
RTVSPropertyOp16
 70
     1
102
RTVSPropertyOp17
 70
     1
102
RTVSPropertyOp18
 70
     1
102
RTVSPropertyOp19
 70
     1
102
RTVSPropertyOp20
 70
     1
102
RTVSPropertyOp21
 70
     1
102
RTVSPropertyOp22
 70
     1
102
RTVSPropertyOp23
 70
     1
102
RTVSPropertyOp24
 70
     1
102
RTVSPropertyOp25
 70
     1
102
RTVSPropertyOp26
 70
     1
102
RTVSPropertyOp27
 70
     1
  0
XRECORD
  5
37F
102
{ACAD_REACTORS
330
37E
102
}
330
37E
100
AcDbXrecord
280
     1
102
RTVSPropertyOp0
 70
     1
102
RTVSPropertyOp1
 70
     1
102
RTVSPropertyOp2
 70
     1
102
RTVSPropertyOp3
 70
     1
102
RTVSPropertyOp4
 70
     1
102
RTVSPropertyOp5
 70
     1
102
RTVSPropertyOp6
 70
     1
102
RTVSPropertyOp7
 70
     1
102
RTVSPropertyOp8
 70
     1
102
RTVSPropertyOp9
 70
     1
102
RTVSPropertyOp10
 70
     1
102
RTVSPropertyOp11
 70
     1
102
RTVSPropertyOp12
 70
     1
102
RTVSPropertyOp13
 70
     1
102
RTVSPropertyOp14
 70
     1
102
RTVSPropertyOp15
 70
     1
102
RTVSPropertyOp16
 70
     1
102
RTVSPropertyOp17
 70
     1
102
RTVSPropertyOp18
 70
     1
102
RTVSPropertyOp19
 70
     1
102
RTVSPropertyOp20
 70
     1
102
RTVSPropertyOp21
 70
     1
102
RTVSPropertyOp22
 70
     1
102
RTVSPropertyOp23
 70
     1
102
RTVSPropertyOp24
 70
     1
102
RTVSPropertyOp25
 70
     1
102
RTVSPropertyOp26
 70
     1
102
RTVSPropertyOp27
 70
     1
  0
XRECORD
  5
37D
102
{ACAD_REACTORS
330
37C
102
}
330
37C
100
AcDbXrecord
280
     1
102
RTVSPropertyOp0
 70
     1
102
RTVSPropertyOp1
 70
     1
102
RTVSPropertyOp2
 70
     1
102
RTVSPropertyOp3
 70
     1
102
RTVSPropertyOp4
 70
     1
102
RTVSPropertyOp5
 70
     1
102
RTVSPropertyOp6
 70
     1
102
RTVSPropertyOp7
 70
     1
102
RTVSPropertyOp8
 70
     1
102
RTVSPropertyOp9
 70
     1
102
RTVSPropertyOp10
 70
     1
102
RTVSPropertyOp11
 70
     1
102
RTVSPropertyOp12
 70
     1
102
RTVSPropertyOp13
 70
     1
102
RTVSPropertyOp14
 70
     1
102
RTVSPropertyOp15
 70
     1
102
RTVSPropertyOp16
 70
     1
102
RTVSPropertyOp17
 70
     1
102
RTVSPropertyOp18
 70
     1
102
RTVSPropertyOp19
 70
     1
102
RTVSPropertyOp20
 70
     1
102
RTVSPropertyOp21
 70
     1
102
RTVSPropertyOp22
 70
     1
102
RTVSPropertyOp23
 70
     1
102
RTVSPropertyOp24
 70
     1
102
RTVSPropertyOp25
 70
     1
102
RTVSPropertyOp26
 70
     1
102
RTVSPropertyOp27
 70
     1
  0
XRECORD
  5
381
102
{ACAD_REACTORS
330
380
102
}
330
380
100
AcDbXrecord
280
     1
102
RTVSPropertyOp0
 70
     1
102
RTVSPropertyOp1
 70
     1
102
RTVSPropertyOp2
 70
     1
102
RTVSPropertyOp3
 70
     1
102
RTVSPropertyOp4
 70
     1
102
RTVSPropertyOp5
 70
     1
102
RTVSPropertyOp6
 70
     1
102
RTVSPropertyOp7
 70
     1
102
RTVSPropertyOp8
 70
     1
102
RTVSPropertyOp9
 70
     1
102
RTVSPropertyOp10
 70
     1
102
RTVSPropertyOp11
 70
     1
102
RTVSPropertyOp12
 70
     1
102
RTVSPropertyOp13
 70
     1
102
RTVSPropertyOp14
 70
     1
102
RTVSPropertyOp15
 70
     1
102
RTVSPropertyOp16
 70
     1
102
RTVSPropertyOp17
 70
     1
102
RTVSPropertyOp18
 70
     1
102
RTVSPropertyOp19
 70
     1
102
RTVSPropertyOp20
 70
     1
102
RTVSPropertyOp21
 70
     1
102
RTVSPropertyOp22
 70
     1
102
RTVSPropertyOp23
 70
     1
102
RTVSPropertyOp24
 70
     1
102
RTVSPropertyOp25
 70
     1
102
RTVSPropertyOp26
 70
     1
102
RTVSPropertyOp27
 70
     1
  0
XRECORD
  5
389
102
{ACAD_REACTORS
330
388
102
}
330
388
100
AcDbXrecord
280
     1
102
RTVSPropertyOp0
 70
     1
102
RTVSPropertyOp1
 70
     1
102
RTVSPropertyOp2
 70
     1
102
RTVSPropertyOp3
 70
     1
102
RTVSPropertyOp4
 70
     1
102
RTVSPropertyOp5
 70
     1
102
RTVSPropertyOp6
 70
     1
102
RTVSPropertyOp7
 70
     1
102
RTVSPropertyOp8
 70
     1
102
RTVSPropertyOp9
 70
     1
102
RTVSPropertyOp10
 70
     1
102
RTVSPropertyOp11
 70
     1
102
RTVSPropertyOp12
 70
     1
102
RTVSPropertyOp13
 70
     1
102
RTVSPropertyOp14
 70
     1
102
RTVSPropertyOp15
 70
     1
102
RTVSPropertyOp16
 70
     1
102
RTVSPropertyOp17
 70
     1
102
RTVSPropertyOp18
 70
     1
102
RTVSPropertyOp19
 70
     1
102
RTVSPropertyOp20
 70
     1
102
RTVSPropertyOp21
 70
     1
102
RTVSPropertyOp22
 70
     1
102
RTVSPropertyOp23
 70
     1
102
RTVSPropertyOp24
 70
     1
102
RTVSPropertyOp25
 70
     1
102
RTVSPropertyOp26
 70
     1
102
RTVSPropertyOp27
 70
     1
  0
XRECORD
  5
391
102
{ACAD_REACTORS
330
390
102
}
330
390
100
AcDbXrecord
280
     1
102
RTVSPropertyOp0
 70
     1
102
RTVSPropertyOp1
 70
     1
102
RTVSPropertyOp2
 70
     1
102
RTVSPropertyOp3
 70
     1
102
RTVSPropertyOp4
 70
     1
102
RTVSPropertyOp5
 70
     1
102
RTVSPropertyOp6
 70
     1
102
RTVSPropertyOp7
 70
     1
102
RTVSPropertyOp8
 70
     1
102
RTVSPropertyOp9
 70
     1
102
RTVSPropertyOp10
 70
     1
102
RTVSPropertyOp11
 70
     1
102
RTVSPropertyOp12
 70
     1
102
RTVSPropertyOp13
 70
     1
102
RTVSPropertyOp14
 70
     1
102
RTVSPropertyOp15
 70
     1
102
RTVSPropertyOp16
 70
     1
102
RTVSPropertyOp17
 70
     1
102
RTVSPropertyOp18
 70
     1
102
RTVSPropertyOp19
 70
     1
102
RTVSPropertyOp20
 70
     1
102
RTVSPropertyOp21
 70
     1
102
RTVSPropertyOp22
 70
     1
102
RTVSPropertyOp23
 70
     1
102
RTVSPropertyOp24
 70
     1
102
RTVSPropertyOp25
 70
     1
102
RTVSPropertyOp26
 70
     1
102
RTVSPropertyOp27
 70
     1
  0
XRECORD
  5
385
102
{ACAD_REACTORS
330
384
102
}
330
384
100
AcDbXrecord
280
     1
102
RTVSPropertyOp0
 70
     1
102
RTVSPropertyOp1
 70
     1
102
RTVSPropertyOp2
 70
     1
102
RTVSPropertyOp3
 70
     1
102
RTVSPropertyOp4
 70
     1
102
RTVSPropertyOp5
 70
     1
102
RTVSPropertyOp6
 70
     1
102
RTVSPropertyOp7
 70
     1
102
RTVSPropertyOp8
 70
     1
102
RTVSPropertyOp9
 70
     1
102
RTVSPropertyOp10
 70
     1
102
RTVSPropertyOp11
 70
     1
102
RTVSPropertyOp12
 70
     1
102
RTVSPropertyOp13
 70
     1
102
RTVSPropertyOp14
 70
     1
102
RTVSPropertyOp15
 70
     1
102
RTVSPropertyOp16
 70
     1
102
RTVSPropertyOp17
 70
     1
102
RTVSPropertyOp18
 70
     1
102
RTVSPropertyOp19
 70
     1
102
RTVSPropertyOp20
 70
     1
102
RTVSPropertyOp21
 70
     1
102
RTVSPropertyOp22
 70
     1
102
RTVSPropertyOp23
 70
     1
102
RTVSPropertyOp24
 70
     1
102
RTVSPropertyOp25
 70
     1
102
RTVSPropertyOp26
 70
     1
102
RTVSPropertyOp27
 70
     1
  0
XRECORD
  5
387
102
{ACAD_REACTORS
330
386
102
}
330
386
100
AcDbXrecord
280
     1
102
RTVSPropertyOp0
 70
     1
102
RTVSPropertyOp1
 70
     1
102
RTVSPropertyOp2
 70
     1
102
RTVSPropertyOp3
 70
     1
102
RTVSPropertyOp4
 70
     1
102
RTVSPropertyOp5
 70
     1
102
RTVSPropertyOp6
 70
     1
102
RTVSPropertyOp7
 70
     1
102
RTVSPropertyOp8
 70
     1
102
RTVSPropertyOp9
 70
     1
102
RTVSPropertyOp10
 70
     1
102
RTVSPropertyOp11
 70
     1
102
RTVSPropertyOp12
 70
     1
102
RTVSPropertyOp13
 70
     1
102
RTVSPropertyOp14
 70
     1
102
RTVSPropertyOp15
 70
     1
102
RTVSPropertyOp16
 70
     1
102
RTVSPropertyOp17
 70
     1
102
RTVSPropertyOp18
 70
     1
102
RTVSPropertyOp19
 70
     1
102
RTVSPropertyOp20
 70
     1
102
RTVSPropertyOp21
 70
     1
102
RTVSPropertyOp22
 70
     1
102
RTVSPropertyOp23
 70
     1
102
RTVSPropertyOp24
 70
     1
102
RTVSPropertyOp25
 70
     1
102
RTVSPropertyOp26
 70
     1
102
RTVSPropertyOp27
 70
     1
  0
XRECORD
  5
38F
102
{ACAD_REACTORS
330
38E
102
}
330
38E
100
AcDbXrecord
280
     1
102
RTVSPropertyOp0
 70
     1
102
RTVSPropertyOp1
 70
     1
102
RTVSPropertyOp2
 70
     1
102
RTVSPropertyOp3
 70
     1
102
RTVSPropertyOp4
 70
     1
102
RTVSPropertyOp5
 70
     1
102
RTVSPropertyOp6
 70
     1
102
RTVSPropertyOp7
 70
     1
102
RTVSPropertyOp8
 70
     1
102
RTVSPropertyOp9
 70
     1
102
RTVSPropertyOp10
 70
     1
102
RTVSPropertyOp11
 70
     1
102
RTVSPropertyOp12
 70
     1
102
RTVSPropertyOp13
 70
     1
102
RTVSPropertyOp14
 70
     1
102
RTVSPropertyOp15
 70
     1
102
RTVSPropertyOp16
 70
     1
102
RTVSPropertyOp17
 70
     1
102
RTVSPropertyOp18
 70
     1
102
RTVSPropertyOp19
 70
     1
102
RTVSPropertyOp20
 70
     1
102
RTVSPropertyOp21
 70
     1
102
RTVSPropertyOp22
 70
     1
102
RTVSPropertyOp23
 70
     1
102
RTVSPropertyOp24
 70
     1
102
RTVSPropertyOp25
 70
     1
102
RTVSPropertyOp26
 70
     1
102
RTVSPropertyOp27
 70
     1
  0
XRECORD
  5
373
102
{ACAD_REACTORS
330
372
102
}
330
372
100
AcDbXrecord
280
     1
102
RTVSPropertyOp0
 70
     1
102
RTVSPropertyOp1
 70
     1
102
RTVSPropertyOp2
 70
     1
102
RTVSPropertyOp3
 70
     1
102
RTVSPropertyOp4
 70
     1
102
RTVSPropertyOp5
 70
     1
102
RTVSPropertyOp6
 70
     1
102
RTVSPropertyOp7
 70
     1
102
RTVSPropertyOp8
 70
     1
102
RTVSPropertyOp9
 70
     1
102
RTVSPropertyOp10
 70
     1
102
RTVSPropertyOp11
 70
     1
102
RTVSPropertyOp12
 70
     1
102
RTVSPropertyOp13
 70
     1
102
RTVSPropertyOp14
 70
     1
102
RTVSPropertyOp15
 70
     1
102
RTVSPropertyOp16
 70
     1
102
RTVSPropertyOp17
 70
     1
102
RTVSPropertyOp18
 70
     1
102
RTVSPropertyOp19
 70
     1
102
RTVSPropertyOp20
 70
     1
102
RTVSPropertyOp21
 70
     1
102
RTVSPropertyOp22
 70
     1
102
RTVSPropertyOp23
 70
     1
102
RTVSPropertyOp24
 70
     1
102
RTVSPropertyOp25
 70
     1
102
RTVSPropertyOp26
 70
     1
102
RTVSPropertyOp27
 70
     1
  0
XRECORD
  5
375
102
{ACAD_REACTORS
330
374
102
}
330
374
100
AcDbXrecord
280
     1
102
RTVSPropertyOp0
 70
     1
102
RTVSPropertyOp1
 70
     1
102
RTVSPropertyOp2
 70
     1
102
RTVSPropertyOp3
 70
     1
102
RTVSPropertyOp4
 70
     1
102
RTVSPropertyOp5
 70
     1
102
RTVSPropertyOp6
 70
     1
102
RTVSPropertyOp7
 70
     1
102
RTVSPropertyOp8
 70
     1
102
RTVSPropertyOp9
 70
     1
102
RTVSPropertyOp10
 70
     1
102
RTVSPropertyOp11
 70
     1
102
RTVSPropertyOp12
 70
     1
102
RTVSPropertyOp13
 70
     1
102
RTVSPropertyOp14
 70
     1
102
RTVSPropertyOp15
 70
     1
102
RTVSPropertyOp16
 70
     1
102
RTVSPropertyOp17
 70
     1
102
RTVSPropertyOp18
 70
     1
102
RTVSPropertyOp19
 70
     1
102
RTVSPropertyOp20
 70
     1
102
RTVSPropertyOp21
 70
     1
102
RTVSPropertyOp22
 70
     1
102
RTVSPropertyOp23
 70
     1
102
RTVSPropertyOp24
 70
     1
102
RTVSPropertyOp25
 70
     1
102
RTVSPropertyOp26
 70
     1
102
RTVSPropertyOp27
 70
     1
  0
XRECORD
  5
377
102
{ACAD_REACTORS
330
376
102
}
330
376
100
AcDbXrecord
280
     1
102
RTVSPropertyOp0
 70
     1
102
RTVSPropertyOp1
 70
     1
102
RTVSPropertyOp2
 70
     1
102
RTVSPropertyOp3
 70
     1
102
RTVSPropertyOp4
 70
     1
102
RTVSPropertyOp5
 70
     1
102
RTVSPropertyOp6
 70
     1
102
RTVSPropertyOp7
 70
     1
102
RTVSPropertyOp8
 70
     1
102
RTVSPropertyOp9
 70
     1
102
RTVSPropertyOp10
 70
     1
102
RTVSPropertyOp11
 70
     1
102
RTVSPropertyOp12
 70
     1
102
RTVSPropertyOp13
 70
     1
102
RTVSPropertyOp14
 70
     1
102
RTVSPropertyOp15
 70
     1
102
RTVSPropertyOp16
 70
     1
102
RTVSPropertyOp17
 70
     1
102
RTVSPropertyOp18
 70
     1
102
RTVSPropertyOp19
 70
     1
102
RTVSPropertyOp20
 70
     1
102
RTVSPropertyOp21
 70
     1
102
RTVSPropertyOp22
 70
     1
102
RTVSPropertyOp23
 70
     1
102
RTVSPropertyOp24
 70
     1
102
RTVSPropertyOp25
 70
     1
102
RTVSPropertyOp26
 70
     1
102
RTVSPropertyOp27
 70
     1
  0
XRECORD
  5
379
102
{ACAD_REACTORS
330
378
102
}
330
378
100
AcDbXrecord
280
     1
102
RTVSPropertyOp0
 70
     1
102
RTVSPropertyOp1
 70
     1
102
RTVSPropertyOp2
 70
     1
102
RTVSPropertyOp3
 70
     1
102
RTVSPropertyOp4
 70
     1
102
RTVSPropertyOp5
 70
     1
102
RTVSPropertyOp6
 70
     1
102
RTVSPropertyOp7
 70
     1
102
RTVSPropertyOp8
 70
     1
102
RTVSPropertyOp9
 70
     1
102
RTVSPropertyOp10
 70
     1
102
RTVSPropertyOp11
 70
     1
102
RTVSPropertyOp12
 70
     1
102
RTVSPropertyOp13
 70
     1
102
RTVSPropertyOp14
 70
     1
102
RTVSPropertyOp15
 70
     1
102
RTVSPropertyOp16
 70
     1
102
RTVSPropertyOp17
 70
     1
102
RTVSPropertyOp18
 70
     1
102
RTVSPropertyOp19
 70
     1
102
RTVSPropertyOp20
 70
     1
102
RTVSPropertyOp21
 70
     1
102
RTVSPropertyOp22
 70
     1
102
RTVSPropertyOp23
 70
     1
102
RTVSPropertyOp24
 70
     1
102
RTVSPropertyOp25
 70
     1
102
RTVSPropertyOp26
 70
     1
102
RTVSPropertyOp27
 70
     1
  0
XRECORD
  5
38D
102
{ACAD_REACTORS
330
38C
102
}
330
38C
100
AcDbXrecord
280
     1
102
RTVSPropertyOp0
 70
     1
102
RTVSPropertyOp1
 70
     1
102
RTVSPropertyOp2
 70
     1
102
RTVSPropertyOp3
 70
     1
102
RTVSPropertyOp4
 70
     1
102
RTVSPropertyOp5
 70
     1
102
RTVSPropertyOp6
 70
     1
102
RTVSPropertyOp7
 70
     1
102
RTVSPropertyOp8
 70
     1
102
RTVSPropertyOp9
 70
     1
102
RTVSPropertyOp10
 70
     1
102
RTVSPropertyOp11
 70
     1
102
RTVSPropertyOp12
 70
     1
102
RTVSPropertyOp13
 70
     1
102
RTVSPropertyOp14
 70
     1
102
RTVSPropertyOp15
 70
     1
102
RTVSPropertyOp16
 70
     1
102
RTVSPropertyOp17
 70
     1
102
RTVSPropertyOp18
 70
     1
102
RTVSPropertyOp19
 70
     1
102
RTVSPropertyOp20
 70
     1
102
RTVSPropertyOp21
 70
     1
102
RTVSPropertyOp22
 70
     1
102
RTVSPropertyOp23
 70
     1
102
RTVSPropertyOp24
 70
     1
102
RTVSPropertyOp25
 70
     1
102
RTVSPropertyOp26
 70
     1
102
RTVSPropertyOp27
 70
     1
  0
XRECORD
  5
383
102
{ACAD_REACTORS
330
382
102
}
330
382
100
AcDbXrecord
280
     1
102
RTVSPropertyOp0
 70
     1
102
RTVSPropertyOp1
 70
     1
102
RTVSPropertyOp2
 70
     1
102
RTVSPropertyOp3
 70
     1
102
RTVSPropertyOp4
 70
     1
102
RTVSPropertyOp5
 70
     1
102
RTVSPropertyOp6
 70
     1
102
RTVSPropertyOp7
 70
     1
102
RTVSPropertyOp8
 70
     1
102
RTVSPropertyOp9
 70
     1
102
RTVSPropertyOp10
 70
     1
102
RTVSPropertyOp11
 70
     1
102
RTVSPropertyOp12
 70
     1
102
RTVSPropertyOp13
 70
     1
102
RTVSPropertyOp14
 70
     1
102
RTVSPropertyOp15
 70
     1
102
RTVSPropertyOp16
 70
     1
102
RTVSPropertyOp17
 70
     1
102
RTVSPropertyOp18
 70
     1
102
RTVSPropertyOp19
 70
     1
102
RTVSPropertyOp20
 70
     1
102
RTVSPropertyOp21
 70
     1
102
RTVSPropertyOp22
 70
     1
102
RTVSPropertyOp23
 70
     1
102
RTVSPropertyOp24
 70
     1
102
RTVSPropertyOp25
 70
     1
102
RTVSPropertyOp26
 70
     1
102
RTVSPropertyOp27
 70
     1
  0
XRECORD
  5
38B
102
{ACAD_REACTORS
330
38A
102
}
330
38A
100
AcDbXrecord
280
     1
102
RTVSPropertyOp0
 70
     1
102
RTVSPropertyOp1
 70
     1
102
RTVSPropertyOp2
 70
     1
102
RTVSPropertyOp3
 70
     1
102
RTVSPropertyOp4
 70
     1
102
RTVSPropertyOp5
 70
     1
102
RTVSPropertyOp6
 70
     1
102
RTVSPropertyOp7
 70
     1
102
RTVSPropertyOp8
 70
     1
102
RTVSPropertyOp9
 70
     1
102
RTVSPropertyOp10
 70
     1
102
RTVSPropertyOp11
 70
     1
102
RTVSPropertyOp12
 70
     1
102
RTVSPropertyOp13
 70
     1
102
RTVSPropertyOp14
 70
     1
102
RTVSPropertyOp15
 70
     1
102
RTVSPropertyOp16
 70
     1
102
RTVSPropertyOp17
 70
     1
102
RTVSPropertyOp18
 70
     1
102
RTVSPropertyOp19
 70
     1
102
RTVSPropertyOp20
 70
     1
102
RTVSPropertyOp21
 70
     1
102
RTVSPropertyOp22
 70
     1
102
RTVSPropertyOp23
 70
     1
102
RTVSPropertyOp24
 70
     1
102
RTVSPropertyOp25
 70
     1
102
RTVSPropertyOp26
 70
     1
102
RTVSPropertyOp27
 70
     1
  0
ENDSEC
  0
EOF
