  0
SECTION
  2
HEADER
  9
$ACADVER
  1
AC1015
  9
$ACADMAINTVER
 70
     6
  9
$DWGCODEPAGE
  3
ANSI_1252
  9
$INSBASE
 10
0.0
 20
0.0
 30
0.0
  9
$EXTMIN
 10
0.0
 20
0.0
 30
0.0
  9
$EXTMAX
 10
38.25
 20
24.75
 30
0.0
  9
$LIMMIN
 10
0.0
 20
0.0
  9
$LIMMAX
 10
38.25
 20
24.75
  9
$ORTHOMODE
 70
     0
  9
$REGENMODE
 70
     1
  9
$FILLMODE
 70
     1
  9
$QTEXTMODE
 70
     0
  9
$MIRRTEXT
 70
     1
  9
$LTSCALE
 40
2.25
  9
$ATTMODE
 70
     1
  9
$TEXTSIZE
 40
0.28125
  9
$TRACEWID
 40
0.05
  9
$TEXTSTYLE
  7
Standard
  9
$CLAYER
  8
0
  9
$CELTYPE
  6
ByLayer
  9
$CECOLOR
 62
   256
  9
$CELTSCALE
 40
1.0
  9
$DISPSILH
 70
     0
  9
$DIMSCALE
 40
1.0
  9
$DIMASZ
 40
0.2925
  9
$DIMEXO
 40
0.1125
  9
$DIMDLI
 40
0.38
  9
$DIMRND
 40
0.0
  9
$DIMDLE
 40
0.0
  9
$DIMEXE
 40
0.28125
  9
$DIMTP
 40
0.0
  9
$DIMTM
 40
0.0
  9
$DIMTXT
 40
0.28125
  9
$DIMCEN
 40
0.09
  9
$DIMTSZ
 40
0.0
  9
$DIMTOL
 70
     0
  9
$DIMLIM
 70
     0
  9
$DIMTIH
 70
     1
  9
$DIMTOH
 70
     1
  9
$DIMSE1
 70
     0
  9
$DIMSE2
 70
     0
  9
$DIMTAD
 70
     1
  9
$DIMZIN
 70
     0
  9
$DIMBLK
  1

  9
$DIMASO
 70
     1
  9
$DIMSHO
 70
     1
  9
$DIMPOST
  1

  9
$DIMAPOST
  1

  9
$DIMALT
 70
     0
  9
$DIMALTD
 70
     2
  9
$DIMALTF
 40
25.4
  9
$DIMLFAC
 40
1.0
  9
$DIMTOFL
 70
     0
  9
$DIMTVP
 40
0.0
  9
$DIMTIX
 70
     0
  9
$DIMSOXD
 70
     0
  9
$DIMSAH
 70
     0
  9
$DIMBLK1
  1

  9
$DIMBLK2
  1

  9
$DIMSTYLE
  2
Standard
  9
$DIMCLRD
 70
     0
  9
$DIMCLRE
 70
     0
  9
$DIMCLRT
 70
     0
  9
$DIMTFAC
 40
1.0
  9
$DIMGAP
 40
0.135
  9
$DIMJUST
 70
     0
  9
$DIMSD1
 70
     0
  9
$DIMSD2
 70
     0
  9
$DIMTOLJ
 70
     1
  9
$DIMTZIN
 70
     0
  9
$DIMALTZ
 70
     0
  9
$DIMALTTZ
 70
     0
  9
$DIMUPT
 70
     0
  9
$DIMDEC
 70
     2
  9
$DIMTDEC
 70
     2
  9
$DIMALTU
 70
     2
  9
$DIMALTTD
 70
     2
  9
$DIMTXSTY
  7
Standard
  9
$DIMAUNIT
 70
     0
  9
$DIMADEC
 70
     2
  9
$DIMALTRND
 40
0.0
  9
$DIMAZIN
 70
     0
  9
$DIMDSEP
 70
    46
  9
$DIMATFIT
 70
     3
  9
$DIMFRAC
 70
     0
  9
$DIMLDRBLK
  1

  9
$DIMLUNIT
 70
     2
  9
$DIMLWD
 70
    -2
  9
$DIMLWE
 70
    -2
  9
$DIMTMOVE
 70
     0
  9
$LUNITS
 70
     2
  9
$LUPREC
 70
     2
  9
$SKETCHINC
 40
0.1
  9
$FILLETRAD
 40
0.5
  9
$AUNITS
 70
     0
  9
$AUPREC
 70
     2
  9
$MENU
  1
.
  9
$ELEVATION
 40
0.0
  9
$PELEVATION
 40
0.0
  9
$THICKNESS
 40
0.0
  9
$LIMCHECK
 70
     0
  9
$CHAMFERA
 40
0.5
  9
$CHAMFERB
 40
0.5
  9
$CHAMFERC
 40
1.0
  9
$CHAMFERD
 40
0.0
  9
$SKPOLY
 70
     0
  9
$TDCREATE
 40
2455761.441864699
  9
$TDUCREATE
 40
2455761.608531366
  9
$TDUPDATE
 40
2455761.441864711
  9
$TDUUPDATE
 40
2455761.608531377
  9
$TDINDWG
 40
0.0000000116
  9
$TDUSRTIMER
 40
0.0000000116
  9
$USRTIMER
 70
     1
  9
$ANGBASE
 50
0.0
  9
$ANGDIR
 70
     0
  9
$PDMODE
 70
     0
  9
$PDSIZE
 40
-1.0
  9
$PLINEWID
 40
0.0
  9
$SPLFRAME
 70
     0
  9
$SPLINETYPE
 70
     6
  9
$SPLINESEGS
 70
     8
  9
$HANDSEED
  5
398
  9
$SURFTAB1
 70
     6
  9
$SURFTAB2
 70
     6
  9
$SURFTYPE
 70
     6
  9
$SURFU
 70
     6
  9
$SURFV
 70
     6
  9
$UCSBASE
  2

  9
$UCSNAME
  2

  9
$UCSORG
 10
0.0
 20
0.0
 30
0.0
  9
$UCSXDIR
 10
1.0
 20
0.0
 30
0.0
  9
$UCSYDIR
 10
0.0
 20
1.0
 30
0.0
  9
$UCSORTHOREF
  2

  9
$UCSORTHOVIEW
 70
     0
  9
$UCSORGTOP
 10
0.0
 20
0.0
 30
0.0
  9
$UCSORGBOTTOM
 10
0.0
 20
0.0
 30
0.0
  9
$UCSORGLEFT
 10
0.0
 20
0.0
 30
0.0
  9
$UCSORGRIGHT
 10
0.0
 20
0.0
 30
0.0
  9
$UCSORGFRONT
 10
0.0
 20
0.0
 30
0.0
  9
$UCSORGBACK
 10
0.0
 20
0.0
 30
0.0
  9
$PUCSBASE
  2

  9
$PUCSNAME
  2

  9
$PUCSORG
 10
0.0
 20
0.0
 30
0.0
  9
$PUCSXDIR
 10
1.0
 20
0.0
 30
0.0
  9
$PUCSYDIR
 10
0.0
 20
1.0
 30
0.0
  9
$PUCSORTHOREF
  2

  9
$PUCSORTHOVIEW
 70
     0
  9
$PUCSORGTOP
 10
0.0
 20
0.0
 30
0.0
  9
$PUCSORGBOTTOM
 10
0.0
 20
0.0
 30
0.0
  9
$PUCSORGLEFT
 10
0.0
 20
0.0
 30
0.0
  9
$PUCSORGRIGHT
 10
0.0
 20
0.0
 30
0.0
  9
$PUCSORGFRONT
 10
0.0
 20
0.0
 30
0.0
  9
$PUCSORGBACK
 10
0.0
 20
0.0
 30
0.0
  9
$USERI1
 70
     0
  9
$USERI2
 70
     0
  9
$USERI3
 70
     0
  9
$USERI4
 70
     0
  9
$USERI5
 70
     0
  9
$USERR1
 40
0.0
  9
$USERR2
 40
0.0
  9
$USERR3
 40
0.0
  9
$USERR4
 40
0.0
  9
$USERR5
 40
0.0
  9
$WORLDVIEW
 70
     1
  9
$SHADEDGE
 70
     3
  9
$SHADEDIF
 70
    70
  9
$TILEMODE
 70
     1
  9
$MAXACTVP
 70
    64
  9
$PINSBASE
 10
0.0
 20
0.0
 30
0.0
  9
$PLIMCHECK
 70
     0
  9
$PEXTMIN
 10
1.0000000000E+20
 20
1.0000000000E+20
 30
1.0000000000E+20
  9
$PEXTMAX
 10
-1.0000000000E+20
 20
-1.0000000000E+20
 30
-1.0000000000E+20
  9
$PLIMMIN
 10
0.0
 20
0.0
  9
$PLIMMAX
 10
12.0
 20
9.0
  9
$UNITMODE
 70
     0
  9
$VISRETAIN
 70
     1
  9
$PLINEGEN
 70
     0
  9
$PSLTSCALE
 70
     1
  9
$TREEDEPTH
 70
  3020
  9
$CMLSTYLE
  2
Standard
  9
$CMLJUST
 70
     0
  9
$CMLSCALE
 40
1.0
  9
$PROXYGRAPHICS
 70
     1
  9
$MEASUREMENT
 70
     0
  9
$CELWEIGHT
370
    -1
  9
$ENDCAPS
280
     0
  9
$JOINSTYLE
280
     0
  9
$LWDISPLAY
290
     1
  9
$INSUNITS
 70
     1
  9
$HYPERLINKBASE
  1

  9
$STYLESHEET
  1

  9
$XEDIT
290
     1
  9
$CEPSNTYPE
380
     0
  9
$PSTYLEMODE
290
     1
  9
$FINGERPRINTGUID
  2
{975D7911-98EE-48F5-9317-E823C89A1871}
  9
$VERSIONGUID
  2
{FAEB1C32-E019-11D5-929B-00C0DF256EC4}
  9
$EXTNAMES
290
     1
  9
$PSVPSCALE
 40
0.0
  9
$OLESTARTUP
290
     0
  0
ENDSEC
  0
SECTION
  2
CLASSES
  0
CLASS
  1
ACDBDICTIONARYWDFLT
  2
AcDbDictionaryWithDefault
  3
ObjectDBX Classes
 90
        0
280
     0
281
     0
  0
CLASS
  1
VISUALSTYLE
  2
AcDbVisualStyle
  3
ObjectDBX Classes
 90
     4095
280
     0
281
     0
  0
CLASS
  1
MATERIAL
  2
AcDbMaterial
  3
ObjectDBX Classes
 90
     1153
280
     0
281
     0
  0
CLASS
  1
SCALE
  2
AcDbScale
  3
ObjectDBX Classes
 90
     1153
280
     0
281
     0
  0
CLASS
  1
DICTIONARYVAR
  2
AcDbDictionaryVar
  3
ObjectDBX Classes
 90
        0
280
     0
281
     0
  0
CLASS
  1
ACDBPLACEHOLDER
  2
AcDbPlaceHolder
  3
ObjectDBX Classes
 90
        0
280
     0
281
     0
  0
CLASS
  1
LAYOUT
  2
AcDbLayout
  3
ObjectDBX Classes
 90
        0
280
     0
281
     0
  0
ENDSEC
  0
SECTION
  2
TABLES
  0
TABLE
  2
VPORT
  5
8
330
0
100
AcDbSymbolTable
 70
     1
  0
VPORT
  5
29
330
8
100
AcDbSymbolTableRecord
100
AcDbViewportTableRecord
  2
*Active
 70
     0
 10
0.0
 20
0.0
 11
1.0
 21
1.0
 12
19.125
 22
12.375
 13
0.0
 23
0.0
 14
0.5
 24
0.5
 15
0.5
 25
0.5
 16
0.0
 26
0.0
 36
1.0
 17
0.0
 27
0.0
 37
0.0
 40
24.75
 41
1.5454545455
 42
50.0
 43
0.0
 44
0.0
 50
0.0
 51
0.0
 71
     0
 72
  2000
 73
     1
 74
     3
 75
     0
 76
     0
 77
     0
 78
     0
281
     0
 65
     1
110
0.0
120
0.0
130
0.0
111
1.0
121
0.0
131
0.0
112
0.0
122
1.0
132
0.0
 79
     0
146
0.0
  0
ENDTAB
  0
TABLE
  2
LTYPE
  5
5
330
0
100
AcDbSymbolTable
 70
     6
  0
LTYPE
  5
14
330
5
100
AcDbSymbolTableRecord
100
AcDbLinetypeTableRecord
  2
ByBlock
 70
     0
  3

 72
    65
 73
     0
 40
0.0
  0
LTYPE
  5
15
330
5
100
AcDbSymbolTableRecord
100
AcDbLinetypeTableRecord
  2
ByLayer
 70
     0
  3

 72
    65
 73
     0
 40
0.0
  0
LTYPE
  5
16
330
5
100
AcDbSymbolTableRecord
100
AcDbLinetypeTableRecord
  2
Continuous
 70
     0
  3
Solid line
 72
    65
 73
     0
 40
0.0
  0
LTYPE
  5
3F
330
5
100
AcDbSymbolTableRecord
100
AcDbLinetypeTableRecord
  2
HIDDEN
 70
     0
  3
Hidden __ __ __ __ __ __ __ __ __ __ __ __ __ __
 72
    65
 73
     2
 40
0.075
 49
0.05
 74
     0
 49
-0.025
 74
     0
  0
LTYPE
  5
40
330
5
100
AcDbSymbolTableRecord
100
AcDbLinetypeTableRecord
  2
PHANTOM
 70
     0
  3
Phantom ______  __  __  ______  __  __  ______
 72
    65
 73
     6
 40
0.5
 49
0.25
 74
     0
 49
-0.05
 74
     0
 49
0.05
 74
     0
 49
-0.05
 74
     0
 49
0.05
 74
     0
 49
-0.05
 74
     0
  0
LTYPE
  5
41
330
5
100
AcDbSymbolTableRecord
100
AcDbLinetypeTableRecord
  2
CENTER
 70
     0
  3
Center ____ _ ____ _ ____ _ ____ _ ____ _ ____
 72
    65
 73
     4
 40
0.4
 49
0.25
 74
     0
 49
-0.05
 74
     0
 49
0.05
 74
     0
 49
-0.05
 74
     0
  0
LTYPE
  5
42
330
5
100
AcDbSymbolTableRecord
100
AcDbLinetypeTableRecord
  2
CENTERX2
 70
     0
  3
Center (2x) ________  __  ________  __  _____
 72
    65
 73
     4
 40
0.8
 49
0.5
 74
     0
 49
-0.1
 74
     0
 49
0.1
 74
     0
 49
-0.1
 74
     0
  0
LTYPE
  5
43
330
5
100
AcDbSymbolTableRecord
100
AcDbLinetypeTableRecord
  2
DOT2
 70
     0
  3
Dot (.5x) ........................................
 72
    65
 73
     2
 40
0.025
 49
0.0
 74
     0
 49
-0.025
 74
     0
  0
ENDTAB
  0
TABLE
  2
LAYER
  5
2
330
0
100
AcDbSymbolTable
 70
     1
  0
LAYER
  5
10
330
2
100
AcDbSymbolTableRecord
100
AcDbLayerTableRecord
  2
0
 70
     0
 62
     7
  6
Continuous
370
    -3
390
F
  0
ENDTAB
  0
TABLE
  2
STYLE
  5
3
330
0
100
AcDbSymbolTable
 70
     2
  0
STYLE
  5
11
330
3
100
AcDbSymbolTableRecord
100
AcDbTextStyleTableRecord
  2
Standard
 70
     0
 40
0.0
 41
1.0
 50
0.0
 71
     0
 42
0.2
  3
txt
  4

  0
STYLE
  5
57
330
3
100
AcDbSymbolTableRecord
100
AcDbTextStyleTableRecord
  2
SLDTEXTSTYLE0
 70
     0
 40
0.0
 41
0.75
 50
0.0
 71
     0
 42
0.2
  3
TXT
  4

  0
ENDTAB
  0
TABLE
  2
VIEW
  5
6
330
0
100
AcDbSymbolTable
 70
     0
  0
ENDTAB
  0
TABLE
  2
UCS
  5
7
330
0
100
AcDbSymbolTable
 70
     0
  0
ENDTAB
  0
TABLE
  2
APPID
  5
9
330
0
100
AcDbSymbolTable
 70
     1
  0
APPID
  5
12
330
9
100
AcDbSymbolTableRecord
100
AcDbRegAppTableRecord
  2
ACAD
 70
     0
  0
ENDTAB
  0
TABLE
  2
DIMSTYLE
  5
A
330
0
100
AcDbSymbolTable
 70
     5
100
AcDbDimStyleTable
  0
DIMSTYLE
105
27
330
A
100
AcDbSymbolTableRecord
100
AcDbDimStyleTableRecord
  2
Standard
 70
     0
340
11
  0
DIMSTYLE
105
B7
102
{ACAD_REACTORS
330
B6
330
C9
330
130
330
227
330
239
330
25C
102
}
330
A
100
AcDbSymbolTableRecord
100
AcDbDimStyleTableRecord
  2
SLDDIMSTYLE0
 70
     0
 41
0.2925
 44
0.0
 45
0.000000001
 78
     4
140
0.28125
147
0.0703125
148
0.000000001
170
     1
173
     1
271
     2
272
     2
284
    12
340
57
  0
DIMSTYLE
105
E4
330
A
100
AcDbSymbolTableRecord
100
AcDbDimStyleTableRecord
  2
SLDDIMSTYLE1
 70
     0
 41
0.2925
 44
0.0
 45
0.000000001
140
0.0
146
0.2925
147
0.0
173
     1
271
     0
272
     0
340
11
  0
DIMSTYLE
105
24C
102
{ACAD_REACTORS
330
24B
102
}
330
A
100
AcDbSymbolTableRecord
100
AcDbDimStyleTableRecord
  2
SLDDIMSTYLE2
 70
     0
 41
0.2925
 44
0.0
 45
0.000000001
 78
    12
140
0.28125
147
0.0703125
148
0.000000001
170
     1
172
     1
173
     1
271
     3
272
     3
284
    12
340
57
  0
DIMSTYLE
105
26F
102
{ACAD_REACTORS
330
26E
330
354
102
}
330
A
100
AcDbSymbolTableRecord
100
AcDbDimStyleTableRecord
  2
SLDDIMSTYLE3
 70
     0
 41
0.2925
 44
0.0
 45
0.000000001
 78
     4
140
0.28125
147
0.0703125
148
0.000000001
170
     1
173
     1
271
     2
272
     2
284
    12
340
57
  0
ENDTAB
  0
TABLE
  2
BLOCK_RECORD
  5
1
330
0
100
AcDbSymbolTable
 70
    16
  0
BLOCK_RECORD
  5
1F
330
1
100
AcDbSymbolTableRecord
100
AcDbBlockTableRecord
  2
*Model_Space
340
22
  0
BLOCK_RECORD
  5
1B
330
1
100
AcDbSymbolTableRecord
100
AcDbBlockTableRecord
  2
*Paper_Space
340
1E
  0
BLOCK_RECORD
  5
23
330
1
100
AcDbSymbolTableRecord
100
AcDbBlockTableRecord
  2
*Paper_Space0
340
26
  0
BLOCK_RECORD
  5
54
330
1
100
AcDbSymbolTableRecord
100
AcDbBlockTableRecord
  2
SW_NOTE_0
340
0
102
{BLKREFS
331
7C
102
}
  0
BLOCK_RECORD
  5
80
330
1
100
AcDbSymbolTableRecord
100
AcDbBlockTableRecord
  2
SW_NOTE_1
340
0
102
{BLKREFS
331
85
102
}
  0
BLOCK_RECORD
  5
86
330
1
100
AcDbSymbolTableRecord
100
AcDbBlockTableRecord
  2
SW_NOTE_2
340
0
102
{BLKREFS
331
8B
102
}
  0
BLOCK_RECORD
  5
8C
330
1
100
AcDbSymbolTableRecord
100
AcDbBlockTableRecord
  2
SW_NOTE_3
340
0
102
{BLKREFS
331
91
102
}
  0
BLOCK_RECORD
  5
B8
330
1
100
AcDbSymbolTableRecord
100
AcDbBlockTableRecord
  2
*D5
340
0
  0
BLOCK_RECORD
  5
CA
330
1
100
AcDbSymbolTableRecord
100
AcDbBlockTableRecord
  2
*D6
340
0
  0
BLOCK_RECORD
  5
DB
330
1
100
AcDbSymbolTableRecord
100
AcDbBlockTableRecord
  2
SW_NOTE_4
340
0
102
{BLKREFS
331
E3
102
}
  0
BLOCK_RECORD
  5
131
330
1
100
AcDbSymbolTableRecord
100
AcDbBlockTableRecord
  2
*D8
340
0
  0
BLOCK_RECORD
  5
228
330
1
100
AcDbSymbolTableRecord
100
AcDbBlockTableRecord
  2
*D9
340
0
  0
BLOCK_RECORD
  5
23A
330
1
100
AcDbSymbolTableRecord
100
AcDbBlockTableRecord
  2
*D10
340
0
  0
BLOCK_RECORD
  5
24D
330
1
100
AcDbSymbolTableRecord
100
AcDbBlockTableRecord
  2
*D11
340
0
  0
BLOCK_RECORD
  5
25D
330
1
100
AcDbSymbolTableRecord
100
AcDbBlockTableRecord
  2
*D12
340
0
  0
BLOCK_RECORD
  5
270
330
1
100
AcDbSymbolTableRecord
100
AcDbBlockTableRecord
  2
*D13
340
0
  0
BLOCK_RECORD
  5
355
330
1
100
AcDbSymbolTableRecord
100
AcDbBlockTableRecord
  2
*D14
340
0
  0
BLOCK_RECORD
  5
364
330
1
100
AcDbSymbolTableRecord
100
AcDbBlockTableRecord
  2
SW_NOTE_5
340
0
102
{BLKREFS
331
369
102
}
  0
ENDTAB
  0
ENDSEC
  0
SECTION
  2
BLOCKS
  0
BLOCK
  5
20
330
1F
100
AcDbEntity
  8
0
100
AcDbBlockBegin
  2
*Model_Space
 70
     0
 10
0.0
 20
0.0
 30
0.0
  3
*Model_Space
  1

  0
ENDBLK
  5
21
330
1F
100
AcDbEntity
  8
0
100
AcDbBlockEnd
  0
BLOCK
  5
1C
330
1B
100
AcDbEntity
 67
     1
  8
0
100
AcDbBlockBegin
  2
*Paper_Space
 70
     0
 10
0.0
 20
0.0
 30
0.0
  3
*Paper_Space
  1

  0
ENDBLK
  5
1D
330
1B
100
AcDbEntity
 67
     1
  8
0
100
AcDbBlockEnd
  0
BLOCK
  5
24
330
23
100
AcDbEntity
  8
0
100
AcDbBlockBegin
  2
*Paper_Space0
 70
     0
 10
0.0
 20
0.0
 30
0.0
  3
*Paper_Space0
  1

  0
ENDBLK
  5
25
330
23
100
AcDbEntity
  8
0
100
AcDbBlockEnd
  0
BLOCK
  5
55
330
54
100
AcDbEntity
  8
0
100
AcDbBlockBegin
  2
SW_NOTE_0
 70
     0
 10
0.0
 20
0.0
 30
0.0
  3
SW_NOTE_0
  1

  0
MTEXT
  5
7A
330
54
100
AcDbEntity
  8
0
  6
Continuous
 62
     0
 48
2.25
370
     0
100
AcDbMText
 10
0.0
 20
0.3625503018
 30
0.0
 40
0.28125
 41
0.0
 71
     1
 72
     1
  1
MATERIAL - 16 GA. [1.5mm] STEEL
  7
SLDTEXTSTYLE0
 73
     1
 44
1.0
  0
MTEXT
  5
7B
330
54
100
AcDbEntity
  8
0
  6
Continuous
 62
     0
 48
2.25
370
     0
100
AcDbMText
 10
0.0
 20
-0.3771150335
 30
0.0
 40
0.28125
 41
0.0
 71
     1
 72
     1
  1
FINISH - SMOOTH GRAY POWDERCOAT
  7
SLDTEXTSTYLE0
 73
     1
 44
1.0
  0
ENDBLK
  5
56
330
54
100
AcDbEntity
  8
0
100
AcDbBlockEnd
  0
BLOCK
  5
81
330
80
100
AcDbEntity
  8
0
100
AcDbBlockBegin
  2
SW_NOTE_1
 70
     0
 10
0.0
 20
0.0
 30
0.0
  3
SW_NOTE_1
  1

  0
MTEXT
  5
83
330
80
100
AcDbEntity
  8
0
  6
Continuous
 62
     0
 48
2.25
370
     0
100
AcDbMText
 10
0.0
 20
0.3625503018
 30
0.0
 40
0.28125
 41
0.0
 71
     1
 72
     1
  1
PART
  7
SLDTEXTSTYLE0
 73
     1
 44
1.0
  0
MTEXT
  5
84
330
80
100
AcDbEntity
  8
0
  6
Continuous
 62
     0
 48
2.25
370
     0
100
AcDbMText
 10
-0.1048583924
 20
-0.0072823659
 30
0.0
 40
0.28125
 41
0.0
 71
     1
 72
     1
  1
NAME
  7
SLDTEXTSTYLE0
 73
     1
 44
1.0
  0
ENDBLK
  5
82
330
80
100
AcDbEntity
  8
0
100
AcDbBlockEnd
  0
BLOCK
  5
87
330
86
100
AcDbEntity
  8
0
100
AcDbBlockBegin
  2
SW_NOTE_2
 70
     0
 10
0.0
 20
0.0
 30
0.0
  3
SW_NOTE_2
  1

  0
MTEXT
  5
89
330
86
100
AcDbEntity
  8
0
  6
Continuous
 62
     0
 48
2.25
370
     0
100
AcDbMText
 10
0.0
 20
0.3625503018
 30
0.0
 40
0.28125
 41
0.0
 71
     1
 72
     1
  1
PART
  7
SLDTEXTSTYLE0
 73
     1
 44
1.0
  0
MTEXT
  5
8A
330
86
100
AcDbEntity
  8
0
  6
Continuous
 62
     0
 48
2.25
370
     0
100
AcDbMText
 10
0.1313476608
 20
-0.0072823659
 30
0.0
 40
0.28125
 41
0.0
 71
     1
 72
     1
  1
No.
  7
SLDTEXTSTYLE0
 73
     1
 44
1.0
  0
ENDBLK
  5
88
330
86
100
AcDbEntity
  8
0
100
AcDbBlockEnd
  0
BLOCK
  5
8D
330
8C
100
AcDbEntity
  8
0
100
AcDbBlockBegin
  2
SW_NOTE_3
 70
     0
 10
0.0
 20
0.0
 30
0.0
  3
SW_NOTE_3
  1

  0
MTEXT
  5
8F
330
8C
100
AcDbEntity
  8
0
  6
Continuous
 62
     0
 48
2.25
370
     0
100
AcDbMText
 10
0.0
 20
0.3625503018
 30
0.0
 40
0.28125
 41
0.0
 71
     1
 72
     1
  1
REVISION
  7
SLDTEXTSTYLE0
 73
     1
 44
1.0
  0
MTEXT
  5
90
330
8C
100
AcDbEntity
  8
0
  6
Continuous
 62
     0
 48
2.25
370
     0
100
AcDbMText
 10
0.3515136718
 20
-0.0072823659
 30
0.0
 40
0.28125
 41
0.0
 71
     1
 72
     1
  1
DATE
  7
SLDTEXTSTYLE0
 73
     1
 44
1.0
  0
ENDBLK
  5
8E
330
8C
100
AcDbEntity
  8
0
100
AcDbBlockEnd
  0
BLOCK
  5
B9
330
B8
100
AcDbEntity
  8
0
100
AcDbBlockBegin
  2
*D5
 70
     1
 10
0.0
 20
0.0
 30
0.0
  3
*D5
  1

  0
SOLID
  5
BB
330
B8
100
AcDbEntity
  8
0
  6
Continuous
 62
     7
 48
2.25
370
     0
100
AcDbTrace
 10
8.0525435785
 20
14.768923633
 30
0.0
 11
8.3450435785
 21
14.723923633
 31
0.0
 12
8.3450435785
 22
14.813923633
 32
0.0
 13
8.3450435785
 23
14.813923633
 33
0.0
  0
SOLID
  5
BC
330
B8
100
AcDbEntity
  8
0
  6
Continuous
 62
     7
 48
2.25
370
     0
100
AcDbTrace
 10
14.0525435785
 20
14.768923633
 30
0.0
 11
13.7600435785
 21
14.813923633
 31
0.0
 12
13.7600435785
 22
14.723923633
 32
0.0
 13
13.7600435785
 23
14.723923633
 33
0.0
  0
LINE
  5
BD
330
B8
100
AcDbEntity
  8
0
  6
Continuous
 62
     7
 48
2.25
370
     0
100
AcDbLine
 10
10.4708680857
 20
14.7354473432
 30
0.0
 11
10.4708680857
 21
14.3560493921
 31
0.0
  0
LINE
  5
BE
330
B8
100
AcDbEntity
  8
0
  6
Continuous
 62
     7
 48
2.25
370
     0
100
AcDbLine
 10
10.4708680857
 20
14.3560493921
 30
0.0
 11
10.5279559932
 21
14.3560493921
 31
0.0
  0
LINE
  5
BF
330
B8
100
AcDbEntity
  8
0
  6
Continuous
 62
     7
 48
2.25
370
     0
100
AcDbLine
 10
10.4708680857
 20
14.7354473432
 30
0.0
 11
10.5279559932
 21
14.7354473432
 31
0.0
  0
LINE
  5
C0
330
B8
100
AcDbEntity
  8
0
  6
Continuous
 62
     7
 48
2.25
370
     0
100
AcDbLine
 10
11.6342190713
 20
14.7354473432
 30
0.0
 11
11.6342190713
 21
14.3560493921
 31
0.0
  0
LINE
  5
C1
330
B8
100
AcDbEntity
  8
0
  6
Continuous
 62
     7
 48
2.25
370
     0
100
AcDbLine
 10
11.6342190713
 20
14.3560493921
 30
0.0
 11
11.5771311638
 21
14.3560493921
 31
0.0
  0
LINE
  5
C2
330
B8
100
AcDbEntity
  8
0
  6
Continuous
 62
     7
 48
2.25
370
     0
100
AcDbLine
 10
11.6342190713
 20
14.7354473432
 30
0.0
 11
11.5771311638
 21
14.7354473432
 31
0.0
  0
LINE
  5
C3
330
B8
100
AcDbEntity
  8
0
  6
Continuous
 62
     7
 48
2.25
370
     0
100
AcDbLine
 10
8.0525435785
 20
14.0927051201
 30
0.0
 11
8.0525435785
 21
15.050173633
 31
0.0
  0
LINE
  5
C4
330
B8
100
AcDbEntity
  8
0
  6
Continuous
 62
     7
 48
2.25
370
     0
100
AcDbLine
 10
14.0525435785
 20
14.0927051201
 30
0.0
 11
14.0525435785
 21
15.050173633
 31
0.0
  0
LINE
  5
C5
330
B8
100
AcDbEntity
  8
0
  6
Continuous
 62
     7
 48
2.25
370
     0
100
AcDbLine
 10
8.0525435785
 20
14.768923633
 30
0.0
 11
10.1590533113
 21
14.768923633
 31
0.0
  0
LINE
  5
C6
330
B8
100
AcDbEntity
  8
0
  6
Continuous
 62
     7
 48
2.25
370
     0
100
AcDbLine
 10
14.0525435785
 20
14.768923633
 30
0.0
 11
11.9460338458
 21
14.768923633
 31
0.0
  0
MTEXT
  5
C7
330
B8
100
AcDbEntity
  8
0
  6
Continuous
 62
     7
 48
2.25
370
     0
100
AcDbMText
 10
10.6890148825
 20
15.1314739193
 30
0.0
 40
0.28125
 41
0.0
 71
     1
 72
     1
  1
6.00
  7
SLDTEXTSTYLE0
 73
     1
 44
1.0
  0
MTEXT
  5
C8
330
B8
100
AcDbEntity
  8
0
  6
Continuous
 62
     7
 48
2.25
370
     0
100
AcDbMText
 10
10.5850439007
 20
14.6851233886
 30
0.0
 40
0.28125
 41
0.0
 71
     1
 72
     1
  1
152.4
  7
SLDTEXTSTYLE0
 73
     1
 44
1.0
  0
ENDBLK
  5
BA
330
B8
100
AcDbEntity
  8
0
100
AcDbBlockEnd
  0
BLOCK
  5
CB
330
CA
100
AcDbEntity
  8
0
100
AcDbBlockBegin
  2
*D6
 70
     1
 10
0.0
 20
0.0
 30
0.0
  3
*D6
  1

  0
SOLID
  5
CD
330
CA
100
AcDbEntity
  8
0
  6
Continuous
 62
     7
 48
2.25
370
     0
100
AcDbTrace
 10
14.9521137286
 20
13.9802051201
 30
0.0
 11
14.9071137286
 21
13.6877051201
 31
0.0
 12
14.9971137286
 22
13.6877051201
 32
0.0
 13
14.9971137286
 23
13.6877051201
 33
0.0
  0
SOLID
  5
CE
330
CA
100
AcDbEntity
  8
0
  6
Continuous
 62
     7
 48
2.25
370
     0
100
AcDbTrace
 10
14.9521137286
 20
7.9802051201
 30
0.0
 11
14.9971137286
 21
8.2727051201
 31
0.0
 12
14.9071137286
 22
8.2727051201
 32
0.0
 13
14.9071137286
 23
8.2727051201
 33
0.0
  0
LINE
  5
CF
330
CA
100
AcDbEntity
  8
0
  6
Continuous
 62
     7
 48
2.25
370
     0
100
AcDbLine
 10
14.3704382358
 20
10.9467288303
 30
0.0
 11
14.3704382358
 21
10.5673308792
 31
0.0
  0
LINE
  5
D0
330
CA
100
AcDbEntity
  8
0
  6
Continuous
 62
     7
 48
2.25
370
     0
100
AcDbLine
 10
14.3704382358
 20
10.5673308792
 30
0.0
 11
14.4275261433
 21
10.5673308792
 31
0.0
  0
LINE
  5
D1
330
CA
100
AcDbEntity
  8
0
  6
Continuous
 62
     7
 48
2.25
370
     0
100
AcDbLine
 10
14.3704382358
 20
10.9467288303
 30
0.0
 11
14.4275261433
 21
10.9467288303
 31
0.0
  0
LINE
  5
D2
330
CA
100
AcDbEntity
  8
0
  6
Continuous
 62
     7
 48
2.25
370
     0
100
AcDbLine
 10
15.5337892214
 20
10.9467288303
 30
0.0
 11
15.5337892214
 21
10.5673308792
 31
0.0
  0
LINE
  5
D3
330
CA
100
AcDbEntity
  8
0
  6
Continuous
 62
     7
 48
2.25
370
     0
100
AcDbLine
 10
15.5337892214
 20
10.5673308792
 30
0.0
 11
15.4767013139
 21
10.5673308792
 31
0.0
  0
LINE
  5
D4
330
CA
100
AcDbEntity
  8
0
  6
Continuous
 62
     7
 48
2.25
370
     0
100
AcDbLine
 10
15.5337892214
 20
10.9467288303
 30
0.0
 11
15.4767013139
 21
10.9467288303
 31
0.0
  0
LINE
  5
D5
330
CA
100
AcDbEntity
  8
0
  6
Continuous
 62
     7
 48
2.25
370
     0
100
AcDbLine
 10
14.1650435785
 20
13.9802051201
 30
0.0
 11
15.2333637286
 21
13.9802051201
 31
0.0
  0
LINE
  5
D6
330
CA
100
AcDbEntity
  8
0
  6
Continuous
 62
     7
 48
2.25
370
     0
100
AcDbLine
 10
14.1650435785
 20
7.9802051201
 30
0.0
 11
15.2333637286
 21
7.9802051201
 31
0.0
  0
LINE
  5
D7
330
CA
100
AcDbEntity
  8
0
  6
Continuous
 62
     7
 48
2.25
370
     0
100
AcDbLine
 10
14.9521137286
 20
13.9802051201
 30
0.0
 11
14.9521137286
 21
11.4265556509
 31
0.0
  0
LINE
  5
D8
330
CA
100
AcDbEntity
  8
0
  6
Continuous
 62
     7
 48
2.25
370
     0
100
AcDbLine
 10
14.9521137286
 20
7.9802051201
 30
0.0
 11
14.9521137286
 21
10.5338545894
 31
0.0
  0
MTEXT
  5
D9
330
CA
100
AcDbEntity
  8
0
  6
Continuous
 62
     7
 48
2.25
370
     0
100
AcDbMText
 10
14.5885850326
 20
11.3427554065
 30
0.0
 40
0.28125
 41
0.0
 71
     1
 72
     1
  1
6.00
  7
SLDTEXTSTYLE0
 73
     1
 44
1.0
  0
MTEXT
  5
DA
330
CA
100
AcDbEntity
  8
0
  6
Continuous
 62
     7
 48
2.25
370
     0
100
AcDbMText
 10
14.4846140508
 20
10.8964048758
 30
0.0
 40
0.28125
 41
0.0
 71
     1
 72
     1
  1
152.4
  7
SLDTEXTSTYLE0
 73
     1
 44
1.0
  0
ENDBLK
  5
CC
330
CA
100
AcDbEntity
  8
0
100
AcDbBlockEnd
  0
BLOCK
  5
DC
330
DB
100
AcDbEntity
  8
0
100
AcDbBlockBegin
  2
SW_NOTE_4
 70
     0
 10
0.0
 20
0.0
 30
0.0
  3
SW_NOTE_4
  1

  0
MTEXT
  5
DE
330
DB
100
AcDbEntity
  8
0
  6
Continuous
 62
     0
 48
2.25
370
     0
100
AcDbMText
 10
0.0445093179
 20
0.136471549
 30
0.0
 40
0.28125
 41
0.0
 71
     1
 72
     1
  1
SCREWS: #10-32 x .31"[8mm] LG.
  7
SLDTEXTSTYLE0
 73
     1
 44
1.0
  0
MTEXT
  5
DF
330
DB
100
AcDbEntity
  8
0
  6
Continuous
 62
     0
 48
2.25
370
     0
100
AcDbMText
 10
0.0445093179
 20
-0.2333611187
 30
0.0
 40
0.28125
 41
0.0
 71
     1
 72
     1
  1
MACHINE, PAN HEAD, SLOTTED/SQUARE
  7
SLDTEXTSTYLE0
 73
     1
 44
1.0
  0
MTEXT
  5
E0
330
DB
100
AcDbEntity
  8
0
  6
Continuous
 62
     0
 48
2.25
370
     0
100
AcDbMText
 10
0.0445093179
 20
-0.6031937863
 30
0.0
 40
0.28125
 41
0.0
 71
     1
 72
     1
  1
COMBINATION STYLE DRIVE, STEEL, ZINC PLATED.
  7
SLDTEXTSTYLE0
 73
     1
 44
1.0
  0
MTEXT
  5
E1
330
DB
100
AcDbEntity
  8
0
  6
Continuous
 62
     0
 48
2.25
370
     0
100
AcDbMText
 10
0.0445093179
 20
-0.973026454
 30
0.0
 40
0.28125
 41
0.0
 71
     1
 72
     1
  1
(SUPPLIED FOR COVER MOUNTING AND
  7
SLDTEXTSTYLE0
 73
     1
 44
1.0
  0
MTEXT
  5
E2
330
DB
100
AcDbEntity
  8
0
  6
Continuous
 62
     0
 48
2.25
370
     0
100
AcDbMText
 10
0.0445093179
 20
-1.3428591217
 30
0.0
 40
0.28125
 41
0.0
 71
     1
 72
     1
  1
FOR GROUND POINT).
  7
SLDTEXTSTYLE0
 73
     1
 44
1.0
  0
ENDBLK
  5
DD
330
DB
100
AcDbEntity
  8
0
100
AcDbBlockEnd
  0
BLOCK
  5
132
330
131
100
AcDbEntity
  8
0
100
AcDbBlockBegin
  2
*D8
 70
     1
 10
0.0
 20
0.0
 30
0.0
  3
*D8
  1

  0
SOLID
  5
134
330
131
100
AcDbEntity
  8
0
  6
Continuous
 62
     7
 48
2.25
370
     0
100
AcDbTrace
 10
14.9521137286
 20
20.4906805906
 30
0.0
 11
14.9071137286
 21
20.1981805906
 31
0.0
 12
14.9971137286
 22
20.1981805906
 32
0.0
 13
14.9971137286
 23
20.1981805906
 33
0.0
  0
SOLID
  5
135
330
131
100
AcDbEntity
  8
0
  6
Continuous
 62
     7
 48
2.25
370
     0
100
AcDbTrace
 10
14.9521137286
 20
16.4906805906
 30
0.0
 11
14.9971137286
 21
16.7831805906
 31
0.0
 12
14.9071137286
 22
16.7831805906
 32
0.0
 13
14.9071137286
 23
16.7831805906
 33
0.0
  0
LINE
  5
136
330
131
100
AcDbEntity
  8
0
  6
Continuous
 62
     7
 48
2.25
370
     0
100
AcDbLine
 10
14.3704382358
 20
18.4572043008
 30
0.0
 11
14.3704382358
 21
18.0778063497
 31
0.0
  0
LINE
  5
137
330
131
100
AcDbEntity
  8
0
  6
Continuous
 62
     7
 48
2.25
370
     0
100
AcDbLine
 10
14.3704382358
 20
18.0778063497
 30
0.0
 11
14.4275261433
 21
18.0778063497
 31
0.0
  0
LINE
  5
138
330
131
100
AcDbEntity
  8
0
  6
Continuous
 62
     7
 48
2.25
370
     0
100
AcDbLine
 10
14.3704382358
 20
18.4572043008
 30
0.0
 11
14.4275261433
 21
18.4572043008
 31
0.0
  0
LINE
  5
139
330
131
100
AcDbEntity
  8
0
  6
Continuous
 62
     7
 48
2.25
370
     0
100
AcDbLine
 10
15.5337892214
 20
18.4572043008
 30
0.0
 11
15.5337892214
 21
18.0778063497
 31
0.0
  0
LINE
  5
13A
330
131
100
AcDbEntity
  8
0
  6
Continuous
 62
     7
 48
2.25
370
     0
100
AcDbLine
 10
15.5337892214
 20
18.0778063497
 30
0.0
 11
15.4767013139
 21
18.0778063497
 31
0.0
  0
LINE
  5
13B
330
131
100
AcDbEntity
  8
0
  6
Continuous
 62
     7
 48
2.25
370
     0
100
AcDbLine
 10
15.5337892214
 20
18.4572043008
 30
0.0
 11
15.4767013139
 21
18.4572043008
 31
0.0
  0
LINE
  5
13C
330
131
100
AcDbEntity
  8
0
  6
Continuous
 62
     7
 48
2.25
370
     0
100
AcDbLine
 10
14.0880435785
 20
20.4906805906
 30
0.0
 11
15.2333637286
 21
20.4906805906
 31
0.0
  0
LINE
  5
13D
330
131
100
AcDbEntity
  8
0
  6
Continuous
 62
     7
 48
2.25
370
     0
100
AcDbLine
 10
14.1650435785
 20
16.4906805906
 30
0.0
 11
15.2333637286
 21
16.4906805906
 31
0.0
  0
LINE
  5
13E
330
131
100
AcDbEntity
  8
0
  6
Continuous
 62
     7
 48
2.25
370
     0
100
AcDbLine
 10
14.9521137286
 20
20.4906805906
 30
0.0
 11
14.9521137286
 21
18.9370311213
 31
0.0
  0
LINE
  5
13F
330
131
100
AcDbEntity
  8
0
  6
Continuous
 62
     7
 48
2.25
370
     0
100
AcDbLine
 10
14.9521137286
 20
16.4906805906
 30
0.0
 11
14.9521137286
 21
18.0443300599
 31
0.0
  0
MTEXT
  5
140
330
131
100
AcDbEntity
  8
0
  6
Continuous
 62
     7
 48
2.25
370
     0
100
AcDbMText
 10
14.5885850326
 20
18.853230877
 30
0.0
 40
0.28125
 41
0.0
 71
     1
 72
     1
  1
4.00
  7
SLDTEXTSTYLE0
 73
     1
 44
1.0
  0
MTEXT
  5
141
330
131
100
AcDbEntity
  8
0
  6
Continuous
 62
     7
 48
2.25
370
     0
100
AcDbMText
 10
14.4846140508
 20
18.4068803463
 30
0.0
 40
0.28125
 41
0.0
 71
     1
 72
     1
  1
101.6
  7
SLDTEXTSTYLE0
 73
     1
 44
1.0
  0
ENDBLK
  5
133
330
131
100
AcDbEntity
  8
0
100
AcDbBlockEnd
  0
BLOCK
  5
229
330
228
100
AcDbEntity
  8
0
100
AcDbBlockBegin
  2
*D9
 70
     1
 10
0.0
 20
0.0
 30
0.0
  3
*D9
  1

  0
SOLID
  5
22B
330
228
100
AcDbEntity
  8
0
  6
Continuous
 62
     7
 48
2.25
370
     0
100
AcDbTrace
 10
29.2428175953
 20
12.4802051201
 30
0.0
 11
29.1978175953
 21
12.1877051201
 31
0.0
 12
29.2878175953
 22
12.1877051201
 32
0.0
 13
29.2878175953
 23
12.1877051201
 33
0.0
  0
SOLID
  5
22C
330
228
100
AcDbEntity
  8
0
  6
Continuous
 62
     7
 48
2.25
370
     0
100
AcDbTrace
 10
29.2428175953
 20
9.4802051201
 30
0.0
 11
29.2878175953
 21
9.7727051201
 31
0.0
 12
29.1978175953
 22
9.7727051201
 32
0.0
 13
29.1978175953
 23
9.7727051201
 33
0.0
  0
LINE
  5
22D
330
228
100
AcDbEntity
  8
0
  6
Continuous
 62
     7
 48
2.25
370
     0
100
AcDbLine
 10
28.7651130843
 20
10.9467288303
 30
0.0
 11
28.7651130843
 21
10.5673308792
 31
0.0
  0
LINE
  5
22E
330
228
100
AcDbEntity
  8
0
  6
Continuous
 62
     7
 48
2.25
370
     0
100
AcDbLine
 10
28.7651130843
 20
10.5673308792
 30
0.0
 11
28.8222009918
 21
10.5673308792
 31
0.0
  0
LINE
  5
22F
330
228
100
AcDbEntity
  8
0
  6
Continuous
 62
     7
 48
2.25
370
     0
100
AcDbLine
 10
28.7651130843
 20
10.9467288303
 30
0.0
 11
28.8222009918
 21
10.9467288303
 31
0.0
  0
LINE
  5
230
330
228
100
AcDbEntity
  8
0
  6
Continuous
 62
     7
 48
2.25
370
     0
100
AcDbLine
 10
29.7205221063
 20
10.9467288303
 30
0.0
 11
29.7205221063
 21
10.5673308792
 31
0.0
  0
LINE
  5
231
330
228
100
AcDbEntity
  8
0
  6
Continuous
 62
     7
 48
2.25
370
     0
100
AcDbLine
 10
29.7205221063
 20
10.5673308792
 30
0.0
 11
29.6634341988
 21
10.5673308792
 31
0.0
  0
LINE
  5
232
330
228
100
AcDbEntity
  8
0
  6
Continuous
 62
     7
 48
2.25
370
     0
100
AcDbLine
 10
29.7205221063
 20
10.9467288303
 30
0.0
 11
29.6634341988
 21
10.9467288303
 31
0.0
  0
LINE
  5
233
330
228
100
AcDbEntity
  8
0
  6
Continuous
 62
     7
 48
2.25
370
     0
100
AcDbLine
 10
30.3904854264
 20
12.4802051201
 30
0.0
 11
28.9615675953
 21
12.4802051201
 31
0.0
  0
LINE
  5
234
330
228
100
AcDbEntity
  8
0
  6
Continuous
 62
     7
 48
2.25
370
     0
100
AcDbLine
 10
30.3904854264
 20
9.4802051201
 30
0.0
 11
28.9615675953
 21
9.4802051201
 31
0.0
  0
LINE
  5
235
330
228
100
AcDbEntity
  8
0
  6
Continuous
 62
     7
 48
2.25
370
     0
100
AcDbLine
 10
29.2428175953
 20
12.4802051201
 30
0.0
 11
29.2428175953
 21
11.4265556509
 31
0.0
  0
LINE
  5
236
330
228
100
AcDbEntity
  8
0
  6
Continuous
 62
     7
 48
2.25
370
     0
100
AcDbLine
 10
29.2428175953
 20
9.4802051201
 30
0.0
 11
29.2428175953
 21
10.5338545894
 31
0.0
  0
MTEXT
  5
237
330
228
100
AcDbEntity
  8
0
  6
Continuous
 62
     7
 48
2.25
370
     0
100
AcDbMText
 10
28.8792888993
 20
11.3427554065
 30
0.0
 40
0.28125
 41
0.0
 71
     1
 72
     1
  1
3.00
  7
SLDTEXTSTYLE0
 73
     1
 44
1.0
  0
MTEXT
  5
238
330
228
100
AcDbEntity
  8
0
  6
Continuous
 62
     7
 48
2.25
370
     0
100
AcDbMText
 10
28.8792888993
 20
10.8964048758
 30
0.0
 40
0.28125
 41
0.0
 71
     1
 72
     1
  1
76.2
  7
SLDTEXTSTYLE0
 73
     1
 44
1.0
  0
ENDBLK
  5
22A
330
228
100
AcDbEntity
  8
0
100
AcDbBlockEnd
  0
BLOCK
  5
23B
330
23A
100
AcDbEntity
  8
0
100
AcDbBlockBegin
  2
*D10
 70
     1
 10
0.0
 20
0.0
 30
0.0
  3
*D10
  1

  0
SOLID
  5
23D
330
23A
100
AcDbEntity
  8
0
  6
Continuous
 62
     7
 48
2.25
370
     0
100
AcDbTrace
 10
30.5029854264
 20
7.2441209691
 30
0.0
 11
30.7954854264
 21
7.1991209691
 31
0.0
 12
30.7954854264
 22
7.2891209691
 32
0.0
 13
30.7954854264
 23
7.2891209691
 33
0.0
  0
SOLID
  5
23E
330
23A
100
AcDbEntity
  8
0
  6
Continuous
 62
     7
 48
2.25
370
     0
100
AcDbTrace
 10
35.5029854264
 20
7.2441209691
 30
0.0
 11
35.2104854264
 21
7.2891209691
 31
0.0
 12
35.2104854264
 22
7.1991209691
 32
0.0
 13
35.2104854264
 23
7.1991209691
 33
0.0
  0
LINE
  5
23F
330
23A
100
AcDbEntity
  8
0
  6
Continuous
 62
     7
 48
2.25
370
     0
100
AcDbLine
 10
32.5771924583
 20
7.2106446793
 30
0.0
 11
32.5771924583
 21
6.8312467282
 31
0.0
  0
LINE
  5
240
330
23A
100
AcDbEntity
  8
0
  6
Continuous
 62
     7
 48
2.25
370
     0
100
AcDbLine
 10
32.5771924583
 20
6.8312467282
 30
0.0
 11
32.6342803658
 21
6.8312467282
 31
0.0
  0
LINE
  5
241
330
23A
100
AcDbEntity
  8
0
  6
Continuous
 62
     7
 48
2.25
370
     0
100
AcDbLine
 10
32.5771924583
 20
7.2106446793
 30
0.0
 11
32.6342803658
 21
7.2106446793
 31
0.0
  0
LINE
  5
242
330
23A
100
AcDbEntity
  8
0
  6
Continuous
 62
     7
 48
2.25
370
     0
100
AcDbLine
 10
33.4287783946
 20
7.2106446793
 30
0.0
 11
33.4287783946
 21
6.8312467282
 31
0.0
  0
LINE
  5
243
330
23A
100
AcDbEntity
  8
0
  6
Continuous
 62
     7
 48
2.25
370
     0
100
AcDbLine
 10
33.4287783946
 20
6.8312467282
 30
0.0
 11
33.3716904871
 21
6.8312467282
 31
0.0
  0
LINE
  5
244
330
23A
100
AcDbEntity
  8
0
  6
Continuous
 62
     7
 48
2.25
370
     0
100
AcDbLine
 10
33.4287783946
 20
7.2106446793
 30
0.0
 11
33.3716904871
 21
7.2106446793
 31
0.0
  0
LINE
  5
245
330
23A
100
AcDbEntity
  8
0
  6
Continuous
 62
     7
 48
2.25
370
     0
100
AcDbLine
 10
30.5029854264
 20
9.3677051201
 30
0.0
 11
30.5029854264
 21
6.9628709691
 31
0.0
  0
LINE
  5
246
330
23A
100
AcDbEntity
  8
0
  6
Continuous
 62
     7
 48
2.25
370
     0
100
AcDbLine
 10
35.5029854264
 20
9.3677051201
 30
0.0
 11
35.5029854264
 21
6.9628709691
 31
0.0
  0
LINE
  5
247
330
23A
100
AcDbEntity
  8
0
  6
Continuous
 62
     7
 48
2.25
370
     0
100
AcDbLine
 10
30.5029854264
 20
7.2441209691
 30
0.0
 11
32.2653776838
 21
7.2441209691
 31
0.0
  0
LINE
  5
248
330
23A
100
AcDbEntity
  8
0
  6
Continuous
 62
     7
 48
2.25
370
     0
100
AcDbLine
 10
35.5029854264
 20
7.2441209691
 30
0.0
 11
33.740593169
 21
7.2441209691
 31
0.0
  0
MTEXT
  5
249
330
23A
100
AcDbEntity
  8
0
  6
Continuous
 62
     7
 48
2.25
370
     0
100
AcDbMText
 10
32.6394567305
 20
7.6066712554
 30
0.0
 40
0.28125
 41
0.0
 71
     1
 72
     1
  1
5.00
  7
SLDTEXTSTYLE0
 73
     1
 44
1.0
  0
MTEXT
  5
24A
330
23A
100
AcDbEntity
  8
0
  6
Continuous
 62
     7
 48
2.25
370
     0
100
AcDbMText
 10
32.6913682733
 20
7.1603207247
 30
0.0
 40
0.28125
 41
0.0
 71
     1
 72
     1
  1
127
  7
SLDTEXTSTYLE0
 73
     1
 44
1.0
  0
ENDBLK
  5
23C
330
23A
100
AcDbEntity
  8
0
100
AcDbBlockEnd
  0
BLOCK
  5
24E
330
24D
100
AcDbEntity
  8
0
100
AcDbBlockBegin
  2
*D11
 70
     1
 10
0.0
 20
0.0
 30
0.0
  3
*D11
  1

  0
SOLID
  5
250
330
24D
100
AcDbEntity
  8
0
  6
Continuous
 62
     7
 48
2.25
370
     0
100
AcDbTrace
 10
35.4622264139
 20
9.3457471234
 30
0.0
 11
35.3343074031
 21
9.078880159
 31
0.0
 12
35.4204370808
 22
9.052771183
 32
0.0
 13
35.4204370808
 23
9.052771183
 33
0.0
  0
LINE
  5
251
330
24D
100
AcDbEntity
  8
0
  6
Continuous
 62
     7
 48
2.25
370
     0
100
AcDbLine
 10
35.0767901801
 20
6.1992372373
 30
0.0
 11
35.0767901801
 21
5.8198392862
 31
0.0
  0
LINE
  5
252
330
24D
100
AcDbEntity
  8
0
  6
Continuous
 62
     7
 48
2.25
370
     0
100
AcDbLine
 10
35.0767901801
 20
5.8198392862
 30
0.0
 11
35.1338780876
 21
5.8198392862
 31
0.0
  0
LINE
  5
253
330
24D
100
AcDbEntity
  8
0
  6
Continuous
 62
     7
 48
2.25
370
     0
100
AcDbLine
 10
35.0767901801
 20
6.1992372373
 30
0.0
 11
35.1338780876
 21
6.1992372373
 31
0.0
  0
LINE
  5
254
330
24D
100
AcDbEntity
  8
0
  6
Continuous
 62
     7
 48
2.25
370
     0
100
AcDbLine
 10
36.0321992021
 20
6.1992372373
 30
0.0
 11
36.0321992021
 21
5.8198392862
 31
0.0
  0
LINE
  5
255
330
24D
100
AcDbEntity
  8
0
  6
Continuous
 62
     7
 48
2.25
370
     0
100
AcDbLine
 10
36.0321992021
 20
5.8198392862
 30
0.0
 11
35.9751112945
 21
5.8198392862
 31
0.0
  0
LINE
  5
256
330
24D
100
AcDbEntity
  8
0
  6
Continuous
 62
     7
 48
2.25
370
     0
100
AcDbLine
 10
36.0321992021
 20
6.1992372373
 30
0.0
 11
35.9751112945
 21
6.1992372373
 31
0.0
  0
LINE
  5
257
330
24D
100
AcDbEntity
  8
0
  6
Continuous
 62
     7
 48
2.25
370
     0
100
AcDbLine
 10
35.4622264139
 20
9.3457471234
 30
0.0
 11
34.518554945
 21
6.2327135271
 31
0.0
  0
LINE
  5
258
330
24D
100
AcDbEntity
  8
0
  6
Continuous
 62
     7
 48
2.25
370
     0
100
AcDbLine
 10
34.518554945
 20
6.2327135271
 30
0.0
 11
34.799804945
 21
6.2327135271
 31
0.0
  0
MTEXT
  5
259
330
24D
100
AcDbEntity
  8
0
  6
Continuous
 62
     7
 48
2.25
370
     0
100
AcDbMText
 10
34.9901082563
 20
6.5952638186
 30
0.0
 40
0.28125
 41
0.0
 71
     1
 72
     1
  1
%%c
  7
SLDTEXTSTYLE0
 73
     1
 44
1.0
  0
MTEXT
  5
25A
330
24D
100
AcDbEntity
  8
0
  6
Continuous
 62
     7
 48
2.25
370
     0
100
AcDbMText
 10
35.3918237339
 20
6.5952638134
 30
0.0
 40
0.28125
 41
0.0
 71
     1
 72
     1
  1
.281
  7
SLDTEXTSTYLE0
 73
     1
 44
1.0
  0
MTEXT
  5
25B
330
24D
100
AcDbEntity
  8
0
  6
Continuous
 62
     7
 48
2.25
370
     0
100
AcDbMText
 10
35.1909659951
 20
6.1489132827
 30
0.0
 40
0.28125
 41
0.0
 71
     1
 72
     1
  1
7.14
  7
SLDTEXTSTYLE0
 73
     1
 44
1.0
  0
ENDBLK
  5
24F
330
24D
100
AcDbEntity
  8
0
100
AcDbBlockEnd
  0
BLOCK
  5
25E
330
25D
100
AcDbEntity
  8
0
100
AcDbBlockBegin
  2
*D12
 70
     1
 10
0.0
 20
0.0
 30
0.0
  3
*D12
  1

  0
SOLID
  5
260
330
25D
100
AcDbEntity
  8
0
  6
Continuous
 62
     7
 48
2.25
370
     0
100
AcDbTrace
 10
36.7413809284
 20
11.9802051201
 30
0.0
 11
36.7863809284
 21
12.2727051201
 31
0.0
 12
36.6963809284
 22
12.2727051201
 32
0.0
 13
36.6963809284
 23
12.2727051201
 33
0.0
  0
SOLID
  5
261
330
25D
100
AcDbEntity
  8
0
  6
Continuous
 62
     7
 48
2.25
370
     0
100
AcDbTrace
 10
36.7413809284
 20
13.9802051201
 30
0.0
 11
36.6963809284
 21
13.6877051201
 31
0.0
 12
36.7863809284
 22
13.6877051201
 32
0.0
 13
36.7863809284
 23
13.6877051201
 33
0.0
  0
LINE
  5
262
330
25D
100
AcDbEntity
  8
0
  6
Continuous
 62
     7
 48
2.25
370
     0
100
AcDbLine
 10
36.2636764174
 20
12.9467288303
 30
0.0
 11
36.2636764174
 21
12.5673308792
 31
0.0
  0
LINE
  5
263
330
25D
100
AcDbEntity
  8
0
  6
Continuous
 62
     7
 48
2.25
370
     0
100
AcDbLine
 10
36.2636764174
 20
12.5673308792
 30
0.0
 11
36.3207643249
 21
12.5673308792
 31
0.0
  0
LINE
  5
264
330
25D
100
AcDbEntity
  8
0
  6
Continuous
 62
     7
 48
2.25
370
     0
100
AcDbLine
 10
36.2636764174
 20
12.9467288303
 30
0.0
 11
36.3207643249
 21
12.9467288303
 31
0.0
  0
LINE
  5
265
330
25D
100
AcDbEntity
  8
0
  6
Continuous
 62
     7
 48
2.25
370
     0
100
AcDbLine
 10
37.2190854394
 20
12.9467288303
 30
0.0
 11
37.2190854394
 21
12.5673308792
 31
0.0
  0
LINE
  5
266
330
25D
100
AcDbEntity
  8
0
  6
Continuous
 62
     7
 48
2.25
370
     0
100
AcDbLine
 10
37.2190854394
 20
12.5673308792
 30
0.0
 11
37.1619975318
 21
12.5673308792
 31
0.0
  0
LINE
  5
267
330
25D
100
AcDbEntity
  8
0
  6
Continuous
 62
     7
 48
2.25
370
     0
100
AcDbLine
 10
37.2190854394
 20
12.9467288303
 30
0.0
 11
37.1619975318
 21
12.9467288303
 31
0.0
  0
LINE
  5
268
330
25D
100
AcDbEntity
  8
0
  6
Continuous
 62
     7
 48
2.25
370
     0
100
AcDbLine
 10
34.1154854264
 20
11.9802051201
 30
0.0
 11
37.0226309284
 21
11.9802051201
 31
0.0
  0
LINE
  5
269
330
25D
100
AcDbEntity
  8
0
  6
Continuous
 62
     7
 48
2.25
370
     0
100
AcDbLine
 10
36.1154854264
 20
13.9802051201
 30
0.0
 11
37.0226309284
 21
13.9802051201
 31
0.0
  0
LINE
  5
26A
330
25D
100
AcDbEntity
  8
0
  6
Continuous
 62
     7
 48
2.25
370
     0
100
AcDbLine
 10
36.7413809284
 20
11.9802051201
 30
0.0
 11
36.7413809284
 21
12.5338545894
 31
0.0
  0
LINE
  5
26B
330
25D
100
AcDbEntity
  8
0
  6
Continuous
 62
     7
 48
2.25
370
     0
100
AcDbLine
 10
36.7413809284
 20
13.9802051201
 30
0.0
 11
36.7413809284
 21
13.4265556509
 31
0.0
  0
MTEXT
  5
26C
330
25D
100
AcDbEntity
  8
0
  6
Continuous
 62
     7
 48
2.25
370
     0
100
AcDbMText
 10
36.3778522324
 20
13.3427554065
 30
0.0
 40
0.28125
 41
0.0
 71
     1
 72
     1
  1
2.00
  7
SLDTEXTSTYLE0
 73
     1
 44
1.0
  0
MTEXT
  5
26D
330
25D
100
AcDbEntity
  8
0
  6
Continuous
 62
     7
 48
2.25
370
     0
100
AcDbMText
 10
36.3778522324
 20
12.8964048758
 30
0.0
 40
0.28125
 41
0.0
 71
     1
 72
     1
  1
50.8
  7
SLDTEXTSTYLE0
 73
     1
 44
1.0
  0
ENDBLK
  5
25F
330
25D
100
AcDbEntity
  8
0
100
AcDbBlockEnd
  0
BLOCK
  5
271
330
270
100
AcDbEntity
  8
0
100
AcDbBlockBegin
  2
*D13
 70
     1
 10
0.0
 20
0.0
 30
0.0
  3
*D13
  1

  0
SOLID
  5
273
330
270
100
AcDbEntity
  8
0
  6
Continuous
 62
     7
 48
2.25
370
     0
100
AcDbTrace
 10
34.0029854264
 20
14.7225158109
 30
0.0
 11
33.7104854264
 21
14.7675158109
 31
0.0
 12
33.7104854264
 22
14.6775158109
 32
0.0
 13
33.7104854264
 23
14.6775158109
 33
0.0
  0
SOLID
  5
274
330
270
100
AcDbEntity
  8
0
  6
Continuous
 62
     7
 48
2.25
370
     0
100
AcDbTrace
 10
36.0029854264
 20
14.7225158109
 30
0.0
 11
36.2954854264
 21
14.6775158109
 31
0.0
 12
36.2954854264
 22
14.7675158109
 32
0.0
 13
36.2954854264
 23
14.7675158109
 33
0.0
  0
LINE
  5
275
330
270
100
AcDbEntity
  8
0
  6
Continuous
 62
     7
 48
2.25
370
     0
100
AcDbLine
 10
34.5252809154
 20
14.689039521
 30
0.0
 11
34.5252809154
 21
14.30964157
 31
0.0
  0
LINE
  5
276
330
270
100
AcDbEntity
  8
0
  6
Continuous
 62
     7
 48
2.25
370
     0
100
AcDbLine
 10
34.5252809154
 20
14.30964157
 30
0.0
 11
34.582368823
 21
14.30964157
 31
0.0
  0
LINE
  5
277
330
270
100
AcDbEntity
  8
0
  6
Continuous
 62
     7
 48
2.25
370
     0
100
AcDbLine
 10
34.5252809154
 20
14.689039521
 30
0.0
 11
34.582368823
 21
14.689039521
 31
0.0
  0
LINE
  5
278
330
270
100
AcDbEntity
  8
0
  6
Continuous
 62
     7
 48
2.25
370
     0
100
AcDbLine
 10
35.4806899374
 20
14.689039521
 30
0.0
 11
35.4806899374
 21
14.30964157
 31
0.0
  0
LINE
  5
279
330
270
100
AcDbEntity
  8
0
  6
Continuous
 62
     7
 48
2.25
370
     0
100
AcDbLine
 10
35.4806899374
 20
14.30964157
 30
0.0
 11
35.4236020299
 21
14.30964157
 31
0.0
  0
LINE
  5
27A
330
270
100
AcDbEntity
  8
0
  6
Continuous
 62
     7
 48
2.25
370
     0
100
AcDbLine
 10
35.4806899374
 20
14.689039521
 30
0.0
 11
35.4236020299
 21
14.689039521
 31
0.0
  0
LINE
  5
27B
330
270
100
AcDbEntity
  8
0
  6
Continuous
 62
     7
 48
2.25
370
     0
100
AcDbLine
 10
34.0029854264
 20
12.0927051201
 30
0.0
 11
34.0029854264
 21
15.0037658109
 31
0.0
  0
LINE
  5
27C
330
270
100
AcDbEntity
  8
0
  6
Continuous
 62
     7
 48
2.25
370
     0
100
AcDbLine
 10
36.0029854264
 20
14.0927051201
 30
0.0
 11
36.0029854264
 21
15.0037658109
 31
0.0
  0
LINE
  5
27D
330
270
100
AcDbEntity
  8
0
  6
Continuous
 62
     7
 48
2.25
370
     0
100
AcDbLine
 10
34.0029854264
 20
14.7225158109
 30
0.0
 11
33.4404854264
 21
14.7225158109
 31
0.0
  0
LINE
  5
27E
330
270
100
AcDbEntity
  8
0
  6
Continuous
 62
     7
 48
2.25
370
     0
100
AcDbLine
 10
36.0029854264
 20
14.7225158109
 30
0.0
 11
36.5654854264
 21
14.7225158109
 31
0.0
  0
MTEXT
  5
27F
330
270
100
AcDbEntity
  8
0
  6
Continuous
 62
     7
 48
2.25
370
     0
100
AcDbMText
 10
34.6394567305
 20
15.0850660972
 30
0.0
 40
0.28125
 41
0.0
 71
     1
 72
     1
  1
2.00
  7
SLDTEXTSTYLE0
 73
     1
 44
1.0
  0
MTEXT
  5
280
330
270
100
AcDbEntity
  8
0
  6
Continuous
 62
     7
 48
2.25
370
     0
100
AcDbMText
 10
34.6394567305
 20
14.6387155665
 30
0.0
 40
0.28125
 41
0.0
 71
     1
 72
     1
  1
50.8
  7
SLDTEXTSTYLE0
 73
     1
 44
1.0
  0
ENDBLK
  5
272
330
270
100
AcDbEntity
  8
0
100
AcDbBlockEnd
  0
BLOCK
  5
356
330
355
100
AcDbEntity
  8
0
100
AcDbBlockBegin
  2
*D14
 70
     1
 10
0.0
 20
0.0
 30
0.0
  3
*D14
  1

  0
SOLID
  5
358
330
355
100
AcDbEntity
  8
0
  6
Continuous
 62
     7
 48
2.25
370
     0
100
AcDbTrace
 10
21.7574120692
 20
12.8298960205
 30
0.0
 11
21.4649120692
 21
12.8748960205
 31
0.0
 12
21.4649120692
 22
12.7848960205
 32
0.0
 13
21.4649120692
 23
12.7848960205
 33
0.0
  0
SOLID
  5
359
330
355
100
AcDbEntity
  8
0
  6
Continuous
 62
     7
 48
2.25
370
     0
100
AcDbTrace
 10
22.2574120692
 20
12.8298960205
 30
0.0
 11
22.5499120692
 21
12.7848960205
 31
0.0
 12
22.5499120692
 22
12.8748960205
 32
0.0
 13
22.5499120692
 23
12.8748960205
 33
0.0
  0
LINE
  5
35A
330
355
100
AcDbEntity
  8
0
  6
Continuous
 62
     7
 48
2.25
370
     0
100
AcDbLine
 10
23.0532934563
 20
12.7964197306
 30
0.0
 11
23.0532934563
 21
12.4170217795
 31
0.0
  0
LINE
  5
35B
330
355
100
AcDbEntity
  8
0
  6
Continuous
 62
     7
 48
2.25
370
     0
100
AcDbLine
 10
23.0532934563
 20
12.4170217795
 30
0.0
 11
23.1103813638
 21
12.4170217795
 31
0.0
  0
LINE
  5
35C
330
355
100
AcDbEntity
  8
0
  6
Continuous
 62
     7
 48
2.25
370
     0
100
AcDbLine
 10
23.0532934563
 20
12.7964197306
 30
0.0
 11
23.1103813638
 21
12.7964197306
 31
0.0
  0
LINE
  5
35D
330
355
100
AcDbEntity
  8
0
  6
Continuous
 62
     7
 48
2.25
370
     0
100
AcDbLine
 10
24.0087024782
 20
12.7964197306
 30
0.0
 11
24.0087024782
 21
12.4170217795
 31
0.0
  0
LINE
  5
35E
330
355
100
AcDbEntity
  8
0
  6
Continuous
 62
     7
 48
2.25
370
     0
100
AcDbLine
 10
24.0087024782
 20
12.4170217795
 30
0.0
 11
23.9516145707
 21
12.4170217795
 31
0.0
  0
LINE
  5
35F
330
355
100
AcDbEntity
  8
0
  6
Continuous
 62
     7
 48
2.25
370
     0
100
AcDbLine
 10
24.0087024782
 20
12.7964197306
 30
0.0
 11
23.9516145707
 21
12.7964197306
 31
0.0
  0
LINE
  5
360
330
355
100
AcDbEntity
  8
0
  6
Continuous
 62
     7
 48
2.25
370
     0
100
AcDbLine
 10
21.7574120692
 20
12.8298960205
 30
0.0
 11
21.1949120692
 21
12.8298960205
 31
0.0
  0
LINE
  5
361
330
355
100
AcDbEntity
  8
0
  6
Continuous
 62
     7
 48
2.25
370
     0
100
AcDbLine
 10
22.2574120692
 20
12.8298960205
 30
0.0
 11
22.7414786818
 21
12.8298960205
 31
0.0
  0
MTEXT
  5
362
330
355
100
AcDbEntity
  8
0
  6
Continuous
 62
     7
 48
2.25
370
     0
100
AcDbMText
 10
23.2712923569
 20
13.1924463068
 30
0.0
 40
0.28125
 41
0.0
 71
     1
 72
     1
  1
.50
  7
SLDTEXTSTYLE0
 73
     1
 44
1.0
  0
MTEXT
  5
363
330
355
100
AcDbEntity
  8
0
  6
Continuous
 62
     7
 48
2.25
370
     0
100
AcDbMText
 10
23.1674692713
 20
12.7460957761
 30
0.0
 40
0.28125
 41
0.0
 71
     1
 72
     1
  1
12.7
  7
SLDTEXTSTYLE0
 73
     1
 44
1.0
  0
ENDBLK
  5
357
330
355
100
AcDbEntity
  8
0
100
AcDbBlockEnd
  0
BLOCK
  5
365
330
364
100
AcDbEntity
  8
0
100
AcDbBlockBegin
  2
SW_NOTE_5
 70
     0
 10
0.0
 20
0.0
 30
0.0
  3
SW_NOTE_5
  1

  0
MTEXT
  5
367
330
364
100
AcDbEntity
  8
0
  6
Continuous
 62
     0
 48
2.25
370
     0
100
AcDbMText
 10
0.0444141597
 20
0.136214065
 30
0.0
 40
0.28125
 41
0.0
 71
     1
 72
     1
  1
GROUNDING
  7
SLDTEXTSTYLE0
 73
     1
 44
1.0
  0
MTEXT
  5
368
330
364
100
AcDbEntity
  8
0
  6
Continuous
 62
     0
 48
2.25
370
     0
100
AcDbMText
 10
0.0444141597
 20
-0.2336186027
 30
0.0
 40
0.28125
 41
0.0
 71
     1
 72
     1
  1
EMBOSS
  7
SLDTEXTSTYLE0
 73
     1
 44
1.0
  0
ENDBLK
  5
366
330
364
100
AcDbEntity
  8
0
100
AcDbBlockEnd
  0
ENDSEC
  0
SECTION
  2
ENTITIES
  0
LINE
  5
44
330
1F
100
AcDbEntity
  8
0
  6
Continuous
 62
     7
 48
2.25
370
     0
100
AcDbLine
 10
0.7048161104
 20
24.0864146341
 30
0.0
 11
37.5508161104
 21
24.0864146341
 31
0.0
  0
LINE
  5
45
330
1F
100
AcDbEntity
  8
0
  6
Continuous
 62
     7
 48
2.25
370
     0
100
AcDbLine
 10
37.5508161104
 20
0.7404146341
 30
0.0
 11
37.5508161104
 21
24.0864146341
 31
0.0
  0
LINE
  5
46
330
1F
100
AcDbEntity
  8
0
  6
Continuous
 62
     7
 48
2.25
370
     0
100
AcDbLine
 10
37.5508161104
 20
0.7404146341
 30
0.0
 11
0.7048161104
 21
0.7404146341
 31
0.0
  0
LINE
  5
47
330
1F
100
AcDbEntity
  8
0
  6
Continuous
 62
     7
 48
2.25
370
     0
100
AcDbLine
 10
0.7048161104
 20
24.0864146341
 30
0.0
 11
0.7048161104
 21
0.7404146341
 31
0.0
  0
LINE
  5
48
330
1F
100
AcDbEntity
  8
0
  6
Continuous
 62
     7
 48
2.25
370
     0
100
AcDbLine
 10
0.5653161104
 20
24.2259146341
 30
0.0
 11
37.6903161104
 21
24.2259146341
 31
0.0
  0
LINE
  5
49
330
1F
100
AcDbEntity
  8
0
  6
Continuous
 62
     7
 48
2.25
370
     0
100
AcDbLine
 10
37.6903161104
 20
0.6009146341
 30
0.0
 11
0.5653161104
 21
0.6009146341
 31
0.0
  0
LINE
  5
4A
330
1F
100
AcDbEntity
  8
0
  6
Continuous
 62
     7
 48
2.25
370
     0
100
AcDbLine
 10
0.5653161104
 20
24.2259146341
 30
0.0
 11
0.5653161104
 21
0.6009146341
 31
0.0
  0
LINE
  5
4B
330
1F
100
AcDbEntity
  8
0
  6
Continuous
 62
     7
 48
2.25
370
     0
100
AcDbLine
 10
37.6903161104
 20
0.6009146341
 30
0.0
 11
37.6903161104
 21
24.2259146341
 31
0.0
  0
LINE
  5
4C
330
1F
100
AcDbEntity
  8
0
  6
Continuous
 62
     7
 48
2.25
370
     0
100
AcDbLine
 10
0.7048161104
 20
23.1729146341
 30
0.0
 11
37.5508161104
 21
23.1729146341
 31
0.0
  0
LINE
  5
4D
330
1F
100
AcDbEntity
  8
0
  6
Continuous
 62
     7
 48
2.25
370
     0
100
AcDbLine
 10
2.3923161104
 20
24.0864146341
 30
0.0
 11
2.3923161104
 21
23.1729146341
 31
0.0
  0
LINE
  5
4E
330
1F
100
AcDbEntity
  8
0
  6
Continuous
 62
     7
 48
2.25
370
     0
100
AcDbLine
 10
16.7383161104
 20
23.1729146341
 30
0.0
 11
16.7383161104
 21
24.0864146341
 31
0.0
  0
LINE
  5
4F
330
1F
100
AcDbEntity
  8
0
  6
Continuous
 62
     7
 48
2.25
370
     0
100
AcDbLine
 10
16.8778161104
 20
23.1729146341
 30
0.0
 11
16.8778161104
 21
24.0864146341
 31
0.0
  0
LINE
  5
50
330
1F
100
AcDbEntity
  8
0
  6
Continuous
 62
     7
 48
2.25
370
     0
100
AcDbLine
 10
34.7383161104
 20
23.1729146341
 30
0.0
 11
34.7383161104
 21
24.0864146341
 31
0.0
  0
LINE
  5
51
330
1F
100
AcDbEntity
  8
0
  6
Continuous
 62
     7
 48
2.25
370
     0
100
AcDbLine
 10
18.5653161104
 20
23.1729146341
 30
0.0
 11
18.5653161104
 21
24.0864146341
 31
0.0
  0
LINE
  5
52
330
1F
100
AcDbEntity
  8
0
  6
Continuous
 62
     7
 48
2.25
370
     0
100
AcDbLine
 10
33.0508161104
 20
23.1729146341
 30
0.0
 11
33.0508161104
 21
24.0864146341
 31
0.0
  0
LINE
  5
53
330
1F
100
AcDbEntity
  8
0
  6
Continuous
 62
     7
 48
2.25
370
     0
100
AcDbLine
 10
32.9113161104
 20
23.1729146341
 30
0.0
 11
32.9113161104
 21
24.0864146341
 31
0.0
  0
INSERT
  5
7C
330
1F
100
AcDbEntity
  8
0
  6
Continuous
 62
     7
 48
2.25
370
     0
100
AcDbBlockReference
  2
SW_NOTE_0
 10
19.3875811028
 20
20.1208851002
 30
0.0
  0
MTEXT
  5
7D
330
1F
100
AcDbEntity
  8
0
  6
Continuous
 62
     7
 48
2.25
370
     0
100
AcDbMText
 10
35.2327149351
 20
23.8709617742
 30
0.0
 40
0.421875
 41
0.0
 71
     1
 72
     1
  1
7-18-11
  7
SLDTEXTSTYLE0
 73
     1
 44
1.0
  0
MTEXT
  5
7E
330
1F
100
AcDbEntity
  8
0
  6
Continuous
 62
     7
 48
2.25
370
     0
100
AcDbMText
 10
7.3515854287
 20
23.8512730554
 30
0.0
 40
0.421875
 41
0.0
 71
     1
 72
     1
  1
JUNCTION BOX
  7
SLDTEXTSTYLE0
 73
     1
 44
1.0
  0
MTEXT
  5
7F
330
1F
100
AcDbEntity
  8
0
  6
Continuous
 62
     7
 48
2.25
370
     0
100
AcDbMText
 10
24.772265456
 20
23.875845148
 30
0.0
 40
0.421875
 41
0.0
 71
     1
 72
     1
  1
JB-3955
  7
SLDTEXTSTYLE0
 73
     1
 44
1.0
  0
INSERT
  5
85
330
1F
100
AcDbEntity
  8
0
  6
Continuous
 62
     7
 48
2.25
370
     0
100
AcDbBlockReference
  2
SW_NOTE_1
 10
1.0971881705
 20
23.6357100596
 30
0.0
  0
INSERT
  5
8B
330
1F
100
AcDbEntity
  8
0
  6
Continuous
 62
     7
 48
2.25
370
     0
100
AcDbBlockReference
  2
SW_NOTE_2
 10
17.2915085021
 20
23.6254460394
 30
0.0
  0
INSERT
  5
91
330
1F
100
AcDbEntity
  8
0
  6
Continuous
 62
     7
 48
2.25
370
     0
100
AcDbBlockReference
  2
SW_NOTE_3
 10
33.0944369117
 20
23.6326129363
 30
0.0
  0
ARC
  5
92
330
1F
100
AcDbEntity
  8
0
  6
Continuous
 62
     7
 48
5.0625
370
    15
100
AcDbCircle
 10
13.8025435785
 20
10.7082051201
 30
0.0
 40
0.203000000000001
100
AcDbArc
 50
133.2687098489
 51
46.7312901511
  0
LINE
  5
93
330
1F
100
AcDbEntity
  8
0
  6
Continuous
 62
     7
 48
2.25
370
    15
100
AcDbLine
 10
8.0525435414
 20
13.9802051572
 30
0.0
 11
8.0525435414
 21
7.9802050831
 31
0.0
  0
ARC
  5
94
330
1F
100
AcDbEntity
  8
0
  6
Continuous
 62
     7
 48
5.0625
370
    15
100
AcDbCircle
 10
8.3025435785
 20
10.7082051201
 30
0.0
 40
0.203000000000001
100
AcDbArc
 50
133.2687098489
 51
46.7312901511
  0
LINE
  5
95
330
1F
100
AcDbEntity
  8
0
  6
Continuous
 62
     7
 48
2.25
370
    15
100
AcDbLine
 10
8.0525435414
 20
7.9802050831
 30
0.0
 11
14.0525436156
 21
7.9802050831
 31
0.0
  0
LINE
  5
96
330
1F
100
AcDbEntity
  8
0
  6
Continuous
 62
     7
 48
2.25
370
    15
100
AcDbLine
 10
14.0525436156
 20
7.9802050831
 30
0.0
 11
14.0525436156
 21
13.9802051572
 31
0.0
  0
LINE
  5
97
330
1F
100
AcDbEntity
  8
0
  6
Continuous
 62
     7
 48
2.25
370
    15
100
AcDbLine
 10
14.0525436156
 20
13.9802051572
 30
0.0
 11
8.0525435414
 21
13.9802051572
 31
0.0
  0
LWPOLYLINE
  5
98
330
1F
100
AcDbEntity
  8
0
  6
Continuous
 62
     7
 48
2.25
370
    15
100
AcDbPolyline
 90
        9
 70
   128
 43
0.0
 10
8.2615645935
 20
10.9615951169
 10
8.2506591728
 20
10.9508522892
 10
8.2399432433
 20
10.9402963987
 10
8.2294669643
 20
10.929976295
 10
8.219278442
 20
10.9199397313
 10
8.2094249025
 20
10.9102331593
 10
8.1999518119
 20
10.9009014996
 10
8.1909031698
 20
10.8919879267
 10
8.1823209222
 20
10.8835336994
  0
ARC
  5
99
330
1F
100
AcDbEntity
  8
0
  6
Continuous
 62
     7
 48
5.0625
370
    15
100
AcDbCircle
 10
8.3025435785
 20
10.9802051201
 30
0.0
 40
0.1542687964746303
100
AcDbArc
 50
218.802861523
 51
230.3357915391
  0
LWPOLYLINE
  5
9A
330
1F
100
AcDbEntity
  8
0
  6
Continuous
 62
     7
 48
2.25
370
    15
100
AcDbPolyline
 90
        9
 70
   128
 43
0.0
 10
8.2040757376
 20
10.8614492454
 10
8.2126579851
 20
10.8699034727
 10
8.2217066273
 20
10.8788170364
 10
8.2311797178
 20
10.8881487053
 10
8.2410332573
 20
10.8978552773
 10
8.2512217796
 20
10.9078918363
 10
8.2616983519
 20
10.91821194
 10
8.2724139882
 20
10.9287678352
 10
8.2833197022
 20
10.9395106594
  0
LINE
  5
9B
330
1F
100
AcDbEntity
  8
0
  6
Continuous
 62
     7
 48
2.25
370
    15
100
AcDbLine
 10
8.2833197022
 20
10.9395106594
 30
0.0
 11
8.3430733586
 21
10.9390615025
 31
0.0
  0
LWPOLYLINE
  5
9C
330
1F
100
AcDbEntity
  8
0
  6
Continuous
 62
     7
 48
2.25
370
    15
100
AcDbPolyline
 90
        9
 70
   128
 43
0.0
 10
8.3430733586
 20
10.9390615025
 10
8.3431287979
 20
10.9464602187
 10
8.3431848239
 20
10.9538953101
 10
8.34324085
 20
10.9613586861
 10
8.3432971693
 20
10.9688422296
 10
8.3433534887
 20
10.9763378006
 10
8.343409808
 20
10.9838372441
 10
8.3434661274
 20
10.9913324025
 10
8.3435224467
 20
10.9988151234
  0
LWPOLYLINE
  5
9D
330
1F
100
AcDbEntity
  8
0
  6
Continuous
 62
     7
 48
2.25
370
    15
100
AcDbPolyline
 90
        9
 70
   128
 43
0.0
 10
8.3435224467
 20
10.9988151234
 10
8.3544278674
 20
11.0095579511
 10
8.3651437969
 20
11.0201138416
 10
8.3756200759
 20
11.0304339453
 10
8.3858088915
 20
11.040470509
 10
8.395662431
 20
11.050177081
 10
8.4051355216
 20
11.0595087407
 10
8.4141838704
 20
11.0684223136
 10
8.4227664113
 20
11.0768765409
  0
ARC
  5
9E
330
1F
100
AcDbEntity
  8
0
  6
Continuous
 62
     7
 48
5.0625
370
    15
100
AcDbCircle
 10
8.3025435785
 20
10.9802051201
 30
0.0
 40
0.154268796474628
100
AcDbArc
 50
38.802861523
 51
50.3357915391
  0
LWPOLYLINE
  5
9F
330
1F
100
AcDbEntity
  8
0
  6
Continuous
 62
     7
 48
2.25
370
    15
100
AcDbPolyline
 90
        9
 70
   128
 43
0.0
 10
8.4010113026
 20
11.0989609949
 10
8.3924290551
 20
11.0905067676
 10
8.3833804129
 20
11.0815932039
 10
8.3739073224
 20
11.072261535
 10
8.3640537829
 20
11.062554963
 10
8.3538652606
 20
11.0525184039
 10
8.3433889816
 20
11.0421983002
 10
8.332673052
 20
11.0316424051
 10
8.3217676313
 20
11.0208995809
  0
LINE
  5
A0
330
1F
100
AcDbEntity
  8
0
  6
Continuous
 62
     7
 48
2.25
370
    15
100
AcDbLine
 10
8.3217676313
 20
11.0208995809
 30
0.0
 11
8.262013975
 21
11.0213487378
 31
0.0
  0
LWPOLYLINE
  5
A1
330
1F
100
AcDbEntity
  8
0
  6
Continuous
 62
     7
 48
2.25
370
    15
100
AcDbPolyline
 90
        9
 70
   128
 43
0.0
 10
8.262013975
 20
11.0213487378
 10
8.2619582423
 20
11.0139500216
 10
8.2619025096
 20
11.0065149302
 10
8.2618461902
 20
10.9990515542
 10
8.2617901642
 20
10.9915680107
 10
8.2617335515
 20
10.9840724397
 10
8.2616772322
 20
10.9765729962
 10
8.2616209128
 20
10.9690778378
 10
8.2615645935
 20
10.9615951169
  0
LINE
  5
A2
330
1F
100
AcDbEntity
  8
0
  6
Continuous
 62
     7
 48
2.25
370
    15
100
AcDbLine
 10
8.3435224467
 20
10.9988151234
 30
0.0
 11
8.3436872981
 21
11.0207348119
 31
0.0
  0
LINE
  5
A3
330
1F
100
AcDbEntity
  8
0
  6
Continuous
 62
     7
 48
2.25
370
    15
100
AcDbLine
 10
8.3436872981
 20
11.0207348119
 30
0.0
 11
8.3217676313
 21
11.0208995809
 31
0.0
  0
LINE
  5
A4
330
1F
100
AcDbEntity
  8
0
  6
Continuous
 62
     7
 48
2.25
370
    15
100
AcDbLine
 10
8.2614000354
 20
10.9396754283
 30
0.0
 11
8.2833197022
 21
10.9395106594
 31
0.0
  0
LINE
  5
A5
330
1F
100
AcDbEntity
  8
0
  6
Continuous
 62
     7
 48
2.25
370
    15
100
AcDbLine
 10
8.2615645935
 20
10.9615951169
 30
0.0
 11
8.2614000354
 21
10.9396754283
 31
0.0
  0
CIRCLE
  5
A6
330
1F
100
AcDbEntity
  8
0
  6
Continuous
 62
     7
 48
5.0625
370
    15
100
AcDbCircle
 10
8.3025435785
 20
10.9802051201
 30
0.0
 40
0.1865000000000004
  0
LWPOLYLINE
  5
A7
330
1F
100
AcDbEntity
  8
0
  6
Continuous
 62
     7
 48
2.25
370
    15
100
AcDbPolyline
 90
        9
 70
   128
 43
0.0
 10
13.7833195257
 20
11.0208995809
 10
13.772414105
 20
11.0316424051
 10
13.7616981755
 20
11.0421983002
 10
13.7512218965
 20
11.0525184039
 10
13.7410333742
 20
11.062554963
 10
13.7311798347
 20
11.072261535
 10
13.7217067441
 20
11.0815932039
 10
13.712658102
 20
11.0905067676
 10
13.7040758545
 20
11.0989609949
  0
ARC
  5
A8
330
1F
100
AcDbEntity
  8
0
  6
Continuous
 62
     7
 48
5.0625
370
    15
100
AcDbCircle
 10
13.8025435785
 20
10.9802051201
 30
0.0
 40
0.1542687964746276
100
AcDbArc
 50
129.6642084609
 51
141.197138477
  0
LWPOLYLINE
  5
A9
330
1F
100
AcDbEntity
  8
0
  6
Continuous
 62
     7
 48
2.25
370
    15
100
AcDbPolyline
 90
        9
 70
   128
 43
0.0
 10
13.6823207458
 20
11.0768765409
 10
13.6909032866
 20
11.0684223136
 10
13.6999516354
 20
11.0595087407
 10
13.709424726
 20
11.050177081
 10
13.7192782655
 20
11.040470509
 10
13.7294670811
 20
11.0304339453
 10
13.7399433601
 20
11.0201138416
 10
13.7506592897
 20
11.0095579511
 10
13.7615647103
 20
10.9988151234
  0
LWPOLYLINE
  5
AA
330
1F
100
AcDbEntity
  8
0
  6
Continuous
 62
     7
 48
2.25
370
    15
100
AcDbPolyline
 90
        9
 70
   128
 43
0.0
 10
13.8217674549
 20
10.9395106594
 10
13.8326731689
 20
10.9287678352
 10
13.8433888051
 20
10.91821194
 10
13.8538653774
 20
10.9078918363
 10
13.8640538997
 20
10.8978552773
 10
13.8739074392
 20
10.8881487053
 10
13.8833805298
 20
10.8788170364
 10
13.8924291719
 20
10.8699034727
 10
13.9010114194
 20
10.8614492454
  0
ARC
  5
AB
330
1F
100
AcDbEntity
  8
0
  6
Continuous
 62
     7
 48
5.0625
370
    15
100
AcDbCircle
 10
13.8025435785
 20
10.9802051201
 30
0.0
 40
0.1542687964746303
100
AcDbArc
 50
309.6642084609
 51
321.197138477
  0
LWPOLYLINE
  5
AC
330
1F
100
AcDbEntity
  8
0
  6
Continuous
 62
     7
 48
2.25
370
    15
100
AcDbPolyline
 90
        9
 70
   128
 43
0.0
 10
13.9227662348
 20
10.8835336994
 10
13.9141839873
 20
10.8919879267
 10
13.9051353451
 20
10.9009014996
 10
13.8956622546
 20
10.9102331593
 10
13.8858087151
 20
10.9199397313
 10
13.8756201928
 20
10.929976295
 10
13.8651439138
 20
10.9402963987
 10
13.8544279843
 20
10.9508522892
 10
13.8435225636
 20
10.9615951169
  0
LWPOLYLINE
  5
AD
330
1F
100
AcDbEntity
  8
0
  6
Continuous
 62
     7
 48
2.25
370
    15
100
AcDbPolyline
 90
        9
 70
   128
 43
0.0
 10
13.8435225636
 20
10.9615951169
 10
13.8434662442
 20
10.9690778378
 10
13.8434099249
 20
10.9765729962
 10
13.8433536055
 20
10.9840724397
 10
13.8432969928
 20
10.9915680107
 10
13.8432409668
 20
10.9990515542
 10
13.8431846475
 20
11.0065149302
 10
13.8431289148
 20
11.0139500216
 10
13.8430731821
 20
11.0213487378
  0
LINE
  5
AE
330
1F
100
AcDbEntity
  8
0
  6
Continuous
 62
     7
 48
2.25
370
    15
100
AcDbLine
 10
13.8430731821
 20
11.0213487378
 30
0.0
 11
13.7833195257
 21
11.0208995809
 31
0.0
  0
LINE
  5
AF
330
1F
100
AcDbEntity
  8
0
  6
Continuous
 62
     7
 48
2.25
370
    15
100
AcDbLine
 10
13.7620137985
 20
10.9390615025
 30
0.0
 11
13.8217674549
 21
10.9395106594
 31
0.0
  0
LWPOLYLINE
  5
B0
330
1F
100
AcDbEntity
  8
0
  6
Continuous
 62
     7
 48
2.25
370
    15
100
AcDbPolyline
 90
        9
 70
   128
 43
0.0
 10
13.7615647103
 20
10.9988151234
 10
13.7616210297
 20
10.9913324025
 10
13.761677349
 20
10.9838372441
 10
13.7617336684
 20
10.9763378006
 10
13.7617899877
 20
10.9688422296
 10
13.7618463071
 20
10.9613586861
 10
13.7619023331
 20
10.9538953101
 10
13.7619583591
 20
10.9464602187
 10
13.7620137985
 20
10.9390615025
  0
LINE
  5
B1
330
1F
100
AcDbEntity
  8
0
  6
Continuous
 62
     7
 48
2.25
370
    15
100
AcDbLine
 10
13.8436871217
 20
10.9396754283
 30
0.0
 11
13.8435225636
 21
10.9615951169
 31
0.0
  0
LINE
  5
B2
330
1F
100
AcDbEntity
  8
0
  6
Continuous
 62
     7
 48
2.25
370
    15
100
AcDbLine
 10
13.8217674549
 20
10.9395106594
 30
0.0
 11
13.8436871217
 21
10.9396754283
 31
0.0
  0
LINE
  5
B3
330
1F
100
AcDbEntity
  8
0
  6
Continuous
 62
     7
 48
2.25
370
    15
100
AcDbLine
 10
13.7833195257
 20
11.0208995809
 30
0.0
 11
13.7613998589
 21
11.0207348119
 31
0.0
  0
LINE
  5
B4
330
1F
100
AcDbEntity
  8
0
  6
Continuous
 62
     7
 48
2.25
370
    15
100
AcDbLine
 10
13.7613998589
 20
11.0207348119
 30
0.0
 11
13.7615647103
 21
10.9988151234
 31
0.0
  0
CIRCLE
  5
B5
330
1F
100
AcDbEntity
  8
0
  6
Continuous
 62
     7
 48
5.0625
370
    15
100
AcDbCircle
 10
13.8025435785
 20
10.9802051201
 30
0.0
 40
0.1864999999999979
  0
DIMENSION
  5
B6
330
1F
100
AcDbEntity
  8
0
  6
Continuous
 62
     7
 48
2.25
370
     0
100
AcDbDimension
  2
*D5
 10
14.0525435785
 20
14.768923633
 30
0.0
 11
11.0525435785
 21
14.768923633
 31
0.0
 70
   160
 71
     2
 42
-1.0
  3
SLDDIMSTYLE0
100
AcDbAlignedDimension
 13
8.0525435785
 23
13.9802051201
 33
0.0
 14
14.0525435785
 24
13.9802051201
 34
0.0
100
AcDbRotatedDimension
  0
DIMENSION
  5
C9
330
1F
100
AcDbEntity
  8
0
  6
Continuous
 62
     7
 48
2.25
370
     0
100
AcDbDimension
  2
*D6
 10
14.9521137286
 20
7.9802051201
 30
0.0
 11
14.9521137286
 21
10.9802051201
 31
0.0
 70
   160
 71
     2
 42
-1.0
  3
SLDDIMSTYLE0
100
AcDbAlignedDimension
 13
14.0525435785
 23
13.9802051201
 33
0.0
 14
14.0525435785
 24
7.9802051201
 34
0.0
 50
90.0
100
AcDbRotatedDimension
  0
INSERT
  5
E3
102
{ACAD_REACTORS
330
E5
102
}
330
1F
100
AcDbEntity
  8
0
  6
Continuous
 62
     7
 48
2.25
370
     0
100
AcDbBlockReference
  2
SW_NOTE_4
 10
15.6459688585
 20
5.8948787149
 30
0.0
  0
LEADER
  5
E5
330
1F
100
AcDbEntity
  8
0
  6
Continuous
 62
     7
 48
2.25
370
     0
100
AcDbLeader
  3
SLDDIMSTYLE1
 73
     2
 76
     3
 10
13.8575137686
 20
10.8019902829
 30
0.0
 10
15.0834688585
 20
5.8948787149
 30
0.0
 10
15.6459688585
 20
5.8948787149
 30
0.0
340
E3
  0
LINE
  5
E6
330
1F
100
AcDbEntity
  8
0
  6
Continuous
 62
     7
 48
2.25
370
    15
100
AcDbLine
 10
8.4890434323
 20
16.3953492869
 30
0.0
 11
8.4890434323
 21
16.4286806619
 31
0.0
  0
LINE
  5
E7
330
1F
100
AcDbEntity
  8
0
  6
Continuous
 62
     7
 48
2.25
370
    15
100
AcDbLine
 10
8.1160436079
 20
16.4286806619
 30
0.0
 11
8.1160436079
 21
16.3953492869
 31
0.0
  0
ARC
  5
E8
330
1F
100
AcDbEntity
  8
0
  6
Continuous
 62
     7
 48
5.0625
370
    15
100
AcDbCircle
 10
8.4740435785
 20
16.3953492787
 30
0.0
 40
0.0149999999999988
100
AcDbArc
 50
322.550643686
 51
0.0
  0
ARC
  5
E9
330
1F
100
AcDbEntity
  8
0
  6
Continuous
 62
     7
 48
5.0625
370
    15
100
AcDbCircle
 10
8.1310435785
 20
16.3953492787
 30
0.0
 40
0.0150000000000006
100
AcDbArc
 50
180.0
 51
217.449356314
  0
ARC
  5
EA
330
1F
100
AcDbEntity
  8
0
  6
Continuous
 62
     7
 48
5.0625
370
    15
100
AcDbCircle
 10
8.3025435785
 20
16.5267051776
 30
0.0
 40
0.2310245869783057
100
AcDbArc
 50
280.1818657166
 51
322.550643686
  0
ARC
  5
EB
330
1F
100
AcDbEntity
  8
0
  6
Continuous
 62
     7
 48
5.0625
370
    15
100
AcDbCircle
 10
8.3025435785
 20
16.5267051776
 30
0.0
 40
0.2310245869783054
100
AcDbArc
 50
217.449356314
 51
259.8181342834
  0
LINE
  5
EC
330
1F
100
AcDbEntity
  8
0
  6
Continuous
 62
     7
 48
2.25
370
    15
100
AcDbLine
 10
8.3715436697
 20
16.5526806161
 30
0.0
 11
8.3715436697
 21
16.6296806066
 31
0.0
  0
LINE
  5
ED
330
1F
100
AcDbEntity
  8
0
  6
Continuous
 62
     7
 48
2.25
370
    15
100
AcDbLine
 10
8.2335436639
 20
16.6296806066
 30
0.0
 11
8.2335436639
 21
16.5526806161
 31
0.0
  0
LINE
  5
EE
330
1F
100
AcDbEntity
  8
0
  6
Continuous
 62
     7
 48
2.25
370
    15
100
AcDbLine
 10
13.9890435492
 20
16.3953492869
 30
0.0
 11
13.9890435492
 21
16.4286806619
 31
0.0
  0
LINE
  5
EF
330
1F
100
AcDbEntity
  8
0
  6
Continuous
 62
     7
 48
2.25
370
    15
100
AcDbLine
 10
13.6160437248
 20
16.4286806619
 30
0.0
 11
13.6160437248
 21
16.3953492869
 31
0.0
  0
ARC
  5
F0
330
1F
100
AcDbEntity
  8
0
  6
Continuous
 62
     7
 48
5.0625
370
    15
100
AcDbCircle
 10
13.9740435785
 20
16.3953492787
 30
0.0
 40
0.0150000000000006
100
AcDbArc
 50
322.550643686
 51
0.0
  0
ARC
  5
F1
330
1F
100
AcDbEntity
  8
0
  6
Continuous
 62
     7
 48
5.0625
370
    15
100
AcDbCircle
 10
13.6310435785
 20
16.3953492787
 30
0.0
 40
0.0150000000000006
100
AcDbArc
 50
180.0
 51
217.449356314
  0
ARC
  5
F2
330
1F
100
AcDbEntity
  8
0
  6
Continuous
 62
     7
 48
5.0625
370
    15
100
AcDbCircle
 10
13.8025435785
 20
16.5267051776
 30
0.0
 40
0.2310245869783057
100
AcDbArc
 50
280.1818657166
 51
322.550643686
  0
ARC
  5
F3
330
1F
100
AcDbEntity
  8
0
  6
Continuous
 62
     7
 48
5.0625
370
    15
100
AcDbCircle
 10
13.8025435785
 20
16.5267051776
 30
0.0
 40
0.2310245869783057
100
AcDbArc
 50
217.449356314
 51
259.8181342834
  0
LINE
  5
F4
330
1F
100
AcDbEntity
  8
0
  6
Continuous
 62
     7
 48
2.25
370
    15
100
AcDbLine
 10
13.8715434932
 20
16.5526806161
 30
0.0
 11
13.8715434932
 21
16.6296806066
 31
0.0
  0
LINE
  5
F5
330
1F
100
AcDbEntity
  8
0
  6
Continuous
 62
     7
 48
2.25
370
    15
100
AcDbLine
 10
13.7335434874
 20
16.6296806066
 30
0.0
 11
13.7335434874
 21
16.5526806161
 31
0.0
  0
LINE
  5
F6
330
1F
100
AcDbEntity
  8
0
  6
Continuous
 62
     7
 48
2.25
370
    15
100
AcDbLine
 10
8.0525435414
 20
16.490680639
 30
0.0
 11
8.0525435414
 21
16.4286806619
 31
0.0
  0
LINE
  5
F7
330
1F
100
AcDbEntity
  8
0
  6
Continuous
 62
     7
 48
2.25
370
    15
100
AcDbLine
 10
14.0525436156
 20
16.490680639
 30
0.0
 11
8.0525435414
 21
16.490680639
 31
0.0
  0
LINE
  5
F8
330
1F
100
AcDbEntity
  8
0
  6
Continuous
 62
     7
 48
2.25
370
    15
100
AcDbLine
 10
14.0525436156
 20
16.490680639
 30
0.0
 11
14.0525436156
 21
16.4286806619
 31
0.0
  0
LINE
  5
F9
330
1F
100
AcDbEntity
  8
0
  6
Continuous
 62
     7
 48
2.25
370
    15
100
AcDbLine
 10
14.0525436156
 20
16.4286806619
 30
0.0
 11
8.0525435414
 21
16.4286806619
 31
0.0
  0
LINE
  5
FA
330
1F
100
AcDbEntity
  8
0
  6
Continuous
 62
     7
 48
2.25
370
    15
100
AcDbLine
 10
13.5215436698
 20
16.6296806066
 30
0.0
 11
13.913543648
 21
16.6296806066
 31
0.0
  0
LINE
  5
FB
330
1F
100
AcDbEntity
  8
0
  6
Continuous
 62
     7
 48
2.25
370
    15
100
AcDbLine
 10
13.5215436698
 20
16.5676806295
 30
0.0
 11
13.5215436698
 21
16.6296806066
 31
0.0
  0
LINE
  5
FC
330
1F
100
AcDbEntity
  8
0
  6
Continuous
 62
     7
 48
2.25
370
    15
100
AcDbLine
 10
8.5835434873
 20
16.5676806295
 30
0.0
 11
8.5835434873
 21
16.6296806066
 31
0.0
  0
LINE
  5
FD
330
1F
100
AcDbEntity
  8
0
  6
Continuous
 62
     7
 48
2.25
370
    15
100
AcDbLine
 10
8.5835434873
 20
16.6296806066
 30
0.0
 11
8.191543509
 21
16.6296806066
 31
0.0
  0
LINE
  5
FE
330
1F
100
AcDbEntity
  8
0
  6
Continuous
 62
     7
 48
2.25
370
    15
100
AcDbLine
 10
8.191543509
 20
20.4286805906
 30
0.0
 11
8.191543509
 21
20.3516805864
 31
0.0
  0
LINE
  5
FF
330
1F
100
AcDbEntity
  8
0
  6
Continuous
 62
     7
 48
2.25
370
    15
100
AcDbLine
 10
13.913543648
 20
20.4286805906
 30
0.0
 11
13.913543648
 21
20.3516805864
 31
0.0
  0
LINE
  5
100
330
1F
100
AcDbEntity
  8
0
  6
Continuous
 62
     7
 48
2.25
370
    15
100
AcDbLine
 10
13.913543648
 20
20.3516805864
 30
0.0
 11
13.9905436385
 21
20.3516805864
 31
0.0
  0
LINE
  5
101
330
1F
100
AcDbEntity
  8
0
  6
Continuous
 62
     7
 48
2.25
370
    15
100
AcDbLine
 10
13.9905436385
 20
16.6296806066
 30
0.0
 11
13.913543648
 21
16.6296806066
 31
0.0
  0
LINE
  5
102
330
1F
100
AcDbEntity
  8
0
  6
Continuous
 62
     7
 48
2.25
370
    15
100
AcDbLine
 10
8.1145435186
 20
16.6296806066
 30
0.0
 11
8.191543509
 21
16.6296806066
 31
0.0
  0
LINE
  5
103
330
1F
100
AcDbEntity
  8
0
  6
Continuous
 62
     7
 48
2.25
370
    15
100
AcDbLine
 10
8.191543509
 20
20.3516805864
 30
0.0
 11
8.1145435186
 21
20.3516805864
 31
0.0
  0
LINE
  5
104
330
1F
100
AcDbEntity
  8
0
  6
Continuous
 62
     7
 48
2.25
370
    15
100
AcDbLine
 10
13.5215436698
 20
16.5676806295
 30
0.0
 11
13.5215436698
 21
16.490680639
 31
0.0
  0
LINE
  5
105
330
1F
100
AcDbEntity
  8
0
  6
Continuous
 62
     7
 48
2.25
370
    15
100
AcDbLine
 10
8.5835434873
 20
16.5676806295
 30
0.0
 11
8.5835434873
 21
16.490680639
 31
0.0
  0
ARC
  5
106
330
1F
100
AcDbEntity
  8
0
  6
Continuous
 62
     7
 48
5.0625
370
    15
100
AcDbCircle
 10
13.9755435785
 20
20.4136805906
 30
0.0
 40
0.0150000000000006
100
AcDbArc
 50
0.0
 51
90.0
  0
ARC
  5
107
330
1F
100
AcDbEntity
  8
0
  6
Continuous
 62
     7
 48
5.0625
370
    15
100
AcDbCircle
 10
13.9755435785
 20
20.4136805906
 30
0.0
 40
0.077
100
AcDbArc
 50
0.0
 51
90.0
  0
LINE
  5
108
330
1F
100
AcDbEntity
  8
0
  6
Continuous
 62
     7
 48
2.25
370
    15
100
AcDbLine
 10
8.1145435186
 20
20.413680591
 30
0.0
 11
8.1145435186
 21
16.5676806295
 31
0.0
  0
LINE
  5
109
330
1F
100
AcDbEntity
  8
0
  6
Continuous
 62
     7
 48
2.25
370
    15
100
AcDbLine
 10
8.0525435414
 20
20.413680591
 30
0.0
 11
8.0525435414
 21
16.5676806295
 31
0.0
  0
LINE
  5
10A
330
1F
100
AcDbEntity
  8
0
  6
Continuous
 62
     7
 48
2.25
370
    15
100
AcDbLine
 10
13.9905436385
 20
16.5676806295
 30
0.0
 11
13.9905436385
 21
20.413680591
 31
0.0
  0
LINE
  5
10B
330
1F
100
AcDbEntity
  8
0
  6
Continuous
 62
     7
 48
2.25
370
    15
100
AcDbLine
 10
14.0525436156
 20
16.5676806295
 30
0.0
 11
14.0525436156
 21
20.413680591
 31
0.0
  0
LINE
  5
10C
330
1F
100
AcDbEntity
  8
0
  6
Continuous
 62
     7
 48
2.25
370
    15
100
AcDbLine
 10
13.9755436251
 20
20.4906805906
 30
0.0
 11
8.1295435319
 21
20.4906805906
 31
0.0
  0
LINE
  5
10D
330
1F
100
AcDbEntity
  8
0
  6
Continuous
 62
     7
 48
2.25
370
    15
100
AcDbLine
 10
13.9755436251
 20
20.4286805906
 30
0.0
 11
8.1295435319
 21
20.4286805906
 31
0.0
  0
ARC
  5
10E
330
1F
100
AcDbEntity
  8
0
  6
Continuous
 62
     7
 48
5.0625
370
    15
100
AcDbCircle
 10
8.1295435785
 20
20.4136805906
 30
0.0
 40
0.077
100
AcDbArc
 50
90.0
 51
180.0
  0
ARC
  5
10F
330
1F
100
AcDbEntity
  8
0
  6
Continuous
 62
     7
 48
5.0625
370
    15
100
AcDbCircle
 10
8.1295435785
 20
20.4136805906
 30
0.0
 40
0.0150000000000006
100
AcDbArc
 50
90.0
 51
180.0
  0
LINE
  5
110
330
1F
100
AcDbEntity
  8
0
  6
Continuous
 62
     7
 48
2.25
370
    15
100
AcDbLine
 10
8.1295435319
 20
16.5526806161
 30
0.0
 11
8.5525434987
 21
16.5526806161
 31
0.0
  0
LINE
  5
111
330
1F
100
AcDbEntity
  8
0
  6
Continuous
 62
     7
 48
2.25
370
    15
100
AcDbLine
 10
8.1295435319
 20
16.490680639
 30
0.0
 11
8.5525434987
 21
16.490680639
 31
0.0
  0
LINE
  5
112
330
1F
100
AcDbEntity
  8
0
  6
Continuous
 62
     7
 48
2.25
370
    15
100
AcDbLine
 10
8.5525434987
 20
16.5526806161
 30
0.0
 11
8.5525434987
 21
16.490680639
 31
0.0
  0
LINE
  5
113
330
1F
100
AcDbEntity
  8
0
  6
Continuous
 62
     7
 48
2.25
370
    15
100
AcDbLine
 10
13.5525436583
 20
16.490680639
 30
0.0
 11
13.9755436251
 21
16.490680639
 31
0.0
  0
LINE
  5
114
330
1F
100
AcDbEntity
  8
0
  6
Continuous
 62
     7
 48
2.25
370
    15
100
AcDbLine
 10
13.5525436583
 20
16.5526806161
 30
0.0
 11
13.9755436251
 21
16.5526806161
 31
0.0
  0
LINE
  5
115
330
1F
100
AcDbEntity
  8
0
  6
Continuous
 62
     7
 48
2.25
370
    15
100
AcDbLine
 10
13.5525436583
 20
16.490680639
 30
0.0
 11
13.5525436583
 21
16.5526806161
 31
0.0
  0
ARC
  5
116
330
1F
100
AcDbEntity
  8
0
  6
Continuous
 62
     7
 48
5.0625
370
    15
100
AcDbCircle
 10
8.1295435785
 20
16.5676805906
 30
0.0
 40
0.077
100
AcDbArc
 50
180.0
 51
270.0
  0
ARC
  5
117
330
1F
100
AcDbEntity
  8
0
  6
Continuous
 62
     7
 48
5.0625
370
    15
100
AcDbCircle
 10
8.1295435785
 20
16.5676805906
 30
0.0
 40
0.0150000000000006
100
AcDbArc
 50
180.0
 51
270.0
  0
ARC
  5
118
330
1F
100
AcDbEntity
  8
0
  6
Continuous
 62
     7
 48
5.0625
370
    15
100
AcDbCircle
 10
13.9755435785
 20
16.5676805906
 30
0.0
 40
0.0149999999999988
100
AcDbArc
 50
270.0
 51
0.0
  0
ARC
  5
119
330
1F
100
AcDbEntity
  8
0
  6
Continuous
 62
     7
 48
5.0625
370
    15
100
AcDbCircle
 10
13.9755435785
 20
16.5676805906
 30
0.0
 40
0.0769999999999964
100
AcDbArc
 50
270.0
 51
0.0
  0
ARC
  5
11A
330
1F
100
AcDbEntity
  8
0
  6
Continuous
 62
     7
 48
5.0625
370
    15
100
AcDbCircle
 10
8.3022318869
 20
16.5266331968
 30
0.0
 40
0.227314480202072
100
AcDbArc
 50
265.2275703196
 51
270.0784378529
  0
ARC
  5
11B
330
1F
100
AcDbEntity
  8
0
  6
Continuous
 62
     7
 48
5.0625
370
    15
100
AcDbCircle
 10
8.3022339209
 20
16.5267326677
 30
0.0
 40
0.2274139647786205
100
AcDbArc
 50
275.0021903607
 51
280.3454091015
  0
LWPOLYLINE
  5
11C
330
1F
100
AcDbEntity
  8
0
  6
Continuous
 62
     7
 48
2.25
370
    15
100
AcDbPolyline
 90
        9
 70
   128
 43
0.0
 10
8.3430733586
 20
16.3030157669
 10
8.3431287979
 20
16.3017908211
 10
8.3431848239
 20
16.3008105124
 10
8.34324085
 20
16.3000757209
 10
8.3432971693
 20
16.2995876198
 10
8.3433534887
 20
16.2993465026
 10
8.343409808
 20
16.2993526626
 10
8.3434661274
 20
16.299606393
 10
8.3435224467
 20
16.3001068138
  0
ARC
  5
11D
330
1F
100
AcDbEntity
  8
0
  6
Continuous
 62
     7
 48
5.0625
370
    15
100
AcDbCircle
 10
8.3009301975
 20
16.4466801665
 30
0.0
 40
0.1526363240160458
100
AcDbArc
 50
286.2031554824
 51
322.9597411331
  0
LINE
  5
11E
330
1F
100
AcDbEntity
  8
0
  6
Continuous
 62
     7
 48
2.25
370
    15
100
AcDbLine
 10
8.4010113026
 20
16.3547357028
 30
0.0
 11
8.4227664113
 21
16.3547357028
 31
0.0
  0
ARC
  5
11F
330
1F
100
AcDbEntity
  8
0
  6
Continuous
 62
     7
 48
5.0625
370
    15
100
AcDbCircle
 10
8.2791749985
 20
16.4466800688
 30
0.0
 40
0.1526363372172523
100
AcDbArc
 50
286.203304
 51
322.9597908311
  0
ARC
  5
120
330
1F
100
AcDbEntity
  8
0
  6
Continuous
 62
     7
 48
5.0625
370
    15
100
AcDbCircle
 10
8.3028514955
 20
16.5267080812
 30
0.0
 40
0.2273894337264214
100
AcDbArc
 50
259.6539535707
 51
274.7718519264
  0
ARC
  5
121
330
1F
100
AcDbEntity
  8
0
  6
Continuous
 62
     7
 48
5.0625
370
    15
100
AcDbCircle
 10
8.2455608871
 20
16.3025316874
 30
0.0
 40
0.0164602076114187
100
AcDbArc
 50
348.7445678779
 51
1.6852590192
  0
LINE
  5
122
330
1F
100
AcDbEntity
  8
0
  6
Continuous
 62
     7
 48
2.25
370
    15
100
AcDbLine
 10
8.3435224467
 20
16.307996216
 30
0.0
 11
8.3435224467
 21
16.3001068138
 31
0.0
  0
LINE
  5
123
330
1F
100
AcDbEntity
  8
0
  6
Continuous
 62
     7
 48
2.25
370
    15
100
AcDbLine
 10
8.3430733586
 20
16.3077873651
 30
0.0
 11
8.3430733586
 21
16.3030157669
 31
0.0
  0
LINE
  5
124
330
1F
100
AcDbEntity
  8
0
  6
Continuous
 62
     7
 48
2.25
370
    15
100
AcDbLine
 10
8.2833197022
 20
16.3001068138
 30
0.0
 11
8.2833197022
 21
16.3001590266
 31
0.0
  0
ARC
  5
125
330
1F
100
AcDbEntity
  8
0
  6
Continuous
 62
     7
 48
5.0625
370
    15
100
AcDbCircle
 10
13.8259121586
 20
16.4466800688
 30
0.0
 40
0.1526363372172334
100
AcDbArc
 50
217.0402091689
 51
253.796696
  0
LINE
  5
126
330
1F
100
AcDbEntity
  8
0
  6
Continuous
 62
     7
 48
2.25
370
    15
100
AcDbLine
 10
13.6823207458
 20
16.3547357028
 30
0.0
 11
13.7040758545
 21
16.3547357028
 31
0.0
  0
ARC
  5
127
330
1F
100
AcDbEntity
  8
0
  6
Continuous
 62
     7
 48
5.0625
370
    15
100
AcDbCircle
 10
13.8041569596
 20
16.4466801665
 30
0.0
 40
0.1526363240160395
100
AcDbArc
 50
217.0402588669
 51
253.7968445176
  0
LWPOLYLINE
  5
128
330
1F
100
AcDbEntity
  8
0
  6
Continuous
 62
     7
 48
2.25
370
    15
100
AcDbPolyline
 90
        9
 70
   128
 43
0.0
 10
13.7615647103
 20
16.3001068138
 10
13.7616210297
 20
16.299606393
 10
13.761677349
 20
16.2993526626
 10
13.7617336684
 20
16.2993465026
 10
13.7617899877
 20
16.2995876198
 10
13.7618463071
 20
16.3000757209
 10
13.7619023331
 20
16.3008105124
 10
13.7619583591
 20
16.3017908211
 10
13.7620137985
 20
16.3030157669
  0
ARC
  5
129
330
1F
100
AcDbEntity
  8
0
  6
Continuous
 62
     7
 48
5.0625
370
    15
100
AcDbCircle
 10
13.8028532362
 20
16.5267326677
 30
0.0
 40
0.2274139647785849
100
AcDbArc
 50
259.6545908985
 51
264.9978096393
  0
ARC
  5
12A
330
1F
100
AcDbEntity
  8
0
  6
Continuous
 62
     7
 48
5.0625
370
    15
100
AcDbCircle
 10
13.8028457217
 20
16.5268074809
 30
0.0
 40
0.2274889544916422
100
AcDbArc
 50
269.9436789134
 51
274.7711741925
  0
ARC
  5
12B
330
1F
100
AcDbEntity
  8
0
  6
Continuous
 62
     7
 48
5.0625
370
    15
100
AcDbCircle
 10
13.85952627
 20
16.3025316874
 30
0.0
 40
0.0164602076114207
100
AcDbArc
 50
178.3147409808
 51
191.2554321221
  0
ARC
  5
12C
330
1F
100
AcDbEntity
  8
0
  6
Continuous
 62
     7
 48
5.0625
370
    15
100
AcDbCircle
 10
13.8022356615
 20
16.5267080812
 30
0.0
 40
0.2273894337264005
100
AcDbArc
 50
265.2281480736
 51
280.3460464293
  0
LINE
  5
12D
330
1F
100
AcDbEntity
  8
0
  6
Continuous
 62
     7
 48
2.25
370
    15
100
AcDbLine
 10
13.7615647103
 20
16.3001068138
 30
0.0
 11
13.7615647103
 21
16.307996216
 31
0.0
  0
LINE
  5
12E
330
1F
100
AcDbEntity
  8
0
  6
Continuous
 62
     7
 48
2.25
370
    15
100
AcDbLine
 10
13.7620137985
 20
16.3077873651
 30
0.0
 11
13.7620137985
 21
16.3030157669
 31
0.0
  0
LINE
  5
12F
330
1F
100
AcDbEntity
  8
0
  6
Continuous
 62
     7
 48
2.25
370
    15
100
AcDbLine
 10
13.8217674549
 20
16.3001590266
 30
0.0
 11
13.8217674549
 21
16.3001068138
 31
0.0
  0
DIMENSION
  5
130
330
1F
100
AcDbEntity
  8
0
  6
Continuous
 62
     7
 48
2.25
370
     0
100
AcDbDimension
  2
*D8
 10
14.9521137286
 20
16.4906805906
 30
0.0
 11
14.9521137286
 21
18.4906805906
 31
0.0
 70
   160
 71
     2
 42
-1.0
  3
SLDDIMSTYLE0
100
AcDbAlignedDimension
 13
13.9755435785
 23
20.4906805906
 33
0.0
 14
14.0525435785
 24
16.4906805906
 34
0.0
 50
90.0
100
AcDbRotatedDimension
  0
LINE
  5
142
330
1F
100
AcDbEntity
  8
0
  6
Continuous
 62
     7
 48
2.25
370
    15
100
AcDbLine
 10
24.2527800911
 20
10.7937051163
 30
0.0
 11
24.286111466
 21
10.7937051163
 31
0.0
  0
LINE
  5
143
330
1F
100
AcDbEntity
  8
0
  6
Continuous
 62
     7
 48
2.25
370
    15
100
AcDbLine
 10
24.286111466
 20
11.166705124
 30
0.0
 11
24.2527800911
 21
11.166705124
 31
0.0
  0
ARC
  5
144
330
1F
100
AcDbEntity
  8
0
  6
Continuous
 62
     7
 48
5.0625
370
    15
100
AcDbCircle
 10
24.2527800829
 20
10.8087051201
 30
0.0
 40
0.0150000000000006
100
AcDbArc
 50
232.550643686
 51
270.0
  0
ARC
  5
145
330
1F
100
AcDbEntity
  8
0
  6
Continuous
 62
     7
 48
5.0625
370
    15
100
AcDbCircle
 10
24.2527800829
 20
11.1517051201
 30
0.0
 40
0.0149999999999991
100
AcDbArc
 50
90.0
 51
127.449356314
  0
ARC
  5
146
330
1F
100
AcDbEntity
  8
0
  6
Continuous
 62
     7
 48
5.0625
370
    15
100
AcDbCircle
 10
24.3841359818
 20
10.9802051201
 30
0.0
 40
0.2310245869783022
100
AcDbArc
 50
190.1818657166
 51
232.550643686
  0
ARC
  5
147
330
1F
100
AcDbEntity
  8
0
  6
Continuous
 62
     7
 48
5.0625
370
    15
100
AcDbCircle
 10
24.3841359818
 20
10.9802051201
 30
0.0
 40
0.2310245869783022
100
AcDbArc
 50
127.449356314
 51
169.8181342834
  0
LINE
  5
148
330
1F
100
AcDbEntity
  8
0
  6
Continuous
 62
     7
 48
2.25
370
    15
100
AcDbLine
 10
24.3481114431
 20
13.9802051572
 30
0.0
 11
24.286111466
 21
13.9802051572
 31
0.0
  0
LINE
  5
149
330
1F
100
AcDbEntity
  8
0
  6
Continuous
 62
     7
 48
2.25
370
    15
100
AcDbLine
 10
24.286111466
 20
7.9802050831
 30
0.0
 11
24.286111466
 21
13.9802051572
 31
0.0
  0
LINE
  5
14A
330
1F
100
AcDbEntity
  8
0
  6
Continuous
 62
     7
 48
2.25
370
    15
100
AcDbLine
 10
24.3481114431
 20
7.9802050831
 30
0.0
 11
24.286111466
 21
7.9802050831
 31
0.0
  0
LINE
  5
14B
330
1F
100
AcDbEntity
  8
0
  6
Continuous
 62
     7
 48
2.25
370
    15
100
AcDbLine
 10
24.3481114431
 20
7.9802050831
 30
0.0
 11
24.3481114431
 21
13.9802051572
 31
0.0
  0
LINE
  5
14C
330
1F
100
AcDbEntity
  8
0
  6
Continuous
 62
     7
 48
2.25
370
    15
100
AcDbLine
 10
24.4251114336
 20
7.9802050831
 30
0.0
 11
28.2711113951
 21
7.9802050831
 31
0.0
  0
LINE
  5
14D
330
1F
100
AcDbEntity
  8
0
  6
Continuous
 62
     7
 48
2.25
370
    15
100
AcDbLine
 10
24.4251114336
 20
13.9802051572
 30
0.0
 11
28.2711113951
 21
13.9802051572
 31
0.0
  0
LINE
  5
14E
330
1F
100
AcDbEntity
  8
0
  6
Continuous
 62
     7
 48
2.25
370
    15
100
AcDbLine
 10
28.3481113948
 20
13.9802051572
 30
0.0
 11
28.3481113948
 21
7.9802050831
 31
0.0
  0
LINE
  5
14F
330
1F
100
AcDbEntity
  8
0
  6
Continuous
 62
     7
 48
2.25
370
    15
100
AcDbLine
 10
28.2711113951
 20
7.9802050831
 30
0.0
 11
28.3481113948
 21
7.9802050831
 31
0.0
  0
LINE
  5
150
330
1F
100
AcDbEntity
  8
0
  6
Continuous
 62
     7
 48
2.25
370
    15
100
AcDbLine
 10
28.2711113951
 20
13.9802051572
 30
0.0
 11
28.3481113948
 21
13.9802051572
 31
0.0
  0
LINE
  5
151
330
1F
100
AcDbEntity
  8
0
  6
Continuous
 62
     7
 48
2.25
370
    15
100
AcDbLine
 10
24.3481114431
 20
7.9802050831
 30
0.0
 11
24.4251114336
 21
7.9802050831
 31
0.0
  0
LINE
  5
152
330
1F
100
AcDbEntity
  8
0
  6
Continuous
 62
     7
 48
2.25
370
    15
100
AcDbLine
 10
24.3481114431
 20
13.9802051572
 30
0.0
 11
24.4251114336
 21
13.9802051572
 31
0.0
  0
ARC
  5
153
330
1F
100
AcDbEntity
  8
0
  6
Continuous
 62
     7
 48
5.0625
370
    15
100
AcDbCircle
 10
24.384172042
 20
10.9799027013
 30
0.0
 40
0.2274227118450572
100
AcDbArc
 50
179.9435735487
 51
190.345457835
  0
ARC
  5
154
330
1F
100
AcDbEntity
  8
0
  6
Continuous
 62
     7
 48
5.0625
370
    15
100
AcDbCircle
 10
24.1573874387
 20
10.9381093107
 30
0.0
 40
0.0014093729637989
100
AcDbArc
 50
83.883089196
 51
116.9025374196
  0
ARC
  5
155
330
1F
100
AcDbEntity
  8
0
  6
Continuous
 62
     7
 48
5.0625
370
    15
100
AcDbCircle
 10
24.3016679637
 20
10.9822299817
 30
0.0
 40
0.1503279649391474
100
AcDbArc
 50
196.5094901599
 51
233.4606566542
  0
LINE
  5
156
330
1F
100
AcDbEntity
  8
0
  6
Continuous
 62
     7
 48
2.25
370
    15
100
AcDbLine
 10
24.2121665069
 20
10.8835336994
 30
0.0
 11
24.2121665069
 21
10.8614492454
 31
0.0
  0
ARC
  5
157
330
1F
100
AcDbEntity
  8
0
  6
Continuous
 62
     7
 48
5.0625
370
    15
100
AcDbCircle
 10
24.3016680143
 20
11.0043144694
 30
0.0
 40
0.1503280221123388
100
AcDbArc
 50
196.5094956896
 51
233.460648754
  0
ARC
  5
158
330
1F
100
AcDbEntity
  8
0
  6
Continuous
 62
     7
 48
5.0625
370
    15
100
AcDbCircle
 10
24.3841394542
 20
10.9805112007
 30
0.0
 40
0.227389996245546
100
AcDbArc
 50
169.6539752341
 51
184.7718269547
  0
LWPOLYLINE
  5
159
330
1F
100
AcDbEntity
  8
0
  6
Continuous
 62
     7
 48
2.25
370
    15
100
AcDbPolyline
 90
        9
 70
   128
 43
0.0
 10
24.160446571
 20
11.0213487378
 10
24.1592216252
 20
11.0212931242
 10
24.1582413165
 20
11.0212372357
 10
24.157506525
 20
11.0211811318
 10
24.157018424
 20
11.0211248812
 10
24.1567773068
 20
11.0210685389
 10
24.1567834667
 20
11.0210121646
 10
24.1570371971
 20
11.0209558269
 10
24.157537618
 20
11.0208995809
  0
LINE
  5
15A
330
1F
100
AcDbEntity
  8
0
  6
Continuous
 62
     7
 48
2.25
370
    15
100
AcDbLine
 10
24.1657394166
 20
10.9395106594
 30
0.0
 11
24.157537618
 21
10.9395106594
 31
0.0
  0
LINE
  5
15B
330
1F
100
AcDbEntity
  8
0
  6
Continuous
 62
     7
 48
2.25
370
    15
100
AcDbLine
 10
24.1603650253
 20
11.0208995809
 30
0.0
 11
24.157537618
 21
11.0208995809
 31
0.0
  0
LINE
  5
15C
330
1F
100
AcDbEntity
  8
0
  6
HIDDEN
 62
     7
 48
2.25
370
     0
100
AcDbLine
 10
24.3481114431
 20
10.8681551162
 30
0.0
 11
24.286111466
 21
10.8681551162
 31
0.0
  0
LINE
  5
15D
330
1F
100
AcDbEntity
  8
0
  6
HIDDEN
 62
     7
 48
2.25
370
     0
100
AcDbLine
 10
24.4871114107
 20
13.542205177
 30
0.0
 11
24.4871114107
 21
13.9032051667
 31
0.0
  0
LINE
  5
15E
330
1F
100
AcDbEntity
  8
0
  6
HIDDEN
 62
     7
 48
2.25
370
     0
100
AcDbLine
 10
28.2091113905
 20
13.542205177
 30
0.0
 11
24.4871114107
 21
13.542205177
 31
0.0
  0
LINE
  5
15F
330
1F
100
AcDbEntity
  8
0
  6
HIDDEN
 62
     7
 48
2.25
370
     0
100
AcDbLine
 10
28.2091113905
 20
13.9032051667
 30
0.0
 11
28.2091113905
 21
13.542205177
 31
0.0
  0
LINE
  5
160
330
1F
100
AcDbEntity
  8
0
  6
HIDDEN
 62
     7
 48
2.25
370
     0
100
AcDbLine
 10
28.2091113905
 20
13.9802051572
 30
0.0
 11
28.2091113905
 21
13.9032051667
 31
0.0
  0
LINE
  5
161
330
1F
100
AcDbEntity
  8
0
  6
HIDDEN
 62
     7
 48
2.25
370
     0
100
AcDbLine
 10
24.4871114107
 20
13.9032051667
 30
0.0
 11
24.4871114107
 21
13.9802051572
 31
0.0
  0
LINE
  5
162
330
1F
100
AcDbEntity
  8
0
  6
HIDDEN
 62
     7
 48
2.25
370
     0
100
AcDbLine
 10
24.4871114107
 20
13.9182051801
 30
0.0
 11
28.2091113905
 21
13.9182051801
 31
0.0
  0
LINE
  5
163
330
1F
100
AcDbEntity
  8
0
  6
HIDDEN
 62
     7
 48
2.25
370
     0
100
AcDbLine
 10
28.2861113948
 20
13.542205177
 30
0.0
 11
28.2241113947
 21
13.542205177
 31
0.0
  0
LINE
  5
164
330
1F
100
AcDbEntity
  8
0
  6
HIDDEN
 62
     7
 48
2.25
370
     0
100
AcDbLine
 10
28.2241113947
 20
13.542205177
 30
0.0
 11
28.2241113947
 21
13.9032051667
 31
0.0
  0
ARC
  5
165
330
1F
100
AcDbEntity
  8
0
  6
HIDDEN
 62
     7
 48
5.0625
370
     0
100
AcDbCircle
 10
28.2091113948
 20
13.9032051201
 30
0.0
 40
0.0770000000000017
100
AcDbArc
 50
0.0
 51
90.0
  0
ARC
  5
166
330
1F
100
AcDbEntity
  8
0
  6
HIDDEN
 62
     7
 48
5.0625
370
     0
100
AcDbCircle
 10
28.2091113948
 20
13.9032051201
 30
0.0
 40
0.0150000000000041
100
AcDbArc
 50
360.0
 51
90.0
  0
LINE
  5
167
330
1F
100
AcDbEntity
  8
0
  6
HIDDEN
 62
     7
 48
2.25
370
     0
100
AcDbLine
 10
24.4251114336
 20
13.9182051801
 30
0.0
 11
24.4871114107
 21
13.9182051801
 31
0.0
  0
LINE
  5
168
330
1F
100
AcDbEntity
  8
0
  6
HIDDEN
 62
     7
 48
2.25
370
     0
100
AcDbLine
 10
24.3481114431
 20
13.4802051999
 30
0.0
 11
24.4101114202
 21
13.4802051999
 31
0.0
  0
ARC
  5
169
330
1F
100
AcDbEntity
  8
0
  6
HIDDEN
 62
     7
 48
5.0625
370
     0
100
AcDbCircle
 10
24.4251113948
 20
13.9032051201
 30
0.0
 40
0.0150000000000041
100
AcDbArc
 50
90.0
 51
180.0
  0
ARC
  5
16A
330
1F
100
AcDbEntity
  8
0
  6
HIDDEN
 62
     7
 48
5.0625
370
     0
100
AcDbCircle
 10
24.4251113948
 20
13.9032051201
 30
0.0
 40
0.0770000000000017
100
AcDbArc
 50
90.0
 51
180.0
  0
LINE
  5
16B
330
1F
100
AcDbEntity
  8
0
  6
HIDDEN
 62
     7
 48
2.25
370
     0
100
AcDbLine
 10
24.4871114107
 20
8.4182050633
 30
0.0
 11
24.4871114107
 21
8.0572050736
 31
0.0
  0
LINE
  5
16C
330
1F
100
AcDbEntity
  8
0
  6
HIDDEN
 62
     7
 48
2.25
370
     0
100
AcDbLine
 10
28.2091113905
 20
8.0572050736
 30
0.0
 11
28.2091113905
 21
8.4182050633
 31
0.0
  0
LINE
  5
16D
330
1F
100
AcDbEntity
  8
0
  6
HIDDEN
 62
     7
 48
2.25
370
     0
100
AcDbLine
 10
28.2091113905
 20
8.4182050633
 30
0.0
 11
24.4871114107
 21
8.4182050633
 31
0.0
  0
LINE
  5
16E
330
1F
100
AcDbEntity
  8
0
  6
HIDDEN
 62
     7
 48
2.25
370
     0
100
AcDbLine
 10
24.4871114107
 20
8.0572050736
 30
0.0
 11
24.4871114107
 21
7.9802050831
 31
0.0
  0
LINE
  5
16F
330
1F
100
AcDbEntity
  8
0
  6
HIDDEN
 62
     7
 48
2.25
370
     0
100
AcDbLine
 10
28.2091113905
 20
7.9802050831
 30
0.0
 11
28.2091113905
 21
8.0572050736
 31
0.0
  0
LINE
  5
170
330
1F
100
AcDbEntity
  8
0
  6
HIDDEN
 62
     7
 48
2.25
370
     0
100
AcDbLine
 10
24.4871114107
 20
8.0422050602
 30
0.0
 11
28.2091113905
 21
8.0422050602
 31
0.0
  0
LINE
  5
171
330
1F
100
AcDbEntity
  8
0
  6
HIDDEN
 62
     7
 48
2.25
370
     0
100
AcDbLine
 10
28.2241113947
 20
8.4182050633
 30
0.0
 11
28.2241113947
 21
8.0572050736
 31
0.0
  0
LINE
  5
172
330
1F
100
AcDbEntity
  8
0
  6
HIDDEN
 62
     7
 48
2.25
370
     0
100
AcDbLine
 10
28.2861113948
 20
8.4182050633
 30
0.0
 11
28.2241113947
 21
8.4182050633
 31
0.0
  0
ARC
  5
173
330
1F
100
AcDbEntity
  8
0
  6
HIDDEN
 62
     7
 48
5.0625
370
     0
100
AcDbCircle
 10
28.2091113948
 20
8.0572051201
 30
0.0
 40
0.0770000000000017
100
AcDbArc
 50
270.0
 51
360.0
  0
ARC
  5
174
330
1F
100
AcDbEntity
  8
0
  6
HIDDEN
 62
     7
 48
5.0625
370
     0
100
AcDbCircle
 10
28.2091113948
 20
8.0572051201
 30
0.0
 40
0.0150000000000006
100
AcDbArc
 50
270.0
 51
0.0
  0
LINE
  5
175
330
1F
100
AcDbEntity
  8
0
  6
HIDDEN
 62
     7
 48
2.25
370
     0
100
AcDbLine
 10
24.4251114336
 20
8.0422050602
 30
0.0
 11
24.4871114107
 21
8.0422050602
 31
0.0
  0
LINE
  5
176
330
1F
100
AcDbEntity
  8
0
  6
HIDDEN
 62
     7
 48
2.25
370
     0
100
AcDbLine
 10
24.3481114431
 20
8.4802050404
 30
0.0
 11
24.4101114202
 21
8.4802050404
 31
0.0
  0
ARC
  5
177
330
1F
100
AcDbEntity
  8
0
  6
HIDDEN
 62
     7
 48
5.0625
370
     0
100
AcDbCircle
 10
24.4251113948
 20
8.0572051201
 30
0.0
 40
0.0150000000000041
100
AcDbArc
 50
180.0
 51
270.0
  0
ARC
  5
178
330
1F
100
AcDbEntity
  8
0
  6
HIDDEN
 62
     7
 48
5.0625
370
     0
100
AcDbCircle
 10
24.4251113948
 20
8.0572051201
 30
0.0
 40
0.0769999999999991
100
AcDbArc
 50
180.0
 51
270.0
  0
LINE
  5
179
330
1F
100
AcDbEntity
  8
0
  6
HIDDEN
 62
     7
 48
2.25
370
     0
100
AcDbLine
 10
28.2861113948
 20
13.9802051572
 30
0.0
 11
28.2861113948
 21
7.9802050831
 31
0.0
  0
LINE
  5
17A
330
1F
100
AcDbEntity
  8
0
  6
HIDDEN
 62
     7
 48
2.25
370
     0
100
AcDbLine
 10
24.4101114202
 20
13.9802051572
 30
0.0
 11
24.4101114202
 21
7.9802050831
 31
0.0
  0
LINE
  5
17B
330
1F
100
AcDbEntity
  8
0
  6
HIDDEN
 62
     7
 48
2.25
370
     0
100
AcDbLine
 10
28.1161113882
 20
11.9802051081
 30
0.0
 11
28.1161113882
 21
12.2772627631
 31
0.0
  0
LINE
  5
17C
330
1F
100
AcDbEntity
  8
0
  6
HIDDEN
 62
     7
 48
2.25
370
     0
100
AcDbLine
 10
28.1161113882
 20
11.6831473797
 30
0.0
 11
28.1161113882
 21
11.9802051081
 31
0.0
  0
LINE
  5
17D
330
1F
100
AcDbEntity
  8
0
  6
HIDDEN
 62
     7
 48
2.25
370
     0
100
AcDbLine
 10
28.178111402
 20
11.6831473797
 30
0.0
 11
28.178111402
 21
12.2772627631
 31
0.0
  0
LINE
  5
17E
330
1F
100
AcDbEntity
  8
0
  6
HIDDEN
 62
     7
 48
2.25
370
     0
100
AcDbLine
 10
28.2440641467
 20
11.9802051081
 30
0.0
 11
28.2440641467
 21
12.1272051366
 31
0.0
  0
LINE
  5
17F
330
1F
100
AcDbEntity
  8
0
  6
HIDDEN
 62
     7
 48
2.25
370
     0
100
AcDbLine
 10
28.2440641467
 20
11.8332051529
 30
0.0
 11
28.2440641467
 21
11.9802051081
 31
0.0
  0
ARC
  5
180
330
1F
100
AcDbEntity
  8
0
  6
HIDDEN
 62
     7
 48
5.0625
370
     0
100
AcDbCircle
 10
24.3016679637
 20
10.9781802585
 30
0.0
 40
0.1503279649391474
100
AcDbArc
 50
126.5393433458
 51
163.4905098401
  0
ARC
  5
181
330
1F
100
AcDbEntity
  8
0
  6
HIDDEN
 62
     7
 48
5.0625
370
     0
100
AcDbCircle
 10
24.3016680143
 20
10.9560957709
 30
0.0
 40
0.150328022112332
100
AcDbArc
 50
126.539351246
 51
163.4905043104
  0
ARC
  5
182
330
1F
100
AcDbEntity
  8
0
  6
HIDDEN
 62
     7
 48
5.0625
370
     0
100
AcDbCircle
 10
24.3842518651
 20
10.9798926993
 30
0.0
 40
0.2275025449629701
100
AcDbArc
 50
175.2289368884
 51
179.9410743803
  0
ARC
  5
183
330
1F
100
AcDbEntity
  8
0
  6
HIDDEN
 62
     7
 48
5.0625
370
     0
100
AcDbCircle
 10
24.1600000413
 20
10.9562250441
 30
0.0
 40
0.0171693490533257
100
AcDbArc
 50
259.0875550472
 51
271.4902808948
  0
LINE
  5
184
330
1F
100
AcDbEntity
  8
0
  6
HIDDEN
 62
     7
 48
2.25
370
     0
100
AcDbLine
 10
24.2121665069
 20
10.9615951169
 30
0.0
 11
24.2121665069
 21
10.8835336994
 31
0.0
  0
LINE
  5
185
330
1F
100
AcDbEntity
  8
0
  6
HIDDEN
 62
     7
 48
2.25
370
     0
100
AcDbLine
 10
24.2121665069
 20
10.9395106594
 30
0.0
 11
24.1657394166
 21
10.9395106594
 31
0.0
  0
LINE
  5
186
330
1F
100
AcDbEntity
  8
0
  6
HIDDEN
 62
     7
 48
2.25
370
     0
100
AcDbLine
 10
24.5606911741
 20
10.9112051218
 30
0.0
 11
24.5606911741
 21
11.0492051185
 31
0.0
  0
LINE
  5
187
330
1F
100
AcDbEntity
  8
0
  6
HIDDEN
 62
     7
 48
2.25
370
     0
100
AcDbLine
 10
24.5981112751
 20
10.9267051207
 30
0.0
 11
24.5981112751
 21
11.0337051196
 31
0.0
  0
LINE
  5
188
330
1F
100
AcDbEntity
  8
0
  6
HIDDEN
 62
     7
 48
2.25
370
     0
100
AcDbLine
 10
24.2131113227
 20
11.0213487378
 30
0.0
 11
24.2131113227
 21
10.9396754283
 31
0.0
  0
LINE
  5
189
330
1F
100
AcDbEntity
  8
0
  6
HIDDEN
 62
     7
 48
2.25
370
     0
100
AcDbLine
 10
24.157537618
 20
10.9615951169
 30
0.0
 11
24.2121665069
 21
10.9615951169
 31
0.0
  0
LINE
  5
18A
330
1F
100
AcDbEntity
  8
0
  6
HIDDEN
 62
     7
 48
2.25
370
     0
100
AcDbLine
 10
24.2131113227
 20
10.9396754283
 30
0.0
 11
24.2121665069
 21
10.9396754283
 31
0.0
  0
LINE
  5
18B
330
1F
100
AcDbEntity
  8
0
  6
HIDDEN
 62
     7
 48
2.25
370
     0
100
AcDbLine
 10
24.2131113227
 20
10.9396754283
 30
0.0
 11
24.2131113227
 21
10.9390615025
 31
0.0
  0
LINE
  5
18C
330
1F
100
AcDbEntity
  8
0
  6
HIDDEN
 62
     7
 48
2.25
370
     0
100
AcDbLine
 10
24.2131113227
 20
11.0207348119
 30
0.0
 11
24.2121665069
 21
11.0207348119
 31
0.0
  0
LINE
  5
18D
330
1F
100
AcDbEntity
  8
0
  6
HIDDEN
 62
     7
 48
2.25
370
     0
100
AcDbLine
 10
24.2121665069
 20
11.0208995809
 30
0.0
 11
24.2121665069
 21
11.0207348119
 31
0.0
  0
LINE
  5
18E
330
1F
100
AcDbEntity
  8
0
  6
HIDDEN
 62
     7
 48
2.25
370
     0
100
AcDbLine
 10
24.2121665069
 20
11.0208995809
 30
0.0
 11
24.1603650253
 21
11.0208995809
 31
0.0
  0
LINE
  5
18F
330
1F
100
AcDbEntity
  8
0
  6
HIDDEN
 62
     7
 48
2.25
370
     0
100
AcDbLine
 10
24.2131113227
 20
11.0213487378
 30
0.0
 11
24.160446571
 21
11.0213487378
 31
0.0
  0
LINE
  5
190
330
1F
100
AcDbEntity
  8
0
  6
HIDDEN
 62
     7
 48
2.25
370
     0
100
AcDbLine
 10
24.157537618
 20
10.9988151234
 30
0.0
 11
24.2121665069
 21
10.9988151234
 31
0.0
  0
LINE
  5
191
330
1F
100
AcDbEntity
  8
0
  6
HIDDEN
 62
     7
 48
2.25
370
     0
100
AcDbLine
 10
24.2121665069
 20
11.0207348119
 30
0.0
 11
24.2121665069
 21
10.9988151234
 31
0.0
  0
LINE
  5
192
330
1F
100
AcDbEntity
  8
0
  6
HIDDEN
 62
     7
 48
2.25
370
     0
100
AcDbLine
 10
24.2131113227
 20
10.9390615025
 30
0.0
 11
24.160446571
 21
10.9390615025
 31
0.0
  0
LINE
  5
193
330
1F
100
AcDbEntity
  8
0
  6
HIDDEN
 62
     7
 48
2.25
370
     0
100
AcDbLine
 10
24.2121665069
 20
11.0989609949
 30
0.0
 11
24.2121665069
 21
11.0208995809
 31
0.0
  0
LINE
  5
194
330
1F
100
AcDbEntity
  8
0
  6
HIDDEN
 62
     7
 48
2.25
370
     0
100
AcDbLine
 10
24.286111466
 20
10.5052051241
 30
0.0
 11
24.3481114431
 21
10.5052051241
 31
0.0
  0
LINE
  5
195
330
1F
100
AcDbEntity
  8
0
  6
HIDDEN
 62
     7
 48
2.25
370
     0
100
AcDbLine
 10
24.3481114431
 20
11.1052051186
 30
0.0
 11
24.286111466
 21
11.1052051186
 31
0.0
  0
LINE
  5
196
330
1F
100
AcDbEntity
  8
0
  6
HIDDEN
 62
     7
 48
2.25
370
     0
100
AcDbLine
 10
24.3481114431
 20
10.8952051237
 30
0.0
 11
24.4101114202
 21
10.8952051237
 31
0.0
  0
LINE
  5
197
330
1F
100
AcDbEntity
  8
0
  6
HIDDEN
 62
     7
 48
2.25
370
     0
100
AcDbLine
 10
24.4101114202
 20
11.0652051166
 30
0.0
 11
24.3481114431
 21
11.0652051166
 31
0.0
  0
LINE
  5
198
330
1F
100
AcDbEntity
  8
0
  6
HIDDEN
 62
     7
 48
2.25
370
     0
100
AcDbLine
 10
28.3481113948
 20
9.6207051585
 30
0.0
 11
28.2861113948
 21
9.6207051585
 31
0.0
  0
LINE
  5
199
330
1F
100
AcDbEntity
  8
0
  6
HIDDEN
 62
     7
 48
2.25
370
     0
100
AcDbLine
 10
28.2861113948
 20
9.3397051913
 30
0.0
 11
28.3481113948
 21
9.3397051913
 31
0.0
  0
LINE
  5
19A
330
1F
100
AcDbEntity
  8
0
  6
HIDDEN
 62
     7
 48
2.25
370
     0
100
AcDbLine
 10
28.3481113948
 20
12.620705049
 30
0.0
 11
28.2861113948
 21
12.620705049
 31
0.0
  0
LINE
  5
19B
330
1F
100
AcDbEntity
  8
0
  6
HIDDEN
 62
     7
 48
2.25
370
     0
100
AcDbLine
 10
28.2861113948
 20
12.3397050818
 30
0.0
 11
28.3481113948
 21
12.3397050818
 31
0.0
  0
LINE
  5
19C
330
1F
100
AcDbEntity
  8
0
  6
HIDDEN
 62
     7
 48
2.25
370
     0
100
AcDbLine
 10
28.2861113948
 20
12.6218179428
 30
0.0
 11
28.1411646438
 21
12.3707628563
 31
0.0
  0
LINE
  5
19D
330
1F
100
AcDbEntity
  8
0
  6
HIDDEN
 62
     7
 48
2.25
370
     0
100
AcDbLine
 10
28.1411646438
 20
11.5896473965
 30
0.0
 11
28.2861113948
 21
11.3385922734
 31
0.0
  0
LINE
  5
19E
330
1F
100
AcDbEntity
  8
0
  6
HIDDEN
 62
     7
 48
2.25
370
     0
100
AcDbLine
 10
28.3481113948
 20
12.6052050547
 30
0.0
 11
28.1948582227
 21
12.3397628678
 31
0.0
  0
LINE
  5
19F
330
1F
100
AcDbEntity
  8
0
  6
HIDDEN
 62
     7
 48
2.25
370
     0
100
AcDbLine
 10
28.1948582227
 20
11.6206474217
 30
0.0
 11
28.3481113948
 21
11.3552051248
 31
0.0
  0
ARC
  5
1A0
330
1F
100
AcDbEntity
  8
0
  6
HIDDEN
 62
     7
 48
5.0625
370
     0
100
AcDbCircle
 10
28.3031113948
 20
11.6831474065
 30
0.0
 40
0.1870000000000012
100
AcDbArc
 50
180.0
 51
210.0
  0
ARC
  5
1A1
330
1F
100
AcDbEntity
  8
0
  6
HIDDEN
 62
     7
 48
5.0625
370
     0
100
AcDbCircle
 10
28.3031113948
 20
12.2772628338
 30
0.0
 40
0.1870000000000012
100
AcDbArc
 50
150.0
 51
180.0
  0
ARC
  5
1A2
330
1F
100
AcDbEntity
  8
0
  6
HIDDEN
 62
     7
 48
5.0625
370
     0
100
AcDbCircle
 10
28.3031113948
 20
11.6831474065
 30
0.0
 40
0.125
100
AcDbArc
 50
180.0
 51
210.0
  0
ARC
  5
1A3
330
1F
100
AcDbEntity
  8
0
  6
HIDDEN
 62
     7
 48
5.0625
370
     0
100
AcDbCircle
 10
28.3031113948
 20
12.2772628338
 30
0.0
 40
0.125
100
AcDbArc
 50
150.0
 51
180.0
  0
ARC
  5
1A4
330
1F
100
AcDbEntity
  8
0
  6
HIDDEN
 62
     7
 48
5.0625
370
     0
100
AcDbCircle
 10
28.1948515523
 20
12.1439452776
 30
0.0
 40
0.0167401574803172
100
AcDbArc
 50
180.0
 51
270.0
  0
ARC
  5
1A5
330
1F
100
AcDbEntity
  8
0
  6
HIDDEN
 62
     7
 48
5.0625
370
     0
100
AcDbCircle
 10
28.1948515523
 20
11.8164649627
 30
0.0
 40
0.0167401574803137
100
AcDbArc
 50
90.0
 51
180.0
  0
ARC
  5
1A6
330
1F
100
AcDbEntity
  8
0
  6
HIDDEN
 62
     7
 48
5.0625
370
     0
100
AcDbCircle
 10
28.1948515523
 20
12.1439452776
 30
0.0
 40
0.0787401574803148
100
AcDbArc
 50
180.0
 51
270.0
  0
ARC
  5
1A7
330
1F
100
AcDbEntity
  8
0
  6
HIDDEN
 62
     7
 48
5.0625
370
     0
100
AcDbCircle
 10
28.1948515523
 20
11.8164649627
 30
0.0
 40
0.0787401574803148
100
AcDbArc
 50
90.0
 51
180.0
  0
LINE
  5
1A8
330
1F
100
AcDbEntity
  8
0
  6
HIDDEN
 62
     7
 48
2.25
370
     0
100
AcDbLine
 10
28.1948515494
 20
11.8332051529
 30
0.0
 11
28.2440641467
 21
11.8332051529
 31
0.0
  0
LINE
  5
1A9
330
1F
100
AcDbEntity
  8
0
  6
HIDDEN
 62
     7
 48
2.25
370
     0
100
AcDbLine
 10
28.2440641467
 20
12.1272051366
 30
0.0
 11
28.1948515494
 21
12.1272051366
 31
0.0
  0
LINE
  5
1AA
330
1F
100
AcDbEntity
  8
0
  6
HIDDEN
 62
     7
 48
2.25
370
     0
100
AcDbLine
 10
28.1948515494
 20
11.89520513
 30
0.0
 11
28.2440641467
 21
11.89520513
 31
0.0
  0
LINE
  5
1AB
330
1F
100
AcDbEntity
  8
0
  6
HIDDEN
 62
     7
 48
2.25
370
     0
100
AcDbLine
 10
28.2440641467
 20
12.0652050861
 30
0.0
 11
28.1948515494
 21
12.0652050861
 31
0.0
  0
LINE
  5
1AC
330
1F
100
AcDbEntity
  8
0
  6
HIDDEN
 62
     7
 48
2.25
370
     0
100
AcDbLine
 10
24.286111466
 20
10.9112051218
 30
0.0
 11
24.5606911741
 21
10.9112051218
 31
0.0
  0
LINE
  5
1AD
330
1F
100
AcDbEntity
  8
0
  6
HIDDEN
 62
     7
 48
2.25
370
     0
100
AcDbLine
 10
24.5606911741
 20
11.0492051185
 30
0.0
 11
24.286111466
 21
11.0492051185
 31
0.0
  0
LINE
  5
1AE
330
1F
100
AcDbEntity
  8
0
  6
HIDDEN
 62
     7
 48
2.25
370
     0
100
AcDbLine
 10
24.5606911741
 20
10.9112051218
 30
0.0
 11
24.5981112751
 21
10.9267051207
 31
0.0
  0
LINE
  5
1AF
330
1F
100
AcDbEntity
  8
0
  6
HIDDEN
 62
     7
 48
2.25
370
     0
100
AcDbLine
 10
24.5981112751
 20
11.0337051196
 30
0.0
 11
24.5606911741
 21
11.0492051185
 31
0.0
  0
LINE
  5
1B0
330
1F
100
AcDbEntity
  8
0
  6
Continuous
 62
     7
 48
2.25
370
    15
100
AcDbLine
 10
6.7410374555
 20
11.166705124
 30
0.0
 11
6.7077060805
 21
11.166705124
 31
0.0
  0
LINE
  5
1B1
330
1F
100
AcDbEntity
  8
0
  6
Continuous
 62
     7
 48
2.25
370
    15
100
AcDbLine
 10
6.7077060805
 20
10.7937051163
 30
0.0
 11
6.7410374555
 21
10.7937051163
 31
0.0
  0
ARC
  5
1B2
330
1F
100
AcDbEntity
  8
0
  6
Continuous
 62
     7
 48
5.0625
370
    15
100
AcDbCircle
 10
6.7410374637
 20
11.1517051201
 30
0.0
 40
0.0149999999999988
100
AcDbArc
 50
52.550643686
 51
90.0
  0
ARC
  5
1B3
330
1F
100
AcDbEntity
  8
0
  6
Continuous
 62
     7
 48
5.0625
370
    15
100
AcDbCircle
 10
6.7410374637
 20
10.8087051201
 30
0.0
 40
0.0150000000000011
100
AcDbArc
 50
270.0
 51
307.449356314
  0
ARC
  5
1B4
330
1F
100
AcDbEntity
  8
0
  6
Continuous
 62
     7
 48
5.0625
370
    15
100
AcDbCircle
 10
6.6096815648
 20
10.9802051201
 30
0.0
 40
0.2310245869783036
100
AcDbArc
 50
10.1818657166
 51
52.550643686
  0
ARC
  5
1B5
330
1F
100
AcDbEntity
  8
0
  6
Continuous
 62
     7
 48
5.0625
370
    15
100
AcDbCircle
 10
6.6096815648
 20
10.9802051201
 30
0.0
 40
0.2310245869783052
100
AcDbArc
 50
307.449356314
 51
349.8181342834
  0
LINE
  5
1B6
330
1F
100
AcDbEntity
  8
0
  6
Continuous
 62
     7
 48
2.25
370
    15
100
AcDbLine
 10
6.6457061034
 20
13.9802051572
 30
0.0
 11
6.6457061034
 21
7.9802050831
 31
0.0
  0
LINE
  5
1B7
330
1F
100
AcDbEntity
  8
0
  6
Continuous
 62
     7
 48
2.25
370
    15
100
AcDbLine
 10
6.6457061034
 20
7.9802050831
 30
0.0
 11
6.7077060805
 21
7.9802050831
 31
0.0
  0
LINE
  5
1B8
330
1F
100
AcDbEntity
  8
0
  6
Continuous
 62
     7
 48
2.25
370
    15
100
AcDbLine
 10
6.7077060805
 20
13.9802051572
 30
0.0
 11
6.7077060805
 21
7.9802050831
 31
0.0
  0
LINE
  5
1B9
330
1F
100
AcDbEntity
  8
0
  6
Continuous
 62
     7
 48
2.25
370
    15
100
AcDbLine
 10
6.6457061034
 20
13.9802051572
 30
0.0
 11
6.7077060805
 21
13.9802051572
 31
0.0
  0
LINE
  5
1BA
330
1F
100
AcDbEntity
  8
0
  6
Continuous
 62
     7
 48
2.25
370
    15
100
AcDbLine
 10
2.7227061514
 20
7.9802050831
 30
0.0
 11
6.5687061129
 21
7.9802050831
 31
0.0
  0
LINE
  5
1BB
330
1F
100
AcDbEntity
  8
0
  6
Continuous
 62
     7
 48
2.25
370
    15
100
AcDbLine
 10
2.7227061514
 20
13.9802051572
 30
0.0
 11
6.5687061129
 21
13.9802051572
 31
0.0
  0
LINE
  5
1BC
330
1F
100
AcDbEntity
  8
0
  6
Continuous
 62
     7
 48
2.25
370
    15
100
AcDbLine
 10
2.6457061517
 20
13.9802051572
 30
0.0
 11
2.6457061517
 21
7.9802050831
 31
0.0
  0
LINE
  5
1BD
330
1F
100
AcDbEntity
  8
0
  6
Continuous
 62
     7
 48
2.25
370
    15
100
AcDbLine
 10
2.6457061517
 20
7.9802050831
 30
0.0
 11
2.7227061514
 21
7.9802050831
 31
0.0
  0
LINE
  5
1BE
330
1F
100
AcDbEntity
  8
0
  6
Continuous
 62
     7
 48
2.25
370
    15
100
AcDbLine
 10
2.6457061517
 20
13.9802051572
 30
0.0
 11
2.7227061514
 21
13.9802051572
 31
0.0
  0
LINE
  5
1BF
330
1F
100
AcDbEntity
  8
0
  6
Continuous
 62
     7
 48
2.25
370
    15
100
AcDbLine
 10
6.5687061129
 20
13.9802051572
 30
0.0
 11
6.6457061034
 21
13.9802051572
 31
0.0
  0
LINE
  5
1C0
330
1F
100
AcDbEntity
  8
0
  6
Continuous
 62
     7
 48
2.25
370
    15
100
AcDbLine
 10
6.5687061129
 20
7.9802050831
 30
0.0
 11
6.6457061034
 21
7.9802050831
 31
0.0
  0
ARC
  5
1C1
330
1F
100
AcDbEntity
  8
0
  6
Continuous
 62
     7
 48
5.0625
370
    15
100
AcDbCircle
 10
6.6921495322
 20
11.0043144694
 30
0.0
 40
0.1503280221122695
100
AcDbArc
 50
306.539351246
 51
343.4905043104
  0
LINE
  5
1C2
330
1F
100
AcDbEntity
  8
0
  6
Continuous
 62
     7
 48
2.25
370
    15
100
AcDbLine
 10
6.7816510396
 20
10.8614492454
 30
0.0
 11
6.7816510396
 21
10.8835336994
 31
0.0
  0
ARC
  5
1C3
330
1F
100
AcDbEntity
  8
0
  6
Continuous
 62
     7
 48
5.0625
370
    15
100
AcDbCircle
 10
6.6921495829
 20
10.9822299817
 30
0.0
 40
0.1503279649390857
100
AcDbArc
 50
306.5393433458
 51
343.4905098401
  0
ARC
  5
1C4
330
1F
100
AcDbEntity
  8
0
  6
Continuous
 62
     7
 48
5.0625
370
    15
100
AcDbCircle
 10
6.8364301079
 20
10.9381093107
 30
0.0
 40
0.0014093729638266
100
AcDbArc
 50
63.0974625807
 51
96.1169108037
  0
ARC
  5
1C5
330
1F
100
AcDbEntity
  8
0
  6
Continuous
 62
     7
 48
5.0625
370
    15
100
AcDbCircle
 10
6.6097031931
 20
10.9798963934
 30
0.0
 40
0.2273648283713823
100
AcDbArc
 50
349.6534952251
 51
0.0776346796
  0
LWPOLYLINE
  5
1C6
330
1F
100
AcDbEntity
  8
0
  6
Continuous
 62
     7
 48
2.25
370
    15
100
AcDbPolyline
 90
        9
 70
   128
 43
0.0
 10
6.8362799285
 20
11.0208995809
 10
6.8367803494
 20
11.0209558269
 10
6.8370340798
 20
11.0210121646
 10
6.8370402398
 20
11.0210685389
 10
6.8367991225
 20
11.0211248812
 10
6.8363110215
 20
11.0211811318
 10
6.83557623
 20
11.0212372357
 10
6.8345959213
 20
11.0212931242
 10
6.8333709755
 20
11.0213487378
  0
ARC
  5
1C7
330
1F
100
AcDbEntity
  8
0
  6
Continuous
 62
     7
 48
5.0625
370
    15
100
AcDbCircle
 10
6.6096780924
 20
10.9805112007
 30
0.0
 40
0.2273899962456288
100
AcDbArc
 50
355.2281730453
 51
10.3460247659
  0
LINE
  5
1C8
330
1F
100
AcDbEntity
  8
0
  6
Continuous
 62
     7
 48
2.25
370
    15
100
AcDbLine
 10
6.8362799285
 20
10.9395106594
 30
0.0
 11
6.82807813
 21
10.9395106594
 31
0.0
  0
LINE
  5
1C9
330
1F
100
AcDbEntity
  8
0
  6
Continuous
 62
     7
 48
2.25
370
    15
100
AcDbLine
 10
6.8362799285
 20
11.0208995809
 30
0.0
 11
6.8334525212
 21
11.0208995809
 31
0.0
  0
LINE
  5
1CA
330
1F
100
AcDbEntity
  8
0
  6
Continuous
 62
     7
 48
2.25
370
    15
100
AcDbLine
 10
8.1160436079
 20
6.0592760163
 30
0.0
 11
8.1160436079
 21
6.0259446413
 31
0.0
  0
LINE
  5
1CB
330
1F
100
AcDbEntity
  8
0
  6
Continuous
 62
     7
 48
2.25
370
    15
100
AcDbLine
 10
8.4890434323
 20
6.0259446413
 30
0.0
 11
8.4890434323
 21
6.0592760163
 31
0.0
  0
ARC
  5
1CC
330
1F
100
AcDbEntity
  8
0
  6
Continuous
 62
     7
 48
5.0625
370
    15
100
AcDbCircle
 10
8.1310435785
 20
6.0592760245
 30
0.0
 40
0.0150000000000016
100
AcDbArc
 50
142.550643686
 51
180.0
  0
ARC
  5
1CD
330
1F
100
AcDbEntity
  8
0
  6
Continuous
 62
     7
 48
5.0625
370
    15
100
AcDbCircle
 10
8.4740435785
 20
6.0592760245
 30
0.0
 40
0.0150000000000006
100
AcDbArc
 50
0.0
 51
37.449356314
  0
ARC
  5
1CE
330
1F
100
AcDbEntity
  8
0
  6
Continuous
 62
     7
 48
5.0625
370
    15
100
AcDbCircle
 10
8.3025435785
 20
5.9279201256
 30
0.0
 40
0.2310245869783038
100
AcDbArc
 50
100.1818657166
 51
142.550643686
  0
ARC
  5
1CF
330
1F
100
AcDbEntity
  8
0
  6
Continuous
 62
     7
 48
5.0625
370
    15
100
AcDbCircle
 10
8.3025435785
 20
5.9279201256
 30
0.0
 40
0.2310245869783052
100
AcDbArc
 50
37.449356314
 51
79.8181342834
  0
LINE
  5
1D0
330
1F
100
AcDbEntity
  8
0
  6
Continuous
 62
     7
 48
2.25
370
    15
100
AcDbLine
 10
8.2335436639
 20
5.9019446871
 30
0.0
 11
8.2335436639
 21
5.8249446966
 31
0.0
  0
LINE
  5
1D1
330
1F
100
AcDbEntity
  8
0
  6
Continuous
 62
     7
 48
2.25
370
    15
100
AcDbLine
 10
8.3715436697
 20
5.8249446966
 30
0.0
 11
8.3715436697
 21
5.9019446871
 31
0.0
  0
LINE
  5
1D2
330
1F
100
AcDbEntity
  8
0
  6
Continuous
 62
     7
 48
2.25
370
    15
100
AcDbLine
 10
13.6160437248
 20
6.0592760163
 30
0.0
 11
13.6160437248
 21
6.0259446413
 31
0.0
  0
LINE
  5
1D3
330
1F
100
AcDbEntity
  8
0
  6
Continuous
 62
     7
 48
2.25
370
    15
100
AcDbLine
 10
13.9890435492
 20
6.0259446413
 30
0.0
 11
13.9890435492
 21
6.0592760163
 31
0.0
  0
ARC
  5
1D4
330
1F
100
AcDbEntity
  8
0
  6
Continuous
 62
     7
 48
5.0625
370
    15
100
AcDbCircle
 10
13.6310435785
 20
6.0592760245
 30
0.0
 40
0.0150000000000023
100
AcDbArc
 50
142.550643686
 51
180.0
  0
ARC
  5
1D5
330
1F
100
AcDbEntity
  8
0
  6
Continuous
 62
     7
 48
5.0625
370
    15
100
AcDbCircle
 10
13.9740435785
 20
6.0592760245
 30
0.0
 40
0.0150000000000006
100
AcDbArc
 50
0.0
 51
37.449356314
  0
ARC
  5
1D6
330
1F
100
AcDbEntity
  8
0
  6
Continuous
 62
     7
 48
5.0625
370
    15
100
AcDbCircle
 10
13.8025435785
 20
5.9279201256
 30
0.0
 40
0.2310245869783039
100
AcDbArc
 50
100.1818657166
 51
142.550643686
  0
ARC
  5
1D7
330
1F
100
AcDbEntity
  8
0
  6
Continuous
 62
     7
 48
5.0625
370
    15
100
AcDbCircle
 10
13.8025435785
 20
5.9279201256
 30
0.0
 40
0.2310245869783039
100
AcDbArc
 50
37.449356314
 51
79.8181342834
  0
LINE
  5
1D8
330
1F
100
AcDbEntity
  8
0
  6
Continuous
 62
     7
 48
2.25
370
    15
100
AcDbLine
 10
13.7335434874
 20
5.9019446871
 30
0.0
 11
13.7335434874
 21
5.8249446966
 31
0.0
  0
LINE
  5
1D9
330
1F
100
AcDbEntity
  8
0
  6
Continuous
 62
     7
 48
2.25
370
    15
100
AcDbLine
 10
13.8715434932
 20
5.8249446966
 30
0.0
 11
13.8715434932
 21
5.9019446871
 31
0.0
  0
LINE
  5
1DA
330
1F
100
AcDbEntity
  8
0
  6
Continuous
 62
     7
 48
2.25
370
    15
100
AcDbLine
 10
8.0525435414
 20
5.9639446642
 30
0.0
 11
8.0525435414
 21
6.0259446413
 31
0.0
  0
LINE
  5
1DB
330
1F
100
AcDbEntity
  8
0
  6
Continuous
 62
     7
 48
2.25
370
    15
100
AcDbLine
 10
8.0525435414
 20
6.0259446413
 30
0.0
 11
14.0525436156
 21
6.0259446413
 31
0.0
  0
LINE
  5
1DC
330
1F
100
AcDbEntity
  8
0
  6
Continuous
 62
     7
 48
2.25
370
    15
100
AcDbLine
 10
14.0525436156
 20
5.9639446642
 30
0.0
 11
14.0525436156
 21
6.0259446413
 31
0.0
  0
LINE
  5
1DD
330
1F
100
AcDbEntity
  8
0
  6
Continuous
 62
     7
 48
2.25
370
    15
100
AcDbLine
 10
8.0525435414
 20
5.9639446642
 30
0.0
 11
14.0525436156
 21
5.9639446642
 31
0.0
  0
LINE
  5
1DE
330
1F
100
AcDbEntity
  8
0
  6
Continuous
 62
     7
 48
2.25
370
    15
100
AcDbLine
 10
8.5835434873
 20
5.8249446966
 30
0.0
 11
8.191543509
 21
5.8249446966
 31
0.0
  0
LINE
  5
1DF
330
1F
100
AcDbEntity
  8
0
  6
Continuous
 62
     7
 48
2.25
370
    15
100
AcDbLine
 10
8.5835434873
 20
5.8869446737
 30
0.0
 11
8.5835434873
 21
5.8249446966
 31
0.0
  0
LINE
  5
1E0
330
1F
100
AcDbEntity
  8
0
  6
Continuous
 62
     7
 48
2.25
370
    15
100
AcDbLine
 10
13.5215436698
 20
5.8869446737
 30
0.0
 11
13.5215436698
 21
5.8249446966
 31
0.0
  0
LINE
  5
1E1
330
1F
100
AcDbEntity
  8
0
  6
Continuous
 62
     7
 48
2.25
370
    15
100
AcDbLine
 10
13.5215436698
 20
5.8249446966
 30
0.0
 11
13.913543648
 21
5.8249446966
 31
0.0
  0
LINE
  5
1E2
330
1F
100
AcDbEntity
  8
0
  6
Continuous
 62
     7
 48
2.25
370
    15
100
AcDbLine
 10
8.5835434873
 20
5.8869446737
 30
0.0
 11
8.5835434873
 21
5.9639446642
 31
0.0
  0
LINE
  5
1E3
330
1F
100
AcDbEntity
  8
0
  6
Continuous
 62
     7
 48
2.25
370
    15
100
AcDbLine
 10
13.5215436698
 20
5.8869446737
 30
0.0
 11
13.5215436698
 21
5.9639446642
 31
0.0
  0
LINE
  5
1E4
330
1F
100
AcDbEntity
  8
0
  6
Continuous
 62
     7
 48
2.25
370
    15
100
AcDbLine
 10
13.913543648
 20
2.0259447126
 30
0.0
 11
13.913543648
 21
2.1029447168
 31
0.0
  0
LINE
  5
1E5
330
1F
100
AcDbEntity
  8
0
  6
Continuous
 62
     7
 48
2.25
370
    15
100
AcDbLine
 10
8.191543509
 20
2.0259447126
 30
0.0
 11
8.191543509
 21
2.1029447168
 31
0.0
  0
LINE
  5
1E6
330
1F
100
AcDbEntity
  8
0
  6
Continuous
 62
     7
 48
2.25
370
    15
100
AcDbLine
 10
8.191543509
 20
2.1029447168
 30
0.0
 11
8.1145435186
 21
2.1029447168
 31
0.0
  0
LINE
  5
1E7
330
1F
100
AcDbEntity
  8
0
  6
Continuous
 62
     7
 48
2.25
370
    15
100
AcDbLine
 10
8.1145435186
 20
5.8249446966
 30
0.0
 11
8.191543509
 21
5.8249446966
 31
0.0
  0
LINE
  5
1E8
330
1F
100
AcDbEntity
  8
0
  6
Continuous
 62
     7
 48
2.25
370
    15
100
AcDbLine
 10
13.913543648
 20
2.1029447168
 30
0.0
 11
13.9905436385
 21
2.1029447168
 31
0.0
  0
LINE
  5
1E9
330
1F
100
AcDbEntity
  8
0
  6
Continuous
 62
     7
 48
2.25
370
    15
100
AcDbLine
 10
13.9905436385
 20
5.8249446966
 30
0.0
 11
13.913543648
 21
5.8249446966
 31
0.0
  0
LINE
  5
1EA
330
1F
100
AcDbEntity
  8
0
  6
Continuous
 62
     7
 48
2.25
370
    15
100
AcDbLine
 10
13.9905436385
 20
5.8869446737
 30
0.0
 11
13.9905436385
 21
2.0409447122
 31
0.0
  0
LINE
  5
1EB
330
1F
100
AcDbEntity
  8
0
  6
Continuous
 62
     7
 48
2.25
370
    15
100
AcDbLine
 10
14.0525436156
 20
5.8869446737
 30
0.0
 11
14.0525436156
 21
2.0409447122
 31
0.0
  0
ARC
  5
1EC
330
1F
100
AcDbEntity
  8
0
  6
Continuous
 62
     7
 48
5.0625
370
    15
100
AcDbCircle
 10
13.9755435785
 20
2.0409447125
 30
0.0
 40
0.0150000000000006
100
AcDbArc
 50
270.0
 51
0.0
  0
ARC
  5
1ED
330
1F
100
AcDbEntity
  8
0
  6
Continuous
 62
     7
 48
5.0625
370
    15
100
AcDbCircle
 10
13.9755435785
 20
2.0409447125
 30
0.0
 40
0.077
100
AcDbArc
 50
270.0
 51
0.0
  0
ARC
  5
1EE
330
1F
100
AcDbEntity
  8
0
  6
Continuous
 62
     7
 48
5.0625
370
    15
100
AcDbCircle
 10
8.1295435785
 20
2.0409447125
 30
0.0
 40
0.0770000000000002
100
AcDbArc
 50
180.0
 51
270.0
  0
ARC
  5
1EF
330
1F
100
AcDbEntity
  8
0
  6
Continuous
 62
     7
 48
5.0625
370
    15
100
AcDbCircle
 10
8.1295435785
 20
2.0409447125
 30
0.0
 40
0.0150000000000006
100
AcDbArc
 50
180.0
 51
270.0
  0
LINE
  5
1F0
330
1F
100
AcDbEntity
  8
0
  6
Continuous
 62
     7
 48
2.25
370
    15
100
AcDbLine
 10
8.0525435414
 20
2.0409447122
 30
0.0
 11
8.0525435414
 21
5.8869446737
 31
0.0
  0
LINE
  5
1F1
330
1F
100
AcDbEntity
  8
0
  6
Continuous
 62
     7
 48
2.25
370
    15
100
AcDbLine
 10
8.1145435186
 20
2.0409447122
 30
0.0
 11
8.1145435186
 21
5.8869446737
 31
0.0
  0
LINE
  5
1F2
330
1F
100
AcDbEntity
  8
0
  6
Continuous
 62
     7
 48
2.25
370
    15
100
AcDbLine
 10
13.9755436251
 20
2.0259447126
 30
0.0
 11
8.1295435319
 21
2.0259447126
 31
0.0
  0
LINE
  5
1F3
330
1F
100
AcDbEntity
  8
0
  6
Continuous
 62
     7
 48
2.25
370
    15
100
AcDbLine
 10
13.9755436251
 20
1.9639447125
 30
0.0
 11
8.1295435319
 21
1.9639447125
 31
0.0
  0
ARC
  5
1F4
330
1F
100
AcDbEntity
  8
0
  6
Continuous
 62
     7
 48
5.0625
370
    15
100
AcDbCircle
 10
13.9755435785
 20
5.8869447125
 30
0.0
 40
0.0150000000000006
100
AcDbArc
 50
0.0
 51
90.0
  0
ARC
  5
1F5
330
1F
100
AcDbEntity
  8
0
  6
Continuous
 62
     7
 48
5.0625
370
    15
100
AcDbCircle
 10
13.9755435785
 20
5.8869447125
 30
0.0
 40
0.077
100
AcDbArc
 50
0.0
 51
90.0
  0
ARC
  5
1F6
330
1F
100
AcDbEntity
  8
0
  6
Continuous
 62
     7
 48
5.0625
370
    15
100
AcDbCircle
 10
8.1295435785
 20
5.8869447125
 30
0.0
 40
0.0150000000000006
100
AcDbArc
 50
90.0
 51
180.0
  0
ARC
  5
1F7
330
1F
100
AcDbEntity
  8
0
  6
Continuous
 62
     7
 48
5.0625
370
    15
100
AcDbCircle
 10
8.1295435785
 20
5.8869447125
 30
0.0
 40
0.077
100
AcDbArc
 50
90.0
 51
180.0
  0
LINE
  5
1F8
330
1F
100
AcDbEntity
  8
0
  6
Continuous
 62
     7
 48
2.25
370
    15
100
AcDbLine
 10
8.5525434987
 20
5.9019446871
 30
0.0
 11
8.5525434987
 21
5.9639446642
 31
0.0
  0
LINE
  5
1F9
330
1F
100
AcDbEntity
  8
0
  6
Continuous
 62
     7
 48
2.25
370
    15
100
AcDbLine
 10
8.1295435319
 20
5.9639446642
 30
0.0
 11
8.5525434987
 21
5.9639446642
 31
0.0
  0
LINE
  5
1FA
330
1F
100
AcDbEntity
  8
0
  6
Continuous
 62
     7
 48
2.25
370
    15
100
AcDbLine
 10
8.1295435319
 20
5.9019446871
 30
0.0
 11
8.5525434987
 21
5.9019446871
 31
0.0
  0
LINE
  5
1FB
330
1F
100
AcDbEntity
  8
0
  6
Continuous
 62
     7
 48
2.25
370
    15
100
AcDbLine
 10
13.5525436583
 20
5.9639446642
 30
0.0
 11
13.9755436251
 21
5.9639446642
 31
0.0
  0
LINE
  5
1FC
330
1F
100
AcDbEntity
  8
0
  6
Continuous
 62
     7
 48
2.25
370
    15
100
AcDbLine
 10
13.5525436583
 20
5.9639446642
 30
0.0
 11
13.5525436583
 21
5.9019446871
 31
0.0
  0
LINE
  5
1FD
330
1F
100
AcDbEntity
  8
0
  6
Continuous
 62
     7
 48
2.25
370
    15
100
AcDbLine
 10
13.5525436583
 20
5.9019446871
 30
0.0
 11
13.9755436251
 21
5.9019446871
 31
0.0
  0
ARC
  5
1FE
330
1F
100
AcDbEntity
  8
0
  6
Continuous
 62
     7
 48
5.0625
370
    15
100
AcDbCircle
 10
8.3041572263
 20
6.0079452344
 30
0.0
 40
0.1526363372172352
100
AcDbArc
 50
106.203304
 51
142.9597908311
  0
LINE
  5
1FF
330
1F
100
AcDbEntity
  8
0
  6
Continuous
 62
     7
 48
2.25
370
    15
100
AcDbLine
 10
8.2040757376
 20
6.0998896004
 30
0.0
 11
8.1823209222
 21
6.0998896004
 31
0.0
  0
ARC
  5
200
330
1F
100
AcDbEntity
  8
0
  6
Continuous
 62
     7
 48
5.0625
370
    15
100
AcDbCircle
 10
8.3259119514
 20
6.0079451367
 30
0.0
 40
0.1526363240160425
100
AcDbArc
 50
106.2031554824
 51
142.9597411331
  0
ARC
  5
201
330
1F
100
AcDbEntity
  8
0
  6
Continuous
 62
     7
 48
5.0625
370
    15
100
AcDbCircle
 10
8.3022357406
 20
5.9279152208
 30
0.0
 40
0.2273914198974252
100
AcDbArc
 50
79.6540199808
 51
94.7717855164
  0
ARC
  5
202
330
1F
100
AcDbEntity
  8
0
  6
Continuous
 62
     7
 48
5.0625
370
    15
100
AcDbCircle
 10
8.3594769749
 20
6.1520990341
 30
0.0
 40
0.0164109182072472
100
AcDbArc
 50
168.7296086603
 51
181.7092474289
  0
ARC
  5
203
330
1F
100
AcDbEntity
  8
0
  6
Continuous
 62
     7
 48
5.0625
370
    15
100
AcDbCircle
 10
8.3028549044
 20
5.9279789933
 30
0.0
 40
0.2273275929070644
100
AcDbArc
 50
85.2277091117
 51
90.0783706053
  0
ARC
  5
204
330
1F
100
AcDbEntity
  8
0
  6
Continuous
 62
     7
 48
5.0625
370
    15
100
AcDbCircle
 10
8.3028531458
 20
5.9278966708
 30
0.0
 40
0.2274099471721217
100
AcDbArc
 50
95.0022856491
 51
100.3455255339
  0
LWPOLYLINE
  5
205
330
1F
100
AcDbEntity
  8
0
  6
Continuous
 62
     7
 48
2.25
370
    15
100
AcDbPolyline
 90
        9
 70
   128
 43
0.0
 10
8.262013975
 20
6.1516095363
 10
8.2619582423
 20
6.1528344821
 10
8.2619025096
 20
6.1538147908
 10
8.2618461902
 20
6.1545495823
 10
8.2617901642
 20
6.1550376833
 10
8.2617335515
 20
6.1552788006
 10
8.2616772322
 20
6.1552726406
 10
8.2616209128
 20
6.1550189102
 10
8.2615645935
 20
6.1545184893
  0
LINE
  5
206
330
1F
100
AcDbEntity
  8
0
  6
Continuous
 62
     7
 48
2.25
370
    15
100
AcDbLine
 10
8.2615645935
 20
6.1466290872
 30
0.0
 11
8.2615645935
 21
6.1545184893
 31
0.0
  0
LINE
  5
207
330
1F
100
AcDbEntity
  8
0
  6
Continuous
 62
     7
 48
2.25
370
    15
100
AcDbLine
 10
8.262013975
 20
6.1468379381
 30
0.0
 11
8.262013975
 21
6.1516095363
 31
0.0
  0
LINE
  5
208
330
1F
100
AcDbEntity
  8
0
  6
Continuous
 62
     7
 48
2.25
370
    15
100
AcDbLine
 10
8.3217676313
 20
6.1545184893
 30
0.0
 11
8.3217676313
 21
6.1544662766
 31
0.0
  0
ARC
  5
209
330
1F
100
AcDbEntity
  8
0
  6
Continuous
 62
     7
 48
5.0625
370
    15
100
AcDbCircle
 10
13.7456101822
 20
6.1520990341
 30
0.0
 40
0.0164109182071303
100
AcDbArc
 50
358.290752571
 51
11.2703913397
  0
ARC
  5
20A
330
1F
100
AcDbEntity
  8
0
  6
Continuous
 62
     7
 48
5.0625
370
    15
100
AcDbCircle
 10
13.8028514165
 20
5.9279152208
 30
0.0
 40
0.2273914198974325
100
AcDbArc
 50
85.2282144836
 51
100.3459800192
  0
ARC
  5
20B
330
1F
100
AcDbEntity
  8
0
  6
Continuous
 62
     7
 48
5.0625
370
    15
100
AcDbCircle
 10
13.7791752056
 20
6.0079451367
 30
0.0
 40
0.152636324016045
100
AcDbArc
 50
37.0402588669
 51
73.7968445176
  0
LINE
  5
20C
330
1F
100
AcDbEntity
  8
0
  6
Continuous
 62
     7
 48
2.25
370
    15
100
AcDbLine
 10
13.9227662348
 20
6.0998896004
 30
0.0
 11
13.9010114194
 21
6.0998896004
 31
0.0
  0
ARC
  5
20D
330
1F
100
AcDbEntity
  8
0
  6
Continuous
 62
     7
 48
5.0625
370
    15
100
AcDbCircle
 10
13.8009299307
 20
6.0079452344
 30
0.0
 40
0.1526363372172443
100
AcDbArc
 50
37.0402091689
 51
73.796696
  0
LWPOLYLINE
  5
20E
330
1F
100
AcDbEntity
  8
0
  6
Continuous
 62
     7
 48
2.25
370
    15
100
AcDbPolyline
 90
        9
 70
   128
 43
0.0
 10
13.8435225636
 20
6.1545184893
 10
13.8434662442
 20
6.1550189102
 10
13.8434099249
 20
6.1552726406
 10
13.8433536055
 20
6.1552788006
 10
13.8432969928
 20
6.1550376833
 10
13.8432409668
 20
6.1545495823
 10
13.8431846475
 20
6.1538147908
 10
13.8431289148
 20
6.1528344821
 10
13.8430731821
 20
6.1516095363
  0
ARC
  5
20F
330
1F
100
AcDbEntity
  8
0
  6
Continuous
 62
     7
 48
5.0625
370
    15
100
AcDbCircle
 10
13.8022340113
 20
5.9278966708
 30
0.0
 40
0.2274099471720791
100
AcDbArc
 50
79.6544744661
 51
84.9977143509
  0
ARC
  5
210
330
1F
100
AcDbEntity
  8
0
  6
Continuous
 62
     7
 48
5.0625
370
    15
100
AcDbCircle
 10
13.8022322717
 20
5.9279786445
 30
0.0
 40
0.2273279421189534
100
AcDbArc
 50
89.9215603838
 51
94.7722883568
  0
LINE
  5
211
330
1F
100
AcDbEntity
  8
0
  6
Continuous
 62
     7
 48
2.25
370
    15
100
AcDbLine
 10
13.8435225636
 20
6.1545184893
 30
0.0
 11
13.8435225636
 21
6.1466290872
 31
0.0
  0
LINE
  5
212
330
1F
100
AcDbEntity
  8
0
  6
Continuous
 62
     7
 48
2.25
370
    15
100
AcDbLine
 10
13.8430731821
 20
6.1468379381
 30
0.0
 11
13.8430731821
 21
6.1516095363
 31
0.0
  0
LINE
  5
213
330
1F
100
AcDbEntity
  8
0
  6
Continuous
 62
     7
 48
2.25
370
    15
100
AcDbLine
 10
13.7833195257
 20
6.1544662766
 30
0.0
 11
13.7833195257
 21
6.1545184893
 31
0.0
  0
LINE
  5
214
330
1F
100
AcDbEntity
  8
0
  6
Continuous
 62
     7
 48
2.25
370
    15
100
AcDbLine
 10
30.0799853799
 20
13.9802051572
 30
0.0
 11
35.925985473
 21
13.9802051572
 31
0.0
  0
LINE
  5
215
330
1F
100
AcDbEntity
  8
0
  6
Continuous
 62
     7
 48
2.25
370
    15
100
AcDbLine
 10
30.0799853799
 20
7.9802050831
 30
0.0
 11
35.925985473
 21
7.9802050831
 31
0.0
  0
CIRCLE
  5
216
330
1F
100
AcDbEntity
  8
0
  6
Continuous
 62
     7
 48
5.0625
370
    15
100
AcDbCircle
 10
30.5029854264
 20
12.4802051201
 30
0.0
 40
0.1404999999999959
  0
CIRCLE
  5
217
330
1F
100
AcDbEntity
  8
0
  6
Continuous
 62
     7
 48
5.0625
370
    15
100
AcDbCircle
 10
35.5029854264
 20
12.4802051201
 30
0.0
 40
0.1404999999999959
  0
CIRCLE
  5
218
330
1F
100
AcDbEntity
  8
0
  6
Continuous
 62
     7
 48
5.0625
370
    15
100
AcDbCircle
 10
35.5029854264
 20
9.4802051201
 30
0.0
 40
0.140500000000003
  0
CIRCLE
  5
219
330
1F
100
AcDbEntity
  8
0
  6
Continuous
 62
     7
 48
5.0625
370
    15
100
AcDbCircle
 10
30.5029854264
 20
9.4802051201
 30
0.0
 40
0.1404999999999994
  0
CIRCLE
  5
21A
330
1F
100
AcDbEntity
  8
0
  6
Continuous
 62
     7
 48
5.0625
370
    15
100
AcDbCircle
 10
34.0029854264
 20
11.9802051201
 30
0.0
 40
0.6249999999999982
  0
LINE
  5
21B
330
1F
100
AcDbEntity
  8
0
  6
Continuous
 62
     7
 48
2.25
370
    15
100
AcDbLine
 10
35.925985473
 20
13.9802051572
 30
0.0
 11
36.0029854635
 21
13.9802051572
 31
0.0
  0
LINE
  5
21C
330
1F
100
AcDbEntity
  8
0
  6
Continuous
 62
     7
 48
2.25
370
    15
100
AcDbLine
 10
36.0029854635
 20
13.9802051572
 30
0.0
 11
36.0029854635
 21
7.9802050831
 31
0.0
  0
LINE
  5
21D
330
1F
100
AcDbEntity
  8
0
  6
Continuous
 62
     7
 48
2.25
370
    15
100
AcDbLine
 10
35.925985473
 20
7.9802050831
 30
0.0
 11
36.0029854635
 21
7.9802050831
 31
0.0
  0
LINE
  5
21E
330
1F
100
AcDbEntity
  8
0
  6
Continuous
 62
     7
 48
2.25
370
    15
100
AcDbLine
 10
30.0029853894
 20
13.9802051572
 30
0.0
 11
30.0029853894
 21
7.9802050831
 31
0.0
  0
LINE
  5
21F
330
1F
100
AcDbEntity
  8
0
  6
Continuous
 62
     7
 48
2.25
370
    15
100
AcDbLine
 10
30.0029853894
 20
7.9802050831
 30
0.0
 11
30.0799853799
 21
7.9802050831
 31
0.0
  0
LINE
  5
220
330
1F
100
AcDbEntity
  8
0
  6
Continuous
 62
     7
 48
2.25
370
    15
100
AcDbLine
 10
30.0029853894
 20
13.9802051572
 30
0.0
 11
30.0799853799
 21
13.9802051572
 31
0.0
  0
CIRCLE
  5
221
330
1F
100
AcDbEntity
  8
0
  6
Continuous
 62
     7
 48
5.0625
370
    15
100
AcDbCircle
 10
34.0029854264
 20
11.9802051201
 30
0.0
 40
0.0850000000000009
  0
CIRCLE
  5
222
330
1F
100
AcDbEntity
  8
0
  6
Continuous
 62
     7
 48
5.0625
370
    15
100
AcDbCircle
 10
34.0029854264
 20
11.9802051201
 30
0.0
 40
0.1469999999999985
  0
LINE
  5
223
330
1F
100
AcDbEntity
  8
0
  6
Continuous
 62
     7
 48
2.25
370
    15
100
AcDbLine
 10
35.5029855062
 20
12.620705049
 30
0.0
 11
35.5029855062
 21
12.3397050818
 31
0.0
  0
LINE
  5
224
330
1F
100
AcDbEntity
  8
0
  6
Continuous
 62
     7
 48
2.25
370
    15
100
AcDbLine
 10
35.5029855062
 20
9.6207051585
 30
0.0
 11
35.5029855062
 21
9.3397051913
 31
0.0
  0
LINE
  5
225
330
1F
100
AcDbEntity
  8
0
  6
Continuous
 62
     7
 48
2.25
370
    15
100
AcDbLine
 10
30.5029853467
 20
12.620705049
 30
0.0
 11
30.5029853467
 21
12.3397050818
 31
0.0
  0
LINE
  5
226
330
1F
100
AcDbEntity
  8
0
  6
Continuous
 62
     7
 48
2.25
370
    15
100
AcDbLine
 10
30.5029853467
 20
9.6207051585
 30
0.0
 11
30.5029853467
 21
9.3397051913
 31
0.0
  0
DIMENSION
  5
227
330
1F
100
AcDbEntity
  8
0
  6
Continuous
 62
     7
 48
2.25
370
     0
100
AcDbDimension
  2
*D9
 10
29.2428175953
 20
9.4802051201
 30
0.0
 11
29.2428175953
 21
10.9802051201
 31
0.0
 70
   160
 71
     2
 42
-1.0
  3
SLDDIMSTYLE0
100
AcDbAlignedDimension
 13
30.5029854264
 23
12.4802051201
 33
0.0
 14
30.5029854264
 24
9.4802051201
 34
0.0
 50
90.0
100
AcDbRotatedDimension
  0
DIMENSION
  5
239
330
1F
100
AcDbEntity
  8
0
  6
Continuous
 62
     7
 48
2.25
370
     0
100
AcDbDimension
  2
*D10
 10
35.5029854264
 20
7.2441209691
 30
0.0
 11
33.0029854264
 21
7.2441209691
 31
0.0
 70
   160
 71
     2
 42
-1.0
  3
SLDDIMSTYLE0
100
AcDbAlignedDimension
 13
30.5029854264
 23
9.4802051201
 33
0.0
 14
35.5029854264
 24
9.4802051201
 34
0.0
100
AcDbRotatedDimension
  0
DIMENSION
  5
24B
330
1F
100
AcDbEntity
  8
0
  6
Continuous
 62
     7
 48
2.25
370
     0
100
AcDbDimension
  2
*D11
 10
35.543744439
 20
9.6146631169
 30
0.0
 11
35.532310271
 21
6.2327135271
 31
0.0
 70
   163
  1
<>
 71
     1
 42
-1.0
  3
SLDDIMSTYLE2
100
AcDbDiametricDimension
 15
35.4622264139
 25
9.3457471234
 35
0.0
 40
0.0
  0
DIMENSION
  5
25C
330
1F
100
AcDbEntity
  8
0
  6
Continuous
 62
     7
 48
2.25
370
     0
100
AcDbDimension
  2
*D12
 10
36.7413809284
 20
13.9802051201
 30
0.0
 11
36.7413809284
 21
12.9802051201
 31
0.0
 70
   160
 71
     2
 42
-1.0
  3
SLDDIMSTYLE0
100
AcDbAlignedDimension
 13
34.0029854264
 23
11.9802051201
 33
0.0
 14
36.0029854264
 24
13.9802051201
 34
0.0
 50
90.0
100
AcDbRotatedDimension
  0
DIMENSION
  5
26E
330
1F
100
AcDbEntity
  8
0
  6
Continuous
 62
     7
 48
2.25
370
     0
100
AcDbDimension
  2
*D13
 10
36.0029854264
 20
14.7225158109
 30
0.0
 11
35.0029854264
 21
14.7225158109
 31
0.0
 70
   160
 71
     2
 42
-1.0
  3
SLDDIMSTYLE3
100
AcDbAlignedDimension
 13
34.0029854264
 23
11.9802051201
 33
0.0
 14
36.0029854264
 24
13.9802051201
 34
0.0
100
AcDbRotatedDimension
  0
LINE
  5
281
330
1F
100
AcDbEntity
  8
0
  6
Continuous
 62
     7
 48
2.25
370
    15
100
AcDbLine
 10
33.8760632903
 20
20.9144168758
 30
0.0
 11
30.8415144651
 21
22.6662246243
 31
0.0
  0
LINE
  5
282
330
1F
100
AcDbEntity
  8
0
  6
Continuous
 62
     7
 48
2.25
370
    15
100
AcDbLine
 10
30.7837692494
 20
22.6662245709
 30
0.0
 11
28.8098806804
 21
21.526722955
 31
0.0
  0
LINE
  5
283
330
1F
100
AcDbEntity
  8
0
  6
Continuous
 62
     7
 48
2.25
370
    15
100
AcDbLine
 10
33.9707016075
 20
17.2371240162
 30
0.0
 11
33.9707016075
 21
20.9115577151
 31
0.0
  0
LINE
  5
284
330
1F
100
AcDbEntity
  8
0
  6
Continuous
 62
     7
 48
2.25
370
    15
100
AcDbLine
 10
28.7152422344
 20
21.5238638687
 30
0.0
 11
28.7152422344
 21
21.5100546411
 31
0.0
  0
ARC
  5
285
330
1F
100
AcDbEntity
  8
0
  6
Continuous
 62
     7
 48
5.0625
370
    15
100
AcDbCircle
 10
28.8430089504
 20
19.6211377695
 30
0.0
 40
0.1732684402337247
100
AcDbArc
 50
168.1339525011
 51
205.9042604596
  0
ARC
  5
286
330
1F
100
AcDbEntity
  8
0
  6
Continuous
 62
     7
 48
5.0625
370
    15
100
AcDbCircle
 10
28.8430089504
 20
19.6211377695
 30
0.0
 40
0.1732684402337262
100
AcDbArc
 50
213.5984078164
 51
251.8606709662
  0
SPLINE
  5
287
330
1F
100
AcDbEntity
  8
0
  6
Continuous
 62
     7
 48
2.25
370
    15
100
AcDbSpline
210
0.0
220
0.0
230
1.0
 70
     8
 71
     3
 72
    11
 73
     7
 74
     0
 42
0.00000001
 43
0.00000001
 40
0.0
 40
0.0
 40
0.0
 40
0.0
 40
0.1236972864047934
 40
0.4377610255056948
 40
0.7551101423065434
 40
1.0
 40
1.0
 40
1.0
 40
1.0
 10
28.70122363670697
 20
19.69971460370842
 30
0.0
 10
28.69898997968658
 20
19.69851186884106
 30
0.0
 10
28.69108513378173
 20
19.69425542584016
 30
0.0
 10
28.68171440418401
 20
19.68088031466556
 30
0.0
 10
28.67385943571251
 20
19.66316188300782
 30
0.0
 10
28.67257552765351
 20
19.64926618839716
 30
0.0
 10
28.67201630626167
 20
19.64321375370279
 30
0.0
  0
SPLINE
  5
288
330
1F
100
AcDbEntity
  8
0
  6
Continuous
 62
     7
 48
2.25
370
    15
100
AcDbSpline
210
0.0
220
0.0
230
1.0
 70
     8
 71
     3
 72
    10
 73
     6
 74
     0
 42
0.00000001
 43
0.00000001
 40
0.0
 40
0.0
 40
0.0
 40
0.0
 40
0.2677440456116251
 40
0.7976331050355369
 40
1.0
 40
1.0
 40
1.0
 40
1.0
 10
28.80395082416957
 20
19.4538239804811
 30
0.0
 10
28.80768880674091
 20
19.45315817299252
 30
0.0
 10
28.81882458620571
 20
19.45117467381419
 30
0.0
 10
28.83230820739937
 20
19.45352522419877
 30
0.0
 10
28.84017766331561
 20
19.45878823995053
 30
0.0
 10
28.84235247302428
 20
19.46024273157937
 30
0.0
  0
LINE
  5
289
330
1F
100
AcDbEntity
  8
0
  6
Continuous
 62
     7
 48
2.25
370
    15
100
AcDbLine
 10
28.8432788429
 20
19.4597841473
 30
0.0
 11
28.8609554739
 21
19.4699886491
 31
0.0
  0
LINE
  5
28A
330
1F
100
AcDbEntity
  8
0
  6
Continuous
 62
     7
 48
2.25
370
    15
100
AcDbLine
 10
28.7210918208
 20
19.7122658286
 30
0.0
 11
28.7034151899
 21
19.7020613268
 31
0.0
  0
ARC
  5
28B
330
1F
100
AcDbEntity
  8
0
  6
Continuous
 62
     7
 48
5.0625
370
    15
100
AcDbCircle
 10
31.7598244228
 20
17.9372960389
 30
0.0
 40
0.1732684402337306
100
AcDbArc
 50
168.1339525011
 51
251.8606709662
  0
SPLINE
  5
28C
330
1F
100
AcDbEntity
  8
0
  6
Continuous
 62
     7
 48
2.25
370
    15
100
AcDbSpline
210
0.0
220
0.0
230
1.0
 70
     8
 71
     3
 72
     9
 73
     5
 74
     0
 42
0.00000001
 43
0.00000001
 40
0.0
 40
0.0
 40
0.0
 40
0.0
 40
0.2538172406252281
 40
1.0
 40
1.0
 40
1.0
 40
1.0
 10
31.74904156330992
 20
17.77167172547592
 30
0.0
 10
31.75025578879691
 20
17.77184980874817
 30
0.0
 10
31.75503964620549
 20
17.77255142882651
 30
0.0
 10
31.75876760628189
 20
17.77559281033508
 30
0.0
 10
31.76154934581855
 20
17.77786223678147
 30
0.0
  0
LINE
  5
28D
330
1F
100
AcDbEntity
  8
0
  6
Continuous
 62
     7
 48
2.25
370
    15
100
AcDbLine
 10
31.6196161
 20
18.0178595039
 30
0.0
 11
31.6105289636
 21
18.0110816837
 31
0.0
  0
LINE
  5
28E
330
1F
100
AcDbEntity
  8
0
  6
Continuous
 62
     7
 48
2.25
370
    15
100
AcDbLine
 10
31.7600942217
 20
17.7759424707
 30
0.0
 11
31.7777708527
 21
17.7861469725
 31
0.0
  0
LINE
  5
28F
330
1F
100
AcDbEntity
  8
0
  6
Continuous
 62
     7
 48
2.25
370
    15
100
AcDbLine
 10
31.6379071996
 20
18.028424152
 30
0.0
 11
31.6202305687
 21
18.0182196502
 31
0.0
  0
LINE
  5
290
330
1F
100
AcDbEntity
  8
0
  6
Continuous
 62
     7
 48
2.25
370
    15
100
AcDbLine
 10
31.8733020673
 20
19.6869455944
 30
0.0
 11
31.8404216141
 21
19.6679641128
 31
0.0
  0
LINE
  5
291
330
1F
100
AcDbEntity
  8
0
  6
Continuous
 62
     7
 48
2.25
370
    15
100
AcDbLine
 10
31.8733020673
 20
16.0125118955
 30
0.0
 11
31.8733020673
 21
19.6869455944
 31
0.0
  0
LINE
  5
292
330
1F
100
AcDbEntity
  8
0
  6
Continuous
 62
     7
 48
2.25
370
    15
100
AcDbLine
 10
31.8733020673
 20
16.0125118955
 30
0.0
 11
31.8404216141
 21
15.9935304139
 31
0.0
  0
LINE
  5
293
330
1F
100
AcDbEntity
  8
0
  6
Continuous
 62
     7
 48
2.25
370
    15
100
AcDbLine
 10
31.8404216141
 20
15.9935304139
 30
0.0
 11
31.8404216141
 21
19.6679641128
 31
0.0
  0
LWPOLYLINE
  5
294
330
1F
100
AcDbEntity
  8
0
  6
Continuous
 62
     7
 48
2.25
370
    15
100
AcDbPolyline
 90
       21
 70
   128
 43
0.0
 10
31.7816294049
 20
17.7886350081
 10
31.7914047463
 20
17.7708476673
 10
31.8044552835
 20
17.7397759066
 10
31.8126227392
 20
17.7087513027
 10
31.8154939414
 20
17.6793421256
 10
31.8129240622
 20
17.6530346775
 10
31.8050426845
 20
17.6311587663
 10
31.7922485129
 20
17.6148198813
 10
31.7751879063
 20
17.6048440088
 10
31.7547232987
 20
17.6017352907
 10
31.7318888642
 20
17.6056509391
 10
31.7078390261
 20
17.6163929004
 10
31.6837891881
 20
17.6334182911
 10
31.6609549092
 20
17.6558666297
 10
31.6404903016
 20
17.6826032808
 10
31.6234296949
 20
17.7122769105
 10
31.6106353678
 20
17.7433877214
 10
31.6027541456
 20
17.7743631878
 10
31.6001841109
 20
17.8036378451
 10
31.6030554686
 20
17.8297319129
 10
31.6103315558
 20
17.8496957008
  0
LWPOLYLINE
  5
295
330
1F
100
AcDbEntity
  8
0
  6
Continuous
 62
     7
 48
2.25
370
    15
100
AcDbPolyline
 90
       21
 70
   128
 43
0.0
 10
28.6941616024
 20
19.5347289696
 10
28.6862399343
 20
19.5135736793
 10
28.6833687321
 20
19.4874795217
 10
28.6859386113
 20
19.4582049542
 10
28.693819989
 20
19.427229398
 10
28.7066141606
 20
19.3961186769
 10
28.7236747672
 20
19.3664450472
 10
28.7441393748
 20
19.3397083962
 10
28.7669738093
 20
19.3172599677
 10
28.7910236473
 20
19.300234577
 10
28.8150734853
 20
19.2894926158
 10
28.8379077643
 20
19.2855770571
 10
28.8583723719
 20
19.2886857752
 10
28.8754329785
 20
19.2986616477
 10
28.8882273057
 20
19.3150004429
 10
28.8961085278
 20
19.3368764439
 10
28.8986785626
 20
19.3631838022
 10
28.8958072048
 20
19.3925930691
 10
28.8876399047
 20
19.4236175832
 10
28.8745892119
 20
19.4546894337
 10
28.8648140261
 20
19.4724766848
  0
LINE
  5
296
330
1F
100
AcDbEntity
  8
0
  6
Continuous
 62
     7
 48
2.25
370
    15
100
AcDbLine
 10
31.8404216141
 20
19.6679641128
 30
0.0
 11
28.6584410594
 21
21.5048823871
 31
0.0
  0
LINE
  5
297
330
1F
100
AcDbEntity
  8
0
  6
Continuous
 62
     7
 48
2.25
370
    15
100
AcDbLine
 10
28.6584410594
 20
17.8304486882
 30
0.0
 11
31.8404216141
 21
15.9935304139
 31
0.0
  0
LINE
  5
298
330
1F
100
AcDbEntity
  8
0
  6
Continuous
 62
     7
 48
2.25
370
    15
100
AcDbLine
 10
28.6584410594
 20
21.5048823871
 30
0.0
 11
28.6584410594
 21
17.8304486882
 31
0.0
  0
LINE
  5
299
330
1F
100
AcDbEntity
  8
0
  6
Continuous
 62
     7
 48
2.25
370
    15
100
AcDbLine
 10
28.6913215126
 20
21.5238638687
 30
0.0
 11
28.6584410594
 21
21.5048823871
 31
0.0
  0
LINE
  5
29A
330
1F
100
AcDbEntity
  8
0
  6
Continuous
 62
     7
 48
2.25
370
    15
100
AcDbLine
 10
31.8733020673
 20
19.6869455944
 30
0.0
 11
28.6913215126
 21
21.5238638687
 31
0.0
  0
LWPOLYLINE
  5
29B
330
1F
100
AcDbEntity
  8
0
  6
Continuous
 62
     7
 48
2.25
370
    15
100
AcDbPolyline
 90
       11
 70
   128
 43
0.0
 10
31.7986021192
 20
17.6214571
 10
31.7876037518
 20
17.6207167723
 10
31.7647693173
 20
17.6246324207
 10
31.7407194793
 20
17.635374382
 10
31.7166696413
 20
17.6523997727
 10
31.6938353624
 20
17.6748481113
 10
31.6733707547
 20
17.7015847624
 10
31.6563101481
 20
17.7312583921
 10
31.643515821
 20
17.762369203
 10
31.6356345988
 20
17.7933446694
 10
31.6330875872
 20
17.8191447918
  0
LWPOLYLINE
  5
29C
330
1F
100
AcDbEntity
  8
0
  6
Continuous
 62
     7
 48
2.25
370
    15
100
AcDbPolyline
 90
       11
 70
   128
 43
0.0
 10
28.7162720528
 20
19.5029865583
 10
28.7188190644
 20
19.4771864358
 10
28.7267004421
 20
19.4462108796
 10
28.7394946137
 20
19.4151001585
 10
28.7565552204
 20
19.3854265288
 10
28.777019828
 20
19.3586898777
 10
28.7998542625
 20
19.3362414493
 10
28.8239041005
 20
19.3192160586
 10
28.8479539385
 20
19.3084740973
 10
28.8707882175
 20
19.3045585387
 10
28.8817865848
 20
19.3052988664
  0
ARC
  5
29D
330
1F
100
AcDbEntity
  8
0
  6
Continuous
 62
     7
 48
5.0625
370
    15
100
AcDbCircle
 10
33.8014334408
 20
20.8392935065
 30
0.0
 40
0.0855326827902545
100
AcDbArc
 50
29.2395033234
 51
57.6583006028
  0
ARC
  5
29E
330
1F
100
AcDbEntity
  8
0
  6
Continuous
 62
     7
 48
5.0625
370
    15
100
AcDbCircle
 10
31.8292096655
 20
19.7013692753
 30
0.0
 40
0.0833112833954853
100
AcDbArc
 50
28.856866328
 51
58.0452826149
  0
ARC
  5
29F
330
1F
100
AcDbEntity
  8
0
  6
Continuous
 62
     7
 48
5.0625
370
    15
100
AcDbCircle
 10
31.8647673699
 20
19.7203859131
 30
0.0
 40
0.0161418856230958
100
AcDbArc
 50
29.8378463414
 51
58.0803214377
  0
LINE
  5
2A0
330
1F
100
AcDbEntity
  8
0
  6
Continuous
 62
     7
 48
2.25
370
    15
100
AcDbLine
 10
31.6654126851
 20
19.892068106
 30
0.0
 11
31.8733020673
 21
19.7720561202
 31
0.0
  0
LINE
  5
2A1
330
1F
100
AcDbEntity
  8
0
  6
Continuous
 62
     7
 48
2.25
370
    15
100
AcDbLine
 10
31.6325322319
 20
19.8730866244
 30
0.0
 11
31.6654126851
 21
19.892068106
 31
0.0
  0
LINE
  5
2A2
330
1F
100
AcDbEntity
  8
0
  6
Continuous
 62
     7
 48
2.25
370
    15
100
AcDbLine
 10
29.013762171
 20
21.3848704014
 30
0.0
 11
29.0466426242
 21
21.403851883
 31
0.0
  0
LINE
  5
2A3
330
1F
100
AcDbEntity
  8
0
  6
Continuous
 62
     7
 48
2.25
370
    15
100
AcDbLine
 10
29.0466426242
 20
21.403851883
 30
0.0
 11
28.8387532421
 21
21.5238638687
 31
0.0
  0
LINE
  5
2A4
330
1F
100
AcDbEntity
  8
0
  6
Continuous
 62
     7
 48
2.25
370
    15
100
AcDbLine
 10
31.6654126851
 20
19.8540989723
 30
0.0
 11
31.6654126851
 21
19.892068106
 31
0.0
  0
LINE
  5
2A5
330
1F
100
AcDbEntity
  8
0
  6
Continuous
 62
     7
 48
2.25
370
    15
100
AcDbLine
 10
31.6654126851
 20
19.8540989723
 30
0.0
 11
31.8733020673
 21
19.7340869865
 31
0.0
  0
ARC
  5
2A6
330
1F
100
AcDbEntity
  8
0
  6
Continuous
 62
     7
 48
5.0625
370
    15
100
AcDbCircle
 10
31.6766253839
 20
19.8023988149
 30
0.0
 40
0.0833124988479372
100
AcDbArc
 50
121.9548040165
 51
151.142907376
  0
ARC
  5
2A7
330
1F
100
AcDbEntity
  8
0
  6
Continuous
 62
     7
 48
5.0625
370
    15
100
AcDbCircle
 10
29.057855323
 20
21.3141825918
 30
0.0
 40
0.0833124988480309
100
AcDbArc
 50
121.9548040165
 51
151.142907376
  0
LINE
  5
2A8
330
1F
100
AcDbEntity
  8
0
  6
Continuous
 62
     7
 48
2.25
370
    15
100
AcDbLine
 10
31.6574630158
 20
19.8495097259
 30
0.0
 11
31.6654126851
 21
19.8540989723
 31
0.0
  0
ARC
  5
2A9
330
1F
100
AcDbEntity
  8
0
  6
Continuous
 62
     7
 48
5.0625
370
    15
100
AcDbCircle
 10
30.8295580361
 20
22.6397521233
 30
0.0
 40
0.0290473664889898
100
AcDbArc
 50
65.6934624382
 51
125.6171911235
  0
ARC
  5
2AA
330
1F
100
AcDbEntity
  8
0
  6
Continuous
 62
     7
 48
5.0625
370
    15
100
AcDbCircle
 10
33.8631314979
 20
20.8920145653
 30
0.0
 40
0.0252199642665028
100
AcDbArc
 50
350.786025592
 51
129.2032403734
  0
LINE
  5
2AB
330
1F
100
AcDbEntity
  8
0
  6
Continuous
 62
     7
 48
2.25
370
    15
100
AcDbLine
 10
29.0137568819
 20
21.3848672841
 30
0.0
 11
28.8387532421
 21
21.485894735
 31
0.0
  0
ARC
  5
2AC
330
1F
100
AcDbEntity
  8
0
  6
Continuous
 62
     7
 48
5.0625
370
    15
100
AcDbCircle
 10
28.822812435
 20
21.5043206103
 30
0.0
 40
0.025219997638449
100
AcDbArc
 50
50.7969816331
 51
189.2137701216
  0
ARC
  5
2AD
330
1F
100
AcDbEntity
  8
0
  6
Continuous
 62
     7
 48
5.0625
370
    15
100
AcDbCircle
 10
30.7957257103
 20
22.6397524983
 30
0.0
 40
0.0290469892825961
100
AcDbArc
 50
54.3825773881
 51
114.3069426708
  0
ARC
  5
2AE
330
1F
100
AcDbEntity
  8
0
  6
Continuous
 62
     7
 48
5.0625
370
    15
100
AcDbCircle
 10
28.8356479681
 20
21.4820874623
 30
0.0
 40
0.0049130491760994
100
AcDbArc
 50
50.7987516706
 51
189.2120000843
  0
ARC
  5
2AF
330
1F
100
AcDbEntity
  8
0
  6
Continuous
 62
     7
 48
5.0625
370
    15
100
AcDbCircle
 10
31.8733020673
 20
19.7893314096
 30
0.0
 40
0.0887629850833687
100
AcDbArc
 50
242.6096658368
 51
297.3903341632
  0
ARC
  5
2B0
330
1F
100
AcDbEntity
  8
0
  6
Continuous
 62
     7
 48
5.0625
370
    15
100
AcDbCircle
 10
31.8749653991
 20
16.1096335261
 30
0.0
 40
0.0833290942871258
100
AcDbArc
 50
268.8562431495
 51
298.0400654243
  0
ARC
  5
2B1
330
1F
100
AcDbEntity
  8
0
  6
Continuous
 62
     7
 48
5.0625
370
    15
100
AcDbCircle
 10
31.8733020673
 20
19.7448540834
 30
0.0
 40
0.0172917007365849
100
AcDbArc
 50
242.6099964481
 51
297.3900035519
  0
LINE
  5
2B2
330
1F
100
AcDbEntity
  8
0
  6
Continuous
 62
     7
 48
2.25
370
    15
100
AcDbLine
 10
31.608137047
 20
19.8400221023
 30
0.0
 11
31.8324666557
 21
19.7105193758
 31
0.0
  0
LINE
  5
2B3
330
1F
100
AcDbEntity
  8
0
  6
Continuous
 62
     7
 48
2.25
370
    15
100
AcDbLine
 10
31.9141374788
 20
19.7105193758
 30
0.0
 11
33.9537869687
 21
20.8879839632
 31
0.0
  0
LINE
  5
2B4
330
1F
100
AcDbEntity
  8
0
  6
Continuous
 62
     7
 48
2.25
370
    15
100
AcDbLine
 10
31.9141374788
 20
16.0360856769
 30
0.0
 11
33.9537869687
 21
17.2135502643
 31
0.0
  0
LINE
  5
2B5
330
1F
100
AcDbEntity
  8
0
  6
Continuous
 62
     7
 48
2.25
370
    15
100
AcDbLine
 10
31.8812570256
 20
19.7295008573
 30
0.0
 11
33.9209065156
 21
20.9069654448
 31
0.0
  0
LINE
  5
2B6
330
1F
100
AcDbEntity
  8
0
  6
Continuous
 62
     7
 48
2.25
370
    15
100
AcDbLine
 10
31.608137047
 20
19.8400221023
 30
0.0
 11
31.6410175001
 21
19.8590035839
 31
0.0
  0
LINE
  5
2B7
330
1F
100
AcDbEntity
  8
0
  6
Continuous
 62
     7
 48
2.25
370
    15
100
AcDbLine
 10
31.6410175001
 20
19.8590035839
 30
0.0
 11
31.8653471089
 21
19.7295008573
 31
0.0
  0
ARC
  5
2B8
330
1F
100
AcDbEntity
  8
0
  6
Continuous
 62
     7
 48
5.0625
370
    15
100
AcDbCircle
 10
33.9191634891
 20
20.9115577411
 30
0.0
 40
0.0049119574335682
100
AcDbArc
 50
290.7844800945
 51
69.2156108835
  0
ARC
  5
2B9
330
1F
100
AcDbEntity
  8
0
  6
Continuous
 62
     7
 48
5.0625
370
    15
100
AcDbCircle
 10
33.9448399112
 20
20.9115577469
 30
0.0
 40
0.0252145417014052
100
AcDbArc
 50
290.7834673854
 51
69.2165207993
  0
ARC
  5
2BA
330
1F
100
AcDbEntity
  8
0
  6
Continuous
 62
     7
 48
5.0625
370
    15
100
AcDbCircle
 10
33.941799754
 20
17.2400065026
 30
0.0
 40
0.0290452381637555
100
AcDbArc
 50
294.3750882444
 51
354.3045186968
  0
LINE
  5
2BB
330
1F
100
AcDbEntity
  8
0
  6
Continuous
 62
     7
 48
2.25
370
    15
100
AcDbLine
 10
33.9209065083
 20
20.9161500401
 30
0.0
 11
30.8205967767
 21
22.7059207517
 31
0.0
  0
LINE
  5
2BC
330
1F
100
AcDbEntity
  8
0
  6
Continuous
 62
     7
 48
2.25
370
    15
100
AcDbLine
 10
33.9537869736
 20
20.9351315287
 30
0.0
 11
30.8534772421
 21
22.7249022404
 31
0.0
  0
LINE
  5
2BD
330
1F
100
AcDbEntity
  8
0
  6
Continuous
 62
     7
 48
2.25
370
    15
100
AcDbLine
 10
28.7321569242
 20
21.5002900874
 30
0.0
 11
28.9564865329
 21
21.3707873608
 31
0.0
  0
LINE
  5
2BE
330
1F
100
AcDbEntity
  8
0
  6
Continuous
 62
     7
 48
2.25
370
    15
100
AcDbLine
 10
28.9893669861
 20
21.3897688424
 30
0.0
 11
28.9564865329
 21
21.3707873608
 31
0.0
  0
LINE
  5
2BF
330
1F
100
AcDbEntity
  8
0
  6
Continuous
 62
     7
 48
2.25
370
    15
100
AcDbLine
 10
28.9893669861
 20
21.3897688424
 30
0.0
 11
28.9893669861
 21
21.3614478272
 31
0.0
  0
LINE
  5
2C0
330
1F
100
AcDbEntity
  8
0
  6
Continuous
 62
     7
 48
2.25
370
    15
100
AcDbLine
 10
28.7650373773
 20
21.519271569
 30
0.0
 11
28.9893669861
 21
21.3897688424
 31
0.0
  0
ARC
  5
2C1
330
1F
100
AcDbEntity
  8
0
  6
Continuous
 62
     7
 48
5.0625
370
    15
100
AcDbCircle
 10
28.7411039478
 20
21.5238638687
 30
0.0
 40
0.0252145274976167
100
AcDbArc
 50
110.7833972384
 51
249.2166027616
  0
ARC
  5
2C2
330
1F
100
AcDbEntity
  8
0
  6
Continuous
 62
     7
 48
5.0625
370
    15
100
AcDbCircle
 10
28.7667803733
 20
21.5238638687
 30
0.0
 40
0.0049119498827006
100
AcDbArc
 50
110.7841333603
 51
249.2158666397
  0
LINE
  5
2C3
330
1F
100
AcDbEntity
  8
0
  6
Continuous
 62
     7
 48
2.25
370
    15
100
AcDbLine
 10
30.8046868673
 20
22.705920756
 30
0.0
 11
28.7650373773
 21
21.5284561685
 31
0.0
  0
LINE
  5
2C4
330
1F
100
AcDbEntity
  8
0
  6
Continuous
 62
     7
 48
2.25
370
    15
100
AcDbLine
 10
30.7718064141
 20
22.7249022375
 30
0.0
 11
28.7321569242
 21
21.5474376501
 31
0.0
  0
ARC
  5
2C5
330
1F
100
AcDbEntity
  8
0
  6
Continuous
 62
     7
 48
5.0625
370
    15
100
AcDbCircle
 10
30.8126418179
 20
22.6905673874
 30
0.0
 40
0.0172918236889981
100
AcDbArc
 50
62.6102059791
 51
117.3897637014
  0
ARC
  5
2C6
330
1F
100
AcDbEntity
  8
0
  6
Continuous
 62
     7
 48
5.0625
370
    15
100
AcDbCircle
 10
30.8126418308
 20
22.6460900923
 30
0.0
 40
0.0887630863602647
100
AcDbArc
 50
62.6096999108
 51
117.3903040268
  0
ARC
  5
2C7
330
1F
100
AcDbEntity
  8
0
  6
Continuous
 62
     7
 48
5.0625
370
    15
100
AcDbCircle
 10
28.6195396098
 20
19.6885028507
 30
0.0
 40
0.1582323318216565
100
AcDbArc
 50
295.295281238
 51
301.0292990967
  0
ARC
  5
2C8
330
1F
100
AcDbEntity
  8
0
  6
Continuous
 62
     7
 48
5.0625
370
    15
100
AcDbCircle
 10
28.8671621318
 20
19.6350793574
 30
0.0
 40
0.1999986262828495
100
AcDbArc
 50
206.4191050795
 51
213.0834014671
  0
LWPOLYLINE
  5
2C9
330
1F
100
AcDbEntity
  8
0
  6
Continuous
 62
     7
 48
2.25
370
    15
100
AcDbPolyline
 90
        9
 70
   128
 43
0.0
 10
28.6995879055
 20
19.5259082569
 10
28.6988161639
 20
19.5253851939
 10
28.6987385386
 20
19.5252585595
 10
28.6993551852
 20
19.5255288774
 10
28.7006631479
 20
19.5261949251
 10
28.702656671
 20
19.5272537124
 10
28.7053265764
 20
19.5287002364
 10
28.7086599524
 20
19.5305277935
 10
28.7126420207
 20
19.5327279234
  0
ARC
  5
2CA
330
1F
100
AcDbEntity
  8
0
  6
Continuous
 62
     7
 48
5.0625
370
    15
100
AcDbCircle
 10
28.8098899884
 20
19.6754622764
 30
0.0
 40
0.1727143965092419
100
AcDbArc
 50
235.7325585665
 51
248.2444650944
  0
ARC
  5
2CB
330
1F
100
AcDbEntity
  8
0
  6
Continuous
 62
     7
 48
5.0625
370
    15
100
AcDbCircle
 10
28.8922890108
 20
19.5382268089
 30
0.0
 40
0.1482382124672068
100
AcDbArc
 50
175.2062084107
 51
188.99513388
  0
ARC
  5
2CC
330
1F
100
AcDbEntity
  8
0
  6
Continuous
 62
     7
 48
5.0625
370
    15
100
AcDbCircle
 10
19.5139726383
 20
35.9073538773
 30
0.0
 40
18.78155532591044
100
AcDbArc
 50
299.4373363494
 51
299.6863361206
  0
ARC
  5
2CD
330
1F
100
AcDbEntity
  8
0
  6
Continuous
 62
     7
 48
5.0625
370
    15
100
AcDbCircle
 10
28.6364588838
 20
19.5018997634
 30
0.0
 40
0.1999941621706126
100
AcDbArc
 50
26.4192313624
 51
33.0837212003
  0
ARC
  5
2CE
330
1F
100
AcDbEntity
  8
0
  6
Continuous
 62
     7
 48
5.0625
370
    15
100
AcDbCircle
 10
19.4947383963
 20
35.9410375244
 30
0.0
 40
18.79709411753889
100
AcDbArc
 50
299.4375468311
 51
299.6863404834
  0
ARC
  5
2CF
330
1F
100
AcDbEntity
  8
0
  6
Continuous
 62
     7
 48
5.0625
370
    15
100
AcDbCircle
 10
28.798552117
 20
19.7053844605
 30
0.0
 40
0.1496858257555047
100
AcDbArc
 50
230.2741398113
 51
244.0417046171
  0
ARC
  5
2D0
330
1F
100
AcDbEntity
  8
0
  6
Continuous
 62
     7
 48
5.0625
370
    15
100
AcDbCircle
 10
28.8725772691
 20
19.5634512513
 30
0.0
 40
0.1717961606139059
100
AcDbArc
 50
171.0225123145
 51
183.5168354165
  0
LINE
  5
2D1
330
1F
100
AcDbEntity
  8
0
  6
Continuous
 62
     7
 48
2.25
370
    15
100
AcDbLine
 10
28.7735406907
 20
19.5673398569
 30
0.0
 11
28.7445693473
 21
19.5506150564
 31
0.0
  0
LINE
  5
2D2
330
1F
100
AcDbEntity
  8
0
  6
Continuous
 62
     7
 48
2.25
370
    15
100
AcDbLine
 10
28.8155661492
 20
19.590884326
 30
0.0
 11
28.7735406907
 21
19.5673398569
 31
0.0
  0
LINE
  5
2D3
330
1F
100
AcDbEntity
  8
0
  6
Continuous
 62
     7
 48
2.25
370
    15
100
AcDbLine
 10
28.7034151899
 20
19.7020613268
 30
0.0
 11
28.7011721458
 21
19.7006806179
 31
0.0
  0
LWPOLYLINE
  5
2D4
330
1F
100
AcDbEntity
  8
0
  6
Continuous
 62
     7
 48
2.25
370
    15
100
AcDbPolyline
 90
       15
 70
   128
 43
0.0
 10
28.8609554739
 20
19.4699886491
 10
28.8684205685
 20
19.475335428
 10
28.8809087502
 20
19.4915813896
 10
28.8881733258
 20
19.5136124842
 10
28.8897917897
 20
19.5401485258
 10
28.8856703381
 20
19.56964719
 10
28.876048225
 20
19.6003942756
 10
28.8614848503
 20
19.6306027671
 10
28.8428264695
 20
19.6585171132
 10
28.8211575032
 20
19.6825149968
 10
28.797737379
 20
19.701201695
 10
28.7739269504
 20
19.7134913405
 10
28.7511100944
 20
19.7186696471
 10
28.7306129743
 20
19.7164355837
 10
28.7210918208
 20
19.7122658286
  0
LINE
  5
2D5
330
1F
100
AcDbEntity
  8
0
  6
Continuous
 62
     7
 48
2.25
370
    15
100
AcDbLine
 10
28.7735406907
 20
19.5673398569
 30
0.0
 11
28.7736281164
 21
19.5807131274
 31
0.0
  0
LINE
  5
2D6
330
1F
100
AcDbEntity
  8
0
  6
Continuous
 62
     7
 48
2.25
370
    15
100
AcDbLine
 10
28.7736281164
 20
19.5807131274
 30
0.0
 11
28.7623002693
 21
19.587350883
 31
0.0
  0
LINE
  5
2D7
330
1F
100
AcDbEntity
  8
0
  6
Continuous
 62
     7
 48
2.25
370
    15
100
AcDbLine
 10
28.7444145635
 20
19.5483941774
 30
0.0
 11
28.7304897695
 21
19.5565536602
 31
0.0
  0
LINE
  5
2D8
330
1F
100
AcDbEntity
  8
0
  6
Continuous
 62
     7
 48
2.25
370
    15
100
AcDbLine
 10
28.7304897695
 20
19.5565536602
 30
0.0
 11
28.7305908846
 21
19.5720349135
 31
0.0
  0
LINE
  5
2D9
330
1F
100
AcDbEntity
  8
0
  6
Continuous
 62
     7
 48
2.25
370
    15
100
AcDbLine
 10
28.7304897695
 20
19.5565536602
 30
0.0
 11
28.7299887053
 21
19.556264402
 31
0.0
  0
LINE
  5
2DA
330
1F
100
AcDbEntity
  8
0
  6
Continuous
 62
     7
 48
2.25
370
    15
100
AcDbLine
 10
28.7300759754
 20
19.5696377623
 30
0.0
 11
28.7299887053
 21
19.556264402
 31
0.0
  0
LINE
  5
2DB
330
1F
100
AcDbEntity
  8
0
  6
Continuous
 62
     7
 48
2.25
370
    15
100
AcDbLine
 10
28.7300759754
 20
19.5696377623
 30
0.0
 11
28.701104632
 21
19.5529129617
 31
0.0
  0
LINE
  5
2DC
330
1F
100
AcDbEntity
  8
0
  6
Continuous
 62
     7
 48
2.25
370
    15
100
AcDbLine
 10
28.7126420207
 20
19.5327279234
 30
0.0
 11
28.741613364
 21
19.5494527239
 31
0.0
  0
LINE
  5
2DD
330
1F
100
AcDbEntity
  8
0
  6
Continuous
 62
     7
 48
2.25
370
    15
100
AcDbLine
 10
28.7299887053
 20
19.556264402
 30
0.0
 11
28.741613364
 21
19.5494527239
 31
0.0
  0
LINE
  5
2DE
330
1F
100
AcDbEntity
  8
0
  6
Continuous
 62
     7
 48
2.25
370
    15
100
AcDbLine
 10
28.741613364
 20
19.5494527239
 30
0.0
 11
28.6995879055
 21
19.5259082569
 31
0.0
  0
ARC
  5
2DF
330
1F
100
AcDbEntity
  8
0
  6
Continuous
 62
     7
 48
5.0625
370
    15
100
AcDbCircle
 10
31.8052035941
 20
17.9699223379
 30
0.0
 40
0.1896185027359295
100
AcDbArc
 50
174.6749616263
 51
202.0523865982
  0
ARC
  5
2E0
330
1F
100
AcDbEntity
  8
0
  6
Continuous
 62
     7
 48
5.0625
370
    15
100
AcDbCircle
 10
31.6301778805
 20
17.9512399172
 30
0.0
 40
0.0388069702250419
100
AcDbArc
 50
110.7902323868
 51
130.7114245553
  0
ARC
  5
2E1
330
1F
100
AcDbEntity
  8
0
  6
Continuous
 62
     7
 48
5.0625
370
    15
100
AcDbCircle
 10
31.7936658472
 20
17.9630582686
 30
0.0
 40
0.1896181292451772
100
AcDbArc
 50
174.6750062039
 51
202.0525214676
  0
ARC
  5
2E2
330
1F
100
AcDbEntity
  8
0
  6
Continuous
 62
     7
 48
5.0625
370
    15
100
AcDbCircle
 10
31.7672537659
 20
17.8813207446
 30
0.0
 40
0.1497053904440815
100
AcDbArc
 50
175.9611455107
 51
189.7281113375
  0
ARC
  5
2E3
330
1F
100
AcDbEntity
  8
0
  6
Continuous
 62
     7
 48
5.0625
370
    15
100
AcDbCircle
 10
31.7129675089
 20
17.9712308942
 30
0.0
 40
0.1482266170229218
100
AcDbArc
 50
231.0077390794
 51
244.7965003901
  0
ARC
  5
2E4
330
1F
100
AcDbEntity
  8
0
  6
Continuous
 62
     7
 48
5.0625
370
    15
100
AcDbCircle
 10
31.7996625856
 20
17.9561006164
 30
0.0
 40
0.1913166703607967
100
AcDbArc
 50
218.4571125235
 51
245.6708392971
  0
ARC
  5
2E5
330
1F
100
AcDbEntity
  8
0
  6
Continuous
 62
     7
 48
5.0625
370
    15
100
AcDbCircle
 10
31.7070689386
 20
17.8180547498
 30
0.0
 40
0.0388078380973059
100
AcDbArc
 50
290.7911920443
 51
310.7118025975
  0
ARC
  5
2E6
330
1F
100
AcDbEntity
  8
0
  6
Continuous
 62
     7
 48
5.0625
370
    15
100
AcDbCircle
 10
31.8111995519
 20
17.9629643822
 30
0.0
 40
0.1913160366602942
100
AcDbArc
 50
218.4570769481
 51
245.6708411782
  0
ARC
  5
2E7
330
1F
100
AcDbEntity
  8
0
  6
Continuous
 62
     7
 48
5.0625
370
    15
100
AcDbCircle
 10
31.833620751
 20
17.8568413539
 30
0.0
 40
0.1727154326625326
100
AcDbArc
 50
171.7579033751
 51
184.2706660531
  0
ARC
  5
2E8
330
1F
100
AcDbEntity
  8
0
  6
Continuous
 62
     7
 48
5.0625
370
    15
100
AcDbCircle
 10
31.7243039528
 20
18.0419478276
 30
0.0
 40
0.1717772436064474
100
AcDbArc
 50
236.4854633443
 51
248.9802670813
  0
ARC
  5
2E9
330
1F
100
AcDbEntity
  8
0
  6
Continuous
 62
     7
 48
5.0625
370
    15
100
AcDbCircle
 10
31.6536304497
 20
17.9616345356
 30
0.0
 40
0.06436957583127
100
AcDbArc
 50
134.6314111911
 51
169.8987062585
  0
ARC
  5
2EA
330
1F
100
AcDbEntity
  8
0
  6
Continuous
 62
     7
 48
5.0625
370
    15
100
AcDbCircle
 10
31.7277735557
 20
17.8326528276
 30
0.0
 40
0.0638825455565389
100
AcDbArc
 50
249.9585071409
 51
285.5281082491
  0
LWPOLYLINE
  5
2EB
330
1F
100
AcDbEntity
  8
0
  6
Continuous
 62
     7
 48
2.25
370
    15
100
AcDbPolyline
 90
        3
 70
   128
 43
0.0
 10
31.7600942217
 20
17.7759424707
 10
31.7606235982
 20
17.7762527589
 10
31.7617089521
 20
17.7769186849
  0
LWPOLYLINE
  5
2EC
330
1F
100
AcDbEntity
  8
0
  6
Continuous
 62
     7
 48
2.25
370
    15
100
AcDbPolyline
 90
       15
 70
   128
 43
0.0
 10
31.7777708527
 20
17.7861469725
 10
31.7783002291
 20
17.7864572607
 10
31.7928636039
 20
17.7998512376
 10
31.8024857169
 20
17.8194888679
 10
31.806607324
 20
17.8442289157
 10
31.8049887046
 20
17.8726336857
 10
31.7977242846
 20
17.903052191
 10
31.7852359473
 20
17.93371679
 10
31.7682496991
 20
17.9628452287
 10
31.7477525791
 20
17.9887447631
 10
31.7249357231
 20
18.0099102377
 10
31.7011252945
 20
18.0251115279
 10
31.6777051702
 20
18.0334651297
 10
31.656036204
 20
18.0344857019
 10
31.6373778232
 20
18.0281138638
  0
LINE
  5
2ED
330
1F
100
AcDbEntity
  8
0
  6
Continuous
 62
     7
 48
2.25
370
    15
100
AcDbLine
 10
31.6610826253
 20
17.8644992078
 30
0.0
 11
31.6476307389
 21
17.8721480525
 31
0.0
  0
LINE
  5
2EE
330
1F
100
AcDbEntity
  8
0
  6
Continuous
 62
     7
 48
2.25
370
    15
100
AcDbLine
 10
31.6476307389
 20
17.8721480525
 30
0.0
 11
31.6475260459
 21
17.8882943486
 31
0.0
  0
LINE
  5
2EF
330
1F
100
AcDbEntity
  8
0
  6
Continuous
 62
     7
 48
2.25
370
    15
100
AcDbLine
 10
31.6476307389
 20
17.8721480525
 30
0.0
 11
31.6197010367
 21
17.8560245786
 31
0.0
  0
LINE
  5
2F0
330
1F
100
AcDbEntity
  8
0
  6
Continuous
 62
     7
 48
2.25
370
    15
100
AcDbLine
 10
31.6614971973
 20
17.8438405274
 30
0.0
 11
31.6498474931
 21
17.8371152963
 31
0.0
  0
LINE
  5
2F1
330
1F
100
AcDbEntity
  8
0
  6
Continuous
 62
     7
 48
2.25
370
    15
100
AcDbLine
 10
31.6179201664
 20
17.8918649361
 30
0.0
 11
31.6296207393
 21
17.898619533
 31
0.0
  0
LINE
  5
2F2
330
1F
100
AcDbEntity
  8
0
  6
Continuous
 62
     7
 48
2.25
370
    15
100
AcDbLine
 10
31.7208442949
 20
17.7817740682
 30
0.0
 11
31.7098603948
 21
17.8006093815
 31
0.0
  0
LINE
  5
2F3
330
1F
100
AcDbEntity
  8
0
  6
Continuous
 62
     7
 48
2.25
370
    15
100
AcDbLine
 10
31.6156719888
 20
17.9621256432
 30
0.0
 11
31.6048660512
 21
17.9806557673
 31
0.0
  0
LINE
  5
2F4
330
1F
100
AcDbEntity
  8
0
  6
Continuous
 62
     7
 48
2.25
370
    15
100
AcDbLine
 10
16.7884119779
 20
13.9032051667
 30
0.0
 11
16.7884119779
 21
13.4802051999
 31
0.0
  0
LINE
  5
2F5
330
1F
100
AcDbEntity
  8
0
  6
Continuous
 62
     7
 48
2.25
370
    15
100
AcDbLine
 10
21.7264121604
 20
13.4802051999
 30
0.0
 11
16.7884119779
 21
13.4802051999
 31
0.0
  0
LINE
  5
2F6
330
1F
100
AcDbEntity
  8
0
  6
Continuous
 62
     7
 48
2.25
370
    15
100
AcDbLine
 10
21.7264121604
 20
13.9032051667
 30
0.0
 11
21.7264121604
 21
13.4802051999
 31
0.0
  0
LINE
  5
2F7
330
1F
100
AcDbEntity
  8
0
  6
Continuous
 62
     7
 48
2.25
370
    15
100
AcDbLine
 10
21.7264121604
 20
13.9802051572
 30
0.0
 11
21.7264121604
 21
13.9032051667
 31
0.0
  0
LINE
  5
2F8
330
1F
100
AcDbEntity
  8
0
  6
Continuous
 62
     7
 48
2.25
370
    15
100
AcDbLine
 10
16.7884119779
 20
13.9802051572
 30
0.0
 11
16.7884119779
 21
13.9032051667
 31
0.0
  0
LINE
  5
2F9
330
1F
100
AcDbEntity
  8
0
  6
Continuous
 62
     7
 48
2.25
370
    15
100
AcDbLine
 10
16.7884119779
 20
13.9802051572
 30
0.0
 11
21.7264121604
 21
13.9802051572
 31
0.0
  0
LINE
  5
2FA
330
1F
100
AcDbEntity
  8
0
  6
Continuous
 62
     7
 48
2.25
370
    15
100
AcDbLine
 10
16.7884119779
 20
13.9182051801
 30
0.0
 11
16.7574119894
 21
13.9182051801
 31
0.0
  0
LINE
  5
2FB
330
1F
100
AcDbEntity
  8
0
  6
Continuous
 62
     7
 48
2.25
370
    15
100
AcDbLine
 10
16.7884119779
 20
13.9802051572
 30
0.0
 11
16.7574119894
 21
13.9802051572
 31
0.0
  0
LINE
  5
2FC
330
1F
100
AcDbEntity
  8
0
  6
Continuous
 62
     7
 48
2.25
370
    15
100
AcDbLine
 10
21.7264121604
 20
13.9182051801
 30
0.0
 11
21.7574121489
 21
13.9182051801
 31
0.0
  0
LINE
  5
2FD
330
1F
100
AcDbEntity
  8
0
  6
Continuous
 62
     7
 48
2.25
370
    15
100
AcDbLine
 10
21.7264121604
 20
13.9802051572
 30
0.0
 11
21.7574121489
 21
13.9802051572
 31
0.0
  0
LINE
  5
2FE
330
1F
100
AcDbEntity
  8
0
  6
Continuous
 62
     7
 48
2.25
370
    15
100
AcDbLine
 10
16.7574119894
 20
13.542205177
 30
0.0
 11
16.7884119779
 21
13.542205177
 31
0.0
  0
LINE
  5
2FF
330
1F
100
AcDbEntity
  8
0
  6
Continuous
 62
     7
 48
2.25
370
    15
100
AcDbLine
 10
21.7264121604
 20
13.542205177
 30
0.0
 11
21.7574121489
 21
13.542205177
 31
0.0
  0
LINE
  5
300
330
1F
100
AcDbEntity
  8
0
  6
Continuous
 62
     7
 48
2.25
370
    15
100
AcDbLine
 10
21.7264121604
 20
8.0572050736
 30
0.0
 11
21.7264121604
 21
8.4802050404
 31
0.0
  0
LINE
  5
301
330
1F
100
AcDbEntity
  8
0
  6
Continuous
 62
     7
 48
2.25
370
    15
100
AcDbLine
 10
16.7884119779
 20
8.4802050404
 30
0.0
 11
21.7264121604
 21
8.4802050404
 31
0.0
  0
LINE
  5
302
330
1F
100
AcDbEntity
  8
0
  6
Continuous
 62
     7
 48
2.25
370
    15
100
AcDbLine
 10
16.7884119779
 20
8.0572050736
 30
0.0
 11
16.7884119779
 21
8.4802050404
 31
0.0
  0
LINE
  5
303
330
1F
100
AcDbEntity
  8
0
  6
Continuous
 62
     7
 48
2.25
370
    15
100
AcDbLine
 10
16.7884119779
 20
7.9802050831
 30
0.0
 11
16.7884119779
 21
8.0572050736
 31
0.0
  0
LINE
  5
304
330
1F
100
AcDbEntity
  8
0
  6
Continuous
 62
     7
 48
2.25
370
    15
100
AcDbLine
 10
21.7264121604
 20
7.9802050831
 30
0.0
 11
21.7264121604
 21
8.0572050736
 31
0.0
  0
LINE
  5
305
330
1F
100
AcDbEntity
  8
0
  6
Continuous
 62
     7
 48
2.25
370
    15
100
AcDbLine
 10
21.7264121604
 20
7.9802050831
 30
0.0
 11
16.7884119779
 21
7.9802050831
 31
0.0
  0
LINE
  5
306
330
1F
100
AcDbEntity
  8
0
  6
Continuous
 62
     7
 48
2.25
370
    15
100
AcDbLine
 10
16.7884119779
 20
8.0422050602
 30
0.0
 11
16.7574119894
 21
8.0422050602
 31
0.0
  0
LINE
  5
307
330
1F
100
AcDbEntity
  8
0
  6
Continuous
 62
     7
 48
2.25
370
    15
100
AcDbLine
 10
16.7884119779
 20
7.9802050831
 30
0.0
 11
16.7574119894
 21
7.9802050831
 31
0.0
  0
LINE
  5
308
330
1F
100
AcDbEntity
  8
0
  6
Continuous
 62
     7
 48
2.25
370
    15
100
AcDbLine
 10
21.7264121604
 20
8.0422050602
 30
0.0
 11
21.7574121489
 21
8.0422050602
 31
0.0
  0
LINE
  5
309
330
1F
100
AcDbEntity
  8
0
  6
Continuous
 62
     7
 48
2.25
370
    15
100
AcDbLine
 10
21.7264121604
 20
7.9802050831
 30
0.0
 11
21.7574121489
 21
7.9802050831
 31
0.0
  0
LINE
  5
30A
330
1F
100
AcDbEntity
  8
0
  6
Continuous
 62
     7
 48
2.25
370
    15
100
AcDbLine
 10
21.7574121489
 20
8.4182050633
 30
0.0
 11
21.7264121604
 21
8.4182050633
 31
0.0
  0
LINE
  5
30B
330
1F
100
AcDbEntity
  8
0
  6
Continuous
 62
     7
 48
2.25
370
    15
100
AcDbLine
 10
16.7884119779
 20
8.4182050633
 30
0.0
 11
16.7574119894
 21
8.4182050633
 31
0.0
  0
LINE
  5
30C
330
1F
100
AcDbEntity
  8
0
  6
Continuous
 62
     7
 48
2.25
370
    15
100
AcDbLine
 10
16.3344120226
 20
13.9802051572
 30
0.0
 11
16.7574119894
 21
13.9802051572
 31
0.0
  0
LINE
  5
30D
330
1F
100
AcDbEntity
  8
0
  6
Continuous
 62
     7
 48
2.25
370
    15
100
AcDbLine
 10
16.7574119894
 20
13.9802051572
 30
0.0
 11
16.7574119894
 21
7.9802050831
 31
0.0
  0
LINE
  5
30E
330
1F
100
AcDbEntity
  8
0
  6
Continuous
 62
     7
 48
2.25
370
    15
100
AcDbLine
 10
16.3344120226
 20
7.9802050831
 30
0.0
 11
16.7574119894
 21
7.9802050831
 31
0.0
  0
CIRCLE
  5
30F
330
1F
100
AcDbEntity
  8
0
  6
Continuous
 62
     7
 48
5.0625
370
    15
100
AcDbCircle
 10
16.5074120692
 20
10.9802051201
 30
0.0
 40
0.0850000000000009
  0
LINE
  5
310
330
1F
100
AcDbEntity
  8
0
  6
Continuous
 62
     7
 48
2.25
370
    15
100
AcDbLine
 10
21.7574121489
 20
13.9802051572
 30
0.0
 11
21.7574121489
 21
7.9802050831
 31
0.0
  0
LINE
  5
311
330
1F
100
AcDbEntity
  8
0
  6
Continuous
 62
     7
 48
2.25
370
    15
100
AcDbLine
 10
21.7574121489
 20
13.9802051572
 30
0.0
 11
22.1804121157
 21
13.9802051572
 31
0.0
  0
LINE
  5
312
330
1F
100
AcDbEntity
  8
0
  6
Continuous
 62
     7
 48
2.25
370
    15
100
AcDbLine
 10
21.7574121489
 20
7.9802050831
 30
0.0
 11
22.1804121157
 21
7.9802050831
 31
0.0
  0
CIRCLE
  5
313
330
1F
100
AcDbEntity
  8
0
  6
Continuous
 62
     7
 48
5.0625
370
    15
100
AcDbCircle
 10
22.0074120692
 20
10.9802051201
 30
0.0
 40
0.0850000000000009
  0
LINE
  5
314
330
1F
100
AcDbEntity
  8
0
  6
Continuous
 62
     7
 48
2.25
370
    15
100
AcDbLine
 10
16.2574120321
 20
13.9802051572
 30
0.0
 11
16.2574120321
 21
7.9802050831
 31
0.0
  0
LINE
  5
315
330
1F
100
AcDbEntity
  8
0
  6
Continuous
 62
     7
 48
2.25
370
    15
100
AcDbLine
 10
16.2574120321
 20
13.9802051572
 30
0.0
 11
16.3344120226
 21
13.9802051572
 31
0.0
  0
LINE
  5
316
330
1F
100
AcDbEntity
  8
0
  6
Continuous
 62
     7
 48
2.25
370
    15
100
AcDbLine
 10
16.2574120321
 20
7.9802050831
 30
0.0
 11
16.3344120226
 21
7.9802050831
 31
0.0
  0
LINE
  5
317
330
1F
100
AcDbEntity
  8
0
  6
Continuous
 62
     7
 48
2.25
370
    15
100
AcDbLine
 10
22.1804121157
 20
13.9802051572
 30
0.0
 11
22.2574121062
 21
13.9802051572
 31
0.0
  0
LINE
  5
318
330
1F
100
AcDbEntity
  8
0
  6
Continuous
 62
     7
 48
2.25
370
    15
100
AcDbLine
 10
22.2574121062
 20
13.9802051572
 30
0.0
 11
22.2574121062
 21
7.9802050831
 31
0.0
  0
LINE
  5
319
330
1F
100
AcDbEntity
  8
0
  6
Continuous
 62
     7
 48
2.25
370
    15
100
AcDbLine
 10
22.1804121157
 20
7.9802050831
 30
0.0
 11
22.2574121062
 21
7.9802050831
 31
0.0
  0
CIRCLE
  5
31A
330
1F
100
AcDbEntity
  8
0
  6
Continuous
 62
     7
 48
5.0625
370
    15
100
AcDbCircle
 10
18.2574120692
 20
11.9802051201
 30
0.0
 40
0.0849999999999991
  0
CIRCLE
  5
31B
330
1F
100
AcDbEntity
  8
0
  6
Continuous
 62
     7
 48
5.0625
370
    15
100
AcDbCircle
 10
18.2574120692
 20
11.9802051201
 30
0.0
 40
0.6416128499307305
  0
ARC
  5
31C
330
1F
100
AcDbEntity
  8
0
  6
Continuous
 62
     7
 48
5.0625
370
    15
100
AcDbCircle
 10
21.7574120692
 20
12.4802051201
 30
0.0
 40
0.1405000000000012
100
AcDbArc
 50
90.0
 51
180.0
  0
ARC
  5
31D
330
1F
100
AcDbEntity
  8
0
  6
Continuous
 62
     7
 48
5.0625
370
    15
100
AcDbCircle
 10
21.7574120692
 20
12.4802051201
 30
0.0
 40
0.1404999999999994
100
AcDbArc
 50
180.0
 51
270.0
  0
ARC
  5
31E
330
1F
100
AcDbEntity
  8
0
  6
Continuous
 62
     7
 48
5.0625
370
    15
100
AcDbCircle
 10
16.7574120692
 20
9.4802051201
 30
0.0
 40
0.140500000000003
100
AcDbArc
 50
270.0
 51
90.0
  0
ARC
  5
31F
330
1F
100
AcDbEntity
  8
0
  6
Continuous
 62
     7
 48
5.0625
370
    15
100
AcDbCircle
 10
21.7574120692
 20
9.4802051201
 30
0.0
 40
0.1405000000000012
100
AcDbArc
 50
90.0
 51
270.0
  0
ARC
  5
320
330
1F
100
AcDbEntity
  8
0
  6
Continuous
 62
     7
 48
5.0625
370
    15
100
AcDbCircle
 10
16.7574120692
 20
12.4802051201
 30
0.0
 40
0.140500000000003
100
AcDbArc
 50
270.0
 51
0.0
  0
ARC
  5
321
330
1F
100
AcDbEntity
  8
0
  6
Continuous
 62
     7
 48
5.0625
370
    15
100
AcDbCircle
 10
16.7574120692
 20
12.4802051201
 30
0.0
 40
0.140500000000003
100
AcDbArc
 50
0.0
 51
90.0
  0
LINE
  5
322
330
1F
100
AcDbEntity
  8
0
  6
HIDDEN
 62
     7
 48
2.25
370
     0
100
AcDbLine
 10
16.7884119779
 20
13.9182051801
 30
0.0
 11
21.7264121604
 21
13.9182051801
 31
0.0
  0
LINE
  5
323
330
1F
100
AcDbEntity
  8
0
  6
HIDDEN
 62
     7
 48
2.25
370
     0
100
AcDbLine
 10
16.7574119894
 20
13.9182051801
 30
0.0
 11
16.3964119997
 21
13.9182051801
 31
0.0
  0
LINE
  5
324
330
1F
100
AcDbEntity
  8
0
  6
HIDDEN
 62
     7
 48
2.25
370
     0
100
AcDbLine
 10
21.7574121489
 20
13.9182051801
 30
0.0
 11
22.1184121386
 21
13.9182051801
 31
0.0
  0
LINE
  5
325
330
1F
100
AcDbEntity
  8
0
  6
HIDDEN
 62
     7
 48
2.25
370
     0
100
AcDbLine
 10
22.1954121291
 20
13.542205177
 30
0.0
 11
22.133412152
 21
13.542205177
 31
0.0
  0
LINE
  5
326
330
1F
100
AcDbEntity
  8
0
  6
HIDDEN
 62
     7
 48
2.25
370
     0
100
AcDbLine
 10
22.133412152
 20
13.542205177
 30
0.0
 11
22.133412152
 21
13.9032051667
 31
0.0
  0
ARC
  5
327
330
1F
100
AcDbEntity
  8
0
  6
HIDDEN
 62
     7
 48
5.0625
370
     0
100
AcDbCircle
 10
22.1184120692
 20
13.9032051201
 30
0.0
 40
0.077
100
AcDbArc
 50
0.0
 51
90.0
  0
ARC
  5
328
330
1F
100
AcDbEntity
  8
0
  6
HIDDEN
 62
     7
 48
5.0625
370
     0
100
AcDbCircle
 10
22.1184120692
 20
13.9032051201
 30
0.0
 40
0.0150000000000006
100
AcDbArc
 50
0.0
 51
90.0
  0
ARC
  5
329
330
1F
100
AcDbEntity
  8
0
  6
HIDDEN
 62
     7
 48
5.0625
370
     0
100
AcDbCircle
 10
16.3964120692
 20
13.9032051201
 30
0.0
 40
0.077
100
AcDbArc
 50
90.0
 51
180.0
  0
ARC
  5
32A
330
1F
100
AcDbEntity
  8
0
  6
HIDDEN
 62
     7
 48
5.0625
370
     0
100
AcDbCircle
 10
16.3964120692
 20
13.9032051201
 30
0.0
 40
0.0149999999999988
100
AcDbArc
 50
90.0
 51
180.0
  0
LINE
  5
32B
330
1F
100
AcDbEntity
  8
0
  6
HIDDEN
 62
     7
 48
2.25
370
     0
100
AcDbLine
 10
16.3814119863
 20
13.542205177
 30
0.0
 11
16.3814119863
 21
13.9032051667
 31
0.0
  0
LINE
  5
32C
330
1F
100
AcDbEntity
  8
0
  6
HIDDEN
 62
     7
 48
2.25
370
     0
100
AcDbLine
 10
16.3194120092
 20
13.542205177
 30
0.0
 11
16.3814119863
 21
13.542205177
 31
0.0
  0
LINE
  5
32D
330
1F
100
AcDbEntity
  8
0
  6
HIDDEN
 62
     7
 48
2.25
370
     0
100
AcDbLine
 10
22.1184121386
 20
13.9182051801
 30
0.0
 11
22.1184121386
 21
13.9802051572
 31
0.0
  0
LINE
  5
32E
330
1F
100
AcDbEntity
  8
0
  6
HIDDEN
 62
     7
 48
2.25
370
     0
100
AcDbLine
 10
16.3964119997
 20
13.9032051667
 30
0.0
 11
16.3964119997
 21
13.9182051801
 31
0.0
  0
LINE
  5
32F
330
1F
100
AcDbEntity
  8
0
  6
HIDDEN
 62
     7
 48
2.25
370
     0
100
AcDbLine
 10
22.1184121386
 20
13.9032051667
 30
0.0
 11
22.1184121386
 21
13.9182051801
 31
0.0
  0
LINE
  5
330
330
1F
100
AcDbEntity
  8
0
  6
HIDDEN
 62
     7
 48
2.25
370
     0
100
AcDbLine
 10
16.3964119997
 20
13.9182051801
 30
0.0
 11
16.3964119997
 21
13.9802051572
 31
0.0
  0
LINE
  5
331
330
1F
100
AcDbEntity
  8
0
  6
HIDDEN
 62
     7
 48
2.25
370
     0
100
AcDbLine
 10
16.3964119997
 20
13.542205177
 30
0.0
 11
16.7574119894
 21
13.542205177
 31
0.0
  0
LINE
  5
332
330
1F
100
AcDbEntity
  8
0
  6
HIDDEN
 62
     7
 48
2.25
370
     0
100
AcDbLine
 10
16.7884119779
 20
13.542205177
 30
0.0
 11
21.7264121604
 21
13.542205177
 31
0.0
  0
LINE
  5
333
330
1F
100
AcDbEntity
  8
0
  6
HIDDEN
 62
     7
 48
2.25
370
     0
100
AcDbLine
 10
21.7574121489
 20
13.542205177
 30
0.0
 11
22.1184121386
 21
13.542205177
 31
0.0
  0
LINE
  5
334
330
1F
100
AcDbEntity
  8
0
  6
HIDDEN
 62
     7
 48
2.25
370
     0
100
AcDbLine
 10
16.3964119997
 20
13.542205177
 30
0.0
 11
16.3964119997
 21
13.9032051667
 31
0.0
  0
LINE
  5
335
330
1F
100
AcDbEntity
  8
0
  6
HIDDEN
 62
     7
 48
2.25
370
     0
100
AcDbLine
 10
22.1184121386
 20
13.542205177
 30
0.0
 11
22.1184121386
 21
13.9032051667
 31
0.0
  0
LINE
  5
336
330
1F
100
AcDbEntity
  8
0
  6
HIDDEN
 62
     7
 48
2.25
370
     0
100
AcDbLine
 10
21.7264121604
 20
8.0422050602
 30
0.0
 11
16.7884119779
 21
8.0422050602
 31
0.0
  0
LINE
  5
337
330
1F
100
AcDbEntity
  8
0
  6
HIDDEN
 62
     7
 48
2.25
370
     0
100
AcDbLine
 10
16.7574119894
 20
8.0422050602
 30
0.0
 11
16.3964119997
 21
8.0422050602
 31
0.0
  0
LINE
  5
338
330
1F
100
AcDbEntity
  8
0
  6
HIDDEN
 62
     7
 48
2.25
370
     0
100
AcDbLine
 10
21.7574121489
 20
8.0422050602
 30
0.0
 11
22.1184121386
 21
8.0422050602
 31
0.0
  0
LINE
  5
339
330
1F
100
AcDbEntity
  8
0
  6
HIDDEN
 62
     7
 48
2.25
370
     0
100
AcDbLine
 10
16.3814119863
 20
8.4182050633
 30
0.0
 11
16.3814119863
 21
8.0572050736
 31
0.0
  0
LINE
  5
33A
330
1F
100
AcDbEntity
  8
0
  6
HIDDEN
 62
     7
 48
2.25
370
     0
100
AcDbLine
 10
16.3194120092
 20
8.4182050633
 30
0.0
 11
16.3814119863
 21
8.4182050633
 31
0.0
  0
LINE
  5
33B
330
1F
100
AcDbEntity
  8
0
  6
HIDDEN
 62
     7
 48
2.25
370
     0
100
AcDbLine
 10
22.1954121291
 20
8.4182050633
 30
0.0
 11
22.133412152
 21
8.4182050633
 31
0.0
  0
LINE
  5
33C
330
1F
100
AcDbEntity
  8
0
  6
HIDDEN
 62
     7
 48
2.25
370
     0
100
AcDbLine
 10
22.133412152
 20
8.4182050633
 30
0.0
 11
22.133412152
 21
8.0572050736
 31
0.0
  0
ARC
  5
33D
330
1F
100
AcDbEntity
  8
0
  6
HIDDEN
 62
     7
 48
5.0625
370
     0
100
AcDbCircle
 10
16.3964120692
 20
8.0572051201
 30
0.0
 40
0.0149999999999988
100
AcDbArc
 50
180.0
 51
270.0
  0
ARC
  5
33E
330
1F
100
AcDbEntity
  8
0
  6
HIDDEN
 62
     7
 48
5.0625
370
     0
100
AcDbCircle
 10
16.3964120692
 20
8.0572051201
 30
0.0
 40
0.0769999999999991
100
AcDbArc
 50
180.0
 51
270.0
  0
ARC
  5
33F
330
1F
100
AcDbEntity
  8
0
  6
HIDDEN
 62
     7
 48
5.0625
370
     0
100
AcDbCircle
 10
22.1184120692
 20
8.0572051201
 30
0.0
 40
0.077
100
AcDbArc
 50
270.0
 51
0.0
  0
ARC
  5
340
330
1F
100
AcDbEntity
  8
0
  6
HIDDEN
 62
     7
 48
5.0625
370
     0
100
AcDbCircle
 10
22.1184120692
 20
8.0572051201
 30
0.0
 40
0.0150000000000006
100
AcDbArc
 50
270.0
 51
0.0
  0
LINE
  5
341
330
1F
100
AcDbEntity
  8
0
  6
HIDDEN
 62
     7
 48
2.25
370
     0
100
AcDbLine
 10
16.3964119997
 20
8.0422050602
 30
0.0
 11
16.3964119997
 21
7.9802050831
 31
0.0
  0
LINE
  5
342
330
1F
100
AcDbEntity
  8
0
  6
HIDDEN
 62
     7
 48
2.25
370
     0
100
AcDbLine
 10
22.1184121386
 20
8.0572050736
 30
0.0
 11
22.1184121386
 21
8.0422050602
 31
0.0
  0
LINE
  5
343
330
1F
100
AcDbEntity
  8
0
  6
HIDDEN
 62
     7
 48
2.25
370
     0
100
AcDbLine
 10
16.3964119997
 20
8.0572050736
 30
0.0
 11
16.3964119997
 21
8.0422050602
 31
0.0
  0
LINE
  5
344
330
1F
100
AcDbEntity
  8
0
  6
HIDDEN
 62
     7
 48
2.25
370
     0
100
AcDbLine
 10
22.1184121386
 20
8.0422050602
 30
0.0
 11
22.1184121386
 21
7.9802050831
 31
0.0
  0
LINE
  5
345
330
1F
100
AcDbEntity
  8
0
  6
HIDDEN
 62
     7
 48
2.25
370
     0
100
AcDbLine
 10
22.1184121386
 20
8.4182050633
 30
0.0
 11
21.7574121489
 21
8.4182050633
 31
0.0
  0
LINE
  5
346
330
1F
100
AcDbEntity
  8
0
  6
HIDDEN
 62
     7
 48
2.25
370
     0
100
AcDbLine
 10
21.7264121604
 20
8.4182050633
 30
0.0
 11
16.7884119779
 21
8.4182050633
 31
0.0
  0
LINE
  5
347
330
1F
100
AcDbEntity
  8
0
  6
HIDDEN
 62
     7
 48
2.25
370
     0
100
AcDbLine
 10
16.7574119894
 20
8.4182050633
 30
0.0
 11
16.3964119997
 21
8.4182050633
 31
0.0
  0
LINE
  5
348
330
1F
100
AcDbEntity
  8
0
  6
HIDDEN
 62
     7
 48
2.25
370
     0
100
AcDbLine
 10
22.1184121386
 20
8.4182050633
 30
0.0
 11
22.1184121386
 21
8.0572050736
 31
0.0
  0
LINE
  5
349
330
1F
100
AcDbEntity
  8
0
  6
HIDDEN
 62
     7
 48
2.25
370
     0
100
AcDbLine
 10
16.3964119997
 20
8.4182050633
 30
0.0
 11
16.3964119997
 21
8.0572050736
 31
0.0
  0
LINE
  5
34A
330
1F
100
AcDbEntity
  8
0
  6
HIDDEN
 62
     7
 48
2.25
370
     0
100
AcDbLine
 10
22.1954121291
 20
13.9802051572
 30
0.0
 11
22.1954121291
 21
7.9802050831
 31
0.0
  0
LINE
  5
34B
330
1F
100
AcDbEntity
  8
0
  6
HIDDEN
 62
     7
 48
2.25
370
     0
100
AcDbLine
 10
16.3194120092
 20
13.9802051572
 30
0.0
 11
16.3194120092
 21
7.9802050831
 31
0.0
  0
CIRCLE
  5
34C
330
1F
100
AcDbEntity
  8
0
  6
HIDDEN
 62
     7
 48
5.0625
370
     0
100
AcDbCircle
 10
18.2574120692
 20
11.9802051201
 30
0.0
 40
0.147000000000002
  0
ARC
  5
34D
330
1F
100
AcDbEntity
  8
0
  6
HIDDEN
 62
     7
 48
5.0625
370
     0
100
AcDbCircle
 10
21.7574120692
 20
12.4802051201
 30
0.0
 40
0.1405000000000012
100
AcDbArc
 50
270.0
 51
90.0
  0
ARC
  5
34E
330
1F
100
AcDbEntity
  8
0
  6
HIDDEN
 62
     7
 48
5.0625
370
     0
100
AcDbCircle
 10
16.7574120692
 20
9.4802051201
 30
0.0
 40
0.140500000000003
100
AcDbArc
 50
90.0
 51
180.0
  0
ARC
  5
34F
330
1F
100
AcDbEntity
  8
0
  6
HIDDEN
 62
     7
 48
5.0625
370
     0
100
AcDbCircle
 10
16.7574120692
 20
9.4802051201
 30
0.0
 40
0.140500000000003
100
AcDbArc
 50
180.0
 51
270.0
  0
ARC
  5
350
330
1F
100
AcDbEntity
  8
0
  6
HIDDEN
 62
     7
 48
5.0625
370
     0
100
AcDbCircle
 10
21.7574120692
 20
9.4802051201
 30
0.0
 40
0.1404999999999994
100
AcDbArc
 50
270.0
 51
0.0
  0
ARC
  5
351
330
1F
100
AcDbEntity
  8
0
  6
HIDDEN
 62
     7
 48
5.0625
370
     0
100
AcDbCircle
 10
21.7574120692
 20
9.4802051201
 30
0.0
 40
0.1405000000000012
100
AcDbArc
 50
0.0
 51
90.0
  0
ARC
  5
352
330
1F
100
AcDbEntity
  8
0
  6
HIDDEN
 62
     7
 48
5.0625
370
     0
100
AcDbCircle
 10
16.7574120692
 20
12.4802051201
 30
0.0
 40
0.1405000000000012
100
AcDbArc
 50
90.0
 51
270.0
  0
CIRCLE
  5
353
330
1F
100
AcDbEntity
  8
0
  6
HIDDEN
 62
     7
 48
5.0625
370
     0
100
AcDbCircle
 10
18.2574120692
 20
11.9802051201
 30
0.0
 40
0.6249999999999982
  0
DIMENSION
  5
354
330
1F
100
AcDbEntity
  8
0
  6
Continuous
 62
     7
 48
2.25
370
     0
100
AcDbDimension
  2
*D14
 10
22.2574120692
 20
12.8298960205
 30
0.0
 11
23.5309979673
 21
12.8298960205
 31
0.0
 70
   160
 71
     2
 42
-1.0
  3
SLDDIMSTYLE3
100
AcDbAlignedDimension
 13
21.7574120692
 23
13.9802051201
 33
0.0
 14
22.2574120692
 24
13.9802051201
 34
0.0
100
AcDbRotatedDimension
  0
INSERT
  5
369
102
{ACAD_REACTORS
330
36A
102
}
330
1F
100
AcDbEntity
  8
0
  6
Continuous
 62
     7
 48
2.25
370
     0
100
AcDbBlockReference
  2
SW_NOTE_5
 10
20.0062426644
 20
15.1401618082
 30
0.0
  0
LEADER
  5
36A
330
1F
100
AcDbEntity
  8
0
  6
Continuous
 62
     7
 48
2.25
370
     0
100
AcDbLeader
  3
SLDDIMSTYLE1
 73
     2
 76
     3
 10
18.4656455293
 20
12.5870872135
 30
0.0
 10
19.4437426644
 20
15.1401618082
 30
0.0
 10
20.0062426644
 20
15.1401618082
 30
0.0
340
369
  0
MTEXT
  5
36B
330
1F
100
AcDbEntity
  8
0
  6
Continuous
 62
     7
 48
2.25
370
     0
100
AcDbMText
 10
17.6982564173
 20
7.4058976555
 30
0.0
 40
0.28125
 41
0.0
 71
     1
 72
     1
  1
\LCOVER REMOVED
  7
SLDTEXTSTYLE0
 73
     1
 44
1.0
  0
ENDSEC
  0
SECTION
  2
OBJECTS
  0
DICTIONARY
  5
C
330
0
100
AcDbDictionary
281
     1
  3
ACAD_GROUP
350
D
  3
ACAD_LAYOUT
350
1A
  3
ACAD_MATERIAL
350
3B
  3
ACAD_MLEADERSTYLE
350
36E
  3
ACAD_MLINESTYLE
350
17
  3
ACAD_PLOTSETTINGS
350
19
  3
ACAD_PLOTSTYLENAME
350
E
  3
ACAD_SCALELIST
350
58
  3
ACAD_VISUALSTYLE
350
2A
  3
AcDbVariableDictionary
350
36C
  0
DICTIONARY
  5
D
102
{ACAD_REACTORS
330
C
102
}
330
C
100
AcDbDictionary
281
     1
  0
DICTIONARY
  5
1A
102
{ACAD_REACTORS
330
C
102
}
330
C
100
AcDbDictionary
281
     1
  3
Layout1
350
1E
  3
Layout2
350
26
  3
Model
350
22
  0
DICTIONARY
  5
3B
102
{ACAD_REACTORS
330
C
102
}
330
C
100
AcDbDictionary
281
     1
  3
ByBlock
350
3D
  3
ByLayer
350
3C
  3
Global
350
3E
  0
DICTIONARY
  5
36E
102
{ACAD_REACTORS
330
C
102
}
330
C
100
AcDbDictionary
281
     1
  0
DICTIONARY
  5
17
102
{ACAD_REACTORS
330
C
102
}
330
C
100
AcDbDictionary
281
     1
  3
Standard
350
18
  0
DICTIONARY
  5
19
102
{ACAD_REACTORS
330
C
102
}
330
C
100
AcDbDictionary
281
     1
  0
ACDBDICTIONARYWDFLT
  5
E
102
{ACAD_REACTORS
330
C
102
}
330
C
100
AcDbDictionary
281
     1
  3
Normal
350
F
100
AcDbDictionaryWithDefault
340
F
  0
DICTIONARY
  5
58
102
{ACAD_REACTORS
330
C
102
}
330
C
100
AcDbDictionary
281
     1
  3
A0
350
59
  3
A1
350
5A
  3
A2
350
5B
  3
A3
350
5C
  3
A4
350
5D
  3
A5
350
5E
  3
A6
350
5F
  3
A7
350
60
  3
A8
350
61
  3
A9
350
62
  3
B0
350
63
  3
B1
350
64
  3
B2
350
65
  3
B3
350
66
  3
B4
350
67
  3
B5
350
68
  3
B6
350
69
  3
B7
350
6A
  3
B8
350
6B
  3
B9
350
6C
  3
C0
350
6D
  3
C1
350
6E
  3
C2
350
6F
  3
C3
350
70
  3
C4
350
71
  3
C5
350
72
  3
C6
350
73
  3
C7
350
74
  3
C8
350
75
  3
C9
350
76
  3
D0
350
77
  3
D1
350
78
  3
D2
350
79
  0
DICTIONARY
  5
2A
102
{ACAD_REACTORS
330
C
102
}
330
C
100
AcDbDictionary
281
     1
  3
2dWireframe
350
2F
  3
3D Hidden
350
31
  3
3dWireframe
350
30
  3
Basic
350
32
  3
Brighten
350
36
  3
ColorChange
350
3A
  3
Conceptual
350
34
  3
Dim
350
35
  3
Facepattern
350
39
  3
Flat
350
2B
  3
FlatWithEdges
350
2C
  3
Gouraud
350
2D
  3
GouraudWithEdges
350
2E
  3
Linepattern
350
38
  3
Realistic
350
33
  3
Thicken
350
37
  0
DICTIONARY
  5
36C
102
{ACAD_REACTORS
330
C
102
}
330
C
100
AcDbDictionary
281
     1
  3
CANNOSCALE
350
36F
  3
DIMASSOC
350
370
  3
HIDETEXT
350
371
  0
LAYOUT
  5
1E
102
{ACAD_REACTORS
330
1A
102
}
330
1A
100
AcDbPlotSettings
  1

  2
none_device
  4

  6

 40
0.0
 41
0.0
 42
0.0
 43
0.0
 44
0.0
 45
0.0
 46
0.0
 47
0.0
 48
0.0
 49
0.0
140
0.0
141
0.0
142
1.0
143
1.0
 70
   688
 72
     0
 73
     0
 74
     5
  7

 75
    16
147
1.0
148
0.0
149
0.0
100
AcDbLayout
  1
Layout1
 70
     1
 71
     1
 10
0.0
 20
0.0
 11
12.0
 21
9.0
 12
0.0
 22
0.0
 32
0.0
 14
1.0000000000E+20
 24
1.0000000000E+20
 34
1.0000000000E+20
 15
-1.0000000000E+20
 25
-1.0000000000E+20
 35
-1.0000000000E+20
146
0.0
 13
0.0
 23
0.0
 33
0.0
 16
1.0
 26
0.0
 36
0.0
 17
0.0
 27
1.0
 37
0.0
 76
     0
330
1B
  0
LAYOUT
  5
26
102
{ACAD_REACTORS
330
1A
102
}
330
1A
100
AcDbPlotSettings
  1

  2
none_device
  4

  6

 40
0.0
 41
0.0
 42
0.0
 43
0.0
 44
0.0
 45
0.0
 46
0.0
 47
0.0
 48
0.0
 49
0.0
140
0.0
141
0.0
142
1.0
143
1.0
 70
   688
 72
     0
 73
     0
 74
     5
  7

 75
    16
147
1.0
148
0.0
149
0.0
100
AcDbLayout
  1
Layout2
 70
     1
 71
     2
 10
0.0
 20
0.0
 11
0.0
 21
0.0
 12
0.0
 22
0.0
 32
0.0
 14
0.0
 24
0.0
 34
0.0
 15
0.0
 25
0.0
 35
0.0
146
0.0
 13
0.0
 23
0.0
 33
0.0
 16
1.0
 26
0.0
 36
0.0
 17
0.0
 27
1.0
 37
0.0
 76
     0
330
23
  0
LAYOUT
  5
22
102
{ACAD_REACTORS
330
1A
102
}
330
1A
100
AcDbPlotSettings
  1

  2
none_device
  4

  6

 40
0.0
 41
0.0
 42
0.0
 43
0.0
 44
0.0
 45
0.0
 46
0.0
 47
0.0
 48
0.0
 49
0.0
140
0.0
141
0.0
142
1.0
143
1.0
 70
  1712
 72
     0
 73
     0
 74
     0
  7

 75
     0
147
1.0
148
0.0
149
0.0
100
AcDbLayout
  1
Model
 70
     1
 71
     0
 10
0.0
 20
0.0
 11
38.25
 21
24.75
 12
0.0
 22
0.0
 32
0.0
 14
0.0
 24
0.0
 34
0.0
 15
38.25
 25
24.75
 35
0.0
146
0.0
 13
0.0
 23
0.0
 33
0.0
 16
1.0
 26
0.0
 36
0.0
 17
0.0
 27
1.0
 37
0.0
 76
     0
330
1F
331
29
  0
MATERIAL
  5
3D
102
{ACAD_REACTORS
330
3B
102
}
102
{ACAD_XDICTIONARY
360
394
102
}
330
3B
100
AcDbMaterial
  1
ByBlock
  0
MATERIAL
  5
3C
102
{ACAD_REACTORS
330
3B
102
}
102
{ACAD_XDICTIONARY
360
392
102
}
330
3B
100
AcDbMaterial
  1
ByLayer
  0
MATERIAL
  5
3E
102
{ACAD_REACTORS
330
3B
102
}
102
{ACAD_XDICTIONARY
360
396
102
}
330
3B
100
AcDbMaterial
  1
Global
  0
MLINESTYLE
  5
18
102
{ACAD_REACTORS
330
17
102
}
330
17
100
AcDbMlineStyle
  2
Standard
 70
     0
  3

 62
   256
 51
90.0
 52
90.0
 71
     2
 49
0.5
 62
   256
  6
BYLAYER
 49
-0.5
 62
   256
  6
BYLAYER
  0
ACDBPLACEHOLDER
  5
F
102
{ACAD_REACTORS
330
E
102
}
330
E
  0
SCALE
  5
59
102
{ACAD_REACTORS
330
58
102
}
330
58
100
AcDbScale
 70
     0
300
1:1
140
1.0
141
1.0
290
     1
  0
SCALE
  5
5A
102
{ACAD_REACTORS
330
58
102
}
330
58
100
AcDbScale
 70
     0
300
1:2
140
1.0
141
2.0
290
     0
  0
SCALE
  5
5B
102
{ACAD_REACTORS
330
58
102
}
330
58
100
AcDbScale
 70
     0
300
1:4
140
1.0
141
4.0
290
     0
  0
SCALE
  5
5C
102
{ACAD_REACTORS
330
58
102
}
330
58
100
AcDbScale
 70
     0
300
1:5
140
1.0
141
5.0
290
     0
  0
SCALE
  5
5D
102
{ACAD_REACTORS
330
58
102
}
330
58
100
AcDbScale
 70
     0
300
1:8
140
1.0
141
8.0
290
     0
  0
SCALE
  5
5E
102
{ACAD_REACTORS
330
58
102
}
330
58
100
AcDbScale
 70
     0
300
1:10
140
1.0
141
10.0
290
     0
  0
SCALE
  5
5F
102
{ACAD_REACTORS
330
58
102
}
330
58
100
AcDbScale
 70
     0
300
1:16
140
1.0
141
16.0
290
     0
  0
SCALE
  5
60
102
{ACAD_REACTORS
330
58
102
}
330
58
100
AcDbScale
 70
     0
300
1:20
140
1.0
141
20.0
290
     0
  0
SCALE
  5
61
102
{ACAD_REACTORS
330
58
102
}
330
58
100
AcDbScale
 70
     0
300
1:30
140
1.0
141
30.0
290
     0
  0
SCALE
  5
62
102
{ACAD_REACTORS
330
58
102
}
330
58
100
AcDbScale
 70
     0
300
1:40
140
1.0
141
40.0
290
     0
  0
SCALE
  5
63
102
{ACAD_REACTORS
330
58
102
}
330
58
100
AcDbScale
 70
     0
300
1:50
140
1.0
141
50.0
290
     0
  0
SCALE
  5
64
102
{ACAD_REACTORS
330
58
102
}
330
58
100
AcDbScale
 70
     0
300
1:100
140
1.0
141
100.0
290
     0
  0
SCALE
  5
65
102
{ACAD_REACTORS
330
58
102
}
330
58
100
AcDbScale
 70
     0
300
2:1
140
2.0
141
1.0
290
     0
  0
SCALE
  5
66
102
{ACAD_REACTORS
330
58
102
}
330
58
100
AcDbScale
 70
     0
300
4:1
140
4.0
141
1.0
290
     0
  0
SCALE
  5
67
102
{ACAD_REACTORS
330
58
102
}
330
58
100
AcDbScale
 70
     0
300
8:1
140
8.0
141
1.0
290
     0
  0
SCALE
  5
68
102
{ACAD_REACTORS
330
58
102
}
330
58
100
AcDbScale
 70
     0
300
10:1
140
10.0
141
1.0
290
     0
  0
SCALE
  5
69
102
{ACAD_REACTORS
330
58
102
}
330
58
100
AcDbScale
 70
     0
300
100:1
140
100.0
141
1.0
290
     0
  0
SCALE
  5
6A
102
{ACAD_REACTORS
330
58
102
}
330
58
100
AcDbScale
 70
     0
300
1/128" = 1'-0"
140
0.0078125
141
12.0
290
     0
  0
SCALE
  5
6B
102
{ACAD_REACTORS
330
58
102
}
330
58
100
AcDbScale
 70
     0
300
1/64" = 1'-0"
140
0.015625
141
12.0
290
     0
  0
SCALE
  5
6C
102
{ACAD_REACTORS
330
58
102
}
330
58
100
AcDbScale
 70
     0
300
1/32" = 1'-0"
140
0.03125
141
12.0
290
     0
  0
SCALE
  5
6D
102
{ACAD_REACTORS
330
58
102
}
330
58
100
AcDbScale
 70
     0
300
1/16" = 1'-0"
140
0.0625
141
12.0
290
     0
  0
SCALE
  5
6E
102
{ACAD_REACTORS
330
58
102
}
330
58
100
AcDbScale
 70
     0
300
3/32" = 1'-0"
140
0.09375
141
12.0
290
     0
  0
SCALE
  5
6F
102
{ACAD_REACTORS
330
58
102
}
330
58
100
AcDbScale
 70
     0
300
1/8" = 1'-0"
140
0.125
141
12.0
290
     0
  0
SCALE
  5
70
102
{ACAD_REACTORS
330
58
102
}
330
58
100
AcDbScale
 70
     0
300
3/16" = 1'-0"
140
0.1875
141
12.0
290
     0
  0
SCALE
  5
71
102
{ACAD_REACTORS
330
58
102
}
330
58
100
AcDbScale
 70
     0
300
1/4" = 1'-0"
140
0.25
141
12.0
290
     0
  0
SCALE
  5
72
102
{ACAD_REACTORS
330
58
102
}
330
58
100
AcDbScale
 70
     0
300
3/8" = 1'-0"
140
0.375
141
12.0
290
     0
  0
SCALE
  5
73
102
{ACAD_REACTORS
330
58
102
}
330
58
100
AcDbScale
 70
     0
300
1/2" = 1'-0"
140
0.5
141
12.0
290
     0
  0
SCALE
  5
74
102
{ACAD_REACTORS
330
58
102
}
330
58
100
AcDbScale
 70
     0
300
3/4" = 1'-0"
140
0.75
141
12.0
290
     0
  0
SCALE
  5
75
102
{ACAD_REACTORS
330
58
102
}
330
58
100
AcDbScale
 70
     0
300
1" = 1'-0"
140
1.0
141
12.0
290
     0
  0
SCALE
  5
76
102
{ACAD_REACTORS
330
58
102
}
330
58
100
AcDbScale
 70
     0
300
1-1/2" = 1'-0"
140
1.5
141
12.0
290
     0
  0
SCALE
  5
77
102
{ACAD_REACTORS
330
58
102
}
330
58
100
AcDbScale
 70
     0
300
3" = 1'-0"
140
3.0
141
12.0
290
     0
  0
SCALE
  5
78
102
{ACAD_REACTORS
330
58
102
}
330
58
100
AcDbScale
 70
     0
300
6" = 1'-0"
140
6.0
141
12.0
290
     0
  0
SCALE
  5
79
102
{ACAD_REACTORS
330
58
102
}
330
58
100
AcDbScale
 70
     0
300
1'-0" = 1'-0"
140
12.0
141
12.0
290
     0
  0
VISUALSTYLE
  5
2F
102
{ACAD_REACTORS
330
2A
102
}
102
{ACAD_XDICTIONARY
360
37A
102
}
330
2A
100
AcDbVisualStyle
  2
2dWireframe
 70
     4
 71
     0
 72
     2
 73
     0
 90
        0
 40
-0.6
 41
-30.0
 62
     5
 63
     7
 74
     1
 91
        4
 64
     7
 65
   257
 75
     1
175
     1
 42
1.0
 92
        0
 66
   257
 43
1.0
 76
     1
 77
     6
 78
     2
 67
     7
 79
     5
170
     0
171
     0
290
     0
174
     0
 93
        1
 44
0.0
173
     0
291
     0
 45
0.0
1001
ACAD
1000
AcDbSavedByObjectVersion
1070
     0
  0
VISUALSTYLE
  5
31
102
{ACAD_REACTORS
330
2A
102
}
102
{ACAD_XDICTIONARY
360
37E
102
}
330
2A
100
AcDbVisualStyle
  2
3D Hidden
 70
     6
 71
     1
 72
     2
 73
     2
 90
        0
 40
-0.6
 41
-30.0
 62
     5
 63
     7
 74
     2
 91
        2
 64
     7
 65
   257
 75
     2
175
     1
 42
40.0
 92
        0
 66
   257
 43
1.0
 76
     1
 77
     6
 78
     2
 67
     7
 79
     3
170
     0
171
     0
290
     0
174
     0
 93
        1
 44
0.0
173
     0
291
     0
 45
0.0
1001
ACAD
1000
AcDbSavedByObjectVersion
1070
     0
  0
VISUALSTYLE
  5
30
102
{ACAD_REACTORS
330
2A
102
}
102
{ACAD_XDICTIONARY
360
37C
102
}
330
2A
100
AcDbVisualStyle
  2
3dWireframe
 70
     5
 71
     0
 72
     2
 73
     0
 90
        0
 40
-0.6
 41
-30.0
 62
     5
 63
     7
 74
     1
 91
        4
 64
     7
 65
   257
 75
     1
175
     1
 42
1.0
 92
        0
 66
   257
 43
1.0
 76
     1
 77
     6
 78
     2
 67
     7
 79
     5
170
     0
171
     0
290
     0
174
     0
 93
        1
 44
0.0
173
     0
291
     0
 45
0.0
1001
ACAD
1000
AcDbSavedByObjectVersion
1070
     0
  0
VISUALSTYLE
  5
32
102
{ACAD_REACTORS
330
2A
102
}
102
{ACAD_XDICTIONARY
360
380
102
}
330
2A
100
AcDbVisualStyle
  2
Basic
 70
     7
 71
     1
 72
     0
 73
     1
 90
        0
 40
-0.6
 41
-30.0
 62
     5
 63
     7
 74
     0
 91
        4
 64
     7
 65
   257
 75
     1
175
     1
 42
1.0
 92
        8
 66
     7
 43
1.0
 76
     1
 77
     6
 78
     2
 67
     7
 79
     5
170
     0
171
     0
290
     0
174
     0
 93
        1
 44
0.0
173
     0
291
     1
 45
0.0
1001
ACAD
1000
AcDbSavedByObjectVersion
1070
     0
  0
VISUALSTYLE
  5
36
102
{ACAD_REACTORS
330
2A
102
}
102
{ACAD_XDICTIONARY
360
388
102
}
330
2A
100
AcDbVisualStyle
  2
Brighten
 70
    12
 71
     2
 72
     2
 73
     0
 90
        0
 40
-0.6
 41
-30.0
 62
     5
 63
     7
 74
     1
 91
        4
 64
     7
 65
   257
 75
     1
175
     1
 42
1.0
 92
        8
 66
     7
 43
1.0
 76
     1
 77
     6
 78
     2
 67
     7
 79
     5
170
     0
171
     0
290
     0
174
     0
 93
        1
 44
50.0
173
     0
291
     1
 45
0.0
1001
ACAD
1000
AcDbSavedByObjectVersion
1070
     0
  0
VISUALSTYLE
  5
3A
102
{ACAD_REACTORS
330
2A
102
}
102
{ACAD_XDICTIONARY
360
390
102
}
330
2A
100
AcDbVisualStyle
  2
ColorChange
 70
    16
 71
     2
 72
     2
 73
     3
 90
        0
 40
-0.6
 41
-30.0
 62
     5
 63
     8
 74
     1
 91
        4
 64
     7
 65
   257
 75
     1
175
     1
 42
1.0
 92
        8
 66
     8
 43
1.0
 76
     1
 77
     6
 78
     2
 67
     7
 79
     5
170
     0
171
     0
290
     0
174
     0
 93
        1
 44
0.0
173
     0
291
     1
 45
0.0
1001
ACAD
1000
AcDbSavedByObjectVersion
1070
     0
  0
VISUALSTYLE
  5
34
102
{ACAD_REACTORS
330
2A
102
}
102
{ACAD_XDICTIONARY
360
384
102
}
330
2A
100
AcDbVisualStyle
  2
Conceptual
 70
     9
 71
     3
 72
     2
 73
     0
 90
        0
 40
-0.6
 41
-30.0
 62
     5
 63
     7
 74
     2
 91
        2
 64
     7
 65
   257
 75
     1
175
     1
 42
40.0
 92
        8
 66
     7
 43
1.0
 76
     1
 77
     6
 78
     2
 67
     7
 79
     3
170
     0
171
     0
290
     0
174
     0
 93
        1
 44
0.0
173
     0
291
     0
 45
0.0
1001
ACAD
1000
AcDbSavedByObjectVersion
1070
     0
  0
VISUALSTYLE
  5
35
102
{ACAD_REACTORS
330
2A
102
}
102
{ACAD_XDICTIONARY
360
386
102
}
330
2A
100
AcDbVisualStyle
  2
Dim
 70
    11
 71
     2
 72
     2
 73
     0
 90
        0
 40
-0.6
 41
-30.0
 62
     5
 63
     7
 74
     1
 91
        4
 64
     7
 65
   257
 75
     1
175
     1
 42
1.0
 92
        8
 66
     7
 43
1.0
 76
     1
 77
     6
 78
     2
 67
     7
 79
     5
170
     0
171
     0
290
     0
174
     0
 93
        1
 44
-50.0
173
     0
291
     1
 45
0.0
1001
ACAD
1000
AcDbSavedByObjectVersion
1070
     0
  0
VISUALSTYLE
  5
39
102
{ACAD_REACTORS
330
2A
102
}
102
{ACAD_XDICTIONARY
360
38E
102
}
330
2A
100
AcDbVisualStyle
  2
Facepattern
 70
    15
 71
     2
 72
     2
 73
     0
 90
        0
 40
-0.6
 41
-30.0
 62
     5
 63
     7
 74
     1
 91
        4
 64
     7
 65
   257
 75
     1
175
     1
 42
1.0
 92
        8
 66
     7
 43
1.0
 76
     1
 77
     6
 78
     2
 67
     7
 79
     5
170
     0
171
     0
290
     0
174
     0
 93
        1
 44
0.0
173
     0
291
     1
 45
0.0
1001
ACAD
1000
AcDbSavedByObjectVersion
1070
     0
  0
VISUALSTYLE
  5
2B
102
{ACAD_REACTORS
330
2A
102
}
102
{ACAD_XDICTIONARY
360
372
102
}
330
2A
100
AcDbVisualStyle
  2
Flat
 70
     0
 71
     2
 72
     1
 73
     1
 90
        2
 40
-0.6
 41
30.0
 62
     5
 63
     7
 74
     0
 91
        4
 64
     7
 65
   257
 75
     1
175
     1
 42
1.0
 92
        8
 66
     7
 43
1.0
 76
     1
 77
     6
 78
     2
 67
     7
 79
     5
170
     0
171
     0
290
     0
174
     0
 93
       13
 44
0.0
173
     0
291
     1
 45
0.0
1001
ACAD
1000
AcDbSavedByObjectVersion
1070
     0
  0
VISUALSTYLE
  5
2C
102
{ACAD_REACTORS
330
2A
102
}
102
{ACAD_XDICTIONARY
360
374
102
}
330
2A
100
AcDbVisualStyle
  2
FlatWithEdges
 70
     1
 71
     2
 72
     1
 73
     1
 90
        2
 40
-0.6
 41
30.0
 62
     5
 63
     7
 74
     1
 91
        4
 64
     7
 65
   257
 75
     1
175
     1
 42
1.0
 92
        0
 66
   257
 43
1.0
 76
     1
 77
     6
 78
     2
 67
     7
 79
     5
170
     0
171
     0
290
     0
174
     0
 93
       13
 44
0.0
173
     0
291
     1
 45
0.0
1001
ACAD
1000
AcDbSavedByObjectVersion
1070
     0
  0
VISUALSTYLE
  5
2D
102
{ACAD_REACTORS
330
2A
102
}
102
{ACAD_XDICTIONARY
360
376
102
}
330
2A
100
AcDbVisualStyle
  2
Gouraud
 70
     2
 71
     2
 72
     2
 73
     1
 90
        2
 40
-0.6
 41
30.0
 62
     5
 63
     7
 74
     0
 91
        4
 64
     7
 65
   257
 75
     1
175
     1
 42
1.0
 92
        0
 66
     7
 43
1.0
 76
     1
 77
     6
 78
     2
 67
     7
 79
     5
170
     0
171
     0
290
     0
174
     0
 93
       13
 44
0.0
173
     0
291
     1
 45
0.0
1001
ACAD
1000
AcDbSavedByObjectVersion
1070
     0
  0
VISUALSTYLE
  5
2E
102
{ACAD_REACTORS
330
2A
102
}
102
{ACAD_XDICTIONARY
360
378
102
}
330
2A
100
AcDbVisualStyle
  2
GouraudWithEdges
 70
     3
 71
     2
 72
     2
 73
     1
 90
        2
 40
-0.6
 41
30.0
 62
     5
 63
     7
 74
     1
 91
        4
 64
     7
 65
   257
 75
     1
175
     1
 42
1.0
 92
        0
 66
   257
 43
1.0
 76
     1
 77
     6
 78
     2
 67
     7
 79
     5
170
     0
171
     0
290
     0
174
     0
 93
       13
 44
0.0
173
     0
291
     1
 45
0.0
1001
ACAD
1000
AcDbSavedByObjectVersion
1070
     0
  0
VISUALSTYLE
  5
38
102
{ACAD_REACTORS
330
2A
102
}
102
{ACAD_XDICTIONARY
360
38C
102
}
330
2A
100
AcDbVisualStyle
  2
Linepattern
 70
    14
 71
     2
 72
     2
 73
     0
 90
        0
 40
-0.6
 41
-30.0
 62
     5
 63
     7
 74
     1
 91
        4
 64
     7
 65
   257
 75
     7
175
     7
 42
1.0
 92
        8
 66
     7
 43
1.0
 76
     1
 77
     6
 78
     2
 67
     7
 79
     5
170
     0
171
     0
290
     0
174
     0
 93
        1
 44
0.0
173
     0
291
     1
 45
0.0
1001
ACAD
1000
AcDbSavedByObjectVersion
1070
     0
  0
VISUALSTYLE
  5
33
102
{ACAD_REACTORS
330
2A
102
}
102
{ACAD_XDICTIONARY
360
382
102
}
330
2A
100
AcDbVisualStyle
  2
Realistic
 70
     8
 71
     2
 72
     2
 73
     0
 90
        0
 40
-0.6
 41
-30.0
 62
     5
 63
     7
 74
     1
 91
        0
 64
     7
 65
   257
 75
     1
175
     1
 42
1.0
 92
        8
 66
     8
 43
1.0
 76
     1
 77
     6
 78
     2
 67
     7
 79
     5
170
     0
171
     0
290
     0
174
     0
 93
       13
 44
0.0
173
     0
291
     0
 45
0.0
1001
ACAD
1000
AcDbSavedByObjectVersion
1070
     0
  0
VISUALSTYLE
  5
37
102
{ACAD_REACTORS
330
2A
102
}
102
{ACAD_XDICTIONARY
360
38A
102
}
330
2A
100
AcDbVisualStyle
  2
Thicken
 70
    13
 71
     2
 72
     2
 73
     0
 90
        0
 40
-0.6
 41
-30.0
 62
     5
 63
     7
 74
     1
 91
        4
 64
     7
 65
   257
 75
     1
175
     1
 42
1.0
 92
       12
 66
     7
 43
1.0
 76
     1
 77
     6
 78
     2
 67
     7
 79
     5
170
     0
171
     0
290
     0
174
     0
 93
        1
 44
0.0
173
     0
291
     1
 45
0.0
1001
ACAD
1000
AcDbSavedByObjectVersion
1070
     0
  0
DICTIONARYVAR
  5
36F
102
{ACAD_REACTORS
330
36C
102
}
330
36C
100
DictionaryVariables
280
     0
  1
1:1
  0
DICTIONARYVAR
  5
370
102
{ACAD_REACTORS
330
36C
102
}
330
36C
100
DictionaryVariables
280
     0
  1
2
  0
DICTIONARYVAR
  5
371
102
{ACAD_REACTORS
330
36C
102
}
330
36C
100
DictionaryVariables
280
     0
  1
1
  0
DICTIONARY
  5
394
330
3D
100
AcDbDictionary
280
     1
281
     1
  3
ACAD_XREC_ROUNDTRIP
360
395
  0
DICTIONARY
  5
392
330
3C
100
AcDbDictionary
280
     1
281
     1
  3
ACAD_XREC_ROUNDTRIP
360
393
  0
DICTIONARY
  5
396
330
3E
100
AcDbDictionary
280
     1
281
     1
  3
ACAD_XREC_ROUNDTRIP
360
397
  0
DICTIONARY
  5
37A
330
2F
100
AcDbDictionary
280
     1
281
     1
  3
ACAD_XREC_ROUNDTRIP
360
37B
  0
DICTIONARY
  5
37E
330
31
100
AcDbDictionary
280
     1
281
     1
  3
ACAD_XREC_ROUNDTRIP
360
37F
  0
DICTIONARY
  5
37C
330
30
100
AcDbDictionary
280
     1
281
     1
  3
ACAD_XREC_ROUNDTRIP
360
37D
  0
DICTIONARY
  5
380
330
32
100
AcDbDictionary
280
     1
281
     1
  3
ACAD_XREC_ROUNDTRIP
360
381
  0
DICTIONARY
  5
388
330
36
100
AcDbDictionary
280
     1
281
     1
  3
ACAD_XREC_ROUNDTRIP
360
389
  0
DICTIONARY
  5
390
330
3A
100
AcDbDictionary
280
     1
281
     1
  3
ACAD_XREC_ROUNDTRIP
360
391
  0
DICTIONARY
  5
384
330
34
100
AcDbDictionary
280
     1
281
     1
  3
ACAD_XREC_ROUNDTRIP
360
385
  0
DICTIONARY
  5
386
330
35
100
AcDbDictionary
280
     1
281
     1
  3
ACAD_XREC_ROUNDTRIP
360
387
  0
DICTIONARY
  5
38E
330
39
100
AcDbDictionary
280
     1
281
     1
  3
ACAD_XREC_ROUNDTRIP
360
38F
  0
DICTIONARY
  5
372
330
2B
100
AcDbDictionary
280
     1
281
     1
  3
ACAD_XREC_ROUNDTRIP
360
373
  0
DICTIONARY
  5
374
330
2C
100
AcDbDictionary
280
     1
281
     1
  3
ACAD_XREC_ROUNDTRIP
360
375
  0
DICTIONARY
  5
376
330
2D
100
AcDbDictionary
280
     1
281
     1
  3
ACAD_XREC_ROUNDTRIP
360
377
  0
DICTIONARY
  5
378
330
2E
100
AcDbDictionary
280
     1
281
     1
  3
ACAD_XREC_ROUNDTRIP
360
379
  0
DICTIONARY
  5
38C
330
38
100
AcDbDictionary
280
     1
281
     1
  3
ACAD_XREC_ROUNDTRIP
360
38D
  0
DICTIONARY
  5
382
330
33
100
AcDbDictionary
280
     1
281
     1
  3
ACAD_XREC_ROUNDTRIP
360
383
  0
DICTIONARY
  5
38A
330
37
100
AcDbDictionary
280
     1
281
     1
  3
ACAD_XREC_ROUNDTRIP
360
38B
  0
XRECORD
  5
395
102
{ACAD_REACTORS
330
394
102
}
330
394
100
AcDbXrecord
280
     1
102
MATERIAL
148
0.0
149
0.0
149
0.0
 93
        0
 94
      127
282
     0
 72
     1
 77
     1
171
     1
175
     1
179
     1
273
     0
  0
XRECORD
  5
393
102
{ACAD_REACTORS
330
392
102
}
330
392
100
AcDbXrecord
280
     1
102
MATERIAL
148
0.0
149
0.0
149
0.0
 93
        0
 94
      127
282
     0
 72
     1
 77
     1
171
     1
175
     1
179
     1
273
     0
  0
XRECORD
  5
397
102
{ACAD_REACTORS
330
396
102
}
330
396
100
AcDbXrecord
280
     1
102
MATERIAL
148
0.0
149
0.0
149
0.0
 93
        0
 94
      127
282
     0
 72
     1
 77
     1
171
     1
175
     1
179
     1
273
     0
  0
XRECORD
  5
37B
102
{ACAD_REACTORS
330
37A
102
}
330
37A
100
AcDbXrecord
280
     1
102
RTVSPropertyOp0
 70
     1
102
RTVSPropertyOp1
 70
     1
102
RTVSPropertyOp2
 70
     1
102
RTVSPropertyOp3
 70
     1
102
RTVSPropertyOp4
 70
     1
102
RTVSPropertyOp5
 70
     1
102
RTVSPropertyOp6
 70
     1
102
RTVSPropertyOp7
 70
     1
102
RTVSPropertyOp8
 70
     1
102
RTVSPropertyOp9
 70
     1
102
RTVSPropertyOp10
 70
     1
102
RTVSPropertyOp11
 70
     1
102
RTVSPropertyOp12
 70
     1
102
RTVSPropertyOp13
 70
     1
102
RTVSPropertyOp14
 70
     1
102
RTVSPropertyOp15
 70
     1
102
RTVSPropertyOp16
 70
     1
102
RTVSPropertyOp17
 70
     1
102
RTVSPropertyOp18
 70
     1
102
RTVSPropertyOp19
 70
     1
102
RTVSPropertyOp20
 70
     1
102
RTVSPropertyOp21
 70
     1
102
RTVSPropertyOp22
 70
     1
102
RTVSPropertyOp23
 70
     1
102
RTVSPropertyOp24
 70
     1
102
RTVSPropertyOp25
 70
     1
102
RTVSPropertyOp26
 70
     1
102
RTVSPropertyOp27
 70
     1
  0
XRECORD
  5
37F
102
{ACAD_REACTORS
330
37E
102
}
330
37E
100
AcDbXrecord
280
     1
102
RTVSPropertyOp0
 70
     1
102
RTVSPropertyOp1
 70
     1
102
RTVSPropertyOp2
 70
     1
102
RTVSPropertyOp3
 70
     1
102
RTVSPropertyOp4
 70
     1
102
RTVSPropertyOp5
 70
     1
102
RTVSPropertyOp6
 70
     1
102
RTVSPropertyOp7
 70
     1
102
RTVSPropertyOp8
 70
     1
102
RTVSPropertyOp9
 70
     1
102
RTVSPropertyOp10
 70
     1
102
RTVSPropertyOp11
 70
     1
102
RTVSPropertyOp12
 70
     1
102
RTVSPropertyOp13
 70
     1
102
RTVSPropertyOp14
 70
     1
102
RTVSPropertyOp15
 70
     1
102
RTVSPropertyOp16
 70
     1
102
RTVSPropertyOp17
 70
     1
102
RTVSPropertyOp18
 70
     1
102
RTVSPropertyOp19
 70
     1
102
RTVSPropertyOp20
 70
     1
102
RTVSPropertyOp21
 70
     1
102
RTVSPropertyOp22
 70
     1
102
RTVSPropertyOp23
 70
     1
102
RTVSPropertyOp24
 70
     1
102
RTVSPropertyOp25
 70
     1
102
RTVSPropertyOp26
 70
     1
102
RTVSPropertyOp27
 70
     1
  0
XRECORD
  5
37D
102
{ACAD_REACTORS
330
37C
102
}
330
37C
100
AcDbXrecord
280
     1
102
RTVSPropertyOp0
 70
     1
102
RTVSPropertyOp1
 70
     1
102
RTVSPropertyOp2
 70
     1
102
RTVSPropertyOp3
 70
     1
102
RTVSPropertyOp4
 70
     1
102
RTVSPropertyOp5
 70
     1
102
RTVSPropertyOp6
 70
     1
102
RTVSPropertyOp7
 70
     1
102
RTVSPropertyOp8
 70
     1
102
RTVSPropertyOp9
 70
     1
102
RTVSPropertyOp10
 70
     1
102
RTVSPropertyOp11
 70
     1
102
RTVSPropertyOp12
 70
     1
102
RTVSPropertyOp13
 70
     1
102
RTVSPropertyOp14
 70
     1
102
RTVSPropertyOp15
 70
     1
102
RTVSPropertyOp16
 70
     1
102
RTVSPropertyOp17
 70
     1
102
RTVSPropertyOp18
 70
     1
102
RTVSPropertyOp19
 70
     1
102
RTVSPropertyOp20
 70
     1
102
RTVSPropertyOp21
 70
     1
102
RTVSPropertyOp22
 70
     1
102
RTVSPropertyOp23
 70
     1
102
RTVSPropertyOp24
 70
     1
102
RTVSPropertyOp25
 70
     1
102
RTVSPropertyOp26
 70
     1
102
RTVSPropertyOp27
 70
     1
  0
XRECORD
  5
381
102
{ACAD_REACTORS
330
380
102
}
330
380
100
AcDbXrecord
280
     1
102
RTVSPropertyOp0
 70
     1
102
RTVSPropertyOp1
 70
     1
102
RTVSPropertyOp2
 70
     1
102
RTVSPropertyOp3
 70
     1
102
RTVSPropertyOp4
 70
     1
102
RTVSPropertyOp5
 70
     1
102
RTVSPropertyOp6
 70
     1
102
RTVSPropertyOp7
 70
     1
102
RTVSPropertyOp8
 70
     1
102
RTVSPropertyOp9
 70
     1
102
RTVSPropertyOp10
 70
     1
102
RTVSPropertyOp11
 70
     1
102
RTVSPropertyOp12
 70
     1
102
RTVSPropertyOp13
 70
     1
102
RTVSPropertyOp14
 70
     1
102
RTVSPropertyOp15
 70
     1
102
RTVSPropertyOp16
 70
     1
102
RTVSPropertyOp17
 70
     1
102
RTVSPropertyOp18
 70
     1
102
RTVSPropertyOp19
 70
     1
102
RTVSPropertyOp20
 70
     1
102
RTVSPropertyOp21
 70
     1
102
RTVSPropertyOp22
 70
     1
102
RTVSPropertyOp23
 70
     1
102
RTVSPropertyOp24
 70
     1
102
RTVSPropertyOp25
 70
     1
102
RTVSPropertyOp26
 70
     1
102
RTVSPropertyOp27
 70
     1
  0
XRECORD
  5
389
102
{ACAD_REACTORS
330
388
102
}
330
388
100
AcDbXrecord
280
     1
102
RTVSPropertyOp0
 70
     1
102
RTVSPropertyOp1
 70
     1
102
RTVSPropertyOp2
 70
     1
102
RTVSPropertyOp3
 70
     1
102
RTVSPropertyOp4
 70
     1
102
RTVSPropertyOp5
 70
     1
102
RTVSPropertyOp6
 70
     1
102
RTVSPropertyOp7
 70
     1
102
RTVSPropertyOp8
 70
     1
102
RTVSPropertyOp9
 70
     1
102
RTVSPropertyOp10
 70
     1
102
RTVSPropertyOp11
 70
     1
102
RTVSPropertyOp12
 70
     1
102
RTVSPropertyOp13
 70
     1
102
RTVSPropertyOp14
 70
     1
102
RTVSPropertyOp15
 70
     1
102
RTVSPropertyOp16
 70
     1
102
RTVSPropertyOp17
 70
     1
102
RTVSPropertyOp18
 70
     1
102
RTVSPropertyOp19
 70
     1
102
RTVSPropertyOp20
 70
     1
102
RTVSPropertyOp21
 70
     1
102
RTVSPropertyOp22
 70
     1
102
RTVSPropertyOp23
 70
     1
102
RTVSPropertyOp24
 70
     1
102
RTVSPropertyOp25
 70
     1
102
RTVSPropertyOp26
 70
     1
102
RTVSPropertyOp27
 70
     1
  0
XRECORD
  5
391
102
{ACAD_REACTORS
330
390
102
}
330
390
100
AcDbXrecord
280
     1
102
RTVSPropertyOp0
 70
     1
102
RTVSPropertyOp1
 70
     1
102
RTVSPropertyOp2
 70
     1
102
RTVSPropertyOp3
 70
     1
102
RTVSPropertyOp4
 70
     1
102
RTVSPropertyOp5
 70
     1
102
RTVSPropertyOp6
 70
     1
102
RTVSPropertyOp7
 70
     1
102
RTVSPropertyOp8
 70
     1
102
RTVSPropertyOp9
 70
     1
102
RTVSPropertyOp10
 70
     1
102
RTVSPropertyOp11
 70
     1
102
RTVSPropertyOp12
 70
     1
102
RTVSPropertyOp13
 70
     1
102
RTVSPropertyOp14
 70
     1
102
RTVSPropertyOp15
 70
     1
102
RTVSPropertyOp16
 70
     1
102
RTVSPropertyOp17
 70
     1
102
RTVSPropertyOp18
 70
     1
102
RTVSPropertyOp19
 70
     1
102
RTVSPropertyOp20
 70
     1
102
RTVSPropertyOp21
 70
     1
102
RTVSPropertyOp22
 70
     1
102
RTVSPropertyOp23
 70
     1
102
RTVSPropertyOp24
 70
     1
102
RTVSPropertyOp25
 70
     1
102
RTVSPropertyOp26
 70
     1
102
RTVSPropertyOp27
 70
     1
  0
XRECORD
  5
385
102
{ACAD_REACTORS
330
384
102
}
330
384
100
AcDbXrecord
280
     1
102
RTVSPropertyOp0
 70
     1
102
RTVSPropertyOp1
 70
     1
102
RTVSPropertyOp2
 70
     1
102
RTVSPropertyOp3
 70
     1
102
RTVSPropertyOp4
 70
     1
102
RTVSPropertyOp5
 70
     1
102
RTVSPropertyOp6
 70
     1
102
RTVSPropertyOp7
 70
     1
102
RTVSPropertyOp8
 70
     1
102
RTVSPropertyOp9
 70
     1
102
RTVSPropertyOp10
 70
     1
102
RTVSPropertyOp11
 70
     1
102
RTVSPropertyOp12
 70
     1
102
RTVSPropertyOp13
 70
     1
102
RTVSPropertyOp14
 70
     1
102
RTVSPropertyOp15
 70
     1
102
RTVSPropertyOp16
 70
     1
102
RTVSPropertyOp17
 70
     1
102
RTVSPropertyOp18
 70
     1
102
RTVSPropertyOp19
 70
     1
102
RTVSPropertyOp20
 70
     1
102
RTVSPropertyOp21
 70
     1
102
RTVSPropertyOp22
 70
     1
102
RTVSPropertyOp23
 70
     1
102
RTVSPropertyOp24
 70
     1
102
RTVSPropertyOp25
 70
     1
102
RTVSPropertyOp26
 70
     1
102
RTVSPropertyOp27
 70
     1
  0
XRECORD
  5
387
102
{ACAD_REACTORS
330
386
102
}
330
386
100
AcDbXrecord
280
     1
102
RTVSPropertyOp0
 70
     1
102
RTVSPropertyOp1
 70
     1
102
RTVSPropertyOp2
 70
     1
102
RTVSPropertyOp3
 70
     1
102
RTVSPropertyOp4
 70
     1
102
RTVSPropertyOp5
 70
     1
102
RTVSPropertyOp6
 70
     1
102
RTVSPropertyOp7
 70
     1
102
RTVSPropertyOp8
 70
     1
102
RTVSPropertyOp9
 70
     1
102
RTVSPropertyOp10
 70
     1
102
RTVSPropertyOp11
 70
     1
102
RTVSPropertyOp12
 70
     1
102
RTVSPropertyOp13
 70
     1
102
RTVSPropertyOp14
 70
     1
102
RTVSPropertyOp15
 70
     1
102
RTVSPropertyOp16
 70
     1
102
RTVSPropertyOp17
 70
     1
102
RTVSPropertyOp18
 70
     1
102
RTVSPropertyOp19
 70
     1
102
RTVSPropertyOp20
 70
     1
102
RTVSPropertyOp21
 70
     1
102
RTVSPropertyOp22
 70
     1
102
RTVSPropertyOp23
 70
     1
102
RTVSPropertyOp24
 70
     1
102
RTVSPropertyOp25
 70
     1
102
RTVSPropertyOp26
 70
     1
102
RTVSPropertyOp27
 70
     1
  0
XRECORD
  5
38F
102
{ACAD_REACTORS
330
38E
102
}
330
38E
100
AcDbXrecord
280
     1
102
RTVSPropertyOp0
 70
     1
102
RTVSPropertyOp1
 70
     1
102
RTVSPropertyOp2
 70
     1
102
RTVSPropertyOp3
 70
     1
102
RTVSPropertyOp4
 70
     1
102
RTVSPropertyOp5
 70
     1
102
RTVSPropertyOp6
 70
     1
102
RTVSPropertyOp7
 70
     1
102
RTVSPropertyOp8
 70
     1
102
RTVSPropertyOp9
 70
     1
102
RTVSPropertyOp10
 70
     1
102
RTVSPropertyOp11
 70
     1
102
RTVSPropertyOp12
 70
     1
102
RTVSPropertyOp13
 70
     1
102
RTVSPropertyOp14
 70
     1
102
RTVSPropertyOp15
 70
     1
102
RTVSPropertyOp16
 70
     1
102
RTVSPropertyOp17
 70
     1
102
RTVSPropertyOp18
 70
     1
102
RTVSPropertyOp19
 70
     1
102
RTVSPropertyOp20
 70
     1
102
RTVSPropertyOp21
 70
     1
102
RTVSPropertyOp22
 70
     1
102
RTVSPropertyOp23
 70
     1
102
RTVSPropertyOp24
 70
     1
102
RTVSPropertyOp25
 70
     1
102
RTVSPropertyOp26
 70
     1
102
RTVSPropertyOp27
 70
     1
  0
XRECORD
  5
373
102
{ACAD_REACTORS
330
372
102
}
330
372
100
AcDbXrecord
280
     1
102
RTVSPropertyOp0
 70
     1
102
RTVSPropertyOp1
 70
     1
102
RTVSPropertyOp2
 70
     1
102
RTVSPropertyOp3
 70
     1
102
RTVSPropertyOp4
 70
     1
102
RTVSPropertyOp5
 70
     1
102
RTVSPropertyOp6
 70
     1
102
RTVSPropertyOp7
 70
     1
102
RTVSPropertyOp8
 70
     1
102
RTVSPropertyOp9
 70
     1
102
RTVSPropertyOp10
 70
     1
102
RTVSPropertyOp11
 70
     1
102
RTVSPropertyOp12
 70
     1
102
RTVSPropertyOp13
 70
     1
102
RTVSPropertyOp14
 70
     1
102
RTVSPropertyOp15
 70
     1
102
RTVSPropertyOp16
 70
     1
102
RTVSPropertyOp17
 70
     1
102
RTVSPropertyOp18
 70
     1
102
RTVSPropertyOp19
 70
     1
102
RTVSPropertyOp20
 70
     1
102
RTVSPropertyOp21
 70
     1
102
RTVSPropertyOp22
 70
     1
102
RTVSPropertyOp23
 70
     1
102
RTVSPropertyOp24
 70
     1
102
RTVSPropertyOp25
 70
     1
102
RTVSPropertyOp26
 70
     1
102
RTVSPropertyOp27
 70
     1
  0
XRECORD
  5
375
102
{ACAD_REACTORS
330
374
102
}
330
374
100
AcDbXrecord
280
     1
102
RTVSPropertyOp0
 70
     1
102
RTVSPropertyOp1
 70
     1
102
RTVSPropertyOp2
 70
     1
102
RTVSPropertyOp3
 70
     1
102
RTVSPropertyOp4
 70
     1
102
RTVSPropertyOp5
 70
     1
102
RTVSPropertyOp6
 70
     1
102
RTVSPropertyOp7
 70
     1
102
RTVSPropertyOp8
 70
     1
102
RTVSPropertyOp9
 70
     1
102
RTVSPropertyOp10
 70
     1
102
RTVSPropertyOp11
 70
     1
102
RTVSPropertyOp12
 70
     1
102
RTVSPropertyOp13
 70
     1
102
RTVSPropertyOp14
 70
     1
102
RTVSPropertyOp15
 70
     1
102
RTVSPropertyOp16
 70
     1
102
RTVSPropertyOp17
 70
     1
102
RTVSPropertyOp18
 70
     1
102
RTVSPropertyOp19
 70
     1
102
RTVSPropertyOp20
 70
     1
102
RTVSPropertyOp21
 70
     1
102
RTVSPropertyOp22
 70
     1
102
RTVSPropertyOp23
 70
     1
102
RTVSPropertyOp24
 70
     1
102
RTVSPropertyOp25
 70
     1
102
RTVSPropertyOp26
 70
     1
102
RTVSPropertyOp27
 70
     1
  0
XRECORD
  5
377
102
{ACAD_REACTORS
330
376
102
}
330
376
100
AcDbXrecord
280
     1
102
RTVSPropertyOp0
 70
     1
102
RTVSPropertyOp1
 70
     1
102
RTVSPropertyOp2
 70
     1
102
RTVSPropertyOp3
 70
     1
102
RTVSPropertyOp4
 70
     1
102
RTVSPropertyOp5
 70
     1
102
RTVSPropertyOp6
 70
     1
102
RTVSPropertyOp7
 70
     1
102
RTVSPropertyOp8
 70
     1
102
RTVSPropertyOp9
 70
     1
102
RTVSPropertyOp10
 70
     1
102
RTVSPropertyOp11
 70
     1
102
RTVSPropertyOp12
 70
     1
102
RTVSPropertyOp13
 70
     1
102
RTVSPropertyOp14
 70
     1
102
RTVSPropertyOp15
 70
     1
102
RTVSPropertyOp16
 70
     1
102
RTVSPropertyOp17
 70
     1
102
RTVSPropertyOp18
 70
     1
102
RTVSPropertyOp19
 70
     1
102
RTVSPropertyOp20
 70
     1
102
RTVSPropertyOp21
 70
     1
102
RTVSPropertyOp22
 70
     1
102
RTVSPropertyOp23
 70
     1
102
RTVSPropertyOp24
 70
     1
102
RTVSPropertyOp25
 70
     1
102
RTVSPropertyOp26
 70
     1
102
RTVSPropertyOp27
 70
     1
  0
XRECORD
  5
379
102
{ACAD_REACTORS
330
378
102
}
330
378
100
AcDbXrecord
280
     1
102
RTVSPropertyOp0
 70
     1
102
RTVSPropertyOp1
 70
     1
102
RTVSPropertyOp2
 70
     1
102
RTVSPropertyOp3
 70
     1
102
RTVSPropertyOp4
 70
     1
102
RTVSPropertyOp5
 70
     1
102
RTVSPropertyOp6
 70
     1
102
RTVSPropertyOp7
 70
     1
102
RTVSPropertyOp8
 70
     1
102
RTVSPropertyOp9
 70
     1
102
RTVSPropertyOp10
 70
     1
102
RTVSPropertyOp11
 70
     1
102
RTVSPropertyOp12
 70
     1
102
RTVSPropertyOp13
 70
     1
102
RTVSPropertyOp14
 70
     1
102
RTVSPropertyOp15
 70
     1
102
RTVSPropertyOp16
 70
     1
102
RTVSPropertyOp17
 70
     1
102
RTVSPropertyOp18
 70
     1
102
RTVSPropertyOp19
 70
     1
102
RTVSPropertyOp20
 70
     1
102
RTVSPropertyOp21
 70
     1
102
RTVSPropertyOp22
 70
     1
102
RTVSPropertyOp23
 70
     1
102
RTVSPropertyOp24
 70
     1
102
RTVSPropertyOp25
 70
     1
102
RTVSPropertyOp26
 70
     1
102
RTVSPropertyOp27
 70
     1
  0
XRECORD
  5
38D
102
{ACAD_REACTORS
330
38C
102
}
330
38C
100
AcDbXrecord
280
     1
102
RTVSPropertyOp0
 70
     1
102
RTVSPropertyOp1
 70
     1
102
RTVSPropertyOp2
 70
     1
102
RTVSPropertyOp3
 70
     1
102
RTVSPropertyOp4
 70
     1
102
RTVSPropertyOp5
 70
     1
102
RTVSPropertyOp6
 70
     1
102
RTVSPropertyOp7
 70
     1
102
RTVSPropertyOp8
 70
     1
102
RTVSPropertyOp9
 70
     1
102
RTVSPropertyOp10
 70
     1
102
RTVSPropertyOp11
 70
     1
102
RTVSPropertyOp12
 70
     1
102
RTVSPropertyOp13
 70
     1
102
RTVSPropertyOp14
 70
     1
102
RTVSPropertyOp15
 70
     1
102
RTVSPropertyOp16
 70
     1
102
RTVSPropertyOp17
 70
     1
102
RTVSPropertyOp18
 70
     1
102
RTVSPropertyOp19
 70
     1
102
RTVSPropertyOp20
 70
     1
102
RTVSPropertyOp21
 70
     1
102
RTVSPropertyOp22
 70
     1
102
RTVSPropertyOp23
 70
     1
102
RTVSPropertyOp24
 70
     1
102
RTVSPropertyOp25
 70
     1
102
RTVSPropertyOp26
 70
     1
102
RTVSPropertyOp27
 70
     1
  0
XRECORD
  5
383
102
{ACAD_REACTORS
330
382
102
}
330
382
100
AcDbXrecord
280
     1
102
RTVSPropertyOp0
 70
     1
102
RTVSPropertyOp1
 70
     1
102
RTVSPropertyOp2
 70
     1
102
RTVSPropertyOp3
 70
     1
102
RTVSPropertyOp4
 70
     1
102
RTVSPropertyOp5
 70
     1
102
RTVSPropertyOp6
 70
     1
102
RTVSPropertyOp7
 70
     1
102
RTVSPropertyOp8
 70
     1
102
RTVSPropertyOp9
 70
     1
102
RTVSPropertyOp10
 70
     1
102
RTVSPropertyOp11
 70
     1
102
RTVSPropertyOp12
 70
     1
102
RTVSPropertyOp13
 70
     1
102
RTVSPropertyOp14
 70
     1
102
RTVSPropertyOp15
 70
     1
102
RTVSPropertyOp16
 70
     1
102
RTVSPropertyOp17
 70
     1
102
RTVSPropertyOp18
 70
     1
102
RTVSPropertyOp19
 70
     1
102
RTVSPropertyOp20
 70
     1
102
RTVSPropertyOp21
 70
     1
102
RTVSPropertyOp22
 70
     1
102
RTVSPropertyOp23
 70
     1
102
RTVSPropertyOp24
 70
     1
102
RTVSPropertyOp25
 70
     1
102
RTVSPropertyOp26
 70
     1
102
RTVSPropertyOp27
 70
     1
  0
XRECORD
  5
38B
102
{ACAD_REACTORS
330
38A
102
}
330
38A
100
AcDbXrecord
280
     1
102
RTVSPropertyOp0
 70
     1
102
RTVSPropertyOp1
 70
     1
102
RTVSPropertyOp2
 70
     1
102
RTVSPropertyOp3
 70
     1
102
RTVSPropertyOp4
 70
     1
102
RTVSPropertyOp5
 70
     1
102
RTVSPropertyOp6
 70
     1
102
RTVSPropertyOp7
 70
     1
102
RTVSPropertyOp8
 70
     1
102
RTVSPropertyOp9
 70
     1
102
RTVSPropertyOp10
 70
     1
102
RTVSPropertyOp11
 70
     1
102
RTVSPropertyOp12
 70
     1
102
RTVSPropertyOp13
 70
     1
102
RTVSPropertyOp14
 70
     1
102
RTVSPropertyOp15
 70
     1
102
RTVSPropertyOp16
 70
     1
102
RTVSPropertyOp17
 70
     1
102
RTVSPropertyOp18
 70
     1
102
RTVSPropertyOp19
 70
     1
102
RTVSPropertyOp20
 70
     1
102
RTVSPropertyOp21
 70
     1
102
RTVSPropertyOp22
 70
     1
102
RTVSPropertyOp23
 70
     1
102
RTVSPropertyOp24
 70
     1
102
RTVSPropertyOp25
 70
     1
102
RTVSPropertyOp26
 70
     1
102
RTVSPropertyOp27
 70
     1
  0
ENDSEC
  0
EOF
