  0
SECTION
  2
HEADER
  9
$ACADVER
  1
AC1015
  9
$ACADMAINTVER
 70
     6
  9
$DWGCODEPAGE
  3
ANSI_1252
  9
$INSBASE
 10
0.0
 20
0.0
 30
0.0
  9
$EXTMIN
 10
0.0
 20
0.0
 30
0.0
  9
$EXTMAX
 10
38.25
 20
24.75
 30
0.0
  9
$LIMMIN
 10
0.0
 20
0.0
  9
$LIMMAX
 10
38.25
 20
24.75
  9
$ORTHOMODE
 70
     0
  9
$REGENMODE
 70
     1
  9
$FILLMODE
 70
     1
  9
$QTEXTMODE
 70
     0
  9
$MIRRTEXT
 70
     1
  9
$LTSCALE
 40
2.25
  9
$ATTMODE
 70
     1
  9
$TEXTSIZE
 40
0.28125
  9
$TRACEWID
 40
0.05
  9
$TEXTSTYLE
  7
Standard
  9
$CLAYER
  8
0
  9
$CELTYPE
  6
ByLayer
  9
$CECOLOR
 62
   256
  9
$CELTSCALE
 40
1.0
  9
$DISPSILH
 70
     0
  9
$DIMSCALE
 40
1.0
  9
$DIMASZ
 40
0.2925
  9
$DIMEXO
 40
0.1125
  9
$DIMDLI
 40
0.38
  9
$DIMRND
 40
0.0
  9
$DIMDLE
 40
0.0
  9
$DIMEXE
 40
0.28125
  9
$DIMTP
 40
0.0
  9
$DIMTM
 40
0.0
  9
$DIMTXT
 40
0.28125
  9
$DIMCEN
 40
0.09
  9
$DIMTSZ
 40
0.0
  9
$DIMTOL
 70
     0
  9
$DIMLIM
 70
     0
  9
$DIMTIH
 70
     1
  9
$DIMTOH
 70
     1
  9
$DIMSE1
 70
     0
  9
$DIMSE2
 70
     0
  9
$DIMTAD
 70
     1
  9
$DIMZIN
 70
     0
  9
$DIMBLK
  1

  9
$DIMASO
 70
     1
  9
$DIMSHO
 70
     1
  9
$DIMPOST
  1

  9
$DIMAPOST
  1

  9
$DIMALT
 70
     0
  9
$DIMALTD
 70
     2
  9
$DIMALTF
 40
25.4
  9
$DIMLFAC
 40
1.0
  9
$DIMTOFL
 70
     0
  9
$DIMTVP
 40
0.0
  9
$DIMTIX
 70
     0
  9
$DIMSOXD
 70
     0
  9
$DIMSAH
 70
     0
  9
$DIMBLK1
  1

  9
$DIMBLK2
  1

  9
$DIMSTYLE
  2
Standard
  9
$DIMCLRD
 70
     0
  9
$DIMCLRE
 70
     0
  9
$DIMCLRT
 70
     0
  9
$DIMTFAC
 40
1.0
  9
$DIMGAP
 40
0.135
  9
$DIMJUST
 70
     0
  9
$DIMSD1
 70
     0
  9
$DIMSD2
 70
     0
  9
$DIMTOLJ
 70
     1
  9
$DIMTZIN
 70
     0
  9
$DIMALTZ
 70
     0
  9
$DIMALTTZ
 70
     0
  9
$DIMUPT
 70
     0
  9
$DIMDEC
 70
     2
  9
$DIMTDEC
 70
     2
  9
$DIMALTU
 70
     2
  9
$DIMALTTD
 70
     2
  9
$DIMTXSTY
  7
Standard
  9
$DIMAUNIT
 70
     0
  9
$DIMADEC
 70
     2
  9
$DIMALTRND
 40
0.0
  9
$DIMAZIN
 70
     0
  9
$DIMDSEP
 70
    46
  9
$DIMATFIT
 70
     3
  9
$DIMFRAC
 70
     0
  9
$DIMLDRBLK
  1

  9
$DIMLUNIT
 70
     2
  9
$DIMLWD
 70
    -2
  9
$DIMLWE
 70
    -2
  9
$DIMTMOVE
 70
     0
  9
$LUNITS
 70
     2
  9
$LUPREC
 70
     2
  9
$SKETCHINC
 40
0.1
  9
$FILLETRAD
 40
0.5
  9
$AUNITS
 70
     0
  9
$AUPREC
 70
     2
  9
$MENU
  1
.
  9
$ELEVATION
 40
0.0
  9
$PELEVATION
 40
0.0
  9
$THICKNESS
 40
0.0
  9
$LIMCHECK
 70
     0
  9
$CHAMFERA
 40
0.5
  9
$CHAMFERB
 40
0.5
  9
$CHAMFERC
 40
1.0
  9
$CHAMFERD
 40
0.0
  9
$SKPOLY
 70
     0
  9
$TDCREATE
 40
2455761.406133484
  9
$TDUCREATE
 40
2455761.572800151
  9
$TDUPDATE
 40
2455761.406133495
  9
$TDUUPDATE
 40
2455761.572800162
  9
$TDINDWG
 40
0.0000000116
  9
$TDUSRTIMER
 40
0.0000000116
  9
$USRTIMER
 70
     1
  9
$ANGBASE
 50
0.0
  9
$ANGDIR
 70
     0
  9
$PDMODE
 70
     0
  9
$PDSIZE
 40
-1.0
  9
$PLINEWID
 40
0.0
  9
$SPLFRAME
 70
     0
  9
$SPLINETYPE
 70
     6
  9
$SPLINESEGS
 70
     8
  9
$HANDSEED
  5
42D
  9
$SURFTAB1
 70
     6
  9
$SURFTAB2
 70
     6
  9
$SURFTYPE
 70
     6
  9
$SURFU
 70
     6
  9
$SURFV
 70
     6
  9
$UCSBASE
  2

  9
$UCSNAME
  2

  9
$UCSORG
 10
0.0
 20
0.0
 30
0.0
  9
$UCSXDIR
 10
1.0
 20
0.0
 30
0.0
  9
$UCSYDIR
 10
0.0
 20
1.0
 30
0.0
  9
$UCSORTHOREF
  2

  9
$UCSORTHOVIEW
 70
     0
  9
$UCSORGTOP
 10
0.0
 20
0.0
 30
0.0
  9
$UCSORGBOTTOM
 10
0.0
 20
0.0
 30
0.0
  9
$UCSORGLEFT
 10
0.0
 20
0.0
 30
0.0
  9
$UCSORGRIGHT
 10
0.0
 20
0.0
 30
0.0
  9
$UCSORGFRONT
 10
0.0
 20
0.0
 30
0.0
  9
$UCSORGBACK
 10
0.0
 20
0.0
 30
0.0
  9
$PUCSBASE
  2

  9
$PUCSNAME
  2

  9
$PUCSORG
 10
0.0
 20
0.0
 30
0.0
  9
$PUCSXDIR
 10
1.0
 20
0.0
 30
0.0
  9
$PUCSYDIR
 10
0.0
 20
1.0
 30
0.0
  9
$PUCSORTHOREF
  2

  9
$PUCSORTHOVIEW
 70
     0
  9
$PUCSORGTOP
 10
0.0
 20
0.0
 30
0.0
  9
$PUCSORGBOTTOM
 10
0.0
 20
0.0
 30
0.0
  9
$PUCSORGLEFT
 10
0.0
 20
0.0
 30
0.0
  9
$PUCSORGRIGHT
 10
0.0
 20
0.0
 30
0.0
  9
$PUCSORGFRONT
 10
0.0
 20
0.0
 30
0.0
  9
$PUCSORGBACK
 10
0.0
 20
0.0
 30
0.0
  9
$USERI1
 70
     0
  9
$USERI2
 70
     0
  9
$USERI3
 70
     0
  9
$USERI4
 70
     0
  9
$USERI5
 70
     0
  9
$USERR1
 40
0.0
  9
$USERR2
 40
0.0
  9
$USERR3
 40
0.0
  9
$USERR4
 40
0.0
  9
$USERR5
 40
0.0
  9
$WORLDVIEW
 70
     1
  9
$SHADEDGE
 70
     3
  9
$SHADEDIF
 70
    70
  9
$TILEMODE
 70
     1
  9
$MAXACTVP
 70
    64
  9
$PINSBASE
 10
0.0
 20
0.0
 30
0.0
  9
$PLIMCHECK
 70
     0
  9
$PEXTMIN
 10
1.0000000000E+20
 20
1.0000000000E+20
 30
1.0000000000E+20
  9
$PEXTMAX
 10
-1.0000000000E+20
 20
-1.0000000000E+20
 30
-1.0000000000E+20
  9
$PLIMMIN
 10
0.0
 20
0.0
  9
$PLIMMAX
 10
12.0
 20
9.0
  9
$UNITMODE
 70
     0
  9
$VISRETAIN
 70
     1
  9
$PLINEGEN
 70
     0
  9
$PSLTSCALE
 70
     1
  9
$TREEDEPTH
 70
  3020
  9
$CMLSTYLE
  2
Standard
  9
$CMLJUST
 70
     0
  9
$CMLSCALE
 40
1.0
  9
$PROXYGRAPHICS
 70
     1
  9
$MEASUREMENT
 70
     0
  9
$CELWEIGHT
370
    -1
  9
$ENDCAPS
280
     0
  9
$JOINSTYLE
280
     0
  9
$LWDISPLAY
290
     1
  9
$INSUNITS
 70
     1
  9
$HYPERLINKBASE
  1

  9
$STYLESHEET
  1

  9
$XEDIT
290
     1
  9
$CEPSNTYPE
380
     0
  9
$PSTYLEMODE
290
     1
  9
$FINGERPRINTGUID
  2
{F7F8BC6D-3882-456A-8341-3A825D6429C1}
  9
$VERSIONGUID
  2
{FAEB1C32-E019-11D5-929B-00C0DF256EC4}
  9
$EXTNAMES
290
     1
  9
$PSVPSCALE
 40
0.0
  9
$OLESTARTUP
290
     0
  0
ENDSEC
  0
SECTION
  2
CLASSES
  0
CLASS
  1
ACDBDICTIONARYWDFLT
  2
AcDbDictionaryWithDefault
  3
ObjectDBX Classes
 90
        0
280
     0
281
     0
  0
CLASS
  1
VISUALSTYLE
  2
AcDbVisualStyle
  3
ObjectDBX Classes
 90
     4095
280
     0
281
     0
  0
CLASS
  1
MATERIAL
  2
AcDbMaterial
  3
ObjectDBX Classes
 90
     1153
280
     0
281
     0
  0
CLASS
  1
SCALE
  2
AcDbScale
  3
ObjectDBX Classes
 90
     1153
280
     0
281
     0
  0
CLASS
  1
DICTIONARYVAR
  2
AcDbDictionaryVar
  3
ObjectDBX Classes
 90
        0
280
     0
281
     0
  0
CLASS
  1
ACDBPLACEHOLDER
  2
AcDbPlaceHolder
  3
ObjectDBX Classes
 90
        0
280
     0
281
     0
  0
CLASS
  1
LAYOUT
  2
AcDbLayout
  3
ObjectDBX Classes
 90
        0
280
     0
281
     0
  0
ENDSEC
  0
SECTION
  2
TABLES
  0
TABLE
  2
VPORT
  5
8
330
0
100
AcDbSymbolTable
 70
     1
  0
VPORT
  5
29
330
8
100
AcDbSymbolTableRecord
100
AcDbViewportTableRecord
  2
*Active
 70
     0
 10
0.0
 20
0.0
 11
1.0
 21
1.0
 12
19.125
 22
12.375
 13
0.0
 23
0.0
 14
0.5
 24
0.5
 15
0.5
 25
0.5
 16
0.0
 26
0.0
 36
1.0
 17
0.0
 27
0.0
 37
0.0
 40
24.75
 41
1.5454545455
 42
50.0
 43
0.0
 44
0.0
 50
0.0
 51
0.0
 71
     0
 72
  2000
 73
     1
 74
     3
 75
     0
 76
     0
 77
     0
 78
     0
281
     0
 65
     1
110
0.0
120
0.0
130
0.0
111
1.0
121
0.0
131
0.0
112
0.0
122
1.0
132
0.0
 79
     0
146
0.0
  0
ENDTAB
  0
TABLE
  2
LTYPE
  5
5
330
0
100
AcDbSymbolTable
 70
     6
  0
LTYPE
  5
14
330
5
100
AcDbSymbolTableRecord
100
AcDbLinetypeTableRecord
  2
ByBlock
 70
     0
  3

 72
    65
 73
     0
 40
0.0
  0
LTYPE
  5
15
330
5
100
AcDbSymbolTableRecord
100
AcDbLinetypeTableRecord
  2
ByLayer
 70
     0
  3

 72
    65
 73
     0
 40
0.0
  0
LTYPE
  5
16
330
5
100
AcDbSymbolTableRecord
100
AcDbLinetypeTableRecord
  2
Continuous
 70
     0
  3
Solid line
 72
    65
 73
     0
 40
0.0
  0
LTYPE
  5
3F
330
5
100
AcDbSymbolTableRecord
100
AcDbLinetypeTableRecord
  2
HIDDEN
 70
     0
  3
Hidden __ __ __ __ __ __ __ __ __ __ __ __ __ __
 72
    65
 73
     2
 40
0.075
 49
0.05
 74
     0
 49
-0.025
 74
     0
  0
LTYPE
  5
40
330
5
100
AcDbSymbolTableRecord
100
AcDbLinetypeTableRecord
  2
PHANTOM
 70
     0
  3
Phantom ______  __  __  ______  __  __  ______
 72
    65
 73
     6
 40
0.5
 49
0.25
 74
     0
 49
-0.05
 74
     0
 49
0.05
 74
     0
 49
-0.05
 74
     0
 49
0.05
 74
     0
 49
-0.05
 74
     0
  0
LTYPE
  5
41
330
5
100
AcDbSymbolTableRecord
100
AcDbLinetypeTableRecord
  2
CENTER
 70
     0
  3
Center ____ _ ____ _ ____ _ ____ _ ____ _ ____
 72
    65
 73
     4
 40
0.4
 49
0.25
 74
     0
 49
-0.05
 74
     0
 49
0.05
 74
     0
 49
-0.05
 74
     0
  0
LTYPE
  5
42
330
5
100
AcDbSymbolTableRecord
100
AcDbLinetypeTableRecord
  2
CENTERX2
 70
     0
  3
Center (2x) ________  __  ________  __  _____
 72
    65
 73
     4
 40
0.8
 49
0.5
 74
     0
 49
-0.1
 74
     0
 49
0.1
 74
     0
 49
-0.1
 74
     0
  0
LTYPE
  5
43
330
5
100
AcDbSymbolTableRecord
100
AcDbLinetypeTableRecord
  2
DOT2
 70
     0
  3
Dot (.5x) ........................................
 72
    65
 73
     2
 40
0.025
 49
0.0
 74
     0
 49
-0.025
 74
     0
  0
ENDTAB
  0
TABLE
  2
LAYER
  5
2
330
0
100
AcDbSymbolTable
 70
     1
  0
LAYER
  5
10
330
2
100
AcDbSymbolTableRecord
100
AcDbLayerTableRecord
  2
0
 70
     0
 62
     7
  6
Continuous
370
    -3
390
F
  0
ENDTAB
  0
TABLE
  2
STYLE
  5
3
330
0
100
AcDbSymbolTable
 70
     2
  0
STYLE
  5
11
330
3
100
AcDbSymbolTableRecord
100
AcDbTextStyleTableRecord
  2
Standard
 70
     0
 40
0.0
 41
1.0
 50
0.0
 71
     0
 42
0.2
  3
txt
  4

  0
STYLE
  5
57
330
3
100
AcDbSymbolTableRecord
100
AcDbTextStyleTableRecord
  2
SLDTEXTSTYLE0
 70
     0
 40
0.0
 41
0.75
 50
0.0
 71
     0
 42
0.2
  3
TXT
  4

  0
ENDTAB
  0
TABLE
  2
VIEW
  5
6
330
0
100
AcDbSymbolTable
 70
     0
  0
ENDTAB
  0
TABLE
  2
UCS
  5
7
330
0
100
AcDbSymbolTable
 70
     0
  0
ENDTAB
  0
TABLE
  2
APPID
  5
9
330
0
100
AcDbSymbolTable
 70
     1
  0
APPID
  5
12
330
9
100
AcDbSymbolTableRecord
100
AcDbRegAppTableRecord
  2
ACAD
 70
     0
  0
ENDTAB
  0
TABLE
  2
DIMSTYLE
  5
A
330
0
100
AcDbSymbolTable
 70
     5
100
AcDbDimStyleTable
  0
DIMSTYLE
105
27
330
A
100
AcDbSymbolTableRecord
100
AcDbDimStyleTableRecord
  2
Standard
 70
     0
340
11
  0
DIMSTYLE
105
D7
102
{ACAD_REACTORS
330
D6
330
E9
330
150
330
282
330
294
330
2B7
102
}
330
A
100
AcDbSymbolTableRecord
100
AcDbDimStyleTableRecord
  2
SLDDIMSTYLE0
 70
     0
 41
0.2925
 44
0.0
 45
0.000000001
 78
     4
140
0.28125
147
0.0703125
148
0.000000001
170
     1
173
     1
271
     2
272
     2
284
    12
340
57
  0
DIMSTYLE
105
104
330
A
100
AcDbSymbolTableRecord
100
AcDbDimStyleTableRecord
  2
SLDDIMSTYLE1
 70
     0
 41
0.2925
 44
0.0
 45
0.000000001
140
0.0
146
0.2925
147
0.0
173
     1
271
     0
272
     0
340
11
  0
DIMSTYLE
105
2A7
102
{ACAD_REACTORS
330
2A6
102
}
330
A
100
AcDbSymbolTableRecord
100
AcDbDimStyleTableRecord
  2
SLDDIMSTYLE2
 70
     0
 41
0.2925
 44
0.0
 45
0.000000001
 78
    12
140
0.28125
147
0.0703125
148
0.000000001
170
     1
172
     1
173
     1
271
     3
272
     3
284
    12
340
57
  0
DIMSTYLE
105
2CA
102
{ACAD_REACTORS
330
2C9
330
3E9
102
}
330
A
100
AcDbSymbolTableRecord
100
AcDbDimStyleTableRecord
  2
SLDDIMSTYLE3
 70
     0
 41
0.2925
 44
0.0
 45
0.000000001
 78
     4
140
0.28125
147
0.0703125
148
0.000000001
170
     1
173
     1
271
     2
272
     2
284
    12
340
57
  0
ENDTAB
  0
TABLE
  2
BLOCK_RECORD
  5
1
330
0
100
AcDbSymbolTable
 70
    16
  0
BLOCK_RECORD
  5
1F
330
1
100
AcDbSymbolTableRecord
100
AcDbBlockTableRecord
  2
*Model_Space
340
22
  0
BLOCK_RECORD
  5
1B
330
1
100
AcDbSymbolTableRecord
100
AcDbBlockTableRecord
  2
*Paper_Space
340
1E
  0
BLOCK_RECORD
  5
23
330
1
100
AcDbSymbolTableRecord
100
AcDbBlockTableRecord
  2
*Paper_Space0
340
26
  0
BLOCK_RECORD
  5
54
330
1
100
AcDbSymbolTableRecord
100
AcDbBlockTableRecord
  2
SW_NOTE_0
340
0
102
{BLKREFS
331
7C
102
}
  0
BLOCK_RECORD
  5
80
330
1
100
AcDbSymbolTableRecord
100
AcDbBlockTableRecord
  2
SW_NOTE_1
340
0
102
{BLKREFS
331
85
102
}
  0
BLOCK_RECORD
  5
86
330
1
100
AcDbSymbolTableRecord
100
AcDbBlockTableRecord
  2
SW_NOTE_2
340
0
102
{BLKREFS
331
8B
102
}
  0
BLOCK_RECORD
  5
8C
330
1
100
AcDbSymbolTableRecord
100
AcDbBlockTableRecord
  2
SW_NOTE_3
340
0
102
{BLKREFS
331
91
102
}
  0
BLOCK_RECORD
  5
D8
330
1
100
AcDbSymbolTableRecord
100
AcDbBlockTableRecord
  2
*D5
340
0
  0
BLOCK_RECORD
  5
EA
330
1
100
AcDbSymbolTableRecord
100
AcDbBlockTableRecord
  2
*D6
340
0
  0
BLOCK_RECORD
  5
FB
330
1
100
AcDbSymbolTableRecord
100
AcDbBlockTableRecord
  2
SW_NOTE_4
340
0
102
{BLKREFS
331
103
102
}
  0
BLOCK_RECORD
  5
151
330
1
100
AcDbSymbolTableRecord
100
AcDbBlockTableRecord
  2
*D8
340
0
  0
BLOCK_RECORD
  5
283
330
1
100
AcDbSymbolTableRecord
100
AcDbBlockTableRecord
  2
*D9
340
0
  0
BLOCK_RECORD
  5
295
330
1
100
AcDbSymbolTableRecord
100
AcDbBlockTableRecord
  2
*D10
340
0
  0
BLOCK_RECORD
  5
2A8
330
1
100
AcDbSymbolTableRecord
100
AcDbBlockTableRecord
  2
*D11
340
0
  0
BLOCK_RECORD
  5
2B8
330
1
100
AcDbSymbolTableRecord
100
AcDbBlockTableRecord
  2
*D12
340
0
  0
BLOCK_RECORD
  5
2CB
330
1
100
AcDbSymbolTableRecord
100
AcDbBlockTableRecord
  2
*D13
340
0
  0
BLOCK_RECORD
  5
3EA
330
1
100
AcDbSymbolTableRecord
100
AcDbBlockTableRecord
  2
*D14
340
0
  0
BLOCK_RECORD
  5
3F9
330
1
100
AcDbSymbolTableRecord
100
AcDbBlockTableRecord
  2
SW_NOTE_5
340
0
102
{BLKREFS
331
3FE
102
}
  0
ENDTAB
  0
ENDSEC
  0
SECTION
  2
BLOCKS
  0
BLOCK
  5
20
330
1F
100
AcDbEntity
  8
0
100
AcDbBlockBegin
  2
*Model_Space
 70
     0
 10
0.0
 20
0.0
 30
0.0
  3
*Model_Space
  1

  0
ENDBLK
  5
21
330
1F
100
AcDbEntity
  8
0
100
AcDbBlockEnd
  0
BLOCK
  5
1C
330
1B
100
AcDbEntity
 67
     1
  8
0
100
AcDbBlockBegin
  2
*Paper_Space
 70
     0
 10
0.0
 20
0.0
 30
0.0
  3
*Paper_Space
  1

  0
ENDBLK
  5
1D
330
1B
100
AcDbEntity
 67
     1
  8
0
100
AcDbBlockEnd
  0
BLOCK
  5
24
330
23
100
AcDbEntity
  8
0
100
AcDbBlockBegin
  2
*Paper_Space0
 70
     0
 10
0.0
 20
0.0
 30
0.0
  3
*Paper_Space0
  1

  0
ENDBLK
  5
25
330
23
100
AcDbEntity
  8
0
100
AcDbBlockEnd
  0
BLOCK
  5
55
330
54
100
AcDbEntity
  8
0
100
AcDbBlockBegin
  2
SW_NOTE_0
 70
     0
 10
0.0
 20
0.0
 30
0.0
  3
SW_NOTE_0
  1

  0
MTEXT
  5
7A
330
54
100
AcDbEntity
  8
0
  6
Continuous
 62
     0
 48
2.25
370
     0
100
AcDbMText
 10
0.0
 20
0.3625503018
 30
0.0
 40
0.28125
 41
0.0
 71
     1
 72
     1
  1
MATERIAL - 16 GA. [1.5mm] STEEL
  7
SLDTEXTSTYLE0
 73
     1
 44
1.0
  0
MTEXT
  5
7B
330
54
100
AcDbEntity
  8
0
  6
Continuous
 62
     0
 48
2.25
370
     0
100
AcDbMText
 10
0.0
 20
-0.3771150335
 30
0.0
 40
0.28125
 41
0.0
 71
     1
 72
     1
  1
FINISH - SMOOTH GRAY POWDERCOAT
  7
SLDTEXTSTYLE0
 73
     1
 44
1.0
  0
ENDBLK
  5
56
330
54
100
AcDbEntity
  8
0
100
AcDbBlockEnd
  0
BLOCK
  5
81
330
80
100
AcDbEntity
  8
0
100
AcDbBlockBegin
  2
SW_NOTE_1
 70
     0
 10
0.0
 20
0.0
 30
0.0
  3
SW_NOTE_1
  1

  0
MTEXT
  5
83
330
80
100
AcDbEntity
  8
0
  6
Continuous
 62
     0
 48
2.25
370
     0
100
AcDbMText
 10
0.0
 20
0.3625503018
 30
0.0
 40
0.28125
 41
0.0
 71
     1
 72
     1
  1
PART
  7
SLDTEXTSTYLE0
 73
     1
 44
1.0
  0
MTEXT
  5
84
330
80
100
AcDbEntity
  8
0
  6
Continuous
 62
     0
 48
2.25
370
     0
100
AcDbMText
 10
-0.1048583924
 20
-0.0072823659
 30
0.0
 40
0.28125
 41
0.0
 71
     1
 72
     1
  1
NAME
  7
SLDTEXTSTYLE0
 73
     1
 44
1.0
  0
ENDBLK
  5
82
330
80
100
AcDbEntity
  8
0
100
AcDbBlockEnd
  0
BLOCK
  5
87
330
86
100
AcDbEntity
  8
0
100
AcDbBlockBegin
  2
SW_NOTE_2
 70
     0
 10
0.0
 20
0.0
 30
0.0
  3
SW_NOTE_2
  1

  0
MTEXT
  5
89
330
86
100
AcDbEntity
  8
0
  6
Continuous
 62
     0
 48
2.25
370
     0
100
AcDbMText
 10
0.0
 20
0.3625503018
 30
0.0
 40
0.28125
 41
0.0
 71
     1
 72
     1
  1
PART
  7
SLDTEXTSTYLE0
 73
     1
 44
1.0
  0
MTEXT
  5
8A
330
86
100
AcDbEntity
  8
0
  6
Continuous
 62
     0
 48
2.25
370
     0
100
AcDbMText
 10
0.1313476608
 20
-0.0072823659
 30
0.0
 40
0.28125
 41
0.0
 71
     1
 72
     1
  1
No.
  7
SLDTEXTSTYLE0
 73
     1
 44
1.0
  0
ENDBLK
  5
88
330
86
100
AcDbEntity
  8
0
100
AcDbBlockEnd
  0
BLOCK
  5
8D
330
8C
100
AcDbEntity
  8
0
100
AcDbBlockBegin
  2
SW_NOTE_3
 70
     0
 10
0.0
 20
0.0
 30
0.0
  3
SW_NOTE_3
  1

  0
MTEXT
  5
8F
330
8C
100
AcDbEntity
  8
0
  6
Continuous
 62
     0
 48
2.25
370
     0
100
AcDbMText
 10
0.0
 20
0.3625503018
 30
0.0
 40
0.28125
 41
0.0
 71
     1
 72
     1
  1
REVISION
  7
SLDTEXTSTYLE0
 73
     1
 44
1.0
  0
MTEXT
  5
90
330
8C
100
AcDbEntity
  8
0
  6
Continuous
 62
     0
 48
2.25
370
     0
100
AcDbMText
 10
0.3515136718
 20
-0.0072823659
 30
0.0
 40
0.28125
 41
0.0
 71
     1
 72
     1
  1
DATE
  7
SLDTEXTSTYLE0
 73
     1
 44
1.0
  0
ENDBLK
  5
8E
330
8C
100
AcDbEntity
  8
0
100
AcDbBlockEnd
  0
BLOCK
  5
D9
330
D8
100
AcDbEntity
  8
0
100
AcDbBlockBegin
  2
*D5
 70
     1
 10
0.0
 20
0.0
 30
0.0
  3
*D5
  1

  0
SOLID
  5
DB
330
D8
100
AcDbEntity
  8
0
  6
Continuous
 62
     7
 48
2.25
370
     0
100
AcDbTrace
 10
8.0525435785
 20
15.4731313661
 30
0.0
 11
8.3450435785
 21
15.4281313661
 31
0.0
 12
8.3450435785
 22
15.5181313661
 32
0.0
 13
8.3450435785
 23
15.5181313661
 33
0.0
  0
SOLID
  5
DC
330
D8
100
AcDbEntity
  8
0
  6
Continuous
 62
     7
 48
2.25
370
     0
100
AcDbTrace
 10
14.0525435785
 20
15.4731313661
 30
0.0
 11
13.7600435785
 21
15.5181313661
 31
0.0
 12
13.7600435785
 22
15.4281313661
 32
0.0
 13
13.7600435785
 23
15.4281313661
 33
0.0
  0
LINE
  5
DD
330
D8
100
AcDbEntity
  8
0
  6
Continuous
 62
     7
 48
2.25
370
     0
100
AcDbLine
 10
10.4708680857
 20
15.4396550763
 30
0.0
 11
10.4708680857
 21
15.0602571252
 31
0.0
  0
LINE
  5
DE
330
D8
100
AcDbEntity
  8
0
  6
Continuous
 62
     7
 48
2.25
370
     0
100
AcDbLine
 10
10.4708680857
 20
15.0602571252
 30
0.0
 11
10.5279559932
 21
15.0602571252
 31
0.0
  0
LINE
  5
DF
330
D8
100
AcDbEntity
  8
0
  6
Continuous
 62
     7
 48
2.25
370
     0
100
AcDbLine
 10
10.4708680857
 20
15.4396550763
 30
0.0
 11
10.5279559932
 21
15.4396550763
 31
0.0
  0
LINE
  5
E0
330
D8
100
AcDbEntity
  8
0
  6
Continuous
 62
     7
 48
2.25
370
     0
100
AcDbLine
 10
11.6342190713
 20
15.4396550763
 30
0.0
 11
11.6342190713
 21
15.0602571252
 31
0.0
  0
LINE
  5
E1
330
D8
100
AcDbEntity
  8
0
  6
Continuous
 62
     7
 48
2.25
370
     0
100
AcDbLine
 10
11.6342190713
 20
15.0602571252
 30
0.0
 11
11.5771311638
 21
15.0602571252
 31
0.0
  0
LINE
  5
E2
330
D8
100
AcDbEntity
  8
0
  6
Continuous
 62
     7
 48
2.25
370
     0
100
AcDbLine
 10
11.6342190713
 20
15.4396550763
 30
0.0
 11
11.5771311638
 21
15.4396550763
 31
0.0
  0
LINE
  5
E3
330
D8
100
AcDbEntity
  8
0
  6
Continuous
 62
     7
 48
2.25
370
     0
100
AcDbLine
 10
8.0525435785
 20
14.7969128533
 30
0.0
 11
8.0525435785
 21
15.7543813661
 31
0.0
  0
LINE
  5
E4
330
D8
100
AcDbEntity
  8
0
  6
Continuous
 62
     7
 48
2.25
370
     0
100
AcDbLine
 10
14.0525435785
 20
14.7969128533
 30
0.0
 11
14.0525435785
 21
15.7543813661
 31
0.0
  0
LINE
  5
E5
330
D8
100
AcDbEntity
  8
0
  6
Continuous
 62
     7
 48
2.25
370
     0
100
AcDbLine
 10
8.0525435785
 20
15.4731313661
 30
0.0
 11
10.1590533113
 21
15.4731313661
 31
0.0
  0
LINE
  5
E6
330
D8
100
AcDbEntity
  8
0
  6
Continuous
 62
     7
 48
2.25
370
     0
100
AcDbLine
 10
14.0525435785
 20
15.4731313661
 30
0.0
 11
11.9460338458
 21
15.4731313661
 31
0.0
  0
MTEXT
  5
E7
330
D8
100
AcDbEntity
  8
0
  6
Continuous
 62
     7
 48
2.25
370
     0
100
AcDbMText
 10
10.6890148825
 20
15.8356816524
 30
0.0
 40
0.28125
 41
0.0
 71
     1
 72
     1
  1
6.00
  7
SLDTEXTSTYLE0
 73
     1
 44
1.0
  0
MTEXT
  5
E8
330
D8
100
AcDbEntity
  8
0
  6
Continuous
 62
     7
 48
2.25
370
     0
100
AcDbMText
 10
10.5850439007
 20
15.3893311217
 30
0.0
 40
0.28125
 41
0.0
 71
     1
 72
     1
  1
152.4
  7
SLDTEXTSTYLE0
 73
     1
 44
1.0
  0
ENDBLK
  5
DA
330
D8
100
AcDbEntity
  8
0
100
AcDbBlockEnd
  0
BLOCK
  5
EB
330
EA
100
AcDbEntity
  8
0
100
AcDbBlockBegin
  2
*D6
 70
     1
 10
0.0
 20
0.0
 30
0.0
  3
*D6
  1

  0
SOLID
  5
ED
330
EA
100
AcDbEntity
  8
0
  6
Continuous
 62
     7
 48
2.25
370
     0
100
AcDbTrace
 10
14.9521137286
 20
14.6844128533
 30
0.0
 11
14.9071137286
 21
14.3919128533
 31
0.0
 12
14.9971137286
 22
14.3919128533
 32
0.0
 13
14.9971137286
 23
14.3919128533
 33
0.0
  0
SOLID
  5
EE
330
EA
100
AcDbEntity
  8
0
  6
Continuous
 62
     7
 48
2.25
370
     0
100
AcDbTrace
 10
14.9521137286
 20
6.6844128533
 30
0.0
 11
14.9971137286
 21
6.9769128533
 31
0.0
 12
14.9071137286
 22
6.9769128533
 32
0.0
 13
14.9071137286
 23
6.9769128533
 33
0.0
  0
LINE
  5
EF
330
EA
100
AcDbEntity
  8
0
  6
Continuous
 62
     7
 48
2.25
370
     0
100
AcDbLine
 10
14.3704382358
 20
10.6509365635
 30
0.0
 11
14.3704382358
 21
10.2715386124
 31
0.0
  0
LINE
  5
F0
330
EA
100
AcDbEntity
  8
0
  6
Continuous
 62
     7
 48
2.25
370
     0
100
AcDbLine
 10
14.3704382358
 20
10.2715386124
 30
0.0
 11
14.4275261433
 21
10.2715386124
 31
0.0
  0
LINE
  5
F1
330
EA
100
AcDbEntity
  8
0
  6
Continuous
 62
     7
 48
2.25
370
     0
100
AcDbLine
 10
14.3704382358
 20
10.6509365635
 30
0.0
 11
14.4275261433
 21
10.6509365635
 31
0.0
  0
LINE
  5
F2
330
EA
100
AcDbEntity
  8
0
  6
Continuous
 62
     7
 48
2.25
370
     0
100
AcDbLine
 10
15.5337892214
 20
10.6509365635
 30
0.0
 11
15.5337892214
 21
10.2715386124
 31
0.0
  0
LINE
  5
F3
330
EA
100
AcDbEntity
  8
0
  6
Continuous
 62
     7
 48
2.25
370
     0
100
AcDbLine
 10
15.5337892214
 20
10.2715386124
 30
0.0
 11
15.4767013139
 21
10.2715386124
 31
0.0
  0
LINE
  5
F4
330
EA
100
AcDbEntity
  8
0
  6
Continuous
 62
     7
 48
2.25
370
     0
100
AcDbLine
 10
15.5337892214
 20
10.6509365635
 30
0.0
 11
15.4767013139
 21
10.6509365635
 31
0.0
  0
LINE
  5
F5
330
EA
100
AcDbEntity
  8
0
  6
Continuous
 62
     7
 48
2.25
370
     0
100
AcDbLine
 10
14.1650435785
 20
14.6844128533
 30
0.0
 11
15.2333637286
 21
14.6844128533
 31
0.0
  0
LINE
  5
F6
330
EA
100
AcDbEntity
  8
0
  6
Continuous
 62
     7
 48
2.25
370
     0
100
AcDbLine
 10
14.1650435785
 20
6.6844128533
 30
0.0
 11
15.2333637286
 21
6.6844128533
 31
0.0
  0
LINE
  5
F7
330
EA
100
AcDbEntity
  8
0
  6
Continuous
 62
     7
 48
2.25
370
     0
100
AcDbLine
 10
14.9521137286
 20
14.6844128533
 30
0.0
 11
14.9521137286
 21
11.130763384
 31
0.0
  0
LINE
  5
F8
330
EA
100
AcDbEntity
  8
0
  6
Continuous
 62
     7
 48
2.25
370
     0
100
AcDbLine
 10
14.9521137286
 20
6.6844128533
 30
0.0
 11
14.9521137286
 21
10.2380623226
 31
0.0
  0
MTEXT
  5
F9
330
EA
100
AcDbEntity
  8
0
  6
Continuous
 62
     7
 48
2.25
370
     0
100
AcDbMText
 10
14.5885850326
 20
11.0469631396
 30
0.0
 40
0.28125
 41
0.0
 71
     1
 72
     1
  1
8.00
  7
SLDTEXTSTYLE0
 73
     1
 44
1.0
  0
MTEXT
  5
FA
330
EA
100
AcDbEntity
  8
0
  6
Continuous
 62
     7
 48
2.25
370
     0
100
AcDbMText
 10
14.4846140508
 20
10.6006126089
 30
0.0
 40
0.28125
 41
0.0
 71
     1
 72
     1
  1
203.2
  7
SLDTEXTSTYLE0
 73
     1
 44
1.0
  0
ENDBLK
  5
EC
330
EA
100
AcDbEntity
  8
0
100
AcDbBlockEnd
  0
BLOCK
  5
FC
330
FB
100
AcDbEntity
  8
0
100
AcDbBlockBegin
  2
SW_NOTE_4
 70
     0
 10
0.0
 20
0.0
 30
0.0
  3
SW_NOTE_4
  1

  0
MTEXT
  5
FE
330
FB
100
AcDbEntity
  8
0
  6
Continuous
 62
     0
 48
2.25
370
     0
100
AcDbMText
 10
0.0445122332
 20
0.1363084887
 30
0.0
 40
0.28125
 41
0.0
 71
     1
 72
     1
  1
SCREWS: #10-32 x .31"[8mm] LG.
  7
SLDTEXTSTYLE0
 73
     1
 44
1.0
  0
MTEXT
  5
FF
330
FB
100
AcDbEntity
  8
0
  6
Continuous
 62
     0
 48
2.25
370
     0
100
AcDbMText
 10
0.0445122332
 20
-0.2335241789
 30
0.0
 40
0.28125
 41
0.0
 71
     1
 72
     1
  1
MACHINE, PAN HEAD, SLOTTED/SQUARE
  7
SLDTEXTSTYLE0
 73
     1
 44
1.0
  0
MTEXT
  5
100
330
FB
100
AcDbEntity
  8
0
  6
Continuous
 62
     0
 48
2.25
370
     0
100
AcDbMText
 10
0.0445122332
 20
-0.6033568466
 30
0.0
 40
0.28125
 41
0.0
 71
     1
 72
     1
  1
COMBINATION STYLE DRIVE, STEEL, ZINC PLATED.
  7
SLDTEXTSTYLE0
 73
     1
 44
1.0
  0
MTEXT
  5
101
330
FB
100
AcDbEntity
  8
0
  6
Continuous
 62
     0
 48
2.25
370
     0
100
AcDbMText
 10
0.0445122332
 20
-0.9731895143
 30
0.0
 40
0.28125
 41
0.0
 71
     1
 72
     1
  1
(SUPPLIED FOR COVER MOUNTING AND
  7
SLDTEXTSTYLE0
 73
     1
 44
1.0
  0
MTEXT
  5
102
330
FB
100
AcDbEntity
  8
0
  6
Continuous
 62
     0
 48
2.25
370
     0
100
AcDbMText
 10
0.0445122332
 20
-1.3430221819
 30
0.0
 40
0.28125
 41
0.0
 71
     1
 72
     1
  1
FOR GROUND POINT).
  7
SLDTEXTSTYLE0
 73
     1
 44
1.0
  0
ENDBLK
  5
FD
330
FB
100
AcDbEntity
  8
0
100
AcDbBlockEnd
  0
BLOCK
  5
152
330
151
100
AcDbEntity
  8
0
100
AcDbBlockBegin
  2
*D8
 70
     1
 10
0.0
 20
0.0
 30
0.0
  3
*D8
  1

  0
SOLID
  5
154
330
151
100
AcDbEntity
  8
0
  6
Continuous
 62
     7
 48
2.25
370
     0
100
AcDbTrace
 10
14.9521137286
 20
20.7445820346
 30
0.0
 11
14.9071137286
 21
20.4520820346
 31
0.0
 12
14.9971137286
 22
20.4520820346
 32
0.0
 13
14.9971137286
 23
20.4520820346
 33
0.0
  0
SOLID
  5
155
330
151
100
AcDbEntity
  8
0
  6
Continuous
 62
     7
 48
2.25
370
     0
100
AcDbTrace
 10
14.9521137286
 20
16.7445820346
 30
0.0
 11
14.9971137286
 21
17.0370820346
 31
0.0
 12
14.9071137286
 22
17.0370820346
 32
0.0
 13
14.9071137286
 23
17.0370820346
 33
0.0
  0
LINE
  5
156
330
151
100
AcDbEntity
  8
0
  6
Continuous
 62
     7
 48
2.25
370
     0
100
AcDbLine
 10
14.3704382358
 20
18.7111057448
 30
0.0
 11
14.3704382358
 21
18.3317077937
 31
0.0
  0
LINE
  5
157
330
151
100
AcDbEntity
  8
0
  6
Continuous
 62
     7
 48
2.25
370
     0
100
AcDbLine
 10
14.3704382358
 20
18.3317077937
 30
0.0
 11
14.4275261433
 21
18.3317077937
 31
0.0
  0
LINE
  5
158
330
151
100
AcDbEntity
  8
0
  6
Continuous
 62
     7
 48
2.25
370
     0
100
AcDbLine
 10
14.3704382358
 20
18.7111057448
 30
0.0
 11
14.4275261433
 21
18.7111057448
 31
0.0
  0
LINE
  5
159
330
151
100
AcDbEntity
  8
0
  6
Continuous
 62
     7
 48
2.25
370
     0
100
AcDbLine
 10
15.5337892214
 20
18.7111057448
 30
0.0
 11
15.5337892214
 21
18.3317077937
 31
0.0
  0
LINE
  5
15A
330
151
100
AcDbEntity
  8
0
  6
Continuous
 62
     7
 48
2.25
370
     0
100
AcDbLine
 10
15.5337892214
 20
18.3317077937
 30
0.0
 11
15.4767013139
 21
18.3317077937
 31
0.0
  0
LINE
  5
15B
330
151
100
AcDbEntity
  8
0
  6
Continuous
 62
     7
 48
2.25
370
     0
100
AcDbLine
 10
15.5337892214
 20
18.7111057448
 30
0.0
 11
15.4767013139
 21
18.7111057448
 31
0.0
  0
LINE
  5
15C
330
151
100
AcDbEntity
  8
0
  6
Continuous
 62
     7
 48
2.25
370
     0
100
AcDbLine
 10
14.0880435785
 20
20.7445820346
 30
0.0
 11
15.2333637286
 21
20.7445820346
 31
0.0
  0
LINE
  5
15D
330
151
100
AcDbEntity
  8
0
  6
Continuous
 62
     7
 48
2.25
370
     0
100
AcDbLine
 10
14.1650435785
 20
16.7445820346
 30
0.0
 11
15.2333637286
 21
16.7445820346
 31
0.0
  0
LINE
  5
15E
330
151
100
AcDbEntity
  8
0
  6
Continuous
 62
     7
 48
2.25
370
     0
100
AcDbLine
 10
14.9521137286
 20
20.7445820346
 30
0.0
 11
14.9521137286
 21
19.1909325653
 31
0.0
  0
LINE
  5
15F
330
151
100
AcDbEntity
  8
0
  6
Continuous
 62
     7
 48
2.25
370
     0
100
AcDbLine
 10
14.9521137286
 20
16.7445820346
 30
0.0
 11
14.9521137286
 21
18.2982315039
 31
0.0
  0
MTEXT
  5
160
330
151
100
AcDbEntity
  8
0
  6
Continuous
 62
     7
 48
2.25
370
     0
100
AcDbMText
 10
14.5885850326
 20
19.1071323209
 30
0.0
 40
0.28125
 41
0.0
 71
     1
 72
     1
  1
4.00
  7
SLDTEXTSTYLE0
 73
     1
 44
1.0
  0
MTEXT
  5
161
330
151
100
AcDbEntity
  8
0
  6
Continuous
 62
     7
 48
2.25
370
     0
100
AcDbMText
 10
14.4846140508
 20
18.6607817902
 30
0.0
 40
0.28125
 41
0.0
 71
     1
 72
     1
  1
101.6
  7
SLDTEXTSTYLE0
 73
     1
 44
1.0
  0
ENDBLK
  5
153
330
151
100
AcDbEntity
  8
0
100
AcDbBlockEnd
  0
BLOCK
  5
284
330
283
100
AcDbEntity
  8
0
100
AcDbBlockBegin
  2
*D9
 70
     1
 10
0.0
 20
0.0
 30
0.0
  3
*D9
  1

  0
SOLID
  5
286
330
283
100
AcDbEntity
  8
0
  6
Continuous
 62
     7
 48
2.25
370
     0
100
AcDbTrace
 10
29.2428175953
 20
13.1844128533
 30
0.0
 11
29.1978175953
 21
12.8919128533
 31
0.0
 12
29.2878175953
 22
12.8919128533
 32
0.0
 13
29.2878175953
 23
12.8919128533
 33
0.0
  0
SOLID
  5
287
330
283
100
AcDbEntity
  8
0
  6
Continuous
 62
     7
 48
2.25
370
     0
100
AcDbTrace
 10
29.2428175953
 20
8.1844128533
 30
0.0
 11
29.2878175953
 21
8.4769128533
 31
0.0
 12
29.1978175953
 22
8.4769128533
 32
0.0
 13
29.1978175953
 23
8.4769128533
 33
0.0
  0
LINE
  5
288
330
283
100
AcDbEntity
  8
0
  6
Continuous
 62
     7
 48
2.25
370
     0
100
AcDbLine
 10
28.8170246271
 20
10.6509365635
 30
0.0
 11
28.8170246271
 21
10.2715386124
 31
0.0
  0
LINE
  5
289
330
283
100
AcDbEntity
  8
0
  6
Continuous
 62
     7
 48
2.25
370
     0
100
AcDbLine
 10
28.8170246271
 20
10.2715386124
 30
0.0
 11
28.8741125346
 21
10.2715386124
 31
0.0
  0
LINE
  5
28A
330
283
100
AcDbEntity
  8
0
  6
Continuous
 62
     7
 48
2.25
370
     0
100
AcDbLine
 10
28.8170246271
 20
10.6509365635
 30
0.0
 11
28.8741125346
 21
10.6509365635
 31
0.0
  0
LINE
  5
28B
330
283
100
AcDbEntity
  8
0
  6
Continuous
 62
     7
 48
2.25
370
     0
100
AcDbLine
 10
29.6686105634
 20
10.6509365635
 30
0.0
 11
29.6686105634
 21
10.2715386124
 31
0.0
  0
LINE
  5
28C
330
283
100
AcDbEntity
  8
0
  6
Continuous
 62
     7
 48
2.25
370
     0
100
AcDbLine
 10
29.6686105634
 20
10.2715386124
 30
0.0
 11
29.6115226559
 21
10.2715386124
 31
0.0
  0
LINE
  5
28D
330
283
100
AcDbEntity
  8
0
  6
Continuous
 62
     7
 48
2.25
370
     0
100
AcDbLine
 10
29.6686105634
 20
10.6509365635
 30
0.0
 11
29.6115226559
 21
10.6509365635
 31
0.0
  0
LINE
  5
28E
330
283
100
AcDbEntity
  8
0
  6
Continuous
 62
     7
 48
2.25
370
     0
100
AcDbLine
 10
30.3904854264
 20
13.1844128533
 30
0.0
 11
28.9615675953
 21
13.1844128533
 31
0.0
  0
LINE
  5
28F
330
283
100
AcDbEntity
  8
0
  6
Continuous
 62
     7
 48
2.25
370
     0
100
AcDbLine
 10
30.3904854264
 20
8.1844128533
 30
0.0
 11
28.9615675953
 21
8.1844128533
 31
0.0
  0
LINE
  5
290
330
283
100
AcDbEntity
  8
0
  6
Continuous
 62
     7
 48
2.25
370
     0
100
AcDbLine
 10
29.2428175953
 20
13.1844128533
 30
0.0
 11
29.2428175953
 21
11.130763384
 31
0.0
  0
LINE
  5
291
330
283
100
AcDbEntity
  8
0
  6
Continuous
 62
     7
 48
2.25
370
     0
100
AcDbLine
 10
29.2428175953
 20
8.1844128533
 30
0.0
 11
29.2428175953
 21
10.2380623226
 31
0.0
  0
MTEXT
  5
292
330
283
100
AcDbEntity
  8
0
  6
Continuous
 62
     7
 48
2.25
370
     0
100
AcDbMText
 10
28.8792888993
 20
11.0469631396
 30
0.0
 40
0.28125
 41
0.0
 71
     1
 72
     1
  1
5.00
  7
SLDTEXTSTYLE0
 73
     1
 44
1.0
  0
MTEXT
  5
293
330
283
100
AcDbEntity
  8
0
  6
Continuous
 62
     7
 48
2.25
370
     0
100
AcDbMText
 10
28.9312004421
 20
10.6006126089
 30
0.0
 40
0.28125
 41
0.0
 71
     1
 72
     1
  1
127
  7
SLDTEXTSTYLE0
 73
     1
 44
1.0
  0
ENDBLK
  5
285
330
283
100
AcDbEntity
  8
0
100
AcDbBlockEnd
  0
BLOCK
  5
296
330
295
100
AcDbEntity
  8
0
100
AcDbBlockBegin
  2
*D10
 70
     1
 10
0.0
 20
0.0
 30
0.0
  3
*D10
  1

  0
SOLID
  5
298
330
295
100
AcDbEntity
  8
0
  6
Continuous
 62
     7
 48
2.25
370
     0
100
AcDbTrace
 10
30.5029854264
 20
5.9483287022
 30
0.0
 11
30.7954854264
 21
5.9033287022
 31
0.0
 12
30.7954854264
 22
5.9933287022
 32
0.0
 13
30.7954854264
 23
5.9933287022
 33
0.0
  0
SOLID
  5
299
330
295
100
AcDbEntity
  8
0
  6
Continuous
 62
     7
 48
2.25
370
     0
100
AcDbTrace
 10
35.5029854264
 20
5.9483287022
 30
0.0
 11
35.2104854264
 21
5.9933287022
 31
0.0
 12
35.2104854264
 22
5.9033287022
 32
0.0
 13
35.2104854264
 23
5.9033287022
 33
0.0
  0
LINE
  5
29A
330
295
100
AcDbEntity
  8
0
  6
Continuous
 62
     7
 48
2.25
370
     0
100
AcDbLine
 10
32.5771924583
 20
5.9148524124
 30
0.0
 11
32.5771924583
 21
5.5354544613
 31
0.0
  0
LINE
  5
29B
330
295
100
AcDbEntity
  8
0
  6
Continuous
 62
     7
 48
2.25
370
     0
100
AcDbLine
 10
32.5771924583
 20
5.5354544613
 30
0.0
 11
32.6342803658
 21
5.5354544613
 31
0.0
  0
LINE
  5
29C
330
295
100
AcDbEntity
  8
0
  6
Continuous
 62
     7
 48
2.25
370
     0
100
AcDbLine
 10
32.5771924583
 20
5.9148524124
 30
0.0
 11
32.6342803658
 21
5.9148524124
 31
0.0
  0
LINE
  5
29D
330
295
100
AcDbEntity
  8
0
  6
Continuous
 62
     7
 48
2.25
370
     0
100
AcDbLine
 10
33.4287783946
 20
5.9148524124
 30
0.0
 11
33.4287783946
 21
5.5354544613
 31
0.0
  0
LINE
  5
29E
330
295
100
AcDbEntity
  8
0
  6
Continuous
 62
     7
 48
2.25
370
     0
100
AcDbLine
 10
33.4287783946
 20
5.5354544613
 30
0.0
 11
33.3716904871
 21
5.5354544613
 31
0.0
  0
LINE
  5
29F
330
295
100
AcDbEntity
  8
0
  6
Continuous
 62
     7
 48
2.25
370
     0
100
AcDbLine
 10
33.4287783946
 20
5.9148524124
 30
0.0
 11
33.3716904871
 21
5.9148524124
 31
0.0
  0
LINE
  5
2A0
330
295
100
AcDbEntity
  8
0
  6
Continuous
 62
     7
 48
2.25
370
     0
100
AcDbLine
 10
30.5029854264
 20
8.0719128533
 30
0.0
 11
30.5029854264
 21
5.6670787022
 31
0.0
  0
LINE
  5
2A1
330
295
100
AcDbEntity
  8
0
  6
Continuous
 62
     7
 48
2.25
370
     0
100
AcDbLine
 10
35.5029854264
 20
8.0719128533
 30
0.0
 11
35.5029854264
 21
5.6670787022
 31
0.0
  0
LINE
  5
2A2
330
295
100
AcDbEntity
  8
0
  6
Continuous
 62
     7
 48
2.25
370
     0
100
AcDbLine
 10
30.5029854264
 20
5.9483287022
 30
0.0
 11
32.2653776838
 21
5.9483287022
 31
0.0
  0
LINE
  5
2A3
330
295
100
AcDbEntity
  8
0
  6
Continuous
 62
     7
 48
2.25
370
     0
100
AcDbLine
 10
35.5029854264
 20
5.9483287022
 30
0.0
 11
33.740593169
 21
5.9483287022
 31
0.0
  0
MTEXT
  5
2A4
330
295
100
AcDbEntity
  8
0
  6
Continuous
 62
     7
 48
2.25
370
     0
100
AcDbMText
 10
32.6394567305
 20
6.3108789886
 30
0.0
 40
0.28125
 41
0.0
 71
     1
 72
     1
  1
5.00
  7
SLDTEXTSTYLE0
 73
     1
 44
1.0
  0
MTEXT
  5
2A5
330
295
100
AcDbEntity
  8
0
  6
Continuous
 62
     7
 48
2.25
370
     0
100
AcDbMText
 10
32.6913682733
 20
5.8645284579
 30
0.0
 40
0.28125
 41
0.0
 71
     1
 72
     1
  1
127
  7
SLDTEXTSTYLE0
 73
     1
 44
1.0
  0
ENDBLK
  5
297
330
295
100
AcDbEntity
  8
0
100
AcDbBlockEnd
  0
BLOCK
  5
2A9
330
2A8
100
AcDbEntity
  8
0
100
AcDbBlockBegin
  2
*D11
 70
     1
 10
0.0
 20
0.0
 30
0.0
  3
*D11
  1

  0
SOLID
  5
2AB
330
2A8
100
AcDbEntity
  8
0
  6
Continuous
 62
     7
 48
2.25
370
     0
100
AcDbTrace
 10
35.4622264139
 20
8.0499548565
 30
0.0
 11
35.3343074031
 21
7.7830878921
 31
0.0
 12
35.4204370808
 22
7.7569789161
 32
0.0
 13
35.4204370808
 23
7.7569789161
 33
0.0
  0
LINE
  5
2AC
330
2A8
100
AcDbEntity
  8
0
  6
Continuous
 62
     7
 48
2.25
370
     0
100
AcDbLine
 10
35.0767901801
 20
4.9034449704
 30
0.0
 11
35.0767901801
 21
4.5240470193
 31
0.0
  0
LINE
  5
2AD
330
2A8
100
AcDbEntity
  8
0
  6
Continuous
 62
     7
 48
2.25
370
     0
100
AcDbLine
 10
35.0767901801
 20
4.5240470193
 30
0.0
 11
35.1338780876
 21
4.5240470193
 31
0.0
  0
LINE
  5
2AE
330
2A8
100
AcDbEntity
  8
0
  6
Continuous
 62
     7
 48
2.25
370
     0
100
AcDbLine
 10
35.0767901801
 20
4.9034449704
 30
0.0
 11
35.1338780876
 21
4.9034449704
 31
0.0
  0
LINE
  5
2AF
330
2A8
100
AcDbEntity
  8
0
  6
Continuous
 62
     7
 48
2.25
370
     0
100
AcDbLine
 10
36.0321992021
 20
4.9034449704
 30
0.0
 11
36.0321992021
 21
4.5240470193
 31
0.0
  0
LINE
  5
2B0
330
2A8
100
AcDbEntity
  8
0
  6
Continuous
 62
     7
 48
2.25
370
     0
100
AcDbLine
 10
36.0321992021
 20
4.5240470193
 30
0.0
 11
35.9751112945
 21
4.5240470193
 31
0.0
  0
LINE
  5
2B1
330
2A8
100
AcDbEntity
  8
0
  6
Continuous
 62
     7
 48
2.25
370
     0
100
AcDbLine
 10
36.0321992021
 20
4.9034449704
 30
0.0
 11
35.9751112945
 21
4.9034449704
 31
0.0
  0
LINE
  5
2B2
330
2A8
100
AcDbEntity
  8
0
  6
Continuous
 62
     7
 48
2.25
370
     0
100
AcDbLine
 10
35.4622264139
 20
8.0499548565
 30
0.0
 11
34.518554945
 21
4.9369212602
 31
0.0
  0
LINE
  5
2B3
330
2A8
100
AcDbEntity
  8
0
  6
Continuous
 62
     7
 48
2.25
370
     0
100
AcDbLine
 10
34.518554945
 20
4.9369212602
 30
0.0
 11
34.799804945
 21
4.9369212602
 31
0.0
  0
MTEXT
  5
2B4
330
2A8
100
AcDbEntity
  8
0
  6
Continuous
 62
     7
 48
2.25
370
     0
100
AcDbMText
 10
34.9901082563
 20
5.2994715517
 30
0.0
 40
0.28125
 41
0.0
 71
     1
 72
     1
  1
%%c
  7
SLDTEXTSTYLE0
 73
     1
 44
1.0
  0
MTEXT
  5
2B5
330
2A8
100
AcDbEntity
  8
0
  6
Continuous
 62
     7
 48
2.25
370
     0
100
AcDbMText
 10
35.3918237339
 20
5.2994715466
 30
0.0
 40
0.28125
 41
0.0
 71
     1
 72
     1
  1
.281
  7
SLDTEXTSTYLE0
 73
     1
 44
1.0
  0
MTEXT
  5
2B6
330
2A8
100
AcDbEntity
  8
0
  6
Continuous
 62
     7
 48
2.25
370
     0
100
AcDbMText
 10
35.1909659951
 20
4.8531210159
 30
0.0
 40
0.28125
 41
0.0
 71
     1
 72
     1
  1
7.14
  7
SLDTEXTSTYLE0
 73
     1
 44
1.0
  0
ENDBLK
  5
2AA
330
2A8
100
AcDbEntity
  8
0
100
AcDbBlockEnd
  0
BLOCK
  5
2B9
330
2B8
100
AcDbEntity
  8
0
100
AcDbBlockBegin
  2
*D12
 70
     1
 10
0.0
 20
0.0
 30
0.0
  3
*D12
  1

  0
SOLID
  5
2BB
330
2B8
100
AcDbEntity
  8
0
  6
Continuous
 62
     7
 48
2.25
370
     0
100
AcDbTrace
 10
36.7413809284
 20
12.6844128533
 30
0.0
 11
36.7863809284
 21
12.9769128533
 31
0.0
 12
36.6963809284
 22
12.9769128533
 32
0.0
 13
36.6963809284
 23
12.9769128533
 33
0.0
  0
SOLID
  5
2BC
330
2B8
100
AcDbEntity
  8
0
  6
Continuous
 62
     7
 48
2.25
370
     0
100
AcDbTrace
 10
36.7413809284
 20
14.6844128533
 30
0.0
 11
36.6963809284
 21
14.3919128533
 31
0.0
 12
36.7863809284
 22
14.3919128533
 32
0.0
 13
36.7863809284
 23
14.3919128533
 33
0.0
  0
LINE
  5
2BD
330
2B8
100
AcDbEntity
  8
0
  6
Continuous
 62
     7
 48
2.25
370
     0
100
AcDbLine
 10
36.2636764174
 20
13.6509365635
 30
0.0
 11
36.2636764174
 21
13.2715386124
 31
0.0
  0
LINE
  5
2BE
330
2B8
100
AcDbEntity
  8
0
  6
Continuous
 62
     7
 48
2.25
370
     0
100
AcDbLine
 10
36.2636764174
 20
13.2715386124
 30
0.0
 11
36.3207643249
 21
13.2715386124
 31
0.0
  0
LINE
  5
2BF
330
2B8
100
AcDbEntity
  8
0
  6
Continuous
 62
     7
 48
2.25
370
     0
100
AcDbLine
 10
36.2636764174
 20
13.6509365635
 30
0.0
 11
36.3207643249
 21
13.6509365635
 31
0.0
  0
LINE
  5
2C0
330
2B8
100
AcDbEntity
  8
0
  6
Continuous
 62
     7
 48
2.25
370
     0
100
AcDbLine
 10
37.2190854394
 20
13.6509365635
 30
0.0
 11
37.2190854394
 21
13.2715386124
 31
0.0
  0
LINE
  5
2C1
330
2B8
100
AcDbEntity
  8
0
  6
Continuous
 62
     7
 48
2.25
370
     0
100
AcDbLine
 10
37.2190854394
 20
13.2715386124
 30
0.0
 11
37.1619975318
 21
13.2715386124
 31
0.0
  0
LINE
  5
2C2
330
2B8
100
AcDbEntity
  8
0
  6
Continuous
 62
     7
 48
2.25
370
     0
100
AcDbLine
 10
37.2190854394
 20
13.6509365635
 30
0.0
 11
37.1619975318
 21
13.6509365635
 31
0.0
  0
LINE
  5
2C3
330
2B8
100
AcDbEntity
  8
0
  6
Continuous
 62
     7
 48
2.25
370
     0
100
AcDbLine
 10
34.1154854264
 20
12.6844128533
 30
0.0
 11
37.0226309284
 21
12.6844128533
 31
0.0
  0
LINE
  5
2C4
330
2B8
100
AcDbEntity
  8
0
  6
Continuous
 62
     7
 48
2.25
370
     0
100
AcDbLine
 10
36.1154854264
 20
14.6844128533
 30
0.0
 11
37.0226309284
 21
14.6844128533
 31
0.0
  0
LINE
  5
2C5
330
2B8
100
AcDbEntity
  8
0
  6
Continuous
 62
     7
 48
2.25
370
     0
100
AcDbLine
 10
36.7413809284
 20
12.6844128533
 30
0.0
 11
36.7413809284
 21
13.2380623226
 31
0.0
  0
LINE
  5
2C6
330
2B8
100
AcDbEntity
  8
0
  6
Continuous
 62
     7
 48
2.25
370
     0
100
AcDbLine
 10
36.7413809284
 20
14.6844128533
 30
0.0
 11
36.7413809284
 21
14.130763384
 31
0.0
  0
MTEXT
  5
2C7
330
2B8
100
AcDbEntity
  8
0
  6
Continuous
 62
     7
 48
2.25
370
     0
100
AcDbMText
 10
36.3778522324
 20
14.0469631396
 30
0.0
 40
0.28125
 41
0.0
 71
     1
 72
     1
  1
2.00
  7
SLDTEXTSTYLE0
 73
     1
 44
1.0
  0
MTEXT
  5
2C8
330
2B8
100
AcDbEntity
  8
0
  6
Continuous
 62
     7
 48
2.25
370
     0
100
AcDbMText
 10
36.3778522324
 20
13.6006126089
 30
0.0
 40
0.28125
 41
0.0
 71
     1
 72
     1
  1
50.8
  7
SLDTEXTSTYLE0
 73
     1
 44
1.0
  0
ENDBLK
  5
2BA
330
2B8
100
AcDbEntity
  8
0
100
AcDbBlockEnd
  0
BLOCK
  5
2CC
330
2CB
100
AcDbEntity
  8
0
100
AcDbBlockBegin
  2
*D13
 70
     1
 10
0.0
 20
0.0
 30
0.0
  3
*D13
  1

  0
SOLID
  5
2CE
330
2CB
100
AcDbEntity
  8
0
  6
Continuous
 62
     7
 48
2.25
370
     0
100
AcDbTrace
 10
34.0029854264
 20
15.3884818303
 30
0.0
 11
33.7104854264
 21
15.4334818303
 31
0.0
 12
33.7104854264
 22
15.3434818303
 32
0.0
 13
33.7104854264
 23
15.3434818303
 33
0.0
  0
SOLID
  5
2CF
330
2CB
100
AcDbEntity
  8
0
  6
Continuous
 62
     7
 48
2.25
370
     0
100
AcDbTrace
 10
36.0029854264
 20
15.3884818303
 30
0.0
 11
36.2954854264
 21
15.3434818303
 31
0.0
 12
36.2954854264
 22
15.4334818303
 32
0.0
 13
36.2954854264
 23
15.4334818303
 33
0.0
  0
LINE
  5
2D0
330
2CB
100
AcDbEntity
  8
0
  6
Continuous
 62
     7
 48
2.25
370
     0
100
AcDbLine
 10
34.5252809154
 20
15.3550055405
 30
0.0
 11
34.5252809154
 21
14.9756075894
 31
0.0
  0
LINE
  5
2D1
330
2CB
100
AcDbEntity
  8
0
  6
Continuous
 62
     7
 48
2.25
370
     0
100
AcDbLine
 10
34.5252809154
 20
14.9756075894
 30
0.0
 11
34.582368823
 21
14.9756075894
 31
0.0
  0
LINE
  5
2D2
330
2CB
100
AcDbEntity
  8
0
  6
Continuous
 62
     7
 48
2.25
370
     0
100
AcDbLine
 10
34.5252809154
 20
15.3550055405
 30
0.0
 11
34.582368823
 21
15.3550055405
 31
0.0
  0
LINE
  5
2D3
330
2CB
100
AcDbEntity
  8
0
  6
Continuous
 62
     7
 48
2.25
370
     0
100
AcDbLine
 10
35.4806899374
 20
15.3550055405
 30
0.0
 11
35.4806899374
 21
14.9756075894
 31
0.0
  0
LINE
  5
2D4
330
2CB
100
AcDbEntity
  8
0
  6
Continuous
 62
     7
 48
2.25
370
     0
100
AcDbLine
 10
35.4806899374
 20
14.9756075894
 30
0.0
 11
35.4236020299
 21
14.9756075894
 31
0.0
  0
LINE
  5
2D5
330
2CB
100
AcDbEntity
  8
0
  6
Continuous
 62
     7
 48
2.25
370
     0
100
AcDbLine
 10
35.4806899374
 20
15.3550055405
 30
0.0
 11
35.4236020299
 21
15.3550055405
 31
0.0
  0
LINE
  5
2D6
330
2CB
100
AcDbEntity
  8
0
  6
Continuous
 62
     7
 48
2.25
370
     0
100
AcDbLine
 10
34.0029854264
 20
12.7969128533
 30
0.0
 11
34.0029854264
 21
15.6697318303
 31
0.0
  0
LINE
  5
2D7
330
2CB
100
AcDbEntity
  8
0
  6
Continuous
 62
     7
 48
2.25
370
     0
100
AcDbLine
 10
36.0029854264
 20
14.7969128533
 30
0.0
 11
36.0029854264
 21
15.6697318303
 31
0.0
  0
LINE
  5
2D8
330
2CB
100
AcDbEntity
  8
0
  6
Continuous
 62
     7
 48
2.25
370
     0
100
AcDbLine
 10
34.0029854264
 20
15.3884818303
 30
0.0
 11
33.4404854264
 21
15.3884818303
 31
0.0
  0
LINE
  5
2D9
330
2CB
100
AcDbEntity
  8
0
  6
Continuous
 62
     7
 48
2.25
370
     0
100
AcDbLine
 10
36.0029854264
 20
15.3884818303
 30
0.0
 11
36.5654854264
 21
15.3884818303
 31
0.0
  0
MTEXT
  5
2DA
330
2CB
100
AcDbEntity
  8
0
  6
Continuous
 62
     7
 48
2.25
370
     0
100
AcDbMText
 10
34.6394567305
 20
15.7510321166
 30
0.0
 40
0.28125
 41
0.0
 71
     1
 72
     1
  1
2.00
  7
SLDTEXTSTYLE0
 73
     1
 44
1.0
  0
MTEXT
  5
2DB
330
2CB
100
AcDbEntity
  8
0
  6
Continuous
 62
     7
 48
2.25
370
     0
100
AcDbMText
 10
34.6394567305
 20
15.3046815859
 30
0.0
 40
0.28125
 41
0.0
 71
     1
 72
     1
  1
50.8
  7
SLDTEXTSTYLE0
 73
     1
 44
1.0
  0
ENDBLK
  5
2CD
330
2CB
100
AcDbEntity
  8
0
100
AcDbBlockEnd
  0
BLOCK
  5
3EB
330
3EA
100
AcDbEntity
  8
0
100
AcDbBlockBegin
  2
*D14
 70
     1
 10
0.0
 20
0.0
 30
0.0
  3
*D14
  1

  0
SOLID
  5
3ED
330
3EA
100
AcDbEntity
  8
0
  6
Continuous
 62
     7
 48
2.25
370
     0
100
AcDbTrace
 10
21.7574120692
 20
13.5341037536
 30
0.0
 11
21.4649120692
 21
13.5791037536
 31
0.0
 12
21.4649120692
 22
13.4891037536
 32
0.0
 13
21.4649120692
 23
13.4891037536
 33
0.0
  0
SOLID
  5
3EE
330
3EA
100
AcDbEntity
  8
0
  6
Continuous
 62
     7
 48
2.25
370
     0
100
AcDbTrace
 10
22.2574120692
 20
13.5341037536
 30
0.0
 11
22.5499120692
 21
13.4891037536
 31
0.0
 12
22.5499120692
 22
13.5791037536
 32
0.0
 13
22.5499120692
 23
13.5791037536
 33
0.0
  0
LINE
  5
3EF
330
3EA
100
AcDbEntity
  8
0
  6
Continuous
 62
     7
 48
2.25
370
     0
100
AcDbLine
 10
23.0532934563
 20
13.5006274638
 30
0.0
 11
23.0532934563
 21
13.1212295127
 31
0.0
  0
LINE
  5
3F0
330
3EA
100
AcDbEntity
  8
0
  6
Continuous
 62
     7
 48
2.25
370
     0
100
AcDbLine
 10
23.0532934563
 20
13.1212295127
 30
0.0
 11
23.1103813638
 21
13.1212295127
 31
0.0
  0
LINE
  5
3F1
330
3EA
100
AcDbEntity
  8
0
  6
Continuous
 62
     7
 48
2.25
370
     0
100
AcDbLine
 10
23.0532934563
 20
13.5006274638
 30
0.0
 11
23.1103813638
 21
13.5006274638
 31
0.0
  0
LINE
  5
3F2
330
3EA
100
AcDbEntity
  8
0
  6
Continuous
 62
     7
 48
2.25
370
     0
100
AcDbLine
 10
24.0087024782
 20
13.5006274638
 30
0.0
 11
24.0087024782
 21
13.1212295127
 31
0.0
  0
LINE
  5
3F3
330
3EA
100
AcDbEntity
  8
0
  6
Continuous
 62
     7
 48
2.25
370
     0
100
AcDbLine
 10
24.0087024782
 20
13.1212295127
 30
0.0
 11
23.9516145707
 21
13.1212295127
 31
0.0
  0
LINE
  5
3F4
330
3EA
100
AcDbEntity
  8
0
  6
Continuous
 62
     7
 48
2.25
370
     0
100
AcDbLine
 10
24.0087024782
 20
13.5006274638
 30
0.0
 11
23.9516145707
 21
13.5006274638
 31
0.0
  0
LINE
  5
3F5
330
3EA
100
AcDbEntity
  8
0
  6
Continuous
 62
     7
 48
2.25
370
     0
100
AcDbLine
 10
21.7574120692
 20
13.5341037536
 30
0.0
 11
21.1949120692
 21
13.5341037536
 31
0.0
  0
LINE
  5
3F6
330
3EA
100
AcDbEntity
  8
0
  6
Continuous
 62
     7
 48
2.25
370
     0
100
AcDbLine
 10
22.2574120692
 20
13.5341037536
 30
0.0
 11
22.7414786818
 21
13.5341037536
 31
0.0
  0
MTEXT
  5
3F7
330
3EA
100
AcDbEntity
  8
0
  6
Continuous
 62
     7
 48
2.25
370
     0
100
AcDbMText
 10
23.2712923569
 20
13.8966540399
 30
0.0
 40
0.28125
 41
0.0
 71
     1
 72
     1
  1
.50
  7
SLDTEXTSTYLE0
 73
     1
 44
1.0
  0
MTEXT
  5
3F8
330
3EA
100
AcDbEntity
  8
0
  6
Continuous
 62
     7
 48
2.25
370
     0
100
AcDbMText
 10
23.1674692713
 20
13.4503035092
 30
0.0
 40
0.28125
 41
0.0
 71
     1
 72
     1
  1
12.7
  7
SLDTEXTSTYLE0
 73
     1
 44
1.0
  0
ENDBLK
  5
3EC
330
3EA
100
AcDbEntity
  8
0
100
AcDbBlockEnd
  0
BLOCK
  5
3FA
330
3F9
100
AcDbEntity
  8
0
100
AcDbBlockBegin
  2
SW_NOTE_5
 70
     0
 10
0.0
 20
0.0
 30
0.0
  3
SW_NOTE_5
  1

  0
MTEXT
  5
3FC
330
3F9
100
AcDbEntity
  8
0
  6
Continuous
 62
     0
 48
2.25
370
     0
100
AcDbMText
 10
0.0445826368
 20
0.1362096522
 30
0.0
 40
0.28125
 41
0.0
 71
     1
 72
     1
  1
GROUNDING
  7
SLDTEXTSTYLE0
 73
     1
 44
1.0
  0
MTEXT
  5
3FD
330
3F9
100
AcDbEntity
  8
0
  6
Continuous
 62
     0
 48
2.25
370
     0
100
AcDbMText
 10
0.0445826368
 20
-0.2336230154
 30
0.0
 40
0.28125
 41
0.0
 71
     1
 72
     1
  1
EMBOSS
  7
SLDTEXTSTYLE0
 73
     1
 44
1.0
  0
ENDBLK
  5
3FB
330
3F9
100
AcDbEntity
  8
0
100
AcDbBlockEnd
  0
ENDSEC
  0
SECTION
  2
ENTITIES
  0
LINE
  5
44
330
1F
100
AcDbEntity
  8
0
  6
Continuous
 62
     7
 48
2.25
370
     0
100
AcDbLine
 10
0.7048161104
 20
24.0864146341
 30
0.0
 11
37.5508161104
 21
24.0864146341
 31
0.0
  0
LINE
  5
45
330
1F
100
AcDbEntity
  8
0
  6
Continuous
 62
     7
 48
2.25
370
     0
100
AcDbLine
 10
37.5508161104
 20
0.7404146341
 30
0.0
 11
37.5508161104
 21
24.0864146341
 31
0.0
  0
LINE
  5
46
330
1F
100
AcDbEntity
  8
0
  6
Continuous
 62
     7
 48
2.25
370
     0
100
AcDbLine
 10
37.5508161104
 20
0.7404146341
 30
0.0
 11
0.7048161104
 21
0.7404146341
 31
0.0
  0
LINE
  5
47
330
1F
100
AcDbEntity
  8
0
  6
Continuous
 62
     7
 48
2.25
370
     0
100
AcDbLine
 10
0.7048161104
 20
24.0864146341
 30
0.0
 11
0.7048161104
 21
0.7404146341
 31
0.0
  0
LINE
  5
48
330
1F
100
AcDbEntity
  8
0
  6
Continuous
 62
     7
 48
2.25
370
     0
100
AcDbLine
 10
0.5653161104
 20
24.2259146341
 30
0.0
 11
37.6903161104
 21
24.2259146341
 31
0.0
  0
LINE
  5
49
330
1F
100
AcDbEntity
  8
0
  6
Continuous
 62
     7
 48
2.25
370
     0
100
AcDbLine
 10
37.6903161104
 20
0.6009146341
 30
0.0
 11
0.5653161104
 21
0.6009146341
 31
0.0
  0
LINE
  5
4A
330
1F
100
AcDbEntity
  8
0
  6
Continuous
 62
     7
 48
2.25
370
     0
100
AcDbLine
 10
0.5653161104
 20
24.2259146341
 30
0.0
 11
0.5653161104
 21
0.6009146341
 31
0.0
  0
LINE
  5
4B
330
1F
100
AcDbEntity
  8
0
  6
Continuous
 62
     7
 48
2.25
370
     0
100
AcDbLine
 10
37.6903161104
 20
0.6009146341
 30
0.0
 11
37.6903161104
 21
24.2259146341
 31
0.0
  0
LINE
  5
4C
330
1F
100
AcDbEntity
  8
0
  6
Continuous
 62
     7
 48
2.25
370
     0
100
AcDbLine
 10
0.7048161104
 20
23.1729146341
 30
0.0
 11
37.5508161104
 21
23.1729146341
 31
0.0
  0
LINE
  5
4D
330
1F
100
AcDbEntity
  8
0
  6
Continuous
 62
     7
 48
2.25
370
     0
100
AcDbLine
 10
2.3923161104
 20
24.0864146341
 30
0.0
 11
2.3923161104
 21
23.1729146341
 31
0.0
  0
LINE
  5
4E
330
1F
100
AcDbEntity
  8
0
  6
Continuous
 62
     7
 48
2.25
370
     0
100
AcDbLine
 10
16.7383161104
 20
23.1729146341
 30
0.0
 11
16.7383161104
 21
24.0864146341
 31
0.0
  0
LINE
  5
4F
330
1F
100
AcDbEntity
  8
0
  6
Continuous
 62
     7
 48
2.25
370
     0
100
AcDbLine
 10
16.8778161104
 20
23.1729146341
 30
0.0
 11
16.8778161104
 21
24.0864146341
 31
0.0
  0
LINE
  5
50
330
1F
100
AcDbEntity
  8
0
  6
Continuous
 62
     7
 48
2.25
370
     0
100
AcDbLine
 10
34.7383161104
 20
23.1729146341
 30
0.0
 11
34.7383161104
 21
24.0864146341
 31
0.0
  0
LINE
  5
51
330
1F
100
AcDbEntity
  8
0
  6
Continuous
 62
     7
 48
2.25
370
     0
100
AcDbLine
 10
18.5653161104
 20
23.1729146341
 30
0.0
 11
18.5653161104
 21
24.0864146341
 31
0.0
  0
LINE
  5
52
330
1F
100
AcDbEntity
  8
0
  6
Continuous
 62
     7
 48
2.25
370
     0
100
AcDbLine
 10
33.0508161104
 20
23.1729146341
 30
0.0
 11
33.0508161104
 21
24.0864146341
 31
0.0
  0
LINE
  5
53
330
1F
100
AcDbEntity
  8
0
  6
Continuous
 62
     7
 48
2.25
370
     0
100
AcDbLine
 10
32.9113161104
 20
23.1729146341
 30
0.0
 11
32.9113161104
 21
24.0864146341
 31
0.0
  0
INSERT
  5
7C
330
1F
100
AcDbEntity
  8
0
  6
Continuous
 62
     7
 48
2.25
370
     0
100
AcDbBlockReference
  2
SW_NOTE_0
 10
19.742531823
 20
20.239202007
 30
0.0
  0
MTEXT
  5
7D
330
1F
100
AcDbEntity
  8
0
  6
Continuous
 62
     7
 48
2.25
370
     0
100
AcDbMText
 10
35.2327149351
 20
23.8709617742
 30
0.0
 40
0.421875
 41
0.0
 71
     1
 72
     1
  1
7-18-11
  7
SLDTEXTSTYLE0
 73
     1
 44
1.0
  0
MTEXT
  5
7E
330
1F
100
AcDbEntity
  8
0
  6
Continuous
 62
     7
 48
2.25
370
     0
100
AcDbMText
 10
7.5242052358
 20
23.865386757
 30
0.0
 40
0.421875
 41
0.0
 71
     1
 72
     1
  1
JUNCTION BOX
  7
SLDTEXTSTYLE0
 73
     1
 44
1.0
  0
MTEXT
  5
7F
330
1F
100
AcDbEntity
  8
0
  6
Continuous
 62
     7
 48
2.25
370
     0
100
AcDbMText
 10
24.7731932403
 20
23.875845148
 30
0.0
 40
0.421875
 41
0.0
 71
     1
 72
     1
  1
JB-3956
  7
SLDTEXTSTYLE0
 73
     1
 44
1.0
  0
INSERT
  5
85
330
1F
100
AcDbEntity
  8
0
  6
Continuous
 62
     7
 48
2.25
370
     0
100
AcDbBlockReference
  2
SW_NOTE_1
 10
1.0971881705
 20
23.6357100596
 30
0.0
  0
INSERT
  5
8B
330
1F
100
AcDbEntity
  8
0
  6
Continuous
 62
     7
 48
2.25
370
     0
100
AcDbBlockReference
  2
SW_NOTE_2
 10
17.2915085021
 20
23.6254460394
 30
0.0
  0
INSERT
  5
91
330
1F
100
AcDbEntity
  8
0
  6
Continuous
 62
     7
 48
2.25
370
     0
100
AcDbBlockReference
  2
SW_NOTE_3
 10
33.0944369117
 20
23.6326129363
 30
0.0
  0
ARC
  5
92
330
1F
100
AcDbEntity
  8
0
  6
Continuous
 62
     7
 48
5.0625
370
    15
100
AcDbCircle
 10
13.8025435785
 20
12.4124128533
 30
0.0
 40
0.2029999999999995
100
AcDbArc
 50
133.2687098488
 51
46.7312901513
  0
LINE
  5
93
330
1F
100
AcDbEntity
  8
0
  6
Continuous
 62
     7
 48
2.25
370
    15
100
AcDbLine
 10
14.0525436156
 20
6.6844129016
 30
0.0
 11
14.0525436156
 21
14.6844128049
 31
0.0
  0
LINE
  5
94
330
1F
100
AcDbEntity
  8
0
  6
Continuous
 62
     7
 48
2.25
370
    15
100
AcDbLine
 10
8.0525435414
 20
6.6844129016
 30
0.0
 11
14.0525436156
 21
6.6844129016
 31
0.0
  0
ARC
  5
95
330
1F
100
AcDbEntity
  8
0
  6
Continuous
 62
     7
 48
5.0625
370
    15
100
AcDbCircle
 10
8.3025435785
 20
12.4124128533
 30
0.0
 40
0.2030000000000005
100
AcDbArc
 50
133.2687098488
 51
46.7312901512
  0
ARC
  5
96
330
1F
100
AcDbEntity
  8
0
  6
Continuous
 62
     7
 48
5.0625
370
    15
100
AcDbCircle
 10
8.3025435785
 20
8.4124128533
 30
0.0
 40
0.2030000000000018
100
AcDbArc
 50
133.2687098488
 51
46.7312901512
  0
ARC
  5
97
330
1F
100
AcDbEntity
  8
0
  6
Continuous
 62
     7
 48
5.0625
370
    15
100
AcDbCircle
 10
13.8025435785
 20
8.4124128533
 30
0.0
 40
0.203000000000002
100
AcDbArc
 50
133.2687098487
 51
46.7312901513
  0
LINE
  5
98
330
1F
100
AcDbEntity
  8
0
  6
Continuous
 62
     7
 48
2.25
370
    15
100
AcDbLine
 10
8.0525435414
 20
14.6844128049
 30
0.0
 11
8.0525435414
 21
6.6844129016
 31
0.0
  0
LINE
  5
99
330
1F
100
AcDbEntity
  8
0
  6
Continuous
 62
     7
 48
2.25
370
    15
100
AcDbLine
 10
14.0525436156
 20
14.6844128049
 30
0.0
 11
8.0525435414
 21
14.6844128049
 31
0.0
  0
LWPOLYLINE
  5
9A
330
1F
100
AcDbEntity
  8
0
  6
Continuous
 62
     7
 48
2.25
370
    15
100
AcDbPolyline
 90
        9
 70
   128
 43
0.0
 10
13.7833195257
 20
8.725107274
 10
13.772414105
 20
8.7358501899
 10
13.7616981755
 20
8.7464059613
 10
13.7512218965
 20
8.7567261887
 10
13.7410333742
 20
8.7667627661
 10
13.7311798347
 20
8.7764692007
 10
13.7217067441
 20
8.7858009062
 10
13.712658102
 20
8.7947144699
 10
13.7040758545
 20
8.8031686789
  0
ARC
  5
9B
330
1F
100
AcDbEntity
  8
0
  6
Continuous
 62
     7
 48
5.0625
370
    15
100
AcDbCircle
 10
13.8025435785
 20
8.6844128533
 30
0.0
 40
0.154268796474629
100
AcDbArc
 50
129.6642084609
 51
141.197138477
  0
LWPOLYLINE
  5
9C
330
1F
100
AcDbEntity
  8
0
  6
Continuous
 62
     7
 48
2.25
370
    15
100
AcDbPolyline
 90
        9
 70
   128
 43
0.0
 10
13.6823207458
 20
8.7810843074
 10
13.6909032866
 20
8.7726300984
 10
13.6999516354
 20
8.7637165347
 10
13.709424726
 20
8.7543848291
 10
13.7192782655
 20
8.7446782479
 10
13.7294670811
 20
8.7346416705
 10
13.7399433601
 20
8.7243215898
 10
13.7506592897
 20
8.7137656717
 10
13.7615647103
 20
8.7030229025
  0
LWPOLYLINE
  5
9D
330
1F
100
AcDbEntity
  8
0
  6
Continuous
 62
     7
 48
2.25
370
    15
100
AcDbPolyline
 90
        9
 70
   128
 43
0.0
 10
13.8217674549
 20
8.6437183342
 10
13.8326731689
 20
8.632975565
 10
13.8433888051
 20
8.6224196469
 10
13.8538653774
 20
8.6120995662
 10
13.8640538997
 20
8.6020629888
 10
13.8739074392
 20
8.5923564076
 10
13.8833805298
 20
8.583024702
 10
13.8924291719
 20
8.5741111383
 10
13.9010114194
 20
8.5656569293
  0
ARC
  5
9E
330
1F
100
AcDbEntity
  8
0
  6
Continuous
 62
     7
 48
5.0625
370
    15
100
AcDbCircle
 10
13.8025435785
 20
8.6844128533
 30
0.0
 40
0.154268796474629
100
AcDbArc
 50
309.6642084609
 51
321.197138477
  0
LWPOLYLINE
  5
9F
330
1F
100
AcDbEntity
  8
0
  6
Continuous
 62
     7
 48
2.25
370
    15
100
AcDbPolyline
 90
        9
 70
   128
 43
0.0
 10
13.9227662348
 20
8.5877414475
 10
13.9141839873
 20
8.5961956565
 10
13.9051353451
 20
8.6051092202
 10
13.8956622546
 20
8.6144409258
 10
13.8858087151
 20
8.624147507
 10
13.8756201928
 20
8.6341840844
 10
13.8651439138
 20
8.6445041651
 10
13.8544279843
 20
8.6550600832
 10
13.8435225636
 20
8.6658028524
  0
LWPOLYLINE
  5
A0
330
1F
100
AcDbEntity
  8
0
  6
Continuous
 62
     7
 48
2.25
370
    15
100
AcDbPolyline
 90
        9
 70
   128
 43
0.0
 10
13.8430731821
 20
8.7255565088
 10
13.8356745209
 20
8.7255009228
 10
13.8282394868
 20
8.7254448968
 10
13.8207759997
 20
8.7253888708
 10
13.8132925661
 20
8.7253325514
 10
13.805797106
 20
8.7252762321
 10
13.7982975393
 20
8.7252199127
 10
13.7908023726
 20
8.7251635934
 10
13.7833195257
 20
8.725107274
  0
LWPOLYLINE
  5
A1
330
1F
100
AcDbEntity
  8
0
  6
Continuous
 62
     7
 48
2.25
370
    15
100
AcDbPolyline
 90
        9
 70
   128
 43
0.0
 10
13.7615647103
 20
8.7030229025
 10
13.7616210297
 20
8.6955402022
 10
13.761677349
 20
8.6880450355
 10
13.7617336684
 20
8.6805454688
 10
13.7617899877
 20
8.6730500087
 10
13.7618463071
 20
8.6655664285
 10
13.7619023331
 20
8.658103088
 10
13.7619583591
 20
8.6506679073
 10
13.7620137985
 20
8.6432692461
  0
LWPOLYLINE
  5
A2
330
1F
100
AcDbEntity
  8
0
  6
Continuous
 62
     7
 48
2.25
370
    15
100
AcDbPolyline
 90
        9
 70
   128
 43
0.0
 10
13.7620137985
 20
8.6432692461
 10
13.7694124597
 20
8.6433248321
 10
13.7768477871
 20
8.6433807115
 10
13.7843109809
 20
8.6434368841
 10
13.7917947078
 20
8.6434930568
 10
13.7992901679
 20
8.6435493762
 10
13.8067897346
 20
8.6436058422
 10
13.8142849013
 20
8.6436621615
 10
13.8217674549
 20
8.6437183342
  0
LWPOLYLINE
  5
A3
330
1F
100
AcDbEntity
  8
0
  6
Continuous
 62
     7
 48
2.25
370
    15
100
AcDbPolyline
 90
        9
 70
   128
 43
0.0
 10
13.8435225636
 20
8.6658028524
 10
13.8434662442
 20
8.6732855527
 10
13.8434099249
 20
8.6807807194
 10
13.8433536055
 20
8.6882801394
 10
13.8432969928
 20
8.6957757462
 10
13.8432409668
 20
8.7032593264
 10
13.8431846475
 20
8.7107226668
 10
13.8431289148
 20
8.718157701
 10
13.8430731821
 20
8.7255565088
  0
LINE
  5
A4
330
1F
100
AcDbEntity
  8
0
  6
Continuous
 62
     7
 48
2.25
370
    15
100
AcDbLine
 10
13.7833195257
 20
8.725107274
 30
0.0
 11
13.7613998589
 21
8.7249425692
 31
0.0
  0
LINE
  5
A5
330
1F
100
AcDbEntity
  8
0
  6
Continuous
 62
     7
 48
2.25
370
    15
100
AcDbLine
 10
13.7613998589
 20
8.7249425692
 30
0.0
 11
13.7615647103
 21
8.7030229025
 31
0.0
  0
LINE
  5
A6
330
1F
100
AcDbEntity
  8
0
  6
Continuous
 62
     7
 48
2.25
370
    15
100
AcDbLine
 10
13.8217674549
 20
8.6437183342
 30
0.0
 11
13.8436871217
 21
8.6438831856
 31
0.0
  0
LINE
  5
A7
330
1F
100
AcDbEntity
  8
0
  6
Continuous
 62
     7
 48
2.25
370
    15
100
AcDbLine
 10
13.8436871217
 20
8.6438831856
 30
0.0
 11
13.8435225636
 21
8.6658028524
 31
0.0
  0
CIRCLE
  5
A8
330
1F
100
AcDbEntity
  8
0
  6
Continuous
 62
     7
 48
5.0625
370
    15
100
AcDbCircle
 10
13.8025435785
 20
8.6844128533
 30
0.0
 40
0.1864999999999991
  0
LWPOLYLINE
  5
A9
330
1F
100
AcDbEntity
  8
0
  6
Continuous
 62
     7
 48
2.25
370
    15
100
AcDbPolyline
 90
        9
 70
   128
 43
0.0
 10
8.2615645935
 20
8.6658028524
 10
8.2506591728
 20
8.6550600832
 10
8.2399432433
 20
8.6445041651
 10
8.2294669643
 20
8.6341840844
 10
8.219278442
 20
8.624147507
 10
8.2094249025
 20
8.6144409258
 10
8.1999518119
 20
8.6051092202
 10
8.1909031698
 20
8.5961956565
 10
8.1823209222
 20
8.5877414475
  0
ARC
  5
AA
330
1F
100
AcDbEntity
  8
0
  6
Continuous
 62
     7
 48
5.0625
370
    15
100
AcDbCircle
 10
8.3025435785
 20
8.6844128533
 30
0.0
 40
0.1542687964746291
100
AcDbArc
 50
218.802861523
 51
230.3357915391
  0
LWPOLYLINE
  5
AB
330
1F
100
AcDbEntity
  8
0
  6
Continuous
 62
     7
 48
2.25
370
    15
100
AcDbPolyline
 90
        9
 70
   128
 43
0.0
 10
8.2040757376
 20
8.5656569293
 10
8.2126579851
 20
8.5741111383
 10
8.2217066273
 20
8.583024702
 10
8.2311797178
 20
8.5923564076
 10
8.2410332573
 20
8.6020629888
 10
8.2512217796
 20
8.6120995662
 10
8.2616983519
 20
8.6224196469
 10
8.2724139882
 20
8.632975565
 10
8.2833197022
 20
8.6437183342
  0
LWPOLYLINE
  5
AC
330
1F
100
AcDbEntity
  8
0
  6
Continuous
 62
     7
 48
2.25
370
    15
100
AcDbPolyline
 90
        9
 70
   128
 43
0.0
 10
8.3430733586
 20
8.6432692461
 10
8.3431287979
 20
8.6506679073
 10
8.3431848239
 20
8.658103088
 10
8.34324085
 20
8.6655664285
 10
8.3432971693
 20
8.6730500087
 10
8.3433534887
 20
8.6805454688
 10
8.343409808
 20
8.6880450355
 10
8.3434661274
 20
8.6955402022
 10
8.3435224467
 20
8.7030229025
  0
LWPOLYLINE
  5
AD
330
1F
100
AcDbEntity
  8
0
  6
Continuous
 62
     7
 48
2.25
370
    15
100
AcDbPolyline
 90
        9
 70
   128
 43
0.0
 10
8.3435224467
 20
8.7030229025
 10
8.3544278674
 20
8.7137656717
 10
8.3651437969
 20
8.7243215898
 10
8.3756200759
 20
8.7346416705
 10
8.3858088915
 20
8.7446782479
 10
8.395662431
 20
8.7543848291
 10
8.4051355216
 20
8.7637165347
 10
8.4141838704
 20
8.7726300984
 10
8.4227664113
 20
8.7810843074
  0
ARC
  5
AE
330
1F
100
AcDbEntity
  8
0
  6
Continuous
 62
     7
 48
5.0625
370
    15
100
AcDbCircle
 10
8.3025435785
 20
8.6844128533
 30
0.0
 40
0.1542687964746291
100
AcDbArc
 50
38.802861523
 51
50.3357915391
  0
LWPOLYLINE
  5
AF
330
1F
100
AcDbEntity
  8
0
  6
Continuous
 62
     7
 48
2.25
370
    15
100
AcDbPolyline
 90
        9
 70
   128
 43
0.0
 10
8.4010113026
 20
8.8031686789
 10
8.3924290551
 20
8.7947144699
 10
8.3833804129
 20
8.7858009062
 10
8.3739073224
 20
8.7764692007
 10
8.3640537829
 20
8.7667627661
 10
8.3538652606
 20
8.7567261887
 10
8.3433889816
 20
8.7464059613
 10
8.332673052
 20
8.7358501899
 10
8.3217676313
 20
8.725107274
  0
LWPOLYLINE
  5
B0
330
1F
100
AcDbEntity
  8
0
  6
Continuous
 62
     7
 48
2.25
370
    15
100
AcDbPolyline
 90
        9
 70
   128
 43
0.0
 10
8.3217676313
 20
8.725107274
 10
8.3142847845
 20
8.7251635934
 10
8.3067896177
 20
8.7252199127
 10
8.299290051
 20
8.7252762321
 10
8.2917945909
 20
8.7253325514
 10
8.2843111574
 20
8.7253888708
 10
8.2768476703
 20
8.7254448968
 10
8.2694126362
 20
8.7255009228
 10
8.262013975
 20
8.7255565088
  0
LWPOLYLINE
  5
B1
330
1F
100
AcDbEntity
  8
0
  6
Continuous
 62
     7
 48
2.25
370
    15
100
AcDbPolyline
 90
        9
 70
   128
 43
0.0
 10
8.262013975
 20
8.7255565088
 10
8.2619582423
 20
8.718157701
 10
8.2619025096
 20
8.7107226668
 10
8.2618461902
 20
8.7032593264
 10
8.2617901642
 20
8.6957757462
 10
8.2617335515
 20
8.6882801394
 10
8.2616772322
 20
8.6807807194
 10
8.2616209128
 20
8.6732855527
 10
8.2615645935
 20
8.6658028524
  0
LWPOLYLINE
  5
B2
330
1F
100
AcDbEntity
  8
0
  6
Continuous
 62
     7
 48
2.25
370
    15
100
AcDbPolyline
 90
        9
 70
   128
 43
0.0
 10
8.2833197022
 20
8.6437183342
 10
8.2908022557
 20
8.6436621615
 10
8.2982974225
 20
8.6436058422
 10
8.3057969892
 20
8.6435493762
 10
8.3132924493
 20
8.6434930568
 10
8.3207761761
 20
8.6434368841
 10
8.3282393699
 20
8.6433807115
 10
8.3356746974
 20
8.6433248321
 10
8.3430733586
 20
8.6432692461
  0
LINE
  5
B3
330
1F
100
AcDbEntity
  8
0
  6
Continuous
 62
     7
 48
2.25
370
    15
100
AcDbLine
 10
8.2615645935
 20
8.6658028524
 30
0.0
 11
8.2614000354
 21
8.6438831856
 31
0.0
  0
LINE
  5
B4
330
1F
100
AcDbEntity
  8
0
  6
Continuous
 62
     7
 48
2.25
370
    15
100
AcDbLine
 10
8.2614000354
 20
8.6438831856
 30
0.0
 11
8.2833197022
 21
8.6437183342
 31
0.0
  0
LINE
  5
B5
330
1F
100
AcDbEntity
  8
0
  6
Continuous
 62
     7
 48
2.25
370
    15
100
AcDbLine
 10
8.3436872981
 20
8.7249425692
 30
0.0
 11
8.3217676313
 21
8.725107274
 31
0.0
  0
LINE
  5
B6
330
1F
100
AcDbEntity
  8
0
  6
Continuous
 62
     7
 48
2.25
370
    15
100
AcDbLine
 10
8.3435224467
 20
8.7030229025
 30
0.0
 11
8.3436872981
 21
8.7249425692
 31
0.0
  0
CIRCLE
  5
B7
330
1F
100
AcDbEntity
  8
0
  6
Continuous
 62
     7
 48
5.0625
370
    15
100
AcDbCircle
 10
8.3025435785
 20
8.6844128533
 30
0.0
 40
0.1864999999999991
  0
LWPOLYLINE
  5
B8
330
1F
100
AcDbEntity
  8
0
  6
Continuous
 62
     7
 48
2.25
370
    15
100
AcDbPolyline
 90
        9
 70
   128
 43
0.0
 10
13.7833195257
 20
12.7251073723
 10
13.772414105
 20
12.7358501416
 10
13.7616981755
 20
12.7464060596
 10
13.7512218965
 20
12.7567261404
 10
13.7410333742
 20
12.7667627178
 10
13.7311798347
 20
12.776469299
 10
13.7217067441
 20
12.7858010045
 10
13.712658102
 20
12.7947145682
 10
13.7040758545
 20
12.8031687772
  0
ARC
  5
B9
330
1F
100
AcDbEntity
  8
0
  6
Continuous
 62
     7
 48
5.0625
370
    15
100
AcDbCircle
 10
13.8025435785
 20
12.6844128533
 30
0.0
 40
0.1542687964746276
100
AcDbArc
 50
129.6642084609
 51
141.197138477
  0
LWPOLYLINE
  5
BA
330
1F
100
AcDbEntity
  8
0
  6
Continuous
 62
     7
 48
2.25
370
    15
100
AcDbPolyline
 90
        9
 70
   128
 43
0.0
 10
13.6823207458
 20
12.781084259
 10
13.6909032866
 20
12.77263005
 10
13.6999516354
 20
12.7637164863
 10
13.709424726
 20
12.7543847808
 10
13.7192782655
 20
12.7446781996
 10
13.7294670811
 20
12.7346416222
 10
13.7399433601
 20
12.7243215414
 10
13.7506592897
 20
12.7137656234
 10
13.7615647103
 20
12.7030228541
  0
LWPOLYLINE
  5
BB
330
1F
100
AcDbEntity
  8
0
  6
Continuous
 62
     7
 48
2.25
370
    15
100
AcDbPolyline
 90
        9
 70
   128
 43
0.0
 10
13.8217674549
 20
12.6437184325
 10
13.8326731689
 20
12.6329755166
 10
13.8433888051
 20
12.6224197453
 10
13.8538653774
 20
12.6120995178
 10
13.8640538997
 20
12.6020629404
 10
13.8739074392
 20
12.5923565059
 10
13.8833805298
 20
12.5830248003
 10
13.8924291719
 20
12.5741112367
 10
13.9010114194
 20
12.5656570277
  0
ARC
  5
BC
330
1F
100
AcDbEntity
  8
0
  6
Continuous
 62
     7
 48
5.0625
370
    15
100
AcDbCircle
 10
13.8025435785
 20
12.6844128533
 30
0.0
 40
0.1542687964746303
100
AcDbArc
 50
309.6642084609
 51
321.197138477
  0
LWPOLYLINE
  5
BD
330
1F
100
AcDbEntity
  8
0
  6
Continuous
 62
     7
 48
2.25
370
    15
100
AcDbPolyline
 90
        9
 70
   128
 43
0.0
 10
13.9227662348
 20
12.5877413992
 10
13.9141839873
 20
12.5961956082
 10
13.9051353451
 20
12.6051091719
 10
13.8956622546
 20
12.6144408774
 10
13.8858087151
 20
12.6241474586
 10
13.8756201928
 20
12.634184036
 10
13.8651439138
 20
12.6445041168
 10
13.8544279843
 20
12.6550600349
 10
13.8435225636
 20
12.6658028041
  0
LWPOLYLINE
  5
BE
330
1F
100
AcDbEntity
  8
0
  6
Continuous
 62
     7
 48
2.25
370
    15
100
AcDbPolyline
 90
        9
 70
   128
 43
0.0
 10
13.8430731821
 20
12.7255564605
 10
13.8356745209
 20
12.7255008745
 10
13.8282394868
 20
12.7254449951
 10
13.8207759997
 20
12.7253888224
 10
13.8132925661
 20
12.7253326497
 10
13.805797106
 20
12.7252763304
 10
13.7982975393
 20
12.7252198644
 10
13.7908023726
 20
12.725163545
 10
13.7833195257
 20
12.7251073723
  0
LWPOLYLINE
  5
BF
330
1F
100
AcDbEntity
  8
0
  6
Continuous
 62
     7
 48
2.25
370
    15
100
AcDbPolyline
 90
        9
 70
   128
 43
0.0
 10
13.7620137985
 20
12.6432691977
 10
13.7694124597
 20
12.6433247838
 10
13.7768477871
 20
12.6433808098
 10
13.7843109809
 20
12.6434368358
 10
13.7917947078
 20
12.6434931551
 10
13.7992901679
 20
12.6435494745
 10
13.8067897346
 20
12.6436057938
 10
13.8142849013
 20
12.6436621132
 10
13.8217674549
 20
12.6437184325
  0
LWPOLYLINE
  5
C0
330
1F
100
AcDbEntity
  8
0
  6
Continuous
 62
     7
 48
2.25
370
    15
100
AcDbPolyline
 90
        9
 70
   128
 43
0.0
 10
13.8435225636
 20
12.6658028041
 10
13.8434662442
 20
12.6732855043
 10
13.8434099249
 20
12.6807806711
 10
13.8433536055
 20
12.6882802378
 10
13.8432969928
 20
12.6957756978
 10
13.8432409668
 20
12.7032592781
 10
13.8431846475
 20
12.7107226185
 10
13.8431289148
 20
12.7181577993
 10
13.8430731821
 20
12.7255564605
  0
LWPOLYLINE
  5
C1
330
1F
100
AcDbEntity
  8
0
  6
Continuous
 62
     7
 48
2.25
370
    15
100
AcDbPolyline
 90
        9
 70
   128
 43
0.0
 10
13.7615647103
 20
12.7030228541
 10
13.7616210297
 20
12.6955401539
 10
13.761677349
 20
12.6880449871
 10
13.7617336684
 20
12.6805455671
 10
13.7617899877
 20
12.6730499604
 10
13.7618463071
 20
12.6655663802
 10
13.7619023331
 20
12.6581030397
 10
13.7619583591
 20
12.6506680056
 10
13.7620137985
 20
12.6432691977
  0
LINE
  5
C2
330
1F
100
AcDbEntity
  8
0
  6
Continuous
 62
     7
 48
2.25
370
    15
100
AcDbLine
 10
13.7833195257
 20
12.7251073723
 30
0.0
 11
13.7613998589
 21
12.7249425209
 31
0.0
  0
LINE
  5
C3
330
1F
100
AcDbEntity
  8
0
  6
Continuous
 62
     7
 48
2.25
370
    15
100
AcDbLine
 10
13.7613998589
 20
12.7249425209
 30
0.0
 11
13.7615647103
 21
12.7030228541
 31
0.0
  0
LINE
  5
C4
330
1F
100
AcDbEntity
  8
0
  6
Continuous
 62
     7
 48
2.25
370
    15
100
AcDbLine
 10
13.8217674549
 20
12.6437184325
 30
0.0
 11
13.8436871217
 21
12.6438831373
 31
0.0
  0
LINE
  5
C5
330
1F
100
AcDbEntity
  8
0
  6
Continuous
 62
     7
 48
2.25
370
    15
100
AcDbLine
 10
13.8436871217
 20
12.6438831373
 30
0.0
 11
13.8435225636
 21
12.6658028041
 31
0.0
  0
CIRCLE
  5
C6
330
1F
100
AcDbEntity
  8
0
  6
Continuous
 62
     7
 48
5.0625
370
    15
100
AcDbCircle
 10
13.8025435785
 20
12.6844128533
 30
0.0
 40
0.1864999999999979
  0
LWPOLYLINE
  5
C7
330
1F
100
AcDbEntity
  8
0
  6
Continuous
 62
     7
 48
2.25
370
    15
100
AcDbPolyline
 90
        9
 70
   128
 43
0.0
 10
8.2615645935
 20
12.6658028041
 10
8.2506591728
 20
12.6550600349
 10
8.2399432433
 20
12.6445041168
 10
8.2294669643
 20
12.634184036
 10
8.219278442
 20
12.6241474586
 10
8.2094249025
 20
12.6144408774
 10
8.1999518119
 20
12.6051091719
 10
8.1909031698
 20
12.5961956082
 10
8.1823209222
 20
12.5877413992
  0
ARC
  5
C8
330
1F
100
AcDbEntity
  8
0
  6
Continuous
 62
     7
 48
5.0625
370
    15
100
AcDbCircle
 10
8.3025435785
 20
12.6844128533
 30
0.0
 40
0.1542687964746303
100
AcDbArc
 50
218.802861523
 51
230.3357915391
  0
LWPOLYLINE
  5
C9
330
1F
100
AcDbEntity
  8
0
  6
Continuous
 62
     7
 48
2.25
370
    15
100
AcDbPolyline
 90
        9
 70
   128
 43
0.0
 10
8.2040757376
 20
12.5656570277
 10
8.2126579851
 20
12.5741112367
 10
8.2217066273
 20
12.5830248003
 10
8.2311797178
 20
12.5923565059
 10
8.2410332573
 20
12.6020629404
 10
8.2512217796
 20
12.6120995178
 10
8.2616983519
 20
12.6224197453
 10
8.2724139882
 20
12.6329755166
 10
8.2833197022
 20
12.6437184325
  0
LWPOLYLINE
  5
CA
330
1F
100
AcDbEntity
  8
0
  6
Continuous
 62
     7
 48
2.25
370
    15
100
AcDbPolyline
 90
        9
 70
   128
 43
0.0
 10
8.3435224467
 20
12.7030228541
 10
8.3544278674
 20
12.7137656234
 10
8.3651437969
 20
12.7243215414
 10
8.3756200759
 20
12.7346416222
 10
8.3858088915
 20
12.7446781996
 10
8.395662431
 20
12.7543847808
 10
8.4051355216
 20
12.7637164863
 10
8.4141838704
 20
12.77263005
 10
8.4227664113
 20
12.781084259
  0
ARC
  5
CB
330
1F
100
AcDbEntity
  8
0
  6
Continuous
 62
     7
 48
5.0625
370
    15
100
AcDbCircle
 10
8.3025435785
 20
12.6844128533
 30
0.0
 40
0.154268796474628
100
AcDbArc
 50
38.802861523
 51
50.3357915391
  0
LWPOLYLINE
  5
CC
330
1F
100
AcDbEntity
  8
0
  6
Continuous
 62
     7
 48
2.25
370
    15
100
AcDbPolyline
 90
        9
 70
   128
 43
0.0
 10
8.4010113026
 20
12.8031687772
 10
8.3924290551
 20
12.7947145682
 10
8.3833804129
 20
12.7858010045
 10
8.3739073224
 20
12.776469299
 10
8.3640537829
 20
12.7667627178
 10
8.3538652606
 20
12.7567261404
 10
8.3433889816
 20
12.7464060596
 10
8.332673052
 20
12.7358501416
 10
8.3217676313
 20
12.7251073723
  0
LWPOLYLINE
  5
CD
330
1F
100
AcDbEntity
  8
0
  6
Continuous
 62
     7
 48
2.25
370
    15
100
AcDbPolyline
 90
        9
 70
   128
 43
0.0
 10
8.3217676313
 20
12.7251073723
 10
8.3142847845
 20
12.725163545
 10
8.3067896177
 20
12.7252198644
 10
8.299290051
 20
12.7252763304
 10
8.2917945909
 20
12.7253326497
 10
8.2843111574
 20
12.7253888224
 10
8.2768476703
 20
12.7254449951
 10
8.2694126362
 20
12.7255008745
 10
8.262013975
 20
12.7255564605
  0
LWPOLYLINE
  5
CE
330
1F
100
AcDbEntity
  8
0
  6
Continuous
 62
     7
 48
2.25
370
    15
100
AcDbPolyline
 90
        9
 70
   128
 43
0.0
 10
8.262013975
 20
12.7255564605
 10
8.2619582423
 20
12.7181577993
 10
8.2619025096
 20
12.7107226185
 10
8.2618461902
 20
12.7032592781
 10
8.2617901642
 20
12.6957756978
 10
8.2617335515
 20
12.6882802378
 10
8.2616772322
 20
12.6807806711
 10
8.2616209128
 20
12.6732855043
 10
8.2615645935
 20
12.6658028041
  0
LWPOLYLINE
  5
CF
330
1F
100
AcDbEntity
  8
0
  6
Continuous
 62
     7
 48
2.25
370
    15
100
AcDbPolyline
 90
        9
 70
   128
 43
0.0
 10
8.3430733586
 20
12.6432691977
 10
8.3431287979
 20
12.6506680056
 10
8.3431848239
 20
12.6581030397
 10
8.34324085
 20
12.6655663802
 10
8.3432971693
 20
12.6730499604
 10
8.3433534887
 20
12.6805455671
 10
8.343409808
 20
12.6880449871
 10
8.3434661274
 20
12.6955401539
 10
8.3435224467
 20
12.7030228541
  0
LWPOLYLINE
  5
D0
330
1F
100
AcDbEntity
  8
0
  6
Continuous
 62
     7
 48
2.25
370
    15
100
AcDbPolyline
 90
        9
 70
   128
 43
0.0
 10
8.2833197022
 20
12.6437184325
 10
8.2908022557
 20
12.6436621132
 10
8.2982974225
 20
12.6436057938
 10
8.3057969892
 20
12.6435494745
 10
8.3132924493
 20
12.6434931551
 10
8.3207761761
 20
12.6434368358
 10
8.3282393699
 20
12.6433808098
 10
8.3356746974
 20
12.6433247838
 10
8.3430733586
 20
12.6432691977
  0
LINE
  5
D1
330
1F
100
AcDbEntity
  8
0
  6
Continuous
 62
     7
 48
2.25
370
    15
100
AcDbLine
 10
8.3436872981
 20
12.7249425209
 30
0.0
 11
8.3217676313
 21
12.7251073723
 31
0.0
  0
LINE
  5
D2
330
1F
100
AcDbEntity
  8
0
  6
Continuous
 62
     7
 48
2.25
370
    15
100
AcDbLine
 10
8.3435224467
 20
12.7030228541
 30
0.0
 11
8.3436872981
 21
12.7249425209
 31
0.0
  0
LINE
  5
D3
330
1F
100
AcDbEntity
  8
0
  6
Continuous
 62
     7
 48
2.25
370
    15
100
AcDbLine
 10
8.2615645935
 20
12.6658028041
 30
0.0
 11
8.2614000354
 21
12.6438831373
 31
0.0
  0
LINE
  5
D4
330
1F
100
AcDbEntity
  8
0
  6
Continuous
 62
     7
 48
2.25
370
    15
100
AcDbLine
 10
8.2614000354
 20
12.6438831373
 30
0.0
 11
8.2833197022
 21
12.6437184325
 31
0.0
  0
CIRCLE
  5
D5
330
1F
100
AcDbEntity
  8
0
  6
Continuous
 62
     7
 48
5.0625
370
    15
100
AcDbCircle
 10
8.3025435785
 20
12.6844128533
 30
0.0
 40
0.1865000000000004
  0
DIMENSION
  5
D6
330
1F
100
AcDbEntity
  8
0
  6
Continuous
 62
     7
 48
2.25
370
     0
100
AcDbDimension
  2
*D5
 10
14.0525435785
 20
15.4731313661
 30
0.0
 11
11.0525435785
 21
15.4731313661
 31
0.0
 70
   160
 71
     2
 42
-1.0
  3
SLDDIMSTYLE0
100
AcDbAlignedDimension
 13
8.0525435785
 23
14.6844128533
 33
0.0
 14
14.0525435785
 24
14.6844128533
 34
0.0
100
AcDbRotatedDimension
  0
DIMENSION
  5
E9
330
1F
100
AcDbEntity
  8
0
  6
Continuous
 62
     7
 48
2.25
370
     0
100
AcDbDimension
  2
*D6
 10
14.9521137286
 20
6.6844128533
 30
0.0
 11
14.9521137286
 21
10.6844128533
 31
0.0
 70
   160
 71
     2
 42
-1.0
  3
SLDDIMSTYLE0
100
AcDbAlignedDimension
 13
14.0525435785
 23
14.6844128533
 33
0.0
 14
14.0525435785
 24
6.6844128533
 34
0.0
 50
90.0
100
AcDbRotatedDimension
  0
INSERT
  5
103
102
{ACAD_REACTORS
330
105
102
}
330
1F
100
AcDbEntity
  8
0
  6
Continuous
 62
     7
 48
2.25
370
     0
100
AcDbBlockReference
  2
SW_NOTE_4
 10
15.9337747342
 20
4.8814944086
 30
0.0
  0
LEADER
  5
105
330
1F
100
AcDbEntity
  8
0
  6
Continuous
 62
     7
 48
2.25
370
     0
100
AcDbLeader
  3
SLDDIMSTYLE1
 73
     2
 76
     3
 10
13.8575137686
 20
8.5061980161
 30
0.0
 10
15.3712747342
 20
4.8814944086
 30
0.0
 10
15.9337747342
 20
4.8814944086
 30
0.0
340
103
  0
LINE
  5
106
330
1F
100
AcDbEntity
  8
0
  6
Continuous
 62
     7
 48
2.25
370
    15
100
AcDbLine
 10
13.9890435492
 20
16.6492507309
 30
0.0
 11
13.9890435492
 21
16.6825821058
 31
0.0
  0
LINE
  5
107
330
1F
100
AcDbEntity
  8
0
  6
Continuous
 62
     7
 48
2.25
370
    15
100
AcDbLine
 10
13.6160437248
 20
16.6825821058
 30
0.0
 11
13.6160437248
 21
16.6492507309
 31
0.0
  0
ARC
  5
108
330
1F
100
AcDbEntity
  8
0
  6
Continuous
 62
     7
 48
5.0625
370
    15
100
AcDbCircle
 10
13.9740435785
 20
16.6492507226
 30
0.0
 40
0.0150000000000006
100
AcDbArc
 50
322.550643686
 51
0.0
  0
ARC
  5
109
330
1F
100
AcDbEntity
  8
0
  6
Continuous
 62
     7
 48
5.0625
370
    15
100
AcDbCircle
 10
13.6310435785
 20
16.6492507226
 30
0.0
 40
0.0150000000000006
100
AcDbArc
 50
180.0
 51
217.449356314
  0
ARC
  5
10A
330
1F
100
AcDbEntity
  8
0
  6
Continuous
 62
     7
 48
5.0625
370
    15
100
AcDbCircle
 10
13.8025435785
 20
16.7806066216
 30
0.0
 40
0.2310245869783022
100
AcDbArc
 50
280.1818657166
 51
322.550643686
  0
ARC
  5
10B
330
1F
100
AcDbEntity
  8
0
  6
Continuous
 62
     7
 48
5.0625
370
    15
100
AcDbCircle
 10
13.8025435785
 20
16.7806066216
 30
0.0
 40
0.2310245869783022
100
AcDbArc
 50
217.449356314
 51
259.8181342834
  0
LINE
  5
10C
330
1F
100
AcDbEntity
  8
0
  6
Continuous
 62
     7
 48
2.25
370
    15
100
AcDbLine
 10
13.8715434932
 20
16.80658206
 30
0.0
 11
13.8715434932
 21
16.8835820505
 31
0.0
  0
LINE
  5
10D
330
1F
100
AcDbEntity
  8
0
  6
Continuous
 62
     7
 48
2.25
370
    15
100
AcDbLine
 10
13.7335434874
 20
16.8835820505
 30
0.0
 11
13.7335434874
 21
16.80658206
 31
0.0
  0
LINE
  5
10E
330
1F
100
AcDbEntity
  8
0
  6
Continuous
 62
     7
 48
2.25
370
    15
100
AcDbLine
 10
8.4890434323
 20
16.6492507309
 30
0.0
 11
8.4890434323
 21
16.6825821058
 31
0.0
  0
LINE
  5
10F
330
1F
100
AcDbEntity
  8
0
  6
Continuous
 62
     7
 48
2.25
370
    15
100
AcDbLine
 10
8.1160436079
 20
16.6825821058
 30
0.0
 11
8.1160436079
 21
16.6492507309
 31
0.0
  0
ARC
  5
110
330
1F
100
AcDbEntity
  8
0
  6
Continuous
 62
     7
 48
5.0625
370
    15
100
AcDbCircle
 10
8.4740435785
 20
16.6492507226
 30
0.0
 40
0.0149999999999988
100
AcDbArc
 50
322.550643686
 51
0.0
  0
ARC
  5
111
330
1F
100
AcDbEntity
  8
0
  6
Continuous
 62
     7
 48
5.0625
370
    15
100
AcDbCircle
 10
8.1310435785
 20
16.6492507226
 30
0.0
 40
0.0150000000000006
100
AcDbArc
 50
180.0
 51
217.449356314
  0
ARC
  5
112
330
1F
100
AcDbEntity
  8
0
  6
Continuous
 62
     7
 48
5.0625
370
    15
100
AcDbCircle
 10
8.3025435785
 20
16.7806066216
 30
0.0
 40
0.2310245869783022
100
AcDbArc
 50
280.1818657166
 51
322.550643686
  0
ARC
  5
113
330
1F
100
AcDbEntity
  8
0
  6
Continuous
 62
     7
 48
5.0625
370
    15
100
AcDbCircle
 10
8.3025435785
 20
16.7806066216
 30
0.0
 40
0.2310245869783019
100
AcDbArc
 50
217.449356314
 51
259.8181342834
  0
LINE
  5
114
330
1F
100
AcDbEntity
  8
0
  6
Continuous
 62
     7
 48
2.25
370
    15
100
AcDbLine
 10
8.3715436697
 20
16.80658206
 30
0.0
 11
8.3715436697
 21
16.8835820505
 31
0.0
  0
LINE
  5
115
330
1F
100
AcDbEntity
  8
0
  6
Continuous
 62
     7
 48
2.25
370
    15
100
AcDbLine
 10
8.2335436639
 20
16.8835820505
 30
0.0
 11
8.2335436639
 21
16.80658206
 31
0.0
  0
LINE
  5
116
330
1F
100
AcDbEntity
  8
0
  6
Continuous
 62
     7
 48
2.25
370
    15
100
AcDbLine
 10
14.0525436156
 20
16.6825821058
 30
0.0
 11
8.0525435414
 21
16.6825821058
 31
0.0
  0
LINE
  5
117
330
1F
100
AcDbEntity
  8
0
  6
Continuous
 62
     7
 48
2.25
370
    15
100
AcDbLine
 10
8.0525435414
 20
16.7445820829
 30
0.0
 11
8.0525435414
 21
16.6825821058
 31
0.0
  0
LINE
  5
118
330
1F
100
AcDbEntity
  8
0
  6
Continuous
 62
     7
 48
2.25
370
    15
100
AcDbLine
 10
14.0525436156
 20
16.7445820829
 30
0.0
 11
8.0525435414
 21
16.7445820829
 31
0.0
  0
LINE
  5
119
330
1F
100
AcDbEntity
  8
0
  6
Continuous
 62
     7
 48
2.25
370
    15
100
AcDbLine
 10
14.0525436156
 20
16.7445820829
 30
0.0
 11
14.0525436156
 21
16.6825821058
 31
0.0
  0
LINE
  5
11A
330
1F
100
AcDbEntity
  8
0
  6
Continuous
 62
     7
 48
2.25
370
    15
100
AcDbLine
 10
13.5215436698
 20
16.8835820505
 30
0.0
 11
13.913543648
 21
16.8835820505
 31
0.0
  0
LINE
  5
11B
330
1F
100
AcDbEntity
  8
0
  6
Continuous
 62
     7
 48
2.25
370
    15
100
AcDbLine
 10
13.5215436698
 20
16.8215820734
 30
0.0
 11
13.5215436698
 21
16.8835820505
 31
0.0
  0
LINE
  5
11C
330
1F
100
AcDbEntity
  8
0
  6
Continuous
 62
     7
 48
2.25
370
    15
100
AcDbLine
 10
8.5835434873
 20
16.8215820734
 30
0.0
 11
8.5835434873
 21
16.8835820505
 31
0.0
  0
LINE
  5
11D
330
1F
100
AcDbEntity
  8
0
  6
Continuous
 62
     7
 48
2.25
370
    15
100
AcDbLine
 10
8.5835434873
 20
16.8835820505
 30
0.0
 11
8.191543509
 21
16.8835820505
 31
0.0
  0
LINE
  5
11E
330
1F
100
AcDbEntity
  8
0
  6
Continuous
 62
     7
 48
2.25
370
    15
100
AcDbLine
 10
8.191543509
 20
20.6825820346
 30
0.0
 11
8.191543509
 21
20.6055820303
 31
0.0
  0
LINE
  5
11F
330
1F
100
AcDbEntity
  8
0
  6
Continuous
 62
     7
 48
2.25
370
    15
100
AcDbLine
 10
13.913543648
 20
20.6825820346
 30
0.0
 11
13.913543648
 21
20.6055820303
 31
0.0
  0
LINE
  5
120
330
1F
100
AcDbEntity
  8
0
  6
Continuous
 62
     7
 48
2.25
370
    15
100
AcDbLine
 10
13.9905436385
 20
16.8835820505
 30
0.0
 11
13.913543648
 21
16.8835820505
 31
0.0
  0
LINE
  5
121
330
1F
100
AcDbEntity
  8
0
  6
Continuous
 62
     7
 48
2.25
370
    15
100
AcDbLine
 10
13.913543648
 20
20.6055820303
 30
0.0
 11
13.9905436385
 21
20.6055820303
 31
0.0
  0
LINE
  5
122
330
1F
100
AcDbEntity
  8
0
  6
Continuous
 62
     7
 48
2.25
370
    15
100
AcDbLine
 10
8.1145435186
 20
16.8835820505
 30
0.0
 11
8.191543509
 21
16.8835820505
 31
0.0
  0
LINE
  5
123
330
1F
100
AcDbEntity
  8
0
  6
Continuous
 62
     7
 48
2.25
370
    15
100
AcDbLine
 10
8.191543509
 20
20.6055820303
 30
0.0
 11
8.1145435186
 21
20.6055820303
 31
0.0
  0
LINE
  5
124
330
1F
100
AcDbEntity
  8
0
  6
Continuous
 62
     7
 48
2.25
370
    15
100
AcDbLine
 10
13.5215436698
 20
16.8215820734
 30
0.0
 11
13.5215436698
 21
16.7445820829
 31
0.0
  0
LINE
  5
125
330
1F
100
AcDbEntity
  8
0
  6
Continuous
 62
     7
 48
2.25
370
    15
100
AcDbLine
 10
8.5835434873
 20
16.8215820734
 30
0.0
 11
8.5835434873
 21
16.7445820829
 31
0.0
  0
ARC
  5
126
330
1F
100
AcDbEntity
  8
0
  6
Continuous
 62
     7
 48
5.0625
370
    15
100
AcDbCircle
 10
13.9755435785
 20
20.6675820346
 30
0.0
 40
0.0150000000000006
100
AcDbArc
 50
0.0
 51
90.0
  0
ARC
  5
127
330
1F
100
AcDbEntity
  8
0
  6
Continuous
 62
     7
 48
5.0625
370
    15
100
AcDbCircle
 10
13.9755435785
 20
20.6675820346
 30
0.0
 40
0.0770000000000017
100
AcDbArc
 50
0.0
 51
90.0
  0
LINE
  5
128
330
1F
100
AcDbEntity
  8
0
  6
Continuous
 62
     7
 48
2.25
370
    15
100
AcDbLine
 10
13.9905436385
 20
16.8215820734
 30
0.0
 11
13.9905436385
 21
20.6675820349
 31
0.0
  0
LINE
  5
129
330
1F
100
AcDbEntity
  8
0
  6
Continuous
 62
     7
 48
2.25
370
    15
100
AcDbLine
 10
14.0525436156
 20
16.8215820734
 30
0.0
 11
14.0525436156
 21
20.6675820349
 31
0.0
  0
LINE
  5
12A
330
1F
100
AcDbEntity
  8
0
  6
Continuous
 62
     7
 48
2.25
370
    15
100
AcDbLine
 10
8.1145435186
 20
20.6675820349
 30
0.0
 11
8.1145435186
 21
16.8215820734
 31
0.0
  0
LINE
  5
12B
330
1F
100
AcDbEntity
  8
0
  6
Continuous
 62
     7
 48
2.25
370
    15
100
AcDbLine
 10
8.0525435414
 20
20.6675820349
 30
0.0
 11
8.0525435414
 21
16.8215820734
 31
0.0
  0
LINE
  5
12C
330
1F
100
AcDbEntity
  8
0
  6
Continuous
 62
     7
 48
2.25
370
    15
100
AcDbLine
 10
13.9755436251
 20
20.7445820346
 30
0.0
 11
8.1295435319
 21
20.7445820346
 31
0.0
  0
LINE
  5
12D
330
1F
100
AcDbEntity
  8
0
  6
Continuous
 62
     7
 48
2.25
370
    15
100
AcDbLine
 10
13.9755436251
 20
20.6825820346
 30
0.0
 11
8.1295435319
 21
20.6825820346
 31
0.0
  0
ARC
  5
12E
330
1F
100
AcDbEntity
  8
0
  6
Continuous
 62
     7
 48
5.0625
370
    15
100
AcDbCircle
 10
8.1295435785
 20
20.6675820346
 30
0.0
 40
0.0770000000000017
100
AcDbArc
 50
90.0
 51
180.0
  0
ARC
  5
12F
330
1F
100
AcDbEntity
  8
0
  6
Continuous
 62
     7
 48
5.0625
370
    15
100
AcDbCircle
 10
8.1295435785
 20
20.6675820346
 30
0.0
 40
0.0150000000000006
100
AcDbArc
 50
90.0
 51
180.0
  0
ARC
  5
130
330
1F
100
AcDbEntity
  8
0
  6
Continuous
 62
     7
 48
5.0625
370
    15
100
AcDbCircle
 10
8.1295435785
 20
16.8215820346
 30
0.0
 40
0.0150000000000006
100
AcDbArc
 50
180.0
 51
270.0
  0
ARC
  5
131
330
1F
100
AcDbEntity
  8
0
  6
Continuous
 62
     7
 48
5.0625
370
    15
100
AcDbCircle
 10
8.1295435785
 20
16.8215820346
 30
0.0
 40
0.0770000000000017
100
AcDbArc
 50
180.0
 51
270.0
  0
ARC
  5
132
330
1F
100
AcDbEntity
  8
0
  6
Continuous
 62
     7
 48
5.0625
370
    15
100
AcDbCircle
 10
13.9755435785
 20
16.8215820346
 30
0.0
 40
0.0150000000000006
100
AcDbArc
 50
270.0
 51
0.0
  0
ARC
  5
133
330
1F
100
AcDbEntity
  8
0
  6
Continuous
 62
     7
 48
5.0625
370
    15
100
AcDbCircle
 10
13.9755435785
 20
16.8215820346
 30
0.0
 40
0.0769999999999982
100
AcDbArc
 50
270.0
 51
0.0
  0
LINE
  5
134
330
1F
100
AcDbEntity
  8
0
  6
Continuous
 62
     7
 48
2.25
370
    15
100
AcDbLine
 10
13.5525436583
 20
16.7445820829
 30
0.0
 11
13.5525436583
 21
16.80658206
 31
0.0
  0
LINE
  5
135
330
1F
100
AcDbEntity
  8
0
  6
Continuous
 62
     7
 48
2.25
370
    15
100
AcDbLine
 10
13.5525436583
 20
16.80658206
 30
0.0
 11
13.9755436251
 21
16.80658206
 31
0.0
  0
LINE
  5
136
330
1F
100
AcDbEntity
  8
0
  6
Continuous
 62
     7
 48
2.25
370
    15
100
AcDbLine
 10
13.5525436583
 20
16.7445820829
 30
0.0
 11
13.9755436251
 21
16.7445820829
 31
0.0
  0
LINE
  5
137
330
1F
100
AcDbEntity
  8
0
  6
Continuous
 62
     7
 48
2.25
370
    15
100
AcDbLine
 10
8.1295435319
 20
16.80658206
 30
0.0
 11
8.5525434987
 21
16.80658206
 31
0.0
  0
LINE
  5
138
330
1F
100
AcDbEntity
  8
0
  6
Continuous
 62
     7
 48
2.25
370
    15
100
AcDbLine
 10
8.1295435319
 20
16.7445820829
 30
0.0
 11
8.5525434987
 21
16.7445820829
 31
0.0
  0
LINE
  5
139
330
1F
100
AcDbEntity
  8
0
  6
Continuous
 62
     7
 48
2.25
370
    15
100
AcDbLine
 10
8.5525434987
 20
16.80658206
 30
0.0
 11
8.5525434987
 21
16.7445820829
 31
0.0
  0
ARC
  5
13A
330
1F
100
AcDbEntity
  8
0
  6
Continuous
 62
     7
 48
5.0625
370
    15
100
AcDbCircle
 10
13.8259121586
 20
16.7005815127
 30
0.0
 40
0.1526363372172266
100
AcDbArc
 50
217.0402091689
 51
253.796696
  0
LINE
  5
13B
330
1F
100
AcDbEntity
  8
0
  6
Continuous
 62
     7
 48
2.25
370
    15
100
AcDbLine
 10
13.6823207458
 20
16.6086371467
 30
0.0
 11
13.7040758545
 21
16.6086371467
 31
0.0
  0
ARC
  5
13C
330
1F
100
AcDbEntity
  8
0
  6
Continuous
 62
     7
 48
5.0625
370
    15
100
AcDbCircle
 10
13.8041569596
 20
16.7005816104
 30
0.0
 40
0.1526363240160415
100
AcDbArc
 50
217.0402588669
 51
253.7968445176
  0
LWPOLYLINE
  5
13D
330
1F
100
AcDbEntity
  8
0
  6
Continuous
 62
     7
 48
2.25
370
    15
100
AcDbPolyline
 90
        9
 70
   128
 43
0.0
 10
13.7615647103
 20
16.5540082578
 10
13.7616210297
 20
16.5535078369
 10
13.761677349
 20
16.5532541065
 10
13.7617336684
 20
16.5532479466
 10
13.7617899877
 20
16.5534890638
 10
13.7618463071
 20
16.5539771648
 10
13.7619023331
 20
16.5547119563
 10
13.7619583591
 20
16.555692265
 10
13.7620137985
 20
16.5569172108
  0
ARC
  5
13E
330
1F
100
AcDbEntity
  8
0
  6
Continuous
 62
     7
 48
5.0625
370
    15
100
AcDbCircle
 10
13.8028532362
 20
16.7806341116
 30
0.0
 40
0.2274139647781943
100
AcDbArc
 50
259.6545908985
 51
264.9978096393
  0
ARC
  5
13F
330
1F
100
AcDbEntity
  8
0
  6
Continuous
 62
     7
 48
5.0625
370
    15
100
AcDbCircle
 10
13.8028552701
 20
16.7805346407
 30
0.0
 40
0.227314480202175
100
AcDbArc
 50
269.9215621471
 51
274.7724296804
  0
ARC
  5
140
330
1F
100
AcDbEntity
  8
0
  6
Continuous
 62
     7
 48
5.0625
370
    15
100
AcDbCircle
 10
13.85952627
 20
16.5564331313
 30
0.0
 40
0.0164602076115606
100
AcDbArc
 50
178.3147409808
 51
191.255432122
  0
ARC
  5
141
330
1F
100
AcDbEntity
  8
0
  6
Continuous
 62
     7
 48
5.0625
370
    15
100
AcDbCircle
 10
13.8022356615
 20
16.7806095252
 30
0.0
 40
0.2273894337265343
100
AcDbArc
 50
265.2281480736
 51
280.3460464293
  0
LINE
  5
142
330
1F
100
AcDbEntity
  8
0
  6
Continuous
 62
     7
 48
2.25
370
    15
100
AcDbLine
 10
13.7615647103
 20
16.5540082578
 30
0.0
 11
13.7615647103
 21
16.56189766
 31
0.0
  0
LINE
  5
143
330
1F
100
AcDbEntity
  8
0
  6
Continuous
 62
     7
 48
2.25
370
    15
100
AcDbLine
 10
13.7620137985
 20
16.561688809
 30
0.0
 11
13.7620137985
 21
16.5569172108
 31
0.0
  0
LINE
  5
144
330
1F
100
AcDbEntity
  8
0
  6
Continuous
 62
     7
 48
2.25
370
    15
100
AcDbLine
 10
13.8217674549
 20
16.5540604705
 30
0.0
 11
13.8217674549
 21
16.5540082578
 31
0.0
  0
ARC
  5
145
330
1F
100
AcDbEntity
  8
0
  6
Continuous
 62
     7
 48
5.0625
370
    15
100
AcDbCircle
 10
8.3022319251
 20
16.780535339
 30
0.0
 40
0.2273151792457226
100
AcDbArc
 50
265.227575387
 51
270.0785758724
  0
ARC
  5
146
330
1F
100
AcDbEntity
  8
0
  6
Continuous
 62
     7
 48
5.0625
370
    15
100
AcDbCircle
 10
8.3022339209
 20
16.7806341116
 30
0.0
 40
0.2274139647782266
100
AcDbArc
 50
275.0021903607
 51
280.3454091015
  0
LWPOLYLINE
  5
147
330
1F
100
AcDbEntity
  8
0
  6
Continuous
 62
     7
 48
2.25
370
    15
100
AcDbPolyline
 90
        9
 70
   128
 43
0.0
 10
8.3430733586
 20
16.5569172108
 10
8.3431287979
 20
16.555692265
 10
8.3431848239
 20
16.5547119563
 10
8.34324085
 20
16.5539771648
 10
8.3432971693
 20
16.5534890638
 10
8.3433534887
 20
16.5532479466
 10
8.343409808
 20
16.5532541065
 10
8.3434661274
 20
16.5535078369
 10
8.3435224467
 20
16.5540082578
  0
ARC
  5
148
330
1F
100
AcDbEntity
  8
0
  6
Continuous
 62
     7
 48
5.0625
370
    15
100
AcDbCircle
 10
8.3009301975
 20
16.7005816104
 30
0.0
 40
0.1526363240160309
100
AcDbArc
 50
286.2031554824
 51
322.9597411331
  0
LINE
  5
149
330
1F
100
AcDbEntity
  8
0
  6
Continuous
 62
     7
 48
2.25
370
    15
100
AcDbLine
 10
8.4010113026
 20
16.6086371467
 30
0.0
 11
8.4227664113
 21
16.6086371467
 31
0.0
  0
ARC
  5
14A
330
1F
100
AcDbEntity
  8
0
  6
Continuous
 62
     7
 48
5.0625
370
    15
100
AcDbCircle
 10
8.2791749985
 20
16.7005815127
 30
0.0
 40
0.1526363372172383
100
AcDbArc
 50
286.203304
 51
322.9597908311
  0
ARC
  5
14B
330
1F
100
AcDbEntity
  8
0
  6
Continuous
 62
     7
 48
5.0625
370
    15
100
AcDbCircle
 10
8.3028514955
 20
16.7806095252
 30
0.0
 40
0.2273894337265554
100
AcDbArc
 50
259.6539535707
 51
274.7718519264
  0
ARC
  5
14C
330
1F
100
AcDbEntity
  8
0
  6
Continuous
 62
     7
 48
5.0625
370
    15
100
AcDbCircle
 10
8.2455608871
 20
16.5564331313
 30
0.0
 40
0.0164602076115606
100
AcDbArc
 50
348.744567878
 51
1.6852590192
  0
LINE
  5
14D
330
1F
100
AcDbEntity
  8
0
  6
Continuous
 62
     7
 48
2.25
370
    15
100
AcDbLine
 10
8.3435224467
 20
16.56189766
 30
0.0
 11
8.3435224467
 21
16.5540082578
 31
0.0
  0
LINE
  5
14E
330
1F
100
AcDbEntity
  8
0
  6
Continuous
 62
     7
 48
2.25
370
    15
100
AcDbLine
 10
8.3430733586
 20
16.561688809
 30
0.0
 11
8.3430733586
 21
16.5569172108
 31
0.0
  0
LINE
  5
14F
330
1F
100
AcDbEntity
  8
0
  6
Continuous
 62
     7
 48
2.25
370
    15
100
AcDbLine
 10
8.2833197022
 20
16.5540082578
 30
0.0
 11
8.2833197022
 21
16.5540604705
 31
0.0
  0
DIMENSION
  5
150
330
1F
100
AcDbEntity
  8
0
  6
Continuous
 62
     7
 48
2.25
370
     0
100
AcDbDimension
  2
*D8
 10
14.9521137286
 20
16.7445820346
 30
0.0
 11
14.9521137286
 21
18.7445820346
 31
0.0
 70
   160
 71
     2
 42
-1.0
  3
SLDDIMSTYLE0
100
AcDbAlignedDimension
 13
13.9755435785
 23
20.7445820346
 33
0.0
 14
14.0525435785
 24
16.7445820346
 34
0.0
 50
90.0
100
AcDbRotatedDimension
  0
ARC
  5
162
330
1F
100
AcDbEntity
  8
0
  6
Continuous
 62
     7
 48
5.0625
370
    15
100
AcDbCircle
 10
24.2527800829
 20
8.5129128533
 30
0.0
 40
0.0150000000000005
100
AcDbArc
 50
232.550643686
 51
270.0
  0
ARC
  5
163
330
1F
100
AcDbEntity
  8
0
  6
Continuous
 62
     7
 48
5.0625
370
    15
100
AcDbCircle
 10
24.2527800829
 20
8.8559128533
 30
0.0
 40
0.0150000000000005
100
AcDbArc
 50
90.0
 51
127.449356314
  0
LINE
  5
164
330
1F
100
AcDbEntity
  8
0
  6
Continuous
 62
     7
 48
2.25
370
    15
100
AcDbLine
 10
24.2527800911
 20
8.4979128186
 30
0.0
 11
24.286111466
 21
8.4979128186
 31
0.0
  0
LINE
  5
165
330
1F
100
AcDbEntity
  8
0
  6
Continuous
 62
     7
 48
2.25
370
    15
100
AcDbLine
 10
24.286111466
 20
8.8709127897
 30
0.0
 11
24.2527800911
 21
8.8709127897
 31
0.0
  0
ARC
  5
166
330
1F
100
AcDbEntity
  8
0
  6
Continuous
 62
     7
 48
5.0625
370
    15
100
AcDbCircle
 10
24.3841359818
 20
8.6844128533
 30
0.0
 40
0.231024586978303
100
AcDbArc
 50
190.1818657166
 51
232.550643686
  0
ARC
  5
167
330
1F
100
AcDbEntity
  8
0
  6
Continuous
 62
     7
 48
5.0625
370
    15
100
AcDbCircle
 10
24.3841359818
 20
8.6844128533
 30
0.0
 40
0.231024586978303
100
AcDbArc
 50
127.449356314
 51
169.8181342834
  0
ARC
  5
168
330
1F
100
AcDbEntity
  8
0
  6
Continuous
 62
     7
 48
5.0625
370
    15
100
AcDbCircle
 10
24.2527800829
 20
12.5129128533
 30
0.0
 40
0.0149999999999991
100
AcDbArc
 50
232.550643686
 51
270.0
  0
ARC
  5
169
330
1F
100
AcDbEntity
  8
0
  6
Continuous
 62
     7
 48
5.0625
370
    15
100
AcDbCircle
 10
24.2527800829
 20
12.8559128533
 30
0.0
 40
0.0149999999999991
100
AcDbArc
 50
90.0
 51
127.449356314
  0
LINE
  5
16A
330
1F
100
AcDbEntity
  8
0
  6
Continuous
 62
     7
 48
2.25
370
    15
100
AcDbLine
 10
24.2527800911
 20
12.4979129169
 30
0.0
 11
24.286111466
 21
12.4979129169
 31
0.0
  0
LINE
  5
16B
330
1F
100
AcDbEntity
  8
0
  6
Continuous
 62
     7
 48
2.25
370
    15
100
AcDbLine
 10
24.286111466
 20
12.870912888
 30
0.0
 11
24.2527800911
 21
12.870912888
 31
0.0
  0
ARC
  5
16C
330
1F
100
AcDbEntity
  8
0
  6
Continuous
 62
     7
 48
5.0625
370
    15
100
AcDbCircle
 10
24.3841359818
 20
12.6844128533
 30
0.0
 40
0.231024586978303
100
AcDbArc
 50
190.1818657166
 51
232.550643686
  0
ARC
  5
16D
330
1F
100
AcDbEntity
  8
0
  6
Continuous
 62
     7
 48
5.0625
370
    15
100
AcDbCircle
 10
24.3841359818
 20
12.6844128533
 30
0.0
 40
0.2310245869783015
100
AcDbArc
 50
127.449356314
 51
169.8181342834
  0
LINE
  5
16E
330
1F
100
AcDbEntity
  8
0
  6
Continuous
 62
     7
 48
2.25
370
    15
100
AcDbLine
 10
24.3481114431
 20
14.6844128049
 30
0.0
 11
24.286111466
 21
14.6844128049
 31
0.0
  0
LINE
  5
16F
330
1F
100
AcDbEntity
  8
0
  6
Continuous
 62
     7
 48
2.25
370
    15
100
AcDbLine
 10
24.3481114431
 20
6.6844129016
 30
0.0
 11
24.3481114431
 21
14.6844128049
 31
0.0
  0
LINE
  5
170
330
1F
100
AcDbEntity
  8
0
  6
Continuous
 62
     7
 48
2.25
370
    15
100
AcDbLine
 10
24.3481114431
 20
6.6844129016
 30
0.0
 11
24.286111466
 21
6.6844129016
 31
0.0
  0
LINE
  5
171
330
1F
100
AcDbEntity
  8
0
  6
Continuous
 62
     7
 48
2.25
370
    15
100
AcDbLine
 10
24.286111466
 20
6.6844129016
 30
0.0
 11
24.286111466
 21
14.6844128049
 31
0.0
  0
LINE
  5
172
330
1F
100
AcDbEntity
  8
0
  6
Continuous
 62
     7
 48
2.25
370
    15
100
AcDbLine
 10
24.4251114336
 20
6.6844129016
 30
0.0
 11
28.2711113951
 21
6.6844129016
 31
0.0
  0
LINE
  5
173
330
1F
100
AcDbEntity
  8
0
  6
Continuous
 62
     7
 48
2.25
370
    15
100
AcDbLine
 10
24.4251114336
 20
14.6844128049
 30
0.0
 11
28.2711113951
 21
14.6844128049
 31
0.0
  0
LINE
  5
174
330
1F
100
AcDbEntity
  8
0
  6
Continuous
 62
     7
 48
2.25
370
    15
100
AcDbLine
 10
28.3481113948
 20
14.6844128049
 30
0.0
 11
28.3481113948
 21
6.6844129016
 31
0.0
  0
LINE
  5
175
330
1F
100
AcDbEntity
  8
0
  6
Continuous
 62
     7
 48
2.25
370
    15
100
AcDbLine
 10
28.2711113951
 20
6.6844129016
 30
0.0
 11
28.3481113948
 21
6.6844129016
 31
0.0
  0
LINE
  5
176
330
1F
100
AcDbEntity
  8
0
  6
Continuous
 62
     7
 48
2.25
370
    15
100
AcDbLine
 10
28.2711113951
 20
14.6844128049
 30
0.0
 11
28.3481113948
 21
14.6844128049
 31
0.0
  0
LINE
  5
177
330
1F
100
AcDbEntity
  8
0
  6
Continuous
 62
     7
 48
2.25
370
    15
100
AcDbLine
 10
24.3481114431
 20
14.6844128049
 30
0.0
 11
24.4251114336
 21
14.6844128049
 31
0.0
  0
LINE
  5
178
330
1F
100
AcDbEntity
  8
0
  6
Continuous
 62
     7
 48
2.25
370
    15
100
AcDbLine
 10
24.3481114431
 20
6.6844129016
 30
0.0
 11
24.4251114336
 21
6.6844129016
 31
0.0
  0
ARC
  5
179
330
1F
100
AcDbEntity
  8
0
  6
Continuous
 62
     7
 48
5.0625
370
    15
100
AcDbCircle
 10
24.3841131733
 20
8.6841040348
 30
0.0
 40
0.2273636491190114
100
AcDbArc
 50
179.9222084055
 51
190.3465328633
  0
ARC
  5
17A
330
1F
100
AcDbEntity
  8
0
  6
Continuous
 62
     7
 48
5.0625
370
    15
100
AcDbCircle
 10
24.1573869935
 20
8.6423190945
 30
0.0
 40
0.0014073235586119
100
AcDbArc
 50
83.8559179462
 51
116.9245493547
  0
ARC
  5
17B
330
1F
100
AcDbEntity
  8
0
  6
Continuous
 62
     7
 48
5.0625
370
    15
100
AcDbCircle
 10
24.3016680406
 20
8.6864377246
 30
0.0
 40
0.1503280580506467
100
AcDbArc
 50
196.5095066868
 51
233.4606464483
  0
LINE
  5
17C
330
1F
100
AcDbEntity
  8
0
  6
Continuous
 62
     7
 48
2.25
370
    15
100
AcDbLine
 10
24.2121665069
 20
8.5877414475
 30
0.0
 11
24.2121665069
 21
8.5656569293
 31
0.0
  0
ARC
  5
17D
330
1F
100
AcDbEntity
  8
0
  6
Continuous
 62
     7
 48
5.0625
370
    15
100
AcDbCircle
 10
24.3016680406
 20
8.7085222428
 30
0.0
 40
0.1503280580506638
100
AcDbArc
 50
196.5095066868
 51
233.4606464483
  0
ARC
  5
17E
330
1F
100
AcDbEntity
  8
0
  6
Continuous
 62
     7
 48
5.0625
370
    15
100
AcDbCircle
 10
24.384139886
 20
8.6847189395
 30
0.0
 40
0.2273904268138501
100
AcDbArc
 50
169.6539867759
 51
184.7718187212
  0
LWPOLYLINE
  5
17F
330
1F
100
AcDbEntity
  8
0
  6
Continuous
 62
     7
 48
2.25
370
    15
100
AcDbPolyline
 90
        9
 70
   128
 43
0.0
 10
24.160446571
 20
8.7255565088
 10
24.1592216252
 20
8.7255009228
 10
24.1582413165
 20
8.7254448968
 10
24.157506525
 20
8.7253888708
 10
24.157018424
 20
8.7253325514
 10
24.1567773068
 20
8.7252762321
 10
24.1567834667
 20
8.7252199127
 10
24.1570371971
 20
8.7251635934
 10
24.157537618
 20
8.725107274
  0
LINE
  5
180
330
1F
100
AcDbEntity
  8
0
  6
Continuous
 62
     7
 48
2.25
370
    15
100
AcDbLine
 10
24.1657394166
 20
8.6437183342
 30
0.0
 11
24.157537618
 21
8.6437183342
 31
0.0
  0
LINE
  5
181
330
1F
100
AcDbEntity
  8
0
  6
Continuous
 62
     7
 48
2.25
370
    15
100
AcDbLine
 10
24.1603650253
 20
8.725107274
 30
0.0
 11
24.157537618
 21
8.725107274
 31
0.0
  0
ARC
  5
182
330
1F
100
AcDbEntity
  8
0
  6
Continuous
 62
     7
 48
5.0625
370
    15
100
AcDbCircle
 10
24.384116635
 20
12.6841042975
 30
0.0
 40
0.227367110412379
100
AcDbArc
 50
179.9222879718
 51
190.346453297
  0
ARC
  5
183
330
1F
100
AcDbEntity
  8
0
  6
Continuous
 62
     7
 48
5.0625
370
    15
100
AcDbCircle
 10
24.1573875672
 20
12.6423173397
 30
0.0
 40
0.0014091048387697
100
AcDbArc
 50
83.88717554
 51
116.9139285099
  0
ARC
  5
184
330
1F
100
AcDbEntity
  8
0
  6
Continuous
 62
     7
 48
5.0625
370
    15
100
AcDbCircle
 10
24.3016676049
 20
12.686437518
 30
0.0
 40
0.1503275537071
100
AcDbArc
 50
196.5094424603
 51
233.4607106749
  0
LINE
  5
185
330
1F
100
AcDbEntity
  8
0
  6
Continuous
 62
     7
 48
2.25
370
    15
100
AcDbLine
 10
24.2121665069
 20
12.5877413992
 30
0.0
 11
24.2121665069
 21
12.5656570277
 31
0.0
  0
ARC
  5
186
330
1F
100
AcDbEntity
  8
0
  6
Continuous
 62
     7
 48
5.0625
370
    15
100
AcDbCircle
 10
24.3016680406
 20
12.7085221945
 30
0.0
 40
0.1503280580506193
100
AcDbArc
 50
196.5095066868
 51
233.4606464483
  0
ARC
  5
187
330
1F
100
AcDbEntity
  8
0
  6
Continuous
 62
     7
 48
5.0625
370
    15
100
AcDbCircle
 10
24.384139886
 20
12.6847188912
 30
0.0
 40
0.2273904268138677
100
AcDbArc
 50
169.6539867759
 51
184.7718187212
  0
LWPOLYLINE
  5
188
330
1F
100
AcDbEntity
  8
0
  6
Continuous
 62
     7
 48
2.25
370
    15
100
AcDbPolyline
 90
        9
 70
   128
 43
0.0
 10
24.160446571
 20
12.7255564605
 10
24.1592216252
 20
12.7255008745
 10
24.1582413165
 20
12.7254449951
 10
24.157506525
 20
12.7253888224
 10
24.157018424
 20
12.7253326497
 10
24.1567773068
 20
12.7252763304
 10
24.1567834667
 20
12.7252198644
 10
24.1570371971
 20
12.725163545
 10
24.157537618
 20
12.7251073723
  0
LINE
  5
189
330
1F
100
AcDbEntity
  8
0
  6
Continuous
 62
     7
 48
2.25
370
    15
100
AcDbLine
 10
24.1657394166
 20
12.6437184325
 30
0.0
 11
24.157537618
 21
12.6437184325
 31
0.0
  0
LINE
  5
18A
330
1F
100
AcDbEntity
  8
0
  6
Continuous
 62
     7
 48
2.25
370
    15
100
AcDbLine
 10
24.1603650253
 20
12.7251073723
 30
0.0
 11
24.157537618
 21
12.7251073723
 31
0.0
  0
LINE
  5
18B
330
1F
100
AcDbEntity
  8
0
  6
HIDDEN
 62
     7
 48
2.25
370
     0
100
AcDbLine
 10
24.3481114431
 20
12.5723628435
 30
0.0
 11
24.286111466
 21
12.5723628435
 31
0.0
  0
LINE
  5
18C
330
1F
100
AcDbEntity
  8
0
  6
HIDDEN
 62
     7
 48
2.25
370
     0
100
AcDbLine
 10
24.3481114431
 20
8.5723628919
 30
0.0
 11
24.286111466
 21
8.5723628919
 31
0.0
  0
LINE
  5
18D
330
1F
100
AcDbEntity
  8
0
  6
HIDDEN
 62
     7
 48
2.25
370
     0
100
AcDbLine
 10
28.2091113905
 20
14.2464128247
 30
0.0
 11
24.4871114107
 21
14.2464128247
 31
0.0
  0
LINE
  5
18E
330
1F
100
AcDbEntity
  8
0
  6
HIDDEN
 62
     7
 48
2.25
370
     0
100
AcDbLine
 10
24.4871114107
 20
14.2464128247
 30
0.0
 11
24.4871114107
 21
14.6074128144
 31
0.0
  0
LINE
  5
18F
330
1F
100
AcDbEntity
  8
0
  6
HIDDEN
 62
     7
 48
2.25
370
     0
100
AcDbLine
 10
28.2091113905
 20
14.6074128144
 30
0.0
 11
28.2091113905
 21
14.2464128247
 31
0.0
  0
LINE
  5
190
330
1F
100
AcDbEntity
  8
0
  6
HIDDEN
 62
     7
 48
2.25
370
     0
100
AcDbLine
 10
24.4871114107
 20
14.6074128144
 30
0.0
 11
24.4871114107
 21
14.6844128049
 31
0.0
  0
LINE
  5
191
330
1F
100
AcDbEntity
  8
0
  6
HIDDEN
 62
     7
 48
2.25
370
     0
100
AcDbLine
 10
28.2091113905
 20
14.6844128049
 30
0.0
 11
28.2091113905
 21
14.6074128144
 31
0.0
  0
LINE
  5
192
330
1F
100
AcDbEntity
  8
0
  6
HIDDEN
 62
     7
 48
2.25
370
     0
100
AcDbLine
 10
24.4871114107
 20
14.6224128278
 30
0.0
 11
28.2091113905
 21
14.6224128278
 31
0.0
  0
ARC
  5
193
330
1F
100
AcDbEntity
  8
0
  6
HIDDEN
 62
     7
 48
5.0625
370
     0
100
AcDbCircle
 10
28.2091113948
 20
14.6074128533
 30
0.0
 40
0.0770000000000017
100
AcDbArc
 50
0.0
 51
90.0
  0
ARC
  5
194
330
1F
100
AcDbEntity
  8
0
  6
HIDDEN
 62
     7
 48
5.0625
370
     0
100
AcDbCircle
 10
28.2091113948
 20
14.6074128533
 30
0.0
 40
0.0150000000000006
100
AcDbArc
 50
360.0
 51
90.0
  0
LINE
  5
195
330
1F
100
AcDbEntity
  8
0
  6
HIDDEN
 62
     7
 48
2.25
370
     0
100
AcDbLine
 10
28.2241113947
 20
14.2464128247
 30
0.0
 11
28.2241113947
 21
14.6074128144
 31
0.0
  0
LINE
  5
196
330
1F
100
AcDbEntity
  8
0
  6
HIDDEN
 62
     7
 48
2.25
370
     0
100
AcDbLine
 10
28.2861113948
 20
14.2464128247
 30
0.0
 11
28.2241113947
 21
14.2464128247
 31
0.0
  0
LINE
  5
197
330
1F
100
AcDbEntity
  8
0
  6
HIDDEN
 62
     7
 48
2.25
370
     0
100
AcDbLine
 10
24.4251114336
 20
14.6224128278
 30
0.0
 11
24.4871114107
 21
14.6224128278
 31
0.0
  0
ARC
  5
198
330
1F
100
AcDbEntity
  8
0
  6
HIDDEN
 62
     7
 48
5.0625
370
     0
100
AcDbCircle
 10
24.4251113948
 20
14.6074128533
 30
0.0
 40
0.0150000000000041
100
AcDbArc
 50
90.0
 51
180.0
  0
ARC
  5
199
330
1F
100
AcDbEntity
  8
0
  6
HIDDEN
 62
     7
 48
5.0625
370
     0
100
AcDbCircle
 10
24.4251113948
 20
14.6074128533
 30
0.0
 40
0.0770000000000017
100
AcDbArc
 50
90.0
 51
180.0
  0
LINE
  5
19A
330
1F
100
AcDbEntity
  8
0
  6
HIDDEN
 62
     7
 48
2.25
370
     0
100
AcDbLine
 10
24.3481114431
 20
14.1844128476
 30
0.0
 11
24.4101114202
 21
14.1844128476
 31
0.0
  0
LINE
  5
19B
330
1F
100
AcDbEntity
  8
0
  6
HIDDEN
 62
     7
 48
2.25
370
     0
100
AcDbLine
 10
24.4871114107
 20
7.1224128818
 30
0.0
 11
24.4871114107
 21
6.7614128921
 31
0.0
  0
LINE
  5
19C
330
1F
100
AcDbEntity
  8
0
  6
HIDDEN
 62
     7
 48
2.25
370
     0
100
AcDbLine
 10
28.2091113905
 20
7.1224128818
 30
0.0
 11
24.4871114107
 21
7.1224128818
 31
0.0
  0
LINE
  5
19D
330
1F
100
AcDbEntity
  8
0
  6
HIDDEN
 62
     7
 48
2.25
370
     0
100
AcDbLine
 10
28.2091113905
 20
6.7614128921
 30
0.0
 11
28.2091113905
 21
7.1224128818
 31
0.0
  0
LINE
  5
19E
330
1F
100
AcDbEntity
  8
0
  6
HIDDEN
 62
     7
 48
2.25
370
     0
100
AcDbLine
 10
24.4871114107
 20
6.7614128921
 30
0.0
 11
24.4871114107
 21
6.6844129016
 31
0.0
  0
LINE
  5
19F
330
1F
100
AcDbEntity
  8
0
  6
HIDDEN
 62
     7
 48
2.25
370
     0
100
AcDbLine
 10
28.2091113905
 20
6.6844129016
 30
0.0
 11
28.2091113905
 21
6.7614128921
 31
0.0
  0
LINE
  5
1A0
330
1F
100
AcDbEntity
  8
0
  6
HIDDEN
 62
     7
 48
2.25
370
     0
100
AcDbLine
 10
24.4871114107
 20
6.7464128787
 30
0.0
 11
28.2091113905
 21
6.7464128787
 31
0.0
  0
ARC
  5
1A1
330
1F
100
AcDbEntity
  8
0
  6
HIDDEN
 62
     7
 48
5.0625
370
     0
100
AcDbCircle
 10
28.2091113948
 20
6.7614128533
 30
0.0
 40
0.0150000000000006
100
AcDbArc
 50
270.0
 51
0.0
  0
ARC
  5
1A2
330
1F
100
AcDbEntity
  8
0
  6
HIDDEN
 62
     7
 48
5.0625
370
     0
100
AcDbCircle
 10
28.2091113948
 20
6.7614128533
 30
0.0
 40
0.077
100
AcDbArc
 50
270.0
 51
360.0
  0
LINE
  5
1A3
330
1F
100
AcDbEntity
  8
0
  6
HIDDEN
 62
     7
 48
2.25
370
     0
100
AcDbLine
 10
28.2241113947
 20
7.1224128818
 30
0.0
 11
28.2241113947
 21
6.7614128921
 31
0.0
  0
LINE
  5
1A4
330
1F
100
AcDbEntity
  8
0
  6
HIDDEN
 62
     7
 48
2.25
370
     0
100
AcDbLine
 10
28.2861113948
 20
7.1224128818
 30
0.0
 11
28.2241113947
 21
7.1224128818
 31
0.0
  0
LINE
  5
1A5
330
1F
100
AcDbEntity
  8
0
  6
HIDDEN
 62
     7
 48
2.25
370
     0
100
AcDbLine
 10
24.4251114336
 20
6.7464128787
 30
0.0
 11
24.4871114107
 21
6.7464128787
 31
0.0
  0
LINE
  5
1A6
330
1F
100
AcDbEntity
  8
0
  6
HIDDEN
 62
     7
 48
2.25
370
     0
100
AcDbLine
 10
24.3481114431
 20
7.1844128589
 30
0.0
 11
24.4101114202
 21
7.1844128589
 31
0.0
  0
ARC
  5
1A7
330
1F
100
AcDbEntity
  8
0
  6
HIDDEN
 62
     7
 48
5.0625
370
     0
100
AcDbCircle
 10
24.4251113948
 20
6.7614128533
 30
0.0
 40
0.0150000000000006
100
AcDbArc
 50
180.0
 51
270.0
  0
ARC
  5
1A8
330
1F
100
AcDbEntity
  8
0
  6
HIDDEN
 62
     7
 48
5.0625
370
     0
100
AcDbCircle
 10
24.4251113948
 20
6.7614128533
 30
0.0
 40
0.0770000000000017
100
AcDbArc
 50
180.0
 51
270.0
  0
LINE
  5
1A9
330
1F
100
AcDbEntity
  8
0
  6
HIDDEN
 62
     7
 48
2.25
370
     0
100
AcDbLine
 10
28.2861113948
 20
14.6844128049
 30
0.0
 11
28.2861113948
 21
6.6844129016
 31
0.0
  0
LINE
  5
1AA
330
1F
100
AcDbEntity
  8
0
  6
HIDDEN
 62
     7
 48
2.25
370
     0
100
AcDbLine
 10
24.4101114202
 20
14.6844128049
 30
0.0
 11
24.4101114202
 21
6.6844129016
 31
0.0
  0
LINE
  5
1AB
330
1F
100
AcDbEntity
  8
0
  6
HIDDEN
 62
     7
 48
2.25
370
     0
100
AcDbLine
 10
28.1161113882
 20
12.6844128291
 30
0.0
 11
28.1161113882
 21
12.9814705575
 31
0.0
  0
LINE
  5
1AC
330
1F
100
AcDbEntity
  8
0
  6
HIDDEN
 62
     7
 48
2.25
370
     0
100
AcDbLine
 10
28.1161113882
 20
12.3873551007
 30
0.0
 11
28.1161113882
 21
12.6844128291
 31
0.0
  0
LINE
  5
1AD
330
1F
100
AcDbEntity
  8
0
  6
HIDDEN
 62
     7
 48
2.25
370
     0
100
AcDbLine
 10
28.178111402
 20
12.3873551007
 30
0.0
 11
28.178111402
 21
12.9814705575
 31
0.0
  0
LINE
  5
1AE
330
1F
100
AcDbEntity
  8
0
  6
HIDDEN
 62
     7
 48
2.25
370
     0
100
AcDbLine
 10
28.2440641467
 20
12.6844128291
 30
0.0
 11
28.2440641467
 21
12.8314127843
 31
0.0
  0
LINE
  5
1AF
330
1F
100
AcDbEntity
  8
0
  6
HIDDEN
 62
     7
 48
2.25
370
     0
100
AcDbLine
 10
28.2440641467
 20
12.5374128739
 30
0.0
 11
28.2440641467
 21
12.6844128291
 31
0.0
  0
ARC
  5
1B0
330
1F
100
AcDbEntity
  8
0
  6
HIDDEN
 62
     7
 48
5.0625
370
     0
100
AcDbCircle
 10
24.3016676049
 20
8.6823881885
 30
0.0
 40
0.150327553707083
100
AcDbArc
 50
126.5392893251
 51
163.4905575397
  0
ARC
  5
1B1
330
1F
100
AcDbEntity
  8
0
  6
HIDDEN
 62
     7
 48
5.0625
370
     0
100
AcDbCircle
 10
24.3016680406
 20
8.6603035121
 30
0.0
 40
0.1503280580506316
100
AcDbArc
 50
126.5393535517
 51
163.4904933132
  0
ARC
  5
1B2
330
1F
100
AcDbEntity
  8
0
  6
HIDDEN
 62
     7
 48
5.0625
370
     0
100
AcDbCircle
 10
24.3840486737
 20
8.6841115178
 30
0.0
 40
0.2272991394802805
100
AcDbArc
 50
175.22744987
 51
179.9240725844
  0
ARC
  5
1B3
330
1F
100
AcDbEntity
  8
0
  6
HIDDEN
 62
     7
 48
5.0625
370
     0
100
AcDbCircle
 10
24.1599997609
 20
8.6604311602
 30
0.0
 40
0.0171677295063937
100
AcDbArc
 50
259.0874660452
 51
271.4913576707
  0
LINE
  5
1B4
330
1F
100
AcDbEntity
  8
0
  6
HIDDEN
 62
     7
 48
2.25
370
     0
100
AcDbLine
 10
24.2121665069
 20
8.6658028524
 30
0.0
 11
24.2121665069
 21
8.5877414475
 31
0.0
  0
LINE
  5
1B5
330
1F
100
AcDbEntity
  8
0
  6
HIDDEN
 62
     7
 48
2.25
370
     0
100
AcDbLine
 10
24.2121665069
 20
8.6437183342
 30
0.0
 11
24.1657394166
 21
8.6437183342
 31
0.0
  0
LINE
  5
1B6
330
1F
100
AcDbEntity
  8
0
  6
HIDDEN
 62
     7
 48
2.25
370
     0
100
AcDbLine
 10
24.5606911741
 20
8.6154128745
 30
0.0
 11
24.5606911741
 21
8.7534128804
 31
0.0
  0
LINE
  5
1B7
330
1F
100
AcDbEntity
  8
0
  6
HIDDEN
 62
     7
 48
2.25
370
     0
100
AcDbLine
 10
24.5981112751
 20
8.6309128688
 30
0.0
 11
24.5981112751
 21
8.7379128861
 31
0.0
  0
LINE
  5
1B8
330
1F
100
AcDbEntity
  8
0
  6
HIDDEN
 62
     7
 48
2.25
370
     0
100
AcDbLine
 10
24.157537618
 20
8.6658028524
 30
0.0
 11
24.2121665069
 21
8.6658028524
 31
0.0
  0
LINE
  5
1B9
330
1F
100
AcDbEntity
  8
0
  6
HIDDEN
 62
     7
 48
2.25
370
     0
100
AcDbLine
 10
24.2131113227
 20
8.7255565088
 30
0.0
 11
24.2131113227
 21
8.6438831856
 31
0.0
  0
LINE
  5
1BA
330
1F
100
AcDbEntity
  8
0
  6
HIDDEN
 62
     7
 48
2.25
370
     0
100
AcDbLine
 10
24.2131113227
 20
8.6438831856
 30
0.0
 11
24.2131113227
 21
8.6432692461
 31
0.0
  0
LINE
  5
1BB
330
1F
100
AcDbEntity
  8
0
  6
HIDDEN
 62
     7
 48
2.25
370
     0
100
AcDbLine
 10
24.2131113227
 20
8.6438831856
 30
0.0
 11
24.2121665069
 21
8.6438831856
 31
0.0
  0
LINE
  5
1BC
330
1F
100
AcDbEntity
  8
0
  6
HIDDEN
 62
     7
 48
2.25
370
     0
100
AcDbLine
 10
24.2131113227
 20
8.7249425692
 30
0.0
 11
24.2121665069
 21
8.7249425692
 31
0.0
  0
LINE
  5
1BD
330
1F
100
AcDbEntity
  8
0
  6
HIDDEN
 62
     7
 48
2.25
370
     0
100
AcDbLine
 10
24.2121665069
 20
8.725107274
 30
0.0
 11
24.2121665069
 21
8.7249425692
 31
0.0
  0
LINE
  5
1BE
330
1F
100
AcDbEntity
  8
0
  6
HIDDEN
 62
     7
 48
2.25
370
     0
100
AcDbLine
 10
24.2121665069
 20
8.725107274
 30
0.0
 11
24.1603650253
 21
8.725107274
 31
0.0
  0
LINE
  5
1BF
330
1F
100
AcDbEntity
  8
0
  6
HIDDEN
 62
     7
 48
2.25
370
     0
100
AcDbLine
 10
24.2131113227
 20
8.7255565088
 30
0.0
 11
24.160446571
 21
8.7255565088
 31
0.0
  0
LINE
  5
1C0
330
1F
100
AcDbEntity
  8
0
  6
HIDDEN
 62
     7
 48
2.25
370
     0
100
AcDbLine
 10
24.157537618
 20
8.7030229025
 30
0.0
 11
24.2121665069
 21
8.7030229025
 31
0.0
  0
LINE
  5
1C1
330
1F
100
AcDbEntity
  8
0
  6
HIDDEN
 62
     7
 48
2.25
370
     0
100
AcDbLine
 10
24.2121665069
 20
8.7249425692
 30
0.0
 11
24.2121665069
 21
8.7030229025
 31
0.0
  0
LINE
  5
1C2
330
1F
100
AcDbEntity
  8
0
  6
HIDDEN
 62
     7
 48
2.25
370
     0
100
AcDbLine
 10
24.2131113227
 20
8.6432692461
 30
0.0
 11
24.160446571
 21
8.6432692461
 31
0.0
  0
LINE
  5
1C3
330
1F
100
AcDbEntity
  8
0
  6
HIDDEN
 62
     7
 48
2.25
370
     0
100
AcDbLine
 10
24.2121665069
 20
8.8031686789
 30
0.0
 11
24.2121665069
 21
8.725107274
 31
0.0
  0
ARC
  5
1C4
330
1F
100
AcDbEntity
  8
0
  6
HIDDEN
 62
     7
 48
5.0625
370
     0
100
AcDbCircle
 10
24.3016680406
 20
12.682387982
 30
0.0
 40
0.1503280580506766
100
AcDbArc
 50
126.5393535517
 51
163.4904933132
  0
ARC
  5
1C5
330
1F
100
AcDbEntity
  8
0
  6
HIDDEN
 62
     7
 48
5.0625
370
     0
100
AcDbCircle
 10
24.3016680406
 20
12.6603034638
 30
0.0
 40
0.1503280580506501
100
AcDbArc
 50
126.5393535517
 51
163.4904933132
  0
ARC
  5
1C6
330
1F
100
AcDbEntity
  8
0
  6
HIDDEN
 62
     7
 48
5.0625
370
     0
100
AcDbCircle
 10
24.3840486737
 20
12.6841114695
 30
0.0
 40
0.2272991394802237
100
AcDbArc
 50
175.22744987
 51
179.9240725844
  0
ARC
  5
1C7
330
1F
100
AcDbEntity
  8
0
  6
HIDDEN
 62
     7
 48
5.0625
370
     0
100
AcDbCircle
 10
24.1600001812
 20
12.6604362124
 30
0.0
 40
0.0171728173425608
100
AcDbArc
 50
259.0893107192
 51
271.4895129967
  0
LINE
  5
1C8
330
1F
100
AcDbEntity
  8
0
  6
HIDDEN
 62
     7
 48
2.25
370
     0
100
AcDbLine
 10
24.2121665069
 20
12.6658028041
 30
0.0
 11
24.2121665069
 21
12.5877413992
 31
0.0
  0
LINE
  5
1C9
330
1F
100
AcDbEntity
  8
0
  6
HIDDEN
 62
     7
 48
2.25
370
     0
100
AcDbLine
 10
24.2121665069
 20
12.6437184325
 30
0.0
 11
24.1657394166
 21
12.6437184325
 31
0.0
  0
LINE
  5
1CA
330
1F
100
AcDbEntity
  8
0
  6
HIDDEN
 62
     7
 48
2.25
370
     0
100
AcDbLine
 10
24.5981112751
 20
12.6309128205
 30
0.0
 11
24.5981112751
 21
12.7379128377
 31
0.0
  0
LINE
  5
1CB
330
1F
100
AcDbEntity
  8
0
  6
HIDDEN
 62
     7
 48
2.25
370
     0
100
AcDbLine
 10
24.5606911741
 20
12.6154128262
 30
0.0
 11
24.5606911741
 21
12.753412832
 31
0.0
  0
LINE
  5
1CC
330
1F
100
AcDbEntity
  8
0
  6
HIDDEN
 62
     7
 48
2.25
370
     0
100
AcDbLine
 10
24.157537618
 20
12.6658028041
 30
0.0
 11
24.2121665069
 21
12.6658028041
 31
0.0
  0
LINE
  5
1CD
330
1F
100
AcDbEntity
  8
0
  6
HIDDEN
 62
     7
 48
2.25
370
     0
100
AcDbLine
 10
24.2131113227
 20
12.7255564605
 30
0.0
 11
24.2131113227
 21
12.6438831373
 31
0.0
  0
LINE
  5
1CE
330
1F
100
AcDbEntity
  8
0
  6
HIDDEN
 62
     7
 48
2.25
370
     0
100
AcDbLine
 10
24.2131113227
 20
12.6438831373
 30
0.0
 11
24.2131113227
 21
12.6432691977
 31
0.0
  0
LINE
  5
1CF
330
1F
100
AcDbEntity
  8
0
  6
HIDDEN
 62
     7
 48
2.25
370
     0
100
AcDbLine
 10
24.2131113227
 20
12.6438831373
 30
0.0
 11
24.2121665069
 21
12.6438831373
 31
0.0
  0
LINE
  5
1D0
330
1F
100
AcDbEntity
  8
0
  6
HIDDEN
 62
     7
 48
2.25
370
     0
100
AcDbLine
 10
24.2131113227
 20
12.7249425209
 30
0.0
 11
24.2121665069
 21
12.7249425209
 31
0.0
  0
LINE
  5
1D1
330
1F
100
AcDbEntity
  8
0
  6
HIDDEN
 62
     7
 48
2.25
370
     0
100
AcDbLine
 10
24.2121665069
 20
12.7251073723
 30
0.0
 11
24.2121665069
 21
12.7249425209
 31
0.0
  0
LINE
  5
1D2
330
1F
100
AcDbEntity
  8
0
  6
HIDDEN
 62
     7
 48
2.25
370
     0
100
AcDbLine
 10
24.2121665069
 20
12.7251073723
 30
0.0
 11
24.1603650253
 21
12.7251073723
 31
0.0
  0
LINE
  5
1D3
330
1F
100
AcDbEntity
  8
0
  6
HIDDEN
 62
     7
 48
2.25
370
     0
100
AcDbLine
 10
24.2131113227
 20
12.7255564605
 30
0.0
 11
24.160446571
 21
12.7255564605
 31
0.0
  0
LINE
  5
1D4
330
1F
100
AcDbEntity
  8
0
  6
HIDDEN
 62
     7
 48
2.25
370
     0
100
AcDbLine
 10
24.157537618
 20
12.7030228541
 30
0.0
 11
24.2121665069
 21
12.7030228541
 31
0.0
  0
LINE
  5
1D5
330
1F
100
AcDbEntity
  8
0
  6
HIDDEN
 62
     7
 48
2.25
370
     0
100
AcDbLine
 10
24.2121665069
 20
12.7249425209
 30
0.0
 11
24.2121665069
 21
12.7030228541
 31
0.0
  0
LINE
  5
1D6
330
1F
100
AcDbEntity
  8
0
  6
HIDDEN
 62
     7
 48
2.25
370
     0
100
AcDbLine
 10
24.2131113227
 20
12.6432691977
 30
0.0
 11
24.160446571
 21
12.6432691977
 31
0.0
  0
LINE
  5
1D7
330
1F
100
AcDbEntity
  8
0
  6
HIDDEN
 62
     7
 48
2.25
370
     0
100
AcDbLine
 10
24.2121665069
 20
12.8031687772
 30
0.0
 11
24.2121665069
 21
12.7251073723
 31
0.0
  0
LINE
  5
1D8
330
1F
100
AcDbEntity
  8
0
  6
HIDDEN
 62
     7
 48
2.25
370
     0
100
AcDbLine
 10
24.286111466
 20
12.2094127963
 30
0.0
 11
24.3481114431
 21
12.2094127963
 31
0.0
  0
LINE
  5
1D9
330
1F
100
AcDbEntity
  8
0
  6
HIDDEN
 62
     7
 48
2.25
370
     0
100
AcDbLine
 10
24.286111466
 20
8.2094129914
 30
0.0
 11
24.3481114431
 21
8.2094129914
 31
0.0
  0
LINE
  5
1DA
330
1F
100
AcDbEntity
  8
0
  6
HIDDEN
 62
     7
 48
2.25
370
     0
100
AcDbLine
 10
24.3481114431
 20
12.8094128918
 30
0.0
 11
24.286111466
 21
12.8094128918
 31
0.0
  0
LINE
  5
1DB
330
1F
100
AcDbEntity
  8
0
  6
HIDDEN
 62
     7
 48
2.25
370
     0
100
AcDbLine
 10
24.3481114431
 20
8.8094127934
 30
0.0
 11
24.286111466
 21
8.8094127934
 31
0.0
  0
LINE
  5
1DC
330
1F
100
AcDbEntity
  8
0
  6
HIDDEN
 62
     7
 48
2.25
370
     0
100
AcDbLine
 10
24.3481114431
 20
12.599412851
 30
0.0
 11
24.4101114202
 21
12.599412851
 31
0.0
  0
LINE
  5
1DD
330
1F
100
AcDbEntity
  8
0
  6
HIDDEN
 62
     7
 48
2.25
370
     0
100
AcDbLine
 10
24.4101114202
 20
12.7694128072
 30
0.0
 11
24.3481114431
 21
12.7694128072
 31
0.0
  0
LINE
  5
1DE
330
1F
100
AcDbEntity
  8
0
  6
HIDDEN
 62
     7
 48
2.25
370
     0
100
AcDbLine
 10
24.3481114431
 20
8.5994128994
 30
0.0
 11
24.4101114202
 21
8.5994128994
 31
0.0
  0
LINE
  5
1DF
330
1F
100
AcDbEntity
  8
0
  6
HIDDEN
 62
     7
 48
2.25
370
     0
100
AcDbLine
 10
24.4101114202
 20
8.7694128555
 30
0.0
 11
24.3481114431
 21
8.7694128555
 31
0.0
  0
LINE
  5
1E0
330
1F
100
AcDbEntity
  8
0
  6
HIDDEN
 62
     7
 48
2.25
370
     0
100
AcDbLine
 10
28.3481113948
 20
8.3249128304
 30
0.0
 11
28.2861113948
 21
8.3249128304
 31
0.0
  0
LINE
  5
1E1
330
1F
100
AcDbEntity
  8
0
  6
HIDDEN
 62
     7
 48
2.25
370
     0
100
AcDbLine
 10
28.2861113948
 20
8.0439127166
 30
0.0
 11
28.3481113948
 21
8.0439127166
 31
0.0
  0
LINE
  5
1E2
330
1F
100
AcDbEntity
  8
0
  6
HIDDEN
 62
     7
 48
2.25
370
     0
100
AcDbLine
 10
28.3481113948
 20
13.32491299
 30
0.0
 11
28.2861113948
 21
13.32491299
 31
0.0
  0
LINE
  5
1E3
330
1F
100
AcDbEntity
  8
0
  6
HIDDEN
 62
     7
 48
2.25
370
     0
100
AcDbLine
 10
28.2861113948
 20
13.0439128761
 30
0.0
 11
28.3481113948
 21
13.0439128761
 31
0.0
  0
LINE
  5
1E4
330
1F
100
AcDbEntity
  8
0
  6
HIDDEN
 62
     7
 48
2.25
370
     0
100
AcDbLine
 10
28.2861113948
 20
13.3260255905
 30
0.0
 11
28.1411646438
 21
13.074970504
 31
0.0
  0
LINE
  5
1E5
330
1F
100
AcDbEntity
  8
0
  6
HIDDEN
 62
     7
 48
2.25
370
     0
100
AcDbLine
 10
28.1411646438
 20
12.2938551542
 30
0.0
 11
28.2861113948
 21
12.0428000677
 31
0.0
  0
LINE
  5
1E6
330
1F
100
AcDbEntity
  8
0
  6
HIDDEN
 62
     7
 48
2.25
370
     0
100
AcDbLine
 10
28.3481113948
 20
13.3094128491
 30
0.0
 11
28.1948582227
 21
13.0439705155
 31
0.0
  0
LINE
  5
1E7
330
1F
100
AcDbEntity
  8
0
  6
HIDDEN
 62
     7
 48
2.25
370
     0
100
AcDbLine
 10
28.1948582227
 20
12.3248551427
 30
0.0
 11
28.3481113948
 21
12.0594128092
 31
0.0
  0
ARC
  5
1E8
330
1F
100
AcDbEntity
  8
0
  6
HIDDEN
 62
     7
 48
5.0625
370
     0
100
AcDbCircle
 10
28.3031113948
 20
12.3873551396
 30
0.0
 40
0.1870000000000012
100
AcDbArc
 50
180.0
 51
210.0
  0
ARC
  5
1E9
330
1F
100
AcDbEntity
  8
0
  6
HIDDEN
 62
     7
 48
5.0625
370
     0
100
AcDbCircle
 10
28.3031113948
 20
12.9814705669
 30
0.0
 40
0.1870000000000012
100
AcDbArc
 50
150.0
 51
180.0
  0
ARC
  5
1EA
330
1F
100
AcDbEntity
  8
0
  6
HIDDEN
 62
     7
 48
5.0625
370
     0
100
AcDbCircle
 10
28.3031113948
 20
12.3873551396
 30
0.0
 40
0.125
100
AcDbArc
 50
180.0
 51
210.0
  0
ARC
  5
1EB
330
1F
100
AcDbEntity
  8
0
  6
HIDDEN
 62
     7
 48
5.0625
370
     0
100
AcDbCircle
 10
28.3031113948
 20
12.9814705669
 30
0.0
 40
0.125
100
AcDbArc
 50
150.0
 51
180.0
  0
ARC
  5
1EC
330
1F
100
AcDbEntity
  8
0
  6
HIDDEN
 62
     7
 48
5.0625
370
     0
100
AcDbCircle
 10
28.1948515523
 20
12.8481530108
 30
0.0
 40
0.0787401574803148
100
AcDbArc
 50
180.0
 51
270.0
  0
ARC
  5
1ED
330
1F
100
AcDbEntity
  8
0
  6
HIDDEN
 62
     7
 48
5.0625
370
     0
100
AcDbCircle
 10
28.1948515523
 20
12.5206726958
 30
0.0
 40
0.0787401574803184
100
AcDbArc
 50
90.0
 51
180.0
  0
ARC
  5
1EE
330
1F
100
AcDbEntity
  8
0
  6
HIDDEN
 62
     7
 48
5.0625
370
     0
100
AcDbCircle
 10
28.1948515523
 20
12.8481530108
 30
0.0
 40
0.0167401574803154
100
AcDbArc
 50
180.0
 51
270.0
  0
ARC
  5
1EF
330
1F
100
AcDbEntity
  8
0
  6
HIDDEN
 62
     7
 48
5.0625
370
     0
100
AcDbCircle
 10
28.1948515523
 20
12.5206726958
 30
0.0
 40
0.0167401574803172
100
AcDbArc
 50
90.0
 51
180.0
  0
LINE
  5
1F0
330
1F
100
AcDbEntity
  8
0
  6
HIDDEN
 62
     7
 48
2.25
370
     0
100
AcDbLine
 10
28.1948515494
 20
12.5374128739
 30
0.0
 11
28.2440641467
 21
12.5374128739
 31
0.0
  0
LINE
  5
1F1
330
1F
100
AcDbEntity
  8
0
  6
HIDDEN
 62
     7
 48
2.25
370
     0
100
AcDbLine
 10
28.2440641467
 20
12.8314127843
 30
0.0
 11
28.1948515494
 21
12.8314127843
 31
0.0
  0
LINE
  5
1F2
330
1F
100
AcDbEntity
  8
0
  6
HIDDEN
 62
     7
 48
2.25
370
     0
100
AcDbLine
 10
28.1948515494
 20
12.599412851
 30
0.0
 11
28.2440641467
 21
12.599412851
 31
0.0
  0
LINE
  5
1F3
330
1F
100
AcDbEntity
  8
0
  6
HIDDEN
 62
     7
 48
2.25
370
     0
100
AcDbLine
 10
28.2440641467
 20
12.7694128072
 30
0.0
 11
28.1948515494
 21
12.7694128072
 31
0.0
  0
LINE
  5
1F4
330
1F
100
AcDbEntity
  8
0
  6
HIDDEN
 62
     7
 48
2.25
370
     0
100
AcDbLine
 10
24.286111466
 20
8.6154128745
 30
0.0
 11
24.5606911741
 21
8.6154128745
 31
0.0
  0
LINE
  5
1F5
330
1F
100
AcDbEntity
  8
0
  6
HIDDEN
 62
     7
 48
2.25
370
     0
100
AcDbLine
 10
24.5606911741
 20
8.7534128804
 30
0.0
 11
24.286111466
 21
8.7534128804
 31
0.0
  0
LINE
  5
1F6
330
1F
100
AcDbEntity
  8
0
  6
HIDDEN
 62
     7
 48
2.25
370
     0
100
AcDbLine
 10
24.5606911741
 20
8.6154128745
 30
0.0
 11
24.5981112751
 21
8.6309128688
 31
0.0
  0
LINE
  5
1F7
330
1F
100
AcDbEntity
  8
0
  6
HIDDEN
 62
     7
 48
2.25
370
     0
100
AcDbLine
 10
24.5981112751
 20
8.7379128861
 30
0.0
 11
24.5606911741
 21
8.7534128804
 31
0.0
  0
LINE
  5
1F8
330
1F
100
AcDbEntity
  8
0
  6
HIDDEN
 62
     7
 48
2.25
370
     0
100
AcDbLine
 10
24.5606911741
 20
12.6154128262
 30
0.0
 11
24.5981112751
 21
12.6309128205
 31
0.0
  0
LINE
  5
1F9
330
1F
100
AcDbEntity
  8
0
  6
HIDDEN
 62
     7
 48
2.25
370
     0
100
AcDbLine
 10
24.5981112751
 20
12.7379128377
 30
0.0
 11
24.5606911741
 21
12.753412832
 31
0.0
  0
LINE
  5
1FA
330
1F
100
AcDbEntity
  8
0
  6
HIDDEN
 62
     7
 48
2.25
370
     0
100
AcDbLine
 10
24.286111466
 20
12.6154128262
 30
0.0
 11
24.5606911741
 21
12.6154128262
 31
0.0
  0
LINE
  5
1FB
330
1F
100
AcDbEntity
  8
0
  6
HIDDEN
 62
     7
 48
2.25
370
     0
100
AcDbLine
 10
24.5606911741
 20
12.753412832
 30
0.0
 11
24.286111466
 21
12.753412832
 31
0.0
  0
LINE
  5
1FC
330
1F
100
AcDbEntity
  8
0
  6
Continuous
 62
     7
 48
2.25
370
    15
100
AcDbLine
 10
6.7410374555
 20
8.8709127897
 30
0.0
 11
6.7077060805
 21
8.8709127897
 31
0.0
  0
LINE
  5
1FD
330
1F
100
AcDbEntity
  8
0
  6
Continuous
 62
     7
 48
2.25
370
    15
100
AcDbLine
 10
6.7077060805
 20
8.4979128186
 30
0.0
 11
6.7410374555
 21
8.4979128186
 31
0.0
  0
ARC
  5
1FE
330
1F
100
AcDbEntity
  8
0
  6
Continuous
 62
     7
 48
5.0625
370
    15
100
AcDbCircle
 10
6.7410374637
 20
8.8559128533
 30
0.0
 40
0.0150000000000016
100
AcDbArc
 50
52.550643686
 51
90.0
  0
ARC
  5
1FF
330
1F
100
AcDbEntity
  8
0
  6
Continuous
 62
     7
 48
5.0625
370
    15
100
AcDbCircle
 10
6.7410374637
 20
8.5129128533
 30
0.0
 40
0.0150000000000016
100
AcDbArc
 50
270.0
 51
307.449356314
  0
ARC
  5
200
330
1F
100
AcDbEntity
  8
0
  6
Continuous
 62
     7
 48
5.0625
370
    15
100
AcDbCircle
 10
6.6096815648
 20
8.6844128533
 30
0.0
 40
0.2310245869783052
100
AcDbArc
 50
10.1818657166
 51
52.550643686
  0
ARC
  5
201
330
1F
100
AcDbEntity
  8
0
  6
Continuous
 62
     7
 48
5.0625
370
    15
100
AcDbCircle
 10
6.6096815648
 20
8.6844128533
 30
0.0
 40
0.2310245869783052
100
AcDbArc
 50
307.449356314
 51
349.8181342834
  0
LINE
  5
202
330
1F
100
AcDbEntity
  8
0
  6
Continuous
 62
     7
 48
2.25
370
    15
100
AcDbLine
 10
6.7410374555
 20
12.870912888
 30
0.0
 11
6.7077060805
 21
12.870912888
 31
0.0
  0
LINE
  5
203
330
1F
100
AcDbEntity
  8
0
  6
Continuous
 62
     7
 48
2.25
370
    15
100
AcDbLine
 10
6.7077060805
 20
12.4979129169
 30
0.0
 11
6.7410374555
 21
12.4979129169
 31
0.0
  0
ARC
  5
204
330
1F
100
AcDbEntity
  8
0
  6
Continuous
 62
     7
 48
5.0625
370
    15
100
AcDbCircle
 10
6.7410374637
 20
12.8559128533
 30
0.0
 40
0.0150000000000002
100
AcDbArc
 50
52.550643686
 51
90.0
  0
ARC
  5
205
330
1F
100
AcDbEntity
  8
0
  6
Continuous
 62
     7
 48
5.0625
370
    15
100
AcDbCircle
 10
6.7410374637
 20
12.5129128533
 30
0.0
 40
0.0150000000000002
100
AcDbArc
 50
270.0
 51
307.449356314
  0
ARC
  5
206
330
1F
100
AcDbEntity
  8
0
  6
Continuous
 62
     7
 48
5.0625
370
    15
100
AcDbCircle
 10
6.6096815648
 20
12.6844128533
 30
0.0
 40
0.2310245869783033
100
AcDbArc
 50
10.1818657166
 51
52.550643686
  0
ARC
  5
207
330
1F
100
AcDbEntity
  8
0
  6
Continuous
 62
     7
 48
5.0625
370
    15
100
AcDbCircle
 10
6.6096815648
 20
12.6844128533
 30
0.0
 40
0.2310245869783052
100
AcDbArc
 50
307.449356314
 51
349.8181342834
  0
LINE
  5
208
330
1F
100
AcDbEntity
  8
0
  6
Continuous
 62
     7
 48
2.25
370
    15
100
AcDbLine
 10
6.6457061034
 20
6.6844129016
 30
0.0
 11
6.7077060805
 21
6.6844129016
 31
0.0
  0
LINE
  5
209
330
1F
100
AcDbEntity
  8
0
  6
Continuous
 62
     7
 48
2.25
370
    15
100
AcDbLine
 10
6.7077060805
 20
14.6844128049
 30
0.0
 11
6.7077060805
 21
6.6844129016
 31
0.0
  0
LINE
  5
20A
330
1F
100
AcDbEntity
  8
0
  6
Continuous
 62
     7
 48
2.25
370
    15
100
AcDbLine
 10
6.6457061034
 20
14.6844128049
 30
0.0
 11
6.7077060805
 21
14.6844128049
 31
0.0
  0
LINE
  5
20B
330
1F
100
AcDbEntity
  8
0
  6
Continuous
 62
     7
 48
2.25
370
    15
100
AcDbLine
 10
6.6457061034
 20
14.6844128049
 30
0.0
 11
6.6457061034
 21
6.6844129016
 31
0.0
  0
LINE
  5
20C
330
1F
100
AcDbEntity
  8
0
  6
Continuous
 62
     7
 48
2.25
370
    15
100
AcDbLine
 10
2.7227061514
 20
14.6844128049
 30
0.0
 11
6.5687061129
 21
14.6844128049
 31
0.0
  0
LINE
  5
20D
330
1F
100
AcDbEntity
  8
0
  6
Continuous
 62
     7
 48
2.25
370
    15
100
AcDbLine
 10
2.7227061514
 20
6.6844129016
 30
0.0
 11
6.5687061129
 21
6.6844129016
 31
0.0
  0
LINE
  5
20E
330
1F
100
AcDbEntity
  8
0
  6
Continuous
 62
     7
 48
2.25
370
    15
100
AcDbLine
 10
2.6457061517
 20
14.6844128049
 30
0.0
 11
2.6457061517
 21
6.6844129016
 31
0.0
  0
LINE
  5
20F
330
1F
100
AcDbEntity
  8
0
  6
Continuous
 62
     7
 48
2.25
370
    15
100
AcDbLine
 10
2.6457061517
 20
6.6844129016
 30
0.0
 11
2.7227061514
 21
6.6844129016
 31
0.0
  0
LINE
  5
210
330
1F
100
AcDbEntity
  8
0
  6
Continuous
 62
     7
 48
2.25
370
    15
100
AcDbLine
 10
2.6457061517
 20
14.6844128049
 30
0.0
 11
2.7227061514
 21
14.6844128049
 31
0.0
  0
LINE
  5
211
330
1F
100
AcDbEntity
  8
0
  6
Continuous
 62
     7
 48
2.25
370
    15
100
AcDbLine
 10
6.5687061129
 20
6.6844129016
 30
0.0
 11
6.6457061034
 21
6.6844129016
 31
0.0
  0
LINE
  5
212
330
1F
100
AcDbEntity
  8
0
  6
Continuous
 62
     7
 48
2.25
370
    15
100
AcDbLine
 10
6.5687061129
 20
14.6844128049
 30
0.0
 11
6.6457061034
 21
14.6844128049
 31
0.0
  0
ARC
  5
213
330
1F
100
AcDbEntity
  8
0
  6
Continuous
 62
     7
 48
5.0625
370
    15
100
AcDbCircle
 10
6.6921495059
 20
8.7085222428
 30
0.0
 40
0.1503280580505965
100
AcDbArc
 50
306.5393535517
 51
343.4904933132
  0
LINE
  5
214
330
1F
100
AcDbEntity
  8
0
  6
Continuous
 62
     7
 48
2.25
370
    15
100
AcDbLine
 10
6.7816510396
 20
8.5656569293
 30
0.0
 11
6.7816510396
 21
8.5877414475
 31
0.0
  0
ARC
  5
215
330
1F
100
AcDbEntity
  8
0
  6
Continuous
 62
     7
 48
5.0625
370
    15
100
AcDbCircle
 10
6.6921495059
 20
8.6864377246
 30
0.0
 40
0.1503280580505892
100
AcDbArc
 50
306.5393535517
 51
343.4904933132
  0
ARC
  5
216
330
1F
100
AcDbEntity
  8
0
  6
Continuous
 62
     7
 48
5.0625
370
    15
100
AcDbCircle
 10
6.8364305531
 20
8.6423190945
 30
0.0
 40
0.0014073235586527
100
AcDbArc
 50
63.075450646
 51
96.1440820535
  0
ARC
  5
217
330
1F
100
AcDbEntity
  8
0
  6
Continuous
 62
     7
 48
5.0625
370
    15
100
AcDbCircle
 10
6.6097042595
 20
8.6841040472
 30
0.0
 40
0.2273637632241364
100
AcDbArc
 50
349.6534692048
 51
0.0778623449
  0
LWPOLYLINE
  5
218
330
1F
100
AcDbEntity
  8
0
  6
Continuous
 62
     7
 48
2.25
370
    15
100
AcDbPolyline
 90
        9
 70
   128
 43
0.0
 10
6.8362799285
 20
8.725107274
 10
6.8367803494
 20
8.7251635934
 10
6.8370340798
 20
8.7252199127
 10
6.8370402398
 20
8.7252762321
 10
6.8367991225
 20
8.7253325514
 10
6.8363110215
 20
8.7253888708
 10
6.83557623
 20
8.7254448968
 10
6.8345959213
 20
8.7255009228
 10
6.8333709755
 20
8.7255565088
  0
ARC
  5
219
330
1F
100
AcDbEntity
  8
0
  6
Continuous
 62
     7
 48
5.0625
370
    15
100
AcDbCircle
 10
6.6096776606
 20
8.6847189395
 30
0.0
 40
0.2273904268139431
100
AcDbArc
 50
355.2281812788
 51
10.3460132241
  0
LINE
  5
21A
330
1F
100
AcDbEntity
  8
0
  6
Continuous
 62
     7
 48
2.25
370
    15
100
AcDbLine
 10
6.8362799285
 20
8.6437183342
 30
0.0
 11
6.82807813
 21
8.6437183342
 31
0.0
  0
LINE
  5
21B
330
1F
100
AcDbEntity
  8
0
  6
Continuous
 62
     7
 48
2.25
370
    15
100
AcDbLine
 10
6.8362799285
 20
8.725107274
 30
0.0
 11
6.8334525212
 21
8.725107274
 31
0.0
  0
ARC
  5
21C
330
1F
100
AcDbEntity
  8
0
  6
Continuous
 62
     7
 48
5.0625
370
    15
100
AcDbCircle
 10
6.6921495059
 20
12.7085221945
 30
0.0
 40
0.1503280580505793
100
AcDbArc
 50
306.5393535517
 51
343.4904933132
  0
LINE
  5
21D
330
1F
100
AcDbEntity
  8
0
  6
Continuous
 62
     7
 48
2.25
370
    15
100
AcDbLine
 10
6.7816510396
 20
12.5656570277
 30
0.0
 11
6.7816510396
 21
12.5877413992
 31
0.0
  0
ARC
  5
21E
330
1F
100
AcDbEntity
  8
0
  6
Continuous
 62
     7
 48
5.0625
370
    15
100
AcDbCircle
 10
6.6921499416
 20
12.686437518
 30
0.0
 40
0.1503275537070623
100
AcDbArc
 50
306.5392893251
 51
343.4905575397
  0
ARC
  5
21F
330
1F
100
AcDbEntity
  8
0
  6
Continuous
 62
     7
 48
5.0625
370
    15
100
AcDbCircle
 10
6.8364299794
 20
12.6423173397
 30
0.0
 40
0.0014091048387818
100
AcDbArc
 50
63.0860714902
 51
96.1128244599
  0
ARC
  5
220
330
1F
100
AcDbEntity
  8
0
  6
Continuous
 62
     7
 48
5.0625
370
    15
100
AcDbCircle
 10
6.6097007978
 20
12.6841043099
 30
0.0
 40
0.2273672244562897
100
AcDbArc
 50
349.6535487702
 51
0.0777827796
  0
LWPOLYLINE
  5
221
330
1F
100
AcDbEntity
  8
0
  6
Continuous
 62
     7
 48
2.25
370
    15
100
AcDbPolyline
 90
        9
 70
   128
 43
0.0
 10
6.8362799285
 20
12.7251073723
 10
6.8367803494
 20
12.725163545
 10
6.8370340798
 20
12.7252198644
 10
6.8370402398
 20
12.7252763304
 10
6.8367991225
 20
12.7253326497
 10
6.8363110215
 20
12.7253888224
 10
6.83557623
 20
12.7254449951
 10
6.8345959213
 20
12.7255008745
 10
6.8333709755
 20
12.7255564605
  0
ARC
  5
222
330
1F
100
AcDbEntity
  8
0
  6
Continuous
 62
     7
 48
5.0625
370
    15
100
AcDbCircle
 10
6.6096776606
 20
12.6847188912
 30
0.0
 40
0.227390426813931
100
AcDbArc
 50
355.2281812788
 51
10.3460132241
  0
LINE
  5
223
330
1F
100
AcDbEntity
  8
0
  6
Continuous
 62
     7
 48
2.25
370
    15
100
AcDbLine
 10
6.8362799285
 20
12.6437184325
 30
0.0
 11
6.82807813
 21
12.6437184325
 31
0.0
  0
LINE
  5
224
330
1F
100
AcDbEntity
  8
0
  6
Continuous
 62
     7
 48
2.25
370
    15
100
AcDbLine
 10
6.8362799285
 20
12.7251073723
 30
0.0
 11
6.8334525212
 21
12.7251073723
 31
0.0
  0
LINE
  5
225
330
1F
100
AcDbEntity
  8
0
  6
Continuous
 62
     7
 48
2.25
370
    15
100
AcDbLine
 10
13.6160437248
 20
5.7634837494
 30
0.0
 11
13.6160437248
 21
5.7301523744
 31
0.0
  0
LINE
  5
226
330
1F
100
AcDbEntity
  8
0
  6
Continuous
 62
     7
 48
2.25
370
    15
100
AcDbLine
 10
13.9890435492
 20
5.7301523744
 30
0.0
 11
13.9890435492
 21
5.7634837494
 31
0.0
  0
ARC
  5
227
330
1F
100
AcDbEntity
  8
0
  6
Continuous
 62
     7
 48
5.0625
370
    15
100
AcDbCircle
 10
13.6310435785
 20
5.7634837576
 30
0.0
 40
0.0150000000000006
100
AcDbArc
 50
142.550643686
 51
180.0
  0
ARC
  5
228
330
1F
100
AcDbEntity
  8
0
  6
Continuous
 62
     7
 48
5.0625
370
    15
100
AcDbCircle
 10
13.9740435785
 20
5.7634837576
 30
0.0
 40
0.0150000000000006
100
AcDbArc
 50
0.0
 51
37.449356314
  0
ARC
  5
229
330
1F
100
AcDbEntity
  8
0
  6
Continuous
 62
     7
 48
5.0625
370
    15
100
AcDbCircle
 10
13.8025435785
 20
5.6321278587
 30
0.0
 40
0.2310245869783039
100
AcDbArc
 50
100.1818657166
 51
142.550643686
  0
ARC
  5
22A
330
1F
100
AcDbEntity
  8
0
  6
Continuous
 62
     7
 48
5.0625
370
    15
100
AcDbCircle
 10
13.8025435785
 20
5.6321278587
 30
0.0
 40
0.2310245869783039
100
AcDbArc
 50
37.449356314
 51
79.8181342834
  0
LINE
  5
22B
330
1F
100
AcDbEntity
  8
0
  6
Continuous
 62
     7
 48
2.25
370
    15
100
AcDbLine
 10
13.7335434874
 20
5.6061524202
 30
0.0
 11
13.7335434874
 21
5.5291524297
 31
0.0
  0
LINE
  5
22C
330
1F
100
AcDbEntity
  8
0
  6
Continuous
 62
     7
 48
2.25
370
    15
100
AcDbLine
 10
13.8715434932
 20
5.5291524297
 30
0.0
 11
13.8715434932
 21
5.6061524202
 31
0.0
  0
LINE
  5
22D
330
1F
100
AcDbEntity
  8
0
  6
Continuous
 62
     7
 48
2.25
370
    15
100
AcDbLine
 10
8.1160436079
 20
5.7634837494
 30
0.0
 11
8.1160436079
 21
5.7301523744
 31
0.0
  0
LINE
  5
22E
330
1F
100
AcDbEntity
  8
0
  6
Continuous
 62
     7
 48
2.25
370
    15
100
AcDbLine
 10
8.4890434323
 20
5.7301523744
 30
0.0
 11
8.4890434323
 21
5.7634837494
 31
0.0
  0
ARC
  5
22F
330
1F
100
AcDbEntity
  8
0
  6
Continuous
 62
     7
 48
5.0625
370
    15
100
AcDbCircle
 10
8.1310435785
 20
5.7634837576
 30
0.0
 40
0.0150000000000006
100
AcDbArc
 50
142.550643686
 51
180.0
  0
ARC
  5
230
330
1F
100
AcDbEntity
  8
0
  6
Continuous
 62
     7
 48
5.0625
370
    15
100
AcDbCircle
 10
8.4740435785
 20
5.7634837576
 30
0.0
 40
0.0149999999999988
100
AcDbArc
 50
0.0
 51
37.449356314
  0
ARC
  5
231
330
1F
100
AcDbEntity
  8
0
  6
Continuous
 62
     7
 48
5.0625
370
    15
100
AcDbCircle
 10
8.3025435785
 20
5.6321278587
 30
0.0
 40
0.2310245869783036
100
AcDbArc
 50
100.1818657166
 51
142.550643686
  0
ARC
  5
232
330
1F
100
AcDbEntity
  8
0
  6
Continuous
 62
     7
 48
5.0625
370
    15
100
AcDbCircle
 10
8.3025435785
 20
5.6321278587
 30
0.0
 40
0.2310245869783039
100
AcDbArc
 50
37.449356314
 51
79.8181342834
  0
LINE
  5
233
330
1F
100
AcDbEntity
  8
0
  6
Continuous
 62
     7
 48
2.25
370
    15
100
AcDbLine
 10
8.2335436639
 20
5.6061524202
 30
0.0
 11
8.2335436639
 21
5.5291524297
 31
0.0
  0
LINE
  5
234
330
1F
100
AcDbEntity
  8
0
  6
Continuous
 62
     7
 48
2.25
370
    15
100
AcDbLine
 10
8.3715436697
 20
5.5291524297
 30
0.0
 11
8.3715436697
 21
5.6061524202
 31
0.0
  0
LINE
  5
235
330
1F
100
AcDbEntity
  8
0
  6
Continuous
 62
     7
 48
2.25
370
    15
100
AcDbLine
 10
14.0525436156
 20
5.6681523973
 30
0.0
 11
14.0525436156
 21
5.7301523744
 31
0.0
  0
LINE
  5
236
330
1F
100
AcDbEntity
  8
0
  6
Continuous
 62
     7
 48
2.25
370
    15
100
AcDbLine
 10
8.0525435414
 20
5.6681523973
 30
0.0
 11
14.0525436156
 21
5.6681523973
 31
0.0
  0
LINE
  5
237
330
1F
100
AcDbEntity
  8
0
  6
Continuous
 62
     7
 48
2.25
370
    15
100
AcDbLine
 10
8.0525435414
 20
5.6681523973
 30
0.0
 11
8.0525435414
 21
5.7301523744
 31
0.0
  0
LINE
  5
238
330
1F
100
AcDbEntity
  8
0
  6
Continuous
 62
     7
 48
2.25
370
    15
100
AcDbLine
 10
8.0525435414
 20
5.7301523744
 30
0.0
 11
14.0525436156
 21
5.7301523744
 31
0.0
  0
LINE
  5
239
330
1F
100
AcDbEntity
  8
0
  6
Continuous
 62
     7
 48
2.25
370
    15
100
AcDbLine
 10
8.5835434873
 20
5.5291524297
 30
0.0
 11
8.191543509
 21
5.5291524297
 31
0.0
  0
LINE
  5
23A
330
1F
100
AcDbEntity
  8
0
  6
Continuous
 62
     7
 48
2.25
370
    15
100
AcDbLine
 10
13.5215436698
 20
5.5911524068
 30
0.0
 11
13.5215436698
 21
5.5291524297
 31
0.0
  0
LINE
  5
23B
330
1F
100
AcDbEntity
  8
0
  6
Continuous
 62
     7
 48
2.25
370
    15
100
AcDbLine
 10
13.5215436698
 20
5.5291524297
 30
0.0
 11
13.913543648
 21
5.5291524297
 31
0.0
  0
LINE
  5
23C
330
1F
100
AcDbEntity
  8
0
  6
Continuous
 62
     7
 48
2.25
370
    15
100
AcDbLine
 10
8.5835434873
 20
5.5911524068
 30
0.0
 11
8.5835434873
 21
5.5291524297
 31
0.0
  0
LINE
  5
23D
330
1F
100
AcDbEntity
  8
0
  6
Continuous
 62
     7
 48
2.25
370
    15
100
AcDbLine
 10
13.5215436698
 20
5.5911524068
 30
0.0
 11
13.5215436698
 21
5.6681523973
 31
0.0
  0
LINE
  5
23E
330
1F
100
AcDbEntity
  8
0
  6
Continuous
 62
     7
 48
2.25
370
    15
100
AcDbLine
 10
8.5835434873
 20
5.5911524068
 30
0.0
 11
8.5835434873
 21
5.6681523973
 31
0.0
  0
LINE
  5
23F
330
1F
100
AcDbEntity
  8
0
  6
Continuous
 62
     7
 48
2.25
370
    15
100
AcDbLine
 10
8.191543509
 20
1.8071524499
 30
0.0
 11
8.1145435186
 21
1.8071524499
 31
0.0
  0
LINE
  5
240
330
1F
100
AcDbEntity
  8
0
  6
Continuous
 62
     7
 48
2.25
370
    15
100
AcDbLine
 10
8.1145435186
 20
5.5291524297
 30
0.0
 11
8.191543509
 21
5.5291524297
 31
0.0
  0
LINE
  5
241
330
1F
100
AcDbEntity
  8
0
  6
Continuous
 62
     7
 48
2.25
370
    15
100
AcDbLine
 10
13.913543648
 20
1.7301524457
 30
0.0
 11
13.913543648
 21
1.8071524499
 31
0.0
  0
LINE
  5
242
330
1F
100
AcDbEntity
  8
0
  6
Continuous
 62
     7
 48
2.25
370
    15
100
AcDbLine
 10
8.191543509
 20
1.7301524457
 30
0.0
 11
8.191543509
 21
1.8071524499
 31
0.0
  0
LINE
  5
243
330
1F
100
AcDbEntity
  8
0
  6
Continuous
 62
     7
 48
2.25
370
    15
100
AcDbLine
 10
13.913543648
 20
1.8071524499
 30
0.0
 11
13.9905436385
 21
1.8071524499
 31
0.0
  0
LINE
  5
244
330
1F
100
AcDbEntity
  8
0
  6
Continuous
 62
     7
 48
2.25
370
    15
100
AcDbLine
 10
13.9905436385
 20
5.5291524297
 30
0.0
 11
13.913543648
 21
5.5291524297
 31
0.0
  0
ARC
  5
245
330
1F
100
AcDbEntity
  8
0
  6
Continuous
 62
     7
 48
5.0625
370
    15
100
AcDbCircle
 10
8.1295435785
 20
1.7451524457
 30
0.0
 40
0.0150000000000006
100
AcDbArc
 50
180.0
 51
270.0
  0
ARC
  5
246
330
1F
100
AcDbEntity
  8
0
  6
Continuous
 62
     7
 48
5.0625
370
    15
100
AcDbCircle
 10
8.1295435785
 20
1.7451524457
 30
0.0
 40
0.077
100
AcDbArc
 50
180.0
 51
270.0
  0
LINE
  5
247
330
1F
100
AcDbEntity
  8
0
  6
Continuous
 62
     7
 48
2.25
370
    15
100
AcDbLine
 10
14.0525436156
 20
5.5911524068
 30
0.0
 11
14.0525436156
 21
1.7451524453
 31
0.0
  0
LINE
  5
248
330
1F
100
AcDbEntity
  8
0
  6
Continuous
 62
     7
 48
2.25
370
    15
100
AcDbLine
 10
13.9905436385
 20
5.5911524068
 30
0.0
 11
13.9905436385
 21
1.7451524453
 31
0.0
  0
LINE
  5
249
330
1F
100
AcDbEntity
  8
0
  6
Continuous
 62
     7
 48
2.25
370
    15
100
AcDbLine
 10
8.1145435186
 20
1.7451524453
 30
0.0
 11
8.1145435186
 21
5.5911524068
 31
0.0
  0
LINE
  5
24A
330
1F
100
AcDbEntity
  8
0
  6
Continuous
 62
     7
 48
2.25
370
    15
100
AcDbLine
 10
8.0525435414
 20
1.7451524453
 30
0.0
 11
8.0525435414
 21
5.5911524068
 31
0.0
  0
LINE
  5
24B
330
1F
100
AcDbEntity
  8
0
  6
Continuous
 62
     7
 48
2.25
370
    15
100
AcDbLine
 10
13.9755436251
 20
1.6681524457
 30
0.0
 11
8.1295435319
 21
1.6681524457
 31
0.0
  0
LINE
  5
24C
330
1F
100
AcDbEntity
  8
0
  6
Continuous
 62
     7
 48
2.25
370
    15
100
AcDbLine
 10
13.9755436251
 20
1.7301524457
 30
0.0
 11
8.1295435319
 21
1.7301524457
 31
0.0
  0
ARC
  5
24D
330
1F
100
AcDbEntity
  8
0
  6
Continuous
 62
     7
 48
5.0625
370
    15
100
AcDbCircle
 10
13.9755435785
 20
1.7451524457
 30
0.0
 40
0.0770000000000002
100
AcDbArc
 50
270.0
 51
0.0
  0
ARC
  5
24E
330
1F
100
AcDbEntity
  8
0
  6
Continuous
 62
     7
 48
5.0625
370
    15
100
AcDbCircle
 10
13.9755435785
 20
1.7451524457
 30
0.0
 40
0.0150000000000006
100
AcDbArc
 50
270.0
 51
0.0
  0
LINE
  5
24F
330
1F
100
AcDbEntity
  8
0
  6
Continuous
 62
     7
 48
2.25
370
    15
100
AcDbLine
 10
8.5525434987
 20
5.6061524202
 30
0.0
 11
8.5525434987
 21
5.6681523973
 31
0.0
  0
LINE
  5
250
330
1F
100
AcDbEntity
  8
0
  6
Continuous
 62
     7
 48
2.25
370
    15
100
AcDbLine
 10
8.1295435319
 20
5.6061524202
 30
0.0
 11
8.5525434987
 21
5.6061524202
 31
0.0
  0
LINE
  5
251
330
1F
100
AcDbEntity
  8
0
  6
Continuous
 62
     7
 48
2.25
370
    15
100
AcDbLine
 10
8.1295435319
 20
5.6681523973
 30
0.0
 11
8.5525434987
 21
5.6681523973
 31
0.0
  0
LINE
  5
252
330
1F
100
AcDbEntity
  8
0
  6
Continuous
 62
     7
 48
2.25
370
    15
100
AcDbLine
 10
13.5525436583
 20
5.6681523973
 30
0.0
 11
13.9755436251
 21
5.6681523973
 31
0.0
  0
LINE
  5
253
330
1F
100
AcDbEntity
  8
0
  6
Continuous
 62
     7
 48
2.25
370
    15
100
AcDbLine
 10
13.5525436583
 20
5.6061524202
 30
0.0
 11
13.9755436251
 21
5.6061524202
 31
0.0
  0
LINE
  5
254
330
1F
100
AcDbEntity
  8
0
  6
Continuous
 62
     7
 48
2.25
370
    15
100
AcDbLine
 10
13.5525436583
 20
5.6681523973
 30
0.0
 11
13.5525436583
 21
5.6061524202
 31
0.0
  0
ARC
  5
255
330
1F
100
AcDbEntity
  8
0
  6
Continuous
 62
     7
 48
5.0625
370
    15
100
AcDbCircle
 10
8.1295435785
 20
5.5911524457
 30
0.0
 40
0.0150000000000006
100
AcDbArc
 50
90.0
 51
180.0
  0
ARC
  5
256
330
1F
100
AcDbEntity
  8
0
  6
Continuous
 62
     7
 48
5.0625
370
    15
100
AcDbCircle
 10
8.1295435785
 20
5.5911524457
 30
0.0
 40
0.077
100
AcDbArc
 50
90.0
 51
180.0
  0
ARC
  5
257
330
1F
100
AcDbEntity
  8
0
  6
Continuous
 62
     7
 48
5.0625
370
    15
100
AcDbCircle
 10
13.9755435785
 20
5.5911524457
 30
0.0
 40
0.0150000000000006
100
AcDbArc
 50
0.0
 51
90.0
  0
ARC
  5
258
330
1F
100
AcDbEntity
  8
0
  6
Continuous
 62
     7
 48
5.0625
370
    15
100
AcDbCircle
 10
13.9755435785
 20
5.5911524457
 30
0.0
 40
0.0769999999999982
100
AcDbArc
 50
0.0
 51
90.0
  0
ARC
  5
259
330
1F
100
AcDbEntity
  8
0
  6
Continuous
 62
     7
 48
5.0625
370
    15
100
AcDbCircle
 10
13.7456101822
 20
5.8563067672
 30
0.0
 40
0.0164109182071799
100
AcDbArc
 50
358.290752571
 51
11.2703913397
  0
ARC
  5
25A
330
1F
100
AcDbEntity
  8
0
  6
Continuous
 62
     7
 48
5.0625
370
    15
100
AcDbCircle
 10
13.8028514165
 20
5.6321229539
 30
0.0
 40
0.2273914198975017
100
AcDbArc
 50
85.2282144836
 51
100.3459800192
  0
ARC
  5
25B
330
1F
100
AcDbEntity
  8
0
  6
Continuous
 62
     7
 48
5.0625
370
    15
100
AcDbCircle
 10
13.7791752056
 20
5.7121528698
 30
0.0
 40
0.1526363240160546
100
AcDbArc
 50
37.0402588669
 51
73.7968445176
  0
LINE
  5
25C
330
1F
100
AcDbEntity
  8
0
  6
Continuous
 62
     7
 48
2.25
370
    15
100
AcDbLine
 10
13.9227662348
 20
5.8040973336
 30
0.0
 11
13.9010114194
 21
5.8040973336
 31
0.0
  0
ARC
  5
25D
330
1F
100
AcDbEntity
  8
0
  6
Continuous
 62
     7
 48
5.0625
370
    15
100
AcDbCircle
 10
13.8009299307
 20
5.7121529675
 30
0.0
 40
0.152636337217246
100
AcDbArc
 50
37.0402091689
 51
73.796696
  0
LWPOLYLINE
  5
25E
330
1F
100
AcDbEntity
  8
0
  6
Continuous
 62
     7
 48
2.25
370
    15
100
AcDbPolyline
 90
        9
 70
   128
 43
0.0
 10
13.8435225636
 20
5.8587262225
 10
13.8434662442
 20
5.8592266434
 10
13.8434099249
 20
5.8594803738
 10
13.8433536055
 20
5.8594865337
 10
13.8432969928
 20
5.8592454165
 10
13.8432409668
 20
5.8587573155
 10
13.8431846475
 20
5.8580225239
 10
13.8431289148
 20
5.8570422153
 10
13.8430731821
 20
5.8558172694
  0
ARC
  5
25F
330
1F
100
AcDbEntity
  8
0
  6
Continuous
 62
     7
 48
5.0625
370
    15
100
AcDbCircle
 10
13.8022340113
 20
5.6321044039
 30
0.0
 40
0.2274099471717958
100
AcDbArc
 50
79.6544744661
 51
84.9977143509
  0
ARC
  5
260
330
1F
100
AcDbEntity
  8
0
  6
Continuous
 62
     7
 48
5.0625
370
    15
100
AcDbCircle
 10
13.8022323098
 20
5.6321856791
 30
0.0
 40
0.2273286413752569
100
AcDbArc
 50
89.9214223746
 51
94.7722832878
  0
LINE
  5
261
330
1F
100
AcDbEntity
  8
0
  6
Continuous
 62
     7
 48
2.25
370
    15
100
AcDbLine
 10
13.8435225636
 20
5.8587262225
 30
0.0
 11
13.8435225636
 21
5.8508368203
 31
0.0
  0
LINE
  5
262
330
1F
100
AcDbEntity
  8
0
  6
Continuous
 62
     7
 48
2.25
370
    15
100
AcDbLine
 10
13.8430731821
 20
5.8510456712
 30
0.0
 11
13.8430731821
 21
5.8558172694
 31
0.0
  0
LINE
  5
263
330
1F
100
AcDbEntity
  8
0
  6
Continuous
 62
     7
 48
2.25
370
    15
100
AcDbLine
 10
13.7833195257
 20
5.8586740097
 30
0.0
 11
13.7833195257
 21
5.8587262225
 31
0.0
  0
ARC
  5
264
330
1F
100
AcDbEntity
  8
0
  6
Continuous
 62
     7
 48
5.0625
370
    15
100
AcDbCircle
 10
8.3041572263
 20
5.7121529675
 30
0.0
 40
0.1526363372172498
100
AcDbArc
 50
106.203304
 51
142.9597908311
  0
LINE
  5
265
330
1F
100
AcDbEntity
  8
0
  6
Continuous
 62
     7
 48
2.25
370
    15
100
AcDbLine
 10
8.2040757376
 20
5.8040973336
 30
0.0
 11
8.1823209222
 21
5.8040973336
 31
0.0
  0
ARC
  5
266
330
1F
100
AcDbEntity
  8
0
  6
Continuous
 62
     7
 48
5.0625
370
    15
100
AcDbCircle
 10
8.3259119514
 20
5.7121528698
 30
0.0
 40
0.1526363240160472
100
AcDbArc
 50
106.2031554824
 51
142.9597411331
  0
ARC
  5
267
330
1F
100
AcDbEntity
  8
0
  6
Continuous
 62
     7
 48
5.0625
370
    15
100
AcDbCircle
 10
8.3022357406
 20
5.6321229539
 30
0.0
 40
0.2273914198974944
100
AcDbArc
 50
79.6540199808
 51
94.7717855164
  0
ARC
  5
268
330
1F
100
AcDbEntity
  8
0
  6
Continuous
 62
     7
 48
5.0625
370
    15
100
AcDbCircle
 10
8.3594769749
 20
5.8563067672
 30
0.0
 40
0.0164109182072543
100
AcDbArc
 50
168.7296086603
 51
181.7092474289
  0
ARC
  5
269
330
1F
100
AcDbEntity
  8
0
  6
Continuous
 62
     7
 48
5.0625
370
    15
100
AcDbCircle
 10
8.3028493125
 20
5.6320843923
 30
0.0
 40
0.2274300375662542
100
AcDbArc
 50
85.2284500976
 51
90.0965833752
  0
ARC
  5
26A
330
1F
100
AcDbEntity
  8
0
  6
Continuous
 62
     7
 48
5.0625
370
    15
100
AcDbCircle
 10
8.3028531458
 20
5.6321044039
 30
0.0
 40
0.2274099471718383
100
AcDbArc
 50
95.0022856491
 51
100.3455255339
  0
LWPOLYLINE
  5
26B
330
1F
100
AcDbEntity
  8
0
  6
Continuous
 62
     7
 48
2.25
370
    15
100
AcDbPolyline
 90
        9
 70
   128
 43
0.0
 10
8.262013975
 20
5.8558172694
 10
8.2619582423
 20
5.8570422153
 10
8.2619025096
 20
5.8580225239
 10
8.2618461902
 20
5.8587573155
 10
8.2617901642
 20
5.8592454165
 10
8.2617335515
 20
5.8594865337
 10
8.2616772322
 20
5.8594803738
 10
8.2616209128
 20
5.8592266434
 10
8.2615645935
 20
5.8587262225
  0
LINE
  5
26C
330
1F
100
AcDbEntity
  8
0
  6
Continuous
 62
     7
 48
2.25
370
    15
100
AcDbLine
 10
8.2615645935
 20
5.8508368203
 30
0.0
 11
8.2615645935
 21
5.8587262225
 31
0.0
  0
LINE
  5
26D
330
1F
100
AcDbEntity
  8
0
  6
Continuous
 62
     7
 48
2.25
370
    15
100
AcDbLine
 10
8.262013975
 20
5.8510456712
 30
0.0
 11
8.262013975
 21
5.8558172694
 31
0.0
  0
LINE
  5
26E
330
1F
100
AcDbEntity
  8
0
  6
Continuous
 62
     7
 48
2.25
370
    15
100
AcDbLine
 10
8.3217676313
 20
5.8587262225
 30
0.0
 11
8.3217676313
 21
5.8586740097
 31
0.0
  0
CIRCLE
  5
26F
330
1F
100
AcDbEntity
  8
0
  6
Continuous
 62
     7
 48
5.0625
370
    15
100
AcDbCircle
 10
30.5029854264
 20
13.1844128533
 30
0.0
 40
0.1404999999999959
  0
CIRCLE
  5
270
330
1F
100
AcDbEntity
  8
0
  6
Continuous
 62
     7
 48
5.0625
370
    15
100
AcDbCircle
 10
35.5029854264
 20
13.1844128533
 30
0.0
 40
0.1404999999999959
  0
CIRCLE
  5
271
330
1F
100
AcDbEntity
  8
0
  6
Continuous
 62
     7
 48
5.0625
370
    15
100
AcDbCircle
 10
35.5029854264
 20
8.1844128533
 30
0.0
 40
0.140500000000003
  0
CIRCLE
  5
272
330
1F
100
AcDbEntity
  8
0
  6
Continuous
 62
     7
 48
5.0625
370
    15
100
AcDbCircle
 10
30.5029854264
 20
8.1844128533
 30
0.0
 40
0.1404999999999994
  0
CIRCLE
  5
273
330
1F
100
AcDbEntity
  8
0
  6
Continuous
 62
     7
 48
5.0625
370
    15
100
AcDbCircle
 10
34.0029854264
 20
12.6844128533
 30
0.0
 40
0.6250000000000018
  0
LINE
  5
274
330
1F
100
AcDbEntity
  8
0
  6
Continuous
 62
     7
 48
2.25
370
    15
100
AcDbLine
 10
30.0799853799
 20
6.6844129016
 30
0.0
 11
35.925985473
 21
6.6844129016
 31
0.0
  0
LINE
  5
275
330
1F
100
AcDbEntity
  8
0
  6
Continuous
 62
     7
 48
2.25
370
    15
100
AcDbLine
 10
30.0799853799
 20
14.6844128049
 30
0.0
 11
35.925985473
 21
14.6844128049
 31
0.0
  0
LINE
  5
276
330
1F
100
AcDbEntity
  8
0
  6
Continuous
 62
     7
 48
2.25
370
    15
100
AcDbLine
 10
35.925985473
 20
14.6844128049
 30
0.0
 11
36.0029854635
 21
14.6844128049
 31
0.0
  0
LINE
  5
277
330
1F
100
AcDbEntity
  8
0
  6
Continuous
 62
     7
 48
2.25
370
    15
100
AcDbLine
 10
36.0029854635
 20
14.6844128049
 30
0.0
 11
36.0029854635
 21
6.6844129016
 31
0.0
  0
LINE
  5
278
330
1F
100
AcDbEntity
  8
0
  6
Continuous
 62
     7
 48
2.25
370
    15
100
AcDbLine
 10
35.925985473
 20
6.6844129016
 30
0.0
 11
36.0029854635
 21
6.6844129016
 31
0.0
  0
LINE
  5
279
330
1F
100
AcDbEntity
  8
0
  6
Continuous
 62
     7
 48
2.25
370
    15
100
AcDbLine
 10
30.0029853894
 20
14.6844128049
 30
0.0
 11
30.0029853894
 21
6.6844129016
 31
0.0
  0
LINE
  5
27A
330
1F
100
AcDbEntity
  8
0
  6
Continuous
 62
     7
 48
2.25
370
    15
100
AcDbLine
 10
30.0029853894
 20
14.6844128049
 30
0.0
 11
30.0799853799
 21
14.6844128049
 31
0.0
  0
LINE
  5
27B
330
1F
100
AcDbEntity
  8
0
  6
Continuous
 62
     7
 48
2.25
370
    15
100
AcDbLine
 10
30.0029853894
 20
6.6844129016
 30
0.0
 11
30.0799853799
 21
6.6844129016
 31
0.0
  0
CIRCLE
  5
27C
330
1F
100
AcDbEntity
  8
0
  6
Continuous
 62
     7
 48
5.0625
370
    15
100
AcDbCircle
 10
34.0029854264
 20
12.6844128533
 30
0.0
 40
0.1469999999999985
  0
CIRCLE
  5
27D
330
1F
100
AcDbEntity
  8
0
  6
Continuous
 62
     7
 48
5.0625
370
    15
100
AcDbCircle
 10
34.0029854264
 20
12.6844128533
 30
0.0
 40
0.0849999999999991
  0
LINE
  5
27E
330
1F
100
AcDbEntity
  8
0
  6
Continuous
 62
     7
 48
2.25
370
    15
100
AcDbLine
 10
35.5029855062
 20
13.32491299
 30
0.0
 11
35.5029855062
 21
13.0439128761
 31
0.0
  0
LINE
  5
27F
330
1F
100
AcDbEntity
  8
0
  6
Continuous
 62
     7
 48
2.25
370
    15
100
AcDbLine
 10
35.5029855062
 20
8.3249128304
 30
0.0
 11
35.5029855062
 21
8.0439127166
 31
0.0
  0
LINE
  5
280
330
1F
100
AcDbEntity
  8
0
  6
Continuous
 62
     7
 48
2.25
370
    15
100
AcDbLine
 10
30.5029853467
 20
13.32491299
 30
0.0
 11
30.5029853467
 21
13.0439128761
 31
0.0
  0
LINE
  5
281
330
1F
100
AcDbEntity
  8
0
  6
Continuous
 62
     7
 48
2.25
370
    15
100
AcDbLine
 10
30.5029853467
 20
8.3249128304
 30
0.0
 11
30.5029853467
 21
8.0439127166
 31
0.0
  0
DIMENSION
  5
282
330
1F
100
AcDbEntity
  8
0
  6
Continuous
 62
     7
 48
2.25
370
     0
100
AcDbDimension
  2
*D9
 10
29.2428175953
 20
8.1844128533
 30
0.0
 11
29.2428175953
 21
10.6844128533
 31
0.0
 70
   160
 71
     2
 42
-1.0
  3
SLDDIMSTYLE0
100
AcDbAlignedDimension
 13
30.5029854264
 23
13.1844128533
 33
0.0
 14
30.5029854264
 24
8.1844128533
 34
0.0
 50
90.0
100
AcDbRotatedDimension
  0
DIMENSION
  5
294
330
1F
100
AcDbEntity
  8
0
  6
Continuous
 62
     7
 48
2.25
370
     0
100
AcDbDimension
  2
*D10
 10
35.5029854264
 20
5.9483287022
 30
0.0
 11
33.0029854264
 21
5.9483287022
 31
0.0
 70
   160
 71
     2
 42
-1.0
  3
SLDDIMSTYLE0
100
AcDbAlignedDimension
 13
30.5029854264
 23
8.1844128533
 33
0.0
 14
35.5029854264
 24
8.1844128533
 34
0.0
100
AcDbRotatedDimension
  0
DIMENSION
  5
2A6
330
1F
100
AcDbEntity
  8
0
  6
Continuous
 62
     7
 48
2.25
370
     0
100
AcDbDimension
  2
*D11
 10
35.543744439
 20
8.3188708501
 30
0.0
 11
35.532310271
 21
4.9369212602
 31
0.0
 70
   163
  1
<>
 71
     1
 42
-1.0
  3
SLDDIMSTYLE2
100
AcDbDiametricDimension
 15
35.4622264139
 25
8.0499548565
 35
0.0
 40
0.0
  0
DIMENSION
  5
2B7
330
1F
100
AcDbEntity
  8
0
  6
Continuous
 62
     7
 48
2.25
370
     0
100
AcDbDimension
  2
*D12
 10
36.7413809284
 20
14.6844128533
 30
0.0
 11
36.7413809284
 21
13.6844128533
 31
0.0
 70
   160
 71
     2
 42
-1.0
  3
SLDDIMSTYLE0
100
AcDbAlignedDimension
 13
34.0029854264
 23
12.6844128533
 33
0.0
 14
36.0029854264
 24
14.6844128533
 34
0.0
 50
90.0
100
AcDbRotatedDimension
  0
DIMENSION
  5
2C9
330
1F
100
AcDbEntity
  8
0
  6
Continuous
 62
     7
 48
2.25
370
     0
100
AcDbDimension
  2
*D13
 10
36.0029854264
 20
15.3884818303
 30
0.0
 11
35.0029854264
 21
15.3884818303
 31
0.0
 70
   160
 71
     2
 42
-1.0
  3
SLDDIMSTYLE3
100
AcDbAlignedDimension
 13
34.0029854264
 23
12.6844128533
 33
0.0
 14
36.0029854264
 24
14.6844128533
 34
0.0
100
AcDbRotatedDimension
  0
LINE
  5
2DC
330
1F
100
AcDbEntity
  8
0
  6
Continuous
 62
     7
 48
2.25
370
    15
100
AcDbLine
 10
32.6159017971
 20
21.1689829827
 30
0.0
 11
30.3399901782
 21
22.482838794
 31
0.0
  0
LINE
  5
2DD
330
1F
100
AcDbEntity
  8
0
  6
Continuous
 62
     7
 48
2.25
370
    15
100
AcDbLine
 10
30.2966812665
 20
22.482838754
 30
0.0
 11
28.8162648397
 21
21.6282125421
 31
0.0
  0
LINE
  5
2DE
330
1F
100
AcDbEntity
  8
0
  6
Continuous
 62
     7
 48
2.25
370
    15
100
AcDbLine
 10
32.686880535
 20
17.4924050031
 30
0.0
 11
32.686880535
 21
21.1668386121
 31
0.0
  0
LINE
  5
2DF
330
1F
100
AcDbEntity
  8
0
  6
Continuous
 62
     7
 48
2.25
370
    15
100
AcDbLine
 10
28.7452860052
 20
21.6260682274
 30
0.0
 11
28.7452860052
 21
21.6157113066
 31
0.0
  0
ARC
  5
2E0
330
1F
100
AcDbEntity
  8
0
  6
Continuous
 62
     7
 48
5.0625
370
    15
100
AcDbCircle
 10
31.0287226465
 20
17.5582297742
 30
0.0
 40
0.1299513301752955
100
AcDbArc
 50
168.1339525011
 51
251.8606709662
  0
LINE
  5
2E1
330
1F
100
AcDbEntity
  8
0
  6
Continuous
 62
     7
 48
2.25
370
    15
100
AcDbLine
 10
30.9235664044
 20
17.6186524009
 30
0.0
 11
30.9230625012
 21
17.6182719639
 31
0.0
  0
LINE
  5
2E2
330
1F
100
AcDbEntity
  8
0
  6
Continuous
 62
     7
 48
2.25
370
    15
100
AcDbLine
 10
31.0289249957
 20
17.4372146091
 30
0.0
 11
31.0421824689
 21
17.4448679855
 31
0.0
  0
LINE
  5
2E3
330
1F
100
AcDbEntity
  8
0
  6
Continuous
 62
     7
 48
2.25
370
    15
100
AcDbLine
 10
30.9372847291
 20
17.6265758701
 30
0.0
 11
30.9240272559
 21
17.6189224937
 31
0.0
  0
ARC
  5
2E4
330
1F
100
AcDbEntity
  8
0
  6
Continuous
 62
     7
 48
5.0625
370
    15
100
AcDbCircle
 10
28.8411110422
 20
18.8211110722
 30
0.0
 40
0.1299513301752955
100
AcDbArc
 50
168.1339525011
 51
205.9042604596
  0
ARC
  5
2E5
330
1F
100
AcDbEntity
  8
0
  6
Continuous
 62
     7
 48
5.0625
370
    15
100
AcDbCircle
 10
28.8411110422
 20
18.8211110722
 30
0.0
 40
0.1299513301752989
100
AcDbArc
 50
213.5984078164
 51
251.8606709662
  0
LINE
  5
2E6
330
1F
100
AcDbEntity
  8
0
  6
Continuous
 62
     7
 48
2.25
370
    15
100
AcDbLine
 10
28.8413134616
 20
18.7000958666
 30
0.0
 11
28.8545709348
 21
18.7077492429
 31
0.0
  0
LINE
  5
2E7
330
1F
100
AcDbEntity
  8
0
  6
Continuous
 62
     7
 48
2.25
370
    15
100
AcDbLine
 10
28.749673195
 20
18.8894571276
 30
0.0
 11
28.7364157218
 21
18.8818037512
 31
0.0
  0
ARC
  5
2E8
330
1F
100
AcDbEntity
  8
0
  6
Continuous
 62
     7
 48
5.0625
370
    15
100
AcDbCircle
 10
31.0287226465
 20
19.3954466009
 30
0.0
 40
0.1299513301752989
100
AcDbArc
 50
168.1339525011
 51
251.8606709662
  0
LINE
  5
2E9
330
1F
100
AcDbEntity
  8
0
  6
Continuous
 62
     7
 48
2.25
370
    15
100
AcDbLine
 10
30.9235664044
 20
19.4558692054
 30
0.0
 11
30.9230625012
 21
19.4554888358
 31
0.0
  0
LINE
  5
2EA
330
1F
100
AcDbEntity
  8
0
  6
Continuous
 62
     7
 48
2.25
370
    15
100
AcDbLine
 10
31.0289249957
 20
19.2744314136
 30
0.0
 11
31.0421824689
 21
19.28208479
 31
0.0
  0
LINE
  5
2EB
330
1F
100
AcDbEntity
  8
0
  6
Continuous
 62
     7
 48
2.25
370
    15
100
AcDbLine
 10
30.9372847291
 20
19.4637926746
 30
0.0
 11
30.9240272559
 21
19.4561392983
 31
0.0
  0
ARC
  5
2EC
330
1F
100
AcDbEntity
  8
0
  6
Continuous
 62
     7
 48
5.0625
370
    15
100
AcDbCircle
 10
28.8411110422
 20
20.6583278989
 30
0.0
 40
0.129951330175295
100
AcDbArc
 50
168.1339525011
 51
205.9042604596
  0
ARC
  5
2ED
330
1F
100
AcDbEntity
  8
0
  6
Continuous
 62
     7
 48
5.0625
370
    15
100
AcDbCircle
 10
28.8411110422
 20
20.6583278989
 30
0.0
 40
0.1299513301752981
100
AcDbArc
 50
213.5984078164
 51
251.8606709662
  0
LINE
  5
2EE
330
1F
100
AcDbEntity
  8
0
  6
Continuous
 62
     7
 48
2.25
370
    15
100
AcDbLine
 10
28.8413134616
 20
20.5373126711
 30
0.0
 11
28.8545709348
 21
20.5449660475
 31
0.0
  0
LINE
  5
2EF
330
1F
100
AcDbEntity
  8
0
  6
Continuous
 62
     7
 48
2.25
370
    15
100
AcDbLine
 10
28.749673195
 20
20.7266739321
 30
0.0
 11
28.7364157218
 21
20.7190205557
 31
0.0
  0
LINE
  5
2F0
330
1F
100
AcDbEntity
  8
0
  6
Continuous
 62
     7
 48
2.25
370
    15
100
AcDbLine
 10
28.7273454639
 20
21.6260682274
 30
0.0
 11
28.702685124
 21
21.6118321162
 31
0.0
  0
LINE
  5
2F1
330
1F
100
AcDbEntity
  8
0
  6
Continuous
 62
     7
 48
2.25
370
    15
100
AcDbLine
 10
31.1138308799
 20
20.2483795217
 30
0.0
 11
28.7273454639
 21
21.6260682274
 31
0.0
  0
LINE
  5
2F2
330
1F
100
AcDbEntity
  8
0
  6
Continuous
 62
     7
 48
2.25
370
    15
100
AcDbLine
 10
31.1138308799
 20
20.2483795217
 30
0.0
 11
31.08917054
 21
20.2341434105
 31
0.0
  0
LINE
  5
2F3
330
1F
100
AcDbEntity
  8
0
  6
Continuous
 62
     7
 48
2.25
370
    15
100
AcDbLine
 10
31.08917054
 20
20.2341434105
 30
0.0
 11
28.702685124
 21
21.6118321162
 31
0.0
  0
LWPOLYLINE
  5
2F4
330
1F
100
AcDbEntity
  8
0
  6
Continuous
 62
     7
 48
2.25
370
    15
100
AcDbPolyline
 90
       20
 70
   128
 43
0.0
 10
31.0450763831
 20
19.2839508378
 10
31.0535386671
 20
19.2683122409
 10
31.0637266358
 20
19.2426119389
 10
31.0693933595
 20
19.2172413627
 10
31.0701926743
 20
19.193750724
 10
31.0660756952
 20
19.1735753396
 10
31.0572939653
 20
19.1579480585
 10
31.0443841725
 20
19.1478236789
 10
31.0281350145
 20
19.1438208769
 10
31.009539364
 20
19.146184209
 10
30.989733599
 20
19.1547692191
 10
30.9699278341
 20
19.1690514585
 10
30.9513323002
 20
19.1881581401
 10
30.9350831422
 20
19.2109218206
 10
30.9221732328
 20
19.235951597
 10
30.9133916195
 20
19.2617179803
 10
30.9092745237
 20
19.286646795
 10
30.9100738386
 20
19.3092145644
 10
30.9157406789
 20
19.3280424134
 10
30.9166029963
 20
19.3297463278
  0
LINE
  5
2F5
330
1F
100
AcDbEntity
  8
0
  6
Continuous
 62
     7
 48
2.25
370
    15
100
AcDbLine
 10
31.08917054
 20
16.5597098014
 30
0.0
 11
31.08917054
 21
20.2341434105
 31
0.0
  0
LINE
  5
2F6
330
1F
100
AcDbEntity
  8
0
  6
Continuous
 62
     7
 48
2.25
370
    15
100
AcDbLine
 10
28.702685124
 20
17.9373985071
 30
0.0
 11
31.08917054
 21
16.5597098014
 31
0.0
  0
LINE
  5
2F7
330
1F
100
AcDbEntity
  8
0
  6
Continuous
 62
     7
 48
2.25
370
    15
100
AcDbLine
 10
28.702685124
 20
21.6118321162
 30
0.0
 11
28.702685124
 21
17.9373985071
 31
0.0
  0
LWPOLYLINE
  5
2F8
330
1F
100
AcDbEntity
  8
0
  6
Continuous
 62
     7
 48
2.25
370
    15
100
AcDbPolyline
 90
       20
 70
   128
 43
0.0
 10
28.7294755313
 20
18.7563044749
 10
28.7281290281
 20
18.7537068663
 10
28.7224623045
 20
18.7348790173
 10
28.7216629896
 20
18.712311248
 10
28.7257799687
 20
18.6873825005
 10
28.7345616986
 20
18.6616160499
 10
28.7474714915
 20
18.6365862735
 10
28.7637206494
 20
18.613822593
 10
28.7823162999
 20
18.5947159114
 10
28.8021220649
 20
18.5804337394
 10
28.8219278299
 20
18.5718486619
 10
28.8405233638
 20
18.5694853298
 10
28.8567725217
 20
18.5734881318
 10
28.8696824312
 20
18.5836125114
 10
28.8784640444
 20
18.5992398598
 10
28.8825811402
 20
18.6194151769
 10
28.8817818254
 20
18.6429058156
 10
28.876114985
 20
18.6682763918
 10
28.865927133
 20
18.6939766265
 10
28.857464849
 20
18.7096152234
  0
LWPOLYLINE
  5
2F9
330
1F
100
AcDbEntity
  8
0
  6
Continuous
 62
     7
 48
2.25
370
    15
100
AcDbPolyline
 90
       20
 70
   128
 43
0.0
 10
28.7294755313
 20
20.5935212794
 10
28.7281290281
 20
20.5909237382
 10
28.7224623045
 20
20.5720958219
 10
28.7216629896
 20
20.5495280525
 10
28.7257799687
 20
20.5245993051
 10
28.7345616986
 20
20.4988328545
 10
28.7474714915
 20
20.4738031454
 10
28.7637206494
 20
20.4510394649
 10
28.7823162999
 20
20.431932716
 10
28.8021220649
 20
20.4176504766
 10
28.8219278299
 20
20.4090654665
 10
28.8405233638
 20
20.4067022017
 10
28.8567725217
 20
20.4107050037
 10
28.8696824312
 20
20.4208293159
 10
28.8784640444
 20
20.4364566644
 10
28.8825811402
 20
20.4566319815
 10
28.8817818254
 20
20.4801226202
 10
28.876114985
 20
20.5054932637
 10
28.865927133
 20
20.5311934984
 10
28.857464849
 20
20.5468320953
  0
LWPOLYLINE
  5
2FA
330
1F
100
AcDbEntity
  8
0
  6
Continuous
 62
     7
 48
2.25
370
    15
100
AcDbPolyline
 90
       20
 70
   128
 43
0.0
 10
31.0450763831
 20
17.4467339659
 10
31.0535386671
 20
17.431095369
 10
31.0637266358
 20
17.405395067
 10
31.0693933595
 20
17.3800245582
 10
31.0701926743
 20
17.3565339195
 10
31.0660756952
 20
17.336358535
 10
31.0572939653
 20
17.3207312539
 10
31.0443841725
 20
17.310606807
 10
31.0281350145
 20
17.306604005
 10
31.009539364
 20
17.3089674045
 10
30.989733599
 20
17.3175524819
 10
30.9699278341
 20
17.331834654
 10
30.9513323002
 20
17.3509412682
 10
30.9350831422
 20
17.3737049487
 10
30.9221732328
 20
17.3987347925
 10
30.9133916195
 20
17.4245011757
 10
30.9092745237
 20
17.4494299905
 10
30.9100738386
 20
17.4719977599
 10
30.9157406789
 20
17.4908255415
 10
30.9166029963
 20
17.4925295233
  0
LINE
  5
2FB
330
1F
100
AcDbEntity
  8
0
  6
Continuous
 62
     7
 48
2.25
370
    15
100
AcDbLine
 10
31.1138308799
 20
16.5739459126
 30
0.0
 11
31.1138308799
 21
20.2483795217
 31
0.0
  0
LINE
  5
2FC
330
1F
100
AcDbEntity
  8
0
  6
Continuous
 62
     7
 48
2.25
370
    15
100
AcDbLine
 10
31.1138308799
 20
16.5739459126
 30
0.0
 11
31.08917054
 21
16.5597098014
 31
0.0
  0
LWPOLYLINE
  5
2FD
330
1F
100
AcDbEntity
  8
0
  6
Continuous
 62
     7
 48
2.25
370
    15
100
AcDbPolyline
 90
       11
 70
   128
 43
0.0
 10
31.0578059188
 20
19.1585674025
 10
31.0527953544
 20
19.1580569881
 10
31.0341997039
 20
19.1604203202
 10
31.0143939389
 20
19.1690053303
 10
30.9945881739
 20
19.1832875697
 10
30.9759926401
 20
19.2023942513
 10
30.9597434821
 20
19.2251579318
 10
30.9468335726
 20
19.2501877082
 10
30.9380519594
 20
19.2759540915
 10
30.9339348636
 20
19.3008829062
 10
30.9336700198
 20
19.3068331966
  0
LWPOLYLINE
  5
2FE
330
1F
100
AcDbEntity
  8
0
  6
Continuous
 62
     7
 48
2.25
370
    15
100
AcDbPolyline
 90
       11
 70
   128
 43
0.0
 10
31.0578059188
 20
17.3213505979
 10
31.0527953544
 20
17.3208401162
 10
31.0341997039
 20
17.3232035157
 10
31.0143939389
 20
17.3317885931
 10
30.9945881739
 20
17.3460707652
 10
30.9759926401
 20
17.3651773794
 10
30.9597434821
 20
17.3879410598
 10
30.9468335726
 20
17.4129709037
 10
30.9380519594
 20
17.4387372869
 10
30.9339348636
 20
17.4636661017
 10
30.9336700198
 20
17.4696163247
  0
LWPOLYLINE
  5
2FF
330
1F
100
AcDbEntity
  8
0
  6
Continuous
 62
     7
 48
2.25
370
    15
100
AcDbPolyline
 90
       11
 70
   128
 43
0.0
 10
28.746058369
 20
20.5697145214
 10
28.7463233295
 20
20.5637641637
 10
28.7504403086
 20
20.5388354163
 10
28.7592220385
 20
20.5130689657
 10
28.7721318313
 20
20.4880392566
 10
28.7883809893
 20
20.4652755761
 10
28.8069766398
 20
20.4461688271
 10
28.8267824048
 20
20.4318865878
 10
28.8465881698
 20
20.4233015777
 10
28.8651837036
 20
20.4209383129
 10
28.8701942681
 20
20.4214487273
  0
LWPOLYLINE
  5
300
330
1F
100
AcDbEntity
  8
0
  6
Continuous
 62
     7
 48
2.25
370
    15
100
AcDbPolyline
 90
       11
 70
   128
 43
0.0
 10
28.746058369
 20
18.7324976495
 10
28.7463233295
 20
18.7265473592
 10
28.7504403086
 20
18.7016186117
 10
28.7592220385
 20
18.6758521611
 10
28.7721318313
 20
18.6508223847
 10
28.7883809893
 20
18.6280587042
 10
28.8069766398
 20
18.6089520226
 10
28.8267824048
 20
18.5946698506
 10
28.8465881698
 20
18.5860847731
 10
28.8651837036
 20
18.583721441
 10
28.8701942681
 20
18.5842319228
  0
ARC
  5
301
330
1F
100
AcDbEntity
  8
0
  6
Continuous
 62
     7
 48
5.0625
370
    15
100
AcDbCircle
 10
32.5585063639
 20
21.1112922527
 30
0.0
 40
0.0660516069397449
100
AcDbArc
 50
29.6571244032
 51
57.2410166543
  0
ARC
  5
302
330
1F
100
AcDbEntity
  8
0
  6
Continuous
 62
     7
 48
5.0625
370
    15
100
AcDbCircle
 10
31.0807615785
 20
20.2591972823
 30
0.0
 40
0.0624834625466475
100
AcDbArc
 50
28.856866328
 51
58.0452826149
  0
ARC
  5
303
330
1F
100
AcDbEntity
  8
0
  6
Continuous
 62
     7
 48
5.0625
370
    15
100
AcDbCircle
 10
31.1074316489
 20
20.2734614888
 30
0.0
 40
0.012103999838572
100
AcDbArc
 50
29.8349711131
 51
58.0831966659
  0
LINE
  5
304
330
1F
100
AcDbEntity
  8
0
  6
Continuous
 62
     7
 48
2.25
370
    15
100
AcDbLine
 10
30.9579138433
 20
20.4022214053
 30
0.0
 11
31.1138308799
 21
20.312212416
 31
0.0
  0
LINE
  5
305
330
1F
100
AcDbEntity
  8
0
  6
Continuous
 62
     7
 48
2.25
370
    15
100
AcDbLine
 10
30.9332535034
 20
20.3879852942
 30
0.0
 11
30.9579138433
 21
20.4022214053
 31
0.0
  0
LINE
  5
306
330
1F
100
AcDbEntity
  8
0
  6
Continuous
 62
     7
 48
2.25
370
    15
100
AcDbLine
 10
28.9691759577
 20
21.5218231269
 30
0.0
 11
28.9938362976
 21
21.536059238
 31
0.0
  0
LINE
  5
307
330
1F
100
AcDbEntity
  8
0
  6
Continuous
 62
     7
 48
2.25
370
    15
100
AcDbLine
 10
28.9938362976
 20
21.536059238
 30
0.0
 11
28.837919261
 21
21.6260682274
 31
0.0
  0
LINE
  5
308
330
1F
100
AcDbEntity
  8
0
  6
Continuous
 62
     7
 48
2.25
370
    15
100
AcDbLine
 10
30.9579138433
 20
20.373744555
 30
0.0
 11
30.9579138433
 21
20.4022214053
 31
0.0
  0
LINE
  5
309
330
1F
100
AcDbEntity
  8
0
  6
Continuous
 62
     7
 48
2.25
370
    15
100
AcDbLine
 10
30.9579138433
 20
20.373744555
 30
0.0
 11
31.1138308799
 21
20.2837355657
 31
0.0
  0
ARC
  5
30A
330
1F
100
AcDbEntity
  8
0
  6
Continuous
 62
     7
 48
5.0625
370
    15
100
AcDbCircle
 10
30.9663233673
 20
20.334969437
 30
0.0
 40
0.062484374135946
100
AcDbArc
 50
121.9548040165
 51
151.142907376
  0
ARC
  5
30B
330
1F
100
AcDbEntity
  8
0
  6
Continuous
 62
     7
 48
5.0625
370
    15
100
AcDbCircle
 10
29.0022458217
 20
21.4688072697
 30
0.0
 40
0.0624843741359187
100
AcDbArc
 50
121.9548040165
 51
151.142907376
  0
LINE
  5
30C
330
1F
100
AcDbEntity
  8
0
  6
Continuous
 62
     7
 48
2.25
370
    15
100
AcDbLine
 10
30.9519515913
 20
20.3703026203
 30
0.0
 11
30.9579138433
 21
20.373744555
 31
0.0
  0
ARC
  5
30D
330
1F
100
AcDbEntity
  8
0
  6
Continuous
 62
     7
 48
5.0625
370
    15
100
AcDbCircle
 10
32.6062029755
 20
21.1521812891
 30
0.0
 40
0.0189149571081914
100
AcDbArc
 50
350.7858972147
 51
129.2033687507
  0
ARC
  5
30E
330
1F
100
AcDbEntity
  8
0
  6
Continuous
 62
     7
 48
5.0625
370
    15
100
AcDbCircle
 10
30.3310228565
 20
22.4629844183
 30
0.0
 40
0.0217855248667556
100
AcDbArc
 50
65.6934624382
 51
125.6171911235
  0
LINE
  5
30F
330
1F
100
AcDbEntity
  8
0
  6
Continuous
 62
     7
 48
2.25
370
    15
100
AcDbLine
 10
28.9691719909
 20
21.5218207889
 30
0.0
 11
28.837919261
 21
21.5975913771
 31
0.0
  0
ARC
  5
310
330
1F
100
AcDbEntity
  8
0
  6
Continuous
 62
     7
 48
5.0625
370
    15
100
AcDbCircle
 10
28.825963633
 20
21.6114108228
 30
0.0
 40
0.018914982136925
100
AcDbArc
 50
50.7968532556
 51
189.2138984991
  0
ARC
  5
311
330
1F
100
AcDbEntity
  8
0
  6
Continuous
 62
     7
 48
5.0625
370
    15
100
AcDbCircle
 10
30.3056486122
 20
22.4629846996
 30
0.0
 40
0.0217852419619655
100
AcDbArc
 50
54.3825773882
 51
114.3069426708
  0
ARC
  5
312
330
1F
100
AcDbEntity
  8
0
  6
Continuous
 62
     7
 48
5.0625
370
    15
100
AcDbCircle
 10
28.8355902599
 20
21.5947360014
 30
0.0
 40
0.0036847545391007
100
AcDbArc
 50
50.797427238
 51
189.2133245167
  0
ARC
  5
313
330
1F
100
AcDbEntity
  8
0
  6
Continuous
 62
     7
 48
5.0625
370
    15
100
AcDbCircle
 10
31.1138308799
 20
20.325168883
 30
0.0
 40
0.0665722388125253
100
AcDbArc
 50
242.6096658368
 51
297.3903341632
  0
ARC
  5
314
330
1F
100
AcDbEntity
  8
0
  6
Continuous
 62
     7
 48
5.0625
370
    15
100
AcDbCircle
 10
31.1150783787
 20
16.6467871355
 30
0.0
 40
0.0624968207153727
100
AcDbArc
 50
268.8562431495
 51
298.0400654243
  0
ARC
  5
315
330
1F
100
AcDbEntity
  8
0
  6
Continuous
 62
     7
 48
5.0625
370
    15
100
AcDbCircle
 10
31.1138308799
 20
20.2918108884
 30
0.0
 40
0.012968775552432
100
AcDbArc
 50
242.6099964481
 51
297.3900035519
  0
LINE
  5
316
330
1F
100
AcDbEntity
  8
0
  6
Continuous
 62
     7
 48
2.25
370
    15
100
AcDbLine
 10
30.9149571146
 20
20.3631869026
 30
0.0
 11
31.0832043212
 21
20.2660598576
 31
0.0
  0
LINE
  5
317
330
1F
100
AcDbEntity
  8
0
  6
Continuous
 62
     7
 48
2.25
370
    15
100
AcDbLine
 10
30.9149571146
 20
20.3631869026
 30
0.0
 11
30.9396174545
 21
20.3774230138
 31
0.0
  0
LINE
  5
318
330
1F
100
AcDbEntity
  8
0
  6
Continuous
 62
     7
 48
2.25
370
    15
100
AcDbLine
 10
30.9396174545
 20
20.3774230138
 30
0.0
 11
31.1078646611
 21
20.2802959688
 31
0.0
  0
LINE
  5
319
330
1F
100
AcDbEntity
  8
0
  6
Continuous
 62
     7
 48
2.25
370
    15
100
AcDbLine
 10
31.1197970986
 20
20.2802959688
 30
0.0
 11
32.6495342161
 21
21.1633944095
 31
0.0
  0
LINE
  5
31A
330
1F
100
AcDbEntity
  8
0
  6
Continuous
 62
     7
 48
2.25
370
    15
100
AcDbLine
 10
31.1444574385
 20
20.2660598576
 30
0.0
 11
32.674194556
 21
21.1491582983
 31
0.0
  0
LINE
  5
31B
330
1F
100
AcDbEntity
  8
0
  6
Continuous
 62
     7
 48
2.25
370
    15
100
AcDbLine
 10
31.1444574385
 20
16.5916262486
 30
0.0
 11
32.674194556
 21
17.4747246892
 31
0.0
  0
ARC
  5
31C
330
1F
100
AcDbEntity
  8
0
  6
Continuous
 62
     7
 48
5.0625
370
    15
100
AcDbCircle
 10
32.6482269463
 20
21.1668386316
 30
0.0
 40
0.0036839680751802
100
AcDbArc
 50
290.7844800946
 51
69.2156108834
  0
ARC
  5
31D
330
1F
100
AcDbEntity
  8
0
  6
Continuous
 62
     7
 48
5.0625
370
    15
100
AcDbCircle
 10
32.6674842628
 20
21.166838636
 30
0.0
 40
0.0189109062760591
100
AcDbArc
 50
290.7834673854
 51
69.2165207993
  0
ARC
  5
31E
330
1F
100
AcDbEntity
  8
0
  6
Continuous
 62
     7
 48
5.0625
370
    15
100
AcDbCircle
 10
32.6652041449
 20
17.4945668679
 30
0.0
 40
0.0217839286228043
100
AcDbArc
 50
294.3750882443
 51
354.3045186968
  0
LINE
  5
31F
330
1F
100
AcDbEntity
  8
0
  6
Continuous
 62
     7
 48
2.25
370
    15
100
AcDbLine
 10
32.6495342106
 20
21.1702828559
 30
0.0
 11
30.324301912
 21
22.5126108896
 31
0.0
  0
LINE
  5
320
330
1F
100
AcDbEntity
  8
0
  6
Continuous
 62
     7
 48
2.25
370
    15
100
AcDbLine
 10
32.6741945596
 20
21.1845189723
 30
0.0
 11
30.348962261
 21
22.5268470061
 31
0.0
  0
LINE
  5
321
330
1F
100
AcDbEntity
  8
0
  6
Continuous
 62
     7
 48
2.25
370
    15
100
AcDbLine
 10
28.7579720225
 20
21.6083878914
 30
0.0
 11
28.9262192291
 21
21.5112608465
 31
0.0
  0
LINE
  5
322
330
1F
100
AcDbEntity
  8
0
  6
Continuous
 62
     7
 48
2.25
370
    15
100
AcDbLine
 10
28.950879569
 20
21.5254969577
 30
0.0
 11
28.9262192291
 21
21.5112608465
 31
0.0
  0
LINE
  5
323
330
1F
100
AcDbEntity
  8
0
  6
Continuous
 62
     7
 48
2.25
370
    15
100
AcDbLine
 10
28.950879569
 20
21.5254969577
 30
0.0
 11
28.950879569
 21
21.5042561962
 31
0.0
  0
LINE
  5
324
330
1F
100
AcDbEntity
  8
0
  6
Continuous
 62
     7
 48
2.25
370
    15
100
AcDbLine
 10
28.7826323624
 20
21.6226240026
 30
0.0
 11
28.950879569
 21
21.5254969577
 31
0.0
  0
ARC
  5
325
330
1F
100
AcDbEntity
  8
0
  6
Continuous
 62
     7
 48
5.0625
370
    15
100
AcDbCircle
 10
28.7646822902
 20
21.6260682274
 30
0.0
 40
0.0189108956232177
100
AcDbArc
 50
110.7833972384
 51
249.2166027616
  0
ARC
  5
326
330
1F
100
AcDbEntity
  8
0
  6
Continuous
 62
     7
 48
5.0625
370
    15
100
AcDbCircle
 10
28.7839396094
 20
21.6260682274
 30
0.0
 40
0.0036839624120301
100
AcDbArc
 50
110.7841333604
 51
249.2158666397
  0
LINE
  5
327
330
1F
100
AcDbEntity
  8
0
  6
Continuous
 62
     7
 48
2.25
370
    15
100
AcDbLine
 10
30.3123694799
 20
22.5126108928
 30
0.0
 11
28.7826323624
 21
21.6295124522
 31
0.0
  0
LINE
  5
328
330
1F
100
AcDbEntity
  8
0
  6
Continuous
 62
     7
 48
2.25
370
    15
100
AcDbLine
 10
30.28770914
 20
22.526847004
 30
0.0
 11
28.7579720225
 21
21.6437485634
 31
0.0
  0
ARC
  5
329
330
1F
100
AcDbEntity
  8
0
  6
Continuous
 62
     7
 48
5.0625
370
    15
100
AcDbCircle
 10
30.3183356929
 20
22.5010958664
 30
0.0
 40
0.0129688677667624
100
AcDbArc
 50
62.6102059791
 51
117.3897637014
  0
ARC
  5
32A
330
1F
100
AcDbEntity
  8
0
  6
Continuous
 62
     7
 48
5.0625
370
    15
100
AcDbCircle
 10
30.3183357025
 20
22.467737895
 30
0.0
 40
0.0665723147701334
100
AcDbArc
 50
62.6096999108
 51
117.3903040268
  0
ARC
  5
32B
330
1F
100
AcDbEntity
  8
0
  6
Continuous
 62
     7
 48
5.0625
370
    15
100
AcDbCircle
 10
31.0627570407
 20
17.5826994815
 30
0.0
 40
0.1422138921642552
100
AcDbArc
 50
174.6749644942
 51
202.0523847729
  0
ARC
  5
32C
330
1F
100
AcDbEntity
  8
0
  6
Continuous
 62
     7
 48
5.0625
370
    15
100
AcDbCircle
 10
30.9314871946
 20
17.5686884143
 30
0.0
 40
0.0291043293058313
100
AcDbArc
 50
110.7897558524
 51
130.711530474
  0
ARC
  5
32D
330
1F
100
AcDbEntity
  8
0
  6
Continuous
 62
     7
 48
5.0625
370
    15
100
AcDbCircle
 10
31.0541036174
 20
17.5775514521
 30
0.0
 40
0.1422135008168536
100
AcDbArc
 50
174.6749986763
 51
202.0525304288
  0
ARC
  5
32E
330
1F
100
AcDbEntity
  8
0
  6
Continuous
 62
     7
 48
5.0625
370
    15
100
AcDbCircle
 10
31.0342948883
 20
17.5162483247
 30
0.0
 40
0.1122792766339786
100
AcDbArc
 50
175.9611540022
 51
189.7280993986
  0
ARC
  5
32F
330
1F
100
AcDbEntity
  8
0
  6
Continuous
 62
     7
 48
5.0625
370
    15
100
AcDbCircle
 10
30.9935807699
 20
17.5836819859
 30
0.0
 40
0.1111712998277373
100
AcDbArc
 50
231.0077606201
 51
244.7963639984
  0
ARC
  5
330
330
1F
100
AcDbEntity
  8
0
  6
Continuous
 62
     7
 48
5.0625
370
    15
100
AcDbCircle
 10
31.0586013776
 20
17.5723333336
 30
0.0
 40
0.1434876833288172
100
AcDbArc
 50
218.4571333248
 51
245.6708241319
  0
ARC
  5
331
330
1F
100
AcDbEntity
  8
0
  6
Continuous
 62
     7
 48
5.0625
370
    15
100
AcDbCircle
 10
30.9891559424
 20
17.4687988115
 30
0.0
 40
0.0291059358474432
100
AcDbArc
 50
290.7913409126
 51
310.7119419847
  0
ARC
  5
332
330
1F
100
AcDbEntity
  8
0
  6
Continuous
 62
     7
 48
5.0625
370
    15
100
AcDbCircle
 10
31.0672540642
 20
17.5774811419
 30
0.0
 40
0.1434871508511187
100
AcDbArc
 50
218.4570934769
 51
245.6708323991
  0
ARC
  5
333
330
1F
100
AcDbEntity
  8
0
  6
Continuous
 62
     7
 48
5.0625
370
    15
100
AcDbCircle
 10
31.0840701144
 20
17.4978887646
 30
0.0
 40
0.1295367958121848
100
AcDbArc
 50
171.7579116266
 51
184.2706600961
  0
ARC
  5
334
330
1F
100
AcDbEntity
  8
0
  6
Continuous
 62
     7
 48
5.0625
370
    15
100
AcDbCircle
 10
31.0020806109
 20
17.6367156667
 30
0.0
 40
0.1288295599176428
100
AcDbArc
 50
236.4853678031
 51
248.9804926243
  0
ARC
  5
335
330
1F
100
AcDbEntity
  8
0
  6
Continuous
 62
     7
 48
5.0625
370
    15
100
AcDbCircle
 10
30.9469987521
 20
17.5770730123
 30
0.0
 40
0.0461281259211538
100
AcDbArc
 50
124.489393517
 51
170.1665877954
  0
ARC
  5
336
330
1F
100
AcDbEntity
  8
0
  6
Continuous
 62
     7
 48
5.0625
370
    15
100
AcDbCircle
 10
31.0044132568
 20
17.4758951312
 30
0.0
 40
0.0442128129829209
100
AcDbArc
 50
248.577770034
 51
292.7164647738
  0
LWPOLYLINE
  5
337
330
1F
100
AcDbEntity
  8
0
  6
Continuous
 62
     7
 48
2.25
370
    15
100
AcDbPolyline
 90
        3
 70
   128
 43
0.0
 10
30.9236302236
 20
17.6186897818
 10
30.9123443782
 20
17.6081401519
 10
30.9117253204
 20
17.6072436158
  0
LWPOLYLINE
  5
338
330
1F
100
AcDbEntity
  8
0
  6
Continuous
 62
     7
 48
2.25
370
    15
100
AcDbPolyline
 90
       16
 70
   128
 43
0.0
 10
31.0126593871
 20
17.432401688
 10
31.0223809041
 20
17.434279963
 10
31.0354298858
 20
17.4420437247
 10
31.0447746712
 20
17.45521275
 10
31.0498279373
 20
17.4729595539
 10
31.0502723382
 20
17.4941690329
 10
31.0460797561
 20
17.5175085929
 10
31.0375137513
 20
17.5415116131
 10
31.0251126453
 20
17.5646699352
 10
31.0096553352
 20
17.5855285732
 10
30.9921133429
 20
17.602776718
 10
30.9735888619
 20
17.6153306563
 10
30.9552458046
 20
17.6224015992
 10
30.93823665
 20
17.6235452558
 10
30.9236302236
 20
17.6186897818
 10
30.9236302236
 20
17.6186897818
  0
LWPOLYLINE
  5
339
330
1F
100
AcDbEntity
  8
0
  6
Continuous
 62
     7
 48
2.25
370
    15
100
AcDbPolyline
 90
       15
 70
   128
 43
0.0
 10
31.0421824689
 20
17.4448679855
 10
31.048687359
 20
17.4496971011
 10
31.0580321444
 20
17.4628661264
 10
31.0630854105
 20
17.4806129303
 10
31.0635298114
 20
17.5018224092
 10
31.0593372293
 20
17.5251619692
 10
31.0507712245
 20
17.5491649895
 10
31.0383701185
 20
17.5723233116
 10
31.0229128084
 20
17.5931819496
 10
31.0053708161
 20
17.6104300944
 10
30.9868463351
 20
17.6229840326
 10
30.9685032778
 20
17.6300549756
 10
30.9514941232
 20
17.6311986322
 10
30.9368876968
 20
17.6263431581
 10
30.9368876968
 20
17.6263431581
  0
LINE
  5
33A
330
1F
100
AcDbEntity
  8
0
  6
Continuous
 62
     7
 48
2.25
370
    15
100
AcDbLine
 10
30.9546662984
 20
17.5036321556
 30
0.0
 11
30.9445773836
 21
17.5093687892
 31
0.0
  0
LINE
  5
33B
330
1F
100
AcDbEntity
  8
0
  6
Continuous
 62
     7
 48
2.25
370
    15
100
AcDbLine
 10
30.9445773836
 20
17.5093687892
 30
0.0
 11
30.9444988638
 21
17.5214785097
 31
0.0
  0
LINE
  5
33C
330
1F
100
AcDbEntity
  8
0
  6
Continuous
 62
     7
 48
2.25
370
    15
100
AcDbLine
 10
30.9445773836
 20
17.5093687892
 30
0.0
 11
30.9236301069
 21
17.4972761837
 31
0.0
  0
LINE
  5
33D
330
1F
100
AcDbEntity
  8
0
  6
Continuous
 62
     7
 48
2.25
370
    15
100
AcDbLine
 10
30.9549772274
 20
17.4881381138
 30
0.0
 11
30.9462399492
 21
17.4830941904
 31
0.0
  0
LINE
  5
33E
330
1F
100
AcDbEntity
  8
0
  6
Continuous
 62
     7
 48
2.25
370
    15
100
AcDbLine
 10
30.9222944542
 20
17.5241564681
 30
0.0
 11
30.9310698839
 21
17.5292224159
 31
0.0
  0
LINE
  5
33F
330
1F
100
AcDbEntity
  8
0
  6
Continuous
 62
     7
 48
2.25
370
    15
100
AcDbLine
 10
30.9994875506
 20
17.4415882736
 30
0.0
 11
30.9912496255
 21
17.4557147754
 31
0.0
  0
LINE
  5
340
330
1F
100
AcDbEntity
  8
0
  6
Continuous
 62
     7
 48
2.25
370
    15
100
AcDbLine
 10
30.920608321
 20
17.5768519738
 30
0.0
 11
30.9125038678
 21
17.5907495858
 31
0.0
  0
ARC
  5
341
330
1F
100
AcDbEntity
  8
0
  6
Continuous
 62
     7
 48
5.0625
370
    15
100
AcDbCircle
 10
28.6735052979
 20
18.8716420594
 30
0.0
 40
0.1186823246919411
100
AcDbArc
 50
295.2954350832
 51
301.0290601593
  0
ARC
  5
342
330
1F
100
AcDbEntity
  8
0
  6
Continuous
 62
     7
 48
5.0625
370
    15
100
AcDbCircle
 10
28.8592262342
 20
18.8315672854
 30
0.0
 40
0.1499992505980269
100
AcDbArc
 50
206.4190583761
 51
213.0833520602
  0
LWPOLYLINE
  5
343
330
1F
100
AcDbEntity
  8
0
  6
Continuous
 62
     7
 48
2.25
370
    15
100
AcDbPolyline
 90
        9
 70
   128
 43
0.0
 10
28.7335452585
 20
18.7496889151
 10
28.7329664524
 20
18.7492966094
 10
28.7329082334
 20
18.7492016336
 10
28.7333707183
 20
18.7494043889
 10
28.7343516904
 20
18.7499039289
 10
28.7358468327
 20
18.7506980278
 10
28.7378492617
 20
18.7517829102
 10
28.7403492937
 20
18.7531535886
 10
28.7433358449
 20
18.7548036608
  0
ARC
  5
344
330
1F
100
AcDbEntity
  8
0
  6
Continuous
 62
     7
 48
5.0625
370
    15
100
AcDbCircle
 10
28.8162722567
 20
18.8618555315
 30
0.0
 40
0.1295369568998841
100
AcDbArc
 50
235.7326746667
 51
248.2444621514
  0
ARC
  5
345
330
1F
100
AcDbEntity
  8
0
  6
Continuous
 62
     7
 48
5.0625
370
    15
100
AcDbCircle
 10
28.8780712993
 20
18.7589278699
 30
0.0
 40
0.1111788706891262
100
AcDbArc
 50
175.2062160646
 51
188.9951236587
  0
ARC
  5
346
330
1F
100
AcDbEntity
  8
0
  6
Continuous
 62
     7
 48
5.0625
370
    15
100
AcDbCircle
 10
21.8453062518
 20
31.034061051
 30
0.0
 40
14.08419748893757
100
AcDbArc
 50
299.4373142368
 51
299.6863488072
  0
ARC
  5
347
330
1F
100
AcDbEntity
  8
0
  6
Continuous
 62
     7
 48
5.0625
370
    15
100
AcDbCircle
 10
28.6862026448
 20
18.7316847515
 30
0.0
 40
0.1499909378967471
100
AcDbArc
 50
26.419195269
 51
33.0838808644
  0
ARC
  5
348
330
1F
100
AcDbEntity
  8
0
  6
Continuous
 62
     7
 48
5.0625
370
    15
100
AcDbCircle
 10
21.8270835901
 20
31.06601736
 30
0.0
 40
14.10354711556672
100
AcDbArc
 50
299.4375939171
 51
299.6862865421
  0
ARC
  5
349
330
1F
100
AcDbEntity
  8
0
  6
Continuous
 62
     7
 48
5.0625
370
    15
100
AcDbCircle
 10
28.8077673837
 20
18.8842942593
 30
0.0
 40
0.1122622871808441
100
AcDbArc
 50
230.2739425156
 51
244.0417738825
  0
ARC
  5
34A
330
1F
100
AcDbEntity
  8
0
  6
Continuous
 62
     7
 48
5.0625
370
    15
100
AcDbCircle
 10
28.8632875293
 20
18.7778461844
 30
0.0
 40
0.1288473680652019
100
AcDbArc
 50
171.0225223104
 51
183.5168285965
  0
LINE
  5
34B
330
1F
100
AcDbEntity
  8
0
  6
Continuous
 62
     7
 48
2.25
370
    15
100
AcDbLine
 10
28.7890098474
 20
18.7807626588
 30
0.0
 11
28.7672813399
 21
18.7682190584
 31
0.0
  0
LINE
  5
34C
330
1F
100
AcDbEntity
  8
0
  6
Continuous
 62
     7
 48
2.25
370
    15
100
AcDbLine
 10
28.8205289413
 20
18.7984210048
 30
0.0
 11
28.7890098474
 21
18.7807626588
 31
0.0
  0
LWPOLYLINE
  5
34D
330
1F
100
AcDbEntity
  8
0
  6
Continuous
 62
     7
 48
2.25
370
    15
100
AcDbPolyline
 90
       14
 70
   128
 43
0.0
 10
28.8413134616
 20
18.7000958666
 10
28.8499022172
 20
18.7070341374
 10
28.8584682219
 20
18.7211471265
 10
28.8626606874
 20
18.7396461016
 10
28.8622164032
 20
18.7613686075
 10
28.8571630204
 20
18.7849498556
 10
28.847818235
 20
18.8089080732
 10
28.8347692533
 20
18.8317379357
 10
28.8188358079
 20
18.8520049398
 10
28.8010192881
 20
18.8684355313
 10
28.7824389215
 20
18.8799975318
 10
28.7642623541
 20
18.8859642623
 10
28.7476315644
 20
18.8859609504
 10
28.7364157218
 20
18.8818037512
  0
LWPOLYLINE
  5
34E
330
1F
100
AcDbEntity
  8
0
  6
Continuous
 62
     7
 48
2.25
370
    15
100
AcDbPolyline
 90
       14
 70
   128
 43
0.0
 10
28.8545709348
 20
18.7077492429
 10
28.8631596904
 20
18.7146875138
 10
28.8717256952
 20
18.7288005029
 10
28.8759181606
 20
18.7472994779
 10
28.8754738764
 20
18.7690219839
 10
28.8704204936
 20
18.7926032319
 10
28.8610757082
 20
18.8165614495
 10
28.8480267265
 20
18.8393913121
 10
28.8320932811
 20
18.8596583162
 10
28.8142767613
 20
18.8760889077
 10
28.7956963947
 20
18.8876509082
 10
28.7775198273
 20
18.8936176387
 10
28.7608890377
 20
18.8936143267
 10
28.749673195
 20
18.8894571276
  0
LINE
  5
34F
330
1F
100
AcDbEntity
  8
0
  6
Continuous
 62
     7
 48
2.25
370
    15
100
AcDbLine
 10
28.7890098474
 20
18.7807626588
 30
0.0
 11
28.7890754167
 21
18.7907926016
 31
0.0
  0
LINE
  5
350
330
1F
100
AcDbEntity
  8
0
  6
Continuous
 62
     7
 48
2.25
370
    15
100
AcDbLine
 10
28.7890754167
 20
18.7907926016
 30
0.0
 11
28.7805795314
 21
18.7957709352
 31
0.0
  0
LINE
  5
351
330
1F
100
AcDbEntity
  8
0
  6
Continuous
 62
     7
 48
2.25
370
    15
100
AcDbLine
 10
28.767165252
 20
18.7665533702
 30
0.0
 11
28.7567216565
 21
18.7726730013
 31
0.0
  0
LINE
  5
352
330
1F
100
AcDbEntity
  8
0
  6
Continuous
 62
     7
 48
2.25
370
    15
100
AcDbLine
 10
28.7567216565
 20
18.7726730013
 30
0.0
 11
28.7567974928
 21
18.784283907
 31
0.0
  0
LINE
  5
353
330
1F
100
AcDbEntity
  8
0
  6
Continuous
 62
     7
 48
2.25
370
    15
100
AcDbLine
 10
28.7567216565
 20
18.7726730013
 30
0.0
 11
28.7563458584
 21
18.7724560576
 31
0.0
  0
LINE
  5
354
330
1F
100
AcDbEntity
  8
0
  6
Continuous
 62
     7
 48
2.25
370
    15
100
AcDbLine
 10
28.7564113109
 20
18.7824860678
 30
0.0
 11
28.7563458584
 21
18.7724560576
 31
0.0
  0
LINE
  5
355
330
1F
100
AcDbEntity
  8
0
  6
Continuous
 62
     7
 48
2.25
370
    15
100
AcDbLine
 10
28.7564113109
 20
18.7824860678
 30
0.0
 11
28.7346828034
 21
18.7699424674
 31
0.0
  0
LINE
  5
356
330
1F
100
AcDbEntity
  8
0
  6
Continuous
 62
     7
 48
2.25
370
    15
100
AcDbLine
 10
28.7433358449
 20
18.7548036608
 30
0.0
 11
28.7650643524
 21
18.7673472611
 31
0.0
  0
LINE
  5
357
330
1F
100
AcDbEntity
  8
0
  6
Continuous
 62
     7
 48
2.25
370
    15
100
AcDbLine
 10
28.7563458584
 20
18.7724560576
 30
0.0
 11
28.7650643524
 21
18.7673472611
 31
0.0
  0
LINE
  5
358
330
1F
100
AcDbEntity
  8
0
  6
Continuous
 62
     7
 48
2.25
370
    15
100
AcDbLine
 10
28.7650643524
 20
18.7673472611
 30
0.0
 11
28.7335452585
 21
18.7496889151
 31
0.0
  0
ARC
  5
359
330
1F
100
AcDbEntity
  8
0
  6
Continuous
 62
     7
 48
5.0625
370
    15
100
AcDbCircle
 10
31.0627569303
 20
19.4199163372
 30
0.0
 40
0.1422137838030844
100
AcDbArc
 50
174.6749538608
 51
202.0523954062
  0
ARC
  5
35A
330
1F
100
AcDbEntity
  8
0
  6
Continuous
 62
     7
 48
5.0625
370
    15
100
AcDbCircle
 10
30.9314878305
 20
19.4059045059
 30
0.0
 40
0.0291052844774602
100
AcDbArc
 50
110.790381095
 51
130.7115641027
  0
ARC
  5
35B
330
1F
100
AcDbEntity
  8
0
  6
Continuous
 62
     7
 48
5.0625
370
    15
100
AcDbCircle
 10
31.0541036174
 20
19.4147682566
 30
0.0
 40
0.1422135008168432
100
AcDbArc
 50
174.6749986763
 51
202.0525304288
  0
ARC
  5
35C
330
1F
100
AcDbEntity
  8
0
  6
Continuous
 62
     7
 48
5.0625
370
    15
100
AcDbCircle
 10
31.0342948883
 20
19.3534651292
 30
0.0
 40
0.1122792766339185
100
AcDbArc
 50
175.9611540022
 51
189.7280993986
  0
ARC
  5
35D
330
1F
100
AcDbEntity
  8
0
  6
Continuous
 62
     7
 48
5.0625
370
    15
100
AcDbCircle
 10
30.9935809794
 20
19.4208996023
 30
0.0
 40
0.1111720626100982
100
AcDbArc
 50
231.0079399524
 51
244.7964296817
  0
ARC
  5
35E
330
1F
100
AcDbEntity
  8
0
  6
Continuous
 62
     7
 48
5.0625
370
    15
100
AcDbCircle
 10
31.0586009877
 20
19.4095497053
 30
0.0
 40
0.1434870669047958
100
AcDbArc
 50
218.4570737452
 51
245.6708837115
  0
ARC
  5
35F
330
1F
100
AcDbEntity
  8
0
  6
Continuous
 62
     7
 48
5.0625
370
    15
100
AcDbCircle
 10
30.9891565791
 20
19.3060149018
 30
0.0
 40
0.0291049791631238
100
AcDbArc
 50
290.7907151643
 51
310.711908862
  0
ARC
  5
360
330
1F
100
AcDbEntity
  8
0
  6
Continuous
 62
     7
 48
5.0625
370
    15
100
AcDbCircle
 10
31.0672540642
 20
19.4146979465
 30
0.0
 40
0.1434871508512063
100
AcDbArc
 50
218.4570934769
 51
245.6708323991
  0
ARC
  5
361
330
1F
100
AcDbEntity
  8
0
  6
Continuous
 62
     7
 48
5.0625
370
    15
100
AcDbCircle
 10
31.0840701144
 20
19.3351055691
 30
0.0
 40
0.1295367958122174
100
AcDbArc
 50
171.7579116266
 51
184.2706600961
  0
ARC
  5
362
330
1F
100
AcDbEntity
  8
0
  6
Continuous
 62
     7
 48
5.0625
370
    15
100
AcDbCircle
 10
31.0020818651
 20
19.4739343415
 30
0.0
 40
0.1288317555856578
100
AcDbArc
 50
236.4853454455
 51
248.9802702728
  0
ARC
  5
363
330
1F
100
AcDbEntity
  8
0
  6
Continuous
 62
     7
 48
5.0625
370
    15
100
AcDbCircle
 10
30.9469987521
 20
19.4142898168
 30
0.0
 40
0.0461281259211696
100
AcDbArc
 50
124.489393517
 51
170.1665877954
  0
ARC
  5
364
330
1F
100
AcDbEntity
  8
0
  6
Continuous
 62
     7
 48
5.0625
370
    15
100
AcDbCircle
 10
31.004413169
 20
19.3131123891
 30
0.0
 40
0.0442132029851514
100
AcDbArc
 50
248.5780905732
 51
292.7163765615
  0
LWPOLYLINE
  5
365
330
1F
100
AcDbEntity
  8
0
  6
Continuous
 62
     7
 48
2.25
370
    15
100
AcDbPolyline
 90
        3
 70
   128
 43
0.0
 10
30.9236302236
 20
19.4559065863
 10
30.9123443782
 20
19.4453570238
 10
30.9117253204
 20
19.4444604204
  0
LWPOLYLINE
  5
366
330
1F
100
AcDbEntity
  8
0
  6
Continuous
 62
     7
 48
2.25
370
    15
100
AcDbPolyline
 90
       16
 70
   128
 43
0.0
 10
31.0126593871
 20
19.2696185599
 10
31.0223809041
 20
19.2714967676
 10
31.0354298858
 20
19.2792605966
 10
31.0447746712
 20
19.2924295546
 10
31.0498279373
 20
19.3101763584
 10
31.0502723382
 20
19.3313858374
 10
31.0460797561
 20
19.3547253974
 10
31.0375137513
 20
19.378728485
 10
31.0251126453
 20
19.4018868071
 10
31.0096553352
 20
19.4227453777
 10
30.9921133429
 20
19.4399935225
 10
30.9735888619
 20
19.4525474608
 10
30.9552458046
 20
19.4596184038
 10
30.93823665
 20
19.4607620604
 10
30.9236302236
 20
19.4559065863
 10
30.9236302236
 20
19.4559065863
  0
LWPOLYLINE
  5
367
330
1F
100
AcDbEntity
  8
0
  6
Continuous
 62
     7
 48
2.25
370
    15
100
AcDbPolyline
 90
       15
 70
   128
 43
0.0
 10
31.0421824689
 20
19.28208479
 10
31.048687359
 20
19.286913973
 10
31.0580321444
 20
19.300082931
 10
31.0630854105
 20
19.3178297348
 10
31.0635298114
 20
19.3390392138
 10
31.0593372293
 20
19.3623787738
 10
31.0507712245
 20
19.3863818614
 10
31.0383701185
 20
19.4095401835
 10
31.0229128084
 20
19.4303987541
 10
31.0053708161
 20
19.4476468989
 10
30.9868463351
 20
19.4602008372
 10
30.9685032778
 20
19.4672717801
 10
30.9514941232
 20
19.4684154367
 10
30.9368876968
 20
19.4635599627
 10
30.9368876968
 20
19.4635599627
  0
LINE
  5
368
330
1F
100
AcDbEntity
  8
0
  6
Continuous
 62
     7
 48
2.25
370
    15
100
AcDbLine
 10
30.9546662984
 20
19.3408489602
 30
0.0
 11
30.9445773836
 21
19.3465855937
 31
0.0
  0
LINE
  5
369
330
1F
100
AcDbEntity
  8
0
  6
Continuous
 62
     7
 48
2.25
370
    15
100
AcDbLine
 10
30.9445773836
 20
19.3465855937
 30
0.0
 11
30.9444988638
 21
19.3586953142
 31
0.0
  0
LINE
  5
36A
330
1F
100
AcDbEntity
  8
0
  6
Continuous
 62
     7
 48
2.25
370
    15
100
AcDbLine
 10
30.9445773836
 20
19.3465855937
 30
0.0
 11
30.9236301069
 21
19.3344929883
 31
0.0
  0
LINE
  5
36B
330
1F
100
AcDbEntity
  8
0
  6
Continuous
 62
     7
 48
2.25
370
    15
100
AcDbLine
 10
30.9549772274
 20
19.3253549857
 30
0.0
 11
30.9462399492
 21
19.3203110624
 31
0.0
  0
LINE
  5
36C
330
1F
100
AcDbEntity
  8
0
  6
Continuous
 62
     7
 48
2.25
370
    15
100
AcDbLine
 10
30.9222944542
 20
19.3613732727
 30
0.0
 11
30.9310698839
 21
19.3664392204
 31
0.0
  0
LINE
  5
36D
330
1F
100
AcDbEntity
  8
0
  6
Continuous
 62
     7
 48
2.25
370
    15
100
AcDbLine
 10
30.9994875506
 20
19.2788051455
 30
0.0
 11
30.9912496255
 21
19.2929315799
 31
0.0
  0
LINE
  5
36E
330
1F
100
AcDbEntity
  8
0
  6
Continuous
 62
     7
 48
2.25
370
    15
100
AcDbLine
 10
30.920608321
 20
19.4140687783
 30
0.0
 11
30.9125038678
 21
19.4279663903
 31
0.0
  0
ARC
  5
36F
330
1F
100
AcDbEntity
  8
0
  6
Continuous
 62
     7
 48
5.0625
370
    15
100
AcDbCircle
 10
28.673505298
 20
20.708858864
 30
0.0
 40
0.1186823246885757
100
AcDbArc
 50
295.2954350831
 51
301.0290601593
  0
ARC
  5
370
330
1F
100
AcDbEntity
  8
0
  6
Continuous
 62
     7
 48
5.0625
370
    15
100
AcDbCircle
 10
28.859221771
 20
20.6687819032
 30
0.0
 40
0.149994280490486
100
AcDbArc
 50
206.4190688692
 51
213.083561248
  0
LWPOLYLINE
  5
371
330
1F
100
AcDbEntity
  8
0
  6
Continuous
 62
     7
 48
2.25
370
    15
100
AcDbPolyline
 90
        9
 70
   128
 43
0.0
 10
28.7335452585
 20
20.586905787
 10
28.7329664524
 20
20.5865134813
 10
28.7329082334
 20
20.5864185055
 10
28.7333707183
 20
20.5866212608
 10
28.7343516904
 20
20.5871207334
 10
28.7358468327
 20
20.5879148323
 10
28.7378492617
 20
20.5889997821
 10
28.7403492937
 20
20.5903703932
 10
28.7433358449
 20
20.5920205327
  0
ARC
  5
372
330
1F
100
AcDbEntity
  8
0
  6
Continuous
 62
     7
 48
5.0625
370
    15
100
AcDbCircle
 10
28.8162735296
 20
20.699074185
 30
0.0
 40
0.1295391458822162
100
AcDbArc
 50
235.7326530628
 51
248.2442423534
  0
ARC
  5
373
330
1F
100
AcDbEntity
  8
0
  6
Continuous
 62
     7
 48
5.0625
370
    15
100
AcDbCircle
 10
28.8780712993
 20
20.5961446745
 30
0.0
 40
0.1111788706891194
100
AcDbArc
 50
175.2062160646
 51
188.9951236587
  0
ARC
  5
374
330
1F
100
AcDbEntity
  8
0
  6
Continuous
 62
     7
 48
5.0625
370
    15
100
AcDbCircle
 10
21.8453062523
 20
32.8712778547
 30
0.0
 40
14.08419748795433
100
AcDbArc
 50
299.4373142368
 51
299.6863488072
  0
ARC
  5
375
330
1F
100
AcDbEntity
  8
0
  6
Continuous
 62
     7
 48
5.0625
370
    15
100
AcDbCircle
 10
28.6861981885
 20
20.5688993732
 30
0.0
 40
0.1499959000726006
100
AcDbArc
 50
26.4191846049
 51
33.0836718475
  0
ARC
  5
376
330
1F
100
AcDbEntity
  8
0
  6
Continuous
 62
     7
 48
5.0625
370
    15
100
AcDbCircle
 10
21.8312243557
 20
32.8959338791
 30
0.0
 40
14.09515421619332
100
AcDbArc
 50
299.4375198756
 51
299.6863605837
  0
ARC
  5
377
330
1F
100
AcDbEntity
  8
0
  6
Continuous
 62
     7
 48
5.0625
370
    15
100
AcDbCircle
 10
28.8077675958
 20
20.7215118583
 30
0.0
 40
0.1122630337320249
100
AcDbArc
 50
230.274118405
 51
244.0418389917
  0
ARC
  5
378
330
1F
100
AcDbEntity
  8
0
  6
Continuous
 62
     7
 48
5.0625
370
    15
100
AcDbCircle
 10
28.8632875293
 20
20.615062989
 30
0.0
 40
0.12884736806522
100
AcDbArc
 50
171.0225223104
 51
183.5168285965
  0
LINE
  5
379
330
1F
100
AcDbEntity
  8
0
  6
Continuous
 62
     7
 48
2.25
370
    15
100
AcDbLine
 10
28.7890098474
 20
20.6179794633
 30
0.0
 11
28.7672813399
 21
20.6054358629
 31
0.0
  0
LINE
  5
37A
330
1F
100
AcDbEntity
  8
0
  6
Continuous
 62
     7
 48
2.25
370
    15
100
AcDbLine
 10
28.8205289413
 20
20.6356378094
 30
0.0
 11
28.7890098474
 21
20.6179794633
 31
0.0
  0
LWPOLYLINE
  5
37B
330
1F
100
AcDbEntity
  8
0
  6
Continuous
 62
     7
 48
2.25
370
    15
100
AcDbPolyline
 90
       14
 70
   128
 43
0.0
 10
28.8413134616
 20
20.5373126711
 10
28.8499022172
 20
20.5442510093
 10
28.8584682219
 20
20.558363931
 10
28.8626606874
 20
20.5768629061
 10
28.8622164032
 20
20.5985854121
 10
28.8571630204
 20
20.6221666601
 10
28.847818235
 20
20.6461249451
 10
28.8347692533
 20
20.6689547402
 10
28.8188358079
 20
20.6892217443
 10
28.8010192881
 20
20.7056523358
 10
28.7824389215
 20
20.7172143363
 10
28.7642623541
 20
20.7231810669
 10
28.7476315644
 20
20.7231777549
 10
28.7364157218
 20
20.7190205557
  0
LWPOLYLINE
  5
37C
330
1F
100
AcDbEntity
  8
0
  6
Continuous
 62
     7
 48
2.25
370
    15
100
AcDbPolyline
 90
       14
 70
   128
 43
0.0
 10
28.8545709348
 20
20.5449660475
 10
28.8631596904
 20
20.5519043857
 10
28.8717256952
 20
20.5660173074
 10
28.8759181606
 20
20.5845162825
 10
28.8754738764
 20
20.6062387884
 10
28.8704204936
 20
20.6298200365
 10
28.8610757082
 20
20.6537783214
 10
28.8480267265
 20
20.6766081166
 10
28.8320932811
 20
20.6968751207
 10
28.8142767613
 20
20.7133057122
 10
28.7956963947
 20
20.7248677127
 10
28.7775198273
 20
20.7308344433
 10
28.7608890377
 20
20.7308311313
 10
28.749673195
 20
20.7266739321
  0
LINE
  5
37D
330
1F
100
AcDbEntity
  8
0
  6
Continuous
 62
     7
 48
2.25
370
    15
100
AcDbLine
 10
28.7890098474
 20
20.6179794633
 30
0.0
 11
28.7890754167
 21
20.6280094062
 31
0.0
  0
LINE
  5
37E
330
1F
100
AcDbEntity
  8
0
  6
Continuous
 62
     7
 48
2.25
370
    15
100
AcDbLine
 10
28.7890754167
 20
20.6280094062
 30
0.0
 11
28.7805795314
 21
20.6329877398
 31
0.0
  0
LINE
  5
37F
330
1F
100
AcDbEntity
  8
0
  6
Continuous
 62
     7
 48
2.25
370
    15
100
AcDbLine
 10
28.767165252
 20
20.6037701747
 30
0.0
 11
28.7567216565
 21
20.6098898058
 31
0.0
  0
LINE
  5
380
330
1F
100
AcDbEntity
  8
0
  6
Continuous
 62
     7
 48
2.25
370
    15
100
AcDbLine
 10
28.7567216565
 20
20.6098898058
 30
0.0
 11
28.7567974928
 21
20.6215007789
 31
0.0
  0
LINE
  5
381
330
1F
100
AcDbEntity
  8
0
  6
Continuous
 62
     7
 48
2.25
370
    15
100
AcDbLine
 10
28.7567216565
 20
20.6098898058
 30
0.0
 11
28.7563458584
 21
20.6096728621
 31
0.0
  0
LINE
  5
382
330
1F
100
AcDbEntity
  8
0
  6
Continuous
 62
     7
 48
2.25
370
    15
100
AcDbLine
 10
28.7564113109
 20
20.6197028723
 30
0.0
 11
28.7563458584
 21
20.6096728621
 31
0.0
  0
LINE
  5
383
330
1F
100
AcDbEntity
  8
0
  6
Continuous
 62
     7
 48
2.25
370
    15
100
AcDbLine
 10
28.7564113109
 20
20.6197028723
 30
0.0
 11
28.7346828034
 21
20.6071592719
 31
0.0
  0
LINE
  5
384
330
1F
100
AcDbEntity
  8
0
  6
Continuous
 62
     7
 48
2.25
370
    15
100
AcDbLine
 10
28.7433358449
 20
20.5920205327
 30
0.0
 11
28.7650643524
 21
20.6045641331
 31
0.0
  0
LINE
  5
385
330
1F
100
AcDbEntity
  8
0
  6
Continuous
 62
     7
 48
2.25
370
    15
100
AcDbLine
 10
28.7563458584
 20
20.6096728621
 30
0.0
 11
28.7650643524
 21
20.6045641331
 31
0.0
  0
LINE
  5
386
330
1F
100
AcDbEntity
  8
0
  6
Continuous
 62
     7
 48
2.25
370
    15
100
AcDbLine
 10
28.7650643524
 20
20.6045641331
 30
0.0
 11
28.7335452585
 21
20.586905787
 31
0.0
  0
LINE
  5
387
330
1F
100
AcDbEntity
  8
0
  6
Continuous
 62
     7
 48
2.25
370
    15
100
AcDbLine
 10
16.7884119779
 20
14.6074128144
 30
0.0
 11
16.7884119779
 21
14.1844128476
 31
0.0
  0
LINE
  5
388
330
1F
100
AcDbEntity
  8
0
  6
Continuous
 62
     7
 48
2.25
370
    15
100
AcDbLine
 10
21.7264121604
 20
14.1844128476
 30
0.0
 11
16.7884119779
 21
14.1844128476
 31
0.0
  0
LINE
  5
389
330
1F
100
AcDbEntity
  8
0
  6
Continuous
 62
     7
 48
2.25
370
    15
100
AcDbLine
 10
21.7264121604
 20
14.6074128144
 30
0.0
 11
21.7264121604
 21
14.1844128476
 31
0.0
  0
LINE
  5
38A
330
1F
100
AcDbEntity
  8
0
  6
Continuous
 62
     7
 48
2.25
370
    15
100
AcDbLine
 10
21.7264121604
 20
14.6844128049
 30
0.0
 11
21.7264121604
 21
14.6074128144
 31
0.0
  0
LINE
  5
38B
330
1F
100
AcDbEntity
  8
0
  6
Continuous
 62
     7
 48
2.25
370
    15
100
AcDbLine
 10
16.7884119779
 20
14.6844128049
 30
0.0
 11
16.7884119779
 21
14.6074128144
 31
0.0
  0
LINE
  5
38C
330
1F
100
AcDbEntity
  8
0
  6
Continuous
 62
     7
 48
2.25
370
    15
100
AcDbLine
 10
16.7884119779
 20
14.6844128049
 30
0.0
 11
21.7264121604
 21
14.6844128049
 31
0.0
  0
LINE
  5
38D
330
1F
100
AcDbEntity
  8
0
  6
Continuous
 62
     7
 48
2.25
370
    15
100
AcDbLine
 10
16.7884119779
 20
14.6844128049
 30
0.0
 11
16.7574119894
 21
14.6844128049
 31
0.0
  0
LINE
  5
38E
330
1F
100
AcDbEntity
  8
0
  6
Continuous
 62
     7
 48
2.25
370
    15
100
AcDbLine
 10
16.7884119779
 20
14.6224128278
 30
0.0
 11
16.7574119894
 21
14.6224128278
 31
0.0
  0
LINE
  5
38F
330
1F
100
AcDbEntity
  8
0
  6
Continuous
 62
     7
 48
2.25
370
    15
100
AcDbLine
 10
21.7264121604
 20
14.6844128049
 30
0.0
 11
21.7574121489
 21
14.6844128049
 31
0.0
  0
LINE
  5
390
330
1F
100
AcDbEntity
  8
0
  6
Continuous
 62
     7
 48
2.25
370
    15
100
AcDbLine
 10
21.7264121604
 20
14.6224128278
 30
0.0
 11
21.7574121489
 21
14.6224128278
 31
0.0
  0
LINE
  5
391
330
1F
100
AcDbEntity
  8
0
  6
Continuous
 62
     7
 48
2.25
370
    15
100
AcDbLine
 10
16.7574119894
 20
14.2464128247
 30
0.0
 11
16.7884119779
 21
14.2464128247
 31
0.0
  0
LINE
  5
392
330
1F
100
AcDbEntity
  8
0
  6
Continuous
 62
     7
 48
2.25
370
    15
100
AcDbLine
 10
21.7264121604
 20
14.2464128247
 30
0.0
 11
21.7574121489
 21
14.2464128247
 31
0.0
  0
LINE
  5
393
330
1F
100
AcDbEntity
  8
0
  6
Continuous
 62
     7
 48
2.25
370
    15
100
AcDbLine
 10
21.7264121604
 20
6.7614128921
 30
0.0
 11
21.7264121604
 21
7.1844128589
 31
0.0
  0
LINE
  5
394
330
1F
100
AcDbEntity
  8
0
  6
Continuous
 62
     7
 48
2.25
370
    15
100
AcDbLine
 10
16.7884119779
 20
6.7614128921
 30
0.0
 11
16.7884119779
 21
7.1844128589
 31
0.0
  0
LINE
  5
395
330
1F
100
AcDbEntity
  8
0
  6
Continuous
 62
     7
 48
2.25
370
    15
100
AcDbLine
 10
16.7884119779
 20
7.1844128589
 30
0.0
 11
21.7264121604
 21
7.1844128589
 31
0.0
  0
LINE
  5
396
330
1F
100
AcDbEntity
  8
0
  6
Continuous
 62
     7
 48
2.25
370
    15
100
AcDbLine
 10
21.7264121604
 20
6.6844129016
 30
0.0
 11
21.7264121604
 21
6.7614128921
 31
0.0
  0
LINE
  5
397
330
1F
100
AcDbEntity
  8
0
  6
Continuous
 62
     7
 48
2.25
370
    15
100
AcDbLine
 10
21.7264121604
 20
6.6844129016
 30
0.0
 11
16.7884119779
 21
6.6844129016
 31
0.0
  0
LINE
  5
398
330
1F
100
AcDbEntity
  8
0
  6
Continuous
 62
     7
 48
2.25
370
    15
100
AcDbLine
 10
16.7884119779
 20
6.6844129016
 30
0.0
 11
16.7884119779
 21
6.7614128921
 31
0.0
  0
LINE
  5
399
330
1F
100
AcDbEntity
  8
0
  6
Continuous
 62
     7
 48
2.25
370
    15
100
AcDbLine
 10
16.7884119779
 20
6.6844129016
 30
0.0
 11
16.7574119894
 21
6.6844129016
 31
0.0
  0
LINE
  5
39A
330
1F
100
AcDbEntity
  8
0
  6
Continuous
 62
     7
 48
2.25
370
    15
100
AcDbLine
 10
16.7884119779
 20
6.7464128787
 30
0.0
 11
16.7574119894
 21
6.7464128787
 31
0.0
  0
LINE
  5
39B
330
1F
100
AcDbEntity
  8
0
  6
Continuous
 62
     7
 48
2.25
370
    15
100
AcDbLine
 10
21.7264121604
 20
6.6844129016
 30
0.0
 11
21.7574121489
 21
6.6844129016
 31
0.0
  0
LINE
  5
39C
330
1F
100
AcDbEntity
  8
0
  6
Continuous
 62
     7
 48
2.25
370
    15
100
AcDbLine
 10
21.7264121604
 20
6.7464128787
 30
0.0
 11
21.7574121489
 21
6.7464128787
 31
0.0
  0
LINE
  5
39D
330
1F
100
AcDbEntity
  8
0
  6
Continuous
 62
     7
 48
2.25
370
    15
100
AcDbLine
 10
21.7574121489
 20
7.1224128818
 30
0.0
 11
21.7264121604
 21
7.1224128818
 31
0.0
  0
LINE
  5
39E
330
1F
100
AcDbEntity
  8
0
  6
Continuous
 62
     7
 48
2.25
370
    15
100
AcDbLine
 10
16.7884119779
 20
7.1224128818
 30
0.0
 11
16.7574119894
 21
7.1224128818
 31
0.0
  0
LINE
  5
39F
330
1F
100
AcDbEntity
  8
0
  6
Continuous
 62
     7
 48
2.25
370
    15
100
AcDbLine
 10
21.7574121489
 20
14.6844128049
 30
0.0
 11
21.7574121489
 21
6.6844129016
 31
0.0
  0
LINE
  5
3A0
330
1F
100
AcDbEntity
  8
0
  6
Continuous
 62
     7
 48
2.25
370
    15
100
AcDbLine
 10
21.7574121489
 20
14.6844128049
 30
0.0
 11
22.1804121157
 21
14.6844128049
 31
0.0
  0
LINE
  5
3A1
330
1F
100
AcDbEntity
  8
0
  6
Continuous
 62
     7
 48
2.25
370
    15
100
AcDbLine
 10
21.7574121489
 20
6.6844129016
 30
0.0
 11
22.1804121157
 21
6.6844129016
 31
0.0
  0
CIRCLE
  5
3A2
330
1F
100
AcDbEntity
  8
0
  6
Continuous
 62
     7
 48
5.0625
370
    15
100
AcDbCircle
 10
22.0074120692
 20
12.6844128533
 30
0.0
 40
0.0850000000000009
  0
CIRCLE
  5
3A3
330
1F
100
AcDbEntity
  8
0
  6
Continuous
 62
     7
 48
5.0625
370
    15
100
AcDbCircle
 10
22.0074120692
 20
8.6844128533
 30
0.0
 40
0.0850000000000009
  0
LINE
  5
3A4
330
1F
100
AcDbEntity
  8
0
  6
Continuous
 62
     7
 48
2.25
370
    15
100
AcDbLine
 10
16.3344120226
 20
14.6844128049
 30
0.0
 11
16.7574119894
 21
14.6844128049
 31
0.0
  0
LINE
  5
3A5
330
1F
100
AcDbEntity
  8
0
  6
Continuous
 62
     7
 48
2.25
370
    15
100
AcDbLine
 10
16.7574119894
 20
14.6844128049
 30
0.0
 11
16.7574119894
 21
6.6844129016
 31
0.0
  0
LINE
  5
3A6
330
1F
100
AcDbEntity
  8
0
  6
Continuous
 62
     7
 48
2.25
370
    15
100
AcDbLine
 10
16.3344120226
 20
6.6844129016
 30
0.0
 11
16.7574119894
 21
6.6844129016
 31
0.0
  0
CIRCLE
  5
3A7
330
1F
100
AcDbEntity
  8
0
  6
Continuous
 62
     7
 48
5.0625
370
    15
100
AcDbCircle
 10
16.5074120692
 20
12.6844128533
 30
0.0
 40
0.0850000000000009
  0
CIRCLE
  5
3A8
330
1F
100
AcDbEntity
  8
0
  6
Continuous
 62
     7
 48
5.0625
370
    15
100
AcDbCircle
 10
16.5074120692
 20
8.6844128533
 30
0.0
 40
0.0850000000000009
  0
LINE
  5
3A9
330
1F
100
AcDbEntity
  8
0
  6
Continuous
 62
     7
 48
2.25
370
    15
100
AcDbLine
 10
16.2574120321
 20
14.6844128049
 30
0.0
 11
16.2574120321
 21
6.6844129016
 31
0.0
  0
LINE
  5
3AA
330
1F
100
AcDbEntity
  8
0
  6
Continuous
 62
     7
 48
2.25
370
    15
100
AcDbLine
 10
16.2574120321
 20
14.6844128049
 30
0.0
 11
16.3344120226
 21
14.6844128049
 31
0.0
  0
LINE
  5
3AB
330
1F
100
AcDbEntity
  8
0
  6
Continuous
 62
     7
 48
2.25
370
    15
100
AcDbLine
 10
16.2574120321
 20
6.6844129016
 30
0.0
 11
16.3344120226
 21
6.6844129016
 31
0.0
  0
LINE
  5
3AC
330
1F
100
AcDbEntity
  8
0
  6
Continuous
 62
     7
 48
2.25
370
    15
100
AcDbLine
 10
22.2574121062
 20
14.6844128049
 30
0.0
 11
22.2574121062
 21
6.6844129016
 31
0.0
  0
LINE
  5
3AD
330
1F
100
AcDbEntity
  8
0
  6
Continuous
 62
     7
 48
2.25
370
    15
100
AcDbLine
 10
22.1804121157
 20
6.6844129016
 30
0.0
 11
22.2574121062
 21
6.6844129016
 31
0.0
  0
LINE
  5
3AE
330
1F
100
AcDbEntity
  8
0
  6
Continuous
 62
     7
 48
2.25
370
    15
100
AcDbLine
 10
22.1804121157
 20
14.6844128049
 30
0.0
 11
22.2574121062
 21
14.6844128049
 31
0.0
  0
CIRCLE
  5
3AF
330
1F
100
AcDbEntity
  8
0
  6
Continuous
 62
     7
 48
5.0625
370
    15
100
AcDbCircle
 10
18.2574120692
 20
12.6844128533
 30
0.0
 40
0.0849999999999991
  0
CIRCLE
  5
3B0
330
1F
100
AcDbEntity
  8
0
  6
Continuous
 62
     7
 48
5.0625
370
    15
100
AcDbCircle
 10
18.2574120692
 20
12.6844128533
 30
0.0
 40
0.6416128499307305
  0
ARC
  5
3B1
330
1F
100
AcDbEntity
  8
0
  6
Continuous
 62
     7
 48
5.0625
370
    15
100
AcDbCircle
 10
21.7574120692
 20
13.1844128533
 30
0.0
 40
0.1404999999999994
100
AcDbArc
 50
90.0
 51
180.0
  0
ARC
  5
3B2
330
1F
100
AcDbEntity
  8
0
  6
Continuous
 62
     7
 48
5.0625
370
    15
100
AcDbCircle
 10
21.7574120692
 20
13.1844128533
 30
0.0
 40
0.1404999999999994
100
AcDbArc
 50
180.0
 51
270.0
  0
ARC
  5
3B3
330
1F
100
AcDbEntity
  8
0
  6
Continuous
 62
     7
 48
5.0625
370
    15
100
AcDbCircle
 10
16.7574120692
 20
13.1844128533
 30
0.0
 40
0.140500000000003
100
AcDbArc
 50
270.0
 51
0.0
  0
ARC
  5
3B4
330
1F
100
AcDbEntity
  8
0
  6
Continuous
 62
     7
 48
5.0625
370
    15
100
AcDbCircle
 10
16.7574120692
 20
13.1844128533
 30
0.0
 40
0.140500000000003
100
AcDbArc
 50
0.0
 51
90.0
  0
ARC
  5
3B5
330
1F
100
AcDbEntity
  8
0
  6
Continuous
 62
     7
 48
5.0625
370
    15
100
AcDbCircle
 10
16.7574120692
 20
8.1844128533
 30
0.0
 40
0.1405000000000012
100
AcDbArc
 50
270.0
 51
90.0
  0
ARC
  5
3B6
330
1F
100
AcDbEntity
  8
0
  6
Continuous
 62
     7
 48
5.0625
370
    15
100
AcDbCircle
 10
21.7574120692
 20
8.1844128533
 30
0.0
 40
0.1405000000000012
100
AcDbArc
 50
90.0
 51
270.0
  0
LINE
  5
3B7
330
1F
100
AcDbEntity
  8
0
  6
HIDDEN
 62
     7
 48
2.25
370
     0
100
AcDbLine
 10
16.7884119779
 20
14.6224128278
 30
0.0
 11
21.7264121604
 21
14.6224128278
 31
0.0
  0
LINE
  5
3B8
330
1F
100
AcDbEntity
  8
0
  6
HIDDEN
 62
     7
 48
2.25
370
     0
100
AcDbLine
 10
16.7574119894
 20
14.6224128278
 30
0.0
 11
16.3964119997
 21
14.6224128278
 31
0.0
  0
LINE
  5
3B9
330
1F
100
AcDbEntity
  8
0
  6
HIDDEN
 62
     7
 48
2.25
370
     0
100
AcDbLine
 10
21.7574121489
 20
14.6224128278
 30
0.0
 11
22.1184121386
 21
14.6224128278
 31
0.0
  0
ARC
  5
3BA
330
1F
100
AcDbEntity
  8
0
  6
HIDDEN
 62
     7
 48
5.0625
370
     0
100
AcDbCircle
 10
16.3964120692
 20
14.6074128533
 30
0.0
 40
0.077
100
AcDbArc
 50
90.0
 51
180.0
  0
ARC
  5
3BB
330
1F
100
AcDbEntity
  8
0
  6
HIDDEN
 62
     7
 48
5.0625
370
     0
100
AcDbCircle
 10
16.3964120692
 20
14.6074128533
 30
0.0
 40
0.0149999999999988
100
AcDbArc
 50
90.0
 51
180.0
  0
ARC
  5
3BC
330
1F
100
AcDbEntity
  8
0
  6
HIDDEN
 62
     7
 48
5.0625
370
     0
100
AcDbCircle
 10
22.1184120692
 20
14.6074128533
 30
0.0
 40
0.0150000000000006
100
AcDbArc
 50
0.0
 51
90.0
  0
ARC
  5
3BD
330
1F
100
AcDbEntity
  8
0
  6
HIDDEN
 62
     7
 48
5.0625
370
     0
100
AcDbCircle
 10
22.1184120692
 20
14.6074128533
 30
0.0
 40
0.0769999999999982
100
AcDbArc
 50
0.0
 51
90.0
  0
LINE
  5
3BE
330
1F
100
AcDbEntity
  8
0
  6
HIDDEN
 62
     7
 48
2.25
370
     0
100
AcDbLine
 10
22.1954121291
 20
14.2464128247
 30
0.0
 11
22.133412152
 21
14.2464128247
 31
0.0
  0
LINE
  5
3BF
330
1F
100
AcDbEntity
  8
0
  6
HIDDEN
 62
     7
 48
2.25
370
     0
100
AcDbLine
 10
22.133412152
 20
14.2464128247
 30
0.0
 11
22.133412152
 21
14.6074128144
 31
0.0
  0
LINE
  5
3C0
330
1F
100
AcDbEntity
  8
0
  6
HIDDEN
 62
     7
 48
2.25
370
     0
100
AcDbLine
 10
16.3194120092
 20
14.2464128247
 30
0.0
 11
16.3814119863
 21
14.2464128247
 31
0.0
  0
LINE
  5
3C1
330
1F
100
AcDbEntity
  8
0
  6
HIDDEN
 62
     7
 48
2.25
370
     0
100
AcDbLine
 10
16.3814119863
 20
14.2464128247
 30
0.0
 11
16.3814119863
 21
14.6074128144
 31
0.0
  0
LINE
  5
3C2
330
1F
100
AcDbEntity
  8
0
  6
HIDDEN
 62
     7
 48
2.25
370
     0
100
AcDbLine
 10
22.1184121386
 20
14.6224128278
 30
0.0
 11
22.1184121386
 21
14.6844128049
 31
0.0
  0
LINE
  5
3C3
330
1F
100
AcDbEntity
  8
0
  6
HIDDEN
 62
     7
 48
2.25
370
     0
100
AcDbLine
 10
16.3964119997
 20
14.6074128144
 30
0.0
 11
16.3964119997
 21
14.6224128278
 31
0.0
  0
LINE
  5
3C4
330
1F
100
AcDbEntity
  8
0
  6
HIDDEN
 62
     7
 48
2.25
370
     0
100
AcDbLine
 10
22.1184121386
 20
14.6074128144
 30
0.0
 11
22.1184121386
 21
14.6224128278
 31
0.0
  0
LINE
  5
3C5
330
1F
100
AcDbEntity
  8
0
  6
HIDDEN
 62
     7
 48
2.25
370
     0
100
AcDbLine
 10
16.3964119997
 20
14.6224128278
 30
0.0
 11
16.3964119997
 21
14.6844128049
 31
0.0
  0
LINE
  5
3C6
330
1F
100
AcDbEntity
  8
0
  6
HIDDEN
 62
     7
 48
2.25
370
     0
100
AcDbLine
 10
16.3964119997
 20
14.2464128247
 30
0.0
 11
16.7574119894
 21
14.2464128247
 31
0.0
  0
LINE
  5
3C7
330
1F
100
AcDbEntity
  8
0
  6
HIDDEN
 62
     7
 48
2.25
370
     0
100
AcDbLine
 10
16.7884119779
 20
14.2464128247
 30
0.0
 11
21.7264121604
 21
14.2464128247
 31
0.0
  0
LINE
  5
3C8
330
1F
100
AcDbEntity
  8
0
  6
HIDDEN
 62
     7
 48
2.25
370
     0
100
AcDbLine
 10
21.7574121489
 20
14.2464128247
 30
0.0
 11
22.1184121386
 21
14.2464128247
 31
0.0
  0
LINE
  5
3C9
330
1F
100
AcDbEntity
  8
0
  6
HIDDEN
 62
     7
 48
2.25
370
     0
100
AcDbLine
 10
16.3964119997
 20
14.2464128247
 30
0.0
 11
16.3964119997
 21
14.6074128144
 31
0.0
  0
LINE
  5
3CA
330
1F
100
AcDbEntity
  8
0
  6
HIDDEN
 62
     7
 48
2.25
370
     0
100
AcDbLine
 10
22.1184121386
 20
14.2464128247
 30
0.0
 11
22.1184121386
 21
14.6074128144
 31
0.0
  0
LINE
  5
3CB
330
1F
100
AcDbEntity
  8
0
  6
HIDDEN
 62
     7
 48
2.25
370
     0
100
AcDbLine
 10
21.7264121604
 20
6.7464128787
 30
0.0
 11
16.7884119779
 21
6.7464128787
 31
0.0
  0
LINE
  5
3CC
330
1F
100
AcDbEntity
  8
0
  6
HIDDEN
 62
     7
 48
2.25
370
     0
100
AcDbLine
 10
16.7574119894
 20
6.7464128787
 30
0.0
 11
16.3964119997
 21
6.7464128787
 31
0.0
  0
LINE
  5
3CD
330
1F
100
AcDbEntity
  8
0
  6
HIDDEN
 62
     7
 48
2.25
370
     0
100
AcDbLine
 10
21.7574121489
 20
6.7464128787
 30
0.0
 11
22.1184121386
 21
6.7464128787
 31
0.0
  0
LINE
  5
3CE
330
1F
100
AcDbEntity
  8
0
  6
HIDDEN
 62
     7
 48
2.25
370
     0
100
AcDbLine
 10
16.3814119863
 20
7.1224128818
 30
0.0
 11
16.3814119863
 21
6.7614128921
 31
0.0
  0
LINE
  5
3CF
330
1F
100
AcDbEntity
  8
0
  6
HIDDEN
 62
     7
 48
2.25
370
     0
100
AcDbLine
 10
16.3194120092
 20
7.1224128818
 30
0.0
 11
16.3814119863
 21
7.1224128818
 31
0.0
  0
LINE
  5
3D0
330
1F
100
AcDbEntity
  8
0
  6
HIDDEN
 62
     7
 48
2.25
370
     0
100
AcDbLine
 10
22.133412152
 20
7.1224128818
 30
0.0
 11
22.133412152
 21
6.7614128921
 31
0.0
  0
LINE
  5
3D1
330
1F
100
AcDbEntity
  8
0
  6
HIDDEN
 62
     7
 48
2.25
370
     0
100
AcDbLine
 10
22.1954121291
 20
7.1224128818
 30
0.0
 11
22.133412152
 21
7.1224128818
 31
0.0
  0
ARC
  5
3D2
330
1F
100
AcDbEntity
  8
0
  6
HIDDEN
 62
     7
 48
5.0625
370
     0
100
AcDbCircle
 10
16.3964120692
 20
6.7614128533
 30
0.0
 40
0.0149999999999988
100
AcDbArc
 50
180.0
 51
270.0
  0
ARC
  5
3D3
330
1F
100
AcDbEntity
  8
0
  6
HIDDEN
 62
     7
 48
5.0625
370
     0
100
AcDbCircle
 10
16.3964120692
 20
6.7614128533
 30
0.0
 40
0.0769999999999982
100
AcDbArc
 50
180.0
 51
270.0
  0
ARC
  5
3D4
330
1F
100
AcDbEntity
  8
0
  6
HIDDEN
 62
     7
 48
5.0625
370
     0
100
AcDbCircle
 10
22.1184120692
 20
6.7614128533
 30
0.0
 40
0.077
100
AcDbArc
 50
270.0
 51
0.0
  0
ARC
  5
3D5
330
1F
100
AcDbEntity
  8
0
  6
HIDDEN
 62
     7
 48
5.0625
370
     0
100
AcDbCircle
 10
22.1184120692
 20
6.7614128533
 30
0.0
 40
0.0150000000000006
100
AcDbArc
 50
270.0
 51
0.0
  0
LINE
  5
3D6
330
1F
100
AcDbEntity
  8
0
  6
HIDDEN
 62
     7
 48
2.25
370
     0
100
AcDbLine
 10
16.3964119997
 20
6.7464128787
 30
0.0
 11
16.3964119997
 21
6.6844129016
 31
0.0
  0
LINE
  5
3D7
330
1F
100
AcDbEntity
  8
0
  6
HIDDEN
 62
     7
 48
2.25
370
     0
100
AcDbLine
 10
22.1184121386
 20
6.7614128921
 30
0.0
 11
22.1184121386
 21
6.7464128787
 31
0.0
  0
LINE
  5
3D8
330
1F
100
AcDbEntity
  8
0
  6
HIDDEN
 62
     7
 48
2.25
370
     0
100
AcDbLine
 10
16.3964119997
 20
6.7614128921
 30
0.0
 11
16.3964119997
 21
6.7464128787
 31
0.0
  0
LINE
  5
3D9
330
1F
100
AcDbEntity
  8
0
  6
HIDDEN
 62
     7
 48
2.25
370
     0
100
AcDbLine
 10
22.1184121386
 20
6.7464128787
 30
0.0
 11
22.1184121386
 21
6.6844129016
 31
0.0
  0
LINE
  5
3DA
330
1F
100
AcDbEntity
  8
0
  6
HIDDEN
 62
     7
 48
2.25
370
     0
100
AcDbLine
 10
22.1184121386
 20
7.1224128818
 30
0.0
 11
21.7574121489
 21
7.1224128818
 31
0.0
  0
LINE
  5
3DB
330
1F
100
AcDbEntity
  8
0
  6
HIDDEN
 62
     7
 48
2.25
370
     0
100
AcDbLine
 10
21.7264121604
 20
7.1224128818
 30
0.0
 11
16.7884119779
 21
7.1224128818
 31
0.0
  0
LINE
  5
3DC
330
1F
100
AcDbEntity
  8
0
  6
HIDDEN
 62
     7
 48
2.25
370
     0
100
AcDbLine
 10
16.7574119894
 20
7.1224128818
 30
0.0
 11
16.3964119997
 21
7.1224128818
 31
0.0
  0
LINE
  5
3DD
330
1F
100
AcDbEntity
  8
0
  6
HIDDEN
 62
     7
 48
2.25
370
     0
100
AcDbLine
 10
22.1184121386
 20
7.1224128818
 30
0.0
 11
22.1184121386
 21
6.7614128921
 31
0.0
  0
LINE
  5
3DE
330
1F
100
AcDbEntity
  8
0
  6
HIDDEN
 62
     7
 48
2.25
370
     0
100
AcDbLine
 10
16.3964119997
 20
7.1224128818
 30
0.0
 11
16.3964119997
 21
6.7614128921
 31
0.0
  0
LINE
  5
3DF
330
1F
100
AcDbEntity
  8
0
  6
HIDDEN
 62
     7
 48
2.25
370
     0
100
AcDbLine
 10
16.3194120092
 20
14.6844128049
 30
0.0
 11
16.3194120092
 21
6.6844129016
 31
0.0
  0
LINE
  5
3E0
330
1F
100
AcDbEntity
  8
0
  6
HIDDEN
 62
     7
 48
2.25
370
     0
100
AcDbLine
 10
22.1954121291
 20
14.6844128049
 30
0.0
 11
22.1954121291
 21
6.6844129016
 31
0.0
  0
CIRCLE
  5
3E1
330
1F
100
AcDbEntity
  8
0
  6
HIDDEN
 62
     7
 48
5.0625
370
     0
100
AcDbCircle
 10
18.2574120692
 20
12.6844128533
 30
0.0
 40
0.147000000000002
  0
ARC
  5
3E2
330
1F
100
AcDbEntity
  8
0
  6
HIDDEN
 62
     7
 48
5.0625
370
     0
100
AcDbCircle
 10
21.7574120692
 20
13.1844128533
 30
0.0
 40
0.1404999999999994
100
AcDbArc
 50
270.0
 51
90.0
  0
ARC
  5
3E3
330
1F
100
AcDbEntity
  8
0
  6
HIDDEN
 62
     7
 48
5.0625
370
     0
100
AcDbCircle
 10
16.7574120692
 20
13.1844128533
 30
0.0
 40
0.1405000000000012
100
AcDbArc
 50
90.0
 51
270.0
  0
ARC
  5
3E4
330
1F
100
AcDbEntity
  8
0
  6
HIDDEN
 62
     7
 48
5.0625
370
     0
100
AcDbCircle
 10
16.7574120692
 20
8.1844128533
 30
0.0
 40
0.140500000000003
100
AcDbArc
 50
90.0
 51
180.0
  0
ARC
  5
3E5
330
1F
100
AcDbEntity
  8
0
  6
HIDDEN
 62
     7
 48
5.0625
370
     0
100
AcDbCircle
 10
16.7574120692
 20
8.1844128533
 30
0.0
 40
0.140500000000003
100
AcDbArc
 50
180.0
 51
270.0
  0
ARC
  5
3E6
330
1F
100
AcDbEntity
  8
0
  6
HIDDEN
 62
     7
 48
5.0625
370
     0
100
AcDbCircle
 10
21.7574120692
 20
8.1844128533
 30
0.0
 40
0.1405000000000012
100
AcDbArc
 50
270.0
 51
0.0
  0
ARC
  5
3E7
330
1F
100
AcDbEntity
  8
0
  6
HIDDEN
 62
     7
 48
5.0625
370
     0
100
AcDbCircle
 10
21.7574120692
 20
8.1844128533
 30
0.0
 40
0.1404999999999994
100
AcDbArc
 50
0.0
 51
90.0
  0
CIRCLE
  5
3E8
330
1F
100
AcDbEntity
  8
0
  6
HIDDEN
 62
     7
 48
5.0625
370
     0
100
AcDbCircle
 10
18.2574120692
 20
12.6844128533
 30
0.0
 40
0.6250000000000018
  0
DIMENSION
  5
3E9
330
1F
100
AcDbEntity
  8
0
  6
Continuous
 62
     7
 48
2.25
370
     0
100
AcDbDimension
  2
*D14
 10
22.2574120692
 20
13.5341037536
 30
0.0
 11
23.5309979673
 21
13.5341037536
 31
0.0
 70
   160
 71
     2
 42
-1.0
  3
SLDDIMSTYLE3
100
AcDbAlignedDimension
 13
21.7574120692
 23
14.6844128533
 33
0.0
 14
22.2574120692
 24
14.6844128533
 34
0.0
100
AcDbRotatedDimension
  0
INSERT
  5
3FE
102
{ACAD_REACTORS
330
3FF
102
}
330
1F
100
AcDbEntity
  8
0
  6
Continuous
 62
     7
 48
2.25
370
     0
100
AcDbBlockReference
  2
SW_NOTE_5
 10
20.0168911861
 20
15.9121796247
 30
0.0
  0
LEADER
  5
3FF
330
1F
100
AcDbEntity
  8
0
  6
Continuous
 62
     7
 48
2.25
370
     0
100
AcDbLeader
  3
SLDDIMSTYLE1
 73
     2
 76
     3
 10
18.4656455293
 20
13.2912949466
 30
0.0
 10
19.4543911861
 20
15.9121796247
 30
0.0
 10
20.0168911861
 20
15.9121796247
 30
0.0
340
3FE
  0
MTEXT
  5
400
330
1F
100
AcDbEntity
  8
0
  6
Continuous
 62
     7
 48
2.25
370
     0
100
AcDbMText
 10
17.689712304
 20
6.163861666
 30
0.0
 40
0.28125
 41
0.0
 71
     1
 72
     1
  1
\LCOVER REMOVED
  7
SLDTEXTSTYLE0
 73
     1
 44
1.0
  0
ENDSEC
  0
SECTION
  2
OBJECTS
  0
DICTIONARY
  5
C
330
0
100
AcDbDictionary
281
     1
  3
ACAD_GROUP
350
D
  3
ACAD_LAYOUT
350
1A
  3
ACAD_MATERIAL
350
3B
  3
ACAD_MLEADERSTYLE
350
403
  3
ACAD_MLINESTYLE
350
17
  3
ACAD_PLOTSETTINGS
350
19
  3
ACAD_PLOTSTYLENAME
350
E
  3
ACAD_SCALELIST
350
58
  3
ACAD_VISUALSTYLE
350
2A
  3
AcDbVariableDictionary
350
401
  0
DICTIONARY
  5
D
102
{ACAD_REACTORS
330
C
102
}
330
C
100
AcDbDictionary
281
     1
  0
DICTIONARY
  5
1A
102
{ACAD_REACTORS
330
C
102
}
330
C
100
AcDbDictionary
281
     1
  3
Layout1
350
1E
  3
Layout2
350
26
  3
Model
350
22
  0
DICTIONARY
  5
3B
102
{ACAD_REACTORS
330
C
102
}
330
C
100
AcDbDictionary
281
     1
  3
ByBlock
350
3D
  3
ByLayer
350
3C
  3
Global
350
3E
  0
DICTIONARY
  5
403
102
{ACAD_REACTORS
330
C
102
}
330
C
100
AcDbDictionary
281
     1
  0
DICTIONARY
  5
17
102
{ACAD_REACTORS
330
C
102
}
330
C
100
AcDbDictionary
281
     1
  3
Standard
350
18
  0
DICTIONARY
  5
19
102
{ACAD_REACTORS
330
C
102
}
330
C
100
AcDbDictionary
281
     1
  0
ACDBDICTIONARYWDFLT
  5
E
102
{ACAD_REACTORS
330
C
102
}
330
C
100
AcDbDictionary
281
     1
  3
Normal
350
F
100
AcDbDictionaryWithDefault
340
F
  0
DICTIONARY
  5
58
102
{ACAD_REACTORS
330
C
102
}
330
C
100
AcDbDictionary
281
     1
  3
A0
350
59
  3
A1
350
5A
  3
A2
350
5B
  3
A3
350
5C
  3
A4
350
5D
  3
A5
350
5E
  3
A6
350
5F
  3
A7
350
60
  3
A8
350
61
  3
A9
350
62
  3
B0
350
63
  3
B1
350
64
  3
B2
350
65
  3
B3
350
66
  3
B4
350
67
  3
B5
350
68
  3
B6
350
69
  3
B7
350
6A
  3
B8
350
6B
  3
B9
350
6C
  3
C0
350
6D
  3
C1
350
6E
  3
C2
350
6F
  3
C3
350
70
  3
C4
350
71
  3
C5
350
72
  3
C6
350
73
  3
C7
350
74
  3
C8
350
75
  3
C9
350
76
  3
D0
350
77
  3
D1
350
78
  3
D2
350
79
  0
DICTIONARY
  5
2A
102
{ACAD_REACTORS
330
C
102
}
330
C
100
AcDbDictionary
281
     1
  3
2dWireframe
350
2F
  3
3D Hidden
350
31
  3
3dWireframe
350
30
  3
Basic
350
32
  3
Brighten
350
36
  3
ColorChange
350
3A
  3
Conceptual
350
34
  3
Dim
350
35
  3
Facepattern
350
39
  3
Flat
350
2B
  3
FlatWithEdges
350
2C
  3
Gouraud
350
2D
  3
GouraudWithEdges
350
2E
  3
Linepattern
350
38
  3
Realistic
350
33
  3
Thicken
350
37
  0
DICTIONARY
  5
401
102
{ACAD_REACTORS
330
C
102
}
330
C
100
AcDbDictionary
281
     1
  3
CANNOSCALE
350
404
  3
DIMASSOC
350
405
  3
HIDETEXT
350
406
  0
LAYOUT
  5
1E
102
{ACAD_REACTORS
330
1A
102
}
330
1A
100
AcDbPlotSettings
  1

  2
none_device
  4

  6

 40
0.0
 41
0.0
 42
0.0
 43
0.0
 44
0.0
 45
0.0
 46
0.0
 47
0.0
 48
0.0
 49
0.0
140
0.0
141
0.0
142
1.0
143
1.0
 70
   688
 72
     0
 73
     0
 74
     5
  7

 75
    16
147
1.0
148
0.0
149
0.0
100
AcDbLayout
  1
Layout1
 70
     1
 71
     1
 10
0.0
 20
0.0
 11
12.0
 21
9.0
 12
0.0
 22
0.0
 32
0.0
 14
1.0000000000E+20
 24
1.0000000000E+20
 34
1.0000000000E+20
 15
-1.0000000000E+20
 25
-1.0000000000E+20
 35
-1.0000000000E+20
146
0.0
 13
0.0
 23
0.0
 33
0.0
 16
1.0
 26
0.0
 36
0.0
 17
0.0
 27
1.0
 37
0.0
 76
     0
330
1B
  0
LAYOUT
  5
26
102
{ACAD_REACTORS
330
1A
102
}
330
1A
100
AcDbPlotSettings
  1

  2
none_device
  4

  6

 40
0.0
 41
0.0
 42
0.0
 43
0.0
 44
0.0
 45
0.0
 46
0.0
 47
0.0
 48
0.0
 49
0.0
140
0.0
141
0.0
142
1.0
143
1.0
 70
   688
 72
     0
 73
     0
 74
     5
  7

 75
    16
147
1.0
148
0.0
149
0.0
100
AcDbLayout
  1
Layout2
 70
     1
 71
     2
 10
0.0
 20
0.0
 11
0.0
 21
0.0
 12
0.0
 22
0.0
 32
0.0
 14
0.0
 24
0.0
 34
0.0
 15
0.0
 25
0.0
 35
0.0
146
0.0
 13
0.0
 23
0.0
 33
0.0
 16
1.0
 26
0.0
 36
0.0
 17
0.0
 27
1.0
 37
0.0
 76
     0
330
23
  0
LAYOUT
  5
22
102
{ACAD_REACTORS
330
1A
102
}
330
1A
100
AcDbPlotSettings
  1

  2
none_device
  4

  6

 40
0.0
 41
0.0
 42
0.0
 43
0.0
 44
0.0
 45
0.0
 46
0.0
 47
0.0
 48
0.0
 49
0.0
140
0.0
141
0.0
142
1.0
143
1.0
 70
  1712
 72
     0
 73
     0
 74
     0
  7

 75
     0
147
1.0
148
0.0
149
0.0
100
AcDbLayout
  1
Model
 70
     1
 71
     0
 10
0.0
 20
0.0
 11
38.25
 21
24.75
 12
0.0
 22
0.0
 32
0.0
 14
0.0
 24
0.0
 34
0.0
 15
38.25
 25
24.75
 35
0.0
146
0.0
 13
0.0
 23
0.0
 33
0.0
 16
1.0
 26
0.0
 36
0.0
 17
0.0
 27
1.0
 37
0.0
 76
     0
330
1F
331
29
  0
MATERIAL
  5
3D
102
{ACAD_REACTORS
330
3B
102
}
102
{ACAD_XDICTIONARY
360
429
102
}
330
3B
100
AcDbMaterial
  1
ByBlock
  0
MATERIAL
  5
3C
102
{ACAD_REACTORS
330
3B
102
}
102
{ACAD_XDICTIONARY
360
427
102
}
330
3B
100
AcDbMaterial
  1
ByLayer
  0
MATERIAL
  5
3E
102
{ACAD_REACTORS
330
3B
102
}
102
{ACAD_XDICTIONARY
360
42B
102
}
330
3B
100
AcDbMaterial
  1
Global
  0
MLINESTYLE
  5
18
102
{ACAD_REACTORS
330
17
102
}
330
17
100
AcDbMlineStyle
  2
Standard
 70
     0
  3

 62
   256
 51
90.0
 52
90.0
 71
     2
 49
0.5
 62
   256
  6
BYLAYER
 49
-0.5
 62
   256
  6
BYLAYER
  0
ACDBPLACEHOLDER
  5
F
102
{ACAD_REACTORS
330
E
102
}
330
E
  0
SCALE
  5
59
102
{ACAD_REACTORS
330
58
102
}
330
58
100
AcDbScale
 70
     0
300
1:1
140
1.0
141
1.0
290
     1
  0
SCALE
  5
5A
102
{ACAD_REACTORS
330
58
102
}
330
58
100
AcDbScale
 70
     0
300
1:2
140
1.0
141
2.0
290
     0
  0
SCALE
  5
5B
102
{ACAD_REACTORS
330
58
102
}
330
58
100
AcDbScale
 70
     0
300
1:4
140
1.0
141
4.0
290
     0
  0
SCALE
  5
5C
102
{ACAD_REACTORS
330
58
102
}
330
58
100
AcDbScale
 70
     0
300
1:5
140
1.0
141
5.0
290
     0
  0
SCALE
  5
5D
102
{ACAD_REACTORS
330
58
102
}
330
58
100
AcDbScale
 70
     0
300
1:8
140
1.0
141
8.0
290
     0
  0
SCALE
  5
5E
102
{ACAD_REACTORS
330
58
102
}
330
58
100
AcDbScale
 70
     0
300
1:10
140
1.0
141
10.0
290
     0
  0
SCALE
  5
5F
102
{ACAD_REACTORS
330
58
102
}
330
58
100
AcDbScale
 70
     0
300
1:16
140
1.0
141
16.0
290
     0
  0
SCALE
  5
60
102
{ACAD_REACTORS
330
58
102
}
330
58
100
AcDbScale
 70
     0
300
1:20
140
1.0
141
20.0
290
     0
  0
SCALE
  5
61
102
{ACAD_REACTORS
330
58
102
}
330
58
100
AcDbScale
 70
     0
300
1:30
140
1.0
141
30.0
290
     0
  0
SCALE
  5
62
102
{ACAD_REACTORS
330
58
102
}
330
58
100
AcDbScale
 70
     0
300
1:40
140
1.0
141
40.0
290
     0
  0
SCALE
  5
63
102
{ACAD_REACTORS
330
58
102
}
330
58
100
AcDbScale
 70
     0
300
1:50
140
1.0
141
50.0
290
     0
  0
SCALE
  5
64
102
{ACAD_REACTORS
330
58
102
}
330
58
100
AcDbScale
 70
     0
300
1:100
140
1.0
141
100.0
290
     0
  0
SCALE
  5
65
102
{ACAD_REACTORS
330
58
102
}
330
58
100
AcDbScale
 70
     0
300
2:1
140
2.0
141
1.0
290
     0
  0
SCALE
  5
66
102
{ACAD_REACTORS
330
58
102
}
330
58
100
AcDbScale
 70
     0
300
4:1
140
4.0
141
1.0
290
     0
  0
SCALE
  5
67
102
{ACAD_REACTORS
330
58
102
}
330
58
100
AcDbScale
 70
     0
300
8:1
140
8.0
141
1.0
290
     0
  0
SCALE
  5
68
102
{ACAD_REACTORS
330
58
102
}
330
58
100
AcDbScale
 70
     0
300
10:1
140
10.0
141
1.0
290
     0
  0
SCALE
  5
69
102
{ACAD_REACTORS
330
58
102
}
330
58
100
AcDbScale
 70
     0
300
100:1
140
100.0
141
1.0
290
     0
  0
SCALE
  5
6A
102
{ACAD_REACTORS
330
58
102
}
330
58
100
AcDbScale
 70
     0
300
1/128" = 1'-0"
140
0.0078125
141
12.0
290
     0
  0
SCALE
  5
6B
102
{ACAD_REACTORS
330
58
102
}
330
58
100
AcDbScale
 70
     0
300
1/64" = 1'-0"
140
0.015625
141
12.0
290
     0
  0
SCALE
  5
6C
102
{ACAD_REACTORS
330
58
102
}
330
58
100
AcDbScale
 70
     0
300
1/32" = 1'-0"
140
0.03125
141
12.0
290
     0
  0
SCALE
  5
6D
102
{ACAD_REACTORS
330
58
102
}
330
58
100
AcDbScale
 70
     0
300
1/16" = 1'-0"
140
0.0625
141
12.0
290
     0
  0
SCALE
  5
6E
102
{ACAD_REACTORS
330
58
102
}
330
58
100
AcDbScale
 70
     0
300
3/32" = 1'-0"
140
0.09375
141
12.0
290
     0
  0
SCALE
  5
6F
102
{ACAD_REACTORS
330
58
102
}
330
58
100
AcDbScale
 70
     0
300
1/8" = 1'-0"
140
0.125
141
12.0
290
     0
  0
SCALE
  5
70
102
{ACAD_REACTORS
330
58
102
}
330
58
100
AcDbScale
 70
     0
300
3/16" = 1'-0"
140
0.1875
141
12.0
290
     0
  0
SCALE
  5
71
102
{ACAD_REACTORS
330
58
102
}
330
58
100
AcDbScale
 70
     0
300
1/4" = 1'-0"
140
0.25
141
12.0
290
     0
  0
SCALE
  5
72
102
{ACAD_REACTORS
330
58
102
}
330
58
100
AcDbScale
 70
     0
300
3/8" = 1'-0"
140
0.375
141
12.0
290
     0
  0
SCALE
  5
73
102
{ACAD_REACTORS
330
58
102
}
330
58
100
AcDbScale
 70
     0
300
1/2" = 1'-0"
140
0.5
141
12.0
290
     0
  0
SCALE
  5
74
102
{ACAD_REACTORS
330
58
102
}
330
58
100
AcDbScale
 70
     0
300
3/4" = 1'-0"
140
0.75
141
12.0
290
     0
  0
SCALE
  5
75
102
{ACAD_REACTORS
330
58
102
}
330
58
100
AcDbScale
 70
     0
300
1" = 1'-0"
140
1.0
141
12.0
290
     0
  0
SCALE
  5
76
102
{ACAD_REACTORS
330
58
102
}
330
58
100
AcDbScale
 70
     0
300
1-1/2" = 1'-0"
140
1.5
141
12.0
290
     0
  0
SCALE
  5
77
102
{ACAD_REACTORS
330
58
102
}
330
58
100
AcDbScale
 70
     0
300
3" = 1'-0"
140
3.0
141
12.0
290
     0
  0
SCALE
  5
78
102
{ACAD_REACTORS
330
58
102
}
330
58
100
AcDbScale
 70
     0
300
6" = 1'-0"
140
6.0
141
12.0
290
     0
  0
SCALE
  5
79
102
{ACAD_REACTORS
330
58
102
}
330
58
100
AcDbScale
 70
     0
300
1'-0" = 1'-0"
140
12.0
141
12.0
290
     0
  0
VISUALSTYLE
  5
2F
102
{ACAD_REACTORS
330
2A
102
}
102
{ACAD_XDICTIONARY
360
40F
102
}
330
2A
100
AcDbVisualStyle
  2
2dWireframe
 70
     4
 71
     0
 72
     2
 73
     0
 90
        0
 40
-0.6
 41
-30.0
 62
     5
 63
     7
 74
     1
 91
        4
 64
     7
 65
   257
 75
     1
175
     1
 42
1.0
 92
        0
 66
   257
 43
1.0
 76
     1
 77
     6
 78
     2
 67
     7
 79
     5
170
     0
171
     0
290
     0
174
     0
 93
        1
 44
0.0
173
     0
291
     0
 45
0.0
1001
ACAD
1000
AcDbSavedByObjectVersion
1070
     0
  0
VISUALSTYLE
  5
31
102
{ACAD_REACTORS
330
2A
102
}
102
{ACAD_XDICTIONARY
360
413
102
}
330
2A
100
AcDbVisualStyle
  2
3D Hidden
 70
     6
 71
     1
 72
     2
 73
     2
 90
        0
 40
-0.6
 41
-30.0
 62
     5
 63
     7
 74
     2
 91
        2
 64
     7
 65
   257
 75
     2
175
     1
 42
40.0
 92
        0
 66
   257
 43
1.0
 76
     1
 77
     6
 78
     2
 67
     7
 79
     3
170
     0
171
     0
290
     0
174
     0
 93
        1
 44
0.0
173
     0
291
     0
 45
0.0
1001
ACAD
1000
AcDbSavedByObjectVersion
1070
     0
  0
VISUALSTYLE
  5
30
102
{ACAD_REACTORS
330
2A
102
}
102
{ACAD_XDICTIONARY
360
411
102
}
330
2A
100
AcDbVisualStyle
  2
3dWireframe
 70
     5
 71
     0
 72
     2
 73
     0
 90
        0
 40
-0.6
 41
-30.0
 62
     5
 63
     7
 74
     1
 91
        4
 64
     7
 65
   257
 75
     1
175
     1
 42
1.0
 92
        0
 66
   257
 43
1.0
 76
     1
 77
     6
 78
     2
 67
     7
 79
     5
170
     0
171
     0
290
     0
174
     0
 93
        1
 44
0.0
173
     0
291
     0
 45
0.0
1001
ACAD
1000
AcDbSavedByObjectVersion
1070
     0
  0
VISUALSTYLE
  5
32
102
{ACAD_REACTORS
330
2A
102
}
102
{ACAD_XDICTIONARY
360
415
102
}
330
2A
100
AcDbVisualStyle
  2
Basic
 70
     7
 71
     1
 72
     0
 73
     1
 90
        0
 40
-0.6
 41
-30.0
 62
     5
 63
     7
 74
     0
 91
        4
 64
     7
 65
   257
 75
     1
175
     1
 42
1.0
 92
        8
 66
     7
 43
1.0
 76
     1
 77
     6
 78
     2
 67
     7
 79
     5
170
     0
171
     0
290
     0
174
     0
 93
        1
 44
0.0
173
     0
291
     1
 45
0.0
1001
ACAD
1000
AcDbSavedByObjectVersion
1070
     0
  0
VISUALSTYLE
  5
36
102
{ACAD_REACTORS
330
2A
102
}
102
{ACAD_XDICTIONARY
360
41D
102
}
330
2A
100
AcDbVisualStyle
  2
Brighten
 70
    12
 71
     2
 72
     2
 73
     0
 90
        0
 40
-0.6
 41
-30.0
 62
     5
 63
     7
 74
     1
 91
        4
 64
     7
 65
   257
 75
     1
175
     1
 42
1.0
 92
        8
 66
     7
 43
1.0
 76
     1
 77
     6
 78
     2
 67
     7
 79
     5
170
     0
171
     0
290
     0
174
     0
 93
        1
 44
50.0
173
     0
291
     1
 45
0.0
1001
ACAD
1000
AcDbSavedByObjectVersion
1070
     0
  0
VISUALSTYLE
  5
3A
102
{ACAD_REACTORS
330
2A
102
}
102
{ACAD_XDICTIONARY
360
425
102
}
330
2A
100
AcDbVisualStyle
  2
ColorChange
 70
    16
 71
     2
 72
     2
 73
     3
 90
        0
 40
-0.6
 41
-30.0
 62
     5
 63
     8
 74
     1
 91
        4
 64
     7
 65
   257
 75
     1
175
     1
 42
1.0
 92
        8
 66
     8
 43
1.0
 76
     1
 77
     6
 78
     2
 67
     7
 79
     5
170
     0
171
     0
290
     0
174
     0
 93
        1
 44
0.0
173
     0
291
     1
 45
0.0
1001
ACAD
1000
AcDbSavedByObjectVersion
1070
     0
  0
VISUALSTYLE
  5
34
102
{ACAD_REACTORS
330
2A
102
}
102
{ACAD_XDICTIONARY
360
419
102
}
330
2A
100
AcDbVisualStyle
  2
Conceptual
 70
     9
 71
     3
 72
     2
 73
     0
 90
        0
 40
-0.6
 41
-30.0
 62
     5
 63
     7
 74
     2
 91
        2
 64
     7
 65
   257
 75
     1
175
     1
 42
40.0
 92
        8
 66
     7
 43
1.0
 76
     1
 77
     6
 78
     2
 67
     7
 79
     3
170
     0
171
     0
290
     0
174
     0
 93
        1
 44
0.0
173
     0
291
     0
 45
0.0
1001
ACAD
1000
AcDbSavedByObjectVersion
1070
     0
  0
VISUALSTYLE
  5
35
102
{ACAD_REACTORS
330
2A
102
}
102
{ACAD_XDICTIONARY
360
41B
102
}
330
2A
100
AcDbVisualStyle
  2
Dim
 70
    11
 71
     2
 72
     2
 73
     0
 90
        0
 40
-0.6
 41
-30.0
 62
     5
 63
     7
 74
     1
 91
        4
 64
     7
 65
   257
 75
     1
175
     1
 42
1.0
 92
        8
 66
     7
 43
1.0
 76
     1
 77
     6
 78
     2
 67
     7
 79
     5
170
     0
171
     0
290
     0
174
     0
 93
        1
 44
-50.0
173
     0
291
     1
 45
0.0
1001
ACAD
1000
AcDbSavedByObjectVersion
1070
     0
  0
VISUALSTYLE
  5
39
102
{ACAD_REACTORS
330
2A
102
}
102
{ACAD_XDICTIONARY
360
423
102
}
330
2A
100
AcDbVisualStyle
  2
Facepattern
 70
    15
 71
     2
 72
     2
 73
     0
 90
        0
 40
-0.6
 41
-30.0
 62
     5
 63
     7
 74
     1
 91
        4
 64
     7
 65
   257
 75
     1
175
     1
 42
1.0
 92
        8
 66
     7
 43
1.0
 76
     1
 77
     6
 78
     2
 67
     7
 79
     5
170
     0
171
     0
290
     0
174
     0
 93
        1
 44
0.0
173
     0
291
     1
 45
0.0
1001
ACAD
1000
AcDbSavedByObjectVersion
1070
     0
  0
VISUALSTYLE
  5
2B
102
{ACAD_REACTORS
330
2A
102
}
102
{ACAD_XDICTIONARY
360
407
102
}
330
2A
100
AcDbVisualStyle
  2
Flat
 70
     0
 71
     2
 72
     1
 73
     1
 90
        2
 40
-0.6
 41
30.0
 62
     5
 63
     7
 74
     0
 91
        4
 64
     7
 65
   257
 75
     1
175
     1
 42
1.0
 92
        8
 66
     7
 43
1.0
 76
     1
 77
     6
 78
     2
 67
     7
 79
     5
170
     0
171
     0
290
     0
174
     0
 93
       13
 44
0.0
173
     0
291
     1
 45
0.0
1001
ACAD
1000
AcDbSavedByObjectVersion
1070
     0
  0
VISUALSTYLE
  5
2C
102
{ACAD_REACTORS
330
2A
102
}
102
{ACAD_XDICTIONARY
360
409
102
}
330
2A
100
AcDbVisualStyle
  2
FlatWithEdges
 70
     1
 71
     2
 72
     1
 73
     1
 90
        2
 40
-0.6
 41
30.0
 62
     5
 63
     7
 74
     1
 91
        4
 64
     7
 65
   257
 75
     1
175
     1
 42
1.0
 92
        0
 66
   257
 43
1.0
 76
     1
 77
     6
 78
     2
 67
     7
 79
     5
170
     0
171
     0
290
     0
174
     0
 93
       13
 44
0.0
173
     0
291
     1
 45
0.0
1001
ACAD
1000
AcDbSavedByObjectVersion
1070
     0
  0
VISUALSTYLE
  5
2D
102
{ACAD_REACTORS
330
2A
102
}
102
{ACAD_XDICTIONARY
360
40B
102
}
330
2A
100
AcDbVisualStyle
  2
Gouraud
 70
     2
 71
     2
 72
     2
 73
     1
 90
        2
 40
-0.6
 41
30.0
 62
     5
 63
     7
 74
     0
 91
        4
 64
     7
 65
   257
 75
     1
175
     1
 42
1.0
 92
        0
 66
     7
 43
1.0
 76
     1
 77
     6
 78
     2
 67
     7
 79
     5
170
     0
171
     0
290
     0
174
     0
 93
       13
 44
0.0
173
     0
291
     1
 45
0.0
1001
ACAD
1000
AcDbSavedByObjectVersion
1070
     0
  0
VISUALSTYLE
  5
2E
102
{ACAD_REACTORS
330
2A
102
}
102
{ACAD_XDICTIONARY
360
40D
102
}
330
2A
100
AcDbVisualStyle
  2
GouraudWithEdges
 70
     3
 71
     2
 72
     2
 73
     1
 90
        2
 40
-0.6
 41
30.0
 62
     5
 63
     7
 74
     1
 91
        4
 64
     7
 65
   257
 75
     1
175
     1
 42
1.0
 92
        0
 66
   257
 43
1.0
 76
     1
 77
     6
 78
     2
 67
     7
 79
     5
170
     0
171
     0
290
     0
174
     0
 93
       13
 44
0.0
173
     0
291
     1
 45
0.0
1001
ACAD
1000
AcDbSavedByObjectVersion
1070
     0
  0
VISUALSTYLE
  5
38
102
{ACAD_REACTORS
330
2A
102
}
102
{ACAD_XDICTIONARY
360
421
102
}
330
2A
100
AcDbVisualStyle
  2
Linepattern
 70
    14
 71
     2
 72
     2
 73
     0
 90
        0
 40
-0.6
 41
-30.0
 62
     5
 63
     7
 74
     1
 91
        4
 64
     7
 65
   257
 75
     7
175
     7
 42
1.0
 92
        8
 66
     7
 43
1.0
 76
     1
 77
     6
 78
     2
 67
     7
 79
     5
170
     0
171
     0
290
     0
174
     0
 93
        1
 44
0.0
173
     0
291
     1
 45
0.0
1001
ACAD
1000
AcDbSavedByObjectVersion
1070
     0
  0
VISUALSTYLE
  5
33
102
{ACAD_REACTORS
330
2A
102
}
102
{ACAD_XDICTIONARY
360
417
102
}
330
2A
100
AcDbVisualStyle
  2
Realistic
 70
     8
 71
     2
 72
     2
 73
     0
 90
        0
 40
-0.6
 41
-30.0
 62
     5
 63
     7
 74
     1
 91
        0
 64
     7
 65
   257
 75
     1
175
     1
 42
1.0
 92
        8
 66
     8
 43
1.0
 76
     1
 77
     6
 78
     2
 67
     7
 79
     5
170
     0
171
     0
290
     0
174
     0
 93
       13
 44
0.0
173
     0
291
     0
 45
0.0
1001
ACAD
1000
AcDbSavedByObjectVersion
1070
     0
  0
VISUALSTYLE
  5
37
102
{ACAD_REACTORS
330
2A
102
}
102
{ACAD_XDICTIONARY
360
41F
102
}
330
2A
100
AcDbVisualStyle
  2
Thicken
 70
    13
 71
     2
 72
     2
 73
     0
 90
        0
 40
-0.6
 41
-30.0
 62
     5
 63
     7
 74
     1
 91
        4
 64
     7
 65
   257
 75
     1
175
     1
 42
1.0
 92
       12
 66
     7
 43
1.0
 76
     1
 77
     6
 78
     2
 67
     7
 79
     5
170
     0
171
     0
290
     0
174
     0
 93
        1
 44
0.0
173
     0
291
     1
 45
0.0
1001
ACAD
1000
AcDbSavedByObjectVersion
1070
     0
  0
DICTIONARYVAR
  5
404
102
{ACAD_REACTORS
330
401
102
}
330
401
100
DictionaryVariables
280
     0
  1
1:1
  0
DICTIONARYVAR
  5
405
102
{ACAD_REACTORS
330
401
102
}
330
401
100
DictionaryVariables
280
     0
  1
2
  0
DICTIONARYVAR
  5
406
102
{ACAD_REACTORS
330
401
102
}
330
401
100
DictionaryVariables
280
     0
  1
1
  0
DICTIONARY
  5
429
330
3D
100
AcDbDictionary
280
     1
281
     1
  3
ACAD_XREC_ROUNDTRIP
360
42A
  0
DICTIONARY
  5
427
330
3C
100
AcDbDictionary
280
     1
281
     1
  3
ACAD_XREC_ROUNDTRIP
360
428
  0
DICTIONARY
  5
42B
330
3E
100
AcDbDictionary
280
     1
281
     1
  3
ACAD_XREC_ROUNDTRIP
360
42C
  0
DICTIONARY
  5
40F
330
2F
100
AcDbDictionary
280
     1
281
     1
  3
ACAD_XREC_ROUNDTRIP
360
410
  0
DICTIONARY
  5
413
330
31
100
AcDbDictionary
280
     1
281
     1
  3
ACAD_XREC_ROUNDTRIP
360
414
  0
DICTIONARY
  5
411
330
30
100
AcDbDictionary
280
     1
281
     1
  3
ACAD_XREC_ROUNDTRIP
360
412
  0
DICTIONARY
  5
415
330
32
100
AcDbDictionary
280
     1
281
     1
  3
ACAD_XREC_ROUNDTRIP
360
416
  0
DICTIONARY
  5
41D
330
36
100
AcDbDictionary
280
     1
281
     1
  3
ACAD_XREC_ROUNDTRIP
360
41E
  0
DICTIONARY
  5
425
330
3A
100
AcDbDictionary
280
     1
281
     1
  3
ACAD_XREC_ROUNDTRIP
360
426
  0
DICTIONARY
  5
419
330
34
100
AcDbDictionary
280
     1
281
     1
  3
ACAD_XREC_ROUNDTRIP
360
41A
  0
DICTIONARY
  5
41B
330
35
100
AcDbDictionary
280
     1
281
     1
  3
ACAD_XREC_ROUNDTRIP
360
41C
  0
DICTIONARY
  5
423
330
39
100
AcDbDictionary
280
     1
281
     1
  3
ACAD_XREC_ROUNDTRIP
360
424
  0
DICTIONARY
  5
407
330
2B
100
AcDbDictionary
280
     1
281
     1
  3
ACAD_XREC_ROUNDTRIP
360
408
  0
DICTIONARY
  5
409
330
2C
100
AcDbDictionary
280
     1
281
     1
  3
ACAD_XREC_ROUNDTRIP
360
40A
  0
DICTIONARY
  5
40B
330
2D
100
AcDbDictionary
280
     1
281
     1
  3
ACAD_XREC_ROUNDTRIP
360
40C
  0
DICTIONARY
  5
40D
330
2E
100
AcDbDictionary
280
     1
281
     1
  3
ACAD_XREC_ROUNDTRIP
360
40E
  0
DICTIONARY
  5
421
330
38
100
AcDbDictionary
280
     1
281
     1
  3
ACAD_XREC_ROUNDTRIP
360
422
  0
DICTIONARY
  5
417
330
33
100
AcDbDictionary
280
     1
281
     1
  3
ACAD_XREC_ROUNDTRIP
360
418
  0
DICTIONARY
  5
41F
330
37
100
AcDbDictionary
280
     1
281
     1
  3
ACAD_XREC_ROUNDTRIP
360
420
  0
XRECORD
  5
42A
102
{ACAD_REACTORS
330
429
102
}
330
429
100
AcDbXrecord
280
     1
102
MATERIAL
148
0.0
149
0.0
149
0.0
 93
        0
 94
      127
282
     0
 72
     1
 77
     1
171
     1
175
     1
179
     1
273
     0
  0
XRECORD
  5
428
102
{ACAD_REACTORS
330
427
102
}
330
427
100
AcDbXrecord
280
     1
102
MATERIAL
148
0.0
149
0.0
149
0.0
 93
        0
 94
      127
282
     0
 72
     1
 77
     1
171
     1
175
     1
179
     1
273
     0
  0
XRECORD
  5
42C
102
{ACAD_REACTORS
330
42B
102
}
330
42B
100
AcDbXrecord
280
     1
102
MATERIAL
148
0.0
149
0.0
149
0.0
 93
        0
 94
      127
282
     0
 72
     1
 77
     1
171
     1
175
     1
179
     1
273
     0
  0
XRECORD
  5
410
102
{ACAD_REACTORS
330
40F
102
}
330
40F
100
AcDbXrecord
280
     1
102
RTVSPropertyOp0
 70
     1
102
RTVSPropertyOp1
 70
     1
102
RTVSPropertyOp2
 70
     1
102
RTVSPropertyOp3
 70
     1
102
RTVSPropertyOp4
 70
     1
102
RTVSPropertyOp5
 70
     1
102
RTVSPropertyOp6
 70
     1
102
RTVSPropertyOp7
 70
     1
102
RTVSPropertyOp8
 70
     1
102
RTVSPropertyOp9
 70
     1
102
RTVSPropertyOp10
 70
     1
102
RTVSPropertyOp11
 70
     1
102
RTVSPropertyOp12
 70
     1
102
RTVSPropertyOp13
 70
     1
102
RTVSPropertyOp14
 70
     1
102
RTVSPropertyOp15
 70
     1
102
RTVSPropertyOp16
 70
     1
102
RTVSPropertyOp17
 70
     1
102
RTVSPropertyOp18
 70
     1
102
RTVSPropertyOp19
 70
     1
102
RTVSPropertyOp20
 70
     1
102
RTVSPropertyOp21
 70
     1
102
RTVSPropertyOp22
 70
     1
102
RTVSPropertyOp23
 70
     1
102
RTVSPropertyOp24
 70
     1
102
RTVSPropertyOp25
 70
     1
102
RTVSPropertyOp26
 70
     1
102
RTVSPropertyOp27
 70
     1
  0
XRECORD
  5
414
102
{ACAD_REACTORS
330
413
102
}
330
413
100
AcDbXrecord
280
     1
102
RTVSPropertyOp0
 70
     1
102
RTVSPropertyOp1
 70
     1
102
RTVSPropertyOp2
 70
     1
102
RTVSPropertyOp3
 70
     1
102
RTVSPropertyOp4
 70
     1
102
RTVSPropertyOp5
 70
     1
102
RTVSPropertyOp6
 70
     1
102
RTVSPropertyOp7
 70
     1
102
RTVSPropertyOp8
 70
     1
102
RTVSPropertyOp9
 70
     1
102
RTVSPropertyOp10
 70
     1
102
RTVSPropertyOp11
 70
     1
102
RTVSPropertyOp12
 70
     1
102
RTVSPropertyOp13
 70
     1
102
RTVSPropertyOp14
 70
     1
102
RTVSPropertyOp15
 70
     1
102
RTVSPropertyOp16
 70
     1
102
RTVSPropertyOp17
 70
     1
102
RTVSPropertyOp18
 70
     1
102
RTVSPropertyOp19
 70
     1
102
RTVSPropertyOp20
 70
     1
102
RTVSPropertyOp21
 70
     1
102
RTVSPropertyOp22
 70
     1
102
RTVSPropertyOp23
 70
     1
102
RTVSPropertyOp24
 70
     1
102
RTVSPropertyOp25
 70
     1
102
RTVSPropertyOp26
 70
     1
102
RTVSPropertyOp27
 70
     1
  0
XRECORD
  5
412
102
{ACAD_REACTORS
330
411
102
}
330
411
100
AcDbXrecord
280
     1
102
RTVSPropertyOp0
 70
     1
102
RTVSPropertyOp1
 70
     1
102
RTVSPropertyOp2
 70
     1
102
RTVSPropertyOp3
 70
     1
102
RTVSPropertyOp4
 70
     1
102
RTVSPropertyOp5
 70
     1
102
RTVSPropertyOp6
 70
     1
102
RTVSPropertyOp7
 70
     1
102
RTVSPropertyOp8
 70
     1
102
RTVSPropertyOp9
 70
     1
102
RTVSPropertyOp10
 70
     1
102
RTVSPropertyOp11
 70
     1
102
RTVSPropertyOp12
 70
     1
102
RTVSPropertyOp13
 70
     1
102
RTVSPropertyOp14
 70
     1
102
RTVSPropertyOp15
 70
     1
102
RTVSPropertyOp16
 70
     1
102
RTVSPropertyOp17
 70
     1
102
RTVSPropertyOp18
 70
     1
102
RTVSPropertyOp19
 70
     1
102
RTVSPropertyOp20
 70
     1
102
RTVSPropertyOp21
 70
     1
102
RTVSPropertyOp22
 70
     1
102
RTVSPropertyOp23
 70
     1
102
RTVSPropertyOp24
 70
     1
102
RTVSPropertyOp25
 70
     1
102
RTVSPropertyOp26
 70
     1
102
RTVSPropertyOp27
 70
     1
  0
XRECORD
  5
416
102
{ACAD_REACTORS
330
415
102
}
330
415
100
AcDbXrecord
280
     1
102
RTVSPropertyOp0
 70
     1
102
RTVSPropertyOp1
 70
     1
102
RTVSPropertyOp2
 70
     1
102
RTVSPropertyOp3
 70
     1
102
RTVSPropertyOp4
 70
     1
102
RTVSPropertyOp5
 70
     1
102
RTVSPropertyOp6
 70
     1
102
RTVSPropertyOp7
 70
     1
102
RTVSPropertyOp8
 70
     1
102
RTVSPropertyOp9
 70
     1
102
RTVSPropertyOp10
 70
     1
102
RTVSPropertyOp11
 70
     1
102
RTVSPropertyOp12
 70
     1
102
RTVSPropertyOp13
 70
     1
102
RTVSPropertyOp14
 70
     1
102
RTVSPropertyOp15
 70
     1
102
RTVSPropertyOp16
 70
     1
102
RTVSPropertyOp17
 70
     1
102
RTVSPropertyOp18
 70
     1
102
RTVSPropertyOp19
 70
     1
102
RTVSPropertyOp20
 70
     1
102
RTVSPropertyOp21
 70
     1
102
RTVSPropertyOp22
 70
     1
102
RTVSPropertyOp23
 70
     1
102
RTVSPropertyOp24
 70
     1
102
RTVSPropertyOp25
 70
     1
102
RTVSPropertyOp26
 70
     1
102
RTVSPropertyOp27
 70
     1
  0
XRECORD
  5
41E
102
{ACAD_REACTORS
330
41D
102
}
330
41D
100
AcDbXrecord
280
     1
102
RTVSPropertyOp0
 70
     1
102
RTVSPropertyOp1
 70
     1
102
RTVSPropertyOp2
 70
     1
102
RTVSPropertyOp3
 70
     1
102
RTVSPropertyOp4
 70
     1
102
RTVSPropertyOp5
 70
     1
102
RTVSPropertyOp6
 70
     1
102
RTVSPropertyOp7
 70
     1
102
RTVSPropertyOp8
 70
     1
102
RTVSPropertyOp9
 70
     1
102
RTVSPropertyOp10
 70
     1
102
RTVSPropertyOp11
 70
     1
102
RTVSPropertyOp12
 70
     1
102
RTVSPropertyOp13
 70
     1
102
RTVSPropertyOp14
 70
     1
102
RTVSPropertyOp15
 70
     1
102
RTVSPropertyOp16
 70
     1
102
RTVSPropertyOp17
 70
     1
102
RTVSPropertyOp18
 70
     1
102
RTVSPropertyOp19
 70
     1
102
RTVSPropertyOp20
 70
     1
102
RTVSPropertyOp21
 70
     1
102
RTVSPropertyOp22
 70
     1
102
RTVSPropertyOp23
 70
     1
102
RTVSPropertyOp24
 70
     1
102
RTVSPropertyOp25
 70
     1
102
RTVSPropertyOp26
 70
     1
102
RTVSPropertyOp27
 70
     1
  0
XRECORD
  5
426
102
{ACAD_REACTORS
330
425
102
}
330
425
100
AcDbXrecord
280
     1
102
RTVSPropertyOp0
 70
     1
102
RTVSPropertyOp1
 70
     1
102
RTVSPropertyOp2
 70
     1
102
RTVSPropertyOp3
 70
     1
102
RTVSPropertyOp4
 70
     1
102
RTVSPropertyOp5
 70
     1
102
RTVSPropertyOp6
 70
     1
102
RTVSPropertyOp7
 70
     1
102
RTVSPropertyOp8
 70
     1
102
RTVSPropertyOp9
 70
     1
102
RTVSPropertyOp10
 70
     1
102
RTVSPropertyOp11
 70
     1
102
RTVSPropertyOp12
 70
     1
102
RTVSPropertyOp13
 70
     1
102
RTVSPropertyOp14
 70
     1
102
RTVSPropertyOp15
 70
     1
102
RTVSPropertyOp16
 70
     1
102
RTVSPropertyOp17
 70
     1
102
RTVSPropertyOp18
 70
     1
102
RTVSPropertyOp19
 70
     1
102
RTVSPropertyOp20
 70
     1
102
RTVSPropertyOp21
 70
     1
102
RTVSPropertyOp22
 70
     1
102
RTVSPropertyOp23
 70
     1
102
RTVSPropertyOp24
 70
     1
102
RTVSPropertyOp25
 70
     1
102
RTVSPropertyOp26
 70
     1
102
RTVSPropertyOp27
 70
     1
  0
XRECORD
  5
41A
102
{ACAD_REACTORS
330
419
102
}
330
419
100
AcDbXrecord
280
     1
102
RTVSPropertyOp0
 70
     1
102
RTVSPropertyOp1
 70
     1
102
RTVSPropertyOp2
 70
     1
102
RTVSPropertyOp3
 70
     1
102
RTVSPropertyOp4
 70
     1
102
RTVSPropertyOp5
 70
     1
102
RTVSPropertyOp6
 70
     1
102
RTVSPropertyOp7
 70
     1
102
RTVSPropertyOp8
 70
     1
102
RTVSPropertyOp9
 70
     1
102
RTVSPropertyOp10
 70
     1
102
RTVSPropertyOp11
 70
     1
102
RTVSPropertyOp12
 70
     1
102
RTVSPropertyOp13
 70
     1
102
RTVSPropertyOp14
 70
     1
102
RTVSPropertyOp15
 70
     1
102
RTVSPropertyOp16
 70
     1
102
RTVSPropertyOp17
 70
     1
102
RTVSPropertyOp18
 70
     1
102
RTVSPropertyOp19
 70
     1
102
RTVSPropertyOp20
 70
     1
102
RTVSPropertyOp21
 70
     1
102
RTVSPropertyOp22
 70
     1
102
RTVSPropertyOp23
 70
     1
102
RTVSPropertyOp24
 70
     1
102
RTVSPropertyOp25
 70
     1
102
RTVSPropertyOp26
 70
     1
102
RTVSPropertyOp27
 70
     1
  0
XRECORD
  5
41C
102
{ACAD_REACTORS
330
41B
102
}
330
41B
100
AcDbXrecord
280
     1
102
RTVSPropertyOp0
 70
     1
102
RTVSPropertyOp1
 70
     1
102
RTVSPropertyOp2
 70
     1
102
RTVSPropertyOp3
 70
     1
102
RTVSPropertyOp4
 70
     1
102
RTVSPropertyOp5
 70
     1
102
RTVSPropertyOp6
 70
     1
102
RTVSPropertyOp7
 70
     1
102
RTVSPropertyOp8
 70
     1
102
RTVSPropertyOp9
 70
     1
102
RTVSPropertyOp10
 70
     1
102
RTVSPropertyOp11
 70
     1
102
RTVSPropertyOp12
 70
     1
102
RTVSPropertyOp13
 70
     1
102
RTVSPropertyOp14
 70
     1
102
RTVSPropertyOp15
 70
     1
102
RTVSPropertyOp16
 70
     1
102
RTVSPropertyOp17
 70
     1
102
RTVSPropertyOp18
 70
     1
102
RTVSPropertyOp19
 70
     1
102
RTVSPropertyOp20
 70
     1
102
RTVSPropertyOp21
 70
     1
102
RTVSPropertyOp22
 70
     1
102
RTVSPropertyOp23
 70
     1
102
RTVSPropertyOp24
 70
     1
102
RTVSPropertyOp25
 70
     1
102
RTVSPropertyOp26
 70
     1
102
RTVSPropertyOp27
 70
     1
  0
XRECORD
  5
424
102
{ACAD_REACTORS
330
423
102
}
330
423
100
AcDbXrecord
280
     1
102
RTVSPropertyOp0
 70
     1
102
RTVSPropertyOp1
 70
     1
102
RTVSPropertyOp2
 70
     1
102
RTVSPropertyOp3
 70
     1
102
RTVSPropertyOp4
 70
     1
102
RTVSPropertyOp5
 70
     1
102
RTVSPropertyOp6
 70
     1
102
RTVSPropertyOp7
 70
     1
102
RTVSPropertyOp8
 70
     1
102
RTVSPropertyOp9
 70
     1
102
RTVSPropertyOp10
 70
     1
102
RTVSPropertyOp11
 70
     1
102
RTVSPropertyOp12
 70
     1
102
RTVSPropertyOp13
 70
     1
102
RTVSPropertyOp14
 70
     1
102
RTVSPropertyOp15
 70
     1
102
RTVSPropertyOp16
 70
     1
102
RTVSPropertyOp17
 70
     1
102
RTVSPropertyOp18
 70
     1
102
RTVSPropertyOp19
 70
     1
102
RTVSPropertyOp20
 70
     1
102
RTVSPropertyOp21
 70
     1
102
RTVSPropertyOp22
 70
     1
102
RTVSPropertyOp23
 70
     1
102
RTVSPropertyOp24
 70
     1
102
RTVSPropertyOp25
 70
     1
102
RTVSPropertyOp26
 70
     1
102
RTVSPropertyOp27
 70
     1
  0
XRECORD
  5
408
102
{ACAD_REACTORS
330
407
102
}
330
407
100
AcDbXrecord
280
     1
102
RTVSPropertyOp0
 70
     1
102
RTVSPropertyOp1
 70
     1
102
RTVSPropertyOp2
 70
     1
102
RTVSPropertyOp3
 70
     1
102
RTVSPropertyOp4
 70
     1
102
RTVSPropertyOp5
 70
     1
102
RTVSPropertyOp6
 70
     1
102
RTVSPropertyOp7
 70
     1
102
RTVSPropertyOp8
 70
     1
102
RTVSPropertyOp9
 70
     1
102
RTVSPropertyOp10
 70
     1
102
RTVSPropertyOp11
 70
     1
102
RTVSPropertyOp12
 70
     1
102
RTVSPropertyOp13
 70
     1
102
RTVSPropertyOp14
 70
     1
102
RTVSPropertyOp15
 70
     1
102
RTVSPropertyOp16
 70
     1
102
RTVSPropertyOp17
 70
     1
102
RTVSPropertyOp18
 70
     1
102
RTVSPropertyOp19
 70
     1
102
RTVSPropertyOp20
 70
     1
102
RTVSPropertyOp21
 70
     1
102
RTVSPropertyOp22
 70
     1
102
RTVSPropertyOp23
 70
     1
102
RTVSPropertyOp24
 70
     1
102
RTVSPropertyOp25
 70
     1
102
RTVSPropertyOp26
 70
     1
102
RTVSPropertyOp27
 70
     1
  0
XRECORD
  5
40A
102
{ACAD_REACTORS
330
409
102
}
330
409
100
AcDbXrecord
280
     1
102
RTVSPropertyOp0
 70
     1
102
RTVSPropertyOp1
 70
     1
102
RTVSPropertyOp2
 70
     1
102
RTVSPropertyOp3
 70
     1
102
RTVSPropertyOp4
 70
     1
102
RTVSPropertyOp5
 70
     1
102
RTVSPropertyOp6
 70
     1
102
RTVSPropertyOp7
 70
     1
102
RTVSPropertyOp8
 70
     1
102
RTVSPropertyOp9
 70
     1
102
RTVSPropertyOp10
 70
     1
102
RTVSPropertyOp11
 70
     1
102
RTVSPropertyOp12
 70
     1
102
RTVSPropertyOp13
 70
     1
102
RTVSPropertyOp14
 70
     1
102
RTVSPropertyOp15
 70
     1
102
RTVSPropertyOp16
 70
     1
102
RTVSPropertyOp17
 70
     1
102
RTVSPropertyOp18
 70
     1
102
RTVSPropertyOp19
 70
     1
102
RTVSPropertyOp20
 70
     1
102
RTVSPropertyOp21
 70
     1
102
RTVSPropertyOp22
 70
     1
102
RTVSPropertyOp23
 70
     1
102
RTVSPropertyOp24
 70
     1
102
RTVSPropertyOp25
 70
     1
102
RTVSPropertyOp26
 70
     1
102
RTVSPropertyOp27
 70
     1
  0
XRECORD
  5
40C
102
{ACAD_REACTORS
330
40B
102
}
330
40B
100
AcDbXrecord
280
     1
102
RTVSPropertyOp0
 70
     1
102
RTVSPropertyOp1
 70
     1
102
RTVSPropertyOp2
 70
     1
102
RTVSPropertyOp3
 70
     1
102
RTVSPropertyOp4
 70
     1
102
RTVSPropertyOp5
 70
     1
102
RTVSPropertyOp6
 70
     1
102
RTVSPropertyOp7
 70
     1
102
RTVSPropertyOp8
 70
     1
102
RTVSPropertyOp9
 70
     1
102
RTVSPropertyOp10
 70
     1
102
RTVSPropertyOp11
 70
     1
102
RTVSPropertyOp12
 70
     1
102
RTVSPropertyOp13
 70
     1
102
RTVSPropertyOp14
 70
     1
102
RTVSPropertyOp15
 70
     1
102
RTVSPropertyOp16
 70
     1
102
RTVSPropertyOp17
 70
     1
102
RTVSPropertyOp18
 70
     1
102
RTVSPropertyOp19
 70
     1
102
RTVSPropertyOp20
 70
     1
102
RTVSPropertyOp21
 70
     1
102
RTVSPropertyOp22
 70
     1
102
RTVSPropertyOp23
 70
     1
102
RTVSPropertyOp24
 70
     1
102
RTVSPropertyOp25
 70
     1
102
RTVSPropertyOp26
 70
     1
102
RTVSPropertyOp27
 70
     1
  0
XRECORD
  5
40E
102
{ACAD_REACTORS
330
40D
102
}
330
40D
100
AcDbXrecord
280
     1
102
RTVSPropertyOp0
 70
     1
102
RTVSPropertyOp1
 70
     1
102
RTVSPropertyOp2
 70
     1
102
RTVSPropertyOp3
 70
     1
102
RTVSPropertyOp4
 70
     1
102
RTVSPropertyOp5
 70
     1
102
RTVSPropertyOp6
 70
     1
102
RTVSPropertyOp7
 70
     1
102
RTVSPropertyOp8
 70
     1
102
RTVSPropertyOp9
 70
     1
102
RTVSPropertyOp10
 70
     1
102
RTVSPropertyOp11
 70
     1
102
RTVSPropertyOp12
 70
     1
102
RTVSPropertyOp13
 70
     1
102
RTVSPropertyOp14
 70
     1
102
RTVSPropertyOp15
 70
     1
102
RTVSPropertyOp16
 70
     1
102
RTVSPropertyOp17
 70
     1
102
RTVSPropertyOp18
 70
     1
102
RTVSPropertyOp19
 70
     1
102
RTVSPropertyOp20
 70
     1
102
RTVSPropertyOp21
 70
     1
102
RTVSPropertyOp22
 70
     1
102
RTVSPropertyOp23
 70
     1
102
RTVSPropertyOp24
 70
     1
102
RTVSPropertyOp25
 70
     1
102
RTVSPropertyOp26
 70
     1
102
RTVSPropertyOp27
 70
     1
  0
XRECORD
  5
422
102
{ACAD_REACTORS
330
421
102
}
330
421
100
AcDbXrecord
280
     1
102
RTVSPropertyOp0
 70
     1
102
RTVSPropertyOp1
 70
     1
102
RTVSPropertyOp2
 70
     1
102
RTVSPropertyOp3
 70
     1
102
RTVSPropertyOp4
 70
     1
102
RTVSPropertyOp5
 70
     1
102
RTVSPropertyOp6
 70
     1
102
RTVSPropertyOp7
 70
     1
102
RTVSPropertyOp8
 70
     1
102
RTVSPropertyOp9
 70
     1
102
RTVSPropertyOp10
 70
     1
102
RTVSPropertyOp11
 70
     1
102
RTVSPropertyOp12
 70
     1
102
RTVSPropertyOp13
 70
     1
102
RTVSPropertyOp14
 70
     1
102
RTVSPropertyOp15
 70
     1
102
RTVSPropertyOp16
 70
     1
102
RTVSPropertyOp17
 70
     1
102
RTVSPropertyOp18
 70
     1
102
RTVSPropertyOp19
 70
     1
102
RTVSPropertyOp20
 70
     1
102
RTVSPropertyOp21
 70
     1
102
RTVSPropertyOp22
 70
     1
102
RTVSPropertyOp23
 70
     1
102
RTVSPropertyOp24
 70
     1
102
RTVSPropertyOp25
 70
     1
102
RTVSPropertyOp26
 70
     1
102
RTVSPropertyOp27
 70
     1
  0
XRECORD
  5
418
102
{ACAD_REACTORS
330
417
102
}
330
417
100
AcDbXrecord
280
     1
102
RTVSPropertyOp0
 70
     1
102
RTVSPropertyOp1
 70
     1
102
RTVSPropertyOp2
 70
     1
102
RTVSPropertyOp3
 70
     1
102
RTVSPropertyOp4
 70
     1
102
RTVSPropertyOp5
 70
     1
102
RTVSPropertyOp6
 70
     1
102
RTVSPropertyOp7
 70
     1
102
RTVSPropertyOp8
 70
     1
102
RTVSPropertyOp9
 70
     1
102
RTVSPropertyOp10
 70
     1
102
RTVSPropertyOp11
 70
     1
102
RTVSPropertyOp12
 70
     1
102
RTVSPropertyOp13
 70
     1
102
RTVSPropertyOp14
 70
     1
102
RTVSPropertyOp15
 70
     1
102
RTVSPropertyOp16
 70
     1
102
RTVSPropertyOp17
 70
     1
102
RTVSPropertyOp18
 70
     1
102
RTVSPropertyOp19
 70
     1
102
RTVSPropertyOp20
 70
     1
102
RTVSPropertyOp21
 70
     1
102
RTVSPropertyOp22
 70
     1
102
RTVSPropertyOp23
 70
     1
102
RTVSPropertyOp24
 70
     1
102
RTVSPropertyOp25
 70
     1
102
RTVSPropertyOp26
 70
     1
102
RTVSPropertyOp27
 70
     1
  0
XRECORD
  5
420
102
{ACAD_REACTORS
330
41F
102
}
330
41F
100
AcDbXrecord
280
     1
102
RTVSPropertyOp0
 70
     1
102
RTVSPropertyOp1
 70
     1
102
RTVSPropertyOp2
 70
     1
102
RTVSPropertyOp3
 70
     1
102
RTVSPropertyOp4
 70
     1
102
RTVSPropertyOp5
 70
     1
102
RTVSPropertyOp6
 70
     1
102
RTVSPropertyOp7
 70
     1
102
RTVSPropertyOp8
 70
     1
102
RTVSPropertyOp9
 70
     1
102
RTVSPropertyOp10
 70
     1
102
RTVSPropertyOp11
 70
     1
102
RTVSPropertyOp12
 70
     1
102
RTVSPropertyOp13
 70
     1
102
RTVSPropertyOp14
 70
     1
102
RTVSPropertyOp15
 70
     1
102
RTVSPropertyOp16
 70
     1
102
RTVSPropertyOp17
 70
     1
102
RTVSPropertyOp18
 70
     1
102
RTVSPropertyOp19
 70
     1
102
RTVSPropertyOp20
 70
     1
102
RTVSPropertyOp21
 70
     1
102
RTVSPropertyOp22
 70
     1
102
RTVSPropertyOp23
 70
     1
102
RTVSPropertyOp24
 70
     1
102
RTVSPropertyOp25
 70
     1
102
RTVSPropertyOp26
 70
     1
102
RTVSPropertyOp27
 70
     1
  0
ENDSEC
  0
EOF
