  0
SECTION
  2
HEADER
  9
$ACADVER
  1
AC1015
  9
$ACADMAINTVER
 70
     6
  9
$DWGCODEPAGE
  3
ANSI_1252
  9
$INSBASE
 10
0.0
 20
0.0
 30
0.0
  9
$EXTMIN
 10
0.0
 20
0.0
 30
0.0
  9
$EXTMAX
 10
46.75
 20
30.25
 30
0.0
  9
$LIMMIN
 10
0.0
 20
0.0
  9
$LIMMAX
 10
46.75
 20
30.25
  9
$ORTHOMODE
 70
     0
  9
$REGENMODE
 70
     1
  9
$FILLMODE
 70
     1
  9
$QTEXTMODE
 70
     0
  9
$MIRRTEXT
 70
     1
  9
$LTSCALE
 40
2.75
  9
$ATTMODE
 70
     1
  9
$TEXTSIZE
 40
0.34375
  9
$TRACEWID
 40
0.05
  9
$TEXTSTYLE
  7
Standard
  9
$CLAYER
  8
0
  9
$CELTYPE
  6
ByLayer
  9
$CECOLOR
 62
   256
  9
$CELTSCALE
 40
1.0
  9
$DISPSILH
 70
     0
  9
$DIMSCALE
 40
1.0
  9
$DIMASZ
 40
0.3575
  9
$DIMEXO
 40
0.1375
  9
$DIMDLI
 40
0.38
  9
$DIMRND
 40
0.0
  9
$DIMDLE
 40
0.0
  9
$DIMEXE
 40
0.34375
  9
$DIMTP
 40
0.0
  9
$DIMTM
 40
0.0
  9
$DIMTXT
 40
0.34375
  9
$DIMCEN
 40
0.09
  9
$DIMTSZ
 40
0.0
  9
$DIMTOL
 70
     0
  9
$DIMLIM
 70
     0
  9
$DIMTIH
 70
     1
  9
$DIMTOH
 70
     1
  9
$DIMSE1
 70
     0
  9
$DIMSE2
 70
     0
  9
$DIMTAD
 70
     1
  9
$DIMZIN
 70
     0
  9
$DIMBLK
  1

  9
$DIMASO
 70
     1
  9
$DIMSHO
 70
     1
  9
$DIMPOST
  1

  9
$DIMAPOST
  1

  9
$DIMALT
 70
     0
  9
$DIMALTD
 70
     2
  9
$DIMALTF
 40
25.4
  9
$DIMLFAC
 40
1.0
  9
$DIMTOFL
 70
     0
  9
$DIMTVP
 40
0.0
  9
$DIMTIX
 70
     0
  9
$DIMSOXD
 70
     0
  9
$DIMSAH
 70
     0
  9
$DIMBLK1
  1

  9
$DIMBLK2
  1

  9
$DIMSTYLE
  2
Standard
  9
$DIMCLRD
 70
     0
  9
$DIMCLRE
 70
     0
  9
$DIMCLRT
 70
     0
  9
$DIMTFAC
 40
1.0
  9
$DIMGAP
 40
0.165
  9
$DIMJUST
 70
     0
  9
$DIMSD1
 70
     0
  9
$DIMSD2
 70
     0
  9
$DIMTOLJ
 70
     1
  9
$DIMTZIN
 70
     0
  9
$DIMALTZ
 70
     0
  9
$DIMALTTZ
 70
     0
  9
$DIMUPT
 70
     0
  9
$DIMDEC
 70
     2
  9
$DIMTDEC
 70
     2
  9
$DIMALTU
 70
     2
  9
$DIMALTTD
 70
     2
  9
$DIMTXSTY
  7
Standard
  9
$DIMAUNIT
 70
     0
  9
$DIMADEC
 70
     2
  9
$DIMALTRND
 40
0.0
  9
$DIMAZIN
 70
     0
  9
$DIMDSEP
 70
    46
  9
$DIMATFIT
 70
     3
  9
$DIMFRAC
 70
     0
  9
$DIMLDRBLK
  1

  9
$DIMLUNIT
 70
     2
  9
$DIMLWD
 70
    -2
  9
$DIMLWE
 70
    -2
  9
$DIMTMOVE
 70
     0
  9
$LUNITS
 70
     2
  9
$LUPREC
 70
     2
  9
$SKETCHINC
 40
0.1
  9
$FILLETRAD
 40
0.5
  9
$AUNITS
 70
     0
  9
$AUPREC
 70
     2
  9
$MENU
  1
.
  9
$ELEVATION
 40
0.0
  9
$PELEVATION
 40
0.0
  9
$THICKNESS
 40
0.0
  9
$LIMCHECK
 70
     0
  9
$CHAMFERA
 40
0.5
  9
$CHAMFERB
 40
0.5
  9
$CHAMFERC
 40
1.0
  9
$CHAMFERD
 40
0.0
  9
$SKPOLY
 70
     0
  9
$TDCREATE
 40
2455761.407872928
  9
$TDUCREATE
 40
2455761.574539595
  9
$TDUPDATE
 40
2455761.40787294
  9
$TDUUPDATE
 40
2455761.574539606
  9
$TDINDWG
 40
0.0000000116
  9
$TDUSRTIMER
 40
0.0000000116
  9
$USRTIMER
 70
     1
  9
$ANGBASE
 50
0.0
  9
$ANGDIR
 70
     0
  9
$PDMODE
 70
     0
  9
$PDSIZE
 40
-1.0
  9
$PLINEWID
 40
0.0
  9
$SPLFRAME
 70
     0
  9
$SPLINETYPE
 70
     6
  9
$SPLINESEGS
 70
     8
  9
$HANDSEED
  5
42B
  9
$SURFTAB1
 70
     6
  9
$SURFTAB2
 70
     6
  9
$SURFTYPE
 70
     6
  9
$SURFU
 70
     6
  9
$SURFV
 70
     6
  9
$UCSBASE
  2

  9
$UCSNAME
  2

  9
$UCSORG
 10
0.0
 20
0.0
 30
0.0
  9
$UCSXDIR
 10
1.0
 20
0.0
 30
0.0
  9
$UCSYDIR
 10
0.0
 20
1.0
 30
0.0
  9
$UCSORTHOREF
  2

  9
$UCSORTHOVIEW
 70
     0
  9
$UCSORGTOP
 10
0.0
 20
0.0
 30
0.0
  9
$UCSORGBOTTOM
 10
0.0
 20
0.0
 30
0.0
  9
$UCSORGLEFT
 10
0.0
 20
0.0
 30
0.0
  9
$UCSORGRIGHT
 10
0.0
 20
0.0
 30
0.0
  9
$UCSORGFRONT
 10
0.0
 20
0.0
 30
0.0
  9
$UCSORGBACK
 10
0.0
 20
0.0
 30
0.0
  9
$PUCSBASE
  2

  9
$PUCSNAME
  2

  9
$PUCSORG
 10
0.0
 20
0.0
 30
0.0
  9
$PUCSXDIR
 10
1.0
 20
0.0
 30
0.0
  9
$PUCSYDIR
 10
0.0
 20
1.0
 30
0.0
  9
$PUCSORTHOREF
  2

  9
$PUCSORTHOVIEW
 70
     0
  9
$PUCSORGTOP
 10
0.0
 20
0.0
 30
0.0
  9
$PUCSORGBOTTOM
 10
0.0
 20
0.0
 30
0.0
  9
$PUCSORGLEFT
 10
0.0
 20
0.0
 30
0.0
  9
$PUCSORGRIGHT
 10
0.0
 20
0.0
 30
0.0
  9
$PUCSORGFRONT
 10
0.0
 20
0.0
 30
0.0
  9
$PUCSORGBACK
 10
0.0
 20
0.0
 30
0.0
  9
$USERI1
 70
     0
  9
$USERI2
 70
     0
  9
$USERI3
 70
     0
  9
$USERI4
 70
     0
  9
$USERI5
 70
     0
  9
$USERR1
 40
0.0
  9
$USERR2
 40
0.0
  9
$USERR3
 40
0.0
  9
$USERR4
 40
0.0
  9
$USERR5
 40
0.0
  9
$WORLDVIEW
 70
     1
  9
$SHADEDGE
 70
     3
  9
$SHADEDIF
 70
    70
  9
$TILEMODE
 70
     1
  9
$MAXACTVP
 70
    64
  9
$PINSBASE
 10
0.0
 20
0.0
 30
0.0
  9
$PLIMCHECK
 70
     0
  9
$PEXTMIN
 10
1.0000000000E+20
 20
1.0000000000E+20
 30
1.0000000000E+20
  9
$PEXTMAX
 10
-1.0000000000E+20
 20
-1.0000000000E+20
 30
-1.0000000000E+20
  9
$PLIMMIN
 10
0.0
 20
0.0
  9
$PLIMMAX
 10
12.0
 20
9.0
  9
$UNITMODE
 70
     0
  9
$VISRETAIN
 70
     1
  9
$PLINEGEN
 70
     0
  9
$PSLTSCALE
 70
     1
  9
$TREEDEPTH
 70
  3020
  9
$CMLSTYLE
  2
Standard
  9
$CMLJUST
 70
     0
  9
$CMLSCALE
 40
1.0
  9
$PROXYGRAPHICS
 70
     1
  9
$MEASUREMENT
 70
     0
  9
$CELWEIGHT
370
    -1
  9
$ENDCAPS
280
     0
  9
$JOINSTYLE
280
     0
  9
$LWDISPLAY
290
     1
  9
$INSUNITS
 70
     1
  9
$HYPERLINKBASE
  1

  9
$STYLESHEET
  1

  9
$XEDIT
290
     1
  9
$CEPSNTYPE
380
     0
  9
$PSTYLEMODE
290
     1
  9
$FINGERPRINTGUID
  2
{18FF2AB4-1205-4328-90F5-4A63D49E1B32}
  9
$VERSIONGUID
  2
{FAEB1C32-E019-11D5-929B-00C0DF256EC4}
  9
$EXTNAMES
290
     1
  9
$PSVPSCALE
 40
0.0
  9
$OLESTARTUP
290
     0
  0
ENDSEC
  0
SECTION
  2
CLASSES
  0
CLASS
  1
ACDBDICTIONARYWDFLT
  2
AcDbDictionaryWithDefault
  3
ObjectDBX Classes
 90
        0
280
     0
281
     0
  0
CLASS
  1
VISUALSTYLE
  2
AcDbVisualStyle
  3
ObjectDBX Classes
 90
     4095
280
     0
281
     0
  0
CLASS
  1
MATERIAL
  2
AcDbMaterial
  3
ObjectDBX Classes
 90
     1153
280
     0
281
     0
  0
CLASS
  1
SCALE
  2
AcDbScale
  3
ObjectDBX Classes
 90
     1153
280
     0
281
     0
  0
CLASS
  1
DICTIONARYVAR
  2
AcDbDictionaryVar
  3
ObjectDBX Classes
 90
        0
280
     0
281
     0
  0
CLASS
  1
ACDBPLACEHOLDER
  2
AcDbPlaceHolder
  3
ObjectDBX Classes
 90
        0
280
     0
281
     0
  0
CLASS
  1
LAYOUT
  2
AcDbLayout
  3
ObjectDBX Classes
 90
        0
280
     0
281
     0
  0
ENDSEC
  0
SECTION
  2
TABLES
  0
TABLE
  2
VPORT
  5
8
330
0
100
AcDbSymbolTable
 70
     1
  0
VPORT
  5
29
330
8
100
AcDbSymbolTableRecord
100
AcDbViewportTableRecord
  2
*Active
 70
     0
 10
0.0
 20
0.0
 11
1.0
 21
1.0
 12
23.375
 22
15.125
 13
0.0
 23
0.0
 14
0.5
 24
0.5
 15
0.5
 25
0.5
 16
0.0
 26
0.0
 36
1.0
 17
0.0
 27
0.0
 37
0.0
 40
30.25
 41
1.5454545455
 42
50.0
 43
0.0
 44
0.0
 50
0.0
 51
0.0
 71
     0
 72
  2000
 73
     1
 74
     3
 75
     0
 76
     0
 77
     0
 78
     0
281
     0
 65
     1
110
0.0
120
0.0
130
0.0
111
1.0
121
0.0
131
0.0
112
0.0
122
1.0
132
0.0
 79
     0
146
0.0
  0
ENDTAB
  0
TABLE
  2
LTYPE
  5
5
330
0
100
AcDbSymbolTable
 70
     6
  0
LTYPE
  5
14
330
5
100
AcDbSymbolTableRecord
100
AcDbLinetypeTableRecord
  2
ByBlock
 70
     0
  3

 72
    65
 73
     0
 40
0.0
  0
LTYPE
  5
15
330
5
100
AcDbSymbolTableRecord
100
AcDbLinetypeTableRecord
  2
ByLayer
 70
     0
  3

 72
    65
 73
     0
 40
0.0
  0
LTYPE
  5
16
330
5
100
AcDbSymbolTableRecord
100
AcDbLinetypeTableRecord
  2
Continuous
 70
     0
  3
Solid line
 72
    65
 73
     0
 40
0.0
  0
LTYPE
  5
3F
330
5
100
AcDbSymbolTableRecord
100
AcDbLinetypeTableRecord
  2
HIDDEN
 70
     0
  3
Hidden __ __ __ __ __ __ __ __ __ __ __ __ __ __
 72
    65
 73
     2
 40
0.075
 49
0.05
 74
     0
 49
-0.025
 74
     0
  0
LTYPE
  5
40
330
5
100
AcDbSymbolTableRecord
100
AcDbLinetypeTableRecord
  2
PHANTOM
 70
     0
  3
Phantom ______  __  __  ______  __  __  ______
 72
    65
 73
     6
 40
0.5
 49
0.25
 74
     0
 49
-0.05
 74
     0
 49
0.05
 74
     0
 49
-0.05
 74
     0
 49
0.05
 74
     0
 49
-0.05
 74
     0
  0
LTYPE
  5
41
330
5
100
AcDbSymbolTableRecord
100
AcDbLinetypeTableRecord
  2
CENTER
 70
     0
  3
Center ____ _ ____ _ ____ _ ____ _ ____ _ ____
 72
    65
 73
     4
 40
0.4
 49
0.25
 74
     0
 49
-0.05
 74
     0
 49
0.05
 74
     0
 49
-0.05
 74
     0
  0
LTYPE
  5
42
330
5
100
AcDbSymbolTableRecord
100
AcDbLinetypeTableRecord
  2
CENTERX2
 70
     0
  3
Center (2x) ________  __  ________  __  _____
 72
    65
 73
     4
 40
0.8
 49
0.5
 74
     0
 49
-0.1
 74
     0
 49
0.1
 74
     0
 49
-0.1
 74
     0
  0
LTYPE
  5
43
330
5
100
AcDbSymbolTableRecord
100
AcDbLinetypeTableRecord
  2
DOT2
 70
     0
  3
Dot (.5x) ........................................
 72
    65
 73
     2
 40
0.025
 49
0.0
 74
     0
 49
-0.025
 74
     0
  0
ENDTAB
  0
TABLE
  2
LAYER
  5
2
330
0
100
AcDbSymbolTable
 70
     1
  0
LAYER
  5
10
330
2
100
AcDbSymbolTableRecord
100
AcDbLayerTableRecord
  2
0
 70
     0
 62
     7
  6
Continuous
370
    -3
390
F
  0
ENDTAB
  0
TABLE
  2
STYLE
  5
3
330
0
100
AcDbSymbolTable
 70
     2
  0
STYLE
  5
11
330
3
100
AcDbSymbolTableRecord
100
AcDbTextStyleTableRecord
  2
Standard
 70
     0
 40
0.0
 41
1.0
 50
0.0
 71
     0
 42
0.2
  3
txt
  4

  0
STYLE
  5
57
330
3
100
AcDbSymbolTableRecord
100
AcDbTextStyleTableRecord
  2
SLDTEXTSTYLE0
 70
     0
 40
0.0
 41
0.75
 50
0.0
 71
     0
 42
0.2
  3
TXT
  4

  0
ENDTAB
  0
TABLE
  2
VIEW
  5
6
330
0
100
AcDbSymbolTable
 70
     0
  0
ENDTAB
  0
TABLE
  2
UCS
  5
7
330
0
100
AcDbSymbolTable
 70
     0
  0
ENDTAB
  0
TABLE
  2
APPID
  5
9
330
0
100
AcDbSymbolTable
 70
     1
  0
APPID
  5
12
330
9
100
AcDbSymbolTableRecord
100
AcDbRegAppTableRecord
  2
ACAD
 70
     0
  0
ENDTAB
  0
TABLE
  2
DIMSTYLE
  5
A
330
0
100
AcDbSymbolTable
 70
     5
100
AcDbDimStyleTable
  0
DIMSTYLE
105
27
330
A
100
AcDbSymbolTableRecord
100
AcDbDimStyleTableRecord
  2
Standard
 70
     0
340
11
  0
DIMSTYLE
105
D7
102
{ACAD_REACTORS
330
D6
330
E9
330
150
330
282
330
294
330
2B7
102
}
330
A
100
AcDbSymbolTableRecord
100
AcDbDimStyleTableRecord
  2
SLDDIMSTYLE0
 70
     0
 41
0.3575
 44
0.0
 45
0.000000001
 78
     4
140
0.34375
147
0.0859375
148
0.000000001
170
     1
173
     1
271
     2
272
     2
284
    12
340
57
  0
DIMSTYLE
105
104
330
A
100
AcDbSymbolTableRecord
100
AcDbDimStyleTableRecord
  2
SLDDIMSTYLE1
 70
     0
 41
0.3575
 44
0.0
 45
0.000000001
140
0.0
146
0.3575
147
0.0
173
     1
271
     0
272
     0
340
11
  0
DIMSTYLE
105
2A7
102
{ACAD_REACTORS
330
2A6
102
}
330
A
100
AcDbSymbolTableRecord
100
AcDbDimStyleTableRecord
  2
SLDDIMSTYLE2
 70
     0
 41
0.3575
 44
0.0
 45
0.000000001
 78
    12
140
0.34375
147
0.0859375
148
0.000000001
170
     1
172
     1
173
     1
271
     3
272
     3
284
    12
340
57
  0
DIMSTYLE
105
2CA
102
{ACAD_REACTORS
330
2C9
330
3E7
102
}
330
A
100
AcDbSymbolTableRecord
100
AcDbDimStyleTableRecord
  2
SLDDIMSTYLE3
 70
     0
 41
0.3575
 44
0.0
 45
0.000000001
 78
     4
140
0.34375
147
0.0859375
148
0.000000001
170
     1
173
     1
271
     2
272
     2
284
    12
340
57
  0
ENDTAB
  0
TABLE
  2
BLOCK_RECORD
  5
1
330
0
100
AcDbSymbolTable
 70
    16
  0
BLOCK_RECORD
  5
1F
330
1
100
AcDbSymbolTableRecord
100
AcDbBlockTableRecord
  2
*Model_Space
340
22
  0
BLOCK_RECORD
  5
1B
330
1
100
AcDbSymbolTableRecord
100
AcDbBlockTableRecord
  2
*Paper_Space
340
1E
  0
BLOCK_RECORD
  5
23
330
1
100
AcDbSymbolTableRecord
100
AcDbBlockTableRecord
  2
*Paper_Space0
340
26
  0
BLOCK_RECORD
  5
54
330
1
100
AcDbSymbolTableRecord
100
AcDbBlockTableRecord
  2
SW_NOTE_0
340
0
102
{BLKREFS
331
7C
102
}
  0
BLOCK_RECORD
  5
80
330
1
100
AcDbSymbolTableRecord
100
AcDbBlockTableRecord
  2
SW_NOTE_1
340
0
102
{BLKREFS
331
85
102
}
  0
BLOCK_RECORD
  5
86
330
1
100
AcDbSymbolTableRecord
100
AcDbBlockTableRecord
  2
SW_NOTE_2
340
0
102
{BLKREFS
331
8B
102
}
  0
BLOCK_RECORD
  5
8C
330
1
100
AcDbSymbolTableRecord
100
AcDbBlockTableRecord
  2
SW_NOTE_3
340
0
102
{BLKREFS
331
91
102
}
  0
BLOCK_RECORD
  5
D8
330
1
100
AcDbSymbolTableRecord
100
AcDbBlockTableRecord
  2
*D5
340
0
  0
BLOCK_RECORD
  5
EA
330
1
100
AcDbSymbolTableRecord
100
AcDbBlockTableRecord
  2
*D6
340
0
  0
BLOCK_RECORD
  5
FB
330
1
100
AcDbSymbolTableRecord
100
AcDbBlockTableRecord
  2
SW_NOTE_4
340
0
102
{BLKREFS
331
103
102
}
  0
BLOCK_RECORD
  5
151
330
1
100
AcDbSymbolTableRecord
100
AcDbBlockTableRecord
  2
*D8
340
0
  0
BLOCK_RECORD
  5
283
330
1
100
AcDbSymbolTableRecord
100
AcDbBlockTableRecord
  2
*D9
340
0
  0
BLOCK_RECORD
  5
295
330
1
100
AcDbSymbolTableRecord
100
AcDbBlockTableRecord
  2
*D10
340
0
  0
BLOCK_RECORD
  5
2A8
330
1
100
AcDbSymbolTableRecord
100
AcDbBlockTableRecord
  2
*D11
340
0
  0
BLOCK_RECORD
  5
2B8
330
1
100
AcDbSymbolTableRecord
100
AcDbBlockTableRecord
  2
*D12
340
0
  0
BLOCK_RECORD
  5
2CB
330
1
100
AcDbSymbolTableRecord
100
AcDbBlockTableRecord
  2
*D13
340
0
  0
BLOCK_RECORD
  5
3E8
330
1
100
AcDbSymbolTableRecord
100
AcDbBlockTableRecord
  2
*D14
340
0
  0
BLOCK_RECORD
  5
3F7
330
1
100
AcDbSymbolTableRecord
100
AcDbBlockTableRecord
  2
SW_NOTE_5
340
0
102
{BLKREFS
331
3FC
102
}
  0
ENDTAB
  0
ENDSEC
  0
SECTION
  2
BLOCKS
  0
BLOCK
  5
20
330
1F
100
AcDbEntity
  8
0
100
AcDbBlockBegin
  2
*Model_Space
 70
     0
 10
0.0
 20
0.0
 30
0.0
  3
*Model_Space
  1

  0
ENDBLK
  5
21
330
1F
100
AcDbEntity
  8
0
100
AcDbBlockEnd
  0
BLOCK
  5
1C
330
1B
100
AcDbEntity
 67
     1
  8
0
100
AcDbBlockBegin
  2
*Paper_Space
 70
     0
 10
0.0
 20
0.0
 30
0.0
  3
*Paper_Space
  1

  0
ENDBLK
  5
1D
330
1B
100
AcDbEntity
 67
     1
  8
0
100
AcDbBlockEnd
  0
BLOCK
  5
24
330
23
100
AcDbEntity
  8
0
100
AcDbBlockBegin
  2
*Paper_Space0
 70
     0
 10
0.0
 20
0.0
 30
0.0
  3
*Paper_Space0
  1

  0
ENDBLK
  5
25
330
23
100
AcDbEntity
  8
0
100
AcDbBlockEnd
  0
BLOCK
  5
55
330
54
100
AcDbEntity
  8
0
100
AcDbBlockBegin
  2
SW_NOTE_0
 70
     0
 10
0.0
 20
0.0
 30
0.0
  3
SW_NOTE_0
  1

  0
MTEXT
  5
7A
330
54
100
AcDbEntity
  8
0
  6
Continuous
 62
     0
 48
2.75
370
     0
100
AcDbMText
 10
0.0
 20
0.4431170355
 30
0.0
 40
0.34375
 41
0.0
 71
     1
 72
     1
  1
MATERIAL - 16 GA. [1.5mm] STEEL
  7
SLDTEXTSTYLE0
 73
     1
 44
1.0
  0
MTEXT
  5
7B
330
54
100
AcDbEntity
  8
0
  6
Continuous
 62
     0
 48
2.75
370
     0
100
AcDbMText
 10
0.0
 20
-0.4609183743
 30
0.0
 40
0.34375
 41
0.0
 71
     1
 72
     1
  1
FINISH - SMOOTH GRAY POWDERCOAT
  7
SLDTEXTSTYLE0
 73
     1
 44
1.0
  0
ENDBLK
  5
56
330
54
100
AcDbEntity
  8
0
100
AcDbBlockEnd
  0
BLOCK
  5
81
330
80
100
AcDbEntity
  8
0
100
AcDbBlockBegin
  2
SW_NOTE_1
 70
     0
 10
0.0
 20
0.0
 30
0.0
  3
SW_NOTE_1
  1

  0
MTEXT
  5
83
330
80
100
AcDbEntity
  8
0
  6
Continuous
 62
     0
 48
2.75
370
     0
100
AcDbMText
 10
0.0
 20
0.4431170355
 30
0.0
 40
0.34375
 41
0.0
 71
     1
 72
     1
  1
PART
  7
SLDTEXTSTYLE0
 73
     1
 44
1.0
  0
MTEXT
  5
84
330
80
100
AcDbEntity
  8
0
  6
Continuous
 62
     0
 48
2.75
370
     0
100
AcDbMText
 10
-0.1281602574
 20
-0.0089006694
 30
0.0
 40
0.34375
 41
0.0
 71
     1
 72
     1
  1
NAME
  7
SLDTEXTSTYLE0
 73
     1
 44
1.0
  0
ENDBLK
  5
82
330
80
100
AcDbEntity
  8
0
100
AcDbBlockEnd
  0
BLOCK
  5
87
330
86
100
AcDbEntity
  8
0
100
AcDbBlockBegin
  2
SW_NOTE_2
 70
     0
 10
0.0
 20
0.0
 30
0.0
  3
SW_NOTE_2
  1

  0
MTEXT
  5
89
330
86
100
AcDbEntity
  8
0
  6
Continuous
 62
     0
 48
2.75
370
     0
100
AcDbMText
 10
0.0
 20
0.4431170355
 30
0.0
 40
0.34375
 41
0.0
 71
     1
 72
     1
  1
PART
  7
SLDTEXTSTYLE0
 73
     1
 44
1.0
  0
MTEXT
  5
8A
330
86
100
AcDbEntity
  8
0
  6
Continuous
 62
     0
 48
2.75
370
     0
100
AcDbMText
 10
0.1605360298
 20
-0.0089006694
 30
0.0
 40
0.34375
 41
0.0
 71
     1
 72
     1
  1
No.
  7
SLDTEXTSTYLE0
 73
     1
 44
1.0
  0
ENDBLK
  5
88
330
86
100
AcDbEntity
  8
0
100
AcDbBlockEnd
  0
BLOCK
  5
8D
330
8C
100
AcDbEntity
  8
0
100
AcDbBlockBegin
  2
SW_NOTE_3
 70
     0
 10
0.0
 20
0.0
 30
0.0
  3
SW_NOTE_3
  1

  0
MTEXT
  5
8F
330
8C
100
AcDbEntity
  8
0
  6
Continuous
 62
     0
 48
2.75
370
     0
100
AcDbMText
 10
0.0
 20
0.4431170355
 30
0.0
 40
0.34375
 41
0.0
 71
     1
 72
     1
  1
REVISION
  7
SLDTEXTSTYLE0
 73
     1
 44
1.0
  0
MTEXT
  5
90
330
8C
100
AcDbEntity
  8
0
  6
Continuous
 62
     0
 48
2.75
370
     0
100
AcDbMText
 10
0.4296278211
 20
-0.0089006694
 30
0.0
 40
0.34375
 41
0.0
 71
     1
 72
     1
  1
DATE
  7
SLDTEXTSTYLE0
 73
     1
 44
1.0
  0
ENDBLK
  5
8E
330
8C
100
AcDbEntity
  8
0
100
AcDbBlockEnd
  0
BLOCK
  5
D9
330
D8
100
AcDbEntity
  8
0
100
AcDbBlockBegin
  2
*D5
 70
     1
 10
0.0
 20
0.0
 30
0.0
  3
*D5
  1

  0
SOLID
  5
DB
330
D8
100
AcDbEntity
  8
0
  6
Continuous
 62
     7
 48
2.75
370
     0
100
AcDbTrace
 10
8.6048546694
 20
18.5650014993
 30
0.0
 11
8.9623546694
 21
18.5100014993
 31
0.0
 12
8.9623546694
 22
18.6200014993
 32
0.0
 13
8.9623546694
 23
18.6200014993
 33
0.0
  0
SOLID
  5
DC
330
D8
100
AcDbEntity
  8
0
  6
Continuous
 62
     7
 48
2.75
370
     0
100
AcDbTrace
 10
16.6048546694
 20
18.5650014993
 30
0.0
 11
16.2473546694
 21
18.6200014993
 31
0.0
 12
16.2473546694
 22
18.5100014993
 32
0.0
 13
16.2473546694
 23
18.5100014993
 33
0.0
  0
LINE
  5
DD
330
D8
100
AcDbEntity
  8
0
  6
Continuous
 62
     7
 48
2.75
370
     0
100
AcDbLine
 10
11.893917956
 20
18.5240860339
 30
0.0
 11
11.893917956
 21
18.060377427
 31
0.0
  0
LINE
  5
DE
330
D8
100
AcDbEntity
  8
0
  6
Continuous
 62
     7
 48
2.75
370
     0
100
AcDbLine
 10
11.893917956
 20
18.060377427
 30
0.0
 11
11.9636920652
 21
18.060377427
 31
0.0
  0
LINE
  5
DF
330
D8
100
AcDbEntity
  8
0
  6
Continuous
 62
     7
 48
2.75
370
     0
100
AcDbLine
 10
11.893917956
 20
18.5240860339
 30
0.0
 11
11.9636920652
 21
18.5240860339
 31
0.0
  0
LINE
  5
E0
330
D8
100
AcDbEntity
  8
0
  6
Continuous
 62
     7
 48
2.75
370
     0
100
AcDbLine
 10
13.3157913829
 20
18.5240860339
 30
0.0
 11
13.3157913829
 21
18.060377427
 31
0.0
  0
LINE
  5
E1
330
D8
100
AcDbEntity
  8
0
  6
Continuous
 62
     7
 48
2.75
370
     0
100
AcDbLine
 10
13.3157913829
 20
18.060377427
 30
0.0
 11
13.2460172737
 21
18.060377427
 31
0.0
  0
LINE
  5
E2
330
D8
100
AcDbEntity
  8
0
  6
Continuous
 62
     7
 48
2.75
370
     0
100
AcDbLine
 10
13.3157913829
 20
18.5240860339
 30
0.0
 11
13.2460172737
 21
18.5240860339
 31
0.0
  0
LINE
  5
E3
330
D8
100
AcDbEntity
  8
0
  6
Continuous
 62
     7
 48
2.75
370
     0
100
AcDbLine
 10
8.6048546694
 20
17.7385126433
 30
0.0
 11
8.6048546694
 21
18.9087514993
 31
0.0
  0
LINE
  5
E4
330
D8
100
AcDbEntity
  8
0
  6
Continuous
 62
     7
 48
2.75
370
     0
100
AcDbLine
 10
16.6048546694
 20
17.7385126433
 30
0.0
 11
16.6048546694
 21
18.9087514993
 31
0.0
  0
LINE
  5
E5
330
D8
100
AcDbEntity
  8
0
  6
Continuous
 62
     7
 48
2.75
370
     0
100
AcDbLine
 10
8.6048546694
 20
18.5650014993
 30
0.0
 11
11.5128110095
 21
18.5650014993
 31
0.0
  0
LINE
  5
E6
330
D8
100
AcDbEntity
  8
0
  6
Continuous
 62
     7
 48
2.75
370
     0
100
AcDbLine
 10
16.6048546694
 20
18.5650014993
 30
0.0
 11
13.6968983294
 21
18.5650014993
 31
0.0
  0
MTEXT
  5
E7
330
D8
100
AcDbEntity
  8
0
  6
Continuous
 62
     7
 48
2.75
370
     0
100
AcDbMText
 10
12.1605418188
 20
19.0081185159
 30
0.0
 40
0.34375
 41
0.0
 71
     1
 72
     1
  1
8.00
  7
SLDTEXTSTYLE0
 73
     1
 44
1.0
  0
MTEXT
  5
E8
330
D8
100
AcDbEntity
  8
0
  6
Continuous
 62
     7
 48
2.75
370
     0
100
AcDbMText
 10
12.0334661744
 20
18.4625789784
 30
0.0
 40
0.34375
 41
0.0
 71
     1
 72
     1
  1
203.2
  7
SLDTEXTSTYLE0
 73
     1
 44
1.0
  0
ENDBLK
  5
DA
330
D8
100
AcDbEntity
  8
0
100
AcDbBlockEnd
  0
BLOCK
  5
EB
330
EA
100
AcDbEntity
  8
0
100
AcDbBlockBegin
  2
*D6
 70
     1
 10
0.0
 20
0.0
 30
0.0
  3
*D6
  1

  0
SOLID
  5
ED
330
EA
100
AcDbEntity
  8
0
  6
Continuous
 62
     7
 48
2.75
370
     0
100
AcDbTrace
 10
17.7012752132
 20
17.6010126433
 30
0.0
 11
17.6462752132
 21
17.2435126433
 31
0.0
 12
17.7562752132
 22
17.2435126433
 32
0.0
 13
17.7562752132
 23
17.2435126433
 33
0.0
  0
SOLID
  5
EE
330
EA
100
AcDbEntity
  8
0
  6
Continuous
 62
     7
 48
2.75
370
     0
100
AcDbTrace
 10
17.7012752132
 20
9.6010126433
 30
0.0
 11
17.7562752132
 21
9.9585126433
 31
0.0
 12
17.6462752132
 22
9.9585126433
 32
0.0
 13
17.6462752132
 23
9.9585126433
 33
0.0
  0
LINE
  5
EF
330
EA
100
AcDbEntity
  8
0
  6
Continuous
 62
     7
 48
2.75
370
     0
100
AcDbLine
 10
16.9903384998
 20
13.560097178
 30
0.0
 11
16.9903384998
 21
13.0963885711
 31
0.0
  0
LINE
  5
F0
330
EA
100
AcDbEntity
  8
0
  6
Continuous
 62
     7
 48
2.75
370
     0
100
AcDbLine
 10
16.9903384998
 20
13.0963885711
 30
0.0
 11
17.060112609
 21
13.0963885711
 31
0.0
  0
LINE
  5
F1
330
EA
100
AcDbEntity
  8
0
  6
Continuous
 62
     7
 48
2.75
370
     0
100
AcDbLine
 10
16.9903384998
 20
13.560097178
 30
0.0
 11
17.060112609
 21
13.560097178
 31
0.0
  0
LINE
  5
F2
330
EA
100
AcDbEntity
  8
0
  6
Continuous
 62
     7
 48
2.75
370
     0
100
AcDbLine
 10
18.4122119266
 20
13.560097178
 30
0.0
 11
18.4122119266
 21
13.0963885711
 31
0.0
  0
LINE
  5
F3
330
EA
100
AcDbEntity
  8
0
  6
Continuous
 62
     7
 48
2.75
370
     0
100
AcDbLine
 10
18.4122119266
 20
13.0963885711
 30
0.0
 11
18.3424378174
 21
13.0963885711
 31
0.0
  0
LINE
  5
F4
330
EA
100
AcDbEntity
  8
0
  6
Continuous
 62
     7
 48
2.75
370
     0
100
AcDbLine
 10
18.4122119266
 20
13.560097178
 30
0.0
 11
18.3424378174
 21
13.560097178
 31
0.0
  0
LINE
  5
F5
330
EA
100
AcDbEntity
  8
0
  6
Continuous
 62
     7
 48
2.75
370
     0
100
AcDbLine
 10
16.7423546694
 20
17.6010126433
 30
0.0
 11
18.0450252132
 21
17.6010126433
 31
0.0
  0
LINE
  5
F6
330
EA
100
AcDbEntity
  8
0
  6
Continuous
 62
     7
 48
2.75
370
     0
100
AcDbLine
 10
16.7423546694
 20
9.6010126433
 30
0.0
 11
18.0450252132
 21
9.6010126433
 31
0.0
  0
LINE
  5
F7
330
EA
100
AcDbEntity
  8
0
  6
Continuous
 62
     7
 48
2.75
370
     0
100
AcDbLine
 10
17.7012752132
 20
17.6010126433
 30
0.0
 11
17.7012752132
 21
14.1465521808
 31
0.0
  0
LINE
  5
F8
330
EA
100
AcDbEntity
  8
0
  6
Continuous
 62
     7
 48
2.75
370
     0
100
AcDbLine
 10
17.7012752132
 20
9.6010126433
 30
0.0
 11
17.7012752132
 21
13.0554731057
 31
0.0
  0
MTEXT
  5
F9
330
EA
100
AcDbEntity
  8
0
  6
Continuous
 62
     7
 48
2.75
370
     0
100
AcDbMText
 10
17.2569623626
 20
14.0441296599
 30
0.0
 40
0.34375
 41
0.0
 71
     1
 72
     1
  1
8.00
  7
SLDTEXTSTYLE0
 73
     1
 44
1.0
  0
MTEXT
  5
FA
330
EA
100
AcDbEntity
  8
0
  6
Continuous
 62
     7
 48
2.75
370
     0
100
AcDbMText
 10
17.1298867181
 20
13.4985901224
 30
0.0
 40
0.34375
 41
0.0
 71
     1
 72
     1
  1
203.2
  7
SLDTEXTSTYLE0
 73
     1
 44
1.0
  0
ENDBLK
  5
EC
330
EA
100
AcDbEntity
  8
0
100
AcDbBlockEnd
  0
BLOCK
  5
FC
330
FB
100
AcDbEntity
  8
0
100
AcDbBlockBegin
  2
SW_NOTE_4
 70
     0
 10
0.0
 20
0.0
 30
0.0
  3
SW_NOTE_4
  1

  0
MTEXT
  5
FE
330
FB
100
AcDbEntity
  8
0
  6
Continuous
 62
     0
 48
2.75
370
     0
100
AcDbMText
 10
0.0541964801
 20
0.1667734335
 30
0.0
 40
0.34375
 41
0.0
 71
     1
 72
     1
  1
SCREWS: #10-32 x .31"[8mm] LG.
  7
SLDTEXTSTYLE0
 73
     1
 44
1.0
  0
MTEXT
  5
FF
330
FB
100
AcDbEntity
  8
0
  6
Continuous
 62
     0
 48
2.75
370
     0
100
AcDbMText
 10
0.0541964801
 20
-0.2852442714
 30
0.0
 40
0.34375
 41
0.0
 71
     1
 72
     1
  1
MACHINE, PAN HEAD, SLOTTED/SQUARE
  7
SLDTEXTSTYLE0
 73
     1
 44
1.0
  0
MTEXT
  5
100
330
FB
100
AcDbEntity
  8
0
  6
Continuous
 62
     0
 48
2.75
370
     0
100
AcDbMText
 10
0.0541964801
 20
-0.7372619763
 30
0.0
 40
0.34375
 41
0.0
 71
     1
 72
     1
  1
COMBINATION STYLE DRIVE, STEEL, ZINC PLATED.
  7
SLDTEXTSTYLE0
 73
     1
 44
1.0
  0
MTEXT
  5
101
330
FB
100
AcDbEntity
  8
0
  6
Continuous
 62
     0
 48
2.75
370
     0
100
AcDbMText
 10
0.0541964801
 20
-1.1892796813
 30
0.0
 40
0.34375
 41
0.0
 71
     1
 72
     1
  1
(SUPPLIED FOR COVER MOUNTING AND
  7
SLDTEXTSTYLE0
 73
     1
 44
1.0
  0
MTEXT
  5
102
330
FB
100
AcDbEntity
  8
0
  6
Continuous
 62
     0
 48
2.75
370
     0
100
AcDbMText
 10
0.0541964801
 20
-1.6412973862
 30
0.0
 40
0.34375
 41
0.0
 71
     1
 72
     1
  1
FOR GROUND POINT).
  7
SLDTEXTSTYLE0
 73
     1
 44
1.0
  0
ENDBLK
  5
FD
330
FB
100
AcDbEntity
  8
0
100
AcDbBlockEnd
  0
BLOCK
  5
152
330
151
100
AcDbEntity
  8
0
100
AcDbBlockBegin
  2
*D8
 70
     1
 10
0.0
 20
0.0
 30
0.0
  3
*D8
  1

  0
SOLID
  5
154
330
151
100
AcDbEntity
  8
0
  6
Continuous
 62
     7
 48
2.75
370
     0
100
AcDbTrace
 10
17.7012752132
 20
24.9996049627
 30
0.0
 11
17.6462752132
 21
24.6421049627
 31
0.0
 12
17.7562752132
 22
24.6421049627
 32
0.0
 13
17.7562752132
 23
24.6421049627
 33
0.0
  0
SOLID
  5
155
330
151
100
AcDbEntity
  8
0
  6
Continuous
 62
     7
 48
2.75
370
     0
100
AcDbTrace
 10
17.7012752132
 20
20.9996049627
 30
0.0
 11
17.7562752132
 21
21.3571049627
 31
0.0
 12
17.6462752132
 22
21.3571049627
 32
0.0
 13
17.6462752132
 23
21.3571049627
 33
0.0
  0
LINE
  5
156
330
151
100
AcDbEntity
  8
0
  6
Continuous
 62
     7
 48
2.75
370
     0
100
AcDbLine
 10
16.9903384998
 20
22.9586894974
 30
0.0
 11
16.9903384998
 21
22.4949808905
 31
0.0
  0
LINE
  5
157
330
151
100
AcDbEntity
  8
0
  6
Continuous
 62
     7
 48
2.75
370
     0
100
AcDbLine
 10
16.9903384998
 20
22.4949808905
 30
0.0
 11
17.060112609
 21
22.4949808905
 31
0.0
  0
LINE
  5
158
330
151
100
AcDbEntity
  8
0
  6
Continuous
 62
     7
 48
2.75
370
     0
100
AcDbLine
 10
16.9903384998
 20
22.9586894974
 30
0.0
 11
17.060112609
 21
22.9586894974
 31
0.0
  0
LINE
  5
159
330
151
100
AcDbEntity
  8
0
  6
Continuous
 62
     7
 48
2.75
370
     0
100
AcDbLine
 10
18.4122119266
 20
22.9586894974
 30
0.0
 11
18.4122119266
 21
22.4949808905
 31
0.0
  0
LINE
  5
15A
330
151
100
AcDbEntity
  8
0
  6
Continuous
 62
     7
 48
2.75
370
     0
100
AcDbLine
 10
18.4122119266
 20
22.4949808905
 30
0.0
 11
18.3424378174
 21
22.4949808905
 31
0.0
  0
LINE
  5
15B
330
151
100
AcDbEntity
  8
0
  6
Continuous
 62
     7
 48
2.75
370
     0
100
AcDbLine
 10
18.4122119266
 20
22.9586894974
 30
0.0
 11
18.3424378174
 21
22.9586894974
 31
0.0
  0
LINE
  5
15C
330
151
100
AcDbEntity
  8
0
  6
Continuous
 62
     7
 48
2.75
370
     0
100
AcDbLine
 10
16.6653546694
 20
24.9996049627
 30
0.0
 11
18.0450252132
 21
24.9996049627
 31
0.0
  0
LINE
  5
15D
330
151
100
AcDbEntity
  8
0
  6
Continuous
 62
     7
 48
2.75
370
     0
100
AcDbLine
 10
16.7423546694
 20
20.9996049627
 30
0.0
 11
18.0450252132
 21
20.9996049627
 31
0.0
  0
LINE
  5
15E
330
151
100
AcDbEntity
  8
0
  6
Continuous
 62
     7
 48
2.75
370
     0
100
AcDbLine
 10
17.7012752132
 20
24.9996049627
 30
0.0
 11
17.7012752132
 21
23.5451445002
 31
0.0
  0
LINE
  5
15F
330
151
100
AcDbEntity
  8
0
  6
Continuous
 62
     7
 48
2.75
370
     0
100
AcDbLine
 10
17.7012752132
 20
20.9996049627
 30
0.0
 11
17.7012752132
 21
22.4540654251
 31
0.0
  0
MTEXT
  5
160
330
151
100
AcDbEntity
  8
0
  6
Continuous
 62
     7
 48
2.75
370
     0
100
AcDbMText
 10
17.2569623626
 20
23.4427219793
 30
0.0
 40
0.34375
 41
0.0
 71
     1
 72
     1
  1
4.00
  7
SLDTEXTSTYLE0
 73
     1
 44
1.0
  0
MTEXT
  5
161
330
151
100
AcDbEntity
  8
0
  6
Continuous
 62
     7
 48
2.75
370
     0
100
AcDbMText
 10
17.1298867181
 20
22.8971824418
 30
0.0
 40
0.34375
 41
0.0
 71
     1
 72
     1
  1
101.6
  7
SLDTEXTSTYLE0
 73
     1
 44
1.0
  0
ENDBLK
  5
153
330
151
100
AcDbEntity
  8
0
100
AcDbBlockEnd
  0
BLOCK
  5
284
330
283
100
AcDbEntity
  8
0
100
AcDbBlockBegin
  2
*D9
 70
     1
 10
0.0
 20
0.0
 30
0.0
  3
*D9
  1

  0
SOLID
  5
286
330
283
100
AcDbEntity
  8
0
  6
Continuous
 62
     7
 48
2.75
370
     0
100
AcDbTrace
 10
34.9587839082
 20
16.1010126433
 30
0.0
 11
34.9037839082
 21
15.7435126433
 31
0.0
 12
35.0137839082
 22
15.7435126433
 32
0.0
 13
35.0137839082
 23
15.7435126433
 33
0.0
  0
SOLID
  5
287
330
283
100
AcDbEntity
  8
0
  6
Continuous
 62
     7
 48
2.75
370
     0
100
AcDbTrace
 10
34.9587839082
 20
11.1010126433
 30
0.0
 11
35.0137839082
 21
11.4585126433
 31
0.0
 12
34.9037839082
 22
11.4585126433
 32
0.0
 13
34.9037839082
 23
11.4585126433
 33
0.0
  0
LINE
  5
288
330
283
100
AcDbEntity
  8
0
  6
Continuous
 62
     7
 48
2.75
370
     0
100
AcDbLine
 10
34.4383702805
 20
13.560097178
 30
0.0
 11
34.4383702805
 21
13.0963885711
 31
0.0
  0
LINE
  5
289
330
283
100
AcDbEntity
  8
0
  6
Continuous
 62
     7
 48
2.75
370
     0
100
AcDbLine
 10
34.4383702805
 20
13.0963885711
 30
0.0
 11
34.5081443897
 21
13.0963885711
 31
0.0
  0
LINE
  5
28A
330
283
100
AcDbEntity
  8
0
  6
Continuous
 62
     7
 48
2.75
370
     0
100
AcDbLine
 10
34.4383702805
 20
13.560097178
 30
0.0
 11
34.5081443897
 21
13.560097178
 31
0.0
  0
LINE
  5
28B
330
283
100
AcDbEntity
  8
0
  6
Continuous
 62
     7
 48
2.75
370
     0
100
AcDbLine
 10
35.479197536
 20
13.560097178
 30
0.0
 11
35.479197536
 21
13.0963885711
 31
0.0
  0
LINE
  5
28C
330
283
100
AcDbEntity
  8
0
  6
Continuous
 62
     7
 48
2.75
370
     0
100
AcDbLine
 10
35.479197536
 20
13.0963885711
 30
0.0
 11
35.4094234268
 21
13.0963885711
 31
0.0
  0
LINE
  5
28D
330
283
100
AcDbEntity
  8
0
  6
Continuous
 62
     7
 48
2.75
370
     0
100
AcDbLine
 10
35.479197536
 20
13.560097178
 30
0.0
 11
35.4094234268
 21
13.560097178
 31
0.0
  0
LINE
  5
28E
330
283
100
AcDbEntity
  8
0
  6
Continuous
 62
     7
 48
2.75
370
     0
100
AcDbLine
 10
36.24732384
 20
16.1010126433
 30
0.0
 11
34.6150339082
 21
16.1010126433
 31
0.0
  0
LINE
  5
28F
330
283
100
AcDbEntity
  8
0
  6
Continuous
 62
     7
 48
2.75
370
     0
100
AcDbLine
 10
36.24732384
 20
11.1010126433
 30
0.0
 11
34.6150339082
 21
11.1010126433
 31
0.0
  0
LINE
  5
290
330
283
100
AcDbEntity
  8
0
  6
Continuous
 62
     7
 48
2.75
370
     0
100
AcDbLine
 10
34.9587839082
 20
16.1010126433
 30
0.0
 11
34.9587839082
 21
14.1465521808
 31
0.0
  0
LINE
  5
291
330
283
100
AcDbEntity
  8
0
  6
Continuous
 62
     7
 48
2.75
370
     0
100
AcDbLine
 10
34.9587839082
 20
11.1010126433
 30
0.0
 11
34.9587839082
 21
13.0554731057
 31
0.0
  0
MTEXT
  5
292
330
283
100
AcDbEntity
  8
0
  6
Continuous
 62
     7
 48
2.75
370
     0
100
AcDbMText
 10
34.5144710576
 20
14.0441296599
 30
0.0
 40
0.34375
 41
0.0
 71
     1
 72
     1
  1
5.00
  7
SLDTEXTSTYLE0
 73
     1
 44
1.0
  0
MTEXT
  5
293
330
283
100
AcDbEntity
  8
0
  6
Continuous
 62
     7
 48
2.75
370
     0
100
AcDbMText
 10
34.5779184988
 20
13.4985901224
 30
0.0
 40
0.34375
 41
0.0
 71
     1
 72
     1
  1
127
  7
SLDTEXTSTYLE0
 73
     1
 44
1.0
  0
ENDBLK
  5
285
330
283
100
AcDbEntity
  8
0
100
AcDbBlockEnd
  0
BLOCK
  5
296
330
295
100
AcDbEntity
  8
0
100
AcDbBlockBegin
  2
*D10
 70
     1
 10
0.0
 20
0.0
 30
0.0
  3
*D10
  1

  0
SOLID
  5
298
330
295
100
AcDbEntity
  8
0
  6
Continuous
 62
     7
 48
2.75
370
     0
100
AcDbTrace
 10
36.38482384
 20
8.7013546739
 30
0.0
 11
36.74232384
 21
8.6463546739
 31
0.0
 12
36.74232384
 22
8.7563546739
 32
0.0
 13
36.74232384
 23
8.7563546739
 33
0.0
  0
SOLID
  5
299
330
295
100
AcDbEntity
  8
0
  6
Continuous
 62
     7
 48
2.75
370
     0
100
AcDbTrace
 10
43.38482384
 20
8.7013546739
 30
0.0
 11
43.02732384
 21
8.7563546739
 31
0.0
 12
43.02732384
 22
8.6463546739
 32
0.0
 13
43.02732384
 23
8.6463546739
 33
0.0
  0
LINE
  5
29A
330
295
100
AcDbEntity
  8
0
  6
Continuous
 62
     7
 48
2.75
370
     0
100
AcDbLine
 10
39.1738871266
 20
8.6604392086
 30
0.0
 11
39.1738871266
 21
8.1967306017
 31
0.0
  0
LINE
  5
29B
330
295
100
AcDbEntity
  8
0
  6
Continuous
 62
     7
 48
2.75
370
     0
100
AcDbLine
 10
39.1738871266
 20
8.1967306017
 30
0.0
 11
39.2436612358
 21
8.1967306017
 31
0.0
  0
LINE
  5
29C
330
295
100
AcDbEntity
  8
0
  6
Continuous
 62
     7
 48
2.75
370
     0
100
AcDbLine
 10
39.1738871266
 20
8.6604392086
 30
0.0
 11
39.2436612358
 21
8.6604392086
 31
0.0
  0
LINE
  5
29D
330
295
100
AcDbEntity
  8
0
  6
Continuous
 62
     7
 48
2.75
370
     0
100
AcDbLine
 10
40.5957605534
 20
8.6604392086
 30
0.0
 11
40.5957605534
 21
8.1967306017
 31
0.0
  0
LINE
  5
29E
330
295
100
AcDbEntity
  8
0
  6
Continuous
 62
     7
 48
2.75
370
     0
100
AcDbLine
 10
40.5957605534
 20
8.1967306017
 30
0.0
 11
40.5259864442
 21
8.1967306017
 31
0.0
  0
LINE
  5
29F
330
295
100
AcDbEntity
  8
0
  6
Continuous
 62
     7
 48
2.75
370
     0
100
AcDbLine
 10
40.5957605534
 20
8.6604392086
 30
0.0
 11
40.5259864442
 21
8.6604392086
 31
0.0
  0
LINE
  5
2A0
330
295
100
AcDbEntity
  8
0
  6
Continuous
 62
     7
 48
2.75
370
     0
100
AcDbLine
 10
36.38482384
 20
10.9635126433
 30
0.0
 11
36.38482384
 21
8.3576046739
 31
0.0
  0
LINE
  5
2A1
330
295
100
AcDbEntity
  8
0
  6
Continuous
 62
     7
 48
2.75
370
     0
100
AcDbLine
 10
43.38482384
 20
10.9635126433
 30
0.0
 11
43.38482384
 21
8.3576046739
 31
0.0
  0
LINE
  5
2A2
330
295
100
AcDbEntity
  8
0
  6
Continuous
 62
     7
 48
2.75
370
     0
100
AcDbLine
 10
36.38482384
 20
8.7013546739
 30
0.0
 11
38.79278018
 21
8.7013546739
 31
0.0
  0
LINE
  5
2A3
330
295
100
AcDbEntity
  8
0
  6
Continuous
 62
     7
 48
2.75
370
     0
100
AcDbLine
 10
43.38482384
 20
8.7013546739
 30
0.0
 11
40.9768675
 21
8.7013546739
 31
0.0
  0
MTEXT
  5
2A4
330
295
100
AcDbEntity
  8
0
  6
Continuous
 62
     7
 48
2.75
370
     0
100
AcDbMText
 10
39.4405109894
 20
9.1444716905
 30
0.0
 40
0.34375
 41
0.0
 71
     1
 72
     1
  1
7.00
  7
SLDTEXTSTYLE0
 73
     1
 44
1.0
  0
MTEXT
  5
2A5
330
295
100
AcDbEntity
  8
0
  6
Continuous
 62
     7
 48
2.75
370
     0
100
AcDbMText
 10
39.3134353449
 20
8.598932153
 30
0.0
 40
0.34375
 41
0.0
 71
     1
 72
     1
  1
177.8
  7
SLDTEXTSTYLE0
 73
     1
 44
1.0
  0
ENDBLK
  5
297
330
295
100
AcDbEntity
  8
0
100
AcDbBlockEnd
  0
BLOCK
  5
2A9
330
2A8
100
AcDbEntity
  8
0
100
AcDbBlockBegin
  2
*D11
 70
     1
 10
0.0
 20
0.0
 30
0.0
  3
*D11
  1

  0
SOLID
  5
2AB
330
2A8
100
AcDbEntity
  8
0
  6
Continuous
 62
     7
 48
2.75
370
     0
100
AcDbTrace
 10
43.4274549019
 20
10.9671364222
 30
0.0
 11
43.4835218947
 21
10.6098022057
 31
0.0
 12
43.5883360179
 22
10.6431788378
 32
0.0
 13
43.5883360179
 23
10.6431788378
 33
0.0
  0
LINE
  5
2AC
330
2A8
100
AcDbEntity
  8
0
  6
Continuous
 62
     7
 48
2.75
370
     0
100
AcDbLine
 10
42.78023541
 20
7.3193419327
 30
0.0
 11
42.78023541
 21
6.8556333258
 31
0.0
  0
LINE
  5
2AD
330
2A8
100
AcDbEntity
  8
0
  6
Continuous
 62
     7
 48
2.75
370
     0
100
AcDbLine
 10
42.78023541
 20
6.8556333258
 30
0.0
 11
42.8500095192
 21
6.8556333258
 31
0.0
  0
LINE
  5
2AE
330
2A8
100
AcDbEntity
  8
0
  6
Continuous
 62
     7
 48
2.75
370
     0
100
AcDbLine
 10
42.78023541
 20
7.3193419327
 30
0.0
 11
42.8500095192
 21
7.3193419327
 31
0.0
  0
LINE
  5
2AF
330
2A8
100
AcDbEntity
  8
0
  6
Continuous
 62
     7
 48
2.75
370
     0
100
AcDbLine
 10
43.947957548
 20
7.3193419327
 30
0.0
 11
43.947957548
 21
6.8556333258
 31
0.0
  0
LINE
  5
2B0
330
2A8
100
AcDbEntity
  8
0
  6
Continuous
 62
     7
 48
2.75
370
     0
100
AcDbLine
 10
43.947957548
 20
6.8556333258
 30
0.0
 11
43.8781834388
 21
6.8556333258
 31
0.0
  0
LINE
  5
2B1
330
2A8
100
AcDbEntity
  8
0
  6
Continuous
 62
     7
 48
2.75
370
     0
100
AcDbLine
 10
43.947957548
 20
7.3193419327
 30
0.0
 11
43.8781834388
 21
7.3193419327
 31
0.0
  0
LINE
  5
2B2
330
2A8
100
AcDbEntity
  8
0
  6
Continuous
 62
     7
 48
2.75
370
     0
100
AcDbLine
 10
43.4274549019
 20
10.9671364222
 30
0.0
 11
44.5760164752
 21
7.360257398
 31
0.0
  0
LINE
  5
2B3
330
2A8
100
AcDbEntity
  8
0
  6
Continuous
 62
     7
 48
2.75
370
     0
100
AcDbLine
 10
44.5760164752
 20
7.360257398
 30
0.0
 11
44.2322664752
 21
7.360257398
 31
0.0
  0
MTEXT
  5
2B4
330
2A8
100
AcDbEntity
  8
0
  6
Continuous
 62
     7
 48
2.75
370
     0
100
AcDbMText
 10
42.6742908365
 20
7.8033744209
 30
0.0
 40
0.34375
 41
0.0
 71
     1
 72
     1
  1
%%c
  7
SLDTEXTSTYLE0
 73
     1
 44
1.0
  0
MTEXT
  5
2B5
330
2A8
100
AcDbEntity
  8
0
  6
Continuous
 62
     7
 48
2.75
370
     0
100
AcDbMText
 10
43.1652764202
 20
7.8033744146
 30
0.0
 40
0.34375
 41
0.0
 71
     1
 72
     1
  1
.281
  7
SLDTEXTSTYLE0
 73
     1
 44
1.0
  0
MTEXT
  5
2B6
330
2A8
100
AcDbEntity
  8
0
  6
Continuous
 62
     7
 48
2.75
370
     0
100
AcDbMText
 10
42.9197836284
 20
7.2578348771
 30
0.0
 40
0.34375
 41
0.0
 71
     1
 72
     1
  1
7.14
  7
SLDTEXTSTYLE0
 73
     1
 44
1.0
  0
ENDBLK
  5
2AA
330
2A8
100
AcDbEntity
  8
0
100
AcDbBlockEnd
  0
BLOCK
  5
2B9
330
2B8
100
AcDbEntity
  8
0
100
AcDbBlockBegin
  2
*D12
 70
     1
 10
0.0
 20
0.0
 30
0.0
  3
*D12
  1

  0
SOLID
  5
2BB
330
2B8
100
AcDbEntity
  8
0
  6
Continuous
 62
     7
 48
2.75
370
     0
100
AcDbTrace
 10
44.7842531471
 20
15.6010126433
 30
0.0
 11
44.8392531471
 21
15.9585126433
 31
0.0
 12
44.7292531471
 22
15.9585126433
 32
0.0
 13
44.7292531471
 23
15.9585126433
 33
0.0
  0
SOLID
  5
2BC
330
2B8
100
AcDbEntity
  8
0
  6
Continuous
 62
     7
 48
2.75
370
     0
100
AcDbTrace
 10
44.7842531471
 20
17.6010126433
 30
0.0
 11
44.7292531471
 21
17.2435126433
 31
0.0
 12
44.8392531471
 22
17.2435126433
 32
0.0
 13
44.8392531471
 23
17.2435126433
 33
0.0
  0
LINE
  5
2BD
330
2B8
100
AcDbEntity
  8
0
  6
Continuous
 62
     7
 48
2.75
370
     0
100
AcDbLine
 10
44.2003920782
 20
16.560097178
 30
0.0
 11
44.2003920782
 21
16.0963885711
 31
0.0
  0
LINE
  5
2BE
330
2B8
100
AcDbEntity
  8
0
  6
Continuous
 62
     7
 48
2.75
370
     0
100
AcDbLine
 10
44.2003920782
 20
16.0963885711
 30
0.0
 11
44.2701661873
 21
16.0963885711
 31
0.0
  0
LINE
  5
2BF
330
2B8
100
AcDbEntity
  8
0
  6
Continuous
 62
     7
 48
2.75
370
     0
100
AcDbLine
 10
44.2003920782
 20
16.560097178
 30
0.0
 11
44.2701661873
 21
16.560097178
 31
0.0
  0
LINE
  5
2C0
330
2B8
100
AcDbEntity
  8
0
  6
Continuous
 62
     7
 48
2.75
370
     0
100
AcDbLine
 10
45.3681142161
 20
16.560097178
 30
0.0
 11
45.3681142161
 21
16.0963885711
 31
0.0
  0
LINE
  5
2C1
330
2B8
100
AcDbEntity
  8
0
  6
Continuous
 62
     7
 48
2.75
370
     0
100
AcDbLine
 10
45.3681142161
 20
16.0963885711
 30
0.0
 11
45.298340107
 21
16.0963885711
 31
0.0
  0
LINE
  5
2C2
330
2B8
100
AcDbEntity
  8
0
  6
Continuous
 62
     7
 48
2.75
370
     0
100
AcDbLine
 10
45.3681142161
 20
16.560097178
 30
0.0
 11
45.298340107
 21
16.560097178
 31
0.0
  0
LINE
  5
2C3
330
2B8
100
AcDbEntity
  8
0
  6
Continuous
 62
     7
 48
2.75
370
     0
100
AcDbLine
 10
42.02232384
 20
15.6010126433
 30
0.0
 11
45.1280031471
 21
15.6010126433
 31
0.0
  0
LINE
  5
2C4
330
2B8
100
AcDbEntity
  8
0
  6
Continuous
 62
     7
 48
2.75
370
     0
100
AcDbLine
 10
44.02232384
 20
17.6010126433
 30
0.0
 11
45.1280031471
 21
17.6010126433
 31
0.0
  0
LINE
  5
2C5
330
2B8
100
AcDbEntity
  8
0
  6
Continuous
 62
     7
 48
2.75
370
     0
100
AcDbLine
 10
44.7842531471
 20
15.6010126433
 30
0.0
 11
44.7842531471
 21
16.0554731057
 31
0.0
  0
LINE
  5
2C6
330
2B8
100
AcDbEntity
  8
0
  6
Continuous
 62
     7
 48
2.75
370
     0
100
AcDbLine
 10
44.7842531471
 20
17.6010126433
 30
0.0
 11
44.7842531471
 21
17.1465521808
 31
0.0
  0
MTEXT
  5
2C7
330
2B8
100
AcDbEntity
  8
0
  6
Continuous
 62
     7
 48
2.75
370
     0
100
AcDbMText
 10
44.3399402965
 20
17.0441296599
 30
0.0
 40
0.34375
 41
0.0
 71
     1
 72
     1
  1
2.00
  7
SLDTEXTSTYLE0
 73
     1
 44
1.0
  0
MTEXT
  5
2C8
330
2B8
100
AcDbEntity
  8
0
  6
Continuous
 62
     7
 48
2.75
370
     0
100
AcDbMText
 10
44.3399402965
 20
16.4985901224
 30
0.0
 40
0.34375
 41
0.0
 71
     1
 72
     1
  1
50.8
  7
SLDTEXTSTYLE0
 73
     1
 44
1.0
  0
ENDBLK
  5
2BA
330
2B8
100
AcDbEntity
  8
0
100
AcDbBlockEnd
  0
BLOCK
  5
2CC
330
2CB
100
AcDbEntity
  8
0
100
AcDbBlockBegin
  2
*D13
 70
     1
 10
0.0
 20
0.0
 30
0.0
  3
*D13
  1

  0
SOLID
  5
2CE
330
2CB
100
AcDbEntity
  8
0
  6
Continuous
 62
     7
 48
2.75
370
     0
100
AcDbTrace
 10
41.88482384
 20
18.4615409555
 30
0.0
 11
41.52732384
 21
18.5165409555
 31
0.0
 12
41.52732384
 22
18.4065409555
 32
0.0
 13
41.52732384
 23
18.4065409555
 33
0.0
  0
SOLID
  5
2CF
330
2CB
100
AcDbEntity
  8
0
  6
Continuous
 62
     7
 48
2.75
370
     0
100
AcDbTrace
 10
43.88482384
 20
18.4615409555
 30
0.0
 11
44.24232384
 21
18.4065409555
 31
0.0
 12
44.24232384
 22
18.5165409555
 32
0.0
 13
44.24232384
 23
18.5165409555
 33
0.0
  0
LINE
  5
2D0
330
2CB
100
AcDbEntity
  8
0
  6
Continuous
 62
     7
 48
2.75
370
     0
100
AcDbLine
 10
42.300962771
 20
18.4206254902
 30
0.0
 11
42.300962771
 21
17.9569168833
 31
0.0
  0
LINE
  5
2D1
330
2CB
100
AcDbEntity
  8
0
  6
Continuous
 62
     7
 48
2.75
370
     0
100
AcDbLine
 10
42.300962771
 20
17.9569168833
 30
0.0
 11
42.3707368802
 21
17.9569168833
 31
0.0
  0
LINE
  5
2D2
330
2CB
100
AcDbEntity
  8
0
  6
Continuous
 62
     7
 48
2.75
370
     0
100
AcDbLine
 10
42.300962771
 20
18.4206254902
 30
0.0
 11
42.3707368802
 21
18.4206254902
 31
0.0
  0
LINE
  5
2D3
330
2CB
100
AcDbEntity
  8
0
  6
Continuous
 62
     7
 48
2.75
370
     0
100
AcDbLine
 10
43.468684909
 20
18.4206254902
 30
0.0
 11
43.468684909
 21
17.9569168833
 31
0.0
  0
LINE
  5
2D4
330
2CB
100
AcDbEntity
  8
0
  6
Continuous
 62
     7
 48
2.75
370
     0
100
AcDbLine
 10
43.468684909
 20
17.9569168833
 30
0.0
 11
43.3989107998
 21
17.9569168833
 31
0.0
  0
LINE
  5
2D5
330
2CB
100
AcDbEntity
  8
0
  6
Continuous
 62
     7
 48
2.75
370
     0
100
AcDbLine
 10
43.468684909
 20
18.4206254902
 30
0.0
 11
43.3989107998
 21
18.4206254902
 31
0.0
  0
LINE
  5
2D6
330
2CB
100
AcDbEntity
  8
0
  6
Continuous
 62
     7
 48
2.75
370
     0
100
AcDbLine
 10
41.88482384
 20
15.7385126433
 30
0.0
 11
41.88482384
 21
18.8052909555
 31
0.0
  0
LINE
  5
2D7
330
2CB
100
AcDbEntity
  8
0
  6
Continuous
 62
     7
 48
2.75
370
     0
100
AcDbLine
 10
43.88482384
 20
17.7385126433
 30
0.0
 11
43.88482384
 21
18.8052909555
 31
0.0
  0
LINE
  5
2D8
330
2CB
100
AcDbEntity
  8
0
  6
Continuous
 62
     7
 48
2.75
370
     0
100
AcDbLine
 10
41.88482384
 20
18.4615409555
 30
0.0
 11
41.19732384
 21
18.4615409555
 31
0.0
  0
LINE
  5
2D9
330
2CB
100
AcDbEntity
  8
0
  6
Continuous
 62
     7
 48
2.75
370
     0
100
AcDbLine
 10
43.88482384
 20
18.4615409555
 30
0.0
 11
44.57232384
 21
18.4615409555
 31
0.0
  0
MTEXT
  5
2DA
330
2CB
100
AcDbEntity
  8
0
  6
Continuous
 62
     7
 48
2.75
370
     0
100
AcDbMText
 10
42.4405109894
 20
18.9046579721
 30
0.0
 40
0.34375
 41
0.0
 71
     1
 72
     1
  1
2.00
  7
SLDTEXTSTYLE0
 73
     1
 44
1.0
  0
MTEXT
  5
2DB
330
2CB
100
AcDbEntity
  8
0
  6
Continuous
 62
     7
 48
2.75
370
     0
100
AcDbMText
 10
42.4405109894
 20
18.3591184346
 30
0.0
 40
0.34375
 41
0.0
 71
     1
 72
     1
  1
50.8
  7
SLDTEXTSTYLE0
 73
     1
 44
1.0
  0
ENDBLK
  5
2CD
330
2CB
100
AcDbEntity
  8
0
100
AcDbBlockEnd
  0
BLOCK
  5
3E9
330
3E8
100
AcDbEntity
  8
0
100
AcDbBlockBegin
  2
*D14
 70
     1
 10
0.0
 20
0.0
 30
0.0
  3
*D14
  1

  0
SOLID
  5
3EB
330
3E8
100
AcDbEntity
  8
0
  6
Continuous
 62
     7
 48
2.75
370
     0
100
AcDbTrace
 10
26.6753130917
 20
16.5614288171
 30
0.0
 11
26.3178130917
 21
16.6164288171
 31
0.0
 12
26.3178130917
 22
16.5064288171
 32
0.0
 13
26.3178130917
 23
16.5064288171
 33
0.0
  0
SOLID
  5
3EC
330
3E8
100
AcDbEntity
  8
0
  6
Continuous
 62
     7
 48
2.75
370
     0
100
AcDbTrace
 10
27.1753130917
 20
16.5614288171
 30
0.0
 11
27.5328130917
 21
16.5064288171
 31
0.0
 12
27.5328130917
 22
16.6164288171
 32
0.0
 13
27.5328130917
 23
16.6164288171
 33
0.0
  0
LINE
  5
3ED
330
3E8
100
AcDbEntity
  8
0
  6
Continuous
 62
     7
 48
2.75
370
     0
100
AcDbLine
 10
28.1787941855
 20
16.5205133518
 30
0.0
 11
28.1787941855
 21
16.0568047449
 31
0.0
  0
LINE
  5
3EE
330
3E8
100
AcDbEntity
  8
0
  6
Continuous
 62
     7
 48
2.75
370
     0
100
AcDbLine
 10
28.1787941855
 20
16.0568047449
 30
0.0
 11
28.2485682947
 21
16.0568047449
 31
0.0
  0
LINE
  5
3EF
330
3E8
100
AcDbEntity
  8
0
  6
Continuous
 62
     7
 48
2.75
370
     0
100
AcDbLine
 10
28.1787941855
 20
16.5205133518
 30
0.0
 11
28.2485682947
 21
16.5205133518
 31
0.0
  0
LINE
  5
3F0
330
3E8
100
AcDbEntity
  8
0
  6
Continuous
 62
     7
 48
2.75
370
     0
100
AcDbLine
 10
29.3465163235
 20
16.5205133518
 30
0.0
 11
29.3465163235
 21
16.0568047449
 31
0.0
  0
LINE
  5
3F1
330
3E8
100
AcDbEntity
  8
0
  6
Continuous
 62
     7
 48
2.75
370
     0
100
AcDbLine
 10
29.3465163235
 20
16.0568047449
 30
0.0
 11
29.2767422143
 21
16.0568047449
 31
0.0
  0
LINE
  5
3F2
330
3E8
100
AcDbEntity
  8
0
  6
Continuous
 62
     7
 48
2.75
370
     0
100
AcDbLine
 10
29.3465163235
 20
16.5205133518
 30
0.0
 11
29.2767422143
 21
16.5205133518
 31
0.0
  0
LINE
  5
3F3
330
3E8
100
AcDbEntity
  8
0
  6
Continuous
 62
     7
 48
2.75
370
     0
100
AcDbLine
 10
26.6753130917
 20
16.5614288171
 30
0.0
 11
25.9878130917
 21
16.5614288171
 31
0.0
  0
LINE
  5
3F4
330
3E8
100
AcDbEntity
  8
0
  6
Continuous
 62
     7
 48
2.75
370
     0
100
AcDbLine
 10
27.1753130917
 20
16.5614288171
 30
0.0
 11
27.7976872389
 21
16.5614288171
 31
0.0
  0
MTEXT
  5
3F5
330
3E8
100
AcDbEntity
  8
0
  6
Continuous
 62
     7
 48
2.75
370
     0
100
AcDbMText
 10
28.4452372863
 20
17.0045458338
 30
0.0
 40
0.34375
 41
0.0
 71
     1
 72
     1
  1
.50
  7
SLDTEXTSTYLE0
 73
     1
 44
1.0
  0
MTEXT
  5
3F6
330
3E8
100
AcDbEntity
  8
0
  6
Continuous
 62
     7
 48
2.75
370
     0
100
AcDbMText
 10
28.3183424038
 20
16.4590062963
 30
0.0
 40
0.34375
 41
0.0
 71
     1
 72
     1
  1
12.7
  7
SLDTEXTSTYLE0
 73
     1
 44
1.0
  0
ENDBLK
  5
3EA
330
3E8
100
AcDbEntity
  8
0
100
AcDbBlockEnd
  0
BLOCK
  5
3F8
330
3F7
100
AcDbEntity
  8
0
100
AcDbBlockBegin
  2
SW_NOTE_5
 70
     0
 10
0.0
 20
0.0
 30
0.0
  3
SW_NOTE_5
  1

  0
MTEXT
  5
3FA
330
3F7
100
AcDbEntity
  8
0
  6
Continuous
 62
     0
 48
2.75
370
     0
100
AcDbMText
 10
0.054347426
 20
0.1667678231
 30
0.0
 40
0.34375
 41
0.0
 71
     1
 72
     1
  1
GROUNDING
  7
SLDTEXTSTYLE0
 73
     1
 44
1.0
  0
MTEXT
  5
3FB
330
3F7
100
AcDbEntity
  8
0
  6
Continuous
 62
     0
 48
2.75
370
     0
100
AcDbMText
 10
0.054347426
 20
-0.2852498818
 30
0.0
 40
0.34375
 41
0.0
 71
     1
 72
     1
  1
EMBOSS
  7
SLDTEXTSTYLE0
 73
     1
 44
1.0
  0
ENDBLK
  5
3F9
330
3F7
100
AcDbEntity
  8
0
100
AcDbBlockEnd
  0
ENDSEC
  0
SECTION
  2
ENTITIES
  0
LINE
  5
44
330
1F
100
AcDbEntity
  8
0
  6
Continuous
 62
     7
 48
2.75
370
     0
100
AcDbLine
 10
0.8614419127
 20
29.4389512195
 30
0.0
 11
45.8954419127
 21
29.4389512195
 31
0.0
  0
LINE
  5
45
330
1F
100
AcDbEntity
  8
0
  6
Continuous
 62
     7
 48
2.75
370
     0
100
AcDbLine
 10
45.8954419127
 20
0.9049512195
 30
0.0
 11
45.8954419127
 21
29.4389512195
 31
0.0
  0
LINE
  5
46
330
1F
100
AcDbEntity
  8
0
  6
Continuous
 62
     7
 48
2.75
370
     0
100
AcDbLine
 10
45.8954419127
 20
0.9049512195
 30
0.0
 11
0.8614419127
 21
0.9049512195
 31
0.0
  0
LINE
  5
47
330
1F
100
AcDbEntity
  8
0
  6
Continuous
 62
     7
 48
2.75
370
     0
100
AcDbLine
 10
0.8614419127
 20
29.4389512195
 30
0.0
 11
0.8614419127
 21
0.9049512195
 31
0.0
  0
LINE
  5
48
330
1F
100
AcDbEntity
  8
0
  6
Continuous
 62
     7
 48
2.75
370
     0
100
AcDbLine
 10
0.6909419127
 20
29.6094512195
 30
0.0
 11
46.0659419127
 21
29.6094512195
 31
0.0
  0
LINE
  5
49
330
1F
100
AcDbEntity
  8
0
  6
Continuous
 62
     7
 48
2.75
370
     0
100
AcDbLine
 10
46.0659419127
 20
0.7344512195
 30
0.0
 11
0.6909419127
 21
0.7344512195
 31
0.0
  0
LINE
  5
4A
330
1F
100
AcDbEntity
  8
0
  6
Continuous
 62
     7
 48
2.75
370
     0
100
AcDbLine
 10
0.6909419127
 20
29.6094512195
 30
0.0
 11
0.6909419127
 21
0.7344512195
 31
0.0
  0
LINE
  5
4B
330
1F
100
AcDbEntity
  8
0
  6
Continuous
 62
     7
 48
2.75
370
     0
100
AcDbLine
 10
46.0659419127
 20
0.7344512195
 30
0.0
 11
46.0659419127
 21
29.6094512195
 31
0.0
  0
LINE
  5
4C
330
1F
100
AcDbEntity
  8
0
  6
Continuous
 62
     7
 48
2.75
370
     0
100
AcDbLine
 10
0.8614419127
 20
28.3224512195
 30
0.0
 11
45.8954419127
 21
28.3224512195
 31
0.0
  0
LINE
  5
4D
330
1F
100
AcDbEntity
  8
0
  6
Continuous
 62
     7
 48
2.75
370
     0
100
AcDbLine
 10
2.9239419127
 20
29.4389512195
 30
0.0
 11
2.9239419127
 21
28.3224512195
 31
0.0
  0
LINE
  5
4E
330
1F
100
AcDbEntity
  8
0
  6
Continuous
 62
     7
 48
2.75
370
     0
100
AcDbLine
 10
20.4579419127
 20
28.3224512195
 30
0.0
 11
20.4579419127
 21
29.4389512195
 31
0.0
  0
LINE
  5
4F
330
1F
100
AcDbEntity
  8
0
  6
Continuous
 62
     7
 48
2.75
370
     0
100
AcDbLine
 10
20.6284419127
 20
28.3224512195
 30
0.0
 11
20.6284419127
 21
29.4389512195
 31
0.0
  0
LINE
  5
50
330
1F
100
AcDbEntity
  8
0
  6
Continuous
 62
     7
 48
2.75
370
     0
100
AcDbLine
 10
42.4579419127
 20
28.3224512195
 30
0.0
 11
42.4579419127
 21
29.4389512195
 31
0.0
  0
LINE
  5
51
330
1F
100
AcDbEntity
  8
0
  6
Continuous
 62
     7
 48
2.75
370
     0
100
AcDbLine
 10
22.6909419127
 20
28.3224512195
 30
0.0
 11
22.6909419127
 21
29.4389512195
 31
0.0
  0
LINE
  5
52
330
1F
100
AcDbEntity
  8
0
  6
Continuous
 62
     7
 48
2.75
370
     0
100
AcDbLine
 10
40.3954419127
 20
28.3224512195
 30
0.0
 11
40.3954419127
 21
29.4389512195
 31
0.0
  0
LINE
  5
53
330
1F
100
AcDbEntity
  8
0
  6
Continuous
 62
     7
 48
2.75
370
     0
100
AcDbLine
 10
40.2249419127
 20
28.3224512195
 30
0.0
 11
40.2249419127
 21
29.4389512195
 31
0.0
  0
INSERT
  5
7C
330
1F
100
AcDbEntity
  8
0
  6
Continuous
 62
     7
 48
2.75
370
     0
100
AcDbBlockReference
  2
SW_NOTE_0
 10
23.695932459
 20
24.953716782
 30
0.0
  0
MTEXT
  5
7D
330
1F
100
AcDbEntity
  8
0
  6
Continuous
 62
     7
 48
2.75
370
     0
100
AcDbMText
 10
43.0622071429
 20
29.1756199463
 30
0.0
 40
0.515625
 41
0.0
 71
     1
 72
     1
  1
7-18-11
  7
SLDTEXTSTYLE0
 73
     1
 44
1.0
  0
MTEXT
  5
7E
330
1F
100
AcDbEntity
  8
0
  6
Continuous
 62
     7
 48
2.75
370
     0
100
AcDbMText
 10
9.2059085563
 20
29.1464664972
 30
0.0
 40
0.515625
 41
0.0
 71
     1
 72
     1
  1
JUNCTION BOX
  7
SLDTEXTSTYLE0
 73
     1
 44
1.0
  0
MTEXT
  5
7F
330
1F
100
AcDbEntity
  8
0
  6
Continuous
 62
     7
 48
2.75
370
     0
100
AcDbMText
 10
30.2777504681
 20
29.1815885143
 30
0.0
 40
0.515625
 41
0.0
 71
     1
 72
     1
  1
JB-3957
  7
SLDTEXTSTYLE0
 73
     1
 44
1.0
  0
INSERT
  5
85
330
1F
100
AcDbEntity
  8
0
  6
Continuous
 62
     7
 48
2.75
370
     0
100
AcDbBlockReference
  2
SW_NOTE_1
 10
1.3410077639
 20
28.8880900729
 30
0.0
  0
INSERT
  5
8B
330
1F
100
AcDbEntity
  8
0
  6
Continuous
 62
     7
 48
2.75
370
     0
100
AcDbBlockReference
  2
SW_NOTE_2
 10
21.134065947
 20
28.8755451592
 30
0.0
  0
INSERT
  5
91
330
1F
100
AcDbEntity
  8
0
  6
Continuous
 62
     7
 48
2.75
370
     0
100
AcDbBlockReference
  2
SW_NOTE_3
 10
40.4487562254
 20
28.8843046999
 30
0.0
  0
ARC
  5
92
330
1F
100
AcDbEntity
  8
0
  6
Continuous
 62
     7
 48
7.5625
370
    15
100
AcDbCircle
 10
16.3548546694
 20
15.3290126433
 30
0.0
 40
0.2030000000000011
100
AcDbArc
 50
133.2687098489
 51
46.7312901511
  0
LINE
  5
93
330
1F
100
AcDbEntity
  8
0
  6
Continuous
 62
     7
 48
2.75
370
    15
100
AcDbLine
 10
16.6048546211
 20
9.6010126916
 30
0.0
 11
16.6048546211
 21
17.6010125949
 31
0.0
  0
LINE
  5
94
330
1F
100
AcDbEntity
  8
0
  6
Continuous
 62
     7
 48
2.75
370
    15
100
AcDbLine
 10
8.6048547178
 20
9.6010126916
 30
0.0
 11
16.6048546211
 21
9.6010126916
 31
0.0
  0
ARC
  5
95
330
1F
100
AcDbEntity
  8
0
  6
Continuous
 62
     7
 48
7.5625
370
    15
100
AcDbCircle
 10
8.8548546694
 20
15.3290126433
 30
0.0
 40
0.2029999999999999
100
AcDbArc
 50
133.2687098489
 51
46.7312901511
  0
ARC
  5
96
330
1F
100
AcDbEntity
  8
0
  6
Continuous
 62
     7
 48
7.5625
370
    15
100
AcDbCircle
 10
8.8548546694
 20
11.3290126433
 30
0.0
 40
0.2030000000000013
100
AcDbArc
 50
133.2687098493
 51
46.7312901508
  0
ARC
  5
97
330
1F
100
AcDbEntity
  8
0
  6
Continuous
 62
     7
 48
7.5625
370
    15
100
AcDbCircle
 10
16.3548546694
 20
11.3290126433
 30
0.0
 40
0.2030000000000012
100
AcDbArc
 50
133.2687098483
 51
46.7312901517
  0
LINE
  5
98
330
1F
100
AcDbEntity
  8
0
  6
Continuous
 62
     7
 48
2.75
370
    15
100
AcDbLine
 10
8.6048547178
 20
17.6010125949
 30
0.0
 11
8.6048547178
 21
9.6010126916
 31
0.0
  0
LINE
  5
99
330
1F
100
AcDbEntity
  8
0
  6
Continuous
 62
     7
 48
2.75
370
    15
100
AcDbLine
 10
16.6048546211
 20
17.6010125949
 30
0.0
 11
8.6048547178
 21
17.6010125949
 31
0.0
  0
LWPOLYLINE
  5
9A
330
1F
100
AcDbEntity
  8
0
  6
Continuous
 62
     7
 48
2.75
370
    15
100
AcDbPolyline
 90
        9
 70
   128
 43
0.0
 10
8.8138757698
 20
15.5824025941
 10
8.8029703491
 20
15.5716598248
 10
8.7922544196
 20
15.5611039068
 10
8.7817781406
 20
15.550783826
 10
8.771589325
 20
15.5407472486
 10
8.7617357855
 20
15.5310406674
 10
8.7522629882
 20
15.5217089619
 10
8.7432143461
 20
15.5127953982
 10
8.7346320986
 20
15.5043411892
  0
ARC
  5
9B
330
1F
100
AcDbEntity
  8
0
  6
Continuous
 62
     7
 48
7.5625
370
    15
100
AcDbCircle
 10
8.8548546694
 20
15.6010126433
 30
0.0
 40
0.1542687964746288
100
AcDbArc
 50
218.802861523
 51
230.3357915391
  0
LWPOLYLINE
  5
9C
330
1F
100
AcDbEntity
  8
0
  6
Continuous
 62
     7
 48
2.75
370
    15
100
AcDbPolyline
 90
        9
 70
   128
 43
0.0
 10
8.7563869139
 20
15.4822568176
 10
8.7649691615
 20
15.4907110266
 10
8.7740178036
 20
15.4996245903
 10
8.7834908942
 20
15.5089562959
 10
8.7933444337
 20
15.5186627304
 10
8.803532956
 20
15.5286993078
 10
8.8140095283
 20
15.5390195352
 10
8.8247251645
 20
15.5495753066
 10
8.8356308785
 20
15.5603182225
  0
LWPOLYLINE
  5
9D
330
1F
100
AcDbEntity
  8
0
  6
Continuous
 62
     7
 48
2.75
370
    15
100
AcDbPolyline
 90
        9
 70
   128
 43
0.0
 10
8.895833623
 20
15.6196226441
 10
8.9067390437
 20
15.6303654133
 10
8.9174549733
 20
15.6409213314
 10
8.9279312522
 20
15.6512414122
 10
8.9381197745
 20
15.6612779896
 10
8.9479736074
 20
15.6709845708
 10
8.9574464046
 20
15.6803162763
 10
8.9664950467
 20
15.68922984
 10
8.9750772943
 20
15.697684049
  0
ARC
  5
9E
330
1F
100
AcDbEntity
  8
0
  6
Continuous
 62
     7
 48
7.5625
370
    15
100
AcDbCircle
 10
8.8548546694
 20
15.6010126433
 30
0.0
 40
0.1542687964746317
100
AcDbArc
 50
38.802861523
 51
50.3357915391
  0
LWPOLYLINE
  5
9F
330
1F
100
AcDbEntity
  8
0
  6
Continuous
 62
     7
 48
2.75
370
    15
100
AcDbPolyline
 90
        9
 70
   128
 43
0.0
 10
8.9533224789
 20
15.7197685672
 10
8.9447402314
 20
15.7113143582
 10
8.9356915892
 20
15.7024007945
 10
8.9262184987
 20
15.693069089
 10
8.9163649592
 20
15.6833625078
 10
8.9061764369
 20
15.6733259304
 10
8.8956998646
 20
15.6630058496
 10
8.8849842284
 20
15.6524499316
 10
8.8740785143
 20
15.6417071623
  0
LWPOLYLINE
  5
A0
330
1F
100
AcDbEntity
  8
0
  6
Continuous
 62
     7
 48
2.75
370
    15
100
AcDbPolyline
 90
        9
 70
   128
 43
0.0
 10
8.8356308785
 20
15.5603182225
 10
8.8431134321
 20
15.5602619032
 10
8.8506085988
 20
15.5602055838
 10
8.8581081655
 20
15.5601492645
 10
8.8656036256
 20
15.5600929451
 10
8.8730870591
 20
15.5600366258
 10
8.8805505462
 20
15.5599805998
 10
8.8879855804
 20
15.5599245737
 10
8.8953842416
 20
15.5598689877
  0
LWPOLYLINE
  5
A1
330
1F
100
AcDbEntity
  8
0
  6
Continuous
 62
     7
 48
2.75
370
    15
100
AcDbPolyline
 90
        9
 70
   128
 43
0.0
 10
8.8953842416
 20
15.5598689877
 10
8.8954399742
 20
15.5672677956
 10
8.8954960003
 20
15.5747028297
 10
8.8955520263
 20
15.5821661701
 10
8.8956083456
 20
15.5896497504
 10
8.895664665
 20
15.5971453571
 10
8.8957209843
 20
15.6046447771
 10
8.8957773037
 20
15.6121399439
 10
8.895833623
 20
15.6196226441
  0
LWPOLYLINE
  5
A2
330
1F
100
AcDbEntity
  8
0
  6
Continuous
 62
     7
 48
2.75
370
    15
100
AcDbPolyline
 90
        9
 70
   128
 43
0.0
 10
8.8740785143
 20
15.6417071623
 10
8.8665959608
 20
15.641763335
 10
8.859100794
 20
15.6418196544
 10
8.8516012273
 20
15.6418761204
 10
8.8441057673
 20
15.6419324397
 10
8.8366220404
 20
15.6419886124
 10
8.8291588466
 20
15.6420447851
 10
8.8217238125
 20
15.6421006644
 10
8.814324858
 20
15.6421562505
  0
LWPOLYLINE
  5
A3
330
1F
100
AcDbEntity
  8
0
  6
Continuous
 62
     7
 48
2.75
370
    15
100
AcDbPolyline
 90
        9
 70
   128
 43
0.0
 10
8.814324858
 20
15.6421562505
 10
8.8142694186
 20
15.6347575893
 10
8.8142133926
 20
15.6273224085
 10
8.8141573666
 20
15.619859068
 10
8.8141010472
 20
15.6123754878
 10
8.8140447279
 20
15.6048800278
 10
8.8139884085
 20
15.5973804611
 10
8.8139320892
 20
15.5898852943
 10
8.8138757698
 20
15.5824025941
  0
LINE
  5
A4
330
1F
100
AcDbEntity
  8
0
  6
Continuous
 62
     7
 48
2.75
370
    15
100
AcDbLine
 10
8.8137109184
 20
15.5604829273
 30
0.0
 11
8.8356308785
 21
15.5603182225
 31
0.0
  0
LINE
  5
A5
330
1F
100
AcDbEntity
  8
0
  6
Continuous
 62
     7
 48
2.75
370
    15
100
AcDbLine
 10
8.8138757698
 20
15.5824025941
 30
0.0
 11
8.8137109184
 21
15.5604829273
 31
0.0
  0
LINE
  5
A6
330
1F
100
AcDbEntity
  8
0
  6
Continuous
 62
     7
 48
2.75
370
    15
100
AcDbLine
 10
8.895833623
 20
15.6196226441
 30
0.0
 11
8.8959981811
 21
15.6415423109
 31
0.0
  0
LINE
  5
A7
330
1F
100
AcDbEntity
  8
0
  6
Continuous
 62
     7
 48
2.75
370
    15
100
AcDbLine
 10
8.8959981811
 20
15.6415423109
 30
0.0
 11
8.8740785143
 21
15.6417071623
 31
0.0
  0
CIRCLE
  5
A8
330
1F
100
AcDbEntity
  8
0
  6
Continuous
 62
     7
 48
7.5625
370
    15
100
AcDbCircle
 10
8.8548546694
 20
15.6010126433
 30
0.0
 40
0.1864999999999979
  0
LWPOLYLINE
  5
A9
330
1F
100
AcDbEntity
  8
0
  6
Continuous
 62
     7
 48
2.75
370
    15
100
AcDbPolyline
 90
        9
 70
   128
 43
0.0
 10
16.3356308245
 20
15.6417071623
 10
16.3247251105
 20
15.6524499316
 10
16.3140094743
 20
15.6630058496
 10
16.303532902
 20
15.6733259304
 10
16.2933443797
 20
15.6833625078
 10
16.2834908402
 20
15.693069089
 10
16.2740177496
 20
15.7024007945
 10
16.2649691075
 20
15.7113143582
 10
16.25638686
 20
15.7197685672
  0
ARC
  5
AA
330
1F
100
AcDbEntity
  8
0
  6
Continuous
 62
     7
 48
7.5625
370
    15
100
AcDbCircle
 10
16.3548546694
 20
15.6010126433
 30
0.0
 40
0.1542687964746306
100
AcDbArc
 50
129.6642084609
 51
141.197138477
  0
LWPOLYLINE
  5
AB
330
1F
100
AcDbEntity
  8
0
  6
Continuous
 62
     7
 48
2.75
370
    15
100
AcDbPolyline
 90
        9
 70
   128
 43
0.0
 10
16.2346320446
 20
15.697684049
 10
16.2432142921
 20
15.68922984
 10
16.2522629343
 20
15.6803162763
 10
16.2617357315
 20
15.6709845708
 10
16.2715895643
 20
15.6612779896
 10
16.2817780866
 20
15.6512414122
 10
16.2922543656
 20
15.6409213314
 10
16.3029702952
 20
15.6303654133
 10
16.3138757158
 20
15.6196226441
  0
LWPOLYLINE
  5
AC
330
1F
100
AcDbEntity
  8
0
  6
Continuous
 62
     7
 48
2.75
370
    15
100
AcDbPolyline
 90
        9
 70
   128
 43
0.0
 10
16.3138757158
 20
15.6196226441
 10
16.3139320352
 20
15.6121399439
 10
16.3139883545
 20
15.6046447771
 10
16.3140446739
 20
15.5971453571
 10
16.3141009932
 20
15.5896497504
 10
16.3141573126
 20
15.5821661701
 10
16.3142133386
 20
15.5747028297
 10
16.3142693646
 20
15.5672677956
 10
16.3143250973
 20
15.5598689877
  0
LWPOLYLINE
  5
AD
330
1F
100
AcDbEntity
  8
0
  6
Continuous
 62
     7
 48
2.75
370
    15
100
AcDbPolyline
 90
        9
 70
   128
 43
0.0
 10
16.3143250973
 20
15.5598689877
 10
16.3217237585
 20
15.5599245737
 10
16.3291587926
 20
15.5599805998
 10
16.3366222797
 20
15.5600366258
 10
16.3441057133
 20
15.5600929451
 10
16.3516011734
 20
15.5601492645
 10
16.3591007401
 20
15.5602055838
 10
16.3665959068
 20
15.5602619032
 10
16.3740784604
 20
15.5603182225
  0
LWPOLYLINE
  5
AE
330
1F
100
AcDbEntity
  8
0
  6
Continuous
 62
     7
 48
2.75
370
    15
100
AcDbPolyline
 90
        9
 70
   128
 43
0.0
 10
16.3740784604
 20
15.5603182225
 10
16.3849841744
 20
15.5495753066
 10
16.3956998106
 20
15.5390195352
 10
16.4061763829
 20
15.5286993078
 10
16.4163649052
 20
15.5186627304
 10
16.4262184447
 20
15.5089562959
 10
16.4356915353
 20
15.4996245903
 10
16.4447401774
 20
15.4907110266
 10
16.4533224249
 20
15.4822568176
  0
ARC
  5
AF
330
1F
100
AcDbEntity
  8
0
  6
Continuous
 62
     7
 48
7.5625
370
    15
100
AcDbCircle
 10
16.3548546694
 20
15.6010126433
 30
0.0
 40
0.1542687964746288
100
AcDbArc
 50
309.6642084609
 51
321.197138477
  0
LWPOLYLINE
  5
B0
330
1F
100
AcDbEntity
  8
0
  6
Continuous
 62
     7
 48
2.75
370
    15
100
AcDbPolyline
 90
        9
 70
   128
 43
0.0
 10
16.4750772403
 20
15.5043411892
 10
16.4664949928
 20
15.5127953982
 10
16.4574463506
 20
15.5217089619
 10
16.4479735534
 20
15.5310406674
 10
16.4381200139
 20
15.5407472486
 10
16.4279311983
 20
15.550783826
 10
16.4174549193
 20
15.5611039068
 10
16.4067389897
 20
15.5716598248
 10
16.3958335691
 20
15.5824025941
  0
LWPOLYLINE
  5
B1
330
1F
100
AcDbEntity
  8
0
  6
Continuous
 62
     7
 48
2.75
370
    15
100
AcDbPolyline
 90
        9
 70
   128
 43
0.0
 10
16.3958335691
 20
15.5824025941
 10
16.3957772497
 20
15.5898852943
 10
16.3957209304
 20
15.5973804611
 10
16.395664611
 20
15.6048800278
 10
16.3956082917
 20
15.6123754878
 10
16.3955519723
 20
15.619859068
 10
16.3954959463
 20
15.6273224085
 10
16.3954399203
 20
15.6347575893
 10
16.3953844809
 20
15.6421562505
  0
LWPOLYLINE
  5
B2
330
1F
100
AcDbEntity
  8
0
  6
Continuous
 62
     7
 48
2.75
370
    15
100
AcDbPolyline
 90
        9
 70
   128
 43
0.0
 10
16.3953844809
 20
15.6421562505
 10
16.3879855264
 20
15.6421006644
 10
16.3805504923
 20
15.6420447851
 10
16.3730872985
 20
15.6419886124
 10
16.3656035716
 20
15.6419324397
 10
16.3581081115
 20
15.6418761204
 10
16.3506085448
 20
15.6418196544
 10
16.3431133781
 20
15.641763335
 10
16.3356308245
 20
15.6417071623
  0
LINE
  5
B3
330
1F
100
AcDbEntity
  8
0
  6
Continuous
 62
     7
 48
2.75
370
    15
100
AcDbLine
 10
16.3137111577
 20
15.6415423109
 30
0.0
 11
16.3138757158
 21
15.6196226441
 31
0.0
  0
LINE
  5
B4
330
1F
100
AcDbEntity
  8
0
  6
Continuous
 62
     7
 48
2.75
370
    15
100
AcDbLine
 10
16.3356308245
 20
15.6417071623
 30
0.0
 11
16.3137111577
 21
15.6415423109
 31
0.0
  0
LINE
  5
B5
330
1F
100
AcDbEntity
  8
0
  6
Continuous
 62
     7
 48
2.75
370
    15
100
AcDbLine
 10
16.3959984205
 20
15.5604829273
 30
0.0
 11
16.3958335691
 21
15.5824025941
 31
0.0
  0
LINE
  5
B6
330
1F
100
AcDbEntity
  8
0
  6
Continuous
 62
     7
 48
2.75
370
    15
100
AcDbLine
 10
16.3740784604
 20
15.5603182225
 30
0.0
 11
16.3959984205
 21
15.5604829273
 31
0.0
  0
CIRCLE
  5
B7
330
1F
100
AcDbEntity
  8
0
  6
Continuous
 62
     7
 48
7.5625
370
    15
100
AcDbCircle
 10
16.3548546694
 20
15.6010126433
 30
0.0
 40
0.1865000000000017
  0
LWPOLYLINE
  5
B8
330
1F
100
AcDbEntity
  8
0
  6
Continuous
 62
     7
 48
2.75
370
    15
100
AcDbPolyline
 90
        9
 70
   128
 43
0.0
 10
8.8138757698
 20
11.5824026424
 10
8.8029703491
 20
11.5716598732
 10
8.7922544196
 20
11.5611039551
 10
8.7817781406
 20
11.5507838743
 10
8.771589325
 20
11.540747297
 10
8.7617357855
 20
11.5310407158
 10
8.7522629882
 20
11.5217090102
 10
8.7432143461
 20
11.5127954465
 10
8.7346320986
 20
11.5043412375
  0
ARC
  5
B9
330
1F
100
AcDbEntity
  8
0
  6
Continuous
 62
     7
 48
7.5625
370
    15
100
AcDbCircle
 10
8.8548546694
 20
11.6010126433
 30
0.0
 40
0.1542687964746288
100
AcDbArc
 50
218.802861523
 51
230.3357915391
  0
LWPOLYLINE
  5
BA
330
1F
100
AcDbEntity
  8
0
  6
Continuous
 62
     7
 48
2.75
370
    15
100
AcDbPolyline
 90
        9
 70
   128
 43
0.0
 10
8.7563869139
 20
11.4822567193
 10
8.7649691615
 20
11.4907109283
 10
8.7740178036
 20
11.499624492
 10
8.7834908942
 20
11.5089561975
 10
8.7933444337
 20
11.5186627787
 10
8.803532956
 20
11.5286993561
 10
8.8140095283
 20
11.5390194369
 10
8.8247251645
 20
11.549575355
 10
8.8356308785
 20
11.5603181242
  0
LWPOLYLINE
  5
BB
330
1F
100
AcDbEntity
  8
0
  6
Continuous
 62
     7
 48
2.75
370
    15
100
AcDbPolyline
 90
        9
 70
   128
 43
0.0
 10
8.895833623
 20
11.6196226925
 10
8.9067390437
 20
11.6303654617
 10
8.9174549733
 20
11.6409213797
 10
8.9279312522
 20
11.6512414605
 10
8.9381197745
 20
11.6612780379
 10
8.9479736074
 20
11.6709846191
 10
8.9574464046
 20
11.6803163246
 10
8.9664950467
 20
11.6892298883
 10
8.9750772943
 20
11.6976840973
  0
ARC
  5
BC
330
1F
100
AcDbEntity
  8
0
  6
Continuous
 62
     7
 48
7.5625
370
    15
100
AcDbCircle
 10
8.8548546694
 20
11.6010126433
 30
0.0
 40
0.154268796474629
100
AcDbArc
 50
38.802861523
 51
50.3357915391
  0
LWPOLYLINE
  5
BD
330
1F
100
AcDbEntity
  8
0
  6
Continuous
 62
     7
 48
2.75
370
    15
100
AcDbPolyline
 90
        9
 70
   128
 43
0.0
 10
8.9533224789
 20
11.7197684689
 10
8.9447402314
 20
11.7113142599
 10
8.9356915892
 20
11.7024006962
 10
8.9262184987
 20
11.6930689907
 10
8.9163649592
 20
11.6833625561
 10
8.9061764369
 20
11.6733259787
 10
8.8956998646
 20
11.6630057513
 10
8.8849842284
 20
11.6524499799
 10
8.8740785143
 20
11.641707064
  0
LWPOLYLINE
  5
BE
330
1F
100
AcDbEntity
  8
0
  6
Continuous
 62
     7
 48
2.75
370
    15
100
AcDbPolyline
 90
        9
 70
   128
 43
0.0
 10
8.8356308785
 20
11.5603181242
 10
8.8431134321
 20
11.5602619515
 10
8.8506085988
 20
11.5602056322
 10
8.8581081655
 20
11.5601491662
 10
8.8656036256
 20
11.5600928468
 10
8.8730870591
 20
11.5600366741
 10
8.8805505462
 20
11.5599805014
 10
8.8879855804
 20
11.5599246221
 10
8.8953842416
 20
11.5598690361
  0
LWPOLYLINE
  5
BF
330
1F
100
AcDbEntity
  8
0
  6
Continuous
 62
     7
 48
2.75
370
    15
100
AcDbPolyline
 90
        9
 70
   128
 43
0.0
 10
8.8953842416
 20
11.5598690361
 10
8.8954399742
 20
11.5672676973
 10
8.8954960003
 20
11.574702878
 10
8.8955520263
 20
11.5821662185
 10
8.8956083456
 20
11.5896497987
 10
8.895664665
 20
11.5971452588
 10
8.8957209843
 20
11.6046448255
 10
8.8957773037
 20
11.6121399922
 10
8.895833623
 20
11.6196226925
  0
LWPOLYLINE
  5
C0
330
1F
100
AcDbEntity
  8
0
  6
Continuous
 62
     7
 48
2.75
370
    15
100
AcDbPolyline
 90
        9
 70
   128
 43
0.0
 10
8.8740785143
 20
11.641707064
 10
8.8665959608
 20
11.6417633833
 10
8.859100794
 20
11.6418197027
 10
8.8516012273
 20
11.641876022
 10
8.8441057673
 20
11.6419323414
 10
8.8366220404
 20
11.6419886607
 10
8.8291588466
 20
11.6420446868
 10
8.8217238125
 20
11.6421007128
 10
8.814324858
 20
11.6421562988
  0
LWPOLYLINE
  5
C1
330
1F
100
AcDbEntity
  8
0
  6
Continuous
 62
     7
 48
2.75
370
    15
100
AcDbPolyline
 90
        9
 70
   128
 43
0.0
 10
8.814324858
 20
11.6421562988
 10
8.8142694186
 20
11.6347574909
 10
8.8142133926
 20
11.6273224568
 10
8.8141573666
 20
11.6198591164
 10
8.8141010472
 20
11.6123755362
 10
8.8140447279
 20
11.6048799294
 10
8.8139884085
 20
11.5973805094
 10
8.8139320892
 20
11.5898853426
 10
8.8138757698
 20
11.5824026424
  0
LINE
  5
C2
330
1F
100
AcDbEntity
  8
0
  6
Continuous
 62
     7
 48
2.75
370
    15
100
AcDbLine
 10
8.8137109184
 20
11.5604829756
 30
0.0
 11
8.8356308785
 21
11.5603181242
 31
0.0
  0
LINE
  5
C3
330
1F
100
AcDbEntity
  8
0
  6
Continuous
 62
     7
 48
2.75
370
    15
100
AcDbLine
 10
8.8138757698
 20
11.5824026424
 30
0.0
 11
8.8137109184
 21
11.5604829756
 31
0.0
  0
LINE
  5
C4
330
1F
100
AcDbEntity
  8
0
  6
Continuous
 62
     7
 48
2.75
370
    15
100
AcDbLine
 10
8.895833623
 20
11.6196226925
 30
0.0
 11
8.8959981811
 21
11.6415423592
 31
0.0
  0
LINE
  5
C5
330
1F
100
AcDbEntity
  8
0
  6
Continuous
 62
     7
 48
2.75
370
    15
100
AcDbLine
 10
8.8959981811
 20
11.6415423592
 30
0.0
 11
8.8740785143
 21
11.641707064
 31
0.0
  0
CIRCLE
  5
C6
330
1F
100
AcDbEntity
  8
0
  6
Continuous
 62
     7
 48
7.5625
370
    15
100
AcDbCircle
 10
8.8548546694
 20
11.6010126433
 30
0.0
 40
0.1865000000000004
  0
LWPOLYLINE
  5
C7
330
1F
100
AcDbEntity
  8
0
  6
Continuous
 62
     7
 48
2.75
370
    15
100
AcDbPolyline
 90
        9
 70
   128
 43
0.0
 10
16.3356308245
 20
11.641707064
 10
16.3247251105
 20
11.6524499799
 10
16.3140094743
 20
11.6630057513
 10
16.303532902
 20
11.6733259787
 10
16.2933443797
 20
11.6833625561
 10
16.2834908402
 20
11.6930689907
 10
16.2740177496
 20
11.7024006962
 10
16.2649691075
 20
11.7113142599
 10
16.25638686
 20
11.7197684689
  0
ARC
  5
C8
330
1F
100
AcDbEntity
  8
0
  6
Continuous
 62
     7
 48
7.5625
370
    15
100
AcDbCircle
 10
16.3548546694
 20
11.6010126433
 30
0.0
 40
0.1542687964746279
100
AcDbArc
 50
129.6642084609
 51
141.197138477
  0
LWPOLYLINE
  5
C9
330
1F
100
AcDbEntity
  8
0
  6
Continuous
 62
     7
 48
2.75
370
    15
100
AcDbPolyline
 90
        9
 70
   128
 43
0.0
 10
16.2346320446
 20
11.6976840973
 10
16.2432142921
 20
11.6892298883
 10
16.2522629343
 20
11.6803163246
 10
16.2617357315
 20
11.6709846191
 10
16.2715895643
 20
11.6612780379
 10
16.2817780866
 20
11.6512414605
 10
16.2922543656
 20
11.6409213797
 10
16.3029702952
 20
11.6303654617
 10
16.3138757158
 20
11.6196226925
  0
LWPOLYLINE
  5
CA
330
1F
100
AcDbEntity
  8
0
  6
Continuous
 62
     7
 48
2.75
370
    15
100
AcDbPolyline
 90
        9
 70
   128
 43
0.0
 10
16.3143250973
 20
11.5598690361
 10
16.3217237585
 20
11.5599246221
 10
16.3291587926
 20
11.5599805014
 10
16.3366222797
 20
11.5600366741
 10
16.3441057133
 20
11.5600928468
 10
16.3516011734
 20
11.5601491662
 10
16.3591007401
 20
11.5602056322
 10
16.3665959068
 20
11.5602619515
 10
16.3740784604
 20
11.5603181242
  0
LWPOLYLINE
  5
CB
330
1F
100
AcDbEntity
  8
0
  6
Continuous
 62
     7
 48
2.75
370
    15
100
AcDbPolyline
 90
        9
 70
   128
 43
0.0
 10
16.3740784604
 20
11.5603181242
 10
16.3849841744
 20
11.549575355
 10
16.3956998106
 20
11.5390194369
 10
16.4061763829
 20
11.5286993561
 10
16.4163649052
 20
11.5186627787
 10
16.4262184447
 20
11.5089561975
 10
16.4356915353
 20
11.499624492
 10
16.4447401774
 20
11.4907109283
 10
16.4533224249
 20
11.4822567193
  0
ARC
  5
CC
330
1F
100
AcDbEntity
  8
0
  6
Continuous
 62
     7
 48
7.5625
370
    15
100
AcDbCircle
 10
16.3548546694
 20
11.6010126433
 30
0.0
 40
0.1542687964746288
100
AcDbArc
 50
309.6642084609
 51
321.197138477
  0
LWPOLYLINE
  5
CD
330
1F
100
AcDbEntity
  8
0
  6
Continuous
 62
     7
 48
2.75
370
    15
100
AcDbPolyline
 90
        9
 70
   128
 43
0.0
 10
16.4750772403
 20
11.5043412375
 10
16.4664949928
 20
11.5127954465
 10
16.4574463506
 20
11.5217090102
 10
16.4479735534
 20
11.5310407158
 10
16.4381200139
 20
11.540747297
 10
16.4279311983
 20
11.5507838743
 10
16.4174549193
 20
11.5611039551
 10
16.4067389897
 20
11.5716598732
 10
16.3958335691
 20
11.5824026424
  0
LWPOLYLINE
  5
CE
330
1F
100
AcDbEntity
  8
0
  6
Continuous
 62
     7
 48
2.75
370
    15
100
AcDbPolyline
 90
        9
 70
   128
 43
0.0
 10
16.3958335691
 20
11.5824026424
 10
16.3957772497
 20
11.5898853426
 10
16.3957209304
 20
11.5973805094
 10
16.395664611
 20
11.6048799294
 10
16.3956082917
 20
11.6123755362
 10
16.3955519723
 20
11.6198591164
 10
16.3954959463
 20
11.6273224568
 10
16.3954399203
 20
11.6347574909
 10
16.3953844809
 20
11.6421562988
  0
LWPOLYLINE
  5
CF
330
1F
100
AcDbEntity
  8
0
  6
Continuous
 62
     7
 48
2.75
370
    15
100
AcDbPolyline
 90
        9
 70
   128
 43
0.0
 10
16.3953844809
 20
11.6421562988
 10
16.3879855264
 20
11.6421007128
 10
16.3805504923
 20
11.6420446868
 10
16.3730872985
 20
11.6419886607
 10
16.3656035716
 20
11.6419323414
 10
16.3581081115
 20
11.641876022
 10
16.3506085448
 20
11.6418197027
 10
16.3431133781
 20
11.6417633833
 10
16.3356308245
 20
11.641707064
  0
LWPOLYLINE
  5
D0
330
1F
100
AcDbEntity
  8
0
  6
Continuous
 62
     7
 48
2.75
370
    15
100
AcDbPolyline
 90
        9
 70
   128
 43
0.0
 10
16.3138757158
 20
11.6196226925
 10
16.3139320352
 20
11.6121399922
 10
16.3139883545
 20
11.6046448255
 10
16.3140446739
 20
11.5971452588
 10
16.3141009932
 20
11.5896497987
 10
16.3141573126
 20
11.5821662185
 10
16.3142133386
 20
11.574702878
 10
16.3142693646
 20
11.5672676973
 10
16.3143250973
 20
11.5598690361
  0
LINE
  5
D1
330
1F
100
AcDbEntity
  8
0
  6
Continuous
 62
     7
 48
2.75
370
    15
100
AcDbLine
 10
16.3959984205
 20
11.5604829756
 30
0.0
 11
16.3958335691
 21
11.5824026424
 31
0.0
  0
LINE
  5
D2
330
1F
100
AcDbEntity
  8
0
  6
Continuous
 62
     7
 48
2.75
370
    15
100
AcDbLine
 10
16.3740784604
 20
11.5603181242
 30
0.0
 11
16.3959984205
 21
11.5604829756
 31
0.0
  0
LINE
  5
D3
330
1F
100
AcDbEntity
  8
0
  6
Continuous
 62
     7
 48
2.75
370
    15
100
AcDbLine
 10
16.3356308245
 20
11.641707064
 30
0.0
 11
16.3137111577
 21
11.6415423592
 31
0.0
  0
LINE
  5
D4
330
1F
100
AcDbEntity
  8
0
  6
Continuous
 62
     7
 48
2.75
370
    15
100
AcDbLine
 10
16.3137111577
 20
11.6415423592
 30
0.0
 11
16.3138757158
 21
11.6196226925
 31
0.0
  0
CIRCLE
  5
D5
330
1F
100
AcDbEntity
  8
0
  6
Continuous
 62
     7
 48
7.5625
370
    15
100
AcDbCircle
 10
16.3548546694
 20
11.6010126433
 30
0.0
 40
0.1865000000000017
  0
DIMENSION
  5
D6
330
1F
100
AcDbEntity
  8
0
  6
Continuous
 62
     7
 48
2.75
370
     0
100
AcDbDimension
  2
*D5
 10
16.6048546694
 20
18.5650014993
 30
0.0
 11
12.6048546694
 21
18.5650014993
 31
0.0
 70
   160
 71
     2
 42
-1.0
  3
SLDDIMSTYLE0
100
AcDbAlignedDimension
 13
8.6048546694
 23
17.6010126433
 33
0.0
 14
16.6048546694
 24
17.6010126433
 34
0.0
100
AcDbRotatedDimension
  0
DIMENSION
  5
E9
330
1F
100
AcDbEntity
  8
0
  6
Continuous
 62
     7
 48
2.75
370
     0
100
AcDbDimension
  2
*D6
 10
17.7012752132
 20
9.6010126433
 30
0.0
 11
17.7012752132
 21
13.6010126433
 31
0.0
 70
   160
 71
     2
 42
-1.0
  3
SLDDIMSTYLE0
100
AcDbAlignedDimension
 13
16.6048546694
 23
17.6010126433
 33
0.0
 14
16.6048546694
 24
9.6010126433
 34
0.0
 50
90.0
100
AcDbRotatedDimension
  0
INSERT
  5
103
102
{ACAD_REACTORS
330
105
102
}
330
1F
100
AcDbEntity
  8
0
  6
Continuous
 62
     7
 48
2.75
370
     0
100
AcDbBlockReference
  2
SW_NOTE_4
 10
18.4890994624
 20
7.4521340978
 30
0.0
  0
LEADER
  5
105
330
1F
100
AcDbEntity
  8
0
  6
Continuous
 62
     7
 48
2.75
370
     0
100
AcDbLeader
  3
SLDDIMSTYLE1
 73
     2
 76
     3
 10
16.4098248595
 20
11.4227978061
 30
0.0
 10
17.8015994624
 20
7.4521340978
 30
0.0
 10
18.4890994624
 20
7.4521340978
 30
0.0
340
103
  0
LINE
  5
106
330
1F
100
AcDbEntity
  8
0
  6
Continuous
 62
     7
 48
2.75
370
    15
100
AcDbLine
 10
9.0413546086
 20
20.904273659
 30
0.0
 11
9.0413546086
 21
20.9376050339
 31
0.0
  0
LINE
  5
107
330
1F
100
AcDbEntity
  8
0
  6
Continuous
 62
     7
 48
2.75
370
    15
100
AcDbLine
 10
8.6683547842
 20
20.9376050339
 30
0.0
 11
8.6683547842
 21
20.904273659
 31
0.0
  0
ARC
  5
108
330
1F
100
AcDbEntity
  8
0
  6
Continuous
 62
     7
 48
7.5625
370
    15
100
AcDbCircle
 10
9.0263546694
 20
20.9042736507
 30
0.0
 40
0.0149999999999991
100
AcDbArc
 50
322.550643686
 51
0.0
  0
ARC
  5
109
330
1F
100
AcDbEntity
  8
0
  6
Continuous
 62
     7
 48
7.5625
370
    15
100
AcDbCircle
 10
8.6833546694
 20
20.9042736507
 30
0.0
 40
0.0150000000000006
100
AcDbArc
 50
180.0
 51
217.449356314
  0
ARC
  5
10A
330
1F
100
AcDbEntity
  8
0
  6
Continuous
 62
     7
 48
7.5625
370
    15
100
AcDbCircle
 10
8.8548546694
 20
21.0356295497
 30
0.0
 40
0.2310245869783038
100
AcDbArc
 50
280.1818657166
 51
322.550643686
  0
ARC
  5
10B
330
1F
100
AcDbEntity
  8
0
  6
Continuous
 62
     7
 48
7.5625
370
    15
100
AcDbCircle
 10
8.8548546694
 20
21.0356295497
 30
0.0
 40
0.2310245869783052
100
AcDbArc
 50
217.449356314
 51
259.8181342834
  0
LINE
  5
10C
330
1F
100
AcDbEntity
  8
0
  6
Continuous
 62
     7
 48
2.75
370
    15
100
AcDbLine
 10
8.9238545527
 20
21.0616049881
 30
0.0
 11
8.9238545527
 21
21.1386049786
 31
0.0
  0
LINE
  5
10D
330
1F
100
AcDbEntity
  8
0
  6
Continuous
 62
     7
 48
2.75
370
    15
100
AcDbLine
 10
8.7858545468
 20
21.1386049786
 30
0.0
 11
8.7858545468
 21
21.0616049881
 31
0.0
  0
LINE
  5
10E
330
1F
100
AcDbEntity
  8
0
  6
Continuous
 62
     7
 48
2.75
370
    15
100
AcDbLine
 10
16.5413545546
 20
20.904273659
 30
0.0
 11
16.5413545546
 21
20.9376050339
 31
0.0
  0
LINE
  5
10F
330
1F
100
AcDbEntity
  8
0
  6
Continuous
 62
     7
 48
2.75
370
    15
100
AcDbLine
 10
16.1683547302
 20
20.9376050339
 30
0.0
 11
16.1683547302
 21
20.904273659
 31
0.0
  0
ARC
  5
110
330
1F
100
AcDbEntity
  8
0
  6
Continuous
 62
     7
 48
7.5625
370
    15
100
AcDbCircle
 10
16.5263546694
 20
20.9042736507
 30
0.0
 40
0.0150000000000006
100
AcDbArc
 50
322.550643686
 51
0.0
  0
ARC
  5
111
330
1F
100
AcDbEntity
  8
0
  6
Continuous
 62
     7
 48
7.5625
370
    15
100
AcDbCircle
 10
16.1833546694
 20
20.9042736507
 30
0.0
 40
0.0150000000000006
100
AcDbArc
 50
180.0
 51
217.449356314
  0
ARC
  5
112
330
1F
100
AcDbEntity
  8
0
  6
Continuous
 62
     7
 48
7.5625
370
    15
100
AcDbCircle
 10
16.3548546694
 20
21.0356295497
 30
0.0
 40
0.2310245869783038
100
AcDbArc
 50
280.1818657166
 51
322.550643686
  0
ARC
  5
113
330
1F
100
AcDbEntity
  8
0
  6
Continuous
 62
     7
 48
7.5625
370
    15
100
AcDbCircle
 10
16.3548546694
 20
21.0356295497
 30
0.0
 40
0.2310245869783038
100
AcDbArc
 50
217.449356314
 51
259.8181342834
  0
LINE
  5
114
330
1F
100
AcDbEntity
  8
0
  6
Continuous
 62
     7
 48
2.75
370
    15
100
AcDbLine
 10
16.423854792
 20
21.0616049881
 30
0.0
 11
16.423854792
 21
21.1386049786
 31
0.0
  0
LINE
  5
115
330
1F
100
AcDbEntity
  8
0
  6
Continuous
 62
     7
 48
2.75
370
    15
100
AcDbLine
 10
16.2858547862
 20
21.1386049786
 30
0.0
 11
16.2858547862
 21
21.0616049881
 31
0.0
  0
LINE
  5
116
330
1F
100
AcDbEntity
  8
0
  6
Continuous
 62
     7
 48
2.75
370
    15
100
AcDbLine
 10
16.6048546211
 20
20.999605011
 30
0.0
 11
8.6048547178
 21
20.999605011
 31
0.0
  0
LINE
  5
117
330
1F
100
AcDbEntity
  8
0
  6
Continuous
 62
     7
 48
2.75
370
    15
100
AcDbLine
 10
16.6048546211
 20
20.9376050339
 30
0.0
 11
8.6048547178
 21
20.9376050339
 31
0.0
  0
LINE
  5
118
330
1F
100
AcDbEntity
  8
0
  6
Continuous
 62
     7
 48
2.75
370
    15
100
AcDbLine
 10
8.6048547178
 20
20.999605011
 30
0.0
 11
8.6048547178
 21
20.9376050339
 31
0.0
  0
LINE
  5
119
330
1F
100
AcDbEntity
  8
0
  6
Continuous
 62
     7
 48
2.75
370
    15
100
AcDbLine
 10
16.6048546211
 20
20.999605011
 30
0.0
 11
16.6048546211
 21
20.9376050339
 31
0.0
  0
LINE
  5
11A
330
1F
100
AcDbEntity
  8
0
  6
Continuous
 62
     7
 48
2.75
370
    15
100
AcDbLine
 10
16.0738546752
 20
21.1386049786
 30
0.0
 11
16.4658546535
 21
21.1386049786
 31
0.0
  0
LINE
  5
11B
330
1F
100
AcDbEntity
  8
0
  6
Continuous
 62
     7
 48
2.75
370
    15
100
AcDbLine
 10
16.0738546752
 20
21.0766050015
 30
0.0
 11
16.0738546752
 21
21.1386049786
 31
0.0
  0
LINE
  5
11C
330
1F
100
AcDbEntity
  8
0
  6
Continuous
 62
     7
 48
2.75
370
    15
100
AcDbLine
 10
9.1358546636
 20
21.0766050015
 30
0.0
 11
9.1358546636
 21
21.1386049786
 31
0.0
  0
LINE
  5
11D
330
1F
100
AcDbEntity
  8
0
  6
Continuous
 62
     7
 48
2.75
370
    15
100
AcDbLine
 10
9.1358546636
 20
21.1386049786
 30
0.0
 11
8.7438546854
 21
21.1386049786
 31
0.0
  0
LINE
  5
11E
330
1F
100
AcDbEntity
  8
0
  6
Continuous
 62
     7
 48
2.75
370
    15
100
AcDbLine
 10
8.7438546854
 20
24.9376049627
 30
0.0
 11
8.7438546854
 21
24.8606049584
 31
0.0
  0
LINE
  5
11F
330
1F
100
AcDbEntity
  8
0
  6
Continuous
 62
     7
 48
2.75
370
    15
100
AcDbLine
 10
16.4658546535
 20
24.9376049627
 30
0.0
 11
16.4658546535
 21
24.8606049584
 31
0.0
  0
LINE
  5
120
330
1F
100
AcDbEntity
  8
0
  6
Continuous
 62
     7
 48
2.75
370
    15
100
AcDbLine
 10
16.4658546535
 20
24.8606049584
 30
0.0
 11
16.542854644
 21
24.8606049584
 31
0.0
  0
LINE
  5
121
330
1F
100
AcDbEntity
  8
0
  6
Continuous
 62
     7
 48
2.75
370
    15
100
AcDbLine
 10
16.542854644
 20
21.1386049786
 30
0.0
 11
16.4658546535
 21
21.1386049786
 31
0.0
  0
LINE
  5
122
330
1F
100
AcDbEntity
  8
0
  6
Continuous
 62
     7
 48
2.75
370
    15
100
AcDbLine
 10
8.6668546949
 20
21.1386049786
 30
0.0
 11
8.7438546854
 21
21.1386049786
 31
0.0
  0
LINE
  5
123
330
1F
100
AcDbEntity
  8
0
  6
Continuous
 62
     7
 48
2.75
370
    15
100
AcDbLine
 10
8.7438546854
 20
24.8606049584
 30
0.0
 11
8.6668546949
 21
24.8606049584
 31
0.0
  0
LINE
  5
124
330
1F
100
AcDbEntity
  8
0
  6
Continuous
 62
     7
 48
2.75
370
    15
100
AcDbLine
 10
16.0738546752
 20
21.0766050015
 30
0.0
 11
16.0738546752
 21
20.999605011
 31
0.0
  0
LINE
  5
125
330
1F
100
AcDbEntity
  8
0
  6
Continuous
 62
     7
 48
2.75
370
    15
100
AcDbLine
 10
9.1358546636
 20
21.0766050015
 30
0.0
 11
9.1358546636
 21
20.999605011
 31
0.0
  0
ARC
  5
126
330
1F
100
AcDbEntity
  8
0
  6
Continuous
 62
     7
 48
7.5625
370
    15
100
AcDbCircle
 10
16.5278546694
 20
24.9226049627
 30
0.0
 40
0.0150000000000006
100
AcDbArc
 50
0.0
 51
90.0
  0
ARC
  5
127
330
1F
100
AcDbEntity
  8
0
  6
Continuous
 62
     7
 48
7.5625
370
    15
100
AcDbCircle
 10
16.5278546694
 20
24.9226049627
 30
0.0
 40
0.0770000000000017
100
AcDbArc
 50
0.0
 51
90.0
  0
LINE
  5
128
330
1F
100
AcDbEntity
  8
0
  6
Continuous
 62
     7
 48
2.75
370
    15
100
AcDbLine
 10
16.542854644
 20
21.0766050015
 30
0.0
 11
16.542854644
 21
24.922604963
 31
0.0
  0
LINE
  5
129
330
1F
100
AcDbEntity
  8
0
  6
Continuous
 62
     7
 48
2.75
370
    15
100
AcDbLine
 10
16.6048546211
 20
21.0766050015
 30
0.0
 11
16.6048546211
 21
24.922604963
 31
0.0
  0
LINE
  5
12A
330
1F
100
AcDbEntity
  8
0
  6
Continuous
 62
     7
 48
2.75
370
    15
100
AcDbLine
 10
8.6668546949
 20
24.922604963
 30
0.0
 11
8.6668546949
 21
21.0766050015
 31
0.0
  0
LINE
  5
12B
330
1F
100
AcDbEntity
  8
0
  6
Continuous
 62
     7
 48
2.75
370
    15
100
AcDbLine
 10
8.6048547178
 20
24.922604963
 30
0.0
 11
8.6048547178
 21
21.0766050015
 31
0.0
  0
ARC
  5
12C
330
1F
100
AcDbEntity
  8
0
  6
Continuous
 62
     7
 48
7.5625
370
    15
100
AcDbCircle
 10
8.6818546694
 20
24.9226049627
 30
0.0
 40
0.0769999999999982
100
AcDbArc
 50
90.0
 51
180.0
  0
ARC
  5
12D
330
1F
100
AcDbEntity
  8
0
  6
Continuous
 62
     7
 48
7.5625
370
    15
100
AcDbCircle
 10
8.6818546694
 20
24.9226049627
 30
0.0
 40
0.0150000000000006
100
AcDbArc
 50
90.0
 51
180.0
  0
LINE
  5
12E
330
1F
100
AcDbEntity
  8
0
  6
Continuous
 62
     7
 48
2.75
370
    15
100
AcDbLine
 10
16.5278546306
 20
24.9996049627
 30
0.0
 11
8.6818547083
 21
24.9996049627
 31
0.0
  0
LINE
  5
12F
330
1F
100
AcDbEntity
  8
0
  6
Continuous
 62
     7
 48
2.75
370
    15
100
AcDbLine
 10
16.5278546306
 20
24.9376049627
 30
0.0
 11
8.6818547083
 21
24.9376049627
 31
0.0
  0
ARC
  5
130
330
1F
100
AcDbEntity
  8
0
  6
Continuous
 62
     7
 48
7.5625
370
    15
100
AcDbCircle
 10
8.6818546694
 20
21.0766049627
 30
0.0
 40
0.0150000000000006
100
AcDbArc
 50
180.0
 51
270.0
  0
ARC
  5
131
330
1F
100
AcDbEntity
  8
0
  6
Continuous
 62
     7
 48
7.5625
370
    15
100
AcDbCircle
 10
8.6818546694
 20
21.0766049627
 30
0.0
 40
0.077
100
AcDbArc
 50
180.0
 51
270.0
  0
ARC
  5
132
330
1F
100
AcDbEntity
  8
0
  6
Continuous
 62
     7
 48
7.5625
370
    15
100
AcDbCircle
 10
16.5278546694
 20
21.0766049627
 30
0.0
 40
0.0150000000000006
100
AcDbArc
 50
270.0
 51
0.0
  0
ARC
  5
133
330
1F
100
AcDbEntity
  8
0
  6
Continuous
 62
     7
 48
7.5625
370
    15
100
AcDbCircle
 10
16.5278546694
 20
21.0766049627
 30
0.0
 40
0.0770000000000017
100
AcDbArc
 50
270.0
 51
0.0
  0
LINE
  5
134
330
1F
100
AcDbEntity
  8
0
  6
Continuous
 62
     7
 48
2.75
370
    15
100
AcDbLine
 10
16.1048546638
 20
20.999605011
 30
0.0
 11
16.1048546638
 21
21.0616049881
 31
0.0
  0
LINE
  5
135
330
1F
100
AcDbEntity
  8
0
  6
Continuous
 62
     7
 48
2.75
370
    15
100
AcDbLine
 10
16.1048546638
 20
21.0616049881
 30
0.0
 11
16.5278546306
 21
21.0616049881
 31
0.0
  0
LINE
  5
136
330
1F
100
AcDbEntity
  8
0
  6
Continuous
 62
     7
 48
2.75
370
    15
100
AcDbLine
 10
16.1048546638
 20
20.999605011
 30
0.0
 11
16.5278546306
 21
20.999605011
 31
0.0
  0
LINE
  5
137
330
1F
100
AcDbEntity
  8
0
  6
Continuous
 62
     7
 48
2.75
370
    15
100
AcDbLine
 10
8.6818547083
 20
21.0616049881
 30
0.0
 11
9.1048546751
 21
21.0616049881
 31
0.0
  0
LINE
  5
138
330
1F
100
AcDbEntity
  8
0
  6
Continuous
 62
     7
 48
2.75
370
    15
100
AcDbLine
 10
8.6818547083
 20
20.999605011
 30
0.0
 11
9.1048546751
 21
20.999605011
 31
0.0
  0
LINE
  5
139
330
1F
100
AcDbEntity
  8
0
  6
Continuous
 62
     7
 48
2.75
370
    15
100
AcDbLine
 10
9.1048546751
 20
21.0616049881
 30
0.0
 11
9.1048546751
 21
20.999605011
 31
0.0
  0
ARC
  5
13A
330
1F
100
AcDbEntity
  8
0
  6
Continuous
 62
     7
 48
7.5625
370
    15
100
AcDbCircle
 10
8.8545430823
 20
21.0355579178
 30
0.0
 40
0.2273148295809313
100
AcDbArc
 50
265.2275728523
 51
270.0785068648
  0
ARC
  5
13B
330
1F
100
AcDbEntity
  8
0
  6
Continuous
 62
     7
 48
7.5625
370
    15
100
AcDbCircle
 10
8.8545450707
 20
21.0356530045
 30
0.0
 40
0.2274099471720371
100
AcDbArc
 50
275.0022856491
 51
280.3455255339
  0
LWPOLYLINE
  5
13C
330
1F
100
AcDbEntity
  8
0
  6
Continuous
 62
     7
 48
2.75
370
    15
100
AcDbPolyline
 90
        9
 70
   128
 43
0.0
 10
8.8953842416
 20
20.8119401389
 10
8.8954399742
 20
20.8107151931
 10
8.8954960003
 20
20.8097348844
 10
8.8955520263
 20
20.8090000929
 10
8.8956083456
 20
20.8085119919
 10
8.895664665
 20
20.8082708747
 10
8.8957209843
 20
20.8082770346
 10
8.8957773037
 20
20.808530765
 10
8.895833623
 20
20.8090311859
  0
ARC
  5
13D
330
1F
100
AcDbEntity
  8
0
  6
Continuous
 62
     7
 48
7.5625
370
    15
100
AcDbCircle
 10
8.8532409902
 20
20.9556044408
 30
0.0
 40
0.152636337217273
100
AcDbArc
 50
286.203304
 51
322.9597908311
  0
LINE
  5
13E
330
1F
100
AcDbEntity
  8
0
  6
Continuous
 62
     7
 48
2.75
370
    15
100
AcDbLine
 10
8.9533224789
 20
20.8636600748
 30
0.0
 11
8.9750772943
 21
20.8636600748
 31
0.0
  0
ARC
  5
13F
330
1F
100
AcDbEntity
  8
0
  6
Continuous
 62
     7
 48
7.5625
370
    15
100
AcDbCircle
 10
8.8314862651
 20
20.9556045386
 30
0.0
 40
0.1526363240160217
100
AcDbArc
 50
286.2031554824
 51
322.9597411331
  0
ARC
  5
140
330
1F
100
AcDbEntity
  8
0
  6
Continuous
 62
     7
 48
7.5625
370
    15
100
AcDbCircle
 10
8.855162476
 20
21.0356344545
 30
0.0
 40
0.2273914198973315
100
AcDbArc
 50
259.6540199808
 51
274.7717855164
  0
ARC
  5
141
330
1F
100
AcDbEntity
  8
0
  6
Continuous
 62
     7
 48
7.5625
370
    15
100
AcDbCircle
 10
8.7979212416
 20
20.8114506411
 30
0.0
 40
0.0164109182064715
100
AcDbArc
 50
348.72960866
 51
1.7092474292
  0
LINE
  5
142
330
1F
100
AcDbEntity
  8
0
  6
Continuous
 62
     7
 48
2.75
370
    15
100
AcDbLine
 10
8.895833623
 20
20.8169205881
 30
0.0
 11
8.895833623
 21
20.8090311859
 31
0.0
  0
LINE
  5
143
330
1F
100
AcDbEntity
  8
0
  6
Continuous
 62
     7
 48
2.75
370
    15
100
AcDbLine
 10
8.8953842416
 20
20.8167117372
 30
0.0
 11
8.8953842416
 21
20.8119401389
 31
0.0
  0
LINE
  5
144
330
1F
100
AcDbEntity
  8
0
  6
Continuous
 62
     7
 48
2.75
370
    15
100
AcDbLine
 10
8.8356308785
 20
20.8090311859
 30
0.0
 11
8.8356308785
 21
20.8090833986
 31
0.0
  0
ARC
  5
145
330
1F
100
AcDbEntity
  8
0
  6
Continuous
 62
     7
 48
7.5625
370
    15
100
AcDbCircle
 10
16.3782230738
 20
20.9556045386
 30
0.0
 40
0.1526363240160449
100
AcDbArc
 50
217.0402588669
 51
253.7968445176
  0
LINE
  5
146
330
1F
100
AcDbEntity
  8
0
  6
Continuous
 62
     7
 48
2.75
370
    15
100
AcDbLine
 10
16.2346320446
 20
20.8636600748
 30
0.0
 11
16.25638686
 21
20.8636600748
 31
0.0
  0
ARC
  5
147
330
1F
100
AcDbEntity
  8
0
  6
Continuous
 62
     7
 48
7.5625
370
    15
100
AcDbCircle
 10
16.3564683487
 20
20.9556044408
 30
0.0
 40
0.1526363372172476
100
AcDbArc
 50
217.0402091689
 51
253.796696
  0
LWPOLYLINE
  5
148
330
1F
100
AcDbEntity
  8
0
  6
Continuous
 62
     7
 48
2.75
370
    15
100
AcDbPolyline
 90
        9
 70
   128
 43
0.0
 10
16.3138757158
 20
20.8090311859
 10
16.3139320352
 20
20.808530765
 10
16.3139883545
 20
20.8082770346
 10
16.3140446739
 20
20.8082708747
 10
16.3141009932
 20
20.8085119919
 10
16.3141573126
 20
20.8090000929
 10
16.3142133386
 20
20.8097348844
 10
16.3142693646
 20
20.8107151931
 10
16.3143250973
 20
20.8119401389
  0
ARC
  5
149
330
1F
100
AcDbEntity
  8
0
  6
Continuous
 62
     7
 48
7.5625
370
    15
100
AcDbCircle
 10
16.3551642681
 20
21.0356530045
 30
0.0
 40
0.2274099471718013
100
AcDbArc
 50
259.6544744661
 51
264.9977143509
  0
ARC
  5
14A
330
1F
100
AcDbEntity
  8
0
  6
Continuous
 62
     7
 48
7.5625
370
    15
100
AcDbCircle
 10
16.3551598392
 20
21.0356747871
 30
0.0
 40
0.227431827573098
100
AcDbArc
 50
269.9624635203
 51
274.7715886783
  0
ARC
  5
14B
330
1F
100
AcDbEntity
  8
0
  6
Continuous
 62
     7
 48
7.5625
370
    15
100
AcDbCircle
 10
16.4117880972
 20
20.8114506411
 30
0.0
 40
0.01641091820707
100
AcDbArc
 50
178.290752571
 51
191.2703913397
  0
ARC
  5
14C
330
1F
100
AcDbEntity
  8
0
  6
Continuous
 62
     7
 48
7.5625
370
    15
100
AcDbCircle
 10
16.3545468629
 20
21.0356344545
 30
0.0
 40
0.227391419897328
100
AcDbArc
 50
265.2282144836
 51
280.3459800192
  0
LINE
  5
14D
330
1F
100
AcDbEntity
  8
0
  6
Continuous
 62
     7
 48
2.75
370
    15
100
AcDbLine
 10
16.3138757158
 20
20.8090311859
 30
0.0
 11
16.3138757158
 21
20.8169205881
 31
0.0
  0
LINE
  5
14E
330
1F
100
AcDbEntity
  8
0
  6
Continuous
 62
     7
 48
2.75
370
    15
100
AcDbLine
 10
16.3143250973
 20
20.8167117372
 30
0.0
 11
16.3143250973
 21
20.8119401389
 31
0.0
  0
LINE
  5
14F
330
1F
100
AcDbEntity
  8
0
  6
Continuous
 62
     7
 48
2.75
370
    15
100
AcDbLine
 10
16.3740784604
 20
20.8090833986
 30
0.0
 11
16.3740784604
 21
20.8090311859
 31
0.0
  0
DIMENSION
  5
150
330
1F
100
AcDbEntity
  8
0
  6
Continuous
 62
     7
 48
2.75
370
     0
100
AcDbDimension
  2
*D8
 10
17.7012752132
 20
20.9996049627
 30
0.0
 11
17.7012752132
 21
22.9996049627
 31
0.0
 70
   160
 71
     2
 42
-1.0
  3
SLDDIMSTYLE0
100
AcDbAlignedDimension
 13
16.5278546694
 23
24.9996049627
 33
0.0
 14
16.6048546694
 24
20.9996049627
 34
0.0
 50
90.0
100
AcDbRotatedDimension
  0
LINE
  5
162
330
1F
100
AcDbEntity
  8
0
  6
Continuous
 62
     7
 48
2.75
370
    15
100
AcDbLine
 10
29.8359523286
 20
15.4145127069
 30
0.0
 11
29.8692837036
 21
15.4145127069
 31
0.0
  0
LINE
  5
163
330
1F
100
AcDbEntity
  8
0
  6
Continuous
 62
     7
 48
2.75
370
    15
100
AcDbLine
 10
29.8692837036
 20
15.787512678
 30
0.0
 11
29.8359523286
 21
15.787512678
 31
0.0
  0
ARC
  5
164
330
1F
100
AcDbEntity
  8
0
  6
Continuous
 62
     7
 48
7.5625
370
    15
100
AcDbCircle
 10
29.8359523204
 20
15.4295126433
 30
0.0
 40
0.0150000000000027
100
AcDbArc
 50
232.550643686
 51
270.0
  0
ARC
  5
165
330
1F
100
AcDbEntity
  8
0
  6
Continuous
 62
     7
 48
7.5625
370
    15
100
AcDbCircle
 10
29.8359523204
 20
15.7725126433
 30
0.0
 40
0.0149999999999999
100
AcDbArc
 50
90.0
 51
127.449356314
  0
ARC
  5
166
330
1F
100
AcDbEntity
  8
0
  6
Continuous
 62
     7
 48
7.5625
370
    15
100
AcDbCircle
 10
29.9673082193
 20
15.6010126433
 30
0.0
 40
0.231024586978305
100
AcDbArc
 50
190.1818657166
 51
232.550643686
  0
ARC
  5
167
330
1F
100
AcDbEntity
  8
0
  6
Continuous
 62
     7
 48
7.5625
370
    15
100
AcDbCircle
 10
29.9673082193
 20
15.6010126433
 30
0.0
 40
0.2310245869783057
100
AcDbArc
 50
127.449356314
 51
169.8181342834
  0
LINE
  5
168
330
1F
100
AcDbEntity
  8
0
  6
Continuous
 62
     7
 48
2.75
370
    15
100
AcDbLine
 10
29.8359523286
 20
11.4145126086
 30
0.0
 11
29.8692837036
 21
11.4145126086
 31
0.0
  0
LINE
  5
169
330
1F
100
AcDbEntity
  8
0
  6
Continuous
 62
     7
 48
2.75
370
    15
100
AcDbLine
 10
29.8692837036
 20
11.7875125796
 30
0.0
 11
29.8359523286
 21
11.7875125796
 31
0.0
  0
ARC
  5
16A
330
1F
100
AcDbEntity
  8
0
  6
Continuous
 62
     7
 48
7.5625
370
    15
100
AcDbCircle
 10
29.8359523204
 20
11.4295126433
 30
0.0
 40
0.0150000000000013
100
AcDbArc
 50
232.550643686
 51
270.0
  0
ARC
  5
16B
330
1F
100
AcDbEntity
  8
0
  6
Continuous
 62
     7
 48
7.5625
370
    15
100
AcDbCircle
 10
29.8359523204
 20
11.7725126433
 30
0.0
 40
0.0150000000000013
100
AcDbArc
 50
90.0
 51
127.449356314
  0
ARC
  5
16C
330
1F
100
AcDbEntity
  8
0
  6
Continuous
 62
     7
 48
7.5625
370
    15
100
AcDbCircle
 10
29.9673082193
 20
11.6010126433
 30
0.0
 40
0.2310245869783054
100
AcDbArc
 50
190.1818657166
 51
232.550643686
  0
ARC
  5
16D
330
1F
100
AcDbEntity
  8
0
  6
Continuous
 62
     7
 48
7.5625
370
    15
100
AcDbCircle
 10
29.9673082193
 20
11.6010126433
 30
0.0
 40
0.2310245869783057
100
AcDbArc
 50
127.449356314
 51
169.8181342834
  0
LINE
  5
16E
330
1F
100
AcDbEntity
  8
0
  6
Continuous
 62
     7
 48
2.75
370
    15
100
AcDbLine
 10
29.9312836807
 20
17.6010125949
 30
0.0
 11
29.8692837036
 21
17.6010125949
 31
0.0
  0
LINE
  5
16F
330
1F
100
AcDbEntity
  8
0
  6
Continuous
 62
     7
 48
2.75
370
    15
100
AcDbLine
 10
29.8692837036
 20
9.6010126916
 30
0.0
 11
29.8692837036
 21
17.6010125949
 31
0.0
  0
LINE
  5
170
330
1F
100
AcDbEntity
  8
0
  6
Continuous
 62
     7
 48
2.75
370
    15
100
AcDbLine
 10
29.9312836807
 20
9.6010126916
 30
0.0
 11
29.8692837036
 21
9.6010126916
 31
0.0
  0
LINE
  5
171
330
1F
100
AcDbEntity
  8
0
  6
Continuous
 62
     7
 48
2.75
370
    15
100
AcDbLine
 10
29.9312836807
 20
9.6010126916
 30
0.0
 11
29.9312836807
 21
17.6010125949
 31
0.0
  0
LINE
  5
172
330
1F
100
AcDbEntity
  8
0
  6
Continuous
 62
     7
 48
2.75
370
    15
100
AcDbLine
 10
30.0082836711
 20
9.6010126916
 30
0.0
 11
33.8542836327
 21
9.6010126916
 31
0.0
  0
LINE
  5
173
330
1F
100
AcDbEntity
  8
0
  6
Continuous
 62
     7
 48
2.75
370
    15
100
AcDbLine
 10
30.0082836711
 20
17.6010125949
 30
0.0
 11
33.8542836327
 21
17.6010125949
 31
0.0
  0
LINE
  5
174
330
1F
100
AcDbEntity
  8
0
  6
Continuous
 62
     7
 48
2.75
370
    15
100
AcDbLine
 10
33.8542836327
 20
17.6010125949
 30
0.0
 11
33.9312836323
 21
17.6010125949
 31
0.0
  0
LINE
  5
175
330
1F
100
AcDbEntity
  8
0
  6
Continuous
 62
     7
 48
2.75
370
    15
100
AcDbLine
 10
33.9312836323
 20
17.6010125949
 30
0.0
 11
33.9312836323
 21
9.6010126916
 31
0.0
  0
LINE
  5
176
330
1F
100
AcDbEntity
  8
0
  6
Continuous
 62
     7
 48
2.75
370
    15
100
AcDbLine
 10
33.8542836327
 20
9.6010126916
 30
0.0
 11
33.9312836323
 21
9.6010126916
 31
0.0
  0
LINE
  5
177
330
1F
100
AcDbEntity
  8
0
  6
Continuous
 62
     7
 48
2.75
370
    15
100
AcDbLine
 10
29.9312836807
 20
17.6010125949
 30
0.0
 11
30.0082836711
 21
17.6010125949
 31
0.0
  0
LINE
  5
178
330
1F
100
AcDbEntity
  8
0
  6
Continuous
 62
     7
 48
2.75
370
    15
100
AcDbLine
 10
29.9312836807
 20
9.6010126916
 30
0.0
 11
30.0082836711
 21
9.6010126916
 31
0.0
  0
ARC
  5
179
330
1F
100
AcDbEntity
  8
0
  6
Continuous
 62
     7
 48
7.5625
370
    15
100
AcDbCircle
 10
29.9672887022
 20
15.6007040689
 30
0.0
 40
0.2273669395215661
100
AcDbArc
 50
179.9223941039
 51
190.3464563947
  0
ARC
  5
17A
330
1F
100
AcDbEntity
  8
0
  6
Continuous
 62
     7
 48
7.5625
370
    15
100
AcDbCircle
 10
29.7405598047
 20
15.5589171297
 30
0.0
 40
0.0014091048388153
100
AcDbArc
 50
83.8871755406
 51
116.9139285094
  0
ARC
  5
17B
330
1F
100
AcDbEntity
  8
0
  6
Continuous
 62
     7
 48
7.5625
370
    15
100
AcDbCircle
 10
29.8848398425
 20
15.603037308
 30
0.0
 40
0.1503275537071121
100
AcDbArc
 50
196.5094424603
 51
233.4607106749
  0
LINE
  5
17C
330
1F
100
AcDbEntity
  8
0
  6
Continuous
 62
     7
 48
2.75
370
    15
100
AcDbLine
 10
29.7953387444
 20
15.5043411892
 30
0.0
 11
29.7953387444
 21
15.4822568176
 31
0.0
  0
ARC
  5
17D
330
1F
100
AcDbEntity
  8
0
  6
Continuous
 62
     7
 48
7.5625
370
    15
100
AcDbCircle
 10
29.8848402781
 20
15.6251219844
 30
0.0
 40
0.1503280580506337
100
AcDbArc
 50
196.5095066868
 51
233.4606464483
  0
ARC
  5
17E
330
1F
100
AcDbEntity
  8
0
  6
Continuous
 62
     7
 48
7.5625
370
    15
100
AcDbCircle
 10
29.9673121235
 20
15.6013186812
 30
0.0
 40
0.2273904268139127
100
AcDbArc
 50
169.6539867759
 51
184.7718187212
  0
LWPOLYLINE
  5
17F
330
1F
100
AcDbEntity
  8
0
  6
Continuous
 62
     7
 48
2.75
370
    15
100
AcDbPolyline
 90
        9
 70
   128
 43
0.0
 10
29.7436188086
 20
15.6421562505
 10
29.7423938627
 20
15.6421006644
 10
29.7414135541
 20
15.6420447851
 10
29.7406787625
 20
15.6419886124
 10
29.7401906615
 20
15.6419324397
 10
29.7399495443
 20
15.6418761204
 10
29.7399557042
 20
15.6418196544
 10
29.7402094346
 20
15.641763335
 10
29.7407098555
 20
15.6417071623
  0
LINE
  5
180
330
1F
100
AcDbEntity
  8
0
  6
Continuous
 62
     7
 48
2.75
370
    15
100
AcDbLine
 10
29.7489116541
 20
15.5603182225
 30
0.0
 11
29.7407098555
 21
15.5603182225
 31
0.0
  0
LINE
  5
181
330
1F
100
AcDbEntity
  8
0
  6
Continuous
 62
     7
 48
2.75
370
    15
100
AcDbLine
 10
29.7435372629
 20
15.6417071623
 30
0.0
 11
29.7407098555
 21
15.6417071623
 31
0.0
  0
ARC
  5
182
330
1F
100
AcDbEntity
  8
0
  6
Continuous
 62
     7
 48
7.5625
370
    15
100
AcDbCircle
 10
29.967318772
 20
11.6007074735
 30
0.0
 40
0.2273971230879917
100
AcDbArc
 50
179.9035164807
 51
190.3459275632
  0
ARC
  5
183
330
1F
100
AcDbEntity
  8
0
  6
Continuous
 62
     7
 48
7.5625
370
    15
100
AcDbCircle
 10
29.740559231
 20
11.5589188845
 30
0.0
 40
0.0014073235587594
100
AcDbArc
 50
83.8559179479
 51
116.9245493528
  0
ARC
  5
184
330
1F
100
AcDbEntity
  8
0
  6
Continuous
 62
     7
 48
7.5625
370
    15
100
AcDbCircle
 10
29.8848402781
 20
11.6030375146
 30
0.0
 40
0.1503280580506443
100
AcDbArc
 50
196.5095066868
 51
233.4606464483
  0
LINE
  5
185
330
1F
100
AcDbEntity
  8
0
  6
Continuous
 62
     7
 48
2.75
370
    15
100
AcDbLine
 10
29.7953387444
 20
11.5043412375
 30
0.0
 11
29.7953387444
 21
11.4822567193
 31
0.0
  0
ARC
  5
186
330
1F
100
AcDbEntity
  8
0
  6
Continuous
 62
     7
 48
7.5625
370
    15
100
AcDbCircle
 10
29.8848402781
 20
11.6251220328
 30
0.0
 40
0.1503280580506423
100
AcDbArc
 50
196.5095066868
 51
233.4606464483
  0
ARC
  5
187
330
1F
100
AcDbEntity
  8
0
  6
Continuous
 62
     7
 48
7.5625
370
    15
100
AcDbCircle
 10
29.9673121235
 20
11.6013187295
 30
0.0
 40
0.2273904268139302
100
AcDbArc
 50
169.6539867759
 51
184.7718187212
  0
LWPOLYLINE
  5
188
330
1F
100
AcDbEntity
  8
0
  6
Continuous
 62
     7
 48
2.75
370
    15
100
AcDbPolyline
 90
        9
 70
   128
 43
0.0
 10
29.7436188086
 20
11.6421562988
 10
29.7423938627
 20
11.6421007128
 10
29.7414135541
 20
11.6420446868
 10
29.7406787625
 20
11.6419886607
 10
29.7401906615
 20
11.6419323414
 10
29.7399495443
 20
11.641876022
 10
29.7399557042
 20
11.6418197027
 10
29.7402094346
 20
11.6417633833
 10
29.7407098555
 20
11.641707064
  0
LINE
  5
189
330
1F
100
AcDbEntity
  8
0
  6
Continuous
 62
     7
 48
2.75
370
    15
100
AcDbLine
 10
29.7489116541
 20
11.5603181242
 30
0.0
 11
29.7407098555
 21
11.5603181242
 31
0.0
  0
LINE
  5
18A
330
1F
100
AcDbEntity
  8
0
  6
Continuous
 62
     7
 48
2.75
370
    15
100
AcDbLine
 10
29.7435372629
 20
11.641707064
 30
0.0
 11
29.7407098555
 21
11.641707064
 31
0.0
  0
LINE
  5
18B
330
1F
100
AcDbEntity
  8
0
  6
HIDDEN
 62
     7
 48
2.75
370
     0
100
AcDbLine
 10
29.9312836807
 20
11.4889626818
 30
0.0
 11
29.8692837036
 21
11.4889626818
 31
0.0
  0
LINE
  5
18C
330
1F
100
AcDbEntity
  8
0
  6
HIDDEN
 62
     7
 48
2.75
370
     0
100
AcDbLine
 10
29.9312836807
 20
15.4889626335
 30
0.0
 11
29.8692837036
 21
15.4889626335
 31
0.0
  0
LINE
  5
18D
330
1F
100
AcDbEntity
  8
0
  6
HIDDEN
 62
     7
 48
2.75
370
     0
100
AcDbLine
 10
33.7922836281
 20
17.1630126147
 30
0.0
 11
30.0702836483
 21
17.1630126147
 31
0.0
  0
LINE
  5
18E
330
1F
100
AcDbEntity
  8
0
  6
HIDDEN
 62
     7
 48
2.75
370
     0
100
AcDbLine
 10
30.0702836483
 20
17.1630126147
 30
0.0
 11
30.0702836483
 21
17.5240126044
 31
0.0
  0
LINE
  5
18F
330
1F
100
AcDbEntity
  8
0
  6
HIDDEN
 62
     7
 48
2.75
370
     0
100
AcDbLine
 10
33.7922836281
 20
17.5240126044
 30
0.0
 11
33.7922836281
 21
17.1630126147
 31
0.0
  0
LINE
  5
190
330
1F
100
AcDbEntity
  8
0
  6
HIDDEN
 62
     7
 48
2.75
370
     0
100
AcDbLine
 10
33.7922836281
 20
17.6010125949
 30
0.0
 11
33.7922836281
 21
17.5240126044
 31
0.0
  0
LINE
  5
191
330
1F
100
AcDbEntity
  8
0
  6
HIDDEN
 62
     7
 48
2.75
370
     0
100
AcDbLine
 10
30.0702836483
 20
17.5240126044
 30
0.0
 11
30.0702836483
 21
17.6010125949
 31
0.0
  0
LINE
  5
192
330
1F
100
AcDbEntity
  8
0
  6
HIDDEN
 62
     7
 48
2.75
370
     0
100
AcDbLine
 10
30.0702836483
 20
17.5390126178
 30
0.0
 11
33.7922836281
 21
17.5390126178
 31
0.0
  0
LINE
  5
193
330
1F
100
AcDbEntity
  8
0
  6
HIDDEN
 62
     7
 48
2.75
370
     0
100
AcDbLine
 10
33.8692836323
 20
17.1630126147
 30
0.0
 11
33.8072836323
 21
17.1630126147
 31
0.0
  0
LINE
  5
194
330
1F
100
AcDbEntity
  8
0
  6
HIDDEN
 62
     7
 48
2.75
370
     0
100
AcDbLine
 10
33.8072836323
 20
17.1630126147
 30
0.0
 11
33.8072836323
 21
17.5240126044
 31
0.0
  0
ARC
  5
195
330
1F
100
AcDbEntity
  8
0
  6
HIDDEN
 62
     7
 48
7.5625
370
     0
100
AcDbCircle
 10
33.7922836323
 20
17.5240126433
 30
0.0
 40
0.0150000000000006
100
AcDbArc
 50
0.0
 51
90.0
  0
ARC
  5
196
330
1F
100
AcDbEntity
  8
0
  6
HIDDEN
 62
     7
 48
7.5625
370
     0
100
AcDbCircle
 10
33.7922836323
 20
17.5240126433
 30
0.0
 40
0.0769999999999982
100
AcDbArc
 50
0.0
 51
90.0
  0
LINE
  5
197
330
1F
100
AcDbEntity
  8
0
  6
HIDDEN
 62
     7
 48
2.75
370
     0
100
AcDbLine
 10
30.0082836711
 20
17.5390126178
 30
0.0
 11
30.0702836483
 21
17.5390126178
 31
0.0
  0
ARC
  5
198
330
1F
100
AcDbEntity
  8
0
  6
HIDDEN
 62
     7
 48
7.5625
370
     0
100
AcDbCircle
 10
30.0082836323
 20
17.5240126433
 30
0.0
 40
0.0770000000000017
100
AcDbArc
 50
90.0
 51
180.0
  0
ARC
  5
199
330
1F
100
AcDbEntity
  8
0
  6
HIDDEN
 62
     7
 48
7.5625
370
     0
100
AcDbCircle
 10
30.0082836323
 20
17.5240126433
 30
0.0
 40
0.014999999999997
100
AcDbArc
 50
90.0
 51
180.0
  0
LINE
  5
19A
330
1F
100
AcDbEntity
  8
0
  6
HIDDEN
 62
     7
 48
2.75
370
     0
100
AcDbLine
 10
29.9312836807
 20
17.1010126376
 30
0.0
 11
29.9932836578
 21
17.1010126376
 31
0.0
  0
LINE
  5
19B
330
1F
100
AcDbEntity
  8
0
  6
HIDDEN
 62
     7
 48
2.75
370
     0
100
AcDbLine
 10
30.0702836483
 20
10.0390126718
 30
0.0
 11
30.0702836483
 21
9.6780126821
 31
0.0
  0
LINE
  5
19C
330
1F
100
AcDbEntity
  8
0
  6
HIDDEN
 62
     7
 48
2.75
370
     0
100
AcDbLine
 10
33.7922836281
 20
9.6780126821
 30
0.0
 11
33.7922836281
 21
10.0390126718
 31
0.0
  0
LINE
  5
19D
330
1F
100
AcDbEntity
  8
0
  6
HIDDEN
 62
     7
 48
2.75
370
     0
100
AcDbLine
 10
33.7922836281
 20
10.0390126718
 30
0.0
 11
30.0702836483
 21
10.0390126718
 31
0.0
  0
LINE
  5
19E
330
1F
100
AcDbEntity
  8
0
  6
HIDDEN
 62
     7
 48
2.75
370
     0
100
AcDbLine
 10
30.0702836483
 20
9.6780126821
 30
0.0
 11
30.0702836483
 21
9.6010126916
 31
0.0
  0
LINE
  5
19F
330
1F
100
AcDbEntity
  8
0
  6
HIDDEN
 62
     7
 48
2.75
370
     0
100
AcDbLine
 10
33.7922836281
 20
9.6010126916
 30
0.0
 11
33.7922836281
 21
9.6780126821
 31
0.0
  0
LINE
  5
1A0
330
1F
100
AcDbEntity
  8
0
  6
HIDDEN
 62
     7
 48
2.75
370
     0
100
AcDbLine
 10
30.0702836483
 20
9.6630126687
 30
0.0
 11
33.7922836281
 21
9.6630126687
 31
0.0
  0
LINE
  5
1A1
330
1F
100
AcDbEntity
  8
0
  6
HIDDEN
 62
     7
 48
2.75
370
     0
100
AcDbLine
 10
33.8072836323
 20
10.0390126718
 30
0.0
 11
33.8072836323
 21
9.6780126821
 31
0.0
  0
LINE
  5
1A2
330
1F
100
AcDbEntity
  8
0
  6
HIDDEN
 62
     7
 48
2.75
370
     0
100
AcDbLine
 10
33.8692836323
 20
10.0390126718
 30
0.0
 11
33.8072836323
 21
10.0390126718
 31
0.0
  0
ARC
  5
1A3
330
1F
100
AcDbEntity
  8
0
  6
HIDDEN
 62
     7
 48
7.5625
370
     0
100
AcDbCircle
 10
33.7922836323
 20
9.6780126433
 30
0.0
 40
0.0150000000000006
100
AcDbArc
 50
270.0
 51
0.0
  0
ARC
  5
1A4
330
1F
100
AcDbEntity
  8
0
  6
HIDDEN
 62
     7
 48
7.5625
370
     0
100
AcDbCircle
 10
33.7922836323
 20
9.6780126433
 30
0.0
 40
0.0770000000000017
100
AcDbArc
 50
270.0
 51
360.0
  0
LINE
  5
1A5
330
1F
100
AcDbEntity
  8
0
  6
HIDDEN
 62
     7
 48
2.75
370
     0
100
AcDbLine
 10
30.0082836711
 20
9.6630126687
 30
0.0
 11
30.0702836483
 21
9.6630126687
 31
0.0
  0
ARC
  5
1A6
330
1F
100
AcDbEntity
  8
0
  6
HIDDEN
 62
     7
 48
7.5625
370
     0
100
AcDbCircle
 10
30.0082836323
 20
9.6780126433
 30
0.0
 40
0.077
100
AcDbArc
 50
180.0
 51
270.0
  0
ARC
  5
1A7
330
1F
100
AcDbEntity
  8
0
  6
HIDDEN
 62
     7
 48
7.5625
370
     0
100
AcDbCircle
 10
30.0082836323
 20
9.6780126433
 30
0.0
 40
0.0150000000000006
100
AcDbArc
 50
180.0
 51
270.0
  0
LINE
  5
1A8
330
1F
100
AcDbEntity
  8
0
  6
HIDDEN
 62
     7
 48
2.75
370
     0
100
AcDbLine
 10
29.9312836807
 20
10.1010126489
 30
0.0
 11
29.9932836578
 21
10.1010126489
 31
0.0
  0
LINE
  5
1A9
330
1F
100
AcDbEntity
  8
0
  6
HIDDEN
 62
     7
 48
2.75
370
     0
100
AcDbLine
 10
33.8692836323
 20
17.6010125949
 30
0.0
 11
33.8692836323
 21
9.6010126916
 31
0.0
  0
LINE
  5
1AA
330
1F
100
AcDbEntity
  8
0
  6
HIDDEN
 62
     7
 48
2.75
370
     0
100
AcDbLine
 10
29.9932836578
 20
17.6010125949
 30
0.0
 11
29.9932836578
 21
9.6010126916
 31
0.0
  0
LINE
  5
1AB
330
1F
100
AcDbEntity
  8
0
  6
HIDDEN
 62
     7
 48
2.75
370
     0
100
AcDbLine
 10
33.6992836257
 20
15.6010126191
 30
0.0
 11
33.6992836257
 21
15.8980703475
 31
0.0
  0
LINE
  5
1AC
330
1F
100
AcDbEntity
  8
0
  6
HIDDEN
 62
     7
 48
2.75
370
     0
100
AcDbLine
 10
33.6992836257
 20
15.3039548907
 30
0.0
 11
33.6992836257
 21
15.6010126191
 31
0.0
  0
LINE
  5
1AD
330
1F
100
AcDbEntity
  8
0
  6
HIDDEN
 62
     7
 48
2.75
370
     0
100
AcDbLine
 10
33.7612836395
 20
15.3039548907
 30
0.0
 11
33.7612836395
 21
15.8980703475
 31
0.0
  0
LINE
  5
1AE
330
1F
100
AcDbEntity
  8
0
  6
HIDDEN
 62
     7
 48
2.75
370
     0
100
AcDbLine
 10
33.8272363843
 20
15.6010126191
 30
0.0
 11
33.8272363843
 21
15.7480125743
 31
0.0
  0
LINE
  5
1AF
330
1F
100
AcDbEntity
  8
0
  6
HIDDEN
 62
     7
 48
2.75
370
     0
100
AcDbLine
 10
33.8272363843
 20
15.4540126639
 30
0.0
 11
33.8272363843
 21
15.6010126191
 31
0.0
  0
ARC
  5
1B0
330
1F
100
AcDbEntity
  8
0
  6
HIDDEN
 62
     7
 48
7.5625
370
     0
100
AcDbCircle
 10
29.8848402781
 20
15.598987772
 30
0.0
 40
0.1503280580506486
100
AcDbArc
 50
126.5393535517
 51
163.4904933132
  0
ARC
  5
1B1
330
1F
100
AcDbEntity
  8
0
  6
HIDDEN
 62
     7
 48
7.5625
370
     0
100
AcDbCircle
 10
29.8848402781
 20
15.5769032537
 30
0.0
 40
0.1503280580506472
100
AcDbArc
 50
126.5393535517
 51
163.4904933132
  0
ARC
  5
1B2
330
1F
100
AcDbEntity
  8
0
  6
HIDDEN
 62
     7
 48
7.5625
370
     0
100
AcDbCircle
 10
29.9672203307
 20
15.6007112912
 30
0.0
 40
0.2272985584153309
100
AcDbArc
 50
175.227445657
 51
179.9241912891
  0
ARC
  5
1B3
330
1F
100
AcDbEntity
  8
0
  6
HIDDEN
 62
     7
 48
7.5625
370
     0
100
AcDbCircle
 10
29.7431724187
 20
15.5770360024
 30
0.0
 40
0.0171728173422095
100
AcDbArc
 50
259.0893107191
 51
271.4895129969
  0
LINE
  5
1B4
330
1F
100
AcDbEntity
  8
0
  6
HIDDEN
 62
     7
 48
2.75
370
     0
100
AcDbLine
 10
29.7953387444
 20
15.5824025941
 30
0.0
 11
29.7953387444
 21
15.5043411892
 31
0.0
  0
LINE
  5
1B5
330
1F
100
AcDbEntity
  8
0
  6
HIDDEN
 62
     7
 48
2.75
370
     0
100
AcDbLine
 10
29.7953387444
 20
15.5603182225
 30
0.0
 11
29.7489116541
 21
15.5603182225
 31
0.0
  0
LINE
  5
1B6
330
1F
100
AcDbEntity
  8
0
  6
HIDDEN
 62
     7
 48
2.75
370
     0
100
AcDbLine
 10
30.1812835126
 20
15.5475126105
 30
0.0
 11
30.1812835126
 21
15.6545126277
 31
0.0
  0
LINE
  5
1B7
330
1F
100
AcDbEntity
  8
0
  6
HIDDEN
 62
     7
 48
2.75
370
     0
100
AcDbLine
 10
30.1438634116
 20
15.5320126162
 30
0.0
 11
30.1438634116
 21
15.670012622
 31
0.0
  0
LINE
  5
1B8
330
1F
100
AcDbEntity
  8
0
  6
HIDDEN
 62
     7
 48
2.75
370
     0
100
AcDbLine
 10
29.7962835602
 20
15.6421562505
 30
0.0
 11
29.7962835602
 21
15.5604829273
 31
0.0
  0
LINE
  5
1B9
330
1F
100
AcDbEntity
  8
0
  6
HIDDEN
 62
     7
 48
2.75
370
     0
100
AcDbLine
 10
29.7407098555
 20
15.5824025941
 30
0.0
 11
29.7953387444
 21
15.5824025941
 31
0.0
  0
LINE
  5
1BA
330
1F
100
AcDbEntity
  8
0
  6
HIDDEN
 62
     7
 48
2.75
370
     0
100
AcDbLine
 10
29.7962835602
 20
15.5604829273
 30
0.0
 11
29.7953387444
 21
15.5604829273
 31
0.0
  0
LINE
  5
1BB
330
1F
100
AcDbEntity
  8
0
  6
HIDDEN
 62
     7
 48
2.75
370
     0
100
AcDbLine
 10
29.7962835602
 20
15.5604829273
 30
0.0
 11
29.7962835602
 21
15.5598689877
 31
0.0
  0
LINE
  5
1BC
330
1F
100
AcDbEntity
  8
0
  6
HIDDEN
 62
     7
 48
2.75
370
     0
100
AcDbLine
 10
29.7962835602
 20
15.6415423109
 30
0.0
 11
29.7953387444
 21
15.6415423109
 31
0.0
  0
LINE
  5
1BD
330
1F
100
AcDbEntity
  8
0
  6
HIDDEN
 62
     7
 48
2.75
370
     0
100
AcDbLine
 10
29.7953387444
 20
15.6417071623
 30
0.0
 11
29.7953387444
 21
15.6415423109
 31
0.0
  0
LINE
  5
1BE
330
1F
100
AcDbEntity
  8
0
  6
HIDDEN
 62
     7
 48
2.75
370
     0
100
AcDbLine
 10
29.7953387444
 20
15.6417071623
 30
0.0
 11
29.7435372629
 21
15.6417071623
 31
0.0
  0
LINE
  5
1BF
330
1F
100
AcDbEntity
  8
0
  6
HIDDEN
 62
     7
 48
2.75
370
     0
100
AcDbLine
 10
29.7962835602
 20
15.6421562505
 30
0.0
 11
29.7436188086
 21
15.6421562505
 31
0.0
  0
LINE
  5
1C0
330
1F
100
AcDbEntity
  8
0
  6
HIDDEN
 62
     7
 48
2.75
370
     0
100
AcDbLine
 10
29.7407098555
 20
15.6196226441
 30
0.0
 11
29.7953387444
 21
15.6196226441
 31
0.0
  0
LINE
  5
1C1
330
1F
100
AcDbEntity
  8
0
  6
HIDDEN
 62
     7
 48
2.75
370
     0
100
AcDbLine
 10
29.7953387444
 20
15.6415423109
 30
0.0
 11
29.7953387444
 21
15.6196226441
 31
0.0
  0
LINE
  5
1C2
330
1F
100
AcDbEntity
  8
0
  6
HIDDEN
 62
     7
 48
2.75
370
     0
100
AcDbLine
 10
29.7962835602
 20
15.5598689877
 30
0.0
 11
29.7436188086
 21
15.5598689877
 31
0.0
  0
LINE
  5
1C3
330
1F
100
AcDbEntity
  8
0
  6
HIDDEN
 62
     7
 48
2.75
370
     0
100
AcDbLine
 10
29.7953387444
 20
15.7197685672
 30
0.0
 11
29.7953387444
 21
15.6417071623
 31
0.0
  0
ARC
  5
1C4
330
1F
100
AcDbEntity
  8
0
  6
HIDDEN
 62
     7
 48
7.5625
370
     0
100
AcDbCircle
 10
29.8848398425
 20
11.5989879785
 30
0.0
 40
0.1503275537071168
100
AcDbArc
 50
126.5392893251
 51
163.4905575397
  0
ARC
  5
1C5
330
1F
100
AcDbEntity
  8
0
  6
HIDDEN
 62
     7
 48
7.5625
370
     0
100
AcDbCircle
 10
29.8848402781
 20
11.5769033021
 30
0.0
 40
0.1503280580506408
100
AcDbArc
 50
126.5393535517
 51
163.4904933132
  0
ARC
  5
1C6
330
1F
100
AcDbEntity
  8
0
  6
HIDDEN
 62
     7
 48
7.5625
370
     0
100
AcDbCircle
 10
29.9673399057
 20
11.6007048194
 30
0.0
 40
0.2274182613254386
100
AcDbArc
 50
175.2283151597
 51
179.9028567774
  0
ARC
  5
1C7
330
1F
100
AcDbEntity
  8
0
  6
HIDDEN
 62
     7
 48
7.5625
370
     0
100
AcDbCircle
 10
29.7431719985
 20
11.5770309502
 30
0.0
 40
0.0171677295070398
100
AcDbArc
 50
259.0874660455
 51
271.4913576705
  0
LINE
  5
1C8
330
1F
100
AcDbEntity
  8
0
  6
HIDDEN
 62
     7
 48
2.75
370
     0
100
AcDbLine
 10
29.7953387444
 20
11.5824026424
 30
0.0
 11
29.7953387444
 21
11.5043412375
 31
0.0
  0
LINE
  5
1C9
330
1F
100
AcDbEntity
  8
0
  6
HIDDEN
 62
     7
 48
2.75
370
     0
100
AcDbLine
 10
29.7953387444
 20
11.5603181242
 30
0.0
 11
29.7489116541
 21
11.5603181242
 31
0.0
  0
LINE
  5
1CA
330
1F
100
AcDbEntity
  8
0
  6
HIDDEN
 62
     7
 48
2.75
370
     0
100
AcDbLine
 10
30.1812835126
 20
11.5475126588
 30
0.0
 11
30.1812835126
 21
11.6545126761
 31
0.0
  0
LINE
  5
1CB
330
1F
100
AcDbEntity
  8
0
  6
HIDDEN
 62
     7
 48
2.75
370
     0
100
AcDbLine
 10
30.1438634116
 20
11.5320126645
 30
0.0
 11
30.1438634116
 21
11.6700126703
 31
0.0
  0
LINE
  5
1CC
330
1F
100
AcDbEntity
  8
0
  6
HIDDEN
 62
     7
 48
2.75
370
     0
100
AcDbLine
 10
29.7407098555
 20
11.5824026424
 30
0.0
 11
29.7953387444
 21
11.5824026424
 31
0.0
  0
LINE
  5
1CD
330
1F
100
AcDbEntity
  8
0
  6
HIDDEN
 62
     7
 48
2.75
370
     0
100
AcDbLine
 10
29.7962835602
 20
11.6421562988
 30
0.0
 11
29.7962835602
 21
11.5604829756
 31
0.0
  0
LINE
  5
1CE
330
1F
100
AcDbEntity
  8
0
  6
HIDDEN
 62
     7
 48
2.75
370
     0
100
AcDbLine
 10
29.7962835602
 20
11.5604829756
 30
0.0
 11
29.7962835602
 21
11.5598690361
 31
0.0
  0
LINE
  5
1CF
330
1F
100
AcDbEntity
  8
0
  6
HIDDEN
 62
     7
 48
2.75
370
     0
100
AcDbLine
 10
29.7962835602
 20
11.5604829756
 30
0.0
 11
29.7953387444
 21
11.5604829756
 31
0.0
  0
LINE
  5
1D0
330
1F
100
AcDbEntity
  8
0
  6
HIDDEN
 62
     7
 48
2.75
370
     0
100
AcDbLine
 10
29.7962835602
 20
11.6415423592
 30
0.0
 11
29.7953387444
 21
11.6415423592
 31
0.0
  0
LINE
  5
1D1
330
1F
100
AcDbEntity
  8
0
  6
HIDDEN
 62
     7
 48
2.75
370
     0
100
AcDbLine
 10
29.7953387444
 20
11.641707064
 30
0.0
 11
29.7953387444
 21
11.6415423592
 31
0.0
  0
LINE
  5
1D2
330
1F
100
AcDbEntity
  8
0
  6
HIDDEN
 62
     7
 48
2.75
370
     0
100
AcDbLine
 10
29.7953387444
 20
11.641707064
 30
0.0
 11
29.7435372629
 21
11.641707064
 31
0.0
  0
LINE
  5
1D3
330
1F
100
AcDbEntity
  8
0
  6
HIDDEN
 62
     7
 48
2.75
370
     0
100
AcDbLine
 10
29.7962835602
 20
11.6421562988
 30
0.0
 11
29.7436188086
 21
11.6421562988
 31
0.0
  0
LINE
  5
1D4
330
1F
100
AcDbEntity
  8
0
  6
HIDDEN
 62
     7
 48
2.75
370
     0
100
AcDbLine
 10
29.7407098555
 20
11.6196226925
 30
0.0
 11
29.7953387444
 21
11.6196226925
 31
0.0
  0
LINE
  5
1D5
330
1F
100
AcDbEntity
  8
0
  6
HIDDEN
 62
     7
 48
2.75
370
     0
100
AcDbLine
 10
29.7953387444
 20
11.6415423592
 30
0.0
 11
29.7953387444
 21
11.6196226925
 31
0.0
  0
LINE
  5
1D6
330
1F
100
AcDbEntity
  8
0
  6
HIDDEN
 62
     7
 48
2.75
370
     0
100
AcDbLine
 10
29.7962835602
 20
11.5598690361
 30
0.0
 11
29.7436188086
 21
11.5598690361
 31
0.0
  0
LINE
  5
1D7
330
1F
100
AcDbEntity
  8
0
  6
HIDDEN
 62
     7
 48
2.75
370
     0
100
AcDbLine
 10
29.7953387444
 20
11.7197684689
 30
0.0
 11
29.7953387444
 21
11.641707064
 31
0.0
  0
LINE
  5
1D8
330
1F
100
AcDbEntity
  8
0
  6
HIDDEN
 62
     7
 48
2.75
370
     0
100
AcDbLine
 10
29.8692837036
 20
11.1260127813
 30
0.0
 11
29.9312836807
 21
11.1260127813
 31
0.0
  0
LINE
  5
1D9
330
1F
100
AcDbEntity
  8
0
  6
HIDDEN
 62
     7
 48
2.75
370
     0
100
AcDbLine
 10
29.8692837036
 20
15.1260125863
 30
0.0
 11
29.9312836807
 21
15.1260125863
 31
0.0
  0
LINE
  5
1DA
330
1F
100
AcDbEntity
  8
0
  6
HIDDEN
 62
     7
 48
2.75
370
     0
100
AcDbLine
 10
29.9312836807
 20
11.7260125834
 30
0.0
 11
29.8692837036
 21
11.7260125834
 31
0.0
  0
LINE
  5
1DB
330
1F
100
AcDbEntity
  8
0
  6
HIDDEN
 62
     7
 48
2.75
370
     0
100
AcDbLine
 10
29.9312836807
 20
15.7260126817
 30
0.0
 11
29.8692837036
 21
15.7260126817
 31
0.0
  0
LINE
  5
1DC
330
1F
100
AcDbEntity
  8
0
  6
HIDDEN
 62
     7
 48
2.75
370
     0
100
AcDbLine
 10
29.9312836807
 20
15.516012641
 30
0.0
 11
29.9932836578
 21
15.516012641
 31
0.0
  0
LINE
  5
1DD
330
1F
100
AcDbEntity
  8
0
  6
HIDDEN
 62
     7
 48
2.75
370
     0
100
AcDbLine
 10
29.9932836578
 20
15.6860125972
 30
0.0
 11
29.9312836807
 21
15.6860125972
 31
0.0
  0
LINE
  5
1DE
330
1F
100
AcDbEntity
  8
0
  6
HIDDEN
 62
     7
 48
2.75
370
     0
100
AcDbLine
 10
29.9312836807
 20
11.5160126894
 30
0.0
 11
29.9932836578
 21
11.5160126894
 31
0.0
  0
LINE
  5
1DF
330
1F
100
AcDbEntity
  8
0
  6
HIDDEN
 62
     7
 48
2.75
370
     0
100
AcDbLine
 10
29.9932836578
 20
11.6860126455
 30
0.0
 11
29.9312836807
 21
11.6860126455
 31
0.0
  0
LINE
  5
1E0
330
1F
100
AcDbEntity
  8
0
  6
HIDDEN
 62
     7
 48
2.75
370
     0
100
AcDbLine
 10
33.9312836323
 20
16.24151278
 30
0.0
 11
33.8692836323
 21
16.24151278
 31
0.0
  0
LINE
  5
1E1
330
1F
100
AcDbEntity
  8
0
  6
HIDDEN
 62
     7
 48
2.75
370
     0
100
AcDbLine
 10
33.8692836323
 20
15.9605126661
 30
0.0
 11
33.9312836323
 21
15.9605126661
 31
0.0
  0
LINE
  5
1E2
330
1F
100
AcDbEntity
  8
0
  6
HIDDEN
 62
     7
 48
2.75
370
     0
100
AcDbLine
 10
33.9312836323
 20
11.2415126204
 30
0.0
 11
33.8692836323
 21
11.2415126204
 31
0.0
  0
LINE
  5
1E3
330
1F
100
AcDbEntity
  8
0
  6
HIDDEN
 62
     7
 48
2.75
370
     0
100
AcDbLine
 10
33.8692836323
 20
10.9605125065
 30
0.0
 11
33.9312836323
 21
10.9605125065
 31
0.0
  0
LINE
  5
1E4
330
1F
100
AcDbEntity
  8
0
  6
HIDDEN
 62
     7
 48
2.75
370
     0
100
AcDbLine
 10
33.8692836323
 20
16.2426253805
 30
0.0
 11
33.7243368813
 21
15.991570294
 31
0.0
  0
LINE
  5
1E5
330
1F
100
AcDbEntity
  8
0
  6
HIDDEN
 62
     7
 48
2.75
370
     0
100
AcDbLine
 10
33.7243368813
 20
15.2104549442
 30
0.0
 11
33.8692836323
 21
14.9593998577
 31
0.0
  0
LINE
  5
1E6
330
1F
100
AcDbEntity
  8
0
  6
HIDDEN
 62
     7
 48
2.75
370
     0
100
AcDbLine
 10
33.9312836323
 20
16.226012639
 30
0.0
 11
33.7780304602
 21
15.9605703055
 31
0.0
  0
LINE
  5
1E7
330
1F
100
AcDbEntity
  8
0
  6
HIDDEN
 62
     7
 48
2.75
370
     0
100
AcDbLine
 10
33.7780304602
 20
15.2414549327
 30
0.0
 11
33.9312836323
 21
14.9760125991
 31
0.0
  0
ARC
  5
1E8
330
1F
100
AcDbEntity
  8
0
  6
HIDDEN
 62
     7
 48
7.5625
370
     0
100
AcDbCircle
 10
33.8862836323
 20
15.3039549296
 30
0.0
 40
0.1869999999999997
100
AcDbArc
 50
180.0
 51
210.0
  0
ARC
  5
1E9
330
1F
100
AcDbEntity
  8
0
  6
HIDDEN
 62
     7
 48
7.5625
370
     0
100
AcDbCircle
 10
33.8862836323
 20
15.8980703569
 30
0.0
 40
0.1869999999999989
100
AcDbArc
 50
150.0
 51
180.0
  0
ARC
  5
1EA
330
1F
100
AcDbEntity
  8
0
  6
HIDDEN
 62
     7
 48
7.5625
370
     0
100
AcDbCircle
 10
33.8862836323
 20
15.3039549296
 30
0.0
 40
0.125
100
AcDbArc
 50
180.0
 51
210.0
  0
ARC
  5
1EB
330
1F
100
AcDbEntity
  8
0
  6
HIDDEN
 62
     7
 48
7.5625
370
     0
100
AcDbCircle
 10
33.8862836323
 20
15.8980703569
 30
0.0
 40
0.125
100
AcDbArc
 50
150.0
 51
180.0
  0
ARC
  5
1EC
330
1F
100
AcDbEntity
  8
0
  6
HIDDEN
 62
     7
 48
7.5625
370
     0
100
AcDbCircle
 10
33.7780237898
 20
15.7647528007
 30
0.0
 40
0.0167401574803208
100
AcDbArc
 50
180.0
 51
270.0
  0
ARC
  5
1ED
330
1F
100
AcDbEntity
  8
0
  6
HIDDEN
 62
     7
 48
7.5625
370
     0
100
AcDbCircle
 10
33.7780237898
 20
15.4372724858
 30
0.0
 40
0.0167401574803208
100
AcDbArc
 50
90.0
 51
180.0
  0
ARC
  5
1EE
330
1F
100
AcDbEntity
  8
0
  6
HIDDEN
 62
     7
 48
7.5625
370
     0
100
AcDbCircle
 10
33.7780237898
 20
15.7647528007
 30
0.0
 40
0.0787401574803184
100
AcDbArc
 50
180.0
 51
270.0
  0
ARC
  5
1EF
330
1F
100
AcDbEntity
  8
0
  6
HIDDEN
 62
     7
 48
7.5625
370
     0
100
AcDbCircle
 10
33.7780237898
 20
15.4372724858
 30
0.0
 40
0.0787401574803184
100
AcDbArc
 50
90.0
 51
180.0
  0
LINE
  5
1F0
330
1F
100
AcDbEntity
  8
0
  6
HIDDEN
 62
     7
 48
2.75
370
     0
100
AcDbLine
 10
33.778023787
 20
15.4540126639
 30
0.0
 11
33.8272363843
 21
15.4540126639
 31
0.0
  0
LINE
  5
1F1
330
1F
100
AcDbEntity
  8
0
  6
HIDDEN
 62
     7
 48
2.75
370
     0
100
AcDbLine
 10
33.8272363843
 20
15.7480125743
 30
0.0
 11
33.778023787
 21
15.7480125743
 31
0.0
  0
LINE
  5
1F2
330
1F
100
AcDbEntity
  8
0
  6
HIDDEN
 62
     7
 48
2.75
370
     0
100
AcDbLine
 10
33.778023787
 20
15.516012641
 30
0.0
 11
33.8272363843
 21
15.516012641
 31
0.0
  0
LINE
  5
1F3
330
1F
100
AcDbEntity
  8
0
  6
HIDDEN
 62
     7
 48
2.75
370
     0
100
AcDbLine
 10
33.8272363843
 20
15.6860125972
 30
0.0
 11
33.778023787
 21
15.6860125972
 31
0.0
  0
LINE
  5
1F4
330
1F
100
AcDbEntity
  8
0
  6
HIDDEN
 62
     7
 48
2.75
370
     0
100
AcDbLine
 10
30.1438634116
 20
15.5320126162
 30
0.0
 11
30.1812835126
 21
15.5475126105
 31
0.0
  0
LINE
  5
1F5
330
1F
100
AcDbEntity
  8
0
  6
HIDDEN
 62
     7
 48
2.75
370
     0
100
AcDbLine
 10
30.1812835126
 20
15.6545126277
 30
0.0
 11
30.1438634116
 21
15.670012622
 31
0.0
  0
LINE
  5
1F6
330
1F
100
AcDbEntity
  8
0
  6
HIDDEN
 62
     7
 48
2.75
370
     0
100
AcDbLine
 10
29.8692837036
 20
15.5320126162
 30
0.0
 11
30.1438634116
 21
15.5320126162
 31
0.0
  0
LINE
  5
1F7
330
1F
100
AcDbEntity
  8
0
  6
HIDDEN
 62
     7
 48
2.75
370
     0
100
AcDbLine
 10
30.1438634116
 20
15.670012622
 30
0.0
 11
29.8692837036
 21
15.670012622
 31
0.0
  0
LINE
  5
1F8
330
1F
100
AcDbEntity
  8
0
  6
HIDDEN
 62
     7
 48
2.75
370
     0
100
AcDbLine
 10
30.1438634116
 20
11.5320126645
 30
0.0
 11
30.1812835126
 21
11.5475126588
 31
0.0
  0
LINE
  5
1F9
330
1F
100
AcDbEntity
  8
0
  6
HIDDEN
 62
     7
 48
2.75
370
     0
100
AcDbLine
 10
30.1812835126
 20
11.6545126761
 30
0.0
 11
30.1438634116
 21
11.6700126703
 31
0.0
  0
LINE
  5
1FA
330
1F
100
AcDbEntity
  8
0
  6
HIDDEN
 62
     7
 48
2.75
370
     0
100
AcDbLine
 10
29.8692837036
 20
11.5320126645
 30
0.0
 11
30.1438634116
 21
11.5320126645
 31
0.0
  0
LINE
  5
1FB
330
1F
100
AcDbEntity
  8
0
  6
HIDDEN
 62
     7
 48
2.75
370
     0
100
AcDbLine
 10
30.1438634116
 20
11.6700126703
 30
0.0
 11
29.8692837036
 21
11.6700126703
 31
0.0
  0
ARC
  5
1FC
330
1F
100
AcDbEntity
  8
0
  6
Continuous
 62
     7
 48
7.5625
370
    15
100
AcDbCircle
 10
7.3217864823
 20
15.7725126433
 30
0.0
 40
0.0149999999999988
100
AcDbArc
 50
52.550643686
 51
90.0
  0
ARC
  5
1FD
330
1F
100
AcDbEntity
  8
0
  6
Continuous
 62
     7
 48
7.5625
370
    15
100
AcDbCircle
 10
7.3217864823
 20
15.4295126433
 30
0.0
 40
0.0150000000000005
100
AcDbArc
 50
270.0
 51
307.449356314
  0
LINE
  5
1FE
330
1F
100
AcDbEntity
  8
0
  6
Continuous
 62
     7
 48
2.75
370
    15
100
AcDbLine
 10
7.3217864741
 20
15.787512678
 30
0.0
 11
7.2884550991
 21
15.787512678
 31
0.0
  0
LINE
  5
1FF
330
1F
100
AcDbEntity
  8
0
  6
Continuous
 62
     7
 48
2.75
370
    15
100
AcDbLine
 10
7.2884550991
 20
15.4145127069
 30
0.0
 11
7.3217864741
 21
15.4145127069
 31
0.0
  0
ARC
  5
200
330
1F
100
AcDbEntity
  8
0
  6
Continuous
 62
     7
 48
7.5625
370
    15
100
AcDbCircle
 10
7.1904305834
 20
15.6010126433
 30
0.0
 40
0.2310245869783041
100
AcDbArc
 50
10.1818657166
 51
52.550643686
  0
ARC
  5
201
330
1F
100
AcDbEntity
  8
0
  6
Continuous
 62
     7
 48
7.5625
370
    15
100
AcDbCircle
 10
7.1904305834
 20
15.6010126433
 30
0.0
 40
0.2310245869783027
100
AcDbArc
 50
307.449356314
 51
349.8181342834
  0
ARC
  5
202
330
1F
100
AcDbEntity
  8
0
  6
Continuous
 62
     7
 48
7.5625
370
    15
100
AcDbCircle
 10
7.3217864823
 20
11.7725126433
 30
0.0
 40
0.0149999999999991
100
AcDbArc
 50
52.550643686
 51
90.0
  0
ARC
  5
203
330
1F
100
AcDbEntity
  8
0
  6
Continuous
 62
     7
 48
7.5625
370
    15
100
AcDbCircle
 10
7.3217864823
 20
11.4295126433
 30
0.0
 40
0.0149999999999991
100
AcDbArc
 50
270.0
 51
307.449356314
  0
LINE
  5
204
330
1F
100
AcDbEntity
  8
0
  6
Continuous
 62
     7
 48
2.75
370
    15
100
AcDbLine
 10
7.3217864741
 20
11.7875125796
 30
0.0
 11
7.2884550991
 21
11.7875125796
 31
0.0
  0
LINE
  5
205
330
1F
100
AcDbEntity
  8
0
  6
Continuous
 62
     7
 48
2.75
370
    15
100
AcDbLine
 10
7.2884550991
 20
11.4145126086
 30
0.0
 11
7.3217864741
 21
11.4145126086
 31
0.0
  0
ARC
  5
206
330
1F
100
AcDbEntity
  8
0
  6
Continuous
 62
     7
 48
7.5625
370
    15
100
AcDbCircle
 10
7.1904305834
 20
11.6010126433
 30
0.0
 40
0.2310245869783041
100
AcDbArc
 50
10.1818657166
 51
52.550643686
  0
ARC
  5
207
330
1F
100
AcDbEntity
  8
0
  6
Continuous
 62
     7
 48
7.5625
370
    15
100
AcDbCircle
 10
7.1904305834
 20
11.6010126433
 30
0.0
 40
0.2310245869783027
100
AcDbArc
 50
307.449356314
 51
349.8181342834
  0
LINE
  5
208
330
1F
100
AcDbEntity
  8
0
  6
Continuous
 62
     7
 48
2.75
370
    15
100
AcDbLine
 10
7.226455122
 20
9.6010126916
 30
0.0
 11
7.2884550991
 21
9.6010126916
 31
0.0
  0
LINE
  5
209
330
1F
100
AcDbEntity
  8
0
  6
Continuous
 62
     7
 48
2.75
370
    15
100
AcDbLine
 10
7.226455122
 20
17.6010125949
 30
0.0
 11
7.2884550991
 21
17.6010125949
 31
0.0
  0
LINE
  5
20A
330
1F
100
AcDbEntity
  8
0
  6
Continuous
 62
     7
 48
2.75
370
    15
100
AcDbLine
 10
7.2884550991
 20
17.6010125949
 30
0.0
 11
7.2884550991
 21
9.6010126916
 31
0.0
  0
LINE
  5
20B
330
1F
100
AcDbEntity
  8
0
  6
Continuous
 62
     7
 48
2.75
370
    15
100
AcDbLine
 10
7.226455122
 20
17.6010125949
 30
0.0
 11
7.226455122
 21
9.6010126916
 31
0.0
  0
LINE
  5
20C
330
1F
100
AcDbEntity
  8
0
  6
Continuous
 62
     7
 48
2.75
370
    15
100
AcDbLine
 10
3.2264551703
 20
17.6010125949
 30
0.0
 11
3.2264551703
 21
9.6010126916
 31
0.0
  0
LINE
  5
20D
330
1F
100
AcDbEntity
  8
0
  6
Continuous
 62
     7
 48
2.75
370
    15
100
AcDbLine
 10
3.2264551703
 20
17.6010125949
 30
0.0
 11
3.30345517
 21
17.6010125949
 31
0.0
  0
LINE
  5
20E
330
1F
100
AcDbEntity
  8
0
  6
Continuous
 62
     7
 48
2.75
370
    15
100
AcDbLine
 10
3.2264551703
 20
9.6010126916
 30
0.0
 11
3.30345517
 21
9.6010126916
 31
0.0
  0
LINE
  5
20F
330
1F
100
AcDbEntity
  8
0
  6
Continuous
 62
     7
 48
2.75
370
    15
100
AcDbLine
 10
3.30345517
 20
17.6010125949
 30
0.0
 11
7.1494551315
 21
17.6010125949
 31
0.0
  0
LINE
  5
210
330
1F
100
AcDbEntity
  8
0
  6
Continuous
 62
     7
 48
2.75
370
    15
100
AcDbLine
 10
3.30345517
 20
9.6010126916
 30
0.0
 11
7.1494551315
 21
9.6010126916
 31
0.0
  0
LINE
  5
211
330
1F
100
AcDbEntity
  8
0
  6
Continuous
 62
     7
 48
2.75
370
    15
100
AcDbLine
 10
7.1494551315
 20
17.6010125949
 30
0.0
 11
7.226455122
 21
17.6010125949
 31
0.0
  0
LINE
  5
212
330
1F
100
AcDbEntity
  8
0
  6
Continuous
 62
     7
 48
2.75
370
    15
100
AcDbLine
 10
7.1494551315
 20
9.6010126916
 30
0.0
 11
7.226455122
 21
9.6010126916
 31
0.0
  0
ARC
  5
213
330
1F
100
AcDbEntity
  8
0
  6
Continuous
 62
     7
 48
7.5625
370
    15
100
AcDbCircle
 10
7.2728985245
 20
15.6251219844
 30
0.0
 40
0.1503280580506069
100
AcDbArc
 50
306.5393535517
 51
343.4904933132
  0
LINE
  5
214
330
1F
100
AcDbEntity
  8
0
  6
Continuous
 62
     7
 48
2.75
370
    15
100
AcDbLine
 10
7.3624000582
 20
15.4822568176
 30
0.0
 11
7.3624000582
 21
15.5043411892
 31
0.0
  0
ARC
  5
215
330
1F
100
AcDbEntity
  8
0
  6
Continuous
 62
     7
 48
7.5625
370
    15
100
AcDbCircle
 10
7.2728989602
 20
15.603037308
 30
0.0
 40
0.150327553707071
100
AcDbArc
 50
306.5392893251
 51
343.4905575397
  0
ARC
  5
216
330
1F
100
AcDbEntity
  8
0
  6
Continuous
 62
     7
 48
7.5625
370
    15
100
AcDbCircle
 10
7.417178998
 20
15.5589171297
 30
0.0
 40
0.0014091048387264
100
AcDbArc
 50
63.0860714896
 51
96.1128244606
  0
ARC
  5
217
330
1F
100
AcDbEntity
  8
0
  6
Continuous
 62
     7
 48
7.5625
370
    15
100
AcDbCircle
 10
7.1904498164
 20
15.6007040999
 30
0.0
 40
0.2273672244559043
100
AcDbArc
 50
349.6535487702
 51
0.0777827796
  0
LWPOLYLINE
  5
218
330
1F
100
AcDbEntity
  8
0
  6
Continuous
 62
     7
 48
2.75
370
    15
100
AcDbPolyline
 90
        9
 70
   128
 43
0.0
 10
7.4170289471
 20
15.6417071623
 10
7.417529368
 20
15.641763335
 10
7.4177830984
 20
15.6418196544
 10
7.4177892584
 20
15.6418761204
 10
7.4175481411
 20
15.6419324397
 10
7.4170600401
 20
15.6419886124
 10
7.4163252486
 20
15.6420447851
 10
7.4153449399
 20
15.6421006644
 10
7.4141199941
 20
15.6421562505
  0
ARC
  5
219
330
1F
100
AcDbEntity
  8
0
  6
Continuous
 62
     7
 48
7.5625
370
    15
100
AcDbCircle
 10
7.1904266792
 20
15.6013186812
 30
0.0
 40
0.227390426813945
100
AcDbArc
 50
355.2281812788
 51
10.3460132241
  0
LINE
  5
21A
330
1F
100
AcDbEntity
  8
0
  6
Continuous
 62
     7
 48
2.75
370
    15
100
AcDbLine
 10
7.4170289471
 20
15.5603182225
 30
0.0
 11
7.4088271486
 21
15.5603182225
 31
0.0
  0
LINE
  5
21B
330
1F
100
AcDbEntity
  8
0
  6
Continuous
 62
     7
 48
2.75
370
    15
100
AcDbLine
 10
7.4170289471
 20
15.6417071623
 30
0.0
 11
7.4142015398
 21
15.6417071623
 31
0.0
  0
ARC
  5
21C
330
1F
100
AcDbEntity
  8
0
  6
Continuous
 62
     7
 48
7.5625
370
    15
100
AcDbCircle
 10
7.2728985245
 20
11.6251220328
 30
0.0
 40
0.1503280580505824
100
AcDbArc
 50
306.5393535517
 51
343.4904933132
  0
LINE
  5
21D
330
1F
100
AcDbEntity
  8
0
  6
Continuous
 62
     7
 48
2.75
370
    15
100
AcDbLine
 10
7.3624000582
 20
11.4822567193
 30
0.0
 11
7.3624000582
 21
11.5043412375
 31
0.0
  0
ARC
  5
21E
330
1F
100
AcDbEntity
  8
0
  6
Continuous
 62
     7
 48
7.5625
370
    15
100
AcDbCircle
 10
7.2728985245
 20
11.6030375146
 30
0.0
 40
0.1503280580505968
100
AcDbArc
 50
306.5393535517
 51
343.4904933132
  0
ARC
  5
21F
330
1F
100
AcDbEntity
  8
0
  6
Continuous
 62
     7
 48
7.5625
370
    15
100
AcDbCircle
 10
7.4171795717
 20
11.5589188845
 30
0.0
 40
0.001407323558669
100
AcDbArc
 50
63.0754506462
 51
96.1440820532
  0
ARC
  5
220
330
1F
100
AcDbEntity
  8
0
  6
Continuous
 62
     7
 48
7.5625
370
    15
100
AcDbCircle
 10
7.1904532781
 20
11.6007038372
 30
0.0
 40
0.2273637632238442
100
AcDbArc
 50
349.6534692048
 51
0.077862345
  0
LWPOLYLINE
  5
221
330
1F
100
AcDbEntity
  8
0
  6
Continuous
 62
     7
 48
2.75
370
    15
100
AcDbPolyline
 90
        9
 70
   128
 43
0.0
 10
7.4170289471
 20
11.641707064
 10
7.417529368
 20
11.6417633833
 10
7.4177830984
 20
11.6418197027
 10
7.4177892584
 20
11.641876022
 10
7.4175481411
 20
11.6419323414
 10
7.4170600401
 20
11.6419886607
 10
7.4163252486
 20
11.6420446868
 10
7.4153449399
 20
11.6421007128
 10
7.4141199941
 20
11.6421562988
  0
ARC
  5
222
330
1F
100
AcDbEntity
  8
0
  6
Continuous
 62
     7
 48
7.5625
370
    15
100
AcDbCircle
 10
7.1904266792
 20
11.6013187295
 30
0.0
 40
0.2273904268139298
100
AcDbArc
 50
355.2281812788
 51
10.3460132241
  0
LINE
  5
223
330
1F
100
AcDbEntity
  8
0
  6
Continuous
 62
     7
 48
2.75
370
    15
100
AcDbLine
 10
7.4170289471
 20
11.5603181242
 30
0.0
 11
7.4088271486
 21
11.5603181242
 31
0.0
  0
LINE
  5
224
330
1F
100
AcDbEntity
  8
0
  6
Continuous
 62
     7
 48
2.75
370
    15
100
AcDbLine
 10
7.4170289471
 20
11.641707064
 30
0.0
 11
7.4142015398
 21
11.641707064
 31
0.0
  0
LINE
  5
225
330
1F
100
AcDbEntity
  8
0
  6
Continuous
 62
     7
 48
2.75
370
    15
100
AcDbLine
 10
8.6683547842
 20
6.8505923653
 30
0.0
 11
8.6683547842
 21
6.8172609903
 31
0.0
  0
LINE
  5
226
330
1F
100
AcDbEntity
  8
0
  6
Continuous
 62
     7
 48
2.75
370
    15
100
AcDbLine
 10
9.0413546086
 20
6.8172609903
 30
0.0
 11
9.0413546086
 21
6.8505923653
 31
0.0
  0
ARC
  5
227
330
1F
100
AcDbEntity
  8
0
  6
Continuous
 62
     7
 48
7.5625
370
    15
100
AcDbCircle
 10
8.6833546694
 20
6.8505923735
 30
0.0
 40
0.0150000000000006
100
AcDbArc
 50
142.550643686
 51
180.0
  0
ARC
  5
228
330
1F
100
AcDbEntity
  8
0
  6
Continuous
 62
     7
 48
7.5625
370
    15
100
AcDbCircle
 10
9.0263546694
 20
6.8505923735
 30
0.0
 40
0.0149999999999991
100
AcDbArc
 50
0.0
 51
37.449356314
  0
ARC
  5
229
330
1F
100
AcDbEntity
  8
0
  6
Continuous
 62
     7
 48
7.5625
370
    15
100
AcDbCircle
 10
8.8548546694
 20
6.7192364746
 30
0.0
 40
0.2310245869783046
100
AcDbArc
 50
100.1818657166
 51
142.550643686
  0
ARC
  5
22A
330
1F
100
AcDbEntity
  8
0
  6
Continuous
 62
     7
 48
7.5625
370
    15
100
AcDbCircle
 10
8.8548546694
 20
6.7192364746
 30
0.0
 40
0.2310245869783032
100
AcDbArc
 50
37.449356314
 51
79.8181342834
  0
LINE
  5
22B
330
1F
100
AcDbEntity
  8
0
  6
Continuous
 62
     7
 48
2.75
370
    15
100
AcDbLine
 10
8.7858545468
 20
6.6932610361
 30
0.0
 11
8.7858545468
 21
6.6162610456
 31
0.0
  0
LINE
  5
22C
330
1F
100
AcDbEntity
  8
0
  6
Continuous
 62
     7
 48
2.75
370
    15
100
AcDbLine
 10
8.9238545527
 20
6.6162610456
 30
0.0
 11
8.9238545527
 21
6.6932610361
 31
0.0
  0
LINE
  5
22D
330
1F
100
AcDbEntity
  8
0
  6
Continuous
 62
     7
 48
2.75
370
    15
100
AcDbLine
 10
16.1683547302
 20
6.8505923653
 30
0.0
 11
16.1683547302
 21
6.8172609903
 31
0.0
  0
LINE
  5
22E
330
1F
100
AcDbEntity
  8
0
  6
Continuous
 62
     7
 48
2.75
370
    15
100
AcDbLine
 10
16.5413545546
 20
6.8172609903
 30
0.0
 11
16.5413545546
 21
6.8505923653
 31
0.0
  0
ARC
  5
22F
330
1F
100
AcDbEntity
  8
0
  6
Continuous
 62
     7
 48
7.5625
370
    15
100
AcDbCircle
 10
16.1833546694
 20
6.8505923735
 30
0.0
 40
0.0150000000000006
100
AcDbArc
 50
142.550643686
 51
180.0
  0
ARC
  5
230
330
1F
100
AcDbEntity
  8
0
  6
Continuous
 62
     7
 48
7.5625
370
    15
100
AcDbCircle
 10
16.5263546694
 20
6.8505923735
 30
0.0
 40
0.0150000000000006
100
AcDbArc
 50
0.0
 51
37.449356314
  0
ARC
  5
231
330
1F
100
AcDbEntity
  8
0
  6
Continuous
 62
     7
 48
7.5625
370
    15
100
AcDbCircle
 10
16.3548546694
 20
6.7192364746
 30
0.0
 40
0.2310245869783032
100
AcDbArc
 50
100.1818657166
 51
142.550643686
  0
ARC
  5
232
330
1F
100
AcDbEntity
  8
0
  6
Continuous
 62
     7
 48
7.5625
370
    15
100
AcDbCircle
 10
16.3548546694
 20
6.7192364746
 30
0.0
 40
0.2310245869783032
100
AcDbArc
 50
37.449356314
 51
79.8181342834
  0
LINE
  5
233
330
1F
100
AcDbEntity
  8
0
  6
Continuous
 62
     7
 48
2.75
370
    15
100
AcDbLine
 10
16.2858547862
 20
6.6932610361
 30
0.0
 11
16.2858547862
 21
6.6162610456
 31
0.0
  0
LINE
  5
234
330
1F
100
AcDbEntity
  8
0
  6
Continuous
 62
     7
 48
2.75
370
    15
100
AcDbLine
 10
16.423854792
 20
6.6162610456
 30
0.0
 11
16.423854792
 21
6.6932610361
 31
0.0
  0
LINE
  5
235
330
1F
100
AcDbEntity
  8
0
  6
Continuous
 62
     7
 48
2.75
370
    15
100
AcDbLine
 10
16.6048546211
 20
6.7552610132
 30
0.0
 11
16.6048546211
 21
6.8172609903
 31
0.0
  0
LINE
  5
236
330
1F
100
AcDbEntity
  8
0
  6
Continuous
 62
     7
 48
2.75
370
    15
100
AcDbLine
 10
8.6048547178
 20
6.7552610132
 30
0.0
 11
16.6048546211
 21
6.7552610132
 31
0.0
  0
LINE
  5
237
330
1F
100
AcDbEntity
  8
0
  6
Continuous
 62
     7
 48
2.75
370
    15
100
AcDbLine
 10
8.6048547178
 20
6.7552610132
 30
0.0
 11
8.6048547178
 21
6.8172609903
 31
0.0
  0
LINE
  5
238
330
1F
100
AcDbEntity
  8
0
  6
Continuous
 62
     7
 48
2.75
370
    15
100
AcDbLine
 10
8.6048547178
 20
6.8172609903
 30
0.0
 11
16.6048546211
 21
6.8172609903
 31
0.0
  0
LINE
  5
239
330
1F
100
AcDbEntity
  8
0
  6
Continuous
 62
     7
 48
2.75
370
    15
100
AcDbLine
 10
9.1358546636
 20
6.6162610456
 30
0.0
 11
8.7438546854
 21
6.6162610456
 31
0.0
  0
LINE
  5
23A
330
1F
100
AcDbEntity
  8
0
  6
Continuous
 62
     7
 48
2.75
370
    15
100
AcDbLine
 10
16.0738546752
 20
6.6782610228
 30
0.0
 11
16.0738546752
 21
6.6162610456
 31
0.0
  0
LINE
  5
23B
330
1F
100
AcDbEntity
  8
0
  6
Continuous
 62
     7
 48
2.75
370
    15
100
AcDbLine
 10
16.0738546752
 20
6.6162610456
 30
0.0
 11
16.4658546535
 21
6.6162610456
 31
0.0
  0
LINE
  5
23C
330
1F
100
AcDbEntity
  8
0
  6
Continuous
 62
     7
 48
2.75
370
    15
100
AcDbLine
 10
9.1358546636
 20
6.6782610228
 30
0.0
 11
9.1358546636
 21
6.6162610456
 31
0.0
  0
LINE
  5
23D
330
1F
100
AcDbEntity
  8
0
  6
Continuous
 62
     7
 48
2.75
370
    15
100
AcDbLine
 10
16.0738546752
 20
6.6782610228
 30
0.0
 11
16.0738546752
 21
6.7552610132
 31
0.0
  0
LINE
  5
23E
330
1F
100
AcDbEntity
  8
0
  6
Continuous
 62
     7
 48
2.75
370
    15
100
AcDbLine
 10
9.1358546636
 20
6.6782610228
 30
0.0
 11
9.1358546636
 21
6.7552610132
 31
0.0
  0
LINE
  5
23F
330
1F
100
AcDbEntity
  8
0
  6
Continuous
 62
     7
 48
2.75
370
    15
100
AcDbLine
 10
8.7438546854
 20
2.8942610658
 30
0.0
 11
8.6668546949
 21
2.8942610658
 31
0.0
  0
LINE
  5
240
330
1F
100
AcDbEntity
  8
0
  6
Continuous
 62
     7
 48
2.75
370
    15
100
AcDbLine
 10
8.6668546949
 20
6.6162610456
 30
0.0
 11
8.7438546854
 21
6.6162610456
 31
0.0
  0
LINE
  5
241
330
1F
100
AcDbEntity
  8
0
  6
Continuous
 62
     7
 48
2.75
370
    15
100
AcDbLine
 10
16.4658546535
 20
2.8172610616
 30
0.0
 11
16.4658546535
 21
2.8942610658
 31
0.0
  0
LINE
  5
242
330
1F
100
AcDbEntity
  8
0
  6
Continuous
 62
     7
 48
2.75
370
    15
100
AcDbLine
 10
8.7438546854
 20
2.8172610616
 30
0.0
 11
8.7438546854
 21
2.8942610658
 31
0.0
  0
LINE
  5
243
330
1F
100
AcDbEntity
  8
0
  6
Continuous
 62
     7
 48
2.75
370
    15
100
AcDbLine
 10
16.4658546535
 20
2.8942610658
 30
0.0
 11
16.542854644
 21
2.8942610658
 31
0.0
  0
LINE
  5
244
330
1F
100
AcDbEntity
  8
0
  6
Continuous
 62
     7
 48
2.75
370
    15
100
AcDbLine
 10
16.542854644
 20
6.6162610456
 30
0.0
 11
16.4658546535
 21
6.6162610456
 31
0.0
  0
LINE
  5
245
330
1F
100
AcDbEntity
  8
0
  6
Continuous
 62
     7
 48
2.75
370
    15
100
AcDbLine
 10
16.542854644
 20
6.6782610228
 30
0.0
 11
16.542854644
 21
2.8322610612
 31
0.0
  0
LINE
  5
246
330
1F
100
AcDbEntity
  8
0
  6
Continuous
 62
     7
 48
2.75
370
    15
100
AcDbLine
 10
16.6048546211
 20
6.6782610228
 30
0.0
 11
16.6048546211
 21
2.8322610612
 31
0.0
  0
ARC
  5
247
330
1F
100
AcDbEntity
  8
0
  6
Continuous
 62
     7
 48
7.5625
370
    15
100
AcDbCircle
 10
8.6818546694
 20
2.8322610616
 30
0.0
 40
0.0150000000000001
100
AcDbArc
 50
180.0
 51
270.0
  0
ARC
  5
248
330
1F
100
AcDbEntity
  8
0
  6
Continuous
 62
     7
 48
7.5625
370
    15
100
AcDbCircle
 10
8.6818546694
 20
2.8322610616
 30
0.0
 40
0.077
100
AcDbArc
 50
180.0
 51
270.0
  0
LINE
  5
249
330
1F
100
AcDbEntity
  8
0
  6
Continuous
 62
     7
 48
2.75
370
    15
100
AcDbLine
 10
8.6668546949
 20
2.8322610612
 30
0.0
 11
8.6668546949
 21
6.6782610228
 31
0.0
  0
LINE
  5
24A
330
1F
100
AcDbEntity
  8
0
  6
Continuous
 62
     7
 48
2.75
370
    15
100
AcDbLine
 10
8.6048547178
 20
2.8322610612
 30
0.0
 11
8.6048547178
 21
6.6782610228
 31
0.0
  0
LINE
  5
24B
330
1F
100
AcDbEntity
  8
0
  6
Continuous
 62
     7
 48
2.75
370
    15
100
AcDbLine
 10
16.5278546306
 20
2.7552610616
 30
0.0
 11
8.6818547083
 21
2.7552610616
 31
0.0
  0
LINE
  5
24C
330
1F
100
AcDbEntity
  8
0
  6
Continuous
 62
     7
 48
2.75
370
    15
100
AcDbLine
 10
16.5278546306
 20
2.8172610616
 30
0.0
 11
8.6818547083
 21
2.8172610616
 31
0.0
  0
ARC
  5
24D
330
1F
100
AcDbEntity
  8
0
  6
Continuous
 62
     7
 48
7.5625
370
    15
100
AcDbCircle
 10
16.5278546694
 20
2.8322610616
 30
0.0
 40
0.0770000000000017
100
AcDbArc
 50
270.0
 51
0.0
  0
ARC
  5
24E
330
1F
100
AcDbEntity
  8
0
  6
Continuous
 62
     7
 48
7.5625
370
    15
100
AcDbCircle
 10
16.5278546694
 20
2.8322610616
 30
0.0
 40
0.0150000000000006
100
AcDbArc
 50
270.0
 51
0.0
  0
LINE
  5
24F
330
1F
100
AcDbEntity
  8
0
  6
Continuous
 62
     7
 48
2.75
370
    15
100
AcDbLine
 10
9.1048546751
 20
6.6932610361
 30
0.0
 11
9.1048546751
 21
6.7552610132
 31
0.0
  0
LINE
  5
250
330
1F
100
AcDbEntity
  8
0
  6
Continuous
 62
     7
 48
2.75
370
    15
100
AcDbLine
 10
8.6818547083
 20
6.6932610361
 30
0.0
 11
9.1048546751
 21
6.6932610361
 31
0.0
  0
LINE
  5
251
330
1F
100
AcDbEntity
  8
0
  6
Continuous
 62
     7
 48
2.75
370
    15
100
AcDbLine
 10
8.6818547083
 20
6.7552610132
 30
0.0
 11
9.1048546751
 21
6.7552610132
 31
0.0
  0
LINE
  5
252
330
1F
100
AcDbEntity
  8
0
  6
Continuous
 62
     7
 48
2.75
370
    15
100
AcDbLine
 10
16.1048546638
 20
6.7552610132
 30
0.0
 11
16.5278546306
 21
6.7552610132
 31
0.0
  0
LINE
  5
253
330
1F
100
AcDbEntity
  8
0
  6
Continuous
 62
     7
 48
2.75
370
    15
100
AcDbLine
 10
16.1048546638
 20
6.6932610361
 30
0.0
 11
16.5278546306
 21
6.6932610361
 31
0.0
  0
LINE
  5
254
330
1F
100
AcDbEntity
  8
0
  6
Continuous
 62
     7
 48
2.75
370
    15
100
AcDbLine
 10
16.1048546638
 20
6.7552610132
 30
0.0
 11
16.1048546638
 21
6.6932610361
 31
0.0
  0
ARC
  5
255
330
1F
100
AcDbEntity
  8
0
  6
Continuous
 62
     7
 48
7.5625
370
    15
100
AcDbCircle
 10
8.6818546694
 20
6.6782610616
 30
0.0
 40
0.0150000000000006
100
AcDbArc
 50
90.0
 51
180.0
  0
ARC
  5
256
330
1F
100
AcDbEntity
  8
0
  6
Continuous
 62
     7
 48
7.5625
370
    15
100
AcDbCircle
 10
8.6818546694
 20
6.6782610616
 30
0.0
 40
0.077
100
AcDbArc
 50
90.0
 51
180.0
  0
ARC
  5
257
330
1F
100
AcDbEntity
  8
0
  6
Continuous
 62
     7
 48
7.5625
370
    15
100
AcDbCircle
 10
16.5278546694
 20
6.6782610616
 30
0.0
 40
0.0150000000000006
100
AcDbArc
 50
0.0
 51
90.0
  0
ARC
  5
258
330
1F
100
AcDbEntity
  8
0
  6
Continuous
 62
     7
 48
7.5625
370
    15
100
AcDbCircle
 10
16.5278546694
 20
6.6782610616
 30
0.0
 40
0.0770000000000017
100
AcDbArc
 50
0.0
 51
90.0
  0
ARC
  5
259
330
1F
100
AcDbEntity
  8
0
  6
Continuous
 62
     7
 48
7.5625
370
    15
100
AcDbCircle
 10
8.8564677984
 20
6.79926246
 30
0.0
 40
0.1526353268033417
100
AcDbArc
 50
106.2031779882
 51
142.9599168428
  0
LINE
  5
25A
330
1F
100
AcDbEntity
  8
0
  6
Continuous
 62
     7
 48
2.75
370
    15
100
AcDbLine
 10
8.7563869139
 20
6.8912059495
 30
0.0
 11
8.7346320986
 21
6.8912059495
 31
0.0
  0
ARC
  5
25B
330
1F
100
AcDbEntity
  8
0
  6
Continuous
 62
     7
 48
7.5625
370
    15
100
AcDbCircle
 10
8.8782231277
 20
6.7992614857
 30
0.0
 40
0.152636324016053
100
AcDbArc
 50
106.2031554824
 51
142.9597411331
  0
ARC
  5
25C
330
1F
100
AcDbEntity
  8
0
  6
Continuous
 62
     7
 48
7.5625
370
    15
100
AcDbCircle
 10
8.8545468971
 20
6.7192352809
 30
0.0
 40
0.2273877199950877
100
AcDbArc
 50
79.6539198443
 51
94.7718583322
  0
ARC
  5
25D
330
1F
100
AcDbEntity
  8
0
  6
Continuous
 62
     7
 48
7.5625
370
    15
100
AcDbCircle
 10
8.9118373295
 20
6.9434099648
 30
0.0
 40
0.0164602076114242
100
AcDbArc
 50
168.7445678779
 51
181.6852590192
  0
ARC
  5
25E
330
1F
100
AcDbEntity
  8
0
  6
Continuous
 62
     7
 48
7.5625
370
    15
100
AcDbCircle
 10
8.8551607348
 20
6.7192060767
 30
0.0
 40
0.2274169694768636
100
AcDbArc
 50
85.2283116138
 51
90.0966508908
  0
ARC
  5
25F
330
1F
100
AcDbEntity
  8
0
  6
Continuous
 62
     7
 48
7.5625
370
    15
100
AcDbCircle
 10
8.8551671937
 20
6.7191874761
 30
0.0
 40
0.2274356439741957
100
AcDbArc
 50
95.0024452035
 51
100.3451542587
  0
LWPOLYLINE
  5
260
330
1F
100
AcDbEntity
  8
0
  6
Continuous
 62
     7
 48
2.75
370
    15
100
AcDbPolyline
 90
        9
 70
   128
 43
0.0
 10
8.814324858
 20
6.9429258853
 10
8.8142694186
 20
6.9441508312
 10
8.8142133926
 20
6.9451311398
 10
8.8141573666
 20
6.9458659314
 10
8.8141010472
 20
6.9463540324
 10
8.8140447279
 20
6.9465951496
 10
8.8139884085
 20
6.9465889897
 10
8.8139320892
 20
6.9463352593
 10
8.8138757698
 20
6.9458348384
  0
LINE
  5
261
330
1F
100
AcDbEntity
  8
0
  6
Continuous
 62
     7
 48
2.75
370
    15
100
AcDbLine
 10
8.8138757698
 20
6.9379454362
 30
0.0
 11
8.8138757698
 21
6.9458348384
 31
0.0
  0
LINE
  5
262
330
1F
100
AcDbEntity
  8
0
  6
Continuous
 62
     7
 48
2.75
370
    15
100
AcDbLine
 10
8.814324858
 20
6.9381542871
 30
0.0
 11
8.814324858
 21
6.9429258853
 31
0.0
  0
LINE
  5
263
330
1F
100
AcDbEntity
  8
0
  6
Continuous
 62
     7
 48
2.75
370
    15
100
AcDbLine
 10
8.8740785143
 20
6.9458348384
 30
0.0
 11
8.8740785143
 21
6.9457826257
 31
0.0
  0
ARC
  5
264
330
1F
100
AcDbEntity
  8
0
  6
Continuous
 62
     7
 48
7.5625
370
    15
100
AcDbCircle
 10
16.2978720094
 20
6.9434099648
 30
0.0
 40
0.0164602076121094
100
AcDbArc
 50
358.3147409811
 51
11.2554321218
  0
ARC
  5
265
330
1F
100
AcDbEntity
  8
0
  6
Continuous
 62
     7
 48
7.5625
370
    15
100
AcDbCircle
 10
16.3551624418
 20
6.7192352809
 30
0.0
 40
0.227387719995118
100
AcDbArc
 50
85.2281416679
 51
100.3460801556
  0
ARC
  5
266
330
1F
100
AcDbEntity
  8
0
  6
Continuous
 62
     7
 48
7.5625
370
    15
100
AcDbCircle
 10
16.3314862111
 20
6.7992614857
 30
0.0
 40
0.1526363240160354
100
AcDbArc
 50
37.0402588669
 51
73.7968445176
  0
LINE
  5
267
330
1F
100
AcDbEntity
  8
0
  6
Continuous
 62
     7
 48
2.75
370
    15
100
AcDbLine
 10
16.4750772403
 20
6.8912059495
 30
0.0
 11
16.4533224249
 21
6.8912059495
 31
0.0
  0
ARC
  5
268
330
1F
100
AcDbEntity
  8
0
  6
Continuous
 62
     7
 48
7.5625
370
    15
100
AcDbCircle
 10
16.3532415405
 20
6.79926246
 30
0.0
 40
0.152635326803334
100
AcDbArc
 50
37.0400831572
 51
73.7968220118
  0
LWPOLYLINE
  5
269
330
1F
100
AcDbEntity
  8
0
  6
Continuous
 62
     7
 48
2.75
370
    15
100
AcDbPolyline
 90
        9
 70
   128
 43
0.0
 10
16.3958335691
 20
6.9458348384
 10
16.3957772497
 20
6.9463352593
 10
16.3957209304
 20
6.9465889897
 10
16.395664611
 20
6.9465951496
 10
16.3956082917
 20
6.9463540324
 10
16.3955519723
 20
6.9458659314
 10
16.3954959463
 20
6.9451311398
 10
16.3954399203
 20
6.9441508312
 10
16.3953844809
 20
6.9429258853
  0
ARC
  5
26A
330
1F
100
AcDbEntity
  8
0
  6
Continuous
 62
     7
 48
7.5625
370
    15
100
AcDbCircle
 10
16.3545421452
 20
6.7191874761
 30
0.0
 40
0.2274356439737365
100
AcDbArc
 50
79.6548457413
 51
84.9975547965
  0
ARC
  5
26B
330
1F
100
AcDbEntity
  8
0
  6
Continuous
 62
     7
 48
7.5625
370
    15
100
AcDbCircle
 10
16.3545525717
 20
6.719133916
 30
0.0
 40
0.2274892101001427
100
AcDbArc
 50
89.943608609
 51
94.7711723422
  0
LINE
  5
26C
330
1F
100
AcDbEntity
  8
0
  6
Continuous
 62
     7
 48
2.75
370
    15
100
AcDbLine
 10
16.3958335691
 20
6.9458348384
 30
0.0
 11
16.3958335691
 21
6.9379454362
 31
0.0
  0
LINE
  5
26D
330
1F
100
AcDbEntity
  8
0
  6
Continuous
 62
     7
 48
2.75
370
    15
100
AcDbLine
 10
16.3953844809
 20
6.9381542871
 30
0.0
 11
16.3953844809
 21
6.9429258853
 31
0.0
  0
LINE
  5
26E
330
1F
100
AcDbEntity
  8
0
  6
Continuous
 62
     7
 48
2.75
370
    15
100
AcDbLine
 10
16.3356308245
 20
6.9457826257
 30
0.0
 11
16.3356308245
 21
6.9458348384
 31
0.0
  0
CIRCLE
  5
26F
330
1F
100
AcDbEntity
  8
0
  6
Continuous
 62
     7
 48
7.5625
370
    15
100
AcDbCircle
 10
36.38482384
 20
16.1010126433
 30
0.0
 40
0.140500000000003
  0
CIRCLE
  5
270
330
1F
100
AcDbEntity
  8
0
  6
Continuous
 62
     7
 48
7.5625
370
    15
100
AcDbCircle
 10
43.38482384
 20
16.1010126433
 30
0.0
 40
0.140500000000003
  0
CIRCLE
  5
271
330
1F
100
AcDbEntity
  8
0
  6
Continuous
 62
     7
 48
7.5625
370
    15
100
AcDbCircle
 10
43.38482384
 20
11.1010126433
 30
0.0
 40
0.1404999999999959
  0
CIRCLE
  5
272
330
1F
100
AcDbEntity
  8
0
  6
Continuous
 62
     7
 48
7.5625
370
    15
100
AcDbCircle
 10
36.38482384
 20
11.1010126433
 30
0.0
 40
0.1404999999999959
  0
CIRCLE
  5
273
330
1F
100
AcDbEntity
  8
0
  6
Continuous
 62
     7
 48
7.5625
370
    15
100
AcDbCircle
 10
41.88482384
 20
15.6010126433
 30
0.0
 40
0.6249999999999982
  0
LINE
  5
274
330
1F
100
AcDbEntity
  8
0
  6
Continuous
 62
     7
 48
2.75
370
    15
100
AcDbLine
 10
35.9618238788
 20
9.6010126916
 30
0.0
 11
43.8078238012
 21
9.6010126916
 31
0.0
  0
LINE
  5
275
330
1F
100
AcDbEntity
  8
0
  6
Continuous
 62
     7
 48
2.75
370
    15
100
AcDbLine
 10
35.9618238788
 20
17.6010125949
 30
0.0
 11
43.8078238012
 21
17.6010125949
 31
0.0
  0
LINE
  5
276
330
1F
100
AcDbEntity
  8
0
  6
Continuous
 62
     7
 48
2.75
370
    15
100
AcDbLine
 10
43.8078238012
 20
17.6010125949
 30
0.0
 11
43.8848237917
 21
17.6010125949
 31
0.0
  0
LINE
  5
277
330
1F
100
AcDbEntity
  8
0
  6
Continuous
 62
     7
 48
2.75
370
    15
100
AcDbLine
 10
43.8848237917
 20
17.6010125949
 30
0.0
 11
43.8848237917
 21
9.6010126916
 31
0.0
  0
LINE
  5
278
330
1F
100
AcDbEntity
  8
0
  6
Continuous
 62
     7
 48
2.75
370
    15
100
AcDbLine
 10
43.8078238012
 20
9.6010126916
 30
0.0
 11
43.8848237917
 21
9.6010126916
 31
0.0
  0
LINE
  5
279
330
1F
100
AcDbEntity
  8
0
  6
Continuous
 62
     7
 48
2.75
370
    15
100
AcDbLine
 10
35.8848238883
 20
17.6010125949
 30
0.0
 11
35.8848238883
 21
9.6010126916
 31
0.0
  0
LINE
  5
27A
330
1F
100
AcDbEntity
  8
0
  6
Continuous
 62
     7
 48
2.75
370
    15
100
AcDbLine
 10
35.8848238883
 20
17.6010125949
 30
0.0
 11
35.9618238788
 21
17.6010125949
 31
0.0
  0
LINE
  5
27B
330
1F
100
AcDbEntity
  8
0
  6
Continuous
 62
     7
 48
2.75
370
    15
100
AcDbLine
 10
35.8848238883
 20
9.6010126916
 30
0.0
 11
35.9618238788
 21
9.6010126916
 31
0.0
  0
CIRCLE
  5
27C
330
1F
100
AcDbEntity
  8
0
  6
Continuous
 62
     7
 48
7.5625
370
    15
100
AcDbCircle
 10
41.88482384
 20
15.6010126433
 30
0.0
 40
0.1469999999999985
  0
CIRCLE
  5
27D
330
1F
100
AcDbEntity
  8
0
  6
Continuous
 62
     7
 48
7.5625
370
    15
100
AcDbCircle
 10
41.88482384
 20
15.6010126433
 30
0.0
 40
0.0849999999999991
  0
LINE
  5
27E
330
1F
100
AcDbEntity
  8
0
  6
Continuous
 62
     7
 48
2.75
370
    15
100
AcDbLine
 10
43.3848238344
 20
16.24151278
 30
0.0
 11
43.3848238344
 21
15.9605126661
 31
0.0
  0
LINE
  5
27F
330
1F
100
AcDbEntity
  8
0
  6
Continuous
 62
     7
 48
2.75
370
    15
100
AcDbLine
 10
43.3848238344
 20
11.2415126204
 30
0.0
 11
43.3848238344
 21
10.9605125065
 31
0.0
  0
LINE
  5
280
330
1F
100
AcDbEntity
  8
0
  6
Continuous
 62
     7
 48
2.75
370
    15
100
AcDbLine
 10
36.3848238456
 20
16.24151278
 30
0.0
 11
36.3848238456
 21
15.9605126661
 31
0.0
  0
LINE
  5
281
330
1F
100
AcDbEntity
  8
0
  6
Continuous
 62
     7
 48
2.75
370
    15
100
AcDbLine
 10
36.3848238456
 20
11.2415126204
 30
0.0
 11
36.3848238456
 21
10.9605125065
 31
0.0
  0
DIMENSION
  5
282
330
1F
100
AcDbEntity
  8
0
  6
Continuous
 62
     7
 48
2.75
370
     0
100
AcDbDimension
  2
*D9
 10
34.9587839082
 20
11.1010126433
 30
0.0
 11
34.9587839082
 21
13.6010126433
 31
0.0
 70
   160
 71
     2
 42
-1.0
  3
SLDDIMSTYLE0
100
AcDbAlignedDimension
 13
36.38482384
 23
16.1010126433
 33
0.0
 14
36.38482384
 24
11.1010126433
 34
0.0
 50
90.0
100
AcDbRotatedDimension
  0
DIMENSION
  5
294
330
1F
100
AcDbEntity
  8
0
  6
Continuous
 62
     7
 48
2.75
370
     0
100
AcDbDimension
  2
*D10
 10
43.38482384
 20
8.7013546739
 30
0.0
 11
39.88482384
 21
8.7013546739
 31
0.0
 70
   160
 71
     2
 42
-1.0
  3
SLDDIMSTYLE0
100
AcDbAlignedDimension
 13
36.38482384
 23
11.1010126433
 33
0.0
 14
43.38482384
 24
11.1010126433
 34
0.0
100
AcDbRotatedDimension
  0
DIMENSION
  5
2A6
330
1F
100
AcDbEntity
  8
0
  6
Continuous
 62
     7
 48
2.75
370
     0
100
AcDbDimension
  2
*D11
 10
43.3421927781
 20
11.2348888643
 30
0.0
 11
43.3369821879
 21
7.360257398
 31
0.0
 70
   163
  1
<>
 71
     1
 42
-1.0
  3
SLDDIMSTYLE2
100
AcDbDiametricDimension
 15
43.4274549019
 25
10.9671364222
 35
0.0
 40
0.0
  0
DIMENSION
  5
2B7
330
1F
100
AcDbEntity
  8
0
  6
Continuous
 62
     7
 48
2.75
370
     0
100
AcDbDimension
  2
*D12
 10
44.7842531471
 20
17.6010126433
 30
0.0
 11
44.7842531471
 21
16.6010126433
 31
0.0
 70
   160
 71
     2
 42
-1.0
  3
SLDDIMSTYLE0
100
AcDbAlignedDimension
 13
41.88482384
 23
15.6010126433
 33
0.0
 14
43.88482384
 24
17.6010126433
 34
0.0
 50
90.0
100
AcDbRotatedDimension
  0
DIMENSION
  5
2C9
330
1F
100
AcDbEntity
  8
0
  6
Continuous
 62
     7
 48
2.75
370
     0
100
AcDbDimension
  2
*D13
 10
43.88482384
 20
18.4615409555
 30
0.0
 11
42.88482384
 21
18.4615409555
 31
0.0
 70
   160
 71
     2
 42
-1.0
  3
SLDDIMSTYLE3
100
AcDbAlignedDimension
 13
41.88482384
 23
15.6010126433
 33
0.0
 14
43.88482384
 24
17.6010126433
 34
0.0
100
AcDbRotatedDimension
  0
LINE
  5
2DC
330
1F
100
AcDbEntity
  8
0
  6
Continuous
 62
     7
 48
2.75
370
    15
100
AcDbLine
 10
40.3500158448
 20
25.5925611588
 30
0.0
 11
36.5960743473
 21
27.7596654572
 31
0.0
  0
LINE
  5
2DD
330
1F
100
AcDbEntity
  8
0
  6
Continuous
 62
     7
 48
2.75
370
    15
100
AcDbLine
 10
36.5431410903
 20
27.7596654906
 30
0.0
 11
34.7337432354
 21
26.7151223427
 31
0.0
  0
LINE
  5
2DE
330
1F
100
AcDbEntity
  8
0
  6
Continuous
 62
     7
 48
2.75
370
    15
100
AcDbLine
 10
40.4367676356
 20
21.0989658504
 30
0.0
 11
40.4367676356
 21
25.5899402615
 31
0.0
  0
LINE
  5
2DF
330
1F
100
AcDbEntity
  8
0
  6
Continuous
 62
     7
 48
2.75
370
    15
100
AcDbLine
 10
34.6469914692
 20
26.7125014313
 30
0.0
 11
34.6469914692
 21
26.6998429726
 31
0.0
  0
ARC
  5
2E0
330
1F
100
AcDbEntity
  8
0
  6
Continuous
 62
     7
 48
7.5625
370
    15
100
AcDbCircle
 10
34.7641109173
 20
25.5297077204
 30
0.0
 40
0.1588294035475891
100
AcDbArc
 50
168.1339525011
 51
205.9042604596
  0
ARC
  5
2E1
330
1F
100
AcDbEntity
  8
0
  6
Continuous
 62
     7
 48
7.5625
370
    15
100
AcDbCircle
 10
34.7641109173
 20
25.5297077204
 30
0.0
 40
0.1588294035475862
100
AcDbArc
 50
213.5984078164
 51
251.8606709662
  0
LINE
  5
2E2
330
1F
100
AcDbEntity
  8
0
  6
Continuous
 62
     7
 48
2.75
370
    15
100
AcDbLine
 10
34.7643582177
 20
25.3818002781
 30
0.0
 11
34.7805617961
 21
25.3911544048
 31
0.0
  0
LINE
  5
2E3
330
1F
100
AcDbEntity
  8
0
  6
Continuous
 62
     7
 48
2.75
370
    15
100
AcDbLine
 10
34.6523534474
 20
25.6132418193
 30
0.0
 11
34.6361498691
 21
25.6038876927
 31
0.0
  0
ARC
  5
2E4
330
1F
100
AcDbEntity
  8
0
  6
Continuous
 62
     7
 48
7.5625
370
    15
100
AcDbCircle
 10
38.4101302578
 20
23.4249055571
 30
0.0
 40
0.1588294035475868
100
AcDbArc
 50
168.1339525011
 51
251.8606709662
  0
LINE
  5
2E5
330
1F
100
AcDbEntity
  8
0
  6
Continuous
 62
     7
 48
2.75
370
    15
100
AcDbLine
 10
38.4103776746
 20
23.2769980477
 30
0.0
 11
38.4265812529
 21
23.2863521743
 31
0.0
  0
LINE
  5
2E6
330
1F
100
AcDbEntity
  8
0
  6
Continuous
 62
     7
 48
2.75
370
    15
100
AcDbLine
 10
38.2983729043
 20
23.5084395889
 30
0.0
 11
38.2821693259
 21
23.4990854622
 31
0.0
  0
ARC
  5
2E7
330
1F
100
AcDbEntity
  8
0
  6
Continuous
 62
     7
 48
7.5625
370
    15
100
AcDbCircle
 10
34.7641109173
 20
23.2842204877
 30
0.0
 40
0.1588294035475884
100
AcDbArc
 50
168.1339525011
 51
205.9042604596
  0
ARC
  5
2E8
330
1F
100
AcDbEntity
  8
0
  6
Continuous
 62
     7
 48
7.5625
370
    15
100
AcDbCircle
 10
34.7641109173
 20
23.2842204877
 30
0.0
 40
0.1588294035475882
100
AcDbArc
 50
213.5984078164
 51
251.8606709662
  0
LINE
  5
2E9
330
1F
100
AcDbEntity
  8
0
  6
Continuous
 62
     7
 48
2.75
370
    15
100
AcDbLine
 10
34.7643582177
 20
23.1363130726
 30
0.0
 11
34.7805617961
 21
23.1456671993
 31
0.0
  0
LINE
  5
2EA
330
1F
100
AcDbEntity
  8
0
  6
Continuous
 62
     7
 48
2.75
370
    15
100
AcDbLine
 10
34.6523534474
 20
23.3677546138
 30
0.0
 11
34.6361498691
 21
23.3584004871
 31
0.0
  0
ARC
  5
2EB
330
1F
100
AcDbEntity
  8
0
  6
Continuous
 62
     7
 48
7.5625
370
    15
100
AcDbCircle
 10
38.4101302578
 20
21.1794183245
 30
0.0
 40
0.1588294035475834
100
AcDbArc
 50
168.1339525011
 51
251.8606709662
  0
LINE
  5
2EC
330
1F
100
AcDbEntity
  8
0
  6
Continuous
 62
     7
 48
2.75
370
    15
100
AcDbLine
 10
38.4103776746
 20
21.0315108421
 30
0.0
 11
38.4265812529
 21
21.0408649688
 31
0.0
  0
LINE
  5
2ED
330
1F
100
AcDbEntity
  8
0
  6
Continuous
 62
     7
 48
2.75
370
    15
100
AcDbLine
 10
38.2983729043
 20
21.2629523833
 30
0.0
 11
38.2821693259
 21
21.2535982566
 31
0.0
  0
LINE
  5
2EE
330
1F
100
AcDbEntity
  8
0
  6
Continuous
 62
     7
 48
2.75
370
    15
100
AcDbLine
 10
34.6250641408
 20
26.7125014313
 30
0.0
 11
34.5949237254
 21
26.6951017398
 31
0.0
  0
LINE
  5
2EF
330
1F
100
AcDbEntity
  8
0
  6
Continuous
 62
     7
 48
2.75
370
    15
100
AcDbLine
 10
38.5141513904
 20
24.4673791509
 30
0.0
 11
34.6250641408
 21
26.7125014313
 31
0.0
  0
LINE
  5
2F0
330
1F
100
AcDbEntity
  8
0
  6
Continuous
 62
     7
 48
2.75
370
    15
100
AcDbLine
 10
38.5141513904
 20
24.4673791509
 30
0.0
 11
38.4840109749
 21
24.4499794594
 31
0.0
  0
LINE
  5
2F1
330
1F
100
AcDbEntity
  8
0
  6
Continuous
 62
     7
 48
2.75
370
    15
100
AcDbLine
 10
38.4840109749
 20
24.4499794594
 30
0.0
 11
34.5949237254
 21
26.6951017398
 31
0.0
  0
LWPOLYLINE
  5
2F2
330
1F
100
AcDbEntity
  8
0
  6
Continuous
 62
     7
 48
2.75
370
    15
100
AcDbPolyline
 90
       19
 70
   128
 43
0.0
 10
38.4301181166
 20
23.2886329817
 10
38.4412432019
 20
23.2678870336
 10
38.4539124834
 20
23.234791111
 10
38.4603945707
 20
23.2023658734
 10
38.4602509743
 20
23.1728054698
 10
38.4534913909
 20
23.1481100307
 10
38.4405731329
 20
23.1299507236
 10
38.4223703275
 20
23.119556377
 10
38.4001148807
 20
23.1176301529
 10
38.375312487
 20
23.124302609
 10
38.3496415276
 20
23.1391221384
 10
38.3248392766
 20
23.1610858342
 10
38.3025836871
 20
23.1887077325
 10
38.2843808817
 20
23.2201185909
 10
38.2714626238
 20
23.2531930011
 10
38.2647030403
 20
23.2856928892
 10
38.2645594439
 20
23.3154190857
 10
38.2710416738
 20
23.3403601822
 10
38.2730950882
 20
23.3446052473
  0
LINE
  5
2F3
330
1F
100
AcDbEntity
  8
0
  6
Continuous
 62
     7
 48
2.75
370
    15
100
AcDbLine
 10
38.4840109749
 20
19.9590050483
 30
0.0
 11
38.4840109749
 21
24.4499794594
 31
0.0
  0
LINE
  5
2F4
330
1F
100
AcDbEntity
  8
0
  6
Continuous
 62
     7
 48
2.75
370
    15
100
AcDbLine
 10
34.5949237254
 20
22.2041273287
 30
0.0
 11
38.4840109749
 21
19.9590050483
 31
0.0
  0
LINE
  5
2F5
330
1F
100
AcDbEntity
  8
0
  6
Continuous
 62
     7
 48
2.75
370
    15
100
AcDbLine
 10
34.5949237254
 20
26.6951017398
 30
0.0
 11
34.5949237254
 21
22.2041273287
 31
0.0
  0
LWPOLYLINE
  5
2F6
330
1F
100
AcDbEntity
  8
0
  6
Continuous
 62
     7
 48
2.75
370
    15
100
AcDbPolyline
 90
       19
 70
   128
 43
0.0
 10
34.6276674139
 20
23.2050124827
 10
34.625022217
 20
23.1996751248
 10
34.6185401297
 20
23.1747340283
 10
34.6186837261
 20
23.1450077495
 10
34.6254433095
 20
23.1125078614
 10
34.6383615675
 20
23.0794335335
 10
34.6565643729
 20
23.0480225928
 10
34.6788198197
 20
23.0204008591
 10
34.7036222134
 20
22.9984369987
 10
34.7292931728
 20
22.9836174693
 10
34.7540954238
 20
22.9769451778
 10
34.7763510132
 20
22.9788712373
 10
34.7945538186
 20
22.9892656662
 10
34.8074720766
 20
23.0074248909
 10
34.81423166
 20
23.0321203301
 10
34.8143752564
 20
23.061680816
 10
34.8078930266
 20
23.0941060536
 10
34.7952237451
 20
23.1272019762
 10
34.7840988023
 20
23.147947842
  0
LWPOLYLINE
  5
2F7
330
1F
100
AcDbEntity
  8
0
  6
Continuous
 62
     7
 48
2.75
370
    15
100
AcDbPolyline
 90
       19
 70
   128
 43
0.0
 10
34.6276674139
 20
25.4504996883
 10
34.625022217
 20
25.4451624127
 10
34.6185401297
 20
25.4202212339
 10
34.6186837261
 20
25.3904950373
 10
34.6254433095
 20
25.3579951493
 10
34.6383615675
 20
25.3249207391
 10
34.6565643729
 20
25.2935098807
 10
34.6788198197
 20
25.2658880647
 10
34.7036222134
 20
25.2439242866
 10
34.7292931728
 20
25.2291047572
 10
34.7540954238
 20
25.2224323834
 10
34.7763510132
 20
25.2243585252
 10
34.7945538186
 20
25.2347528717
 10
34.8074720766
 20
25.2529121788
 10
34.81423166
 20
25.2776076179
 10
34.8143752564
 20
25.3071680216
 10
34.8078930266
 20
25.3395933414
 10
34.7952237451
 20
25.3726892641
 10
34.7840988023
 20
25.3934351299
  0
LWPOLYLINE
  5
2F8
330
1F
100
AcDbEntity
  8
0
  6
Continuous
 62
     7
 48
2.75
370
    15
100
AcDbPolyline
 90
       19
 70
   128
 43
0.0
 10
38.4301181166
 20
21.0431456939
 10
38.4412432019
 20
21.0223997457
 10
38.4539124834
 20
20.9893038231
 10
38.4603945707
 20
20.9568786679
 10
38.4602509743
 20
20.9273181819
 10
38.4534913909
 20
20.9026227428
 10
38.4405731329
 20
20.884463518
 10
38.4223703275
 20
20.8740690891
 10
38.4001148807
 20
20.8721429474
 10
38.375312487
 20
20.8788153211
 10
38.3496415276
 20
20.8936348506
 10
38.3248392766
 20
20.9155986286
 10
38.3025836871
 20
20.9432204447
 10
38.2843808817
 20
20.9746313854
 10
38.2714626238
 20
21.0077057133
 10
38.2647030403
 20
21.0402056013
 10
38.2645594439
 20
21.0699318802
 10
38.2710416738
 20
21.0948728944
 10
38.2730950882
 20
21.0991180418
  0
LINE
  5
2F9
330
1F
100
AcDbEntity
  8
0
  6
Continuous
 62
     7
 48
2.75
370
    15
100
AcDbLine
 10
38.5141513904
 20
19.9764047398
 30
0.0
 11
38.5141513904
 21
24.4673791509
 31
0.0
  0
LINE
  5
2FA
330
1F
100
AcDbEntity
  8
0
  6
Continuous
 62
     7
 48
2.75
370
    15
100
AcDbLine
 10
38.5141513904
 20
19.9764047398
 30
0.0
 11
38.4840109749
 21
19.9590050483
 31
0.0
  0
LWPOLYLINE
  5
2FB
330
1F
100
AcDbEntity
  8
0
  6
Continuous
 62
     7
 48
2.75
370
    15
100
AcDbPolyline
 90
       10
 70
   128
 43
0.0
 10
38.445676438
 20
23.1353865608
 10
38.4302552961
 20
23.1350298444
 10
38.4054529024
 20
23.1417023005
 10
38.379781943
 20
23.1565218299
 10
38.354979692
 20
23.1784855256
 10
38.3327241026
 20
23.206107424
 10
38.3145212971
 20
23.2375182824
 10
38.3016030392
 20
23.2705926926
 10
38.2948434557
 20
23.3030925807
 10
38.2939547836
 20
23.3166003092
  0
LWPOLYLINE
  5
2FC
330
1F
100
AcDbEntity
  8
0
  6
Continuous
 62
     7
 48
2.75
370
    15
100
AcDbPolyline
 90
       10
 70
   128
 43
0.0
 10
38.445676438
 20
20.8898993552
 10
38.4302552961
 20
20.8895426388
 10
38.4054529024
 20
20.8962150126
 10
38.379781943
 20
20.911034542
 10
38.354979692
 20
20.9329983201
 10
38.3327241026
 20
20.9606201361
 10
38.3145212971
 20
20.9920310768
 10
38.3016030392
 20
21.0251054047
 10
38.2948434557
 20
21.0576052928
 10
38.2939547836
 20
21.0711130213
  0
LWPOLYLINE
  5
2FD
330
1F
100
AcDbEntity
  8
0
  6
Continuous
 62
     7
 48
2.75
370
    15
100
AcDbPolyline
 90
       10
 70
   128
 43
0.0
 10
34.6479354694
 20
25.4214024573
 10
34.6488241415
 20
25.4078947288
 10
34.6555837249
 20
25.3753948407
 10
34.6685019829
 20
25.3423204305
 10
34.6867047883
 20
25.3109095722
 10
34.7089602351
 20
25.2832877561
 10
34.7337626288
 20
25.2613239781
 10
34.7594335882
 20
25.2465044486
 10
34.7842358392
 20
25.2398320748
 10
34.7996571237
 20
25.2401887089
  0
LWPOLYLINE
  5
2FE
330
1F
100
AcDbEntity
  8
0
  6
Continuous
 62
     7
 48
2.75
370
    15
100
AcDbPolyline
 90
       10
 70
   128
 43
0.0
 10
34.6479354694
 20
23.1759151695
 10
34.6488241415
 20
23.1624074409
 10
34.6555837249
 20
23.1299075529
 10
34.6685019829
 20
23.096833225
 10
34.6867047883
 20
23.0654222843
 10
34.7089602351
 20
23.0378005506
 10
34.7337626288
 20
23.0158366902
 10
34.7594335882
 20
23.0010171608
 10
34.7842358392
 20
22.9943448693
 10
34.7996571237
 20
22.9947015034
  0
ARC
  5
2FF
330
1F
100
AcDbEntity
  8
0
  6
Continuous
 62
     7
 48
7.5625
370
    15
100
AcDbCircle
 10
40.281604642
 20
25.5236973638
 30
0.0
 40
0.0784058275346731
100
AcDbArc
 50
29.2398776177
 51
57.6582634398
  0
ARC
  5
300
330
1F
100
AcDbEntity
  8
0
  6
Continuous
 62
     7
 48
7.5625
370
    15
100
AcDbCircle
 10
38.4737336949
 20
24.48060118
 30
0.0
 40
0.0763682238628103
100
AcDbArc
 50
28.8567779176
 51
58.0453710253
  0
ARC
  5
301
330
1F
100
AcDbEntity
  8
0
  6
Continuous
 62
     7
 48
7.5625
370
    15
100
AcDbCircle
 10
38.5063301081
 20
24.4980348885
 30
0.0
 40
0.0147937775806444
100
AcDbArc
 50
29.8349711133
 51
58.0831966658
  0
LINE
  5
302
330
1F
100
AcDbEntity
  8
0
  6
Continuous
 62
     7
 48
2.75
370
    15
100
AcDbLine
 10
38.3235861234
 20
24.6554081198
 30
0.0
 11
38.5141513904
 21
24.5453971329
 31
0.0
  0
LINE
  5
303
330
1F
100
AcDbEntity
  8
0
  6
Continuous
 62
     7
 48
2.75
370
    15
100
AcDbLine
 10
38.293445708
 20
24.6380084284
 30
0.0
 11
38.3235861234
 21
24.6554081198
 31
0.0
  0
LINE
  5
304
330
1F
100
AcDbEntity
  8
0
  6
Continuous
 62
     7
 48
2.75
370
    15
100
AcDbLine
 10
34.9206347444
 20
26.5850907528
 30
0.0
 11
34.9507751598
 21
26.6024904443
 31
0.0
  0
LINE
  5
305
330
1F
100
AcDbEntity
  8
0
  6
Continuous
 62
     7
 48
2.75
370
    15
100
AcDbLine
 10
34.9507751598
 20
26.6024904443
 30
0.0
 11
34.7602098929
 21
26.7125014313
 31
0.0
  0
LINE
  5
306
330
1F
100
AcDbEntity
  8
0
  6
Continuous
 62
     7
 48
2.75
370
    15
100
AcDbLine
 10
38.3235861234
 20
24.6206030806
 30
0.0
 11
38.3235861234
 21
24.6554081198
 31
0.0
  0
LINE
  5
307
330
1F
100
AcDbEntity
  8
0
  6
Continuous
 62
     7
 48
2.75
370
    15
100
AcDbLine
 10
38.3235861234
 20
24.6206030806
 30
0.0
 11
38.5141513904
 21
24.5105920936
 31
0.0
  0
ARC
  5
308
330
1F
100
AcDbEntity
  8
0
  6
Continuous
 62
     7
 48
7.5625
370
    15
100
AcDbCircle
 10
38.3338644306
 20
24.5732112697
 30
0.0
 40
0.0763697906105528
100
AcDbArc
 50
121.9548040165
 51
151.142907376
  0
ARC
  5
309
330
1F
100
AcDbEntity
  8
0
  6
Continuous
 62
     7
 48
7.5625
370
    15
100
AcDbCircle
 10
34.961053467
 20
26.5202935941
 30
0.0
 40
0.076369790610668
100
AcDbArc
 50
121.9548040165
 51
151.142907376
  0
LINE
  5
30A
330
1F
100
AcDbEntity
  8
0
  6
Continuous
 62
     7
 48
2.75
370
    15
100
AcDbLine
 10
38.3162989266
 20
24.6163962714
 30
0.0
 11
38.3235861234
 21
24.6206030806
 31
0.0
  0
ARC
  5
30B
330
1F
100
AcDbEntity
  8
0
  6
Continuous
 62
     7
 48
7.5625
370
    15
100
AcDbCircle
 10
40.3381617295
 20
25.5720257555
 30
0.0
 40
0.0231182809100081
100
AcDbArc
 50
350.7858972147
 51
129.2033687507
  0
ARC
  5
30C
330
1F
100
AcDbEntity
  8
0
  6
Continuous
 62
     7
 48
7.5625
370
    15
100
AcDbCircle
 10
36.5851142874
 20
27.735398998
 30
0.0
 40
0.0266267526149222
100
AcDbArc
 50
65.6934624382
 51
125.6171911235
  0
LINE
  5
30D
330
1F
100
AcDbEntity
  8
0
  6
Continuous
 62
     7
 48
2.75
370
    15
100
AcDbLine
 10
34.9206298961
 20
26.5850878954
 30
0.0
 11
34.7602098929
 21
26.677696392
 31
0.0
  0
ARC
  5
30E
330
1F
100
AcDbEntity
  8
0
  6
Continuous
 62
     7
 48
7.5625
370
    15
100
AcDbCircle
 10
34.745597396
 20
26.6945869342
 30
0.0
 40
0.0231182670077811
100
AcDbArc
 50
50.7965628352
 51
189.2141889195
  0
ARC
  5
30F
330
1F
100
AcDbEntity
  8
0
  6
Continuous
 62
     7
 48
7.5625
370
    15
100
AcDbCircle
 10
36.5541011426
 20
27.7353988879
 30
0.0
 40
0.026626880258327
100
AcDbArc
 50
54.3828321291
 51
114.3063955168
  0
ARC
  5
310
330
1F
100
AcDbEntity
  8
0
  6
Continuous
 62
     7
 48
7.5625
370
    15
100
AcDbCircle
 10
34.757363336
 20
26.6742064884
 30
0.0
 40
0.0045035888811297
100
AcDbArc
 50
50.7974272381
 51
189.2133245166
  0
ARC
  5
311
330
1F
100
AcDbEntity
  8
0
  6
Continuous
 62
     7
 48
7.5625
370
    15
100
AcDbCircle
 10
38.5141513904
 20
24.5612326367
 30
0.0
 40
0.0813659115099932
100
AcDbArc
 50
242.6096081345
 51
297.3903918655
  0
ARC
  5
312
330
1F
100
AcDbEntity
  8
0
  6
Continuous
 62
     7
 48
7.5625
370
    15
100
AcDbCircle
 10
38.5156761112
 20
20.0654329011
 30
0.0
 40
0.0763850030965066
100
AcDbArc
 50
268.8562431495
 51
298.0400654243
  0
ARC
  5
313
330
1F
100
AcDbEntity
  8
0
  6
Continuous
 62
     7
 48
7.5625
370
    15
100
AcDbCircle
 10
38.5141513904
 20
24.5204614636
 30
0.0
 40
0.0158503093963785
100
AcDbArc
 50
242.6092167814
 51
297.3907832186
  0
LINE
  5
314
330
1F
100
AcDbEntity
  8
0
  6
Continuous
 62
     7
 48
2.75
370
    15
100
AcDbLine
 10
38.2710834551
 20
24.6076992831
 30
0.0
 11
38.4767189298
 21
24.4889884504
 31
0.0
  0
LINE
  5
315
330
1F
100
AcDbEntity
  8
0
  6
Continuous
 62
     7
 48
2.75
370
    15
100
AcDbLine
 10
38.2710834551
 20
24.6076992831
 30
0.0
 11
38.3012238705
 21
24.6250989746
 31
0.0
  0
LINE
  5
316
330
1F
100
AcDbEntity
  8
0
  6
Continuous
 62
     7
 48
2.75
370
    15
100
AcDbLine
 10
38.3012238705
 20
24.6250989746
 30
0.0
 11
38.5068593452
 21
24.5063881419
 31
0.0
  0
LINE
  5
317
330
1F
100
AcDbEntity
  8
0
  6
Continuous
 62
     7
 48
2.75
370
    15
100
AcDbLine
 10
38.5214434356
 20
24.5063881419
 30
0.0
 11
40.3911221346
 21
25.5857306804
 31
0.0
  0
LINE
  5
318
330
1F
100
AcDbEntity
  8
0
  6
Continuous
 62
     7
 48
2.75
370
    15
100
AcDbLine
 10
38.551583851
 20
24.4889884504
 30
0.0
 11
40.4212625501
 21
25.568330989
 31
0.0
  0
LINE
  5
319
330
1F
100
AcDbEntity
  8
0
  6
Continuous
 62
     7
 48
2.75
370
    15
100
AcDbLine
 10
38.551583851
 20
19.9980140393
 30
0.0
 11
40.4212625501
 21
21.0773565779
 31
0.0
  0
ARC
  5
31A
330
1F
100
AcDbEntity
  8
0
  6
Continuous
 62
     7
 48
7.5625
370
    15
100
AcDbCircle
 10
40.4130611361
 20
25.5899402906
 30
0.0
 40
0.0231133102370676
100
AcDbArc
 50
290.7833390036
 51
69.2166491811
  0
ARC
  5
31B
330
1F
100
AcDbEntity
  8
0
  6
Continuous
 62
     7
 48
7.5625
370
    15
100
AcDbCircle
 10
40.4102742699
 20
21.1016081296
 30
0.0
 40
0.0266248016500861
100
AcDbArc
 50
294.3750882443
 51
354.3045186968
  0
ARC
  5
31C
330
1F
100
AcDbEntity
  8
0
  6
Continuous
 62
     7
 48
7.5625
370
    15
100
AcDbCircle
 10
40.3895244718
 20
25.5899402853
 30
0.0
 40
0.0045025881452929
100
AcDbArc
 50
290.783155688
 51
69.2169352902
  0
LINE
  5
31D
330
1F
100
AcDbEntity
  8
0
  6
Continuous
 62
     7
 48
2.75
370
    15
100
AcDbLine
 10
40.391122128
 20
25.5941498927
 30
0.0
 11
36.5768997996
 21
27.796053574
 31
0.0
  0
LINE
  5
31E
330
1F
100
AcDbEntity
  8
0
  6
Continuous
 62
     7
 48
2.75
370
    15
100
AcDbLine
 10
40.4212625545
 20
25.6115495906
 30
0.0
 11
36.6070402262
 21
27.8134532719
 31
0.0
  0
LINE
  5
31F
330
1F
100
AcDbEntity
  8
0
  6
Continuous
 62
     7
 48
2.75
370
    15
100
AcDbLine
 10
34.6624966014
 20
26.6908921317
 30
0.0
 11
34.8681320761
 21
26.572181299
 31
0.0
  0
LINE
  5
320
330
1F
100
AcDbEntity
  8
0
  6
Continuous
 62
     7
 48
2.75
370
    15
100
AcDbLine
 10
34.6926370169
 20
26.7082918232
 30
0.0
 11
34.8982724915
 21
26.5895809905
 31
0.0
  0
LINE
  5
321
330
1F
100
AcDbEntity
  8
0
  6
Continuous
 62
     7
 48
2.75
370
    15
100
AcDbLine
 10
34.8982724915
 20
26.5895809905
 30
0.0
 11
34.8681320761
 21
26.572181299
 31
0.0
  0
LINE
  5
322
330
1F
100
AcDbEntity
  8
0
  6
Continuous
 62
     7
 48
2.75
370
    15
100
AcDbLine
 10
34.8982724915
 20
26.5895809905
 30
0.0
 11
34.8982724915
 21
26.5636200598
 31
0.0
  0
ARC
  5
323
330
1F
100
AcDbEntity
  8
0
  6
Continuous
 62
     7
 48
7.5625
370
    15
100
AcDbCircle
 10
34.6942346518
 20
26.7125014313
 30
0.0
 40
0.0045025812233304
100
AcDbArc
 50
110.7828089196
 51
249.2171910804
  0
ARC
  5
324
330
1F
100
AcDbEntity
  8
0
  6
Continuous
 62
     7
 48
7.5625
370
    15
100
AcDbCircle
 10
34.6706979844
 20
26.7125014313
 30
0.0
 40
0.023113297216909
100
AcDbArc
 50
110.7832688559
 51
249.2167311441
  0
LINE
  5
325
330
1F
100
AcDbEntity
  8
0
  6
Continuous
 62
     7
 48
2.75
370
    15
100
AcDbLine
 10
36.562315716
 20
27.7960535779
 30
0.0
 11
34.6926370169
 21
26.7167110393
 31
0.0
  0
LINE
  5
326
330
1F
100
AcDbEntity
  8
0
  6
Continuous
 62
     7
 48
2.75
370
    15
100
AcDbLine
 10
36.5321753005
 20
27.8134532693
 30
0.0
 11
34.6624966014
 21
26.7341107308
 31
0.0
  0
ARC
  5
327
330
1F
100
AcDbEntity
  8
0
  6
Continuous
 62
     7
 48
7.5625
370
    15
100
AcDbCircle
 10
36.5696077541
 20
27.7819801255
 30
0.0
 40
0.0158504221133382
100
AcDbArc
 50
62.6094263452
 51
117.3905433353
  0
ARC
  5
328
330
1F
100
AcDbEntity
  8
0
  6
Continuous
 62
     7
 48
7.5625
370
    15
100
AcDbCircle
 10
36.5696077659
 20
27.741208981
 30
0.0
 40
0.0813660043482692
100
AcDbArc
 50
62.6096422091
 51
117.3903617285
  0
ARC
  5
329
330
1F
100
AcDbEntity
  8
0
  6
Continuous
 62
     7
 48
7.5625
370
    15
100
AcDbCircle
 10
34.5593035693
 20
25.591388299
 30
0.0
 40
0.1449653600404161
100
AcDbArc
 50
295.2930681219
 51
301.0303224469
  0
ARC
  5
32A
330
1F
100
AcDbEntity
  8
0
  6
Continuous
 62
     7
 48
7.5625
370
    15
100
AcDbCircle
 10
34.7862141071
 20
25.5424664155
 30
0.0
 40
0.1832893318742865
100
AcDbArc
 50
206.418395241
 51
213.0842348763
  0
LWPOLYLINE
  5
32B
330
1F
100
AcDbEntity
  8
0
  6
Continuous
 62
     7
 48
2.75
370
    15
100
AcDbPolyline
 90
        9
 70
   128
 43
0.0
 10
34.6326416677
 20
25.4424140041
 10
34.6319342379
 20
25.4419345194
 10
34.6318630814
 20
25.4418184379
 10
34.6324283407
 20
25.4420662498
 10
34.6336273066
 20
25.4426767165
 10
34.6354547028
 20
25.4436472817
 10
34.637902116
 20
25.4449733315
 10
34.6409577107
 20
25.4466485228
 10
34.6446079399
 20
25.4486653599
  0
ARC
  5
32C
330
1F
100
AcDbEntity
  8
0
  6
Continuous
 62
     7
 48
7.5625
370
    15
100
AcDbCircle
 10
34.7337527899
 20
25.5795066705
 30
0.0
 40
0.1583232542537645
100
AcDbArc
 50
235.7325985313
 51
248.244315833
  0
ARC
  5
32D
330
1F
100
AcDbEntity
  8
0
  6
Continuous
 62
     7
 48
7.5625
370
    15
100
AcDbCircle
 10
34.809295611
 20
25.4537058479
 30
0.0
 40
0.1358962632960798
100
AcDbArc
 50
175.2065492653
 51
188.9943005101
  0
ARC
  5
32E
330
1F
100
AcDbEntity
  8
0
  6
Continuous
 62
     7
 48
7.5625
370
    15
100
AcDbCircle
 10
26.2070474727
 20
40.4682787681
 30
0.0
 40
17.22741070799346
100
AcDbArc
 50
299.4375198755
 51
299.6863605837
  0
ARC
  5
32F
330
1F
100
AcDbEntity
  8
0
  6
Continuous
 62
     7
 48
7.5625
370
    15
100
AcDbCircle
 10
34.574783243
 20
25.4204129069
 30
0.0
 40
0.1833160819272759
100
AcDbArc
 50
26.4187611101
 51
33.0836493263
  0
ARC
  5
330
330
1F
100
AcDbEntity
  8
0
  6
Continuous
 62
     7
 48
7.5625
370
    15
100
AcDbCircle
 10
26.203106942
 20
40.4751495184
 30
0.0
 40
17.21401915337045
100
AcDbArc
 50
299.4373142368
 51
299.6863488072
  0
ARC
  5
331
330
1F
100
AcDbEntity
  8
0
  6
Continuous
 62
     7
 48
7.5625
370
    15
100
AcDbCircle
 10
34.7233585171
 20
25.6069338605
 30
0.0
 40
0.1372118427130502
100
AcDbArc
 50
230.2741924181
 51
244.0417649787
  0
ARC
  5
332
330
1F
100
AcDbEntity
  8
0
  6
Continuous
 62
     7
 48
7.5625
370
    15
100
AcDbCircle
 10
34.7912113867
 20
25.4768292679
 30
0.0
 40
0.1574760125291443
100
AcDbArc
 50
171.0225897208
 51
183.5172505284
  0
LINE
  5
333
330
1F
100
AcDbEntity
  8
0
  6
Continuous
 62
     7
 48
2.75
370
    15
100
AcDbLine
 10
34.7004317208
 20
25.4803929419
 30
0.0
 11
34.673874656
 21
25.4650618747
 31
0.0
  0
LINE
  5
334
330
1F
100
AcDbEntity
  8
0
  6
Continuous
 62
     7
 48
2.75
370
    15
100
AcDbLine
 10
34.7389549152
 20
25.5019754471
 30
0.0
 11
34.7004317208
 21
25.4803929419
 31
0.0
  0
LWPOLYLINE
  5
335
330
1F
100
AcDbEntity
  8
0
  6
Continuous
 62
     7
 48
2.75
370
    15
100
AcDbPolyline
 90
       14
 70
   128
 43
0.0
 10
34.7643582177
 20
25.3818002781
 10
34.7784288119
 20
25.3946867215
 10
34.787650211
 20
25.4145345904
 10
34.7909158528
 20
25.4397190925
 10
34.788002999
 20
25.4685239634
 10
34.7791102888
 20
25.4989861422
 10
34.7648434795
 20
25.5290298914
 10
34.7461752335
 20
25.5566075016
 10
34.7243773843
 20
25.5798397457
 10
34.7009355203
 20
25.5971434884
 10
34.6774473118
 20
25.6073392864
 10
34.655513424
 20
25.6097323945
 10
34.6366284287
 20
25.6041597677
 10
34.6361498691
 20
25.6038876927
  0
LWPOLYLINE
  5
336
330
1F
100
AcDbEntity
  8
0
  6
Continuous
 62
     7
 48
2.75
370
    15
100
AcDbPolyline
 90
       14
 70
   128
 43
0.0
 10
34.7805617961
 20
25.3911544048
 10
34.7946323903
 20
25.4040408481
 10
34.8038537894
 20
25.4238887171
 10
34.8071194312
 20
25.4490732192
 10
34.8042065774
 20
25.4778780901
 10
34.7953138672
 20
25.5083402688
 10
34.7810470578
 20
25.5383840181
 10
34.7623788118
 20
25.5659616283
 10
34.7405809627
 20
25.5891938724
 10
34.7171390986
 20
25.6064976151
 10
34.6936508902
 20
25.6166934131
 10
34.6717170024
 20
25.6190865212
 10
34.6528320071
 20
25.6135138944
 10
34.6523534474
 20
25.6132418193
  0
LINE
  5
337
330
1F
100
AcDbEntity
  8
0
  6
Continuous
 62
     7
 48
2.75
370
    15
100
AcDbLine
 10
34.7004317208
 20
25.4803929419
 30
0.0
 11
34.7005117184
 21
25.4926518432
 31
0.0
  0
LINE
  5
338
330
1F
100
AcDbEntity
  8
0
  6
Continuous
 62
     7
 48
2.75
370
    15
100
AcDbLine
 10
34.7005117184
 20
25.4926518432
 30
0.0
 11
34.6901280012
 21
25.4987363908
 31
0.0
  0
LINE
  5
339
330
1F
100
AcDbEntity
  8
0
  6
Continuous
 62
     7
 48
2.75
370
    15
100
AcDbLine
 10
34.6737327708
 20
25.4630260336
 30
0.0
 11
34.6609682337
 21
25.470505665
 31
0.0
  0
LINE
  5
33A
330
1F
100
AcDbEntity
  8
0
  6
Continuous
 62
     7
 48
2.75
370
    15
100
AcDbLine
 10
34.6609682337
 20
25.470505665
 30
0.0
 11
34.6610610652
 21
25.484696772
 31
0.0
  0
LINE
  5
33B
330
1F
100
AcDbEntity
  8
0
  6
Continuous
 62
     7
 48
2.75
370
    15
100
AcDbLine
 10
34.6609682337
 20
25.470505665
 30
0.0
 11
34.6605089249
 21
25.4702405116
 31
0.0
  0
LINE
  5
33C
330
1F
100
AcDbEntity
  8
0
  6
Continuous
 62
     7
 48
2.75
370
    15
100
AcDbLine
 10
34.6605890651
 20
25.4824993307
 30
0.0
 11
34.6605089249
 21
25.4702405116
 31
0.0
  0
LINE
  5
33D
330
1F
100
AcDbEntity
  8
0
  6
Continuous
 62
     7
 48
2.75
370
    15
100
AcDbLine
 10
34.6605890651
 20
25.4824993307
 30
0.0
 11
34.6340320003
 21
25.4671682635
 31
0.0
  0
LINE
  5
33E
330
1F
100
AcDbEntity
  8
0
  6
Continuous
 62
     7
 48
2.75
370
    15
100
AcDbLine
 10
34.6446079399
 20
25.4486653599
 30
0.0
 11
34.6711650047
 21
25.4639964271
 31
0.0
  0
LINE
  5
33F
330
1F
100
AcDbEntity
  8
0
  6
Continuous
 62
     7
 48
2.75
370
    15
100
AcDbLine
 10
34.6605089249
 20
25.4702405116
 30
0.0
 11
34.6711650047
 21
25.4639964271
 31
0.0
  0
LINE
  5
340
330
1F
100
AcDbEntity
  8
0
  6
Continuous
 62
     7
 48
2.75
370
    15
100
AcDbLine
 10
34.6711650047
 20
25.4639964271
 30
0.0
 11
34.6326416677
 21
25.4424140041
 31
0.0
  0
ARC
  5
341
330
1F
100
AcDbEntity
  8
0
  6
Continuous
 62
     7
 48
7.5625
370
    15
100
AcDbCircle
 10
38.4517273425
 20
23.454813204
 30
0.0
 40
0.1738165009984812
100
AcDbArc
 50
174.6749986763
 51
202.0525304288
  0
ARC
  5
342
330
1F
100
AcDbEntity
  8
0
  6
Continuous
 62
     7
 48
7.5625
370
    15
100
AcDbCircle
 10
38.2912868816
 20
23.4376896576
 30
0.0
 40
0.0355707981088118
100
AcDbArc
 50
110.7904573761
 51
130.7128255211
  0
ARC
  5
343
330
1F
100
AcDbEntity
  8
0
  6
Continuous
 62
     7
 48
7.5625
370
    15
100
AcDbCircle
 10
38.4411518773
 20
23.4485206883
 30
0.0
 40
0.1738168468705228
100
AcDbArc
 50
174.6749538608
 51
202.0523954062
  0
ARC
  5
344
330
1F
100
AcDbEntity
  8
0
  6
Continuous
 62
     7
 48
7.5625
370
    15
100
AcDbCircle
 10
38.4169298171
 20
23.3735948799
 30
0.0
 40
0.1372193381873124
100
AcDbArc
 50
175.9608273119
 51
189.7289080043
  0
ARC
  5
345
330
1F
100
AcDbEntity
  8
0
  6
Continuous
 62
     7
 48
7.5625
370
    15
100
AcDbCircle
 10
38.3671781931
 20
23.4560128548
 30
0.0
 40
0.1358747338471997
100
AcDbArc
 50
231.0078505188
 51
244.7964979153
  0
ARC
  5
346
330
1F
100
AcDbEntity
  8
0
  6
Continuous
 62
     7
 48
7.5625
370
    15
100
AcDbCircle
 10
38.4466481888
 20
23.4421427087
 30
0.0
 40
0.1753730817723111
100
AcDbArc
 50
218.4570737452
 51
245.6708837116
  0
ARC
  5
347
330
1F
100
AcDbEntity
  8
0
  6
Continuous
 62
     7
 48
7.5625
370
    15
100
AcDbCircle
 10
38.3617753605
 20
23.315594001
 30
0.0
 40
0.0355656810019099
100
AcDbArc
 50
290.7887145582
 51
310.7139094681
  0
ARC
  5
348
330
1F
100
AcDbEntity
  8
0
  6
Continuous
 62
     7
 48
7.5625
370
    15
100
AcDbCircle
 10
38.4572243322
 20
23.44843521
 30
0.0
 40
0.1753734389174633
100
AcDbArc
 50
218.4571136063
 51
245.6708122697
  0
ARC
  5
349
330
1F
100
AcDbEntity
  8
0
  6
Continuous
 62
     7
 48
7.5625
370
    15
100
AcDbCircle
 10
38.4777812251
 20
23.3511545868
 30
0.0
 40
0.1583267798035523
100
AcDbArc
 50
171.7578441965
 51
184.270244797
  0
ARC
  5
34A
330
1F
100
AcDbEntity
  8
0
  6
Continuous
 62
     7
 48
7.5625
370
    15
100
AcDbCircle
 10
38.3775700996
 20
23.5208363093
 30
0.0
 40
0.1574625441490045
100
AcDbArc
 50
236.4854055765
 51
248.9802101419
  0
ARC
  5
34B
330
1F
100
AcDbEntity
  8
0
  6
Continuous
 62
     7
 48
7.5625
370
    15
100
AcDbCircle
 10
38.3110783086
 20
23.4474020711
 30
0.0
 40
0.0572919409901295
100
AcDbArc
 50
124.8734445773
 51
169.7825367351
  0
ARC
  5
34C
330
1F
100
AcDbEntity
  8
0
  6
Continuous
 62
     7
 48
7.5625
370
    15
100
AcDbCircle
 10
38.3800508389
 20
23.3224304075
 30
0.0
 40
0.0521880565000041
100
AcDbArc
 50
248.2145685424
 51
303.9764077576
  0
LWPOLYLINE
  5
34D
330
1F
100
AcDbEntity
  8
0
  6
Continuous
 62
     7
 48
2.75
370
    15
100
AcDbPolyline
 90
        3
 70
   128
 43
0.0
 10
38.2816840642
 20
23.4988010365
 10
38.2674172548
 20
23.4852293947
 10
38.2671334844
 20
23.4848113604
  0
LWPOLYLINE
  5
34E
330
1F
100
AcDbEntity
  8
0
  6
Continuous
 62
     7
 48
2.75
370
    15
100
AcDbPolyline
 90
       16
 70
   128
 43
0.0
 10
38.3904973437
 20
23.2711157532
 10
38.3921945477
 20
23.2712589259
 10
38.4108629363
 20
23.2772824734
 10
38.425129603
 20
23.2908541975
 10
38.4340224559
 20
23.3110489893
 10
38.4369351671
 20
23.3364908331
 10
38.4336696679
 20
23.3654456827
 10
38.4244481261
 20
23.395940517
 10
38.4098991149
 20
23.4258969662
 10
38.3910141196
 20
23.4532737444
 10
38.3690802318
 20
23.4762049642
 10
38.3455920234
 20
23.4931280744
 10
38.3221501593
 20
23.5028897318
 10
38.3003523102
 20
23.5048247486
 10
38.2816840642
 20
23.4988010365
 10
38.2816840642
 20
23.4988010365
  0
LWPOLYLINE
  5
34F
330
1F
100
AcDbEntity
  8
0
  6
Continuous
 62
     7
 48
2.75
370
    15
100
AcDbPolyline
 90
       15
 70
   128
 43
0.0
 10
38.4265812529
 20
23.2863521743
 10
38.4270665147
 20
23.2866366001
 10
38.4413331814
 20
23.3002083242
 10
38.4502260342
 20
23.320403116
 10
38.4531387455
 20
23.3458449597
 10
38.4498732462
 20
23.3747998093
 10
38.4406517045
 20
23.4052946437
 10
38.4261026933
 20
23.4352510929
 10
38.407217698
 20
23.4626278711
 10
38.3852838102
 20
23.4855590909
 10
38.3617956017
 20
23.5024822011
 10
38.3383537377
 20
23.5122438585
 10
38.3165558886
 20
23.5141788753
 10
38.2978876425
 20
23.5081551632
 10
38.2978876425
 20
23.5081551632
  0
LINE
  5
350
330
1F
100
AcDbEntity
  8
0
  6
Continuous
 62
     7
 48
2.75
370
    15
100
AcDbLine
 10
38.3196170445
 20
23.358175049
 30
0.0
 11
38.3072861486
 21
23.36518649
 31
0.0
  0
LINE
  5
351
330
1F
100
AcDbEntity
  8
0
  6
Continuous
 62
     7
 48
2.75
370
    15
100
AcDbLine
 10
38.3072861486
 20
23.36518649
 30
0.0
 11
38.3071900374
 21
23.3799873418
 31
0.0
  0
LINE
  5
352
330
1F
100
AcDbEntity
  8
0
  6
Continuous
 62
     7
 48
2.75
370
    15
100
AcDbLine
 10
38.3072861486
 20
23.36518649
 30
0.0
 11
38.2816839216
 21
23.3504066389
 31
0.0
  0
LINE
  5
353
330
1F
100
AcDbEntity
  8
0
  6
Continuous
 62
     7
 48
2.75
370
    15
100
AcDbLine
 10
38.3199969262
 20
23.3392380513
 30
0.0
 11
38.3093180307
 21
23.3330732562
 31
0.0
  0
LINE
  5
354
330
1F
100
AcDbEntity
  8
0
  6
Continuous
 62
     7
 48
2.75
370
    15
100
AcDbLine
 10
38.2800513146
 20
23.3832604021
 30
0.0
 11
38.2907768397
 21
23.389452116
 31
0.0
  0
LINE
  5
355
330
1F
100
AcDbEntity
  8
0
  6
Continuous
 62
     7
 48
2.75
370
    15
100
AcDbLine
 10
38.3743984324
 20
23.2823438022
 30
0.0
 11
38.3643299999
 21
23.299609362
 31
0.0
  0
LINE
  5
356
330
1F
100
AcDbEntity
  8
0
  6
Continuous
 62
     7
 48
2.75
370
    15
100
AcDbLine
 10
38.2779904851
 20
23.4476660201
 30
0.0
 11
38.2680851849
 21
23.4646519081
 31
0.0
  0
ARC
  5
357
330
1F
100
AcDbEntity
  8
0
  6
Continuous
 62
     7
 48
7.5625
370
    15
100
AcDbCircle
 10
34.5593035693
 20
23.3459010935
 30
0.0
 40
0.1449653600439572
100
AcDbArc
 50
295.293068122
 51
301.0303224468
  0
ARC
  5
358
330
1F
100
AcDbEntity
  8
0
  6
Continuous
 62
     7
 48
7.5625
370
    15
100
AcDbCircle
 10
34.786219555
 20
23.2969818786
 30
0.0
 40
0.18329539815973
100
AcDbArc
 50
206.4183846394
 51
213.0840257969
  0
LWPOLYLINE
  5
359
330
1F
100
AcDbEntity
  8
0
  6
Continuous
 62
     7
 48
2.75
370
    15
100
AcDbPolyline
 90
        9
 70
   128
 43
0.0
 10
34.6326416677
 20
23.1969267163
 10
34.6319342379
 20
23.1964472315
 10
34.6318630814
 20
23.19633115
 10
34.6324283407
 20
23.196578962
 10
34.6336273066
 20
23.1971895109
 10
34.6354547028
 20
23.1981600762
 10
34.637902116
 20
23.1994860437
 10
34.6409577107
 20
23.2011613172
 10
34.6446079399
 20
23.2031780721
  0
ARC
  5
35A
330
1F
100
AcDbEntity
  8
0
  6
Continuous
 62
     7
 48
7.5625
370
    15
100
AcDbCircle
 10
34.7337512342
 20
23.3340172053
 30
0.0
 40
0.1583205789125302
100
AcDbArc
 50
235.7326201364
 51
248.2445356309
  0
ARC
  5
35B
330
1F
100
AcDbEntity
  8
0
  6
Continuous
 62
     7
 48
7.5625
370
    15
100
AcDbCircle
 10
34.809295611
 20
23.2082186423
 30
0.0
 40
0.1358962632960158
100
AcDbArc
 50
175.2065492653
 51
188.9943005101
  0
ARC
  5
35C
330
1F
100
AcDbEntity
  8
0
  6
Continuous
 62
     7
 48
7.5625
370
    15
100
AcDbCircle
 10
26.2070474725
 20
38.2227915629
 30
0.0
 40
17.22741070834306
100
AcDbArc
 50
299.4375198755
 51
299.6863605837
  0
ARC
  5
35D
330
1F
100
AcDbEntity
  8
0
  6
Continuous
 62
     7
 48
7.5625
370
    15
100
AcDbCircle
 10
34.5747886961
 20
23.174928373
 30
0.0
 40
0.1833100096732962
100
AcDbArc
 50
26.4187716268
 51
33.0838584906
  0
ARC
  5
35E
330
1F
100
AcDbEntity
  8
0
  6
Continuous
 62
     7
 48
7.5625
370
    15
100
AcDbCircle
 10
26.1980651338
 20
38.2385512004
 30
0.0
 40
17.22423840587681
100
AcDbArc
 50
299.4373881138
 51
299.6862749302
  0
ARC
  5
35F
330
1F
100
AcDbEntity
  8
0
  6
Continuous
 62
     7
 48
7.5625
370
    15
100
AcDbCircle
 10
34.7233582579
 20
23.3614456839
 30
0.0
 40
0.1372109302142857
100
AcDbArc
 50
230.2740165273
 51
244.0416998707
  0
ARC
  5
360
330
1F
100
AcDbEntity
  8
0
  6
Continuous
 62
     7
 48
7.5625
370
    15
100
AcDbCircle
 10
34.7912113867
 20
23.2313420623
 30
0.0
 40
0.1574760125291656
100
AcDbArc
 50
171.0225897208
 51
183.5172505284
  0
LINE
  5
361
330
1F
100
AcDbEntity
  8
0
  6
Continuous
 62
     7
 48
2.75
370
    15
100
AcDbLine
 10
34.7004317208
 20
23.2349057363
 30
0.0
 11
34.673874656
 21
23.2195746692
 31
0.0
  0
LINE
  5
362
330
1F
100
AcDbEntity
  8
0
  6
Continuous
 62
     7
 48
2.75
370
    15
100
AcDbLine
 10
34.7389549152
 20
23.2564882416
 30
0.0
 11
34.7004317208
 21
23.2349057363
 31
0.0
  0
LWPOLYLINE
  5
363
330
1F
100
AcDbEntity
  8
0
  6
Continuous
 62
     7
 48
2.75
370
    15
100
AcDbPolyline
 90
       14
 70
   128
 43
0.0
 10
34.7643582177
 20
23.1363130726
 10
34.7784288119
 20
23.1491994336
 10
34.787650211
 20
23.1690473848
 10
34.7909158528
 20
23.1942318869
 10
34.788002999
 20
23.2230367578
 10
34.7791102888
 20
23.2534989366
 10
34.7648434795
 20
23.2835426859
 10
34.7461752335
 20
23.3111202137
 10
34.7243773843
 20
23.3343525402
 10
34.7009355203
 20
23.3516562829
 10
34.6774473118
 20
23.3618520809
 10
34.655513424
 20
23.3642451889
 10
34.6366284287
 20
23.3586725622
 10
34.6361498691
 20
23.3584004871
  0
LWPOLYLINE
  5
364
330
1F
100
AcDbEntity
  8
0
  6
Continuous
 62
     7
 48
2.75
370
    15
100
AcDbPolyline
 90
       14
 70
   128
 43
0.0
 10
34.7805617961
 20
23.1456671993
 10
34.7946323903
 20
23.1585535603
 10
34.8038537894
 20
23.1784015115
 10
34.8071194312
 20
23.2035860136
 10
34.8042065774
 20
23.2323908845
 10
34.7953138672
 20
23.2628530633
 10
34.7810470578
 20
23.2928968125
 10
34.7623788118
 20
23.3204743404
 10
34.7405809627
 20
23.3437066668
 10
34.7171390986
 20
23.3610104096
 10
34.6936508902
 20
23.3712062076
 10
34.6717170024
 20
23.3735993156
 10
34.6528320071
 20
23.3680266889
 10
34.6523534474
 20
23.3677546138
  0
LINE
  5
365
330
1F
100
AcDbEntity
  8
0
  6
Continuous
 62
     7
 48
2.75
370
    15
100
AcDbLine
 10
34.7004317208
 20
23.2349057363
 30
0.0
 11
34.7005117184
 21
23.2471646377
 31
0.0
  0
LINE
  5
366
330
1F
100
AcDbEntity
  8
0
  6
Continuous
 62
     7
 48
2.75
370
    15
100
AcDbLine
 10
34.7005117184
 20
23.2471646377
 30
0.0
 11
34.6901280012
 21
23.2532491853
 31
0.0
  0
LINE
  5
367
330
1F
100
AcDbEntity
  8
0
  6
Continuous
 62
     7
 48
2.75
370
    15
100
AcDbLine
 10
34.6737327708
 20
23.217538828
 30
0.0
 11
34.6609682337
 21
23.2250184594
 31
0.0
  0
LINE
  5
368
330
1F
100
AcDbEntity
  8
0
  6
Continuous
 62
     7
 48
2.75
370
    15
100
AcDbLine
 10
34.6609682337
 20
23.2250184594
 30
0.0
 11
34.6610610652
 21
23.2392094841
 31
0.0
  0
LINE
  5
369
330
1F
100
AcDbEntity
  8
0
  6
Continuous
 62
     7
 48
2.75
370
    15
100
AcDbLine
 10
34.6609682337
 20
23.2250184594
 30
0.0
 11
34.6605089249
 21
23.2247533061
 31
0.0
  0
LINE
  5
36A
330
1F
100
AcDbEntity
  8
0
  6
Continuous
 62
     7
 48
2.75
370
    15
100
AcDbLine
 10
34.6605890651
 20
23.2370121251
 30
0.0
 11
34.6605089249
 21
23.2247533061
 31
0.0
  0
LINE
  5
36B
330
1F
100
AcDbEntity
  8
0
  6
Continuous
 62
     7
 48
2.75
370
    15
100
AcDbLine
 10
34.6605890651
 20
23.2370121251
 30
0.0
 11
34.6340320003
 21
23.221681058
 31
0.0
  0
LINE
  5
36C
330
1F
100
AcDbEntity
  8
0
  6
Continuous
 62
     7
 48
2.75
370
    15
100
AcDbLine
 10
34.6446079399
 20
23.2031780721
 30
0.0
 11
34.6711650047
 21
23.2185091392
 31
0.0
  0
LINE
  5
36D
330
1F
100
AcDbEntity
  8
0
  6
Continuous
 62
     7
 48
2.75
370
    15
100
AcDbLine
 10
34.6605089249
 20
23.2247533061
 30
0.0
 11
34.6711650047
 21
23.2185091392
 31
0.0
  0
LINE
  5
36E
330
1F
100
AcDbEntity
  8
0
  6
Continuous
 62
     7
 48
2.75
370
    15
100
AcDbLine
 10
34.6711650047
 20
23.2185091392
 30
0.0
 11
34.6326416677
 21
23.1969267163
 31
0.0
  0
ARC
  5
36F
330
1F
100
AcDbEntity
  8
0
  6
Continuous
 62
     7
 48
7.5625
370
    15
100
AcDbCircle
 10
38.4517274774
 20
21.209325936
 30
0.0
 40
0.1738166334379429
100
AcDbArc
 50
174.6750093095
 51
202.0525197956
  0
ARC
  5
370
330
1F
100
AcDbEntity
  8
0
  6
Continuous
 62
     7
 48
7.5625
370
    15
100
AcDbCircle
 10
38.2912861036
 20
21.1922033246
 30
0.0
 40
0.0355696292718257
100
AcDbArc
 50
110.7898316975
 51
130.7127923288
  0
ARC
  5
371
330
1F
100
AcDbEntity
  8
0
  6
Continuous
 62
     7
 48
7.5625
370
    15
100
AcDbCircle
 10
38.4411518773
 20
21.2030334828
 30
0.0
 40
0.1738168468705636
100
AcDbArc
 50
174.6749538608
 51
202.0523954062
  0
ARC
  5
372
330
1F
100
AcDbEntity
  8
0
  6
Continuous
 62
     7
 48
7.5625
370
    15
100
AcDbCircle
 10
38.4169298171
 20
21.1281076744
 30
0.0
 40
0.1372193381873194
100
AcDbArc
 50
175.9608273119
 51
189.7289080043
  0
ARC
  5
373
330
1F
100
AcDbEntity
  8
0
  6
Continuous
 62
     7
 48
7.5625
370
    15
100
AcDbCircle
 10
38.3671779371
 20
21.2105246571
 30
0.0
 40
0.1358738016221138
100
AcDbArc
 50
231.0076711876
 51
244.7964322295
  0
ARC
  5
374
330
1F
100
AcDbEntity
  8
0
  6
Continuous
 62
     7
 48
7.5625
370
    15
100
AcDbCircle
 10
38.4466486654
 20
21.1966560322
 30
0.0
 40
0.1753738351797285
100
AcDbArc
 50
218.4571333249
 51
245.6708241319
  0
ARC
  5
375
330
1F
100
AcDbEntity
  8
0
  6
Continuous
 62
     7
 48
7.5625
370
    15
100
AcDbCircle
 10
38.3617745831
 20
21.070107667
 30
0.0
 40
0.0355668487013717
100
AcDbArc
 50
290.7893399856
 51
310.7139429117
  0
ARC
  5
376
330
1F
100
AcDbEntity
  8
0
  6
Continuous
 62
     7
 48
7.5625
370
    15
100
AcDbCircle
 10
38.4572243322
 20
21.2029480044
 30
0.0
 40
0.175373438917461
100
AcDbArc
 50
218.4571136063
 51
245.6708122697
  0
ARC
  5
377
330
1F
100
AcDbEntity
  8
0
  6
Continuous
 62
     7
 48
7.5625
370
    15
100
AcDbCircle
 10
38.4777812251
 20
21.1056673812
 30
0.0
 40
0.1583267798036023
100
AcDbArc
 50
171.7578441965
 51
184.270244797
  0
ARC
  5
378
330
1F
100
AcDbEntity
  8
0
  6
Continuous
 62
     7
 48
7.5625
370
    15
100
AcDbCircle
 10
38.3775685666
 20
21.2753468178
 30
0.0
 40
0.1574598604804354
100
AcDbArc
 50
236.4854279331
 51
248.9804324943
  0
ARC
  5
379
330
1F
100
AcDbEntity
  8
0
  6
Continuous
 62
     7
 48
7.5625
370
    15
100
AcDbCircle
 10
38.3110783086
 20
21.2019148655
 30
0.0
 40
0.0572919409901533
100
AcDbArc
 50
124.8734445773
 51
169.7825367351
  0
ARC
  5
37A
330
1F
100
AcDbEntity
  8
0
  6
Continuous
 62
     7
 48
7.5625
370
    15
100
AcDbCircle
 10
38.3800508389
 20
21.0769432019
 30
0.0
 40
0.0521880565000008
100
AcDbArc
 50
248.2145685424
 51
303.9764077576
  0
LWPOLYLINE
  5
37B
330
1F
100
AcDbEntity
  8
0
  6
Continuous
 62
     7
 48
2.75
370
    15
100
AcDbPolyline
 90
        3
 70
   128
 43
0.0
 10
38.2816840642
 20
21.2533138309
 10
38.2674172548
 20
21.2397421891
 10
38.2671334844
 20
21.2393241549
  0
LWPOLYLINE
  5
37C
330
1F
100
AcDbEntity
  8
0
  6
Continuous
 62
     7
 48
2.75
370
    15
100
AcDbPolyline
 90
       16
 70
   128
 43
0.0
 10
38.3904973437
 20
21.0256284653
 10
38.3921945477
 20
21.025771638
 10
38.4108629363
 20
21.0317952678
 10
38.425129603
 20
21.045366992
 10
38.4340224559
 20
21.0655617838
 10
38.4369351671
 20
21.0910036275
 10
38.4336696679
 20
21.1199584771
 10
38.4244481261
 20
21.1504532291
 10
38.4098991149
 20
21.1804097606
 10
38.3910141196
 20
21.2077865389
 10
38.3690802318
 20
21.2307177587
 10
38.3455920234
 20
21.2476408689
 10
38.3221501593
 20
21.2574025263
 10
38.3003523102
 20
21.2593374607
 10
38.2816840642
 20
21.2533138309
 10
38.2816840642
 20
21.2533138309
  0
LWPOLYLINE
  5
37D
330
1F
100
AcDbEntity
  8
0
  6
Continuous
 62
     7
 48
2.75
370
    15
100
AcDbPolyline
 90
       15
 70
   128
 43
0.0
 10
38.4265812529
 20
21.0408649688
 10
38.4270665147
 20
21.0411493945
 10
38.4413331814
 20
21.0547211186
 10
38.4502260342
 20
21.0749159104
 10
38.4531387455
 20
21.1003577542
 10
38.4498732462
 20
21.1293126038
 10
38.4406517045
 20
21.1598073558
 10
38.4261026933
 20
21.1897638873
 10
38.407217698
 20
21.2171406656
 10
38.3852838102
 20
21.2400718853
 10
38.3617956017
 20
21.2569949956
 10
38.3383537377
 20
21.2667566529
 10
38.3165558886
 20
21.2686915874
 10
38.2978876425
 20
21.2626679576
 10
38.2978876425
 20
21.2626679576
  0
LINE
  5
37E
330
1F
100
AcDbEntity
  8
0
  6
Continuous
 62
     7
 48
2.75
370
    15
100
AcDbLine
 10
38.3196170445
 20
21.1126878434
 30
0.0
 11
38.3072861486
 21
21.1196992844
 31
0.0
  0
LINE
  5
37F
330
1F
100
AcDbEntity
  8
0
  6
Continuous
 62
     7
 48
2.75
370
    15
100
AcDbLine
 10
38.3072861486
 20
21.1196992844
 30
0.0
 11
38.3071900374
 21
21.1345001362
 31
0.0
  0
LINE
  5
380
330
1F
100
AcDbEntity
  8
0
  6
Continuous
 62
     7
 48
2.75
370
    15
100
AcDbLine
 10
38.3072861486
 20
21.1196992844
 30
0.0
 11
38.2816839216
 21
21.1049194333
 31
0.0
  0
LINE
  5
381
330
1F
100
AcDbEntity
  8
0
  6
Continuous
 62
     7
 48
2.75
370
    15
100
AcDbLine
 10
38.3199969262
 20
21.0937507635
 30
0.0
 11
38.3093180307
 21
21.0875859683
 31
0.0
  0
LINE
  5
382
330
1F
100
AcDbEntity
  8
0
  6
Continuous
 62
     7
 48
2.75
370
    15
100
AcDbLine
 10
38.2800513146
 20
21.1377731966
 30
0.0
 11
38.2907768397
 21
21.1439649105
 31
0.0
  0
LINE
  5
383
330
1F
100
AcDbEntity
  8
0
  6
Continuous
 62
     7
 48
2.75
370
    15
100
AcDbLine
 10
38.3743984324
 20
21.0368565144
 30
0.0
 11
38.3643299999
 21
21.0541221565
 31
0.0
  0
LINE
  5
384
330
1F
100
AcDbEntity
  8
0
  6
Continuous
 62
     7
 48
2.75
370
    15
100
AcDbLine
 10
38.2779904851
 20
21.2021788146
 30
0.0
 11
38.2680851849
 21
21.2191647025
 31
0.0
  0
LINE
  5
385
330
1F
100
AcDbEntity
  8
0
  6
Continuous
 62
     7
 48
2.75
370
    15
100
AcDbLine
 10
26.6443130975
 20
17.5240126044
 30
0.0
 11
26.6443130975
 21
17.1010126376
 31
0.0
  0
LINE
  5
386
330
1F
100
AcDbEntity
  8
0
  6
Continuous
 62
     7
 48
2.75
370
    15
100
AcDbLine
 10
26.6443130975
 20
17.1010126376
 30
0.0
 11
19.7063130859
 21
17.1010126376
 31
0.0
  0
LINE
  5
387
330
1F
100
AcDbEntity
  8
0
  6
Continuous
 62
     7
 48
2.75
370
    15
100
AcDbLine
 10
19.7063130859
 20
17.5240126044
 30
0.0
 11
19.7063130859
 21
17.1010126376
 31
0.0
  0
LINE
  5
388
330
1F
100
AcDbEntity
  8
0
  6
Continuous
 62
     7
 48
2.75
370
    15
100
AcDbLine
 10
26.6443130975
 20
17.6010125949
 30
0.0
 11
26.6443130975
 21
17.5240126044
 31
0.0
  0
LINE
  5
389
330
1F
100
AcDbEntity
  8
0
  6
Continuous
 62
     7
 48
2.75
370
    15
100
AcDbLine
 10
19.7063130859
 20
17.6010125949
 30
0.0
 11
19.7063130859
 21
17.5240126044
 31
0.0
  0
LINE
  5
38A
330
1F
100
AcDbEntity
  8
0
  6
Continuous
 62
     7
 48
2.75
370
    15
100
AcDbLine
 10
19.7063130859
 20
17.6010125949
 30
0.0
 11
26.6443130975
 21
17.6010125949
 31
0.0
  0
LINE
  5
38B
330
1F
100
AcDbEntity
  8
0
  6
Continuous
 62
     7
 48
2.75
370
    15
100
AcDbLine
 10
19.7063130859
 20
17.5390126178
 30
0.0
 11
19.6753130973
 21
17.5390126178
 31
0.0
  0
LINE
  5
38C
330
1F
100
AcDbEntity
  8
0
  6
Continuous
 62
     7
 48
2.75
370
    15
100
AcDbLine
 10
19.7063130859
 20
17.6010125949
 30
0.0
 11
19.6753130973
 21
17.6010125949
 31
0.0
  0
LINE
  5
38D
330
1F
100
AcDbEntity
  8
0
  6
Continuous
 62
     7
 48
2.75
370
    15
100
AcDbLine
 10
26.6443130975
 20
17.5390126178
 30
0.0
 11
26.6753130861
 21
17.5390126178
 31
0.0
  0
LINE
  5
38E
330
1F
100
AcDbEntity
  8
0
  6
Continuous
 62
     7
 48
2.75
370
    15
100
AcDbLine
 10
26.6443130975
 20
17.6010125949
 30
0.0
 11
26.6753130861
 21
17.6010125949
 31
0.0
  0
LINE
  5
38F
330
1F
100
AcDbEntity
  8
0
  6
Continuous
 62
     7
 48
2.75
370
    15
100
AcDbLine
 10
19.6753130973
 20
17.1630126147
 30
0.0
 11
19.7063130859
 21
17.1630126147
 31
0.0
  0
LINE
  5
390
330
1F
100
AcDbEntity
  8
0
  6
Continuous
 62
     7
 48
2.75
370
    15
100
AcDbLine
 10
26.6443130975
 20
17.1630126147
 30
0.0
 11
26.6753130861
 21
17.1630126147
 31
0.0
  0
LINE
  5
391
330
1F
100
AcDbEntity
  8
0
  6
Continuous
 62
     7
 48
2.75
370
    15
100
AcDbLine
 10
26.6443130975
 20
9.6780126821
 30
0.0
 11
26.6443130975
 21
10.1010126489
 31
0.0
  0
LINE
  5
392
330
1F
100
AcDbEntity
  8
0
  6
Continuous
 62
     7
 48
2.75
370
    15
100
AcDbLine
 10
19.7063130859
 20
9.6780126821
 30
0.0
 11
19.7063130859
 21
10.1010126489
 31
0.0
  0
LINE
  5
393
330
1F
100
AcDbEntity
  8
0
  6
Continuous
 62
     7
 48
2.75
370
    15
100
AcDbLine
 10
19.7063130859
 20
10.1010126489
 30
0.0
 11
26.6443130975
 21
10.1010126489
 31
0.0
  0
LINE
  5
394
330
1F
100
AcDbEntity
  8
0
  6
Continuous
 62
     7
 48
2.75
370
    15
100
AcDbLine
 10
26.6443130975
 20
9.6010126916
 30
0.0
 11
26.6443130975
 21
9.6780126821
 31
0.0
  0
LINE
  5
395
330
1F
100
AcDbEntity
  8
0
  6
Continuous
 62
     7
 48
2.75
370
    15
100
AcDbLine
 10
26.6443130975
 20
9.6010126916
 30
0.0
 11
19.7063130859
 21
9.6010126916
 31
0.0
  0
LINE
  5
396
330
1F
100
AcDbEntity
  8
0
  6
Continuous
 62
     7
 48
2.75
370
    15
100
AcDbLine
 10
19.7063130859
 20
9.6010126916
 30
0.0
 11
19.7063130859
 21
9.6780126821
 31
0.0
  0
LINE
  5
397
330
1F
100
AcDbEntity
  8
0
  6
Continuous
 62
     7
 48
2.75
370
    15
100
AcDbLine
 10
19.7063130859
 20
9.6630126687
 30
0.0
 11
19.6753130973
 21
9.6630126687
 31
0.0
  0
LINE
  5
398
330
1F
100
AcDbEntity
  8
0
  6
Continuous
 62
     7
 48
2.75
370
    15
100
AcDbLine
 10
19.7063130859
 20
9.6010126916
 30
0.0
 11
19.6753130973
 21
9.6010126916
 31
0.0
  0
LINE
  5
399
330
1F
100
AcDbEntity
  8
0
  6
Continuous
 62
     7
 48
2.75
370
    15
100
AcDbLine
 10
26.6443130975
 20
9.6630126687
 30
0.0
 11
26.6753130861
 21
9.6630126687
 31
0.0
  0
LINE
  5
39A
330
1F
100
AcDbEntity
  8
0
  6
Continuous
 62
     7
 48
2.75
370
    15
100
AcDbLine
 10
26.6443130975
 20
9.6010126916
 30
0.0
 11
26.6753130861
 21
9.6010126916
 31
0.0
  0
LINE
  5
39B
330
1F
100
AcDbEntity
  8
0
  6
Continuous
 62
     7
 48
2.75
370
    15
100
AcDbLine
 10
26.6753130861
 20
10.0390126718
 30
0.0
 11
26.6443130975
 21
10.0390126718
 31
0.0
  0
LINE
  5
39C
330
1F
100
AcDbEntity
  8
0
  6
Continuous
 62
     7
 48
2.75
370
    15
100
AcDbLine
 10
19.7063130859
 20
10.0390126718
 30
0.0
 11
19.6753130973
 21
10.0390126718
 31
0.0
  0
LINE
  5
39D
330
1F
100
AcDbEntity
  8
0
  6
Continuous
 62
     7
 48
2.75
370
    15
100
AcDbLine
 10
26.6753130861
 20
17.6010125949
 30
0.0
 11
26.6753130861
 21
9.6010126916
 31
0.0
  0
LINE
  5
39E
330
1F
100
AcDbEntity
  8
0
  6
Continuous
 62
     7
 48
2.75
370
    15
100
AcDbLine
 10
26.6753130861
 20
17.6010125949
 30
0.0
 11
27.0983130529
 21
17.6010125949
 31
0.0
  0
LINE
  5
39F
330
1F
100
AcDbEntity
  8
0
  6
Continuous
 62
     7
 48
2.75
370
    15
100
AcDbLine
 10
26.6753130861
 20
9.6010126916
 30
0.0
 11
27.0983130529
 21
9.6010126916
 31
0.0
  0
CIRCLE
  5
3A0
330
1F
100
AcDbEntity
  8
0
  6
Continuous
 62
     7
 48
7.5625
370
    15
100
AcDbCircle
 10
26.9253130917
 20
15.6010126433
 30
0.0
 40
0.0850000000000009
  0
CIRCLE
  5
3A1
330
1F
100
AcDbEntity
  8
0
  6
Continuous
 62
     7
 48
7.5625
370
    15
100
AcDbCircle
 10
26.9253130917
 20
11.6010126433
 30
0.0
 40
0.0850000000000009
  0
LINE
  5
3A2
330
1F
100
AcDbEntity
  8
0
  6
Continuous
 62
     7
 48
2.75
370
    15
100
AcDbLine
 10
19.2523131305
 20
17.6010125949
 30
0.0
 11
19.6753130973
 21
17.6010125949
 31
0.0
  0
LINE
  5
3A3
330
1F
100
AcDbEntity
  8
0
  6
Continuous
 62
     7
 48
2.75
370
    15
100
AcDbLine
 10
19.6753130973
 20
17.6010125949
 30
0.0
 11
19.6753130973
 21
9.6010126916
 31
0.0
  0
LINE
  5
3A4
330
1F
100
AcDbEntity
  8
0
  6
Continuous
 62
     7
 48
2.75
370
    15
100
AcDbLine
 10
19.2523131305
 20
9.6010126916
 30
0.0
 11
19.6753130973
 21
9.6010126916
 31
0.0
  0
CIRCLE
  5
3A5
330
1F
100
AcDbEntity
  8
0
  6
Continuous
 62
     7
 48
7.5625
370
    15
100
AcDbCircle
 10
19.4253130917
 20
15.6010126433
 30
0.0
 40
0.0849999999999973
  0
CIRCLE
  5
3A6
330
1F
100
AcDbEntity
  8
0
  6
Continuous
 62
     7
 48
7.5625
370
    15
100
AcDbCircle
 10
19.4253130917
 20
11.6010126433
 30
0.0
 40
0.0849999999999973
  0
LINE
  5
3A7
330
1F
100
AcDbEntity
  8
0
  6
Continuous
 62
     7
 48
2.75
370
    15
100
AcDbLine
 10
19.17531314
 20
17.6010125949
 30
0.0
 11
19.17531314
 21
9.6010126916
 31
0.0
  0
LINE
  5
3A8
330
1F
100
AcDbEntity
  8
0
  6
Continuous
 62
     7
 48
2.75
370
    15
100
AcDbLine
 10
19.17531314
 20
17.6010125949
 30
0.0
 11
19.2523131305
 21
17.6010125949
 31
0.0
  0
LINE
  5
3A9
330
1F
100
AcDbEntity
  8
0
  6
Continuous
 62
     7
 48
2.75
370
    15
100
AcDbLine
 10
19.17531314
 20
9.6010126916
 30
0.0
 11
19.2523131305
 21
9.6010126916
 31
0.0
  0
LINE
  5
3AA
330
1F
100
AcDbEntity
  8
0
  6
Continuous
 62
     7
 48
2.75
370
    15
100
AcDbLine
 10
27.1753130433
 20
17.6010125949
 30
0.0
 11
27.1753130433
 21
9.6010126916
 31
0.0
  0
LINE
  5
3AB
330
1F
100
AcDbEntity
  8
0
  6
Continuous
 62
     7
 48
2.75
370
    15
100
AcDbLine
 10
27.0983130529
 20
9.6010126916
 30
0.0
 11
27.1753130433
 21
9.6010126916
 31
0.0
  0
LINE
  5
3AC
330
1F
100
AcDbEntity
  8
0
  6
Continuous
 62
     7
 48
2.75
370
    15
100
AcDbLine
 10
27.0983130529
 20
17.6010125949
 30
0.0
 11
27.1753130433
 21
17.6010125949
 31
0.0
  0
CIRCLE
  5
3AD
330
1F
100
AcDbEntity
  8
0
  6
Continuous
 62
     7
 48
7.5625
370
    15
100
AcDbCircle
 10
21.1753130917
 20
15.6010126433
 30
0.0
 40
0.0849999999999991
  0
CIRCLE
  5
3AE
330
1F
100
AcDbEntity
  8
0
  6
Continuous
 62
     7
 48
7.5625
370
    15
100
AcDbCircle
 10
21.1753130917
 20
15.6010126433
 30
0.0
 40
0.641612849930727
  0
ARC
  5
3AF
330
1F
100
AcDbEntity
  8
0
  6
Continuous
 62
     7
 48
7.5625
370
    15
100
AcDbCircle
 10
26.6753130917
 20
16.1010126433
 30
0.0
 40
0.140500000000003
100
AcDbArc
 50
90.0
 51
180.0
  0
ARC
  5
3B0
330
1F
100
AcDbEntity
  8
0
  6
Continuous
 62
     7
 48
7.5625
370
    15
100
AcDbCircle
 10
26.6753130917
 20
16.1010126433
 30
0.0
 40
0.140500000000003
100
AcDbArc
 50
180.0
 51
270.0
  0
ARC
  5
3B1
330
1F
100
AcDbEntity
  8
0
  6
Continuous
 62
     7
 48
7.5625
370
    15
100
AcDbCircle
 10
19.6753130917
 20
16.1010126433
 30
0.0
 40
0.140500000000003
100
AcDbArc
 50
270.0
 51
0.0
  0
ARC
  5
3B2
330
1F
100
AcDbEntity
  8
0
  6
Continuous
 62
     7
 48
7.5625
370
    15
100
AcDbCircle
 10
19.6753130917
 20
16.1010126433
 30
0.0
 40
0.140500000000003
100
AcDbArc
 50
0.0
 51
90.0
  0
ARC
  5
3B3
330
1F
100
AcDbEntity
  8
0
  6
Continuous
 62
     7
 48
7.5625
370
    15
100
AcDbCircle
 10
19.6753130917
 20
11.1010126433
 30
0.0
 40
0.1405000000000012
100
AcDbArc
 50
270.0
 51
90.0
  0
ARC
  5
3B4
330
1F
100
AcDbEntity
  8
0
  6
Continuous
 62
     7
 48
7.5625
370
    15
100
AcDbCircle
 10
26.6753130917
 20
11.1010126433
 30
0.0
 40
0.1405000000000012
100
AcDbArc
 50
90.0
 51
270.0
  0
LINE
  5
3B5
330
1F
100
AcDbEntity
  8
0
  6
HIDDEN
 62
     7
 48
2.75
370
     0
100
AcDbLine
 10
19.7063130859
 20
17.5390126178
 30
0.0
 11
26.6443130975
 21
17.5390126178
 31
0.0
  0
LINE
  5
3B6
330
1F
100
AcDbEntity
  8
0
  6
HIDDEN
 62
     7
 48
2.75
370
     0
100
AcDbLine
 10
19.6753130973
 20
17.5390126178
 30
0.0
 11
19.3143131076
 21
17.5390126178
 31
0.0
  0
LINE
  5
3B7
330
1F
100
AcDbEntity
  8
0
  6
HIDDEN
 62
     7
 48
2.75
370
     0
100
AcDbLine
 10
26.6753130861
 20
17.5390126178
 30
0.0
 11
27.0363130758
 21
17.5390126178
 31
0.0
  0
ARC
  5
3B8
330
1F
100
AcDbEntity
  8
0
  6
HIDDEN
 62
     7
 48
7.5625
370
     0
100
AcDbCircle
 10
19.3143130917
 20
17.5240126433
 30
0.0
 40
0.0770000000000017
100
AcDbArc
 50
90.0
 51
180.0
  0
ARC
  5
3B9
330
1F
100
AcDbEntity
  8
0
  6
HIDDEN
 62
     7
 48
7.5625
370
     0
100
AcDbCircle
 10
19.3143130917
 20
17.5240126433
 30
0.0
 40
0.0150000000000006
100
AcDbArc
 50
90.0
 51
180.0
  0
ARC
  5
3BA
330
1F
100
AcDbEntity
  8
0
  6
HIDDEN
 62
     7
 48
7.5625
370
     0
100
AcDbCircle
 10
27.0363130917
 20
17.5240126433
 30
0.0
 40
0.0769999999999982
100
AcDbArc
 50
0.0
 51
90.0
  0
ARC
  5
3BB
330
1F
100
AcDbEntity
  8
0
  6
HIDDEN
 62
     7
 48
7.5625
370
     0
100
AcDbCircle
 10
27.0363130917
 20
17.5240126433
 30
0.0
 40
0.014999999999997
100
AcDbArc
 50
0.0
 51
90.0
  0
LINE
  5
3BC
330
1F
100
AcDbEntity
  8
0
  6
HIDDEN
 62
     7
 48
2.75
370
     0
100
AcDbLine
 10
27.1133130662
 20
17.1630126147
 30
0.0
 11
27.0513130891
 21
17.1630126147
 31
0.0
  0
LINE
  5
3BD
330
1F
100
AcDbEntity
  8
0
  6
HIDDEN
 62
     7
 48
2.75
370
     0
100
AcDbLine
 10
27.0513130891
 20
17.1630126147
 30
0.0
 11
27.0513130891
 21
17.5240126044
 31
0.0
  0
LINE
  5
3BE
330
1F
100
AcDbEntity
  8
0
  6
HIDDEN
 62
     7
 48
2.75
370
     0
100
AcDbLine
 10
19.2373131171
 20
17.1630126147
 30
0.0
 11
19.2993130942
 21
17.1630126147
 31
0.0
  0
LINE
  5
3BF
330
1F
100
AcDbEntity
  8
0
  6
HIDDEN
 62
     7
 48
2.75
370
     0
100
AcDbLine
 10
19.2993130942
 20
17.1630126147
 30
0.0
 11
19.2993130942
 21
17.5240126044
 31
0.0
  0
LINE
  5
3C0
330
1F
100
AcDbEntity
  8
0
  6
HIDDEN
 62
     7
 48
2.75
370
     0
100
AcDbLine
 10
27.0363130758
 20
17.5390126178
 30
0.0
 11
27.0363130758
 21
17.6010125949
 31
0.0
  0
LINE
  5
3C1
330
1F
100
AcDbEntity
  8
0
  6
HIDDEN
 62
     7
 48
2.75
370
     0
100
AcDbLine
 10
19.3143131076
 20
17.5240126044
 30
0.0
 11
19.3143131076
 21
17.5390126178
 31
0.0
  0
LINE
  5
3C2
330
1F
100
AcDbEntity
  8
0
  6
HIDDEN
 62
     7
 48
2.75
370
     0
100
AcDbLine
 10
27.0363130758
 20
17.5240126044
 30
0.0
 11
27.0363130758
 21
17.5390126178
 31
0.0
  0
LINE
  5
3C3
330
1F
100
AcDbEntity
  8
0
  6
HIDDEN
 62
     7
 48
2.75
370
     0
100
AcDbLine
 10
19.3143131076
 20
17.5390126178
 30
0.0
 11
19.3143131076
 21
17.6010125949
 31
0.0
  0
LINE
  5
3C4
330
1F
100
AcDbEntity
  8
0
  6
HIDDEN
 62
     7
 48
2.75
370
     0
100
AcDbLine
 10
19.3143131076
 20
17.1630126147
 30
0.0
 11
19.6753130973
 21
17.1630126147
 31
0.0
  0
LINE
  5
3C5
330
1F
100
AcDbEntity
  8
0
  6
HIDDEN
 62
     7
 48
2.75
370
     0
100
AcDbLine
 10
19.7063130859
 20
17.1630126147
 30
0.0
 11
26.6443130975
 21
17.1630126147
 31
0.0
  0
LINE
  5
3C6
330
1F
100
AcDbEntity
  8
0
  6
HIDDEN
 62
     7
 48
2.75
370
     0
100
AcDbLine
 10
26.6753130861
 20
17.1630126147
 30
0.0
 11
27.0363130758
 21
17.1630126147
 31
0.0
  0
LINE
  5
3C7
330
1F
100
AcDbEntity
  8
0
  6
HIDDEN
 62
     7
 48
2.75
370
     0
100
AcDbLine
 10
19.3143131076
 20
17.1630126147
 30
0.0
 11
19.3143131076
 21
17.5240126044
 31
0.0
  0
LINE
  5
3C8
330
1F
100
AcDbEntity
  8
0
  6
HIDDEN
 62
     7
 48
2.75
370
     0
100
AcDbLine
 10
27.0363130758
 20
17.1630126147
 30
0.0
 11
27.0363130758
 21
17.5240126044
 31
0.0
  0
LINE
  5
3C9
330
1F
100
AcDbEntity
  8
0
  6
HIDDEN
 62
     7
 48
2.75
370
     0
100
AcDbLine
 10
26.6443130975
 20
9.6630126687
 30
0.0
 11
19.7063130859
 21
9.6630126687
 31
0.0
  0
LINE
  5
3CA
330
1F
100
AcDbEntity
  8
0
  6
HIDDEN
 62
     7
 48
2.75
370
     0
100
AcDbLine
 10
19.6753130973
 20
9.6630126687
 30
0.0
 11
19.3143131076
 21
9.6630126687
 31
0.0
  0
LINE
  5
3CB
330
1F
100
AcDbEntity
  8
0
  6
HIDDEN
 62
     7
 48
2.75
370
     0
100
AcDbLine
 10
26.6753130861
 20
9.6630126687
 30
0.0
 11
27.0363130758
 21
9.6630126687
 31
0.0
  0
LINE
  5
3CC
330
1F
100
AcDbEntity
  8
0
  6
HIDDEN
 62
     7
 48
2.75
370
     0
100
AcDbLine
 10
19.2993130942
 20
10.0390126718
 30
0.0
 11
19.2993130942
 21
9.6780126821
 31
0.0
  0
LINE
  5
3CD
330
1F
100
AcDbEntity
  8
0
  6
HIDDEN
 62
     7
 48
2.75
370
     0
100
AcDbLine
 10
19.2373131171
 20
10.0390126718
 30
0.0
 11
19.2993130942
 21
10.0390126718
 31
0.0
  0
LINE
  5
3CE
330
1F
100
AcDbEntity
  8
0
  6
HIDDEN
 62
     7
 48
2.75
370
     0
100
AcDbLine
 10
27.0513130891
 20
10.0390126718
 30
0.0
 11
27.0513130891
 21
9.6780126821
 31
0.0
  0
LINE
  5
3CF
330
1F
100
AcDbEntity
  8
0
  6
HIDDEN
 62
     7
 48
2.75
370
     0
100
AcDbLine
 10
27.1133130662
 20
10.0390126718
 30
0.0
 11
27.0513130891
 21
10.0390126718
 31
0.0
  0
ARC
  5
3D0
330
1F
100
AcDbEntity
  8
0
  6
HIDDEN
 62
     7
 48
7.5625
370
     0
100
AcDbCircle
 10
19.3143130917
 20
9.6780126433
 30
0.0
 40
0.0770000000000017
100
AcDbArc
 50
180.0
 51
270.0
  0
ARC
  5
3D1
330
1F
100
AcDbEntity
  8
0
  6
HIDDEN
 62
     7
 48
7.5625
370
     0
100
AcDbCircle
 10
19.3143130917
 20
9.6780126433
 30
0.0
 40
0.0150000000000006
100
AcDbArc
 50
180.0
 51
270.0
  0
ARC
  5
3D2
330
1F
100
AcDbEntity
  8
0
  6
HIDDEN
 62
     7
 48
7.5625
370
     0
100
AcDbCircle
 10
27.0363130917
 20
9.6780126433
 30
0.0
 40
0.077
100
AcDbArc
 50
270.0
 51
0.0
  0
ARC
  5
3D3
330
1F
100
AcDbEntity
  8
0
  6
HIDDEN
 62
     7
 48
7.5625
370
     0
100
AcDbCircle
 10
27.0363130917
 20
9.6780126433
 30
0.0
 40
0.0150000000000006
100
AcDbArc
 50
270.0
 51
0.0
  0
LINE
  5
3D4
330
1F
100
AcDbEntity
  8
0
  6
HIDDEN
 62
     7
 48
2.75
370
     0
100
AcDbLine
 10
27.0363130758
 20
9.6780126821
 30
0.0
 11
27.0363130758
 21
9.6630126687
 31
0.0
  0
LINE
  5
3D5
330
1F
100
AcDbEntity
  8
0
  6
HIDDEN
 62
     7
 48
2.75
370
     0
100
AcDbLine
 10
19.3143131076
 20
9.6780126821
 30
0.0
 11
19.3143131076
 21
9.6630126687
 31
0.0
  0
LINE
  5
3D6
330
1F
100
AcDbEntity
  8
0
  6
HIDDEN
 62
     7
 48
2.75
370
     0
100
AcDbLine
 10
19.3143131076
 20
9.6630126687
 30
0.0
 11
19.3143131076
 21
9.6010126916
 31
0.0
  0
LINE
  5
3D7
330
1F
100
AcDbEntity
  8
0
  6
HIDDEN
 62
     7
 48
2.75
370
     0
100
AcDbLine
 10
27.0363130758
 20
9.6630126687
 30
0.0
 11
27.0363130758
 21
9.6010126916
 31
0.0
  0
LINE
  5
3D8
330
1F
100
AcDbEntity
  8
0
  6
HIDDEN
 62
     7
 48
2.75
370
     0
100
AcDbLine
 10
27.0363130758
 20
10.0390126718
 30
0.0
 11
26.6753130861
 21
10.0390126718
 31
0.0
  0
LINE
  5
3D9
330
1F
100
AcDbEntity
  8
0
  6
HIDDEN
 62
     7
 48
2.75
370
     0
100
AcDbLine
 10
26.6443130975
 20
10.0390126718
 30
0.0
 11
19.7063130859
 21
10.0390126718
 31
0.0
  0
LINE
  5
3DA
330
1F
100
AcDbEntity
  8
0
  6
HIDDEN
 62
     7
 48
2.75
370
     0
100
AcDbLine
 10
19.6753130973
 20
10.0390126718
 30
0.0
 11
19.3143131076
 21
10.0390126718
 31
0.0
  0
LINE
  5
3DB
330
1F
100
AcDbEntity
  8
0
  6
HIDDEN
 62
     7
 48
2.75
370
     0
100
AcDbLine
 10
27.0363130758
 20
10.0390126718
 30
0.0
 11
27.0363130758
 21
9.6780126821
 31
0.0
  0
LINE
  5
3DC
330
1F
100
AcDbEntity
  8
0
  6
HIDDEN
 62
     7
 48
2.75
370
     0
100
AcDbLine
 10
19.3143131076
 20
10.0390126718
 30
0.0
 11
19.3143131076
 21
9.6780126821
 31
0.0
  0
LINE
  5
3DD
330
1F
100
AcDbEntity
  8
0
  6
HIDDEN
 62
     7
 48
2.75
370
     0
100
AcDbLine
 10
19.2373131171
 20
17.6010125949
 30
0.0
 11
19.2373131171
 21
9.6010126916
 31
0.0
  0
LINE
  5
3DE
330
1F
100
AcDbEntity
  8
0
  6
HIDDEN
 62
     7
 48
2.75
370
     0
100
AcDbLine
 10
27.1133130662
 20
17.6010125949
 30
0.0
 11
27.1133130662
 21
9.6010126916
 31
0.0
  0
CIRCLE
  5
3DF
330
1F
100
AcDbEntity
  8
0
  6
HIDDEN
 62
     7
 48
7.5625
370
     0
100
AcDbCircle
 10
21.1753130917
 20
15.6010126433
 30
0.0
 40
0.147000000000002
  0
ARC
  5
3E0
330
1F
100
AcDbEntity
  8
0
  6
HIDDEN
 62
     7
 48
7.5625
370
     0
100
AcDbCircle
 10
26.6753130917
 20
16.1010126433
 30
0.0
 40
0.1405000000000012
100
AcDbArc
 50
270.0
 51
90.0
  0
ARC
  5
3E1
330
1F
100
AcDbEntity
  8
0
  6
HIDDEN
 62
     7
 48
7.5625
370
     0
100
AcDbCircle
 10
19.6753130917
 20
16.1010126433
 30
0.0
 40
0.1405000000000012
100
AcDbArc
 50
90.0
 51
270.0
  0
ARC
  5
3E2
330
1F
100
AcDbEntity
  8
0
  6
HIDDEN
 62
     7
 48
7.5625
370
     0
100
AcDbCircle
 10
19.6753130917
 20
11.1010126433
 30
0.0
 40
0.1404999999999994
100
AcDbArc
 50
90.0
 51
180.0
  0
ARC
  5
3E3
330
1F
100
AcDbEntity
  8
0
  6
HIDDEN
 62
     7
 48
7.5625
370
     0
100
AcDbCircle
 10
19.6753130917
 20
11.1010126433
 30
0.0
 40
0.1405000000000012
100
AcDbArc
 50
180.0
 51
270.0
  0
ARC
  5
3E4
330
1F
100
AcDbEntity
  8
0
  6
HIDDEN
 62
     7
 48
7.5625
370
     0
100
AcDbCircle
 10
26.6753130917
 20
11.1010126433
 30
0.0
 40
0.1405000000000012
100
AcDbArc
 50
270.0
 51
0.0
  0
ARC
  5
3E5
330
1F
100
AcDbEntity
  8
0
  6
HIDDEN
 62
     7
 48
7.5625
370
     0
100
AcDbCircle
 10
26.6753130917
 20
11.1010126433
 30
0.0
 40
0.1404999999999994
100
AcDbArc
 50
0.0
 51
90.0
  0
CIRCLE
  5
3E6
330
1F
100
AcDbEntity
  8
0
  6
HIDDEN
 62
     7
 48
7.5625
370
     0
100
AcDbCircle
 10
21.1753130917
 20
15.6010126433
 30
0.0
 40
0.6249999999999982
  0
DIMENSION
  5
3E7
330
1F
100
AcDbEntity
  8
0
  6
Continuous
 62
     7
 48
2.75
370
     0
100
AcDbDimension
  2
*D14
 10
27.1753130917
 20
16.5614288171
 30
0.0
 11
28.7626552545
 21
16.5614288171
 31
0.0
 70
   160
 71
     2
 42
-1.0
  3
SLDDIMSTYLE3
100
AcDbAlignedDimension
 13
26.6753130917
 23
17.6010126433
 33
0.0
 14
27.1753130917
 24
17.6010126433
 34
0.0
100
AcDbRotatedDimension
  0
INSERT
  5
3FC
102
{ACAD_REACTORS
330
3FD
102
}
330
1F
100
AcDbEntity
  8
0
  6
Continuous
 62
     7
 48
2.75
370
     0
100
AcDbBlockReference
  2
SW_NOTE_5
 10
23.0869601903
 20
19.0469280326
 30
0.0
  0
LEADER
  5
3FD
330
1F
100
AcDbEntity
  8
0
  6
Continuous
 62
     7
 48
2.75
370
     0
100
AcDbLeader
  3
SLDDIMSTYLE1
 73
     2
 76
     3
 10
21.3835465519
 20
16.2078947366
 30
0.0
 10
22.3994601903
 20
19.0469280326
 30
0.0
 10
23.0869601903
 20
19.0469280326
 30
0.0
340
3FC
  0
MTEXT
  5
3FE
330
1F
100
AcDbEntity
  8
0
  6
Continuous
 62
     7
 48
2.75
370
     0
100
AcDbMText
 10
21.260962364
 20
8.9524597463
 30
0.0
 40
0.34375
 41
0.0
 71
     1
 72
     1
  1
\LCOVER REMOVED
  7
SLDTEXTSTYLE0
 73
     1
 44
1.0
  0
ENDSEC
  0
SECTION
  2
OBJECTS
  0
DICTIONARY
  5
C
330
0
100
AcDbDictionary
281
     1
  3
ACAD_GROUP
350
D
  3
ACAD_LAYOUT
350
1A
  3
ACAD_MATERIAL
350
3B
  3
ACAD_MLEADERSTYLE
350
401
  3
ACAD_MLINESTYLE
350
17
  3
ACAD_PLOTSETTINGS
350
19
  3
ACAD_PLOTSTYLENAME
350
E
  3
ACAD_SCALELIST
350
58
  3
ACAD_VISUALSTYLE
350
2A
  3
AcDbVariableDictionary
350
3FF
  0
DICTIONARY
  5
D
102
{ACAD_REACTORS
330
C
102
}
330
C
100
AcDbDictionary
281
     1
  0
DICTIONARY
  5
1A
102
{ACAD_REACTORS
330
C
102
}
330
C
100
AcDbDictionary
281
     1
  3
Layout1
350
1E
  3
Layout2
350
26
  3
Model
350
22
  0
DICTIONARY
  5
3B
102
{ACAD_REACTORS
330
C
102
}
330
C
100
AcDbDictionary
281
     1
  3
ByBlock
350
3D
  3
ByLayer
350
3C
  3
Global
350
3E
  0
DICTIONARY
  5
401
102
{ACAD_REACTORS
330
C
102
}
330
C
100
AcDbDictionary
281
     1
  0
DICTIONARY
  5
17
102
{ACAD_REACTORS
330
C
102
}
330
C
100
AcDbDictionary
281
     1
  3
Standard
350
18
  0
DICTIONARY
  5
19
102
{ACAD_REACTORS
330
C
102
}
330
C
100
AcDbDictionary
281
     1
  0
ACDBDICTIONARYWDFLT
  5
E
102
{ACAD_REACTORS
330
C
102
}
330
C
100
AcDbDictionary
281
     1
  3
Normal
350
F
100
AcDbDictionaryWithDefault
340
F
  0
DICTIONARY
  5
58
102
{ACAD_REACTORS
330
C
102
}
330
C
100
AcDbDictionary
281
     1
  3
A0
350
59
  3
A1
350
5A
  3
A2
350
5B
  3
A3
350
5C
  3
A4
350
5D
  3
A5
350
5E
  3
A6
350
5F
  3
A7
350
60
  3
A8
350
61
  3
A9
350
62
  3
B0
350
63
  3
B1
350
64
  3
B2
350
65
  3
B3
350
66
  3
B4
350
67
  3
B5
350
68
  3
B6
350
69
  3
B7
350
6A
  3
B8
350
6B
  3
B9
350
6C
  3
C0
350
6D
  3
C1
350
6E
  3
C2
350
6F
  3
C3
350
70
  3
C4
350
71
  3
C5
350
72
  3
C6
350
73
  3
C7
350
74
  3
C8
350
75
  3
C9
350
76
  3
D0
350
77
  3
D1
350
78
  3
D2
350
79
  0
DICTIONARY
  5
2A
102
{ACAD_REACTORS
330
C
102
}
330
C
100
AcDbDictionary
281
     1
  3
2dWireframe
350
2F
  3
3D Hidden
350
31
  3
3dWireframe
350
30
  3
Basic
350
32
  3
Brighten
350
36
  3
ColorChange
350
3A
  3
Conceptual
350
34
  3
Dim
350
35
  3
Facepattern
350
39
  3
Flat
350
2B
  3
FlatWithEdges
350
2C
  3
Gouraud
350
2D
  3
GouraudWithEdges
350
2E
  3
Linepattern
350
38
  3
Realistic
350
33
  3
Thicken
350
37
  0
DICTIONARY
  5
3FF
102
{ACAD_REACTORS
330
C
102
}
330
C
100
AcDbDictionary
281
     1
  3
CANNOSCALE
350
402
  3
DIMASSOC
350
403
  3
HIDETEXT
350
404
  0
LAYOUT
  5
1E
102
{ACAD_REACTORS
330
1A
102
}
330
1A
100
AcDbPlotSettings
  1

  2
none_device
  4

  6

 40
0.0
 41
0.0
 42
0.0
 43
0.0
 44
0.0
 45
0.0
 46
0.0
 47
0.0
 48
0.0
 49
0.0
140
0.0
141
0.0
142
1.0
143
1.0
 70
   688
 72
     0
 73
     0
 74
     5
  7

 75
    16
147
1.0
148
0.0
149
0.0
100
AcDbLayout
  1
Layout1
 70
     1
 71
     1
 10
0.0
 20
0.0
 11
12.0
 21
9.0
 12
0.0
 22
0.0
 32
0.0
 14
1.0000000000E+20
 24
1.0000000000E+20
 34
1.0000000000E+20
 15
-1.0000000000E+20
 25
-1.0000000000E+20
 35
-1.0000000000E+20
146
0.0
 13
0.0
 23
0.0
 33
0.0
 16
1.0
 26
0.0
 36
0.0
 17
0.0
 27
1.0
 37
0.0
 76
     0
330
1B
  0
LAYOUT
  5
26
102
{ACAD_REACTORS
330
1A
102
}
330
1A
100
AcDbPlotSettings
  1

  2
none_device
  4

  6

 40
0.0
 41
0.0
 42
0.0
 43
0.0
 44
0.0
 45
0.0
 46
0.0
 47
0.0
 48
0.0
 49
0.0
140
0.0
141
0.0
142
1.0
143
1.0
 70
   688
 72
     0
 73
     0
 74
     5
  7

 75
    16
147
1.0
148
0.0
149
0.0
100
AcDbLayout
  1
Layout2
 70
     1
 71
     2
 10
0.0
 20
0.0
 11
0.0
 21
0.0
 12
0.0
 22
0.0
 32
0.0
 14
0.0
 24
0.0
 34
0.0
 15
0.0
 25
0.0
 35
0.0
146
0.0
 13
0.0
 23
0.0
 33
0.0
 16
1.0
 26
0.0
 36
0.0
 17
0.0
 27
1.0
 37
0.0
 76
     0
330
23
  0
LAYOUT
  5
22
102
{ACAD_REACTORS
330
1A
102
}
330
1A
100
AcDbPlotSettings
  1

  2
none_device
  4

  6

 40
0.0
 41
0.0
 42
0.0
 43
0.0
 44
0.0
 45
0.0
 46
0.0
 47
0.0
 48
0.0
 49
0.0
140
0.0
141
0.0
142
1.0
143
1.0
 70
  1712
 72
     0
 73
     0
 74
     0
  7

 75
     0
147
1.0
148
0.0
149
0.0
100
AcDbLayout
  1
Model
 70
     1
 71
     0
 10
0.0
 20
0.0
 11
46.75
 21
30.25
 12
0.0
 22
0.0
 32
0.0
 14
0.0
 24
0.0
 34
0.0
 15
46.75
 25
30.25
 35
0.0
146
0.0
 13
0.0
 23
0.0
 33
0.0
 16
1.0
 26
0.0
 36
0.0
 17
0.0
 27
1.0
 37
0.0
 76
     0
330
1F
331
29
  0
MATERIAL
  5
3D
102
{ACAD_REACTORS
330
3B
102
}
102
{ACAD_XDICTIONARY
360
427
102
}
330
3B
100
AcDbMaterial
  1
ByBlock
  0
MATERIAL
  5
3C
102
{ACAD_REACTORS
330
3B
102
}
102
{ACAD_XDICTIONARY
360
425
102
}
330
3B
100
AcDbMaterial
  1
ByLayer
  0
MATERIAL
  5
3E
102
{ACAD_REACTORS
330
3B
102
}
102
{ACAD_XDICTIONARY
360
429
102
}
330
3B
100
AcDbMaterial
  1
Global
  0
MLINESTYLE
  5
18
102
{ACAD_REACTORS
330
17
102
}
330
17
100
AcDbMlineStyle
  2
Standard
 70
     0
  3

 62
   256
 51
90.0
 52
90.0
 71
     2
 49
0.5
 62
   256
  6
BYLAYER
 49
-0.5
 62
   256
  6
BYLAYER
  0
ACDBPLACEHOLDER
  5
F
102
{ACAD_REACTORS
330
E
102
}
330
E
  0
SCALE
  5
59
102
{ACAD_REACTORS
330
58
102
}
330
58
100
AcDbScale
 70
     0
300
1:1
140
1.0
141
1.0
290
     1
  0
SCALE
  5
5A
102
{ACAD_REACTORS
330
58
102
}
330
58
100
AcDbScale
 70
     0
300
1:2
140
1.0
141
2.0
290
     0
  0
SCALE
  5
5B
102
{ACAD_REACTORS
330
58
102
}
330
58
100
AcDbScale
 70
     0
300
1:4
140
1.0
141
4.0
290
     0
  0
SCALE
  5
5C
102
{ACAD_REACTORS
330
58
102
}
330
58
100
AcDbScale
 70
     0
300
1:5
140
1.0
141
5.0
290
     0
  0
SCALE
  5
5D
102
{ACAD_REACTORS
330
58
102
}
330
58
100
AcDbScale
 70
     0
300
1:8
140
1.0
141
8.0
290
     0
  0
SCALE
  5
5E
102
{ACAD_REACTORS
330
58
102
}
330
58
100
AcDbScale
 70
     0
300
1:10
140
1.0
141
10.0
290
     0
  0
SCALE
  5
5F
102
{ACAD_REACTORS
330
58
102
}
330
58
100
AcDbScale
 70
     0
300
1:16
140
1.0
141
16.0
290
     0
  0
SCALE
  5
60
102
{ACAD_REACTORS
330
58
102
}
330
58
100
AcDbScale
 70
     0
300
1:20
140
1.0
141
20.0
290
     0
  0
SCALE
  5
61
102
{ACAD_REACTORS
330
58
102
}
330
58
100
AcDbScale
 70
     0
300
1:30
140
1.0
141
30.0
290
     0
  0
SCALE
  5
62
102
{ACAD_REACTORS
330
58
102
}
330
58
100
AcDbScale
 70
     0
300
1:40
140
1.0
141
40.0
290
     0
  0
SCALE
  5
63
102
{ACAD_REACTORS
330
58
102
}
330
58
100
AcDbScale
 70
     0
300
1:50
140
1.0
141
50.0
290
     0
  0
SCALE
  5
64
102
{ACAD_REACTORS
330
58
102
}
330
58
100
AcDbScale
 70
     0
300
1:100
140
1.0
141
100.0
290
     0
  0
SCALE
  5
65
102
{ACAD_REACTORS
330
58
102
}
330
58
100
AcDbScale
 70
     0
300
2:1
140
2.0
141
1.0
290
     0
  0
SCALE
  5
66
102
{ACAD_REACTORS
330
58
102
}
330
58
100
AcDbScale
 70
     0
300
4:1
140
4.0
141
1.0
290
     0
  0
SCALE
  5
67
102
{ACAD_REACTORS
330
58
102
}
330
58
100
AcDbScale
 70
     0
300
8:1
140
8.0
141
1.0
290
     0
  0
SCALE
  5
68
102
{ACAD_REACTORS
330
58
102
}
330
58
100
AcDbScale
 70
     0
300
10:1
140
10.0
141
1.0
290
     0
  0
SCALE
  5
69
102
{ACAD_REACTORS
330
58
102
}
330
58
100
AcDbScale
 70
     0
300
100:1
140
100.0
141
1.0
290
     0
  0
SCALE
  5
6A
102
{ACAD_REACTORS
330
58
102
}
330
58
100
AcDbScale
 70
     0
300
1/128" = 1'-0"
140
0.0078125
141
12.0
290
     0
  0
SCALE
  5
6B
102
{ACAD_REACTORS
330
58
102
}
330
58
100
AcDbScale
 70
     0
300
1/64" = 1'-0"
140
0.015625
141
12.0
290
     0
  0
SCALE
  5
6C
102
{ACAD_REACTORS
330
58
102
}
330
58
100
AcDbScale
 70
     0
300
1/32" = 1'-0"
140
0.03125
141
12.0
290
     0
  0
SCALE
  5
6D
102
{ACAD_REACTORS
330
58
102
}
330
58
100
AcDbScale
 70
     0
300
1/16" = 1'-0"
140
0.0625
141
12.0
290
     0
  0
SCALE
  5
6E
102
{ACAD_REACTORS
330
58
102
}
330
58
100
AcDbScale
 70
     0
300
3/32" = 1'-0"
140
0.09375
141
12.0
290
     0
  0
SCALE
  5
6F
102
{ACAD_REACTORS
330
58
102
}
330
58
100
AcDbScale
 70
     0
300
1/8" = 1'-0"
140
0.125
141
12.0
290
     0
  0
SCALE
  5
70
102
{ACAD_REACTORS
330
58
102
}
330
58
100
AcDbScale
 70
     0
300
3/16" = 1'-0"
140
0.1875
141
12.0
290
     0
  0
SCALE
  5
71
102
{ACAD_REACTORS
330
58
102
}
330
58
100
AcDbScale
 70
     0
300
1/4" = 1'-0"
140
0.25
141
12.0
290
     0
  0
SCALE
  5
72
102
{ACAD_REACTORS
330
58
102
}
330
58
100
AcDbScale
 70
     0
300
3/8" = 1'-0"
140
0.375
141
12.0
290
     0
  0
SCALE
  5
73
102
{ACAD_REACTORS
330
58
102
}
330
58
100
AcDbScale
 70
     0
300
1/2" = 1'-0"
140
0.5
141
12.0
290
     0
  0
SCALE
  5
74
102
{ACAD_REACTORS
330
58
102
}
330
58
100
AcDbScale
 70
     0
300
3/4" = 1'-0"
140
0.75
141
12.0
290
     0
  0
SCALE
  5
75
102
{ACAD_REACTORS
330
58
102
}
330
58
100
AcDbScale
 70
     0
300
1" = 1'-0"
140
1.0
141
12.0
290
     0
  0
SCALE
  5
76
102
{ACAD_REACTORS
330
58
102
}
330
58
100
AcDbScale
 70
     0
300
1-1/2" = 1'-0"
140
1.5
141
12.0
290
     0
  0
SCALE
  5
77
102
{ACAD_REACTORS
330
58
102
}
330
58
100
AcDbScale
 70
     0
300
3" = 1'-0"
140
3.0
141
12.0
290
     0
  0
SCALE
  5
78
102
{ACAD_REACTORS
330
58
102
}
330
58
100
AcDbScale
 70
     0
300
6" = 1'-0"
140
6.0
141
12.0
290
     0
  0
SCALE
  5
79
102
{ACAD_REACTORS
330
58
102
}
330
58
100
AcDbScale
 70
     0
300
1'-0" = 1'-0"
140
12.0
141
12.0
290
     0
  0
VISUALSTYLE
  5
2F
102
{ACAD_REACTORS
330
2A
102
}
102
{ACAD_XDICTIONARY
360
40D
102
}
330
2A
100
AcDbVisualStyle
  2
2dWireframe
 70
     4
 71
     0
 72
     2
 73
     0
 90
        0
 40
-0.6
 41
-30.0
 62
     5
 63
     7
 74
     1
 91
        4
 64
     7
 65
   257
 75
     1
175
     1
 42
1.0
 92
        0
 66
   257
 43
1.0
 76
     1
 77
     6
 78
     2
 67
     7
 79
     5
170
     0
171
     0
290
     0
174
     0
 93
        1
 44
0.0
173
     0
291
     0
 45
0.0
1001
ACAD
1000
AcDbSavedByObjectVersion
1070
     0
  0
VISUALSTYLE
  5
31
102
{ACAD_REACTORS
330
2A
102
}
102
{ACAD_XDICTIONARY
360
411
102
}
330
2A
100
AcDbVisualStyle
  2
3D Hidden
 70
     6
 71
     1
 72
     2
 73
     2
 90
        0
 40
-0.6
 41
-30.0
 62
     5
 63
     7
 74
     2
 91
        2
 64
     7
 65
   257
 75
     2
175
     1
 42
40.0
 92
        0
 66
   257
 43
1.0
 76
     1
 77
     6
 78
     2
 67
     7
 79
     3
170
     0
171
     0
290
     0
174
     0
 93
        1
 44
0.0
173
     0
291
     0
 45
0.0
1001
ACAD
1000
AcDbSavedByObjectVersion
1070
     0
  0
VISUALSTYLE
  5
30
102
{ACAD_REACTORS
330
2A
102
}
102
{ACAD_XDICTIONARY
360
40F
102
}
330
2A
100
AcDbVisualStyle
  2
3dWireframe
 70
     5
 71
     0
 72
     2
 73
     0
 90
        0
 40
-0.6
 41
-30.0
 62
     5
 63
     7
 74
     1
 91
        4
 64
     7
 65
   257
 75
     1
175
     1
 42
1.0
 92
        0
 66
   257
 43
1.0
 76
     1
 77
     6
 78
     2
 67
     7
 79
     5
170
     0
171
     0
290
     0
174
     0
 93
        1
 44
0.0
173
     0
291
     0
 45
0.0
1001
ACAD
1000
AcDbSavedByObjectVersion
1070
     0
  0
VISUALSTYLE
  5
32
102
{ACAD_REACTORS
330
2A
102
}
102
{ACAD_XDICTIONARY
360
413
102
}
330
2A
100
AcDbVisualStyle
  2
Basic
 70
     7
 71
     1
 72
     0
 73
     1
 90
        0
 40
-0.6
 41
-30.0
 62
     5
 63
     7
 74
     0
 91
        4
 64
     7
 65
   257
 75
     1
175
     1
 42
1.0
 92
        8
 66
     7
 43
1.0
 76
     1
 77
     6
 78
     2
 67
     7
 79
     5
170
     0
171
     0
290
     0
174
     0
 93
        1
 44
0.0
173
     0
291
     1
 45
0.0
1001
ACAD
1000
AcDbSavedByObjectVersion
1070
     0
  0
VISUALSTYLE
  5
36
102
{ACAD_REACTORS
330
2A
102
}
102
{ACAD_XDICTIONARY
360
41B
102
}
330
2A
100
AcDbVisualStyle
  2
Brighten
 70
    12
 71
     2
 72
     2
 73
     0
 90
        0
 40
-0.6
 41
-30.0
 62
     5
 63
     7
 74
     1
 91
        4
 64
     7
 65
   257
 75
     1
175
     1
 42
1.0
 92
        8
 66
     7
 43
1.0
 76
     1
 77
     6
 78
     2
 67
     7
 79
     5
170
     0
171
     0
290
     0
174
     0
 93
        1
 44
50.0
173
     0
291
     1
 45
0.0
1001
ACAD
1000
AcDbSavedByObjectVersion
1070
     0
  0
VISUALSTYLE
  5
3A
102
{ACAD_REACTORS
330
2A
102
}
102
{ACAD_XDICTIONARY
360
423
102
}
330
2A
100
AcDbVisualStyle
  2
ColorChange
 70
    16
 71
     2
 72
     2
 73
     3
 90
        0
 40
-0.6
 41
-30.0
 62
     5
 63
     8
 74
     1
 91
        4
 64
     7
 65
   257
 75
     1
175
     1
 42
1.0
 92
        8
 66
     8
 43
1.0
 76
     1
 77
     6
 78
     2
 67
     7
 79
     5
170
     0
171
     0
290
     0
174
     0
 93
        1
 44
0.0
173
     0
291
     1
 45
0.0
1001
ACAD
1000
AcDbSavedByObjectVersion
1070
     0
  0
VISUALSTYLE
  5
34
102
{ACAD_REACTORS
330
2A
102
}
102
{ACAD_XDICTIONARY
360
417
102
}
330
2A
100
AcDbVisualStyle
  2
Conceptual
 70
     9
 71
     3
 72
     2
 73
     0
 90
        0
 40
-0.6
 41
-30.0
 62
     5
 63
     7
 74
     2
 91
        2
 64
     7
 65
   257
 75
     1
175
     1
 42
40.0
 92
        8
 66
     7
 43
1.0
 76
     1
 77
     6
 78
     2
 67
     7
 79
     3
170
     0
171
     0
290
     0
174
     0
 93
        1
 44
0.0
173
     0
291
     0
 45
0.0
1001
ACAD
1000
AcDbSavedByObjectVersion
1070
     0
  0
VISUALSTYLE
  5
35
102
{ACAD_REACTORS
330
2A
102
}
102
{ACAD_XDICTIONARY
360
419
102
}
330
2A
100
AcDbVisualStyle
  2
Dim
 70
    11
 71
     2
 72
     2
 73
     0
 90
        0
 40
-0.6
 41
-30.0
 62
     5
 63
     7
 74
     1
 91
        4
 64
     7
 65
   257
 75
     1
175
     1
 42
1.0
 92
        8
 66
     7
 43
1.0
 76
     1
 77
     6
 78
     2
 67
     7
 79
     5
170
     0
171
     0
290
     0
174
     0
 93
        1
 44
-50.0
173
     0
291
     1
 45
0.0
1001
ACAD
1000
AcDbSavedByObjectVersion
1070
     0
  0
VISUALSTYLE
  5
39
102
{ACAD_REACTORS
330
2A
102
}
102
{ACAD_XDICTIONARY
360
421
102
}
330
2A
100
AcDbVisualStyle
  2
Facepattern
 70
    15
 71
     2
 72
     2
 73
     0
 90
        0
 40
-0.6
 41
-30.0
 62
     5
 63
     7
 74
     1
 91
        4
 64
     7
 65
   257
 75
     1
175
     1
 42
1.0
 92
        8
 66
     7
 43
1.0
 76
     1
 77
     6
 78
     2
 67
     7
 79
     5
170
     0
171
     0
290
     0
174
     0
 93
        1
 44
0.0
173
     0
291
     1
 45
0.0
1001
ACAD
1000
AcDbSavedByObjectVersion
1070
     0
  0
VISUALSTYLE
  5
2B
102
{ACAD_REACTORS
330
2A
102
}
102
{ACAD_XDICTIONARY
360
405
102
}
330
2A
100
AcDbVisualStyle
  2
Flat
 70
     0
 71
     2
 72
     1
 73
     1
 90
        2
 40
-0.6
 41
30.0
 62
     5
 63
     7
 74
     0
 91
        4
 64
     7
 65
   257
 75
     1
175
     1
 42
1.0
 92
        8
 66
     7
 43
1.0
 76
     1
 77
     6
 78
     2
 67
     7
 79
     5
170
     0
171
     0
290
     0
174
     0
 93
       13
 44
0.0
173
     0
291
     1
 45
0.0
1001
ACAD
1000
AcDbSavedByObjectVersion
1070
     0
  0
VISUALSTYLE
  5
2C
102
{ACAD_REACTORS
330
2A
102
}
102
{ACAD_XDICTIONARY
360
407
102
}
330
2A
100
AcDbVisualStyle
  2
FlatWithEdges
 70
     1
 71
     2
 72
     1
 73
     1
 90
        2
 40
-0.6
 41
30.0
 62
     5
 63
     7
 74
     1
 91
        4
 64
     7
 65
   257
 75
     1
175
     1
 42
1.0
 92
        0
 66
   257
 43
1.0
 76
     1
 77
     6
 78
     2
 67
     7
 79
     5
170
     0
171
     0
290
     0
174
     0
 93
       13
 44
0.0
173
     0
291
     1
 45
0.0
1001
ACAD
1000
AcDbSavedByObjectVersion
1070
     0
  0
VISUALSTYLE
  5
2D
102
{ACAD_REACTORS
330
2A
102
}
102
{ACAD_XDICTIONARY
360
409
102
}
330
2A
100
AcDbVisualStyle
  2
Gouraud
 70
     2
 71
     2
 72
     2
 73
     1
 90
        2
 40
-0.6
 41
30.0
 62
     5
 63
     7
 74
     0
 91
        4
 64
     7
 65
   257
 75
     1
175
     1
 42
1.0
 92
        0
 66
     7
 43
1.0
 76
     1
 77
     6
 78
     2
 67
     7
 79
     5
170
     0
171
     0
290
     0
174
     0
 93
       13
 44
0.0
173
     0
291
     1
 45
0.0
1001
ACAD
1000
AcDbSavedByObjectVersion
1070
     0
  0
VISUALSTYLE
  5
2E
102
{ACAD_REACTORS
330
2A
102
}
102
{ACAD_XDICTIONARY
360
40B
102
}
330
2A
100
AcDbVisualStyle
  2
GouraudWithEdges
 70
     3
 71
     2
 72
     2
 73
     1
 90
        2
 40
-0.6
 41
30.0
 62
     5
 63
     7
 74
     1
 91
        4
 64
     7
 65
   257
 75
     1
175
     1
 42
1.0
 92
        0
 66
   257
 43
1.0
 76
     1
 77
     6
 78
     2
 67
     7
 79
     5
170
     0
171
     0
290
     0
174
     0
 93
       13
 44
0.0
173
     0
291
     1
 45
0.0
1001
ACAD
1000
AcDbSavedByObjectVersion
1070
     0
  0
VISUALSTYLE
  5
38
102
{ACAD_REACTORS
330
2A
102
}
102
{ACAD_XDICTIONARY
360
41F
102
}
330
2A
100
AcDbVisualStyle
  2
Linepattern
 70
    14
 71
     2
 72
     2
 73
     0
 90
        0
 40
-0.6
 41
-30.0
 62
     5
 63
     7
 74
     1
 91
        4
 64
     7
 65
   257
 75
     7
175
     7
 42
1.0
 92
        8
 66
     7
 43
1.0
 76
     1
 77
     6
 78
     2
 67
     7
 79
     5
170
     0
171
     0
290
     0
174
     0
 93
        1
 44
0.0
173
     0
291
     1
 45
0.0
1001
ACAD
1000
AcDbSavedByObjectVersion
1070
     0
  0
VISUALSTYLE
  5
33
102
{ACAD_REACTORS
330
2A
102
}
102
{ACAD_XDICTIONARY
360
415
102
}
330
2A
100
AcDbVisualStyle
  2
Realistic
 70
     8
 71
     2
 72
     2
 73
     0
 90
        0
 40
-0.6
 41
-30.0
 62
     5
 63
     7
 74
     1
 91
        0
 64
     7
 65
   257
 75
     1
175
     1
 42
1.0
 92
        8
 66
     8
 43
1.0
 76
     1
 77
     6
 78
     2
 67
     7
 79
     5
170
     0
171
     0
290
     0
174
     0
 93
       13
 44
0.0
173
     0
291
     0
 45
0.0
1001
ACAD
1000
AcDbSavedByObjectVersion
1070
     0
  0
VISUALSTYLE
  5
37
102
{ACAD_REACTORS
330
2A
102
}
102
{ACAD_XDICTIONARY
360
41D
102
}
330
2A
100
AcDbVisualStyle
  2
Thicken
 70
    13
 71
     2
 72
     2
 73
     0
 90
        0
 40
-0.6
 41
-30.0
 62
     5
 63
     7
 74
     1
 91
        4
 64
     7
 65
   257
 75
     1
175
     1
 42
1.0
 92
       12
 66
     7
 43
1.0
 76
     1
 77
     6
 78
     2
 67
     7
 79
     5
170
     0
171
     0
290
     0
174
     0
 93
        1
 44
0.0
173
     0
291
     1
 45
0.0
1001
ACAD
1000
AcDbSavedByObjectVersion
1070
     0
  0
DICTIONARYVAR
  5
402
102
{ACAD_REACTORS
330
3FF
102
}
330
3FF
100
DictionaryVariables
280
     0
  1
1:1
  0
DICTIONARYVAR
  5
403
102
{ACAD_REACTORS
330
3FF
102
}
330
3FF
100
DictionaryVariables
280
     0
  1
2
  0
DICTIONARYVAR
  5
404
102
{ACAD_REACTORS
330
3FF
102
}
330
3FF
100
DictionaryVariables
280
     0
  1
1
  0
DICTIONARY
  5
427
330
3D
100
AcDbDictionary
280
     1
281
     1
  3
ACAD_XREC_ROUNDTRIP
360
428
  0
DICTIONARY
  5
425
330
3C
100
AcDbDictionary
280
     1
281
     1
  3
ACAD_XREC_ROUNDTRIP
360
426
  0
DICTIONARY
  5
429
330
3E
100
AcDbDictionary
280
     1
281
     1
  3
ACAD_XREC_ROUNDTRIP
360
42A
  0
DICTIONARY
  5
40D
330
2F
100
AcDbDictionary
280
     1
281
     1
  3
ACAD_XREC_ROUNDTRIP
360
40E
  0
DICTIONARY
  5
411
330
31
100
AcDbDictionary
280
     1
281
     1
  3
ACAD_XREC_ROUNDTRIP
360
412
  0
DICTIONARY
  5
40F
330
30
100
AcDbDictionary
280
     1
281
     1
  3
ACAD_XREC_ROUNDTRIP
360
410
  0
DICTIONARY
  5
413
330
32
100
AcDbDictionary
280
     1
281
     1
  3
ACAD_XREC_ROUNDTRIP
360
414
  0
DICTIONARY
  5
41B
330
36
100
AcDbDictionary
280
     1
281
     1
  3
ACAD_XREC_ROUNDTRIP
360
41C
  0
DICTIONARY
  5
423
330
3A
100
AcDbDictionary
280
     1
281
     1
  3
ACAD_XREC_ROUNDTRIP
360
424
  0
DICTIONARY
  5
417
330
34
100
AcDbDictionary
280
     1
281
     1
  3
ACAD_XREC_ROUNDTRIP
360
418
  0
DICTIONARY
  5
419
330
35
100
AcDbDictionary
280
     1
281
     1
  3
ACAD_XREC_ROUNDTRIP
360
41A
  0
DICTIONARY
  5
421
330
39
100
AcDbDictionary
280
     1
281
     1
  3
ACAD_XREC_ROUNDTRIP
360
422
  0
DICTIONARY
  5
405
330
2B
100
AcDbDictionary
280
     1
281
     1
  3
ACAD_XREC_ROUNDTRIP
360
406
  0
DICTIONARY
  5
407
330
2C
100
AcDbDictionary
280
     1
281
     1
  3
ACAD_XREC_ROUNDTRIP
360
408
  0
DICTIONARY
  5
409
330
2D
100
AcDbDictionary
280
     1
281
     1
  3
ACAD_XREC_ROUNDTRIP
360
40A
  0
DICTIONARY
  5
40B
330
2E
100
AcDbDictionary
280
     1
281
     1
  3
ACAD_XREC_ROUNDTRIP
360
40C
  0
DICTIONARY
  5
41F
330
38
100
AcDbDictionary
280
     1
281
     1
  3
ACAD_XREC_ROUNDTRIP
360
420
  0
DICTIONARY
  5
415
330
33
100
AcDbDictionary
280
     1
281
     1
  3
ACAD_XREC_ROUNDTRIP
360
416
  0
DICTIONARY
  5
41D
330
37
100
AcDbDictionary
280
     1
281
     1
  3
ACAD_XREC_ROUNDTRIP
360
41E
  0
XRECORD
  5
428
102
{ACAD_REACTORS
330
427
102
}
330
427
100
AcDbXrecord
280
     1
102
MATERIAL
148
0.0
149
0.0
149
0.0
 93
        0
 94
      127
282
     0
 72
     1
 77
     1
171
     1
175
     1
179
     1
273
     0
  0
XRECORD
  5
426
102
{ACAD_REACTORS
330
425
102
}
330
425
100
AcDbXrecord
280
     1
102
MATERIAL
148
0.0
149
0.0
149
0.0
 93
        0
 94
      127
282
     0
 72
     1
 77
     1
171
     1
175
     1
179
     1
273
     0
  0
XRECORD
  5
42A
102
{ACAD_REACTORS
330
429
102
}
330
429
100
AcDbXrecord
280
     1
102
MATERIAL
148
0.0
149
0.0
149
0.0
 93
        0
 94
      127
282
     0
 72
     1
 77
     1
171
     1
175
     1
179
     1
273
     0
  0
XRECORD
  5
40E
102
{ACAD_REACTORS
330
40D
102
}
330
40D
100
AcDbXrecord
280
     1
102
RTVSPropertyOp0
 70
     1
102
RTVSPropertyOp1
 70
     1
102
RTVSPropertyOp2
 70
     1
102
RTVSPropertyOp3
 70
     1
102
RTVSPropertyOp4
 70
     1
102
RTVSPropertyOp5
 70
     1
102
RTVSPropertyOp6
 70
     1
102
RTVSPropertyOp7
 70
     1
102
RTVSPropertyOp8
 70
     1
102
RTVSPropertyOp9
 70
     1
102
RTVSPropertyOp10
 70
     1
102
RTVSPropertyOp11
 70
     1
102
RTVSPropertyOp12
 70
     1
102
RTVSPropertyOp13
 70
     1
102
RTVSPropertyOp14
 70
     1
102
RTVSPropertyOp15
 70
     1
102
RTVSPropertyOp16
 70
     1
102
RTVSPropertyOp17
 70
     1
102
RTVSPropertyOp18
 70
     1
102
RTVSPropertyOp19
 70
     1
102
RTVSPropertyOp20
 70
     1
102
RTVSPropertyOp21
 70
     1
102
RTVSPropertyOp22
 70
     1
102
RTVSPropertyOp23
 70
     1
102
RTVSPropertyOp24
 70
     1
102
RTVSPropertyOp25
 70
     1
102
RTVSPropertyOp26
 70
     1
102
RTVSPropertyOp27
 70
     1
  0
XRECORD
  5
412
102
{ACAD_REACTORS
330
411
102
}
330
411
100
AcDbXrecord
280
     1
102
RTVSPropertyOp0
 70
     1
102
RTVSPropertyOp1
 70
     1
102
RTVSPropertyOp2
 70
     1
102
RTVSPropertyOp3
 70
     1
102
RTVSPropertyOp4
 70
     1
102
RTVSPropertyOp5
 70
     1
102
RTVSPropertyOp6
 70
     1
102
RTVSPropertyOp7
 70
     1
102
RTVSPropertyOp8
 70
     1
102
RTVSPropertyOp9
 70
     1
102
RTVSPropertyOp10
 70
     1
102
RTVSPropertyOp11
 70
     1
102
RTVSPropertyOp12
 70
     1
102
RTVSPropertyOp13
 70
     1
102
RTVSPropertyOp14
 70
     1
102
RTVSPropertyOp15
 70
     1
102
RTVSPropertyOp16
 70
     1
102
RTVSPropertyOp17
 70
     1
102
RTVSPropertyOp18
 70
     1
102
RTVSPropertyOp19
 70
     1
102
RTVSPropertyOp20
 70
     1
102
RTVSPropertyOp21
 70
     1
102
RTVSPropertyOp22
 70
     1
102
RTVSPropertyOp23
 70
     1
102
RTVSPropertyOp24
 70
     1
102
RTVSPropertyOp25
 70
     1
102
RTVSPropertyOp26
 70
     1
102
RTVSPropertyOp27
 70
     1
  0
XRECORD
  5
410
102
{ACAD_REACTORS
330
40F
102
}
330
40F
100
AcDbXrecord
280
     1
102
RTVSPropertyOp0
 70
     1
102
RTVSPropertyOp1
 70
     1
102
RTVSPropertyOp2
 70
     1
102
RTVSPropertyOp3
 70
     1
102
RTVSPropertyOp4
 70
     1
102
RTVSPropertyOp5
 70
     1
102
RTVSPropertyOp6
 70
     1
102
RTVSPropertyOp7
 70
     1
102
RTVSPropertyOp8
 70
     1
102
RTVSPropertyOp9
 70
     1
102
RTVSPropertyOp10
 70
     1
102
RTVSPropertyOp11
 70
     1
102
RTVSPropertyOp12
 70
     1
102
RTVSPropertyOp13
 70
     1
102
RTVSPropertyOp14
 70
     1
102
RTVSPropertyOp15
 70
     1
102
RTVSPropertyOp16
 70
     1
102
RTVSPropertyOp17
 70
     1
102
RTVSPropertyOp18
 70
     1
102
RTVSPropertyOp19
 70
     1
102
RTVSPropertyOp20
 70
     1
102
RTVSPropertyOp21
 70
     1
102
RTVSPropertyOp22
 70
     1
102
RTVSPropertyOp23
 70
     1
102
RTVSPropertyOp24
 70
     1
102
RTVSPropertyOp25
 70
     1
102
RTVSPropertyOp26
 70
     1
102
RTVSPropertyOp27
 70
     1
  0
XRECORD
  5
414
102
{ACAD_REACTORS
330
413
102
}
330
413
100
AcDbXrecord
280
     1
102
RTVSPropertyOp0
 70
     1
102
RTVSPropertyOp1
 70
     1
102
RTVSPropertyOp2
 70
     1
102
RTVSPropertyOp3
 70
     1
102
RTVSPropertyOp4
 70
     1
102
RTVSPropertyOp5
 70
     1
102
RTVSPropertyOp6
 70
     1
102
RTVSPropertyOp7
 70
     1
102
RTVSPropertyOp8
 70
     1
102
RTVSPropertyOp9
 70
     1
102
RTVSPropertyOp10
 70
     1
102
RTVSPropertyOp11
 70
     1
102
RTVSPropertyOp12
 70
     1
102
RTVSPropertyOp13
 70
     1
102
RTVSPropertyOp14
 70
     1
102
RTVSPropertyOp15
 70
     1
102
RTVSPropertyOp16
 70
     1
102
RTVSPropertyOp17
 70
     1
102
RTVSPropertyOp18
 70
     1
102
RTVSPropertyOp19
 70
     1
102
RTVSPropertyOp20
 70
     1
102
RTVSPropertyOp21
 70
     1
102
RTVSPropertyOp22
 70
     1
102
RTVSPropertyOp23
 70
     1
102
RTVSPropertyOp24
 70
     1
102
RTVSPropertyOp25
 70
     1
102
RTVSPropertyOp26
 70
     1
102
RTVSPropertyOp27
 70
     1
  0
XRECORD
  5
41C
102
{ACAD_REACTORS
330
41B
102
}
330
41B
100
AcDbXrecord
280
     1
102
RTVSPropertyOp0
 70
     1
102
RTVSPropertyOp1
 70
     1
102
RTVSPropertyOp2
 70
     1
102
RTVSPropertyOp3
 70
     1
102
RTVSPropertyOp4
 70
     1
102
RTVSPropertyOp5
 70
     1
102
RTVSPropertyOp6
 70
     1
102
RTVSPropertyOp7
 70
     1
102
RTVSPropertyOp8
 70
     1
102
RTVSPropertyOp9
 70
     1
102
RTVSPropertyOp10
 70
     1
102
RTVSPropertyOp11
 70
     1
102
RTVSPropertyOp12
 70
     1
102
RTVSPropertyOp13
 70
     1
102
RTVSPropertyOp14
 70
     1
102
RTVSPropertyOp15
 70
     1
102
RTVSPropertyOp16
 70
     1
102
RTVSPropertyOp17
 70
     1
102
RTVSPropertyOp18
 70
     1
102
RTVSPropertyOp19
 70
     1
102
RTVSPropertyOp20
 70
     1
102
RTVSPropertyOp21
 70
     1
102
RTVSPropertyOp22
 70
     1
102
RTVSPropertyOp23
 70
     1
102
RTVSPropertyOp24
 70
     1
102
RTVSPropertyOp25
 70
     1
102
RTVSPropertyOp26
 70
     1
102
RTVSPropertyOp27
 70
     1
  0
XRECORD
  5
424
102
{ACAD_REACTORS
330
423
102
}
330
423
100
AcDbXrecord
280
     1
102
RTVSPropertyOp0
 70
     1
102
RTVSPropertyOp1
 70
     1
102
RTVSPropertyOp2
 70
     1
102
RTVSPropertyOp3
 70
     1
102
RTVSPropertyOp4
 70
     1
102
RTVSPropertyOp5
 70
     1
102
RTVSPropertyOp6
 70
     1
102
RTVSPropertyOp7
 70
     1
102
RTVSPropertyOp8
 70
     1
102
RTVSPropertyOp9
 70
     1
102
RTVSPropertyOp10
 70
     1
102
RTVSPropertyOp11
 70
     1
102
RTVSPropertyOp12
 70
     1
102
RTVSPropertyOp13
 70
     1
102
RTVSPropertyOp14
 70
     1
102
RTVSPropertyOp15
 70
     1
102
RTVSPropertyOp16
 70
     1
102
RTVSPropertyOp17
 70
     1
102
RTVSPropertyOp18
 70
     1
102
RTVSPropertyOp19
 70
     1
102
RTVSPropertyOp20
 70
     1
102
RTVSPropertyOp21
 70
     1
102
RTVSPropertyOp22
 70
     1
102
RTVSPropertyOp23
 70
     1
102
RTVSPropertyOp24
 70
     1
102
RTVSPropertyOp25
 70
     1
102
RTVSPropertyOp26
 70
     1
102
RTVSPropertyOp27
 70
     1
  0
XRECORD
  5
418
102
{ACAD_REACTORS
330
417
102
}
330
417
100
AcDbXrecord
280
     1
102
RTVSPropertyOp0
 70
     1
102
RTVSPropertyOp1
 70
     1
102
RTVSPropertyOp2
 70
     1
102
RTVSPropertyOp3
 70
     1
102
RTVSPropertyOp4
 70
     1
102
RTVSPropertyOp5
 70
     1
102
RTVSPropertyOp6
 70
     1
102
RTVSPropertyOp7
 70
     1
102
RTVSPropertyOp8
 70
     1
102
RTVSPropertyOp9
 70
     1
102
RTVSPropertyOp10
 70
     1
102
RTVSPropertyOp11
 70
     1
102
RTVSPropertyOp12
 70
     1
102
RTVSPropertyOp13
 70
     1
102
RTVSPropertyOp14
 70
     1
102
RTVSPropertyOp15
 70
     1
102
RTVSPropertyOp16
 70
     1
102
RTVSPropertyOp17
 70
     1
102
RTVSPropertyOp18
 70
     1
102
RTVSPropertyOp19
 70
     1
102
RTVSPropertyOp20
 70
     1
102
RTVSPropertyOp21
 70
     1
102
RTVSPropertyOp22
 70
     1
102
RTVSPropertyOp23
 70
     1
102
RTVSPropertyOp24
 70
     1
102
RTVSPropertyOp25
 70
     1
102
RTVSPropertyOp26
 70
     1
102
RTVSPropertyOp27
 70
     1
  0
XRECORD
  5
41A
102
{ACAD_REACTORS
330
419
102
}
330
419
100
AcDbXrecord
280
     1
102
RTVSPropertyOp0
 70
     1
102
RTVSPropertyOp1
 70
     1
102
RTVSPropertyOp2
 70
     1
102
RTVSPropertyOp3
 70
     1
102
RTVSPropertyOp4
 70
     1
102
RTVSPropertyOp5
 70
     1
102
RTVSPropertyOp6
 70
     1
102
RTVSPropertyOp7
 70
     1
102
RTVSPropertyOp8
 70
     1
102
RTVSPropertyOp9
 70
     1
102
RTVSPropertyOp10
 70
     1
102
RTVSPropertyOp11
 70
     1
102
RTVSPropertyOp12
 70
     1
102
RTVSPropertyOp13
 70
     1
102
RTVSPropertyOp14
 70
     1
102
RTVSPropertyOp15
 70
     1
102
RTVSPropertyOp16
 70
     1
102
RTVSPropertyOp17
 70
     1
102
RTVSPropertyOp18
 70
     1
102
RTVSPropertyOp19
 70
     1
102
RTVSPropertyOp20
 70
     1
102
RTVSPropertyOp21
 70
     1
102
RTVSPropertyOp22
 70
     1
102
RTVSPropertyOp23
 70
     1
102
RTVSPropertyOp24
 70
     1
102
RTVSPropertyOp25
 70
     1
102
RTVSPropertyOp26
 70
     1
102
RTVSPropertyOp27
 70
     1
  0
XRECORD
  5
422
102
{ACAD_REACTORS
330
421
102
}
330
421
100
AcDbXrecord
280
     1
102
RTVSPropertyOp0
 70
     1
102
RTVSPropertyOp1
 70
     1
102
RTVSPropertyOp2
 70
     1
102
RTVSPropertyOp3
 70
     1
102
RTVSPropertyOp4
 70
     1
102
RTVSPropertyOp5
 70
     1
102
RTVSPropertyOp6
 70
     1
102
RTVSPropertyOp7
 70
     1
102
RTVSPropertyOp8
 70
     1
102
RTVSPropertyOp9
 70
     1
102
RTVSPropertyOp10
 70
     1
102
RTVSPropertyOp11
 70
     1
102
RTVSPropertyOp12
 70
     1
102
RTVSPropertyOp13
 70
     1
102
RTVSPropertyOp14
 70
     1
102
RTVSPropertyOp15
 70
     1
102
RTVSPropertyOp16
 70
     1
102
RTVSPropertyOp17
 70
     1
102
RTVSPropertyOp18
 70
     1
102
RTVSPropertyOp19
 70
     1
102
RTVSPropertyOp20
 70
     1
102
RTVSPropertyOp21
 70
     1
102
RTVSPropertyOp22
 70
     1
102
RTVSPropertyOp23
 70
     1
102
RTVSPropertyOp24
 70
     1
102
RTVSPropertyOp25
 70
     1
102
RTVSPropertyOp26
 70
     1
102
RTVSPropertyOp27
 70
     1
  0
XRECORD
  5
406
102
{ACAD_REACTORS
330
405
102
}
330
405
100
AcDbXrecord
280
     1
102
RTVSPropertyOp0
 70
     1
102
RTVSPropertyOp1
 70
     1
102
RTVSPropertyOp2
 70
     1
102
RTVSPropertyOp3
 70
     1
102
RTVSPropertyOp4
 70
     1
102
RTVSPropertyOp5
 70
     1
102
RTVSPropertyOp6
 70
     1
102
RTVSPropertyOp7
 70
     1
102
RTVSPropertyOp8
 70
     1
102
RTVSPropertyOp9
 70
     1
102
RTVSPropertyOp10
 70
     1
102
RTVSPropertyOp11
 70
     1
102
RTVSPropertyOp12
 70
     1
102
RTVSPropertyOp13
 70
     1
102
RTVSPropertyOp14
 70
     1
102
RTVSPropertyOp15
 70
     1
102
RTVSPropertyOp16
 70
     1
102
RTVSPropertyOp17
 70
     1
102
RTVSPropertyOp18
 70
     1
102
RTVSPropertyOp19
 70
     1
102
RTVSPropertyOp20
 70
     1
102
RTVSPropertyOp21
 70
     1
102
RTVSPropertyOp22
 70
     1
102
RTVSPropertyOp23
 70
     1
102
RTVSPropertyOp24
 70
     1
102
RTVSPropertyOp25
 70
     1
102
RTVSPropertyOp26
 70
     1
102
RTVSPropertyOp27
 70
     1
  0
XRECORD
  5
408
102
{ACAD_REACTORS
330
407
102
}
330
407
100
AcDbXrecord
280
     1
102
RTVSPropertyOp0
 70
     1
102
RTVSPropertyOp1
 70
     1
102
RTVSPropertyOp2
 70
     1
102
RTVSPropertyOp3
 70
     1
102
RTVSPropertyOp4
 70
     1
102
RTVSPropertyOp5
 70
     1
102
RTVSPropertyOp6
 70
     1
102
RTVSPropertyOp7
 70
     1
102
RTVSPropertyOp8
 70
     1
102
RTVSPropertyOp9
 70
     1
102
RTVSPropertyOp10
 70
     1
102
RTVSPropertyOp11
 70
     1
102
RTVSPropertyOp12
 70
     1
102
RTVSPropertyOp13
 70
     1
102
RTVSPropertyOp14
 70
     1
102
RTVSPropertyOp15
 70
     1
102
RTVSPropertyOp16
 70
     1
102
RTVSPropertyOp17
 70
     1
102
RTVSPropertyOp18
 70
     1
102
RTVSPropertyOp19
 70
     1
102
RTVSPropertyOp20
 70
     1
102
RTVSPropertyOp21
 70
     1
102
RTVSPropertyOp22
 70
     1
102
RTVSPropertyOp23
 70
     1
102
RTVSPropertyOp24
 70
     1
102
RTVSPropertyOp25
 70
     1
102
RTVSPropertyOp26
 70
     1
102
RTVSPropertyOp27
 70
     1
  0
XRECORD
  5
40A
102
{ACAD_REACTORS
330
409
102
}
330
409
100
AcDbXrecord
280
     1
102
RTVSPropertyOp0
 70
     1
102
RTVSPropertyOp1
 70
     1
102
RTVSPropertyOp2
 70
     1
102
RTVSPropertyOp3
 70
     1
102
RTVSPropertyOp4
 70
     1
102
RTVSPropertyOp5
 70
     1
102
RTVSPropertyOp6
 70
     1
102
RTVSPropertyOp7
 70
     1
102
RTVSPropertyOp8
 70
     1
102
RTVSPropertyOp9
 70
     1
102
RTVSPropertyOp10
 70
     1
102
RTVSPropertyOp11
 70
     1
102
RTVSPropertyOp12
 70
     1
102
RTVSPropertyOp13
 70
     1
102
RTVSPropertyOp14
 70
     1
102
RTVSPropertyOp15
 70
     1
102
RTVSPropertyOp16
 70
     1
102
RTVSPropertyOp17
 70
     1
102
RTVSPropertyOp18
 70
     1
102
RTVSPropertyOp19
 70
     1
102
RTVSPropertyOp20
 70
     1
102
RTVSPropertyOp21
 70
     1
102
RTVSPropertyOp22
 70
     1
102
RTVSPropertyOp23
 70
     1
102
RTVSPropertyOp24
 70
     1
102
RTVSPropertyOp25
 70
     1
102
RTVSPropertyOp26
 70
     1
102
RTVSPropertyOp27
 70
     1
  0
XRECORD
  5
40C
102
{ACAD_REACTORS
330
40B
102
}
330
40B
100
AcDbXrecord
280
     1
102
RTVSPropertyOp0
 70
     1
102
RTVSPropertyOp1
 70
     1
102
RTVSPropertyOp2
 70
     1
102
RTVSPropertyOp3
 70
     1
102
RTVSPropertyOp4
 70
     1
102
RTVSPropertyOp5
 70
     1
102
RTVSPropertyOp6
 70
     1
102
RTVSPropertyOp7
 70
     1
102
RTVSPropertyOp8
 70
     1
102
RTVSPropertyOp9
 70
     1
102
RTVSPropertyOp10
 70
     1
102
RTVSPropertyOp11
 70
     1
102
RTVSPropertyOp12
 70
     1
102
RTVSPropertyOp13
 70
     1
102
RTVSPropertyOp14
 70
     1
102
RTVSPropertyOp15
 70
     1
102
RTVSPropertyOp16
 70
     1
102
RTVSPropertyOp17
 70
     1
102
RTVSPropertyOp18
 70
     1
102
RTVSPropertyOp19
 70
     1
102
RTVSPropertyOp20
 70
     1
102
RTVSPropertyOp21
 70
     1
102
RTVSPropertyOp22
 70
     1
102
RTVSPropertyOp23
 70
     1
102
RTVSPropertyOp24
 70
     1
102
RTVSPropertyOp25
 70
     1
102
RTVSPropertyOp26
 70
     1
102
RTVSPropertyOp27
 70
     1
  0
XRECORD
  5
420
102
{ACAD_REACTORS
330
41F
102
}
330
41F
100
AcDbXrecord
280
     1
102
RTVSPropertyOp0
 70
     1
102
RTVSPropertyOp1
 70
     1
102
RTVSPropertyOp2
 70
     1
102
RTVSPropertyOp3
 70
     1
102
RTVSPropertyOp4
 70
     1
102
RTVSPropertyOp5
 70
     1
102
RTVSPropertyOp6
 70
     1
102
RTVSPropertyOp7
 70
     1
102
RTVSPropertyOp8
 70
     1
102
RTVSPropertyOp9
 70
     1
102
RTVSPropertyOp10
 70
     1
102
RTVSPropertyOp11
 70
     1
102
RTVSPropertyOp12
 70
     1
102
RTVSPropertyOp13
 70
     1
102
RTVSPropertyOp14
 70
     1
102
RTVSPropertyOp15
 70
     1
102
RTVSPropertyOp16
 70
     1
102
RTVSPropertyOp17
 70
     1
102
RTVSPropertyOp18
 70
     1
102
RTVSPropertyOp19
 70
     1
102
RTVSPropertyOp20
 70
     1
102
RTVSPropertyOp21
 70
     1
102
RTVSPropertyOp22
 70
     1
102
RTVSPropertyOp23
 70
     1
102
RTVSPropertyOp24
 70
     1
102
RTVSPropertyOp25
 70
     1
102
RTVSPropertyOp26
 70
     1
102
RTVSPropertyOp27
 70
     1
  0
XRECORD
  5
416
102
{ACAD_REACTORS
330
415
102
}
330
415
100
AcDbXrecord
280
     1
102
RTVSPropertyOp0
 70
     1
102
RTVSPropertyOp1
 70
     1
102
RTVSPropertyOp2
 70
     1
102
RTVSPropertyOp3
 70
     1
102
RTVSPropertyOp4
 70
     1
102
RTVSPropertyOp5
 70
     1
102
RTVSPropertyOp6
 70
     1
102
RTVSPropertyOp7
 70
     1
102
RTVSPropertyOp8
 70
     1
102
RTVSPropertyOp9
 70
     1
102
RTVSPropertyOp10
 70
     1
102
RTVSPropertyOp11
 70
     1
102
RTVSPropertyOp12
 70
     1
102
RTVSPropertyOp13
 70
     1
102
RTVSPropertyOp14
 70
     1
102
RTVSPropertyOp15
 70
     1
102
RTVSPropertyOp16
 70
     1
102
RTVSPropertyOp17
 70
     1
102
RTVSPropertyOp18
 70
     1
102
RTVSPropertyOp19
 70
     1
102
RTVSPropertyOp20
 70
     1
102
RTVSPropertyOp21
 70
     1
102
RTVSPropertyOp22
 70
     1
102
RTVSPropertyOp23
 70
     1
102
RTVSPropertyOp24
 70
     1
102
RTVSPropertyOp25
 70
     1
102
RTVSPropertyOp26
 70
     1
102
RTVSPropertyOp27
 70
     1
  0
XRECORD
  5
41E
102
{ACAD_REACTORS
330
41D
102
}
330
41D
100
AcDbXrecord
280
     1
102
RTVSPropertyOp0
 70
     1
102
RTVSPropertyOp1
 70
     1
102
RTVSPropertyOp2
 70
     1
102
RTVSPropertyOp3
 70
     1
102
RTVSPropertyOp4
 70
     1
102
RTVSPropertyOp5
 70
     1
102
RTVSPropertyOp6
 70
     1
102
RTVSPropertyOp7
 70
     1
102
RTVSPropertyOp8
 70
     1
102
RTVSPropertyOp9
 70
     1
102
RTVSPropertyOp10
 70
     1
102
RTVSPropertyOp11
 70
     1
102
RTVSPropertyOp12
 70
     1
102
RTVSPropertyOp13
 70
     1
102
RTVSPropertyOp14
 70
     1
102
RTVSPropertyOp15
 70
     1
102
RTVSPropertyOp16
 70
     1
102
RTVSPropertyOp17
 70
     1
102
RTVSPropertyOp18
 70
     1
102
RTVSPropertyOp19
 70
     1
102
RTVSPropertyOp20
 70
     1
102
RTVSPropertyOp21
 70
     1
102
RTVSPropertyOp22
 70
     1
102
RTVSPropertyOp23
 70
     1
102
RTVSPropertyOp24
 70
     1
102
RTVSPropertyOp25
 70
     1
102
RTVSPropertyOp26
 70
     1
102
RTVSPropertyOp27
 70
     1
  0
ENDSEC
  0
EOF
