  0
SECTION
  2
HEADER
  9
$ACADVER
  1
AC1015
  9
$ACADMAINTVER
 70
     6
  9
$DWGCODEPAGE
  3
ANSI_1252
  9
$INSBASE
 10
0.0
 20
0.0
 30
0.0
  9
$EXTMIN
 10
0.0
 20
0.0
 30
0.0
  9
$EXTMAX
 10
51.0
 20
33.0
 30
0.0
  9
$LIMMIN
 10
0.0
 20
0.0
  9
$LIMMAX
 10
51.0
 20
33.0
  9
$ORTHOMODE
 70
     0
  9
$REGENMODE
 70
     1
  9
$FILLMODE
 70
     1
  9
$QTEXTMODE
 70
     0
  9
$MIRRTEXT
 70
     1
  9
$LTSCALE
 40
3.0
  9
$ATTMODE
 70
     1
  9
$TEXTSIZE
 40
0.375
  9
$TRACEWID
 40
0.05
  9
$TEXTSTYLE
  7
Standard
  9
$CLAYER
  8
0
  9
$CELTYPE
  6
ByLayer
  9
$CECOLOR
 62
   256
  9
$CELTSCALE
 40
1.0
  9
$DISPSILH
 70
     0
  9
$DIMSCALE
 40
1.0
  9
$DIMASZ
 40
0.39
  9
$DIMEXO
 40
0.15
  9
$DIMDLI
 40
0.38
  9
$DIMRND
 40
0.0
  9
$DIMDLE
 40
0.0
  9
$DIMEXE
 40
0.375
  9
$DIMTP
 40
0.0
  9
$DIMTM
 40
0.0
  9
$DIMTXT
 40
0.375
  9
$DIMCEN
 40
0.09
  9
$DIMTSZ
 40
0.0
  9
$DIMTOL
 70
     0
  9
$DIMLIM
 70
     0
  9
$DIMTIH
 70
     1
  9
$DIMTOH
 70
     1
  9
$DIMSE1
 70
     0
  9
$DIMSE2
 70
     0
  9
$DIMTAD
 70
     1
  9
$DIMZIN
 70
     0
  9
$DIMBLK
  1

  9
$DIMASO
 70
     1
  9
$DIMSHO
 70
     1
  9
$DIMPOST
  1

  9
$DIMAPOST
  1

  9
$DIMALT
 70
     0
  9
$DIMALTD
 70
     2
  9
$DIMALTF
 40
25.4
  9
$DIMLFAC
 40
1.0
  9
$DIMTOFL
 70
     0
  9
$DIMTVP
 40
0.0
  9
$DIMTIX
 70
     0
  9
$DIMSOXD
 70
     0
  9
$DIMSAH
 70
     0
  9
$DIMBLK1
  1

  9
$DIMBLK2
  1

  9
$DIMSTYLE
  2
Standard
  9
$DIMCLRD
 70
     0
  9
$DIMCLRE
 70
     0
  9
$DIMCLRT
 70
     0
  9
$DIMTFAC
 40
1.0
  9
$DIMGAP
 40
0.18
  9
$DIMJUST
 70
     0
  9
$DIMSD1
 70
     0
  9
$DIMSD2
 70
     0
  9
$DIMTOLJ
 70
     1
  9
$DIMTZIN
 70
     0
  9
$DIMALTZ
 70
     0
  9
$DIMALTTZ
 70
     0
  9
$DIMUPT
 70
     0
  9
$DIMDEC
 70
     2
  9
$DIMTDEC
 70
     2
  9
$DIMALTU
 70
     2
  9
$DIMALTTD
 70
     2
  9
$DIMTXSTY
  7
Standard
  9
$DIMAUNIT
 70
     0
  9
$DIMADEC
 70
     2
  9
$DIMALTRND
 40
0.0
  9
$DIMAZIN
 70
     0
  9
$DIMDSEP
 70
    46
  9
$DIMATFIT
 70
     3
  9
$DIMFRAC
 70
     0
  9
$DIMLDRBLK
  1

  9
$DIMLUNIT
 70
     2
  9
$DIMLWD
 70
    -2
  9
$DIMLWE
 70
    -2
  9
$DIMTMOVE
 70
     0
  9
$LUNITS
 70
     2
  9
$LUPREC
 70
     2
  9
$SKETCHINC
 40
0.1
  9
$FILLETRAD
 40
0.5
  9
$AUNITS
 70
     0
  9
$AUPREC
 70
     2
  9
$MENU
  1
.
  9
$ELEVATION
 40
0.0
  9
$PELEVATION
 40
0.0
  9
$THICKNESS
 40
0.0
  9
$LIMCHECK
 70
     0
  9
$CHAMFERA
 40
0.5
  9
$CHAMFERB
 40
0.5
  9
$CHAMFERC
 40
1.0
  9
$CHAMFERD
 40
0.0
  9
$SKPOLY
 70
     0
  9
$TDCREATE
 40
2455761.40945544
  9
$TDUCREATE
 40
2455761.576122107
  9
$TDUPDATE
 40
2455761.409455451
  9
$TDUUPDATE
 40
2455761.576122118
  9
$TDINDWG
 40
0.0000000116
  9
$TDUSRTIMER
 40
0.0000000116
  9
$USRTIMER
 70
     1
  9
$ANGBASE
 50
0.0
  9
$ANGDIR
 70
     0
  9
$PDMODE
 70
     0
  9
$PDSIZE
 40
-1.0
  9
$PLINEWID
 40
0.0
  9
$SPLFRAME
 70
     0
  9
$SPLINETYPE
 70
     6
  9
$SPLINESEGS
 70
     8
  9
$HANDSEED
  5
42B
  9
$SURFTAB1
 70
     6
  9
$SURFTAB2
 70
     6
  9
$SURFTYPE
 70
     6
  9
$SURFU
 70
     6
  9
$SURFV
 70
     6
  9
$UCSBASE
  2

  9
$UCSNAME
  2

  9
$UCSORG
 10
0.0
 20
0.0
 30
0.0
  9
$UCSXDIR
 10
1.0
 20
0.0
 30
0.0
  9
$UCSYDIR
 10
0.0
 20
1.0
 30
0.0
  9
$UCSORTHOREF
  2

  9
$UCSORTHOVIEW
 70
     0
  9
$UCSORGTOP
 10
0.0
 20
0.0
 30
0.0
  9
$UCSORGBOTTOM
 10
0.0
 20
0.0
 30
0.0
  9
$UCSORGLEFT
 10
0.0
 20
0.0
 30
0.0
  9
$UCSORGRIGHT
 10
0.0
 20
0.0
 30
0.0
  9
$UCSORGFRONT
 10
0.0
 20
0.0
 30
0.0
  9
$UCSORGBACK
 10
0.0
 20
0.0
 30
0.0
  9
$PUCSBASE
  2

  9
$PUCSNAME
  2

  9
$PUCSORG
 10
0.0
 20
0.0
 30
0.0
  9
$PUCSXDIR
 10
1.0
 20
0.0
 30
0.0
  9
$PUCSYDIR
 10
0.0
 20
1.0
 30
0.0
  9
$PUCSORTHOREF
  2

  9
$PUCSORTHOVIEW
 70
     0
  9
$PUCSORGTOP
 10
0.0
 20
0.0
 30
0.0
  9
$PUCSORGBOTTOM
 10
0.0
 20
0.0
 30
0.0
  9
$PUCSORGLEFT
 10
0.0
 20
0.0
 30
0.0
  9
$PUCSORGRIGHT
 10
0.0
 20
0.0
 30
0.0
  9
$PUCSORGFRONT
 10
0.0
 20
0.0
 30
0.0
  9
$PUCSORGBACK
 10
0.0
 20
0.0
 30
0.0
  9
$USERI1
 70
     0
  9
$USERI2
 70
     0
  9
$USERI3
 70
     0
  9
$USERI4
 70
     0
  9
$USERI5
 70
     0
  9
$USERR1
 40
0.0
  9
$USERR2
 40
0.0
  9
$USERR3
 40
0.0
  9
$USERR4
 40
0.0
  9
$USERR5
 40
0.0
  9
$WORLDVIEW
 70
     1
  9
$SHADEDGE
 70
     3
  9
$SHADEDIF
 70
    70
  9
$TILEMODE
 70
     1
  9
$MAXACTVP
 70
    64
  9
$PINSBASE
 10
0.0
 20
0.0
 30
0.0
  9
$PLIMCHECK
 70
     0
  9
$PEXTMIN
 10
1.0000000000E+20
 20
1.0000000000E+20
 30
1.0000000000E+20
  9
$PEXTMAX
 10
-1.0000000000E+20
 20
-1.0000000000E+20
 30
-1.0000000000E+20
  9
$PLIMMIN
 10
0.0
 20
0.0
  9
$PLIMMAX
 10
12.0
 20
9.0
  9
$UNITMODE
 70
     0
  9
$VISRETAIN
 70
     1
  9
$PLINEGEN
 70
     0
  9
$PSLTSCALE
 70
     1
  9
$TREEDEPTH
 70
  3020
  9
$CMLSTYLE
  2
Standard
  9
$CMLJUST
 70
     0
  9
$CMLSCALE
 40
1.0
  9
$PROXYGRAPHICS
 70
     1
  9
$MEASUREMENT
 70
     0
  9
$CELWEIGHT
370
    -1
  9
$ENDCAPS
280
     0
  9
$JOINSTYLE
280
     0
  9
$LWDISPLAY
290
     1
  9
$INSUNITS
 70
     1
  9
$HYPERLINKBASE
  1

  9
$STYLESHEET
  1

  9
$XEDIT
290
     1
  9
$CEPSNTYPE
380
     0
  9
$PSTYLEMODE
290
     1
  9
$FINGERPRINTGUID
  2
{FCBE14A1-768E-4379-84C3-3FE23DB8C9C4}
  9
$VERSIONGUID
  2
{FAEB1C32-E019-11D5-929B-00C0DF256EC4}
  9
$EXTNAMES
290
     1
  9
$PSVPSCALE
 40
0.0
  9
$OLESTARTUP
290
     0
  0
ENDSEC
  0
SECTION
  2
CLASSES
  0
CLASS
  1
ACDBDICTIONARYWDFLT
  2
AcDbDictionaryWithDefault
  3
ObjectDBX Classes
 90
        0
280
     0
281
     0
  0
CLASS
  1
VISUALSTYLE
  2
AcDbVisualStyle
  3
ObjectDBX Classes
 90
     4095
280
     0
281
     0
  0
CLASS
  1
MATERIAL
  2
AcDbMaterial
  3
ObjectDBX Classes
 90
     1153
280
     0
281
     0
  0
CLASS
  1
SCALE
  2
AcDbScale
  3
ObjectDBX Classes
 90
     1153
280
     0
281
     0
  0
CLASS
  1
DICTIONARYVAR
  2
AcDbDictionaryVar
  3
ObjectDBX Classes
 90
        0
280
     0
281
     0
  0
CLASS
  1
ACDBPLACEHOLDER
  2
AcDbPlaceHolder
  3
ObjectDBX Classes
 90
        0
280
     0
281
     0
  0
CLASS
  1
LAYOUT
  2
AcDbLayout
  3
ObjectDBX Classes
 90
        0
280
     0
281
     0
  0
ENDSEC
  0
SECTION
  2
TABLES
  0
TABLE
  2
VPORT
  5
8
330
0
100
AcDbSymbolTable
 70
     1
  0
VPORT
  5
29
330
8
100
AcDbSymbolTableRecord
100
AcDbViewportTableRecord
  2
*Active
 70
     0
 10
0.0
 20
0.0
 11
1.0
 21
1.0
 12
25.5
 22
16.5
 13
0.0
 23
0.0
 14
0.5
 24
0.5
 15
0.5
 25
0.5
 16
0.0
 26
0.0
 36
1.0
 17
0.0
 27
0.0
 37
0.0
 40
33.0
 41
1.5454545455
 42
50.0
 43
0.0
 44
0.0
 50
0.0
 51
0.0
 71
     0
 72
  2000
 73
     1
 74
     3
 75
     0
 76
     0
 77
     0
 78
     0
281
     0
 65
     1
110
0.0
120
0.0
130
0.0
111
1.0
121
0.0
131
0.0
112
0.0
122
1.0
132
0.0
 79
     0
146
0.0
  0
ENDTAB
  0
TABLE
  2
LTYPE
  5
5
330
0
100
AcDbSymbolTable
 70
     6
  0
LTYPE
  5
14
330
5
100
AcDbSymbolTableRecord
100
AcDbLinetypeTableRecord
  2
ByBlock
 70
     0
  3

 72
    65
 73
     0
 40
0.0
  0
LTYPE
  5
15
330
5
100
AcDbSymbolTableRecord
100
AcDbLinetypeTableRecord
  2
ByLayer
 70
     0
  3

 72
    65
 73
     0
 40
0.0
  0
LTYPE
  5
16
330
5
100
AcDbSymbolTableRecord
100
AcDbLinetypeTableRecord
  2
Continuous
 70
     0
  3
Solid line
 72
    65
 73
     0
 40
0.0
  0
LTYPE
  5
3F
330
5
100
AcDbSymbolTableRecord
100
AcDbLinetypeTableRecord
  2
HIDDEN
 70
     0
  3
Hidden __ __ __ __ __ __ __ __ __ __ __ __ __ __
 72
    65
 73
     2
 40
0.075
 49
0.05
 74
     0
 49
-0.025
 74
     0
  0
LTYPE
  5
40
330
5
100
AcDbSymbolTableRecord
100
AcDbLinetypeTableRecord
  2
PHANTOM
 70
     0
  3
Phantom ______  __  __  ______  __  __  ______
 72
    65
 73
     6
 40
0.5
 49
0.25
 74
     0
 49
-0.05
 74
     0
 49
0.05
 74
     0
 49
-0.05
 74
     0
 49
0.05
 74
     0
 49
-0.05
 74
     0
  0
LTYPE
  5
41
330
5
100
AcDbSymbolTableRecord
100
AcDbLinetypeTableRecord
  2
CENTER
 70
     0
  3
Center ____ _ ____ _ ____ _ ____ _ ____ _ ____
 72
    65
 73
     4
 40
0.4
 49
0.25
 74
     0
 49
-0.05
 74
     0
 49
0.05
 74
     0
 49
-0.05
 74
     0
  0
LTYPE
  5
42
330
5
100
AcDbSymbolTableRecord
100
AcDbLinetypeTableRecord
  2
CENTERX2
 70
     0
  3
Center (2x) ________  __  ________  __  _____
 72
    65
 73
     4
 40
0.8
 49
0.5
 74
     0
 49
-0.1
 74
     0
 49
0.1
 74
     0
 49
-0.1
 74
     0
  0
LTYPE
  5
43
330
5
100
AcDbSymbolTableRecord
100
AcDbLinetypeTableRecord
  2
DOT2
 70
     0
  3
Dot (.5x) ........................................
 72
    65
 73
     2
 40
0.025
 49
0.0
 74
     0
 49
-0.025
 74
     0
  0
ENDTAB
  0
TABLE
  2
LAYER
  5
2
330
0
100
AcDbSymbolTable
 70
     1
  0
LAYER
  5
10
330
2
100
AcDbSymbolTableRecord
100
AcDbLayerTableRecord
  2
0
 70
     0
 62
     7
  6
Continuous
370
    -3
390
F
  0
ENDTAB
  0
TABLE
  2
STYLE
  5
3
330
0
100
AcDbSymbolTable
 70
     2
  0
STYLE
  5
11
330
3
100
AcDbSymbolTableRecord
100
AcDbTextStyleTableRecord
  2
Standard
 70
     0
 40
0.0
 41
1.0
 50
0.0
 71
     0
 42
0.2
  3
txt
  4

  0
STYLE
  5
57
330
3
100
AcDbSymbolTableRecord
100
AcDbTextStyleTableRecord
  2
SLDTEXTSTYLE0
 70
     0
 40
0.0
 41
0.75
 50
0.0
 71
     0
 42
0.2
  3
TXT
  4

  0
ENDTAB
  0
TABLE
  2
VIEW
  5
6
330
0
100
AcDbSymbolTable
 70
     0
  0
ENDTAB
  0
TABLE
  2
UCS
  5
7
330
0
100
AcDbSymbolTable
 70
     0
  0
ENDTAB
  0
TABLE
  2
APPID
  5
9
330
0
100
AcDbSymbolTable
 70
     1
  0
APPID
  5
12
330
9
100
AcDbSymbolTableRecord
100
AcDbRegAppTableRecord
  2
ACAD
 70
     0
  0
ENDTAB
  0
TABLE
  2
DIMSTYLE
  5
A
330
0
100
AcDbSymbolTable
 70
     5
100
AcDbDimStyleTable
  0
DIMSTYLE
105
27
330
A
100
AcDbSymbolTableRecord
100
AcDbDimStyleTableRecord
  2
Standard
 70
     0
340
11
  0
DIMSTYLE
105
D7
102
{ACAD_REACTORS
330
D6
330
E9
330
150
330
282
330
294
102
}
330
A
100
AcDbSymbolTableRecord
100
AcDbDimStyleTableRecord
  2
SLDDIMSTYLE0
 70
     0
 41
0.39
 44
0.0
 45
0.000000001
 78
     4
140
0.375
147
0.09375
148
0.000000001
170
     1
173
     1
271
     2
272
     2
284
    12
340
57
  0
DIMSTYLE
105
104
330
A
100
AcDbSymbolTableRecord
100
AcDbDimStyleTableRecord
  2
SLDDIMSTYLE1
 70
     0
 41
0.39
 44
0.0
 45
0.000000001
140
0.0
146
0.39
147
0.0
173
     1
271
     0
272
     0
340
11
  0
DIMSTYLE
105
2A7
102
{ACAD_REACTORS
330
2A6
102
}
330
A
100
AcDbSymbolTableRecord
100
AcDbDimStyleTableRecord
  2
SLDDIMSTYLE2
 70
     0
 41
0.39
 44
0.0
 45
0.000000001
 78
    12
140
0.375
147
0.09375
148
0.000000001
170
     1
172
     1
173
     1
271
     3
272
     3
284
    12
340
57
  0
DIMSTYLE
105
2B8
102
{ACAD_REACTORS
330
2B7
330
2CA
330
3E7
102
}
330
A
100
AcDbSymbolTableRecord
100
AcDbDimStyleTableRecord
  2
SLDDIMSTYLE3
 70
     0
 41
0.39
 44
0.0
 45
0.000000001
 78
     4
140
0.375
147
0.09375
148
0.000000001
170
     1
173
     1
271
     2
272
     2
284
    12
340
57
  0
ENDTAB
  0
TABLE
  2
BLOCK_RECORD
  5
1
330
0
100
AcDbSymbolTable
 70
    16
  0
BLOCK_RECORD
  5
1F
330
1
100
AcDbSymbolTableRecord
100
AcDbBlockTableRecord
  2
*Model_Space
340
22
  0
BLOCK_RECORD
  5
1B
330
1
100
AcDbSymbolTableRecord
100
AcDbBlockTableRecord
  2
*Paper_Space
340
1E
  0
BLOCK_RECORD
  5
23
330
1
100
AcDbSymbolTableRecord
100
AcDbBlockTableRecord
  2
*Paper_Space0
340
26
  0
BLOCK_RECORD
  5
54
330
1
100
AcDbSymbolTableRecord
100
AcDbBlockTableRecord
  2
SW_NOTE_0
340
0
102
{BLKREFS
331
7C
102
}
  0
BLOCK_RECORD
  5
80
330
1
100
AcDbSymbolTableRecord
100
AcDbBlockTableRecord
  2
SW_NOTE_1
340
0
102
{BLKREFS
331
85
102
}
  0
BLOCK_RECORD
  5
86
330
1
100
AcDbSymbolTableRecord
100
AcDbBlockTableRecord
  2
SW_NOTE_2
340
0
102
{BLKREFS
331
8B
102
}
  0
BLOCK_RECORD
  5
8C
330
1
100
AcDbSymbolTableRecord
100
AcDbBlockTableRecord
  2
SW_NOTE_3
340
0
102
{BLKREFS
331
91
102
}
  0
BLOCK_RECORD
  5
D8
330
1
100
AcDbSymbolTableRecord
100
AcDbBlockTableRecord
  2
*D5
340
0
  0
BLOCK_RECORD
  5
EA
330
1
100
AcDbSymbolTableRecord
100
AcDbBlockTableRecord
  2
*D6
340
0
  0
BLOCK_RECORD
  5
FB
330
1
100
AcDbSymbolTableRecord
100
AcDbBlockTableRecord
  2
SW_NOTE_4
340
0
102
{BLKREFS
331
103
102
}
  0
BLOCK_RECORD
  5
151
330
1
100
AcDbSymbolTableRecord
100
AcDbBlockTableRecord
  2
*D8
340
0
  0
BLOCK_RECORD
  5
283
330
1
100
AcDbSymbolTableRecord
100
AcDbBlockTableRecord
  2
*D9
340
0
  0
BLOCK_RECORD
  5
295
330
1
100
AcDbSymbolTableRecord
100
AcDbBlockTableRecord
  2
*D10
340
0
  0
BLOCK_RECORD
  5
2A8
330
1
100
AcDbSymbolTableRecord
100
AcDbBlockTableRecord
  2
*D11
340
0
  0
BLOCK_RECORD
  5
2B9
330
1
100
AcDbSymbolTableRecord
100
AcDbBlockTableRecord
  2
*D12
340
0
  0
BLOCK_RECORD
  5
2CB
330
1
100
AcDbSymbolTableRecord
100
AcDbBlockTableRecord
  2
*D13
340
0
  0
BLOCK_RECORD
  5
3E8
330
1
100
AcDbSymbolTableRecord
100
AcDbBlockTableRecord
  2
*D14
340
0
  0
BLOCK_RECORD
  5
3F7
330
1
100
AcDbSymbolTableRecord
100
AcDbBlockTableRecord
  2
SW_NOTE_5
340
0
102
{BLKREFS
331
3FC
102
}
  0
ENDTAB
  0
ENDSEC
  0
SECTION
  2
BLOCKS
  0
BLOCK
  5
20
330
1F
100
AcDbEntity
  8
0
100
AcDbBlockBegin
  2
*Model_Space
 70
     0
 10
0.0
 20
0.0
 30
0.0
  3
*Model_Space
  1

  0
ENDBLK
  5
21
330
1F
100
AcDbEntity
  8
0
100
AcDbBlockEnd
  0
BLOCK
  5
1C
330
1B
100
AcDbEntity
 67
     1
  8
0
100
AcDbBlockBegin
  2
*Paper_Space
 70
     0
 10
0.0
 20
0.0
 30
0.0
  3
*Paper_Space
  1

  0
ENDBLK
  5
1D
330
1B
100
AcDbEntity
 67
     1
  8
0
100
AcDbBlockEnd
  0
BLOCK
  5
24
330
23
100
AcDbEntity
  8
0
100
AcDbBlockBegin
  2
*Paper_Space0
 70
     0
 10
0.0
 20
0.0
 30
0.0
  3
*Paper_Space0
  1

  0
ENDBLK
  5
25
330
23
100
AcDbEntity
  8
0
100
AcDbBlockEnd
  0
BLOCK
  5
55
330
54
100
AcDbEntity
  8
0
100
AcDbBlockBegin
  2
SW_NOTE_0
 70
     0
 10
0.0
 20
0.0
 30
0.0
  3
SW_NOTE_0
  1

  0
MTEXT
  5
7A
330
54
100
AcDbEntity
  8
0
  6
Continuous
 62
     0
 48
3.0
370
     0
100
AcDbMText
 10
0.0
 20
0.4834004024
 30
0.0
 40
0.375
 41
0.0
 71
     1
 72
     1
  1
MATERIAL - 16 GA. [1.5mm] STEEL
  7
SLDTEXTSTYLE0
 73
     1
 44
1.0
  0
MTEXT
  5
7B
330
54
100
AcDbEntity
  8
0
  6
Continuous
 62
     0
 48
3.0
370
     0
100
AcDbMText
 10
0.0
 20
-0.5028200447
 30
0.0
 40
0.375
 41
0.0
 71
     1
 72
     1
  1
FINISH - SMOOTH GRAY POWDERCOAT
  7
SLDTEXTSTYLE0
 73
     1
 44
1.0
  0
ENDBLK
  5
56
330
54
100
AcDbEntity
  8
0
100
AcDbBlockEnd
  0
BLOCK
  5
81
330
80
100
AcDbEntity
  8
0
100
AcDbBlockBegin
  2
SW_NOTE_1
 70
     0
 10
0.0
 20
0.0
 30
0.0
  3
SW_NOTE_1
  1

  0
MTEXT
  5
83
330
80
100
AcDbEntity
  8
0
  6
Continuous
 62
     0
 48
3.0
370
     0
100
AcDbMText
 10
0.0
 20
0.4834004024
 30
0.0
 40
0.375
 41
0.0
 71
     1
 72
     1
  1
PART
  7
SLDTEXTSTYLE0
 73
     1
 44
1.0
  0
MTEXT
  5
84
330
80
100
AcDbEntity
  8
0
  6
Continuous
 62
     0
 48
3.0
370
     0
100
AcDbMText
 10
-0.1398111899
 20
-0.0097098211
 30
0.0
 40
0.375
 41
0.0
 71
     1
 72
     1
  1
NAME
  7
SLDTEXTSTYLE0
 73
     1
 44
1.0
  0
ENDBLK
  5
82
330
80
100
AcDbEntity
  8
0
100
AcDbBlockEnd
  0
BLOCK
  5
87
330
86
100
AcDbEntity
  8
0
100
AcDbBlockBegin
  2
SW_NOTE_2
 70
     0
 10
0.0
 20
0.0
 30
0.0
  3
SW_NOTE_2
  1

  0
MTEXT
  5
89
330
86
100
AcDbEntity
  8
0
  6
Continuous
 62
     0
 48
3.0
370
     0
100
AcDbMText
 10
0.0
 20
0.4834004024
 30
0.0
 40
0.375
 41
0.0
 71
     1
 72
     1
  1
PART
  7
SLDTEXTSTYLE0
 73
     1
 44
1.0
  0
MTEXT
  5
8A
330
86
100
AcDbEntity
  8
0
  6
Continuous
 62
     0
 48
3.0
370
     0
100
AcDbMText
 10
0.1751302144
 20
-0.0097098211
 30
0.0
 40
0.375
 41
0.0
 71
     1
 72
     1
  1
No.
  7
SLDTEXTSTYLE0
 73
     1
 44
1.0
  0
ENDBLK
  5
88
330
86
100
AcDbEntity
  8
0
100
AcDbBlockEnd
  0
BLOCK
  5
8D
330
8C
100
AcDbEntity
  8
0
100
AcDbBlockBegin
  2
SW_NOTE_3
 70
     0
 10
0.0
 20
0.0
 30
0.0
  3
SW_NOTE_3
  1

  0
MTEXT
  5
8F
330
8C
100
AcDbEntity
  8
0
  6
Continuous
 62
     0
 48
3.0
370
     0
100
AcDbMText
 10
0.0
 20
0.4834004024
 30
0.0
 40
0.375
 41
0.0
 71
     1
 72
     1
  1
REVISION
  7
SLDTEXTSTYLE0
 73
     1
 44
1.0
  0
MTEXT
  5
90
330
8C
100
AcDbEntity
  8
0
  6
Continuous
 62
     0
 48
3.0
370
     0
100
AcDbMText
 10
0.4686848957
 20
-0.0097098211
 30
0.0
 40
0.375
 41
0.0
 71
     1
 72
     1
  1
DATE
  7
SLDTEXTSTYLE0
 73
     1
 44
1.0
  0
ENDBLK
  5
8E
330
8C
100
AcDbEntity
  8
0
100
AcDbBlockEnd
  0
BLOCK
  5
D9
330
D8
100
AcDbEntity
  8
0
100
AcDbBlockBegin
  2
*D5
 70
     1
 10
0.0
 20
0.0
 30
0.0
  3
*D5
  1

  0
SOLID
  5
DB
330
D8
100
AcDbEntity
  8
0
  6
Continuous
 62
     7
 48
3.0
370
     0
100
AcDbTrace
 10
11.0522365227
 20
21.0862872103
 30
0.0
 11
11.4422365227
 21
21.0262872103
 31
0.0
 12
11.4422365227
 22
21.1462872103
 32
0.0
 13
11.4422365227
 23
21.1462872103
 33
0.0
  0
SOLID
  5
DC
330
D8
100
AcDbEntity
  8
0
  6
Continuous
 62
     7
 48
3.0
370
     0
100
AcDbTrace
 10
19.0522365227
 20
21.0862872103
 30
0.0
 11
18.6622365227
 21
21.1462872103
 31
0.0
 12
18.6622365227
 22
21.0262872103
 32
0.0
 13
18.6622365227
 23
21.0262872103
 33
0.0
  0
LINE
  5
DD
330
D8
100
AcDbEntity
  8
0
  6
Continuous
 62
     7
 48
3.0
370
     0
100
AcDbLine
 10
14.276669199
 20
21.0416521572
 30
0.0
 11
14.276669199
 21
20.5357882224
 31
0.0
  0
LINE
  5
DE
330
D8
100
AcDbEntity
  8
0
  6
Continuous
 62
     7
 48
3.0
370
     0
100
AcDbLine
 10
14.276669199
 20
20.5357882224
 30
0.0
 11
14.352786409
 21
20.5357882224
 31
0.0
  0
LINE
  5
DF
330
D8
100
AcDbEntity
  8
0
  6
Continuous
 62
     7
 48
3.0
370
     0
100
AcDbLine
 10
14.276669199
 20
21.0416521572
 30
0.0
 11
14.352786409
 21
21.0416521572
 31
0.0
  0
LINE
  5
E0
330
D8
100
AcDbEntity
  8
0
  6
Continuous
 62
     7
 48
3.0
370
     0
100
AcDbLine
 10
15.8278038464
 20
21.0416521572
 30
0.0
 11
15.8278038464
 21
20.5357882224
 31
0.0
  0
LINE
  5
E1
330
D8
100
AcDbEntity
  8
0
  6
Continuous
 62
     7
 48
3.0
370
     0
100
AcDbLine
 10
15.8278038464
 20
20.5357882224
 30
0.0
 11
15.7516866364
 21
20.5357882224
 31
0.0
  0
LINE
  5
E2
330
D8
100
AcDbEntity
  8
0
  6
Continuous
 62
     7
 48
3.0
370
     0
100
AcDbLine
 10
15.8278038464
 20
21.0416521572
 30
0.0
 11
15.7516866364
 21
21.0416521572
 31
0.0
  0
LINE
  5
E3
330
D8
100
AcDbEntity
  8
0
  6
Continuous
 62
     7
 48
3.0
370
     0
100
AcDbLine
 10
11.0522365227
 20
20.1846631827
 30
0.0
 11
11.0522365227
 21
21.4612872103
 31
0.0
  0
LINE
  5
E4
330
D8
100
AcDbEntity
  8
0
  6
Continuous
 62
     7
 48
3.0
370
     0
100
AcDbLine
 10
19.0522365227
 20
20.1846631827
 30
0.0
 11
19.0522365227
 21
21.4612872103
 31
0.0
  0
LINE
  5
E5
330
D8
100
AcDbEntity
  8
0
  6
Continuous
 62
     7
 48
3.0
370
     0
100
AcDbLine
 10
11.0522365227
 20
21.0862872103
 30
0.0
 11
13.8609161664
 21
21.0862872103
 31
0.0
  0
LINE
  5
E6
330
D8
100
AcDbEntity
  8
0
  6
Continuous
 62
     7
 48
3.0
370
     0
100
AcDbLine
 10
19.0522365227
 20
21.0862872103
 30
0.0
 11
16.243556879
 21
21.0862872103
 31
0.0
  0
MTEXT
  5
E7
330
D8
100
AcDbEntity
  8
0
  6
Continuous
 62
     7
 48
3.0
370
     0
100
AcDbMText
 10
14.5675315947
 20
21.5696875921
 30
0.0
 40
0.375
 41
0.0
 71
     1
 72
     1
  1
8.00
  7
SLDTEXTSTYLE0
 73
     1
 44
1.0
  0
MTEXT
  5
E8
330
D8
100
AcDbEntity
  8
0
  6
Continuous
 62
     7
 48
3.0
370
     0
100
AcDbMText
 10
14.428903619
 20
20.9745535511
 30
0.0
 40
0.375
 41
0.0
 71
     1
 72
     1
  1
203.2
  7
SLDTEXTSTYLE0
 73
     1
 44
1.0
  0
ENDBLK
  5
DA
330
D8
100
AcDbEntity
  8
0
100
AcDbBlockEnd
  0
BLOCK
  5
EB
330
EA
100
AcDbEntity
  8
0
100
AcDbBlockBegin
  2
*D6
 70
     1
 10
0.0
 20
0.0
 30
0.0
  3
*D6
  1

  0
SOLID
  5
ED
330
EA
100
AcDbEntity
  8
0
  6
Continuous
 62
     7
 48
3.0
370
     0
100
AcDbTrace
 10
20.2470822633
 20
20.0346631827
 30
0.0
 11
20.1870822633
 21
19.6446631827
 31
0.0
 12
20.3070822633
 22
19.6446631827
 32
0.0
 13
20.3070822633
 23
19.6446631827
 33
0.0
  0
SOLID
  5
EE
330
EA
100
AcDbEntity
  8
0
  6
Continuous
 62
     7
 48
3.0
370
     0
100
AcDbTrace
 10
20.2470822633
 20
10.0346631827
 30
0.0
 11
20.3070822633
 21
10.4246631827
 31
0.0
 12
20.1870822633
 22
10.4246631827
 32
0.0
 13
20.1870822633
 23
10.4246631827
 33
0.0
  0
LINE
  5
EF
330
EA
100
AcDbEntity
  8
0
  6
Continuous
 62
     7
 48
3.0
370
     0
100
AcDbLine
 10
19.6793583058
 20
14.9900281296
 30
0.0
 11
19.6793583058
 21
14.4841641948
 31
0.0
  0
LINE
  5
F0
330
EA
100
AcDbEntity
  8
0
  6
Continuous
 62
     7
 48
3.0
370
     0
100
AcDbLine
 10
19.6793583058
 20
14.4841641948
 30
0.0
 11
19.7554755158
 21
14.4841641948
 31
0.0
  0
LINE
  5
F1
330
EA
100
AcDbEntity
  8
0
  6
Continuous
 62
     7
 48
3.0
370
     0
100
AcDbLine
 10
19.6793583058
 20
14.9900281296
 30
0.0
 11
19.7554755158
 21
14.9900281296
 31
0.0
  0
LINE
  5
F2
330
EA
100
AcDbEntity
  8
0
  6
Continuous
 62
     7
 48
3.0
370
     0
100
AcDbLine
 10
20.8148062209
 20
14.9900281296
 30
0.0
 11
20.8148062209
 21
14.4841641948
 31
0.0
  0
LINE
  5
F3
330
EA
100
AcDbEntity
  8
0
  6
Continuous
 62
     7
 48
3.0
370
     0
100
AcDbLine
 10
20.8148062209
 20
14.4841641948
 30
0.0
 11
20.7386890108
 21
14.4841641948
 31
0.0
  0
LINE
  5
F4
330
EA
100
AcDbEntity
  8
0
  6
Continuous
 62
     7
 48
3.0
370
     0
100
AcDbLine
 10
20.8148062209
 20
14.9900281296
 30
0.0
 11
20.7386890108
 21
14.9900281296
 31
0.0
  0
LINE
  5
F5
330
EA
100
AcDbEntity
  8
0
  6
Continuous
 62
     7
 48
3.0
370
     0
100
AcDbLine
 10
19.2022365227
 20
20.0346631827
 30
0.0
 11
20.6220822633
 21
20.0346631827
 31
0.0
  0
LINE
  5
F6
330
EA
100
AcDbEntity
  8
0
  6
Continuous
 62
     7
 48
3.0
370
     0
100
AcDbLine
 10
19.2022365227
 20
10.0346631827
 30
0.0
 11
20.6220822633
 21
10.0346631827
 31
0.0
  0
LINE
  5
F7
330
EA
100
AcDbEntity
  8
0
  6
Continuous
 62
     7
 48
3.0
370
     0
100
AcDbLine
 10
20.2470822633
 20
20.0346631827
 30
0.0
 11
20.2470822633
 21
15.6297972236
 31
0.0
  0
LINE
  5
F8
330
EA
100
AcDbEntity
  8
0
  6
Continuous
 62
     7
 48
3.0
370
     0
100
AcDbLine
 10
20.2470822633
 20
10.0346631827
 30
0.0
 11
20.2470822633
 21
14.4395291417
 31
0.0
  0
MTEXT
  5
F9
330
EA
100
AcDbEntity
  8
0
  6
Continuous
 62
     7
 48
3.0
370
     0
100
AcDbMText
 10
19.6237493596
 20
15.5180635645
 30
0.0
 40
0.375
 41
0.0
 71
     1
 72
     1
  1
10.00
  7
SLDTEXTSTYLE0
 73
     1
 44
1.0
  0
MTEXT
  5
FA
330
EA
100
AcDbEntity
  8
0
  6
Continuous
 62
     7
 48
3.0
370
     0
100
AcDbMText
 10
19.8315927258
 20
14.9229295235
 30
0.0
 40
0.375
 41
0.0
 71
     1
 72
     1
  1
254
  7
SLDTEXTSTYLE0
 73
     1
 44
1.0
  0
ENDBLK
  5
EC
330
EA
100
AcDbEntity
  8
0
100
AcDbBlockEnd
  0
BLOCK
  5
FC
330
FB
100
AcDbEntity
  8
0
100
AcDbBlockBegin
  2
SW_NOTE_4
 70
     0
 10
0.0
 20
0.0
 30
0.0
  3
SW_NOTE_4
  1

  0
MTEXT
  5
FE
330
FB
100
AcDbEntity
  8
0
  6
Continuous
 62
     0
 48
3.0
370
     0
100
AcDbMText
 10
0.0591506305
 20
0.1818551688
 30
0.0
 40
0.375
 41
0.0
 71
     1
 72
     1
  1
SCREWS: #10-32 x .31"[8mm] LG.
  7
SLDTEXTSTYLE0
 73
     1
 44
1.0
  0
MTEXT
  5
FF
330
FB
100
AcDbEntity
  8
0
  6
Continuous
 62
     0
 48
3.0
370
     0
100
AcDbMText
 10
0.0591506305
 20
-0.3112550548
 30
0.0
 40
0.375
 41
0.0
 71
     1
 72
     1
  1
MACHINE, PAN HEAD, SLOTTED/SQUARE
  7
SLDTEXTSTYLE0
 73
     1
 44
1.0
  0
MTEXT
  5
100
330
FB
100
AcDbEntity
  8
0
  6
Continuous
 62
     0
 48
3.0
370
     0
100
AcDbMText
 10
0.0591506305
 20
-0.8043652783
 30
0.0
 40
0.375
 41
0.0
 71
     1
 72
     1
  1
COMBINATION STYLE DRIVE, STEEL, ZINC PLATED.
  7
SLDTEXTSTYLE0
 73
     1
 44
1.0
  0
MTEXT
  5
101
330
FB
100
AcDbEntity
  8
0
  6
Continuous
 62
     0
 48
3.0
370
     0
100
AcDbMText
 10
0.0591506305
 20
-1.2974755019
 30
0.0
 40
0.375
 41
0.0
 71
     1
 72
     1
  1
(SUPPLIED FOR COVER MOUNTING AND
  7
SLDTEXTSTYLE0
 73
     1
 44
1.0
  0
MTEXT
  5
102
330
FB
100
AcDbEntity
  8
0
  6
Continuous
 62
     0
 48
3.0
370
     0
100
AcDbMText
 10
0.0591506305
 20
-1.7905857254
 30
0.0
 40
0.375
 41
0.0
 71
     1
 72
     1
  1
FOR GROUND POINT).
  7
SLDTEXTSTYLE0
 73
     1
 44
1.0
  0
ENDBLK
  5
FD
330
FB
100
AcDbEntity
  8
0
100
AcDbBlockEnd
  0
BLOCK
  5
152
330
151
100
AcDbEntity
  8
0
100
AcDbBlockBegin
  2
*D8
 70
     1
 10
0.0
 20
0.0
 30
0.0
  3
*D8
  1

  0
SOLID
  5
154
330
151
100
AcDbEntity
  8
0
  6
Continuous
 62
     7
 48
3.0
370
     0
100
AcDbTrace
 10
20.2470822633
 20
27.1271164267
 30
0.0
 11
20.1870822633
 21
26.7371164267
 31
0.0
 12
20.3070822633
 22
26.7371164267
 32
0.0
 13
20.3070822633
 23
26.7371164267
 33
0.0
  0
SOLID
  5
155
330
151
100
AcDbEntity
  8
0
  6
Continuous
 62
     7
 48
3.0
370
     0
100
AcDbTrace
 10
20.2470822633
 20
23.1271164267
 30
0.0
 11
20.3070822633
 21
23.5171164267
 31
0.0
 12
20.1870822633
 22
23.5171164267
 32
0.0
 13
20.1870822633
 23
23.5171164267
 33
0.0
  0
LINE
  5
156
330
151
100
AcDbEntity
  8
0
  6
Continuous
 62
     7
 48
3.0
370
     0
100
AcDbLine
 10
19.4715149396
 20
25.0824813737
 30
0.0
 11
19.4715149396
 21
24.5766174389
 31
0.0
  0
LINE
  5
157
330
151
100
AcDbEntity
  8
0
  6
Continuous
 62
     7
 48
3.0
370
     0
100
AcDbLine
 10
19.4715149396
 20
24.5766174389
 30
0.0
 11
19.5476321496
 21
24.5766174389
 31
0.0
  0
LINE
  5
158
330
151
100
AcDbEntity
  8
0
  6
Continuous
 62
     7
 48
3.0
370
     0
100
AcDbLine
 10
19.4715149396
 20
25.0824813737
 30
0.0
 11
19.5476321496
 21
25.0824813737
 31
0.0
  0
LINE
  5
159
330
151
100
AcDbEntity
  8
0
  6
Continuous
 62
     7
 48
3.0
370
     0
100
AcDbLine
 10
21.022649587
 20
25.0824813737
 30
0.0
 11
21.022649587
 21
24.5766174389
 31
0.0
  0
LINE
  5
15A
330
151
100
AcDbEntity
  8
0
  6
Continuous
 62
     7
 48
3.0
370
     0
100
AcDbLine
 10
21.022649587
 20
24.5766174389
 30
0.0
 11
20.946532377
 21
24.5766174389
 31
0.0
  0
LINE
  5
15B
330
151
100
AcDbEntity
  8
0
  6
Continuous
 62
     7
 48
3.0
370
     0
100
AcDbLine
 10
21.022649587
 20
25.0824813737
 30
0.0
 11
20.946532377
 21
25.0824813737
 31
0.0
  0
LINE
  5
15C
330
151
100
AcDbEntity
  8
0
  6
Continuous
 62
     7
 48
3.0
370
     0
100
AcDbLine
 10
19.1252365227
 20
27.1271164267
 30
0.0
 11
20.6220822633
 21
27.1271164267
 31
0.0
  0
LINE
  5
15D
330
151
100
AcDbEntity
  8
0
  6
Continuous
 62
     7
 48
3.0
370
     0
100
AcDbLine
 10
19.2022365227
 20
23.1271164267
 30
0.0
 11
20.6220822633
 21
23.1271164267
 31
0.0
  0
LINE
  5
15E
330
151
100
AcDbEntity
  8
0
  6
Continuous
 62
     7
 48
3.0
370
     0
100
AcDbLine
 10
20.2470822633
 20
27.1271164267
 30
0.0
 11
20.2470822633
 21
25.7222504677
 31
0.0
  0
LINE
  5
15F
330
151
100
AcDbEntity
  8
0
  6
Continuous
 62
     7
 48
3.0
370
     0
100
AcDbLine
 10
20.2470822633
 20
23.1271164267
 30
0.0
 11
20.2470822633
 21
24.5319823858
 31
0.0
  0
MTEXT
  5
160
330
151
100
AcDbEntity
  8
0
  6
Continuous
 62
     7
 48
3.0
370
     0
100
AcDbMText
 10
19.7623773353
 20
25.6105168085
 30
0.0
 40
0.375
 41
0.0
 71
     1
 72
     1
  1
4.00
  7
SLDTEXTSTYLE0
 73
     1
 44
1.0
  0
MTEXT
  5
161
330
151
100
AcDbEntity
  8
0
  6
Continuous
 62
     7
 48
3.0
370
     0
100
AcDbMText
 10
19.6237493596
 20
25.0153827676
 30
0.0
 40
0.375
 41
0.0
 71
     1
 72
     1
  1
101.6
  7
SLDTEXTSTYLE0
 73
     1
 44
1.0
  0
ENDBLK
  5
153
330
151
100
AcDbEntity
  8
0
100
AcDbBlockEnd
  0
BLOCK
  5
284
330
283
100
AcDbEntity
  8
0
100
AcDbBlockBegin
  2
*D9
 70
     1
 10
0.0
 20
0.0
 30
0.0
  3
*D9
  1

  0
SOLID
  5
286
330
283
100
AcDbEntity
  8
0
  6
Continuous
 62
     7
 48
3.0
370
     0
100
AcDbTrace
 10
38.715740949
 20
18.5346631827
 30
0.0
 11
38.655740949
 21
18.1446631827
 31
0.0
 12
38.775740949
 22
18.1446631827
 32
0.0
 13
38.775740949
 23
18.1446631827
 33
0.0
  0
SOLID
  5
287
330
283
100
AcDbEntity
  8
0
  6
Continuous
 62
     7
 48
3.0
370
     0
100
AcDbTrace
 10
38.715740949
 20
11.5346631827
 30
0.0
 11
38.775740949
 21
11.9246631827
 31
0.0
 12
38.655740949
 22
11.9246631827
 32
0.0
 13
38.655740949
 23
11.9246631827
 33
0.0
  0
LINE
  5
288
330
283
100
AcDbEntity
  8
0
  6
Continuous
 62
     7
 48
3.0
370
     0
100
AcDbLine
 10
37.9401736253
 20
14.9900281296
 30
0.0
 11
37.9401736253
 21
14.4841641948
 31
0.0
  0
LINE
  5
289
330
283
100
AcDbEntity
  8
0
  6
Continuous
 62
     7
 48
3.0
370
     0
100
AcDbLine
 10
37.9401736253
 20
14.4841641948
 30
0.0
 11
38.0162908353
 21
14.4841641948
 31
0.0
  0
LINE
  5
28A
330
283
100
AcDbEntity
  8
0
  6
Continuous
 62
     7
 48
3.0
370
     0
100
AcDbLine
 10
37.9401736253
 20
14.9900281296
 30
0.0
 11
38.0162908353
 21
14.9900281296
 31
0.0
  0
LINE
  5
28B
330
283
100
AcDbEntity
  8
0
  6
Continuous
 62
     7
 48
3.0
370
     0
100
AcDbLine
 10
39.4913082727
 20
14.9900281296
 30
0.0
 11
39.4913082727
 21
14.4841641948
 31
0.0
  0
LINE
  5
28C
330
283
100
AcDbEntity
  8
0
  6
Continuous
 62
     7
 48
3.0
370
     0
100
AcDbLine
 10
39.4913082727
 20
14.4841641948
 30
0.0
 11
39.4151910627
 21
14.4841641948
 31
0.0
  0
LINE
  5
28D
330
283
100
AcDbEntity
  8
0
  6
Continuous
 62
     7
 48
3.0
370
     0
100
AcDbLine
 10
39.4913082727
 20
14.9900281296
 30
0.0
 11
39.4151910627
 21
14.9900281296
 31
0.0
  0
LINE
  5
28E
330
283
100
AcDbEntity
  8
0
  6
Continuous
 62
     7
 48
3.0
370
     0
100
AcDbLine
 10
40.0747169311
 20
18.5346631827
 30
0.0
 11
38.340740949
 21
18.5346631827
 31
0.0
  0
LINE
  5
28F
330
283
100
AcDbEntity
  8
0
  6
Continuous
 62
     7
 48
3.0
370
     0
100
AcDbLine
 10
40.0747169311
 20
11.5346631827
 30
0.0
 11
38.340740949
 21
11.5346631827
 31
0.0
  0
LINE
  5
290
330
283
100
AcDbEntity
  8
0
  6
Continuous
 62
     7
 48
3.0
370
     0
100
AcDbLine
 10
38.715740949
 20
18.5346631827
 30
0.0
 11
38.715740949
 21
15.6297972236
 31
0.0
  0
LINE
  5
291
330
283
100
AcDbEntity
  8
0
  6
Continuous
 62
     7
 48
3.0
370
     0
100
AcDbLine
 10
38.715740949
 20
11.5346631827
 30
0.0
 11
38.715740949
 21
14.4395291417
 31
0.0
  0
MTEXT
  5
292
330
283
100
AcDbEntity
  8
0
  6
Continuous
 62
     7
 48
3.0
370
     0
100
AcDbMText
 10
38.231036021
 20
15.5180635645
 30
0.0
 40
0.375
 41
0.0
 71
     1
 72
     1
  1
7.00
  7
SLDTEXTSTYLE0
 73
     1
 44
1.0
  0
MTEXT
  5
293
330
283
100
AcDbEntity
  8
0
  6
Continuous
 62
     7
 48
3.0
370
     0
100
AcDbMText
 10
38.0924080453
 20
14.9229295235
 30
0.0
 40
0.375
 41
0.0
 71
     1
 72
     1
  1
177.8
  7
SLDTEXTSTYLE0
 73
     1
 44
1.0
  0
ENDBLK
  5
285
330
283
100
AcDbEntity
  8
0
100
AcDbBlockEnd
  0
BLOCK
  5
296
330
295
100
AcDbEntity
  8
0
100
AcDbBlockBegin
  2
*D10
 70
     1
 10
0.0
 20
0.0
 30
0.0
  3
*D10
  1

  0
SOLID
  5
298
330
295
100
AcDbEntity
  8
0
  6
Continuous
 62
     7
 48
3.0
370
     0
100
AcDbTrace
 10
40.2247169311
 20
9.0532183041
 30
0.0
 11
40.6147169311
 21
8.9932183041
 31
0.0
 12
40.6147169311
 22
9.1132183041
 32
0.0
 13
40.6147169311
 23
9.1132183041
 33
0.0
  0
SOLID
  5
299
330
295
100
AcDbEntity
  8
0
  6
Continuous
 62
     7
 48
3.0
370
     0
100
AcDbTrace
 10
47.2247169311
 20
9.0532183041
 30
0.0
 11
46.8347169311
 21
9.1132183041
 31
0.0
 12
46.8347169311
 22
8.9932183041
 32
0.0
 13
46.8347169311
 23
8.9932183041
 33
0.0
  0
LINE
  5
29A
330
295
100
AcDbEntity
  8
0
  6
Continuous
 62
     7
 48
3.0
370
     0
100
AcDbLine
 10
42.9491496074
 20
9.0085832511
 30
0.0
 11
42.9491496074
 21
8.5027193163
 31
0.0
  0
LINE
  5
29B
330
295
100
AcDbEntity
  8
0
  6
Continuous
 62
     7
 48
3.0
370
     0
100
AcDbLine
 10
42.9491496074
 20
8.5027193163
 30
0.0
 11
43.0252668174
 21
8.5027193163
 31
0.0
  0
LINE
  5
29C
330
295
100
AcDbEntity
  8
0
  6
Continuous
 62
     7
 48
3.0
370
     0
100
AcDbLine
 10
42.9491496074
 20
9.0085832511
 30
0.0
 11
43.0252668174
 21
9.0085832511
 31
0.0
  0
LINE
  5
29D
330
295
100
AcDbEntity
  8
0
  6
Continuous
 62
     7
 48
3.0
370
     0
100
AcDbLine
 10
44.5002842548
 20
9.0085832511
 30
0.0
 11
44.5002842548
 21
8.5027193163
 31
0.0
  0
LINE
  5
29E
330
295
100
AcDbEntity
  8
0
  6
Continuous
 62
     7
 48
3.0
370
     0
100
AcDbLine
 10
44.5002842548
 20
8.5027193163
 30
0.0
 11
44.4241670448
 21
8.5027193163
 31
0.0
  0
LINE
  5
29F
330
295
100
AcDbEntity
  8
0
  6
Continuous
 62
     7
 48
3.0
370
     0
100
AcDbLine
 10
44.5002842548
 20
9.0085832511
 30
0.0
 11
44.4241670448
 21
9.0085832511
 31
0.0
  0
LINE
  5
2A0
330
295
100
AcDbEntity
  8
0
  6
Continuous
 62
     7
 48
3.0
370
     0
100
AcDbLine
 10
40.2247169311
 20
11.3846631827
 30
0.0
 11
40.2247169311
 21
8.6782183041
 31
0.0
  0
LINE
  5
2A1
330
295
100
AcDbEntity
  8
0
  6
Continuous
 62
     7
 48
3.0
370
     0
100
AcDbLine
 10
47.2247169311
 20
11.3846631827
 30
0.0
 11
47.2247169311
 21
8.6782183041
 31
0.0
  0
LINE
  5
2A2
330
295
100
AcDbEntity
  8
0
  6
Continuous
 62
     7
 48
3.0
370
     0
100
AcDbLine
 10
40.2247169311
 20
9.0532183041
 30
0.0
 11
42.5333965748
 21
9.0532183041
 31
0.0
  0
LINE
  5
2A3
330
295
100
AcDbEntity
  8
0
  6
Continuous
 62
     7
 48
3.0
370
     0
100
AcDbLine
 10
47.2247169311
 20
9.0532183041
 30
0.0
 11
44.9160372874
 21
9.0532183041
 31
0.0
  0
MTEXT
  5
2A4
330
295
100
AcDbEntity
  8
0
  6
Continuous
 62
     7
 48
3.0
370
     0
100
AcDbMText
 10
43.2400120031
 20
9.5366186859
 30
0.0
 40
0.375
 41
0.0
 71
     1
 72
     1
  1
7.00
  7
SLDTEXTSTYLE0
 73
     1
 44
1.0
  0
MTEXT
  5
2A5
330
295
100
AcDbEntity
  8
0
  6
Continuous
 62
     7
 48
3.0
370
     0
100
AcDbMText
 10
43.1013840274
 20
8.941484645
 30
0.0
 40
0.375
 41
0.0
 71
     1
 72
     1
  1
177.8
  7
SLDTEXTSTYLE0
 73
     1
 44
1.0
  0
ENDBLK
  5
297
330
295
100
AcDbEntity
  8
0
100
AcDbBlockEnd
  0
BLOCK
  5
2A9
330
2A8
100
AcDbEntity
  8
0
100
AcDbBlockBegin
  2
*D11
 70
     1
 10
0.0
 20
0.0
 30
0.0
  3
*D11
  1

  0
SOLID
  5
2AB
330
2A8
100
AcDbEntity
  8
0
  6
Continuous
 62
     7
 48
3.0
370
     0
100
AcDbTrace
 10
47.2709594898
 20
11.4019911217
 30
0.0
 11
47.3426625092
 21
11.0139722085
 31
0.0
 12
47.455976725
 22
11.0534676323
 32
0.0
 13
47.455976725
 23
11.0534676323
 33
0.0
  0
LINE
  5
2AC
330
2A8
100
AcDbEntity
  8
0
  6
Continuous
 62
     7
 48
3.0
370
     0
100
AcDbLine
 10
46.5695151577
 20
7.7492728843
 30
0.0
 11
46.5695151577
 21
7.2434089495
 31
0.0
  0
LINE
  5
2AD
330
2A8
100
AcDbEntity
  8
0
  6
Continuous
 62
     7
 48
3.0
370
     0
100
AcDbLine
 10
46.5695151577
 20
7.2434089495
 30
0.0
 11
46.6456323677
 21
7.2434089495
 31
0.0
  0
LINE
  5
2AE
330
2A8
100
AcDbEntity
  8
0
  6
Continuous
 62
     7
 48
3.0
370
     0
100
AcDbLine
 10
46.5695151577
 20
7.7492728843
 30
0.0
 11
46.6456323677
 21
7.7492728843
 31
0.0
  0
LINE
  5
2AF
330
2A8
100
AcDbEntity
  8
0
  6
Continuous
 62
     7
 48
3.0
370
     0
100
AcDbLine
 10
47.8433938536
 20
7.7492728843
 30
0.0
 11
47.8433938536
 21
7.2434089495
 31
0.0
  0
LINE
  5
2B0
330
2A8
100
AcDbEntity
  8
0
  6
Continuous
 62
     7
 48
3.0
370
     0
100
AcDbLine
 10
47.8433938536
 20
7.2434089495
 30
0.0
 11
47.7672766436
 21
7.2434089495
 31
0.0
  0
LINE
  5
2B1
330
2A8
100
AcDbEntity
  8
0
  6
Continuous
 62
     7
 48
3.0
370
     0
100
AcDbLine
 10
47.8433938536
 20
7.7492728843
 30
0.0
 11
47.7672766436
 21
7.7492728843
 31
0.0
  0
LINE
  5
2B2
330
2A8
100
AcDbEntity
  8
0
  6
Continuous
 62
     7
 48
3.0
370
     0
100
AcDbLine
 10
47.2709594898
 20
11.4019911217
 30
0.0
 11
48.528549047
 21
7.7939079374
 31
0.0
  0
LINE
  5
2B3
330
2A8
100
AcDbEntity
  8
0
  6
Continuous
 62
     7
 48
3.0
370
     0
100
AcDbLine
 10
48.528549047
 20
7.7939079374
 30
0.0
 11
48.153549047
 21
7.7939079374
 31
0.0
  0
MTEXT
  5
2B4
330
2A8
100
AcDbEntity
  8
0
  6
Continuous
 62
     7
 48
3.0
370
     0
100
AcDbMText
 10
46.4539392592
 20
8.2773083261
 30
0.0
 40
0.375
 41
0.0
 71
     1
 72
     1
  1
%%c
  7
SLDTEXTSTYLE0
 73
     1
 44
1.0
  0
MTEXT
  5
2B5
330
2A8
100
AcDbEntity
  8
0
  6
Continuous
 62
     7
 48
3.0
370
     0
100
AcDbMText
 10
46.9895598961
 20
8.2773083192
 30
0.0
 40
0.375
 41
0.0
 71
     1
 72
     1
  1
.281
  7
SLDTEXTSTYLE0
 73
     1
 44
1.0
  0
MTEXT
  5
2B6
330
2A8
100
AcDbEntity
  8
0
  6
Continuous
 62
     7
 48
3.0
370
     0
100
AcDbMText
 10
46.7217495777
 20
7.6821742783
 30
0.0
 40
0.375
 41
0.0
 71
     1
 72
     1
  1
7.14
  7
SLDTEXTSTYLE0
 73
     1
 44
1.0
  0
ENDBLK
  5
2AA
330
2A8
100
AcDbEntity
  8
0
100
AcDbBlockEnd
  0
BLOCK
  5
2BA
330
2B9
100
AcDbEntity
  8
0
100
AcDbBlockBegin
  2
*D12
 70
     1
 10
0.0
 20
0.0
 30
0.0
  3
*D12
  1

  0
SOLID
  5
2BC
330
2B9
100
AcDbEntity
  8
0
  6
Continuous
 62
     7
 48
3.0
370
     0
100
AcDbTrace
 10
48.7046631408
 20
18.0346631827
 30
0.0
 11
48.6446631408
 21
17.6446631827
 31
0.0
 12
48.7646631408
 22
17.6446631827
 32
0.0
 13
48.7646631408
 23
17.6446631827
 33
0.0
  0
SOLID
  5
2BD
330
2B9
100
AcDbEntity
  8
0
  6
Continuous
 62
     7
 48
3.0
370
     0
100
AcDbTrace
 10
48.7046631408
 20
20.0346631827
 30
0.0
 11
48.7646631408
 21
20.4246631827
 31
0.0
 12
48.6446631408
 22
20.4246631827
 32
0.0
 13
48.6446631408
 23
20.4246631827
 33
0.0
  0
LINE
  5
2BE
330
2B9
100
AcDbEntity
  8
0
  6
Continuous
 62
     7
 48
3.0
370
     0
100
AcDbLine
 10
48.0677237928
 20
18.9900281296
 30
0.0
 11
48.0677237928
 21
18.4841641948
 31
0.0
  0
LINE
  5
2BF
330
2B9
100
AcDbEntity
  8
0
  6
Continuous
 62
     7
 48
3.0
370
     0
100
AcDbLine
 10
48.0677237928
 20
18.4841641948
 30
0.0
 11
48.1438410029
 21
18.4841641948
 31
0.0
  0
LINE
  5
2C0
330
2B9
100
AcDbEntity
  8
0
  6
Continuous
 62
     7
 48
3.0
370
     0
100
AcDbLine
 10
48.0677237928
 20
18.9900281296
 30
0.0
 11
48.1438410029
 21
18.9900281296
 31
0.0
  0
LINE
  5
2C1
330
2B9
100
AcDbEntity
  8
0
  6
Continuous
 62
     7
 48
3.0
370
     0
100
AcDbLine
 10
49.3416024888
 20
18.9900281296
 30
0.0
 11
49.3416024888
 21
18.4841641948
 31
0.0
  0
LINE
  5
2C2
330
2B9
100
AcDbEntity
  8
0
  6
Continuous
 62
     7
 48
3.0
370
     0
100
AcDbLine
 10
49.3416024888
 20
18.4841641948
 30
0.0
 11
49.2654852788
 21
18.4841641948
 31
0.0
  0
LINE
  5
2C3
330
2B9
100
AcDbEntity
  8
0
  6
Continuous
 62
     7
 48
3.0
370
     0
100
AcDbLine
 10
49.3416024888
 20
18.9900281296
 30
0.0
 11
49.2654852788
 21
18.9900281296
 31
0.0
  0
LINE
  5
2C4
330
2B9
100
AcDbEntity
  8
0
  6
Continuous
 62
     7
 48
3.0
370
     0
100
AcDbLine
 10
45.8747169311
 20
18.0346631827
 30
0.0
 11
49.0796631408
 21
18.0346631827
 31
0.0
  0
LINE
  5
2C5
330
2B9
100
AcDbEntity
  8
0
  6
Continuous
 62
     7
 48
3.0
370
     0
100
AcDbLine
 10
47.8747169311
 20
20.0346631827
 30
0.0
 11
49.0796631408
 21
20.0346631827
 31
0.0
  0
LINE
  5
2C6
330
2B9
100
AcDbEntity
  8
0
  6
Continuous
 62
     7
 48
3.0
370
     0
100
AcDbLine
 10
48.7046631408
 20
18.0346631827
 30
0.0
 11
48.7046631408
 21
17.2846631827
 31
0.0
  0
LINE
  5
2C7
330
2B9
100
AcDbEntity
  8
0
  6
Continuous
 62
     7
 48
3.0
370
     0
100
AcDbLine
 10
48.7046631408
 20
20.0346631827
 30
0.0
 11
48.7046631408
 21
20.7846631827
 31
0.0
  0
MTEXT
  5
2C8
330
2B9
100
AcDbEntity
  8
0
  6
Continuous
 62
     7
 48
3.0
370
     0
100
AcDbMText
 10
48.2199582129
 20
19.5180635645
 30
0.0
 40
0.375
 41
0.0
 71
     1
 72
     1
  1
2.00
  7
SLDTEXTSTYLE0
 73
     1
 44
1.0
  0
MTEXT
  5
2C9
330
2B9
100
AcDbEntity
  8
0
  6
Continuous
 62
     7
 48
3.0
370
     0
100
AcDbMText
 10
48.2199582129
 20
18.9229295235
 30
0.0
 40
0.375
 41
0.0
 71
     1
 72
     1
  1
50.8
  7
SLDTEXTSTYLE0
 73
     1
 44
1.0
  0
ENDBLK
  5
2BB
330
2B9
100
AcDbEntity
  8
0
100
AcDbBlockEnd
  0
BLOCK
  5
2CC
330
2CB
100
AcDbEntity
  8
0
100
AcDbBlockBegin
  2
*D13
 70
     1
 10
0.0
 20
0.0
 30
0.0
  3
*D13
  1

  0
SOLID
  5
2CE
330
2CB
100
AcDbEntity
  8
0
  6
Continuous
 62
     7
 48
3.0
370
     0
100
AcDbTrace
 10
45.7247169311
 20
20.9734211625
 30
0.0
 11
45.3347169311
 21
21.0334211625
 31
0.0
 12
45.3347169311
 22
20.9134211625
 32
0.0
 13
45.3347169311
 23
20.9134211625
 33
0.0
  0
SOLID
  5
2CF
330
2CB
100
AcDbEntity
  8
0
  6
Continuous
 62
     7
 48
3.0
370
     0
100
AcDbTrace
 10
47.7247169311
 20
20.9734211625
 30
0.0
 11
48.1147169311
 21
20.9134211625
 31
0.0
 12
48.1147169311
 22
21.0334211625
 32
0.0
 13
48.1147169311
 23
21.0334211625
 33
0.0
  0
LINE
  5
2D0
330
2CB
100
AcDbEntity
  8
0
  6
Continuous
 62
     7
 48
3.0
370
     0
100
AcDbLine
 10
46.0877775831
 20
20.9287861094
 30
0.0
 11
46.0877775831
 21
20.4229221746
 31
0.0
  0
LINE
  5
2D1
330
2CB
100
AcDbEntity
  8
0
  6
Continuous
 62
     7
 48
3.0
370
     0
100
AcDbLine
 10
46.0877775831
 20
20.4229221746
 30
0.0
 11
46.1638947931
 21
20.4229221746
 31
0.0
  0
LINE
  5
2D2
330
2CB
100
AcDbEntity
  8
0
  6
Continuous
 62
     7
 48
3.0
370
     0
100
AcDbLine
 10
46.0877775831
 20
20.9287861094
 30
0.0
 11
46.1638947931
 21
20.9287861094
 31
0.0
  0
LINE
  5
2D3
330
2CB
100
AcDbEntity
  8
0
  6
Continuous
 62
     7
 48
3.0
370
     0
100
AcDbLine
 10
47.3616562791
 20
20.9287861094
 30
0.0
 11
47.3616562791
 21
20.4229221746
 31
0.0
  0
LINE
  5
2D4
330
2CB
100
AcDbEntity
  8
0
  6
Continuous
 62
     7
 48
3.0
370
     0
100
AcDbLine
 10
47.3616562791
 20
20.4229221746
 30
0.0
 11
47.2855390691
 21
20.4229221746
 31
0.0
  0
LINE
  5
2D5
330
2CB
100
AcDbEntity
  8
0
  6
Continuous
 62
     7
 48
3.0
370
     0
100
AcDbLine
 10
47.3616562791
 20
20.9287861094
 30
0.0
 11
47.2855390691
 21
20.9287861094
 31
0.0
  0
LINE
  5
2D6
330
2CB
100
AcDbEntity
  8
0
  6
Continuous
 62
     7
 48
3.0
370
     0
100
AcDbLine
 10
45.7247169311
 20
18.1846631827
 30
0.0
 11
45.7247169311
 21
21.3484211625
 31
0.0
  0
LINE
  5
2D7
330
2CB
100
AcDbEntity
  8
0
  6
Continuous
 62
     7
 48
3.0
370
     0
100
AcDbLine
 10
47.7247169311
 20
20.1846631827
 30
0.0
 11
47.7247169311
 21
21.3484211625
 31
0.0
  0
LINE
  5
2D8
330
2CB
100
AcDbEntity
  8
0
  6
Continuous
 62
     7
 48
3.0
370
     0
100
AcDbLine
 10
45.7247169311
 20
20.9734211625
 30
0.0
 11
44.9747169311
 21
20.9734211625
 31
0.0
  0
LINE
  5
2D9
330
2CB
100
AcDbEntity
  8
0
  6
Continuous
 62
     7
 48
3.0
370
     0
100
AcDbLine
 10
47.7247169311
 20
20.9734211625
 30
0.0
 11
48.4747169311
 21
20.9734211625
 31
0.0
  0
MTEXT
  5
2DA
330
2CB
100
AcDbEntity
  8
0
  6
Continuous
 62
     7
 48
3.0
370
     0
100
AcDbMText
 10
46.2400120031
 20
21.4568215443
 30
0.0
 40
0.375
 41
0.0
 71
     1
 72
     1
  1
2.00
  7
SLDTEXTSTYLE0
 73
     1
 44
1.0
  0
MTEXT
  5
2DB
330
2CB
100
AcDbEntity
  8
0
  6
Continuous
 62
     7
 48
3.0
370
     0
100
AcDbMText
 10
46.2400120031
 20
20.8616875033
 30
0.0
 40
0.375
 41
0.0
 71
     1
 72
     1
  1
50.8
  7
SLDTEXTSTYLE0
 73
     1
 44
1.0
  0
ENDBLK
  5
2CD
330
2CB
100
AcDbEntity
  8
0
100
AcDbBlockEnd
  0
BLOCK
  5
3E9
330
3E8
100
AcDbEntity
  8
0
100
AcDbBlockBegin
  2
*D14
 70
     1
 10
0.0
 20
0.0
 30
0.0
  3
*D14
  1

  0
SOLID
  5
3EB
330
3E8
100
AcDbEntity
  8
0
  6
Continuous
 62
     7
 48
3.0
370
     0
100
AcDbTrace
 10
29.1371104566
 20
17.3525388462
 30
0.0
 11
28.7471104566
 21
17.4125388462
 31
0.0
 12
28.7471104566
 22
17.2925388462
 32
0.0
 13
28.7471104566
 23
17.2925388462
 33
0.0
  0
SOLID
  5
3EC
330
3E8
100
AcDbEntity
  8
0
  6
Continuous
 62
     7
 48
3.0
370
     0
100
AcDbTrace
 10
29.6371104566
 20
17.3525388462
 30
0.0
 11
30.0271104566
 21
17.2925388462
 31
0.0
 12
30.0271104566
 22
17.4125388462
 32
0.0
 13
30.0271104566
 23
17.4125388462
 33
0.0
  0
LINE
  5
3ED
330
3E8
100
AcDbEntity
  8
0
  6
Continuous
 62
     7
 48
3.0
370
     0
100
AcDbLine
 10
30.7990456916
 20
17.3079037931
 30
0.0
 11
30.7990456916
 21
16.8020398583
 31
0.0
  0
LINE
  5
3EE
330
3E8
100
AcDbEntity
  8
0
  6
Continuous
 62
     7
 48
3.0
370
     0
100
AcDbLine
 10
30.7990456916
 20
16.8020398583
 30
0.0
 11
30.8751629016
 21
16.8020398583
 31
0.0
  0
LINE
  5
3EF
330
3E8
100
AcDbEntity
  8
0
  6
Continuous
 62
     7
 48
3.0
370
     0
100
AcDbLine
 10
30.7990456916
 20
17.3079037931
 30
0.0
 11
30.8751629016
 21
17.3079037931
 31
0.0
  0
LINE
  5
3F0
330
3E8
100
AcDbEntity
  8
0
  6
Continuous
 62
     7
 48
3.0
370
     0
100
AcDbLine
 10
32.0729243875
 20
17.3079037931
 30
0.0
 11
32.0729243875
 21
16.8020398583
 31
0.0
  0
LINE
  5
3F1
330
3E8
100
AcDbEntity
  8
0
  6
Continuous
 62
     7
 48
3.0
370
     0
100
AcDbLine
 10
32.0729243875
 20
16.8020398583
 30
0.0
 11
31.9968071775
 21
16.8020398583
 31
0.0
  0
LINE
  5
3F2
330
3E8
100
AcDbEntity
  8
0
  6
Continuous
 62
     7
 48
3.0
370
     0
100
AcDbLine
 10
32.0729243875
 20
17.3079037931
 30
0.0
 11
31.9968071775
 21
17.3079037931
 31
0.0
  0
LINE
  5
3F3
330
3E8
100
AcDbEntity
  8
0
  6
Continuous
 62
     7
 48
3.0
370
     0
100
AcDbLine
 10
29.1371104566
 20
17.3525388462
 30
0.0
 11
28.3871104566
 21
17.3525388462
 31
0.0
  0
LINE
  5
3F4
330
3E8
100
AcDbEntity
  8
0
  6
Continuous
 62
     7
 48
3.0
370
     0
100
AcDbLine
 10
29.6371104566
 20
17.3525388462
 30
0.0
 11
30.383292659
 21
17.3525388462
 31
0.0
  0
MTEXT
  5
3F5
330
3E8
100
AcDbEntity
  8
0
  6
Continuous
 62
     7
 48
3.0
370
     0
100
AcDbMText
 10
31.0897108925
 20
17.835939228
 30
0.0
 40
0.375
 41
0.0
 71
     1
 72
     1
  1
.50
  7
SLDTEXTSTYLE0
 73
     1
 44
1.0
  0
MTEXT
  5
3F6
330
3E8
100
AcDbEntity
  8
0
  6
Continuous
 62
     7
 48
3.0
370
     0
100
AcDbMText
 10
30.9512801116
 20
17.240805187
 30
0.0
 40
0.375
 41
0.0
 71
     1
 72
     1
  1
12.7
  7
SLDTEXTSTYLE0
 73
     1
 44
1.0
  0
ENDBLK
  5
3EA
330
3E8
100
AcDbEntity
  8
0
100
AcDbBlockEnd
  0
BLOCK
  5
3F8
330
3F7
100
AcDbEntity
  8
0
100
AcDbBlockBegin
  2
SW_NOTE_5
 70
     0
 10
0.0
 20
0.0
 30
0.0
  3
SW_NOTE_5
  1

  0
MTEXT
  5
3FA
330
3F7
100
AcDbEntity
  8
0
  6
Continuous
 62
     0
 48
3.0
370
     0
100
AcDbMText
 10
0.0592930267
 20
0.1817952046
 30
0.0
 40
0.375
 41
0.0
 71
     1
 72
     1
  1
GROUNDING
  7
SLDTEXTSTYLE0
 73
     1
 44
1.0
  0
MTEXT
  5
3FB
330
3F7
100
AcDbEntity
  8
0
  6
Continuous
 62
     0
 48
3.0
370
     0
100
AcDbMText
 10
0.0592930267
 20
-0.311315019
 30
0.0
 40
0.375
 41
0.0
 71
     1
 72
     1
  1
EMBOSS
  7
SLDTEXTSTYLE0
 73
     1
 44
1.0
  0
ENDBLK
  5
3F9
330
3F7
100
AcDbEntity
  8
0
100
AcDbBlockEnd
  0
ENDSEC
  0
SECTION
  2
ENTITIES
  0
LINE
  5
44
330
1F
100
AcDbEntity
  8
0
  6
Continuous
 62
     7
 48
3.0
370
     0
100
AcDbLine
 10
0.9397548139
 20
32.1152195122
 30
0.0
 11
50.0677548139
 21
32.1152195122
 31
0.0
  0
LINE
  5
45
330
1F
100
AcDbEntity
  8
0
  6
Continuous
 62
     7
 48
3.0
370
     0
100
AcDbLine
 10
50.0677548139
 20
0.9872195122
 30
0.0
 11
50.0677548139
 21
32.1152195122
 31
0.0
  0
LINE
  5
46
330
1F
100
AcDbEntity
  8
0
  6
Continuous
 62
     7
 48
3.0
370
     0
100
AcDbLine
 10
50.0677548139
 20
0.9872195122
 30
0.0
 11
0.9397548139
 21
0.9872195122
 31
0.0
  0
LINE
  5
47
330
1F
100
AcDbEntity
  8
0
  6
Continuous
 62
     7
 48
3.0
370
     0
100
AcDbLine
 10
0.9397548139
 20
32.1152195122
 30
0.0
 11
0.9397548139
 21
0.9872195122
 31
0.0
  0
LINE
  5
48
330
1F
100
AcDbEntity
  8
0
  6
Continuous
 62
     7
 48
3.0
370
     0
100
AcDbLine
 10
0.7537548139
 20
32.3012195122
 30
0.0
 11
50.2537548139
 21
32.3012195122
 31
0.0
  0
LINE
  5
49
330
1F
100
AcDbEntity
  8
0
  6
Continuous
 62
     7
 48
3.0
370
     0
100
AcDbLine
 10
50.2537548139
 20
0.8012195122
 30
0.0
 11
0.7537548139
 21
0.8012195122
 31
0.0
  0
LINE
  5
4A
330
1F
100
AcDbEntity
  8
0
  6
Continuous
 62
     7
 48
3.0
370
     0
100
AcDbLine
 10
0.7537548139
 20
32.3012195122
 30
0.0
 11
0.7537548139
 21
0.8012195122
 31
0.0
  0
LINE
  5
4B
330
1F
100
AcDbEntity
  8
0
  6
Continuous
 62
     7
 48
3.0
370
     0
100
AcDbLine
 10
50.2537548139
 20
0.8012195122
 30
0.0
 11
50.2537548139
 21
32.3012195122
 31
0.0
  0
LINE
  5
4C
330
1F
100
AcDbEntity
  8
0
  6
Continuous
 62
     7
 48
3.0
370
     0
100
AcDbLine
 10
0.9397548139
 20
30.8972195122
 30
0.0
 11
50.0677548139
 21
30.8972195122
 31
0.0
  0
LINE
  5
4D
330
1F
100
AcDbEntity
  8
0
  6
Continuous
 62
     7
 48
3.0
370
     0
100
AcDbLine
 10
3.1897548139
 20
32.1152195122
 30
0.0
 11
3.1897548139
 21
30.8972195122
 31
0.0
  0
LINE
  5
4E
330
1F
100
AcDbEntity
  8
0
  6
Continuous
 62
     7
 48
3.0
370
     0
100
AcDbLine
 10
22.3177548139
 20
30.8972195122
 30
0.0
 11
22.3177548139
 21
32.1152195122
 31
0.0
  0
LINE
  5
4F
330
1F
100
AcDbEntity
  8
0
  6
Continuous
 62
     7
 48
3.0
370
     0
100
AcDbLine
 10
22.5037548139
 20
30.8972195122
 30
0.0
 11
22.5037548139
 21
32.1152195122
 31
0.0
  0
LINE
  5
50
330
1F
100
AcDbEntity
  8
0
  6
Continuous
 62
     7
 48
3.0
370
     0
100
AcDbLine
 10
46.3177548139
 20
30.8972195122
 30
0.0
 11
46.3177548139
 21
32.1152195122
 31
0.0
  0
LINE
  5
51
330
1F
100
AcDbEntity
  8
0
  6
Continuous
 62
     7
 48
3.0
370
     0
100
AcDbLine
 10
24.7537548139
 20
30.8972195122
 30
0.0
 11
24.7537548139
 21
32.1152195122
 31
0.0
  0
LINE
  5
52
330
1F
100
AcDbEntity
  8
0
  6
Continuous
 62
     7
 48
3.0
370
     0
100
AcDbLine
 10
44.0677548139
 20
30.8972195122
 30
0.0
 11
44.0677548139
 21
32.1152195122
 31
0.0
  0
LINE
  5
53
330
1F
100
AcDbEntity
  8
0
  6
Continuous
 62
     7
 48
3.0
370
     0
100
AcDbLine
 10
43.8817548139
 20
30.8972195122
 30
0.0
 11
43.8817548139
 21
32.1152195122
 31
0.0
  0
INSERT
  5
7C
330
1F
100
AcDbEntity
  8
0
  6
Continuous
 62
     7
 48
3.0
370
     0
100
AcDbBlockReference
  2
SW_NOTE_0
 10
25.8501081371
 20
27.2222364894
 30
0.0
  0
MTEXT
  5
7D
330
1F
100
AcDbEntity
  8
0
  6
Continuous
 62
     7
 48
3.0
370
     0
100
AcDbMText
 10
46.9769532468
 20
31.8279490323
 30
0.0
 40
0.5625
 41
0.0
 71
     1
 72
     1
  1
7-18-11
  7
SLDTEXTSTYLE0
 73
     1
 44
1.0
  0
MTEXT
  5
7E
330
1F
100
AcDbEntity
  8
0
  6
Continuous
 62
     7
 48
3.0
370
     0
100
AcDbMText
 10
9.9967455671
 20
31.7946477885
 30
0.0
 40
0.5625
 41
0.0
 71
     1
 72
     1
  1
JUNCTION BOX
  7
SLDTEXTSTYLE0
 73
     1
 44
1.0
  0
MTEXT
  5
7F
330
1F
100
AcDbEntity
  8
0
  6
Continuous
 62
     7
 48
3.0
370
     0
100
AcDbMText
 10
33.0289060637
 20
31.8344601974
 30
0.0
 40
0.5625
 41
0.0
 71
     1
 72
     1
  1
JB-3958
  7
SLDTEXTSTYLE0
 73
     1
 44
1.0
  0
INSERT
  5
85
330
1F
100
AcDbEntity
  8
0
  6
Continuous
 62
     7
 48
3.0
370
     0
100
AcDbBlockReference
  2
SW_NOTE_1
 10
1.4629175606
 20
31.5142800795
 30
0.0
  0
INSERT
  5
8B
330
1F
100
AcDbEntity
  8
0
  6
Continuous
 62
     7
 48
3.0
370
     0
100
AcDbBlockReference
  2
SW_NOTE_2
 10
23.0553446694
 20
31.5005947192
 30
0.0
  0
INSERT
  5
91
330
1F
100
AcDbEntity
  8
0
  6
Continuous
 62
     7
 48
3.0
370
     0
100
AcDbBlockReference
  2
SW_NOTE_3
 10
44.1259158823
 20
31.5101505817
 30
0.0
  0
ARC
  5
92
330
1F
100
AcDbEntity
  8
0
  6
Continuous
 62
     7
 48
9.0
370
    15
100
AcDbCircle
 10
18.8022365227
 20
17.7626631827
 30
0.0
 40
0.2030000000000036
100
AcDbArc
 50
133.2687098487
 51
46.7312901514
  0
LINE
  5
93
330
1F
100
AcDbEntity
  8
0
  6
Continuous
 62
     7
 48
3.0
370
    15
100
AcDbLine
 10
19.0522364744
 20
10.0346630231
 30
0.0
 11
19.0522364744
 21
20.0346633423
 31
0.0
  0
LINE
  5
94
330
1F
100
AcDbEntity
  8
0
  6
Continuous
 62
     7
 48
3.0
370
    15
100
AcDbLine
 10
11.052236571
 20
10.0346630231
 30
0.0
 11
19.0522364744
 21
10.0346630231
 31
0.0
  0
ARC
  5
95
330
1F
100
AcDbEntity
  8
0
  6
Continuous
 62
     7
 48
9.0
370
    15
100
AcDbCircle
 10
11.3022365227
 20
17.7626631827
 30
0.0
 40
0.203000000000001
100
AcDbArc
 50
133.2687098484
 51
46.7312901515
  0
ARC
  5
96
330
1F
100
AcDbEntity
  8
0
  6
Continuous
 62
     7
 48
9.0
370
    15
100
AcDbCircle
 10
11.3022365227
 20
11.7626631827
 30
0.0
 40
0.2030000000000015
100
AcDbArc
 50
133.2687098485
 51
46.7312901514
  0
ARC
  5
97
330
1F
100
AcDbEntity
  8
0
  6
Continuous
 62
     7
 48
9.0
370
    15
100
AcDbCircle
 10
18.8022365227
 20
11.7626631827
 30
0.0
 40
0.2029999999999985
100
AcDbArc
 50
133.2687098487
 51
46.7312901514
  0
LINE
  5
98
330
1F
100
AcDbEntity
  8
0
  6
Continuous
 62
     7
 48
3.0
370
    15
100
AcDbLine
 10
11.052236571
 20
20.0346633423
 30
0.0
 11
11.052236571
 21
10.0346630231
 31
0.0
  0
LINE
  5
99
330
1F
100
AcDbEntity
  8
0
  6
Continuous
 62
     7
 48
3.0
370
    15
100
AcDbLine
 10
19.0522364744
 20
20.0346633423
 30
0.0
 11
11.052236571
 21
20.0346633423
 31
0.0
  0
LWPOLYLINE
  5
9A
330
1F
100
AcDbEntity
  8
0
  6
Continuous
 62
     7
 48
3.0
370
    15
100
AcDbPolyline
 90
        9
 70
   128
 43
0.0
 10
11.2612576231
 20
12.0160531206
 10
11.2503522024
 20
12.005310498
 10
11.2396362728
 20
11.9947544333
 10
11.2291599939
 20
11.9844344992
 10
11.2189711782
 20
11.9743979218
 10
11.2091176387
 20
11.9646913406
 10
11.1996448415
 20
11.9553596351
 10
11.1905961994
 20
11.9464459247
 10
11.1820139518
 20
11.9379918624
  0
ARC
  5
9B
330
1F
100
AcDbEntity
  8
0
  6
Continuous
 62
     7
 48
9.0
370
    15
100
AcDbCircle
 10
11.3022365227
 20
12.0346631827
 30
0.0
 40
0.1542687964746288
100
AcDbArc
 50
218.802861523
 51
230.3357915391
  0
LWPOLYLINE
  5
9C
330
1F
100
AcDbEntity
  8
0
  6
Continuous
 62
     7
 48
3.0
370
    15
100
AcDbPolyline
 90
        9
 70
   128
 43
0.0
 10
11.2037687672
 20
11.9159073442
 10
11.2123510147
 20
11.9243614065
 10
11.2213996568
 20
11.9332751169
 10
11.2308727474
 20
11.9426068224
 10
11.2407262869
 20
11.9523134036
 10
11.2509148092
 20
11.962349981
 10
11.2613913815
 20
11.9726699151
 10
11.2721070177
 20
11.9832259798
 10
11.2830127318
 20
11.9939686024
  0
LWPOLYLINE
  5
9D
330
1F
100
AcDbEntity
  8
0
  6
Continuous
 62
     7
 48
3.0
370
    15
100
AcDbPolyline
 90
        9
 70
   128
 43
0.0
 10
11.3432154763
 20
12.0532731706
 10
11.354120897
 20
12.0640160865
 10
11.3648368265
 20
12.0745718579
 10
11.3753131055
 20
12.0848920854
 10
11.3855016278
 20
12.0949286628
 10
11.3953554606
 20
12.104635244
 10
11.4048282579
 20
12.1139669495
 10
11.4138769
 20
12.1228803665
 10
11.4224591475
 20
12.1313347222
  0
ARC
  5
9E
330
1F
100
AcDbEntity
  8
0
  6
Continuous
 62
     7
 48
9.0
370
    15
100
AcDbCircle
 10
11.3022365227
 20
12.0346631827
 30
0.0
 40
0.1542687964746292
100
AcDbArc
 50
38.802861523
 51
50.3357915391
  0
LWPOLYLINE
  5
9F
330
1F
100
AcDbEntity
  8
0
  6
Continuous
 62
     7
 48
3.0
370
    15
100
AcDbPolyline
 90
        9
 70
   128
 43
0.0
 10
11.4007043322
 20
12.1534189471
 10
11.3921220846
 20
12.1449648847
 10
11.3830734425
 20
12.1360511744
 10
11.3736003519
 20
12.1267194688
 10
11.3637468124
 20
12.1170128876
 10
11.3535582901
 20
12.1069766036
 10
11.3430817178
 20
12.0966563761
 10
11.3323660816
 20
12.0861006047
 10
11.3214603676
 20
12.0753576888
  0
LWPOLYLINE
  5
A0
330
1F
100
AcDbEntity
  8
0
  6
Continuous
 62
     7
 48
3.0
370
    15
100
AcDbPolyline
 90
        9
 70
   128
 43
0.0
 10
11.2830127318
 20
11.9939686024
 10
11.2904952853
 20
11.9939125764
 10
11.2979904521
 20
11.993856257
 10
11.3054900188
 20
11.9937996443
 10
11.3129854788
 20
11.993743325
 10
11.3204689124
 20
11.993687299
 10
11.3279323995
 20
11.9936309796
 10
11.3353674336
 20
11.9935752469
 10
11.3427660948
 20
11.9935195142
  0
LWPOLYLINE
  5
A1
330
1F
100
AcDbEntity
  8
0
  6
Continuous
 62
     7
 48
3.0
370
    15
100
AcDbPolyline
 90
        9
 70
   128
 43
0.0
 10
11.3427660948
 20
11.9935195142
 10
11.3428218275
 20
12.0009181754
 10
11.3428778535
 20
12.0083535029
 10
11.3429338795
 20
12.0158166967
 10
11.3429901989
 20
12.0233004235
 10
11.3430465182
 20
12.0307958836
 10
11.3431028376
 20
12.0382954503
 10
11.3431591569
 20
12.0457903237
 10
11.3432154763
 20
12.0532731706
  0
LWPOLYLINE
  5
A2
330
1F
100
AcDbEntity
  8
0
  6
Continuous
 62
     7
 48
3.0
370
    15
100
AcDbPolyline
 90
        9
 70
   128
 43
0.0
 10
11.3214603676
 20
12.0753576888
 10
11.313977814
 20
12.0754140082
 10
11.3064826473
 20
12.0754703275
 10
11.2989830806
 20
12.0755266469
 10
11.2914876205
 20
12.0755829662
 10
11.2840038936
 20
12.0756392856
 10
11.2765406999
 20
12.0756953116
 10
11.2691056657
 20
12.0757510443
 10
11.2617067112
 20
12.075806777
  0
LWPOLYLINE
  5
A3
330
1F
100
AcDbEntity
  8
0
  6
Continuous
 62
     7
 48
3.0
370
    15
100
AcDbPolyline
 90
        9
 70
   128
 43
0.0
 10
11.2617067112
 20
12.075806777
 10
11.2616512719
 20
12.0684081158
 10
11.2615952458
 20
12.0609730817
 10
11.2615392198
 20
12.0535095946
 10
11.2614829005
 20
12.046026161
 10
11.2614265811
 20
12.0385304076
 10
11.2613702618
 20
12.0310311342
 10
11.2613139424
 20
12.0235359675
 10
11.2612576231
 20
12.0160531206
  0
LINE
  5
A4
330
1F
100
AcDbEntity
  8
0
  6
Continuous
 62
     7
 48
3.0
370
    15
100
AcDbLine
 10
11.2610927716
 20
11.9941334538
 30
0.0
 11
11.2830127318
 21
11.9939686024
 31
0.0
  0
LINE
  5
A5
330
1F
100
AcDbEntity
  8
0
  6
Continuous
 62
     7
 48
3.0
370
    15
100
AcDbLine
 10
11.2612576231
 20
12.0160531206
 30
0.0
 11
11.2610927716
 21
11.9941334538
 31
0.0
  0
LINE
  5
A6
330
1F
100
AcDbEntity
  8
0
  6
Continuous
 62
     7
 48
3.0
370
    15
100
AcDbLine
 10
11.3432154763
 20
12.0532731706
 30
0.0
 11
11.3433800344
 21
12.0751928374
 31
0.0
  0
LINE
  5
A7
330
1F
100
AcDbEntity
  8
0
  6
Continuous
 62
     7
 48
3.0
370
    15
100
AcDbLine
 10
11.3433800344
 20
12.0751928374
 30
0.0
 11
11.3214603676
 21
12.0753576888
 31
0.0
  0
CIRCLE
  5
A8
330
1F
100
AcDbEntity
  8
0
  6
Continuous
 62
     7
 48
9.0
370
    15
100
AcDbCircle
 10
11.3022365227
 20
12.0346631827
 30
0.0
 40
0.1864999999999979
  0
LWPOLYLINE
  5
A9
330
1F
100
AcDbEntity
  8
0
  6
Continuous
 62
     7
 48
3.0
370
    15
100
AcDbPolyline
 90
        9
 70
   128
 43
0.0
 10
18.7830126778
 20
18.075357763
 10
18.7721069638
 20
18.0861003856
 10
18.7613913276
 20
18.0966564503
 10
18.7509147552
 20
18.1069763844
 10
18.7407262329
 20
18.1170129618
 10
18.7308726934
 20
18.126719543
 10
18.7213996029
 20
18.1360512485
 10
18.7123509607
 20
18.1449649589
 10
18.7037687132
 20
18.1534190212
  0
ARC
  5
AA
330
1F
100
AcDbEntity
  8
0
  6
Continuous
 62
     7
 48
9.0
370
    15
100
AcDbCircle
 10
18.8022365227
 20
18.0346631827
 30
0.0
 40
0.1542687964746266
100
AcDbArc
 50
129.6642084609
 51
141.197138477
  0
LWPOLYLINE
  5
AB
330
1F
100
AcDbEntity
  8
0
  6
Continuous
 62
     7
 48
3.0
370
    15
100
AcDbPolyline
 90
        9
 70
   128
 43
0.0
 10
18.6820138979
 20
18.131334503
 10
18.6905961454
 20
18.1228804407
 10
18.6996447875
 20
18.1139667303
 10
18.7091175848
 20
18.1046350248
 10
18.7189714176
 20
18.0949284436
 10
18.7291599399
 20
18.0848918662
 10
18.7396362189
 20
18.0745719321
 10
18.7503521484
 20
18.0640158673
 10
18.7612575691
 20
18.0532732448
  0
LWPOLYLINE
  5
AC
330
1F
100
AcDbEntity
  8
0
  6
Continuous
 62
     7
 48
3.0
370
    15
100
AcDbPolyline
 90
        9
 70
   128
 43
0.0
 10
18.7612575691
 20
18.0532732448
 10
18.7613138884
 20
18.0457903979
 10
18.7613702078
 20
18.0382952311
 10
18.7614265271
 20
18.0307959578
 10
18.7614828465
 20
18.0233002044
 10
18.7615391658
 20
18.0158167708
 10
18.7615951919
 20
18.0083532837
 10
18.7616512179
 20
18.0009182496
 10
18.7617069506
 20
17.9935195884
  0
LWPOLYLINE
  5
AD
330
1F
100
AcDbEntity
  8
0
  6
Continuous
 62
     7
 48
3.0
370
    15
100
AcDbPolyline
 90
        9
 70
   128
 43
0.0
 10
18.7617069506
 20
17.9935195884
 10
18.7691056118
 20
17.9935753211
 10
18.7765406459
 20
17.9936310538
 10
18.784004133
 20
17.9936870798
 10
18.7914875665
 20
17.9937433991
 10
18.7989830266
 20
17.9937997185
 10
18.8064825933
 20
17.9938560378
 10
18.8139777601
 20
17.9939123572
 10
18.8214603136
 20
17.9939686765
  0
LWPOLYLINE
  5
AE
330
1F
100
AcDbEntity
  8
0
  6
Continuous
 62
     7
 48
3.0
370
    15
100
AcDbPolyline
 90
        9
 70
   128
 43
0.0
 10
18.8214603136
 20
17.9939686765
 10
18.8323660276
 20
17.9832257606
 10
18.8430816639
 20
17.9726699892
 10
18.8535582362
 20
17.9623497618
 10
18.8637467585
 20
17.9523134777
 10
18.873600298
 20
17.9426068965
 10
18.8830733885
 20
17.933275191
 10
18.8921220307
 20
17.9243614806
 10
18.9007042782
 20
17.9159074183
  0
ARC
  5
AF
330
1F
100
AcDbEntity
  8
0
  6
Continuous
 62
     7
 48
9.0
370
    15
100
AcDbCircle
 10
18.8022365227
 20
18.0346631827
 30
0.0
 40
0.1542687964746315
100
AcDbArc
 50
309.6642084609
 51
321.197138477
  0
LWPOLYLINE
  5
B0
330
1F
100
AcDbEntity
  8
0
  6
Continuous
 62
     7
 48
3.0
370
    15
100
AcDbPolyline
 90
        9
 70
   128
 43
0.0
 10
18.9224590936
 20
17.9379916432
 10
18.913876846
 20
17.9464459989
 10
18.9048282039
 20
17.9553594159
 10
18.8953554067
 20
17.9646911214
 10
18.8855018672
 20
17.9743977026
 10
18.8753130515
 20
17.98443428
 10
18.8648367725
 20
17.9947545075
 10
18.854120843
 20
18.0053102789
 10
18.8432154223
 20
18.0160531947
  0
LWPOLYLINE
  5
B1
330
1F
100
AcDbEntity
  8
0
  6
Continuous
 62
     7
 48
3.0
370
    15
100
AcDbPolyline
 90
        9
 70
   128
 43
0.0
 10
18.8432154223
 20
18.0160531947
 10
18.843159103
 20
18.0235360416
 10
18.8431027836
 20
18.0310309151
 10
18.8430464643
 20
18.0385304818
 10
18.8429901449
 20
18.0460259418
 10
18.8429338256
 20
18.0535096687
 10
18.8428777995
 20
18.0609728625
 10
18.8428217735
 20
18.0684081899
 10
18.8427663342
 20
18.0758068511
  0
LWPOLYLINE
  5
B2
330
1F
100
AcDbEntity
  8
0
  6
Continuous
 62
     7
 48
3.0
370
    15
100
AcDbPolyline
 90
        9
 70
   128
 43
0.0
 10
18.8427663342
 20
18.0758068511
 10
18.8353673796
 20
18.0757511184
 10
18.8279323455
 20
18.0756953858
 10
18.8204691517
 20
18.0756390664
 10
18.8129854249
 20
18.0755830404
 10
18.8054899648
 20
18.075526721
 10
18.7979903981
 20
18.0754701084
 10
18.7904952313
 20
18.075413789
 10
18.7830126778
 20
18.075357763
  0
LINE
  5
B3
330
1F
100
AcDbEntity
  8
0
  6
Continuous
 62
     7
 48
3.0
370
    15
100
AcDbLine
 10
18.761093011
 20
18.0751929116
 30
0.0
 11
18.7612575691
 21
18.0532732448
 31
0.0
  0
LINE
  5
B4
330
1F
100
AcDbEntity
  8
0
  6
Continuous
 62
     7
 48
3.0
370
    15
100
AcDbLine
 10
18.7830126778
 20
18.075357763
 30
0.0
 11
18.761093011
 21
18.0751929116
 31
0.0
  0
LINE
  5
B5
330
1F
100
AcDbEntity
  8
0
  6
Continuous
 62
     7
 48
3.0
370
    15
100
AcDbLine
 10
18.8433802737
 20
17.994133528
 30
0.0
 11
18.8432154223
 21
18.0160531947
 31
0.0
  0
LINE
  5
B6
330
1F
100
AcDbEntity
  8
0
  6
Continuous
 62
     7
 48
3.0
370
    15
100
AcDbLine
 10
18.8214603136
 20
17.9939686765
 30
0.0
 11
18.8433802737
 21
17.994133528
 31
0.0
  0
CIRCLE
  5
B7
330
1F
100
AcDbEntity
  8
0
  6
Continuous
 62
     7
 48
9.0
370
    15
100
AcDbCircle
 10
18.8022365227
 20
18.0346631827
 30
0.0
 40
0.1865000000000004
  0
LWPOLYLINE
  5
B8
330
1F
100
AcDbEntity
  8
0
  6
Continuous
 62
     7
 48
3.0
370
    15
100
AcDbPolyline
 90
        9
 70
   128
 43
0.0
 10
18.7830126778
 20
12.0753576888
 10
18.7721069638
 20
12.0861006047
 10
18.7613913276
 20
12.0966563761
 10
18.7509147552
 20
12.1069766036
 10
18.7407262329
 20
12.1170128876
 10
18.7308726934
 20
12.1267194688
 10
18.7213996029
 20
12.1360511744
 10
18.7123509607
 20
12.1449648847
 10
18.7037687132
 20
12.1534189471
  0
ARC
  5
B9
330
1F
100
AcDbEntity
  8
0
  6
Continuous
 62
     7
 48
9.0
370
    15
100
AcDbCircle
 10
18.8022365227
 20
12.0346631827
 30
0.0
 40
0.1542687964746292
100
AcDbArc
 50
129.6642084609
 51
141.197138477
  0
LWPOLYLINE
  5
BA
330
1F
100
AcDbEntity
  8
0
  6
Continuous
 62
     7
 48
3.0
370
    15
100
AcDbPolyline
 90
        9
 70
   128
 43
0.0
 10
18.6820138979
 20
12.1313347222
 10
18.6905961454
 20
12.1228803665
 10
18.6996447875
 20
12.1139669495
 10
18.7091175848
 20
12.104635244
 10
18.7189714176
 20
12.0949286628
 10
18.7291599399
 20
12.0848920854
 10
18.7396362189
 20
12.0745718579
 10
18.7503521484
 20
12.0640160865
 10
18.7612575691
 20
12.0532731706
  0
LWPOLYLINE
  5
BB
330
1F
100
AcDbEntity
  8
0
  6
Continuous
 62
     7
 48
3.0
370
    15
100
AcDbPolyline
 90
        9
 70
   128
 43
0.0
 10
18.8214603136
 20
11.9939686024
 10
18.8323660276
 20
11.9832259798
 10
18.8430816639
 20
11.9726699151
 10
18.8535582362
 20
11.962349981
 10
18.8637467585
 20
11.9523134036
 10
18.873600298
 20
11.9426068224
 10
18.8830733885
 20
11.9332751169
 10
18.8921220307
 20
11.9243614065
 10
18.9007042782
 20
11.9159073442
  0
ARC
  5
BC
330
1F
100
AcDbEntity
  8
0
  6
Continuous
 62
     7
 48
9.0
370
    15
100
AcDbCircle
 10
18.8022365227
 20
12.0346631827
 30
0.0
 40
0.1542687964746294
100
AcDbArc
 50
309.6642084609
 51
321.197138477
  0
LWPOLYLINE
  5
BD
330
1F
100
AcDbEntity
  8
0
  6
Continuous
 62
     7
 48
3.0
370
    15
100
AcDbPolyline
 90
        9
 70
   128
 43
0.0
 10
18.9224590936
 20
11.9379918624
 10
18.913876846
 20
11.9464459247
 10
18.9048282039
 20
11.9553596351
 10
18.8953554067
 20
11.9646913406
 10
18.8855018672
 20
11.9743979218
 10
18.8753130515
 20
11.9844344992
 10
18.8648367725
 20
11.9947544333
 10
18.854120843
 20
12.005310498
 10
18.8432154223
 20
12.0160531206
  0
LWPOLYLINE
  5
BE
330
1F
100
AcDbEntity
  8
0
  6
Continuous
 62
     7
 48
3.0
370
    15
100
AcDbPolyline
 90
        9
 70
   128
 43
0.0
 10
18.7612575691
 20
12.0532731706
 10
18.7613138884
 20
12.0457903237
 10
18.7613702078
 20
12.0382954503
 10
18.7614265271
 20
12.0307958836
 10
18.7614828465
 20
12.0233004235
 10
18.7615391658
 20
12.0158166967
 10
18.7615951919
 20
12.0083535029
 10
18.7616512179
 20
12.0009181754
 10
18.7617069506
 20
11.9935195142
  0
LWPOLYLINE
  5
BF
330
1F
100
AcDbEntity
  8
0
  6
Continuous
 62
     7
 48
3.0
370
    15
100
AcDbPolyline
 90
        9
 70
   128
 43
0.0
 10
18.7617069506
 20
11.9935195142
 10
18.7691056118
 20
11.9935752469
 10
18.7765406459
 20
11.9936309796
 10
18.784004133
 20
11.993687299
 10
18.7914875665
 20
11.993743325
 10
18.7989830266
 20
11.9937996443
 10
18.8064825933
 20
11.993856257
 10
18.8139777601
 20
11.9939125764
 10
18.8214603136
 20
11.9939686024
  0
LWPOLYLINE
  5
C0
330
1F
100
AcDbEntity
  8
0
  6
Continuous
 62
     7
 48
3.0
370
    15
100
AcDbPolyline
 90
        9
 70
   128
 43
0.0
 10
18.8432154223
 20
12.0160531206
 10
18.843159103
 20
12.0235359675
 10
18.8431027836
 20
12.0310311342
 10
18.8430464643
 20
12.0385304076
 10
18.8429901449
 20
12.046026161
 10
18.8429338256
 20
12.0535095946
 10
18.8428777995
 20
12.0609730817
 10
18.8428217735
 20
12.0684081158
 10
18.8427663342
 20
12.075806777
  0
LWPOLYLINE
  5
C1
330
1F
100
AcDbEntity
  8
0
  6
Continuous
 62
     7
 48
3.0
370
    15
100
AcDbPolyline
 90
        9
 70
   128
 43
0.0
 10
18.8427663342
 20
12.075806777
 10
18.8353673796
 20
12.0757510443
 10
18.8279323455
 20
12.0756953116
 10
18.8204691517
 20
12.0756392856
 10
18.8129854249
 20
12.0755829662
 10
18.8054899648
 20
12.0755266469
 10
18.7979903981
 20
12.0754703275
 10
18.7904952313
 20
12.0754140082
 10
18.7830126778
 20
12.0753576888
  0
LINE
  5
C2
330
1F
100
AcDbEntity
  8
0
  6
Continuous
 62
     7
 48
3.0
370
    15
100
AcDbLine
 10
18.761093011
 20
12.0751928374
 30
0.0
 11
18.7612575691
 21
12.0532731706
 31
0.0
  0
LINE
  5
C3
330
1F
100
AcDbEntity
  8
0
  6
Continuous
 62
     7
 48
3.0
370
    15
100
AcDbLine
 10
18.7830126778
 20
12.0753576888
 30
0.0
 11
18.761093011
 21
12.0751928374
 31
0.0
  0
LINE
  5
C4
330
1F
100
AcDbEntity
  8
0
  6
Continuous
 62
     7
 48
3.0
370
    15
100
AcDbLine
 10
18.8214603136
 20
11.9939686024
 30
0.0
 11
18.8433802737
 21
11.9941334538
 31
0.0
  0
LINE
  5
C5
330
1F
100
AcDbEntity
  8
0
  6
Continuous
 62
     7
 48
3.0
370
    15
100
AcDbLine
 10
18.8433802737
 20
11.9941334538
 30
0.0
 11
18.8432154223
 21
12.0160531206
 31
0.0
  0
CIRCLE
  5
C6
330
1F
100
AcDbEntity
  8
0
  6
Continuous
 62
     7
 48
9.0
370
    15
100
AcDbCircle
 10
18.8022365227
 20
12.0346631827
 30
0.0
 40
0.1865000000000017
  0
LWPOLYLINE
  5
C7
330
1F
100
AcDbEntity
  8
0
  6
Continuous
 62
     7
 48
3.0
370
    15
100
AcDbPolyline
 90
        9
 70
   128
 43
0.0
 10
11.2612576231
 20
18.0160531947
 10
11.2503522024
 20
18.0053102789
 10
11.2396362728
 20
17.9947545075
 10
11.2291599939
 20
17.98443428
 10
11.2189711782
 20
17.9743977026
 10
11.2091176387
 20
17.9646911214
 10
11.1996448415
 20
17.9553594159
 10
11.1905961994
 20
17.9464459989
 10
11.1820139518
 20
17.9379916432
  0
ARC
  5
C8
330
1F
100
AcDbEntity
  8
0
  6
Continuous
 62
     7
 48
9.0
370
    15
100
AcDbCircle
 10
11.3022365227
 20
18.0346631827
 30
0.0
 40
0.1542687964746315
100
AcDbArc
 50
218.802861523
 51
230.3357915391
  0
LWPOLYLINE
  5
C9
330
1F
100
AcDbEntity
  8
0
  6
Continuous
 62
     7
 48
3.0
370
    15
100
AcDbPolyline
 90
        9
 70
   128
 43
0.0
 10
11.2037687672
 20
17.9159074183
 10
11.2123510147
 20
17.9243614806
 10
11.2213996568
 20
17.933275191
 10
11.2308727474
 20
17.9426068965
 10
11.2407262869
 20
17.9523134777
 10
11.2509148092
 20
17.9623497618
 10
11.2613913815
 20
17.9726699892
 10
11.2721070177
 20
17.9832257606
 10
11.2830127318
 20
17.9939686765
  0
LWPOLYLINE
  5
CA
330
1F
100
AcDbEntity
  8
0
  6
Continuous
 62
     7
 48
3.0
370
    15
100
AcDbPolyline
 90
        9
 70
   128
 43
0.0
 10
11.3427660948
 20
17.9935195884
 10
11.3428218275
 20
18.0009182496
 10
11.3428778535
 20
18.0083532837
 10
11.3429338795
 20
18.0158167708
 10
11.3429901989
 20
18.0233002044
 10
11.3430465182
 20
18.0307959578
 10
11.3431028376
 20
18.0382952311
 10
11.3431591569
 20
18.0457903979
 10
11.3432154763
 20
18.0532732448
  0
LWPOLYLINE
  5
CB
330
1F
100
AcDbEntity
  8
0
  6
Continuous
 62
     7
 48
3.0
370
    15
100
AcDbPolyline
 90
        9
 70
   128
 43
0.0
 10
11.3432154763
 20
18.0532732448
 10
11.354120897
 20
18.0640158673
 10
11.3648368265
 20
18.0745719321
 10
11.3753131055
 20
18.0848918662
 10
11.3855016278
 20
18.0949284436
 10
11.3953554606
 20
18.1046350248
 10
11.4048282579
 20
18.1139667303
 10
11.4138769
 20
18.1228804407
 10
11.4224591475
 20
18.131334503
  0
ARC
  5
CC
330
1F
100
AcDbEntity
  8
0
  6
Continuous
 62
     7
 48
9.0
370
    15
100
AcDbCircle
 10
11.3022365227
 20
18.0346631827
 30
0.0
 40
0.1542687964746266
100
AcDbArc
 50
38.802861523
 51
50.3357915391
  0
LWPOLYLINE
  5
CD
330
1F
100
AcDbEntity
  8
0
  6
Continuous
 62
     7
 48
3.0
370
    15
100
AcDbPolyline
 90
        9
 70
   128
 43
0.0
 10
11.4007043322
 20
18.1534190212
 10
11.3921220846
 20
18.1449649589
 10
11.3830734425
 20
18.1360512485
 10
11.3736003519
 20
18.126719543
 10
11.3637468124
 20
18.1170129618
 10
11.3535582901
 20
18.1069763844
 10
11.3430817178
 20
18.0966564503
 10
11.3323660816
 20
18.0861003856
 10
11.3214603676
 20
18.075357763
  0
LWPOLYLINE
  5
CE
330
1F
100
AcDbEntity
  8
0
  6
Continuous
 62
     7
 48
3.0
370
    15
100
AcDbPolyline
 90
        9
 70
   128
 43
0.0
 10
11.3214603676
 20
18.075357763
 10
11.313977814
 20
18.075413789
 10
11.3064826473
 20
18.0754701084
 10
11.2989830806
 20
18.075526721
 10
11.2914876205
 20
18.0755830404
 10
11.2840038936
 20
18.0756390664
 10
11.2765406999
 20
18.0756953858
 10
11.2691056657
 20
18.0757511184
 10
11.2617067112
 20
18.0758068511
  0
LWPOLYLINE
  5
CF
330
1F
100
AcDbEntity
  8
0
  6
Continuous
 62
     7
 48
3.0
370
    15
100
AcDbPolyline
 90
        9
 70
   128
 43
0.0
 10
11.2617067112
 20
18.0758068511
 10
11.2616512719
 20
18.0684081899
 10
11.2615952458
 20
18.0609728625
 10
11.2615392198
 20
18.0535096687
 10
11.2614829005
 20
18.0460259418
 10
11.2614265811
 20
18.0385304818
 10
11.2613702618
 20
18.0310309151
 10
11.2613139424
 20
18.0235360416
 10
11.2612576231
 20
18.0160531947
  0
LWPOLYLINE
  5
D0
330
1F
100
AcDbEntity
  8
0
  6
Continuous
 62
     7
 48
3.0
370
    15
100
AcDbPolyline
 90
        9
 70
   128
 43
0.0
 10
11.2830127318
 20
17.9939686765
 10
11.2904952853
 20
17.9939123572
 10
11.2979904521
 20
17.9938560378
 10
11.3054900188
 20
17.9937997185
 10
11.3129854788
 20
17.9937433991
 10
11.3204689124
 20
17.9936870798
 10
11.3279323995
 20
17.9936310538
 10
11.3353674336
 20
17.9935753211
 10
11.3427660948
 20
17.9935195884
  0
LINE
  5
D1
330
1F
100
AcDbEntity
  8
0
  6
Continuous
 62
     7
 48
3.0
370
    15
100
AcDbLine
 10
11.3433800344
 20
18.0751929116
 30
0.0
 11
11.3214603676
 21
18.075357763
 31
0.0
  0
LINE
  5
D2
330
1F
100
AcDbEntity
  8
0
  6
Continuous
 62
     7
 48
3.0
370
    15
100
AcDbLine
 10
11.3432154763
 20
18.0532732448
 30
0.0
 11
11.3433800344
 21
18.0751929116
 31
0.0
  0
LINE
  5
D3
330
1F
100
AcDbEntity
  8
0
  6
Continuous
 62
     7
 48
3.0
370
    15
100
AcDbLine
 10
11.2612576231
 20
18.0160531947
 30
0.0
 11
11.2610927716
 21
17.994133528
 31
0.0
  0
LINE
  5
D4
330
1F
100
AcDbEntity
  8
0
  6
Continuous
 62
     7
 48
3.0
370
    15
100
AcDbLine
 10
11.2610927716
 20
17.994133528
 30
0.0
 11
11.2830127318
 21
17.9939686765
 31
0.0
  0
CIRCLE
  5
D5
330
1F
100
AcDbEntity
  8
0
  6
Continuous
 62
     7
 48
9.0
370
    15
100
AcDbCircle
 10
11.3022365227
 20
18.0346631827
 30
0.0
 40
0.1864999999999991
  0
DIMENSION
  5
D6
330
1F
100
AcDbEntity
  8
0
  6
Continuous
 62
     7
 48
3.0
370
     0
100
AcDbDimension
  2
*D5
 10
19.0522365227
 20
21.0862872103
 30
0.0
 11
15.0522365227
 21
21.0862872103
 31
0.0
 70
   160
 71
     2
 42
-1.0
  3
SLDDIMSTYLE0
100
AcDbAlignedDimension
 13
11.0522365227
 23
20.0346631827
 33
0.0
 14
19.0522365227
 24
20.0346631827
 34
0.0
100
AcDbRotatedDimension
  0
DIMENSION
  5
E9
330
1F
100
AcDbEntity
  8
0
  6
Continuous
 62
     7
 48
3.0
370
     0
100
AcDbDimension
  2
*D6
 10
20.2470822633
 20
10.0346631827
 30
0.0
 11
20.2470822633
 21
15.0346631827
 31
0.0
 70
   160
 71
     2
 42
-1.0
  3
SLDDIMSTYLE0
100
AcDbAlignedDimension
 13
19.0522365227
 23
20.0346631827
 33
0.0
 14
19.0522365227
 24
10.0346631827
 34
0.0
 50
90.0
100
AcDbRotatedDimension
  0
INSERT
  5
103
102
{ACAD_REACTORS
330
105
102
}
330
1F
100
AcDbEntity
  8
0
  6
Continuous
 62
     7
 48
3.0
370
     0
100
AcDbBlockReference
  2
SW_NOTE_4
 10
21.5120347985
 20
7.721013116
 30
0.0
  0
LEADER
  5
105
330
1F
100
AcDbEntity
  8
0
  6
Continuous
 62
     7
 48
3.0
370
     0
100
AcDbLeader
  3
SLDDIMSTYLE1
 73
     2
 76
     3
 10
18.8572067128
 20
11.8564483455
 30
0.0
 10
20.7620347985
 20
7.721013116
 30
0.0
 10
21.5120347985
 20
7.721013116
 30
0.0
340
103
  0
LINE
  5
106
330
1F
100
AcDbEntity
  8
0
  6
Continuous
 62
     7
 48
3.0
370
    15
100
AcDbLine
 10
18.9887364079
 20
23.031785123
 30
0.0
 11
18.9887364079
 21
23.065116498
 31
0.0
  0
LINE
  5
107
330
1F
100
AcDbEntity
  8
0
  6
Continuous
 62
     7
 48
3.0
370
    15
100
AcDbLine
 10
18.6157365835
 20
23.065116498
 30
0.0
 11
18.6157365835
 21
23.031785123
 31
0.0
  0
ARC
  5
108
330
1F
100
AcDbEntity
  8
0
  6
Continuous
 62
     7
 48
9.0
370
    15
100
AcDbCircle
 10
18.9737365227
 20
23.0317851148
 30
0.0
 40
0.014999999999997
100
AcDbArc
 50
322.550643686
 51
0.0
  0
ARC
  5
109
330
1F
100
AcDbEntity
  8
0
  6
Continuous
 62
     7
 48
9.0
370
    15
100
AcDbCircle
 10
18.6307365227
 20
23.0317851148
 30
0.0
 40
0.0150000000000006
100
AcDbArc
 50
180.0
 51
217.449356314
  0
ARC
  5
10A
330
1F
100
AcDbEntity
  8
0
  6
Continuous
 62
     7
 48
9.0
370
    15
100
AcDbCircle
 10
18.8022365227
 20
23.1631410137
 30
0.0
 40
0.2310245869783057
100
AcDbArc
 50
280.1818657166
 51
322.550643686
  0
ARC
  5
10B
330
1F
100
AcDbEntity
  8
0
  6
Continuous
 62
     7
 48
9.0
370
    15
100
AcDbCircle
 10
18.8022365227
 20
23.1631410137
 30
0.0
 40
0.2310245869783057
100
AcDbArc
 50
217.449356314
 51
259.8181342834
  0
LINE
  5
10C
330
1F
100
AcDbEntity
  8
0
  6
Continuous
 62
     7
 48
3.0
370
    15
100
AcDbLine
 10
18.8712366453
 20
23.1891164522
 30
0.0
 11
18.8712366453
 21
23.2661164427
 31
0.0
  0
LINE
  5
10D
330
1F
100
AcDbEntity
  8
0
  6
Continuous
 62
     7
 48
3.0
370
    15
100
AcDbLine
 10
18.7332366395
 20
23.2661164427
 30
0.0
 11
18.7332366395
 21
23.1891164522
 31
0.0
  0
LINE
  5
10E
330
1F
100
AcDbEntity
  8
0
  6
Continuous
 62
     7
 48
3.0
370
    15
100
AcDbLine
 10
11.4887364619
 20
23.031785123
 30
0.0
 11
11.4887364619
 21
23.065116498
 31
0.0
  0
LINE
  5
10F
330
1F
100
AcDbEntity
  8
0
  6
Continuous
 62
     7
 48
3.0
370
    15
100
AcDbLine
 10
11.1157366375
 20
23.065116498
 30
0.0
 11
11.1157366375
 21
23.031785123
 31
0.0
  0
ARC
  5
110
330
1F
100
AcDbEntity
  8
0
  6
Continuous
 62
     7
 48
9.0
370
    15
100
AcDbCircle
 10
11.4737365227
 20
23.0317851148
 30
0.0
 40
0.0149999999999988
100
AcDbArc
 50
322.550643686
 51
0.0
  0
ARC
  5
111
330
1F
100
AcDbEntity
  8
0
  6
Continuous
 62
     7
 48
9.0
370
    15
100
AcDbCircle
 10
11.1307365227
 20
23.0317851148
 30
0.0
 40
0.0150000000000006
100
AcDbArc
 50
180.0
 51
217.449356314
  0
ARC
  5
112
330
1F
100
AcDbEntity
  8
0
  6
Continuous
 62
     7
 48
9.0
370
    15
100
AcDbCircle
 10
11.3022365227
 20
23.1631410137
 30
0.0
 40
0.2310245869783054
100
AcDbArc
 50
280.1818657166
 51
322.550643686
  0
ARC
  5
113
330
1F
100
AcDbEntity
  8
0
  6
Continuous
 62
     7
 48
9.0
370
    15
100
AcDbCircle
 10
11.3022365227
 20
23.1631410137
 30
0.0
 40
0.2310245869783057
100
AcDbArc
 50
217.449356314
 51
259.8181342834
  0
LINE
  5
114
330
1F
100
AcDbEntity
  8
0
  6
Continuous
 62
     7
 48
3.0
370
    15
100
AcDbLine
 10
11.3712364059
 20
23.1891164522
 30
0.0
 11
11.3712364059
 21
23.2661164427
 31
0.0
  0
LINE
  5
115
330
1F
100
AcDbEntity
  8
0
  6
Continuous
 62
     7
 48
3.0
370
    15
100
AcDbLine
 10
11.2332364001
 20
23.2661164427
 30
0.0
 11
11.2332364001
 21
23.1891164522
 31
0.0
  0
LINE
  5
116
330
1F
100
AcDbEntity
  8
0
  6
Continuous
 62
     7
 48
3.0
370
    15
100
AcDbLine
 10
19.0522364744
 20
23.1271164751
 30
0.0
 11
11.052236571
 21
23.1271164751
 31
0.0
  0
LINE
  5
117
330
1F
100
AcDbEntity
  8
0
  6
Continuous
 62
     7
 48
3.0
370
    15
100
AcDbLine
 10
19.0522364744
 20
23.065116498
 30
0.0
 11
11.052236571
 21
23.065116498
 31
0.0
  0
LINE
  5
118
330
1F
100
AcDbEntity
  8
0
  6
Continuous
 62
     7
 48
3.0
370
    15
100
AcDbLine
 10
19.0522364744
 20
23.1271164751
 30
0.0
 11
19.0522364744
 21
23.065116498
 31
0.0
  0
LINE
  5
119
330
1F
100
AcDbEntity
  8
0
  6
Continuous
 62
     7
 48
3.0
370
    15
100
AcDbLine
 10
11.052236571
 20
23.1271164751
 30
0.0
 11
11.052236571
 21
23.065116498
 31
0.0
  0
LINE
  5
11A
330
1F
100
AcDbEntity
  8
0
  6
Continuous
 62
     7
 48
3.0
370
    15
100
AcDbLine
 10
18.5212365285
 20
23.2661164427
 30
0.0
 11
18.9132365068
 21
23.2661164427
 31
0.0
  0
LINE
  5
11B
330
1F
100
AcDbEntity
  8
0
  6
Continuous
 62
     7
 48
3.0
370
    15
100
AcDbLine
 10
18.5212365285
 20
23.2041164656
 30
0.0
 11
18.5212365285
 21
23.2661164427
 31
0.0
  0
LINE
  5
11C
330
1F
100
AcDbEntity
  8
0
  6
Continuous
 62
     7
 48
3.0
370
    15
100
AcDbLine
 10
11.5832365169
 20
23.2041164656
 30
0.0
 11
11.5832365169
 21
23.2661164427
 31
0.0
  0
LINE
  5
11D
330
1F
100
AcDbEntity
  8
0
  6
Continuous
 62
     7
 48
3.0
370
    15
100
AcDbLine
 10
11.5832365169
 20
23.2661164427
 30
0.0
 11
11.1912365386
 21
23.2661164427
 31
0.0
  0
LINE
  5
11E
330
1F
100
AcDbEntity
  8
0
  6
Continuous
 62
     7
 48
3.0
370
    15
100
AcDbLine
 10
18.9902364972
 20
23.2661164427
 30
0.0
 11
18.9132365068
 21
23.2661164427
 31
0.0
  0
LINE
  5
11F
330
1F
100
AcDbEntity
  8
0
  6
Continuous
 62
     7
 48
3.0
370
    15
100
AcDbLine
 10
18.9132365068
 20
26.9881164225
 30
0.0
 11
18.9902364972
 21
26.9881164225
 31
0.0
  0
LINE
  5
120
330
1F
100
AcDbEntity
  8
0
  6
Continuous
 62
     7
 48
3.0
370
    15
100
AcDbLine
 10
11.1912365386
 20
27.0651164267
 30
0.0
 11
11.1912365386
 21
26.9881164225
 31
0.0
  0
LINE
  5
121
330
1F
100
AcDbEntity
  8
0
  6
Continuous
 62
     7
 48
3.0
370
    15
100
AcDbLine
 10
18.9132365068
 20
27.0651164267
 30
0.0
 11
18.9132365068
 21
26.9881164225
 31
0.0
  0
LINE
  5
122
330
1F
100
AcDbEntity
  8
0
  6
Continuous
 62
     7
 48
3.0
370
    15
100
AcDbLine
 10
11.1142365481
 20
23.2661164427
 30
0.0
 11
11.1912365386
 21
23.2661164427
 31
0.0
  0
LINE
  5
123
330
1F
100
AcDbEntity
  8
0
  6
Continuous
 62
     7
 48
3.0
370
    15
100
AcDbLine
 10
11.1912365386
 20
26.9881164225
 30
0.0
 11
11.1142365481
 21
26.9881164225
 31
0.0
  0
LINE
  5
124
330
1F
100
AcDbEntity
  8
0
  6
Continuous
 62
     7
 48
3.0
370
    15
100
AcDbLine
 10
11.5832365169
 20
23.2041164656
 30
0.0
 11
11.5832365169
 21
23.1271164751
 31
0.0
  0
LINE
  5
125
330
1F
100
AcDbEntity
  8
0
  6
Continuous
 62
     7
 48
3.0
370
    15
100
AcDbLine
 10
18.5212365285
 20
23.2041164656
 30
0.0
 11
18.5212365285
 21
23.1271164751
 31
0.0
  0
LINE
  5
126
330
1F
100
AcDbEntity
  8
0
  6
Continuous
 62
     7
 48
3.0
370
    15
100
AcDbLine
 10
18.9902364972
 20
23.2041164656
 30
0.0
 11
18.9902364972
 21
27.0501164271
 31
0.0
  0
LINE
  5
127
330
1F
100
AcDbEntity
  8
0
  6
Continuous
 62
     7
 48
3.0
370
    15
100
AcDbLine
 10
19.0522364744
 20
23.2041164656
 30
0.0
 11
19.0522364744
 21
27.0501164271
 31
0.0
  0
ARC
  5
128
330
1F
100
AcDbEntity
  8
0
  6
Continuous
 62
     7
 48
9.0
370
    15
100
AcDbCircle
 10
18.9752365227
 20
27.0501164267
 30
0.0
 40
0.0770000000000017
100
AcDbArc
 50
0.0
 51
90.0
  0
ARC
  5
129
330
1F
100
AcDbEntity
  8
0
  6
Continuous
 62
     7
 48
9.0
370
    15
100
AcDbCircle
 10
18.9752365227
 20
27.0501164267
 30
0.0
 40
0.0150000000000041
100
AcDbArc
 50
0.0
 51
90.0
  0
LINE
  5
12A
330
1F
100
AcDbEntity
  8
0
  6
Continuous
 62
     7
 48
3.0
370
    15
100
AcDbLine
 10
11.052236571
 20
27.0501164271
 30
0.0
 11
11.052236571
 21
23.2041164656
 31
0.0
  0
LINE
  5
12B
330
1F
100
AcDbEntity
  8
0
  6
Continuous
 62
     7
 48
3.0
370
    15
100
AcDbLine
 10
11.1142365481
 20
27.0501164271
 30
0.0
 11
11.1142365481
 21
23.2041164656
 31
0.0
  0
ARC
  5
12C
330
1F
100
AcDbEntity
  8
0
  6
Continuous
 62
     7
 48
9.0
370
    15
100
AcDbCircle
 10
11.1292365227
 20
27.0501164267
 30
0.0
 40
0.0770000000000017
100
AcDbArc
 50
90.0
 51
180.0
  0
ARC
  5
12D
330
1F
100
AcDbEntity
  8
0
  6
Continuous
 62
     7
 48
9.0
370
    15
100
AcDbCircle
 10
11.1292365227
 20
27.0501164267
 30
0.0
 40
0.0150000000000006
100
AcDbArc
 50
90.0
 51
180.0
  0
LINE
  5
12E
330
1F
100
AcDbEntity
  8
0
  6
Continuous
 62
     7
 48
3.0
370
    15
100
AcDbLine
 10
18.9752364839
 20
27.1271164267
 30
0.0
 11
11.1292365615
 21
27.1271164267
 31
0.0
  0
LINE
  5
12F
330
1F
100
AcDbEntity
  8
0
  6
Continuous
 62
     7
 48
3.0
370
    15
100
AcDbLine
 10
18.9752364839
 20
27.0651164267
 30
0.0
 11
11.1292365615
 21
27.0651164267
 31
0.0
  0
ARC
  5
130
330
1F
100
AcDbEntity
  8
0
  6
Continuous
 62
     7
 48
9.0
370
    15
100
AcDbCircle
 10
11.1292365227
 20
23.2041164267
 30
0.0
 40
0.0149999999999988
100
AcDbArc
 50
180.0
 51
270.0
  0
ARC
  5
131
330
1F
100
AcDbEntity
  8
0
  6
Continuous
 62
     7
 48
9.0
370
    15
100
AcDbCircle
 10
11.1292365227
 20
23.2041164267
 30
0.0
 40
0.077
100
AcDbArc
 50
180.0
 51
270.0
  0
ARC
  5
132
330
1F
100
AcDbEntity
  8
0
  6
Continuous
 62
     7
 48
9.0
370
    15
100
AcDbCircle
 10
18.9752365227
 20
23.2041164267
 30
0.0
 40
0.0150000000000006
100
AcDbArc
 50
270.0
 51
0.0
  0
ARC
  5
133
330
1F
100
AcDbEntity
  8
0
  6
Continuous
 62
     7
 48
9.0
370
    15
100
AcDbCircle
 10
18.9752365227
 20
23.2041164267
 30
0.0
 40
0.0769999999999982
100
AcDbArc
 50
270.0
 51
0.0
  0
LINE
  5
134
330
1F
100
AcDbEntity
  8
0
  6
Continuous
 62
     7
 48
3.0
370
    15
100
AcDbLine
 10
18.5522365171
 20
23.1271164751
 30
0.0
 11
18.5522365171
 21
23.1891164522
 31
0.0
  0
LINE
  5
135
330
1F
100
AcDbEntity
  8
0
  6
Continuous
 62
     7
 48
3.0
370
    15
100
AcDbLine
 10
18.5522365171
 20
23.1891164522
 30
0.0
 11
18.9752364839
 21
23.1891164522
 31
0.0
  0
LINE
  5
136
330
1F
100
AcDbEntity
  8
0
  6
Continuous
 62
     7
 48
3.0
370
    15
100
AcDbLine
 10
18.5522365171
 20
23.1271164751
 30
0.0
 11
18.9752364839
 21
23.1271164751
 31
0.0
  0
LINE
  5
137
330
1F
100
AcDbEntity
  8
0
  6
Continuous
 62
     7
 48
3.0
370
    15
100
AcDbLine
 10
11.5522365283
 20
23.1891164522
 30
0.0
 11
11.5522365283
 21
23.1271164751
 31
0.0
  0
LINE
  5
138
330
1F
100
AcDbEntity
  8
0
  6
Continuous
 62
     7
 48
3.0
370
    15
100
AcDbLine
 10
11.1292365615
 20
23.1891164522
 30
0.0
 11
11.5522365283
 21
23.1891164522
 31
0.0
  0
LINE
  5
139
330
1F
100
AcDbEntity
  8
0
  6
Continuous
 62
     7
 48
3.0
370
    15
100
AcDbLine
 10
11.1292365615
 20
23.1271164751
 30
0.0
 11
11.5522365283
 21
23.1271164751
 31
0.0
  0
ARC
  5
13A
330
1F
100
AcDbEntity
  8
0
  6
Continuous
 62
     7
 48
9.0
370
    15
100
AcDbCircle
 10
18.825604927
 20
23.0831160026
 30
0.0
 40
0.1526363240159797
100
AcDbArc
 50
217.0402588669
 51
253.7968445176
  0
LINE
  5
13B
330
1F
100
AcDbEntity
  8
0
  6
Continuous
 62
     7
 48
3.0
370
    15
100
AcDbLine
 10
18.6820138979
 20
22.9911715389
 30
0.0
 11
18.7037687132
 21
22.9911715389
 31
0.0
  0
ARC
  5
13C
330
1F
100
AcDbEntity
  8
0
  6
Continuous
 62
     7
 48
9.0
370
    15
100
AcDbCircle
 10
18.803850202
 20
23.0831159049
 30
0.0
 40
0.1526363372171897
100
AcDbArc
 50
217.0402091689
 51
253.796696
  0
LWPOLYLINE
  5
13D
330
1F
100
AcDbEntity
  8
0
  6
Continuous
 62
     7
 48
3.0
370
    15
100
AcDbPolyline
 90
        9
 70
   128
 43
0.0
 10
18.7612575691
 20
22.9365426499
 10
18.7613138884
 20
22.936042229
 10
18.7613702078
 20
22.9357884986
 10
18.7614265271
 20
22.9357823387
 10
18.7614828465
 20
22.9360234559
 10
18.7615391658
 20
22.936511557
 10
18.7615951919
 20
22.9372463485
 10
18.7616512179
 20
22.9382266571
 10
18.7617069506
 20
22.939451603
  0
ARC
  5
13E
330
1F
100
AcDbEntity
  8
0
  6
Continuous
 62
     7
 48
9.0
370
    15
100
AcDbCircle
 10
18.8025461214
 20
23.1631644685
 30
0.0
 40
0.2274099471713558
100
AcDbArc
 50
259.6544744661
 51
264.9977143509
  0
ARC
  5
13F
330
1F
100
AcDbEntity
  8
0
  6
Continuous
 62
     7
 48
9.0
370
    15
100
AcDbCircle
 10
18.8025480716
 20
23.1630700807
 30
0.0
 40
0.2273155291796177
100
AcDbArc
 50
269.921355124
 51
274.7724220765
  0
ARC
  5
140
330
1F
100
AcDbEntity
  8
0
  6
Continuous
 62
     7
 48
9.0
370
    15
100
AcDbCircle
 10
18.8591699505
 20
22.9389621052
 30
0.0
 40
0.0164109182073007
100
AcDbArc
 50
178.2907525711
 51
191.2703913397
  0
ARC
  5
141
330
1F
100
AcDbEntity
  8
0
  6
Continuous
 62
     7
 48
9.0
370
    15
100
AcDbCircle
 10
18.8019287162
 20
23.1631459185
 30
0.0
 40
0.2273914198974614
100
AcDbArc
 50
265.2282144836
 51
280.3459800192
  0
LINE
  5
142
330
1F
100
AcDbEntity
  8
0
  6
Continuous
 62
     7
 48
3.0
370
    15
100
AcDbLine
 10
18.7612575691
 20
22.9365426499
 30
0.0
 11
18.7612575691
 21
22.9444320521
 31
0.0
  0
LINE
  5
143
330
1F
100
AcDbEntity
  8
0
  6
Continuous
 62
     7
 48
3.0
370
    15
100
AcDbLine
 10
18.7617069506
 20
22.9442232012
 30
0.0
 11
18.7617069506
 21
22.939451603
 31
0.0
  0
LINE
  5
144
330
1F
100
AcDbEntity
  8
0
  6
Continuous
 62
     7
 48
3.0
370
    15
100
AcDbLine
 10
18.8214603136
 20
22.9365948627
 30
0.0
 11
18.8214603136
 21
22.9365426499
 31
0.0
  0
ARC
  5
145
330
1F
100
AcDbEntity
  8
0
  6
Continuous
 62
     7
 48
9.0
370
    15
100
AcDbCircle
 10
11.3019249356
 20
23.1630693819
 30
0.0
 40
0.227314829583933
100
AcDbArc
 50
265.2275728523
 51
270.0785068647
  0
ARC
  5
146
330
1F
100
AcDbEntity
  8
0
  6
Continuous
 62
     7
 48
9.0
370
    15
100
AcDbCircle
 10
11.301926924
 20
23.1631644685
 30
0.0
 40
0.2274099471718115
100
AcDbArc
 50
275.0022856491
 51
280.3455255339
  0
LWPOLYLINE
  5
147
330
1F
100
AcDbEntity
  8
0
  6
Continuous
 62
     7
 48
3.0
370
    15
100
AcDbPolyline
 90
        9
 70
   128
 43
0.0
 10
11.3427660948
 20
22.939451603
 10
11.3428218275
 20
22.9382266571
 10
11.3428778535
 20
22.9372463485
 10
11.3429338795
 20
22.936511557
 10
11.3429901989
 20
22.9360234559
 10
11.3430465182
 20
22.9357823387
 10
11.3431028376
 20
22.9357884986
 10
11.3431591569
 20
22.936042229
 10
11.3432154763
 20
22.9365426499
  0
ARC
  5
148
330
1F
100
AcDbEntity
  8
0
  6
Continuous
 62
     7
 48
9.0
370
    15
100
AcDbCircle
 10
11.3006228434
 20
23.0831159049
 30
0.0
 40
0.1526363372172011
100
AcDbArc
 50
286.203304
 51
322.9597908311
  0
LINE
  5
149
330
1F
100
AcDbEntity
  8
0
  6
Continuous
 62
     7
 48
3.0
370
    15
100
AcDbLine
 10
11.4007043322
 20
22.9911715389
 30
0.0
 11
11.4224591475
 21
22.9911715389
 31
0.0
  0
ARC
  5
14A
330
1F
100
AcDbEntity
  8
0
  6
Continuous
 62
     7
 48
9.0
370
    15
100
AcDbCircle
 10
11.2788681184
 20
23.0831160026
 30
0.0
 40
0.1526363240159861
100
AcDbArc
 50
286.2031554824
 51
322.9597411331
  0
ARC
  5
14B
330
1F
100
AcDbEntity
  8
0
  6
Continuous
 62
     7
 48
9.0
370
    15
100
AcDbCircle
 10
11.3025443292
 20
23.1631459185
 30
0.0
 40
0.2273914198974621
100
AcDbArc
 50
259.6540199808
 51
274.7717855164
  0
ARC
  5
14C
330
1F
100
AcDbEntity
  8
0
  6
Continuous
 62
     7
 48
9.0
370
    15
100
AcDbCircle
 10
11.2453030949
 20
22.9389621052
 30
0.0
 40
0.0164109182073055
100
AcDbArc
 50
348.7296086604
 51
1.7092474289
  0
LINE
  5
14D
330
1F
100
AcDbEntity
  8
0
  6
Continuous
 62
     7
 48
3.0
370
    15
100
AcDbLine
 10
11.3432154763
 20
22.9444320521
 30
0.0
 11
11.3432154763
 21
22.9365426499
 31
0.0
  0
LINE
  5
14E
330
1F
100
AcDbEntity
  8
0
  6
Continuous
 62
     7
 48
3.0
370
    15
100
AcDbLine
 10
11.3427660948
 20
22.9442232012
 30
0.0
 11
11.3427660948
 21
22.939451603
 31
0.0
  0
LINE
  5
14F
330
1F
100
AcDbEntity
  8
0
  6
Continuous
 62
     7
 48
3.0
370
    15
100
AcDbLine
 10
11.2830127318
 20
22.9365426499
 30
0.0
 11
11.2830127318
 21
22.9365948627
 31
0.0
  0
DIMENSION
  5
150
330
1F
100
AcDbEntity
  8
0
  6
Continuous
 62
     7
 48
3.0
370
     0
100
AcDbDimension
  2
*D8
 10
20.2470822633
 20
23.1271164267
 30
0.0
 11
20.2470822633
 21
25.1271164267
 31
0.0
 70
   160
 71
     2
 42
-1.0
  3
SLDDIMSTYLE0
100
AcDbAlignedDimension
 13
18.9752365227
 23
27.1271164267
 33
0.0
 14
19.0522365227
 24
23.1271164267
 34
0.0
 50
90.0
100
AcDbRotatedDimension
  0
ARC
  5
162
330
1F
100
AcDbEntity
  8
0
  6
Continuous
 62
     7
 48
9.0
370
    15
100
AcDbCircle
 10
32.7754345726
 20
17.8631631827
 30
0.0
 40
0.0150000000000005
100
AcDbArc
 50
232.550643686
 51
270.0
  0
ARC
  5
163
330
1F
100
AcDbEntity
  8
0
  6
Continuous
 62
     7
 48
9.0
370
    15
100
AcDbCircle
 10
32.7754345726
 20
18.2061631827
 30
0.0
 40
0.0150000000000006
100
AcDbArc
 50
90.0
 51
127.449356314
  0
LINE
  5
164
330
1F
100
AcDbEntity
  8
0
  6
Continuous
 62
     7
 48
3.0
370
    15
100
AcDbLine
 10
32.7754345808
 20
17.8481631609
 30
0.0
 11
32.8087659558
 21
17.8481631609
 31
0.0
  0
LINE
  5
165
330
1F
100
AcDbEntity
  8
0
  6
Continuous
 62
     7
 48
3.0
370
    15
100
AcDbLine
 10
32.8087659558
 20
18.2211632786
 30
0.0
 11
32.7754345808
 21
18.2211632786
 31
0.0
  0
ARC
  5
166
330
1F
100
AcDbEntity
  8
0
  6
Continuous
 62
     7
 48
9.0
370
    15
100
AcDbCircle
 10
32.9067904715
 20
18.0346631827
 30
0.0
 40
0.2310245869783023
100
AcDbArc
 50
190.1818657166
 51
232.550643686
  0
ARC
  5
167
330
1F
100
AcDbEntity
  8
0
  6
Continuous
 62
     7
 48
9.0
370
    15
100
AcDbCircle
 10
32.9067904715
 20
18.0346631827
 30
0.0
 40
0.2310245869783022
100
AcDbArc
 50
127.449356314
 51
169.8181342834
  0
ARC
  5
168
330
1F
100
AcDbEntity
  8
0
  6
Continuous
 62
     7
 48
9.0
370
    15
100
AcDbCircle
 10
32.7754345726
 20
11.8631631827
 30
0.0
 40
0.0150000000000006
100
AcDbArc
 50
232.550643686
 51
270.0
  0
ARC
  5
169
330
1F
100
AcDbEntity
  8
0
  6
Continuous
 62
     7
 48
9.0
370
    15
100
AcDbCircle
 10
32.7754345726
 20
12.2061631827
 30
0.0
 40
0.0150000000000006
100
AcDbArc
 50
90.0
 51
127.449356314
  0
LINE
  5
16A
330
1F
100
AcDbEntity
  8
0
  6
Continuous
 62
     7
 48
3.0
370
    15
100
AcDbLine
 10
32.7754345808
 20
11.8481630867
 30
0.0
 11
32.8087659558
 21
11.8481630867
 31
0.0
  0
LINE
  5
16B
330
1F
100
AcDbEntity
  8
0
  6
Continuous
 62
     7
 48
3.0
370
    15
100
AcDbLine
 10
32.8087659558
 20
12.2211632045
 30
0.0
 11
32.7754345808
 21
12.2211632045
 31
0.0
  0
ARC
  5
16C
330
1F
100
AcDbEntity
  8
0
  6
Continuous
 62
     7
 48
9.0
370
    15
100
AcDbCircle
 10
32.9067904715
 20
12.0346631827
 30
0.0
 40
0.2310245869783019
100
AcDbArc
 50
190.1818657166
 51
232.550643686
  0
ARC
  5
16D
330
1F
100
AcDbEntity
  8
0
  6
Continuous
 62
     7
 48
9.0
370
    15
100
AcDbCircle
 10
32.9067904715
 20
12.0346631827
 30
0.0
 40
0.2310245869783022
100
AcDbArc
 50
127.449356314
 51
169.8181342834
  0
LINE
  5
16E
330
1F
100
AcDbEntity
  8
0
  6
Continuous
 62
     7
 48
3.0
370
    15
100
AcDbLine
 10
32.8707659329
 20
20.0346633423
 30
0.0
 11
32.8087659558
 21
20.0346633423
 31
0.0
  0
LINE
  5
16F
330
1F
100
AcDbEntity
  8
0
  6
Continuous
 62
     7
 48
3.0
370
    15
100
AcDbLine
 10
32.8707659329
 20
10.0346630231
 30
0.0
 11
32.8707659329
 21
20.0346633423
 31
0.0
  0
LINE
  5
170
330
1F
100
AcDbEntity
  8
0
  6
Continuous
 62
     7
 48
3.0
370
    15
100
AcDbLine
 10
32.8707659329
 20
10.0346630231
 30
0.0
 11
32.8087659558
 21
10.0346630231
 31
0.0
  0
LINE
  5
171
330
1F
100
AcDbEntity
  8
0
  6
Continuous
 62
     7
 48
3.0
370
    15
100
AcDbLine
 10
32.8087659558
 20
10.0346630231
 30
0.0
 11
32.8087659558
 21
20.0346633423
 31
0.0
  0
LINE
  5
172
330
1F
100
AcDbEntity
  8
0
  6
Continuous
 62
     7
 48
3.0
370
    15
100
AcDbLine
 10
36.8707658845
 20
20.0346633423
 30
0.0
 11
36.8707658845
 21
10.0346630231
 31
0.0
  0
LINE
  5
173
330
1F
100
AcDbEntity
  8
0
  6
Continuous
 62
     7
 48
3.0
370
    15
100
AcDbLine
 10
36.7937658849
 20
10.0346630231
 30
0.0
 11
36.8707658845
 21
10.0346630231
 31
0.0
  0
LINE
  5
174
330
1F
100
AcDbEntity
  8
0
  6
Continuous
 62
     7
 48
3.0
370
    15
100
AcDbLine
 10
36.7937658849
 20
20.0346633423
 30
0.0
 11
36.8707658845
 21
20.0346633423
 31
0.0
  0
LINE
  5
175
330
1F
100
AcDbEntity
  8
0
  6
Continuous
 62
     7
 48
3.0
370
    15
100
AcDbLine
 10
32.9477659233
 20
10.0346630231
 30
0.0
 11
36.7937658849
 21
10.0346630231
 31
0.0
  0
LINE
  5
176
330
1F
100
AcDbEntity
  8
0
  6
Continuous
 62
     7
 48
3.0
370
    15
100
AcDbLine
 10
32.9477659233
 20
20.0346633423
 30
0.0
 11
36.7937658849
 21
20.0346633423
 31
0.0
  0
LINE
  5
177
330
1F
100
AcDbEntity
  8
0
  6
Continuous
 62
     7
 48
3.0
370
    15
100
AcDbLine
 10
32.8707659329
 20
20.0346633423
 30
0.0
 11
32.9477659233
 21
20.0346633423
 31
0.0
  0
LINE
  5
178
330
1F
100
AcDbEntity
  8
0
  6
Continuous
 62
     7
 48
3.0
370
    15
100
AcDbLine
 10
32.8707659329
 20
10.0346630231
 30
0.0
 11
32.9477659233
 21
10.0346630231
 31
0.0
  0
ARC
  5
179
330
1F
100
AcDbEntity
  8
0
  6
Continuous
 62
     7
 48
9.0
370
    15
100
AcDbCircle
 10
32.906768263
 20
18.0343544322
 30
0.0
 40
0.2273642492453529
100
AcDbArc
 50
179.9221855143
 51
190.3465193451
  0
ARC
  5
17A
330
1F
100
AcDbEntity
  8
0
  6
Continuous
 62
     7
 48
9.0
370
    15
100
AcDbCircle
 10
32.6800430605
 20
17.9925595505
 30
0.0
 40
0.0014169866541582
100
AcDbArc
 50
83.9621145009
 51
116.797714688
  0
ARC
  5
17B
330
1F
100
AcDbEntity
  8
0
  6
Continuous
 62
     7
 48
9.0
370
    15
100
AcDbCircle
 10
32.8243224845
 20
18.0366882618
 30
0.0
 40
0.1503280695242399
100
AcDbArc
 50
196.5095828609
 51
233.4606714128
  0
LINE
  5
17C
330
1F
100
AcDbEntity
  8
0
  6
Continuous
 62
     7
 48
3.0
370
    15
100
AcDbLine
 10
32.7348209966
 20
17.9379916432
 30
0.0
 11
32.7348209966
 21
17.9159074183
 31
0.0
  0
ARC
  5
17D
330
1F
100
AcDbEntity
  8
0
  6
Continuous
 62
     7
 48
9.0
370
    15
100
AcDbCircle
 10
32.8243225761
 20
18.0587723902
 30
0.0
 40
0.1503280465820276
100
AcDbArc
 50
196.5094305135
 51
233.4606214834
  0
ARC
  5
17E
330
1F
100
AcDbEntity
  8
0
  6
Continuous
 62
     7
 48
9.0
370
    15
100
AcDbCircle
 10
32.9067953763
 20
18.0349692331
 30
0.0
 40
0.2273914198977144
100
AcDbArc
 50
169.6540199808
 51
184.7717855164
  0
LWPOLYLINE
  5
17F
330
1F
100
AcDbEntity
  8
0
  6
Continuous
 62
     7
 48
3.0
370
    15
100
AcDbPolyline
 90
        9
 70
   128
 43
0.0
 10
32.6831010608
 20
18.0758068511
 10
32.6818761149
 20
18.0757511184
 10
32.6808958063
 20
18.0756953858
 10
32.6801610147
 20
18.0756390664
 10
32.6796729137
 20
18.0755830404
 10
32.6794317965
 20
18.075526721
 10
32.6794379564
 20
18.0754701084
 10
32.6796916868
 20
18.075413789
 10
32.6801921077
 20
18.075357763
  0
LINE
  5
180
330
1F
100
AcDbEntity
  8
0
  6
Continuous
 62
     7
 48
3.0
370
    15
100
AcDbLine
 10
32.6883939063
 20
17.9939686765
 30
0.0
 11
32.6801921077
 21
17.9939686765
 31
0.0
  0
LINE
  5
181
330
1F
100
AcDbEntity
  8
0
  6
Continuous
 62
     7
 48
3.0
370
    15
100
AcDbLine
 10
32.6830195151
 20
18.075357763
 30
0.0
 11
32.6801921077
 21
18.075357763
 31
0.0
  0
ARC
  5
182
330
1F
100
AcDbEntity
  8
0
  6
Continuous
 62
     7
 48
9.0
370
    15
100
AcDbCircle
 10
32.9067611897
 20
12.0343535716
 30
0.0
 40
0.2273571496611051
100
AcDbArc
 50
179.8826586489
 51
190.3466445427
  0
ARC
  5
183
330
1F
100
AcDbEntity
  8
0
  6
Continuous
 62
     7
 48
9.0
370
    15
100
AcDbCircle
 10
32.6800409111
 20
11.9925712107
 30
0.0
 40
0.0014055475562156
100
AcDbArc
 50
83.8246677184
 51
116.9351614698
  0
ARC
  5
184
330
1F
100
AcDbEntity
  8
0
  6
Continuous
 62
     7
 48
9.0
370
    15
100
AcDbCircle
 10
32.8243224845
 20
12.0366881876
 30
0.0
 40
0.1503280695242639
100
AcDbArc
 50
196.5095828609
 51
233.4606714128
  0
LINE
  5
185
330
1F
100
AcDbEntity
  8
0
  6
Continuous
 62
     7
 48
3.0
370
    15
100
AcDbLine
 10
32.7348209966
 20
11.9379918624
 30
0.0
 11
32.7348209966
 21
11.9159073442
 31
0.0
  0
ARC
  5
186
330
1F
100
AcDbEntity
  8
0
  6
Continuous
 62
     7
 48
9.0
370
    15
100
AcDbCircle
 10
32.8243224845
 20
12.0587727058
 30
0.0
 40
0.1503280695242483
100
AcDbArc
 50
196.5095828609
 51
233.4606714128
  0
ARC
  5
187
330
1F
100
AcDbEntity
  8
0
  6
Continuous
 62
     7
 48
9.0
370
    15
100
AcDbCircle
 10
32.9067933751
 20
12.0349692564
 30
0.0
 40
0.2273894337265088
100
AcDbArc
 50
169.6539535707
 51
184.7718519264
  0
LWPOLYLINE
  5
188
330
1F
100
AcDbEntity
  8
0
  6
Continuous
 62
     7
 48
3.0
370
    15
100
AcDbPolyline
 90
        9
 70
   128
 43
0.0
 10
32.6831010608
 20
12.075806777
 10
32.6818761149
 20
12.0757510443
 10
32.6808958063
 20
12.0756953116
 10
32.6801610147
 20
12.0756392856
 10
32.6796729137
 20
12.0755829662
 10
32.6794317965
 20
12.0755266469
 10
32.6794379564
 20
12.0754703275
 10
32.6796916868
 20
12.0754140082
 10
32.6801921077
 20
12.0753576888
  0
LINE
  5
189
330
1F
100
AcDbEntity
  8
0
  6
Continuous
 62
     7
 48
3.0
370
    15
100
AcDbLine
 10
32.6883939063
 20
11.9939686024
 30
0.0
 11
32.6801921077
 21
11.9939686024
 31
0.0
  0
LINE
  5
18A
330
1F
100
AcDbEntity
  8
0
  6
Continuous
 62
     7
 48
3.0
370
    15
100
AcDbLine
 10
32.6830195151
 20
12.0753576888
 30
0.0
 11
32.6801921077
 21
12.0753576888
 31
0.0
  0
LINE
  5
18B
330
1F
100
AcDbEntity
  8
0
  6
HIDDEN
 62
     7
 48
3.0
370
     0
100
AcDbLine
 10
32.8707659329
 20
17.9226132342
 30
0.0
 11
32.8087659558
 21
17.9226132342
 31
0.0
  0
LINE
  5
18C
330
1F
100
AcDbEntity
  8
0
  6
HIDDEN
 62
     7
 48
3.0
370
     0
100
AcDbLine
 10
32.8707659329
 20
11.92261316
 30
0.0
 11
32.8087659558
 21
11.92261316
 31
0.0
  0
LINE
  5
18D
330
1F
100
AcDbEntity
  8
0
  6
HIDDEN
 62
     7
 48
3.0
370
     0
100
AcDbLine
 10
33.0097659005
 20
19.5966630687
 30
0.0
 11
33.0097659005
 21
19.9576630584
 31
0.0
  0
LINE
  5
18E
330
1F
100
AcDbEntity
  8
0
  6
HIDDEN
 62
     7
 48
3.0
370
     0
100
AcDbLine
 10
36.7317658803
 20
19.9576630584
 30
0.0
 11
36.7317658803
 21
19.5966630687
 31
0.0
  0
LINE
  5
18F
330
1F
100
AcDbEntity
  8
0
  6
HIDDEN
 62
     7
 48
3.0
370
     0
100
AcDbLine
 10
36.7317658803
 20
19.5966630687
 30
0.0
 11
33.0097659005
 21
19.5966630687
 31
0.0
  0
LINE
  5
190
330
1F
100
AcDbEntity
  8
0
  6
HIDDEN
 62
     7
 48
3.0
370
     0
100
AcDbLine
 10
36.7317658803
 20
20.0346633423
 30
0.0
 11
36.7317658803
 21
19.9576630584
 31
0.0
  0
LINE
  5
191
330
1F
100
AcDbEntity
  8
0
  6
HIDDEN
 62
     7
 48
3.0
370
     0
100
AcDbLine
 10
33.0097659005
 20
19.9576630584
 30
0.0
 11
33.0097659005
 21
20.0346633423
 31
0.0
  0
LINE
  5
192
330
1F
100
AcDbEntity
  8
0
  6
HIDDEN
 62
     7
 48
3.0
370
     0
100
AcDbLine
 10
33.0097659005
 20
19.9726633652
 30
0.0
 11
36.7317658803
 21
19.9726633652
 31
0.0
  0
ARC
  5
193
330
1F
100
AcDbEntity
  8
0
  6
HIDDEN
 62
     7
 48
9.0
370
     0
100
AcDbCircle
 10
36.7317658845
 20
19.9576631827
 30
0.0
 40
0.0770000000000053
100
AcDbArc
 50
0.0
 51
90.0
  0
ARC
  5
194
330
1F
100
AcDbEntity
  8
0
  6
HIDDEN
 62
     7
 48
9.0
370
     0
100
AcDbCircle
 10
36.7317658845
 20
19.9576631827
 30
0.0
 40
0.0150000000000006
100
AcDbArc
 50
0.0
 51
90.0
  0
LINE
  5
195
330
1F
100
AcDbEntity
  8
0
  6
HIDDEN
 62
     7
 48
3.0
370
     0
100
AcDbLine
 10
36.7467658845
 20
19.5966630687
 30
0.0
 11
36.7467658845
 21
19.9576630584
 31
0.0
  0
LINE
  5
196
330
1F
100
AcDbEntity
  8
0
  6
HIDDEN
 62
     7
 48
3.0
370
     0
100
AcDbLine
 10
36.8087658845
 20
19.5966630687
 30
0.0
 11
36.7467658845
 21
19.5966630687
 31
0.0
  0
LINE
  5
197
330
1F
100
AcDbEntity
  8
0
  6
HIDDEN
 62
     7
 48
3.0
370
     0
100
AcDbLine
 10
32.9477659233
 20
19.9726633652
 30
0.0
 11
33.0097659005
 21
19.9726633652
 31
0.0
  0
LINE
  5
198
330
1F
100
AcDbEntity
  8
0
  6
HIDDEN
 62
     7
 48
3.0
370
     0
100
AcDbLine
 10
32.8707659329
 20
19.5346630916
 30
0.0
 11
32.93276591
 21
19.5346630916
 31
0.0
  0
ARC
  5
199
330
1F
100
AcDbEntity
  8
0
  6
HIDDEN
 62
     7
 48
9.0
370
     0
100
AcDbCircle
 10
32.9477658845
 20
19.9576631827
 30
0.0
 40
0.0150000000000077
100
AcDbArc
 50
90.0
 51
180.0
  0
ARC
  5
19A
330
1F
100
AcDbEntity
  8
0
  6
HIDDEN
 62
     7
 48
9.0
370
     0
100
AcDbCircle
 10
32.9477658845
 20
19.9576631827
 30
0.0
 40
0.0770000000000053
100
AcDbArc
 50
90.0
 51
180.0
  0
LINE
  5
19B
330
1F
100
AcDbEntity
  8
0
  6
HIDDEN
 62
     7
 48
3.0
370
     0
100
AcDbLine
 10
33.0097659005
 20
10.4726632966
 30
0.0
 11
33.0097659005
 21
10.1116633069
 31
0.0
  0
LINE
  5
19C
330
1F
100
AcDbEntity
  8
0
  6
HIDDEN
 62
     7
 48
3.0
370
     0
100
AcDbLine
 10
36.7317658803
 20
10.4726632966
 30
0.0
 11
33.0097659005
 21
10.4726632966
 31
0.0
  0
LINE
  5
19D
330
1F
100
AcDbEntity
  8
0
  6
HIDDEN
 62
     7
 48
3.0
370
     0
100
AcDbLine
 10
36.7317658803
 20
10.1116633069
 30
0.0
 11
36.7317658803
 21
10.4726632966
 31
0.0
  0
LINE
  5
19E
330
1F
100
AcDbEntity
  8
0
  6
HIDDEN
 62
     7
 48
3.0
370
     0
100
AcDbLine
 10
33.0097659005
 20
10.1116633069
 30
0.0
 11
33.0097659005
 21
10.0346630231
 31
0.0
  0
LINE
  5
19F
330
1F
100
AcDbEntity
  8
0
  6
HIDDEN
 62
     7
 48
3.0
370
     0
100
AcDbLine
 10
36.7317658803
 20
10.0346630231
 30
0.0
 11
36.7317658803
 21
10.1116633069
 31
0.0
  0
LINE
  5
1A0
330
1F
100
AcDbEntity
  8
0
  6
HIDDEN
 62
     7
 48
3.0
370
     0
100
AcDbLine
 10
33.0097659005
 20
10.0966630002
 30
0.0
 11
36.7317658803
 21
10.0966630002
 31
0.0
  0
ARC
  5
1A1
330
1F
100
AcDbEntity
  8
0
  6
HIDDEN
 62
     7
 48
9.0
370
     0
100
AcDbCircle
 10
36.7317658845
 20
10.1116631827
 30
0.0
 40
0.077
100
AcDbArc
 50
270.0
 51
360.0
  0
ARC
  5
1A2
330
1F
100
AcDbEntity
  8
0
  6
HIDDEN
 62
     7
 48
9.0
370
     0
100
AcDbCircle
 10
36.7317658845
 20
10.1116631827
 30
0.0
 40
0.0150000000000006
100
AcDbArc
 50
270.0
 51
0.0
  0
LINE
  5
1A3
330
1F
100
AcDbEntity
  8
0
  6
HIDDEN
 62
     7
 48
3.0
370
     0
100
AcDbLine
 10
36.7467658845
 20
10.4726632966
 30
0.0
 11
36.7467658845
 21
10.1116633069
 31
0.0
  0
LINE
  5
1A4
330
1F
100
AcDbEntity
  8
0
  6
HIDDEN
 62
     7
 48
3.0
370
     0
100
AcDbLine
 10
36.8087658845
 20
10.4726632966
 30
0.0
 11
36.7467658845
 21
10.4726632966
 31
0.0
  0
LINE
  5
1A5
330
1F
100
AcDbEntity
  8
0
  6
HIDDEN
 62
     7
 48
3.0
370
     0
100
AcDbLine
 10
32.9477659233
 20
10.0966630002
 30
0.0
 11
33.0097659005
 21
10.0966630002
 31
0.0
  0
LINE
  5
1A6
330
1F
100
AcDbEntity
  8
0
  6
HIDDEN
 62
     7
 48
3.0
370
     0
100
AcDbLine
 10
32.8707659329
 20
10.5346632737
 30
0.0
 11
32.93276591
 21
10.5346632737
 31
0.0
  0
ARC
  5
1A7
330
1F
100
AcDbEntity
  8
0
  6
HIDDEN
 62
     7
 48
9.0
370
     0
100
AcDbCircle
 10
32.9477658845
 20
10.1116631827
 30
0.0
 40
0.0150000000000006
100
AcDbArc
 50
180.0
 51
270.0
  0
ARC
  5
1A8
330
1F
100
AcDbEntity
  8
0
  6
HIDDEN
 62
     7
 48
9.0
370
     0
100
AcDbCircle
 10
32.9477658845
 20
10.1116631827
 30
0.0
 40
0.077
100
AcDbArc
 50
180.0
 51
270.0
  0
LINE
  5
1A9
330
1F
100
AcDbEntity
  8
0
  6
HIDDEN
 62
     7
 48
3.0
370
     0
100
AcDbLine
 10
36.8087658845
 20
20.0346633423
 30
0.0
 11
36.8087658845
 21
10.0346630231
 31
0.0
  0
LINE
  5
1AA
330
1F
100
AcDbEntity
  8
0
  6
HIDDEN
 62
     7
 48
3.0
370
     0
100
AcDbLine
 10
32.93276591
 20
20.0346633423
 30
0.0
 11
32.93276591
 21
10.0346630231
 31
0.0
  0
LINE
  5
1AB
330
1F
100
AcDbEntity
  8
0
  6
HIDDEN
 62
     7
 48
3.0
370
     0
100
AcDbLine
 10
36.6387658779
 20
18.0346632198
 30
0.0
 11
36.6387658779
 21
18.3317208015
 31
0.0
  0
LINE
  5
1AC
330
1F
100
AcDbEntity
  8
0
  6
HIDDEN
 62
     7
 48
3.0
370
     0
100
AcDbLine
 10
36.6387658779
 20
17.7376053447
 30
0.0
 11
36.6387658779
 21
18.0346632198
 31
0.0
  0
LINE
  5
1AD
330
1F
100
AcDbEntity
  8
0
  6
HIDDEN
 62
     7
 48
3.0
370
     0
100
AcDbLine
 10
36.7007658917
 20
17.7376053447
 30
0.0
 11
36.7007658917
 21
18.3317208015
 31
0.0
  0
LINE
  5
1AE
330
1F
100
AcDbEntity
  8
0
  6
HIDDEN
 62
     7
 48
3.0
370
     0
100
AcDbLine
 10
36.7667186365
 20
18.0346632198
 30
0.0
 11
36.7667186365
 21
18.1816631749
 31
0.0
  0
LINE
  5
1AF
330
1F
100
AcDbEntity
  8
0
  6
HIDDEN
 62
     7
 48
3.0
370
     0
100
AcDbLine
 10
36.7667186365
 20
17.8876632646
 30
0.0
 11
36.7667186365
 21
18.0346632198
 31
0.0
  0
ARC
  5
1B0
330
1F
100
AcDbEntity
  8
0
  6
HIDDEN
 62
     7
 48
9.0
370
     0
100
AcDbCircle
 10
32.8243224845
 20
18.0326381777
 30
0.0
 40
0.1503280695242223
100
AcDbArc
 50
126.5393285872
 51
163.4904171391
  0
ARC
  5
1B1
330
1F
100
AcDbEntity
  8
0
  6
HIDDEN
 62
     7
 48
9.0
370
     0
100
AcDbCircle
 10
32.8243224845
 20
18.0105536595
 30
0.0
 40
0.1503280695242644
100
AcDbArc
 50
126.5393285872
 51
163.4904171391
  0
ARC
  5
1B2
330
1F
100
AcDbEntity
  8
0
  6
HIDDEN
 62
     7
 48
9.0
370
     0
100
AcDbCircle
 10
32.9067103226
 20
18.0343615547
 30
0.0
 40
0.2273062992418163
100
AcDbArc
 50
175.2275232802
 51
179.9239610091
  0
ARC
  5
1B3
330
1F
100
AcDbEntity
  8
0
  6
HIDDEN
 62
     7
 48
9.0
370
     0
100
AcDbCircle
 10
32.6826550743
 20
18.0106833805
 30
0.0
 40
0.0171695854239131
100
AcDbArc
 50
259.0858610812
 51
271.4884471078
  0
LINE
  5
1B4
330
1F
100
AcDbEntity
  8
0
  6
HIDDEN
 62
     7
 48
3.0
370
     0
100
AcDbLine
 10
32.7348209966
 20
18.0160531947
 30
0.0
 11
32.7348209966
 21
17.9379916432
 31
0.0
  0
LINE
  5
1B5
330
1F
100
AcDbEntity
  8
0
  6
HIDDEN
 62
     7
 48
3.0
370
     0
100
AcDbLine
 10
32.7348209966
 20
17.9939686765
 30
0.0
 11
32.6883939063
 21
17.9939686765
 31
0.0
  0
LINE
  5
1B6
330
1F
100
AcDbEntity
  8
0
  6
HIDDEN
 62
     7
 48
3.0
370
     0
100
AcDbLine
 10
33.0833456638
 20
17.9656632169
 30
0.0
 11
33.0833456638
 21
18.1036632227
 31
0.0
  0
LINE
  5
1B7
330
1F
100
AcDbEntity
  8
0
  6
HIDDEN
 62
     7
 48
3.0
370
     0
100
AcDbLine
 10
33.1207657648
 20
17.9811630645
 30
0.0
 11
33.1207657648
 21
18.0881630817
 31
0.0
  0
LINE
  5
1B8
330
1F
100
AcDbEntity
  8
0
  6
HIDDEN
 62
     7
 48
3.0
370
     0
100
AcDbLine
 10
32.6801921077
 20
18.0160531947
 30
0.0
 11
32.7348209966
 21
18.0160531947
 31
0.0
  0
LINE
  5
1B9
330
1F
100
AcDbEntity
  8
0
  6
HIDDEN
 62
     7
 48
3.0
370
     0
100
AcDbLine
 10
32.7357658124
 20
18.0758068511
 30
0.0
 11
32.7357658124
 21
17.994133528
 31
0.0
  0
LINE
  5
1BA
330
1F
100
AcDbEntity
  8
0
  6
HIDDEN
 62
     7
 48
3.0
370
     0
100
AcDbLine
 10
32.7357658124
 20
17.994133528
 30
0.0
 11
32.7357658124
 21
17.9935195884
 31
0.0
  0
LINE
  5
1BB
330
1F
100
AcDbEntity
  8
0
  6
HIDDEN
 62
     7
 48
3.0
370
     0
100
AcDbLine
 10
32.7357658124
 20
17.994133528
 30
0.0
 11
32.7348209966
 21
17.994133528
 31
0.0
  0
LINE
  5
1BC
330
1F
100
AcDbEntity
  8
0
  6
HIDDEN
 62
     7
 48
3.0
370
     0
100
AcDbLine
 10
32.7357658124
 20
18.0751929116
 30
0.0
 11
32.7348209966
 21
18.0751929116
 31
0.0
  0
LINE
  5
1BD
330
1F
100
AcDbEntity
  8
0
  6
HIDDEN
 62
     7
 48
3.0
370
     0
100
AcDbLine
 10
32.7348209966
 20
18.075357763
 30
0.0
 11
32.7348209966
 21
18.0751929116
 31
0.0
  0
LINE
  5
1BE
330
1F
100
AcDbEntity
  8
0
  6
HIDDEN
 62
     7
 48
3.0
370
     0
100
AcDbLine
 10
32.7348209966
 20
18.075357763
 30
0.0
 11
32.6830195151
 21
18.075357763
 31
0.0
  0
LINE
  5
1BF
330
1F
100
AcDbEntity
  8
0
  6
HIDDEN
 62
     7
 48
3.0
370
     0
100
AcDbLine
 10
32.7357658124
 20
18.0758068511
 30
0.0
 11
32.6831010608
 21
18.0758068511
 31
0.0
  0
LINE
  5
1C0
330
1F
100
AcDbEntity
  8
0
  6
HIDDEN
 62
     7
 48
3.0
370
     0
100
AcDbLine
 10
32.6801921077
 20
18.0532732448
 30
0.0
 11
32.7348209966
 21
18.0532732448
 31
0.0
  0
LINE
  5
1C1
330
1F
100
AcDbEntity
  8
0
  6
HIDDEN
 62
     7
 48
3.0
370
     0
100
AcDbLine
 10
32.7348209966
 20
18.0751929116
 30
0.0
 11
32.7348209966
 21
18.0532732448
 31
0.0
  0
LINE
  5
1C2
330
1F
100
AcDbEntity
  8
0
  6
HIDDEN
 62
     7
 48
3.0
370
     0
100
AcDbLine
 10
32.7357658124
 20
17.9935195884
 30
0.0
 11
32.6831010608
 21
17.9935195884
 31
0.0
  0
LINE
  5
1C3
330
1F
100
AcDbEntity
  8
0
  6
HIDDEN
 62
     7
 48
3.0
370
     0
100
AcDbLine
 10
32.7348209966
 20
18.1534190212
 30
0.0
 11
32.7348209966
 21
18.075357763
 31
0.0
  0
ARC
  5
1C4
330
1F
100
AcDbEntity
  8
0
  6
HIDDEN
 62
     7
 48
9.0
370
     0
100
AcDbCircle
 10
32.8243224845
 20
12.0326381036
 30
0.0
 40
0.1503280695242478
100
AcDbArc
 50
126.5393285872
 51
163.4904171391
  0
ARC
  5
1C5
330
1F
100
AcDbEntity
  8
0
  6
HIDDEN
 62
     7
 48
9.0
370
     0
100
AcDbCircle
 10
32.8243225761
 20
12.0105539751
 30
0.0
 40
0.1503280465820705
100
AcDbArc
 50
126.5393785166
 51
163.4905694865
  0
ARC
  5
1C6
330
1F
100
AcDbEntity
  8
0
  6
HIDDEN
 62
     7
 48
9.0
370
     0
100
AcDbCircle
 10
32.9066677049
 20
12.0343637017
 30
0.0
 40
0.2272636445905522
100
AcDbArc
 50
175.2271873989
 51
179.8851642811
  0
ARC
  5
1C7
330
1F
100
AcDbEntity
  8
0
  6
HIDDEN
 62
     7
 48
9.0
370
     0
100
AcDbCircle
 10
32.6826566945
 20
12.0107029598
 30
0.0
 40
0.0171891902725295
100
AcDbArc
 50
259.0929615641
 51
271.481346625
  0
LINE
  5
1C8
330
1F
100
AcDbEntity
  8
0
  6
HIDDEN
 62
     7
 48
3.0
370
     0
100
AcDbLine
 10
32.7348209966
 20
12.0160531206
 30
0.0
 11
32.7348209966
 21
11.9379918624
 31
0.0
  0
LINE
  5
1C9
330
1F
100
AcDbEntity
  8
0
  6
HIDDEN
 62
     7
 48
3.0
370
     0
100
AcDbLine
 10
32.7348209966
 20
11.9939686024
 30
0.0
 11
32.6883939063
 21
11.9939686024
 31
0.0
  0
LINE
  5
1CA
330
1F
100
AcDbEntity
  8
0
  6
HIDDEN
 62
     7
 48
3.0
370
     0
100
AcDbLine
 10
33.0833456638
 20
11.9656631427
 30
0.0
 11
33.0833456638
 21
12.1036631485
 31
0.0
  0
LINE
  5
1CB
330
1F
100
AcDbEntity
  8
0
  6
HIDDEN
 62
     7
 48
3.0
370
     0
100
AcDbLine
 10
33.1207657648
 20
11.9811632836
 30
0.0
 11
33.1207657648
 21
12.0881633009
 31
0.0
  0
LINE
  5
1CC
330
1F
100
AcDbEntity
  8
0
  6
HIDDEN
 62
     7
 48
3.0
370
     0
100
AcDbLine
 10
32.7357658124
 20
12.075806777
 30
0.0
 11
32.7357658124
 21
11.9941334538
 31
0.0
  0
LINE
  5
1CD
330
1F
100
AcDbEntity
  8
0
  6
HIDDEN
 62
     7
 48
3.0
370
     0
100
AcDbLine
 10
32.6801921077
 20
12.0160531206
 30
0.0
 11
32.7348209966
 21
12.0160531206
 31
0.0
  0
LINE
  5
1CE
330
1F
100
AcDbEntity
  8
0
  6
HIDDEN
 62
     7
 48
3.0
370
     0
100
AcDbLine
 10
32.7357658124
 20
11.9941334538
 30
0.0
 11
32.7348209966
 21
11.9941334538
 31
0.0
  0
LINE
  5
1CF
330
1F
100
AcDbEntity
  8
0
  6
HIDDEN
 62
     7
 48
3.0
370
     0
100
AcDbLine
 10
32.7357658124
 20
11.9941334538
 30
0.0
 11
32.7357658124
 21
11.9935195142
 31
0.0
  0
LINE
  5
1D0
330
1F
100
AcDbEntity
  8
0
  6
HIDDEN
 62
     7
 48
3.0
370
     0
100
AcDbLine
 10
32.7357658124
 20
12.0751928374
 30
0.0
 11
32.7348209966
 21
12.0751928374
 31
0.0
  0
LINE
  5
1D1
330
1F
100
AcDbEntity
  8
0
  6
HIDDEN
 62
     7
 48
3.0
370
     0
100
AcDbLine
 10
32.7348209966
 20
12.0753576888
 30
0.0
 11
32.7348209966
 21
12.0751928374
 31
0.0
  0
LINE
  5
1D2
330
1F
100
AcDbEntity
  8
0
  6
HIDDEN
 62
     7
 48
3.0
370
     0
100
AcDbLine
 10
32.7348209966
 20
12.0753576888
 30
0.0
 11
32.6830195151
 21
12.0753576888
 31
0.0
  0
LINE
  5
1D3
330
1F
100
AcDbEntity
  8
0
  6
HIDDEN
 62
     7
 48
3.0
370
     0
100
AcDbLine
 10
32.7357658124
 20
12.075806777
 30
0.0
 11
32.6831010608
 21
12.075806777
 31
0.0
  0
LINE
  5
1D4
330
1F
100
AcDbEntity
  8
0
  6
HIDDEN
 62
     7
 48
3.0
370
     0
100
AcDbLine
 10
32.6801921077
 20
12.0532731706
 30
0.0
 11
32.7348209966
 21
12.0532731706
 31
0.0
  0
LINE
  5
1D5
330
1F
100
AcDbEntity
  8
0
  6
HIDDEN
 62
     7
 48
3.0
370
     0
100
AcDbLine
 10
32.7348209966
 20
12.0751928374
 30
0.0
 11
32.7348209966
 21
12.0532731706
 31
0.0
  0
LINE
  5
1D6
330
1F
100
AcDbEntity
  8
0
  6
HIDDEN
 62
     7
 48
3.0
370
     0
100
AcDbLine
 10
32.7357658124
 20
11.9935195142
 30
0.0
 11
32.6831010608
 21
11.9935195142
 31
0.0
  0
LINE
  5
1D7
330
1F
100
AcDbEntity
  8
0
  6
HIDDEN
 62
     7
 48
3.0
370
     0
100
AcDbLine
 10
32.7348209966
 20
12.1534189471
 30
0.0
 11
32.7348209966
 21
12.0753576888
 31
0.0
  0
LINE
  5
1D8
330
1F
100
AcDbEntity
  8
0
  6
HIDDEN
 62
     7
 48
3.0
370
     0
100
AcDbLine
 10
32.8087659558
 20
17.559663187
 30
0.0
 11
32.8707659329
 21
17.559663187
 31
0.0
  0
LINE
  5
1D9
330
1F
100
AcDbEntity
  8
0
  6
HIDDEN
 62
     7
 48
3.0
370
     0
100
AcDbLine
 10
32.8087659558
 20
11.5596631129
 30
0.0
 11
32.8707659329
 21
11.5596631129
 31
0.0
  0
LINE
  5
1DA
330
1F
100
AcDbEntity
  8
0
  6
HIDDEN
 62
     7
 48
3.0
370
     0
100
AcDbLine
 10
32.8707659329
 20
18.1596631358
 30
0.0
 11
32.8087659558
 21
18.1596631358
 31
0.0
  0
LINE
  5
1DB
330
1F
100
AcDbEntity
  8
0
  6
HIDDEN
 62
     7
 48
3.0
370
     0
100
AcDbLine
 10
32.8707659329
 20
12.1596630616
 30
0.0
 11
32.8087659558
 21
12.1596630616
 31
0.0
  0
LINE
  5
1DC
330
1F
100
AcDbEntity
  8
0
  6
HIDDEN
 62
     7
 48
3.0
370
     0
100
AcDbLine
 10
32.8707659329
 20
11.9496631675
 30
0.0
 11
32.93276591
 21
11.9496631675
 31
0.0
  0
LINE
  5
1DD
330
1F
100
AcDbEntity
  8
0
  6
HIDDEN
 62
     7
 48
3.0
370
     0
100
AcDbLine
 10
32.93276591
 20
12.1196631237
 30
0.0
 11
32.8707659329
 21
12.1196631237
 31
0.0
  0
LINE
  5
1DE
330
1F
100
AcDbEntity
  8
0
  6
HIDDEN
 62
     7
 48
3.0
370
     0
100
AcDbLine
 10
32.8707659329
 20
17.9496632417
 30
0.0
 11
32.93276591
 21
17.9496632417
 31
0.0
  0
LINE
  5
1DF
330
1F
100
AcDbEntity
  8
0
  6
HIDDEN
 62
     7
 48
3.0
370
     0
100
AcDbLine
 10
32.93276591
 20
18.1196631978
 30
0.0
 11
32.8707659329
 21
18.1196631978
 31
0.0
  0
LINE
  5
1E0
330
1F
100
AcDbEntity
  8
0
  6
HIDDEN
 62
     7
 48
3.0
370
     0
100
AcDbLine
 10
36.8707658845
 20
11.6751632452
 30
0.0
 11
36.8087658845
 21
11.6751632452
 31
0.0
  0
LINE
  5
1E1
330
1F
100
AcDbEntity
  8
0
  6
HIDDEN
 62
     7
 48
3.0
370
     0
100
AcDbLine
 10
36.8087658845
 20
11.3941631314
 30
0.0
 11
36.8707658845
 21
11.3941631314
 31
0.0
  0
LINE
  5
1E2
330
1F
100
AcDbEntity
  8
0
  6
HIDDEN
 62
     7
 48
3.0
370
     0
100
AcDbLine
 10
36.8707658845
 20
18.675163234
 30
0.0
 11
36.8087658845
 21
18.675163234
 31
0.0
  0
LINE
  5
1E3
330
1F
100
AcDbEntity
  8
0
  6
HIDDEN
 62
     7
 48
3.0
370
     0
100
AcDbLine
 10
36.8087658845
 20
18.3941631201
 30
0.0
 11
36.8707658845
 21
18.3941631201
 31
0.0
  0
LINE
  5
1E4
330
1F
100
AcDbEntity
  8
0
  6
HIDDEN
 62
     7
 48
3.0
370
     0
100
AcDbLine
 10
36.8087658845
 20
18.6762761278
 30
0.0
 11
36.6638191335
 21
18.4252208947
 31
0.0
  0
LINE
  5
1E5
330
1F
100
AcDbEntity
  8
0
  6
HIDDEN
 62
     7
 48
3.0
370
     0
100
AcDbLine
 10
36.6638191335
 20
17.6441055449
 30
0.0
 11
36.8087658845
 21
17.3930503117
 31
0.0
  0
LINE
  5
1E6
330
1F
100
AcDbEntity
  8
0
  6
HIDDEN
 62
     7
 48
3.0
370
     0
100
AcDbLine
 10
36.8707658845
 20
18.659663093
 30
0.0
 11
36.7175127124
 21
18.3942209061
 31
0.0
  0
LINE
  5
1E7
330
1F
100
AcDbEntity
  8
0
  6
HIDDEN
 62
     7
 48
3.0
370
     0
100
AcDbLine
 10
36.7175127124
 20
17.6751055334
 30
0.0
 11
36.8707658845
 21
17.4096631998
 31
0.0
  0
ARC
  5
1E8
330
1F
100
AcDbEntity
  8
0
  6
HIDDEN
 62
     7
 48
9.0
370
     0
100
AcDbCircle
 10
36.8257658845
 20
17.737605469
 30
0.0
 40
0.1869999999999997
100
AcDbArc
 50
180.0
 51
210.0
  0
ARC
  5
1E9
330
1F
100
AcDbEntity
  8
0
  6
HIDDEN
 62
     7
 48
9.0
370
     0
100
AcDbCircle
 10
36.8257658845
 20
18.3317208963
 30
0.0
 40
0.1869999999999997
100
AcDbArc
 50
150.0
 51
180.0
  0
ARC
  5
1EA
330
1F
100
AcDbEntity
  8
0
  6
HIDDEN
 62
     7
 48
9.0
370
     0
100
AcDbCircle
 10
36.8257658845
 20
17.737605469
 30
0.0
 40
0.125
100
AcDbArc
 50
180.0
 51
210.0
  0
ARC
  5
1EB
330
1F
100
AcDbEntity
  8
0
  6
HIDDEN
 62
     7
 48
9.0
370
     0
100
AcDbCircle
 10
36.8257658845
 20
18.3317208963
 30
0.0
 40
0.125
100
AcDbArc
 50
150.0
 51
180.0
  0
ARC
  5
1EC
330
1F
100
AcDbEntity
  8
0
  6
HIDDEN
 62
     7
 48
9.0
370
     0
100
AcDbCircle
 10
36.717506042
 20
18.1984033402
 30
0.0
 40
0.0167401574803208
100
AcDbArc
 50
180.0
 51
270.0
  0
ARC
  5
1ED
330
1F
100
AcDbEntity
  8
0
  6
HIDDEN
 62
     7
 48
9.0
370
     0
100
AcDbCircle
 10
36.717506042
 20
17.8709230252
 30
0.0
 40
0.0167401574803208
100
AcDbArc
 50
90.0
 51
180.0
  0
ARC
  5
1EE
330
1F
100
AcDbEntity
  8
0
  6
HIDDEN
 62
     7
 48
9.0
370
     0
100
AcDbCircle
 10
36.717506042
 20
18.1984033402
 30
0.0
 40
0.0787401574803184
100
AcDbArc
 50
180.0
 51
270.0
  0
ARC
  5
1EF
330
1F
100
AcDbEntity
  8
0
  6
HIDDEN
 62
     7
 48
9.0
370
     0
100
AcDbCircle
 10
36.717506042
 20
17.8709230252
 30
0.0
 40
0.0787401574803184
100
AcDbArc
 50
90.0
 51
180.0
  0
LINE
  5
1F0
330
1F
100
AcDbEntity
  8
0
  6
HIDDEN
 62
     7
 48
3.0
370
     0
100
AcDbLine
 10
36.7175060392
 20
17.8876632646
 30
0.0
 11
36.7667186365
 21
17.8876632646
 31
0.0
  0
LINE
  5
1F1
330
1F
100
AcDbEntity
  8
0
  6
HIDDEN
 62
     7
 48
3.0
370
     0
100
AcDbLine
 10
36.7667186365
 20
18.1816631749
 30
0.0
 11
36.7175060392
 21
18.1816631749
 31
0.0
  0
LINE
  5
1F2
330
1F
100
AcDbEntity
  8
0
  6
HIDDEN
 62
     7
 48
3.0
370
     0
100
AcDbLine
 10
36.7175060392
 20
17.9496632417
 30
0.0
 11
36.7667186365
 21
17.9496632417
 31
0.0
  0
LINE
  5
1F3
330
1F
100
AcDbEntity
  8
0
  6
HIDDEN
 62
     7
 48
3.0
370
     0
100
AcDbLine
 10
36.7667186365
 20
18.1196631978
 30
0.0
 11
36.7175060392
 21
18.1196631978
 31
0.0
  0
LINE
  5
1F4
330
1F
100
AcDbEntity
  8
0
  6
HIDDEN
 62
     7
 48
3.0
370
     0
100
AcDbLine
 10
32.8087659558
 20
17.9656632169
 30
0.0
 11
33.0833456638
 21
17.9656632169
 31
0.0
  0
LINE
  5
1F5
330
1F
100
AcDbEntity
  8
0
  6
HIDDEN
 62
     7
 48
3.0
370
     0
100
AcDbLine
 10
33.0833456638
 20
18.1036632227
 30
0.0
 11
32.8087659558
 21
18.1036632227
 31
0.0
  0
LINE
  5
1F6
330
1F
100
AcDbEntity
  8
0
  6
HIDDEN
 62
     7
 48
3.0
370
     0
100
AcDbLine
 10
33.0833456638
 20
17.9656632169
 30
0.0
 11
33.1207657648
 21
17.9811630645
 31
0.0
  0
LINE
  5
1F7
330
1F
100
AcDbEntity
  8
0
  6
HIDDEN
 62
     7
 48
3.0
370
     0
100
AcDbLine
 10
33.1207657648
 20
18.0881630817
 30
0.0
 11
33.0833456638
 21
18.1036632227
 31
0.0
  0
LINE
  5
1F8
330
1F
100
AcDbEntity
  8
0
  6
HIDDEN
 62
     7
 48
3.0
370
     0
100
AcDbLine
 10
32.8087659558
 20
11.9656631427
 30
0.0
 11
33.0833456638
 21
11.9656631427
 31
0.0
  0
LINE
  5
1F9
330
1F
100
AcDbEntity
  8
0
  6
HIDDEN
 62
     7
 48
3.0
370
     0
100
AcDbLine
 10
33.0833456638
 20
12.1036631485
 30
0.0
 11
32.8087659558
 21
12.1036631485
 31
0.0
  0
LINE
  5
1FA
330
1F
100
AcDbEntity
  8
0
  6
HIDDEN
 62
     7
 48
3.0
370
     0
100
AcDbLine
 10
33.0833456638
 20
11.9656631427
 30
0.0
 11
33.1207657648
 21
11.9811632836
 31
0.0
  0
LINE
  5
1FB
330
1F
100
AcDbEntity
  8
0
  6
HIDDEN
 62
     7
 48
3.0
370
     0
100
AcDbLine
 10
33.1207657648
 20
12.0881633009
 30
0.0
 11
33.0833456638
 21
12.1036631485
 31
0.0
  0
ARC
  5
1FC
330
1F
100
AcDbEntity
  8
0
  6
Continuous
 62
     7
 48
9.0
370
    15
100
AcDbCircle
 10
8.7106447649
 20
12.2061631827
 30
0.0
 40
0.0150000000000006
100
AcDbArc
 50
52.550643686
 51
90.0
  0
ARC
  5
1FD
330
1F
100
AcDbEntity
  8
0
  6
Continuous
 62
     7
 48
9.0
370
    15
100
AcDbCircle
 10
8.7106447649
 20
11.8631631827
 30
0.0
 40
0.0150000000000006
100
AcDbArc
 50
270.0
 51
307.449356314
  0
LINE
  5
1FE
330
1F
100
AcDbEntity
  8
0
  6
Continuous
 62
     7
 48
3.0
370
    15
100
AcDbLine
 10
8.7106447567
 20
12.2211632045
 30
0.0
 11
8.6773133818
 21
12.2211632045
 31
0.0
  0
LINE
  5
1FF
330
1F
100
AcDbEntity
  8
0
  6
Continuous
 62
     7
 48
3.0
370
    15
100
AcDbLine
 10
8.6773133818
 20
11.8481630867
 30
0.0
 11
8.7106447567
 21
11.8481630867
 31
0.0
  0
ARC
  5
200
330
1F
100
AcDbEntity
  8
0
  6
Continuous
 62
     7
 48
9.0
370
    15
100
AcDbCircle
 10
8.579288866
 20
12.0346631827
 30
0.0
 40
0.2310245869783052
100
AcDbArc
 50
10.1818657166
 51
52.550643686
  0
ARC
  5
201
330
1F
100
AcDbEntity
  8
0
  6
Continuous
 62
     7
 48
9.0
370
    15
100
AcDbCircle
 10
8.579288866
 20
12.0346631827
 30
0.0
 40
0.2310245869783036
100
AcDbArc
 50
307.449356314
 51
349.8181342834
  0
ARC
  5
202
330
1F
100
AcDbEntity
  8
0
  6
Continuous
 62
     7
 48
9.0
370
    15
100
AcDbCircle
 10
8.7106447649
 20
18.2061631827
 30
0.0
 40
0.0150000000000006
100
AcDbArc
 50
52.550643686
 51
90.0
  0
ARC
  5
203
330
1F
100
AcDbEntity
  8
0
  6
Continuous
 62
     7
 48
9.0
370
    15
100
AcDbCircle
 10
8.7106447649
 20
17.8631631827
 30
0.0
 40
0.0150000000000005
100
AcDbArc
 50
270.0
 51
307.449356314
  0
LINE
  5
204
330
1F
100
AcDbEntity
  8
0
  6
Continuous
 62
     7
 48
3.0
370
    15
100
AcDbLine
 10
8.7106447567
 20
18.2211632786
 30
0.0
 11
8.6773133818
 21
18.2211632786
 31
0.0
  0
LINE
  5
205
330
1F
100
AcDbEntity
  8
0
  6
Continuous
 62
     7
 48
3.0
370
    15
100
AcDbLine
 10
8.6773133818
 20
17.8481631609
 30
0.0
 11
8.7106447567
 21
17.8481631609
 31
0.0
  0
ARC
  5
206
330
1F
100
AcDbEntity
  8
0
  6
Continuous
 62
     7
 48
9.0
370
    15
100
AcDbCircle
 10
8.579288866
 20
18.0346631827
 30
0.0
 40
0.2310245869783039
100
AcDbArc
 50
10.1818657166
 51
52.550643686
  0
ARC
  5
207
330
1F
100
AcDbEntity
  8
0
  6
Continuous
 62
     7
 48
9.0
370
    15
100
AcDbCircle
 10
8.579288866
 20
18.0346631827
 30
0.0
 40
0.2310245869783066
100
AcDbArc
 50
307.449356314
 51
349.8181342834
  0
LINE
  5
208
330
1F
100
AcDbEntity
  8
0
  6
Continuous
 62
     7
 48
3.0
370
    15
100
AcDbLine
 10
8.6773133818
 20
20.0346633423
 30
0.0
 11
8.6773133818
 21
10.0346630231
 31
0.0
  0
LINE
  5
209
330
1F
100
AcDbEntity
  8
0
  6
Continuous
 62
     7
 48
3.0
370
    15
100
AcDbLine
 10
8.6153134047
 20
20.0346633423
 30
0.0
 11
8.6153134047
 21
10.0346630231
 31
0.0
  0
LINE
  5
20A
330
1F
100
AcDbEntity
  8
0
  6
Continuous
 62
     7
 48
3.0
370
    15
100
AcDbLine
 10
8.6153134047
 20
10.0346630231
 30
0.0
 11
8.6773133818
 21
10.0346630231
 31
0.0
  0
LINE
  5
20B
330
1F
100
AcDbEntity
  8
0
  6
Continuous
 62
     7
 48
3.0
370
    15
100
AcDbLine
 10
8.6153134047
 20
20.0346633423
 30
0.0
 11
8.6773133818
 21
20.0346633423
 31
0.0
  0
LINE
  5
20C
330
1F
100
AcDbEntity
  8
0
  6
Continuous
 62
     7
 48
3.0
370
    15
100
AcDbLine
 10
4.6923134527
 20
20.0346633423
 30
0.0
 11
8.5383134142
 21
20.0346633423
 31
0.0
  0
LINE
  5
20D
330
1F
100
AcDbEntity
  8
0
  6
Continuous
 62
     7
 48
3.0
370
    15
100
AcDbLine
 10
4.6923134527
 20
10.0346630231
 30
0.0
 11
8.5383134142
 21
10.0346630231
 31
0.0
  0
LINE
  5
20E
330
1F
100
AcDbEntity
  8
0
  6
Continuous
 62
     7
 48
3.0
370
    15
100
AcDbLine
 10
4.615313453
 20
20.0346633423
 30
0.0
 11
4.615313453
 21
10.0346630231
 31
0.0
  0
LINE
  5
20F
330
1F
100
AcDbEntity
  8
0
  6
Continuous
 62
     7
 48
3.0
370
    15
100
AcDbLine
 10
4.615313453
 20
10.0346630231
 30
0.0
 11
4.6923134527
 21
10.0346630231
 31
0.0
  0
LINE
  5
210
330
1F
100
AcDbEntity
  8
0
  6
Continuous
 62
     7
 48
3.0
370
    15
100
AcDbLine
 10
4.615313453
 20
20.0346633423
 30
0.0
 11
4.6923134527
 21
20.0346633423
 31
0.0
  0
LINE
  5
211
330
1F
100
AcDbEntity
  8
0
  6
Continuous
 62
     7
 48
3.0
370
    15
100
AcDbLine
 10
8.5383134142
 20
20.0346633423
 30
0.0
 11
8.6153134047
 21
20.0346633423
 31
0.0
  0
LINE
  5
212
330
1F
100
AcDbEntity
  8
0
  6
Continuous
 62
     7
 48
3.0
370
    15
100
AcDbLine
 10
8.5383134142
 20
10.0346630231
 30
0.0
 11
8.6153134047
 21
10.0346630231
 31
0.0
  0
ARC
  5
213
330
1F
100
AcDbEntity
  8
0
  6
Continuous
 62
     7
 48
9.0
370
    15
100
AcDbCircle
 10
8.661756853
 20
12.0587727058
 30
0.0
 40
0.150328069524191
100
AcDbArc
 50
306.5393285872
 51
343.4904171391
  0
LINE
  5
214
330
1F
100
AcDbEntity
  8
0
  6
Continuous
 62
     7
 48
3.0
370
    15
100
AcDbLine
 10
8.7512583409
 20
11.9159073442
 30
0.0
 11
8.7512583409
 21
11.9379918624
 31
0.0
  0
ARC
  5
215
330
1F
100
AcDbEntity
  8
0
  6
Continuous
 62
     7
 48
9.0
370
    15
100
AcDbCircle
 10
8.661756853
 20
12.0366881876
 30
0.0
 40
0.1503280695241927
100
AcDbArc
 50
306.5393285872
 51
343.4904171391
  0
ARC
  5
216
330
1F
100
AcDbEntity
  8
0
  6
Continuous
 62
     7
 48
9.0
370
    15
100
AcDbCircle
 10
8.8060384264
 20
11.9925712107
 30
0.0
 40
0.001405547556242
100
AcDbArc
 50
63.0648385302
 51
96.1753322815
  0
ARC
  5
217
330
1F
100
AcDbEntity
  8
0
  6
Continuous
 62
     7
 48
9.0
370
    15
100
AcDbCircle
 10
8.5793110745
 20
12.034354358
 30
0.0
 40
0.2273642492457734
100
AcDbArc
 50
349.6534806549
 51
0.0778144857
  0
LWPOLYLINE
  5
218
330
1F
100
AcDbEntity
  8
0
  6
Continuous
 62
     7
 48
3.0
370
    15
100
AcDbPolyline
 90
        9
 70
   128
 43
0.0
 10
8.8058872298
 20
12.0753576888
 10
8.8063876507
 20
12.0754140082
 10
8.8066413811
 20
12.0754703275
 10
8.806647541
 20
12.0755266469
 10
8.8064064238
 20
12.0755829662
 10
8.8059183228
 20
12.0756392856
 10
8.8051835313
 20
12.0756953116
 10
8.8042032226
 20
12.0757510443
 10
8.8029782768
 20
12.075806777
  0
ARC
  5
219
330
1F
100
AcDbEntity
  8
0
  6
Continuous
 62
     7
 48
9.0
370
    15
100
AcDbCircle
 10
8.5792859624
 20
12.0349692564
 30
0.0
 40
0.2273894337263282
100
AcDbArc
 50
355.2281480736
 51
10.3460464293
  0
LINE
  5
21A
330
1F
100
AcDbEntity
  8
0
  6
Continuous
 62
     7
 48
3.0
370
    15
100
AcDbLine
 10
8.8058872298
 20
11.9939686024
 30
0.0
 11
8.7976854312
 21
11.9939686024
 31
0.0
  0
LINE
  5
21B
330
1F
100
AcDbEntity
  8
0
  6
Continuous
 62
     7
 48
3.0
370
    15
100
AcDbLine
 10
8.8058872298
 20
12.0753576888
 30
0.0
 11
8.8030598225
 21
12.0753576888
 31
0.0
  0
ARC
  5
21C
330
1F
100
AcDbEntity
  8
0
  6
Continuous
 62
     7
 48
9.0
370
    15
100
AcDbCircle
 10
8.6617567614
 20
18.0587723902
 30
0.0
 40
0.1503280465819848
100
AcDbArc
 50
306.5393785166
 51
343.4905694865
  0
LINE
  5
21D
330
1F
100
AcDbEntity
  8
0
  6
Continuous
 62
     7
 48
3.0
370
    15
100
AcDbLine
 10
8.7512583409
 20
17.9159074183
 30
0.0
 11
8.7512583409
 21
17.9379916432
 31
0.0
  0
ARC
  5
21E
330
1F
100
AcDbEntity
  8
0
  6
Continuous
 62
     7
 48
9.0
370
    15
100
AcDbCircle
 10
8.661756853
 20
18.0366882618
 30
0.0
 40
0.1503280695241805
100
AcDbArc
 50
306.5393285872
 51
343.4904171391
  0
ARC
  5
21F
330
1F
100
AcDbEntity
  8
0
  6
Continuous
 62
     7
 48
9.0
370
    15
100
AcDbCircle
 10
8.806036277
 20
17.9925595505
 30
0.0
 40
0.0014169866543107
100
AcDbArc
 50
63.2022853138
 51
96.0378854979
  0
ARC
  5
220
330
1F
100
AcDbEntity
  8
0
  6
Continuous
 62
     7
 48
9.0
370
    15
100
AcDbCircle
 10
8.5793111881
 20
18.0343544197
 30
0.0
 40
0.2273641352237699
100
AcDbArc
 50
349.6534785884
 51
0.0777437332
  0
LWPOLYLINE
  5
221
330
1F
100
AcDbEntity
  8
0
  6
Continuous
 62
     7
 48
3.0
370
    15
100
AcDbPolyline
 90
        9
 70
   128
 43
0.0
 10
8.8058872298
 20
18.075357763
 10
8.8063876507
 20
18.075413789
 10
8.8066413811
 20
18.0754701084
 10
8.806647541
 20
18.075526721
 10
8.8064064238
 20
18.0755830404
 10
8.8059183228
 20
18.0756390664
 10
8.8051835313
 20
18.0756953858
 10
8.8042032226
 20
18.0757511184
 10
8.8029782768
 20
18.0758068511
  0
ARC
  5
222
330
1F
100
AcDbEntity
  8
0
  6
Continuous
 62
     7
 48
9.0
370
    15
100
AcDbCircle
 10
8.5792839612
 20
18.0349692331
 30
0.0
 40
0.2273914198975714
100
AcDbArc
 50
355.2282144836
 51
10.3459800192
  0
LINE
  5
223
330
1F
100
AcDbEntity
  8
0
  6
Continuous
 62
     7
 48
3.0
370
    15
100
AcDbLine
 10
8.8058872298
 20
17.9939686765
 30
0.0
 11
8.7976854312
 21
17.9939686765
 31
0.0
  0
LINE
  5
224
330
1F
100
AcDbEntity
  8
0
  6
Continuous
 62
     7
 48
3.0
370
    15
100
AcDbLine
 10
8.8058872298
 20
18.075357763
 30
0.0
 11
8.8030598225
 21
18.075357763
 31
0.0
  0
LINE
  5
225
330
1F
100
AcDbEntity
  8
0
  6
Continuous
 62
     7
 48
3.0
370
    15
100
AcDbLine
 10
11.1157366375
 20
7.2462505398
 30
0.0
 11
11.1157366375
 21
7.2129191649
 31
0.0
  0
LINE
  5
226
330
1F
100
AcDbEntity
  8
0
  6
Continuous
 62
     7
 48
3.0
370
    15
100
AcDbLine
 10
11.4887364619
 20
7.2129191649
 30
0.0
 11
11.4887364619
 21
7.2462505398
 31
0.0
  0
ARC
  5
227
330
1F
100
AcDbEntity
  8
0
  6
Continuous
 62
     7
 48
9.0
370
    15
100
AcDbCircle
 10
11.1307365227
 20
7.246250548
 30
0.0
 40
0.0150000000000006
100
AcDbArc
 50
142.550643686
 51
180.0
  0
ARC
  5
228
330
1F
100
AcDbEntity
  8
0
  6
Continuous
 62
     7
 48
9.0
370
    15
100
AcDbCircle
 10
11.4737365227
 20
7.246250548
 30
0.0
 40
0.0149999999999997
100
AcDbArc
 50
0.0
 51
37.449356314
  0
ARC
  5
229
330
1F
100
AcDbEntity
  8
0
  6
Continuous
 62
     7
 48
9.0
370
    15
100
AcDbCircle
 10
11.3022365227
 20
7.1148946491
 30
0.0
 40
0.2310245869783027
100
AcDbArc
 50
100.1818657166
 51
142.550643686
  0
ARC
  5
22A
330
1F
100
AcDbEntity
  8
0
  6
Continuous
 62
     7
 48
9.0
370
    15
100
AcDbCircle
 10
11.3022365227
 20
7.1148946491
 30
0.0
 40
0.2310245869783027
100
AcDbArc
 50
37.449356314
 51
79.8181342834
  0
LINE
  5
22B
330
1F
100
AcDbEntity
  8
0
  6
Continuous
 62
     7
 48
3.0
370
    15
100
AcDbLine
 10
11.2332364001
 20
7.0889192107
 30
0.0
 11
11.2332364001
 21
7.0119192202
 31
0.0
  0
LINE
  5
22C
330
1F
100
AcDbEntity
  8
0
  6
Continuous
 62
     7
 48
3.0
370
    15
100
AcDbLine
 10
11.3712364059
 20
7.0119192202
 30
0.0
 11
11.3712364059
 21
7.0889192107
 31
0.0
  0
LINE
  5
22D
330
1F
100
AcDbEntity
  8
0
  6
Continuous
 62
     7
 48
3.0
370
    15
100
AcDbLine
 10
18.6157365835
 20
7.2462505398
 30
0.0
 11
18.6157365835
 21
7.2129191649
 31
0.0
  0
LINE
  5
22E
330
1F
100
AcDbEntity
  8
0
  6
Continuous
 62
     7
 48
3.0
370
    15
100
AcDbLine
 10
18.9887364079
 20
7.2129191649
 30
0.0
 11
18.9887364079
 21
7.2462505398
 31
0.0
  0
ARC
  5
22F
330
1F
100
AcDbEntity
  8
0
  6
Continuous
 62
     7
 48
9.0
370
    15
100
AcDbCircle
 10
18.6307365227
 20
7.246250548
 30
0.0
 40
0.0150000000000011
100
AcDbArc
 50
142.550643686
 51
180.0
  0
ARC
  5
230
330
1F
100
AcDbEntity
  8
0
  6
Continuous
 62
     7
 48
9.0
370
    15
100
AcDbCircle
 10
18.9737365227
 20
7.246250548
 30
0.0
 40
0.0149999999999983
100
AcDbArc
 50
0.0
 51
37.449356314
  0
ARC
  5
231
330
1F
100
AcDbEntity
  8
0
  6
Continuous
 62
     7
 48
9.0
370
    15
100
AcDbCircle
 10
18.8022365227
 20
7.1148946491
 30
0.0
 40
0.2310245869783027
100
AcDbArc
 50
100.1818657166
 51
142.550643686
  0
ARC
  5
232
330
1F
100
AcDbEntity
  8
0
  6
Continuous
 62
     7
 48
9.0
370
    15
100
AcDbCircle
 10
18.8022365227
 20
7.1148946491
 30
0.0
 40
0.2310245869783027
100
AcDbArc
 50
37.449356314
 51
79.8181342834
  0
LINE
  5
233
330
1F
100
AcDbEntity
  8
0
  6
Continuous
 62
     7
 48
3.0
370
    15
100
AcDbLine
 10
18.7332366395
 20
7.0889192107
 30
0.0
 11
18.7332366395
 21
7.0119192202
 31
0.0
  0
LINE
  5
234
330
1F
100
AcDbEntity
  8
0
  6
Continuous
 62
     7
 48
3.0
370
    15
100
AcDbLine
 10
18.8712366453
 20
7.0119192202
 30
0.0
 11
18.8712366453
 21
7.0889192107
 31
0.0
  0
LINE
  5
235
330
1F
100
AcDbEntity
  8
0
  6
Continuous
 62
     7
 48
3.0
370
    15
100
AcDbLine
 10
19.0522364744
 20
7.1509191878
 30
0.0
 11
19.0522364744
 21
7.2129191649
 31
0.0
  0
LINE
  5
236
330
1F
100
AcDbEntity
  8
0
  6
Continuous
 62
     7
 48
3.0
370
    15
100
AcDbLine
 10
11.052236571
 20
7.1509191878
 30
0.0
 11
11.052236571
 21
7.2129191649
 31
0.0
  0
LINE
  5
237
330
1F
100
AcDbEntity
  8
0
  6
Continuous
 62
     7
 48
3.0
370
    15
100
AcDbLine
 10
11.052236571
 20
7.1509191878
 30
0.0
 11
19.0522364744
 21
7.1509191878
 31
0.0
  0
LINE
  5
238
330
1F
100
AcDbEntity
  8
0
  6
Continuous
 62
     7
 48
3.0
370
    15
100
AcDbLine
 10
11.052236571
 20
7.2129191649
 30
0.0
 11
19.0522364744
 21
7.2129191649
 31
0.0
  0
LINE
  5
239
330
1F
100
AcDbEntity
  8
0
  6
Continuous
 62
     7
 48
3.0
370
    15
100
AcDbLine
 10
18.5212365285
 20
7.0739191973
 30
0.0
 11
18.5212365285
 21
7.0119192202
 31
0.0
  0
LINE
  5
23A
330
1F
100
AcDbEntity
  8
0
  6
Continuous
 62
     7
 48
3.0
370
    15
100
AcDbLine
 10
18.5212365285
 20
7.0119192202
 30
0.0
 11
18.9132365068
 21
7.0119192202
 31
0.0
  0
LINE
  5
23B
330
1F
100
AcDbEntity
  8
0
  6
Continuous
 62
     7
 48
3.0
370
    15
100
AcDbLine
 10
11.5832365169
 20
7.0739191973
 30
0.0
 11
11.5832365169
 21
7.0119192202
 31
0.0
  0
LINE
  5
23C
330
1F
100
AcDbEntity
  8
0
  6
Continuous
 62
     7
 48
3.0
370
    15
100
AcDbLine
 10
11.5832365169
 20
7.0119192202
 30
0.0
 11
11.1912365386
 21
7.0119192202
 31
0.0
  0
LINE
  5
23D
330
1F
100
AcDbEntity
  8
0
  6
Continuous
 62
     7
 48
3.0
370
    15
100
AcDbLine
 10
18.5212365285
 20
7.0739191973
 30
0.0
 11
18.5212365285
 21
7.1509191878
 31
0.0
  0
LINE
  5
23E
330
1F
100
AcDbEntity
  8
0
  6
Continuous
 62
     7
 48
3.0
370
    15
100
AcDbLine
 10
11.5832365169
 20
7.0739191973
 30
0.0
 11
11.5832365169
 21
7.1509191878
 31
0.0
  0
LINE
  5
23F
330
1F
100
AcDbEntity
  8
0
  6
Continuous
 62
     7
 48
3.0
370
    15
100
AcDbLine
 10
11.1912365386
 20
3.2899192404
 30
0.0
 11
11.1142365481
 21
3.2899192404
 31
0.0
  0
LINE
  5
240
330
1F
100
AcDbEntity
  8
0
  6
Continuous
 62
     7
 48
3.0
370
    15
100
AcDbLine
 10
11.1142365481
 20
7.0119192202
 30
0.0
 11
11.1912365386
 21
7.0119192202
 31
0.0
  0
LINE
  5
241
330
1F
100
AcDbEntity
  8
0
  6
Continuous
 62
     7
 48
3.0
370
    15
100
AcDbLine
 10
18.9132365068
 20
3.2129192361
 30
0.0
 11
18.9132365068
 21
3.2899192404
 31
0.0
  0
LINE
  5
242
330
1F
100
AcDbEntity
  8
0
  6
Continuous
 62
     7
 48
3.0
370
    15
100
AcDbLine
 10
11.1912365386
 20
3.2129192361
 30
0.0
 11
11.1912365386
 21
3.2899192404
 31
0.0
  0
LINE
  5
243
330
1F
100
AcDbEntity
  8
0
  6
Continuous
 62
     7
 48
3.0
370
    15
100
AcDbLine
 10
18.9132365068
 20
3.2899192404
 30
0.0
 11
18.9902364972
 21
3.2899192404
 31
0.0
  0
LINE
  5
244
330
1F
100
AcDbEntity
  8
0
  6
Continuous
 62
     7
 48
3.0
370
    15
100
AcDbLine
 10
18.9902364972
 20
7.0119192202
 30
0.0
 11
18.9132365068
 21
7.0119192202
 31
0.0
  0
LINE
  5
245
330
1F
100
AcDbEntity
  8
0
  6
Continuous
 62
     7
 48
3.0
370
    15
100
AcDbLine
 10
18.9902364972
 20
7.0739191973
 30
0.0
 11
18.9902364972
 21
3.2279192358
 31
0.0
  0
LINE
  5
246
330
1F
100
AcDbEntity
  8
0
  6
Continuous
 62
     7
 48
3.0
370
    15
100
AcDbLine
 10
19.0522364744
 20
7.0739191973
 30
0.0
 11
19.0522364744
 21
3.2279192358
 31
0.0
  0
LINE
  5
247
330
1F
100
AcDbEntity
  8
0
  6
Continuous
 62
     7
 48
3.0
370
    15
100
AcDbLine
 10
11.1142365481
 20
3.2279192358
 30
0.0
 11
11.1142365481
 21
7.0739191973
 31
0.0
  0
LINE
  5
248
330
1F
100
AcDbEntity
  8
0
  6
Continuous
 62
     7
 48
3.0
370
    15
100
AcDbLine
 10
11.052236571
 20
3.2279192358
 30
0.0
 11
11.052236571
 21
7.0739191973
 31
0.0
  0
ARC
  5
249
330
1F
100
AcDbEntity
  8
0
  6
Continuous
 62
     7
 48
9.0
370
    15
100
AcDbCircle
 10
11.1292365227
 20
3.2279192361
 30
0.0
 40
0.0150000000000006
100
AcDbArc
 50
180.0
 51
270.0
  0
ARC
  5
24A
330
1F
100
AcDbEntity
  8
0
  6
Continuous
 62
     7
 48
9.0
370
    15
100
AcDbCircle
 10
11.1292365227
 20
3.2279192361
 30
0.0
 40
0.077
100
AcDbArc
 50
180.0
 51
270.0
  0
LINE
  5
24B
330
1F
100
AcDbEntity
  8
0
  6
Continuous
 62
     7
 48
3.0
370
    15
100
AcDbLine
 10
18.9752364839
 20
3.1509192361
 30
0.0
 11
11.1292365615
 21
3.1509192361
 31
0.0
  0
LINE
  5
24C
330
1F
100
AcDbEntity
  8
0
  6
Continuous
 62
     7
 48
3.0
370
    15
100
AcDbLine
 10
18.9752364839
 20
3.2129192361
 30
0.0
 11
11.1292365615
 21
3.2129192361
 31
0.0
  0
ARC
  5
24D
330
1F
100
AcDbEntity
  8
0
  6
Continuous
 62
     7
 48
9.0
370
    15
100
AcDbCircle
 10
18.9752365227
 20
3.2279192361
 30
0.0
 40
0.0770000000000004
100
AcDbArc
 50
270.0
 51
0.0
  0
ARC
  5
24E
330
1F
100
AcDbEntity
  8
0
  6
Continuous
 62
     7
 48
9.0
370
    15
100
AcDbCircle
 10
18.9752365227
 20
3.2279192361
 30
0.0
 40
0.0150000000000006
100
AcDbArc
 50
270.0
 51
0.0
  0
ARC
  5
24F
330
1F
100
AcDbEntity
  8
0
  6
Continuous
 62
     7
 48
9.0
370
    15
100
AcDbCircle
 10
11.1292365227
 20
7.0739192361
 30
0.0
 40
0.0149999999999997
100
AcDbArc
 50
90.0
 51
180.0
  0
ARC
  5
250
330
1F
100
AcDbEntity
  8
0
  6
Continuous
 62
     7
 48
9.0
370
    15
100
AcDbCircle
 10
11.1292365227
 20
7.0739192361
 30
0.0
 40
0.077
100
AcDbArc
 50
90.0
 51
180.0
  0
LINE
  5
251
330
1F
100
AcDbEntity
  8
0
  6
Continuous
 62
     7
 48
3.0
370
    15
100
AcDbLine
 10
11.5522365283
 20
7.0889192107
 30
0.0
 11
11.5522365283
 21
7.1509191878
 31
0.0
  0
LINE
  5
252
330
1F
100
AcDbEntity
  8
0
  6
Continuous
 62
     7
 48
3.0
370
    15
100
AcDbLine
 10
11.1292365615
 20
7.0889192107
 30
0.0
 11
11.5522365283
 21
7.0889192107
 31
0.0
  0
LINE
  5
253
330
1F
100
AcDbEntity
  8
0
  6
Continuous
 62
     7
 48
3.0
370
    15
100
AcDbLine
 10
11.1292365615
 20
7.1509191878
 30
0.0
 11
11.5522365283
 21
7.1509191878
 31
0.0
  0
LINE
  5
254
330
1F
100
AcDbEntity
  8
0
  6
Continuous
 62
     7
 48
3.0
370
    15
100
AcDbLine
 10
18.5522365171
 20
7.1509191878
 30
0.0
 11
18.5522365171
 21
7.0889192107
 31
0.0
  0
LINE
  5
255
330
1F
100
AcDbEntity
  8
0
  6
Continuous
 62
     7
 48
3.0
370
    15
100
AcDbLine
 10
18.5522365171
 20
7.0889192107
 30
0.0
 11
18.9752364839
 21
7.0889192107
 31
0.0
  0
LINE
  5
256
330
1F
100
AcDbEntity
  8
0
  6
Continuous
 62
     7
 48
3.0
370
    15
100
AcDbLine
 10
18.5522365171
 20
7.1509191878
 30
0.0
 11
18.9752364839
 21
7.1509191878
 31
0.0
  0
ARC
  5
257
330
1F
100
AcDbEntity
  8
0
  6
Continuous
 62
     7
 48
9.0
370
    15
100
AcDbCircle
 10
18.9752365227
 20
7.0739192361
 30
0.0
 40
0.0150000000000006
100
AcDbArc
 50
0.0
 51
90.0
  0
ARC
  5
258
330
1F
100
AcDbEntity
  8
0
  6
Continuous
 62
     7
 48
9.0
370
    15
100
AcDbCircle
 10
18.9752365227
 20
7.0739192361
 30
0.0
 40
0.0769999999999991
100
AcDbArc
 50
0.0
 51
90.0
  0
ARC
  5
259
330
1F
100
AcDbEntity
  8
0
  6
Continuous
 62
     7
 48
9.0
370
    15
100
AcDbCircle
 10
11.3038496516
 20
7.1949206346
 30
0.0
 40
0.1526353268033548
100
AcDbArc
 50
106.2031779882
 51
142.9599168428
  0
LINE
  5
25A
330
1F
100
AcDbEntity
  8
0
  6
Continuous
 62
     7
 48
3.0
370
    15
100
AcDbLine
 10
11.2037687672
 20
7.286864124
 30
0.0
 11
11.1820139518
 21
7.286864124
 31
0.0
  0
ARC
  5
25B
330
1F
100
AcDbEntity
  8
0
  6
Continuous
 62
     7
 48
9.0
370
    15
100
AcDbCircle
 10
11.325604981
 20
7.1949196602
 30
0.0
 40
0.1526363240160467
100
AcDbArc
 50
106.2031554824
 51
142.9597411331
  0
ARC
  5
25C
330
1F
100
AcDbEntity
  8
0
  6
Continuous
 62
     7
 48
9.0
370
    15
100
AcDbCircle
 10
11.3019287503
 20
7.1148934554
 30
0.0
 40
0.2273877199952904
100
AcDbArc
 50
79.6539198444
 51
94.7718583321
  0
ARC
  5
25D
330
1F
100
AcDbEntity
  8
0
  6
Continuous
 62
     7
 48
9.0
370
    15
100
AcDbCircle
 10
11.3592191827
 20
7.3390681394
 30
0.0
 40
0.0164602076117126
100
AcDbArc
 50
168.744567878
 51
181.6852590191
  0
ARC
  5
25E
330
1F
100
AcDbEntity
  8
0
  6
Continuous
 62
     7
 48
9.0
370
    15
100
AcDbCircle
 10
11.3025481447
 20
7.1149659317
 30
0.0
 40
0.227315179244212
100
AcDbArc
 50
85.227575387
 51
90.0785758724
  0
ARC
  5
25F
330
1F
100
AcDbEntity
  8
0
  6
Continuous
 62
     7
 48
9.0
370
    15
100
AcDbCircle
 10
11.3025490469
 20
7.1148456506
 30
0.0
 40
0.2274356439739796
100
AcDbArc
 50
95.0024452035
 51
100.3451542587
  0
LWPOLYLINE
  5
260
330
1F
100
AcDbEntity
  8
0
  6
Continuous
 62
     7
 48
3.0
370
    15
100
AcDbPolyline
 90
        9
 70
   128
 43
0.0
 10
11.2617067112
 20
7.3385840598
 10
11.2616512719
 20
7.3398090057
 10
11.2615952458
 20
7.3407893144
 10
11.2615392198
 20
7.3415241059
 10
11.2614829005
 20
7.3420122069
 10
11.2614265811
 20
7.3422533241
 10
11.2613702618
 20
7.3422471642
 10
11.2613139424
 20
7.3419934338
 10
11.2612576231
 20
7.3414930129
  0
LINE
  5
261
330
1F
100
AcDbEntity
  8
0
  6
Continuous
 62
     7
 48
3.0
370
    15
100
AcDbLine
 10
11.2612576231
 20
7.3336036107
 30
0.0
 11
11.2612576231
 21
7.3414930129
 31
0.0
  0
LINE
  5
262
330
1F
100
AcDbEntity
  8
0
  6
Continuous
 62
     7
 48
3.0
370
    15
100
AcDbLine
 10
11.2617067112
 20
7.3338124616
 30
0.0
 11
11.2617067112
 21
7.3385840598
 31
0.0
  0
LINE
  5
263
330
1F
100
AcDbEntity
  8
0
  6
Continuous
 62
     7
 48
3.0
370
    15
100
AcDbLine
 10
11.3214603676
 20
7.3414930129
 30
0.0
 11
11.3214603676
 21
7.3414408002
 31
0.0
  0
ARC
  5
264
330
1F
100
AcDbEntity
  8
0
  6
Continuous
 62
     7
 48
9.0
370
    15
100
AcDbCircle
 10
18.7452538627
 20
7.3390681394
 30
0.0
 40
0.0164602076121023
100
AcDbArc
 50
358.3147409811
 51
11.2554321218
  0
ARC
  5
265
330
1F
100
AcDbEntity
  8
0
  6
Continuous
 62
     7
 48
9.0
370
    15
100
AcDbCircle
 10
18.8025442951
 20
7.1148934554
 30
0.0
 40
0.2273877199952545
100
AcDbArc
 50
85.2281416679
 51
100.3460801556
  0
ARC
  5
266
330
1F
100
AcDbEntity
  8
0
  6
Continuous
 62
     7
 48
9.0
370
    15
100
AcDbCircle
 10
18.7788680644
 20
7.1949196602
 30
0.0
 40
0.152636324016093
100
AcDbArc
 50
37.0402588669
 51
73.7968445176
  0
LINE
  5
267
330
1F
100
AcDbEntity
  8
0
  6
Continuous
 62
     7
 48
3.0
370
    15
100
AcDbLine
 10
18.9224590936
 20
7.286864124
 30
0.0
 11
18.9007042782
 21
7.286864124
 31
0.0
  0
ARC
  5
268
330
1F
100
AcDbEntity
  8
0
  6
Continuous
 62
     7
 48
9.0
370
    15
100
AcDbCircle
 10
18.8006233938
 20
7.1949206346
 30
0.0
 40
0.1526353268033957
100
AcDbArc
 50
37.0400831572
 51
73.7968220118
  0
LWPOLYLINE
  5
269
330
1F
100
AcDbEntity
  8
0
  6
Continuous
 62
     7
 48
3.0
370
    15
100
AcDbPolyline
 90
        9
 70
   128
 43
0.0
 10
18.8432154223
 20
7.3414930129
 10
18.843159103
 20
7.3419934338
 10
18.8431027836
 20
7.3422471642
 10
18.8430464643
 20
7.3422533241
 10
18.8429901449
 20
7.3420122069
 10
18.8429338256
 20
7.3415241059
 10
18.8428777995
 20
7.3407893144
 10
18.8428217735
 20
7.3398090057
 10
18.8427663342
 20
7.3385840598
  0
ARC
  5
26A
330
1F
100
AcDbEntity
  8
0
  6
Continuous
 62
     7
 48
9.0
370
    15
100
AcDbCircle
 10
18.8019239985
 20
7.1148456506
 30
0.0
 40
0.2274356439736586
100
AcDbArc
 50
79.6548457413
 51
84.9975547965
  0
ARC
  5
26B
330
1F
100
AcDbEntity
  8
0
  6
Continuous
 62
     7
 48
9.0
370
    15
100
AcDbCircle
 10
18.8019249007
 20
7.1149659317
 30
0.0
 40
0.227315179244839
100
AcDbArc
 50
89.9214241276
 51
94.772424613
  0
LINE
  5
26C
330
1F
100
AcDbEntity
  8
0
  6
Continuous
 62
     7
 48
3.0
370
    15
100
AcDbLine
 10
18.8432154223
 20
7.3414930129
 30
0.0
 11
18.8432154223
 21
7.3336036107
 31
0.0
  0
LINE
  5
26D
330
1F
100
AcDbEntity
  8
0
  6
Continuous
 62
     7
 48
3.0
370
    15
100
AcDbLine
 10
18.8427663342
 20
7.3338124616
 30
0.0
 11
18.8427663342
 21
7.3385840598
 31
0.0
  0
LINE
  5
26E
330
1F
100
AcDbEntity
  8
0
  6
Continuous
 62
     7
 48
3.0
370
    15
100
AcDbLine
 10
18.7830126778
 20
7.3414408002
 30
0.0
 11
18.7830126778
 21
7.3414930129
 31
0.0
  0
CIRCLE
  5
26F
330
1F
100
AcDbEntity
  8
0
  6
Continuous
 62
     7
 48
9.0
370
    15
100
AcDbCircle
 10
40.2247169311
 20
18.5346631827
 30
0.0
 40
0.1404999999999959
  0
CIRCLE
  5
270
330
1F
100
AcDbEntity
  8
0
  6
Continuous
 62
     7
 48
9.0
370
    15
100
AcDbCircle
 10
47.2247169311
 20
18.5346631827
 30
0.0
 40
0.140500000000003
  0
CIRCLE
  5
271
330
1F
100
AcDbEntity
  8
0
  6
Continuous
 62
     7
 48
9.0
370
    15
100
AcDbCircle
 10
47.2247169311
 20
11.5346631827
 30
0.0
 40
0.1404999999999959
  0
CIRCLE
  5
272
330
1F
100
AcDbEntity
  8
0
  6
Continuous
 62
     7
 48
9.0
370
    15
100
AcDbCircle
 10
40.2247169311
 20
11.5346631827
 30
0.0
 40
0.140500000000003
  0
CIRCLE
  5
273
330
1F
100
AcDbEntity
  8
0
  6
Continuous
 62
     7
 48
9.0
370
    15
100
AcDbCircle
 10
45.7247169311
 20
18.0346631827
 30
0.0
 40
0.6249999999999964
  0
LINE
  5
274
330
1F
100
AcDbEntity
  8
0
  6
Continuous
 62
     7
 48
3.0
370
    15
100
AcDbLine
 10
39.8017169699
 20
10.0346630231
 30
0.0
 11
47.6477168923
 21
10.0346630231
 31
0.0
  0
LINE
  5
275
330
1F
100
AcDbEntity
  8
0
  6
Continuous
 62
     7
 48
3.0
370
    15
100
AcDbLine
 10
39.8017169699
 20
20.0346633423
 30
0.0
 11
47.6477168923
 21
20.0346633423
 31
0.0
  0
LINE
  5
276
330
1F
100
AcDbEntity
  8
0
  6
Continuous
 62
     7
 48
3.0
370
    15
100
AcDbLine
 10
47.6477168923
 20
20.0346633423
 30
0.0
 11
47.7247168827
 21
20.0346633423
 31
0.0
  0
LINE
  5
277
330
1F
100
AcDbEntity
  8
0
  6
Continuous
 62
     7
 48
3.0
370
    15
100
AcDbLine
 10
47.7247168827
 20
20.0346633423
 30
0.0
 11
47.7247168827
 21
10.0346630231
 31
0.0
  0
LINE
  5
278
330
1F
100
AcDbEntity
  8
0
  6
Continuous
 62
     7
 48
3.0
370
    15
100
AcDbLine
 10
47.6477168923
 20
10.0346630231
 30
0.0
 11
47.7247168827
 21
10.0346630231
 31
0.0
  0
LINE
  5
279
330
1F
100
AcDbEntity
  8
0
  6
Continuous
 62
     7
 48
3.0
370
    15
100
AcDbLine
 10
39.7247169794
 20
20.0346633423
 30
0.0
 11
39.7247169794
 21
10.0346630231
 31
0.0
  0
LINE
  5
27A
330
1F
100
AcDbEntity
  8
0
  6
Continuous
 62
     7
 48
3.0
370
    15
100
AcDbLine
 10
39.7247169794
 20
20.0346633423
 30
0.0
 11
39.8017169699
 21
20.0346633423
 31
0.0
  0
LINE
  5
27B
330
1F
100
AcDbEntity
  8
0
  6
Continuous
 62
     7
 48
3.0
370
    15
100
AcDbLine
 10
39.7247169794
 20
10.0346630231
 30
0.0
 11
39.8017169699
 21
10.0346630231
 31
0.0
  0
CIRCLE
  5
27C
330
1F
100
AcDbEntity
  8
0
  6
Continuous
 62
     7
 48
9.0
370
    15
100
AcDbCircle
 10
45.7247169311
 20
18.0346631827
 30
0.0
 40
0.1470000000000056
  0
CIRCLE
  5
27D
330
1F
100
AcDbEntity
  8
0
  6
Continuous
 62
     7
 48
9.0
370
    15
100
AcDbCircle
 10
45.7247169311
 20
18.0346631827
 30
0.0
 40
0.0850000000000009
  0
LINE
  5
27E
330
1F
100
AcDbEntity
  8
0
  6
Continuous
 62
     7
 48
3.0
370
    15
100
AcDbLine
 10
47.2247169255
 20
18.675163234
 30
0.0
 11
47.2247169255
 21
18.3941631201
 31
0.0
  0
LINE
  5
27F
330
1F
100
AcDbEntity
  8
0
  6
Continuous
 62
     7
 48
3.0
370
    15
100
AcDbLine
 10
47.2247169255
 20
11.6751632452
 30
0.0
 11
47.2247169255
 21
11.3941631314
 31
0.0
  0
LINE
  5
280
330
1F
100
AcDbEntity
  8
0
  6
Continuous
 62
     7
 48
3.0
370
    15
100
AcDbLine
 10
40.2247169367
 20
18.675163234
 30
0.0
 11
40.2247169367
 21
18.3941631201
 31
0.0
  0
LINE
  5
281
330
1F
100
AcDbEntity
  8
0
  6
Continuous
 62
     7
 48
3.0
370
    15
100
AcDbLine
 10
40.2247169367
 20
11.6751632452
 30
0.0
 11
40.2247169367
 21
11.3941631314
 31
0.0
  0
DIMENSION
  5
282
330
1F
100
AcDbEntity
  8
0
  6
Continuous
 62
     7
 48
3.0
370
     0
100
AcDbDimension
  2
*D9
 10
38.715740949
 20
11.5346631827
 30
0.0
 11
38.715740949
 21
15.0346631827
 31
0.0
 70
   160
 71
     2
 42
-1.0
  3
SLDDIMSTYLE0
100
AcDbAlignedDimension
 13
40.2247169311
 23
18.5346631827
 33
0.0
 14
40.2247169311
 24
11.5346631827
 34
0.0
 50
90.0
100
AcDbRotatedDimension
  0
DIMENSION
  5
294
330
1F
100
AcDbEntity
  8
0
  6
Continuous
 62
     7
 48
3.0
370
     0
100
AcDbDimension
  2
*D10
 10
47.2247169311
 20
9.0532183041
 30
0.0
 11
43.7247169311
 21
9.0532183041
 31
0.0
 70
   160
 71
     2
 42
-1.0
  3
SLDDIMSTYLE0
100
AcDbAlignedDimension
 13
40.2247169311
 23
11.5346631827
 33
0.0
 14
47.2247169311
 24
11.5346631827
 34
0.0
100
AcDbRotatedDimension
  0
DIMENSION
  5
2A6
330
1F
100
AcDbEntity
  8
0
  6
Continuous
 62
     7
 48
3.0
370
     0
100
AcDbDimension
  2
*D11
 10
47.1784743724
 20
11.6673352437
 30
0.0
 11
47.176875279
 21
7.7939079374
 31
0.0
 70
   163
  1
<>
 71
     1
 42
-1.0
  3
SLDDIMSTYLE2
100
AcDbDiametricDimension
 15
47.2709594898
 25
11.4019911217
 35
0.0
 40
0.0
  0
DIMENSION
  5
2B7
330
1F
100
AcDbEntity
  8
0
  6
Continuous
 62
     7
 48
3.0
370
     0
100
AcDbDimension
  2
*D12
 10
48.7046631408
 20
20.0346631827
 30
0.0
 11
48.7046631408
 21
19.0346631827
 31
0.0
 70
   160
 71
     2
 42
-1.0
  3
SLDDIMSTYLE3
100
AcDbAlignedDimension
 13
45.7247169311
 23
18.0346631827
 33
0.0
 14
47.7247169311
 24
20.0346631827
 34
0.0
 50
90.0
100
AcDbRotatedDimension
  0
DIMENSION
  5
2CA
330
1F
100
AcDbEntity
  8
0
  6
Continuous
 62
     7
 48
3.0
370
     0
100
AcDbDimension
  2
*D13
 10
47.7247169311
 20
20.9734211625
 30
0.0
 11
46.7247169311
 21
20.9734211625
 31
0.0
 70
   160
 71
     2
 42
-1.0
  3
SLDDIMSTYLE3
100
AcDbAlignedDimension
 13
45.7247169311
 23
18.0346631827
 33
0.0
 14
47.7247169311
 24
20.0346631827
 34
0.0
100
AcDbRotatedDimension
  0
LINE
  5
2DC
330
1F
100
AcDbEntity
  8
0
  6
Continuous
 62
     7
 48
3.0
370
    15
100
AcDbLine
 10
43.0933109516
 20
28.3023581669
 30
0.0
 11
39.8171438265
 21
30.1936491909
 31
0.0
  0
LINE
  5
2DD
330
1F
100
AcDbEntity
  8
0
  6
Continuous
 62
     7
 48
3.0
370
    15
100
AcDbLine
 10
39.7709475295
 20
30.1936492201
 30
0.0
 11
38.1918366743
 21
29.2820479274
 31
0.0
  0
LINE
  5
2DE
330
1F
100
AcDbEntity
  8
0
  6
Continuous
 62
     7
 48
3.0
370
    15
100
AcDbLine
 10
43.1690216053
 20
23.4008258107
 30
0.0
 11
43.1690216053
 21
28.3000708383
 31
0.0
  0
LINE
  5
2DF
330
1F
100
AcDbEntity
  8
0
  6
Continuous
 62
     7
 48
3.0
370
    15
100
AcDbLine
 10
38.1161260419
 20
29.2797605865
 30
0.0
 11
38.1161260419
 21
29.2687130607
 31
0.0
  0
ARC
  5
2E0
330
1F
100
AcDbEntity
  8
0
  6
Continuous
 62
     7
 48
9.0
370
    15
100
AcDbCircle
 10
38.2183393785
 20
25.3079572324
 30
0.0
 40
0.1386147521869868
100
AcDbArc
 50
168.1339525011
 51
205.9042604596
  0
ARC
  5
2E1
330
1F
100
AcDbEntity
  8
0
  6
Continuous
 62
     7
 48
9.0
370
    15
100
AcDbCircle
 10
38.2183393785
 20
25.3079572324
 30
0.0
 40
0.1386147521869843
100
AcDbArc
 50
213.5984078164
 51
251.8606709662
  0
LINE
  5
2E2
330
1F
100
AcDbEntity
  8
0
  6
Continuous
 62
     7
 48
3.0
370
    15
100
AcDbLine
 10
38.2185552043
 20
25.1788743673
 30
0.0
 11
38.232696509
 21
25.1870379688
 31
0.0
  0
LINE
  5
2E3
330
1F
100
AcDbEntity
  8
0
  6
Continuous
 62
     7
 48
3.0
370
    15
100
AcDbLine
 10
38.1208055866
 20
25.3808597124
 30
0.0
 11
38.1066642819
 21
25.3726961109
 31
0.0
  0
ARC
  5
2E4
330
1F
100
AcDbEntity
  8
0
  6
Continuous
 62
     7
 48
9.0
370
    15
100
AcDbCircle
 10
41.4003198938
 20
26.4105859036
 30
0.0
 40
0.1386147521869868
100
AcDbArc
 50
168.1339525011
 51
251.8606709662
  0
LINE
  5
2E5
330
1F
100
AcDbEntity
  8
0
  6
Continuous
 62
     7
 48
3.0
370
    15
100
AcDbLine
 10
41.4005358212
 20
26.2815030162
 30
0.0
 11
41.4146771259
 21
26.2896666177
 31
0.0
  0
LINE
  5
2E6
330
1F
100
AcDbEntity
  8
0
  6
Continuous
 62
     7
 48
3.0
370
    15
100
AcDbLine
 10
41.3027862035
 20
26.4834883613
 30
0.0
 11
41.2886448987
 21
26.4753247598
 31
0.0
  0
ARC
  5
2E7
330
1F
100
AcDbEntity
  8
0
  6
Continuous
 62
     7
 48
9.0
370
    15
100
AcDbCircle
 10
41.4003198938
 20
23.4710389808
 30
0.0
 40
0.1386147521869868
100
AcDbArc
 50
168.1339525011
 51
251.8606709662
  0
LINE
  5
2E8
330
1F
100
AcDbEntity
  8
0
  6
Continuous
 62
     7
 48
3.0
370
    15
100
AcDbLine
 10
41.4005358212
 20
23.3419560571
 30
0.0
 11
41.4146771259
 21
23.3501196586
 31
0.0
  0
LINE
  5
2E9
330
1F
100
AcDbEntity
  8
0
  6
Continuous
 62
     7
 48
3.0
370
    15
100
AcDbLine
 10
41.3027862035
 20
23.5439414022
 30
0.0
 11
41.2886448987
 21
23.5357778007
 31
0.0
  0
ARC
  5
2EA
330
1F
100
AcDbEntity
  8
0
  6
Continuous
 62
     7
 48
9.0
370
    15
100
AcDbCircle
 10
38.2183393785
 20
28.2475041552
 30
0.0
 40
0.1386147521869868
100
AcDbArc
 50
168.1339525011
 51
205.9042604596
  0
ARC
  5
2EB
330
1F
100
AcDbEntity
  8
0
  6
Continuous
 62
     7
 48
9.0
370
    15
100
AcDbCircle
 10
38.2183393785
 20
28.2475041552
 30
0.0
 40
0.1386147521869843
100
AcDbArc
 50
213.5984078164
 51
251.8606709662
  0
LINE
  5
2EC
330
1F
100
AcDbEntity
  8
0
  6
Continuous
 62
     7
 48
3.0
370
    15
100
AcDbLine
 10
38.2185552043
 20
28.1184213265
 30
0.0
 11
38.232696509
 21
28.1265849279
 31
0.0
  0
LINE
  5
2ED
330
1F
100
AcDbEntity
  8
0
  6
Continuous
 62
     7
 48
3.0
370
    15
100
AcDbLine
 10
38.1208055866
 20
28.3204066715
 30
0.0
 11
38.1066642819
 21
28.3122430701
 31
0.0
  0
LINE
  5
2EE
330
1F
100
AcDbEntity
  8
0
  6
Continuous
 62
     7
 48
3.0
370
    15
100
AcDbLine
 10
38.0969894645
 20
29.2797605865
 30
0.0
 11
38.0706851019
 21
29.2645754012
 31
0.0
  0
LINE
  5
2EF
330
1F
100
AcDbEntity
  8
0
  6
Continuous
 62
     7
 48
3.0
370
    15
100
AcDbLine
 10
41.4911019732
 20
27.3203811418
 30
0.0
 11
38.0969894645
 21
29.2797605865
 31
0.0
  0
LINE
  5
2F0
330
1F
100
AcDbEntity
  8
0
  6
Continuous
 62
     7
 48
3.0
370
    15
100
AcDbLine
 10
41.4911019732
 20
27.3203811418
 30
0.0
 11
41.4647976106
 21
27.3051959565
 31
0.0
  0
LINE
  5
2F1
330
1F
100
AcDbEntity
  8
0
  6
Continuous
 62
     7
 48
3.0
370
    15
100
AcDbLine
 10
41.4647976106
 20
27.3051959565
 30
0.0
 11
38.0706851019
 21
29.2645754012
 31
0.0
  0
LWPOLYLINE
  5
2F2
330
1F
100
AcDbEntity
  8
0
  6
Continuous
 62
     7
 48
3.0
370
    15
100
AcDbPolyline
 90
       18
 70
   128
 43
0.0
 10
41.4177638433
 20
26.2916570687
 10
41.4282177136
 20
26.271964887
 10
41.4394353297
 20
26.2414588509
 10
41.4445723502
 20
26.2118461176
 10
41.4432416132
 20
26.1853582439
 10
41.4355435494
 20
26.1639908616
 10
41.4220579683
 20
26.1493537872
 10
41.4038012478
 20
26.1425497276
 10
41.3821485533
 20
26.144091711
 10
41.3587316647
 20
26.1538633421
 10
41.3353146517
 20
26.1711283469
 10
41.3136620816
 20
26.1945859607
 10
41.2954052366
 20
26.222468853
 10
41.2819196556
 20
26.2526760478
 10
41.2742215917
 20
26.2829314254
 10
41.2728909792
 20
26.3109556634
 10
41.2780278753
 20
26.334637391
 10
41.280725564
 20
26.3405056632
  0
LINE
  5
2F3
330
1F
100
AcDbEntity
  8
0
  6
Continuous
 62
     7
 48
3.0
370
    15
100
AcDbLine
 10
41.4647976106
 20
22.4059509289
 30
0.0
 11
41.4647976106
 21
27.3051959565
 31
0.0
  0
LINE
  5
2F4
330
1F
100
AcDbEntity
  8
0
  6
Continuous
 62
     7
 48
3.0
370
    15
100
AcDbLine
 10
38.0706851019
 20
24.3653303736
 30
0.0
 11
41.4647976106
 21
22.4059509289
 31
0.0
  0
LINE
  5
2F5
330
1F
100
AcDbEntity
  8
0
  6
Continuous
 62
     7
 48
3.0
370
    15
100
AcDbLine
 10
38.0706851019
 20
29.2645754012
 30
0.0
 11
38.0706851019
 21
24.3653303736
 31
0.0
  0
LWPOLYLINE
  5
2F6
330
1F
100
AcDbEntity
  8
0
  6
Continuous
 62
     7
 48
3.0
370
    15
100
AcDbPolyline
 90
       18
 70
   128
 43
0.0
 10
38.0992614119
 20
25.2388302881
 10
38.0960473829
 20
25.2320086703
 10
38.0909103623
 20
25.2083271583
 10
38.0922410993
 20
25.1803028484
 10
38.0999391631
 20
25.150047327
 10
38.1134247442
 20
25.1198401322
 10
38.1316814647
 20
25.0919574555
 10
38.1533341592
 20
25.0684997699
 10
38.1767510478
 20
25.0512346932
 10
38.2001680609
 20
25.041463134
 10
38.2218206309
 20
25.0399212224
 10
38.2400774759
 20
25.0467250665
 10
38.253563057
 20
25.0613621408
 10
38.2612611208
 20
25.0827296669
 10
38.2625917333
 20
25.1092176124
 10
38.2574548372
 20
25.1388301302
 10
38.2462372212
 20
25.16933631
 10
38.2357833509
 20
25.1890283479
  0
LWPOLYLINE
  5
2F7
330
1F
100
AcDbEntity
  8
0
  6
Continuous
 62
     7
 48
3.0
370
    15
100
AcDbPolyline
 90
       18
 70
   128
 43
0.0
 10
38.0992614119
 20
28.1783771035
 10
38.0960473829
 20
28.1715556294
 10
38.0909103623
 20
28.1478739737
 10
38.0922410993
 20
28.1198496638
 10
38.0999391631
 20
28.0895942862
 10
38.1134247442
 20
28.0593870913
 10
38.1316814647
 20
28.0315042709
 10
38.1533341592
 20
28.0080465853
 10
38.1767510478
 20
27.9907816523
 10
38.2001680609
 20
27.9810099494
 10
38.2218206309
 20
27.9794680378
 10
38.2400774759
 20
27.9862720256
 10
38.253563057
 20
28.0009090999
 10
38.2612611208
 20
28.0222764823
 10
38.2625917333
 20
28.0487644278
 10
38.2574548372
 20
28.0783770893
 10
38.2462372212
 20
28.1088831254
 10
38.2357833509
 20
28.128575307
  0
LWPOLYLINE
  5
2F8
330
1F
100
AcDbEntity
  8
0
  6
Continuous
 62
     7
 48
3.0
370
    15
100
AcDbPolyline
 90
       18
 70
   128
 43
0.0
 10
41.4177638433
 20
23.3521101095
 10
41.4282177136
 20
23.3324180716
 10
41.4394353297
 20
23.3019118918
 10
41.4445723502
 20
23.2722993022
 10
41.4432416132
 20
23.2458114285
 10
41.4355435494
 20
23.2244439024
 10
41.4220579683
 20
23.2098068281
 10
41.4038012478
 20
23.2030029122
 10
41.3821485533
 20
23.2045448956
 10
41.3587316647
 20
23.2143163829
 10
41.3353146517
 20
23.2315815315
 10
41.3136620816
 20
23.2550391452
 10
41.2954052366
 20
23.2829218938
 10
41.2819196556
 20
23.3131290887
 10
41.2742215917
 20
23.34338461
 10
41.2728909792
 20
23.371408848
 10
41.2780278753
 20
23.3950904319
 10
41.280725564
 20
23.4009587041
  0
LINE
  5
2F9
330
1F
100
AcDbEntity
  8
0
  6
Continuous
 62
     7
 48
3.0
370
    15
100
AcDbLine
 10
41.4911019732
 20
22.4211361141
 30
0.0
 11
41.4911019732
 21
27.3203811418
 31
0.0
  0
LINE
  5
2FA
330
1F
100
AcDbEntity
  8
0
  6
Continuous
 62
     7
 48
3.0
370
    15
100
AcDbLine
 10
41.4911019732
 20
22.4211361141
 30
0.0
 11
41.4647976106
 21
22.4059509289
 31
0.0
  0
LWPOLYLINE
  5
2FB
330
1F
100
AcDbEntity
  8
0
  6
Continuous
 62
     7
 48
3.0
370
    15
100
AcDbPolyline
 90
       10
 70
   128
 43
0.0
 10
41.4313420147
 20
26.1579147377
 10
41.4301056104
 20
26.1577349129
 10
41.4084529159
 20
26.1592768963
 10
41.3850360273
 20
26.1690485273
 10
41.3616190142
 20
26.1863135322
 10
41.3399664441
 20
26.2097711459
 10
41.3217095992
 20
26.2376540382
 10
41.3082240181
 20
26.2678612331
 10
41.3005259543
 20
26.2981166107
 10
41.2989303891
 20
26.3160649899
  0
LWPOLYLINE
  5
2FC
330
1F
100
AcDbEntity
  8
0
  6
Continuous
 62
     7
 48
3.0
370
    15
100
AcDbPolyline
 90
       10
 70
   128
 43
0.0
 10
41.4313420147
 20
23.2183679222
 10
41.4301056104
 20
23.2181880975
 10
41.4084529159
 20
23.2197300808
 10
41.3850360273
 20
23.2295015682
 10
41.3616190142
 20
23.2467667168
 10
41.3399664441
 20
23.2702243305
 10
41.3217095992
 20
23.2981070791
 10
41.3082240181
 20
23.3283142739
 10
41.3005259543
 20
23.3585697953
 10
41.2989303891
 20
23.3765180308
  0
LWPOLYLINE
  5
2FD
330
1F
100
AcDbEntity
  8
0
  6
Continuous
 62
     7
 48
3.0
370
    15
100
AcDbPolyline
 90
       10
 70
   128
 43
0.0
 10
38.1169498967
 20
28.1529832283
 10
38.1185454619
 20
28.135034849
 10
38.1262435257
 20
28.1047794714
 10
38.1397291068
 20
28.0745722766
 10
38.1579858273
 20
28.0466894562
 10
38.1796385218
 20
28.0232317706
 10
38.2030554104
 20
28.0059668376
 10
38.2264724234
 20
27.9961951346
 10
38.2481249935
 20
27.9946532231
 10
38.2493615223
 20
27.994832976
  0
LWPOLYLINE
  5
2FE
330
1F
100
AcDbEntity
  8
0
  6
Continuous
 62
     7
 48
3.0
370
    15
100
AcDbPolyline
 90
       10
 70
   128
 43
0.0
 10
38.1169498967
 20
25.2134362692
 10
38.1185454619
 20
25.1954880336
 10
38.1262435257
 20
25.1652325123
 10
38.1397291068
 20
25.1350253175
 10
38.1579858273
 20
25.1071426407
 10
38.1796385218
 20
25.0836849552
 10
38.2030554104
 20
25.0664198784
 10
38.2264724234
 20
25.0566483192
 10
38.2481249935
 20
25.0551064077
 10
38.2493615223
 20
25.0552861606
  0
ARC
  5
2FF
330
1F
100
AcDbEntity
  8
0
  6
Continuous
 62
     7
 48
9.0
370
    15
100
AcDbCircle
 10
43.0319748522
 20
28.2407131108
 30
0.0
 40
0.0706079644282015
100
AcDbArc
 50
29.6875825084
 51
57.2105585492
  0
ARC
  5
300
330
1F
100
AcDbEntity
  8
0
  6
Continuous
 62
     7
 48
9.0
370
    15
100
AcDbCircle
 10
41.4558292006
 20
27.3319213645
 30
0.0
 40
0.0666473343553717
100
AcDbArc
 50
28.8562725741
 51
58.0455391728
  0
ARC
  5
301
330
1F
100
AcDbEntity
  8
0
  6
Continuous
 62
     7
 48
9.0
370
    15
100
AcDbCircle
 10
41.4842723025
 20
27.3471315523
 30
0.0
 40
0.0129160853841568
100
AcDbArc
 50
29.8407221143
 51
58.0774456647
  0
LINE
  5
302
330
1F
100
AcDbEntity
  8
0
  6
Continuous
 62
     7
 48
3.0
370
    15
100
AcDbLine
 10
41.3247904674
 20
27.4844791511
 30
0.0
 11
41.4911019732
 21
27.3884695625
 31
0.0
  0
LINE
  5
303
330
1F
100
AcDbEntity
  8
0
  6
Continuous
 62
     7
 48
3.0
370
    15
100
AcDbLine
 10
41.2984861049
 20
27.4692939658
 30
0.0
 11
41.3247904674
 21
27.4844791511
 31
0.0
  0
LINE
  5
304
330
1F
100
AcDbEntity
  8
0
  6
Continuous
 62
     7
 48
3.0
370
    15
100
AcDbLine
 10
38.3549419912
 20
29.1685658126
 30
0.0
 11
38.3812463538
 21
29.1837509979
 31
0.0
  0
LINE
  5
305
330
1F
100
AcDbEntity
  8
0
  6
Continuous
 62
     7
 48
3.0
370
    15
100
AcDbLine
 10
38.3812463538
 20
29.1837509979
 30
0.0
 11
38.2149348481
 21
29.2797605865
 31
0.0
  0
LINE
  5
306
330
1F
100
AcDbEntity
  8
0
  6
Continuous
 62
     7
 48
3.0
370
    15
100
AcDbLine
 10
41.3247904674
 20
27.4541038441
 30
0.0
 11
41.3247904674
 21
27.4844791511
 31
0.0
  0
LINE
  5
307
330
1F
100
AcDbEntity
  8
0
  6
Continuous
 62
     7
 48
3.0
370
    15
100
AcDbLine
 10
41.3247904674
 20
27.4541038441
 30
0.0
 11
41.4911019732
 21
27.3580942555
 31
0.0
  0
ARC
  5
308
330
1F
100
AcDbEntity
  8
0
  6
Continuous
 62
     7
 48
9.0
370
    15
100
AcDbCircle
 10
41.3337597738
 20
27.4127447155
 30
0.0
 40
0.0666487016375216
100
AcDbArc
 50
121.954635867
 51
151.1434127207
  0
ARC
  5
309
330
1F
100
AcDbEntity
  8
0
  6
Continuous
 62
     7
 48
9.0
370
    15
100
AcDbCircle
 10
38.3902156602
 20
29.1120165623
 30
0.0
 40
0.0666487016374603
100
AcDbArc
 50
121.954635867
 51
151.1434127207
  0
LINE
  5
30A
330
1F
100
AcDbEntity
  8
0
  6
Continuous
 62
     7
 48
3.0
370
    15
100
AcDbLine
 10
41.318430732
 20
27.450432447
 30
0.0
 11
41.3247904674
 21
27.4541038441
 31
0.0
  0
ARC
  5
30B
330
1F
100
AcDbEntity
  8
0
  6
Continuous
 62
     7
 48
9.0
370
    15
100
AcDbCircle
 10
43.0829654875
 20
28.2844362415
 30
0.0
 40
0.0201760119523638
100
AcDbArc
 50
350.7858523052
 51
129.2030356316
  0
ARC
  5
30C
330
1F
100
AcDbEntity
  8
0
  6
Continuous
 62
     7
 48
9.0
370
    15
100
AcDbCircle
 10
39.8075786833
 20
30.1724711902
 30
0.0
 40
0.0232378931911696
100
AcDbArc
 50
65.6934624381
 51
125.6171911235
  0
LINE
  5
30D
330
1F
100
AcDbEntity
  8
0
  6
Continuous
 62
     7
 48
3.0
370
    15
100
AcDbLine
 10
38.35493776
 20
29.1685633188
 30
0.0
 11
38.2149348481
 21
29.2493852795
 31
0.0
  0
ARC
  5
30E
330
1F
100
AcDbEntity
  8
0
  6
Continuous
 62
     7
 48
9.0
370
    15
100
AcDbCircle
 10
38.202182178
 20
29.2641259975
 30
0.0
 40
0.0201759998194329
100
AcDbArc
 50
50.7968959545
 51
189.2142338288
  0
ARC
  5
30F
330
1F
100
AcDbEntity
  8
0
  6
Continuous
 62
     7
 48
9.0
370
    15
100
AcDbCircle
 10
39.780512666
 20
30.1724710941
 30
0.0
 40
0.0232380045891145
100
AcDbArc
 50
54.3828321291
 51
114.3063955168
  0
ARC
  5
310
330
1F
100
AcDbEntity
  8
0
  6
Continuous
 62
     7
 48
9.0
370
    15
100
AcDbCircle
 10
38.2124506772
 20
29.2463393531
 30
0.0
 40
0.0039304927121563
100
AcDbArc
 50
50.8002952175
 51
189.2123970667
  0
ARC
  5
311
330
1F
100
AcDbEntity
  8
0
  6
Continuous
 62
     7
 48
9.0
370
    15
100
AcDbCircle
 10
41.4911019732
 20
27.4022896385
 30
0.0
 40
0.0710102500450946
100
AcDbArc
 50
242.6096081345
 51
297.3903918655
  0
ARC
  5
312
330
1F
100
AcDbEntity
  8
0
  6
Continuous
 62
     7
 48
9.0
370
    15
100
AcDbCircle
 10
41.4924326386
 20
22.4988334186
 30
0.0
 40
0.0666632754297879
100
AcDbArc
 50
268.8562431495
 51
298.0400654243
  0
ARC
  5
313
330
1F
100
AcDbEntity
  8
0
  6
Continuous
 62
     7
 48
9.0
370
    15
100
AcDbCircle
 10
41.4911019732
 20
27.3667075238
 30
0.0
 40
0.0138329972914399
100
AcDbArc
 50
242.6092167815
 51
297.3907832186
  0
LINE
  5
314
330
1F
100
AcDbEntity
  8
0
  6
Continuous
 62
     7
 48
3.0
370
    15
100
AcDbLine
 10
41.2789699569
 20
27.4428423481
 30
0.0
 11
41.4584336439
 21
27.3392401669
 31
0.0
  0
LINE
  5
315
330
1F
100
AcDbEntity
  8
0
  6
Continuous
 62
     7
 48
3.0
370
    15
100
AcDbLine
 10
41.2789699569
 20
27.4428423481
 30
0.0
 11
41.3052743195
 21
27.4580275334
 31
0.0
  0
LINE
  5
316
330
1F
100
AcDbEntity
  8
0
  6
Continuous
 62
     7
 48
3.0
370
    15
100
AcDbLine
 10
41.3052743195
 20
27.4580275334
 30
0.0
 11
41.4847380064
 21
27.3544253521
 31
0.0
  0
LINE
  5
317
330
1F
100
AcDbEntity
  8
0
  6
Continuous
 62
     7
 48
3.0
370
    15
100
AcDbLine
 10
41.4974659399
 20
27.3544253521
 30
0.0
 11
43.1291855318
 21
28.2963970221
 31
0.0
  0
LINE
  5
318
330
1F
100
AcDbEntity
  8
0
  6
Continuous
 62
     7
 48
3.0
370
    15
100
AcDbLine
 10
41.5237703024
 20
27.3392401669
 30
0.0
 11
43.1554898943
 21
28.2812118369
 31
0.0
  0
LINE
  5
319
330
1F
100
AcDbEntity
  8
0
  6
Continuous
 62
     7
 48
3.0
370
    15
100
AcDbLine
 10
41.5237703024
 20
22.4399951392
 30
0.0
 11
43.1554898943
 21
23.3819668092
 31
0.0
  0
ARC
  5
31A
330
1F
100
AcDbEntity
  8
0
  6
Continuous
 62
     7
 48
9.0
370
    15
100
AcDbCircle
 10
43.1483322967
 20
28.3000708638
 30
0.0
 40
0.0201716162068966
100
AcDbArc
 50
290.7833390036
 51
69.2166491811
  0
ARC
  5
31B
330
1F
100
AcDbEntity
  8
0
  6
Continuous
 62
     7
 48
9.0
370
    15
100
AcDbCircle
 10
43.1459001226
 20
23.4031317998
 30
0.0
 40
0.023236190530971
100
AcDbArc
 50
294.3750882443
 51
354.3045186968
  0
ARC
  5
31C
330
1F
100
AcDbEntity
  8
0
  6
Continuous
 62
     7
 48
9.0
370
    15
100
AcDbCircle
 10
43.1277912078
 20
28.3000708591
 30
0.0
 40
0.0039295314722618
100
AcDbArc
 50
290.783155688
 51
69.21693529
  0
LINE
  5
31D
330
1F
100
AcDbEntity
  8
0
  6
Continuous
 62
     7
 48
3.0
370
    15
100
AcDbLine
 10
43.129185526
 20
28.3037446983
 30
0.0
 11
39.8004096758
 21
30.2254060929
 31
0.0
  0
LINE
  5
31E
330
1F
100
AcDbEntity
  8
0
  6
Continuous
 62
     7
 48
3.0
370
    15
100
AcDbLine
 10
43.1554898982
 20
28.3189298892
 30
0.0
 11
39.8267140481
 21
30.2405912838
 31
0.0
  0
LINE
  5
31F
330
1F
100
AcDbEntity
  8
0
  6
Continuous
 62
     7
 48
3.0
370
    15
100
AcDbLine
 10
38.1296577937
 20
29.2609015614
 30
0.0
 11
38.3091214807
 21
29.1572993802
 31
0.0
  0
LINE
  5
320
330
1F
100
AcDbEntity
  8
0
  6
Continuous
 62
     7
 48
3.0
370
    15
100
AcDbLine
 10
38.3354258433
 20
29.1724845655
 30
0.0
 11
38.3091214807
 21
29.1572993802
 31
0.0
  0
LINE
  5
321
330
1F
100
AcDbEntity
  8
0
  6
Continuous
 62
     7
 48
3.0
370
    15
100
AcDbLine
 10
38.3354258433
 20
29.1724845655
 30
0.0
 11
38.3354258433
 21
29.1498276095
 31
0.0
  0
LINE
  5
322
330
1F
100
AcDbEntity
  8
0
  6
Continuous
 62
     7
 48
3.0
370
    15
100
AcDbLine
 10
38.1559621563
 20
29.2760867467
 30
0.0
 11
38.3354258433
 21
29.1724845655
 31
0.0
  0
ARC
  5
323
330
1F
100
AcDbEntity
  8
0
  6
Continuous
 62
     7
 48
9.0
370
    15
100
AcDbCircle
 10
38.1368153643
 20
29.2797605865
 30
0.0
 40
0.0201716048438454
100
AcDbArc
 50
110.7832688559
 51
249.2167311441
  0
ARC
  5
324
330
1F
100
AcDbEntity
  8
0
  6
Continuous
 62
     7
 48
9.0
370
    15
100
AcDbCircle
 10
38.1573564559
 20
29.2797605865
 30
0.0
 40
0.0039295254312692
100
AcDbArc
 50
110.7828089195
 51
249.2171910804
  0
LINE
  5
325
330
1F
100
AcDbEntity
  8
0
  6
Continuous
 62
     7
 48
3.0
370
    15
100
AcDbLine
 10
39.7876817482
 20
30.2254060963
 30
0.0
 11
38.1559621563
 21
29.2834344263
 31
0.0
  0
LINE
  5
326
330
1F
100
AcDbEntity
  8
0
  6
Continuous
 62
     7
 48
3.0
370
    15
100
AcDbLine
 10
39.7613773857
 20
30.2405912816
 30
0.0
 11
38.1296577937
 21
29.2986196116
 31
0.0
  0
ARC
  5
327
330
1F
100
AcDbEntity
  8
0
  6
Continuous
 62
     7
 48
9.0
370
    15
100
AcDbCircle
 10
39.7940457088
 20
30.2131238106
 30
0.0
 40
0.01383309566255
100
AcDbArc
 50
62.6094263452
 51
117.3905433353
  0
ARC
  5
328
330
1F
100
AcDbEntity
  8
0
  6
Continuous
 62
     7
 48
9.0
370
    15
100
AcDbCircle
 10
39.794045719
 20
30.1775417208
 30
0.0
 40
0.0710103310675666
100
AcDbArc
 50
62.6096422091
 51
117.3903617285
  0
ARC
  5
329
330
1F
100
AcDbEntity
  8
0
  6
Continuous
 62
     7
 48
9.0
370
    15
100
AcDbCircle
 10
38.0395764248
 20
25.3618286366
 30
0.0
 40
0.1265617693926218
100
AcDbArc
 50
295.2941240094
 51
301.0292665595
  0
ARC
  5
32A
330
1F
100
AcDbEntity
  8
0
  6
Continuous
 62
     7
 48
9.0
370
    15
100
AcDbCircle
 10
38.2376341895
 20
25.3190944881
 30
0.0
 40
0.1599668929385181
100
AcDbArc
 50
206.4183846394
 51
213.084025797
  0
LWPOLYLINE
  5
32B
330
1F
100
AcDbEntity
  8
0
  6
Continuous
 62
     7
 48
3.0
370
    15
100
AcDbPolyline
 90
        9
 70
   128
 43
0.0
 10
38.1036025788
 20
25.2317736191
 10
38.1029851855
 20
25.2313550879
 10
38.1029230853
 20
25.2312538522
 10
38.1034164026
 20
25.2314701245
 10
38.1044627727
 20
25.2320029672
 10
38.1060575912
 20
25.232850006
 10
38.1081935155
 20
25.2340071421
 10
38.1108602163
 20
25.2354692709
 10
38.1140458709
 20
25.237229276
  0
ARC
  5
32C
330
1F
100
AcDbEntity
  8
0
  6
Continuous
 62
     7
 48
9.0
370
    15
100
AcDbCircle
 10
38.191845742
 20
25.351420079
 30
0.0
 40
0.1381751041900179
100
AcDbArc
 50
235.7328209235
 51
248.2443348439
  0
ARC
  5
32D
330
1F
100
AcDbEntity
  8
0
  6
Continuous
 62
     7
 48
9.0
370
    15
100
AcDbCircle
 10
38.2577737798
 20
25.241628337
 30
0.0
 40
0.1186008588964529
100
AcDbArc
 50
175.206577515
 51
188.9942722603
  0
ARC
  5
32E
330
1F
100
AcDbEntity
  8
0
  6
Continuous
 62
     7
 48
9.0
370
    15
100
AcDbCircle
 10
30.7474101199
 20
38.3504214648
 30
0.0
 40
15.04077826450361
100
AcDbArc
 50
299.4376238455
 51
299.6863662973
  0
ARC
  5
32F
330
1F
100
AcDbEntity
  8
0
  6
Continuous
 62
     7
 48
9.0
370
    15
100
AcDbCircle
 10
38.0531003606
 20
25.2125676162
 30
0.0
 40
0.159994021138142
100
AcDbArc
 50
26.4191924422
 51
33.0836573575
  0
ARC
  5
330
330
1F
100
AcDbEntity
  8
0
  6
Continuous
 62
     7
 48
9.0
370
    15
100
AcDbCircle
 10
30.7498403809
 20
38.3461281948
 30
0.0
 40
15.0172453971662
100
AcDbArc
 50
299.4372105536
 51
299.6863428067
  0
ARC
  5
331
330
1F
100
AcDbEntity
  8
0
  6
Continuous
 62
     7
 48
9.0
370
    15
100
AcDbCircle
 10
38.1827758082
 20
25.3753579322
 30
0.0
 40
0.1197524729223208
100
AcDbArc
 50
230.2744209026
 51
244.0415364941
  0
ARC
  5
332
330
1F
100
AcDbEntity
  8
0
  6
Continuous
 62
     7
 48
9.0
370
    15
100
AcDbCircle
 10
38.2419900353
 20
25.2618087899
 30
0.0
 40
0.1374329521724793
100
AcDbArc
 50
171.022559656
 51
183.5172805932
  0
LINE
  5
333
330
1F
100
AcDbEntity
  8
0
  6
Continuous
 62
     7
 48
3.0
370
    15
100
AcDbLine
 10
38.162764807
 20
25.2649188739
 30
0.0
 11
38.1395877323
 21
25.2515390335
 31
0.0
  0
LINE
  5
334
330
1F
100
AcDbEntity
  8
0
  6
Continuous
 62
     7
 48
3.0
370
    15
100
AcDbLine
 10
38.1963850493
 20
25.2837545867
 30
0.0
 11
38.162764807
 21
25.2649188739
 31
0.0
  0
LWPOLYLINE
  5
335
330
1F
100
AcDbEntity
  8
0
  6
Continuous
 62
     7
 48
3.0
370
    15
100
AcDbPolyline
 90
       14
 70
   128
 43
0.0
 10
38.2185552043
 20
25.1788743673
 10
38.221854979
 20
25.1810184638
 10
38.2338083396
 20
25.1948217354
 10
38.2404813141
 20
25.2146297013
 10
38.2413788428
 20
25.2389733164
 10
38.2364344699
 20
25.2660471517
 10
38.2260148231
 20
25.2938430448
 10
38.210892733
 20
25.3202998423
 10
38.1921897371
 20
25.3434551525
 10
38.1712928235
 20
25.3615917046
 10
38.1497521334
 20
25.3733642357
 10
38.1291648498
 20
25.377900004
 10
38.1110580908
 20
25.3748622257
 10
38.1066642819
 20
25.3726961109
  0
LWPOLYLINE
  5
336
330
1F
100
AcDbEntity
  8
0
  6
Continuous
 62
     7
 48
3.0
370
    15
100
AcDbPolyline
 90
       14
 70
   128
 43
0.0
 10
38.232696509
 20
25.1870379688
 10
38.2359962837
 20
25.1891820652
 10
38.2479496443
 20
25.2029853368
 10
38.2546226188
 20
25.2227933028
 10
38.2555201476
 20
25.2471369179
 10
38.2505757747
 20
25.2742107532
 10
38.2401561279
 20
25.3020066462
 10
38.2250340378
 20
25.3284634438
 10
38.2063310419
 20
25.3516187539
 10
38.1854341283
 20
25.3697553061
 10
38.1638934382
 20
25.3815278372
 10
38.1433061546
 20
25.3860636054
 10
38.1251993956
 20
25.3830258272
 10
38.1208055866
 20
25.3808597124
  0
LINE
  5
337
330
1F
100
AcDbEntity
  8
0
  6
Continuous
 62
     7
 48
3.0
370
    15
100
AcDbLine
 10
38.162764807
 20
25.2649188739
 30
0.0
 11
38.1628346231
 21
25.2756175514
 31
0.0
  0
LINE
  5
338
330
1F
100
AcDbEntity
  8
0
  6
Continuous
 62
     7
 48
3.0
370
    15
100
AcDbLine
 10
38.1628346231
 20
25.2756175514
 30
0.0
 11
38.1537724699
 21
25.2809276302
 31
0.0
  0
LINE
  5
339
330
1F
100
AcDbEntity
  8
0
  6
Continuous
 62
     7
 48
3.0
370
    15
100
AcDbLine
 10
38.1394639052
 20
25.2497622994
 30
0.0
 11
38.1283239455
 21
25.2562899777
 31
0.0
  0
LINE
  5
33A
330
1F
100
AcDbEntity
  8
0
  6
Continuous
 62
     7
 48
3.0
370
    15
100
AcDbLine
 10
38.1283239455
 20
25.2562899777
 30
0.0
 11
38.1284049621
 21
25.2686749438
 31
0.0
  0
LINE
  5
33B
330
1F
100
AcDbEntity
  8
0
  6
Continuous
 62
     7
 48
3.0
370
    15
100
AcDbLine
 10
38.1283239455
 20
25.2562899777
 30
0.0
 11
38.1279230942
 21
25.2560585711
 31
0.0
  0
LINE
  5
33C
330
1F
100
AcDbEntity
  8
0
  6
Continuous
 62
     7
 48
3.0
370
    15
100
AcDbLine
 10
38.1279930347
 20
25.2667571768
 30
0.0
 11
38.1279230942
 21
25.2560585711
 31
0.0
  0
LINE
  5
33D
330
1F
100
AcDbEntity
  8
0
  6
Continuous
 62
     7
 48
3.0
370
    15
100
AcDbLine
 10
38.1279930347
 20
25.2667571768
 30
0.0
 11
38.10481596
 21
25.2533773364
 31
0.0
  0
LINE
  5
33E
330
1F
100
AcDbEntity
  8
0
  6
Continuous
 62
     7
 48
3.0
370
    15
100
AcDbLine
 10
38.1140458709
 20
25.237229276
 30
0.0
 11
38.1372229456
 21
25.2506091164
 31
0.0
  0
LINE
  5
33F
330
1F
100
AcDbEntity
  8
0
  6
Continuous
 62
     7
 48
3.0
370
    15
100
AcDbLine
 10
38.1279230942
 20
25.2560585711
 30
0.0
 11
38.1372229456
 21
25.2506091164
 31
0.0
  0
LINE
  5
340
330
1F
100
AcDbEntity
  8
0
  6
Continuous
 62
     7
 48
3.0
370
    15
100
AcDbLine
 10
38.1372229456
 20
25.2506091164
 30
0.0
 11
38.1036025788
 21
25.2317736191
 31
0.0
  0
ARC
  5
341
330
1F
100
AcDbEntity
  8
0
  6
Continuous
 62
     7
 48
9.0
370
    15
100
AcDbCircle
 10
41.4366225201
 20
26.4366870967
 30
0.0
 40
0.1516941166176036
100
AcDbArc
 50
174.674994685
 51
202.0525511019
  0
ARC
  5
342
330
1F
100
AcDbEntity
  8
0
  6
Continuous
 62
     7
 48
9.0
370
    15
100
AcDbCircle
 10
41.2966020382
 20
26.4217428949
 30
0.0
 40
0.0310436056222047
100
AcDbArc
 50
110.7904573761
 51
130.7128255212
  0
ARC
  5
343
330
1F
100
AcDbEntity
  8
0
  6
Continuous
 62
     7
 48
9.0
370
    15
100
AcDbCircle
 10
41.4273930232
 20
26.4311954466
 30
0.0
 40
0.1516944184662068
100
AcDbArc
 50
174.6749498693
 51
202.0524160794
  0
ARC
  5
344
330
1F
100
AcDbEntity
  8
0
  6
Continuous
 62
     7
 48
9.0
370
    15
100
AcDbCircle
 10
41.4062534102
 20
26.3658056742
 30
0.0
 40
0.1197544181522367
100
AcDbArc
 50
175.9607903073
 51
189.7289450089
  0
ARC
  5
345
330
1F
100
AcDbEntity
  8
0
  6
Continuous
 62
     7
 48
9.0
370
    15
100
AcDbCircle
 10
41.3628321039
 20
26.4377298617
 30
0.0
 40
0.118576796060116
100
AcDbArc
 50
231.0074388743
 51
244.7966645428
  0
ARC
  5
346
330
1F
100
AcDbEntity
  8
0
  6
Continuous
 62
     7
 48
9.0
370
    15
100
AcDbCircle
 10
41.4321905149
 20
26.4256299678
 30
0.0
 40
0.1530536867243133
100
AcDbArc
 50
218.4572012234
 51
245.6708464114
  0
ARC
  5
347
330
1F
100
AcDbEntity
  8
0
  6
Continuous
 62
     7
 48
9.0
370
    15
100
AcDbCircle
 10
41.3581179863
 20
26.3151891996
 30
0.0
 40
0.0310418737423581
100
AcDbArc
 50
290.7893059345
 51
310.7126592163
  0
ARC
  5
348
330
1F
100
AcDbEntity
  8
0
  6
Continuous
 62
     7
 48
9.0
370
    15
100
AcDbCircle
 10
41.4414201662
 20
26.4311206632
 30
0.0
 40
0.1530530252246277
100
AcDbArc
 50
218.4570457085
 51
245.6707899894
  0
ARC
  5
349
330
1F
100
AcDbEntity
  8
0
  6
Continuous
 62
     7
 48
9.0
370
    15
100
AcDbCircle
 10
41.4593612083
 20
26.346221434
 30
0.0
 40
0.1381765665028985
100
AcDbArc
 50
171.7578654601
 51
184.2702235335
  0
ARC
  5
34A
330
1F
100
AcDbEntity
  8
0
  6
Continuous
 62
     7
 48
9.0
370
    15
100
AcDbCircle
 10
41.3719017011
 20
26.4943033309
 30
0.0
 40
0.1374173986672474
100
AcDbArc
 50
236.4852020935
 51
248.9804136249
  0
LWPOLYLINE
  5
34B
330
1F
100
AcDbEntity
  8
0
  6
Continuous
 62
     7
 48
3.0
370
    15
100
AcDbPolyline
 90
        3
 70
   128
 43
0.0
 10
41.2852861351
 20
26.4712402995
 10
41.2721468965
 20
26.4582363009
 10
41.2646672414
 20
26.4390884608
  0
ARC
  5
34C
330
1F
100
AcDbEntity
  8
0
  6
Continuous
 62
     7
 48
9.0
370
    15
100
AcDbCircle
 10
41.3739807158
 20
26.3219775839
 30
0.0
 40
0.046280508944364
100
AcDbArc
 50
248.6946272383
 51
303.4963490617
  0
LINE
  5
34D
330
1F
100
AcDbEntity
  8
0
  6
Continuous
 62
     7
 48
3.0
370
    15
100
AcDbLine
 10
41.2882213976
 20
26.4750764619
 30
0.0
 11
41.2755227098
 21
26.4628673619
 31
0.0
  0
LWPOLYLINE
  5
34E
330
1F
100
AcDbEntity
  8
0
  6
Continuous
 62
     7
 48
3.0
370
    15
100
AcDbPolyline
 90
       15
 70
   128
 43
0.0
 10
41.3831857142
 20
26.2763693056
 10
41.3928732254
 20
26.2781530031
 10
41.4079953156
 20
26.287150207
 10
41.4184149623
 20
26.302915832
 10
41.4233593352
 20
26.3242810158
 10
41.4224618065
 20
26.3496608956
 10
41.415788832
 20
26.3771733139
 10
41.4038354714
 20
26.4047776419
 10
41.3874881774
 20
26.4304267488
 10
41.3679593356
 20
26.4522183218
 10
41.3466972876
 20
26.468536052
 10
41.3252789312
 20
26.4781699813
 10
41.3052928624
 20
26.4804053758
 10
41.2882213976
 20
26.4750764619
 10
41.2882213976
 20
26.4750764619
  0
LWPOLYLINE
  5
34F
330
1F
100
AcDbEntity
  8
0
  6
Continuous
 62
     7
 48
3.0
370
    15
100
AcDbPolyline
 90
       14
 70
   128
 43
0.0
 10
41.4146771259
 20
26.2896666177
 10
41.4221366203
 20
26.2953138085
 10
41.4325562671
 20
26.3110794334
 10
41.43750064
 20
26.3324446173
 10
41.4366031112
 20
26.357824497
 10
41.4299301368
 20
26.3853369153
 10
41.4179767762
 20
26.4129412433
 10
41.4016294821
 20
26.4385903503
 10
41.3821006403
 20
26.4603819232
 10
41.3608385923
 20
26.4766996534
 10
41.3394202359
 20
26.4863335827
 10
41.3194341672
 20
26.4885689772
 10
41.3023627023
 20
26.4832400634
 10
41.3023627023
 20
26.4832400634
  0
LINE
  5
350
330
1F
100
AcDbEntity
  8
0
  6
Continuous
 62
     7
 48
3.0
370
    15
100
AcDbLine
 10
41.3213265441
 20
26.3523483992
 30
0.0
 11
41.3105650349
 21
26.358467475
 31
0.0
  0
LINE
  5
351
330
1F
100
AcDbEntity
  8
0
  6
Continuous
 62
     7
 48
3.0
370
    15
100
AcDbLine
 10
41.3105650349
 20
26.358467475
 30
0.0
 11
41.3104811561
 21
26.3713845101
 31
0.0
  0
LINE
  5
352
330
1F
100
AcDbEntity
  8
0
  6
Continuous
 62
     7
 48
3.0
370
    15
100
AcDbLine
 10
41.3105650349
 20
26.358467475
 30
0.0
 11
41.2882212731
 21
26.3455686959
 31
0.0
  0
LINE
  5
353
330
1F
100
AcDbEntity
  8
0
  6
Continuous
 62
     7
 48
3.0
370
    15
100
AcDbLine
 10
41.3216580772
 20
26.335821493
 30
0.0
 11
41.3123383138
 21
26.3304413082
 31
0.0
  0
LINE
  5
354
330
1F
100
AcDbEntity
  8
0
  6
Continuous
 62
     7
 48
3.0
370
    15
100
AcDbLine
 10
41.2867964525
 20
26.3742410711
 30
0.0
 11
41.2961569108
 21
26.3796447486
 31
0.0
  0
LINE
  5
355
330
1F
100
AcDbEntity
  8
0
  6
Continuous
 62
     7
 48
3.0
370
    15
100
AcDbLine
 10
41.3691357553
 20
26.286168402
 30
0.0
 11
41.3603487596
 21
26.3012364551
 31
0.0
  0
LINE
  5
356
330
1F
100
AcDbEntity
  8
0
  6
Continuous
 62
     7
 48
3.0
370
    15
100
AcDbLine
 10
41.2849979104
 20
26.4304495385
 30
0.0
 11
41.2763532848
 21
26.4452735862
 31
0.0
  0
ARC
  5
357
330
1F
100
AcDbEntity
  8
0
  6
Continuous
 62
     7
 48
9.0
370
    15
100
AcDbCircle
 10
41.4366225201
 20
23.4971401376
 30
0.0
 40
0.1516941166176048
100
AcDbArc
 50
174.674994685
 51
202.0525511019
  0
ARC
  5
358
330
1F
100
AcDbEntity
  8
0
  6
Continuous
 62
     7
 48
9.0
370
    15
100
AcDbCircle
 10
41.2966026299
 20
23.4821943255
 30
0.0
 40
0.0310453210675295
100
AcDbArc
 50
110.7904233764
 51
130.7115417743
  0
ARC
  5
359
330
1F
100
AcDbEntity
  8
0
  6
Continuous
 62
     7
 48
9.0
370
    15
100
AcDbCircle
 10
41.4273935912
 20
23.4916485995
 30
0.0
 40
0.1516949869809111
100
AcDbArc
 50
174.6749578524
 51
202.0523747331
  0
ARC
  5
35A
330
1F
100
AcDbEntity
  8
0
  6
Continuous
 62
     7
 48
9.0
370
    15
100
AcDbCircle
 10
41.4062546991
 20
23.4262587791
 30
0.0
 40
0.1197556994095473
100
AcDbArc
 50
175.960864316
 51
189.7288710002
  0
ARC
  5
35B
330
1F
100
AcDbEntity
  8
0
  6
Continuous
 62
     7
 48
9.0
370
    15
100
AcDbCircle
 10
41.3628363608
 20
23.4981896893
 30
0.0
 40
0.1185847493422806
100
AcDbArc
 50
231.0079035292
 51
244.7961998879
  0
ARC
  5
35C
330
1F
100
AcDbEntity
  8
0
  6
Continuous
 62
     7
 48
9.0
370
    15
100
AcDbCircle
 10
41.4321905149
 20
23.4860830087
 30
0.0
 40
0.1530536867244014
100
AcDbArc
 50
218.4572012234
 51
245.6708464114
  0
ARC
  5
35D
330
1F
100
AcDbEntity
  8
0
  6
Continuous
 62
     7
 48
9.0
370
    15
100
AcDbCircle
 10
41.3581185777
 20
23.3756406307
 30
0.0
 40
0.031040158866402
100
AcDbArc
 50
290.7893399855
 51
310.7139429118
  0
ARC
  5
35E
330
1F
100
AcDbEntity
  8
0
  6
Continuous
 62
     7
 48
9.0
370
    15
100
AcDbCircle
 10
41.4414201878
 20
23.4915741844
 30
0.0
 40
0.1530533408934966
100
AcDbArc
 50
218.4571815048
 51
245.6708345494
  0
ARC
  5
35F
330
1F
100
AcDbEntity
  8
0
  6
Continuous
 62
     7
 48
9.0
370
    15
100
AcDbCircle
 10
41.4593602677
 20
23.4066745075
 30
0.0
 40
0.1381756309677025
100
AcDbArc
 50
171.7578229327
 51
184.2702660609
  0
ARC
  5
360
330
1F
100
AcDbEntity
  8
0
  6
Continuous
 62
     7
 48
9.0
370
    15
100
AcDbCircle
 10
41.3719058108
 20
23.5547643453
 30
0.0
 40
0.1374263156877771
100
AcDbArc
 50
236.4856090887
 51
248.9800066296
  0
LWPOLYLINE
  5
361
330
1F
100
AcDbEntity
  8
0
  6
Continuous
 62
     7
 48
3.0
370
    15
100
AcDbPolyline
 90
        3
 70
   128
 43
0.0
 10
41.2852861351
 20
23.5316933404
 10
41.2721468965
 20
23.5186893418
 10
41.2646672414
 20
23.4995415017
  0
ARC
  5
362
330
1F
100
AcDbEntity
  8
0
  6
Continuous
 62
     7
 48
9.0
370
    15
100
AcDbCircle
 10
41.3739798348
 20
23.3824388747
 30
0.0
 40
0.0462878751147237
100
AcDbArc
 50
248.6993536068
 51
303.4916226933
  0
LINE
  5
363
330
1F
100
AcDbEntity
  8
0
  6
Continuous
 62
     7
 48
3.0
370
    15
100
AcDbLine
 10
41.2882213976
 20
23.5355296465
 30
0.0
 11
41.2755227098
 21
23.5233204028
 31
0.0
  0
LWPOLYLINE
  5
364
330
1F
100
AcDbEntity
  8
0
  6
Continuous
 62
     7
 48
3.0
370
    15
100
AcDbPolyline
 90
       15
 70
   128
 43
0.0
 10
41.3831857142
 20
23.3368223465
 10
41.3928732254
 20
23.338606044
 10
41.4079953156
 20
23.3476032479
 10
41.4184149623
 20
23.3633690166
 10
41.4233593352
 20
23.3847340567
 10
41.4224618065
 20
23.4101139365
 10
41.415788832
 20
23.4376263547
 10
41.4038354714
 20
23.4652306828
 10
41.3874881774
 20
23.4908797897
 10
41.3679593356
 20
23.5126713627
 10
41.3466972876
 20
23.5289890928
 10
41.3252789312
 20
23.5386230222
 10
41.3052928624
 20
23.5408584166
 10
41.2882213976
 20
23.5355296465
 10
41.2882213976
 20
23.5355296465
  0
LWPOLYLINE
  5
365
330
1F
100
AcDbEntity
  8
0
  6
Continuous
 62
     7
 48
3.0
370
    15
100
AcDbPolyline
 90
       14
 70
   128
 43
0.0
 10
41.4146771259
 20
23.3501196586
 10
41.4221366203
 20
23.3557668494
 10
41.4325562671
 20
23.371532618
 10
41.43750064
 20
23.3928976582
 10
41.4366031112
 20
23.4182775379
 10
41.4299301368
 20
23.4457899562
 10
41.4179767762
 20
23.4733942842
 10
41.4016294821
 20
23.4990433912
 10
41.3821006403
 20
23.5208349641
 10
41.3608385923
 20
23.5371526943
 10
41.3394202359
 20
23.5467866236
 10
41.3194341672
 20
23.5490220181
 10
41.3023627023
 20
23.5436932479
 10
41.3023627023
 20
23.5436932479
  0
LINE
  5
366
330
1F
100
AcDbEntity
  8
0
  6
Continuous
 62
     7
 48
3.0
370
    15
100
AcDbLine
 10
41.3213265441
 20
23.4128014401
 30
0.0
 11
41.3105650349
 21
23.4189205159
 31
0.0
  0
LINE
  5
367
330
1F
100
AcDbEntity
  8
0
  6
Continuous
 62
     7
 48
3.0
370
    15
100
AcDbLine
 10
41.3105650349
 20
23.4189205159
 30
0.0
 11
41.3104811561
 21
23.4318376947
 31
0.0
  0
LINE
  5
368
330
1F
100
AcDbEntity
  8
0
  6
Continuous
 62
     7
 48
3.0
370
    15
100
AcDbLine
 10
41.3105650349
 20
23.4189205159
 30
0.0
 11
41.2882212731
 21
23.4060217367
 31
0.0
  0
LINE
  5
369
330
1F
100
AcDbEntity
  8
0
  6
Continuous
 62
     7
 48
3.0
370
    15
100
AcDbLine
 10
41.3216580772
 20
23.3962745339
 30
0.0
 11
41.3123383138
 21
23.3908943491
 31
0.0
  0
LINE
  5
36A
330
1F
100
AcDbEntity
  8
0
  6
Continuous
 62
     7
 48
3.0
370
    15
100
AcDbLine
 10
41.2867964525
 20
23.4346941119
 30
0.0
 11
41.2961569108
 21
23.4400977895
 31
0.0
  0
LINE
  5
36B
330
1F
100
AcDbEntity
  8
0
  6
Continuous
 62
     7
 48
3.0
370
    15
100
AcDbLine
 10
41.3691357553
 20
23.3466214429
 30
0.0
 11
41.3603487596
 21
23.3616896397
 31
0.0
  0
LINE
  5
36C
330
1F
100
AcDbEntity
  8
0
  6
Continuous
 62
     7
 48
3.0
370
    15
100
AcDbLine
 10
41.2849979104
 20
23.4909027231
 30
0.0
 11
41.2763532848
 21
23.5057267708
 31
0.0
  0
ARC
  5
36D
330
1F
100
AcDbEntity
  8
0
  6
Continuous
 62
     7
 48
9.0
370
    15
100
AcDbCircle
 10
38.0396203384
 20
28.3012935654
 30
0.0
 40
0.1264688409721667
100
AcDbArc
 50
295.292015175
 51
301.0313753938
  0
ARC
  5
36E
330
1F
100
AcDbEntity
  8
0
  6
Continuous
 62
     7
 48
9.0
370
    15
100
AcDbCircle
 10
38.2376417801
 20
28.2586464192
 30
0.0
 40
0.1599759668752639
100
AcDbArc
 50
206.4188159548
 51
213.0840338449
  0
LWPOLYLINE
  5
36F
330
1F
100
AcDbEntity
  8
0
  6
Continuous
 62
     7
 48
3.0
370
    15
100
AcDbPolyline
 90
        9
 70
   128
 43
0.0
 10
38.1036025788
 20
28.1713205783
 10
38.1029851855
 20
28.170902047
 10
38.1029230853
 20
28.1708008113
 10
38.1034164026
 20
28.1710170836
 10
38.1044627727
 20
28.1715499263
 10
38.1060575912
 20
28.1723968214
 10
38.1081935155
 20
28.1735541012
 10
38.1108602163
 20
28.1750160863
 10
38.1140458709
 20
28.1767762351
  0
ARC
  5
370
330
1F
100
AcDbEntity
  8
0
  6
Continuous
 62
     7
 48
9.0
370
    15
100
AcDbCircle
 10
38.1918415685
 20
28.2909591928
 30
0.0
 40
0.1381662708198818
100
AcDbArc
 50
235.7324193778
 51
248.2447363896
  0
ARC
  5
371
330
1F
100
AcDbEntity
  8
0
  6
Continuous
 62
     7
 48
9.0
370
    15
100
AcDbCircle
 10
38.2577728061
 20
28.1811752604
 30
0.0
 40
0.1185998915816736
100
AcDbArc
 50
175.2065210151
 51
188.9943287603
  0
ARC
  5
372
330
1F
100
AcDbEntity
  8
0
  6
Continuous
 62
     7
 48
9.0
370
    15
100
AcDbCircle
 10
30.7532952994
 20
41.2796508583
 30
0.0
 40
15.02890036391349
100
AcDbArc
 50
299.4374160016
 51
299.6863547739
  0
ARC
  5
373
330
1F
100
AcDbEntity
  8
0
  6
Continuous
 62
     7
 48
9.0
370
    15
100
AcDbCircle
 10
38.0531079537
 20
28.1521195488
 30
0.0
 40
0.159984944228571
100
AcDbArc
 50
26.4187611101
 51
33.0836493262
  0
ARC
  5
374
330
1F
100
AcDbEntity
  8
0
  6
Continuous
 62
     7
 48
9.0
370
    15
100
AcDbCircle
 10
30.7498403817
 20
41.2856751526
 30
0.0
 40
15.01724539560932
100
AcDbArc
 50
299.4372105536
 51
299.6863428067
  0
ARC
  5
375
330
1F
100
AcDbEntity
  8
0
  6
Continuous
 62
     7
 48
9.0
370
    15
100
AcDbCircle
 10
38.182771487
 20
28.3148981969
 30
0.0
 40
0.1197445623698309
100
AcDbArc
 50
230.273963961
 51
244.0419934358
  0
ARC
  5
376
330
1F
100
AcDbEntity
  8
0
  6
Continuous
 62
     7
 48
9.0
370
    15
100
AcDbCircle
 10
38.2419913592
 20
28.2013556859
 30
0.0
 40
0.1374342696966712
100
AcDbArc
 50
171.0226197853
 51
183.5172204639
  0
LINE
  5
377
330
1F
100
AcDbEntity
  8
0
  6
Continuous
 62
     7
 48
3.0
370
    15
100
AcDbLine
 10
38.162764807
 20
28.204465833
 30
0.0
 11
38.1395877323
 21
28.1910859926
 31
0.0
  0
LINE
  5
378
330
1F
100
AcDbEntity
  8
0
  6
Continuous
 62
     7
 48
3.0
370
    15
100
AcDbLine
 10
38.1963850493
 20
28.2233014021
 30
0.0
 11
38.162764807
 21
28.204465833
 31
0.0
  0
LWPOLYLINE
  5
379
330
1F
100
AcDbEntity
  8
0
  6
Continuous
 62
     7
 48
3.0
370
    15
100
AcDbPolyline
 90
       14
 70
   128
 43
0.0
 10
38.2185552043
 20
28.1184213265
 10
38.221854979
 20
28.1205654229
 10
38.2338083396
 20
28.1343686945
 10
38.2404813141
 20
28.1541766604
 10
38.2413788428
 20
28.1785202756
 10
38.2364344699
 20
28.2055939672
 10
38.2260148231
 20
28.2333900039
 10
38.210892733
 20
28.2598468015
 10
38.1921897371
 20
28.2830021116
 10
38.1712928235
 20
28.3011386637
 10
38.1497521334
 20
28.3129111948
 10
38.1291648498
 20
28.3174469631
 10
38.1110580908
 20
28.3144091848
 10
38.1066642819
 20
28.3122430701
  0
LWPOLYLINE
  5
37A
330
1F
100
AcDbEntity
  8
0
  6
Continuous
 62
     7
 48
3.0
370
    15
100
AcDbPolyline
 90
       14
 70
   128
 43
0.0
 10
38.232696509
 20
28.1265849279
 10
38.2359962837
 20
28.1287290244
 10
38.2479496443
 20
28.142532296
 10
38.2546226188
 20
28.1623402619
 10
38.2555201476
 20
28.186683877
 10
38.2505757747
 20
28.2137575686
 10
38.2401561279
 20
28.2415536054
 10
38.2250340378
 20
28.2680104029
 10
38.2063310419
 20
28.291165713
 10
38.1854341283
 20
28.3093022652
 10
38.1638934382
 20
28.3210747963
 10
38.1433061546
 20
28.3256105646
 10
38.1251993956
 20
28.3225727863
 10
38.1208055866
 20
28.3204066715
  0
LINE
  5
37B
330
1F
100
AcDbEntity
  8
0
  6
Continuous
 62
     7
 48
3.0
370
    15
100
AcDbLine
 10
38.162764807
 20
28.204465833
 30
0.0
 11
38.1628346231
 21
28.2151645105
 31
0.0
  0
LINE
  5
37C
330
1F
100
AcDbEntity
  8
0
  6
Continuous
 62
     7
 48
3.0
370
    15
100
AcDbLine
 10
38.1628346231
 20
28.2151645105
 30
0.0
 11
38.1537724699
 21
28.2204745893
 31
0.0
  0
LINE
  5
37D
330
1F
100
AcDbEntity
  8
0
  6
Continuous
 62
     7
 48
3.0
370
    15
100
AcDbLine
 10
38.1394639052
 20
28.1893092585
 30
0.0
 11
38.1283239455
 21
28.1958369368
 31
0.0
  0
LINE
  5
37E
330
1F
100
AcDbEntity
  8
0
  6
Continuous
 62
     7
 48
3.0
370
    15
100
AcDbLine
 10
38.1283239455
 20
28.1958369368
 30
0.0
 11
38.1284049621
 21
28.2082219029
 31
0.0
  0
LINE
  5
37F
330
1F
100
AcDbEntity
  8
0
  6
Continuous
 62
     7
 48
3.0
370
    15
100
AcDbLine
 10
38.1283239455
 20
28.1958369368
 30
0.0
 11
38.1279230942
 21
28.1956055302
 31
0.0
  0
LINE
  5
380
330
1F
100
AcDbEntity
  8
0
  6
Continuous
 62
     7
 48
3.0
370
    15
100
AcDbLine
 10
38.1279930347
 20
28.2063041359
 30
0.0
 11
38.1279230942
 21
28.1956055302
 31
0.0
  0
LINE
  5
381
330
1F
100
AcDbEntity
  8
0
  6
Continuous
 62
     7
 48
3.0
370
    15
100
AcDbLine
 10
38.1279930347
 20
28.2063041359
 30
0.0
 11
38.10481596
 21
28.1929242955
 31
0.0
  0
LINE
  5
382
330
1F
100
AcDbEntity
  8
0
  6
Continuous
 62
     7
 48
3.0
370
    15
100
AcDbLine
 10
38.1140458709
 20
28.1767762351
 30
0.0
 11
38.1372229456
 21
28.1901560755
 31
0.0
  0
LINE
  5
383
330
1F
100
AcDbEntity
  8
0
  6
Continuous
 62
     7
 48
3.0
370
    15
100
AcDbLine
 10
38.1279230942
 20
28.1956055302
 30
0.0
 11
38.1372229456
 21
28.1901560755
 31
0.0
  0
LINE
  5
384
330
1F
100
AcDbEntity
  8
0
  6
Continuous
 62
     7
 48
3.0
370
    15
100
AcDbLine
 10
38.1372229456
 20
28.1901560755
 30
0.0
 11
38.1036025788
 21
28.1713205783
 31
0.0
  0
LINE
  5
385
330
1F
100
AcDbEntity
  8
0
  6
Continuous
 62
     7
 48
3.0
370
    15
100
AcDbLine
 10
29.1061104624
 20
19.9576630584
 30
0.0
 11
29.1061104624
 21
19.5346630916
 31
0.0
  0
LINE
  5
386
330
1F
100
AcDbEntity
  8
0
  6
Continuous
 62
     7
 48
3.0
370
    15
100
AcDbLine
 10
29.1061104624
 20
19.5346630916
 30
0.0
 11
22.1681104508
 21
19.5346630916
 31
0.0
  0
LINE
  5
387
330
1F
100
AcDbEntity
  8
0
  6
Continuous
 62
     7
 48
3.0
370
    15
100
AcDbLine
 10
22.1681104508
 20
19.9576630584
 30
0.0
 11
22.1681104508
 21
19.5346630916
 31
0.0
  0
LINE
  5
388
330
1F
100
AcDbEntity
  8
0
  6
Continuous
 62
     7
 48
3.0
370
    15
100
AcDbLine
 10
29.1061104624
 20
20.0346633423
 30
0.0
 11
29.1061104624
 21
19.9576630584
 31
0.0
  0
LINE
  5
389
330
1F
100
AcDbEntity
  8
0
  6
Continuous
 62
     7
 48
3.0
370
    15
100
AcDbLine
 10
22.1681104508
 20
20.0346633423
 30
0.0
 11
22.1681104508
 21
19.9576630584
 31
0.0
  0
LINE
  5
38A
330
1F
100
AcDbEntity
  8
0
  6
Continuous
 62
     7
 48
3.0
370
    15
100
AcDbLine
 10
22.1681104508
 20
20.0346633423
 30
0.0
 11
29.1061104624
 21
20.0346633423
 31
0.0
  0
LINE
  5
38B
330
1F
100
AcDbEntity
  8
0
  6
Continuous
 62
     7
 48
3.0
370
    15
100
AcDbLine
 10
22.1681104508
 20
19.9726633652
 30
0.0
 11
22.1371104623
 21
19.9726633652
 31
0.0
  0
LINE
  5
38C
330
1F
100
AcDbEntity
  8
0
  6
Continuous
 62
     7
 48
3.0
370
    15
100
AcDbLine
 10
22.1681104508
 20
20.0346633423
 30
0.0
 11
22.1371104623
 21
20.0346633423
 31
0.0
  0
LINE
  5
38D
330
1F
100
AcDbEntity
  8
0
  6
Continuous
 62
     7
 48
3.0
370
    15
100
AcDbLine
 10
29.1061104624
 20
19.9726633652
 30
0.0
 11
29.137110451
 21
19.9726633652
 31
0.0
  0
LINE
  5
38E
330
1F
100
AcDbEntity
  8
0
  6
Continuous
 62
     7
 48
3.0
370
    15
100
AcDbLine
 10
29.1061104624
 20
20.0346633423
 30
0.0
 11
29.137110451
 21
20.0346633423
 31
0.0
  0
LINE
  5
38F
330
1F
100
AcDbEntity
  8
0
  6
Continuous
 62
     7
 48
3.0
370
    15
100
AcDbLine
 10
22.1371104623
 20
19.5966630687
 30
0.0
 11
22.1681104508
 21
19.5966630687
 31
0.0
  0
LINE
  5
390
330
1F
100
AcDbEntity
  8
0
  6
Continuous
 62
     7
 48
3.0
370
    15
100
AcDbLine
 10
29.1061104624
 20
19.5966630687
 30
0.0
 11
29.137110451
 21
19.5966630687
 31
0.0
  0
LINE
  5
391
330
1F
100
AcDbEntity
  8
0
  6
Continuous
 62
     7
 48
3.0
370
    15
100
AcDbLine
 10
29.1061104624
 20
10.1116633069
 30
0.0
 11
29.1061104624
 21
10.5346632737
 31
0.0
  0
LINE
  5
392
330
1F
100
AcDbEntity
  8
0
  6
Continuous
 62
     7
 48
3.0
370
    15
100
AcDbLine
 10
22.1681104508
 20
10.1116633069
 30
0.0
 11
22.1681104508
 21
10.5346632737
 31
0.0
  0
LINE
  5
393
330
1F
100
AcDbEntity
  8
0
  6
Continuous
 62
     7
 48
3.0
370
    15
100
AcDbLine
 10
22.1681104508
 20
10.5346632737
 30
0.0
 11
29.1061104624
 21
10.5346632737
 31
0.0
  0
LINE
  5
394
330
1F
100
AcDbEntity
  8
0
  6
Continuous
 62
     7
 48
3.0
370
    15
100
AcDbLine
 10
29.1061104624
 20
10.0346630231
 30
0.0
 11
29.1061104624
 21
10.1116633069
 31
0.0
  0
LINE
  5
395
330
1F
100
AcDbEntity
  8
0
  6
Continuous
 62
     7
 48
3.0
370
    15
100
AcDbLine
 10
29.1061104624
 20
10.0346630231
 30
0.0
 11
22.1681104508
 21
10.0346630231
 31
0.0
  0
LINE
  5
396
330
1F
100
AcDbEntity
  8
0
  6
Continuous
 62
     7
 48
3.0
370
    15
100
AcDbLine
 10
22.1681104508
 20
10.0346630231
 30
0.0
 11
22.1681104508
 21
10.1116633069
 31
0.0
  0
LINE
  5
397
330
1F
100
AcDbEntity
  8
0
  6
Continuous
 62
     7
 48
3.0
370
    15
100
AcDbLine
 10
22.1681104508
 20
10.0966630002
 30
0.0
 11
22.1371104623
 21
10.0966630002
 31
0.0
  0
LINE
  5
398
330
1F
100
AcDbEntity
  8
0
  6
Continuous
 62
     7
 48
3.0
370
    15
100
AcDbLine
 10
22.1681104508
 20
10.0346630231
 30
0.0
 11
22.1371104623
 21
10.0346630231
 31
0.0
  0
LINE
  5
399
330
1F
100
AcDbEntity
  8
0
  6
Continuous
 62
     7
 48
3.0
370
    15
100
AcDbLine
 10
29.1061104624
 20
10.0966630002
 30
0.0
 11
29.137110451
 21
10.0966630002
 31
0.0
  0
LINE
  5
39A
330
1F
100
AcDbEntity
  8
0
  6
Continuous
 62
     7
 48
3.0
370
    15
100
AcDbLine
 10
29.1061104624
 20
10.0346630231
 30
0.0
 11
29.137110451
 21
10.0346630231
 31
0.0
  0
LINE
  5
39B
330
1F
100
AcDbEntity
  8
0
  6
Continuous
 62
     7
 48
3.0
370
    15
100
AcDbLine
 10
29.137110451
 20
10.4726632966
 30
0.0
 11
29.1061104624
 21
10.4726632966
 31
0.0
  0
LINE
  5
39C
330
1F
100
AcDbEntity
  8
0
  6
Continuous
 62
     7
 48
3.0
370
    15
100
AcDbLine
 10
22.1681104508
 20
10.4726632966
 30
0.0
 11
22.1371104623
 21
10.4726632966
 31
0.0
  0
LINE
  5
39D
330
1F
100
AcDbEntity
  8
0
  6
Continuous
 62
     7
 48
3.0
370
    15
100
AcDbLine
 10
29.137110451
 20
20.0346633423
 30
0.0
 11
29.137110451
 21
10.0346630231
 31
0.0
  0
LINE
  5
39E
330
1F
100
AcDbEntity
  8
0
  6
Continuous
 62
     7
 48
3.0
370
    15
100
AcDbLine
 10
29.137110451
 20
20.0346633423
 30
0.0
 11
29.5601104178
 21
20.0346633423
 31
0.0
  0
LINE
  5
39F
330
1F
100
AcDbEntity
  8
0
  6
Continuous
 62
     7
 48
3.0
370
    15
100
AcDbLine
 10
29.137110451
 20
10.0346630231
 30
0.0
 11
29.5601104178
 21
10.0346630231
 31
0.0
  0
CIRCLE
  5
3A0
330
1F
100
AcDbEntity
  8
0
  6
Continuous
 62
     7
 48
9.0
370
    15
100
AcDbCircle
 10
29.3871104566
 20
18.0346631827
 30
0.0
 40
0.0850000000000009
  0
CIRCLE
  5
3A1
330
1F
100
AcDbEntity
  8
0
  6
Continuous
 62
     7
 48
9.0
370
    15
100
AcDbCircle
 10
29.3871104566
 20
12.0346631827
 30
0.0
 40
0.0850000000000009
  0
LINE
  5
3A2
330
1F
100
AcDbEntity
  8
0
  6
Continuous
 62
     7
 48
3.0
370
    15
100
AcDbLine
 10
21.7141104955
 20
20.0346633423
 30
0.0
 11
22.1371104623
 21
20.0346633423
 31
0.0
  0
LINE
  5
3A3
330
1F
100
AcDbEntity
  8
0
  6
Continuous
 62
     7
 48
3.0
370
    15
100
AcDbLine
 10
22.1371104623
 20
20.0346633423
 30
0.0
 11
22.1371104623
 21
10.0346630231
 31
0.0
  0
LINE
  5
3A4
330
1F
100
AcDbEntity
  8
0
  6
Continuous
 62
     7
 48
3.0
370
    15
100
AcDbLine
 10
21.7141104955
 20
10.0346630231
 30
0.0
 11
22.1371104623
 21
10.0346630231
 31
0.0
  0
CIRCLE
  5
3A5
330
1F
100
AcDbEntity
  8
0
  6
Continuous
 62
     7
 48
9.0
370
    15
100
AcDbCircle
 10
21.8871104566
 20
18.0346631827
 30
0.0
 40
0.0850000000000009
  0
CIRCLE
  5
3A6
330
1F
100
AcDbEntity
  8
0
  6
Continuous
 62
     7
 48
9.0
370
    15
100
AcDbCircle
 10
21.8871104566
 20
12.0346631827
 30
0.0
 40
0.0850000000000009
  0
LINE
  5
3A7
330
1F
100
AcDbEntity
  8
0
  6
Continuous
 62
     7
 48
3.0
370
    15
100
AcDbLine
 10
21.637110505
 20
20.0346633423
 30
0.0
 11
21.637110505
 21
10.0346630231
 31
0.0
  0
LINE
  5
3A8
330
1F
100
AcDbEntity
  8
0
  6
Continuous
 62
     7
 48
3.0
370
    15
100
AcDbLine
 10
21.637110505
 20
20.0346633423
 30
0.0
 11
21.7141104955
 21
20.0346633423
 31
0.0
  0
LINE
  5
3A9
330
1F
100
AcDbEntity
  8
0
  6
Continuous
 62
     7
 48
3.0
370
    15
100
AcDbLine
 10
21.637110505
 20
10.0346630231
 30
0.0
 11
21.7141104955
 21
10.0346630231
 31
0.0
  0
LINE
  5
3AA
330
1F
100
AcDbEntity
  8
0
  6
Continuous
 62
     7
 48
3.0
370
    15
100
AcDbLine
 10
29.6371104083
 20
20.0346633423
 30
0.0
 11
29.6371104083
 21
10.0346630231
 31
0.0
  0
LINE
  5
3AB
330
1F
100
AcDbEntity
  8
0
  6
Continuous
 62
     7
 48
3.0
370
    15
100
AcDbLine
 10
29.5601104178
 20
10.0346630231
 30
0.0
 11
29.6371104083
 21
10.0346630231
 31
0.0
  0
LINE
  5
3AC
330
1F
100
AcDbEntity
  8
0
  6
Continuous
 62
     7
 48
3.0
370
    15
100
AcDbLine
 10
29.5601104178
 20
20.0346633423
 30
0.0
 11
29.6371104083
 21
20.0346633423
 31
0.0
  0
CIRCLE
  5
3AD
330
1F
100
AcDbEntity
  8
0
  6
Continuous
 62
     7
 48
9.0
370
    15
100
AcDbCircle
 10
23.6371104566
 20
18.0346631827
 30
0.0
 40
0.0849999999999973
  0
CIRCLE
  5
3AE
330
1F
100
AcDbEntity
  8
0
  6
Continuous
 62
     7
 48
9.0
370
    15
100
AcDbCircle
 10
23.6371104566
 20
18.0346631827
 30
0.0
 40
0.6416128499307305
  0
ARC
  5
3AF
330
1F
100
AcDbEntity
  8
0
  6
Continuous
 62
     7
 48
9.0
370
    15
100
AcDbCircle
 10
29.1371104566
 20
18.5346631827
 30
0.0
 40
0.140500000000003
100
AcDbArc
 50
90.0
 51
180.0
  0
ARC
  5
3B0
330
1F
100
AcDbEntity
  8
0
  6
Continuous
 62
     7
 48
9.0
370
    15
100
AcDbCircle
 10
29.1371104566
 20
18.5346631827
 30
0.0
 40
0.1404999999999994
100
AcDbArc
 50
180.0
 51
270.0
  0
ARC
  5
3B1
330
1F
100
AcDbEntity
  8
0
  6
Continuous
 62
     7
 48
9.0
370
    15
100
AcDbCircle
 10
22.1371104566
 20
18.5346631827
 30
0.0
 40
0.1404999999999994
100
AcDbArc
 50
270.0
 51
0.0
  0
ARC
  5
3B2
330
1F
100
AcDbEntity
  8
0
  6
Continuous
 62
     7
 48
9.0
370
    15
100
AcDbCircle
 10
22.1371104566
 20
18.5346631827
 30
0.0
 40
0.140500000000003
100
AcDbArc
 50
0.0
 51
90.0
  0
ARC
  5
3B3
330
1F
100
AcDbEntity
  8
0
  6
Continuous
 62
     7
 48
9.0
370
    15
100
AcDbCircle
 10
22.1371104566
 20
11.5346631827
 30
0.0
 40
0.140500000000003
100
AcDbArc
 50
270.0
 51
90.0
  0
ARC
  5
3B4
330
1F
100
AcDbEntity
  8
0
  6
Continuous
 62
     7
 48
9.0
370
    15
100
AcDbCircle
 10
29.1371104566
 20
11.5346631827
 30
0.0
 40
0.1405000000000012
100
AcDbArc
 50
90.0
 51
270.0
  0
LINE
  5
3B5
330
1F
100
AcDbEntity
  8
0
  6
HIDDEN
 62
     7
 48
3.0
370
     0
100
AcDbLine
 10
22.1681104508
 20
19.9726633652
 30
0.0
 11
29.1061104624
 21
19.9726633652
 31
0.0
  0
LINE
  5
3B6
330
1F
100
AcDbEntity
  8
0
  6
HIDDEN
 62
     7
 48
3.0
370
     0
100
AcDbLine
 10
22.1371104623
 20
19.9726633652
 30
0.0
 11
21.7761104726
 21
19.9726633652
 31
0.0
  0
LINE
  5
3B7
330
1F
100
AcDbEntity
  8
0
  6
HIDDEN
 62
     7
 48
3.0
370
     0
100
AcDbLine
 10
29.137110451
 20
19.9726633652
 30
0.0
 11
29.4981104407
 21
19.9726633652
 31
0.0
  0
ARC
  5
3B8
330
1F
100
AcDbEntity
  8
0
  6
HIDDEN
 62
     7
 48
9.0
370
     0
100
AcDbCircle
 10
21.7761104566
 20
19.9576631827
 30
0.0
 40
0.0769999999999982
100
AcDbArc
 50
90.0
 51
180.0
  0
ARC
  5
3B9
330
1F
100
AcDbEntity
  8
0
  6
HIDDEN
 62
     7
 48
9.0
370
     0
100
AcDbCircle
 10
21.7761104566
 20
19.9576631827
 30
0.0
 40
0.0150000000000006
100
AcDbArc
 50
90.0
 51
180.0
  0
ARC
  5
3BA
330
1F
100
AcDbEntity
  8
0
  6
HIDDEN
 62
     7
 48
9.0
370
     0
100
AcDbCircle
 10
29.4981104566
 20
19.9576631827
 30
0.0
 40
0.0769999999999982
100
AcDbArc
 50
0.0
 51
90.0
  0
ARC
  5
3BB
330
1F
100
AcDbEntity
  8
0
  6
HIDDEN
 62
     7
 48
9.0
370
     0
100
AcDbCircle
 10
29.4981104566
 20
19.9576631827
 30
0.0
 40
0.0150000000000006
100
AcDbArc
 50
0.0
 51
90.0
  0
LINE
  5
3BC
330
1F
100
AcDbEntity
  8
0
  6
HIDDEN
 62
     7
 48
3.0
370
     0
100
AcDbLine
 10
29.5751104312
 20
19.5966630687
 30
0.0
 11
29.5131104541
 21
19.5966630687
 31
0.0
  0
LINE
  5
3BD
330
1F
100
AcDbEntity
  8
0
  6
HIDDEN
 62
     7
 48
3.0
370
     0
100
AcDbLine
 10
29.5131104541
 20
19.5966630687
 30
0.0
 11
29.5131104541
 21
19.9576630584
 31
0.0
  0
LINE
  5
3BE
330
1F
100
AcDbEntity
  8
0
  6
HIDDEN
 62
     7
 48
3.0
370
     0
100
AcDbLine
 10
21.6991104821
 20
19.5966630687
 30
0.0
 11
21.7611104592
 21
19.5966630687
 31
0.0
  0
LINE
  5
3BF
330
1F
100
AcDbEntity
  8
0
  6
HIDDEN
 62
     7
 48
3.0
370
     0
100
AcDbLine
 10
21.7611104592
 20
19.5966630687
 30
0.0
 11
21.7611104592
 21
19.9576630584
 31
0.0
  0
LINE
  5
3C0
330
1F
100
AcDbEntity
  8
0
  6
HIDDEN
 62
     7
 48
3.0
370
     0
100
AcDbLine
 10
29.4981104407
 20
19.9726633652
 30
0.0
 11
29.4981104407
 21
20.0346633423
 31
0.0
  0
LINE
  5
3C1
330
1F
100
AcDbEntity
  8
0
  6
HIDDEN
 62
     7
 48
3.0
370
     0
100
AcDbLine
 10
21.7761104726
 20
19.9576630584
 30
0.0
 11
21.7761104726
 21
19.9726633652
 31
0.0
  0
LINE
  5
3C2
330
1F
100
AcDbEntity
  8
0
  6
HIDDEN
 62
     7
 48
3.0
370
     0
100
AcDbLine
 10
29.4981104407
 20
19.9576630584
 30
0.0
 11
29.4981104407
 21
19.9726633652
 31
0.0
  0
LINE
  5
3C3
330
1F
100
AcDbEntity
  8
0
  6
HIDDEN
 62
     7
 48
3.0
370
     0
100
AcDbLine
 10
21.7761104726
 20
19.9726633652
 30
0.0
 11
21.7761104726
 21
20.0346633423
 31
0.0
  0
LINE
  5
3C4
330
1F
100
AcDbEntity
  8
0
  6
HIDDEN
 62
     7
 48
3.0
370
     0
100
AcDbLine
 10
21.7761104726
 20
19.5966630687
 30
0.0
 11
22.1371104623
 21
19.5966630687
 31
0.0
  0
LINE
  5
3C5
330
1F
100
AcDbEntity
  8
0
  6
HIDDEN
 62
     7
 48
3.0
370
     0
100
AcDbLine
 10
22.1681104508
 20
19.5966630687
 30
0.0
 11
29.1061104624
 21
19.5966630687
 31
0.0
  0
LINE
  5
3C6
330
1F
100
AcDbEntity
  8
0
  6
HIDDEN
 62
     7
 48
3.0
370
     0
100
AcDbLine
 10
29.137110451
 20
19.5966630687
 30
0.0
 11
29.4981104407
 21
19.5966630687
 31
0.0
  0
LINE
  5
3C7
330
1F
100
AcDbEntity
  8
0
  6
HIDDEN
 62
     7
 48
3.0
370
     0
100
AcDbLine
 10
21.7761104726
 20
19.5966630687
 30
0.0
 11
21.7761104726
 21
19.9576630584
 31
0.0
  0
LINE
  5
3C8
330
1F
100
AcDbEntity
  8
0
  6
HIDDEN
 62
     7
 48
3.0
370
     0
100
AcDbLine
 10
29.4981104407
 20
19.5966630687
 30
0.0
 11
29.4981104407
 21
19.9576630584
 31
0.0
  0
LINE
  5
3C9
330
1F
100
AcDbEntity
  8
0
  6
HIDDEN
 62
     7
 48
3.0
370
     0
100
AcDbLine
 10
29.1061104624
 20
10.0966630002
 30
0.0
 11
22.1681104508
 21
10.0966630002
 31
0.0
  0
LINE
  5
3CA
330
1F
100
AcDbEntity
  8
0
  6
HIDDEN
 62
     7
 48
3.0
370
     0
100
AcDbLine
 10
22.1371104623
 20
10.0966630002
 30
0.0
 11
21.7761104726
 21
10.0966630002
 31
0.0
  0
LINE
  5
3CB
330
1F
100
AcDbEntity
  8
0
  6
HIDDEN
 62
     7
 48
3.0
370
     0
100
AcDbLine
 10
29.137110451
 20
10.0966630002
 30
0.0
 11
29.4981104407
 21
10.0966630002
 31
0.0
  0
LINE
  5
3CC
330
1F
100
AcDbEntity
  8
0
  6
HIDDEN
 62
     7
 48
3.0
370
     0
100
AcDbLine
 10
21.7611104592
 20
10.4726632966
 30
0.0
 11
21.7611104592
 21
10.1116633069
 31
0.0
  0
LINE
  5
3CD
330
1F
100
AcDbEntity
  8
0
  6
HIDDEN
 62
     7
 48
3.0
370
     0
100
AcDbLine
 10
21.6991104821
 20
10.4726632966
 30
0.0
 11
21.7611104592
 21
10.4726632966
 31
0.0
  0
LINE
  5
3CE
330
1F
100
AcDbEntity
  8
0
  6
HIDDEN
 62
     7
 48
3.0
370
     0
100
AcDbLine
 10
29.5131104541
 20
10.4726632966
 30
0.0
 11
29.5131104541
 21
10.1116633069
 31
0.0
  0
LINE
  5
3CF
330
1F
100
AcDbEntity
  8
0
  6
HIDDEN
 62
     7
 48
3.0
370
     0
100
AcDbLine
 10
29.5751104312
 20
10.4726632966
 30
0.0
 11
29.5131104541
 21
10.4726632966
 31
0.0
  0
ARC
  5
3D0
330
1F
100
AcDbEntity
  8
0
  6
HIDDEN
 62
     7
 48
9.0
370
     0
100
AcDbCircle
 10
21.7761104566
 20
10.1116631827
 30
0.0
 40
0.077
100
AcDbArc
 50
180.0
 51
270.0
  0
ARC
  5
3D1
330
1F
100
AcDbEntity
  8
0
  6
HIDDEN
 62
     7
 48
9.0
370
     0
100
AcDbCircle
 10
21.7761104566
 20
10.1116631827
 30
0.0
 40
0.0150000000000006
100
AcDbArc
 50
180.0
 51
270.0
  0
ARC
  5
3D2
330
1F
100
AcDbEntity
  8
0
  6
HIDDEN
 62
     7
 48
9.0
370
     0
100
AcDbCircle
 10
29.4981104566
 20
10.1116631827
 30
0.0
 40
0.077
100
AcDbArc
 50
270.0
 51
0.0
  0
ARC
  5
3D3
330
1F
100
AcDbEntity
  8
0
  6
HIDDEN
 62
     7
 48
9.0
370
     0
100
AcDbCircle
 10
29.4981104566
 20
10.1116631827
 30
0.0
 40
0.0150000000000006
100
AcDbArc
 50
270.0
 51
0.0
  0
LINE
  5
3D4
330
1F
100
AcDbEntity
  8
0
  6
HIDDEN
 62
     7
 48
3.0
370
     0
100
AcDbLine
 10
29.4981104407
 20
10.1116633069
 30
0.0
 11
29.4981104407
 21
10.0966630002
 31
0.0
  0
LINE
  5
3D5
330
1F
100
AcDbEntity
  8
0
  6
HIDDEN
 62
     7
 48
3.0
370
     0
100
AcDbLine
 10
21.7761104726
 20
10.1116633069
 30
0.0
 11
21.7761104726
 21
10.0966630002
 31
0.0
  0
LINE
  5
3D6
330
1F
100
AcDbEntity
  8
0
  6
HIDDEN
 62
     7
 48
3.0
370
     0
100
AcDbLine
 10
21.7761104726
 20
10.0966630002
 30
0.0
 11
21.7761104726
 21
10.0346630231
 31
0.0
  0
LINE
  5
3D7
330
1F
100
AcDbEntity
  8
0
  6
HIDDEN
 62
     7
 48
3.0
370
     0
100
AcDbLine
 10
29.4981104407
 20
10.0966630002
 30
0.0
 11
29.4981104407
 21
10.0346630231
 31
0.0
  0
LINE
  5
3D8
330
1F
100
AcDbEntity
  8
0
  6
HIDDEN
 62
     7
 48
3.0
370
     0
100
AcDbLine
 10
29.4981104407
 20
10.4726632966
 30
0.0
 11
29.137110451
 21
10.4726632966
 31
0.0
  0
LINE
  5
3D9
330
1F
100
AcDbEntity
  8
0
  6
HIDDEN
 62
     7
 48
3.0
370
     0
100
AcDbLine
 10
29.1061104624
 20
10.4726632966
 30
0.0
 11
22.1681104508
 21
10.4726632966
 31
0.0
  0
LINE
  5
3DA
330
1F
100
AcDbEntity
  8
0
  6
HIDDEN
 62
     7
 48
3.0
370
     0
100
AcDbLine
 10
22.1371104623
 20
10.4726632966
 30
0.0
 11
21.7761104726
 21
10.4726632966
 31
0.0
  0
LINE
  5
3DB
330
1F
100
AcDbEntity
  8
0
  6
HIDDEN
 62
     7
 48
3.0
370
     0
100
AcDbLine
 10
29.4981104407
 20
10.4726632966
 30
0.0
 11
29.4981104407
 21
10.1116633069
 31
0.0
  0
LINE
  5
3DC
330
1F
100
AcDbEntity
  8
0
  6
HIDDEN
 62
     7
 48
3.0
370
     0
100
AcDbLine
 10
21.7761104726
 20
10.4726632966
 30
0.0
 11
21.7761104726
 21
10.1116633069
 31
0.0
  0
LINE
  5
3DD
330
1F
100
AcDbEntity
  8
0
  6
HIDDEN
 62
     7
 48
3.0
370
     0
100
AcDbLine
 10
21.6991104821
 20
20.0346633423
 30
0.0
 11
21.6991104821
 21
10.0346630231
 31
0.0
  0
LINE
  5
3DE
330
1F
100
AcDbEntity
  8
0
  6
HIDDEN
 62
     7
 48
3.0
370
     0
100
AcDbLine
 10
29.5751104312
 20
20.0346633423
 30
0.0
 11
29.5751104312
 21
10.0346630231
 31
0.0
  0
CIRCLE
  5
3DF
330
1F
100
AcDbEntity
  8
0
  6
HIDDEN
 62
     7
 48
9.0
370
     0
100
AcDbCircle
 10
23.6371104566
 20
18.0346631827
 30
0.0
 40
0.147000000000002
  0
ARC
  5
3E0
330
1F
100
AcDbEntity
  8
0
  6
HIDDEN
 62
     7
 48
9.0
370
     0
100
AcDbCircle
 10
29.1371104566
 20
18.5346631827
 30
0.0
 40
0.140500000000003
100
AcDbArc
 50
270.0
 51
90.0
  0
ARC
  5
3E1
330
1F
100
AcDbEntity
  8
0
  6
HIDDEN
 62
     7
 48
9.0
370
     0
100
AcDbCircle
 10
22.1371104566
 20
18.5346631827
 30
0.0
 40
0.140500000000003
100
AcDbArc
 50
90.0
 51
270.0
  0
ARC
  5
3E2
330
1F
100
AcDbEntity
  8
0
  6
HIDDEN
 62
     7
 48
9.0
370
     0
100
AcDbCircle
 10
22.1371104566
 20
11.5346631827
 30
0.0
 40
0.1404999999999994
100
AcDbArc
 50
90.0
 51
180.0
  0
ARC
  5
3E3
330
1F
100
AcDbEntity
  8
0
  6
HIDDEN
 62
     7
 48
9.0
370
     0
100
AcDbCircle
 10
22.1371104566
 20
11.5346631827
 30
0.0
 40
0.140500000000003
100
AcDbArc
 50
180.0
 51
270.0
  0
ARC
  5
3E4
330
1F
100
AcDbEntity
  8
0
  6
HIDDEN
 62
     7
 48
9.0
370
     0
100
AcDbCircle
 10
29.1371104566
 20
11.5346631827
 30
0.0
 40
0.1405000000000012
100
AcDbArc
 50
270.0
 51
0.0
  0
ARC
  5
3E5
330
1F
100
AcDbEntity
  8
0
  6
HIDDEN
 62
     7
 48
9.0
370
     0
100
AcDbCircle
 10
29.1371104566
 20
11.5346631827
 30
0.0
 40
0.1404999999999994
100
AcDbArc
 50
0.0
 51
90.0
  0
CIRCLE
  5
3E6
330
1F
100
AcDbEntity
  8
0
  6
HIDDEN
 62
     7
 48
9.0
370
     0
100
AcDbCircle
 10
23.6371104566
 20
18.0346631827
 30
0.0
 40
0.6249999999999964
  0
DIMENSION
  5
3E7
330
1F
100
AcDbEntity
  8
0
  6
Continuous
 62
     7
 48
3.0
370
     0
100
AcDbDimension
  2
*D14
 10
29.6371104566
 20
17.3525388462
 30
0.0
 11
31.4359850396
 21
17.3525388462
 31
0.0
 70
   160
 71
     2
 42
-1.0
  3
SLDDIMSTYLE3
100
AcDbAlignedDimension
 13
29.1371104566
 23
20.0346631827
 33
0.0
 14
29.6371104566
 24
20.0346631827
 34
0.0
100
AcDbRotatedDimension
  0
INSERT
  5
3FC
102
{ACAD_REACTORS
330
3FD
102
}
330
1F
100
AcDbEntity
  8
0
  6
Continuous
 62
     7
 48
3.0
370
     0
100
AcDbBlockReference
  2
SW_NOTE_5
 10
25.5458525392
 20
21.5416109932
 30
0.0
  0
LEADER
  5
3FD
330
1F
100
AcDbEntity
  8
0
  6
Continuous
 62
     7
 48
3.0
370
     0
100
AcDbLeader
  3
SLDDIMSTYLE1
 73
     2
 76
     3
 10
23.8453439168
 20
18.6415452761
 30
0.0
 10
24.7958525392
 20
21.5416109932
 30
0.0
 10
25.5458525392
 20
21.5416109932
 30
0.0
340
3FC
  0
MTEXT
  5
3FE
330
1F
100
AcDbEntity
  8
0
  6
Continuous
 62
     7
 48
3.0
370
     0
100
AcDbMText
 10
23.4731389793
 20
9.2503539555
 30
0.0
 40
0.375
 41
0.0
 71
     1
 72
     1
  1
\LCOVER REMOVED
  7
SLDTEXTSTYLE0
 73
     1
 44
1.0
  0
ENDSEC
  0
SECTION
  2
OBJECTS
  0
DICTIONARY
  5
C
330
0
100
AcDbDictionary
281
     1
  3
ACAD_GROUP
350
D
  3
ACAD_LAYOUT
350
1A
  3
ACAD_MATERIAL
350
3B
  3
ACAD_MLEADERSTYLE
350
401
  3
ACAD_MLINESTYLE
350
17
  3
ACAD_PLOTSETTINGS
350
19
  3
ACAD_PLOTSTYLENAME
350
E
  3
ACAD_SCALELIST
350
58
  3
ACAD_VISUALSTYLE
350
2A
  3
AcDbVariableDictionary
350
3FF
  0
DICTIONARY
  5
D
102
{ACAD_REACTORS
330
C
102
}
330
C
100
AcDbDictionary
281
     1
  0
DICTIONARY
  5
1A
102
{ACAD_REACTORS
330
C
102
}
330
C
100
AcDbDictionary
281
     1
  3
Layout1
350
1E
  3
Layout2
350
26
  3
Model
350
22
  0
DICTIONARY
  5
3B
102
{ACAD_REACTORS
330
C
102
}
330
C
100
AcDbDictionary
281
     1
  3
ByBlock
350
3D
  3
ByLayer
350
3C
  3
Global
350
3E
  0
DICTIONARY
  5
401
102
{ACAD_REACTORS
330
C
102
}
330
C
100
AcDbDictionary
281
     1
  0
DICTIONARY
  5
17
102
{ACAD_REACTORS
330
C
102
}
330
C
100
AcDbDictionary
281
     1
  3
Standard
350
18
  0
DICTIONARY
  5
19
102
{ACAD_REACTORS
330
C
102
}
330
C
100
AcDbDictionary
281
     1
  0
ACDBDICTIONARYWDFLT
  5
E
102
{ACAD_REACTORS
330
C
102
}
330
C
100
AcDbDictionary
281
     1
  3
Normal
350
F
100
AcDbDictionaryWithDefault
340
F
  0
DICTIONARY
  5
58
102
{ACAD_REACTORS
330
C
102
}
330
C
100
AcDbDictionary
281
     1
  3
A0
350
59
  3
A1
350
5A
  3
A2
350
5B
  3
A3
350
5C
  3
A4
350
5D
  3
A5
350
5E
  3
A6
350
5F
  3
A7
350
60
  3
A8
350
61
  3
A9
350
62
  3
B0
350
63
  3
B1
350
64
  3
B2
350
65
  3
B3
350
66
  3
B4
350
67
  3
B5
350
68
  3
B6
350
69
  3
B7
350
6A
  3
B8
350
6B
  3
B9
350
6C
  3
C0
350
6D
  3
C1
350
6E
  3
C2
350
6F
  3
C3
350
70
  3
C4
350
71
  3
C5
350
72
  3
C6
350
73
  3
C7
350
74
  3
C8
350
75
  3
C9
350
76
  3
D0
350
77
  3
D1
350
78
  3
D2
350
79
  0
DICTIONARY
  5
2A
102
{ACAD_REACTORS
330
C
102
}
330
C
100
AcDbDictionary
281
     1
  3
2dWireframe
350
2F
  3
3D Hidden
350
31
  3
3dWireframe
350
30
  3
Basic
350
32
  3
Brighten
350
36
  3
ColorChange
350
3A
  3
Conceptual
350
34
  3
Dim
350
35
  3
Facepattern
350
39
  3
Flat
350
2B
  3
FlatWithEdges
350
2C
  3
Gouraud
350
2D
  3
GouraudWithEdges
350
2E
  3
Linepattern
350
38
  3
Realistic
350
33
  3
Thicken
350
37
  0
DICTIONARY
  5
3FF
102
{ACAD_REACTORS
330
C
102
}
330
C
100
AcDbDictionary
281
     1
  3
CANNOSCALE
350
402
  3
DIMASSOC
350
403
  3
HIDETEXT
350
404
  0
LAYOUT
  5
1E
102
{ACAD_REACTORS
330
1A
102
}
330
1A
100
AcDbPlotSettings
  1

  2
none_device
  4

  6

 40
0.0
 41
0.0
 42
0.0
 43
0.0
 44
0.0
 45
0.0
 46
0.0
 47
0.0
 48
0.0
 49
0.0
140
0.0
141
0.0
142
1.0
143
1.0
 70
   688
 72
     0
 73
     0
 74
     5
  7

 75
    16
147
1.0
148
0.0
149
0.0
100
AcDbLayout
  1
Layout1
 70
     1
 71
     1
 10
0.0
 20
0.0
 11
12.0
 21
9.0
 12
0.0
 22
0.0
 32
0.0
 14
1.0000000000E+20
 24
1.0000000000E+20
 34
1.0000000000E+20
 15
-1.0000000000E+20
 25
-1.0000000000E+20
 35
-1.0000000000E+20
146
0.0
 13
0.0
 23
0.0
 33
0.0
 16
1.0
 26
0.0
 36
0.0
 17
0.0
 27
1.0
 37
0.0
 76
     0
330
1B
  0
LAYOUT
  5
26
102
{ACAD_REACTORS
330
1A
102
}
330
1A
100
AcDbPlotSettings
  1

  2
none_device
  4

  6

 40
0.0
 41
0.0
 42
0.0
 43
0.0
 44
0.0
 45
0.0
 46
0.0
 47
0.0
 48
0.0
 49
0.0
140
0.0
141
0.0
142
1.0
143
1.0
 70
   688
 72
     0
 73
     0
 74
     5
  7

 75
    16
147
1.0
148
0.0
149
0.0
100
AcDbLayout
  1
Layout2
 70
     1
 71
     2
 10
0.0
 20
0.0
 11
0.0
 21
0.0
 12
0.0
 22
0.0
 32
0.0
 14
0.0
 24
0.0
 34
0.0
 15
0.0
 25
0.0
 35
0.0
146
0.0
 13
0.0
 23
0.0
 33
0.0
 16
1.0
 26
0.0
 36
0.0
 17
0.0
 27
1.0
 37
0.0
 76
     0
330
23
  0
LAYOUT
  5
22
102
{ACAD_REACTORS
330
1A
102
}
330
1A
100
AcDbPlotSettings
  1

  2
none_device
  4

  6

 40
0.0
 41
0.0
 42
0.0
 43
0.0
 44
0.0
 45
0.0
 46
0.0
 47
0.0
 48
0.0
 49
0.0
140
0.0
141
0.0
142
1.0
143
1.0
 70
  1712
 72
     0
 73
     0
 74
     0
  7

 75
     0
147
1.0
148
0.0
149
0.0
100
AcDbLayout
  1
Model
 70
     1
 71
     0
 10
0.0
 20
0.0
 11
51.0
 21
33.0
 12
0.0
 22
0.0
 32
0.0
 14
0.0
 24
0.0
 34
0.0
 15
51.0
 25
33.0
 35
0.0
146
0.0
 13
0.0
 23
0.0
 33
0.0
 16
1.0
 26
0.0
 36
0.0
 17
0.0
 27
1.0
 37
0.0
 76
     0
330
1F
331
29
  0
MATERIAL
  5
3D
102
{ACAD_REACTORS
330
3B
102
}
102
{ACAD_XDICTIONARY
360
427
102
}
330
3B
100
AcDbMaterial
  1
ByBlock
  0
MATERIAL
  5
3C
102
{ACAD_REACTORS
330
3B
102
}
102
{ACAD_XDICTIONARY
360
425
102
}
330
3B
100
AcDbMaterial
  1
ByLayer
  0
MATERIAL
  5
3E
102
{ACAD_REACTORS
330
3B
102
}
102
{ACAD_XDICTIONARY
360
429
102
}
330
3B
100
AcDbMaterial
  1
Global
  0
MLINESTYLE
  5
18
102
{ACAD_REACTORS
330
17
102
}
330
17
100
AcDbMlineStyle
  2
Standard
 70
     0
  3

 62
   256
 51
90.0
 52
90.0
 71
     2
 49
0.5
 62
   256
  6
BYLAYER
 49
-0.5
 62
   256
  6
BYLAYER
  0
ACDBPLACEHOLDER
  5
F
102
{ACAD_REACTORS
330
E
102
}
330
E
  0
SCALE
  5
59
102
{ACAD_REACTORS
330
58
102
}
330
58
100
AcDbScale
 70
     0
300
1:1
140
1.0
141
1.0
290
     1
  0
SCALE
  5
5A
102
{ACAD_REACTORS
330
58
102
}
330
58
100
AcDbScale
 70
     0
300
1:2
140
1.0
141
2.0
290
     0
  0
SCALE
  5
5B
102
{ACAD_REACTORS
330
58
102
}
330
58
100
AcDbScale
 70
     0
300
1:4
140
1.0
141
4.0
290
     0
  0
SCALE
  5
5C
102
{ACAD_REACTORS
330
58
102
}
330
58
100
AcDbScale
 70
     0
300
1:5
140
1.0
141
5.0
290
     0
  0
SCALE
  5
5D
102
{ACAD_REACTORS
330
58
102
}
330
58
100
AcDbScale
 70
     0
300
1:8
140
1.0
141
8.0
290
     0
  0
SCALE
  5
5E
102
{ACAD_REACTORS
330
58
102
}
330
58
100
AcDbScale
 70
     0
300
1:10
140
1.0
141
10.0
290
     0
  0
SCALE
  5
5F
102
{ACAD_REACTORS
330
58
102
}
330
58
100
AcDbScale
 70
     0
300
1:16
140
1.0
141
16.0
290
     0
  0
SCALE
  5
60
102
{ACAD_REACTORS
330
58
102
}
330
58
100
AcDbScale
 70
     0
300
1:20
140
1.0
141
20.0
290
     0
  0
SCALE
  5
61
102
{ACAD_REACTORS
330
58
102
}
330
58
100
AcDbScale
 70
     0
300
1:30
140
1.0
141
30.0
290
     0
  0
SCALE
  5
62
102
{ACAD_REACTORS
330
58
102
}
330
58
100
AcDbScale
 70
     0
300
1:40
140
1.0
141
40.0
290
     0
  0
SCALE
  5
63
102
{ACAD_REACTORS
330
58
102
}
330
58
100
AcDbScale
 70
     0
300
1:50
140
1.0
141
50.0
290
     0
  0
SCALE
  5
64
102
{ACAD_REACTORS
330
58
102
}
330
58
100
AcDbScale
 70
     0
300
1:100
140
1.0
141
100.0
290
     0
  0
SCALE
  5
65
102
{ACAD_REACTORS
330
58
102
}
330
58
100
AcDbScale
 70
     0
300
2:1
140
2.0
141
1.0
290
     0
  0
SCALE
  5
66
102
{ACAD_REACTORS
330
58
102
}
330
58
100
AcDbScale
 70
     0
300
4:1
140
4.0
141
1.0
290
     0
  0
SCALE
  5
67
102
{ACAD_REACTORS
330
58
102
}
330
58
100
AcDbScale
 70
     0
300
8:1
140
8.0
141
1.0
290
     0
  0
SCALE
  5
68
102
{ACAD_REACTORS
330
58
102
}
330
58
100
AcDbScale
 70
     0
300
10:1
140
10.0
141
1.0
290
     0
  0
SCALE
  5
69
102
{ACAD_REACTORS
330
58
102
}
330
58
100
AcDbScale
 70
     0
300
100:1
140
100.0
141
1.0
290
     0
  0
SCALE
  5
6A
102
{ACAD_REACTORS
330
58
102
}
330
58
100
AcDbScale
 70
     0
300
1/128" = 1'-0"
140
0.0078125
141
12.0
290
     0
  0
SCALE
  5
6B
102
{ACAD_REACTORS
330
58
102
}
330
58
100
AcDbScale
 70
     0
300
1/64" = 1'-0"
140
0.015625
141
12.0
290
     0
  0
SCALE
  5
6C
102
{ACAD_REACTORS
330
58
102
}
330
58
100
AcDbScale
 70
     0
300
1/32" = 1'-0"
140
0.03125
141
12.0
290
     0
  0
SCALE
  5
6D
102
{ACAD_REACTORS
330
58
102
}
330
58
100
AcDbScale
 70
     0
300
1/16" = 1'-0"
140
0.0625
141
12.0
290
     0
  0
SCALE
  5
6E
102
{ACAD_REACTORS
330
58
102
}
330
58
100
AcDbScale
 70
     0
300
3/32" = 1'-0"
140
0.09375
141
12.0
290
     0
  0
SCALE
  5
6F
102
{ACAD_REACTORS
330
58
102
}
330
58
100
AcDbScale
 70
     0
300
1/8" = 1'-0"
140
0.125
141
12.0
290
     0
  0
SCALE
  5
70
102
{ACAD_REACTORS
330
58
102
}
330
58
100
AcDbScale
 70
     0
300
3/16" = 1'-0"
140
0.1875
141
12.0
290
     0
  0
SCALE
  5
71
102
{ACAD_REACTORS
330
58
102
}
330
58
100
AcDbScale
 70
     0
300
1/4" = 1'-0"
140
0.25
141
12.0
290
     0
  0
SCALE
  5
72
102
{ACAD_REACTORS
330
58
102
}
330
58
100
AcDbScale
 70
     0
300
3/8" = 1'-0"
140
0.375
141
12.0
290
     0
  0
SCALE
  5
73
102
{ACAD_REACTORS
330
58
102
}
330
58
100
AcDbScale
 70
     0
300
1/2" = 1'-0"
140
0.5
141
12.0
290
     0
  0
SCALE
  5
74
102
{ACAD_REACTORS
330
58
102
}
330
58
100
AcDbScale
 70
     0
300
3/4" = 1'-0"
140
0.75
141
12.0
290
     0
  0
SCALE
  5
75
102
{ACAD_REACTORS
330
58
102
}
330
58
100
AcDbScale
 70
     0
300
1" = 1'-0"
140
1.0
141
12.0
290
     0
  0
SCALE
  5
76
102
{ACAD_REACTORS
330
58
102
}
330
58
100
AcDbScale
 70
     0
300
1-1/2" = 1'-0"
140
1.5
141
12.0
290
     0
  0
SCALE
  5
77
102
{ACAD_REACTORS
330
58
102
}
330
58
100
AcDbScale
 70
     0
300
3" = 1'-0"
140
3.0
141
12.0
290
     0
  0
SCALE
  5
78
102
{ACAD_REACTORS
330
58
102
}
330
58
100
AcDbScale
 70
     0
300
6" = 1'-0"
140
6.0
141
12.0
290
     0
  0
SCALE
  5
79
102
{ACAD_REACTORS
330
58
102
}
330
58
100
AcDbScale
 70
     0
300
1'-0" = 1'-0"
140
12.0
141
12.0
290
     0
  0
VISUALSTYLE
  5
2F
102
{ACAD_REACTORS
330
2A
102
}
102
{ACAD_XDICTIONARY
360
40D
102
}
330
2A
100
AcDbVisualStyle
  2
2dWireframe
 70
     4
 71
     0
 72
     2
 73
     0
 90
        0
 40
-0.6
 41
-30.0
 62
     5
 63
     7
 74
     1
 91
        4
 64
     7
 65
   257
 75
     1
175
     1
 42
1.0
 92
        0
 66
   257
 43
1.0
 76
     1
 77
     6
 78
     2
 67
     7
 79
     5
170
     0
171
     0
290
     0
174
     0
 93
        1
 44
0.0
173
     0
291
     0
 45
0.0
1001
ACAD
1000
AcDbSavedByObjectVersion
1070
     0
  0
VISUALSTYLE
  5
31
102
{ACAD_REACTORS
330
2A
102
}
102
{ACAD_XDICTIONARY
360
411
102
}
330
2A
100
AcDbVisualStyle
  2
3D Hidden
 70
     6
 71
     1
 72
     2
 73
     2
 90
        0
 40
-0.6
 41
-30.0
 62
     5
 63
     7
 74
     2
 91
        2
 64
     7
 65
   257
 75
     2
175
     1
 42
40.0
 92
        0
 66
   257
 43
1.0
 76
     1
 77
     6
 78
     2
 67
     7
 79
     3
170
     0
171
     0
290
     0
174
     0
 93
        1
 44
0.0
173
     0
291
     0
 45
0.0
1001
ACAD
1000
AcDbSavedByObjectVersion
1070
     0
  0
VISUALSTYLE
  5
30
102
{ACAD_REACTORS
330
2A
102
}
102
{ACAD_XDICTIONARY
360
40F
102
}
330
2A
100
AcDbVisualStyle
  2
3dWireframe
 70
     5
 71
     0
 72
     2
 73
     0
 90
        0
 40
-0.6
 41
-30.0
 62
     5
 63
     7
 74
     1
 91
        4
 64
     7
 65
   257
 75
     1
175
     1
 42
1.0
 92
        0
 66
   257
 43
1.0
 76
     1
 77
     6
 78
     2
 67
     7
 79
     5
170
     0
171
     0
290
     0
174
     0
 93
        1
 44
0.0
173
     0
291
     0
 45
0.0
1001
ACAD
1000
AcDbSavedByObjectVersion
1070
     0
  0
VISUALSTYLE
  5
32
102
{ACAD_REACTORS
330
2A
102
}
102
{ACAD_XDICTIONARY
360
413
102
}
330
2A
100
AcDbVisualStyle
  2
Basic
 70
     7
 71
     1
 72
     0
 73
     1
 90
        0
 40
-0.6
 41
-30.0
 62
     5
 63
     7
 74
     0
 91
        4
 64
     7
 65
   257
 75
     1
175
     1
 42
1.0
 92
        8
 66
     7
 43
1.0
 76
     1
 77
     6
 78
     2
 67
     7
 79
     5
170
     0
171
     0
290
     0
174
     0
 93
        1
 44
0.0
173
     0
291
     1
 45
0.0
1001
ACAD
1000
AcDbSavedByObjectVersion
1070
     0
  0
VISUALSTYLE
  5
36
102
{ACAD_REACTORS
330
2A
102
}
102
{ACAD_XDICTIONARY
360
41B
102
}
330
2A
100
AcDbVisualStyle
  2
Brighten
 70
    12
 71
     2
 72
     2
 73
     0
 90
        0
 40
-0.6
 41
-30.0
 62
     5
 63
     7
 74
     1
 91
        4
 64
     7
 65
   257
 75
     1
175
     1
 42
1.0
 92
        8
 66
     7
 43
1.0
 76
     1
 77
     6
 78
     2
 67
     7
 79
     5
170
     0
171
     0
290
     0
174
     0
 93
        1
 44
50.0
173
     0
291
     1
 45
0.0
1001
ACAD
1000
AcDbSavedByObjectVersion
1070
     0
  0
VISUALSTYLE
  5
3A
102
{ACAD_REACTORS
330
2A
102
}
102
{ACAD_XDICTIONARY
360
423
102
}
330
2A
100
AcDbVisualStyle
  2
ColorChange
 70
    16
 71
     2
 72
     2
 73
     3
 90
        0
 40
-0.6
 41
-30.0
 62
     5
 63
     8
 74
     1
 91
        4
 64
     7
 65
   257
 75
     1
175
     1
 42
1.0
 92
        8
 66
     8
 43
1.0
 76
     1
 77
     6
 78
     2
 67
     7
 79
     5
170
     0
171
     0
290
     0
174
     0
 93
        1
 44
0.0
173
     0
291
     1
 45
0.0
1001
ACAD
1000
AcDbSavedByObjectVersion
1070
     0
  0
VISUALSTYLE
  5
34
102
{ACAD_REACTORS
330
2A
102
}
102
{ACAD_XDICTIONARY
360
417
102
}
330
2A
100
AcDbVisualStyle
  2
Conceptual
 70
     9
 71
     3
 72
     2
 73
     0
 90
        0
 40
-0.6
 41
-30.0
 62
     5
 63
     7
 74
     2
 91
        2
 64
     7
 65
   257
 75
     1
175
     1
 42
40.0
 92
        8
 66
     7
 43
1.0
 76
     1
 77
     6
 78
     2
 67
     7
 79
     3
170
     0
171
     0
290
     0
174
     0
 93
        1
 44
0.0
173
     0
291
     0
 45
0.0
1001
ACAD
1000
AcDbSavedByObjectVersion
1070
     0
  0
VISUALSTYLE
  5
35
102
{ACAD_REACTORS
330
2A
102
}
102
{ACAD_XDICTIONARY
360
419
102
}
330
2A
100
AcDbVisualStyle
  2
Dim
 70
    11
 71
     2
 72
     2
 73
     0
 90
        0
 40
-0.6
 41
-30.0
 62
     5
 63
     7
 74
     1
 91
        4
 64
     7
 65
   257
 75
     1
175
     1
 42
1.0
 92
        8
 66
     7
 43
1.0
 76
     1
 77
     6
 78
     2
 67
     7
 79
     5
170
     0
171
     0
290
     0
174
     0
 93
        1
 44
-50.0
173
     0
291
     1
 45
0.0
1001
ACAD
1000
AcDbSavedByObjectVersion
1070
     0
  0
VISUALSTYLE
  5
39
102
{ACAD_REACTORS
330
2A
102
}
102
{ACAD_XDICTIONARY
360
421
102
}
330
2A
100
AcDbVisualStyle
  2
Facepattern
 70
    15
 71
     2
 72
     2
 73
     0
 90
        0
 40
-0.6
 41
-30.0
 62
     5
 63
     7
 74
     1
 91
        4
 64
     7
 65
   257
 75
     1
175
     1
 42
1.0
 92
        8
 66
     7
 43
1.0
 76
     1
 77
     6
 78
     2
 67
     7
 79
     5
170
     0
171
     0
290
     0
174
     0
 93
        1
 44
0.0
173
     0
291
     1
 45
0.0
1001
ACAD
1000
AcDbSavedByObjectVersion
1070
     0
  0
VISUALSTYLE
  5
2B
102
{ACAD_REACTORS
330
2A
102
}
102
{ACAD_XDICTIONARY
360
405
102
}
330
2A
100
AcDbVisualStyle
  2
Flat
 70
     0
 71
     2
 72
     1
 73
     1
 90
        2
 40
-0.6
 41
30.0
 62
     5
 63
     7
 74
     0
 91
        4
 64
     7
 65
   257
 75
     1
175
     1
 42
1.0
 92
        8
 66
     7
 43
1.0
 76
     1
 77
     6
 78
     2
 67
     7
 79
     5
170
     0
171
     0
290
     0
174
     0
 93
       13
 44
0.0
173
     0
291
     1
 45
0.0
1001
ACAD
1000
AcDbSavedByObjectVersion
1070
     0
  0
VISUALSTYLE
  5
2C
102
{ACAD_REACTORS
330
2A
102
}
102
{ACAD_XDICTIONARY
360
407
102
}
330
2A
100
AcDbVisualStyle
  2
FlatWithEdges
 70
     1
 71
     2
 72
     1
 73
     1
 90
        2
 40
-0.6
 41
30.0
 62
     5
 63
     7
 74
     1
 91
        4
 64
     7
 65
   257
 75
     1
175
     1
 42
1.0
 92
        0
 66
   257
 43
1.0
 76
     1
 77
     6
 78
     2
 67
     7
 79
     5
170
     0
171
     0
290
     0
174
     0
 93
       13
 44
0.0
173
     0
291
     1
 45
0.0
1001
ACAD
1000
AcDbSavedByObjectVersion
1070
     0
  0
VISUALSTYLE
  5
2D
102
{ACAD_REACTORS
330
2A
102
}
102
{ACAD_XDICTIONARY
360
409
102
}
330
2A
100
AcDbVisualStyle
  2
Gouraud
 70
     2
 71
     2
 72
     2
 73
     1
 90
        2
 40
-0.6
 41
30.0
 62
     5
 63
     7
 74
     0
 91
        4
 64
     7
 65
   257
 75
     1
175
     1
 42
1.0
 92
        0
 66
     7
 43
1.0
 76
     1
 77
     6
 78
     2
 67
     7
 79
     5
170
     0
171
     0
290
     0
174
     0
 93
       13
 44
0.0
173
     0
291
     1
 45
0.0
1001
ACAD
1000
AcDbSavedByObjectVersion
1070
     0
  0
VISUALSTYLE
  5
2E
102
{ACAD_REACTORS
330
2A
102
}
102
{ACAD_XDICTIONARY
360
40B
102
}
330
2A
100
AcDbVisualStyle
  2
GouraudWithEdges
 70
     3
 71
     2
 72
     2
 73
     1
 90
        2
 40
-0.6
 41
30.0
 62
     5
 63
     7
 74
     1
 91
        4
 64
     7
 65
   257
 75
     1
175
     1
 42
1.0
 92
        0
 66
   257
 43
1.0
 76
     1
 77
     6
 78
     2
 67
     7
 79
     5
170
     0
171
     0
290
     0
174
     0
 93
       13
 44
0.0
173
     0
291
     1
 45
0.0
1001
ACAD
1000
AcDbSavedByObjectVersion
1070
     0
  0
VISUALSTYLE
  5
38
102
{ACAD_REACTORS
330
2A
102
}
102
{ACAD_XDICTIONARY
360
41F
102
}
330
2A
100
AcDbVisualStyle
  2
Linepattern
 70
    14
 71
     2
 72
     2
 73
     0
 90
        0
 40
-0.6
 41
-30.0
 62
     5
 63
     7
 74
     1
 91
        4
 64
     7
 65
   257
 75
     7
175
     7
 42
1.0
 92
        8
 66
     7
 43
1.0
 76
     1
 77
     6
 78
     2
 67
     7
 79
     5
170
     0
171
     0
290
     0
174
     0
 93
        1
 44
0.0
173
     0
291
     1
 45
0.0
1001
ACAD
1000
AcDbSavedByObjectVersion
1070
     0
  0
VISUALSTYLE
  5
33
102
{ACAD_REACTORS
330
2A
102
}
102
{ACAD_XDICTIONARY
360
415
102
}
330
2A
100
AcDbVisualStyle
  2
Realistic
 70
     8
 71
     2
 72
     2
 73
     0
 90
        0
 40
-0.6
 41
-30.0
 62
     5
 63
     7
 74
     1
 91
        0
 64
     7
 65
   257
 75
     1
175
     1
 42
1.0
 92
        8
 66
     8
 43
1.0
 76
     1
 77
     6
 78
     2
 67
     7
 79
     5
170
     0
171
     0
290
     0
174
     0
 93
       13
 44
0.0
173
     0
291
     0
 45
0.0
1001
ACAD
1000
AcDbSavedByObjectVersion
1070
     0
  0
VISUALSTYLE
  5
37
102
{ACAD_REACTORS
330
2A
102
}
102
{ACAD_XDICTIONARY
360
41D
102
}
330
2A
100
AcDbVisualStyle
  2
Thicken
 70
    13
 71
     2
 72
     2
 73
     0
 90
        0
 40
-0.6
 41
-30.0
 62
     5
 63
     7
 74
     1
 91
        4
 64
     7
 65
   257
 75
     1
175
     1
 42
1.0
 92
       12
 66
     7
 43
1.0
 76
     1
 77
     6
 78
     2
 67
     7
 79
     5
170
     0
171
     0
290
     0
174
     0
 93
        1
 44
0.0
173
     0
291
     1
 45
0.0
1001
ACAD
1000
AcDbSavedByObjectVersion
1070
     0
  0
DICTIONARYVAR
  5
402
102
{ACAD_REACTORS
330
3FF
102
}
330
3FF
100
DictionaryVariables
280
     0
  1
1:1
  0
DICTIONARYVAR
  5
403
102
{ACAD_REACTORS
330
3FF
102
}
330
3FF
100
DictionaryVariables
280
     0
  1
2
  0
DICTIONARYVAR
  5
404
102
{ACAD_REACTORS
330
3FF
102
}
330
3FF
100
DictionaryVariables
280
     0
  1
1
  0
DICTIONARY
  5
427
330
3D
100
AcDbDictionary
280
     1
281
     1
  3
ACAD_XREC_ROUNDTRIP
360
428
  0
DICTIONARY
  5
425
330
3C
100
AcDbDictionary
280
     1
281
     1
  3
ACAD_XREC_ROUNDTRIP
360
426
  0
DICTIONARY
  5
429
330
3E
100
AcDbDictionary
280
     1
281
     1
  3
ACAD_XREC_ROUNDTRIP
360
42A
  0
DICTIONARY
  5
40D
330
2F
100
AcDbDictionary
280
     1
281
     1
  3
ACAD_XREC_ROUNDTRIP
360
40E
  0
DICTIONARY
  5
411
330
31
100
AcDbDictionary
280
     1
281
     1
  3
ACAD_XREC_ROUNDTRIP
360
412
  0
DICTIONARY
  5
40F
330
30
100
AcDbDictionary
280
     1
281
     1
  3
ACAD_XREC_ROUNDTRIP
360
410
  0
DICTIONARY
  5
413
330
32
100
AcDbDictionary
280
     1
281
     1
  3
ACAD_XREC_ROUNDTRIP
360
414
  0
DICTIONARY
  5
41B
330
36
100
AcDbDictionary
280
     1
281
     1
  3
ACAD_XREC_ROUNDTRIP
360
41C
  0
DICTIONARY
  5
423
330
3A
100
AcDbDictionary
280
     1
281
     1
  3
ACAD_XREC_ROUNDTRIP
360
424
  0
DICTIONARY
  5
417
330
34
100
AcDbDictionary
280
     1
281
     1
  3
ACAD_XREC_ROUNDTRIP
360
418
  0
DICTIONARY
  5
419
330
35
100
AcDbDictionary
280
     1
281
     1
  3
ACAD_XREC_ROUNDTRIP
360
41A
  0
DICTIONARY
  5
421
330
39
100
AcDbDictionary
280
     1
281
     1
  3
ACAD_XREC_ROUNDTRIP
360
422
  0
DICTIONARY
  5
405
330
2B
100
AcDbDictionary
280
     1
281
     1
  3
ACAD_XREC_ROUNDTRIP
360
406
  0
DICTIONARY
  5
407
330
2C
100
AcDbDictionary
280
     1
281
     1
  3
ACAD_XREC_ROUNDTRIP
360
408
  0
DICTIONARY
  5
409
330
2D
100
AcDbDictionary
280
     1
281
     1
  3
ACAD_XREC_ROUNDTRIP
360
40A
  0
DICTIONARY
  5
40B
330
2E
100
AcDbDictionary
280
     1
281
     1
  3
ACAD_XREC_ROUNDTRIP
360
40C
  0
DICTIONARY
  5
41F
330
38
100
AcDbDictionary
280
     1
281
     1
  3
ACAD_XREC_ROUNDTRIP
360
420
  0
DICTIONARY
  5
415
330
33
100
AcDbDictionary
280
     1
281
     1
  3
ACAD_XREC_ROUNDTRIP
360
416
  0
DICTIONARY
  5
41D
330
37
100
AcDbDictionary
280
     1
281
     1
  3
ACAD_XREC_ROUNDTRIP
360
41E
  0
XRECORD
  5
428
102
{ACAD_REACTORS
330
427
102
}
330
427
100
AcDbXrecord
280
     1
102
MATERIAL
148
0.0
149
0.0
149
0.0
 93
        0
 94
      127
282
     0
 72
     1
 77
     1
171
     1
175
     1
179
     1
273
     0
  0
XRECORD
  5
426
102
{ACAD_REACTORS
330
425
102
}
330
425
100
AcDbXrecord
280
     1
102
MATERIAL
148
0.0
149
0.0
149
0.0
 93
        0
 94
      127
282
     0
 72
     1
 77
     1
171
     1
175
     1
179
     1
273
     0
  0
XRECORD
  5
42A
102
{ACAD_REACTORS
330
429
102
}
330
429
100
AcDbXrecord
280
     1
102
MATERIAL
148
0.0
149
0.0
149
0.0
 93
        0
 94
      127
282
     0
 72
     1
 77
     1
171
     1
175
     1
179
     1
273
     0
  0
XRECORD
  5
40E
102
{ACAD_REACTORS
330
40D
102
}
330
40D
100
AcDbXrecord
280
     1
102
RTVSPropertyOp0
 70
     1
102
RTVSPropertyOp1
 70
     1
102
RTVSPropertyOp2
 70
     1
102
RTVSPropertyOp3
 70
     1
102
RTVSPropertyOp4
 70
     1
102
RTVSPropertyOp5
 70
     1
102
RTVSPropertyOp6
 70
     1
102
RTVSPropertyOp7
 70
     1
102
RTVSPropertyOp8
 70
     1
102
RTVSPropertyOp9
 70
     1
102
RTVSPropertyOp10
 70
     1
102
RTVSPropertyOp11
 70
     1
102
RTVSPropertyOp12
 70
     1
102
RTVSPropertyOp13
 70
     1
102
RTVSPropertyOp14
 70
     1
102
RTVSPropertyOp15
 70
     1
102
RTVSPropertyOp16
 70
     1
102
RTVSPropertyOp17
 70
     1
102
RTVSPropertyOp18
 70
     1
102
RTVSPropertyOp19
 70
     1
102
RTVSPropertyOp20
 70
     1
102
RTVSPropertyOp21
 70
     1
102
RTVSPropertyOp22
 70
     1
102
RTVSPropertyOp23
 70
     1
102
RTVSPropertyOp24
 70
     1
102
RTVSPropertyOp25
 70
     1
102
RTVSPropertyOp26
 70
     1
102
RTVSPropertyOp27
 70
     1
  0
XRECORD
  5
412
102
{ACAD_REACTORS
330
411
102
}
330
411
100
AcDbXrecord
280
     1
102
RTVSPropertyOp0
 70
     1
102
RTVSPropertyOp1
 70
     1
102
RTVSPropertyOp2
 70
     1
102
RTVSPropertyOp3
 70
     1
102
RTVSPropertyOp4
 70
     1
102
RTVSPropertyOp5
 70
     1
102
RTVSPropertyOp6
 70
     1
102
RTVSPropertyOp7
 70
     1
102
RTVSPropertyOp8
 70
     1
102
RTVSPropertyOp9
 70
     1
102
RTVSPropertyOp10
 70
     1
102
RTVSPropertyOp11
 70
     1
102
RTVSPropertyOp12
 70
     1
102
RTVSPropertyOp13
 70
     1
102
RTVSPropertyOp14
 70
     1
102
RTVSPropertyOp15
 70
     1
102
RTVSPropertyOp16
 70
     1
102
RTVSPropertyOp17
 70
     1
102
RTVSPropertyOp18
 70
     1
102
RTVSPropertyOp19
 70
     1
102
RTVSPropertyOp20
 70
     1
102
RTVSPropertyOp21
 70
     1
102
RTVSPropertyOp22
 70
     1
102
RTVSPropertyOp23
 70
     1
102
RTVSPropertyOp24
 70
     1
102
RTVSPropertyOp25
 70
     1
102
RTVSPropertyOp26
 70
     1
102
RTVSPropertyOp27
 70
     1
  0
XRECORD
  5
410
102
{ACAD_REACTORS
330
40F
102
}
330
40F
100
AcDbXrecord
280
     1
102
RTVSPropertyOp0
 70
     1
102
RTVSPropertyOp1
 70
     1
102
RTVSPropertyOp2
 70
     1
102
RTVSPropertyOp3
 70
     1
102
RTVSPropertyOp4
 70
     1
102
RTVSPropertyOp5
 70
     1
102
RTVSPropertyOp6
 70
     1
102
RTVSPropertyOp7
 70
     1
102
RTVSPropertyOp8
 70
     1
102
RTVSPropertyOp9
 70
     1
102
RTVSPropertyOp10
 70
     1
102
RTVSPropertyOp11
 70
     1
102
RTVSPropertyOp12
 70
     1
102
RTVSPropertyOp13
 70
     1
102
RTVSPropertyOp14
 70
     1
102
RTVSPropertyOp15
 70
     1
102
RTVSPropertyOp16
 70
     1
102
RTVSPropertyOp17
 70
     1
102
RTVSPropertyOp18
 70
     1
102
RTVSPropertyOp19
 70
     1
102
RTVSPropertyOp20
 70
     1
102
RTVSPropertyOp21
 70
     1
102
RTVSPropertyOp22
 70
     1
102
RTVSPropertyOp23
 70
     1
102
RTVSPropertyOp24
 70
     1
102
RTVSPropertyOp25
 70
     1
102
RTVSPropertyOp26
 70
     1
102
RTVSPropertyOp27
 70
     1
  0
XRECORD
  5
414
102
{ACAD_REACTORS
330
413
102
}
330
413
100
AcDbXrecord
280
     1
102
RTVSPropertyOp0
 70
     1
102
RTVSPropertyOp1
 70
     1
102
RTVSPropertyOp2
 70
     1
102
RTVSPropertyOp3
 70
     1
102
RTVSPropertyOp4
 70
     1
102
RTVSPropertyOp5
 70
     1
102
RTVSPropertyOp6
 70
     1
102
RTVSPropertyOp7
 70
     1
102
RTVSPropertyOp8
 70
     1
102
RTVSPropertyOp9
 70
     1
102
RTVSPropertyOp10
 70
     1
102
RTVSPropertyOp11
 70
     1
102
RTVSPropertyOp12
 70
     1
102
RTVSPropertyOp13
 70
     1
102
RTVSPropertyOp14
 70
     1
102
RTVSPropertyOp15
 70
     1
102
RTVSPropertyOp16
 70
     1
102
RTVSPropertyOp17
 70
     1
102
RTVSPropertyOp18
 70
     1
102
RTVSPropertyOp19
 70
     1
102
RTVSPropertyOp20
 70
     1
102
RTVSPropertyOp21
 70
     1
102
RTVSPropertyOp22
 70
     1
102
RTVSPropertyOp23
 70
     1
102
RTVSPropertyOp24
 70
     1
102
RTVSPropertyOp25
 70
     1
102
RTVSPropertyOp26
 70
     1
102
RTVSPropertyOp27
 70
     1
  0
XRECORD
  5
41C
102
{ACAD_REACTORS
330
41B
102
}
330
41B
100
AcDbXrecord
280
     1
102
RTVSPropertyOp0
 70
     1
102
RTVSPropertyOp1
 70
     1
102
RTVSPropertyOp2
 70
     1
102
RTVSPropertyOp3
 70
     1
102
RTVSPropertyOp4
 70
     1
102
RTVSPropertyOp5
 70
     1
102
RTVSPropertyOp6
 70
     1
102
RTVSPropertyOp7
 70
     1
102
RTVSPropertyOp8
 70
     1
102
RTVSPropertyOp9
 70
     1
102
RTVSPropertyOp10
 70
     1
102
RTVSPropertyOp11
 70
     1
102
RTVSPropertyOp12
 70
     1
102
RTVSPropertyOp13
 70
     1
102
RTVSPropertyOp14
 70
     1
102
RTVSPropertyOp15
 70
     1
102
RTVSPropertyOp16
 70
     1
102
RTVSPropertyOp17
 70
     1
102
RTVSPropertyOp18
 70
     1
102
RTVSPropertyOp19
 70
     1
102
RTVSPropertyOp20
 70
     1
102
RTVSPropertyOp21
 70
     1
102
RTVSPropertyOp22
 70
     1
102
RTVSPropertyOp23
 70
     1
102
RTVSPropertyOp24
 70
     1
102
RTVSPropertyOp25
 70
     1
102
RTVSPropertyOp26
 70
     1
102
RTVSPropertyOp27
 70
     1
  0
XRECORD
  5
424
102
{ACAD_REACTORS
330
423
102
}
330
423
100
AcDbXrecord
280
     1
102
RTVSPropertyOp0
 70
     1
102
RTVSPropertyOp1
 70
     1
102
RTVSPropertyOp2
 70
     1
102
RTVSPropertyOp3
 70
     1
102
RTVSPropertyOp4
 70
     1
102
RTVSPropertyOp5
 70
     1
102
RTVSPropertyOp6
 70
     1
102
RTVSPropertyOp7
 70
     1
102
RTVSPropertyOp8
 70
     1
102
RTVSPropertyOp9
 70
     1
102
RTVSPropertyOp10
 70
     1
102
RTVSPropertyOp11
 70
     1
102
RTVSPropertyOp12
 70
     1
102
RTVSPropertyOp13
 70
     1
102
RTVSPropertyOp14
 70
     1
102
RTVSPropertyOp15
 70
     1
102
RTVSPropertyOp16
 70
     1
102
RTVSPropertyOp17
 70
     1
102
RTVSPropertyOp18
 70
     1
102
RTVSPropertyOp19
 70
     1
102
RTVSPropertyOp20
 70
     1
102
RTVSPropertyOp21
 70
     1
102
RTVSPropertyOp22
 70
     1
102
RTVSPropertyOp23
 70
     1
102
RTVSPropertyOp24
 70
     1
102
RTVSPropertyOp25
 70
     1
102
RTVSPropertyOp26
 70
     1
102
RTVSPropertyOp27
 70
     1
  0
XRECORD
  5
418
102
{ACAD_REACTORS
330
417
102
}
330
417
100
AcDbXrecord
280
     1
102
RTVSPropertyOp0
 70
     1
102
RTVSPropertyOp1
 70
     1
102
RTVSPropertyOp2
 70
     1
102
RTVSPropertyOp3
 70
     1
102
RTVSPropertyOp4
 70
     1
102
RTVSPropertyOp5
 70
     1
102
RTVSPropertyOp6
 70
     1
102
RTVSPropertyOp7
 70
     1
102
RTVSPropertyOp8
 70
     1
102
RTVSPropertyOp9
 70
     1
102
RTVSPropertyOp10
 70
     1
102
RTVSPropertyOp11
 70
     1
102
RTVSPropertyOp12
 70
     1
102
RTVSPropertyOp13
 70
     1
102
RTVSPropertyOp14
 70
     1
102
RTVSPropertyOp15
 70
     1
102
RTVSPropertyOp16
 70
     1
102
RTVSPropertyOp17
 70
     1
102
RTVSPropertyOp18
 70
     1
102
RTVSPropertyOp19
 70
     1
102
RTVSPropertyOp20
 70
     1
102
RTVSPropertyOp21
 70
     1
102
RTVSPropertyOp22
 70
     1
102
RTVSPropertyOp23
 70
     1
102
RTVSPropertyOp24
 70
     1
102
RTVSPropertyOp25
 70
     1
102
RTVSPropertyOp26
 70
     1
102
RTVSPropertyOp27
 70
     1
  0
XRECORD
  5
41A
102
{ACAD_REACTORS
330
419
102
}
330
419
100
AcDbXrecord
280
     1
102
RTVSPropertyOp0
 70
     1
102
RTVSPropertyOp1
 70
     1
102
RTVSPropertyOp2
 70
     1
102
RTVSPropertyOp3
 70
     1
102
RTVSPropertyOp4
 70
     1
102
RTVSPropertyOp5
 70
     1
102
RTVSPropertyOp6
 70
     1
102
RTVSPropertyOp7
 70
     1
102
RTVSPropertyOp8
 70
     1
102
RTVSPropertyOp9
 70
     1
102
RTVSPropertyOp10
 70
     1
102
RTVSPropertyOp11
 70
     1
102
RTVSPropertyOp12
 70
     1
102
RTVSPropertyOp13
 70
     1
102
RTVSPropertyOp14
 70
     1
102
RTVSPropertyOp15
 70
     1
102
RTVSPropertyOp16
 70
     1
102
RTVSPropertyOp17
 70
     1
102
RTVSPropertyOp18
 70
     1
102
RTVSPropertyOp19
 70
     1
102
RTVSPropertyOp20
 70
     1
102
RTVSPropertyOp21
 70
     1
102
RTVSPropertyOp22
 70
     1
102
RTVSPropertyOp23
 70
     1
102
RTVSPropertyOp24
 70
     1
102
RTVSPropertyOp25
 70
     1
102
RTVSPropertyOp26
 70
     1
102
RTVSPropertyOp27
 70
     1
  0
XRECORD
  5
422
102
{ACAD_REACTORS
330
421
102
}
330
421
100
AcDbXrecord
280
     1
102
RTVSPropertyOp0
 70
     1
102
RTVSPropertyOp1
 70
     1
102
RTVSPropertyOp2
 70
     1
102
RTVSPropertyOp3
 70
     1
102
RTVSPropertyOp4
 70
     1
102
RTVSPropertyOp5
 70
     1
102
RTVSPropertyOp6
 70
     1
102
RTVSPropertyOp7
 70
     1
102
RTVSPropertyOp8
 70
     1
102
RTVSPropertyOp9
 70
     1
102
RTVSPropertyOp10
 70
     1
102
RTVSPropertyOp11
 70
     1
102
RTVSPropertyOp12
 70
     1
102
RTVSPropertyOp13
 70
     1
102
RTVSPropertyOp14
 70
     1
102
RTVSPropertyOp15
 70
     1
102
RTVSPropertyOp16
 70
     1
102
RTVSPropertyOp17
 70
     1
102
RTVSPropertyOp18
 70
     1
102
RTVSPropertyOp19
 70
     1
102
RTVSPropertyOp20
 70
     1
102
RTVSPropertyOp21
 70
     1
102
RTVSPropertyOp22
 70
     1
102
RTVSPropertyOp23
 70
     1
102
RTVSPropertyOp24
 70
     1
102
RTVSPropertyOp25
 70
     1
102
RTVSPropertyOp26
 70
     1
102
RTVSPropertyOp27
 70
     1
  0
XRECORD
  5
406
102
{ACAD_REACTORS
330
405
102
}
330
405
100
AcDbXrecord
280
     1
102
RTVSPropertyOp0
 70
     1
102
RTVSPropertyOp1
 70
     1
102
RTVSPropertyOp2
 70
     1
102
RTVSPropertyOp3
 70
     1
102
RTVSPropertyOp4
 70
     1
102
RTVSPropertyOp5
 70
     1
102
RTVSPropertyOp6
 70
     1
102
RTVSPropertyOp7
 70
     1
102
RTVSPropertyOp8
 70
     1
102
RTVSPropertyOp9
 70
     1
102
RTVSPropertyOp10
 70
     1
102
RTVSPropertyOp11
 70
     1
102
RTVSPropertyOp12
 70
     1
102
RTVSPropertyOp13
 70
     1
102
RTVSPropertyOp14
 70
     1
102
RTVSPropertyOp15
 70
     1
102
RTVSPropertyOp16
 70
     1
102
RTVSPropertyOp17
 70
     1
102
RTVSPropertyOp18
 70
     1
102
RTVSPropertyOp19
 70
     1
102
RTVSPropertyOp20
 70
     1
102
RTVSPropertyOp21
 70
     1
102
RTVSPropertyOp22
 70
     1
102
RTVSPropertyOp23
 70
     1
102
RTVSPropertyOp24
 70
     1
102
RTVSPropertyOp25
 70
     1
102
RTVSPropertyOp26
 70
     1
102
RTVSPropertyOp27
 70
     1
  0
XRECORD
  5
408
102
{ACAD_REACTORS
330
407
102
}
330
407
100
AcDbXrecord
280
     1
102
RTVSPropertyOp0
 70
     1
102
RTVSPropertyOp1
 70
     1
102
RTVSPropertyOp2
 70
     1
102
RTVSPropertyOp3
 70
     1
102
RTVSPropertyOp4
 70
     1
102
RTVSPropertyOp5
 70
     1
102
RTVSPropertyOp6
 70
     1
102
RTVSPropertyOp7
 70
     1
102
RTVSPropertyOp8
 70
     1
102
RTVSPropertyOp9
 70
     1
102
RTVSPropertyOp10
 70
     1
102
RTVSPropertyOp11
 70
     1
102
RTVSPropertyOp12
 70
     1
102
RTVSPropertyOp13
 70
     1
102
RTVSPropertyOp14
 70
     1
102
RTVSPropertyOp15
 70
     1
102
RTVSPropertyOp16
 70
     1
102
RTVSPropertyOp17
 70
     1
102
RTVSPropertyOp18
 70
     1
102
RTVSPropertyOp19
 70
     1
102
RTVSPropertyOp20
 70
     1
102
RTVSPropertyOp21
 70
     1
102
RTVSPropertyOp22
 70
     1
102
RTVSPropertyOp23
 70
     1
102
RTVSPropertyOp24
 70
     1
102
RTVSPropertyOp25
 70
     1
102
RTVSPropertyOp26
 70
     1
102
RTVSPropertyOp27
 70
     1
  0
XRECORD
  5
40A
102
{ACAD_REACTORS
330
409
102
}
330
409
100
AcDbXrecord
280
     1
102
RTVSPropertyOp0
 70
     1
102
RTVSPropertyOp1
 70
     1
102
RTVSPropertyOp2
 70
     1
102
RTVSPropertyOp3
 70
     1
102
RTVSPropertyOp4
 70
     1
102
RTVSPropertyOp5
 70
     1
102
RTVSPropertyOp6
 70
     1
102
RTVSPropertyOp7
 70
     1
102
RTVSPropertyOp8
 70
     1
102
RTVSPropertyOp9
 70
     1
102
RTVSPropertyOp10
 70
     1
102
RTVSPropertyOp11
 70
     1
102
RTVSPropertyOp12
 70
     1
102
RTVSPropertyOp13
 70
     1
102
RTVSPropertyOp14
 70
     1
102
RTVSPropertyOp15
 70
     1
102
RTVSPropertyOp16
 70
     1
102
RTVSPropertyOp17
 70
     1
102
RTVSPropertyOp18
 70
     1
102
RTVSPropertyOp19
 70
     1
102
RTVSPropertyOp20
 70
     1
102
RTVSPropertyOp21
 70
     1
102
RTVSPropertyOp22
 70
     1
102
RTVSPropertyOp23
 70
     1
102
RTVSPropertyOp24
 70
     1
102
RTVSPropertyOp25
 70
     1
102
RTVSPropertyOp26
 70
     1
102
RTVSPropertyOp27
 70
     1
  0
XRECORD
  5
40C
102
{ACAD_REACTORS
330
40B
102
}
330
40B
100
AcDbXrecord
280
     1
102
RTVSPropertyOp0
 70
     1
102
RTVSPropertyOp1
 70
     1
102
RTVSPropertyOp2
 70
     1
102
RTVSPropertyOp3
 70
     1
102
RTVSPropertyOp4
 70
     1
102
RTVSPropertyOp5
 70
     1
102
RTVSPropertyOp6
 70
     1
102
RTVSPropertyOp7
 70
     1
102
RTVSPropertyOp8
 70
     1
102
RTVSPropertyOp9
 70
     1
102
RTVSPropertyOp10
 70
     1
102
RTVSPropertyOp11
 70
     1
102
RTVSPropertyOp12
 70
     1
102
RTVSPropertyOp13
 70
     1
102
RTVSPropertyOp14
 70
     1
102
RTVSPropertyOp15
 70
     1
102
RTVSPropertyOp16
 70
     1
102
RTVSPropertyOp17
 70
     1
102
RTVSPropertyOp18
 70
     1
102
RTVSPropertyOp19
 70
     1
102
RTVSPropertyOp20
 70
     1
102
RTVSPropertyOp21
 70
     1
102
RTVSPropertyOp22
 70
     1
102
RTVSPropertyOp23
 70
     1
102
RTVSPropertyOp24
 70
     1
102
RTVSPropertyOp25
 70
     1
102
RTVSPropertyOp26
 70
     1
102
RTVSPropertyOp27
 70
     1
  0
XRECORD
  5
420
102
{ACAD_REACTORS
330
41F
102
}
330
41F
100
AcDbXrecord
280
     1
102
RTVSPropertyOp0
 70
     1
102
RTVSPropertyOp1
 70
     1
102
RTVSPropertyOp2
 70
     1
102
RTVSPropertyOp3
 70
     1
102
RTVSPropertyOp4
 70
     1
102
RTVSPropertyOp5
 70
     1
102
RTVSPropertyOp6
 70
     1
102
RTVSPropertyOp7
 70
     1
102
RTVSPropertyOp8
 70
     1
102
RTVSPropertyOp9
 70
     1
102
RTVSPropertyOp10
 70
     1
102
RTVSPropertyOp11
 70
     1
102
RTVSPropertyOp12
 70
     1
102
RTVSPropertyOp13
 70
     1
102
RTVSPropertyOp14
 70
     1
102
RTVSPropertyOp15
 70
     1
102
RTVSPropertyOp16
 70
     1
102
RTVSPropertyOp17
 70
     1
102
RTVSPropertyOp18
 70
     1
102
RTVSPropertyOp19
 70
     1
102
RTVSPropertyOp20
 70
     1
102
RTVSPropertyOp21
 70
     1
102
RTVSPropertyOp22
 70
     1
102
RTVSPropertyOp23
 70
     1
102
RTVSPropertyOp24
 70
     1
102
RTVSPropertyOp25
 70
     1
102
RTVSPropertyOp26
 70
     1
102
RTVSPropertyOp27
 70
     1
  0
XRECORD
  5
416
102
{ACAD_REACTORS
330
415
102
}
330
415
100
AcDbXrecord
280
     1
102
RTVSPropertyOp0
 70
     1
102
RTVSPropertyOp1
 70
     1
102
RTVSPropertyOp2
 70
     1
102
RTVSPropertyOp3
 70
     1
102
RTVSPropertyOp4
 70
     1
102
RTVSPropertyOp5
 70
     1
102
RTVSPropertyOp6
 70
     1
102
RTVSPropertyOp7
 70
     1
102
RTVSPropertyOp8
 70
     1
102
RTVSPropertyOp9
 70
     1
102
RTVSPropertyOp10
 70
     1
102
RTVSPropertyOp11
 70
     1
102
RTVSPropertyOp12
 70
     1
102
RTVSPropertyOp13
 70
     1
102
RTVSPropertyOp14
 70
     1
102
RTVSPropertyOp15
 70
     1
102
RTVSPropertyOp16
 70
     1
102
RTVSPropertyOp17
 70
     1
102
RTVSPropertyOp18
 70
     1
102
RTVSPropertyOp19
 70
     1
102
RTVSPropertyOp20
 70
     1
102
RTVSPropertyOp21
 70
     1
102
RTVSPropertyOp22
 70
     1
102
RTVSPropertyOp23
 70
     1
102
RTVSPropertyOp24
 70
     1
102
RTVSPropertyOp25
 70
     1
102
RTVSPropertyOp26
 70
     1
102
RTVSPropertyOp27
 70
     1
  0
XRECORD
  5
41E
102
{ACAD_REACTORS
330
41D
102
}
330
41D
100
AcDbXrecord
280
     1
102
RTVSPropertyOp0
 70
     1
102
RTVSPropertyOp1
 70
     1
102
RTVSPropertyOp2
 70
     1
102
RTVSPropertyOp3
 70
     1
102
RTVSPropertyOp4
 70
     1
102
RTVSPropertyOp5
 70
     1
102
RTVSPropertyOp6
 70
     1
102
RTVSPropertyOp7
 70
     1
102
RTVSPropertyOp8
 70
     1
102
RTVSPropertyOp9
 70
     1
102
RTVSPropertyOp10
 70
     1
102
RTVSPropertyOp11
 70
     1
102
RTVSPropertyOp12
 70
     1
102
RTVSPropertyOp13
 70
     1
102
RTVSPropertyOp14
 70
     1
102
RTVSPropertyOp15
 70
     1
102
RTVSPropertyOp16
 70
     1
102
RTVSPropertyOp17
 70
     1
102
RTVSPropertyOp18
 70
     1
102
RTVSPropertyOp19
 70
     1
102
RTVSPropertyOp20
 70
     1
102
RTVSPropertyOp21
 70
     1
102
RTVSPropertyOp22
 70
     1
102
RTVSPropertyOp23
 70
     1
102
RTVSPropertyOp24
 70
     1
102
RTVSPropertyOp25
 70
     1
102
RTVSPropertyOp26
 70
     1
102
RTVSPropertyOp27
 70
     1
  0
ENDSEC
  0
EOF
