  0
SECTION
  2
HEADER
  9
$ACADVER
  1
AC1015
  9
$ACADMAINTVER
 70
     6
  9
$DWGCODEPAGE
  3
ANSI_1252
  9
$INSBASE
 10
0.0
 20
0.0
 30
0.0
  9
$EXTMIN
 10
0.0
 20
0.0
 30
0.0
  9
$EXTMAX
 10
51.0
 20
33.0
 30
0.0
  9
$LIMMIN
 10
0.0
 20
0.0
  9
$LIMMAX
 10
51.0
 20
33.0
  9
$ORTHOMODE
 70
     0
  9
$REGENMODE
 70
     1
  9
$FILLMODE
 70
     1
  9
$QTEXTMODE
 70
     0
  9
$MIRRTEXT
 70
     1
  9
$LTSCALE
 40
3.0
  9
$ATTMODE
 70
     1
  9
$TEXTSIZE
 40
0.375
  9
$TRACEWID
 40
0.05
  9
$TEXTSTYLE
  7
Standard
  9
$CLAYER
  8
0
  9
$CELTYPE
  6
ByLayer
  9
$CECOLOR
 62
   256
  9
$CELTSCALE
 40
1.0
  9
$DISPSILH
 70
     0
  9
$DIMSCALE
 40
1.0
  9
$DIMASZ
 40
0.39
  9
$DIMEXO
 40
0.15
  9
$DIMDLI
 40
0.38
  9
$DIMRND
 40
0.0
  9
$DIMDLE
 40
0.0
  9
$DIMEXE
 40
0.375
  9
$DIMTP
 40
0.0
  9
$DIMTM
 40
0.0
  9
$DIMTXT
 40
0.375
  9
$DIMCEN
 40
0.09
  9
$DIMTSZ
 40
0.0
  9
$DIMTOL
 70
     0
  9
$DIMLIM
 70
     0
  9
$DIMTIH
 70
     1
  9
$DIMTOH
 70
     1
  9
$DIMSE1
 70
     0
  9
$DIMSE2
 70
     0
  9
$DIMTAD
 70
     1
  9
$DIMZIN
 70
     0
  9
$DIMBLK
  1

  9
$DIMASO
 70
     1
  9
$DIMSHO
 70
     1
  9
$DIMPOST
  1

  9
$DIMAPOST
  1

  9
$DIMALT
 70
     0
  9
$DIMALTD
 70
     2
  9
$DIMALTF
 40
25.4
  9
$DIMLFAC
 40
1.0
  9
$DIMTOFL
 70
     0
  9
$DIMTVP
 40
0.0
  9
$DIMTIX
 70
     0
  9
$DIMSOXD
 70
     0
  9
$DIMSAH
 70
     0
  9
$DIMBLK1
  1

  9
$DIMBLK2
  1

  9
$DIMSTYLE
  2
Standard
  9
$DIMCLRD
 70
     0
  9
$DIMCLRE
 70
     0
  9
$DIMCLRT
 70
     0
  9
$DIMTFAC
 40
1.0
  9
$DIMGAP
 40
0.18
  9
$DIMJUST
 70
     0
  9
$DIMSD1
 70
     0
  9
$DIMSD2
 70
     0
  9
$DIMTOLJ
 70
     1
  9
$DIMTZIN
 70
     0
  9
$DIMALTZ
 70
     0
  9
$DIMALTTZ
 70
     0
  9
$DIMUPT
 70
     0
  9
$DIMDEC
 70
     2
  9
$DIMTDEC
 70
     2
  9
$DIMALTU
 70
     2
  9
$DIMALTTD
 70
     2
  9
$DIMTXSTY
  7
Standard
  9
$DIMAUNIT
 70
     0
  9
$DIMADEC
 70
     2
  9
$DIMALTRND
 40
0.0
  9
$DIMAZIN
 70
     0
  9
$DIMDSEP
 70
    46
  9
$DIMATFIT
 70
     3
  9
$DIMFRAC
 70
     0
  9
$DIMLDRBLK
  1

  9
$DIMLUNIT
 70
     2
  9
$DIMLWD
 70
    -2
  9
$DIMLWE
 70
    -2
  9
$DIMTMOVE
 70
     0
  9
$LUNITS
 70
     2
  9
$LUPREC
 70
     2
  9
$SKETCHINC
 40
0.1
  9
$FILLETRAD
 40
0.5
  9
$AUNITS
 70
     0
  9
$AUPREC
 70
     2
  9
$MENU
  1
.
  9
$ELEVATION
 40
0.0
  9
$PELEVATION
 40
0.0
  9
$THICKNESS
 40
0.0
  9
$LIMCHECK
 70
     0
  9
$CHAMFERA
 40
0.5
  9
$CHAMFERB
 40
0.5
  9
$CHAMFERC
 40
1.0
  9
$CHAMFERD
 40
0.0
  9
$SKPOLY
 70
     0
  9
$TDCREATE
 40
2455761.411490116
  9
$TDUCREATE
 40
2455761.578156782
  9
$TDUPDATE
 40
2455761.411490127
  9
$TDUUPDATE
 40
2455761.578156794
  9
$TDINDWG
 40
0.0000000116
  9
$TDUSRTIMER
 40
0.0000000116
  9
$USRTIMER
 70
     1
  9
$ANGBASE
 50
0.0
  9
$ANGDIR
 70
     0
  9
$PDMODE
 70
     0
  9
$PDSIZE
 40
-1.0
  9
$PLINEWID
 40
0.0
  9
$SPLFRAME
 70
     0
  9
$SPLINETYPE
 70
     6
  9
$SPLINESEGS
 70
     8
  9
$HANDSEED
  5
42C
  9
$SURFTAB1
 70
     6
  9
$SURFTAB2
 70
     6
  9
$SURFTYPE
 70
     6
  9
$SURFU
 70
     6
  9
$SURFV
 70
     6
  9
$UCSBASE
  2

  9
$UCSNAME
  2

  9
$UCSORG
 10
0.0
 20
0.0
 30
0.0
  9
$UCSXDIR
 10
1.0
 20
0.0
 30
0.0
  9
$UCSYDIR
 10
0.0
 20
1.0
 30
0.0
  9
$UCSORTHOREF
  2

  9
$UCSORTHOVIEW
 70
     0
  9
$UCSORGTOP
 10
0.0
 20
0.0
 30
0.0
  9
$UCSORGBOTTOM
 10
0.0
 20
0.0
 30
0.0
  9
$UCSORGLEFT
 10
0.0
 20
0.0
 30
0.0
  9
$UCSORGRIGHT
 10
0.0
 20
0.0
 30
0.0
  9
$UCSORGFRONT
 10
0.0
 20
0.0
 30
0.0
  9
$UCSORGBACK
 10
0.0
 20
0.0
 30
0.0
  9
$PUCSBASE
  2

  9
$PUCSNAME
  2

  9
$PUCSORG
 10
0.0
 20
0.0
 30
0.0
  9
$PUCSXDIR
 10
1.0
 20
0.0
 30
0.0
  9
$PUCSYDIR
 10
0.0
 20
1.0
 30
0.0
  9
$PUCSORTHOREF
  2

  9
$PUCSORTHOVIEW
 70
     0
  9
$PUCSORGTOP
 10
0.0
 20
0.0
 30
0.0
  9
$PUCSORGBOTTOM
 10
0.0
 20
0.0
 30
0.0
  9
$PUCSORGLEFT
 10
0.0
 20
0.0
 30
0.0
  9
$PUCSORGRIGHT
 10
0.0
 20
0.0
 30
0.0
  9
$PUCSORGFRONT
 10
0.0
 20
0.0
 30
0.0
  9
$PUCSORGBACK
 10
0.0
 20
0.0
 30
0.0
  9
$USERI1
 70
     0
  9
$USERI2
 70
     0
  9
$USERI3
 70
     0
  9
$USERI4
 70
     0
  9
$USERI5
 70
     0
  9
$USERR1
 40
0.0
  9
$USERR2
 40
0.0
  9
$USERR3
 40
0.0
  9
$USERR4
 40
0.0
  9
$USERR5
 40
0.0
  9
$WORLDVIEW
 70
     1
  9
$SHADEDGE
 70
     3
  9
$SHADEDIF
 70
    70
  9
$TILEMODE
 70
     1
  9
$MAXACTVP
 70
    64
  9
$PINSBASE
 10
0.0
 20
0.0
 30
0.0
  9
$PLIMCHECK
 70
     0
  9
$PEXTMIN
 10
1.0000000000E+20
 20
1.0000000000E+20
 30
1.0000000000E+20
  9
$PEXTMAX
 10
-1.0000000000E+20
 20
-1.0000000000E+20
 30
-1.0000000000E+20
  9
$PLIMMIN
 10
0.0
 20
0.0
  9
$PLIMMAX
 10
12.0
 20
9.0
  9
$UNITMODE
 70
     0
  9
$VISRETAIN
 70
     1
  9
$PLINEGEN
 70
     0
  9
$PSLTSCALE
 70
     1
  9
$TREEDEPTH
 70
  3020
  9
$CMLSTYLE
  2
Standard
  9
$CMLJUST
 70
     0
  9
$CMLSCALE
 40
1.0
  9
$PROXYGRAPHICS
 70
     1
  9
$MEASUREMENT
 70
     0
  9
$CELWEIGHT
370
    -1
  9
$ENDCAPS
280
     0
  9
$JOINSTYLE
280
     0
  9
$LWDISPLAY
290
     1
  9
$INSUNITS
 70
     1
  9
$HYPERLINKBASE
  1

  9
$STYLESHEET
  1

  9
$XEDIT
290
     1
  9
$CEPSNTYPE
380
     0
  9
$PSTYLEMODE
290
     1
  9
$FINGERPRINTGUID
  2
{C316F2C5-DB67-4E23-BFD7-5BE6DC5C93DB}
  9
$VERSIONGUID
  2
{FAEB1C32-E019-11D5-929B-00C0DF256EC4}
  9
$EXTNAMES
290
     1
  9
$PSVPSCALE
 40
0.0
  9
$OLESTARTUP
290
     0
  0
ENDSEC
  0
SECTION
  2
CLASSES
  0
CLASS
  1
ACDBDICTIONARYWDFLT
  2
AcDbDictionaryWithDefault
  3
ObjectDBX Classes
 90
        0
280
     0
281
     0
  0
CLASS
  1
VISUALSTYLE
  2
AcDbVisualStyle
  3
ObjectDBX Classes
 90
     4095
280
     0
281
     0
  0
CLASS
  1
MATERIAL
  2
AcDbMaterial
  3
ObjectDBX Classes
 90
     1153
280
     0
281
     0
  0
CLASS
  1
SCALE
  2
AcDbScale
  3
ObjectDBX Classes
 90
     1153
280
     0
281
     0
  0
CLASS
  1
DICTIONARYVAR
  2
AcDbDictionaryVar
  3
ObjectDBX Classes
 90
        0
280
     0
281
     0
  0
CLASS
  1
ACDBPLACEHOLDER
  2
AcDbPlaceHolder
  3
ObjectDBX Classes
 90
        0
280
     0
281
     0
  0
CLASS
  1
LAYOUT
  2
AcDbLayout
  3
ObjectDBX Classes
 90
        0
280
     0
281
     0
  0
ENDSEC
  0
SECTION
  2
TABLES
  0
TABLE
  2
VPORT
  5
8
330
0
100
AcDbSymbolTable
 70
     1
  0
VPORT
  5
29
330
8
100
AcDbSymbolTableRecord
100
AcDbViewportTableRecord
  2
*Active
 70
     0
 10
0.0
 20
0.0
 11
1.0
 21
1.0
 12
25.5
 22
16.5
 13
0.0
 23
0.0
 14
0.5
 24
0.5
 15
0.5
 25
0.5
 16
0.0
 26
0.0
 36
1.0
 17
0.0
 27
0.0
 37
0.0
 40
33.0
 41
1.5454545455
 42
50.0
 43
0.0
 44
0.0
 50
0.0
 51
0.0
 71
     0
 72
  2000
 73
     1
 74
     3
 75
     0
 76
     0
 77
     0
 78
     0
281
     0
 65
     1
110
0.0
120
0.0
130
0.0
111
1.0
121
0.0
131
0.0
112
0.0
122
1.0
132
0.0
 79
     0
146
0.0
  0
ENDTAB
  0
TABLE
  2
LTYPE
  5
5
330
0
100
AcDbSymbolTable
 70
     6
  0
LTYPE
  5
14
330
5
100
AcDbSymbolTableRecord
100
AcDbLinetypeTableRecord
  2
ByBlock
 70
     0
  3

 72
    65
 73
     0
 40
0.0
  0
LTYPE
  5
15
330
5
100
AcDbSymbolTableRecord
100
AcDbLinetypeTableRecord
  2
ByLayer
 70
     0
  3

 72
    65
 73
     0
 40
0.0
  0
LTYPE
  5
16
330
5
100
AcDbSymbolTableRecord
100
AcDbLinetypeTableRecord
  2
Continuous
 70
     0
  3
Solid line
 72
    65
 73
     0
 40
0.0
  0
LTYPE
  5
3F
330
5
100
AcDbSymbolTableRecord
100
AcDbLinetypeTableRecord
  2
HIDDEN
 70
     0
  3
Hidden __ __ __ __ __ __ __ __ __ __ __ __ __ __
 72
    65
 73
     2
 40
0.075
 49
0.05
 74
     0
 49
-0.025
 74
     0
  0
LTYPE
  5
40
330
5
100
AcDbSymbolTableRecord
100
AcDbLinetypeTableRecord
  2
PHANTOM
 70
     0
  3
Phantom ______  __  __  ______  __  __  ______
 72
    65
 73
     6
 40
0.5
 49
0.25
 74
     0
 49
-0.05
 74
     0
 49
0.05
 74
     0
 49
-0.05
 74
     0
 49
0.05
 74
     0
 49
-0.05
 74
     0
  0
LTYPE
  5
41
330
5
100
AcDbSymbolTableRecord
100
AcDbLinetypeTableRecord
  2
CENTER
 70
     0
  3
Center ____ _ ____ _ ____ _ ____ _ ____ _ ____
 72
    65
 73
     4
 40
0.4
 49
0.25
 74
     0
 49
-0.05
 74
     0
 49
0.05
 74
     0
 49
-0.05
 74
     0
  0
LTYPE
  5
42
330
5
100
AcDbSymbolTableRecord
100
AcDbLinetypeTableRecord
  2
CENTERX2
 70
     0
  3
Center (2x) ________  __  ________  __  _____
 72
    65
 73
     4
 40
0.8
 49
0.5
 74
     0
 49
-0.1
 74
     0
 49
0.1
 74
     0
 49
-0.1
 74
     0
  0
LTYPE
  5
43
330
5
100
AcDbSymbolTableRecord
100
AcDbLinetypeTableRecord
  2
DOT2
 70
     0
  3
Dot (.5x) ........................................
 72
    65
 73
     2
 40
0.025
 49
0.0
 74
     0
 49
-0.025
 74
     0
  0
ENDTAB
  0
TABLE
  2
LAYER
  5
2
330
0
100
AcDbSymbolTable
 70
     1
  0
LAYER
  5
10
330
2
100
AcDbSymbolTableRecord
100
AcDbLayerTableRecord
  2
0
 70
     0
 62
     7
  6
Continuous
370
    -3
390
F
  0
ENDTAB
  0
TABLE
  2
STYLE
  5
3
330
0
100
AcDbSymbolTable
 70
     2
  0
STYLE
  5
11
330
3
100
AcDbSymbolTableRecord
100
AcDbTextStyleTableRecord
  2
Standard
 70
     0
 40
0.0
 41
1.0
 50
0.0
 71
     0
 42
0.2
  3
txt
  4

  0
STYLE
  5
57
330
3
100
AcDbSymbolTableRecord
100
AcDbTextStyleTableRecord
  2
SLDTEXTSTYLE0
 70
     0
 40
0.0
 41
0.75
 50
0.0
 71
     0
 42
0.2
  3
TXT
  4

  0
ENDTAB
  0
TABLE
  2
VIEW
  5
6
330
0
100
AcDbSymbolTable
 70
     0
  0
ENDTAB
  0
TABLE
  2
UCS
  5
7
330
0
100
AcDbSymbolTable
 70
     0
  0
ENDTAB
  0
TABLE
  2
APPID
  5
9
330
0
100
AcDbSymbolTable
 70
     1
  0
APPID
  5
12
330
9
100
AcDbSymbolTableRecord
100
AcDbRegAppTableRecord
  2
ACAD
 70
     0
  0
ENDTAB
  0
TABLE
  2
DIMSTYLE
  5
A
330
0
100
AcDbSymbolTable
 70
     5
100
AcDbDimStyleTable
  0
DIMSTYLE
105
27
330
A
100
AcDbSymbolTableRecord
100
AcDbDimStyleTableRecord
  2
Standard
 70
     0
340
11
  0
DIMSTYLE
105
D7
102
{ACAD_REACTORS
330
D6
330
E9
330
150
330
283
330
295
102
}
330
A
100
AcDbSymbolTableRecord
100
AcDbDimStyleTableRecord
  2
SLDDIMSTYLE0
 70
     0
 41
0.39
 44
0.0
 45
0.000000001
 78
     4
140
0.375
147
0.09375
148
0.000000001
170
     1
173
     1
271
     2
272
     2
284
    12
340
57
  0
DIMSTYLE
105
104
330
A
100
AcDbSymbolTableRecord
100
AcDbDimStyleTableRecord
  2
SLDDIMSTYLE1
 70
     0
 41
0.39
 44
0.0
 45
0.000000001
140
0.0
146
0.39
147
0.0
173
     1
271
     0
272
     0
340
11
  0
DIMSTYLE
105
2A8
102
{ACAD_REACTORS
330
2A7
102
}
330
A
100
AcDbSymbolTableRecord
100
AcDbDimStyleTableRecord
  2
SLDDIMSTYLE2
 70
     0
 41
0.39
 44
0.0
 45
0.000000001
 78
    12
140
0.375
147
0.09375
148
0.000000001
170
     1
172
     1
173
     1
271
     3
272
     3
284
    12
340
57
  0
DIMSTYLE
105
2B9
102
{ACAD_REACTORS
330
2B8
330
2CB
330
3E8
102
}
330
A
100
AcDbSymbolTableRecord
100
AcDbDimStyleTableRecord
  2
SLDDIMSTYLE3
 70
     0
 41
0.39
 44
0.0
 45
0.000000001
 78
     4
140
0.375
147
0.09375
148
0.000000001
170
     1
173
     1
271
     2
272
     2
284
    12
340
57
  0
ENDTAB
  0
TABLE
  2
BLOCK_RECORD
  5
1
330
0
100
AcDbSymbolTable
 70
    16
  0
BLOCK_RECORD
  5
1F
330
1
100
AcDbSymbolTableRecord
100
AcDbBlockTableRecord
  2
*Model_Space
340
22
  0
BLOCK_RECORD
  5
1B
330
1
100
AcDbSymbolTableRecord
100
AcDbBlockTableRecord
  2
*Paper_Space
340
1E
  0
BLOCK_RECORD
  5
23
330
1
100
AcDbSymbolTableRecord
100
AcDbBlockTableRecord
  2
*Paper_Space0
340
26
  0
BLOCK_RECORD
  5
54
330
1
100
AcDbSymbolTableRecord
100
AcDbBlockTableRecord
  2
SW_NOTE_0
340
0
102
{BLKREFS
331
7C
102
}
  0
BLOCK_RECORD
  5
80
330
1
100
AcDbSymbolTableRecord
100
AcDbBlockTableRecord
  2
SW_NOTE_1
340
0
102
{BLKREFS
331
85
102
}
  0
BLOCK_RECORD
  5
86
330
1
100
AcDbSymbolTableRecord
100
AcDbBlockTableRecord
  2
SW_NOTE_2
340
0
102
{BLKREFS
331
8B
102
}
  0
BLOCK_RECORD
  5
8C
330
1
100
AcDbSymbolTableRecord
100
AcDbBlockTableRecord
  2
SW_NOTE_3
340
0
102
{BLKREFS
331
91
102
}
  0
BLOCK_RECORD
  5
D8
330
1
100
AcDbSymbolTableRecord
100
AcDbBlockTableRecord
  2
*D5
340
0
  0
BLOCK_RECORD
  5
EA
330
1
100
AcDbSymbolTableRecord
100
AcDbBlockTableRecord
  2
*D6
340
0
  0
BLOCK_RECORD
  5
FB
330
1
100
AcDbSymbolTableRecord
100
AcDbBlockTableRecord
  2
SW_NOTE_4
340
0
102
{BLKREFS
331
103
102
}
  0
BLOCK_RECORD
  5
151
330
1
100
AcDbSymbolTableRecord
100
AcDbBlockTableRecord
  2
*D8
340
0
  0
BLOCK_RECORD
  5
284
330
1
100
AcDbSymbolTableRecord
100
AcDbBlockTableRecord
  2
*D9
340
0
  0
BLOCK_RECORD
  5
296
330
1
100
AcDbSymbolTableRecord
100
AcDbBlockTableRecord
  2
*D10
340
0
  0
BLOCK_RECORD
  5
2A9
330
1
100
AcDbSymbolTableRecord
100
AcDbBlockTableRecord
  2
*D11
340
0
  0
BLOCK_RECORD
  5
2BA
330
1
100
AcDbSymbolTableRecord
100
AcDbBlockTableRecord
  2
*D12
340
0
  0
BLOCK_RECORD
  5
2CC
330
1
100
AcDbSymbolTableRecord
100
AcDbBlockTableRecord
  2
*D13
340
0
  0
BLOCK_RECORD
  5
3E9
330
1
100
AcDbSymbolTableRecord
100
AcDbBlockTableRecord
  2
*D14
340
0
  0
BLOCK_RECORD
  5
3F8
330
1
100
AcDbSymbolTableRecord
100
AcDbBlockTableRecord
  2
SW_NOTE_5
340
0
102
{BLKREFS
331
3FD
102
}
  0
ENDTAB
  0
ENDSEC
  0
SECTION
  2
BLOCKS
  0
BLOCK
  5
20
330
1F
100
AcDbEntity
  8
0
100
AcDbBlockBegin
  2
*Model_Space
 70
     0
 10
0.0
 20
0.0
 30
0.0
  3
*Model_Space
  1

  0
ENDBLK
  5
21
330
1F
100
AcDbEntity
  8
0
100
AcDbBlockEnd
  0
BLOCK
  5
1C
330
1B
100
AcDbEntity
 67
     1
  8
0
100
AcDbBlockBegin
  2
*Paper_Space
 70
     0
 10
0.0
 20
0.0
 30
0.0
  3
*Paper_Space
  1

  0
ENDBLK
  5
1D
330
1B
100
AcDbEntity
 67
     1
  8
0
100
AcDbBlockEnd
  0
BLOCK
  5
24
330
23
100
AcDbEntity
  8
0
100
AcDbBlockBegin
  2
*Paper_Space0
 70
     0
 10
0.0
 20
0.0
 30
0.0
  3
*Paper_Space0
  1

  0
ENDBLK
  5
25
330
23
100
AcDbEntity
  8
0
100
AcDbBlockEnd
  0
BLOCK
  5
55
330
54
100
AcDbEntity
  8
0
100
AcDbBlockBegin
  2
SW_NOTE_0
 70
     0
 10
0.0
 20
0.0
 30
0.0
  3
SW_NOTE_0
  1

  0
MTEXT
  5
7A
330
54
100
AcDbEntity
  8
0
  6
Continuous
 62
     0
 48
3.0
370
     0
100
AcDbMText
 10
0.0
 20
0.4834004024
 30
0.0
 40
0.375
 41
0.0
 71
     1
 72
     1
  1
MATERIAL - 16 GA. [1.5mm] STEEL
  7
SLDTEXTSTYLE0
 73
     1
 44
1.0
  0
MTEXT
  5
7B
330
54
100
AcDbEntity
  8
0
  6
Continuous
 62
     0
 48
3.0
370
     0
100
AcDbMText
 10
0.0
 20
-0.5028200447
 30
0.0
 40
0.375
 41
0.0
 71
     1
 72
     1
  1
FINISH - SMOOTH GRAY POWDERCOAT
  7
SLDTEXTSTYLE0
 73
     1
 44
1.0
  0
ENDBLK
  5
56
330
54
100
AcDbEntity
  8
0
100
AcDbBlockEnd
  0
BLOCK
  5
81
330
80
100
AcDbEntity
  8
0
100
AcDbBlockBegin
  2
SW_NOTE_1
 70
     0
 10
0.0
 20
0.0
 30
0.0
  3
SW_NOTE_1
  1

  0
MTEXT
  5
83
330
80
100
AcDbEntity
  8
0
  6
Continuous
 62
     0
 48
3.0
370
     0
100
AcDbMText
 10
0.0
 20
0.4834004024
 30
0.0
 40
0.375
 41
0.0
 71
     1
 72
     1
  1
PART
  7
SLDTEXTSTYLE0
 73
     1
 44
1.0
  0
MTEXT
  5
84
330
80
100
AcDbEntity
  8
0
  6
Continuous
 62
     0
 48
3.0
370
     0
100
AcDbMText
 10
-0.1398111899
 20
-0.0097098211
 30
0.0
 40
0.375
 41
0.0
 71
     1
 72
     1
  1
NAME
  7
SLDTEXTSTYLE0
 73
     1
 44
1.0
  0
ENDBLK
  5
82
330
80
100
AcDbEntity
  8
0
100
AcDbBlockEnd
  0
BLOCK
  5
87
330
86
100
AcDbEntity
  8
0
100
AcDbBlockBegin
  2
SW_NOTE_2
 70
     0
 10
0.0
 20
0.0
 30
0.0
  3
SW_NOTE_2
  1

  0
MTEXT
  5
89
330
86
100
AcDbEntity
  8
0
  6
Continuous
 62
     0
 48
3.0
370
     0
100
AcDbMText
 10
0.0
 20
0.4834004024
 30
0.0
 40
0.375
 41
0.0
 71
     1
 72
     1
  1
PART
  7
SLDTEXTSTYLE0
 73
     1
 44
1.0
  0
MTEXT
  5
8A
330
86
100
AcDbEntity
  8
0
  6
Continuous
 62
     0
 48
3.0
370
     0
100
AcDbMText
 10
0.1751302144
 20
-0.0097098211
 30
0.0
 40
0.375
 41
0.0
 71
     1
 72
     1
  1
No.
  7
SLDTEXTSTYLE0
 73
     1
 44
1.0
  0
ENDBLK
  5
88
330
86
100
AcDbEntity
  8
0
100
AcDbBlockEnd
  0
BLOCK
  5
8D
330
8C
100
AcDbEntity
  8
0
100
AcDbBlockBegin
  2
SW_NOTE_3
 70
     0
 10
0.0
 20
0.0
 30
0.0
  3
SW_NOTE_3
  1

  0
MTEXT
  5
8F
330
8C
100
AcDbEntity
  8
0
  6
Continuous
 62
     0
 48
3.0
370
     0
100
AcDbMText
 10
0.0
 20
0.4834004024
 30
0.0
 40
0.375
 41
0.0
 71
     1
 72
     1
  1
REVISION
  7
SLDTEXTSTYLE0
 73
     1
 44
1.0
  0
MTEXT
  5
90
330
8C
100
AcDbEntity
  8
0
  6
Continuous
 62
     0
 48
3.0
370
     0
100
AcDbMText
 10
0.4686848957
 20
-0.0097098211
 30
0.0
 40
0.375
 41
0.0
 71
     1
 72
     1
  1
DATE
  7
SLDTEXTSTYLE0
 73
     1
 44
1.0
  0
ENDBLK
  5
8E
330
8C
100
AcDbEntity
  8
0
100
AcDbBlockEnd
  0
BLOCK
  5
D9
330
D8
100
AcDbEntity
  8
0
100
AcDbBlockBegin
  2
*D5
 70
     1
 10
0.0
 20
0.0
 30
0.0
  3
*D5
  1

  0
SOLID
  5
DB
330
D8
100
AcDbEntity
  8
0
  6
Continuous
 62
     7
 48
3.0
370
     0
100
AcDbTrace
 10
11.4860651808
 20
20.4552637076
 30
0.0
 11
11.8760651808
 21
20.3952637076
 31
0.0
 12
11.8760651808
 22
20.5152637076
 32
0.0
 13
11.8760651808
 23
20.5152637076
 33
0.0
  0
SOLID
  5
DC
330
D8
100
AcDbEntity
  8
0
  6
Continuous
 62
     7
 48
3.0
370
     0
100
AcDbTrace
 10
19.4860651808
 20
20.4552637076
 30
0.0
 11
19.0960651808
 21
20.5152637076
 31
0.0
 12
19.0960651808
 22
20.3952637076
 32
0.0
 13
19.0960651808
 23
20.3952637076
 33
0.0
  0
LINE
  5
DD
330
D8
100
AcDbEntity
  8
0
  6
Continuous
 62
     7
 48
3.0
370
     0
100
AcDbLine
 10
14.710497857
 20
20.4106286545
 30
0.0
 11
14.710497857
 21
19.9047647198
 31
0.0
  0
LINE
  5
DE
330
D8
100
AcDbEntity
  8
0
  6
Continuous
 62
     7
 48
3.0
370
     0
100
AcDbLine
 10
14.710497857
 20
19.9047647198
 30
0.0
 11
14.786615067
 21
19.9047647198
 31
0.0
  0
LINE
  5
DF
330
D8
100
AcDbEntity
  8
0
  6
Continuous
 62
     7
 48
3.0
370
     0
100
AcDbLine
 10
14.710497857
 20
20.4106286545
 30
0.0
 11
14.786615067
 21
20.4106286545
 31
0.0
  0
LINE
  5
E0
330
D8
100
AcDbEntity
  8
0
  6
Continuous
 62
     7
 48
3.0
370
     0
100
AcDbLine
 10
16.2616325045
 20
20.4106286545
 30
0.0
 11
16.2616325045
 21
19.9047647198
 31
0.0
  0
LINE
  5
E1
330
D8
100
AcDbEntity
  8
0
  6
Continuous
 62
     7
 48
3.0
370
     0
100
AcDbLine
 10
16.2616325045
 20
19.9047647198
 30
0.0
 11
16.1855152945
 21
19.9047647198
 31
0.0
  0
LINE
  5
E2
330
D8
100
AcDbEntity
  8
0
  6
Continuous
 62
     7
 48
3.0
370
     0
100
AcDbLine
 10
16.2616325045
 20
20.4106286545
 30
0.0
 11
16.1855152945
 21
20.4106286545
 31
0.0
  0
LINE
  5
E3
330
D8
100
AcDbEntity
  8
0
  6
Continuous
 62
     7
 48
3.0
370
     0
100
AcDbLine
 10
11.4860651808
 20
19.55363968
 30
0.0
 11
11.4860651808
 21
20.8302637076
 31
0.0
  0
LINE
  5
E4
330
D8
100
AcDbEntity
  8
0
  6
Continuous
 62
     7
 48
3.0
370
     0
100
AcDbLine
 10
19.4860651808
 20
19.55363968
 30
0.0
 11
19.4860651808
 21
20.8302637076
 31
0.0
  0
LINE
  5
E5
330
D8
100
AcDbEntity
  8
0
  6
Continuous
 62
     7
 48
3.0
370
     0
100
AcDbLine
 10
11.4860651808
 20
20.4552637076
 30
0.0
 11
14.2947448244
 21
20.4552637076
 31
0.0
  0
LINE
  5
E6
330
D8
100
AcDbEntity
  8
0
  6
Continuous
 62
     7
 48
3.0
370
     0
100
AcDbLine
 10
19.4860651808
 20
20.4552637076
 30
0.0
 11
16.6773855371
 21
20.4552637076
 31
0.0
  0
MTEXT
  5
E7
330
D8
100
AcDbEntity
  8
0
  6
Continuous
 62
     7
 48
3.0
370
     0
100
AcDbMText
 10
15.0013602528
 20
20.9386640894
 30
0.0
 40
0.375
 41
0.0
 71
     1
 72
     1
  1
8.00
  7
SLDTEXTSTYLE0
 73
     1
 44
1.0
  0
MTEXT
  5
E8
330
D8
100
AcDbEntity
  8
0
  6
Continuous
 62
     7
 48
3.0
370
     0
100
AcDbMText
 10
14.8627322771
 20
20.3435300485
 30
0.0
 40
0.375
 41
0.0
 71
     1
 72
     1
  1
203.2
  7
SLDTEXTSTYLE0
 73
     1
 44
1.0
  0
ENDBLK
  5
DA
330
D8
100
AcDbEntity
  8
0
100
AcDbBlockEnd
  0
BLOCK
  5
EB
330
EA
100
AcDbEntity
  8
0
100
AcDbBlockBegin
  2
*D6
 70
     1
 10
0.0
 20
0.0
 30
0.0
  3
*D6
  1

  0
SOLID
  5
ED
330
EA
100
AcDbEntity
  8
0
  6
Continuous
 62
     7
 48
3.0
370
     0
100
AcDbTrace
 10
20.6809109214
 20
19.40363968
 30
0.0
 11
20.6209109214
 21
19.01363968
 31
0.0
 12
20.7409109214
 22
19.01363968
 32
0.0
 13
20.7409109214
 23
19.01363968
 33
0.0
  0
SOLID
  5
EE
330
EA
100
AcDbEntity
  8
0
  6
Continuous
 62
     7
 48
3.0
370
     0
100
AcDbTrace
 10
20.6809109214
 20
9.40363968
 30
0.0
 11
20.7409109214
 21
9.79363968
 31
0.0
 12
20.6209109214
 22
9.79363968
 32
0.0
 13
20.6209109214
 23
9.79363968
 33
0.0
  0
LINE
  5
EF
330
EA
100
AcDbEntity
  8
0
  6
Continuous
 62
     7
 48
3.0
370
     0
100
AcDbLine
 10
20.1131869638
 20
14.359004627
 30
0.0
 11
20.1131869638
 21
13.8531406922
 31
0.0
  0
LINE
  5
F0
330
EA
100
AcDbEntity
  8
0
  6
Continuous
 62
     7
 48
3.0
370
     0
100
AcDbLine
 10
20.1131869638
 20
13.8531406922
 30
0.0
 11
20.1893041739
 21
13.8531406922
 31
0.0
  0
LINE
  5
F1
330
EA
100
AcDbEntity
  8
0
  6
Continuous
 62
     7
 48
3.0
370
     0
100
AcDbLine
 10
20.1131869638
 20
14.359004627
 30
0.0
 11
20.1893041739
 21
14.359004627
 31
0.0
  0
LINE
  5
F2
330
EA
100
AcDbEntity
  8
0
  6
Continuous
 62
     7
 48
3.0
370
     0
100
AcDbLine
 10
21.2486348789
 20
14.359004627
 30
0.0
 11
21.2486348789
 21
13.8531406922
 31
0.0
  0
LINE
  5
F3
330
EA
100
AcDbEntity
  8
0
  6
Continuous
 62
     7
 48
3.0
370
     0
100
AcDbLine
 10
21.2486348789
 20
13.8531406922
 30
0.0
 11
21.1725176689
 21
13.8531406922
 31
0.0
  0
LINE
  5
F4
330
EA
100
AcDbEntity
  8
0
  6
Continuous
 62
     7
 48
3.0
370
     0
100
AcDbLine
 10
21.2486348789
 20
14.359004627
 30
0.0
 11
21.1725176689
 21
14.359004627
 31
0.0
  0
LINE
  5
F5
330
EA
100
AcDbEntity
  8
0
  6
Continuous
 62
     7
 48
3.0
370
     0
100
AcDbLine
 10
19.6360651808
 20
19.40363968
 30
0.0
 11
21.0559109214
 21
19.40363968
 31
0.0
  0
LINE
  5
F6
330
EA
100
AcDbEntity
  8
0
  6
Continuous
 62
     7
 48
3.0
370
     0
100
AcDbLine
 10
19.6360651808
 20
9.40363968
 30
0.0
 11
21.0559109214
 21
9.40363968
 31
0.0
  0
LINE
  5
F7
330
EA
100
AcDbEntity
  8
0
  6
Continuous
 62
     7
 48
3.0
370
     0
100
AcDbLine
 10
20.6809109214
 20
19.40363968
 30
0.0
 11
20.6809109214
 21
14.998773721
 31
0.0
  0
LINE
  5
F8
330
EA
100
AcDbEntity
  8
0
  6
Continuous
 62
     7
 48
3.0
370
     0
100
AcDbLine
 10
20.6809109214
 20
9.40363968
 30
0.0
 11
20.6809109214
 21
13.8085056391
 31
0.0
  0
MTEXT
  5
F9
330
EA
100
AcDbEntity
  8
0
  6
Continuous
 62
     7
 48
3.0
370
     0
100
AcDbMText
 10
20.0575780177
 20
14.8870400618
 30
0.0
 40
0.375
 41
0.0
 71
     1
 72
     1
  1
10.00
  7
SLDTEXTSTYLE0
 73
     1
 44
1.0
  0
MTEXT
  5
FA
330
EA
100
AcDbEntity
  8
0
  6
Continuous
 62
     7
 48
3.0
370
     0
100
AcDbMText
 10
20.2654213839
 20
14.2919060209
 30
0.0
 40
0.375
 41
0.0
 71
     1
 72
     1
  1
254
  7
SLDTEXTSTYLE0
 73
     1
 44
1.0
  0
ENDBLK
  5
EC
330
EA
100
AcDbEntity
  8
0
100
AcDbBlockEnd
  0
BLOCK
  5
FC
330
FB
100
AcDbEntity
  8
0
100
AcDbBlockBegin
  2
SW_NOTE_4
 70
     0
 10
0.0
 20
0.0
 30
0.0
  3
SW_NOTE_4
  1

  0
MTEXT
  5
FE
330
FB
100
AcDbEntity
  8
0
  6
Continuous
 62
     0
 48
3.0
370
     0
100
AcDbMText
 10
0.0593207653
 20
0.1817849022
 30
0.0
 40
0.375
 41
0.0
 71
     1
 72
     1
  1
SCREWS: #10-32 x .31"[8mm] LG.
  7
SLDTEXTSTYLE0
 73
     1
 44
1.0
  0
MTEXT
  5
FF
330
FB
100
AcDbEntity
  8
0
  6
Continuous
 62
     0
 48
3.0
370
     0
100
AcDbMText
 10
0.0593207653
 20
-0.3113253213
 30
0.0
 40
0.375
 41
0.0
 71
     1
 72
     1
  1
MACHINE, PAN HEAD, SLOTTED/SQUARE
  7
SLDTEXTSTYLE0
 73
     1
 44
1.0
  0
MTEXT
  5
100
330
FB
100
AcDbEntity
  8
0
  6
Continuous
 62
     0
 48
3.0
370
     0
100
AcDbMText
 10
0.0593207653
 20
-0.8044355449
 30
0.0
 40
0.375
 41
0.0
 71
     1
 72
     1
  1
COMBINATION STYLE DRIVE, STEEL, ZINC PLATED.
  7
SLDTEXTSTYLE0
 73
     1
 44
1.0
  0
MTEXT
  5
101
330
FB
100
AcDbEntity
  8
0
  6
Continuous
 62
     0
 48
3.0
370
     0
100
AcDbMText
 10
0.0593207653
 20
-1.2975457684
 30
0.0
 40
0.375
 41
0.0
 71
     1
 72
     1
  1
(SUPPLIED FOR COVER MOUNTING AND
  7
SLDTEXTSTYLE0
 73
     1
 44
1.0
  0
MTEXT
  5
102
330
FB
100
AcDbEntity
  8
0
  6
Continuous
 62
     0
 48
3.0
370
     0
100
AcDbMText
 10
0.0593207653
 20
-1.7906559919
 30
0.0
 40
0.375
 41
0.0
 71
     1
 72
     1
  1
FOR GROUND POINT).
  7
SLDTEXTSTYLE0
 73
     1
 44
1.0
  0
ENDBLK
  5
FD
330
FB
100
AcDbEntity
  8
0
100
AcDbBlockEnd
  0
BLOCK
  5
152
330
151
100
AcDbEntity
  8
0
100
AcDbBlockBegin
  2
*D8
 70
     1
 10
0.0
 20
0.0
 30
0.0
  3
*D8
  1

  0
SOLID
  5
154
330
151
100
AcDbEntity
  8
0
  6
Continuous
 62
     7
 48
3.0
370
     0
100
AcDbTrace
 10
20.6809109214
 20
27.8764568361
 30
0.0
 11
20.6209109214
 21
27.4864568361
 31
0.0
 12
20.7409109214
 22
27.4864568361
 32
0.0
 13
20.7409109214
 23
27.4864568361
 33
0.0
  0
SOLID
  5
155
330
151
100
AcDbEntity
  8
0
  6
Continuous
 62
     7
 48
3.0
370
     0
100
AcDbTrace
 10
20.6809109214
 20
21.8764568361
 30
0.0
 11
20.7409109214
 21
22.2664568361
 31
0.0
 12
20.6209109214
 22
22.2664568361
 32
0.0
 13
20.6209109214
 23
22.2664568361
 33
0.0
  0
LINE
  5
156
330
151
100
AcDbEntity
  8
0
  6
Continuous
 62
     7
 48
3.0
370
     0
100
AcDbLine
 10
19.9053435977
 20
24.8318217831
 30
0.0
 11
19.9053435977
 21
24.3259578483
 31
0.0
  0
LINE
  5
157
330
151
100
AcDbEntity
  8
0
  6
Continuous
 62
     7
 48
3.0
370
     0
100
AcDbLine
 10
19.9053435977
 20
24.3259578483
 30
0.0
 11
19.9814608077
 21
24.3259578483
 31
0.0
  0
LINE
  5
158
330
151
100
AcDbEntity
  8
0
  6
Continuous
 62
     7
 48
3.0
370
     0
100
AcDbLine
 10
19.9053435977
 20
24.8318217831
 30
0.0
 11
19.9814608077
 21
24.8318217831
 31
0.0
  0
LINE
  5
159
330
151
100
AcDbEntity
  8
0
  6
Continuous
 62
     7
 48
3.0
370
     0
100
AcDbLine
 10
21.4564782451
 20
24.8318217831
 30
0.0
 11
21.4564782451
 21
24.3259578483
 31
0.0
  0
LINE
  5
15A
330
151
100
AcDbEntity
  8
0
  6
Continuous
 62
     7
 48
3.0
370
     0
100
AcDbLine
 10
21.4564782451
 20
24.3259578483
 30
0.0
 11
21.3803610351
 21
24.3259578483
 31
0.0
  0
LINE
  5
15B
330
151
100
AcDbEntity
  8
0
  6
Continuous
 62
     7
 48
3.0
370
     0
100
AcDbLine
 10
21.4564782451
 20
24.8318217831
 30
0.0
 11
21.3803610351
 21
24.8318217831
 31
0.0
  0
LINE
  5
15C
330
151
100
AcDbEntity
  8
0
  6
Continuous
 62
     7
 48
3.0
370
     0
100
AcDbLine
 10
19.5590651808
 20
27.8764568361
 30
0.0
 11
21.0559109214
 21
27.8764568361
 31
0.0
  0
LINE
  5
15D
330
151
100
AcDbEntity
  8
0
  6
Continuous
 62
     7
 48
3.0
370
     0
100
AcDbLine
 10
19.6360651808
 20
21.8764568361
 30
0.0
 11
21.0559109214
 21
21.8764568361
 31
0.0
  0
LINE
  5
15E
330
151
100
AcDbEntity
  8
0
  6
Continuous
 62
     7
 48
3.0
370
     0
100
AcDbLine
 10
20.6809109214
 20
27.8764568361
 30
0.0
 11
20.6809109214
 21
25.4715908771
 31
0.0
  0
LINE
  5
15F
330
151
100
AcDbEntity
  8
0
  6
Continuous
 62
     7
 48
3.0
370
     0
100
AcDbLine
 10
20.6809109214
 20
21.8764568361
 30
0.0
 11
20.6809109214
 21
24.2813227952
 31
0.0
  0
MTEXT
  5
160
330
151
100
AcDbEntity
  8
0
  6
Continuous
 62
     7
 48
3.0
370
     0
100
AcDbMText
 10
20.1962059934
 20
25.3598572179
 30
0.0
 40
0.375
 41
0.0
 71
     1
 72
     1
  1
6.00
  7
SLDTEXTSTYLE0
 73
     1
 44
1.0
  0
MTEXT
  5
161
330
151
100
AcDbEntity
  8
0
  6
Continuous
 62
     7
 48
3.0
370
     0
100
AcDbMText
 10
20.0575780177
 20
24.764723177
 30
0.0
 40
0.375
 41
0.0
 71
     1
 72
     1
  1
152.4
  7
SLDTEXTSTYLE0
 73
     1
 44
1.0
  0
ENDBLK
  5
153
330
151
100
AcDbEntity
  8
0
100
AcDbBlockEnd
  0
BLOCK
  5
285
330
284
100
AcDbEntity
  8
0
100
AcDbBlockBegin
  2
*D9
 70
     1
 10
0.0
 20
0.0
 30
0.0
  3
*D9
  1

  0
SOLID
  5
287
330
284
100
AcDbEntity
  8
0
  6
Continuous
 62
     7
 48
3.0
370
     0
100
AcDbTrace
 10
39.1495696071
 20
17.90363968
 30
0.0
 11
39.0895696071
 21
17.51363968
 31
0.0
 12
39.2095696071
 22
17.51363968
 32
0.0
 13
39.2095696071
 23
17.51363968
 33
0.0
  0
SOLID
  5
288
330
284
100
AcDbEntity
  8
0
  6
Continuous
 62
     7
 48
3.0
370
     0
100
AcDbTrace
 10
39.1495696071
 20
10.90363968
 30
0.0
 11
39.2095696071
 21
11.29363968
 31
0.0
 12
39.0895696071
 22
11.29363968
 32
0.0
 13
39.0895696071
 23
11.29363968
 33
0.0
  0
LINE
  5
289
330
284
100
AcDbEntity
  8
0
  6
Continuous
 62
     7
 48
3.0
370
     0
100
AcDbLine
 10
38.3740022834
 20
14.359004627
 30
0.0
 11
38.3740022834
 21
13.8531406922
 31
0.0
  0
LINE
  5
28A
330
284
100
AcDbEntity
  8
0
  6
Continuous
 62
     7
 48
3.0
370
     0
100
AcDbLine
 10
38.3740022834
 20
13.8531406922
 30
0.0
 11
38.4501194934
 21
13.8531406922
 31
0.0
  0
LINE
  5
28B
330
284
100
AcDbEntity
  8
0
  6
Continuous
 62
     7
 48
3.0
370
     0
100
AcDbLine
 10
38.3740022834
 20
14.359004627
 30
0.0
 11
38.4501194934
 21
14.359004627
 31
0.0
  0
LINE
  5
28C
330
284
100
AcDbEntity
  8
0
  6
Continuous
 62
     7
 48
3.0
370
     0
100
AcDbLine
 10
39.9251369308
 20
14.359004627
 30
0.0
 11
39.9251369308
 21
13.8531406922
 31
0.0
  0
LINE
  5
28D
330
284
100
AcDbEntity
  8
0
  6
Continuous
 62
     7
 48
3.0
370
     0
100
AcDbLine
 10
39.9251369308
 20
13.8531406922
 30
0.0
 11
39.8490197208
 21
13.8531406922
 31
0.0
  0
LINE
  5
28E
330
284
100
AcDbEntity
  8
0
  6
Continuous
 62
     7
 48
3.0
370
     0
100
AcDbLine
 10
39.9251369308
 20
14.359004627
 30
0.0
 11
39.8490197208
 21
14.359004627
 31
0.0
  0
LINE
  5
28F
330
284
100
AcDbEntity
  8
0
  6
Continuous
 62
     7
 48
3.0
370
     0
100
AcDbLine
 10
40.5085455892
 20
17.90363968
 30
0.0
 11
38.7745696071
 21
17.90363968
 31
0.0
  0
LINE
  5
290
330
284
100
AcDbEntity
  8
0
  6
Continuous
 62
     7
 48
3.0
370
     0
100
AcDbLine
 10
40.5085455892
 20
10.90363968
 30
0.0
 11
38.7745696071
 21
10.90363968
 31
0.0
  0
LINE
  5
291
330
284
100
AcDbEntity
  8
0
  6
Continuous
 62
     7
 48
3.0
370
     0
100
AcDbLine
 10
39.1495696071
 20
17.90363968
 30
0.0
 11
39.1495696071
 21
14.998773721
 31
0.0
  0
LINE
  5
292
330
284
100
AcDbEntity
  8
0
  6
Continuous
 62
     7
 48
3.0
370
     0
100
AcDbLine
 10
39.1495696071
 20
10.90363968
 30
0.0
 11
39.1495696071
 21
13.8085056391
 31
0.0
  0
MTEXT
  5
293
330
284
100
AcDbEntity
  8
0
  6
Continuous
 62
     7
 48
3.0
370
     0
100
AcDbMText
 10
38.6648646791
 20
14.8870400618
 30
0.0
 40
0.375
 41
0.0
 71
     1
 72
     1
  1
7.00
  7
SLDTEXTSTYLE0
 73
     1
 44
1.0
  0
MTEXT
  5
294
330
284
100
AcDbEntity
  8
0
  6
Continuous
 62
     7
 48
3.0
370
     0
100
AcDbMText
 10
38.5262367034
 20
14.2919060209
 30
0.0
 40
0.375
 41
0.0
 71
     1
 72
     1
  1
177.8
  7
SLDTEXTSTYLE0
 73
     1
 44
1.0
  0
ENDBLK
  5
286
330
284
100
AcDbEntity
  8
0
100
AcDbBlockEnd
  0
BLOCK
  5
297
330
296
100
AcDbEntity
  8
0
100
AcDbBlockBegin
  2
*D10
 70
     1
 10
0.0
 20
0.0
 30
0.0
  3
*D10
  1

  0
SOLID
  5
299
330
296
100
AcDbEntity
  8
0
  6
Continuous
 62
     7
 48
3.0
370
     0
100
AcDbTrace
 10
40.6585455892
 20
8.4221948015
 30
0.0
 11
41.0485455892
 21
8.3621948015
 31
0.0
 12
41.0485455892
 22
8.4821948015
 32
0.0
 13
41.0485455892
 23
8.4821948015
 33
0.0
  0
SOLID
  5
29A
330
296
100
AcDbEntity
  8
0
  6
Continuous
 62
     7
 48
3.0
370
     0
100
AcDbTrace
 10
47.6585455892
 20
8.4221948015
 30
0.0
 11
47.2685455892
 21
8.4821948015
 31
0.0
 12
47.2685455892
 22
8.3621948015
 32
0.0
 13
47.2685455892
 23
8.3621948015
 33
0.0
  0
LINE
  5
29B
330
296
100
AcDbEntity
  8
0
  6
Continuous
 62
     7
 48
3.0
370
     0
100
AcDbLine
 10
43.3829782654
 20
8.3775597484
 30
0.0
 11
43.3829782654
 21
7.8716958136
 31
0.0
  0
LINE
  5
29C
330
296
100
AcDbEntity
  8
0
  6
Continuous
 62
     7
 48
3.0
370
     0
100
AcDbLine
 10
43.3829782654
 20
7.8716958136
 30
0.0
 11
43.4590954754
 21
7.8716958136
 31
0.0
  0
LINE
  5
29D
330
296
100
AcDbEntity
  8
0
  6
Continuous
 62
     7
 48
3.0
370
     0
100
AcDbLine
 10
43.3829782654
 20
8.3775597484
 30
0.0
 11
43.4590954754
 21
8.3775597484
 31
0.0
  0
LINE
  5
29E
330
296
100
AcDbEntity
  8
0
  6
Continuous
 62
     7
 48
3.0
370
     0
100
AcDbLine
 10
44.9341129129
 20
8.3775597484
 30
0.0
 11
44.9341129129
 21
7.8716958136
 31
0.0
  0
LINE
  5
29F
330
296
100
AcDbEntity
  8
0
  6
Continuous
 62
     7
 48
3.0
370
     0
100
AcDbLine
 10
44.9341129129
 20
7.8716958136
 30
0.0
 11
44.8579957029
 21
7.8716958136
 31
0.0
  0
LINE
  5
2A0
330
296
100
AcDbEntity
  8
0
  6
Continuous
 62
     7
 48
3.0
370
     0
100
AcDbLine
 10
44.9341129129
 20
8.3775597484
 30
0.0
 11
44.8579957029
 21
8.3775597484
 31
0.0
  0
LINE
  5
2A1
330
296
100
AcDbEntity
  8
0
  6
Continuous
 62
     7
 48
3.0
370
     0
100
AcDbLine
 10
40.6585455892
 20
10.75363968
 30
0.0
 11
40.6585455892
 21
8.0471948015
 31
0.0
  0
LINE
  5
2A2
330
296
100
AcDbEntity
  8
0
  6
Continuous
 62
     7
 48
3.0
370
     0
100
AcDbLine
 10
47.6585455892
 20
10.75363968
 30
0.0
 11
47.6585455892
 21
8.0471948015
 31
0.0
  0
LINE
  5
2A3
330
296
100
AcDbEntity
  8
0
  6
Continuous
 62
     7
 48
3.0
370
     0
100
AcDbLine
 10
40.6585455892
 20
8.4221948015
 30
0.0
 11
42.9672252328
 21
8.4221948015
 31
0.0
  0
LINE
  5
2A4
330
296
100
AcDbEntity
  8
0
  6
Continuous
 62
     7
 48
3.0
370
     0
100
AcDbLine
 10
47.6585455892
 20
8.4221948015
 30
0.0
 11
45.3498659455
 21
8.4221948015
 31
0.0
  0
MTEXT
  5
2A5
330
296
100
AcDbEntity
  8
0
  6
Continuous
 62
     7
 48
3.0
370
     0
100
AcDbMText
 10
43.6738406612
 20
8.9055951833
 30
0.0
 40
0.375
 41
0.0
 71
     1
 72
     1
  1
7.00
  7
SLDTEXTSTYLE0
 73
     1
 44
1.0
  0
MTEXT
  5
2A6
330
296
100
AcDbEntity
  8
0
  6
Continuous
 62
     7
 48
3.0
370
     0
100
AcDbMText
 10
43.5352126854
 20
8.3104611423
 30
0.0
 40
0.375
 41
0.0
 71
     1
 72
     1
  1
177.8
  7
SLDTEXTSTYLE0
 73
     1
 44
1.0
  0
ENDBLK
  5
298
330
296
100
AcDbEntity
  8
0
100
AcDbBlockEnd
  0
BLOCK
  5
2AA
330
2A9
100
AcDbEntity
  8
0
100
AcDbBlockBegin
  2
*D11
 70
     1
 10
0.0
 20
0.0
 30
0.0
  3
*D11
  1

  0
SOLID
  5
2AC
330
2A9
100
AcDbEntity
  8
0
  6
Continuous
 62
     7
 48
3.0
370
     0
100
AcDbTrace
 10
47.7047881479
 20
10.770967619
 30
0.0
 11
47.7764911673
 21
10.3829487058
 31
0.0
 12
47.8898053831
 22
10.4224441296
 32
0.0
 13
47.8898053831
 23
10.4224441296
 33
0.0
  0
LINE
  5
2AD
330
2A9
100
AcDbEntity
  8
0
  6
Continuous
 62
     7
 48
3.0
370
     0
100
AcDbLine
 10
47.0033438157
 20
7.1182493817
 30
0.0
 11
47.0033438157
 21
6.6123854469
 31
0.0
  0
LINE
  5
2AE
330
2A9
100
AcDbEntity
  8
0
  6
Continuous
 62
     7
 48
3.0
370
     0
100
AcDbLine
 10
47.0033438157
 20
6.6123854469
 30
0.0
 11
47.0794610257
 21
6.6123854469
 31
0.0
  0
LINE
  5
2AF
330
2A9
100
AcDbEntity
  8
0
  6
Continuous
 62
     7
 48
3.0
370
     0
100
AcDbLine
 10
47.0033438157
 20
7.1182493817
 30
0.0
 11
47.0794610257
 21
7.1182493817
 31
0.0
  0
LINE
  5
2B0
330
2A9
100
AcDbEntity
  8
0
  6
Continuous
 62
     7
 48
3.0
370
     0
100
AcDbLine
 10
48.2772225117
 20
7.1182493817
 30
0.0
 11
48.2772225117
 21
6.6123854469
 31
0.0
  0
LINE
  5
2B1
330
2A9
100
AcDbEntity
  8
0
  6
Continuous
 62
     7
 48
3.0
370
     0
100
AcDbLine
 10
48.2772225117
 20
6.6123854469
 30
0.0
 11
48.2011053017
 21
6.6123854469
 31
0.0
  0
LINE
  5
2B2
330
2A9
100
AcDbEntity
  8
0
  6
Continuous
 62
     7
 48
3.0
370
     0
100
AcDbLine
 10
48.2772225117
 20
7.1182493817
 30
0.0
 11
48.2011053017
 21
7.1182493817
 31
0.0
  0
LINE
  5
2B3
330
2A9
100
AcDbEntity
  8
0
  6
Continuous
 62
     7
 48
3.0
370
     0
100
AcDbLine
 10
47.7047881479
 20
10.770967619
 30
0.0
 11
48.962377705
 21
7.1628844348
 31
0.0
  0
LINE
  5
2B4
330
2A9
100
AcDbEntity
  8
0
  6
Continuous
 62
     7
 48
3.0
370
     0
100
AcDbLine
 10
48.962377705
 20
7.1628844348
 30
0.0
 11
48.587377705
 21
7.1628844348
 31
0.0
  0
MTEXT
  5
2B5
330
2A9
100
AcDbEntity
  8
0
  6
Continuous
 62
     7
 48
3.0
370
     0
100
AcDbMText
 10
46.8877679173
 20
7.6462848234
 30
0.0
 40
0.375
 41
0.0
 71
     1
 72
     1
  1
%%c
  7
SLDTEXTSTYLE0
 73
     1
 44
1.0
  0
MTEXT
  5
2B6
330
2A9
100
AcDbEntity
  8
0
  6
Continuous
 62
     7
 48
3.0
370
     0
100
AcDbMText
 10
47.4233885542
 20
7.6462848165
 30
0.0
 40
0.375
 41
0.0
 71
     1
 72
     1
  1
.281
  7
SLDTEXTSTYLE0
 73
     1
 44
1.0
  0
MTEXT
  5
2B7
330
2A9
100
AcDbEntity
  8
0
  6
Continuous
 62
     7
 48
3.0
370
     0
100
AcDbMText
 10
47.1555782357
 20
7.0511507756
 30
0.0
 40
0.375
 41
0.0
 71
     1
 72
     1
  1
7.14
  7
SLDTEXTSTYLE0
 73
     1
 44
1.0
  0
ENDBLK
  5
2AB
330
2A9
100
AcDbEntity
  8
0
100
AcDbBlockEnd
  0
BLOCK
  5
2BB
330
2BA
100
AcDbEntity
  8
0
100
AcDbBlockBegin
  2
*D12
 70
     1
 10
0.0
 20
0.0
 30
0.0
  3
*D12
  1

  0
SOLID
  5
2BD
330
2BA
100
AcDbEntity
  8
0
  6
Continuous
 62
     7
 48
3.0
370
     0
100
AcDbTrace
 10
49.1384917989
 20
17.40363968
 30
0.0
 11
49.0784917989
 21
17.01363968
 31
0.0
 12
49.1984917989
 22
17.01363968
 32
0.0
 13
49.1984917989
 23
17.01363968
 33
0.0
  0
SOLID
  5
2BE
330
2BA
100
AcDbEntity
  8
0
  6
Continuous
 62
     7
 48
3.0
370
     0
100
AcDbTrace
 10
49.1384917989
 20
19.40363968
 30
0.0
 11
49.1984917989
 21
19.79363968
 31
0.0
 12
49.0784917989
 22
19.79363968
 32
0.0
 13
49.0784917989
 23
19.79363968
 33
0.0
  0
LINE
  5
2BF
330
2BA
100
AcDbEntity
  8
0
  6
Continuous
 62
     7
 48
3.0
370
     0
100
AcDbLine
 10
48.5015524509
 20
18.359004627
 30
0.0
 11
48.5015524509
 21
17.8531406922
 31
0.0
  0
LINE
  5
2C0
330
2BA
100
AcDbEntity
  8
0
  6
Continuous
 62
     7
 48
3.0
370
     0
100
AcDbLine
 10
48.5015524509
 20
17.8531406922
 30
0.0
 11
48.5776696609
 21
17.8531406922
 31
0.0
  0
LINE
  5
2C1
330
2BA
100
AcDbEntity
  8
0
  6
Continuous
 62
     7
 48
3.0
370
     0
100
AcDbLine
 10
48.5015524509
 20
18.359004627
 30
0.0
 11
48.5776696609
 21
18.359004627
 31
0.0
  0
LINE
  5
2C2
330
2BA
100
AcDbEntity
  8
0
  6
Continuous
 62
     7
 48
3.0
370
     0
100
AcDbLine
 10
49.7754311469
 20
18.359004627
 30
0.0
 11
49.7754311469
 21
17.8531406922
 31
0.0
  0
LINE
  5
2C3
330
2BA
100
AcDbEntity
  8
0
  6
Continuous
 62
     7
 48
3.0
370
     0
100
AcDbLine
 10
49.7754311469
 20
17.8531406922
 30
0.0
 11
49.6993139369
 21
17.8531406922
 31
0.0
  0
LINE
  5
2C4
330
2BA
100
AcDbEntity
  8
0
  6
Continuous
 62
     7
 48
3.0
370
     0
100
AcDbLine
 10
49.7754311469
 20
18.359004627
 30
0.0
 11
49.6993139369
 21
18.359004627
 31
0.0
  0
LINE
  5
2C5
330
2BA
100
AcDbEntity
  8
0
  6
Continuous
 62
     7
 48
3.0
370
     0
100
AcDbLine
 10
46.3085455892
 20
17.40363968
 30
0.0
 11
49.5134917989
 21
17.40363968
 31
0.0
  0
LINE
  5
2C6
330
2BA
100
AcDbEntity
  8
0
  6
Continuous
 62
     7
 48
3.0
370
     0
100
AcDbLine
 10
48.3085455892
 20
19.40363968
 30
0.0
 11
49.5134917989
 21
19.40363968
 31
0.0
  0
LINE
  5
2C7
330
2BA
100
AcDbEntity
  8
0
  6
Continuous
 62
     7
 48
3.0
370
     0
100
AcDbLine
 10
49.1384917989
 20
17.40363968
 30
0.0
 11
49.1384917989
 21
16.65363968
 31
0.0
  0
LINE
  5
2C8
330
2BA
100
AcDbEntity
  8
0
  6
Continuous
 62
     7
 48
3.0
370
     0
100
AcDbLine
 10
49.1384917989
 20
19.40363968
 30
0.0
 11
49.1384917989
 21
20.15363968
 31
0.0
  0
MTEXT
  5
2C9
330
2BA
100
AcDbEntity
  8
0
  6
Continuous
 62
     7
 48
3.0
370
     0
100
AcDbMText
 10
48.6537868709
 20
18.8870400618
 30
0.0
 40
0.375
 41
0.0
 71
     1
 72
     1
  1
2.00
  7
SLDTEXTSTYLE0
 73
     1
 44
1.0
  0
MTEXT
  5
2CA
330
2BA
100
AcDbEntity
  8
0
  6
Continuous
 62
     7
 48
3.0
370
     0
100
AcDbMText
 10
48.6537868709
 20
18.2919060209
 30
0.0
 40
0.375
 41
0.0
 71
     1
 72
     1
  1
50.8
  7
SLDTEXTSTYLE0
 73
     1
 44
1.0
  0
ENDBLK
  5
2BC
330
2BA
100
AcDbEntity
  8
0
100
AcDbBlockEnd
  0
BLOCK
  5
2CD
330
2CC
100
AcDbEntity
  8
0
100
AcDbBlockBegin
  2
*D13
 70
     1
 10
0.0
 20
0.0
 30
0.0
  3
*D13
  1

  0
SOLID
  5
2CF
330
2CC
100
AcDbEntity
  8
0
  6
Continuous
 62
     7
 48
3.0
370
     0
100
AcDbTrace
 10
46.1585455892
 20
20.3423976598
 30
0.0
 11
45.7685455892
 21
20.4023976598
 31
0.0
 12
45.7685455892
 22
20.2823976598
 32
0.0
 13
45.7685455892
 23
20.2823976598
 33
0.0
  0
SOLID
  5
2D0
330
2CC
100
AcDbEntity
  8
0
  6
Continuous
 62
     7
 48
3.0
370
     0
100
AcDbTrace
 10
48.1585455892
 20
20.3423976598
 30
0.0
 11
48.5485455892
 21
20.2823976598
 31
0.0
 12
48.5485455892
 22
20.4023976598
 32
0.0
 13
48.5485455892
 23
20.4023976598
 33
0.0
  0
LINE
  5
2D1
330
2CC
100
AcDbEntity
  8
0
  6
Continuous
 62
     7
 48
3.0
370
     0
100
AcDbLine
 10
46.5216062412
 20
20.2977626068
 30
0.0
 11
46.5216062412
 21
19.791898672
 31
0.0
  0
LINE
  5
2D2
330
2CC
100
AcDbEntity
  8
0
  6
Continuous
 62
     7
 48
3.0
370
     0
100
AcDbLine
 10
46.5216062412
 20
19.791898672
 30
0.0
 11
46.5977234512
 21
19.791898672
 31
0.0
  0
LINE
  5
2D3
330
2CC
100
AcDbEntity
  8
0
  6
Continuous
 62
     7
 48
3.0
370
     0
100
AcDbLine
 10
46.5216062412
 20
20.2977626068
 30
0.0
 11
46.5977234512
 21
20.2977626068
 31
0.0
  0
LINE
  5
2D4
330
2CC
100
AcDbEntity
  8
0
  6
Continuous
 62
     7
 48
3.0
370
     0
100
AcDbLine
 10
47.7954849371
 20
20.2977626068
 30
0.0
 11
47.7954849371
 21
19.791898672
 31
0.0
  0
LINE
  5
2D5
330
2CC
100
AcDbEntity
  8
0
  6
Continuous
 62
     7
 48
3.0
370
     0
100
AcDbLine
 10
47.7954849371
 20
19.791898672
 30
0.0
 11
47.7193677271
 21
19.791898672
 31
0.0
  0
LINE
  5
2D6
330
2CC
100
AcDbEntity
  8
0
  6
Continuous
 62
     7
 48
3.0
370
     0
100
AcDbLine
 10
47.7954849371
 20
20.2977626068
 30
0.0
 11
47.7193677271
 21
20.2977626068
 31
0.0
  0
LINE
  5
2D7
330
2CC
100
AcDbEntity
  8
0
  6
Continuous
 62
     7
 48
3.0
370
     0
100
AcDbLine
 10
46.1585455892
 20
17.55363968
 30
0.0
 11
46.1585455892
 21
20.7173976598
 31
0.0
  0
LINE
  5
2D8
330
2CC
100
AcDbEntity
  8
0
  6
Continuous
 62
     7
 48
3.0
370
     0
100
AcDbLine
 10
48.1585455892
 20
19.55363968
 30
0.0
 11
48.1585455892
 21
20.7173976598
 31
0.0
  0
LINE
  5
2D9
330
2CC
100
AcDbEntity
  8
0
  6
Continuous
 62
     7
 48
3.0
370
     0
100
AcDbLine
 10
46.1585455892
 20
20.3423976598
 30
0.0
 11
45.4085455892
 21
20.3423976598
 31
0.0
  0
LINE
  5
2DA
330
2CC
100
AcDbEntity
  8
0
  6
Continuous
 62
     7
 48
3.0
370
     0
100
AcDbLine
 10
48.1585455892
 20
20.3423976598
 30
0.0
 11
48.9085455892
 21
20.3423976598
 31
0.0
  0
MTEXT
  5
2DB
330
2CC
100
AcDbEntity
  8
0
  6
Continuous
 62
     7
 48
3.0
370
     0
100
AcDbMText
 10
46.6738406612
 20
20.8257980416
 30
0.0
 40
0.375
 41
0.0
 71
     1
 72
     1
  1
2.00
  7
SLDTEXTSTYLE0
 73
     1
 44
1.0
  0
MTEXT
  5
2DC
330
2CC
100
AcDbEntity
  8
0
  6
Continuous
 62
     7
 48
3.0
370
     0
100
AcDbMText
 10
46.6738406612
 20
20.2306640007
 30
0.0
 40
0.375
 41
0.0
 71
     1
 72
     1
  1
50.8
  7
SLDTEXTSTYLE0
 73
     1
 44
1.0
  0
ENDBLK
  5
2CE
330
2CC
100
AcDbEntity
  8
0
100
AcDbBlockEnd
  0
BLOCK
  5
3EA
330
3E9
100
AcDbEntity
  8
0
100
AcDbBlockBegin
  2
*D14
 70
     1
 10
0.0
 20
0.0
 30
0.0
  3
*D14
  1

  0
SOLID
  5
3EC
330
3E9
100
AcDbEntity
  8
0
  6
Continuous
 62
     7
 48
3.0
370
     0
100
AcDbTrace
 10
29.5315001458
 20
16.6151047793
 30
0.0
 11
29.1415001458
 21
16.6751047793
 31
0.0
 12
29.1415001458
 22
16.5551047793
 32
0.0
 13
29.1415001458
 23
16.5551047793
 33
0.0
  0
SOLID
  5
3ED
330
3E9
100
AcDbEntity
  8
0
  6
Continuous
 62
     7
 48
3.0
370
     0
100
AcDbTrace
 10
30.0315001458
 20
16.6151047793
 30
0.0
 11
30.4215001458
 21
16.5551047793
 31
0.0
 12
30.4215001458
 22
16.6751047793
 32
0.0
 13
30.4215001458
 23
16.6751047793
 33
0.0
  0
LINE
  5
3EE
330
3E9
100
AcDbEntity
  8
0
  6
Continuous
 62
     7
 48
3.0
370
     0
100
AcDbLine
 10
27.0745997703
 20
16.5704697262
 30
0.0
 11
27.0745997703
 21
16.0646057914
 31
0.0
  0
LINE
  5
3EF
330
3E9
100
AcDbEntity
  8
0
  6
Continuous
 62
     7
 48
3.0
370
     0
100
AcDbLine
 10
27.0745997703
 20
16.0646057914
 30
0.0
 11
27.1507169804
 21
16.0646057914
 31
0.0
  0
LINE
  5
3F0
330
3E9
100
AcDbEntity
  8
0
  6
Continuous
 62
     7
 48
3.0
370
     0
100
AcDbLine
 10
27.0745997703
 20
16.5704697262
 30
0.0
 11
27.1507169804
 21
16.5704697262
 31
0.0
  0
LINE
  5
3F1
330
3E9
100
AcDbEntity
  8
0
  6
Continuous
 62
     7
 48
3.0
370
     0
100
AcDbLine
 10
28.3484784663
 20
16.5704697262
 30
0.0
 11
28.3484784663
 21
16.0646057914
 31
0.0
  0
LINE
  5
3F2
330
3E9
100
AcDbEntity
  8
0
  6
Continuous
 62
     7
 48
3.0
370
     0
100
AcDbLine
 10
28.3484784663
 20
16.0646057914
 30
0.0
 11
28.2723612563
 21
16.0646057914
 31
0.0
  0
LINE
  5
3F3
330
3E9
100
AcDbEntity
  8
0
  6
Continuous
 62
     7
 48
3.0
370
     0
100
AcDbLine
 10
28.3484784663
 20
16.5704697262
 30
0.0
 11
28.2723612563
 21
16.5704697262
 31
0.0
  0
LINE
  5
3F4
330
3E9
100
AcDbEntity
  8
0
  6
Continuous
 62
     7
 48
3.0
370
     0
100
AcDbLine
 10
29.5315001458
 20
16.6151047793
 30
0.0
 11
28.7642314989
 21
16.6151047793
 31
0.0
  0
LINE
  5
3F5
330
3E9
100
AcDbEntity
  8
0
  6
Continuous
 62
     7
 48
3.0
370
     0
100
AcDbLine
 10
30.0315001458
 20
16.6151047793
 30
0.0
 11
30.7815001458
 21
16.6151047793
 31
0.0
  0
MTEXT
  5
3F6
330
3E9
100
AcDbEntity
  8
0
  6
Continuous
 62
     7
 48
3.0
370
     0
100
AcDbMText
 10
27.3652649713
 20
17.0985051611
 30
0.0
 40
0.375
 41
0.0
 71
     1
 72
     1
  1
.50
  7
SLDTEXTSTYLE0
 73
     1
 44
1.0
  0
MTEXT
  5
3F7
330
3E9
100
AcDbEntity
  8
0
  6
Continuous
 62
     7
 48
3.0
370
     0
100
AcDbMText
 10
27.2268341904
 20
16.5033711201
 30
0.0
 40
0.375
 41
0.0
 71
     1
 72
     1
  1
12.7
  7
SLDTEXTSTYLE0
 73
     1
 44
1.0
  0
ENDBLK
  5
3EB
330
3E9
100
AcDbEntity
  8
0
100
AcDbBlockEnd
  0
BLOCK
  5
3F9
330
3F8
100
AcDbEntity
  8
0
100
AcDbBlockBegin
  2
SW_NOTE_5
 70
     0
 10
0.0
 20
0.0
 30
0.0
  3
SW_NOTE_5
  1

  0
MTEXT
  5
3FB
330
3F8
100
AcDbEntity
  8
0
  6
Continuous
 62
     0
 48
3.0
370
     0
100
AcDbMText
 10
0.0592930267
 20
0.1817952046
 30
0.0
 40
0.375
 41
0.0
 71
     1
 72
     1
  1
GROUNDING
  7
SLDTEXTSTYLE0
 73
     1
 44
1.0
  0
MTEXT
  5
3FC
330
3F8
100
AcDbEntity
  8
0
  6
Continuous
 62
     0
 48
3.0
370
     0
100
AcDbMText
 10
0.0592930267
 20
-0.311315019
 30
0.0
 40
0.375
 41
0.0
 71
     1
 72
     1
  1
EMBOSS
  7
SLDTEXTSTYLE0
 73
     1
 44
1.0
  0
ENDBLK
  5
3FA
330
3F8
100
AcDbEntity
  8
0
100
AcDbBlockEnd
  0
ENDSEC
  0
SECTION
  2
ENTITIES
  0
LINE
  5
44
330
1F
100
AcDbEntity
  8
0
  6
Continuous
 62
     7
 48
3.0
370
     0
100
AcDbLine
 10
0.9397548139
 20
32.1152195122
 30
0.0
 11
50.0677548139
 21
32.1152195122
 31
0.0
  0
LINE
  5
45
330
1F
100
AcDbEntity
  8
0
  6
Continuous
 62
     7
 48
3.0
370
     0
100
AcDbLine
 10
50.0677548139
 20
0.9872195122
 30
0.0
 11
50.0677548139
 21
32.1152195122
 31
0.0
  0
LINE
  5
46
330
1F
100
AcDbEntity
  8
0
  6
Continuous
 62
     7
 48
3.0
370
     0
100
AcDbLine
 10
50.0677548139
 20
0.9872195122
 30
0.0
 11
0.9397548139
 21
0.9872195122
 31
0.0
  0
LINE
  5
47
330
1F
100
AcDbEntity
  8
0
  6
Continuous
 62
     7
 48
3.0
370
     0
100
AcDbLine
 10
0.9397548139
 20
32.1152195122
 30
0.0
 11
0.9397548139
 21
0.9872195122
 31
0.0
  0
LINE
  5
48
330
1F
100
AcDbEntity
  8
0
  6
Continuous
 62
     7
 48
3.0
370
     0
100
AcDbLine
 10
0.7537548139
 20
32.3012195122
 30
0.0
 11
50.2537548139
 21
32.3012195122
 31
0.0
  0
LINE
  5
49
330
1F
100
AcDbEntity
  8
0
  6
Continuous
 62
     7
 48
3.0
370
     0
100
AcDbLine
 10
50.2537548139
 20
0.8012195122
 30
0.0
 11
0.7537548139
 21
0.8012195122
 31
0.0
  0
LINE
  5
4A
330
1F
100
AcDbEntity
  8
0
  6
Continuous
 62
     7
 48
3.0
370
     0
100
AcDbLine
 10
0.7537548139
 20
32.3012195122
 30
0.0
 11
0.7537548139
 21
0.8012195122
 31
0.0
  0
LINE
  5
4B
330
1F
100
AcDbEntity
  8
0
  6
Continuous
 62
     7
 48
3.0
370
     0
100
AcDbLine
 10
50.2537548139
 20
0.8012195122
 30
0.0
 11
50.2537548139
 21
32.3012195122
 31
0.0
  0
LINE
  5
4C
330
1F
100
AcDbEntity
  8
0
  6
Continuous
 62
     7
 48
3.0
370
     0
100
AcDbLine
 10
0.9397548139
 20
30.8972195122
 30
0.0
 11
50.0677548139
 21
30.8972195122
 31
0.0
  0
LINE
  5
4D
330
1F
100
AcDbEntity
  8
0
  6
Continuous
 62
     7
 48
3.0
370
     0
100
AcDbLine
 10
3.1897548139
 20
32.1152195122
 30
0.0
 11
3.1897548139
 21
30.8972195122
 31
0.0
  0
LINE
  5
4E
330
1F
100
AcDbEntity
  8
0
  6
Continuous
 62
     7
 48
3.0
370
     0
100
AcDbLine
 10
22.3177548139
 20
30.8972195122
 30
0.0
 11
22.3177548139
 21
32.1152195122
 31
0.0
  0
LINE
  5
4F
330
1F
100
AcDbEntity
  8
0
  6
Continuous
 62
     7
 48
3.0
370
     0
100
AcDbLine
 10
22.5037548139
 20
30.8972195122
 30
0.0
 11
22.5037548139
 21
32.1152195122
 31
0.0
  0
LINE
  5
50
330
1F
100
AcDbEntity
  8
0
  6
Continuous
 62
     7
 48
3.0
370
     0
100
AcDbLine
 10
46.3177548139
 20
30.8972195122
 30
0.0
 11
46.3177548139
 21
32.1152195122
 31
0.0
  0
LINE
  5
51
330
1F
100
AcDbEntity
  8
0
  6
Continuous
 62
     7
 48
3.0
370
     0
100
AcDbLine
 10
24.7537548139
 20
30.8972195122
 30
0.0
 11
24.7537548139
 21
32.1152195122
 31
0.0
  0
LINE
  5
52
330
1F
100
AcDbEntity
  8
0
  6
Continuous
 62
     7
 48
3.0
370
     0
100
AcDbLine
 10
44.0677548139
 20
30.8972195122
 30
0.0
 11
44.0677548139
 21
32.1152195122
 31
0.0
  0
LINE
  5
53
330
1F
100
AcDbEntity
  8
0
  6
Continuous
 62
     7
 48
3.0
370
     0
100
AcDbLine
 10
43.8817548139
 20
30.8972195122
 30
0.0
 11
43.8817548139
 21
32.1152195122
 31
0.0
  0
INSERT
  5
7C
330
1F
100
AcDbEntity
  8
0
  6
Continuous
 62
     7
 48
3.0
370
     0
100
AcDbBlockReference
  2
SW_NOTE_0
 10
25.9684250438
 20
27.3011144273
 30
0.0
  0
MTEXT
  5
7D
330
1F
100
AcDbEntity
  8
0
  6
Continuous
 62
     7
 48
3.0
370
     0
100
AcDbMText
 10
46.9769532468
 20
31.8279490323
 30
0.0
 40
0.5625
 41
0.0
 71
     1
 72
     1
  1
7-18-11
  7
SLDTEXTSTYLE0
 73
     1
 44
1.0
  0
MTEXT
  5
7E
330
1F
100
AcDbEntity
  8
0
  6
Continuous
 62
     7
 48
3.0
370
     0
100
AcDbMText
 10
9.8244214059
 20
31.8148531349
 30
0.0
 40
0.5625
 41
0.0
 71
     1
 72
     1
  1
JUNCTION BOX
  7
SLDTEXTSTYLE0
 73
     1
 44
1.0
  0
MTEXT
  5
7F
330
1F
100
AcDbEntity
  8
0
  6
Continuous
 62
     7
 48
3.0
370
     0
100
AcDbMText
 10
33.0309893296
 20
31.8344601974
 30
0.0
 40
0.5625
 41
0.0
 71
     1
 72
     1
  1
JB-3959
  7
SLDTEXTSTYLE0
 73
     1
 44
1.0
  0
INSERT
  5
85
330
1F
100
AcDbEntity
  8
0
  6
Continuous
 62
     7
 48
3.0
370
     0
100
AcDbBlockReference
  2
SW_NOTE_1
 10
1.4629175606
 20
31.5142800795
 30
0.0
  0
INSERT
  5
8B
330
1F
100
AcDbEntity
  8
0
  6
Continuous
 62
     7
 48
3.0
370
     0
100
AcDbBlockReference
  2
SW_NOTE_2
 10
23.0553446694
 20
31.5005947192
 30
0.0
  0
INSERT
  5
91
330
1F
100
AcDbEntity
  8
0
  6
Continuous
 62
     7
 48
3.0
370
     0
100
AcDbBlockReference
  2
SW_NOTE_3
 10
44.1259158823
 20
31.5101505817
 30
0.0
  0
ARC
  5
92
330
1F
100
AcDbEntity
  8
0
  6
Continuous
 62
     7
 48
9.0
370
    15
100
AcDbCircle
 10
19.2360651808
 20
17.13163968
 30
0.0
 40
0.203000000000001
100
AcDbArc
 50
133.2687098485
 51
46.7312901516
  0
LINE
  5
93
330
1F
100
AcDbEntity
  8
0
  6
Continuous
 62
     7
 48
3.0
370
    15
100
AcDbLine
 10
19.4860651324
 20
9.4036395205
 30
0.0
 11
19.4860651324
 21
19.4036398396
 31
0.0
  0
LINE
  5
94
330
1F
100
AcDbEntity
  8
0
  6
Continuous
 62
     7
 48
3.0
370
    15
100
AcDbLine
 10
11.4860652291
 20
9.4036395205
 30
0.0
 11
19.4860651324
 21
9.4036395205
 31
0.0
  0
ARC
  5
95
330
1F
100
AcDbEntity
  8
0
  6
Continuous
 62
     7
 48
9.0
370
    15
100
AcDbCircle
 10
11.7360651808
 20
17.13163968
 30
0.0
 40
0.2029999999999999
100
AcDbArc
 50
133.2687098482
 51
46.7312901517
  0
ARC
  5
96
330
1F
100
AcDbEntity
  8
0
  6
Continuous
 62
     7
 48
9.0
370
    15
100
AcDbCircle
 10
11.7360651808
 20
11.13163968
 30
0.0
 40
0.2030000000000004
100
AcDbArc
 50
133.2687098481
 51
46.7312901518
  0
ARC
  5
97
330
1F
100
AcDbEntity
  8
0
  6
Continuous
 62
     7
 48
9.0
370
    15
100
AcDbCircle
 10
19.2360651808
 20
11.13163968
 30
0.0
 40
0.2030000000000007
100
AcDbArc
 50
133.2687098481
 51
46.7312901521
  0
LINE
  5
98
330
1F
100
AcDbEntity
  8
0
  6
Continuous
 62
     7
 48
3.0
370
    15
100
AcDbLine
 10
11.4860652291
 20
19.4036398396
 30
0.0
 11
11.4860652291
 21
9.4036395205
 31
0.0
  0
LINE
  5
99
330
1F
100
AcDbEntity
  8
0
  6
Continuous
 62
     7
 48
3.0
370
    15
100
AcDbLine
 10
19.4860651324
 20
19.4036398396
 30
0.0
 11
11.4860652291
 21
19.4036398396
 31
0.0
  0
LWPOLYLINE
  5
9A
330
1F
100
AcDbEntity
  8
0
  6
Continuous
 62
     7
 48
3.0
370
    15
100
AcDbPolyline
 90
        9
 70
   128
 43
0.0
 10
19.2168413359
 20
11.4443341862
 10
19.2059356218
 20
11.4550771021
 10
19.1952199856
 20
11.4656328735
 10
19.1847434133
 20
11.4759531009
 10
19.174554891
 20
11.485989385
 10
19.1647013515
 20
11.4956959662
 10
19.1552282609
 20
11.5050276717
 10
19.1461796188
 20
11.5139413821
 10
19.1375973713
 20
11.5223954444
  0
ARC
  5
9B
330
1F
100
AcDbEntity
  8
0
  6
Continuous
 62
     7
 48
9.0
370
    15
100
AcDbCircle
 10
19.2360651808
 20
11.40363968
 30
0.0
 40
0.1542687964746292
100
AcDbArc
 50
129.6642084609
 51
141.197138477
  0
LWPOLYLINE
  5
9C
330
1F
100
AcDbEntity
  8
0
  6
Continuous
 62
     7
 48
3.0
370
    15
100
AcDbPolyline
 90
        9
 70
   128
 43
0.0
 10
19.1158425559
 20
11.5003112195
 10
19.1244248035
 20
11.4918568639
 10
19.1334734456
 20
11.4829434468
 10
19.1429462428
 20
11.4736117413
 10
19.1528000757
 20
11.4639051601
 10
19.162988598
 20
11.4538685827
 10
19.1734648769
 20
11.4435483553
 10
19.1841808065
 20
11.4329925839
 10
19.1950862272
 20
11.422249668
  0
LWPOLYLINE
  5
9D
330
1F
100
AcDbEntity
  8
0
  6
Continuous
 62
     7
 48
3.0
370
    15
100
AcDbPolyline
 90
        9
 70
   128
 43
0.0
 10
19.2552889717
 20
11.3629450997
 10
19.2661946857
 20
11.3522024772
 10
19.2769103219
 20
11.3416464124
 10
19.2873868942
 20
11.3313264783
 10
19.2975754165
 20
11.3212899009
 10
19.307428956
 20
11.3115833197
 10
19.3169020466
 20
11.3022516142
 10
19.3259506887
 20
11.2933379038
 10
19.3345329363
 20
11.2848838415
  0
ARC
  5
9E
330
1F
100
AcDbEntity
  8
0
  6
Continuous
 62
     7
 48
9.0
370
    15
100
AcDbCircle
 10
19.2360651808
 20
11.40363968
 30
0.0
 40
0.1542687964746288
100
AcDbArc
 50
309.6642084609
 51
321.197138477
  0
LWPOLYLINE
  5
9F
330
1F
100
AcDbEntity
  8
0
  6
Continuous
 62
     7
 48
3.0
370
    15
100
AcDbPolyline
 90
        9
 70
   128
 43
0.0
 10
19.3562877516
 20
11.3069683597
 10
19.3477055041
 20
11.315422422
 10
19.338656862
 20
11.3243361324
 10
19.3291840647
 20
11.3336678379
 10
19.3193305252
 20
11.3433744191
 10
19.3091417096
 20
11.3534109965
 10
19.2986654306
 20
11.3637309307
 10
19.2879495011
 20
11.3742869954
 10
19.2770440804
 20
11.3850296179
  0
LWPOLYLINE
  5
A0
330
1F
100
AcDbEntity
  8
0
  6
Continuous
 62
     7
 48
3.0
370
    15
100
AcDbPolyline
 90
        9
 70
   128
 43
0.0
 10
19.1950862272
 20
11.422249668
 10
19.1951425465
 20
11.4147668211
 10
19.1951988659
 20
11.4072719477
 10
19.1952551852
 20
11.399772381
 10
19.1953115046
 20
11.3922769209
 10
19.1953678239
 20
11.384793194
 10
19.1954238499
 20
11.3773300002
 10
19.195479876
 20
11.3698946728
 10
19.1955356086
 20
11.3624960116
  0
LWPOLYLINE
  5
A1
330
1F
100
AcDbEntity
  8
0
  6
Continuous
 62
     7
 48
3.0
370
    15
100
AcDbPolyline
 90
        9
 70
   128
 43
0.0
 10
19.1955356086
 20
11.3624960116
 10
19.2029342698
 20
11.3625517443
 10
19.210369304
 20
11.362607477
 10
19.2178327911
 20
11.3626637963
 10
19.2253162246
 20
11.3627198223
 10
19.2328116847
 20
11.3627761417
 10
19.2403112514
 20
11.3628327544
 10
19.2478064181
 20
11.3628890737
 10
19.2552889717
 20
11.3629450997
  0
LWPOLYLINE
  5
A2
330
1F
100
AcDbEntity
  8
0
  6
Continuous
 62
     7
 48
3.0
370
    15
100
AcDbPolyline
 90
        9
 70
   128
 43
0.0
 10
19.2770440804
 20
11.3850296179
 10
19.276987761
 20
11.3925124648
 10
19.2769314417
 20
11.4000076316
 10
19.2768751223
 20
11.4075069049
 10
19.276818803
 20
11.4150026584
 10
19.2767624836
 20
11.4224860919
 10
19.2767064576
 20
11.429949579
 10
19.2766504316
 20
11.4373846131
 10
19.2765949922
 20
11.4447832743
  0
LWPOLYLINE
  5
A3
330
1F
100
AcDbEntity
  8
0
  6
Continuous
 62
     7
 48
3.0
370
    15
100
AcDbPolyline
 90
        9
 70
   128
 43
0.0
 10
19.2765949922
 20
11.4447832743
 10
19.2691960377
 20
11.4447275416
 10
19.2617610036
 20
11.4446718089
 10
19.2542978098
 20
11.4446157829
 10
19.2468140829
 20
11.4445594636
 10
19.2393186229
 20
11.4445031442
 10
19.2318190562
 20
11.4444468249
 10
19.2243238894
 20
11.4443905055
 10
19.2168413359
 20
11.4443341862
  0
LINE
  5
A4
330
1F
100
AcDbEntity
  8
0
  6
Continuous
 62
     7
 48
3.0
370
    15
100
AcDbLine
 10
19.1949216691
 20
11.4441693348
 30
0.0
 11
19.1950862272
 21
11.422249668
 31
0.0
  0
LINE
  5
A5
330
1F
100
AcDbEntity
  8
0
  6
Continuous
 62
     7
 48
3.0
370
    15
100
AcDbLine
 10
19.2168413359
 20
11.4443341862
 30
0.0
 11
19.1949216691
 21
11.4441693348
 31
0.0
  0
LINE
  5
A6
330
1F
100
AcDbEntity
  8
0
  6
Continuous
 62
     7
 48
3.0
370
    15
100
AcDbLine
 10
19.2552889717
 20
11.3629450997
 30
0.0
 11
19.2772089318
 21
11.3631099512
 31
0.0
  0
LINE
  5
A7
330
1F
100
AcDbEntity
  8
0
  6
Continuous
 62
     7
 48
3.0
370
    15
100
AcDbLine
 10
19.2772089318
 20
11.3631099512
 30
0.0
 11
19.2770440804
 21
11.3850296179
 31
0.0
  0
CIRCLE
  5
A8
330
1F
100
AcDbEntity
  8
0
  6
Continuous
 62
     7
 48
9.0
370
    15
100
AcDbCircle
 10
19.2360651808
 20
11.40363968
 30
0.0
 40
0.1865000000000017
  0
LWPOLYLINE
  5
A9
330
1F
100
AcDbEntity
  8
0
  6
Continuous
 62
     7
 48
3.0
370
    15
100
AcDbPolyline
 90
        9
 70
   128
 43
0.0
 10
11.6950862811
 20
11.3850296179
 10
11.6841808605
 20
11.3742869954
 10
11.6734649309
 20
11.3637309307
 10
11.6629886519
 20
11.3534109965
 10
11.6527998363
 20
11.3433744191
 10
11.6429462968
 20
11.3336678379
 10
11.6334734996
 20
11.3243361324
 10
11.6244248574
 20
11.315422422
 10
11.6158426099
 20
11.3069683597
  0
ARC
  5
AA
330
1F
100
AcDbEntity
  8
0
  6
Continuous
 62
     7
 48
9.0
370
    15
100
AcDbCircle
 10
11.7360651808
 20
11.40363968
 30
0.0
 40
0.154268796474628
100
AcDbArc
 50
218.802861523
 51
230.3357915391
  0
LWPOLYLINE
  5
AB
330
1F
100
AcDbEntity
  8
0
  6
Continuous
 62
     7
 48
3.0
370
    15
100
AcDbPolyline
 90
        9
 70
   128
 43
0.0
 10
11.6375974253
 20
11.2848838415
 10
11.6461796728
 20
11.2933379038
 10
11.6552283149
 20
11.3022516142
 10
11.6647014055
 20
11.3115833197
 10
11.674554945
 20
11.3212899009
 10
11.6847434673
 20
11.3313264783
 10
11.6952200396
 20
11.3416464124
 10
11.7059356758
 20
11.3522024772
 10
11.7168413898
 20
11.3629450997
  0
LWPOLYLINE
  5
AC
330
1F
100
AcDbEntity
  8
0
  6
Continuous
 62
     7
 48
3.0
370
    15
100
AcDbPolyline
 90
        9
 70
   128
 43
0.0
 10
11.7168413898
 20
11.3629450997
 10
11.7243239434
 20
11.3628890737
 10
11.7318191101
 20
11.3628327544
 10
11.7393186768
 20
11.3627761417
 10
11.7468141369
 20
11.3627198223
 10
11.7542975705
 20
11.3626637963
 10
11.7617610576
 20
11.362607477
 10
11.7691960917
 20
11.3625517443
 10
11.7765947529
 20
11.3624960116
  0
LWPOLYLINE
  5
AD
330
1F
100
AcDbEntity
  8
0
  6
Continuous
 62
     7
 48
3.0
370
    15
100
AcDbPolyline
 90
        9
 70
   128
 43
0.0
 10
11.7765947529
 20
11.3624960116
 10
11.7766504856
 20
11.3698946728
 10
11.7767065116
 20
11.3773300002
 10
11.7767625376
 20
11.384793194
 10
11.776818857
 20
11.3922769209
 10
11.7768751763
 20
11.399772381
 10
11.7769314957
 20
11.4072719477
 10
11.776987815
 20
11.4147668211
 10
11.7770441344
 20
11.422249668
  0
LWPOLYLINE
  5
AE
330
1F
100
AcDbEntity
  8
0
  6
Continuous
 62
     7
 48
3.0
370
    15
100
AcDbPolyline
 90
        9
 70
   128
 43
0.0
 10
11.7770441344
 20
11.422249668
 10
11.787949555
 20
11.4329925839
 10
11.7986654846
 20
11.4435483553
 10
11.8091417636
 20
11.4538685827
 10
11.8193302859
 20
11.4639051601
 10
11.8291841187
 20
11.4736117413
 10
11.8386569159
 20
11.4829434468
 10
11.8477055581
 20
11.4918568639
 10
11.8562878056
 20
11.5003112195
  0
ARC
  5
AF
330
1F
100
AcDbEntity
  8
0
  6
Continuous
 62
     7
 48
9.0
370
    15
100
AcDbCircle
 10
11.7360651808
 20
11.40363968
 30
0.0
 40
0.1542687964746292
100
AcDbArc
 50
38.802861523
 51
50.3357915391
  0
LWPOLYLINE
  5
B0
330
1F
100
AcDbEntity
  8
0
  6
Continuous
 62
     7
 48
3.0
370
    15
100
AcDbPolyline
 90
        9
 70
   128
 43
0.0
 10
11.8345329902
 20
11.5223954444
 10
11.8259507427
 20
11.5139413821
 10
11.8169021006
 20
11.5050276717
 10
11.80742901
 20
11.4956959662
 10
11.7975754705
 20
11.485989385
 10
11.7873869482
 20
11.4759531009
 10
11.7769103759
 20
11.4656328735
 10
11.7661947397
 20
11.4550771021
 10
11.7552890257
 20
11.4443341862
  0
LWPOLYLINE
  5
B1
330
1F
100
AcDbEntity
  8
0
  6
Continuous
 62
     7
 48
3.0
370
    15
100
AcDbPolyline
 90
        9
 70
   128
 43
0.0
 10
11.7552890257
 20
11.4443341862
 10
11.7478064721
 20
11.4443905055
 10
11.7403113054
 20
11.4444468249
 10
11.7328117387
 20
11.4445031442
 10
11.7253162786
 20
11.4445594636
 10
11.7178325517
 20
11.4446157829
 10
11.7103693579
 20
11.4446718089
 10
11.7029343238
 20
11.4447275416
 10
11.6955353693
 20
11.4447832743
  0
LWPOLYLINE
  5
B2
330
1F
100
AcDbEntity
  8
0
  6
Continuous
 62
     7
 48
3.0
370
    15
100
AcDbPolyline
 90
        9
 70
   128
 43
0.0
 10
11.6955353693
 20
11.4447832743
 10
11.6954799299
 20
11.4373846131
 10
11.6954239039
 20
11.429949579
 10
11.6953678779
 20
11.4224860919
 10
11.6953115585
 20
11.4150026584
 10
11.6952552392
 20
11.4075069049
 10
11.6951989198
 20
11.4000076316
 10
11.6951426005
 20
11.3925124648
 10
11.6950862811
 20
11.3850296179
  0
LINE
  5
B3
330
1F
100
AcDbEntity
  8
0
  6
Continuous
 62
     7
 48
3.0
370
    15
100
AcDbLine
 10
11.6949214297
 20
11.3631099512
 30
0.0
 11
11.7168413898
 21
11.3629450997
 31
0.0
  0
LINE
  5
B4
330
1F
100
AcDbEntity
  8
0
  6
Continuous
 62
     7
 48
3.0
370
    15
100
AcDbLine
 10
11.6950862811
 20
11.3850296179
 30
0.0
 11
11.6949214297
 21
11.3631099512
 31
0.0
  0
LINE
  5
B5
330
1F
100
AcDbEntity
  8
0
  6
Continuous
 62
     7
 48
3.0
370
    15
100
AcDbLine
 10
11.7772086925
 20
11.4441693348
 30
0.0
 11
11.7552890257
 21
11.4443341862
 31
0.0
  0
LINE
  5
B6
330
1F
100
AcDbEntity
  8
0
  6
Continuous
 62
     7
 48
3.0
370
    15
100
AcDbLine
 10
11.7770441344
 20
11.422249668
 30
0.0
 11
11.7772086925
 21
11.4441693348
 31
0.0
  0
CIRCLE
  5
B7
330
1F
100
AcDbEntity
  8
0
  6
Continuous
 62
     7
 48
9.0
370
    15
100
AcDbCircle
 10
11.7360651808
 20
11.40363968
 30
0.0
 40
0.1864999999999979
  0
LWPOLYLINE
  5
B8
330
1F
100
AcDbEntity
  8
0
  6
Continuous
 62
     7
 48
3.0
370
    15
100
AcDbPolyline
 90
        9
 70
   128
 43
0.0
 10
19.2168413359
 20
17.4443342603
 10
19.2059356218
 20
17.4550768829
 10
19.1952199856
 20
17.4656329476
 10
19.1847434133
 20
17.4759528817
 10
19.174554891
 20
17.4859894591
 10
19.1647013515
 20
17.4956960403
 10
19.1552282609
 20
17.5050277459
 10
19.1461796188
 20
17.5139414562
 10
19.1375973713
 20
17.5223955186
  0
ARC
  5
B9
330
1F
100
AcDbEntity
  8
0
  6
Continuous
 62
     7
 48
9.0
370
    15
100
AcDbCircle
 10
19.2360651808
 20
17.40363968
 30
0.0
 40
0.1542687964746288
100
AcDbArc
 50
129.6642084609
 51
141.197138477
  0
LWPOLYLINE
  5
BA
330
1F
100
AcDbEntity
  8
0
  6
Continuous
 62
     7
 48
3.0
370
    15
100
AcDbPolyline
 90
        9
 70
   128
 43
0.0
 10
19.1158425559
 20
17.5003110004
 10
19.1244248035
 20
17.491856938
 10
19.1334734456
 20
17.4829432277
 10
19.1429462428
 20
17.4736115221
 10
19.1528000757
 20
17.4639049409
 10
19.162988598
 20
17.4538683635
 10
19.1734648769
 20
17.4435484294
 10
19.1841808065
 20
17.4329923647
 10
19.1950862272
 20
17.4222497421
  0
LWPOLYLINE
  5
BB
330
1F
100
AcDbEntity
  8
0
  6
Continuous
 62
     7
 48
3.0
370
    15
100
AcDbPolyline
 90
        9
 70
   128
 43
0.0
 10
19.2552889717
 20
17.3629451739
 10
19.2661946857
 20
17.352202258
 10
19.2769103219
 20
17.3416464866
 10
19.2873868942
 20
17.3313262591
 10
19.2975754165
 20
17.3212899751
 10
19.307428956
 20
17.3115833939
 10
19.3169020466
 20
17.3022516884
 10
19.3259506887
 20
17.293337978
 10
19.3345329363
 20
17.2848839157
  0
ARC
  5
BC
330
1F
100
AcDbEntity
  8
0
  6
Continuous
 62
     7
 48
9.0
370
    15
100
AcDbCircle
 10
19.2360651808
 20
17.40363968
 30
0.0
 40
0.1542687964746315
100
AcDbArc
 50
309.6642084609
 51
321.197138477
  0
LWPOLYLINE
  5
BD
330
1F
100
AcDbEntity
  8
0
  6
Continuous
 62
     7
 48
3.0
370
    15
100
AcDbPolyline
 90
        9
 70
   128
 43
0.0
 10
19.3562877516
 20
17.3069681405
 10
19.3477055041
 20
17.3154224962
 10
19.338656862
 20
17.3243359132
 10
19.3291840647
 20
17.3336676188
 10
19.3193305252
 20
17.3433742
 10
19.3091417096
 20
17.3534107774
 10
19.2986654306
 20
17.3637310048
 10
19.2879495011
 20
17.3742867762
 10
19.2770440804
 20
17.3850296921
  0
LWPOLYLINE
  5
BE
330
1F
100
AcDbEntity
  8
0
  6
Continuous
 62
     7
 48
3.0
370
    15
100
AcDbPolyline
 90
        9
 70
   128
 43
0.0
 10
19.1950862272
 20
17.4222497421
 10
19.1951425465
 20
17.4147668952
 10
19.1951988659
 20
17.4072717285
 10
19.1952551852
 20
17.3997724551
 10
19.1953115046
 20
17.3922767017
 10
19.1953678239
 20
17.3847932682
 10
19.1954238499
 20
17.377329781
 10
19.195479876
 20
17.3698947469
 10
19.1955356086
 20
17.3624960857
  0
LWPOLYLINE
  5
BF
330
1F
100
AcDbEntity
  8
0
  6
Continuous
 62
     7
 48
3.0
370
    15
100
AcDbPolyline
 90
        9
 70
   128
 43
0.0
 10
19.1955356086
 20
17.3624960857
 10
19.2029342698
 20
17.3625518184
 10
19.210369304
 20
17.3626075511
 10
19.2178327911
 20
17.3626635771
 10
19.2253162246
 20
17.3627198965
 10
19.2328116847
 20
17.3627762158
 10
19.2403112514
 20
17.3628325352
 10
19.2478064181
 20
17.3628888545
 10
19.2552889717
 20
17.3629451739
  0
LWPOLYLINE
  5
C0
330
1F
100
AcDbEntity
  8
0
  6
Continuous
 62
     7
 48
3.0
370
    15
100
AcDbPolyline
 90
        9
 70
   128
 43
0.0
 10
19.2770440804
 20
17.3850296921
 10
19.276987761
 20
17.392512539
 10
19.2769314417
 20
17.4000074124
 10
19.2768751223
 20
17.4075069791
 10
19.276818803
 20
17.4150024392
 10
19.2767624836
 20
17.4224861661
 10
19.2767064576
 20
17.4299493598
 10
19.2766504316
 20
17.4373846873
 10
19.2765949922
 20
17.4447833485
  0
LWPOLYLINE
  5
C1
330
1F
100
AcDbEntity
  8
0
  6
Continuous
 62
     7
 48
3.0
370
    15
100
AcDbPolyline
 90
        9
 70
   128
 43
0.0
 10
19.2765949922
 20
17.4447833485
 10
19.2691960377
 20
17.4447276158
 10
19.2617610036
 20
17.4446718831
 10
19.2542978098
 20
17.4446155638
 10
19.2468140829
 20
17.4445595377
 10
19.2393186229
 20
17.4445032184
 10
19.2318190562
 20
17.4444466057
 10
19.2243238894
 20
17.4443902864
 10
19.2168413359
 20
17.4443342603
  0
LINE
  5
C2
330
1F
100
AcDbEntity
  8
0
  6
Continuous
 62
     7
 48
3.0
370
    15
100
AcDbLine
 10
19.1949216691
 20
17.4441694089
 30
0.0
 11
19.1950862272
 21
17.4222497421
 31
0.0
  0
LINE
  5
C3
330
1F
100
AcDbEntity
  8
0
  6
Continuous
 62
     7
 48
3.0
370
    15
100
AcDbLine
 10
19.2168413359
 20
17.4443342603
 30
0.0
 11
19.1949216691
 21
17.4441694089
 31
0.0
  0
LINE
  5
C4
330
1F
100
AcDbEntity
  8
0
  6
Continuous
 62
     7
 48
3.0
370
    15
100
AcDbLine
 10
19.2552889717
 20
17.3629451739
 30
0.0
 11
19.2772089318
 21
17.3631100253
 31
0.0
  0
LINE
  5
C5
330
1F
100
AcDbEntity
  8
0
  6
Continuous
 62
     7
 48
3.0
370
    15
100
AcDbLine
 10
19.2772089318
 20
17.3631100253
 30
0.0
 11
19.2770440804
 21
17.3850296921
 31
0.0
  0
CIRCLE
  5
C6
330
1F
100
AcDbEntity
  8
0
  6
Continuous
 62
     7
 48
9.0
370
    15
100
AcDbCircle
 10
19.2360651808
 20
17.40363968
 30
0.0
 40
0.1865000000000004
  0
LWPOLYLINE
  5
C7
330
1F
100
AcDbEntity
  8
0
  6
Continuous
 62
     7
 48
3.0
370
    15
100
AcDbPolyline
 90
        9
 70
   128
 43
0.0
 10
11.6950862811
 20
17.3850296921
 10
11.6841808605
 20
17.3742867762
 10
11.6734649309
 20
17.3637310048
 10
11.6629886519
 20
17.3534107774
 10
11.6527998363
 20
17.3433742
 10
11.6429462968
 20
17.3336676188
 10
11.6334734996
 20
17.3243359132
 10
11.6244248574
 20
17.3154224962
 10
11.6158426099
 20
17.3069681405
  0
ARC
  5
C8
330
1F
100
AcDbEntity
  8
0
  6
Continuous
 62
     7
 48
9.0
370
    15
100
AcDbCircle
 10
11.7360651808
 20
17.40363968
 30
0.0
 40
0.1542687964746303
100
AcDbArc
 50
218.802861523
 51
230.3357915391
  0
LWPOLYLINE
  5
C9
330
1F
100
AcDbEntity
  8
0
  6
Continuous
 62
     7
 48
3.0
370
    15
100
AcDbPolyline
 90
        9
 70
   128
 43
0.0
 10
11.6375974253
 20
17.2848839157
 10
11.6461796728
 20
17.293337978
 10
11.6552283149
 20
17.3022516884
 10
11.6647014055
 20
17.3115833939
 10
11.674554945
 20
17.3212899751
 10
11.6847434673
 20
17.3313262591
 10
11.6952200396
 20
17.3416464866
 10
11.7059356758
 20
17.352202258
 10
11.7168413898
 20
17.3629451739
  0
LWPOLYLINE
  5
CA
330
1F
100
AcDbEntity
  8
0
  6
Continuous
 62
     7
 48
3.0
370
    15
100
AcDbPolyline
 90
        9
 70
   128
 43
0.0
 10
11.7765947529
 20
17.3624960857
 10
11.7766504856
 20
17.3698947469
 10
11.7767065116
 20
17.377329781
 10
11.7767625376
 20
17.3847932682
 10
11.776818857
 20
17.3922767017
 10
11.7768751763
 20
17.3997724551
 10
11.7769314957
 20
17.4072717285
 10
11.776987815
 20
17.4147668952
 10
11.7770441344
 20
17.4222497421
  0
LWPOLYLINE
  5
CB
330
1F
100
AcDbEntity
  8
0
  6
Continuous
 62
     7
 48
3.0
370
    15
100
AcDbPolyline
 90
        9
 70
   128
 43
0.0
 10
11.7770441344
 20
17.4222497421
 10
11.787949555
 20
17.4329923647
 10
11.7986654846
 20
17.4435484294
 10
11.8091417636
 20
17.4538683635
 10
11.8193302859
 20
17.4639049409
 10
11.8291841187
 20
17.4736115221
 10
11.8386569159
 20
17.4829432277
 10
11.8477055581
 20
17.491856938
 10
11.8562878056
 20
17.5003110004
  0
ARC
  5
CC
330
1F
100
AcDbEntity
  8
0
  6
Continuous
 62
     7
 48
9.0
370
    15
100
AcDbCircle
 10
11.7360651808
 20
17.40363968
 30
0.0
 40
0.1542687964746288
100
AcDbArc
 50
38.802861523
 51
50.3357915391
  0
LWPOLYLINE
  5
CD
330
1F
100
AcDbEntity
  8
0
  6
Continuous
 62
     7
 48
3.0
370
    15
100
AcDbPolyline
 90
        9
 70
   128
 43
0.0
 10
11.8345329902
 20
17.5223955186
 10
11.8259507427
 20
17.5139414562
 10
11.8169021006
 20
17.5050277459
 10
11.80742901
 20
17.4956960403
 10
11.7975754705
 20
17.4859894591
 10
11.7873869482
 20
17.4759528817
 10
11.7769103759
 20
17.4656329476
 10
11.7661947397
 20
17.4550768829
 10
11.7552890257
 20
17.4443342603
  0
LWPOLYLINE
  5
CE
330
1F
100
AcDbEntity
  8
0
  6
Continuous
 62
     7
 48
3.0
370
    15
100
AcDbPolyline
 90
        9
 70
   128
 43
0.0
 10
11.7552890257
 20
17.4443342603
 10
11.7478064721
 20
17.4443902864
 10
11.7403113054
 20
17.4444466057
 10
11.7328117387
 20
17.4445032184
 10
11.7253162786
 20
17.4445595377
 10
11.7178325517
 20
17.4446155638
 10
11.7103693579
 20
17.4446718831
 10
11.7029343238
 20
17.4447276158
 10
11.6955353693
 20
17.4447833485
  0
LWPOLYLINE
  5
CF
330
1F
100
AcDbEntity
  8
0
  6
Continuous
 62
     7
 48
3.0
370
    15
100
AcDbPolyline
 90
        9
 70
   128
 43
0.0
 10
11.6955353693
 20
17.4447833485
 10
11.6954799299
 20
17.4373846873
 10
11.6954239039
 20
17.4299493598
 10
11.6953678779
 20
17.4224861661
 10
11.6953115585
 20
17.4150024392
 10
11.6952552392
 20
17.4075069791
 10
11.6951989198
 20
17.4000074124
 10
11.6951426005
 20
17.392512539
 10
11.6950862811
 20
17.3850296921
  0
LWPOLYLINE
  5
D0
330
1F
100
AcDbEntity
  8
0
  6
Continuous
 62
     7
 48
3.0
370
    15
100
AcDbPolyline
 90
        9
 70
   128
 43
0.0
 10
11.7168413898
 20
17.3629451739
 10
11.7243239434
 20
17.3628888545
 10
11.7318191101
 20
17.3628325352
 10
11.7393186768
 20
17.3627762158
 10
11.7468141369
 20
17.3627198965
 10
11.7542975705
 20
17.3626635771
 10
11.7617610576
 20
17.3626075511
 10
11.7691960917
 20
17.3625518184
 10
11.7765947529
 20
17.3624960857
  0
LINE
  5
D1
330
1F
100
AcDbEntity
  8
0
  6
Continuous
 62
     7
 48
3.0
370
    15
100
AcDbLine
 10
11.7772086925
 20
17.4441694089
 30
0.0
 11
11.7552890257
 21
17.4443342603
 31
0.0
  0
LINE
  5
D2
330
1F
100
AcDbEntity
  8
0
  6
Continuous
 62
     7
 48
3.0
370
    15
100
AcDbLine
 10
11.7770441344
 20
17.4222497421
 30
0.0
 11
11.7772086925
 21
17.4441694089
 31
0.0
  0
LINE
  5
D3
330
1F
100
AcDbEntity
  8
0
  6
Continuous
 62
     7
 48
3.0
370
    15
100
AcDbLine
 10
11.6950862811
 20
17.3850296921
 30
0.0
 11
11.6949214297
 21
17.3631100253
 31
0.0
  0
LINE
  5
D4
330
1F
100
AcDbEntity
  8
0
  6
Continuous
 62
     7
 48
3.0
370
    15
100
AcDbLine
 10
11.6949214297
 20
17.3631100253
 30
0.0
 11
11.7168413898
 21
17.3629451739
 31
0.0
  0
CIRCLE
  5
D5
330
1F
100
AcDbEntity
  8
0
  6
Continuous
 62
     7
 48
9.0
370
    15
100
AcDbCircle
 10
11.7360651808
 20
17.40363968
 30
0.0
 40
0.1864999999999991
  0
DIMENSION
  5
D6
330
1F
100
AcDbEntity
  8
0
  6
Continuous
 62
     7
 48
3.0
370
     0
100
AcDbDimension
  2
*D5
 10
19.4860651808
 20
20.4552637076
 30
0.0
 11
15.4860651808
 21
20.4552637076
 31
0.0
 70
   160
 71
     2
 42
-1.0
  3
SLDDIMSTYLE0
100
AcDbAlignedDimension
 13
11.4860651808
 23
19.40363968
 33
0.0
 14
19.4860651808
 24
19.40363968
 34
0.0
100
AcDbRotatedDimension
  0
DIMENSION
  5
E9
330
1F
100
AcDbEntity
  8
0
  6
Continuous
 62
     7
 48
3.0
370
     0
100
AcDbDimension
  2
*D6
 10
20.6809109214
 20
9.40363968
 30
0.0
 11
20.6809109214
 21
14.40363968
 31
0.0
 70
   160
 71
     2
 42
-1.0
  3
SLDDIMSTYLE0
100
AcDbAlignedDimension
 13
19.4860651808
 23
19.40363968
 33
0.0
 14
19.4860651808
 24
9.40363968
 34
0.0
 50
90.0
100
AcDbRotatedDimension
  0
INSERT
  5
103
102
{ACAD_REACTORS
330
105
102
}
330
1F
100
AcDbEntity
  8
0
  6
Continuous
 62
     7
 48
3.0
370
     0
100
AcDbBlockReference
  2
SW_NOTE_4
 10
21.6891157689
 20
7.0367470053
 30
0.0
  0
LEADER
  5
105
330
1F
100
AcDbEntity
  8
0
  6
Continuous
 62
     7
 48
3.0
370
     0
100
AcDbLeader
  3
SLDDIMSTYLE1
 73
     2
 76
     3
 10
19.2910353709
 20
11.2254248428
 30
0.0
 10
20.9391157689
 20
7.0367470053
 30
0.0
 10
21.6891157689
 20
7.0367470053
 30
0.0
340
103
  0
LINE
  5
106
330
1F
100
AcDbEntity
  8
0
  6
Continuous
 62
     7
 48
3.0
370
    15
100
AcDbLine
 10
19.422565066
 20
21.7811257032
 30
0.0
 11
19.422565066
 21
21.8144567849
 31
0.0
  0
LINE
  5
107
330
1F
100
AcDbEntity
  8
0
  6
Continuous
 62
     7
 48
3.0
370
    15
100
AcDbLine
 10
19.0495652416
 20
21.8144567849
 30
0.0
 11
19.0495652416
 21
21.7811257032
 31
0.0
  0
ARC
  5
108
330
1F
100
AcDbEntity
  8
0
  6
Continuous
 62
     7
 48
9.0
370
    15
100
AcDbCircle
 10
19.4075651808
 20
21.7811255242
 30
0.0
 40
0.0150000000000055
100
AcDbArc
 50
322.550643686
 51
0.0
  0
ARC
  5
109
330
1F
100
AcDbEntity
  8
0
  6
Continuous
 62
     7
 48
9.0
370
    15
100
AcDbCircle
 10
19.0645651808
 20
21.7811255242
 30
0.0
 40
0.0150000000000027
100
AcDbArc
 50
180.0
 51
217.449356314
  0
ARC
  5
10A
330
1F
100
AcDbEntity
  8
0
  6
Continuous
 62
     7
 48
9.0
370
    15
100
AcDbCircle
 10
19.2360651808
 20
21.9124814231
 30
0.0
 40
0.2310245869783066
100
AcDbArc
 50
280.1818657166
 51
322.550643686
  0
ARC
  5
10B
330
1F
100
AcDbEntity
  8
0
  6
Continuous
 62
     7
 48
9.0
370
    15
100
AcDbCircle
 10
19.2360651808
 20
21.9124814231
 30
0.0
 40
0.2310245869783038
100
AcDbArc
 50
217.449356314
 51
259.8181342834
  0
LINE
  5
10C
330
1F
100
AcDbEntity
  8
0
  6
Continuous
 62
     7
 48
3.0
370
    15
100
AcDbLine
 10
19.3050653034
 20
21.9384567391
 30
0.0
 11
19.3050653034
 21
22.0154570229
 31
0.0
  0
LINE
  5
10D
330
1F
100
AcDbEntity
  8
0
  6
Continuous
 62
     7
 48
3.0
370
    15
100
AcDbLine
 10
19.1670652975
 20
22.0154570229
 30
0.0
 11
19.1670652975
 21
21.9384567391
 31
0.0
  0
LINE
  5
10E
330
1F
100
AcDbEntity
  8
0
  6
Continuous
 62
     7
 48
3.0
370
    15
100
AcDbLine
 10
11.92256512
 20
21.7811257032
 30
0.0
 11
11.92256512
 21
21.8144567849
 31
0.0
  0
LINE
  5
10F
330
1F
100
AcDbEntity
  8
0
  6
Continuous
 62
     7
 48
3.0
370
    15
100
AcDbLine
 10
11.5495652956
 20
21.8144567849
 30
0.0
 11
11.5495652956
 21
21.7811257032
 31
0.0
  0
ARC
  5
110
330
1F
100
AcDbEntity
  8
0
  6
Continuous
 62
     7
 48
9.0
370
    15
100
AcDbCircle
 10
11.9075651808
 20
21.7811255242
 30
0.0
 40
0.0150000000000013
100
AcDbArc
 50
322.550643686
 51
0.0
  0
ARC
  5
111
330
1F
100
AcDbEntity
  8
0
  6
Continuous
 62
     7
 48
9.0
370
    15
100
AcDbCircle
 10
11.5645651808
 20
21.7811255242
 30
0.0
 40
0.0150000000000013
100
AcDbArc
 50
180.0
 51
217.449356314
  0
ARC
  5
112
330
1F
100
AcDbEntity
  8
0
  6
Continuous
 62
     7
 48
9.0
370
    15
100
AcDbCircle
 10
11.7360651808
 20
21.9124814231
 30
0.0
 40
0.2310245869783038
100
AcDbArc
 50
280.1818657166
 51
322.550643686
  0
ARC
  5
113
330
1F
100
AcDbEntity
  8
0
  6
Continuous
 62
     7
 48
9.0
370
    15
100
AcDbCircle
 10
11.7360651808
 20
21.9124814231
 30
0.0
 40
0.2310245869783038
100
AcDbArc
 50
217.449356314
 51
259.8181342834
  0
LINE
  5
114
330
1F
100
AcDbEntity
  8
0
  6
Continuous
 62
     7
 48
3.0
370
    15
100
AcDbLine
 10
11.805065064
 20
21.9384567391
 30
0.0
 11
11.805065064
 21
22.0154570229
 31
0.0
  0
LINE
  5
115
330
1F
100
AcDbEntity
  8
0
  6
Continuous
 62
     7
 48
3.0
370
    15
100
AcDbLine
 10
11.6670650582
 20
22.0154570229
 30
0.0
 11
11.6670650582
 21
21.9384567391
 31
0.0
  0
LINE
  5
116
330
1F
100
AcDbEntity
  8
0
  6
Continuous
 62
     7
 48
3.0
370
    15
100
AcDbLine
 10
19.4860651324
 20
21.876456762
 30
0.0
 11
11.4860652291
 21
21.876456762
 31
0.0
  0
LINE
  5
117
330
1F
100
AcDbEntity
  8
0
  6
Continuous
 62
     7
 48
3.0
370
    15
100
AcDbLine
 10
19.4860651324
 20
21.8144567849
 30
0.0
 11
11.4860652291
 21
21.8144567849
 31
0.0
  0
LINE
  5
118
330
1F
100
AcDbEntity
  8
0
  6
Continuous
 62
     7
 48
3.0
370
    15
100
AcDbLine
 10
11.4860652291
 20
21.876456762
 30
0.0
 11
11.4860652291
 21
21.8144567849
 31
0.0
  0
LINE
  5
119
330
1F
100
AcDbEntity
  8
0
  6
Continuous
 62
     7
 48
3.0
370
    15
100
AcDbLine
 10
19.4860651324
 20
21.876456762
 30
0.0
 11
19.4860651324
 21
21.8144567849
 31
0.0
  0
LINE
  5
11A
330
1F
100
AcDbEntity
  8
0
  6
Continuous
 62
     7
 48
3.0
370
    15
100
AcDbLine
 10
18.9550651866
 20
22.0154570229
 30
0.0
 11
19.3470651648
 21
22.0154570229
 31
0.0
  0
LINE
  5
11B
330
1F
100
AcDbEntity
  8
0
  6
Continuous
 62
     7
 48
3.0
370
    15
100
AcDbLine
 10
18.9550651866
 20
21.9534570458
 30
0.0
 11
18.9550651866
 21
22.0154570229
 31
0.0
  0
LINE
  5
11C
330
1F
100
AcDbEntity
  8
0
  6
Continuous
 62
     7
 48
3.0
370
    15
100
AcDbLine
 10
12.017065175
 20
21.9534570458
 30
0.0
 11
12.017065175
 21
22.0154570229
 31
0.0
  0
LINE
  5
11D
330
1F
100
AcDbEntity
  8
0
  6
Continuous
 62
     7
 48
3.0
370
    15
100
AcDbLine
 10
12.017065175
 20
22.0154570229
 30
0.0
 11
11.6250651967
 21
22.0154570229
 31
0.0
  0
LINE
  5
11E
330
1F
100
AcDbEntity
  8
0
  6
Continuous
 62
     7
 48
3.0
370
    15
100
AcDbLine
 10
11.5480652062
 20
22.0154570229
 30
0.0
 11
11.6250651967
 21
22.0154570229
 31
0.0
  0
LINE
  5
11F
330
1F
100
AcDbEntity
  8
0
  6
Continuous
 62
     7
 48
3.0
370
    15
100
AcDbLine
 10
11.6250651967
 20
27.7374568319
 30
0.0
 11
11.5480652062
 21
27.7374568319
 31
0.0
  0
LINE
  5
120
330
1F
100
AcDbEntity
  8
0
  6
Continuous
 62
     7
 48
3.0
370
    15
100
AcDbLine
 10
19.3470651648
 20
27.7374568319
 30
0.0
 11
19.4240651553
 21
27.7374568319
 31
0.0
  0
LINE
  5
121
330
1F
100
AcDbEntity
  8
0
  6
Continuous
 62
     7
 48
3.0
370
    15
100
AcDbLine
 10
19.4240651553
 20
22.0154570229
 30
0.0
 11
19.3470651648
 21
22.0154570229
 31
0.0
  0
LINE
  5
122
330
1F
100
AcDbEntity
  8
0
  6
Continuous
 62
     7
 48
3.0
370
    15
100
AcDbLine
 10
11.6250651967
 20
27.8144568361
 30
0.0
 11
11.6250651967
 21
27.7374568319
 31
0.0
  0
LINE
  5
123
330
1F
100
AcDbEntity
  8
0
  6
Continuous
 62
     7
 48
3.0
370
    15
100
AcDbLine
 10
19.3470651648
 20
27.8144568361
 30
0.0
 11
19.3470651648
 21
27.7374568319
 31
0.0
  0
LINE
  5
124
330
1F
100
AcDbEntity
  8
0
  6
Continuous
 62
     7
 48
3.0
370
    15
100
AcDbLine
 10
12.017065175
 20
21.9534570458
 30
0.0
 11
12.017065175
 21
21.876456762
 31
0.0
  0
LINE
  5
125
330
1F
100
AcDbEntity
  8
0
  6
Continuous
 62
     7
 48
3.0
370
    15
100
AcDbLine
 10
18.9550651866
 20
21.9534570458
 30
0.0
 11
18.9550651866
 21
21.876456762
 31
0.0
  0
LINE
  5
126
330
1F
100
AcDbEntity
  8
0
  6
Continuous
 62
     7
 48
3.0
370
    15
100
AcDbLine
 10
19.4240651553
 20
21.9534570458
 30
0.0
 11
19.4240651553
 21
27.7994568365
 31
0.0
  0
LINE
  5
127
330
1F
100
AcDbEntity
  8
0
  6
Continuous
 62
     7
 48
3.0
370
    15
100
AcDbLine
 10
19.4860651324
 20
21.9534570458
 30
0.0
 11
19.4860651324
 21
27.7994568365
 31
0.0
  0
LINE
  5
128
330
1F
100
AcDbEntity
  8
0
  6
Continuous
 62
     7
 48
3.0
370
    15
100
AcDbLine
 10
11.4860652291
 20
27.7994568365
 30
0.0
 11
11.4860652291
 21
21.9534570458
 31
0.0
  0
LINE
  5
129
330
1F
100
AcDbEntity
  8
0
  6
Continuous
 62
     7
 48
3.0
370
    15
100
AcDbLine
 10
11.5480652062
 20
27.7994568365
 30
0.0
 11
11.5480652062
 21
21.9534570458
 31
0.0
  0
ARC
  5
12A
330
1F
100
AcDbEntity
  8
0
  6
Continuous
 62
     7
 48
9.0
370
    15
100
AcDbCircle
 10
11.5630651808
 20
27.7994568361
 30
0.0
 40
0.077
100
AcDbArc
 50
90.0
 51
180.0
  0
ARC
  5
12B
330
1F
100
AcDbEntity
  8
0
  6
Continuous
 62
     7
 48
9.0
370
    15
100
AcDbCircle
 10
11.5630651808
 20
27.7994568361
 30
0.0
 40
0.0150000000000006
100
AcDbArc
 50
90.0
 51
180.0
  0
LINE
  5
12C
330
1F
100
AcDbEntity
  8
0
  6
Continuous
 62
     7
 48
3.0
370
    15
100
AcDbLine
 10
19.4090651419
 20
27.8764568361
 30
0.0
 11
11.5630652196
 21
27.8764568361
 31
0.0
  0
LINE
  5
12D
330
1F
100
AcDbEntity
  8
0
  6
Continuous
 62
     7
 48
3.0
370
    15
100
AcDbLine
 10
19.4090651419
 20
27.8144568361
 30
0.0
 11
11.5630652196
 21
27.8144568361
 31
0.0
  0
ARC
  5
12E
330
1F
100
AcDbEntity
  8
0
  6
Continuous
 62
     7
 48
9.0
370
    15
100
AcDbCircle
 10
19.4090651808
 20
27.7994568361
 30
0.0
 40
0.0770000000000017
100
AcDbArc
 50
0.0
 51
90.0
  0
ARC
  5
12F
330
1F
100
AcDbEntity
  8
0
  6
Continuous
 62
     7
 48
9.0
370
    15
100
AcDbCircle
 10
19.4090651808
 20
27.7994568361
 30
0.0
 40
0.0150000000000006
100
AcDbArc
 50
0.0
 51
90.0
  0
ARC
  5
130
330
1F
100
AcDbEntity
  8
0
  6
Continuous
 62
     7
 48
9.0
370
    15
100
AcDbCircle
 10
11.5630651808
 20
21.9534568361
 30
0.0
 40
0.0150000000000006
100
AcDbArc
 50
180.0
 51
270.0
  0
ARC
  5
131
330
1F
100
AcDbEntity
  8
0
  6
Continuous
 62
     7
 48
9.0
370
    15
100
AcDbCircle
 10
11.5630651808
 20
21.9534568361
 30
0.0
 40
0.0770000000000017
100
AcDbArc
 50
180.0
 51
270.0
  0
ARC
  5
132
330
1F
100
AcDbEntity
  8
0
  6
Continuous
 62
     7
 48
9.0
370
    15
100
AcDbCircle
 10
19.4090651808
 20
21.9534568361
 30
0.0
 40
0.0150000000000006
100
AcDbArc
 50
270.0
 51
0.0
  0
ARC
  5
133
330
1F
100
AcDbEntity
  8
0
  6
Continuous
 62
     7
 48
9.0
370
    15
100
AcDbCircle
 10
19.4090651808
 20
21.9534568361
 30
0.0
 40
0.0770000000000017
100
AcDbArc
 50
270.0
 51
0.0
  0
LINE
  5
134
330
1F
100
AcDbEntity
  8
0
  6
Continuous
 62
     7
 48
3.0
370
    15
100
AcDbLine
 10
18.9860651751
 20
21.876456762
 30
0.0
 11
18.9860651751
 21
21.9384567391
 31
0.0
  0
LINE
  5
135
330
1F
100
AcDbEntity
  8
0
  6
Continuous
 62
     7
 48
3.0
370
    15
100
AcDbLine
 10
18.9860651751
 20
21.9384567391
 30
0.0
 11
19.4090651419
 21
21.9384567391
 31
0.0
  0
LINE
  5
136
330
1F
100
AcDbEntity
  8
0
  6
Continuous
 62
     7
 48
3.0
370
    15
100
AcDbLine
 10
18.9860651751
 20
21.876456762
 30
0.0
 11
19.4090651419
 21
21.876456762
 31
0.0
  0
LINE
  5
137
330
1F
100
AcDbEntity
  8
0
  6
Continuous
 62
     7
 48
3.0
370
    15
100
AcDbLine
 10
11.9860651864
 20
21.9384567391
 30
0.0
 11
11.9860651864
 21
21.876456762
 31
0.0
  0
LINE
  5
138
330
1F
100
AcDbEntity
  8
0
  6
Continuous
 62
     7
 48
3.0
370
    15
100
AcDbLine
 10
11.5630652196
 20
21.876456762
 30
0.0
 11
11.9860651864
 21
21.876456762
 31
0.0
  0
LINE
  5
139
330
1F
100
AcDbEntity
  8
0
  6
Continuous
 62
     7
 48
3.0
370
    15
100
AcDbLine
 10
11.5630652196
 20
21.9384567391
 30
0.0
 11
11.9860651864
 21
21.9384567391
 31
0.0
  0
ARC
  5
13A
330
1F
100
AcDbEntity
  8
0
  6
Continuous
 62
     7
 48
9.0
370
    15
100
AcDbCircle
 10
19.259430889
 20
21.8324531655
 30
0.0
 40
0.152632290137228
100
AcDbArc
 50
217.0399324698
 51
253.7974584433
  0
LINE
  5
13B
330
1F
100
AcDbEntity
  8
0
  6
Continuous
 62
     7
 48
3.0
370
    15
100
AcDbLine
 10
19.1158425559
 20
21.7405118258
 30
0.0
 11
19.1375973713
 21
21.7405118258
 31
0.0
  0
ARC
  5
13C
330
1F
100
AcDbEntity
  8
0
  6
Continuous
 62
     7
 48
9.0
370
    15
100
AcDbCircle
 10
19.2376761639
 20
21.8324530679
 30
0.0
 40
0.1526323034007251
100
AcDbArc
 50
217.0398827814
 51
253.7973099166
  0
LWPOLYLINE
  5
13D
330
1F
100
AcDbEntity
  8
0
  6
Continuous
 62
     7
 48
3.0
370
    15
100
AcDbPolyline
 90
        9
 70
   128
 43
0.0
 10
19.1950862272
 20
21.6858832302
 10
19.1951425465
 20
21.6853828093
 10
19.1951988659
 20
21.6851287855
 10
19.1952551852
 20
21.6851229189
 10
19.1953115046
 20
21.6853640362
 10
19.1953678239
 20
21.6858521372
 10
19.1954238499
 20
21.6865866354
 10
19.195479876
 20
21.687566944
 10
19.1955356086
 20
21.6887918899
  0
ARC
  5
13E
330
1F
100
AcDbEntity
  8
0
  6
Continuous
 62
     7
 48
9.0
370
    15
100
AcDbCircle
 10
19.2364001807
 20
21.9126697828
 30
0.0
 40
0.2275768533644487
100
AcDbArc
 50
259.6556446666
 51
264.9949728214
  0
ARC
  5
13F
330
1F
100
AcDbEntity
  8
0
  6
Continuous
 62
     7
 48
9.0
370
    15
100
AcDbCircle
 10
19.236368554
 20
21.9124985801
 30
0.0
 40
0.227403823664163
100
AcDbArc
 50
270.0091029665
 51
274.772631867
  0
ARC
  5
140
330
1F
100
AcDbEntity
  8
0
  6
Continuous
 62
     7
 48
9.0
370
    15
100
AcDbCircle
 10
19.2929952582
 20
21.6883023664
 30
0.0
 40
0.016407570078633
100
AcDbArc
 50
178.2903138258
 51
191.2715852688
  0
ARC
  5
141
330
1F
100
AcDbEntity
  8
0
  6
Continuous
 62
     7
 48
9.0
370
    15
100
AcDbCircle
 10
19.2357589372
 20
21.9124769497
 30
0.0
 40
0.2273820339980522
100
AcDbArc
 50
265.2276218576
 51
280.3460114466
  0
LINE
  5
142
330
1F
100
AcDbEntity
  8
0
  6
Continuous
 62
     7
 48
3.0
370
    15
100
AcDbLine
 10
19.1950862272
 20
21.6858832302
 30
0.0
 11
19.1950862272
 21
21.6937726324
 31
0.0
  0
LINE
  5
143
330
1F
100
AcDbEntity
  8
0
  6
Continuous
 62
     7
 48
3.0
370
    15
100
AcDbLine
 10
19.1955356086
 20
21.6935637814
 30
0.0
 11
19.1955356086
 21
21.6887918899
 31
0.0
  0
LINE
  5
144
330
1F
100
AcDbEntity
  8
0
  6
Continuous
 62
     7
 48
3.0
370
    15
100
AcDbLine
 10
19.2552889717
 20
21.6859354429
 30
0.0
 11
19.2552889717
 21
21.6858832302
 31
0.0
  0
ARC
  5
145
330
1F
100
AcDbEntity
  8
0
  6
Continuous
 62
     7
 48
9.0
370
    15
100
AcDbCircle
 10
11.7357438828
 20
21.9121730248
 30
0.0
 40
0.227077906038285
100
AcDbArc
 50
265.2250407068
 51
270.0810390102
  0
ARC
  5
146
330
1F
100
AcDbEntity
  8
0
  6
Continuous
 62
     7
 48
9.0
370
    15
100
AcDbCircle
 10
11.7357301809
 20
21.9126697828
 30
0.0
 40
0.2275768533644062
100
AcDbArc
 50
275.0050271786
 51
280.3443553334
  0
LWPOLYLINE
  5
147
330
1F
100
AcDbEntity
  8
0
  6
Continuous
 62
     7
 48
3.0
370
    15
100
AcDbPolyline
 90
        9
 70
   128
 43
0.0
 10
11.7765947529
 20
21.6887918899
 10
11.7766504856
 20
21.687566944
 10
11.7767065116
 20
21.6865866354
 10
11.7767625376
 20
21.6858521372
 10
11.776818857
 20
21.6853640362
 10
11.7768751763
 20
21.6851229189
 10
11.7769314957
 20
21.6851287855
 10
11.776987815
 20
21.6853828093
 10
11.7770441344
 20
21.6858832302
  0
ARC
  5
148
330
1F
100
AcDbEntity
  8
0
  6
Continuous
 62
     7
 48
9.0
370
    15
100
AcDbCircle
 10
11.7344541976
 20
21.8324530679
 30
0.0
 40
0.152632303400735
100
AcDbArc
 50
286.2026900834
 51
322.9601172186
  0
LINE
  5
149
330
1F
100
AcDbEntity
  8
0
  6
Continuous
 62
     7
 48
3.0
370
    15
100
AcDbLine
 10
11.8345329902
 20
21.7405118258
 30
0.0
 11
11.8562878056
 21
21.7405118258
 31
0.0
  0
ARC
  5
14A
330
1F
100
AcDbEntity
  8
0
  6
Continuous
 62
     7
 48
9.0
370
    15
100
AcDbCircle
 10
11.7126994726
 20
21.8324531655
 30
0.0
 40
0.1526322901372479
100
AcDbArc
 50
286.2025415567
 51
322.9600675302
  0
ARC
  5
14B
330
1F
100
AcDbEntity
  8
0
  6
Continuous
 62
     7
 48
9.0
370
    15
100
AcDbCircle
 10
11.7363714244
 20
21.9124769497
 30
0.0
 40
0.2273820339980594
100
AcDbArc
 50
259.6539885534
 51
274.7723781424
  0
ARC
  5
14C
330
1F
100
AcDbEntity
  8
0
  6
Continuous
 62
     7
 48
9.0
370
    15
100
AcDbCircle
 10
11.6791351034
 20
21.6883023664
 30
0.0
 40
0.0164075700786381
100
AcDbArc
 50
348.7284147312
 51
1.7096861742
  0
LINE
  5
14D
330
1F
100
AcDbEntity
  8
0
  6
Continuous
 62
     7
 48
3.0
370
    15
100
AcDbLine
 10
11.7770441344
 20
21.6937726324
 30
0.0
 11
11.7770441344
 21
21.6858832302
 31
0.0
  0
LINE
  5
14E
330
1F
100
AcDbEntity
  8
0
  6
Continuous
 62
     7
 48
3.0
370
    15
100
AcDbLine
 10
11.7765947529
 20
21.6935637814
 30
0.0
 11
11.7765947529
 21
21.6887918899
 31
0.0
  0
LINE
  5
14F
330
1F
100
AcDbEntity
  8
0
  6
Continuous
 62
     7
 48
3.0
370
    15
100
AcDbLine
 10
11.7168413898
 20
21.6858832302
 30
0.0
 11
11.7168413898
 21
21.6859354429
 31
0.0
  0
DIMENSION
  5
150
330
1F
100
AcDbEntity
  8
0
  6
Continuous
 62
     7
 48
3.0
370
     0
100
AcDbDimension
  2
*D8
 10
20.6809109214
 20
21.8764568361
 30
0.0
 11
20.6809109214
 21
24.8764568361
 31
0.0
 70
   160
 71
     2
 42
-1.0
  3
SLDDIMSTYLE0
100
AcDbAlignedDimension
 13
19.4090651808
 23
27.8764568361
 33
0.0
 14
19.4860651808
 24
21.8764568361
 34
0.0
 50
90.0
100
AcDbRotatedDimension
  0
ARC
  5
162
330
1F
100
AcDbEntity
  8
0
  6
Continuous
 62
     7
 48
9.0
370
    15
100
AcDbCircle
 10
31.8797257022
 20
11.23213968
 30
0.0
 40
0.0150000000000006
100
AcDbArc
 50
232.550643686
 51
270.0
  0
ARC
  5
163
330
1F
100
AcDbEntity
  8
0
  6
Continuous
 62
     7
 48
9.0
370
    15
100
AcDbCircle
 10
31.8797257022
 20
11.57513968
 30
0.0
 40
0.0150000000000006
100
AcDbArc
 50
90.0
 51
127.449356314
  0
LINE
  5
164
330
1F
100
AcDbEntity
  8
0
  6
Continuous
 62
     7
 48
3.0
370
    15
100
AcDbLine
 10
31.8797258813
 20
11.2171395841
 30
0.0
 11
31.9130569629
 21
11.2171395841
 31
0.0
  0
LINE
  5
165
330
1F
100
AcDbEntity
  8
0
  6
Continuous
 62
     7
 48
3.0
370
    15
100
AcDbLine
 10
31.9130569629
 20
11.5901397018
 30
0.0
 11
31.8797258813
 21
11.5901397018
 31
0.0
  0
ARC
  5
166
330
1F
100
AcDbEntity
  8
0
  6
Continuous
 62
     7
 48
9.0
370
    15
100
AcDbCircle
 10
32.0110816011
 20
11.40363968
 30
0.0
 40
0.2310245869783054
100
AcDbArc
 50
190.1818657166
 51
232.550643686
  0
ARC
  5
167
330
1F
100
AcDbEntity
  8
0
  6
Continuous
 62
     7
 48
9.0
370
    15
100
AcDbCircle
 10
32.0110816011
 20
11.40363968
 30
0.0
 40
0.231024586978306
100
AcDbArc
 50
127.449356314
 51
169.8181342834
  0
ARC
  5
168
330
1F
100
AcDbEntity
  8
0
  6
Continuous
 62
     7
 48
9.0
370
    15
100
AcDbCircle
 10
31.8797257022
 20
17.23213968
 30
0.0
 40
0.0150000000000012
100
AcDbArc
 50
232.550643686
 51
270.0
  0
ARC
  5
169
330
1F
100
AcDbEntity
  8
0
  6
Continuous
 62
     7
 48
9.0
370
    15
100
AcDbCircle
 10
31.8797257022
 20
17.57513968
 30
0.0
 40
0.0150000000000006
100
AcDbArc
 50
90.0
 51
127.449356314
  0
LINE
  5
16A
330
1F
100
AcDbEntity
  8
0
  6
Continuous
 62
     7
 48
3.0
370
    15
100
AcDbLine
 10
31.8797258813
 20
17.2171396582
 30
0.0
 11
31.9130569629
 21
17.2171396582
 31
0.0
  0
LINE
  5
16B
330
1F
100
AcDbEntity
  8
0
  6
Continuous
 62
     7
 48
3.0
370
    15
100
AcDbLine
 10
31.9130569629
 20
17.590139776
 30
0.0
 11
31.8797258813
 21
17.590139776
 31
0.0
  0
ARC
  5
16C
330
1F
100
AcDbEntity
  8
0
  6
Continuous
 62
     7
 48
9.0
370
    15
100
AcDbCircle
 10
32.0110816011
 20
17.40363968
 30
0.0
 40
0.2310245869783066
100
AcDbArc
 50
190.1818657166
 51
232.550643686
  0
ARC
  5
16D
330
1F
100
AcDbEntity
  8
0
  6
Continuous
 62
     7
 48
9.0
370
    15
100
AcDbCircle
 10
32.0110816011
 20
17.40363968
 30
0.0
 40
0.2310245869783057
100
AcDbArc
 50
127.449356314
 51
169.8181342834
  0
LINE
  5
16E
330
1F
100
AcDbEntity
  8
0
  6
Continuous
 62
     7
 48
3.0
370
    15
100
AcDbLine
 10
31.97505694
 20
19.4036398396
 30
0.0
 11
31.9130569629
 21
19.4036398396
 31
0.0
  0
LINE
  5
16F
330
1F
100
AcDbEntity
  8
0
  6
Continuous
 62
     7
 48
3.0
370
    15
100
AcDbLine
 10
31.9130569629
 20
9.4036395205
 30
0.0
 11
31.9130569629
 21
19.4036398396
 31
0.0
  0
LINE
  5
170
330
1F
100
AcDbEntity
  8
0
  6
Continuous
 62
     7
 48
3.0
370
    15
100
AcDbLine
 10
31.97505694
 20
9.4036395205
 30
0.0
 11
31.9130569629
 21
9.4036395205
 31
0.0
  0
LINE
  5
171
330
1F
100
AcDbEntity
  8
0
  6
Continuous
 62
     7
 48
3.0
370
    15
100
AcDbLine
 10
31.97505694
 20
9.4036395205
 30
0.0
 11
31.97505694
 21
19.4036398396
 31
0.0
  0
LINE
  5
172
330
1F
100
AcDbEntity
  8
0
  6
Continuous
 62
     7
 48
3.0
370
    15
100
AcDbLine
 10
37.8980570145
 20
19.4036398396
 30
0.0
 11
37.9750570142
 21
19.4036398396
 31
0.0
  0
LINE
  5
173
330
1F
100
AcDbEntity
  8
0
  6
Continuous
 62
     7
 48
3.0
370
    15
100
AcDbLine
 10
37.9750570142
 20
19.4036398396
 30
0.0
 11
37.9750570142
 21
9.4036395205
 31
0.0
  0
LINE
  5
174
330
1F
100
AcDbEntity
  8
0
  6
Continuous
 62
     7
 48
3.0
370
    15
100
AcDbLine
 10
37.8980570145
 20
9.4036395205
 30
0.0
 11
37.9750570142
 21
9.4036395205
 31
0.0
  0
LINE
  5
175
330
1F
100
AcDbEntity
  8
0
  6
Continuous
 62
     7
 48
3.0
370
    15
100
AcDbLine
 10
32.0520572238
 20
19.4036398396
 30
0.0
 11
37.8980570145
 21
19.4036398396
 31
0.0
  0
LINE
  5
176
330
1F
100
AcDbEntity
  8
0
  6
Continuous
 62
     7
 48
3.0
370
    15
100
AcDbLine
 10
32.0520572238
 20
9.4036395205
 30
0.0
 11
37.8980570145
 21
9.4036395205
 31
0.0
  0
LINE
  5
177
330
1F
100
AcDbEntity
  8
0
  6
Continuous
 62
     7
 48
3.0
370
    15
100
AcDbLine
 10
31.97505694
 20
19.4036398396
 30
0.0
 11
32.0520572238
 21
19.4036398396
 31
0.0
  0
LINE
  5
178
330
1F
100
AcDbEntity
  8
0
  6
Continuous
 62
     7
 48
3.0
370
    15
100
AcDbLine
 10
31.97505694
 20
9.4036395205
 30
0.0
 11
32.0520572238
 21
9.4036395205
 31
0.0
  0
ARC
  5
179
330
1F
100
AcDbEntity
  8
0
  6
Continuous
 62
     7
 48
9.0
370
    15
100
AcDbCircle
 10
32.0110696785
 20
11.4033301739
 30
0.0
 40
0.2273743659025952
100
AcDbArc
 50
179.9218694332
 51
190.3458793743
  0
ARC
  5
17A
330
1F
100
AcDbEntity
  8
0
  6
Continuous
 62
     7
 48
9.0
370
    15
100
AcDbCircle
 10
31.7843317299
 20
11.3615503377
 30
0.0
 40
0.0014029852041023
100
AcDbArc
 50
83.7935588826
 51
116.9662703052
  0
ARC
  5
17B
330
1F
100
AcDbEntity
  8
0
  6
Continuous
 62
     7
 48
9.0
370
    15
100
AcDbCircle
 10
31.9286104234
 20
11.4056619962
 30
0.0
 40
0.1503240824378237
100
AcDbArc
 50
196.5089643788
 51
233.4610008528
  0
LINE
  5
17C
330
1F
100
AcDbEntity
  8
0
  6
Continuous
 62
     7
 48
3.0
370
    15
100
AcDbLine
 10
31.8391120038
 20
11.3069683597
 30
0.0
 11
31.8391120038
 21
11.2848838415
 31
0.0
  0
ARC
  5
17D
330
1F
100
AcDbEntity
  8
0
  6
Continuous
 62
     7
 48
9.0
370
    15
100
AcDbCircle
 10
31.9286104234
 20
11.4277465144
 30
0.0
 40
0.1503240824378032
100
AcDbArc
 50
196.5089643788
 51
233.4610008528
  0
ARC
  5
17E
330
1F
100
AcDbEntity
  8
0
  6
Continuous
 62
     7
 48
9.0
370
    15
100
AcDbCircle
 10
32.0110751269
 20
11.4039473167
 30
0.0
 40
0.227380048135684
100
AcDbArc
 50
169.6539221481
 51
184.7724445476
  0
LWPOLYLINE
  5
17F
330
1F
100
AcDbEntity
  8
0
  6
Continuous
 62
     7
 48
3.0
370
    15
100
AcDbPolyline
 90
        9
 70
   128
 43
0.0
 10
31.7873920679
 20
11.4447832743
 10
31.7861671221
 20
11.4447275416
 10
31.7851868134
 20
11.4446718089
 10
31.7844523152
 20
11.4446157829
 10
31.7839642142
 20
11.4445594636
 10
31.783723097
 20
11.4445031442
 10
31.7837289636
 20
11.4444468249
 10
31.7839829873
 20
11.4443905055
 10
31.7844834082
 20
11.4443341862
  0
LINE
  5
180
330
1F
100
AcDbEntity
  8
0
  6
Continuous
 62
     7
 48
3.0
370
    15
100
AcDbLine
 10
31.7926849134
 20
11.3629450997
 30
0.0
 11
31.7844834082
 21
11.3629450997
 31
0.0
  0
LINE
  5
181
330
1F
100
AcDbEntity
  8
0
  6
Continuous
 62
     7
 48
3.0
370
    15
100
AcDbLine
 10
31.7873105222
 20
11.4443341862
 30
0.0
 11
31.7844834082
 21
11.4443341862
 31
0.0
  0
ARC
  5
182
330
1F
100
AcDbEntity
  8
0
  6
Continuous
 62
     7
 48
9.0
370
    15
100
AcDbCircle
 10
32.0110697924
 20
17.4033302605
 30
0.0
 40
0.227374480210703
100
AcDbArc
 50
179.9217986931
 51
190.3458773042
  0
ARC
  5
183
330
1F
100
AcDbEntity
  8
0
  6
Continuous
 62
     7
 48
9.0
370
    15
100
AcDbCircle
 10
31.7843338726
 20
17.361538714
 30
0.0
 40
0.00141438688643
100
AcDbArc
 50
83.9310806672
 51
116.8287485207
  0
ARC
  5
184
330
1F
100
AcDbEntity
  8
0
  6
Continuous
 62
     7
 48
9.0
370
    15
100
AcDbCircle
 10
31.9286104234
 20
17.4056620703
 30
0.0
 40
0.1503240824378166
100
AcDbArc
 50
196.5089643788
 51
233.4610008528
  0
LINE
  5
185
330
1F
100
AcDbEntity
  8
0
  6
Continuous
 62
     7
 48
3.0
370
    15
100
AcDbLine
 10
31.8391120038
 20
17.3069681405
 30
0.0
 11
31.8391120038
 21
17.2848839157
 31
0.0
  0
ARC
  5
186
330
1F
100
AcDbEntity
  8
0
  6
Continuous
 62
     7
 48
9.0
370
    15
100
AcDbCircle
 10
31.928610515
 20
17.4277461987
 30
0.0
 40
0.1503240594337372
100
AcDbArc
 50
196.508812022
 51
233.4609509332
  0
ARC
  5
187
330
1F
100
AcDbEntity
  8
0
  6
Continuous
 62
     7
 48
9.0
370
    15
100
AcDbCircle
 10
32.0110771278
 20
17.4039472934
 30
0.0
 40
0.2273820339979505
100
AcDbArc
 50
169.6539885534
 51
184.7723781424
  0
LWPOLYLINE
  5
188
330
1F
100
AcDbEntity
  8
0
  6
Continuous
 62
     7
 48
3.0
370
    15
100
AcDbPolyline
 90
        9
 70
   128
 43
0.0
 10
31.7873920679
 20
17.4447833485
 10
31.7861671221
 20
17.4447276158
 10
31.7851868134
 20
17.4446718831
 10
31.7844523152
 20
17.4446155638
 10
31.7839642142
 20
17.4445595377
 10
31.783723097
 20
17.4445032184
 10
31.7837289636
 20
17.4444466057
 10
31.7839829873
 20
17.4443902864
 10
31.7844834082
 20
17.4443342603
  0
LINE
  5
189
330
1F
100
AcDbEntity
  8
0
  6
Continuous
 62
     7
 48
3.0
370
    15
100
AcDbLine
 10
31.7926849134
 20
17.3629451739
 30
0.0
 11
31.7844834082
 21
17.3629451739
 31
0.0
  0
LINE
  5
18A
330
1F
100
AcDbEntity
  8
0
  6
Continuous
 62
     7
 48
3.0
370
    15
100
AcDbLine
 10
31.7873105222
 20
17.4443342603
 30
0.0
 11
31.7844834082
 21
17.4443342603
 31
0.0
  0
LINE
  5
18B
330
1F
100
AcDbEntity
  8
0
  6
HIDDEN
 62
     7
 48
3.0
370
     0
100
AcDbLine
 10
31.97505694
 20
17.2915897315
 30
0.0
 11
31.9130569629
 21
17.2915897315
 31
0.0
  0
LINE
  5
18C
330
1F
100
AcDbEntity
  8
0
  6
HIDDEN
 62
     7
 48
3.0
370
     0
100
AcDbLine
 10
31.97505694
 20
11.2915896574
 30
0.0
 11
31.9130569629
 21
11.2915896574
 31
0.0
  0
LINE
  5
18D
330
1F
100
AcDbEntity
  8
0
  6
HIDDEN
 62
     7
 48
3.0
370
     0
100
AcDbLine
 10
37.8360570099
 20
18.9656395661
 30
0.0
 11
32.1140572009
 21
18.9656395661
 31
0.0
  0
LINE
  5
18E
330
1F
100
AcDbEntity
  8
0
  6
HIDDEN
 62
     7
 48
3.0
370
     0
100
AcDbLine
 10
32.1140572009
 20
18.9656395661
 30
0.0
 11
32.1140572009
 21
19.3266395558
 31
0.0
  0
LINE
  5
18F
330
1F
100
AcDbEntity
  8
0
  6
HIDDEN
 62
     7
 48
3.0
370
     0
100
AcDbLine
 10
37.8360570099
 20
19.3266395558
 30
0.0
 11
37.8360570099
 21
18.9656395661
 31
0.0
  0
LINE
  5
190
330
1F
100
AcDbEntity
  8
0
  6
HIDDEN
 62
     7
 48
3.0
370
     0
100
AcDbLine
 10
32.1140572009
 20
19.3266395558
 30
0.0
 11
32.1140572009
 21
19.4036398396
 31
0.0
  0
LINE
  5
191
330
1F
100
AcDbEntity
  8
0
  6
HIDDEN
 62
     7
 48
3.0
370
     0
100
AcDbLine
 10
37.8360570099
 20
19.4036398396
 30
0.0
 11
37.8360570099
 21
19.3266395558
 31
0.0
  0
LINE
  5
192
330
1F
100
AcDbEntity
  8
0
  6
HIDDEN
 62
     7
 48
3.0
370
     0
100
AcDbLine
 10
32.1140572009
 20
19.3416398625
 30
0.0
 11
37.8360570099
 21
19.3416398625
 31
0.0
  0
ARC
  5
193
330
1F
100
AcDbEntity
  8
0
  6
HIDDEN
 62
     7
 48
9.0
370
     0
100
AcDbCircle
 10
37.8360570142
 20
19.32663968
 30
0.0
 40
0.0769999999999982
100
AcDbArc
 50
0.0
 51
90.0
  0
ARC
  5
194
330
1F
100
AcDbEntity
  8
0
  6
HIDDEN
 62
     7
 48
9.0
370
     0
100
AcDbCircle
 10
37.8360570142
 20
19.32663968
 30
0.0
 40
0.014999999999997
100
AcDbArc
 50
0.0
 51
90.0
  0
LINE
  5
195
330
1F
100
AcDbEntity
  8
0
  6
HIDDEN
 62
     7
 48
3.0
370
     0
100
AcDbLine
 10
37.8510570141
 20
18.9656395661
 30
0.0
 11
37.8510570141
 21
19.3266395558
 31
0.0
  0
LINE
  5
196
330
1F
100
AcDbEntity
  8
0
  6
HIDDEN
 62
     7
 48
3.0
370
     0
100
AcDbLine
 10
37.9130570141
 20
18.9656395661
 30
0.0
 11
37.8510570141
 21
18.9656395661
 31
0.0
  0
LINE
  5
197
330
1F
100
AcDbEntity
  8
0
  6
HIDDEN
 62
     7
 48
3.0
370
     0
100
AcDbLine
 10
32.0520572238
 20
19.3416398625
 30
0.0
 11
32.1140572009
 21
19.3416398625
 31
0.0
  0
ARC
  5
198
330
1F
100
AcDbEntity
  8
0
  6
HIDDEN
 62
     7
 48
9.0
370
     0
100
AcDbCircle
 10
32.0520570142
 20
19.32663968
 30
0.0
 40
0.0150000000000006
100
AcDbArc
 50
90.0
 51
180.0
  0
ARC
  5
199
330
1F
100
AcDbEntity
  8
0
  6
HIDDEN
 62
     7
 48
9.0
370
     0
100
AcDbCircle
 10
32.0520570142
 20
19.32663968
 30
0.0
 40
0.0769999999999982
100
AcDbArc
 50
90.0
 51
180.0
  0
LINE
  5
19A
330
1F
100
AcDbEntity
  8
0
  6
HIDDEN
 62
     7
 48
3.0
370
     0
100
AcDbLine
 10
31.97505694
 20
18.903639589
 30
0.0
 11
32.0370569171
 21
18.903639589
 31
0.0
  0
LINE
  5
19B
330
1F
100
AcDbEntity
  8
0
  6
HIDDEN
 62
     7
 48
3.0
370
     0
100
AcDbLine
 10
32.1140572009
 20
9.841639794
 30
0.0
 11
32.1140572009
 21
9.4806398043
 31
0.0
  0
LINE
  5
19C
330
1F
100
AcDbEntity
  8
0
  6
HIDDEN
 62
     7
 48
3.0
370
     0
100
AcDbLine
 10
37.8360570099
 20
9.841639794
 30
0.0
 11
32.1140572009
 21
9.841639794
 31
0.0
  0
LINE
  5
19D
330
1F
100
AcDbEntity
  8
0
  6
HIDDEN
 62
     7
 48
3.0
370
     0
100
AcDbLine
 10
37.8360570099
 20
9.4806398043
 30
0.0
 11
37.8360570099
 21
9.841639794
 31
0.0
  0
LINE
  5
19E
330
1F
100
AcDbEntity
  8
0
  6
HIDDEN
 62
     7
 48
3.0
370
     0
100
AcDbLine
 10
32.1140572009
 20
9.4806398043
 30
0.0
 11
32.1140572009
 21
9.4036395205
 31
0.0
  0
LINE
  5
19F
330
1F
100
AcDbEntity
  8
0
  6
HIDDEN
 62
     7
 48
3.0
370
     0
100
AcDbLine
 10
37.8360570099
 20
9.4036395205
 30
0.0
 11
37.8360570099
 21
9.4806398043
 31
0.0
  0
LINE
  5
1A0
330
1F
100
AcDbEntity
  8
0
  6
HIDDEN
 62
     7
 48
3.0
370
     0
100
AcDbLine
 10
32.1140572009
 20
9.4656394976
 30
0.0
 11
37.8360570099
 21
9.4656394976
 31
0.0
  0
ARC
  5
1A1
330
1F
100
AcDbEntity
  8
0
  6
HIDDEN
 62
     7
 48
9.0
370
     0
100
AcDbCircle
 10
37.8360570142
 20
9.48063968
 30
0.0
 40
0.0150000000000006
100
AcDbArc
 50
270.0
 51
0.0
  0
ARC
  5
1A2
330
1F
100
AcDbEntity
  8
0
  6
HIDDEN
 62
     7
 48
9.0
370
     0
100
AcDbCircle
 10
37.8360570142
 20
9.48063968
 30
0.0
 40
0.0769999999999982
100
AcDbArc
 50
270.0
 51
0.0
  0
LINE
  5
1A3
330
1F
100
AcDbEntity
  8
0
  6
HIDDEN
 62
     7
 48
3.0
370
     0
100
AcDbLine
 10
37.8510570141
 20
9.841639794
 30
0.0
 11
37.8510570141
 21
9.4806398043
 31
0.0
  0
LINE
  5
1A4
330
1F
100
AcDbEntity
  8
0
  6
HIDDEN
 62
     7
 48
3.0
370
     0
100
AcDbLine
 10
37.9130570141
 20
9.841639794
 30
0.0
 11
37.8510570141
 21
9.841639794
 31
0.0
  0
LINE
  5
1A5
330
1F
100
AcDbEntity
  8
0
  6
HIDDEN
 62
     7
 48
3.0
370
     0
100
AcDbLine
 10
32.0520572238
 20
9.4656394976
 30
0.0
 11
32.1140572009
 21
9.4656394976
 31
0.0
  0
LINE
  5
1A6
330
1F
100
AcDbEntity
  8
0
  6
HIDDEN
 62
     7
 48
3.0
370
     0
100
AcDbLine
 10
31.97505694
 20
9.9036397711
 30
0.0
 11
32.0370569171
 21
9.9036397711
 31
0.0
  0
ARC
  5
1A7
330
1F
100
AcDbEntity
  8
0
  6
HIDDEN
 62
     7
 48
9.0
370
     0
100
AcDbCircle
 10
32.0520570142
 20
9.48063968
 30
0.0
 40
0.0150000000000077
100
AcDbArc
 50
180.0
 51
270.0
  0
ARC
  5
1A8
330
1F
100
AcDbEntity
  8
0
  6
HIDDEN
 62
     7
 48
9.0
370
     0
100
AcDbCircle
 10
32.0520570142
 20
9.48063968
 30
0.0
 40
0.0770000000000053
100
AcDbArc
 50
180.0
 51
270.0
  0
LINE
  5
1A9
330
1F
100
AcDbEntity
  8
0
  6
HIDDEN
 62
     7
 48
3.0
370
     0
100
AcDbLine
 10
37.9130570141
 20
19.4036398396
 30
0.0
 11
37.9130570141
 21
9.4036395205
 31
0.0
  0
LINE
  5
1AA
330
1F
100
AcDbEntity
  8
0
  6
HIDDEN
 62
     7
 48
3.0
370
     0
100
AcDbLine
 10
32.0370569171
 20
19.4036398396
 30
0.0
 11
32.0370569171
 21
9.4036395205
 31
0.0
  0
LINE
  5
1AB
330
1F
100
AcDbEntity
  8
0
  6
HIDDEN
 62
     7
 48
3.0
370
     0
100
AcDbLine
 10
37.7430570076
 20
17.4036397171
 30
0.0
 11
37.7430570076
 21
17.7006972988
 31
0.0
  0
LINE
  5
1AC
330
1F
100
AcDbEntity
  8
0
  6
HIDDEN
 62
     7
 48
3.0
370
     0
100
AcDbLine
 10
37.7430570076
 20
17.1065818421
 30
0.0
 11
37.7430570076
 21
17.4036397171
 31
0.0
  0
LINE
  5
1AD
330
1F
100
AcDbEntity
  8
0
  6
HIDDEN
 62
     7
 48
3.0
370
     0
100
AcDbLine
 10
37.8050570213
 20
17.1065818421
 30
0.0
 11
37.8050570213
 21
17.7006972988
 31
0.0
  0
LINE
  5
1AE
330
1F
100
AcDbEntity
  8
0
  6
HIDDEN
 62
     7
 48
3.0
370
     0
100
AcDbLine
 10
37.8710097661
 20
17.4036397171
 30
0.0
 11
37.8710097661
 21
17.5506396723
 31
0.0
  0
LINE
  5
1AF
330
1F
100
AcDbEntity
  8
0
  6
HIDDEN
 62
     7
 48
3.0
370
     0
100
AcDbLine
 10
37.8710097661
 20
17.2566397619
 30
0.0
 11
37.8710097661
 21
17.4036397171
 31
0.0
  0
ARC
  5
1B0
330
1F
100
AcDbEntity
  8
0
  6
HIDDEN
 62
     7
 48
9.0
370
     0
100
AcDbCircle
 10
31.9286104234
 20
11.4016172898
 30
0.0
 40
0.1503240824378045
100
AcDbArc
 50
126.5389991472
 51
163.4910356212
  0
ARC
  5
1B1
330
1F
100
AcDbEntity
  8
0
  6
HIDDEN
 62
     7
 48
9.0
370
     0
100
AcDbCircle
 10
31.928610515
 20
11.3795331613
 30
0.0
 40
0.1503240594337682
100
AcDbArc
 50
126.5390490668
 51
163.491187978
  0
ARC
  5
1B2
330
1F
100
AcDbEntity
  8
0
  6
HIDDEN
 62
     7
 48
9.0
370
     0
100
AcDbCircle
 10
32.0107208235
 20
11.4033498568
 30
0.0
 40
0.2270254852704355
100
AcDbArc
 50
175.2246147666
 51
179.9267168563
  0
ARC
  5
1B3
330
1F
100
AcDbEntity
  8
0
  6
HIDDEN
 62
     7
 48
9.0
370
     0
100
AcDbCircle
 10
31.7869476693
 20
11.3796759341
 30
0.0
 40
0.0171856692307535
100
AcDbArc
 50
259.0918054025
 51
271.4817582042
  0
LINE
  5
1B4
330
1F
100
AcDbEntity
  8
0
  6
HIDDEN
 62
     7
 48
3.0
370
     0
100
AcDbLine
 10
31.8391120038
 20
11.3850296179
 30
0.0
 11
31.8391120038
 21
11.3069683597
 31
0.0
  0
LINE
  5
1B5
330
1F
100
AcDbEntity
  8
0
  6
HIDDEN
 62
     7
 48
3.0
370
     0
100
AcDbLine
 10
31.8391120038
 20
11.3629450997
 30
0.0
 11
31.7926849134
 21
11.3629450997
 31
0.0
  0
LINE
  5
1B6
330
1F
100
AcDbEntity
  8
0
  6
HIDDEN
 62
     7
 48
3.0
370
     0
100
AcDbLine
 10
32.1876366709
 20
11.33463964
 30
0.0
 11
32.1876366709
 21
11.4726396459
 31
0.0
  0
LINE
  5
1B7
330
1F
100
AcDbEntity
  8
0
  6
HIDDEN
 62
     7
 48
3.0
370
     0
100
AcDbLine
 10
32.225056772
 20
11.350139781
 30
0.0
 11
32.225056772
 21
11.4571397983
 31
0.0
  0
LINE
  5
1B8
330
1F
100
AcDbEntity
  8
0
  6
HIDDEN
 62
     7
 48
3.0
370
     0
100
AcDbLine
 10
31.7844834082
 20
11.3850296179
 30
0.0
 11
31.8391120038
 21
11.3850296179
 31
0.0
  0
LINE
  5
1B9
330
1F
100
AcDbEntity
  8
0
  6
HIDDEN
 62
     7
 48
3.0
370
     0
100
AcDbLine
 10
31.8400571129
 20
11.4447832743
 30
0.0
 11
31.8400571129
 21
11.3631099512
 31
0.0
  0
LINE
  5
1BA
330
1F
100
AcDbEntity
  8
0
  6
HIDDEN
 62
     7
 48
3.0
370
     0
100
AcDbLine
 10
31.8400571129
 20
11.3631099512
 30
0.0
 11
31.8400571129
 21
11.3624960116
 31
0.0
  0
LINE
  5
1BB
330
1F
100
AcDbEntity
  8
0
  6
HIDDEN
 62
     7
 48
3.0
370
     0
100
AcDbLine
 10
31.8400571129
 20
11.3631099512
 30
0.0
 11
31.8391120038
 21
11.3631099512
 31
0.0
  0
LINE
  5
1BC
330
1F
100
AcDbEntity
  8
0
  6
HIDDEN
 62
     7
 48
3.0
370
     0
100
AcDbLine
 10
31.8400571129
 20
11.4441693348
 30
0.0
 11
31.8391120038
 21
11.4441693348
 31
0.0
  0
LINE
  5
1BD
330
1F
100
AcDbEntity
  8
0
  6
HIDDEN
 62
     7
 48
3.0
370
     0
100
AcDbLine
 10
31.8391120038
 20
11.4443341862
 30
0.0
 11
31.8391120038
 21
11.4441693348
 31
0.0
  0
LINE
  5
1BE
330
1F
100
AcDbEntity
  8
0
  6
HIDDEN
 62
     7
 48
3.0
370
     0
100
AcDbLine
 10
31.8391120038
 20
11.4443341862
 30
0.0
 11
31.7873105222
 21
11.4443341862
 31
0.0
  0
LINE
  5
1BF
330
1F
100
AcDbEntity
  8
0
  6
HIDDEN
 62
     7
 48
3.0
370
     0
100
AcDbLine
 10
31.8400571129
 20
11.4447832743
 30
0.0
 11
31.7873920679
 21
11.4447832743
 31
0.0
  0
LINE
  5
1C0
330
1F
100
AcDbEntity
  8
0
  6
HIDDEN
 62
     7
 48
3.0
370
     0
100
AcDbLine
 10
31.7844834082
 20
11.422249668
 30
0.0
 11
31.8391120038
 21
11.422249668
 31
0.0
  0
LINE
  5
1C1
330
1F
100
AcDbEntity
  8
0
  6
HIDDEN
 62
     7
 48
3.0
370
     0
100
AcDbLine
 10
31.8391120038
 20
11.4441693348
 30
0.0
 11
31.8391120038
 21
11.422249668
 31
0.0
  0
LINE
  5
1C2
330
1F
100
AcDbEntity
  8
0
  6
HIDDEN
 62
     7
 48
3.0
370
     0
100
AcDbLine
 10
31.8400571129
 20
11.3624960116
 30
0.0
 11
31.7873920679
 21
11.3624960116
 31
0.0
  0
LINE
  5
1C3
330
1F
100
AcDbEntity
  8
0
  6
HIDDEN
 62
     7
 48
3.0
370
     0
100
AcDbLine
 10
31.8391120038
 20
11.5223954444
 30
0.0
 11
31.8391120038
 21
11.4443341862
 31
0.0
  0
ARC
  5
1C4
330
1F
100
AcDbEntity
  8
0
  6
HIDDEN
 62
     7
 48
9.0
370
     0
100
AcDbCircle
 10
31.9286104234
 20
17.4016173639
 30
0.0
 40
0.1503240824377988
100
AcDbArc
 50
126.5389991472
 51
163.4910356212
  0
ARC
  5
1C5
330
1F
100
AcDbEntity
  8
0
  6
HIDDEN
 62
     7
 48
9.0
370
     0
100
AcDbCircle
 10
31.9286104234
 20
17.3795328457
 30
0.0
 40
0.1503240824378037
100
AcDbArc
 50
126.5389991472
 51
163.4910356212
  0
ARC
  5
1C6
330
1F
100
AcDbEntity
  8
0
  6
HIDDEN
 62
     7
 48
9.0
370
     0
100
AcDbCircle
 10
32.0107259451
 20
17.4033497095
 30
0.0
 40
0.2270306074524458
100
AcDbArc
 50
175.2246666834
 51
179.9265886027
  0
ARC
  5
1C7
330
1F
100
AcDbEntity
  8
0
  6
HIDDEN
 62
     7
 48
9.0
370
     0
100
AcDbCircle
 10
31.7869460488
 20
17.3796563541
 30
0.0
 40
0.0171660637403797
100
AcDbArc
 50
259.0847023246
 51
271.4888612821
  0
LINE
  5
1C8
330
1F
100
AcDbEntity
  8
0
  6
HIDDEN
 62
     7
 48
3.0
370
     0
100
AcDbLine
 10
31.8391120038
 20
17.3850296921
 30
0.0
 11
31.8391120038
 21
17.3069681405
 31
0.0
  0
LINE
  5
1C9
330
1F
100
AcDbEntity
  8
0
  6
HIDDEN
 62
     7
 48
3.0
370
     0
100
AcDbLine
 10
31.8391120038
 20
17.3629451739
 30
0.0
 11
31.7926849134
 21
17.3629451739
 31
0.0
  0
LINE
  5
1CA
330
1F
100
AcDbEntity
  8
0
  6
HIDDEN
 62
     7
 48
3.0
370
     0
100
AcDbLine
 10
32.225056772
 20
17.3501395618
 30
0.0
 11
32.225056772
 21
17.4571395791
 31
0.0
  0
LINE
  5
1CB
330
1F
100
AcDbEntity
  8
0
  6
HIDDEN
 62
     7
 48
3.0
370
     0
100
AcDbLine
 10
32.1876366709
 20
17.3346397142
 30
0.0
 11
32.1876366709
 21
17.47263972
 31
0.0
  0
LINE
  5
1CC
330
1F
100
AcDbEntity
  8
0
  6
HIDDEN
 62
     7
 48
3.0
370
     0
100
AcDbLine
 10
31.7844834082
 20
17.3850296921
 30
0.0
 11
31.8391120038
 21
17.3850296921
 31
0.0
  0
LINE
  5
1CD
330
1F
100
AcDbEntity
  8
0
  6
HIDDEN
 62
     7
 48
3.0
370
     0
100
AcDbLine
 10
31.8400571129
 20
17.4447833485
 30
0.0
 11
31.8400571129
 21
17.3631100253
 31
0.0
  0
LINE
  5
1CE
330
1F
100
AcDbEntity
  8
0
  6
HIDDEN
 62
     7
 48
3.0
370
     0
100
AcDbLine
 10
31.8400571129
 20
17.3631100253
 30
0.0
 11
31.8400571129
 21
17.3624960857
 31
0.0
  0
LINE
  5
1CF
330
1F
100
AcDbEntity
  8
0
  6
HIDDEN
 62
     7
 48
3.0
370
     0
100
AcDbLine
 10
31.8400571129
 20
17.3631100253
 30
0.0
 11
31.8391120038
 21
17.3631100253
 31
0.0
  0
LINE
  5
1D0
330
1F
100
AcDbEntity
  8
0
  6
HIDDEN
 62
     7
 48
3.0
370
     0
100
AcDbLine
 10
31.8400571129
 20
17.4441694089
 30
0.0
 11
31.8391120038
 21
17.4441694089
 31
0.0
  0
LINE
  5
1D1
330
1F
100
AcDbEntity
  8
0
  6
HIDDEN
 62
     7
 48
3.0
370
     0
100
AcDbLine
 10
31.8391120038
 20
17.4443342603
 30
0.0
 11
31.8391120038
 21
17.4441694089
 31
0.0
  0
LINE
  5
1D2
330
1F
100
AcDbEntity
  8
0
  6
HIDDEN
 62
     7
 48
3.0
370
     0
100
AcDbLine
 10
31.8391120038
 20
17.4443342603
 30
0.0
 11
31.7873105222
 21
17.4443342603
 31
0.0
  0
LINE
  5
1D3
330
1F
100
AcDbEntity
  8
0
  6
HIDDEN
 62
     7
 48
3.0
370
     0
100
AcDbLine
 10
31.8400571129
 20
17.4447833485
 30
0.0
 11
31.7873920679
 21
17.4447833485
 31
0.0
  0
LINE
  5
1D4
330
1F
100
AcDbEntity
  8
0
  6
HIDDEN
 62
     7
 48
3.0
370
     0
100
AcDbLine
 10
31.7844834082
 20
17.4222497421
 30
0.0
 11
31.8391120038
 21
17.4222497421
 31
0.0
  0
LINE
  5
1D5
330
1F
100
AcDbEntity
  8
0
  6
HIDDEN
 62
     7
 48
3.0
370
     0
100
AcDbLine
 10
31.8391120038
 20
17.4441694089
 30
0.0
 11
31.8391120038
 21
17.4222497421
 31
0.0
  0
LINE
  5
1D6
330
1F
100
AcDbEntity
  8
0
  6
HIDDEN
 62
     7
 48
3.0
370
     0
100
AcDbLine
 10
31.8400571129
 20
17.3624960857
 30
0.0
 11
31.7873920679
 21
17.3624960857
 31
0.0
  0
LINE
  5
1D7
330
1F
100
AcDbEntity
  8
0
  6
HIDDEN
 62
     7
 48
3.0
370
     0
100
AcDbLine
 10
31.8391120038
 20
17.5223955186
 30
0.0
 11
31.8391120038
 21
17.4443342603
 31
0.0
  0
LINE
  5
1D8
330
1F
100
AcDbEntity
  8
0
  6
HIDDEN
 62
     7
 48
3.0
370
     0
100
AcDbLine
 10
31.9130569629
 20
16.9286396844
 30
0.0
 11
31.97505694
 21
16.9286396844
 31
0.0
  0
LINE
  5
1D9
330
1F
100
AcDbEntity
  8
0
  6
HIDDEN
 62
     7
 48
3.0
370
     0
100
AcDbLine
 10
31.9130569629
 20
10.9286396102
 30
0.0
 11
31.97505694
 21
10.9286396102
 31
0.0
  0
LINE
  5
1DA
330
1F
100
AcDbEntity
  8
0
  6
HIDDEN
 62
     7
 48
3.0
370
     0
100
AcDbLine
 10
31.97505694
 20
17.5286396331
 30
0.0
 11
31.9130569629
 21
17.5286396331
 31
0.0
  0
LINE
  5
1DB
330
1F
100
AcDbEntity
  8
0
  6
HIDDEN
 62
     7
 48
3.0
370
     0
100
AcDbLine
 10
31.97505694
 20
11.5286395589
 30
0.0
 11
31.9130569629
 21
11.5286395589
 31
0.0
  0
LINE
  5
1DC
330
1F
100
AcDbEntity
  8
0
  6
HIDDEN
 62
     7
 48
3.0
370
     0
100
AcDbLine
 10
31.97505694
 20
17.318639739
 30
0.0
 11
32.0370569171
 21
17.318639739
 31
0.0
  0
LINE
  5
1DD
330
1F
100
AcDbEntity
  8
0
  6
HIDDEN
 62
     7
 48
3.0
370
     0
100
AcDbLine
 10
32.0370569171
 20
17.4886396952
 30
0.0
 11
31.97505694
 21
17.4886396952
 31
0.0
  0
LINE
  5
1DE
330
1F
100
AcDbEntity
  8
0
  6
HIDDEN
 62
     7
 48
3.0
370
     0
100
AcDbLine
 10
31.97505694
 20
11.3186396649
 30
0.0
 11
32.0370569171
 21
11.3186396649
 31
0.0
  0
LINE
  5
1DF
330
1F
100
AcDbEntity
  8
0
  6
HIDDEN
 62
     7
 48
3.0
370
     0
100
AcDbLine
 10
32.0370569171
 20
11.488639621
 30
0.0
 11
31.97505694
 21
11.488639621
 31
0.0
  0
LINE
  5
1E0
330
1F
100
AcDbEntity
  8
0
  6
HIDDEN
 62
     7
 48
3.0
370
     0
100
AcDbLine
 10
37.9750570142
 20
11.0441397426
 30
0.0
 11
37.9130570141
 21
11.0441397426
 31
0.0
  0
LINE
  5
1E1
330
1F
100
AcDbEntity
  8
0
  6
HIDDEN
 62
     7
 48
3.0
370
     0
100
AcDbLine
 10
37.9130570141
 20
10.7631396287
 30
0.0
 11
37.9750570142
 21
10.7631396287
 31
0.0
  0
LINE
  5
1E2
330
1F
100
AcDbEntity
  8
0
  6
HIDDEN
 62
     7
 48
3.0
370
     0
100
AcDbLine
 10
37.9750570142
 20
18.0441397313
 30
0.0
 11
37.9130570141
 21
18.0441397313
 31
0.0
  0
LINE
  5
1E3
330
1F
100
AcDbEntity
  8
0
  6
HIDDEN
 62
     7
 48
3.0
370
     0
100
AcDbLine
 10
37.9130570141
 20
17.7631396175
 30
0.0
 11
37.9750570142
 21
17.7631396175
 31
0.0
  0
LINE
  5
1E4
330
1F
100
AcDbEntity
  8
0
  6
HIDDEN
 62
     7
 48
3.0
370
     0
100
AcDbLine
 10
37.9130570141
 20
18.0452526251
 30
0.0
 11
37.7681102632
 21
17.794197392
 31
0.0
  0
LINE
  5
1E5
330
1F
100
AcDbEntity
  8
0
  6
HIDDEN
 62
     7
 48
3.0
370
     0
100
AcDbLine
 10
37.7681102632
 20
17.0130820422
 30
0.0
 11
37.9130570141
 21
16.7620268091
 31
0.0
  0
LINE
  5
1E6
330
1F
100
AcDbEntity
  8
0
  6
HIDDEN
 62
     7
 48
3.0
370
     0
100
AcDbLine
 10
37.9750570142
 20
18.0286395904
 30
0.0
 11
37.8218038421
 21
17.7631974035
 31
0.0
  0
LINE
  5
1E7
330
1F
100
AcDbEntity
  8
0
  6
HIDDEN
 62
     7
 48
3.0
370
     0
100
AcDbLine
 10
37.8218038421
 20
17.0440820308
 30
0.0
 11
37.9750570142
 21
16.7786396972
 31
0.0
  0
ARC
  5
1E8
330
1F
100
AcDbEntity
  8
0
  6
HIDDEN
 62
     7
 48
9.0
370
     0
100
AcDbCircle
 10
37.9300570142
 20
17.1065819664
 30
0.0
 40
0.1870000000000047
100
AcDbArc
 50
180.0
 51
210.0
  0
ARC
  5
1E9
330
1F
100
AcDbEntity
  8
0
  6
HIDDEN
 62
     7
 48
9.0
370
     0
100
AcDbCircle
 10
37.9300570142
 20
17.7006973937
 30
0.0
 40
0.1870000000000047
100
AcDbArc
 50
150.0
 51
180.0
  0
ARC
  5
1EA
330
1F
100
AcDbEntity
  8
0
  6
HIDDEN
 62
     7
 48
9.0
370
     0
100
AcDbCircle
 10
37.9300570142
 20
17.1065819664
 30
0.0
 40
0.1250000000000059
100
AcDbArc
 50
180.0
 51
210.0
  0
ARC
  5
1EB
330
1F
100
AcDbEntity
  8
0
  6
HIDDEN
 62
     7
 48
9.0
370
     0
100
AcDbCircle
 10
37.9300570142
 20
17.7006973937
 30
0.0
 40
0.1250000000000041
100
AcDbArc
 50
150.0
 51
180.0
  0
ARC
  5
1EC
330
1F
100
AcDbEntity
  8
0
  6
HIDDEN
 62
     7
 48
9.0
370
     0
100
AcDbCircle
 10
37.8217971716
 20
17.5673798375
 30
0.0
 40
0.0787401574803184
100
AcDbArc
 50
180.0
 51
270.0
  0
ARC
  5
1ED
330
1F
100
AcDbEntity
  8
0
  6
HIDDEN
 62
     7
 48
9.0
370
     0
100
AcDbCircle
 10
37.8217971716
 20
17.2398995226
 30
0.0
 40
0.0787401574803184
100
AcDbArc
 50
90.0
 51
180.0
  0
ARC
  5
1EE
330
1F
100
AcDbEntity
  8
0
  6
HIDDEN
 62
     7
 48
9.0
370
     0
100
AcDbCircle
 10
37.8217971716
 20
17.5673798375
 30
0.0
 40
0.0167401574803172
100
AcDbArc
 50
180.0
 51
270.0
  0
ARC
  5
1EF
330
1F
100
AcDbEntity
  8
0
  6
HIDDEN
 62
     7
 48
9.0
370
     0
100
AcDbCircle
 10
37.8217971716
 20
17.2398995226
 30
0.0
 40
0.0167401574803137
100
AcDbArc
 50
90.0
 51
180.0
  0
LINE
  5
1F0
330
1F
100
AcDbEntity
  8
0
  6
HIDDEN
 62
     7
 48
3.0
370
     0
100
AcDbLine
 10
37.8217971688
 20
17.2566397619
 30
0.0
 11
37.8710097661
 21
17.2566397619
 31
0.0
  0
LINE
  5
1F1
330
1F
100
AcDbEntity
  8
0
  6
HIDDEN
 62
     7
 48
3.0
370
     0
100
AcDbLine
 10
37.8710097661
 20
17.5506396723
 30
0.0
 11
37.8217971688
 21
17.5506396723
 31
0.0
  0
LINE
  5
1F2
330
1F
100
AcDbEntity
  8
0
  6
HIDDEN
 62
     7
 48
3.0
370
     0
100
AcDbLine
 10
37.8217971688
 20
17.318639739
 30
0.0
 11
37.8710097661
 21
17.318639739
 31
0.0
  0
LINE
  5
1F3
330
1F
100
AcDbEntity
  8
0
  6
HIDDEN
 62
     7
 48
3.0
370
     0
100
AcDbLine
 10
37.8710097661
 20
17.4886396952
 30
0.0
 11
37.8217971688
 21
17.4886396952
 31
0.0
  0
LINE
  5
1F4
330
1F
100
AcDbEntity
  8
0
  6
HIDDEN
 62
     7
 48
3.0
370
     0
100
AcDbLine
 10
31.9130569629
 20
11.33463964
 30
0.0
 11
32.1876366709
 21
11.33463964
 31
0.0
  0
LINE
  5
1F5
330
1F
100
AcDbEntity
  8
0
  6
HIDDEN
 62
     7
 48
3.0
370
     0
100
AcDbLine
 10
32.1876366709
 20
11.4726396459
 30
0.0
 11
31.9130569629
 21
11.4726396459
 31
0.0
  0
LINE
  5
1F6
330
1F
100
AcDbEntity
  8
0
  6
HIDDEN
 62
     7
 48
3.0
370
     0
100
AcDbLine
 10
32.1876366709
 20
11.33463964
 30
0.0
 11
32.225056772
 21
11.350139781
 31
0.0
  0
LINE
  5
1F7
330
1F
100
AcDbEntity
  8
0
  6
HIDDEN
 62
     7
 48
3.0
370
     0
100
AcDbLine
 10
32.225056772
 20
11.4571397983
 30
0.0
 11
32.1876366709
 21
11.4726396459
 31
0.0
  0
LINE
  5
1F8
330
1F
100
AcDbEntity
  8
0
  6
HIDDEN
 62
     7
 48
3.0
370
     0
100
AcDbLine
 10
32.1876366709
 20
17.3346397142
 30
0.0
 11
32.225056772
 21
17.3501395618
 31
0.0
  0
LINE
  5
1F9
330
1F
100
AcDbEntity
  8
0
  6
HIDDEN
 62
     7
 48
3.0
370
     0
100
AcDbLine
 10
32.225056772
 20
17.4571395791
 30
0.0
 11
32.1876366709
 21
17.47263972
 31
0.0
  0
LINE
  5
1FA
330
1F
100
AcDbEntity
  8
0
  6
HIDDEN
 62
     7
 48
3.0
370
     0
100
AcDbLine
 10
31.9130569629
 20
17.3346397142
 30
0.0
 11
32.1876366709
 21
17.3346397142
 31
0.0
  0
LINE
  5
1FB
330
1F
100
AcDbEntity
  8
0
  6
HIDDEN
 62
     7
 48
3.0
370
     0
100
AcDbLine
 10
32.1876366709
 20
17.47263972
 30
0.0
 11
31.9130569629
 21
17.47263972
 31
0.0
  0
LINE
  5
1FC
330
1F
100
AcDbEntity
  8
0
  6
Continuous
 62
     7
 48
3.0
370
    15
100
AcDbLine
 10
10.1823666171
 20
11.5901397018
 30
0.0
 11
10.1490355355
 21
11.5901397018
 31
0.0
  0
LINE
  5
1FD
330
1F
100
AcDbEntity
  8
0
  6
Continuous
 62
     7
 48
3.0
370
    15
100
AcDbLine
 10
10.1490355355
 20
11.2171395841
 30
0.0
 11
10.1823666171
 21
11.2171395841
 31
0.0
  0
ARC
  5
1FE
330
1F
100
AcDbEntity
  8
0
  6
Continuous
 62
     7
 48
9.0
370
    15
100
AcDbCircle
 10
10.1823667962
 20
11.57513968
 30
0.0
 40
0.0150000000000006
100
AcDbArc
 50
52.550643686
 51
90.0
  0
ARC
  5
1FF
330
1F
100
AcDbEntity
  8
0
  6
Continuous
 62
     7
 48
9.0
370
    15
100
AcDbCircle
 10
10.1823667962
 20
11.23213968
 30
0.0
 40
0.0150000000000006
100
AcDbArc
 50
270.0
 51
307.449356314
  0
ARC
  5
200
330
1F
100
AcDbEntity
  8
0
  6
Continuous
 62
     7
 48
9.0
370
    15
100
AcDbCircle
 10
10.0510108973
 20
11.40363968
 30
0.0
 40
0.2310245869783041
100
AcDbArc
 50
10.1818657166
 51
52.550643686
  0
ARC
  5
201
330
1F
100
AcDbEntity
  8
0
  6
Continuous
 62
     7
 48
9.0
370
    15
100
AcDbCircle
 10
10.0510108973
 20
11.40363968
 30
0.0
 40
0.2310245869783019
100
AcDbArc
 50
307.449356314
 51
349.8181342834
  0
LINE
  5
202
330
1F
100
AcDbEntity
  8
0
  6
Continuous
 62
     7
 48
3.0
370
    15
100
AcDbLine
 10
10.1823666171
 20
17.590139776
 30
0.0
 11
10.1490355355
 21
17.590139776
 31
0.0
  0
LINE
  5
203
330
1F
100
AcDbEntity
  8
0
  6
Continuous
 62
     7
 48
3.0
370
    15
100
AcDbLine
 10
10.1490355355
 20
17.2171396582
 30
0.0
 11
10.1823666171
 21
17.2171396582
 31
0.0
  0
ARC
  5
204
330
1F
100
AcDbEntity
  8
0
  6
Continuous
 62
     7
 48
9.0
370
    15
100
AcDbCircle
 10
10.1823667962
 20
17.57513968
 30
0.0
 40
0.0150000000000006
100
AcDbArc
 50
52.550643686
 51
90.0
  0
ARC
  5
205
330
1F
100
AcDbEntity
  8
0
  6
Continuous
 62
     7
 48
9.0
370
    15
100
AcDbCircle
 10
10.1823667962
 20
17.23213968
 30
0.0
 40
0.0150000000000034
100
AcDbArc
 50
270.0
 51
307.449356314
  0
ARC
  5
206
330
1F
100
AcDbEntity
  8
0
  6
Continuous
 62
     7
 48
9.0
370
    15
100
AcDbCircle
 10
10.0510108973
 20
17.40363968
 30
0.0
 40
0.2310245869783027
100
AcDbArc
 50
10.1818657166
 51
52.550643686
  0
ARC
  5
207
330
1F
100
AcDbEntity
  8
0
  6
Continuous
 62
     7
 48
9.0
370
    15
100
AcDbCircle
 10
10.0510108973
 20
17.40363968
 30
0.0
 40
0.2310245869783055
100
AcDbArc
 50
307.449356314
 51
349.8181342834
  0
LINE
  5
208
330
1F
100
AcDbEntity
  8
0
  6
Continuous
 62
     7
 48
3.0
370
    15
100
AcDbLine
 10
10.1490355355
 20
19.4036398396
 30
0.0
 11
10.1490355355
 21
9.4036395205
 31
0.0
  0
LINE
  5
209
330
1F
100
AcDbEntity
  8
0
  6
Continuous
 62
     7
 48
3.0
370
    15
100
AcDbLine
 10
10.0870355584
 20
9.4036395205
 30
0.0
 11
10.1490355355
 21
9.4036395205
 31
0.0
  0
LINE
  5
20A
330
1F
100
AcDbEntity
  8
0
  6
Continuous
 62
     7
 48
3.0
370
    15
100
AcDbLine
 10
10.0870355584
 20
19.4036398396
 30
0.0
 11
10.1490355355
 21
19.4036398396
 31
0.0
  0
LINE
  5
20B
330
1F
100
AcDbEntity
  8
0
  6
Continuous
 62
     7
 48
3.0
370
    15
100
AcDbLine
 10
10.0870355584
 20
19.4036398396
 30
0.0
 11
10.0870355584
 21
9.4036395205
 31
0.0
  0
LINE
  5
20C
330
1F
100
AcDbEntity
  8
0
  6
Continuous
 62
     7
 48
3.0
370
    15
100
AcDbLine
 10
4.1640354839
 20
19.4036398396
 30
0.0
 11
10.0100352746
 21
19.4036398396
 31
0.0
  0
LINE
  5
20D
330
1F
100
AcDbEntity
  8
0
  6
Continuous
 62
     7
 48
3.0
370
    15
100
AcDbLine
 10
4.1640354839
 20
9.4036395205
 30
0.0
 11
10.0100352746
 21
9.4036395205
 31
0.0
  0
LINE
  5
20E
330
1F
100
AcDbEntity
  8
0
  6
Continuous
 62
     7
 48
3.0
370
    15
100
AcDbLine
 10
4.0870354843
 20
19.4036398396
 30
0.0
 11
4.0870354843
 21
9.4036395205
 31
0.0
  0
LINE
  5
20F
330
1F
100
AcDbEntity
  8
0
  6
Continuous
 62
     7
 48
3.0
370
    15
100
AcDbLine
 10
4.0870354843
 20
9.4036395205
 30
0.0
 11
4.1640354839
 21
9.4036395205
 31
0.0
  0
LINE
  5
210
330
1F
100
AcDbEntity
  8
0
  6
Continuous
 62
     7
 48
3.0
370
    15
100
AcDbLine
 10
4.0870354843
 20
19.4036398396
 30
0.0
 11
4.1640354839
 21
19.4036398396
 31
0.0
  0
LINE
  5
211
330
1F
100
AcDbEntity
  8
0
  6
Continuous
 62
     7
 48
3.0
370
    15
100
AcDbLine
 10
10.0100352746
 20
19.4036398396
 30
0.0
 11
10.0870355584
 21
19.4036398396
 31
0.0
  0
LINE
  5
212
330
1F
100
AcDbEntity
  8
0
  6
Continuous
 62
     7
 48
3.0
370
    15
100
AcDbLine
 10
10.0100352746
 20
9.4036395205
 30
0.0
 11
10.0870355584
 21
9.4036395205
 31
0.0
  0
ARC
  5
213
330
1F
100
AcDbEntity
  8
0
  6
Continuous
 62
     7
 48
9.0
370
    15
100
AcDbCircle
 10
10.133482075
 20
11.4277465144
 30
0.0
 40
0.150324082437846
100
AcDbArc
 50
306.5389991472
 51
343.4910356212
  0
LINE
  5
214
330
1F
100
AcDbEntity
  8
0
  6
Continuous
 62
     7
 48
3.0
370
    15
100
AcDbLine
 10
10.2229804946
 20
11.2848838415
 30
0.0
 11
10.2229804946
 21
11.3069683597
 31
0.0
  0
ARC
  5
215
330
1F
100
AcDbEntity
  8
0
  6
Continuous
 62
     7
 48
9.0
370
    15
100
AcDbCircle
 10
10.133482075
 20
11.4056619962
 30
0.0
 40
0.1503240824378534
100
AcDbArc
 50
306.5389991472
 51
343.4910356212
  0
ARC
  5
216
330
1F
100
AcDbEntity
  8
0
  6
Continuous
 62
     7
 48
9.0
370
    15
100
AcDbCircle
 10
10.2777607685
 20
11.3615503377
 30
0.0
 40
0.0014029852040776
100
AcDbArc
 50
63.0337296943
 51
96.2064411174
  0
ARC
  5
217
330
1F
100
AcDbEntity
  8
0
  6
Continuous
 62
     7
 48
9.0
370
    15
100
AcDbCircle
 10
10.0510231612
 20
11.4033301366
 30
0.0
 40
0.2273740235286733
100
AcDbArc
 50
349.6541144249
 51
0.0779183305
  0
LWPOLYLINE
  5
218
330
1F
100
AcDbEntity
  8
0
  6
Continuous
 62
     7
 48
3.0
370
    15
100
AcDbPolyline
 90
        9
 70
   128
 43
0.0
 10
10.2776090902
 20
11.4443341862
 10
10.2781095111
 20
11.4443905055
 10
10.2783635348
 20
11.4444468249
 10
10.2783694014
 20
11.4445031442
 10
10.2781282842
 20
11.4445594636
 10
10.2776401832
 20
11.4446157829
 10
10.276905685
 20
11.4446718089
 10
10.2759253763
 20
11.4447275416
 10
10.2747004305
 20
11.4447832743
  0
ARC
  5
219
330
1F
100
AcDbEntity
  8
0
  6
Continuous
 62
     7
 48
9.0
370
    15
100
AcDbCircle
 10
10.0510173716
 20
11.4039473167
 30
0.0
 40
0.2273800481357276
100
AcDbArc
 50
355.2275554524
 51
10.3460778519
  0
LINE
  5
21A
330
1F
100
AcDbEntity
  8
0
  6
Continuous
 62
     7
 48
3.0
370
    15
100
AcDbLine
 10
10.2776090902
 20
11.3629450997
 30
0.0
 11
10.269407585
 21
11.3629450997
 31
0.0
  0
LINE
  5
21B
330
1F
100
AcDbEntity
  8
0
  6
Continuous
 62
     7
 48
3.0
370
    15
100
AcDbLine
 10
10.2776090902
 20
11.4443341862
 30
0.0
 11
10.2747819762
 21
11.4443341862
 31
0.0
  0
ARC
  5
21C
330
1F
100
AcDbEntity
  8
0
  6
Continuous
 62
     7
 48
9.0
370
    15
100
AcDbCircle
 10
10.1334819835
 20
17.4277461987
 30
0.0
 40
0.150324059433761
100
AcDbArc
 50
306.5390490668
 51
343.491187978
  0
LINE
  5
21D
330
1F
100
AcDbEntity
  8
0
  6
Continuous
 62
     7
 48
3.0
370
    15
100
AcDbLine
 10
10.2229804946
 20
17.2848839157
 30
0.0
 11
10.2229804946
 21
17.3069681405
 31
0.0
  0
ARC
  5
21E
330
1F
100
AcDbEntity
  8
0
  6
Continuous
 62
     7
 48
9.0
370
    15
100
AcDbCircle
 10
10.133482075
 20
17.4056620703
 30
0.0
 40
0.1503240824378549
100
AcDbArc
 50
306.5389991472
 51
343.4910356212
  0
ARC
  5
21F
330
1F
100
AcDbEntity
  8
0
  6
Continuous
 62
     7
 48
9.0
370
    15
100
AcDbCircle
 10
10.2777586258
 20
17.361538714
 30
0.0
 40
0.0014143868864582
100
AcDbArc
 50
63.1712514794
 51
96.0689193321
  0
ARC
  5
220
330
1F
100
AcDbEntity
  8
0
  6
Continuous
 62
     7
 48
9.0
370
    15
100
AcDbCircle
 10
10.051022592
 20
17.403330273
 30
0.0
 40
0.227374594608874
100
AcDbArc
 50
349.6541247676
 51
0.0782720444
  0
LWPOLYLINE
  5
221
330
1F
100
AcDbEntity
  8
0
  6
Continuous
 62
     7
 48
3.0
370
    15
100
AcDbPolyline
 90
        9
 70
   128
 43
0.0
 10
10.2776090902
 20
17.4443342603
 10
10.2781095111
 20
17.4443902864
 10
10.2783635348
 20
17.4444466057
 10
10.2783694014
 20
17.4445032184
 10
10.2781282842
 20
17.4445595377
 10
10.2776401832
 20
17.4446155638
 10
10.276905685
 20
17.4446718831
 10
10.2759253763
 20
17.4447276158
 10
10.2747004305
 20
17.4447833485
  0
ARC
  5
222
330
1F
100
AcDbEntity
  8
0
  6
Continuous
 62
     7
 48
9.0
370
    15
100
AcDbCircle
 10
10.0510153707
 20
17.4039472934
 30
0.0
 40
0.2273820339979445
100
AcDbArc
 50
355.2276218576
 51
10.3460114466
  0
LINE
  5
223
330
1F
100
AcDbEntity
  8
0
  6
Continuous
 62
     7
 48
3.0
370
    15
100
AcDbLine
 10
10.2776090902
 20
17.3629451739
 30
0.0
 11
10.269407585
 21
17.3629451739
 31
0.0
  0
LINE
  5
224
330
1F
100
AcDbEntity
  8
0
  6
Continuous
 62
     7
 48
3.0
370
    15
100
AcDbLine
 10
10.2776090902
 20
17.4443342603
 30
0.0
 11
10.2747819762
 21
17.4443342603
 31
0.0
  0
LINE
  5
225
330
1F
100
AcDbEntity
  8
0
  6
Continuous
 62
     7
 48
3.0
370
    15
100
AcDbLine
 10
19.0495652416
 20
8.1025202704
 30
0.0
 11
19.0495652416
 21
8.0691891888
 31
0.0
  0
LINE
  5
226
330
1F
100
AcDbEntity
  8
0
  6
Continuous
 62
     7
 48
3.0
370
    15
100
AcDbLine
 10
19.422565066
 20
8.0691891888
 30
0.0
 11
19.422565066
 21
8.1025202704
 31
0.0
  0
ARC
  5
227
330
1F
100
AcDbEntity
  8
0
  6
Continuous
 62
     7
 48
9.0
370
    15
100
AcDbCircle
 10
19.0645651808
 20
8.1025204495
 30
0.0
 40
0.0150000000000006
100
AcDbArc
 50
142.550643686
 51
180.0
  0
ARC
  5
228
330
1F
100
AcDbEntity
  8
0
  6
Continuous
 62
     7
 48
9.0
370
    15
100
AcDbCircle
 10
19.4075651808
 20
8.1025204495
 30
0.0
 40
0.0150000000000034
100
AcDbArc
 50
0.0
 51
37.449356314
  0
ARC
  5
229
330
1F
100
AcDbEntity
  8
0
  6
Continuous
 62
     7
 48
9.0
370
    15
100
AcDbCircle
 10
19.2360651808
 20
7.9711645506
 30
0.0
 40
0.2310245869783039
100
AcDbArc
 50
100.1818657166
 51
142.550643686
  0
ARC
  5
22A
330
1F
100
AcDbEntity
  8
0
  6
Continuous
 62
     7
 48
9.0
370
    15
100
AcDbCircle
 10
19.2360651808
 20
7.9711645506
 30
0.0
 40
0.2310245869783066
100
AcDbArc
 50
37.449356314
 51
79.8181342834
  0
LINE
  5
22B
330
1F
100
AcDbEntity
  8
0
  6
Continuous
 62
     7
 48
3.0
370
    15
100
AcDbLine
 10
19.1670652975
 20
7.9451892346
 30
0.0
 11
19.1670652975
 21
7.8681889508
 31
0.0
  0
LINE
  5
22C
330
1F
100
AcDbEntity
  8
0
  6
Continuous
 62
     7
 48
3.0
370
    15
100
AcDbLine
 10
19.3050653034
 20
7.8681889508
 30
0.0
 11
19.3050653034
 21
7.9451892346
 31
0.0
  0
LINE
  5
22D
330
1F
100
AcDbEntity
  8
0
  6
Continuous
 62
     7
 48
3.0
370
    15
100
AcDbLine
 10
11.5495652956
 20
8.1025202704
 30
0.0
 11
11.5495652956
 21
8.0691891888
 31
0.0
  0
LINE
  5
22E
330
1F
100
AcDbEntity
  8
0
  6
Continuous
 62
     7
 48
3.0
370
    15
100
AcDbLine
 10
11.92256512
 20
8.0691891888
 30
0.0
 11
11.92256512
 21
8.1025202704
 31
0.0
  0
ARC
  5
22F
330
1F
100
AcDbEntity
  8
0
  6
Continuous
 62
     7
 48
9.0
370
    15
100
AcDbCircle
 10
11.5645651808
 20
8.1025204495
 30
0.0
 40
0.0150000000000006
100
AcDbArc
 50
142.550643686
 51
180.0
  0
ARC
  5
230
330
1F
100
AcDbEntity
  8
0
  6
Continuous
 62
     7
 48
9.0
370
    15
100
AcDbCircle
 10
11.9075651808
 20
8.1025204495
 30
0.0
 40
0.0149999999999991
100
AcDbArc
 50
0.0
 51
37.449356314
  0
ARC
  5
231
330
1F
100
AcDbEntity
  8
0
  6
Continuous
 62
     7
 48
9.0
370
    15
100
AcDbCircle
 10
11.7360651808
 20
7.9711645506
 30
0.0
 40
0.2310245869783039
100
AcDbArc
 50
100.1818657166
 51
142.550643686
  0
ARC
  5
232
330
1F
100
AcDbEntity
  8
0
  6
Continuous
 62
     7
 48
9.0
370
    15
100
AcDbCircle
 10
11.7360651808
 20
7.9711645506
 30
0.0
 40
0.2310245869783038
100
AcDbArc
 50
37.449356314
 51
79.8181342834
  0
LINE
  5
233
330
1F
100
AcDbEntity
  8
0
  6
Continuous
 62
     7
 48
3.0
370
    15
100
AcDbLine
 10
11.6670650582
 20
7.9451892346
 30
0.0
 11
11.6670650582
 21
7.8681889508
 31
0.0
  0
LINE
  5
234
330
1F
100
AcDbEntity
  8
0
  6
Continuous
 62
     7
 48
3.0
370
    15
100
AcDbLine
 10
11.805065064
 20
7.8681889508
 30
0.0
 11
11.805065064
 21
7.9451892346
 31
0.0
  0
LINE
  5
235
330
1F
100
AcDbEntity
  8
0
  6
Continuous
 62
     7
 48
3.0
370
    15
100
AcDbLine
 10
19.4860651324
 20
8.0071892117
 30
0.0
 11
19.4860651324
 21
8.0691891888
 31
0.0
  0
LINE
  5
236
330
1F
100
AcDbEntity
  8
0
  6
Continuous
 62
     7
 48
3.0
370
    15
100
AcDbLine
 10
11.4860652291
 20
8.0071892117
 30
0.0
 11
11.4860652291
 21
8.0691891888
 31
0.0
  0
LINE
  5
237
330
1F
100
AcDbEntity
  8
0
  6
Continuous
 62
     7
 48
3.0
370
    15
100
AcDbLine
 10
11.4860652291
 20
8.0071892117
 30
0.0
 11
19.4860651324
 21
8.0071892117
 31
0.0
  0
LINE
  5
238
330
1F
100
AcDbEntity
  8
0
  6
Continuous
 62
     7
 48
3.0
370
    15
100
AcDbLine
 10
11.4860652291
 20
8.0691891888
 30
0.0
 11
19.4860651324
 21
8.0691891888
 31
0.0
  0
LINE
  5
239
330
1F
100
AcDbEntity
  8
0
  6
Continuous
 62
     7
 48
3.0
370
    15
100
AcDbLine
 10
18.9550651866
 20
8.0071892117
 30
0.0
 11
18.9550651866
 21
7.9451892346
 31
0.0
  0
LINE
  5
23A
330
1F
100
AcDbEntity
  8
0
  6
Continuous
 62
     7
 48
3.0
370
    15
100
AcDbLine
 10
12.017065175
 20
7.8681889508
 30
0.0
 11
11.6250651967
 21
7.8681889508
 31
0.0
  0
LINE
  5
23B
330
1F
100
AcDbEntity
  8
0
  6
Continuous
 62
     7
 48
3.0
370
    15
100
AcDbLine
 10
12.017065175
 20
7.9301889279
 30
0.0
 11
12.017065175
 21
7.8681889508
 31
0.0
  0
LINE
  5
23C
330
1F
100
AcDbEntity
  8
0
  6
Continuous
 62
     7
 48
3.0
370
    15
100
AcDbLine
 10
18.9550651866
 20
7.9301889279
 30
0.0
 11
18.9550651866
 21
7.8681889508
 31
0.0
  0
LINE
  5
23D
330
1F
100
AcDbEntity
  8
0
  6
Continuous
 62
     7
 48
3.0
370
    15
100
AcDbLine
 10
18.9550651866
 20
7.8681889508
 30
0.0
 11
19.3470651648
 21
7.8681889508
 31
0.0
  0
LINE
  5
23E
330
1F
100
AcDbEntity
  8
0
  6
Continuous
 62
     7
 48
3.0
370
    15
100
AcDbLine
 10
11.6250651967
 20
2.1461891418
 30
0.0
 11
11.5480652062
 21
2.1461891418
 31
0.0
  0
LINE
  5
23F
330
1F
100
AcDbEntity
  8
0
  6
Continuous
 62
     7
 48
3.0
370
    15
100
AcDbLine
 10
11.5480652062
 20
7.8681889508
 30
0.0
 11
11.6250651967
 21
7.8681889508
 31
0.0
  0
LINE
  5
240
330
1F
100
AcDbEntity
  8
0
  6
Continuous
 62
     7
 48
3.0
370
    15
100
AcDbLine
 10
19.4240651553
 20
7.8681889508
 30
0.0
 11
19.3470651648
 21
7.8681889508
 31
0.0
  0
LINE
  5
241
330
1F
100
AcDbEntity
  8
0
  6
Continuous
 62
     7
 48
3.0
370
    15
100
AcDbLine
 10
19.3470651648
 20
2.1461891418
 30
0.0
 11
19.4240651553
 21
2.1461891418
 31
0.0
  0
LINE
  5
242
330
1F
100
AcDbEntity
  8
0
  6
Continuous
 62
     7
 48
3.0
370
    15
100
AcDbLine
 10
12.017065175
 20
7.9301889279
 30
0.0
 11
12.017065175
 21
8.0071892117
 31
0.0
  0
LINE
  5
243
330
1F
100
AcDbEntity
  8
0
  6
Continuous
 62
     7
 48
3.0
370
    15
100
AcDbLine
 10
18.9550651866
 20
7.9301889279
 30
0.0
 11
18.9550651866
 21
8.0071892117
 31
0.0
  0
LINE
  5
244
330
1F
100
AcDbEntity
  8
0
  6
Continuous
 62
     7
 48
3.0
370
    15
100
AcDbLine
 10
19.3470651648
 20
2.0691891376
 30
0.0
 11
19.3470651648
 21
2.1461891418
 31
0.0
  0
LINE
  5
245
330
1F
100
AcDbEntity
  8
0
  6
Continuous
 62
     7
 48
3.0
370
    15
100
AcDbLine
 10
11.6250651967
 20
2.0691891376
 30
0.0
 11
11.6250651967
 21
2.1461891418
 31
0.0
  0
LINE
  5
246
330
1F
100
AcDbEntity
  8
0
  6
Continuous
 62
     7
 48
3.0
370
    15
100
AcDbLine
 10
19.4240651553
 20
7.9301889279
 30
0.0
 11
19.4240651553
 21
2.0841891372
 31
0.0
  0
LINE
  5
247
330
1F
100
AcDbEntity
  8
0
  6
Continuous
 62
     7
 48
3.0
370
    15
100
AcDbLine
 10
19.4860651324
 20
7.9301889279
 30
0.0
 11
19.4860651324
 21
2.0841891372
 31
0.0
  0
LINE
  5
248
330
1F
100
AcDbEntity
  8
0
  6
Continuous
 62
     7
 48
3.0
370
    15
100
AcDbLine
 10
19.4090651419
 20
2.0071891375
 30
0.0
 11
11.5630652196
 21
2.0071891375
 31
0.0
  0
LINE
  5
249
330
1F
100
AcDbEntity
  8
0
  6
Continuous
 62
     7
 48
3.0
370
    15
100
AcDbLine
 10
19.4090651419
 20
2.0691891376
 30
0.0
 11
11.5630652196
 21
2.0691891376
 31
0.0
  0
ARC
  5
24A
330
1F
100
AcDbEntity
  8
0
  6
Continuous
 62
     7
 48
9.0
370
    15
100
AcDbCircle
 10
11.5630651808
 20
2.0841891375
 30
0.0
 40
0.0150000000000006
100
AcDbArc
 50
180.0
 51
270.0
  0
ARC
  5
24B
330
1F
100
AcDbEntity
  8
0
  6
Continuous
 62
     7
 48
9.0
370
    15
100
AcDbCircle
 10
11.5630651808
 20
2.0841891375
 30
0.0
 40
0.0770000000000004
100
AcDbArc
 50
180.0
 51
270.0
  0
ARC
  5
24C
330
1F
100
AcDbEntity
  8
0
  6
Continuous
 62
     7
 48
9.0
370
    15
100
AcDbCircle
 10
19.4090651808
 20
2.0841891375
 30
0.0
 40
0.077
100
AcDbArc
 50
270.0
 51
0.0
  0
ARC
  5
24D
330
1F
100
AcDbEntity
  8
0
  6
Continuous
 62
     7
 48
9.0
370
    15
100
AcDbCircle
 10
19.4090651808
 20
2.0841891375
 30
0.0
 40
0.0150000000000006
100
AcDbArc
 50
270.0
 51
0.0
  0
LINE
  5
24E
330
1F
100
AcDbEntity
  8
0
  6
Continuous
 62
     7
 48
3.0
370
    15
100
AcDbLine
 10
11.4860652291
 20
2.0841891372
 30
0.0
 11
11.4860652291
 21
7.9301889279
 31
0.0
  0
LINE
  5
24F
330
1F
100
AcDbEntity
  8
0
  6
Continuous
 62
     7
 48
3.0
370
    15
100
AcDbLine
 10
11.5480652062
 20
2.0841891372
 30
0.0
 11
11.5480652062
 21
7.9301889279
 31
0.0
  0
ARC
  5
250
330
1F
100
AcDbEntity
  8
0
  6
Continuous
 62
     7
 48
9.0
370
    15
100
AcDbCircle
 10
11.5630651808
 20
7.9301891375
 30
0.0
 40
0.0150000000000015
100
AcDbArc
 50
90.0
 51
180.0
  0
ARC
  5
251
330
1F
100
AcDbEntity
  8
0
  6
Continuous
 62
     7
 48
9.0
370
    15
100
AcDbCircle
 10
11.5630651808
 20
7.9301891375
 30
0.0
 40
0.077
100
AcDbArc
 50
90.0
 51
180.0
  0
LINE
  5
252
330
1F
100
AcDbEntity
  8
0
  6
Continuous
 62
     7
 48
3.0
370
    15
100
AcDbLine
 10
11.9860651864
 20
7.9451892346
 30
0.0
 11
11.9860651864
 21
8.0071892117
 31
0.0
  0
LINE
  5
253
330
1F
100
AcDbEntity
  8
0
  6
Continuous
 62
     7
 48
3.0
370
    15
100
AcDbLine
 10
11.5630652196
 20
7.9451892346
 30
0.0
 11
11.9860651864
 21
7.9451892346
 31
0.0
  0
LINE
  5
254
330
1F
100
AcDbEntity
  8
0
  6
Continuous
 62
     7
 48
3.0
370
    15
100
AcDbLine
 10
11.5630652196
 20
8.0071892117
 30
0.0
 11
11.9860651864
 21
8.0071892117
 31
0.0
  0
LINE
  5
255
330
1F
100
AcDbEntity
  8
0
  6
Continuous
 62
     7
 48
3.0
370
    15
100
AcDbLine
 10
18.9860651751
 20
8.0071892117
 30
0.0
 11
18.9860651751
 21
7.9451892346
 31
0.0
  0
LINE
  5
256
330
1F
100
AcDbEntity
  8
0
  6
Continuous
 62
     7
 48
3.0
370
    15
100
AcDbLine
 10
18.9860651751
 20
7.9451892346
 30
0.0
 11
19.4090651419
 21
7.9451892346
 31
0.0
  0
LINE
  5
257
330
1F
100
AcDbEntity
  8
0
  6
Continuous
 62
     7
 48
3.0
370
    15
100
AcDbLine
 10
18.9860651751
 20
8.0071892117
 30
0.0
 11
19.4090651419
 21
8.0071892117
 31
0.0
  0
ARC
  5
258
330
1F
100
AcDbEntity
  8
0
  6
Continuous
 62
     7
 48
9.0
370
    15
100
AcDbCircle
 10
19.4090651808
 20
7.9301891375
 30
0.0
 40
0.0150000000000006
100
AcDbArc
 50
360.0
 51
90.0
  0
ARC
  5
259
330
1F
100
AcDbEntity
  8
0
  6
Continuous
 62
     7
 48
9.0
370
    15
100
AcDbCircle
 10
19.4090651808
 20
7.9301891375
 30
0.0
 40
0.077
100
AcDbArc
 50
360.0
 51
90.0
  0
ARC
  5
25A
330
1F
100
AcDbEntity
  8
0
  6
Continuous
 62
     7
 48
9.0
370
    15
100
AcDbCircle
 10
19.1790858936
 20
8.1953381907
 30
0.0
 40
0.0164568370681761
100
AcDbArc
 50
358.3143001721
 51
11.2566288211
  0
ARC
  5
25B
330
1F
100
AcDbEntity
  8
0
  6
Continuous
 62
     7
 48
9.0
370
    15
100
AcDbCircle
 10
19.2363713902
 20
7.9711727348
 30
0.0
 40
0.227378334354387
100
AcDbArc
 50
85.2275490404
 51
100.3461115817
  0
ARC
  5
25C
330
1F
100
AcDbEntity
  8
0
  6
Continuous
 62
     7
 48
9.0
370
    15
100
AcDbCircle
 10
19.2126994186
 20
8.0511928081
 30
0.0
 40
0.1526322901372135
100
AcDbArc
 50
37.0399324698
 51
73.7974584433
  0
LINE
  5
25D
330
1F
100
AcDbEntity
  8
0
  6
Continuous
 62
     7
 48
3.0
370
    15
100
AcDbLine
 10
19.3562877516
 20
8.1431341479
 30
0.0
 11
19.3345329363
 21
8.1431341479
 31
0.0
  0
ARC
  5
25E
330
1F
100
AcDbEntity
  8
0
  6
Continuous
 62
     7
 48
9.0
370
    15
100
AcDbCircle
 10
19.234454748
 20
8.0511937824
 30
0.0
 40
0.1526312929661093
100
AcDbArc
 50
37.0397567602
 51
73.7974359378
  0
LWPOLYLINE
  5
25F
330
1F
100
AcDbEntity
  8
0
  6
Continuous
 62
     7
 48
3.0
370
    15
100
AcDbPolyline
 90
        9
 70
   128
 43
0.0
 10
19.2770440804
 20
8.1977627435
 10
19.276987761
 20
8.1982631644
 10
19.2769314417
 20
8.1985171881
 10
19.2768751223
 20
8.1985230547
 10
19.276818803
 20
8.1982819375
 10
19.2767624836
 20
8.1977938365
 10
19.2767064576
 20
8.1970593383
 10
19.2766504316
 20
8.1960790296
 10
19.2765949922
 20
8.1948540838
  0
ARC
  5
260
330
1F
100
AcDbEntity
  8
0
  6
Continuous
 62
     7
 48
9.0
370
    15
100
AcDbCircle
 10
19.2357272512
 20
7.9709506167
 30
0.0
 40
0.2276025808609233
100
AcDbArc
 50
79.6560158969
 51
84.9948133332
  0
ARC
  5
261
330
1F
100
AcDbEntity
  8
0
  6
Continuous
 62
     7
 48
9.0
370
    15
100
AcDbCircle
 10
19.2357617621
 20
7.9711472424
 30
0.0
 40
0.2274039750941326
100
AcDbArc
 50
90.0094007512
 51
94.772630855
  0
LINE
  5
262
330
1F
100
AcDbEntity
  8
0
  6
Continuous
 62
     7
 48
3.0
370
    15
100
AcDbLine
 10
19.2770440804
 20
8.1977627435
 30
0.0
 11
19.2770440804
 21
8.1898733413
 31
0.0
  0
LINE
  5
263
330
1F
100
AcDbEntity
  8
0
  6
Continuous
 62
     7
 48
3.0
370
    15
100
AcDbLine
 10
19.2765949922
 20
8.1900821922
 30
0.0
 11
19.2765949922
 21
8.1948540838
 31
0.0
  0
LINE
  5
264
330
1F
100
AcDbEntity
  8
0
  6
Continuous
 62
     7
 48
3.0
370
    15
100
AcDbLine
 10
19.2168413359
 20
8.1977105308
 30
0.0
 11
19.2168413359
 21
8.1977627435
 31
0.0
  0
ARC
  5
265
330
1F
100
AcDbEntity
  8
0
  6
Continuous
 62
     7
 48
9.0
370
    15
100
AcDbCircle
 10
11.7376756136
 20
8.0511937824
 30
0.0
 40
0.1526312929661266
100
AcDbArc
 50
106.2025640622
 51
142.9602432398
  0
LINE
  5
266
330
1F
100
AcDbEntity
  8
0
  6
Continuous
 62
     7
 48
3.0
370
    15
100
AcDbLine
 10
11.6375974253
 20
8.1431341479
 30
0.0
 11
11.6158426099
 21
8.1431341479
 31
0.0
  0
ARC
  5
267
330
1F
100
AcDbEntity
  8
0
  6
Continuous
 62
     7
 48
9.0
370
    15
100
AcDbCircle
 10
11.7594309429
 20
8.0511928081
 30
0.0
 40
0.1526322901372049
100
AcDbArc
 50
106.2025415567
 51
142.9600675302
  0
ARC
  5
268
330
1F
100
AcDbEntity
  8
0
  6
Continuous
 62
     7
 48
9.0
370
    15
100
AcDbCircle
 10
11.7357589713
 20
7.9711727348
 30
0.0
 40
0.2273783343544144
100
AcDbArc
 50
79.6538884183
 51
94.7724509596
  0
ARC
  5
269
330
1F
100
AcDbEntity
  8
0
  6
Continuous
 62
     7
 48
9.0
370
    15
100
AcDbCircle
 10
11.793044468
 20
8.1953381907
 30
0.0
 40
0.0164568370686278
100
AcDbArc
 50
168.743371179
 51
181.6856998278
  0
ARC
  5
26A
330
1F
100
AcDbEntity
  8
0
  6
Continuous
 62
     7
 48
9.0
370
    15
100
AcDbCircle
 10
11.7363794417
 20
7.9713413359
 30
0.0
 40
0.2272096524521028
100
AcDbArc
 50
85.2260214824
 51
90.1654524144
  0
ARC
  5
26B
330
1F
100
AcDbEntity
  8
0
  6
Continuous
 62
     7
 48
9.0
370
    15
100
AcDbCircle
 10
11.7364031103
 20
7.9709506167
 30
0.0
 40
0.2276025808609611
100
AcDbArc
 50
95.0051866668
 51
100.3439841031
  0
LWPOLYLINE
  5
26C
330
1F
100
AcDbEntity
  8
0
  6
Continuous
 62
     7
 48
3.0
370
    15
100
AcDbPolyline
 90
        9
 70
   128
 43
0.0
 10
11.6955353693
 20
8.1948540838
 10
11.6954799299
 20
8.1960790296
 10
11.6954239039
 20
8.1970593383
 10
11.6953678779
 20
8.1977938365
 10
11.6953115585
 20
8.1982819375
 10
11.6952552392
 20
8.1985230547
 10
11.6951989198
 20
8.1985171881
 10
11.6951426005
 20
8.1982631644
 10
11.6950862811
 20
8.1977627435
  0
LINE
  5
26D
330
1F
100
AcDbEntity
  8
0
  6
Continuous
 62
     7
 48
3.0
370
    15
100
AcDbLine
 10
11.6950862811
 20
8.1898733413
 30
0.0
 11
11.6950862811
 21
8.1977627435
 31
0.0
  0
LINE
  5
26E
330
1F
100
AcDbEntity
  8
0
  6
Continuous
 62
     7
 48
3.0
370
    15
100
AcDbLine
 10
11.6955353693
 20
8.1900821922
 30
0.0
 11
11.6955353693
 21
8.1948540838
 31
0.0
  0
LINE
  5
26F
330
1F
100
AcDbEntity
  8
0
  6
Continuous
 62
     7
 48
3.0
370
    15
100
AcDbLine
 10
11.7552890257
 20
8.1977627435
 30
0.0
 11
11.7552890257
 21
8.1977105308
 31
0.0
  0
CIRCLE
  5
270
330
1F
100
AcDbEntity
  8
0
  6
Continuous
 62
     7
 48
9.0
370
    15
100
AcDbCircle
 10
40.6585455892
 20
17.90363968
 30
0.0
 40
0.1404999999999959
  0
CIRCLE
  5
271
330
1F
100
AcDbEntity
  8
0
  6
Continuous
 62
     7
 48
9.0
370
    15
100
AcDbCircle
 10
47.6585455892
 20
17.90363968
 30
0.0
 40
0.140500000000003
  0
CIRCLE
  5
272
330
1F
100
AcDbEntity
  8
0
  6
Continuous
 62
     7
 48
9.0
370
    15
100
AcDbCircle
 10
47.6585455892
 20
10.90363968
 30
0.0
 40
0.1404999999999959
  0
CIRCLE
  5
273
330
1F
100
AcDbEntity
  8
0
  6
Continuous
 62
     7
 48
9.0
370
    15
100
AcDbCircle
 10
40.6585455892
 20
10.90363968
 30
0.0
 40
0.140500000000003
  0
CIRCLE
  5
274
330
1F
100
AcDbEntity
  8
0
  6
Continuous
 62
     7
 48
9.0
370
    15
100
AcDbCircle
 10
46.1585455892
 20
17.40363968
 30
0.0
 40
0.625
  0
LINE
  5
275
330
1F
100
AcDbEntity
  8
0
  6
Continuous
 62
     7
 48
3.0
370
    15
100
AcDbLine
 10
40.235545628
 20
9.4036395205
 30
0.0
 11
48.0815455503
 21
9.4036395205
 31
0.0
  0
LINE
  5
276
330
1F
100
AcDbEntity
  8
0
  6
Continuous
 62
     7
 48
3.0
370
    15
100
AcDbLine
 10
40.235545628
 20
19.4036398396
 30
0.0
 11
48.0815455503
 21
19.4036398396
 31
0.0
  0
LINE
  5
277
330
1F
100
AcDbEntity
  8
0
  6
Continuous
 62
     7
 48
3.0
370
    15
100
AcDbLine
 10
48.0815455503
 20
19.4036398396
 30
0.0
 11
48.1585455408
 21
19.4036398396
 31
0.0
  0
LINE
  5
278
330
1F
100
AcDbEntity
  8
0
  6
Continuous
 62
     7
 48
3.0
370
    15
100
AcDbLine
 10
48.1585455408
 20
19.4036398396
 30
0.0
 11
48.1585455408
 21
9.4036395205
 31
0.0
  0
LINE
  5
279
330
1F
100
AcDbEntity
  8
0
  6
Continuous
 62
     7
 48
3.0
370
    15
100
AcDbLine
 10
48.0815455503
 20
9.4036395205
 30
0.0
 11
48.1585455408
 21
9.4036395205
 31
0.0
  0
LINE
  5
27A
330
1F
100
AcDbEntity
  8
0
  6
Continuous
 62
     7
 48
3.0
370
    15
100
AcDbLine
 10
40.1585456375
 20
19.4036398396
 30
0.0
 11
40.1585456375
 21
9.4036395205
 31
0.0
  0
LINE
  5
27B
330
1F
100
AcDbEntity
  8
0
  6
Continuous
 62
     7
 48
3.0
370
    15
100
AcDbLine
 10
40.1585456375
 20
19.4036398396
 30
0.0
 11
40.235545628
 21
19.4036398396
 31
0.0
  0
LINE
  5
27C
330
1F
100
AcDbEntity
  8
0
  6
Continuous
 62
     7
 48
3.0
370
    15
100
AcDbLine
 10
40.1585456375
 20
9.4036395205
 30
0.0
 11
40.235545628
 21
9.4036395205
 31
0.0
  0
CIRCLE
  5
27D
330
1F
100
AcDbEntity
  8
0
  6
Continuous
 62
     7
 48
9.0
370
    15
100
AcDbCircle
 10
46.1585455892
 20
17.40363968
 30
0.0
 40
0.1469999999999985
  0
CIRCLE
  5
27E
330
1F
100
AcDbEntity
  8
0
  6
Continuous
 62
     7
 48
9.0
370
    15
100
AcDbCircle
 10
46.1585455892
 20
17.40363968
 30
0.0
 40
0.0850000000000009
  0
LINE
  5
27F
330
1F
100
AcDbEntity
  8
0
  6
Continuous
 62
     7
 48
3.0
370
    15
100
AcDbLine
 10
47.6585455835
 20
18.0441397313
 30
0.0
 11
47.6585455835
 21
17.7631396175
 31
0.0
  0
LINE
  5
280
330
1F
100
AcDbEntity
  8
0
  6
Continuous
 62
     7
 48
3.0
370
    15
100
AcDbLine
 10
47.6585455835
 20
11.0441397426
 30
0.0
 11
47.6585455835
 21
10.7631396287
 31
0.0
  0
LINE
  5
281
330
1F
100
AcDbEntity
  8
0
  6
Continuous
 62
     7
 48
3.0
370
    15
100
AcDbLine
 10
40.6585455948
 20
18.0441397313
 30
0.0
 11
40.6585455948
 21
17.7631396175
 31
0.0
  0
LINE
  5
282
330
1F
100
AcDbEntity
  8
0
  6
Continuous
 62
     7
 48
3.0
370
    15
100
AcDbLine
 10
40.6585455948
 20
11.0441397426
 30
0.0
 11
40.6585455948
 21
10.7631396287
 31
0.0
  0
DIMENSION
  5
283
330
1F
100
AcDbEntity
  8
0
  6
Continuous
 62
     7
 48
3.0
370
     0
100
AcDbDimension
  2
*D9
 10
39.1495696071
 20
10.90363968
 30
0.0
 11
39.1495696071
 21
14.40363968
 31
0.0
 70
   160
 71
     2
 42
-1.0
  3
SLDDIMSTYLE0
100
AcDbAlignedDimension
 13
40.6585455892
 23
17.90363968
 33
0.0
 14
40.6585455892
 24
10.90363968
 34
0.0
 50
90.0
100
AcDbRotatedDimension
  0
DIMENSION
  5
295
330
1F
100
AcDbEntity
  8
0
  6
Continuous
 62
     7
 48
3.0
370
     0
100
AcDbDimension
  2
*D10
 10
47.6585455892
 20
8.4221948015
 30
0.0
 11
44.1585455892
 21
8.4221948015
 31
0.0
 70
   160
 71
     2
 42
-1.0
  3
SLDDIMSTYLE0
100
AcDbAlignedDimension
 13
40.6585455892
 23
10.90363968
 33
0.0
 14
47.6585455892
 24
10.90363968
 34
0.0
100
AcDbRotatedDimension
  0
DIMENSION
  5
2A7
330
1F
100
AcDbEntity
  8
0
  6
Continuous
 62
     7
 48
3.0
370
     0
100
AcDbDimension
  2
*D11
 10
47.6123030305
 20
11.036311741
 30
0.0
 11
47.610703937
 21
7.1628844348
 31
0.0
 70
   163
  1
<>
 71
     1
 42
-1.0
  3
SLDDIMSTYLE2
100
AcDbDiametricDimension
 15
47.7047881479
 25
10.770967619
 35
0.0
 40
0.0
  0
DIMENSION
  5
2B8
330
1F
100
AcDbEntity
  8
0
  6
Continuous
 62
     7
 48
3.0
370
     0
100
AcDbDimension
  2
*D12
 10
49.1384917989
 20
19.40363968
 30
0.0
 11
49.1384917989
 21
18.40363968
 31
0.0
 70
   160
 71
     2
 42
-1.0
  3
SLDDIMSTYLE3
100
AcDbAlignedDimension
 13
46.1585455892
 23
17.40363968
 33
0.0
 14
48.1585455892
 24
19.40363968
 34
0.0
 50
90.0
100
AcDbRotatedDimension
  0
DIMENSION
  5
2CB
330
1F
100
AcDbEntity
  8
0
  6
Continuous
 62
     7
 48
3.0
370
     0
100
AcDbDimension
  2
*D13
 10
48.1585455892
 20
20.3423976598
 30
0.0
 11
47.1585455892
 21
20.3423976598
 31
0.0
 70
   160
 71
     2
 42
-1.0
  3
SLDDIMSTYLE3
100
AcDbAlignedDimension
 13
46.1585455892
 23
17.40363968
 33
0.0
 14
48.1585455892
 24
19.40363968
 34
0.0
100
AcDbRotatedDimension
  0
LINE
  5
2DD
330
1F
100
AcDbEntity
  8
0
  6
Continuous
 62
     7
 48
3.0
370
    15
100
AcDbLine
 10
44.6708697082
 20
28.3023581669
 30
0.0
 11
41.3947025831
 21
30.1936491909
 31
0.0
  0
LINE
  5
2DE
330
1F
100
AcDbEntity
  8
0
  6
Continuous
 62
     7
 48
3.0
370
    15
100
AcDbLine
 10
41.3485062861
 20
30.1936492201
 30
0.0
 11
38.920867366
 21
28.7922031021
 31
0.0
  0
LINE
  5
2DF
330
1F
100
AcDbEntity
  8
0
  6
Continuous
 62
     7
 48
3.0
370
    15
100
AcDbLine
 10
44.746580362
 20
23.4008258107
 30
0.0
 11
44.746580362
 21
28.3000708383
 31
0.0
  0
LINE
  5
2E0
330
1F
100
AcDbEntity
  8
0
  6
Continuous
 62
     7
 48
3.0
370
    15
100
AcDbLine
 10
38.8451567336
 20
28.7899157613
 30
0.0
 11
38.8451567336
 21
28.7788682354
 31
0.0
  0
ARC
  5
2E1
330
1F
100
AcDbEntity
  8
0
  6
Continuous
 62
     7
 48
9.0
370
    15
100
AcDbCircle
 10
42.129350513
 20
22.9811941137
 30
0.0
 40
0.1386147521869868
100
AcDbArc
 50
168.1339525011
 51
251.8606709662
  0
LINE
  5
2E2
330
1F
100
AcDbEntity
  8
0
  6
Continuous
 62
     7
 48
3.0
370
    15
100
AcDbLine
 10
42.1295665129
 20
22.8521112319
 30
0.0
 11
42.1437076932
 21
22.8602747615
 31
0.0
  0
LINE
  5
2E3
330
1F
100
AcDbEntity
  8
0
  6
Continuous
 62
     7
 48
3.0
370
    15
100
AcDbLine
 10
42.0318167707
 20
23.0540965051
 30
0.0
 11
42.0176755904
 21
23.0459329755
 31
0.0
  0
ARC
  5
2E4
330
1F
100
AcDbEntity
  8
0
  6
Continuous
 62
     7
 48
9.0
370
    15
100
AcDbCircle
 10
38.9473699977
 20
24.8181123653
 30
0.0
 40
0.1386147521869824
100
AcDbArc
 50
168.1339525011
 51
205.9042604596
  0
ARC
  5
2E5
330
1F
100
AcDbEntity
  8
0
  6
Continuous
 62
     7
 48
9.0
370
    15
100
AcDbCircle
 10
38.9473699977
 20
24.8181123653
 30
0.0
 40
0.1386147521869843
100
AcDbArc
 50
213.5984078164
 51
251.8606709662
  0
LINE
  5
2E6
330
1F
100
AcDbEntity
  8
0
  6
Continuous
 62
     7
 48
3.0
370
    15
100
AcDbLine
 10
38.947585896
 20
24.6890295421
 30
0.0
 11
38.9617270763
 21
24.6971930717
 31
0.0
  0
LINE
  5
2E7
330
1F
100
AcDbEntity
  8
0
  6
Continuous
 62
     7
 48
3.0
370
    15
100
AcDbLine
 10
38.8498361538
 20
24.8910148153
 30
0.0
 11
38.8356949735
 21
24.8828512857
 31
0.0
  0
ARC
  5
2E8
330
1F
100
AcDbEntity
  8
0
  6
Continuous
 62
     7
 48
9.0
370
    15
100
AcDbCircle
 10
42.129350513
 20
25.9207410365
 30
0.0
 40
0.1386147521869868
100
AcDbArc
 50
168.1339525011
 51
251.8606709662
  0
LINE
  5
2E9
330
1F
100
AcDbEntity
  8
0
  6
Continuous
 62
     7
 48
3.0
370
    15
100
AcDbLine
 10
42.1295665129
 20
25.791658191
 30
0.0
 11
42.1437076932
 21
25.7998217206
 31
0.0
  0
LINE
  5
2EA
330
1F
100
AcDbEntity
  8
0
  6
Continuous
 62
     7
 48
3.0
370
    15
100
AcDbLine
 10
42.0318167707
 20
25.9936434642
 30
0.0
 11
42.0176755904
 21
25.9854799346
 31
0.0
  0
ARC
  5
2EB
330
1F
100
AcDbEntity
  8
0
  6
Continuous
 62
     7
 48
9.0
370
    15
100
AcDbCircle
 10
38.9473699977
 20
27.7576592881
 30
0.0
 40
0.1386147521869824
100
AcDbArc
 50
168.1339525011
 51
205.9042604596
  0
ARC
  5
2EC
330
1F
100
AcDbEntity
  8
0
  6
Continuous
 62
     7
 48
9.0
370
    15
100
AcDbCircle
 10
38.9473699977
 20
27.7576592881
 30
0.0
 40
0.1386147521869854
100
AcDbArc
 50
213.5984078164
 51
251.8606709662
  0
LINE
  5
2ED
330
1F
100
AcDbEntity
  8
0
  6
Continuous
 62
     7
 48
3.0
370
    15
100
AcDbLine
 10
38.947585896
 20
27.6285765012
 30
0.0
 11
38.9617270763
 21
27.6367400308
 31
0.0
  0
LINE
  5
2EE
330
1F
100
AcDbEntity
  8
0
  6
Continuous
 62
     7
 48
3.0
370
    15
100
AcDbLine
 10
38.8498361538
 20
27.8305617744
 30
0.0
 11
38.8356949735
 21
27.8223982448
 31
0.0
  0
LINE
  5
2EF
330
1F
100
AcDbEntity
  8
0
  6
Continuous
 62
     7
 48
3.0
370
    15
100
AcDbLine
 10
38.8260200317
 20
28.7899156894
 30
0.0
 11
38.7997156692
 21
28.7747305041
 31
0.0
  0
LINE
  5
2F0
330
1F
100
AcDbEntity
  8
0
  6
Continuous
 62
     7
 48
3.0
370
    15
100
AcDbLine
 10
42.2201325404
 20
26.8305362447
 30
0.0
 11
38.8260200317
 21
28.7899156894
 31
0.0
  0
LINE
  5
2F1
330
1F
100
AcDbEntity
  8
0
  6
Continuous
 62
     7
 48
3.0
370
    15
100
AcDbLine
 10
42.2201325404
 20
26.8305362447
 30
0.0
 11
42.1938281778
 21
26.8153510594
 31
0.0
  0
LINE
  5
2F2
330
1F
100
AcDbEntity
  8
0
  6
Continuous
 62
     7
 48
3.0
370
    15
100
AcDbLine
 10
42.1938281778
 20
26.8153510594
 30
0.0
 11
38.7997156692
 21
28.7747305041
 31
0.0
  0
LWPOLYLINE
  5
2F3
330
1F
100
AcDbEntity
  8
0
  6
Continuous
 62
     7
 48
3.0
370
    15
100
AcDbPolyline
 90
       18
 70
   128
 43
0.0
 10
42.1467944105
 20
25.8018121716
 10
42.1572482809
 20
25.7821199899
 10
42.1684658969
 20
25.7516139539
 10
42.1736029174
 20
25.7220012205
 10
42.1722721805
 20
25.6955133468
 10
42.1645741167
 20
25.6741459645
 10
42.1510885356
 20
25.6595088902
 10
42.1328318151
 20
25.6527048305
 10
42.1111791205
 20
25.6542468139
 10
42.087762232
 20
25.664018445
 10
42.0643452189
 20
25.6812834498
 10
42.0426926488
 20
25.7047410636
 10
42.0244358039
 20
25.7326239559
 10
42.0109502228
 20
25.7628311507
 10
42.003252159
 20
25.7930865283
 10
42.0019215465
 20
25.8211107663
 10
42.0070584425
 20
25.8447924939
 10
42.0097561312
 20
25.8506607661
  0
LINE
  5
2F4
330
1F
100
AcDbEntity
  8
0
  6
Continuous
 62
     7
 48
3.0
370
    15
100
AcDbLine
 10
42.1938281778
 20
21.9161060318
 30
0.0
 11
42.1938281778
 21
26.8153510594
 31
0.0
  0
LINE
  5
2F5
330
1F
100
AcDbEntity
  8
0
  6
Continuous
 62
     7
 48
3.0
370
    15
100
AcDbLine
 10
38.7997156692
 20
23.8754854765
 30
0.0
 11
42.1938281778
 21
21.9161060318
 31
0.0
  0
LINE
  5
2F6
330
1F
100
AcDbEntity
  8
0
  6
Continuous
 62
     7
 48
3.0
370
    15
100
AcDbLine
 10
38.7997156692
 20
28.7747305041
 30
0.0
 11
38.7997156692
 21
23.8754854765
 31
0.0
  0
LWPOLYLINE
  5
2F7
330
1F
100
AcDbEntity
  8
0
  6
Continuous
 62
     7
 48
3.0
370
    15
100
AcDbPolyline
 90
       18
 70
   128
 43
0.0
 10
38.8282919792
 20
24.748985391
 10
38.8250779501
 20
24.7421637732
 10
38.8199409296
 20
24.7184822612
 10
38.8212716665
 20
24.6904579513
 10
38.8289697304
 20
24.66020243
 10
38.8424553114
 20
24.6299952351
 10
38.8607120319
 20
24.6021125584
 10
38.8823647265
 20
24.5786548728
 10
38.9057816151
 20
24.5613897961
 10
38.9291986281
 20
24.5516182369
 10
38.9508511982
 20
24.5500763253
 10
38.9691080431
 20
24.5568801694
 10
38.9825936242
 20
24.5715172437
 10
38.990291688
 20
24.5928847698
 10
38.9916223005
 20
24.6193727153
 10
38.9864854045
 20
24.6489852331
 10
38.9752677884
 20
24.6794914129
 10
38.9648139181
 20
24.6991834508
  0
LWPOLYLINE
  5
2F8
330
1F
100
AcDbEntity
  8
0
  6
Continuous
 62
     7
 48
3.0
370
    15
100
AcDbPolyline
 90
       18
 70
   128
 43
0.0
 10
38.8282919792
 20
27.6885322064
 10
38.8250779501
 20
27.6817107323
 10
38.8199409296
 20
27.6580290766
 10
38.8212716665
 20
27.6300047667
 10
38.8289697304
 20
27.5997493891
 10
38.8424553114
 20
27.5695421942
 10
38.8607120319
 20
27.5416593738
 10
38.8823647265
 20
27.5182016882
 10
38.9057816151
 20
27.5009367552
 10
38.9291986281
 20
27.4911650523
 10
38.9508511982
 20
27.4896231407
 10
38.9691080431
 20
27.4964271285
 10
38.9825936242
 20
27.5110642029
 10
38.990291688
 20
27.5324315852
 10
38.9916223005
 20
27.5589195307
 10
38.9864854045
 20
27.5885321922
 10
38.9752677884
 20
27.6190382283
 10
38.9648139181
 20
27.6387304099
  0
LWPOLYLINE
  5
2F9
330
1F
100
AcDbEntity
  8
0
  6
Continuous
 62
     7
 48
3.0
370
    15
100
AcDbPolyline
 90
       18
 70
   128
 43
0.0
 10
42.1467944105
 20
22.8622652124
 10
42.1572482809
 20
22.8425731745
 10
42.1684658969
 20
22.8120669947
 10
42.1736029174
 20
22.7824544051
 10
42.1722721805
 20
22.7559665314
 10
42.1645741167
 20
22.7345990054
 10
42.1510885356
 20
22.719961931
 10
42.1328318151
 20
22.7131580151
 10
42.1111791205
 20
22.7146999985
 10
42.087762232
 20
22.7244714858
 10
42.0643452189
 20
22.7417366344
 10
42.0426926488
 20
22.7651942482
 10
42.0244358039
 20
22.7930769967
 10
42.0109502228
 20
22.8232841916
 10
42.003252159
 20
22.8535397129
 10
42.0019215465
 20
22.8815639509
 10
42.0070584425
 20
22.9052455348
 10
42.0097561312
 20
22.911113807
  0
LINE
  5
2FA
330
1F
100
AcDbEntity
  8
0
  6
Continuous
 62
     7
 48
3.0
370
    15
100
AcDbLine
 10
42.2201325404
 20
21.931291217
 30
0.0
 11
42.2201325404
 21
26.8305362447
 31
0.0
  0
LINE
  5
2FB
330
1F
100
AcDbEntity
  8
0
  6
Continuous
 62
     7
 48
3.0
370
    15
100
AcDbLine
 10
42.2201325404
 20
21.931291217
 30
0.0
 11
42.1938281778
 21
21.9161060318
 31
0.0
  0
LWPOLYLINE
  5
2FC
330
1F
100
AcDbEntity
  8
0
  6
Continuous
 62
     7
 48
3.0
370
    15
100
AcDbPolyline
 90
       10
 70
   128
 43
0.0
 10
42.160372582
 20
25.6680698406
 10
42.1591361776
 20
25.6678900158
 10
42.1374834831
 20
25.6694319992
 10
42.1140665945
 20
25.6792036302
 10
42.0906495815
 20
25.6964686351
 10
42.0689970114
 20
25.7199262488
 10
42.0507401664
 20
25.7478091411
 10
42.0372545853
 20
25.778016336
 10
42.0295565215
 20
25.8082717136
 10
42.0279609563
 20
25.8262200928
  0
LWPOLYLINE
  5
2FD
330
1F
100
AcDbEntity
  8
0
  6
Continuous
 62
     7
 48
3.0
370
    15
100
AcDbPolyline
 90
       10
 70
   128
 43
0.0
 10
42.160372582
 20
22.7285230252
 10
42.1591361776
 20
22.7283432004
 10
42.1374834831
 20
22.7298851838
 10
42.1140665945
 20
22.7396566711
 10
42.0906495815
 20
22.7569218197
 10
42.0689970114
 20
22.7803794334
 10
42.0507401664
 20
22.808262182
 10
42.0372545853
 20
22.8384693768
 10
42.0295565215
 20
22.8687248982
 10
42.0279609563
 20
22.8866731337
  0
LWPOLYLINE
  5
2FE
330
1F
100
AcDbEntity
  8
0
  6
Continuous
 62
     7
 48
3.0
370
    15
100
AcDbPolyline
 90
       10
 70
   128
 43
0.0
 10
38.8459804639
 20
27.6631383312
 10
38.8475760291
 20
27.6451899519
 10
38.8552740929
 20
27.6149345743
 10
38.868759674
 20
27.5847273795
 10
38.8870163945
 20
27.5568445591
 10
38.908669089
 20
27.5333868735
 10
38.9320859776
 20
27.5161219405
 10
38.9555029907
 20
27.5063502375
 10
38.9771555607
 20
27.504808326
 10
38.9783920895
 20
27.5049880789
  0
LWPOLYLINE
  5
2FF
330
1F
100
AcDbEntity
  8
0
  6
Continuous
 62
     7
 48
3.0
370
    15
100
AcDbPolyline
 90
       10
 70
   128
 43
0.0
 10
38.8459804639
 20
24.7235913721
 10
38.8475760291
 20
24.7056431365
 10
38.8552740929
 20
24.6753876152
 10
38.868759674
 20
24.6451804204
 10
38.8870163945
 20
24.6172977436
 10
38.908669089
 20
24.5938400581
 10
38.9320859776
 20
24.5765749813
 10
38.9555029907
 20
24.5668034221
 10
38.9771555607
 20
24.5652615106
 10
38.9783920895
 20
24.5654412635
  0
ARC
  5
300
330
1F
100
AcDbEntity
  8
0
  6
Continuous
 62
     7
 48
9.0
370
    15
100
AcDbCircle
 10
42.1848598923
 20
26.8420765392
 30
0.0
 40
0.0666473343554138
100
AcDbArc
 50
28.856272574
 51
58.0455391727
  0
ARC
  5
301
330
1F
100
AcDbEntity
  8
0
  6
Continuous
 62
     7
 48
9.0
370
    15
100
AcDbCircle
 10
42.2133029942
 20
26.857286727
 30
0.0
 40
0.0129160853842858
100
AcDbArc
 50
29.8407221145
 51
58.0774456646
  0
ARC
  5
302
330
1F
100
AcDbEntity
  8
0
  6
Continuous
 62
     7
 48
9.0
370
    15
100
AcDbCircle
 10
44.6095336087
 20
28.2407131107
 30
0.0
 40
0.0706079645080488
100
AcDbArc
 50
29.6875825242
 51
57.2105585333
  0
LINE
  5
303
330
1F
100
AcDbEntity
  8
0
  6
Continuous
 62
     7
 48
3.0
370
    15
100
AcDbLine
 10
42.0538211591
 20
26.9946343258
 30
0.0
 11
42.2201326648
 21
26.8986247372
 31
0.0
  0
LINE
  5
304
330
1F
100
AcDbEntity
  8
0
  6
Continuous
 62
     7
 48
3.0
370
    15
100
AcDbLine
 10
42.0275167966
 20
26.9794491406
 30
0.0
 11
42.0538211591
 21
26.9946343258
 31
0.0
  0
LINE
  5
305
330
1F
100
AcDbEntity
  8
0
  6
Continuous
 62
     7
 48
3.0
370
    15
100
AcDbLine
 10
39.0839726829
 20
28.6787209874
 30
0.0
 11
39.1102770455
 21
28.6939061726
 31
0.0
  0
LINE
  5
306
330
1F
100
AcDbEntity
  8
0
  6
Continuous
 62
     7
 48
3.0
370
    15
100
AcDbLine
 10
39.1102770455
 20
28.6939061726
 30
0.0
 11
38.9439655398
 21
28.7899157613
 31
0.0
  0
LINE
  5
307
330
1F
100
AcDbEntity
  8
0
  6
Continuous
 62
     7
 48
3.0
370
    15
100
AcDbLine
 10
42.0538211591
 20
26.9642590188
 30
0.0
 11
42.0538211591
 21
26.9946343258
 31
0.0
  0
LINE
  5
308
330
1F
100
AcDbEntity
  8
0
  6
Continuous
 62
     7
 48
3.0
370
    15
100
AcDbLine
 10
42.0538211591
 20
26.9642590188
 30
0.0
 11
42.2201326648
 21
26.8682494302
 31
0.0
  0
ARC
  5
309
330
1F
100
AcDbEntity
  8
0
  6
Continuous
 62
     7
 48
9.0
370
    15
100
AcDbCircle
 10
42.0627898698
 20
26.9229004546
 30
0.0
 40
0.0666479074639085
100
AcDbArc
 50
121.9544580994
 51
151.1435904883
  0
ARC
  5
30A
330
1F
100
AcDbEntity
  8
0
  6
Continuous
 62
     7
 48
9.0
370
    15
100
AcDbCircle
 10
39.1192457561
 20
28.6221723014
 30
0.0
 40
0.0666479074639063
100
AcDbArc
 50
121.9544580994
 51
151.1435904883
  0
LINE
  5
30B
330
1F
100
AcDbEntity
  8
0
  6
Continuous
 62
     7
 48
3.0
370
    15
100
AcDbLine
 10
42.0474612993
 20
26.9605875499
 30
0.0
 11
42.0538211591
 21
26.9642590188
 31
0.0
  0
ARC
  5
30C
330
1F
100
AcDbEntity
  8
0
  6
Continuous
 62
     7
 48
9.0
370
    15
100
AcDbCircle
 10
44.6605242441
 20
28.2844362415
 30
0.0
 40
0.0201760119523516
100
AcDbArc
 50
350.7858523051
 51
129.2030356317
  0
ARC
  5
30D
330
1F
100
AcDbEntity
  8
0
  6
Continuous
 62
     7
 48
9.0
370
    15
100
AcDbCircle
 10
41.3851374399
 20
30.1724711902
 30
0.0
 40
0.0232378931911768
100
AcDbArc
 50
65.6934624381
 51
125.6171911235
  0
LINE
  5
30E
330
1F
100
AcDbEntity
  8
0
  6
Continuous
 62
     7
 48
3.0
370
    15
100
AcDbLine
 10
39.0839684517
 20
28.6787184936
 30
0.0
 11
38.9439655398
 21
28.7595404543
 31
0.0
  0
ARC
  5
30F
330
1F
100
AcDbEntity
  8
0
  6
Continuous
 62
     7
 48
9.0
370
    15
100
AcDbCircle
 10
38.9312128696
 20
28.7742811722
 30
0.0
 40
0.0201759998194238
100
AcDbArc
 50
50.7968959545
 51
189.2142338288
  0
ARC
  5
310
330
1F
100
AcDbEntity
  8
0
  6
Continuous
 62
     7
 48
9.0
370
    15
100
AcDbCircle
 10
41.3580714227
 20
30.1724710941
 30
0.0
 40
0.023238004589108
100
AcDbArc
 50
54.3828321291
 51
114.3063955168
  0
ARC
  5
311
330
1F
100
AcDbEntity
  8
0
  6
Continuous
 62
     7
 48
9.0
370
    15
100
AcDbCircle
 10
38.9414813689
 20
28.7564945278
 30
0.0
 40
0.0039304927121597
100
AcDbArc
 50
50.8002952177
 51
189.2123970665
  0
ARC
  5
312
330
1F
100
AcDbEntity
  8
0
  6
Continuous
 62
     7
 48
9.0
370
    15
100
AcDbCircle
 10
42.2201325333
 20
26.9124450823
 30
0.0
 40
0.0710105494586373
100
AcDbArc
 50
242.6097397645
 51
297.3903862382
  0
ARC
  5
313
330
1F
100
AcDbEntity
  8
0
  6
Continuous
 62
     7
 48
9.0
370
    15
100
AcDbCircle
 10
42.2214635212
 20
22.0089877951
 30
0.0
 40
0.0666624811641125
100
AcDbArc
 50
268.8560654318
 51
298.0402431421
  0
ARC
  5
314
330
1F
100
AcDbEntity
  8
0
  6
Continuous
 62
     7
 48
9.0
370
    15
100
AcDbCircle
 10
42.2201325333
 20
26.8768625908
 30
0.0
 40
0.0138329621327527
100
AcDbArc
 50
242.6091744525
 51
297.3914723556
  0
LINE
  5
315
330
1F
100
AcDbEntity
  8
0
  6
Continuous
 62
     7
 48
3.0
370
    15
100
AcDbLine
 10
42.0080005242
 20
26.952997451
 30
0.0
 11
42.1874642111
 21
26.8493952698
 31
0.0
  0
LINE
  5
316
330
1F
100
AcDbEntity
  8
0
  6
Continuous
 62
     7
 48
3.0
370
    15
100
AcDbLine
 10
42.0080005242
 20
26.952997451
 30
0.0
 11
42.0343048867
 21
26.9681826363
 31
0.0
  0
LINE
  5
317
330
1F
100
AcDbEntity
  8
0
  6
Continuous
 62
     7
 48
3.0
370
    15
100
AcDbLine
 10
42.0343048867
 20
26.9681826363
 30
0.0
 11
42.2137685737
 21
26.864580455
 31
0.0
  0
LINE
  5
318
330
1F
100
AcDbEntity
  8
0
  6
Continuous
 62
     7
 48
3.0
370
    15
100
AcDbLine
 10
42.2264966316
 20
26.8645805269
 30
0.0
 11
44.7067442884
 21
28.2963970221
 31
0.0
  0
LINE
  5
319
330
1F
100
AcDbEntity
  8
0
  6
Continuous
 62
     7
 48
3.0
370
    15
100
AcDbLine
 10
42.2528009941
 20
26.8493953416
 30
0.0
 11
44.733048651
 21
28.2812118369
 31
0.0
  0
LINE
  5
31A
330
1F
100
AcDbEntity
  8
0
  6
Continuous
 62
     7
 48
3.0
370
    15
100
AcDbLine
 10
42.2528009941
 20
21.9501503139
 30
0.0
 11
44.733048651
 21
23.3819668092
 31
0.0
  0
ARC
  5
31B
330
1F
100
AcDbEntity
  8
0
  6
Continuous
 62
     7
 48
9.0
370
    15
100
AcDbCircle
 10
44.7053499645
 20
28.3000708591
 30
0.0
 40
0.0039295314722517
100
AcDbArc
 50
290.7831556878
 51
69.2169352904
  0
ARC
  5
31C
330
1F
100
AcDbEntity
  8
0
  6
Continuous
 62
     7
 48
9.0
370
    15
100
AcDbCircle
 10
44.7258910533
 20
28.3000708638
 30
0.0
 40
0.0201716162069016
100
AcDbArc
 50
290.7833390036
 51
69.216649181
  0
ARC
  5
31D
330
1F
100
AcDbEntity
  8
0
  6
Continuous
 62
     7
 48
9.0
370
    15
100
AcDbCircle
 10
44.7234588792
 20
23.4031317998
 30
0.0
 40
0.0232361905309658
100
AcDbArc
 50
294.3750882443
 51
354.3045186968
  0
LINE
  5
31E
330
1F
100
AcDbEntity
  8
0
  6
Continuous
 62
     7
 48
3.0
370
    15
100
AcDbLine
 10
44.7067442826
 20
28.3037446983
 30
0.0
 11
41.3779684324
 21
30.2254060929
 31
0.0
  0
LINE
  5
31F
330
1F
100
AcDbEntity
  8
0
  6
Continuous
 62
     7
 48
3.0
370
    15
100
AcDbLine
 10
44.7330486549
 20
28.3189298892
 30
0.0
 11
41.4042728047
 21
30.2405912838
 31
0.0
  0
LINE
  5
320
330
1F
100
AcDbEntity
  8
0
  6
Continuous
 62
     7
 48
3.0
370
    15
100
AcDbLine
 10
39.0644564105
 20
28.6826396684
 30
0.0
 11
39.038152048
 21
28.6674544831
 31
0.0
  0
LINE
  5
321
330
1F
100
AcDbEntity
  8
0
  6
Continuous
 62
     7
 48
3.0
370
    15
100
AcDbLine
 10
39.0644564105
 20
28.6826396684
 30
0.0
 11
39.0644564105
 21
28.6599827124
 31
0.0
  0
LINE
  5
322
330
1F
100
AcDbEntity
  8
0
  6
Continuous
 62
     7
 48
3.0
370
    15
100
AcDbLine
 10
38.8849927235
 20
28.7862418496
 30
0.0
 11
39.0644564105
 21
28.6826396684
 31
0.0
  0
LINE
  5
323
330
1F
100
AcDbEntity
  8
0
  6
Continuous
 62
     7
 48
3.0
370
    15
100
AcDbLine
 10
38.858688361
 20
28.7710566644
 30
0.0
 11
39.038152048
 21
28.6674544831
 31
0.0
  0
ARC
  5
324
330
1F
100
AcDbEntity
  8
0
  6
Continuous
 62
     7
 48
9.0
370
    15
100
AcDbCircle
 10
38.8658460616
 20
28.7899157017
 30
0.0
 40
0.0201716625188342
100
AcDbArc
 50
110.7832239016
 51
249.2163980083
  0
ARC
  5
325
330
1F
100
AcDbEntity
  8
0
  6
Continuous
 62
     7
 48
9.0
370
    15
100
AcDbCircle
 10
38.8863870439
 20
28.7899157017
 30
0.0
 40
0.0039295442989905
100
AcDbArc
 50
110.7810872265
 51
249.2169719284
  0
LINE
  5
326
330
1F
100
AcDbEntity
  8
0
  6
Continuous
 62
     7
 48
3.0
370
    15
100
AcDbLine
 10
41.3652405049
 20
30.2254060963
 30
0.0
 11
38.884992848
 21
28.793589601
 31
0.0
  0
LINE
  5
327
330
1F
100
AcDbEntity
  8
0
  6
Continuous
 62
     7
 48
3.0
370
    15
100
AcDbLine
 10
41.3389361423
 20
30.2405912816
 30
0.0
 11
38.8586884854
 21
28.8087747863
 31
0.0
  0
ARC
  5
328
330
1F
100
AcDbEntity
  8
0
  6
Continuous
 62
     7
 48
9.0
370
    15
100
AcDbCircle
 10
41.3716044654
 20
30.2131238106
 30
0.0
 40
0.0138330956625593
100
AcDbArc
 50
62.6094263453
 51
117.3905433354
  0
ARC
  5
329
330
1F
100
AcDbEntity
  8
0
  6
Continuous
 62
     7
 48
9.0
370
    15
100
AcDbCircle
 10
41.3716044757
 20
30.1775417208
 30
0.0
 40
0.0710103310675794
100
AcDbArc
 50
62.6096422091
 51
117.3903617285
  0
ARC
  5
32A
330
1F
100
AcDbEntity
  8
0
  6
Continuous
 62
     7
 48
9.0
370
    15
100
AcDbCircle
 10
42.1656493932
 20
23.0072950013
 30
0.0
 40
0.1516904606210971
100
AcDbArc
 50
174.6747752338
 51
202.0529837494
  0
ARC
  5
32B
330
1F
100
AcDbEntity
  8
0
  6
Continuous
 62
     7
 48
9.0
370
    15
100
AcDbCircle
 10
42.0256331972
 20
22.9923494284
 30
0.0
 40
0.031045321067269
100
AcDbArc
 50
110.7904233763
 51
130.7115417744
  0
ARC
  5
32C
330
1F
100
AcDbEntity
  8
0
  6
Continuous
 62
     7
 48
9.0
370
    15
100
AcDbCircle
 10
42.1564204644
 20
23.0018034632
 30
0.0
 40
0.1516913310715226
100
AcDbArc
 50
174.6747384127
 51
202.0528073688
  0
ARC
  5
32D
330
1F
100
AcDbEntity
  8
0
  6
Continuous
 62
     7
 48
9.0
370
    15
100
AcDbCircle
 10
42.1352812663
 20
22.9364131859
 30
0.0
 40
0.1197516391932686
100
AcDbArc
 50
175.9603587904
 51
189.7288661466
  0
ARC
  5
32E
330
1F
100
AcDbEntity
  8
0
  6
Continuous
 62
     7
 48
9.0
370
    15
100
AcDbCircle
 10
42.0918644052
 20
23.0083416951
 30
0.0
 40
0.1185807548297832
100
AcDbArc
 50
231.0079093768
 51
244.7967051941
  0
ARC
  5
32F
330
1F
100
AcDbEntity
  8
0
  6
Continuous
 62
     7
 48
9.0
370
    15
100
AcDbCircle
 10
42.1612190278
 20
22.9962349847
 30
0.0
 40
0.1530499911648334
100
AcDbArc
 50
218.4567707953
 51
245.6710649319
  0
ARC
  5
330
330
1F
100
AcDbEntity
  8
0
  6
Continuous
 62
     7
 48
9.0
370
    15
100
AcDbCircle
 10
42.0871491449
 20
22.8857957336
 30
0.0
 40
0.0310401588664217
100
AcDbArc
 50
290.7893399855
 51
310.7139429118
  0
ARC
  5
331
330
1F
100
AcDbEntity
  8
0
  6
Continuous
 62
     7
 48
9.0
370
    15
100
AcDbCircle
 10
42.1704487006
 20
23.0017261604
 30
0.0
 40
0.1530496453375524
100
AcDbArc
 50
218.4567510759
 51
245.6710530702
  0
ARC
  5
332
330
1F
100
AcDbEntity
  8
0
  6
Continuous
 62
     7
 48
9.0
370
    15
100
AcDbCircle
 10
42.1883842101
 20
22.9168304345
 30
0.0
 40
0.1381689564525436
100
AcDbArc
 50
171.7577672748
 51
184.2707855031
  0
ARC
  5
333
330
1F
100
AcDbEntity
  8
0
  6
Continuous
 62
     7
 48
9.0
370
    15
100
AcDbCircle
 10
42.1009338592
 20
23.0649132714
 30
0.0
 40
0.1374196464339683
100
AcDbArc
 50
236.4850894307
 51
248.9800631723
  0
LWPOLYLINE
  5
334
330
1F
100
AcDbEntity
  8
0
  6
Continuous
 62
     7
 48
3.0
370
    15
100
AcDbPolyline
 90
        3
 70
   128
 43
0.0
 10
42.0143168268
 20
23.0418485152
 10
42.0011775882
 20
23.0288445165
 10
41.993697933
 20
23.0096966764
  0
ARC
  5
335
330
1F
100
AcDbEntity
  8
0
  6
Continuous
 62
     7
 48
9.0
370
    15
100
AcDbCircle
 10
42.1030105265
 20
22.8925940494
 30
0.0
 40
0.0462878751147563
100
AcDbArc
 50
248.6993536069
 51
303.4916226933
  0
LINE
  5
336
330
1F
100
AcDbEntity
  8
0
  6
Continuous
 62
     7
 48
3.0
370
    15
100
AcDbLine
 10
42.0172520893
 20
23.0456848212
 30
0.0
 11
42.0045534015
 21
23.0334755776
 31
0.0
  0
LWPOLYLINE
  5
337
330
1F
100
AcDbEntity
  8
0
  6
Continuous
 62
     7
 48
3.0
370
    15
100
AcDbPolyline
 90
       15
 70
   128
 43
0.0
 10
42.1122164059
 20
22.8469775212
 10
42.1219039171
 20
22.8487612187
 10
42.1370260073
 20
22.8577584227
 10
42.147445654
 20
22.8735241913
 10
42.1523900269
 20
22.8948892315
 10
42.1514924982
 20
22.9202691112
 10
42.1448195237
 20
22.9477815295
 10
42.1328661631
 20
22.9753858575
 10
42.1165188691
 20
23.0010349644
 10
42.0969900272
 20
23.0228265374
 10
42.0757279792
 20
23.0391442676
 10
42.0543096229
 20
23.0487781969
 10
42.0343235541
 20
23.0510135914
 10
42.0172520893
 20
23.0456848212
 10
42.0172520893
 20
23.0456848212
  0
LWPOLYLINE
  5
338
330
1F
100
AcDbEntity
  8
0
  6
Continuous
 62
     7
 48
3.0
370
    15
100
AcDbPolyline
 90
       14
 70
   128
 43
0.0
 10
42.1437076932
 20
22.8602747615
 10
42.1511671876
 20
22.8659219523
 10
42.1615868343
 20
22.8816877209
 10
42.1665312072
 20
22.9030527611
 10
42.1656336785
 20
22.9284326408
 10
42.158960704
 20
22.9559450591
 10
42.1470073434
 20
22.9835493871
 10
42.1306600494
 20
23.0091984941
 10
42.1111312075
 20
23.030990067
 10
42.0898691595
 20
23.0473077972
 10
42.0684508032
 20
23.0569417265
 10
42.0484647344
 20
23.059177121
 10
42.0313932696
 20
23.0538483508
 10
42.0313932696
 20
23.0538483508
  0
LINE
  5
339
330
1F
100
AcDbEntity
  8
0
  6
Continuous
 62
     7
 48
3.0
370
    15
100
AcDbLine
 10
42.0503572358
 20
22.9229566148
 30
0.0
 11
42.0395957266
 21
22.9290756906
 31
0.0
  0
LINE
  5
33A
330
1F
100
AcDbEntity
  8
0
  6
Continuous
 62
     7
 48
3.0
370
    15
100
AcDbLine
 10
42.0395957266
 20
22.9290756906
 30
0.0
 11
42.0395118478
 21
22.9419928695
 31
0.0
  0
LINE
  5
33B
330
1F
100
AcDbEntity
  8
0
  6
Continuous
 62
     7
 48
3.0
370
    15
100
AcDbLine
 10
42.0395957266
 20
22.9290756906
 30
0.0
 11
42.0172518404
 21
22.9161768396
 31
0.0
  0
LINE
  5
33C
330
1F
100
AcDbEntity
  8
0
  6
Continuous
 62
     7
 48
3.0
370
    15
100
AcDbLine
 10
42.0506887689
 20
22.9064297087
 30
0.0
 11
42.0413690055
 21
22.9010495238
 31
0.0
  0
LINE
  5
33D
330
1F
100
AcDbEntity
  8
0
  6
Continuous
 62
     7
 48
3.0
370
    15
100
AcDbLine
 10
42.0158271441
 20
22.9448492867
 30
0.0
 11
42.025187478
 21
22.9502528924
 31
0.0
  0
LINE
  5
33E
330
1F
100
AcDbEntity
  8
0
  6
Continuous
 62
     7
 48
3.0
370
    15
100
AcDbLine
 10
42.0981663226
 20
22.8567765458
 30
0.0
 11
42.0893793269
 21
22.8718447426
 31
0.0
  0
LINE
  5
33F
330
1F
100
AcDbEntity
  8
0
  6
Continuous
 62
     7
 48
3.0
370
    15
100
AcDbLine
 10
42.0140284776
 20
23.001057826
 30
0.0
 11
42.005383852
 21
23.0158818737
 31
0.0
  0
ARC
  5
340
330
1F
100
AcDbEntity
  8
0
  6
Continuous
 62
     7
 48
9.0
370
    15
100
AcDbCircle
 10
38.7686201147
 20
24.8719595307
 30
0.0
 40
0.1265342629857636
100
AcDbArc
 50
295.2935001268
 51
301.0298904421
  0
ARC
  5
341
330
1F
100
AcDbEntity
  8
0
  6
Continuous
 62
     7
 48
9.0
370
    15
100
AcDbCircle
 10
38.9666647568
 20
24.829249591
 30
0.0
 40
0.1599668929409582
100
AcDbArc
 50
206.4183846394
 51
213.0840257969
  0
LWPOLYLINE
  5
342
330
1F
100
AcDbEntity
  8
0
  6
Continuous
 62
     7
 48
3.0
370
    15
100
AcDbPolyline
 90
        9
 70
   128
 43
0.0
 10
38.832633146
 20
24.741928722
 10
38.8320158772
 20
24.7415102626
 10
38.8319536526
 20
24.7414089551
 10
38.8324470943
 20
24.7416252992
 10
38.8334934644
 20
24.7421581419
 10
38.8350881585
 20
24.7430051089
 10
38.8372239583
 20
24.7441621732
 10
38.8398907836
 20
24.7456243738
 10
38.8430765626
 20
24.7473844507
  0
ARC
  5
343
330
1F
100
AcDbEntity
  8
0
  6
Continuous
 62
     7
 48
9.0
370
    15
100
AcDbCircle
 10
38.9208737094
 20
24.86156903
 30
0.0
 40
0.1381684269195331
100
AcDbArc
 50
235.7323013834
 51
248.244390604
  0
ARC
  5
344
330
1F
100
AcDbEntity
  8
0
  6
Continuous
 62
     7
 48
9.0
370
    15
100
AcDbCircle
 10
38.9868004044
 20
24.7517828034
 30
0.0
 40
0.1185968651893747
100
AcDbArc
 50
175.2060723094
 51
188.9942663223
  0
ARC
  5
345
330
1F
100
AcDbEntity
  8
0
  6
Continuous
 62
     7
 48
9.0
370
    15
100
AcDbCircle
 10
31.4766608002
 20
37.8601891549
 30
0.0
 40
15.04033268848512
100
AcDbArc
 50
299.4376194767
 51
299.6863687502
  0
ARC
  5
346
330
1F
100
AcDbEntity
  8
0
  6
Continuous
 62
     7
 48
9.0
370
    15
100
AcDbCircle
 10
38.7821309278
 20
24.7227227191
 30
0.0
 40
0.1599940211399064
100
AcDbArc
 50
26.4191924422
 51
33.0836573574
  0
ARC
  5
347
330
1F
100
AcDbEntity
  8
0
  6
Continuous
 62
     7
 48
9.0
370
    15
100
AcDbCircle
 10
31.4790919747
 20
37.8558942704
 30
0.0
 40
15.01679796608063
100
AcDbArc
 50
299.4372061578
 51
299.6863452856
  0
ARC
  5
348
330
1F
100
AcDbEntity
  8
0
  6
Continuous
 62
     7
 48
9.0
370
    15
100
AcDbCircle
 10
38.9118037728
 20
24.885509919
 30
0.0
 40
0.1197484128847279
100
AcDbArc
 50
230.2744257752
 51
244.0420420096
  0
ARC
  5
349
330
1F
100
AcDbEntity
  8
0
  6
Continuous
 62
     7
 48
9.0
370
    15
100
AcDbCircle
 10
38.971013994
 20
24.7719647996
 30
0.0
 40
0.1374262830715863
100
AcDbArc
 50
171.0225031266
 51
183.5178002457
  0
LINE
  5
34A
330
1F
100
AcDbEntity
  8
0
  6
Continuous
 62
     7
 48
3.0
370
    15
100
AcDbLine
 10
38.8917953742
 20
24.7750739768
 30
0.0
 11
38.868618424
 21
24.7616942082
 31
0.0
  0
LINE
  5
34B
330
1F
100
AcDbEntity
  8
0
  6
Continuous
 62
     7
 48
3.0
370
    15
100
AcDbLine
 10
38.9254156166
 20
24.7939096896
 30
0.0
 11
38.8917953742
 21
24.7750739768
 31
0.0
  0
LWPOLYLINE
  5
34C
330
1F
100
AcDbEntity
  8
0
  6
Continuous
 62
     7
 48
3.0
370
    15
100
AcDbPolyline
 90
       14
 70
   128
 43
0.0
 10
38.947585896
 20
24.6890295421
 10
38.9508856707
 20
24.6911736385
 10
38.9628390313
 20
24.7049769101
 10
38.9695120057
 20
24.7247848761
 10
38.9704095345
 20
24.7491284912
 10
38.9654651616
 20
24.7762023265
 10
38.9550455148
 20
24.8039982195
 10
38.9399234247
 20
24.8304550171
 10
38.9212204288
 20
24.8536103272
 10
38.9003235152
 20
24.8717468794
 10
38.8787828251
 20
24.8835194105
 10
38.8581955415
 20
24.8880551787
 10
38.8400887825
 20
24.8850174005
 10
38.8356949735
 20
24.8828512857
  0
LWPOLYLINE
  5
34D
330
1F
100
AcDbEntity
  8
0
  6
Continuous
 62
     7
 48
3.0
370
    15
100
AcDbPolyline
 90
       14
 70
   128
 43
0.0
 10
38.9617270763
 20
24.6971930717
 10
38.965026851
 20
24.6993371681
 10
38.9769802116
 20
24.7131404397
 10
38.983653186
 20
24.7329484057
 10
38.9845507148
 20
24.7572920208
 10
38.9796063419
 20
24.7843658561
 10
38.9691866951
 20
24.8121617491
 10
38.954064605
 20
24.8386185467
 10
38.9353616091
 20
24.8617738568
 10
38.9144646955
 20
24.879910409
 10
38.8929240054
 20
24.8916829401
 10
38.8723367218
 20
24.8962187083
 10
38.8542299628
 20
24.8931809301
 10
38.8498361538
 20
24.8910148153
  0
LINE
  5
34E
330
1F
100
AcDbEntity
  8
0
  6
Continuous
 62
     7
 48
3.0
370
    15
100
AcDbLine
 10
38.8917953742
 20
24.7750739768
 30
0.0
 11
38.8918651903
 21
24.7857726543
 31
0.0
  0
LINE
  5
34F
330
1F
100
AcDbEntity
  8
0
  6
Continuous
 62
     7
 48
3.0
370
    15
100
AcDbLine
 10
38.8918651903
 20
24.7857726543
 30
0.0
 11
38.8828030371
 21
24.7910827331
 31
0.0
  0
LINE
  5
350
330
1F
100
AcDbEntity
  8
0
  6
Continuous
 62
     7
 48
3.0
370
    15
100
AcDbLine
 10
38.8684945969
 20
24.7599174741
 30
0.0
 11
38.8573546372
 21
24.7664451524
 31
0.0
  0
LINE
  5
351
330
1F
100
AcDbEntity
  8
0
  6
Continuous
 62
     7
 48
3.0
370
    15
100
AcDbLine
 10
38.8573546372
 20
24.7664451524
 30
0.0
 11
38.8574356538
 21
24.7788301186
 31
0.0
  0
LINE
  5
352
330
1F
100
AcDbEntity
  8
0
  6
Continuous
 62
     7
 48
3.0
370
    15
100
AcDbLine
 10
38.8573546372
 20
24.7664451524
 30
0.0
 11
38.8569536614
 21
24.766213674
 31
0.0
  0
LINE
  5
353
330
1F
100
AcDbEntity
  8
0
  6
Continuous
 62
     7
 48
3.0
370
    15
100
AcDbLine
 10
38.8570236019
 20
24.7769122797
 30
0.0
 11
38.8569536614
 21
24.766213674
 31
0.0
  0
LINE
  5
354
330
1F
100
AcDbEntity
  8
0
  6
Continuous
 62
     7
 48
3.0
370
    15
100
AcDbLine
 10
38.8570236019
 20
24.7769122797
 30
0.0
 11
38.8338466517
 21
24.7635325111
 31
0.0
  0
LINE
  5
355
330
1F
100
AcDbEntity
  8
0
  6
Continuous
 62
     7
 48
3.0
370
    15
100
AcDbLine
 10
38.8430765626
 20
24.7473844507
 30
0.0
 11
38.8662535129
 21
24.7607642193
 31
0.0
  0
LINE
  5
356
330
1F
100
AcDbEntity
  8
0
  6
Continuous
 62
     7
 48
3.0
370
    15
100
AcDbLine
 10
38.8569536614
 20
24.766213674
 30
0.0
 11
38.8662535129
 21
24.7607642193
 31
0.0
  0
LINE
  5
357
330
1F
100
AcDbEntity
  8
0
  6
Continuous
 62
     7
 48
3.0
370
    15
100
AcDbLine
 10
38.8662535129
 20
24.7607642193
 30
0.0
 11
38.832633146
 21
24.741928722
 31
0.0
  0
ARC
  5
358
330
1F
100
AcDbEntity
  8
0
  6
Continuous
 62
     7
 48
9.0
370
    15
100
AcDbCircle
 10
42.1656493932
 20
25.9468419604
 30
0.0
 40
0.1516904606211102
100
AcDbArc
 50
174.6747752338
 51
202.0529837494
  0
ARC
  5
359
330
1F
100
AcDbEntity
  8
0
  6
Continuous
 62
     7
 48
9.0
370
    15
100
AcDbCircle
 10
42.0256326055
 20
25.9318979978
 30
0.0
 40
0.0310436056220915
100
AcDbArc
 50
110.7904573761
 51
130.7128255212
  0
ARC
  5
35A
330
1F
100
AcDbEntity
  8
0
  6
Continuous
 62
     7
 48
9.0
370
    15
100
AcDbCircle
 10
42.1564198964
 20
25.9413503103
 30
0.0
 40
0.1516907625504254
100
AcDbArc
 50
174.6747304274
 51
202.0528487177
  0
ARC
  5
35B
330
1F
100
AcDbEntity
  8
0
  6
Continuous
 62
     7
 48
9.0
370
    15
100
AcDbCircle
 10
42.1352799775
 20
25.875960081
 30
0.0
 40
0.1197503581052049
100
AcDbArc
 50
175.9602847863
 51
189.7289401508
  0
ARC
  5
35C
330
1F
100
AcDbEntity
  8
0
  6
Continuous
 62
     7
 48
9.0
370
    15
100
AcDbCircle
 10
42.0918601495
 20
25.9478818694
 30
0.0
 40
0.1185728037370732
100
AcDbArc
 50
231.0074448172
 51
244.7971697537
  0
ARC
  5
35D
330
1F
100
AcDbEntity
  8
0
  6
Continuous
 62
     7
 48
9.0
370
    15
100
AcDbCircle
 10
42.1612190278
 20
25.9357819438
 30
0.0
 40
0.1530499911648638
100
AcDbArc
 50
218.4567707953
 51
245.6710649319
  0
ARC
  5
35E
330
1F
100
AcDbEntity
  8
0
  6
Continuous
 62
     7
 48
9.0
370
    15
100
AcDbCircle
 10
42.0871485535
 20
25.8253443025
 30
0.0
 40
0.0310418737422028
100
AcDbArc
 50
290.7893059344
 51
310.7126592163
  0
ARC
  5
35F
330
1F
100
AcDbEntity
  8
0
  6
Continuous
 62
     7
 48
9.0
370
    15
100
AcDbCircle
 10
42.170448679
 20
25.9412726391
 30
0.0
 40
0.1530493295865534
100
AcDbArc
 50
218.4566152704
 51
245.6710085196
  0
ARC
  5
360
330
1F
100
AcDbEntity
  8
0
  6
Continuous
 62
     7
 48
9.0
370
    15
100
AcDbCircle
 10
42.1883851505
 20
25.856377361
 30
0.0
 40
0.1381698918133019
100
AcDbArc
 50
171.7578097983
 51
184.2707429796
  0
ARC
  5
361
330
1F
100
AcDbEntity
  8
0
  6
Continuous
 62
     7
 48
9.0
370
    15
100
AcDbCircle
 10
42.1009297508
 20
26.0044522596
 30
0.0
 40
0.1374107322633627
100
AcDbArc
 50
236.4846825269
 51
248.9804700762
  0
LWPOLYLINE
  5
362
330
1F
100
AcDbEntity
  8
0
  6
Continuous
 62
     7
 48
3.0
370
    15
100
AcDbPolyline
 90
        3
 70
   128
 43
0.0
 10
42.0143168268
 20
25.9813954743
 10
42.0011775882
 20
25.9683914756
 10
41.993697933
 20
25.9492436355
  0
ARC
  5
363
330
1F
100
AcDbEntity
  8
0
  6
Continuous
 62
     7
 48
9.0
370
    15
100
AcDbCircle
 10
42.1030114075
 20
25.8321327586
 30
0.0
 40
0.0462805089450312
100
AcDbArc
 50
248.6946272388
 51
303.4963490613
  0
LINE
  5
364
330
1F
100
AcDbEntity
  8
0
  6
Continuous
 62
     7
 48
3.0
370
    15
100
AcDbLine
 10
42.0172520893
 20
25.9852316366
 30
0.0
 11
42.0045534015
 21
25.9730225367
 31
0.0
  0
LWPOLYLINE
  5
365
330
1F
100
AcDbEntity
  8
0
  6
Continuous
 62
     7
 48
3.0
370
    15
100
AcDbPolyline
 90
       15
 70
   128
 43
0.0
 10
42.1122164059
 20
25.7865244803
 10
42.1219039171
 20
25.7883081778
 10
42.1370260073
 20
25.7973053818
 10
42.147445654
 20
25.8130710067
 10
42.1523900269
 20
25.8344361906
 10
42.1514924982
 20
25.8598160703
 10
42.1448195237
 20
25.8873284886
 10
42.1328661631
 20
25.9149328166
 10
42.1165188691
 20
25.9405819236
 10
42.0969900272
 20
25.9623734965
 10
42.0757279792
 20
25.9786912267
 10
42.0543096229
 20
25.988325156
 10
42.0343235541
 20
25.9905605505
 10
42.0172520893
 20
25.9852316366
 10
42.0172520893
 20
25.9852316366
  0
LWPOLYLINE
  5
366
330
1F
100
AcDbEntity
  8
0
  6
Continuous
 62
     7
 48
3.0
370
    15
100
AcDbPolyline
 90
       14
 70
   128
 43
0.0
 10
42.1437076932
 20
25.7998217206
 10
42.1511671876
 20
25.8054689114
 10
42.1615868343
 20
25.8212345363
 10
42.1665312072
 20
25.8425997202
 10
42.1656336785
 20
25.8679796
 10
42.158960704
 20
25.8954920182
 10
42.1470073434
 20
25.9230963462
 10
42.1306600494
 20
25.9487454532
 10
42.1111312075
 20
25.9705370262
 10
42.0898691595
 20
25.9868547563
 10
42.0684508032
 20
25.9964886856
 10
42.0484647344
 20
25.9987240801
 10
42.0313932696
 20
25.9933951663
 10
42.0313932696
 20
25.9933951663
  0
LINE
  5
367
330
1F
100
AcDbEntity
  8
0
  6
Continuous
 62
     7
 48
3.0
370
    15
100
AcDbLine
 10
42.0503572358
 20
25.8625035739
 30
0.0
 11
42.0395957266
 21
25.8686226497
 31
0.0
  0
LINE
  5
368
330
1F
100
AcDbEntity
  8
0
  6
Continuous
 62
     7
 48
3.0
370
    15
100
AcDbLine
 10
42.0395957266
 20
25.8686226497
 30
0.0
 11
42.0395118478
 21
25.8815396849
 31
0.0
  0
LINE
  5
369
330
1F
100
AcDbEntity
  8
0
  6
Continuous
 62
     7
 48
3.0
370
    15
100
AcDbLine
 10
42.0395957266
 20
25.8686226497
 30
0.0
 11
42.0172518404
 21
25.8557237988
 31
0.0
  0
LINE
  5
36A
330
1F
100
AcDbEntity
  8
0
  6
Continuous
 62
     7
 48
3.0
370
    15
100
AcDbLine
 10
42.0506887689
 20
25.8459766678
 30
0.0
 11
42.0413690055
 21
25.8405964829
 31
0.0
  0
LINE
  5
36B
330
1F
100
AcDbEntity
  8
0
  6
Continuous
 62
     7
 48
3.0
370
    15
100
AcDbLine
 10
42.0158271441
 20
25.8843962458
 30
0.0
 11
42.025187478
 21
25.8897998515
 31
0.0
  0
LINE
  5
36C
330
1F
100
AcDbEntity
  8
0
  6
Continuous
 62
     7
 48
3.0
370
    15
100
AcDbLine
 10
42.0981663226
 20
25.7963235049
 30
0.0
 11
42.0893793269
 21
25.811391558
 31
0.0
  0
LINE
  5
36D
330
1F
100
AcDbEntity
  8
0
  6
Continuous
 62
     7
 48
3.0
370
    15
100
AcDbLine
 10
42.0140284776
 20
25.9406046414
 30
0.0
 11
42.005383852
 21
25.9554286891
 31
0.0
  0
ARC
  5
36E
330
1F
100
AcDbEntity
  8
0
  6
Continuous
 62
     7
 48
9.0
370
    15
100
AcDbCircle
 10
38.7686639695
 20
27.8114245694
 30
0.0
 40
0.1264414590653565
100
AcDbArc
 50
295.2913932026
 51
301.0319973663
  0
ARC
  5
36F
330
1F
100
AcDbEntity
  8
0
  6
Continuous
 62
     7
 48
9.0
370
    15
100
AcDbCircle
 10
38.9666723473
 20
27.7688015221
 30
0.0
 40
0.1599759668772322
100
AcDbArc
 50
206.4188159548
 51
213.0840338448
  0
LWPOLYLINE
  5
370
330
1F
100
AcDbEntity
  8
0
  6
Continuous
 62
     7
 48
3.0
370
    15
100
AcDbPolyline
 90
        9
 70
   128
 43
0.0
 10
38.832633146
 20
27.6814756812
 10
38.8320158772
 20
27.6810572217
 10
38.8319536526
 20
27.6809559143
 10
38.8324470943
 20
27.6811722583
 10
38.8334934644
 20
27.6817051011
 10
38.8350881585
 20
27.6825519243
 10
38.8372239583
 20
27.6837091323
 10
38.8398907836
 20
27.6851711892
 10
38.8430765626
 20
27.6869314098
  0
ARC
  5
371
330
1F
100
AcDbEntity
  8
0
  6
Continuous
 62
     7
 48
9.0
370
    15
100
AcDbCircle
 10
38.9208695373
 20
27.8011081464
 30
0.0
 40
0.1381595963708165
100
AcDbArc
 50
235.7318999279
 51
248.2447920594
  0
ARC
  5
372
330
1F
100
AcDbEntity
  8
0
  6
Continuous
 62
     7
 48
9.0
370
    15
100
AcDbCircle
 10
38.9867994308
 20
27.6913297268
 30
0.0
 40
0.1185958980133322
100
AcDbArc
 50
175.2060158136
 51
188.9943228181
  0
ARC
  5
373
330
1F
100
AcDbEntity
  8
0
  6
Continuous
 62
     7
 48
9.0
370
    15
100
AcDbCircle
 10
31.4825464367
 20
40.7894177407
 30
0.0
 40
15.02845385985012
100
AcDbArc
 50
299.4374116193
 51
299.6863572398
  0
ARC
  5
374
330
1F
100
AcDbEntity
  8
0
  6
Continuous
 62
     7
 48
9.0
370
    15
100
AcDbCircle
 10
38.7821385209
 20
27.6622746517
 30
0.0
 40
0.1599849442271987
100
AcDbArc
 50
26.4187611101
 51
33.0836493263
  0
ARC
  5
375
330
1F
100
AcDbEntity
  8
0
  6
Continuous
 62
     7
 48
9.0
370
    15
100
AcDbCircle
 10
31.4790919736
 20
40.7954412314
 30
0.0
 40
15.01679796825362
100
AcDbArc
 50
299.4372061578
 51
299.6863452856
  0
ARC
  5
376
330
1F
100
AcDbEntity
  8
0
  6
Continuous
 62
     7
 48
9.0
370
    15
100
AcDbCircle
 10
38.9117994528
 20
27.8250501855
 30
0.0
 40
0.119740504510776
100
AcDbArc
 50
230.2739689271
 51
244.0424988577
  0
ARC
  5
377
330
1F
100
AcDbEntity
  8
0
  6
Continuous
 62
     7
 48
9.0
370
    15
100
AcDbCircle
 10
38.9710153177
 20
27.7115116956
 30
0.0
 40
0.1374276003776758
100
AcDbArc
 50
171.0225632516
 51
183.5177401207
  0
LINE
  5
378
330
1F
100
AcDbEntity
  8
0
  6
Continuous
 62
     7
 48
3.0
370
    15
100
AcDbLine
 10
38.8917953742
 20
27.7146209359
 30
0.0
 11
38.868618424
 21
27.7012411673
 31
0.0
  0
LINE
  5
379
330
1F
100
AcDbEntity
  8
0
  6
Continuous
 62
     7
 48
3.0
370
    15
100
AcDbLine
 10
38.9254156166
 20
27.733456505
 30
0.0
 11
38.8917953742
 21
27.7146209359
 31
0.0
  0
LWPOLYLINE
  5
37A
330
1F
100
AcDbEntity
  8
0
  6
Continuous
 62
     7
 48
3.0
370
    15
100
AcDbPolyline
 90
       14
 70
   128
 43
0.0
 10
38.947585896
 20
27.6285765012
 10
38.9508856707
 20
27.6307205976
 10
38.9628390313
 20
27.6445238692
 10
38.9695120057
 20
27.6643318352
 10
38.9704095345
 20
27.6886754503
 10
38.9654651616
 20
27.7157491419
 10
38.9550455148
 20
27.7435451786
 10
38.9399234247
 20
27.7700019762
 10
38.9212204288
 20
27.7931572863
 10
38.9003235152
 20
27.8112938385
 10
38.8787828251
 20
27.8230663696
 10
38.8581955415
 20
27.8276021378
 10
38.8400887825
 20
27.8245643596
 10
38.8356949735
 20
27.8223982448
  0
LWPOLYLINE
  5
37B
330
1F
100
AcDbEntity
  8
0
  6
Continuous
 62
     7
 48
3.0
370
    15
100
AcDbPolyline
 90
       14
 70
   128
 43
0.0
 10
38.9617270763
 20
27.6367400308
 10
38.965026851
 20
27.6388841273
 10
38.9769802116
 20
27.6526873989
 10
38.983653186
 20
27.6724953648
 10
38.9845507148
 20
27.6968389799
 10
38.9796063419
 20
27.7239126715
 10
38.9691866951
 20
27.7517087083
 10
38.954064605
 20
27.7781655058
 10
38.9353616091
 20
27.8013208159
 10
38.9144646955
 20
27.8194573681
 10
38.8929240054
 20
27.8312298992
 10
38.8723367218
 20
27.8357656675
 10
38.8542299628
 20
27.8327278892
 10
38.8498361538
 20
27.8305617744
  0
LINE
  5
37C
330
1F
100
AcDbEntity
  8
0
  6
Continuous
 62
     7
 48
3.0
370
    15
100
AcDbLine
 10
38.8917953742
 20
27.7146209359
 30
0.0
 11
38.8918651903
 21
27.7253196134
 31
0.0
  0
LINE
  5
37D
330
1F
100
AcDbEntity
  8
0
  6
Continuous
 62
     7
 48
3.0
370
    15
100
AcDbLine
 10
38.8918651903
 20
27.7253196134
 30
0.0
 11
38.8828030371
 21
27.7306296922
 31
0.0
  0
LINE
  5
37E
330
1F
100
AcDbEntity
  8
0
  6
Continuous
 62
     7
 48
3.0
370
    15
100
AcDbLine
 10
38.8684945969
 20
27.6994644332
 30
0.0
 11
38.8573546372
 21
27.7059921116
 31
0.0
  0
LINE
  5
37F
330
1F
100
AcDbEntity
  8
0
  6
Continuous
 62
     7
 48
3.0
370
    15
100
AcDbLine
 10
38.8573546372
 20
27.7059921116
 30
0.0
 11
38.8574356538
 21
27.7183770777
 31
0.0
  0
LINE
  5
380
330
1F
100
AcDbEntity
  8
0
  6
Continuous
 62
     7
 48
3.0
370
    15
100
AcDbLine
 10
38.8573546372
 20
27.7059921116
 30
0.0
 11
38.8569536614
 21
27.7057606331
 31
0.0
  0
LINE
  5
381
330
1F
100
AcDbEntity
  8
0
  6
Continuous
 62
     7
 48
3.0
370
    15
100
AcDbLine
 10
38.8570236019
 20
27.7164592388
 30
0.0
 11
38.8569536614
 21
27.7057606331
 31
0.0
  0
LINE
  5
382
330
1F
100
AcDbEntity
  8
0
  6
Continuous
 62
     7
 48
3.0
370
    15
100
AcDbLine
 10
38.8570236019
 20
27.7164592388
 30
0.0
 11
38.8338466517
 21
27.7030794703
 31
0.0
  0
LINE
  5
383
330
1F
100
AcDbEntity
  8
0
  6
Continuous
 62
     7
 48
3.0
370
    15
100
AcDbLine
 10
38.8430765626
 20
27.6869314098
 30
0.0
 11
38.8662535129
 21
27.7003111784
 31
0.0
  0
LINE
  5
384
330
1F
100
AcDbEntity
  8
0
  6
Continuous
 62
     7
 48
3.0
370
    15
100
AcDbLine
 10
38.8569536614
 20
27.7057606331
 30
0.0
 11
38.8662535129
 21
27.7003111784
 31
0.0
  0
LINE
  5
385
330
1F
100
AcDbEntity
  8
0
  6
Continuous
 62
     7
 48
3.0
370
    15
100
AcDbLine
 10
38.8662535129
 20
27.7003111784
 30
0.0
 11
38.832633146
 21
27.6814756812
 31
0.0
  0
LINE
  5
386
330
1F
100
AcDbEntity
  8
0
  6
Continuous
 62
     7
 48
3.0
370
    15
100
AcDbLine
 10
29.5005001516
 20
19.4036398396
 30
0.0
 11
29.5005001516
 21
19.3266395558
 31
0.0
  0
LINE
  5
387
330
1F
100
AcDbEntity
  8
0
  6
Continuous
 62
     7
 48
3.0
370
    15
100
AcDbLine
 10
22.56250014
 20
19.4036398396
 30
0.0
 11
22.56250014
 21
19.3266395558
 31
0.0
  0
LINE
  5
388
330
1F
100
AcDbEntity
  8
0
  6
Continuous
 62
     7
 48
3.0
370
    15
100
AcDbLine
 10
22.56250014
 20
19.4036398396
 30
0.0
 11
29.5005001516
 21
19.4036398396
 31
0.0
  0
LINE
  5
389
330
1F
100
AcDbEntity
  8
0
  6
Continuous
 62
     7
 48
3.0
370
    15
100
AcDbLine
 10
29.5005001516
 20
19.3266395558
 30
0.0
 11
29.5005001516
 21
18.903639589
 31
0.0
  0
LINE
  5
38A
330
1F
100
AcDbEntity
  8
0
  6
Continuous
 62
     7
 48
3.0
370
    15
100
AcDbLine
 10
22.56250014
 20
19.3266395558
 30
0.0
 11
22.56250014
 21
18.903639589
 31
0.0
  0
LINE
  5
38B
330
1F
100
AcDbEntity
  8
0
  6
Continuous
 62
     7
 48
3.0
370
    15
100
AcDbLine
 10
29.5005001516
 20
18.903639589
 30
0.0
 11
22.56250014
 21
18.903639589
 31
0.0
  0
LINE
  5
38C
330
1F
100
AcDbEntity
  8
0
  6
Continuous
 62
     7
 48
3.0
370
    15
100
AcDbLine
 10
22.56250014
 20
19.4036398396
 30
0.0
 11
22.5315001514
 21
19.4036398396
 31
0.0
  0
LINE
  5
38D
330
1F
100
AcDbEntity
  8
0
  6
Continuous
 62
     7
 48
3.0
370
    15
100
AcDbLine
 10
22.56250014
 20
19.3416398625
 30
0.0
 11
22.5315001514
 21
19.3416398625
 31
0.0
  0
LINE
  5
38E
330
1F
100
AcDbEntity
  8
0
  6
Continuous
 62
     7
 48
3.0
370
    15
100
AcDbLine
 10
29.5005001516
 20
19.4036398396
 30
0.0
 11
29.5315001402
 21
19.4036398396
 31
0.0
  0
LINE
  5
38F
330
1F
100
AcDbEntity
  8
0
  6
Continuous
 62
     7
 48
3.0
370
    15
100
AcDbLine
 10
29.5005001516
 20
19.3416398625
 30
0.0
 11
29.5315001402
 21
19.3416398625
 31
0.0
  0
LINE
  5
390
330
1F
100
AcDbEntity
  8
0
  6
Continuous
 62
     7
 48
3.0
370
    15
100
AcDbLine
 10
22.5315001514
 20
18.9656395661
 30
0.0
 11
22.56250014
 21
18.9656395661
 31
0.0
  0
LINE
  5
391
330
1F
100
AcDbEntity
  8
0
  6
Continuous
 62
     7
 48
3.0
370
    15
100
AcDbLine
 10
29.5005001516
 20
18.9656395661
 30
0.0
 11
29.5315001402
 21
18.9656395661
 31
0.0
  0
LINE
  5
392
330
1F
100
AcDbEntity
  8
0
  6
Continuous
 62
     7
 48
3.0
370
    15
100
AcDbLine
 10
29.5005001516
 20
9.4806398043
 30
0.0
 11
29.5005001516
 21
9.9036397711
 31
0.0
  0
LINE
  5
393
330
1F
100
AcDbEntity
  8
0
  6
Continuous
 62
     7
 48
3.0
370
    15
100
AcDbLine
 10
22.56250014
 20
9.4806398043
 30
0.0
 11
22.56250014
 21
9.9036397711
 31
0.0
  0
LINE
  5
394
330
1F
100
AcDbEntity
  8
0
  6
Continuous
 62
     7
 48
3.0
370
    15
100
AcDbLine
 10
22.56250014
 20
9.9036397711
 30
0.0
 11
29.5005001516
 21
9.9036397711
 31
0.0
  0
LINE
  5
395
330
1F
100
AcDbEntity
  8
0
  6
Continuous
 62
     7
 48
3.0
370
    15
100
AcDbLine
 10
29.5005001516
 20
9.4036395205
 30
0.0
 11
29.5005001516
 21
9.4806398043
 31
0.0
  0
LINE
  5
396
330
1F
100
AcDbEntity
  8
0
  6
Continuous
 62
     7
 48
3.0
370
    15
100
AcDbLine
 10
29.5005001516
 20
9.4036395205
 30
0.0
 11
22.56250014
 21
9.4036395205
 31
0.0
  0
LINE
  5
397
330
1F
100
AcDbEntity
  8
0
  6
Continuous
 62
     7
 48
3.0
370
    15
100
AcDbLine
 10
22.56250014
 20
9.4036395205
 30
0.0
 11
22.56250014
 21
9.4806398043
 31
0.0
  0
LINE
  5
398
330
1F
100
AcDbEntity
  8
0
  6
Continuous
 62
     7
 48
3.0
370
    15
100
AcDbLine
 10
22.56250014
 20
9.4036395205
 30
0.0
 11
22.5315001514
 21
9.4036395205
 31
0.0
  0
LINE
  5
399
330
1F
100
AcDbEntity
  8
0
  6
Continuous
 62
     7
 48
3.0
370
    15
100
AcDbLine
 10
22.56250014
 20
9.4656394976
 30
0.0
 11
22.5315001514
 21
9.4656394976
 31
0.0
  0
LINE
  5
39A
330
1F
100
AcDbEntity
  8
0
  6
Continuous
 62
     7
 48
3.0
370
    15
100
AcDbLine
 10
29.5005001516
 20
9.4036395205
 30
0.0
 11
29.5315001402
 21
9.4036395205
 31
0.0
  0
LINE
  5
39B
330
1F
100
AcDbEntity
  8
0
  6
Continuous
 62
     7
 48
3.0
370
    15
100
AcDbLine
 10
29.5005001516
 20
9.4656394976
 30
0.0
 11
29.5315001402
 21
9.4656394976
 31
0.0
  0
LINE
  5
39C
330
1F
100
AcDbEntity
  8
0
  6
Continuous
 62
     7
 48
3.0
370
    15
100
AcDbLine
 10
29.5315001402
 20
9.841639794
 30
0.0
 11
29.5005001516
 21
9.841639794
 31
0.0
  0
LINE
  5
39D
330
1F
100
AcDbEntity
  8
0
  6
Continuous
 62
     7
 48
3.0
370
    15
100
AcDbLine
 10
22.56250014
 20
9.841639794
 30
0.0
 11
22.5315001514
 21
9.841639794
 31
0.0
  0
LINE
  5
39E
330
1F
100
AcDbEntity
  8
0
  6
Continuous
 62
     7
 48
3.0
370
    15
100
AcDbLine
 10
22.0315001941
 20
19.4036398396
 30
0.0
 11
22.0315001941
 21
9.4036395205
 31
0.0
  0
LINE
  5
39F
330
1F
100
AcDbEntity
  8
0
  6
Continuous
 62
     7
 48
3.0
370
    15
100
AcDbLine
 10
22.0315001941
 20
19.4036398396
 30
0.0
 11
22.1085001846
 21
19.4036398396
 31
0.0
  0
LINE
  5
3A0
330
1F
100
AcDbEntity
  8
0
  6
Continuous
 62
     7
 48
3.0
370
    15
100
AcDbLine
 10
22.0315001941
 20
9.4036395205
 30
0.0
 11
22.1085001846
 21
9.4036395205
 31
0.0
  0
CIRCLE
  5
3A1
330
1F
100
AcDbEntity
  8
0
  6
Continuous
 62
     7
 48
9.0
370
    15
100
AcDbCircle
 10
22.2815001458
 20
17.40363968
 30
0.0
 40
0.0849999999999973
  0
CIRCLE
  5
3A2
330
1F
100
AcDbEntity
  8
0
  6
Continuous
 62
     7
 48
9.0
370
    15
100
AcDbCircle
 10
22.2815001458
 20
11.40363968
 30
0.0
 40
0.0849999999999973
  0
LINE
  5
3A3
330
1F
100
AcDbEntity
  8
0
  6
Continuous
 62
     7
 48
3.0
370
    15
100
AcDbLine
 10
22.1085001846
 20
9.4036395205
 30
0.0
 11
22.5315001514
 21
9.4036395205
 31
0.0
  0
LINE
  5
3A4
330
1F
100
AcDbEntity
  8
0
  6
Continuous
 62
     7
 48
3.0
370
    15
100
AcDbLine
 10
22.5315001514
 20
19.4036398396
 30
0.0
 11
22.5315001514
 21
9.4036395205
 31
0.0
  0
LINE
  5
3A5
330
1F
100
AcDbEntity
  8
0
  6
Continuous
 62
     7
 48
3.0
370
    15
100
AcDbLine
 10
22.1085001846
 20
19.4036398396
 30
0.0
 11
22.5315001514
 21
19.4036398396
 31
0.0
  0
LINE
  5
3A6
330
1F
100
AcDbEntity
  8
0
  6
Continuous
 62
     7
 48
3.0
370
    15
100
AcDbLine
 10
29.5315001402
 20
19.4036398396
 30
0.0
 11
29.5315001402
 21
9.4036395205
 31
0.0
  0
LINE
  5
3A7
330
1F
100
AcDbEntity
  8
0
  6
Continuous
 62
     7
 48
3.0
370
    15
100
AcDbLine
 10
29.5315001402
 20
19.4036398396
 30
0.0
 11
29.954500107
 21
19.4036398396
 31
0.0
  0
LINE
  5
3A8
330
1F
100
AcDbEntity
  8
0
  6
Continuous
 62
     7
 48
3.0
370
    15
100
AcDbLine
 10
29.5315001402
 20
9.4036395205
 30
0.0
 11
29.954500107
 21
9.4036395205
 31
0.0
  0
CIRCLE
  5
3A9
330
1F
100
AcDbEntity
  8
0
  6
Continuous
 62
     7
 48
9.0
370
    15
100
AcDbCircle
 10
29.7815001458
 20
11.40363968
 30
0.0
 40
0.0850000000000009
  0
CIRCLE
  5
3AA
330
1F
100
AcDbEntity
  8
0
  6
Continuous
 62
     7
 48
9.0
370
    15
100
AcDbCircle
 10
29.7815001458
 20
17.40363968
 30
0.0
 40
0.0850000000000009
  0
LINE
  5
3AB
330
1F
100
AcDbEntity
  8
0
  6
Continuous
 62
     7
 48
3.0
370
    15
100
AcDbLine
 10
30.0315000974
 20
19.4036398396
 30
0.0
 11
30.0315000974
 21
9.4036395205
 31
0.0
  0
LINE
  5
3AC
330
1F
100
AcDbEntity
  8
0
  6
Continuous
 62
     7
 48
3.0
370
    15
100
AcDbLine
 10
29.954500107
 20
9.4036395205
 30
0.0
 11
30.0315000974
 21
9.4036395205
 31
0.0
  0
LINE
  5
3AD
330
1F
100
AcDbEntity
  8
0
  6
Continuous
 62
     7
 48
3.0
370
    15
100
AcDbLine
 10
29.954500107
 20
19.4036398396
 30
0.0
 11
30.0315000974
 21
19.4036398396
 31
0.0
  0
CIRCLE
  5
3AE
330
1F
100
AcDbEntity
  8
0
  6
Continuous
 62
     7
 48
9.0
370
    15
100
AcDbCircle
 10
24.0315001458
 20
17.40363968
 30
0.0
 40
0.0850000000000009
  0
CIRCLE
  5
3AF
330
1F
100
AcDbEntity
  8
0
  6
Continuous
 62
     7
 48
9.0
370
    15
100
AcDbCircle
 10
24.0315001458
 20
17.40363968
 30
0.0
 40
0.6416128499307305
  0
ARC
  5
3B0
330
1F
100
AcDbEntity
  8
0
  6
Continuous
 62
     7
 48
9.0
370
    15
100
AcDbCircle
 10
29.5315001458
 20
17.90363968
 30
0.0
 40
0.140500000000003
100
AcDbArc
 50
90.0
 51
180.0
  0
ARC
  5
3B1
330
1F
100
AcDbEntity
  8
0
  6
Continuous
 62
     7
 48
9.0
370
    15
100
AcDbCircle
 10
29.5315001458
 20
17.90363968
 30
0.0
 40
0.140500000000003
100
AcDbArc
 50
180.0
 51
270.0
  0
ARC
  5
3B2
330
1F
100
AcDbEntity
  8
0
  6
Continuous
 62
     7
 48
9.0
370
    15
100
AcDbCircle
 10
22.5315001458
 20
17.90363968
 30
0.0
 40
0.1404999999999994
100
AcDbArc
 50
270.0
 51
0.0
  0
ARC
  5
3B3
330
1F
100
AcDbEntity
  8
0
  6
Continuous
 62
     7
 48
9.0
370
    15
100
AcDbCircle
 10
22.5315001458
 20
17.90363968
 30
0.0
 40
0.140500000000003
100
AcDbArc
 50
0.0
 51
90.0
  0
ARC
  5
3B4
330
1F
100
AcDbEntity
  8
0
  6
Continuous
 62
     7
 48
9.0
370
    15
100
AcDbCircle
 10
22.5315001458
 20
10.90363968
 30
0.0
 40
0.140500000000003
100
AcDbArc
 50
270.0
 51
90.0
  0
ARC
  5
3B5
330
1F
100
AcDbEntity
  8
0
  6
Continuous
 62
     7
 48
9.0
370
    15
100
AcDbCircle
 10
29.5315001458
 20
10.90363968
 30
0.0
 40
0.140500000000003
100
AcDbArc
 50
90.0
 51
270.0
  0
LINE
  5
3B6
330
1F
100
AcDbEntity
  8
0
  6
HIDDEN
 62
     7
 48
3.0
370
     0
100
AcDbLine
 10
22.56250014
 20
19.3416398625
 30
0.0
 11
29.5005001516
 21
19.3416398625
 31
0.0
  0
LINE
  5
3B7
330
1F
100
AcDbEntity
  8
0
  6
HIDDEN
 62
     7
 48
3.0
370
     0
100
AcDbLine
 10
22.5315001514
 20
19.3416398625
 30
0.0
 11
22.1705001617
 21
19.3416398625
 31
0.0
  0
LINE
  5
3B8
330
1F
100
AcDbEntity
  8
0
  6
HIDDEN
 62
     7
 48
3.0
370
     0
100
AcDbLine
 10
29.5315001402
 20
19.3416398625
 30
0.0
 11
29.8925001299
 21
19.3416398625
 31
0.0
  0
ARC
  5
3B9
330
1F
100
AcDbEntity
  8
0
  6
HIDDEN
 62
     7
 48
9.0
370
     0
100
AcDbCircle
 10
29.8925001458
 20
19.32663968
 30
0.0
 40
0.0770000000000017
100
AcDbArc
 50
0.0
 51
90.0
  0
ARC
  5
3BA
330
1F
100
AcDbEntity
  8
0
  6
HIDDEN
 62
     7
 48
9.0
370
     0
100
AcDbCircle
 10
29.8925001458
 20
19.32663968
 30
0.0
 40
0.014999999999997
100
AcDbArc
 50
0.0
 51
90.0
  0
LINE
  5
3BB
330
1F
100
AcDbEntity
  8
0
  6
HIDDEN
 62
     7
 48
3.0
370
     0
100
AcDbLine
 10
29.9695001203
 20
18.9656395661
 30
0.0
 11
29.9075001432
 21
18.9656395661
 31
0.0
  0
LINE
  5
3BC
330
1F
100
AcDbEntity
  8
0
  6
HIDDEN
 62
     7
 48
3.0
370
     0
100
AcDbLine
 10
29.9075001432
 20
18.9656395661
 30
0.0
 11
29.9075001432
 21
19.3266395558
 31
0.0
  0
LINE
  5
3BD
330
1F
100
AcDbEntity
  8
0
  6
HIDDEN
 62
     7
 48
3.0
370
     0
100
AcDbLine
 10
22.0935001712
 20
18.9656395661
 30
0.0
 11
22.1555001483
 21
18.9656395661
 31
0.0
  0
LINE
  5
3BE
330
1F
100
AcDbEntity
  8
0
  6
HIDDEN
 62
     7
 48
3.0
370
     0
100
AcDbLine
 10
22.1555001483
 20
18.9656395661
 30
0.0
 11
22.1555001483
 21
19.3266395558
 31
0.0
  0
ARC
  5
3BF
330
1F
100
AcDbEntity
  8
0
  6
HIDDEN
 62
     7
 48
9.0
370
     0
100
AcDbCircle
 10
22.1705001458
 20
19.32663968
 30
0.0
 40
0.0150000000000006
100
AcDbArc
 50
90.0
 51
180.0
  0
ARC
  5
3C0
330
1F
100
AcDbEntity
  8
0
  6
HIDDEN
 62
     7
 48
9.0
370
     0
100
AcDbCircle
 10
22.1705001458
 20
19.32663968
 30
0.0
 40
0.0769999999999982
100
AcDbArc
 50
90.0
 51
180.0
  0
LINE
  5
3C1
330
1F
100
AcDbEntity
  8
0
  6
HIDDEN
 62
     7
 48
3.0
370
     0
100
AcDbLine
 10
29.8925001299
 20
19.3416398625
 30
0.0
 11
29.8925001299
 21
19.4036398396
 31
0.0
  0
LINE
  5
3C2
330
1F
100
AcDbEntity
  8
0
  6
HIDDEN
 62
     7
 48
3.0
370
     0
100
AcDbLine
 10
22.1705001617
 20
19.3266395558
 30
0.0
 11
22.1705001617
 21
19.3416398625
 31
0.0
  0
LINE
  5
3C3
330
1F
100
AcDbEntity
  8
0
  6
HIDDEN
 62
     7
 48
3.0
370
     0
100
AcDbLine
 10
29.8925001299
 20
19.3266395558
 30
0.0
 11
29.8925001299
 21
19.3416398625
 31
0.0
  0
LINE
  5
3C4
330
1F
100
AcDbEntity
  8
0
  6
HIDDEN
 62
     7
 48
3.0
370
     0
100
AcDbLine
 10
22.1705001617
 20
19.3416398625
 30
0.0
 11
22.1705001617
 21
19.4036398396
 31
0.0
  0
LINE
  5
3C5
330
1F
100
AcDbEntity
  8
0
  6
HIDDEN
 62
     7
 48
3.0
370
     0
100
AcDbLine
 10
22.1705001617
 20
18.9656395661
 30
0.0
 11
22.5315001514
 21
18.9656395661
 31
0.0
  0
LINE
  5
3C6
330
1F
100
AcDbEntity
  8
0
  6
HIDDEN
 62
     7
 48
3.0
370
     0
100
AcDbLine
 10
22.56250014
 20
18.9656395661
 30
0.0
 11
29.5005001516
 21
18.9656395661
 31
0.0
  0
LINE
  5
3C7
330
1F
100
AcDbEntity
  8
0
  6
HIDDEN
 62
     7
 48
3.0
370
     0
100
AcDbLine
 10
29.5315001402
 20
18.9656395661
 30
0.0
 11
29.8925001299
 21
18.9656395661
 31
0.0
  0
LINE
  5
3C8
330
1F
100
AcDbEntity
  8
0
  6
HIDDEN
 62
     7
 48
3.0
370
     0
100
AcDbLine
 10
22.1705001617
 20
18.9656395661
 30
0.0
 11
22.1705001617
 21
19.3266395558
 31
0.0
  0
LINE
  5
3C9
330
1F
100
AcDbEntity
  8
0
  6
HIDDEN
 62
     7
 48
3.0
370
     0
100
AcDbLine
 10
29.8925001299
 20
18.9656395661
 30
0.0
 11
29.8925001299
 21
19.3266395558
 31
0.0
  0
LINE
  5
3CA
330
1F
100
AcDbEntity
  8
0
  6
HIDDEN
 62
     7
 48
3.0
370
     0
100
AcDbLine
 10
29.5005001516
 20
9.4656394976
 30
0.0
 11
22.56250014
 21
9.4656394976
 31
0.0
  0
LINE
  5
3CB
330
1F
100
AcDbEntity
  8
0
  6
HIDDEN
 62
     7
 48
3.0
370
     0
100
AcDbLine
 10
22.5315001514
 20
9.4656394976
 30
0.0
 11
22.1705001617
 21
9.4656394976
 31
0.0
  0
LINE
  5
3CC
330
1F
100
AcDbEntity
  8
0
  6
HIDDEN
 62
     7
 48
3.0
370
     0
100
AcDbLine
 10
29.5315001402
 20
9.4656394976
 30
0.0
 11
29.8925001299
 21
9.4656394976
 31
0.0
  0
LINE
  5
3CD
330
1F
100
AcDbEntity
  8
0
  6
HIDDEN
 62
     7
 48
3.0
370
     0
100
AcDbLine
 10
22.0935001712
 20
9.841639794
 30
0.0
 11
22.1555001483
 21
9.841639794
 31
0.0
  0
LINE
  5
3CE
330
1F
100
AcDbEntity
  8
0
  6
HIDDEN
 62
     7
 48
3.0
370
     0
100
AcDbLine
 10
22.1555001483
 20
9.841639794
 30
0.0
 11
22.1555001483
 21
9.4806398043
 31
0.0
  0
LINE
  5
3CF
330
1F
100
AcDbEntity
  8
0
  6
HIDDEN
 62
     7
 48
3.0
370
     0
100
AcDbLine
 10
29.9075001432
 20
9.841639794
 30
0.0
 11
29.9075001432
 21
9.4806398043
 31
0.0
  0
LINE
  5
3D0
330
1F
100
AcDbEntity
  8
0
  6
HIDDEN
 62
     7
 48
3.0
370
     0
100
AcDbLine
 10
29.9695001203
 20
9.841639794
 30
0.0
 11
29.9075001432
 21
9.841639794
 31
0.0
  0
ARC
  5
3D1
330
1F
100
AcDbEntity
  8
0
  6
HIDDEN
 62
     7
 48
9.0
370
     0
100
AcDbCircle
 10
22.1705001458
 20
9.48063968
 30
0.0
 40
0.0150000000000006
100
AcDbArc
 50
180.0
 51
270.0
  0
ARC
  5
3D2
330
1F
100
AcDbEntity
  8
0
  6
HIDDEN
 62
     7
 48
9.0
370
     0
100
AcDbCircle
 10
22.1705001458
 20
9.48063968
 30
0.0
 40
0.0770000000000017
100
AcDbArc
 50
180.0
 51
270.0
  0
ARC
  5
3D3
330
1F
100
AcDbEntity
  8
0
  6
HIDDEN
 62
     7
 48
9.0
370
     0
100
AcDbCircle
 10
29.8925001458
 20
9.48063968
 30
0.0
 40
0.0770000000000017
100
AcDbArc
 50
270.0
 51
0.0
  0
ARC
  5
3D4
330
1F
100
AcDbEntity
  8
0
  6
HIDDEN
 62
     7
 48
9.0
370
     0
100
AcDbCircle
 10
29.8925001458
 20
9.48063968
 30
0.0
 40
0.0150000000000041
100
AcDbArc
 50
270.0
 51
0.0
  0
LINE
  5
3D5
330
1F
100
AcDbEntity
  8
0
  6
HIDDEN
 62
     7
 48
3.0
370
     0
100
AcDbLine
 10
29.8925001299
 20
9.4806398043
 30
0.0
 11
29.8925001299
 21
9.4656394976
 31
0.0
  0
LINE
  5
3D6
330
1F
100
AcDbEntity
  8
0
  6
HIDDEN
 62
     7
 48
3.0
370
     0
100
AcDbLine
 10
22.1705001617
 20
9.4806398043
 30
0.0
 11
22.1705001617
 21
9.4656394976
 31
0.0
  0
LINE
  5
3D7
330
1F
100
AcDbEntity
  8
0
  6
HIDDEN
 62
     7
 48
3.0
370
     0
100
AcDbLine
 10
22.1705001617
 20
9.4656394976
 30
0.0
 11
22.1705001617
 21
9.4036395205
 31
0.0
  0
LINE
  5
3D8
330
1F
100
AcDbEntity
  8
0
  6
HIDDEN
 62
     7
 48
3.0
370
     0
100
AcDbLine
 10
29.8925001299
 20
9.4656394976
 30
0.0
 11
29.8925001299
 21
9.4036395205
 31
0.0
  0
LINE
  5
3D9
330
1F
100
AcDbEntity
  8
0
  6
HIDDEN
 62
     7
 48
3.0
370
     0
100
AcDbLine
 10
29.8925001299
 20
9.841639794
 30
0.0
 11
29.5315001402
 21
9.841639794
 31
0.0
  0
LINE
  5
3DA
330
1F
100
AcDbEntity
  8
0
  6
HIDDEN
 62
     7
 48
3.0
370
     0
100
AcDbLine
 10
29.5005001516
 20
9.841639794
 30
0.0
 11
22.56250014
 21
9.841639794
 31
0.0
  0
LINE
  5
3DB
330
1F
100
AcDbEntity
  8
0
  6
HIDDEN
 62
     7
 48
3.0
370
     0
100
AcDbLine
 10
22.5315001514
 20
9.841639794
 30
0.0
 11
22.1705001617
 21
9.841639794
 31
0.0
  0
LINE
  5
3DC
330
1F
100
AcDbEntity
  8
0
  6
HIDDEN
 62
     7
 48
3.0
370
     0
100
AcDbLine
 10
29.8925001299
 20
9.841639794
 30
0.0
 11
29.8925001299
 21
9.4806398043
 31
0.0
  0
LINE
  5
3DD
330
1F
100
AcDbEntity
  8
0
  6
HIDDEN
 62
     7
 48
3.0
370
     0
100
AcDbLine
 10
22.1705001617
 20
9.841639794
 30
0.0
 11
22.1705001617
 21
9.4806398043
 31
0.0
  0
LINE
  5
3DE
330
1F
100
AcDbEntity
  8
0
  6
HIDDEN
 62
     7
 48
3.0
370
     0
100
AcDbLine
 10
22.0935001712
 20
19.4036398396
 30
0.0
 11
22.0935001712
 21
9.4036395205
 31
0.0
  0
LINE
  5
3DF
330
1F
100
AcDbEntity
  8
0
  6
HIDDEN
 62
     7
 48
3.0
370
     0
100
AcDbLine
 10
29.9695001203
 20
19.4036398396
 30
0.0
 11
29.9695001203
 21
9.4036395205
 31
0.0
  0
CIRCLE
  5
3E0
330
1F
100
AcDbEntity
  8
0
  6
HIDDEN
 62
     7
 48
9.0
370
     0
100
AcDbCircle
 10
24.0315001458
 20
17.40363968
 30
0.0
 40
0.1469999999999985
  0
ARC
  5
3E1
330
1F
100
AcDbEntity
  8
0
  6
HIDDEN
 62
     7
 48
9.0
370
     0
100
AcDbCircle
 10
29.5315001458
 20
17.90363968
 30
0.0
 40
0.140500000000003
100
AcDbArc
 50
270.0
 51
90.0
  0
ARC
  5
3E2
330
1F
100
AcDbEntity
  8
0
  6
HIDDEN
 62
     7
 48
9.0
370
     0
100
AcDbCircle
 10
22.5315001458
 20
17.90363968
 30
0.0
 40
0.140500000000003
100
AcDbArc
 50
90.0
 51
270.0
  0
ARC
  5
3E3
330
1F
100
AcDbEntity
  8
0
  6
HIDDEN
 62
     7
 48
9.0
370
     0
100
AcDbCircle
 10
22.5315001458
 20
10.90363968
 30
0.0
 40
0.1404999999999994
100
AcDbArc
 50
90.0
 51
180.0
  0
ARC
  5
3E4
330
1F
100
AcDbEntity
  8
0
  6
HIDDEN
 62
     7
 48
9.0
370
     0
100
AcDbCircle
 10
22.5315001458
 20
10.90363968
 30
0.0
 40
0.140500000000003
100
AcDbArc
 50
180.0
 51
270.0
  0
ARC
  5
3E5
330
1F
100
AcDbEntity
  8
0
  6
HIDDEN
 62
     7
 48
9.0
370
     0
100
AcDbCircle
 10
29.5315001458
 20
10.90363968
 30
0.0
 40
0.140500000000003
100
AcDbArc
 50
270.0
 51
0.0
  0
ARC
  5
3E6
330
1F
100
AcDbEntity
  8
0
  6
HIDDEN
 62
     7
 48
9.0
370
     0
100
AcDbCircle
 10
29.5315001458
 20
10.90363968
 30
0.0
 40
0.1404999999999994
100
AcDbArc
 50
0.0
 51
90.0
  0
CIRCLE
  5
3E7
330
1F
100
AcDbEntity
  8
0
  6
HIDDEN
 62
     7
 48
9.0
370
     0
100
AcDbCircle
 10
24.0315001458
 20
17.40363968
 30
0.0
 40
0.625
  0
DIMENSION
  5
3E8
330
1F
100
AcDbEntity
  8
0
  6
Continuous
 62
     7
 48
3.0
370
     0
100
AcDbDimension
  2
*D14
 10
30.0315001458
 20
16.6151047793
 30
0.0
 11
27.7115391183
 21
16.6151047793
 31
0.0
 70
   160
 71
     2
 42
-1.0
  3
SLDDIMSTYLE3
100
AcDbAlignedDimension
 13
29.5315001458
 23
19.40363968
 33
0.0
 14
30.0315001458
 24
19.40363968
 34
0.0
100
AcDbRotatedDimension
  0
INSERT
  5
3FD
102
{ACAD_REACTORS
330
3FE
102
}
330
1F
100
AcDbEntity
  8
0
  6
Continuous
 62
     7
 48
3.0
370
     0
100
AcDbBlockReference
  2
SW_NOTE_5
 10
25.7824863527
 20
20.7528316149
 30
0.0
  0
LEADER
  5
3FE
330
1F
100
AcDbEntity
  8
0
  6
Continuous
 62
     7
 48
3.0
370
     0
100
AcDbLeader
  3
SLDDIMSTYLE1
 73
     2
 76
     3
 10
24.239733606
 20
18.0105217734
 30
0.0
 10
25.0324863527
 20
20.7528316149
 30
0.0
 10
25.7824863527
 20
20.7528316149
 30
0.0
340
3FD
  0
MTEXT
  5
3FF
330
1F
100
AcDbEntity
  8
0
  6
Continuous
 62
     7
 48
3.0
370
     0
100
AcDbMText
 10
23.8580501596
 20
8.6621332459
 30
0.0
 40
0.375
 41
0.0
 71
     1
 72
     1
  1
\LCOVER REMOVED
  7
SLDTEXTSTYLE0
 73
     1
 44
1.0
  0
ENDSEC
  0
SECTION
  2
OBJECTS
  0
DICTIONARY
  5
C
330
0
100
AcDbDictionary
281
     1
  3
ACAD_GROUP
350
D
  3
ACAD_LAYOUT
350
1A
  3
ACAD_MATERIAL
350
3B
  3
ACAD_MLEADERSTYLE
350
402
  3
ACAD_MLINESTYLE
350
17
  3
ACAD_PLOTSETTINGS
350
19
  3
ACAD_PLOTSTYLENAME
350
E
  3
ACAD_SCALELIST
350
58
  3
ACAD_VISUALSTYLE
350
2A
  3
AcDbVariableDictionary
350
400
  0
DICTIONARY
  5
D
102
{ACAD_REACTORS
330
C
102
}
330
C
100
AcDbDictionary
281
     1
  0
DICTIONARY
  5
1A
102
{ACAD_REACTORS
330
C
102
}
330
C
100
AcDbDictionary
281
     1
  3
Layout1
350
1E
  3
Layout2
350
26
  3
Model
350
22
  0
DICTIONARY
  5
3B
102
{ACAD_REACTORS
330
C
102
}
330
C
100
AcDbDictionary
281
     1
  3
ByBlock
350
3D
  3
ByLayer
350
3C
  3
Global
350
3E
  0
DICTIONARY
  5
402
102
{ACAD_REACTORS
330
C
102
}
330
C
100
AcDbDictionary
281
     1
  0
DICTIONARY
  5
17
102
{ACAD_REACTORS
330
C
102
}
330
C
100
AcDbDictionary
281
     1
  3
Standard
350
18
  0
DICTIONARY
  5
19
102
{ACAD_REACTORS
330
C
102
}
330
C
100
AcDbDictionary
281
     1
  0
ACDBDICTIONARYWDFLT
  5
E
102
{ACAD_REACTORS
330
C
102
}
330
C
100
AcDbDictionary
281
     1
  3
Normal
350
F
100
AcDbDictionaryWithDefault
340
F
  0
DICTIONARY
  5
58
102
{ACAD_REACTORS
330
C
102
}
330
C
100
AcDbDictionary
281
     1
  3
A0
350
59
  3
A1
350
5A
  3
A2
350
5B
  3
A3
350
5C
  3
A4
350
5D
  3
A5
350
5E
  3
A6
350
5F
  3
A7
350
60
  3
A8
350
61
  3
A9
350
62
  3
B0
350
63
  3
B1
350
64
  3
B2
350
65
  3
B3
350
66
  3
B4
350
67
  3
B5
350
68
  3
B6
350
69
  3
B7
350
6A
  3
B8
350
6B
  3
B9
350
6C
  3
C0
350
6D
  3
C1
350
6E
  3
C2
350
6F
  3
C3
350
70
  3
C4
350
71
  3
C5
350
72
  3
C6
350
73
  3
C7
350
74
  3
C8
350
75
  3
C9
350
76
  3
D0
350
77
  3
D1
350
78
  3
D2
350
79
  0
DICTIONARY
  5
2A
102
{ACAD_REACTORS
330
C
102
}
330
C
100
AcDbDictionary
281
     1
  3
2dWireframe
350
2F
  3
3D Hidden
350
31
  3
3dWireframe
350
30
  3
Basic
350
32
  3
Brighten
350
36
  3
ColorChange
350
3A
  3
Conceptual
350
34
  3
Dim
350
35
  3
Facepattern
350
39
  3
Flat
350
2B
  3
FlatWithEdges
350
2C
  3
Gouraud
350
2D
  3
GouraudWithEdges
350
2E
  3
Linepattern
350
38
  3
Realistic
350
33
  3
Thicken
350
37
  0
DICTIONARY
  5
400
102
{ACAD_REACTORS
330
C
102
}
330
C
100
AcDbDictionary
281
     1
  3
CANNOSCALE
350
403
  3
DIMASSOC
350
404
  3
HIDETEXT
350
405
  0
LAYOUT
  5
1E
102
{ACAD_REACTORS
330
1A
102
}
330
1A
100
AcDbPlotSettings
  1

  2
none_device
  4

  6

 40
0.0
 41
0.0
 42
0.0
 43
0.0
 44
0.0
 45
0.0
 46
0.0
 47
0.0
 48
0.0
 49
0.0
140
0.0
141
0.0
142
1.0
143
1.0
 70
   688
 72
     0
 73
     0
 74
     5
  7

 75
    16
147
1.0
148
0.0
149
0.0
100
AcDbLayout
  1
Layout1
 70
     1
 71
     1
 10
0.0
 20
0.0
 11
12.0
 21
9.0
 12
0.0
 22
0.0
 32
0.0
 14
1.0000000000E+20
 24
1.0000000000E+20
 34
1.0000000000E+20
 15
-1.0000000000E+20
 25
-1.0000000000E+20
 35
-1.0000000000E+20
146
0.0
 13
0.0
 23
0.0
 33
0.0
 16
1.0
 26
0.0
 36
0.0
 17
0.0
 27
1.0
 37
0.0
 76
     0
330
1B
  0
LAYOUT
  5
26
102
{ACAD_REACTORS
330
1A
102
}
330
1A
100
AcDbPlotSettings
  1

  2
none_device
  4

  6

 40
0.0
 41
0.0
 42
0.0
 43
0.0
 44
0.0
 45
0.0
 46
0.0
 47
0.0
 48
0.0
 49
0.0
140
0.0
141
0.0
142
1.0
143
1.0
 70
   688
 72
     0
 73
     0
 74
     5
  7

 75
    16
147
1.0
148
0.0
149
0.0
100
AcDbLayout
  1
Layout2
 70
     1
 71
     2
 10
0.0
 20
0.0
 11
0.0
 21
0.0
 12
0.0
 22
0.0
 32
0.0
 14
0.0
 24
0.0
 34
0.0
 15
0.0
 25
0.0
 35
0.0
146
0.0
 13
0.0
 23
0.0
 33
0.0
 16
1.0
 26
0.0
 36
0.0
 17
0.0
 27
1.0
 37
0.0
 76
     0
330
23
  0
LAYOUT
  5
22
102
{ACAD_REACTORS
330
1A
102
}
330
1A
100
AcDbPlotSettings
  1

  2
none_device
  4

  6

 40
0.0
 41
0.0
 42
0.0
 43
0.0
 44
0.0
 45
0.0
 46
0.0
 47
0.0
 48
0.0
 49
0.0
140
0.0
141
0.0
142
1.0
143
1.0
 70
  1712
 72
     0
 73
     0
 74
     0
  7

 75
     0
147
1.0
148
0.0
149
0.0
100
AcDbLayout
  1
Model
 70
     1
 71
     0
 10
0.0
 20
0.0
 11
51.0
 21
33.0
 12
0.0
 22
0.0
 32
0.0
 14
0.0
 24
0.0
 34
0.0
 15
51.0
 25
33.0
 35
0.0
146
0.0
 13
0.0
 23
0.0
 33
0.0
 16
1.0
 26
0.0
 36
0.0
 17
0.0
 27
1.0
 37
0.0
 76
     0
330
1F
331
29
  0
MATERIAL
  5
3D
102
{ACAD_REACTORS
330
3B
102
}
102
{ACAD_XDICTIONARY
360
428
102
}
330
3B
100
AcDbMaterial
  1
ByBlock
  0
MATERIAL
  5
3C
102
{ACAD_REACTORS
330
3B
102
}
102
{ACAD_XDICTIONARY
360
426
102
}
330
3B
100
AcDbMaterial
  1
ByLayer
  0
MATERIAL
  5
3E
102
{ACAD_REACTORS
330
3B
102
}
102
{ACAD_XDICTIONARY
360
42A
102
}
330
3B
100
AcDbMaterial
  1
Global
  0
MLINESTYLE
  5
18
102
{ACAD_REACTORS
330
17
102
}
330
17
100
AcDbMlineStyle
  2
Standard
 70
     0
  3

 62
   256
 51
90.0
 52
90.0
 71
     2
 49
0.5
 62
   256
  6
BYLAYER
 49
-0.5
 62
   256
  6
BYLAYER
  0
ACDBPLACEHOLDER
  5
F
102
{ACAD_REACTORS
330
E
102
}
330
E
  0
SCALE
  5
59
102
{ACAD_REACTORS
330
58
102
}
330
58
100
AcDbScale
 70
     0
300
1:1
140
1.0
141
1.0
290
     1
  0
SCALE
  5
5A
102
{ACAD_REACTORS
330
58
102
}
330
58
100
AcDbScale
 70
     0
300
1:2
140
1.0
141
2.0
290
     0
  0
SCALE
  5
5B
102
{ACAD_REACTORS
330
58
102
}
330
58
100
AcDbScale
 70
     0
300
1:4
140
1.0
141
4.0
290
     0
  0
SCALE
  5
5C
102
{ACAD_REACTORS
330
58
102
}
330
58
100
AcDbScale
 70
     0
300
1:5
140
1.0
141
5.0
290
     0
  0
SCALE
  5
5D
102
{ACAD_REACTORS
330
58
102
}
330
58
100
AcDbScale
 70
     0
300
1:8
140
1.0
141
8.0
290
     0
  0
SCALE
  5
5E
102
{ACAD_REACTORS
330
58
102
}
330
58
100
AcDbScale
 70
     0
300
1:10
140
1.0
141
10.0
290
     0
  0
SCALE
  5
5F
102
{ACAD_REACTORS
330
58
102
}
330
58
100
AcDbScale
 70
     0
300
1:16
140
1.0
141
16.0
290
     0
  0
SCALE
  5
60
102
{ACAD_REACTORS
330
58
102
}
330
58
100
AcDbScale
 70
     0
300
1:20
140
1.0
141
20.0
290
     0
  0
SCALE
  5
61
102
{ACAD_REACTORS
330
58
102
}
330
58
100
AcDbScale
 70
     0
300
1:30
140
1.0
141
30.0
290
     0
  0
SCALE
  5
62
102
{ACAD_REACTORS
330
58
102
}
330
58
100
AcDbScale
 70
     0
300
1:40
140
1.0
141
40.0
290
     0
  0
SCALE
  5
63
102
{ACAD_REACTORS
330
58
102
}
330
58
100
AcDbScale
 70
     0
300
1:50
140
1.0
141
50.0
290
     0
  0
SCALE
  5
64
102
{ACAD_REACTORS
330
58
102
}
330
58
100
AcDbScale
 70
     0
300
1:100
140
1.0
141
100.0
290
     0
  0
SCALE
  5
65
102
{ACAD_REACTORS
330
58
102
}
330
58
100
AcDbScale
 70
     0
300
2:1
140
2.0
141
1.0
290
     0
  0
SCALE
  5
66
102
{ACAD_REACTORS
330
58
102
}
330
58
100
AcDbScale
 70
     0
300
4:1
140
4.0
141
1.0
290
     0
  0
SCALE
  5
67
102
{ACAD_REACTORS
330
58
102
}
330
58
100
AcDbScale
 70
     0
300
8:1
140
8.0
141
1.0
290
     0
  0
SCALE
  5
68
102
{ACAD_REACTORS
330
58
102
}
330
58
100
AcDbScale
 70
     0
300
10:1
140
10.0
141
1.0
290
     0
  0
SCALE
  5
69
102
{ACAD_REACTORS
330
58
102
}
330
58
100
AcDbScale
 70
     0
300
100:1
140
100.0
141
1.0
290
     0
  0
SCALE
  5
6A
102
{ACAD_REACTORS
330
58
102
}
330
58
100
AcDbScale
 70
     0
300
1/128" = 1'-0"
140
0.0078125
141
12.0
290
     0
  0
SCALE
  5
6B
102
{ACAD_REACTORS
330
58
102
}
330
58
100
AcDbScale
 70
     0
300
1/64" = 1'-0"
140
0.015625
141
12.0
290
     0
  0
SCALE
  5
6C
102
{ACAD_REACTORS
330
58
102
}
330
58
100
AcDbScale
 70
     0
300
1/32" = 1'-0"
140
0.03125
141
12.0
290
     0
  0
SCALE
  5
6D
102
{ACAD_REACTORS
330
58
102
}
330
58
100
AcDbScale
 70
     0
300
1/16" = 1'-0"
140
0.0625
141
12.0
290
     0
  0
SCALE
  5
6E
102
{ACAD_REACTORS
330
58
102
}
330
58
100
AcDbScale
 70
     0
300
3/32" = 1'-0"
140
0.09375
141
12.0
290
     0
  0
SCALE
  5
6F
102
{ACAD_REACTORS
330
58
102
}
330
58
100
AcDbScale
 70
     0
300
1/8" = 1'-0"
140
0.125
141
12.0
290
     0
  0
SCALE
  5
70
102
{ACAD_REACTORS
330
58
102
}
330
58
100
AcDbScale
 70
     0
300
3/16" = 1'-0"
140
0.1875
141
12.0
290
     0
  0
SCALE
  5
71
102
{ACAD_REACTORS
330
58
102
}
330
58
100
AcDbScale
 70
     0
300
1/4" = 1'-0"
140
0.25
141
12.0
290
     0
  0
SCALE
  5
72
102
{ACAD_REACTORS
330
58
102
}
330
58
100
AcDbScale
 70
     0
300
3/8" = 1'-0"
140
0.375
141
12.0
290
     0
  0
SCALE
  5
73
102
{ACAD_REACTORS
330
58
102
}
330
58
100
AcDbScale
 70
     0
300
1/2" = 1'-0"
140
0.5
141
12.0
290
     0
  0
SCALE
  5
74
102
{ACAD_REACTORS
330
58
102
}
330
58
100
AcDbScale
 70
     0
300
3/4" = 1'-0"
140
0.75
141
12.0
290
     0
  0
SCALE
  5
75
102
{ACAD_REACTORS
330
58
102
}
330
58
100
AcDbScale
 70
     0
300
1" = 1'-0"
140
1.0
141
12.0
290
     0
  0
SCALE
  5
76
102
{ACAD_REACTORS
330
58
102
}
330
58
100
AcDbScale
 70
     0
300
1-1/2" = 1'-0"
140
1.5
141
12.0
290
     0
  0
SCALE
  5
77
102
{ACAD_REACTORS
330
58
102
}
330
58
100
AcDbScale
 70
     0
300
3" = 1'-0"
140
3.0
141
12.0
290
     0
  0
SCALE
  5
78
102
{ACAD_REACTORS
330
58
102
}
330
58
100
AcDbScale
 70
     0
300
6" = 1'-0"
140
6.0
141
12.0
290
     0
  0
SCALE
  5
79
102
{ACAD_REACTORS
330
58
102
}
330
58
100
AcDbScale
 70
     0
300
1'-0" = 1'-0"
140
12.0
141
12.0
290
     0
  0
VISUALSTYLE
  5
2F
102
{ACAD_REACTORS
330
2A
102
}
102
{ACAD_XDICTIONARY
360
40E
102
}
330
2A
100
AcDbVisualStyle
  2
2dWireframe
 70
     4
 71
     0
 72
     2
 73
     0
 90
        0
 40
-0.6
 41
-30.0
 62
     5
 63
     7
 74
     1
 91
        4
 64
     7
 65
   257
 75
     1
175
     1
 42
1.0
 92
        0
 66
   257
 43
1.0
 76
     1
 77
     6
 78
     2
 67
     7
 79
     5
170
     0
171
     0
290
     0
174
     0
 93
        1
 44
0.0
173
     0
291
     0
 45
0.0
1001
ACAD
1000
AcDbSavedByObjectVersion
1070
     0
  0
VISUALSTYLE
  5
31
102
{ACAD_REACTORS
330
2A
102
}
102
{ACAD_XDICTIONARY
360
412
102
}
330
2A
100
AcDbVisualStyle
  2
3D Hidden
 70
     6
 71
     1
 72
     2
 73
     2
 90
        0
 40
-0.6
 41
-30.0
 62
     5
 63
     7
 74
     2
 91
        2
 64
     7
 65
   257
 75
     2
175
     1
 42
40.0
 92
        0
 66
   257
 43
1.0
 76
     1
 77
     6
 78
     2
 67
     7
 79
     3
170
     0
171
     0
290
     0
174
     0
 93
        1
 44
0.0
173
     0
291
     0
 45
0.0
1001
ACAD
1000
AcDbSavedByObjectVersion
1070
     0
  0
VISUALSTYLE
  5
30
102
{ACAD_REACTORS
330
2A
102
}
102
{ACAD_XDICTIONARY
360
410
102
}
330
2A
100
AcDbVisualStyle
  2
3dWireframe
 70
     5
 71
     0
 72
     2
 73
     0
 90
        0
 40
-0.6
 41
-30.0
 62
     5
 63
     7
 74
     1
 91
        4
 64
     7
 65
   257
 75
     1
175
     1
 42
1.0
 92
        0
 66
   257
 43
1.0
 76
     1
 77
     6
 78
     2
 67
     7
 79
     5
170
     0
171
     0
290
     0
174
     0
 93
        1
 44
0.0
173
     0
291
     0
 45
0.0
1001
ACAD
1000
AcDbSavedByObjectVersion
1070
     0
  0
VISUALSTYLE
  5
32
102
{ACAD_REACTORS
330
2A
102
}
102
{ACAD_XDICTIONARY
360
414
102
}
330
2A
100
AcDbVisualStyle
  2
Basic
 70
     7
 71
     1
 72
     0
 73
     1
 90
        0
 40
-0.6
 41
-30.0
 62
     5
 63
     7
 74
     0
 91
        4
 64
     7
 65
   257
 75
     1
175
     1
 42
1.0
 92
        8
 66
     7
 43
1.0
 76
     1
 77
     6
 78
     2
 67
     7
 79
     5
170
     0
171
     0
290
     0
174
     0
 93
        1
 44
0.0
173
     0
291
     1
 45
0.0
1001
ACAD
1000
AcDbSavedByObjectVersion
1070
     0
  0
VISUALSTYLE
  5
36
102
{ACAD_REACTORS
330
2A
102
}
102
{ACAD_XDICTIONARY
360
41C
102
}
330
2A
100
AcDbVisualStyle
  2
Brighten
 70
    12
 71
     2
 72
     2
 73
     0
 90
        0
 40
-0.6
 41
-30.0
 62
     5
 63
     7
 74
     1
 91
        4
 64
     7
 65
   257
 75
     1
175
     1
 42
1.0
 92
        8
 66
     7
 43
1.0
 76
     1
 77
     6
 78
     2
 67
     7
 79
     5
170
     0
171
     0
290
     0
174
     0
 93
        1
 44
50.0
173
     0
291
     1
 45
0.0
1001
ACAD
1000
AcDbSavedByObjectVersion
1070
     0
  0
VISUALSTYLE
  5
3A
102
{ACAD_REACTORS
330
2A
102
}
102
{ACAD_XDICTIONARY
360
424
102
}
330
2A
100
AcDbVisualStyle
  2
ColorChange
 70
    16
 71
     2
 72
     2
 73
     3
 90
        0
 40
-0.6
 41
-30.0
 62
     5
 63
     8
 74
     1
 91
        4
 64
     7
 65
   257
 75
     1
175
     1
 42
1.0
 92
        8
 66
     8
 43
1.0
 76
     1
 77
     6
 78
     2
 67
     7
 79
     5
170
     0
171
     0
290
     0
174
     0
 93
        1
 44
0.0
173
     0
291
     1
 45
0.0
1001
ACAD
1000
AcDbSavedByObjectVersion
1070
     0
  0
VISUALSTYLE
  5
34
102
{ACAD_REACTORS
330
2A
102
}
102
{ACAD_XDICTIONARY
360
418
102
}
330
2A
100
AcDbVisualStyle
  2
Conceptual
 70
     9
 71
     3
 72
     2
 73
     0
 90
        0
 40
-0.6
 41
-30.0
 62
     5
 63
     7
 74
     2
 91
        2
 64
     7
 65
   257
 75
     1
175
     1
 42
40.0
 92
        8
 66
     7
 43
1.0
 76
     1
 77
     6
 78
     2
 67
     7
 79
     3
170
     0
171
     0
290
     0
174
     0
 93
        1
 44
0.0
173
     0
291
     0
 45
0.0
1001
ACAD
1000
AcDbSavedByObjectVersion
1070
     0
  0
VISUALSTYLE
  5
35
102
{ACAD_REACTORS
330
2A
102
}
102
{ACAD_XDICTIONARY
360
41A
102
}
330
2A
100
AcDbVisualStyle
  2
Dim
 70
    11
 71
     2
 72
     2
 73
     0
 90
        0
 40
-0.6
 41
-30.0
 62
     5
 63
     7
 74
     1
 91
        4
 64
     7
 65
   257
 75
     1
175
     1
 42
1.0
 92
        8
 66
     7
 43
1.0
 76
     1
 77
     6
 78
     2
 67
     7
 79
     5
170
     0
171
     0
290
     0
174
     0
 93
        1
 44
-50.0
173
     0
291
     1
 45
0.0
1001
ACAD
1000
AcDbSavedByObjectVersion
1070
     0
  0
VISUALSTYLE
  5
39
102
{ACAD_REACTORS
330
2A
102
}
102
{ACAD_XDICTIONARY
360
422
102
}
330
2A
100
AcDbVisualStyle
  2
Facepattern
 70
    15
 71
     2
 72
     2
 73
     0
 90
        0
 40
-0.6
 41
-30.0
 62
     5
 63
     7
 74
     1
 91
        4
 64
     7
 65
   257
 75
     1
175
     1
 42
1.0
 92
        8
 66
     7
 43
1.0
 76
     1
 77
     6
 78
     2
 67
     7
 79
     5
170
     0
171
     0
290
     0
174
     0
 93
        1
 44
0.0
173
     0
291
     1
 45
0.0
1001
ACAD
1000
AcDbSavedByObjectVersion
1070
     0
  0
VISUALSTYLE
  5
2B
102
{ACAD_REACTORS
330
2A
102
}
102
{ACAD_XDICTIONARY
360
406
102
}
330
2A
100
AcDbVisualStyle
  2
Flat
 70
     0
 71
     2
 72
     1
 73
     1
 90
        2
 40
-0.6
 41
30.0
 62
     5
 63
     7
 74
     0
 91
        4
 64
     7
 65
   257
 75
     1
175
     1
 42
1.0
 92
        8
 66
     7
 43
1.0
 76
     1
 77
     6
 78
     2
 67
     7
 79
     5
170
     0
171
     0
290
     0
174
     0
 93
       13
 44
0.0
173
     0
291
     1
 45
0.0
1001
ACAD
1000
AcDbSavedByObjectVersion
1070
     0
  0
VISUALSTYLE
  5
2C
102
{ACAD_REACTORS
330
2A
102
}
102
{ACAD_XDICTIONARY
360
408
102
}
330
2A
100
AcDbVisualStyle
  2
FlatWithEdges
 70
     1
 71
     2
 72
     1
 73
     1
 90
        2
 40
-0.6
 41
30.0
 62
     5
 63
     7
 74
     1
 91
        4
 64
     7
 65
   257
 75
     1
175
     1
 42
1.0
 92
        0
 66
   257
 43
1.0
 76
     1
 77
     6
 78
     2
 67
     7
 79
     5
170
     0
171
     0
290
     0
174
     0
 93
       13
 44
0.0
173
     0
291
     1
 45
0.0
1001
ACAD
1000
AcDbSavedByObjectVersion
1070
     0
  0
VISUALSTYLE
  5
2D
102
{ACAD_REACTORS
330
2A
102
}
102
{ACAD_XDICTIONARY
360
40A
102
}
330
2A
100
AcDbVisualStyle
  2
Gouraud
 70
     2
 71
     2
 72
     2
 73
     1
 90
        2
 40
-0.6
 41
30.0
 62
     5
 63
     7
 74
     0
 91
        4
 64
     7
 65
   257
 75
     1
175
     1
 42
1.0
 92
        0
 66
     7
 43
1.0
 76
     1
 77
     6
 78
     2
 67
     7
 79
     5
170
     0
171
     0
290
     0
174
     0
 93
       13
 44
0.0
173
     0
291
     1
 45
0.0
1001
ACAD
1000
AcDbSavedByObjectVersion
1070
     0
  0
VISUALSTYLE
  5
2E
102
{ACAD_REACTORS
330
2A
102
}
102
{ACAD_XDICTIONARY
360
40C
102
}
330
2A
100
AcDbVisualStyle
  2
GouraudWithEdges
 70
     3
 71
     2
 72
     2
 73
     1
 90
        2
 40
-0.6
 41
30.0
 62
     5
 63
     7
 74
     1
 91
        4
 64
     7
 65
   257
 75
     1
175
     1
 42
1.0
 92
        0
 66
   257
 43
1.0
 76
     1
 77
     6
 78
     2
 67
     7
 79
     5
170
     0
171
     0
290
     0
174
     0
 93
       13
 44
0.0
173
     0
291
     1
 45
0.0
1001
ACAD
1000
AcDbSavedByObjectVersion
1070
     0
  0
VISUALSTYLE
  5
38
102
{ACAD_REACTORS
330
2A
102
}
102
{ACAD_XDICTIONARY
360
420
102
}
330
2A
100
AcDbVisualStyle
  2
Linepattern
 70
    14
 71
     2
 72
     2
 73
     0
 90
        0
 40
-0.6
 41
-30.0
 62
     5
 63
     7
 74
     1
 91
        4
 64
     7
 65
   257
 75
     7
175
     7
 42
1.0
 92
        8
 66
     7
 43
1.0
 76
     1
 77
     6
 78
     2
 67
     7
 79
     5
170
     0
171
     0
290
     0
174
     0
 93
        1
 44
0.0
173
     0
291
     1
 45
0.0
1001
ACAD
1000
AcDbSavedByObjectVersion
1070
     0
  0
VISUALSTYLE
  5
33
102
{ACAD_REACTORS
330
2A
102
}
102
{ACAD_XDICTIONARY
360
416
102
}
330
2A
100
AcDbVisualStyle
  2
Realistic
 70
     8
 71
     2
 72
     2
 73
     0
 90
        0
 40
-0.6
 41
-30.0
 62
     5
 63
     7
 74
     1
 91
        0
 64
     7
 65
   257
 75
     1
175
     1
 42
1.0
 92
        8
 66
     8
 43
1.0
 76
     1
 77
     6
 78
     2
 67
     7
 79
     5
170
     0
171
     0
290
     0
174
     0
 93
       13
 44
0.0
173
     0
291
     0
 45
0.0
1001
ACAD
1000
AcDbSavedByObjectVersion
1070
     0
  0
VISUALSTYLE
  5
37
102
{ACAD_REACTORS
330
2A
102
}
102
{ACAD_XDICTIONARY
360
41E
102
}
330
2A
100
AcDbVisualStyle
  2
Thicken
 70
    13
 71
     2
 72
     2
 73
     0
 90
        0
 40
-0.6
 41
-30.0
 62
     5
 63
     7
 74
     1
 91
        4
 64
     7
 65
   257
 75
     1
175
     1
 42
1.0
 92
       12
 66
     7
 43
1.0
 76
     1
 77
     6
 78
     2
 67
     7
 79
     5
170
     0
171
     0
290
     0
174
     0
 93
        1
 44
0.0
173
     0
291
     1
 45
0.0
1001
ACAD
1000
AcDbSavedByObjectVersion
1070
     0
  0
DICTIONARYVAR
  5
403
102
{ACAD_REACTORS
330
400
102
}
330
400
100
DictionaryVariables
280
     0
  1
1:1
  0
DICTIONARYVAR
  5
404
102
{ACAD_REACTORS
330
400
102
}
330
400
100
DictionaryVariables
280
     0
  1
2
  0
DICTIONARYVAR
  5
405
102
{ACAD_REACTORS
330
400
102
}
330
400
100
DictionaryVariables
280
     0
  1
1
  0
DICTIONARY
  5
428
330
3D
100
AcDbDictionary
280
     1
281
     1
  3
ACAD_XREC_ROUNDTRIP
360
429
  0
DICTIONARY
  5
426
330
3C
100
AcDbDictionary
280
     1
281
     1
  3
ACAD_XREC_ROUNDTRIP
360
427
  0
DICTIONARY
  5
42A
330
3E
100
AcDbDictionary
280
     1
281
     1
  3
ACAD_XREC_ROUNDTRIP
360
42B
  0
DICTIONARY
  5
40E
330
2F
100
AcDbDictionary
280
     1
281
     1
  3
ACAD_XREC_ROUNDTRIP
360
40F
  0
DICTIONARY
  5
412
330
31
100
AcDbDictionary
280
     1
281
     1
  3
ACAD_XREC_ROUNDTRIP
360
413
  0
DICTIONARY
  5
410
330
30
100
AcDbDictionary
280
     1
281
     1
  3
ACAD_XREC_ROUNDTRIP
360
411
  0
DICTIONARY
  5
414
330
32
100
AcDbDictionary
280
     1
281
     1
  3
ACAD_XREC_ROUNDTRIP
360
415
  0
DICTIONARY
  5
41C
330
36
100
AcDbDictionary
280
     1
281
     1
  3
ACAD_XREC_ROUNDTRIP
360
41D
  0
DICTIONARY
  5
424
330
3A
100
AcDbDictionary
280
     1
281
     1
  3
ACAD_XREC_ROUNDTRIP
360
425
  0
DICTIONARY
  5
418
330
34
100
AcDbDictionary
280
     1
281
     1
  3
ACAD_XREC_ROUNDTRIP
360
419
  0
DICTIONARY
  5
41A
330
35
100
AcDbDictionary
280
     1
281
     1
  3
ACAD_XREC_ROUNDTRIP
360
41B
  0
DICTIONARY
  5
422
330
39
100
AcDbDictionary
280
     1
281
     1
  3
ACAD_XREC_ROUNDTRIP
360
423
  0
DICTIONARY
  5
406
330
2B
100
AcDbDictionary
280
     1
281
     1
  3
ACAD_XREC_ROUNDTRIP
360
407
  0
DICTIONARY
  5
408
330
2C
100
AcDbDictionary
280
     1
281
     1
  3
ACAD_XREC_ROUNDTRIP
360
409
  0
DICTIONARY
  5
40A
330
2D
100
AcDbDictionary
280
     1
281
     1
  3
ACAD_XREC_ROUNDTRIP
360
40B
  0
DICTIONARY
  5
40C
330
2E
100
AcDbDictionary
280
     1
281
     1
  3
ACAD_XREC_ROUNDTRIP
360
40D
  0
DICTIONARY
  5
420
330
38
100
AcDbDictionary
280
     1
281
     1
  3
ACAD_XREC_ROUNDTRIP
360
421
  0
DICTIONARY
  5
416
330
33
100
AcDbDictionary
280
     1
281
     1
  3
ACAD_XREC_ROUNDTRIP
360
417
  0
DICTIONARY
  5
41E
330
37
100
AcDbDictionary
280
     1
281
     1
  3
ACAD_XREC_ROUNDTRIP
360
41F
  0
XRECORD
  5
429
102
{ACAD_REACTORS
330
428
102
}
330
428
100
AcDbXrecord
280
     1
102
MATERIAL
148
0.0
149
0.0
149
0.0
 93
        0
 94
      127
282
     0
 72
     1
 77
     1
171
     1
175
     1
179
     1
273
     0
  0
XRECORD
  5
427
102
{ACAD_REACTORS
330
426
102
}
330
426
100
AcDbXrecord
280
     1
102
MATERIAL
148
0.0
149
0.0
149
0.0
 93
        0
 94
      127
282
     0
 72
     1
 77
     1
171
     1
175
     1
179
     1
273
     0
  0
XRECORD
  5
42B
102
{ACAD_REACTORS
330
42A
102
}
330
42A
100
AcDbXrecord
280
     1
102
MATERIAL
148
0.0
149
0.0
149
0.0
 93
        0
 94
      127
282
     0
 72
     1
 77
     1
171
     1
175
     1
179
     1
273
     0
  0
XRECORD
  5
40F
102
{ACAD_REACTORS
330
40E
102
}
330
40E
100
AcDbXrecord
280
     1
102
RTVSPropertyOp0
 70
     1
102
RTVSPropertyOp1
 70
     1
102
RTVSPropertyOp2
 70
     1
102
RTVSPropertyOp3
 70
     1
102
RTVSPropertyOp4
 70
     1
102
RTVSPropertyOp5
 70
     1
102
RTVSPropertyOp6
 70
     1
102
RTVSPropertyOp7
 70
     1
102
RTVSPropertyOp8
 70
     1
102
RTVSPropertyOp9
 70
     1
102
RTVSPropertyOp10
 70
     1
102
RTVSPropertyOp11
 70
     1
102
RTVSPropertyOp12
 70
     1
102
RTVSPropertyOp13
 70
     1
102
RTVSPropertyOp14
 70
     1
102
RTVSPropertyOp15
 70
     1
102
RTVSPropertyOp16
 70
     1
102
RTVSPropertyOp17
 70
     1
102
RTVSPropertyOp18
 70
     1
102
RTVSPropertyOp19
 70
     1
102
RTVSPropertyOp20
 70
     1
102
RTVSPropertyOp21
 70
     1
102
RTVSPropertyOp22
 70
     1
102
RTVSPropertyOp23
 70
     1
102
RTVSPropertyOp24
 70
     1
102
RTVSPropertyOp25
 70
     1
102
RTVSPropertyOp26
 70
     1
102
RTVSPropertyOp27
 70
     1
  0
XRECORD
  5
413
102
{ACAD_REACTORS
330
412
102
}
330
412
100
AcDbXrecord
280
     1
102
RTVSPropertyOp0
 70
     1
102
RTVSPropertyOp1
 70
     1
102
RTVSPropertyOp2
 70
     1
102
RTVSPropertyOp3
 70
     1
102
RTVSPropertyOp4
 70
     1
102
RTVSPropertyOp5
 70
     1
102
RTVSPropertyOp6
 70
     1
102
RTVSPropertyOp7
 70
     1
102
RTVSPropertyOp8
 70
     1
102
RTVSPropertyOp9
 70
     1
102
RTVSPropertyOp10
 70
     1
102
RTVSPropertyOp11
 70
     1
102
RTVSPropertyOp12
 70
     1
102
RTVSPropertyOp13
 70
     1
102
RTVSPropertyOp14
 70
     1
102
RTVSPropertyOp15
 70
     1
102
RTVSPropertyOp16
 70
     1
102
RTVSPropertyOp17
 70
     1
102
RTVSPropertyOp18
 70
     1
102
RTVSPropertyOp19
 70
     1
102
RTVSPropertyOp20
 70
     1
102
RTVSPropertyOp21
 70
     1
102
RTVSPropertyOp22
 70
     1
102
RTVSPropertyOp23
 70
     1
102
RTVSPropertyOp24
 70
     1
102
RTVSPropertyOp25
 70
     1
102
RTVSPropertyOp26
 70
     1
102
RTVSPropertyOp27
 70
     1
  0
XRECORD
  5
411
102
{ACAD_REACTORS
330
410
102
}
330
410
100
AcDbXrecord
280
     1
102
RTVSPropertyOp0
 70
     1
102
RTVSPropertyOp1
 70
     1
102
RTVSPropertyOp2
 70
     1
102
RTVSPropertyOp3
 70
     1
102
RTVSPropertyOp4
 70
     1
102
RTVSPropertyOp5
 70
     1
102
RTVSPropertyOp6
 70
     1
102
RTVSPropertyOp7
 70
     1
102
RTVSPropertyOp8
 70
     1
102
RTVSPropertyOp9
 70
     1
102
RTVSPropertyOp10
 70
     1
102
RTVSPropertyOp11
 70
     1
102
RTVSPropertyOp12
 70
     1
102
RTVSPropertyOp13
 70
     1
102
RTVSPropertyOp14
 70
     1
102
RTVSPropertyOp15
 70
     1
102
RTVSPropertyOp16
 70
     1
102
RTVSPropertyOp17
 70
     1
102
RTVSPropertyOp18
 70
     1
102
RTVSPropertyOp19
 70
     1
102
RTVSPropertyOp20
 70
     1
102
RTVSPropertyOp21
 70
     1
102
RTVSPropertyOp22
 70
     1
102
RTVSPropertyOp23
 70
     1
102
RTVSPropertyOp24
 70
     1
102
RTVSPropertyOp25
 70
     1
102
RTVSPropertyOp26
 70
     1
102
RTVSPropertyOp27
 70
     1
  0
XRECORD
  5
415
102
{ACAD_REACTORS
330
414
102
}
330
414
100
AcDbXrecord
280
     1
102
RTVSPropertyOp0
 70
     1
102
RTVSPropertyOp1
 70
     1
102
RTVSPropertyOp2
 70
     1
102
RTVSPropertyOp3
 70
     1
102
RTVSPropertyOp4
 70
     1
102
RTVSPropertyOp5
 70
     1
102
RTVSPropertyOp6
 70
     1
102
RTVSPropertyOp7
 70
     1
102
RTVSPropertyOp8
 70
     1
102
RTVSPropertyOp9
 70
     1
102
RTVSPropertyOp10
 70
     1
102
RTVSPropertyOp11
 70
     1
102
RTVSPropertyOp12
 70
     1
102
RTVSPropertyOp13
 70
     1
102
RTVSPropertyOp14
 70
     1
102
RTVSPropertyOp15
 70
     1
102
RTVSPropertyOp16
 70
     1
102
RTVSPropertyOp17
 70
     1
102
RTVSPropertyOp18
 70
     1
102
RTVSPropertyOp19
 70
     1
102
RTVSPropertyOp20
 70
     1
102
RTVSPropertyOp21
 70
     1
102
RTVSPropertyOp22
 70
     1
102
RTVSPropertyOp23
 70
     1
102
RTVSPropertyOp24
 70
     1
102
RTVSPropertyOp25
 70
     1
102
RTVSPropertyOp26
 70
     1
102
RTVSPropertyOp27
 70
     1
  0
XRECORD
  5
41D
102
{ACAD_REACTORS
330
41C
102
}
330
41C
100
AcDbXrecord
280
     1
102
RTVSPropertyOp0
 70
     1
102
RTVSPropertyOp1
 70
     1
102
RTVSPropertyOp2
 70
     1
102
RTVSPropertyOp3
 70
     1
102
RTVSPropertyOp4
 70
     1
102
RTVSPropertyOp5
 70
     1
102
RTVSPropertyOp6
 70
     1
102
RTVSPropertyOp7
 70
     1
102
RTVSPropertyOp8
 70
     1
102
RTVSPropertyOp9
 70
     1
102
RTVSPropertyOp10
 70
     1
102
RTVSPropertyOp11
 70
     1
102
RTVSPropertyOp12
 70
     1
102
RTVSPropertyOp13
 70
     1
102
RTVSPropertyOp14
 70
     1
102
RTVSPropertyOp15
 70
     1
102
RTVSPropertyOp16
 70
     1
102
RTVSPropertyOp17
 70
     1
102
RTVSPropertyOp18
 70
     1
102
RTVSPropertyOp19
 70
     1
102
RTVSPropertyOp20
 70
     1
102
RTVSPropertyOp21
 70
     1
102
RTVSPropertyOp22
 70
     1
102
RTVSPropertyOp23
 70
     1
102
RTVSPropertyOp24
 70
     1
102
RTVSPropertyOp25
 70
     1
102
RTVSPropertyOp26
 70
     1
102
RTVSPropertyOp27
 70
     1
  0
XRECORD
  5
425
102
{ACAD_REACTORS
330
424
102
}
330
424
100
AcDbXrecord
280
     1
102
RTVSPropertyOp0
 70
     1
102
RTVSPropertyOp1
 70
     1
102
RTVSPropertyOp2
 70
     1
102
RTVSPropertyOp3
 70
     1
102
RTVSPropertyOp4
 70
     1
102
RTVSPropertyOp5
 70
     1
102
RTVSPropertyOp6
 70
     1
102
RTVSPropertyOp7
 70
     1
102
RTVSPropertyOp8
 70
     1
102
RTVSPropertyOp9
 70
     1
102
RTVSPropertyOp10
 70
     1
102
RTVSPropertyOp11
 70
     1
102
RTVSPropertyOp12
 70
     1
102
RTVSPropertyOp13
 70
     1
102
RTVSPropertyOp14
 70
     1
102
RTVSPropertyOp15
 70
     1
102
RTVSPropertyOp16
 70
     1
102
RTVSPropertyOp17
 70
     1
102
RTVSPropertyOp18
 70
     1
102
RTVSPropertyOp19
 70
     1
102
RTVSPropertyOp20
 70
     1
102
RTVSPropertyOp21
 70
     1
102
RTVSPropertyOp22
 70
     1
102
RTVSPropertyOp23
 70
     1
102
RTVSPropertyOp24
 70
     1
102
RTVSPropertyOp25
 70
     1
102
RTVSPropertyOp26
 70
     1
102
RTVSPropertyOp27
 70
     1
  0
XRECORD
  5
419
102
{ACAD_REACTORS
330
418
102
}
330
418
100
AcDbXrecord
280
     1
102
RTVSPropertyOp0
 70
     1
102
RTVSPropertyOp1
 70
     1
102
RTVSPropertyOp2
 70
     1
102
RTVSPropertyOp3
 70
     1
102
RTVSPropertyOp4
 70
     1
102
RTVSPropertyOp5
 70
     1
102
RTVSPropertyOp6
 70
     1
102
RTVSPropertyOp7
 70
     1
102
RTVSPropertyOp8
 70
     1
102
RTVSPropertyOp9
 70
     1
102
RTVSPropertyOp10
 70
     1
102
RTVSPropertyOp11
 70
     1
102
RTVSPropertyOp12
 70
     1
102
RTVSPropertyOp13
 70
     1
102
RTVSPropertyOp14
 70
     1
102
RTVSPropertyOp15
 70
     1
102
RTVSPropertyOp16
 70
     1
102
RTVSPropertyOp17
 70
     1
102
RTVSPropertyOp18
 70
     1
102
RTVSPropertyOp19
 70
     1
102
RTVSPropertyOp20
 70
     1
102
RTVSPropertyOp21
 70
     1
102
RTVSPropertyOp22
 70
     1
102
RTVSPropertyOp23
 70
     1
102
RTVSPropertyOp24
 70
     1
102
RTVSPropertyOp25
 70
     1
102
RTVSPropertyOp26
 70
     1
102
RTVSPropertyOp27
 70
     1
  0
XRECORD
  5
41B
102
{ACAD_REACTORS
330
41A
102
}
330
41A
100
AcDbXrecord
280
     1
102
RTVSPropertyOp0
 70
     1
102
RTVSPropertyOp1
 70
     1
102
RTVSPropertyOp2
 70
     1
102
RTVSPropertyOp3
 70
     1
102
RTVSPropertyOp4
 70
     1
102
RTVSPropertyOp5
 70
     1
102
RTVSPropertyOp6
 70
     1
102
RTVSPropertyOp7
 70
     1
102
RTVSPropertyOp8
 70
     1
102
RTVSPropertyOp9
 70
     1
102
RTVSPropertyOp10
 70
     1
102
RTVSPropertyOp11
 70
     1
102
RTVSPropertyOp12
 70
     1
102
RTVSPropertyOp13
 70
     1
102
RTVSPropertyOp14
 70
     1
102
RTVSPropertyOp15
 70
     1
102
RTVSPropertyOp16
 70
     1
102
RTVSPropertyOp17
 70
     1
102
RTVSPropertyOp18
 70
     1
102
RTVSPropertyOp19
 70
     1
102
RTVSPropertyOp20
 70
     1
102
RTVSPropertyOp21
 70
     1
102
RTVSPropertyOp22
 70
     1
102
RTVSPropertyOp23
 70
     1
102
RTVSPropertyOp24
 70
     1
102
RTVSPropertyOp25
 70
     1
102
RTVSPropertyOp26
 70
     1
102
RTVSPropertyOp27
 70
     1
  0
XRECORD
  5
423
102
{ACAD_REACTORS
330
422
102
}
330
422
100
AcDbXrecord
280
     1
102
RTVSPropertyOp0
 70
     1
102
RTVSPropertyOp1
 70
     1
102
RTVSPropertyOp2
 70
     1
102
RTVSPropertyOp3
 70
     1
102
RTVSPropertyOp4
 70
     1
102
RTVSPropertyOp5
 70
     1
102
RTVSPropertyOp6
 70
     1
102
RTVSPropertyOp7
 70
     1
102
RTVSPropertyOp8
 70
     1
102
RTVSPropertyOp9
 70
     1
102
RTVSPropertyOp10
 70
     1
102
RTVSPropertyOp11
 70
     1
102
RTVSPropertyOp12
 70
     1
102
RTVSPropertyOp13
 70
     1
102
RTVSPropertyOp14
 70
     1
102
RTVSPropertyOp15
 70
     1
102
RTVSPropertyOp16
 70
     1
102
RTVSPropertyOp17
 70
     1
102
RTVSPropertyOp18
 70
     1
102
RTVSPropertyOp19
 70
     1
102
RTVSPropertyOp20
 70
     1
102
RTVSPropertyOp21
 70
     1
102
RTVSPropertyOp22
 70
     1
102
RTVSPropertyOp23
 70
     1
102
RTVSPropertyOp24
 70
     1
102
RTVSPropertyOp25
 70
     1
102
RTVSPropertyOp26
 70
     1
102
RTVSPropertyOp27
 70
     1
  0
XRECORD
  5
407
102
{ACAD_REACTORS
330
406
102
}
330
406
100
AcDbXrecord
280
     1
102
RTVSPropertyOp0
 70
     1
102
RTVSPropertyOp1
 70
     1
102
RTVSPropertyOp2
 70
     1
102
RTVSPropertyOp3
 70
     1
102
RTVSPropertyOp4
 70
     1
102
RTVSPropertyOp5
 70
     1
102
RTVSPropertyOp6
 70
     1
102
RTVSPropertyOp7
 70
     1
102
RTVSPropertyOp8
 70
     1
102
RTVSPropertyOp9
 70
     1
102
RTVSPropertyOp10
 70
     1
102
RTVSPropertyOp11
 70
     1
102
RTVSPropertyOp12
 70
     1
102
RTVSPropertyOp13
 70
     1
102
RTVSPropertyOp14
 70
     1
102
RTVSPropertyOp15
 70
     1
102
RTVSPropertyOp16
 70
     1
102
RTVSPropertyOp17
 70
     1
102
RTVSPropertyOp18
 70
     1
102
RTVSPropertyOp19
 70
     1
102
RTVSPropertyOp20
 70
     1
102
RTVSPropertyOp21
 70
     1
102
RTVSPropertyOp22
 70
     1
102
RTVSPropertyOp23
 70
     1
102
RTVSPropertyOp24
 70
     1
102
RTVSPropertyOp25
 70
     1
102
RTVSPropertyOp26
 70
     1
102
RTVSPropertyOp27
 70
     1
  0
XRECORD
  5
409
102
{ACAD_REACTORS
330
408
102
}
330
408
100
AcDbXrecord
280
     1
102
RTVSPropertyOp0
 70
     1
102
RTVSPropertyOp1
 70
     1
102
RTVSPropertyOp2
 70
     1
102
RTVSPropertyOp3
 70
     1
102
RTVSPropertyOp4
 70
     1
102
RTVSPropertyOp5
 70
     1
102
RTVSPropertyOp6
 70
     1
102
RTVSPropertyOp7
 70
     1
102
RTVSPropertyOp8
 70
     1
102
RTVSPropertyOp9
 70
     1
102
RTVSPropertyOp10
 70
     1
102
RTVSPropertyOp11
 70
     1
102
RTVSPropertyOp12
 70
     1
102
RTVSPropertyOp13
 70
     1
102
RTVSPropertyOp14
 70
     1
102
RTVSPropertyOp15
 70
     1
102
RTVSPropertyOp16
 70
     1
102
RTVSPropertyOp17
 70
     1
102
RTVSPropertyOp18
 70
     1
102
RTVSPropertyOp19
 70
     1
102
RTVSPropertyOp20
 70
     1
102
RTVSPropertyOp21
 70
     1
102
RTVSPropertyOp22
 70
     1
102
RTVSPropertyOp23
 70
     1
102
RTVSPropertyOp24
 70
     1
102
RTVSPropertyOp25
 70
     1
102
RTVSPropertyOp26
 70
     1
102
RTVSPropertyOp27
 70
     1
  0
XRECORD
  5
40B
102
{ACAD_REACTORS
330
40A
102
}
330
40A
100
AcDbXrecord
280
     1
102
RTVSPropertyOp0
 70
     1
102
RTVSPropertyOp1
 70
     1
102
RTVSPropertyOp2
 70
     1
102
RTVSPropertyOp3
 70
     1
102
RTVSPropertyOp4
 70
     1
102
RTVSPropertyOp5
 70
     1
102
RTVSPropertyOp6
 70
     1
102
RTVSPropertyOp7
 70
     1
102
RTVSPropertyOp8
 70
     1
102
RTVSPropertyOp9
 70
     1
102
RTVSPropertyOp10
 70
     1
102
RTVSPropertyOp11
 70
     1
102
RTVSPropertyOp12
 70
     1
102
RTVSPropertyOp13
 70
     1
102
RTVSPropertyOp14
 70
     1
102
RTVSPropertyOp15
 70
     1
102
RTVSPropertyOp16
 70
     1
102
RTVSPropertyOp17
 70
     1
102
RTVSPropertyOp18
 70
     1
102
RTVSPropertyOp19
 70
     1
102
RTVSPropertyOp20
 70
     1
102
RTVSPropertyOp21
 70
     1
102
RTVSPropertyOp22
 70
     1
102
RTVSPropertyOp23
 70
     1
102
RTVSPropertyOp24
 70
     1
102
RTVSPropertyOp25
 70
     1
102
RTVSPropertyOp26
 70
     1
102
RTVSPropertyOp27
 70
     1
  0
XRECORD
  5
40D
102
{ACAD_REACTORS
330
40C
102
}
330
40C
100
AcDbXrecord
280
     1
102
RTVSPropertyOp0
 70
     1
102
RTVSPropertyOp1
 70
     1
102
RTVSPropertyOp2
 70
     1
102
RTVSPropertyOp3
 70
     1
102
RTVSPropertyOp4
 70
     1
102
RTVSPropertyOp5
 70
     1
102
RTVSPropertyOp6
 70
     1
102
RTVSPropertyOp7
 70
     1
102
RTVSPropertyOp8
 70
     1
102
RTVSPropertyOp9
 70
     1
102
RTVSPropertyOp10
 70
     1
102
RTVSPropertyOp11
 70
     1
102
RTVSPropertyOp12
 70
     1
102
RTVSPropertyOp13
 70
     1
102
RTVSPropertyOp14
 70
     1
102
RTVSPropertyOp15
 70
     1
102
RTVSPropertyOp16
 70
     1
102
RTVSPropertyOp17
 70
     1
102
RTVSPropertyOp18
 70
     1
102
RTVSPropertyOp19
 70
     1
102
RTVSPropertyOp20
 70
     1
102
RTVSPropertyOp21
 70
     1
102
RTVSPropertyOp22
 70
     1
102
RTVSPropertyOp23
 70
     1
102
RTVSPropertyOp24
 70
     1
102
RTVSPropertyOp25
 70
     1
102
RTVSPropertyOp26
 70
     1
102
RTVSPropertyOp27
 70
     1
  0
XRECORD
  5
421
102
{ACAD_REACTORS
330
420
102
}
330
420
100
AcDbXrecord
280
     1
102
RTVSPropertyOp0
 70
     1
102
RTVSPropertyOp1
 70
     1
102
RTVSPropertyOp2
 70
     1
102
RTVSPropertyOp3
 70
     1
102
RTVSPropertyOp4
 70
     1
102
RTVSPropertyOp5
 70
     1
102
RTVSPropertyOp6
 70
     1
102
RTVSPropertyOp7
 70
     1
102
RTVSPropertyOp8
 70
     1
102
RTVSPropertyOp9
 70
     1
102
RTVSPropertyOp10
 70
     1
102
RTVSPropertyOp11
 70
     1
102
RTVSPropertyOp12
 70
     1
102
RTVSPropertyOp13
 70
     1
102
RTVSPropertyOp14
 70
     1
102
RTVSPropertyOp15
 70
     1
102
RTVSPropertyOp16
 70
     1
102
RTVSPropertyOp17
 70
     1
102
RTVSPropertyOp18
 70
     1
102
RTVSPropertyOp19
 70
     1
102
RTVSPropertyOp20
 70
     1
102
RTVSPropertyOp21
 70
     1
102
RTVSPropertyOp22
 70
     1
102
RTVSPropertyOp23
 70
     1
102
RTVSPropertyOp24
 70
     1
102
RTVSPropertyOp25
 70
     1
102
RTVSPropertyOp26
 70
     1
102
RTVSPropertyOp27
 70
     1
  0
XRECORD
  5
417
102
{ACAD_REACTORS
330
416
102
}
330
416
100
AcDbXrecord
280
     1
102
RTVSPropertyOp0
 70
     1
102
RTVSPropertyOp1
 70
     1
102
RTVSPropertyOp2
 70
     1
102
RTVSPropertyOp3
 70
     1
102
RTVSPropertyOp4
 70
     1
102
RTVSPropertyOp5
 70
     1
102
RTVSPropertyOp6
 70
     1
102
RTVSPropertyOp7
 70
     1
102
RTVSPropertyOp8
 70
     1
102
RTVSPropertyOp9
 70
     1
102
RTVSPropertyOp10
 70
     1
102
RTVSPropertyOp11
 70
     1
102
RTVSPropertyOp12
 70
     1
102
RTVSPropertyOp13
 70
     1
102
RTVSPropertyOp14
 70
     1
102
RTVSPropertyOp15
 70
     1
102
RTVSPropertyOp16
 70
     1
102
RTVSPropertyOp17
 70
     1
102
RTVSPropertyOp18
 70
     1
102
RTVSPropertyOp19
 70
     1
102
RTVSPropertyOp20
 70
     1
102
RTVSPropertyOp21
 70
     1
102
RTVSPropertyOp22
 70
     1
102
RTVSPropertyOp23
 70
     1
102
RTVSPropertyOp24
 70
     1
102
RTVSPropertyOp25
 70
     1
102
RTVSPropertyOp26
 70
     1
102
RTVSPropertyOp27
 70
     1
  0
XRECORD
  5
41F
102
{ACAD_REACTORS
330
41E
102
}
330
41E
100
AcDbXrecord
280
     1
102
RTVSPropertyOp0
 70
     1
102
RTVSPropertyOp1
 70
     1
102
RTVSPropertyOp2
 70
     1
102
RTVSPropertyOp3
 70
     1
102
RTVSPropertyOp4
 70
     1
102
RTVSPropertyOp5
 70
     1
102
RTVSPropertyOp6
 70
     1
102
RTVSPropertyOp7
 70
     1
102
RTVSPropertyOp8
 70
     1
102
RTVSPropertyOp9
 70
     1
102
RTVSPropertyOp10
 70
     1
102
RTVSPropertyOp11
 70
     1
102
RTVSPropertyOp12
 70
     1
102
RTVSPropertyOp13
 70
     1
102
RTVSPropertyOp14
 70
     1
102
RTVSPropertyOp15
 70
     1
102
RTVSPropertyOp16
 70
     1
102
RTVSPropertyOp17
 70
     1
102
RTVSPropertyOp18
 70
     1
102
RTVSPropertyOp19
 70
     1
102
RTVSPropertyOp20
 70
     1
102
RTVSPropertyOp21
 70
     1
102
RTVSPropertyOp22
 70
     1
102
RTVSPropertyOp23
 70
     1
102
RTVSPropertyOp24
 70
     1
102
RTVSPropertyOp25
 70
     1
102
RTVSPropertyOp26
 70
     1
102
RTVSPropertyOp27
 70
     1
  0
ENDSEC
  0
EOF
